  0
SECTION
  2
HEADER
  9
$ACADVER
  1
AC1015
  9
$ACADMAINTVER
 70
     6
  9
$DWGCODEPAGE
  3
ANSI_1252
  9
$INSBASE
 10
0.0
 20
0.0
 30
0.0
  9
$EXTMIN
 10
0.0
 20
0.0
 30
0.0
  9
$EXTMAX
 10
297.0
 20
210.0
 30
0.0
  9
$LIMMIN
 10
0.0
 20
0.0
  9
$LIMMAX
 10
297.0
 20
210.0
  9
$ORTHOMODE
 70
     0
  9
$REGENMODE
 70
     1
  9
$FILLMODE
 70
     1
  9
$QTEXTMODE
 70
     0
  9
$MIRRTEXT
 70
     1
  9
$LTSCALE
 40
1.0
  9
$ATTMODE
 70
     1
  9
$TEXTSIZE
 40
2.0
  9
$TRACEWID
 40
1.0
  9
$TEXTSTYLE
  7
Standard
  9
$CLAYER
  8
0
  9
$CELTYPE
  6
ByLayer
  9
$CECOLOR
 62
   256
  9
$CELTSCALE
 40
1.0
  9
$DISPSILH
 70
     0
  9
$DIMSCALE
 40
1.0
  9
$DIMASZ
 40
3.0
  9
$DIMEXO
 40
0.0
  9
$DIMDLI
 40
3.75
  9
$DIMRND
 40
0.0
  9
$DIMDLE
 40
0.0
  9
$DIMEXE
 40
1.0
  9
$DIMTP
 40
0.0
  9
$DIMTM
 40
0.0
  9
$DIMTXT
 40
2.0
  9
$DIMCEN
 40
2.5
  9
$DIMTSZ
 40
0.0
  9
$DIMTOL
 70
     0
  9
$DIMLIM
 70
     0
  9
$DIMTIH
 70
     1
  9
$DIMTOH
 70
     1
  9
$DIMSE1
 70
     0
  9
$DIMSE2
 70
     0
  9
$DIMTAD
 70
     1
  9
$DIMZIN
 70
     0
  9
$DIMBLK
  1

  9
$DIMASO
 70
     1
  9
$DIMSHO
 70
     1
  9
$DIMPOST
  1

  9
$DIMAPOST
  1

  9
$DIMALT
 70
     0
  9
$DIMALTD
 70
     3
  9
$DIMALTF
 40
0.0393700787
  9
$DIMLFAC
 40
1.0
  9
$DIMTOFL
 70
     1
  9
$DIMTVP
 40
0.0
  9
$DIMTIX
 70
     0
  9
$DIMSOXD
 70
     0
  9
$DIMSAH
 70
     0
  9
$DIMBLK1
  1

  9
$DIMBLK2
  1

  9
$DIMSTYLE
  2
ISO-25
  9
$DIMCLRD
 70
     0
  9
$DIMCLRE
 70
     0
  9
$DIMCLRT
 70
     0
  9
$DIMTFAC
 40
1.0
  9
$DIMGAP
 40
1.524
  9
$DIMJUST
 70
     0
  9
$DIMSD1
 70
     0
  9
$DIMSD2
 70
     0
  9
$DIMTOLJ
 70
     0
  9
$DIMTZIN
 70
     0
  9
$DIMALTZ
 70
     0
  9
$DIMALTTZ
 70
     0
  9
$DIMUPT
 70
     0
  9
$DIMDEC
 70
     2
  9
$DIMTDEC
 70
     3
  9
$DIMALTU
 70
     2
  9
$DIMALTTD
 70
     3
  9
$DIMTXSTY
  7
Standard
  9
$DIMAUNIT
 70
     0
  9
$DIMADEC
 70
     2
  9
$DIMALTRND
 40
0.0
  9
$DIMAZIN
 70
     0
  9
$DIMDSEP
 70
    44
  9
$DIMATFIT
 70
     3
  9
$DIMFRAC
 70
     0
  9
$DIMLDRBLK
  1

  9
$DIMLUNIT
 70
     2
  9
$DIMLWD
 70
    -2
  9
$DIMLWE
 70
    -2
  9
$DIMTMOVE
 70
     0
  9
$LUNITS
 70
     2
  9
$LUPREC
 70
     2
  9
$SKETCHINC
 40
1.0
  9
$FILLETRAD
 40
10.0
  9
$AUNITS
 70
     0
  9
$AUPREC
 70
     2
  9
$MENU
  1
.
  9
$ELEVATION
 40
0.0
  9
$PELEVATION
 40
0.0
  9
$THICKNESS
 40
0.0
  9
$LIMCHECK
 70
     0
  9
$CHAMFERA
 40
0.0
  9
$CHAMFERB
 40
0.0
  9
$CHAMFERC
 40
0.0
  9
$CHAMFERD
 40
0.0
  9
$SKPOLY
 70
     0
  9
$TDCREATE
 40
2457627.623099699
  9
$TDUCREATE
 40
2457627.539766366
  9
$TDUPDATE
 40
2457627.623100741
  9
$TDUUPDATE
 40
2457627.539767407
  9
$TDINDWG
 40
0.0000000116
  9
$TDUSRTIMER
 40
0.0000000116
  9
$USRTIMER
 70
     1
  9
$ANGBASE
 50
0.0
  9
$ANGDIR
 70
     0
  9
$PDMODE
 70
     0
  9
$PDSIZE
 40
-1.0
  9
$PLINEWID
 40
0.0
  9
$SPLFRAME
 70
     0
  9
$SPLINETYPE
 70
     6
  9
$SPLINESEGS
 70
     8
  9
$HANDSEED
  5
21B
  9
$SURFTAB1
 70
     6
  9
$SURFTAB2
 70
     6
  9
$SURFTYPE
 70
     6
  9
$SURFU
 70
     6
  9
$SURFV
 70
     6
  9
$UCSBASE
  2

  9
$UCSNAME
  2

  9
$UCSORG
 10
0.0
 20
0.0
 30
0.0
  9
$UCSXDIR
 10
1.0
 20
0.0
 30
0.0
  9
$UCSYDIR
 10
0.0
 20
1.0
 30
0.0
  9
$UCSORTHOREF
  2

  9
$UCSORTHOVIEW
 70
     0
  9
$UCSORGTOP
 10
0.0
 20
0.0
 30
0.0
  9
$UCSORGBOTTOM
 10
0.0
 20
0.0
 30
0.0
  9
$UCSORGLEFT
 10
0.0
 20
0.0
 30
0.0
  9
$UCSORGRIGHT
 10
0.0
 20
0.0
 30
0.0
  9
$UCSORGFRONT
 10
0.0
 20
0.0
 30
0.0
  9
$UCSORGBACK
 10
0.0
 20
0.0
 30
0.0
  9
$PUCSBASE
  2

  9
$PUCSNAME
  2

  9
$PUCSORG
 10
0.0
 20
0.0
 30
0.0
  9
$PUCSXDIR
 10
1.0
 20
0.0
 30
0.0
  9
$PUCSYDIR
 10
0.0
 20
1.0
 30
0.0
  9
$PUCSORTHOREF
  2

  9
$PUCSORTHOVIEW
 70
     0
  9
$PUCSORGTOP
 10
0.0
 20
0.0
 30
0.0
  9
$PUCSORGBOTTOM
 10
0.0
 20
0.0
 30
0.0
  9
$PUCSORGLEFT
 10
0.0
 20
0.0
 30
0.0
  9
$PUCSORGRIGHT
 10
0.0
 20
0.0
 30
0.0
  9
$PUCSORGFRONT
 10
0.0
 20
0.0
 30
0.0
  9
$PUCSORGBACK
 10
0.0
 20
0.0
 30
0.0
  9
$USERI1
 70
     0
  9
$USERI2
 70
     0
  9
$USERI3
 70
     0
  9
$USERI4
 70
     0
  9
$USERI5
 70
     0
  9
$USERR1
 40
0.0
  9
$USERR2
 40
0.0
  9
$USERR3
 40
0.0
  9
$USERR4
 40
0.0
  9
$USERR5
 40
0.0
  9
$WORLDVIEW
 70
     1
  9
$SHADEDGE
 70
     3
  9
$SHADEDIF
 70
    70
  9
$TILEMODE
 70
     1
  9
$MAXACTVP
 70
    64
  9
$PINSBASE
 10
0.0
 20
0.0
 30
0.0
  9
$PLIMCHECK
 70
     0
  9
$PEXTMIN
 10
1.0000000000E+20
 20
1.0000000000E+20
 30
1.0000000000E+20
  9
$PEXTMAX
 10
-1.0000000000E+20
 20
-1.0000000000E+20
 30
-1.0000000000E+20
  9
$PLIMMIN
 10
0.0
 20
0.0
  9
$PLIMMAX
 10
420.0
 20
297.0
  9
$UNITMODE
 70
     0
  9
$VISRETAIN
 70
     1
  9
$PLINEGEN
 70
     0
  9
$PSLTSCALE
 70
     1
  9
$TREEDEPTH
 70
  3020
  9
$CMLSTYLE
  2
Standard
  9
$CMLJUST
 70
     0
  9
$CMLSCALE
 40
20.0
  9
$PROXYGRAPHICS
 70
     1
  9
$MEASUREMENT
 70
     1
  9
$CELWEIGHT
370
    -1
  9
$ENDCAPS
280
     0
  9
$JOINSTYLE
280
     0
  9
$LWDISPLAY
290
     1
  9
$INSUNITS
 70
     4
  9
$HYPERLINKBASE
  1

  9
$STYLESHEET
  1

  9
$XEDIT
290
     1
  9
$CEPSNTYPE
380
     0
  9
$PSTYLEMODE
290
     1
  9
$FINGERPRINTGUID
  2
{7178D409-3920-4AF7-BE38-D2FBD96FAEA2}
  9
$VERSIONGUID
  2
{FAEB1C32-E019-11D5-929B-00C0DF256EC4}
  9
$EXTNAMES
290
     1
  9
$PSVPSCALE
 40
0.0
  9
$OLESTARTUP
290
     0
  0
ENDSEC
  0
SECTION
  2
CLASSES
  0
CLASS
  1
ACDBDICTIONARYWDFLT
  2
AcDbDictionaryWithDefault
  3
ObjectDBX Classes
 90
        0
280
     0
281
     0
  0
CLASS
  1
VISUALSTYLE
  2
AcDbVisualStyle
  3
ObjectDBX Classes
 90
     4095
280
     0
281
     0
  0
CLASS
  1
MATERIAL
  2
AcDbMaterial
  3
ObjectDBX Classes
 90
     1153
280
     0
281
     0
  0
CLASS
  1
SCALE
  2
AcDbScale
  3
ObjectDBX Classes
 90
     1153
280
     0
281
     0
  0
CLASS
  1
TABLESTYLE
  2
AcDbTableStyle
  3
ObjectDBX Classes
 90
     4095
280
     0
281
     0
  0
CLASS
  1
MLEADERSTYLE
  2
AcDbMLeaderStyle
  3
ACDB_MLEADERSTYLE_CLASS
 90
     4095
280
     0
281
     0
  0
CLASS
  1
SUN
  2
AcDbSun
  3
SCENEOE
 90
     1153
280
     0
281
     0
  0
CLASS
  1
ACDBPLACEHOLDER
  2
AcDbPlaceHolder
  3
ObjectDBX Classes
 90
        0
280
     0
281
     0
  0
CLASS
  1
LAYOUT
  2
AcDbLayout
  3
ObjectDBX Classes
 90
        0
280
     0
281
     0
  0
ENDSEC
  0
SECTION
  2
TABLES
  0
TABLE
  2
VPORT
  5
8
330
0
100
AcDbSymbolTable
 70
     1
  0
VPORT
  5
29
330
8
100
AcDbSymbolTableRecord
100
AcDbViewportTableRecord
  2
*Active
 70
     0
 10
0.0
 20
0.0
 11
1.0
 21
1.0
 12
148.5
 22
105.0
 13
0.0
 23
0.0
 14
10.0
 24
10.0
 15
10.0
 25
10.0
 16
0.0
 26
0.0
 36
1.0
 17
0.0
 27
0.0
 37
0.0
 40
210.0
 41
1.4142857143
 42
50.0
 43
0.0
 44
0.0
 50
0.0
 51
0.0
 71
     0
 72
  2000
 73
     1
 74
     3
 75
     0
 76
     0
 77
     0
 78
     0
281
     0
 65
     1
110
0.0
120
0.0
130
0.0
111
1.0
121
0.0
131
0.0
112
0.0
122
1.0
132
0.0
 79
     0
146
0.0
  0
ENDTAB
  0
TABLE
  2
LTYPE
  5
5
330
0
100
AcDbSymbolTable
 70
     6
  0
LTYPE
  5
14
330
5
100
AcDbSymbolTableRecord
100
AcDbLinetypeTableRecord
  2
ByBlock
 70
     0
  3

 72
    65
 73
     0
 40
0.0
  0
LTYPE
  5
15
330
5
100
AcDbSymbolTableRecord
100
AcDbLinetypeTableRecord
  2
ByLayer
 70
     0
  3

 72
    65
 73
     0
 40
0.0
  0
LTYPE
  5
16
330
5
100
AcDbSymbolTableRecord
100
AcDbLinetypeTableRecord
  2
Continuous
 70
     0
  3
Solid line
 72
    65
 73
     0
 40
0.0
  0
LTYPE
  5
6E
330
5
100
AcDbSymbolTableRecord
100
AcDbLinetypeTableRecord
  2
HIDDEN
 70
     0
  3
Hidden __ __ __ __ __ __ __ __ __ __ __ __ __ __
 72
    65
 73
     2
 40
1.905
 49
1.27
 74
     0
 49
-0.635
 74
     0
  0
LTYPE
  5
6F
330
5
100
AcDbSymbolTableRecord
100
AcDbLinetypeTableRecord
  2
PHANTOM
 70
     0
  3
Phantom ______  __  __  ______  __  __  ______
 72
    65
 73
     6
 40
12.7
 49
6.35
 74
     0
 49
-1.27
 74
     0
 49
1.27
 74
     0
 49
-1.27
 74
     0
 49
1.27
 74
     0
 49
-1.27
 74
     0
  0
LTYPE
  5
70
330
5
100
AcDbSymbolTableRecord
100
AcDbLinetypeTableRecord
  2
CENTER
 70
     0
  3
Center ____ _ ____ _ ____ _ ____ _ ____ _ ____
 72
    65
 73
     4
 40
10.16
 49
6.35
 74
     0
 49
-1.27
 74
     0
 49
1.27
 74
     0
 49
-1.27
 74
     0
  0
LTYPE
  5
71
330
5
100
AcDbSymbolTableRecord
100
AcDbLinetypeTableRecord
  2
CENTERX2
 70
     0
  3
Center (2x) ________  __  ________  __  _____
 72
    65
 73
     4
 40
20.32
 49
12.7
 74
     0
 49
-2.54
 74
     0
 49
2.54
 74
     0
 49
-2.54
 74
     0
  0
LTYPE
  5
72
330
5
100
AcDbSymbolTableRecord
100
AcDbLinetypeTableRecord
  2
DOT2
 70
     0
  3
Dot (.5x) ........................................
 72
    65
 73
     2
 40
0.635
 49
0.0
 74
     0
 49
-0.635
 74
     0
  0
ENDTAB
  0
TABLE
  2
LAYER
  5
2
330
0
100
AcDbSymbolTable
 70
     5
  0
LAYER
  5
10
330
2
100
AcDbSymbolTableRecord
100
AcDbLayerTableRecord
  2
0
 70
     0
 62
     7
  6
Continuous
370
    -3
390
F
  0
LAYER
  5
73
330
2
100
AcDbSymbolTableRecord
100
AcDbLayerTableRecord
  2
FORMAT
 70
     0
 62
     7
  6
Continuous
370
    -3
390
F
  0
LAYER
  5
74
330
2
100
AcDbSymbolTableRecord
100
AcDbLayerTableRecord
  2
VERMASSUNG
 70
     0
 62
     7
  6
Continuous
370
    -3
390
F
  0
LAYER
  5
75
330
2
100
AcDbSymbolTableRecord
100
AcDbLayerTableRecord
  2
KOPF_DÜNN
 70
     0
 62
     7
  6
Continuous
370
    -3
390
F
  0
LAYER
  5
76
330
2
100
AcDbSymbolTableRecord
100
AcDbLayerTableRecord
  2
KOPF_DICK
 70
     0
 62
     7
  6
Continuous
370
    15
390
F
  0
ENDTAB
  0
TABLE
  2
STYLE
  5
3
330
0
100
AcDbSymbolTable
 70
     2
  0
STYLE
  5
11
330
3
100
AcDbSymbolTableRecord
100
AcDbTextStyleTableRecord
  2
Standard
 70
     0
 40
0.0
 41
1.0
 50
0.0
 71
     0
 42
2.0
  3
txt
  4

  0
STYLE
  5
77
330
3
100
AcDbSymbolTableRecord
100
AcDbTextStyleTableRecord
  2
SLDTEXTSTYLE0
 70
     0
 40
0.0
 41
0.7
 50
0.0
 71
     0
 42
2.0
  3
TXT
  4

  0
ENDTAB
  0
TABLE
  2
VIEW
  5
6
330
0
100
AcDbSymbolTable
 70
     0
  0
ENDTAB
  0
TABLE
  2
UCS
  5
7
330
0
100
AcDbSymbolTable
 70
     0
  0
ENDTAB
  0
TABLE
  2
APPID
  5
9
330
0
100
AcDbSymbolTable
 70
     1
  0
APPID
  5
12
330
9
100
AcDbSymbolTableRecord
100
AcDbRegAppTableRecord
  2
ACAD
 70
     0
  0
ENDTAB
  0
TABLE
  2
DIMSTYLE
  5
A
330
0
100
AcDbSymbolTable
 70
     2
100
AcDbDimStyleTable
  0
DIMSTYLE
105
27
330
A
100
AcDbSymbolTableRecord
100
AcDbDimStyleTableRecord
  2
ISO-25
 70
     0
 41
2.5
 42
0.625
 43
3.75
 44
1.25
 73
     0
 74
     0
 77
     1
 78
     8
140
2.5
141
2.5
143
0.0393700787
147
0.625
171
     3
172
     1
178
     0
271
     2
272
     2
274
     3
278
    44
283
     0
284
     8
340
11
  0
DIMSTYLE
105
1DF
102
{ACAD_REACTORS
330
1DE
330
1EB
330
1F7
330
201
330
20B
102
}
330
A
100
AcDbSymbolTableRecord
100
AcDbDimStyleTableRecord
  2
SLDDIMSTYLE0
 70
     0
 41
3.0
 44
0.0
 45
0.000000001
 73
     0
 74
     0
 77
     1
 78
    12
 79
     3
140
2.0
147
0.5
173
     1
178
     0
271
     2
272
     3
276
     2
284
    12
340
77
  0
ENDTAB
  0
TABLE
  2
BLOCK_RECORD
  5
1
330
0
100
AcDbSymbolTable
 70
     6
  0
BLOCK_RECORD
  5
1F
330
1
100
AcDbSymbolTableRecord
100
AcDbBlockTableRecord
  2
*Model_Space
340
22
  0
BLOCK_RECORD
  5
1B
330
1
100
AcDbSymbolTableRecord
100
AcDbBlockTableRecord
  2
*Paper_Space
340
1E
  0
BLOCK_RECORD
  5
23
330
1
100
AcDbSymbolTableRecord
100
AcDbBlockTableRecord
  2
*Paper_Space0
340
26
  0
BLOCK_RECORD
  5
1E0
330
1
100
AcDbSymbolTableRecord
100
AcDbBlockTableRecord
  2
_D
340
0
  0
BLOCK_RECORD
  5
1EC
330
1
100
AcDbSymbolTableRecord
100
AcDbBlockTableRecord
  2
_D_1
340
0
  0
BLOCK_RECORD
  5
1F8
330
1
100
AcDbSymbolTableRecord
100
AcDbBlockTableRecord
  2
_D_2
340
0
  0
BLOCK_RECORD
  5
202
330
1
100
AcDbSymbolTableRecord
100
AcDbBlockTableRecord
  2
_D_3
340
0
  0
BLOCK_RECORD
  5
20C
330
1
100
AcDbSymbolTableRecord
100
AcDbBlockTableRecord
  2
_D_4
340
0
  0
ENDTAB
  0
ENDSEC
  0
SECTION
  2
BLOCKS
  0
BLOCK
  5
20
330
1F
100
AcDbEntity
  8
0
100
AcDbBlockBegin
  2
*Model_Space
 70
     0
 10
0.0
 20
0.0
 30
0.0
  3
*Model_Space
  1

  0
ENDBLK
  5
21
330
1F
100
AcDbEntity
  8
0
100
AcDbBlockEnd
  0
BLOCK
  5
1C
330
1B
100
AcDbEntity
 67
     1
  8
0
100
AcDbBlockBegin
  2
*Paper_Space
 70
     0
 10
0.0
 20
0.0
 30
0.0
  3
*Paper_Space
  1

  0
ENDBLK
  5
1D
330
1B
100
AcDbEntity
 67
     1
  8
0
100
AcDbBlockEnd
  0
BLOCK
  5
24
330
23
100
AcDbEntity
  8
0
100
AcDbBlockBegin
  2
*Paper_Space0
 70
     0
 10
0.0
 20
0.0
 30
0.0
  3
*Paper_Space0
  1

  0
ENDBLK
  5
25
330
23
100
AcDbEntity
  8
0
100
AcDbBlockEnd
  0
BLOCK
  5
1E1
330
1E0
100
AcDbEntity
  8
0
100
AcDbBlockBegin
  2
_D
 70
     0
 10
0.0
 20
0.0
 30
0.0
  3
_D
  1

  0
SOLID
  5
1E3
330
1E0
100
AcDbEntity
  8
VERMASSUNG
100
AcDbTrace
 10
81.2555408624
 20
75.7228101487
 30
0.0
 11
81.7055408624
 21
78.7228101487
 31
0.0
 12
80.8055408624
 22
78.7228101487
 32
0.0
 13
80.8055408624
 23
78.7228101487
 33
0.0
  0
SOLID
  5
1E4
330
1E0
100
AcDbEntity
  8
VERMASSUNG
100
AcDbTrace
 10
81.2555408624
 20
139.2228101487
 30
0.0
 11
80.8055408624
 21
136.2228101487
 31
0.0
 12
81.7055408624
 22
136.2228101487
 32
0.0
 13
81.7055408624
 23
136.2228101487
 33
0.0
  0
LINE
  5
1E5
330
1E0
100
AcDbEntity
  8
VERMASSUNG
100
AcDbLine
 10
175.6037063655
 20
75.7228101487
 30
0.0
 11
80.2555408624
 21
75.7228101487
 31
0.0
  0
LINE
  5
1E6
330
1E0
100
AcDbEntity
  8
VERMASSUNG
100
AcDbLine
 10
175.6037063655
 20
139.2228101487
 30
0.0
 11
80.2555408624
 21
139.2228101487
 31
0.0
  0
LINE
  5
1E7
330
1E0
100
AcDbEntity
  8
VERMASSUNG
100
AcDbLine
 10
81.2555408624
 20
75.7228101487
 30
0.0
 11
81.2555408624
 21
139.2228101487
 31
0.0
  0
MTEXT
  5
1E8
330
1E0
100
AcDbEntity
  8
VERMASSUNG
100
AcDbMText
 10
78.4774056062
 20
98.6698740004
 30
0.0
 40
2.0
 41
0.0
 71
     1
 72
     1
  1
ISO 40
  7
SLDTEXTSTYLE0
 11
3.391901413832837E-15
 21
1.0
 31
0.0
 73
     1
 44
1.0
  0
MTEXT
  5
1E9
330
1E0
100
AcDbEntity
  8
VERMASSUNG
100
AcDbMText
 10
78.6774055575
 20
107.8698742045
 30
0.0
 40
2.0
 41
0.0
 71
     1
 72
     1
  1
%%c
  7
SLDTEXTSTYLE0
 11
3.391901413832837E-15
 21
1.0
 31
0.0
 73
     1
 44
1.0
  0
MTEXT
  5
1EA
330
1E0
100
AcDbEntity
  8
VERMASSUNG
100
AcDbMText
 10
78.6774052665
 20
111.4777545359
 30
0.0
 40
2.0
 41
0.0
 71
     1
 72
     1
  1
63.5
  7
SLDTEXTSTYLE0
 11
3.391901413832837E-15
 21
1.0
 31
0.0
 73
     1
 44
1.0
  0
ENDBLK
  5
1E2
330
1E0
100
AcDbEntity
  8
0
100
AcDbBlockEnd
  0
BLOCK
  5
1ED
330
1EC
100
AcDbEntity
  8
0
100
AcDbBlockBegin
  2
_D_1
 70
     0
 10
0.0
 20
0.0
 30
0.0
  3
_D_1
  1

  0
ARC
  5
1EF
330
1EC
100
AcDbEntity
  8
VERMASSUNG
100
AcDbCircle
 10
143.890487519
 20
157.9837705141
 30
0.0
 40
4.247059938537348
100
AcDbArc
 50
153.4349488229
 51
206.5650511771
  0
ARC
  5
1F0
330
1EC
100
AcDbEntity
  8
VERMASSUNG
100
AcDbCircle
 10
146.2669252121
 20
157.9837705141
 30
0.0
 40
4.247059938537348
100
AcDbArc
 50
333.4349488229
 51
26.5650511771
  0
SOLID
  5
1F1
330
1EC
100
AcDbEntity
  8
VERMASSUNG
100
AcDbTrace
 10
88.9037063655
 20
156.0844275687
 30
0.0
 11
91.9037063655
 21
155.6344275687
 31
0.0
 12
91.9037063655
 22
156.5344275687
 32
0.0
 13
91.9037063655
 23
156.5344275687
 33
0.0
  0
SOLID
  5
1F2
330
1EC
100
AcDbEntity
  8
VERMASSUNG
100
AcDbTrace
 10
201.2537063655
 20
156.0844275687
 30
0.0
 11
198.2537063655
 21
156.5344275687
 31
0.0
 12
198.2537063655
 22
155.6344275687
 32
0.0
 13
198.2537063655
 23
155.6344275687
 33
0.0
  0
LINE
  5
1F3
330
1EC
100
AcDbEntity
  8
VERMASSUNG
100
AcDbLine
 10
88.9037063655
 20
118.8799407457
 30
0.0
 11
88.9037063655
 21
157.0844275687
 31
0.0
  0
LINE
  5
1F4
330
1EC
100
AcDbEntity
  8
VERMASSUNG
100
AcDbLine
 10
201.2537063655
 20
123.1728101487
 30
0.0
 11
201.2537063655
 21
157.0844275687
 31
0.0
  0
LINE
  5
1F5
330
1EC
100
AcDbEntity
  8
VERMASSUNG
100
AcDbLine
 10
88.9037063655
 20
156.0844275687
 30
0.0
 11
201.2537063655
 21
156.0844275687
 31
0.0
  0
MTEXT
  5
1F6
330
1EC
100
AcDbEntity
  8
VERMASSUNG
100
AcDbMText
 10
141.6793016281
 20
158.6625631646
 30
0.0
 40
2.0
 41
0.0
 71
     1
 72
     1
  1
112.35
  7
SLDTEXTSTYLE0
 73
     1
 44
1.0
  0
ENDBLK
  5
1EE
330
1EC
100
AcDbEntity
  8
0
100
AcDbBlockEnd
  0
BLOCK
  5
1F9
330
1F8
100
AcDbEntity
  8
0
100
AcDbBlockBegin
  2
_D_2
 70
     0
 10
0.0
 20
0.0
 30
0.0
  3
_D_2
  1

  0
SOLID
  5
1FB
330
1F8
100
AcDbEntity
  8
VERMASSUNG
100
AcDbTrace
 10
157.1537063655
 20
150.0844275687
 30
0.0
 11
160.1537063655
 21
149.6344275687
 31
0.0
 12
160.1537063655
 22
150.5344275687
 32
0.0
 13
160.1537063655
 23
150.5344275687
 33
0.0
  0
SOLID
  5
1FC
330
1F8
100
AcDbEntity
  8
VERMASSUNG
100
AcDbTrace
 10
201.2537063655
 20
150.0844275687
 30
0.0
 11
198.2537063655
 21
150.5344275687
 31
0.0
 12
198.2537063655
 22
149.6344275687
 32
0.0
 13
198.2537063655
 23
149.6344275687
 33
0.0
  0
LINE
  5
1FD
330
1F8
100
AcDbEntity
  8
VERMASSUNG
100
AcDbLine
 10
157.1537063655
 20
129.6978101487
 30
0.0
 11
157.1537063655
 21
151.0844275687
 31
0.0
  0
LINE
  5
1FE
330
1F8
100
AcDbEntity
  8
VERMASSUNG
100
AcDbLine
 10
201.2537063655
 20
123.1728101487
 30
0.0
 11
201.2537063655
 21
151.0844275687
 31
0.0
  0
LINE
  5
1FF
330
1F8
100
AcDbEntity
  8
VERMASSUNG
100
AcDbLine
 10
157.1537063655
 20
150.0844275687
 30
0.0
 11
201.2537063655
 21
150.0844275687
 31
0.0
  0
MTEXT
  5
200
330
1F8
100
AcDbEntity
  8
VERMASSUNG
100
AcDbMText
 10
176.804710485
 20
152.6625631646
 30
0.0
 40
2.0
 41
0.0
 71
     1
 72
     1
  1
44.1
  7
SLDTEXTSTYLE0
 73
     1
 44
1.0
  0
ENDBLK
  5
1FA
330
1F8
100
AcDbEntity
  8
0
100
AcDbBlockEnd
  0
BLOCK
  5
203
330
202
100
AcDbEntity
  8
0
100
AcDbBlockBegin
  2
_D_3
 70
     0
 10
0.0
 20
0.0
 30
0.0
  3
_D_3
  1

  0
SOLID
  5
205
330
202
100
AcDbEntity
  8
VERMASSUNG
100
AcDbTrace
 10
176.2037063655
 20
144.0844275687
 30
0.0
 11
179.2037063655
 21
143.6344275687
 31
0.0
 12
179.2037063655
 22
144.5344275687
 32
0.0
 13
179.2037063655
 23
144.5344275687
 33
0.0
  0
SOLID
  5
206
330
202
100
AcDbEntity
  8
VERMASSUNG
100
AcDbTrace
 10
201.2537063655
 20
144.0844275687
 30
0.0
 11
198.2537063655
 21
144.5344275687
 31
0.0
 12
198.2537063655
 22
143.6344275687
 32
0.0
 13
198.2537063655
 23
143.6344275687
 33
0.0
  0
LINE
  5
207
330
202
100
AcDbEntity
  8
VERMASSUNG
100
AcDbLine
 10
176.2037063655
 20
137.4833612821
 30
0.0
 11
176.2037063655
 21
145.0844275687
 31
0.0
  0
LINE
  5
208
330
202
100
AcDbEntity
  8
VERMASSUNG
100
AcDbLine
 10
201.2537063655
 20
123.1728101487
 30
0.0
 11
201.2537063655
 21
145.0844275687
 31
0.0
  0
LINE
  5
209
330
202
100
AcDbEntity
  8
VERMASSUNG
100
AcDbLine
 10
176.2037063655
 20
144.0844275687
 30
0.0
 11
201.2537063655
 21
144.0844275687
 31
0.0
  0
MTEXT
  5
20A
330
202
100
AcDbEntity
  8
VERMASSUNG
100
AcDbMText
 10
185.6293139865
 20
146.6625631646
 30
0.0
 40
2.0
 41
0.0
 71
     1
 72
     1
  1
25.05
  7
SLDTEXTSTYLE0
 73
     1
 44
1.0
  0
ENDBLK
  5
204
330
202
100
AcDbEntity
  8
0
100
AcDbBlockEnd
  0
BLOCK
  5
20D
330
20C
100
AcDbEntity
  8
0
100
AcDbBlockBegin
  2
_D_4
 70
     0
 10
0.0
 20
0.0
 30
0.0
  3
_D_4
  1

  0
SOLID
  5
20F
330
20C
100
AcDbEntity
  8
VERMASSUNG
100
AcDbTrace
 10
209.5684564428
 20
123.4728101487
 30
0.0
 11
209.1184564428
 21
120.4728101487
 31
0.0
 12
210.0184564428
 22
120.4728101487
 32
0.0
 13
210.0184564428
 23
120.4728101487
 33
0.0
  0
SOLID
  5
210
330
20C
100
AcDbEntity
  8
VERMASSUNG
100
AcDbTrace
 10
209.5684564428
 20
91.4728101487
 30
0.0
 11
210.0184564428
 21
94.4728101487
 31
0.0
 12
209.1184564428
 22
94.4728101487
 32
0.0
 13
209.1184564428
 23
94.4728101487
 33
0.0
  0
LINE
  5
211
330
20C
100
AcDbEntity
  8
VERMASSUNG
100
AcDbLine
 10
200.9537063655
 20
123.4728101487
 30
0.0
 11
210.5684564428
 21
123.4728101487
 31
0.0
  0
LINE
  5
212
330
20C
100
AcDbEntity
  8
VERMASSUNG
100
AcDbLine
 10
200.9537063655
 20
91.4728101487
 30
0.0
 11
210.5684564428
 21
91.4728101487
 31
0.0
  0
LINE
  5
213
330
20C
100
AcDbEntity
  8
VERMASSUNG
100
AcDbLine
 10
209.5684564428
 20
123.4728101487
 30
0.0
 11
209.5684564428
 21
91.4728101487
 31
0.0
  0
MTEXT
  5
214
330
20C
100
AcDbEntity
  8
VERMASSUNG
100
AcDbMText
 10
206.7903211866
 20
101.0678105051
 30
0.0
 40
2.0
 41
0.0
 71
     1
 72
     1
  1
MBM
  7
SLDTEXTSTYLE0
 11
-7.044195017643634E-15
 21
1.0
 31
0.0
 73
     1
 44
1.0
  0
MTEXT
  5
215
330
20C
100
AcDbEntity
  8
VERMASSUNG
100
AcDbMText
 10
206.9903211379
 20
107.4678103434
 30
0.0
 40
2.0
 41
0.0
 71
     1
 72
     1
  1
%%c
  7
SLDTEXTSTYLE0
 11
-7.044195017643634E-15
 21
1.0
 31
0.0
 73
     1
 44
1.0
  0
MTEXT
  5
216
330
20C
100
AcDbEntity
  8
VERMASSUNG
100
AcDbMText
 10
206.7903211866
 20
111.0778108234
 30
0.0
 40
2.0
 41
0.0
 71
     1
 72
     1
  1
32
  7
SLDTEXTSTYLE0
 11
-7.044195017643634E-15
 21
1.0
 31
0.0
 73
     1
 44
1.0
  0
ENDBLK
  5
20E
330
20C
100
AcDbEntity
  8
0
100
AcDbBlockEnd
  0
ENDSEC
  0
SECTION
  2
ENTITIES
  0
MTEXT
  5
78
330
1F
100
AcDbEntity
  8
KOPF_DÜNN
100
AcDbMText
 10
13.8892156294
 20
23.8442973028
 30
0.0
 40
3.0
 41
0.0
 71
     1
 72
     1
  1
102.425.321
  7
SLDTEXTSTYLE0
 73
     1
 44
1.0
  0
MTEXT
  5
79
330
1F
100
AcDbEntity
  8
VERMASSUNG
100
AcDbMText
 10
13.9329988022
 20
28.8834360957
 30
0.0
 40
3.0
 41
0.0
 71
     1
 72
     1
  1
Aufnahme_Master shank MBM 32
  7
SLDTEXTSTYLE0
 73
     1
 44
1.0
  0
MTEXT
  5
7A
330
1F
100
AcDbEntity
  8
VERMASSUNG
100
AcDbMText
 10
98.8601118557
 20
13.8365368761
 30
0.0
 40
2.0
 41
0.0
 71
     1
 72
     1
  1
Datum: 01.11.2007
  7
SLDTEXTSTYLE0
 73
     1
 44
1.0
  0
MTEXT
  5
7B
330
1F
100
AcDbEntity
  8
VERMASSUNG
100
AcDbMText
 10
13.933048693
 20
18.0482802738
 30
0.0
 40
2.0
 41
0.0
 71
     1
 72
     1
  1
DIN 69871 B 40
  7
SLDTEXTSTYLE0
 73
     1
 44
1.0
  0
MTEXT
  5
7C
330
1F
100
AcDbEntity
  8
VERMASSUNG
100
AcDbMText
 10
13.9808475933
 20
13.9090974274
 30
0.0
 40
2.0
 41
0.0
 71
     1
 72
     1
  1
Gewicht: 924g
  7
SLDTEXTSTYLE0
 73
     1
 44
1.0
  0
ARC
  5
7D
330
1F
100
AcDbEntity
  8
0
  6
Continuous
 62
     7
370
    15
100
AcDbCircle
 10
159.7537063655
 20
84.6478101487
 30
0.0
 40
0.5999999999999943
100
AcDbArc
 50
0.0
 51
90.0
  0
ARC
  5
7E
330
1F
100
AcDbEntity
  8
0
  6
Continuous
 62
     7
370
    15
100
AcDbCircle
 10
159.7537063655
 20
130.2978101487
 30
0.0
 40
0.5999999999999943
100
AcDbArc
 50
270.0
 51
0.0
  0
LINE
  5
7F
330
1F
100
AcDbEntity
  8
0
  6
Continuous
 62
     7
370
    15
100
AcDbLine
 10
157.1537063655
 20
85.2478101844
 30
0.0
 11
159.7537063726
 21
85.2478101844
 31
0.0
  0
LINE
  5
80
330
1F
100
AcDbEntity
  8
0
  6
Continuous
 62
     7
370
    15
100
AcDbLine
 10
159.7537063726
 20
129.6978101129
 30
0.0
 11
157.1537063655
 21
129.6978101129
 31
0.0
  0
LINE
  5
81
330
1F
100
AcDbEntity
  8
0
  6
Continuous
 62
     7
370
    15
100
AcDbLine
 10
157.1537063655
 20
129.6978101129
 30
0.0
 11
89.7593976196
 21
119.869473576
 31
0.0
  0
LINE
  5
82
330
1F
100
AcDbEntity
  8
0
  6
Continuous
 62
     7
370
    15
100
AcDbLine
 10
89.7593976196
 20
95.0761467213
 30
0.0
 11
157.1537063655
 21
85.2478101844
 31
0.0
  0
ARC
  5
83
330
1F
100
AcDbEntity
  8
0
  6
Continuous
 62
     7
370
    15
100
AcDbCircle
 10
180.2037063655
 20
87.4728101487
 30
0.0
 40
4.0
100
AcDbArc
 50
90.0
 51
180.0
  0
ARC
  5
84
330
1F
100
AcDbEntity
  8
0
  6
Continuous
 62
     7
370
    15
100
AcDbCircle
 10
180.2037063655
 20
127.4728101487
 30
0.0
 40
4.0
100
AcDbArc
 50
180.0
 51
270.0
  0
LINE
  5
85
330
1F
100
AcDbEntity
  8
0
  6
Continuous
 62
     7
370
    15
100
AcDbLine
 10
200.9537064668
 20
91.4728093887
 30
0.0
 11
201.2537078199
 21
91.7728107417
 31
0.0
  0
LINE
  5
86
330
1F
100
AcDbEntity
  8
0
  6
Continuous
 62
     7
370
    15
100
AcDbLine
 10
201.2537078199
 20
123.1728095556
 30
0.0
 11
200.9537064668
 21
123.4728109086
 31
0.0
  0
LINE
  5
87
330
1F
100
AcDbEntity
  8
0
  6
Continuous
 62
     7
370
    15
100
AcDbLine
 10
180.2037072566
 20
91.4728093887
 30
0.0
 11
200.9537064668
 21
91.4728093887
 31
0.0
  0
LINE
  5
88
330
1F
100
AcDbEntity
  8
0
  6
Continuous
 62
     7
370
    15
100
AcDbLine
 10
200.9537064668
 20
123.4728109086
 30
0.0
 11
180.2037072566
 21
123.4728109086
 31
0.0
  0
ARC
  5
89
330
1F
100
AcDbEntity
  8
0
  6
Continuous
 62
     7
370
    15
100
AcDbCircle
 10
89.9037063655
 20
96.0656795516
 30
0.0
 40
0.9999999999999858
100
AcDbArc
 50
180.0
 51
261.7028550302
  0
ARC
  5
8A
330
1F
100
AcDbEntity
  8
0
  6
Continuous
 62
     7
370
    15
100
AcDbCircle
 10
89.9037063655
 20
118.8799407457
 30
0.0
 40
0.9999999999999858
100
AcDbArc
 50
98.2971449698
 51
180.0
  0
ARC
  5
8B
330
1F
100
AcDbEntity
  8
0
  6
Continuous
 62
     7
370
    15
100
AcDbCircle
 10
170.1537063655
 20
98.7512964939
 30
0.0
 40
1.500000000000014
100
AcDbArc
 50
191.5274417158
 51
336.4380830094
  0
SPLINE
  5
8C
330
1F
100
AcDbEntity
  8
0
  6
Continuous
 62
     7
370
    15
100
AcDbSpline
210
0.0
220
0.0
230
1.0
 70
     8
 71
     3
 72
    11
 73
     7
 74
     0
 42
0.000000001
 43
0.00000001
 40
0.0
 40
0.0
 40
0.0
 40
0.0
 40
0.132387358161546
 40
0.4819438062149382
 40
0.8154866996203519
 40
1.0
 40
1.0
 40
1.0
 40
1.0
 10
191.8438331421983
 20
105.1660242485225
 30
0.0
 10
191.7632310512385
 20
105.2178237374479
 30
0.0
 10
191.469806671105
 20
105.4063949363852
 30
0.0
 10
190.9211303169425
 20
105.7590002294864
 30
0.0
 10
190.3306490237458
 20
106.1384761440271
 30
0.0
 10
190.0138627261487
 20
106.342059747271
 30
0.0
 10
189.9010346469057
 20
106.41456902906
 30
0.0
  0
SPLINE
  5
8D
330
1F
100
AcDbEntity
  8
0
  6
Continuous
 62
     7
370
    15
100
AcDbSpline
210
0.0
220
0.0
230
1.0
 70
     8
 71
     3
 72
    11
 73
     7
 74
     0
 42
0.000000001
 43
0.00000001
 40
0.0
 40
0.0
 40
0.0
 40
0.0
 40
0.2164531347129955
 40
0.4403059018166545
 40
0.7518955381657785
 40
1.0
 40
1.0
 40
1.0
 40
1.0
 10
193.8965053495538
 20
106.2242652517155
 30
0.0
 10
193.7558966243181
 20
106.1517756889487
 30
0.0
 10
193.4698723463593
 20
106.0043184467671
 30
0.0
 10
192.9390864302369
 20
105.7306751493295
 30
0.0
 10
192.3697173609921
 20
105.4371386928749
 30
0.0
 10
192.0053514062172
 20
105.2492934032856
 30
0.0
 10
191.8438331421983
 20
105.1660242485225
 30
0.0
  0
SPLINE
  5
8E
330
1F
100
AcDbEntity
  8
0
  6
Continuous
 62
     7
370
    15
100
AcDbSpline
210
0.0
220
0.0
230
1.0
 70
     8
 71
     3
 72
    11
 73
     7
 74
     0
 42
0.000000001
 43
0.00000001
 40
0.0
 40
0.0
 40
0.0
 40
0.0
 40
0.2164526772476973
 40
0.440305621793948
 40
0.7518961270512997
 40
1.0
 40
1.0
 40
1.0
 40
1.0
 10
194.0063790616167
 20
108.5310512682766
 30
0.0
 10
193.9988531408673
 20
108.3730361731834
 30
0.0
 10
193.9835439968214
 20
108.0516036292087
 30
0.0
 10
193.9551285793187
 20
107.4551076857011
 30
0.0
 10
193.924655601773
 20
106.8152509282377
 30
0.0
 10
193.905151303652
 20
106.4057781913545
 30
0.0
 10
193.8965053495538
 20
106.2242652517155
 30
0.0
  0
SPLINE
  5
8F
330
1F
100
AcDbEntity
  8
0
  6
Continuous
 62
     7
370
    15
100
AcDbSpline
210
0.0
220
0.0
230
1.0
 70
     8
 71
     3
 72
    11
 73
     7
 74
     0
 42
0.000000001
 43
0.00000001
 40
0.0
 40
0.0
 40
0.0
 40
0.0
 40
0.1845130792713965
 40
0.5180568325030225
 40
0.8676115875888742
 40
1.0
 40
1.0
 40
1.0
 40
1.0
 10
192.0635768410337
 20
109.7795960488141
 30
0.0
 10
192.176404839316
 20
109.7070866542559
 30
0.0
 10
192.4931916797861
 20
109.5035022394283
 30
0.0
 10
193.0836759347154
 20
109.1240301737565
 30
0.0
 10
193.6323490871303
 20
108.7714197863821
 30
0.0
 10
193.925775628331
 20
108.5828506670807
 30
0.0
 10
194.0063790616167
 20
108.5310512682766
 30
0.0
  0
SPLINE
  5
90
330
1F
100
AcDbEntity
  8
0
  6
Continuous
 62
     7
370
    15
100
AcDbSpline
210
0.0
220
0.0
230
1.0
 70
     8
 71
     3
 72
    11
 73
     7
 74
     0
 42
0.000000001
 43
0.00000001
 40
0.0
 40
0.0
 40
0.0
 40
0.0
 40
0.2164526772476973
 40
0.440305621793948
 40
0.7518961270512997
 40
1.0
 40
1.0
 40
1.0
 40
1.0
 10
189.9010346469057
 20
106.41456902906
 30
0.0
 10
189.908560567655
 20
106.5725841241532
 30
0.0
 10
189.9238697117009
 20
106.8940166681278
 30
0.0
 10
189.9522851292036
 20
107.4905126116355
 30
0.0
 10
189.9827581067493
 20
108.1303693690988
 30
0.0
 10
190.0022624048703
 20
108.539842105982
 30
0.0
 10
190.0109083589685
 20
108.7213550456211
 30
0.0
  0
CIRCLE
  5
91
330
1F
100
AcDbEntity
  8
0
  6
Continuous
 62
     7
370
    15
100
AcDbCircle
 10
191.9537063655
 20
107.4728101487
 30
0.0
 40
2.350000000000006
  0
SPLINE
  5
92
330
1F
100
AcDbEntity
  8
0
  6
Continuous
 62
     7
370
    15
100
AcDbSpline
210
0.0
220
0.0
230
1.0
 70
     8
 71
     3
 72
    11
 73
     7
 74
     0
 42
0.000000001
 43
0.00000001
 40
0.0
 40
0.0
 40
0.0
 40
0.0
 40
0.2164521190420471
 40
0.440305150724245
 40
0.7518965228988627
 40
1.0
 40
1.0
 40
1.0
 40
1.0
 10
190.0109083589685
 20
108.7213550456211
 30
0.0
 10
190.1515157748216
 20
108.7938446975796
 30
0.0
 10
190.4375382434587
 20
108.9413025615764
 30
0.0
 10
190.9683243568564
 20
109.2149459857222
 30
0.0
 10
191.5376951465019
 20
109.5084798356271
 30
0.0
 10
191.9020599466594
 20
109.6963266571927
 30
0.0
 10
192.0635768410337
 20
109.7795960488141
 30
0.0
  0
CIRCLE
  5
93
330
1F
100
AcDbEntity
  8
0
  6
Continuous
 62
     7
370
    15
100
AcDbCircle
 10
191.9537063655
 20
107.4728101487
 30
0.0
 40
3.500000000000002
  0
CIRCLE
  5
94
330
1F
100
AcDbEntity
  8
0
  6
Continuous
 62
     7
370
    15
100
AcDbCircle
 10
191.9537063655
 20
107.4728101487
 30
0.0
 40
4.000000000000002
  0
ARC
  5
95
330
1F
100
AcDbEntity
  8
0
  6
Continuous
 62
     7
370
    15
100
AcDbCircle
 10
191.9537063655
 20
107.4728101487
 30
0.0
 40
2.000000000000015
100
AcDbArc
 50
237.273070476
 51
297.273070476
  0
ARC
  5
96
330
1F
100
AcDbEntity
  8
0
  6
Continuous
 62
     7
370
    15
100
AcDbCircle
 10
191.9537063655
 20
107.4728101487
 30
0.0
 40
2.000000000000014
100
AcDbArc
 50
117.273070476
 51
177.273070476
  0
ARC
  5
97
330
1F
100
AcDbEntity
  8
0
  6
Continuous
 62
     7
370
    15
100
AcDbCircle
 10
191.9537063655
 20
107.4728101487
 30
0.0
 40
2.000000000000015
100
AcDbArc
 50
177.273070476
 51
237.273070476
  0
ARC
  5
98
330
1F
100
AcDbEntity
  8
0
  6
Continuous
 62
     7
370
    15
100
AcDbCircle
 10
191.9537063655
 20
107.4728101487
 30
0.0
 40
1.999999999999999
100
AcDbArc
 50
357.273070476
 51
57.273070476
  0
ARC
  5
99
330
1F
100
AcDbEntity
  8
0
  6
Continuous
 62
     7
370
    15
100
AcDbCircle
 10
191.9537063655
 20
107.4728101487
 30
0.0
 40
2.000000000000009
100
AcDbArc
 50
57.273070476
 51
117.273070476
  0
ARC
  5
9A
330
1F
100
AcDbEntity
  8
0
  6
Continuous
 62
     7
370
    15
100
AcDbCircle
 10
191.9537063655
 20
107.4728101487
 30
0.0
 40
1.999999999999997
100
AcDbArc
 50
297.273070476
 51
357.273070476
  0
SPLINE
  5
9B
330
1F
100
AcDbEntity
  8
0
  6
Continuous
 62
     7
370
    15
100
AcDbSpline
210
0.0
220
0.0
230
1.0
 70
     8
 71
     3
 72
     8
 73
     4
 74
     0
 42
0.000000001
 43
0.00000001
 40
0.0
 40
0.0
 40
0.0
 40
0.0
 40
1.0
 40
1.0
 40
1.0
 40
1.0
 10
166.343706365503
 20
79.65598368916682
 30
0.0
 10
165.9595716169187
 20
78.96334226722264
 30
0.0
 10
165.5745853404258
 20
78.27115609289895
 30
0.0
 10
165.1889167617994
 20
77.57936180205476
 30
0.0
  0
SPLINE
  5
9C
330
1F
100
AcDbEntity
  8
0
  6
Continuous
 62
     7
370
    15
100
AcDbSpline
210
0.0
220
0.0
230
1.0
 70
     8
 71
     3
 72
     8
 73
     4
 74
     0
 42
0.000000001
 43
0.00000001
 40
0.0
 40
0.0
 40
0.0
 40
0.0
 40
0.0011901715795577
 40
0.0011901715795577
 40
0.0011901715795577
 40
0.0011901715795577
 10
164.7318697234463
 20
77.02471780003162
 30
0.0
 10
164.8857159129423
 20
77.2092830377152
 30
0.0
 10
165.0381111806149
 20
77.39415839824383
 30
0.0
 10
165.1889167617994
 20
77.57936180205476
 30
0.0
  0
LINE
  5
9D
330
1F
100
AcDbEntity
  8
0
  6
Continuous
 62
     7
370
    15
100
AcDbLine
 10
164.7318697732
 20
77.024718001
 30
0.0
 11
164.7318697732
 21
125.8228097106
 31
0.0
  0
SPLINE
  5
9E
330
1F
100
AcDbEntity
  8
0
  6
Continuous
 62
     7
370
    15
100
AcDbSpline
210
0.0
220
0.0
230
1.0
 70
    24
 71
     3
 72
     8
 73
     4
 74
     0
 42
0.000000001
 43
0.00000001
 40
0.0
 40
0.0
 40
0.0
 40
0.0
 40
1.0
 40
1.0
 40
1.0
 40
1.0
 10
166.343706365503
 20
125.8228101486683
 30
0.0
 10
165.8189738771412
 20
125.8228101486683
 30
0.0
 10
165.2802983929224
 20
125.8228101486683
 30
0.0
 10
164.7318697234464
 20
125.8228101486683
 30
0.0
  0
LINE
  5
9F
330
1F
100
AcDbEntity
  8
0
  6
Continuous
 62
     7
370
    15
100
AcDbLine
 10
166.3437060278
 20
79.655983671
 30
0.0
 11
166.3437060278
 21
125.8228097106
 31
0.0
  0
LINE
  5
A0
330
1F
100
AcDbEntity
  8
0
  6
Continuous
 62
     7
370
    15
100
AcDbLine
 10
171.7755434301
 20
97.7207899088
 30
0.0
 11
171.7755434301
 21
125.8228097106
 31
0.0
  0
LINE
  5
A1
330
1F
100
AcDbEntity
  8
0
  6
Continuous
 62
     7
370
    15
100
AcDbLine
 10
175.6037057575
 20
125.8228097106
 30
0.0
 11
171.7755434301
 21
125.8228097106
 31
0.0
  0
LINE
  5
A2
330
1F
100
AcDbEntity
  8
0
  6
Continuous
 62
     7
370
    15
100
AcDbLine
 10
171.7755434301
 20
77.024718001
 30
0.0
 11
175.6037057575
 21
77.024718001
 31
0.0
  0
LINE
  5
A3
330
1F
100
AcDbEntity
  8
0
  6
Continuous
 62
     7
370
    15
100
AcDbLine
 10
171.7755434301
 20
77.024718001
 30
0.0
 11
171.7755434301
 21
95.5213105301
 31
0.0
  0
SPLINE
  5
A4
330
1F
100
AcDbEntity
  8
0
  6
Continuous
 62
     7
370
    15
100
AcDbSpline
210
0.0
220
0.0
230
1.0
 70
     8
 71
     3
 72
    12
 73
     8
 74
     0
 42
0.000000001
 43
0.00000001
 40
0.0
 40
0.0
 40
0.0
 40
0.0
 40
0.2500000000000008
 40
0.2500000000000008
 40
0.5000000000000017
 40
0.5000000000000017
 40
1.0
 40
1.0
 40
1.0
 40
1.0
 10
171.7755430075597
 20
95.52131035046123
 30
0.0
 10
171.8984905013554
 20
95.67926719915633
 30
0.0
 10
171.9920347044642
 20
95.85110056613385
 30
0.0
 10
172.1209740936264
 20
96.2227732757797
 30
0.0
 10
172.1535268510115
 20
96.41596172197093
 30
0.0
 10
172.1540631927454
 20
97.00425826024718
 30
0.0
 10
172.0214395357774
 20
97.3962764981359
 30
0.0
 10
171.7755430075597
 20
97.7207900808446
 30
0.0
  0
SPLINE
  5
A5
330
1F
100
AcDbEntity
  8
0
  6
Continuous
 62
     7
370
    15
100
AcDbSpline
210
0.0
220
0.0
230
1.0
 70
     8
 71
     3
 72
    12
 73
     8
 74
     0
 42
0.000000001
 43
0.00000001
 40
0.0
 40
0.0
 40
0.0
 40
0.0
 40
0.2499999999999992
 40
0.2499999999999992
 40
0.4999999999999983
 40
0.4999999999999983
 40
1.0
 40
1.0
 40
1.0
 40
1.0
 10
175.6037063655031
 20
77.02471780003162
 30
0.0
 10
175.6992482756391
 20
77.02471780003162
 30
0.0
 10
175.7913932175018
 20
77.04097146922783
 30
0.0
 10
175.9477194941117
 20
77.09457989014129
 30
0.0
 10
176.0113876367317
 20
77.13099101542298
 30
0.0
 10
176.1602554821621
 20
77.25311465510947
 30
0.0
 10
176.2037063655031
 20
77.3482673305465
 30
0.0
 10
176.2037063655031
 20
77.44389378616619
 30
0.0
  0
SPLINE
  5
A6
330
1F
100
AcDbEntity
  8
0
  6
Continuous
 62
     7
370
    15
100
AcDbSpline
210
0.0
220
0.0
230
1.0
 70
    24
 71
     3
 72
    12
 73
     8
 74
     0
 42
0.000000001
 43
0.00000001
 40
0.0
 40
0.0
 40
0.0
 40
0.0
 40
0.4999999999999971
 40
0.4999999999999971
 40
0.7499999999999986
 40
0.7499999999999986
 40
1.0
 40
1.0
 40
1.0
 40
1.0
 10
176.2037063655031
 20
125.8228101486683
 30
0.0
 10
176.2037063655031
 20
125.8228101486683
 30
0.0
 10
176.154026370548
 20
125.8228101486683
 30
0.0
 10
175.9981078135305
 20
125.8228101486683
 30
0.0
 10
175.9322267489543
 20
125.8228101486683
 30
0.0
 10
175.7795810934656
 20
125.8228101486683
 30
0.0
 10
175.6923311856047
 20
125.8228101486683
 30
0.0
 10
175.603706365503
 20
125.8228101486683
 30
0.0
  0
LINE
  5
A7
330
1F
100
AcDbEntity
  8
0
  6
Continuous
 62
     7
370
    15
100
AcDbLine
 10
176.2037066009
 20
77.4438932533
 30
0.0
 11
176.2037066009
 21
125.8228097106
 31
0.0
  0
LINE
  5
A8
330
1F
100
AcDbEntity
  8
0
  6
Continuous
 62
     7
370
    15
100
AcDbLine
 10
160.9537064296
 20
77.024718001
 30
0.0
 11
164.7318697732
 21
77.024718001
 31
0.0
  0
LINE
  5
A9
330
1F
100
AcDbEntity
  8
0
  6
Continuous
 62
     7
370
    15
100
AcDbLine
 10
164.7318697732
 20
125.8228097106
 30
0.0
 11
160.9537064296
 21
125.8228097106
 31
0.0
  0
SPLINE
  5
AA
330
1F
100
AcDbEntity
  8
0
  6
Continuous
 62
     7
370
    15
100
AcDbSpline
210
0.0
220
0.0
230
1.0
 70
     8
 71
     3
 72
    10
 73
     6
 74
     0
 42
0.000000001
 43
0.00000001
 40
0.0
 40
0.0
 40
0.0
 40
0.0
 40
0.5
 40
0.5
 40
1.0
 40
1.0
 40
1.0
 40
1.0
 10
160.5698509068503
 20
77.12108029920007
 30
0.0
 10
160.6186208798316
 20
77.09285229199206
 30
0.0
 10
160.676073003134
 20
77.06875768775046
 30
0.0
 10
160.8066699061227
 20
77.03449421465791
 30
0.0
 10
160.8791595859649
 20
77.02471780003161
 30
0.0
 10
160.9537063655031
 20
77.02471780003161
 30
0.0
  0
SPLINE
  5
AB
330
1F
100
AcDbEntity
  8
0
  6
Continuous
 62
     7
370
    15
100
AcDbSpline
210
0.0
220
0.0
230
1.0
 70
     8
 71
     3
 72
    10
 73
     6
 74
     0
 42
0.000000001
 43
0.00000001
 40
0.0
 40
0.0
 40
0.0
 40
0.0
 40
0.5
 40
0.5
 40
1.0
 40
1.0
 40
1.0
 40
1.0
 10
160.5698509068503
 20
77.12108029920007
 30
0.0
 10
160.5117282467741
 20
77.18838545906189
 30
0.0
 10
160.4593250807707
 20
77.26847084609554
 30
0.0
 10
160.3804220592243
 20
77.45249028778429
 30
0.0
 10
160.3537063655031
 20
77.55770164520474
 30
0.0
 10
160.3537063655031
 20
77.66643499166538
 30
0.0
  0
LINE
  5
AC
330
1F
100
AcDbEntity
  8
0
  6
Continuous
 62
     7
370
    15
100
AcDbLine
 10
160.3537062847
 20
77.6664346451
 30
0.0
 11
160.3537062847
 21
125.8228097106
 31
0.0
  0
SPLINE
  5
AD
330
1F
100
AcDbEntity
  8
0
  6
Continuous
 62
     7
370
    15
100
AcDbSpline
210
0.0
220
0.0
230
1.0
 70
    24
 71
     3
 72
    12
 73
     8
 74
     0
 42
0.000000001
 43
0.00000001
 40
0.0
 40
0.0
 40
0.0
 40
0.0
 40
0.25
 40
0.25
 40
0.5
 40
0.5
 40
1.0
 40
1.0
 40
1.0
 40
1.0
 10
160.9537063655031
 20
125.8228101486683
 30
0.0
 10
160.8652909881926
 20
125.8228101486683
 30
0.0
 10
160.778020551022
 20
125.8228101486683
 30
0.0
 10
160.6255568262501
 20
125.8228101486683
 30
0.0
 10
160.5599182140277
 20
125.8228101486683
 30
0.0
 10
160.4032598127438
 20
125.8228101486683
 30
0.0
 10
160.3537063655031
 20
125.8228101486683
 30
0.0
 10
160.3537063655031
 20
125.8228101486683
 30
0.0
  0
LINE
  5
AE
330
1F
100
AcDbEntity
  8
0
  6
Continuous
 62
     7
370
    15
100
AcDbLine
 10
170.1637062442
 20
99.4715273375
 30
0.0
 11
170.1637062442
 21
125.8228097106
 31
0.0
  0
SPLINE
  5
AF
330
1F
100
AcDbEntity
  8
0
  6
Continuous
 62
     7
370
    15
100
AcDbSpline
210
0.0
220
0.0
230
1.0
 70
    24
 71
     3
 72
     8
 73
     4
 74
     0
 42
0.000000001
 43
0.00000001
 40
0.0
 40
0.0
 40
0.0
 40
0.0
 40
1.0
 40
1.0
 40
1.0
 40
1.0
 10
171.7755430075597
 20
125.8228101486683
 30
0.0
 10
171.2271143380838
 20
125.8228101486683
 30
0.0
 10
170.6884388538649
 20
125.8228101486683
 30
0.0
 10
170.1637063655031
 20
125.8228101486683
 30
0.0
  0
SPLINE
  5
B0
330
1F
100
AcDbEntity
  8
0
  6
Continuous
 62
     7
370
    15
100
AcDbSpline
210
0.0
220
0.0
230
1.0
 70
     8
 71
     3
 72
    12
 73
     8
 74
     0
 42
0.000000001
 43
0.00000001
 40
0.0
 40
0.0
 40
0.0
 40
0.0
 40
0.2499999999999997
 40
0.2499999999999997
 40
0.4999999999999993
 40
0.4999999999999993
 40
1.0
 40
1.0
 40
1.0
 40
1.0
 10
171.7755430075598
 20
97.72079008084458
 30
0.0
 10
171.6606469562991
 20
97.94053051590116
 30
0.0
 10
171.5338809398265
 20
98.1374988675229
 30
0.0
 10
171.2736660062079
 20
98.4912164403618
 30
0.0
 10
171.1401585482457
 20
98.64804173423403
 30
0.0
 10
170.7317602796575
 20
99.07458430514171
 30
0.0
 10
170.4481071447199
 20
99.30127648409693
 30
0.0
 10
170.1637063655032
 20
99.47152762849241
 30
0.0
  0
SPLINE
  5
B1
330
1F
100
AcDbEntity
  8
0
  6
Continuous
 62
     7
370
    15
100
AcDbSpline
210
0.0
220
0.0
230
1.0
 70
     8
 71
     3
 72
    14
 73
    10
 74
     0
 42
0.000000001
 43
0.00000001
 40
0.0
 40
0.0
 40
0.0
 40
0.0
 40
0.2499999999999995
 40
0.2499999999999995
 40
0.4999999999999997
 40
0.4999999999999997
 40
0.7499999999999998
 40
0.7499999999999998
 40
1.0
 40
1.0
 40
1.0
 40
1.0
 10
170.1637063655031
 20
99.52577127833862
 30
0.0
 10
170.1637063655031
 20
99.56242214650243
 30
0.0
 10
170.1423785767912
 20
99.59888894375138
 30
0.0
 10
170.0599201741346
 20
99.66402779829224
 30
0.0
 10
169.9988039822795
 20
99.69209892888314
 30
0.0
 10
169.8475008892173
 20
99.72592681061002
 30
0.0
 10
169.7561228658268
 20
99.73138995200652
 30
0.0
 10
169.5637491527739
 20
99.71046403399393
 30
0.0
 10
169.4615688132949
 20
99.68392860861861
 30
0.0
 10
169.363706365503
 20
99.64344243533735
 30
0.0
  0
SPLINE
  5
B2
330
1F
100
AcDbEntity
  8
0
  6
Continuous
 62
     7
370
    15
100
AcDbSpline
210
0.0
220
0.0
230
1.0
 70
     8
 71
     3
 72
    12
 73
     8
 74
     0
 42
0.000000001
 43
0.00000001
 40
0.0
 40
0.0
 40
0.0
 40
0.0
 40
0.5000000000000009
 40
0.5000000000000009
 40
0.7500000000000004
 40
0.7500000000000004
 40
1.0
 40
1.0
 40
1.0
 40
1.0
 10
170.1637063655031
 20
95.71280413027135
 30
0.0
 10
170.4479129000684
 20
95.54533996797761
 30
0.0
 10
170.7266086341722
 20
95.433702868466
 30
0.0
 10
171.1359546773614
 20
95.36638960282664
 30
0.0
 10
171.272094014681
 20
95.36123856281267
 30
0.0
 10
171.533414063677
 20
95.39900450043206
 30
0.0
 10
171.6588352461088
 20
95.44055425877632
 30
0.0
 10
171.7755430075602
 20
95.52131035045915
 30
0.0
  0
LINE
  5
B3
330
1F
100
AcDbEntity
  8
0
  6
Continuous
 62
     7
370
    15
100
AcDbLine
 10
170.1637062442
 20
95.767047442
 30
0.0
 11
170.1637062442
 21
95.7128044213
 31
0.0
  0
SPLINE
  5
B4
330
1F
100
AcDbEntity
  8
0
  6
Continuous
 62
     7
370
    15
100
AcDbSpline
210
0.0
220
0.0
230
1.0
 70
     8
 71
     3
 72
    14
 73
    10
 74
     0
 42
0.000000001
 43
0.00000001
 40
0.0
 40
0.0
 40
0.0
 40
0.0
 40
0.25
 40
0.25
 40
0.5
 40
0.5
 40
0.75
 40
0.75
 40
1.0
 40
1.0
 40
1.0
 40
1.0
 10
169.3637063654995
 20
96.19033095856152
 30
0.0
 10
169.4611157854833
 20
96.15191623916733
 30
0.0
 10
169.5634400284969
 20
96.11421583438458
 30
0.0
 10
169.7554417140344
 20
96.04317104879044
 30
0.0
 10
169.8468763436889
 20
96.00896958743239
 30
0.0
 10
169.9986552109839
 20
95.941973162027
 30
0.0
 10
170.0596321008984
 20
95.90883169371752
 30
0.0
 10
170.1426500394628
 20
95.83915412606743
 30
0.0
 10
170.1637063655031
 20
95.80342041490023
 30
0.0
 10
170.1637063655031
 20
95.76704778011946
 30
0.0
  0
SPLINE
  5
B5
330
1F
100
AcDbEntity
  8
0
  6
Continuous
 62
     7
370
    15
100
AcDbSpline
210
0.0
220
0.0
230
1.0
 70
     8
 71
     3
 72
    22
 73
    18
 74
     0
 42
0.000000001
 43
0.00000001
 40
0.0
 40
0.0
 40
0.0
 40
0.0
 40
0.125
 40
0.125
 40
0.25
 40
0.25
 40
0.375
 40
0.375
 40
0.5
 40
0.5
 40
0.625
 40
0.625
 40
0.75
 40
0.75
 40
0.875
 40
0.875
 40
1.0
 40
1.0
 40
1.0
 40
1.0
 10
169.363706365503
 20
99.64344243533736
 30
0.0
 10
169.1836896709337
 20
99.56896864836084
 30
0.0
 10
169.0192578490635
 20
99.47151938637685
 30
0.0
 10
168.7208616153051
 20
99.2321499528127
 30
0.0
 10
168.5905578879403
 20
99.09225334074235
 30
0.0
 10
168.3773391043212
 20
98.78400175068234
 30
0.0
 10
168.2937112472098
 20
98.61383853256321
 30
0.0
 10
168.1825803702914
 20
98.26334379777293
 30
0.0
 10
168.1537443754376
 20
98.07821883662172
 30
0.0
 10
168.1536684327778
 20
97.71501196200467
 30
0.0
 10
168.1823270582049
 20
97.53164194829718
 30
0.0
 10
168.2934781513172
 20
97.18575083580396
 30
0.0
 10
168.376545271961
 20
97.02023130853651
 30
0.0
 10
168.5902312300793
 20
96.7196915711327
 30
0.0
 10
168.7192382200033
 20
96.58581964984867
 30
0.0
 10
169.0188474994925
 20
96.35457288044435
 30
0.0
 10
169.1836901977536
 20
96.26132276378438
 30
0.0
 10
169.363706365503
 20
96.19033095856011
 30
0.0
  0
SPLINE
  5
B6
330
1F
100
AcDbEntity
  8
0
  6
Continuous
 62
     7
370
    15
100
AcDbSpline
210
0.0
220
0.0
230
1.0
 70
     8
 71
     3
 72
     8
 73
     4
 74
     0
 42
0.000000001
 43
0.00000001
 40
0.0
 40
0.0
 40
0.0
 40
0.0
 40
0.0011901715795577
 40
0.0011901715795577
 40
0.0011901715795577
 40
0.0011901715795577
 10
171.3184959692067
 20
77.57936180205476
 30
0.0
 10
171.4693015503912
 20
77.39415839824383
 30
0.0
 10
171.6216968180639
 20
77.2092830377152
 30
0.0
 10
171.7755430075598
 20
77.02471780003162
 30
0.0
  0
SPLINE
  5
B7
330
1F
100
AcDbEntity
  8
0
  6
Continuous
 62
     7
370
    15
100
AcDbSpline
210
0.0
220
0.0
230
1.0
 70
     8
 71
     3
 72
     8
 73
     4
 74
     0
 42
0.000000001
 43
0.00000001
 40
0.0
 40
0.0
 40
0.0
 40
0.0
 40
1.0
 40
1.0
 40
1.0
 40
1.0
 10
171.3184959692067
 20
77.57936180205476
 30
0.0
 10
170.9328273905803
 20
78.27115609289893
 30
0.0
 10
170.5478411140874
 20
78.96334226722264
 30
0.0
 10
170.1637063655031
 20
79.65598368916682
 30
0.0
  0
LINE
  5
B8
330
1F
100
AcDbEntity
  8
0
  6
Continuous
 62
     7
370
    15
100
AcDbLine
 10
170.1637062442
 20
79.655983671
 30
0.0
 11
170.1637062442
 21
95.7128044213
 31
0.0
  0
SPLINE
  5
B9
330
1F
100
AcDbEntity
  8
0
  6
Continuous
 62
     7
370
    15
100
AcDbSpline
210
0.0
220
0.0
230
1.0
 70
     8
 71
     3
 72
    12
 73
     8
 74
     0
 42
0.000000001
 43
0.00000001
 40
0.0
 40
0.0
 40
0.0
 40
0.0
 40
0.2500000000000015
 40
0.2500000000000015
 40
0.500000000000003
 40
0.500000000000003
 40
1.0
 40
1.0
 40
1.0
 40
1.0
 10
167.1437063655031
 20
80.65495229238155
 30
0.0
 10
167.0373045151456
 20
80.65495229238157
 30
0.0
 10
166.9299891037491
 20
80.63218152836305
 30
0.0
 10
166.7345175127218
 20
80.54593858171094
 30
0.0
 10
166.6443353967843
 20
80.48126226124042
 30
0.0
 10
166.4261139100635
 20
80.24833293718362
 30
0.0
 10
166.3437063655027
 20
80.0337476992926
 30
0.0
 10
166.343706365503
 20
79.82073066085988
 30
0.0
  0
SPLINE
  5
BA
330
1F
100
AcDbEntity
  8
0
  6
Continuous
 62
     7
370
    15
100
AcDbSpline
210
0.0
220
0.0
230
1.0
 70
    24
 71
     3
 72
    14
 73
    10
 74
     0
 42
0.000000001
 43
0.00000001
 40
0.0
 40
0.0
 40
0.0
 40
0.0
 40
0.1250000000000007
 40
0.1250000000000007
 40
0.2500000000000014
 40
0.2500000000000014
 40
0.499999999999999
 40
0.499999999999999
 40
1.0
 40
1.0
 40
1.0
 40
1.0
 10
167.143706365503
 20
125.8228101486683
 30
0.0
 10
167.0830890420855
 20
125.8228101486683
 30
0.0
 10
167.0209638939504
 20
125.8228101486683
 30
0.0
 10
166.904746230929
 20
125.8228101486683
 30
0.0
 10
166.8501295912366
 20
125.8228101486683
 30
0.0
 10
166.6954532527284
 20
125.8228101486683
 30
0.0
 10
166.6093365039444
 20
125.8228101486683
 30
0.0
 10
166.4080289234038
 20
125.8228101486683
 30
0.0
 10
166.343706365503
 20
125.8228101486683
 30
0.0
 10
166.343706365503
 20
125.8228101486683
 30
0.0
  0
SPLINE
  5
BB
330
1F
100
AcDbEntity
  8
0
  6
Continuous
 62
     7
370
    15
100
AcDbSpline
210
0.0
220
0.0
230
1.0
 70
    24
 71
     3
 72
    14
 73
    10
 74
     0
 42
0.000000001
 43
0.00000001
 40
0.0
 40
0.0
 40
0.0
 40
0.0
 40
0.25
 40
0.25
 40
0.5
 40
0.5
 40
0.75
 40
0.75
 40
1.0
 40
1.0
 40
1.0
 40
1.0
 10
170.1637063655031
 20
125.8228101486683
 30
0.0
 10
170.1637063655031
 20
125.8228101486683
 30
0.0
 10
170.1476247640433
 20
125.8228101486683
 30
0.0
 10
170.0821332507764
 20
125.8228101486683
 30
0.0
 10
170.032825277649
 20
125.8228101486683
 30
0.0
 10
169.8982557559521
 20
125.8228101486683
 30
0.0
 10
169.8127326798668
 20
125.8228101486683
 30
0.0
 10
169.6057371843118
 20
125.8228101486683
 30
0.0
 10
169.4850435503682
 20
125.8228101486683
 30
0.0
 10
169.3637063655031
 20
125.8228101486683
 30
0.0
  0
LINE
  5
BC
330
1F
100
AcDbEntity
  8
0
  6
Continuous
 62
     7
370
    15
100
AcDbLine
 10
169.3637066719
 20
80.6549519295
 30
0.0
 11
167.1437065315
 21
80.6549519295
 31
0.0
  0
LINE
  5
BD
330
1F
100
AcDbEntity
  8
0
  6
Continuous
 62
     7
370
    15
100
AcDbLine
 10
169.3637066719
 20
125.8228097106
 30
0.0
 11
167.1437065315
 21
125.8228097106
 31
0.0
  0
SPLINE
  5
BE
330
1F
100
AcDbEntity
  8
0
  6
Continuous
 62
     7
370
    15
100
AcDbSpline
210
0.0
220
0.0
230
1.0
 70
     8
 71
     3
 72
    12
 73
     8
 74
     0
 42
0.000000001
 43
0.00000001
 40
0.0
 40
0.0
 40
0.0
 40
0.0
 40
0.5000000000000013
 40
0.5000000000000013
 40
0.7500000000000007
 40
0.7500000000000007
 40
1.0
 40
1.0
 40
1.0
 40
1.0
 10
170.1637063655031
 20
79.82073066086123
 30
0.0
 10
170.1637063655031
 20
80.0335532197941
 30
0.0
 10
170.0817810076833
 20
80.24780972643208
 30
0.0
 10
169.8628592042149
 20
80.48149935488198
 30
0.0
 10
169.7728119127239
 20
80.54598417972595
 30
0.0
 10
169.5773984447041
 20
80.63218379088153
 30
0.0
 10
169.4701154777203
 20
80.65495229238157
 30
0.0
 10
169.3637063655031
 20
80.65495229238157
 30
0.0
  0
LINE
  5
BF
330
1F
100
AcDbEntity
  8
0
  6
Continuous
 62
     7
370
    15
100
AcDbLine
 10
157.1537063655
 20
85.2478101844
 30
0.0
 11
157.1537063655
 21
129.6978101129
 31
0.0
  0
LINE
  5
C0
330
1F
100
AcDbEntity
  8
0
  6
Continuous
 62
     7
370
    15
100
AcDbLine
 10
175.6037057575
 20
137.9691466684
 30
0.0
 11
171.7755434301
 21
137.9691466684
 31
0.0
  0
LINE
  5
C1
330
1F
100
AcDbEntity
  8
0
  6
Continuous
 62
     7
370
    15
100
AcDbLine
 10
171.7755434301
 20
133.3830405021
 30
0.0
 11
175.6037057575
 21
133.3830405021
 31
0.0
  0
LINE
  5
C2
330
1F
100
AcDbEntity
  8
0
  6
Continuous
 62
     7
370
    15
100
AcDbLine
 10
171.7755434301
 20
133.3830405021
 30
0.0
 11
171.7755434301
 21
137.9691466684
 31
0.0
  0
SPLINE
  5
C3
330
1F
100
AcDbEntity
  8
0
  6
Continuous
 62
     7
370
    15
100
AcDbSpline
210
0.0
220
0.0
230
1.0
 70
     8
 71
     3
 72
    12
 73
     8
 74
     0
 42
0.000000001
 43
0.00000001
 40
0.0
 40
0.0
 40
0.0
 40
0.0
 40
0.5000000000000003
 40
0.5000000000000003
 40
0.7500000000000001
 40
0.7500000000000001
 40
1.0
 40
1.0
 40
1.0
 40
1.0
 10
160.3537063655031
 20
132.6442225047519
 30
0.0
 10
160.3537063655031
 20
132.8208389012737
 30
0.0
 10
160.4030470003249
 20
132.9958960726474
 30
0.0
 10
160.559262558613
 20
133.20984628514
 30
0.0
 10
160.6245651385137
 20
133.271178927987
 30
0.0
 10
160.7783341564741
 20
133.3585670259582
 30
0.0
 10
160.8653472630845
 20
133.3830397887158
 30
0.0
 10
160.9537063655031
 20
133.3830397887158
 30
0.0
  0
LINE
  5
C4
330
1F
100
AcDbEntity
  8
0
  6
Continuous
 62
     7
370
    15
100
AcDbLine
 10
160.9537064296
 20
133.3830405021
 30
0.0
 11
164.7318697732
 21
133.3830405021
 31
0.0
  0
SPLINE
  5
C5
330
1F
100
AcDbEntity
  8
0
  6
Continuous
 62
     7
370
    15
100
AcDbSpline
210
0.0
220
0.0
230
1.0
 70
     8
 71
     3
 72
     8
 73
     4
 74
     0
 42
0.000000001
 43
0.00000001
 40
0.0
 40
0.0
 40
0.0
 40
0.0
 40
1.0
 40
1.0
 40
1.0
 40
1.0
 10
164.7318697234463
 20
133.3830397887158
 30
0.0
 10
165.2808145016432
 20
132.2179436764022
 30
0.0
 10
165.81942487616
 20
131.0487853595777
 30
0.0
 10
166.343706365503
 20
129.8749492045268
 30
0.0
  0
LINE
  5
C6
330
1F
100
AcDbEntity
  8
0
  6
Continuous
 62
     7
370
    15
100
AcDbLine
 10
166.3437060278
 20
129.8749495292
 30
0.0
 11
166.3437060278
 21
129.6700511122
 31
0.0
  0
SPLINE
  5
C7
330
1F
100
AcDbEntity
  8
0
  6
Continuous
 62
     7
370
    15
100
AcDbSpline
210
0.0
220
0.0
230
1.0
 70
     8
 71
     3
 72
    14
 73
    10
 74
     0
 42
0.000000001
 43
0.00000001
 40
0.0
 40
0.0
 40
0.0
 40
0.0
 40
0.25
 40
0.25
 40
0.5
 40
0.5
 40
0.75
 40
0.75
 40
1.0
 40
1.0
 40
1.0
 40
1.0
 10
166.343706365503
 20
129.6700509681936
 30
0.0
 10
166.343706365503
 20
129.548115633012
 30
0.0
 10
166.359750733043
 20
129.4285613925106
 30
0.0
 10
166.4254800752223
 20
129.1944454093674
 30
0.0
 10
166.4746874454707
 20
129.0825128692326
 30
0.0
 10
166.6097004263695
 20
128.8801130599958
 30
0.0
 10
166.6956204949758
 20
128.7902478664328
 30
0.0
 10
166.9021352969812
 20
128.6599133568226
 30
0.0
 10
167.0222740093523
 20
128.6217462921248
 30
0.0
 10
167.1437063655031
 20
128.6217462921248
 30
0.0
  0
LINE
  5
C8
330
1F
100
AcDbEntity
  8
0
  6
Continuous
 62
     7
370
    15
100
AcDbLine
 10
167.1437065315
 20
128.6217469717
 30
0.0
 11
169.3637066719
 21
128.6217469717
 31
0.0
  0
SPLINE
  5
C9
330
1F
100
AcDbEntity
  8
0
  6
Continuous
 62
     7
370
    15
100
AcDbSpline
210
0.0
220
0.0
230
1.0
 70
     8
 71
     3
 72
    12
 73
     8
 74
     0
 42
0.000000001
 43
0.00000001
 40
0.0
 40
0.0
 40
0.0
 40
0.0
 40
0.2500000000000015
 40
0.2500000000000015
 40
0.500000000000003
 40
0.500000000000003
 40
1.0
 40
1.0
 40
1.0
 40
1.0
 10
169.3637063655031
 20
128.6217462921248
 30
0.0
 10
169.4857883629914
 20
128.6217462921248
 30
0.0
 10
169.606378905477
 20
128.6604726482985
 30
0.0
 10
169.8118741891769
 20
128.7904362360447
 30
0.0
 10
169.8973906721294
 20
128.8796424725915
 30
0.0
 10
170.1007850236736
 20
129.1845190101371
 30
0.0
 10
170.1637063655031
 20
129.4272896242392
 30
0.0
 10
170.1637063655031
 20
129.6700509681936
 30
0.0
  0
SPLINE
  5
CA
330
1F
100
AcDbEntity
  8
0
  6
Continuous
 62
     7
370
    15
100
AcDbSpline
210
0.0
220
0.0
230
1.0
 70
     8
 71
     3
 72
     8
 73
     4
 74
     0
 42
0.000000001
 43
0.00000001
 40
0.0
 40
0.0
 40
0.0
 40
0.0
 40
1.0
 40
1.0
 40
1.0
 40
1.0
 10
170.1637063655031
 20
129.8749492045268
 30
0.0
 10
170.688497484999
 20
131.0499263922315
 30
0.0
 10
171.2270137361818
 20
132.2188255599697
 30
0.0
 10
171.7755430075598
 20
133.3830397887159
 30
0.0
  0
SPLINE
  5
CB
330
1F
100
AcDbEntity
  8
0
  6
Continuous
 62
     7
370
    15
100
AcDbSpline
210
0.0
220
0.0
230
1.0
 70
     8
 71
     3
 72
    14
 73
    10
 74
     0
 42
0.000000001
 43
0.00000001
 40
0.0
 40
0.0
 40
0.0
 40
0.0
 40
0.25
 40
0.25
 40
0.5
 40
0.5
 40
0.75
 40
0.75
 40
1.0
 40
1.0
 40
1.0
 40
1.0
 10
175.6037063655031
 20
133.3830397887158
 30
0.0
 10
175.6921289036256
 20
133.3830397887158
 30
0.0
 10
175.7801828933186
 20
133.3579674382565
 30
0.0
 10
175.9320126571899
 20
133.2716253732851
 30
0.0
 10
175.9978556017537
 20
133.2100821187723
 30
0.0
 10
176.1016546622993
 20
133.0682543725214
 30
0.0
 10
176.1401267717739
 20
132.9882057825513
 30
0.0
 10
176.1913494350485
 20
132.8191932858776
 30
0.0
 10
176.2037063655031
 20
132.732413979008
 30
0.0
 10
176.2037063655031
 20
132.6442225047519
 30
0.0
  0
LINE
  5
CC
330
1F
100
AcDbEntity
  8
0
  6
Continuous
 62
     7
370
    15
100
AcDbLine
 10
170.1637062442
 20
129.6700511122
 30
0.0
 11
170.1637062442
 21
129.8749495292
 31
0.0
  0
LINE
  5
CD
330
1F
100
AcDbEntity
  8
0
  6
Continuous
 62
     7
370
    15
100
AcDbLine
 10
160.3537062847
 20
132.6442223037
 30
0.0
 11
160.3537062847
 21
125.8228097106
 31
0.0
  0
LINE
  5
CE
330
1F
100
AcDbEntity
  8
0
  6
Continuous
 62
     7
370
    15
100
AcDbLine
 10
176.2037066009
 20
132.6442223037
 30
0.0
 11
176.2037066009
 21
125.8228097106
 31
0.0
  0
SPLINE
  5
CF
330
1F
100
AcDbEntity
  8
0
  6
Continuous
 62
     7
370
    15
100
AcDbSpline
210
0.0
220
0.0
230
1.0
 70
     8
 71
     3
 72
    12
 73
     8
 74
     0
 42
0.000000001
 43
0.00000001
 40
0.0
 40
0.0
 40
0.0
 40
0.0
 40
0.4999999999999971
 40
0.4999999999999971
 40
0.7499999999999986
 40
0.7499999999999986
 40
1.0
 40
1.0
 40
1.0
 40
1.0
 10
176.2037063655031
 20
137.4833612821095
 30
0.0
 10
176.2037063655031
 20
137.6036883151626
 30
0.0
 10
176.1499115539101
 20
137.7217858886444
 30
0.0
 10
175.9889879839438
 20
137.8614286310834
 30
0.0
 10
175.9242365228413
 20
137.8997045844779
 30
0.0
 10
175.7720163395236
 20
137.9545444141123
 30
0.0
 10
175.6892088239986
 20
137.9691462278839
 30
0.0
 10
175.6037063655031
 20
137.9691462278839
 30
0.0
  0
LINE
  5
D0
330
1F
100
AcDbEntity
  8
0
  6
Continuous
 62
     7
370
    15
100
AcDbLine
 10
176.2037066009
 20
132.6442223037
 30
0.0
 11
176.2037066009
 21
137.4833613629
 31
0.0
  0
SPLINE
  5
D1
330
1F
100
AcDbEntity
  8
0
  6
Continuous
 62
     7
370
    15
100
AcDbSpline
210
0.0
220
0.0
230
1.0
 70
     8
 71
     3
 72
     8
 73
     4
 74
     0
 42
0.000000001
 43
0.00000001
 40
0.0
 40
0.0
 40
0.0
 40
0.0
 40
1.0
 40
1.0
 40
1.0
 40
1.0
 10
171.2176610517991
 20
137.1853483049328
 30
0.0
 10
170.8657170288908
 20
136.5537869169189
 30
0.0
 10
170.5143586058306
 20
135.9219050172201
 30
0.0
 10
170.1637063655031
 20
135.2896366081698
 30
0.0
  0
SPLINE
  5
D2
330
1F
100
AcDbEntity
  8
0
  6
Continuous
 62
     7
370
    15
100
AcDbSpline
210
0.0
220
0.0
230
1.0
 70
     8
 71
     3
 72
     8
 73
     4
 74
     0
 42
0.000000001
 43
0.00000001
 40
0.0
 40
0.0
 40
0.0
 40
0.0
 40
0.0012409313617635
 40
0.0012409313617635
 40
0.0012409313617635
 40
0.0012409313617635
 10
171.7755430075597
 20
137.9691462278839
 30
0.0
 10
171.5888700793276
 20
137.7081343501853
 30
0.0
 10
171.4028848913551
 20
137.4468758484099
 30
0.0
 10
171.2176610517991
 20
137.1853483049328
 30
0.0
  0
LINE
  5
D3
330
1F
100
AcDbEntity
  8
0
  6
Continuous
 62
     7
370
    15
100
AcDbLine
 10
170.1637062442
 20
129.8749495292
 30
0.0
 11
170.1637062442
 21
135.2896366263
 31
0.0
  0
SPLINE
  5
D4
330
1F
100
AcDbEntity
  8
0
  6
Continuous
 62
     7
370
    15
100
AcDbSpline
210
0.0
220
0.0
230
1.0
 70
     8
 71
     3
 72
    12
 73
     8
 74
     0
 42
0.000000001
 43
0.00000001
 40
0.0
 40
0.0
 40
0.0
 40
0.0
 40
0.5
 40
0.5
 40
0.75
 40
0.75
 40
1.0
 40
1.0
 40
1.0
 40
1.0
 10
170.1637063655031
 20
135.1248896364753
 30
0.0
 10
170.1637063655031
 20
134.9117522348238
 30
0.0
 10
170.0810639503551
 20
134.6967727100862
 30
0.0
 10
169.8624805395447
 20
134.4638536412004
 30
0.0
 10
169.773390586564
 20
134.3999867313799
 30
0.0
 10
169.5779852686665
 20
134.3136005769981
 30
0.0
 10
169.4714612217232
 20
134.2906680049551
 30
0.0
 10
169.3637063655031
 20
134.2906680049551
 30
0.0
  0
LINE
  5
D5
330
1F
100
AcDbEntity
  8
0
  6
Continuous
 62
     7
370
    15
100
AcDbLine
 10
169.3637066719
 20
134.2906683678
 30
0.0
 11
167.1437065315
 21
134.2906683678
 31
0.0
  0
SPLINE
  5
D6
330
1F
100
AcDbEntity
  8
0
  6
Continuous
 62
     7
370
    15
100
AcDbSpline
210
0.0
220
0.0
230
1.0
 70
     8
 71
     3
 72
     8
 73
     4
 74
     0
 42
0.000000001
 43
0.00000001
 40
0.0
 40
0.0
 40
0.0
 40
0.0
 40
0.0012409313617635
 40
0.0012409313617635
 40
0.0012409313617635
 40
0.0012409313617635
 10
165.289751679207
 20
137.1853483049328
 30
0.0
 10
165.1045278396511
 20
137.4468758484099
 30
0.0
 10
164.9185426516785
 20
137.7081343501853
 30
0.0
 10
164.7318697234463
 20
137.9691462278839
 30
0.0
  0
SPLINE
  5
D7
330
1F
100
AcDbEntity
  8
0
  6
Continuous
 62
     7
370
    15
100
AcDbSpline
210
0.0
220
0.0
230
1.0
 70
     8
 71
     3
 72
     8
 73
     4
 74
     0
 42
0.000000001
 43
0.00000001
 40
0.0
 40
0.0
 40
0.0
 40
0.0
 40
1.0
 40
1.0
 40
1.0
 40
1.0
 10
166.343706365503
 20
135.2896366081698
 30
0.0
 10
165.9930541251755
 20
135.9219050172201
 30
0.0
 10
165.6416957021153
 20
136.5537869169189
 30
0.0
 10
165.289751679207
 20
137.1853483049328
 30
0.0
  0
LINE
  5
D8
330
1F
100
AcDbEntity
  8
0
  6
Continuous
 62
     7
370
    15
100
AcDbLine
 10
164.7318697732
 20
133.3830405021
 30
0.0
 11
164.7318697732
 21
137.9691466684
 31
0.0
  0
LINE
  5
D9
330
1F
100
AcDbEntity
  8
0
  6
Continuous
 62
     7
370
    15
100
AcDbLine
 10
166.3437060278
 20
129.8749495292
 30
0.0
 11
166.3437060278
 21
135.2896366263
 31
0.0
  0
LINE
  5
DA
330
1F
100
AcDbEntity
  8
0
  6
Continuous
 62
     7
370
    15
100
AcDbLine
 10
164.7318697732
 20
137.9691466684
 30
0.0
 11
160.9537064296
 21
137.9691466684
 31
0.0
  0
SPLINE
  5
DB
330
1F
100
AcDbEntity
  8
0
  6
Continuous
 62
     7
370
    15
100
AcDbSpline
210
0.0
220
0.0
230
1.0
 70
     8
 71
     3
 72
    10
 73
     6
 74
     0
 42
0.000000001
 43
0.00000001
 40
0.0
 40
0.0
 40
0.0
 40
0.0
 40
0.5
 40
0.5
 40
1.0
 40
1.0
 40
1.0
 40
1.0
 10
160.6409479668106
 20
137.8981067036252
 30
0.0
 10
160.5651083728071
 20
137.8280575172966
 30
0.0
 10
160.4977848550811
 20
137.742838743723
 30
0.0
 10
160.391141216776
 20
137.5326126170611
 30
0.0
 10
160.3537063655031
 20
137.4091034261938
 30
0.0
 10
160.3537063655031
 20
137.2791853056712
 30
0.0
  0
SPLINE
  5
DC
330
1F
100
AcDbEntity
  8
0
  6
Continuous
 62
     7
370
    15
100
AcDbSpline
210
0.0
220
0.0
230
1.0
 70
     8
 71
     3
 72
     8
 73
     4
 74
     0
 42
0.000000001
 43
0.00000001
 40
0.0
 40
0.0
 40
0.0
 40
0.0
 40
1.0
 40
1.0
 40
1.0
 40
1.0
 10
160.9537063655031
 20
137.9691462278839
 30
0.0
 10
160.8415281113234
 20
137.9691462278839
 30
0.0
 10
160.732858598595
 20
137.9434651626229
 30
0.0
 10
160.6409479668106
 20
137.8981067036252
 30
0.0
  0
LINE
  5
DD
330
1F
100
AcDbEntity
  8
0
  6
Continuous
 62
     7
370
    15
100
AcDbLine
 10
160.3537062847
 20
132.6442223037
 30
0.0
 11
160.3537062847
 21
137.2791856522
 31
0.0
  0
SPLINE
  5
DE
330
1F
100
AcDbEntity
  8
0
  6
Continuous
 62
     7
370
    15
100
AcDbSpline
210
0.0
220
0.0
230
1.0
 70
     8
 71
     3
 72
    14
 73
    10
 74
     0
 42
0.000000001
 43
0.00000001
 40
0.0
 40
0.0
 40
0.0
 40
0.0
 40
0.25
 40
0.25
 40
0.5
 40
0.5
 40
0.75
 40
0.75
 40
1.0
 40
1.0
 40
1.0
 40
1.0
 10
167.1437063655031
 20
134.2906680049551
 30
0.0
 10
167.0363373209887
 20
134.2906680049551
 30
0.0
 10
166.9295318292259
 20
134.31359300036
 30
0.0
 10
166.7343904607091
 20
134.3997854342342
 30
0.0
 10
166.6451807431191
 20
134.4636294308982
 30
0.0
 10
166.4992539503028
 20
134.6190455388395
 30
0.0
 10
166.4412642065047
 20
134.7117001170473
 30
0.0
 10
166.3636703649821
 20
134.9109334570968
 30
0.0
 10
166.343706365503
 20
135.017538552152
 30
0.0
 10
166.343706365503
 20
135.1248896364753
 30
0.0
  0
LINE
  5
DF
330
1F
100
AcDbEntity
  8
0
  6
Continuous
 62
     7
370
    15
100
AcDbLine
 10
201.2537078199
 20
91.7728107417
 30
0.0
 11
201.2537078199
 21
123.1728095556
 31
0.0
  0
LINE
  5
E0
330
1F
100
AcDbEntity
  8
0
  6
Continuous
 62
     7
370
    15
100
AcDbLine
 10
200.9537064668
 20
91.4728093887
 30
0.0
 11
200.9537064668
 21
123.4728109086
 31
0.0
  0
SPLINE
  5
E1
330
1F
100
AcDbEntity
  8
0
  6
Continuous
 62
     7
370
    15
100
AcDbSpline
210
0.0
220
0.0
230
1.0
 70
     8
 71
     3
 72
    42
 73
    38
 74
     0
 42
0.000000001
 43
0.00000001
 40
0.0
 40
0.0
 40
0.0
 40
0.0
 40
0.0312499999999999
 40
0.0312499999999999
 40
0.0624999999999997
 40
0.0624999999999997
 40
0.1249999999999997
 40
0.1249999999999997
 40
0.1874999999999997
 40
0.1874999999999997
 40
0.2499999999999997
 40
0.2499999999999997
 40
0.3124999999999997
 40
0.3124999999999997
 40
0.3749999999999996
 40
0.3749999999999996
 40
0.4374999999999996
 40
0.4374999999999996
 40
0.4999999999999997
 40
0.4999999999999997
 40
0.5624999999999997
 40
0.5624999999999997
 40
0.6249999999999998
 40
0.6249999999999998
 40
0.6874999999999998
 40
0.6874999999999998
 40
0.7499999999999998
 40
0.7499999999999998
 40
0.7812499999999998
 40
0.7812499999999998
 40
0.8124999999999998
 40
0.8124999999999998
 40
0.8749999999999998
 40
0.8749999999999998
 40
0.9374999999999999
 40
0.9374999999999999
 40
1.0
 40
1.0
 40
1.0
 40
1.0
 10
197.2037063655031
 20
107.4728101486683
 30
0.0
 10
197.2037063655031
 20
107.311877377661
 30
0.0
 10
197.1939057117478
 20
107.150805997781
 30
0.0
 10
197.154277168749
 20
106.8283802356881
 30
0.0
 10
197.1242895660251
 20
106.6672106356093
 30
0.0
 10
197.0072303134687
 20
106.1968176246257
 30
0.0
 10
196.8928631993655
 20
105.89574779752
 30
0.0
 10
196.5950820928546
 20
105.31812127917
 30
0.0
 10
196.4168146556148
 20
105.0513470711226
 30
0.0
 10
196.0078737769703
 20
104.5564747042136
 30
0.0
 10
195.7758539849503
 20
104.3282189331177
 30
0.0
 10
195.2792898154548
 20
103.9243166461148
 30
0.0
 10
195.0127569178777
 20
103.7460393805766
 30
0.0
 10
194.4445451938041
 20
103.4353835637495
 30
0.0
 10
194.1502979857495
 20
103.3070461753466
 30
0.0
 10
193.5426938209819
 20
103.1002763328176
 30
0.0
 10
193.2268561693416
 20
103.0215273854092
 30
0.0
 10
192.5870568172574
 20
102.9173365466978
 30
0.0
 10
192.2661865743309
 20
102.8919432958403
 30
0.0
 10
191.622555099533
 20
102.8929533429131
 30
0.0
 10
191.296931114892
 20
102.9199100471164
 30
0.0
 10
190.6583422824908
 20
103.0264781311021
 30
0.0
 10
190.347249060522
 20
103.10520843959
 30
0.0
 10
189.7412431341322
 20
103.3135175543886
 30
0.0
 10
189.4435613211951
 20
103.4446889807211
 30
0.0
 10
188.8803770023984
 20
103.7551724811881
 30
0.0
 10
188.6160802020732
 20
103.9330609972359
 30
0.0
 10
188.2462489421448
 20
104.2354898247046
 30
0.0
 10
188.1274386284705
 20
104.3422740535477
 30
0.0
 10
187.8993113921916
 20
104.5686759956824
 30
0.0
 10
187.7897197791505
 20
104.6887817247613
 30
0.0
 10
187.4840835543878
 20
105.0604726476256
 30
0.0
 10
187.3080996176681
 20
105.325762105453
 30
0.0
 10
187.0155539615288
 20
105.894372087304
 30
0.0
 10
186.8983275221022
 20
106.2026393483237
 30
0.0
 10
186.7435518708411
 20
106.8278821672583
 30
0.0
 10
186.7037063655031
 20
107.1469262717946
 30
0.0
 10
186.7037063655031
 20
107.4728101486683
 30
0.0
  0
SPLINE
  5
E2
330
1F
100
AcDbEntity
  8
0
  6
Continuous
 62
     7
370
    15
100
AcDbSpline
210
0.0
220
0.0
230
1.0
 70
     8
 71
     3
 72
    42
 73
    38
 74
     0
 42
0.000000001
 43
0.00000001
 40
0.0
 40
0.0
 40
0.0
 40
0.0
 40
0.0312500000000002
 40
0.0312500000000002
 40
0.0625000000000003
 40
0.0625000000000003
 40
0.1250000000000005
 40
0.1250000000000005
 40
0.1875000000000006
 40
0.1875000000000006
 40
0.2500000000000007
 40
0.2500000000000007
 40
0.3125000000000003
 40
0.3125000000000003
 40
0.3749999999999999
 40
0.3749999999999999
 40
0.4999999999999991
 40
0.4999999999999991
 40
0.5624999999999994
 40
0.5624999999999994
 40
0.6249999999999997
 40
0.6249999999999997
 40
0.6875
 40
0.6875
 40
0.7500000000000003
 40
0.7500000000000003
 40
0.8125000000000006
 40
0.8125000000000006
 40
0.8437500000000006
 40
0.8437500000000006
 40
0.8750000000000006
 40
0.8750000000000006
 40
0.9375000000000001
 40
0.9375000000000001
 40
0.9687500000000001
 40
0.9687500000000001
 40
1.0
 40
1.0
 40
1.0
 40
1.0
 10
186.7037063655031
 20
107.4728101486683
 30
0.0
 10
186.7037063655031
 20
107.6357545790211
 30
0.0
 10
186.7139232708411
 20
107.7995906068316
 30
0.0
 10
186.7537536153347
 20
108.1208423448428
 30
0.0
 10
186.7833440477352
 20
108.27944600863
 30
0.0
 10
186.9003957777339
 20
108.7493612949852
 30
0.0
 10
187.0178313106899
 20
109.0570383790199
 30
0.0
 10
187.3135940655128
 20
109.629137384955
 30
0.0
 10
187.4938083561123
 20
109.8989973923199
 30
0.0
 10
187.9063511605787
 20
110.3965292930237
 30
0.0
 10
188.1358176937474
 20
110.621595366482
 30
0.0
 10
188.6379201069053
 20
111.0285220891514
 30
0.0
 10
188.9056769928727
 20
111.2061340448239
 30
0.0
 10
189.4659187068338
 20
111.5113638904627
 30
0.0
 10
189.7593898747227
 20
111.6396921068531
 30
0.0
 10
190.6804494684062
 20
111.9520913774003
 30
0.0
 10
191.3175752110274
 20
112.0546843464256
 30
0.0
 10
192.2926553200066
 20
112.0524023444836
 30
0.0
 10
192.6132674920906
 20
112.0252364081971
 30
0.0
 10
193.2459653397781
 20
111.9196692775042
 30
0.0
 10
193.5594668535084
 20
111.8407924380633
 30
0.0
 10
194.1713449093707
 20
111.6301816837432
 30
0.0
 10
194.4637675328613
 20
111.5007780582346
 30
0.0
 10
195.0219109462093
 20
111.1934707548523
 30
0.0
 10
195.2891749359628
 20
111.0143714817062
 30
0.0
 10
195.7875049361712
 20
110.6067673325424
 30
0.0
 10
196.0135120811018
 20
110.3828613206894
 30
0.0
 10
196.3166381777711
 20
110.0152240087119
 30
0.0
 10
196.411654772467
 20
109.887342999217
 30
0.0
 10
196.5888050683713
 20
109.6200734600714
 30
0.0
 10
196.6714150954567
 20
109.4796690802897
 30
0.0
 10
196.8931368012595
 20
109.0488583006616
 30
0.0
 10
197.0073264719468
 20
108.7486769444159
 30
0.0
 10
197.1245269597912
 20
108.2773248994027
 30
0.0
 10
197.1544815267502
 20
108.1158551371973
 30
0.0
 10
197.1939048633829
 20
107.7945419924668
 30
0.0
 10
197.2037063655031
 20
107.6337453808648
 30
0.0
 10
197.2037063655031
 20
107.4728101486683
 30
0.0
  0
LINE
  5
E3
330
1F
100
AcDbEntity
  8
0
  6
Continuous
 62
     7
370
    15
100
AcDbLine
 10
88.9037058887
 20
96.0656797508
 30
0.0
 11
88.9037058887
 21
118.8799405465
 31
0.0
  0
ARC
  5
E4
330
1F
100
AcDbEntity
  8
0
  6
Continuous
 62
     7
370
    15
100
AcDbCircle
 10
170.0165372844
 20
98.2242731725
 30
0.0
 40
1.86294059228878
100
AcDbArc
 50
180.6215452525
 51
247.1949219972
  0
ARC
  5
E5
330
1F
100
AcDbEntity
  8
0
  6
Continuous
 62
     7
370
    15
100
AcDbCircle
 10
170.1547266982
 20
98.3652409478
 30
0.0
 40
2.047743227335686
100
AcDbArc
 50
245.1590001255
 51
332.5972149641
  0
ARC
  5
E6
330
1F
100
AcDbEntity
  8
0
  6
Continuous
 62
     7
370
    15
100
AcDbCircle
 10
170.0043165491
 20
98.170601208
 30
0.0
 40
1.745413582390977
100
AcDbArc
 50
158.0226588452
 51
247.5374016014
  0
ARC
  5
E7
330
1F
100
AcDbEntity
  8
0
  6
Continuous
 62
     7
370
    15
100
AcDbCircle
 10
170.1558280938
 20
98.314192068
 30
0.0
 40
1.937871431083355
100
AcDbArc
 50
245.0189274978
 51
335.7018882306
  0
ARC
  5
E8
330
1F
100
AcDbEntity
  8
0
  6
Continuous
 62
     7
370
    15
100
AcDbCircle
 10
170.0768997534
 20
98.1790709645
 30
0.0
 40
1.402074382389175
100
AcDbArc
 50
87.1306449692
 51
246.1185482951
  0
ARC
  5
E9
330
1F
100
AcDbEntity
  8
0
  6
Continuous
 62
     7
370
    15
100
AcDbCircle
 10
170.1584256827
 20
98.2587326751
 30
0.0
 40
1.508514325252797
100
AcDbArc
 50
244.5118910343
 51
348.5062284678
  0
CIRCLE
  5
EA
330
1F
100
AcDbEntity
  8
0
  6
HIDDEN
 62
     7
370
     0
100
AcDbCircle
 10
191.9537063655
 20
107.4728101487
 30
0.0
 40
3.508270759903338
  0
CIRCLE
  5
EB
330
1F
100
AcDbEntity
  8
0
  6
HIDDEN
 62
     7
370
     0
100
AcDbCircle
 10
191.9537063655
 20
107.4728101487
 30
0.0
 40
2.499560044878001
  0
ARC
  5
EC
330
1F
100
AcDbEntity
  8
0
  6
HIDDEN
 62
     7
370
     0
100
AcDbCircle
 10
191.9537063655
 20
107.4728101487
 30
0.0
 40
2.199560044878009
100
AcDbArc
 50
19.1742764191
 51
237.273070476
  0
ARC
  5
ED
330
1F
100
AcDbEntity
  8
0
  6
HIDDEN
 62
     7
370
     0
100
AcDbCircle
 10
191.9537063655
 20
107.4728101487
 30
0.0
 40
2.199560044878009
100
AcDbArc
 50
237.273070476
 51
335.258038611
  0
SPLINE
  5
EE
330
1F
100
AcDbEntity
  8
0
  6
HIDDEN
 62
     7
370
     0
100
AcDbSpline
210
0.0
220
0.0
230
1.0
 70
     8
 71
     3
 72
     9
 73
     5
 74
     0
 42
0.000000001
 43
0.00000001
 40
0.0
 40
0.0
 40
0.0
 40
0.0
 40
0.9333113421934416
 40
1.0
 40
1.0
 40
1.0
 40
1.0
 10
168.1778154533875
 20
99.72627107001543
 30
0.0
 10
168.1632396348387
 20
99.62530098195576
 30
0.0
 10
168.1476223184194
 20
99.51711619570601
 30
0.0
 10
168.1546521733025
 20
99.42463369873114
 30
0.0
 10
168.1551209848893
 20
99.41846616513729
 30
0.0
  0
LWPOLYLINE
  5
EF
330
1F
100
AcDbEntity
  8
0
  6
HIDDEN
 62
     7
370
     0
100
AcDbPolyline
 90
       23
 70
   128
 43
0.0
 10
168.1778154534
 20
99.1444021458
 10
168.3331973117
 20
98.6571798096
 10
168.6219203484
 20
98.2269525523
 10
169.0228379529
 20
97.8852326045
 10
169.5065845933
 20
97.6570483292
 10
170.0377299648
 20
97.5591141725
 10
170.5773699295
 20
97.5986022497
 10
171.085978226
 20
97.7726198728
 10
171.526303814
 20
98.0684228236
 10
171.8660940614
 20
98.4643438826
 10
172.0804621663
 20
98.9313844586
 10
172.1537060302
 20
99.4353370736
 10
172.0804621663
 20
99.9392892229
 10
171.8660940614
 20
100.4063297989
 10
171.526303814
 20
100.8022508579
 10
171.085978226
 20
101.0980533431
 10
170.5773699295
 20
101.2720714318
 10
170.0377299648
 20
101.311559509
 10
169.5065845933
 20
101.2136248866
 10
169.0228379529
 20
100.985441077
 10
168.6219203484
 20
100.6437211292
 10
168.3331973117
 20
100.2134938719
 10
168.1778154534
 20
99.72627107
  0
LWPOLYLINE
  5
F0
330
1F
100
AcDbEntity
  8
0
  6
HIDDEN
 62
     7
370
     0
100
AcDbPolyline
 90
       25
 70
   128
 43
0.0
 10
160.6039179687
 20
98.5746255139
 10
160.7323224389
 20
98.0416668574
 10
160.9306401305
 20
97.5450279186
 10
161.1853556905
 20
97.1185548226
 10
161.4791106631
 20
96.7913104216
 10
161.7918865022
 20
96.585596166
 10
162.1023675625
 20
96.5154303233
 10
162.389395592
 20
96.585596166
 10
162.6334095572
 20
96.7913104216
 10
162.8177806933
 20
97.1185548226
 10
162.9299445276
 20
97.5450279186
 10
162.9622567643
 20
98.0416668574
 10
162.9125157569
 20
98.5746255139
 10
162.7841110539
 20
99.1075841705
 10
162.5857938279
 20
99.6042231093
 10
162.3310780351
 20
100.0306962053
 10
162.0373230625
 20
100.3579406062
 10
161.7245472234
 20
100.5636548618
 10
161.4140661631
 20
100.6338202389
 10
161.1270381336
 20
100.5636548618
 10
160.8830241684
 20
100.3579406062
 10
160.6986530323
 20
100.0306962053
 10
160.5864894309
 20
99.6042231093
 10
160.5541769613
 20
99.1075841705
 10
160.6039179687
 20
98.5746255139
  0
LWPOLYLINE
  5
F1
330
1F
100
AcDbEntity
  8
0
  6
HIDDEN
 62
     7
370
     0
100
AcDbPolyline
 90
       22
 70
   128
 43
0.0
 10
160.9854337957
 20
98.6067561427
 10
161.1054300529
 20
98.1298603112
 10
161.2953504745
 20
97.6953387255
 10
161.5383199614
 20
97.3418012256
 10
161.8127495248
 20
97.1006594593
 10
162.0942548115
 20
96.9933412964
 10
162.3578228254
 20
97.0293825487
 10
162.5800345291
 20
97.2055803979
 10
162.7411454183
 20
97.5062783802
 10
162.826839668
 20
97.9047587136
 10
162.8295037162
 20
98.3656153078
 10
162.7489005413
 20
98.8478979091
 10
162.592192014
 20
99.3087535719
 10
162.373302338
 20
99.7072343709
 10
162.1116807882
 20
100.0079323532
 10
161.8305736419
 20
100.1841302025
 10
161.5549585049
 20
100.2201709891
 10
161.3093249698
 20
100.1128532919
 10
161.1154990469
 20
99.8717119912
 10
160.9907025204
 20
99.51817356
 10
160.9460241825
 20
99.0836519743
 10
160.9854337957
 20
98.6067561427
  0
ELLIPSE
  5
F2
330
1F
100
AcDbEntity
  8
0
  6
HIDDEN
 62
     7
370
     0
100
AcDbEllipse
 10
170.1537063655
 20
100.5852200881
 30
0.0
 11
1.383467579512114
 21
-1.091267719176599
 31
0.0
210
0.0
220
0.0
230
1.0
 40
0.8239737799
 41
2.147131942757433
 42
5.288724596347239
  0
ELLIPSE
  5
F3
330
1F
100
AcDbEntity
  8
0
  6
HIDDEN
 62
     7
370
     0
100
AcDbEllipse
 10
170.1537063655
 20
100.5852200881
 30
0.0
 11
1.383467579512114
 21
1.753907414218489
 31
0.0
210
0.0
220
0.0
230
1.0
 40
0.5126701559
 41
0.9944607108323698
 42
4.136053364422176
  0
SPLINE
  5
F4
330
1F
100
AcDbEntity
  8
0
  6
HIDDEN
 62
     7
370
     0
100
AcDbSpline
210
0.0
220
0.0
230
1.0
 70
     8
 71
     3
 72
    14
 73
    10
 74
     0
 42
0.000000001
 43
0.00000001
 40
0.0
 40
0.0
 40
0.0
 40
0.0
 40
0.25
 40
0.25
 40
0.5
 40
0.5
 40
0.75
 40
0.75
 40
1.0
 40
1.0
 40
1.0
 40
1.0
 10
168.1778156028627
 20
99.14440258183046
 30
0.0
 10
168.2141794308929
 20
99.18989721723231
 30
0.0
 10
168.2466571581031
 20
99.23828902344857
 30
0.0
 10
168.2954107875188
 20
99.34377416737814
 30
0.0
 10
168.3103145651933
 20
99.40035867562106
 30
0.0
 10
168.3103249988509
 20
99.50924626957153
 30
0.0
 10
168.2954347030428
 20
99.56143093533413
 30
0.0
 10
168.2465457721652
 20
99.65270833427769
 30
0.0
 10
168.2141735938949
 20
99.69137503965187
 30
0.0
 10
168.1778156028627
 20
99.72627097919963
 30
0.0
  0
LWPOLYLINE
  5
F5
330
1F
100
AcDbEntity
  8
0
  6
HIDDEN
 62
     7
370
     0
100
AcDbPolyline
 90
       22
 70
   128
 43
0.0
 10
170.1537066337
 20
97.9284133757
 10
170.6400525954
 20
97.9972977186
 10
171.0831842583
 20
98.197829164
 10
171.443728098
 20
98.5121905798
 10
171.6896484804
 20
98.9124478767
 10
171.7990928527
 20
99.3630385021
 10
171.762337276
 20
99.8239235016
 10
171.5826478985
 20
100.2541530872
 10
171.2759913143
 20
100.6154983299
 10
170.8696142968
 20
100.8758523496
 10
170.3996260848
 20
101.0120815592
 10
169.9077862513
 20
101.0120815592
 10
169.4377980393
 20
100.8758523496
 10
169.0314210218
 20
100.6154983299
 10
168.7247644377
 20
100.2541530872
 10
168.5450750601
 20
99.8239235016
 10
168.5083204147
 20
99.3630385021
 10
168.6177647871
 20
98.9124478767
 10
168.8636842382
 20
98.5121905798
 10
169.2242280778
 20
98.197829164
 10
169.667360672
 20
97.9972977186
 10
170.1537066337
 20
97.9284133757
  0
SPLINE
  5
F6
330
1F
100
AcDbEntity
  8
0
  6
HIDDEN
 62
     7
370
     0
100
AcDbSpline
210
0.0
220
0.0
230
1.0
 70
    11
 71
     3
 72
    60
 73
    56
 74
     0
 42
0.000000001
 43
0.00000001
 40
0.0
 40
0.0
 40
0.0
 40
0.0
 40
0.0312500000000002
 40
0.0312500000000002
 40
0.0625000000000004
 40
0.0625000000000004
 40
0.1250000000000003
 40
0.1250000000000003
 40
0.1875000000000002
 40
0.1875000000000002
 40
0.2187500000000001
 40
0.2187500000000001
 40
0.2499999999999999
 40
0.2499999999999999
 40
0.2812499999999997
 40
0.2812499999999997
 40
0.3124999999999996
 40
0.3124999999999996
 40
0.3437499999999994
 40
0.3437499999999994
 40
0.3749999999999993
 40
0.3749999999999993
 40
0.4062499999999991
 40
0.4062499999999991
 40
0.4374999999999989
 40
0.4374999999999989
 40
0.4999999999999987
 40
0.4999999999999987
 40
0.5312499999999988
 40
0.5312499999999988
 40
0.5624999999999988
 40
0.5624999999999988
 40
0.5937499999999989
 40
0.5937499999999989
 40
0.6249999999999989
 40
0.6249999999999989
 40
0.656249999999999
 40
0.656249999999999
 40
0.6874999999999991
 40
0.6874999999999991
 40
0.7187499999999991
 40
0.7187499999999991
 40
0.7499999999999992
 40
0.7499999999999992
 40
0.8124999999999994
 40
0.8124999999999994
 40
0.8437499999999997
 40
0.8437499999999997
 40
0.8749999999999998
 40
0.8749999999999998
 40
0.90625
 40
0.90625
 40
0.9375000000000002
 40
0.9375000000000002
 40
1.0
 40
1.0
 40
1.0
 40
1.0
 10
170.1537063655031
 20
104.5827505581081
 30
0.0
 10
170.0435134545328
 20
104.5827505581081
 30
0.0
 10
169.9354042512453
 20
104.5914258271988
 30
0.0
 10
169.7230990967589
 20
104.6254421247422
 30
0.0
 10
169.6177904332999
 20
104.6512461698392
 30
0.0
 10
169.3189924726914
 20
104.7520637219518
 30
0.0
 10
169.1375702683054
 20
104.8518997387576
 30
0.0
 10
168.8363643676484
 20
105.1055356538769
 30
0.0
 10
168.7138098888563
 20
105.2622444562698
 30
0.0
 10
168.589676438237
 20
105.5262875305963
 30
0.0
 10
168.5573733214011
 20
105.6209102892453
 30
0.0
 10
168.5145236595691
 20
105.8159980854937
 30
0.0
 10
168.5037784920567
 20
105.9158889092133
 30
0.0
 10
168.5036349557036
 20
106.120516443993
 30
0.0
 10
168.51461807674
 20
106.2258104823405
 30
0.0
 10
168.5572897362672
 20
106.4312139190694
 30
0.0
 10
168.5888526303746
 20
106.5325549064187
 30
0.0
 10
168.6728177258624
 20
106.7321525877368
 30
0.0
 10
168.7238522788631
 20
106.8271641377606
 30
0.0
 10
168.8430856096418
 20
107.0076490487059
 30
0.0
 10
168.9121446669764
 20
107.0939084568751
 30
0.0
 10
169.0634431908307
 20
107.250648395015
 30
0.0
 10
169.1456758955857
 20
107.321538755208
 30
0.0
 10
169.3237884127339
 20
107.4476916198641
 30
0.0
 10
169.4199232969382
 20
107.5027372179818
 30
0.0
 10
169.7171699820571
 20
107.6354019915393
 30
0.0
 10
169.9362277228361
 20
107.6836635073081
 30
0.0
 10
170.2616813977239
 20
107.6837724285041
 30
0.0
 10
170.371517998917
 20
107.6720087035443
 30
0.0
 10
170.5854502958994
 20
107.6256026413159
 30
0.0
 10
170.6886899568429
 20
107.591463598405
 30
0.0
 10
170.8881190134054
 20
107.5024564483714
 30
0.0
 10
170.9842115206788
 20
107.4473045776557
 30
0.0
 10
171.1617555702448
 20
107.3214965278153
 30
0.0
 10
171.2444521373581
 20
107.2502851319787
 30
0.0
 10
171.3969266957232
 20
107.0920515499667
 30
0.0
 10
171.4646036167649
 20
107.0072602673047
 30
0.0
 10
171.5835812810337
 20
106.8271027814092
 30
0.0
 10
171.6353255642339
 20
106.7305563230489
 30
0.0
 10
171.71850227089
 20
106.5325508527885
 30
0.0
 10
171.7500133078391
 20
106.4316175967731
 30
0.0
 10
171.7927489152908
 20
106.2261545079358
 30
0.0
 10
171.803754619711
 20
106.1207421173391
 30
0.0
 10
171.8036093667075
 20
105.8141189755987
 30
0.0
 10
171.7592564781231
 20
105.6144745029448
 30
0.0
 10
171.6346712698416
 20
105.3496660107734
 30
0.0
 10
171.5828874561755
 20
105.2655658386599
 30
0.0
 10
171.4629297778453
 20
105.1114802660164
 30
0.0
 10
171.3950787158495
 20
105.0414339278399
 30
0.0
 10
171.2435529770944
 20
104.9141010758772
 30
0.0
 10
171.1595837038314
 20
104.856937081122
 30
0.0
 10
170.9820924354925
 20
104.7592565039048
 30
0.0
 10
170.8878109005382
 20
104.7180084954295
 30
0.0
 10
170.5869257933088
 20
104.6168152484971
 30
0.0
 10
170.3740921874437
 20
104.5827505581081
 30
0.0
 10
170.1537063655031
 20
104.5827505581081
 30
0.0
  0
ELLIPSE
  5
F7
330
1F
100
AcDbEntity
  8
0
  6
HIDDEN
 62
     7
370
     0
100
AcDbEllipse
 10
170.1537063655
 20
100.5852200881
 30
0.0
 11
1.383467579512114
 21
-1.091267719176599
 31
0.0
210
0.0
220
0.0
230
1.0
 40
0.8239737799
 41
5.288724596347236
 42
5.331125843601769
  0
SPLINE
  5
F8
330
1F
100
AcDbEntity
  8
0
  6
HIDDEN
 62
     7
370
     0
100
AcDbSpline
210
0.0
220
0.0
230
1.0
 70
     8
 71
     3
 72
     8
 73
     4
 74
     0
 42
0.000000001
 43
0.00000001
 40
0.0
 40
0.0
 40
0.0
 40
0.0
 40
1.0
 40
1.0
 40
1.0
 40
1.0
 10
170.2236474616344
 20
99.02366822230914
 30
0.0
 10
170.2066627355479
 20
99.03078393235296
 30
0.0
 10
170.1896585910226
 20
99.03865906186728
 30
0.0
 10
170.1726597069591
 20
99.0472821813128
 30
0.0
  0
ELLIPSE
  5
F9
330
1F
100
AcDbEntity
  8
0
  6
HIDDEN
 62
     7
370
     0
100
AcDbEllipse
 10
170.1537063655
 20
100.5852200881
 30
0.0
 11
1.383467579512114
 21
1.753907414218489
 31
0.0
210
0.0
220
0.0
230
1.0
 40
0.5126701559
 41
4.136053364422173
 42
4.147540490639379
  0
ELLIPSE
  5
FA
330
1F
100
AcDbEntity
  8
0
  6
HIDDEN
 62
     7
370
     0
100
AcDbEllipse
 10
170.1537063655
 20
100.5852200881
 30
0.0
 11
1.383467579512114
 21
1.753907414218489
 31
0.0
210
0.0
220
0.0
230
1.0
 40
0.5126701559
 41
0.9829735846151255
 42
0.9944607108323662
  0
SPLINE
  5
FB
330
1F
100
AcDbEntity
  8
0
  6
HIDDEN
 62
     7
370
     0
100
AcDbSpline
210
0.0
220
0.0
230
1.0
 70
     8
 71
     3
 72
     8
 73
     4
 74
     0
 42
0.000000001
 43
0.00000001
 40
0.0
 40
0.0
 40
0.0
 40
0.0
 40
1.0
 40
1.0
 40
1.0
 40
1.0
 10
170.1726597069589
 20
102.1480632383201
 30
0.0
 10
170.1896585910225
 20
102.1400799648134
 30
0.0
 10
170.206662735548
 20
102.1313435623738
 30
0.0
 10
170.2236474616345
 20
102.1218667105457
 30
0.0
  0
ELLIPSE
  5
FC
330
1F
100
AcDbEntity
  8
0
  6
HIDDEN
 62
     7
370
     0
100
AcDbEllipse
 10
170.1537063655
 20
100.5852200881
 30
0.0
 11
1.383467579512114
 21
-1.091267719176599
 31
0.0
210
0.0
220
0.0
230
1.0
 40
0.8239737799
 41
2.10473069550293
 42
2.147131942757429
  0
LINE
  5
FD
330
1F
100
AcDbEntity
  8
0
  6
HIDDEN
 62
     7
370
     0
100
AcDbLine
 10
200.803707653
 20
118.2727843518
 30
0.0
 11
200.803707653
 21
120.0077824289
 31
0.0
  0
LINE
  5
FE
330
1F
100
AcDbEntity
  8
0
  6
HIDDEN
 62
     7
370
     0
100
AcDbLine
 10
200.803707653
 20
115.6543765212
 30
0.0
 11
200.9537064668
 21
116.4237588639
 31
0.0
  0
SPLINE
  5
FF
330
1F
100
AcDbEntity
  8
0
  6
HIDDEN
 62
     7
370
     0
100
AcDbSpline
210
0.0
220
0.0
230
1.0
 70
     8
 71
     3
 72
     9
 73
     5
 74
     0
 42
0.000000001
 43
0.00000001
 40
0.0
 40
0.0
 40
0.0
 40
0.0
 40
0.6262742040315703
 40
1.0
 40
1.0
 40
1.0
 40
1.0
 10
200.953706466831
 20
118.119016475451
 30
0.0
 10
200.9303372238655
 20
118.1760885706517
 30
0.0
 10
200.8930225096157
 20
118.2672181347201
 30
0.0
 10
200.828005999833
 20
118.271270047463
 30
0.0
 10
200.8037076529634
 20
118.272784351778
 30
0.0
  0
LINE
  5
100
330
1F
100
AcDbEntity
  8
0
  6
HIDDEN
 62
     7
370
     0
100
AcDbLine
 10
200.803707653
 20
99.2912437762
 30
0.0
 11
200.803707653
 21
115.6543765212
 31
0.0
  0
LINE
  5
101
330
1F
100
AcDbEntity
  8
0
  6
HIDDEN
 62
     7
370
     0
100
AcDbLine
 10
200.803707653
 20
96.6728359456
 30
0.0
 11
200.9537064668
 21
96.807263046
 31
0.0
  0
SPLINE
  5
102
330
1F
100
AcDbEntity
  8
0
  6
HIDDEN
 62
     7
370
     0
100
AcDbSpline
210
0.0
220
0.0
230
1.0
 70
     8
 71
     3
 72
     9
 73
     5
 74
     0
 42
0.000000001
 43
0.00000001
 40
0.0
 40
0.0
 40
0.0
 40
0.0
 40
0.6262746703028382
 40
1.0
 40
1.0
 40
1.0
 40
1.0
 10
200.953706466831
 20
98.50251506961584
 30
0.0
 10
200.9303372506143
 20
98.66031040417477
 30
0.0
 10
200.893022606857
 20
98.91226907668921
 30
0.0
 10
200.8280060042198
 20
99.18814278395269
 30
0.0
 10
200.8037076529634
 20
99.29124377615452
 30
0.0
  0
LINE
  5
103
330
1F
100
AcDbEntity
  8
0
  6
HIDDEN
 62
     7
370
     0
100
AcDbLine
 10
200.803707653
 20
94.9378378684
 30
0.0
 11
200.803707653
 21
96.6728359456
 31
0.0
  0
LINE
  5
104
330
1F
100
AcDbEntity
  8
0
  6
HIDDEN
 62
     7
370
     0
100
AcDbLine
 10
199.0716562804
 20
103.1084658573
 30
0.0
 11
199.0716562804
 21
111.8371544401
 31
0.0
  0
LINE
  5
105
330
1F
100
AcDbEntity
  8
0
  6
HIDDEN
 62
     7
370
     0
100
AcDbLine
 10
197.9037069914
 20
103.1084658573
 30
0.0
 11
197.9037069914
 21
111.8371544401
 31
0.0
  0
LINE
  5
106
330
1F
100
AcDbEntity
  8
0
  6
HIDDEN
 62
     7
370
     0
100
AcDbLine
 10
197.9037069914
 20
115.0728102768
 30
0.0
 11
197.9037069914
 21
111.8371544401
 31
0.0
  0
LINE
  5
107
330
1F
100
AcDbEntity
  8
0
  6
HIDDEN
 62
     7
370
     0
100
AcDbLine
 10
197.9037069914
 20
111.8371544401
 30
0.0
 11
199.0716562804
 21
111.8371544401
 31
0.0
  0
SPLINE
  5
108
330
1F
100
AcDbEntity
  8
0
  6
HIDDEN
 62
     7
370
     0
100
AcDbSpline
210
0.0
220
0.0
230
1.0
 70
     8
 71
     3
 72
     8
 73
     4
 74
     0
 42
0.000000001
 43
0.00000001
 40
0.0
 40
0.0
 40
0.0
 40
0.0
 40
1.0
 40
1.0
 40
1.0
 40
1.0
 10
199.0716555579341
 20
111.8371543147487
 30
0.0
 10
199.5984024513912
 20
112.5688182752829
 30
0.0
 10
200.1859277464543
 20
113.239426133929
 30
0.0
 10
200.803706365503
 20
113.879642439278
 30
0.0
  0
LINE
  5
109
330
1F
100
AcDbEntity
  8
0
  6
HIDDEN
 62
     7
370
     0
100
AcDbLine
 10
200.803707653
 20
118.2727843518
 30
0.0
 11
200.803707653
 21
118.2129738847
 31
0.0
  0
LINE
  5
10A
330
1F
100
AcDbEntity
  8
0
  6
HIDDEN
 62
     7
370
     0
100
AcDbLine
 10
197.9037069914
 20
118.2129738847
 30
0.0
 11
200.803707653
 21
118.2129738847
 31
0.0
  0
LINE
  5
10B
330
1F
100
AcDbEntity
  8
0
  6
HIDDEN
 62
     7
370
     0
100
AcDbLine
 10
197.9037069914
 20
118.2728104288
 30
0.0
 11
197.9037069914
 21
115.0728102768
 31
0.0
  0
LINE
  5
10C
330
1F
100
AcDbEntity
  8
0
  6
HIDDEN
 62
     7
370
     0
100
AcDbLine
 10
197.9037069914
 20
96.7326464126
 30
0.0
 11
200.803707653
 21
96.7326464126
 31
0.0
  0
LINE
  5
10D
330
1F
100
AcDbEntity
  8
0
  6
HIDDEN
 62
     7
370
     0
100
AcDbLine
 10
200.803707653
 20
96.7326464126
 30
0.0
 11
200.803707653
 21
96.6728359456
 31
0.0
  0
LINE
  5
10E
330
1F
100
AcDbEntity
  8
0
  6
HIDDEN
 62
     7
370
     0
100
AcDbLine
 10
197.9037069914
 20
99.8728100205
 30
0.0
 11
197.9037069914
 21
96.6728098685
 31
0.0
  0
LINE
  5
10F
330
1F
100
AcDbEntity
  8
0
  6
HIDDEN
 62
     7
370
     0
100
AcDbLine
 10
197.9037069914
 20
103.1084658573
 30
0.0
 11
197.9037069914
 21
99.8728100205
 31
0.0
  0
LINE
  5
110
330
1F
100
AcDbEntity
  8
0
  6
HIDDEN
 62
     7
370
     0
100
AcDbLine
 10
199.0716562804
 20
103.1084658573
 30
0.0
 11
197.9037069914
 21
103.1084658573
 31
0.0
  0
SPLINE
  5
111
330
1F
100
AcDbEntity
  8
0
  6
HIDDEN
 62
     7
370
     0
100
AcDbSpline
210
0.0
220
0.0
230
1.0
 70
     8
 71
     3
 72
     8
 73
     4
 74
     0
 42
0.000000001
 43
0.00000001
 40
0.0
 40
0.0
 40
0.0
 40
0.0
 40
1.0
 40
1.0
 40
1.0
 40
1.0
 10
200.803706365503
 20
101.0659778580585
 30
0.0
 10
200.1805642766686
 20
101.7117524341281
 30
0.0
 10
199.5927880893915
 20
102.3846005043753
 30
0.0
 10
199.0716555579341
 20
103.1084659825879
 30
0.0
  0
LINE
  5
112
330
1F
100
AcDbEntity
  8
0
  6
HIDDEN
 62
     7
370
     0
100
AcDbLine
 10
197.103704625
 20
98.4728105361
 30
0.0
 11
197.103704625
 21
116.4728097612
 31
0.0
  0
LINE
  5
113
330
1F
100
AcDbEntity
  8
0
  6
HIDDEN
 62
     7
370
     0
100
AcDbLine
 10
182.2537065682
 20
98.8728098566
 30
0.0
 11
182.2537065682
 21
116.0728104407
 31
0.0
  0
LINE
  5
114
330
1F
100
AcDbEntity
  8
0
  6
HIDDEN
 62
     7
370
     0
100
AcDbLine
 10
184.253706896
 20
98.4728105361
 30
0.0
 11
184.253706896
 21
116.4728097612
 31
0.0
  0
LINE
  5
115
330
1F
100
AcDbEntity
  8
0
  6
HIDDEN
 62
     7
370
     0
100
AcDbLine
 10
160.3537062847
 20
132.2728108609
 30
0.0
 11
160.6909647316
 21
132.2728108609
 31
0.0
  0
ELLIPSE
  5
116
330
1F
100
AcDbEntity
  8
0
  6
HIDDEN
 62
     7
370
     0
100
AcDbEllipse
 10
160.6909646657
 20
133.8728101487
 30
0.0
 11
0.0
 21
1.599999999999994
 31
0.0
210
0.0
220
0.0
230
1.0
 40
0.4142135624
 41
3.141592653589793
 42
4.712388980384695
  0
LINE
  5
117
330
1F
100
AcDbEntity
  8
0
  6
HIDDEN
 62
     7
370
     0
100
AcDbLine
 10
160.6909647316
 20
84.8728094245
 30
0.0
 11
160.3537062847
 21
84.8728094245
 31
0.0
  0
ELLIPSE
  5
118
330
1F
100
AcDbEntity
  8
0
  6
HIDDEN
 62
     7
370
     0
100
AcDbEllipse
 10
160.6909646657
 20
83.2728101487
 30
0.0
 11
0.0
 21
1.600000000000009
 31
0.0
210
0.0
220
0.0
230
1.0
 40
0.4142135624
 41
4.712388980384695
 42
6.283185307179586
  0
LINE
  5
119
330
1F
100
AcDbEntity
  8
0
  6
HIDDEN
 62
     7
370
     0
100
AcDbLine
 10
161.3537062157
 20
77.5793615723
 30
0.0
 11
160.5698508874
 21
77.1210800851
 31
0.0
  0
LINE
  5
11A
330
1F
100
AcDbEntity
  8
0
  6
HIDDEN
 62
     7
370
     0
100
AcDbLine
 10
160.6409480528
 20
137.898107245
 30
0.0
 11
161.3537062157
 21
137.1853474522
 31
0.0
  0
LINE
  5
11B
330
1F
100
AcDbEntity
  8
0
  6
HIDDEN
 62
     7
370
     0
100
AcDbLine
 10
95.9037051734
 20
98.9728096867
 30
0.0
 11
95.9037051734
 21
115.9728106106
 31
0.0
  0
LINE
  5
11C
330
1F
100
AcDbEntity
  8
0
  6
HIDDEN
 62
     7
370
     0
100
AcDbLine
 10
98.8996357855
 20
100.4728099326
 30
0.0
 11
98.8996357855
 21
114.4728103647
 31
0.0
  0
LINE
  5
11D
330
1F
100
AcDbEntity
  8
0
  6
HIDDEN
 62
     7
370
     0
100
AcDbLine
 10
165.1889163267
 20
77.5793615723
 30
0.0
 11
161.3537062157
 21
77.5793615723
 31
0.0
  0
LINE
  5
11E
330
1F
100
AcDbEntity
  8
0
  6
HIDDEN
 62
     7
370
     0
100
AcDbLine
 10
176.2037066009
 20
77.5793615723
 30
0.0
 11
171.3184959453
 21
77.5793615723
 31
0.0
  0
LINE
  5
11F
330
1F
100
AcDbEntity
  8
0
  6
HIDDEN
 62
     7
370
     0
100
AcDbLine
 10
161.3537062157
 20
77.5793615723
 30
0.0
 11
161.3537062157
 21
83.2728102798
 31
0.0
  0
LINE
  5
120
330
1F
100
AcDbEntity
  8
0
  6
HIDDEN
 62
     7
370
     0
100
AcDbLine
 10
176.2037066009
 20
84.8728094245
 30
0.0
 11
160.6909647316
 21
84.8728094245
 31
0.0
  0
LINE
  5
121
330
1F
100
AcDbEntity
  8
0
  6
HIDDEN
 62
     7
370
     0
100
AcDbLine
 10
161.3537062157
 20
137.1853474522
 30
0.0
 11
165.2897515532
 21
137.1853474522
 31
0.0
  0
LINE
  5
122
330
1F
100
AcDbEntity
  8
0
  6
HIDDEN
 62
     7
370
     0
100
AcDbLine
 10
171.2176607188
 20
137.1853474522
 30
0.0
 11
176.2037066009
 21
137.1853474522
 31
0.0
  0
LINE
  5
123
330
1F
100
AcDbEntity
  8
0
  6
HIDDEN
 62
     7
370
     0
100
AcDbLine
 10
161.3537062157
 20
137.1853474522
 30
0.0
 11
161.3537062157
 21
133.8728100056
 31
0.0
  0
LINE
  5
124
330
1F
100
AcDbEntity
  8
0
  6
HIDDEN
 62
     7
370
     0
100
AcDbLine
 10
160.6909647316
 20
132.2728108609
 30
0.0
 11
176.2037066009
 21
132.2728108609
 31
0.0
  0
LINE
  5
125
330
1F
100
AcDbEntity
  8
0
  6
HIDDEN
 62
     7
370
     0
100
AcDbLine
 10
131.9037054863
 20
100.4728099326
 30
0.0
 11
131.9037054863
 21
114.4728103647
 31
0.0
  0
LINE
  5
126
330
1F
100
AcDbEntity
  8
0
  6
HIDDEN
 62
     7
370
     0
100
AcDbLine
 10
133.5560728994
 20
103.2228099177
 30
0.0
 11
133.5560728994
 21
111.7228103796
 31
0.0
  0
LINE
  5
127
330
1F
100
AcDbEntity
  8
0
  6
HIDDEN
 62
     7
370
     0
100
AcDbLine
 10
197.9037069914
 20
119.6478104214
 30
0.0
 11
197.9037069914
 21
118.2728104288
 31
0.0
  0
LINE
  5
128
330
1F
100
AcDbEntity
  8
0
  6
HIDDEN
 62
     7
370
     0
100
AcDbLine
 10
197.9037069914
 20
96.6728098685
 30
0.0
 11
197.9037069914
 21
95.297809876
 31
0.0
  0
SPLINE
  5
129
330
1F
100
AcDbEntity
  8
0
  6
HIDDEN
 62
     7
370
     0
100
AcDbSpline
210
0.0
220
0.0
230
1.0
 70
    11
 71
     3
 72
    60
 73
    56
 74
     0
 42
0.000000001
 43
0.00000001
 40
0.0
 40
0.0
 40
0.0
 40
0.0
 40
0.0312499999999997
 40
0.0312499999999997
 40
0.0624999999999995
 40
0.0624999999999995
 40
0.1249999999999989
 40
0.1249999999999989
 40
0.1874999999999984
 40
0.1874999999999984
 40
0.2187499999999983
 40
0.2187499999999983
 40
0.2499999999999981
 40
0.2499999999999981
 40
0.2812499999999979
 40
0.2812499999999979
 40
0.3124999999999977
 40
0.3124999999999977
 40
0.3437499999999977
 40
0.3437499999999977
 40
0.3749999999999976
 40
0.3749999999999976
 40
0.4062499999999974
 40
0.4062499999999974
 40
0.4374999999999973
 40
0.4374999999999973
 40
0.4999999999999971
 40
0.4999999999999971
 40
0.5312499999999973
 40
0.5312499999999973
 40
0.5624999999999974
 40
0.5624999999999974
 40
0.5937499999999977
 40
0.5937499999999977
 40
0.6249999999999978
 40
0.6249999999999978
 40
0.656249999999998
 40
0.656249999999998
 40
0.6874999999999982
 40
0.6874999999999982
 40
0.7187499999999983
 40
0.7187499999999983
 40
0.7499999999999986
 40
0.7499999999999986
 40
0.8124999999999989
 40
0.8124999999999989
 40
0.8437499999999991
 40
0.8437499999999991
 40
0.8749999999999992
 40
0.8749999999999992
 40
0.9062499999999994
 40
0.9062499999999994
 40
0.9374999999999997
 40
0.9374999999999997
 40
1.0
 40
1.0
 40
1.0
 40
1.0
 10
170.1537063655031
 20
107.261884090635
 30
0.0
 10
170.2638992764734
 20
107.261884090635
 30
0.0
 10
170.3720084797608
 20
107.2737417129397
 30
0.0
 10
170.5843136342472
 20
107.3197474398299
 30
0.0
 10
170.6896222977062
 20
107.3545072921436
 30
0.0
 10
170.9884202583147
 20
107.4880611303079
 30
0.0
 10
171.1698424627008
 20
107.6179695434515
 30
0.0
 10
171.4710483633577
 20
107.9304280305618
 30
0.0
 10
171.5936028421499
 20
108.1162055133894
 30
0.0
 10
171.7177362927691
 20
108.411016261893
 30
0.0
 10
171.7500394096051
 20
108.5139953483142
 30
0.0
 10
171.792889071437
 20
108.7202729880191
 30
0.0
 10
171.8036342389495
 20
108.8230409729385
 30
0.0
 10
171.8037777753025
 20
109.0277066264568
 30
0.0
 10
171.7927946542662
 20
109.130060712651
 30
0.0
 10
171.7501229947389
 20
109.3243208216583
 30
0.0
 10
171.7185601006315
 20
109.4174891304018
 30
0.0
 10
171.6345950051438
 20
109.5962726510439
 30
0.0
 10
171.5835604521431
 20
109.6789900427557
 30
0.0
 10
171.4643271213643
 20
109.8325416581696
 30
0.0
 10
171.3952680640298
 20
109.9039921189229
 30
0.0
 10
171.2439695401754
 20
110.0312041613103
 30
0.0
 10
171.1617368354204
 20
110.0873470451575
 30
0.0
 10
170.9836243182722
 20
110.1856688580014
 30
0.0
 10
170.887489434068
 20
110.2276631521527
 30
0.0
 10
170.5902427489491
 20
110.3278022624292
 30
0.0
 10
170.3711850081701
 20
110.3628163703301
 30
0.0
 10
170.0457313332822
 20
110.36289632979
 30
0.0
 10
169.9358947320892
 20
110.3542909253672
 30
0.0
 10
169.7219624351068
 20
110.319978129893
 30
0.0
 10
169.6187227741633
 20
110.2946363166983
 30
0.0
 10
169.4192937176008
 20
110.2274512275136
 30
0.0
 10
169.3232012103273
 20
110.185369242455
 30
0.0
 10
169.1456571607613
 20
110.0873120868911
 30
0.0
 10
169.0629605936481
 20
110.0309226225672
 30
0.0
 10
168.9104860352829
 20
109.9024715529176
 30
0.0
 10
168.8428091142412
 20
109.8322140362845
 30
0.0
 10
168.7238314499725
 20
109.6789346919164
 30
0.0
 10
168.6720871667723
 20
109.594855515157
 30
0.0
 10
168.5889104601161
 20
109.4174727272727
 30
0.0
 10
168.5573994231671
 20
109.3246960849978
 30
0.0
 10
168.5146638157153
 20
109.1303925653461
 30
0.0
 10
168.5036581112952
 20
109.0279261504078
 30
0.0
 10
168.5038033642987
 20
108.7212644340365
 30
0.0
 10
168.548156252883
 20
108.5094925496379
 30
0.0
 10
168.6727414611646
 20
108.2138072085636
 30
0.0
 10
168.7245252748307
 20
108.1172306807245
 30
0.0
 10
168.8444829531609
 20
107.9360664324089
 30
0.0
 10
168.9123340151566
 20
107.8514771137095
 30
0.0
 10
169.0638597539118
 20
107.6945790809165
 30
0.0
 10
169.1478290271747
 20
107.6223828499635
 30
0.0
 10
169.3253202955137
 20
107.4970210067344
 30
0.0
 10
169.4196018304679
 20
107.4429546536235
 30
0.0
 10
169.7204869376974
 20
107.3088826716075
 30
0.0
 10
169.9333205435625
 20
107.261884090635
 30
0.0
 10
170.1537063655031
 20
107.261884090635
 30
0.0
  0
ELLIPSE
  5
12A
330
1F
100
AcDbEntity
  8
0
  6
HIDDEN
 62
     7
370
     0
100
AcDbEllipse
 10
170.1537063655
 20
114.3604002092
 30
0.0
 11
-1.383467579512143
 21
1.753907414218503
 31
0.0
210
0.0
220
0.0
230
1.0
 40
0.5126701559
 41
5.277237470118659
 42
5.288724596347218
  0
ELLIPSE
  5
12B
330
1F
100
AcDbEntity
  8
0
  6
HIDDEN
 62
     7
370
     0
100
AcDbEllipse
 10
170.1537063655
 20
114.3604002092
 30
0.0
 11
1.383467579512114
 21
1.091267719176599
 31
0.0
210
0.0
220
0.0
230
1.0
 40
0.8239737799
 41
0.9944607108323605
 42
4.136053364422167
  0
ELLIPSE
  5
12C
330
1F
100
AcDbEntity
  8
0
  6
HIDDEN
 62
     7
370
     0
100
AcDbEllipse
 10
170.1537063655
 20
114.3604002092
 30
0.0
 11
-1.383467579512143
 21
1.753907414218503
 31
0.0
210
0.0
220
0.0
230
1.0
 40
0.5126701559
 41
2.147131942757412
 42
2.158619068983937
  0
SPLINE
  5
12D
330
1F
100
AcDbEntity
  8
0
  6
HIDDEN
 62
     7
370
     0
100
AcDbSpline
210
0.0
220
0.0
230
1.0
 70
     8
 71
     3
 72
     8
 73
     4
 74
     0
 42
0.000000001
 43
0.00000001
 40
0.0
 40
0.0
 40
0.0
 40
0.0
 40
1.0
 40
1.0
 40
1.0
 40
1.0
 10
170.172659706917
 20
112.797557058997
 30
0.0
 10
170.1896585910086
 20
112.8055403325155
 30
0.0
 10
170.2066627355619
 20
112.8142767349695
 30
0.0
 10
170.2236474616763
 20
112.8237535868144
 30
0.0
  0
ELLIPSE
  5
12E
330
1F
100
AcDbEntity
  8
0
  6
HIDDEN
 62
     7
370
     0
100
AcDbEllipse
 10
170.1537063655
 20
114.3604002092
 30
0.0
 11
1.383467579512114
 21
1.091267719176599
 31
0.0
210
0.0
220
0.0
230
1.0
 40
0.8239737799
 41
4.13605336442217
 42
4.178454611707289
  0
ELLIPSE
  5
12F
330
1F
100
AcDbEntity
  8
0
  6
HIDDEN
 62
     7
370
     0
100
AcDbEllipse
 10
170.1537063655
 20
114.3604002092
 30
0.0
 11
-1.383467579512143
 21
1.753907414218503
 31
0.0
210
0.0
220
0.0
230
1.0
 40
0.5126701559
 41
5.288724596347222
 42
8.430317249937001
  0
ELLIPSE
  5
130
330
1F
100
AcDbEntity
  8
0
  6
HIDDEN
 62
     7
370
     0
100
AcDbEllipse
 10
170.1537063655
 20
114.3604002092
 30
0.0
 11
1.383467579512114
 21
1.091267719176599
 31
0.0
210
0.0
220
0.0
230
1.0
 40
0.8239737799
 41
0.9520594635356083
 42
0.994460710832364
  0
SPLINE
  5
131
330
1F
100
AcDbEntity
  8
0
  6
HIDDEN
 62
     7
370
     0
100
AcDbSpline
210
0.0
220
0.0
230
1.0
 70
     8
 71
     3
 72
     8
 73
     4
 74
     0
 42
0.000000001
 43
0.00000001
 40
0.0
 40
0.0
 40
0.0
 40
0.0
 40
1.0
 40
1.0
 40
1.0
 40
1.0
 10
170.2236474616853
 20
115.9219520750489
 30
0.0
 10
170.2066627355649
 20
115.9148363649924
 30
0.0
 10
170.1896585910056
 20
115.9069612354623
 30
0.0
 10
170.1726597069081
 20
115.8983381159981
 30
0.0
  0
LWPOLYLINE
  5
132
330
1F
100
AcDbEntity
  8
0
  6
HIDDEN
 62
     7
370
     0
100
AcDbPolyline
 90
       22
 70
   128
 43
0.0
 10
170.1537066337
 20
113.9162207948
 10
170.6400525954
 20
113.9851051377
 10
171.0831842583
 20
114.1856365832
 10
171.443728098
 20
114.4999970677
 10
171.6896484804
 20
114.9002552959
 10
171.7990928527
 20
115.3508454556
 10
171.762337276
 20
115.8117309207
 10
171.5826478985
 20
116.2419600407
 10
171.2759913143
 20
116.6033057491
 10
170.8696142968
 20
116.8636597688
 10
170.3996260848
 20
116.9998889784
 10
169.9077862513
 20
116.9998889784
 10
169.4377980393
 20
116.8636597688
 10
169.0314210218
 20
116.6033057491
 10
168.7247644377
 20
116.2419600407
 10
168.5450750601
 20
115.8117309207
 10
168.5083204147
 20
115.3508454556
 10
168.6177647871
 20
114.9002552959
 10
168.8636842382
 20
114.4999970677
 10
169.2242280778
 20
114.1856365832
 10
169.667360672
 20
113.9851051377
 10
170.1537066337
 20
113.9162207948
  0
LINE
  5
133
330
1F
100
AcDbEntity
  8
0
  6
HIDDEN
 62
     7
370
     0
100
AcDbLine
 10
166.3437060278
 20
129.6700511122
 30
0.0
 11
166.3437060278
 21
125.8228097106
 31
0.0
  0
SPLINE
  5
134
330
1F
100
AcDbEntity
  8
0
  6
HIDDEN
 62
     7
370
     0
100
AcDbSpline
210
0.0
220
0.0
230
1.0
 70
     8
 71
     3
 72
    14
 73
    10
 74
     0
 42
0.000000001
 43
0.00000001
 40
0.0
 40
0.0
 40
0.0
 40
0.0
 40
0.25
 40
0.25
 40
0.5
 40
0.5
 40
0.75
 40
0.75
 40
1.0
 40
1.0
 40
1.0
 40
1.0
 10
169.363706365503
 20
118.7552893387764
 30
0.0
 10
169.461388616617
 20
118.7938116528088
 30
0.0
 10
169.5635021256543
 20
118.8314270122675
 30
0.0
 10
169.7556742968231
 20
118.9025357378545
 30
0.0
 10
169.84709297015
 20
118.9367417883586
 30
0.0
 10
169.9986089591642
 20
119.0036312667155
 30
0.0
 10
170.0597561617031
 20
119.0369017292764
 30
0.0
 10
170.1424628633916
 20
119.1063000793702
 30
0.0
 10
170.1637063655031
 20
119.1420771849662
 30
0.0
 10
170.1637063655031
 20
119.1785725172169
 30
0.0
  0
LINE
  5
135
330
1F
100
AcDbEntity
  8
0
  6
HIDDEN
 62
     7
370
     0
100
AcDbLine
 10
170.1637062442
 20
129.6700511122
 30
0.0
 11
170.1637062442
 21
125.8228097106
 31
0.0
  0
LINE
  5
136
330
1F
100
AcDbEntity
  8
0
  6
HIDDEN
 62
     7
370
     0
100
AcDbLine
 10
170.1637062442
 20
99.4715273375
 30
0.0
 11
170.1637062442
 21
95.7128044213
 31
0.0
  0
SPLINE
  5
137
330
1F
100
AcDbEntity
  8
0
  6
HIDDEN
 62
     7
370
     0
100
AcDbSpline
210
0.0
220
0.0
230
1.0
 70
     8
 71
     3
 72
    14
 73
    10
 74
     0
 42
0.000000001
 43
0.00000001
 40
0.0
 40
0.0
 40
0.0
 40
0.0
 40
0.2500000000000005
 40
0.2500000000000005
 40
0.5000000000000003
 40
0.5000000000000003
 40
0.7500000000000001
 40
0.7500000000000001
 40
1.0
 40
1.0
 40
1.0
 40
1.0
 10
170.1637063655031
 20
115.4198490189979
 30
0.0
 10
170.1637063655031
 20
115.3833600880907
 30
0.0
 10
170.1425369893308
 20
115.3468612963569
 30
0.0
 10
170.0597913714784
 20
115.28148594862
 30
0.0
 10
169.9989377466507
 20
115.2535491142736
 30
0.0
 10
169.8473328799596
 20
115.2196580850269
 30
0.0
 10
169.7561105694924
 20
115.2142326324404
 30
0.0
 10
169.5637800197891
 20
115.235151956253
 30
0.0
 10
169.4615291353121
 20
115.2617081036935
 30
0.0
 10
169.363706365503
 20
115.3021778619993
 30
0.0
  0
LINE
  5
138
330
1F
100
AcDbEntity
  8
0
  6
HIDDEN
 62
     7
370
     0
100
AcDbLine
 10
171.7755434301
 20
97.7207899088
 30
0.0
 11
171.7755434301
 21
95.5213105301
 31
0.0
  0
LINE
  5
139
330
1F
100
AcDbEntity
  8
0
  6
HIDDEN
 62
     7
370
     0
100
AcDbLine
 10
171.7755434301
 20
133.3830405021
 30
0.0
 11
171.7755434301
 21
125.8228097106
 31
0.0
  0
LINE
  5
13A
330
1F
100
AcDbEntity
  8
0
  6
HIDDEN
 62
     7
370
     0
100
AcDbLine
 10
164.7318697732
 20
133.3830405021
 30
0.0
 11
164.7318697732
 21
125.8228097106
 31
0.0
  0
SPLINE
  5
13B
330
1F
100
AcDbEntity
  8
0
  6
HIDDEN
 62
     7
370
     0
100
AcDbSpline
210
0.0
220
0.0
230
1.0
 70
     8
 71
     3
 72
    10
 73
     6
 74
     0
 42
0.000000001
 43
0.00000001
 40
0.0
 40
0.0
 40
0.0
 40
0.0
 40
0.5
 40
0.5
 40
1.0
 40
1.0
 40
1.0
 40
1.0
 10
168.1778156028627
 20
115.2193493181372
 30
0.0
 10
168.1622095518815
 20
115.3246215187457
 30
0.0
 10
168.1537050888529
 20
115.4285600165366
 30
0.0
 10
168.1537076424426
 20
115.6280732884926
 30
0.0
 10
168.162205230043
 20
115.719285783163
 30
0.0
 10
168.1778156028627
 20
115.8012177155061
 30
0.0
  0
SPLINE
  5
13C
330
1F
100
AcDbEntity
  8
0
  6
HIDDEN
 62
     7
370
     0
100
AcDbSpline
210
0.0
220
0.0
230
1.0
 70
     8
 71
     3
 72
    14
 73
    10
 74
     0
 42
0.000000001
 43
0.00000001
 40
0.0
 40
0.0
 40
0.0
 40
0.0
 40
0.25
 40
0.25
 40
0.5
 40
0.5
 40
0.75
 40
0.75
 40
1.0
 40
1.0
 40
1.0
 40
1.0
 10
168.1778156028627
 20
115.8012177155061
 30
0.0
 10
168.2141794308929
 20
115.7557230801043
 30
0.0
 10
168.2466571581031
 20
115.707331273888
 30
0.0
 10
168.2954107875188
 20
115.6018461299585
 30
0.0
 10
168.3103145651933
 20
115.5452616217156
 30
0.0
 10
168.3103249988509
 20
115.4363740277651
 30
0.0
 10
168.2954347030427
 20
115.3841893620025
 30
0.0
 10
168.2465457721651
 20
115.292911963059
 30
0.0
 10
168.2141735938947
 20
115.2542452576849
 30
0.0
 10
168.1778156028627
 20
115.2193493181371
 30
0.0
  0
LWPOLYLINE
  5
13D
330
1F
100
AcDbEntity
  8
0
  6
HIDDEN
 62
     7
370
     0
100
AcDbPolyline
 90
       22
 70
   128
 43
0.0
 10
160.9854337957
 20
115.4528560112
 10
161.1054300529
 20
115.0931852864
 10
161.2953504745
 20
114.8441989901
 10
161.5383199614
 20
114.7280202242
 10
161.8127495248
 20
114.7549722338
 10
162.0942548115
 20
114.9226596574
 10
162.3578228254
 20
115.2161831962
 10
162.5800345291
 20
115.6094616274
 10
162.7411454183
 20
116.0675512622
 10
162.826839668
 20
116.5497472504
 10
162.8295037162
 20
117.0132059599
 10
162.7489005413
 20
117.4167461688
 10
162.592192014
 20
117.7245119581
 10
162.373302338
 20
117.9091569031
 10
162.1116807882
 20
117.9542738939
 10
161.8305736419
 20
117.8558554495
 10
161.5549585049
 20
117.6226448262
 10
161.3093249698
 20
117.2753648827
 10
161.1154990469
 20
116.8448731298
 10
160.9907025204
 20
116.3694199169
 10
160.9460241825
 20
115.8912518988
 10
160.9854337957
 20
115.4528560112
  0
LWPOLYLINE
  5
13E
330
1F
100
AcDbEntity
  8
0
  6
HIDDEN
 62
     7
370
     0
100
AcDbPolyline
 90
       23
 70
   128
 43
0.0
 10
168.1778154534
 20
115.2193492273
 10
168.3331973117
 20
114.7321264254
 10
168.6219203484
 20
114.3018991681
 10
169.0228379529
 20
113.9601792204
 10
169.5065845933
 20
113.7319954107
 10
170.0377299648
 20
113.6340607884
 10
170.5773699295
 20
113.6735488655
 10
171.085978226
 20
113.8475669543
 10
171.526303814
 20
114.1433694395
 10
171.8660940614
 20
114.5392904984
 10
172.0804621663
 20
115.0063310745
 10
172.1537060302
 20
115.5102832238
 10
172.0804621663
 20
116.0142358387
 10
171.8660940614
 20
116.4812764148
 10
171.526303814
 20
116.8771974737
 10
171.085978226
 20
117.1730004246
 10
170.5773699295
 20
117.3470180476
 10
170.0377299648
 20
117.3865061248
 10
169.5065845933
 20
117.2885719682
 10
169.0228379529
 20
117.0603876928
 10
168.6219203484
 20
116.7186677451
 10
168.3331973117
 20
116.2884404878
 10
168.1778154534
 20
115.8012181515
  0
SPLINE
  5
13F
330
1F
100
AcDbEntity
  8
0
  6
HIDDEN
 62
     7
370
     0
100
AcDbSpline
210
0.0
220
0.0
230
1.0
 70
     8
 71
     3
 72
    12
 73
     8
 74
     0
 42
0.000000001
 43
0.00000001
 40
0.0
 40
0.0
 40
0.0
 40
0.0
 40
0.2500000000000001
 40
0.2500000000000001
 40
0.5000000000000002
 40
0.5000000000000002
 40
1.0
 40
1.0
 40
1.0
 40
1.0
 10
171.7755430075598
 20
119.4243099468753
 30
0.0
 10
171.8984905013554
 20
119.2663530981802
 30
0.0
 10
171.9920347044642
 20
119.0945197312027
 30
0.0
 10
172.1209740936264
 20
118.7228470215569
 30
0.0
 10
172.1535268510115
 20
118.5296585753656
 30
0.0
 10
172.1540631927454
 20
117.9413620370894
 30
0.0
 10
172.0214395357774
 20
117.5493437992007
 30
0.0
 10
171.7755430075598
 20
117.224830216492
 30
0.0
  0
SPLINE
  5
140
330
1F
100
AcDbEntity
  8
0
  6
HIDDEN
 62
     7
370
     0
100
AcDbSpline
210
0.0
220
0.0
230
1.0
 70
     8
 71
     3
 72
    12
 73
     8
 74
     0
 42
0.000000001
 43
0.00000001
 40
0.0
 40
0.0
 40
0.0
 40
0.0
 40
0.2499999999999998
 40
0.2499999999999998
 40
0.4999999999999996
 40
0.4999999999999996
 40
1.0
 40
1.0
 40
1.0
 40
1.0
 10
171.7755430075598
 20
117.224830216492
 30
0.0
 10
171.6606469562992
 20
117.0050897814354
 30
0.0
 10
171.5338809398265
 20
116.8081214298137
 30
0.0
 10
171.2736660062079
 20
116.4544038569748
 30
0.0
 10
171.1401585482457
 20
116.2975785631025
 30
0.0
 10
170.7317602796575
 20
115.8710359921949
 30
0.0
 10
170.44810714472
 20
115.6443438132396
 30
0.0
 10
170.1637063655032
 20
115.4740926688442
 30
0.0
  0
SPLINE
  5
141
330
1F
100
AcDbEntity
  8
0
  6
HIDDEN
 62
     7
370
     0
100
AcDbSpline
210
0.0
220
0.0
230
1.0
 70
     8
 71
     3
 72
    12
 73
     8
 74
     0
 42
0.000000001
 43
0.00000001
 40
0.0
 40
0.0
 40
0.0
 40
0.0
 40
0.5000000000000013
 40
0.5000000000000013
 40
0.7500000000000007
 40
0.7500000000000007
 40
1.0
 40
1.0
 40
1.0
 40
1.0
 10
170.1637063655031
 20
119.2328161670652
 30
0.0
 10
170.4479129000684
 20
119.4002803293589
 30
0.0
 10
170.7266086341722
 20
119.5119174288706
 30
0.0
 10
171.1359546773614
 20
119.5792306945099
 30
0.0
 10
171.272094014681
 20
119.5843817345239
 30
0.0
 10
171.533414063677
 20
119.5466157969045
 30
0.0
 10
171.6588352461088
 20
119.5050660385602
 30
0.0
 10
171.7755430075602
 20
119.4243099468774
 30
0.0
  0
SPLINE
  5
142
330
1F
100
AcDbEntity
  8
0
  6
HIDDEN
 62
     7
370
     0
100
AcDbSpline
210
0.0
220
0.0
230
1.0
 70
     8
 71
     3
 72
    22
 73
    18
 74
     0
 42
0.000000001
 43
0.00000001
 40
0.0
 40
0.0
 40
0.0
 40
0.0
 40
0.125
 40
0.125
 40
0.25
 40
0.25
 40
0.375
 40
0.375
 40
0.5
 40
0.5
 40
0.625
 40
0.625
 40
0.75
 40
0.75
 40
0.875
 40
0.875
 40
1.0
 40
1.0
 40
1.0
 40
1.0
 10
169.3637063655031
 20
115.3021778619992
 30
0.0
 10
169.1836896709337
 20
115.3766516489758
 30
0.0
 10
169.0192578490633
 20
115.4741009109598
 30
0.0
 10
168.7208616153048
 20
115.7134703445242
 30
0.0
 10
168.5905578879399
 20
115.8533669565946
 30
0.0
 10
168.3773391043209
 20
116.1616185466549
 30
0.0
 10
168.2937112472094
 20
116.3317817647741
 30
0.0
 10
168.1825803702912
 20
116.6822764995646
 30
0.0
 10
168.1537443754375
 20
116.8674014607159
 30
0.0
 10
168.1536684327779
 20
117.2306083353331
 30
0.0
 10
168.1823270582051
 20
117.4139783490407
 30
0.0
 10
168.2934781513178
 20
117.759869461534
 30
0.0
 10
168.3765452719618
 20
117.9253889888015
 30
0.0
 10
168.5902312300805
 20
118.2259287262052
 30
0.0
 10
168.7192382200048
 20
118.3598006474892
 30
0.0
 10
169.0188474994943
 20
118.5910474168934
 30
0.0
 10
169.1836901977535
 20
118.6842975335521
 30
0.0
 10
169.3637063655031
 20
118.7552893387764
 30
0.0
  0
LWPOLYLINE
  5
143
330
1F
100
AcDbEntity
  8
0
  6
HIDDEN
 62
     7
370
     0
100
AcDbPolyline
 90
       25
 70
   128
 43
0.0
 10
160.6039179687
 20
115.2433475474
 10
160.7323224389
 20
114.8358287284
 10
160.9306401305
 20
114.5329286339
 10
161.1853556905
 20
114.355289563
 10
161.4791106631
 20
114.3150177779
 10
161.7918865022
 20
114.4148574205
 10
162.1023675625
 20
114.6480042482
 10
162.389395592
 20
114.9985703634
 10
162.6334095572
 20
115.4426645482
 10
162.8177806933
 20
115.9500230098
 10
162.9299445276
 20
116.4860708634
 10
162.9622567643
 20
117.0142751182
 10
162.9125157569
 20
117.4986420194
 10
162.7841110539
 20
117.9061608384
 10
162.5857938279
 20
118.2090604673
 10
162.3310780351
 20
118.3867000038
 10
162.0373230625
 20
118.4269713233
 10
161.7245472234
 20
118.3271316806
 10
161.4140661631
 20
118.0939853186
 10
161.1270381336
 20
117.7434187377
 10
160.8830241684
 20
117.2993250186
 10
160.6986530323
 20
116.7919656257
 10
160.5864894309
 20
116.2559187034
 10
160.5541769613
 20
115.7277144486
 10
160.6039179687
 20
115.2433475474
  0
LWPOLYLINE
  5
144
330
1F
100
AcDbEntity
  8
0
  6
HIDDEN
 62
     7
370
     0
100
AcDbPolyline
 90
       21
 70
   128
 43
0.0
 10
170.7897086826
 20
116.6638603429
 10
170.3454864409
 20
116.787061281
 10
169.8824905988
 20
116.7752390722
 10
169.4460439694
 20
116.6295494879
 10
169.0788681817
 20
116.3642557333
 10
168.8169048366
 20
116.0053249443
 10
168.6857960385
 20
115.5878912652
 10
168.6983782065
 20
115.1528183366
 10
168.8534164068
 20
114.74269228
 10
169.1357375321
 20
114.3976596179
 10
169.5177036536
 20
114.1514942976
 10
169.9619268265
 20
114.0282933595
 10
170.4249217373
 20
114.0401160339
 10
170.8613692981
 20
114.1858051526
 10
171.2285450858
 20
114.4510993729
 10
171.4905084309
 20
114.8100306275
 10
171.6216162976
 20
115.2274633753
 10
171.609035061
 20
115.6625367696
 10
171.4539959293
 20
116.0726623604
 10
171.1716757354
 20
116.4176950226
 10
170.7897086826
 20
116.6638603429
  0
LWPOLYLINE
  5
145
330
1F
100
AcDbEntity
  8
0
  6
HIDDEN
 62
     7
370
     0
100
AcDbPolyline
 90
       24
 70
   128
 43
0.0
 10
171.0129457724
 20
117.2073867167
 10
170.4938247067
 20
117.3622936005
 10
169.949478769
 20
117.3798443744
 10
169.4202789303
 20
117.2587389121
 10
168.945473918
 20
117.0079588885
 10
168.5602789011
 20
116.6461028153
 10
168.2932603371
 20
116.200007684
 10
168.1642228004
 20
115.7027596603
 10
168.1827356305
 20
115.1912363241
 10
168.3474269894
 20
114.7033751006
 10
168.6460816499
 20
114.275358803
 10
169.0565499675
 20
113.9389310958
 10
169.5483888697
 20
113.719043042
 10
170.0851221767
 20
113.6320034968
 10
170.6269414362
 20
113.6842674571
 10
171.1336638045
 20
113.8719587582
 10
171.5677066904
 20
114.1811569216
 10
171.8968789291
 20
114.5889299916
 10
172.0967686933
 20
115.0650360616
 10
172.1525502589
 20
115.5741635705
 10
172.0600876224
 20
116.078553907
 10
171.8262362492
 20
116.5407981718
 10
171.468341091
 20
116.9266143808
 10
171.0129457724
 20
117.2073867167
  0
LWPOLYLINE
  5
146
330
1F
100
AcDbEntity
  8
0
  6
HIDDEN
 62
     7
370
     0
100
AcDbPolyline
 90
       24
 70
   128
 43
0.0
 10
171.0129457724
 20
117.5323056052
 10
170.4938247067
 20
117.687212489
 10
169.949478769
 20
117.7047641943
 10
169.4202789303
 20
117.5836587319
 10
168.945473918
 20
117.332877777
 10
168.5602789011
 20
116.9710217039
 10
168.2932603371
 20
116.5249275038
 10
168.1642228004
 20
116.0276785488
 10
168.1827356305
 20
115.5161552126
 10
168.3474269894
 20
115.0282944547
 10
168.6460816499
 20
114.6002776916
 10
169.0565499675
 20
114.2638499843
 10
169.5483888697
 20
114.0439623962
 10
170.0851221767
 20
113.956922851
 10
170.6269414362
 20
114.0091868112
 10
171.1336638045
 20
114.1968776467
 10
171.5677066904
 20
114.5060758101
 10
171.8968789291
 20
114.9138493458
 10
172.0967686933
 20
115.3899554158
 10
172.1525502589
 20
115.8990833903
 10
172.0600876224
 20
116.4034737269
 10
171.8262362492
 20
116.8657179917
 10
171.468341091
 20
117.2515332694
 10
171.0129457724
 20
117.5323056052
  0
LWPOLYLINE
  5
147
330
1F
100
AcDbEntity
  8
0
  6
HIDDEN
 62
     7
370
     0
100
AcDbPolyline
 90
       21
 70
   128
 43
0.0
 10
170.7981362206
 20
118.0485852057
 10
170.3480270889
 20
118.1734187523
 10
169.8788975563
 20
118.1614400814
 10
169.4366674137
 20
118.0138207967
 10
169.0646263969
 20
117.745010368
 10
168.7991920125
 20
117.381324246
 10
168.6663462978
 20
116.9583603734
 10
168.6790942412
 20
116.5175216267
 10
168.8361878705
 20
116.1019617686
 10
169.1222491872
 20
115.752357244
 10
169.5092761156
 20
115.502930432
 10
169.9593852472
 20
115.3780968855
 10
170.4285157111
 20
115.3900764877
 10
170.8707458538
 20
115.5376957724
 10
171.2427868706
 20
115.8065052698
 10
171.5082212549
 20
116.1701923231
 10
171.6410660383
 20
116.5931561957
 10
171.6283180949
 20
117.0339940111
 10
171.4712244656
 20
117.4495548005
 10
171.1851640802
 20
117.7991583938
 10
170.7981362206
 20
118.0485852057
  0
LWPOLYLINE
  5
148
330
1F
100
AcDbEntity
  8
0
  6
HIDDEN
 62
     7
370
     0
100
AcDbPolyline
 90
       21
 70
   128
 43
0.0
 10
170.7981362206
 20
117.0451074833
 10
170.3480270889
 20
117.1699410299
 10
169.8788975563
 20
117.1579614276
 10
169.4366674137
 20
117.010342143
 10
169.0646263969
 20
116.7415326456
 10
168.7991920125
 20
116.3778455923
 10
168.6663462978
 20
115.9548817197
 10
168.6790942412
 20
115.5140439043
 10
168.8361878705
 20
115.0984831149
 10
169.1222491872
 20
114.7488790559
 10
169.5092761156
 20
114.499452244
 10
169.9593852472
 20
114.3746186974
 10
170.4285157111
 20
114.386597834
 10
170.8707458538
 20
114.5342171187
 10
171.2427868706
 20
114.8030270817
 10
171.5082212549
 20
115.1667136694
 10
171.6410660383
 20
115.5896775419
 10
171.6283180949
 20
116.0305153573
 10
171.4712244656
 20
116.4460761467
 10
171.1851640802
 20
116.7956806714
 10
170.7981362206
 20
117.0451074833
  0
LWPOLYLINE
  5
149
330
1F
100
AcDbEntity
  8
0
  6
HIDDEN
 62
     7
370
     0
100
AcDbPolyline
 90
       24
 70
   128
 43
0.0
 10
171.0129457724
 20
117.7246926347
 10
170.4938247067
 20
117.8795985872
 10
169.949478769
 20
117.8971502925
 10
169.4202789303
 20
117.7760448302
 10
168.945473918
 20
117.5252638752
 10
168.5602789011
 20
117.1634078021
 10
168.2932603371
 20
116.717313602
 10
168.1642228004
 20
116.2200655783
 10
168.1827356305
 20
115.7085413108
 10
168.3474269894
 20
115.2206805529
 10
168.6460816499
 20
114.7926642554
 10
169.0565499675
 20
114.4562365482
 10
169.5483888697
 20
114.2363484944
 10
170.0851221767
 20
114.1493089492
 10
170.6269414362
 20
114.2015729094
 10
171.1336638045
 20
114.3892642105
 10
171.5677066904
 20
114.698462374
 10
171.8968789291
 20
115.106235444
 10
172.0967686933
 20
115.582341514
 10
172.1525502589
 20
116.0914694885
 10
172.0600876224
 20
116.5958598251
 10
171.8262362492
 20
117.0581040899
 10
171.468341091
 20
117.4439193676
 10
171.0129457724
 20
117.7246926347
  0
LWPOLYLINE
  5
14A
330
1F
100
AcDbEntity
  8
0
  6
HIDDEN
 62
     7
370
     0
100
AcDbPolyline
 90
       23
 70
   128
 43
0.0
 10
170.9442067158
 20
117.4446346233
 10
170.44407718
 20
117.5906678656
 10
169.920422436
 20
117.5983810792
 10
169.415667021
 20
117.4671474839
 10
168.9707043779
 20
117.2076009209
 10
168.6215804156
 20
116.8407669286
 10
168.3965803322
 20
116.3963649417
 10
168.313931973
 20
115.9103970969
 10
168.3803315472
 20
115.4222341249
 10
168.5903997358
 20
114.9714237074
 10
168.9271175501
 20
114.5944881248
 10
169.3632056203
 20
114.3219640473
 10
169.8633360874
 20
114.1759303393
 10
170.3869899001
 20
114.1682175914
 10
170.8917453152
 20
114.2994507211
 10
171.3367088896
 20
114.5589972841
 10
171.6858328518
 20
114.9258312764
 10
171.9108320039
 20
115.370233729
 10
171.9934803632
 20
115.8562015737
 10
171.9270807889
 20
116.3443645457
 10
171.7170135316
 20
116.7951749632
 10
171.3802957174
 20
117.1721110115
 10
170.9442067158
 20
117.4446346233
  0
LWPOLYLINE
  5
14B
330
1F
100
AcDbEntity
  8
0
  6
HIDDEN
 62
     7
370
     0
100
AcDbPolyline
 90
       24
 70
   128
 43
0.0
 10
171.0129457724
 20
117.9170787329
 10
170.4938247067
 20
118.0719846854
 10
169.949478769
 20
118.0895363907
 10
169.4202789303
 20
117.9684309284
 10
168.945473918
 20
117.7176509047
 10
168.5602789011
 20
117.3557948316
 10
168.2932603371
 20
116.9096997002
 10
168.1642228004
 20
116.4124516765
 10
168.1827356305
 20
115.9009283403
 10
168.3474269894
 20
115.4130671168
 10
168.6460816499
 20
114.9850503536
 10
169.0565499675
 20
114.6486226464
 10
169.5483888697
 20
114.4287350582
 10
170.0851221767
 20
114.3416955131
 10
170.6269414362
 20
114.3939594733
 10
171.1336638045
 20
114.5816503087
 10
171.5677066904
 20
114.8908484722
 10
171.8968789291
 20
115.2986215422
 10
172.0967686933
 20
115.7747276122
 10
172.1525502589
 20
116.2838555867
 10
172.0600876224
 20
116.7882459233
 10
171.8262362492
 20
117.2504901881
 10
171.468341091
 20
117.6363054658
 10
171.0129457724
 20
117.9170787329
  0
LWPOLYLINE
  5
14C
330
1F
100
AcDbEntity
  8
0
  6
HIDDEN
 62
     7
370
     0
100
AcDbPolyline
 90
       23
 70
   128
 43
0.0
 10
170.9442067158
 20
117.6370207215
 10
170.44407718
 20
117.7830539639
 10
169.920422436
 20
117.7907671774
 10
169.415667021
 20
117.6595345134
 10
168.9707043779
 20
117.3999870191
 10
168.6215804156
 20
117.0331530268
 10
168.3965803322
 20
116.5887510399
 10
168.313931973
 20
116.1027831951
 10
168.3803315472
 20
115.6146202231
 10
168.5903997358
 20
115.1638098056
 10
168.9271175501
 20
114.786874223
 10
169.3632056203
 20
114.5143506112
 10
169.8633360874
 20
114.3683169032
 10
170.3869899001
 20
114.3606041553
 10
170.8917453152
 20
114.4918368193
 10
171.3367088896
 20
114.751383848
 10
171.6858328518
 20
115.1182178403
 10
171.9108320039
 20
115.5626198272
 10
171.9934803632
 20
116.0485876719
 10
171.9270807889
 20
116.5367506439
 10
171.7170135316
 20
116.9875610615
 10
171.3802957174
 20
117.3644971097
 10
170.9442067158
 20
117.6370207215
  0
LWPOLYLINE
  5
14D
330
1F
100
AcDbEntity
  8
0
  6
HIDDEN
 62
     7
370
     0
100
AcDbPolyline
 90
       24
 70
   128
 43
0.0
 10
171.0129457724
 20
118.1094648311
 10
170.4938247067
 20
118.264371715
 10
169.949478769
 20
118.2819224889
 10
169.4202789303
 20
118.1608170266
 10
168.945473918
 20
117.9100370029
 10
168.5602789011
 20
117.5481809298
 10
168.2932603371
 20
117.1020857985
 10
168.1642228004
 20
116.6048377747
 10
168.1827356305
 20
116.0933144385
 10
168.3474269894
 20
115.605453215
 10
168.6460816499
 20
115.1774369175
 10
169.0565499675
 20
114.8410092103
 10
169.5483888697
 20
114.6211211564
 10
170.0851221767
 20
114.5340816113
 10
170.6269414362
 20
114.5863455715
 10
171.1336638045
 20
114.7740368726
 10
171.5677066904
 20
115.0832350361
 10
171.8968789291
 20
115.4910085718
 10
172.0967686933
 20
115.9671146417
 10
172.1525502589
 20
116.4762426162
 10
172.0600876224
 20
116.9806320215
 10
171.8262362492
 20
117.4428762863
 10
171.468341091
 20
117.8286924953
 10
171.0129457724
 20
118.1094648311
  0
LWPOLYLINE
  5
14E
330
1F
100
AcDbEntity
  8
0
  6
HIDDEN
 62
     7
370
     0
100
AcDbPolyline
 90
       23
 70
   128
 43
0.0
 10
170.9442067158
 20
117.8294068197
 10
170.44407718
 20
117.9754409934
 10
169.920422436
 20
117.9831532756
 10
169.415667021
 20
117.8519206116
 10
168.9707043779
 20
117.5923740486
 10
168.6215804156
 20
117.2255400563
 10
168.3965803322
 20
116.7811371381
 10
168.313931973
 20
116.2951692934
 10
168.3803315472
 20
115.8070063213
 10
168.5903997358
 20
115.3561959038
 10
168.9271175501
 20
114.9792607868
 10
169.3632056203
 20
114.7067367094
 10
169.8633360874
 20
114.5607030014
 10
170.3869899001
 20
114.5529902535
 10
170.8917453152
 20
114.6842233831
 10
171.3367088896
 20
114.9437699462
 10
171.6858328518
 20
115.3106039385
 10
171.9108320039
 20
115.7550068567
 10
171.9934803632
 20
116.2409737701
 10
171.9270807889
 20
116.7291376734
 10
171.7170135316
 20
117.179948091
 10
171.3802957174
 20
117.5568832079
 10
170.9442067158
 20
117.8294068197
  0
LWPOLYLINE
  5
14F
330
1F
100
AcDbEntity
  8
0
  6
HIDDEN
 62
     7
370
     0
100
AcDbPolyline
 90
       24
 70
   128
 43
0.0
 10
171.0129457724
 20
118.3018509293
 10
170.4938247067
 20
118.4567578132
 10
169.949478769
 20
118.4743095184
 10
169.4202789303
 20
118.3532040561
 10
168.945473918
 20
118.1024231011
 10
168.5602789011
 20
117.740567028
 10
168.2932603371
 20
117.294472828
 10
168.1642228004
 20
116.7972238729
 10
168.1827356305
 20
116.2857005367
 10
168.3474269894
 20
115.7978393132
 10
168.6460816499
 20
115.3698230157
 10
169.0565499675
 20
115.0333953085
 10
169.5483888697
 20
114.8135077203
 10
170.0851221767
 20
114.7264681751
 10
170.6269414362
 20
114.7787321354
 10
171.1336638045
 20
114.9664229708
 10
171.5677066904
 20
115.2756211343
 10
171.8968789291
 20
115.68339467
 10
172.0967686933
 20
116.1595007399
 10
172.1525502589
 20
116.6686287145
 10
172.0600876224
 20
117.173019051
 10
171.8262362492
 20
117.6352633158
 10
171.468341091
 20
118.0210785935
 10
171.0129457724
 20
118.3018509293
  0
LWPOLYLINE
  5
150
330
1F
100
AcDbEntity
  8
0
  6
HIDDEN
 62
     7
370
     0
100
AcDbPolyline
 90
       23
 70
   128
 43
0.0
 10
170.9442067158
 20
118.0217929179
 10
170.44407718
 20
118.1678270916
 10
169.920422436
 20
118.1755393738
 10
169.415667021
 20
118.0443067098
 10
168.9707043779
 20
117.7847601468
 10
168.6215804156
 20
117.4179261545
 10
168.3965803322
 20
116.9735241676
 10
168.313931973
 20
116.4875563229
 10
168.3803315472
 20
115.9993924195
 10
168.5903997358
 20
115.5485829333
 10
168.9271175501
 20
115.171646885
 10
169.3632056203
 20
114.8991232733
 10
169.8633360874
 20
114.7530895653
 10
170.3869899001
 20
114.7453768174
 10
170.8917453152
 20
114.8766094813
 10
171.3367088896
 20
115.13615651
 10
171.6858328518
 20
115.5029900367
 10
171.9108320039
 20
115.9473929549
 10
171.9934803632
 20
116.4333607996
 10
171.9270807889
 20
116.9215237717
 10
171.7170135316
 20
117.3723341892
 10
171.3802957174
 20
117.7492693061
 10
170.9442067158
 20
118.0217929179
  0
LWPOLYLINE
  5
151
330
1F
100
AcDbEntity
  8
0
  6
HIDDEN
 62
     7
370
     0
100
AcDbPolyline
 90
       24
 70
   128
 43
0.0
 10
171.0129457724
 20
118.4386594216
 10
170.4938247067
 20
118.5935663054
 10
169.949478769
 20
118.6111170793
 10
169.4202789303
 20
118.490011617
 10
168.945473918
 20
118.2392315934
 10
168.5602789011
 20
117.8773755202
 10
168.2932603371
 20
117.4312803889
 10
168.1642228004
 20
116.9340323652
 10
168.1827356305
 20
116.422509029
 10
168.3474269894
 20
115.9346478055
 10
168.6460816499
 20
115.5066315079
 10
169.0565499675
 20
115.1702033351
 10
169.5483888697
 20
114.9503157469
 10
170.0851221767
 20
114.8632762017
 10
170.6269414362
 20
114.9155401619
 10
171.1336638045
 20
115.1032309974
 10
171.5677066904
 20
115.4124291608
 10
171.8968789291
 20
115.8202022309
 10
172.0967686933
 20
116.2963083009
 10
172.1525502589
 20
116.8054362754
 10
172.0600876224
 20
117.3098266119
 10
171.8262362492
 20
117.7720708767
 10
171.468341091
 20
118.1578861544
 10
171.0129457724
 20
118.4386594216
  0
LWPOLYLINE
  5
152
330
1F
100
AcDbEntity
  8
0
  6
HIDDEN
 62
     7
370
     0
100
AcDbPolyline
 90
       23
 70
   128
 43
0.0
 10
170.969983862
 20
118.3880066494
 10
170.4535450053
 20
118.5388017441
 10
169.9128153932
 20
118.5467664147
 10
169.3916007143
 20
118.4112543235
 10
168.9321280655
 20
118.1432439009
 10
168.5716196161
 20
117.7644480015
 10
168.3392825734
 20
117.305553704
 10
168.253939898
 20
116.8037394056
 10
168.3225047973
 20
116.2996582682
 10
168.5394219321
 20
115.8341469238
 10
168.8871200394
 20
115.4449202115
 10
169.3374284741
 20
115.1635099197
 10
169.8538673308
 20
115.0127143594
 10
170.3945969429
 20
115.0047496887
 10
170.9158116218
 20
115.1402622456
 10
171.3752852019
 20
115.4082726682
 10
171.73579272
 20
115.7870685676
 10
171.9681297627
 20
116.2459619338
 10
172.0534733695
 20
116.7477771635
 10
171.9849084702
 20
117.2518583009
 10
171.767990404
 20
117.717368714
 10
171.420293228
 20
118.1065954263
 10
170.969983862
 20
118.3880066494
  0
LWPOLYLINE
  5
153
330
1F
100
AcDbEntity
  8
0
  6
HIDDEN
 62
     7
370
     0
100
AcDbPolyline
 90
       15
 70
   128
 43
0.0
 10
168.1537063059
 20
98.2040643687
 10
168.2106436428
 20
98.6493119965
 10
168.410533407
 20
99.1254180665
 10
168.739706577
 20
99.5331911365
 10
169.1737494629
 20
99.8423892999
 10
169.6804708999
 20
100.0300801354
 10
170.2222901594
 20
100.0823440956
 10
170.7590234664
 20
99.9953045505
 10
171.2508623686
 20
99.7754169623
 10
171.6613306862
 20
99.4389887894
 10
171.9599853468
 20
99.0109724919
 10
172.1246767056
 20
98.5231112684
 10
172.1431895357
 20
98.0115879322
 10
172.014151999
 20
97.5143399084
 10
171.9726988312
 20
97.4227815861
  0
ARC
  5
154
330
1F
100
AcDbEntity
  8
0
  6
HIDDEN
 62
     7
370
     0
100
AcDbCircle
 10
170.132324431
 20
98.1119541143
 30
0.0
 40
1.886078590742549
100
AcDbArc
 50
341.6055427288
 51
157.8258174713
  0
ARC
  5
155
330
1F
100
AcDbEntity
  8
0
  6
HIDDEN
 62
     7
370
     0
100
AcDbCircle
 10
170.2173050783
 20
98.1489577468
 30
0.0
 40
1.432152262683501
100
AcDbArc
 50
352.343390641
 51
92.8103705168
  0
LWPOLYLINE
  5
156
330
1F
100
AcDbEntity
  8
0
  6
HIDDEN
 62
     7
370
     0
100
AcDbPolyline
 90
       24
 70
   128
 43
0.0
 10
169.2944665637
 20
96.643769368
 10
168.8390712452
 20
96.9245417038
 10
168.4811760869
 20
97.3103569815
 10
168.2473256451
 20
97.7726012463
 10
168.1548620772
 20
98.2769915829
 10
168.2106436428
 20
98.7861195574
 10
168.410533407
 20
99.2622256274
 10
168.739706577
 20
99.6699991631
 10
169.1737494629
 20
99.9791973265
 10
169.6804708999
 20
100.166888162
 10
170.2222901594
 20
100.2191521222
 10
170.7590234664
 20
100.132112577
 10
171.2508623686
 20
99.9122249889
 10
171.6613306862
 20
99.5757972816
 10
171.9599853468
 20
99.1477809841
 10
172.1246767056
 20
98.6599197606
 10
172.1431895357
 20
98.1483964244
 10
172.014151999
 20
97.6511474694
 10
171.7471343663
 20
97.2050532693
 10
171.3619384181
 20
96.8431971962
 10
170.8871334058
 20
96.5924162412
 10
170.3579344985
 20
96.4713107789
 10
169.8135876295
 20
96.4888624842
 10
169.2944665637
 20
96.643769368
  0
LWPOLYLINE
  5
157
330
1F
100
AcDbEntity
  8
0
  6
HIDDEN
 62
     7
370
     0
100
AcDbPolyline
 90
       21
 70
   128
 43
0.0
 10
169.5092761156
 20
97.900512814
 10
169.1222491872
 20
98.1499396259
 10
168.8361878705
 20
98.4995441506
 10
168.6790942412
 20
98.91510494
 10
168.6663462978
 20
99.3559427554
 10
168.7991920125
 20
99.778906628
 10
169.0646263969
 20
100.1425932156
 10
169.4366674137
 20
100.4114031786
 10
169.8788975563
 20
100.5590224633
 10
170.3480270889
 20
100.5710015999
 10
170.7981362206
 20
100.4461680534
 10
171.1851640802
 20
100.1967412414
 10
171.4712244656
 20
99.8471371824
 10
171.6283180949
 20
99.431576393
 10
171.6410660383
 20
98.9907385776
 10
171.5082212549
 20
98.5677747051
 10
171.2427868706
 20
98.2040876517
 10
170.8707458538
 20
97.9352781544
 10
170.4285157111
 20
97.7876588697
 10
169.9593852472
 20
97.7756792674
 10
169.5092761156
 20
97.900512814
  0
LWPOLYLINE
  5
158
330
1F
100
AcDbEntity
  8
0
  6
HIDDEN
 62
     7
370
     0
100
AcDbPolyline
 90
       24
 70
   128
 43
0.0
 10
169.2944665637
 20
96.8361554662
 10
168.8390712452
 20
97.116927802
 10
168.4811760869
 20
97.5027440111
 10
168.2473256451
 20
97.9649882758
 10
168.1548620772
 20
98.4693776811
 10
168.2106436428
 20
98.9785056556
 10
168.410533407
 20
99.4546117256
 10
168.739706577
 20
99.8623852613
 10
169.1737494629
 20
100.1715834247
 10
169.6804708999
 20
100.3592747258
 10
170.2222901594
 20
100.4115386861
 10
170.7590234664
 20
100.3244991409
 10
171.2508623686
 20
100.1046110871
 10
171.6613306862
 20
99.7681833798
 10
171.9599853468
 20
99.3401670823
 10
172.1246767056
 20
98.8523058588
 10
172.1431895357
 20
98.3407825226
 10
172.014151999
 20
97.8435344989
 10
171.7471343663
 20
97.3974393675
 10
171.3619384181
 20
97.0355832944
 10
170.8871334058
 20
96.7848032708
 10
170.3579344985
 20
96.6636978085
 10
169.8135876295
 20
96.6812485824
 10
169.2944665637
 20
96.8361554662
  0
LWPOLYLINE
  5
159
330
1F
100
AcDbEntity
  8
0
  6
HIDDEN
 62
     7
370
     0
100
AcDbPolyline
 90
       23
 70
   128
 43
0.0
 10
169.3632056203
 20
96.9238273794
 10
168.9271175501
 20
97.1963509912
 10
168.5903997358
 20
97.5732861081
 10
168.3803315472
 20
98.0240965257
 10
168.313931973
 20
98.5122594977
 10
168.3965803322
 20
98.9982273424
 10
168.6215804156
 20
99.4426302607
 10
168.9707043779
 20
99.8094637873
 10
169.415667021
 20
100.069010816
 10
169.920422436
 20
100.20024348
 10
170.44407718
 20
100.1925307321
 10
170.9442067158
 20
100.0464970241
 10
171.3802957174
 20
99.7739734123
 10
171.7170135316
 20
99.397037364
 10
171.9270807889
 20
98.9462278778
 10
171.9934803632
 20
98.4580639745
 10
171.9108320039
 20
97.9720961297
 10
171.6858328518
 20
97.5276941428
 10
171.3367088896
 20
97.1608601505
 10
170.8917453152
 20
96.9013135875
 10
170.3869899001
 20
96.7700809235
 10
169.8633360874
 20
96.7777932057
 10
169.3632056203
 20
96.9238273794
  0
LWPOLYLINE
  5
15A
330
1F
100
AcDbEntity
  8
0
  6
HIDDEN
 62
     7
370
     0
100
AcDbPolyline
 90
       24
 70
   128
 43
0.0
 10
169.2944665637
 20
97.0285415644
 10
168.8390712452
 20
97.3093148316
 10
168.4811760869
 20
97.6951301093
 10
168.2473256451
 20
98.157374374
 10
168.1548620772
 20
98.6617647106
 10
168.2106436428
 20
99.1708926851
 10
168.410533407
 20
99.6469987551
 10
168.739706577
 20
100.0547718251
 10
169.1737494629
 20
100.3639699886
 10
169.6804708999
 20
100.551660824
 10
170.2222901594
 20
100.6039247843
 10
170.7590234664
 20
100.5168852391
 10
171.2508623686
 20
100.2969976509
 10
171.6613306862
 20
99.9605699437
 10
171.9599853468
 20
99.5325531805
 10
172.1246767056
 20
99.044691957
 10
172.1431895357
 20
98.5331686208
 10
172.014151999
 20
98.0359205971
 10
171.7471343663
 20
97.5898254658
 10
171.3619384181
 20
97.2279693926
 10
170.8871334058
 20
96.977189369
 10
170.3579344985
 20
96.8560839067
 10
169.8135876295
 20
96.8736356119
 10
169.2944665637
 20
97.0285415644
  0
LWPOLYLINE
  5
15B
330
1F
100
AcDbEntity
  8
0
  6
HIDDEN
 62
     7
370
     0
100
AcDbPolyline
 90
       23
 70
   128
 43
0.0
 10
169.3632056203
 20
97.1162134776
 10
168.9271175501
 20
97.3887370894
 10
168.5903997358
 20
97.7656722064
 10
168.3803315472
 20
98.2164826239
 10
168.313931973
 20
98.7046465272
 10
168.3965803322
 20
99.1906134406
 10
168.6215804156
 20
99.6350163589
 10
168.9707043779
 20
100.0018503512
 10
169.415667021
 20
100.2613969142
 10
169.920422436
 20
100.3926300438
 10
170.44407718
 20
100.3849172959
 10
170.9442067158
 20
100.2388835879
 10
171.3802957174
 20
99.9663595105
 10
171.7170135316
 20
99.5894243935
 10
171.9270807889
 20
99.138613976
 10
171.9934803632
 20
98.650451004
 10
171.9108320039
 20
98.1644831593
 10
171.6858328518
 20
97.720080241
 10
171.3367088896
 20
97.3532462487
 10
170.8917453152
 20
97.0936996857
 10
170.3869899001
 20
96.9624670217
 10
169.8633360874
 20
96.970179304
 10
169.3632056203
 20
97.1162134776
  0
LWPOLYLINE
  5
15C
330
1F
100
AcDbEntity
  8
0
  6
HIDDEN
 62
     7
370
     0
100
AcDbPolyline
 90
       24
 70
   128
 43
0.0
 10
169.2944665637
 20
97.2209276626
 10
168.8390712452
 20
97.5017009298
 10
168.4811760869
 20
97.8875162075
 10
168.2473256451
 20
98.3497604722
 10
168.1548620772
 20
98.8541508088
 10
168.2106436428
 20
99.3632787833
 10
168.410533407
 20
99.8393848533
 10
168.739706577
 20
100.2471579234
 10
169.1737494629
 20
100.5563560868
 10
169.6804708999
 20
100.7440473879
 10
170.2222901594
 20
100.7963113482
 10
170.7590234664
 20
100.709271803
 10
171.2508623686
 20
100.4893837491
 10
171.6613306862
 20
100.1529560419
 10
171.9599853468
 20
99.7249397444
 10
172.1246767056
 20
99.2370789865
 10
172.1431895357
 20
98.725554719
 10
172.014151999
 20
98.2283066953
 10
171.7471343663
 20
97.7822124953
 10
171.3619384181
 20
97.4203564221
 10
170.8871334058
 20
97.1695754672
 10
170.3579344985
 20
97.0484700049
 10
169.8135876295
 20
97.0660217101
 10
169.2944665637
 20
97.2209276626
  0
LWPOLYLINE
  5
15D
330
1F
100
AcDbEntity
  8
0
  6
HIDDEN
 62
     7
370
     0
100
AcDbPolyline
 90
       23
 70
   128
 43
0.0
 10
169.3632056203
 20
97.3085995758
 10
168.9271175501
 20
97.5811231876
 10
168.5903997358
 20
97.9580592359
 10
168.3803315472
 20
98.4088696534
 10
168.313931973
 20
98.8970326254
 10
168.3965803322
 20
99.3830004702
 10
168.6215804156
 20
99.8274024571
 10
168.9707043779
 20
100.1942364494
 10
169.415667021
 20
100.4537834781
 10
169.920422436
 20
100.5850161421
 10
170.44407718
 20
100.5773033942
 10
170.9442067158
 20
100.4312696861
 10
171.3802957174
 20
100.1587460744
 10
171.7170135316
 20
99.7818104918
 10
171.9270807889
 20
99.3310000742
 10
171.9934803632
 20
98.8428371022
 10
171.9108320039
 20
98.3568692575
 10
171.6858328518
 20
97.9124672706
 10
171.3367088896
 20
97.5456332783
 10
170.8917453152
 20
97.2860857839
 10
170.3869899001
 20
97.1548531199
 10
169.8633360874
 20
97.1625663335
 10
169.3632056203
 20
97.3085995758
  0
LWPOLYLINE
  5
15E
330
1F
100
AcDbEntity
  8
0
  6
HIDDEN
 62
     7
370
     0
100
AcDbPolyline
 90
       24
 70
   128
 43
0.0
 10
169.2944665637
 20
97.4133146922
 10
168.8390712452
 20
97.694087028
 10
168.4811760869
 20
98.0799023057
 10
168.2473256451
 20
98.5421465705
 10
168.1548620772
 20
99.046536907
 10
168.2106436428
 20
99.5556648815
 10
168.410533407
 20
100.0317709515
 10
168.739706577
 20
100.4395444872
 10
169.1737494629
 20
100.7487426507
 10
169.6804708999
 20
100.9364334861
 10
170.2222901594
 20
100.9886974464
 10
170.7590234664
 20
100.9016579012
 10
171.2508623686
 20
100.681770313
 10
171.6613306862
 20
100.3453426058
 10
171.9599853468
 20
99.9173258426
 10
172.1246767056
 20
99.4294650847
 10
172.1431895357
 20
98.9179417486
 10
172.014151999
 20
98.4206927935
 10
171.7471343663
 20
97.9745985935
 10
171.3619384181
 20
97.6127425203
 10
170.8871334058
 20
97.3619615654
 10
170.3579344985
 20
97.2408561031
 10
169.8135876295
 20
97.2584078083
 10
169.2944665637
 20
97.4133146922
  0
LWPOLYLINE
  5
15F
330
1F
100
AcDbEntity
  8
0
  6
HIDDEN
 62
     7
370
     0
100
AcDbPolyline
 90
       23
 70
   128
 43
0.0
 10
169.3632056203
 20
97.500985674
 10
168.9271175501
 20
97.7735092858
 10
168.5903997358
 20
98.1504453341
 10
168.3803315472
 20
98.6012557516
 10
168.313931973
 20
99.0894187237
 10
168.3965803322
 20
99.5753865684
 10
168.6215804156
 20
100.0197890209
 10
168.9707043779
 20
100.3866230132
 10
169.415667021
 20
100.6461695763
 10
169.920422436
 20
100.7774027059
 10
170.44407718
 20
100.769689958
 10
170.9442067158
 20
100.62365625
 10
171.3802957174
 20
100.3511321726
 10
171.7170135316
 20
99.97419659
 10
171.9270807889
 20
99.5233861724
 10
171.9934803632
 20
99.0352232004
 10
171.9108320039
 20
98.5492553557
 10
171.6858328518
 20
98.1048533688
 10
171.3367088896
 20
97.7380193765
 10
170.8917453152
 20
97.4784728134
 10
170.3869899001
 20
97.3472392181
 10
169.8633360874
 20
97.3549524317
 10
169.3632056203
 20
97.500985674
  0
LWPOLYLINE
  5
160
330
1F
100
AcDbEntity
  8
0
  6
HIDDEN
 62
     7
370
     0
100
AcDbPolyline
 90
       24
 70
   128
 43
0.0
 10
169.2944665637
 20
97.7382335807
 10
168.8390712452
 20
98.0190059165
 10
168.4811760869
 20
98.4048221255
 10
168.2473256451
 20
98.8670663903
 10
168.1548620772
 20
99.3714567269
 10
168.2106436428
 20
99.8805842357
 10
168.410533407
 20
100.3566903057
 10
168.739706577
 20
100.7644633757
 10
169.1737494629
 20
101.0736615392
 10
169.6804708999
 20
101.2613528403
 10
170.2222901594
 20
101.3136168005
 10
170.7590234664
 20
101.2265772554
 10
171.2508623686
 20
101.0066892015
 10
171.6613306862
 20
100.6702614943
 10
171.9599853468
 20
100.2422451968
 10
172.1246767056
 20
99.7543839733
 10
172.1431895357
 20
99.2428606371
 10
172.014151999
 20
98.7456126133
 10
171.7471343663
 20
98.299517482
 10
171.3619384181
 20
97.9376614089
 10
170.8871334058
 20
97.6868813852
 10
170.3579344985
 20
97.5657759229
 10
169.8135876295
 20
97.5833266968
 10
169.2944665637
 20
97.7382335807
  0
LWPOLYLINE
  5
161
330
1F
100
AcDbEntity
  8
0
  6
HIDDEN
 62
     7
370
     0
100
AcDbPolyline
 90
       21
 70
   128
 43
0.0
 10
169.5177036536
 20
98.2817599545
 10
169.1357375321
 20
98.5279252747
 10
168.8534164068
 20
98.8729579369
 10
168.6983782065
 20
99.2830835278
 10
168.6857960385
 20
99.7181569221
 10
168.8169048366
 20
100.1355896699
 10
169.0788681817
 20
100.4945209245
 10
169.4460439694
 20
100.7598151448
 10
169.8824905988
 20
100.9055042634
 10
170.3454864409
 20
100.9173269378
 10
170.7897086826
 20
100.7941259997
 10
171.1716757354
 20
100.5479606795
 10
171.4539959293
 20
100.2029280173
 10
171.609035061
 20
99.7928019608
 10
171.6216162976
 20
99.3577290321
 10
171.4905084309
 20
98.940295353
 10
171.2285450858
 20
98.5813645641
 10
170.8613692981
 20
98.3160708094
 10
170.4249217373
 20
98.1703812251
 10
169.9619268265
 20
98.1585590164
 10
169.5177036536
 20
98.2817599545
  0
LWPOLYLINE
  5
162
330
1F
100
AcDbEntity
  8
0
  6
HIDDEN
 62
     7
370
     0
100
AcDbPolyline
 90
       24
 70
   128
 43
0.0
 10
164.3385294091
 20
116.2602027873
 10
164.5634824608
 20
116.7252391572
 10
164.8385807138
 20
117.1021677548
 10
165.1434221503
 20
117.3630330706
 10
165.4553965863
 20
117.488489672
 10
165.7513681066
 20
117.4692317838
 10
166.0093854379
 20
117.3066871235
 10
166.2103117642
 20
117.0129116619
 10
166.339245924
 20
116.6096936906
 10
166.3866250974
 20
116.1269379774
 10
166.3489363354
 20
115.6004473562
 10
166.2289736059
 20
115.0692698541
 10
166.0356347647
 20
114.5728008816
 10
165.7832584542
 20
114.1478602769
 10
165.4905623954
 20
113.8259649271
 10
165.1792547863
 20
113.6309878895
 10
164.8724235792
 20
113.5773898097
 10
164.5928251755
 20
113.6691455724
 10
164.361195938
 20
113.8994504692
 10
164.1947150428
 20
114.2512235785
 10
164.1057294991
 20
114.6983752953
 10
164.1008386586
 20
115.2077430854
 10
164.1804057371
 20
115.7415483142
 10
164.3385294091
 20
116.2602027873
  0
LWPOLYLINE
  5
163
330
1F
100
AcDbEntity
  8
0
  6
HIDDEN
 62
     7
370
     0
100
AcDbPolyline
 90
       19
 70
   128
 43
0.0
 10
165.2908002224
 20
115.8419653768
 10
165.476520845
 20
116.2044091145
 10
165.7077691716
 20
116.4686383674
 10
165.9566520911
 20
116.6027823458
 10
166.1931512144
 20
116.5906611825
 10
166.3887401309
 20
116.4337370539
 10
166.5198293713
 20
116.1509381602
 10
166.5706069407
 20
115.7763732592
 10
166.5349484619
 20
115.3552198777
 10
166.4171547827
 20
114.9382770056
 10
166.2314332288
 20
114.5758332679
 10
166.0001849022
 20
114.311604015
 10
165.7513019827
 20
114.1774605023
 10
165.5148028594
 20
114.1895812
 10
165.3192139429
 20
114.3465048628
 10
165.1881247026
 20
114.6293042222
 10
165.1373471331
 20
115.0038695889
 10
165.1730056119
 20
115.4250225047
 10
165.2908002224
 20
115.8419653768
  0
LWPOLYLINE
  5
164
330
1F
100
AcDbEntity
  8
0
  6
HIDDEN
 62
     7
370
     0
100
AcDbPolyline
 90
       24
 70
   128
 43
0.0
 10
161.04157881
 20
117.0497734094
 10
161.2665316288
 20
117.5148097793
 10
161.5416303475
 20
117.891738377
 10
161.8464713183
 20
118.1526036928
 10
162.15844622
 20
118.2780602942
 10
162.4544177402
 20
118.2588014746
 10
162.7124350716
 20
118.0962577457
 10
162.9133613978
 20
117.8024822841
 10
163.0422955577
 20
117.3992643128
 10
163.089674731
 20
116.9165085996
 10
163.0519855034
 20
116.3900179783
 10
162.9320227739
 20
115.8588400105
 10
162.7386839327
 20
115.3623715038
 10
162.4863076222
 20
114.9374308991
 10
162.1936115634
 20
114.6155355493
 10
161.8823039543
 20
114.4205585117
 10
161.5754727472
 20
114.3669599662
 10
161.2958743435
 20
114.4587161946
 10
161.0642455716
 20
114.6890206257
 10
160.8977644437
 20
115.040793735
 10
160.8087789
 20
115.4879454518
 10
160.8038882923
 20
115.9973137075
 10
160.8834553708
 20
116.5311189363
 10
161.04157881
 20
117.0497734094
  0
LINE
  5
165
330
1F
100
AcDbEntity
  8
0
  6
HIDDEN
 62
     7
370
     0
100
AcDbLine
 10
163.1910091464
 20
115.1777456509
 30
0.0
 11
163.2858559687
 21
116.2979539479
 31
0.0
  0
LINE
  5
166
330
1F
100
AcDbEntity
  8
0
  6
HIDDEN
 62
     7
370
     0
100
AcDbLine
 10
163.2858559687
 20
116.2979539479
 30
0.0
 11
161.2379758817
 21
116.7883902783
 31
0.0
  0
LINE
  5
167
330
1F
100
AcDbEntity
  8
0
  6
HIDDEN
 62
     7
370
     0
100
AcDbLine
 10
163.9009442378
 20
117.0007662842
 30
0.0
 11
163.2858559687
 21
116.2979539479
 31
0.0
  0
LINE
  5
168
330
1F
100
AcDbEntity
  8
0
  6
HIDDEN
 62
     7
370
     0
100
AcDbLine
 10
163.1910091464
 20
115.1777456509
 30
0.0
 11
161.1431290594
 21
115.668182447
 31
0.0
  0
LINE
  5
169
330
1F
100
AcDbEntity
  8
0
  6
HIDDEN
 62
     7
370
     0
100
AcDbLine
 10
163.1910091464
 20
115.1777456509
 30
0.0
 11
163.7112496619
 21
114.7603496904
 31
0.0
  0
LINE
  5
16A
330
1F
100
AcDbEntity
  8
0
  6
HIDDEN
 62
     7
370
     0
100
AcDbLine
 10
161.1431290594
 20
115.668182447
 30
0.0
 11
161.6633695748
 21
115.2507864865
 31
0.0
  0
LWPOLYLINE
  5
16B
330
1F
100
AcDbEntity
  8
0
  6
HIDDEN
 62
     7
370
     0
100
AcDbPolyline
 90
       22
 70
   128
 43
0.0
 10
161.032844634
 20
116.9529698784
 10
161.2335227628
 20
117.3596765841
 10
161.480822434
 20
117.6785353566
 10
161.7527695571
 20
117.8812125692
 10
162.0252009679
 20
117.9497011001
 10
162.2739097301
 20
117.8779138247
 10
162.4767964904
 20
117.6722303028
 10
162.6158345689
 20
117.3509268085
 10
162.678669506
 20
116.9425521041
 10
162.6597184886
 20
116.4833914483
 10
162.5606648822
 20
116.0142442206
 10
162.3903101508
 20
115.5767954881
 10
162.1637910802
 20
115.2099149296
 10
161.901235414
 20
114.9462016294
 10
161.6259713855
 20
114.8090871977
 10
161.3624583196
 20
114.8107556621
 10
161.1341101315
 20
114.9510575453
 10
160.961216382
 20
115.2175275604
 10
160.8591397025
 20
115.5864877621
 10
160.8369500109
 20
116.0251555959
 10
160.8966189169
 20
116.4945514867
 10
161.032844634
 20
116.9529698784
  0
LINE
  5
16C
330
1F
100
AcDbEntity
  8
0
  6
HIDDEN
 62
     7
370
     0
100
AcDbLine
 10
161.8530641508
 20
117.4912026147
 30
0.0
 11
161.2379758817
 21
116.7883902783
 31
0.0
  0
LINE
  5
16D
330
1F
100
AcDbEntity
  8
0
  6
HIDDEN
 62
     7
370
     0
100
AcDbLine
 10
161.1431290594
 20
115.668182447
 30
0.0
 11
161.2379758817
 21
116.7883902783
 31
0.0
  0
LINE
  5
16E
330
1F
100
AcDbEntity
  8
0
  6
HIDDEN
 62
     7
370
     0
100
AcDbLine
 10
164.421185219
 20
116.5833707894
 30
0.0
 11
162.3733051319
 21
117.0738071198
 31
0.0
  0
LINE
  5
16F
330
1F
100
AcDbEntity
  8
0
  6
HIDDEN
 62
     7
370
     0
100
AcDbLine
 10
161.8530641508
 20
117.4912026147
 30
0.0
 11
162.3733051319
 21
117.0738071198
 31
0.0
  0
LINE
  5
170
330
1F
100
AcDbEntity
  8
0
  6
HIDDEN
 62
     7
370
     0
100
AcDbLine
 10
163.9009442378
 20
117.0007662842
 30
0.0
 11
161.8530641508
 21
117.4912026147
 31
0.0
  0
LINE
  5
171
330
1F
100
AcDbEntity
  8
0
  6
HIDDEN
 62
     7
370
     0
100
AcDbLine
 10
163.9009442378
 20
117.0007662842
 30
0.0
 11
164.421185219
 21
116.5833707894
 31
0.0
  0
LINE
  5
172
330
1F
100
AcDbEntity
  8
0
  6
HIDDEN
 62
     7
370
     0
100
AcDbLine
 10
164.326337931
 20
115.4631620268
 30
0.0
 11
162.2784578439
 21
115.9535992885
 31
0.0
  0
LINE
  5
173
330
1F
100
AcDbEntity
  8
0
  6
HIDDEN
 62
     7
370
     0
100
AcDbLine
 10
161.6633695748
 20
115.2507864865
 30
0.0
 11
162.2784578439
 21
115.9535992885
 31
0.0
  0
LINE
  5
174
330
1F
100
AcDbEntity
  8
0
  6
HIDDEN
 62
     7
370
     0
100
AcDbLine
 10
163.7112496619
 20
114.7603496904
 30
0.0
 11
161.6633695748
 21
115.2507864865
 31
0.0
  0
LINE
  5
175
330
1F
100
AcDbEntity
  8
0
  6
HIDDEN
 62
     7
370
     0
100
AcDbLine
 10
163.7112496619
 20
114.7603496904
 30
0.0
 11
164.326337931
 21
115.4631620268
 31
0.0
  0
LINE
  5
176
330
1F
100
AcDbEntity
  8
0
  6
HIDDEN
 62
     7
370
     0
100
AcDbLine
 10
162.3733051319
 20
117.0738071198
 30
0.0
 11
162.2784578439
 21
115.9535992885
 31
0.0
  0
LINE
  5
177
330
1F
100
AcDbEntity
  8
0
  6
HIDDEN
 62
     7
370
     0
100
AcDbLine
 10
164.421185219
 20
116.5833707894
 30
0.0
 11
164.326337931
 21
115.4631620268
 31
0.0
  0
LWPOLYLINE
  5
178
330
1F
100
AcDbEntity
  8
0
  6
HIDDEN
 62
     7
370
     0
100
AcDbPolyline
 90
       22
 70
   128
 43
0.0
 10
162.4835890916
 20
97.2840266297
 10
162.6198150415
 20
97.609363682
 10
162.6794839476
 20
98.0204699556
 10
162.6572942559
 20
98.4808143223
 10
162.5552175765
 20
98.9494940261
 10
162.3823235941
 20
99.3848659093
 10
162.153975406
 20
99.7482437635
 10
161.8904623401
 20
100.0073409634
 10
161.6151987773
 20
100.1391347492
 10
161.3526426454
 20
100.1319151366
 10
161.1261235748
 20
99.9863233412
 10
160.9557690763
 20
99.7152963648
 10
160.8567154699
 20
99.3429154152
 10
160.8377639868
 20
98.902268521
 10
160.9005991567
 20
98.4325094143
 10
161.0396372352
 20
97.9753781105
 10
161.2425239955
 20
97.5714923809
 10
161.4912327577
 20
97.2567388783
 10
161.7636641685
 20
97.0590861509
 10
162.0356112917
 20
96.9960952172
 10
162.2829109628
 20
97.0733642573
 10
162.4835890916
 20
97.2840266297
  0
LWPOLYLINE
  5
179
330
1F
100
AcDbEntity
  8
0
  6
HIDDEN
 62
     7
370
     0
100
AcDbPolyline
 90
       24
 70
   128
 43
0.0
 10
162.8437464323
 20
97.015568241
 10
163.0018696387
 20
97.3797498266
 10
163.0814367172
 20
97.8358259419
 10
163.0765463424
 20
98.3499709512
 10
162.9875607987
 20
98.8840546454
 10
162.8210799035
 20
99.3984641502
 10
162.589450666
 20
99.8550501647
 10
162.3098522623
 20
100.219948403
 10
162.0030210551
 20
100.4660969595
 10
161.6917134461
 20
100.575240049
 10
161.3990173873
 20
100.53928215
 10
161.1466410768
 20
100.3608910362
 10
160.9533022356
 20
100.0532966102
 10
160.8333395061
 20
99.6393125499
 10
160.7956502785
 20
99.1496408353
 10
160.8430296846
 20
98.6205993215
 10
160.9719638445
 20
98.0914236972
 10
161.1728904035
 20
97.6013617585
 10
161.4309072692
 20
97.1867574374
 10
161.7268787895
 20
96.878362074
 10
162.0388536912
 20
96.6990461568
 10
162.3436951276
 20
96.6621089721
 10
162.6187933807
 20
96.7702914024
 10
162.8437464323
 20
97.015568241
  0
LWPOLYLINE
  5
17A
330
1F
100
AcDbEntity
  8
0
  6
HIDDEN
 62
     7
370
     0
100
AcDbPolyline
 90
       24
 70
   128
 43
0.0
 10
166.140696333
 20
97.8051388631
 10
166.298820005
 20
98.1693204487
 10
166.3783875492
 20
98.6253965641
 10
166.3734971744
 20
99.1395415733
 10
166.284511165
 20
99.6736248019
 10
166.1180298042
 20
100.1880347723
 10
165.886401498
 20
100.6446203212
 10
165.6068026286
 20
101.0095190252
 10
165.2999718871
 20
101.2556675816
 10
164.9886642781
 20
101.3648102055
 10
164.6959677537
 20
101.3288527722
 10
164.4435914431
 20
101.1504616583
 10
164.2502526019
 20
100.8428672323
 10
164.1302898724
 20
100.4288827064
 10
164.0926006448
 20
99.9392114574
 10
164.1399802838
 20
99.4101699436
 10
164.2689144437
 20
98.8809943194
 10
164.4698407699
 20
98.3909323806
 10
164.7278576356
 20
97.9763280595
 10
165.0238291558
 20
97.6679326961
 10
165.3358045232
 20
97.4886167789
 10
165.6406459597
 20
97.4516795943
 10
165.915743747
 20
97.5598620246
 10
166.140696333
 20
97.8051388631
  0
LINE
  5
17B
330
1F
100
AcDbEntity
  8
0
  6
HIDDEN
 62
     7
370
     0
100
AcDbLine
 10
161.8530641508
 20
99.6021769936
 30
0.0
 11
161.2379758817
 21
99.500250257
 31
0.0
  0
LINE
  5
17C
330
1F
100
AcDbEntity
  8
0
  6
HIDDEN
 62
     7
370
     0
100
AcDbLine
 10
161.1431290594
 20
98.4726987774
 30
0.0
 11
161.2379758817
 21
99.500250257
 31
0.0
  0
LINE
  5
17D
330
1F
100
AcDbEntity
  8
0
  6
HIDDEN
 62
     7
370
     0
100
AcDbLine
 10
161.6633695748
 20
97.5470749656
 30
0.0
 11
161.1431290594
 21
98.4726987774
 31
0.0
  0
LINE
  5
17E
330
1F
100
AcDbEntity
  8
0
  6
HIDDEN
 62
     7
370
     0
100
AcDbLine
 10
161.6633695748
 20
97.5470749656
 30
0.0
 11
162.2784578439
 21
97.6490007708
 31
0.0
  0
LINE
  5
17F
330
1F
100
AcDbEntity
  8
0
  6
HIDDEN
 62
     7
370
     0
100
AcDbLine
 10
162.3733051319
 20
98.6765522505
 30
0.0
 11
162.2784578439
 21
97.6490007708
 31
0.0
  0
LINE
  5
180
330
1F
100
AcDbEntity
  8
0
  6
HIDDEN
 62
     7
370
     0
100
AcDbLine
 10
162.3733051319
 20
98.6765522505
 30
0.0
 11
161.8530641508
 21
99.6021769936
 31
0.0
  0
LINE
  5
181
330
1F
100
AcDbEntity
  8
0
  6
HIDDEN
 62
     7
370
     0
100
AcDbLine
 10
164.421185219
 20
99.1669885809
 30
0.0
 11
162.3733051319
 21
98.6765522505
 31
0.0
  0
LINE
  5
182
330
1F
100
AcDbEntity
  8
0
  6
HIDDEN
 62
     7
370
     0
100
AcDbLine
 10
163.9009442378
 20
100.092613324
 30
0.0
 11
161.8530641508
 21
99.6021769936
 31
0.0
  0
LINE
  5
183
330
1F
100
AcDbEntity
  8
0
  6
HIDDEN
 62
     7
370
     0
100
AcDbLine
 10
163.7112496619
 20
98.037511296
 30
0.0
 11
161.6633695748
 21
97.5470749656
 31
0.0
  0
LINE
  5
184
330
1F
100
AcDbEntity
  8
0
  6
HIDDEN
 62
     7
370
     0
100
AcDbLine
 10
163.7112496619
 20
98.037511296
 30
0.0
 11
164.326337931
 21
98.1394380326
 31
0.0
  0
LINE
  5
185
330
1F
100
AcDbEntity
  8
0
  6
HIDDEN
 62
     7
370
     0
100
AcDbLine
 10
164.326337931
 20
98.1394380326
 30
0.0
 11
162.2784578439
 21
97.6490007708
 31
0.0
  0
LWPOLYLINE
  5
186
330
1F
100
AcDbEntity
  8
0
  6
HIDDEN
 62
     7
370
     0
100
AcDbPolyline
 90
       19
 70
   128
 43
0.0
 10
166.4171547827
 20
98.5534807662
 10
166.5349484619
 20
98.8553503523
 10
166.5706069407
 20
99.2416676129
 10
166.5198293713
 20
99.6658375481
 10
166.3887401309
 20
100.0766993495
 10
166.1931512144
 20
100.4246964114
 10
165.9566520911
 20
100.6678554224
 10
165.7077691716
 20
100.7768481033
 10
165.476520845
 20
100.7385279047
 10
165.2908002224
 20
100.5575169804
 10
165.1730056119
 20
100.2556478599
 10
165.1373471331
 20
99.8693305994
 10
165.1881247026
 20
99.4451606641
 10
165.3192139429
 20
99.0342993284
 10
165.5148028594
 20
98.6863013352
 10
165.7513019827
 20
98.4431423242
 10
166.0001849022
 20
98.3341496433
 10
166.2314332288
 20
98.3724698419
 10
166.4171547827
 20
98.5534807662
  0
LINE
  5
187
330
1F
100
AcDbEntity
  8
0
  6
HIDDEN
 62
     7
370
     0
100
AcDbLine
 10
163.7112496619
 20
98.037511296
 30
0.0
 11
163.1910091464
 21
98.9631360391
 31
0.0
  0
LINE
  5
188
330
1F
100
AcDbEntity
  8
0
  6
HIDDEN
 62
     7
370
     0
100
AcDbLine
 10
163.1910091464
 20
98.9631360391
 30
0.0
 11
163.2858559687
 21
99.9906870531
 31
0.0
  0
LINE
  5
189
330
1F
100
AcDbEntity
  8
0
  6
HIDDEN
 62
     7
370
     0
100
AcDbLine
 10
163.9009442378
 20
100.092613324
 30
0.0
 11
163.2858559687
 21
99.9906870531
 31
0.0
  0
LINE
  5
18A
330
1F
100
AcDbEntity
  8
0
  6
HIDDEN
 62
     7
370
     0
100
AcDbLine
 10
164.421185219
 20
99.1669885809
 30
0.0
 11
163.9009442378
 21
100.092613324
 31
0.0
  0
LINE
  5
18B
330
1F
100
AcDbEntity
  8
0
  6
HIDDEN
 62
     7
370
     0
100
AcDbLine
 10
164.421185219
 20
99.1669885809
 30
0.0
 11
164.326337931
 21
98.1394380326
 31
0.0
  0
LINE
  5
18C
330
1F
100
AcDbEntity
  8
0
  6
HIDDEN
 62
     7
370
     0
100
AcDbLine
 10
163.1910091464
 20
98.9631360391
 30
0.0
 11
161.1431290594
 21
98.4726987774
 31
0.0
  0
LINE
  5
18D
330
1F
100
AcDbEntity
  8
0
  6
HIDDEN
 62
     7
370
     0
100
AcDbLine
 10
163.2858559687
 20
99.9906870531
 30
0.0
 11
161.2379758817
 21
99.500250257
 31
0.0
  0
LINE
  5
18E
330
1F
100
AcDbEntity
  8
0
  6
HIDDEN
 62
     7
370
     0
100
AcDbLine
 10
172.1537060302
 20
96.6139670456
 30
0.0
 11
172.1537060302
 21
99.4353370736
 31
0.0
  0
LINE
  5
18F
330
1F
100
AcDbEntity
  8
0
  6
HIDDEN
 62
     7
370
     0
100
AcDbLine
 10
168.1537063059
 20
99.4183823461
 30
0.0
 11
168.1537063059
 21
97.8969262908
 31
0.0
  0
LINE
  5
190
330
1F
100
AcDbEntity
  8
0
  6
HIDDEN
 62
     7
370
     0
100
AcDbLine
 10
160.3537062847
 20
96.0788849736
 30
0.0
 11
162.2473055695
 21
96.5323738749
 31
0.0
  0
LINE
  5
191
330
1F
100
AcDbEntity
  8
0
  6
HIDDEN
 62
     7
370
     0
100
AcDbLine
 10
161.2691281561
 20
100.616877153
 30
0.0
 11
160.3537062847
 21
100.3976475442
 31
0.0
  0
LINE
  5
192
330
1F
100
AcDbEntity
  8
0
  6
HIDDEN
 62
     7
370
     0
100
AcDbLine
 10
162.2766669106
 20
97.0021301875
 30
0.0
 11
169.4837271434
 21
98.7281130622
 31
0.0
  0
LINE
  5
193
330
1F
100
AcDbEntity
  8
0
  6
HIDDEN
 62
     7
370
     0
100
AcDbLine
 10
169.4837271434
 20
102.1214269096
 30
0.0
 11
161.5080990095
 21
100.2113825636
 31
0.0
  0
LINE
  5
194
330
1F
100
AcDbEntity
  8
0
  6
HIDDEN
 62
     7
370
     0
100
AcDbLine
 10
171.8037066248
 20
99.4789062063
 30
0.0
 11
171.8037066248
 21
106.0217197048
 31
0.0
  0
LINE
  5
195
330
1F
100
AcDbEntity
  8
0
  6
HIDDEN
 62
     7
370
     0
100
AcDbLine
 10
168.5037066427
 20
99.5011461893
 30
0.0
 11
168.5037066427
 21
99.4789062063
 31
0.0
  0
LINE
  5
196
330
1F
100
AcDbEntity
  8
0
  6
HIDDEN
 62
     7
370
     0
100
AcDbLine
 10
168.5037066427
 20
106.0214276187
 30
0.0
 11
168.5037066427
 21
100.878993235
 31
0.0
  0
LINE
  5
197
330
1F
100
AcDbEntity
  8
0
  6
HIDDEN
 62
     7
370
     0
100
AcDbLine
 10
201.2537078199
 20
120.9728104988
 30
0.0
 11
200.803707653
 21
120.0077824289
 31
0.0
  0
LINE
  5
198
330
1F
100
AcDbEntity
  8
0
  6
HIDDEN
 62
     7
370
     0
100
AcDbLine
 10
200.803707653
 20
94.9378378684
 30
0.0
 11
201.2537078199
 21
93.9728097985
 31
0.0
  0
LINE
  5
199
330
1F
100
AcDbEntity
  8
0
  6
HIDDEN
 62
     7
370
     0
100
AcDbLine
 10
200.8008838829
 20
118.2728104288
 30
0.0
 11
197.9037069914
 21
118.2728104288
 31
0.0
  0
LINE
  5
19A
330
1F
100
AcDbEntity
  8
0
  6
HIDDEN
 62
     7
370
     0
100
AcDbLine
 10
197.9037069914
 20
96.6728098685
 30
0.0
 11
200.803707653
 21
96.6728098685
 31
0.0
  0
LINE
  5
19B
330
1F
100
AcDbEntity
  8
0
  6
HIDDEN
 62
     7
370
     0
100
AcDbLine
 10
197.9037069914
 20
116.9346908102
 30
0.0
 11
197.103704625
 21
116.4728097612
 31
0.0
  0
LINE
  5
19C
330
1F
100
AcDbEntity
  8
0
  6
HIDDEN
 62
     7
370
     0
100
AcDbLine
 10
197.103704625
 20
98.4728105361
 30
0.0
 11
197.9037069914
 21
98.0109294871
 31
0.0
  0
ARC
  5
19D
330
1F
100
AcDbEntity
  8
0
  6
HIDDEN
 62
     7
370
     0
100
AcDbCircle
 10
89.7037063655
 20
98.1728101487
 30
0.0
 40
0.7999999999999972
100
AcDbArc
 50
90.0
 51
180.0
  0
ARC
  5
19E
330
1F
100
AcDbEntity
  8
0
  6
HIDDEN
 62
     7
370
     0
100
AcDbCircle
 10
89.7037063655
 20
116.7728101487
 30
0.0
 40
0.7999999999999972
100
AcDbArc
 50
180.0
 51
270.0
  0
LINE
  5
19F
330
1F
100
AcDbEntity
  8
0
  6
HIDDEN
 62
     7
370
     0
100
AcDbLine
 10
182.8537055489
 20
98.2728099445
 30
0.0
 11
183.4283055004
 21
98.2728099445
 31
0.0
  0
LINE
  5
1A0
330
1F
100
AcDbEntity
  8
0
  6
HIDDEN
 62
     7
370
     0
100
AcDbLine
 10
183.4283055004
 20
116.6728103528
 30
0.0
 11
182.8537055489
 21
116.6728103528
 31
0.0
  0
ARC
  5
1A1
330
1F
100
AcDbEntity
  8
0
  6
HIDDEN
 62
     7
370
     0
100
AcDbCircle
 10
183.4283047054
 20
98.8728101487
 30
0.0
 40
0.6000000000000145
100
AcDbArc
 50
270.0
 51
285.0
  0
ARC
  5
1A2
330
1F
100
AcDbEntity
  8
0
  6
HIDDEN
 62
     7
370
     0
100
AcDbCircle
 10
183.4283047054
 20
116.0728101487
 30
0.0
 40
0.6000000000000145
100
AcDbArc
 50
75.0
 51
90.0
  0
ARC
  5
1A3
330
1F
100
AcDbEntity
  8
0
  6
HIDDEN
 62
     7
370
     0
100
AcDbCircle
 10
182.8537063655
 20
98.8728101487
 30
0.0
 40
0.6000000000000085
100
AcDbArc
 50
180.0
 51
270.0
  0
ARC
  5
1A4
330
1F
100
AcDbEntity
  8
0
  6
HIDDEN
 62
     7
370
     0
100
AcDbCircle
 10
182.8537063655
 20
116.0728101487
 30
0.0
 40
0.6000000000000085
100
AcDbArc
 50
90.0
 51
180.0
  0
LINE
  5
1A5
330
1F
100
AcDbEntity
  8
0
  6
HIDDEN
 62
     7
370
     0
100
AcDbLine
 10
183.5835960892
 20
98.2932543377
 30
0.0
 11
184.253706896
 21
98.4728105361
 31
0.0
  0
LINE
  5
1A6
330
1F
100
AcDbEntity
  8
0
  6
HIDDEN
 62
     7
370
     0
100
AcDbLine
 10
184.253706896
 20
116.4728097612
 30
0.0
 11
183.5835960892
 21
116.6523659597
 31
0.0
  0
LINE
  5
1A7
330
1F
100
AcDbEntity
  8
0
  6
HIDDEN
 62
     7
370
     0
100
AcDbLine
 10
184.253706896
 20
98.4728105361
 30
0.0
 11
197.103704625
 21
98.4728105361
 31
0.0
  0
LINE
  5
1A8
330
1F
100
AcDbEntity
  8
0
  6
HIDDEN
 62
     7
370
     0
100
AcDbLine
 10
197.103704625
 20
116.4728097612
 30
0.0
 11
184.253706896
 21
116.4728097612
 31
0.0
  0
LINE
  5
1A9
330
1F
100
AcDbEntity
  8
0
  6
HIDDEN
 62
     7
370
     0
100
AcDbLine
 10
96.796079838
 20
98.7478105346
 30
0.0
 11
97.6727673051
 21
98.7478105346
 31
0.0
  0
LINE
  5
1AA
330
1F
100
AcDbEntity
  8
0
  6
HIDDEN
 62
     7
370
     0
100
AcDbLine
 10
97.6727673051
 20
116.1978097627
 30
0.0
 11
96.796079838
 21
116.1978097627
 31
0.0
  0
ARC
  5
1AB
330
1F
100
AcDbEntity
  8
0
  6
HIDDEN
 62
     7
370
     0
100
AcDbCircle
 10
97.6727662578
 20
99.1478101487
 30
0.0
 40
0.400000000000005
100
AcDbArc
 50
270.0
 51
330.0
  0
ARC
  5
1AC
330
1F
100
AcDbEntity
  8
0
  6
HIDDEN
 62
     7
370
     0
100
AcDbCircle
 10
97.6727662578
 20
115.7978101487
 30
0.0
 40
0.400000000000005
100
AcDbArc
 50
30.0
 51
90.0
  0
ARC
  5
1AD
330
1F
100
AcDbEntity
  8
0
  6
HIDDEN
 62
     7
370
     0
100
AcDbCircle
 10
96.7960787962
 20
99.1478101487
 30
0.0
 40
0.3999999999999915
100
AcDbArc
 50
255.0
 51
270.0
  0
ARC
  5
1AE
330
1F
100
AcDbEntity
  8
0
  6
HIDDEN
 62
     7
370
     0
100
AcDbCircle
 10
96.7960787962
 20
115.7978101487
 30
0.0
 40
0.3999999999999915
100
AcDbArc
 50
90.0
 51
105.0
  0
LINE
  5
1AF
330
1F
100
AcDbEntity
  8
0
  6
HIDDEN
 62
     7
370
     0
100
AcDbLine
 10
96.6925502953
 20
116.1841807882
 30
0.0
 11
95.9037051734
 21
115.9728106106
 31
0.0
  0
LINE
  5
1B0
330
1F
100
AcDbEntity
  8
0
  6
HIDDEN
 62
     7
370
     0
100
AcDbLine
 10
95.9037051734
 20
98.9728096867
 30
0.0
 11
96.6925502953
 21
98.7614395092
 31
0.0
  0
LINE
  5
1B1
330
1F
100
AcDbEntity
  8
0
  6
HIDDEN
 62
     7
370
     0
100
AcDbLine
 10
98.0191745993
 20
98.9478101949
 30
0.0
 11
98.8996357855
 21
100.4728099326
 31
0.0
  0
LINE
  5
1B2
330
1F
100
AcDbEntity
  8
0
  6
HIDDEN
 62
     7
370
     0
100
AcDbLine
 10
98.8996357855
 20
114.4728103647
 30
0.0
 11
98.0191745993
 21
115.9978101025
 31
0.0
  0
LINE
  5
1B3
330
1F
100
AcDbEntity
  8
0
  6
HIDDEN
 62
     7
370
     0
100
AcDbLine
 10
89.7037045297
 20
98.9728096867
 30
0.0
 11
95.9037051734
 21
98.9728096867
 31
0.0
  0
LINE
  5
1B4
330
1F
100
AcDbEntity
  8
0
  6
HIDDEN
 62
     7
370
     0
100
AcDbLine
 10
95.9037051734
 20
115.9728106106
 30
0.0
 11
89.7037045297
 21
115.9728106106
 31
0.0
  0
LINE
  5
1B5
330
1F
100
AcDbEntity
  8
0
  6
HIDDEN
 62
     7
370
     0
100
AcDbLine
 10
131.9037054863
 20
100.4728099326
 30
0.0
 11
133.5560728994
 21
103.2228099177
 31
0.0
  0
LINE
  5
1B6
330
1F
100
AcDbEntity
  8
0
  6
HIDDEN
 62
     7
370
     0
100
AcDbLine
 10
133.5560728994
 20
111.7228103796
 30
0.0
 11
131.9037054863
 21
114.4728103647
 31
0.0
  0
LINE
  5
1B7
330
1F
100
AcDbEntity
  8
0
  6
HIDDEN
 62
     7
370
     0
100
AcDbLine
 10
98.8996357855
 20
100.4728099326
 30
0.0
 11
131.9037054863
 21
100.4728099326
 31
0.0
  0
LINE
  5
1B8
330
1F
100
AcDbEntity
  8
0
  6
HIDDEN
 62
     7
370
     0
100
AcDbLine
 10
131.9037054863
 20
114.4728103647
 30
0.0
 11
98.8996357855
 21
114.4728103647
 31
0.0
  0
LINE
  5
1B9
330
1F
100
AcDbEntity
  8
0
  6
HIDDEN
 62
     7
370
     0
100
AcDbLine
 10
200.803707653
 20
119.6478104214
 30
0.0
 11
197.9037069914
 21
119.6478104214
 31
0.0
  0
LINE
  5
1BA
330
1F
100
AcDbEntity
  8
0
  6
HIDDEN
 62
     7
370
     0
100
AcDbLine
 10
197.9037069914
 20
95.297809876
 30
0.0
 11
200.803707653
 21
95.297809876
 31
0.0
  0
LINE
  5
1BB
330
1F
100
AcDbEntity
  8
0
  6
HIDDEN
 62
     7
370
     0
100
AcDbLine
 10
133.5560728994
 20
103.2228099177
 30
0.0
 11
182.2537065682
 21
103.2228099177
 31
0.0
  0
LINE
  5
1BC
330
1F
100
AcDbEntity
  8
0
  6
HIDDEN
 62
     7
370
     0
100
AcDbLine
 10
182.2537065682
 20
111.7228103796
 30
0.0
 11
133.5560728994
 21
111.7228103796
 31
0.0
  0
LINE
  5
1BD
330
1F
100
AcDbEntity
  8
0
  6
HIDDEN
 62
     7
370
     0
100
AcDbLine
 10
171.8037066248
 20
108.9241926786
 30
0.0
 11
171.8037066248
 21
115.4667140911
 31
0.0
  0
LINE
  5
1BE
330
1F
100
AcDbEntity
  8
0
  6
HIDDEN
 62
     7
370
     0
100
AcDbLine
 10
168.5037066427
 20
114.0666270623
 30
0.0
 11
168.5037066427
 21
108.9239005925
 31
0.0
  0
LINE
  5
1BF
330
1F
100
AcDbEntity
  8
0
  6
HIDDEN
 62
     7
370
     0
100
AcDbLine
 10
168.5037066427
 20
115.4667140911
 30
0.0
 11
168.5037066427
 21
115.444474108
 31
0.0
  0
LINE
  5
1C0
330
1F
100
AcDbEntity
  8
0
  6
HIDDEN
 62
     7
370
     0
100
AcDbLine
 10
200.8013756212
 20
118.2728104288
 30
0.0
 11
200.8008838829
 21
118.2728104288
 31
0.0
  0
LINE
  5
1C1
330
1F
100
AcDbEntity
  8
0
  6
HIDDEN
 62
     7
370
     0
100
AcDbLine
 10
161.5080990095
 20
114.7342377337
 30
0.0
 11
169.4837271434
 21
112.8241933877
 31
0.0
  0
LINE
  5
1C2
330
1F
100
AcDbEntity
  8
0
  6
HIDDEN
 62
     7
370
     0
100
AcDbLine
 10
169.4837271434
 20
116.2175072352
 30
0.0
 11
162.2766669106
 21
117.9434901098
 31
0.0
  0
LINE
  5
1C3
330
1F
100
AcDbEntity
  8
0
  6
HIDDEN
 62
     7
370
     0
100
AcDbLine
 10
172.1537060302
 20
115.5102832238
 30
0.0
 11
172.1537060302
 21
118.3316532517
 31
0.0
  0
LINE
  5
1C4
330
1F
100
AcDbEntity
  8
0
  6
HIDDEN
 62
     7
370
     0
100
AcDbLine
 10
168.1537063059
 20
117.0486940066
 30
0.0
 11
168.1537063059
 21
115.5272379512
 31
0.0
  0
LINE
  5
1C5
330
1F
100
AcDbEntity
  8
0
  6
HIDDEN
 62
     7
370
     0
100
AcDbLine
 10
160.3537062847
 20
114.5479727531
 30
0.0
 11
161.2691281561
 21
114.3287431443
 31
0.0
  0
LINE
  5
1C6
330
1F
100
AcDbEntity
  8
0
  6
HIDDEN
 62
     7
370
     0
100
AcDbLine
 10
162.2473055695
 20
118.4132464225
 30
0.0
 11
160.3537062847
 21
118.8667353237
 31
0.0
  0
LINE
  5
1C7
330
1F
100
AcDbEntity
  8
0
  6
HIDDEN
 62
     7
370
     0
100
AcDbLine
 10
172.1537060302
 20
115.5102832238
 30
0.0
 11
172.1537060302
 21
115.8352030436
 31
0.0
  0
LINE
  5
1C8
330
1F
100
AcDbEntity
  8
0
  6
HIDDEN
 62
     7
370
     0
100
AcDbLine
 10
168.1537063059
 20
115.8352030436
 30
0.0
 11
168.1537063059
 21
115.5102832238
 31
0.0
  0
LINE
  5
1C9
330
1F
100
AcDbEntity
  8
0
  6
HIDDEN
 62
     7
370
     0
100
AcDbLine
 10
171.6537059483
 20
115.7722800965
 30
0.0
 11
171.6537059483
 21
116.7757578189
 31
0.0
  0
LINE
  5
1CA
330
1F
100
AcDbEntity
  8
0
  6
HIDDEN
 62
     7
370
     0
100
AcDbLine
 10
168.6537063879
 20
116.7757578189
 30
0.0
 11
168.6537063879
 21
115.7722800965
 31
0.0
  0
LINE
  5
1CB
330
1F
100
AcDbEntity
  8
0
  6
HIDDEN
 62
     7
370
     0
100
AcDbLine
 10
172.1537060302
 20
116.6047483677
 30
0.0
 11
172.1537060302
 21
116.7415559287
 31
0.0
  0
LINE
  5
1CC
330
1F
100
AcDbEntity
  8
0
  6
HIDDEN
 62
     7
370
     0
100
AcDbLine
 10
168.1537063059
 20
116.7415559287
 30
0.0
 11
168.1537063059
 21
116.6047483677
 31
0.0
  0
LINE
  5
1CD
330
1F
100
AcDbEntity
  8
0
  6
HIDDEN
 62
     7
370
     0
100
AcDbLine
 10
168.1537063059
 20
98.3408719296
 30
0.0
 11
168.1537063059
 21
98.2040643687
 31
0.0
  0
LINE
  5
1CE
330
1F
100
AcDbEntity
  8
0
  6
HIDDEN
 62
     7
370
     0
100
AcDbLine
 10
172.1537060302
 20
98.2040643687
 30
0.0
 11
172.1537060302
 21
98.3408719296
 31
0.0
  0
LINE
  5
1CF
330
1F
100
AcDbEntity
  8
0
  6
HIDDEN
 62
     7
370
     0
100
AcDbLine
 10
168.6537063879
 20
99.1733402009
 30
0.0
 11
168.6537063879
 21
98.1698624784
 31
0.0
  0
LINE
  5
1D0
330
1F
100
AcDbEntity
  8
0
  6
HIDDEN
 62
     7
370
     0
100
AcDbLine
 10
171.6537059483
 20
98.1698624784
 30
0.0
 11
171.6537059483
 21
99.1733402009
 31
0.0
  0
LINE
  5
1D1
330
1F
100
AcDbEntity
  8
0
  6
HIDDEN
 62
     7
370
     0
100
AcDbLine
 10
168.1537063059
 20
99.4353370736
 30
0.0
 11
168.1537063059
 21
99.1104172537
 31
0.0
  0
LINE
  5
1D2
330
1F
100
AcDbEntity
  8
0
  6
HIDDEN
 62
     7
370
     0
100
AcDbLine
 10
172.1537060302
 20
99.1104172537
 30
0.0
 11
172.1537060302
 21
99.4353370736
 31
0.0
  0
CIRCLE
  5
1D3
330
1F
100
AcDbEntity
  8
0
  6
HIDDEN
 62
     7
370
     0
100
AcDbCircle
 10
170.1537063655
 20
116.1943238035
 30
0.0
 40
1.500000000000005
  0
ARC
  5
1D4
330
1F
100
AcDbEntity
  8
0
  6
HIDDEN
 62
     7
370
     0
100
AcDbCircle
 10
170.1537063655
 20
98.7512964939
 30
0.0
 40
1.500000000000018
100
AcDbArc
 50
65.9119069768
 51
191.5274417158
  0
ARC
  5
1D5
330
1F
100
AcDbEntity
  8
0
  6
HIDDEN
 62
     7
370
     0
100
AcDbCircle
 10
170.1537063655
 20
98.7512964939
 30
0.0
 40
1.500000000000018
100
AcDbArc
 50
336.4380830094
 51
65.9119069768
  0
LINE
  5
1D6
330
1F
100
AcDbEntity
  8
0
  6
HIDDEN
 62
     7
370
     0
100
AcDbLine
 10
165.5524711323
 20
113.8819281007
 30
0.0
 11
166.0495133337
 21
114.3555433484
 31
0.0
  0
LINE
  5
1D7
330
1F
100
AcDbEntity
  8
0
  6
HIDDEN
 62
     7
370
     0
100
AcDbLine
 10
166.4969532949
 20
116.2238877261
 30
0.0
 11
166.2683760014
 21
116.8712779874
 31
0.0
  0
LINE
  5
1D8
330
1F
100
AcDbEntity
  8
0
  6
HIDDEN
 62
     7
370
     0
100
AcDbLine
 10
161.4768638474
 20
114.3818210805
 30
0.0
 11
164.7738142137
 21
113.5922504584
 31
0.0
  0
LINE
  5
1D9
330
1F
100
AcDbEntity
  8
0
  6
HIDDEN
 62
     7
370
     0
100
AcDbLine
 10
165.7054119941
 20
117.4822535361
 30
0.0
 11
162.4084616278
 21
118.2718241582
 31
0.0
  0
LINE
  5
1DA
330
1F
100
AcDbEntity
  8
0
  6
HIDDEN
 62
     7
370
     0
100
AcDbLine
 10
162.4084616278
 20
96.6737961391
 30
0.0
 11
165.7054119941
 21
97.4633667613
 31
0.0
  0
LINE
  5
1DB
330
1F
100
AcDbEntity
  8
0
  6
HIDDEN
 62
     7
370
     0
100
AcDbLine
 10
164.7738142137
 20
101.353369839
 30
0.0
 11
161.4768638474
 21
100.5637992168
 31
0.0
  0
LINE
  5
1DC
330
1F
100
AcDbEntity
  8
0
  6
HIDDEN
 62
     7
370
     0
100
AcDbLine
 10
166.2683760014
 20
98.0743423099
 30
0.0
 11
166.4969532949
 21
98.7217325712
 31
0.0
  0
LINE
  5
1DD
330
1F
100
AcDbEntity
  8
0
  6
HIDDEN
 62
     7
370
     0
100
AcDbLine
 10
166.0495133337
 20
100.5900769489
 30
0.0
 11
165.5524711323
 21
101.0636921967
 31
0.0
  0
DIMENSION
  5
1DE
330
1F
100
AcDbEntity
  8
VERMASSUNG
100
AcDbDimension
  2
_D
 10
81.2555408624
 20
139.2228101487
 30
0.0
 11
81.2555408624
 21
107.4728101487
 31
0.0
 70
   160
  1
ISO 40 %%c<>
 71
     2
 42
-1.0
  3
SLDDIMSTYLE0
100
AcDbAlignedDimension
 13
175.6037063655
 23
75.7228101487
 33
0.0
 14
175.6037063655
 24
139.2228101487
 34
0.0
 50
90.0
100
AcDbRotatedDimension
  0
DIMENSION
  5
1EB
330
1F
100
AcDbEntity
  8
VERMASSUNG
100
AcDbDimension
  2
_D_1
 10
201.2537063655
 20
156.0844275687
 30
0.0
 11
145.0787063655
 21
156.0844275687
 31
0.0
 70
   160
  1
(<>)
 71
     2
 42
-1.0
  3
SLDDIMSTYLE0
100
AcDbAlignedDimension
 13
88.9037063655
 23
118.8799407457
 33
0.0
 14
201.2537063655
 24
123.1728101487
 34
0.0
100
AcDbRotatedDimension
  0
DIMENSION
  5
1F7
330
1F
100
AcDbEntity
  8
VERMASSUNG
100
AcDbDimension
  2
_D_2
 10
201.2537063655
 20
150.0844275687
 30
0.0
 11
179.2037063655
 21
150.0844275687
 31
0.0
 70
   160
  1
<>
 71
     2
 42
-1.0
  3
SLDDIMSTYLE0
100
AcDbAlignedDimension
 13
157.1537063655
 23
129.6978101487
 33
0.0
 14
201.2537063655
 24
123.1728101487
 34
0.0
100
AcDbRotatedDimension
  0
DIMENSION
  5
201
330
1F
100
AcDbEntity
  8
VERMASSUNG
100
AcDbDimension
  2
_D_3
 10
201.2537063655
 20
144.0844275687
 30
0.0
 11
188.7287063655
 21
144.0844275687
 31
0.0
 70
   160
  1
<>
 71
     2
 42
-1.0
  3
SLDDIMSTYLE0
100
AcDbAlignedDimension
 13
176.2037063655
 23
137.4833612821
 33
0.0
 14
201.2537063655
 24
123.1728101487
 34
0.0
100
AcDbRotatedDimension
  0
DIMENSION
  5
20B
330
1F
100
AcDbEntity
  8
VERMASSUNG
100
AcDbDimension
  2
_D_4
 10
209.5684564428
 20
91.4728101487
 30
0.0
 11
209.5684564428
 21
107.4728101487
 31
0.0
 70
   160
  1
MBM %%c<>
 71
     2
 42
-1.0
  3
SLDDIMSTYLE0
100
AcDbAlignedDimension
 13
200.9537063655
 23
123.4728101487
 33
0.0
 14
200.9537063655
 24
91.4728101487
 34
0.0
 50
90.0
100
AcDbRotatedDimension
  0
LINE
  5
217
330
1F
100
AcDbEntity
  8
VERMASSUNG
  6
CENTERX2
370
     0
100
AcDbLine
 10
87.2031329418
 20
107.4728101487
 30
0.0
 11
203.6966728099
 21
107.4728101487
 31
0.0
  0
LINE
  5
218
330
1F
100
AcDbEntity
  8
VERMASSUNG
  6
CENTERX2
370
     0
100
AcDbLine
 10
159.9473813683
 20
116.804662794
 30
0.0
 11
171.428729171
 21
114.0550512674
 31
0.0
  0
LINE
  5
219
330
1F
100
AcDbEntity
  8
VERMASSUNG
  6
CENTERX2
370
     0
100
AcDbLine
 10
159.9473813683
 20
98.1409575034
 30
0.0
 11
171.428729171
 21
100.89056903
 31
0.0
  0
OLE2FRAME
  5
21A
330
1F
100
AcDbEntity
  8
0
100
AcDbOle2Frame
 70
     2
  3
Paintbrush-Bild
 10
13.8511154363
 20
38.264191557
 30
0.0
 11
51.6290888628
 21
31.9806341108
 31
0.0
 71
     2
 72
     0
 73
     1
 90
    12928
310
80552BED0767C5B32B40DDAF6807D121434000000000000000006FFBDDFB85D0
310
4940DDAF6807D121434000000000000000006FFBDDFB85D04940416F4BD60AFB
310
3F4000000000000000002BED0767C5B32B40416F4BD60AFB3F40000000000000
310
0000000000000100000000010000010000000100000000000100000000320000
310
D0CF11E0A1B11AE1000000000000000000000000000000003E000300FEFF0900
310
0600000000000000000000000100000001000000000000000010000002000000
310
01000000FEFFFFFF0000000000000000FFFFFFFFFFFFFFFFFFFFFFFFFFFFFFFF
310
FFFFFFFFFFFFFFFFFFFFFFFFFFFFFFFFFFFFFFFFFFFFFFFFFFFFFFFFFFFFFFFF
310
FFFFFFFFFFFFFFFFFFFFFFFFFFFFFFFFFFFFFFFFFFFFFFFFFFFFFFFFFFFFFFFF
310
FFFFFFFFFFFFFFFFFFFFFFFFFFFFFFFFFFFFFFFFFFFFFFFFFFFFFFFFFFFFFFFF
310
FFFFFFFFFFFFFFFFFFFFFFFFFFFFFFFFFFFFFFFFFFFFFFFFFFFFFFFFFFFFFFFF
310
FFFFFFFFFFFFFFFFFFFFFFFFFFFFFFFFFFFFFFFFFFFFFFFFFFFFFFFFFFFFFFFF
310
FFFFFFFFFFFFFFFFFFFFFFFFFFFFFFFFFFFFFFFFFFFFFFFFFFFFFFFFFFFFFFFF
310
FFFFFFFFFFFFFFFFFFFFFFFFFFFFFFFFFFFFFFFFFFFFFFFFFFFFFFFFFFFFFFFF
310
FFFFFFFFFFFFFFFFFFFFFFFFFFFFFFFFFFFFFFFFFFFFFFFFFFFFFFFFFFFFFFFF
310
FFFFFFFFFFFFFFFFFFFFFFFFFFFFFFFFFFFFFFFFFFFFFFFFFFFFFFFFFFFFFFFF
310
FFFFFFFFFFFFFFFFFFFFFFFFFFFFFFFFFFFFFFFFFFFFFFFFFFFFFFFFFFFFFFFF
310
FFFFFFFFFFFFFFFFFFFFFFFFFFFFFFFFFFFFFFFFFFFFFFFFFFFFFFFFFFFFFFFF
310
FFFFFFFFFFFFFFFFFFFFFFFFFFFFFFFFFFFFFFFFFFFFFFFFFFFFFFFFFFFFFFFF
310
FFFFFFFFFFFFFFFFFFFFFFFFFFFFFFFFFFFFFFFFFFFFFFFFFFFFFFFFFFFFFFFF
310
FDFFFFFFFEFFFFFFFEFFFFFFFEFFFFFF05000000060000000700000008000000
310
090000000A0000000B0000000C0000000D0000000E0000000F00000010000000
310
11000000120000001300000014000000150000001600000017000000FEFFFFFF
310
FFFFFFFFFFFFFFFFFFFFFFFFFFFFFFFFFFFFFFFFFFFFFFFFFFFFFFFFFFFFFFFF
310
FFFFFFFFFFFFFFFFFFFFFFFFFFFFFFFFFFFFFFFFFFFFFFFFFFFFFFFFFFFFFFFF
310
FFFFFFFFFFFFFFFFFFFFFFFFFFFFFFFFFFFFFFFFFFFFFFFFFFFFFFFFFFFFFFFF
310
FFFFFFFFFFFFFFFFFFFFFFFFFFFFFFFFFFFFFFFFFFFFFFFFFFFFFFFFFFFFFFFF
310
FFFFFFFFFFFFFFFFFFFFFFFFFFFFFFFFFFFFFFFFFFFFFFFFFFFFFFFFFFFFFFFF
310
FFFFFFFFFFFFFFFFFFFFFFFFFFFFFFFFFFFFFFFFFFFFFFFFFFFFFFFFFFFFFFFF
310
FFFFFFFFFFFFFFFFFFFFFFFFFFFFFFFFFFFFFFFFFFFFFFFFFFFFFFFFFFFFFFFF
310
FFFFFFFFFFFFFFFFFFFFFFFFFFFFFFFFFFFFFFFFFFFFFFFFFFFFFFFFFFFFFFFF
310
FFFFFFFFFFFFFFFFFFFFFFFFFFFFFFFFFFFFFFFFFFFFFFFFFFFFFFFFFFFFFFFF
310
FFFFFFFFFFFFFFFFFFFFFFFFFFFFFFFFFFFFFFFFFFFFFFFFFFFFFFFFFFFFFFFF
310
FFFFFFFFFFFFFFFFFFFFFFFFFFFFFFFFFFFFFFFFFFFFFFFFFFFFFFFFFFFFFFFF
310
FFFFFFFFFFFFFFFFFFFFFFFFFFFFFFFFFFFFFFFFFFFFFFFFFFFFFFFFFFFFFFFF
310
FFFFFFFFFFFFFFFFFFFFFFFFFFFFFFFFFFFFFFFFFFFFFFFFFFFFFFFFFFFFFFFF
310
52006F006F007400200045006E00740072007900000000000000000000000000
310
0000000000000000000000000000000000000000000000000000000000000000
310
16000500FFFFFFFFFFFFFFFF020000000A00030000000000C000000000000046
310
000000000000000000000000E0A9FA5E99FFD10103000000C000000000000000
310
01004F006C006500000000000000000000000000000000000000000000000000
310
0000000000000000000000000000000000000000000000000000000000000000
310
0A000200FFFFFFFFFFFFFFFFFFFFFFFF00000000000000000000000000000000
310
0000000000000000000000000000000000000000000000001400000000000000
310
010043006F006D0070004F0062006A0000000000000000000000000000000000
310
0000000000000000000000000000000000000000000000000000000000000000
310
120002010100000003000000FFFFFFFF00000000000000000000000000000000
310
0000000000000000000000000000000000000000010000004D00000000000000
310
01004F006C006500310030004E00610074006900760065000000000000000000
310
0000000000000000000000000000000000000000000000000000000000000000
310
1A000200FFFFFFFFFFFFFFFFFFFFFFFF00000000000000000000000000000000
310
0000000000000000000000000000000000000000040000002426000000000000
310
FEFFFFFF02000000FEFFFFFFFFFFFFFFFFFFFFFFFFFFFFFFFFFFFFFFFFFFFFFF
310
FFFFFFFFFFFFFFFFFFFFFFFFFFFFFFFFFFFFFFFFFFFFFFFFFFFFFFFFFFFFFFFF
310
FFFFFFFFFFFFFFFFFFFFFFFFFFFFFFFFFFFFFFFFFFFFFFFFFFFFFFFFFFFFFFFF
310
FFFFFFFFFFFFFFFFFFFFFFFFFFFFFFFFFFFFFFFFFFFFFFFFFFFFFFFFFFFFFFFF
310
FFFFFFFFFFFFFFFFFFFFFFFFFFFFFFFFFFFFFFFFFFFFFFFFFFFFFFFFFFFFFFFF
310
FFFFFFFFFFFFFFFFFFFFFFFFFFFFFFFFFFFFFFFFFFFFFFFFFFFFFFFFFFFFFFFF
310
FFFFFFFFFFFFFFFFFFFFFFFFFFFFFFFFFFFFFFFFFFFFFFFFFFFFFFFFFFFFFFFF
310
FFFFFFFFFFFFFFFFFFFFFFFFFFFFFFFFFFFFFFFFFFFFFFFFFFFFFFFFFFFFFFFF
310
FFFFFFFFFFFFFFFFFFFFFFFFFFFFFFFFFFFFFFFFFFFFFFFFFFFFFFFFFFFFFFFF
310
FFFFFFFFFFFFFFFFFFFFFFFFFFFFFFFFFFFFFFFFFFFFFFFFFFFFFFFFFFFFFFFF
310
FFFFFFFFFFFFFFFFFFFFFFFFFFFFFFFFFFFFFFFFFFFFFFFFFFFFFFFFFFFFFFFF
310
FFFFFFFFFFFFFFFFFFFFFFFFFFFFFFFFFFFFFFFFFFFFFFFFFFFFFFFFFFFFFFFF
310
FFFFFFFFFFFFFFFFFFFFFFFFFFFFFFFFFFFFFFFFFFFFFFFFFFFFFFFFFFFFFFFF
310
FFFFFFFFFFFFFFFFFFFFFFFFFFFFFFFFFFFFFFFFFFFFFFFFFFFFFFFFFFFFFFFF
310
FFFFFFFFFFFFFFFFFFFFFFFFFFFFFFFFFFFFFFFFFFFFFFFFFFFFFFFFFFFFFFFF
310
FFFFFFFFFFFFFFFFFFFFFFFFFFFFFFFFFFFFFFFFFFFFFFFFFFFFFFFFFFFFFFFF
310
0100000200000000000000000000000000000000000000000000000000000000
310
0000000000000000000000000000000000000000000000000000000000000000
310
0100FEFF030A0000FFFFFFFF0A00030000000000C00000000000004607000000
310
5042727573680007000000504272757368000700000050427275736800F439B2
310
7100000000000000000000000000000000000000000000000000000000000000
310
0000000000000000000000000000000000000000000000000000000000000000
310
0000000000000000000000000000000000000000000000000000000000000000
310
0000000000000000000000000000000000000000000000000000000000000000
310
0000000000000000000000000000000000000000000000000000000000000000
310
0000000000000000000000000000000000000000000000000000000000000000
310
0000000000000000000000000000000000000000000000000000000000000000
310
0000000000000000000000000000000000000000000000000000000000000000
310
0000000000000000000000000000000000000000000000000000000000000000
310
0000000000000000000000000000000000000000000000000000000000000000
310
0000000000000000000000000000000000000000000000000000000000000000
310
0000000000000000000000000000000000000000000000000000000000000000
310
20260000424D0E260000000000003E00000028000000B40200006E0000000100
310
01000000000000000000130B0000130B00000200000002000000000000FFFFFF
310
FFFFFFFFFFFFFFFFFFFFFFFFFFFFFFFFFFFFFFFFFFFFFFFFFFFFFFFFFFFFFFFF
310
FFFFFFFFFFFFFFFFFFFFFFFFFFFFFFFFFFFFFFFFFFFFFFFFFFFFFFFFFFFFFFFF
310
FFFFFFFFFFFFFFFFFFFFFFFFFFFFFFFFFFFFFFFFFFFFFFFFF000FFFFFFFFFFFF
310
FFFFFFFFFFFFFFFFFFFFFFFFFFFFFFFFFFFFFFFFFFFFFFFFFFFFFFFFFFFFFFFF
310
FFFFFFFFFFFFFFFFFFFFFFFFFFFFFFFFFFFFFFFFFFFFFFFFFFFFFFFFFFFFFFFF
310
FFFFFFFFFFFFFFFFFFFFFFFFFFFFFFFFF000FFFFFFFFFFFFFFFFFFFFFFFFFFFF
310
FFFFFFFFFFFFFFFFFFFFFFFFFFFFFFFFFFFFFFFFFFFFFFFFFFFFFFFFFFFFFFFF
310
FFFFFFFFFFFFFFFFFFFFFFFFFFFFFFFFFFFFFFFFFFFFFFFFFFFFFFFFFFFFFFFF
310
FFFFFFFFFFFFFFFFF000FFFFFFFFFFFFFFFFFFFFFFFFFFFFFFFFFFFFFFFFFFFF
310
FFFFFFFFFFFFFFFFFFFFFFFFFFFFFFFFFFFFFFFFFFFFFFFFFFFFFFFFFFFFFFFF
310
FFFFFFFFFFFFFFFFFFFFFFFFFFFFFFFFFFFFFFFFFFFFFFFFFFFFFFFFFFFFFFFF
310
F000FFFFFFFFFFFFFFFFFFFFFFFFFFFFFFFFFFFFFFFFFFFFFFFFFFFFFFFFFFFF
310
FFFFFFFFFFFFFFFFFFFFFFFFFFFFFFFFFFFFFFFFFFFFFFFFFFFFFFFFFFFFFFFF
310
FFFFFFFFFFFFFFFFFFFFFFFFFFFFFFFFFFFFFFFFFFFFFFFFF000FFFFFFFFFFFF
310
FFFFFFFFFFFFFFFFFFFFFFFFFFFFFFFFFFFFFFFFFFFFFFFFFFFFFFFFFFFFFFFF
310
FFFFFFFFFFFFFFFFFFFFFFFFFFFFFFFFFFFFFFFFFFFFFFFFFFFFFFFFFFFFFFFF
310
FFFFFFFFFFFFFFFFFFFFFFFFFFFFFFFFF000FFFFFFFFFFFFFFFFFFFFFFFFFFFF
310
FFFFFFFFFFFFFFFFFFFFFFFFFFFFFFFFFFFFFFFFFFFFFFFFFFFFFFFFFFFFFFFF
310
FFFFFFFFFFFFFFFFFFFFFFFFFFFFFFFFFFFFFFFFFFFFFFFFFFFFFFFFFFFFFFFF
310
FFFFFFFFFFFFFFFFF000FFFFFFFFFFFFFFFFFFFFFFFFFFFFFFFFFFFFFFFFFFFF
310
FFFFFFFFFFFFFFFFFFFFFFFFFFFFFFFFFFFFFFFFFFFFFFFFFFFFFFFFFFFFFFFF
310
FFFFFFFFFFFFFFFFFFFFFFFFFFFFFFFFFFFFFFFFFFFFFFFFFFFFFFFFFFFFFFFF
310
F000FFFFFFFFFFFFFFFFFFFFFFFFFFFFFFFFFFFFFFFFFFFFFFFFFFFFFFFFFFFF
310
FFFFFFFFFFFFFFFFFFFFFFFFFFFFFFFFFFFFFFFFFFFFFFFFFFFFFFFFFFFFFFFF
310
FFFFFFFFFFFFFFFFFFFFFFFFFFFFFFFFFFFFFFFFFFFFFFFFF000FFFFFFFFFFFF
310
FFFFFFFFFFFFFFFFFFFFFFFFFFFFFFFFFFFFFFFFFFFFFFFFFFFFFFFFFFFFFFFF
310
FFFFFFFFFFFFFFFFFFFFFFFFFFFFFFFFFFFFFFFFFFFFFFFFFFFFFFFFFFFFFFFF
310
FFFFFFFFFFFFFFFFFFFFFFFFFFFFFFFFF000FFFFFFFFFFFFFFFFFFFFFFFFFFFF
310
FFFFFFFFFFFFFFFFFFFFFFFFFFFFFFFFFFFFFFFFFFFFFFFFFFFFFFFFFFFFFFFF
310
FFFFFFFFFFFFFFFFFFFFFFFFFFFFFFFFFFFFFFFFFFFFFFFFFFFFFFFFFFFFFFFF
310
FFFFFFFFFFFFFFFFF000FFFFFFFFFFFFFFFFFFFFFFFFFFFFFFFFFFFFFFFFFFFF
310
FFFFFFFFFFFFFFFFFFFFFFFFFFFFFFFFFFFFFFFFFFFFFFFFFFFFFFFFFFFFFFFF
310
FFFFFFFFFFFFFFFFFFFFFFFFFFFFFFFFFFFFFFFFFFFFFFFFFFFFFFFFFFFFFFFF
310
F000FFFFFFFFFFFFFFFFFFFFFFFFFFFFFFFFFFFFFFFFFFFFFFFFFFFFFFFFFFFF
310
FFFFFFFFFFFFFFFFFFFFFFFFFFFFFFFFFFFFFFFFFFFFFFFFFFFFFFFFFFFFFFFF
310
FFFFFFFFFFFFFFFFFFFFFFFFFFFFFFFFFFFFFFFFFFFFFFFFF000FFFFFFFFFFFF
310
FFFFFFFFFFFFFFFFFFFFFFFFFFFFFFFFFFFFFFFFFFFFFFFFFFFFFFFFFFFFFFFF
310
FFFFFFFFFFFFFFFFFFFFFFFFFFFFFFFFFFFFFFFFFFFFFFFFFFFFFFFFFFFFFFFF
310
FFFFFFFFFFFFFFFFFFFFFFFFFFFFFFFFF000FFFFFFFFFFFFFFFFFFFFFFFFFFFF
310
FFFFFFFFFFFFFFFFFFFFFFFFFFFFFFFFFFFFFFFFFFFFFFFFFFFFFFFFFFFFFFFF
310
FFFFFFFFFFFFFFFFFFFFFFFFFFFFFFFFFFFFFFFFFFFFFFFFFFFFFFFFFFFFFFFF
310
FFFFFFFFFFFFFFFFF000FFFFFFFFFFFFFFFFFFFFFFFFFFFFFFFFFFFFFFFFFFFF
310
FFFFFFFFFFFFFFFFFFFFFFFFFFFFFFFFFFFFFFFFFFFFFFFFFFFFFFFFFFFFFFFF
310
FFFFFFFFFFFFFFFFFFFFFFFFFFFFFFFFFFFFFFFFFFFFFFFFFFFFFFFFFFFFFFFF
310
F000FFFFFFFFFFFFFFFFFFFFFFFFFFFFFFFFFFFFFFFFFFFFFFFFFFFFFFFFFFFF
310
FFFFFFFFFFFFFFFFFFFFFFFFFFFFFFFFFFFFFFFFFFFFFFFFFFFFFFFFFFFFFFFF
310
FFFFFFFFFFFFFFFFFFFFFFFFFFFFFFFFFFFFFFFFFFFFFFFFF000FFFFFFFFFFFF
310
FFFFFFFFFFFFFFFFFFFFFFFFFFFFFFFFFFFFFFFFFFFFFFFFFFFFFFFFFFFFFFFF
310
FFFFFFFFFFFFFFFFFFFFFFFFFFFFFFFFFFFFFFFFFFFFFFFFFFFFFFFFFFFFFFFF
310
FFFFFFFFFFFFFFFFFFFFFFFFFFFFFFFFF000FFFFFFFFFFFFFFFFFFFFFFFFFFFF
310
FFFFFFFFFFFFFFFFFFFFFFFFFFFFFFFFFFFFFFFFFFFFFFFFFFFFFFFFFFFFFFFF
310
FFFFFFFFFFFFFFFFFFFFFFFFFFFFFFFFFFFFFFFFFFFFFFFFFFFFFFFFFFFFFFFF
310
FFFFFFFFFFFFFFFFF000FFFFF80003FFFFFFFFFFFFFFFFFFFFFFFFFFFFFFFFFF
310
FFFFF00007FFFFFFFFFF00007FFFFFF800000000000000007FFFFFFFFFFFFFFF
310
FFFFFFFC001FFFFFFFFFFFFFFC001FFFFFFFFFFFFFFFFFFFFFFFFFFE0007FFFF
310
F000FFFF8000007FFFFFFFF8000FFFFFC0007FFFFF80007FFFFF0000007FFFFF
310
FFF8000007FFFFF800000000000000007FFFFFF0001FFFFFFFFFFFC00001FFFF
310
FFFFFFFFC00001FFFFFFFF000000000003FFFFE000007FFFF000FFFE0000000F
310
FFFFFFF0000FFFFF80007FFFFF80007FFFFC0000001FFFFFFFC0000001FFFFF8
310
00000000000000007FFFFFF0001FFFFFFFFFFE0000003FFFFFFFFFFE0000003F
310
FFFFFF000000000003FFFF0000000FFFF000FFF800000003FFFFFFF00007FFFF
310
80007FFFFF80007FFFF000000007FFFFFF000000003FFFF80000000000000000
310
7FFFFFF0001FFFFFFFFFF80000000FFFFFFFFFF80000000FFFFFFF0000000000
310
03FFFC00000003FFF000FFE000000000FFFFFFF00007FFFF80003FFFFF80007F
310
FFC000000001FFFFFC000000001FFFF800000000000000007FFFFFF0001FFFFF
310
FFFFE000000003FFFFFFFFE000000003FFFFFF000000000003FFF000000000FF
310
F000FF80000000007FFFFFF00007FFFF80003FFFFF80007FFF8000000000FFFF
310
F80000000007FFF800000000000000007FFFFFF0001FFFFFFFFFC000000001FF
310
FFFFFFC000000001FFFFFF000000000003FFC0000000007FF000FF0000000000
310
3FFFFFE00007FFFF00003FFFFF80007FFE00000000003FFFF00000000003FFF8
310
00000000000000007FFFFFF0001FFFFFFFFF8000000000FFFFFFFF8000000000
310
FFFFFF000000000003FF80000000003FF000FE00000000001FFFFFE00003FFFF
310
00003FFFFF80007FFC00000000001FFFE00000000001FFF8000001FFFE000000
310
7FFFFFF0001FFFFFFFFE00000000003FFFFFFE00000000003FFFFF0000000000
310
03FF00000000001FF000FC00000000000FFFFFE00003FFFF00001FFFFF80007F
310
F800000000001FFFC00000000000FFF8000001FFFE0000007FFFFFF0001FFFFF
310
FFFC00000000001FFFFFFC00000000001FFFFF000000000003FE00000000000F
310
F000F8000000000007FFFFE00003FFFF00001FFFFF80007FF800000000000FFF
310
800000000000FFF8000001FFFE0000007FFFFFF0001FFFFFFFF800000000000F
310
FFFFF800000000000FFFFF000000000003FC000000000007F000F80000000000
310
03FFFFC00003FFFE00001FFFFF80007FF0000000000007FF0000000000007FF8
310
000001FFFE0000007FFFFFF0001FFFFFFFF0000000000007FFFFF00000000000
310
07FFFF000000000003F8000000000003F000F0000000000003FFFFC00001FFFE
310
00001FFFFF80007FE0000000000007FE0000000000003FF8000001FFFE000000
310
7FFFFFF0001FFFFFFFF0000000000007FFFFF0000000000007FFFF0000000000
310
03F800001F800003F000E00001FFF00001FFFFC00001FFFE00000FFFFF80007F
310
E00001FFE00003FE00001FFF00003FF8000001FFFE0000007FFFFFF0001FFFFF
310
FFE000003E000003FFFFE000003E000003FFFF000000000003F00001FFF80001
310
F000E00007FFFC0001FFFFC00001FFFE00000FFFFF80007FC0000FFFFC0003FC
310
0000FFFFC0001FF8000001FFFE0000007FFFFFF0001FFFFFFFC00003FFE00001
310
FFFFC00003FFE00001FFFF0001FFFFFFFFF00007FFFE0001F000E0000FFFFF00
310
00FFFF800001FFFC00000FFFFF80007FC0001FFFFE0001FC0001FFFFE0001FF8
310
000001FFFE0000007FFFFFF0001FFFFFFF80000FFFF80000FFFF80000FFFF800
310
00FFFF0003FFFFFFFFE0000FFFFF8000F000C0003FFFFF8000FFFF800000FFFC
310
000007FFFF80007F80003FFFFF0001FC0003FFFFF0001FF8000001FFFE000000
310
7FFFFFF0001FFFFFFF80003FFFFE0000FFFF80003FFFFE0000FFFF0003FFFFFF
310
FFE0003FFFFF8000F000C0003FFFFF8000FFFF800000FFFC000007FFFF80007F
310
80007FFFFF8001F80007FFFFF8000FF8000001FFFE0000007FFFFFF0001FFFFF
310
FF00007FFFFF00007FFF00007FFFFF00007FFF0003FFFFFFFFE0003FFFFFC000
310
F000C0007FFFFFC000FFFF000000FFFC000007FFFF80007F8000FFFFFF8000F8
310
000FFFFFF8000FF8000001FFFE0000007FFFFFF0001FFFFFFF0000FFFFFF8000
310
7FFF0000FFFFFF80007FFF0003FFFFFFFFC0007FFFFFC00070008000FFFFFFC0
310
00FFFF000000FFF8000007FFFF80007F8000FFFFFF8000F8000FFFFFF8000FF8
310
000001FFFE0000007FFFFFF0001FFFFFFE0001FFFFFFC0003FFE0001FFFFFFC0
310
003FFF0003FFFFFFFFC0007FFFFFE00070008000FFFFFFC0007FFF0000007FF8
310
000003FFFF80007F0001FFFFFF8000F8000FFFFFF8000FF8000001FFFE000000
310
7FFFFFF0001FFFFFFE0001FFFFFFC0003FFE0001FFFFFFC0003FFF0003FFFFFF
310
FFC000FFFFFFE00070008000FFFFFFC0007FFF0000007FF8000003FFFF80007F
310
0001FFFFFF8000F8001FFFFFF8000FF8000001FFFE0000007FFFFFF0001FFFFF
310
FE0003FFFFFFE0003FFE0003FFFFFFE0003FFF0003FFFFFFFFC000FFFFFFE000
310
70008000FFFFFFC0007FFE0000007FF8000003FFFF80007F0001FFFFFF8000F0
310
001FFFFFF8000FF8000001FFFE0000007FFFFFF0001FFFFFFC0003FFFFFFE000
310
1FFC0003FFFFFFE0001FFF0003FFFFFFFFC000FFFFFFC00070008000FFFFFF80
310
007FFE0000007FF0000003FFFF80007F0001FFFFFF0000F0001FFFFFF8000FF8
310
000001FFFE0000007FFFFFF0001FFFFFFC0007FFFFFFF0001FFC0007FFFFFFF0
310
001FFF0003FFFFFFFFC000FFFFFFC00070008001FFFFFF0000FFFE0000003FF0
310
000001FFFF80007F0001FFFFFF0000F8001FFFFFF0000FF8000001FFFE000000
310
7FFFFFF0001FFFFFFC0007FFFFFFF0001FFC0007FFFFFFF0001FFF0003FFFFFF
310
FFC001FFFFFF80007000FFFFFFFFFE0000FFFE0008003FF0008001FFFF80007F
310
FFFFFFFFFC0000FFFFFFFFFFE0000FF8000001FFFE0000007FFFFFF0001FFFFF
310
F8000FFFFFFFF8000FF8000FFFFFFFF8000FFF0003FFFFFFFFFFFFFFFFFF0000
310
7000FFFFFFFFFC0000FFFC0008003FF0008001FFFF80007FFFFFFFFFF80001FF
310
FFFFFFFF80000FF8000001FFFE0000007FFFFFF0001FFFFFF8000FFFFFFFF800
310
0FF8000FFFFFFFF8000FFF0003FFFFFFFFFFFFFFFFFE0000F000FFFFFFFFE000
310
00FFFC000C003FE000C001FFFF80007FFFFFFFFFC00001FFFFFFFFFE00001FF8
310
000001FFFE0000007FFFFFF0001FFFFFF8000FFFFFFFF8000FF8000FFFFFFFF8
310
000FFF0003FFFFFFFFFFFFFFFFF00000F000FFFFFFFE000001FFFC000C001FE0
310
00C000FFFF80007FFFFFFFFE000001FFFFFFFFE000001FF80FFFFFFFFFFFFFC0
310
7FFFFFF0001FFFFFF8000FFFFFFFF8000FF8000FFFFFFFF8000FFF0003FFFFFF
310
FFFFFFFFFF800000F000FFFFFFC0000001FFFC001C001FE001C000FFFF80007F
310
FFFFFF80000003FFFFFFF80000001FF80FFFFFFFFFFFFFC07FFFFFF0001FFFFF
310
F8001FFFFFFFFC000FF8001FFFFFFFFC000FFF0003FFFFFFFFFFFFFFF0000001
310
F000FFFFF800000001FFF8001C001FE001C000FFFF80007FFFFFF800000003FF
310
FFFF800000003FF80FFFFFFFFFFFFFC07FFFFFF0001FFFFFF8001FFFFFFFFC00
310
0FF8001FFFFFFFFC000FFF0003FFFFFFFFFFFFFE00000001F000FFFFC0000000
310
03FFF8001E001FC001E000FFFF80007FFFFF8000000007FFFFFC000000003FF8
310
0FFFFFFFFFFFFFC07FFFFFF0001FFFFFF8001FFFFFFFFC000FF8001FFFFFFFFC
310
000FFF0003FFFFFFFFFFFFE000000003F000FFFE0000000007FFF8001E000FC0
310
01E0007FFF80007FFFFE0000000007FFFFE0000000007FF80FFFFFFFFFFFFFC0
310
7FFFFFF0001FFFFFF0001FFFFFFFFC0007F0001FFFFFFFFC0007FF0003FFFFFF
310
FFFFFF0000000003F000FFF80000000007FFF8001E000FC003E0007FFF80007F
310
FFF0000000000FFFFF8000000000FFF80FFFFFFFFFFFFFC07FFFFFF0001FFFFF
310
F0001FFFFFFFFC0007F0001FFFFFFFFC0007FF0003FFFFFFFFFFFC0000000007
310
F000FFE0000000000FFFF0003E000FC003E0007FFF80007FFFC0000000001FFF
310
FE0000000001FFF80FFFFFFFFFFFFFC07FFFFFF0001FFFFFF0001FFFFFFFFC00
310
07F0001FFFFFFFFC0007FF0003FFFFFFFFFFF0000000000FF000FFC000000000
310
1FFFF0003F000F8003F0003FFF80007FFF80000000003FFFF80000000003FFF8
310
0FFFFFFFFFFFFFC07FFFFFF0001FFFFFF0001FFFFFFFFC0007F0001FFFFFFFFC
310
0007FF0003FFFFFFFFFFE0000000001FF000FF00000000007FFFF0003F000780
310
03F0003FFF80007FFF00000000007FFFF00000000007FFF80FFFFFFFFFFFFFC0
310
7FFFFFF0001FFFFFF0001FFFFFFFFC0007F0001FFFFFFFFC0007FF0003FFFFFF
310
FFFF80000000007FF000FE0000000000FFFFE0003F00078007F0003FFF80007F
310
FE0000000001FFFFE0000000001FFFF80FFFFFFFFFFFFFC07FFFFFF0001FFFFF
310
F0001FFFFFFFFC0007F0001FFFFFFFFC0007FF0003FFFFFFFFFF0000000000FF
310
F000FC0000000003FFFFE0007F00078007F0003FFF80007FFC0000000007FFFF
310
C0000000007FFFF80FFFFFFFFFFFFFC07FFFFFF0001FFFFFF8001FFFFFFFFC00
310
0FF8001FFFFFFFFC000FFF0003FFFFFFFFFE0000000003FFF000FC000000000F
310
FFFFE0007F80070007F8001FFF80007FF8000000001FFFFF8000000001FFFFF8
310
0FFFFFFFFFFFFFC07FFFFFF0001FFFFFF8001FFFFFFFFC000FF8001FFFFFFFFC
310
000FFF0003FFFFFFFFFC000000000FFFF000F8000000007FFFFFE0007F800700
310
07F8001FFF80007FF000000000FFFFFF800000000FFFFFF80FFFFFFFFFFFFFC0
310
7FFFFFF0001FFFFFF8000FFFFFFFF8000FF8000FFFFFFFF8000FFF0003FFFFFF
310
FFFC000000007FFFF000F800000007FFFFFFC0007F8003000FF8001FFF80007F
310
F000000007FFFFFF000000007FFFFFF80FFFFFFFFFFFFFC07FFFFFF0001FFFFF
310
F8000FFFFFFFF8000FF8000FFFFFFFF8000FFF0003FFFFFFFFF80000000FFFFF
310
F000F0000000FFFFFFFFC000FF8003000FF8001FFF80007FE0000000FFFFFFFF
310
0000000FFFFFFFF8000001FFFE0000007FFFFFF0001FFFFFF8000FFFFFFFF800
310
0FF8000FFFFFFFF8000FFF0003FFFFFFFFF8000000FFFFFFF000F000000FFFFF
310
FFFFC000FFC002000FF8000FFF80007FE000001FFFFFFFFE000001FFFFFFFFF8
310
000001FFFE0000007FFFFFF0001FFFFFF8000FFFFFFFF8000FF8000FFFFFFFF8
310
000FFF0003FFFFFFFFF000001FFFFFFFF000E00000FFFFFFFFFFC000FFC00200
310
0FFC000FFF80007FE00001FFFFFFFFFE00001FFFFFFFFFF8000001FFFE000000
310
7FFFFFF0001FFFFFFC000FFFFFFFF8001FFC000FFFFFFFF8001FFF0003FFFFFF
310
FFF00001FFFFFFFFF000E00007FFFFFFFFFF8000FFC000001FFC000FFF80007F
310
C0000FFFFFFFFFFE0000FFFFFFFFFFF8000001FFFE0000007FFFFFF0001FFFFF
310
FC0007FFFFFFF0001FFC0007FFFFFFF0001FFF0003FFFFFFFFF00007FFFFFFFF
310
F000E0001FFFFFFFFFFF8000FFC000001FFC000FFF80007FC0003FFFFFFFFFFE
310
0001FFFFFFFFFFF8000001FFFE0000007FFFFFF0001FFFFFFC0007FFFFFFF000
310
1FFC0007FFFFFFF0001FFF0003FFFFFFFFF0001FFFFFFFFFF000E0003FFFFF00
310
03FF8001FFE000001FFC0007FF80007FC0007FFFFF0007FC0003FFFFF0003FF8
310
000001FFFE0000007FFFFFF0001FFFFFFC0003FFFFFFE0001FFC0003FFFFFFE0
310
001FFF0003FFFFFFFFF0003FFFFFFFFFF000E0003FFFFF0001FF8001FFE00000
310
1FFE0007FF80007FC0007FFFFE0003FC0007FFFFE0003FF8000001FFFE000000
310
7FFFFFF0001FFFFFFE0003FFFFFFE0003FFE0003FFFFFFE0003FFF0003FFFFFF
310
FFF0003FFFFF8001F000E0003FFFFF0001FF0001FFE000001FFE0007FF80007F
310
C0007FFFFE0003FC0007FFFFE0003FF8000001FFFE0000007FFFFFF0001FFFFF
310
FE0001FFFFFFC0003FFE0001FFFFFFC0003FFF0003FFFFFFFFF0003FFFFF0001
310
F000E0003FFFFF0003FF0001FFE000003FFE0007FF80007FC0007FFFFE0003FC
310
0007FFFFE0003FF8000001FFFE0000007FFFFFF0001FFFFFFF0001FFFFFFC000
310
7FFF0001FFFFFFC0007FFF0003FFFFFFFFF0003FFFFF0001F000E0003FFFFE00
310
03FF0003FFF000003FFE0003FF80007FC0007FFFFC0003FE0007FFFFE0003FF8
310
000001FFFE0000007FFFFFF0001FFFFFFF0000FFFFFF80007FFF0000FFFFFF80
310
007FFF0003FFFFFFFFF0003FFFFF0001F000E0003FFFFE0003FF0003FFF00000
310
3FFF0003FF80007FC0007FFFFC0007FE0007FFFFC0003FF8000001FFFE000000
310
7FFFFFF0001FFFFFFF80007FFFFF0000FFFF80007FFFFF0000FFFF0003FFFFFF
310
FFF0003FFFFF0003F000E0003FFFFC0003FE0003FFF000003FFF0003FF80007F
310
E0003FFFF80007FE0003FFFFC0007FF8000001FFFE0000007FFFFFF0001FFFFF
310
FF80003FFFFE0000FFFF80003FFFFE0000FFFF0003FFFFFFFFF0001FFFFE0003
310
F000F0001FFFF80003FE0003FFF000007FFF0001FF80007FE0003FFFF00007FE
310
0001FFFF80007FF8000001FFFE0000007FFFFFF0001FFFFFFFC0000FFFF80001
310
FFFFC0000FFFF80001FFFF0003FFFFFFFFF0001FFFFC0003F000F0000FFFF000
310
07FE0007FFF800007FFF0001FF80007FE0001FFFE00007FF0000FFFE00007FF8
310
000001FFFE0000007FFFFFF0001FFFFFFFC00003FFE00001FFFFC00003FFE000
310
01FFFF0003FFFFFFFFF8000FFFF80003F000F00003FFC00007FC0007FFF80000
310
7FFF8001FF80007FF00007FF80000FFF00007FF80000FFF8000001FFFE000000
310
7F80000000000001FFE000003E000003FFFFE000003E000003FFFF0003FFFFFF
310
FFF80003FFE00007F000F800000000000FFC0007FFF800007FFF8001FF80007F
310
F000000000000FFF000000000000FFF8000001FFFE0000007F80000000000001
310
FFF0000000000007FFFFF0000000000007FFFF0003FFFFFFFFFC00007E000007
310
F000F800000000000FFC0007FFF80000FFFF8000FF80007FF800000000001FFF
310
800000000001FFF8000001FFFE0000007F80000000000001FFF800000000000F
310
FFFFF800000000000FFFFF0003FFFFFFFFFC00000000000FF000FC0000000000
310
1FFC0007FFFC0000FFFF8000FF80007FF800000000003FFFC00000000001FFF8
310
000001FFFE0000007F80000000000001FFF800000000000FFFFFF80000000000
310
0FFFFF0003FFFFFFFFFE00000000001FF000FE00000000003FF8000FFFFC0000
310
FFFF8000FF80007FFC00000000003FFFC00000000003FFF8000001FFFE000000
310
7F80000000000001FFFC00000000001FFFFFFC00000000001FFFFF0003FFFFFF
310
FFFF00000000001FF000FF00000000003FF8000FFFFC0000FFFFC000FF80007F
310
FE00000000007FFFE00000000007FFF8000001FFFE0000007F80000000000001
310
FFFE00000000003FFFFFFE00000000003FFFFF0003FFFFFFFFFF80000000003F
310
F000FF80000000007FF8000FFFFC0001FFFFC0007F80007FFF0000000000FFFF
310
F0000000000FFFF800000000000000007F80000000000001FFFF8000000000FF
310
FFFFFF8000000000FFFFFF0003FFFFFFFFFFC0000000007FF000FFC000000000
310
FFF8000FFFFE0001FFFFC0007F80007FFF8000000001FFFFF8000000001FFFF8
310
00000000000000007F80000000000001FFFFC000000001FFFFFFFFC000000001
310
FFFFFF0003FFFFFFFFFFE000000000FFF000FFE000000003FFF0001FFFFE0001
310
FFFFC0007F80007FFFC000000007FFFFFE000000003FFFF80000000000000000
310
7F80000000000001FFFFE000000003FFFFFFFFE000000003FFFFFF0003FFFFFF
310
FFFFF000000003FFF000FFF80000000FFFF0001FFFFE0001FFFFE0007F80007F
310
FFF00000000FFFFFFF00000000FFFFF800000000000000007F80000000000001
310
FFFFF80000000FFFFFFFFFF80000000FFFFFFF0003FFFFFFFFFFFC0000000FFF
310
F000FFFE0000003FFFF0001FFFFE0003FFFFE0003F80007FFFFC0000003FFFFF
310
FFC0000003FFFFF800000000000000007F80000000000001FFFFFE0000003FFF
310
FFFFFFFE0000003FFFFFFF0003FFFFFFFFFFFF0000003FFFF000FFFF800000FF
310
FFF0001FFFFF0003FFFFE0003F80007FFFFF000001FFFFFFFFF800001FFFFFF8
310
00000000000000007F80000000000001FFFFFFC00001FFFFFFFFFFFFC00001FF
310
FFFFFF0003FFFFFFFFFFFFC00000FFFFF000FFFFF8000FFFFFFFFFFFFFFFFFFF
310
FFFFFFFFFFFFFFFFFFFFF0001FFFFFFFFFFF0000FFFFFFF80000000000000000
310
7FFFFFFFFFFFFFFFFFFFFFFC001FFFFFFFFFFFFFFC001FFFFFFFFFFFFFFFFFFF
310
FFFFFFFC001FFFFFF000FFFFFFFFFFFFFFFFFFFFFFFFFFFFFFFFFFFFFFFFFFFF
310
FFFFFFFFFFFFFFFFFFFFFFFFFFFFFFFFFFFFFFFFFFFFFFFFFFFFFFFFFFFFFFFF
310
FFFFFFFFFFFFFFFFFFFFFFFFFFFFFFFFFFFFFFFFFFFFFFFFFFFFFFFFFFFFFFFF
310
F000FFFFFFFFFFFFFFFFFFFFFFFFFFFFFFFFFFFFFFFFFFFFFFFFFFFFFFFFFFFF
310
FFFFFFFFFFFFFFFFFFFFFFFFFFFFFFFFFFFFFFFFFFFFFFFFFFFFFFFFFFFFFFFF
310
FFFFFFFFFFFFFFFFFFFFFFFFFFFFFFFFFFFFFFFFFFFFFFFFF000FFFFFFFFFFFF
310
FFFFFFFFFFFFFFFFFFFFFFFFFFFFFFFFFFFFFFFFFFFFFFFFFFFFFFFFFFFFFFFF
310
FFFFFFFFFFFFFFFFFFFFFFFFFFFFFFFFFFFFFFFFFFFFFFFFFFFFFFFFFFFFFFFF
310
FFFFFFFFFFFFFFFFFFFFFFFFFFFFFFFFF000FFFFFFFFFFFFFFFFFFFFFFFFFFFF
310
FFFFFFFFFFFFFFFFFFFFFFFFFFFFFFFFFFFFFFFFFFFFFFFFFFFFFFFFFFFFFFFF
310
FFFFFFFFFFFFFFFFFFFFFFFFFFFFFFFFFFFFFFFFFFFFFFFFFFFFFFFFFFFFFFFF
310
FFFFFFFFFFFFFFFFF000FFFFFFFFFFFFFFFFFFFFFFFFFFFFFFFFFFFFFFFFFFFF
310
FFFFFFFFFFFFFFFFFFFFFFFFFFFFFFFFFFFFFFFFFFFFFFFFFFFFFFFFFFFFFFFF
310
FFFFFFFFFFFFFFFFFFFFFFFFFFFFFFFFFFFFFFFFFFFFFFFFFFFFFFFFFFFFFFFF
310
F000FFFFFFFFFFFFFFFFFFFFFFFFFFFFFFFFFFFFFFFFFFFFFFFFFFFFFFFFFFFF
310
FFFFFFFFFFFFFFFFFFFFFFFFFFFFFFFFFFFFFFFFFFFFFFFFFFFFFFFFFFFFFFFF
310
FFFFFFFFFFFFFFFFFFFFFFFFFFFFFFFFFFFFFFFFFFFFFFFFF000FFFFFFFFFFFF
310
FFFFFFFFFFFFFFFFFFFFFFFFFFFFFFFFFFFFFFFFFFFFFFFFFFFFFFFFFFFFFFFF
310
FFFFFFFFFFFFFFFFFFFFFFFFFFFFFFFFFFFFFFFFFFFFFFFFFFFFFFFFFFFFFFFF
310
FFFFFFFFFFFFFFFFFFFFFFFFFFFFFFFFF000FFFFFFFFFFFFFFFFFFFFFFFFFFFF
310
FFFFFFFFFFFFFFFFFFFFFFFFFFFFFFFFFFFFFFFFFFFFFFFFFFFFFFFFFFFFFFFF
310
FFFFFFFFFFFFFFFFFFFFFFFFFFFFFFFFFFFFFFFFFFFFFFFFFFFFFFFFFFFFFFFF
310
FFFFFFFFFFFFFFFFF000FFFFFFFFFFFFFFFFFFFFFFFFFFFFFFFFFFFFFFFFFFFF
310
FFFFFFFFFFFFFFFFFFFFFFFFFFFFFFFFFFFFFFFFFFFFFFFFFFFFFFFFFFFFFFFF
310
FFFFFFFFFFFFFFFFFFFFFFFFFFFFFFFFFFFFFFFFFFFFFFFFFFFFFFFFFFFFFFFF
310
F000FFFFFFFFFFFFFFFFFFFFFFFFFFFFFFFFFFFFFFFFFFFFFFFFFFFFFFFFFFFF
310
FFFFFFFFFFFFFFFFFFFFFFFFFFFFFFFFFFFFFFFFFFFFFFFFFFFFFFFFFFFFFFFF
310
FFFFFFFFFFFFFFFFFFFFFFFFFFFFFFFFFFFFFFFFFFFFFFFFF000FFFFFFFFFFFF
310
FFFFFFFFFFFFFFFFFFFFFFFFFFFFFFFFFFFFFFFFFFFFFFFFFFFFFFFFFFFFFFFF
310
FFFFFFFFFFFFFFFFFFFFFFFFFFFFFFFFFFFFFFFFFFFFFFFFFFFFFFFFFFFFFFFF
310
FFFFFFFFFFFFFFFFFFFFFFFFFFFFFFFFF000FFFFFFFFFFFFFFFFFFFFFFFFFFFF
310
FFFFFFFFFFFFFFFFFFFFFFFFFFFFFFFFFFFFFFFFFFFFFFFFFFFFFFFFFFFFFFFF
310
FFFFFFFFFFFFFFFFFFFFFFFFFFFFFFFFFFFFFFFFFFFFFFFFFFFFFFFFFFFFFFFF
310
FFFFFFFFFFFFFFFFF000FFFFFFFFFFFFFFFFFFFFFFFFFFFFFFFFFFFFFFFFFFFF
310
FFFFFFFFFFFFFFFFFFFFFFFFFFFFFFFFFFFFFFFFFFFFFFFFFFFFFFFFFFFFFFFF
310
FFFFFFFFFFFFFFFFFFFFFFFFFFFFFFFFFFFFFFFFFFFFFFFFFFFFFFFFFFFFFFFF
310
F000FFFFFFFFFFFFFFFFFFFFFFFFFFFFFFFFFFFFFFFFFFFFFFFFFFFFFFFFFFFF
310
FFFFFFFFFFFFFFFFFFFFFFFFFFFFFFFFFFFFFFFFFFFFFFFFFFFFFFFFFFFFFFFF
310
FFFFFFFFFFFFFFFFFFFFFFFFFFFFFFFFFFFFFFFFFFFFFFFFF000FFFFFFFFFFFF
310
FFFFFFFFFFFFFFFFFFFFFFFFFFFFFFFFFFFFFFFFFFFFFFFFFFFFFFFFFFFFFFFF
310
FFFFFFFFFFFFFFFFFFFFFFFFFFFFFFFFFFFFFFFFFFFFFFFFFFFFFFFFFFFFFFFF
310
FFFFFFFFFFFFFFFFFFFFFFFFFFFFFFFFF000FFFFFFFFFFFFFFFFFFFFFFFFFFFF
310
FFFFFFFFFFFFFFFFFFFFFFFFFFFFFFFFFFFFFFFFFFFFFFFFFFFFFFFFFFFFFFFF
310
FFFFFFFFFFFFFFFFFFFFFFFFFFFFFFFFFFFFFFFFFFFFFFFFFFFFFFFFFFFFFFFF
310
FFFFFFFFFFFFFFFFF000FFFFFFFFFFFFFFFFFFFFFFFFFFFFFFFFFFFFFFFFFFFF
310
FFFFFFFFFFFFFFFFFFFFFFFFFFFFFFFFFFFFFFFFFFFFFFFFFFFFFFFFFFFFFFFF
310
FFFFFFFFFFFFFFFFFFFFFFFFFFFFFFFFFFFFFFFFFFFFFFFFFFFFFFFFFFFFFFFF
310
F000FFFFFFFFFFFFFFFFFFFFFFFFFFFFFFFFFFFFFFFFFFFFFFFFFFFFFFFFFFFF
310
FFFFFFFFFFFFFFFFFFFFFFFFFFFFFFFFFFFFFFFFFFFFFFFFFFFFFFFFFFFFFFFF
310
FFFFFFFFFFFFFFFFFFFFFFFFFFFFFFFFFFFFFFFFFFFFFFFFF000FFFFFFFFFFFF
310
FFFFFFFFFFFFFFFFFFFFFFFFFFFFFFFFFFFFFFFFFFFFFFFFFFFFFFFFFFFFFFFF
310
FFFFFFFFFFFFFFFFFFFFFFFFFFFFFFFFFFFFFFFFFFFFFFFFFFFFFFFFFFFFFFFF
310
FFFFFFFFFFFFFFFFFFFFFFFFFFFFFFFFF000FFFFFFFFFFFFFFFFFFFFFFFFFFFF
310
FFFFFFFFFFFFFFFFFFFFFFFFFFFFFFFFFFFFFFFFFFFFFFFFFFFFFFFFFFFFFFFF
310
FFFFFFFFFFFFFFFFFFFFFFFFFFFFFFFFFFFFFFFFFFFFFFFFFFFFFFFFFFFFFFFF
310
FFFFFFFFFFFFFFFFF000FFFFFFFFFFFFFFFFFFFFFFFFFFFFFFFFFFFFFFFFFFFF
310
FFFFFFFFFFFFFFFFFFFFFFFFFFFFFFFFFFFFFFFFFFFFFFFFFFFFFFFFFFFFFFFF
310
FFFFFFFFFFFFFFFFFFFFFFFFFFFFFFFFFFFFFFFFFFFFFFFFFFFFFFFFFFFFFFFF
310
F000FFFFFFFFFFFFFFFFFFFFFFFFFFFFFFFFFFFFFFFFFFFFFFFFFFFFFFFFFFFF
310
FFFFFFFFFFFFFFFFFFFFFFFFFFFFFFFFFFFFFFFFFFFFFFFFFFFFFFFFFFFFFFFF
310
FFFFFFFFFFFFFFFFFFFFFFFFFFFFFFFFFFFFFFFFFFFFFFFFF000FFFFFFFFFFFF
310
FFFFFFFFFFFFFFFFFFFFFFFFFFFFFFFFFFFFFFFFFFFFFFFFFFFFFFFFFFFFFFFF
310
FFFFFFFFFFFFFFFFFFFFFFFFFFFFFFFFFFFFFFFFFFFFFFFFFFFFFFFFFFFFFFFF
310
FFFFFFFFFFFFFFFFFFFFFFFFFFFFFFFFF0000000000000000000000000000000
310
0000000000000000000000000000000000000000000000000000000000000000
310
0000000000000000000000000000000000000000000000000000000000000000
310
0000000000000000000000000000000000000000000000000000000000000000
310
0000000000000000000000000000000000000000000000000000000000000000
310
0000000000000000000000000000000000000000000000000000000000000000
310
0000000000000000000000000000000000000000000000000000000000000000
310
0000000000000000000000000000000000000000000000000000000000000000
310
0000000000000000000000000000000000000000000000000000000000000000
310
0000000000000000000000000000000000000000000000000000000000000000
310
0000000000000000000000000000000000000000000000000000000000000000
310
0000000000000000000000000000000000000000000000000000000000000000
310
0000000000000000000000000000000000000000000000000000000000000000
310
0000000000000000000000000000000000000000000000000000000000000000
310
0000000000000000000000000000000000000000000000000000000000000000
310
0000000000000000000000000000000000000000000000000000000000000000
  1
OLE
  0
ENDSEC
  0
SECTION
  2
OBJECTS
  0
DICTIONARY
  5
C
330
0
100
AcDbDictionary
281
     1
  3
ACAD_GROUP
350
D
  3
ACAD_LAYOUT
350
1A
  3
ACAD_MLINESTYLE
350
17
  3
ACAD_PLOTSETTINGS
350
19
  3
ACAD_PLOTSTYLENAME
350
E
  3
ACAD_SCALELIST
350
47
  0
DICTIONARY
  5
D
102
{ACAD_REACTORS
330
C
102
}
330
C
100
AcDbDictionary
281
     1
  0
DICTIONARY
  5
1A
102
{ACAD_REACTORS
330
C
102
}
330
C
100
AcDbDictionary
281
     1
  3
Layout1
350
1E
  3
Layout2
350
26
  3
Model
350
22
  0
DICTIONARY
  5
17
102
{ACAD_REACTORS
330
C
102
}
330
C
100
AcDbDictionary
281
     1
  3
Standard
350
18
  0
DICTIONARY
  5
19
102
{ACAD_REACTORS
330
C
102
}
330
C
100
AcDbDictionary
281
     1
  0
ACDBDICTIONARYWDFLT
  5
E
102
{ACAD_REACTORS
330
C
102
}
330
C
100
AcDbDictionary
281
     1
  3
Normal
350
F
100
AcDbDictionaryWithDefault
340
F
  0
DICTIONARY
  5
47
102
{ACAD_REACTORS
330
C
102
}
330
C
100
AcDbDictionary
281
     1
  3
A0
350
48
  3
A1
350
49
  3
A2
350
4A
  3
A3
350
4B
  3
A4
350
4C
  3
A5
350
4D
  3
A6
350
4E
  3
A7
350
4F
  3
A8
350
50
  3
A9
350
51
  3
B0
350
52
  3
B1
350
53
  3
B2
350
54
  3
B3
350
55
  3
B4
350
56
  3
B5
350
57
  3
B6
350
58
  3
B7
350
59
  3
B8
350
5A
  3
B9
350
5B
  3
C0
350
5C
  3
C1
350
5D
  3
C2
350
5E
  3
C3
350
5F
  3
C4
350
60
  3
C5
350
61
  3
C6
350
62
  3
C7
350
63
  3
C8
350
64
  3
C9
350
65
  3
D0
350
66
  3
D1
350
67
  3
D2
350
68
  0
LAYOUT
  5
1E
102
{ACAD_REACTORS
330
1A
102
}
330
1A
100
AcDbPlotSettings
  1

  2
none_device
  4

  6

 40
0.0
 41
0.0
 42
0.0
 43
0.0
 44
0.0
 45
0.0
 46
0.0
 47
0.0
 48
0.0
 49
0.0
140
0.0
141
0.0
142
1.0
143
1.0
 70
   688
 72
     1
 73
     0
 74
     5
  7

 75
    16
147
1.0
148
0.0
149
0.0
100
AcDbLayout
  1
Layout1
 70
     1
 71
     1
 10
0.0
 20
0.0
 11
420.0
 21
297.0
 12
0.0
 22
0.0
 32
0.0
 14
1.0000000000E+20
 24
1.0000000000E+20
 34
1.0000000000E+20
 15
-1.0000000000E+20
 25
-1.0000000000E+20
 35
-1.0000000000E+20
146
0.0
 13
0.0
 23
0.0
 33
0.0
 16
1.0
 26
0.0
 36
0.0
 17
0.0
 27
1.0
 37
0.0
 76
     0
330
1B
  0
LAYOUT
  5
26
102
{ACAD_REACTORS
330
1A
102
}
330
1A
100
AcDbPlotSettings
  1

  2
none_device
  4

  6

 40
0.0
 41
0.0
 42
0.0
 43
0.0
 44
0.0
 45
0.0
 46
0.0
 47
0.0
 48
0.0
 49
0.0
140
0.0
141
0.0
142
1.0
143
1.0
 70
   688
 72
     1
 73
     0
 74
     5
  7

 75
    16
147
1.0
148
0.0
149
0.0
100
AcDbLayout
  1
Layout2
 70
     1
 71
     2
 10
0.0
 20
0.0
 11
0.0
 21
0.0
 12
0.0
 22
0.0
 32
0.0
 14
0.0
 24
0.0
 34
0.0
 15
0.0
 25
0.0
 35
0.0
146
0.0
 13
0.0
 23
0.0
 33
0.0
 16
1.0
 26
0.0
 36
0.0
 17
0.0
 27
1.0
 37
0.0
 76
     0
330
23
  0
LAYOUT
  5
22
102
{ACAD_REACTORS
330
1A
102
}
330
1A
100
AcDbPlotSettings
  1

  2
none_device
  4
Letter_(8.50_x_11.00_Inches)
  6

 40
6.35
 41
6.35
 42
6.35000508
 43
6.35000508
 44
215.9
 45
279.4
 46
0.0
 47
0.0
 48
0.0
 49
0.0
140
0.0
141
0.0
142
1.0
143
1.0
 70
  1712
 72
     1
 73
     0
 74
     0
  7

 75
     0
147
1.0
148
0.0
149
0.0
100
AcDbLayout
  1
Model
 70
     1
 71
     0
 10
0.0
 20
0.0
 11
297.0
 21
210.0
 12
0.0
 22
0.0
 32
0.0
 14
0.0
 24
0.0
 34
0.0
 15
297.0
 25
210.0
 35
0.0
146
0.0
 13
0.0
 23
0.0
 33
0.0
 16
1.0
 26
0.0
 36
0.0
 17
0.0
 27
1.0
 37
0.0
 76
     0
330
1F
331
29
  0
MLINESTYLE
  5
18
102
{ACAD_REACTORS
330
17
102
}
330
17
100
AcDbMlineStyle
  2
Standard
 70
     0
  3

 62
   256
 51
90.0
 52
90.0
 71
     2
 49
0.5
 62
   256
  6
BYLAYER
 49
-0.5
 62
   256
  6
BYLAYER
  0
ACDBPLACEHOLDER
  5
F
102
{ACAD_REACTORS
330
E
102
}
330
E
  0
SCALE
  5
48
102
{ACAD_REACTORS
330
47
102
}
330
47
100
AcDbScale
 70
     0
300
1:1
140
1.0
141
1.0
290
     1
  0
SCALE
  5
49
102
{ACAD_REACTORS
330
47
102
}
330
47
100
AcDbScale
 70
     0
300
1:2
140
1.0
141
2.0
290
     0
  0
SCALE
  5
4A
102
{ACAD_REACTORS
330
47
102
}
330
47
100
AcDbScale
 70
     0
300
1:4
140
1.0
141
4.0
290
     0
  0
SCALE
  5
4B
102
{ACAD_REACTORS
330
47
102
}
330
47
100
AcDbScale
 70
     0
300
1:5
140
1.0
141
5.0
290
     0
  0
SCALE
  5
4C
102
{ACAD_REACTORS
330
47
102
}
330
47
100
AcDbScale
 70
     0
300
1:8
140
1.0
141
8.0
290
     0
  0
SCALE
  5
4D
102
{ACAD_REACTORS
330
47
102
}
330
47
100
AcDbScale
 70
     0
300
1:10
140
1.0
141
10.0
290
     0
  0
SCALE
  5
4E
102
{ACAD_REACTORS
330
47
102
}
330
47
100
AcDbScale
 70
     0
300
1:16
140
1.0
141
16.0
290
     0
  0
SCALE
  5
4F
102
{ACAD_REACTORS
330
47
102
}
330
47
100
AcDbScale
 70
     0
300
1:20
140
1.0
141
20.0
290
     0
  0
SCALE
  5
50
102
{ACAD_REACTORS
330
47
102
}
330
47
100
AcDbScale
 70
     0
300
1:30
140
1.0
141
30.0
290
     0
  0
SCALE
  5
51
102
{ACAD_REACTORS
330
47
102
}
330
47
100
AcDbScale
 70
     0
300
1:40
140
1.0
141
40.0
290
     0
  0
SCALE
  5
52
102
{ACAD_REACTORS
330
47
102
}
330
47
100
AcDbScale
 70
     0
300
1:50
140
1.0
141
50.0
290
     0
  0
SCALE
  5
53
102
{ACAD_REACTORS
330
47
102
}
330
47
100
AcDbScale
 70
     0
300
1:100
140
1.0
141
100.0
290
     0
  0
SCALE
  5
54
102
{ACAD_REACTORS
330
47
102
}
330
47
100
AcDbScale
 70
     0
300
2:1
140
2.0
141
1.0
290
     0
  0
SCALE
  5
55
102
{ACAD_REACTORS
330
47
102
}
330
47
100
AcDbScale
 70
     0
300
4:1
140
4.0
141
1.0
290
     0
  0
SCALE
  5
56
102
{ACAD_REACTORS
330
47
102
}
330
47
100
AcDbScale
 70
     0
300
8:1
140
8.0
141
1.0
290
     0
  0
SCALE
  5
57
102
{ACAD_REACTORS
330
47
102
}
330
47
100
AcDbScale
 70
     0
300
10:1
140
10.0
141
1.0
290
     0
  0
SCALE
  5
58
102
{ACAD_REACTORS
330
47
102
}
330
47
100
AcDbScale
 70
     0
300
100:1
140
100.0
141
1.0
290
     0
  0
SCALE
  5
59
102
{ACAD_REACTORS
330
47
102
}
330
47
100
AcDbScale
 70
     0
300
1/128" = 1'-0"
140
0.0078125
141
12.0
290
     0
  0
SCALE
  5
5A
102
{ACAD_REACTORS
330
47
102
}
330
47
100
AcDbScale
 70
     0
300
1/64" = 1'-0"
140
0.015625
141
12.0
290
     0
  0
SCALE
  5
5B
102
{ACAD_REACTORS
330
47
102
}
330
47
100
AcDbScale
 70
     0
300
1/32" = 1'-0"
140
0.03125
141
12.0
290
     0
  0
SCALE
  5
5C
102
{ACAD_REACTORS
330
47
102
}
330
47
100
AcDbScale
 70
     0
300
1/16" = 1'-0"
140
0.0625
141
12.0
290
     0
  0
SCALE
  5
5D
102
{ACAD_REACTORS
330
47
102
}
330
47
100
AcDbScale
 70
     0
300
3/32" = 1'-0"
140
0.09375
141
12.0
290
     0
  0
SCALE
  5
5E
102
{ACAD_REACTORS
330
47
102
}
330
47
100
AcDbScale
 70
     0
300
1/8" = 1'-0"
140
0.125
141
12.0
290
     0
  0
SCALE
  5
5F
102
{ACAD_REACTORS
330
47
102
}
330
47
100
AcDbScale
 70
     0
300
3/16" = 1'-0"
140
0.1875
141
12.0
290
     0
  0
SCALE
  5
60
102
{ACAD_REACTORS
330
47
102
}
330
47
100
AcDbScale
 70
     0
300
1/4" = 1'-0"
140
0.25
141
12.0
290
     0
  0
SCALE
  5
61
102
{ACAD_REACTORS
330
47
102
}
330
47
100
AcDbScale
 70
     0
300
3/8" = 1'-0"
140
0.375
141
12.0
290
     0
  0
SCALE
  5
62
102
{ACAD_REACTORS
330
47
102
}
330
47
100
AcDbScale
 70
     0
300
1/2" = 1'-0"
140
0.5
141
12.0
290
     0
  0
SCALE
  5
63
102
{ACAD_REACTORS
330
47
102
}
330
47
100
AcDbScale
 70
     0
300
3/4" = 1'-0"
140
0.75
141
12.0
290
     0
  0
SCALE
  5
64
102
{ACAD_REACTORS
330
47
102
}
330
47
100
AcDbScale
 70
     0
300
1" = 1'-0"
140
1.0
141
12.0
290
     0
  0
SCALE
  5
65
102
{ACAD_REACTORS
330
47
102
}
330
47
100
AcDbScale
 70
     0
300
1-1/2" = 1'-0"
140
1.5
141
12.0
290
     0
  0
SCALE
  5
66
102
{ACAD_REACTORS
330
47
102
}
330
47
100
AcDbScale
 70
     0
300
3" = 1'-0"
140
3.0
141
12.0
290
     0
  0
SCALE
  5
67
102
{ACAD_REACTORS
330
47
102
}
330
47
100
AcDbScale
 70
     0
300
6" = 1'-0"
140
6.0
141
12.0
290
     0
  0
SCALE
  5
68
102
{ACAD_REACTORS
330
47
102
}
330
47
100
AcDbScale
 70
     0
300
1'-0" = 1'-0"
140
12.0
141
12.0
290
     0
  0
ENDSEC
  0
EOF
