  0
SECTION
  2
HEADER
  9
$ACADVER
  1
AC1015
  9
$ACADMAINTVER
 70
     6
  9
$DWGCODEPAGE
  3
ANSI_1252
  9
$INSBASE
 10
0.0
 20
0.0
 30
0.0
  9
$EXTMIN
 10
0.0
 20
0.0
 30
0.0
  9
$EXTMAX
 10
297.0
 20
210.0
 30
0.0
  9
$LIMMIN
 10
0.0
 20
0.0
  9
$LIMMAX
 10
297.0
 20
210.0
  9
$ORTHOMODE
 70
     0
  9
$REGENMODE
 70
     1
  9
$FILLMODE
 70
     1
  9
$QTEXTMODE
 70
     0
  9
$MIRRTEXT
 70
     1
  9
$LTSCALE
 40
1.0
  9
$ATTMODE
 70
     1
  9
$TEXTSIZE
 40
2.0
  9
$TRACEWID
 40
1.0
  9
$TEXTSTYLE
  7
Standard
  9
$CLAYER
  8
0
  9
$CELTYPE
  6
ByLayer
  9
$CECOLOR
 62
   256
  9
$CELTSCALE
 40
1.0
  9
$DISPSILH
 70
     0
  9
$DIMSCALE
 40
1.0
  9
$DIMASZ
 40
3.0
  9
$DIMEXO
 40
0.0
  9
$DIMDLI
 40
3.75
  9
$DIMRND
 40
0.0
  9
$DIMDLE
 40
0.0
  9
$DIMEXE
 40
1.0
  9
$DIMTP
 40
0.0
  9
$DIMTM
 40
0.0
  9
$DIMTXT
 40
2.0
  9
$DIMCEN
 40
2.5
  9
$DIMTSZ
 40
0.0
  9
$DIMTOL
 70
     0
  9
$DIMLIM
 70
     0
  9
$DIMTIH
 70
     1
  9
$DIMTOH
 70
     1
  9
$DIMSE1
 70
     0
  9
$DIMSE2
 70
     0
  9
$DIMTAD
 70
     1
  9
$DIMZIN
 70
     0
  9
$DIMBLK
  1

  9
$DIMASO
 70
     1
  9
$DIMSHO
 70
     1
  9
$DIMPOST
  1

  9
$DIMAPOST
  1

  9
$DIMALT
 70
     0
  9
$DIMALTD
 70
     3
  9
$DIMALTF
 40
0.0393700787
  9
$DIMLFAC
 40
1.0
  9
$DIMTOFL
 70
     1
  9
$DIMTVP
 40
0.0
  9
$DIMTIX
 70
     0
  9
$DIMSOXD
 70
     0
  9
$DIMSAH
 70
     0
  9
$DIMBLK1
  1

  9
$DIMBLK2
  1

  9
$DIMSTYLE
  2
ISO-25
  9
$DIMCLRD
 70
     0
  9
$DIMCLRE
 70
     0
  9
$DIMCLRT
 70
     0
  9
$DIMTFAC
 40
1.0
  9
$DIMGAP
 40
1.524
  9
$DIMJUST
 70
     0
  9
$DIMSD1
 70
     0
  9
$DIMSD2
 70
     0
  9
$DIMTOLJ
 70
     0
  9
$DIMTZIN
 70
     0
  9
$DIMALTZ
 70
     0
  9
$DIMALTTZ
 70
     0
  9
$DIMUPT
 70
     0
  9
$DIMDEC
 70
     2
  9
$DIMTDEC
 70
     3
  9
$DIMALTU
 70
     2
  9
$DIMALTTD
 70
     3
  9
$DIMTXSTY
  7
Standard
  9
$DIMAUNIT
 70
     0
  9
$DIMADEC
 70
     2
  9
$DIMALTRND
 40
0.0
  9
$DIMAZIN
 70
     0
  9
$DIMDSEP
 70
    44
  9
$DIMATFIT
 70
     3
  9
$DIMFRAC
 70
     0
  9
$DIMLDRBLK
  1

  9
$DIMLUNIT
 70
     2
  9
$DIMLWD
 70
    -2
  9
$DIMLWE
 70
    -2
  9
$DIMTMOVE
 70
     0
  9
$LUNITS
 70
     2
  9
$LUPREC
 70
     2
  9
$SKETCHINC
 40
1.0
  9
$FILLETRAD
 40
10.0
  9
$AUNITS
 70
     0
  9
$AUPREC
 70
     2
  9
$MENU
  1
.
  9
$ELEVATION
 40
0.0
  9
$PELEVATION
 40
0.0
  9
$THICKNESS
 40
0.0
  9
$LIMCHECK
 70
     0
  9
$CHAMFERA
 40
0.0
  9
$CHAMFERB
 40
0.0
  9
$CHAMFERC
 40
0.0
  9
$CHAMFERD
 40
0.0
  9
$SKPOLY
 70
     0
  9
$TDCREATE
 40
2457627.621339595
  9
$TDUCREATE
 40
2457627.538006261
  9
$TDUPDATE
 40
2457627.621340914
  9
$TDUUPDATE
 40
2457627.538007581
  9
$TDINDWG
 40
0.0000000116
  9
$TDUSRTIMER
 40
0.0000000116
  9
$USRTIMER
 70
     1
  9
$ANGBASE
 50
0.0
  9
$ANGDIR
 70
     0
  9
$PDMODE
 70
     0
  9
$PDSIZE
 40
-1.0
  9
$PLINEWID
 40
0.0
  9
$SPLFRAME
 70
     0
  9
$SPLINETYPE
 70
     6
  9
$SPLINESEGS
 70
     8
  9
$HANDSEED
  5
273
  9
$SURFTAB1
 70
     6
  9
$SURFTAB2
 70
     6
  9
$SURFTYPE
 70
     6
  9
$SURFU
 70
     6
  9
$SURFV
 70
     6
  9
$UCSBASE
  2

  9
$UCSNAME
  2

  9
$UCSORG
 10
0.0
 20
0.0
 30
0.0
  9
$UCSXDIR
 10
1.0
 20
0.0
 30
0.0
  9
$UCSYDIR
 10
0.0
 20
1.0
 30
0.0
  9
$UCSORTHOREF
  2

  9
$UCSORTHOVIEW
 70
     0
  9
$UCSORGTOP
 10
0.0
 20
0.0
 30
0.0
  9
$UCSORGBOTTOM
 10
0.0
 20
0.0
 30
0.0
  9
$UCSORGLEFT
 10
0.0
 20
0.0
 30
0.0
  9
$UCSORGRIGHT
 10
0.0
 20
0.0
 30
0.0
  9
$UCSORGFRONT
 10
0.0
 20
0.0
 30
0.0
  9
$UCSORGBACK
 10
0.0
 20
0.0
 30
0.0
  9
$PUCSBASE
  2

  9
$PUCSNAME
  2

  9
$PUCSORG
 10
0.0
 20
0.0
 30
0.0
  9
$PUCSXDIR
 10
1.0
 20
0.0
 30
0.0
  9
$PUCSYDIR
 10
0.0
 20
1.0
 30
0.0
  9
$PUCSORTHOREF
  2

  9
$PUCSORTHOVIEW
 70
     0
  9
$PUCSORGTOP
 10
0.0
 20
0.0
 30
0.0
  9
$PUCSORGBOTTOM
 10
0.0
 20
0.0
 30
0.0
  9
$PUCSORGLEFT
 10
0.0
 20
0.0
 30
0.0
  9
$PUCSORGRIGHT
 10
0.0
 20
0.0
 30
0.0
  9
$PUCSORGFRONT
 10
0.0
 20
0.0
 30
0.0
  9
$PUCSORGBACK
 10
0.0
 20
0.0
 30
0.0
  9
$USERI1
 70
     0
  9
$USERI2
 70
     0
  9
$USERI3
 70
     0
  9
$USERI4
 70
     0
  9
$USERI5
 70
     0
  9
$USERR1
 40
0.0
  9
$USERR2
 40
0.0
  9
$USERR3
 40
0.0
  9
$USERR4
 40
0.0
  9
$USERR5
 40
0.0
  9
$WORLDVIEW
 70
     1
  9
$SHADEDGE
 70
     3
  9
$SHADEDIF
 70
    70
  9
$TILEMODE
 70
     1
  9
$MAXACTVP
 70
    64
  9
$PINSBASE
 10
0.0
 20
0.0
 30
0.0
  9
$PLIMCHECK
 70
     0
  9
$PEXTMIN
 10
1.0000000000E+20
 20
1.0000000000E+20
 30
1.0000000000E+20
  9
$PEXTMAX
 10
-1.0000000000E+20
 20
-1.0000000000E+20
 30
-1.0000000000E+20
  9
$PLIMMIN
 10
0.0
 20
0.0
  9
$PLIMMAX
 10
420.0
 20
297.0
  9
$UNITMODE
 70
     0
  9
$VISRETAIN
 70
     1
  9
$PLINEGEN
 70
     0
  9
$PSLTSCALE
 70
     1
  9
$TREEDEPTH
 70
  3020
  9
$CMLSTYLE
  2
Standard
  9
$CMLJUST
 70
     0
  9
$CMLSCALE
 40
20.0
  9
$PROXYGRAPHICS
 70
     1
  9
$MEASUREMENT
 70
     1
  9
$CELWEIGHT
370
    -1
  9
$ENDCAPS
280
     0
  9
$JOINSTYLE
280
     0
  9
$LWDISPLAY
290
     1
  9
$INSUNITS
 70
     4
  9
$HYPERLINKBASE
  1

  9
$STYLESHEET
  1

  9
$XEDIT
290
     1
  9
$CEPSNTYPE
380
     0
  9
$PSTYLEMODE
290
     1
  9
$FINGERPRINTGUID
  2
{874B74DB-EC2C-4627-B34E-6B76ED49F815}
  9
$VERSIONGUID
  2
{FAEB1C32-E019-11D5-929B-00C0DF256EC4}
  9
$EXTNAMES
290
     1
  9
$PSVPSCALE
 40
0.0
  9
$OLESTARTUP
290
     0
  0
ENDSEC
  0
SECTION
  2
CLASSES
  0
CLASS
  1
ACDBDICTIONARYWDFLT
  2
AcDbDictionaryWithDefault
  3
ObjectDBX Classes
 90
        0
280
     0
281
     0
  0
CLASS
  1
VISUALSTYLE
  2
AcDbVisualStyle
  3
ObjectDBX Classes
 90
     4095
280
     0
281
     0
  0
CLASS
  1
MATERIAL
  2
AcDbMaterial
  3
ObjectDBX Classes
 90
     1153
280
     0
281
     0
  0
CLASS
  1
SCALE
  2
AcDbScale
  3
ObjectDBX Classes
 90
     1153
280
     0
281
     0
  0
CLASS
  1
TABLESTYLE
  2
AcDbTableStyle
  3
ObjectDBX Classes
 90
     4095
280
     0
281
     0
  0
CLASS
  1
MLEADERSTYLE
  2
AcDbMLeaderStyle
  3
ACDB_MLEADERSTYLE_CLASS
 90
     4095
280
     0
281
     0
  0
CLASS
  1
SUN
  2
AcDbSun
  3
SCENEOE
 90
     1153
280
     0
281
     0
  0
CLASS
  1
ACDBPLACEHOLDER
  2
AcDbPlaceHolder
  3
ObjectDBX Classes
 90
        0
280
     0
281
     0
  0
CLASS
  1
LAYOUT
  2
AcDbLayout
  3
ObjectDBX Classes
 90
        0
280
     0
281
     0
  0
ENDSEC
  0
SECTION
  2
TABLES
  0
TABLE
  2
VPORT
  5
8
330
0
100
AcDbSymbolTable
 70
     1
  0
VPORT
  5
29
330
8
100
AcDbSymbolTableRecord
100
AcDbViewportTableRecord
  2
*Active
 70
     0
 10
0.0
 20
0.0
 11
1.0
 21
1.0
 12
148.5
 22
105.0
 13
0.0
 23
0.0
 14
10.0
 24
10.0
 15
10.0
 25
10.0
 16
0.0
 26
0.0
 36
1.0
 17
0.0
 27
0.0
 37
0.0
 40
210.0
 41
1.4142857143
 42
50.0
 43
0.0
 44
0.0
 50
0.0
 51
0.0
 71
     0
 72
  2000
 73
     1
 74
     3
 75
     0
 76
     0
 77
     0
 78
     0
281
     0
 65
     1
110
0.0
120
0.0
130
0.0
111
1.0
121
0.0
131
0.0
112
0.0
122
1.0
132
0.0
 79
     0
146
0.0
  0
ENDTAB
  0
TABLE
  2
LTYPE
  5
5
330
0
100
AcDbSymbolTable
 70
     6
  0
LTYPE
  5
14
330
5
100
AcDbSymbolTableRecord
100
AcDbLinetypeTableRecord
  2
ByBlock
 70
     0
  3

 72
    65
 73
     0
 40
0.0
  0
LTYPE
  5
15
330
5
100
AcDbSymbolTableRecord
100
AcDbLinetypeTableRecord
  2
ByLayer
 70
     0
  3

 72
    65
 73
     0
 40
0.0
  0
LTYPE
  5
16
330
5
100
AcDbSymbolTableRecord
100
AcDbLinetypeTableRecord
  2
Continuous
 70
     0
  3
Solid line
 72
    65
 73
     0
 40
0.0
  0
LTYPE
  5
6E
330
5
100
AcDbSymbolTableRecord
100
AcDbLinetypeTableRecord
  2
HIDDEN
 70
     0
  3
Hidden __ __ __ __ __ __ __ __ __ __ __ __ __ __
 72
    65
 73
     2
 40
1.905
 49
1.27
 74
     0
 49
-0.635
 74
     0
  0
LTYPE
  5
6F
330
5
100
AcDbSymbolTableRecord
100
AcDbLinetypeTableRecord
  2
PHANTOM
 70
     0
  3
Phantom ______  __  __  ______  __  __  ______
 72
    65
 73
     6
 40
12.7
 49
6.35
 74
     0
 49
-1.27
 74
     0
 49
1.27
 74
     0
 49
-1.27
 74
     0
 49
1.27
 74
     0
 49
-1.27
 74
     0
  0
LTYPE
  5
70
330
5
100
AcDbSymbolTableRecord
100
AcDbLinetypeTableRecord
  2
CENTER
 70
     0
  3
Center ____ _ ____ _ ____ _ ____ _ ____ _ ____
 72
    65
 73
     4
 40
10.16
 49
6.35
 74
     0
 49
-1.27
 74
     0
 49
1.27
 74
     0
 49
-1.27
 74
     0
  0
LTYPE
  5
71
330
5
100
AcDbSymbolTableRecord
100
AcDbLinetypeTableRecord
  2
CENTERX2
 70
     0
  3
Center (2x) ________  __  ________  __  _____
 72
    65
 73
     4
 40
20.32
 49
12.7
 74
     0
 49
-2.54
 74
     0
 49
2.54
 74
     0
 49
-2.54
 74
     0
  0
LTYPE
  5
72
330
5
100
AcDbSymbolTableRecord
100
AcDbLinetypeTableRecord
  2
DOT2
 70
     0
  3
Dot (.5x) ........................................
 72
    65
 73
     2
 40
0.635
 49
0.0
 74
     0
 49
-0.635
 74
     0
  0
ENDTAB
  0
TABLE
  2
LAYER
  5
2
330
0
100
AcDbSymbolTable
 70
     5
  0
LAYER
  5
10
330
2
100
AcDbSymbolTableRecord
100
AcDbLayerTableRecord
  2
0
 70
     0
 62
     7
  6
Continuous
370
    -3
390
F
  0
LAYER
  5
73
330
2
100
AcDbSymbolTableRecord
100
AcDbLayerTableRecord
  2
FORMAT
 70
     0
 62
     7
  6
Continuous
370
    -3
390
F
  0
LAYER
  5
74
330
2
100
AcDbSymbolTableRecord
100
AcDbLayerTableRecord
  2
VERMASSUNG
 70
     0
 62
     7
  6
Continuous
370
    -3
390
F
  0
LAYER
  5
75
330
2
100
AcDbSymbolTableRecord
100
AcDbLayerTableRecord
  2
KOPF_DÜNN
 70
     0
 62
     7
  6
Continuous
370
    -3
390
F
  0
LAYER
  5
76
330
2
100
AcDbSymbolTableRecord
100
AcDbLayerTableRecord
  2
KOPF_DICK
 70
     0
 62
     7
  6
Continuous
370
    15
390
F
  0
ENDTAB
  0
TABLE
  2
STYLE
  5
3
330
0
100
AcDbSymbolTable
 70
     2
  0
STYLE
  5
11
330
3
100
AcDbSymbolTableRecord
100
AcDbTextStyleTableRecord
  2
Standard
 70
     0
 40
0.0
 41
1.0
 50
0.0
 71
     0
 42
2.0
  3
txt
  4

  0
STYLE
  5
77
330
3
100
AcDbSymbolTableRecord
100
AcDbTextStyleTableRecord
  2
SLDTEXTSTYLE0
 70
     0
 40
0.0
 41
0.7
 50
0.0
 71
     0
 42
2.0
  3
TXT
  4

  0
ENDTAB
  0
TABLE
  2
VIEW
  5
6
330
0
100
AcDbSymbolTable
 70
     0
  0
ENDTAB
  0
TABLE
  2
UCS
  5
7
330
0
100
AcDbSymbolTable
 70
     0
  0
ENDTAB
  0
TABLE
  2
APPID
  5
9
330
0
100
AcDbSymbolTable
 70
     1
  0
APPID
  5
12
330
9
100
AcDbSymbolTableRecord
100
AcDbRegAppTableRecord
  2
ACAD
 70
     0
  0
ENDTAB
  0
TABLE
  2
DIMSTYLE
  5
A
330
0
100
AcDbSymbolTable
 70
     2
100
AcDbDimStyleTable
  0
DIMSTYLE
105
27
330
A
100
AcDbSymbolTableRecord
100
AcDbDimStyleTableRecord
  2
ISO-25
 70
     0
 41
2.5
 42
0.625
 43
3.75
 44
1.25
 73
     0
 74
     0
 77
     1
 78
     8
140
2.5
141
2.5
143
0.0393700787
147
0.625
171
     3
172
     1
178
     0
271
     2
272
     2
274
     3
278
    44
283
     0
284
     8
340
11
  0
DIMSTYLE
105
17B
102
{ACAD_REACTORS
330
17A
330
187
330
193
330
19D
330
1A7
102
}
330
A
100
AcDbSymbolTableRecord
100
AcDbDimStyleTableRecord
  2
SLDDIMSTYLE0
 70
     0
 41
3.0
 44
0.0
 45
0.000000001
 73
     0
 74
     0
 77
     1
 78
    12
 79
     3
140
2.0
147
0.5
173
     1
178
     0
271
     2
272
     3
276
     2
284
    12
340
77
  0
ENDTAB
  0
TABLE
  2
BLOCK_RECORD
  5
1
330
0
100
AcDbSymbolTable
 70
     6
  0
BLOCK_RECORD
  5
1F
330
1
100
AcDbSymbolTableRecord
100
AcDbBlockTableRecord
  2
*Model_Space
340
22
  0
BLOCK_RECORD
  5
1B
330
1
100
AcDbSymbolTableRecord
100
AcDbBlockTableRecord
  2
*Paper_Space
340
1E
  0
BLOCK_RECORD
  5
23
330
1
100
AcDbSymbolTableRecord
100
AcDbBlockTableRecord
  2
*Paper_Space0
340
26
  0
BLOCK_RECORD
  5
17C
330
1
100
AcDbSymbolTableRecord
100
AcDbBlockTableRecord
  2
_D
340
0
  0
BLOCK_RECORD
  5
188
330
1
100
AcDbSymbolTableRecord
100
AcDbBlockTableRecord
  2
_D_1
340
0
  0
BLOCK_RECORD
  5
194
330
1
100
AcDbSymbolTableRecord
100
AcDbBlockTableRecord
  2
_D_2
340
0
  0
BLOCK_RECORD
  5
19E
330
1
100
AcDbSymbolTableRecord
100
AcDbBlockTableRecord
  2
_D_3
340
0
  0
BLOCK_RECORD
  5
1A8
330
1
100
AcDbSymbolTableRecord
100
AcDbBlockTableRecord
  2
_D_4
340
0
  0
ENDTAB
  0
ENDSEC
  0
SECTION
  2
BLOCKS
  0
BLOCK
  5
20
330
1F
100
AcDbEntity
  8
0
100
AcDbBlockBegin
  2
*Model_Space
 70
     0
 10
0.0
 20
0.0
 30
0.0
  3
*Model_Space
  1

  0
ENDBLK
  5
21
330
1F
100
AcDbEntity
  8
0
100
AcDbBlockEnd
  0
BLOCK
  5
1C
330
1B
100
AcDbEntity
 67
     1
  8
0
100
AcDbBlockBegin
  2
*Paper_Space
 70
     0
 10
0.0
 20
0.0
 30
0.0
  3
*Paper_Space
  1

  0
ENDBLK
  5
1D
330
1B
100
AcDbEntity
 67
     1
  8
0
100
AcDbBlockEnd
  0
BLOCK
  5
24
330
23
100
AcDbEntity
  8
0
100
AcDbBlockBegin
  2
*Paper_Space0
 70
     0
 10
0.0
 20
0.0
 30
0.0
  3
*Paper_Space0
  1

  0
ENDBLK
  5
25
330
23
100
AcDbEntity
  8
0
100
AcDbBlockEnd
  0
BLOCK
  5
17D
330
17C
100
AcDbEntity
  8
0
100
AcDbBlockBegin
  2
_D
 70
     0
 10
0.0
 20
0.0
 30
0.0
  3
_D
  1

  0
SOLID
  5
17F
330
17C
100
AcDbEntity
  8
VERMASSUNG
100
AcDbTrace
 10
85.0003022587
 20
86.2977177462
 30
0.0
 11
85.4503022587
 21
89.2977177462
 31
0.0
 12
84.5503022587
 22
89.2977177462
 32
0.0
 13
84.5503022587
 23
89.2977177462
 33
0.0
  0
SOLID
  5
180
330
17C
100
AcDbEntity
  8
VERMASSUNG
100
AcDbTrace
 10
85.0003022587
 20
149.7977177462
 30
0.0
 11
84.5503022587
 21
146.7977177462
 31
0.0
 12
85.4503022587
 22
146.7977177462
 32
0.0
 13
85.4503022587
 23
146.7977177462
 33
0.0
  0
LINE
  5
181
330
17C
100
AcDbEntity
  8
VERMASSUNG
100
AcDbLine
 10
179.6352669405
 20
86.2977177462
 30
0.0
 11
84.0003022587
 21
86.2977177462
 31
0.0
  0
LINE
  5
182
330
17C
100
AcDbEntity
  8
VERMASSUNG
100
AcDbLine
 10
179.6352669405
 20
149.7977177462
 30
0.0
 11
84.0003022587
 21
149.7977177462
 31
0.0
  0
LINE
  5
183
330
17C
100
AcDbEntity
  8
VERMASSUNG
100
AcDbLine
 10
85.0003022587
 20
86.2977177462
 30
0.0
 11
85.0003022587
 21
149.7977177462
 31
0.0
  0
MTEXT
  5
184
330
17C
100
AcDbEntity
  8
VERMASSUNG
100
AcDbMText
 10
82.2221670025
 20
109.2447815979
 30
0.0
 40
2.0
 41
0.0
 71
     1
 72
     1
  1
ISO 40
  7
SLDTEXTSTYLE0
 11
3.391901413832837E-15
 21
1.0
 31
0.0
 73
     1
 44
1.0
  0
MTEXT
  5
185
330
17C
100
AcDbEntity
  8
VERMASSUNG
100
AcDbMText
 10
82.4221669538
 20
118.444781802
 30
0.0
 40
2.0
 41
0.0
 71
     1
 72
     1
  1
%%c
  7
SLDTEXTSTYLE0
 11
3.391901413832837E-15
 21
1.0
 31
0.0
 73
     1
 44
1.0
  0
MTEXT
  5
186
330
17C
100
AcDbEntity
  8
VERMASSUNG
100
AcDbMText
 10
82.4221666628
 20
122.0526621334
 30
0.0
 40
2.0
 41
0.0
 71
     1
 72
     1
  1
63.5
  7
SLDTEXTSTYLE0
 11
3.391901413832837E-15
 21
1.0
 31
0.0
 73
     1
 44
1.0
  0
ENDBLK
  5
17E
330
17C
100
AcDbEntity
  8
0
100
AcDbBlockEnd
  0
BLOCK
  5
189
330
188
100
AcDbEntity
  8
0
100
AcDbBlockBegin
  2
_D_1
 70
     0
 10
0.0
 20
0.0
 30
0.0
  3
_D_1
  1

  0
ARC
  5
18B
330
188
100
AcDbEntity
  8
VERMASSUNG
100
AcDbCircle
 10
150.4220480939
 20
166.3720163066
 30
0.0
 40
4.247059938537284
100
AcDbArc
 50
153.4349488229
 51
206.5650511771
  0
ARC
  5
18C
330
188
100
AcDbEntity
  8
VERMASSUNG
100
AcDbCircle
 10
152.798485787
 20
166.3720163066
 30
0.0
 40
4.247059938537284
100
AcDbArc
 50
333.4349488229
 51
26.5650511771
  0
SOLID
  5
18D
330
188
100
AcDbEntity
  8
VERMASSUNG
100
AcDbTrace
 10
92.9352669405
 20
164.4726733612
 30
0.0
 11
95.9352669405
 21
164.0226733612
 31
0.0
 12
95.9352669405
 22
164.9226733612
 32
0.0
 13
95.9352669405
 23
164.9226733612
 33
0.0
  0
SOLID
  5
18E
330
188
100
AcDbEntity
  8
VERMASSUNG
100
AcDbTrace
 10
210.2852669405
 20
164.4726733612
 30
0.0
 11
207.2852669405
 21
164.9226733612
 31
0.0
 12
207.2852669405
 22
164.0226733612
 32
0.0
 13
207.2852669405
 23
164.0226733612
 33
0.0
  0
LINE
  5
18F
330
188
100
AcDbEntity
  8
VERMASSUNG
100
AcDbLine
 10
92.9352669405
 20
129.4548483432
 30
0.0
 11
92.9352669405
 21
165.4726733612
 31
0.0
  0
LINE
  5
190
330
188
100
AcDbEntity
  8
VERMASSUNG
100
AcDbLine
 10
210.2852669405
 20
138.6477177462
 30
0.0
 11
210.2852669405
 21
165.4726733612
 31
0.0
  0
LINE
  5
191
330
188
100
AcDbEntity
  8
VERMASSUNG
100
AcDbLine
 10
92.9352669405
 20
164.4726733612
 30
0.0
 11
210.2852669405
 21
164.4726733612
 31
0.0
  0
MTEXT
  5
192
330
188
100
AcDbEntity
  8
VERMASSUNG
100
AcDbMText
 10
148.2108622031
 20
167.0508089572
 30
0.0
 40
2.0
 41
0.0
 71
     1
 72
     1
  1
117.35
  7
SLDTEXTSTYLE0
 73
     1
 44
1.0
  0
ENDBLK
  5
18A
330
188
100
AcDbEntity
  8
0
100
AcDbBlockEnd
  0
BLOCK
  5
195
330
194
100
AcDbEntity
  8
0
100
AcDbBlockBegin
  2
_D_2
 70
     0
 10
0.0
 20
0.0
 30
0.0
  3
_D_2
  1

  0
SOLID
  5
197
330
194
100
AcDbEntity
  8
VERMASSUNG
100
AcDbTrace
 10
161.1852669405
 20
158.4129909766
 30
0.0
 11
164.1852669405
 21
157.9629909766
 31
0.0
 12
164.1852669405
 22
158.8629909766
 32
0.0
 13
164.1852669405
 23
158.8629909766
 33
0.0
  0
SOLID
  5
198
330
194
100
AcDbEntity
  8
VERMASSUNG
100
AcDbTrace
 10
210.2852669405
 20
158.4129909766
 30
0.0
 11
207.2852669405
 21
158.8629909766
 31
0.0
 12
207.2852669405
 22
157.9629909766
 32
0.0
 13
207.2852669405
 23
157.9629909766
 33
0.0
  0
LINE
  5
199
330
194
100
AcDbEntity
  8
VERMASSUNG
100
AcDbLine
 10
161.1852669405
 20
140.2727177462
 30
0.0
 11
161.1852669405
 21
159.4129909766
 31
0.0
  0
LINE
  5
19A
330
194
100
AcDbEntity
  8
VERMASSUNG
100
AcDbLine
 10
210.2852669405
 20
138.6477177462
 30
0.0
 11
210.2852669405
 21
159.4129909766
 31
0.0
  0
LINE
  5
19B
330
194
100
AcDbEntity
  8
VERMASSUNG
100
AcDbLine
 10
161.1852669405
 20
158.4129909766
 30
0.0
 11
210.2852669405
 21
158.4129909766
 31
0.0
  0
MTEXT
  5
19C
330
194
100
AcDbEntity
  8
VERMASSUNG
100
AcDbMText
 10
183.435539855
 20
160.9911265726
 30
0.0
 40
2.0
 41
0.0
 71
     1
 72
     1
  1
49.1
  7
SLDTEXTSTYLE0
 73
     1
 44
1.0
  0
ENDBLK
  5
196
330
194
100
AcDbEntity
  8
0
100
AcDbBlockEnd
  0
BLOCK
  5
19F
330
19E
100
AcDbEntity
  8
0
100
AcDbBlockBegin
  2
_D_3
 70
     0
 10
0.0
 20
0.0
 30
0.0
  3
_D_3
  1

  0
SOLID
  5
1A1
330
19E
100
AcDbEntity
  8
VERMASSUNG
100
AcDbTrace
 10
180.2352669405
 20
152.4129909766
 30
0.0
 11
183.2352669405
 21
151.9629909766
 31
0.0
 12
183.2352669405
 22
152.8629909766
 32
0.0
 13
183.2352669405
 23
152.8629909766
 33
0.0
  0
SOLID
  5
1A2
330
19E
100
AcDbEntity
  8
VERMASSUNG
100
AcDbTrace
 10
210.2852669405
 20
152.4129909766
 30
0.0
 11
207.2852669405
 21
152.8629909766
 31
0.0
 12
207.2852669405
 22
151.9629909766
 32
0.0
 13
207.2852669405
 23
151.9629909766
 33
0.0
  0
LINE
  5
1A3
330
19E
100
AcDbEntity
  8
VERMASSUNG
100
AcDbLine
 10
180.2352669405
 20
148.0582688796
 30
0.0
 11
180.2352669405
 21
153.4129909766
 31
0.0
  0
LINE
  5
1A4
330
19E
100
AcDbEntity
  8
VERMASSUNG
100
AcDbLine
 10
210.2852669405
 20
138.6477177462
 30
0.0
 11
210.2852669405
 21
153.4129909766
 31
0.0
  0
LINE
  5
1A5
330
19E
100
AcDbEntity
  8
VERMASSUNG
100
AcDbLine
 10
180.2352669405
 20
152.4129909766
 30
0.0
 11
210.2852669405
 21
152.4129909766
 31
0.0
  0
MTEXT
  5
1A6
330
19E
100
AcDbEntity
  8
VERMASSUNG
100
AcDbMText
 10
192.1608745615
 20
154.9911265726
 30
0.0
 40
2.0
 41
0.0
 71
     1
 72
     1
  1
30.05
  7
SLDTEXTSTYLE0
 73
     1
 44
1.0
  0
ENDBLK
  5
1A0
330
19E
100
AcDbEntity
  8
0
100
AcDbBlockEnd
  0
BLOCK
  5
1A9
330
1A8
100
AcDbEntity
  8
0
100
AcDbBlockBegin
  2
_D_4
 70
     0
 10
0.0
 20
0.0
 30
0.0
  3
_D_4
  1

  0
SOLID
  5
1AB
330
1A8
100
AcDbEntity
  8
VERMASSUNG
100
AcDbTrace
 10
218.5753576288
 20
139.0477177462
 30
0.0
 11
218.1253576288
 21
136.0477177462
 31
0.0
 12
219.0253576288
 22
136.0477177462
 32
0.0
 13
219.0253576288
 23
136.0477177462
 33
0.0
  0
SOLID
  5
1AC
330
1A8
100
AcDbEntity
  8
VERMASSUNG
100
AcDbTrace
 10
218.5753576288
 20
97.0477177462
 30
0.0
 11
219.0253576288
 21
100.0477177462
 31
0.0
 12
218.1253576288
 22
100.0477177462
 32
0.0
 13
218.1253576288
 23
100.0477177462
 33
0.0
  0
LINE
  5
1AD
330
1A8
100
AcDbEntity
  8
VERMASSUNG
100
AcDbLine
 10
209.8852669405
 20
139.0477177462
 30
0.0
 11
219.5753576288
 21
139.0477177462
 31
0.0
  0
LINE
  5
1AE
330
1A8
100
AcDbEntity
  8
VERMASSUNG
100
AcDbLine
 10
209.8852669405
 20
97.0477177462
 30
0.0
 11
219.5753576288
 21
97.0477177462
 31
0.0
  0
LINE
  5
1AF
330
1A8
100
AcDbEntity
  8
VERMASSUNG
100
AcDbLine
 10
218.5753576288
 20
139.0477177462
 30
0.0
 11
218.5753576288
 21
97.0477177462
 31
0.0
  0
MTEXT
  5
1B0
330
1A8
100
AcDbEntity
  8
VERMASSUNG
100
AcDbMText
 10
215.7972223725
 20
111.5427182725
 30
0.0
 40
2.0
 41
0.0
 71
     1
 72
     1
  1
MBM
  7
SLDTEXTSTYLE0
 11
-7.044195017643634E-15
 21
1.0
 31
0.0
 73
     1
 44
1.0
  0
MTEXT
  5
1B1
330
1A8
100
AcDbEntity
  8
VERMASSUNG
100
AcDbMText
 10
215.9972223238
 20
117.9427181108
 30
0.0
 40
2.0
 41
0.0
 71
     1
 72
     1
  1
%%c
  7
SLDTEXTSTYLE0
 11
-7.044195017643634E-15
 21
1.0
 31
0.0
 73
     1
 44
1.0
  0
MTEXT
  5
1B2
330
1A8
100
AcDbEntity
  8
VERMASSUNG
100
AcDbMText
 10
215.7972223725
 20
121.5527185908
 30
0.0
 40
2.0
 41
0.0
 71
     1
 72
     1
  1
42
  7
SLDTEXTSTYLE0
 11
-7.044195017643634E-15
 21
1.0
 31
0.0
 73
     1
 44
1.0
  0
ENDBLK
  5
1AA
330
1A8
100
AcDbEntity
  8
0
100
AcDbBlockEnd
  0
ENDSEC
  0
SECTION
  2
ENTITIES
  0
MTEXT
  5
78
330
1F
100
AcDbEntity
  8
KOPF_DÜNN
100
AcDbMText
 10
13.8892156294
 20
23.8442973028
 30
0.0
 40
3.0
 41
0.0
 71
     1
 72
     1
  1
102.425.421
  7
SLDTEXTSTYLE0
 73
     1
 44
1.0
  0
MTEXT
  5
79
330
1F
100
AcDbEntity
  8
VERMASSUNG
100
AcDbMText
 10
13.9329988022
 20
28.8834360957
 30
0.0
 40
3.0
 41
0.0
 71
     1
 72
     1
  1
Aufnahme_Master shank MBM 42
  7
SLDTEXTSTYLE0
 73
     1
 44
1.0
  0
MTEXT
  5
7A
330
1F
100
AcDbEntity
  8
VERMASSUNG
100
AcDbMText
 10
98.8601118557
 20
13.8365368761
 30
0.0
 40
2.0
 41
0.0
 71
     1
 72
     1
  1
Datum: 01.11.2007
  7
SLDTEXTSTYLE0
 73
     1
 44
1.0
  0
MTEXT
  5
7B
330
1F
100
AcDbEntity
  8
VERMASSUNG
100
AcDbMText
 10
13.933048693
 20
18.0482802738
 30
0.0
 40
2.0
 41
0.0
 71
     1
 72
     1
  1
DIN 69871 B 40
  7
SLDTEXTSTYLE0
 73
     1
 44
1.0
  0
MTEXT
  5
7C
330
1F
100
AcDbEntity
  8
VERMASSUNG
100
AcDbMText
 10
13.9808475933
 20
13.9090974274
 30
0.0
 40
2.0
 41
0.0
 71
     1
 72
     1
  1
Gewicht: 1035g
  7
SLDTEXTSTYLE0
 73
     1
 44
1.0
  0
ARC
  5
7D
330
1F
100
AcDbEntity
  8
0
  6
Continuous
 62
     7
370
    15
100
AcDbCircle
 10
184.2352669405
 20
93.0477177462
 30
0.0
 40
4.000000000000012
100
AcDbArc
 50
90.0
 51
143.1090860656
  0
ARC
  5
7E
330
1F
100
AcDbEntity
  8
0
  6
Continuous
 62
     7
370
    15
100
AcDbCircle
 10
184.2352669405
 20
143.0477177462
 30
0.0
 40
4.000000000000034
100
AcDbArc
 50
182.5348087253
 51
270.0
  0
ARC
  5
7F
330
1F
100
AcDbEntity
  8
0
  6
Continuous
 62
     7
370
    15
100
AcDbCircle
 10
163.7852669405
 20
95.2227177462
 30
0.0
 40
0.5999999999999943
100
AcDbArc
 50
0.0
 51
90.0
  0
ARC
  5
80
330
1F
100
AcDbEntity
  8
0
  6
Continuous
 62
     7
370
    15
100
AcDbCircle
 10
163.7852669405
 20
140.8727177462
 30
0.0
 40
0.6000000000000227
100
AcDbArc
 50
270.0
 51
0.0
  0
LINE
  5
81
330
1F
100
AcDbEntity
  8
0
  6
Continuous
 62
     7
370
    15
100
AcDbLine
 10
161.1852669405
 20
140.2727177462
 30
0.0
 11
93.7909600474
 21
130.4443813243
 31
0.0
  0
LINE
  5
82
330
1F
100
AcDbEntity
  8
0
  6
Continuous
 62
     7
370
    15
100
AcDbLine
 10
93.7909600474
 20
105.6510541681
 30
0.0
 11
161.1852669405
 21
95.8227177462
 31
0.0
  0
LINE
  5
83
330
1F
100
AcDbEntity
  8
0
  6
Continuous
 62
     7
370
    15
100
AcDbLine
 10
161.1852669405
 20
95.8227177462
 30
0.0
 11
163.7852669405
 21
95.8227177462
 31
0.0
  0
LINE
  5
84
330
1F
100
AcDbEntity
  8
0
  6
Continuous
 62
     7
370
    15
100
AcDbLine
 10
163.7852669405
 20
140.2727177462
 30
0.0
 11
161.1852669405
 21
140.2727177462
 31
0.0
  0
LINE
  5
85
330
1F
100
AcDbEntity
  8
0
  6
Continuous
 62
     7
370
    15
100
AcDbLine
 10
184.2352669405
 20
97.0477177462
 30
0.0
 11
209.8852669405
 21
97.0477177462
 31
0.0
  0
LINE
  5
86
330
1F
100
AcDbEntity
  8
0
  6
Continuous
 62
     7
370
    15
100
AcDbLine
 10
209.8852669405
 20
139.0477177462
 30
0.0
 11
184.2352669405
 21
139.0477177462
 31
0.0
  0
LINE
  5
87
330
1F
100
AcDbEntity
  8
0
  6
Continuous
 62
     7
370
    15
100
AcDbLine
 10
209.8852669405
 20
97.0477177462
 30
0.0
 11
210.2852669405
 21
97.4477177462
 31
0.0
  0
LINE
  5
88
330
1F
100
AcDbEntity
  8
0
  6
Continuous
 62
     7
370
    15
100
AcDbLine
 10
210.2852669405
 20
138.6477177462
 30
0.0
 11
209.8852669405
 21
139.0477177462
 31
0.0
  0
ARC
  5
89
330
1F
100
AcDbEntity
  8
0
  6
Continuous
 62
     7
370
    15
100
AcDbCircle
 10
93.9352669405
 20
106.6405871492
 30
0.0
 40
0.9999999999999938
100
AcDbArc
 50
180.0
 51
261.7028550302
  0
ARC
  5
8A
330
1F
100
AcDbEntity
  8
0
  6
Continuous
 62
     7
370
    15
100
AcDbCircle
 10
93.9352669405
 20
129.4548483432
 30
0.0
 40
1.000000000000008
100
AcDbArc
 50
98.2971449698
 51
180.0
  0
SPLINE
  5
8B
330
1F
100
AcDbEntity
  8
0
  6
Continuous
 62
     7
370
    15
100
AcDbSpline
210
0.0
220
0.0
230
1.0
 70
    24
 71
     3
 72
    11
 73
     7
 74
     0
 42
0.000000001
 43
0.00000001
 40
0.0
 40
0.0
 40
0.0
 40
0.0
 40
0.1336647920874022
 40
0.4825473608259717
 40
0.815635656150377
 40
1.0
 40
1.0
 40
1.0
 40
1.0
 10
201.0917818743879
 20
118.9043433927171
 30
0.0
 10
201.0525533386261
 20
118.7646243049958
 30
0.0
 10
200.9109331998797
 20
118.2602201460245
 30
0.0
 10
200.6463696411215
 20
117.3179321315436
 30
0.0
 10
200.3622311844169
 20
116.3059247959052
 30
0.0
 10
200.2097218621518
 20
115.7627369617927
 30
0.0
 10
200.1553839788332
 20
115.5692033684901
 30
0.0
  0
SPLINE
  5
8C
330
1F
100
AcDbEntity
  8
0
  6
Continuous
 62
     7
370
    15
100
AcDbSpline
210
0.0
220
0.0
230
1.0
 70
    24
 71
     3
 72
    11
 73
     7
 74
     0
 42
0.000000001
 43
0.00000001
 40
0.0
 40
0.0
 40
0.0
 40
0.0
 40
0.2164553779443415
 40
0.4403112895790515
 40
0.7519005688038622
 40
1.0
 40
1.0
 40
1.0
 40
1.0
 10
198.6716648360064
 20
121.3828577704312
 30
0.0
 10
198.8374451980115
 20
121.2130771341
 30
0.0
 10
199.1746738946352
 20
120.8677111208436
 30
0.0
 10
199.8004802873717
 20
120.2268040417794
 30
0.0
 10
200.4717699001046
 20
119.5393162342139
 30
0.0
 10
200.9013549415952
 20
119.0993653207253
 30
0.0
 10
201.0917818743879
 20
118.9043433927171
 30
0.0
  0
SPLINE
  5
8D
330
1F
100
AcDbEntity
  8
0
  6
Continuous
 62
     7
370
    15
100
AcDbSpline
210
0.0
220
0.0
230
1.0
 70
    24
 71
     3
 72
    11
 73
     7
 74
     0
 42
0.000000001
 43
0.00000001
 40
0.0
 40
0.0
 40
0.0
 40
0.0
 40
0.2164553779443467
 40
0.4403112895790516
 40
0.7519005688038632
 40
1.0
 40
1.0
 40
1.0
 40
1.0
 10
195.3151499020702
 20
120.5262321239183
 30
0.0
 10
195.5450744272063
 20
120.5849118106978
 30
0.0
 10
196.0127845166019
 20
120.7042774222308
 30
0.0
 10
196.8807295249051
 20
120.9257881166592
 30
0.0
 10
197.8117562374154
 20
121.1633980707997
 30
0.0
 10
198.4075574256599
 20
121.3154541730721
 30
0.0
 10
198.6716648360064
 20
121.3828577704312
 30
0.0
  0
SPLINE
  5
8E
330
1F
100
AcDbEntity
  8
0
  6
Continuous
 62
     7
370
    15
100
AcDbSpline
210
0.0
220
0.0
230
1.0
 70
    24
 71
     3
 72
    11
 73
     7
 74
     0
 42
0.000000001
 43
0.00000001
 40
0.0
 40
0.0
 40
0.0
 40
0.0
 40
0.18436434384962
 40
0.5174526391740263
 40
0.8663352079125969
 40
1.0
 40
1.0
 40
1.0
 40
1.0
 10
194.3787520065156
 20
117.1910920996914
 30
0.0
 10
194.4330898898342
 20
117.384625692994
 30
0.0
 10
194.5855992120992
 20
117.9278135271065
 30
0.0
 10
194.8697376688039
 20
118.9398208627449
 30
0.0
 10
195.134301227562
 20
119.8821088772258
 30
0.0
 10
195.2759213663084
 20
120.386513036197
 30
0.0
 10
195.3151499020702
 20
120.5262321239183
 30
0.0
  0
SPLINE
  5
8F
330
1F
100
AcDbEntity
  8
0
  6
Continuous
 62
     7
370
    15
100
AcDbSpline
210
0.0
220
0.0
230
1.0
 70
    24
 71
     3
 72
    11
 73
     7
 74
     0
 42
0.000000001
 43
0.00000001
 40
0.0
 40
0.0
 40
0.0
 40
0.0
 40
0.2164553779443443
 40
0.4403112895790522
 40
0.751900568803861
 40
1.0
 40
1.0
 40
1.0
 40
1.0
 10
200.1553839788332
 20
115.5692033684901
 30
0.0
 10
199.9254594536971
 20
115.5105236817107
 30
0.0
 10
199.4577493643015
 20
115.3911580701776
 30
0.0
 10
198.5898043559984
 20
115.1696473757493
 30
0.0
 10
197.6587776434881
 20
114.9320374216086
 30
0.0
 10
197.0629764552435
 20
114.7799813193363
 30
0.0
 10
196.798869044897
 20
114.7125777219772
 30
0.0
  0
CIRCLE
  5
90
330
1F
100
AcDbEntity
  8
0
  6
Continuous
 62
     7
370
    15
100
AcDbCircle
 10
197.7352669405
 20
118.0477177462
 30
0.0
 40
3.499999999999985
  0
SPLINE
  5
91
330
1F
100
AcDbEntity
  8
0
  6
Continuous
 62
     7
370
    15
100
AcDbSpline
210
0.0
220
0.0
230
1.0
 70
    24
 71
     3
 72
    11
 73
     7
 74
     0
 42
0.000000001
 43
0.00000001
 40
0.0
 40
0.0
 40
0.0
 40
0.0
 40
0.2164553779443405
 40
0.4403112895790493
 40
0.7519005688038618
 40
1.0
 40
1.0
 40
1.0
 40
1.0
 10
196.798869044897
 20
114.7125777219772
 30
0.0
 10
196.6330886828919
 20
114.8823583583084
 30
0.0
 10
196.2958599862682
 20
115.2277243715648
 30
0.0
 10
195.6700535935318
 20
115.868631450629
 30
0.0
 10
194.9987639807988
 20
116.5561192581945
 30
0.0
 10
194.5691789393083
 20
116.9960701716831
 30
0.0
 10
194.3787520065156
 20
117.1910920996914
 30
0.0
  0
CIRCLE
  5
92
330
1F
100
AcDbEntity
  8
0
  6
Continuous
 62
     7
370
    15
100
AcDbCircle
 10
197.7352669405
 20
118.0477177462
 30
0.0
 40
5.499999999999997
  0
CIRCLE
  5
93
330
1F
100
AcDbEntity
  8
0
  6
Continuous
 62
     7
370
    15
100
AcDbCircle
 10
197.7352669405
 20
118.0477177462
 30
0.0
 40
5.999999999999998
  0
ARC
  5
94
330
1F
100
AcDbEntity
  8
0
  6
Continuous
 62
     7
370
    15
100
AcDbCircle
 10
197.7352669405
 20
118.0477177462
 30
0.0
 40
3.0
100
AcDbArc
 50
284.3170005442
 51
344.3170005442
  0
ARC
  5
95
330
1F
100
AcDbEntity
  8
0
  6
Continuous
 62
     7
370
    15
100
AcDbCircle
 10
197.7352669405
 20
118.0477177462
 30
0.0
 40
3.0
100
AcDbArc
 50
224.3170005442
 51
284.3170005442
  0
ARC
  5
96
330
1F
100
AcDbEntity
  8
0
  6
Continuous
 62
     7
370
    15
100
AcDbCircle
 10
197.7352669405
 20
118.0477177462
 30
0.0
 40
3.000000000000014
100
AcDbArc
 50
44.3170005442
 51
104.3170005442
  0
ARC
  5
97
330
1F
100
AcDbEntity
  8
0
  6
Continuous
 62
     7
370
    15
100
AcDbCircle
 10
197.7352669405
 20
118.0477177462
 30
0.0
 40
3.0
100
AcDbArc
 50
344.3170005442
 51
44.3170005442
  0
ARC
  5
98
330
1F
100
AcDbEntity
  8
0
  6
Continuous
 62
     7
370
    15
100
AcDbCircle
 10
197.7352669405
 20
118.0477177462
 30
0.0
 40
3.000000000000015
100
AcDbArc
 50
104.3170005442
 51
164.3170005442
  0
ARC
  5
99
330
1F
100
AcDbEntity
  8
0
  6
Continuous
 62
     7
370
    15
100
AcDbCircle
 10
197.7352669405
 20
118.0477177462
 30
0.0
 40
3.000000000000015
100
AcDbArc
 50
164.3170005442
 51
224.3170005442
  0
SPLINE
  5
9A
330
1F
100
AcDbEntity
  8
0
  6
Continuous
 62
     7
370
    15
100
AcDbSpline
210
0.0
220
0.0
230
1.0
 70
     8
 71
     3
 72
     8
 73
     4
 74
     0
 42
0.000000001
 43
0.00000001
 40
0.0
 40
0.0
 40
0.0
 40
0.0
 40
1.0
 40
1.0
 40
1.0
 40
1.0
 10
170.3752669404518
 20
90.23089128670276
 30
0.0
 10
169.9911321918674
 20
89.53824986475855
 30
0.0
 10
169.6061459153745
 20
88.84606369043485
 30
0.0
 10
169.2204773367481
 20
88.15426939959067
 30
0.0
  0
SPLINE
  5
9B
330
1F
100
AcDbEntity
  8
0
  6
Continuous
 62
     7
370
    15
100
AcDbSpline
210
0.0
220
0.0
230
1.0
 70
     8
 71
     3
 72
     8
 73
     4
 74
     0
 42
0.000000001
 43
0.00000001
 40
0.0
 40
0.0
 40
0.0
 40
0.0
 40
0.0011901715795577
 40
0.0011901715795577
 40
0.0011901715795577
 40
0.0011901715795577
 10
168.763430298395
 20
87.59962539756754
 30
0.0
 10
168.9172764878909
 20
87.78419063525111
 30
0.0
 10
169.0696717555636
 20
87.96906599577973
 30
0.0
 10
169.2204773367481
 20
88.15426939959067
 30
0.0
  0
LINE
  5
9C
330
1F
100
AcDbEntity
  8
0
  6
Continuous
 62
     7
370
    15
100
AcDbLine
 10
168.7634302984
 20
87.5996253976
 30
0.0
 11
168.7634302984
 21
136.3977177462
 31
0.0
  0
SPLINE
  5
9D
330
1F
100
AcDbEntity
  8
0
  6
Continuous
 62
     7
370
    15
100
AcDbSpline
210
0.0
220
0.0
230
1.0
 70
    24
 71
     3
 72
     8
 73
     4
 74
     0
 42
0.000000001
 43
0.00000001
 40
0.0
 40
0.0
 40
0.0
 40
0.0
 40
1.0
 40
1.0
 40
1.0
 40
1.0
 10
170.3752669404518
 20
136.3977177462042
 30
0.0
 10
169.8505344520899
 20
136.3977177462042
 30
0.0
 10
169.311858967871
 20
136.3977177462042
 30
0.0
 10
168.763430298395
 20
136.3977177462042
 30
0.0
  0
LINE
  5
9E
330
1F
100
AcDbEntity
  8
0
  6
Continuous
 62
     7
370
    15
100
AcDbLine
 10
170.3752669405
 20
90.2308912867
 30
0.0
 11
170.3752669405
 21
136.3977177462
 31
0.0
  0
LINE
  5
9F
330
1F
100
AcDbEntity
  8
0
  6
Continuous
 62
     7
370
    15
100
AcDbLine
 10
164.9852669405
 20
87.5996253976
 30
0.0
 11
168.7634302984
 21
87.5996253976
 31
0.0
  0
LINE
  5
A0
330
1F
100
AcDbEntity
  8
0
  6
Continuous
 62
     7
370
    15
100
AcDbLine
 10
168.7634302984
 20
136.3977177462
 30
0.0
 11
164.9852669405
 21
136.3977177462
 31
0.0
  0
SPLINE
  5
A1
330
1F
100
AcDbEntity
  8
0
  6
Continuous
 62
     7
370
    15
100
AcDbSpline
210
0.0
220
0.0
230
1.0
 70
     8
 71
     3
 72
    12
 73
     8
 74
     0
 42
0.000000001
 43
0.00000001
 40
0.0
 40
0.0
 40
0.0
 40
0.0
 40
0.2499999999999992
 40
0.2499999999999992
 40
0.4999999999999983
 40
0.4999999999999983
 40
1.0
 40
1.0
 40
1.0
 40
1.0
 10
179.6352669404518
 20
87.59962539756754
 30
0.0
 10
179.7308088505877
 20
87.59962539756754
 30
0.0
 10
179.8229537924505
 20
87.61587906676374
 30
0.0
 10
179.9792800690604
 20
87.66948748767722
 30
0.0
 10
180.0429482116804
 20
87.70589861295889
 30
0.0
 10
180.1918160571108
 20
87.82802225264538
 30
0.0
 10
180.2352669404517
 20
87.92317492808242
 30
0.0
 10
180.2352669404517
 20
88.01880138370211
 30
0.0
  0
SPLINE
  5
A2
330
1F
100
AcDbEntity
  8
0
  6
Continuous
 62
     7
370
    15
100
AcDbSpline
210
0.0
220
0.0
230
1.0
 70
    24
 71
     3
 72
    12
 73
     8
 74
     0
 42
0.000000001
 43
0.00000001
 40
0.0
 40
0.0
 40
0.0
 40
0.0
 40
0.500000000000004
 40
0.500000000000004
 40
0.750000000000002
 40
0.750000000000002
 40
1.0
 40
1.0
 40
1.0
 40
1.0
 10
180.2352669404517
 20
136.3977177462042
 30
0.0
 10
180.2352669404517
 20
136.3977177462042
 30
0.0
 10
180.1849812732801
 20
136.3977177462042
 30
0.0
 10
180.0298591389048
 20
136.3977177462042
 30
0.0
 10
179.9644018635628
 20
136.3977177462042
 30
0.0
 10
179.8104306399205
 20
136.3977177462042
 30
0.0
 10
179.7232083512046
 20
136.3977177462042
 30
0.0
 10
179.6352669404516
 20
136.3977177462042
 30
0.0
  0
LINE
  5
A3
330
1F
100
AcDbEntity
  8
0
  6
Continuous
 62
     7
370
    15
100
AcDbLine
 10
180.2352669405
 20
88.0188013837
 30
0.0
 11
180.2352669405
 21
136.3977177462
 31
0.0
  0
LINE
  5
A4
330
1F
100
AcDbEntity
  8
0
  6
Continuous
 62
     7
370
    15
100
AcDbLine
 10
175.8071035825
 20
108.2956976784
 30
0.0
 11
175.8071035825
 21
136.3977177462
 31
0.0
  0
LINE
  5
A5
330
1F
100
AcDbEntity
  8
0
  6
Continuous
 62
     7
370
    15
100
AcDbLine
 10
179.6352669405
 20
136.3977177462
 30
0.0
 11
175.8071035825
 21
136.3977177462
 31
0.0
  0
LINE
  5
A6
330
1F
100
AcDbEntity
  8
0
  6
Continuous
 62
     7
370
    15
100
AcDbLine
 10
175.8071035825
 20
87.5996253976
 30
0.0
 11
179.6352669405
 21
87.5996253976
 31
0.0
  0
LINE
  5
A7
330
1F
100
AcDbEntity
  8
0
  6
Continuous
 62
     7
370
    15
100
AcDbLine
 10
175.8071035825
 20
87.5996253976
 30
0.0
 11
175.8071035825
 21
106.096217948
 31
0.0
  0
SPLINE
  5
A8
330
1F
100
AcDbEntity
  8
0
  6
Continuous
 62
     7
370
    15
100
AcDbSpline
210
0.0
220
0.0
230
1.0
 70
     8
 71
     3
 72
    12
 73
     8
 74
     0
 42
0.000000001
 43
0.00000001
 40
0.0
 40
0.0
 40
0.0
 40
0.0
 40
0.2499999999999997
 40
0.2499999999999997
 40
0.4999999999999993
 40
0.4999999999999993
 40
1.0
 40
1.0
 40
1.0
 40
1.0
 10
175.8071035825085
 20
106.0962179479972
 30
0.0
 10
175.930051076304
 20
106.2541747966923
 30
0.0
 10
176.0235952794129
 20
106.4260081636698
 30
0.0
 10
176.1525346685751
 20
106.7976808733156
 30
0.0
 10
176.1850874259602
 20
106.9908693195069
 30
0.0
 10
176.185623767694
 20
107.5791658577831
 30
0.0
 10
176.0530001107261
 20
107.9711840956718
 30
0.0
 10
175.8071035825085
 20
108.2956976783805
 30
0.0
  0
SPLINE
  5
A9
330
1F
100
AcDbEntity
  8
0
  6
Continuous
 62
     7
370
    15
100
AcDbSpline
210
0.0
220
0.0
230
1.0
 70
     8
 71
     3
 72
    10
 73
     6
 74
     0
 42
0.000000001
 43
0.00000001
 40
0.0
 40
0.0
 40
0.0
 40
0.0
 40
0.5
 40
0.5
 40
1.0
 40
1.0
 40
1.0
 40
1.0
 10
164.6014114817989
 20
87.695987896736
 30
0.0
 10
164.6501814547803
 20
87.66775988952797
 30
0.0
 10
164.7076335780826
 20
87.64366528528639
 30
0.0
 10
164.8382304810713
 20
87.60940181219382
 30
0.0
 10
164.9107201609135
 20
87.59962539756752
 30
0.0
 10
164.9852669404517
 20
87.59962539756752
 30
0.0
  0
SPLINE
  5
AA
330
1F
100
AcDbEntity
  8
0
  6
Continuous
 62
     7
370
    15
100
AcDbSpline
210
0.0
220
0.0
230
1.0
 70
     8
 71
     3
 72
    10
 73
     6
 74
     0
 42
0.000000001
 43
0.00000001
 40
0.0
 40
0.0
 40
0.0
 40
0.0
 40
0.5
 40
0.5
 40
1.0
 40
1.0
 40
1.0
 40
1.0
 10
164.6014114817989
 20
87.695987896736
 30
0.0
 10
164.5432888217228
 20
87.7632930565978
 30
0.0
 10
164.4908856557194
 20
87.84337844363144
 30
0.0
 10
164.411982634173
 20
88.0273978853202
 30
0.0
 10
164.3852669404517
 20
88.13260924274066
 30
0.0
 10
164.3852669404517
 20
88.2413425892013
 30
0.0
  0
LINE
  5
AB
330
1F
100
AcDbEntity
  8
0
  6
Continuous
 62
     7
370
    15
100
AcDbLine
 10
164.3852669405
 20
88.2413425892
 30
0.0
 11
164.3852669405
 21
136.3977177462
 31
0.0
  0
SPLINE
  5
AC
330
1F
100
AcDbEntity
  8
0
  6
Continuous
 62
     7
370
    15
100
AcDbSpline
210
0.0
220
0.0
230
1.0
 70
    24
 71
     3
 72
    12
 73
     8
 74
     0
 42
0.000000001
 43
0.00000001
 40
0.0
 40
0.0
 40
0.0
 40
0.0
 40
0.2499999999999998
 40
0.2499999999999998
 40
0.4999999999999997
 40
0.4999999999999997
 40
1.0
 40
1.0
 40
1.0
 40
1.0
 10
164.9852669404517
 20
136.3977177462042
 30
0.0
 10
164.897782570799
 20
136.3977177462042
 30
0.0
 10
164.8104496933783
 20
136.3977177462042
 30
0.0
 10
164.6566132799395
 20
136.3977177462042
 30
0.0
 10
164.590991110966
 20
136.3977177462042
 30
0.0
 10
164.4355729056235
 20
136.3977177462042
 30
0.0
 10
164.3852669404517
 20
136.3977177462042
 30
0.0
 10
164.3852669404517
 20
136.3977177462042
 30
0.0
  0
LINE
  5
AD
330
1F
100
AcDbEntity
  8
0
  6
Continuous
 62
     7
370
    15
100
AcDbLine
 10
174.1952669405
 20
110.046435226
 30
0.0
 11
174.1952669405
 21
136.3977177462
 31
0.0
  0
SPLINE
  5
AE
330
1F
100
AcDbEntity
  8
0
  6
Continuous
 62
     7
370
    15
100
AcDbSpline
210
0.0
220
0.0
230
1.0
 70
    24
 71
     3
 72
     8
 73
     4
 74
     0
 42
0.000000001
 43
0.00000001
 40
0.0
 40
0.0
 40
0.0
 40
0.0
 40
1.0
 40
1.0
 40
1.0
 40
1.0
 10
175.8071035825085
 20
136.3977177462042
 30
0.0
 10
175.2586749130325
 20
136.3977177462042
 30
0.0
 10
174.7199994288137
 20
136.3977177462042
 30
0.0
 10
174.1952669404518
 20
136.3977177462042
 30
0.0
  0
SPLINE
  5
AF
330
1F
100
AcDbEntity
  8
0
  6
Continuous
 62
     7
370
    15
100
AcDbSpline
210
0.0
220
0.0
230
1.0
 70
     8
 71
     3
 72
    12
 73
     8
 74
     0
 42
0.000000001
 43
0.00000001
 40
0.0
 40
0.0
 40
0.0
 40
0.0
 40
0.2499999999999994
 40
0.2499999999999994
 40
0.4999999999999989
 40
0.4999999999999989
 40
1.0
 40
1.0
 40
1.0
 40
1.0
 10
175.8071035825085
 20
108.2956976783805
 30
0.0
 10
175.6922075312478
 20
108.5154381134371
 30
0.0
 10
175.5654415147752
 20
108.7124064650588
 30
0.0
 10
175.3052265811566
 20
109.0661240378977
 30
0.0
 10
175.1717191231944
 20
109.2229493317699
 30
0.0
 10
174.7633208546061
 20
109.6494919026776
 30
0.0
 10
174.4796677196686
 20
109.8761840816329
 30
0.0
 10
174.1952669404519
 20
110.0464352260283
 30
0.0
  0
SPLINE
  5
B0
330
1F
100
AcDbEntity
  8
0
  6
Continuous
 62
     7
370
    15
100
AcDbSpline
210
0.0
220
0.0
230
1.0
 70
     8
 71
     3
 72
    14
 73
    10
 74
     0
 42
0.000000001
 43
0.00000001
 40
0.0
 40
0.0
 40
0.0
 40
0.0
 40
0.2500000000000005
 40
0.2500000000000005
 40
0.5000000000000003
 40
0.5000000000000003
 40
0.7500000000000001
 40
0.7500000000000001
 40
1.0
 40
1.0
 40
1.0
 40
1.0
 10
174.1952669404518
 20
110.1006788758755
 30
0.0
 10
174.1952669404518
 20
110.1369384655506
 30
0.0
 10
174.1741468529535
 20
110.173566519339
 30
0.0
 10
174.0916791978048
 20
110.2388442517524
 30
0.0
 10
174.0312478434637
 20
110.2667705630805
 30
0.0
 10
173.878782977316
 20
110.3009349999749
 30
0.0
 10
173.7882020903652
 20
110.306314496904
 30
0.0
 10
173.5955601743967
 20
110.2854381872248
 30
0.0
 10
173.4937480317892
 20
110.2590921420164
 30
0.0
 10
173.3952669404515
 20
110.2183500328745
 30
0.0
  0
SPLINE
  5
B1
330
1F
100
AcDbEntity
  8
0
  6
Continuous
 62
     7
370
    15
100
AcDbSpline
210
0.0
220
0.0
230
1.0
 70
     8
 71
     3
 72
    12
 73
     8
 74
     0
 42
0.000000001
 43
0.00000001
 40
0.0
 40
0.0
 40
0.0
 40
0.0
 40
0.500000000000001
 40
0.500000000000001
 40
0.7500000000000004
 40
0.7500000000000004
 40
1.0
 40
1.0
 40
1.0
 40
1.0
 10
174.1952669404518
 20
106.2877117278073
 30
0.0
 10
174.479473475017
 20
106.1202475655135
 30
0.0
 10
174.7581692091208
 20
106.0086104660019
 30
0.0
 10
175.1675152523101
 20
105.9412972003626
 30
0.0
 10
175.3036545896296
 20
105.9361461603486
 30
0.0
 10
175.5649746386257
 20
105.973912097968
 30
0.0
 10
175.6903958210575
 20
106.0154618563122
 30
0.0
 10
175.8071035825089
 20
106.0962179479951
 30
0.0
  0
LINE
  5
B2
330
1F
100
AcDbEntity
  8
0
  6
Continuous
 62
     7
370
    15
100
AcDbLine
 10
174.1952669405
 20
106.3419553777
 30
0.0
 11
174.1952669405
 21
106.2877117278
 31
0.0
  0
SPLINE
  5
B3
330
1F
100
AcDbEntity
  8
0
  6
Continuous
 62
     7
370
    15
100
AcDbSpline
210
0.0
220
0.0
230
1.0
 70
     8
 71
     3
 72
    14
 73
    10
 74
     0
 42
0.000000001
 43
0.00000001
 40
0.0
 40
0.0
 40
0.0
 40
0.0
 40
0.25
 40
0.25
 40
0.5
 40
0.5
 40
0.75
 40
0.75
 40
1.0
 40
1.0
 40
1.0
 40
1.0
 10
173.3952669404517
 20
106.765238556096
 30
0.0
 10
173.4937462140659
 20
106.7264019254842
 30
0.0
 10
173.5950435727644
 20
106.6891090973887
 30
0.0
 10
173.7880272730067
 20
106.6176978063137
 30
0.0
 10
173.879122643421
 20
106.5835980434567
 30
0.0
 10
174.0304151667386
 20
106.5167690702264
 30
0.0
 10
174.0916808897672
 20
106.4833496644851
 30
0.0
 10
174.1738644906867
 20
106.4143320581909
 30
0.0
 10
174.1952669404517
 20
106.3785357763497
 30
0.0
 10
174.1952669404517
 20
106.3419553776556
 30
0.0
  0
SPLINE
  5
B4
330
1F
100
AcDbEntity
  8
0
  6
Continuous
 62
     7
370
    15
100
AcDbSpline
210
0.0
220
0.0
230
1.0
 70
     8
 71
     3
 72
    22
 73
    18
 74
     0
 42
0.000000001
 43
0.00000001
 40
0.0
 40
0.0
 40
0.0
 40
0.0
 40
0.125
 40
0.125
 40
0.25
 40
0.25
 40
0.375
 40
0.375
 40
0.5
 40
0.5
 40
0.625
 40
0.625
 40
0.75
 40
0.75
 40
0.875
 40
0.875
 40
1.0
 40
1.0
 40
1.0
 40
1.0
 10
173.3952669404517
 20
110.2183500328733
 30
0.0
 10
173.2152502458823
 20
110.1438762458967
 30
0.0
 10
173.050818424012
 20
110.0464269839127
 30
0.0
 10
172.7524221902535
 20
109.8070575503483
 30
0.0
 10
172.6221184628886
 20
109.6671609382779
 30
0.0
 10
172.4088996792696
 20
109.3589093482177
 30
0.0
 10
172.3252718221581
 20
109.1887461300984
 30
0.0
 10
172.2141409452399
 20
108.8382513953079
 30
0.0
 10
172.1853049503862
 20
108.6531264341566
 30
0.0
 10
172.1852290077266
 20
108.2899195595393
 30
0.0
 10
172.2138876331538
 20
108.1065495458318
 30
0.0
 10
172.3250387262665
 20
107.7606584333385
 30
0.0
 10
172.4081058469105
 20
107.595138906071
 30
0.0
 10
172.6217918050292
 20
107.2945991686672
 30
0.0
 10
172.7507987949535
 20
107.1607272473832
 30
0.0
 10
173.050408074443
 20
106.9294804779791
 30
0.0
 10
173.2152507727022
 20
106.8362303613203
 30
0.0
 10
173.3952669404517
 20
106.765238556096
 30
0.0
  0
ARC
  5
B5
330
1F
100
AcDbEntity
  8
0
  6
Continuous
 62
     7
370
    15
100
AcDbCircle
 10
174.1903811592
 20
110.1772330731
 30
0.0
 40
2.055060555166902
100
AcDbArc
 50
206.6541665913
 51
313.0428433832
  0
SPLINE
  5
B6
330
1F
100
AcDbEntity
  8
0
  6
Continuous
 62
     7
370
    15
100
AcDbSpline
210
0.0
220
0.0
230
1.0
 70
     8
 71
     3
 72
     8
 73
     4
 74
     0
 42
0.000000001
 43
0.00000001
 40
0.0
 40
0.0
 40
0.0
 40
0.0
 40
0.0011901715795577
 40
0.0011901715795577
 40
0.0011901715795577
 40
0.0011901715795577
 10
175.3500565441554
 20
88.15426939959067
 30
0.0
 10
175.5008621253399
 20
87.96906599577974
 30
0.0
 10
175.6532573930125
 20
87.78419063525111
 30
0.0
 10
175.8071035825085
 20
87.59962539756754
 30
0.0
  0
SPLINE
  5
B7
330
1F
100
AcDbEntity
  8
0
  6
Continuous
 62
     7
370
    15
100
AcDbSpline
210
0.0
220
0.0
230
1.0
 70
     8
 71
     3
 72
     8
 73
     4
 74
     0
 42
0.000000001
 43
0.00000001
 40
0.0
 40
0.0
 40
0.0
 40
0.0
 40
1.0
 40
1.0
 40
1.0
 40
1.0
 10
175.3500565441554
 20
88.15426939959067
 30
0.0
 10
174.9643879655291
 20
88.84606369043485
 30
0.0
 10
174.5794016890361
 20
89.53824986475855
 30
0.0
 10
174.1952669404518
 20
90.23089128670274
 30
0.0
  0
LINE
  5
B8
330
1F
100
AcDbEntity
  8
0
  6
Continuous
 62
     7
370
    15
100
AcDbLine
 10
174.1952669405
 20
90.2308912867
 30
0.0
 11
174.1952669405
 21
106.2877117278
 31
0.0
  0
SPLINE
  5
B9
330
1F
100
AcDbEntity
  8
0
  6
Continuous
 62
     7
370
    15
100
AcDbSpline
210
0.0
220
0.0
230
1.0
 70
    24
 71
     3
 72
    14
 73
    10
 74
     0
 42
0.000000001
 43
0.00000001
 40
0.0
 40
0.0
 40
0.0
 40
0.0
 40
0.25
 40
0.25
 40
0.5
 40
0.5
 40
0.75
 40
0.75
 40
1.0
 40
1.0
 40
1.0
 40
1.0
 10
174.1952669404517
 20
136.3977177462042
 30
0.0
 10
174.1952669404517
 20
136.3977177462042
 30
0.0
 10
174.179185338992
 20
136.3977177462042
 30
0.0
 10
174.1136938257251
 20
136.3977177462042
 30
0.0
 10
174.0643858525977
 20
136.3977177462042
 30
0.0
 10
173.9298163309008
 20
136.3977177462042
 30
0.0
 10
173.8442932548155
 20
136.3977177462042
 30
0.0
 10
173.6372977592605
 20
136.3977177462042
 30
0.0
 10
173.5166041253169
 20
136.3977177462042
 30
0.0
 10
173.3952669404518
 20
136.3977177462042
 30
0.0
  0
SPLINE
  5
BA
330
1F
100
AcDbEntity
  8
0
  6
Continuous
 62
     7
370
    15
100
AcDbSpline
210
0.0
220
0.0
230
1.0
 70
     8
 71
     3
 72
    12
 73
     8
 74
     0
 42
0.000000001
 43
0.00000001
 40
0.0
 40
0.0
 40
0.0
 40
0.0
 40
0.2499999999999978
 40
0.2499999999999978
 40
0.4999999999999957
 40
0.4999999999999957
 40
1.0
 40
1.0
 40
1.0
 40
1.0
 10
171.1752669404517
 20
91.22985988991746
 30
0.0
 10
171.0676803394896
 20
91.22985988991748
 30
0.0
 10
170.9616755855202
 20
91.20721851103039
 30
0.0
 10
170.7650505391714
 20
91.12031864643666
 30
0.0
 10
170.6771653659494
 20
91.05738643132871
 30
0.0
 10
170.456612772845
 20
90.82238263276933
 30
0.0
 10
170.3752669404518
 20
90.60916494449847
 30
0.0
 10
170.3752669404518
 20
90.39563825839717
 30
0.0
  0
SPLINE
  5
BB
330
1F
100
AcDbEntity
  8
0
  6
Continuous
 62
     7
370
    15
100
AcDbSpline
210
0.0
220
0.0
230
1.0
 70
    24
 71
     3
 72
    12
 73
     8
 74
     0
 42
0.000000001
 43
0.00000001
 40
0.0
 40
0.0
 40
0.0
 40
0.0
 40
0.2500000000000005
 40
0.2500000000000005
 40
0.500000000000001
 40
0.500000000000001
 40
1.0
 40
1.0
 40
1.0
 40
1.0
 10
171.1752669404517
 20
136.3977177462042
 30
0.0
 10
171.0537891686473
 20
136.3977177462042
 30
0.0
 10
170.9312356969853
 20
136.3977177462042
 30
0.0
 10
170.727182543447
 20
136.3977177462042
 30
0.0
 10
170.6410234802212
 20
136.3977177462042
 30
0.0
 10
170.4389829135254
 20
136.3977177462042
 30
0.0
 10
170.3752669404518
 20
136.3977177462042
 30
0.0
 10
170.3752669404518
 20
136.3977177462042
 30
0.0
  0
LINE
  5
BC
330
1F
100
AcDbEntity
  8
0
  6
Continuous
 62
     7
370
    15
100
AcDbLine
 10
173.3952669405
 20
91.2298598899
 30
0.0
 11
171.1752669405
 21
91.2298598899
 31
0.0
  0
LINE
  5
BD
330
1F
100
AcDbEntity
  8
0
  6
Continuous
 62
     7
370
    15
100
AcDbLine
 10
173.3952669405
 20
136.3977177462
 30
0.0
 11
171.1752669405
 21
136.3977177462
 31
0.0
  0
SPLINE
  5
BE
330
1F
100
AcDbEntity
  8
0
  6
Continuous
 62
     7
370
    15
100
AcDbSpline
210
0.0
220
0.0
230
1.0
 70
     8
 71
     3
 72
    12
 73
     8
 74
     0
 42
0.000000001
 43
0.00000001
 40
0.0
 40
0.0
 40
0.0
 40
0.0
 40
0.4999999999999987
 40
0.4999999999999987
 40
0.7499999999999993
 40
0.7499999999999993
 40
1.0
 40
1.0
 40
1.0
 40
1.0
 10
174.1952669404517
 20
90.39563825839716
 30
0.0
 10
174.1952669404517
 20
90.60846081733004
 30
0.0
 10
174.113341582632
 20
90.82271732396802
 30
0.0
 10
173.8944197791636
 20
91.0564069524179
 30
0.0
 10
173.8043724876726
 20
91.12089177726187
 30
0.0
 10
173.6089590196527
 20
91.20709138841744
 30
0.0
 10
173.501676052669
 20
91.22985988991746
 30
0.0
 10
173.3952669404517
 20
91.22985988991746
 30
0.0
  0
ELLIPSE
  5
BF
330
1F
100
AcDbEntity
  8
0
  6
Continuous
 62
     7
370
    15
100
AcDbEllipse
 10
174.1852669405
 20
111.1601276857
 30
0.0
 11
1.383467579512086
 21
-1.091267719176599
 31
0.0
210
0.0
220
0.0
230
1.0
 40
0.8239737799
 41
4.685687975598642
 42
5.28872459634726
  0
ELLIPSE
  5
C0
330
1F
100
AcDbEntity
  8
0
  6
Continuous
 62
     7
370
    15
100
AcDbEllipse
 10
174.1852669405
 20
111.1601276857
 30
0.0
 11
1.383467579512086
 21
1.753907414218503
 31
0.0
210
0.0
220
0.0
230
1.0
 40
0.5126701559
 41
2.903408262560093
 42
4.13605336442215
  0
SPLINE
  5
C1
330
1F
100
AcDbEntity
  8
0
  6
Continuous
 62
     7
370
    15
100
AcDbSpline
210
0.0
220
0.0
230
1.0
 70
    24
 71
     3
 72
    12
 73
     8
 74
     0
 42
0.000000001
 43
0.00000001
 40
0.0
 40
0.0
 40
0.0
 40
0.0
 40
0.5
 40
0.5
 40
0.75
 40
0.75
 40
1.0
 40
1.0
 40
1.0
 40
1.0
 10
180.5262003790949
 20
95.44771774620419
 30
0.0
 10
180.6450186533378
 20
95.4477177462042
 30
0.0
 10
180.7768347909227
 20
95.4477177462042
 30
0.0
 10
180.9241327247711
 20
95.44771774620419
 30
0.0
 10
180.9648160764654
 20
95.44771774620419
 30
0.0
 10
181.020427796426
 20
95.44771774620419
 30
0.0
 10
181.0352669404517
 20
95.44771774620419
 30
0.0
 10
181.0352669404517
 20
95.44771774620419
 30
0.0
  0
SPLINE
  5
C2
330
1F
100
AcDbEntity
  8
0
  6
Continuous
 62
     7
370
    15
100
AcDbSpline
210
0.0
220
0.0
230
1.0
 70
     8
 71
     3
 72
    14
 73
    10
 74
     0
 42
0.000000001
 43
0.00000001
 40
0.0
 40
0.0
 40
0.0
 40
0.0
 40
0.2499999999999994
 40
0.2499999999999994
 40
0.4999999999999997
 40
0.4999999999999997
 40
0.7499999999999999
 40
0.7499999999999999
 40
1.0
 40
1.0
 40
1.0
 40
1.0
 10
180.2352669404517
 20
94.35168266904668
 30
0.0
 10
180.2352669404517
 20
94.51318710167088
 30
0.0
 10
180.246110889525
 20
94.66200026767197
 30
0.0
 10
180.286298266062
 20
94.93379848063951
 30
0.0
 10
180.3146110835904
 20
95.0500767352292
 30
0.0
 10
180.3794418564621
 20
95.24474524716834
 30
0.0
 10
180.4144729651867
 20
95.3188289099262
 30
0.0
 10
180.4790588480779
 20
95.42126527385707
 30
0.0
 10
180.5074525527401
 20
95.44771774620419
 30
0.0
 10
180.5262003790949
 20
95.44771774620419
 30
0.0
  0
ARC
  5
C3
330
1F
100
AcDbEntity
  8
0
  6
Continuous
 62
     7
370
    15
100
AcDbCircle
 10
174.1958678728
 20
110.2015937186
 30
0.0
 40
1.698305447977982
100
AcDbArc
 50
269.64235372
 51
313.3733513521
  0
ARC
  5
C4
330
1F
100
AcDbEntity
  8
0
  6
Continuous
 62
     7
370
    15
100
AcDbCircle
 10
174.1495869497
 20
110.134775203
 30
0.0
 40
1.631843961235683
100
AcDbArc
 50
198.5583822841
 51
271.2528623153
  0
ELLIPSE
  5
C5
330
1F
100
AcDbEntity
  8
0
  6
Continuous
 62
     7
370
    15
100
AcDbEllipse
 10
174.1852669405
 20
111.1601276857
 30
0.0
 11
1.383467579512086
 21
-1.091267719176599
 31
0.0
210
0.0
220
0.0
230
1.0
 40
0.8239737799
 41
5.288724596347254
 42
5.331125843610397
  0
SPLINE
  5
C6
330
1F
100
AcDbEntity
  8
0
  6
Continuous
 62
     7
370
    15
100
AcDbSpline
210
0.0
220
0.0
230
1.0
 70
     8
 71
     3
 72
     8
 73
     4
 74
     0
 42
0.000000001
 43
0.00000001
 40
0.0
 40
0.0
 40
0.0
 40
0.0
 40
1.0
 40
1.0
 40
1.0
 40
1.0
 10
174.2552080365881
 20
109.5985758198429
 30
0.0
 10
174.2382233104983
 20
109.605691529888
 30
0.0
 10
174.2212191659696
 20
109.6135666594039
 30
0.0
 10
174.2042202819027
 20
109.6221897788513
 30
0.0
  0
ELLIPSE
  5
C7
330
1F
100
AcDbEntity
  8
0
  6
Continuous
 62
     7
370
    15
100
AcDbEllipse
 10
174.1852669405
 20
111.1601276857
 30
0.0
 11
1.383467579512086
 21
1.753907414218503
 31
0.0
210
0.0
220
0.0
230
1.0
 40
0.5126701559
 41
4.136053364422159
 42
4.147540490640484
  0
LINE
  5
C8
330
1F
100
AcDbEntity
  8
0
  6
Continuous
 62
     7
370
    15
100
AcDbLine
 10
161.1852669405
 20
95.8227177462
 30
0.0
 11
161.1852669405
 21
140.2727177462
 31
0.0
  0
SPLINE
  5
C9
330
1F
100
AcDbEntity
  8
0
  6
Continuous
 62
     7
370
    15
100
AcDbSpline
210
0.0
220
0.0
230
1.0
 70
     8
 71
     3
 72
    54
 73
    50
 74
     0
 42
0.000000001
 43
0.00000001
 40
0.0
 40
0.0
 40
0.0
 40
0.0
 40
0.0312500000000001
 40
0.0312500000000001
 40
0.0625000000000001
 40
0.0625000000000001
 40
0.1250000000000002
 40
0.1250000000000002
 40
0.1875000000000004
 40
0.1875000000000004
 40
0.2187500000000005
 40
0.2187500000000005
 40
0.2500000000000006
 40
0.2500000000000006
 40
0.3125000000000001
 40
0.3125000000000001
 40
0.3749999999999996
 40
0.3749999999999996
 40
0.4062499999999994
 40
0.4062499999999994
 40
0.4374999999999991
 40
0.4374999999999991
 40
0.4999999999999987
 40
0.4999999999999987
 40
0.531249999999999
 40
0.531249999999999
 40
0.5624999999999992
 40
0.5624999999999992
 40
0.6249999999999997
 40
0.6249999999999997
 40
0.6562499999999996
 40
0.6562499999999996
 40
0.6874999999999993
 40
0.6874999999999993
 40
0.749999999999999
 40
0.749999999999999
 40
0.7812499999999992
 40
0.7812499999999992
 40
0.8124999999999994
 40
0.8124999999999994
 40
0.8749999999999998
 40
0.8749999999999998
 40
0.9062499999999998
 40
0.9062499999999998
 40
0.9374999999999999
 40
0.9374999999999999
 40
0.9687499999999999
 40
0.9687499999999999
 40
1.0
 40
1.0
 40
1.0
 40
1.0
 10
205.2352669404517
 20
118.0477177462042
 30
0.0
 10
205.2352669404517
 20
117.8188475821816
 30
0.0
 10
205.2210888075302
 20
117.5897928433842
 30
0.0
 10
205.163765521723
 20
117.1313066218396
 30
0.0
 10
205.1204110403111
 20
116.9022941621349
 30
0.0
 10
204.9513360886394
 20
116.2342509061891
 30
0.0
 10
204.7858006869988
 20
115.8061453739514
 30
0.0
 10
204.3576457815425
 20
114.9891655529044
 30
0.0
 10
204.1016516220613
 20
114.6121290532955
 30
0.0
 10
203.6616575755733
 20
114.0878205567454
 30
0.0
 10
203.5047430544831
 20
113.919250481976
 30
0.0
 10
203.1768881214813
 20
113.6001921347244
 30
0.0
 10
203.0061003027388
 20
113.4496475295959
 30
0.0
 10
202.4742627007291
 20
113.0232049008072
 30
0.0
 10
202.0924343265999
 20
112.7714683530263
 30
0.0
 10
201.2842560444148
 20
112.3355548518231
 30
0.0
 10
200.8656104151498
 20
112.1552002747764
 30
0.0
 10
200.2169047438131
 20
111.9370677110961
 30
0.0
 10
199.9971881369742
 20
111.8731593113745
 30
0.0
 10
199.5506979504723
 20
111.7630359539629
 30
0.0
 10
199.3231638036242
 20
111.716767657408
 30
0.0
 10
198.6416652494114
 20
111.606886908679
 30
0.0
 10
198.1855736102462
 20
111.5709261032387
 30
0.0
 10
197.4988498043135
 20
111.5715273993673
 30
0.0
 10
197.2695084657007
 20
111.5808738243928
 30
0.0
 10
196.8099392208707
 20
111.6183008635042
 30
0.0
 10
196.5792139111988
 20
111.6465531571946
 30
0.0
 10
195.8985860532767
 20
111.7581437667225
 30
0.0
 10
195.4559977878968
 20
111.8682344273667
 30
0.0
 10
194.8086704446942
 20
112.0870992136323
 30
0.0
 10
194.5956697088364
 20
112.1690645206111
 30
0.0
 10
194.1753983259033
 20
112.3517930504993
 30
0.0
 10
193.9677131722619
 20
112.4528962387547
 30
0.0
 10
193.3658517196778
 20
112.7792338587909
 30
0.0
 10
192.9885368964667
 20
113.0288135135112
 30
0.0
 10
192.4595282659804
 20
113.4538846609348
 30
0.0
 10
192.2893960048211
 20
113.6040853975265
 30
0.0
 10
191.9623516757219
 20
113.9228455913319
 30
0.0
 10
191.8052335459944
 20
114.0918741822032
 30
0.0
 10
191.3656570366002
 20
114.6165570972334
 30
0.0
 10
191.1107619270634
 20
114.9929365928406
 30
0.0
 10
190.7916061043841
 20
115.60236064403
 30
0.0
 10
190.6955611202964
 20
115.8142039326813
 30
0.0
 10
190.5311091989119
 20
116.2425120630464
 30
0.0
 10
190.4619777748532
 20
116.4600821665439
 30
0.0
 10
190.3502193418557
 20
116.9021691631828
 30
0.0
 10
190.3075886209258
 20
117.1266850535377
 30
0.0
 10
190.2500572095312
 20
117.5830056088452
 30
0.0
 10
190.2352669404517
 20
117.8166397025816
 30
0.0
 10
190.2352669404517
 20
118.0477177462042
 30
0.0
  0
SPLINE
  5
CA
330
1F
100
AcDbEntity
  8
0
  6
Continuous
 62
     7
370
    15
100
AcDbSpline
210
0.0
220
0.0
230
1.0
 70
     8
 71
     3
 72
    44
 73
    40
 74
     0
 42
0.000000001
 43
0.00000001
 40
0.0
 40
0.0
 40
0.0
 40
0.0
 40
0.0625000000000002
 40
0.0625000000000002
 40
0.0937500000000003
 40
0.0937500000000003
 40
0.1250000000000004
 40
0.1250000000000004
 40
0.1875000000000004
 40
0.1875000000000004
 40
0.2500000000000004
 40
0.2500000000000004
 40
0.3125000000000003
 40
0.3125000000000003
 40
0.3750000000000003
 40
0.3750000000000003
 40
0.4375000000000003
 40
0.4375000000000003
 40
0.5000000000000002
 40
0.5000000000000002
 40
0.5625000000000002
 40
0.5625000000000002
 40
0.6250000000000001
 40
0.6250000000000001
 40
0.6875000000000001
 40
0.6875000000000001
 40
0.75
 40
0.75
 40
0.8124999999999999
 40
0.8124999999999999
 40
0.8437499999999998
 40
0.8437499999999998
 40
0.8749999999999997
 40
0.8749999999999997
 40
0.9375
 40
0.9375
 40
0.96875
 40
0.96875
 40
1.0
 40
1.0
 40
1.0
 40
1.0
 10
190.2352669404517
 20
118.0477177462042
 30
0.0
 10
190.2352669404517
 20
118.5103716379874
 30
0.0
 10
190.2927235363587
 20
118.9657373630251
 30
0.0
 10
190.4626858289729
 20
119.6381994951127
 30
0.0
 10
190.5335913893071
 20
119.8602737162128
 30
0.0
 10
190.6989903833715
 20
120.2892451181065
 30
0.0
 10
190.7938324856965
 20
120.4977134038005
 30
0.0
 10
191.1130334151729
 20
121.1060492825541
 30
0.0
 10
191.3744488919167
 20
121.4909338826161
 30
0.0
 10
191.962104692803
 20
122.1891910678726
 30
0.0
 10
192.2907978977834
 20
122.5074451741847
 30
0.0
 10
193.0098450671159
 20
123.082209826152
 30
0.0
 10
193.3909511604961
 20
123.3315051915743
 30
0.0
 10
194.1898051626286
 20
123.7611644602291
 30
0.0
 10
194.6080520106074
 20
123.9417836371006
 30
0.0
 10
195.4828221150538
 20
124.2349301499489
 30
0.0
 10
195.927693953183
 20
124.3434809659244
 30
0.0
 10
196.8298404506057
 20
124.4884706892386
 30
0.0
 10
197.2890190277033
 20
124.5249821005348
 30
0.0
 10
198.2143609999536
 20
124.523210074617
 30
0.0
 10
198.6707634645028
 20
124.4852040182148
 30
0.0
 10
199.5714769332515
 20
124.3372069797415
 30
0.0
 10
200.0174523978035
 20
124.2266743120907
 30
0.0
 10
200.8895903396746
 20
123.930873452635
 30
0.0
 10
201.3065490443918
 20
123.7490533423781
 30
0.0
 10
202.1028147898057
 20
123.3171209859361
 30
0.0
 10
202.4837936362416
 20
123.0657782746513
 30
0.0
 10
203.1972101509967
 20
122.491321177661
 30
0.0
 10
203.5210705135284
 20
122.1755762116668
 30
0.0
 10
203.9559343590112
 20
121.6567269572766
 30
0.0
 10
204.0923369946206
 20
121.4761827312342
 30
0.0
 10
204.3468390331882
 20
121.0986769648064
 30
0.0
 10
204.465645438513
 20
120.9003051475542
 30
0.0
 10
204.78583026108
 20
120.2890051357513
 30
0.0
 10
204.9508899437938
 20
119.862792617491
 30
0.0
 10
205.1204619469781
 20
119.1930174523688
 30
0.0
 10
205.1638904575239
 20
118.9632556559
 30
0.0
 10
205.2210575816134
 20
118.505766141459
 30
0.0
 10
205.2352669404517
 20
118.2768344343112
 30
0.0
 10
205.2352669404517
 20
118.0477177462042
 30
0.0
  0
LINE
  5
CB
330
1F
100
AcDbEntity
  8
0
  6
Continuous
 62
     7
370
    15
100
AcDbLine
 10
209.8852669405
 20
97.0477177462
 30
0.0
 11
209.8852669405
 21
139.0477177462
 31
0.0
  0
LINE
  5
CC
330
1F
100
AcDbEntity
  8
0
  6
Continuous
 62
     7
370
    15
100
AcDbLine
 10
210.2852669405
 20
97.4477177462
 30
0.0
 11
210.2852669405
 21
138.6477177462
 31
0.0
  0
LINE
  5
CD
330
1F
100
AcDbEntity
  8
0
  6
Continuous
 62
     7
370
    15
100
AcDbLine
 10
173.3952669405
 20
144.8655756025
 30
0.0
 11
171.1752669405
 21
144.8655756025
 31
0.0
  0
LINE
  5
CE
330
1F
100
AcDbEntity
  8
0
  6
Continuous
 62
     7
370
    15
100
AcDbLine
 10
171.1752669405
 20
139.1966538897
 30
0.0
 11
173.3952669405
 21
139.1966538897
 31
0.0
  0
SPLINE
  5
CF
330
1F
100
AcDbEntity
  8
0
  6
Continuous
 62
     7
370
    15
100
AcDbSpline
210
0.0
220
0.0
230
1.0
 70
     8
 71
     3
 72
     8
 73
     4
 74
     0
 42
0.000000001
 43
0.00000001
 40
0.0
 40
0.0
 40
0.0
 40
0.0
 40
0.0012409313617635
 40
0.0012409313617635
 40
0.0012409313617635
 40
0.0012409313617635
 10
169.3213122541557
 20
147.7602559024687
 30
0.0
 10
169.1360884145997
 20
148.0217834459459
 30
0.0
 10
168.9501032266272
 20
148.2830419477212
 30
0.0
 10
168.763430298395
 20
148.5440538254198
 30
0.0
  0
SPLINE
  5
D0
330
1F
100
AcDbEntity
  8
0
  6
Continuous
 62
     7
370
    15
100
AcDbSpline
210
0.0
220
0.0
230
1.0
 70
     8
 71
     3
 72
     8
 73
     4
 74
     0
 42
0.000000001
 43
0.00000001
 40
0.0
 40
0.0
 40
0.0
 40
0.0
 40
1.0
 40
1.0
 40
1.0
 40
1.0
 10
170.3752669404518
 20
145.8645442057057
 30
0.0
 10
170.0246147001242
 20
146.4968126147561
 30
0.0
 10
169.673256277064
 20
147.1286945144549
 30
0.0
 10
169.3213122541557
 20
147.7602559024687
 30
0.0
  0
SPLINE
  5
D1
330
1F
100
AcDbEntity
  8
0
  6
Continuous
 62
     7
370
    15
100
AcDbSpline
210
0.0
220
0.0
230
1.0
 70
     8
 71
     3
 72
     8
 73
     4
 74
     0
 42
0.000000001
 43
0.00000001
 40
0.0
 40
0.0
 40
0.0
 40
0.0
 40
1.0
 40
1.0
 40
1.0
 40
1.0
 10
168.763430298395
 20
143.9579473862518
 30
0.0
 10
169.3123750765919
 20
142.7928512739381
 30
0.0
 10
169.8509854511087
 20
141.6236929571136
 30
0.0
 10
170.3752669404518
 20
140.4498568020627
 30
0.0
  0
LINE
  5
D2
330
1F
100
AcDbEntity
  8
0
  6
Continuous
 62
     7
370
    15
100
AcDbLine
 10
168.7634302984
 20
143.9579473863
 30
0.0
 11
168.7634302984
 21
148.5440538254
 31
0.0
  0
LINE
  5
D3
330
1F
100
AcDbEntity
  8
0
  6
Continuous
 62
     7
370
    15
100
AcDbLine
 10
170.3752669405
 20
140.4498568021
 30
0.0
 11
170.3752669405
 21
145.8645442057
 31
0.0
  0
LINE
  5
D4
330
1F
100
AcDbEntity
  8
0
  6
Continuous
 62
     7
370
    15
100
AcDbLine
 10
179.6352669405
 20
148.5440538254
 30
0.0
 11
175.8071035825
 21
148.5440538254
 31
0.0
  0
LINE
  5
D5
330
1F
100
AcDbEntity
  8
0
  6
Continuous
 62
     7
370
    15
100
AcDbLine
 10
175.8071035825
 20
143.9579473863
 30
0.0
 11
179.6352669405
 21
143.9579473863
 31
0.0
  0
LINE
  5
D6
330
1F
100
AcDbEntity
  8
0
  6
Continuous
 62
     7
370
    15
100
AcDbLine
 10
175.8071035825
 20
143.9579473863
 30
0.0
 11
175.8071035825
 21
148.5440538254
 31
0.0
  0
SPLINE
  5
D7
330
1F
100
AcDbEntity
  8
0
  6
Continuous
 62
     7
370
    15
100
AcDbSpline
210
0.0
220
0.0
230
1.0
 70
     8
 71
     3
 72
    12
 73
     8
 74
     0
 42
0.000000001
 43
0.00000001
 40
0.0
 40
0.0
 40
0.0
 40
0.0
 40
0.4999999999999996
 40
0.4999999999999996
 40
0.7499999999999998
 40
0.7499999999999998
 40
1.0
 40
1.0
 40
1.0
 40
1.0
 10
180.2352669404517
 20
148.0582688796454
 30
0.0
 10
180.2352669404517
 20
148.1785959126985
 30
0.0
 10
180.1814721288588
 20
148.2966934861803
 30
0.0
 10
180.0205485588925
 20
148.4363362286193
 30
0.0
 10
179.9557970977899
 20
148.4746121820138
 30
0.0
 10
179.8035769144723
 20
148.5294520116482
 30
0.0
 10
179.7207693989473
 20
148.5440538254198
 30
0.0
 10
179.6352669404518
 20
148.5440538254198
 30
0.0
  0
SPLINE
  5
D8
330
1F
100
AcDbEntity
  8
0
  6
Continuous
 62
     7
370
    15
100
AcDbSpline
210
0.0
220
0.0
230
1.0
 70
     8
 71
     3
 72
    14
 73
    10
 74
     0
 42
0.000000001
 43
0.00000001
 40
0.0
 40
0.0
 40
0.0
 40
0.0
 40
0.25
 40
0.25
 40
0.5
 40
0.5
 40
0.75
 40
0.75
 40
1.0
 40
1.0
 40
1.0
 40
1.0
 10
179.6352669404518
 20
143.9579473862518
 30
0.0
 10
179.7236894785742
 20
143.9579473862518
 30
0.0
 10
179.8117434682673
 20
143.9328750357924
 30
0.0
 10
179.9635732321386
 20
143.8465329708211
 30
0.0
 10
180.0294161767024
 20
143.7849897163082
 30
0.0
 10
180.1332152372479
 20
143.6431619700573
 30
0.0
 10
180.1716873467226
 20
143.5631133800872
 30
0.0
 10
180.2229100099972
 20
143.3941008834135
 30
0.0
 10
180.2352669404517
 20
143.3073215765438
 30
0.0
 10
180.2352669404517
 20
143.2191301022878
 30
0.0
  0
LINE
  5
D9
330
1F
100
AcDbEntity
  8
0
  6
Continuous
 62
     7
370
    15
100
AcDbLine
 10
180.2352669405
 20
143.2191301023
 30
0.0
 11
180.2352669405
 21
148.0582688796
 31
0.0
  0
SPLINE
  5
DA
330
1F
100
AcDbEntity
  8
0
  6
Continuous
 62
     7
370
    15
100
AcDbSpline
210
0.0
220
0.0
230
1.0
 70
     8
 71
     3
 72
     8
 73
     4
 74
     0
 42
0.000000001
 43
0.00000001
 40
0.0
 40
0.0
 40
0.0
 40
0.0
 40
1.0
 40
1.0
 40
1.0
 40
1.0
 10
175.2492216267478
 20
147.7602559024687
 30
0.0
 10
174.8972776038395
 20
147.1286945144549
 30
0.0
 10
174.5459191807793
 20
146.4968126147561
 30
0.0
 10
174.1952669404518
 20
145.8645442057057
 30
0.0
  0
SPLINE
  5
DB
330
1F
100
AcDbEntity
  8
0
  6
Continuous
 62
     7
370
    15
100
AcDbSpline
210
0.0
220
0.0
230
1.0
 70
     8
 71
     3
 72
     8
 73
     4
 74
     0
 42
0.000000001
 43
0.00000001
 40
0.0
 40
0.0
 40
0.0
 40
0.0
 40
0.0012409313617634
 40
0.0012409313617634
 40
0.0012409313617634
 40
0.0012409313617634
 10
175.8071035825085
 20
148.5440538254198
 30
0.0
 10
175.6204306542763
 20
148.2830419477212
 30
0.0
 10
175.4344454663038
 20
148.0217834459459
 30
0.0
 10
175.2492216267478
 20
147.7602559024687
 30
0.0
  0
SPLINE
  5
DC
330
1F
100
AcDbEntity
  8
0
  6
Continuous
 62
     7
370
    15
100
AcDbSpline
210
0.0
220
0.0
230
1.0
 70
     8
 71
     3
 72
     8
 73
     4
 74
     0
 42
0.000000001
 43
0.00000001
 40
0.0
 40
0.0
 40
0.0
 40
0.0
 40
1.0
 40
1.0
 40
1.0
 40
1.0
 10
174.1952669404518
 20
140.4498568020627
 30
0.0
 10
174.7200580599477
 20
141.6248339897674
 30
0.0
 10
175.2585743111305
 20
142.7937331575056
 30
0.0
 10
175.8071035825085
 20
143.9579473862518
 30
0.0
  0
LINE
  5
DD
330
1F
100
AcDbEntity
  8
0
  6
Continuous
 62
     7
370
    15
100
AcDbLine
 10
174.1952669405
 20
140.4498568021
 30
0.0
 11
174.1952669405
 21
145.8645442057
 31
0.0
  0
SPLINE
  5
DE
330
1F
100
AcDbEntity
  8
0
  6
Continuous
 62
     7
370
    15
100
AcDbSpline
210
0.0
220
0.0
230
1.0
 70
     8
 71
     3
 72
    12
 73
     8
 74
     0
 42
0.000000001
 43
0.00000001
 40
0.0
 40
0.0
 40
0.0
 40
0.0
 40
0.5
 40
0.5
 40
0.75
 40
0.75
 40
1.0
 40
1.0
 40
1.0
 40
1.0
 10
174.1952669404518
 20
145.6997972340113
 30
0.0
 10
174.1952669404518
 20
145.4866598323598
 30
0.0
 10
174.1126245253038
 20
145.2716803076221
 30
0.0
 10
173.8940411144934
 20
145.0387612387363
 30
0.0
 10
173.8049511615127
 20
144.9748943289158
 30
0.0
 10
173.6095458436152
 20
144.8885081745341
 30
0.0
 10
173.5030217966718
 20
144.8655756024909
 30
0.0
 10
173.3952669404517
 20
144.8655756024909
 30
0.0
  0
SPLINE
  5
DF
330
1F
100
AcDbEntity
  8
0
  6
Continuous
 62
     7
370
    15
100
AcDbSpline
210
0.0
220
0.0
230
1.0
 70
     8
 71
     3
 72
    12
 73
     8
 74
     0
 42
0.000000001
 43
0.00000001
 40
0.0
 40
0.0
 40
0.0
 40
0.0
 40
0.2500000000000015
 40
0.2500000000000015
 40
0.500000000000003
 40
0.500000000000003
 40
1.0
 40
1.0
 40
1.0
 40
1.0
 10
173.3952669404517
 20
139.1966538896607
 30
0.0
 10
173.5173489379401
 20
139.1966538896607
 30
0.0
 10
173.6379394804258
 20
139.2353802458344
 30
0.0
 10
173.8434347641256
 20
139.3653438335807
 30
0.0
 10
173.9289512470781
 20
139.4545500701274
 30
0.0
 10
174.1323455986223
 20
139.759426607673
 30
0.0
 10
174.1952669404518
 20
140.0021972217751
 30
0.0
 10
174.1952669404517
 20
140.2449585657295
 30
0.0
  0
SPLINE
  5
E0
330
1F
100
AcDbEntity
  8
0
  6
Continuous
 62
     7
370
    15
100
AcDbSpline
210
0.0
220
0.0
230
1.0
 70
     8
 71
     3
 72
    12
 73
     8
 74
     0
 42
0.000000001
 43
0.00000001
 40
0.0
 40
0.0
 40
0.0
 40
0.0
 40
0.5
 40
0.5
 40
0.75
 40
0.75
 40
1.0
 40
1.0
 40
1.0
 40
1.0
 10
164.3852669404517
 20
143.2191301022878
 30
0.0
 10
164.3852669404517
 20
143.393890277622
 30
0.0
 10
164.43518714177
 20
143.5715953814073
 30
0.0
 10
164.5905290396818
 20
143.7843521232525
 30
0.0
 10
164.6563797382061
 20
143.8461454959776
 30
0.0
 10
164.8088258060446
 20
143.9329520836586
 30
0.0
 10
164.8978359061641
 20
143.9579473862519
 30
0.0
 10
164.9852669404517
 20
143.9579473862519
 30
0.0
  0
LINE
  5
E1
330
1F
100
AcDbEntity
  8
0
  6
Continuous
 62
     7
370
    15
100
AcDbLine
 10
164.9852669405
 20
143.9579473863
 30
0.0
 11
168.7634302984
 21
143.9579473863
 31
0.0
  0
SPLINE
  5
E2
330
1F
100
AcDbEntity
  8
0
  6
Continuous
 62
     7
370
    15
100
AcDbSpline
210
0.0
220
0.0
230
1.0
 70
     8
 71
     3
 72
    14
 73
    10
 74
     0
 42
0.000000001
 43
0.00000001
 40
0.0
 40
0.0
 40
0.0
 40
0.0
 40
0.25
 40
0.25
 40
0.5
 40
0.5
 40
0.75
 40
0.75
 40
1.0
 40
1.0
 40
1.0
 40
1.0
 10
170.3752669404518
 20
140.2449585657295
 30
0.0
 10
170.3752669404518
 20
140.1240665076411
 30
0.0
 10
170.3917624128449
 20
140.0016012325531
 30
0.0
 10
170.4569944795668
 20
139.7697800890014
 30
0.0
 10
170.5066123139856
 20
139.6568062136939
 30
0.0
 10
170.6412531499893
 20
139.4551007438184
 30
0.0
 10
170.727575015137
 20
139.3649688967404
 30
0.0
 10
170.9327626682389
 20
139.2353480183596
 30
0.0
 10
171.0527306908539
 20
139.1966538896607
 30
0.0
 10
171.1752669404517
 20
139.1966538896607
 30
0.0
  0
LINE
  5
E3
330
1F
100
AcDbEntity
  8
0
  6
Continuous
 62
     7
370
    15
100
AcDbLine
 10
170.3752669405
 20
140.4498568021
 30
0.0
 11
170.3752669405
 21
140.2449585657
 31
0.0
  0
LINE
  5
E4
330
1F
100
AcDbEntity
  8
0
  6
Continuous
 62
     7
370
    15
100
AcDbLine
 10
174.1952669405
 20
140.2449585657
 30
0.0
 11
174.1952669405
 21
140.4498568021
 31
0.0
  0
LINE
  5
E5
330
1F
100
AcDbEntity
  8
0
  6
Continuous
 62
     7
370
    15
100
AcDbLine
 10
164.3852669405
 20
143.2191301023
 30
0.0
 11
164.3852669405
 21
136.3977177462
 31
0.0
  0
LINE
  5
E6
330
1F
100
AcDbEntity
  8
0
  6
Continuous
 62
     7
370
    15
100
AcDbLine
 10
180.2352669405
 20
143.2191301023
 30
0.0
 11
180.2352669405
 21
136.3977177462
 31
0.0
  0
SPLINE
  5
E7
330
1F
100
AcDbEntity
  8
0
  6
Continuous
 62
     7
370
    15
100
AcDbSpline
210
0.0
220
0.0
230
1.0
 70
     8
 71
     3
 72
    10
 73
     6
 74
     0
 42
0.000000001
 43
0.00000001
 40
0.0
 40
0.0
 40
0.0
 40
0.0
 40
0.5
 40
0.5
 40
1.0
 40
1.0
 40
1.0
 40
1.0
 10
164.6725085417593
 20
148.4730143011612
 30
0.0
 10
164.5966689477558
 20
148.4029651148326
 30
0.0
 10
164.5293454300298
 20
148.3177463412589
 30
0.0
 10
164.4227017917247
 20
148.1075202145971
 30
0.0
 10
164.3852669404517
 20
147.9840110237298
 30
0.0
 10
164.3852669404517
 20
147.8540929032071
 30
0.0
  0
SPLINE
  5
E8
330
1F
100
AcDbEntity
  8
0
  6
Continuous
 62
     7
370
    15
100
AcDbSpline
210
0.0
220
0.0
230
1.0
 70
     8
 71
     3
 72
     8
 73
     4
 74
     0
 42
0.000000001
 43
0.00000001
 40
0.0
 40
0.0
 40
0.0
 40
0.0
 40
1.0
 40
1.0
 40
1.0
 40
1.0
 10
164.9852669404517
 20
148.5440538254198
 30
0.0
 10
164.8730886862721
 20
148.5440538254198
 30
0.0
 10
164.7644191735436
 20
148.5183727601588
 30
0.0
 10
164.6725085417593
 20
148.4730143011612
 30
0.0
  0
LINE
  5
E9
330
1F
100
AcDbEntity
  8
0
  6
Continuous
 62
     7
370
    15
100
AcDbLine
 10
164.3852669405
 20
143.2191301023
 30
0.0
 11
164.3852669405
 21
147.8540929032
 31
0.0
  0
LINE
  5
EA
330
1F
100
AcDbEntity
  8
0
  6
Continuous
 62
     7
370
    15
100
AcDbLine
 10
168.7634302984
 20
148.5440538254
 30
0.0
 11
164.9852669405
 21
148.5440538254
 31
0.0
  0
SPLINE
  5
EB
330
1F
100
AcDbEntity
  8
0
  6
Continuous
 62
     7
370
    15
100
AcDbSpline
210
0.0
220
0.0
230
1.0
 70
     8
 71
     3
 72
    12
 73
     8
 74
     0
 42
0.000000001
 43
0.00000001
 40
0.0
 40
0.0
 40
0.0
 40
0.0
 40
0.25
 40
0.25
 40
0.5
 40
0.5
 40
1.0
 40
1.0
 40
1.0
 40
1.0
 10
171.1752669404517
 20
144.8655756024909
 30
0.0
 10
171.0687887279737
 20
144.8655756024909
 30
0.0
 10
170.9617827795151
 20
144.8882248001004
 30
0.0
 10
170.7656161604229
 20
144.9748118606727
 30
0.0
 10
170.6771474748681
 20
145.0380563090594
 30
0.0
 10
170.4565218613851
 20
145.2731733687926
 30
0.0
 10
170.3752669404518
 20
145.4869412008848
 30
0.0
 10
170.3752669404518
 20
145.6997972340113
 30
0.0
  0
LINE
  5
EC
330
1F
100
AcDbEntity
  8
0
  6
Continuous
 62
     7
370
    15
100
AcDbLine
 10
92.9352669405
 20
106.6405871492
 30
0.0
 11
92.9352669405
 21
129.4548482984
 31
0.0
  0
CIRCLE
  5
ED
330
1F
100
AcDbEntity
  8
0
  6
HIDDEN
 62
     7
370
     0
100
AcDbCircle
 10
197.7352669405
 20
118.0477177462
 30
0.0
 40
5.181257848382057
  0
CIRCLE
  5
EE
330
1F
100
AcDbEntity
  8
0
  6
HIDDEN
 62
     7
370
     0
100
AcDbCircle
 10
197.7352669405
 20
118.0477177462
 30
0.0
 40
4.17254713335671
  0
CIRCLE
  5
EF
330
1F
100
AcDbEntity
  8
0
  6
HIDDEN
 62
     7
370
     0
100
AcDbCircle
 10
197.7352669405
 20
118.0477177462
 30
0.0
 40
3.872547133356697
  0
SPLINE
  5
F0
330
1F
100
AcDbEntity
  8
0
  6
HIDDEN
 62
     7
370
     0
100
AcDbSpline
210
0.0
220
0.0
230
1.0
 70
     8
 71
     3
 72
    10
 73
     6
 74
     0
 42
0.000000001
 43
0.00000001
 40
0.0
 40
0.0
 40
0.0
 40
0.0
 40
0.5
 40
0.5
 40
1.0
 40
1.0
 40
1.0
 40
1.0
 10
172.2093761778114
 20
110.3011785767356
 30
0.0
 10
172.1937701268301
 20
110.195906376127
 30
0.0
 10
172.1852656638016
 20
110.091967878336
 30
0.0
 10
172.1852682173912
 20
109.89245460638
 30
0.0
 10
172.1937658049917
 20
109.8012421117096
 30
0.0
 10
172.2093761778114
 20
109.7193101793664
 30
0.0
  0
LINE
  5
F1
330
1F
100
AcDbEntity
  8
0
  6
HIDDEN
 62
     7
370
     0
100
AcDbLine
 10
172.2093761778
 20
109.7193101794
 30
0.0
 11
172.353710795
 21
109.2553242604
 31
0.0
  0
LWPOLYLINE
  5
F2
330
1F
100
AcDbEntity
  8
0
  6
HIDDEN
 62
     7
370
     0
100
AcDbPolyline
 90
       16
 70
   128
 43
0.0
 10
175.5930525583
 20
108.6753053679
 10
175.7006972193
 20
108.7837849174
 10
176.0060268149
 20
109.2326048853
 10
176.1650806267
 20
109.743898674
 10
176.1650806267
 20
110.2765900821
 10
176.0060268149
 20
110.7878838708
 10
175.7006972193
 20
111.2367038387
 10
175.2736213382
 20
111.5869927914
 10
174.7591094943
 20
111.8106092965
 10
174.1984964207
 20
111.8895885031
 10
173.6368205203
 20
111.8175853982
 10
173.1192055808
 20
111.6003845503
 10
172.6872356312
 20
111.2554353908
 10
172.3756141727
 20
110.8104503651
 10
172.2093761778
 20
110.3011785767
 10
172.2093761778
 20
110.3011785767
  0
LWPOLYLINE
  5
F3
330
1F
100
AcDbEntity
  8
0
  6
HIDDEN
 62
     7
370
     0
100
AcDbPolyline
 90
       24
 70
   128
 43
0.0
 10
164.6354785876
 20
109.1495331934
 10
164.7711338687
 20
108.5939690798
 10
164.9823372847
 20
108.0796086149
 10
165.2534248445
 20
107.6445995615
 10
165.5642912238
 20
107.3212045509
 10
165.8918808856
 20
107.1334083117
 10
166.2118980031
 20
107.0951388318
 10
166.5006083708
 20
107.2092343835
 10
166.7365996614
 20
107.4672330216
 10
166.9023694805
 20
107.8500001675
 10
166.985623439
 20
108.3291477329
 10
166.9801869717
 20
108.8691395349
 10
166.8864632763
 20
109.4299268519
 10
166.7114034108
 20
109.9699186539
 10
166.4679907644
 20
110.4490662193
 10
166.1742781395
 20
110.8318333652
 10
165.8520488581
 20
111.0898320033
 10
165.5252011916
 20
111.203927555
 10
165.2179759364
 20
111.1656580751
 10
164.9531585842
 20
110.9778618359
 10
164.7503894264
 20
110.6544668253
 10
164.624706924
 20
110.2194577719
 10
164.5854323731
 20
109.705097307
 10
164.6354785876
 20
109.1495331934
  0
LWPOLYLINE
  5
F4
330
1F
100
AcDbEntity
  8
0
  6
HIDDEN
 62
     7
370
     0
100
AcDbPolyline
 90
       21
 70
   128
 43
0.0
 10
165.016994478
 20
109.1816639808
 10
165.144943196
 20
108.6816933997
 10
165.3491459002
 20
108.2306634226
 10
165.609613807
 20
107.8727240061
 10
165.900850503
 20
107.6429127543
 10
166.1943477112
 20
107.5637251936
 10
166.46137588
 20
107.6429127543
 10
166.6757964316
 20
107.8727240061
 10
166.8166203886
 20
108.2306634226
 10
166.8700629209
 20
108.6816933997
 10
166.8308927009
 20
109.1816639808
 10
166.7029439829
 20
109.6816345618
 10
166.4987412787
 20
110.1326645389
 10
166.2382733719
 20
110.4906039554
 10
165.9470366759
 20
110.7204152072
 10
165.6535394677
 20
110.7996027679
 10
165.3865112989
 20
110.7204152072
 10
165.1720907473
 20
110.4906039554
 10
165.0312667903
 20
110.1326645389
 10
164.977824258
 20
109.6816345618
 10
165.016994478
 20
109.1816639808
  0
ELLIPSE
  5
F5
330
1F
100
AcDbEntity
  8
0
  6
HIDDEN
 62
     7
370
     0
100
AcDbEllipse
 10
174.1852669405
 20
111.1601276857
 30
0.0
 11
1.383467579512086
 21
-1.091267719176599
 31
0.0
210
0.0
220
0.0
230
1.0
 40
0.8239737799
 41
2.147131942757453
 42
4.685687975598642
  0
ELLIPSE
  5
F6
330
1F
100
AcDbEntity
  8
0
  6
HIDDEN
 62
     7
370
     0
100
AcDbEllipse
 10
174.1852669405
 20
111.1601276857
 30
0.0
 11
1.383467579512086
 21
1.753907414218503
 31
0.0
210
0.0
220
0.0
230
1.0
 40
0.5126701559
 41
0.994460710832343
 42
2.903408262560093
  0
SPLINE
  5
F7
330
1F
100
AcDbEntity
  8
0
  6
HIDDEN
 62
     7
370
     0
100
AcDbSpline
210
0.0
220
0.0
230
1.0
 70
     8
 71
     3
 72
    14
 73
    10
 74
     0
 42
0.000000001
 43
0.00000001
 40
0.0
 40
0.0
 40
0.0
 40
0.0
 40
0.25
 40
0.25
 40
0.5
 40
0.5
 40
0.75
 40
0.75
 40
1.0
 40
1.0
 40
1.0
 40
1.0
 10
172.2093761778113
 20
109.7193101793664
 30
0.0
 10
172.2457400058416
 20
109.7648048147682
 30
0.0
 10
172.2782177330517
 20
109.8131966209845
 30
0.0
 10
172.3269713624675
 20
109.9186817649141
 30
0.0
 10
172.341875140142
 20
109.975266273157
 30
0.0
 10
172.3418855737997
 20
110.0841538671074
 30
0.0
 10
172.3269952779915
 20
110.13633853287
 30
0.0
 10
172.2781063471139
 20
110.2276159318136
 30
0.0
 10
172.2457341688435
 20
110.2662826371878
 30
0.0
 10
172.2093761778114
 20
110.3011785767355
 30
0.0
  0
LWPOLYLINE
  5
F8
330
1F
100
AcDbEntity
  8
0
  6
HIDDEN
 62
     7
370
     0
100
AcDbPolyline
 90
       15
 70
   128
 43
0.0
 10
175.3621782931
 20
108.9671054043
 10
175.5201449812
 20
109.1424573652
 10
175.7545101923
 20
109.5746855488
 10
175.8352669405
 20
110.0538141811
 10
175.7545101923
 20
110.5329428135
 10
175.5201449812
 20
110.965170997
 10
175.1551126067
 20
111.3081892257
 10
174.6951449812
 20
111.5284204852
 10
174.1852669405
 20
111.6043070054
 10
173.6753888997
 20
111.5284204852
 10
173.2154212742
 20
111.3081892257
 10
172.8503888997
 20
110.965170997
 10
172.6160236886
 20
110.5329428135
 10
172.5352669405
 20
110.0538141811
 10
172.6025991336
 20
109.6154069227
  0
SPLINE
  5
F9
330
1F
100
AcDbEntity
  8
0
  6
HIDDEN
 62
     7
370
     0
100
AcDbSpline
210
0.0
220
0.0
230
1.0
 70
    11
 71
     3
 72
    60
 73
    56
 74
     0
 42
0.000000001
 43
0.00000001
 40
0.0
 40
0.0
 40
0.0
 40
0.0
 40
0.0312500000000002
 40
0.0312500000000002
 40
0.0625000000000004
 40
0.0625000000000004
 40
0.1250000000000003
 40
0.1250000000000003
 40
0.1875000000000002
 40
0.1875000000000002
 40
0.2187500000000001
 40
0.2187500000000001
 40
0.2499999999999999
 40
0.2499999999999999
 40
0.2812499999999997
 40
0.2812499999999997
 40
0.3124999999999996
 40
0.3124999999999996
 40
0.3437499999999994
 40
0.3437499999999994
 40
0.3749999999999993
 40
0.3749999999999993
 40
0.4062499999999991
 40
0.4062499999999991
 40
0.4374999999999989
 40
0.4374999999999989
 40
0.4999999999999987
 40
0.4999999999999987
 40
0.5312499999999988
 40
0.5312499999999988
 40
0.5624999999999988
 40
0.5624999999999988
 40
0.5937499999999989
 40
0.5937499999999989
 40
0.6249999999999989
 40
0.6249999999999989
 40
0.656249999999999
 40
0.656249999999999
 40
0.6874999999999991
 40
0.6874999999999991
 40
0.7187499999999991
 40
0.7187499999999991
 40
0.7499999999999992
 40
0.7499999999999992
 40
0.8124999999999994
 40
0.8124999999999994
 40
0.8437499999999997
 40
0.8437499999999997
 40
0.8749999999999998
 40
0.8749999999999998
 40
0.90625
 40
0.90625
 40
0.9375000000000002
 40
0.9375000000000002
 40
1.0
 40
1.0
 40
1.0
 40
1.0
 10
174.1852669404518
 20
115.157658155644
 30
0.0
 10
174.0750740294814
 20
115.157658155644
 30
0.0
 10
173.966964826194
 20
115.1663334247347
 30
0.0
 10
173.7546596717076
 20
115.2003497222781
 30
0.0
 10
173.6493510082486
 20
115.2261537673752
 30
0.0
 10
173.3505530476401
 20
115.3269713194877
 30
0.0
 10
173.1691308432541
 20
115.4268073362935
 30
0.0
 10
172.8679249425971
 20
115.6804432514129
 30
0.0
 10
172.745370463805
 20
115.8371520538057
 30
0.0
 10
172.6212370131857
 20
116.1011951281322
 30
0.0
 10
172.5889338963498
 20
116.1958178867812
 30
0.0
 10
172.5460842345178
 20
116.3909056830296
 30
0.0
 10
172.5353390670053
 20
116.4907965067492
 30
0.0
 10
172.5351955306523
 20
116.6954240415289
 30
0.0
 10
172.5461786516886
 20
116.8007180798764
 30
0.0
 10
172.5888503112159
 20
117.0061215166054
 30
0.0
 10
172.6204132053233
 20
117.1074625039546
 30
0.0
 10
172.704378300811
 20
117.3070601852727
 30
0.0
 10
172.7554128538117
 20
117.4020717352965
 30
0.0
 10
172.8746461845905
 20
117.5825566462418
 30
0.0
 10
172.943705241925
 20
117.668816054411
 30
0.0
 10
173.0950037657794
 20
117.8255559925509
 30
0.0
 10
173.1772364705344
 20
117.8964463527439
 30
0.0
 10
173.3553489876826
 20
118.0225992174
 30
0.0
 10
173.4514838718869
 20
118.0776448155178
 30
0.0
 10
173.7487305570058
 20
118.2103095890753
 30
0.0
 10
173.9677882977848
 20
118.2585711048441
 30
0.0
 10
174.2932419726726
 20
118.2586800260401
 30
0.0
 10
174.4030785738656
 20
118.2469163010802
 30
0.0
 10
174.617010870848
 20
118.2005102388518
 30
0.0
 10
174.7202505317915
 20
118.1663711959409
 30
0.0
 10
174.9196795883541
 20
118.0773640459073
 30
0.0
 10
175.0157720956275
 20
118.0222121751916
 30
0.0
 10
175.1933161451935
 20
117.8964041253513
 30
0.0
 10
175.2760127123067
 20
117.8251927295146
 30
0.0
 10
175.4284872706719
 20
117.6669591475027
 30
0.0
 10
175.4961641917136
 20
117.5821678648406
 30
0.0
 10
175.6151418559823
 20
117.4020103789451
 30
0.0
 10
175.6668861391825
 20
117.3054639205849
 30
0.0
 10
175.7500628458387
 20
117.1074584503245
 30
0.0
 10
175.7815738827877
 20
117.006525194309
 30
0.0
 10
175.8243094902395
 20
116.8010621054717
 30
0.0
 10
175.8353151946597
 20
116.695649714875
 30
0.0
 10
175.8351699416561
 20
116.3890265731346
 30
0.0
 10
175.7908170530718
 20
116.1893821004807
 30
0.0
 10
175.6662318447902
 20
115.9245736083093
 30
0.0
 10
175.6144480311242
 20
115.8404734361958
 30
0.0
 10
175.4944903527939
 20
115.6863878635523
 30
0.0
 10
175.4266392907982
 20
115.6163415253758
 30
0.0
 10
175.2751135520431
 20
115.4890086734132
 30
0.0
 10
175.1911442787801
 20
115.4318446786579
 30
0.0
 10
175.0136530104411
 20
115.3341641014407
 30
0.0
 10
174.9193714754869
 20
115.2929160929654
 30
0.0
 10
174.6184863682575
 20
115.191722846033
 30
0.0
 10
174.4056527623924
 20
115.157658155644
 30
0.0
 10
174.1852669404518
 20
115.157658155644
 30
0.0
  0
ELLIPSE
  5
FA
330
1F
100
AcDbEntity
  8
0
  6
HIDDEN
 62
     7
370
     0
100
AcDbEllipse
 10
174.1852669405
 20
111.1601276857
 30
0.0
 11
1.383467579512086
 21
1.753907414218503
 31
0.0
210
0.0
220
0.0
230
1.0
 40
0.5126701559
 41
0.9829735846139911
 42
0.9944607108323519
  0
SPLINE
  5
FB
330
1F
100
AcDbEntity
  8
0
  6
HIDDEN
 62
     7
370
     0
100
AcDbSpline
210
0.0
220
0.0
230
1.0
 70
     8
 71
     3
 72
     8
 73
     4
 74
     0
 42
0.000000001
 43
0.00000001
 40
0.0
 40
0.0
 40
0.0
 40
0.0
 40
1.0
 40
1.0
 40
1.0
 40
1.0
 10
174.2042202819025
 20
112.7229708358584
 30
0.0
 10
174.2212191659696
 20
112.7149875623503
 30
0.0
 10
174.2382233104983
 20
112.7062511599089
 30
0.0
 10
174.2552080365882
 20
112.6967743080788
 30
0.0
  0
ELLIPSE
  5
FC
330
1F
100
AcDbEntity
  8
0
  6
HIDDEN
 62
     7
370
     0
100
AcDbEllipse
 10
174.1852669405
 20
111.1601276857
 30
0.0
 11
1.383467579512086
 21
-1.091267719176599
 31
0.0
210
0.0
220
0.0
230
1.0
 40
0.8239737799
 41
2.104730695494729
 42
2.147131942757448
  0
LINE
  5
FD
330
1F
100
AcDbEntity
  8
0
  6
HIDDEN
 62
     7
370
     0
100
AcDbLine
 10
209.7352669405
 20
106.8294238742
 30
0.0
 11
209.7352669405
 21
129.2660116182
 31
0.0
  0
LINE
  5
FE
330
1F
100
AcDbEntity
  8
0
  6
HIDDEN
 62
     7
370
     0
100
AcDbLine
 10
206.4352669405
 20
110.0160616281
 30
0.0
 11
206.4352669405
 21
126.0793738643
 31
0.0
  0
LINE
  5
FF
330
1F
100
AcDbEntity
  8
0
  6
HIDDEN
 62
     7
370
     0
100
AcDbLine
 10
205.4352669405
 20
106.0477177462
 30
0.0
 11
205.4352669405
 21
130.0477177462
 31
0.0
  0
LINE
  5
100
330
1F
100
AcDbEntity
  8
0
  6
HIDDEN
 62
     7
370
     0
100
AcDbLine
 10
206.4352669405
 20
126.0793738643
 30
0.0
 11
209.7352669405
 21
126.0793738643
 31
0.0
  0
LINE
  5
101
330
1F
100
AcDbEntity
  8
0
  6
HIDDEN
 62
     7
370
     0
100
AcDbLine
 10
206.4352669405
 20
128.8477177462
 30
0.0
 11
206.4352669405
 21
126.0793738643
 31
0.0
  0
SPLINE
  5
102
330
1F
100
AcDbEntity
  8
0
  6
HIDDEN
 62
     7
370
     0
100
AcDbSpline
210
0.0
220
0.0
230
1.0
 70
     8
 71
     3
 72
    12
 73
     8
 74
     0
 42
0.000000001
 43
0.00000001
 40
0.0
 40
0.0
 40
0.0
 40
0.0
 40
0.4999999999999996
 40
0.4999999999999996
 40
0.7499999999999998
 40
0.7499999999999998
 40
1.0
 40
1.0
 40
1.0
 40
1.0
 10
210.2852669404517
 20
133.922311372805
 30
0.0
 10
210.2283590289501
 20
134.0218974211767
 30
0.0
 10
210.1539866426414
 20
134.0610441037061
 30
0.0
 10
210.0159143089385
 20
134.0352404413071
 30
0.0
 10
209.9650923359022
 20
134.0120795682996
 30
0.0
 10
209.8559992737627
 20
133.9379850638193
 30
0.0
 10
209.7976357597249
 20
133.8871790037969
 30
0.0
 10
209.7352669404517
 20
133.8228540587049
 30
0.0
  0
LINE
  5
103
330
1F
100
AcDbEntity
  8
0
  6
HIDDEN
 62
     7
370
     0
100
AcDbLine
 10
209.7352669405
 20
133.8228540587
 30
0.0
 11
209.7352669405
 21
133.6667735017
 31
0.0
  0
LINE
  5
104
330
1F
100
AcDbEntity
  8
0
  6
HIDDEN
 62
     7
370
     0
100
AcDbLine
 10
206.4352669405
 20
133.6667735017
 30
0.0
 11
209.7352669405
 21
133.6667735017
 31
0.0
  0
LINE
  5
105
330
1F
100
AcDbEntity
  8
0
  6
HIDDEN
 62
     7
370
     0
100
AcDbLine
 10
206.4352669405
 20
134.0477177462
 30
0.0
 11
206.4352669405
 21
128.8477177462
 31
0.0
  0
SPLINE
  5
106
330
1F
100
AcDbEntity
  8
0
  6
HIDDEN
 62
     7
370
     0
100
AcDbSpline
210
0.0
220
0.0
230
1.0
 70
     8
 71
     3
 72
    12
 73
     8
 74
     0
 42
0.000000001
 43
0.00000001
 40
0.0
 40
0.0
 40
0.0
 40
0.0
 40
0.4999999999999993
 40
0.4999999999999993
 40
0.7499999999999997
 40
0.7499999999999997
 40
1.0
 40
1.0
 40
1.0
 40
1.0
 10
209.7352669404518
 20
129.2660116182283
 30
0.0
 10
209.8596247757722
 20
129.7055015600516
 30
0.0
 10
209.9677907311802
 20
130.1378680904129
 30
0.0
 10
210.1072803871436
 20
130.7743783383868
 30
0.0
 10
210.1496307934877
 20
130.9833924316372
 30
0.0
 10
210.2243687129369
 20
131.3847695244112
 30
0.0
 10
210.2570949474512
 20
131.5786469571475
 30
0.0
 10
210.2852669404517
 20
131.7655829198671
 30
0.0
  0
LINE
  5
107
330
1F
100
AcDbEntity
  8
0
  6
HIDDEN
 62
     7
370
     0
100
AcDbLine
 10
206.4352669405
 20
102.4286619908
 30
0.0
 11
209.7352669405
 21
102.4286619908
 31
0.0
  0
LINE
  5
108
330
1F
100
AcDbEntity
  8
0
  6
HIDDEN
 62
     7
370
     0
100
AcDbLine
 10
209.7352669405
 20
102.4286619908
 30
0.0
 11
209.7352669405
 21
102.2725814337
 31
0.0
  0
SPLINE
  5
109
330
1F
100
AcDbEntity
  8
0
  6
HIDDEN
 62
     7
370
     0
100
AcDbSpline
210
0.0
220
0.0
230
1.0
 70
     8
 71
     3
 72
    12
 73
     8
 74
     0
 42
0.000000001
 43
0.00000001
 40
0.0
 40
0.0
 40
0.0
 40
0.0
 40
0.2500000000000003
 40
0.2500000000000003
 40
0.5000000000000006
 40
0.5000000000000006
 40
1.0
 40
1.0
 40
1.0
 40
1.0
 10
209.7352669404517
 20
102.2725814337035
 30
0.0
 10
209.7971512378688
 20
102.2087562069348
 30
0.0
 10
209.8551758025584
 20
102.1581541264282
 30
0.0
 10
209.9638158670115
 20
102.084081242625
 30
0.0
 10
210.0146798418283
 20
102.0605668880002
 30
0.0
 10
210.1543260370789
 20
102.0340488996341
 30
0.0
 10
210.2286598754486
 20
102.074064537819
 30
0.0
 10
210.2852669404517
 20
102.1731241196034
 30
0.0
  0
LINE
  5
10A
330
1F
100
AcDbEntity
  8
0
  6
HIDDEN
 62
     7
370
     0
100
AcDbLine
 10
206.4352669405
 20
107.2477177462
 30
0.0
 11
206.4352669405
 21
102.0477177462
 31
0.0
  0
SPLINE
  5
10B
330
1F
100
AcDbEntity
  8
0
  6
HIDDEN
 62
     7
370
     0
100
AcDbSpline
210
0.0
220
0.0
230
1.0
 70
     8
 71
     3
 72
    12
 73
     8
 74
     0
 42
0.000000001
 43
0.00000001
 40
0.0
 40
0.0
 40
0.0
 40
0.0
 40
0.4999999999999993
 40
0.4999999999999993
 40
0.7499999999999997
 40
0.7499999999999997
 40
1.0
 40
1.0
 40
1.0
 40
1.0
 10
210.2852669404517
 20
104.3298525725413
 30
0.0
 10
210.2283590289501
 20
104.7074664397149
 30
0.0
 10
210.1539866426414
 20
105.1074150100207
 30
0.0
 10
210.0159143089385
 20
105.7382257448841
 30
0.0
 10
209.9650923359022
 20
105.9548892445113
 30
0.0
 10
209.8559992737627
 20
106.3899825183263
 30
0.0
 10
209.7976357597249
 20
106.6090077766876
 30
0.0
 10
209.7352669404517
 20
106.8294238741801
 30
0.0
  0
LINE
  5
10C
330
1F
100
AcDbEntity
  8
0
  6
HIDDEN
 62
     7
370
     0
100
AcDbLine
 10
209.7352669405
 20
110.0160616281
 30
0.0
 11
206.4352669405
 21
110.0160616281
 31
0.0
  0
LINE
  5
10D
330
1F
100
AcDbEntity
  8
0
  6
HIDDEN
 62
     7
370
     0
100
AcDbLine
 10
206.4352669405
 20
110.0160616281
 30
0.0
 11
206.4352669405
 21
107.2477177462
 31
0.0
  0
LINE
  5
10E
330
1F
100
AcDbEntity
  8
0
  6
HIDDEN
 62
     7
370
     0
100
AcDbLine
 10
185.2852669405
 20
106.3477177462
 30
0.0
 11
185.2852669405
 21
129.7476118359
 31
0.0
  0
LINE
  5
10F
330
1F
100
AcDbEntity
  8
0
  6
HIDDEN
 62
     7
370
     0
100
AcDbLine
 10
187.7852669405
 20
106.0477177462
 30
0.0
 11
187.7852669405
 21
130.0477177462
 31
0.0
  0
LINE
  5
110
330
1F
100
AcDbEntity
  8
0
  6
HIDDEN
 62
     7
370
     0
100
AcDbLine
 10
164.3852669405
 20
142.8477177462
 30
0.0
 11
164.7225252407
 21
142.8477177462
 31
0.0
  0
ELLIPSE
  5
111
330
1F
100
AcDbEntity
  8
0
  6
HIDDEN
 62
     7
370
     0
100
AcDbEllipse
 10
164.7225252407
 20
144.4477177462
 30
0.0
 11
0.0
 21
1.599999999999994
 31
0.0
210
0.0
220
0.0
230
1.0
 40
0.4142135624
 41
3.141592653589793
 42
4.712388980384695
  0
LINE
  5
112
330
1F
100
AcDbEntity
  8
0
  6
HIDDEN
 62
     7
370
     0
100
AcDbLine
 10
164.7225252407
 20
95.4477177462
 30
0.0
 11
164.3852669405
 21
95.4477177462
 31
0.0
  0
ELLIPSE
  5
113
330
1F
100
AcDbEntity
  8
0
  6
HIDDEN
 62
     7
370
     0
100
AcDbEllipse
 10
164.7225252407
 20
93.8477177462
 30
0.0
 11
0.0
 21
1.59999999999998
 31
0.0
210
0.0
220
0.0
230
1.0
 40
0.4142135624
 41
4.712388980384695
 42
6.283185307179586
  0
LINE
  5
114
330
1F
100
AcDbEntity
  8
0
  6
HIDDEN
 62
     7
370
     0
100
AcDbLine
 10
165.3852669405
 20
88.1542693996
 30
0.0
 11
164.6014114818
 21
87.6959878967
 31
0.0
  0
LINE
  5
115
330
1F
100
AcDbEntity
  8
0
  6
HIDDEN
 62
     7
370
     0
100
AcDbLine
 10
164.6725085418
 20
148.4730143012
 30
0.0
 11
165.3852669405
 21
147.7602559025
 31
0.0
  0
LINE
  5
116
330
1F
100
AcDbEntity
  8
0
  6
HIDDEN
 62
     7
370
     0
100
AcDbLine
 10
99.9352669405
 20
109.5477177462
 30
0.0
 11
99.9352669405
 21
126.5477177462
 31
0.0
  0
LINE
  5
117
330
1F
100
AcDbEntity
  8
0
  6
HIDDEN
 62
     7
370
     0
100
AcDbLine
 10
102.9311961548
 20
111.0477177462
 30
0.0
 11
102.9311961548
 21
125.0477177462
 31
0.0
  0
LINE
  5
118
330
1F
100
AcDbEntity
  8
0
  6
HIDDEN
 62
     7
370
     0
100
AcDbLine
 10
209.7352669405
 20
101.2271965525
 30
0.0
 11
209.7352669405
 21
102.2725814337
 31
0.0
  0
LINE
  5
119
330
1F
100
AcDbEntity
  8
0
  6
HIDDEN
 62
     7
370
     0
100
AcDbLine
 10
209.7352669405
 20
133.8228540587
 30
0.0
 11
209.7352669405
 21
134.8682389399
 31
0.0
  0
LINE
  5
11A
330
1F
100
AcDbEntity
  8
0
  6
HIDDEN
 62
     7
370
     0
100
AcDbLine
 10
169.2204773367
 20
88.1542693996
 30
0.0
 11
165.3852669405
 21
88.1542693996
 31
0.0
  0
LINE
  5
11B
330
1F
100
AcDbEntity
  8
0
  6
HIDDEN
 62
     7
370
     0
100
AcDbLine
 10
180.2352669405
 20
88.1542693996
 30
0.0
 11
175.3500565442
 21
88.1542693996
 31
0.0
  0
LINE
  5
11C
330
1F
100
AcDbEntity
  8
0
  6
HIDDEN
 62
     7
370
     0
100
AcDbLine
 10
165.3852669405
 20
88.1542693996
 30
0.0
 11
165.3852669405
 21
93.8477177462
 31
0.0
  0
LINE
  5
11D
330
1F
100
AcDbEntity
  8
0
  6
HIDDEN
 62
     7
370
     0
100
AcDbLine
 10
180.5262003791
 20
95.4477177462
 30
0.0
 11
164.7225252407
 21
95.4477177462
 31
0.0
  0
LINE
  5
11E
330
1F
100
AcDbEntity
  8
0
  6
HIDDEN
 62
     7
370
     0
100
AcDbLine
 10
164.7225252407
 20
142.8477177462
 30
0.0
 11
180.2352669405
 21
142.8477177462
 31
0.0
  0
LINE
  5
11F
330
1F
100
AcDbEntity
  8
0
  6
HIDDEN
 62
     7
370
     0
100
AcDbLine
 10
165.3852669405
 20
147.7602559025
 30
0.0
 11
169.3213122542
 21
147.7602559025
 31
0.0
  0
LINE
  5
120
330
1F
100
AcDbEntity
  8
0
  6
HIDDEN
 62
     7
370
     0
100
AcDbLine
 10
175.2492216267
 20
147.7602559025
 30
0.0
 11
180.2352669405
 21
147.7602559025
 31
0.0
  0
LINE
  5
121
330
1F
100
AcDbEntity
  8
0
  6
HIDDEN
 62
     7
370
     0
100
AcDbLine
 10
165.3852669405
 20
147.7602559025
 30
0.0
 11
165.3852669405
 21
144.4477177462
 31
0.0
  0
LINE
  5
122
330
1F
100
AcDbEntity
  8
0
  6
HIDDEN
 62
     7
370
     0
100
AcDbLine
 10
135.9352669405
 20
111.0477177462
 30
0.0
 11
135.9352669405
 21
125.0477177462
 31
0.0
  0
LINE
  5
123
330
1F
100
AcDbEntity
  8
0
  6
HIDDEN
 62
     7
370
     0
100
AcDbLine
 10
137.5876336428
 20
113.7977177462
 30
0.0
 11
137.5876336428
 21
122.2977177462
 31
0.0
  0
LINE
  5
124
330
1F
100
AcDbEntity
  8
0
  6
HIDDEN
 62
     7
370
     0
100
AcDbLine
 10
206.4352669405
 20
134.5727177462
 30
0.0
 11
206.4352669405
 21
134.0477177462
 31
0.0
  0
LINE
  5
125
330
1F
100
AcDbEntity
  8
0
  6
HIDDEN
 62
     7
370
     0
100
AcDbLine
 10
206.4352669405
 20
102.0477177462
 30
0.0
 11
206.4352669405
 21
101.5227177462
 31
0.0
  0
SPLINE
  5
126
330
1F
100
AcDbEntity
  8
0
  6
HIDDEN
 62
     7
370
     0
100
AcDbSpline
210
0.0
220
0.0
230
1.0
 70
    11
 71
     3
 72
    60
 73
    56
 74
     0
 42
0.000000001
 43
0.00000001
 40
0.0
 40
0.0
 40
0.0
 40
0.0
 40
0.0312499999999997
 40
0.0312499999999997
 40
0.0624999999999995
 40
0.0624999999999995
 40
0.1249999999999989
 40
0.1249999999999989
 40
0.1874999999999984
 40
0.1874999999999984
 40
0.2187499999999983
 40
0.2187499999999983
 40
0.2499999999999981
 40
0.2499999999999981
 40
0.2812499999999979
 40
0.2812499999999979
 40
0.3124999999999977
 40
0.3124999999999977
 40
0.3437499999999977
 40
0.3437499999999977
 40
0.3749999999999976
 40
0.3749999999999976
 40
0.4062499999999974
 40
0.4062499999999974
 40
0.4374999999999973
 40
0.4374999999999973
 40
0.4999999999999971
 40
0.4999999999999971
 40
0.5312499999999973
 40
0.5312499999999973
 40
0.5624999999999974
 40
0.5624999999999974
 40
0.5937499999999977
 40
0.5937499999999977
 40
0.6249999999999978
 40
0.6249999999999978
 40
0.656249999999998
 40
0.656249999999998
 40
0.6874999999999982
 40
0.6874999999999982
 40
0.7187499999999983
 40
0.7187499999999983
 40
0.7499999999999986
 40
0.7499999999999986
 40
0.8124999999999989
 40
0.8124999999999989
 40
0.8437499999999991
 40
0.8437499999999991
 40
0.8749999999999992
 40
0.8749999999999992
 40
0.9062499999999994
 40
0.9062499999999994
 40
0.9374999999999997
 40
0.9374999999999997
 40
1.0
 40
1.0
 40
1.0
 40
1.0
 10
174.1852669404518
 20
117.8367916881709
 30
0.0
 10
174.2954598514221
 20
117.8367916881709
 30
0.0
 10
174.4035690547095
 20
117.8486493104756
 30
0.0
 10
174.6158742091959
 20
117.8946550373658
 30
0.0
 10
174.7211828726549
 20
117.9294148896795
 30
0.0
 10
175.0199808332634
 20
118.0629687278438
 30
0.0
 10
175.2014030376494
 20
118.1928771409874
 30
0.0
 10
175.5026089383064
 20
118.5053356280977
 30
0.0
 10
175.6251634170985
 20
118.6911131109253
 30
0.0
 10
175.7492968677178
 20
118.9859238594289
 30
0.0
 10
175.7815999845538
 20
119.0889029458501
 30
0.0
 10
175.8244496463857
 20
119.295180585555
 30
0.0
 10
175.8351948138981
 20
119.3979485704744
 30
0.0
 10
175.8353383502512
 20
119.6026142239928
 30
0.0
 10
175.8243552292149
 20
119.7049683101869
 30
0.0
 10
175.7816835696876
 20
119.8992284191942
 30
0.0
 10
175.7501206755801
 20
119.9923967279377
 30
0.0
 10
175.6661555800925
 20
120.1711802485799
 30
0.0
 10
175.6151210270918
 20
120.2538976402916
 30
0.0
 10
175.495887696313
 20
120.4074492557055
 30
0.0
 10
175.4268286389785
 20
120.4788997164588
 30
0.0
 10
175.2755301151241
 20
120.6061117588462
 30
0.0
 10
175.1932974103691
 20
120.6622546426934
 30
0.0
 10
175.0151848932209
 20
120.7605764555373
 30
0.0
 10
174.9190500090166
 20
120.8025707496886
 30
0.0
 10
174.6218033238977
 20
120.9027098599651
 30
0.0
 10
174.4027455831188
 20
120.937723967866
 30
0.0
 10
174.0772919082309
 20
120.937803927326
 30
0.0
 10
173.9674553070379
 20
120.9291985229031
 30
0.0
 10
173.7535230100555
 20
120.894885727429
 30
0.0
 10
173.650283349112
 20
120.8695439142343
 30
0.0
 10
173.4508542925495
 20
120.8023588250495
 30
0.0
 10
173.354761785276
 20
120.7602768399909
 30
0.0
 10
173.17721773571
 20
120.662219684427
 30
0.0
 10
173.0945211685967
 20
120.6058302201031
 30
0.0
 10
172.9420466102316
 20
120.4773791504535
 30
0.0
 10
172.8743696891899
 20
120.4071216338205
 30
0.0
 10
172.7553920249212
 20
120.2538422894524
 30
0.0
 10
172.703647741721
 20
120.1697631126929
 30
0.0
 10
172.6204710350648
 20
119.9923803248086
 30
0.0
 10
172.5889599981158
 20
119.8996036825337
 30
0.0
 10
172.546224390664
 20
119.705300162882
 30
0.0
 10
172.5352186862438
 20
119.6028337479437
 30
0.0
 10
172.5353639392474
 20
119.2961720315724
 30
0.0
 10
172.5797168278317
 20
119.0844001471738
 30
0.0
 10
172.7043020361133
 20
118.7887148060995
 30
0.0
 10
172.7560858497793
 20
118.6921382782604
 30
0.0
 10
172.8760435281095
 20
118.5109740299448
 30
0.0
 10
172.9438945901053
 20
118.4263847112454
 30
0.0
 10
173.0954203288605
 20
118.2694866784524
 30
0.0
 10
173.1793896021234
 20
118.1972904474994
 30
0.0
 10
173.3568808704624
 20
118.0719286042703
 30
0.0
 10
173.4511624054166
 20
118.0178622511594
 30
0.0
 10
173.752047512646
 20
117.8837902691434
 30
0.0
 10
173.9648811185111
 20
117.8367916881709
 30
0.0
 10
174.1852669404518
 20
117.8367916881709
 30
0.0
  0
ELLIPSE
  5
127
330
1F
100
AcDbEntity
  8
0
  6
HIDDEN
 62
     7
370
     0
100
AcDbEllipse
 10
174.1852669405
 20
124.9353078068
 30
0.0
 11
-1.383467579512114
 21
1.753907414218503
 31
0.0
210
0.0
220
0.0
230
1.0
 40
0.5126701559
 41
5.277237470130132
 42
5.288724596347217
  0
ELLIPSE
  5
128
330
1F
100
AcDbEntity
  8
0
  6
HIDDEN
 62
     7
370
     0
100
AcDbEllipse
 10
174.1852669405
 20
124.9353078068
 30
0.0
 11
1.383467579512114
 21
1.091267719176585
 31
0.0
210
0.0
220
0.0
230
1.0
 40
0.8239737799
 41
0.9944607108323504
 42
4.136053364422173
  0
ELLIPSE
  5
129
330
1F
100
AcDbEntity
  8
0
  6
HIDDEN
 62
     7
370
     0
100
AcDbEllipse
 10
174.1852669405
 20
124.9353078068
 30
0.0
 11
-1.383467579512114
 21
1.753907414218503
 31
0.0
210
0.0
220
0.0
230
1.0
 40
0.5126701559
 41
2.147131942757428
 42
2.158619068972498
  0
SPLINE
  5
12A
330
1F
100
AcDbEntity
  8
0
  6
HIDDEN
 62
     7
370
     0
100
AcDbSpline
210
0.0
220
0.0
230
1.0
 70
     8
 71
     3
 72
     8
 73
     4
 74
     0
 42
0.000000001
 43
0.00000001
 40
0.0
 40
0.0
 40
0.0
 40
0.0
 40
1.0
 40
1.0
 40
1.0
 40
1.0
 10
174.2042202819173
 20
123.3724646565571
 30
0.0
 10
174.2212191659745
 20
123.380447930061
 30
0.0
 10
174.2382233104934
 20
123.3891843324973
 30
0.0
 10
174.2552080365735
 20
123.3986611843215
 30
0.0
  0
ELLIPSE
  5
12B
330
1F
100
AcDbEntity
  8
0
  6
HIDDEN
 62
     7
370
     0
100
AcDbEllipse
 10
174.1852669405
 20
124.9353078068
 30
0.0
 11
1.383467579512114
 21
1.091267719176585
 31
0.0
210
0.0
220
0.0
230
1.0
 40
0.8239737799
 41
4.136053364422164
 42
4.178454611668577
  0
ELLIPSE
  5
12C
330
1F
100
AcDbEntity
  8
0
  6
HIDDEN
 62
     7
370
     0
100
AcDbEllipse
 10
174.1852669405
 20
124.9353078068
 30
0.0
 11
-1.383467579512114
 21
1.753907414218503
 31
0.0
210
0.0
220
0.0
230
1.0
 40
0.5126701559
 41
5.28872459634723
 42
8.430317249937026
  0
ELLIPSE
  5
12D
330
1F
100
AcDbEntity
  8
0
  6
HIDDEN
 62
     7
370
     0
100
AcDbEllipse
 10
174.1852669405
 20
124.9353078068
 30
0.0
 11
1.383467579512114
 21
1.091267719176585
 31
0.0
210
0.0
220
0.0
230
1.0
 40
0.8239737799
 41
0.9520594635783254
 42
0.9944607108323413
  0
SPLINE
  5
12E
330
1F
100
AcDbEntity
  8
0
  6
HIDDEN
 62
     7
370
     0
100
AcDbSpline
210
0.0
220
0.0
230
1.0
 70
     8
 71
     3
 72
     8
 73
     4
 74
     0
 42
0.000000001
 43
0.00000001
 40
0.0
 40
0.0
 40
0.0
 40
0.0
 40
1.0
 40
1.0
 40
1.0
 40
1.0
 10
174.2552080365824
 20
126.4968596725632
 30
0.0
 10
174.2382233104964
 20
126.4897439625196
 30
0.0
 10
174.2212191659715
 20
126.4818688330054
 30
0.0
 10
174.2042202819084
 20
126.4732457135601
 30
0.0
  0
LWPOLYLINE
  5
12F
330
1F
100
AcDbEntity
  8
0
  6
HIDDEN
 62
     7
370
     0
100
AcDbPolyline
 90
       21
 70
   128
 43
0.0
 10
174.1852669405
 20
124.491128487
 10
174.6951449812
 20
124.5670150072
 10
175.1551126067
 20
124.7872462668
 10
175.5201449812
 20
125.1302644954
 10
175.7545101923
 20
125.5624926789
 10
175.8352669405
 20
126.0416213113
 10
175.7545101923
 20
126.5207499436
 10
175.5201449812
 20
126.9529781272
 10
175.1551126067
 20
127.2959963558
 10
174.6951449812
 20
127.5162276153
 10
174.1852669405
 20
127.5921141356
 10
173.6753888997
 20
127.5162276153
 10
173.2154212742
 20
127.2959963558
 10
172.8503888997
 20
126.9529781272
 10
172.6160236886
 20
126.5207499436
 10
172.5352669405
 20
126.0416213113
 10
172.6160236886
 20
125.5624926789
 10
172.8503888997
 20
125.1302644954
 10
173.2154212742
 20
124.7872462668
 10
173.6753888997
 20
124.5670150072
 10
174.1852669405
 20
124.491128487
  0
LINE
  5
130
330
1F
100
AcDbEntity
  8
0
  6
HIDDEN
 62
     7
370
     0
100
AcDbLine
 10
170.3752669405
 20
140.2449585657
 30
0.0
 11
170.3752669405
 21
136.3977177462
 31
0.0
  0
LINE
  5
131
330
1F
100
AcDbEntity
  8
0
  6
HIDDEN
 62
     7
370
     0
100
AcDbLine
 10
174.1952669405
 20
140.2449585657
 30
0.0
 11
174.1952669405
 21
136.3977177462
 31
0.0
  0
SPLINE
  5
132
330
1F
100
AcDbEntity
  8
0
  6
HIDDEN
 62
     7
370
     0
100
AcDbSpline
210
0.0
220
0.0
230
1.0
 70
     8
 71
     3
 72
    14
 73
    10
 74
     0
 42
0.000000001
 43
0.00000001
 40
0.0
 40
0.0
 40
0.0
 40
0.0
 40
0.25
 40
0.25
 40
0.5
 40
0.5
 40
0.75
 40
0.75
 40
1.0
 40
1.0
 40
1.0
 40
1.0
 10
173.3952669404518
 20
129.3301969363124
 30
0.0
 10
173.4937462140659
 20
129.3690335669242
 30
0.0
 10
173.5950435727644
 20
129.4063263950198
 30
0.0
 10
173.7880272730067
 20
129.4777376860947
 30
0.0
 10
173.879122643421
 20
129.5118374489517
 30
0.0
 10
174.0304151667386
 20
129.578666422182
 30
0.0
 10
174.0916808897672
 20
129.6120858279233
 30
0.0
 10
174.1738644906867
 20
129.6811034342175
 30
0.0
 10
174.1952669404517
 20
129.7168997160588
 30
0.0
 10
174.1952669404517
 20
129.7534801147528
 30
0.0
  0
LINE
  5
133
330
1F
100
AcDbEntity
  8
0
  6
HIDDEN
 62
     7
370
     0
100
AcDbLine
 10
174.1952669405
 20
110.046435226
 30
0.0
 11
174.1952669405
 21
106.2877117278
 31
0.0
  0
SPLINE
  5
134
330
1F
100
AcDbEntity
  8
0
  6
HIDDEN
 62
     7
370
     0
100
AcDbSpline
210
0.0
220
0.0
230
1.0
 70
     8
 71
     3
 72
    14
 73
    10
 74
     0
 42
0.000000001
 43
0.00000001
 40
0.0
 40
0.0
 40
0.0
 40
0.0
 40
0.25
 40
0.25
 40
0.5
 40
0.5
 40
0.75
 40
0.75
 40
1.0
 40
1.0
 40
1.0
 40
1.0
 10
174.1952669404518
 20
125.9947566165329
 30
0.0
 10
174.1952669404518
 20
125.9584970268578
 30
0.0
 10
174.1741468529535
 20
125.9218689730694
 30
0.0
 10
174.0916791978048
 20
125.856591240656
 30
0.0
 10
174.0312478434637
 20
125.8286649293279
 30
0.0
 10
173.878782977316
 20
125.7945004924335
 30
0.0
 10
173.7882020903652
 20
125.7891209955045
 30
0.0
 10
173.5955601743967
 20
125.8099973051836
 30
0.0
 10
173.4937480317892
 20
125.8363433503921
 30
0.0
 10
173.3952669404516
 20
125.8770854595339
 30
0.0
  0
LINE
  5
135
330
1F
100
AcDbEntity
  8
0
  6
HIDDEN
 62
     7
370
     0
100
AcDbLine
 10
168.7634302984
 20
143.9579473863
 30
0.0
 11
168.7634302984
 21
136.3977177462
 31
0.0
  0
LINE
  5
136
330
1F
100
AcDbEntity
  8
0
  6
HIDDEN
 62
     7
370
     0
100
AcDbLine
 10
175.8071035825
 20
108.2956976784
 30
0.0
 11
175.8071035825
 21
106.096217948
 31
0.0
  0
LINE
  5
137
330
1F
100
AcDbEntity
  8
0
  6
HIDDEN
 62
     7
370
     0
100
AcDbLine
 10
175.8071035825
 20
143.9579473863
 30
0.0
 11
175.8071035825
 21
136.3977177462
 31
0.0
  0
SPLINE
  5
138
330
1F
100
AcDbEntity
  8
0
  6
HIDDEN
 62
     7
370
     0
100
AcDbSpline
210
0.0
220
0.0
230
1.0
 70
     8
 71
     3
 72
    10
 73
     6
 74
     0
 42
0.000000001
 43
0.00000001
 40
0.0
 40
0.0
 40
0.0
 40
0.0
 40
0.5
 40
0.5
 40
1.0
 40
1.0
 40
1.0
 40
1.0
 10
172.2093761778113
 20
125.7942569156731
 30
0.0
 10
172.1937701268301
 20
125.8995291162816
 30
0.0
 10
172.1852656638016
 20
126.0034676140725
 30
0.0
 10
172.1852682173912
 20
126.2029808860285
 30
0.0
 10
172.1937658049917
 20
126.2941933806989
 30
0.0
 10
172.2093761778114
 20
126.376125313042
 30
0.0
  0
SPLINE
  5
139
330
1F
100
AcDbEntity
  8
0
  6
HIDDEN
 62
     7
370
     0
100
AcDbSpline
210
0.0
220
0.0
230
1.0
 70
     8
 71
     3
 72
    14
 73
    10
 74
     0
 42
0.000000001
 43
0.00000001
 40
0.0
 40
0.0
 40
0.0
 40
0.0
 40
0.25
 40
0.25
 40
0.5
 40
0.5
 40
0.75
 40
0.75
 40
1.0
 40
1.0
 40
1.0
 40
1.0
 10
172.2093761778114
 20
126.376125313042
 30
0.0
 10
172.2457400058416
 20
126.3306306776402
 30
0.0
 10
172.2782177330518
 20
126.2822388714239
 30
0.0
 10
172.3269713624674
 20
126.1767537274944
 30
0.0
 10
172.3418751401419
 20
126.1201692192515
 30
0.0
 10
172.3418855737995
 20
126.011281625301
 30
0.0
 10
172.3269952779914
 20
125.9590969595384
 30
0.0
 10
172.2781063471138
 20
125.8678195605949
 30
0.0
 10
172.2457341688434
 20
125.8291528552208
 30
0.0
 10
172.2093761778113
 20
125.7942569156731
 30
0.0
  0
LWPOLYLINE
  5
13A
330
1F
100
AcDbEntity
  8
0
  6
HIDDEN
 62
     7
370
     0
100
AcDbPolyline
 90
       21
 70
   128
 43
0.0
 10
165.016994478
 20
126.0277631551
 10
165.144943196
 20
125.6527870549
 10
165.3491459002
 20
125.4012448991
 10
165.609613807
 20
125.2977593866
 10
165.900850503
 20
125.3524604003
 10
166.1943477112
 20
125.5599934239
 10
166.46137588
 20
125.900043679
 10
166.6757964316
 20
126.3393246774
 10
166.8166203886
 20
126.8348365344
 10
166.8700629209
 20
127.3380750969
 10
166.8308927009
 20
127.7997798682
 10
166.7029439829
 20
128.1747559684
 10
166.4987412787
 20
128.4262981242
 10
166.2382733719
 20
128.5297836367
 10
165.9470366759
 20
128.475082623
 10
165.6535394677
 20
128.2675495995
 10
165.3865112989
 20
127.9274993443
 10
165.1720907473
 20
127.4882183459
 10
165.0312667903
 20
126.9927064889
 10
164.977824258
 20
126.4894679264
 10
165.016994478
 20
126.0277631551
  0
LWPOLYLINE
  5
13B
330
1F
100
AcDbEntity
  8
0
  6
HIDDEN
 62
     7
370
     0
100
AcDbPolyline
 90
       22
 70
   128
 43
0.0
 10
172.2093761778
 20
125.7942569157
 10
172.3756141727
 20
125.2849851273
 10
172.6872356312
 20
124.8400001016
 10
173.1192055808
 20
124.4950509421
 10
173.6368205203
 20
124.2778500942
 10
174.1984964207
 20
124.2058469893
 10
174.7591094943
 20
124.2848261959
 10
175.2736213382
 20
124.508442701
 10
175.7006972193
 20
124.8587316538
 10
176.0060268149
 20
125.3075516216
 10
176.1650806267
 20
125.8188454104
 10
176.1650806267
 20
126.3515368184
 10
176.0060268149
 20
126.8628306071
 10
175.7006972193
 20
127.311650575
 10
175.2736213382
 20
127.6619395277
 10
174.7591094943
 20
127.8855560328
 10
174.1984964208
 20
127.9645352394
 10
173.6368205203
 20
127.8925321345
 10
173.1192055808
 20
127.6753312866
 10
172.6872356312
 20
127.3303821271
 10
172.3756141727
 20
126.8853971014
 10
172.2093761778
 20
126.376125313
  0
SPLINE
  5
13C
330
1F
100
AcDbEntity
  8
0
  6
HIDDEN
 62
     7
370
     0
100
AcDbSpline
210
0.0
220
0.0
230
1.0
 70
     8
 71
     3
 72
    12
 73
     8
 74
     0
 42
0.000000001
 43
0.00000001
 40
0.0
 40
0.0
 40
0.0
 40
0.0
 40
0.2499999999999992
 40
0.2499999999999992
 40
0.4999999999999983
 40
0.4999999999999983
 40
1.0
 40
1.0
 40
1.0
 40
1.0
 10
175.8071035825085
 20
129.9992175444112
 30
0.0
 10
175.930051076304
 20
129.8412606957162
 30
0.0
 10
176.0235952794129
 20
129.6694273287386
 30
0.0
 10
176.1525346685751
 20
129.2977546190928
 30
0.0
 10
176.1850874259602
 20
129.1045661729016
 30
0.0
 10
176.185623767694
 20
128.5162696346253
 30
0.0
 10
176.0530001107261
 20
128.1242513967366
 30
0.0
 10
175.8071035825085
 20
127.7997378140279
 30
0.0
  0
SPLINE
  5
13D
330
1F
100
AcDbEntity
  8
0
  6
HIDDEN
 62
     7
370
     0
100
AcDbSpline
210
0.0
220
0.0
230
1.0
 70
     8
 71
     3
 72
    12
 73
     8
 74
     0
 42
0.000000001
 43
0.00000001
 40
0.0
 40
0.0
 40
0.0
 40
0.0
 40
0.2499999999999997
 40
0.2499999999999997
 40
0.4999999999999993
 40
0.4999999999999993
 40
1.0
 40
1.0
 40
1.0
 40
1.0
 10
175.8071035825085
 20
127.7997378140279
 30
0.0
 10
175.6922075312478
 20
127.5799973789714
 30
0.0
 10
175.5654415147752
 20
127.3830290273496
 30
0.0
 10
175.3052265811566
 20
127.0293114545107
 30
0.0
 10
175.1717191231944
 20
126.8724861606385
 30
0.0
 10
174.7633208546062
 20
126.4459435897308
 30
0.0
 10
174.4796677196686
 20
126.2192514107756
 30
0.0
 10
174.1952669404519
 20
126.0490002663801
 30
0.0
  0
SPLINE
  5
13E
330
1F
100
AcDbEntity
  8
0
  6
HIDDEN
 62
     7
370
     0
100
AcDbSpline
210
0.0
220
0.0
230
1.0
 70
     8
 71
     3
 72
    12
 73
     8
 74
     0
 42
0.000000001
 43
0.00000001
 40
0.0
 40
0.0
 40
0.0
 40
0.0
 40
0.5000000000000013
 40
0.5000000000000013
 40
0.7500000000000007
 40
0.7500000000000007
 40
1.0
 40
1.0
 40
1.0
 40
1.0
 10
174.1952669404518
 20
129.8077237646011
 30
0.0
 10
174.479473475017
 20
129.9751879268949
 30
0.0
 10
174.7581692091208
 20
130.0868250264065
 30
0.0
 10
175.1675152523101
 20
130.1541382920459
 30
0.0
 10
175.3036545896296
 20
130.1592893320598
 30
0.0
 10
175.5649746386257
 20
130.1215233944404
 30
0.0
 10
175.6903958210575
 20
130.0799736360962
 30
0.0
 10
175.8071035825089
 20
129.9992175444133
 30
0.0
  0
SPLINE
  5
13F
330
1F
100
AcDbEntity
  8
0
  6
HIDDEN
 62
     7
370
     0
100
AcDbSpline
210
0.0
220
0.0
230
1.0
 70
     8
 71
     3
 72
    22
 73
    18
 74
     0
 42
0.000000001
 43
0.00000001
 40
0.0
 40
0.0
 40
0.0
 40
0.0
 40
0.125
 40
0.125
 40
0.25
 40
0.25
 40
0.375
 40
0.375
 40
0.5
 40
0.5
 40
0.625
 40
0.625
 40
0.75
 40
0.75
 40
0.875
 40
0.875
 40
1.0
 40
1.0
 40
1.0
 40
1.0
 10
173.3952669404517
 20
125.8770854595351
 30
0.0
 10
173.2152502458823
 20
125.9515592465117
 30
0.0
 10
173.050818424012
 20
126.0490085084957
 30
0.0
 10
172.7524221902535
 20
126.2883779420601
 30
0.0
 10
172.6221184628886
 20
126.4282745541305
 30
0.0
 10
172.4088996792696
 20
126.7365261441908
 30
0.0
 10
172.3252718221581
 20
126.90668936231
 30
0.0
 10
172.2141409452399
 20
127.2571840971005
 30
0.0
 10
172.1853049503862
 20
127.4423090582518
 30
0.0
 10
172.1852290077266
 20
127.8055159328691
 30
0.0
 10
172.2138876331538
 20
127.9888859465766
 30
0.0
 10
172.3250387262665
 20
128.3347770590699
 30
0.0
 10
172.4081058469105
 20
128.5002965863374
 30
0.0
 10
172.6217918050292
 20
128.8008363237412
 30
0.0
 10
172.7507987949535
 20
128.9347082450252
 30
0.0
 10
173.050408074443
 20
129.1659550144293
 30
0.0
 10
173.2152507727022
 20
129.2592051310881
 30
0.0
 10
173.3952669404518
 20
129.3301969363124
 30
0.0
  0
LWPOLYLINE
  5
140
330
1F
100
AcDbEntity
  8
0
  6
HIDDEN
 62
     7
370
     0
100
AcDbPolyline
 90
       24
 70
   128
 43
0.0
 10
164.6354785876
 20
125.8182552997
 10
164.7711338687
 20
125.3952142914
 10
164.9823372847
 20
125.0871807187
 10
165.2534248445
 20
124.9170000226
 10
165.5642912238
 20
124.8972937266
 10
165.8918808856
 20
125.0295233567
 10
166.2118980031
 20
125.3038820462
 10
166.5006083708
 20
125.700021866
 10
166.7365996614
 20
126.188562938
 10
166.9023694805
 20
126.7332724058
 10
166.985623439
 20
127.2937516601
 10
166.9801869717
 20
127.8284325186
 10
166.8864632763
 20
128.297660148
 10
166.7114034108
 20
128.6666340816
 10
166.4679907644
 20
128.9079892108
 10
166.1742781395
 20
129.0038253296
 10
165.8520488581
 20
128.9470347116
 10
165.5252011916
 20
128.7418292572
 10
165.2179759364
 20
128.4034281161
 10
164.9531585842
 20
127.9569289528
 10
164.7503894264
 20
127.4354465678
 10
164.624706924
 20
126.8776569239
 10
164.5854323731
 20
126.3249287273
 10
164.6354785876
 20
125.8182552997
  0
LINE
  5
141
330
1F
100
AcDbEntity
  8
0
  6
HIDDEN
 62
     7
370
     0
100
AcDbLine
 10
176.1852669405
 20
107.1888746767
 30
0.0
 11
176.1852669405
 21
110.0102443781
 31
0.0
  0
LINE
  5
142
330
1F
100
AcDbEntity
  8
0
  6
HIDDEN
 62
     7
370
     0
100
AcDbLine
 10
172.1852669405
 20
109.9932901438
 30
0.0
 11
172.1852669405
 21
108.4718341474
 31
0.0
  0
LINE
  5
143
330
1F
100
AcDbEntity
  8
0
  6
HIDDEN
 62
     7
370
     0
100
AcDbLine
 10
164.3852669405
 20
106.6537926706
 30
0.0
 11
166.2788662806
 21
107.1072814649
 31
0.0
  0
LINE
  5
144
330
1F
100
AcDbEntity
  8
0
  6
HIDDEN
 62
     7
370
     0
100
AcDbLine
 10
165.300688633
 20
111.1917849219
 30
0.0
 11
164.3852669405
 21
110.9725550822
 31
0.0
  0
LINE
  5
145
330
1F
100
AcDbEntity
  8
0
  6
HIDDEN
 62
     7
370
     0
100
AcDbLine
 10
166.3082276653
 20
107.5770376227
 30
0.0
 11
173.5152880998
 21
109.303021086
 31
0.0
  0
LINE
  5
146
330
1F
100
AcDbEntity
  8
0
  6
HIDDEN
 62
     7
370
     0
100
AcDbLine
 10
173.5152880998
 20
112.6963344094
 30
0.0
 11
165.5396595136
 21
110.7862903388
 31
0.0
  0
LINE
  5
147
330
1F
100
AcDbEntity
  8
0
  6
HIDDEN
 62
     7
370
     0
100
AcDbLine
 10
175.8352669405
 20
110.0538141811
 30
0.0
 11
175.8352669405
 21
116.5966272701
 31
0.0
  0
LINE
  5
148
330
1F
100
AcDbEntity
  8
0
  6
HIDDEN
 62
     7
370
     0
100
AcDbLine
 10
172.5352669405
 20
110.0760536247
 30
0.0
 11
172.5352669405
 21
110.0538141811
 31
0.0
  0
LINE
  5
149
330
1F
100
AcDbEntity
  8
0
  6
HIDDEN
 62
     7
370
     0
100
AcDbLine
 10
172.5352669405
 20
116.5963352474
 30
0.0
 11
172.5352669405
 21
111.4539009741
 31
0.0
  0
LINE
  5
14A
330
1F
100
AcDbEntity
  8
0
  6
HIDDEN
 62
     7
370
     0
100
AcDbLine
 10
206.4352669405
 20
130.6250680154
 30
0.0
 11
205.4352669405
 21
130.0477177462
 31
0.0
  0
LINE
  5
14B
330
1F
100
AcDbEntity
  8
0
  6
HIDDEN
 62
     7
370
     0
100
AcDbLine
 10
205.4352669405
 20
106.0477177462
 30
0.0
 11
206.4352669405
 21
105.470367477
 31
0.0
  0
LINE
  5
14C
330
1F
100
AcDbEntity
  8
0
  6
HIDDEN
 62
     7
370
     0
100
AcDbLine
 10
210.1009614202
 20
134.0477177462
 30
0.0
 11
206.4352669405
 21
134.0477177462
 31
0.0
  0
LINE
  5
14D
330
1F
100
AcDbEntity
  8
0
  6
HIDDEN
 62
     7
370
     0
100
AcDbLine
 10
206.4352669405
 20
102.0477177462
 30
0.0
 11
210.0984701583
 21
102.0477177462
 31
0.0
  0
LINE
  5
14E
330
1F
100
AcDbEntity
  8
0
  6
HIDDEN
 62
     7
370
     0
100
AcDbLine
 10
185.8852669405
 20
105.7477177462
 30
0.0
 11
186.5866601996
 21
105.7477177462
 31
0.0
  0
LINE
  5
14F
330
1F
100
AcDbEntity
  8
0
  6
HIDDEN
 62
     7
370
     0
100
AcDbLine
 10
186.5866601996
 20
130.3477177462
 30
0.0
 11
185.8852669405
 21
130.3477177462
 31
0.0
  0
ARC
  5
150
330
1F
100
AcDbEntity
  8
0
  6
HIDDEN
 62
     7
370
     0
100
AcDbCircle
 10
185.8852669405
 20
106.3477177462
 30
0.0
 40
0.6000000000000512
100
AcDbArc
 50
180.0
 51
270.0
  0
ARC
  5
151
330
1F
100
AcDbEntity
  8
0
  6
HIDDEN
 62
     7
370
     0
100
AcDbCircle
 10
185.8852669405
 20
129.7477177462
 30
0.0
 40
0.6000000000000512
100
AcDbArc
 50
90.0
 51
180.0
  0
ARC
  5
152
330
1F
100
AcDbEntity
  8
0
  6
HIDDEN
 62
     7
370
     0
100
AcDbCircle
 10
186.5866601996
 20
106.3477177462
 30
0.0
 40
0.6000000000000085
100
AcDbArc
 50
270.0
 51
285.0
  0
ARC
  5
153
330
1F
100
AcDbEntity
  8
0
  6
HIDDEN
 62
     7
370
     0
100
AcDbCircle
 10
186.5866601996
 20
129.7477177462
 30
0.0
 40
0.6000000000000282
100
AcDbArc
 50
75.0
 51
90.0
  0
LINE
  5
154
330
1F
100
AcDbEntity
  8
0
  6
HIDDEN
 62
     7
370
     0
100
AcDbLine
 10
186.7419516267
 20
105.7681622504
 30
0.0
 11
187.7852669405
 21
106.0477177462
 31
0.0
  0
LINE
  5
155
330
1F
100
AcDbEntity
  8
0
  6
HIDDEN
 62
     7
370
     0
100
AcDbLine
 10
187.7852669405
 20
130.0477177462
 30
0.0
 11
186.7419516267
 21
130.327273242
 31
0.0
  0
LINE
  5
156
330
1F
100
AcDbEntity
  8
0
  6
HIDDEN
 62
     7
370
     0
100
AcDbLine
 10
187.7852669405
 20
106.0477177462
 30
0.0
 11
205.4352669405
 21
106.0477177462
 31
0.0
  0
LINE
  5
157
330
1F
100
AcDbEntity
  8
0
  6
HIDDEN
 62
     7
370
     0
100
AcDbLine
 10
205.4352669405
 20
130.0477177462
 30
0.0
 11
187.7852669405
 21
130.0477177462
 31
0.0
  0
ARC
  5
158
330
1F
100
AcDbEntity
  8
0
  6
HIDDEN
 62
     7
370
     0
100
AcDbCircle
 10
93.7352669405
 20
108.7477177462
 30
0.0
 40
0.7999999999999972
100
AcDbArc
 50
90.0
 51
180.0
  0
ARC
  5
159
330
1F
100
AcDbEntity
  8
0
  6
HIDDEN
 62
     7
370
     0
100
AcDbCircle
 10
93.7352669405
 20
127.3477177462
 30
0.0
 40
0.7999999999999972
100
AcDbArc
 50
180.0
 51
270.0
  0
ARC
  5
15A
330
1F
100
AcDbEntity
  8
0
  6
HIDDEN
 62
     7
370
     0
100
AcDbCircle
 10
101.7043268328
 20
109.7227177462
 30
0.0
 40
0.4000000000000199
100
AcDbArc
 50
270.0
 51
330.0
  0
ARC
  5
15B
330
1F
100
AcDbEntity
  8
0
  6
HIDDEN
 62
     7
370
     0
100
AcDbCircle
 10
101.7043268328
 20
126.3727177462
 30
0.0
 40
0.4000000000000199
100
AcDbArc
 50
30.0
 51
90.0
  0
LINE
  5
15C
330
1F
100
AcDbEntity
  8
0
  6
HIDDEN
 62
     7
370
     0
100
AcDbLine
 10
100.8276393712
 20
109.3227177462
 30
0.0
 11
101.7043268328
 21
109.3227177462
 31
0.0
  0
LINE
  5
15D
330
1F
100
AcDbEntity
  8
0
  6
HIDDEN
 62
     7
370
     0
100
AcDbLine
 10
101.7043268328
 20
126.7727177462
 30
0.0
 11
100.8276393712
 21
126.7727177462
 31
0.0
  0
ARC
  5
15E
330
1F
100
AcDbEntity
  8
0
  6
HIDDEN
 62
     7
370
     0
100
AcDbCircle
 10
100.8276393712
 20
109.7227177462
 30
0.0
 40
0.4000000000000057
100
AcDbArc
 50
255.0
 51
270.0
  0
ARC
  5
15F
330
1F
100
AcDbEntity
  8
0
  6
HIDDEN
 62
     7
370
     0
100
AcDbCircle
 10
100.8276393712
 20
126.3727177462
 30
0.0
 40
0.3999999999999915
100
AcDbArc
 50
90.0
 51
105.0
  0
LINE
  5
160
330
1F
100
AcDbEntity
  8
0
  6
HIDDEN
 62
     7
370
     0
100
AcDbLine
 10
100.7241117531
 20
126.7590880767
 30
0.0
 11
99.9352669405
 21
126.5477177462
 31
0.0
  0
LINE
  5
161
330
1F
100
AcDbEntity
  8
0
  6
HIDDEN
 62
     7
370
     0
100
AcDbLine
 10
99.9352669405
 20
109.5477177462
 30
0.0
 11
100.7241117531
 21
109.3363474157
 31
0.0
  0
LINE
  5
162
330
1F
100
AcDbEntity
  8
0
  6
HIDDEN
 62
     7
370
     0
100
AcDbLine
 10
102.0507369943
 20
109.5227177462
 30
0.0
 11
102.9311961548
 21
111.0477177462
 31
0.0
  0
LINE
  5
163
330
1F
100
AcDbEntity
  8
0
  6
HIDDEN
 62
     7
370
     0
100
AcDbLine
 10
102.9311961548
 20
125.0477177462
 30
0.0
 11
102.0507369943
 21
126.5727177462
 31
0.0
  0
LINE
  5
164
330
1F
100
AcDbEntity
  8
0
  6
HIDDEN
 62
     7
370
     0
100
AcDbLine
 10
93.7352669405
 20
109.5477177462
 30
0.0
 11
99.9352669405
 21
109.5477177462
 31
0.0
  0
LINE
  5
165
330
1F
100
AcDbEntity
  8
0
  6
HIDDEN
 62
     7
370
     0
100
AcDbLine
 10
99.9352669405
 20
126.5477177462
 30
0.0
 11
93.7352669405
 21
126.5477177462
 31
0.0
  0
LINE
  5
166
330
1F
100
AcDbEntity
  8
0
  6
HIDDEN
 62
     7
370
     0
100
AcDbLine
 10
209.7352669405
 20
101.2271965525
 30
0.0
 11
210.2852669405
 21
100.0477177462
 31
0.0
  0
LINE
  5
167
330
1F
100
AcDbEntity
  8
0
  6
HIDDEN
 62
     7
370
     0
100
AcDbLine
 10
210.2852669405
 20
136.0477177462
 30
0.0
 11
209.7352669405
 21
134.8682389399
 31
0.0
  0
LINE
  5
168
330
1F
100
AcDbEntity
  8
0
  6
HIDDEN
 62
     7
370
     0
100
AcDbLine
 10
135.9352669405
 20
111.0477177462
 30
0.0
 11
137.5876336428
 21
113.7977177462
 31
0.0
  0
LINE
  5
169
330
1F
100
AcDbEntity
  8
0
  6
HIDDEN
 62
     7
370
     0
100
AcDbLine
 10
137.5876336428
 20
122.2977177462
 30
0.0
 11
135.9352669405
 21
125.0477177462
 31
0.0
  0
LINE
  5
16A
330
1F
100
AcDbEntity
  8
0
  6
HIDDEN
 62
     7
370
     0
100
AcDbLine
 10
102.9311961548
 20
111.0477177462
 30
0.0
 11
135.9352669405
 21
111.0477177462
 31
0.0
  0
LINE
  5
16B
330
1F
100
AcDbEntity
  8
0
  6
HIDDEN
 62
     7
370
     0
100
AcDbLine
 10
135.9352669405
 20
125.0477177462
 30
0.0
 11
102.9311961548
 21
125.0477177462
 31
0.0
  0
LINE
  5
16C
330
1F
100
AcDbEntity
  8
0
  6
HIDDEN
 62
     7
370
     0
100
AcDbLine
 10
209.7352669405
 20
134.5727177462
 30
0.0
 11
206.4352669405
 21
134.5727177462
 31
0.0
  0
LINE
  5
16D
330
1F
100
AcDbEntity
  8
0
  6
HIDDEN
 62
     7
370
     0
100
AcDbLine
 10
206.4352669405
 20
101.5227177462
 30
0.0
 11
209.7352669405
 21
101.5227177462
 31
0.0
  0
LINE
  5
16E
330
1F
100
AcDbEntity
  8
0
  6
HIDDEN
 62
     7
370
     0
100
AcDbLine
 10
137.5876336428
 20
113.7977177462
 30
0.0
 11
185.2852669405
 21
113.7977177462
 31
0.0
  0
LINE
  5
16F
330
1F
100
AcDbEntity
  8
0
  6
HIDDEN
 62
     7
370
     0
100
AcDbLine
 10
185.2852669405
 20
122.2977177462
 30
0.0
 11
137.5876336428
 21
122.2977177462
 31
0.0
  0
LINE
  5
170
330
1F
100
AcDbEntity
  8
0
  6
HIDDEN
 62
     7
370
     0
100
AcDbLine
 10
175.8352669405
 20
119.4991002451
 30
0.0
 11
175.8352669405
 21
126.0416213113
 31
0.0
  0
LINE
  5
171
330
1F
100
AcDbEntity
  8
0
  6
HIDDEN
 62
     7
370
     0
100
AcDbLine
 10
172.5352669405
 20
124.6415345183
 30
0.0
 11
172.5352669405
 21
119.4988082223
 31
0.0
  0
LINE
  5
172
330
1F
100
AcDbEntity
  8
0
  6
HIDDEN
 62
     7
370
     0
100
AcDbLine
 10
172.5352669405
 20
126.0416213113
 30
0.0
 11
172.5352669405
 21
126.0193818677
 31
0.0
  0
LINE
  5
173
330
1F
100
AcDbEntity
  8
0
  6
HIDDEN
 62
     7
370
     0
100
AcDbLine
 10
210.0984701583
 20
102.0477177462
 30
0.0
 11
210.1009614202
 21
102.0477177462
 31
0.0
  0
LINE
  5
174
330
1F
100
AcDbEntity
  8
0
  6
HIDDEN
 62
     7
370
     0
100
AcDbLine
 10
165.5396595136
 20
125.3091451536
 30
0.0
 11
173.5152880998
 21
123.399101083
 31
0.0
  0
LINE
  5
175
330
1F
100
AcDbEntity
  8
0
  6
HIDDEN
 62
     7
370
     0
100
AcDbLine
 10
173.5152880998
 20
126.7924144065
 30
0.0
 11
166.3082276653
 21
128.5183978697
 31
0.0
  0
LINE
  5
176
330
1F
100
AcDbEntity
  8
0
  6
HIDDEN
 62
     7
370
     0
100
AcDbLine
 10
176.1852669405
 20
126.0851911144
 30
0.0
 11
176.1852669405
 21
128.9065608157
 31
0.0
  0
LINE
  5
177
330
1F
100
AcDbEntity
  8
0
  6
HIDDEN
 62
     7
370
     0
100
AcDbLine
 10
172.1852669405
 20
127.623601345
 30
0.0
 11
172.1852669405
 21
126.1021453486
 31
0.0
  0
LINE
  5
178
330
1F
100
AcDbEntity
  8
0
  6
HIDDEN
 62
     7
370
     0
100
AcDbLine
 10
164.3852669405
 20
125.1228804102
 30
0.0
 11
165.300688633
 21
124.9036505706
 31
0.0
  0
LINE
  5
179
330
1F
100
AcDbEntity
  8
0
  6
HIDDEN
 62
     7
370
     0
100
AcDbLine
 10
166.2788662806
 20
128.9881540275
 30
0.0
 11
164.3852669405
 21
129.4416428218
 31
0.0
  0
DIMENSION
  5
17A
330
1F
100
AcDbEntity
  8
VERMASSUNG
100
AcDbDimension
  2
_D
 10
85.0003022587
 20
149.7977177462
 30
0.0
 11
85.0003022587
 21
118.0477177462
 31
0.0
 70
   160
  1
ISO 40 %%c<>
 71
     2
 42
-1.0
  3
SLDDIMSTYLE0
100
AcDbAlignedDimension
 13
179.6352669405
 23
86.2977177462
 33
0.0
 14
179.6352669405
 24
149.7977177462
 34
0.0
 50
90.0
100
AcDbRotatedDimension
  0
DIMENSION
  5
187
330
1F
100
AcDbEntity
  8
VERMASSUNG
100
AcDbDimension
  2
_D_1
 10
210.2852669405
 20
164.4726733612
 30
0.0
 11
151.6102669405
 21
164.4726733612
 31
0.0
 70
   160
  1
(<>)
 71
     2
 42
-1.0
  3
SLDDIMSTYLE0
100
AcDbAlignedDimension
 13
92.9352669405
 23
129.4548483432
 33
0.0
 14
210.2852669405
 24
138.6477177462
 34
0.0
100
AcDbRotatedDimension
  0
DIMENSION
  5
193
330
1F
100
AcDbEntity
  8
VERMASSUNG
100
AcDbDimension
  2
_D_2
 10
210.2852669405
 20
158.4129909766
 30
0.0
 11
185.7352669405
 21
158.4129909766
 31
0.0
 70
   160
  1
<>
 71
     2
 42
-1.0
  3
SLDDIMSTYLE0
100
AcDbAlignedDimension
 13
161.1852669405
 23
140.2727177462
 33
0.0
 14
210.2852669405
 24
138.6477177462
 34
0.0
100
AcDbRotatedDimension
  0
DIMENSION
  5
19D
330
1F
100
AcDbEntity
  8
VERMASSUNG
100
AcDbDimension
  2
_D_3
 10
210.2852669405
 20
152.4129909766
 30
0.0
 11
195.2602669405
 21
152.4129909766
 31
0.0
 70
   160
  1
<>
 71
     2
 42
-1.0
  3
SLDDIMSTYLE0
100
AcDbAlignedDimension
 13
180.2352669405
 23
148.0582688796
 33
0.0
 14
210.2852669405
 24
138.6477177462
 34
0.0
100
AcDbRotatedDimension
  0
DIMENSION
  5
1A7
330
1F
100
AcDbEntity
  8
VERMASSUNG
100
AcDbDimension
  2
_D_4
 10
218.5753576288
 20
97.0477177462
 30
0.0
 11
218.5753576288
 21
118.0477177462
 31
0.0
 70
   160
  1
MBM %%c<>
 71
     2
 42
-1.0
  3
SLDDIMSTYLE0
100
AcDbAlignedDimension
 13
209.8852669405
 23
139.0477177462
 33
0.0
 14
209.8852669405
 24
97.0477177462
 34
0.0
 50
90.0
100
AcDbRotatedDimension
  0
LINE
  5
1B3
330
1F
100
AcDbEntity
  8
VERMASSUNG
  6
CENTERX2
 62
     7
370
     0
100
AcDbLine
 10
90.9352669405
 20
118.0477177462
 30
0.0
 11
212.2852669405
 21
118.0477177462
 31
0.0
  0
LINE
  5
1B4
330
1F
100
AcDbEntity
  8
VERMASSUNG
  6
CENTERX2
370
     0
100
AcDbLine
 10
163.9789419433
 20
127.3795703915
 30
0.0
 11
175.4602897459
 21
124.6299588649
 31
0.0
  0
LINE
  5
1B5
330
1F
100
AcDbEntity
  8
VERMASSUNG
  6
CENTERX2
370
     0
100
AcDbLine
 10
163.9789419433
 20
108.7158651009
 30
0.0
 11
175.4602897459
 21
111.4654766275
 31
0.0
  0
LINE
  5
1B6
330
1F
100
AcDbEntity
  8
0
  6
Continuous
 62
     7
370
    15
100
AcDbLine
 10
277.663725068
 20
37.7841245891
 30
0.0
 11
277.4869196485
 21
37.8862253629
 31
0.0
  0
LINE
  5
1B7
330
1F
100
AcDbEntity
  8
0
  6
Continuous
 62
     7
370
    15
100
AcDbLine
 10
273.59720042
 20
37.8862253629
 30
0.0
 11
273.4203950005
 21
37.7841245891
 31
0.0
  0
LINE
  5
1B8
330
1F
100
AcDbEntity
  8
0
  6
Continuous
 62
     7
370
    15
100
AcDbLine
 10
278.5420600343
 20
36.1514410332
 30
0.0
 11
278.5420600343
 21
36.5597114391
 31
0.0
  0
LINE
  5
1B9
330
1F
100
AcDbEntity
  8
0
  6
Continuous
 62
     7
370
    15
100
AcDbLine
 10
272.5420600343
 20
36.5597114391
 30
0.0
 11
272.5420600343
 21
36.1514410332
 31
0.0
  0
LINE
  5
1BA
330
1F
100
AcDbEntity
  8
0
  6
Continuous
 62
     7
370
    15
100
AcDbLine
 10
279.8389404397
 20
17.1373466848
 30
0.0
 11
279.980338811
 21
17.2190007649
 31
0.0
  0
LINE
  5
1BB
330
1F
100
AcDbEntity
  8
0
  6
Continuous
 62
     7
370
    15
100
AcDbLine
 10
287.2623549324
 20
29.8331894423
 30
0.0
 11
287.2623549324
 21
29.9964710647
 31
0.0
  0
LINE
  5
1BC
330
1F
100
AcDbEntity
  8
0
  6
Continuous
 62
     7
370
    15
100
AcDbLine
 10
265.5195159149
 20
21.8520324397
 30
0.0
 11
274.5881603836
 21
16.6168154226
 31
0.0
  0
LINE
  5
1BD
330
1F
100
AcDbEntity
  8
0
  6
Continuous
 62
     7
370
    15
100
AcDbLine
 10
285.0873070763
 20
34.8038415326
 30
0.0
 11
276.0186626076
 21
40.0390585497
 31
0.0
  0
SPLINE
  5
1BE
330
1F
100
AcDbEntity
  8
0
  6
Continuous
 62
     7
370
    15
100
AcDbSpline
210
0.0
220
0.0
230
1.0
 70
     8
 71
     3
 72
    32
 73
    28
 74
     0
 42
0.000000001
 43
0.00000001
 40
0.0
 40
0.0
 40
0.0
 40
0.0
 40
0.0093807340892317
 40
0.0510899367884573
 40
0.0929088348244916
 40
0.1348939035231934
 40
0.1770303683120055
 40
0.2192847620413443
 40
0.2616188251711757
 40
0.3039987284342002
 40
0.3463988973638619
 40
0.388799657237029
 40
0.4311910514934832
 40
0.4735690919053003
 40
0.5159326737879205
 40
0.5582824875641976
 40
0.600620291266548
 40
0.6429484505487852
 40
0.6852696621710835
 40
0.7275867969030512
 40
0.7699028164592675
 40
0.8122204488394553
 40
0.8545420145016884
 40
0.8968705720706115
 40
0.939209166339001
 40
0.9815607644444165
 40
1.0
 40
1.0
 40
1.0
 40
1.0
 10
270.4012581193862
 20
49.2148714802753
 30
0.0
 10
270.3455501593394
 20
49.22909649337136
 30
0.0
 10
270.0421500063951
 20
49.30656964344464
 30
0.0
 10
269.4632910170103
 20
49.38261044904063
 30
0.0
 10
268.6544214959569
 20
49.4050178201282
 30
0.0
 10
267.8138254708281
 20
49.33028518040545
 30
0.0
 10
266.9484685298487
 20
49.16311656783804
 30
0.0
 10
266.0635020017769
 20
48.90317125125657
 30
0.0
 10
265.1650141204584
 20
48.55243235471153
 30
0.0
 10
264.2590001129355
 20
48.11319964545627
 30
0.0
 10
263.3514903028338
 20
47.58854492593754
 30
0.0
 10
262.4484060267807
 20
46.98208067624643
 30
0.0
 10
261.5555431859218
 20
46.29792556498119
 30
0.0
 10
260.6785439277069
 20
45.54062912340883
 30
0.0
 10
259.8229123155347
 20
44.71515425966275
 30
0.0
 10
258.9940085035173
 20
43.82685815595433
 30
0.0
 10
258.1970266618052
 20
42.88146571693023
 30
0.0
 10
257.4369684704861
 20
41.88503977040751
 30
0.0
 10
256.7186161685947
 20
40.8439481515538
 30
0.0
 10
256.0464991379396
 20
39.76482579916458
 30
0.0
 10
255.424884732111
 20
38.65454160043354
 30
0.0
 10
254.8576878554644
 20
37.5201442891521
 30
0.0
 10
254.3486854592947
 20
36.36887095865422
 30
0.0
 10
253.9005849961005
 20
35.20787706020226
 30
0.0
 10
253.518399285079
 20
34.04501016374925
 30
0.0
 10
253.2573376470415
 20
33.10402079448817
 30
0.0
 10
253.1351034296067
 20
32.55566626086566
 30
0.0
 10
253.0980270252791
 20
32.38933792146794
 30
0.0
  0
LINE
  5
1BF
330
1F
100
AcDbEntity
  8
0
  6
Continuous
 62
     7
370
    15
100
AcDbLine
 10
262.8672718773
 20
47.2492552555
 30
0.0
 11
241.5549516544
 21
54.9293706726
 31
0.0
  0
LINE
  5
1C0
330
1F
100
AcDbEntity
  8
0
  6
Continuous
 62
     7
370
    15
100
AcDbLine
 10
235.3901699053
 20
44.2504983874
 30
0.0
 11
255.6864070704
 21
27.1125235117
 31
0.0
  0
SPLINE
  5
1C1
330
1F
100
AcDbEntity
  8
0
  6
Continuous
 62
     7
370
    15
100
AcDbSpline
210
0.0
220
0.0
230
1.0
 70
     8
 71
     3
 72
    15
 73
    11
 74
     0
 42
0.000000001
 43
0.00000001
 40
0.0
 40
0.0
 40
0.0
 40
0.0
 40
0.0345411660365393
 40
0.1773195844724401
 40
0.3206508752939358
 40
0.464447364562615
 40
0.608581909256476
 40
0.7529287795484071
 40
0.8973857038282881
 40
1.0
 40
1.0
 40
1.0
 40
1.0
 10
263.8436285250191
 20
17.38489676510929
 30
0.0
 10
263.9074616071973
 20
17.37877941999359
 30
0.0
 10
264.2351533705686
 20
17.34737558455724
 30
0.0
 10
264.8587233470317
 20
17.38357234795824
 30
0.0
 10
265.7098481019738
 20
17.49696123745854
 30
0.0
 10
266.5860596767374
 20
17.71129515514345
 30
0.0
 10
267.4782356382549
 20
18.01459251318107
 30
0.0
 10
268.381035225457
 20
18.41115185440246
 30
0.0
 10
269.2013019108701
 20
18.83805197292216
 30
0.0
 10
269.7170042494282
 20
19.16813701679887
 30
0.0
 10
269.9311871575326
 20
19.30522884154603
 30
0.0
  0
LINE
  5
1C2
330
1F
100
AcDbEntity
  8
0
  6
Continuous
 62
     7
370
    15
100
AcDbLine
 10
259.8524285893
 20
18.9172250377
 30
0.0
 11
261.2058887242
 21
18.135889133
 31
0.0
  0
LINE
  5
1C3
330
1F
100
AcDbEntity
  8
0
  6
Continuous
 62
     7
370
    15
100
AcDbLine
 10
256.026331552
 20
21.1259838425
 30
0.0
 11
257.3621140174
 21
20.3548530392
 31
0.0
  0
SPLINE
  5
1C4
330
1F
100
AcDbEntity
  8
0
  6
Continuous
 62
     7
370
    15
100
AcDbSpline
210
0.0
220
0.0
230
1.0
 70
     8
 71
     3
 72
    11
 73
     7
 74
     0
 42
0.000000001
 43
0.00000001
 40
0.0
 40
0.0
 40
0.0
 40
0.0
 40
0.1194153359782471
 40
0.4868281592281646
 40
0.8536703359798452
 40
0.9999999999999999
 40
0.9999999999999999
 40
0.9999999999999999
 40
0.9999999999999999
 10
253.1063676602339
 20
25.12316360755662
 30
0.0
 10
253.133987083527
 20
25.0292504545842
 30
0.0
 10
253.2465849579168
 20
24.64638868047165
 30
0.0
 10
253.4981857839257
 20
24.02323999517771
 30
0.0
 10
253.79444614825
 20
23.4154067801446
 30
0.0
 10
254.0089538986586
 20
23.10751849747848
 30
0.0
 10
254.0701202459776
 20
23.01972492546464
 30
0.0
  0
SPLINE
  5
1C5
330
1F
100
AcDbEntity
  8
0
  6
Continuous
 62
     7
370
    15
100
AcDbSpline
210
0.0
220
0.0
230
1.0
 70
     8
 71
     3
 72
    12
 73
     8
 74
     0
 42
0.000000001
 43
0.00000001
 40
0.0
 40
0.0
 40
0.0
 40
0.0
 40
0.0941752102016359
 40
0.332649494492883
 40
0.5707498870146391
 40
0.8080880782366608
 40
0.9999999999999999
 40
0.9999999999999999
 40
0.9999999999999999
 40
0.9999999999999999
 10
280.0133846767076
 20
41.59069321018472
 30
0.0
 10
279.9797181942207
 20
41.7046909394308
 30
0.0
 10
279.8608000802429
 20
42.10735833911967
 30
0.0
 10
279.6049079407726
 20
42.75295281998967
 30
0.0
 10
279.2194265718053
 20
43.49452969113371
 30
0.0
 10
278.8009629367925
 20
44.12622242507359
 30
0.0
 10
278.4826618603547
 20
44.47151010030229
 30
0.0
 10
278.3403537527256
 20
44.62588355137368
 30
0.0
  0
SPLINE
  5
1C6
330
1F
100
AcDbEntity
  8
0
  6
Continuous
 62
     7
370
    15
100
AcDbSpline
210
0.0
220
0.0
230
1.0
 70
     8
 71
     3
 72
    26
 73
    22
 74
     0
 42
0.000000001
 43
0.00000001
 40
0.0
 40
0.0
 40
0.0
 40
0.0
 40
0.0068088481423993
 40
0.0614976205912803
 40
0.1167918566482013
 40
0.1732068996439693
 40
0.2307848732564293
 40
0.2892030739082572
 40
0.3480411115251799
 40
0.406960009366947
 40
0.4657962222060824
 40
0.5245207940751507
 40
0.5831504260410817
 40
0.6417218127837336
 40
0.7002797171281242
 40
0.7588669773624307
 40
0.8175224756772888
 40
0.876296482922133
 40
0.9352364423191144
 40
0.9912186323044345
 40
0.9999999999999999
 40
0.9999999999999999
 40
0.9999999999999999
 40
0.9999999999999999
 10
241.5071078977608
 20
54.94027779648129
 30
0.0
 10
241.48828948445
 20
54.94851900283305
 30
0.0
 10
241.3183212875222
 20
55.02295370468502
 30
0.0
 10
240.9578435937894
 20
55.07594977365567
 30
0.0
 10
240.435129834031
 20
55.09209628409626
 30
0.0
 10
239.8833715984411
 20
55.00591577375317
 30
0.0
 10
239.3141473085574
 20
54.82912478226955
 30
0.0
 10
238.7348517990342
 20
54.55993533063197
 30
0.0
 10
238.1565568565459
 20
54.20369275138307
 30
0.0
 10
237.5898840942084
 20
53.76714884196183
 30
0.0
 10
237.0446138096072
 20
53.25884904569438
 30
0.0
 10
236.5293575723494
 20
52.68792034282352
 30
0.0
 10
236.0519268454501
 20
52.06397792144038
 30
0.0
 10
235.6195556389968
 20
51.39715226752657
 30
0.0
 10
235.2389127106574
 20
50.69804964571458
 30
0.0
 10
234.9160307647778
 20
49.97764852138438
 30
0.0
 10
234.6562704122004
 20
49.2471353968446
 30
0.0
 10
234.4640632809549
 20
48.51756448753744
 30
0.0
 10
234.3459240463865
 20
47.81301752762886
 30
0.0
 10
234.3117094331546
 20
47.32757497744468
 30
0.0
 10
234.3103700057114
 20
47.08115280593303
 30
0.0
 10
234.3101883911538
 20
47.04774013106043
 30
0.0
  0
SPLINE
  5
1C7
330
1F
100
AcDbEntity
  8
0
  6
Continuous
 62
     7
370
    15
100
AcDbSpline
210
0.0
220
0.0
230
1.0
 70
     8
 71
     3
 72
    13
 73
     9
 74
     0
 42
0.000000001
 43
0.00000001
 40
0.0
 40
0.0
 40
0.0
 40
0.0
 40
0.1056482107993462
 40
0.3053839500979172
 40
0.5051435629504829
 40
0.7032452444162485
 40
0.8978864308545149
 40
1.0
 40
1.0
 40
1.0
 40
1.0
 10
234.3101883911538
 20
47.04774013106043
 30
0.0
 10
234.3123702021926
 20
46.92957358478071
 30
0.0
 10
234.3186768880169
 20
46.58800446213016
 30
0.0
 10
234.3895077237403
 20
46.05400980734807
 30
0.0
 10
234.5482150295227
 20
45.47011900000528
 30
0.0
 10
234.789986299059
 20
44.95551393404217
 30
0.0
 10
235.0469586120767
 20
44.57044327521324
 30
0.0
 10
235.2477985145967
 20
44.39360482075058
 30
0.0
 10
235.3169076994952
 20
44.33275455497529
 30
0.0
  0
LWPOLYLINE
  5
1C8
330
1F
100
AcDbEntity
  8
0
  6
Continuous
 62
     7
370
    15
100
AcDbPolyline
 90
       31
 70
   128
 43
0.0
 10
276.8885732975
 20
35.3796313192
 10
276.3606199558
 20
35.2482646734
 10
275.7968916176
 20
35.1831362322
 10
275.2220259164
 20
35.187092421
 10
274.6611472418
 20
35.2599603354
 10
274.1387686833
 20
35.3985552978
 10
273.6777206907
 20
35.5968200433
 10
273.2981532734
 20
35.8460894512
 10
273.016655349
 20
36.1354692523
 10
272.8455297277
 20
36.4523121606
 10
272.7922554201
 20
36.7827706206
 10
272.8591607691
 20
37.112402012
 10
273.0433216901
 20
37.4267998611
 10
273.3366894669
 20
37.7122234734
 10
273.7264425201
 20
37.9561984673
 10
274.195546771
 20
38.1480619649
 10
274.7235001127
 20
38.2794286107
 10
275.2872284509
 20
38.3445570519
 10
275.8620941522
 20
38.3406008631
 10
276.4229728267
 20
38.2677329488
 10
276.9453513852
 20
38.1291379864
 10
277.4063993778
 20
37.9308732408
 10
277.7859667951
 20
37.6816038329
 10
278.0674647195
 20
37.3922240318
 10
278.2385903409
 20
37.0753811236
 10
278.2918646485
 20
36.7449226635
 10
278.2249592994
 20
36.4152912722
 10
278.0407983784
 20
36.100893423
 10
277.7474306016
 20
35.8154698108
 10
277.3576775484
 20
35.5714948169
 10
276.8885732975
 20
35.3796313192
  0
LWPOLYLINE
  5
1C9
330
1F
100
AcDbEntity
  8
0
  6
Continuous
 62
     7
370
    15
100
AcDbPolyline
 90
       16
 70
   128
 43
0.0
 10
277.0109835942
 20
35.0496583596
 10
276.4724468225
 20
34.9132386672
 10
275.8981558082
 20
34.8400920001
 10
275.3101802331
 20
34.8330293436
 10
274.7311156687
 20
34.8923221117
 10
274.1832152414
 20
35.0156917165
 10
273.6875344575
 20
35.1983971335
 10
273.2631220515
 20
35.4334170957
 10
272.9262879542
 20
35.711719918
 10
272.6899765109
 20
36.0226105788
 10
272.5632690379
 20
36.3541417245
 10
272.5510348325
 20
36.693572799
 10
272.6537440481
 20
37.0278596565
 10
272.8674496273
 20
37.3441558406
 10
273.1839389845
 20
37.6303062663
 10
273.4203950005
 20
37.7841245891
  0
LWPOLYLINE
  5
1CA
330
1F
100
AcDbEntity
  8
0
  6
Continuous
 62
     7
370
    15
100
AcDbPolyline
 90
       11
 70
   128
 43
0.0
 10
277.663725068
 20
37.7841245891
 10
277.820998017
 20
37.6860057825
 10
278.1578321144
 20
37.4077029602
 10
278.3941435576
 20
37.0968122994
 10
278.5208510306
 20
36.7652811537
 10
278.5330852361
 20
36.4258500792
 10
278.4303760204
 20
36.0915632217
 10
278.2166704412
 20
35.7752670376
 10
277.900181084
 20
35.4891166119
 10
277.4930704573
 20
35.2441085451
 10
277.0109835942
 20
35.0496583596
  0
LWPOLYLINE
  5
1CB
330
1F
100
AcDbEntity
  8
0
  6
Continuous
 62
     7
370
    15
100
AcDbPolyline
 90
       25
 70
   128
 43
0.0
 10
276.3989321109
 20
35.8829823457
 10
275.9748114509
 20
35.7849691946
 10
275.521199497
 20
35.7536649238
 10
275.0690091543
 20
35.7912028677
 10
274.6490564473
 20
35.8950248775
 10
274.289960459
 20
36.0580556548
 10
274.0161929875
 20
36.2691849214
 10
273.8464108337
 20
36.5140245668
 10
273.7921843707
 20
36.7758891739
 10
273.8572090423
 20
37.0369331022
 10
274.0370535247
 20
37.2793666397
 10
274.3194617136
 20
37.4866683412
 10
274.6851879576
 20
37.6447109384
 10
275.1093086176
 20
37.7427240896
 10
275.5629205715
 20
37.7740283603
 10
276.0151109142
 20
37.7364904164
 10
276.4350636212
 20
37.6326684066
 10
276.7941596095
 20
37.4696376294
 10
277.067927081
 20
37.2585083627
 10
277.2377092348
 20
37.0136687173
 10
277.2919356978
 20
36.7518041103
 10
277.2269110262
 20
36.4907601819
 10
277.0470665438
 20
36.2483266445
 10
276.7646583549
 20
36.041024943
 10
276.3989321109
 20
35.8829823457
  0
SPLINE
  5
1CC
330
1F
100
AcDbEntity
  8
0
  6
Continuous
 62
     7
370
    15
100
AcDbSpline
210
0.0
220
0.0
230
1.0
 70
     8
 71
     3
 72
     9
 73
     5
 74
     0
 42
0.000000001
 43
0.00000001
 40
0.0
 40
0.0
 40
0.0
 40
0.0
 40
0.5124966171100509
 40
1.0
 40
1.0
 40
1.0
 40
1.0
 10
277.0316301715197
 20
36.23895792068247
 30
0.0
 10
276.9689192350833
 20
36.18840910506141
 30
0.0
 10
276.8465556245877
 20
36.08977661865381
 30
0.0
 10
276.7108139380516
 20
36.02491140285898
 30
0.0
 10
276.644639406666
 20
35.99328939072712
 30
0.0
  0
SPLINE
  5
1CD
330
1F
100
AcDbEntity
  8
0
  6
Continuous
 62
     7
370
    15
100
AcDbSpline
210
0.0
220
0.0
230
1.0
 70
     8
 71
     3
 72
    11
 73
     7
 74
     0
 42
0.000000001
 43
0.00000001
 40
0.0
 40
0.0
 40
0.0
 40
0.0
 40
0.2164553779443419
 40
0.4403112895790515
 40
0.7519005688038625
 40
1.0
 40
1.0
 40
1.0
 40
1.0
 10
277.0522767488424
 20
37.23877852691496
 30
0.0
 10
277.0508624382911
 20
37.12592793136859
 30
0.0
 10
277.0479854624053
 20
36.89636841787127
 30
0.0
 10
277.0426465635539
 20
36.56261400340924
 30
0.0
 10
277.0369196368493
 20
36.33063378084302
 30
0.0
 10
277.033254747658
 20
36.26711472020506
 30
0.0
 10
277.0316301715197
 20
36.23895792068247
 30
0.0
  0
SPLINE
  5
1CE
330
1F
100
AcDbEntity
  8
0
  6
Continuous
 62
     7
370
    15
100
AcDbSpline
210
0.0
220
0.0
230
1.0
 70
     8
 71
     3
 72
    11
 73
     7
 74
     0
 42
0.000000001
 43
0.00000001
 40
0.0
 40
0.0
 40
0.0
 40
0.0
 40
0.2164553779443451
 40
0.4403112895790516
 40
0.7519005688038634
 40
1.0
 40
1.0
 40
1.0
 40
1.0
 10
275.5627066115786
 20
37.74901100014274
 30
0.0
 10
275.6647436092408
 20
37.66969766607411
 30
0.0
 10
275.8723062138391
 20
37.50835930277621
 30
0.0
 10
276.2574869714409
 20
37.30120512234549
 30
0.0
 10
276.670662427307
 20
37.20502636020087
 30
0.0
 10
276.9350699080491
 20
37.22841207941223
 30
0.0
 10
277.0522767488424
 20
37.23877852691496
 30
0.0
  0
SPLINE
  5
1CF
330
1F
100
AcDbEntity
  8
0
  6
Continuous
 62
     7
370
    15
100
AcDbSpline
210
0.0
220
0.0
230
1.0
 70
     8
 71
     3
 72
    11
 73
     7
 74
     0
 42
0.000000001
 43
0.00000001
 40
0.0
 40
0.0
 40
0.0
 40
0.0
 40
0.1843643438496199
 40
0.5174526391740262
 40
0.8663352079125972
 40
1.0
 40
1.0
 40
1.0
 40
1.0
 10
274.052489896992
 20
37.259422867138
 30
0.0
 10
274.1401256979828
 20
37.24972707030103
 30
0.0
 10
274.3860917864462
 20
37.22251402271588
 30
0.0
 10
274.8443485260323
 20
37.29149071115924
 30
0.0
 10
275.2710349916938
 20
37.52524940008264
 30
0.0
 10
275.4994390725575
 20
37.7004740675169
 30
0.0
 10
275.5627066115786
 20
37.74901100014274
 30
0.0
  0
SPLINE
  5
1D0
330
1F
100
AcDbEntity
  8
0
  6
Continuous
 62
     7
370
    15
100
AcDbSpline
210
0.0
220
0.0
230
1.0
 70
     8
 71
     3
 72
    11
 73
     7
 74
     0
 42
0.000000001
 43
0.00000001
 40
0.0
 40
0.0
 40
0.0
 40
0.0
 40
0.2164553779443417
 40
0.4403112895790503
 40
0.7519005688038624
 40
1.0
 40
1.0
 40
1.0
 40
1.0
 10
274.0318433196693
 20
36.2596022609055
 30
0.0
 10
274.0332576302206
 20
36.28372902588568
 30
0.0
 10
274.0361346061064
 20
36.33280744150503
 30
0.0
 10
274.0414735049579
 20
36.51613060390957
 30
0.0
 10
274.0472004316624
 20
36.83880883538998
 30
0.0
 10
274.0508653208538
 20
37.13023787833525
 30
0.0
 10
274.052489896992
 20
37.259422867138
 30
0.0
  0
SPLINE
  5
1D1
330
1F
100
AcDbEntity
  8
0
  6
Continuous
 62
     7
370
    15
100
AcDbSpline
210
0.0
220
0.0
230
1.0
 70
     8
 71
     3
 72
     9
 73
     5
 74
     0
 42
0.000000001
 43
0.00000001
 40
0.0
 40
0.0
 40
0.0
 40
0.0
 40
0.1296850700734872
 40
0.9999999999999999
 40
0.9999999999999999
 40
0.9999999999999999
 40
0.9999999999999999
 10
274.4465311112099
 20
35.97601991022032
 30
0.0
 10
274.4274404324325
 20
35.98425987155402
 30
0.0
 10
274.280232440283
 20
36.04779811330396
 30
0.0
 10
274.1474263996321
 20
36.1610432915424
 30
0.0
 10
274.0318433196693
 20
36.2596022609055
 30
0.0
  0
LINE
  5
1D2
330
1F
100
AcDbEntity
  8
0
  6
Continuous
 62
     7
370
    15
100
AcDbLine
 10
274.052489897
 20
36.2447071259
 30
0.0
 11
274.052489897
 21
37.2594228671
 31
0.0
  0
LINE
  5
1D3
330
1F
100
AcDbEntity
  8
0
  6
Continuous
 62
     7
370
    15
100
AcDbLine
 10
275.5627066116
 20
35.7536634589
 30
0.0
 11
275.5627066116
 21
37.7490110001
 31
0.0
  0
LWPOLYLINE
  5
1D4
330
1F
100
AcDbEntity
  8
0
  6
Continuous
 62
     7
370
    15
100
AcDbPolyline
 90
       60
 70
   128
 43
0.0
 10
272.69595524
 20
21.4241858905
 10
272.7372160222
 20
22.3419728145
 10
272.8605308678
 20
23.2969995311
 10
273.0645025702
 20
24.2784452059
 10
273.3468200486
 20
25.2751896674
 10
273.7042845331
 20
26.2759394024
 10
274.1328458083
 20
27.2693555166
 10
274.6276481036
 20
28.2441822085
 10
275.1830851115
 20
29.1893743021
 10
275.7928635085
 20
30.0942223934
 10
276.4500742619
 20
30.9484741919
 10
277.1472709112
 20
31.7424506834
 10
277.8765539397
 20
32.4671557969
 10
278.6296602794
 20
33.114378334
 10
279.3980569345
 20
33.6767850048
 10
280.1730376638
 20
34.1480035168
 10
280.9458216261
 20
34.5226947761
 10
281.7076528702
 20
34.796613381
 10
282.4498995437
 20
34.9666557242
 10
283.1641516953
 20
35.0308951581
 10
283.8423165627
 20
34.9886038241
 10
284.4767102668
 20
34.8402609001
 10
285.0601448737
 20
34.5875471705
 10
285.5860098359
 20
34.233325983
 10
286.0483468935
 20
33.7816108051
 10
286.4419175828
 20
33.2375197504
 10
286.7622625906
 20
32.6072175877
 10
287.00575228
 20
31.8978458926
 10
287.1696278155
 20
31.1174421298
 10
287.2520324218
 20
30.2748485857
 10
287.2520324218
 20
29.3796121819
 10
287.1696278155
 20
28.4418763045
 10
287.00575228
 20
27.4722658757
 10
286.7622625906
 20
26.4817669692
 10
286.4419175828
 20
25.4816023333
 10
286.0483468935
 20
24.483104233
 10
285.5860098359
 20
23.4975860508
 10
285.0601448737
 20
22.5362141014
 10
284.4767102668
 20
21.6098811132
 10
283.8423165627
 20
20.7290828091
 10
283.1641516953
 20
19.9037989857
 10
282.4498995437
 20
19.1433804387
 10
281.7076528702
 20
18.456443014
 10
280.9458216261
 20
17.8507699871
 10
280.1730376638
 20
17.3332238754
 10
279.3980569345
 20
16.9096686831
 10
278.6296602794
 20
16.5849034599
 10
277.8765539397
 20
16.3626079254
 10
277.1472709112
 20
16.2453007769
 10
276.4500742619
 20
16.2343111513
 10
275.7928635085
 20
16.3297635654
 10
275.1830851115
 20
16.5305765053
 10
274.6276481036
 20
16.83447468
 10
274.1328458083
 20
17.2380148019
 10
273.7042845331
 20
17.7366246
 10
273.3468200486
 20
18.3246546262
 10
273.0645025702
 20
18.9954422653
 10
272.8605308678
 20
19.7413872253
 10
272.7372160222
 20
20.5540376517
 10
272.69595524
 20
21.4241858905
  0
LWPOLYLINE
  5
1D5
330
1F
100
AcDbEntity
  8
0
  6
Continuous
 62
     7
370
    15
100
AcDbPolyline
 90
       31
 70
   128
 43
0.0
 10
272.4131125275
 20
21.4241858905
 10
272.4537853793
 20
22.3438592688
 10
272.5753583144
 20
23.3004163883
 10
272.7764993543
 20
24.2833770089
 10
273.0550047557
 20
25.2819716084
 10
273.4078231552
 20
26.2852593754
 10
273.8310890004
 20
27.2822480791
 10
274.3201649022
 20
28.2620145028
 10
274.8696924428
 20
29.2138241204
 10
275.4736508833
 20
30.1272487066
 10
276.1254231287
 20
30.9922805904
 10
276.817868226
 20
31.7994423016
 10
277.5433996016
 20
32.5398904075
 10
278.2940681821
 20
33.2055124037
 10
279.0616494853
 20
33.7890155964
 10
279.83773373
 20
34.2840070024
 10
280.6138179746
 20
34.6850633923
 10
281.3813992778
 20
34.9877907085
 10
282.1320678583
 20
35.188872207
 10
282.857599234
 20
35.2861047968
 10
283.5500443312
 20
35.2784231775
 10
284.2018165766
 20
35.1659115104
 10
284.8057750172
 20
34.9498024968
 10
285.3553025577
 20
34.6324638725
 10
285.8443784595
 20
34.2173724656
 10
286.2676443048
 20
33.7090761047
 10
286.6204627042
 20
33.1131437908
 10
286.8989681056
 20
32.4361046833
 10
287.1001091455
 20
31.6853765642
 10
287.2216820806
 20
30.8691845679
 10
287.2623549324
 20
29.9964710647
  0
LWPOLYLINE
  5
1D6
330
1F
100
AcDbEntity
  8
0
  6
Continuous
 62
     7
370
    15
100
AcDbPolyline
 90
       17
 70
   128
 43
0.0
 10
279.8389404397
 20
17.1373466848
 10
279.83773373
 20
17.1366499528
 10
279.0616494853
 20
16.7355935629
 10
278.2940681821
 20
16.4328662467
 10
277.5433996016
 20
16.2317847483
 10
276.817868226
 20
16.1345521584
 10
276.1254231287
 20
16.1422337777
 10
275.4736508833
 20
16.2547454448
 10
274.8696924428
 20
16.4708544584
 10
274.3201649022
 20
16.7881930827
 10
273.8310890004
 20
17.2032844896
 10
273.4078231552
 20
17.7115808506
 10
273.0550047557
 20
18.3075131644
 10
272.7764993543
 20
18.9845522719
 10
272.5753583144
 20
19.735280391
 10
272.4537853793
 20
20.5514723873
 10
272.4131125275
 20
21.4241858905
  0
SPLINE
  5
1D7
330
1F
100
AcDbEntity
  8
0
  6
Continuous
 62
     7
370
    15
100
AcDbSpline
210
0.0
220
0.0
230
1.0
 70
     8
 71
     3
 72
    54
 73
    50
 74
     0
 42
0.000000001
 43
0.00000001
 40
0.0
 40
0.0
 40
0.0
 40
0.0
 40
0.0312500000000001
 40
0.0312500000000001
 40
0.0625000000000001
 40
0.0625000000000001
 40
0.1250000000000002
 40
0.1250000000000002
 40
0.1875000000000004
 40
0.1875000000000004
 40
0.2187500000000005
 40
0.2187500000000005
 40
0.2500000000000006
 40
0.2500000000000006
 40
0.3125000000000001
 40
0.3125000000000001
 40
0.3749999999999996
 40
0.3749999999999996
 40
0.4062499999999994
 40
0.4062499999999994
 40
0.4374999999999991
 40
0.4374999999999991
 40
0.4999999999999987
 40
0.4999999999999987
 40
0.531249999999999
 40
0.531249999999999
 40
0.5624999999999992
 40
0.5624999999999992
 40
0.6249999999999997
 40
0.6249999999999997
 40
0.6562499999999996
 40
0.6562499999999996
 40
0.6874999999999993
 40
0.6874999999999993
 40
0.749999999999999
 40
0.749999999999999
 40
0.7812499999999992
 40
0.7812499999999992
 40
0.8124999999999994
 40
0.8124999999999994
 40
0.8749999999999998
 40
0.8749999999999998
 40
0.9062499999999998
 40
0.9062499999999998
 40
0.9374999999999999
 40
0.9374999999999999
 40
0.9687499999999999
 40
0.9687499999999999
 40
1.0
 40
1.0
 40
1.0
 40
1.0
 10
278.1937104637054
 20
35.23308143240305
 30
0.0
 10
278.1127926412096
 20
35.1863685677875
 30
0.0
 10
278.0267968347097
 20
35.14098468643414
 30
0.0
 10
277.8444306344851
 20
35.05297807028214
 30
0.0
 10
277.7481343789679
 20
35.01046221812106
 30
0.0
 10
277.4521683983373
 20
34.8908153762906
 30
0.0
 10
277.2422846333697
 20
34.81998340807091
 30
0.0
 10
276.802063029069
 20
34.69819259080639
 30
0.0
 10
276.5782528931982
 20
34.6489737068978
 30
0.0
 10
276.2373204595494
 20
34.59253951447593
 30
0.0
 10
276.1222442770974
 20
34.57660466866025
 30
0.0
 10
275.893525893444
 20
34.55122936153062
 30
0.0
 10
275.7799177254768
 20
34.54175344844298
 30
0.0
 10
275.4411145007395
 20
34.52292408505516
 30
0.0
 10
275.2171154744372
 20
34.52313442063414
 30
0.0
 10
274.7772626062111
 20
34.55087181660677
 30
0.0
 10
274.5654840523035
 20
34.57805646633783
 30
0.0
 10
274.2590104552173
 20
34.63920265253397
 30
0.0
 10
274.1587338724909
 20
34.66299759173614
 30
0.0
 10
273.9619412667901
 20
34.71768473576297
 30
0.0
 10
273.8651374845722
 20
34.74871393061213
 30
0.0
 10
273.5853426487718
 20
34.8511075698398
 30
0.0
 10
273.4113758386318
 20
34.93205119446716
 30
0.0
 10
273.1687948989282
 20
35.07241523051357
 30
0.0
 10
273.0910149513161
 20
35.12237192146205
 30
0.0
 10
272.9417651431719
 20
35.22873992178881
 30
0.0
 10
272.8701801218679
 20
35.28530998269045
 30
0.0
 10
272.6689950733243
 20
35.46149117388928
 30
0.0
 10
272.5514394178059
 20
35.58844197579013
 30
0.0
 10
272.3999550280585
 20
35.79203680545323
 30
0.0
 10
272.3536270078905
 20
35.86210443915446
 30
0.0
 10
272.2696429267853
 20
36.00656552873951
 30
0.0
 10
272.231960511547
 20
36.08114733413445
 30
0.0
 10
272.1345481263604
 20
36.30665287340675
 30
0.0
 10
272.0893869244425
 20
36.46068299097741
 30
0.0
 10
272.052639474896
 20
36.69558160410337
 30
0.0
 10
272.0455926168053
 20
36.77452697233171
 30
0.0
 10
272.0426637326841
 20
36.93345757022626
 30
0.0
 10
272.046874716605
 20
37.01360507290301
 30
0.0
 10
272.0769643748788
 20
37.24962104595485
 30
0.0
 10
272.1199155914782
 20
37.40288660892367
 30
0.0
 10
272.2225409078494
 20
37.62404386093764
 30
0.0
 10
272.2634817910529
 20
37.69662213876704
 30
0.0
 10
272.356769048367
 20
37.8344990207413
 30
0.0
 10
272.4092500467778
 20
37.90024136238107
 30
0.0
 10
272.526038830463
 20
38.02505288859426
 30
0.0
 10
272.5903449488118
 20
38.08412319557634
 30
0.0
 10
272.7313382027741
 20
38.19515161251685
 30
0.0
 10
272.8087111789919
 20
38.24744835441881
 30
0.0
 10
272.8904096048063
 20
38.29461185173822
 30
0.0
  0
SPLINE
  5
1D8
330
1F
100
AcDbEntity
  8
0
  6
Continuous
 62
     7
370
    15
100
AcDbSpline
210
0.0
220
0.0
230
1.0
 70
     8
 71
     3
 72
    14
 73
    10
 74
     0
 42
0.000000001
 43
0.00000001
 40
0.0
 40
0.0
 40
0.0
 40
0.0
 40
0.1852476728853065
 40
0.3964460611233395
 40
0.6285682714231192
 40
0.6593651449985181
 40
0.8122216094839407
 40
0.9651324003123029
 40
1.0
 40
1.0
 40
1.0
 40
1.0
 10
272.8904096048063
 20
38.29461185173822
 30
0.0
 10
273.0948119262269
 20
38.38904650514951
 30
0.0
 10
273.5322505938739
 20
38.59114484082811
 30
0.0
 10
274.4008101309421
 20
38.6756509823444
 30
0.0
 10
275.07978437316
 20
38.61189927688847
 30
0.0
 10
275.6660401319273
 20
38.50402379335902
 30
0.0
 10
276.1282451853742
 20
38.38574271961291
 30
0.0
 10
276.6008993437288
 20
38.24603709078787
 30
0.0
 10
276.8165605811957
 20
38.14293888310931
 30
0.0
 10
276.8566056027527
 20
38.12379510930246
 30
0.0
  0
SPLINE
  5
1D9
330
1F
100
AcDbEntity
  8
0
  6
Continuous
 62
     7
370
    15
100
AcDbSpline
210
0.0
220
0.0
230
1.0
 70
     8
 71
     3
 72
    16
 73
    12
 74
     0
 42
0.000000001
 43
0.00000001
 40
0.0
 40
0.0
 40
0.0
 40
0.0
 40
0.0194831979779868
 40
0.1407163709322199
 40
0.2619460634288127
 40
0.3833577745344252
 40
0.5047198607106665
 40
0.6223445667534101
 40
0.7398257963305492
 40
0.9089215019626573
 40
1.0
 40
1.0
 40
1.0
 40
1.0
 10
277.7153319462674
 20
37.72484448565569
 30
0.0
 10
277.7455465616302
 20
37.71108757727707
 30
0.0
 10
277.9637700292439
 20
37.61172903128921
 30
0.0
 10
278.260306008639
 20
37.3960709780872
 30
0.0
 10
278.6327830619102
 20
37.10209437088786
 30
0.0
 10
278.8881801584625
 20
36.7985396613796
 30
0.0
 10
279.0337549699907
 20
36.49423088843138
 30
0.0
 10
279.0536010885108
 20
36.18868396559022
 30
0.0
 10
278.9294524848801
 20
35.83995872561637
 30
0.0
 10
278.6362658742685
 20
35.5109556272993
 30
0.0
 10
278.3084634090821
 20
35.30513316094922
 30
0.0
 10
278.1937104637054
 20
35.23308143240305
 30
0.0
  0
ARC
  5
1DA
330
1F
100
AcDbEntity
  8
0
  6
Continuous
 62
     7
370
    15
100
AcDbCircle
 10
275.376380772
 20
19.0589970644
 30
0.0
 40
1.018669791599304
100
AcDbArc
 50
187.5911665598
 51
255.9544965879
  0
LWPOLYLINE
  5
1DB
330
1F
100
AcDbEntity
  8
0
  6
Continuous
 62
     7
370
    15
100
AcDbPolyline
 90
       16
 70
   128
 43
0.0
 10
284.8291528301
 20
23.6704703507
 10
284.3218025412
 20
22.7636484221
 10
283.7565437795
 20
21.8950313095
 10
283.1409141754
 20
21.076201876
 10
282.483123046
 20
20.3180790742
 10
281.7919419255
 20
19.630772344
 10
281.0765875975
 20
19.023446805
 10
280.3465991917
 20
18.5042010411
 10
279.6117109807
 20
18.0799591071
 10
278.8817225749
 20
17.7563781978
 10
278.1663682469
 20
17.5377732101
 10
277.4751871264
 20
17.4270592048
 10
276.817395997
 20
17.4257125345
 10
276.2017663929
 20
17.5337511567
 10
275.6365076312
 20
17.7497343948
 10
275.1291573424
 20
18.0707821484
  0
ARC
  5
1DC
330
1F
100
AcDbEntity
  8
0
  6
Continuous
 62
     7
370
    15
100
AcDbCircle
 10
281.4372369464
 20
26.1966932405
 30
0.0
 40
4.229290182856181
100
AcDbArc
 50
323.3220855209
 51
349.2041011418
  0
LWPOLYLINE
  5
1DD
330
1F
100
AcDbEntity
  8
0
  6
Continuous
 62
     7
370
    15
100
AcDbPolyline
 90
        9
 70
   128
 43
0.0
 10
285.5916714872
 20
32.332948185
 10
285.9166871001
 20
31.7011662195
 10
286.1523971704
 20
30.9780490003
 10
286.2952564176
 20
30.1744728268
 10
286.3431161169
 20
29.3025241696
 10
286.2952564176
 20
28.3753178799
 10
286.1523971704
 20
27.4067999304
 10
285.9166871001
 20
26.4115376569
 10
285.5916714872
 20
25.4045006522
  0
ARC
  5
1DE
330
1F
100
AcDbEntity
  8
0
  6
Continuous
 62
     7
370
    15
100
AcDbCircle
 10
284.5819294004
 20
32.1983782685
 30
0.0
 40
1.018669791599402
100
AcDbArc
 50
7.5911665598
 51
75.9544965879
  0
LWPOLYLINE
  5
1DF
330
1F
100
AcDbEntity
  8
0
  6
Continuous
 62
     7
370
    15
100
AcDbPolyline
 90
       16
 70
   128
 43
0.0
 10
275.1291573424
 20
27.5869049821
 10
275.6365076312
 20
28.4937269107
 10
276.2017663929
 20
29.3623440233
 10
276.817395997
 20
30.1811734569
 10
277.4751871264
 20
30.9392962587
 10
278.1663682469
 20
31.6266029889
 10
278.8817225749
 20
32.2339285278
 10
279.6117109807
 20
32.7531742917
 10
280.3465991917
 20
33.1774162257
 10
281.0765875975
 20
33.500997135
 10
281.7919419255
 20
33.7196021227
 10
282.483123046
 20
33.830316128
 10
283.1409141754
 20
33.8316627984
 10
283.7565437795
 20
33.7236241761
 10
284.3218025412
 20
33.5076409381
 10
284.8291528301
 20
33.1865931844
  0
ARC
  5
1E0
330
1F
100
AcDbEntity
  8
0
  6
Continuous
 62
     7
370
    15
100
AcDbCircle
 10
278.521073226
 20
25.0606820923
 30
0.0
 40
4.229290182855403
100
AcDbArc
 50
143.3220855209
 51
169.2041011418
  0
LWPOLYLINE
  5
1E1
330
1F
100
AcDbEntity
  8
0
  6
Continuous
 62
     7
370
    15
100
AcDbPolyline
 90
        9
 70
   128
 43
0.0
 10
274.3666386852
 20
18.9244271479
 10
274.0416230723
 20
19.5562091134
 10
273.805913002
 20
20.2793263326
 10
273.6630537548
 20
21.0829025061
 10
273.6151940555
 20
21.9548511632
 10
273.6630537548
 20
22.882057453
 10
273.805913002
 20
23.8505754024
 10
274.0416230723
 20
24.845837676
 10
274.3666386852
 20
25.8528746807
  0
SPLINE
  5
1E2
330
1F
100
AcDbEntity
  8
0
  6
Continuous
 62
     7
370
    15
100
AcDbSpline
210
0.0
220
0.0
230
1.0
 70
     8
 71
     3
 72
    12
 73
     8
 74
     0
 42
0.000000001
 43
0.00000001
 40
0.0
 40
0.0
 40
0.0
 40
0.0
 40
0.2499999999999992
 40
0.2499999999999992
 40
0.4999999999999983
 40
0.4999999999999983
 40
1.0
 40
1.0
 40
1.0
 40
1.0
 10
258.37771737756
 20
29.3437905894327
 30
0.0
 10
258.4114965438324
 20
29.32429029181918
 30
0.0
 10
258.4498212403079
 20
29.29745054324202
 30
0.0
 10
258.5240443644204
 20
29.23905003991937
 30
0.0
 10
258.5594277289152
 20
29.20806038143847
 30
0.0
 10
258.6552376873001
 20
29.11732102841771
 30
0.0
 10
258.7042414454544
 20
29.06142689970018
 30
0.0
 10
258.7380505030691
 20
29.01416703593352
 30
0.0
  0
SPLINE
  5
1E3
330
1F
100
AcDbEntity
  8
0
  6
Continuous
 62
     7
370
    15
100
AcDbSpline
210
0.0
220
0.0
230
1.0
 70
     8
 71
     3
 72
    12
 73
     8
 74
     0
 42
0.000000001
 43
0.00000001
 40
0.0
 40
0.0
 40
0.0
 40
0.0
 40
0.500000000000004
 40
0.500000000000004
 40
0.750000000000002
 40
0.750000000000002
 40
1.0
 40
1.0
 40
1.0
 40
1.0
 10
275.8425804162602
 20
45.78396856025506
 30
0.0
 10
275.8425804162602
 20
45.85565368642833
 30
0.0
 10
275.8248017481334
 20
45.93840112330471
 30
0.0
 10
275.7699577915689
 20
46.0567056755372
 30
0.0
 10
275.7468151499328
 20
46.0952311327618
 30
0.0
 10
275.6923781017603
 20
46.16236335959616
 30
0.0
 10
275.6615403658494
 20
46.19011798919411
 30
0.0
 10
275.6304483819042
 20
46.20806700947008
 30
0.0
  0
SPLINE
  5
1E4
330
1F
100
AcDbEntity
  8
0
  6
Continuous
 62
     7
370
    15
100
AcDbSpline
210
0.0
220
0.0
230
1.0
 70
     8
 71
     3
 72
    12
 73
     8
 74
     0
 42
0.000000001
 43
0.00000001
 40
0.0
 40
0.0
 40
0.0
 40
0.0
 40
0.4999999999999993
 40
0.4999999999999993
 40
0.7499999999999997
 40
0.7499999999999997
 40
1.0
 40
1.0
 40
1.0
 40
1.0
 10
283.7509665565011
 20
33.14753401051816
 30
0.0
 10
283.9503168498887
 20
33.19737257524233
 30
0.0
 10
284.1414239429582
 20
33.22669348791818
 30
0.0
 10
284.4157813400953
 20
33.23738043782819
 30
0.0
 10
284.5046521112017
 20
33.23521573545966
 30
0.0
 10
284.6729841880856
 20
33.21946945746863
 30
0.0
 10
284.7531006829629
 20
33.20592770537849
 30
0.0
 10
284.8291528300513
 20
33.1865931844378
 30
0.0
  0
LWPOLYLINE
  5
1E5
330
1F
100
AcDbEntity
  8
0
  6
Continuous
 62
     7
370
    15
100
AcDbPolyline
 90
       13
 70
   128
 43
0.0
 10
275.8184348862
 20
28.5681809516
 10
276.3856249671
 20
29.4137212302
 10
277.0030819299
 20
30.2049470177
 10
277.6616745758
 20
30.9301573528
 10
278.3516633753
 20
31.5786275372
 10
279.0628445001
 20
32.1407677364
 10
279.7847007214
 20
32.6082647977
 10
280.5065569426
 20
32.9742051892
 10
281.2177380674
 20
33.2331772389
 10
281.9077268669
 20
33.3813511654
 10
282.5663195129
 20
33.4165357138
 10
283.1837764756
 20
33.338210561
 10
283.7509665565
 20
33.1475340105
  0
SPLINE
  5
1E6
330
1F
100
AcDbEntity
  8
0
  6
Continuous
 62
     7
370
    15
100
AcDbSpline
210
0.0
220
0.0
230
1.0
 70
     8
 71
     3
 72
    12
 73
     8
 74
     0
 42
0.000000001
 43
0.00000001
 40
0.0
 40
0.0
 40
0.0
 40
0.0
 40
0.4999999999999993
 40
0.4999999999999993
 40
0.7499999999999997
 40
0.7499999999999997
 40
1.0
 40
1.0
 40
1.0
 40
1.0
 10
275.1291573423516
 20
27.5869049821035
 30
0.0
 10
275.2425440203628
 20
27.78010455984886
 30
0.0
 10
275.3576525841114
 20
27.95849817716761
 30
0.0
 10
275.5318619165172
 20
28.20568253891749
 30
0.0
 10
275.5904957505446
 20
28.28500102417852
 30
0.0
 10
275.7057542307166
 20
28.43361441138858
 30
0.0
 10
275.7625567351608
 20
28.50320159530309
 30
0.0
 10
275.8184348862493
 20
28.56818095155237
 30
0.0
  0
LWPOLYLINE
  5
1E7
330
1F
100
AcDbEntity
  8
0
  6
Continuous
 62
     7
370
    15
100
AcDbPolyline
 90
       12
 70
   128
 43
0.0
 10
264.3414237695
 20
43.0113311205
 10
265.2542612467
 20
43.8300306858
 10
266.1851464608
 20
44.5692477203
 10
267.1274521046
 20
45.2237194714
 10
268.0744695647
 20
45.7887865191
 10
269.0194566827
 20
46.2604259475
 10
269.9556857548
 20
46.6352799855
 10
270.8764914291
 20
46.9106799123
 10
271.7753181582
 20
47.0846650564
 10
272.6457668708
 20
47.1559967551
 10
273.4816405289
 20
47.1241671723
 10
274.276988247
 20
46.9894029142
  0
LINE
  5
1E8
330
1F
100
AcDbEntity
  8
0
  6
Continuous
 62
     7
370
    15
100
AcDbLine
 10
275.6304483819
 20
46.2080670095
 30
0.0
 11
274.276988247
 21
46.9894029142
 31
0.0
  0
LINE
  5
1E9
330
1F
100
AcDbEntity
  8
0
  6
Continuous
 62
     7
370
    15
100
AcDbLine
 10
257.0242572426
 20
30.1251264941
 30
0.0
 11
258.3777173776
 21
29.3437905894
 31
0.0
  0
ARC
  5
1EA
330
1F
100
AcDbEntity
  8
0
  6
Continuous
 62
     7
370
    15
100
AcDbCircle
 10
282.640204698
 20
24.1136129301
 30
0.0
 40
26.31188057447601
100
AcDbArc
 50
136.4697995782
 51
166.7929035612
  0
SPLINE
  5
1EB
330
1F
100
AcDbEntity
  8
0
  6
Continuous
 62
     7
370
    15
100
AcDbSpline
210
0.0
220
0.0
230
1.0
 70
     8
 71
     3
 72
    12
 73
     8
 74
     0
 42
0.000000001
 43
0.00000001
 40
0.0
 40
0.0
 40
0.0
 40
0.0
 40
0.2499999999999997
 40
0.2499999999999997
 40
0.4999999999999993
 40
0.4999999999999993
 40
1.0
 40
1.0
 40
1.0
 40
1.0
 10
263.5637902532409
 20
42.2355739525672
 30
0.0
 10
263.6631049359609
 20
42.26892203686301
 30
0.0
 10
263.7569300756523
 20
42.31280423836753
 30
0.0
 10
263.9339231805579
 20
42.42093450716326
 30
0.0
 10
264.013734748479
 20
42.48333999734444
 30
0.0
 10
264.2219186096993
 20
42.69073757513421
 30
0.0
 10
264.3136284432854
 20
42.85214811292799
 30
0.0
 10
264.3414237694591
 20
43.01133112046709
 30
0.0
  0
LINE
  5
1EC
330
1F
100
AcDbEntity
  8
0
  6
Continuous
 62
     7
370
    15
100
AcDbLine
 10
279.8598443072
 20
41.1129196677
 30
0.0
 11
279.9652078057
 21
41.2954145999
 31
0.0
  0
LINE
  5
1ED
330
1F
100
AcDbEntity
  8
0
  6
Continuous
 62
     7
370
    15
100
AcDbLine
 10
278.6886852105
 20
40.4368239124
 30
0.0
 11
279.8598443072
 21
41.1129196677
 31
0.0
  0
ARC
  5
1EE
330
1F
100
AcDbEntity
  8
0
  6
Continuous
 62
     7
370
    15
100
AcDbCircle
 10
279.3511726667
 20
39.4011393363
 30
0.0
 40
1.229443846057705
100
AcDbArc
 50
122.60547834
 51
177.3945215143
  0
LINE
  5
1EF
330
1F
100
AcDbEntity
  8
0
  6
Continuous
 62
     7
370
    15
100
AcDbLine
 10
278.1229997856
 20
38.8242505547
 30
0.0
 11
278.1229997856
 21
39.4570280181
 31
0.0
  0
ARC
  5
1F0
330
1F
100
AcDbEntity
  8
0
  6
Continuous
 62
     7
370
    15
100
AcDbCircle
 10
261.0970549299
 20
29.6088859341
 30
0.0
 40
0.5824788570324038
100
AcDbArc
 50
101.8882586322
 51
120.7905116802
  0
LINE
  5
1F1
330
1F
100
AcDbEntity
  8
0
  6
Continuous
 62
     7
370
    15
100
AcDbLine
 10
258.7859456794
 20
28.9472169442
 30
0.0
 11
260.7988836465
 21
30.1092612978
 31
0.0
  0
LINE
  5
1F2
330
1F
100
AcDbEntity
  8
0
  6
Continuous
 62
     7
370
    15
100
AcDbLine
 10
258.7380505031
 20
29.0141670359
 30
0.0
 11
258.7859456794
 21
28.9472169442
 31
0.0
  0
LINE
  5
1F3
330
1F
100
AcDbEntity
  8
0
  6
Continuous
 62
     7
370
    15
100
AcDbLine
 10
275.8425804163
 20
42.9989877685
 30
0.0
 11
275.8425804163
 21
45.7839685603
 31
0.0
  0
LINE
  5
1F4
330
1F
100
AcDbEntity
  8
0
  6
Continuous
 62
     7
370
    15
100
AcDbLine
 10
278.2543138834
 20
44.3912518639
 30
0.0
 11
275.8425804163
 21
42.9989877685
 31
0.0
  0
LINE
  5
1F5
330
1F
100
AcDbEntity
  8
0
  6
Continuous
 62
     7
370
    15
100
AcDbLine
 10
274.799597914
 20
19.0863849776
 30
0.0
 11
275.7783552798
 21
19.6514095779
 31
0.0
  0
LWPOLYLINE
  5
1F6
330
1F
100
AcDbEntity
  8
0
  6
Continuous
 62
     7
370
    15
100
AcDbPolyline
 90
        3
 70
   128
 43
0.0
 10
274.3726355984
 20
18.8979494441
 10
274.4031838853
 20
18.9074791369
 10
274.799597914
 20
19.0863849776
  0
ARC
  5
1F7
330
1F
100
AcDbEntity
  8
0
  6
Continuous
 62
     7
370
    15
100
AcDbCircle
 10
281.7974775613
 20
32.6209145693
 30
0.0
 40
2.480510189813496
100
AcDbArc
 50
340.8092650547
 51
14.2703419287
  0
ARC
  5
1F8
330
1F
100
AcDbEntity
  8
0
  6
Continuous
 62
     7
370
    15
100
AcDbCircle
 10
276.7764245382
 20
29.6023614285
 30
0.0
 40
7.686244433719199
100
AcDbArc
 50
343.3431752853
 51
16.6568247147
  0
ARC
  5
1F9
330
1F
100
AcDbEntity
  8
0
  6
Continuous
 62
     7
370
    15
100
AcDbCircle
 10
280.6523227326
 20
26.5974064855
 30
0.0
 40
3.578792115761203
100
AcDbArc
 50
299.9008204488
 51
12.9462273543
  0
LINE
  5
1FA
330
1F
100
AcDbEntity
  8
0
  6
Continuous
 62
     7
370
    15
100
AcDbLine
 10
281.4575937851
 20
22.929964181
 30
0.0
 11
282.4363511508
 21
23.4949887814
 31
0.0
  0
LWPOLYLINE
  5
1FB
330
1F
100
AcDbEntity
  8
0
  6
Continuous
 62
     7
370
    15
100
AcDbPolyline
 90
       10
 70
   128
 43
0.0
 10
281.4575937851
 20
22.929964181
 10
280.8750609082
 20
22.2208920879
 10
280.2564521725
 20
21.5788476924
 10
279.6116550336
 20
21.014093031
 10
278.9509755261
 20
20.5356547895
 10
278.2849735387
 20
20.151180026
 10
277.6242940313
 20
19.8668139449
 10
276.9794968923
 20
19.6871016761
 10
276.3608881566
 20
19.6149156282
 10
275.7783552798
 20
19.6514095779
  0
LINE
  5
1FC
330
1F
100
AcDbEntity
  8
0
  6
Continuous
 62
     7
370
    15
100
AcDbLine
 10
274.1712097001
 20
23.8474177778
 30
0.0
 11
274.2090560553
 21
24.5377884137
 31
0.0
  0
ARC
  5
1FD
330
1F
100
AcDbEntity
  8
0
  6
Continuous
 62
     7
370
    15
100
AcDbCircle
 10
283.8091884574
 20
23.290467137
 30
0.0
 40
9.68573198634804
100
AcDbArc
 50
151.6686915245
 51
171.0080005391
  0
LWPOLYLINE
  5
1FE
330
1F
100
AcDbEntity
  8
0
  6
Continuous
 62
     7
370
    15
100
AcDbPolyline
 90
       34
 70
   128
 43
0.0
 10
280.4271680866
 20
32.1496517387
 10
280.6637755628
 20
32.1547512626
 10
281.1823363083
 20
32.0899626568
 10
281.6531278459
 20
31.9194505563
 10
282.06738022
 20
31.646391279
 10
282.4173766926
 20
31.2758714026
 10
282.6965974918
 20
30.8147930112
 10
282.8998412623
 20
30.271745123
 10
283.0233219572
 20
29.6568436927
 10
283.0647393648
 20
28.9815431703
 10
283.0233219572
 20
28.258423127
 10
282.8998412623
 20
27.5009539209
 10
282.6965974918
 20
26.7232457702
 10
282.4173766926
 20
25.9397859063
 10
282.06738022
 20
25.1651687039
 10
281.6531278459
 20
24.4138238161
 10
281.1823363083
 20
23.6997473764
 10
280.6637755628
 20
23.0362412779
 10
280.1071054149
 20
22.4356653837
 10
279.5226955762
 20
21.9092072864
 10
278.9214324962
 20
21.4666739043
 10
278.3145165686
 20
21.116308797
 10
277.7132534886
 20
20.8646386036
 10
277.1288436499
 20
20.7163514634
 10
276.572173502
 20
20.6742096855
 10
276.0536127565
 20
20.7389982913
 10
275.5828212189
 20
20.9095103918
 10
275.1685688449
 20
21.1825696691
 10
274.8185723722
 20
21.5530895455
 10
274.539351573
 20
22.0141679369
 10
274.3361078026
 20
22.5572158251
 10
274.2126271077
 20
23.1721172554
 10
274.1712097001
 20
23.8474177778
 10
274.1712097001
 20
23.8474177778
  0
ARC
  5
1FF
330
1F
100
AcDbEntity
  8
0
  6
Continuous
 62
     7
370
    15
100
AcDbCircle
 10
284.7565641755
 20
31.0743583804
 30
0.0
 40
2.304188309302676
100
AcDbArc
 50
115.8757889868
 51
120.039995697
  0
LINE
  5
200
330
1F
100
AcDbEntity
  8
0
  6
Continuous
 62
     7
370
    15
100
AcDbLine
 10
282.624319974
 20
32.5040146779
 30
0.0
 11
283.6030773398
 21
33.0690392783
 31
0.0
  0
LWPOLYLINE
  5
201
330
1F
100
AcDbEntity
  8
0
  6
Continuous
 62
     7
370
    15
100
AcDbPolyline
 90
       10
 70
   128
 43
0.0
 10
276.9450814687
 20
29.2254600748
 10
277.5276143455
 20
29.9345321679
 10
278.1462230813
 20
30.5765765635
 10
278.7910202202
 20
31.1413312249
 10
279.4516997277
 20
31.6197694664
 10
280.1177017151
 20
32.0042442299
 10
280.7783812225
 20
32.288610311
 10
281.4231783615
 20
32.4683225798
 10
282.0417870972
 20
32.5405086277
 10
282.624319974
 20
32.5040146779
  0
LINE
  5
202
330
1F
100
AcDbEntity
  8
0
  6
Continuous
 62
     7
370
    15
100
AcDbLine
 10
275.966324103
 20
28.6604354745
 30
0.0
 11
276.9450814687
 21
29.2254600748
 31
0.0
  0
ARC
  5
203
330
1F
100
AcDbEntity
  8
0
  6
Continuous
 62
     7
370
    15
100
AcDbCircle
 10
277.2675749534
 20
26.4097921328
 30
0.0
 40
2.599740223040507
100
AcDbArc
 50
120.0351439475
 51
123.8773714499
  0
SPLINE
  5
204
330
1F
100
AcDbEntity
  8
0
  6
Continuous
 62
     7
370
    15
100
AcDbSpline
210
0.0
220
0.0
230
1.0
 70
     8
 71
     3
 72
    12
 73
     8
 74
     0
 42
0.000000001
 43
0.00000001
 40
0.0
 40
0.0
 40
0.0
 40
0.0
 40
0.5
 40
0.5
 40
0.75
 40
0.75
 40
1.0
 40
1.0
 40
1.0
 40
1.0
 10
274.3666386852263
 20
18.92442714785443
 30
0.0
 10
274.3113097151058
 20
19.09747947720557
 30
0.0
 10
274.271174663421
 20
19.28650191748529
 30
0.0
 10
274.2314816940242
 20
19.59264387408699
 30
0.0
 10
274.2217020183215
 20
19.69910344895908
 30
0.0
 10
274.2093281595952
 20
19.91551443229097
 30
0.0
 10
274.2066561961038
 20
20.02574055547144
 30
0.0
 10
274.2073477910195
 20
20.13797688695851
 30
0.0
  0
ARC
  5
205
330
1F
100
AcDbEntity
  8
0
  6
Continuous
 62
     7
370
    15
100
AcDbCircle
 10
281.6446573962
 20
22.5212064691
 30
0.0
 40
7.809824415697285
100
AcDbArc
 50
162.2323364785
 51
197.7676635215
  0
SPLINE
  5
206
330
1F
100
AcDbEntity
  8
0
  6
Continuous
 62
     7
370
    15
100
AcDbSpline
210
0.0
220
0.0
230
1.0
 70
     8
 71
     3
 72
    12
 73
     8
 74
     0
 42
0.000000001
 43
0.00000001
 40
0.0
 40
0.0
 40
0.0
 40
0.0
 40
0.2500000000000003
 40
0.2500000000000003
 40
0.5000000000000006
 40
0.5000000000000006
 40
1.0
 40
1.0
 40
1.0
 40
1.0
 10
274.2073477910195
 20
24.90443605132849
 30
0.0
 10
274.2066615688663
 20
24.96448531980884
 30
0.0
 10
274.2092858133158
 20
25.02967985603429
 30
0.0
 10
274.2215071572378
 20
25.17046568920505
 30
0.0
 10
274.2311767081881
 20
25.24649362191972
 30
0.0
 10
274.2711735693039
 20
25.4881047035716
 30
0.0
 10
274.3116022144524
 20
25.66340791151865
 30
0.0
 10
274.3666386852263
 20
25.85287468067562
 30
0.0
  0
SPLINE
  5
207
330
1F
100
AcDbEntity
  8
0
  6
Continuous
 62
     7
370
    15
100
AcDbSpline
210
0.0
220
0.0
230
1.0
 70
     8
 71
     3
 72
    14
 73
    10
 74
     0
 42
0.000000001
 43
0.00000001
 40
0.0
 40
0.0
 40
0.0
 40
0.0
 40
0.25
 40
0.25
 40
0.5
 40
0.5
 40
0.75
 40
0.75
 40
1.0
 40
1.0
 40
1.0
 40
1.0
 10
261.4674295751349
 20
24.45652355153759
 30
0.0
 10
261.4607888228024
 20
24.3911534522347
 30
0.0
 10
261.4415749986676
 20
24.32479593216148
 30
0.0
 10
261.3825159074266
 20
24.18760757219282
 30
0.0
 10
261.343616318724
 20
24.11917326726875
 30
0.0
 10
261.2522757381736
 20
23.98257442016162
 30
0.0
 10
261.2005238829753
 20
23.91553484091928
 30
0.0
 10
261.091257353906
 20
23.78754982014405
 30
0.0
 10
261.0335353565255
 20
23.72646187731692
 30
0.0
 10
260.9770621537274
 20
23.67221825462769
 30
0.0
  0
SPLINE
  5
208
330
1F
100
AcDbEntity
  8
0
  6
Continuous
 62
     7
370
    15
100
AcDbSpline
210
0.0
220
0.0
230
1.0
 70
     8
 71
     3
 72
    16
 73
    12
 74
     0
 42
0.000000001
 43
0.00000001
 40
0.0
 40
0.0
 40
0.0
 40
0.0
 40
0.25
 40
0.25
 40
0.375
 40
0.375
 40
0.5
 40
0.5
 40
0.75
 40
0.75
 40
1.0
 40
1.0
 40
1.0
 40
1.0
 10
261.4674295751349
 20
29.72321178820068
 30
0.0
 10
261.5094965213378
 20
29.2605445983065
 30
0.0
 10
261.5561711529456
 20
28.7956456340861
 30
0.0
 10
261.6082723176593
 20
28.10697243822844
 30
0.0
 10
261.6226501462855
 20
27.87886256520652
 30
0.0
 10
261.6422641415348
 20
27.42707066628436
 30
0.0
 10
261.6474683076344
 20
27.20283875664889
 30
0.0
 10
261.6472973136279
 20
26.54120863939864
 30
0.0
 10
261.6253112604664
 20
26.11485169987582
 30
0.0
 10
261.5559044867933
 20
25.27926687711992
 30
0.0
 10
261.509376306407
 20
24.86943790994739
 30
0.0
 10
261.4674295751349
 20
24.45652355153759
 30
0.0
  0
SPLINE
  5
209
330
1F
100
AcDbEntity
  8
0
  6
Continuous
 62
     7
370
    15
100
AcDbSpline
210
0.0
220
0.0
230
1.0
 70
     8
 71
     3
 72
    14
 73
    10
 74
     0
 42
0.000000001
 43
0.00000001
 40
0.0
 40
0.0
 40
0.0
 40
0.0
 40
0.2499999999999994
 40
0.2499999999999994
 40
0.4999999999999997
 40
0.4999999999999997
 40
0.7499999999999999
 40
0.7499999999999999
 40
1.0
 40
1.0
 40
1.0
 40
1.0
 10
260.9770621537274
 20
30.17887133084814
 30
0.0
 10
261.0341625934775
 20
30.18995199916721
 30
0.0
 10
261.0906099078444
 20
30.18653410192868
 30
0.0
 10
261.20091347083
 20
30.15189961530847
 30
0.0
 10
261.2520341346269
 20
30.12156926063891
 30
0.0
 10
261.3437809866282
 20
30.03737494484124
 30
0.0
 10
261.3823588840497
 20
29.98540621592059
 30
0.0
 10
261.4414101657181
 20
29.86384815443035
 30
0.0
 10
261.4608012175609
 20
29.79611281499662
 30
0.0
 10
261.4674295751349
 20
29.72321178820068
 30
0.0
  0
SPLINE
  5
20A
330
1F
100
AcDbEntity
  8
0
  6
Continuous
 62
     7
370
    15
100
AcDbSpline
210
0.0
220
0.0
230
1.0
 70
     8
 71
     3
 72
     8
 73
     4
 74
     0
 42
0.000000001
 43
0.00000001
 40
0.0
 40
0.0
 40
0.0
 40
0.0
 40
1.0
 40
1.0
 40
1.0
 40
1.0
 10
256.0341059573225
 20
31.38350567830236
 30
0.0
 10
255.6534080913221
 20
31.32053884063176
 30
0.0
 10
255.2725701190822
 20
31.25783871849673
 30
0.0
 10
254.8916294683425
 20
31.1953578398237
 30
0.0
  0
SPLINE
  5
20B
330
1F
100
AcDbEntity
  8
0
  6
Continuous
 62
     7
370
    15
100
AcDbSpline
210
0.0
220
0.0
230
1.0
 70
     8
 71
     3
 72
     8
 73
     4
 74
     0
 42
0.000000001
 43
0.00000001
 40
0.0
 40
0.0
 40
0.0
 40
0.0
 40
0.0011901715795577
 40
0.0011901715795577
 40
0.0011901715795577
 40
0.0011901715795577
 10
254.5339426707847
 20
31.56275449567932
 30
0.0
 10
254.6535891782795
 20
31.44013958592383
 30
0.0
 10
254.7728323524276
 20
31.31766754542811
 30
0.0
 10
254.8916294683425
 20
31.1953578398237
 30
0.0
  0
LWPOLYLINE
  5
20C
330
1F
100
AcDbEntity
  8
0
  6
Continuous
 62
     7
370
    15
100
AcDbPolyline
 90
       23
 70
   128
 43
0.0
 10
254.5339426708
 20
31.5627544957
 10
254.8484249983
 20
32.8026750879
 10
255.240777667
 20
34.0522876384
 10
255.7080771317
 20
35.3022808849
 10
256.2468413949
 20
36.5433407285
 10
256.8530559521
 20
37.7662196359
 10
257.5222037048
 20
38.9618055458
 10
258.2492986195
 20
40.1211897655
 10
259.0289228796
 20
41.235733353
 10
259.8552672559
 20
42.297131488
 10
260.7221743923
 20
43.297475354
 10
261.623184687
 20
44.2293110692
 10
262.5515844244
 20
45.0856952282
 10
263.5004558015
 20
45.860246639
 10
264.4627284747
 20
46.5471938716
 10
265.4312322427
 20
47.1414182628
 10
266.3987504748
 20
47.6384920569
 10
267.3580738836
 20
48.0347113982
 10
268.3020542437
 20
48.3271239298
 10
269.2236576562
 20
48.5135507926
 10
270.1160169596
 20
48.5926028605
 10
270.9724828997
 20
48.5636910913
 10
271.7866736751
 20
48.4270309157
  0
SPLINE
  5
20D
330
1F
100
AcDbEntity
  8
0
  6
Continuous
 62
     7
370
    15
100
AcDbSpline
210
0.0
220
0.0
230
1.0
 70
     8
 71
     3
 72
     9
 73
     5
 74
     0
 42
0.000000001
 43
0.00000001
 40
0.0
 40
0.0
 40
0.0
 40
0.0
 40
0.0015836891400989
 40
1.0
 40
1.0
 40
1.0
 40
1.0
 10
272.2200817493328
 20
47.09475242682485
 30
0.0
 10
272.219858092824
 20
47.09545547278812
 30
0.0
 10
272.0786330865481
 20
47.53938474240356
 30
0.0
 10
271.9325376959968
 20
47.98355954646685
 30
0.0
 10
271.7866736751289
 20
48.42703091571664
 30
0.0
  0
LWPOLYLINE
  5
20E
330
1F
100
AcDbEntity
  8
0
  6
Continuous
 62
     7
370
    15
100
AcDbPolyline
 90
       22
 70
   128
 43
0.0
 10
256.0341059573
 20
31.3835056783
 10
256.3289343432
 20
32.5588274909
 10
256.7006248028
 20
33.7439430482
 10
257.1461826626
 20
34.929303991
 10
257.662018107
 20
36.105359983
 10
258.2439751005
 20
37.2626356569
 10
258.887364873
 20
38.3918069567
 10
259.5870036966
 20
39.4837762606
 10
260.3372546503
 20
40.5297456795
 10
261.1320730359
 20
41.521287941
 10
261.9650550802
 20
42.4504142866
 10
262.8294895289
 20
43.3096388371
 10
263.7184117189
 20
44.092038905
 10
264.6246596917
 20
44.79131077
 10
265.5409318967
 20
45.4018204676
 10
266.459846019
 20
45.9186491813
 10
267.3739984582
 20
46.3376328732
 10
268.2760239782
 20
46.655395833
 10
269.1586550482
 20
46.8693778758
 10
270.0147803967
 20
46.9778549693
 10
270.8375023063
 20
46.9799531244
 10
271.0828840598
 20
46.9591724014
  0
ARC
  5
20F
330
1F
100
AcDbEntity
  8
0
  6
Continuous
 62
     7
370
    15
100
AcDbCircle
 10
277.8073324574
 20
19.3136614661
 30
0.0
 40
3.693153870467025
100
AcDbArc
 50
163.7051539947
 51
167.1028904291
  0
ARC
  5
210
330
1F
100
AcDbEntity
  8
0
  6
Continuous
 62
     7
370
    15
100
AcDbCircle
 10
281.6262507156
 20
22.5530628274
 30
0.0
 40
7.686244433719635
100
AcDbArc
 50
163.3431752853
 51
196.6568247147
  0
ARC
  5
211
330
1F
100
AcDbEntity
  8
0
  6
Continuous
 62
     7
370
    15
100
AcDbCircle
 10
275.5371114829
 20
25.3152109112
 30
0.0
 40
1.391764154526834
100
AcDbArc
 50
197.1663456622
 51
203.6800706087
  0
LWPOLYLINE
  5
212
330
1F
100
AcDbEntity
  8
0
  6
Continuous
 62
     7
370
    15
100
AcDbPolyline
 90
       30
 70
   128
 43
0.0
 10
280.2994903013
 20
32.0922392025
 10
280.3857414854
 20
32.0860651877
 10
280.8764515665
 20
31.9871332129
 10
281.3163214466
 20
31.7837085053
 10
281.6967895587
 20
31.4797504952
 10
282.0104505239
 20
31.0811753796
 10
282.2511992882
 20
30.5957409698
 10
282.4143499507
 20
30.0328956943
 10
282.4967269695
 20
29.4035946963
 10
282.4967269695
 20
28.7200866039
 10
282.4143499507
 20
27.9956751245
 10
282.2511992882
 20
27.2444601036
 10
282.0104505239
 20
26.4810630872
 10
281.6967895587
 20
25.7203427297
 10
281.3163214466
 20
24.9771055877
 10
280.8764515665
 20
24.2658179266
 10
280.3857414854
 20
23.6003241518
 10
279.8537423167
 20
22.9935773426
 10
279.2908088192
 20
22.4573871354
 10
278.707897853
 20
22.0021898627
 10
278.1163551172
 20
21.6368454217
 10
277.527694318
 20
21.3684648263
 10
276.9533730685
 20
21.2022717995
 10
276.4045698784
 20
21.1415010996
 10
275.8919665776
 20
21.1873355591
 10
275.4255404063
 20
21.3388830624
 10
275.0143698193
 20
21.5931939098
 10
274.6664577844
 20
21.9453182298
 10
274.3885760137
 20
22.388402323
 10
274.3872117457
 20
22.3911569395
  0
LINE
  5
213
330
1F
100
AcDbEntity
  8
0
  6
Continuous
 62
     7
370
    15
100
AcDbLine
 10
253.1981602054
 20
32.333885299
 30
0.0
 11
254.5339426708
 21
31.5627544957
 31
0.0
  0
LINE
  5
214
330
1F
100
AcDbEntity
  8
0
  6
Continuous
 62
     7
370
    15
100
AcDbLine
 10
271.7866736751
 20
48.4270309157
 30
0.0
 11
270.4508912097
 21
49.198161719
 31
0.0
  0
LINE
  5
215
330
1F
100
AcDbEntity
  8
0
  6
Continuous
 62
     7
370
    15
100
AcDbLine
 10
257.2606480624
 20
31.0832210282
 30
0.0
 11
256.6701374066
 21
31.4241155737
 31
0.0
  0
SPLINE
  5
216
330
1F
100
AcDbEntity
  8
0
  6
Continuous
 62
     7
370
    15
100
AcDbSpline
210
0.0
220
0.0
230
1.0
 70
     8
 71
     3
 72
    14
 73
    10
 74
     0
 42
0.000000001
 43
0.00000001
 40
0.0
 40
0.0
 40
0.0
 40
0.0
 40
0.1134672924296923
 40
0.2883992905203614
 40
0.4633613092182048
 40
0.6379606666891402
 40
0.812322931875748
 40
0.986940972190997
 40
1.0
 40
1.0
 40
1.0
 40
1.0
 10
264.0548726615278
 20
42.53588174008659
 30
0.0
 10
263.9853222161499
 20
42.53923180092075
 30
0.0
 10
263.8085461719451
 20
42.54774663499389
 30
0.0
 10
263.513711169341
 20
42.46260004107143
 30
0.0
 10
263.2210638298161
 20
42.2991642796915
 30
0.0
 10
262.9955257215635
 20
42.06847784734066
 30
0.0
 10
262.8764182730013
 20
41.80574035642583
 30
0.0
 10
262.8423755448995
 20
41.61069626478629
 30
0.0
 10
262.8740822348494
 20
41.52484196435607
 30
0.0
 10
262.8762884636121
 20
41.51886801288695
 30
0.0
  0
SPLINE
  5
217
330
1F
100
AcDbEntity
  8
0
  6
Continuous
 62
     7
370
    15
100
AcDbSpline
210
0.0
220
0.0
230
1.0
 70
     8
 71
     3
 72
    12
 73
     8
 74
     0
 42
0.000000001
 43
0.00000001
 40
0.0
 40
0.0
 40
0.0
 40
0.0
 40
0.2499999999999978
 40
0.2499999999999978
 40
0.4999999999999957
 40
0.4999999999999957
 40
1.0
 40
1.0
 40
1.0
 40
1.0
 10
256.6701374065599
 20
31.424115573718
 30
0.0
 10
256.6320997990073
 20
31.44607421715524
 30
0.0
 10
256.5866165225491
 20
31.46308885106677
 30
0.0
 10
256.4863753289678
 20
31.48548398318078
 30
0.0
 10
256.4330533299633
 20
31.49057693253535
 30
0.0
 10
256.2719898230842
 20
31.48762741219559
 30
0.0
 10
256.1678458916083
 20
31.46071209898069
 30
0.0
 10
256.092352807755
 20
31.41713086932475
 30
0.0
  0
SPLINE
  5
218
330
1F
100
AcDbEntity
  8
0
  6
Continuous
 62
     7
370
    15
100
AcDbSpline
210
0.0
220
0.0
230
1.0
 70
     8
 71
     3
 72
    10
 73
     6
 74
     0
 42
0.000000001
 43
0.00000001
 40
0.0
 40
0.0
 40
0.0
 40
0.0
 40
0.5
 40
0.5
 40
1.0
 40
1.0
 40
1.0
 40
1.0
 10
253.0965160947712
 20
32.36460735027715
 30
0.0
 10
253.1037787764198
 20
32.36860395576497
 30
0.0
 10
253.1155724403855
 20
32.36878573415014
 30
0.0
 10
253.1496314511528
 20
32.35906410464039
 30
0.0
 10
253.171803938705
 20
32.34910044786469
 30
0.0
 10
253.1981602053686
 20
32.33388529898338
 30
0.0
  0
LINE
  5
219
330
1F
100
AcDbEntity
  8
0
  6
Continuous
 62
     7
370
    15
100
AcDbLine
 10
256.0923528078
 20
31.4171308693
 30
0.0
 11
256.0341059573
 21
31.3835056783
 31
0.0
  0
ARC
  5
21A
330
1F
100
AcDbEntity
  8
0
  6
Continuous
 62
     7
370
    15
100
AcDbCircle
 10
274.8128372672
 20
20.4075291833
 30
0.0
 40
2.304188309358409
100
AcDbArc
 50
295.8757889869
 51
300.0399956969
  0
SPLINE
  5
21B
330
1F
100
AcDbEntity
  8
0
  6
Continuous
 62
     7
370
    15
100
AcDbSpline
210
0.0
220
0.0
230
1.0
 70
     8
 71
     3
 72
    12
 73
     8
 74
     0
 42
0.000000001
 43
0.00000001
 40
0.0
 40
0.0
 40
0.0
 40
0.0
 40
0.5000000000000003
 40
0.5000000000000003
 40
0.7500000000000001
 40
0.7500000000000001
 40
1.0
 40
1.0
 40
1.0
 40
1.0
 10
275.8184348862493
 20
18.33435355308609
 30
0.0
 10
275.7070188615104
 20
18.23375161559976
 30
0.0
 10
275.5923966490034
 20
18.16027692121483
 30
0.0
 10
275.4166733335034
 20
18.09264972798287
 30
0.0
 10
275.3577488219089
 20
18.07752682271224
 30
0.0
 10
275.2422644346793
 20
18.06276477885377
 30
0.0
 10
275.1852888821498
 20
18.06294754928046
 30
0.0
 10
275.1291573423516
 20
18.07078214841522
 30
0.0
  0
LINE
  5
21C
330
1F
100
AcDbEntity
  8
0
  6
Continuous
 62
     7
370
    15
100
AcDbLine
 10
258.7859456794
 20
28.9472169442
 30
0.0
 11
257.05876298
 21
29.9442982931
 31
0.0
  0
SPLINE
  5
21D
330
1F
100
AcDbEntity
  8
0
  6
Continuous
 62
     7
370
    15
100
AcDbSpline
210
0.0
220
0.0
230
1.0
 70
     8
 71
     3
 72
     8
 73
     4
 74
     0
 42
0.000000001
 43
0.00000001
 40
0.0
 40
0.0
 40
0.0
 40
0.0
 40
0.0011901715795577
 40
0.0011901715795577
 40
0.0011901715795577
 40
0.0011901715795577
 10
257.0587629800314
 20
29.94429829307691
 30
0.0
 10
257.0466015132128
 20
30.00504854878774
 30
0.0
 10
257.0351180662568
 20
30.0653122229178
 30
0.0
 10
257.0242572426142
 20
30.12512649413454
 30
0.0
  0
SPLINE
  5
21E
330
1F
100
AcDbEntity
  8
0
  6
Continuous
 62
     7
370
    15
100
AcDbSpline
210
0.0
220
0.0
230
1.0
 70
     8
 71
     3
 72
    12
 73
     8
 74
     0
 42
0.000000001
 43
0.00000001
 40
0.0
 40
0.0
 40
0.0
 40
0.0
 40
0.4999999999999997
 40
0.4999999999999997
 40
0.7499999999999998
 40
0.7499999999999998
 40
1.0
 40
1.0
 40
1.0
 40
1.0
 10
284.8291528300513
 20
23.6704703507495
 30
0.0
 10
284.6755261819141
 20
23.50050081329256
 30
0.0
 10
284.5078283994736
 20
23.35246630571283
 30
0.0
 10
284.2359871836123
 20
23.16164363058962
 30
0.0
 10
284.1414167878176
 20
23.10307088085145
 30
0.0
 10
283.9490178636264
 20
22.9989897240785
 30
0.0
 10
283.8509461226322
 20
22.95322676331146
 30
0.0
 10
283.7509665565011
 20
22.91370661205189
 30
0.0
  0
LWPOLYLINE
  5
21F
330
1F
100
AcDbEntity
  8
0
  6
Continuous
 62
     7
370
    15
100
AcDbPolyline
 90
       13
 70
   128
 43
0.0
 10
283.7509665565
 20
22.9137066121
 10
283.1837764756
 20
22.0681663334
 10
282.5663195129
 20
21.2769405459
 10
281.9077268669
 20
20.5517302108
 10
281.2177380674
 20
19.9032600264
 10
280.5065569426
 20
19.3411198272
 10
279.7847007214
 20
18.8736227659
 10
279.0628445001
 20
18.5076823744
 10
278.3516633753
 20
18.2487103247
 10
277.6616745758
 20
18.1005363982
 10
277.0030819299
 20
18.0653518498
 10
276.3856249671
 20
18.1436770026
 10
275.8184348862
 20
18.3343535531
  0
SPLINE
  5
220
330
1F
100
AcDbEntity
  8
0
  6
Continuous
 62
     7
370
    15
100
AcDbSpline
210
0.0
220
0.0
230
1.0
 70
     8
 71
     3
 72
    12
 73
     8
 74
     0
 42
0.000000001
 43
0.00000001
 40
0.0
 40
0.0
 40
0.0
 40
0.0
 40
0.4999999999999996
 40
0.4999999999999996
 40
0.7499999999999998
 40
0.7499999999999998
 40
1.0
 40
1.0
 40
1.0
 40
1.0
 10
285.5916714871765
 20
32.33294818499857
 30
0.0
 10
285.6067604871711
 20
32.18312589593585
 30
0.0
 10
285.594306320164
 20
32.02446256539515
 30
0.0
 10
285.5363674061053
 20
31.77468229542012
 30
0.0
 10
285.5102105200407
 20
31.6889684560709
 30
0.0
 10
285.4454439347478
 20
31.5170897031761
 30
0.0
 10
285.4068466616892
 20
31.43068780314311
 30
0.0
 10
285.3620536517308
 20
31.34391067664575
 30
0.0
  0
ARC
  5
221
330
1F
100
AcDbEntity
  8
0
  6
Continuous
 62
     7
370
    15
100
AcDbCircle
 10
281.7620689854
 20
32.1682260975
 30
0.0
 40
3.693153870427513
100
AcDbArc
 50
343.7051539947
 51
347.1028904291
  0
LINE
  5
222
330
1F
100
AcDbEntity
  8
0
  6
Continuous
 62
     7
370
    15
100
AcDbLine
 10
284.1401446526
 20
31.8055363129
 30
0.0
 11
285.3068708416
 21
31.1319996207
 31
0.0
  0
LINE
  5
223
330
1F
100
AcDbEntity
  8
0
  6
Continuous
 62
     7
370
    15
100
AcDbLine
 10
255.7607478306
 20
31.3383639364
 30
0.0
 11
255.7607478306
 21
29.0790361788
 31
0.0
  0
LINE
  5
224
330
1F
100
AcDbEntity
  8
0
  6
Continuous
 62
     7
370
    15
100
AcDbLine
 10
255.7607478306
 20
29.0790361788
 30
0.0
 11
255.7607478306
 21
27.6132282163
 31
0.0
  0
ARC
  5
225
330
1F
100
AcDbEntity
  8
0
  6
Continuous
 62
     7
370
    15
100
AcDbCircle
 10
266.0365691031
 20
30.3690694703
 30
0.0
 40
10.35648051793325
100
AcDbArc
 50
174.7090436409
 51
187.155514764
  0
LINE
  5
226
330
1F
100
AcDbEntity
  8
0
  6
Continuous
 62
     7
370
    15
100
AcDbLine
 10
253.5356778291
 20
31.9781320593
 30
0.0
 11
253.0965160948
 21
32.3646073503
 31
0.0
  0
LINE
  5
227
330
1F
100
AcDbEntity
  8
0
  6
Continuous
 62
     7
370
    15
100
AcDbLine
 10
254.8916294683
 20
31.1953578398
 30
0.0
 11
253.5356778291
 21
31.9781320593
 31
0.0
  0
LWPOLYLINE
  5
228
330
1F
100
AcDbEntity
  8
0
  6
Continuous
 62
     7
370
    15
100
AcDbPolyline
 90
       10
 70
   128
 43
0.0
 10
282.624319974
 20
22.2564274888
 10
282.0417870972
 20
21.5473553957
 10
281.4231783615
 20
20.9053110001
 10
280.7783812225
 20
20.3405563387
 10
280.1177017151
 20
19.8621180972
 10
279.4516997277
 20
19.4776433337
 10
278.7910202202
 20
19.1932772526
 10
278.1462230813
 20
19.0135649838
 10
277.5276143455
 20
18.9413789359
 10
276.9450814687
 20
18.9778728857
  0
LINE
  5
229
330
1F
100
AcDbEntity
  8
0
  6
Continuous
 62
     7
370
    15
100
AcDbLine
 10
283.6030773398
 20
22.8214520891
 30
0.0
 11
282.624319974
 21
22.2564274888
 31
0.0
  0
ARC
  5
22A
330
1F
100
AcDbEntity
  8
0
  6
Continuous
 62
     7
370
    15
100
AcDbCircle
 10
282.3018264893
 20
25.0720954309
 30
0.0
 40
2.599740223104852
100
AcDbArc
 50
300.0351439476
 51
303.8773714499
  0
LINE
  5
22B
330
1F
100
AcDbEntity
  8
0
  6
Continuous
 62
     7
370
    15
100
AcDbLine
 10
276.9450814687
 20
18.9778728857
 30
0.0
 11
275.966324103
 21
18.4128482853
 31
0.0
  0
LINE
  5
22C
330
1F
100
AcDbEntity
  8
0
  6
Continuous
 62
     7
370
    15
100
AcDbLine
 10
254.7619595021
 20
31.1139296677
 30
0.0
 11
254.7631054617
 21
31.2695531696
 31
0.0
  0
ARC
  5
22D
330
1F
100
AcDbEntity
  8
0
  6
Continuous
 62
     7
370
    15
100
AcDbCircle
 10
261.7624226219
 20
30.8702912335
 30
0.0
 40
7.004701533790317
100
AcDbArc
 50
178.0067287441
 51
210.5826315432
  0
LINE
  5
22E
330
1F
100
AcDbEntity
  8
0
  6
Continuous
 62
     7
370
    15
100
AcDbLine
 10
275.7783552798
 20
19.6514095779
 30
0.0
 11
276.9450814687
 21
18.9778728857
 31
0.0
  0
ARC
  5
22F
330
1F
100
AcDbEntity
  8
0
  6
Continuous
 62
     7
370
    15
100
AcDbCircle
 10
260.3243433263
 20
24.3419950023
 30
0.0
 40
0.9352233740675703
100
AcDbArc
 50
300.4913670713
 51
314.2610238816
  0
LINE
  5
230
330
1F
100
AcDbEntity
  8
0
  6
Continuous
 62
     7
370
    15
100
AcDbLine
 10
258.7859456794
 20
22.3740634085
 30
0.0
 11
258.7380505031
 21
22.2518147233
 31
0.0
  0
LINE
  5
231
330
1F
100
AcDbEntity
  8
0
  6
Continuous
 62
     7
370
    15
100
AcDbLine
 10
258.7859456794
 20
22.3740634085
 30
0.0
 11
260.7988836465
 21
23.5361077621
 31
0.0
  0
LINE
  5
232
330
1F
100
AcDbEntity
  8
0
  6
Continuous
 62
     7
370
    15
100
AcDbLine
 10
241.5151121772
 20
54.9432845111
 30
0.0
 11
241.5549516544
 21
54.9293706726
 31
0.0
  0
LINE
  5
233
330
1F
100
AcDbEntity
  8
0
  6
Continuous
 62
     7
370
    15
100
AcDbLine
 10
235.3901699053
 20
44.2504983874
 30
0.0
 11
235.3197716726
 21
44.3126326634
 31
0.0
  0
LINE
  5
234
330
1F
100
AcDbEntity
  8
0
  6
Continuous
 62
     7
370
    15
100
AcDbLine
 10
282.624319974
 20
22.2564274888
 30
0.0
 11
281.4575937851
 21
22.929964181
 31
0.0
  0
SPLINE
  5
235
330
1F
100
AcDbEntity
  8
0
  6
Continuous
 62
     7
370
    15
100
AcDbSpline
210
0.0
220
0.0
230
1.0
 70
     8
 71
     3
 72
    12
 73
     8
 74
     0
 42
0.000000001
 43
0.00000001
 40
0.0
 40
0.0
 40
0.0
 40
0.0
 40
0.25
 40
0.25
 40
0.5
 40
0.5
 40
1.0
 40
1.0
 40
1.0
 40
1.0
 10
285.3620536517308
 20
26.57745151227577
 30
0.0
 10
285.4064986802366
 20
26.49214082259257
 30
0.0
 10
285.4449039989545
 20
26.40326042371835
 30
0.0
 10
285.5095027813158
 20
26.21812727560334
 30
0.0
 10
285.5357994918765
 20
26.1213364620687
 30
0.0
 10
285.5945474023894
 20
25.82272123712291
 30
0.0
 10
285.6066807184238
 20
25.61707465486188
 30
0.0
 10
285.5916714871765
 20
25.40450065217741
 30
0.0
  0
ARC
  5
236
330
1F
100
AcDbEntity
  8
0
  6
Continuous
 62
     7
370
    15
100
AcDbCircle
 10
277.9247440466
 20
28.9606810945
 30
0.0
 40
7.809824415697231
100
AcDbArc
 50
342.2323364785
 51
17.7676635215
  0
LINE
  5
237
330
1F
100
AcDbEntity
  8
0
  6
Continuous
 62
     7
370
    15
100
AcDbLine
 10
257.05876298
 20
23.3711447574
 30
0.0
 11
258.7859456794
 21
22.3740634085
 31
0.0
  0
SPLINE
  5
238
330
1F
100
AcDbEntity
  8
0
  6
Continuous
 62
     7
370
    15
100
AcDbSpline
210
0.0
220
0.0
230
1.0
 70
     8
 71
     3
 72
    14
 73
    10
 74
     0
 42
0.000000001
 43
0.00000001
 40
0.0
 40
0.0
 40
0.0
 40
0.0
 40
0.25
 40
0.25
 40
0.5
 40
0.5
 40
0.75
 40
0.75
 40
1.0
 40
1.0
 40
1.0
 40
1.0
 10
258.7380505030691
 20
22.25181472325955
 30
0.0
 10
258.721142305531
 20
22.2086578737104
 30
0.0
 10
258.70061911465
 20
22.1686419012214
 30
0.0
 10
258.6518356790878
 20
22.09533227423648
 30
0.0
 10
258.623378700712
 20
22.06204511563041
 30
0.0
 10
258.5600160782037
 20
22.00912226930008
 30
0.0
 10
258.5246970174628
 20
21.98905860287482
 30
0.0
 10
258.4498789404117
 20
21.97229961239278
 30
0.0
 10
258.411509466347
 20
21.97649650800397
 30
0.0
 10
258.37771737756
 20
21.99600426562641
 30
0.0
  0
LINE
  5
239
330
1F
100
AcDbEntity
  8
0
  6
Continuous
 62
     7
370
    15
100
AcDbLine
 10
258.3777173776
 20
21.9960042656
 30
0.0
 11
257.0242572426
 21
22.7773401703
 31
0.0
  0
SPLINE
  5
23A
330
1F
100
AcDbEntity
  8
0
  6
Continuous
 62
     7
370
    15
100
AcDbSpline
210
0.0
220
0.0
230
1.0
 70
     8
 71
     3
 72
     8
 73
     4
 74
     0
 42
0.000000001
 43
0.00000001
 40
0.0
 40
0.0
 40
0.0
 40
0.0
 40
0.0011901715795577
 40
0.0011901715795577
 40
0.0011901715795577
 40
0.0011901715795577
 10
257.0242572426142
 20
22.77734017032825
 30
0.0
 10
257.0351180662568
 20
22.97529535868641
 30
0.0
 10
257.0466015132128
 20
23.17323427118799
 30
0.0
 10
257.0587629800314
 20
23.37114475739662
 30
0.0
  0
ARC
  5
23B
330
1F
100
AcDbEntity
  8
0
  6
Continuous
 62
     7
370
    15
100
AcDbCircle
 10
263.9840156357
 20
22.947644872
 30
0.0
 40
5.550166494171407
100
AcDbArc
 50
212.5912355045
 51
267.6387250072
  0
SPLINE
  5
23C
330
1F
100
AcDbEntity
  8
0
  6
Continuous
 62
     7
370
    15
100
AcDbSpline
210
0.0
220
0.0
230
1.0
 70
     8
 71
     3
 72
     8
 73
     4
 74
     0
 42
0.000000001
 43
0.00000001
 40
0.0
 40
0.0
 40
0.0
 40
0.0
 40
1.0
 40
1.0
 40
1.0
 40
1.0
 10
257.3846799093888
 20
24.03068239583139
 30
0.0
 10
257.2756063290017
 20
23.81091019577217
 30
0.0
 10
257.1669947635338
 20
23.5910571141025
 30
0.0
 10
257.0587629800314
 20
23.37114475739662
 30
0.0
  0
LINE
  5
23D
330
1F
100
AcDbEntity
  8
0
  6
Continuous
 62
     7
370
    15
100
AcDbLine
 10
257.4429267598
 20
24.0643075869
 30
0.0
 11
257.3846799094
 21
24.0306823958
 31
0.0
  0
SPLINE
  5
23E
330
1F
100
AcDbEntity
  8
0
  6
Continuous
 62
     7
370
    15
100
AcDbSpline
210
0.0
220
0.0
230
1.0
 70
     8
 71
     3
 72
    12
 73
     8
 74
     0
 42
0.000000001
 43
0.00000001
 40
0.0
 40
0.0
 40
0.0
 40
0.0
 40
0.2500000000000015
 40
0.2500000000000015
 40
0.500000000000003
 40
0.500000000000003
 40
1.0
 40
1.0
 40
1.0
 40
1.0
 10
257.4550259336769
 20
24.39785553597611
 30
0.0
 10
257.4930635412295
 20
24.37589689253887
 30
0.0
 10
257.5225369451412
 20
24.3496399559342
 30
0.0
 10
257.5613306551842
 20
24.29177194663489
 30
0.0
 10
257.5701528581307
 20
24.26098981182576
 30
0.0
 10
257.565043585444
 20
24.16800982843901
 30
0.0
 10
257.5184198436746
 20
24.1078888165097
 30
0.0
 10
257.4429267598213
 20
24.06430758685377
 30
0.0
  0
LINE
  5
23F
330
1F
100
AcDbEntity
  8
0
  6
Continuous
 62
     7
370
    15
100
AcDbLine
 10
256.6701374066
 20
24.850962038
 30
0.0
 11
257.4550259337
 21
24.397855536
 31
0.0
  0
SPLINE
  5
240
330
1F
100
AcDbEntity
  8
0
  6
Continuous
 62
     7
370
    15
100
AcDbSpline
210
0.0
220
0.0
230
1.0
 70
     8
 71
     3
 72
    12
 73
     8
 74
     0
 42
0.000000001
 43
0.00000001
 40
0.0
 40
0.0
 40
0.0
 40
0.0
 40
0.5
 40
0.5
 40
0.75
 40
0.75
 40
1.0
 40
1.0
 40
1.0
 40
1.0
 10
256.092352807755
 20
24.84397733364446
 30
0.0
 10
256.1675969450605
 20
24.88741484951738
 30
0.0
 10
256.2723130474717
 20
24.91442390535288
 30
0.0
 10
256.4323353538477
 20
24.9174380483801
 30
0.0
 10
256.4869707075335
 20
24.91222069709789
 30
0.0
 10
256.5865359665113
 20
24.88992992743103
 30
0.0
 10
256.6325161041455
 20
24.87268035363421
 30
0.0
 10
256.6701374065599
 20
24.85096203803771
 30
0.0
  0
LINE
  5
241
330
1F
100
AcDbEntity
  8
0
  6
Continuous
 62
     7
370
    15
100
AcDbLine
 10
256.0341059573
 20
24.8103521426
 30
0.0
 11
256.0923528078
 21
24.8439773336
 31
0.0
  0
SPLINE
  5
242
330
1F
100
AcDbEntity
  8
0
  6
Continuous
 62
     7
370
    15
100
AcDbSpline
210
0.0
220
0.0
230
1.0
 70
     8
 71
     3
 72
     8
 73
     4
 74
     0
 42
0.000000001
 43
0.00000001
 40
0.0
 40
0.0
 40
0.0
 40
0.0
 40
1.0
 40
1.0
 40
1.0
 40
1.0
 10
254.8916294683444
 20
24.62220430414371
 30
0.0
 10
255.2725701190834
 20
24.68468518281664
 30
0.0
 10
255.6534080913227
 20
24.74738530495158
 30
0.0
 10
256.0341059573225
 20
24.81035214262208
 30
0.0
  0
LINE
  5
243
330
1F
100
AcDbEntity
  8
0
  6
Continuous
 62
     7
370
    15
100
AcDbLine
 10
253.5356778291
 20
25.4049785237
 30
0.0
 11
254.8916294683
 21
24.6222043041
 31
0.0
  0
LINE
  5
244
330
1F
100
AcDbEntity
  8
0
  6
Continuous
 62
     7
370
    15
100
AcDbLine
 10
253.5356778291
 20
25.4049785237
 30
0.0
 11
255.5486157962
 21
26.5670228773
 31
0.0
  0
ARC
  5
245
330
1F
100
AcDbEntity
  8
0
  6
Continuous
 62
     7
370
    15
100
AcDbCircle
 10
263.2355981026
 20
24.3620636909
 30
0.0
 40
6.410312310261018
100
AcDbArc
 50
194.3127542706
 51
238.1451045083
  0
ARC
  5
246
330
1F
100
AcDbEntity
  8
0
  6
Continuous
 62
     7
370
    15
100
AcDbCircle
 10
284.0322899598
 20
26.1666766524
 30
0.0
 40
1.391764154515871
100
AcDbArc
 50
17.1663456622
 51
23.6800706087
  0
ARC
  5
247
330
1F
100
AcDbEntity
  8
0
  6
Continuous
 62
     7
370
    15
100
AcDbCircle
 10
277.9431507272
 20
28.9288247362
 30
0.0
 40
7.6862444337192
100
AcDbArc
 50
343.3431752853
 51
16.6568247147
  0
LINE
  5
248
330
1F
100
AcDbEntity
  8
0
  6
Continuous
 62
     7
370
    15
100
AcDbLine
 10
284.1401446526
 20
27.3991865441
 30
0.0
 11
285.3068708416
 21
26.7256498518
 31
0.0
  0
ELLIPSE
  5
249
330
1F
100
AcDbEntity
  8
0
  6
Continuous
 62
     7
370
    15
100
AcDbEllipse
 10
255.3143012212
 20
27.3555224517
 30
0.0
 11
-6.005970388400782E-5
 21
0.8534489614827194
 31
0.0
210
0.0
220
0.0
230
1.0
 40
0.7174342186
 41
3.53419364555734
 42
5.10498997235235
  0
ARC
  5
24A
330
1F
100
AcDbEntity
  8
0
  6
Continuous
 62
     7
370
    15
100
AcDbCircle
 10
262.6930904549
 20
26.6741720673
 30
0.0
 40
6.91490413890152
100
AcDbArc
 50
195.6366952156
 51
215.4285397018
  0
ARC
  5
24B
330
1F
100
AcDbEntity
  8
0
  6
Continuous
 62
     7
370
    15
100
AcDbCircle
 10
260.3958614337
 20
25.5835964561
 30
0.0
 40
6.019570994993755
100
AcDbArc
 50
193.141875593
 51
253.691584192
  0
SPLINE
  5
24C
330
1F
100
AcDbEntity
  8
0
  6
Continuous
 62
     7
370
    15
100
AcDbSpline
210
0.0
220
0.0
230
1.0
 70
     8
 71
     3
 72
     8
 73
     4
 74
     0
 42
0.000000001
 43
0.00000001
 40
0.0000000000000007
 40
0.0000000000000007
 40
0.0000000000000007
 40
0.0000000000000007
 40
0.0011901715795607
 40
0.0011901715795607
 40
0.0011901715795607
 40
0.0011901715795607
 10
254.8916294683453
 20
24.6222043041418
 30
0.0
 10
254.77283235243
 20
24.48585326782641
 30
0.0
 10
254.6535891782798
 20
24.35012272169279
 30
0.0
 10
254.5339426707847
 20
24.21496817187302
 30
0.0
  0
LINE
  5
24D
330
1F
100
AcDbEntity
  8
0
  6
Continuous
 62
     7
370
    15
100
AcDbLine
 10
253.0965160948
 20
25.151403842
 30
0.0
 11
253.5356778291
 21
25.4049785237
 31
0.0
  0
LINE
  5
24E
330
1F
100
AcDbEntity
  8
0
  6
Continuous
 62
     7
370
    15
100
AcDbLine
 10
254.5339426708
 20
24.2149681719
 30
0.0
 11
253.1981602054
 21
24.9860989752
 31
0.0
  0
SPLINE
  5
24F
330
1F
100
AcDbEntity
  8
0
  6
Continuous
 62
     7
370
    15
100
AcDbSpline
210
0.0
220
0.0
230
1.0
 70
     8
 71
     3
 72
    10
 73
     6
 74
     0
 42
0.000000001
 43
0.00000001
 40
0.0
 40
0.0
 40
0.0
 40
0.0
 40
0.5
 40
0.5
 40
1.0
 40
1.0
 40
1.0
 40
1.0
 10
253.1981602053686
 20
24.98609897517708
 30
0.0
 10
253.1718559529917
 20
25.00128409684985
 30
0.0
 10
253.1496578388731
 20
25.02491374778373
 30
0.0
 10
253.1156459524414
 20
25.08235614059362
 30
0.0
 10
253.1037750720353
 20
25.11599441874425
 30
0.0
 10
253.0965160947711
 20
25.15140384198737
 30
0.0
  0
ARC
  5
250
330
1F
100
AcDbEntity
  8
0
  6
Continuous
 62
     7
370
    15
100
AcDbCircle
 10
258.9116128125
 20
26.0310892718
 30
0.0
 40
5.690773868689932
100
AcDbArc
 50
212.7957512682
 51
239.5351048492
  0
ELLIPSE
  5
251
330
1F
100
AcDbEntity
  8
0
  6
Continuous
 62
     7
370
    15
100
AcDbEllipse
 10
255.1950624056
 20
27.2866649716
 30
0.0
 11
0.2600075789209769
 21
0.9705436209909274
 31
0.0
210
0.0
220
0.0
230
1.0
 40
0.5176380889
 41
3.619174351347811
 42
5.189970678142607
  0
SPLINE
  5
252
330
1F
100
AcDbEntity
  8
0
  6
Continuous
 62
     7
370
    15
100
AcDbSpline
210
0.0
220
0.0
230
1.0
 70
     8
 71
     3
 72
    12
 73
     8
 74
     0
 42
0.000000001
 43
0.00000001
 40
0.0
 40
0.0
 40
0.0
 40
0.0
 40
0.5
 40
0.5
 40
0.75
 40
0.75
 40
1.0
 40
1.0
 40
1.0
 40
1.0
 10
272.650492642485
 20
47.62626900702912
 30
0.0
 10
272.7122796950151
 20
47.66193791322072
 30
0.0
 10
272.7927573934193
 20
47.68801907095635
 30
0.0
 10
272.9228999155782
 20
47.69973755703792
 30
0.0
 10
272.9680289097575
 20
47.69890944861422
 30
0.0
 10
273.0526174973248
 20
47.68551229760014
 30
0.0
 10
273.092924494
 20
47.67244674760585
 30
0.0
 10
273.1238360326154
 20
47.65460189620148
 30
0.0
  0
LINE
  5
253
330
1F
100
AcDbEntity
  8
0
  6
Continuous
 62
     7
370
    15
100
AcDbLine
 10
273.1238360326
 20
47.6546018962
 30
0.0
 11
274.2754992981
 21
46.9897608446
 31
0.0
  0
SPLINE
  5
254
330
1F
100
AcDbEntity
  8
0
  6
Continuous
 62
     7
370
    15
100
AcDbSpline
210
0.0
220
0.0
230
1.0
 70
     8
 71
     3
 72
     9
 73
     5
 74
     0
 42
0.000000001
 43
0.00000001
 40
0.0
 40
0.0
 40
0.0
 40
0.0
 40
0.8664449205980828
 40
1.0
 40
1.0
 40
1.0
 40
1.0
 10
275.8425804162602
 20
45.20944699021636
 30
0.0
 10
276.1617570836099
 20
45.27873714235924
 30
0.0
 10
276.5301321063745
 20
45.35870777926372
 30
0.0
 10
276.900472261092
 20
45.43557683809664
 30
0.0
 10
276.9499330698611
 20
45.44584309135262
 30
0.0
  0
LINE
  5
255
330
1F
100
AcDbEntity
  8
0
  6
Continuous
 62
     7
370
    15
100
AcDbLine
 10
276.9499330699
 20
45.4458430914
 30
0.0
 11
278.3033932048
 21
44.6645071867
 31
0.0
  0
SPLINE
  5
256
330
1F
100
AcDbEntity
  8
0
  6
Continuous
 62
     7
370
    15
100
AcDbSpline
210
0.0
220
0.0
230
1.0
 70
     8
 71
     3
 72
    14
 73
    10
 74
     0
 42
0.000000001
 43
0.00000001
 40
0.0
 40
0.0
 40
0.0
 40
0.0
 40
0.25
 40
0.25
 40
0.5
 40
0.5
 40
0.75
 40
0.75
 40
1.0
 40
1.0
 40
1.0
 40
1.0
 10
278.3033932048068
 20
44.66450718665078
 30
0.0
 10
278.3346552929648
 20
44.64645996730299
 30
0.0
 10
278.3569226650611
 20
44.62337065186268
 30
0.0
 10
278.3800760630493
 20
44.57475929859397
 30
0.0
 10
278.3815962330453
 20
44.54875951702886
 30
0.0
 10
278.3681510622744
 20
44.49862658764143
 30
0.0
 10
278.3534515566263
 20
44.47443627253004
 30
0.0
 10
278.3118065616506
 20
44.42948582975745
 30
0.0
 10
278.2854942781331
 20
44.40925192267568
 30
0.0
 10
278.2543138833884
 20
44.39125186393163
 30
0.0
  0
LINE
  5
257
330
1F
100
AcDbEntity
  8
0
  6
Continuous
 62
     7
370
    15
100
AcDbLine
 10
272.6504926425
 20
47.626269007
 30
0.0
 11
272.1425719528
 21
47.3330526341
 31
0.0
  0
SPLINE
  5
258
330
1F
100
AcDbEntity
  8
0
  6
Continuous
 62
     7
370
    15
100
AcDbSpline
210
0.0
220
0.0
230
1.0
 70
     8
 71
     3
 72
    10
 73
     6
 74
     0
 42
0.000000001
 43
0.00000001
 40
0.0
 40
0.0
 40
0.0
 40
0.0
 40
0.4052472095945268
 40
0.8116121323170117
 40
1.0
 40
1.0
 40
1.0
 40
1.0
 10
279.9652078056746
 20
41.29541459990583
 30
0.0
 10
279.9835273344968
 20
41.33434098083643
 30
0.0
 10
280.0202169192697
 20
41.41230110562567
 30
0.0
 10
280.0342324679427
 20
41.5198483085975
 30
0.0
 10
280.016144613484
 20
41.57299873726073
 30
0.0
 10
280.010415287977
 20
41.5898341285087
 30
0.0
  0
LWPOLYLINE
  5
259
330
1F
100
AcDbEntity
  8
0
  6
Continuous
 62
     7
370
     0
100
AcDbPolyline
 90
        9
 70
   128
 43
0.0
 10
263.3444680588
 20
26.6594029076
 10
263.3851409106
 20
25.7866894044
 10
263.5067138457
 20
24.9704974081
 10
263.7078548856
 20
24.219769289
 10
263.986360287
 20
23.5427301815
 10
264.3391786864
 20
22.9467978676
 10
264.7624445317
 20
22.4385015066
 10
265.2515204335
 20
22.0234100998
 10
265.5195159149
 20
21.8520324397
  0
LWPOLYLINE
  5
25A
330
1F
100
AcDbEntity
  8
0
  6
Continuous
 62
     7
370
     0
100
AcDbPolyline
 90
       24
 70
   128
 43
0.0
 10
276.0186626076
 20
40.0390585497
 10
275.7371305484
 20
40.1850195139
 10
275.1331721079
 20
40.4011285274
 10
274.4813998625
 20
40.5136401946
 10
273.7889547652
 20
40.5213218139
 10
273.0634233896
 20
40.424089224
 10
272.3127548091
 20
40.2230077255
 10
271.5451735059
 20
39.9202804094
 10
270.7690892612
 20
39.5192240195
 10
269.9930050166
 20
39.0242326135
 10
269.2254237134
 20
38.4407294208
 10
268.4747551329
 20
37.7751074246
 10
267.7492237572
 20
37.0346593187
 10
267.05677866
 20
36.2274976075
 10
266.4050064146
 20
35.3624657236
 10
265.8010479741
 20
34.4490411375
 10
265.2515204335
 20
33.4972315199
 10
264.7624445317
 20
32.5174650962
 10
264.3391786864
 20
31.5204763924
 10
263.986360287
 20
30.5171886254
 10
263.7078548856
 20
29.5185940259
 10
263.5067138457
 20
28.5356334053
 10
263.3851409106
 20
27.5790762859
 10
263.3444680588
 20
26.6594029076
  0
LWPOLYLINE
  5
25B
330
1F
100
AcDbEntity
  8
0
  6
Continuous
 62
     7
370
     0
100
AcDbPolyline
 90
       23
 70
   128
 43
0.0
 10
258.3777173776
 20
29.3437905894
 10
258.6921997051
 20
30.5837111816
 10
259.0845523737
 20
31.8333237321
 10
259.5518518385
 20
33.0833169787
 10
260.0906161017
 20
34.3243768223
 10
260.6968306589
 20
35.5472557297
 10
261.3659784116
 20
36.7428416395
 10
262.0930733262
 20
37.9022258593
 10
262.8726975864
 20
39.0167694468
 10
263.6990419627
 20
40.0781675818
 10
264.5659490991
 20
41.0785114477
 10
265.4669593938
 20
42.010347163
 10
266.3953591312
 20
42.866731322
 10
267.3442305083
 20
43.6412827327
 10
268.3065031814
 20
44.3282299654
 10
269.2750069495
 20
44.9224543566
 10
270.2425251816
 20
45.4195281506
 10
271.2018485903
 20
45.8157474919
 10
272.1458289505
 20
46.1081600235
 10
273.067432363
 20
46.2945868864
 10
273.9597916664
 20
46.3736389542
 10
274.8162576065
 20
46.344727185
 10
275.6304483819
 20
46.2080670095
  0
LWPOLYLINE
  5
25C
330
1F
100
AcDbEntity
  8
0
  6
Continuous
 62
     7
370
     0
100
AcDbPolyline
 90
       23
 70
   128
 43
0.0
 10
258.7380505031
 20
29.0141670359
 10
259.0357000813
 20
30.2480220418
 10
259.4128491655
 20
31.4935404611
 10
259.866592178
 20
32.7411267503
 10
260.3934334572
 20
33.9811694349
 10
260.9893141885
 20
35.2041151566
 10
261.6496436735
 20
36.4005422733
 10
262.3693346968
 20
37.5612334435
 10
263.1428427186
 20
38.6772466376
 10
263.9642085898
 20
39.7399840275
 10
264.8271044618
 20
40.741258225
 10
265.7248825366
 20
41.6733553577
 10
266.6506262817
 20
42.529094497
 10
267.5972037155
 20
43.301882981
 10
268.5573223525
 20
43.9857672037
 10
269.5235853851
 20
44.5754784831
 10
270.4885486689
 20
45.0664736503
 10
271.4447780727
 20
45.4549700513
 10
272.3849067518
 20
45.7379746879
 10
273.3016919022
 20
45.9133072767
 10
274.1880705599
 20
45.9796170455
 10
275.0372140141
 20
45.9363931402
 10
275.8425804163
 20
45.7839685603
  0
LWPOLYLINE
  5
25D
330
1F
100
AcDbEntity
  8
0
  6
Continuous
 62
     7
370
     0
100
AcDbPolyline
 90
       29
 70
   128
 43
0.0
 10
260.9770621537
 20
30.1788713308
 10
261.2860209851
 20
31.2704353203
 10
261.6694298088
 20
32.3665344679
 10
262.1237509751
 20
33.4570552475
 10
262.6447925372
 20
34.5319356037
 10
263.2277469306
 20
35.5812577927
 10
263.8672353312
 20
36.5953398914
 10
264.557357285
 20
37.5648251316
 10
265.2917451503
 20
38.4807682327
 10
266.0636228516
 20
39.3347179387
 10
266.8658684003
 20
40.1187949965
 10
267.6910796091
 20
40.8257648562
 10
268.5316423902
 20
41.4491044235
 10
269.3798010093
 20
41.983062247
 10
270.2277296468
 20
42.4227115858
 10
271.0676046047
 20
42.763995868
 10
271.8916764953
 20
43.0037661197
 10
272.692341743
 20
43.1398100203
 10
273.4622127418
 20
43.1708723153
 10
274.1941860186
 20
43.0966663978
 10
274.8815077768
 20
42.9178769538
 10
275.5178362118
 20
42.6361536439
 10
276.097300026
 20
42.2540958826
 10
276.6145526022
 20
41.775228854
 10
277.0648213363
 20
41.2039709852
 10
277.4439516729
 20
40.5455931784
 10
277.7484454388
 20
39.8061701771
 10
277.9754931202
 20
38.9925245154
 10
277.9958896054
 20
38.8976296998
  0
ARC
  5
25E
330
1F
100
AcDbEntity
  8
0
  6
Continuous
 62
     7
370
     0
100
AcDbCircle
 10
273.166449808
 20
39.558801823
 30
0.0
 40
7.017045977379187
100
AcDbArc
 50
14.3287300663
 51
43.5251561868
  0
LWPOLYLINE
  5
25F
330
1F
100
AcDbEntity
  8
0
  6
Continuous
 62
     7
370
     0
100
AcDbPolyline
 90
       12
 70
   128
 43
0.0
 10
267.4967429127
 20
20.7106035898
 10
266.8658684003
 20
20.531365559
 10
266.0636228516
 20
20.3891896221
 10
265.2917451503
 20
20.3519483038
 10
264.557357285
 20
20.4199852237
 10
263.8672353312
 20
20.5926726164
 10
263.2277469306
 20
20.8684171237
 10
262.6447925372
 20
21.2446744966
 10
262.1237509751
 20
21.7179730702
 10
261.6694298088
 20
22.2839457967
 10
261.2860209851
 20
22.937370539
 10
260.9770621537
 20
23.6722182546
  0
LWPOLYLINE
  5
260
330
1F
100
AcDbEntity
  8
0
  6
Continuous
 62
     7
370
     0
100
AcDbPolyline
 90
       23
 70
   128
 43
0.0
 10
253.1981602054
 20
32.333885299
 10
253.5126425329
 20
33.5738058912
 10
253.9049952015
 20
34.8234184417
 10
254.3722946663
 20
36.0734116882
 10
254.9110589295
 20
37.3144715318
 10
255.5172734867
 20
38.5373504392
 10
256.1864212394
 20
39.7329363491
 10
256.9135161541
 20
40.8923205688
 10
257.6931404142
 20
42.0068641563
 10
258.5194847905
 20
43.0682622913
 10
259.3863919269
 20
44.0686061573
 10
260.2874022216
 20
45.0004418725
 10
261.215801959
 20
45.8568260315
 10
262.1646733361
 20
46.6313774423
 10
263.1269460092
 20
47.3183246749
 10
264.0954497773
 20
47.9125490661
 10
265.0629680094
 20
48.4096228602
 10
266.0222914181
 20
48.8058422015
 10
266.9662717783
 20
49.0982547331
 10
267.8878751908
 20
49.2846815959
 10
268.7802344942
 20
49.3637336638
 10
269.6367004343
 20
49.3348218946
 10
270.4508912097
 20
49.198161719
  0
LWPOLYLINE
  5
261
330
1F
100
AcDbEntity
  8
0
  6
Continuous
 62
     7
370
     0
100
AcDbPolyline
 90
       19
 70
   128
 43
0.0
 10
256.6701374066
 20
31.4241155737
 10
256.9666359936
 20
32.572724985
 10
257.338525249
 20
33.7298575045
 10
257.7827527132
 20
34.8860154125
 10
258.2956721764
 20
36.0317089886
 10
258.8730736063
 20
37.1575344035
 10
259.5102177038
 20
38.2542509056
 10
260.2018748033
 20
39.3128566682
 10
260.9423677975
 20
40.3246626771
 10
261.7256187353
 20
41.2813640494
 10
262.5451987089
 20
42.1751081999
 10
263.394380623
 20
42.9985592952
 10
264.2661944098
 20
43.7449584655
 10
265.1534842397
 20
44.4081792819
 10
266.0489672562
 20
44.9827780415
 10
266.945293353
 20
45.4640384495
 10
267.8351055039
 20
45.8480103305
 10
268.7111001493
 20
46.1315420512
 10
268.780159043
 20
46.1497563386
  0
LWPOLYLINE
  5
262
330
1F
100
AcDbEntity
  8
0
  6
Continuous
 62
     7
370
     0
100
AcDbPolyline
 90
       22
 70
   128
 43
0.0
 10
256.0923528078
 20
31.4171308693
 10
256.3874389013
 20
32.5880224352
 10
256.7591414101
 20
33.768500767
 10
257.2044567153
 20
34.9490267656
 10
257.7197863545
 20
36.1200609466
 10
258.3009661001
 20
37.2721405262
 10
258.9432996089
 20
38.3959558875
 10
259.6415963724
 20
39.4824258079
 10
260.3902136592
 20
40.5227708428
 10
261.1831021125
 20
41.5085842691
 10
262.0138546334
 20
42.4319000177
 10
262.8757581544
 20
43.2852570448
 10
263.761847886
 20
44.0617596226
 10
264.6649635969
 20
44.7551330615
 10
265.577807474
 20
45.3597744141
 10
266.4930030937
 20
45.870797751
 10
267.4031550285
 20
46.2840736426
 10
268.3009086077
 20
46.5962625275
 10
269.179009348
 20
46.8048416989
 10
270.0303615747
 20
46.9081256898
 10
270.8480857604
 20
46.9052798925
 10
270.8532713001
 20
46.9049141725
  0
LINE
  5
263
330
1F
100
AcDbEntity
  8
0
  6
Continuous
 62
     7
370
     0
100
AcDbLine
 10
274.799597914
 20
19.0863849776
 30
0.0
 11
275.966324103
 21
18.4128482853
 31
0.0
  0
LINE
  5
264
330
1F
100
AcDbEntity
  8
0
  6
Continuous
 62
     7
370
     0
100
AcDbLine
 10
261.4674295751
 20
29.7232117882
 30
0.0
 11
260.7987916993
 21
30.1092082178
 31
0.0
  0
LINE
  5
265
330
1F
100
AcDbEntity
  8
0
  6
Continuous
 62
     7
370
     0
100
AcDbLine
 10
255.8799866461
 20
27.6820856964
 30
0.0
 11
261.4674295751
 21
24.4565235515
 31
0.0
  0
LINE
  5
266
330
1F
100
AcDbEntity
  8
0
  6
Continuous
 62
     7
370
     0
100
AcDbLine
 10
255.7607478306
 20
27.6132282163
 30
0.0
 11
255.8799866461
 21
27.6820856964
 31
0.0
  0
LWPOLYLINE
  5
267
330
1F
100
AcDbEntity
  8
0
  6
Continuous
 62
     7
370
     0
100
AcDbPolyline
 90
        3
 70
   128
 43
0.0
 10
255.6819044727
 20
30.4620264073
 10
255.6811983177
 20
30.5832643951
 10
255.7059900528
 20
31.317799238
  0
LWPOLYLINE
  5
268
330
1F
100
AcDbEntity
  8
0
  6
Continuous
 62
     7
370
     0
100
AcDbPolyline
 90
       17
 70
   128
 43
0.0
 10
269.8575221947
 20
19.3477547194
 10
269.3427131615
 20
19.0373169333
 10
268.3890456704
 20
18.5357678205
 10
267.4426346793
 20
18.1335900391
 10
266.5105907883
 20
17.833805242
 10
265.5999166545
 20
17.6386657802
 10
264.7174543791
 20
17.5496377808
 10
263.869834101
 20
17.5673901312
 10
263.0634241836
 20
17.6917894542
 10
262.3042833673
 20
17.9219011093
 10
261.5981152492
 20
18.2559962155
 10
260.9502254304
 20
18.6915646407
 10
260.3654816538
 20
19.2253338604
 10
259.8482772321
 20
19.8532935456
 10
259.4024980392
 20
20.5707256928
 10
259.0314933154
 20
21.3722400718
 10
258.7380505031
 20
22.2518147233
  0
LWPOLYLINE
  5
269
330
1F
100
AcDbEntity
  8
0
  6
Continuous
 62
     7
370
     0
100
AcDbPolyline
 90
       18
 70
   128
 43
0.0
 10
234.4093154593
 20
46.8752277724
 10
234.4501378628
 20
47.5879594458
 10
234.5718446294
 20
48.3345468205
 10
234.7721685921
 20
49.1010823864
 10
235.0473780947
 20
49.8732870362
 10
235.3923465047
 20
50.6367760584
 10
235.8006477135
 20
51.3773270971
 10
236.264675842
 20
52.0811450876
 10
236.7757869242
 20
52.7351192323
 10
237.3244599276
 20
53.3270672304
 10
237.9004741124
 20
53.8459622107
 10
238.4930994241
 20
54.2821381414
 10
239.0912963745
 20
54.6274698903
 10
239.6839216863
 20
54.8755245802
 10
240.2599358711
 20
55.0216814217
 10
240.8086088745
 20
55.0632177893
 10
241.3197199567
 20
54.999359939
 10
241.5151121772
 20
54.9432845111
  0
ARC
  5
26A
330
1F
100
AcDbEntity
  8
0
  6
Continuous
 62
     7
370
     0
100
AcDbCircle
 10
237.8478890121
 20
46.6538734717
 30
0.0
 40
3.44569090383416
100
AcDbArc
 50
176.3167309135
 51
222.8021776099
  0
ARC
  5
26B
330
1F
100
AcDbEntity
  8
0
  6
Continuous
 62
     7
370
     0
100
AcDbCircle
 10
265.7533592685
 20
24.1310006041
 30
0.0
 40
7.678431003003118
100
AcDbArc
 50
196.1439238227
 51
212.919380533
  0
LINE
  5
26C
330
1F
100
AcDbEntity
  8
0
  6
Continuous
 62
     7
370
     0
100
AcDbLine
 10
260.7988836465
 20
23.5361077621
 30
0.0
 11
255.5486157962
 21
26.5670228773
 31
0.0
  0
LINE
  5
26D
330
1F
100
AcDbEntity
  8
0
  6
Continuous
 62
     7
370
     0
100
AcDbLine
 10
282.4363511508
 20
23.4949887814
 30
0.0
 11
283.6030773398
 21
22.8214520891
 31
0.0
  0
LINE
  5
26E
330
1F
100
AcDbEntity
  8
0
  6
Continuous
 62
     7
370
     0
100
AcDbLine
 10
257.5335654655
 20
24.1549464298
 30
0.0
 11
257.4550259337
 21
24.397855536
 31
0.0
  0
LWPOLYLINE
  5
26F
330
1F
100
AcDbEntity
  8
0
  6
Continuous
 62
     7
370
     0
100
AcDbPolyline
 90
        3
 70
   128
 43
0.0
 10
257.1672591221
 20
23.6242407737
 10
256.9693752077
 20
24.0384041702
 10
256.6701374066
 20
24.850962038
  0
ARC
  5
270
330
1F
100
AcDbEntity
  8
0
  6
Continuous
 62
     7
370
     0
100
AcDbCircle
 10
262.7664020304
 20
26.7330020996
 30
0.0
 40
6.936234395717545
100
AcDbArc
 50
195.8036498304
 51
213.8555265901
  0
ARC
  5
271
330
1F
100
AcDbEntity
  8
0
  6
Continuous
 62
     7
370
     0
100
AcDbCircle
 10
260.5740389871
 20
27.1211873089
 30
0.0
 40
7.678684131810562
100
AcDbArc
 50
196.1440917085
 51
212.9143732524
  0
OLE2FRAME
  5
272
330
1F
100
AcDbEntity
  8
0
100
AcDbOle2Frame
 70
     2
  3
Paintbrush-Bild
 10
13.8511154363
 20
38.264191557
 30
0.0
 11
51.6290888628
 21
31.9806341108
 31
0.0
 71
     2
 72
     0
 73
     1
 90
    12928
310
80552BED0767C5B32B40DDAF6807D121434000000000000000006FFBDDFB85D0
310
4940DDAF6807D121434000000000000000006FFBDDFB85D04940416F4BD60AFB
310
3F4000000000000000002BED0767C5B32B40416F4BD60AFB3F40000000000000
310
0000000000000100000000010000010000000100000000000100000000320000
310
D0CF11E0A1B11AE1000000000000000000000000000000003E000300FEFF0900
310
0600000000000000000000000100000001000000000000000010000002000000
310
01000000FEFFFFFF0000000000000000FFFFFFFFFFFFFFFFFFFFFFFFFFFFFFFF
310
FFFFFFFFFFFFFFFFFFFFFFFFFFFFFFFFFFFFFFFFFFFFFFFFFFFFFFFFFFFFFFFF
310
FFFFFFFFFFFFFFFFFFFFFFFFFFFFFFFFFFFFFFFFFFFFFFFFFFFFFFFFFFFFFFFF
310
FFFFFFFFFFFFFFFFFFFFFFFFFFFFFFFFFFFFFFFFFFFFFFFFFFFFFFFFFFFFFFFF
310
FFFFFFFFFFFFFFFFFFFFFFFFFFFFFFFFFFFFFFFFFFFFFFFFFFFFFFFFFFFFFFFF
310
FFFFFFFFFFFFFFFFFFFFFFFFFFFFFFFFFFFFFFFFFFFFFFFFFFFFFFFFFFFFFFFF
310
FFFFFFFFFFFFFFFFFFFFFFFFFFFFFFFFFFFFFFFFFFFFFFFFFFFFFFFFFFFFFFFF
310
FFFFFFFFFFFFFFFFFFFFFFFFFFFFFFFFFFFFFFFFFFFFFFFFFFFFFFFFFFFFFFFF
310
FFFFFFFFFFFFFFFFFFFFFFFFFFFFFFFFFFFFFFFFFFFFFFFFFFFFFFFFFFFFFFFF
310
FFFFFFFFFFFFFFFFFFFFFFFFFFFFFFFFFFFFFFFFFFFFFFFFFFFFFFFFFFFFFFFF
310
FFFFFFFFFFFFFFFFFFFFFFFFFFFFFFFFFFFFFFFFFFFFFFFFFFFFFFFFFFFFFFFF
310
FFFFFFFFFFFFFFFFFFFFFFFFFFFFFFFFFFFFFFFFFFFFFFFFFFFFFFFFFFFFFFFF
310
FFFFFFFFFFFFFFFFFFFFFFFFFFFFFFFFFFFFFFFFFFFFFFFFFFFFFFFFFFFFFFFF
310
FFFFFFFFFFFFFFFFFFFFFFFFFFFFFFFFFFFFFFFFFFFFFFFFFFFFFFFFFFFFFFFF
310
FDFFFFFFFEFFFFFFFEFFFFFFFEFFFFFF05000000060000000700000008000000
310
090000000A0000000B0000000C0000000D0000000E0000000F00000010000000
310
11000000120000001300000014000000150000001600000017000000FEFFFFFF
310
FFFFFFFFFFFFFFFFFFFFFFFFFFFFFFFFFFFFFFFFFFFFFFFFFFFFFFFFFFFFFFFF
310
FFFFFFFFFFFFFFFFFFFFFFFFFFFFFFFFFFFFFFFFFFFFFFFFFFFFFFFFFFFFFFFF
310
FFFFFFFFFFFFFFFFFFFFFFFFFFFFFFFFFFFFFFFFFFFFFFFFFFFFFFFFFFFFFFFF
310
FFFFFFFFFFFFFFFFFFFFFFFFFFFFFFFFFFFFFFFFFFFFFFFFFFFFFFFFFFFFFFFF
310
FFFFFFFFFFFFFFFFFFFFFFFFFFFFFFFFFFFFFFFFFFFFFFFFFFFFFFFFFFFFFFFF
310
FFFFFFFFFFFFFFFFFFFFFFFFFFFFFFFFFFFFFFFFFFFFFFFFFFFFFFFFFFFFFFFF
310
FFFFFFFFFFFFFFFFFFFFFFFFFFFFFFFFFFFFFFFFFFFFFFFFFFFFFFFFFFFFFFFF
310
FFFFFFFFFFFFFFFFFFFFFFFFFFFFFFFFFFFFFFFFFFFFFFFFFFFFFFFFFFFFFFFF
310
FFFFFFFFFFFFFFFFFFFFFFFFFFFFFFFFFFFFFFFFFFFFFFFFFFFFFFFFFFFFFFFF
310
FFFFFFFFFFFFFFFFFFFFFFFFFFFFFFFFFFFFFFFFFFFFFFFFFFFFFFFFFFFFFFFF
310
FFFFFFFFFFFFFFFFFFFFFFFFFFFFFFFFFFFFFFFFFFFFFFFFFFFFFFFFFFFFFFFF
310
FFFFFFFFFFFFFFFFFFFFFFFFFFFFFFFFFFFFFFFFFFFFFFFFFFFFFFFFFFFFFFFF
310
FFFFFFFFFFFFFFFFFFFFFFFFFFFFFFFFFFFFFFFFFFFFFFFFFFFFFFFFFFFFFFFF
310
52006F006F007400200045006E00740072007900000000000000000000000000
310
0000000000000000000000000000000000000000000000000000000000000000
310
16000500FFFFFFFFFFFFFFFF020000000A00030000000000C000000000000046
310
000000000000000000000000D0D3590499FFD10103000000C000000000000000
310
01004F006C006500000000000000000000000000000000000000000000000000
310
0000000000000000000000000000000000000000000000000000000000000000
310
0A000200FFFFFFFFFFFFFFFFFFFFFFFF00000000000000000000000000000000
310
0000000000000000000000000000000000000000000000001400000000000000
310
010043006F006D0070004F0062006A0000000000000000000000000000000000
310
0000000000000000000000000000000000000000000000000000000000000000
310
120002010100000003000000FFFFFFFF00000000000000000000000000000000
310
0000000000000000000000000000000000000000010000004D00000000000000
310
01004F006C006500310030004E00610074006900760065000000000000000000
310
0000000000000000000000000000000000000000000000000000000000000000
310
1A000200FFFFFFFFFFFFFFFFFFFFFFFF00000000000000000000000000000000
310
0000000000000000000000000000000000000000040000002426000000000000
310
FEFFFFFF02000000FEFFFFFFFFFFFFFFFFFFFFFFFFFFFFFFFFFFFFFFFFFFFFFF
310
FFFFFFFFFFFFFFFFFFFFFFFFFFFFFFFFFFFFFFFFFFFFFFFFFFFFFFFFFFFFFFFF
310
FFFFFFFFFFFFFFFFFFFFFFFFFFFFFFFFFFFFFFFFFFFFFFFFFFFFFFFFFFFFFFFF
310
FFFFFFFFFFFFFFFFFFFFFFFFFFFFFFFFFFFFFFFFFFFFFFFFFFFFFFFFFFFFFFFF
310
FFFFFFFFFFFFFFFFFFFFFFFFFFFFFFFFFFFFFFFFFFFFFFFFFFFFFFFFFFFFFFFF
310
FFFFFFFFFFFFFFFFFFFFFFFFFFFFFFFFFFFFFFFFFFFFFFFFFFFFFFFFFFFFFFFF
310
FFFFFFFFFFFFFFFFFFFFFFFFFFFFFFFFFFFFFFFFFFFFFFFFFFFFFFFFFFFFFFFF
310
FFFFFFFFFFFFFFFFFFFFFFFFFFFFFFFFFFFFFFFFFFFFFFFFFFFFFFFFFFFFFFFF
310
FFFFFFFFFFFFFFFFFFFFFFFFFFFFFFFFFFFFFFFFFFFFFFFFFFFFFFFFFFFFFFFF
310
FFFFFFFFFFFFFFFFFFFFFFFFFFFFFFFFFFFFFFFFFFFFFFFFFFFFFFFFFFFFFFFF
310
FFFFFFFFFFFFFFFFFFFFFFFFFFFFFFFFFFFFFFFFFFFFFFFFFFFFFFFFFFFFFFFF
310
FFFFFFFFFFFFFFFFFFFFFFFFFFFFFFFFFFFFFFFFFFFFFFFFFFFFFFFFFFFFFFFF
310
FFFFFFFFFFFFFFFFFFFFFFFFFFFFFFFFFFFFFFFFFFFFFFFFFFFFFFFFFFFFFFFF
310
FFFFFFFFFFFFFFFFFFFFFFFFFFFFFFFFFFFFFFFFFFFFFFFFFFFFFFFFFFFFFFFF
310
FFFFFFFFFFFFFFFFFFFFFFFFFFFFFFFFFFFFFFFFFFFFFFFFFFFFFFFFFFFFFFFF
310
FFFFFFFFFFFFFFFFFFFFFFFFFFFFFFFFFFFFFFFFFFFFFFFFFFFFFFFFFFFFFFFF
310
0100000200000000000000000000000000000000000000000000000000000000
310
0000000000000000000000000000000000000000000000000000000000000000
310
0100FEFF030A0000FFFFFFFF0A00030000000000C00000000000004607000000
310
5042727573680007000000504272757368000700000050427275736800F439B2
310
7100000000000000000000000000000000000000000000000000000000000000
310
0000000000000000000000000000000000000000000000000000000000000000
310
0000000000000000000000000000000000000000000000000000000000000000
310
0000000000000000000000000000000000000000000000000000000000000000
310
0000000000000000000000000000000000000000000000000000000000000000
310
0000000000000000000000000000000000000000000000000000000000000000
310
0000000000000000000000000000000000000000000000000000000000000000
310
0000000000000000000000000000000000000000000000000000000000000000
310
0000000000000000000000000000000000000000000000000000000000000000
310
0000000000000000000000000000000000000000000000000000000000000000
310
0000000000000000000000000000000000000000000000000000000000000000
310
0000000000000000000000000000000000000000000000000000000000000000
310
20260000424D0E260000000000003E00000028000000B40200006E0000000100
310
01000000000000000000130B0000130B00000200000002000000000000FFFFFF
310
FFFFFFFFFFFFFFFFFFFFFFFFFFFFFFFFFFFFFFFFFFFFFFFFFFFFFFFFFFFFFFFF
310
FFFFFFFFFFFFFFFFFFFFFFFFFFFFFFFFFFFFFFFFFFFFFFFFFFFFFFFFFFFFFFFF
310
FFFFFFFFFFFFFFFFFFFFFFFFFFFFFFFFFFFFFFFFFFFFFFFFF000FFFFFFFFFFFF
310
FFFFFFFFFFFFFFFFFFFFFFFFFFFFFFFFFFFFFFFFFFFFFFFFFFFFFFFFFFFFFFFF
310
FFFFFFFFFFFFFFFFFFFFFFFFFFFFFFFFFFFFFFFFFFFFFFFFFFFFFFFFFFFFFFFF
310
FFFFFFFFFFFFFFFFFFFFFFFFFFFFFFFFF000FFFFFFFFFFFFFFFFFFFFFFFFFFFF
310
FFFFFFFFFFFFFFFFFFFFFFFFFFFFFFFFFFFFFFFFFFFFFFFFFFFFFFFFFFFFFFFF
310
FFFFFFFFFFFFFFFFFFFFFFFFFFFFFFFFFFFFFFFFFFFFFFFFFFFFFFFFFFFFFFFF
310
FFFFFFFFFFFFFFFFF000FFFFFFFFFFFFFFFFFFFFFFFFFFFFFFFFFFFFFFFFFFFF
310
FFFFFFFFFFFFFFFFFFFFFFFFFFFFFFFFFFFFFFFFFFFFFFFFFFFFFFFFFFFFFFFF
310
FFFFFFFFFFFFFFFFFFFFFFFFFFFFFFFFFFFFFFFFFFFFFFFFFFFFFFFFFFFFFFFF
310
F000FFFFFFFFFFFFFFFFFFFFFFFFFFFFFFFFFFFFFFFFFFFFFFFFFFFFFFFFFFFF
310
FFFFFFFFFFFFFFFFFFFFFFFFFFFFFFFFFFFFFFFFFFFFFFFFFFFFFFFFFFFFFFFF
310
FFFFFFFFFFFFFFFFFFFFFFFFFFFFFFFFFFFFFFFFFFFFFFFFF000FFFFFFFFFFFF
310
FFFFFFFFFFFFFFFFFFFFFFFFFFFFFFFFFFFFFFFFFFFFFFFFFFFFFFFFFFFFFFFF
310
FFFFFFFFFFFFFFFFFFFFFFFFFFFFFFFFFFFFFFFFFFFFFFFFFFFFFFFFFFFFFFFF
310
FFFFFFFFFFFFFFFFFFFFFFFFFFFFFFFFF000FFFFFFFFFFFFFFFFFFFFFFFFFFFF
310
FFFFFFFFFFFFFFFFFFFFFFFFFFFFFFFFFFFFFFFFFFFFFFFFFFFFFFFFFFFFFFFF
310
FFFFFFFFFFFFFFFFFFFFFFFFFFFFFFFFFFFFFFFFFFFFFFFFFFFFFFFFFFFFFFFF
310
FFFFFFFFFFFFFFFFF000FFFFFFFFFFFFFFFFFFFFFFFFFFFFFFFFFFFFFFFFFFFF
310
FFFFFFFFFFFFFFFFFFFFFFFFFFFFFFFFFFFFFFFFFFFFFFFFFFFFFFFFFFFFFFFF
310
FFFFFFFFFFFFFFFFFFFFFFFFFFFFFFFFFFFFFFFFFFFFFFFFFFFFFFFFFFFFFFFF
310
F000FFFFFFFFFFFFFFFFFFFFFFFFFFFFFFFFFFFFFFFFFFFFFFFFFFFFFFFFFFFF
310
FFFFFFFFFFFFFFFFFFFFFFFFFFFFFFFFFFFFFFFFFFFFFFFFFFFFFFFFFFFFFFFF
310
FFFFFFFFFFFFFFFFFFFFFFFFFFFFFFFFFFFFFFFFFFFFFFFFF000FFFFFFFFFFFF
310
FFFFFFFFFFFFFFFFFFFFFFFFFFFFFFFFFFFFFFFFFFFFFFFFFFFFFFFFFFFFFFFF
310
FFFFFFFFFFFFFFFFFFFFFFFFFFFFFFFFFFFFFFFFFFFFFFFFFFFFFFFFFFFFFFFF
310
FFFFFFFFFFFFFFFFFFFFFFFFFFFFFFFFF000FFFFFFFFFFFFFFFFFFFFFFFFFFFF
310
FFFFFFFFFFFFFFFFFFFFFFFFFFFFFFFFFFFFFFFFFFFFFFFFFFFFFFFFFFFFFFFF
310
FFFFFFFFFFFFFFFFFFFFFFFFFFFFFFFFFFFFFFFFFFFFFFFFFFFFFFFFFFFFFFFF
310
FFFFFFFFFFFFFFFFF000FFFFFFFFFFFFFFFFFFFFFFFFFFFFFFFFFFFFFFFFFFFF
310
FFFFFFFFFFFFFFFFFFFFFFFFFFFFFFFFFFFFFFFFFFFFFFFFFFFFFFFFFFFFFFFF
310
FFFFFFFFFFFFFFFFFFFFFFFFFFFFFFFFFFFFFFFFFFFFFFFFFFFFFFFFFFFFFFFF
310
F000FFFFFFFFFFFFFFFFFFFFFFFFFFFFFFFFFFFFFFFFFFFFFFFFFFFFFFFFFFFF
310
FFFFFFFFFFFFFFFFFFFFFFFFFFFFFFFFFFFFFFFFFFFFFFFFFFFFFFFFFFFFFFFF
310
FFFFFFFFFFFFFFFFFFFFFFFFFFFFFFFFFFFFFFFFFFFFFFFFF000FFFFFFFFFFFF
310
FFFFFFFFFFFFFFFFFFFFFFFFFFFFFFFFFFFFFFFFFFFFFFFFFFFFFFFFFFFFFFFF
310
FFFFFFFFFFFFFFFFFFFFFFFFFFFFFFFFFFFFFFFFFFFFFFFFFFFFFFFFFFFFFFFF
310
FFFFFFFFFFFFFFFFFFFFFFFFFFFFFFFFF000FFFFFFFFFFFFFFFFFFFFFFFFFFFF
310
FFFFFFFFFFFFFFFFFFFFFFFFFFFFFFFFFFFFFFFFFFFFFFFFFFFFFFFFFFFFFFFF
310
FFFFFFFFFFFFFFFFFFFFFFFFFFFFFFFFFFFFFFFFFFFFFFFFFFFFFFFFFFFFFFFF
310
FFFFFFFFFFFFFFFFF000FFFFFFFFFFFFFFFFFFFFFFFFFFFFFFFFFFFFFFFFFFFF
310
FFFFFFFFFFFFFFFFFFFFFFFFFFFFFFFFFFFFFFFFFFFFFFFFFFFFFFFFFFFFFFFF
310
FFFFFFFFFFFFFFFFFFFFFFFFFFFFFFFFFFFFFFFFFFFFFFFFFFFFFFFFFFFFFFFF
310
F000FFFFFFFFFFFFFFFFFFFFFFFFFFFFFFFFFFFFFFFFFFFFFFFFFFFFFFFFFFFF
310
FFFFFFFFFFFFFFFFFFFFFFFFFFFFFFFFFFFFFFFFFFFFFFFFFFFFFFFFFFFFFFFF
310
FFFFFFFFFFFFFFFFFFFFFFFFFFFFFFFFFFFFFFFFFFFFFFFFF000FFFFFFFFFFFF
310
FFFFFFFFFFFFFFFFFFFFFFFFFFFFFFFFFFFFFFFFFFFFFFFFFFFFFFFFFFFFFFFF
310
FFFFFFFFFFFFFFFFFFFFFFFFFFFFFFFFFFFFFFFFFFFFFFFFFFFFFFFFFFFFFFFF
310
FFFFFFFFFFFFFFFFFFFFFFFFFFFFFFFFF000FFFFFFFFFFFFFFFFFFFFFFFFFFFF
310
FFFFFFFFFFFFFFFFFFFFFFFFFFFFFFFFFFFFFFFFFFFFFFFFFFFFFFFFFFFFFFFF
310
FFFFFFFFFFFFFFFFFFFFFFFFFFFFFFFFFFFFFFFFFFFFFFFFFFFFFFFFFFFFFFFF
310
FFFFFFFFFFFFFFFFF000FFFFF80003FFFFFFFFFFFFFFFFFFFFFFFFFFFFFFFFFF
310
FFFFF00007FFFFFFFFFF00007FFFFFF800000000000000007FFFFFFFFFFFFFFF
310
FFFFFFFC001FFFFFFFFFFFFFFC001FFFFFFFFFFFFFFFFFFFFFFFFFFE0007FFFF
310
F000FFFF8000007FFFFFFFF8000FFFFFC0007FFFFF80007FFFFF0000007FFFFF
310
FFF8000007FFFFF800000000000000007FFFFFF0001FFFFFFFFFFFC00001FFFF
310
FFFFFFFFC00001FFFFFFFF000000000003FFFFE000007FFFF000FFFE0000000F
310
FFFFFFF0000FFFFF80007FFFFF80007FFFFC0000001FFFFFFFC0000001FFFFF8
310
00000000000000007FFFFFF0001FFFFFFFFFFE0000003FFFFFFFFFFE0000003F
310
FFFFFF000000000003FFFF0000000FFFF000FFF800000003FFFFFFF00007FFFF
310
80007FFFFF80007FFFF000000007FFFFFF000000003FFFF80000000000000000
310
7FFFFFF0001FFFFFFFFFF80000000FFFFFFFFFF80000000FFFFFFF0000000000
310
03FFFC00000003FFF000FFE000000000FFFFFFF00007FFFF80003FFFFF80007F
310
FFC000000001FFFFFC000000001FFFF800000000000000007FFFFFF0001FFFFF
310
FFFFE000000003FFFFFFFFE000000003FFFFFF000000000003FFF000000000FF
310
F000FF80000000007FFFFFF00007FFFF80003FFFFF80007FFF8000000000FFFF
310
F80000000007FFF800000000000000007FFFFFF0001FFFFFFFFFC000000001FF
310
FFFFFFC000000001FFFFFF000000000003FFC0000000007FF000FF0000000000
310
3FFFFFE00007FFFF00003FFFFF80007FFE00000000003FFFF00000000003FFF8
310
00000000000000007FFFFFF0001FFFFFFFFF8000000000FFFFFFFF8000000000
310
FFFFFF000000000003FF80000000003FF000FE00000000001FFFFFE00003FFFF
310
00003FFFFF80007FFC00000000001FFFE00000000001FFF8000001FFFE000000
310
7FFFFFF0001FFFFFFFFE00000000003FFFFFFE00000000003FFFFF0000000000
310
03FF00000000001FF000FC00000000000FFFFFE00003FFFF00001FFFFF80007F
310
F800000000001FFFC00000000000FFF8000001FFFE0000007FFFFFF0001FFFFF
310
FFFC00000000001FFFFFFC00000000001FFFFF000000000003FE00000000000F
310
F000F8000000000007FFFFE00003FFFF00001FFFFF80007FF800000000000FFF
310
800000000000FFF8000001FFFE0000007FFFFFF0001FFFFFFFF800000000000F
310
FFFFF800000000000FFFFF000000000003FC000000000007F000F80000000000
310
03FFFFC00003FFFE00001FFFFF80007FF0000000000007FF0000000000007FF8
310
000001FFFE0000007FFFFFF0001FFFFFFFF0000000000007FFFFF00000000000
310
07FFFF000000000003F8000000000003F000F0000000000003FFFFC00001FFFE
310
00001FFFFF80007FE0000000000007FE0000000000003FF8000001FFFE000000
310
7FFFFFF0001FFFFFFFF0000000000007FFFFF0000000000007FFFF0000000000
310
03F800001F800003F000E00001FFF00001FFFFC00001FFFE00000FFFFF80007F
310
E00001FFE00003FE00001FFF00003FF8000001FFFE0000007FFFFFF0001FFFFF
310
FFE000003E000003FFFFE000003E000003FFFF000000000003F00001FFF80001
310
F000E00007FFFC0001FFFFC00001FFFE00000FFFFF80007FC0000FFFFC0003FC
310
0000FFFFC0001FF8000001FFFE0000007FFFFFF0001FFFFFFFC00003FFE00001
310
FFFFC00003FFE00001FFFF0001FFFFFFFFF00007FFFE0001F000E0000FFFFF00
310
00FFFF800001FFFC00000FFFFF80007FC0001FFFFE0001FC0001FFFFE0001FF8
310
000001FFFE0000007FFFFFF0001FFFFFFF80000FFFF80000FFFF80000FFFF800
310
00FFFF0003FFFFFFFFE0000FFFFF8000F000C0003FFFFF8000FFFF800000FFFC
310
000007FFFF80007F80003FFFFF0001FC0003FFFFF0001FF8000001FFFE000000
310
7FFFFFF0001FFFFFFF80003FFFFE0000FFFF80003FFFFE0000FFFF0003FFFFFF
310
FFE0003FFFFF8000F000C0003FFFFF8000FFFF800000FFFC000007FFFF80007F
310
80007FFFFF8001F80007FFFFF8000FF8000001FFFE0000007FFFFFF0001FFFFF
310
FF00007FFFFF00007FFF00007FFFFF00007FFF0003FFFFFFFFE0003FFFFFC000
310
F000C0007FFFFFC000FFFF000000FFFC000007FFFF80007F8000FFFFFF8000F8
310
000FFFFFF8000FF8000001FFFE0000007FFFFFF0001FFFFFFF0000FFFFFF8000
310
7FFF0000FFFFFF80007FFF0003FFFFFFFFC0007FFFFFC00070008000FFFFFFC0
310
00FFFF000000FFF8000007FFFF80007F8000FFFFFF8000F8000FFFFFF8000FF8
310
000001FFFE0000007FFFFFF0001FFFFFFE0001FFFFFFC0003FFE0001FFFFFFC0
310
003FFF0003FFFFFFFFC0007FFFFFE00070008000FFFFFFC0007FFF0000007FF8
310
000003FFFF80007F0001FFFFFF8000F8000FFFFFF8000FF8000001FFFE000000
310
7FFFFFF0001FFFFFFE0001FFFFFFC0003FFE0001FFFFFFC0003FFF0003FFFFFF
310
FFC000FFFFFFE00070008000FFFFFFC0007FFF0000007FF8000003FFFF80007F
310
0001FFFFFF8000F8001FFFFFF8000FF8000001FFFE0000007FFFFFF0001FFFFF
310
FE0003FFFFFFE0003FFE0003FFFFFFE0003FFF0003FFFFFFFFC000FFFFFFE000
310
70008000FFFFFFC0007FFE0000007FF8000003FFFF80007F0001FFFFFF8000F0
310
001FFFFFF8000FF8000001FFFE0000007FFFFFF0001FFFFFFC0003FFFFFFE000
310
1FFC0003FFFFFFE0001FFF0003FFFFFFFFC000FFFFFFC00070008000FFFFFF80
310
007FFE0000007FF0000003FFFF80007F0001FFFFFF0000F0001FFFFFF8000FF8
310
000001FFFE0000007FFFFFF0001FFFFFFC0007FFFFFFF0001FFC0007FFFFFFF0
310
001FFF0003FFFFFFFFC000FFFFFFC00070008001FFFFFF0000FFFE0000003FF0
310
000001FFFF80007F0001FFFFFF0000F8001FFFFFF0000FF8000001FFFE000000
310
7FFFFFF0001FFFFFFC0007FFFFFFF0001FFC0007FFFFFFF0001FFF0003FFFFFF
310
FFC001FFFFFF80007000FFFFFFFFFE0000FFFE0008003FF0008001FFFF80007F
310
FFFFFFFFFC0000FFFFFFFFFFE0000FF8000001FFFE0000007FFFFFF0001FFFFF
310
F8000FFFFFFFF8000FF8000FFFFFFFF8000FFF0003FFFFFFFFFFFFFFFFFF0000
310
7000FFFFFFFFFC0000FFFC0008003FF0008001FFFF80007FFFFFFFFFF80001FF
310
FFFFFFFF80000FF8000001FFFE0000007FFFFFF0001FFFFFF8000FFFFFFFF800
310
0FF8000FFFFFFFF8000FFF0003FFFFFFFFFFFFFFFFFE0000F000FFFFFFFFE000
310
00FFFC000C003FE000C001FFFF80007FFFFFFFFFC00001FFFFFFFFFE00001FF8
310
000001FFFE0000007FFFFFF0001FFFFFF8000FFFFFFFF8000FF8000FFFFFFFF8
310
000FFF0003FFFFFFFFFFFFFFFFF00000F000FFFFFFFE000001FFFC000C001FE0
310
00C000FFFF80007FFFFFFFFE000001FFFFFFFFE000001FF80FFFFFFFFFFFFFC0
310
7FFFFFF0001FFFFFF8000FFFFFFFF8000FF8000FFFFFFFF8000FFF0003FFFFFF
310
FFFFFFFFFF800000F000FFFFFFC0000001FFFC001C001FE001C000FFFF80007F
310
FFFFFF80000003FFFFFFF80000001FF80FFFFFFFFFFFFFC07FFFFFF0001FFFFF
310
F8001FFFFFFFFC000FF8001FFFFFFFFC000FFF0003FFFFFFFFFFFFFFF0000001
310
F000FFFFF800000001FFF8001C001FE001C000FFFF80007FFFFFF800000003FF
310
FFFF800000003FF80FFFFFFFFFFFFFC07FFFFFF0001FFFFFF8001FFFFFFFFC00
310
0FF8001FFFFFFFFC000FFF0003FFFFFFFFFFFFFE00000001F000FFFFC0000000
310
03FFF8001E001FC001E000FFFF80007FFFFF8000000007FFFFFC000000003FF8
310
0FFFFFFFFFFFFFC07FFFFFF0001FFFFFF8001FFFFFFFFC000FF8001FFFFFFFFC
310
000FFF0003FFFFFFFFFFFFE000000003F000FFFE0000000007FFF8001E000FC0
310
01E0007FFF80007FFFFE0000000007FFFFE0000000007FF80FFFFFFFFFFFFFC0
310
7FFFFFF0001FFFFFF0001FFFFFFFFC0007F0001FFFFFFFFC0007FF0003FFFFFF
310
FFFFFF0000000003F000FFF80000000007FFF8001E000FC003E0007FFF80007F
310
FFF0000000000FFFFF8000000000FFF80FFFFFFFFFFFFFC07FFFFFF0001FFFFF
310
F0001FFFFFFFFC0007F0001FFFFFFFFC0007FF0003FFFFFFFFFFFC0000000007
310
F000FFE0000000000FFFF0003E000FC003E0007FFF80007FFFC0000000001FFF
310
FE0000000001FFF80FFFFFFFFFFFFFC07FFFFFF0001FFFFFF0001FFFFFFFFC00
310
07F0001FFFFFFFFC0007FF0003FFFFFFFFFFF0000000000FF000FFC000000000
310
1FFFF0003F000F8003F0003FFF80007FFF80000000003FFFF80000000003FFF8
310
0FFFFFFFFFFFFFC07FFFFFF0001FFFFFF0001FFFFFFFFC0007F0001FFFFFFFFC
310
0007FF0003FFFFFFFFFFE0000000001FF000FF00000000007FFFF0003F000780
310
03F0003FFF80007FFF00000000007FFFF00000000007FFF80FFFFFFFFFFFFFC0
310
7FFFFFF0001FFFFFF0001FFFFFFFFC0007F0001FFFFFFFFC0007FF0003FFFFFF
310
FFFF80000000007FF000FE0000000000FFFFE0003F00078007F0003FFF80007F
310
FE0000000001FFFFE0000000001FFFF80FFFFFFFFFFFFFC07FFFFFF0001FFFFF
310
F0001FFFFFFFFC0007F0001FFFFFFFFC0007FF0003FFFFFFFFFF0000000000FF
310
F000FC0000000003FFFFE0007F00078007F0003FFF80007FFC0000000007FFFF
310
C0000000007FFFF80FFFFFFFFFFFFFC07FFFFFF0001FFFFFF8001FFFFFFFFC00
310
0FF8001FFFFFFFFC000FFF0003FFFFFFFFFE0000000003FFF000FC000000000F
310
FFFFE0007F80070007F8001FFF80007FF8000000001FFFFF8000000001FFFFF8
310
0FFFFFFFFFFFFFC07FFFFFF0001FFFFFF8001FFFFFFFFC000FF8001FFFFFFFFC
310
000FFF0003FFFFFFFFFC000000000FFFF000F8000000007FFFFFE0007F800700
310
07F8001FFF80007FF000000000FFFFFF800000000FFFFFF80FFFFFFFFFFFFFC0
310
7FFFFFF0001FFFFFF8000FFFFFFFF8000FF8000FFFFFFFF8000FFF0003FFFFFF
310
FFFC000000007FFFF000F800000007FFFFFFC0007F8003000FF8001FFF80007F
310
F000000007FFFFFF000000007FFFFFF80FFFFFFFFFFFFFC07FFFFFF0001FFFFF
310
F8000FFFFFFFF8000FF8000FFFFFFFF8000FFF0003FFFFFFFFF80000000FFFFF
310
F000F0000000FFFFFFFFC000FF8003000FF8001FFF80007FE0000000FFFFFFFF
310
0000000FFFFFFFF8000001FFFE0000007FFFFFF0001FFFFFF8000FFFFFFFF800
310
0FF8000FFFFFFFF8000FFF0003FFFFFFFFF8000000FFFFFFF000F000000FFFFF
310
FFFFC000FFC002000FF8000FFF80007FE000001FFFFFFFFE000001FFFFFFFFF8
310
000001FFFE0000007FFFFFF0001FFFFFF8000FFFFFFFF8000FF8000FFFFFFFF8
310
000FFF0003FFFFFFFFF000001FFFFFFFF000E00000FFFFFFFFFFC000FFC00200
310
0FFC000FFF80007FE00001FFFFFFFFFE00001FFFFFFFFFF8000001FFFE000000
310
7FFFFFF0001FFFFFFC000FFFFFFFF8001FFC000FFFFFFFF8001FFF0003FFFFFF
310
FFF00001FFFFFFFFF000E00007FFFFFFFFFF8000FFC000001FFC000FFF80007F
310
C0000FFFFFFFFFFE0000FFFFFFFFFFF8000001FFFE0000007FFFFFF0001FFFFF
310
FC0007FFFFFFF0001FFC0007FFFFFFF0001FFF0003FFFFFFFFF00007FFFFFFFF
310
F000E0001FFFFFFFFFFF8000FFC000001FFC000FFF80007FC0003FFFFFFFFFFE
310
0001FFFFFFFFFFF8000001FFFE0000007FFFFFF0001FFFFFFC0007FFFFFFF000
310
1FFC0007FFFFFFF0001FFF0003FFFFFFFFF0001FFFFFFFFFF000E0003FFFFF00
310
03FF8001FFE000001FFC0007FF80007FC0007FFFFF0007FC0003FFFFF0003FF8
310
000001FFFE0000007FFFFFF0001FFFFFFC0003FFFFFFE0001FFC0003FFFFFFE0
310
001FFF0003FFFFFFFFF0003FFFFFFFFFF000E0003FFFFF0001FF8001FFE00000
310
1FFE0007FF80007FC0007FFFFE0003FC0007FFFFE0003FF8000001FFFE000000
310
7FFFFFF0001FFFFFFE0003FFFFFFE0003FFE0003FFFFFFE0003FFF0003FFFFFF
310
FFF0003FFFFF8001F000E0003FFFFF0001FF0001FFE000001FFE0007FF80007F
310
C0007FFFFE0003FC0007FFFFE0003FF8000001FFFE0000007FFFFFF0001FFFFF
310
FE0001FFFFFFC0003FFE0001FFFFFFC0003FFF0003FFFFFFFFF0003FFFFF0001
310
F000E0003FFFFF0003FF0001FFE000003FFE0007FF80007FC0007FFFFE0003FC
310
0007FFFFE0003FF8000001FFFE0000007FFFFFF0001FFFFFFF0001FFFFFFC000
310
7FFF0001FFFFFFC0007FFF0003FFFFFFFFF0003FFFFF0001F000E0003FFFFE00
310
03FF0003FFF000003FFE0003FF80007FC0007FFFFC0003FE0007FFFFE0003FF8
310
000001FFFE0000007FFFFFF0001FFFFFFF0000FFFFFF80007FFF0000FFFFFF80
310
007FFF0003FFFFFFFFF0003FFFFF0001F000E0003FFFFE0003FF0003FFF00000
310
3FFF0003FF80007FC0007FFFFC0007FE0007FFFFC0003FF8000001FFFE000000
310
7FFFFFF0001FFFFFFF80007FFFFF0000FFFF80007FFFFF0000FFFF0003FFFFFF
310
FFF0003FFFFF0003F000E0003FFFFC0003FE0003FFF000003FFF0003FF80007F
310
E0003FFFF80007FE0003FFFFC0007FF8000001FFFE0000007FFFFFF0001FFFFF
310
FF80003FFFFE0000FFFF80003FFFFE0000FFFF0003FFFFFFFFF0001FFFFE0003
310
F000F0001FFFF80003FE0003FFF000007FFF0001FF80007FE0003FFFF00007FE
310
0001FFFF80007FF8000001FFFE0000007FFFFFF0001FFFFFFFC0000FFFF80001
310
FFFFC0000FFFF80001FFFF0003FFFFFFFFF0001FFFFC0003F000F0000FFFF000
310
07FE0007FFF800007FFF0001FF80007FE0001FFFE00007FF0000FFFE00007FF8
310
000001FFFE0000007FFFFFF0001FFFFFFFC00003FFE00001FFFFC00003FFE000
310
01FFFF0003FFFFFFFFF8000FFFF80003F000F00003FFC00007FC0007FFF80000
310
7FFF8001FF80007FF00007FF80000FFF00007FF80000FFF8000001FFFE000000
310
7F80000000000001FFE000003E000003FFFFE000003E000003FFFF0003FFFFFF
310
FFF80003FFE00007F000F800000000000FFC0007FFF800007FFF8001FF80007F
310
F000000000000FFF000000000000FFF8000001FFFE0000007F80000000000001
310
FFF0000000000007FFFFF0000000000007FFFF0003FFFFFFFFFC00007E000007
310
F000F800000000000FFC0007FFF80000FFFF8000FF80007FF800000000001FFF
310
800000000001FFF8000001FFFE0000007F80000000000001FFF800000000000F
310
FFFFF800000000000FFFFF0003FFFFFFFFFC00000000000FF000FC0000000000
310
1FFC0007FFFC0000FFFF8000FF80007FF800000000003FFFC00000000001FFF8
310
000001FFFE0000007F80000000000001FFF800000000000FFFFFF80000000000
310
0FFFFF0003FFFFFFFFFE00000000001FF000FE00000000003FF8000FFFFC0000
310
FFFF8000FF80007FFC00000000003FFFC00000000003FFF8000001FFFE000000
310
7F80000000000001FFFC00000000001FFFFFFC00000000001FFFFF0003FFFFFF
310
FFFF00000000001FF000FF00000000003FF8000FFFFC0000FFFFC000FF80007F
310
FE00000000007FFFE00000000007FFF8000001FFFE0000007F80000000000001
310
FFFE00000000003FFFFFFE00000000003FFFFF0003FFFFFFFFFF80000000003F
310
F000FF80000000007FF8000FFFFC0001FFFFC0007F80007FFF0000000000FFFF
310
F0000000000FFFF800000000000000007F80000000000001FFFF8000000000FF
310
FFFFFF8000000000FFFFFF0003FFFFFFFFFFC0000000007FF000FFC000000000
310
FFF8000FFFFE0001FFFFC0007F80007FFF8000000001FFFFF8000000001FFFF8
310
00000000000000007F80000000000001FFFFC000000001FFFFFFFFC000000001
310
FFFFFF0003FFFFFFFFFFE000000000FFF000FFE000000003FFF0001FFFFE0001
310
FFFFC0007F80007FFFC000000007FFFFFE000000003FFFF80000000000000000
310
7F80000000000001FFFFE000000003FFFFFFFFE000000003FFFFFF0003FFFFFF
310
FFFFF000000003FFF000FFF80000000FFFF0001FFFFE0001FFFFE0007F80007F
310
FFF00000000FFFFFFF00000000FFFFF800000000000000007F80000000000001
310
FFFFF80000000FFFFFFFFFF80000000FFFFFFF0003FFFFFFFFFFFC0000000FFF
310
F000FFFE0000003FFFF0001FFFFE0003FFFFE0003F80007FFFFC0000003FFFFF
310
FFC0000003FFFFF800000000000000007F80000000000001FFFFFE0000003FFF
310
FFFFFFFE0000003FFFFFFF0003FFFFFFFFFFFF0000003FFFF000FFFF800000FF
310
FFF0001FFFFF0003FFFFE0003F80007FFFFF000001FFFFFFFFF800001FFFFFF8
310
00000000000000007F80000000000001FFFFFFC00001FFFFFFFFFFFFC00001FF
310
FFFFFF0003FFFFFFFFFFFFC00000FFFFF000FFFFF8000FFFFFFFFFFFFFFFFFFF
310
FFFFFFFFFFFFFFFFFFFFF0001FFFFFFFFFFF0000FFFFFFF80000000000000000
310
7FFFFFFFFFFFFFFFFFFFFFFC001FFFFFFFFFFFFFFC001FFFFFFFFFFFFFFFFFFF
310
FFFFFFFC001FFFFFF000FFFFFFFFFFFFFFFFFFFFFFFFFFFFFFFFFFFFFFFFFFFF
310
FFFFFFFFFFFFFFFFFFFFFFFFFFFFFFFFFFFFFFFFFFFFFFFFFFFFFFFFFFFFFFFF
310
FFFFFFFFFFFFFFFFFFFFFFFFFFFFFFFFFFFFFFFFFFFFFFFFFFFFFFFFFFFFFFFF
310
F000FFFFFFFFFFFFFFFFFFFFFFFFFFFFFFFFFFFFFFFFFFFFFFFFFFFFFFFFFFFF
310
FFFFFFFFFFFFFFFFFFFFFFFFFFFFFFFFFFFFFFFFFFFFFFFFFFFFFFFFFFFFFFFF
310
FFFFFFFFFFFFFFFFFFFFFFFFFFFFFFFFFFFFFFFFFFFFFFFFF000FFFFFFFFFFFF
310
FFFFFFFFFFFFFFFFFFFFFFFFFFFFFFFFFFFFFFFFFFFFFFFFFFFFFFFFFFFFFFFF
310
FFFFFFFFFFFFFFFFFFFFFFFFFFFFFFFFFFFFFFFFFFFFFFFFFFFFFFFFFFFFFFFF
310
FFFFFFFFFFFFFFFFFFFFFFFFFFFFFFFFF000FFFFFFFFFFFFFFFFFFFFFFFFFFFF
310
FFFFFFFFFFFFFFFFFFFFFFFFFFFFFFFFFFFFFFFFFFFFFFFFFFFFFFFFFFFFFFFF
310
FFFFFFFFFFFFFFFFFFFFFFFFFFFFFFFFFFFFFFFFFFFFFFFFFFFFFFFFFFFFFFFF
310
FFFFFFFFFFFFFFFFF000FFFFFFFFFFFFFFFFFFFFFFFFFFFFFFFFFFFFFFFFFFFF
310
FFFFFFFFFFFFFFFFFFFFFFFFFFFFFFFFFFFFFFFFFFFFFFFFFFFFFFFFFFFFFFFF
310
FFFFFFFFFFFFFFFFFFFFFFFFFFFFFFFFFFFFFFFFFFFFFFFFFFFFFFFFFFFFFFFF
310
F000FFFFFFFFFFFFFFFFFFFFFFFFFFFFFFFFFFFFFFFFFFFFFFFFFFFFFFFFFFFF
310
FFFFFFFFFFFFFFFFFFFFFFFFFFFFFFFFFFFFFFFFFFFFFFFFFFFFFFFFFFFFFFFF
310
FFFFFFFFFFFFFFFFFFFFFFFFFFFFFFFFFFFFFFFFFFFFFFFFF000FFFFFFFFFFFF
310
FFFFFFFFFFFFFFFFFFFFFFFFFFFFFFFFFFFFFFFFFFFFFFFFFFFFFFFFFFFFFFFF
310
FFFFFFFFFFFFFFFFFFFFFFFFFFFFFFFFFFFFFFFFFFFFFFFFFFFFFFFFFFFFFFFF
310
FFFFFFFFFFFFFFFFFFFFFFFFFFFFFFFFF000FFFFFFFFFFFFFFFFFFFFFFFFFFFF
310
FFFFFFFFFFFFFFFFFFFFFFFFFFFFFFFFFFFFFFFFFFFFFFFFFFFFFFFFFFFFFFFF
310
FFFFFFFFFFFFFFFFFFFFFFFFFFFFFFFFFFFFFFFFFFFFFFFFFFFFFFFFFFFFFFFF
310
FFFFFFFFFFFFFFFFF000FFFFFFFFFFFFFFFFFFFFFFFFFFFFFFFFFFFFFFFFFFFF
310
FFFFFFFFFFFFFFFFFFFFFFFFFFFFFFFFFFFFFFFFFFFFFFFFFFFFFFFFFFFFFFFF
310
FFFFFFFFFFFFFFFFFFFFFFFFFFFFFFFFFFFFFFFFFFFFFFFFFFFFFFFFFFFFFFFF
310
F000FFFFFFFFFFFFFFFFFFFFFFFFFFFFFFFFFFFFFFFFFFFFFFFFFFFFFFFFFFFF
310
FFFFFFFFFFFFFFFFFFFFFFFFFFFFFFFFFFFFFFFFFFFFFFFFFFFFFFFFFFFFFFFF
310
FFFFFFFFFFFFFFFFFFFFFFFFFFFFFFFFFFFFFFFFFFFFFFFFF000FFFFFFFFFFFF
310
FFFFFFFFFFFFFFFFFFFFFFFFFFFFFFFFFFFFFFFFFFFFFFFFFFFFFFFFFFFFFFFF
310
FFFFFFFFFFFFFFFFFFFFFFFFFFFFFFFFFFFFFFFFFFFFFFFFFFFFFFFFFFFFFFFF
310
FFFFFFFFFFFFFFFFFFFFFFFFFFFFFFFFF000FFFFFFFFFFFFFFFFFFFFFFFFFFFF
310
FFFFFFFFFFFFFFFFFFFFFFFFFFFFFFFFFFFFFFFFFFFFFFFFFFFFFFFFFFFFFFFF
310
FFFFFFFFFFFFFFFFFFFFFFFFFFFFFFFFFFFFFFFFFFFFFFFFFFFFFFFFFFFFFFFF
310
FFFFFFFFFFFFFFFFF000FFFFFFFFFFFFFFFFFFFFFFFFFFFFFFFFFFFFFFFFFFFF
310
FFFFFFFFFFFFFFFFFFFFFFFFFFFFFFFFFFFFFFFFFFFFFFFFFFFFFFFFFFFFFFFF
310
FFFFFFFFFFFFFFFFFFFFFFFFFFFFFFFFFFFFFFFFFFFFFFFFFFFFFFFFFFFFFFFF
310
F000FFFFFFFFFFFFFFFFFFFFFFFFFFFFFFFFFFFFFFFFFFFFFFFFFFFFFFFFFFFF
310
FFFFFFFFFFFFFFFFFFFFFFFFFFFFFFFFFFFFFFFFFFFFFFFFFFFFFFFFFFFFFFFF
310
FFFFFFFFFFFFFFFFFFFFFFFFFFFFFFFFFFFFFFFFFFFFFFFFF000FFFFFFFFFFFF
310
FFFFFFFFFFFFFFFFFFFFFFFFFFFFFFFFFFFFFFFFFFFFFFFFFFFFFFFFFFFFFFFF
310
FFFFFFFFFFFFFFFFFFFFFFFFFFFFFFFFFFFFFFFFFFFFFFFFFFFFFFFFFFFFFFFF
310
FFFFFFFFFFFFFFFFFFFFFFFFFFFFFFFFF000FFFFFFFFFFFFFFFFFFFFFFFFFFFF
310
FFFFFFFFFFFFFFFFFFFFFFFFFFFFFFFFFFFFFFFFFFFFFFFFFFFFFFFFFFFFFFFF
310
FFFFFFFFFFFFFFFFFFFFFFFFFFFFFFFFFFFFFFFFFFFFFFFFFFFFFFFFFFFFFFFF
310
FFFFFFFFFFFFFFFFF000FFFFFFFFFFFFFFFFFFFFFFFFFFFFFFFFFFFFFFFFFFFF
310
FFFFFFFFFFFFFFFFFFFFFFFFFFFFFFFFFFFFFFFFFFFFFFFFFFFFFFFFFFFFFFFF
310
FFFFFFFFFFFFFFFFFFFFFFFFFFFFFFFFFFFFFFFFFFFFFFFFFFFFFFFFFFFFFFFF
310
F000FFFFFFFFFFFFFFFFFFFFFFFFFFFFFFFFFFFFFFFFFFFFFFFFFFFFFFFFFFFF
310
FFFFFFFFFFFFFFFFFFFFFFFFFFFFFFFFFFFFFFFFFFFFFFFFFFFFFFFFFFFFFFFF
310
FFFFFFFFFFFFFFFFFFFFFFFFFFFFFFFFFFFFFFFFFFFFFFFFF000FFFFFFFFFFFF
310
FFFFFFFFFFFFFFFFFFFFFFFFFFFFFFFFFFFFFFFFFFFFFFFFFFFFFFFFFFFFFFFF
310
FFFFFFFFFFFFFFFFFFFFFFFFFFFFFFFFFFFFFFFFFFFFFFFFFFFFFFFFFFFFFFFF
310
FFFFFFFFFFFFFFFFFFFFFFFFFFFFFFFFF000FFFFFFFFFFFFFFFFFFFFFFFFFFFF
310
FFFFFFFFFFFFFFFFFFFFFFFFFFFFFFFFFFFFFFFFFFFFFFFFFFFFFFFFFFFFFFFF
310
FFFFFFFFFFFFFFFFFFFFFFFFFFFFFFFFFFFFFFFFFFFFFFFFFFFFFFFFFFFFFFFF
310
FFFFFFFFFFFFFFFFF000FFFFFFFFFFFFFFFFFFFFFFFFFFFFFFFFFFFFFFFFFFFF
310
FFFFFFFFFFFFFFFFFFFFFFFFFFFFFFFFFFFFFFFFFFFFFFFFFFFFFFFFFFFFFFFF
310
FFFFFFFFFFFFFFFFFFFFFFFFFFFFFFFFFFFFFFFFFFFFFFFFFFFFFFFFFFFFFFFF
310
F000FFFFFFFFFFFFFFFFFFFFFFFFFFFFFFFFFFFFFFFFFFFFFFFFFFFFFFFFFFFF
310
FFFFFFFFFFFFFFFFFFFFFFFFFFFFFFFFFFFFFFFFFFFFFFFFFFFFFFFFFFFFFFFF
310
FFFFFFFFFFFFFFFFFFFFFFFFFFFFFFFFFFFFFFFFFFFFFFFFF000FFFFFFFFFFFF
310
FFFFFFFFFFFFFFFFFFFFFFFFFFFFFFFFFFFFFFFFFFFFFFFFFFFFFFFFFFFFFFFF
310
FFFFFFFFFFFFFFFFFFFFFFFFFFFFFFFFFFFFFFFFFFFFFFFFFFFFFFFFFFFFFFFF
310
FFFFFFFFFFFFFFFFFFFFFFFFFFFFFFFFF0000000000000000000000000000000
310
0000000000000000000000000000000000000000000000000000000000000000
310
0000000000000000000000000000000000000000000000000000000000000000
310
0000000000000000000000000000000000000000000000000000000000000000
310
0000000000000000000000000000000000000000000000000000000000000000
310
0000000000000000000000000000000000000000000000000000000000000000
310
0000000000000000000000000000000000000000000000000000000000000000
310
0000000000000000000000000000000000000000000000000000000000000000
310
0000000000000000000000000000000000000000000000000000000000000000
310
0000000000000000000000000000000000000000000000000000000000000000
310
0000000000000000000000000000000000000000000000000000000000000000
310
0000000000000000000000000000000000000000000000000000000000000000
310
0000000000000000000000000000000000000000000000000000000000000000
310
0000000000000000000000000000000000000000000000000000000000000000
310
0000000000000000000000000000000000000000000000000000000000000000
310
0000000000000000000000000000000000000000000000000000000000000000
  1
OLE
  0
ENDSEC
  0
SECTION
  2
OBJECTS
  0
DICTIONARY
  5
C
330
0
100
AcDbDictionary
281
     1
  3
ACAD_GROUP
350
D
  3
ACAD_LAYOUT
350
1A
  3
ACAD_MLINESTYLE
350
17
  3
ACAD_PLOTSETTINGS
350
19
  3
ACAD_PLOTSTYLENAME
350
E
  3
ACAD_SCALELIST
350
47
  0
DICTIONARY
  5
D
102
{ACAD_REACTORS
330
C
102
}
330
C
100
AcDbDictionary
281
     1
  0
DICTIONARY
  5
1A
102
{ACAD_REACTORS
330
C
102
}
330
C
100
AcDbDictionary
281
     1
  3
Layout1
350
1E
  3
Layout2
350
26
  3
Model
350
22
  0
DICTIONARY
  5
17
102
{ACAD_REACTORS
330
C
102
}
330
C
100
AcDbDictionary
281
     1
  3
Standard
350
18
  0
DICTIONARY
  5
19
102
{ACAD_REACTORS
330
C
102
}
330
C
100
AcDbDictionary
281
     1
  0
ACDBDICTIONARYWDFLT
  5
E
102
{ACAD_REACTORS
330
C
102
}
330
C
100
AcDbDictionary
281
     1
  3
Normal
350
F
100
AcDbDictionaryWithDefault
340
F
  0
DICTIONARY
  5
47
102
{ACAD_REACTORS
330
C
102
}
330
C
100
AcDbDictionary
281
     1
  3
A0
350
48
  3
A1
350
49
  3
A2
350
4A
  3
A3
350
4B
  3
A4
350
4C
  3
A5
350
4D
  3
A6
350
4E
  3
A7
350
4F
  3
A8
350
50
  3
A9
350
51
  3
B0
350
52
  3
B1
350
53
  3
B2
350
54
  3
B3
350
55
  3
B4
350
56
  3
B5
350
57
  3
B6
350
58
  3
B7
350
59
  3
B8
350
5A
  3
B9
350
5B
  3
C0
350
5C
  3
C1
350
5D
  3
C2
350
5E
  3
C3
350
5F
  3
C4
350
60
  3
C5
350
61
  3
C6
350
62
  3
C7
350
63
  3
C8
350
64
  3
C9
350
65
  3
D0
350
66
  3
D1
350
67
  3
D2
350
68
  0
LAYOUT
  5
1E
102
{ACAD_REACTORS
330
1A
102
}
330
1A
100
AcDbPlotSettings
  1

  2
none_device
  4

  6

 40
0.0
 41
0.0
 42
0.0
 43
0.0
 44
0.0
 45
0.0
 46
0.0
 47
0.0
 48
0.0
 49
0.0
140
0.0
141
0.0
142
1.0
143
1.0
 70
   688
 72
     1
 73
     0
 74
     5
  7

 75
    16
147
1.0
148
0.0
149
0.0
100
AcDbLayout
  1
Layout1
 70
     1
 71
     1
 10
0.0
 20
0.0
 11
420.0
 21
297.0
 12
0.0
 22
0.0
 32
0.0
 14
1.0000000000E+20
 24
1.0000000000E+20
 34
1.0000000000E+20
 15
-1.0000000000E+20
 25
-1.0000000000E+20
 35
-1.0000000000E+20
146
0.0
 13
0.0
 23
0.0
 33
0.0
 16
1.0
 26
0.0
 36
0.0
 17
0.0
 27
1.0
 37
0.0
 76
     0
330
1B
  0
LAYOUT
  5
26
102
{ACAD_REACTORS
330
1A
102
}
330
1A
100
AcDbPlotSettings
  1

  2
none_device
  4

  6

 40
0.0
 41
0.0
 42
0.0
 43
0.0
 44
0.0
 45
0.0
 46
0.0
 47
0.0
 48
0.0
 49
0.0
140
0.0
141
0.0
142
1.0
143
1.0
 70
   688
 72
     1
 73
     0
 74
     5
  7

 75
    16
147
1.0
148
0.0
149
0.0
100
AcDbLayout
  1
Layout2
 70
     1
 71
     2
 10
0.0
 20
0.0
 11
0.0
 21
0.0
 12
0.0
 22
0.0
 32
0.0
 14
0.0
 24
0.0
 34
0.0
 15
0.0
 25
0.0
 35
0.0
146
0.0
 13
0.0
 23
0.0
 33
0.0
 16
1.0
 26
0.0
 36
0.0
 17
0.0
 27
1.0
 37
0.0
 76
     0
330
23
  0
LAYOUT
  5
22
102
{ACAD_REACTORS
330
1A
102
}
330
1A
100
AcDbPlotSettings
  1

  2
none_device
  4
Letter_(8.50_x_11.00_Inches)
  6

 40
6.35
 41
6.35
 42
6.35000508
 43
6.35000508
 44
215.9
 45
279.4
 46
0.0
 47
0.0
 48
0.0
 49
0.0
140
0.0
141
0.0
142
1.0
143
1.0
 70
  1712
 72
     1
 73
     0
 74
     0
  7

 75
     0
147
1.0
148
0.0
149
0.0
100
AcDbLayout
  1
Model
 70
     1
 71
     0
 10
0.0
 20
0.0
 11
297.0
 21
210.0
 12
0.0
 22
0.0
 32
0.0
 14
0.0
 24
0.0
 34
0.0
 15
297.0
 25
210.0
 35
0.0
146
0.0
 13
0.0
 23
0.0
 33
0.0
 16
1.0
 26
0.0
 36
0.0
 17
0.0
 27
1.0
 37
0.0
 76
     0
330
1F
331
29
  0
MLINESTYLE
  5
18
102
{ACAD_REACTORS
330
17
102
}
330
17
100
AcDbMlineStyle
  2
Standard
 70
     0
  3

 62
   256
 51
90.0
 52
90.0
 71
     2
 49
0.5
 62
   256
  6
BYLAYER
 49
-0.5
 62
   256
  6
BYLAYER
  0
ACDBPLACEHOLDER
  5
F
102
{ACAD_REACTORS
330
E
102
}
330
E
  0
SCALE
  5
48
102
{ACAD_REACTORS
330
47
102
}
330
47
100
AcDbScale
 70
     0
300
1:1
140
1.0
141
1.0
290
     1
  0
SCALE
  5
49
102
{ACAD_REACTORS
330
47
102
}
330
47
100
AcDbScale
 70
     0
300
1:2
140
1.0
141
2.0
290
     0
  0
SCALE
  5
4A
102
{ACAD_REACTORS
330
47
102
}
330
47
100
AcDbScale
 70
     0
300
1:4
140
1.0
141
4.0
290
     0
  0
SCALE
  5
4B
102
{ACAD_REACTORS
330
47
102
}
330
47
100
AcDbScale
 70
     0
300
1:5
140
1.0
141
5.0
290
     0
  0
SCALE
  5
4C
102
{ACAD_REACTORS
330
47
102
}
330
47
100
AcDbScale
 70
     0
300
1:8
140
1.0
141
8.0
290
     0
  0
SCALE
  5
4D
102
{ACAD_REACTORS
330
47
102
}
330
47
100
AcDbScale
 70
     0
300
1:10
140
1.0
141
10.0
290
     0
  0
SCALE
  5
4E
102
{ACAD_REACTORS
330
47
102
}
330
47
100
AcDbScale
 70
     0
300
1:16
140
1.0
141
16.0
290
     0
  0
SCALE
  5
4F
102
{ACAD_REACTORS
330
47
102
}
330
47
100
AcDbScale
 70
     0
300
1:20
140
1.0
141
20.0
290
     0
  0
SCALE
  5
50
102
{ACAD_REACTORS
330
47
102
}
330
47
100
AcDbScale
 70
     0
300
1:30
140
1.0
141
30.0
290
     0
  0
SCALE
  5
51
102
{ACAD_REACTORS
330
47
102
}
330
47
100
AcDbScale
 70
     0
300
1:40
140
1.0
141
40.0
290
     0
  0
SCALE
  5
52
102
{ACAD_REACTORS
330
47
102
}
330
47
100
AcDbScale
 70
     0
300
1:50
140
1.0
141
50.0
290
     0
  0
SCALE
  5
53
102
{ACAD_REACTORS
330
47
102
}
330
47
100
AcDbScale
 70
     0
300
1:100
140
1.0
141
100.0
290
     0
  0
SCALE
  5
54
102
{ACAD_REACTORS
330
47
102
}
330
47
100
AcDbScale
 70
     0
300
2:1
140
2.0
141
1.0
290
     0
  0
SCALE
  5
55
102
{ACAD_REACTORS
330
47
102
}
330
47
100
AcDbScale
 70
     0
300
4:1
140
4.0
141
1.0
290
     0
  0
SCALE
  5
56
102
{ACAD_REACTORS
330
47
102
}
330
47
100
AcDbScale
 70
     0
300
8:1
140
8.0
141
1.0
290
     0
  0
SCALE
  5
57
102
{ACAD_REACTORS
330
47
102
}
330
47
100
AcDbScale
 70
     0
300
10:1
140
10.0
141
1.0
290
     0
  0
SCALE
  5
58
102
{ACAD_REACTORS
330
47
102
}
330
47
100
AcDbScale
 70
     0
300
100:1
140
100.0
141
1.0
290
     0
  0
SCALE
  5
59
102
{ACAD_REACTORS
330
47
102
}
330
47
100
AcDbScale
 70
     0
300
1/128" = 1'-0"
140
0.0078125
141
12.0
290
     0
  0
SCALE
  5
5A
102
{ACAD_REACTORS
330
47
102
}
330
47
100
AcDbScale
 70
     0
300
1/64" = 1'-0"
140
0.015625
141
12.0
290
     0
  0
SCALE
  5
5B
102
{ACAD_REACTORS
330
47
102
}
330
47
100
AcDbScale
 70
     0
300
1/32" = 1'-0"
140
0.03125
141
12.0
290
     0
  0
SCALE
  5
5C
102
{ACAD_REACTORS
330
47
102
}
330
47
100
AcDbScale
 70
     0
300
1/16" = 1'-0"
140
0.0625
141
12.0
290
     0
  0
SCALE
  5
5D
102
{ACAD_REACTORS
330
47
102
}
330
47
100
AcDbScale
 70
     0
300
3/32" = 1'-0"
140
0.09375
141
12.0
290
     0
  0
SCALE
  5
5E
102
{ACAD_REACTORS
330
47
102
}
330
47
100
AcDbScale
 70
     0
300
1/8" = 1'-0"
140
0.125
141
12.0
290
     0
  0
SCALE
  5
5F
102
{ACAD_REACTORS
330
47
102
}
330
47
100
AcDbScale
 70
     0
300
3/16" = 1'-0"
140
0.1875
141
12.0
290
     0
  0
SCALE
  5
60
102
{ACAD_REACTORS
330
47
102
}
330
47
100
AcDbScale
 70
     0
300
1/4" = 1'-0"
140
0.25
141
12.0
290
     0
  0
SCALE
  5
61
102
{ACAD_REACTORS
330
47
102
}
330
47
100
AcDbScale
 70
     0
300
3/8" = 1'-0"
140
0.375
141
12.0
290
     0
  0
SCALE
  5
62
102
{ACAD_REACTORS
330
47
102
}
330
47
100
AcDbScale
 70
     0
300
1/2" = 1'-0"
140
0.5
141
12.0
290
     0
  0
SCALE
  5
63
102
{ACAD_REACTORS
330
47
102
}
330
47
100
AcDbScale
 70
     0
300
3/4" = 1'-0"
140
0.75
141
12.0
290
     0
  0
SCALE
  5
64
102
{ACAD_REACTORS
330
47
102
}
330
47
100
AcDbScale
 70
     0
300
1" = 1'-0"
140
1.0
141
12.0
290
     0
  0
SCALE
  5
65
102
{ACAD_REACTORS
330
47
102
}
330
47
100
AcDbScale
 70
     0
300
1-1/2" = 1'-0"
140
1.5
141
12.0
290
     0
  0
SCALE
  5
66
102
{ACAD_REACTORS
330
47
102
}
330
47
100
AcDbScale
 70
     0
300
3" = 1'-0"
140
3.0
141
12.0
290
     0
  0
SCALE
  5
67
102
{ACAD_REACTORS
330
47
102
}
330
47
100
AcDbScale
 70
     0
300
6" = 1'-0"
140
6.0
141
12.0
290
     0
  0
SCALE
  5
68
102
{ACAD_REACTORS
330
47
102
}
330
47
100
AcDbScale
 70
     0
300
1'-0" = 1'-0"
140
12.0
141
12.0
290
     0
  0
ENDSEC
  0
EOF
