  0
SECTION
  2
HEADER
  9
$ACADVER
  1
AC1015
  9
$ACADMAINTVER
 70
     6
  9
$DWGCODEPAGE
  3
ANSI_1252
  9
$INSBASE
 10
0.0
 20
0.0
 30
0.0
  9
$EXTMIN
 10
0.0
 20
0.0
 30
0.0
  9
$EXTMAX
 10
297.0
 20
210.0
 30
0.0
  9
$LIMMIN
 10
0.0
 20
0.0
  9
$LIMMAX
 10
297.0
 20
210.0
  9
$ORTHOMODE
 70
     0
  9
$REGENMODE
 70
     1
  9
$FILLMODE
 70
     1
  9
$QTEXTMODE
 70
     0
  9
$MIRRTEXT
 70
     1
  9
$LTSCALE
 40
1.0
  9
$ATTMODE
 70
     1
  9
$TEXTSIZE
 40
2.0
  9
$TRACEWID
 40
1.0
  9
$TEXTSTYLE
  7
Standard
  9
$CLAYER
  8
0
  9
$CELTYPE
  6
ByLayer
  9
$CECOLOR
 62
   256
  9
$CELTSCALE
 40
1.0
  9
$DISPSILH
 70
     0
  9
$DIMSCALE
 40
1.0
  9
$DIMASZ
 40
3.0
  9
$DIMEXO
 40
0.0
  9
$DIMDLI
 40
3.75
  9
$DIMRND
 40
0.0
  9
$DIMDLE
 40
0.0
  9
$DIMEXE
 40
1.0
  9
$DIMTP
 40
0.0
  9
$DIMTM
 40
0.0
  9
$DIMTXT
 40
2.0
  9
$DIMCEN
 40
2.5
  9
$DIMTSZ
 40
0.0
  9
$DIMTOL
 70
     0
  9
$DIMLIM
 70
     0
  9
$DIMTIH
 70
     1
  9
$DIMTOH
 70
     1
  9
$DIMSE1
 70
     0
  9
$DIMSE2
 70
     0
  9
$DIMTAD
 70
     1
  9
$DIMZIN
 70
     0
  9
$DIMBLK
  1

  9
$DIMASO
 70
     1
  9
$DIMSHO
 70
     1
  9
$DIMPOST
  1

  9
$DIMAPOST
  1

  9
$DIMALT
 70
     0
  9
$DIMALTD
 70
     3
  9
$DIMALTF
 40
0.0393700787
  9
$DIMLFAC
 40
1.0
  9
$DIMTOFL
 70
     1
  9
$DIMTVP
 40
0.0
  9
$DIMTIX
 70
     0
  9
$DIMSOXD
 70
     0
  9
$DIMSAH
 70
     0
  9
$DIMBLK1
  1

  9
$DIMBLK2
  1

  9
$DIMSTYLE
  2
ISO-25
  9
$DIMCLRD
 70
     0
  9
$DIMCLRE
 70
     0
  9
$DIMCLRT
 70
     0
  9
$DIMTFAC
 40
1.0
  9
$DIMGAP
 40
1.524
  9
$DIMJUST
 70
     0
  9
$DIMSD1
 70
     0
  9
$DIMSD2
 70
     0
  9
$DIMTOLJ
 70
     0
  9
$DIMTZIN
 70
     0
  9
$DIMALTZ
 70
     0
  9
$DIMALTTZ
 70
     0
  9
$DIMUPT
 70
     0
  9
$DIMDEC
 70
     2
  9
$DIMTDEC
 70
     3
  9
$DIMALTU
 70
     2
  9
$DIMALTTD
 70
     3
  9
$DIMTXSTY
  7
Standard
  9
$DIMAUNIT
 70
     0
  9
$DIMADEC
 70
     2
  9
$DIMALTRND
 40
0.0
  9
$DIMAZIN
 70
     0
  9
$DIMDSEP
 70
    44
  9
$DIMATFIT
 70
     3
  9
$DIMFRAC
 70
     0
  9
$DIMLDRBLK
  1

  9
$DIMLUNIT
 70
     2
  9
$DIMLWD
 70
    -2
  9
$DIMLWE
 70
    -2
  9
$DIMTMOVE
 70
     0
  9
$LUNITS
 70
     2
  9
$LUPREC
 70
     2
  9
$SKETCHINC
 40
1.0
  9
$FILLETRAD
 40
10.0
  9
$AUNITS
 70
     0
  9
$AUPREC
 70
     2
  9
$MENU
  1
.
  9
$ELEVATION
 40
0.0
  9
$PELEVATION
 40
0.0
  9
$THICKNESS
 40
0.0
  9
$LIMCHECK
 70
     0
  9
$CHAMFERA
 40
0.0
  9
$CHAMFERB
 40
0.0
  9
$CHAMFERC
 40
0.0
  9
$CHAMFERD
 40
0.0
  9
$SKPOLY
 70
     0
  9
$TDCREATE
 40
2457627.616526482
  9
$TDUCREATE
 40
2457627.533193148
  9
$TDUPDATE
 40
2457627.616527813
  9
$TDUUPDATE
 40
2457627.533194479
  9
$TDINDWG
 40
0.0000000116
  9
$TDUSRTIMER
 40
0.0000000116
  9
$USRTIMER
 70
     1
  9
$ANGBASE
 50
0.0
  9
$ANGDIR
 70
     0
  9
$PDMODE
 70
     0
  9
$PDSIZE
 40
-1.0
  9
$PLINEWID
 40
0.0
  9
$SPLFRAME
 70
     0
  9
$SPLINETYPE
 70
     6
  9
$SPLINESEGS
 70
     8
  9
$HANDSEED
  5
2D8
  9
$SURFTAB1
 70
     6
  9
$SURFTAB2
 70
     6
  9
$SURFTYPE
 70
     6
  9
$SURFU
 70
     6
  9
$SURFV
 70
     6
  9
$UCSBASE
  2

  9
$UCSNAME
  2

  9
$UCSORG
 10
0.0
 20
0.0
 30
0.0
  9
$UCSXDIR
 10
1.0
 20
0.0
 30
0.0
  9
$UCSYDIR
 10
0.0
 20
1.0
 30
0.0
  9
$UCSORTHOREF
  2

  9
$UCSORTHOVIEW
 70
     0
  9
$UCSORGTOP
 10
0.0
 20
0.0
 30
0.0
  9
$UCSORGBOTTOM
 10
0.0
 20
0.0
 30
0.0
  9
$UCSORGLEFT
 10
0.0
 20
0.0
 30
0.0
  9
$UCSORGRIGHT
 10
0.0
 20
0.0
 30
0.0
  9
$UCSORGFRONT
 10
0.0
 20
0.0
 30
0.0
  9
$UCSORGBACK
 10
0.0
 20
0.0
 30
0.0
  9
$PUCSBASE
  2

  9
$PUCSNAME
  2

  9
$PUCSORG
 10
0.0
 20
0.0
 30
0.0
  9
$PUCSXDIR
 10
1.0
 20
0.0
 30
0.0
  9
$PUCSYDIR
 10
0.0
 20
1.0
 30
0.0
  9
$PUCSORTHOREF
  2

  9
$PUCSORTHOVIEW
 70
     0
  9
$PUCSORGTOP
 10
0.0
 20
0.0
 30
0.0
  9
$PUCSORGBOTTOM
 10
0.0
 20
0.0
 30
0.0
  9
$PUCSORGLEFT
 10
0.0
 20
0.0
 30
0.0
  9
$PUCSORGRIGHT
 10
0.0
 20
0.0
 30
0.0
  9
$PUCSORGFRONT
 10
0.0
 20
0.0
 30
0.0
  9
$PUCSORGBACK
 10
0.0
 20
0.0
 30
0.0
  9
$USERI1
 70
     0
  9
$USERI2
 70
     0
  9
$USERI3
 70
     0
  9
$USERI4
 70
     0
  9
$USERI5
 70
     0
  9
$USERR1
 40
0.0
  9
$USERR2
 40
0.0
  9
$USERR3
 40
0.0
  9
$USERR4
 40
0.0
  9
$USERR5
 40
0.0
  9
$WORLDVIEW
 70
     1
  9
$SHADEDGE
 70
     3
  9
$SHADEDIF
 70
    70
  9
$TILEMODE
 70
     1
  9
$MAXACTVP
 70
    64
  9
$PINSBASE
 10
0.0
 20
0.0
 30
0.0
  9
$PLIMCHECK
 70
     0
  9
$PEXTMIN
 10
1.0000000000E+20
 20
1.0000000000E+20
 30
1.0000000000E+20
  9
$PEXTMAX
 10
-1.0000000000E+20
 20
-1.0000000000E+20
 30
-1.0000000000E+20
  9
$PLIMMIN
 10
0.0
 20
0.0
  9
$PLIMMAX
 10
420.0
 20
297.0
  9
$UNITMODE
 70
     0
  9
$VISRETAIN
 70
     1
  9
$PLINEGEN
 70
     0
  9
$PSLTSCALE
 70
     1
  9
$TREEDEPTH
 70
  3020
  9
$CMLSTYLE
  2
Standard
  9
$CMLJUST
 70
     0
  9
$CMLSCALE
 40
20.0
  9
$PROXYGRAPHICS
 70
     1
  9
$MEASUREMENT
 70
     1
  9
$CELWEIGHT
370
    -1
  9
$ENDCAPS
280
     0
  9
$JOINSTYLE
280
     0
  9
$LWDISPLAY
290
     1
  9
$INSUNITS
 70
     4
  9
$HYPERLINKBASE
  1

  9
$STYLESHEET
  1

  9
$XEDIT
290
     1
  9
$CEPSNTYPE
380
     0
  9
$PSTYLEMODE
290
     1
  9
$FINGERPRINTGUID
  2
{CAB915BF-6A95-4048-8F80-19CA727535FA}
  9
$VERSIONGUID
  2
{FAEB1C32-E019-11D5-929B-00C0DF256EC4}
  9
$EXTNAMES
290
     1
  9
$PSVPSCALE
 40
0.0
  9
$OLESTARTUP
290
     0
  0
ENDSEC
  0
SECTION
  2
CLASSES
  0
CLASS
  1
ACDBDICTIONARYWDFLT
  2
AcDbDictionaryWithDefault
  3
ObjectDBX Classes
 90
        0
280
     0
281
     0
  0
CLASS
  1
VISUALSTYLE
  2
AcDbVisualStyle
  3
ObjectDBX Classes
 90
     4095
280
     0
281
     0
  0
CLASS
  1
MATERIAL
  2
AcDbMaterial
  3
ObjectDBX Classes
 90
     1153
280
     0
281
     0
  0
CLASS
  1
SCALE
  2
AcDbScale
  3
ObjectDBX Classes
 90
     1153
280
     0
281
     0
  0
CLASS
  1
TABLESTYLE
  2
AcDbTableStyle
  3
ObjectDBX Classes
 90
     4095
280
     0
281
     0
  0
CLASS
  1
MLEADERSTYLE
  2
AcDbMLeaderStyle
  3
ACDB_MLEADERSTYLE_CLASS
 90
     4095
280
     0
281
     0
  0
CLASS
  1
SUN
  2
AcDbSun
  3
SCENEOE
 90
     1153
280
     0
281
     0
  0
CLASS
  1
ACDBPLACEHOLDER
  2
AcDbPlaceHolder
  3
ObjectDBX Classes
 90
        0
280
     0
281
     0
  0
CLASS
  1
LAYOUT
  2
AcDbLayout
  3
ObjectDBX Classes
 90
        0
280
     0
281
     0
  0
ENDSEC
  0
SECTION
  2
TABLES
  0
TABLE
  2
VPORT
  5
8
330
0
100
AcDbSymbolTable
 70
     1
  0
VPORT
  5
29
330
8
100
AcDbSymbolTableRecord
100
AcDbViewportTableRecord
  2
*Active
 70
     0
 10
0.0
 20
0.0
 11
1.0
 21
1.0
 12
148.5
 22
105.0
 13
0.0
 23
0.0
 14
10.0
 24
10.0
 15
10.0
 25
10.0
 16
0.0
 26
0.0
 36
1.0
 17
0.0
 27
0.0
 37
0.0
 40
210.0
 41
1.4142857143
 42
50.0
 43
0.0
 44
0.0
 50
0.0
 51
0.0
 71
     0
 72
  2000
 73
     1
 74
     3
 75
     0
 76
     0
 77
     0
 78
     0
281
     0
 65
     1
110
0.0
120
0.0
130
0.0
111
1.0
121
0.0
131
0.0
112
0.0
122
1.0
132
0.0
 79
     0
146
0.0
  0
ENDTAB
  0
TABLE
  2
LTYPE
  5
5
330
0
100
AcDbSymbolTable
 70
     6
  0
LTYPE
  5
14
330
5
100
AcDbSymbolTableRecord
100
AcDbLinetypeTableRecord
  2
ByBlock
 70
     0
  3

 72
    65
 73
     0
 40
0.0
  0
LTYPE
  5
15
330
5
100
AcDbSymbolTableRecord
100
AcDbLinetypeTableRecord
  2
ByLayer
 70
     0
  3

 72
    65
 73
     0
 40
0.0
  0
LTYPE
  5
16
330
5
100
AcDbSymbolTableRecord
100
AcDbLinetypeTableRecord
  2
Continuous
 70
     0
  3
Solid line
 72
    65
 73
     0
 40
0.0
  0
LTYPE
  5
6E
330
5
100
AcDbSymbolTableRecord
100
AcDbLinetypeTableRecord
  2
HIDDEN
 70
     0
  3
Hidden __ __ __ __ __ __ __ __ __ __ __ __ __ __
 72
    65
 73
     2
 40
1.905
 49
1.27
 74
     0
 49
-0.635
 74
     0
  0
LTYPE
  5
6F
330
5
100
AcDbSymbolTableRecord
100
AcDbLinetypeTableRecord
  2
PHANTOM
 70
     0
  3
Phantom ______  __  __  ______  __  __  ______
 72
    65
 73
     6
 40
12.7
 49
6.35
 74
     0
 49
-1.27
 74
     0
 49
1.27
 74
     0
 49
-1.27
 74
     0
 49
1.27
 74
     0
 49
-1.27
 74
     0
  0
LTYPE
  5
70
330
5
100
AcDbSymbolTableRecord
100
AcDbLinetypeTableRecord
  2
CENTER
 70
     0
  3
Center ____ _ ____ _ ____ _ ____ _ ____ _ ____
 72
    65
 73
     4
 40
10.16
 49
6.35
 74
     0
 49
-1.27
 74
     0
 49
1.27
 74
     0
 49
-1.27
 74
     0
  0
LTYPE
  5
71
330
5
100
AcDbSymbolTableRecord
100
AcDbLinetypeTableRecord
  2
CENTERX2
 70
     0
  3
Center (2x) ________  __  ________  __  _____
 72
    65
 73
     4
 40
20.32
 49
12.7
 74
     0
 49
-2.54
 74
     0
 49
2.54
 74
     0
 49
-2.54
 74
     0
  0
LTYPE
  5
72
330
5
100
AcDbSymbolTableRecord
100
AcDbLinetypeTableRecord
  2
DOT2
 70
     0
  3
Dot (.5x) ........................................
 72
    65
 73
     2
 40
0.635
 49
0.0
 74
     0
 49
-0.635
 74
     0
  0
ENDTAB
  0
TABLE
  2
LAYER
  5
2
330
0
100
AcDbSymbolTable
 70
     5
  0
LAYER
  5
10
330
2
100
AcDbSymbolTableRecord
100
AcDbLayerTableRecord
  2
0
 70
     0
 62
     7
  6
Continuous
370
    -3
390
F
  0
LAYER
  5
73
330
2
100
AcDbSymbolTableRecord
100
AcDbLayerTableRecord
  2
FORMAT
 70
     0
 62
     7
  6
Continuous
370
    -3
390
F
  0
LAYER
  5
74
330
2
100
AcDbSymbolTableRecord
100
AcDbLayerTableRecord
  2
VERMASSUNG
 70
     0
 62
     7
  6
Continuous
370
    -3
390
F
  0
LAYER
  5
75
330
2
100
AcDbSymbolTableRecord
100
AcDbLayerTableRecord
  2
KOPF_DÜNN
 70
     0
 62
     7
  6
Continuous
370
    -3
390
F
  0
LAYER
  5
76
330
2
100
AcDbSymbolTableRecord
100
AcDbLayerTableRecord
  2
KOPF_DICK
 70
     0
 62
     7
  6
Continuous
370
    15
390
F
  0
ENDTAB
  0
TABLE
  2
STYLE
  5
3
330
0
100
AcDbSymbolTable
 70
     2
  0
STYLE
  5
11
330
3
100
AcDbSymbolTableRecord
100
AcDbTextStyleTableRecord
  2
Standard
 70
     0
 40
0.0
 41
1.0
 50
0.0
 71
     0
 42
2.0
  3
txt
  4

  0
STYLE
  5
77
330
3
100
AcDbSymbolTableRecord
100
AcDbTextStyleTableRecord
  2
SLDTEXTSTYLE0
 70
     0
 40
0.0
 41
0.7
 50
0.0
 71
     0
 42
2.0
  3
TXT
  4

  0
ENDTAB
  0
TABLE
  2
VIEW
  5
6
330
0
100
AcDbSymbolTable
 70
     0
  0
ENDTAB
  0
TABLE
  2
UCS
  5
7
330
0
100
AcDbSymbolTable
 70
     0
  0
ENDTAB
  0
TABLE
  2
APPID
  5
9
330
0
100
AcDbSymbolTable
 70
     1
  0
APPID
  5
12
330
9
100
AcDbSymbolTableRecord
100
AcDbRegAppTableRecord
  2
ACAD
 70
     0
  0
ENDTAB
  0
TABLE
  2
DIMSTYLE
  5
A
330
0
100
AcDbSymbolTable
 70
     2
100
AcDbDimStyleTable
  0
DIMSTYLE
105
27
330
A
100
AcDbSymbolTableRecord
100
AcDbDimStyleTableRecord
  2
ISO-25
 70
     0
 41
2.5
 42
0.625
 43
3.75
 44
1.25
 73
     0
 74
     0
 77
     1
 78
     8
140
2.5
141
2.5
143
0.0393700787
147
0.625
171
     3
172
     1
178
     0
271
     2
272
     2
274
     3
278
    44
283
     0
284
     8
340
11
  0
DIMSTYLE
105
1DD
102
{ACAD_REACTORS
330
1DC
330
1E9
330
1F5
330
1FF
330
209
102
}
330
A
100
AcDbSymbolTableRecord
100
AcDbDimStyleTableRecord
  2
SLDDIMSTYLE0
 70
     0
 41
3.0
 44
0.0
 45
0.000000001
 73
     0
 74
     0
 77
     1
 78
    12
 79
     3
140
2.0
147
0.5
173
     1
178
     0
271
     2
272
     3
276
     2
284
    12
340
77
  0
ENDTAB
  0
TABLE
  2
BLOCK_RECORD
  5
1
330
0
100
AcDbSymbolTable
 70
     6
  0
BLOCK_RECORD
  5
1F
330
1
100
AcDbSymbolTableRecord
100
AcDbBlockTableRecord
  2
*Model_Space
340
22
  0
BLOCK_RECORD
  5
1B
330
1
100
AcDbSymbolTableRecord
100
AcDbBlockTableRecord
  2
*Paper_Space
340
1E
  0
BLOCK_RECORD
  5
23
330
1
100
AcDbSymbolTableRecord
100
AcDbBlockTableRecord
  2
*Paper_Space0
340
26
  0
BLOCK_RECORD
  5
1DE
330
1
100
AcDbSymbolTableRecord
100
AcDbBlockTableRecord
  2
_D
340
0
  0
BLOCK_RECORD
  5
1EA
330
1
100
AcDbSymbolTableRecord
100
AcDbBlockTableRecord
  2
_D_1
340
0
  0
BLOCK_RECORD
  5
1F6
330
1
100
AcDbSymbolTableRecord
100
AcDbBlockTableRecord
  2
_D_2
340
0
  0
BLOCK_RECORD
  5
200
330
1
100
AcDbSymbolTableRecord
100
AcDbBlockTableRecord
  2
_D_3
340
0
  0
BLOCK_RECORD
  5
20A
330
1
100
AcDbSymbolTableRecord
100
AcDbBlockTableRecord
  2
_D_4
340
0
  0
ENDTAB
  0
ENDSEC
  0
SECTION
  2
BLOCKS
  0
BLOCK
  5
20
330
1F
100
AcDbEntity
  8
0
100
AcDbBlockBegin
  2
*Model_Space
 70
     0
 10
0.0
 20
0.0
 30
0.0
  3
*Model_Space
  1

  0
ENDBLK
  5
21
330
1F
100
AcDbEntity
  8
0
100
AcDbBlockEnd
  0
BLOCK
  5
1C
330
1B
100
AcDbEntity
 67
     1
  8
0
100
AcDbBlockBegin
  2
*Paper_Space
 70
     0
 10
0.0
 20
0.0
 30
0.0
  3
*Paper_Space
  1

  0
ENDBLK
  5
1D
330
1B
100
AcDbEntity
 67
     1
  8
0
100
AcDbBlockEnd
  0
BLOCK
  5
24
330
23
100
AcDbEntity
  8
0
100
AcDbBlockBegin
  2
*Paper_Space0
 70
     0
 10
0.0
 20
0.0
 30
0.0
  3
*Paper_Space0
  1

  0
ENDBLK
  5
25
330
23
100
AcDbEntity
  8
0
100
AcDbBlockEnd
  0
BLOCK
  5
1DF
330
1DE
100
AcDbEntity
  8
0
100
AcDbBlockBegin
  2
_D
 70
     0
 10
0.0
 20
0.0
 30
0.0
  3
_D
  1

  0
SOLID
  5
1E1
330
1DE
100
AcDbEntity
  8
VERMASSUNG
100
AcDbTrace
 10
59.1074916022
 20
80.75195156
 30
0.0
 11
59.5574916022
 21
83.75195156
 31
0.0
 12
58.6574916022
 22
83.75195156
 32
0.0
 13
58.6574916022
 23
83.75195156
 33
0.0
  0
SOLID
  5
1E2
330
1DE
100
AcDbEntity
  8
VERMASSUNG
100
AcDbTrace
 10
59.1074916022
 20
144.25195156
 30
0.0
 11
58.6574916022
 21
141.25195156
 31
0.0
 12
59.5574916022
 22
141.25195156
 32
0.0
 13
59.5574916022
 23
141.25195156
 33
0.0
  0
LINE
  5
1E3
330
1DE
100
AcDbEntity
  8
VERMASSUNG
100
AcDbLine
 10
154.0152413353
 20
80.75195156
 30
0.0
 11
58.1074916022
 21
80.75195156
 31
0.0
  0
LINE
  5
1E4
330
1DE
100
AcDbEntity
  8
VERMASSUNG
100
AcDbLine
 10
154.0152413353
 20
144.25195156
 30
0.0
 11
58.1074916022
 21
144.25195156
 31
0.0
  0
LINE
  5
1E5
330
1DE
100
AcDbEntity
  8
VERMASSUNG
100
AcDbLine
 10
59.1074916022
 20
80.75195156
 30
0.0
 11
59.1074916022
 21
144.25195156
 31
0.0
  0
MTEXT
  5
1E6
330
1DE
100
AcDbEntity
  8
VERMASSUNG
100
AcDbMText
 10
56.329356346
 20
103.6990154117
 30
0.0
 40
2.0
 41
0.0
 71
     1
 72
     1
  1
ISO 40
  7
SLDTEXTSTYLE0
 11
3.391901413832837E-15
 21
1.0
 31
0.0
 73
     1
 44
1.0
  0
MTEXT
  5
1E7
330
1DE
100
AcDbEntity
  8
VERMASSUNG
100
AcDbMText
 10
56.5293562973
 20
112.8990156158
 30
0.0
 40
2.0
 41
0.0
 71
     1
 72
     1
  1
%%c
  7
SLDTEXTSTYLE0
 11
3.391901413832837E-15
 21
1.0
 31
0.0
 73
     1
 44
1.0
  0
MTEXT
  5
1E8
330
1DE
100
AcDbEntity
  8
VERMASSUNG
100
AcDbMText
 10
56.5293560063
 20
116.5068959472
 30
0.0
 40
2.0
 41
0.0
 71
     1
 72
     1
  1
63.5
  7
SLDTEXTSTYLE0
 11
3.391901413832837E-15
 21
1.0
 31
0.0
 73
     1
 44
1.0
  0
ENDBLK
  5
1E0
330
1DE
100
AcDbEntity
  8
0
100
AcDbBlockEnd
  0
BLOCK
  5
1EB
330
1EA
100
AcDbEntity
  8
0
100
AcDbBlockBegin
  2
_D_1
 70
     0
 10
0.0
 20
0.0
 30
0.0
  3
_D_1
  1

  0
ARC
  5
1ED
330
1EA
100
AcDbEntity
  8
VERMASSUNG
100
AcDbCircle
 10
149.602381912
 20
164.7859284868
 30
0.0
 40
4.247059938537284
100
AcDbArc
 50
153.4349488229
 51
206.5650511771
  0
ARC
  5
1EE
330
1EA
100
AcDbEntity
  8
VERMASSUNG
100
AcDbCircle
 10
152.3781007585
 20
164.7859284868
 30
0.0
 40
4.24705993853731
100
AcDbArc
 50
333.4349488229
 51
26.5650511771
  0
SOLID
  5
1EF
330
1EA
100
AcDbEntity
  8
VERMASSUNG
100
AcDbTrace
 10
67.3152413353
 20
162.8865855414
 30
0.0
 11
70.3152413353
 21
162.4365855414
 31
0.0
 12
70.3152413353
 22
163.3365855414
 32
0.0
 13
70.3152413353
 23
163.3365855414
 33
0.0
  0
SOLID
  5
1F0
330
1EA
100
AcDbEntity
  8
VERMASSUNG
100
AcDbTrace
 10
234.6652413353
 20
162.8865855414
 30
0.0
 11
231.6652413353
 21
163.3365855414
 31
0.0
 12
231.6652413353
 22
162.4365855414
 32
0.0
 13
231.6652413353
 23
162.4365855414
 33
0.0
  0
LINE
  5
1F1
330
1EA
100
AcDbEntity
  8
VERMASSUNG
100
AcDbLine
 10
67.3152413353
 20
123.909082157
 30
0.0
 11
67.3152413353
 21
163.8865855414
 31
0.0
  0
LINE
  5
1F2
330
1EA
100
AcDbEntity
  8
VERMASSUNG
100
AcDbLine
 10
234.6652413353
 20
133.10195156
 30
0.0
 11
234.6652413353
 21
163.8865855414
 31
0.0
  0
LINE
  5
1F3
330
1EA
100
AcDbEntity
  8
VERMASSUNG
100
AcDbLine
 10
67.3152413353
 20
162.8865855414
 30
0.0
 11
234.6652413353
 21
162.8865855414
 31
0.0
  0
MTEXT
  5
1F4
330
1EA
100
AcDbEntity
  8
VERMASSUNG
100
AcDbMText
 10
147.3911960212
 20
165.4647211373
 30
0.0
 40
2.0
 41
0.0
 71
     1
 72
     1
  1
167.35
  7
SLDTEXTSTYLE0
 73
     1
 44
1.0
  0
ENDBLK
  5
1EC
330
1EA
100
AcDbEntity
  8
0
100
AcDbBlockEnd
  0
BLOCK
  5
1F7
330
1F6
100
AcDbEntity
  8
0
100
AcDbBlockBegin
  2
_D_2
 70
     0
 10
0.0
 20
0.0
 30
0.0
  3
_D_2
  1

  0
SOLID
  5
1F9
330
1F6
100
AcDbEntity
  8
VERMASSUNG
100
AcDbTrace
 10
135.5652413353
 20
156.8865855414
 30
0.0
 11
138.5652413353
 21
156.4365855414
 31
0.0
 12
138.5652413353
 22
157.3365855414
 32
0.0
 13
138.5652413353
 23
157.3365855414
 33
0.0
  0
SOLID
  5
1FA
330
1F6
100
AcDbEntity
  8
VERMASSUNG
100
AcDbTrace
 10
234.6652413353
 20
156.8865855414
 30
0.0
 11
231.6652413353
 21
157.3365855414
 31
0.0
 12
231.6652413353
 22
156.4365855414
 32
0.0
 13
231.6652413353
 23
156.4365855414
 33
0.0
  0
LINE
  5
1FB
330
1F6
100
AcDbEntity
  8
VERMASSUNG
100
AcDbLine
 10
135.5652413353
 20
134.72695156
 30
0.0
 11
135.5652413353
 21
157.8865855414
 31
0.0
  0
LINE
  5
1FC
330
1F6
100
AcDbEntity
  8
VERMASSUNG
100
AcDbLine
 10
234.6652413353
 20
133.10195156
 30
0.0
 11
234.6652413353
 21
157.8865855414
 31
0.0
  0
LINE
  5
1FD
330
1F6
100
AcDbEntity
  8
VERMASSUNG
100
AcDbLine
 10
135.5652413353
 20
156.8865855414
 30
0.0
 11
234.6652413353
 21
156.8865855414
 31
0.0
  0
MTEXT
  5
1FE
330
1F6
100
AcDbEntity
  8
VERMASSUNG
100
AcDbMText
 10
182.9158860315
 20
159.4647211373
 30
0.0
 40
2.0
 41
0.0
 71
     1
 72
     1
  1
99.1
  7
SLDTEXTSTYLE0
 73
     1
 44
1.0
  0
ENDBLK
  5
1F8
330
1F6
100
AcDbEntity
  8
0
100
AcDbBlockEnd
  0
BLOCK
  5
201
330
200
100
AcDbEntity
  8
0
100
AcDbBlockBegin
  2
_D_3
 70
     0
 10
0.0
 20
0.0
 30
0.0
  3
_D_3
  1

  0
SOLID
  5
203
330
200
100
AcDbEntity
  8
VERMASSUNG
100
AcDbTrace
 10
154.6152413353
 20
150.8865855414
 30
0.0
 11
157.6152413353
 21
150.4365855414
 31
0.0
 12
157.6152413353
 22
151.3365855414
 32
0.0
 13
157.6152413353
 23
151.3365855414
 33
0.0
  0
SOLID
  5
204
330
200
100
AcDbEntity
  8
VERMASSUNG
100
AcDbTrace
 10
234.6652413353
 20
150.8865855414
 30
0.0
 11
231.6652413353
 21
151.3365855414
 31
0.0
 12
231.6652413353
 22
150.4365855414
 32
0.0
 13
231.6652413353
 23
150.4365855414
 33
0.0
  0
LINE
  5
205
330
200
100
AcDbEntity
  8
VERMASSUNG
100
AcDbLine
 10
154.6152413353
 20
142.5125026934
 30
0.0
 11
154.6152413353
 21
151.8865855414
 31
0.0
  0
LINE
  5
206
330
200
100
AcDbEntity
  8
VERMASSUNG
100
AcDbLine
 10
234.6652413353
 20
133.10195156
 30
0.0
 11
234.6652413353
 21
151.8865855414
 31
0.0
  0
LINE
  5
207
330
200
100
AcDbEntity
  8
VERMASSUNG
100
AcDbLine
 10
154.6152413353
 20
150.8865855414
 30
0.0
 11
234.6652413353
 21
150.8865855414
 31
0.0
  0
MTEXT
  5
208
330
200
100
AcDbEntity
  8
VERMASSUNG
100
AcDbMText
 10
191.5408489563
 20
153.4647211373
 30
0.0
 40
2.0
 41
0.0
 71
     1
 72
     1
  1
80.05
  7
SLDTEXTSTYLE0
 73
     1
 44
1.0
  0
ENDBLK
  5
202
330
200
100
AcDbEntity
  8
0
100
AcDbBlockEnd
  0
BLOCK
  5
20B
330
20A
100
AcDbEntity
  8
0
100
AcDbBlockBegin
  2
_D_4
 70
     0
 10
0.0
 20
0.0
 30
0.0
  3
_D_4
  1

  0
SOLID
  5
20D
330
20A
100
AcDbEntity
  8
VERMASSUNG
100
AcDbTrace
 10
242.6476335704
 20
133.50195156
 30
0.0
 11
242.1976335704
 21
130.50195156
 31
0.0
 12
243.0976335704
 22
130.50195156
 32
0.0
 13
243.0976335704
 23
130.50195156
 33
0.0
  0
SOLID
  5
20E
330
20A
100
AcDbEntity
  8
VERMASSUNG
100
AcDbTrace
 10
242.6476335704
 20
91.50195156
 30
0.0
 11
243.0976335704
 21
94.50195156
 31
0.0
 12
242.1976335704
 22
94.50195156
 32
0.0
 13
242.1976335704
 23
94.50195156
 33
0.0
  0
LINE
  5
20F
330
20A
100
AcDbEntity
  8
VERMASSUNG
100
AcDbLine
 10
234.2652413353
 20
133.50195156
 30
0.0
 11
243.6476335704
 21
133.50195156
 31
0.0
  0
LINE
  5
210
330
20A
100
AcDbEntity
  8
VERMASSUNG
100
AcDbLine
 10
234.2652413353
 20
91.50195156
 30
0.0
 11
243.6476335704
 21
91.50195156
 31
0.0
  0
LINE
  5
211
330
20A
100
AcDbEntity
  8
VERMASSUNG
100
AcDbLine
 10
242.6476335704
 20
133.50195156
 30
0.0
 11
242.6476335704
 21
91.50195156
 31
0.0
  0
MTEXT
  5
212
330
20A
100
AcDbEntity
  8
VERMASSUNG
100
AcDbMText
 10
239.8694983142
 20
105.9969520863
 30
0.0
 40
2.0
 41
0.0
 71
     1
 72
     1
  1
MBM
  7
SLDTEXTSTYLE0
 11
-7.044195017643634E-15
 21
1.0
 31
0.0
 73
     1
 44
1.0
  0
MTEXT
  5
213
330
20A
100
AcDbEntity
  8
VERMASSUNG
100
AcDbMText
 10
240.0694982655
 20
112.3969519246
 30
0.0
 40
2.0
 41
0.0
 71
     1
 72
     1
  1
%%c
  7
SLDTEXTSTYLE0
 11
-7.044195017643634E-15
 21
1.0
 31
0.0
 73
     1
 44
1.0
  0
MTEXT
  5
214
330
20A
100
AcDbEntity
  8
VERMASSUNG
100
AcDbMText
 10
239.8694983142
 20
116.0069524046
 30
0.0
 40
2.0
 41
0.0
 71
     1
 72
     1
  1
42
  7
SLDTEXTSTYLE0
 11
-7.044195017643634E-15
 21
1.0
 31
0.0
 73
     1
 44
1.0
  0
ENDBLK
  5
20C
330
20A
100
AcDbEntity
  8
0
100
AcDbBlockEnd
  0
ENDSEC
  0
SECTION
  2
ENTITIES
  0
MTEXT
  5
78
330
1F
100
AcDbEntity
  8
KOPF_DÜNN
100
AcDbMText
 10
13.8892156294
 20
23.8442973028
 30
0.0
 40
3.0
 41
0.0
 71
     1
 72
     1
  1
102.425.422
  7
SLDTEXTSTYLE0
 73
     1
 44
1.0
  0
MTEXT
  5
79
330
1F
100
AcDbEntity
  8
VERMASSUNG
100
AcDbMText
 10
13.9329988022
 20
28.8834360957
 30
0.0
 40
3.0
 41
0.0
 71
     1
 72
     1
  1
Aufnahme_Master shank MBM 42
  7
SLDTEXTSTYLE0
 73
     1
 44
1.0
  0
MTEXT
  5
7A
330
1F
100
AcDbEntity
  8
VERMASSUNG
100
AcDbMText
 10
98.8601118557
 20
13.8365368761
 30
0.0
 40
2.0
 41
0.0
 71
     1
 72
     1
  1
Datum: 01.11.2007
  7
SLDTEXTSTYLE0
 73
     1
 44
1.0
  0
MTEXT
  5
7B
330
1F
100
AcDbEntity
  8
VERMASSUNG
100
AcDbMText
 10
13.933048693
 20
18.0482802738
 30
0.0
 40
2.0
 41
0.0
 71
     1
 72
     1
  1
DIN 69871 B 40
  7
SLDTEXTSTYLE0
 73
     1
 44
1.0
  0
MTEXT
  5
7C
330
1F
100
AcDbEntity
  8
VERMASSUNG
100
AcDbMText
 10
13.9808475933
 20
13.9090974274
 30
0.0
 40
2.0
 41
0.0
 71
     1
 72
     1
  1
Gewicht: 1558g
  7
SLDTEXTSTYLE0
 73
     1
 44
1.0
  0
ARC
  5
7D
330
1F
100
AcDbEntity
  8
0
  6
Continuous
 62
     7
370
    15
100
AcDbCircle
 10
158.6152413353
 20
87.50195156
 30
0.0
 40
4.0
100
AcDbArc
 50
90.0
 51
143.1132145971
  0
ARC
  5
7E
330
1F
100
AcDbEntity
  8
0
  6
Continuous
 62
     7
370
    15
100
AcDbCircle
 10
158.6152413353
 20
137.50195156
 30
0.0
 40
4.000000000000015
100
AcDbArc
 50
182.8497125175
 51
270.0
  0
ARC
  5
7F
330
1F
100
AcDbEntity
  8
0
  6
Continuous
 62
     7
370
    15
100
AcDbCircle
 10
138.1652413353
 20
89.67695156
 30
0.0
 40
0.6000000000000227
100
AcDbArc
 50
0.0
 51
90.0
  0
ARC
  5
80
330
1F
100
AcDbEntity
  8
0
  6
Continuous
 62
     7
370
    15
100
AcDbCircle
 10
138.1652413353
 20
135.32695156
 30
0.0
 40
0.6000000000000227
100
AcDbArc
 50
270.0
 51
0.0
  0
LINE
  5
81
330
1F
100
AcDbEntity
  8
0
  6
Continuous
 62
     7
370
    15
100
AcDbLine
 10
135.5652413353
 20
90.2769515958
 30
0.0
 11
138.1652413424
 21
90.2769515958
 31
0.0
  0
LINE
  5
82
330
1F
100
AcDbEntity
  8
0
  6
Continuous
 62
     7
370
    15
100
AcDbLine
 10
138.1652413424
 20
134.7269515242
 30
0.0
 11
135.5652413353
 21
134.7269515242
 31
0.0
  0
LINE
  5
83
330
1F
100
AcDbEntity
  8
0
  6
Continuous
 62
     7
370
    15
100
AcDbLine
 10
135.5652413353
 20
134.7269515242
 30
0.0
 11
68.1709325894
 21
124.8986149873
 31
0.0
  0
LINE
  5
84
330
1F
100
AcDbEntity
  8
0
  6
Continuous
 62
     7
370
    15
100
AcDbLine
 10
68.1709325894
 20
100.1052881326
 30
0.0
 11
135.5652413353
 21
90.2769515958
 31
0.0
  0
LINE
  5
85
330
1F
100
AcDbEntity
  8
0
  6
Continuous
 62
     7
370
    15
100
AcDbLine
 10
158.6152422264
 20
91.5019518431
 30
0.0
 11
234.2652431711
 21
91.5019518431
 31
0.0
  0
LINE
  5
86
330
1F
100
AcDbEntity
  8
0
  6
Continuous
 62
     7
370
    15
100
AcDbLine
 10
234.2652431711
 20
133.5019512769
 30
0.0
 11
158.6152422264
 21
133.5019512769
 31
0.0
  0
LINE
  5
87
330
1F
100
AcDbEntity
  8
0
  6
Continuous
 62
     7
370
    15
100
AcDbLine
 10
234.2652431711
 20
91.5019518431
 30
0.0
 11
234.6652424916
 21
91.9019511636
 31
0.0
  0
LINE
  5
88
330
1F
100
AcDbEntity
  8
0
  6
Continuous
 62
     7
370
    15
100
AcDbLine
 10
234.6652424916
 20
133.1019519564
 30
0.0
 11
234.2652431711
 21
133.5019512769
 31
0.0
  0
ARC
  5
89
330
1F
100
AcDbEntity
  8
0
  6
Continuous
 62
     7
370
    15
100
AcDbCircle
 10
68.3152413353
 20
101.094820963
 30
0.0
 40
0.9999999999999959
100
AcDbArc
 50
180.0
 51
261.7028550302
  0
ARC
  5
8A
330
1F
100
AcDbEntity
  8
0
  6
Continuous
 62
     7
370
    15
100
AcDbCircle
 10
68.3152413353
 20
123.909082157
 30
0.0
 40
0.9999999999999858
100
AcDbArc
 50
98.2971449698
 51
180.0
  0
ARC
  5
8B
330
1F
100
AcDbEntity
  8
0
  6
Continuous
 62
     7
370
    15
100
AcDbCircle
 10
148.5652413353
 20
103.7804379052
 30
0.0
 40
1.500000000000018
100
AcDbArc
 50
191.5274417164
 51
336.6037645748
  0
LINE
  5
8C
330
1F
100
AcDbEntity
  8
0
  6
Continuous
 62
     7
370
    15
100
AcDbLine
 10
139.3652413993
 20
82.0538594123
 30
0.0
 11
143.143404743
 21
82.0538594123
 31
0.0
  0
LINE
  5
8D
330
1F
100
AcDbEntity
  8
0
  6
Continuous
 62
     7
370
    15
100
AcDbLine
 10
143.143404743
 20
130.8519511219
 30
0.0
 11
139.3652413993
 21
130.8519511219
 31
0.0
  0
LINE
  5
8E
330
1F
100
AcDbEntity
  8
0
  6
Continuous
 62
     7
370
    15
100
AcDbLine
 10
143.143404743
 20
82.0538594123
 30
0.0
 11
143.143404743
 21
130.8519511219
 31
0.0
  0
SPLINE
  5
8F
330
1F
100
AcDbEntity
  8
0
  6
Continuous
 62
     7
370
    15
100
AcDbSpline
210
0.0
220
0.0
230
1.0
 70
     8
 71
     3
 72
     8
 73
     4
 74
     0
 42
0.000000001
 43
0.00000001
 40
0.0
 40
0.0
 40
0.0
 40
0.0
 40
1.0
 40
1.0
 40
1.0
 40
1.0
 10
144.7552413352721
 20
84.68512510049322
 30
0.0
 10
144.3711065866877
 20
83.99248367854904
 30
0.0
 10
143.9861203101948
 20
83.30029750422533
 30
0.0
 10
143.6004517315685
 20
82.60850321338113
 30
0.0
  0
SPLINE
  5
90
330
1F
100
AcDbEntity
  8
0
  6
Continuous
 62
     7
370
    15
100
AcDbSpline
210
0.0
220
0.0
230
1.0
 70
     8
 71
     3
 72
     8
 73
     4
 74
     0
 42
0.000000001
 43
0.00000001
 40
0.0
 40
0.0
 40
0.0
 40
0.0
 40
0.0011901715795577
 40
0.0011901715795577
 40
0.0011901715795577
 40
0.0011901715795577
 10
143.1434046932154
 20
82.053859211358
 30
0.0
 10
143.2972508827113
 20
82.23842444904159
 30
0.0
 10
143.449646150384
 20
82.42329980957021
 30
0.0
 10
143.6004517315685
 20
82.60850321338113
 30
0.0
  0
SPLINE
  5
91
330
1F
100
AcDbEntity
  8
0
  6
Continuous
 62
     7
370
    15
100
AcDbSpline
210
0.0
220
0.0
230
1.0
 70
    24
 71
     3
 72
     8
 73
     4
 74
     0
 42
0.000000001
 43
0.00000001
 40
0.0
 40
0.0
 40
0.0
 40
0.0
 40
1.0
 40
1.0
 40
1.0
 40
1.0
 10
144.7552413352721
 20
130.8519515599947
 30
0.0
 10
144.2305088469103
 20
130.8519515599947
 30
0.0
 10
143.6918333626914
 20
130.8519515599947
 30
0.0
 10
143.1434046932154
 20
130.8519515599947
 30
0.0
  0
LINE
  5
92
330
1F
100
AcDbEntity
  8
0
  6
Continuous
 62
     7
370
    15
100
AcDbLine
 10
144.7552409976
 20
84.6851250823
 30
0.0
 11
144.7552409976
 21
130.8519511219
 31
0.0
  0
LINE
  5
93
330
1F
100
AcDbEntity
  8
0
  6
Continuous
 62
     7
370
    15
100
AcDbLine
 10
150.1870783999
 20
102.7499313202
 30
0.0
 11
150.1870783999
 21
130.8519511219
 31
0.0
  0
LINE
  5
94
330
1F
100
AcDbEntity
  8
0
  6
Continuous
 62
     7
370
    15
100
AcDbLine
 10
154.0152407273
 20
130.8519511219
 30
0.0
 11
150.1870783999
 21
130.8519511219
 31
0.0
  0
LINE
  5
95
330
1F
100
AcDbEntity
  8
0
  6
Continuous
 62
     7
370
    15
100
AcDbLine
 10
150.1870783999
 20
82.0538594123
 30
0.0
 11
154.0152407273
 21
82.0538594123
 31
0.0
  0
LINE
  5
96
330
1F
100
AcDbEntity
  8
0
  6
Continuous
 62
     7
370
    15
100
AcDbLine
 10
150.1870783999
 20
82.0538594123
 30
0.0
 11
150.1870783999
 21
100.5504519414
 31
0.0
  0
SPLINE
  5
97
330
1F
100
AcDbEntity
  8
0
  6
Continuous
 62
     7
370
    15
100
AcDbSpline
210
0.0
220
0.0
230
1.0
 70
     8
 71
     3
 72
    12
 73
     8
 74
     0
 42
0.000000001
 43
0.00000001
 40
0.0
 40
0.0
 40
0.0
 40
0.0
 40
0.2499999999999997
 40
0.2499999999999997
 40
0.4999999999999993
 40
0.4999999999999993
 40
1.0
 40
1.0
 40
1.0
 40
1.0
 10
150.1870779773288
 20
100.5504517617876
 30
0.0
 10
150.3100254711244
 20
100.7084086104827
 30
0.0
 10
150.4035696742333
 20
100.8802419774603
 30
0.0
 10
150.5325090633955
 20
101.2519146871061
 30
0.0
 10
150.5650618207806
 20
101.4451031332973
 30
0.0
 10
150.5655981625144
 20
102.0333996715736
 30
0.0
 10
150.4329745055464
 20
102.4254179094623
 30
0.0
 10
150.1870779773288
 20
102.749931492171
 30
0.0
  0
SPLINE
  5
98
330
1F
100
AcDbEntity
  8
0
  6
Continuous
 62
     7
370
    15
100
AcDbSpline
210
0.0
220
0.0
230
1.0
 70
     8
 71
     3
 72
    12
 73
     8
 74
     0
 42
0.000000001
 43
0.00000001
 40
0.0
 40
0.0
 40
0.0
 40
0.0
 40
0.2499999999999999
 40
0.2499999999999999
 40
0.4999999999999998
 40
0.4999999999999998
 40
1.0
 40
1.0
 40
1.0
 40
1.0
 10
154.0152413352721
 20
82.053859211358
 30
0.0
 10
154.1107832454081
 20
82.053859211358
 30
0.0
 10
154.2029281872709
 20
82.07011288055422
 30
0.0
 10
154.3592544638808
 20
82.1237213014677
 30
0.0
 10
154.4229226065008
 20
82.16013242674937
 30
0.0
 10
154.5717904519312
 20
82.28225606643585
 30
0.0
 10
154.6152413352721
 20
82.3774087418729
 30
0.0
 10
154.6152413352721
 20
82.47303519749258
 30
0.0
  0
SPLINE
  5
99
330
1F
100
AcDbEntity
  8
0
  6
Continuous
 62
     7
370
    15
100
AcDbSpline
210
0.0
220
0.0
230
1.0
 70
    24
 71
     3
 72
    12
 73
     8
 74
     0
 42
0.000000001
 43
0.00000001
 40
0.0
 40
0.0
 40
0.0
 40
0.0
 40
0.500000000000004
 40
0.500000000000004
 40
0.750000000000002
 40
0.750000000000002
 40
1.0
 40
1.0
 40
1.0
 40
1.0
 10
154.6152413352721
 20
130.8519515599947
 30
0.0
 10
154.6152413352721
 20
130.8519515599947
 30
0.0
 10
154.5649556681005
 20
130.8519515599947
 30
0.0
 10
154.4098335337252
 20
130.8519515599947
 30
0.0
 10
154.3443762583831
 20
130.8519515599947
 30
0.0
 10
154.1904050347409
 20
130.8519515599947
 30
0.0
 10
154.103182746025
 20
130.8519515599947
 30
0.0
 10
154.015241335272
 20
130.8519515599947
 30
0.0
  0
LINE
  5
9A
330
1F
100
AcDbEntity
  8
0
  6
Continuous
 62
     7
370
    15
100
AcDbLine
 10
154.6152415707
 20
82.4730346646
 30
0.0
 11
154.6152415707
 21
130.8519511219
 31
0.0
  0
LINE
  5
9B
330
1F
100
AcDbEntity
  8
0
  6
Continuous
 62
     7
370
    15
100
AcDbLine
 10
148.575241214
 20
104.5006687488
 30
0.0
 11
148.575241214
 21
130.8519511219
 31
0.0
  0
SPLINE
  5
9C
330
1F
100
AcDbEntity
  8
0
  6
Continuous
 62
     7
370
    15
100
AcDbSpline
210
0.0
220
0.0
230
1.0
 70
    24
 71
     3
 72
     8
 73
     4
 74
     0
 42
0.000000001
 43
0.00000001
 40
0.0
 40
0.0
 40
0.0
 40
0.0
 40
1.0
 40
1.0
 40
1.0
 40
1.0
 10
150.1870779773288
 20
130.8519515599947
 30
0.0
 10
149.6386493078528
 20
130.8519515599947
 30
0.0
 10
149.099973823634
 20
130.8519515599947
 30
0.0
 10
148.5752413352722
 20
130.8519515599947
 30
0.0
  0
SPLINE
  5
9D
330
1F
100
AcDbEntity
  8
0
  6
Continuous
 62
     7
370
    15
100
AcDbSpline
210
0.0
220
0.0
230
1.0
 70
     8
 71
     3
 72
    12
 73
     8
 74
     0
 42
0.000000001
 43
0.00000001
 40
0.0
 40
0.0
 40
0.0
 40
0.0
 40
0.2499999999999994
 40
0.2499999999999994
 40
0.4999999999999989
 40
0.4999999999999989
 40
1.0
 40
1.0
 40
1.0
 40
1.0
 10
150.1870779773288
 20
102.749931492171
 30
0.0
 10
150.0721819260682
 20
102.9696719272276
 30
0.0
 10
149.9454159095955
 20
103.1666402788493
 30
0.0
 10
149.685200975977
 20
103.5203578516882
 30
0.0
 10
149.5516935180148
 20
103.6771831455604
 30
0.0
 10
149.1432952494266
 20
104.1037257164681
 30
0.0
 10
148.859642114489
 20
104.3304178954233
 30
0.0
 10
148.5752413352722
 20
104.5006690398188
 30
0.0
  0
SPLINE
  5
9E
330
1F
100
AcDbEntity
  8
0
  6
Continuous
 62
     7
370
    15
100
AcDbSpline
210
0.0
220
0.0
230
1.0
 70
     8
 71
     3
 72
    10
 73
     6
 74
     0
 42
0.000000001
 43
0.00000001
 40
0.0
 40
0.0
 40
0.0
 40
0.0
 40
0.5
 40
0.5
 40
1.0
 40
1.0
 40
1.0
 40
1.0
 10
138.9813858766194
 20
82.15022171052647
 30
0.0
 10
139.0301558496007
 20
82.12199370331845
 30
0.0
 10
139.087607972903
 20
82.09789909907686
 30
0.0
 10
139.2182048758917
 20
82.06363562598432
 30
0.0
 10
139.2906945557339
 20
82.05385921135799
 30
0.0
 10
139.3652413352721
 20
82.05385921135799
 30
0.0
  0
SPLINE
  5
9F
330
1F
100
AcDbEntity
  8
0
  6
Continuous
 62
     7
370
    15
100
AcDbSpline
210
0.0
220
0.0
230
1.0
 70
     8
 71
     3
 72
    10
 73
     6
 74
     0
 42
0.000000001
 43
0.00000001
 40
0.0
 40
0.0
 40
0.0
 40
0.0
 40
0.5
 40
0.5
 40
1.0
 40
1.0
 40
1.0
 40
1.0
 10
138.9813858766194
 20
82.15022171052645
 30
0.0
 10
138.9232632165432
 20
82.21752687038826
 30
0.0
 10
138.8708600505397
 20
82.2976122574219
 30
0.0
 10
138.7919570289934
 20
82.48163169911068
 30
0.0
 10
138.7652413352721
 20
82.58684305653114
 30
0.0
 10
138.7652413352721
 20
82.69557640299179
 30
0.0
  0
LINE
  5
A0
330
1F
100
AcDbEntity
  8
0
  6
Continuous
 62
     7
370
    15
100
AcDbLine
 10
138.7652412544
 20
82.6955760565
 30
0.0
 11
138.7652412544
 21
130.8519511219
 31
0.0
  0
SPLINE
  5
A1
330
1F
100
AcDbEntity
  8
0
  6
Continuous
 62
     7
370
    15
100
AcDbSpline
210
0.0
220
0.0
230
1.0
 70
    24
 71
     3
 72
    12
 73
     8
 74
     0
 42
0.000000001
 43
0.00000001
 40
0.0
 40
0.0
 40
0.0
 40
0.0
 40
0.2499999999999998
 40
0.2499999999999998
 40
0.4999999999999997
 40
0.4999999999999997
 40
1.0
 40
1.0
 40
1.0
 40
1.0
 10
139.3652413352721
 20
130.8519515599947
 30
0.0
 10
139.2777569656194
 20
130.8519515599947
 30
0.0
 10
139.1904240881987
 20
130.8519515599947
 30
0.0
 10
139.0365876747599
 20
130.8519515599947
 30
0.0
 10
138.9709655057864
 20
130.8519515599947
 30
0.0
 10
138.8155473004439
 20
130.8519515599947
 30
0.0
 10
138.7652413352721
 20
130.8519515599947
 30
0.0
 10
138.7652413352721
 20
130.8519515599947
 30
0.0
  0
SPLINE
  5
A2
330
1F
100
AcDbEntity
  8
0
  6
Continuous
 62
     7
370
    15
100
AcDbSpline
210
0.0
220
0.0
230
1.0
 70
     8
 71
     3
 72
    14
 73
    10
 74
     0
 42
0.000000001
 43
0.00000001
 40
0.0
 40
0.0
 40
0.0
 40
0.0
 40
0.2500000000000005
 40
0.2500000000000005
 40
0.5000000000000003
 40
0.5000000000000003
 40
0.7500000000000001
 40
0.7500000000000001
 40
1.0
 40
1.0
 40
1.0
 40
1.0
 10
148.5752413352722
 20
104.554912689666
 30
0.0
 10
148.5752413352722
 20
104.5911722793411
 30
0.0
 10
148.5541212477739
 20
104.6278003331295
 30
0.0
 10
148.4716535926252
 20
104.6930780655429
 30
0.0
 10
148.4112222382841
 20
104.721004376871
 30
0.0
 10
148.2587573721363
 20
104.7551688137654
 30
0.0
 10
148.1681764851856
 20
104.7605483106944
 30
0.0
 10
147.9755345692171
 20
104.7396720010153
 30
0.0
 10
147.8737224266096
 20
104.7133259558069
 30
0.0
 10
147.7752413352719
 20
104.672583846665
 30
0.0
  0
SPLINE
  5
A3
330
1F
100
AcDbEntity
  8
0
  6
Continuous
 62
     7
370
    15
100
AcDbSpline
210
0.0
220
0.0
230
1.0
 70
     8
 71
     3
 72
    12
 73
     8
 74
     0
 42
0.000000001
 43
0.00000001
 40
0.0
 40
0.0
 40
0.0
 40
0.0
 40
0.499999999999999
 40
0.499999999999999
 40
0.7499999999999994
 40
0.7499999999999994
 40
1.0
 40
1.0
 40
1.0
 40
1.0
 10
148.5752413352721
 20
100.7419455415978
 30
0.0
 10
148.8594478698374
 20
100.574481379304
 30
0.0
 10
149.1381436039412
 20
100.4628442797924
 30
0.0
 10
149.5474896471305
 20
100.3955310141531
 30
0.0
 10
149.68362898445
 20
100.3903799741391
 30
0.0
 10
149.9449490334461
 20
100.4281459117585
 30
0.0
 10
150.0703702158778
 20
100.4696956701027
 30
0.0
 10
150.1870779773292
 20
100.5504517617855
 30
0.0
  0
LINE
  5
A4
330
1F
100
AcDbEntity
  8
0
  6
Continuous
 62
     7
370
    15
100
AcDbLine
 10
148.575241214
 20
100.7961888533
 30
0.0
 11
148.575241214
 21
100.7419458326
 31
0.0
  0
SPLINE
  5
A5
330
1F
100
AcDbEntity
  8
0
  6
Continuous
 62
     7
370
    15
100
AcDbSpline
210
0.0
220
0.0
230
1.0
 70
     8
 71
     3
 72
    14
 73
    10
 74
     0
 42
0.000000001
 43
0.00000001
 40
0.0
 40
0.0
 40
0.0
 40
0.0
 40
0.25
 40
0.25
 40
0.5
 40
0.5
 40
0.75
 40
0.75
 40
1.0
 40
1.0
 40
1.0
 40
1.0
 10
147.7752413352721
 20
101.2194723698865
 30
0.0
 10
147.8737206088863
 20
101.1806357392747
 30
0.0
 10
147.9750179675848
 20
101.1433429111791
 30
0.0
 10
148.1680016678271
 20
101.0719316201042
 30
0.0
 10
148.2590970382414
 20
101.0378318572472
 30
0.0
 10
148.410389561559
 20
100.9710028840169
 30
0.0
 10
148.4716552845875
 20
100.9375834782756
 30
0.0
 10
148.5538388855071
 20
100.8685658719814
 30
0.0
 10
148.5752413352721
 20
100.8327695901401
 30
0.0
 10
148.5752413352721
 20
100.7961891914461
 30
0.0
  0
SPLINE
  5
A6
330
1F
100
AcDbEntity
  8
0
  6
Continuous
 62
     7
370
    15
100
AcDbSpline
210
0.0
220
0.0
230
1.0
 70
     8
 71
     3
 72
    22
 73
    18
 74
     0
 42
0.000000001
 43
0.00000001
 40
0.0
 40
0.0
 40
0.0
 40
0.0
 40
0.125
 40
0.125
 40
0.25
 40
0.25
 40
0.375
 40
0.375
 40
0.5
 40
0.5
 40
0.625
 40
0.625
 40
0.75
 40
0.75
 40
0.875
 40
0.875
 40
1.0
 40
1.0
 40
1.0
 40
1.0
 10
147.7752413352721
 20
104.6725838466638
 30
0.0
 10
147.5952246407027
 20
104.5981100596872
 30
0.0
 10
147.4307928188324
 20
104.5006607977032
 30
0.0
 10
147.1323965850738
 20
104.2612913641389
 30
0.0
 10
147.002092857709
 20
104.1213947520684
 30
0.0
 10
146.7888740740899
 20
103.8131431620081
 30
0.0
 10
146.7052462169785
 20
103.6429799438889
 30
0.0
 10
146.5941153400603
 20
103.2924852090984
 30
0.0
 10
146.5652793452066
 20
103.1073602479471
 30
0.0
 10
146.565203402547
 20
102.7441533733298
 30
0.0
 10
146.5938620279742
 20
102.5607833596222
 30
0.0
 10
146.7050131210869
 20
102.214892247129
 30
0.0
 10
146.7880802417309
 20
102.0493727198615
 30
0.0
 10
147.0017661998495
 20
101.7488329824577
 30
0.0
 10
147.1307731897739
 20
101.6149610611737
 30
0.0
 10
147.4303824692634
 20
101.3837142917696
 30
0.0
 10
147.5952251675226
 20
101.2904641751108
 30
0.0
 10
147.7752413352721
 20
101.2194723698865
 30
0.0
  0
SPLINE
  5
A7
330
1F
100
AcDbEntity
  8
0
  6
Continuous
 62
     7
370
    15
100
AcDbSpline
210
0.0
220
0.0
230
1.0
 70
     8
 71
     3
 72
     8
 73
     4
 74
     0
 42
0.000000001
 43
0.00000001
 40
0.0
 40
0.0
 40
0.0
 40
0.0
 40
0.0011901715795577
 40
0.0011901715795577
 40
0.0011901715795577
 40
0.0011901715795577
 10
149.7300309389758
 20
82.60850321338114
 30
0.0
 10
149.8808365201603
 20
82.42329980957021
 30
0.0
 10
150.0332317878329
 20
82.23842444904159
 30
0.0
 10
150.1870779773288
 20
82.053859211358
 30
0.0
  0
SPLINE
  5
A8
330
1F
100
AcDbEntity
  8
0
  6
Continuous
 62
     7
370
    15
100
AcDbSpline
210
0.0
220
0.0
230
1.0
 70
     8
 71
     3
 72
     8
 73
     4
 74
     0
 42
0.000000001
 43
0.00000001
 40
0.0
 40
0.0
 40
0.0
 40
0.0
 40
1.0
 40
1.0
 40
1.0
 40
1.0
 10
149.7300309389758
 20
82.60850321338114
 30
0.0
 10
149.3443623603494
 20
83.30029750422533
 30
0.0
 10
148.9593760838565
 20
83.99248367854904
 30
0.0
 10
148.5752413352721
 20
84.68512510049322
 30
0.0
  0
LINE
  5
A9
330
1F
100
AcDbEntity
  8
0
  6
Continuous
 62
     7
370
    15
100
AcDbLine
 10
148.575241214
 20
84.6851250823
 30
0.0
 11
148.575241214
 21
100.7419458326
 31
0.0
  0
SPLINE
  5
AA
330
1F
100
AcDbEntity
  8
0
  6
Continuous
 62
     7
370
    15
100
AcDbSpline
210
0.0
220
0.0
230
1.0
 70
     8
 71
     3
 72
    12
 73
     8
 74
     0
 42
0.000000001
 43
0.00000001
 40
0.0
 40
0.0
 40
0.0
 40
0.0
 40
0.2499999999999978
 40
0.2499999999999978
 40
0.4999999999999957
 40
0.4999999999999957
 40
1.0
 40
1.0
 40
1.0
 40
1.0
 10
145.5552413352721
 20
85.68409370370797
 30
0.0
 10
145.4476547343099
 20
85.68409370370797
 30
0.0
 10
145.3416499803405
 20
85.66145232482086
 30
0.0
 10
145.1450249339918
 20
85.57455246022715
 30
0.0
 10
145.0571397607698
 20
85.51162024511919
 30
0.0
 10
144.8365871676654
 20
85.27661644655981
 30
0.0
 10
144.7552413352721
 20
85.06339875828895
 30
0.0
 10
144.7552413352721
 20
84.84987207218765
 30
0.0
  0
SPLINE
  5
AB
330
1F
100
AcDbEntity
  8
0
  6
Continuous
 62
     7
370
    15
100
AcDbSpline
210
0.0
220
0.0
230
1.0
 70
    24
 71
     3
 72
    12
 73
     8
 74
     0
 42
0.000000001
 43
0.00000001
 40
0.0
 40
0.0
 40
0.0
 40
0.0
 40
0.2500000000000005
 40
0.2500000000000005
 40
0.500000000000001
 40
0.500000000000001
 40
1.0
 40
1.0
 40
1.0
 40
1.0
 10
145.5552413352721
 20
130.8519515599947
 30
0.0
 10
145.4337635634676
 20
130.8519515599947
 30
0.0
 10
145.3112100918057
 20
130.8519515599947
 30
0.0
 10
145.1071569382673
 20
130.8519515599947
 30
0.0
 10
145.0209978750416
 20
130.8519515599947
 30
0.0
 10
144.8189573083458
 20
130.8519515599947
 30
0.0
 10
144.7552413352721
 20
130.8519515599947
 30
0.0
 10
144.7552413352721
 20
130.8519515599947
 30
0.0
  0
SPLINE
  5
AC
330
1F
100
AcDbEntity
  8
0
  6
Continuous
 62
     7
370
    15
100
AcDbSpline
210
0.0
220
0.0
230
1.0
 70
    24
 71
     3
 72
    14
 73
    10
 74
     0
 42
0.000000001
 43
0.00000001
 40
0.0
 40
0.0
 40
0.0
 40
0.0
 40
0.25
 40
0.25
 40
0.5
 40
0.5
 40
0.75
 40
0.75
 40
1.0
 40
1.0
 40
1.0
 40
1.0
 10
148.5752413352721
 20
130.8519515599947
 30
0.0
 10
148.5752413352721
 20
130.8519515599947
 30
0.0
 10
148.5591597338124
 20
130.8519515599947
 30
0.0
 10
148.4936682205454
 20
130.8519515599947
 30
0.0
 10
148.4443602474181
 20
130.8519515599947
 30
0.0
 10
148.3097907257211
 20
130.8519515599947
 30
0.0
 10
148.2242676496359
 20
130.8519515599947
 30
0.0
 10
148.0172721540808
 20
130.8519515599947
 30
0.0
 10
147.8965785201372
 20
130.8519515599947
 30
0.0
 10
147.7752413352722
 20
130.8519515599947
 30
0.0
  0
LINE
  5
AD
330
1F
100
AcDbEntity
  8
0
  6
Continuous
 62
     7
370
    15
100
AcDbLine
 10
147.7752416416
 20
85.6840933408
 30
0.0
 11
145.5552415013
 21
85.6840933408
 31
0.0
  0
LINE
  5
AE
330
1F
100
AcDbEntity
  8
0
  6
Continuous
 62
     7
370
    15
100
AcDbLine
 10
147.7752416416
 20
130.8519511219
 30
0.0
 11
145.5552415013
 21
130.8519511219
 31
0.0
  0
SPLINE
  5
AF
330
1F
100
AcDbEntity
  8
0
  6
Continuous
 62
     7
370
    15
100
AcDbSpline
210
0.0
220
0.0
230
1.0
 70
     8
 71
     3
 72
    12
 73
     8
 74
     0
 42
0.000000001
 43
0.00000001
 40
0.0
 40
0.0
 40
0.0
 40
0.0
 40
0.4999999999999987
 40
0.4999999999999987
 40
0.7499999999999993
 40
0.7499999999999993
 40
1.0
 40
1.0
 40
1.0
 40
1.0
 10
148.5752413352721
 20
84.84987207218764
 30
0.0
 10
148.5752413352721
 20
85.06269463112051
 30
0.0
 10
148.4933159774524
 20
85.27695113775849
 30
0.0
 10
148.274394173984
 20
85.51064076620837
 30
0.0
 10
148.184346882493
 20
85.57512559105234
 30
0.0
 10
147.9889334144731
 20
85.66132520220793
 30
0.0
 10
147.8816504474893
 20
85.68409370370797
 30
0.0
 10
147.7752413352721
 20
85.68409370370797
 30
0.0
  0
SPLINE
  5
B0
330
1F
100
AcDbEntity
  8
0
  6
Continuous
 62
     7
370
    15
100
AcDbSpline
210
0.0
220
0.0
230
1.0
 70
    24
 71
     3
 72
    12
 73
     8
 74
     0
 42
0.000000001
 43
0.00000001
 40
0.0
 40
0.0
 40
0.0
 40
0.0
 40
0.5
 40
0.5
 40
0.75
 40
0.75
 40
1.0
 40
1.0
 40
1.0
 40
1.0
 10
154.9061747739153
 20
89.9019515599947
 30
0.0
 10
155.0249930481582
 20
89.9019515599947
 30
0.0
 10
155.156809185743
 20
89.9019515599947
 30
0.0
 10
155.3041071195915
 20
89.90195155999469
 30
0.0
 10
155.3447904712858
 20
89.90195155999469
 30
0.0
 10
155.4004021912464
 20
89.90195155999469
 30
0.0
 10
155.4152413352721
 20
89.90195155999469
 30
0.0
 10
155.4152413352721
 20
89.9019515599947
 30
0.0
  0
SPLINE
  5
B1
330
1F
100
AcDbEntity
  8
0
  6
Continuous
 62
     7
370
    15
100
AcDbSpline
210
0.0
220
0.0
230
1.0
 70
     8
 71
     3
 72
    14
 73
    10
 74
     0
 42
0.000000001
 43
0.00000001
 40
0.0
 40
0.0
 40
0.0
 40
0.0
 40
0.2499999999999994
 40
0.2499999999999994
 40
0.4999999999999997
 40
0.4999999999999997
 40
0.7499999999999999
 40
0.7499999999999999
 40
1.0
 40
1.0
 40
1.0
 40
1.0
 10
154.6152413352721
 20
88.80591648283718
 30
0.0
 10
154.6152413352721
 20
88.96742091546136
 30
0.0
 10
154.6260852843454
 20
89.11623408146244
 30
0.0
 10
154.6662726608824
 20
89.38803229443
 30
0.0
 10
154.6945854784107
 20
89.50431054901968
 30
0.0
 10
154.7594162512824
 20
89.69897906095882
 30
0.0
 10
154.794447360007
 20
89.77306272371669
 30
0.0
 10
154.8590332428982
 20
89.87549908764757
 30
0.0
 10
154.8874269475605
 20
89.90195155999469
 30
0.0
 10
154.9061747739153
 20
89.9019515599947
 30
0.0
  0
LINE
  5
B2
330
1F
100
AcDbEntity
  8
0
  6
Continuous
 62
     7
370
    15
100
AcDbLine
 10
135.5652413353
 20
90.2769515958
 30
0.0
 11
135.5652413353
 21
134.7269515242
 31
0.0
  0
SPLINE
  5
B3
330
1F
100
AcDbEntity
  8
0
  6
Continuous
 62
     7
370
    15
100
AcDbSpline
210
0.0
220
0.0
230
1.0
 70
     8
 71
     3
 72
    54
 73
    50
 74
     0
 42
0.000000001
 43
0.00000001
 40
0.0
 40
0.0
 40
0.0
 40
0.0
 40
0.0312499999999986
 40
0.0312499999999986
 40
0.0624999999999971
 40
0.0624999999999971
 40
0.1249999999999947
 40
0.1249999999999947
 40
0.1874999999999922
 40
0.1874999999999922
 40
0.218749999999991
 40
0.218749999999991
 40
0.2499999999999897
 40
0.2499999999999897
 40
0.3124999999999871
 40
0.3124999999999871
 40
0.3749999999999845
 40
0.3749999999999845
 40
0.406249999999984
 40
0.406249999999984
 40
0.4374999999999836
 40
0.4374999999999836
 40
0.4999999999999827
 40
0.4999999999999827
 40
0.5312499999999822
 40
0.5312499999999822
 40
0.5624999999999818
 40
0.5624999999999818
 40
0.6249999999999809
 40
0.6249999999999809
 40
0.6562499999999813
 40
0.6562499999999813
 40
0.6874999999999818
 40
0.6874999999999818
 40
0.7499999999999843
 40
0.7499999999999843
 40
0.7812499999999863
 40
0.7812499999999863
 40
0.8124999999999883
 40
0.8124999999999883
 40
0.8749999999999922
 40
0.8749999999999922
 40
0.9062499999999941
 40
0.9062499999999941
 40
0.9374999999999961
 40
0.9374999999999961
 40
0.9687499999999981
 40
0.9687499999999981
 40
1.0
 40
1.0
 40
1.0
 40
1.0
 10
229.6152413352721
 20
112.5019515599947
 30
0.0
 10
229.6152413352721
 20
112.2730813959721
 30
0.0
 10
229.6010632023506
 20
112.0440266571747
 30
0.0
 10
229.5437399165434
 20
111.5855404356301
 30
0.0
 10
229.5003854351315
 20
111.3565279759254
 30
0.0
 10
229.3313104834598
 20
110.6884847199796
 30
0.0
 10
229.1657750818191
 20
110.2603791877419
 30
0.0
 10
228.7376201763629
 20
109.4433993666948
 30
0.0
 10
228.4816260168816
 20
109.066362867086
 30
0.0
 10
228.0416319703937
 20
108.5420543705359
 30
0.0
 10
227.8847174493035
 20
108.3734842957665
 30
0.0
 10
227.5568625163017
 20
108.0544259485149
 30
0.0
 10
227.3860746975592
 20
107.9038813433863
 30
0.0
 10
226.8542370955495
 20
107.4774387145977
 30
0.0
 10
226.4724087214203
 20
107.2257021668167
 30
0.0
 10
225.6642304392352
 20
106.7897886656136
 30
0.0
 10
225.2455848099702
 20
106.6094340885669
 30
0.0
 10
224.5968791386335
 20
106.3913015248865
 30
0.0
 10
224.3771625317946
 20
106.327393125165
 30
0.0
 10
223.9306723452927
 20
106.2172697677534
 30
0.0
 10
223.7031381984446
 20
106.1710014711985
 30
0.0
 10
223.0216396442318
 20
106.0611207224695
 30
0.0
 10
222.5655480050665
 20
106.0251599170292
 30
0.0
 10
221.8788241991339
 20
106.0257612131578
 30
0.0
 10
221.6494828605211
 20
106.0351076381833
 30
0.0
 10
221.1899136156911
 20
106.0725346772947
 30
0.0
 10
220.9591883060192
 20
106.1007869709851
 30
0.0
 10
220.278560448097
 20
106.2123775805129
 30
0.0
 10
219.8359721827172
 20
106.3224682411572
 30
0.0
 10
219.1886448395146
 20
106.5413330274228
 30
0.0
 10
218.9756441036568
 20
106.6232983344016
 30
0.0
 10
218.5553727207237
 20
106.8060268642898
 30
0.0
 10
218.3476875670822
 20
106.9071300525452
 30
0.0
 10
217.7458261144982
 20
107.2334676725814
 30
0.0
 10
217.3685112912871
 20
107.4830473273017
 30
0.0
 10
216.8395026608008
 20
107.9081184747253
 30
0.0
 10
216.6693703996414
 20
108.058319211317
 30
0.0
 10
216.3423260705423
 20
108.3770794051224
 30
0.0
 10
216.1852079408148
 20
108.5461079959937
 30
0.0
 10
215.7456314314205
 20
109.0707909110239
 30
0.0
 10
215.4907363218838
 20
109.447170406631
 30
0.0
 10
215.1715804992044
 20
110.0565944578205
 30
0.0
 10
215.0755355151168
 20
110.2684377464718
 30
0.0
 10
214.9110835937323
 20
110.6967458768369
 30
0.0
 10
214.8419521696736
 20
110.9143159803344
 30
0.0
 10
214.730193736676
 20
111.3564029769733
 30
0.0
 10
214.6875630157462
 20
111.5809188673282
 30
0.0
 10
214.6300316043516
 20
112.0372394226357
 30
0.0
 10
214.6152413352721
 20
112.2708735163721
 30
0.0
 10
214.6152413352721
 20
112.5019515599947
 30
0.0
  0
SPLINE
  5
B4
330
1F
100
AcDbEntity
  8
0
  6
Continuous
 62
     7
370
    15
100
AcDbSpline
210
0.0
220
0.0
230
1.0
 70
     8
 71
     3
 72
    44
 73
    40
 74
     0
 42
0.000000001
 43
0.00000001
 40
0.0
 40
0.0
 40
0.0
 40
0.0
 40
0.062500000000001
 40
0.062500000000001
 40
0.0937500000000013
 40
0.0937500000000013
 40
0.1250000000000016
 40
0.1250000000000016
 40
0.1875000000000014
 40
0.1875000000000014
 40
0.2500000000000011
 40
0.2500000000000011
 40
0.3125000000000009
 40
0.3125000000000009
 40
0.3750000000000006
 40
0.3750000000000006
 40
0.4375000000000003
 40
0.4375000000000003
 40
0.5
 40
0.5
 40
0.5624999999999997
 40
0.5624999999999997
 40
0.6249999999999994
 40
0.6249999999999994
 40
0.6874999999999991
 40
0.6874999999999991
 40
0.7499999999999988
 40
0.7499999999999988
 40
0.8124999999999987
 40
0.8124999999999987
 40
0.8437499999999986
 40
0.8437499999999986
 40
0.8749999999999983
 40
0.8749999999999983
 40
0.937499999999999
 40
0.937499999999999
 40
0.9687499999999994
 40
0.9687499999999994
 40
1.0
 40
1.0
 40
1.0
 40
1.0
 10
214.6152413352721
 20
112.5019515599947
 30
0.0
 10
214.6152413352721
 20
112.9646054517779
 30
0.0
 10
214.672697931179
 20
113.4199711768156
 30
0.0
 10
214.8426602237933
 20
114.0924333089032
 30
0.0
 10
214.9135657841275
 20
114.3145075300033
 30
0.0
 10
215.0789647781918
 20
114.743478931897
 30
0.0
 10
215.1738068805168
 20
114.951947217591
 30
0.0
 10
215.4930078099932
 20
115.5602830963446
 30
0.0
 10
215.7544232867371
 20
115.9451676964066
 30
0.0
 10
216.3420790876233
 20
116.6434248816631
 30
0.0
 10
216.6707722926038
 20
116.9616789879752
 30
0.0
 10
217.3898194619362
 20
117.5364436399425
 30
0.0
 10
217.7709255553164
 20
117.7857390053647
 30
0.0
 10
218.569779557449
 20
118.2153982740196
 30
0.0
 10
218.9880264054278
 20
118.3960174508911
 30
0.0
 10
219.8627965098741
 20
118.6891639637393
 30
0.0
 10
220.3076683480033
 20
118.7977147797149
 30
0.0
 10
221.2098148454261
 20
118.9427045030291
 30
0.0
 10
221.6689934225237
 20
118.9792159143253
 30
0.0
 10
222.594335394774
 20
118.9774438884075
 30
0.0
 10
223.0507378593232
 20
118.9394378320053
 30
0.0
 10
223.9514513280719
 20
118.791440793532
 30
0.0
 10
224.3974267926239
 20
118.6809081258812
 30
0.0
 10
225.269564734495
 20
118.3851072664254
 30
0.0
 10
225.6865234392122
 20
118.2032871561686
 30
0.0
 10
226.4827891846261
 20
117.7713547997266
 30
0.0
 10
226.863768031062
 20
117.5200120884418
 30
0.0
 10
227.5771845458171
 20
116.9455549914515
 30
0.0
 10
227.9010449083488
 20
116.6298100254572
 30
0.0
 10
228.3359087538315
 20
116.110960771067
 30
0.0
 10
228.472311389441
 20
115.9304165450247
 30
0.0
 10
228.7268134280085
 20
115.5529107785969
 30
0.0
 10
228.8456198333334
 20
115.3545389613447
 30
0.0
 10
229.1658046559003
 20
114.7432389495418
 30
0.0
 10
229.3308643386142
 20
114.3170264312815
 30
0.0
 10
229.5004363417985
 20
113.6472512661593
 30
0.0
 10
229.5438648523442
 20
113.4174894696905
 30
0.0
 10
229.6010319764338
 20
112.9599999552495
 30
0.0
 10
229.6152413352722
 20
112.7310682481017
 30
0.0
 10
229.6152413352721
 20
112.5019515599947
 30
0.0
  0
LINE
  5
B5
330
1F
100
AcDbEntity
  8
0
  6
Continuous
 62
     7
370
    15
100
AcDbLine
 10
234.2652431711
 20
91.5019518431
 30
0.0
 11
234.2652431711
 21
133.5019512769
 31
0.0
  0
LINE
  5
B6
330
1F
100
AcDbEntity
  8
0
  6
Continuous
 62
     7
370
    15
100
AcDbLine
 10
234.6652424916
 20
91.9019511636
 30
0.0
 11
234.6652424916
 21
133.1019519564
 31
0.0
  0
SPLINE
  5
B7
330
1F
100
AcDbEntity
  8
0
  6
Continuous
 62
     7
370
    15
100
AcDbSpline
210
0.0
220
0.0
230
1.0
 70
     8
 71
     3
 72
     8
 73
     4
 74
     0
 42
0.000000001
 43
0.00000001
 40
0.0
 40
0.0
 40
0.0
 40
0.0
 40
0.0012409313617635
 40
0.0012409313617635
 40
0.0012409313617635
 40
0.0012409313617635
 10
143.7012866489761
 20
142.2144897162592
 30
0.0
 10
143.5160628094201
 20
142.4760172597363
 30
0.0
 10
143.3300776214476
 20
142.7372757615117
 30
0.0
 10
143.1434046932154
 20
142.9982876392102
 30
0.0
  0
SPLINE
  5
B8
330
1F
100
AcDbEntity
  8
0
  6
Continuous
 62
     7
370
    15
100
AcDbSpline
210
0.0
220
0.0
230
1.0
 70
     8
 71
     3
 72
     8
 73
     4
 74
     0
 42
0.000000001
 43
0.00000001
 40
0.0
 40
0.0
 40
0.0
 40
0.0
 40
1.0
 40
1.0
 40
1.0
 40
1.0
 10
144.7552413352721
 20
140.3187780194962
 30
0.0
 10
144.4045890949446
 20
140.9510464285465
 30
0.0
 10
144.0532306718844
 20
141.5829283282453
 30
0.0
 10
143.7012866489761
 20
142.2144897162592
 30
0.0
  0
SPLINE
  5
B9
330
1F
100
AcDbEntity
  8
0
  6
Continuous
 62
     7
370
    15
100
AcDbSpline
210
0.0
220
0.0
230
1.0
 70
     8
 71
     3
 72
     8
 73
     4
 74
     0
 42
0.000000001
 43
0.00000001
 40
0.0
 40
0.0
 40
0.0
 40
0.0
 40
1.0
 40
1.0
 40
1.0
 40
1.0
 10
143.1434046932154
 20
138.4121812000423
 30
0.0
 10
143.6923494714123
 20
137.2470850877286
 30
0.0
 10
144.230959845929
 20
136.0779267709041
 30
0.0
 10
144.7552413352721
 20
134.9040906158532
 30
0.0
  0
LINE
  5
BA
330
1F
100
AcDbEntity
  8
0
  6
Continuous
 62
     7
370
    15
100
AcDbLine
 10
143.143404743
 20
138.4121819135
 30
0.0
 11
143.143404743
 21
142.9982880797
 31
0.0
  0
LINE
  5
BB
330
1F
100
AcDbEntity
  8
0
  6
Continuous
 62
     7
370
    15
100
AcDbLine
 10
144.7552409976
 20
134.9040909406
 30
0.0
 11
144.7552409976
 21
140.3187780376
 31
0.0
  0
LINE
  5
BC
330
1F
100
AcDbEntity
  8
0
  6
Continuous
 62
     7
370
    15
100
AcDbLine
 10
154.0152407273
 20
142.9982880797
 30
0.0
 11
150.1870783999
 21
142.9982880797
 31
0.0
  0
LINE
  5
BD
330
1F
100
AcDbEntity
  8
0
  6
Continuous
 62
     7
370
    15
100
AcDbLine
 10
150.1870783999
 20
138.4121819135
 30
0.0
 11
154.0152407273
 21
138.4121819135
 31
0.0
  0
LINE
  5
BE
330
1F
100
AcDbEntity
  8
0
  6
Continuous
 62
     7
370
    15
100
AcDbLine
 10
150.1870783999
 20
138.4121819135
 30
0.0
 11
150.1870783999
 21
142.9982880797
 31
0.0
  0
LINE
  5
BF
330
1F
100
AcDbEntity
  8
0
  6
Continuous
 62
     7
370
    15
100
AcDbLine
 10
147.7752416416
 20
139.3198097791
 30
0.0
 11
145.5552415013
 21
139.3198097791
 31
0.0
  0
LINE
  5
C0
330
1F
100
AcDbEntity
  8
0
  6
Continuous
 62
     7
370
    15
100
AcDbLine
 10
145.5552415013
 20
133.650888383
 30
0.0
 11
147.7752416416
 21
133.650888383
 31
0.0
  0
SPLINE
  5
C1
330
1F
100
AcDbEntity
  8
0
  6
Continuous
 62
     7
370
    15
100
AcDbSpline
210
0.0
220
0.0
230
1.0
 70
     8
 71
     3
 72
    12
 73
     8
 74
     0
 42
0.000000001
 43
0.00000001
 40
0.0
 40
0.0
 40
0.0
 40
0.0
 40
0.5
 40
0.5
 40
0.75
 40
0.75
 40
1.0
 40
1.0
 40
1.0
 40
1.0
 10
138.7652413352721
 20
137.6733639160783
 30
0.0
 10
138.7652413352721
 20
137.8481240914125
 30
0.0
 10
138.8151615365904
 20
138.0258291951978
 30
0.0
 10
138.9705034345022
 20
138.238585937043
 30
0.0
 10
139.0363541330265
 20
138.3003793097681
 30
0.0
 10
139.1888002008649
 20
138.3871858974491
 30
0.0
 10
139.2778103009845
 20
138.4121812000424
 30
0.0
 10
139.3652413352721
 20
138.4121812000424
 30
0.0
  0
LINE
  5
C2
330
1F
100
AcDbEntity
  8
0
  6
Continuous
 62
     7
370
    15
100
AcDbLine
 10
139.3652413993
 20
138.4121819135
 30
0.0
 11
143.143404743
 21
138.4121819135
 31
0.0
  0
SPLINE
  5
C3
330
1F
100
AcDbEntity
  8
0
  6
Continuous
 62
     7
370
    15
100
AcDbSpline
210
0.0
220
0.0
230
1.0
 70
     8
 71
     3
 72
    14
 73
    10
 74
     0
 42
0.000000001
 43
0.00000001
 40
0.0
 40
0.0
 40
0.0
 40
0.0
 40
0.25
 40
0.25
 40
0.5
 40
0.5
 40
0.75
 40
0.75
 40
1.0
 40
1.0
 40
1.0
 40
1.0
 10
144.7552413352721
 20
134.69919237952
 30
0.0
 10
144.7552413352721
 20
134.5783003214315
 30
0.0
 10
144.7717368076653
 20
134.4558350463436
 30
0.0
 10
144.8369688743872
 20
134.2240139027918
 30
0.0
 10
144.8865867088059
 20
134.1110400274844
 30
0.0
 10
145.0212275448097
 20
133.9093345576089
 30
0.0
 10
145.1075494099574
 20
133.8192027105309
 30
0.0
 10
145.3127370630593
 20
133.6895818321501
 30
0.0
 10
145.4327050856743
 20
133.6508877034512
 30
0.0
 10
145.5552413352721
 20
133.6508877034512
 30
0.0
  0
SPLINE
  5
C4
330
1F
100
AcDbEntity
  8
0
  6
Continuous
 62
     7
370
    15
100
AcDbSpline
210
0.0
220
0.0
230
1.0
 70
     8
 71
     3
 72
    12
 73
     8
 74
     0
 42
0.000000001
 43
0.00000001
 40
0.0
 40
0.0
 40
0.0
 40
0.0
 40
0.2500000000000015
 40
0.2500000000000015
 40
0.500000000000003
 40
0.500000000000003
 40
1.0
 40
1.0
 40
1.0
 40
1.0
 10
147.7752413352721
 20
133.6508877034512
 30
0.0
 10
147.8973233327604
 20
133.6508877034512
 30
0.0
 10
148.0179138752461
 20
133.6896140596249
 30
0.0
 10
148.2234091589459
 20
133.8195776473711
 30
0.0
 10
148.3089256418984
 20
133.9087838839179
 30
0.0
 10
148.5123199934426
 20
134.2136604214635
 30
0.0
 10
148.5752413352721
 20
134.4564310355656
 30
0.0
 10
148.5752413352721
 20
134.69919237952
 30
0.0
  0
SPLINE
  5
C5
330
1F
100
AcDbEntity
  8
0
  6
Continuous
 62
     7
370
    15
100
AcDbSpline
210
0.0
220
0.0
230
1.0
 70
     8
 71
     3
 72
     8
 73
     4
 74
     0
 42
0.000000001
 43
0.00000001
 40
0.0
 40
0.0
 40
0.0
 40
0.0
 40
1.0
 40
1.0
 40
1.0
 40
1.0
 10
148.5752413352722
 20
134.9040906158532
 30
0.0
 10
149.100032454768
 20
136.0790678035579
 30
0.0
 10
149.6385487059509
 20
137.2479669712961
 30
0.0
 10
150.1870779773288
 20
138.4121812000423
 30
0.0
  0
SPLINE
  5
C6
330
1F
100
AcDbEntity
  8
0
  6
Continuous
 62
     7
370
    15
100
AcDbSpline
210
0.0
220
0.0
230
1.0
 70
     8
 71
     3
 72
    14
 73
    10
 74
     0
 42
0.000000001
 43
0.00000001
 40
0.0
 40
0.0
 40
0.0
 40
0.0
 40
0.25
 40
0.25
 40
0.5
 40
0.5
 40
0.75
 40
0.75
 40
1.0
 40
1.0
 40
1.0
 40
1.0
 10
154.0152413352721
 20
138.4121812000423
 30
0.0
 10
154.1036638733946
 20
138.4121812000423
 30
0.0
 10
154.1917178630876
 20
138.3871088495829
 30
0.0
 10
154.343547626959
 20
138.3007667846115
 30
0.0
 10
154.4093905715228
 20
138.2392235300987
 30
0.0
 10
154.5131896320683
 20
138.0973957838478
 30
0.0
 10
154.551661741543
 20
138.0173471938777
 30
0.0
 10
154.6028844048176
 20
137.848334697204
 30
0.0
 10
154.6152413352721
 20
137.7615553903344
 30
0.0
 10
154.6152413352721
 20
137.6733639160783
 30
0.0
  0
LINE
  5
C7
330
1F
100
AcDbEntity
  8
0
  6
Continuous
 62
     7
370
    15
100
AcDbLine
 10
144.7552409976
 20
134.9040909406
 30
0.0
 11
144.7552409976
 21
134.6991925236
 31
0.0
  0
LINE
  5
C8
330
1F
100
AcDbEntity
  8
0
  6
Continuous
 62
     7
370
    15
100
AcDbLine
 10
148.575241214
 20
134.6991925236
 30
0.0
 11
148.575241214
 21
134.9040909406
 31
0.0
  0
LINE
  5
C9
330
1F
100
AcDbEntity
  8
0
  6
Continuous
 62
     7
370
    15
100
AcDbLine
 10
138.7652412544
 20
137.673363715
 30
0.0
 11
138.7652412544
 21
130.8519511219
 31
0.0
  0
LINE
  5
CA
330
1F
100
AcDbEntity
  8
0
  6
Continuous
 62
     7
370
    15
100
AcDbLine
 10
154.6152415707
 20
137.673363715
 30
0.0
 11
154.6152415707
 21
130.8519511219
 31
0.0
  0
SPLINE
  5
CB
330
1F
100
AcDbEntity
  8
0
  6
Continuous
 62
     7
370
    15
100
AcDbSpline
210
0.0
220
0.0
230
1.0
 70
     8
 71
     3
 72
    12
 73
     8
 74
     0
 42
0.000000001
 43
0.00000001
 40
0.0
 40
0.0
 40
0.0
 40
0.0
 40
0.5
 40
0.5
 40
0.75
 40
0.75
 40
1.0
 40
1.0
 40
1.0
 40
1.0
 10
148.5752413352722
 20
140.1540310478017
 30
0.0
 10
148.5752413352722
 20
139.9408936461502
 30
0.0
 10
148.4925989201242
 20
139.7259141214126
 30
0.0
 10
148.2740155093138
 20
139.4929950525268
 30
0.0
 10
148.1849255563331
 20
139.4291281427063
 30
0.0
 10
147.9895202384356
 20
139.3427419883245
 30
0.0
 10
147.8829961914922
 20
139.3198094162814
 30
0.0
 10
147.7752413352721
 20
139.3198094162814
 30
0.0
  0
SPLINE
  5
CC
330
1F
100
AcDbEntity
  8
0
  6
Continuous
 62
     7
370
    15
100
AcDbSpline
210
0.0
220
0.0
230
1.0
 70
     8
 71
     3
 72
    12
 73
     8
 74
     0
 42
0.000000001
 43
0.00000001
 40
0.0
 40
0.0
 40
0.0
 40
0.0
 40
0.5000000000000029
 40
0.5000000000000029
 40
0.7500000000000014
 40
0.7500000000000014
 40
1.0
 40
1.0
 40
1.0
 40
1.0
 10
154.6152413352721
 20
142.5125026934359
 30
0.0
 10
154.6152413352721
 20
142.632829726489
 30
0.0
 10
154.5614465236791
 20
142.7509272999708
 30
0.0
 10
154.4005229537129
 20
142.8905700424098
 30
0.0
 10
154.3357714926103
 20
142.9288459958042
 30
0.0
 10
154.1835513092927
 20
142.9836858254387
 30
0.0
 10
154.1007437937676
 20
142.9982876392102
 30
0.0
 10
154.0152413352721
 20
142.9982876392102
 30
0.0
  0
LINE
  5
CD
330
1F
100
AcDbEntity
  8
0
  6
Continuous
 62
     7
370
    15
100
AcDbLine
 10
154.6152415707
 20
137.673363715
 30
0.0
 11
154.6152415707
 21
142.5125027742
 31
0.0
  0
SPLINE
  5
CE
330
1F
100
AcDbEntity
  8
0
  6
Continuous
 62
     7
370
    15
100
AcDbSpline
210
0.0
220
0.0
230
1.0
 70
     8
 71
     3
 72
     8
 73
     4
 74
     0
 42
0.000000001
 43
0.00000001
 40
0.0
 40
0.0
 40
0.0
 40
0.0
 40
1.0
 40
1.0
 40
1.0
 40
1.0
 10
149.6291960215681
 20
142.2144897162592
 30
0.0
 10
149.2772519986599
 20
141.5829283282453
 30
0.0
 10
148.9258935755997
 20
140.9510464285465
 30
0.0
 10
148.5752413352722
 20
140.3187780194962
 30
0.0
  0
SPLINE
  5
CF
330
1F
100
AcDbEntity
  8
0
  6
Continuous
 62
     7
370
    15
100
AcDbSpline
210
0.0
220
0.0
230
1.0
 70
     8
 71
     3
 72
     8
 73
     4
 74
     0
 42
0.000000001
 43
0.00000001
 40
0.0
 40
0.0
 40
0.0
 40
0.0
 40
0.0012409313617635
 40
0.0012409313617635
 40
0.0012409313617635
 40
0.0012409313617635
 10
150.1870779773288
 20
142.9982876392102
 30
0.0
 10
150.0004050490967
 20
142.7372757615117
 30
0.0
 10
149.8144198611241
 20
142.4760172597363
 30
0.0
 10
149.6291960215681
 20
142.2144897162592
 30
0.0
  0
LINE
  5
D0
330
1F
100
AcDbEntity
  8
0
  6
Continuous
 62
     7
370
    15
100
AcDbLine
 10
148.575241214
 20
134.9040909406
 30
0.0
 11
148.575241214
 21
140.3187780376
 31
0.0
  0
SPLINE
  5
D1
330
1F
100
AcDbEntity
  8
0
  6
Continuous
 62
     7
370
    15
100
AcDbSpline
210
0.0
220
0.0
230
1.0
 70
     8
 71
     3
 72
    12
 73
     8
 74
     0
 42
0.000000001
 43
0.00000001
 40
0.0
 40
0.0
 40
0.0
 40
0.0
 40
0.25
 40
0.25
 40
0.5
 40
0.5
 40
1.0
 40
1.0
 40
1.0
 40
1.0
 10
145.5552413352721
 20
139.3198094162814
 30
0.0
 10
145.4487631227941
 20
139.3198094162814
 30
0.0
 10
145.3417571743355
 20
139.3424586138909
 30
0.0
 10
145.1455905552433
 20
139.4290456744632
 30
0.0
 10
145.0571218696884
 20
139.4922901228499
 30
0.0
 10
144.8364962562055
 20
139.7274071825831
 30
0.0
 10
144.7552413352721
 20
139.9411750146752
 30
0.0
 10
144.7552413352721
 20
140.1540310478017
 30
0.0
  0
SPLINE
  5
D2
330
1F
100
AcDbEntity
  8
0
  6
Continuous
 62
     7
370
    15
100
AcDbSpline
210
0.0
220
0.0
230
1.0
 70
     8
 71
     3
 72
    10
 73
     6
 74
     0
 42
0.000000001
 43
0.00000001
 40
0.0
 40
0.0
 40
0.0
 40
0.0
 40
0.5
 40
0.5
 40
1.0
 40
1.0
 40
1.0
 40
1.0
 10
139.0524829365797
 20
142.9272481149517
 30
0.0
 10
138.9766433425762
 20
142.857198928623
 30
0.0
 10
138.9093198248502
 20
142.7719801550493
 30
0.0
 10
138.8026761865451
 20
142.5617540283875
 30
0.0
 10
138.7652413352721
 20
142.4382448375202
 30
0.0
 10
138.7652413352721
 20
142.3083267169976
 30
0.0
  0
SPLINE
  5
D3
330
1F
100
AcDbEntity
  8
0
  6
Continuous
 62
     7
370
    15
100
AcDbSpline
210
0.0
220
0.0
230
1.0
 70
     8
 71
     3
 72
     8
 73
     4
 74
     0
 42
0.000000001
 43
0.00000001
 40
0.0
 40
0.0
 40
0.0
 40
0.0
 40
1.0
 40
1.0
 40
1.0
 40
1.0
 10
139.3652413352721
 20
142.9982876392102
 30
0.0
 10
139.2530630810924
 20
142.9982876392102
 30
0.0
 10
139.144393568364
 20
142.9726065739493
 30
0.0
 10
139.0524829365797
 20
142.9272481149517
 30
0.0
  0
LINE
  5
D4
330
1F
100
AcDbEntity
  8
0
  6
Continuous
 62
     7
370
    15
100
AcDbLine
 10
138.7652412544
 20
137.673363715
 30
0.0
 11
138.7652412544
 21
142.3083270635
 31
0.0
  0
LINE
  5
D5
330
1F
100
AcDbEntity
  8
0
  6
Continuous
 62
     7
370
    15
100
AcDbLine
 10
143.143404743
 20
142.9982880797
 30
0.0
 11
139.3652413993
 21
142.9982880797
 31
0.0
  0
LINE
  5
D6
330
1F
100
AcDbEntity
  8
0
  6
Continuous
 62
     7
370
    15
100
AcDbLine
 10
67.3152408584
 20
101.0948211621
 30
0.0
 11
67.3152408584
 21
123.9090819579
 31
0.0
  0
SPLINE
  5
D7
330
1F
100
AcDbEntity
  8
0
  6
Continuous
 62
     7
370
    15
100
AcDbSpline
210
0.0
220
0.0
230
1.0
 70
     8
 71
     3
 72
    11
 73
     7
 74
     0
 42
0.000000001
 43
0.00000001
 40
0.0
 40
0.0
 40
0.0
 40
0.0
 40
0.1336649366891685
 40
0.4825478670216067
 40
0.8156356005407792
 40
0.9999999999999999
 40
0.9999999999999999
 40
0.9999999999999999
 40
0.9999999999999999
 10
219.1250375493758
 20
114.250859405462
 30
0.0
 10
219.2511231454143
 20
114.3227117694061
 30
0.0
 10
219.7063086034525
 20
114.5821081812139
 30
0.0
 10
220.5566494540732
 20
115.066690769743
 30
0.0
 10
221.4699044293615
 20
115.5871304262133
 30
0.0
 10
221.9600880174691
 20
115.8664713157316
 30
0.0
 10
222.1347368344062
 20
115.9659984256964
 30
0.0
  0
SPLINE
  5
D8
330
1F
100
AcDbEntity
  8
0
  6
Continuous
 62
     7
370
    15
100
AcDbSpline
210
0.0
220
0.0
230
1.0
 70
     8
 71
     3
 72
    11
 73
     7
 74
     0
 42
0.000000001
 43
0.00000001
 40
0.0
 40
0.0
 40
0.0
 40
0.0
 40
0.216455341250181
 40
0.4403112887483447
 40
0.7519006036860998
 40
0.9999999999999999
 40
0.9999999999999999
 40
0.9999999999999999
 40
0.9999999999999999
 10
219.1055393799537
 20
110.7868126561757
 30
0.0
 10
219.1068774007894
 20
111.0241031907952
 30
0.0
 10
219.1095991893816
 20
111.5067972213635
 30
0.0
 10
219.1146283216831
 20
112.4025483093044
 30
0.0
 10
219.1200477067846
 20
113.3634018708296
 30
0.0
 10
219.1235049978032
 20
113.9782907992466
 30
0.0
 10
219.1250375493758
 20
114.250859405462
 30
0.0
  0
SPLINE
  5
D9
330
1F
100
AcDbEntity
  8
0
  6
Continuous
 62
     7
370
    15
100
AcDbSpline
210
0.0
220
0.0
230
1.0
 70
     8
 71
     3
 72
    11
 73
     7
 74
     0
 42
0.000000001
 43
0.00000001
 40
0.0
 40
0.0
 40
0.0
 40
0.0
 40
0.2164566021115422
 40
0.4403121238900047
 40
0.7519002271521823
 40
1.0
 40
1.0
 40
1.0
 40
1.0
 10
222.0957479461425
 20
109.037904694293
 30
0.0
 10
221.8909137314448
 20
109.157706402714
 30
0.0
 10
221.474243658834
 20
109.401404881605
 30
0.0
 10
220.7010220076694
 20
109.8536476473253
 30
0.0
 10
219.8716043454467
 20
110.3387597323172
 30
0.0
 10
219.3408246608944
 20
110.6491999695042
 30
0.0
 10
219.1055393799537
 20
110.7868126561757
 30
0.0
  0
SPLINE
  5
DA
330
1F
100
AcDbEntity
  8
0
  6
Continuous
 62
     7
370
    15
100
AcDbSpline
210
0.0
220
0.0
230
1.0
 70
     8
 71
     3
 72
    11
 73
     7
 74
     0
 42
0.000000001
 43
0.00000001
 40
0.0
 40
0.0
 40
0.0
 40
0.0
 40
0.1843643967400721
 40
0.5174538636227848
 40
0.8663350652822253
 40
1.0
 40
1.0
 40
1.0
 40
1.0
 10
225.1054472311728
 20
110.7530437145274
 30
0.0
 10
224.9307985298945
 20
110.6535164095691
 30
0.0
 10
224.4406136197322
 20
110.3741740343748
 30
0.0
 10
223.5273542852177
 20
109.8537409906909
 30
0.0
 10
222.6770176796282
 20
109.3691520428247
 30
0.0
 10
222.2218336083844
 20
109.1097569496221
 30
0.0
 10
222.0957479461425
 20
109.037904694293
 30
0.0
  0
SPLINE
  5
DB
330
1F
100
AcDbEntity
  8
0
  6
Continuous
 62
     7
370
    15
100
AcDbSpline
210
0.0
220
0.0
230
1.0
 70
     8
 71
     3
 72
    11
 73
     7
 74
     0
 42
0.000000001
 43
0.00000001
 40
0.0
 40
0.0
 40
0.0
 40
0.0
 40
0.2164553412840296
 40
0.4403113002079941
 40
0.7519006036473027
 40
0.9999999999999999
 40
0.9999999999999999
 40
0.9999999999999999
 40
0.9999999999999999
 10
225.124945400595
 20
114.2170904638137
 30
0.0
 10
225.1236082795963
 20
113.9797999242142
 30
0.0
 10
225.1208883213732
 20
113.4971058710283
 30
0.0
 10
225.1158432396402
 20
112.6013548696949
 30
0.0
 10
225.1104399507877
 20
111.6405012203785
 30
0.0
 10
225.1069806663999
 20
111.0256123157994
 30
0.0
 10
225.1054472311728
 20
110.7530437145274
 30
0.0
  0
CIRCLE
  5
DC
330
1F
100
AcDbEntity
  8
0
  6
Continuous
 62
     7
370
    15
100
AcDbCircle
 10
222.1152413353
 20
112.50195156
 30
0.0
 40
3.500000000000018
  0
SPLINE
  5
DD
330
1F
100
AcDbEntity
  8
0
  6
Continuous
 62
     7
370
    15
100
AcDbSpline
210
0.0
220
0.0
230
1.0
 70
     8
 71
     3
 72
    11
 73
     7
 74
     0
 42
0.000000001
 43
0.00000001
 40
0.0
 40
0.0
 40
0.0
 40
0.0
 40
0.2164549287498822
 40
0.4403104226894038
 40
0.7519002580061677
 40
1.0
 40
1.0
 40
1.0
 40
1.0
 10
222.1347368344062
 20
115.9659984256964
 30
0.0
 10
222.3395683971076
 20
115.846196513406
 30
0.0
 10
222.7562346863627
 20
115.6024966773976
 30
0.0
 10
223.5294569444816
 20
115.1502538709179
 30
0.0
 10
224.3588791913556
 20
114.6651452056627
 30
0.0
 10
224.8896602534404
 20
114.3547034071831
 30
0.0
 10
225.124945400595
 20
114.2170904638137
 30
0.0
  0
CIRCLE
  5
DE
330
1F
100
AcDbEntity
  8
0
  6
Continuous
 62
     7
370
    15
100
AcDbCircle
 10
222.1152413353
 20
112.50195156
 30
0.0
 40
5.500000000000013
  0
CIRCLE
  5
DF
330
1F
100
AcDbEntity
  8
0
  6
Continuous
 62
     7
370
    15
100
AcDbCircle
 10
222.1152413353
 20
112.50195156
 30
0.0
 40
6.000000000000026
  0
ARC
  5
E0
330
1F
100
AcDbEntity
  8
0
  6
Continuous
 62
     7
370
    15
100
AcDbCircle
 10
222.1152413353
 20
112.50195156
 30
0.0
 40
3.0
100
AcDbArc
 50
239.6775296771
 51
299.6775296771
  0
ARC
  5
E1
330
1F
100
AcDbEntity
  8
0
  6
Continuous
 62
     7
370
    15
100
AcDbCircle
 10
222.1152413353
 20
112.50195156
 30
0.0
 40
2.999999999999998
100
AcDbArc
 50
359.6775296771
 51
59.6775296771
  0
ARC
  5
E2
330
1F
100
AcDbEntity
  8
0
  6
Continuous
 62
     7
370
    15
100
AcDbCircle
 10
222.1152413353
 20
112.50195156
 30
0.0
 40
3.000000000000043
100
AcDbArc
 50
179.6775296771
 51
239.6775296771
  0
ARC
  5
E3
330
1F
100
AcDbEntity
  8
0
  6
Continuous
 62
     7
370
    15
100
AcDbCircle
 10
222.1152413353
 20
112.50195156
 30
0.0
 40
3.000000000000043
100
AcDbArc
 50
119.6775296771
 51
179.6775296771
  0
ARC
  5
E4
330
1F
100
AcDbEntity
  8
0
  6
Continuous
 62
     7
370
    15
100
AcDbCircle
 10
222.1152413353
 20
112.50195156
 30
0.0
 40
3.00000000000002
100
AcDbArc
 50
59.6775296771
 51
119.6775296771
  0
ARC
  5
E5
330
1F
100
AcDbEntity
  8
0
  6
Continuous
 62
     7
370
    15
100
AcDbCircle
 10
222.1152413353
 20
112.50195156
 30
0.0
 40
2.999999999999986
100
AcDbArc
 50
299.6775296771
 51
359.6775296771
  0
ARC
  5
E6
330
1F
100
AcDbEntity
  8
0
  6
Continuous
 62
     7
370
    15
100
AcDbCircle
 10
148.4578773002
 20
103.2730123886
 30
0.0
 40
1.895693621063964
100
AcDbArc
 50
185.5744164986
 51
252.2897597772
  0
ARC
  5
E7
330
1F
100
AcDbEntity
  8
0
  6
Continuous
 62
     7
370
    15
100
AcDbCircle
 10
148.568587398
 20
103.3946566088
 30
0.0
 40
2.046396555096218
100
AcDbArc
 50
250.3726710173
 51
331.9117239273
  0
ARC
  5
E8
330
1F
100
AcDbEntity
  8
0
  6
Continuous
 62
     7
370
    15
100
AcDbCircle
 10
148.4285872924
 20
103.2024528867
 30
0.0
 40
1.757771930600309
100
AcDbArc
 50
161.2892351507
 51
253.0251659732
  0
ARC
  5
E9
330
1F
100
AcDbEntity
  8
0
  6
Continuous
 62
     7
370
    15
100
AcDbCircle
 10
148.570008944
 20
103.342789813
 30
0.0
 40
1.935581019847027
100
AcDbArc
 50
250.2329881711
 51
335.318847275
  0
ARC
  5
EA
330
1F
100
AcDbEntity
  8
0
  6
Continuous
 62
     7
370
    15
100
AcDbCircle
 10
148.4848762783
 20
103.2080956459
 30
0.0
 40
1.402053918832105
100
AcDbArc
 50
87.2165364466
 51
252.0255042121
  0
ARC
  5
EB
330
1F
100
AcDbEntity
  8
0
  6
Continuous
 62
     7
370
    15
100
AcDbCircle
 10
148.573461444
 20
103.2848916419
 30
0.0
 40
1.503658766943837
100
AcDbArc
 50
249.7171755107
 51
349.3882944071
  0
SPLINE
  5
EC
330
1F
100
AcDbEntity
  8
0
  6
HIDDEN
 62
     7
370
     0
100
AcDbSpline
210
0.0
220
0.0
230
1.0
 70
     8
 71
     3
 72
     9
 73
     5
 74
     0
 42
0.000000001
 43
0.00000001
 40
0.0
 40
0.0
 40
0.0
 40
0.0
 40
0.9333113421934416
 40
1.0
 40
1.0
 40
1.0
 40
1.0
 10
146.5893504231565
 20
104.7554124813418
 30
0.0
 10
146.5747746046078
 20
104.6544423932822
 30
0.0
 10
146.5591572881885
 20
104.5462576070324
 30
0.0
 10
146.5661871430716
 20
104.4537751100575
 30
0.0
 10
146.5666559546583
 20
104.4476075764637
 30
0.0
  0
LWPOLYLINE
  5
ED
330
1F
100
AcDbEntity
  8
0
  6
HIDDEN
 62
     7
370
     0
100
AcDbPolyline
 90
       20
 70
   128
 43
0.0
 10
146.5893504232
 20
104.1735435571
 10
146.7818883269
 20
103.6137311455
 10
147.1491851866
 20
103.1372860741
 10
147.6552472472
 20
102.7908992689
 10
148.2504834443
 20
102.6085137125
 10
148.8765650451
 20
102.6080014851
 10
149.4721374496
 20
102.7894147407
 10
149.9788402601
 20
103.1349745314
 10
150.3470172196
 20
103.6108188998
 10
150.5405907541
 20
104.1703165244
 10
150.5405907541
 20
104.7586399797
 10
150.3470172196
 20
105.31813807
 10
149.9788402601
 20
105.7939819727
 10
149.4721374496
 20
106.1395417634
 10
148.8765650451
 20
106.3209545534
 10
148.2504834443
 20
106.3204432573
 10
147.6552472472
 20
106.1380572352
 10
147.1491851866
 20
105.7916699644
 10
146.7818883269
 20
105.3152253587
 10
146.5893504232
 20
104.7554124813
  0
LWPOLYLINE
  5
EE
330
1F
100
AcDbEntity
  8
0
  6
HIDDEN
 62
     7
370
     0
100
AcDbPolyline
 90
       21
 70
   128
 43
0.0
 10
139.0154529385
 20
103.6037669252
 10
139.1782967861
 20
102.9674407761
 10
139.4381911981
 20
102.3934024122
 10
139.7696957014
 20
101.9378431808
 10
140.1403606891
 20
101.6453566696
 10
140.5139025322
 20
101.5445717346
 10
140.8537565752
 20
101.6453566696
 10
141.12665551
 20
101.9378431808
 10
141.3058857455
 20
102.3934024122
 10
141.3739039584
 20
102.9674407761
 10
141.3240507267
 20
103.6037669252
 10
141.1612071119
 20
104.2400930744
 10
140.9013126999
 20
104.8141314383
 10
140.5698079638
 20
105.2696906697
 10
140.199142976
 20
105.5621776465
 10
139.8256011329
 20
105.6629616503
 10
139.4857470899
 20
105.5621776465
 10
139.2128481551
 20
105.2696906697
 10
139.0336176868
 20
104.8141314383
 10
138.9655999395
 20
104.2400930744
 10
139.0154529385
 20
103.6037669252
  0
LWPOLYLINE
  5
EF
330
1F
100
AcDbEntity
  8
0
  6
HIDDEN
 62
     7
370
     0
100
AcDbPolyline
 90
       19
 70
   128
 43
0.0
 10
139.3969687655
 20
103.6358975541
 10
139.5441484659
 20
103.0825298946
 10
139.7829670481
 20
102.5959063988
 10
140.0846201017
 20
102.2347218092
 10
140.4127241134
 20
102.0425387394
 10
140.7277039274
 20
102.0425387394
 10
140.9915694989
 20
102.2347218092
 10
141.1724938101
 20
102.5959063988
 10
141.248655042
 20
103.0825298946
 10
141.2108670942
 20
103.6358975541
 10
141.0636878594
 20
104.1892652135
 10
140.8248688116
 20
104.6758887093
 10
140.523215758
 20
105.0370737646
 10
140.1951117463
 20
105.2292563688
 10
139.8801319323
 20
105.2292563688
 10
139.6162663608
 20
105.0370737646
 10
139.4353422824
 20
104.6758887093
 10
139.3591810505
 20
104.1892652135
 10
139.3969687655
 20
103.6358975541
  0
ELLIPSE
  5
F0
330
1F
100
AcDbEntity
  8
0
  6
HIDDEN
 62
     7
370
     0
100
AcDbEllipse
 10
148.5652413353
 20
105.6143614994
 30
0.0
 11
1.383467579512114
 21
-1.091267719176599
 31
0.0
210
0.0
220
0.0
230
1.0
 40
0.8239737799
 41
2.147131942757438
 42
5.288724596347245
  0
ELLIPSE
  5
F1
330
1F
100
AcDbEntity
  8
0
  6
HIDDEN
 62
     7
370
     0
100
AcDbEllipse
 10
148.5652413353
 20
105.6143614994
 30
0.0
 11
1.383467579512114
 21
1.753907414218489
 31
0.0
210
0.0
220
0.0
230
1.0
 40
0.5126701559
 41
0.9944607108323609
 42
4.136053364422168
  0
SPLINE
  5
F2
330
1F
100
AcDbEntity
  8
0
  6
HIDDEN
 62
     7
370
     0
100
AcDbSpline
210
0.0
220
0.0
230
1.0
 70
     8
 71
     3
 72
    14
 73
    10
 74
     0
 42
0.000000001
 43
0.00000001
 40
0.0
 40
0.0
 40
0.0
 40
0.0
 40
0.25
 40
0.25
 40
0.5
 40
0.5
 40
0.75
 40
0.75
 40
1.0
 40
1.0
 40
1.0
 40
1.0
 10
146.5893505726317
 20
104.1735439931569
 30
0.0
 10
146.625714400662
 20
104.2190386285587
 30
0.0
 10
146.6581921278721
 20
104.267430434775
 30
0.0
 10
146.7069457572879
 20
104.3729155787045
 30
0.0
 10
146.7218495349624
 20
104.4295000869475
 30
0.0
 10
146.72185996862
 20
104.5383876808979
 30
0.0
 10
146.7069696728119
 20
104.5905723466605
 30
0.0
 10
146.6580807419343
 20
104.6818497456041
 30
0.0
 10
146.6257085636639
 20
104.7205164509783
 30
0.0
 10
146.5893505726317
 20
104.755412390526
 30
0.0
  0
LWPOLYLINE
  5
F3
330
1F
100
AcDbEntity
  8
0
  6
HIDDEN
 62
     7
370
     0
100
AcDbPolyline
 90
       19
 70
   128
 43
0.0
 10
148.5652416035
 20
102.957554787
 10
149.1295746549
 20
103.0510614362
 10
149.6258410647
 20
103.3203012045
 10
149.9941828682
 20
103.732801668
 10
150.1901741161
 20
104.2388078492
 10
150.1901741161
 20
104.7772883173
 10
149.9941828682
 20
105.2832944985
 10
149.6258410647
 20
105.6957944963
 10
149.1295746549
 20
105.9650347303
 10
148.5652416035
 20
106.0585409138
 10
148.000908552
 20
105.9650347303
 10
147.5046421423
 20
105.6957944963
 10
147.1362994074
 20
105.2832944985
 10
146.9403081595
 20
104.7772883173
 10
146.9403081595
 20
104.2388078492
 10
147.1362994074
 20
103.732801668
 10
147.5046421423
 20
103.3203012045
 10
148.000908552
 20
103.0510614362
 10
148.5652416035
 20
102.957554787
  0
SPLINE
  5
F4
330
1F
100
AcDbEntity
  8
0
  6
HIDDEN
 62
     7
370
     0
100
AcDbSpline
210
0.0
220
0.0
230
1.0
 70
    11
 71
     3
 72
    60
 73
    56
 74
     0
 42
0.000000001
 43
0.00000001
 40
0.0
 40
0.0
 40
0.0
 40
0.0
 40
0.0312500000000002
 40
0.0312500000000002
 40
0.0625000000000004
 40
0.0625000000000004
 40
0.1250000000000003
 40
0.1250000000000003
 40
0.1875000000000002
 40
0.1875000000000002
 40
0.2187500000000001
 40
0.2187500000000001
 40
0.2499999999999999
 40
0.2499999999999999
 40
0.2812499999999997
 40
0.2812499999999997
 40
0.3124999999999996
 40
0.3124999999999996
 40
0.3437499999999994
 40
0.3437499999999994
 40
0.3749999999999993
 40
0.3749999999999993
 40
0.4062499999999991
 40
0.4062499999999991
 40
0.4374999999999989
 40
0.4374999999999989
 40
0.4999999999999987
 40
0.4999999999999987
 40
0.5312499999999988
 40
0.5312499999999988
 40
0.5624999999999988
 40
0.5624999999999988
 40
0.5937499999999989
 40
0.5937499999999989
 40
0.6249999999999989
 40
0.6249999999999989
 40
0.656249999999999
 40
0.656249999999999
 40
0.6874999999999991
 40
0.6874999999999991
 40
0.7187499999999991
 40
0.7187499999999991
 40
0.7499999999999992
 40
0.7499999999999992
 40
0.8124999999999994
 40
0.8124999999999994
 40
0.8437499999999997
 40
0.8437499999999997
 40
0.8749999999999998
 40
0.8749999999999998
 40
0.90625
 40
0.90625
 40
0.9375000000000002
 40
0.9375000000000002
 40
1.0
 40
1.0
 40
1.0
 40
1.0
 10
148.5652413352721
 20
109.6118919694345
 30
0.0
 10
148.4550484243018
 20
109.6118919694345
 30
0.0
 10
148.3469392210144
 20
109.6205672385252
 30
0.0
 10
148.134634066528
 20
109.6545835360686
 30
0.0
 10
148.029325403069
 20
109.6803875811656
 30
0.0
 10
147.7305274424605
 20
109.7812051332782
 30
0.0
 10
147.5491052380744
 20
109.881041150084
 30
0.0
 10
147.2478993374175
 20
110.1346770652033
 30
0.0
 10
147.1253448586253
 20
110.2913858675962
 30
0.0
 10
147.0012114080061
 20
110.5554289419227
 30
0.0
 10
146.9689082911701
 20
110.6500517005717
 30
0.0
 10
146.9260586293382
 20
110.8451394968201
 30
0.0
 10
146.9153134618257
 20
110.9450303205397
 30
0.0
 10
146.9151699254727
 20
111.1496578553194
 30
0.0
 10
146.926153046509
 20
111.2549518936669
 30
0.0
 10
146.9688247060363
 20
111.4603553303959
 30
0.0
 10
147.0003876001437
 20
111.5616963177451
 30
0.0
 10
147.0843526956314
 20
111.7612939990632
 30
0.0
 10
147.1353872486321
 20
111.856305549087
 30
0.0
 10
147.2546205794109
 20
112.0367904600323
 30
0.0
 10
147.3236796367454
 20
112.1230498682015
 30
0.0
 10
147.4749781605998
 20
112.2797898063414
 30
0.0
 10
147.5572108653548
 20
112.3506801665344
 30
0.0
 10
147.7353233825029
 20
112.4768330311905
 30
0.0
 10
147.8314582667072
 20
112.5318786293083
 30
0.0
 10
148.1287049518261
 20
112.6645434028657
 30
0.0
 10
148.3477626926051
 20
112.7128049186345
 30
0.0
 10
148.673216367493
 20
112.7129138398305
 30
0.0
 10
148.783052968686
 20
112.7011501148707
 30
0.0
 10
148.9969852656684
 20
112.6547440526423
 30
0.0
 10
149.1002249266119
 20
112.6206050097314
 30
0.0
 10
149.2996539831744
 20
112.5315978596978
 30
0.0
 10
149.3957464904479
 20
112.4764459889821
 30
0.0
 10
149.5732905400139
 20
112.3506379391417
 30
0.0
 10
149.6559871071271
 20
112.2794265433051
 30
0.0
 10
149.8084616654922
 20
112.1211929612931
 30
0.0
 10
149.876138586534
 20
112.0364016786311
 30
0.0
 10
149.9951162508027
 20
111.8562441927356
 30
0.0
 10
150.0468605340029
 20
111.7596977343753
 30
0.0
 10
150.1300372406591
 20
111.561692264115
 30
0.0
 10
150.1615482776081
 20
111.4607590080995
 30
0.0
 10
150.2042838850599
 20
111.2552959192622
 30
0.0
 10
150.2152895894801
 20
111.1498835286655
 30
0.0
 10
150.2151443364765
 20
110.8432603869251
 30
0.0
 10
150.1707914478921
 20
110.6436159142712
 30
0.0
 10
150.0462062396106
 20
110.3788074220998
 30
0.0
 10
149.9944224259445
 20
110.2947072499863
 30
0.0
 10
149.8744647476143
 20
110.1406216773428
 30
0.0
 10
149.8066136856186
 20
110.0705753391663
 30
0.0
 10
149.6550879468634
 20
109.9432424872036
 30
0.0
 10
149.5711186736005
 20
109.8860784924484
 30
0.0
 10
149.3936274052615
 20
109.7883979152312
 30
0.0
 10
149.2993458703072
 20
109.7471499067559
 30
0.0
 10
148.9984607630778
 20
109.6459566598235
 30
0.0
 10
148.7856271572128
 20
109.6118919694345
 30
0.0
 10
148.5652413352721
 20
109.6118919694345
 30
0.0
  0
ELLIPSE
  5
F5
330
1F
100
AcDbEntity
  8
0
  6
HIDDEN
 62
     7
370
     0
100
AcDbEllipse
 10
148.5652413353
 20
105.6143614994
 30
0.0
 11
1.383467579512114
 21
1.753907414218489
 31
0.0
210
0.0
220
0.0
230
1.0
 40
0.5126701559
 41
0.9829735846098887
 42
0.9944607108323662
  0
SPLINE
  5
F6
330
1F
100
AcDbEntity
  8
0
  6
HIDDEN
 62
     7
370
     0
100
AcDbSpline
210
0.0
220
0.0
230
1.0
 70
     8
 71
     3
 72
     8
 73
     4
 74
     0
 42
0.000000001
 43
0.00000001
 40
0.0
 40
0.0
 40
0.0
 40
0.0
 40
1.0
 40
1.0
 40
1.0
 40
1.0
 10
148.5841946767044
 20
107.1772046496576
 30
0.0
 10
148.6011935607837
 20
107.1692213761442
 30
0.0
 10
148.6181977053249
 20
107.1604849736965
 30
0.0
 10
148.6351824314271
 20
107.151008121859
 30
0.0
  0
ELLIPSE
  5
F7
330
1F
100
AcDbEntity
  8
0
  6
HIDDEN
 62
     7
370
     0
100
AcDbEllipse
 10
148.5652413353
 20
105.6143614994
 30
0.0
 11
1.383467579512114
 21
-1.091267719176599
 31
0.0
210
0.0
220
0.0
230
1.0
 40
0.8239737799
 41
2.104730695508293
 42
2.147131942757429
  0
ELLIPSE
  5
F8
330
1F
100
AcDbEntity
  8
0
  6
HIDDEN
 62
     7
370
     0
100
AcDbEllipse
 10
148.5652413353
 20
105.6143614994
 30
0.0
 11
1.383467579512114
 21
-1.091267719176599
 31
0.0
210
0.0
220
0.0
230
1.0
 40
0.8239737799
 41
5.288724596347236
 42
5.331125843596475
  0
SPLINE
  5
F9
330
1F
100
AcDbEntity
  8
0
  6
HIDDEN
 62
     7
370
     0
100
AcDbSpline
210
0.0
220
0.0
230
1.0
 70
     8
 71
     3
 72
     8
 73
     4
 74
     0
 42
0.000000001
 43
0.00000001
 40
0.0
 40
0.0
 40
0.0
 40
0.0
 40
1.0
 40
1.0
 40
1.0
 40
1.0
 10
148.6351824314271
 20
104.0528096336256
 30
0.0
 10
148.6181977053249
 20
104.0599253436753
 30
0.0
 10
148.6011935607837
 20
104.067800473197
 30
0.0
 10
148.5841946767044
 20
104.0764235926512
 30
0.0
  0
ELLIPSE
  5
FA
330
1F
100
AcDbEntity
  8
0
  6
HIDDEN
 62
     7
370
     0
100
AcDbEllipse
 10
148.5652413353
 20
105.6143614994
 30
0.0
 11
1.383467579512114
 21
1.753907414218489
 31
0.0
210
0.0
220
0.0
230
1.0
 40
0.5126701559
 41
4.136053364422173
 42
4.14754049064465
  0
LINE
  5
FB
330
1F
100
AcDbEntity
  8
0
  6
HIDDEN
 62
     7
370
     0
100
AcDbLine
 10
234.1152406319
 20
101.28365799
 30
0.0
 11
234.1152406319
 21
123.72024513
 31
0.0
  0
LINE
  5
FC
330
1F
100
AcDbEntity
  8
0
  6
HIDDEN
 62
     7
370
     0
100
AcDbLine
 10
230.8152443751
 20
104.4702955257
 30
0.0
 11
230.8152443751
 21
120.5336075943
 31
0.0
  0
LINE
  5
FD
330
1F
100
AcDbEntity
  8
0
  6
HIDDEN
 62
     7
370
     0
100
AcDbLine
 10
229.8152423486
 20
100.5019514557
 30
0.0
 11
229.8152423486
 21
124.5019516643
 31
0.0
  0
SPLINE
  5
FE
330
1F
100
AcDbEntity
  8
0
  6
HIDDEN
 62
     7
370
     0
100
AcDbSpline
210
0.0
220
0.0
230
1.0
 70
     8
 71
     3
 72
    12
 73
     8
 74
     0
 42
0.000000001
 43
0.00000001
 40
0.0
 40
0.0
 40
0.0
 40
0.0
 40
0.4999999999999996
 40
0.4999999999999996
 40
0.7499999999999998
 40
0.7499999999999998
 40
1.0
 40
1.0
 40
1.0
 40
1.0
 10
234.6652413352721
 20
128.3765451865955
 30
0.0
 10
234.6083334237705
 20
128.4761312349672
 30
0.0
 10
234.5339610374618
 20
128.5152779174966
 30
0.0
 10
234.3958887037589
 20
128.4894742550976
 30
0.0
 10
234.3450667307225
 20
128.46631338209
 30
0.0
 10
234.2359736685831
 20
128.3922188776097
 30
0.0
 10
234.1776101545452
 20
128.3414128175874
 30
0.0
 10
234.1152413352721
 20
128.2770878724954
 30
0.0
  0
LINE
  5
FF
330
1F
100
AcDbEntity
  8
0
  6
HIDDEN
 62
     7
370
     0
100
AcDbLine
 10
234.1152406319
 20
128.2770882096
 30
0.0
 11
234.1152406319
 21
128.121006928
 31
0.0
  0
LINE
  5
100
330
1F
100
AcDbEntity
  8
0
  6
HIDDEN
 62
     7
370
     0
100
AcDbLine
 10
230.8152443751
 20
128.121006928
 30
0.0
 11
234.1152406319
 21
128.121006928
 31
0.0
  0
LINE
  5
101
330
1F
100
AcDbEntity
  8
0
  6
HIDDEN
 62
     7
370
     0
100
AcDbLine
 10
230.8152443751
 20
128.50195232
 30
0.0
 11
230.8152443751
 21
123.3019518401
 31
0.0
  0
SPLINE
  5
102
330
1F
100
AcDbEntity
  8
0
  6
HIDDEN
 62
     7
370
     0
100
AcDbSpline
210
0.0
220
0.0
230
1.0
 70
     8
 71
     3
 72
    12
 73
     8
 74
     0
 42
0.000000001
 43
0.00000001
 40
0.0
 40
0.0
 40
0.0
 40
0.0
 40
0.4999999999999989
 40
0.4999999999999989
 40
0.7499999999999994
 40
0.7499999999999994
 40
1.0
 40
1.0
 40
1.0
 40
1.0
 10
234.1152413352721
 20
123.7202454320188
 30
0.0
 10
234.2395991705926
 20
124.1597353738421
 30
0.0
 10
234.3477651260006
 20
124.5921019042034
 30
0.0
 10
234.487254781964
 20
125.2286121521773
 30
0.0
 10
234.5296051883081
 20
125.4376262454277
 30
0.0
 10
234.6043431077572
 20
125.8390033382017
 30
0.0
 10
234.6370693422715
 20
126.032880770938
 30
0.0
 10
234.6652413352721
 20
126.2198167336576
 30
0.0
  0
LINE
  5
103
330
1F
100
AcDbEntity
  8
0
  6
HIDDEN
 62
     7
370
     0
100
AcDbLine
 10
230.8152443751
 20
123.3019518401
 30
0.0
 11
230.8152443751
 21
120.5336075943
 31
0.0
  0
LINE
  5
104
330
1F
100
AcDbEntity
  8
0
  6
HIDDEN
 62
     7
370
     0
100
AcDbLine
 10
230.8152443751
 20
120.5336075943
 30
0.0
 11
234.1152406319
 21
120.5336075943
 31
0.0
  0
LINE
  5
105
330
1F
100
AcDbEntity
  8
0
  6
HIDDEN
 62
     7
370
     0
100
AcDbLine
 10
230.8152443751
 20
96.882896192
 30
0.0
 11
234.1152406319
 21
96.882896192
 31
0.0
  0
LINE
  5
106
330
1F
100
AcDbEntity
  8
0
  6
HIDDEN
 62
     7
370
     0
100
AcDbLine
 10
234.1152406319
 20
96.882896192
 30
0.0
 11
234.1152406319
 21
96.7268149104
 31
0.0
  0
SPLINE
  5
107
330
1F
100
AcDbEntity
  8
0
  6
HIDDEN
 62
     7
370
     0
100
AcDbSpline
210
0.0
220
0.0
230
1.0
 70
     8
 71
     3
 72
    12
 73
     8
 74
     0
 42
0.000000001
 43
0.00000001
 40
0.0
 40
0.0
 40
0.0
 40
0.0
 40
0.2499999999999998
 40
0.2499999999999998
 40
0.4999999999999997
 40
0.4999999999999997
 40
1.0
 40
1.0
 40
1.0
 40
1.0
 10
234.1152413352721
 20
96.726815247494
 30
0.0
 10
234.1771256326891
 20
96.66299002072529
 30
0.0
 10
234.2351501973787
 20
96.61238794021868
 30
0.0
 10
234.3437902618319
 20
96.53831505641551
 30
0.0
 10
234.3946542366486
 20
96.51480070179066
 30
0.0
 10
234.5343004318993
 20
96.48828271342464
 30
0.0
 10
234.6086342702691
 20
96.52829835160951
 30
0.0
 10
234.6652413352721
 20
96.62735793339391
 30
0.0
  0
LINE
  5
108
330
1F
100
AcDbEntity
  8
0
  6
HIDDEN
 62
     7
370
     0
100
AcDbLine
 10
230.8152443751
 20
101.7019512799
 30
0.0
 11
230.8152443751
 21
96.5019508
 31
0.0
  0
SPLINE
  5
109
330
1F
100
AcDbEntity
  8
0
  6
HIDDEN
 62
     7
370
     0
100
AcDbSpline
210
0.0
220
0.0
230
1.0
 70
     8
 71
     3
 72
    12
 73
     8
 74
     0
 42
0.000000001
 43
0.00000001
 40
0.0
 40
0.0
 40
0.0
 40
0.0
 40
0.4999999999999989
 40
0.4999999999999989
 40
0.7499999999999994
 40
0.7499999999999994
 40
1.0
 40
1.0
 40
1.0
 40
1.0
 10
234.6652413352721
 20
98.7840863863318
 30
0.0
 10
234.6083334237704
 20
99.16170025350542
 30
0.0
 10
234.5339610374618
 20
99.56164882381123
 30
0.0
 10
234.3958887037589
 20
100.1924595586746
 30
0.0
 10
234.3450667307225
 20
100.4091230583018
 30
0.0
 10
234.2359736685831
 20
100.8442163321167
 30
0.0
 10
234.1776101545452
 20
101.0632415904781
 30
0.0
 10
234.1152413352721
 20
101.2836576879706
 30
0.0
  0
LINE
  5
10A
330
1F
100
AcDbEntity
  8
0
  6
HIDDEN
 62
     7
370
     0
100
AcDbLine
 10
230.8152443751
 20
104.4702955257
 30
0.0
 11
230.8152443751
 21
101.7019512799
 31
0.0
  0
LINE
  5
10B
330
1F
100
AcDbEntity
  8
0
  6
HIDDEN
 62
     7
370
     0
100
AcDbLine
 10
234.1152406319
 20
104.4702955257
 30
0.0
 11
230.8152443751
 21
104.4702955257
 31
0.0
  0
LINE
  5
10C
330
1F
100
AcDbEntity
  8
0
  6
HIDDEN
 62
     7
370
     0
100
AcDbLine
 10
209.6652439817
 20
100.8019518774
 30
0.0
 11
209.6652439817
 21
124.2019512426
 31
0.0
  0
LINE
  5
10D
330
1F
100
AcDbEntity
  8
0
  6
HIDDEN
 62
     7
370
     0
100
AcDbLine
 10
212.1652415975
 20
100.5019514557
 30
0.0
 11
212.1652415975
 21
124.5019516643
 31
0.0
  0
LINE
  5
10E
330
1F
100
AcDbEntity
  8
0
  6
HIDDEN
 62
     7
370
     0
100
AcDbLine
 10
138.7652412544
 20
137.3019522723
 30
0.0
 11
139.1024997014
 21
137.3019522723
 31
0.0
  0
ELLIPSE
  5
10F
330
1F
100
AcDbEntity
  8
0
  6
HIDDEN
 62
     7
370
     0
100
AcDbEllipse
 10
139.1024996355
 20
138.90195156
 30
0.0
 11
0.0
 21
1.600000000000023
 31
0.0
210
0.0
220
0.0
230
1.0
 40
0.4142135624
 41
3.141592653589793
 42
4.712388980384695
  0
LINE
  5
110
330
1F
100
AcDbEntity
  8
0
  6
HIDDEN
 62
     7
370
     0
100
AcDbLine
 10
139.1024997014
 20
89.9019508358
 30
0.0
 11
138.7652412544
 21
89.9019508358
 31
0.0
  0
ELLIPSE
  5
111
330
1F
100
AcDbEntity
  8
0
  6
HIDDEN
 62
     7
370
     0
100
AcDbEllipse
 10
139.1024996355
 20
88.30195156
 30
0.0
 11
0.0
 21
1.600000000000009
 31
0.0
210
0.0
220
0.0
230
1.0
 40
0.4142135624
 41
4.712388980384695
 42
6.283185307179586
  0
LINE
  5
112
330
1F
100
AcDbEntity
  8
0
  6
HIDDEN
 62
     7
370
     0
100
AcDbLine
 10
139.7652411855
 20
82.6085029837
 30
0.0
 11
138.9813858572
 21
82.1502214964
 31
0.0
  0
LINE
  5
113
330
1F
100
AcDbEntity
  8
0
  6
HIDDEN
 62
     7
370
     0
100
AcDbLine
 10
139.0524830225
 20
142.9272486564
 30
0.0
 11
139.7652411855
 21
142.2144888636
 31
0.0
  0
LINE
  5
114
330
1F
100
AcDbEntity
  8
0
  6
HIDDEN
 62
     7
370
     0
100
AcDbLine
 10
74.3152401432
 20
104.0019510981
 30
0.0
 11
74.3152401432
 21
121.0019520219
 31
0.0
  0
LINE
  5
115
330
1F
100
AcDbEntity
  8
0
  6
HIDDEN
 62
     7
370
     0
100
AcDbLine
 10
77.3111707553
 20
105.5019513439
 30
0.0
 11
77.3111707553
 21
119.5019517761
 31
0.0
  0
LINE
  5
116
330
1F
100
AcDbEntity
  8
0
  6
HIDDEN
 62
     7
370
     0
100
AcDbLine
 10
234.1152406319
 20
95.6814295348
 30
0.0
 11
234.1152406319
 21
96.7268149104
 31
0.0
  0
LINE
  5
117
330
1F
100
AcDbEntity
  8
0
  6
HIDDEN
 62
     7
370
     0
100
AcDbLine
 10
234.1152406319
 20
128.2770882096
 30
0.0
 11
234.1152406319
 21
129.3224735852
 31
0.0
  0
LINE
  5
118
330
1F
100
AcDbEntity
  8
0
  6
HIDDEN
 62
     7
370
     0
100
AcDbLine
 10
143.6004512965
 20
82.6085029837
 30
0.0
 11
139.7652411855
 21
82.6085029837
 31
0.0
  0
LINE
  5
119
330
1F
100
AcDbEntity
  8
0
  6
HIDDEN
 62
     7
370
     0
100
AcDbLine
 10
154.6152415707
 20
82.6085029837
 30
0.0
 11
149.7300309151
 21
82.6085029837
 31
0.0
  0
LINE
  5
11A
330
1F
100
AcDbEntity
  8
0
  6
HIDDEN
 62
     7
370
     0
100
AcDbLine
 10
139.7652411855
 20
82.6085029837
 30
0.0
 11
139.7652411855
 21
88.3019516911
 31
0.0
  0
LINE
  5
11B
330
1F
100
AcDbEntity
  8
0
  6
HIDDEN
 62
     7
370
     0
100
AcDbLine
 10
154.9061755671
 20
89.9019508358
 30
0.0
 11
139.1024997014
 21
89.9019508358
 31
0.0
  0
LINE
  5
11C
330
1F
100
AcDbEntity
  8
0
  6
HIDDEN
 62
     7
370
     0
100
AcDbLine
 10
139.7652411855
 20
142.2144888636
 30
0.0
 11
143.701286523
 21
142.2144888636
 31
0.0
  0
LINE
  5
11D
330
1F
100
AcDbEntity
  8
0
  6
HIDDEN
 62
     7
370
     0
100
AcDbLine
 10
149.6291956886
 20
142.2144888636
 30
0.0
 11
154.6152415707
 21
142.2144888636
 31
0.0
  0
LINE
  5
11E
330
1F
100
AcDbEntity
  8
0
  6
HIDDEN
 62
     7
370
     0
100
AcDbLine
 10
139.7652411855
 20
142.2144888636
 30
0.0
 11
139.7652411855
 21
138.9019514169
 31
0.0
  0
LINE
  5
11F
330
1F
100
AcDbEntity
  8
0
  6
HIDDEN
 62
     7
370
     0
100
AcDbLine
 10
139.1024997014
 20
137.3019522723
 30
0.0
 11
154.6152415707
 21
137.3019522723
 31
0.0
  0
LINE
  5
120
330
1F
100
AcDbEntity
  8
0
  6
HIDDEN
 62
     7
370
     0
100
AcDbLine
 10
110.3152404561
 20
105.5019513439
 30
0.0
 11
110.3152404561
 21
119.5019517761
 31
0.0
  0
LINE
  5
121
330
1F
100
AcDbEntity
  8
0
  6
HIDDEN
 62
     7
370
     0
100
AcDbLine
 10
111.9676078691
 20
108.251951329
 30
0.0
 11
111.9676078691
 21
116.751951791
 31
0.0
  0
LINE
  5
122
330
1F
100
AcDbEntity
  8
0
  6
HIDDEN
 62
     7
370
     0
100
AcDbLine
 10
230.8152443751
 20
129.0269518938
 30
0.0
 11
230.8152443751
 21
128.50195232
 31
0.0
  0
LINE
  5
123
330
1F
100
AcDbEntity
  8
0
  6
HIDDEN
 62
     7
370
     0
100
AcDbLine
 10
230.8152443751
 20
96.5019508
 30
0.0
 11
230.8152443751
 21
95.9769512262
 31
0.0
  0
SPLINE
  5
124
330
1F
100
AcDbEntity
  8
0
  6
HIDDEN
 62
     7
370
     0
100
AcDbSpline
210
0.0
220
0.0
230
1.0
 70
    11
 71
     3
 72
    60
 73
    56
 74
     0
 42
0.000000001
 43
0.00000001
 40
0.0
 40
0.0
 40
0.0
 40
0.0
 40
0.0312499999999997
 40
0.0312499999999997
 40
0.0624999999999995
 40
0.0624999999999995
 40
0.1249999999999989
 40
0.1249999999999989
 40
0.1874999999999984
 40
0.1874999999999984
 40
0.2187499999999983
 40
0.2187499999999983
 40
0.2499999999999981
 40
0.2499999999999981
 40
0.2812499999999979
 40
0.2812499999999979
 40
0.3124999999999977
 40
0.3124999999999977
 40
0.3437499999999977
 40
0.3437499999999977
 40
0.3749999999999976
 40
0.3749999999999976
 40
0.4062499999999974
 40
0.4062499999999974
 40
0.4374999999999973
 40
0.4374999999999973
 40
0.4999999999999971
 40
0.4999999999999971
 40
0.5312499999999973
 40
0.5312499999999973
 40
0.5624999999999974
 40
0.5624999999999974
 40
0.5937499999999977
 40
0.5937499999999977
 40
0.6249999999999978
 40
0.6249999999999978
 40
0.656249999999998
 40
0.656249999999998
 40
0.6874999999999982
 40
0.6874999999999982
 40
0.7187499999999983
 40
0.7187499999999983
 40
0.7499999999999986
 40
0.7499999999999986
 40
0.8124999999999989
 40
0.8124999999999989
 40
0.8437499999999991
 40
0.8437499999999991
 40
0.8749999999999992
 40
0.8749999999999992
 40
0.9062499999999994
 40
0.9062499999999994
 40
0.9374999999999997
 40
0.9374999999999997
 40
1.0
 40
1.0
 40
1.0
 40
1.0
 10
148.5652413352721
 20
112.2910255019614
 30
0.0
 10
148.6754342462424
 20
112.2910255019614
 30
0.0
 10
148.7835434495298
 20
112.3028831242661
 30
0.0
 10
148.9958486040163
 20
112.3488888511563
 30
0.0
 10
149.1011572674753
 20
112.38364870347
 30
0.0
 10
149.3999552280838
 20
112.5172025416343
 30
0.0
 10
149.5813774324698
 20
112.6471109547778
 30
0.0
 10
149.8825833331267
 20
112.9595694418882
 30
0.0
 10
150.0051378119189
 20
113.1453469247158
 30
0.0
 10
150.1292712625382
 20
113.4401576732194
 30
0.0
 10
150.1615743793741
 20
113.5431367596406
 30
0.0
 10
150.2044240412061
 20
113.7494143993455
 30
0.0
 10
150.2151692087185
 20
113.8521823842649
 30
0.0
 10
150.2153127450716
 20
114.0568480377833
 30
0.0
 10
150.2043296240352
 20
114.1592021239774
 30
0.0
 10
150.161657964508
 20
114.3534622329847
 30
0.0
 10
150.1300950704005
 20
114.4466305417282
 30
0.0
 10
150.0461299749128
 20
114.6254140623703
 30
0.0
 10
149.9950954219121
 20
114.7081314540821
 30
0.0
 10
149.8758620911334
 20
114.861683069496
 30
0.0
 10
149.8068030337988
 20
114.9331335302493
 30
0.0
 10
149.6555045099445
 20
115.0603455726366
 30
0.0
 10
149.5732718051895
 20
115.1164884564839
 30
0.0
 10
149.3951592880413
 20
115.2148102693278
 30
0.0
 10
149.299024403837
 20
115.2568045634791
 30
0.0
 10
149.0017777187181
 20
115.3569436737556
 30
0.0
 10
148.7827199779391
 20
115.3919577816565
 30
0.0
 10
148.4572663030513
 20
115.3920377411165
 30
0.0
 10
148.3474297018582
 20
115.3834323366936
 30
0.0
 10
148.1334974048758
 20
115.3491195412194
 30
0.0
 10
148.0302577439323
 20
115.3237777280248
 30
0.0
 10
147.8308286873698
 20
115.25659263884
 30
0.0
 10
147.7347361800964
 20
115.2145106537814
 30
0.0
 10
147.5571921305304
 20
115.1164534982175
 30
0.0
 10
147.4744955634171
 20
115.0600640338936
 30
0.0
 10
147.322021005052
 20
114.931612964244
 30
0.0
 10
147.2543440840103
 20
114.8613554476109
 30
0.0
 10
147.1353664197415
 20
114.7080761032428
 30
0.0
 10
147.0836221365413
 20
114.6239969264834
 30
0.0
 10
147.0004454298851
 20
114.4466141385991
 30
0.0
 10
146.9689343929361
 20
114.3538374963242
 30
0.0
 10
146.9261987854844
 20
114.1595339766725
 30
0.0
 10
146.9151930810642
 20
114.0570675617342
 30
0.0
 10
146.9153383340677
 20
113.7504058453629
 30
0.0
 10
146.9596912226521
 20
113.5386339609643
 30
0.0
 10
147.0842764309337
 20
113.24294861989
 30
0.0
 10
147.1360602445997
 20
113.1463720920509
 30
0.0
 10
147.2560179229299
 20
112.9652078437353
 30
0.0
 10
147.3238689849257
 20
112.8806185250359
 30
0.0
 10
147.4753947236808
 20
112.7237204922429
 30
0.0
 10
147.5593639969438
 20
112.6515242612899
 30
0.0
 10
147.7368552652827
 20
112.5261624180608
 30
0.0
 10
147.831136800237
 20
112.4720960649499
 30
0.0
 10
148.1320219074664
 20
112.3380240829339
 30
0.0
 10
148.3448555133315
 20
112.2910255019614
 30
0.0
 10
148.5652413352721
 20
112.2910255019613
 30
0.0
  0
ELLIPSE
  5
125
330
1F
100
AcDbEntity
  8
0
  6
HIDDEN
 62
     7
370
     0
100
AcDbEllipse
 10
148.5652413353
 20
119.3895416205
 30
0.0
 11
-1.383467579512114
 21
1.753907414218503
 31
0.0
210
0.0
220
0.0
230
1.0
 40
0.5126701559
 41
5.288724596347226
 42
8.430317249937023
  0
ELLIPSE
  5
126
330
1F
100
AcDbEntity
  8
0
  6
HIDDEN
 62
     7
370
     0
100
AcDbEllipse
 10
148.5652413353
 20
119.3895416205
 30
0.0
 11
1.383467579512143
 21
1.091267719176599
 31
0.0
210
0.0
220
0.0
230
1.0
 40
0.8239737799
 41
0.9520594635583252
 42
0.9944607108323564
  0
SPLINE
  5
127
330
1F
100
AcDbEntity
  8
0
  6
HIDDEN
 62
     7
370
     0
100
AcDbSpline
210
0.0
220
0.0
230
1.0
 70
     8
 71
     3
 72
     8
 73
     4
 74
     0
 42
0.000000001
 43
0.00000001
 40
0.0
 40
0.0
 40
0.0
 40
0.0
 40
1.0
 40
1.0
 40
1.0
 40
1.0
 10
148.6351824314272
 20
120.9510934863639
 30
0.0
 10
148.6181977053249
 20
120.9439777763142
 30
0.0
 10
148.6011935607838
 20
120.9361026467925
 30
0.0
 10
148.5841946767044
 20
120.9274795273383
 30
0.0
  0
ELLIPSE
  5
128
330
1F
100
AcDbEntity
  8
0
  6
HIDDEN
 62
     7
370
     0
100
AcDbEllipse
 10
148.5652413353
 20
119.3895416205
 30
0.0
 11
-1.383467579512114
 21
1.753907414218503
 31
0.0
210
0.0
220
0.0
230
1.0
 40
0.5126701559
 41
5.277237470124737
 42
5.288724596347214
  0
ELLIPSE
  5
129
330
1F
100
AcDbEntity
  8
0
  6
HIDDEN
 62
     7
370
     0
100
AcDbEllipse
 10
148.5652413353
 20
119.3895416205
 30
0.0
 11
1.383467579512143
 21
1.091267719176599
 31
0.0
210
0.0
220
0.0
230
1.0
 40
0.8239737799
 41
0.9944607108323584
 42
4.136053364422182
  0
ELLIPSE
  5
12A
330
1F
100
AcDbEntity
  8
0
  6
HIDDEN
 62
     7
370
     0
100
AcDbEllipse
 10
148.5652413353
 20
119.3895416205
 30
0.0
 11
-1.383467579512114
 21
1.753907414218503
 31
0.0
210
0.0
220
0.0
230
1.0
 40
0.5126701559
 41
2.147131942757425
 42
2.15861906897992
  0
SPLINE
  5
12B
330
1F
100
AcDbEntity
  8
0
  6
HIDDEN
 62
     7
370
     0
100
AcDbSpline
210
0.0
220
0.0
230
1.0
 70
     8
 71
     3
 72
     8
 73
     4
 74
     0
 42
0.000000001
 43
0.00000001
 40
0.0
 40
0.0
 40
0.0
 40
0.0
 40
1.0
 40
1.0
 40
1.0
 40
1.0
 10
148.5841946767044
 20
117.8266984703319
 30
0.0
 10
148.6011935607837
 20
117.8346817438453
 30
0.0
 10
148.6181977053249
 20
117.843418146293
 30
0.0
 10
148.6351824314271
 20
117.8528949981306
 30
0.0
  0
ELLIPSE
  5
12C
330
1F
100
AcDbEntity
  8
0
  6
HIDDEN
 62
     7
370
     0
100
AcDbEllipse
 10
148.5652413353
 20
119.3895416205
 30
0.0
 11
1.383467579512143
 21
1.091267719176599
 31
0.0
210
0.0
220
0.0
230
1.0
 40
0.8239737799
 41
4.13605336442218
 42
4.178454611696229
  0
LWPOLYLINE
  5
12D
330
1F
100
AcDbEntity
  8
0
  6
HIDDEN
 62
     7
370
     0
100
AcDbPolyline
 90
       19
 70
   128
 43
0.0
 10
148.5652416035
 20
118.9453622062
 10
149.1295746549
 20
119.0388683896
 10
149.6258410647
 20
119.3081086237
 10
149.9941828682
 20
119.7206086215
 10
150.1901741161
 20
120.2266148027
 10
150.1901741161
 20
120.7650952708
 10
149.9941828682
 20
121.271101452
 10
149.6258410647
 20
121.6836019155
 10
149.1295746549
 20
121.9528416838
 10
148.5652416035
 20
122.046348333
 10
148.000908552
 20
121.9528416838
 10
147.5046421423
 20
121.6836019155
 10
147.1362994074
 20
121.271101452
 10
146.9403081595
 20
120.7650952708
 10
146.9403081595
 20
120.2266148027
 10
147.1362994074
 20
119.7206086215
 10
147.5046421423
 20
119.3081086237
 10
148.000908552
 20
119.0388683896
 10
148.5652416035
 20
118.9453622062
  0
LINE
  5
12E
330
1F
100
AcDbEntity
  8
0
  6
HIDDEN
 62
     7
370
     0
100
AcDbLine
 10
144.7552409976
 20
134.6991925236
 30
0.0
 11
144.7552409976
 21
130.8519511219
 31
0.0
  0
SPLINE
  5
12F
330
1F
100
AcDbEntity
  8
0
  6
HIDDEN
 62
     7
370
     0
100
AcDbSpline
210
0.0
220
0.0
230
1.0
 70
     8
 71
     3
 72
    14
 73
    10
 74
     0
 42
0.000000001
 43
0.00000001
 40
0.0
 40
0.0
 40
0.0
 40
0.0
 40
0.25
 40
0.25
 40
0.5
 40
0.5
 40
0.75
 40
0.75
 40
1.0
 40
1.0
 40
1.0
 40
1.0
 10
147.7752413352721
 20
123.7844307501029
 30
0.0
 10
147.8737206088863
 20
123.8232673807147
 30
0.0
 10
147.9750179675848
 20
123.8605602088102
 30
0.0
 10
148.1680016678271
 20
123.9319714998852
 30
0.0
 10
148.2590970382414
 20
123.9660712627422
 30
0.0
 10
148.410389561559
 20
124.0329002359725
 30
0.0
 10
148.4716552845875
 20
124.0663196417138
 30
0.0
 10
148.5538388855071
 20
124.135337248008
 30
0.0
 10
148.5752413352721
 20
124.1711335298493
 30
0.0
 10
148.5752413352721
 20
124.2077139285433
 30
0.0
  0
LINE
  5
130
330
1F
100
AcDbEntity
  8
0
  6
HIDDEN
 62
     7
370
     0
100
AcDbLine
 10
148.575241214
 20
134.6991925236
 30
0.0
 11
148.575241214
 21
130.8519511219
 31
0.0
  0
SPLINE
  5
131
330
1F
100
AcDbEntity
  8
0
  6
HIDDEN
 62
     7
370
     0
100
AcDbSpline
210
0.0
220
0.0
230
1.0
 70
     8
 71
     3
 72
    14
 73
    10
 74
     0
 42
0.000000001
 43
0.00000001
 40
0.0
 40
0.0
 40
0.0
 40
0.0
 40
0.25
 40
0.25
 40
0.5
 40
0.5
 40
0.75
 40
0.75
 40
1.0
 40
1.0
 40
1.0
 40
1.0
 10
148.5752413352722
 20
120.4489904303234
 30
0.0
 10
148.5752413352722
 20
120.4127308406483
 30
0.0
 10
148.5541212477739
 20
120.3761027868599
 30
0.0
 10
148.4716535926252
 20
120.3108250544465
 30
0.0
 10
148.4112222382841
 20
120.2828987431184
 30
0.0
 10
148.2587573721363
 20
120.248734306224
 30
0.0
 10
148.1681764851856
 20
120.2433548092949
 30
0.0
 10
147.9755345692171
 20
120.2642311189741
 30
0.0
 10
147.8737224266096
 20
120.2905771641826
 30
0.0
 10
147.7752413352719
 20
120.3313192733244
 30
0.0
  0
LINE
  5
132
330
1F
100
AcDbEntity
  8
0
  6
HIDDEN
 62
     7
370
     0
100
AcDbLine
 10
148.575241214
 20
104.5006687488
 30
0.0
 11
148.575241214
 21
100.7419458326
 31
0.0
  0
LINE
  5
133
330
1F
100
AcDbEntity
  8
0
  6
HIDDEN
 62
     7
370
     0
100
AcDbLine
 10
150.1870783999
 20
102.7499313202
 30
0.0
 11
150.1870783999
 21
100.5504519414
 31
0.0
  0
LINE
  5
134
330
1F
100
AcDbEntity
  8
0
  6
HIDDEN
 62
     7
370
     0
100
AcDbLine
 10
150.1870783999
 20
138.4121819135
 30
0.0
 11
150.1870783999
 21
130.8519511219
 31
0.0
  0
LINE
  5
135
330
1F
100
AcDbEntity
  8
0
  6
HIDDEN
 62
     7
370
     0
100
AcDbLine
 10
143.143404743
 20
138.4121819135
 30
0.0
 11
143.143404743
 21
130.8519511219
 31
0.0
  0
SPLINE
  5
136
330
1F
100
AcDbEntity
  8
0
  6
HIDDEN
 62
     7
370
     0
100
AcDbSpline
210
0.0
220
0.0
230
1.0
 70
     8
 71
     3
 72
    10
 73
     6
 74
     0
 42
0.000000001
 43
0.00000001
 40
0.0
 40
0.0
 40
0.0
 40
0.0
 40
0.5
 40
0.5
 40
1.0
 40
1.0
 40
1.0
 40
1.0
 10
146.5893505726317
 20
120.2484907294636
 30
0.0
 10
146.5737445216505
 20
120.3537629300721
 30
0.0
 10
146.5652400586219
 20
120.457701427863
 30
0.0
 10
146.5652426122116
 20
120.657214699819
 30
0.0
 10
146.5737401998121
 20
120.7484271944894
 30
0.0
 10
146.5893505726317
 20
120.8303591268325
 30
0.0
  0
SPLINE
  5
137
330
1F
100
AcDbEntity
  8
0
  6
HIDDEN
 62
     7
370
     0
100
AcDbSpline
210
0.0
220
0.0
230
1.0
 70
     8
 71
     3
 72
    14
 73
    10
 74
     0
 42
0.000000001
 43
0.00000001
 40
0.0
 40
0.0
 40
0.0
 40
0.0
 40
0.25
 40
0.25
 40
0.5
 40
0.5
 40
0.75
 40
0.75
 40
1.0
 40
1.0
 40
1.0
 40
1.0
 10
146.5893505726317
 20
120.8303591268325
 30
0.0
 10
146.6257144006619
 20
120.7848644914307
 30
0.0
 10
146.6581921278721
 20
120.7364726852144
 30
0.0
 10
146.7069457572878
 20
120.6309875412849
 30
0.0
 10
146.7218495349623
 20
120.574403033042
 30
0.0
 10
146.7218599686199
 20
120.4655154390915
 30
0.0
 10
146.7069696728118
 20
120.4133307733289
 30
0.0
 10
146.6580807419342
 20
120.3220533743854
 30
0.0
 10
146.6257085636638
 20
120.2833866690113
 30
0.0
 10
146.5893505726317
 20
120.2484907294636
 30
0.0
  0
LWPOLYLINE
  5
138
330
1F
100
AcDbEntity
  8
0
  6
HIDDEN
 62
     7
370
     0
100
AcDbPolyline
 90
       19
 70
   128
 43
0.0
 10
139.3969687655
 20
120.4819974225
 10
139.5441484659
 20
120.0724106017
 10
139.7829670481
 20
119.8190917928
 10
140.0846201017
 20
119.7525948953
 10
140.4127241134
 20
119.8809404593
 10
140.7277039274
 20
120.188648041
 10
140.9915694989
 20
120.6386030387
 10
141.1724938101
 20
121.1765349578
 10
141.248655042
 20
121.7375618141
 10
141.2108670942
 20
122.2540137093
 10
141.0636878594
 20
122.6636000644
 10
140.8248688116
 20
122.9169188734
 10
140.523215758
 20
122.9834153052
 10
140.1951117463
 20
122.8550706725
 10
139.8801319323
 20
122.5473626252
 10
139.6162663608
 20
122.0974071618
 10
139.4353422824
 20
121.5594752427
 10
139.3591810505
 20
120.9984493177
 10
139.3969687655
 20
120.4819974225
  0
LWPOLYLINE
  5
139
330
1F
100
AcDbEntity
  8
0
  6
HIDDEN
 62
     7
370
     0
100
AcDbPolyline
 90
       20
 70
   128
 43
0.0
 10
146.5893504232
 20
120.2484906386
 10
146.7818883269
 20
119.6886777613
 10
147.1491851866
 20
119.2122331556
 10
147.6552472472
 20
118.8658458847
 10
148.2504834443
 20
118.6834598627
 10
148.8765650451
 20
118.6829485666
 10
149.4721374496
 20
118.8643613566
 10
149.9788402601
 20
119.2099211473
 10
150.3470172196
 20
119.68576505
 10
150.5405907541
 20
120.2452631403
 10
150.5405907541
 20
120.8335865956
 10
150.3470172196
 20
121.3930842202
 10
149.9788402601
 20
121.8689285885
 10
149.4721374496
 20
122.2144883793
 10
148.8765650451
 20
122.3959016349
 10
148.2504834443
 20
122.3953894075
 10
147.6552472472
 20
122.2130038511
 10
147.1491851866
 20
121.8666170459
 10
146.7818883269
 20
121.3901719745
 10
146.5893504232
 20
120.8303595628
  0
SPLINE
  5
13A
330
1F
100
AcDbEntity
  8
0
  6
HIDDEN
 62
     7
370
     0
100
AcDbSpline
210
0.0
220
0.0
230
1.0
 70
     8
 71
     3
 72
    12
 73
     8
 74
     0
 42
0.000000001
 43
0.00000001
 40
0.0
 40
0.0
 40
0.0
 40
0.0
 40
0.2499999999999992
 40
0.2499999999999992
 40
0.4999999999999983
 40
0.4999999999999983
 40
1.0
 40
1.0
 40
1.0
 40
1.0
 10
150.1870779773288
 20
124.4534513582017
 30
0.0
 10
150.3100254711244
 20
124.2954945095066
 30
0.0
 10
150.4035696742333
 20
124.1236611425291
 30
0.0
 10
150.5325090633955
 20
123.7519884328833
 30
0.0
 10
150.5650618207806
 20
123.558799986692
 30
0.0
 10
150.5655981625144
 20
122.9705034484158
 30
0.0
 10
150.4329745055464
 20
122.5784852105271
 30
0.0
 10
150.1870779773288
 20
122.2539716278184
 30
0.0
  0
SPLINE
  5
13B
330
1F
100
AcDbEntity
  8
0
  6
HIDDEN
 62
     7
370
     0
100
AcDbSpline
210
0.0
220
0.0
230
1.0
 70
     8
 71
     3
 72
    12
 73
     8
 74
     0
 42
0.000000001
 43
0.00000001
 40
0.0
 40
0.0
 40
0.0
 40
0.0
 40
0.2499999999999997
 40
0.2499999999999997
 40
0.4999999999999993
 40
0.4999999999999993
 40
1.0
 40
1.0
 40
1.0
 40
1.0
 10
150.1870779773288
 20
122.2539716278184
 30
0.0
 10
150.0721819260682
 20
122.0342311927618
 30
0.0
 10
149.9454159095955
 20
121.8372628411401
 30
0.0
 10
149.685200975977
 20
121.4835452683012
 30
0.0
 10
149.5516935180148
 20
121.326719974429
 30
0.0
 10
149.1432952494266
 20
120.9001774035213
 30
0.0
 10
148.859642114489
 20
120.673485224566
 30
0.0
 10
148.5752413352722
 20
120.5032340801706
 30
0.0
  0
SPLINE
  5
13C
330
1F
100
AcDbEntity
  8
0
  6
HIDDEN
 62
     7
370
     0
100
AcDbSpline
210
0.0
220
0.0
230
1.0
 70
     8
 71
     3
 72
    12
 73
     8
 74
     0
 42
0.000000001
 43
0.00000001
 40
0.0
 40
0.0
 40
0.0
 40
0.0
 40
0.5000000000000013
 40
0.5000000000000013
 40
0.7500000000000007
 40
0.7500000000000007
 40
1.0
 40
1.0
 40
1.0
 40
1.0
 10
148.5752413352721
 20
124.2619575783916
 30
0.0
 10
148.8594478698374
 20
124.4294217406854
 30
0.0
 10
149.1381436039412
 20
124.541058840197
 30
0.0
 10
149.5474896471305
 20
124.6083721058363
 30
0.0
 10
149.68362898445
 20
124.6135231458503
 30
0.0
 10
149.9449490334461
 20
124.5757572082309
 30
0.0
 10
150.0703702158778
 20
124.5342074498867
 30
0.0
 10
150.1870779773292
 20
124.4534513582038
 30
0.0
  0
SPLINE
  5
13D
330
1F
100
AcDbEntity
  8
0
  6
HIDDEN
 62
     7
370
     0
100
AcDbSpline
210
0.0
220
0.0
230
1.0
 70
     8
 71
     3
 72
    11
 73
     7
 74
     0
 42
0.000000001
 43
0.00000001
 40
0.0
 40
0.0
 40
0.0
 40
0.0
 40
0.1586629657729187
 40
0.4474174176205519
 40
0.7365954204410801
 40
1.0
 40
1.0
 40
1.0
 40
1.0
 10
146.5932964369052
 20
122.0774042155485
 30
0.0
 10
146.5889554249742
 20
122.1935494451817
 30
0.0
 10
146.5767141036389
 20
122.521070101677
 30
0.0
 10
146.8058035082944
 20
123.0245648956482
 30
0.0
 10
147.2145583373058
 20
123.5070806415001
 30
0.0
 10
147.5942503749478
 20
123.6949009371099
 30
0.0
 10
147.77524164164
 20
123.7844309504967
 30
0.0
  0
LWPOLYLINE
  5
13E
330
1F
100
AcDbEntity
  8
0
  6
HIDDEN
 62
     7
370
     0
100
AcDbPolyline
 90
       21
 70
   128
 43
0.0
 10
139.0154529385
 20
120.2724889588
 10
139.1782967861
 20
119.7952466752
 10
139.4381911981
 20
119.4751022119
 10
139.7696957014
 20
119.3433931764
 10
140.1403606891
 20
119.4130127985
 10
140.5139025322
 20
119.6771456595
 10
140.8537565752
 20
120.1099368479
 10
141.12665551
 20
120.6690218966
 10
141.3058857455
 20
121.2996734973
 10
141.3739039584
 20
121.940158933
 10
141.3240507267
 20
122.5277834307
 10
141.1612071119
 20
123.0050257143
 10
140.9013126999
 20
123.3251697119
 10
140.5698079638
 20
123.4568792131
 10
140.199142976
 20
123.3872591253
 10
139.8256011329
 20
123.1231267299
 10
139.4857470899
 20
122.6903355416
 10
139.2128481551
 20
122.1312504928
 10
139.0336176868
 20
121.5005988922
 10
138.9655999395
 20
120.8601134565
 10
139.0154529385
 20
120.2724889588
  0
CIRCLE
  5
13F
330
1F
100
AcDbEntity
  8
0
  6
HIDDEN
 62
     7
370
     0
100
AcDbCircle
 10
222.1152413353
 20
112.50195156
 30
0.0
 40
5.181257848382081
  0
CIRCLE
  5
140
330
1F
100
AcDbEntity
  8
0
  6
HIDDEN
 62
     7
370
     0
100
AcDbCircle
 10
222.1152413353
 20
112.50195156
 30
0.0
 40
4.172547133356749
  0
CIRCLE
  5
141
330
1F
100
AcDbEntity
  8
0
  6
HIDDEN
 62
     7
370
     0
100
AcDbCircle
 10
222.1152413353
 20
112.50195156
 30
0.0
 40
3.872547133356741
  0
LWPOLYLINE
  5
142
330
1F
100
AcDbEntity
  8
0
  6
HIDDEN
 62
     7
370
     0
100
AcDbPolyline
 90
       18
 70
   128
 43
0.0
 10
149.0715625718
 20
121.744031712
 10
148.5348460286
 20
121.8276318829
 10
148.0022347554
 20
121.7233963977
 10
147.5456603824
 20
121.4454003345
 10
147.2267867088
 20
121.0311899628
 10
147.0886780902
 20
120.5367070358
 10
147.1499870553
 20
120.02873297
 10
147.4024350777
 20
119.5758736428
 10
147.8119255065
 20
119.2392894734
 10
148.3231564074
 20
119.0644383166
 10
148.8670813873
 20
119.0749347877
 10
149.3702414467
 20
119.2693614136
 10
149.7646817028
 20
119.6214595545
 10
149.9971314355
 20
120.0836763453
 10
150.0361957609
 20
120.5935875621
 10
149.8765996679
 20
121.0823251601
 10
149.5398976862
 20
121.4838844459
 10
149.0715625718
 20
121.744031712
  0
LWPOLYLINE
  5
143
330
1F
100
AcDbEntity
  8
0
  6
HIDDEN
 62
     7
370
     0
100
AcDbPolyline
 90
       21
 70
   128
 43
0.0
 10
149.2492812707
 20
122.3054692816
 10
148.6350405052
 20
122.4176657122
 10
148.0139666259
 20
122.346006028
 10
147.4468554392
 20
122.097505882
 10
146.9892202898
 20
121.6964895572
 10
146.685855931
 20
121.1822123002
 10
146.5664594456
 20
120.60501489
 10
146.6427180006
 20
120.0213960107
 10
146.9071661144
 20
119.4884862486
 10
147.3339186072
 20
119.0584489811
 10
147.8812010049
 20
118.7733804542
 10
148.4954427018
 20
118.6611844893
 10
149.1165156498
 20
118.7328437079
 10
149.6836268365
 20
118.9813438538
 10
150.1412629172
 20
119.3823597129
 10
150.4446263447
 20
119.8966374356
 10
150.5640228301
 20
120.4738353114
 10
150.487764275
 20
121.0574532594
 10
150.2233161613
 20
121.5903634872
 10
149.7965645998
 20
122.0204007547
 10
149.2492812707
 20
122.3054692816
  0
LWPOLYLINE
  5
144
330
1F
100
AcDbEntity
  8
0
  6
HIDDEN
 62
     7
370
     0
100
AcDbPolyline
 90
       21
 70
   128
 43
0.0
 10
149.2492812707
 20
122.6303881701
 10
148.6350405052
 20
122.7425846007
 10
148.0139666259
 20
122.6709249165
 10
147.4468554392
 20
122.4224247705
 10
146.9892202898
 20
122.0214093771
 10
146.685855931
 20
121.50713212
 10
146.5664594456
 20
120.9299337786
 10
146.6427180006
 20
120.3463148992
 10
146.9071661144
 20
119.8134051371
 10
147.3339186072
 20
119.3833683353
 10
147.8812010049
 20
119.0982998084
 10
148.4954427018
 20
118.9861038435
 10
149.1165156498
 20
119.057763062
 10
149.6836268365
 20
119.306263208
 10
150.1412629172
 20
119.7072790671
 10
150.4446263447
 20
120.2215563241
 10
150.5640228301
 20
120.7987542
 10
150.487764275
 20
121.3823730793
 10
150.2233161613
 20
121.915283307
 10
149.7965645998
 20
122.3453196432
 10
149.2492812707
 20
122.6303881701
  0
LWPOLYLINE
  5
145
330
1F
100
AcDbEntity
  8
0
  6
HIDDEN
 62
     7
370
     0
100
AcDbPolyline
 90
       18
 70
   128
 43
0.0
 10
149.0782718196
 20
123.1294327151
 10
148.5344436973
 20
123.2141411599
 10
147.9947748616
 20
123.108523592
 10
147.5321506172
 20
122.8268450793
 10
147.209051533
 20
122.4071464237
 10
147.0691128656
 20
121.906110711
 10
147.1312348753
 20
121.3914069082
 10
147.387027277
 20
120.9325461384
 10
147.8019445225
 20
120.5915023308
 10
148.3199489325
 20
120.4143349748
 10
148.8710804864
 20
120.4249706786
 10
149.3809078842
 20
120.6219733428
 10
149.7805747225
 20
120.9787369441
 10
150.016104339
 20
121.4470776465
 10
150.0556864797
 20
121.9637446772
 10
149.8939753532
 20
122.4589586925
 10
149.5528123363
 20
122.8658386242
 10
149.0782718196
 20
123.1294327151
  0
LWPOLYLINE
  5
146
330
1F
100
AcDbEntity
  8
0
  6
HIDDEN
 62
     7
370
     0
100
AcDbPolyline
 90
       18
 70
   128
 43
0.0
 10
149.0782718196
 20
122.1259540614
 10
148.5344436973
 20
122.2106625061
 10
147.9947748616
 20
122.1050449382
 10
147.5321506172
 20
121.8233664255
 10
147.209051533
 20
121.4036677699
 10
147.0691128656
 20
120.9026320573
 10
147.1312348753
 20
120.3879282545
 10
147.387027277
 20
119.9290679503
 10
147.8019445225
 20
119.5880241427
 10
148.3199489325
 20
119.4108563211
 10
148.8710804864
 20
119.4214920249
 10
149.3809078842
 20
119.6184946891
 10
149.7805747225
 20
119.9752582904
 10
150.016104339
 20
120.4435989927
 10
150.0556864797
 20
120.9602660235
 10
149.8939753532
 20
121.4554809701
 10
149.5528123363
 20
121.8623599704
 10
149.0782718196
 20
122.1259540614
  0
LWPOLYLINE
  5
147
330
1F
100
AcDbEntity
  8
0
  6
HIDDEN
 62
     7
370
     0
100
AcDbPolyline
 90
       21
 70
   128
 43
0.0
 10
149.2492812707
 20
122.8227751996
 10
148.6350405052
 20
122.9349706989
 10
148.0139666259
 20
122.8633110147
 10
147.4468554392
 20
122.6148118
 10
146.9892202898
 20
122.2137954753
 10
146.685855931
 20
121.6995182183
 10
146.5664594456
 20
121.1223198768
 10
146.6427180006
 20
120.5387019288
 10
146.9071661144
 20
120.005791701
 10
147.3339186072
 20
119.5757544335
 10
147.8812010049
 20
119.2906859066
 10
148.4954427018
 20
119.1784899417
 10
149.1165156498
 20
119.2501491602
 10
149.6836268365
 20
119.4986493062
 10
150.1412629172
 20
119.8996651653
 10
150.4446263447
 20
120.413942888
 10
150.5640228301
 20
120.9911412295
 10
150.487764275
 20
121.5747591775
 10
150.2233161613
 20
122.1076694053
 10
149.7965645998
 20
122.5377057414
 10
149.2492812707
 20
122.8227751996
  0
LWPOLYLINE
  5
148
330
1F
100
AcDbEntity
  8
0
  6
HIDDEN
 62
     7
370
     0
100
AcDbPolyline
 90
       20
 70
   128
 43
0.0
 10
149.1945586189
 20
122.5372018959
 10
148.5990439563
 20
122.6411831301
 10
147.9998664021
 20
122.5578288283
 10
147.4619559034
 20
122.296170957
 10
147.0436030089
 20
121.8845645632
 10
146.7901435702
 20
121.3676134791
 10
146.7290441527
 20
120.8013376888
 10
146.8669245973
 20
120.2471011054
 10
147.1888436958
 20
119.7649647217
 10
147.6599178299
 20
119.4071748029
 10
148.229097484
 20
119.2125041705
 10
148.8347030267
 20
119.2020477462
 10
149.4111088126
 20
119.3769389499
 10
149.8958510368
 20
119.7182258326
 10
150.2364012434
 20
120.1889241781
 10
150.3958557754
 20
120.7380273115
 10
150.3569348737
 20
121.3060297739
 10
150.1238555669
 20
121.8313813876
 10
149.7218771859
 20
122.2571513351
 10
149.1945586189
 20
122.5372018959
  0
LWPOLYLINE
  5
149
330
1F
100
AcDbEntity
  8
0
  6
HIDDEN
 62
     7
370
     0
100
AcDbPolyline
 90
       21
 70
   128
 43
0.0
 10
149.2492812707
 20
123.0151612978
 10
148.6350405052
 20
123.1273567971
 10
148.0139666259
 20
123.0556980442
 10
147.4468554392
 20
122.8071978982
 10
146.9892202898
 20
122.4061815735
 10
146.685855931
 20
121.8919043165
 10
146.5664594456
 20
121.314705975
 10
146.6427180006
 20
120.731088027
 10
146.9071661144
 20
120.1981777992
 10
147.3339186072
 20
119.7681409974
 10
147.8812010049
 20
119.4830724705
 10
148.4954427018
 20
119.3708765056
 10
149.1165156498
 20
119.4425357241
 10
149.6836268365
 20
119.6910358701
 10
150.1412629172
 20
120.0920517292
 10
150.4446263447
 20
120.6063289862
 10
150.5640228301
 20
121.1835273277
 10
150.487764275
 20
121.7671452757
 10
150.2233161613
 20
122.3000555035
 10
149.7965645998
 20
122.730092771
 10
149.2492812707
 20
123.0151612978
  0
LWPOLYLINE
  5
14A
330
1F
100
AcDbEntity
  8
0
  6
HIDDEN
 62
     7
370
     0
100
AcDbPolyline
 90
       20
 70
   128
 43
0.0
 10
149.1945586189
 20
122.7295879941
 10
148.5990439563
 20
122.8335692283
 10
147.9998664021
 20
122.7502149265
 10
147.4619559034
 20
122.4885579865
 10
147.0436030089
 20
122.0769515928
 10
146.7901435702
 20
121.5600005086
 10
146.7290441527
 20
120.993723787
 10
146.8669245973
 20
120.4394872036
 10
147.1888436958
 20
119.9573508199
 10
147.6599178299
 20
119.5995609011
 10
148.229097484
 20
119.4048902687
 10
148.8347030267
 20
119.3944338445
 10
149.4111088126
 20
119.5693255138
 10
149.8958510368
 20
119.9106119309
 10
150.2364012434
 20
120.3813102763
 10
150.3958557754
 20
120.9304134097
 10
150.3569348737
 20
121.4984158721
 10
150.1238555669
 20
122.0237684172
 10
149.7218771859
 20
122.4495383646
 10
149.1945586189
 20
122.7295879941
  0
LWPOLYLINE
  5
14B
330
1F
100
AcDbEntity
  8
0
  6
HIDDEN
 62
     7
370
     0
100
AcDbPolyline
 90
       21
 70
   128
 43
0.0
 10
149.2492812707
 20
123.207547396
 10
148.6350405052
 20
123.3197438266
 10
148.0139666259
 20
123.2480841424
 10
147.4468554392
 20
122.9995839964
 10
146.9892202898
 20
122.598568603
 10
146.685855931
 20
122.0842904147
 10
146.5664594456
 20
121.5070930045
 10
146.6427180006
 20
120.9234741252
 10
146.9071661144
 20
120.3905638974
 10
147.3339186072
 20
119.9605270956
 10
147.8812010049
 20
119.6754585687
 10
148.4954427018
 20
119.5632626038
 10
149.1165156498
 20
119.6349218223
 10
149.6836268365
 20
119.8834219683
 10
150.1412629172
 20
120.2844378274
 10
150.4446263447
 20
120.7987150844
 10
150.5640228301
 20
121.3759134259
 10
150.487764275
 20
121.9595313739
 10
150.2233161613
 20
122.4924416017
 10
149.7965645998
 20
122.9224788692
 10
149.2492812707
 20
123.207547396
  0
LWPOLYLINE
  5
14C
330
1F
100
AcDbEntity
  8
0
  6
HIDDEN
 62
     7
370
     0
100
AcDbPolyline
 90
       20
 70
   128
 43
0.0
 10
149.1945586189
 20
122.9219740923
 10
148.5990439563
 20
123.0259562578
 10
147.9998664021
 20
122.942601956
 10
147.4619559034
 20
122.6809440847
 10
147.0436030089
 20
122.269337691
 10
146.7901435702
 20
121.7523866068
 10
146.7290441527
 20
121.1861098852
 10
146.8669245973
 20
120.6318742331
 10
147.1888436958
 20
120.1497373838
 10
147.6599178299
 20
119.791947465
 10
148.229097484
 20
119.5972768325
 10
148.8347030267
 20
119.5868204083
 10
149.4111088126
 20
119.761711612
 10
149.8958510368
 20
120.1029984947
 10
150.2364012434
 20
120.5736963745
 10
150.3958557754
 20
121.1227995079
 10
150.3569348737
 20
121.6908029016
 10
150.1238555669
 20
122.2161545154
 10
149.7218771859
 20
122.6419244628
 10
149.1945586189
 20
122.9219740923
  0
LWPOLYLINE
  5
14D
330
1F
100
AcDbEntity
  8
0
  6
HIDDEN
 62
     7
370
     0
100
AcDbPolyline
 90
       21
 70
   128
 43
0.0
 10
149.2492812707
 20
123.3999334942
 10
148.6350405052
 20
123.5121299248
 10
148.0139666259
 20
123.4404702406
 10
147.4468554392
 20
123.1919700947
 10
146.9892202898
 20
122.7909547012
 10
146.685855931
 20
122.2766774442
 10
146.5664594456
 20
121.6994791027
 10
146.6427180006
 20
121.1158602234
 10
146.9071661144
 20
120.5829509269
 10
147.3339186072
 20
120.1529136594
 10
147.8812010049
 20
119.8678451326
 10
148.4954427018
 20
119.7556491677
 10
149.1165156498
 20
119.8273083862
 10
149.6836268365
 20
120.0758085322
 10
150.1412629172
 20
120.4768239256
 10
150.4446263447
 20
120.9911021139
 10
150.5640228301
 20
121.5682995241
 10
150.487764275
 20
122.1519184034
 10
150.2233161613
 20
122.6848286312
 10
149.7965645998
 20
123.1148649674
 10
149.2492812707
 20
123.3999334942
  0
LWPOLYLINE
  5
14E
330
1F
100
AcDbEntity
  8
0
  6
HIDDEN
 62
     7
370
     0
100
AcDbPolyline
 90
       20
 70
   128
 43
0.0
 10
149.1945586189
 20
123.1143601905
 10
148.5990439563
 20
123.218342356
 10
147.9998664021
 20
123.1349880542
 10
147.4619559034
 20
122.8733301829
 10
147.0436030089
 20
122.4617237892
 10
146.7901435702
 20
121.9447727051
 10
146.7290441527
 20
121.3784969147
 10
146.8669245973
 20
120.8242603313
 10
147.1888436958
 20
120.3421239477
 10
147.6599178299
 20
119.9843335632
 10
148.229097484
 20
119.7896629307
 10
148.8347030267
 20
119.7792065065
 10
149.4111088126
 20
119.9540981758
 10
149.8958510368
 20
120.2953845929
 10
150.2364012434
 20
120.766083404
 10
150.3958557754
 20
121.3151856061
 10
150.3569348737
 20
121.8831889998
 10
150.1238555669
 20
122.4085406136
 10
149.7218771859
 20
122.834310561
 10
149.1945586189
 20
123.1143601905
  0
LWPOLYLINE
  5
14F
330
1F
100
AcDbEntity
  8
0
  6
HIDDEN
 62
     7
370
     0
100
AcDbPolyline
 90
       21
 70
   128
 43
0.0
 10
149.2492812707
 20
123.5367419865
 10
148.6350405052
 20
123.6489374857
 10
148.0139666259
 20
123.5772787329
 10
147.4468554392
 20
123.3287785869
 10
146.9892202898
 20
122.9277622621
 10
146.685855931
 20
122.4134850051
 10
146.5664594456
 20
121.8362866636
 10
146.6427180006
 20
121.2526687156
 10
146.9071661144
 20
120.7197584879
 10
147.3339186072
 20
120.289721686
 10
147.8812010049
 20
120.0046531591
 10
148.4954427018
 20
119.8924571942
 10
149.1165156498
 20
119.9641164128
 10
149.6836268365
 20
120.2126165587
 10
150.1412629172
 20
120.6136324178
 10
150.4446263447
 20
121.1279096749
 10
150.5640228301
 20
121.7051080163
 10
150.487764275
 20
122.2887259643
 10
150.2233161613
 20
122.8216361921
 10
149.7965645998
 20
123.2516734596
 10
149.2492812707
 20
123.5367419865
  0
LWPOLYLINE
  5
150
330
1F
100
AcDbEntity
  8
0
  6
HIDDEN
 62
     7
370
     0
100
AcDbPolyline
 90
       20
 70
   128
 43
0.0
 10
149.2150793805
 20
123.4826414581
 10
148.6001457109
 20
123.5900145691
 10
147.9814299404
 20
123.5039417367
 10
147.4259789124
 20
123.2337520193
 10
146.9939849361
 20
122.8087234046
 10
146.7322600096
 20
122.2749153819
 10
146.6691675618
 20
121.6901733275
 10
146.8115444317
 20
121.1178644296
 10
147.1439613982
 20
120.6200054582
 10
147.6303958356
 20
120.2505488615
 10
148.2181358173
 20
120.0495298687
 10
148.8434900551
 20
120.0387325805
 10
149.438690862
 20
120.2193272035
 10
149.9392404243
 20
120.5717424597
 10
150.2908957213
 20
121.0577903982
 10
150.4555498272
 20
121.6247982081
 10
150.4153595328
 20
122.2113228138
 10
150.1746806338
 20
122.7538061064
 10
149.7595929562
 20
123.1934602108
 10
149.2150793805
 20
123.4826414581
  0
LWPOLYLINE
  5
151
330
1F
100
AcDbEntity
  8
0
  6
HIDDEN
 62
     7
370
     0
100
AcDbPolyline
 90
       14
 70
   128
 43
0.0
 10
146.5711486548
 20
103.0888675447
 10
146.5664594456
 20
103.2987951036
 10
146.685855931
 20
103.8759934451
 10
146.9892202898
 20
104.3902707022
 10
147.4468554392
 20
104.7912865613
 10
148.0139666259
 20
105.0397867072
 10
148.6350405052
 20
105.1114459257
 10
149.2492812707
 20
104.9992499608
 10
149.7965645998
 20
104.714181434
 10
150.2233161613
 20
104.2841446321
 10
150.487764275
 20
103.7512344044
 10
150.5640228301
 20
103.1676164564
 10
150.4446263447
 20
102.5904181149
 10
150.3739659696
 20
102.4311489161
  0
ARC
  5
152
330
1F
100
AcDbEntity
  8
0
  6
HIDDEN
 62
     7
370
     0
100
AcDbCircle
 10
148.5468034533
 20
103.1520727318
 30
0.0
 40
1.885927303716509
100
AcDbArc
 50
340.8867909806
 51
160.9916582474
  0
ARC
  5
153
330
1F
100
AcDbEntity
  8
0
  6
HIDDEN
 62
     7
370
     0
100
AcDbCircle
 10
148.6181885863
 20
103.1678659949
 30
0.0
 40
1.442105271893373
100
AcDbArc
 50
353.6349239512
 51
92.592374483
  0
LWPOLYLINE
  5
154
330
1F
100
AcDbEntity
  8
0
  6
HIDDEN
 62
     7
370
     0
100
AcDbPolyline
 90
       21
 70
   128
 43
0.0
 10
147.8812010049
 20
101.6039696257
 10
147.3339186072
 20
101.8890381526
 10
146.9071661144
 20
102.3190744888
 10
146.6427180006
 20
102.8519847166
 10
146.5664594456
 20
103.4356035959
 10
146.685855931
 20
104.0128010061
 10
146.9892202898
 20
104.5270791944
 10
147.4468554392
 20
104.9280945878
 10
148.0139666259
 20
105.1765947338
 10
148.6350405052
 20
105.2482539523
 10
149.2492812707
 20
105.1360579874
 10
149.7965645998
 20
104.8509894606
 10
150.2233161613
 20
104.4209521931
 10
150.487764275
 20
103.8880428966
 10
150.5640228301
 20
103.3044240173
 10
150.4446263447
 20
102.7272256758
 10
150.1412629172
 20
102.2129484188
 10
149.6836268365
 20
101.8119330253
 10
149.1165156498
 20
101.5634328794
 10
148.4954427018
 20
101.4917731952
 10
147.8812010049
 20
101.6039696257
  0
LWPOLYLINE
  5
155
330
1F
100
AcDbEntity
  8
0
  6
HIDDEN
 62
     7
370
     0
100
AcDbPolyline
 90
       18
 70
   128
 43
0.0
 10
148.0522113874
 20
102.8779490586
 10
147.5776708707
 20
103.1415431496
 10
147.2365069225
 20
103.5484221499
 10
147.0747967272
 20
104.0436370965
 10
147.114378868
 20
104.5603041273
 10
147.3499084845
 20
105.0286448296
 10
147.7495743915
 20
105.3854084309
 10
148.2594017892
 20
105.5824110951
 10
148.8105342745
 20
105.5930467989
 10
149.3285386845
 20
105.4158789772
 10
149.7434549987
 20
105.0748351697
 10
149.9992474004
 20
104.6159748655
 10
150.0613694101
 20
104.1012710627
 10
149.9214307427
 20
103.60023535
 10
149.5983316585
 20
103.1805366944
 10
149.1357074141
 20
102.8988581817
 10
148.5960395097
 20
102.7932406139
 10
148.0522113874
 20
102.8779490586
  0
LWPOLYLINE
  5
156
330
1F
100
AcDbEntity
  8
0
  6
HIDDEN
 62
     7
370
     0
100
AcDbPolyline
 90
       21
 70
   128
 43
0.0
 10
147.8812010049
 20
101.796355724
 10
147.3339186072
 20
102.0814242508
 10
146.9071661144
 20
102.5114615183
 10
146.6427180006
 20
103.0443717461
 10
146.5664594456
 20
103.6279896941
 10
146.685855931
 20
104.2051880356
 10
146.9892202898
 20
104.7194652926
 10
147.4468554392
 20
105.1204811517
 10
148.0139666259
 20
105.3689812977
 10
148.6350405052
 20
105.4406405162
 10
149.2492812707
 20
105.3284445513
 10
149.7965645998
 20
105.0433760244
 10
150.2233161613
 20
104.6133392226
 10
150.487764275
 20
104.0804289948
 10
150.5640228301
 20
103.4968101155
 10
150.4446263447
 20
102.9196127053
 10
150.1412629172
 20
102.405334517
 10
149.6836268365
 20
102.0043191235
 10
149.1165156498
 20
101.7558189776
 10
148.4954427018
 20
101.6841592934
 10
147.8812010049
 20
101.796355724
  0
LWPOLYLINE
  5
157
330
1F
100
AcDbEntity
  8
0
  6
HIDDEN
 62
     7
370
     0
100
AcDbPolyline
 90
       20
 70
   128
 43
0.0
 10
147.9359245881
 20
101.8895429294
 10
147.408606021
 20
102.169592559
 10
147.0066267087
 20
102.5953625064
 10
146.7735483333
 20
103.1207141202
 10
146.7346265002
 20
103.6887175139
 10
146.8940810322
 20
104.237819716
 10
147.2346312388
 20
104.7085185271
 10
147.7193743944
 20
105.0498049442
 10
148.2957801803
 20
105.2246966135
 10
148.901385723
 20
105.2142401893
 10
149.4705653771
 20
105.0195695568
 10
149.9416385799
 20
104.6617791723
 10
150.2635586097
 20
104.1796427887
 10
150.4014390543
 20
103.6254062053
 10
150.3403387054
 20
103.0591304149
 10
150.0868792667
 20
102.5421793308
 10
149.6685273036
 20
102.130572937
 10
149.1306168049
 20
101.8689150657
 10
148.5314392506
 20
101.785560764
 10
147.9359245881
 20
101.8895429294
  0
LWPOLYLINE
  5
158
330
1F
100
AcDbEntity
  8
0
  6
HIDDEN
 62
     7
370
     0
100
AcDbPolyline
 90
       21
 70
   128
 43
0.0
 10
147.8812010049
 20
101.9887418222
 10
147.3339186072
 20
102.273810349
 10
146.9071661144
 20
102.7038476165
 10
146.6427180006
 20
103.2367578443
 10
146.5664594456
 20
103.8203757923
 10
146.685855931
 20
104.3975741338
 10
146.9892202898
 20
104.9118513908
 10
147.4468554392
 20
105.3128672499
 10
148.0139666259
 20
105.5613673959
 10
148.6350405052
 20
105.6330266144
 10
149.2492812707
 20
105.5208306495
 10
149.7965645998
 20
105.2357621226
 10
150.2233161613
 20
104.8057253208
 10
150.487764275
 20
104.272815093
 10
150.5640228301
 20
103.689197145
 10
150.4446263447
 20
103.1119988035
 10
150.1412629172
 20
102.5977215465
 10
149.6836268365
 20
102.1967052217
 10
149.1165156498
 20
101.9482050758
 10
148.4954427018
 20
101.8765463229
 10
147.8812010049
 20
101.9887418222
  0
LWPOLYLINE
  5
159
330
1F
100
AcDbEntity
  8
0
  6
HIDDEN
 62
     7
370
     0
100
AcDbPolyline
 90
       20
 70
   128
 43
0.0
 10
147.9359245881
 20
102.0819290277
 10
147.408606021
 20
102.3619786572
 10
147.0066267087
 20
102.7877486046
 10
146.7735483333
 20
103.3131002184
 10
146.7346265002
 20
103.8811036121
 10
146.8940810322
 20
104.4302067455
 10
147.2346312388
 20
104.9009046253
 10
147.7193743944
 20
105.242191508
 10
148.2957801803
 20
105.4170827117
 10
148.901385723
 20
105.4066262875
 10
149.4705653771
 20
105.211955655
 10
149.9416385799
 20
104.8541657362
 10
150.2635586097
 20
104.3720288869
 10
150.4014390543
 20
103.8177932348
 10
150.3403387054
 20
103.2515165131
 10
150.0868792667
 20
102.734565429
 10
149.6685273036
 20
102.3229590353
 10
149.1306168049
 20
102.0613011639
 10
148.5314392506
 20
101.9779468622
 10
147.9359245881
 20
102.0819290277
  0
LWPOLYLINE
  5
15A
330
1F
100
AcDbEntity
  8
0
  6
HIDDEN
 62
     7
370
     0
100
AcDbPolyline
 90
       21
 70
   128
 43
0.0
 10
147.8812010049
 20
102.1811279204
 10
147.3339186072
 20
102.4661973786
 10
146.9071661144
 20
102.8962337147
 10
146.6427180006
 20
103.4291439425
 10
146.5664594456
 20
104.0127618905
 10
146.685855931
 20
104.589960232
 10
146.9892202898
 20
105.1042379547
 10
147.4468554392
 20
105.5052538138
 10
148.0139666259
 20
105.7537539597
 10
148.6350405052
 20
105.8254131783
 10
149.2492812707
 20
105.7132172134
 10
149.7965645998
 20
105.4281486865
 10
150.2233161613
 20
104.998111419
 10
150.487764275
 20
104.4652011912
 10
150.5640228301
 20
103.8815832432
 10
150.4446263447
 20
103.3043849017
 10
150.1412629172
 20
102.7901076447
 10
149.6836268365
 20
102.38909132
 10
149.1165156498
 20
102.1405921053
 10
148.4954427018
 20
102.0689324211
 10
147.8812010049
 20
102.1811279204
  0
LWPOLYLINE
  5
15B
330
1F
100
AcDbEntity
  8
0
  6
HIDDEN
 62
     7
370
     0
100
AcDbPolyline
 90
       20
 70
   128
 43
0.0
 10
147.9359245881
 20
102.2743151259
 10
147.408606021
 20
102.5543647554
 10
147.0066267087
 20
102.9801347028
 10
146.7735483333
 20
103.5054872479
 10
146.7346265002
 20
104.0734897103
 10
146.8940810322
 20
104.6225928437
 10
147.2346312388
 20
105.0932911891
 10
147.7193743944
 20
105.4345776062
 10
148.2957801803
 20
105.6094692755
 10
148.901385723
 20
105.5990128513
 10
149.4705653771
 20
105.4043422189
 10
149.9416385799
 20
105.0465523001
 10
150.2635586097
 20
104.5644159164
 10
150.4014390543
 20
104.010179333
 10
150.3403387054
 20
103.4439026113
 10
150.0868792667
 20
102.9269515272
 10
149.6685273036
 20
102.5153451335
 10
149.1306168049
 20
102.2536881935
 10
148.5314392506
 20
102.1703338917
 10
147.9359245881
 20
102.2743151259
  0
LWPOLYLINE
  5
15C
330
1F
100
AcDbEntity
  8
0
  6
HIDDEN
 62
     7
370
     0
100
AcDbPolyline
 90
       21
 70
   128
 43
0.0
 10
147.8812010049
 20
102.3735149499
 10
147.3339186072
 20
102.6585834768
 10
146.9071661144
 20
103.0886198129
 10
146.6427180006
 20
103.6215300407
 10
146.5664594456
 20
104.20514892
 10
146.685855931
 20
104.7823467959
 10
146.9892202898
 20
105.2966240529
 10
147.4468554392
 20
105.697639912
 10
148.0139666259
 20
105.946140058
 10
148.6350405052
 20
106.0177992765
 10
149.2492812707
 20
105.9056033116
 10
149.7965645998
 20
105.6205347847
 10
150.2233161613
 20
105.1904979829
 10
150.487764275
 20
104.6575882207
 10
150.5640228301
 20
104.0739693414
 10
150.4446263447
 20
103.4967709999
 10
150.1412629172
 20
102.9824937429
 10
149.6836268365
 20
102.5814783495
 10
149.1165156498
 20
102.3329782035
 10
148.4954427018
 20
102.2613185193
 10
147.8812010049
 20
102.3735149499
  0
LWPOLYLINE
  5
15D
330
1F
100
AcDbEntity
  8
0
  6
HIDDEN
 62
     7
370
     0
100
AcDbPolyline
 90
       20
 70
   128
 43
0.0
 10
147.9359245881
 20
102.4667012241
 10
147.408606021
 20
102.7467517849
 10
147.0066267087
 20
103.1725217324
 10
146.7735483333
 20
103.6978733461
 10
146.7346265002
 20
104.2658758085
 10
146.8940810322
 20
104.8149789419
 10
147.2346312388
 20
105.2856772873
 10
147.7193743944
 20
105.6269641701
 10
148.2957801803
 20
105.8018553737
 10
148.901385723
 20
105.7913989495
 10
149.4705653771
 20
105.5967283171
 10
149.9416385799
 20
105.2389383983
 10
150.2635586097
 20
104.7568020146
 10
150.4014390543
 20
104.2025654312
 10
150.3403387054
 20
103.6362896409
 10
150.0868792667
 20
103.1193385567
 10
149.6685273036
 20
102.707732163
 10
149.1306168049
 20
102.4460742917
 10
148.5314392506
 20
102.3627199899
 10
147.9359245881
 20
102.4667012241
  0
LWPOLYLINE
  5
15E
330
1F
100
AcDbEntity
  8
0
  6
HIDDEN
 62
     7
370
     0
100
AcDbPolyline
 90
       21
 70
   128
 43
0.0
 10
147.8812010049
 20
102.6984338384
 10
147.3339186072
 20
102.9835023653
 10
146.9071661144
 20
103.4135396328
 10
146.6427180006
 20
103.9464498605
 10
146.5664594456
 20
104.5300678085
 10
146.685855931
 20
105.1072656844
 10
146.9892202898
 20
105.6215434071
 10
147.4468554392
 20
106.0225592662
 10
148.0139666259
 20
106.2710594121
 10
148.6350405052
 20
106.3427186306
 10
149.2492812707
 20
106.2305226657
 10
149.7965645998
 20
105.9454541389
 10
150.2233161613
 20
105.5154168714
 10
150.487764275
 20
104.9825071093
 10
150.5640228301
 20
104.3988882299
 10
150.4446263447
 20
103.8216908198
 10
150.1412629172
 20
103.3074135627
 10
149.6836268365
 20
102.906397238
 10
149.1165156498
 20
102.657897092
 10
148.4954427018
 20
102.5862374078
 10
147.8812010049
 20
102.6984338384
  0
LWPOLYLINE
  5
15F
330
1F
100
AcDbEntity
  8
0
  6
HIDDEN
 62
     7
370
     0
100
AcDbPolyline
 90
       18
 70
   128
 43
0.0
 10
148.0589197039
 20
103.259871408
 10
147.5905845895
 20
103.520018674
 10
147.2538826078
 20
103.9215779599
 10
147.0942865148
 20
104.4103155579
 10
147.1333517715
 20
104.9202267747
 10
147.3658005729
 20
105.3824435655
 10
147.7602408289
 20
105.7345417064
 10
148.2634008884
 20
105.9289683323
 10
148.8073267996
 20
105.9394648034
 10
149.3185567691
 20
105.7646136466
 10
149.7280481293
 20
105.4280294772
 10
149.9804952204
 20
104.97517015
 10
150.0418051168
 20
104.4671960842
 10
149.9036964982
 20
103.9727131572
 10
149.5848218932
 20
103.5585027855
 10
149.1282475203
 20
103.2805067222
 10
148.595636247
 20
103.176271237
 10
148.0589197039
 20
103.259871408
  0
LWPOLYLINE
  5
160
330
1F
100
AcDbEntity
  8
0
  6
HIDDEN
 62
     7
370
     0
100
AcDbPolyline
 90
       21
 70
   128
 43
0.0
 10
143.2587988696
 20
122.1407928239
 10
143.6111130773
 20
122.4250790398
 10
143.9673458248
 20
122.5274230089
 10
144.2926279291
 20
122.4378092881
 10
144.5551165401
 20
122.1650072109
 10
144.729119262
 20
121.735722452
 10
144.7976022049
 20
121.1919753548
 10
144.7538617089
 20
120.5869919356
 10
144.6021809264
 20
119.9799917374
 10
144.3574060708
 20
119.4303931404
 10
144.0434972777
 20
118.9919944588
 10
143.6911835357
 20
118.7077087086
 10
143.3349498569
 20
118.6053638082
 10
143.0096682183
 20
118.6949784603
 10
142.7471791416
 20
118.9677800719
 10
142.5731768853
 20
119.3970652964
 10
142.5046939425
 20
119.9408123936
 10
142.5484339728
 20
120.5457958128
 10
142.7001152209
 20
121.1527955454
 10
142.9448900766
 20
121.7023941424
 10
143.2587988696
 20
122.1407928239
  0
LWPOLYLINE
  5
161
330
1F
100
AcDbEntity
  8
0
  6
HIDDEN
 62
     7
370
     0
100
AcDbPolyline
 90
       17
 70
   128
 43
0.0
 10
144.0202933758
 20
121.4032626446
 10
144.2967862844
 20
121.6080362644
 10
144.5685173407
 20
121.6318306249
 10
144.7941181272
 20
121.4710219499
 10
144.9392442613
 20
121.1500928473
 10
144.981800115
 20
120.7179014306
 10
144.9153083398
 20
120.2402447086
 10
144.7498905494
 20
119.7898422103
 10
144.5107306375
 20
119.4352630261
 10
144.2342386603
 20
119.2304889407
 10
143.962507604
 20
119.2066950459
 10
143.7369058862
 20
119.3675032552
 10
143.591779752
 20
119.6884323578
 10
143.5492238983
 20
120.1206237744
 10
143.6157156735
 20
120.5982804965
 10
143.7811334639
 20
121.0486829948
 10
144.0202933758
 20
121.4032626446
  0
LWPOLYLINE
  5
162
330
1F
100
AcDbEntity
  8
0
  6
HIDDEN
 62
     7
370
     0
100
AcDbPolyline
 90
       21
 70
   128
 43
0.0
 10
139.9618480376
 20
122.9303634461
 10
140.314162711
 20
123.2146487307
 10
140.6703959241
 20
123.316993631
 10
140.9956770971
 20
123.2273789789
 10
141.2581661738
 20
122.954577833
 10
141.43216843
 20
122.5252921428
 10
141.5006513729
 20
121.9815450456
 10
141.4569118082
 20
121.3765616264
 10
141.3052305601
 20
120.7695618939
 10
141.0604552388
 20
120.2199637625
 10
140.7465469114
 20
119.7815650809
 10
140.3942327037
 20
119.497278865
 10
140.0379994906
 20
119.3949344303
 10
139.7127178519
 20
119.4845490824
 10
139.4502287752
 20
119.757350694
 10
139.276226519
 20
120.1866359185
 10
139.2077435761
 20
120.7303830158
 10
139.2514833737
 20
121.335366435
 10
139.4031646218
 20
121.9423661675
 10
139.6479397103
 20
122.4919647645
 10
139.9618480376
 20
122.9303634461
  0
LINE
  5
163
330
1F
100
AcDbEntity
  8
0
  6
HIDDEN
 62
     7
370
     0
100
AcDbLine
 10
141.5653848111
 20
120.7795251828
 30
0.0
 11
141.9911091238
 21
121.818679079
 31
0.0
  0
LINE
  5
164
330
1F
100
AcDbEntity
  8
0
  6
HIDDEN
 62
     7
370
     0
100
AcDbLine
 10
141.5653848111
 20
120.7795251828
 30
0.0
 11
139.5175047241
 21
121.2699615132
 31
0.0
  0
LINE
  5
165
330
1F
100
AcDbEntity
  8
0
  6
HIDDEN
 62
     7
370
     0
100
AcDbLine
 10
141.5653848111
 20
120.7795251828
 30
0.0
 11
141.7919080726
 21
119.8705450367
 31
0.0
  0
LINE
  5
166
330
1F
100
AcDbEntity
  8
0
  6
HIDDEN
 62
     7
370
     0
100
AcDbLine
 10
141.9911091238
 20
121.818679079
 30
0.0
 11
139.9432290367
 21
122.3091163408
 31
0.0
  0
LINE
  5
167
330
1F
100
AcDbEntity
  8
0
  6
HIDDEN
 62
     7
370
     0
100
AcDbLine
 10
142.6433557666
 20
121.9488537606
 30
0.0
 11
141.9911091238
 21
121.818679079
 31
0.0
  0
LINE
  5
168
330
1F
100
AcDbEntity
  8
0
  6
HIDDEN
 62
     7
370
     0
100
AcDbLine
 10
140.5954756796
 20
122.439290091
 30
0.0
 11
139.9432290367
 21
122.3091163408
 31
0.0
  0
LINE
  5
169
330
1F
100
AcDbEntity
  8
0
  6
HIDDEN
 62
     7
370
     0
100
AcDbLine
 10
139.5175047241
 20
121.2699615132
 30
0.0
 11
139.7440279856
 21
120.3609822985
 31
0.0
  0
LWPOLYLINE
  5
16A
330
1F
100
AcDbEntity
  8
0
  6
HIDDEN
 62
     7
370
     0
100
AcDbPolyline
 90
       19
 70
   128
 43
0.0
 10
139.8539105452
 20
122.6675274517
 10
140.1697518326
 20
122.9130408462
 10
140.4855931199
 20
122.9760764833
 10
140.7633391231
 20
122.849029183
 10
140.9694901689
 20
122.5472247895
 10
141.0791804104
 20
122.1070649769
 10
141.0791804104
 20
121.581637926
 10
140.9694901689
 20
121.034320138
 10
140.7633391231
 20
120.5311246883
 10
140.4855931199
 20
120.1327444721
 10
140.1697518326
 20
119.8872310776
 10
139.8539105452
 20
119.8241959061
 10
139.5761645421
 20
119.9512427408
 10
139.3700137291
 20
120.2530471343
 10
139.2603232547
 20
120.6932074126
 10
139.2603232547
 20
121.2186344635
 10
139.3700137291
 20
121.7659522515
 10
139.5761645421
 20
122.2691477012
 10
139.8539105452
 20
122.6675274517
  0
LINE
  5
16B
330
1F
100
AcDbEntity
  8
0
  6
HIDDEN
 62
     7
370
     0
100
AcDbLine
 10
139.5175047241
 20
121.2699615132
 30
0.0
 11
139.9432290367
 21
122.3091163408
 31
0.0
  0
LINE
  5
16C
330
1F
100
AcDbEntity
  8
0
  6
HIDDEN
 62
     7
370
     0
100
AcDbLine
 10
142.4441551811
 20
120.0007197183
 30
0.0
 11
140.3962750941
 21
120.4911560487
 31
0.0
  0
LINE
  5
16D
330
1F
100
AcDbEntity
  8
0
  6
HIDDEN
 62
     7
370
     0
100
AcDbLine
 10
139.7440279856
 20
120.3609822985
 30
0.0
 11
140.3962750941
 21
120.4911560487
 31
0.0
  0
LINE
  5
16E
330
1F
100
AcDbEntity
  8
0
  6
HIDDEN
 62
     7
370
     0
100
AcDbLine
 10
141.7919080726
 20
119.8705450367
 30
0.0
 11
139.7440279856
 21
120.3609822985
 31
0.0
  0
LINE
  5
16F
330
1F
100
AcDbEntity
  8
0
  6
HIDDEN
 62
     7
370
     0
100
AcDbLine
 10
141.7919080726
 20
119.8705450367
 30
0.0
 11
142.4441551811
 21
120.0007197183
 31
0.0
  0
LINE
  5
170
330
1F
100
AcDbEntity
  8
0
  6
HIDDEN
 62
     7
370
     0
100
AcDbLine
 10
142.8698790281
 20
121.0398736145
 30
0.0
 11
140.8219989411
 21
121.530309945
 31
0.0
  0
LINE
  5
171
330
1F
100
AcDbEntity
  8
0
  6
HIDDEN
 62
     7
370
     0
100
AcDbLine
 10
140.5954756796
 20
122.439290091
 30
0.0
 11
140.8219989411
 21
121.530309945
 31
0.0
  0
LINE
  5
172
330
1F
100
AcDbEntity
  8
0
  6
HIDDEN
 62
     7
370
     0
100
AcDbLine
 10
142.6433557666
 20
121.9488537606
 30
0.0
 11
140.5954756796
 21
122.439290091
 31
0.0
  0
LINE
  5
173
330
1F
100
AcDbEntity
  8
0
  6
HIDDEN
 62
     7
370
     0
100
AcDbLine
 10
142.6433557666
 20
121.9488537606
 30
0.0
 11
142.8698790281
 21
121.0398736145
 31
0.0
  0
LINE
  5
174
330
1F
100
AcDbEntity
  8
0
  6
HIDDEN
 62
     7
370
     0
100
AcDbLine
 10
140.8219989411
 20
121.530309945
 30
0.0
 11
140.3962750941
 21
120.4911560487
 31
0.0
  0
LINE
  5
175
330
1F
100
AcDbEntity
  8
0
  6
HIDDEN
 62
     7
370
     0
100
AcDbLine
 10
142.8698790281
 20
121.0398736145
 30
0.0
 11
142.4441551811
 21
120.0007197183
 31
0.0
  0
LWPOLYLINE
  5
176
330
1F
100
AcDbEntity
  8
0
  6
HIDDEN
 62
     7
370
     0
100
AcDbPolyline
 90
       19
 70
   128
 43
0.0
 10
140.4855931199
 20
102.0278266366
 10
140.7633391231
 20
102.154873937
 10
140.9694901689
 20
102.4566783305
 10
141.0791804104
 20
102.8968381431
 10
141.0791804104
 20
103.422265194
 10
140.9694901689
 20
103.969582982
 10
140.7633391231
 20
104.4727784317
 10
140.4855931199
 20
104.8711586479
 10
140.1697518326
 20
105.1166720424
 10
139.8539105452
 20
105.1797072139
 10
139.5761645421
 20
105.0526603792
 10
139.3700137291
 20
104.7508559856
 10
139.2603232547
 20
104.3106957074
 10
139.2603232547
 20
103.7852686565
 10
139.3700137291
 20
103.2379508685
 10
139.5761645421
 20
102.7347554188
 10
139.8539105452
 20
102.3363756683
 10
140.1697518326
 20
102.0908622738
 10
140.4855931199
 20
102.0278266366
  0
LWPOLYLINE
  5
177
330
1F
100
AcDbEntity
  8
0
  6
HIDDEN
 62
     7
370
     0
100
AcDbPolyline
 90
       21
 70
   128
 43
0.0
 10
140.7465469114
 20
101.6902492117
 10
141.0604552388
 20
101.8219875838
 10
141.3052305601
 20
102.1324625905
 10
141.4569118082
 20
102.5912833135
 10
141.5006513729
 20
103.1535367217
 10
141.43216843
 20
103.7641853761
 10
141.2581661738
 20
104.3634560626
 10
140.9956770971
 20
104.8926857035
 10
140.6703959241
 20
105.3000713434
 10
140.314162711
 20
105.5457346808
 10
139.9618480376
 20
105.6056285012
 10
139.6479397103
 20
105.4738901291
 10
139.4031646218
 20
105.1634151224
 10
139.2514833737
 20
104.7045943994
 10
139.2077435761
 20
104.1423414569
 10
139.276226519
 20
103.5316918712
 10
139.4502287752
 20
102.932422116
 10
139.7127178519
 20
102.4031924751
 10
140.0379994906
 20
101.9958068352
 10
140.3942327037
 20
101.7501434978
 10
140.7465469114
 20
101.6902492117
  0
LWPOLYLINE
  5
178
330
1F
100
AcDbEntity
  8
0
  6
HIDDEN
 62
     7
370
     0
100
AcDbPolyline
 90
       21
 70
   128
 43
0.0
 10
144.0434972777
 20
102.4798198338
 10
144.3574060708
 20
102.611558206
 10
144.6021809264
 20
102.9220332127
 10
144.7538617089
 20
103.3808539357
 10
144.7976022049
 20
103.9431073438
 10
144.729119262
 20
104.5537559982
 10
144.5551165401
 20
105.1530262191
 10
144.2926279291
 20
105.6822563257
 10
143.9673458248
 20
106.0896419655
 10
143.6111130773
 20
106.335305303
 10
143.2587988696
 20
106.3951991234
 10
142.9448900766
 20
106.2634607512
 10
142.7001152209
 20
105.9529852789
 10
142.5484339728
 20
105.4941650215
 10
142.5046939425
 20
104.9319116134
 10
142.5731768853
 20
104.3212624933
 10
142.7471791416
 20
103.7219927382
 10
143.0096682183
 20
103.1927630972
 10
143.3349498569
 20
102.7853774574
 10
143.6911835357
 20
102.5397141199
 10
144.0434972777
 20
102.4798198338
  0
LINE
  5
179
330
1F
100
AcDbEntity
  8
0
  6
HIDDEN
 62
     7
370
     0
100
AcDbLine
 10
140.5954756796
 20
104.2270266186
 30
0.0
 11
139.9432290367
 21
104.7340395596
 31
0.0
  0
LINE
  5
17A
330
1F
100
AcDbEntity
  8
0
  6
HIDDEN
 62
     7
370
     0
100
AcDbLine
 10
139.5175047241
 20
104.1107798662
 30
0.0
 11
139.9432290367
 21
104.7340395596
 31
0.0
  0
LINE
  5
17B
330
1F
100
AcDbEntity
  8
0
  6
HIDDEN
 62
     7
370
     0
100
AcDbLine
 10
139.7440279856
 20
102.9805072319
 30
0.0
 11
139.5175047241
 21
104.1107798662
 31
0.0
  0
LINE
  5
17C
330
1F
100
AcDbEntity
  8
0
  6
HIDDEN
 62
     7
370
     0
100
AcDbLine
 10
139.7440279856
 20
102.9805072319
 30
0.0
 11
140.3962750941
 21
102.4734942909
 31
0.0
  0
LINE
  5
17D
330
1F
100
AcDbEntity
  8
0
  6
HIDDEN
 62
     7
370
     0
100
AcDbLine
 10
140.8219989411
 20
103.0967539843
 30
0.0
 11
140.3962750941
 21
102.4734942909
 31
0.0
  0
LINE
  5
17E
330
1F
100
AcDbEntity
  8
0
  6
HIDDEN
 62
     7
370
     0
100
AcDbLine
 10
140.8219989411
 20
103.0967539843
 30
0.0
 11
140.5954756796
 21
104.2270266186
 31
0.0
  0
LINE
  5
17F
330
1F
100
AcDbEntity
  8
0
  6
HIDDEN
 62
     7
370
     0
100
AcDbLine
 10
142.6433557666
 20
104.7174634147
 30
0.0
 11
140.5954756796
 21
104.2270266186
 31
0.0
  0
LINE
  5
180
330
1F
100
AcDbEntity
  8
0
  6
HIDDEN
 62
     7
370
     0
100
AcDbLine
 10
142.8698790281
 20
103.5871912461
 30
0.0
 11
140.8219989411
 21
103.0967539843
 31
0.0
  0
LINE
  5
181
330
1F
100
AcDbEntity
  8
0
  6
HIDDEN
 62
     7
370
     0
100
AcDbLine
 10
141.5653848111
 20
104.6012161966
 30
0.0
 11
141.9911091238
 21
105.2244763557
 31
0.0
  0
LINE
  5
182
330
1F
100
AcDbEntity
  8
0
  6
HIDDEN
 62
     7
370
     0
100
AcDbLine
 10
141.5653848111
 20
104.6012161966
 30
0.0
 11
139.5175047241
 21
104.1107798662
 31
0.0
  0
LINE
  5
183
330
1F
100
AcDbEntity
  8
0
  6
HIDDEN
 62
     7
370
     0
100
AcDbLine
 10
141.9911091238
 20
105.2244763557
 30
0.0
 11
139.9432290367
 21
104.7340395596
 31
0.0
  0
LINE
  5
184
330
1F
100
AcDbEntity
  8
0
  6
HIDDEN
 62
     7
370
     0
100
AcDbLine
 10
141.7919080726
 20
103.4709435623
 30
0.0
 11
139.7440279856
 21
102.9805072319
 31
0.0
  0
LINE
  5
185
330
1F
100
AcDbEntity
  8
0
  6
HIDDEN
 62
     7
370
     0
100
AcDbLine
 10
141.7919080726
 20
103.4709435623
 30
0.0
 11
142.4441551811
 21
102.9639315527
 31
0.0
  0
LINE
  5
186
330
1F
100
AcDbEntity
  8
0
  6
HIDDEN
 62
     7
370
     0
100
AcDbLine
 10
142.4441551811
 20
102.9639315527
 30
0.0
 11
140.3962750941
 21
102.4734942909
 31
0.0
  0
LINE
  5
187
330
1F
100
AcDbEntity
  8
0
  6
HIDDEN
 62
     7
370
     0
100
AcDbLine
 10
141.7919080726
 20
103.4709435623
 30
0.0
 11
141.5653848111
 21
104.6012161966
 31
0.0
  0
LINE
  5
188
330
1F
100
AcDbEntity
  8
0
  6
HIDDEN
 62
     7
370
     0
100
AcDbLine
 10
142.8698790281
 20
103.5871912461
 30
0.0
 11
142.4441551811
 21
102.9639315527
 31
0.0
  0
LINE
  5
189
330
1F
100
AcDbEntity
  8
0
  6
HIDDEN
 62
     7
370
     0
100
AcDbLine
 10
142.8698790281
 20
103.5871912461
 30
0.0
 11
142.6433557666
 21
104.7174634147
 31
0.0
  0
LINE
  5
18A
330
1F
100
AcDbEntity
  8
0
  6
HIDDEN
 62
     7
370
     0
100
AcDbLine
 10
142.6433557666
 20
104.7174634147
 30
0.0
 11
141.9911091238
 21
105.2244763557
 31
0.0
  0
LWPOLYLINE
  5
18B
330
1F
100
AcDbEntity
  8
0
  6
HIDDEN
 62
     7
370
     0
100
AcDbPolyline
 90
       17
 70
   128
 43
0.0
 10
144.5107306375
 20
103.3610847514
 10
144.7498905494
 20
103.4820253696
 10
144.9153083398
 20
103.7708303627
 10
144.981800115
 20
104.1835291978
 10
144.9392442613
 20
104.6572948541
 10
144.7941181272
 20
105.1199987266
 10
144.5685173407
 20
105.5011997666
 10
144.2967862844
 20
105.7428626079
 10
144.0202933758
 20
105.8081962835
 10
143.7811334639
 20
105.6872551996
 10
143.6157156735
 20
105.3984511379
 10
143.5492238983
 20
104.9857513714
 10
143.591779752
 20
104.5119861808
 10
143.7369058862
 20
104.0492818426
 10
143.962507604
 20
103.6680812683
 10
144.2342386603
 20
103.4264188927
 10
144.5107306375
 20
103.3610847514
  0
LINE
  5
18C
330
1F
100
AcDbEntity
  8
0
  6
HIDDEN
 62
     7
370
     0
100
AcDbLine
 10
150.565241
 20
101.6431084569
 30
0.0
 11
150.565241
 21
104.4644784849
 31
0.0
  0
LINE
  5
18D
330
1F
100
AcDbEntity
  8
0
  6
HIDDEN
 62
     7
370
     0
100
AcDbLine
 10
146.5652412757
 20
104.4475237574
 30
0.0
 11
146.5652412757
 21
102.9260677021
 31
0.0
  0
LINE
  5
18E
330
1F
100
AcDbEntity
  8
0
  6
HIDDEN
 62
     7
370
     0
100
AcDbLine
 10
138.7652412544
 20
101.1080263849
 30
0.0
 11
140.6588405392
 21
101.5615152862
 31
0.0
  0
LINE
  5
18F
330
1F
100
AcDbEntity
  8
0
  6
HIDDEN
 62
     7
370
     0
100
AcDbLine
 10
139.6806631259
 20
105.6460185643
 30
0.0
 11
138.7652412544
 21
105.4267889555
 31
0.0
  0
LINE
  5
190
330
1F
100
AcDbEntity
  8
0
  6
HIDDEN
 62
     7
370
     0
100
AcDbLine
 10
140.6882018804
 20
102.0312715988
 30
0.0
 11
147.8952621132
 21
103.7572544735
 31
0.0
  0
LINE
  5
191
330
1F
100
AcDbEntity
  8
0
  6
HIDDEN
 62
     7
370
     0
100
AcDbLine
 10
147.8952621132
 20
107.150568321
 30
0.0
 11
139.9196339793
 21
105.240523975
 31
0.0
  0
LINE
  5
192
330
1F
100
AcDbEntity
  8
0
  6
HIDDEN
 62
     7
370
     0
100
AcDbLine
 10
150.2152415946
 20
104.5080476176
 30
0.0
 11
150.2152415946
 21
111.0508611161
 31
0.0
  0
LINE
  5
193
330
1F
100
AcDbEntity
  8
0
  6
HIDDEN
 62
     7
370
     0
100
AcDbLine
 10
146.9152416124
 20
104.5302876007
 30
0.0
 11
146.9152416124
 21
104.5080476176
 31
0.0
  0
LINE
  5
194
330
1F
100
AcDbEntity
  8
0
  6
HIDDEN
 62
     7
370
     0
100
AcDbLine
 10
146.9152416124
 20
111.0505690301
 30
0.0
 11
146.9152416124
 21
105.9081346463
 31
0.0
  0
LINE
  5
195
330
1F
100
AcDbEntity
  8
0
  6
HIDDEN
 62
     7
370
     0
100
AcDbLine
 10
230.8152443751
 20
125.0793018114
 30
0.0
 11
229.8152423486
 21
124.5019516643
 31
0.0
  0
LINE
  5
196
330
1F
100
AcDbEntity
  8
0
  6
HIDDEN
 62
     7
370
     0
100
AcDbLine
 10
229.8152423486
 20
100.5019514557
 30
0.0
 11
230.8152443751
 21
99.9246013086
 31
0.0
  0
LINE
  5
197
330
1F
100
AcDbEntity
  8
0
  6
HIDDEN
 62
     7
370
     0
100
AcDbLine
 10
234.4620204552
 20
128.50195232
 30
0.0
 11
230.8152443751
 21
128.50195232
 31
0.0
  0
LINE
  5
198
330
1F
100
AcDbEntity
  8
0
  6
HIDDEN
 62
     7
370
     0
100
AcDbLine
 10
230.8152443751
 20
96.5019508
 30
0.0
 11
234.4714454397
 21
96.5019508
 31
0.0
  0
LINE
  5
199
330
1F
100
AcDbEntity
  8
0
  6
HIDDEN
 62
     7
370
     0
100
AcDbLine
 10
210.2652392372
 20
100.2019519653
 30
0.0
 11
210.9666368946
 21
100.2019519653
 31
0.0
  0
LINE
  5
19A
330
1F
100
AcDbEntity
  8
0
  6
HIDDEN
 62
     7
370
     0
100
AcDbLine
 10
210.9666368946
 20
124.8019511547
 30
0.0
 11
210.2652392372
 21
124.8019511547
 31
0.0
  0
ARC
  5
19B
330
1F
100
AcDbEntity
  8
0
  6
HIDDEN
 62
     7
370
     0
100
AcDbCircle
 10
210.9666345944
 20
100.80195156
 30
0.0
 40
0.5999999999999943
100
AcDbArc
 50
270.0
 51
285.0
  0
ARC
  5
19C
330
1F
100
AcDbEntity
  8
0
  6
HIDDEN
 62
     7
370
     0
100
AcDbCircle
 10
210.9666345944
 20
124.20195156
 30
0.0
 40
0.599999999999986
100
AcDbArc
 50
75.0
 51
90.0
  0
ARC
  5
19D
330
1F
100
AcDbEntity
  8
0
  6
HIDDEN
 62
     7
370
     0
100
AcDbCircle
 10
210.2652413353
 20
100.80195156
 30
0.0
 40
0.5999999999999943
100
AcDbArc
 50
180.0
 51
270.0
  0
ARC
  5
19E
330
1F
100
AcDbEntity
  8
0
  6
HIDDEN
 62
     7
370
     0
100
AcDbCircle
 10
210.2652413353
 20
124.20195156
 30
0.0
 40
0.5999999999999801
100
AcDbArc
 50
90.0
 51
180.0
  0
LINE
  5
19F
330
1F
100
AcDbEntity
  8
0
  6
HIDDEN
 62
     7
370
     0
100
AcDbLine
 10
211.121929346
 20
100.2223963585
 30
0.0
 11
212.1652415975
 21
100.5019514557
 31
0.0
  0
LINE
  5
1A0
330
1F
100
AcDbEntity
  8
0
  6
HIDDEN
 62
     7
370
     0
100
AcDbLine
 10
212.1652415975
 20
124.5019516643
 30
0.0
 11
211.121929346
 21
124.7815067615
 31
0.0
  0
LINE
  5
1A1
330
1F
100
AcDbEntity
  8
0
  6
HIDDEN
 62
     7
370
     0
100
AcDbLine
 10
212.1652415975
 20
100.5019514557
 30
0.0
 11
229.8152423486
 21
100.5019514557
 31
0.0
  0
LINE
  5
1A2
330
1F
100
AcDbEntity
  8
0
  6
HIDDEN
 62
     7
370
     0
100
AcDbLine
 10
229.8152423486
 20
124.5019516643
 30
0.0
 11
212.1652415975
 21
124.5019516643
 31
0.0
  0
ARC
  5
1A3
330
1F
100
AcDbEntity
  8
0
  6
HIDDEN
 62
     7
370
     0
100
AcDbCircle
 10
68.1152413353
 20
103.20195156
 30
0.0
 40
0.7999999999999972
100
AcDbArc
 50
90.0
 51
180.0
  0
ARC
  5
1A4
330
1F
100
AcDbEntity
  8
0
  6
HIDDEN
 62
     7
370
     0
100
AcDbCircle
 10
68.1152413353
 20
121.80195156
 30
0.0
 40
0.7999999999999972
100
AcDbArc
 50
180.0
 51
270.0
  0
ARC
  5
1A5
330
1F
100
AcDbEntity
  8
0
  6
HIDDEN
 62
     7
370
     0
100
AcDbCircle
 10
76.0843012276
 20
104.17695156
 30
0.0
 40
0.400000000000005
100
AcDbArc
 50
270.0
 51
330.0
  0
ARC
  5
1A6
330
1F
100
AcDbEntity
  8
0
  6
HIDDEN
 62
     7
370
     0
100
AcDbCircle
 10
76.0843012276
 20
120.82695156
 30
0.0
 40
0.400000000000005
100
AcDbArc
 50
30.0
 51
90.0
  0
LINE
  5
1A7
330
1F
100
AcDbEntity
  8
0
  6
HIDDEN
 62
     7
370
     0
100
AcDbLine
 10
75.2076148077
 20
103.7769519459
 30
0.0
 11
76.0843022748
 21
103.7769519459
 31
0.0
  0
LINE
  5
1A8
330
1F
100
AcDbEntity
  8
0
  6
HIDDEN
 62
     7
370
     0
100
AcDbLine
 10
76.0843022748
 20
121.2269511741
 30
0.0
 11
75.2076148077
 21
121.2269511741
 31
0.0
  0
ARC
  5
1A9
330
1F
100
AcDbEntity
  8
0
  6
HIDDEN
 62
     7
370
     0
100
AcDbCircle
 10
75.207613766
 20
104.17695156
 30
0.0
 40
0.3999999999999915
100
AcDbArc
 50
255.0
 51
270.0
  0
ARC
  5
1AA
330
1F
100
AcDbEntity
  8
0
  6
HIDDEN
 62
     7
370
     0
100
AcDbCircle
 10
75.207613766
 20
120.82695156
 30
0.0
 40
0.3999999999999915
100
AcDbArc
 50
90.0
 51
105.0
  0
LINE
  5
1AB
330
1F
100
AcDbEntity
  8
0
  6
HIDDEN
 62
     7
370
     0
100
AcDbLine
 10
75.104085265
 20
121.2133221995
 30
0.0
 11
74.3152401432
 21
121.0019520219
 31
0.0
  0
LINE
  5
1AC
330
1F
100
AcDbEntity
  8
0
  6
HIDDEN
 62
     7
370
     0
100
AcDbLine
 10
74.3152401432
 20
104.0019510981
 30
0.0
 11
75.104085265
 21
103.7905809205
 31
0.0
  0
LINE
  5
1AD
330
1F
100
AcDbEntity
  8
0
  6
HIDDEN
 62
     7
370
     0
100
AcDbLine
 10
76.4307095691
 20
103.9769516062
 30
0.0
 11
77.3111707553
 21
105.5019513439
 31
0.0
  0
LINE
  5
1AE
330
1F
100
AcDbEntity
  8
0
  6
HIDDEN
 62
     7
370
     0
100
AcDbLine
 10
77.3111707553
 20
119.5019517761
 30
0.0
 11
76.4307095691
 21
121.0269515138
 31
0.0
  0
LINE
  5
1AF
330
1F
100
AcDbEntity
  8
0
  6
HIDDEN
 62
     7
370
     0
100
AcDbLine
 10
68.1152394994
 20
104.0019510981
 30
0.0
 11
74.3152401432
 21
104.0019510981
 31
0.0
  0
LINE
  5
1B0
330
1F
100
AcDbEntity
  8
0
  6
HIDDEN
 62
     7
370
     0
100
AcDbLine
 10
74.3152401432
 20
121.0019520219
 30
0.0
 11
68.1152394994
 21
121.0019520219
 31
0.0
  0
LINE
  5
1B1
330
1F
100
AcDbEntity
  8
0
  6
HIDDEN
 62
     7
370
     0
100
AcDbLine
 10
234.1152406319
 20
95.6814295348
 30
0.0
 11
234.6652424916
 21
94.5019523349
 31
0.0
  0
LINE
  5
1B2
330
1F
100
AcDbEntity
  8
0
  6
HIDDEN
 62
     7
370
     0
100
AcDbLine
 10
234.6652424916
 20
130.5019507851
 30
0.0
 11
234.1152406319
 21
129.3224735852
 31
0.0
  0
LINE
  5
1B3
330
1F
100
AcDbEntity
  8
0
  6
HIDDEN
 62
     7
370
     0
100
AcDbLine
 10
110.3152404561
 20
105.5019513439
 30
0.0
 11
111.9676078691
 21
108.251951329
 31
0.0
  0
LINE
  5
1B4
330
1F
100
AcDbEntity
  8
0
  6
HIDDEN
 62
     7
370
     0
100
AcDbLine
 10
111.9676078691
 20
116.751951791
 30
0.0
 11
110.3152404561
 21
119.5019517761
 31
0.0
  0
LINE
  5
1B5
330
1F
100
AcDbEntity
  8
0
  6
HIDDEN
 62
     7
370
     0
100
AcDbLine
 10
77.3111707553
 20
105.5019513439
 30
0.0
 11
110.3152404561
 21
105.5019513439
 31
0.0
  0
LINE
  5
1B6
330
1F
100
AcDbEntity
  8
0
  6
HIDDEN
 62
     7
370
     0
100
AcDbLine
 10
110.3152404561
 20
119.5019517761
 30
0.0
 11
77.3111707553
 21
119.5019517761
 31
0.0
  0
LINE
  5
1B7
330
1F
100
AcDbEntity
  8
0
  6
HIDDEN
 62
     7
370
     0
100
AcDbLine
 10
234.1152406319
 20
129.0269518938
 30
0.0
 11
230.8152443751
 21
129.0269518938
 31
0.0
  0
LINE
  5
1B8
330
1F
100
AcDbEntity
  8
0
  6
HIDDEN
 62
     7
370
     0
100
AcDbLine
 10
230.8152443751
 20
95.9769512262
 30
0.0
 11
234.1152406319
 21
95.9769512262
 31
0.0
  0
LINE
  5
1B9
330
1F
100
AcDbEntity
  8
0
  6
HIDDEN
 62
     7
370
     0
100
AcDbLine
 10
111.9676078691
 20
108.251951329
 30
0.0
 11
209.6652439817
 21
108.251951329
 31
0.0
  0
LINE
  5
1BA
330
1F
100
AcDbEntity
  8
0
  6
HIDDEN
 62
     7
370
     0
100
AcDbLine
 10
209.6652439817
 20
116.751951791
 30
0.0
 11
111.9676078691
 21
116.751951791
 31
0.0
  0
LINE
  5
1BB
330
1F
100
AcDbEntity
  8
0
  6
HIDDEN
 62
     7
370
     0
100
AcDbLine
 10
150.2152415946
 20
113.9533340899
 30
0.0
 11
150.2152415946
 21
120.4958555024
 31
0.0
  0
LINE
  5
1BC
330
1F
100
AcDbEntity
  8
0
  6
HIDDEN
 62
     7
370
     0
100
AcDbLine
 10
146.9152416124
 20
119.0957684737
 30
0.0
 11
146.9152416124
 21
113.9530420039
 31
0.0
  0
LINE
  5
1BD
330
1F
100
AcDbEntity
  8
0
  6
HIDDEN
 62
     7
370
     0
100
AcDbLine
 10
146.9152416124
 20
120.4958555024
 30
0.0
 11
146.9152416124
 21
120.4736155193
 31
0.0
  0
LINE
  5
1BE
330
1F
100
AcDbEntity
  8
0
  6
HIDDEN
 62
     7
370
     0
100
AcDbLine
 10
234.4714454397
 20
128.50195232
 30
0.0
 11
234.4620204552
 21
128.50195232
 31
0.0
  0
LINE
  5
1BF
330
1F
100
AcDbEntity
  8
0
  6
HIDDEN
 62
     7
370
     0
100
AcDbLine
 10
139.9196339793
 20
119.763379145
 30
0.0
 11
147.8952621132
 21
117.853334799
 31
0.0
  0
LINE
  5
1C0
330
1F
100
AcDbEntity
  8
0
  6
HIDDEN
 62
     7
370
     0
100
AcDbLine
 10
147.8952621132
 20
121.2466486465
 30
0.0
 11
140.6882018804
 21
122.9726315211
 31
0.0
  0
LINE
  5
1C1
330
1F
100
AcDbEntity
  8
0
  6
HIDDEN
 62
     7
370
     0
100
AcDbLine
 10
150.565241
 20
120.5394246351
 30
0.0
 11
150.565241
 21
123.360794663
 31
0.0
  0
LINE
  5
1C2
330
1F
100
AcDbEntity
  8
0
  6
HIDDEN
 62
     7
370
     0
100
AcDbLine
 10
146.5652412757
 20
122.0778354179
 30
0.0
 11
146.5652412757
 21
120.5563793626
 31
0.0
  0
LINE
  5
1C3
330
1F
100
AcDbEntity
  8
0
  6
HIDDEN
 62
     7
370
     0
100
AcDbLine
 10
138.7652412544
 20
119.5771141644
 30
0.0
 11
139.6806631259
 21
119.3578845557
 31
0.0
  0
LINE
  5
1C4
330
1F
100
AcDbEntity
  8
0
  6
HIDDEN
 62
     7
370
     0
100
AcDbLine
 10
140.6588405392
 20
123.4423878338
 30
0.0
 11
138.7652412544
 21
123.8958767351
 31
0.0
  0
LINE
  5
1C5
330
1F
100
AcDbEntity
  8
0
  6
HIDDEN
 62
     7
370
     0
100
AcDbLine
 10
150.565241
 20
120.5394246351
 30
0.0
 11
150.565241
 21
120.8643444549
 31
0.0
  0
LINE
  5
1C6
330
1F
100
AcDbEntity
  8
0
  6
HIDDEN
 62
     7
370
     0
100
AcDbLine
 10
146.5652412757
 20
120.8643444549
 30
0.0
 11
146.5652412757
 21
120.5394246351
 31
0.0
  0
LINE
  5
1C7
330
1F
100
AcDbEntity
  8
0
  6
HIDDEN
 62
     7
370
     0
100
AcDbLine
 10
150.065240918
 20
120.8014215078
 30
0.0
 11
150.065240918
 21
121.8048992302
 31
0.0
  0
LINE
  5
1C8
330
1F
100
AcDbEntity
  8
0
  6
HIDDEN
 62
     7
370
     0
100
AcDbLine
 10
147.0652413576
 20
121.8048992302
 30
0.0
 11
147.0652413576
 21
120.8014215078
 31
0.0
  0
LINE
  5
1C9
330
1F
100
AcDbEntity
  8
0
  6
HIDDEN
 62
     7
370
     0
100
AcDbLine
 10
150.565241
 20
121.6338897791
 30
0.0
 11
150.565241
 21
121.77069734
 31
0.0
  0
LINE
  5
1CA
330
1F
100
AcDbEntity
  8
0
  6
HIDDEN
 62
     7
370
     0
100
AcDbLine
 10
146.5652412757
 20
121.77069734
 30
0.0
 11
146.5652412757
 21
121.6338897791
 31
0.0
  0
LINE
  5
1CB
330
1F
100
AcDbEntity
  8
0
  6
HIDDEN
 62
     7
370
     0
100
AcDbLine
 10
146.5652412757
 20
103.3700133409
 30
0.0
 11
146.5652412757
 21
103.23320578
 31
0.0
  0
LINE
  5
1CC
330
1F
100
AcDbEntity
  8
0
  6
HIDDEN
 62
     7
370
     0
100
AcDbLine
 10
150.565241
 20
103.23320578
 30
0.0
 11
150.565241
 21
103.3700133409
 31
0.0
  0
LINE
  5
1CD
330
1F
100
AcDbEntity
  8
0
  6
HIDDEN
 62
     7
370
     0
100
AcDbLine
 10
147.0652413576
 20
104.2024816122
 30
0.0
 11
147.0652413576
 21
103.1990038898
 31
0.0
  0
LINE
  5
1CE
330
1F
100
AcDbEntity
  8
0
  6
HIDDEN
 62
     7
370
     0
100
AcDbLine
 10
150.065240918
 20
103.1990038898
 30
0.0
 11
150.065240918
 21
104.2024816122
 31
0.0
  0
LINE
  5
1CF
330
1F
100
AcDbEntity
  8
0
  6
HIDDEN
 62
     7
370
     0
100
AcDbLine
 10
146.5652412757
 20
104.4644784849
 30
0.0
 11
146.5652412757
 21
104.1395586651
 31
0.0
  0
LINE
  5
1D0
330
1F
100
AcDbEntity
  8
0
  6
HIDDEN
 62
     7
370
     0
100
AcDbLine
 10
150.565241
 20
104.1395586651
 30
0.0
 11
150.565241
 21
104.4644784849
 31
0.0
  0
CIRCLE
  5
1D1
330
1F
100
AcDbEntity
  8
0
  6
HIDDEN
 62
     7
370
     0
100
AcDbCircle
 10
148.5652413353
 20
121.2234652148
 30
0.0
 40
1.500000000000005
  0
ARC
  5
1D2
330
1F
100
AcDbEntity
  8
0
  6
HIDDEN
 62
     7
370
     0
100
AcDbCircle
 10
148.5652413353
 20
103.7804379052
 30
0.0
 40
1.499999999999988
100
AcDbArc
 50
71.1182787691
 51
191.5274417164
  0
ARC
  5
1D3
330
1F
100
AcDbEntity
  8
0
  6
HIDDEN
 62
     7
370
     0
100
AcDbCircle
 10
148.5652413353
 20
103.7804379052
 30
0.0
 40
1.500000000000018
100
AcDbArc
 50
336.6037645748
 51
71.1182787691
  0
LINE
  5
1D4
330
1F
100
AcDbEntity
  8
0
  6
HIDDEN
 62
     7
370
     0
100
AcDbLine
 10
143.964006102
 20
118.911069512
 30
0.0
 11
144.4610483035
 21
119.3846847597
 31
0.0
  0
LINE
  5
1D5
330
1F
100
AcDbEntity
  8
0
  6
HIDDEN
 62
     7
370
     0
100
AcDbLine
 10
144.9084882646
 20
121.2530291375
 30
0.0
 11
144.6799109712
 21
121.9004193988
 31
0.0
  0
LINE
  5
1D6
330
1F
100
AcDbEntity
  8
0
  6
HIDDEN
 62
     7
370
     0
100
AcDbLine
 10
139.8883988171
 20
119.4109624918
 30
0.0
 11
143.1853491835
 21
118.6213918697
 31
0.0
  0
LINE
  5
1D7
330
1F
100
AcDbEntity
  8
0
  6
HIDDEN
 62
     7
370
     0
100
AcDbLine
 10
144.1169469639
 20
122.5113949474
 30
0.0
 11
140.8199965976
 21
123.3009655695
 31
0.0
  0
LINE
  5
1D8
330
1F
100
AcDbEntity
  8
0
  6
HIDDEN
 62
     7
370
     0
100
AcDbLine
 10
140.8199965976
 20
101.7029375505
 30
0.0
 11
144.1169469639
 21
102.4925081726
 31
0.0
  0
LINE
  5
1D9
330
1F
100
AcDbEntity
  8
0
  6
HIDDEN
 62
     7
370
     0
100
AcDbLine
 10
143.1853491835
 20
106.3825112503
 30
0.0
 11
139.8883988171
 21
105.5929406281
 31
0.0
  0
LINE
  5
1DA
330
1F
100
AcDbEntity
  8
0
  6
HIDDEN
 62
     7
370
     0
100
AcDbLine
 10
144.6799109712
 20
103.1034837212
 30
0.0
 11
144.9084882646
 21
103.7508739825
 31
0.0
  0
LINE
  5
1DB
330
1F
100
AcDbEntity
  8
0
  6
HIDDEN
 62
     7
370
     0
100
AcDbLine
 10
144.4610483035
 20
105.6192183602
 30
0.0
 11
143.964006102
 21
106.092833608
 31
0.0
  0
DIMENSION
  5
1DC
330
1F
100
AcDbEntity
  8
VERMASSUNG
100
AcDbDimension
  2
_D
 10
59.1074916022
 20
144.25195156
 30
0.0
 11
59.1074916022
 21
112.50195156
 31
0.0
 70
   160
  1
ISO 40 %%c<>
 71
     2
 42
-1.0
  3
SLDDIMSTYLE0
100
AcDbAlignedDimension
 13
154.0152413353
 23
80.75195156
 33
0.0
 14
154.0152413353
 24
144.25195156
 34
0.0
 50
90.0
100
AcDbRotatedDimension
  0
DIMENSION
  5
1E9
330
1F
100
AcDbEntity
  8
VERMASSUNG
100
AcDbDimension
  2
_D_1
 10
234.6652413353
 20
162.8865855414
 30
0.0
 11
150.9902413353
 21
162.8865855414
 31
0.0
 70
   160
  1
(<>)
 71
     2
 42
-1.0
  3
SLDDIMSTYLE0
100
AcDbAlignedDimension
 13
67.3152413353
 23
123.909082157
 33
0.0
 14
234.6652413353
 24
133.10195156
 34
0.0
100
AcDbRotatedDimension
  0
DIMENSION
  5
1F5
330
1F
100
AcDbEntity
  8
VERMASSUNG
100
AcDbDimension
  2
_D_2
 10
234.6652413353
 20
156.8865855414
 30
0.0
 11
185.1152413353
 21
156.8865855414
 31
0.0
 70
   160
  1
<>
 71
     2
 42
-1.0
  3
SLDDIMSTYLE0
100
AcDbAlignedDimension
 13
135.5652413353
 23
134.72695156
 33
0.0
 14
234.6652413353
 24
133.10195156
 34
0.0
100
AcDbRotatedDimension
  0
DIMENSION
  5
1FF
330
1F
100
AcDbEntity
  8
VERMASSUNG
100
AcDbDimension
  2
_D_3
 10
234.6652413353
 20
150.8865855414
 30
0.0
 11
194.6402413353
 21
150.8865855414
 31
0.0
 70
   160
  1
<>
 71
     2
 42
-1.0
  3
SLDDIMSTYLE0
100
AcDbAlignedDimension
 13
154.6152413353
 23
142.5125026934
 33
0.0
 14
234.6652413353
 24
133.10195156
 34
0.0
100
AcDbRotatedDimension
  0
DIMENSION
  5
209
330
1F
100
AcDbEntity
  8
VERMASSUNG
100
AcDbDimension
  2
_D_4
 10
242.6476335704
 20
91.50195156
 30
0.0
 11
242.6476335704
 21
112.50195156
 31
0.0
 70
   160
  1
MBM %%c<>
 71
     2
 42
-1.0
  3
SLDDIMSTYLE0
100
AcDbAlignedDimension
 13
234.2652413353
 23
133.50195156
 33
0.0
 14
234.2652413353
 24
91.50195156
 34
0.0
 50
90.0
100
AcDbRotatedDimension
  0
LINE
  5
215
330
1F
100
AcDbEntity
  8
VERMASSUNG
  6
CENTERX2
 62
     7
370
     0
100
AcDbLine
 10
65.3152413353
 20
112.50195156
 30
0.0
 11
236.6652413353
 21
112.50195156
 31
0.0
  0
LINE
  5
216
330
1F
100
AcDbEntity
  8
VERMASSUNG
  6
CENTERX2
370
     0
100
AcDbLine
 10
138.3589163381
 20
121.8338042053
 30
0.0
 11
149.8402641407
 21
119.0841926787
 31
0.0
  0
LINE
  5
217
330
1F
100
AcDbEntity
  8
VERMASSUNG
  6
CENTERX2
370
     0
100
AcDbLine
 10
138.3589163381
 20
103.1700989147
 30
0.0
 11
149.8402641407
 21
105.9197104413
 31
0.0
  0
LINE
  5
218
330
1F
100
AcDbEntity
  8
0
  6
Continuous
 62
     7
370
    15
100
AcDbLine
 10
277.8685070585
 20
17.9909233169
 30
0.0
 11
278.0099051896
 21
18.0725772605
 31
0.0
  0
LINE
  5
219
330
1F
100
AcDbEntity
  8
0
  6
Continuous
 62
     7
370
    15
100
AcDbLine
 10
285.2919214512
 20
30.6867662917
 30
0.0
 11
285.2919214512
 21
30.8500476367
 31
0.0
  0
LINE
  5
21A
330
1F
100
AcDbEntity
  8
0
  6
Continuous
 62
     7
370
    15
100
AcDbLine
 10
245.8714126297
 20
32.9107107383
 30
0.0
 11
272.6177269621
 21
17.4703921306
 31
0.0
  0
LINE
  5
21B
330
1F
100
AcDbEntity
  8
0
  6
Continuous
 62
     7
370
    15
100
AcDbLine
 10
283.1168737355
 20
35.6574180842
 30
0.0
 11
256.3705594031
 21
51.0977366919
 31
0.0
  0
SPLINE
  5
21C
330
1F
100
AcDbEntity
  8
0
  6
Continuous
 62
     7
370
    15
100
AcDbSpline
210
0.0
220
0.0
230
1.0
 70
     8
 71
     3
 72
    30
 73
    26
 74
     0
 42
0.000000001
 43
0.00000001
 40
0.0
 40
0.0
 40
0.0
 40
0.0
 40
0.008051425463095
 40
0.0542325819070473
 40
0.1005493661621077
 40
0.1470678668516323
 40
0.1937624356701441
 40
0.2405849400771926
 40
0.2874854972369486
 40
0.3344239451929483
 40
0.3813708745197369
 40
0.4283084124239792
 40
0.4752303374314416
 40
0.5221349628726214
 40
0.569023258934843
 40
0.6158977357687472
 40
0.6627617166011641
 40
0.7096189173041951
 40
0.7564732426403333
 40
0.8033287918056382
 40
0.8501882970218557
 40
0.8970558455475186
 40
0.943935562953696
 40
0.9908314923838373
 40
1.0
 40
1.0
 40
1.0
 40
1.0
 10
250.6870575399336
 20
60.28875826235682
 30
0.0
 10
250.6393250402165
 20
60.30072451200358
 30
0.0
 10
250.3178097119799
 20
60.38132646467184
 30
0.0
 10
249.6894704657299
 20
60.45316686803752
 30
0.0
 10
248.7900087367354
 20
60.45696893177571
 30
0.0
 10
247.8533720665723
 20
60.34198436432364
 30
0.0
 10
246.8891051811487
 20
60.11499697203319
 30
0.0
 10
245.9042093352876
 20
59.77588268691052
 30
0.0
 10
244.9069291364356
 20
59.3277955195796
 30
0.0
 10
243.9053286543846
 20
58.77435422219083
 30
0.0
 10
242.9074499180062
 20
58.12024164450452
 30
0.0
 10
241.9211323179203
 20
57.37086803489872
 30
0.0
 10
240.9540011383261
 20
56.53232286661682
 30
0.0
 10
240.0134543164471
 20
55.61129838923072
 30
0.0
 10
239.1066716470691
 20
54.61506536599029
 30
0.0
 10
238.2405763492948
 20
53.55143230314448
 30
0.0
 10
237.4217939649404
 20
52.42869436444124
 30
0.0
 10
236.656600254834
 20
51.25557722038557
 30
0.0
 10
235.9508971415333
 20
50.04117459236035
 30
0.0
 10
235.3101008161767
 20
48.79488229324754
 30
0.0
 10
234.7393441616221
 20
47.52637413984073
 30
0.0
 10
234.2425303528325
 20
46.2452885416555
 30
0.0
 10
233.8256635365147
 20
44.96204343373309
 30
0.0
 10
233.5758841027548
 20
44.02717958459429
 30
0.0
 10
233.4654443442569
 20
43.52370431974548
 30
0.0
 10
233.4473835588418
 20
43.44136840336942
 30
0.0
  0
LINE
  5
21D
330
1F
100
AcDbEntity
  8
0
  6
Continuous
 62
     7
370
    15
100
AcDbLine
 10
243.2196810939
 20
58.307749035
 30
0.0
 11
221.9068475924
 21
65.9880497143
 31
0.0
  0
LINE
  5
21E
330
1F
100
AcDbEntity
  8
0
  6
Continuous
 62
     7
370
    15
100
AcDbLine
 10
215.7420655978
 20
55.309177069
 30
0.0
 11
236.0383036954
 21
38.1712019815
 31
0.0
  0
SPLINE
  5
21F
330
1F
100
AcDbEntity
  8
0
  6
Continuous
 62
     7
370
    15
100
AcDbSpline
210
0.0
220
0.0
230
1.0
 70
     8
 71
     3
 72
    14
 73
    10
 74
     0
 42
0.000000001
 43
0.00000001
 40
0.0
 40
0.0
 40
0.0
 40
0.0
 40
0.0375269716117602
 40
0.2253605441742868
 40
0.4138539224690995
 40
0.6028038649057212
 40
0.792017413905453
 40
0.9813470511452066
 40
1.0
 40
1.0
 40
1.0
 40
1.0
 10
245.104588587382
 20
28.45331296668331
 30
0.0
 10
245.1653210774072
 20
28.45491596925546
 30
0.0
 10
245.5300376109643
 20
28.46454247297947
 30
0.0
 10
246.2303834026377
 20
28.59345190077575
 30
0.0
 10
247.1991127921067
 20
28.84546875620014
 30
0.0
 10
248.1891438161438
 20
29.21590816358808
 30
0.0
 10
249.1876017842325
 20
29.7018738253725
 30
0.0
 10
249.8899046322744
 20
30.08864917937062
 30
0.0
 10
250.2538367253204
 20
30.33945458654189
 30
0.0
 10
250.2864760286663
 20
30.36194810640967
 30
0.0
  0
LINE
  5
220
330
1F
100
AcDbEntity
  8
0
  6
Continuous
 62
     7
370
    15
100
AcDbLine
 10
240.2043253177
 20
29.9759035693
 30
0.0
 11
241.5577850883
 21
29.1945678749
 31
0.0
  0
LINE
  5
221
330
1F
100
AcDbEntity
  8
0
  6
Continuous
 62
     7
370
    15
100
AcDbLine
 10
236.3782281537
 20
32.1846624473
 30
0.0
 11
237.7140106141
 21
31.4135316469
 31
0.0
  0
SPLINE
  5
222
330
1F
100
AcDbEntity
  8
0
  6
Continuous
 62
     7
370
    15
100
AcDbSpline
210
0.0
220
0.0
230
1.0
 70
     8
 71
     3
 72
    10
 73
     6
 74
     0
 42
0.000000001
 43
0.00000001
 40
0.0
 40
0.0
 40
0.0
 40
0.0
 40
0.2346033800644274
 40
0.9162513780205868
 40
1.0
 40
1.0
 40
1.0
 40
1.0
 10
233.4586249959111
 20
36.18230666892674
 30
0.0
 10
233.4913648882365
 20
36.07305234157758
 30
0.0
 10
233.619231637007
 20
35.64635589772886
 30
0.0
 10
233.7837434639827
 20
35.20011390107096
 30
0.0
 10
233.9499788831804
 20
34.90044639572684
 30
0.0
 10
233.9681681290164
 20
34.86765719863489
 30
0.0
  0
SPLINE
  5
223
330
1F
100
AcDbEntity
  8
0
  6
Continuous
 62
     7
370
    15
100
AcDbSpline
210
0.0
220
0.0
230
1.0
 70
     8
 71
     3
 72
    10
 73
     6
 74
     0
 42
0.000000001
 43
0.00000001
 40
0.0
 40
0.0
 40
0.0
 40
0.0
 40
0.0743904741334411
 40
0.7343164653709311
 40
1.0
 40
1.0
 40
1.0
 40
1.0
 10
259.4981298463791
 20
54.63492584830688
 30
0.0
 10
259.4817656699816
 20
54.66508838576613
 30
0.0
 10
259.3202331040061
 20
54.96282607532523
 30
0.0
 10
259.046866043219
 20
55.31086318988009
 30
0.0
 10
258.773096395722
 20
55.6034092673169
 30
0.0
 10
258.6945145687329
 20
55.68738061130509
 30
0.0
  0
SPLINE
  5
224
330
1F
100
AcDbEntity
  8
0
  6
Continuous
 62
     7
370
    15
100
AcDbSpline
210
0.0
220
0.0
230
1.0
 70
     8
 71
     3
 72
    10
 73
     6
 74
     0
 42
0.000000001
 43
0.00000001
 40
0.0
 40
0.0
 40
0.0
 40
0.0
 40
0.1776445993543073
 40
0.6136514702423378
 40
1.0
 40
1.0
 40
1.0
 40
1.0
 10
260.3650325683315
 20
52.64910387137662
 30
0.0
 10
260.3264441413985
 20
52.77862581422761
 30
0.0
 10
260.1931451556268
 20
53.2260434725637
 30
0.0
 10
259.9207249920869
 20
53.90778852918783
 30
0.0
 10
259.6332076012537
 20
54.40250463488381
 30
0.0
 10
259.4981298463791
 20
54.63492584830688
 30
0.0
  0
SPLINE
  5
225
330
1F
100
AcDbEntity
  8
0
  6
Continuous
 62
     7
370
    15
100
AcDbSpline
210
0.0
220
0.0
230
1.0
 70
     8
 71
     3
 72
    23
 73
    19
 74
     0
 42
0.000000001
 43
0.00000001
 40
0.0
 40
0.0
 40
0.0
 40
0.0
 40
0.0425757807427464
 40
0.1050164818307582
 40
0.1688571194977816
 40
0.2341031057504575
 40
0.3002678036583075
 40
0.3668060661011346
 40
0.4333198247330912
 40
0.4997067030126669
 40
0.5659706998836643
 40
0.6321564110800851
 40
0.698323984261361
 40
0.7645321167884448
 40
0.8308347018995849
 40
0.8973012030847193
 40
0.9639951522445289
 40
1.0
 40
1.0
 40
1.0
 40
1.0
 10
221.6524103606871
 20
66.05159809274107
 30
0.0
 10
221.5288908084183
 20
66.08155303744412
 30
0.0
 10
221.2242202048428
 20
66.15543924343426
 30
0.0
 10
220.696593077284
 20
66.1422318066573
 30
0.0
 10
220.0863406169914
 20
66.03097030378777
 30
0.0
 10
219.4545713223073
 20
65.80261919884187
 30
0.0
 10
218.8154316480407
 20
65.46565637336309
 30
0.0
 10
218.1828557951487
 20
65.02566261358983
 30
0.0
 10
217.5709596148226
 20
64.49351384200708
 30
0.0
 10
216.992144736233
 20
63.88122175209138
 30
0.0
 10
216.4572768630372
 20
63.20161931726598
 30
0.0
 10
215.9762717039347
 20
62.46824161339708
 30
0.0
 10
215.5581334857788
 20
61.69531264205997
 30
0.0
 10
215.2110645241069
 20
60.89768376524113
 30
0.0
 10
214.9416546259997
 20
60.09014849761239
 30
0.0
 10
214.7574201855266
 20
59.28849031075453
 30
0.0
 10
214.6726288054589
 20
58.62547305255955
 30
0.0
 10
214.6648228542875
 20
58.24115480241898
 30
0.0
 10
214.6620861904516
 20
58.10641787753197
 30
0.0
  0
SPLINE
  5
226
330
1F
100
AcDbEntity
  8
0
  6
Continuous
 62
     7
370
    15
100
AcDbSpline
210
0.0
220
0.0
230
1.0
 70
     8
 71
     3
 72
    13
 73
     9
 74
     0
 42
0.000000001
 43
0.00000001
 40
0.0
 40
0.0
 40
0.0
 40
0.0
 40
0.1157351139333109
 40
0.3347085134120568
 40
0.553638738345578
 40
0.7701857336599421
 40
0.9819831197501893
 40
1.0
 40
1.0
 40
1.0
 40
1.0
 10
214.6620861904516
 20
58.10641787753197
 30
0.0
 10
214.6647336784986
 20
57.9761986284292
 30
0.0
 10
214.6723902725814
 20
57.59960167523539
 30
0.0
 10
214.7589226972604
 20
57.01515989961993
 30
0.0
 10
214.9514549640599
 20
56.38252182417387
 30
0.0
 10
215.2487575073671
 20
55.84446585745
 30
0.0
 10
215.4972621831419
 20
55.50537731227232
 30
0.0
 10
215.6642494815077
 20
55.38229238654474
 30
0.0
 10
215.6773408800785
 20
55.37264282734762
 30
0.0
  0
LINE
  5
227
330
1F
100
AcDbEntity
  8
0
  6
Continuous
 62
     7
370
    15
100
AcDbLine
 10
275.6932904993
 20
38.6377021893
 30
0.0
 11
275.516484799
 21
38.7398027422
 31
0.0
  0
LINE
  5
228
330
1F
100
AcDbEntity
  8
0
  6
Continuous
 62
     7
370
    15
100
AcDbLine
 10
271.6267667476
 20
38.7398020452
 30
0.0
 11
271.4499609676
 21
38.6377018263
 31
0.0
  0
LINE
  5
229
330
1F
100
AcDbEntity
  8
0
  6
Continuous
 62
     7
370
    15
100
AcDbLine
 10
276.5716260478
 20
37.0050180816
 30
0.0
 11
276.5716260478
 21
37.4132885545
 31
0.0
  0
LINE
  5
22A
330
1F
100
AcDbEntity
  8
0
  6
Continuous
 62
     7
370
    15
100
AcDbLine
 10
270.5716267063
 20
37.4132883644
 30
0.0
 11
270.5716267063
 21
37.0050178916
 31
0.0
  0
LWPOLYLINE
  5
22B
330
1F
100
AcDbEntity
  8
0
  6
Continuous
 62
     7
370
    15
100
AcDbPolyline
 90
       55
 70
   128
 43
0.0
 10
270.7255214784
 20
22.2777625781
 10
270.7747680953
 20
23.2825764918
 10
270.9218414988
 20
24.3306606902
 10
271.164752226
 20
25.4078411872
 10
271.5002161155
 20
26.4995517192
 10
271.9236964541
 20
27.5910283251
 10
272.4294665387
 20
28.6675111474
 10
273.0106863969
 20
29.7144419562
 10
273.6594959707
 20
30.7176630007
 10
274.3671214716
 20
31.6636076858
 10
275.1239932601
 20
32.539483452
 10
275.9198762374
 20
33.3334462898
 10
276.7440070698
 20
34.0347586651
 10
277.5852410439
 20
34.6339358947
 10
278.4322018857
 20
35.1228759813
 10
279.2734358598
 20
35.4949668242
 10
280.0975666922
 20
35.7451756543
 10
280.8934496695
 20
35.8701197426
 10
281.650321458
 20
35.8681095426
 10
282.3579469589
 20
35.7391718704
 10
283.0067565327
 20
35.4850504147
 10
283.5879763909
 20
35.1091817703
 10
284.0937464755
 20
34.6166486579
 10
284.5172268141
 20
34.0141120436
 10
284.8526907036
 20
33.309719874
 10
285.0956014308
 20
32.512998133
 10
285.2426748343
 20
31.6347212719
 10
285.2919214512
 20
30.6867662917
 10
285.2426748343
 20
29.681952378
 10
285.0956014308
 20
28.6338681796
 10
284.8526907036
 20
27.5566876827
 10
284.5172268141
 20
26.4649771506
 10
284.0937464755
 20
25.3735005448
 10
283.5879763909
 20
24.2970177224
 10
283.0067565327
 20
23.2500869136
 10
282.3579469589
 20
22.2468658691
 10
281.650321458
 20
21.300921184
 10
280.8934496695
 20
20.4250454178
 10
280.0975666922
 20
19.63108258
 10
279.2734358598
 20
18.9297702047
 10
278.4322018857
 20
18.3305929751
 10
277.5852410439
 20
17.8416528885
 10
276.7440070698
 20
17.4695620456
 10
275.9198762374
 20
17.2193532156
 10
275.1239932601
 20
17.0944091272
 10
274.3671214716
 20
17.0964193273
 10
273.6594959707
 20
17.2253569995
 10
273.0106863969
 20
17.4794784551
 10
272.4294665387
 20
17.8553470996
 10
271.9236964541
 20
18.3478802119
 10
271.5002161155
 20
18.9504168262
 10
271.164752226
 20
19.6548089958
 10
270.9218414988
 20
20.4515307369
 10
270.7747680953
 20
21.329807598
 10
270.7255214784
 20
22.2777625781
  0
LWPOLYLINE
  5
22C
330
1F
100
AcDbEntity
  8
0
  6
Continuous
 62
     7
370
    15
100
AcDbPolyline
 90
       28
 70
   128
 43
0.0
 10
270.4426792464
 20
22.2777625781
 10
270.4928820699
 20
23.3020874084
 10
270.6428109224
 20
24.3705224665
 10
270.8904388039
 20
25.4686194329
 10
271.2324163571
 20
26.5815278272
 10
271.664119941
 20
27.6941985227
 10
272.1797102413
 20
28.7915836473
 10
272.7722162353
 20
29.858843612
 10
273.4336240948
 20
30.8815448226
 10
274.1549897976
 20
31.8458573896
 10
274.9265579946
 20
32.73874048
 10
275.7378950359
 20
33.5481198726
 10
276.5780284175
 20
34.2630490682
 10
277.4355970119
 20
34.8738614158
 10
278.2990036857
 20
35.3722954791
 10
279.1565722801
 20
35.7516107552
 10
279.9967056617
 20
36.006678915
 10
280.808042703
 20
36.134049331
 10
281.5796109
 20
36.1319999189
 10
282.3009766028
 20
36.0005584642
 10
282.9623844623
 20
35.7415025135
 10
283.5548904563
 20
35.3583354081
 10
284.0704807566
 20
34.8562381732
 10
284.5021843405
 20
34.2420018262
 10
284.8441618937
 20
33.5239323104
 10
285.0917897752
 20
32.7117404104
 10
285.2417186277
 20
31.8164095208
 10
285.2919214512
 20
30.8500476367
  0
LWPOLYLINE
  5
22D
330
1F
100
AcDbEntity
  8
0
  6
Continuous
 62
     7
370
    15
100
AcDbPolyline
 90
       15
 70
   128
 43
0.0
 10
277.8685070585
 20
17.9909233169
 10
277.4355970119
 20
17.7555147357
 10
276.5780284175
 20
17.3761994597
 10
275.7378950359
 20
17.1211312999
 10
274.9265579946
 20
16.9937608839
 10
274.1549897976
 20
16.9958102959
 10
273.4336240948
 20
17.1272517507
 10
272.7722162353
 20
17.3863077013
 10
272.1797102413
 20
17.7694748067
 10
271.664119941
 20
18.2715720416
 10
271.2324163571
 20
18.8858083886
 10
270.8904388039
 20
19.6038779044
 10
270.6428109224
 20
20.4160698045
 10
270.4928820699
 20
21.3114006941
 10
270.4426792464
 20
22.2777625781
  0
SPLINE
  5
22E
330
1F
100
AcDbEntity
  8
0
  6
Continuous
 62
     7
370
    15
100
AcDbSpline
210
0.0
220
0.0
230
1.0
 70
     8
 71
     3
 72
    54
 73
    50
 74
     0
 42
0.000000001
 43
0.00000001
 40
0.0
 40
0.0
 40
0.0
 40
0.0
 40
0.0312499999999986
 40
0.0312499999999986
 40
0.0624999999999971
 40
0.0624999999999971
 40
0.1249999999999947
 40
0.1249999999999947
 40
0.1874999999999922
 40
0.1874999999999922
 40
0.218749999999991
 40
0.218749999999991
 40
0.2499999999999897
 40
0.2499999999999897
 40
0.3124999999999871
 40
0.3124999999999871
 40
0.3749999999999845
 40
0.3749999999999845
 40
0.406249999999984
 40
0.406249999999984
 40
0.4374999999999836
 40
0.4374999999999836
 40
0.4999999999999827
 40
0.4999999999999827
 40
0.5312499999999822
 40
0.5312499999999822
 40
0.5624999999999818
 40
0.5624999999999818
 40
0.6249999999999809
 40
0.6249999999999809
 40
0.6562499999999813
 40
0.6562499999999813
 40
0.6874999999999818
 40
0.6874999999999818
 40
0.7499999999999843
 40
0.7499999999999843
 40
0.7812499999999863
 40
0.7812499999999863
 40
0.8124999999999883
 40
0.8124999999999883
 40
0.8749999999999922
 40
0.8749999999999922
 40
0.9062499999999941
 40
0.9062499999999941
 40
0.9374999999999961
 40
0.9374999999999961
 40
0.9687499999999981
 40
0.9687499999999981
 40
1.0
 40
1.0
 40
1.0
 40
1.0
 10
276.2232764334805
 20
36.08665843690965
 30
0.0
 10
276.1423586109847
 20
36.0399455722941
 30
0.0
 10
276.0563628044848
 20
35.99456169094074
 30
0.0
 10
275.8739966042602
 20
35.90655507478874
 30
0.0
 10
275.777700348743
 20
35.86403922262765
 30
0.0
 10
275.4817343681124
 20
35.7443923807972
 30
0.0
 10
275.2718506031448
 20
35.67356041257752
 30
0.0
 10
274.8316289988441
 20
35.55176959531298
 30
0.0
 10
274.6078188629733
 20
35.5025507114044
 30
0.0
 10
274.2668864293245
 20
35.44611651898253
 30
0.0
 10
274.1518102468725
 20
35.43018167316684
 30
0.0
 10
273.923091863219
 20
35.40480636603722
 30
0.0
 10
273.8094836952519
 20
35.39533045294959
 30
0.0
 10
273.4706804705146
 20
35.37650108956176
 30
0.0
 10
273.2466814442123
 20
35.37671142514073
 30
0.0
 10
272.8068285759862
 20
35.40444882111337
 30
0.0
 10
272.5950500220786
 20
35.43163347084444
 30
0.0
 10
272.2885764249924
 20
35.49277965704057
 30
0.0
 10
272.188299842266
 20
35.51657459624273
 30
0.0
 10
271.9915072365652
 20
35.57126174026957
 30
0.0
 10
271.8947034543473
 20
35.60229093511872
 30
0.0
 10
271.6149086185469
 20
35.7046845743464
 30
0.0
 10
271.4409418084069
 20
35.78562819897375
 30
0.0
 10
271.1983608687033
 20
35.92599223502016
 30
0.0
 10
271.1205809210912
 20
35.97594892596866
 30
0.0
 10
270.971331112947
 20
36.08231692629541
 30
0.0
 10
270.899746091643
 20
36.13888698719704
 30
0.0
 10
270.6985610430993
 20
36.31506817839588
 30
0.0
 10
270.5810053875809
 20
36.44201898029674
 30
0.0
 10
270.4295209978336
 20
36.64561380995984
 30
0.0
 10
270.3831929776656
 20
36.71568144366107
 30
0.0
 10
270.2992088965604
 20
36.86014253324611
 30
0.0
 10
270.2615264813221
 20
36.93472433864106
 30
0.0
 10
270.1641140961355
 20
37.16022987791335
 30
0.0
 10
270.1189528942176
 20
37.31425999548402
 30
0.0
 10
270.082205444671
 20
37.54915860860998
 30
0.0
 10
270.0751585865804
 20
37.62810397683832
 30
0.0
 10
270.0722297024592
 20
37.78703457473286
 30
0.0
 10
270.0764406863801
 20
37.86718207740962
 30
0.0
 10
270.1065303446539
 20
38.10319805046146
 30
0.0
 10
270.1494815612533
 20
38.25646361343027
 30
0.0
 10
270.2521068776245
 20
38.47762086544424
 30
0.0
 10
270.293047760828
 20
38.55019914327363
 30
0.0
 10
270.3863350181421
 20
38.68807602524791
 30
0.0
 10
270.4388160165529
 20
38.75381836688767
 30
0.0
 10
270.5556048002381
 20
38.87862989310086
 30
0.0
 10
270.6199109185869
 20
38.93770020008295
 30
0.0
 10
270.7609041725491
 20
39.04872861702344
 30
0.0
 10
270.838277148767
 20
39.10102535892541
 30
0.0
 10
270.9199755745814
 20
39.14818885624483
 30
0.0
  0
SPLINE
  5
22F
330
1F
100
AcDbEntity
  8
0
  6
Continuous
 62
     7
370
    15
100
AcDbSpline
210
0.0
220
0.0
230
1.0
 70
     8
 71
     3
 72
    13
 73
     9
 74
     0
 42
0.000000001
 43
0.00000001
 40
0.0
 40
0.0
 40
0.0
 40
0.0
 40
0.1853610184873564
 40
0.3966884319625482
 40
0.6289522605097704
 40
0.6597682777485303
 40
0.9646663224866232
 40
1.0
 40
1.0
 40
1.0
 40
1.0
 10
270.9199745251249
 20
39.14818934649282
 30
0.0
 10
271.1244009384422
 20
39.24263446384712
 30
0.0
 10
271.561890945847
 20
39.44475509209752
 30
0.0
 10
272.4300209450582
 20
39.52906207068791
 30
0.0
 10
273.1102776114357
 20
39.46591005528978
 30
0.0
 10
273.9081118133862
 20
39.3174471580343
 30
0.0
 10
274.4553029112828
 20
39.18185272672404
 30
0.0
 10
274.8470388380856
 20
38.99595728098785
 30
0.0
 10
274.8877213200612
 20
38.97665170393177
 30
0.0
  0
SPLINE
  5
230
330
1F
100
AcDbEntity
  8
0
  6
Continuous
 62
     7
370
    15
100
AcDbSpline
210
0.0
220
0.0
230
1.0
 70
     8
 71
     3
 72
    14
 73
    10
 74
     0
 42
0.000000001
 43
0.00000001
 40
0.0
 40
0.0
 40
0.0
 40
0.0
 40
0.0194799607205889
 40
0.2615300180248297
 40
0.5038251453452557
 40
0.6216624516016527
 40
0.7393558771235272
 40
0.9087570143779018
 40
1.0
 40
1.0
 40
1.0
 40
1.0
 10
275.7450744881033
 20
38.57833968316986
 30
0.0
 10
275.7751051199187
 20
38.56457353228593
 30
0.0
 10
276.1782841505447
 20
38.37975479776969
 30
0.0
 10
276.6931464923811
 20
37.9517897632498
 30
0.0
 10
277.0584303666473
 20
37.45144884813198
 30
0.0
 10
277.0828348073676
 20
37.04219504250883
 30
0.0
 10
276.9591536873406
 20
36.69356228948274
 30
0.0
 10
276.6658140364564
 20
36.36452778528233
 30
0.0
 10
276.33802412546
 20
36.15870917255141
 30
0.0
 10
276.2232755947582
 20
36.08665880550337
 30
0.0
  0
ARC
  5
231
330
1F
100
AcDbEntity
  8
0
  6
Continuous
 62
     7
370
    15
100
AcDbCircle
 10
273.4059482105
 20
19.9125748411
 30
0.0
 40
1.018671274853531
100
AcDbArc
 50
187.5912173594
 51
255.9544478585
  0
LWPOLYLINE
  5
232
330
1F
100
AcDbEntity
  8
0
  6
Continuous
 62
     7
370
    15
100
AcDbPolyline
 90
       15
 70
   128
 43
0.0
 10
282.8587193493
 20
24.5240470612
 10
282.3128287575
 20
23.5537738706
 10
281.7010623123
 20
22.6283215099
 10
281.0327835287
 20
21.7618555735
 10
280.318220426
 20
20.9676365289
 10
279.5683097823
 20
20.2578210602
 10
278.794529205
 20
19.6432723485
 10
278.0087214648
 20
19.1333974443
 10
277.2229137246
 20
18.7359980435
 10
276.4491331473
 20
18.457158717
 10
275.6992225036
 20
18.3011457861
 10
274.9846594009
 20
18.2703478333
 10
274.3163806173
 20
18.3652355097
 10
273.7046141721
 20
18.5843573674
 10
273.1587235803
 20
18.9243586965
  0
ARC
  5
233
330
1F
100
AcDbEntity
  8
0
  6
Continuous
 62
     7
370
    15
100
AcDbCircle
 10
279.4667965468
 20
27.0502732118
 30
0.0
 40
4.229297679491427
100
AcDbArc
 50
323.3221060787
 51
349.2040798282
  0
LWPOLYLINE
  5
234
330
1F
100
AcDbEntity
  8
0
  6
Continuous
 62
     7
370
    15
100
AcDbPolyline
 90
        9
 70
   128
 43
0.0
 10
283.6212381569
 20
33.1865250364
 10
283.9462535792
 20
32.5547430342
 10
284.1819637807
 20
31.8316258413
 10
284.3248224994
 20
31.0280494553
 10
284.3726822215
 20
30.15610078
 10
284.3248224994
 20
29.2288944457
 10
284.1819637807
 20
28.260376894
 10
283.9462535792
 20
27.2651144951
 10
283.6212381569
 20
26.2580776738
  0
ARC
  5
235
330
1F
100
AcDbEntity
  8
0
  6
Continuous
 62
     7
370
    15
100
AcDbCircle
 10
282.6114947191
 20
33.0519540287
 30
0.0
 40
1.018671274853701
100
AcDbArc
 50
7.5912173594
 51
75.9544478585
  0
LWPOLYLINE
  5
236
330
1F
100
AcDbEntity
  8
0
  6
Continuous
 62
     7
370
    15
100
AcDbPolyline
 90
       15
 70
   128
 43
0.0
 10
273.1587235803
 20
28.4404818086
 10
273.7046141721
 20
29.4107549992
 10
274.3163806173
 20
30.33620736
 10
274.9846594009
 20
31.2026732964
 10
275.6992225036
 20
31.996892341
 10
276.4491331473
 20
32.7067078096
 10
277.2229137246
 20
33.3212565213
 10
278.0087214648
 20
33.8311314255
 10
278.794529205
 20
34.2285308263
 10
279.5683097823
 20
34.5073701528
 10
280.318220426
 20
34.6633830838
 10
281.0327835287
 20
34.6941810365
 10
281.7010623123
 20
34.5992933602
 10
282.3128287575
 20
34.3801715024
 10
282.8587193493
 20
34.0401701733
  0
ARC
  5
237
330
1F
100
AcDbEntity
  8
0
  6
Continuous
 62
     7
370
    15
100
AcDbCircle
 10
276.5506463828
 20
25.914255658
 30
0.0
 40
4.229297679490746
100
AcDbArc
 50
143.3221060787
 51
169.2040798282
  0
LWPOLYLINE
  5
238
330
1F
100
AcDbEntity
  8
0
  6
Continuous
 62
     7
370
    15
100
AcDbPolyline
 90
        9
 70
   128
 43
0.0
 10
272.3962047727
 20
19.7780038334
 10
272.0711893504
 20
20.4097858356
 10
271.8354791489
 20
21.1329030286
 10
271.6926204302
 20
21.9364794146
 10
271.6447607081
 20
22.8084280899
 10
271.6926204302
 20
23.7356344242
 10
271.8354791489
 20
24.7041519758
 10
272.0711893504
 20
25.6994143747
 10
272.3962047727
 20
26.706451196
  0
SPLINE
  5
239
330
1F
100
AcDbEntity
  8
0
  6
Continuous
 62
     7
370
    15
100
AcDbSpline
210
0.0
220
0.0
230
1.0
 70
     8
 71
     3
 72
    12
 73
     8
 74
     0
 42
0.000000001
 43
0.00000001
 40
0.0
 40
0.0
 40
0.0
 40
0.0
 40
0.4999999999999989
 40
0.4999999999999989
 40
0.7499999999999994
 40
0.7499999999999994
 40
1.0
 40
1.0
 40
1.0
 40
1.0
 10
281.7805325262761
 20
34.00111101502476
 30
0.0
 10
281.9798828196638
 20
34.05094957974894
 30
0.0
 10
282.1709899127333
 20
34.08027049242479
 30
0.0
 10
282.4453473098704
 20
34.0909574423348
 30
0.0
 10
282.5342180809768
 20
34.08879273996627
 30
0.0
 10
282.7025501578607
 20
34.07304646197524
 30
0.0
 10
282.782666652738
 20
34.0595047098851
 30
0.0
 10
282.8587187998265
 20
34.04017018894441
 30
0.0
  0
LWPOLYLINE
  5
23A
330
1F
100
AcDbEntity
  8
0
  6
Continuous
 62
     7
370
    15
100
AcDbPolyline
 90
       12
 70
   128
 43
0.0
 10
273.8480007141
 20
29.4217581902
 10
274.4693782872
 20
30.3416546578
 10
275.1496101475
 20
31.1956188885
 10
275.8767274134
 20
31.968625734
 10
276.637936376
 20
32.6470742803
 10
277.4198430632
 20
33.2190254709
 10
278.2086898217
 20
33.6744170113
 10
278.990596509
 20
34.0052360657
 10
279.7518054716
 20
34.2056606804
 10
280.4789227374
 20
34.2721655605
 10
281.1591545978
 20
34.2035803185
 10
281.7805321708
 20
34.0011111259
  0
SPLINE
  5
23B
330
1F
100
AcDbEntity
  8
0
  6
Continuous
 62
     7
370
    15
100
AcDbSpline
210
0.0
220
0.0
230
1.0
 70
     8
 71
     3
 72
    12
 73
     8
 74
     0
 42
0.000000001
 43
0.00000001
 40
0.0
 40
0.0
 40
0.0
 40
0.0
 40
0.4999999999999989
 40
0.4999999999999989
 40
0.7499999999999994
 40
0.7499999999999994
 40
1.0
 40
1.0
 40
1.0
 40
1.0
 10
273.1587233121267
 20
28.4404819866101
 30
0.0
 10
273.2721099901379
 20
28.63368156435546
 30
0.0
 10
273.3872185538866
 20
28.81207518167421
 30
0.0
 10
273.5614278862923
 20
29.05925954342409
 30
0.0
 10
273.6200617203197
 20
29.13857802868512
 30
0.0
 10
273.7353202004917
 20
29.28719141589518
 30
0.0
 10
273.7921227049359
 20
29.3567785998097
 30
0.0
 10
273.8480008560243
 20
29.42175795605898
 30
0.0
  0
LINE
  5
23C
330
1F
100
AcDbEntity
  8
0
  6
Continuous
 62
     7
370
    15
100
AcDbLine
 10
272.8291648595
 20
19.9399612631
 30
0.0
 11
273.8079223539
 21
20.5049859377
 31
0.0
  0
LINE
  5
23D
330
1F
100
AcDbEntity
  8
0
  6
Continuous
 62
     7
370
    15
100
AcDbLine
 10
272.4022027961
 20
19.7515259219
 30
0.0
 11
272.8291648595
 21
19.9399612631
 31
0.0
  0
ARC
  5
23E
330
1F
100
AcDbEntity
  8
0
  6
Continuous
 62
     7
370
    15
100
AcDbCircle
 10
279.7424832307
 20
33.4781248879
 30
0.0
 40
2.561682743198107
100
AcDbArc
 50
341.3542182125
 51
13.7253530252
  0
ARC
  5
23F
330
1F
100
AcDbEntity
  8
0
  6
Continuous
 62
     7
370
    15
100
AcDbCircle
 10
274.805994197
 20
30.4559377335
 30
0.0
 40
7.686241795228159
100
AcDbArc
 50
343.3431694729
 51
16.6568305271
  0
ARC
  5
240
330
1F
100
AcDbEntity
  8
0
  6
Continuous
 62
     7
370
    15
100
AcDbCircle
 10
278.638457832
 20
27.4699364166
 30
0.0
 40
3.616983567926795
100
AcDbArc
 50
300.3475732975
 51
12.4994794039
  0
LINE
  5
241
330
1F
100
AcDbEntity
  8
0
  6
Continuous
 62
     7
370
    15
100
AcDbLine
 10
279.4871607999
 20
23.7835405066
 30
0.0
 11
280.4659182944
 21
24.3485651813
 31
0.0
  0
LWPOLYLINE
  5
242
330
1F
100
AcDbEntity
  8
0
  6
Continuous
 62
     7
370
    15
100
AcDbPolyline
 90
        9
 70
   128
 43
0.0
 10
279.4871607999
 20
23.7835405066
 10
278.8290769438
 20
22.9903259621
 10
278.1268783436
 20
22.2836146937
 10
277.3947651121
 20
21.6776978413
 10
276.6475415769
 20
21.1848278771
 10
275.9003180417
 20
20.8149719112
 10
275.1682048103
 20
20.5756088188
 10
274.46600621
 20
20.4715788405
 10
273.8079223539
 20
20.5049859377
  0
LINE
  5
243
330
1F
100
AcDbEntity
  8
0
  6
Continuous
 62
     7
370
    15
100
AcDbLine
 10
272.2007767509
 20
24.7009941655
 30
0.0
 11
272.2386229745
 21
25.3913647302
 31
0.0
  0
ARC
  5
244
330
1F
100
AcDbEntity
  8
0
  6
Continuous
 62
     7
370
    15
100
AcDbCircle
 10
281.7625046498
 20
24.1706254585
 30
0.0
 40
9.606274167262765
100
AcDbArc
 50
151.4049330014
 51
171.0935151355
  0
LWPOLYLINE
  5
245
330
1F
100
AcDbEntity
  8
0
  6
Continuous
 62
     7
370
    15
100
AcDbPolyline
 90
       31
 70
   128
 43
0.0
 10
278.4567350558
 20
33.0032281637
 10
278.87092399
 20
32.9985938218
 10
279.4200541268
 20
32.8832676229
 10
279.9072509514
 20
32.6425066952
 10
280.3216311927
 20
32.2816895781
 10
280.653938349
 20
31.8088761457
 10
280.8967489775
 20
31.234628118
 10
281.0446396347
 20
30.5717735871
 10
281.094306403
 20
29.8351195507
 10
281.0446396347
 20
29.0411214843
 10
280.8967489775
 20
28.2075160351
 10
280.653938349
 20
27.3529248231
 10
280.3216311927
 20
26.4964377147
 10
279.9072509514
 20
25.6571873548
 10
279.4200541268
 20
24.8539209466
 10
278.87092399
 20
24.1045825871
 10
278.2721272496
 20
23.4259108146
 10
277.63703985
 20
22.8330662456
 10
276.9798487333
 20
22.3392921032
 10
276.3152344206
 20
21.9556184272
 10
275.6580433039
 20
21.6906158572
 10
275.0229559043
 20
21.5502041225
 10
274.4241591639
 20
21.5375198945
 10
273.8750290271
 20
21.6528460934
 10
273.3878322025
 20
21.8936070211
 10
272.9734519612
 20
22.2544241382
 10
272.6411448048
 20
22.7272375706
 10
272.3983341764
 20
23.3014855982
 10
272.2504435191
 20
23.9643401291
 10
272.2007767509
 20
24.7009941655
 10
272.2007767509
 20
24.7009941655
  0
ARC
  5
246
330
1F
100
AcDbEntity
  8
0
  6
Continuous
 62
     7
370
    15
100
AcDbCircle
 10
282.7861244508
 20
31.9279452442
 30
0.0
 40
2.304177208123886
100
AcDbArc
 50
115.875775328
 51
120.0399960545
  0
LINE
  5
247
330
1F
100
AcDbEntity
  8
0
  6
Continuous
 62
     7
370
    15
100
AcDbLine
 10
280.6538856655
 20
33.3575918503
 30
0.0
 11
281.6326431599
 21
33.9226165249
 31
0.0
  0
LWPOLYLINE
  5
248
330
1F
100
AcDbEntity
  8
0
  6
Continuous
 62
     7
370
    15
100
AcDbPolyline
 90
        9
 70
   128
 43
0.0
 10
274.9746472195
 20
30.0790372814
 10
275.6327310756
 20
30.8722518259
 10
276.3349296758
 20
31.5789630943
 10
277.0670429073
 20
32.1848799467
 10
277.8142664425
 20
32.6777499109
 10
278.5614899777
 20
33.0476058768
 10
279.2936032092
 20
33.2869689692
 10
279.9958018094
 20
33.3909989475
 10
280.6538856655
 20
33.3575918503
  0
LINE
  5
249
330
1F
100
AcDbEntity
  8
0
  6
Continuous
 62
     7
370
    15
100
AcDbLine
 10
273.995889725
 20
29.5140126067
 30
0.0
 11
274.9746472195
 21
30.0790372814
 31
0.0
  0
ARC
  5
24A
330
1F
100
AcDbEntity
  8
0
  6
Continuous
 62
     7
370
    15
100
AcDbCircle
 10
275.2971348227
 20
27.263379231
 30
0.0
 40
2.599728715850819
100
AcDbArc
 50
120.0351441237
 51
123.8773835464
  0
SPLINE
  5
24B
330
1F
100
AcDbEntity
  8
0
  6
Continuous
 62
     7
370
    15
100
AcDbSpline
210
0.0
220
0.0
230
1.0
 70
     8
 71
     3
 72
    12
 73
     8
 74
     0
 42
0.000000001
 43
0.00000001
 40
0.0
 40
0.0
 40
0.0
 40
0.0
 40
0.5
 40
0.5
 40
0.75
 40
0.75
 40
1.0
 40
1.0
 40
1.0
 40
1.0
 10
272.3962046550015
 20
19.77800415236104
 30
0.0
 10
272.3408756848809
 20
19.95105648171217
 30
0.0
 10
272.3007406331962
 20
20.14007892199189
 30
0.0
 10
272.2610476637993
 20
20.44622087859359
 30
0.0
 10
272.2512679880966
 20
20.55268045346568
 30
0.0
 10
272.2388941293703
 20
20.76909143679757
 30
0.0
 10
272.2362221658789
 20
20.87931755997804
 30
0.0
 10
272.2369137607946
 20
20.99155389146512
 30
0.0
  0
ARC
  5
24C
330
1F
100
AcDbEntity
  8
0
  6
Continuous
 62
     7
370
    15
100
AcDbCircle
 10
279.6742256843
 20
23.3747835484
 30
0.0
 40
7.80982700179695
100
AcDbArc
 50
162.2323418517
 51
197.7676581483
  0
SPLINE
  5
24D
330
1F
100
AcDbEntity
  8
0
  6
Continuous
 62
     7
370
    15
100
AcDbSpline
210
0.0
220
0.0
230
1.0
 70
     8
 71
     3
 72
    12
 73
     8
 74
     0
 42
0.000000001
 43
0.00000001
 40
0.0
 40
0.0
 40
0.0
 40
0.0
 40
0.2499999999999998
 40
0.2499999999999998
 40
0.4999999999999997
 40
0.4999999999999997
 40
1.0
 40
1.0
 40
1.0
 40
1.0
 10
272.2369137607946
 20
25.7580130558351
 30
0.0
 10
272.2362275386413
 20
25.81806232431545
 30
0.0
 10
272.2388517830909
 20
25.88325686054089
 30
0.0
 10
272.2510731270129
 20
26.02404269371165
 30
0.0
 10
272.2607426779632
 20
26.10007062642633
 30
0.0
 10
272.300739539079
 20
26.34168170807821
 30
0.0
 10
272.3411681842275
 20
26.51698491602524
 30
0.0
 10
272.3962046550015
 20
26.70645168518223
 30
0.0
  0
ARC
  5
24E
330
1F
100
AcDbEntity
  8
0
  6
Continuous
 62
     7
370
    15
100
AcDbCircle
 10
275.8371821982
 20
20.1671613939
 30
0.0
 40
3.693448041058689
100
AcDbArc
 50
163.7052385196
 51
167.102708996
  0
ARC
  5
24F
330
1F
100
AcDbEntity
  8
0
  6
Continuous
 62
     7
370
    15
100
AcDbCircle
 10
279.6558138224
 20
23.4066400545
 30
0.0
 40
7.686241795228159
100
AcDbArc
 50
163.3431694729
 51
196.6568305271
  0
ARC
  5
250
330
1F
100
AcDbEntity
  8
0
  6
Continuous
 62
     7
370
    15
100
AcDbCircle
 10
273.566776001
 20
26.1688272946
 30
0.0
 40
1.391870237604138
100
AcDbArc
 50
197.1666861273
 51
203.6799159606
  0
LWPOLYLINE
  5
251
330
1F
100
AcDbEntity
  8
0
  6
Continuous
 62
     7
370
    15
100
AcDbPolyline
 90
       27
 70
   128
 43
0.0
 10
278.3290566113
 20
32.9458159755
 10
278.6001492568
 20
32.9157348582
 10
279.1167252337
 20
32.7592381618
 10
279.5671387255
 20
32.4788168423
 10
279.9408324408
 20
32.0810437156
 10
280.2290470789
 20
31.5752423084
 10
280.4250272903
 20
30.9732679204
 10
280.5241793977
 20
30.2892306586
 10
280.5241793977
 20
29.5391635803
 10
280.4250272903
 20
28.740647732
 10
280.2290470789
 20
27.9123994082
 10
279.9408324408
 20
27.073832463
 10
279.5671387255
 20
26.2446017565
 10
279.1167252337
 20
25.4441440886
 10
278.6001492568
 20
24.6912214646
 10
278.0295187943
 20
24.0034813809
 10
277.4182088027
 20
23.3970443485
 10
276.780548017
 20
22.886124807
 10
276.1314827324
 20
22.4826974861
 10
275.4862264076
 20
22.196219459
 10
274.8599032476
 20
22.0334046157
 10
274.267193928
 20
21.9980697144
 10
273.7219908567
 20
22.0910425936
 10
273.2370732546
 20
22.3101445639
 10
272.8238069414
 20
22.6502397231
 10
272.4918791066
 20
23.1033567508
 10
272.4167780324
 20
23.2447336591
  0
ARC
  5
252
330
1F
100
AcDbEntity
  8
0
  6
Continuous
 62
     7
370
    15
100
AcDbCircle
 10
272.8424084341
 20
21.2610966155
 30
0.0
 40
2.304177208172387
100
AcDbArc
 50
295.8757753281
 51
300.0399960545
  0
SPLINE
  5
253
330
1F
100
AcDbEntity
  8
0
  6
Continuous
 62
     7
370
    15
100
AcDbSpline
210
0.0
220
0.0
230
1.0
 70
     8
 71
     3
 72
    12
 73
     8
 74
     0
 42
0.000000001
 43
0.00000001
 40
0.0
 40
0.0
 40
0.0
 40
0.0
 40
0.5000000000000003
 40
0.5000000000000003
 40
0.7500000000000001
 40
0.7500000000000001
 40
1.0
 40
1.0
 40
1.0
 40
1.0
 10
273.8480008560244
 20
19.1879305575927
 30
0.0
 10
273.7365848312855
 20
19.08732862010637
 30
0.0
 10
273.6219626187785
 20
19.01385392572143
 30
0.0
 10
273.4462393032785
 20
18.94622673248948
 30
0.0
 10
273.387314791684
 20
18.93110382721884
 30
0.0
 10
273.2718304044544
 20
18.91634178336037
 30
0.0
 10
273.2148548519249
 20
18.91652455378707
 30
0.0
 10
273.1587233121267
 20
18.92435915292182
 30
0.0
  0
SPLINE
  5
254
330
1F
100
AcDbEntity
  8
0
  6
Continuous
 62
     7
370
    15
100
AcDbSpline
210
0.0
220
0.0
230
1.0
 70
     8
 71
     3
 72
    12
 73
     8
 74
     0
 42
0.000000001
 43
0.00000001
 40
0.0
 40
0.0
 40
0.0
 40
0.0
 40
0.4999999999999997
 40
0.4999999999999997
 40
0.7499999999999998
 40
0.7499999999999998
 40
1.0
 40
1.0
 40
1.0
 40
1.0
 10
282.8587187998265
 20
24.52404735525611
 30
0.0
 10
282.7050921516892
 20
24.35407781779917
 30
0.0
 10
282.5373943692487
 20
24.20604331021944
 30
0.0
 10
282.2655531533874
 20
24.01522063509623
 30
0.0
 10
282.1709827575928
 20
23.95664788535805
 30
0.0
 10
281.9785838334014
 20
23.85256672858511
 30
0.0
 10
281.8805120924073
 20
23.80680376781807
 30
0.0
 10
281.7805325262761
 20
23.76728361655849
 30
0.0
  0
LWPOLYLINE
  5
255
330
1F
100
AcDbEntity
  8
0
  6
Continuous
 62
     7
370
    15
100
AcDbPolyline
 90
       12
 70
   128
 43
0.0
 10
281.7805321708
 20
23.7672836695
 10
281.1591545978
 20
22.8473872019
 10
280.4789227374
 20
21.9934229712
 10
279.7518054716
 20
21.2204161257
 10
278.990596509
 20
20.5419675795
 10
278.2086898217
 20
19.9700163888
 10
277.4198430632
 20
19.5146248484
 10
276.637936376
 20
19.183805794
 10
275.8767274134
 20
18.9833811794
 10
275.1496101475
 20
18.9168762992
 10
274.4693782872
 20
18.9854615412
 10
273.8480007141
 20
19.1879307338
  0
SPLINE
  5
256
330
1F
100
AcDbEntity
  8
0
  6
Continuous
 62
     7
370
    15
100
AcDbSpline
210
0.0
220
0.0
230
1.0
 70
     8
 71
     3
 72
    12
 73
     8
 74
     0
 42
0.000000001
 43
0.00000001
 40
0.0
 40
0.0
 40
0.0
 40
0.0
 40
0.4999999999999996
 40
0.4999999999999996
 40
0.7499999999999998
 40
0.7499999999999998
 40
1.0
 40
1.0
 40
1.0
 40
1.0
 10
283.6212374569517
 20
33.18652518950518
 30
0.0
 10
283.6363264569463
 20
33.03670290044245
 30
0.0
 10
283.6238722899391
 20
32.87803956990176
 30
0.0
 10
283.5659333758804
 20
32.62825929992672
 30
0.0
 10
283.5397764898158
 20
32.5425454605775
 30
0.0
 10
283.4750099045229
 20
32.37066670768272
 30
0.0
 10
283.4364126314643
 20
32.28426480764972
 30
0.0
 10
283.3916196215059
 20
32.19748768115235
 30
0.0
  0
ARC
  5
257
330
1F
100
AcDbEntity
  8
0
  6
Continuous
 62
     7
370
    15
100
AcDbCircle
 10
279.7913506867
 20
33.0218804659
 30
0.0
 40
3.69344804115709
100
AcDbArc
 50
343.7052385196
 51
347.102708996
  0
LINE
  5
258
330
1F
100
AcDbEntity
  8
0
  6
Continuous
 62
     7
370
    15
100
AcDbLine
 10
282.1697115602
 20
32.6591126086
 30
0.0
 11
283.3364364257
 21
31.9855766804
 31
0.0
  0
LWPOLYLINE
  5
259
330
1F
100
AcDbEntity
  8
0
  6
Continuous
 62
     7
370
    15
100
AcDbPolyline
 90
        9
 70
   128
 43
0.0
 10
280.6538856655
 20
23.1100045783
 10
279.9958018094
 20
22.3167900338
 10
279.2936032092
 20
21.6100787654
 10
278.5614899777
 20
21.004161913
 10
277.8142664425
 20
20.5112919488
 10
277.0670429073
 20
20.1414359829
 10
276.3349296758
 20
19.9020728905
 10
275.6327310756
 20
19.7980429122
 10
274.9746472195
 20
19.8314500095
  0
LINE
  5
25A
330
1F
100
AcDbEntity
  8
0
  6
Continuous
 62
     7
370
    15
100
AcDbLine
 10
281.6326431599
 20
23.675029253
 30
0.0
 11
280.6538856655
 21
23.1100045783
 31
0.0
  0
ARC
  5
25B
330
1F
100
AcDbEntity
  8
0
  6
Continuous
 62
     7
370
    15
100
AcDbCircle
 10
280.3313980623
 20
25.9256626288
 30
0.0
 40
2.599728715922696
100
AcDbArc
 50
300.0351441237
 51
303.8773835464
  0
LINE
  5
25C
330
1F
100
AcDbEntity
  8
0
  6
Continuous
 62
     7
370
    15
100
AcDbLine
 10
274.9746472195
 20
19.8314500095
 30
0.0
 11
273.995889725
 21
19.2664253348
 31
0.0
  0
LINE
  5
25D
330
1F
100
AcDbEntity
  8
0
  6
Continuous
 62
     7
370
    15
100
AcDbLine
 10
273.8079223539
 20
20.5049859377
 30
0.0
 11
274.9746472195
 21
19.8314500095
 31
0.0
  0
LINE
  5
25E
330
1F
100
AcDbEntity
  8
0
  6
Continuous
 62
     7
370
    15
100
AcDbLine
 10
280.6538856655
 20
23.1100045783
 30
0.0
 11
279.4871607999
 21
23.7835405066
 31
0.0
  0
SPLINE
  5
25F
330
1F
100
AcDbEntity
  8
0
  6
Continuous
 62
     7
370
    15
100
AcDbSpline
210
0.0
220
0.0
230
1.0
 70
     8
 71
     3
 72
    12
 73
     8
 74
     0
 42
0.000000001
 43
0.00000001
 40
0.0
 40
0.0
 40
0.0
 40
0.0
 40
0.25
 40
0.25
 40
0.5
 40
0.5
 40
1.0
 40
1.0
 40
1.0
 40
1.0
 10
283.3916196215059
 20
27.43102851678238
 30
0.0
 10
283.4360646500117
 20
27.34571782709918
 30
0.0
 10
283.4744699687296
 20
27.25683742822495
 30
0.0
 10
283.5390687510909
 20
27.07170428010994
 30
0.0
 10
283.5653654616516
 20
26.97491346657531
 30
0.0
 10
283.6241133721645
 20
26.67629824162951
 30
0.0
 10
283.6362466881989
 20
26.47065165936848
 30
0.0
 10
283.6212374569517
 20
26.25807765668402
 30
0.0
  0
ARC
  5
260
330
1F
100
AcDbEntity
  8
0
  6
Continuous
 62
     7
370
    15
100
AcDbCircle
 10
275.9543072006
 20
29.8142583113
 30
0.0
 40
7.809827001796842
100
AcDbArc
 50
342.2323418517
 51
17.7676581483
  0
ARC
  5
261
330
1F
100
AcDbEntity
  8
0
  6
Continuous
 62
     7
370
    15
100
AcDbCircle
 10
282.061756884
 20
27.0202145651
 30
0.0
 40
1.391870237630427
100
AcDbArc
 50
17.1666861274
 51
23.6799159605
  0
ARC
  5
262
330
1F
100
AcDbEntity
  8
0
  6
Continuous
 62
     7
370
    15
100
AcDbCircle
 10
275.9727190626
 20
29.7824018052
 30
0.0
 40
7.686241795228105
100
AcDbArc
 50
343.3431694729
 51
16.6568305271
  0
LINE
  5
263
330
1F
100
AcDbEntity
  8
0
  6
Continuous
 62
     7
370
    15
100
AcDbLine
 10
282.1697115602
 20
28.2527628584
 30
0.0
 11
283.3364364257
 21
27.5792269301
 31
0.0
  0
SPLINE
  5
264
330
1F
100
AcDbEntity
  8
0
  6
Continuous
 62
     7
370
    15
100
AcDbSpline
210
0.0
220
0.0
230
1.0
 70
     8
 71
     3
 72
    12
 73
     8
 74
     0
 42
0.000000001
 43
0.00000001
 40
0.0
 40
0.0
 40
0.0
 40
0.0
 40
0.2499999999999999
 40
0.2499999999999999
 40
0.4999999999999998
 40
0.4999999999999998
 40
1.0
 40
1.0
 40
1.0
 40
1.0
 10
238.7296138176715
 20
40.40246899172316
 30
0.0
 10
238.7633929839438
 20
40.38296869410965
 30
0.0
 10
238.8017176804193
 20
40.35612894553248
 30
0.0
 10
238.8759408045319
 20
40.29772844220984
 30
0.0
 10
238.9113241690266
 20
40.26673878372893
 30
0.0
 10
239.0071341274116
 20
40.17599943070818
 30
0.0
 10
239.0561378855658
 20
40.12010530199065
 30
0.0
 10
239.0899469431806
 20
40.07284543822399
 30
0.0
  0
SPLINE
  5
265
330
1F
100
AcDbEntity
  8
0
  6
Continuous
 62
     7
370
    15
100
AcDbSpline
210
0.0
220
0.0
230
1.0
 70
     8
 71
     3
 72
    12
 73
     8
 74
     0
 42
0.000000001
 43
0.00000001
 40
0.0
 40
0.0
 40
0.0
 40
0.0
 40
0.500000000000004
 40
0.500000000000004
 40
0.750000000000002
 40
0.750000000000002
 40
1.0
 40
1.0
 40
1.0
 40
1.0
 10
256.1944768563716
 20
56.84264696254554
 30
0.0
 10
256.1944768563716
 20
56.91433208871881
 30
0.0
 10
256.1766981882449
 20
56.9970795255952
 30
0.0
 10
256.1218542316804
 20
57.11538407782767
 30
0.0
 10
256.0987115900442
 20
57.15390953505229
 30
0.0
 10
256.0442745418717
 20
57.22104176188664
 30
0.0
 10
256.013436805961
 20
57.24879639148459
 30
0.0
 10
255.9823448220156
 20
57.26674541176056
 30
0.0
  0
ARC
  5
266
330
1F
100
AcDbEntity
  8
0
  6
Continuous
 62
     7
370
    15
100
AcDbCircle
 10
264.6384627332
 20
34.2096469081
 30
0.0
 40
26.23232096063447
100
AcDbArc
 50
138.4932438601
 51
163.3392804221
  0
LWPOLYLINE
  5
267
330
1F
100
AcDbEntity
  8
0
  6
Continuous
 62
     7
370
    15
100
AcDbPolyline
 90
       10
 70
   128
 43
0.0
 10
244.6933202982
 20
54.0700091303
 10
245.8116931796
 20
55.0600426539
 10
246.9548330967
 20
55.9295559796
 10
248.1105861503
 20
56.6693046545
 10
249.2666645403
 20
57.2714239733
 10
250.4107767161
 20
57.729511717
 10
251.5307587511
 20
58.0386979102
 10
252.6147025963
 20
58.1956945256
 10
253.6510843816
 20
58.1988338087
 10
254.6288846816
 20
58.0480814321
  0
LINE
  5
268
330
1F
100
AcDbEntity
  8
0
  6
Continuous
 62
     7
370
    15
100
AcDbLine
 10
255.9823444522
 20
57.2667457377
 30
0.0
 11
254.6288846816
 21
58.0480814321
 31
0.0
  0
LINE
  5
269
330
1F
100
AcDbEntity
  8
0
  6
Continuous
 62
     7
370
    15
100
AcDbLine
 10
237.3761539032
 20
41.1838048757
 30
0.0
 11
238.7296136738
 21
40.4024691813
 31
0.0
  0
ARC
  5
26A
330
1F
100
AcDbEntity
  8
0
  6
Continuous
 62
     7
370
    15
100
AcDbCircle
 10
263.0292616485
 20
35.1522251137
 30
0.0
 40
26.35264486573474
100
AcDbArc
 50
136.493814506
 51
166.7688887241
  0
SPLINE
  5
26B
330
1F
100
AcDbEntity
  8
0
  6
Continuous
 62
     7
370
    15
100
AcDbSpline
210
0.0
220
0.0
230
1.0
 70
     8
 71
     3
 72
    12
 73
     8
 74
     0
 42
0.000000001
 43
0.00000001
 40
0.0
 40
0.0
 40
0.0
 40
0.0
 40
0.2499999999999997
 40
0.2499999999999997
 40
0.4999999999999993
 40
0.4999999999999993
 40
1.0
 40
1.0
 40
1.0
 40
1.0
 10
243.9156866933524
 20
53.29425235485768
 30
0.0
 10
244.0150013760723
 20
53.32760043915349
 30
0.0
 10
244.1088265157638
 20
53.37148264065802
 30
0.0
 10
244.2858196206694
 20
53.47961290945373
 30
0.0
 10
244.3656311885904
 20
53.54201839963493
 30
0.0
 10
244.5738150498108
 20
53.74941597742469
 30
0.0
 10
244.6655248833968
 20
53.91082651521847
 30
0.0
 10
244.6933202095706
 20
54.07000952275757
 30
0.0
  0
LINE
  5
26C
330
1F
100
AcDbEntity
  8
0
  6
Continuous
 62
     7
370
    15
100
AcDbLine
 10
260.211740529
 20
52.1715979684
 30
0.0
 11
260.3171043576
 21
52.354093092
 31
0.0
  0
LINE
  5
26D
330
1F
100
AcDbEntity
  8
0
  6
Continuous
 62
     7
370
    15
100
AcDbLine
 10
259.0405816833
 20
51.4955023579
 30
0.0
 11
260.211740529
 21
52.1715979684
 31
0.0
  0
ARC
  5
26E
330
1F
100
AcDbEntity
  8
0
  6
Continuous
 62
     7
370
    15
100
AcDbCircle
 10
259.703069511
 20
50.4598179382
 30
0.0
 40
1.229443914554686
100
AcDbArc
 50
122.6054968531
 51
177.3945222572
  0
LINE
  5
26F
330
1F
100
AcDbEntity
  8
0
  6
Continuous
 62
     7
370
    15
100
AcDbLine
 10
258.4748965608
 20
49.8829290476
 30
0.0
 11
258.4748965608
 21
50.5157066072
 31
0.0
  0
ARC
  5
270
330
1F
100
AcDbEntity
  8
0
  6
Continuous
 62
     7
370
    15
100
AcDbCircle
 10
241.4489504676
 20
40.6675648192
 30
0.0
 40
0.5824779991052914
100
AcDbArc
 50
101.8881797901
 51
120.790443796
  0
LINE
  5
271
330
1F
100
AcDbEntity
  8
0
  6
Continuous
 62
     7
370
    15
100
AcDbLine
 10
239.1378421215
 20
40.005895372
 30
0.0
 11
241.1507802162
 21
41.1679397993
 31
0.0
  0
LINE
  5
272
330
1F
100
AcDbEntity
  8
0
  6
Continuous
 62
     7
370
    15
100
AcDbLine
 10
239.089946838
 20
40.0728453156
 30
0.0
 11
239.1378421215
 21
40.005895372
 31
0.0
  0
LINE
  5
273
330
1F
100
AcDbEntity
  8
0
  6
Continuous
 62
     7
370
    15
100
AcDbLine
 10
256.1944767847
 20
54.0576658545
 30
0.0
 11
256.1944767847
 21
56.842646743
 31
0.0
  0
LINE
  5
274
330
1F
100
AcDbEntity
  8
0
  6
Continuous
 62
     7
370
    15
100
AcDbLine
 10
258.6062103357
 20
55.4499299983
 30
0.0
 11
256.1944767847
 21
54.0576658545
 31
0.0
  0
SPLINE
  5
275
330
1F
100
AcDbEntity
  8
0
  6
Continuous
 62
     7
370
    15
100
AcDbSpline
210
0.0
220
0.0
230
1.0
 70
     8
 71
     3
 72
    14
 73
    10
 74
     0
 42
0.000000001
 43
0.00000001
 40
0.0
 40
0.0
 40
0.0
 40
0.0
 40
0.25
 40
0.25
 40
0.5
 40
0.5
 40
0.75
 40
0.75
 40
1.0
 40
1.0
 40
1.0
 40
1.0
 10
241.8193260152463
 20
35.51520195382808
 30
0.0
 10
241.8126852629139
 20
35.44983185452518
 30
0.0
 10
241.793471438779
 20
35.38347433445195
 30
0.0
 10
241.734412347538
 20
35.2462859744833
 30
0.0
 10
241.6955127588354
 20
35.17785166955923
 30
0.0
 10
241.604172178285
 20
35.0412528224521
 30
0.0
 10
241.5524203230867
 20
34.97421324320976
 30
0.0
 10
241.4431537940174
 20
34.84622822243453
 30
0.0
 10
241.3854317966369
 20
34.7851402796074
 30
0.0
 10
241.3289585938388
 20
34.73089665691818
 30
0.0
  0
SPLINE
  5
276
330
1F
100
AcDbEntity
  8
0
  6
Continuous
 62
     7
370
    15
100
AcDbSpline
210
0.0
220
0.0
230
1.0
 70
     8
 71
     3
 72
    16
 73
    12
 74
     0
 42
0.000000001
 43
0.00000001
 40
0.0
 40
0.0
 40
0.0
 40
0.0
 40
0.25
 40
0.25
 40
0.375
 40
0.375
 40
0.5
 40
0.5
 40
0.75
 40
0.75
 40
1.0
 40
1.0
 40
1.0
 40
1.0
 10
241.8193260152463
 20
40.78189019049117
 30
0.0
 10
241.8613929614492
 20
40.31922300059698
 30
0.0
 10
241.9080675930571
 20
39.85432403637659
 30
0.0
 10
241.9601687577707
 20
39.16565084051891
 30
0.0
 10
241.974546586397
 20
38.93754096749701
 30
0.0
 10
241.9941605816463
 20
38.48574906857484
 30
0.0
 10
241.9993647477459
 20
38.26151715893937
 30
0.0
 10
241.9991937537393
 20
37.59988704168912
 30
0.0
 10
241.9772077005779
 20
37.1735301021663
 30
0.0
 10
241.9078009269048
 20
36.33794527941039
 30
0.0
 10
241.8612727465184
 20
35.92811631223787
 30
0.0
 10
241.8193260152463
 20
35.51520195382808
 30
0.0
  0
SPLINE
  5
277
330
1F
100
AcDbEntity
  8
0
  6
Continuous
 62
     7
370
    15
100
AcDbSpline
210
0.0
220
0.0
230
1.0
 70
     8
 71
     3
 72
    14
 73
    10
 74
     0
 42
0.000000001
 43
0.00000001
 40
0.0
 40
0.0
 40
0.0
 40
0.0
 40
0.2499999999999994
 40
0.2499999999999994
 40
0.4999999999999997
 40
0.4999999999999997
 40
0.7499999999999999
 40
0.7499999999999999
 40
1.0
 40
1.0
 40
1.0
 40
1.0
 10
241.3289585938388
 20
41.23754973313861
 30
0.0
 10
241.386059033589
 20
41.2486304014577
 30
0.0
 10
241.4425063479559
 20
41.24521250421915
 30
0.0
 10
241.5528099109414
 20
41.21057801759895
 30
0.0
 10
241.6039305747383
 20
41.1802476629294
 30
0.0
 10
241.6956774267397
 20
41.09605334713173
 30
0.0
 10
241.7342553241611
 20
41.04408461821107
 30
0.0
 10
241.7933066058296
 20
40.92252655672083
 30
0.0
 10
241.8126976576723
 20
40.8547912172871
 30
0.0
 10
241.8193260152463
 20
40.78189019049117
 30
0.0
  0
SPLINE
  5
278
330
1F
100
AcDbEntity
  8
0
  6
Continuous
 62
     7
370
    15
100
AcDbSpline
210
0.0
220
0.0
230
1.0
 70
     8
 71
     3
 72
     8
 73
     4
 74
     0
 42
0.000000001
 43
0.00000001
 40
0.0
 40
0.0
 40
0.0
 40
0.0
 40
1.0
 40
1.0
 40
1.0
 40
1.0
 10
236.3860023974339
 20
42.44218408059285
 30
0.0
 10
236.0053045314335
 20
42.37921724292224
 30
0.0
 10
235.6244665591936
 20
42.31651712078721
 30
0.0
 10
235.243525908454
 20
42.25403624211418
 30
0.0
  0
SPLINE
  5
279
330
1F
100
AcDbEntity
  8
0
  6
Continuous
 62
     7
370
    15
100
AcDbSpline
210
0.0
220
0.0
230
1.0
 70
     8
 71
     3
 72
     8
 73
     4
 74
     0
 42
0.000000001
 43
0.00000001
 40
0.0
 40
0.0
 40
0.0
 40
0.0
 40
0.0011901715795577
 40
0.0011901715795577
 40
0.0011901715795577
 40
0.0011901715795577
 10
234.8858391108961
 20
42.62143289796978
 30
0.0
 10
235.0054856183909
 20
42.49881798821431
 30
0.0
 10
235.124728792539
 20
42.37634594771859
 30
0.0
 10
235.243525908454
 20
42.25403624211418
 30
0.0
  0
LWPOLYLINE
  5
27A
330
1F
100
AcDbEntity
  8
0
  6
Continuous
 62
     7
370
    15
100
AcDbPolyline
 90
       21
 70
   128
 43
0.0
 10
234.8858391995
 20
42.6214329533
 10
235.2360966328
 20
43.9860321145
 10
235.6802420981
 20
45.3612328244
 10
236.2142716447
 20
46.7346376321
 10
236.8333719708
 20
48.0938666535
 10
237.5319605947
 20
49.4266647924
 10
238.3037411723
 20
50.7210184666
 10
239.1417548637
 20
51.9652578854
 10
240.0384481636
 20
53.1481676903
 10
240.9857367795
 20
54.2590831479
 10
241.9750810354
 20
55.2879891928
 10
242.9975624278
 20
56.2256110108
 10
244.04396298
 20
57.0634955911
 10
245.1048497414
 20
57.7940901646
 10
246.1706587115
 20
58.4108089032
 10
247.2317818493
 20
58.9080899936
 10
248.2786530961
 20
59.281451381
 10
249.3018351799
 20
59.5275279521
 10
250.2921037031
 20
59.6441003059
 10
251.2405319302
 20
59.6301193659
 10
252.138569978
 20
59.4857095097
  0
LINE
  5
27B
330
1F
100
AcDbEntity
  8
0
  6
Continuous
 62
     7
370
    15
100
AcDbLine
 10
252.5689894
 20
58.1626638593
 30
0.0
 11
252.138569978
 21
59.4857095097
 31
0.0
  0
LWPOLYLINE
  5
27C
330
1F
100
AcDbEntity
  8
0
  6
Continuous
 62
     7
370
    15
100
AcDbPolyline
 90
       20
 70
   128
 43
0.0
 10
236.3860022716
 20
42.4421842663
 10
236.7145856881
 20
43.7357338923
 10
237.1358296095
 20
45.0399802401
 10
237.6456286695
 20
46.3422091356
 10
238.2390134911
 20
47.629728539
 10
238.910200078
 20
48.8899879335
 10
239.6526457905
 20
50.1107022746
 10
240.4591138829
 20
51.2799728984
 10
241.3217429803
 20
52.3864021542
 10
242.2321247863
 20
53.4192059465
 10
243.181385743
 20
54.3683171494
 10
244.1602728061
 20
55.224483794
 10
245.1592439949
 20
55.9793601252
 10
246.1685620344
 20
56.6255887968
 10
247.178388707
 20
57.156869789
 10
248.1788806397
 20
57.5680248306
 10
249.1602856477
 20
57.8550461723
 10
250.1130372196
 20
58.0151366836
 10
251.0278490545
 20
58.0467355303
 10
251.4347804988
 20
58.0178512782
  0
LINE
  5
27D
330
1F
100
AcDbEntity
  8
0
  6
Continuous
 62
     7
370
    15
100
AcDbLine
 10
233.5500567392
 20
43.3925637537
 30
0.0
 11
234.8858391995
 21
42.6214329533
 31
0.0
  0
LINE
  5
27E
330
1F
100
AcDbEntity
  8
0
  6
Continuous
 62
     7
370
    15
100
AcDbLine
 10
252.138569978
 20
59.4857095097
 30
0.0
 11
250.8027875176
 21
60.2568403101
 31
0.0
  0
LINE
  5
27F
330
1F
100
AcDbEntity
  8
0
  6
Continuous
 62
     7
370
    15
100
AcDbLine
 10
237.6125443812
 20
42.1418994729
 30
0.0
 11
237.0220337771
 21
42.4827939885
 31
0.0
  0
SPLINE
  5
280
330
1F
100
AcDbEntity
  8
0
  6
Continuous
 62
     7
370
    15
100
AcDbSpline
210
0.0
220
0.0
230
1.0
 70
     8
 71
     3
 72
    14
 73
    10
 74
     0
 42
0.000000001
 43
0.00000001
 40
0.0
 40
0.0
 40
0.0
 40
0.0
 40
0.1134875903227499
 40
0.2884507601050068
 40
0.4634438893900288
 40
0.6380744063983101
 40
0.8124676993590939
 40
0.9871167959912229
 40
0.9999999999999999
 40
0.9999999999999999
 40
0.9999999999999999
 40
0.9999999999999999
 10
244.4067691434877
 20
53.59455985272933
 30
0.0
 10
244.3372186810784
 20
53.597909882152
 30
0.0
 10
244.160442668031
 20
53.60642463280089
 30
0.0
 10
243.8656071456423
 20
53.52127858625983
 30
0.0
 10
243.5729610363392
 20
53.35784297399264
 30
0.0
 10
243.3474186765146
 20
53.12715528136781
 30
0.0
 10
243.2283271758159
 20
52.86442161308437
 30
0.0
 10
243.1942601974275
 20
52.66946383919279
 30
0.0
 10
243.2259224687323
 20
52.58368475097862
 30
0.0
 10
243.2280976220216
 20
52.57779184885257
 30
0.0
  0
SPLINE
  5
281
330
1F
100
AcDbEntity
  8
0
  6
Continuous
 62
     7
370
    15
100
AcDbSpline
210
0.0
220
0.0
230
1.0
 70
     8
 71
     3
 72
    12
 73
     8
 74
     0
 42
0.000000001
 43
0.00000001
 40
0.0
 40
0.0
 40
0.0
 40
0.0
 40
0.2499999999999978
 40
0.2499999999999978
 40
0.4999999999999957
 40
0.4999999999999957
 40
1.0
 40
1.0
 40
1.0
 40
1.0
 10
237.0220338466713
 20
42.48279397600848
 30
0.0
 10
236.9839962391188
 20
42.50475261944572
 30
0.0
 10
236.9385129626606
 20
42.52176725335725
 30
0.0
 10
236.8382717690793
 20
42.54416238547126
 30
0.0
 10
236.7849497700748
 20
42.54925533482584
 30
0.0
 10
236.6238862631956
 20
42.54630581448607
 30
0.0
 10
236.5197423317197
 20
42.51939050127117
 30
0.0
 10
236.4442492478665
 20
42.47580927161524
 30
0.0
  0
SPLINE
  5
282
330
1F
100
AcDbEntity
  8
0
  6
Continuous
 62
     7
370
    15
100
AcDbSpline
210
0.0
220
0.0
230
1.0
 70
     8
 71
     3
 72
    10
 73
     6
 74
     0
 42
0.000000001
 43
0.00000001
 40
0.0
 40
0.0
 40
0.0
 40
0.0
 40
0.5
 40
0.5
 40
1.0
 40
1.0
 40
1.0
 40
1.0
 10
233.4484125348826
 20
43.42328575256761
 30
0.0
 10
233.4556752165312
 20
43.42728235805544
 30
0.0
 10
233.4674688804969
 20
43.4274641364406
 30
0.0
 10
233.5015278912642
 20
43.41774250693086
 30
0.0
 10
233.5237003788164
 20
43.40777885015515
 30
0.0
 10
233.55005664548
 20
43.39256370127384
 30
0.0
  0
LINE
  5
283
330
1F
100
AcDbEntity
  8
0
  6
Continuous
 62
     7
370
    15
100
AcDbLine
 10
236.4442492163
 20
42.4758095117
 30
0.0
 11
236.3860022716
 21
42.4421842663
 31
0.0
  0
LINE
  5
284
330
1F
100
AcDbEntity
  8
0
  6
Continuous
 62
     7
370
    15
100
AcDbLine
 10
239.1378421215
 20
40.005895372
 30
0.0
 11
237.4106593305
 21
41.0029767738
 31
0.0
  0
SPLINE
  5
285
330
1F
100
AcDbEntity
  8
0
  6
Continuous
 62
     7
370
    15
100
AcDbSpline
210
0.0
220
0.0
230
1.0
 70
     8
 71
     3
 72
     8
 73
     4
 74
     0
 42
0.000000001
 43
0.00000001
 40
0.0
 40
0.0
 40
0.0
 40
0.0
 40
0.0011901715795577
 40
0.0011901715795577
 40
0.0011901715795577
 40
0.0011901715795577
 10
237.4106594201428
 20
41.00297669536739
 30
0.0
 10
237.3984979533242
 20
41.06372695107822
 30
0.0
 10
237.3870145063682
 20
41.12399062520826
 30
0.0
 10
237.3761536827257
 20
41.183804896425
 30
0.0
  0
LINE
  5
286
330
1F
100
AcDbEntity
  8
0
  6
Continuous
 62
     7
370
    15
100
AcDbLine
 10
236.1126439861
 20
42.3970421756
 30
0.0
 11
236.1126439861
 21
40.1377144354
 31
0.0
  0
LINE
  5
287
330
1F
100
AcDbEntity
  8
0
  6
Continuous
 62
     7
370
    15
100
AcDbLine
 10
236.1126439861
 20
40.1377144354
 30
0.0
 11
236.1126439861
 21
38.6719065281
 31
0.0
  0
ARC
  5
288
330
1F
100
AcDbEntity
  8
0
  6
Continuous
 62
     7
370
    15
100
AcDbCircle
 10
246.387842152
 20
41.427693635
 30
0.0
 40
10.35585552650253
100
AcDbArc
 50
174.7157411106
 51
187.1556472461
  0
LINE
  5
289
330
1F
100
AcDbEntity
  8
0
  6
Continuous
 62
     7
370
    15
100
AcDbLine
 10
233.887574135
 20
43.0368105658
 30
0.0
 11
233.4484124523
 21
43.423285685
 31
0.0
  0
LINE
  5
28A
330
1F
100
AcDbEntity
  8
0
  6
Continuous
 62
     7
370
    15
100
AcDbLine
 10
235.2435256734
 20
42.2540364045
 30
0.0
 11
233.887574135
 21
43.0368105658
 31
0.0
  0
LINE
  5
28B
330
1F
100
AcDbEntity
  8
0
  6
Continuous
 62
     7
370
    15
100
AcDbLine
 10
235.1138559549
 20
42.1726080773
 30
0.0
 11
235.1145461095
 21
42.293241857
 31
0.0
  0
ARC
  5
28C
330
1F
100
AcDbEntity
  8
0
  6
Continuous
 62
     7
370
    15
100
AcDbCircle
 10
242.0208302212
 20
41.9051487729
 30
0.0
 40
6.912150750290627
100
AcDbArc
 50
177.7824390018
 51
210.8069191332
  0
ARC
  5
28D
330
1F
100
AcDbEntity
  8
0
  6
Continuous
 62
     7
370
    15
100
AcDbCircle
 10
240.6762380145
 20
35.4006743584
 30
0.0
 40
0.9352252727678544
100
AcDbArc
 50
300.4914323455
 51
314.2610654062
  0
LINE
  5
28E
330
1F
100
AcDbEntity
  8
0
  6
Continuous
 62
     7
370
    15
100
AcDbLine
 10
239.1378421215
 20
33.4327415954
 30
0.0
 11
239.089946838
 21
33.3104929345
 31
0.0
  0
LINE
  5
28F
330
1F
100
AcDbEntity
  8
0
  6
Continuous
 62
     7
370
    15
100
AcDbLine
 10
239.1378421215
 20
33.4327415954
 30
0.0
 11
241.1507802162
 21
34.5947860227
 31
0.0
  0
LWPOLYLINE
  5
290
330
1F
100
AcDbEntity
  8
0
  6
Continuous
 62
     7
370
    15
100
AcDbPolyline
 90
        3
 70
   128
 43
0.0
 10
221.6892374867
 20
66.0537726062
 10
221.8767761453
 20
65.9986330463
 10
221.9068475924
 20
65.9880497143
  0
LINE
  5
291
330
1F
100
AcDbEntity
  8
0
  6
Continuous
 62
     7
370
    15
100
AcDbLine
 10
215.7420655978
 20
55.309177069
 30
0.0
 11
215.6831143398
 21
55.3608317192
 31
0.0
  0
LINE
  5
292
330
1F
100
AcDbEntity
  8
0
  6
Continuous
 62
     7
370
    15
100
AcDbLine
 10
237.4106593305
 20
34.4298229972
 30
0.0
 11
239.1378421215
 21
33.4327415954
 31
0.0
  0
SPLINE
  5
293
330
1F
100
AcDbEntity
  8
0
  6
Continuous
 62
     7
370
    15
100
AcDbSpline
210
0.0
220
0.0
230
1.0
 70
     8
 71
     3
 72
    14
 73
    10
 74
     0
 42
0.000000001
 43
0.00000001
 40
0.0
 40
0.0
 40
0.0
 40
0.0
 40
0.25
 40
0.25
 40
0.5
 40
0.5
 40
0.75
 40
0.75
 40
1.0
 40
1.0
 40
1.0
 40
1.0
 10
239.0899469431806
 20
33.31049312555004
 30
0.0
 10
239.0730387456425
 20
33.2673362760009
 30
0.0
 10
239.0525155547615
 20
33.22732030351189
 30
0.0
 10
239.0037321191992
 20
33.15401067652697
 30
0.0
 10
238.9752751408234
 20
33.12072351792091
 30
0.0
 10
238.9119125183152
 20
33.06780067159058
 30
0.0
 10
238.8765934575742
 20
33.04773700516532
 30
0.0
 10
238.8017753805231
 20
33.03097801468328
 30
0.0
 10
238.7634059064584
 20
33.03517491029446
 30
0.0
 10
238.7296138176715
 20
33.0546826679169
 30
0.0
  0
LINE
  5
294
330
1F
100
AcDbEntity
  8
0
  6
Continuous
 62
     7
370
    15
100
AcDbLine
 10
238.7296136738
 20
33.0546828085
 30
0.0
 11
237.3761539032
 21
33.8360185029
 31
0.0
  0
SPLINE
  5
295
330
1F
100
AcDbEntity
  8
0
  6
Continuous
 62
     7
370
    15
100
AcDbSpline
210
0.0
220
0.0
230
1.0
 70
     8
 71
     3
 72
     8
 73
     4
 74
     0
 42
0.000000001
 43
0.00000001
 40
0.0
 40
0.0
 40
0.0
 40
0.0
 40
0.0011901715795577
 40
0.0011901715795577
 40
0.0011901715795577
 40
0.0011901715795577
 10
237.3761536827257
 20
33.83601857261875
 30
0.0
 10
237.3870145063682
 20
34.0339737609769
 30
0.0
 10
237.3984979533242
 20
34.23191267347847
 30
0.0
 10
237.4106594201428
 20
34.4298231596871
 30
0.0
  0
ARC
  5
296
330
1F
100
AcDbEntity
  8
0
  6
Continuous
 62
     7
370
    15
100
AcDbCircle
 10
244.4344872871
 20
34.1752768639
 30
0.0
 40
5.732818577326432
100
AcDbArc
 50
204.9448259459
 51
275.6013881147
  0
SPLINE
  5
297
330
1F
100
AcDbEntity
  8
0
  6
Continuous
 62
     7
370
    15
100
AcDbSpline
210
0.0
220
0.0
230
1.0
 70
     8
 71
     3
 72
     8
 73
     4
 74
     0
 42
0.000000001
 43
0.00000001
 40
0.0
 40
0.0
 40
0.0
 40
0.0
 40
1.0
 40
1.0
 40
1.0
 40
1.0
 10
237.7365763495002
 20
35.08936079812187
 30
0.0
 10
237.6275027691132
 20
34.86958859806265
 30
0.0
 10
237.5188912036452
 20
34.64973551639298
 30
0.0
 10
237.4106594201428
 20
34.4298231596871
 30
0.0
  0
LINE
  5
298
330
1F
100
AcDbEntity
  8
0
  6
Continuous
 62
     7
370
    15
100
AcDbLine
 10
237.7948232448
 20
35.1229859441
 30
0.0
 11
237.7365763002
 21
35.0893606987
 31
0.0
  0
SPLINE
  5
299
330
1F
100
AcDbEntity
  8
0
  6
Continuous
 62
     7
370
    15
100
AcDbSpline
210
0.0
220
0.0
230
1.0
 70
     8
 71
     3
 72
    12
 73
     8
 74
     0
 42
0.000000001
 43
0.00000001
 40
0.0
 40
0.0
 40
0.0
 40
0.0
 40
0.2500000000000015
 40
0.2500000000000015
 40
0.500000000000003
 40
0.500000000000003
 40
1.0
 40
1.0
 40
1.0
 40
1.0
 10
237.8069223737884
 20
35.45653393826659
 30
0.0
 10
237.844959981341
 20
35.43457529482935
 30
0.0
 10
237.8744333852527
 20
35.40831835822468
 30
0.0
 10
237.9132270952956
 20
35.35045034892536
 30
0.0
 10
237.9220492982422
 20
35.31966821411623
 30
0.0
 10
237.9169400255554
 20
35.22668823072949
 30
0.0
 10
237.870316283786
 20
35.16656721880018
 30
0.0
 10
237.7948231999328
 20
35.12298598914425
 30
0.0
  0
LINE
  5
29A
330
1F
100
AcDbEntity
  8
0
  6
Continuous
 62
     7
370
    15
100
AcDbLine
 10
237.0220337771
 20
35.9096402119
 30
0.0
 11
237.8069223538
 21
35.4565336812
 31
0.0
  0
SPLINE
  5
29B
330
1F
100
AcDbEntity
  8
0
  6
Continuous
 62
     7
370
    15
100
AcDbSpline
210
0.0
220
0.0
230
1.0
 70
     8
 71
     3
 72
    12
 73
     8
 74
     0
 42
0.000000001
 43
0.00000001
 40
0.0
 40
0.0
 40
0.0
 40
0.0
 40
0.5
 40
0.5
 40
0.75
 40
0.75
 40
1.0
 40
1.0
 40
1.0
 40
1.0
 10
236.4442492478665
 20
35.90265573593494
 30
0.0
 10
236.5194933851719
 20
35.94609325180787
 30
0.0
 10
236.6242094875832
 20
35.97310230764337
 30
0.0
 10
236.7842317939592
 20
35.97611645067059
 30
0.0
 10
236.8388671476449
 20
35.97089909938838
 30
0.0
 10
236.9384324066228
 20
35.94860832972151
 30
0.0
 10
236.9844125442569
 20
35.93135875592469
 30
0.0
 10
237.0220338466713
 20
35.9096404403282
 30
0.0
  0
LINE
  5
29C
330
1F
100
AcDbEntity
  8
0
  6
Continuous
 62
     7
370
    15
100
AcDbLine
 10
236.3860022716
 20
35.8690304897
 30
0.0
 11
236.4442492163
 21
35.9026557351
 31
0.0
  0
SPLINE
  5
29D
330
1F
100
AcDbEntity
  8
0
  6
Continuous
 62
     7
370
    15
100
AcDbSpline
210
0.0
220
0.0
230
1.0
 70
     8
 71
     3
 72
     8
 73
     4
 74
     0
 42
0.000000001
 43
0.00000001
 40
0.0
 40
0.0
 40
0.0
 40
0.0
 40
1.0
 40
1.0
 40
1.0
 40
1.0
 10
235.2435259084558
 20
35.68088270643418
 30
0.0
 10
235.6244665591949
 20
35.74336358510713
 30
0.0
 10
236.0053045314341
 20
35.80606370724205
 30
0.0
 10
236.3860023974339
 20
35.86903054491255
 30
0.0
  0
LINE
  5
29E
330
1F
100
AcDbEntity
  8
0
  6
Continuous
 62
     7
370
    15
100
AcDbLine
 10
233.887574135
 20
36.4636567892
 30
0.0
 11
235.2435256734
 21
35.6808826279
 31
0.0
  0
LINE
  5
29F
330
1F
100
AcDbEntity
  8
0
  6
Continuous
 62
     7
370
    15
100
AcDbLine
 10
233.887574135
 20
36.4636567892
 30
0.0
 11
235.9005122297
 21
37.6257012164
 31
0.0
  0
ARC
  5
2A0
330
1F
100
AcDbEntity
  8
0
  6
Continuous
 62
     7
370
    15
100
AcDbCircle
 10
243.560683247
 20
35.4010985021
 30
0.0
 40
6.379488898678548
100
AcDbArc
 50
194.2013364212
 51
238.2565264866
  0
ELLIPSE
  5
2A1
330
1F
100
AcDbEntity
  8
0
  6
Continuous
 62
     7
370
    15
100
AcDbEllipse
 10
235.6661976613
 20
38.414200854
 30
0.0
 11
-6.005970385558612E-5
 21
0.8534489614827264
 31
0.0
210
0.0
220
0.0
230
1.0
 40
0.7174342186
 41
3.534193645557428
 42
5.104989972352351
  0
ARC
  5
2A2
330
1F
100
AcDbEntity
  8
0
  6
Continuous
 62
     7
370
    15
100
AcDbCircle
 10
242.9949935566
 20
37.7089688186
 30
0.0
 40
6.86033081260795
100
AcDbArc
 50
195.5571636347
 51
215.5080547584
  0
ARC
  5
2A3
330
1F
100
AcDbEntity
  8
0
  6
Continuous
 62
     7
370
    15
100
AcDbCircle
 10
240.8336869852
 20
36.7235819214
 30
0.0
 40
6.122026280117614
100
AcDbArc
 50
193.7000576687
 51
253.1334089572
  0
SPLINE
  5
2A4
330
1F
100
AcDbEntity
  8
0
  6
Continuous
 62
     7
370
    15
100
AcDbSpline
210
0.0
220
0.0
230
1.0
 70
     8
 71
     3
 72
     8
 73
     4
 74
     0
 42
0.000000001
 43
0.00000001
 40
0.0000000000000007
 40
0.0000000000000007
 40
0.0000000000000007
 40
0.0000000000000007
 40
0.0011901715795607
 40
0.0011901715795607
 40
0.0011901715795607
 40
0.0011901715795607
 10
235.2435259084567
 20
35.68088270643228
 30
0.0
 10
235.1247287925415
 20
35.54453167011689
 30
0.0
 10
235.0054856183912
 20
35.40880112398329
 30
0.0
 10
234.8858391108961
 20
35.27364657416352
 30
0.0
  0
LINE
  5
2A5
330
1F
100
AcDbEntity
  8
0
  6
Continuous
 62
     7
370
    15
100
AcDbLine
 10
233.4484124523
 20
36.2100822324
 30
0.0
 11
233.887574135
 21
36.4636567892
 31
0.0
  0
LINE
  5
2A6
330
1F
100
AcDbEntity
  8
0
  6
Continuous
 62
     7
370
    15
100
AcDbLine
 10
234.8858391995
 20
35.2736465805
 30
0.0
 11
233.5500567392
 21
36.0447773809
 31
0.0
  0
SPLINE
  5
2A7
330
1F
100
AcDbEntity
  8
0
  6
Continuous
 62
     7
370
    15
100
AcDbSpline
210
0.0
220
0.0
230
1.0
 70
     8
 71
     3
 72
    10
 73
     6
 74
     0
 42
0.000000001
 43
0.00000001
 40
0.0
 40
0.0
 40
0.0
 40
0.0
 40
0.5
 40
0.5
 40
1.0
 40
1.0
 40
1.0
 40
1.0
 10
233.55005664548
 20
36.04477737746758
 30
0.0
 10
233.5237523931031
 20
36.05996249914034
 30
0.0
 10
233.5015542789846
 20
36.08359215007422
 30
0.0
 10
233.4675423925528
 20
36.14103454288411
 30
0.0
 10
233.4556715121467
 20
36.17467282103473
 30
0.0
 10
233.4484125348826
 20
36.21008224427785
 30
0.0
  0
ARC
  5
2A8
330
1F
100
AcDbEntity
  8
0
  6
Continuous
 62
     7
370
    15
100
AcDbCircle
 10
239.4310818218
 20
37.2842906411
 30
0.0
 40
5.943578318969005
100
AcDbArc
 50
204.8682587958
 51
239.0934723371
  0
ELLIPSE
  5
2A9
330
1F
100
AcDbEntity
  8
0
  6
Continuous
 62
     7
370
    15
100
AcDbEllipse
 10
235.5469588457
 20
38.3453433739
 30
0.0
 11
0.2600075789209484
 21
0.9705436209909308
 31
0.0
210
0.0
220
0.0
230
1.0
 40
0.5176380889
 41
3.619174351347739
 42
5.189970678142662
  0
SPLINE
  5
2AA
330
1F
100
AcDbEntity
  8
0
  6
Continuous
 62
     7
370
    15
100
AcDbSpline
210
0.0
220
0.0
230
1.0
 70
     8
 71
     3
 72
    12
 73
     8
 74
     0
 42
0.000000001
 43
0.00000001
 40
0.0
 40
0.0
 40
0.0
 40
0.0
 40
0.5
 40
0.5
 40
0.75
 40
0.75
 40
1.0
 40
1.0
 40
1.0
 40
1.0
 10
253.0023890825965
 20
58.68494740931959
 30
0.0
 10
253.0641761351266
 20
58.7206163155112
 30
0.0
 10
253.1446538335308
 20
58.74669747324683
 30
0.0
 10
253.2747963556896
 20
58.7584159593284
 30
0.0
 10
253.319925349869
 20
58.75758785090471
 30
0.0
 10
253.4045139374363
 20
58.74419069989062
 30
0.0
 10
253.4448209341114
 20
58.73112514989633
 30
0.0
 10
253.4757324727269
 20
58.71328029849197
 30
0.0
  0
LINE
  5
2AB
330
1F
100
AcDbEntity
  8
0
  6
Continuous
 62
     7
370
    15
100
AcDbLine
 10
253.4757327476
 20
58.7132802522
 30
0.0
 11
254.6273960417
 21
58.048439184
 31
0.0
  0
SPLINE
  5
2AC
330
1F
100
AcDbEntity
  8
0
  6
Continuous
 62
     7
370
    15
100
AcDbSpline
210
0.0
220
0.0
230
1.0
 70
     8
 71
     3
 72
     9
 73
     5
 74
     0
 42
0.000000001
 43
0.00000001
 40
0.0
 40
0.0
 40
0.0
 40
0.0
 40
0.8664443272572582
 40
1.0
 40
1.0
 40
1.0
 40
1.0
 10
256.194476784722
 20
56.2681250412811
 30
0.0
 10
256.5136534828479
 20
56.33741503251702
 30
0.0
 10
256.8820287933959
 20
56.41738553847585
 30
0.0
 10
257.25236889076
 20
56.49425501896695
 30
0.0
 10
257.3018299116071
 20
56.50452137414732
 30
0.0
  0
LINE
  5
2AD
330
1F
100
AcDbEntity
  8
0
  6
Continuous
 62
     7
370
    15
100
AcDbLine
 10
257.3018299116
 20
56.5045213741
 30
0.0
 11
258.6552896822
 21
55.7231856798
 31
0.0
  0
SPLINE
  5
2AE
330
1F
100
AcDbEntity
  8
0
  6
Continuous
 62
     7
370
    15
100
AcDbSpline
210
0.0
220
0.0
230
1.0
 70
     8
 71
     3
 72
    14
 73
    10
 74
     0
 42
0.000000001
 43
0.00000001
 40
0.0
 40
0.0
 40
0.0
 40
0.0
 40
0.25
 40
0.25
 40
0.5
 40
0.5
 40
0.75
 40
0.75
 40
1.0
 40
1.0
 40
1.0
 40
1.0
 10
258.6552896449182
 20
55.72318558894126
 30
0.0
 10
258.6865517330764
 20
55.70513836959347
 30
0.0
 10
258.7088191051725
 20
55.68204905415316
 30
0.0
 10
258.7319725031608
 20
55.63343770088446
 30
0.0
 10
258.7334926731568
 20
55.60743791931934
 30
0.0
 10
258.7200475023858
 20
55.55730498993191
 30
0.0
 10
258.7053479967377
 20
55.53311467482052
 30
0.0
 10
258.663703001762
 20
55.48816423204793
 30
0.0
 10
258.6373907182445
 20
55.46793032496616
 30
0.0
 10
258.6062103234999
 20
55.44993026622211
 30
0.0
  0
LINE
  5
2AF
330
1F
100
AcDbEntity
  8
0
  6
Continuous
 62
     7
370
    15
100
AcDbLine
 10
253.0023889829
 20
58.6849472059
 30
0.0
 11
252.4944680919
 21
58.3917307168
 31
0.0
  0
SPLINE
  5
2B0
330
1F
100
AcDbEntity
  8
0
  6
Continuous
 62
     7
370
    15
100
AcDbSpline
210
0.0
220
0.0
230
1.0
 70
     8
 71
     3
 72
    10
 73
     6
 74
     0
 42
0.000000001
 43
0.00000001
 40
0.0
 40
0.0
 40
0.0
 40
0.0
 40
0.405518171445378
 40
0.8121546548241618
 40
1.0
 40
1.0
 40
1.0
 40
1.0
 10
260.317104357585
 20
52.3540930919655
 30
0.0
 10
260.3354225329788
 20
52.39301895083522
 30
0.0
 10
260.3721094004523
 20
52.47097801580486
 30
0.0
 10
260.3861319833631
 20
52.57845950057936
 30
0.0
 10
260.3680700638936
 20
52.63155285364702
 30
0.0
 10
260.3623628288962
 20
52.64832937860452
 30
0.0
  0
LWPOLYLINE
  5
2B1
330
1F
100
AcDbEntity
  8
0
  6
Continuous
 62
     7
370
    15
100
AcDbPolyline
 90
       29
 70
   128
 43
0.0
 10
274.2983183878
 20
39.1485330199
 10
274.8702771346
 20
39.0167964419
 10
275.3771201529
 20
38.814887294
 10
275.7934269661
 20
38.5529329158
 10
276.098320561
 20
38.2440697843
 10
276.2765184243
 20
37.9037820194
 10
276.3190813906
 20
37.5491353894
 10
276.2238731416
 20
37.1979142305
 10
275.9956720349
 20
36.8677279772
 10
275.6459207548
 20
36.5751336714
 10
275.1921525138
 20
36.3348059328
 10
274.6571249636
 20
36.1587936685
 10
274.067668113
 20
36.055921899
 10
273.4533363076
 20
36.0313511542
 10
272.8449343663
 20
36.0863136115
 10
272.2729729853
 20
36.2180517101
 10
271.7661326012
 20
36.4199593373
 10
271.3498257879
 20
36.6819137155
 10
271.0449295589
 20
36.9907783677
 10
270.8667343297
 20
37.3310646119
 10
270.8241713634
 20
37.6857112419
 10
270.9193769783
 20
38.0369339215
 10
271.147578085
 20
38.3671201748
 10
271.4973319992
 20
38.65971296
 10
271.9511002403
 20
38.9000406985
 10
272.4861251563
 20
39.0760544835
 10
273.0755846411
 20
39.1789247323
 10
273.6899164465
 20
39.2034954771
 10
274.2983183878
 20
39.1485330199
  0
LWPOLYLINE
  5
2B2
330
1F
100
AcDbEntity
  8
0
  6
Continuous
 62
     7
370
    15
100
AcDbPolyline
 90
       24
 70
   128
 43
0.0
 10
275.6932904993
 20
38.6377021893
 10
275.9537208153
 20
38.4660477978
 10
276.2900543128
 20
38.1458181639
 10
276.4992771957
 20
37.7913361949
 10
276.5716089256
 20
37.4191758617
 10
276.503663596
 20
37.046740761
 10
276.2986181902
 20
36.6914457991
 10
275.9660618982
 20
36.3699033207
 10
275.5215470512
 20
36.0971468376
 10
274.9858539595
 20
35.8859329068
 10
274.3840330592
 20
35.7461364708
 10
273.7442244718
 20
35.6842944636
 10
273.096345586
 20
35.7032982891
 10
272.4706919188
 20
35.8022582554
 10
271.8965148649
 20
35.9765493135
 10
271.4006659178
 20
36.2180198658
 10
271.006326503
 20
36.5153807743
 10
270.7319394886
 20
36.8547260036
 10
270.5903306874
 20
37.2201903136
 10
270.5881280207
 20
37.5946814669
 10
270.7254260718
 20
37.9606932687
 10
270.9958113171
 20
38.3011078439
 10
271.3866386008
 20
38.6000091345
 10
271.4499609676
 20
38.6377018263
  0
LWPOLYLINE
  5
2B3
330
1F
100
AcDbEntity
  8
0
  6
Continuous
 62
     7
370
    15
100
AcDbPolyline
 90
       23
 70
   128
 43
0.0
 10
274.034066538
 20
38.5917660102
 10
274.4908406643
 20
38.4770869317
 10
274.8731453429
 20
38.2927631014
 10
275.1500107072
 20
38.0537261577
 10
275.2990009692
 20
37.7793446988
 10
275.3080536513
 20
37.49184311
 10
275.1764286318
 20
37.2145167144
 10
274.914792706
 20
36.9698310793
 10
274.544343372
 20
36.7776084047
 10
274.0950862843
 20
36.6534248473
 10
273.6034241163
 20
36.607337213
 10
273.1091862161
 20
36.6430806211
 10
272.6524120898
 20
36.7577596996
 10
272.2701074112
 20
36.9420835299
 10
271.9932420468
 20
37.1811204737
 10
271.8442491507
 20
37.4555034532
 10
271.8351991028
 20
37.7430035214
 10
271.9668241223
 20
38.0203299169
 10
272.2284600481
 20
38.2650155521
 10
272.5989093821
 20
38.4572382266
 10
273.0481638356
 20
38.5814233047
 10
273.5398260036
 20
38.627510939
 10
274.034066538
 20
38.5917660102
  0
SPLINE
  5
2B4
330
1F
100
AcDbEntity
  8
0
  6
Continuous
 62
     7
370
    15
100
AcDbSpline
210
0.0
220
0.0
230
1.0
 70
     8
 71
     3
 72
    11
 73
     7
 74
     0
 42
0.000000001
 43
0.00000001
 40
0.0
 40
0.0
 40
0.0
 40
0.0
 40
0.1336649366891685
 40
0.4825478670216067
 40
0.8156356005407792
 40
0.9999999999999999
 40
0.9999999999999999
 40
0.9999999999999999
 40
0.9999999999999999
 10
273.1327616155627
 20
38.57002942435436
 30
0.0
 10
273.2027432524416
 20
38.53093370808046
 30
0.0
 10
273.4553860953821
 20
38.38979306966812
 30
0.0
 10
273.927352803476
 20
38.21970727719696
 30
0.0
 10
274.4342404016097
 20
38.21911587870336
 30
0.0
 10
274.7063083898188
 20
38.28303362487541
 30
0.0
 10
274.803244218394
 20
38.30580704899865
 30
0.0
  0
SPLINE
  5
2B5
330
1F
100
AcDbEntity
  8
0
  6
Continuous
 62
     7
370
    15
100
AcDbSpline
210
0.0
220
0.0
230
1.0
 70
     8
 71
     3
 72
    10
 73
     6
 74
     0
 42
0.000000001
 43
0.00000001
 40
0.0
 40
0.0
 40
0.0
 40
0.0
 40
0.4391279287874033
 40
0.7513760426470267
 40
1.0
 40
1.0
 40
1.0
 40
1.0
 10
271.9011424982693
 20
37.86699007381223
 30
0.0
 10
272.077462751464
 20
37.88374989397683
 30
0.0
 10
272.3791580101778
 20
37.91242702090319
 30
0.0
 10
272.8177221592447
 20
38.22657597951341
 30
0.0
 10
273.0360022077483
 20
38.46454310742434
 30
0.0
 10
273.1327616155627
 20
38.57002942435435
 30
0.0
  0
SPLINE
  5
2B6
330
1F
100
AcDbEntity
  8
0
  6
Continuous
 62
     7
370
    15
100
AcDbSpline
210
0.0
220
0.0
230
1.0
 70
     8
 71
     3
 72
    10
 73
     6
 74
     0
 42
0.000000001
 43
0.00000001
 40
0.0
 40
0.0
 40
0.0
 40
0.0
 40
0.4391287993414548
 40
0.7513756802319578
 40
0.9999999999999999
 40
0.9999999999999999
 40
0.9999999999999999
 40
0.9999999999999999
 10
272.3400085356672
 20
36.89972677971458
 30
0.0
 10
272.277178957694
 20
36.95431318216173
 30
0.0
 10
272.1696737861839
 20
37.04771378656676
 30
0.0
 10
272.0134026986239
 20
37.4559511481084
 30
0.0
 10
271.9356215228542
 20
37.74074567749062
 30
0.0
 10
271.9011424982693
 20
37.86699007381223
 30
0.0
  0
SPLINE
  5
2B7
330
1F
100
AcDbEntity
  8
0
  6
Continuous
 62
     7
370
    15
100
AcDbSpline
210
0.0
220
0.0
230
1.0
 70
     8
 71
     3
 72
     9
 73
     5
 74
     0
 42
0.000000001
 43
0.00000001
 40
0.0
 40
0.0
 40
0.0
 40
0.0
 40
0.8879299594091568
 40
1.0
 40
1.0
 40
1.0
 40
1.0
 10
275.2421102557919
 20
37.338543754901
 30
0.0
 10
275.0656444806551
 20
37.13760201318206
 30
0.0
 10
274.8669060855071
 20
36.91129841841131
 30
0.0
 10
274.6566609385155
 20
36.82349030090777
 30
0.0
 10
274.6330987563582
 20
36.81364964161494
 30
0.0
  0
SPLINE
  5
2B8
330
1F
100
AcDbEntity
  8
0
  6
Continuous
 62
     7
370
    15
100
AcDbSpline
210
0.0
220
0.0
230
1.0
 70
     8
 71
     3
 72
    10
 73
     6
 74
     0
 42
0.000000001
 43
0.00000001
 40
0.0
 40
0.0
 40
0.0
 40
0.0
 40
0.4391270612190475
 40
0.7513756963788247
 40
1.0
 40
1.0
 40
1.0
 40
1.0
 10
274.803244218394
 20
38.30580704899865
 30
0.0
 10
274.8660723905657
 20
38.08344340612442
 30
0.0
 10
274.9735755844858
 20
37.70296437905161
 30
0.0
 10
275.1298503108073
 20
37.42234549227445
 30
0.0
 10
275.2076313852234
 20
37.3642821360904
 30
0.0
 10
275.2421102557919
 20
37.338543754901
 30
0.0
  0
LINE
  5
2B9
330
1F
100
AcDbEntity
  8
0
  6
Continuous
 62
     7
370
    15
100
AcDbLine
 10
274.8032442184
 20
36.9362202261
 30
0.0
 11
274.8032442184
 21
38.305807049
 31
0.0
  0
LINE
  5
2BA
330
1F
100
AcDbEntity
  8
0
  6
Continuous
 62
     7
370
    15
100
AcDbLine
 10
273.1327616156
 20
36.6394536894
 30
0.0
 11
273.1327616156
 21
38.5700294244
 31
0.0
  0
LWPOLYLINE
  5
2BB
330
1F
100
AcDbEntity
  8
0
  6
Continuous
 62
     7
370
    15
100
AcDbPolyline
 90
        3
 70
   128
 43
0.0
 10
243.4243122753
 20
52.7641040306
 10
243.5553603274
 20
52.9394611364
 10
243.7147873674
 20
53.0813832923
  0
LWPOLYLINE
  5
2BC
330
1F
100
AcDbEntity
  8
0
  6
Continuous
 62
     7
370
    15
100
AcDbPolyline
 90
        3
 70
   128
 43
0.0
 10
243.4822803263
 20
52.8283353136
 10
243.5800389536
 20
52.9518999682
 10
243.6890787776
 20
53.0537602686
  0
LWPOLYLINE
  5
2BD
330
1F
100
AcDbEntity
  8
0
  6
Continuous
 62
     7
370
     0
100
AcDbPolyline
 90
        8
 70
   128
 43
0.0
 10
243.696364914
 20
37.7180811858
 10
243.7465677375
 20
36.7517193018
 10
243.89649659
 20
35.8563884121
 10
244.1441244715
 20
35.0441965121
 10
244.4861020247
 20
34.3261269963
 10
244.9178056086
 20
33.7118906493
 10
245.433395909
 20
33.2097934144
 10
245.8714126297
 20
32.9107107383
  0
LWPOLYLINE
  5
2BE
330
1F
100
AcDbEntity
  8
0
  6
Continuous
 62
     7
370
     0
100
AcDbPolyline
 90
       22
 70
   128
 43
0.0
 10
256.3705594031
 20
51.0977366919
 10
256.2160701299
 20
51.1818211212
 10
255.5546622704
 20
51.4408770718
 10
254.8332965676
 20
51.5723185266
 10
254.0617283706
 20
51.5743679386
 10
253.2503913293
 20
51.4469975226
 10
252.4102579477
 20
51.1919293629
 10
251.5526893533
 20
50.8126140868
 10
250.6892826795
 20
50.3141800235
 10
249.8317140851
 20
49.7033676759
 10
248.9915807035
 20
48.9884384802
 10
248.1802436622
 20
48.1790590877
 10
247.4086754652
 20
47.2861759973
 10
246.6873097624
 20
46.3218634303
 10
246.0259019029
 20
45.2991622197
 10
245.433395909
 20
44.231902255
 10
244.9178056086
 20
43.1345171303
 10
244.4861020247
 20
42.0218464349
 10
244.1441244715
 20
40.9089380405
 10
243.89649659
 20
39.8108410742
 10
243.7465677375
 20
38.7424060161
 10
243.696364914
 20
37.7180811858
  0
LINE
  5
2BF
330
1F
100
AcDbEntity
  8
0
  6
Continuous
 62
     7
370
     0
100
AcDbLine
 10
272.8291648595
 20
19.9399612631
 30
0.0
 11
273.995889725
 21
19.2664253348
 31
0.0
  0
LINE
  5
2C0
330
1F
100
AcDbEntity
  8
0
  6
Continuous
 62
     7
370
     0
100
AcDbLine
 10
280.4659182944
 20
24.3485651813
 30
0.0
 11
281.6326431599
 21
23.675029253
 31
0.0
  0
LWPOLYLINE
  5
2C1
330
1F
100
AcDbEntity
  8
0
  6
Continuous
 62
     7
370
     0
100
AcDbPolyline
 90
       21
 70
   128
 43
0.0
 10
238.7296136738
 20
40.4024691813
 10
239.079871107
 20
41.7670683425
 10
239.5240165723
 20
43.1422690524
 10
240.0580461189
 20
44.5156738601
 10
240.677146445
 20
45.8749028815
 10
241.3757350689
 20
47.2077010204
 10
242.1475156465
 20
48.5020546946
 10
242.985529338
 20
49.7462941134
 10
243.8822226378
 20
50.9292039183
 10
244.8295112537
 20
52.0401193759
 10
245.8188555096
 20
53.0690254208
 10
246.8413369021
 20
54.0066472388
 10
247.8877374542
 20
54.8445318191
 10
248.9486242157
 20
55.5751263926
 10
250.0144331857
 20
56.1918451312
 10
251.0755563235
 20
56.6891262216
 10
252.1224275703
 20
57.062487609
 10
253.1456096541
 20
57.3085641801
 10
254.1358781773
 20
57.4251365339
 10
255.0843064044
 20
57.4111555939
 10
255.9823444522
 20
57.2667457377
  0
LWPOLYLINE
  5
2C2
330
1F
100
AcDbEntity
  8
0
  6
Continuous
 62
     7
370
     0
100
AcDbPolyline
 90
        3
 70
   128
 43
0.0
 10
239.089946838
 20
40.0728453156
 10
239.4217775374
 20
41.4308853123
 10
239.5073935918
 20
41.7305528902
  0
LWPOLYLINE
  5
2C3
330
1F
100
AcDbEntity
  8
0
  6
Continuous
 62
     7
370
     0
100
AcDbPolyline
 90
       13
 70
   128
 43
0.0
 10
244.9936656554
 20
51.594025262
 10
245.0910298145
 20
51.7027986316
 10
246.076779076
 20
52.732033914
 10
247.096362214
 20
53.6688875562
 10
248.1402762667
 20
54.5046294804
 10
249.1987909097
 20
55.2314683265
 10
250.2620403643
 20
55.8426303653
 10
251.3201142352
 20
56.3324180217
 10
252.363150942
 20
56.6962683744
 10
253.3814281863
 20
56.9307878907
 10
254.3654553539
 20
57.0337920808
 10
255.3060607308
 20
57.0043201051
 10
256.1944767847
 20
56.842646743
  0
LWPOLYLINE
  5
2C4
330
1F
100
AcDbEntity
  8
0
  6
Continuous
 62
     7
370
     0
100
AcDbPolyline
 90
       26
 70
   128
 43
0.0
 10
241.3289586525
 20
41.2375495416
 10
241.6800590227
 20
42.4606055669
 10
242.1240438031
 20
43.6878274376
 10
242.6557743708
 20
44.9050139914
 10
243.2690986031
 20
46.0980808921
 10
243.9569187072
 20
47.2532214613
 10
244.7112758434
 20
48.3570688389
 10
245.5234396873
 20
49.3968484478
 10
246.3840128088
 20
50.3605291259
 10
247.2830363684
 20
51.2369594292
 10
248.2101071739
 20
52.0159968046
 10
249.154497165
 20
52.6886267574
 10
250.1052780012
 20
53.2470651928
 10
251.0514474207
 20
53.6848511336
 10
251.9820563389
 20
53.9969162904
 10
252.8863360715
 20
54.179651661
 10
253.7538222639
 20
54.2309418118
 10
254.5744763929
 20
54.1501931927
 10
255.3388022466
 20
53.9383405433
 10
256.0379545846
 20
53.5978350951
 10
256.6638438461
 20
53.1326168049
 10
257.2092260414
 20
52.5480696692
 10
257.6677909972
 20
51.8509578372
 10
258.0342321618
 20
51.0493480367
 10
258.3043091671
 20
50.1525169819
 10
258.3477862755
 20
49.9563081531
  0
ARC
  5
2C5
330
1F
100
AcDbEntity
  8
0
  6
Continuous
 62
     7
370
     0
100
AcDbCircle
 10
253.5183466343
 20
50.6174797446
 30
0.0
 40
7.017045852611226
100
AcDbArc
 50
14.3287351339
 51
43.52515955
  0
LWPOLYLINE
  5
2C6
330
1F
100
AcDbEntity
  8
0
  6
Continuous
 62
     7
370
     0
100
AcDbPolyline
 90
       11
 70
   128
 43
0.0
 10
247.8486395021
 20
31.7692816292
 10
247.2830363684
 20
31.6059186407
 10
246.3840128088
 20
31.4443584364
 10
245.5234396873
 20
31.4144425378
 10
244.7112758434
 20
31.5165177321
 10
243.9569187072
 20
31.7494028991
 10
243.2690986031
 20
32.1104032798
 10
242.6557743708
 20
32.5953410949
 10
242.1240438031
 20
33.198604603
 10
241.6800590227
 20
33.9132125575
 10
241.3289586525
 20
34.7308967239
  0
LWPOLYLINE
  5
2C7
330
1F
100
AcDbEntity
  8
0
  6
Continuous
 62
     7
370
     0
100
AcDbPolyline
 90
       21
 70
   128
 43
0.0
 10
233.5500567392
 20
43.3925637537
 10
233.9003141725
 20
44.7571629149
 10
234.3444596377
 20
46.1323636248
 10
234.8784891843
 20
47.5057684325
 10
235.4975895104
 20
48.8649974539
 10
236.1961781343
 20
50.1977955928
 10
236.9679587119
 20
51.492149267
 10
237.8059724034
 20
52.7363886858
 10
238.7026657032
 20
53.9192984907
 10
239.6499543191
 20
55.0302139483
 10
240.639298575
 20
56.0591199932
 10
241.6617799675
 20
56.9967418112
 10
242.7081805196
 20
57.8346263915
 10
243.7690672811
 20
58.565220965
 10
244.8348762511
 20
59.1819397035
 10
245.8959993889
 20
59.679220794
 10
246.9428706358
 20
60.0525821814
 10
247.9660527195
 20
60.2986587525
 10
248.9563212427
 20
60.4152311063
 10
249.9047494698
 20
60.4012501663
 10
250.8027875176
 20
60.2568403101
  0
LWPOLYLINE
  5
2C8
330
1F
100
AcDbEntity
  8
0
  6
Continuous
 62
     7
370
     0
100
AcDbPolyline
 90
       17
 70
   128
 43
0.0
 10
237.0220337771
 20
42.4827939885
 10
237.3523741903
 20
43.746889201
 10
237.7735884772
 20
45.0201497306
 10
238.2814935631
 20
46.2899309929
 10
238.8710456557
 20
47.5436238457
 10
239.5363902943
 20
48.7687789201
 10
240.2709209604
 20
49.9532301903
 10
241.0673429563
 20
51.0852151204
 10
241.9177484798
 20
52.1534948111
 10
242.8136920268
 20
53.1474583653
 10
243.7462771548
 20
54.0572376158
 10
244.706242917
 20
54.8737973262
 10
245.6840564703
 20
55.5890289573
 10
246.6700082136
 20
56.1958299246
 10
247.654307216
 20
56.6881746564
 10
248.6271792159
 20
57.0611742104
 10
249.132055491
 20
57.2084348672
  0
LWPOLYLINE
  5
2C9
330
1F
100
AcDbEntity
  8
0
  6
Continuous
 62
     7
370
     0
100
AcDbPolyline
 90
       20
 70
   128
 43
0.0
 10
236.4442492163
 20
42.4758095117
 10
236.773102636
 20
43.764474279
 10
237.19431824
 20
45.0635863643
 10
237.7037794666
 20
46.3604449025
 10
238.2965037681
 20
47.6423715436
 10
238.9666979284
 20
48.8968336423
 10
239.7078100883
 20
50.1115674482
 10
240.5125936239
 20
51.2746967317
 10
241.3731818918
 20
52.3748519799
 10
242.2811609982
 20
53.4012762843
 10
243.2276544216
 20
54.3439357896
 10
244.2034091177
 20
55.1936142687
 10
245.1988857401
 20
55.9420055101
 10
246.2043522036
 20
56.5817924266
 10
247.2099788401
 20
57.1067209987
 10
248.2059343066
 20
57.5116594442
 10
249.1824822196
 20
57.7926486796
 10
250.1300750831
 20
57.9469413356
 10
251.0394489867
 20
57.9730290476
 10
251.2051677609
 20
57.9635928834
  0
LINE
  5
2CA
330
1F
100
AcDbEntity
  8
0
  6
Continuous
 62
     7
370
     0
100
AcDbLine
 10
241.8193260397
 20
40.7818899702
 30
0.0
 11
241.15068802
 21
41.1678864828
 31
0.0
  0
LINE
  5
2CB
330
1F
100
AcDbEntity
  8
0
  6
Continuous
 62
     7
370
     0
100
AcDbLine
 10
236.2318828535
 20
38.740763848
 30
0.0
 11
241.8193260397
 21
35.5152015547
 31
0.0
  0
LINE
  5
2CC
330
1F
100
AcDbEntity
  8
0
  6
Continuous
 62
     7
370
     0
100
AcDbLine
 10
236.1126439861
 20
38.6719065281
 30
0.0
 11
236.2318828535
 21
38.740763848
 31
0.0
  0
LWPOLYLINE
  5
2CD
330
1F
100
AcDbEntity
  8
0
  6
Continuous
 62
     7
370
     0
100
AcDbPolyline
 90
        3
 70
   128
 43
0.0
 10
236.0338007326
 20
41.5207047048
 10
236.0330947729
 20
41.6419428032
 10
236.0577803138
 20
42.3748738134
  0
LWPOLYLINE
  5
2CE
330
1F
100
AcDbEntity
  8
0
  6
Continuous
 62
     7
370
     0
100
AcDbPolyline
 90
       15
 70
   128
 43
0.0
 10
250.2094187068
 20
30.4064329721
 10
249.1643238015
 20
29.8052958143
 10
248.10875454
 20
29.3150840599
 10
247.0680057814
 20
28.9501263536
 10
246.05172936
 20
28.7138059685
 10
245.0693508586
 20
28.6083162408
 10
244.1299809111
 20
28.6346344609
 10
243.242331403
 20
28.7925168436
 10
242.4146338113
 20
29.0804985353
 10
241.6545661063
 20
29.4959099709
 10
240.9691760314
 20
30.0348979843
 10
240.3648205168
 20
30.6924638364
 10
239.8471037763
 20
31.4625080892
 10
239.4208285748
 20
32.3378910662
 10
239.089946838
 20
33.3104929345
  0
LWPOLYLINE
  5
2CF
330
1F
100
AcDbEntity
  8
0
  6
Continuous
 62
     7
370
     0
100
AcDbPolyline
 90
       16
 70
   128
 43
0.0
 10
214.7612112976
 20
57.9339065836
 10
214.8101645329
 20
58.7164980588
 10
214.9559303963
 20
59.5381277477
 10
215.1952530437
 20
60.3804418988
 10
215.522786411
 20
61.2246247853
 10
215.9312134099
 20
62.0518183746
 10
216.4114112235
 20
62.8435450349
 10
216.952652491
 20
63.5821185467
 10
217.5428469938
 20
64.251040281
 10
218.1688105885
 20
64.8353679514
 10
218.8165604612
 20
65.3220484194
 10
219.4716269076
 20
65.7002102295
 10
220.1193767803
 20
65.9614058456
 10
220.745340375
 20
66.099800358
 10
221.3355348778
 20
66.1123026921
 10
221.6892374867
 20
66.0537726062
  0
ARC
  5
2D0
330
1F
100
AcDbEntity
  8
0
  6
Continuous
 62
     7
370
     0
100
AcDbCircle
 10
218.1423956706
 20
57.6936548959
 30
0.0
 40
3.389709226088243
100
AcDbArc
 50
175.9356516821
 51
223.4883807623
  0
LWPOLYLINE
  5
2D1
330
1F
100
AcDbEntity
  8
0
  6
Continuous
 62
     7
370
     0
100
AcDbPolyline
 90
        3
 70
   128
 43
0.0
 10
239.2364585031
 20
31.7574874602
 10
239.0810729508
 20
32.0917243405
 10
238.7296136738
 20
33.0546828085
  0
LINE
  5
2D2
330
1F
100
AcDbEntity
  8
0
  6
Continuous
 62
     7
370
     0
100
AcDbLine
 10
241.1507802162
 20
34.5947860227
 30
0.0
 11
235.9005122297
 21
37.6257012164
 31
0.0
  0
LINE
  5
2D3
330
1F
100
AcDbEntity
  8
0
  6
Continuous
 62
     7
370
     0
100
AcDbLine
 10
237.8838969872
 20
35.2182160197
 30
0.0
 11
237.8069223538
 21
35.4565336812
 31
0.0
  0
LWPOLYLINE
  5
2D4
330
1F
100
AcDbEntity
  8
0
  6
Continuous
 62
     7
370
     0
100
AcDbPolyline
 90
        3
 70
   128
 43
0.0
 10
237.5216826905
 20
34.678076148
 10
237.3623840668
 20
35.0048156116
 10
237.0220337771
 20
35.9096402119
  0
ARC
  5
2D5
330
1F
100
AcDbEntity
  8
0
  6
Continuous
 62
     7
370
     0
100
AcDbCircle
 10
243.0559522559
 20
37.7636041457
 30
0.0
 40
6.868605831693507
100
AcDbArc
 50
195.7199356738
 51
214.2118517518
  0
LWPOLYLINE
  5
2D6
330
1F
100
AcDbEntity
  8
0
  6
Continuous
 62
     7
370
     0
100
AcDbPolyline
 90
        3
 70
   128
 43
0.0
 10
234.0386091777
 20
34.7848182935
 10
233.9015160162
 20
35.0818189129
 10
233.5500567392
 20
36.0447773809
  0
OLE2FRAME
  5
2D7
330
1F
100
AcDbEntity
  8
0
100
AcDbOle2Frame
 70
     2
  3
Paintbrush-Bild
 10
13.8511154363
 20
38.264191557
 30
0.0
 11
51.6290888628
 21
31.9806341108
 31
0.0
 71
     2
 72
     0
 73
     1
 90
    12928
310
80552BED0767C5B32B40DDAF6807D121434000000000000000006FFBDDFB85D0
310
4940DDAF6807D121434000000000000000006FFBDDFB85D04940416F4BD60AFB
310
3F4000000000000000002BED0767C5B32B40416F4BD60AFB3F40000000000000
310
0000000000000100000000010000010000000100000000000100000000320000
310
D0CF11E0A1B11AE1000000000000000000000000000000003E000300FEFF0900
310
0600000000000000000000000100000001000000000000000010000002000000
310
01000000FEFFFFFF0000000000000000FFFFFFFFFFFFFFFFFFFFFFFFFFFFFFFF
310
FFFFFFFFFFFFFFFFFFFFFFFFFFFFFFFFFFFFFFFFFFFFFFFFFFFFFFFFFFFFFFFF
310
FFFFFFFFFFFFFFFFFFFFFFFFFFFFFFFFFFFFFFFFFFFFFFFFFFFFFFFFFFFFFFFF
310
FFFFFFFFFFFFFFFFFFFFFFFFFFFFFFFFFFFFFFFFFFFFFFFFFFFFFFFFFFFFFFFF
310
FFFFFFFFFFFFFFFFFFFFFFFFFFFFFFFFFFFFFFFFFFFFFFFFFFFFFFFFFFFFFFFF
310
FFFFFFFFFFFFFFFFFFFFFFFFFFFFFFFFFFFFFFFFFFFFFFFFFFFFFFFFFFFFFFFF
310
FFFFFFFFFFFFFFFFFFFFFFFFFFFFFFFFFFFFFFFFFFFFFFFFFFFFFFFFFFFFFFFF
310
FFFFFFFFFFFFFFFFFFFFFFFFFFFFFFFFFFFFFFFFFFFFFFFFFFFFFFFFFFFFFFFF
310
FFFFFFFFFFFFFFFFFFFFFFFFFFFFFFFFFFFFFFFFFFFFFFFFFFFFFFFFFFFFFFFF
310
FFFFFFFFFFFFFFFFFFFFFFFFFFFFFFFFFFFFFFFFFFFFFFFFFFFFFFFFFFFFFFFF
310
FFFFFFFFFFFFFFFFFFFFFFFFFFFFFFFFFFFFFFFFFFFFFFFFFFFFFFFFFFFFFFFF
310
FFFFFFFFFFFFFFFFFFFFFFFFFFFFFFFFFFFFFFFFFFFFFFFFFFFFFFFFFFFFFFFF
310
FFFFFFFFFFFFFFFFFFFFFFFFFFFFFFFFFFFFFFFFFFFFFFFFFFFFFFFFFFFFFFFF
310
FFFFFFFFFFFFFFFFFFFFFFFFFFFFFFFFFFFFFFFFFFFFFFFFFFFFFFFFFFFFFFFF
310
FDFFFFFFFEFFFFFFFEFFFFFFFEFFFFFF05000000060000000700000008000000
310
090000000A0000000B0000000C0000000D0000000E0000000F00000010000000
310
11000000120000001300000014000000150000001600000017000000FEFFFFFF
310
FFFFFFFFFFFFFFFFFFFFFFFFFFFFFFFFFFFFFFFFFFFFFFFFFFFFFFFFFFFFFFFF
310
FFFFFFFFFFFFFFFFFFFFFFFFFFFFFFFFFFFFFFFFFFFFFFFFFFFFFFFFFFFFFFFF
310
FFFFFFFFFFFFFFFFFFFFFFFFFFFFFFFFFFFFFFFFFFFFFFFFFFFFFFFFFFFFFFFF
310
FFFFFFFFFFFFFFFFFFFFFFFFFFFFFFFFFFFFFFFFFFFFFFFFFFFFFFFFFFFFFFFF
310
FFFFFFFFFFFFFFFFFFFFFFFFFFFFFFFFFFFFFFFFFFFFFFFFFFFFFFFFFFFFFFFF
310
FFFFFFFFFFFFFFFFFFFFFFFFFFFFFFFFFFFFFFFFFFFFFFFFFFFFFFFFFFFFFFFF
310
FFFFFFFFFFFFFFFFFFFFFFFFFFFFFFFFFFFFFFFFFFFFFFFFFFFFFFFFFFFFFFFF
310
FFFFFFFFFFFFFFFFFFFFFFFFFFFFFFFFFFFFFFFFFFFFFFFFFFFFFFFFFFFFFFFF
310
FFFFFFFFFFFFFFFFFFFFFFFFFFFFFFFFFFFFFFFFFFFFFFFFFFFFFFFFFFFFFFFF
310
FFFFFFFFFFFFFFFFFFFFFFFFFFFFFFFFFFFFFFFFFFFFFFFFFFFFFFFFFFFFFFFF
310
FFFFFFFFFFFFFFFFFFFFFFFFFFFFFFFFFFFFFFFFFFFFFFFFFFFFFFFFFFFFFFFF
310
FFFFFFFFFFFFFFFFFFFFFFFFFFFFFFFFFFFFFFFFFFFFFFFFFFFFFFFFFFFFFFFF
310
FFFFFFFFFFFFFFFFFFFFFFFFFFFFFFFFFFFFFFFFFFFFFFFFFFFFFFFFFFFFFFFF
310
52006F006F007400200045006E00740072007900000000000000000000000000
310
0000000000000000000000000000000000000000000000000000000000000000
310
16000500FFFFFFFFFFFFFFFF020000000A00030000000000C000000000000046
310
00000000000000000000000010D97B0C98FFD10103000000C000000000000000
310
01004F006C006500000000000000000000000000000000000000000000000000
310
0000000000000000000000000000000000000000000000000000000000000000
310
0A000200FFFFFFFFFFFFFFFFFFFFFFFF00000000000000000000000000000000
310
0000000000000000000000000000000000000000000000001400000000000000
310
010043006F006D0070004F0062006A0000000000000000000000000000000000
310
0000000000000000000000000000000000000000000000000000000000000000
310
120002010100000003000000FFFFFFFF00000000000000000000000000000000
310
0000000000000000000000000000000000000000010000004D00000000000000
310
01004F006C006500310030004E00610074006900760065000000000000000000
310
0000000000000000000000000000000000000000000000000000000000000000
310
1A000200FFFFFFFFFFFFFFFFFFFFFFFF00000000000000000000000000000000
310
0000000000000000000000000000000000000000040000002426000000000000
310
FEFFFFFF02000000FEFFFFFFFFFFFFFFFFFFFFFFFFFFFFFFFFFFFFFFFFFFFFFF
310
FFFFFFFFFFFFFFFFFFFFFFFFFFFFFFFFFFFFFFFFFFFFFFFFFFFFFFFFFFFFFFFF
310
FFFFFFFFFFFFFFFFFFFFFFFFFFFFFFFFFFFFFFFFFFFFFFFFFFFFFFFFFFFFFFFF
310
FFFFFFFFFFFFFFFFFFFFFFFFFFFFFFFFFFFFFFFFFFFFFFFFFFFFFFFFFFFFFFFF
310
FFFFFFFFFFFFFFFFFFFFFFFFFFFFFFFFFFFFFFFFFFFFFFFFFFFFFFFFFFFFFFFF
310
FFFFFFFFFFFFFFFFFFFFFFFFFFFFFFFFFFFFFFFFFFFFFFFFFFFFFFFFFFFFFFFF
310
FFFFFFFFFFFFFFFFFFFFFFFFFFFFFFFFFFFFFFFFFFFFFFFFFFFFFFFFFFFFFFFF
310
FFFFFFFFFFFFFFFFFFFFFFFFFFFFFFFFFFFFFFFFFFFFFFFFFFFFFFFFFFFFFFFF
310
FFFFFFFFFFFFFFFFFFFFFFFFFFFFFFFFFFFFFFFFFFFFFFFFFFFFFFFFFFFFFFFF
310
FFFFFFFFFFFFFFFFFFFFFFFFFFFFFFFFFFFFFFFFFFFFFFFFFFFFFFFFFFFFFFFF
310
FFFFFFFFFFFFFFFFFFFFFFFFFFFFFFFFFFFFFFFFFFFFFFFFFFFFFFFFFFFFFFFF
310
FFFFFFFFFFFFFFFFFFFFFFFFFFFFFFFFFFFFFFFFFFFFFFFFFFFFFFFFFFFFFFFF
310
FFFFFFFFFFFFFFFFFFFFFFFFFFFFFFFFFFFFFFFFFFFFFFFFFFFFFFFFFFFFFFFF
310
FFFFFFFFFFFFFFFFFFFFFFFFFFFFFFFFFFFFFFFFFFFFFFFFFFFFFFFFFFFFFFFF
310
FFFFFFFFFFFFFFFFFFFFFFFFFFFFFFFFFFFFFFFFFFFFFFFFFFFFFFFFFFFFFFFF
310
FFFFFFFFFFFFFFFFFFFFFFFFFFFFFFFFFFFFFFFFFFFFFFFFFFFFFFFFFFFFFFFF
310
0100000200000000000000000000000000000000000000000000000000000000
310
0000000000000000000000000000000000000000000000000000000000000000
310
0100FEFF030A0000FFFFFFFF0A00030000000000C00000000000004607000000
310
5042727573680007000000504272757368000700000050427275736800F439B2
310
7100000000000000000000000000000000000000000000000000000000000000
310
0000000000000000000000000000000000000000000000000000000000000000
310
0000000000000000000000000000000000000000000000000000000000000000
310
0000000000000000000000000000000000000000000000000000000000000000
310
0000000000000000000000000000000000000000000000000000000000000000
310
0000000000000000000000000000000000000000000000000000000000000000
310
0000000000000000000000000000000000000000000000000000000000000000
310
0000000000000000000000000000000000000000000000000000000000000000
310
0000000000000000000000000000000000000000000000000000000000000000
310
0000000000000000000000000000000000000000000000000000000000000000
310
0000000000000000000000000000000000000000000000000000000000000000
310
0000000000000000000000000000000000000000000000000000000000000000
310
20260000424D0E260000000000003E00000028000000B40200006E0000000100
310
01000000000000000000130B0000130B00000200000002000000000000FFFFFF
310
FFFFFFFFFFFFFFFFFFFFFFFFFFFFFFFFFFFFFFFFFFFFFFFFFFFFFFFFFFFFFFFF
310
FFFFFFFFFFFFFFFFFFFFFFFFFFFFFFFFFFFFFFFFFFFFFFFFFFFFFFFFFFFFFFFF
310
FFFFFFFFFFFFFFFFFFFFFFFFFFFFFFFFFFFFFFFFFFFFFFFFF000FFFFFFFFFFFF
310
FFFFFFFFFFFFFFFFFFFFFFFFFFFFFFFFFFFFFFFFFFFFFFFFFFFFFFFFFFFFFFFF
310
FFFFFFFFFFFFFFFFFFFFFFFFFFFFFFFFFFFFFFFFFFFFFFFFFFFFFFFFFFFFFFFF
310
FFFFFFFFFFFFFFFFFFFFFFFFFFFFFFFFF000FFFFFFFFFFFFFFFFFFFFFFFFFFFF
310
FFFFFFFFFFFFFFFFFFFFFFFFFFFFFFFFFFFFFFFFFFFFFFFFFFFFFFFFFFFFFFFF
310
FFFFFFFFFFFFFFFFFFFFFFFFFFFFFFFFFFFFFFFFFFFFFFFFFFFFFFFFFFFFFFFF
310
FFFFFFFFFFFFFFFFF000FFFFFFFFFFFFFFFFFFFFFFFFFFFFFFFFFFFFFFFFFFFF
310
FFFFFFFFFFFFFFFFFFFFFFFFFFFFFFFFFFFFFFFFFFFFFFFFFFFFFFFFFFFFFFFF
310
FFFFFFFFFFFFFFFFFFFFFFFFFFFFFFFFFFFFFFFFFFFFFFFFFFFFFFFFFFFFFFFF
310
F000FFFFFFFFFFFFFFFFFFFFFFFFFFFFFFFFFFFFFFFFFFFFFFFFFFFFFFFFFFFF
310
FFFFFFFFFFFFFFFFFFFFFFFFFFFFFFFFFFFFFFFFFFFFFFFFFFFFFFFFFFFFFFFF
310
FFFFFFFFFFFFFFFFFFFFFFFFFFFFFFFFFFFFFFFFFFFFFFFFF000FFFFFFFFFFFF
310
FFFFFFFFFFFFFFFFFFFFFFFFFFFFFFFFFFFFFFFFFFFFFFFFFFFFFFFFFFFFFFFF
310
FFFFFFFFFFFFFFFFFFFFFFFFFFFFFFFFFFFFFFFFFFFFFFFFFFFFFFFFFFFFFFFF
310
FFFFFFFFFFFFFFFFFFFFFFFFFFFFFFFFF000FFFFFFFFFFFFFFFFFFFFFFFFFFFF
310
FFFFFFFFFFFFFFFFFFFFFFFFFFFFFFFFFFFFFFFFFFFFFFFFFFFFFFFFFFFFFFFF
310
FFFFFFFFFFFFFFFFFFFFFFFFFFFFFFFFFFFFFFFFFFFFFFFFFFFFFFFFFFFFFFFF
310
FFFFFFFFFFFFFFFFF000FFFFFFFFFFFFFFFFFFFFFFFFFFFFFFFFFFFFFFFFFFFF
310
FFFFFFFFFFFFFFFFFFFFFFFFFFFFFFFFFFFFFFFFFFFFFFFFFFFFFFFFFFFFFFFF
310
FFFFFFFFFFFFFFFFFFFFFFFFFFFFFFFFFFFFFFFFFFFFFFFFFFFFFFFFFFFFFFFF
310
F000FFFFFFFFFFFFFFFFFFFFFFFFFFFFFFFFFFFFFFFFFFFFFFFFFFFFFFFFFFFF
310
FFFFFFFFFFFFFFFFFFFFFFFFFFFFFFFFFFFFFFFFFFFFFFFFFFFFFFFFFFFFFFFF
310
FFFFFFFFFFFFFFFFFFFFFFFFFFFFFFFFFFFFFFFFFFFFFFFFF000FFFFFFFFFFFF
310
FFFFFFFFFFFFFFFFFFFFFFFFFFFFFFFFFFFFFFFFFFFFFFFFFFFFFFFFFFFFFFFF
310
FFFFFFFFFFFFFFFFFFFFFFFFFFFFFFFFFFFFFFFFFFFFFFFFFFFFFFFFFFFFFFFF
310
FFFFFFFFFFFFFFFFFFFFFFFFFFFFFFFFF000FFFFFFFFFFFFFFFFFFFFFFFFFFFF
310
FFFFFFFFFFFFFFFFFFFFFFFFFFFFFFFFFFFFFFFFFFFFFFFFFFFFFFFFFFFFFFFF
310
FFFFFFFFFFFFFFFFFFFFFFFFFFFFFFFFFFFFFFFFFFFFFFFFFFFFFFFFFFFFFFFF
310
FFFFFFFFFFFFFFFFF000FFFFFFFFFFFFFFFFFFFFFFFFFFFFFFFFFFFFFFFFFFFF
310
FFFFFFFFFFFFFFFFFFFFFFFFFFFFFFFFFFFFFFFFFFFFFFFFFFFFFFFFFFFFFFFF
310
FFFFFFFFFFFFFFFFFFFFFFFFFFFFFFFFFFFFFFFFFFFFFFFFFFFFFFFFFFFFFFFF
310
F000FFFFFFFFFFFFFFFFFFFFFFFFFFFFFFFFFFFFFFFFFFFFFFFFFFFFFFFFFFFF
310
FFFFFFFFFFFFFFFFFFFFFFFFFFFFFFFFFFFFFFFFFFFFFFFFFFFFFFFFFFFFFFFF
310
FFFFFFFFFFFFFFFFFFFFFFFFFFFFFFFFFFFFFFFFFFFFFFFFF000FFFFFFFFFFFF
310
FFFFFFFFFFFFFFFFFFFFFFFFFFFFFFFFFFFFFFFFFFFFFFFFFFFFFFFFFFFFFFFF
310
FFFFFFFFFFFFFFFFFFFFFFFFFFFFFFFFFFFFFFFFFFFFFFFFFFFFFFFFFFFFFFFF
310
FFFFFFFFFFFFFFFFFFFFFFFFFFFFFFFFF000FFFFFFFFFFFFFFFFFFFFFFFFFFFF
310
FFFFFFFFFFFFFFFFFFFFFFFFFFFFFFFFFFFFFFFFFFFFFFFFFFFFFFFFFFFFFFFF
310
FFFFFFFFFFFFFFFFFFFFFFFFFFFFFFFFFFFFFFFFFFFFFFFFFFFFFFFFFFFFFFFF
310
FFFFFFFFFFFFFFFFF000FFFFFFFFFFFFFFFFFFFFFFFFFFFFFFFFFFFFFFFFFFFF
310
FFFFFFFFFFFFFFFFFFFFFFFFFFFFFFFFFFFFFFFFFFFFFFFFFFFFFFFFFFFFFFFF
310
FFFFFFFFFFFFFFFFFFFFFFFFFFFFFFFFFFFFFFFFFFFFFFFFFFFFFFFFFFFFFFFF
310
F000FFFFFFFFFFFFFFFFFFFFFFFFFFFFFFFFFFFFFFFFFFFFFFFFFFFFFFFFFFFF
310
FFFFFFFFFFFFFFFFFFFFFFFFFFFFFFFFFFFFFFFFFFFFFFFFFFFFFFFFFFFFFFFF
310
FFFFFFFFFFFFFFFFFFFFFFFFFFFFFFFFFFFFFFFFFFFFFFFFF000FFFFFFFFFFFF
310
FFFFFFFFFFFFFFFFFFFFFFFFFFFFFFFFFFFFFFFFFFFFFFFFFFFFFFFFFFFFFFFF
310
FFFFFFFFFFFFFFFFFFFFFFFFFFFFFFFFFFFFFFFFFFFFFFFFFFFFFFFFFFFFFFFF
310
FFFFFFFFFFFFFFFFFFFFFFFFFFFFFFFFF000FFFFFFFFFFFFFFFFFFFFFFFFFFFF
310
FFFFFFFFFFFFFFFFFFFFFFFFFFFFFFFFFFFFFFFFFFFFFFFFFFFFFFFFFFFFFFFF
310
FFFFFFFFFFFFFFFFFFFFFFFFFFFFFFFFFFFFFFFFFFFFFFFFFFFFFFFFFFFFFFFF
310
FFFFFFFFFFFFFFFFF000FFFFF80003FFFFFFFFFFFFFFFFFFFFFFFFFFFFFFFFFF
310
FFFFF00007FFFFFFFFFF00007FFFFFF800000000000000007FFFFFFFFFFFFFFF
310
FFFFFFFC001FFFFFFFFFFFFFFC001FFFFFFFFFFFFFFFFFFFFFFFFFFE0007FFFF
310
F000FFFF8000007FFFFFFFF8000FFFFFC0007FFFFF80007FFFFF0000007FFFFF
310
FFF8000007FFFFF800000000000000007FFFFFF0001FFFFFFFFFFFC00001FFFF
310
FFFFFFFFC00001FFFFFFFF000000000003FFFFE000007FFFF000FFFE0000000F
310
FFFFFFF0000FFFFF80007FFFFF80007FFFFC0000001FFFFFFFC0000001FFFFF8
310
00000000000000007FFFFFF0001FFFFFFFFFFE0000003FFFFFFFFFFE0000003F
310
FFFFFF000000000003FFFF0000000FFFF000FFF800000003FFFFFFF00007FFFF
310
80007FFFFF80007FFFF000000007FFFFFF000000003FFFF80000000000000000
310
7FFFFFF0001FFFFFFFFFF80000000FFFFFFFFFF80000000FFFFFFF0000000000
310
03FFFC00000003FFF000FFE000000000FFFFFFF00007FFFF80003FFFFF80007F
310
FFC000000001FFFFFC000000001FFFF800000000000000007FFFFFF0001FFFFF
310
FFFFE000000003FFFFFFFFE000000003FFFFFF000000000003FFF000000000FF
310
F000FF80000000007FFFFFF00007FFFF80003FFFFF80007FFF8000000000FFFF
310
F80000000007FFF800000000000000007FFFFFF0001FFFFFFFFFC000000001FF
310
FFFFFFC000000001FFFFFF000000000003FFC0000000007FF000FF0000000000
310
3FFFFFE00007FFFF00003FFFFF80007FFE00000000003FFFF00000000003FFF8
310
00000000000000007FFFFFF0001FFFFFFFFF8000000000FFFFFFFF8000000000
310
FFFFFF000000000003FF80000000003FF000FE00000000001FFFFFE00003FFFF
310
00003FFFFF80007FFC00000000001FFFE00000000001FFF8000001FFFE000000
310
7FFFFFF0001FFFFFFFFE00000000003FFFFFFE00000000003FFFFF0000000000
310
03FF00000000001FF000FC00000000000FFFFFE00003FFFF00001FFFFF80007F
310
F800000000001FFFC00000000000FFF8000001FFFE0000007FFFFFF0001FFFFF
310
FFFC00000000001FFFFFFC00000000001FFFFF000000000003FE00000000000F
310
F000F8000000000007FFFFE00003FFFF00001FFFFF80007FF800000000000FFF
310
800000000000FFF8000001FFFE0000007FFFFFF0001FFFFFFFF800000000000F
310
FFFFF800000000000FFFFF000000000003FC000000000007F000F80000000000
310
03FFFFC00003FFFE00001FFFFF80007FF0000000000007FF0000000000007FF8
310
000001FFFE0000007FFFFFF0001FFFFFFFF0000000000007FFFFF00000000000
310
07FFFF000000000003F8000000000003F000F0000000000003FFFFC00001FFFE
310
00001FFFFF80007FE0000000000007FE0000000000003FF8000001FFFE000000
310
7FFFFFF0001FFFFFFFF0000000000007FFFFF0000000000007FFFF0000000000
310
03F800001F800003F000E00001FFF00001FFFFC00001FFFE00000FFFFF80007F
310
E00001FFE00003FE00001FFF00003FF8000001FFFE0000007FFFFFF0001FFFFF
310
FFE000003E000003FFFFE000003E000003FFFF000000000003F00001FFF80001
310
F000E00007FFFC0001FFFFC00001FFFE00000FFFFF80007FC0000FFFFC0003FC
310
0000FFFFC0001FF8000001FFFE0000007FFFFFF0001FFFFFFFC00003FFE00001
310
FFFFC00003FFE00001FFFF0001FFFFFFFFF00007FFFE0001F000E0000FFFFF00
310
00FFFF800001FFFC00000FFFFF80007FC0001FFFFE0001FC0001FFFFE0001FF8
310
000001FFFE0000007FFFFFF0001FFFFFFF80000FFFF80000FFFF80000FFFF800
310
00FFFF0003FFFFFFFFE0000FFFFF8000F000C0003FFFFF8000FFFF800000FFFC
310
000007FFFF80007F80003FFFFF0001FC0003FFFFF0001FF8000001FFFE000000
310
7FFFFFF0001FFFFFFF80003FFFFE0000FFFF80003FFFFE0000FFFF0003FFFFFF
310
FFE0003FFFFF8000F000C0003FFFFF8000FFFF800000FFFC000007FFFF80007F
310
80007FFFFF8001F80007FFFFF8000FF8000001FFFE0000007FFFFFF0001FFFFF
310
FF00007FFFFF00007FFF00007FFFFF00007FFF0003FFFFFFFFE0003FFFFFC000
310
F000C0007FFFFFC000FFFF000000FFFC000007FFFF80007F8000FFFFFF8000F8
310
000FFFFFF8000FF8000001FFFE0000007FFFFFF0001FFFFFFF0000FFFFFF8000
310
7FFF0000FFFFFF80007FFF0003FFFFFFFFC0007FFFFFC00070008000FFFFFFC0
310
00FFFF000000FFF8000007FFFF80007F8000FFFFFF8000F8000FFFFFF8000FF8
310
000001FFFE0000007FFFFFF0001FFFFFFE0001FFFFFFC0003FFE0001FFFFFFC0
310
003FFF0003FFFFFFFFC0007FFFFFE00070008000FFFFFFC0007FFF0000007FF8
310
000003FFFF80007F0001FFFFFF8000F8000FFFFFF8000FF8000001FFFE000000
310
7FFFFFF0001FFFFFFE0001FFFFFFC0003FFE0001FFFFFFC0003FFF0003FFFFFF
310
FFC000FFFFFFE00070008000FFFFFFC0007FFF0000007FF8000003FFFF80007F
310
0001FFFFFF8000F8001FFFFFF8000FF8000001FFFE0000007FFFFFF0001FFFFF
310
FE0003FFFFFFE0003FFE0003FFFFFFE0003FFF0003FFFFFFFFC000FFFFFFE000
310
70008000FFFFFFC0007FFE0000007FF8000003FFFF80007F0001FFFFFF8000F0
310
001FFFFFF8000FF8000001FFFE0000007FFFFFF0001FFFFFFC0003FFFFFFE000
310
1FFC0003FFFFFFE0001FFF0003FFFFFFFFC000FFFFFFC00070008000FFFFFF80
310
007FFE0000007FF0000003FFFF80007F0001FFFFFF0000F0001FFFFFF8000FF8
310
000001FFFE0000007FFFFFF0001FFFFFFC0007FFFFFFF0001FFC0007FFFFFFF0
310
001FFF0003FFFFFFFFC000FFFFFFC00070008001FFFFFF0000FFFE0000003FF0
310
000001FFFF80007F0001FFFFFF0000F8001FFFFFF0000FF8000001FFFE000000
310
7FFFFFF0001FFFFFFC0007FFFFFFF0001FFC0007FFFFFFF0001FFF0003FFFFFF
310
FFC001FFFFFF80007000FFFFFFFFFE0000FFFE0008003FF0008001FFFF80007F
310
FFFFFFFFFC0000FFFFFFFFFFE0000FF8000001FFFE0000007FFFFFF0001FFFFF
310
F8000FFFFFFFF8000FF8000FFFFFFFF8000FFF0003FFFFFFFFFFFFFFFFFF0000
310
7000FFFFFFFFFC0000FFFC0008003FF0008001FFFF80007FFFFFFFFFF80001FF
310
FFFFFFFF80000FF8000001FFFE0000007FFFFFF0001FFFFFF8000FFFFFFFF800
310
0FF8000FFFFFFFF8000FFF0003FFFFFFFFFFFFFFFFFE0000F000FFFFFFFFE000
310
00FFFC000C003FE000C001FFFF80007FFFFFFFFFC00001FFFFFFFFFE00001FF8
310
000001FFFE0000007FFFFFF0001FFFFFF8000FFFFFFFF8000FF8000FFFFFFFF8
310
000FFF0003FFFFFFFFFFFFFFFFF00000F000FFFFFFFE000001FFFC000C001FE0
310
00C000FFFF80007FFFFFFFFE000001FFFFFFFFE000001FF80FFFFFFFFFFFFFC0
310
7FFFFFF0001FFFFFF8000FFFFFFFF8000FF8000FFFFFFFF8000FFF0003FFFFFF
310
FFFFFFFFFF800000F000FFFFFFC0000001FFFC001C001FE001C000FFFF80007F
310
FFFFFF80000003FFFFFFF80000001FF80FFFFFFFFFFFFFC07FFFFFF0001FFFFF
310
F8001FFFFFFFFC000FF8001FFFFFFFFC000FFF0003FFFFFFFFFFFFFFF0000001
310
F000FFFFF800000001FFF8001C001FE001C000FFFF80007FFFFFF800000003FF
310
FFFF800000003FF80FFFFFFFFFFFFFC07FFFFFF0001FFFFFF8001FFFFFFFFC00
310
0FF8001FFFFFFFFC000FFF0003FFFFFFFFFFFFFE00000001F000FFFFC0000000
310
03FFF8001E001FC001E000FFFF80007FFFFF8000000007FFFFFC000000003FF8
310
0FFFFFFFFFFFFFC07FFFFFF0001FFFFFF8001FFFFFFFFC000FF8001FFFFFFFFC
310
000FFF0003FFFFFFFFFFFFE000000003F000FFFE0000000007FFF8001E000FC0
310
01E0007FFF80007FFFFE0000000007FFFFE0000000007FF80FFFFFFFFFFFFFC0
310
7FFFFFF0001FFFFFF0001FFFFFFFFC0007F0001FFFFFFFFC0007FF0003FFFFFF
310
FFFFFF0000000003F000FFF80000000007FFF8001E000FC003E0007FFF80007F
310
FFF0000000000FFFFF8000000000FFF80FFFFFFFFFFFFFC07FFFFFF0001FFFFF
310
F0001FFFFFFFFC0007F0001FFFFFFFFC0007FF0003FFFFFFFFFFFC0000000007
310
F000FFE0000000000FFFF0003E000FC003E0007FFF80007FFFC0000000001FFF
310
FE0000000001FFF80FFFFFFFFFFFFFC07FFFFFF0001FFFFFF0001FFFFFFFFC00
310
07F0001FFFFFFFFC0007FF0003FFFFFFFFFFF0000000000FF000FFC000000000
310
1FFFF0003F000F8003F0003FFF80007FFF80000000003FFFF80000000003FFF8
310
0FFFFFFFFFFFFFC07FFFFFF0001FFFFFF0001FFFFFFFFC0007F0001FFFFFFFFC
310
0007FF0003FFFFFFFFFFE0000000001FF000FF00000000007FFFF0003F000780
310
03F0003FFF80007FFF00000000007FFFF00000000007FFF80FFFFFFFFFFFFFC0
310
7FFFFFF0001FFFFFF0001FFFFFFFFC0007F0001FFFFFFFFC0007FF0003FFFFFF
310
FFFF80000000007FF000FE0000000000FFFFE0003F00078007F0003FFF80007F
310
FE0000000001FFFFE0000000001FFFF80FFFFFFFFFFFFFC07FFFFFF0001FFFFF
310
F0001FFFFFFFFC0007F0001FFFFFFFFC0007FF0003FFFFFFFFFF0000000000FF
310
F000FC0000000003FFFFE0007F00078007F0003FFF80007FFC0000000007FFFF
310
C0000000007FFFF80FFFFFFFFFFFFFC07FFFFFF0001FFFFFF8001FFFFFFFFC00
310
0FF8001FFFFFFFFC000FFF0003FFFFFFFFFE0000000003FFF000FC000000000F
310
FFFFE0007F80070007F8001FFF80007FF8000000001FFFFF8000000001FFFFF8
310
0FFFFFFFFFFFFFC07FFFFFF0001FFFFFF8001FFFFFFFFC000FF8001FFFFFFFFC
310
000FFF0003FFFFFFFFFC000000000FFFF000F8000000007FFFFFE0007F800700
310
07F8001FFF80007FF000000000FFFFFF800000000FFFFFF80FFFFFFFFFFFFFC0
310
7FFFFFF0001FFFFFF8000FFFFFFFF8000FF8000FFFFFFFF8000FFF0003FFFFFF
310
FFFC000000007FFFF000F800000007FFFFFFC0007F8003000FF8001FFF80007F
310
F000000007FFFFFF000000007FFFFFF80FFFFFFFFFFFFFC07FFFFFF0001FFFFF
310
F8000FFFFFFFF8000FF8000FFFFFFFF8000FFF0003FFFFFFFFF80000000FFFFF
310
F000F0000000FFFFFFFFC000FF8003000FF8001FFF80007FE0000000FFFFFFFF
310
0000000FFFFFFFF8000001FFFE0000007FFFFFF0001FFFFFF8000FFFFFFFF800
310
0FF8000FFFFFFFF8000FFF0003FFFFFFFFF8000000FFFFFFF000F000000FFFFF
310
FFFFC000FFC002000FF8000FFF80007FE000001FFFFFFFFE000001FFFFFFFFF8
310
000001FFFE0000007FFFFFF0001FFFFFF8000FFFFFFFF8000FF8000FFFFFFFF8
310
000FFF0003FFFFFFFFF000001FFFFFFFF000E00000FFFFFFFFFFC000FFC00200
310
0FFC000FFF80007FE00001FFFFFFFFFE00001FFFFFFFFFF8000001FFFE000000
310
7FFFFFF0001FFFFFFC000FFFFFFFF8001FFC000FFFFFFFF8001FFF0003FFFFFF
310
FFF00001FFFFFFFFF000E00007FFFFFFFFFF8000FFC000001FFC000FFF80007F
310
C0000FFFFFFFFFFE0000FFFFFFFFFFF8000001FFFE0000007FFFFFF0001FFFFF
310
FC0007FFFFFFF0001FFC0007FFFFFFF0001FFF0003FFFFFFFFF00007FFFFFFFF
310
F000E0001FFFFFFFFFFF8000FFC000001FFC000FFF80007FC0003FFFFFFFFFFE
310
0001FFFFFFFFFFF8000001FFFE0000007FFFFFF0001FFFFFFC0007FFFFFFF000
310
1FFC0007FFFFFFF0001FFF0003FFFFFFFFF0001FFFFFFFFFF000E0003FFFFF00
310
03FF8001FFE000001FFC0007FF80007FC0007FFFFF0007FC0003FFFFF0003FF8
310
000001FFFE0000007FFFFFF0001FFFFFFC0003FFFFFFE0001FFC0003FFFFFFE0
310
001FFF0003FFFFFFFFF0003FFFFFFFFFF000E0003FFFFF0001FF8001FFE00000
310
1FFE0007FF80007FC0007FFFFE0003FC0007FFFFE0003FF8000001FFFE000000
310
7FFFFFF0001FFFFFFE0003FFFFFFE0003FFE0003FFFFFFE0003FFF0003FFFFFF
310
FFF0003FFFFF8001F000E0003FFFFF0001FF0001FFE000001FFE0007FF80007F
310
C0007FFFFE0003FC0007FFFFE0003FF8000001FFFE0000007FFFFFF0001FFFFF
310
FE0001FFFFFFC0003FFE0001FFFFFFC0003FFF0003FFFFFFFFF0003FFFFF0001
310
F000E0003FFFFF0003FF0001FFE000003FFE0007FF80007FC0007FFFFE0003FC
310
0007FFFFE0003FF8000001FFFE0000007FFFFFF0001FFFFFFF0001FFFFFFC000
310
7FFF0001FFFFFFC0007FFF0003FFFFFFFFF0003FFFFF0001F000E0003FFFFE00
310
03FF0003FFF000003FFE0003FF80007FC0007FFFFC0003FE0007FFFFE0003FF8
310
000001FFFE0000007FFFFFF0001FFFFFFF0000FFFFFF80007FFF0000FFFFFF80
310
007FFF0003FFFFFFFFF0003FFFFF0001F000E0003FFFFE0003FF0003FFF00000
310
3FFF0003FF80007FC0007FFFFC0007FE0007FFFFC0003FF8000001FFFE000000
310
7FFFFFF0001FFFFFFF80007FFFFF0000FFFF80007FFFFF0000FFFF0003FFFFFF
310
FFF0003FFFFF0003F000E0003FFFFC0003FE0003FFF000003FFF0003FF80007F
310
E0003FFFF80007FE0003FFFFC0007FF8000001FFFE0000007FFFFFF0001FFFFF
310
FF80003FFFFE0000FFFF80003FFFFE0000FFFF0003FFFFFFFFF0001FFFFE0003
310
F000F0001FFFF80003FE0003FFF000007FFF0001FF80007FE0003FFFF00007FE
310
0001FFFF80007FF8000001FFFE0000007FFFFFF0001FFFFFFFC0000FFFF80001
310
FFFFC0000FFFF80001FFFF0003FFFFFFFFF0001FFFFC0003F000F0000FFFF000
310
07FE0007FFF800007FFF0001FF80007FE0001FFFE00007FF0000FFFE00007FF8
310
000001FFFE0000007FFFFFF0001FFFFFFFC00003FFE00001FFFFC00003FFE000
310
01FFFF0003FFFFFFFFF8000FFFF80003F000F00003FFC00007FC0007FFF80000
310
7FFF8001FF80007FF00007FF80000FFF00007FF80000FFF8000001FFFE000000
310
7F80000000000001FFE000003E000003FFFFE000003E000003FFFF0003FFFFFF
310
FFF80003FFE00007F000F800000000000FFC0007FFF800007FFF8001FF80007F
310
F000000000000FFF000000000000FFF8000001FFFE0000007F80000000000001
310
FFF0000000000007FFFFF0000000000007FFFF0003FFFFFFFFFC00007E000007
310
F000F800000000000FFC0007FFF80000FFFF8000FF80007FF800000000001FFF
310
800000000001FFF8000001FFFE0000007F80000000000001FFF800000000000F
310
FFFFF800000000000FFFFF0003FFFFFFFFFC00000000000FF000FC0000000000
310
1FFC0007FFFC0000FFFF8000FF80007FF800000000003FFFC00000000001FFF8
310
000001FFFE0000007F80000000000001FFF800000000000FFFFFF80000000000
310
0FFFFF0003FFFFFFFFFE00000000001FF000FE00000000003FF8000FFFFC0000
310
FFFF8000FF80007FFC00000000003FFFC00000000003FFF8000001FFFE000000
310
7F80000000000001FFFC00000000001FFFFFFC00000000001FFFFF0003FFFFFF
310
FFFF00000000001FF000FF00000000003FF8000FFFFC0000FFFFC000FF80007F
310
FE00000000007FFFE00000000007FFF8000001FFFE0000007F80000000000001
310
FFFE00000000003FFFFFFE00000000003FFFFF0003FFFFFFFFFF80000000003F
310
F000FF80000000007FF8000FFFFC0001FFFFC0007F80007FFF0000000000FFFF
310
F0000000000FFFF800000000000000007F80000000000001FFFF8000000000FF
310
FFFFFF8000000000FFFFFF0003FFFFFFFFFFC0000000007FF000FFC000000000
310
FFF8000FFFFE0001FFFFC0007F80007FFF8000000001FFFFF8000000001FFFF8
310
00000000000000007F80000000000001FFFFC000000001FFFFFFFFC000000001
310
FFFFFF0003FFFFFFFFFFE000000000FFF000FFE000000003FFF0001FFFFE0001
310
FFFFC0007F80007FFFC000000007FFFFFE000000003FFFF80000000000000000
310
7F80000000000001FFFFE000000003FFFFFFFFE000000003FFFFFF0003FFFFFF
310
FFFFF000000003FFF000FFF80000000FFFF0001FFFFE0001FFFFE0007F80007F
310
FFF00000000FFFFFFF00000000FFFFF800000000000000007F80000000000001
310
FFFFF80000000FFFFFFFFFF80000000FFFFFFF0003FFFFFFFFFFFC0000000FFF
310
F000FFFE0000003FFFF0001FFFFE0003FFFFE0003F80007FFFFC0000003FFFFF
310
FFC0000003FFFFF800000000000000007F80000000000001FFFFFE0000003FFF
310
FFFFFFFE0000003FFFFFFF0003FFFFFFFFFFFF0000003FFFF000FFFF800000FF
310
FFF0001FFFFF0003FFFFE0003F80007FFFFF000001FFFFFFFFF800001FFFFFF8
310
00000000000000007F80000000000001FFFFFFC00001FFFFFFFFFFFFC00001FF
310
FFFFFF0003FFFFFFFFFFFFC00000FFFFF000FFFFF8000FFFFFFFFFFFFFFFFFFF
310
FFFFFFFFFFFFFFFFFFFFF0001FFFFFFFFFFF0000FFFFFFF80000000000000000
310
7FFFFFFFFFFFFFFFFFFFFFFC001FFFFFFFFFFFFFFC001FFFFFFFFFFFFFFFFFFF
310
FFFFFFFC001FFFFFF000FFFFFFFFFFFFFFFFFFFFFFFFFFFFFFFFFFFFFFFFFFFF
310
FFFFFFFFFFFFFFFFFFFFFFFFFFFFFFFFFFFFFFFFFFFFFFFFFFFFFFFFFFFFFFFF
310
FFFFFFFFFFFFFFFFFFFFFFFFFFFFFFFFFFFFFFFFFFFFFFFFFFFFFFFFFFFFFFFF
310
F000FFFFFFFFFFFFFFFFFFFFFFFFFFFFFFFFFFFFFFFFFFFFFFFFFFFFFFFFFFFF
310
FFFFFFFFFFFFFFFFFFFFFFFFFFFFFFFFFFFFFFFFFFFFFFFFFFFFFFFFFFFFFFFF
310
FFFFFFFFFFFFFFFFFFFFFFFFFFFFFFFFFFFFFFFFFFFFFFFFF000FFFFFFFFFFFF
310
FFFFFFFFFFFFFFFFFFFFFFFFFFFFFFFFFFFFFFFFFFFFFFFFFFFFFFFFFFFFFFFF
310
FFFFFFFFFFFFFFFFFFFFFFFFFFFFFFFFFFFFFFFFFFFFFFFFFFFFFFFFFFFFFFFF
310
FFFFFFFFFFFFFFFFFFFFFFFFFFFFFFFFF000FFFFFFFFFFFFFFFFFFFFFFFFFFFF
310
FFFFFFFFFFFFFFFFFFFFFFFFFFFFFFFFFFFFFFFFFFFFFFFFFFFFFFFFFFFFFFFF
310
FFFFFFFFFFFFFFFFFFFFFFFFFFFFFFFFFFFFFFFFFFFFFFFFFFFFFFFFFFFFFFFF
310
FFFFFFFFFFFFFFFFF000FFFFFFFFFFFFFFFFFFFFFFFFFFFFFFFFFFFFFFFFFFFF
310
FFFFFFFFFFFFFFFFFFFFFFFFFFFFFFFFFFFFFFFFFFFFFFFFFFFFFFFFFFFFFFFF
310
FFFFFFFFFFFFFFFFFFFFFFFFFFFFFFFFFFFFFFFFFFFFFFFFFFFFFFFFFFFFFFFF
310
F000FFFFFFFFFFFFFFFFFFFFFFFFFFFFFFFFFFFFFFFFFFFFFFFFFFFFFFFFFFFF
310
FFFFFFFFFFFFFFFFFFFFFFFFFFFFFFFFFFFFFFFFFFFFFFFFFFFFFFFFFFFFFFFF
310
FFFFFFFFFFFFFFFFFFFFFFFFFFFFFFFFFFFFFFFFFFFFFFFFF000FFFFFFFFFFFF
310
FFFFFFFFFFFFFFFFFFFFFFFFFFFFFFFFFFFFFFFFFFFFFFFFFFFFFFFFFFFFFFFF
310
FFFFFFFFFFFFFFFFFFFFFFFFFFFFFFFFFFFFFFFFFFFFFFFFFFFFFFFFFFFFFFFF
310
FFFFFFFFFFFFFFFFFFFFFFFFFFFFFFFFF000FFFFFFFFFFFFFFFFFFFFFFFFFFFF
310
FFFFFFFFFFFFFFFFFFFFFFFFFFFFFFFFFFFFFFFFFFFFFFFFFFFFFFFFFFFFFFFF
310
FFFFFFFFFFFFFFFFFFFFFFFFFFFFFFFFFFFFFFFFFFFFFFFFFFFFFFFFFFFFFFFF
310
FFFFFFFFFFFFFFFFF000FFFFFFFFFFFFFFFFFFFFFFFFFFFFFFFFFFFFFFFFFFFF
310
FFFFFFFFFFFFFFFFFFFFFFFFFFFFFFFFFFFFFFFFFFFFFFFFFFFFFFFFFFFFFFFF
310
FFFFFFFFFFFFFFFFFFFFFFFFFFFFFFFFFFFFFFFFFFFFFFFFFFFFFFFFFFFFFFFF
310
F000FFFFFFFFFFFFFFFFFFFFFFFFFFFFFFFFFFFFFFFFFFFFFFFFFFFFFFFFFFFF
310
FFFFFFFFFFFFFFFFFFFFFFFFFFFFFFFFFFFFFFFFFFFFFFFFFFFFFFFFFFFFFFFF
310
FFFFFFFFFFFFFFFFFFFFFFFFFFFFFFFFFFFFFFFFFFFFFFFFF000FFFFFFFFFFFF
310
FFFFFFFFFFFFFFFFFFFFFFFFFFFFFFFFFFFFFFFFFFFFFFFFFFFFFFFFFFFFFFFF
310
FFFFFFFFFFFFFFFFFFFFFFFFFFFFFFFFFFFFFFFFFFFFFFFFFFFFFFFFFFFFFFFF
310
FFFFFFFFFFFFFFFFFFFFFFFFFFFFFFFFF000FFFFFFFFFFFFFFFFFFFFFFFFFFFF
310
FFFFFFFFFFFFFFFFFFFFFFFFFFFFFFFFFFFFFFFFFFFFFFFFFFFFFFFFFFFFFFFF
310
FFFFFFFFFFFFFFFFFFFFFFFFFFFFFFFFFFFFFFFFFFFFFFFFFFFFFFFFFFFFFFFF
310
FFFFFFFFFFFFFFFFF000FFFFFFFFFFFFFFFFFFFFFFFFFFFFFFFFFFFFFFFFFFFF
310
FFFFFFFFFFFFFFFFFFFFFFFFFFFFFFFFFFFFFFFFFFFFFFFFFFFFFFFFFFFFFFFF
310
FFFFFFFFFFFFFFFFFFFFFFFFFFFFFFFFFFFFFFFFFFFFFFFFFFFFFFFFFFFFFFFF
310
F000FFFFFFFFFFFFFFFFFFFFFFFFFFFFFFFFFFFFFFFFFFFFFFFFFFFFFFFFFFFF
310
FFFFFFFFFFFFFFFFFFFFFFFFFFFFFFFFFFFFFFFFFFFFFFFFFFFFFFFFFFFFFFFF
310
FFFFFFFFFFFFFFFFFFFFFFFFFFFFFFFFFFFFFFFFFFFFFFFFF000FFFFFFFFFFFF
310
FFFFFFFFFFFFFFFFFFFFFFFFFFFFFFFFFFFFFFFFFFFFFFFFFFFFFFFFFFFFFFFF
310
FFFFFFFFFFFFFFFFFFFFFFFFFFFFFFFFFFFFFFFFFFFFFFFFFFFFFFFFFFFFFFFF
310
FFFFFFFFFFFFFFFFFFFFFFFFFFFFFFFFF000FFFFFFFFFFFFFFFFFFFFFFFFFFFF
310
FFFFFFFFFFFFFFFFFFFFFFFFFFFFFFFFFFFFFFFFFFFFFFFFFFFFFFFFFFFFFFFF
310
FFFFFFFFFFFFFFFFFFFFFFFFFFFFFFFFFFFFFFFFFFFFFFFFFFFFFFFFFFFFFFFF
310
FFFFFFFFFFFFFFFFF000FFFFFFFFFFFFFFFFFFFFFFFFFFFFFFFFFFFFFFFFFFFF
310
FFFFFFFFFFFFFFFFFFFFFFFFFFFFFFFFFFFFFFFFFFFFFFFFFFFFFFFFFFFFFFFF
310
FFFFFFFFFFFFFFFFFFFFFFFFFFFFFFFFFFFFFFFFFFFFFFFFFFFFFFFFFFFFFFFF
310
F000FFFFFFFFFFFFFFFFFFFFFFFFFFFFFFFFFFFFFFFFFFFFFFFFFFFFFFFFFFFF
310
FFFFFFFFFFFFFFFFFFFFFFFFFFFFFFFFFFFFFFFFFFFFFFFFFFFFFFFFFFFFFFFF
310
FFFFFFFFFFFFFFFFFFFFFFFFFFFFFFFFFFFFFFFFFFFFFFFFF000FFFFFFFFFFFF
310
FFFFFFFFFFFFFFFFFFFFFFFFFFFFFFFFFFFFFFFFFFFFFFFFFFFFFFFFFFFFFFFF
310
FFFFFFFFFFFFFFFFFFFFFFFFFFFFFFFFFFFFFFFFFFFFFFFFFFFFFFFFFFFFFFFF
310
FFFFFFFFFFFFFFFFFFFFFFFFFFFFFFFFF000FFFFFFFFFFFFFFFFFFFFFFFFFFFF
310
FFFFFFFFFFFFFFFFFFFFFFFFFFFFFFFFFFFFFFFFFFFFFFFFFFFFFFFFFFFFFFFF
310
FFFFFFFFFFFFFFFFFFFFFFFFFFFFFFFFFFFFFFFFFFFFFFFFFFFFFFFFFFFFFFFF
310
FFFFFFFFFFFFFFFFF000FFFFFFFFFFFFFFFFFFFFFFFFFFFFFFFFFFFFFFFFFFFF
310
FFFFFFFFFFFFFFFFFFFFFFFFFFFFFFFFFFFFFFFFFFFFFFFFFFFFFFFFFFFFFFFF
310
FFFFFFFFFFFFFFFFFFFFFFFFFFFFFFFFFFFFFFFFFFFFFFFFFFFFFFFFFFFFFFFF
310
F000FFFFFFFFFFFFFFFFFFFFFFFFFFFFFFFFFFFFFFFFFFFFFFFFFFFFFFFFFFFF
310
FFFFFFFFFFFFFFFFFFFFFFFFFFFFFFFFFFFFFFFFFFFFFFFFFFFFFFFFFFFFFFFF
310
FFFFFFFFFFFFFFFFFFFFFFFFFFFFFFFFFFFFFFFFFFFFFFFFF000FFFFFFFFFFFF
310
FFFFFFFFFFFFFFFFFFFFFFFFFFFFFFFFFFFFFFFFFFFFFFFFFFFFFFFFFFFFFFFF
310
FFFFFFFFFFFFFFFFFFFFFFFFFFFFFFFFFFFFFFFFFFFFFFFFFFFFFFFFFFFFFFFF
310
FFFFFFFFFFFFFFFFFFFFFFFFFFFFFFFFF0000000000000000000000000000000
310
0000000000000000000000000000000000000000000000000000000000000000
310
0000000000000000000000000000000000000000000000000000000000000000
310
0000000000000000000000000000000000000000000000000000000000000000
310
0000000000000000000000000000000000000000000000000000000000000000
310
0000000000000000000000000000000000000000000000000000000000000000
310
0000000000000000000000000000000000000000000000000000000000000000
310
0000000000000000000000000000000000000000000000000000000000000000
310
0000000000000000000000000000000000000000000000000000000000000000
310
0000000000000000000000000000000000000000000000000000000000000000
310
0000000000000000000000000000000000000000000000000000000000000000
310
0000000000000000000000000000000000000000000000000000000000000000
310
0000000000000000000000000000000000000000000000000000000000000000
310
0000000000000000000000000000000000000000000000000000000000000000
310
0000000000000000000000000000000000000000000000000000000000000000
310
0000000000000000000000000000000000000000000000000000000000000000
  1
OLE
  0
ENDSEC
  0
SECTION
  2
OBJECTS
  0
DICTIONARY
  5
C
330
0
100
AcDbDictionary
281
     1
  3
ACAD_GROUP
350
D
  3
ACAD_LAYOUT
350
1A
  3
ACAD_MLINESTYLE
350
17
  3
ACAD_PLOTSETTINGS
350
19
  3
ACAD_PLOTSTYLENAME
350
E
  3
ACAD_SCALELIST
350
47
  0
DICTIONARY
  5
D
102
{ACAD_REACTORS
330
C
102
}
330
C
100
AcDbDictionary
281
     1
  0
DICTIONARY
  5
1A
102
{ACAD_REACTORS
330
C
102
}
330
C
100
AcDbDictionary
281
     1
  3
Layout1
350
1E
  3
Layout2
350
26
  3
Model
350
22
  0
DICTIONARY
  5
17
102
{ACAD_REACTORS
330
C
102
}
330
C
100
AcDbDictionary
281
     1
  3
Standard
350
18
  0
DICTIONARY
  5
19
102
{ACAD_REACTORS
330
C
102
}
330
C
100
AcDbDictionary
281
     1
  0
ACDBDICTIONARYWDFLT
  5
E
102
{ACAD_REACTORS
330
C
102
}
330
C
100
AcDbDictionary
281
     1
  3
Normal
350
F
100
AcDbDictionaryWithDefault
340
F
  0
DICTIONARY
  5
47
102
{ACAD_REACTORS
330
C
102
}
330
C
100
AcDbDictionary
281
     1
  3
A0
350
48
  3
A1
350
49
  3
A2
350
4A
  3
A3
350
4B
  3
A4
350
4C
  3
A5
350
4D
  3
A6
350
4E
  3
A7
350
4F
  3
A8
350
50
  3
A9
350
51
  3
B0
350
52
  3
B1
350
53
  3
B2
350
54
  3
B3
350
55
  3
B4
350
56
  3
B5
350
57
  3
B6
350
58
  3
B7
350
59
  3
B8
350
5A
  3
B9
350
5B
  3
C0
350
5C
  3
C1
350
5D
  3
C2
350
5E
  3
C3
350
5F
  3
C4
350
60
  3
C5
350
61
  3
C6
350
62
  3
C7
350
63
  3
C8
350
64
  3
C9
350
65
  3
D0
350
66
  3
D1
350
67
  3
D2
350
68
  0
LAYOUT
  5
1E
102
{ACAD_REACTORS
330
1A
102
}
330
1A
100
AcDbPlotSettings
  1

  2
none_device
  4

  6

 40
0.0
 41
0.0
 42
0.0
 43
0.0
 44
0.0
 45
0.0
 46
0.0
 47
0.0
 48
0.0
 49
0.0
140
0.0
141
0.0
142
1.0
143
1.0
 70
   688
 72
     1
 73
     0
 74
     5
  7

 75
    16
147
1.0
148
0.0
149
0.0
100
AcDbLayout
  1
Layout1
 70
     1
 71
     1
 10
0.0
 20
0.0
 11
420.0
 21
297.0
 12
0.0
 22
0.0
 32
0.0
 14
1.0000000000E+20
 24
1.0000000000E+20
 34
1.0000000000E+20
 15
-1.0000000000E+20
 25
-1.0000000000E+20
 35
-1.0000000000E+20
146
0.0
 13
0.0
 23
0.0
 33
0.0
 16
1.0
 26
0.0
 36
0.0
 17
0.0
 27
1.0
 37
0.0
 76
     0
330
1B
  0
LAYOUT
  5
26
102
{ACAD_REACTORS
330
1A
102
}
330
1A
100
AcDbPlotSettings
  1

  2
none_device
  4

  6

 40
0.0
 41
0.0
 42
0.0
 43
0.0
 44
0.0
 45
0.0
 46
0.0
 47
0.0
 48
0.0
 49
0.0
140
0.0
141
0.0
142
1.0
143
1.0
 70
   688
 72
     1
 73
     0
 74
     5
  7

 75
    16
147
1.0
148
0.0
149
0.0
100
AcDbLayout
  1
Layout2
 70
     1
 71
     2
 10
0.0
 20
0.0
 11
0.0
 21
0.0
 12
0.0
 22
0.0
 32
0.0
 14
0.0
 24
0.0
 34
0.0
 15
0.0
 25
0.0
 35
0.0
146
0.0
 13
0.0
 23
0.0
 33
0.0
 16
1.0
 26
0.0
 36
0.0
 17
0.0
 27
1.0
 37
0.0
 76
     0
330
23
  0
LAYOUT
  5
22
102
{ACAD_REACTORS
330
1A
102
}
330
1A
100
AcDbPlotSettings
  1

  2
none_device
  4
Letter_(8.50_x_11.00_Inches)
  6

 40
6.35
 41
6.35
 42
6.35000508
 43
6.35000508
 44
215.9
 45
279.4
 46
0.0
 47
0.0
 48
0.0
 49
0.0
140
0.0
141
0.0
142
1.0
143
1.0
 70
  1712
 72
     1
 73
     0
 74
     0
  7

 75
     0
147
1.0
148
0.0
149
0.0
100
AcDbLayout
  1
Model
 70
     1
 71
     0
 10
0.0
 20
0.0
 11
297.0
 21
210.0
 12
0.0
 22
0.0
 32
0.0
 14
0.0
 24
0.0
 34
0.0
 15
297.0
 25
210.0
 35
0.0
146
0.0
 13
0.0
 23
0.0
 33
0.0
 16
1.0
 26
0.0
 36
0.0
 17
0.0
 27
1.0
 37
0.0
 76
     0
330
1F
331
29
  0
MLINESTYLE
  5
18
102
{ACAD_REACTORS
330
17
102
}
330
17
100
AcDbMlineStyle
  2
Standard
 70
     0
  3

 62
   256
 51
90.0
 52
90.0
 71
     2
 49
0.5
 62
   256
  6
BYLAYER
 49
-0.5
 62
   256
  6
BYLAYER
  0
ACDBPLACEHOLDER
  5
F
102
{ACAD_REACTORS
330
E
102
}
330
E
  0
SCALE
  5
48
102
{ACAD_REACTORS
330
47
102
}
330
47
100
AcDbScale
 70
     0
300
1:1
140
1.0
141
1.0
290
     1
  0
SCALE
  5
49
102
{ACAD_REACTORS
330
47
102
}
330
47
100
AcDbScale
 70
     0
300
1:2
140
1.0
141
2.0
290
     0
  0
SCALE
  5
4A
102
{ACAD_REACTORS
330
47
102
}
330
47
100
AcDbScale
 70
     0
300
1:4
140
1.0
141
4.0
290
     0
  0
SCALE
  5
4B
102
{ACAD_REACTORS
330
47
102
}
330
47
100
AcDbScale
 70
     0
300
1:5
140
1.0
141
5.0
290
     0
  0
SCALE
  5
4C
102
{ACAD_REACTORS
330
47
102
}
330
47
100
AcDbScale
 70
     0
300
1:8
140
1.0
141
8.0
290
     0
  0
SCALE
  5
4D
102
{ACAD_REACTORS
330
47
102
}
330
47
100
AcDbScale
 70
     0
300
1:10
140
1.0
141
10.0
290
     0
  0
SCALE
  5
4E
102
{ACAD_REACTORS
330
47
102
}
330
47
100
AcDbScale
 70
     0
300
1:16
140
1.0
141
16.0
290
     0
  0
SCALE
  5
4F
102
{ACAD_REACTORS
330
47
102
}
330
47
100
AcDbScale
 70
     0
300
1:20
140
1.0
141
20.0
290
     0
  0
SCALE
  5
50
102
{ACAD_REACTORS
330
47
102
}
330
47
100
AcDbScale
 70
     0
300
1:30
140
1.0
141
30.0
290
     0
  0
SCALE
  5
51
102
{ACAD_REACTORS
330
47
102
}
330
47
100
AcDbScale
 70
     0
300
1:40
140
1.0
141
40.0
290
     0
  0
SCALE
  5
52
102
{ACAD_REACTORS
330
47
102
}
330
47
100
AcDbScale
 70
     0
300
1:50
140
1.0
141
50.0
290
     0
  0
SCALE
  5
53
102
{ACAD_REACTORS
330
47
102
}
330
47
100
AcDbScale
 70
     0
300
1:100
140
1.0
141
100.0
290
     0
  0
SCALE
  5
54
102
{ACAD_REACTORS
330
47
102
}
330
47
100
AcDbScale
 70
     0
300
2:1
140
2.0
141
1.0
290
     0
  0
SCALE
  5
55
102
{ACAD_REACTORS
330
47
102
}
330
47
100
AcDbScale
 70
     0
300
4:1
140
4.0
141
1.0
290
     0
  0
SCALE
  5
56
102
{ACAD_REACTORS
330
47
102
}
330
47
100
AcDbScale
 70
     0
300
8:1
140
8.0
141
1.0
290
     0
  0
SCALE
  5
57
102
{ACAD_REACTORS
330
47
102
}
330
47
100
AcDbScale
 70
     0
300
10:1
140
10.0
141
1.0
290
     0
  0
SCALE
  5
58
102
{ACAD_REACTORS
330
47
102
}
330
47
100
AcDbScale
 70
     0
300
100:1
140
100.0
141
1.0
290
     0
  0
SCALE
  5
59
102
{ACAD_REACTORS
330
47
102
}
330
47
100
AcDbScale
 70
     0
300
1/128" = 1'-0"
140
0.0078125
141
12.0
290
     0
  0
SCALE
  5
5A
102
{ACAD_REACTORS
330
47
102
}
330
47
100
AcDbScale
 70
     0
300
1/64" = 1'-0"
140
0.015625
141
12.0
290
     0
  0
SCALE
  5
5B
102
{ACAD_REACTORS
330
47
102
}
330
47
100
AcDbScale
 70
     0
300
1/32" = 1'-0"
140
0.03125
141
12.0
290
     0
  0
SCALE
  5
5C
102
{ACAD_REACTORS
330
47
102
}
330
47
100
AcDbScale
 70
     0
300
1/16" = 1'-0"
140
0.0625
141
12.0
290
     0
  0
SCALE
  5
5D
102
{ACAD_REACTORS
330
47
102
}
330
47
100
AcDbScale
 70
     0
300
3/32" = 1'-0"
140
0.09375
141
12.0
290
     0
  0
SCALE
  5
5E
102
{ACAD_REACTORS
330
47
102
}
330
47
100
AcDbScale
 70
     0
300
1/8" = 1'-0"
140
0.125
141
12.0
290
     0
  0
SCALE
  5
5F
102
{ACAD_REACTORS
330
47
102
}
330
47
100
AcDbScale
 70
     0
300
3/16" = 1'-0"
140
0.1875
141
12.0
290
     0
  0
SCALE
  5
60
102
{ACAD_REACTORS
330
47
102
}
330
47
100
AcDbScale
 70
     0
300
1/4" = 1'-0"
140
0.25
141
12.0
290
     0
  0
SCALE
  5
61
102
{ACAD_REACTORS
330
47
102
}
330
47
100
AcDbScale
 70
     0
300
3/8" = 1'-0"
140
0.375
141
12.0
290
     0
  0
SCALE
  5
62
102
{ACAD_REACTORS
330
47
102
}
330
47
100
AcDbScale
 70
     0
300
1/2" = 1'-0"
140
0.5
141
12.0
290
     0
  0
SCALE
  5
63
102
{ACAD_REACTORS
330
47
102
}
330
47
100
AcDbScale
 70
     0
300
3/4" = 1'-0"
140
0.75
141
12.0
290
     0
  0
SCALE
  5
64
102
{ACAD_REACTORS
330
47
102
}
330
47
100
AcDbScale
 70
     0
300
1" = 1'-0"
140
1.0
141
12.0
290
     0
  0
SCALE
  5
65
102
{ACAD_REACTORS
330
47
102
}
330
47
100
AcDbScale
 70
     0
300
1-1/2" = 1'-0"
140
1.5
141
12.0
290
     0
  0
SCALE
  5
66
102
{ACAD_REACTORS
330
47
102
}
330
47
100
AcDbScale
 70
     0
300
3" = 1'-0"
140
3.0
141
12.0
290
     0
  0
SCALE
  5
67
102
{ACAD_REACTORS
330
47
102
}
330
47
100
AcDbScale
 70
     0
300
6" = 1'-0"
140
6.0
141
12.0
290
     0
  0
SCALE
  5
68
102
{ACAD_REACTORS
330
47
102
}
330
47
100
AcDbScale
 70
     0
300
1'-0" = 1'-0"
140
12.0
141
12.0
290
     0
  0
ENDSEC
  0
EOF
