  0
SECTION
  2
HEADER
  9
$ACADVER
  1
AC1015
  9
$ACADMAINTVER
 70
     6
  9
$DWGCODEPAGE
  3
ANSI_1252
  9
$INSBASE
 10
0.0
 20
0.0
 30
0.0
  9
$EXTMIN
 10
0.0
 20
0.0
 30
0.0
  9
$EXTMAX
 10
297.0
 20
210.0
 30
0.0
  9
$LIMMIN
 10
0.0
 20
0.0
  9
$LIMMAX
 10
297.0
 20
210.0
  9
$ORTHOMODE
 70
     0
  9
$REGENMODE
 70
     1
  9
$FILLMODE
 70
     1
  9
$QTEXTMODE
 70
     0
  9
$MIRRTEXT
 70
     1
  9
$LTSCALE
 40
1.0
  9
$ATTMODE
 70
     1
  9
$TEXTSIZE
 40
2.0
  9
$TRACEWID
 40
1.0
  9
$TEXTSTYLE
  7
Standard
  9
$CLAYER
  8
0
  9
$CELTYPE
  6
ByLayer
  9
$CECOLOR
 62
   256
  9
$CELTSCALE
 40
1.0
  9
$DISPSILH
 70
     0
  9
$DIMSCALE
 40
1.0
  9
$DIMASZ
 40
3.0
  9
$DIMEXO
 40
0.0
  9
$DIMDLI
 40
3.75
  9
$DIMRND
 40
0.0
  9
$DIMDLE
 40
0.0
  9
$DIMEXE
 40
1.0
  9
$DIMTP
 40
0.0
  9
$DIMTM
 40
0.0
  9
$DIMTXT
 40
2.0
  9
$DIMCEN
 40
2.5
  9
$DIMTSZ
 40
0.0
  9
$DIMTOL
 70
     0
  9
$DIMLIM
 70
     0
  9
$DIMTIH
 70
     1
  9
$DIMTOH
 70
     1
  9
$DIMSE1
 70
     0
  9
$DIMSE2
 70
     0
  9
$DIMTAD
 70
     1
  9
$DIMZIN
 70
     0
  9
$DIMBLK
  1

  9
$DIMASO
 70
     1
  9
$DIMSHO
 70
     1
  9
$DIMPOST
  1

  9
$DIMAPOST
  1

  9
$DIMALT
 70
     0
  9
$DIMALTD
 70
     3
  9
$DIMALTF
 40
0.0393700787
  9
$DIMLFAC
 40
1.0
  9
$DIMTOFL
 70
     1
  9
$DIMTVP
 40
0.0
  9
$DIMTIX
 70
     0
  9
$DIMSOXD
 70
     0
  9
$DIMSAH
 70
     0
  9
$DIMBLK1
  1

  9
$DIMBLK2
  1

  9
$DIMSTYLE
  2
ISO-25
  9
$DIMCLRD
 70
     0
  9
$DIMCLRE
 70
     0
  9
$DIMCLRT
 70
     0
  9
$DIMTFAC
 40
1.0
  9
$DIMGAP
 40
1.524
  9
$DIMJUST
 70
     0
  9
$DIMSD1
 70
     0
  9
$DIMSD2
 70
     0
  9
$DIMTOLJ
 70
     0
  9
$DIMTZIN
 70
     0
  9
$DIMALTZ
 70
     0
  9
$DIMALTTZ
 70
     0
  9
$DIMUPT
 70
     0
  9
$DIMDEC
 70
     2
  9
$DIMTDEC
 70
     3
  9
$DIMALTU
 70
     2
  9
$DIMALTTD
 70
     3
  9
$DIMTXSTY
  7
Standard
  9
$DIMAUNIT
 70
     0
  9
$DIMADEC
 70
     2
  9
$DIMALTRND
 40
0.0
  9
$DIMAZIN
 70
     0
  9
$DIMDSEP
 70
    44
  9
$DIMATFIT
 70
     3
  9
$DIMFRAC
 70
     0
  9
$DIMLDRBLK
  1

  9
$DIMLUNIT
 70
     2
  9
$DIMLWD
 70
    -2
  9
$DIMLWE
 70
    -2
  9
$DIMTMOVE
 70
     0
  9
$LUNITS
 70
     2
  9
$LUPREC
 70
     2
  9
$SKETCHINC
 40
1.0
  9
$FILLETRAD
 40
10.0
  9
$AUNITS
 70
     0
  9
$AUPREC
 70
     2
  9
$MENU
  1
.
  9
$ELEVATION
 40
0.0
  9
$PELEVATION
 40
0.0
  9
$THICKNESS
 40
0.0
  9
$LIMCHECK
 70
     0
  9
$CHAMFERA
 40
0.0
  9
$CHAMFERB
 40
0.0
  9
$CHAMFERC
 40
0.0
  9
$CHAMFERD
 40
0.0
  9
$SKPOLY
 70
     0
  9
$TDCREATE
 40
2457660.722608808
  9
$TDUCREATE
 40
2457660.639275474
  9
$TDUPDATE
 40
2457660.722609861
  9
$TDUUPDATE
 40
2457660.639276528
  9
$TDINDWG
 40
0.0000000116
  9
$TDUSRTIMER
 40
0.0000000116
  9
$USRTIMER
 70
     1
  9
$ANGBASE
 50
0.0
  9
$ANGDIR
 70
     0
  9
$PDMODE
 70
     0
  9
$PDSIZE
 40
-1.0
  9
$PLINEWID
 40
0.0
  9
$SPLFRAME
 70
     0
  9
$SPLINETYPE
 70
     6
  9
$SPLINESEGS
 70
     8
  9
$HANDSEED
  5
1DD
  9
$SURFTAB1
 70
     6
  9
$SURFTAB2
 70
     6
  9
$SURFTYPE
 70
     6
  9
$SURFU
 70
     6
  9
$SURFV
 70
     6
  9
$UCSBASE
  2

  9
$UCSNAME
  2

  9
$UCSORG
 10
0.0
 20
0.0
 30
0.0
  9
$UCSXDIR
 10
1.0
 20
0.0
 30
0.0
  9
$UCSYDIR
 10
0.0
 20
1.0
 30
0.0
  9
$UCSORTHOREF
  2

  9
$UCSORTHOVIEW
 70
     0
  9
$UCSORGTOP
 10
0.0
 20
0.0
 30
0.0
  9
$UCSORGBOTTOM
 10
0.0
 20
0.0
 30
0.0
  9
$UCSORGLEFT
 10
0.0
 20
0.0
 30
0.0
  9
$UCSORGRIGHT
 10
0.0
 20
0.0
 30
0.0
  9
$UCSORGFRONT
 10
0.0
 20
0.0
 30
0.0
  9
$UCSORGBACK
 10
0.0
 20
0.0
 30
0.0
  9
$PUCSBASE
  2

  9
$PUCSNAME
  2

  9
$PUCSORG
 10
0.0
 20
0.0
 30
0.0
  9
$PUCSXDIR
 10
1.0
 20
0.0
 30
0.0
  9
$PUCSYDIR
 10
0.0
 20
1.0
 30
0.0
  9
$PUCSORTHOREF
  2

  9
$PUCSORTHOVIEW
 70
     0
  9
$PUCSORGTOP
 10
0.0
 20
0.0
 30
0.0
  9
$PUCSORGBOTTOM
 10
0.0
 20
0.0
 30
0.0
  9
$PUCSORGLEFT
 10
0.0
 20
0.0
 30
0.0
  9
$PUCSORGRIGHT
 10
0.0
 20
0.0
 30
0.0
  9
$PUCSORGFRONT
 10
0.0
 20
0.0
 30
0.0
  9
$PUCSORGBACK
 10
0.0
 20
0.0
 30
0.0
  9
$USERI1
 70
     0
  9
$USERI2
 70
     0
  9
$USERI3
 70
     0
  9
$USERI4
 70
     0
  9
$USERI5
 70
     0
  9
$USERR1
 40
0.0
  9
$USERR2
 40
0.0
  9
$USERR3
 40
0.0
  9
$USERR4
 40
0.0
  9
$USERR5
 40
0.0
  9
$WORLDVIEW
 70
     1
  9
$SHADEDGE
 70
     3
  9
$SHADEDIF
 70
    70
  9
$TILEMODE
 70
     1
  9
$MAXACTVP
 70
    64
  9
$PINSBASE
 10
0.0
 20
0.0
 30
0.0
  9
$PLIMCHECK
 70
     0
  9
$PEXTMIN
 10
1.0000000000E+20
 20
1.0000000000E+20
 30
1.0000000000E+20
  9
$PEXTMAX
 10
-1.0000000000E+20
 20
-1.0000000000E+20
 30
-1.0000000000E+20
  9
$PLIMMIN
 10
0.0
 20
0.0
  9
$PLIMMAX
 10
420.0
 20
297.0
  9
$UNITMODE
 70
     0
  9
$VISRETAIN
 70
     1
  9
$PLINEGEN
 70
     0
  9
$PSLTSCALE
 70
     1
  9
$TREEDEPTH
 70
  3020
  9
$CMLSTYLE
  2
Standard
  9
$CMLJUST
 70
     0
  9
$CMLSCALE
 40
20.0
  9
$PROXYGRAPHICS
 70
     1
  9
$MEASUREMENT
 70
     1
  9
$CELWEIGHT
370
    -1
  9
$ENDCAPS
280
     0
  9
$JOINSTYLE
280
     0
  9
$LWDISPLAY
290
     1
  9
$INSUNITS
 70
     4
  9
$HYPERLINKBASE
  1

  9
$STYLESHEET
  1

  9
$XEDIT
290
     1
  9
$CEPSNTYPE
380
     0
  9
$PSTYLEMODE
290
     1
  9
$FINGERPRINTGUID
  2
{E4DD2CD6-6C83-46DF-B2E5-13FD9F561EA7}
  9
$VERSIONGUID
  2
{FAEB1C32-E019-11D5-929B-00C0DF256EC4}
  9
$EXTNAMES
290
     1
  9
$PSVPSCALE
 40
0.0
  9
$OLESTARTUP
290
     0
  0
ENDSEC
  0
SECTION
  2
CLASSES
  0
CLASS
  1
ACDBDICTIONARYWDFLT
  2
AcDbDictionaryWithDefault
  3
ObjectDBX Classes
 90
        0
280
     0
281
     0
  0
CLASS
  1
VISUALSTYLE
  2
AcDbVisualStyle
  3
ObjectDBX Classes
 90
     4095
280
     0
281
     0
  0
CLASS
  1
MATERIAL
  2
AcDbMaterial
  3
ObjectDBX Classes
 90
     1153
280
     0
281
     0
  0
CLASS
  1
SCALE
  2
AcDbScale
  3
ObjectDBX Classes
 90
     1153
280
     0
281
     0
  0
CLASS
  1
TABLESTYLE
  2
AcDbTableStyle
  3
ObjectDBX Classes
 90
     4095
280
     0
281
     0
  0
CLASS
  1
MLEADERSTYLE
  2
AcDbMLeaderStyle
  3
ACDB_MLEADERSTYLE_CLASS
 90
     4095
280
     0
281
     0
  0
CLASS
  1
SUN
  2
AcDbSun
  3
SCENEOE
 90
     1153
280
     0
281
     0
  0
CLASS
  1
ACDBPLACEHOLDER
  2
AcDbPlaceHolder
  3
ObjectDBX Classes
 90
        0
280
     0
281
     0
  0
CLASS
  1
LAYOUT
  2
AcDbLayout
  3
ObjectDBX Classes
 90
        0
280
     0
281
     0
  0
ENDSEC
  0
SECTION
  2
TABLES
  0
TABLE
  2
VPORT
  5
8
330
0
100
AcDbSymbolTable
 70
     1
  0
VPORT
  5
29
330
8
100
AcDbSymbolTableRecord
100
AcDbViewportTableRecord
  2
*Active
 70
     0
 10
0.0
 20
0.0
 11
1.0
 21
1.0
 12
148.5
 22
105.0
 13
0.0
 23
0.0
 14
10.0
 24
10.0
 15
10.0
 25
10.0
 16
0.0
 26
0.0
 36
1.0
 17
0.0
 27
0.0
 37
0.0
 40
210.0
 41
1.4142857143
 42
50.0
 43
0.0
 44
0.0
 50
0.0
 51
0.0
 71
     0
 72
  2000
 73
     1
 74
     3
 75
     0
 76
     0
 77
     0
 78
     0
281
     0
 65
     1
110
0.0
120
0.0
130
0.0
111
1.0
121
0.0
131
0.0
112
0.0
122
1.0
132
0.0
 79
     0
146
0.0
  0
ENDTAB
  0
TABLE
  2
LTYPE
  5
5
330
0
100
AcDbSymbolTable
 70
     6
  0
LTYPE
  5
14
330
5
100
AcDbSymbolTableRecord
100
AcDbLinetypeTableRecord
  2
ByBlock
 70
     0
  3

 72
    65
 73
     0
 40
0.0
  0
LTYPE
  5
15
330
5
100
AcDbSymbolTableRecord
100
AcDbLinetypeTableRecord
  2
ByLayer
 70
     0
  3

 72
    65
 73
     0
 40
0.0
  0
LTYPE
  5
16
330
5
100
AcDbSymbolTableRecord
100
AcDbLinetypeTableRecord
  2
Continuous
 70
     0
  3
Solid line
 72
    65
 73
     0
 40
0.0
  0
LTYPE
  5
6E
330
5
100
AcDbSymbolTableRecord
100
AcDbLinetypeTableRecord
  2
HIDDEN
 70
     0
  3
Hidden __ __ __ __ __ __ __ __ __ __ __ __ __ __
 72
    65
 73
     2
 40
1.905
 49
1.27
 74
     0
 49
-0.635
 74
     0
  0
LTYPE
  5
6F
330
5
100
AcDbSymbolTableRecord
100
AcDbLinetypeTableRecord
  2
PHANTOM
 70
     0
  3
Phantom ______  __  __  ______  __  __  ______
 72
    65
 73
     6
 40
12.7
 49
6.35
 74
     0
 49
-1.27
 74
     0
 49
1.27
 74
     0
 49
-1.27
 74
     0
 49
1.27
 74
     0
 49
-1.27
 74
     0
  0
LTYPE
  5
70
330
5
100
AcDbSymbolTableRecord
100
AcDbLinetypeTableRecord
  2
CENTER
 70
     0
  3
Center ____ _ ____ _ ____ _ ____ _ ____ _ ____
 72
    65
 73
     4
 40
10.16
 49
6.35
 74
     0
 49
-1.27
 74
     0
 49
1.27
 74
     0
 49
-1.27
 74
     0
  0
LTYPE
  5
71
330
5
100
AcDbSymbolTableRecord
100
AcDbLinetypeTableRecord
  2
CENTERX2
 70
     0
  3
Center (2x) ________  __  ________  __  _____
 72
    65
 73
     4
 40
20.32
 49
12.7
 74
     0
 49
-2.54
 74
     0
 49
2.54
 74
     0
 49
-2.54
 74
     0
  0
LTYPE
  5
72
330
5
100
AcDbSymbolTableRecord
100
AcDbLinetypeTableRecord
  2
DOT2
 70
     0
  3
Dot (.5x) ........................................
 72
    65
 73
     2
 40
0.635
 49
0.0
 74
     0
 49
-0.635
 74
     0
  0
ENDTAB
  0
TABLE
  2
LAYER
  5
2
330
0
100
AcDbSymbolTable
 70
     5
  0
LAYER
  5
10
330
2
100
AcDbSymbolTableRecord
100
AcDbLayerTableRecord
  2
0
 70
     0
 62
     7
  6
Continuous
370
    -3
390
F
  0
LAYER
  5
73
330
2
100
AcDbSymbolTableRecord
100
AcDbLayerTableRecord
  2
FORMAT
 70
     0
 62
     7
  6
Continuous
370
    -3
390
F
  0
LAYER
  5
74
330
2
100
AcDbSymbolTableRecord
100
AcDbLayerTableRecord
  2
VERMASSUNG
 70
     0
 62
     7
  6
Continuous
370
    -3
390
F
  0
LAYER
  5
75
330
2
100
AcDbSymbolTableRecord
100
AcDbLayerTableRecord
  2
KOPF_DÜNN
 70
     0
 62
     7
  6
Continuous
370
    -3
390
F
  0
LAYER
  5
76
330
2
100
AcDbSymbolTableRecord
100
AcDbLayerTableRecord
  2
KOPF_DICK
 70
     0
 62
     7
  6
Continuous
370
    15
390
F
  0
ENDTAB
  0
TABLE
  2
STYLE
  5
3
330
0
100
AcDbSymbolTable
 70
     3
  0
STYLE
  5
11
330
3
100
AcDbSymbolTableRecord
100
AcDbTextStyleTableRecord
  2
Standard
 70
     0
 40
0.0
 41
1.0
 50
0.0
 71
     0
 42
2.0
  3
txt
  4

  0
STYLE
  5
77
330
3
100
AcDbSymbolTableRecord
100
AcDbTextStyleTableRecord
  2
SLDTEXTSTYLE0
 70
     0
 40
0.0
 41
0.7
 50
0.0
 71
     0
 42
2.0
  3
TXT
  4

  0
STYLE
  5
7B
330
3
100
AcDbSymbolTableRecord
100
AcDbTextStyleTableRecord
  2
SLDTEXTSTYLE1
 70
     0
 40
0.0
 41
0.6444444444
 50
0.0
 71
     0
 42
2.0
  3
TXT
  4

  0
ENDTAB
  0
TABLE
  2
VIEW
  5
6
330
0
100
AcDbSymbolTable
 70
     0
  0
ENDTAB
  0
TABLE
  2
UCS
  5
7
330
0
100
AcDbSymbolTable
 70
     0
  0
ENDTAB
  0
TABLE
  2
APPID
  5
9
330
0
100
AcDbSymbolTable
 70
     1
  0
APPID
  5
12
330
9
100
AcDbSymbolTableRecord
100
AcDbRegAppTableRecord
  2
ACAD
 70
     0
  0
ENDTAB
  0
TABLE
  2
DIMSTYLE
  5
A
330
0
100
AcDbSymbolTable
 70
     2
100
AcDbDimStyleTable
  0
DIMSTYLE
105
27
330
A
100
AcDbSymbolTableRecord
100
AcDbDimStyleTableRecord
  2
ISO-25
 70
     0
 41
2.5
 42
0.625
 43
3.75
 44
1.25
 73
     0
 74
     0
 77
     1
 78
     8
140
2.5
141
2.5
143
0.0393700787
147
0.625
171
     3
172
     1
178
     0
271
     2
272
     2
274
     3
278
    44
283
     0
284
     8
340
11
  0
DIMSTYLE
105
1A5
102
{ACAD_REACTORS
330
1A4
330
1B1
330
1BB
330
1C5
330
1CF
102
}
330
A
100
AcDbSymbolTableRecord
100
AcDbDimStyleTableRecord
  2
SLDDIMSTYLE0
 70
     0
 41
3.0
 44
0.0
 45
0.000000001
 73
     0
 74
     0
 77
     1
 78
    12
 79
     3
140
2.0
147
0.5
173
     1
178
     0
271
     2
272
     3
276
     2
284
    12
340
77
  0
ENDTAB
  0
TABLE
  2
BLOCK_RECORD
  5
1
330
0
100
AcDbSymbolTable
 70
     6
  0
BLOCK_RECORD
  5
1F
330
1
100
AcDbSymbolTableRecord
100
AcDbBlockTableRecord
  2
*Model_Space
340
22
  0
BLOCK_RECORD
  5
1B
330
1
100
AcDbSymbolTableRecord
100
AcDbBlockTableRecord
  2
*Paper_Space
340
1E
  0
BLOCK_RECORD
  5
23
330
1
100
AcDbSymbolTableRecord
100
AcDbBlockTableRecord
  2
*Paper_Space0
340
26
  0
BLOCK_RECORD
  5
1A6
330
1
100
AcDbSymbolTableRecord
100
AcDbBlockTableRecord
  2
_D
340
0
  0
BLOCK_RECORD
  5
1B2
330
1
100
AcDbSymbolTableRecord
100
AcDbBlockTableRecord
  2
_D_1
340
0
  0
BLOCK_RECORD
  5
1BC
330
1
100
AcDbSymbolTableRecord
100
AcDbBlockTableRecord
  2
_D_2
340
0
  0
BLOCK_RECORD
  5
1C6
330
1
100
AcDbSymbolTableRecord
100
AcDbBlockTableRecord
  2
_D_3
340
0
  0
BLOCK_RECORD
  5
1D0
330
1
100
AcDbSymbolTableRecord
100
AcDbBlockTableRecord
  2
_D_4
340
0
  0
ENDTAB
  0
ENDSEC
  0
SECTION
  2
BLOCKS
  0
BLOCK
  5
20
330
1F
100
AcDbEntity
  8
0
100
AcDbBlockBegin
  2
*Model_Space
 70
     0
 10
0.0
 20
0.0
 30
0.0
  3
*Model_Space
  1

  0
ENDBLK
  5
21
330
1F
100
AcDbEntity
  8
0
100
AcDbBlockEnd
  0
BLOCK
  5
1C
330
1B
100
AcDbEntity
 67
     1
  8
0
100
AcDbBlockBegin
  2
*Paper_Space
 70
     0
 10
0.0
 20
0.0
 30
0.0
  3
*Paper_Space
  1

  0
ENDBLK
  5
1D
330
1B
100
AcDbEntity
 67
     1
  8
0
100
AcDbBlockEnd
  0
BLOCK
  5
24
330
23
100
AcDbEntity
  8
0
100
AcDbBlockBegin
  2
*Paper_Space0
 70
     0
 10
0.0
 20
0.0
 30
0.0
  3
*Paper_Space0
  1

  0
ENDBLK
  5
25
330
23
100
AcDbEntity
  8
0
100
AcDbBlockEnd
  0
BLOCK
  5
1A7
330
1A6
100
AcDbEntity
  8
0
100
AcDbBlockBegin
  2
_D
 70
     0
 10
0.0
 20
0.0
 30
0.0
  3
_D
  1

  0
SOLID
  5
1A9
330
1A6
100
AcDbEntity
  8
VERMASSUNG
100
AcDbTrace
 10
52.327702393
 20
159.4471588847
 30
0.0
 11
51.877702393
 21
156.4471588847
 31
0.0
 12
52.777702393
 22
156.4471588847
 32
0.0
 13
52.777702393
 23
156.4471588847
 33
0.0
  0
SOLID
  5
1AA
330
1A6
100
AcDbEntity
  8
VERMASSUNG
100
AcDbTrace
 10
52.327702393
 20
59.4471588847
 30
0.0
 11
52.777702393
 21
62.4471588847
 31
0.0
 12
51.877702393
 22
62.4471588847
 32
0.0
 13
51.877702393
 23
62.4471588847
 33
0.0
  0
LINE
  5
1AB
330
1A6
100
AcDbEntity
  8
VERMASSUNG
100
AcDbLine
 10
193.1762482336
 20
159.4471588847
 30
0.0
 11
51.327702393
 21
159.4471588847
 31
0.0
  0
LINE
  5
1AC
330
1A6
100
AcDbEntity
  8
VERMASSUNG
100
AcDbLine
 10
193.1762483872
 20
59.4471588847
 30
0.0
 11
51.327702393
 21
59.4471588847
 31
0.0
  0
LINE
  5
1AD
330
1A6
100
AcDbEntity
  8
VERMASSUNG
100
AcDbLine
 10
52.327702393
 20
159.4471588847
 30
0.0
 11
52.327702393
 21
59.4471588847
 31
0.0
  0
MTEXT
  5
1AE
330
1A6
100
AcDbEntity
  8
VERMASSUNG
100
AcDbMText
 10
49.5495671368
 20
98.3433926643
 30
0.0
 40
2.0
 41
0.0
 71
     1
 72
     1
  1
MAS BT 50
  7
SLDTEXTSTYLE0
 11
-7.044195017643634E-15
 21
1.0
 31
0.0
 73
     1
 44
1.0
  0
MTEXT
  5
1AF
330
1A6
100
AcDbEntity
  8
VERMASSUNG
100
AcDbMText
 10
49.7495670881
 20
113.1433926688
 30
0.0
 40
2.0
 41
0.0
 71
     1
 72
     1
  1
%%c
  7
SLDTEXTSTYLE0
 11
-7.044195017643634E-15
 21
1.0
 31
0.0
 73
     1
 44
1.0
  0
MTEXT
  5
1B0
330
1A6
100
AcDbEntity
  8
VERMASSUNG
100
AcDbMText
 10
49.749566797
 20
116.7522392143
 30
0.0
 40
2.0
 41
0.0
 71
     1
 72
     1
  1
100
  7
SLDTEXTSTYLE0
 11
-7.044195017643634E-15
 21
1.0
 31
0.0
 73
     1
 44
1.0
  0
ENDBLK
  5
1A8
330
1A6
100
AcDbEntity
  8
0
100
AcDbBlockEnd
  0
BLOCK
  5
1B3
330
1B2
100
AcDbEntity
  8
0
100
AcDbBlockBegin
  2
_D_1
 70
     0
 10
0.0
 20
0.0
 30
0.0
  3
_D_1
  1

  0
SOLID
  5
1B5
330
1B2
100
AcDbEntity
  8
VERMASSUNG
100
AcDbTrace
 10
57.3762463251
 20
179.2565754816
 30
0.0
 11
60.3762463251
 21
178.8065754816
 31
0.0
 12
60.3762463251
 22
179.7065754816
 32
0.0
 13
60.3762463251
 23
179.7065754816
 33
0.0
  0
SOLID
  5
1B6
330
1B2
100
AcDbEntity
  8
VERMASSUNG
100
AcDbTrace
 10
252.1762463251
 20
179.2565754816
 30
0.0
 11
249.1762463251
 21
179.7065754816
 31
0.0
 12
249.1762463251
 22
178.8065754816
 32
0.0
 13
249.1762463251
 23
178.8065754816
 33
0.0
  0
LINE
  5
1B7
330
1B2
100
AcDbEntity
  8
VERMASSUNG
100
AcDbLine
 10
57.3762463251
 20
127.7968367455
 30
0.0
 11
57.3762463251
 21
180.2565754816
 31
0.0
  0
LINE
  5
1B8
330
1B2
100
AcDbEntity
  8
VERMASSUNG
100
AcDbLine
 10
252.1762463251
 20
121.7471588847
 30
0.0
 11
252.1762463251
 21
180.2565754816
 31
0.0
  0
LINE
  5
1B9
330
1B2
100
AcDbEntity
  8
VERMASSUNG
100
AcDbLine
 10
57.3762463251
 20
179.2565754816
 30
0.0
 11
252.1762463251
 21
179.2565754816
 31
0.0
  0
MTEXT
  5
1BA
330
1B2
100
AcDbEntity
  8
VERMASSUNG
100
AcDbMText
 10
151.7772257278
 20
181.8347110775
 30
0.0
 40
2.0
 41
0.0
 71
     1
 72
     1
  1
194.8
  7
SLDTEXTSTYLE0
 73
     1
 44
1.0
  0
ENDBLK
  5
1B4
330
1B2
100
AcDbEntity
  8
0
100
AcDbBlockEnd
  0
BLOCK
  5
1BD
330
1BC
100
AcDbEntity
  8
0
100
AcDbBlockBegin
  2
_D_2
 70
     0
 10
0.0
 20
0.0
 30
0.0
  3
_D_2
  1

  0
SOLID
  5
1BF
330
1BC
100
AcDbEntity
  8
VERMASSUNG
100
AcDbTrace
 10
159.1762463251
 20
173.2565754816
 30
0.0
 11
162.1762463251
 21
172.8065754816
 31
0.0
 12
162.1762463251
 22
173.7065754816
 32
0.0
 13
162.1762463251
 23
173.7065754816
 33
0.0
  0
SOLID
  5
1C0
330
1BC
100
AcDbEntity
  8
VERMASSUNG
100
AcDbTrace
 10
252.1762463251
 20
173.2565754816
 30
0.0
 11
249.1762463251
 21
173.7065754816
 31
0.0
 12
249.1762463251
 22
172.8065754816
 32
0.0
 13
249.1762463251
 23
172.8065754816
 33
0.0
  0
LINE
  5
1C1
330
1BC
100
AcDbEntity
  8
VERMASSUNG
100
AcDbLine
 10
159.1762463251
 20
144.3721588847
 30
0.0
 11
159.1762463251
 21
174.2565754816
 31
0.0
  0
LINE
  5
1C2
330
1BC
100
AcDbEntity
  8
VERMASSUNG
100
AcDbLine
 10
252.1762463251
 20
121.7471588847
 30
0.0
 11
252.1762463251
 21
174.2565754816
 31
0.0
  0
LINE
  5
1C3
330
1BC
100
AcDbEntity
  8
VERMASSUNG
100
AcDbLine
 10
159.1762463251
 20
173.2565754816
 30
0.0
 11
252.1762463251
 21
173.2565754816
 31
0.0
  0
MTEXT
  5
1C4
330
1BC
100
AcDbEntity
  8
VERMASSUNG
100
AcDbMText
 10
204.2765563148
 20
175.8347110775
 30
0.0
 40
2.0
 41
0.0
 71
     1
 72
     1
  1
93
  7
SLDTEXTSTYLE0
 73
     1
 44
1.0
  0
ENDBLK
  5
1BE
330
1BC
100
AcDbEntity
  8
0
100
AcDbBlockEnd
  0
BLOCK
  5
1C7
330
1C6
100
AcDbEntity
  8
0
100
AcDbBlockBegin
  2
_D_3
 70
     0
 10
0.0
 20
0.0
 30
0.0
  3
_D_3
  1

  0
SOLID
  5
1C9
330
1C6
100
AcDbEntity
  8
VERMASSUNG
100
AcDbTrace
 10
197.1762463251
 20
167.2565754816
 30
0.0
 11
200.1762463251
 21
166.8065754816
 31
0.0
 12
200.1762463251
 22
167.7065754816
 32
0.0
 13
200.1762463251
 23
167.7065754816
 33
0.0
  0
SOLID
  5
1CA
330
1C6
100
AcDbEntity
  8
VERMASSUNG
100
AcDbTrace
 10
252.1762463251
 20
167.2565754816
 30
0.0
 11
249.1762463251
 21
167.7065754816
 31
0.0
 12
249.1762463251
 22
166.8065754816
 32
0.0
 13
249.1762463251
 23
166.8065754816
 33
0.0
  0
LINE
  5
1CB
330
1C6
100
AcDbEntity
  8
VERMASSUNG
100
AcDbLine
 10
197.1762463251
 20
158.4471588847
 30
0.0
 11
197.1762463251
 21
168.2565754816
 31
0.0
  0
LINE
  5
1CC
330
1C6
100
AcDbEntity
  8
VERMASSUNG
100
AcDbLine
 10
252.1762463251
 20
121.7471588847
 30
0.0
 11
252.1762463251
 21
168.2565754816
 31
0.0
  0
LINE
  5
1CD
330
1C6
100
AcDbEntity
  8
VERMASSUNG
100
AcDbLine
 10
197.1762463251
 20
167.2565754816
 30
0.0
 11
252.1762463251
 21
167.2565754816
 31
0.0
  0
MTEXT
  5
1CE
330
1C6
100
AcDbEntity
  8
VERMASSUNG
100
AcDbMText
 10
223.2765563148
 20
169.8347110775
 30
0.0
 40
2.0
 41
0.0
 71
     1
 72
     1
  1
55
  7
SLDTEXTSTYLE0
 73
     1
 44
1.0
  0
ENDBLK
  5
1C8
330
1C6
100
AcDbEntity
  8
0
100
AcDbBlockEnd
  0
BLOCK
  5
1D1
330
1D0
100
AcDbEntity
  8
0
100
AcDbBlockBegin
  2
_D_4
 70
     0
 10
0.0
 20
0.0
 30
0.0
  3
_D_4
  1

  0
SOLID
  5
1D3
330
1D0
100
AcDbEntity
  8
VERMASSUNG
100
AcDbTrace
 10
260.4205783239
 20
121.9471588847
 30
0.0
 11
259.9705783239
 21
118.9471588847
 31
0.0
 12
260.8705783239
 22
118.9471588847
 32
0.0
 13
260.8705783239
 23
118.9471588847
 33
0.0
  0
SOLID
  5
1D4
330
1D0
100
AcDbEntity
  8
VERMASSUNG
100
AcDbTrace
 10
260.4205783239
 20
96.9471588847
 30
0.0
 11
260.8705783239
 21
99.9471588847
 31
0.0
 12
259.9705783239
 22
99.9471588847
 32
0.0
 13
259.9705783239
 23
99.9471588847
 33
0.0
  0
LINE
  5
1D5
330
1D0
100
AcDbEntity
  8
VERMASSUNG
100
AcDbLine
 10
251.9762463251
 20
121.9471588847
 30
0.0
 11
261.4205783239
 21
121.9471588847
 31
0.0
  0
LINE
  5
1D6
330
1D0
100
AcDbEntity
  8
VERMASSUNG
100
AcDbLine
 10
251.9762463251
 20
96.9471588847
 30
0.0
 11
261.4205783239
 21
96.9471588847
 31
0.0
  0
LINE
  5
1D7
330
1D0
100
AcDbEntity
  8
VERMASSUNG
100
AcDbLine
 10
260.4205783239
 20
121.9471588847
 30
0.0
 11
260.4205783239
 21
96.9471588847
 31
0.0
  0
MTEXT
  5
1D8
330
1D0
100
AcDbEntity
  8
VERMASSUNG
100
AcDbMText
 10
257.6424430677
 20
103.0421592412
 30
0.0
 40
2.0
 41
0.0
 71
     1
 72
     1
  1
MBM
  7
SLDTEXTSTYLE0
 11
-7.044195017643634E-15
 21
1.0
 31
0.0
 73
     1
 44
1.0
  0
MTEXT
  5
1D9
330
1D0
100
AcDbEntity
  8
VERMASSUNG
100
AcDbMText
 10
257.842443019
 20
109.4421590795
 30
0.0
 40
2.0
 41
0.0
 71
     1
 72
     1
  1
%%c
  7
SLDTEXTSTYLE0
 11
-7.044195017643634E-15
 21
1.0
 31
0.0
 73
     1
 44
1.0
  0
MTEXT
  5
1DA
330
1D0
100
AcDbEntity
  8
VERMASSUNG
100
AcDbMText
 10
257.6424430677
 20
113.0521595595
 30
0.0
 40
2.0
 41
0.0
 71
     1
 72
     1
  1
25
  7
SLDTEXTSTYLE0
 11
-7.044195017643634E-15
 21
1.0
 31
0.0
 73
     1
 44
1.0
  0
ENDBLK
  5
1D2
330
1D0
100
AcDbEntity
  8
0
100
AcDbBlockEnd
  0
ENDSEC
  0
SECTION
  2
ENTITIES
  0
MTEXT
  5
78
330
1F
100
AcDbEntity
  8
KOPF_DÜNN
100
AcDbMText
 10
13.8892156294
 20
23.8442973028
 30
0.0
 40
3.0
 41
0.0
 71
     1
 72
     1
  1
102.512.252
  7
SLDTEXTSTYLE0
 73
     1
 44
1.0
  0
MTEXT
  5
79
330
1F
100
AcDbEntity
  8
VERMASSUNG
100
AcDbMText
 10
13.9329988022
 20
28.8834360957
 30
0.0
 40
3.0
 41
0.0
 71
     1
 72
     1
  1
Aufnahme_Master shank MBM 25
  7
SLDTEXTSTYLE0
 73
     1
 44
1.0
  0
MTEXT
  5
7A
330
1F
100
AcDbEntity
  8
VERMASSUNG
100
AcDbMText
 10
98.8601118557
 20
13.8365368761
 30
0.0
 40
2.0
 41
0.0
 71
     1
 72
     1
  1
Datum: 22.11.2007
  7
SLDTEXTSTYLE0
 73
     1
 44
1.0
  0
MTEXT
  5
7C
330
1F
100
AcDbEntity
  8
VERMASSUNG
100
AcDbMText
 10
13.933048693
 20
18.0482802738
 30
0.0
 40
2.0
 41
0.0
 71
     1
 72
     1
  1
MAS BT 50 / MBM 25
  7
SLDTEXTSTYLE1
 73
     1
 44
1.0
  0
MTEXT
  5
7D
330
1F
100
AcDbEntity
  8
VERMASSUNG
100
AcDbMText
 10
13.9808475933
 20
13.9090974274
 30
0.0
 40
2.0
 41
0.0
 71
     1
 72
     1
  1
Gewicht: 3829g
  7
SLDTEXTSTYLE0
 73
     1
 44
1.0
  0
LINE
  5
7E
330
1F
100
AcDbEntity
  8
0
  6
Continuous
 62
     7
370
    15
100
AcDbLine
 10
193.1759590984
 20
59.4471588847
 30
0.0
 11
196.1762463251
 21
59.4471588847
 31
0.0
  0
LINE
  5
7F
330
1F
100
AcDbEntity
  8
0
  6
Continuous
 62
     7
370
    15
100
AcDbLine
 10
196.1762463251
 20
159.4471588847
 30
0.0
 11
193.1758121442
 21
159.4471588847
 31
0.0
  0
ARC
  5
80
330
1F
100
AcDbEntity
  8
0
  6
Continuous
 62
     7
370
    15
100
AcDbCircle
 10
196.1762463251
 20
60.4471588847
 30
0.0
 40
1.0
100
AcDbArc
 50
270.0
 51
0.0
  0
ARC
  5
81
330
1F
100
AcDbEntity
  8
0
  6
Continuous
 62
     7
370
    15
100
AcDbCircle
 10
196.1762463251
 20
158.4471588847
 30
0.0
 40
1.0
100
AcDbArc
 50
0.0
 51
90.0
  0
ARC
  5
82
330
1F
100
AcDbEntity
  8
0
  6
Continuous
 62
     7
370
    15
100
AcDbCircle
 10
161.1762463251
 20
73.5221588847
 30
0.0
 40
1.000000000000034
100
AcDbArc
 50
38.7233009937
 51
90.0
  0
ARC
  5
83
330
1F
100
AcDbEntity
  8
0
  6
Continuous
 62
     7
370
    15
100
AcDbCircle
 10
161.1762463251
 20
145.3721588847
 30
0.0
 40
1.000000000000007
100
AcDbArc
 50
270.0
 51
321.2830504292
  0
LINE
  5
84
330
1F
100
AcDbEntity
  8
0
  6
Continuous
 62
     7
370
    15
100
AcDbLine
 10
159.1762463251
 20
74.5221588847
 30
0.0
 11
161.1762463251
 21
74.5221588847
 31
0.0
  0
LINE
  5
85
330
1F
100
AcDbEntity
  8
0
  6
Continuous
 62
     7
370
    15
100
AcDbLine
 10
161.1762463251
 20
144.3721588847
 30
0.0
 11
159.1762463251
 21
144.3721588847
 31
0.0
  0
LINE
  5
86
330
1F
100
AcDbEntity
  8
0
  6
Continuous
 62
     7
370
    15
100
AcDbLine
 10
159.1762463251
 20
144.3721588847
 30
0.0
 11
59.087632539
 21
129.7759027076
 31
0.0
  0
LINE
  5
87
330
1F
100
AcDbEntity
  8
0
  6
Continuous
 62
     7
370
    15
100
AcDbLine
 10
59.087632539
 20
89.1184150619
 30
0.0
 11
159.1762463251
 21
74.5221588847
 31
0.0
  0
ARC
  5
88
330
1F
100
AcDbEntity
  8
0
  6
Continuous
 62
     7
370
    15
100
AcDbCircle
 10
59.3762463251
 20
91.097481024
 30
0.0
 40
2.000000000000007
100
AcDbArc
 50
180.0
 51
261.7028550302
  0
ARC
  5
89
330
1F
100
AcDbEntity
  8
0
  6
Continuous
 62
     7
370
    15
100
AcDbCircle
 10
59.3762463251
 20
127.7968367455
 30
0.0
 40
2.000000000000007
100
AcDbArc
 50
98.2971449698
 51
180.0
  0
ARC
  5
8A
330
1F
100
AcDbEntity
  8
0
  6
Continuous
 62
     7
370
    15
100
AcDbCircle
 10
201.1762463251
 20
92.9471588847
 30
0.0
 40
4.000000000000028
100
AcDbArc
 50
90.0
 51
180.0
  0
ARC
  5
8B
330
1F
100
AcDbEntity
  8
0
  6
Continuous
 62
     7
370
    15
100
AcDbCircle
 10
201.1762463251
 20
125.9471588847
 30
0.0
 40
4.000000000000028
100
AcDbArc
 50
180.0
 51
270.0
  0
LINE
  5
8C
330
1F
100
AcDbEntity
  8
0
  6
Continuous
 62
     7
370
    15
100
AcDbLine
 10
251.9762463251
 20
96.9471588847
 30
0.0
 11
252.1762463251
 21
97.1471588847
 31
0.0
  0
LINE
  5
8D
330
1F
100
AcDbEntity
  8
0
  6
Continuous
 62
     7
370
    15
100
AcDbLine
 10
252.1762463251
 20
121.7471588847
 30
0.0
 11
251.9762463251
 21
121.9471588847
 31
0.0
  0
LINE
  5
8E
330
1F
100
AcDbEntity
  8
0
  6
Continuous
 62
     7
370
    15
100
AcDbLine
 10
201.1762463251
 20
96.9471588847
 30
0.0
 11
251.9762463251
 21
96.9471588847
 31
0.0
  0
LINE
  5
8F
330
1F
100
AcDbEntity
  8
0
  6
Continuous
 62
     7
370
    15
100
AcDbLine
 10
251.9762463251
 20
121.9471588847
 30
0.0
 11
201.1762463251
 21
121.9471588847
 31
0.0
  0
LWPOLYLINE
  5
90
330
1F
100
AcDbEntity
  8
0
  6
Continuous
 62
     7
370
    15
100
AcDbPolyline
 90
       20
 70
   128
 43
0.0
 10
180.4304313733
 20
96.3032773176
 10
180.05488096
 20
95.634153725
 10
179.9308865038
 20
94.8866980178
 10
180.0718847279
 20
94.1419086199
 10
180.4625962868
 20
93.480495019
 10
181.0606815208
 20
92.9741316417
 10
181.8013286144
 20
92.677690817
 10
182.6042769627
 20
92.6232965081
 10
183.3825146532
 20
92.8168431822
 10
184.0517075565
 20
93.2373570541
 10
184.5393382379
 20
93.8392689208
 10
184.7925643467
 20
94.5573522919
 10
184.7839449048
 20
95.3137916919
 10
184.5144139626
 20
96.0266151745
 10
184.0131793797
 20
96.6185772548
 10
183.3345577007
 20
97.0255296561
 10
182.5520881145
 20
97.2033727712
 10
181.7505633419
 20
97.1328345391
 10
181.016841029
 20
96.8215588717
 10
180.4304313733
 20
96.3032773176
  0
LINE
  5
91
330
1F
100
AcDbEntity
  8
0
  6
Continuous
 62
     7
370
    15
100
AcDbLine
 10
182.1567258412
 20
93.2968324492
 30
0.0
 11
183.7543900007
 21
93.9254223605
 31
0.0
  0
LINE
  5
92
330
1F
100
AcDbEntity
  8
0
  6
Continuous
 62
     7
370
    15
100
AcDbLine
 10
183.9739104846
 20
95.5398927047
 30
0.0
 11
183.7543900007
 21
93.9254223605
 31
0.0
  0
LINE
  5
93
330
1F
100
AcDbEntity
  8
0
  6
Continuous
 62
     7
370
    15
100
AcDbLine
 10
182.595766809
 20
96.5257731376
 30
0.0
 11
183.9739104846
 21
95.5398927047
 31
0.0
  0
LINE
  5
94
330
1F
100
AcDbEntity
  8
0
  6
Continuous
 62
     7
370
    15
100
AcDbLine
 10
182.595766809
 20
96.5257731376
 30
0.0
 11
180.9981026495
 21
95.8971832263
 31
0.0
  0
LINE
  5
95
330
1F
100
AcDbEntity
  8
0
  6
Continuous
 62
     7
370
    15
100
AcDbLine
 10
180.7785821656
 20
94.2827128821
 30
0.0
 11
180.9981026495
 21
95.8971832263
 31
0.0
  0
LINE
  5
96
330
1F
100
AcDbEntity
  8
0
  6
Continuous
 62
     7
370
    15
100
AcDbLine
 10
180.7785821656
 20
94.2827128821
 30
0.0
 11
182.1567258412
 21
93.2968324492
 31
0.0
  0
LINE
  5
97
330
1F
100
AcDbEntity
  8
0
  6
Continuous
 62
     7
370
    15
100
AcDbLine
 10
183.7543900007
 20
94.6094626471
 30
0.0
 11
183.7543900007
 21
93.9254223605
 31
0.0
  0
LINE
  5
98
330
1F
100
AcDbEntity
  8
0
  6
Continuous
 62
     7
370
    15
100
AcDbLine
 10
183.8891460782
 20
95.6005304823
 30
0.0
 11
183.7543900007
 21
94.6094626471
 31
0.0
  0
LINE
  5
99
330
1F
100
AcDbEntity
  8
0
  6
Continuous
 62
     7
370
    15
100
AcDbLine
 10
182.1567258412
 20
93.9808727358
 30
0.0
 11
182.1567258412
 21
93.2968324492
 31
0.0
  0
LINE
  5
9A
330
1F
100
AcDbEntity
  8
0
  6
Continuous
 62
     7
370
    15
100
AcDbLine
 10
182.1567258412
 20
93.9808727358
 30
0.0
 11
183.7543900007
 21
94.6094626471
 31
0.0
  0
LINE
  5
9B
330
1F
100
AcDbEntity
  8
0
  6
Continuous
 62
     7
370
    15
100
AcDbLine
 10
180.8633465721
 20
94.9061153911
 30
0.0
 11
182.1567258412
 21
93.9808727358
 31
0.0
  0
SPLINE
  5
9C
330
1F
100
AcDbEntity
  8
0
  6
Continuous
 62
     7
370
    15
100
AcDbSpline
210
0.0
220
0.0
230
1.0
 70
     8
 71
     3
 72
    12
 73
     8
 74
     0
 42
0.000000001
 43
0.00000001
 40
0.0
 40
0.0
 40
0.0
 40
0.0
 40
0.4999999999999989
 40
0.4999999999999989
 40
0.7499999999999994
 40
0.7499999999999994
 40
1.0
 40
1.0
 40
1.0
 40
1.0
 10
189.2605259899568
 20
157.6532058364299
 30
0.0
 10
188.7216292948592
 20
156.5955060189288
 30
0.0
 10
188.1592984841396
 20
155.4931375839702
 30
0.0
 10
187.2906322415492
 20
153.7931729776074
 30
0.0
 10
186.9963035192066
 20
153.2176545621688
 30
0.0
 10
186.4027725202388
 20
152.0582258937103
 30
0.0
 10
186.1035462621204
 20
151.474266224629
 30
0.0
 10
185.802059413867
 20
150.8865562640402
 30
0.0
  0
SPLINE
  5
9D
330
1F
100
AcDbEntity
  8
0
  6
Continuous
 62
     7
370
    15
100
AcDbSpline
210
0.0
220
0.0
230
1.0
 70
     8
 71
     3
 72
     9
 73
     5
 74
     0
 42
0.000000001
 43
0.00000001
 40
0.0
 40
0.0
 40
0.0
 40
0.0
 40
0.5047943286072262
 40
0.9999999999999999
 40
0.9999999999999999
 40
0.9999999999999999
 40
0.9999999999999999
 10
189.9012227305255
 20
158.6072641348163
 30
0.0
 10
189.7928402964062
 20
158.4464225740931
 30
0.0
 10
189.5781341716003
 20
158.1277946664322
 30
0.0
 10
189.3657067427889
 20
157.8104204398471
 30
0.0
 10
189.260511475282
 20
157.6532549228883
 30
0.0
  0
LINE
  5
9E
330
1F
100
AcDbEntity
  8
0
  6
Continuous
 62
     7
370
    15
100
AcDbLine
 10
189.9012463251
 20
60.2869975994
 30
0.0
 11
189.9012463251
 21
158.60732017
 31
0.0
  0
SPLINE
  5
9F
330
1F
100
AcDbEntity
  8
0
  6
Continuous
 62
     7
370
    15
100
AcDbSpline
210
0.0
220
0.0
230
1.0
 70
     8
 71
     3
 72
     9
 73
     5
 74
     0
 42
0.000000001
 43
0.00000001
 40
0.0
 40
0.0
 40
0.0
 40
0.0
 40
0.4952056702149742
 40
1.0
 40
1.0
 40
1.0
 40
1.0
 10
189.260511475282
 20
61.24106284656946
 30
0.0
 10
189.365706742536
 20
61.08389732998974
 30
0.0
 10
189.578134171342
 20
60.76652310341537
 30
0.0
 10
189.7928402961515
 20
60.44789519574482
 30
0.0
 10
189.9012227305255
 20
60.28705363464145
 30
0.0
  0
SPLINE
  5
A0
330
1F
100
AcDbEntity
  8
0
  6
Continuous
 62
     7
370
    15
100
AcDbSpline
210
0.0
220
0.0
230
1.0
 70
     8
 71
     3
 72
    12
 73
     8
 74
     0
 42
0.000000001
 43
0.00000001
 40
0.0
 40
0.0
 40
0.0
 40
0.0
 40
0.2499999999999994
 40
0.2499999999999994
 40
0.4999999999999989
 40
0.4999999999999989
 40
1.0
 40
1.0
 40
1.0
 40
1.0
 10
189.2605259577179
 20
61.24111199630367
 30
0.0
 10
188.991188436349
 20
61.76974438498831
 30
0.0
 10
188.715418318955
 20
62.310669038935
 30
0.0
 10
188.1531580323492
 20
63.41272579329804
 30
0.0
 10
187.8660726589445
 20
63.97502263253487
 30
0.0
 10
186.9956462182252
 20
65.67841786785486
 30
0.0
 10
186.4036362220559
 20
66.83506463893696
 30
0.0
 10
185.802059413867
 20
68.00776150541759
 30
0.0
  0
SPLINE
  5
A1
330
1F
100
AcDbEntity
  8
0
  6
Continuous
 62
     7
370
    15
100
AcDbSpline
210
0.0
220
0.0
230
1.0
 70
     8
 71
     3
 72
    12
 73
     8
 74
     0
 42
0.000000001
 43
0.00000001
 40
0.0
 40
0.0
 40
0.0
 40
0.0
 40
0.0005125153354919
 40
0.2509311781671963
 40
0.5009716914396684
 40
0.7506335204404448
 40
1.0
 40
1.0
 40
1.0
 40
1.0
 10
193.1758121441833
 20
159.4470338425452
 30
0.0
 10
193.1759566008701
 20
159.4470755158626
 30
0.0
 10
193.2466836291607
 20
159.4674790704518
 30
0.0
 10
193.0034200688731
 20
159.395867439062
 30
0.0
 10
192.3978954546689
 20
159.2275142305878
 30
0.0
 10
191.3727317702507
 20
158.9501806401352
 30
0.0
 10
190.3915479030301
 20
158.7215618908113
 30
0.0
 10
189.9012463258004
 20
158.6073201700467
 30
0.0
  0
SPLINE
  5
A2
330
1F
100
AcDbEntity
  8
0
  6
Continuous
 62
     7
370
    15
100
AcDbSpline
210
0.0
220
0.0
230
1.0
 70
     8
 71
     3
 72
    13
 73
     9
 74
     0
 42
0.000000001
 43
0.00000001
 40
0.0
 40
0.0
 40
0.0
 40
0.0
 40
0.2492492380426685
 40
0.4988437701385914
 40
0.6658825660853345
 40
0.8320256711227929
 40
0.9994886337290246
 40
0.9999999999999999
 40
0.9999999999999999
 40
0.9999999999999999
 40
0.9999999999999999
 10
189.9012463258004
 20
60.28699759941107
 30
0.0
 10
190.39243104922
 20
60.17251007572074
 30
0.0
 10
191.3754809521576
 20
59.94337642460108
 30
0.0
 10
192.2745243769703
 20
59.70016667345154
 30
0.0
 10
192.8328492776561
 20
59.54622946606591
 30
0.0
 10
193.0985205023655
 20
59.46997590721702
 30
0.0
 10
193.20741474838
 20
59.43806172289054
 30
0.0
 10
193.1760545685623
 20
59.44721463683614
 30
0.0
 10
193.1759590983895
 20
59.44724250116222
 30
0.0
  0
LINE
  5
A3
330
1F
100
AcDbEntity
  8
0
  6
Continuous
 62
     7
370
    15
100
AcDbLine
 10
162.1762463251
 20
62.4452706248
 30
0.0
 11
162.1762463251
 21
156.4490471447
 31
0.0
  0
SPLINE
  5
A4
330
1F
100
AcDbEntity
  8
0
  6
Continuous
 62
     7
370
    15
100
AcDbSpline
210
0.0
220
0.0
230
1.0
 70
     8
 71
     3
 72
    12
 73
     8
 74
     0
 42
0.000000001
 43
0.00000001
 40
0.0
 40
0.0
 40
0.0
 40
0.0
 40
0.2500000000000004
 40
0.2500000000000004
 40
0.5000000000000009
 40
0.5000000000000009
 40
1.0
 40
1.0
 40
1.0
 40
1.0
 10
162.5623827451631
 20
157.3815926186001
 30
0.0
 10
162.5107526230533
 20
157.3253883478855
 30
0.0
 10
162.4622203900629
 20
157.2640989373651
 30
0.0
 10
162.372395253105
 20
157.1296368633204
 30
0.0
 10
162.3306849798926
 20
157.0555177930775
 30
0.0
 10
162.2245535997305
 20
156.8192101479091
 30
0.0
 10
162.1762463251133
 20
156.6373866052592
 30
0.0
 10
162.1762463251133
 20
156.4490471446701
 30
0.0
  0
SPLINE
  5
A5
330
1F
100
AcDbEntity
  8
0
  6
Continuous
 62
     7
370
    15
100
AcDbSpline
210
0.0
220
0.0
230
1.0
 70
     8
 71
     3
 72
     8
 73
     4
 74
     0
 42
0.000000001
 43
0.00000001
 40
0.0
 40
0.0
 40
0.0
 40
0.0
 40
1.0
 40
1.0
 40
1.0
 40
1.0
 10
163.1762463251133
 20
157.5522503801932
 30
0.0
 10
162.9493520814136
 20
157.5522503801932
 30
0.0
 10
162.7315024354872
 20
157.4882382132244
 30
0.0
 10
162.5623827451631
 20
157.3815926186001
 30
0.0
  0
SPLINE
  5
A6
330
1F
100
AcDbEntity
  8
0
  6
Continuous
 62
     7
370
    15
100
AcDbSpline
210
0.0
220
0.0
230
1.0
 70
     8
 71
     3
 72
    10
 73
     6
 74
     0
 42
0.000000001
 43
0.00000001
 40
0.0
 40
0.0
 40
0.0
 40
0.0
 40
0.5
 40
0.5
 40
1.0
 40
1.0
 40
1.0
 40
1.0
 10
162.5623827451631
 20
61.51272515085762
 30
0.0
 10
162.6469933858938
 20
61.45937032224493
 30
0.0
 10
162.7422280080004
 20
61.41680086029474
 30
0.0
 10
162.9522653671803
 20
61.35751852561378
 30
0.0
 10
163.0626972719644
 20
61.3420673892645
 30
0.0
 10
163.1762463251133
 20
61.3420673892645
 30
0.0
  0
SPLINE
  5
A7
330
1F
100
AcDbEntity
  8
0
  6
Continuous
 62
     7
370
    15
100
AcDbSpline
210
0.0
220
0.0
230
1.0
 70
     8
 71
     3
 72
    12
 73
     8
 74
     0
 42
0.000000001
 43
0.00000001
 40
0.0
 40
0.0
 40
0.0
 40
0.0
 40
0.25
 40
0.25
 40
0.5
 40
0.5
 40
1.0
 40
1.0
 40
1.0
 40
1.0
 10
162.5623827451631
 20
61.51272515085762
 30
0.0
 10
162.5107526230533
 20
61.56892942157226
 30
0.0
 10
162.4622203900629
 20
61.63021883209264
 30
0.0
 10
162.372395253105
 20
61.76468090613737
 30
0.0
 10
162.3306849798926
 20
61.83879997638021
 30
0.0
 10
162.2245535997305
 20
62.07510762154865
 30
0.0
 10
162.1762463251133
 20
62.25693116419853
 30
0.0
 10
162.1762463251133
 20
62.44527062478765
 30
0.0
  0
SPLINE
  5
A8
330
1F
100
AcDbEntity
  8
0
  6
Continuous
 62
     7
370
    15
100
AcDbSpline
210
0.0
220
0.0
230
1.0
 70
     8
 71
     3
 72
     8
 73
     4
 74
     0
 42
0.000000001
 43
0.00000001
 40
0.0
 40
0.0
 40
0.0
 40
0.0
 40
0.0012417047560385
 40
0.0012417047560385
 40
0.0012417047560385
 40
0.0012417047560385
 10
175.4088153616411
 20
156.7677290386499
 30
0.0
 10
175.2234268103466
 20
157.0294021241984
 30
0.0
 10
175.0375605647387
 20
157.290906233076
 30
0.0
 10
174.8512463251134
 20
157.5522503801932
 30
0.0
  0
SPLINE
  5
A9
330
1F
100
AcDbEntity
  8
0
  6
Continuous
 62
     7
370
    15
100
AcDbSpline
210
0.0
220
0.0
230
1.0
 70
     8
 71
     3
 72
     8
 73
     4
 74
     0
 42
0.000000001
 43
0.00000001
 40
0.0
 40
0.0
 40
0.0
 40
0.0
 40
1.0
 40
1.0
 40
1.0
 40
1.0
 10
178.9504332363597
 20
150.3774349649119
 30
0.0
 10
177.7754457604568
 20
152.5105117198478
 30
0.0
 10
176.5941992263604
 20
154.6402302857239
 30
0.0
 10
175.4088153616411
 20
156.7677290386499
 30
0.0
  0
SPLINE
  5
AA
330
1F
100
AcDbEntity
  8
0
  6
Continuous
 62
     7
370
    15
100
AcDbSpline
210
0.0
220
0.0
230
1.0
 70
     8
 71
     3
 72
     8
 73
     4
 74
     0
 42
0.000000001
 43
0.00000001
 40
0.0
 40
0.0
 40
0.0
 40
0.0
 40
1.0
 40
1.0
 40
1.0
 40
1.0
 10
178.9504332363597
 20
68.51688280454587
 30
0.0
 10
177.7753964385327
 20
66.38371651040053
 30
0.0
 10
176.5941492310937
 20
64.25399775341887
 30
0.0
 10
175.4088153616411
 20
62.12658873080792
 30
0.0
  0
SPLINE
  5
AB
330
1F
100
AcDbEntity
  8
0
  6
Continuous
 62
     7
370
    15
100
AcDbSpline
210
0.0
220
0.0
230
1.0
 70
     8
 71
     3
 72
     8
 73
     4
 74
     0
 42
0.000000001
 43
0.00000001
 40
0.0
 40
0.0
 40
0.0
 40
0.0
 40
0.0012417047560385
 40
0.0012417047560385
 40
0.0012417047560385
 40
0.0012417047560385
 10
174.8512463251134
 20
61.34206738926451
 30
0.0
 10
175.0375605647387
 20
61.60341153638176
 30
0.0
 10
175.2234268103466
 20
61.86491564525935
 30
0.0
 10
175.4088153616411
 20
62.12658873080792
 30
0.0
  0
LINE
  5
AC
330
1F
100
AcDbEntity
  8
0
  6
Continuous
 62
     7
370
    15
100
AcDbLine
 10
174.8512463251
 20
61.3420673893
 30
0.0
 11
174.8512463251
 21
157.5522503802
 31
0.0
  0
LINE
  5
AD
330
1F
100
AcDbEntity
  8
0
  6
Continuous
 62
     7
370
    15
100
AcDbLine
 10
197.1762463251
 20
60.4471588847
 30
0.0
 11
197.1762463251
 21
158.4471588819
 31
0.0
  0
LINE
  5
AE
330
1F
100
AcDbEntity
  8
0
  6
Continuous
 62
     7
370
    15
100
AcDbLine
 10
174.8512463251
 20
157.5522503802
 30
0.0
 11
163.1762463251
 21
157.5522503802
 31
0.0
  0
LINE
  5
AF
330
1F
100
AcDbEntity
  8
0
  6
Continuous
 62
     7
370
    15
100
AcDbLine
 10
163.1762463251
 20
61.3420673893
 30
0.0
 11
174.8512463251
 21
61.3420673893
 31
0.0
  0
SPLINE
  5
B0
330
1F
100
AcDbEntity
  8
0
  6
Continuous
 62
     7
370
    15
100
AcDbSpline
210
0.0
220
0.0
230
1.0
 70
     8
 71
     3
 72
    12
 73
     8
 74
     0
 42
0.000000001
 43
0.00000001
 40
0.0
 40
0.0
 40
0.0
 40
0.0
 40
0.2499999999999951
 40
0.2499999999999951
 40
0.4999999999999902
 40
0.4999999999999902
 40
1.0
 40
1.0
 40
1.0
 40
1.0
 10
185.8020594138671
 20
150.8865562640402
 30
0.0
 10
185.7658389924801
 20
150.8159491959404
 30
0.0
 10
185.7229133178323
 20
150.7522146046147
 30
0.0
 10
185.6253867345733
 20
150.6364404283662
 30
0.0
 10
185.5699552149565
 20
150.5838925843547
 30
0.0
 10
185.3914673120524
 20
150.4497439811404
 30
0.0
 10
185.2546304834046
 20
150.3892218790765
 30
0.0
 10
185.1092390908402
 20
150.3686752951481
 30
0.0
  0
SPLINE
  5
B1
330
1F
100
AcDbEntity
  8
0
  6
Continuous
 62
     7
370
    15
100
AcDbSpline
210
0.0
220
0.0
230
1.0
 70
     8
 71
     3
 72
    12
 73
     8
 74
     0
 42
0.000000001
 43
0.00000001
 40
0.0
 40
0.0
 40
0.0
 40
0.0
 40
0.2499999999999957
 40
0.2499999999999957
 40
0.4999999999999913
 40
0.4999999999999913
 40
1.0
 40
1.0
 40
1.0
 40
1.0
 10
185.802059413867
 20
68.00776150541756
 30
0.0
 10
185.76583899248
 20
68.0783685735175
 30
0.0
 10
185.7229133178322
 20
68.14210316484323
 30
0.0
 10
185.6253867345732
 20
68.25787734109164
 30
0.0
 10
185.5699552149565
 20
68.31042518510307
 30
0.0
 10
185.3914673120523
 20
68.44457378831744
 30
0.0
 10
185.2546304834046
 20
68.50509589038123
 30
0.0
 10
185.1092390908402
 20
68.52564247430965
 30
0.0
  0
SPLINE
  5
B2
330
1F
100
AcDbEntity
  8
0
  6
Continuous
 62
     7
370
    15
100
AcDbSpline
210
0.0
220
0.0
230
1.0
 70
     8
 71
     3
 72
    10
 73
     6
 74
     0
 42
0.000000001
 43
0.00000001
 40
0.0
 40
0.0
 40
0.0
 40
0.0
 40
0.5
 40
0.5
 40
1.0
 40
1.0
 40
1.0
 40
1.0
 10
179.3262463251133
 20
68.86762767057971
 30
0.0
 10
179.2472462568621
 20
68.83186343597183
 30
0.0
 10
179.1734890065855
 20
68.78237383241238
 30
0.0
 10
179.0454338834523
 20
68.66208534090941
 30
0.0
 10
178.9925838490406
 20
68.59340318792007
 30
0.0
 10
178.9504332363597
 20
68.51688280454587
 30
0.0
  0
SPLINE
  5
B3
330
1F
100
AcDbEntity
  8
0
  6
Continuous
 62
     7
370
    15
100
AcDbSpline
210
0.0
220
0.0
230
1.0
 70
     8
 71
     3
 72
    10
 73
     6
 74
     0
 42
0.000000001
 43
0.00000001
 40
0.0
 40
0.0
 40
0.0
 40
0.0
 40
0.5
 40
0.5
 40
1.0
 40
1.0
 40
1.0
 40
1.0
 10
179.3262463251133
 20
150.026690098878
 30
0.0
 10
179.2469598774306
 20
150.0625839807305
 30
0.0
 10
179.17344765831
 20
150.1120856905815
 30
0.0
 10
179.0464952054394
 20
150.2311333872501
 30
0.0
 10
178.9924293567027
 20
150.3011950475184
 30
0.0
 10
178.9504332363597
 20
150.3774349649119
 30
0.0
  0
SPLINE
  5
B4
330
1F
100
AcDbEntity
  8
0
  6
Continuous
 62
     7
370
    15
100
AcDbSpline
210
0.0
220
0.0
230
1.0
 70
     8
 71
     3
 72
     8
 73
     4
 74
     0
 42
0.000000001
 43
0.00000001
 40
0.0
 40
0.0
 40
0.0
 40
0.0
 40
1.0
 40
1.0
 40
1.0
 40
1.0
 10
179.6432535593872
 20
149.9592310803915
 30
0.0
 10
179.5335517740856
 20
149.9583726631922
 30
0.0
 10
179.426204753101
 20
149.981437775067
 30
0.0
 10
179.3262463251133
 20
150.0266900988779
 30
0.0
  0
SPLINE
  5
B5
330
1F
100
AcDbEntity
  8
0
  6
Continuous
 62
     7
370
    15
100
AcDbSpline
210
0.0
220
0.0
230
1.0
 70
     8
 71
     3
 72
     8
 73
     4
 74
     0
 42
0.000000001
 43
0.00000001
 40
0.0
 40
0.0
 40
0.0
 40
0.0
 40
1.0
 40
1.0
 40
1.0
 40
1.0
 10
179.6432535593872
 20
68.93508668906622
 30
0.0
 10
179.5335517740856
 20
68.93594510626556
 30
0.0
 10
179.426204753101
 20
68.91287999439078
 30
0.0
 10
179.3262463251132
 20
68.86762767057985
 30
0.0
  0
SPLINE
  5
B6
330
1F
100
AcDbEntity
  8
0
  6
Continuous
 62
     7
370
    15
100
AcDbSpline
210
0.0
220
0.0
230
1.0
 70
    11
 71
     3
 72
    66
 73
    62
 74
     0
 42
0.000000001
 43
0.00000001
 40
0.0
 40
0.0
 40
0.0
 40
0.0
 40
0.0312500000000001
 40
0.0312500000000001
 40
0.0625000000000002
 40
0.0625000000000002
 40
0.0937500000000002
 40
0.0937500000000002
 40
0.1250000000000003
 40
0.1250000000000003
 40
0.1562500000000004
 40
0.1562500000000004
 40
0.1875000000000005
 40
0.1875000000000005
 40
0.2187500000000006
 40
0.2187500000000006
 40
0.2500000000000007
 40
0.2500000000000007
 40
0.2812500000000008
 40
0.2812500000000008
 40
0.3125000000000008
 40
0.3125000000000008
 40
0.3437500000000009
 40
0.3437500000000009
 40
0.375000000000001
 40
0.375000000000001
 40
0.4062500000000011
 40
0.4062500000000011
 40
0.4375000000000012
 40
0.4375000000000012
 40
0.4687500000000012
 40
0.4687500000000012
 40
0.5000000000000013
 40
0.5000000000000013
 40
0.5312500000000014
 40
0.5312500000000014
 40
0.5625000000000016
 40
0.5625000000000016
 40
0.6250000000000017
 40
0.6250000000000017
 40
0.6562500000000016
 40
0.6562500000000016
 40
0.6875000000000013
 40
0.6875000000000013
 40
0.7187500000000012
 40
0.7187500000000012
 40
0.7500000000000011
 40
0.7500000000000011
 40
0.781250000000001
 40
0.781250000000001
 40
0.8125000000000008
 40
0.8125000000000008
 40
0.8437500000000007
 40
0.8437500000000007
 40
0.8750000000000006
 40
0.8750000000000006
 40
0.9062500000000004
 40
0.9062500000000004
 40
0.9375000000000002
 40
0.9375000000000002
 40
1.0
 40
1.0
 40
1.0
 40
1.0
 10
182.3762463251134
 20
92.58724157388556
 30
0.0
 10
182.5414466157773
 20
92.58724157388556
 30
0.0
 10
182.7038791570738
 20
92.60214760324337
 30
0.0
 10
183.0234373126638
 20
92.66058278198582
 30
0.0
 10
183.1822206506409
 20
92.70482383436155
 30
0.0
 10
183.4849586671202
 20
92.82041537978404
 30
0.0
 10
183.6285378322546
 20
92.89119135000273
 30
0.0
 10
183.9002675621225
 20
93.05862988191534
 30
0.0
 10
184.0288961256603
 20
93.156169154236
 30
0.0
 10
184.2594618873275
 20
93.36958751443743
 30
0.0
 10
184.3629358885769
 20
93.48620216646356
 30
0.0
 10
184.5456964265026
 20
93.73992753048327
 30
0.0
 10
184.6233406827312
 20
93.87522038955203
 30
0.0
 10
184.7480333334213
 20
94.15556674494361
 30
0.0
 10
184.7960373139998
 20
94.30268762077966
 30
0.0
 10
184.860269056318
 20
94.60467772515696
 30
0.0
 10
184.8761585003602
 20
94.75680149272618
 30
0.0
 10
184.8763334307154
 20
95.06328413555241
 30
0.0
 10
184.8601027793805
 20
95.21927005661809
 30
0.0
 10
184.7963215566709
 20
95.52184952558741
 30
0.0
 10
184.7491294452746
 20
95.66922803697962
 30
0.0
 10
184.6239628276167
 20
95.95601674235732
 30
0.0
 10
184.5457033402417
 20
96.09497384389523
 30
0.0
 10
184.3647831568863
 20
96.35256750416322
 30
0.0
 10
184.2614979279624
 20
96.47286004786423
 30
0.0
 10
184.0282461859137
 20
96.6955808655109
 30
0.0
 10
183.9018323176481
 20
96.79455876950277
 30
0.0
 10
183.6311600469535
 20
96.96777562411192
 30
0.0
 10
183.4850782747892
 20
97.04275666158865
 30
0.0
 10
183.1821938293164
 20
97.16308483168444
 30
0.0
 10
183.0263634696766
 20
97.20846851917364
 30
0.0
 10
182.7060179804112
 20
97.26989477959464
 30
0.0
 10
182.5403078944396
 20
97.28564840111439
 30
0.0
 10
182.2139765057431
 20
97.28576064636984
 30
0.0
 10
182.0517894199161
 20
97.27062841646384
 30
0.0
 10
181.7294138387076
 20
97.20937630328338
 30
0.0
 10
181.57139836467
 20
97.16336955990813
 30
0.0
 10
181.1199874895945
 20
96.98448883066618
 30
0.0
 10
180.8409080325423
 20
96.80633672336727
 30
0.0
 10
180.4948343280439
 20
96.47684030708022
 30
0.0
 10
180.3891923121293
 20
96.35446746724018
 30
0.0
 10
180.2074088361585
 20
96.09606476312561
 30
0.0
 10
180.1305210127746
 20
95.95983319757732
 30
0.0
 10
180.0048664554042
 20
95.6733977356912
 30
0.0
 10
179.9565583794895
 20
95.5230906511157
 30
0.0
 10
179.8927404940492
 20
95.22152272103118
 30
0.0
 10
179.8764123170064
 20
95.06865665856665
 30
0.0
 10
179.8760828269466
 20
94.7586415418232
 30
0.0
 10
179.8921793387813
 20
94.60577254147056
 30
0.0
 10
179.9554080760425
 20
94.30673977569568
 30
0.0
 10
180.0032446694531
 20
94.15867417927282
 30
0.0
 10
180.1285879873665
 20
93.87611714112731
 30
0.0
 10
180.2052846618917
 20
93.7425008090036
 30
0.0
 10
180.3863360285434
 20
93.49021093907143
 30
0.0
 10
180.4918116389044
 20
93.37086763000357
 30
0.0
 10
180.7223382075806
 20
93.15718385051876
 30
0.0
 10
180.8480576452109
 20
93.06152387585898
 30
0.0
 10
181.1208244944077
 20
92.89280280685516
 30
0.0
 10
181.2665438708138
 20
92.82093559820193
 30
0.0
 10
181.7176129759218
 20
92.64828452093347
 30
0.0
 10
182.0458457437856
 20
92.58724157388556
 30
0.0
 10
182.3762463251134
 20
92.58724157388558
 30
0.0
  0
SPLINE
  5
B7
330
1F
100
AcDbEntity
  8
0
  6
Continuous
 62
     7
370
    15
100
AcDbSpline
210
0.0
220
0.0
230
1.0
 70
     8
 71
     3
 72
    10
 73
     6
 74
     0
 42
0.000000001
 43
0.00000001
 40
0.0
 40
0.0
 40
0.0
 40
0.0
 40
0.5
 40
0.5
 40
1.0
 40
1.0
 40
1.0
 40
1.0
 10
185.1092390908395
 20
150.3686752951509
 30
0.0
 10
184.2616747240712
 20
150.2488982430899
 30
0.0
 10
183.3809612883493
 20
150.150208063426
 30
0.0
 10
181.5534050371337
 20
150.0089356571889
 30
0.0
 10
180.5999726340325
 20
149.9667174135113
 30
0.0
 10
179.6432535593872
 20
149.9592310803915
 30
0.0
  0
SPLINE
  5
B8
330
1F
100
AcDbEntity
  8
0
  6
Continuous
 62
     7
370
    15
100
AcDbSpline
210
0.0
220
0.0
230
1.0
 70
     8
 71
     3
 72
    10
 73
     6
 74
     0
 42
0.000000001
 43
0.00000001
 40
0.0
 40
0.0
 40
0.0
 40
0.0
 40
0.5
 40
0.5
 40
1.0
 40
1.0
 40
1.0
 40
1.0
 10
185.1092390908395
 20
68.52564247430682
 30
0.0
 10
184.2616747240712
 20
68.64541952636787
 30
0.0
 10
183.3809612883493
 20
68.74410970603171
 30
0.0
 10
181.5534050371337
 20
68.88538211226883
 30
0.0
 10
180.5999726340325
 20
68.92760035594642
 30
0.0
 10
179.6432535593872
 20
68.93508668906622
 30
0.0
  0
LINE
  5
B9
330
1F
100
AcDbEntity
  8
0
  6
Continuous
 62
     7
370
    15
100
AcDbLine
 10
159.1762463251
 20
74.5221588847
 30
0.0
 11
159.1762463251
 21
144.3721588847
 31
0.0
  0
LINE
  5
BA
330
1F
100
AcDbEntity
  8
0
  6
Continuous
 62
     7
370
    15
100
AcDbLine
 10
57.3762463251
 20
91.097481024
 30
0.0
 11
57.3762463251
 21
127.7968367455
 31
0.0
  0
SPLINE
  5
BB
330
1F
100
AcDbEntity
  8
0
  6
Continuous
 62
     7
370
    15
100
AcDbSpline
210
0.0
220
0.0
230
1.0
 70
     8
 71
     3
 72
    38
 73
    34
 74
     0
 42
0.000000001
 43
0.00000001
 40
0.0
 40
0.0
 40
0.0
 40
0.0
 40
0.0625
 40
0.0625
 40
0.125
 40
0.125
 40
0.1874999999999999
 40
0.1874999999999999
 40
0.25
 40
0.25
 40
0.3125000000000001
 40
0.3125000000000001
 40
0.3750000000000001
 40
0.3750000000000001
 40
0.4375000000000001
 40
0.4375000000000001
 40
0.5000000000000001
 40
0.5000000000000001
 40
0.5625000000000001
 40
0.5625000000000001
 40
0.6250000000000001
 40
0.6250000000000001
 40
0.6875000000000001
 40
0.6875000000000001
 40
0.75
 40
0.75
 40
0.8125
 40
0.8125
 40
0.875
 40
0.875
 40
0.9375
 40
0.9375
 40
1.0
 40
1.0
 40
1.0
 40
1.0
 10
248.6762463251134
 20
109.4471588847289
 30
0.0
 10
248.6762463251133
 20
109.2162096941029
 30
0.0
 10
248.6482931716534
 20
108.9842951787703
 30
0.0
 10
248.5376935098938
 20
108.5313726511285
 30
0.0
 10
248.4567841690467
 20
108.3152243881443
 30
0.0
 10
248.2474793669898
 20
107.9018814109495
 30
0.0
 10
248.119380592755
 20
107.706592010625
 30
0.0
 10
247.8292144932282
 20
107.3497561207713
 30
0.0
 10
247.6642515280809
 20
107.1846802294974
 30
0.0
 10
247.308691698696
 20
106.8910188385487
 30
0.0
 10
247.1185809035743
 20
106.762134594873
 30
0.0
 10
246.7148311744169
 20
106.5379831830595
 30
0.0
 10
246.5010742471912
 20
106.443222184157
 30
0.0
 10
246.0655224736403
 20
106.2929860107119
 30
0.0
 10
245.8418772356681
 20
106.2363925282497
 30
0.0
 10
245.3826917128313
 20
106.1603468217593
 30
0.0
 10
245.1499185168625
 20
106.1416511995082
 30
0.0
 10
244.6885193847855
 20
106.1424211372285
 30
0.0
 10
244.458301134089
 20
106.1616012113686
 30
0.0
 10
243.9988610711035
 20
106.2390230057113
 30
0.0
 10
243.773709654902
 20
106.2967960913703
 30
0.0
 10
243.3398493829292
 20
106.4480216060147
 30
0.0
 10
243.1298937624197
 20
106.5416490190435
 30
0.0
 10
242.7248220062017
 20
106.7678550389851
 30
0.0
 10
242.5342989982222
 20
106.8980944372049
 30
0.0
 10
242.1828276372203
 20
107.1899569175348
 30
0.0
 10
242.0209178762991
 20
107.3520388272919
 30
0.0
 10
241.7282351427373
 20
107.7132248497458
 30
0.0
 10
241.6027663698762
 20
107.9059962588088
 30
0.0
 10
241.3961529619695
 20
108.3146718750751
 30
0.0
 10
241.3140273439566
 20
108.5338057405034
 30
0.0
 10
241.2039307564632
 20
108.9861300695007
 30
0.0
 10
241.1762463251133
 20
109.2151795582955
 30
0.0
 10
241.1762463251133
 20
109.4471588847289
 30
0.0
  0
SPLINE
  5
BC
330
1F
100
AcDbEntity
  8
0
  6
Continuous
 62
     7
370
    15
100
AcDbSpline
210
0.0
220
0.0
230
1.0
 70
     8
 71
     3
 72
    34
 73
    30
 74
     0
 42
0.000000001
 43
0.00000001
 40
0.0
 40
0.0
 40
0.0
 40
0.0
 40
0.0624999999999993
 40
0.0624999999999993
 40
0.1249999999999985
 40
0.1249999999999985
 40
0.2499999999999987
 40
0.2499999999999987
 40
0.3749999999999988
 40
0.3749999999999988
 40
0.4374999999999989
 40
0.4374999999999989
 40
0.499999999999999
 40
0.499999999999999
 40
0.5624999999999991
 40
0.5624999999999991
 40
0.6249999999999992
 40
0.6249999999999992
 40
0.6874999999999994
 40
0.6874999999999994
 40
0.7499999999999996
 40
0.7499999999999996
 40
0.8124999999999997
 40
0.8124999999999997
 40
0.8749999999999998
 40
0.8749999999999998
 40
0.9375
 40
0.9375
 40
1.0
 40
1.0
 40
1.0
 40
1.0
 10
241.1762463251133
 20
109.4471588847289
 30
0.0
 10
241.1762463251133
 20
109.6792119514122
 30
0.0
 10
241.2050489555933
 20
109.9144063160767
 30
0.0
 10
241.3152578605153
 20
110.3639078330158
 30
0.0
 10
241.3978178280832
 20
110.5841930987541
 30
0.0
 10
241.7132651464264
 20
111.2043127695832
 30
0.0
 10
242.0137149630964
 20
111.5669073846106
 30
0.0
 10
242.7316256737869
 20
112.1569860857795
 30
0.0
 10
243.1346310052759
 20
112.3770485681497
 30
0.0
 10
243.7950754178387
 20
112.603755291381
 30
0.0
 10
244.0188908827691
 20
112.6596310366394
 30
0.0
 10
244.4735130152676
 20
112.7342414490041
 30
0.0
 10
244.7056792309054
 20
112.7529463807897
 30
0.0
 10
245.1712953316312
 20
112.7515929670839
 30
0.0
 10
245.4011066521359
 20
112.7317815152192
 30
0.0
 10
245.8549083947048
 20
112.6548451593728
 30
0.0
 10
246.0804918559237
 20
112.5971531437764
 30
0.0
 10
246.51808349914
 20
112.4441690835555
 30
0.0
 10
246.7273123467284
 20
112.3501821870163
 30
0.0
 10
247.1267331082448
 20
112.1268393056834
 30
0.0
 10
247.3185841483707
 20
111.9961083998637
 30
0.0
 10
247.6732001141706
 20
111.7012136312615
 30
0.0
 10
247.8340575309439
 20
111.5392000469589
 30
0.0
 10
248.1215988601856
 20
111.1843888636679
 30
0.0
 10
248.2497237488825
 20
110.9885927597595
 30
0.0
 10
248.4578133713367
 20
110.5764628600808
 30
0.0
 10
248.537912196018
 20
110.3616733056814
 30
0.0
 10
248.647534105464
 20
109.9135054906498
 30
0.0
 10
248.6762463251133
 20
109.6781814881511
 30
0.0
 10
248.6762463251134
 20
109.4471588847289
 30
0.0
  0
LINE
  5
BD
330
1F
100
AcDbEntity
  8
0
  6
Continuous
 62
     7
370
    15
100
AcDbLine
 10
252.1762463251
 20
97.1471588847
 30
0.0
 11
252.1762463251
 21
121.7471588847
 31
0.0
  0
LINE
  5
BE
330
1F
100
AcDbEntity
  8
0
  6
Continuous
 62
     7
370
    15
100
AcDbLine
 10
251.9762463251
 20
96.9471588847
 30
0.0
 11
251.9762463251
 21
121.9471588847
 31
0.0
  0
SPLINE
  5
BF
330
1F
100
AcDbEntity
  8
0
  6
Continuous
 62
     7
370
    15
100
AcDbSpline
210
0.0
220
0.0
230
1.0
 70
    24
 71
     3
 72
    11
 73
     7
 74
     0
 42
0.000000001
 43
0.00000001
 40
0.0
 40
0.0
 40
0.0
 40
0.0
 40
0.1336647920874137
 40
0.4825473608259752
 40
0.8156356561503736
 40
0.9999999999999999
 40
0.9999999999999999
 40
0.9999999999999999
 40
0.9999999999999999
 10
243.2121843527206
 20
109.6961399177342
 30
0.0
 10
243.2571211053009
 20
109.7531115215423
 30
0.0
 10
243.4193486524587
 20
109.9587864538132
 30
0.0
 10
243.7224093441415
 20
110.3430121191078
 30
0.0
 10
244.0478933133879
 20
110.7556664093492
 30
0.0
 10
244.2225945493052
 20
110.977155703211
 30
0.0
 10
244.2848392385603
 20
111.0560706129847
 30
0.0
  0
SPLINE
  5
C0
330
1F
100
AcDbEntity
  8
0
  6
Continuous
 62
     7
370
    15
100
AcDbSpline
210
0.0
220
0.0
230
1.0
 70
    24
 71
     3
 72
    10
 73
     6
 74
     0
 42
0.000000001
 43
0.00000001
 40
0.0
 40
0.0
 40
0.0
 40
0.0
 40
0.4391165375904061
 40
0.7513669429073327
 40
1.0
 40
1.0
 40
1.0
 40
1.0
 10
243.8535914392738
 20
108.0872281894784
 30
0.0
 10
243.7617690700878
 20
108.3175563068266
 30
0.0
 10
243.6046529359418
 20
108.7116679345671
 30
0.0
 10
243.3762568850833
 20
109.2845787935479
 30
0.0
 10
243.2625772160204
 20
109.5697339729243
 30
0.0
 10
243.2121843527206
 20
109.6961399177342
 30
0.0
  0
SPLINE
  5
C1
330
1F
100
AcDbEntity
  8
0
  6
Continuous
 62
     7
370
    15
100
AcDbSpline
210
0.0
220
0.0
230
1.0
 70
    24
 71
     3
 72
    10
 73
     6
 74
     0
 42
0.000000001
 43
0.00000001
 40
0.0
 40
0.0
 40
0.0
 40
0.0
 40
0.439116537590404
 40
0.7513669429073312
 40
0.9999999999999999
 40
0.9999999999999999
 40
0.9999999999999999
 40
0.9999999999999999
 10
245.5676534116668
 20
107.8382471564729
 30
0.0
 10
245.3222722262443
 20
107.8738907107963
 30
0.0
 10
244.9024034776212
 20
107.9348799611517
 30
0.0
 10
244.2920500942106
 20
108.0235386084745
 30
0.0
 10
243.9882586303185
 20
108.0676667168605
 30
0.0
 10
243.8535914392738
 20
108.0872281894784
 30
0.0
  0
SPLINE
  5
C2
330
1F
100
AcDbEntity
  8
0
  6
Continuous
 62
     7
370
    15
100
AcDbSpline
210
0.0
220
0.0
230
1.0
 70
    24
 71
     3
 72
    11
 73
     7
 74
     0
 42
0.000000001
 43
0.00000001
 40
0.0
 40
0.0
 40
0.0
 40
0.0
 40
0.1843643438496293
 40
0.5174526391740263
 40
0.8663352079125954
 40
1.0
 40
1.0
 40
1.0
 40
1.0
 10
246.6403082975064
 20
109.1981778517233
 30
0.0
 10
246.5780636082514
 20
109.1192629419497
 30
0.0
 10
246.4033623723342
 20
108.8977736480879
 30
0.0
 10
246.0778784030877
 20
108.4851193578465
 30
0.0
 10
245.7748177114049
 20
108.1008936925519
 30
0.0
 10
245.612590164247
 20
107.895218760281
 30
0.0
 10
245.5676534116668
 20
107.8382471564729
 30
0.0
  0
SPLINE
  5
C3
330
1F
100
AcDbEntity
  8
0
  6
Continuous
 62
     7
370
    15
100
AcDbSpline
210
0.0
220
0.0
230
1.0
 70
    24
 71
     3
 72
    10
 73
     6
 74
     0
 42
0.000000001
 43
0.00000001
 40
0.0
 40
0.0
 40
0.0
 40
0.0
 40
0.4391165375904074
 40
0.7513669429073365
 40
1.0
 40
1.0
 40
1.0
 40
1.0
 10
245.9989012109532
 20
110.8070895799792
 30
0.0
 10
246.0907235801392
 20
110.576761462631
 30
0.0
 10
246.2478397142853
 20
110.1826498348905
 30
0.0
 10
246.4762357651438
 20
109.6097389759096
 30
0.0
 10
246.5899154342066
 20
109.3245837965333
 30
0.0
 10
246.6403082975064
 20
109.1981778517233
 30
0.0
  0
SPLINE
  5
C4
330
1F
100
AcDbEntity
  8
0
  6
Continuous
 62
     7
370
    15
100
AcDbSpline
210
0.0
220
0.0
230
1.0
 70
    24
 71
     3
 72
    10
 73
     6
 74
     0
 42
0.000000001
 43
0.00000001
 40
0.0
 40
0.0
 40
0.0
 40
0.0
 40
0.439116537590407
 40
0.7513669429073355
 40
1.0
 40
1.0
 40
1.0
 40
1.0
 10
244.2848392385603
 20
111.0560706129847
 30
0.0
 10
244.5302204239827
 20
111.0204270586613
 30
0.0
 10
244.9500891726058
 20
110.9594378083059
 30
0.0
 10
245.5604425560165
 20
110.8707791609831
 30
0.0
 10
245.8642340199085
 20
110.826651052597
 30
0.0
 10
245.9989012109532
 20
110.8070895799792
 30
0.0
  0
CIRCLE
  5
C5
330
1F
100
AcDbEntity
  8
0
  6
Continuous
 62
     7
370
    15
100
AcDbCircle
 10
244.9262463251
 20
109.4471588847
 30
0.0
 40
1.749999999999999
  0
CIRCLE
  5
C6
330
1F
100
AcDbEntity
  8
0
  6
Continuous
 62
     7
370
    15
100
AcDbCircle
 10
244.9262463251
 20
109.4471588847
 30
0.0
 40
2.600000000000007
  0
CIRCLE
  5
C7
330
1F
100
AcDbEntity
  8
0
  6
Continuous
 62
     7
370
    15
100
AcDbCircle
 10
244.9262463251
 20
109.4471588847
 30
0.0
 40
3.00000000000002
  0
ARC
  5
C8
330
1F
100
AcDbEntity
  8
0
  6
Continuous
 62
     7
370
    15
100
AcDbCircle
 10
244.9262463251
 20
109.4471588847
 30
0.0
 40
1.500000000000015
100
AcDbArc
 50
21.7351413135
 51
81.7351413135
  0
ARC
  5
C9
330
1F
100
AcDbEntity
  8
0
  6
Continuous
 62
     7
370
    15
100
AcDbCircle
 10
244.9262463251
 20
109.4471588847
 30
0.0
 40
1.500000000000011
100
AcDbArc
 50
81.7351413135
 51
141.7351413135
  0
ARC
  5
CA
330
1F
100
AcDbEntity
  8
0
  6
Continuous
 62
     7
370
    15
100
AcDbCircle
 10
244.9262463251
 20
109.4471588847
 30
0.0
 40
1.50000000000001
100
AcDbArc
 50
141.7351413135
 51
201.7351413135
  0
ARC
  5
CB
330
1F
100
AcDbEntity
  8
0
  6
Continuous
 62
     7
370
    15
100
AcDbCircle
 10
244.9262463251
 20
109.4471588847
 30
0.0
 40
1.500000000000015
100
AcDbArc
 50
321.7351413135
 51
21.7351413135
  0
ARC
  5
CC
330
1F
100
AcDbEntity
  8
0
  6
Continuous
 62
     7
370
    15
100
AcDbCircle
 10
244.9262463251
 20
109.4471588847
 30
0.0
 40
1.500000000000011
100
AcDbArc
 50
261.7351413135
 51
321.7351413135
  0
ARC
  5
CD
330
1F
100
AcDbEntity
  8
0
  6
Continuous
 62
     7
370
    15
100
AcDbCircle
 10
244.9262463251
 20
109.4471588847
 30
0.0
 40
1.500000000000011
100
AcDbArc
 50
201.7351413135
 51
261.7351413135
  0
LWPOLYLINE
  5
CE
330
1F
100
AcDbEntity
  8
0
  6
HIDDEN
 62
     7
370
     0
100
AcDbPolyline
 90
       23
 70
   128
 43
0.0
 10
179.9892314588
 20
96.7283923698
 10
179.5739622572
 20
96.0272796731
 10
179.3857174449
 20
95.244627766
 10
179.4397474971
 20
94.4438424514
 10
179.7316752203
 20
93.689798593
 10
180.2378503666
 20
93.0435843397
 10
180.9172656359
 20
92.5575521272
 10
181.7148788437
 20
92.2710773947
 10
182.5660721116
 20
92.2073686214
 10
183.4018868232
 20
92.3715871132
 10
184.1546102414
 20
92.7504288646
 10
184.7632611914
 20
93.3132023698
 10
185.178530393
 20
94.0143150664
 10
185.3667752054
 20
94.7969669735
 10
185.3127451532
 20
95.5977522882
 10
185.0208174299
 20
96.3517961466
 10
184.5146422837
 20
96.9980103999
 10
183.8352270144
 20
97.4840426124
 10
183.0376138065
 20
97.7705173449
 10
182.1864205386
 20
97.8342261181
 10
181.350605827
 20
97.6700076263
 10
180.5978824089
 20
97.291165875
 10
179.9892314588
 20
96.7283923698
  0
LWPOLYLINE
  5
CF
330
1F
100
AcDbEntity
  8
0
  6
HIDDEN
 62
     7
370
     0
100
AcDbPolyline
 90
       23
 70
   128
 43
0.0
 10
179.9892314588
 20
97.9869783667
 10
179.5739622572
 20
97.28586567
 10
179.3857174449
 20
96.5032137629
 10
179.4397474971
 20
95.7024284483
 10
179.7316752203
 20
94.9483845899
 10
180.2378503666
 20
94.3021703366
 10
180.9172656359
 20
93.8161381241
 10
181.7148788437
 20
93.5296633916
 10
182.5660721116
 20
93.4659546183
 10
183.4018868232
 20
93.6301731101
 10
184.1546102414
 20
94.0090148615
 10
184.7632611914
 20
94.5717883667
 10
185.178530393
 20
95.2729010633
 10
185.3667752054
 20
96.0555529704
 10
185.3127451532
 20
96.8563382851
 10
185.0208174299
 20
97.6103821435
 10
184.5146422837
 20
98.2565963968
 10
183.8352270144
 20
98.7426286093
 10
183.0376138065
 20
99.0291033418
 10
182.1864205386
 20
99.0928121151
 10
181.350605827
 20
98.9285936233
 10
180.5978824089
 20
98.5497518719
 10
179.9892314588
 20
97.9869783667
  0
LINE
  5
D0
330
1F
100
AcDbEntity
  8
0
  6
HIDDEN
 62
     7
370
     0
100
AcDbLine
 10
182.595766809
 20
97.2098134243
 30
0.0
 11
182.595766809
 21
96.5257731376
 31
0.0
  0
LINE
  5
D1
330
1F
100
AcDbEntity
  8
0
  6
HIDDEN
 62
     7
370
     0
100
AcDbLine
 10
180.9981026495
 20
96.581223513
 30
0.0
 11
180.9981026495
 21
95.8971832263
 31
0.0
  0
LINE
  5
D2
330
1F
100
AcDbEntity
  8
0
  6
HIDDEN
 62
     7
370
     0
100
AcDbLine
 10
183.9739104846
 20
96.2239329913
 30
0.0
 11
183.8891460782
 21
95.6005304823
 31
0.0
  0
LINE
  5
D3
330
1F
100
AcDbEntity
  8
0
  6
HIDDEN
 62
     7
370
     0
100
AcDbLine
 10
183.9739104846
 20
96.2239329913
 30
0.0
 11
183.9739104846
 21
95.5398927047
 31
0.0
  0
LINE
  5
D4
330
1F
100
AcDbEntity
  8
0
  6
HIDDEN
 62
     7
370
     0
100
AcDbLine
 10
180.7785821656
 20
94.9667531687
 30
0.0
 11
180.8633465721
 21
94.9061153911
 31
0.0
  0
LINE
  5
D5
330
1F
100
AcDbEntity
  8
0
  6
HIDDEN
 62
     7
370
     0
100
AcDbLine
 10
180.7785821656
 20
94.9667531687
 30
0.0
 11
180.7785821656
 21
94.2827128821
 31
0.0
  0
LINE
  5
D6
330
1F
100
AcDbEntity
  8
0
  6
HIDDEN
 62
     7
370
     0
100
AcDbLine
 10
180.7785821656
 20
94.9667531687
 30
0.0
 11
180.9981026495
 21
96.581223513
 31
0.0
  0
LINE
  5
D7
330
1F
100
AcDbEntity
  8
0
  6
HIDDEN
 62
     7
370
     0
100
AcDbLine
 10
182.595766809
 20
97.2098134243
 30
0.0
 11
183.9739104846
 21
96.2239329913
 31
0.0
  0
LINE
  5
D8
330
1F
100
AcDbEntity
  8
0
  6
HIDDEN
 62
     7
370
     0
100
AcDbLine
 10
182.595766809
 20
97.2098134243
 30
0.0
 11
180.9981026495
 21
96.581223513
 31
0.0
  0
LWPOLYLINE
  5
D9
330
1F
100
AcDbEntity
  8
0
  6
HIDDEN
 62
     7
370
     0
100
AcDbPolyline
 90
       19
 70
   128
 43
0.0
 10
180.7849030809
 20
97.7598001767
 10
180.46653032
 20
97.1796985972
 10
180.3784974936
 20
96.5322583906
 10
180.53142266
 20
95.895570401
 10
180.9068607871
 20
95.3464285966
 10
181.4595284959
 20
94.9510675833
 10
182.1227659042
 20
94.7571737343
 10
182.8165767922
 20
94.7881335094
 10
183.4572773273
 20
95.0402127028
 10
183.9675895693
 20
95.4830068433
 10
184.2859623303
 20
96.0631084229
 10
184.3739951566
 20
96.7105486295
 10
184.2210699902
 20
97.347236619
 10
183.8456318632
 20
97.8963784235
 10
183.2929641544
 20
98.2917394367
 10
182.6297267461
 20
98.4856332857
 10
181.935915858
 20
98.4546735106
 10
181.2952153229
 20
98.2025943173
 10
180.7849030809
 20
97.7598001767
  0
LWPOLYLINE
  5
DA
330
1F
100
AcDbEntity
  8
0
  6
HIDDEN
 62
     7
370
     0
100
AcDbPolyline
 90
       23
 70
   128
 43
0.0
 10
185.1472839376
 20
121.5347576125
 10
184.7111858331
 20
120.8449023096
 10
184.085924816
 20
120.2984444802
 10
183.3221558155
 20
119.9396548875
 10
182.4817548536
 20
119.7976005307
 10
181.6328062182
 20
119.8837898088
 10
180.8440866788
 20
120.1912401792
 10
180.1794936019
 20
120.6950438414
 10
179.692868366
 20
121.3543856188
 10
179.4236344538
 20
122.1158495619
 10
179.3936035954
 20
122.9177463906
 10
179.6052087126
 20
123.695111193
 10
180.0413068171
 20
124.3849664959
 10
180.6665678342
 20
124.9314243254
 10
181.4303368347
 20
125.290213918
 10
182.2707377967
 20
125.4322682749
 10
183.1196864321
 20
125.3460789967
 10
183.9084059714
 20
125.0386286263
 10
184.5729990483
 20
124.5348249642
 10
185.0596242842
 20
123.8754831868
 10
185.3288581965
 20
123.1140192437
 10
185.3588890548
 20
122.3121224149
 10
185.1472839376
 20
121.5347576125
  0
LWPOLYLINE
  5
DB
330
1F
100
AcDbEntity
  8
0
  6
HIDDEN
 62
     7
370
     0
100
AcDbPolyline
 90
       19
 70
   128
 43
0.0
 10
184.2236047335
 20
121.5527963993
 10
183.8500939231
 20
121.0024952724
 10
183.2988153408
 20
120.6054254247
 10
182.6362613195
 20
120.40947934
 10
181.9423456525
 20
120.438291008
 10
181.3007648103
 20
120.6883853162
 10
180.7889029112
 20
121.1295972002
 10
180.4684980545
 20
121.708709995
 10
180.3781957946
 20
122.355874151
 10
180.5288879168
 20
122.9930321196
 10
180.9023987271
 20
123.5433332465
 10
181.4536773094
 20
123.9404030942
 10
182.1162313307
 20
124.1363491788
 10
182.8101469977
 20
124.1075375109
 10
183.45172784
 20
123.8574432026
 10
183.9635897391
 20
123.4162313187
 10
184.2839945958
 20
122.8371185238
 10
184.3742968556
 20
122.1899543679
 10
184.2236047335
 20
121.5527963993
  0
LWPOLYLINE
  5
DC
330
1F
100
AcDbEntity
  8
0
  6
HIDDEN
 62
     7
370
     0
100
AcDbPolyline
 90
       23
 70
   128
 43
0.0
 10
185.1472839376
 20
122.7933436094
 10
184.7111858331
 20
122.1034883066
 10
184.085924816
 20
121.5570304771
 10
183.3221558155
 20
121.1982408844
 10
182.4817548536
 20
121.0561865276
 10
181.6328062182
 20
121.1423758057
 10
180.8440866788
 20
121.4498261761
 10
180.1794936019
 20
121.9536298383
 10
179.692868366
 20
122.6129716157
 10
179.4236344538
 20
123.3744355588
 10
179.3936035954
 20
124.1763323875
 10
179.6052087126
 20
124.9536971899
 10
180.0413068171
 20
125.6435524928
 10
180.6665678342
 20
126.1900103223
 10
181.4303368347
 20
126.5487999149
 10
182.2707377967
 20
126.6908542718
 10
183.1196864321
 20
126.6046649936
 10
183.9084059714
 20
126.2972146232
 10
184.5729990483
 20
125.7934109611
 10
185.0596242842
 20
125.1340691837
 10
185.3288581965
 20
124.3726052406
 10
185.3588890548
 20
123.5707084118
 10
185.1472839376
 20
122.7933436094
  0
LINE
  5
DD
330
1F
100
AcDbEntity
  8
0
  6
HIDDEN
 62
     7
370
     0
100
AcDbLine
 10
182.1510667346
 20
124.9127566679
 30
0.0
 11
180.7763870136
 21
123.92261505
 31
0.0
  0
LINE
  5
DE
330
1F
100
AcDbEntity
  8
0
  6
HIDDEN
 62
     7
370
     0
100
AcDbLine
 10
182.1510667346
 20
124.9127566679
 30
0.0
 11
182.1510667346
 21
125.5967969546
 31
0.0
  0
LINE
  5
DF
330
1F
100
AcDbEntity
  8
0
  6
HIDDEN
 62
     7
370
     0
100
AcDbLine
 10
183.7509260461
 20
124.2891163073
 30
0.0
 11
182.1510667346
 21
124.9127566679
 31
0.0
  0
LINE
  5
E0
330
1F
100
AcDbEntity
  8
0
  6
HIDDEN
 62
     7
370
     0
100
AcDbLine
 10
183.7509260461
 20
124.2891163073
 30
0.0
 11
183.7509260461
 21
124.973156594
 31
0.0
  0
LINE
  5
E1
330
1F
100
AcDbEntity
  8
0
  6
HIDDEN
 62
     7
370
     0
100
AcDbLine
 10
183.7509260461
 20
124.2891163073
 30
0.0
 11
183.9761056366
 21
122.6753343288
 31
0.0
  0
LINE
  5
E2
330
1F
100
AcDbEntity
  8
0
  6
HIDDEN
 62
     7
370
     0
100
AcDbLine
 10
181.0015666041
 20
122.3088330715
 30
0.0
 11
181.0015666041
 21
122.9928733582
 31
0.0
  0
LINE
  5
E3
330
1F
100
AcDbEntity
  8
0
  6
HIDDEN
 62
     7
370
     0
100
AcDbLine
 10
181.0015666041
 20
122.9928733582
 30
0.0
 11
180.7763870136
 21
124.6066553367
 31
0.0
  0
LINE
  5
E4
330
1F
100
AcDbEntity
  8
0
  6
HIDDEN
 62
     7
370
     0
100
AcDbLine
 10
180.7763870136
 20
123.92261505
 30
0.0
 11
180.7763870136
 21
124.6066553367
 31
0.0
  0
LINE
  5
E5
330
1F
100
AcDbEntity
  8
0
  6
HIDDEN
 62
     7
370
     0
100
AcDbLine
 10
181.0015666041
 20
122.3088330715
 30
0.0
 11
180.7763870136
 21
123.92261505
 31
0.0
  0
LINE
  5
E6
330
1F
100
AcDbEntity
  8
0
  6
HIDDEN
 62
     7
370
     0
100
AcDbLine
 10
182.6014259156
 20
121.6851927109
 30
0.0
 11
182.6014259156
 21
122.3692329976
 31
0.0
  0
LINE
  5
E7
330
1F
100
AcDbEntity
  8
0
  6
HIDDEN
 62
     7
370
     0
100
AcDbLine
 10
182.6014259156
 20
122.3692329976
 30
0.0
 11
183.9761056366
 21
123.3593746155
 31
0.0
  0
LINE
  5
E8
330
1F
100
AcDbEntity
  8
0
  6
HIDDEN
 62
     7
370
     0
100
AcDbLine
 10
183.9761056366
 20
122.6753343288
 30
0.0
 11
183.9761056366
 21
123.3593746155
 31
0.0
  0
LINE
  5
E9
330
1F
100
AcDbEntity
  8
0
  6
HIDDEN
 62
     7
370
     0
100
AcDbLine
 10
182.6014259156
 20
121.6851927109
 30
0.0
 11
183.9761056366
 21
122.6753343288
 31
0.0
  0
LINE
  5
EA
330
1F
100
AcDbEntity
  8
0
  6
HIDDEN
 62
     7
370
     0
100
AcDbLine
 10
182.6014259156
 20
122.3692329976
 30
0.0
 11
181.0015666041
 21
122.9928733582
 31
0.0
  0
LINE
  5
EB
330
1F
100
AcDbEntity
  8
0
  6
HIDDEN
 62
     7
370
     0
100
AcDbLine
 10
182.6014259156
 20
121.6851927109
 30
0.0
 11
181.0015666041
 21
122.3088330715
 31
0.0
  0
LWPOLYLINE
  5
EC
330
1F
100
AcDbEntity
  8
0
  6
HIDDEN
 62
     7
370
     0
100
AcDbPolyline
 90
       20
 70
   128
 43
0.0
 10
184.6351038189
 20
123.1024908626
 10
184.2084581853
 20
122.4609826955
 10
183.5832639669
 20
121.9844103428
 10
182.8272706582
 20
121.7244178137
 10
182.0224018647
 20
121.7091793329
 10
181.2558776089
 20
121.9403462262
 10
180.6107626878
 20
122.3928679738
 10
180.1569653131
 20
123.0177068228
 10
179.9436614718
 20
123.7471517885
 10
179.9939659448
 20
124.5021561903
 10
180.3024274619
 20
125.2009035863
 10
180.8356194314
 20
125.7676738539
 10
181.5357622301
 20
126.1410486402
 10
182.326984522
 20
126.2805669937
 10
183.1235450947
 20
126.1711099359
 10
183.8391242501
 20
125.8245388374
 10
184.3961778834
 20
125.2784100543
 10
184.73434059
 20
124.5919051144
 10
184.8169671933
 20
123.83941748
 10
184.6351038189
 20
123.1024908626
  0
LINE
  5
ED
330
1F
100
AcDbEntity
  8
0
  6
HIDDEN
 62
     7
370
     0
100
AcDbLine
 10
183.7509260461
 20
124.973156594
 30
0.0
 11
183.9761056366
 21
123.3593746155
 31
0.0
  0
LINE
  5
EE
330
1F
100
AcDbEntity
  8
0
  6
HIDDEN
 62
     7
370
     0
100
AcDbLine
 10
183.7509260461
 20
124.973156594
 30
0.0
 11
182.1510667346
 21
125.5967969546
 31
0.0
  0
LINE
  5
EF
330
1F
100
AcDbEntity
  8
0
  6
HIDDEN
 62
     7
370
     0
100
AcDbLine
 10
182.1510667346
 20
125.5967969546
 30
0.0
 11
180.7763870136
 21
124.6066553367
 31
0.0
  0
LWPOLYLINE
  5
F0
330
1F
100
AcDbEntity
  8
0
  6
HIDDEN
 62
     7
370
     0
100
AcDbPolyline
 90
       19
 70
   128
 43
0.0
 10
163.3163635796
 20
94.1304712784
 10
163.644799898
 20
93.6736711634
 10
164.0011520712
 20
93.427263342
 10
164.3424387681
 20
93.4209682341
 10
164.6274957761
 20
93.6555451225
 10
164.821941013
 20
94.1027005726
 10
164.9023215136
 20
94.7085010378
 10
164.8589422032
 20
95.3998780412
 10
164.6970352669
 20
96.0934413127
 10
164.4361290706
 20
96.7055368858
 10
164.1076927523
 20
97.1623370008
 10
163.751340579
 20
97.4087448223
 10
163.4100538821
 20
97.4150399302
 10
163.1249968742
 20
97.1804630417
 10
162.9305516372
 20
96.7333075917
 10
162.8501711366
 20
96.1275071265
 10
162.893550447
 20
95.436130123
 10
163.0554573833
 20
94.7425668515
 10
163.3163635796
 20
94.1304712784
  0
LWPOLYLINE
  5
F1
330
1F
100
AcDbEntity
  8
0
  6
HIDDEN
 62
     7
370
     0
100
AcDbPolyline
 90
       21
 70
   128
 43
0.0
 10
163.4176237637
 20
93.8955985282
 10
163.7748496024
 20
93.3848198286
 10
164.163780709
 20
93.0773641372
 10
164.546345797
 20
93.003327359
 10
164.8850967301
 20
93.1699567299
 10
165.1468742068
 20
93.560941406
 10
165.3060536236
 20
94.1380090831
 10
165.3470533903
 20
94.8446723562
 10
165.2658601639
 20
95.6117581007
 10
165.0704217033
 20
96.3641786191
 10
164.7798688866
 20
97.0282817488
 10
164.4226430479
 20
97.5390604484
 10
164.0337119412
 20
97.8465161398
 10
163.6511468532
 20
97.920552918
 10
163.3123959201
 20
97.7539235471
 10
163.0506184435
 20
97.362938871
 10
162.8914390266
 20
96.7858711939
 10
162.85043926
 20
96.0792079208
 10
162.9316324863
 20
95.3121221763
 10
163.1270709469
 20
94.5597016579
 10
163.4176237637
 20
93.8955985282
  0
LWPOLYLINE
  5
F2
330
1F
100
AcDbEntity
  8
0
  6
HIDDEN
 62
     7
370
     0
100
AcDbPolyline
 90
       21
 70
   128
 43
0.0
 10
166.8757317298
 20
94.5784552764
 10
167.2329575684
 20
94.0676765768
 10
167.6218886751
 20
93.7602208854
 10
168.0044537631
 20
93.6861841072
 10
168.3432046962
 20
93.8528134781
 10
168.6049821728
 20
94.2437981542
 10
168.7641615897
 20
94.8208658313
 10
168.8051613564
 20
95.5275291044
 10
168.72396813
 20
96.2946148489
 10
168.5285296694
 20
97.0470353673
 10
168.2379768526
 20
97.711138497
 10
167.8807510139
 20
98.2219171966
 10
167.4918199073
 20
98.529372888
 10
167.1092548193
 20
98.6034096662
 10
166.7705038862
 20
98.4367802953
 10
166.5087264095
 20
98.0457956192
 10
166.3495469927
 20
97.4687279421
 10
166.308547226
 20
96.762064669
 10
166.3897404524
 20
95.9949789245
 10
166.585178913
 20
95.2425584061
 10
166.8757317298
 20
94.5784552764
  0
LINE
  5
F3
330
1F
100
AcDbEntity
  8
0
  6
HIDDEN
 62
     7
370
     0
100
AcDbLine
 10
164.596933413
 20
94.9196685911
 30
0.0
 11
164.2694926193
 21
96.3223318325
 31
0.0
  0
LINE
  5
F4
330
1F
100
AcDbEntity
  8
0
  6
HIDDEN
 62
     7
370
     0
100
AcDbLine
 10
163.5488055314
 20
96.8206673236
 30
0.0
 11
164.2694926193
 21
96.3223318325
 31
0.0
  0
LINE
  5
F5
330
1F
100
AcDbEntity
  8
0
  6
HIDDEN
 62
     7
370
     0
100
AcDbLine
 10
163.1555592372
 20
95.9163395732
 30
0.0
 11
163.5488055314
 21
96.8206673236
 31
0.0
  0
LINE
  5
F6
330
1F
100
AcDbEntity
  8
0
  6
HIDDEN
 62
     7
370
     0
100
AcDbLine
 10
163.1555592372
 20
95.9163395732
 30
0.0
 11
163.4830000309
 21
94.5136763318
 31
0.0
  0
LINE
  5
F7
330
1F
100
AcDbEntity
  8
0
  6
HIDDEN
 62
     7
370
     0
100
AcDbLine
 10
164.2036871188
 20
94.0153408407
 30
0.0
 11
163.4830000309
 21
94.5136763318
 31
0.0
  0
LINE
  5
F8
330
1F
100
AcDbEntity
  8
0
  6
HIDDEN
 62
     7
370
     0
100
AcDbLine
 10
164.2036871188
 20
94.0153408407
 30
0.0
 11
164.596933413
 21
94.9196685911
 31
0.0
  0
LINE
  5
F9
330
1F
100
AcDbEntity
  8
0
  6
HIDDEN
 62
     7
370
     0
100
AcDbLine
 10
166.3289842206
 20
95.2616887344
 30
0.0
 11
164.596933413
 21
94.9196685911
 31
0.0
  0
LWPOLYLINE
  5
FA
330
1F
100
AcDbEntity
  8
0
  6
HIDDEN
 62
     7
370
     0
100
AcDbPolyline
 90
       17
 70
   128
 43
0.0
 10
167.729587551
 20
95.1766153132
 10
168.0466515312
 20
94.7508402682
 10
168.3880317095
 20
94.5568085321
 10
168.7017560484
 20
94.6240596777
 10
168.9400628612
 20
94.9423553277
 10
169.0666720959
 20
95.4632378549
 10
169.0623086443
 20
96.1074076161
 10
168.9276368023
 20
96.7767956048
 10
168.683159137
 20
97.3694935677
 10
168.3660951569
 20
97.7952686127
 10
168.0247149786
 20
97.9893003488
 10
167.7109906397
 20
97.9220492032
 10
167.4726838269
 20
97.6037535532
 10
167.3460745921
 20
97.0828710261
 10
167.3504380438
 20
96.4387012648
 10
167.4851098858
 20
95.7693132761
 10
167.729587551
 20
95.1766153132
  0
LINE
  5
FB
330
1F
100
AcDbEntity
  8
0
  6
HIDDEN
 62
     7
370
     0
100
AcDbLine
 10
166.0015434269
 20
96.6643519758
 30
0.0
 11
164.2694926193
 21
96.3223318325
 31
0.0
  0
LINE
  5
FC
330
1F
100
AcDbEntity
  8
0
  6
HIDDEN
 62
     7
370
     0
100
AcDbLine
 10
164.8876100448
 20
96.2583597165
 30
0.0
 11
165.2150508385
 21
94.8556964751
 31
0.0
  0
LINE
  5
FD
330
1F
100
AcDbEntity
  8
0
  6
HIDDEN
 62
     7
370
     0
100
AcDbLine
 10
164.8876100448
 20
96.2583597165
 30
0.0
 11
165.280856339
 21
97.1626874669
 31
0.0
  0
LINE
  5
FE
330
1F
100
AcDbEntity
  8
0
  6
HIDDEN
 62
     7
370
     0
100
AcDbLine
 10
165.9357379264
 20
94.357360984
 30
0.0
 11
165.2150508385
 21
94.8556964751
 31
0.0
  0
LINE
  5
FF
330
1F
100
AcDbEntity
  8
0
  6
HIDDEN
 62
     7
370
     0
100
AcDbLine
 10
165.280856339
 20
97.1626874669
 30
0.0
 11
166.0015434269
 21
96.6643519758
 31
0.0
  0
LINE
  5
100
330
1F
100
AcDbEntity
  8
0
  6
HIDDEN
 62
     7
370
     0
100
AcDbLine
 10
165.9357379264
 20
94.357360984
 30
0.0
 11
166.3289842206
 21
95.2616887344
 31
0.0
  0
LINE
  5
101
330
1F
100
AcDbEntity
  8
0
  6
HIDDEN
 62
     7
370
     0
100
AcDbLine
 10
166.3289842206
 20
95.2616887344
 30
0.0
 11
166.0015434269
 21
96.6643519758
 31
0.0
  0
LINE
  5
102
330
1F
100
AcDbEntity
  8
0
  6
HIDDEN
 62
     7
370
     0
100
AcDbLine
 10
165.2150508385
 20
94.8556964751
 30
0.0
 11
163.4830000309
 21
94.5136763318
 31
0.0
  0
LINE
  5
103
330
1F
100
AcDbEntity
  8
0
  6
HIDDEN
 62
     7
370
     0
100
AcDbLine
 10
165.9357379264
 20
94.357360984
 30
0.0
 11
164.2036871188
 21
94.0153408407
 31
0.0
  0
LINE
  5
104
330
1F
100
AcDbEntity
  8
0
  6
HIDDEN
 62
     7
370
     0
100
AcDbLine
 10
164.8876100448
 20
96.2583597165
 30
0.0
 11
163.1555592372
 21
95.9163395732
 31
0.0
  0
LINE
  5
105
330
1F
100
AcDbEntity
  8
0
  6
HIDDEN
 62
     7
370
     0
100
AcDbLine
 10
165.280856339
 20
97.1626874669
 30
0.0
 11
163.5488055314
 21
96.8206673236
 31
0.0
  0
LWPOLYLINE
  5
106
330
1F
100
AcDbEntity
  8
0
  6
HIDDEN
 62
     7
370
     0
100
AcDbPolyline
 90
       21
 70
   128
 43
0.0
 10
166.4281110316
 20
121.0715058368
 10
166.317393493
 20
121.7108495404
 10
166.3280030131
 20
122.4518656317
 10
166.4589010582
 20
123.222018293
 10
166.6972744157
 20
123.9459196156
 10
167.0197894404
 20
124.5527090945
 10
167.3948761147
 20
124.9829899476
 10
167.7858183415
 20
125.1946432872
 10
168.1543479717
 20
125.1669510097
 10
168.4643907575
 20
124.9026238281
 10
168.6855975508
 20
124.4275359287
 10
168.7963150894
 20
123.7881922251
 10
168.7857055693
 20
123.0471761338
 10
168.6548075242
 20
122.2770234725
 10
168.4164341667
 20
121.5531221499
 10
168.0939191419
 20
120.946332671
 10
167.7188324677
 20
120.5160518179
 10
167.3278902409
 20
120.3043984783
 10
166.9593606107
 20
120.3320907558
 10
166.6493178249
 20
120.5964179374
 10
166.4281110316
 20
121.0715058368
  0
LWPOLYLINE
  5
107
330
1F
100
AcDbEntity
  8
0
  6
HIDDEN
 62
     7
370
     0
100
AcDbPolyline
 90
       17
 70
   128
 43
0.0
 10
167.4162530623
 20
121.4466527969
 10
167.3325293132
 20
122.0190998775
 10
167.3818403963
 20
122.6832208851
 10
167.5566791464
 20
123.3379094163
 10
167.8304279485
 20
123.8834950772
 10
168.1614110292
 20
124.2369173966
 10
168.4992392147
 20
124.3443710301
 10
168.7924812262
 20
124.1894971362
 10
168.9964936258
 20
123.7958738611
 10
169.0802173749
 20
123.2234267805
 10
169.0309062917
 20
122.5593057729
 10
168.8560675417
 20
121.9046172417
 10
168.5823187396
 20
121.3590315808
 10
168.2513356589
 20
121.0056092614
 10
167.9135074734
 20
120.8981556279
 10
167.6202654619
 20
121.0530295218
 10
167.4162530623
 20
121.4466527969
  0
LWPOLYLINE
  5
108
330
1F
100
AcDbEntity
  8
0
  6
HIDDEN
 62
     7
370
     0
100
AcDbPolyline
 90
       21
 70
   128
 43
0.0
 10
162.9700030655
 20
121.7543625851
 10
162.8592855269
 20
122.3937062886
 10
162.869895047
 20
123.13472238
 10
163.0007930922
 20
123.9048750412
 10
163.2391664496
 20
124.6287763638
 10
163.5616814744
 20
125.2355658427
 10
163.9367681486
 20
125.6658466958
 10
164.3277103754
 20
125.8775000354
 10
164.6962400056
 20
125.8498077579
 10
165.0062827914
 20
125.5854805763
 10
165.2274895847
 20
125.1103926769
 10
165.3382071233
 20
124.4710489733
 10
165.3275976032
 20
123.730032882
 10
165.1966995581
 20
122.9598802207
 10
164.9583262006
 20
122.2359788981
 10
164.6358111759
 20
121.6291894192
 10
164.2607245016
 20
121.1989085661
 10
163.8697822748
 20
120.9872552265
 10
163.5012526446
 20
121.014947504
 10
163.1912098588
 20
121.2792746856
 10
162.9700030655
 20
121.7543625851
  0
LWPOLYLINE
  5
109
330
1F
100
AcDbEntity
  8
0
  6
HIDDEN
 62
     7
370
     0
100
AcDbPolyline
 90
       19
 70
   128
 43
0.0
 10
162.9484193657
 20
122.0969853196
 10
162.8533834663
 20
122.6871183382
 10
162.8817199235
 20
123.3724399632
 10
163.0300109423
 20
124.0702902924
 10
163.2803704375
 20
124.6964982768
 10
163.6026013589
 20
125.1755339917
 10
163.9578379017
 20
125.4496186601
 10
164.3032332963
 20
125.4856936259
 10
164.5971277605
 20
125.2794077158
 10
164.8040732845
 20
124.8556420551
 10
164.8991091839
 20
124.2655090364
 10
164.8707727268
 20
123.5801874114
 10
164.7224817079
 20
122.8823370823
 10
164.4721222128
 20
122.2561290979
 10
164.1498912914
 20
121.7770933829
 10
163.7946547485
 20
121.5030087145
 10
163.4492593539
 20
121.4669337487
 10
163.1553648897
 20
121.6732196588
 10
162.9484193657
 20
122.0969853196
  0
LINE
  5
10A
330
1F
100
AcDbEntity
  8
0
  6
HIDDEN
 62
     7
370
     0
100
AcDbLine
 10
165.0139245949
 20
123.5514864306
 30
0.0
 11
164.9566169079
 21
122.1654911055
 31
0.0
  0
LINE
  5
10B
330
1F
100
AcDbEntity
  8
0
  6
HIDDEN
 62
     7
370
     0
100
AcDbLine
 10
163.2818737873
 20
123.8935065739
 30
0.0
 11
163.2245661003
 21
122.5075112489
 31
0.0
  0
LINE
  5
10C
330
1F
100
AcDbEntity
  8
0
  6
HIDDEN
 62
     7
370
     0
100
AcDbLine
 10
163.2818737873
 20
123.8935065739
 30
0.0
 11
163.9335540121
 21
124.8623090124
 31
0.0
  0
LINE
  5
10D
330
1F
100
AcDbEntity
  8
0
  6
HIDDEN
 62
     7
370
     0
100
AcDbLine
 10
165.0139245949
 20
123.5514864306
 30
0.0
 11
165.6656048197
 21
124.5202888691
 31
0.0
  0
LINE
  5
10E
330
1F
100
AcDbEntity
  8
0
  6
HIDDEN
 62
     7
370
     0
100
AcDbLine
 10
165.0139245949
 20
123.5514864306
 30
0.0
 11
163.2818737873
 21
123.8935065739
 31
0.0
  0
LINE
  5
10F
330
1F
100
AcDbEntity
  8
0
  6
HIDDEN
 62
     7
370
     0
100
AcDbLine
 10
163.8189386381
 20
122.0903183622
 30
0.0
 11
163.2245661003
 21
122.5075112489
 31
0.0
  0
LINE
  5
110
330
1F
100
AcDbEntity
  8
0
  6
HIDDEN
 62
     7
370
     0
100
AcDbLine
 10
165.5509894457
 20
121.7482982189
 30
0.0
 11
164.9566169079
 21
122.1654911055
 31
0.0
  0
LINE
  5
111
330
1F
100
AcDbEntity
  8
0
  6
HIDDEN
 62
     7
370
     0
100
AcDbLine
 10
164.9566169079
 20
122.1654911055
 30
0.0
 11
163.2245661003
 21
122.5075112489
 31
0.0
  0
LINE
  5
112
330
1F
100
AcDbEntity
  8
0
  6
HIDDEN
 62
     7
370
     0
100
AcDbLine
 10
166.2599773575
 20
124.1030959825
 30
0.0
 11
164.5279265499
 21
124.4451161258
 31
0.0
  0
LINE
  5
113
330
1F
100
AcDbEntity
  8
0
  6
HIDDEN
 62
     7
370
     0
100
AcDbLine
 10
165.6656048197
 20
124.5202888691
 30
0.0
 11
163.9335540121
 21
124.8623090124
 31
0.0
  0
LINE
  5
114
330
1F
100
AcDbEntity
  8
0
  6
HIDDEN
 62
     7
370
     0
100
AcDbLine
 10
163.9335540121
 20
124.8623090124
 30
0.0
 11
164.5279265499
 21
124.4451161258
 31
0.0
  0
LINE
  5
115
330
1F
100
AcDbEntity
  8
0
  6
HIDDEN
 62
     7
370
     0
100
AcDbLine
 10
165.6656048197
 20
124.5202888691
 30
0.0
 11
166.2599773575
 21
124.1030959825
 31
0.0
  0
LINE
  5
116
330
1F
100
AcDbEntity
  8
0
  6
HIDDEN
 62
     7
370
     0
100
AcDbLine
 10
166.2026696704
 20
122.7171006574
 30
0.0
 11
164.4706188629
 21
123.0591208007
 31
0.0
  0
LINE
  5
117
330
1F
100
AcDbEntity
  8
0
  6
HIDDEN
 62
     7
370
     0
100
AcDbLine
 10
165.5509894457
 20
121.7482982189
 30
0.0
 11
163.8189386381
 21
122.0903183622
 31
0.0
  0
LINE
  5
118
330
1F
100
AcDbEntity
  8
0
  6
HIDDEN
 62
     7
370
     0
100
AcDbLine
 10
163.8189386381
 20
122.0903183622
 30
0.0
 11
164.4706188629
 21
123.0591208007
 31
0.0
  0
LINE
  5
119
330
1F
100
AcDbEntity
  8
0
  6
HIDDEN
 62
     7
370
     0
100
AcDbLine
 10
165.5509894457
 20
121.7482982189
 30
0.0
 11
166.2026696704
 21
122.7171006574
 31
0.0
  0
LINE
  5
11A
330
1F
100
AcDbEntity
  8
0
  6
HIDDEN
 62
     7
370
     0
100
AcDbLine
 10
164.4706188629
 20
123.0591208007
 30
0.0
 11
164.5279265499
 21
124.4451161258
 31
0.0
  0
LINE
  5
11B
330
1F
100
AcDbEntity
  8
0
  6
HIDDEN
 62
     7
370
     0
100
AcDbLine
 10
166.2026696704
 20
122.7171006574
 30
0.0
 11
166.2599773575
 21
124.1030959825
 31
0.0
  0
SPLINE
  5
11C
330
1F
100
AcDbEntity
  8
0
  6
HIDDEN
 62
     7
370
     0
100
AcDbSpline
210
0.0
220
0.0
230
1.0
 70
     8
 71
     3
 72
     9
 73
     5
 74
     0
 42
0.000000001
 43
0.00000001
 40
0.0
 40
0.0
 40
0.0
 40
0.0
 40
0.3267154954400355
 40
1.0
 40
1.0
 40
1.0
 40
1.0
 10
191.8002137819117
 20
59.82339844876722
 30
0.0
 10
191.6434209088538
 20
59.86548067640516
 30
0.0
 10
191.1635144604417
 20
59.99428456916593
 30
0.0
 10
190.4093029271951
 20
60.16931121546581
 30
0.0
 10
189.9015039886997
 20
60.28715394430463
 30
0.0
  0
LWPOLYLINE
  5
11D
330
1F
100
AcDbEntity
  8
0
  6
HIDDEN
 62
     7
370
     0
100
AcDbPolyline
 90
       23
 70
   128
 43
0.0
 10
162.445633437
 20
95.4180040821
 10
162.6306277529
 20
94.5852567813
 10
162.9165346776
 20
93.8199737142
 10
163.2801917323
 20
93.1841535637
 10
163.6921375853
 20
92.729306697
 10
164.1189988334
 20
92.4922821021
 10
164.526193717
 20
92.4922821021
 10
164.8807337283
 20
92.729306697
 10
165.1538961441
 20
93.1841535637
 10
165.3235509701
 20
93.8199737142
 10
165.3759537812
 20
94.5852567813
 10
165.3068592132
 20
95.4180040821
 10
165.1218648973
 20
96.250751383
 10
164.8359579727
 20
97.0160344501
 10
164.4723009179
 20
97.6518546006
 10
164.060355065
 20
98.1067014673
 10
163.6334938168
 20
98.3437260622
 10
163.2262989332
 20
98.3437260622
 10
162.8717589219
 20
98.1067014673
 10
162.5985965061
 20
97.6518546006
 10
162.4289416801
 20
97.0160344501
 10
162.3765388691
 20
96.250751383
 10
162.445633437
 20
95.4180040821
  0
LWPOLYLINE
  5
11E
330
1F
100
AcDbEntity
  8
0
  6
HIDDEN
 62
     7
370
     0
100
AcDbPolyline
 90
       19
 70
   128
 43
0.0
 10
163.1585040256
 20
95.4740224004
 10
163.3268589481
 20
94.7663603252
 10
163.5956949018
 20
94.1440527402
 10
163.9325863032
 20
93.6821591245
 10
164.2968990771
 20
93.436390665
 10
164.6446917265
 20
93.436390665
 10
164.9340153249
 20
93.6821591245
 10
165.1299731763
 20
94.1440527402
 10
165.208929872
 20
94.7663603252
 10
165.161362069
 20
95.4740224004
 10
164.9930071465
 20
96.1816844756
 10
164.7241711928
 20
96.8039920606
 10
164.3872797914
 20
97.2658856763
 10
164.0229670175
 20
97.5116541358
 10
163.6751743681
 20
97.5116541358
 10
163.3858507697
 20
97.2658856763
 10
163.1898929183
 20
96.8039920606
 10
163.1109362226
 20
96.1816844756
 10
163.1585040256
 20
95.4740224004
  0
SPLINE
  5
11F
330
1F
100
AcDbEntity
  8
0
  6
HIDDEN
 62
     7
370
     0
100
AcDbSpline
210
0.0
220
0.0
230
1.0
 70
    11
 71
     3
 72
    66
 73
    62
 74
     0
 42
0.000000001
 43
0.00000001
 40
0.0
 40
0.0
 40
0.0
 40
0.0
 40
0.0312500000000006
 40
0.0312500000000006
 40
0.0625000000000012
 40
0.0625000000000012
 40
0.0937500000000018
 40
0.0937500000000018
 40
0.1250000000000024
 40
0.1250000000000024
 40
0.1562500000000031
 40
0.1562500000000031
 40
0.1875000000000037
 40
0.1875000000000037
 40
0.2187500000000043
 40
0.2187500000000043
 40
0.2343750000000044
 40
0.2343750000000044
 40
0.2500000000000046
 40
0.2500000000000046
 40
0.2812500000000042
 40
0.2812500000000042
 40
0.3125000000000038
 40
0.3125000000000038
 40
0.3750000000000026
 40
0.3750000000000026
 40
0.4375000000000014
 40
0.4375000000000014
 40
0.4687500000000009
 40
0.4687500000000009
 40
0.5000000000000004
 40
0.5000000000000004
 40
0.53125
 40
0.53125
 40
0.5624999999999996
 40
0.5624999999999996
 40
0.593749999999999
 40
0.593749999999999
 40
0.6249999999999986
 40
0.6249999999999986
 40
0.6874999999999977
 40
0.6874999999999977
 40
0.7499999999999968
 40
0.7499999999999968
 40
0.7812499999999966
 40
0.7812499999999966
 40
0.8124999999999964
 40
0.8124999999999964
 40
0.8437499999999962
 40
0.8437499999999962
 40
0.8593749999999962
 40
0.8593749999999962
 40
0.8749999999999962
 40
0.8749999999999962
 40
0.9062499999999971
 40
0.9062499999999971
 40
0.9374999999999981
 40
0.9374999999999981
 40
0.968749999999999
 40
0.968749999999999
 40
1.0
 40
1.0
 40
1.0
 40
1.0
 10
179.9572712648937
 20
98.79119805931819
 30
0.0
 10
179.9176809772538
 20
98.94481157900915
 30
0.0
 10
179.8924199865722
 20
99.09705500660917
 30
0.0
 10
179.8712750805574
 20
99.3991599233576
 30
0.0
 10
179.8759227926509
 20
99.54964006719952
 30
0.0
 10
179.9146164604366
 20
99.83208434049811
 30
0.0
 10
179.9489134195313
 20
99.96753103547137
 30
0.0
 10
180.0432242054806
 20
100.2166744340483
 30
0.0
 10
180.1023707457739
 20
100.3291658510711
 30
0.0
 10
180.2407069304661
 20
100.5303327863063
 30
0.0
 10
180.3193434464169
 20
100.6175869424981
 30
0.0
 10
180.4838969984318
 20
100.7597965614474
 30
0.0
 10
180.5718316946935
 20
100.8162594893245
 30
0.0
 10
180.7394102410444
 20
100.891168404871
 30
0.0
 10
180.8200071178518
 20
100.9099783239821
 30
0.0
 10
180.9148494833133
 20
100.9054104475088
 30
0.0
 10
180.9417737887353
 20
100.8985361920299
 30
0.0
 10
180.9843024637865
 20
100.8744460242037
 30
0.0
 10
180.9997887528586
 20
100.857038372254
 30
0.0
 10
181.0272130795468
 20
100.7931459959674
 30
0.0
 10
181.0208504760146
 20
100.7339762252345
 30
0.0
 10
180.9782003404792
 20
100.6005564171792
 30
0.0
 10
180.9427047331822
 20
100.5260010064172
 30
0.0
 10
180.8141673860123
 20
100.2836442751454
 30
0.0
 10
180.7029939665734
 20
100.1024522989862
 30
0.0
 10
180.4742681509511
 20
99.69875385594918
 30
0.0
 10
180.3532029673442
 20
99.47272919063609
 30
0.0
 10
180.1850889927919
 20
99.09419745370491
 30
0.0
 10
180.1307487761661
 20
98.96011894951161
 30
0.0
 10
180.0321237019251
 20
98.67793900316119
 30
0.0
 10
179.988120860363
 20
98.53124033039093
 30
0.0
 10
179.9173344328111
 20
98.22082354899825
 30
0.0
 10
179.8921442863554
 20
98.06231911926072
 30
0.0
 10
179.8712303119905
 20
97.75095554466122
 30
0.0
 10
179.8761921537434
 20
97.60323716603199
 30
0.0
 10
179.9143662721013
 20
97.33973516706001
 30
0.0
 10
179.9472025978006
 20
97.22519624802159
 30
0.0
 10
180.0279350601128
 20
97.03423055155302
 30
0.0
 10
180.0760367670547
 20
96.95604686358658
 30
0.0
 10
180.232479163772
 20
96.76225168564713
 30
0.0
 10
180.3492686235163
 20
96.68847653161929
 30
0.0
 10
180.5843255955996
 20
96.60542757483866
 30
0.0
 10
180.7001231825591
 20
96.59828418192299
 30
0.0
 10
180.8508238862679
 20
96.63005819935285
 30
0.0
 10
180.8971436740233
 20
96.64795565135145
 30
0.0
 10
180.9732268848835
 20
96.7015551717429
 30
0.0
 10
181.0026130403859
 20
96.73707434230731
 30
0.0
 10
181.0260740736138
 20
96.83118371711022
 30
0.0
 10
181.0190344298078
 20
96.89030419092455
 30
0.0
 10
180.970036732928
 20
97.00021142034201
 30
0.0
 10
180.9471836883502
 20
97.04085464564915
 30
0.0
 10
180.8918411706785
 20
97.12716212950325
 30
0.0
 10
180.8592520352513
 20
97.1732036327599
 30
0.0
 10
180.7504535603911
 20
97.32098244095958
 30
0.0
 10
180.6658328387389
 20
97.42945104327785
 30
0.0
 10
180.4956446099343
 20
97.66349790592312
 30
0.0
 10
180.4090145349885
 20
97.79050887066407
 30
0.0
 10
180.2498985336478
 20
98.05619483213701
 30
0.0
 10
180.1755846393589
 20
98.197771744712
 30
0.0
 10
180.0492558176136
 20
98.48850257052965
 30
0.0
 10
179.9968615525336
 20
98.63758453962723
 30
0.0
 10
179.9572712648937
 20
98.79119805931819
 30
0.0
  0
SPLINE
  5
120
330
1F
100
AcDbEntity
  8
0
  6
HIDDEN
 62
     7
370
     0
100
AcDbSpline
210
0.0
220
0.0
230
1.0
 70
    11
 71
     3
 72
    60
 73
    56
 74
     0
 42
0.000000001
 43
0.00000001
 40
0.0
 40
0.0
 40
0.0
 40
0.0
 40
0.0312500000000001
 40
0.0312500000000001
 40
0.0625000000000002
 40
0.0625000000000002
 40
0.1250000000000005
 40
0.1250000000000005
 40
0.1562500000000007
 40
0.1562500000000007
 40
0.1875000000000008
 40
0.1875000000000008
 40
0.218750000000001
 40
0.218750000000001
 40
0.2500000000000011
 40
0.2500000000000011
 40
0.3125000000000014
 40
0.3125000000000014
 40
0.3750000000000017
 40
0.3750000000000017
 40
0.4062500000000017
 40
0.4062500000000017
 40
0.4375000000000016
 40
0.4375000000000016
 40
0.4687500000000016
 40
0.4687500000000016
 40
0.5000000000000014
 40
0.5000000000000014
 40
0.5312500000000014
 40
0.5312500000000014
 40
0.5625000000000013
 40
0.5625000000000013
 40
0.6250000000000018
 40
0.6250000000000018
 40
0.6562500000000018
 40
0.6562500000000018
 40
0.6875000000000018
 40
0.6875000000000018
 40
0.7187500000000018
 40
0.7187500000000018
 40
0.7500000000000018
 40
0.7500000000000018
 40
0.7812500000000018
 40
0.7812500000000018
 40
0.8125000000000017
 40
0.8125000000000017
 40
0.8750000000000014
 40
0.8750000000000014
 40
0.9062500000000011
 40
0.9062500000000011
 40
0.9375000000000008
 40
0.9375000000000008
 40
0.9687500000000004
 40
0.9687500000000004
 40
1.0
 40
1.0
 40
1.0
 40
1.0
 10
182.3762463251134
 20
105.922427435772
 30
0.0
 10
182.2067187285428
 20
105.922427435772
 30
0.0
 10
182.0411208808353
 20
105.9341498437017
 30
0.0
 10
181.7170008041626
 20
105.9800850490434
 30
0.0
 10
181.557190739837
 20
106.0149272797247
 30
0.0
 10
181.1078491372956
 20
106.1507351249511
 30
0.0
 10
180.8381663975202
 20
106.2851742123115
 30
0.0
 10
180.4999816087627
 20
106.5486441652028
 30
0.0
 10
180.3964151751388
 20
106.6484227289638
 30
0.0
 10
180.2159637128389
 20
106.8669958478053
 30
0.0
 10
180.1388417465765
 20
106.9854149511096
 30
0.0
 10
180.0114238617694
 20
107.2431253203029
 30
0.0
 10
179.9609596689683
 20
107.3843831528668
 30
0.0
 10
179.8941182562858
 20
107.6763953978669
 30
0.0
 10
179.8768000547368
 20
107.828136221687
 30
0.0
 10
179.8751776628034
 20
108.3017863329074
 30
0.0
 10
179.9436656333471
 20
108.6311269857487
 30
0.0
 10
180.1977159397179
 20
109.2489244808369
 30
0.0
 10
180.3822988390733
 20
109.5381931867736
 30
0.0
 10
180.7196673094963
 20
109.9084778461872
 30
0.0
 10
180.8436564784632
 20
110.0229230434888
 30
0.0
 10
181.1098252236807
 20
110.2262285821782
 30
0.0
 10
181.2503619045047
 20
110.3141707539686
 30
0.0
 10
181.5480202398027
 20
110.4607703629794
 30
0.0
 10
181.7074876173452
 20
110.5198831661169
 30
0.0
 10
182.0331050014787
 20
110.5993355361249
 30
0.0
 10
182.1990719838658
 20
110.6202514336451
 30
0.0
 10
182.5379052299289
 20
110.6215010356827
 30
0.0
 10
182.7048959087641
 20
110.6016497004585
 30
0.0
 10
183.0305208225548
 20
110.5245351452886
 30
0.0
 10
183.1906519951119
 20
110.4664718881743
 30
0.0
 10
183.6413571544702
 20
110.2476790645035
 30
0.0
 10
183.9116156556209
 20
110.0396461430243
 30
0.0
 10
184.2513303845227
 20
109.669543724715
 30
0.0
 10
184.3552890283981
 20
109.5343037970846
 30
0.0
 10
184.5355981210198
 20
109.2526072344093
 30
0.0
 10
184.6130318296124
 20
109.1052688572599
 30
0.0
 10
184.7412806844569
 20
108.7972369342796
 30
0.0
 10
184.7915959753738
 20
108.6362532237987
 30
0.0
 10
184.8583442218651
 20
108.3181039139706
 30
0.0
 10
184.8758177310613
 20
108.1588168775858
 30
0.0
 10
184.8766595135917
 20
107.8399961528776
 30
0.0
 10
184.8598994160598
 20
107.6863760649538
 30
0.0
 10
184.7941472725559
 20
107.392686554719
 30
0.0
 10
184.7442924117823
 20
107.2509961567329
 30
0.0
 10
184.5533276262148
 20
106.8608070691948
 30
0.0
 10
184.3680314932449
 20
106.6391637154534
 30
0.0
 10
184.029142592425
 20
106.3743678236841
 30
0.0
 10
183.9039606700219
 20
106.295799914966
 30
0.0
 10
183.6380255340486
 20
106.1620104906563
 30
0.0
 10
183.4971699506498
 20
106.1062962834524
 30
0.0
 10
183.1975033541656
 20
106.0154614396597
 30
0.0
 10
183.037125172031
 20
105.9803819575535
 30
0.0
 10
182.7123880319823
 20
105.93422897394
 30
0.0
 10
182.5457739216839
 20
105.922427435772
 30
0.0
 10
182.3762463251134
 20
105.922427435772
 30
0.0
  0
ELLIPSE
  5
121
330
1F
100
AcDbEntity
  8
0
  6
HIDDEN
 62
     7
370
     0
100
AcDbEllipse
 10
162.3478192004
 20
72.1471588847
 30
0.0
 11
0.0
 21
2.0
 31
0.0
210
0.0
220
0.0
230
1.0
 40
0.4142135624
 41
4.712388980384702
 42
6.283185307179586
  0
LINE
  5
122
330
1F
100
AcDbEntity
  8
0
  6
HIDDEN
 62
     7
370
     0
100
AcDbLine
 10
162.3478192004
 20
74.1471588847
 30
0.0
 11
162.1762463251
 21
74.1471588847
 31
0.0
  0
LINE
  5
123
330
1F
100
AcDbEntity
  8
0
  6
HIDDEN
 62
     7
370
     0
100
AcDbLine
 10
162.1762463251
 20
144.7471588847
 30
0.0
 11
162.3478192004
 21
144.7471588847
 31
0.0
  0
ELLIPSE
  5
124
330
1F
100
AcDbEntity
  8
0
  6
HIDDEN
 62
     7
370
     0
100
AcDbEllipse
 10
162.3478192004
 20
146.7471588847
 30
0.0
 11
0.0
 21
2.0
 31
0.0
210
0.0
220
0.0
230
1.0
 40
0.4142135624
 41
3.141592653589793
 42
4.712388980384681
  0
LINE
  5
125
330
1F
100
AcDbEntity
  8
0
  6
HIDDEN
 62
     7
370
     0
100
AcDbLine
 10
163.1762463251
 20
62.1265887308
 30
0.0
 11
162.5623827452
 21
61.5127251509
 31
0.0
  0
LINE
  5
126
330
1F
100
AcDbEntity
  8
0
  6
HIDDEN
 62
     7
370
     0
100
AcDbLine
 10
162.5623827452
 20
157.3815926186
 30
0.0
 11
163.1762463251
 21
156.7677290386
 31
0.0
  0
LINE
  5
127
330
1F
100
AcDbEntity
  8
0
  6
HIDDEN
 62
     7
370
     0
100
AcDbLine
 10
175.4088153616
 20
62.1265887308
 30
0.0
 11
163.1762463251
 21
62.1265887308
 31
0.0
  0
LINE
  5
128
330
1F
100
AcDbEntity
  8
0
  6
HIDDEN
 62
     7
370
     0
100
AcDbLine
 10
163.1762463251
 20
62.1265887308
 30
0.0
 11
163.1762463251
 21
72.1471588847
 31
0.0
  0
LINE
  5
129
330
1F
100
AcDbEntity
  8
0
  6
HIDDEN
 62
     7
370
     0
100
AcDbLine
 10
179.3262463251
 20
144.7471588847
 30
0.0
 11
190.1762463251
 21
144.7471588847
 31
0.0
  0
SPLINE
  5
12A
330
1F
100
AcDbEntity
  8
0
  6
HIDDEN
 62
     7
370
     0
100
AcDbSpline
210
0.0
220
0.0
230
1.0
 70
     8
 71
     3
 72
    14
 73
    10
 74
     0
 42
0.000000001
 43
0.00000001
 40
0.0
 40
0.0
 40
0.0
 40
0.0
 40
0.1878282877490059
 40
0.3545816312883792
 40
0.5003024319339155
 40
0.6713282049363806
 40
0.837642206038603
 40
0.999416616499964
 40
1.0
 40
1.0
 40
1.0
 40
1.0
 10
189.2605460620001
 20
157.6531804866708
 30
0.0
 10
189.5935489843661
 20
157.7347284241275
 30
0.0
 10
190.2221908191578
 20
157.8886743554786
 30
0.0
 10
190.9216273910754
 20
158.0796530735976
 30
0.0
 10
191.4695044905474
 20
158.2370253606582
 30
0.0
 10
191.8756200846828
 20
158.3553507966689
 30
0.0
 10
192.1087479773649
 20
158.425727811284
 30
0.0
 10
192.2027373639468
 20
158.4553621625726
 30
0.0
 10
192.1760544708082
 20
158.4470996369678
 30
0.0
 10
192.1759585939229
 20
158.4470699480876
 30
0.0
  0
LINE
  5
12B
330
1F
100
AcDbEntity
  8
0
  6
HIDDEN
 62
     7
370
     0
100
AcDbLine
 10
189.7598802206
 20
157.7774944732
 30
0.0
 11
189.2605417736
 21
157.6532251411
 31
0.0
  0
SPLINE
  5
12C
330
1F
100
AcDbEntity
  8
0
  6
HIDDEN
 62
     7
370
     0
100
AcDbSpline
210
0.0
220
0.0
230
1.0
 70
     8
 71
     3
 72
    13
 73
     9
 74
     0
 42
0.000000001
 43
0.00000001
 40
0.0
 40
0.0
 40
0.0
 40
0.0
 40
0.0005825290635653
 40
0.1623661983779971
 40
0.3287385494559728
 40
0.4998718252132769
 40
0.7262528256497975
 40
1.0
 40
1.0
 40
1.0
 40
1.0
 10
192.1758121677196
 20
60.44729169138807
 30
0.0
 10
192.1759569537545
 20
60.44724734919478
 30
0.0
 10
192.2163126364801
 20
60.43488801160265
 30
0.0
 10
192.1021580295769
 20
60.47051709760101
 30
0.0
 10
191.8780409218802
 20
60.5383650605101
 30
0.0
 10
191.3987320308829
 20
60.67745823467454
 30
0.0
 10
190.6052243732347
 20
60.90770481544214
 30
0.0
 10
189.7362065007529
 20
61.12319038620458
 30
0.0
 10
189.2605460620001
 20
61.24113728278687
 30
0.0
  0
LINE
  5
12D
330
1F
100
AcDbEntity
  8
0
  6
HIDDEN
 62
     7
370
     0
100
AcDbLine
 10
163.1762463251
 20
156.7677290386
 30
0.0
 11
175.4088153616
 21
156.7677290386
 31
0.0
  0
LINE
  5
12E
330
1F
100
AcDbEntity
  8
0
  6
HIDDEN
 62
     7
370
     0
100
AcDbLine
 10
163.1762463251
 20
156.7677290386
 30
0.0
 11
163.1762463251
 21
146.7471588847
 31
0.0
  0
LINE
  5
12F
330
1F
100
AcDbEntity
  8
0
  6
HIDDEN
 62
     7
370
     0
100
AcDbLine
 10
190.1762463251
 20
74.1471588847
 30
0.0
 11
179.3262463251
 21
74.1471588847
 31
0.0
  0
LINE
  5
130
330
1F
100
AcDbEntity
  8
0
  6
HIDDEN
 62
     7
370
     0
100
AcDbLine
 10
179.3262463251
 20
74.1471588847
 30
0.0
 11
162.3478192004
 21
74.1471588847
 31
0.0
  0
LINE
  5
131
330
1F
100
AcDbEntity
  8
0
  6
HIDDEN
 62
     7
370
     0
100
AcDbLine
 10
162.3478192004
 20
144.7471588847
 30
0.0
 11
179.3262463251
 21
144.7471588847
 31
0.0
  0
LINE
  5
132
330
1F
100
AcDbEntity
  8
0
  6
HIDDEN
 62
     7
370
     0
100
AcDbLine
 10
67.3762463251
 20
96.9471588847
 30
0.0
 11
67.3762463251
 21
121.9471588847
 31
0.0
  0
LINE
  5
133
330
1F
100
AcDbEntity
  8
0
  6
HIDDEN
 62
     7
370
     0
100
AcDbLine
 10
70.6608506741
 20
98.9471588847
 30
0.0
 11
70.6608506741
 21
119.9471588847
 31
0.0
  0
CIRCLE
  5
134
330
1F
100
AcDbEntity
  8
0
  6
HIDDEN
 62
     7
370
     0
100
AcDbCircle
 10
244.9262463251
 20
109.4471588847
 30
0.0
 40
2.625
  0
LINE
  5
135
330
1F
100
AcDbEntity
  8
0
  6
HIDDEN
 62
     7
370
     0
100
AcDbLine
 10
115.3762463251
 20
98.9471588847
 30
0.0
 11
115.3762463251
 21
119.9471588847
 31
0.0
  0
LINE
  5
136
330
1F
100
AcDbEntity
  8
0
  6
HIDDEN
 62
     7
370
     0
100
AcDbLine
 10
119.131625194
 20
105.1971588847
 30
0.0
 11
119.131625194
 21
113.6971588847
 31
0.0
  0
LINE
  5
137
330
1F
100
AcDbEntity
  8
0
  6
HIDDEN
 62
     7
370
     0
100
AcDbLine
 10
251.838173273
 20
99.9221588847
 30
0.0
 11
251.838173273
 21
101.2540104991
 31
0.0
  0
LINE
  5
138
330
1F
100
AcDbEntity
  8
0
  6
HIDDEN
 62
     7
370
     0
100
AcDbLine
 10
251.838173273
 20
117.6403072703
 30
0.0
 11
251.838173273
 21
118.9721588847
 31
0.0
  0
LINE
  5
139
330
1F
100
AcDbEntity
  8
0
  6
HIDDEN
 62
     7
370
     0
100
AcDbLine
 10
251.8790868778
 20
117.6214602072
 30
0.0
 11
251.838173273
 21
117.6403072703
 31
0.0
  0
SPLINE
  5
13A
330
1F
100
AcDbEntity
  8
0
  6
HIDDEN
 62
     7
370
     0
100
AcDbSpline
210
0.0
220
0.0
230
1.0
 70
     8
 71
     3
 72
     8
 73
     4
 74
     0
 42
0.000000001
 43
0.00000001
 40
0.0
 40
0.0
 40
0.0
 40
0.0
 40
1.0
 40
1.0
 40
1.0
 40
1.0
 10
251.7262463251134
 20
114.5606902398251
 30
0.0
 10
251.7593962710485
 20
114.6897735061592
 30
0.0
 10
251.7933516392071
 20
114.8185893934616
 30
0.0
 10
251.8280492227937
 20
114.9471588847289
 30
0.0
  0
LINE
  5
13B
330
1F
100
AcDbEntity
  8
0
  6
HIDDEN
 62
     7
370
     0
100
AcDbLine
 10
251.7262463251
 20
104.3336275296
 30
0.0
 11
251.7262463251
 21
114.5606902398
 31
0.0
  0
SPLINE
  5
13C
330
1F
100
AcDbEntity
  8
0
  6
HIDDEN
 62
     7
370
     0
100
AcDbSpline
210
0.0
220
0.0
230
1.0
 70
     8
 71
     3
 72
     8
 73
     4
 74
     0
 42
0.000000001
 43
0.00000001
 40
0.0
 40
0.0
 40
0.0
 40
0.0
 40
1.0
 40
1.0
 40
1.0
 40
1.0
 10
251.8280492227937
 20
103.9471588847289
 30
0.0
 10
251.7933469642084
 20
104.0757456988798
 30
0.0
 10
251.759391682537
 20
104.204562130599
 30
0.0
 10
251.7262463251134
 20
104.3336275296326
 30
0.0
  0
LINE
  5
13D
330
1F
100
AcDbEntity
  8
0
  6
HIDDEN
 62
     7
370
     0
100
AcDbLine
 10
251.838173273
 20
101.2540104991
 30
0.0
 11
251.8795505078
 21
101.271495656
 31
0.0
  0
SPLINE
  5
13E
330
1F
100
AcDbEntity
  8
0
  6
HIDDEN
 62
     7
370
     0
100
AcDbSpline
210
0.0
220
0.0
230
1.0
 70
     8
 71
     3
 72
     9
 73
     5
 74
     0
 42
0.000000001
 43
0.00000001
 40
0.0
 40
0.0
 40
0.0
 40
0.0
 40
0.4951994982841695
 40
1.0
 40
1.0
 40
1.0
 40
1.0
 10
189.2605305395504
 20
157.6531710491415
 30
0.0
 10
189.3657267607542
 20
157.8103268086153
 30
0.0
 10
189.5781587635496
 20
158.1276852874066
 30
0.0
 10
189.7928771470668
 20
158.4463118355194
 30
0.0
 10
189.9012670947939
 20
158.6071546768667
 30
0.0
  0
SPLINE
  5
13F
330
1F
100
AcDbEntity
  8
0
  6
HIDDEN
 62
     7
370
     0
100
AcDbSpline
210
0.0
220
0.0
230
1.0
 70
     8
 71
     3
 72
     9
 73
     5
 74
     0
 42
0.000000001
 43
0.00000001
 40
0.0
 40
0.0
 40
0.0
 40
0.0
 40
0.5048004984987698
 40
1.0
 40
1.0
 40
1.0
 40
1.0
 10
189.9012670947939
 20
60.28716309259104
 30
0.0
 10
189.7928771477586
 20
60.44800593290904
 30
0.0
 10
189.5781587642433
 20
60.76663248101336
 30
0.0
 10
189.365726761441
 20
61.08399095981591
 30
0.0
 10
189.2605305395504
 20
61.24114672031612
 30
0.0
  0
LINE
  5
140
330
1F
100
AcDbEntity
  8
0
  6
HIDDEN
 62
     7
370
     0
100
AcDbLine
 10
249.9941955175
 20
107.4628454014
 30
0.0
 11
249.9941955175
 21
111.431472368
 31
0.0
  0
LINE
  5
141
330
1F
100
AcDbEntity
  8
0
  6
HIDDEN
 62
     7
370
     0
100
AcDbLine
 10
249.3262463251
 20
107.4628454014
 30
0.0
 11
249.3262463251
 21
111.431472368
 31
0.0
  0
LINE
  5
142
330
1F
100
AcDbEntity
  8
0
  6
HIDDEN
 62
     7
370
     0
100
AcDbLine
 10
249.3262463251
 20
107.4628454014
 30
0.0
 11
249.3262463251
 21
103.9471588847
 31
0.0
  0
LINE
  5
143
330
1F
100
AcDbEntity
  8
0
  6
HIDDEN
 62
     7
370
     0
100
AcDbLine
 10
249.9941955175
 20
107.4628454014
 30
0.0
 11
249.3262463251
 21
107.4628454014
 31
0.0
  0
SPLINE
  5
144
330
1F
100
AcDbEntity
  8
0
  6
HIDDEN
 62
     7
370
     0
100
AcDbSpline
210
0.0
220
0.0
230
1.0
 70
     8
 71
     3
 72
    10
 73
     6
 74
     0
 42
0.000000001
 43
0.00000001
 40
0.0
 40
0.0
 40
0.0
 40
0.0
 40
0.5
 40
0.5
 40
1.0
 40
1.0
 40
1.0
 40
1.0
 10
251.7262463251134
 20
104.8714075802981
 30
0.0
 10
251.3829982461886
 20
105.2611947907978
 30
0.0
 10
251.0550465617187
 20
105.669780710657
 30
0.0
 10
250.463751717063
 20
106.5308603011764
 30
0.0
 10
250.2013145984382
 20
106.9807431202545
 30
0.0
 10
249.9941955175445
 20
107.4628454014304
 30
0.0
  0
LINE
  5
145
330
1F
100
AcDbEntity
  8
0
  6
HIDDEN
 62
     7
370
     0
100
AcDbLine
 10
249.3262463251
 20
117.6403072703
 30
0.0
 11
251.838173273
 21
117.6403072703
 31
0.0
  0
LINE
  5
146
330
1F
100
AcDbEntity
  8
0
  6
HIDDEN
 62
     7
370
     0
100
AcDbLine
 10
249.3262463251
 20
117.6471588847
 30
0.0
 11
249.3262463251
 21
114.9471588847
 31
0.0
  0
LINE
  5
147
330
1F
100
AcDbEntity
  8
0
  6
HIDDEN
 62
     7
370
     0
100
AcDbLine
 10
249.3262463251
 20
114.9471588847
 30
0.0
 11
249.3262463251
 21
111.431472368
 31
0.0
  0
LINE
  5
148
330
1F
100
AcDbEntity
  8
0
  6
HIDDEN
 62
     7
370
     0
100
AcDbLine
 10
249.3262463251
 20
111.431472368
 30
0.0
 11
249.9941955175
 21
111.431472368
 31
0.0
  0
SPLINE
  5
149
330
1F
100
AcDbEntity
  8
0
  6
HIDDEN
 62
     7
370
     0
100
AcDbSpline
210
0.0
220
0.0
230
1.0
 70
     8
 71
     3
 72
    10
 73
     6
 74
     0
 42
0.000000001
 43
0.00000001
 40
0.0
 40
0.0
 40
0.0
 40
0.0
 40
0.5
 40
0.5
 40
1.0
 40
1.0
 40
1.0
 40
1.0
 10
249.9941955175445
 20
111.4314723680273
 30
0.0
 10
250.2001618177975
 20
111.9108913707039
 30
0.0
 10
250.4626105462789
 20
112.3619359604547
 30
0.0
 10
251.0579569194668
 20
113.2286345467783
 30
0.0
 10
251.3838515122181
 20
113.6340919343683
 30
0.0
 10
251.7262463251134
 20
114.0229101891596
 30
0.0
  0
LINE
  5
14A
330
1F
100
AcDbEntity
  8
0
  6
HIDDEN
 62
     7
370
     0
100
AcDbLine
 10
249.3262463251
 20
101.2540104991
 30
0.0
 11
251.838173273
 21
101.2540104991
 31
0.0
  0
LINE
  5
14B
330
1F
100
AcDbEntity
  8
0
  6
HIDDEN
 62
     7
370
     0
100
AcDbLine
 10
249.3262463251
 20
103.9471588847
 30
0.0
 11
249.3262463251
 21
101.2471588847
 31
0.0
  0
LINE
  5
14C
330
1F
100
AcDbEntity
  8
0
  6
HIDDEN
 62
     7
370
     0
100
AcDbLine
 10
248.7262463251
 20
102.4471588847
 30
0.0
 11
248.7262463251
 21
116.4471588847
 31
0.0
  0
LINE
  5
14D
330
1F
100
AcDbEntity
  8
0
  6
HIDDEN
 62
     7
370
     0
100
AcDbLine
 10
237.1762463251
 20
102.8471588847
 30
0.0
 11
237.1762463251
 21
116.0471582142
 31
0.0
  0
LINE
  5
14E
330
1F
100
AcDbEntity
  8
0
  6
HIDDEN
 62
     7
370
     0
100
AcDbLine
 10
239.1762463251
 20
102.4471588847
 30
0.0
 11
239.1762463251
 21
116.4471588847
 31
0.0
  0
LINE
  5
14F
330
1F
100
AcDbEntity
  8
0
  6
HIDDEN
 62
     7
370
     0
100
AcDbLine
 10
249.3262463251
 20
118.9721588847
 30
0.0
 11
249.3262463251
 21
117.6403072703
 31
0.0
  0
LINE
  5
150
330
1F
100
AcDbEntity
  8
0
  6
HIDDEN
 62
     7
370
     0
100
AcDbLine
 10
249.3262463251
 20
101.2540104991
 30
0.0
 11
249.3262463251
 21
99.9221588847
 31
0.0
  0
SPLINE
  5
151
330
1F
100
AcDbEntity
  8
0
  6
HIDDEN
 62
     7
370
     0
100
AcDbSpline
210
0.0
220
0.0
230
1.0
 70
    11
 71
     3
 72
    60
 73
    56
 74
     0
 42
0.000000001
 43
0.00000001
 40
0.0
 40
0.0
 40
0.0
 40
0.0
 40
0.0312500000000004
 40
0.0312500000000004
 40
0.0625000000000009
 40
0.0625000000000009
 40
0.1250000000000012
 40
0.1250000000000012
 40
0.1562500000000013
 40
0.1562500000000013
 40
0.1875000000000015
 40
0.1875000000000015
 40
0.2187500000000017
 40
0.2187500000000017
 40
0.2500000000000018
 40
0.2500000000000018
 40
0.3125000000000022
 40
0.3125000000000022
 40
0.3750000000000025
 40
0.3750000000000025
 40
0.4062500000000024
 40
0.4062500000000024
 40
0.4375000000000023
 40
0.4375000000000023
 40
0.4687500000000023
 40
0.4687500000000023
 40
0.5000000000000022
 40
0.5000000000000022
 40
0.5312500000000021
 40
0.5312500000000021
 40
0.562500000000002
 40
0.562500000000002
 40
0.6250000000000011
 40
0.6250000000000011
 40
0.6562500000000009
 40
0.6562500000000009
 40
0.6875000000000007
 40
0.6875000000000007
 40
0.7187500000000004
 40
0.7187500000000004
 40
0.7500000000000002
 40
0.7500000000000002
 40
0.7812500000000001
 40
0.7812500000000001
 40
0.8125
 40
0.8125
 40
0.8749999999999997
 40
0.8749999999999997
 40
0.9062499999999998
 40
0.9062499999999998
 40
0.9374999999999999
 40
0.9374999999999999
 40
0.96875
 40
0.96875
 40
1.0
 40
1.0
 40
1.0
 40
1.0
 10
182.3762463251134
 20
108.2734272297563
 30
0.0
 10
182.5457739216839
 20
108.2734272297563
 30
0.0
 10
182.7113717693915
 20
108.293750153108
 30
0.0
 10
183.0354918460641
 20
108.3714276238873
 30
0.0
 10
183.1953019103897
 20
108.4297512221178
 30
0.0
 10
183.6446435129312
 20
108.6489529254329
 30
0.0
 10
183.9143262527065
 20
108.8571978000994
 30
0.0
 10
184.2525110414641
 20
109.2262761649691
 30
0.0
 10
184.3560774750879
 20
109.3610765524117
 30
0.0
 10
184.5365289373878
 20
109.6433355756642
 30
0.0
 10
184.6136509036502
 20
109.7904536342253
 30
0.0
 10
184.7410687884574
 20
110.0966543485005
 30
0.0
 10
184.7915329812585
 20
110.2577895199096
 30
0.0
 10
184.8583743939409
 20
110.5763324504247
 30
0.0
 10
184.87569259549
 20
110.7350846328353
 30
0.0
 10
184.8773149874234
 20
111.2093875544608
 30
0.0
 10
184.8088270168797
 20
111.5105076902602
 30
0.0
 10
184.5547767105089
 20
112.0314946615433
 30
0.0
 10
184.3701938111535
 20
112.2527504873735
 30
0.0
 10
184.0328253407304
 20
112.5174218776965
 30
0.0
 10
183.9088361717636
 20
112.5956911556955
 30
0.0
 10
183.6426674265461
 20
112.7303327452924
 30
0.0
 10
183.502130745722
 20
112.7861622991805
 30
0.0
 10
183.2044724104241
 20
112.8770853866885
 30
0.0
 10
183.0450050328816
 20
112.9124399721678
 30
0.0
 10
182.719387648748
 20
112.9594531155286
 30
0.0
 10
182.5534206663609
 20
112.9715187936239
 30
0.0
 10
182.2145874202979
 20
112.9722452415048
 30
0.0
 10
182.0475967414627
 20
112.960798818786
 30
0.0
 10
181.7219718276719
 20
112.9152141976795
 30
0.0
 10
181.5618406551148
 20
112.8805463148777
 30
0.0
 10
181.1111354957566
 20
112.7450646969261
 30
0.0
 10
180.8408769946058
 20
112.6108771515153
 30
0.0
 10
180.501162265704
 20
112.3467803859986
 30
0.0
 10
180.3972036218286
 20
112.2466891012333
 30
0.0
 10
180.2168945292069
 20
112.0286088024258
 30
0.0
 10
180.1394608206144
 20
111.9100734378323
 30
0.0
 10
180.0112119657698
 20
111.650845113457
 30
0.0
 10
179.960896674853
 20
111.5096845355856
 30
0.0
 10
179.8941484283616
 20
111.2180290495332
 30
0.0
 10
179.8766749191654
 20
111.0658156399641
 30
0.0
 10
179.875833136635
 20
110.7473336281989
 30
0.0
 10
179.892593234167
 20
110.5869259718717
 30
0.0
 10
179.9583453776708
 20
110.267123503602
 30
0.0
 10
180.0082002384444
 20
110.1057763942566
 30
0.0
 10
180.1991650240119
 20
109.6428420283326
 30
0.0
 10
180.3844611569818
 20
109.3529443707243
 30
0.0
 10
180.7233500578017
 20
108.9822098944264
 30
0.0
 10
180.8485319802049
 20
108.8672119583806
 30
0.0
 10
181.1144671161782
 20
108.6650190883933
 30
0.0
 10
181.2553226995769
 20
108.5772046583496
 30
0.0
 10
181.5549892960611
 20
108.430634478924
 30
0.0
 10
181.7153674781958
 20
108.3719261579332
 30
0.0
 10
182.0401046182444
 20
108.29388748032
 30
0.0
 10
182.2067187285428
 20
108.2734272297563
 30
0.0
 10
182.3762463251134
 20
108.2734272297563
 30
0.0
  0
SPLINE
  5
152
330
1F
100
AcDbEntity
  8
0
  6
HIDDEN
 62
     7
370
     0
100
AcDbSpline
210
0.0
220
0.0
230
1.0
 70
    11
 71
     3
 72
    66
 73
    62
 74
     0
 42
0.000000001
 43
0.00000001
 40
0.0
 40
0.0
 40
0.0
 40
0.0
 40
0.0312500000000001
 40
0.0312500000000001
 40
0.0625000000000002
 40
0.0625000000000002
 40
0.0937500000000002
 40
0.0937500000000002
 40
0.1250000000000003
 40
0.1250000000000003
 40
0.1562500000000004
 40
0.1562500000000004
 40
0.1875000000000004
 40
0.1875000000000004
 40
0.2187500000000005
 40
0.2187500000000005
 40
0.2500000000000006
 40
0.2500000000000006
 40
0.2812500000000003
 40
0.2812500000000003
 40
0.3125000000000001
 40
0.3125000000000001
 40
0.3437499999999998
 40
0.3437499999999998
 40
0.3749999999999996
 40
0.3749999999999996
 40
0.4062499999999993
 40
0.4062499999999993
 40
0.4374999999999991
 40
0.4374999999999991
 40
0.4687499999999988
 40
0.4687499999999988
 40
0.4999999999999986
 40
0.4999999999999986
 40
0.5312499999999983
 40
0.5312499999999983
 40
0.562499999999998
 40
0.562499999999998
 40
0.6249999999999977
 40
0.6249999999999977
 40
0.6562499999999978
 40
0.6562499999999978
 40
0.687499999999998
 40
0.687499999999998
 40
0.7187499999999982
 40
0.7187499999999982
 40
0.7499999999999983
 40
0.7499999999999983
 40
0.7812499999999986
 40
0.7812499999999986
 40
0.8124999999999988
 40
0.8124999999999988
 40
0.843749999999999
 40
0.843749999999999
 40
0.8749999999999991
 40
0.8749999999999991
 40
0.9062499999999993
 40
0.9062499999999993
 40
0.9374999999999996
 40
0.9374999999999996
 40
1.0
 40
1.0
 40
1.0
 40
1.0
 10
182.3762463251134
 20
121.6086130916427
 30
0.0
 10
182.2110460344495
 20
121.6086130916426
 30
0.0
 10
182.0486134931529
 20
121.6241786829246
 30
0.0
 10
181.729055337563
 20
121.6851249547542
 30
0.0
 10
181.5702719995859
 20
121.7312469987395
 30
0.0
 10
181.2675339831065
 20
121.8515101863275
 30
0.0
 10
181.1239548179722
 20
121.9250538357482
 30
0.0
 10
180.8522250881042
 20
122.0985707586805
 30
0.0
 10
180.7235965245664
 20
122.1994434154671
 30
0.0
 10
180.4930307628993
 20
122.4194282043653
 30
0.0
 10
180.3895567616499
 20
122.5393073679541
 30
0.0
 10
180.2067962237241
 20
122.7991487345516
 30
0.0
 10
180.1291519674955
 20
122.9372381651238
 30
0.0
 10
180.0044593168054
 20
123.222220597372
 30
0.0
 10
179.956455336227
 20
123.3712157067145
 30
0.0
 10
179.8922235939087
 20
123.6757407941092
 30
0.0
 10
179.8763341498665
 20
123.8285101415457
 30
0.0
 10
179.8761592195113
 20
124.1349998231598
 30
0.0
 10
179.8923898708463
 20
124.2903265934548
 30
0.0
 10
179.9561710935558
 20
124.5903887993533
 30
0.0
 10
180.0033632049521
 20
124.7359235118525
 30
0.0
 10
180.1285298226101
 20
125.0180567921744
 30
0.0
 10
180.2067893099851
 20
125.1541966335291
 30
0.0
 10
180.3877094933404
 20
125.4057331832987
 30
0.0
 10
180.4909947222643
 20
125.5227600271419
 30
0.0
 10
180.724246464313
 20
125.7388353207634
 30
0.0
 10
180.8506603325786
 20
125.8345392446488
 30
0.0
 10
181.1213326032732
 20
126.0016922414204
 30
0.0
 10
181.2674143754375
 20
126.0738534270435
 30
0.0
 10
181.5702988209104
 20
126.1895074689999
 30
0.0
 10
181.7261291805501
 20
126.2330402761826
 30
0.0
 10
182.0464746698156
 20
126.291936179116
 30
0.0
 10
182.2121847557871
 20
126.3070222821359
 30
0.0
 10
182.5385161444836
 20
126.3071298138027
 30
0.0
 10
182.7007032303106
 20
126.292639156613
 30
0.0
 10
183.0230788115192
 20
126.2339110923358
 30
0.0
 10
183.1810942855567
 20
126.1897802852065
 30
0.0
 10
183.6325051606323
 20
126.0178506866085
 30
0.0
 10
183.9115846176844
 20
125.8462769939375
 30
0.0
 10
184.2576583221828
 20
125.5266261755712
 30
0.0
 10
184.3633003380974
 20
125.4075850461828
 30
0.0
 10
184.5450838140682
 20
125.1552652853244
 30
0.0
 10
184.6219716374522
 20
125.021800973953
 30
0.0
 10
184.7476261948226
 20
124.7400355614007
 30
0.0
 10
184.7959342707372
 20
124.5916148297697
 30
0.0
 10
184.8597521561776
 20
124.2925652319931
 30
0.0
 10
184.8760803332204
 20
124.1403621621259
 30
0.0
 10
184.8764098232801
 20
123.8303603032861
 30
0.0
 10
184.8603133114454
 20
123.6768376361881
 30
0.0
 10
184.7970845741842
 20
123.375308918609
 30
0.0
 10
184.7492479807737
 20
123.2253740933072
 30
0.0
 10
184.6239046628603
 20
122.9381549972163
 30
0.0
 10
184.5472079883351
 20
122.8017760829001
 30
0.0
 10
184.3661566216833
 20
122.5434205248859
 30
0.0
 10
184.2606810113224
 20
122.4207453485115
 30
0.0
 10
184.0301544426461
 20
122.2004916644595
 30
0.0
 10
183.9044350050158
 20
122.1015660930257
 30
0.0
 10
183.631668155819
 20
121.926727412104
 30
0.0
 10
183.485948779413
 20
121.8520505671236
 30
0.0
 10
183.034879674305
 20
121.6724243516309
 30
0.0
 10
182.7066469064411
 20
121.6086130916426
 30
0.0
 10
182.3762463251134
 20
121.6086130916426
 30
0.0
  0
SPLINE
  5
153
330
1F
100
AcDbEntity
  8
0
  6
HIDDEN
 62
     7
370
     0
100
AcDbSpline
210
0.0
220
0.0
230
1.0
 70
    11
 71
     3
 72
    60
 73
    56
 74
     0
 42
0.000000001
 43
0.00000001
 40
0.0
 40
0.0
 40
0.0
 40
0.0
 40
0.03125
 40
0.03125
 40
0.0625
 40
0.0625
 40
0.0937500000000001
 40
0.0937500000000001
 40
0.1250000000000001
 40
0.1250000000000001
 40
0.1562500000000001
 40
0.1562500000000001
 40
0.1875000000000001
 40
0.1875000000000001
 40
0.2187500000000001
 40
0.2187500000000001
 40
0.2500000000000002
 40
0.2500000000000002
 40
0.3125000000000006
 40
0.3125000000000006
 40
0.3750000000000009
 40
0.3750000000000009
 40
0.4062500000000009
 40
0.4062500000000009
 40
0.4375000000000009
 40
0.4375000000000009
 40
0.4531250000000009
 40
0.4531250000000009
 40
0.4687500000000009
 40
0.4687500000000009
 40
0.5000000000000001
 40
0.5000000000000001
 40
0.5624999999999998
 40
0.5624999999999998
 40
0.6249999999999996
 40
0.6249999999999996
 40
0.6874999999999992
 40
0.6874999999999992
 40
0.7187499999999993
 40
0.7187499999999993
 40
0.7499999999999994
 40
0.7499999999999994
 40
0.7812499999999997
 40
0.7812499999999997
 40
0.8124999999999998
 40
0.8124999999999998
 40
0.8437499999999999
 40
0.8437499999999999
 40
0.875
 40
0.875
 40
0.9062500000000001
 40
0.9062500000000001
 40
0.9375000000000003
 40
0.9375000000000003
 40
1.0
 40
1.0
 40
1.0
 40
1.0
 10
179.9572712648936
 20
118.916634085006
 30
0.0
 10
179.9968613477405
 20
118.785153553652
 30
0.0
 10
180.0491729686606
 20
118.6659697029723
 30
0.0
 10
180.1748930742632
 20
118.4507762156444
 30
0.0
 10
180.2493161047074
 20
118.3541883100362
 30
0.0
 10
180.4080264129004
 20
118.1936273982811
 30
0.0
 10
180.4929050127059
 20
118.1283481615791
 30
0.0
 10
180.6646782322478
 20
118.0308459870219
 30
0.0
 10
180.7486884685438
 20
118.0003708902247
 30
0.0
 10
180.8940843918224
 20
117.9806219218672
 30
0.0
 10
180.9523506403317
 20
117.9923984713634
 30
0.0
 10
181.0189553651417
 20
118.0568188141468
 30
0.0
 10
181.0261162495395
 20
118.1075319522266
 30
0.0
 10
181.0029709301573
 20
118.2305554646016
 30
0.0
 10
180.9740628441876
 20
118.301026690887
 30
0.0
 10
180.8986420863425
 20
118.4546483535514
 30
0.0
 10
180.8516966135661
 20
118.5382836217353
 30
0.0
 10
180.7000547219447
 20
118.8016638607454
 30
0.0
 10
180.5841275846815
 20
118.995212786169
 30
0.0
 10
180.3505020136992
 20
119.4320822580649
 30
0.0
 10
180.2318192469973
 20
119.6750873922523
 30
0.0
 10
180.0753479380416
 20
120.0861619307821
 30
0.0
 10
180.0273612894895
 20
120.2298334962654
 30
0.0
 10
179.9467522796992
 20
120.5302964242243
 30
0.0
 10
179.9140527508041
 20
120.6887956784986
 30
0.0
 10
179.8856321414602
 20
120.9240062003279
 30
0.0
 10
179.8794860694866
 20
121.0032538081244
 30
0.0
 10
179.8750078677218
 20
121.1549313785839
 30
0.0
 10
179.8765240781339
 20
121.2281394508922
 30
0.0
 10
179.8922870178104
 20
121.4398951821192
 30
0.0
 10
179.9177610724958
 20
121.5657933279807
 30
0.0
 10
180.0241258162446
 20
121.8875236939999
 30
0.0
 10
180.1300038455152
 20
122.0255374103599
 30
0.0
 10
180.3531740664603
 20
122.2113492614901
 30
0.0
 10
180.4740604985874
 20
122.2602732962463
 30
0.0
 10
180.7031429722692
 20
122.2963246220373
 30
0.0
 10
180.8133057905196
 20
122.2844464388355
 30
0.0
 10
180.9412889578707
 20
122.2198388772861
 30
0.0
 10
180.9776303032832
 20
122.1898316635227
 30
0.0
 10
181.0207203064433
 20
122.1093035399727
 30
0.0
 10
181.0272051150452
 20
122.057723122721
 30
0.0
 10
180.9911643623443
 20
121.9281759130953
 30
0.0
 10
180.9469451472191
 20
121.8483170886019
 30
0.0
 10
180.8212951724069
 20
121.6661876132969
 30
0.0
 10
180.7401710409255
 20
121.5621351732768
 30
0.0
 10
180.5732256708311
 20
121.3391712775975
 30
0.0
 10
180.4853375061012
 20
121.2173678955522
 30
0.0
 10
180.3196980088521
 20
120.9598066724926
 30
0.0
 10
180.2417519207147
 20
120.8243278121787
 30
0.0
 10
180.1024961870431
 20
120.5375734908306
 30
0.0
 10
180.0434704681441
 20
120.3911214529395
 30
0.0
 10
179.9496855144409
 20
120.0908767230376
 30
0.0
 10
179.9148724563314
 20
119.9351748669124
 30
0.0
 10
179.8565548516548
 20
119.4794118796507
 30
0.0
 10
179.8780910992
 20
119.1795951477139
 30
0.0
 10
179.9572712648936
 20
118.916634085006
 30
0.0
  0
LWPOLYLINE
  5
154
330
1F
100
AcDbEntity
  8
0
  6
HIDDEN
 62
     7
370
     0
100
AcDbPolyline
 90
       19
 70
   128
 43
0.0
 10
163.1585040256
 20
122.2338097439
 10
163.3268589481
 20
121.7256133234
 10
163.5956949018
 20
121.4218205685
 10
163.9325863032
 20
121.3590733688
 10
164.2968990771
 20
121.5449399628
 10
164.6446917265
 20
121.957002096
 10
164.9340153249
 20
122.5455589939
 10
165.1299731763
 20
123.2396220084
 10
165.208929872
 20
123.9554768966
 10
165.161362069
 20
124.6067809942
 10
164.9930071465
 20
125.1149774147
 10
164.7241711928
 20
125.4187701696
 10
164.3872797914
 20
125.4815173693
 10
164.0229670175
 20
125.2956507753
 10
163.6751743681
 20
124.8835886421
 10
163.3858507697
 20
124.2950317442
 10
163.1898929183
 20
123.6009687297
 10
163.1109362226
 20
122.8851138415
 10
163.1585040256
 20
122.2338097439
  0
LWPOLYLINE
  5
155
330
1F
100
AcDbEntity
  8
0
  6
HIDDEN
 62
     7
370
     0
100
AcDbPolyline
 90
       23
 70
   128
 43
0.0
 10
162.445633437
 20
121.7813342228
 10
162.6306277529
 20
121.1677668058
 10
162.9165346776
 20
120.7412241276
 10
163.2801917323
 20
120.5362621393
 10
163.6921375853
 20
120.5694856423
 10
164.1189988334
 20
120.8382030659
 10
164.526193717
 20
121.3206445227
 10
164.8807337283
 20
121.9777254748
 10
165.1538961441
 20
122.7562131316
 10
165.3235509701
 20
123.5930390527
 10
165.3759537812
 20
124.4204085789
 10
165.3068592132
 20
125.1712931518
 10
165.1218648973
 20
125.7848605689
 10
164.8359579727
 20
126.2114032471
 10
164.4723009179
 20
126.4163652353
 10
164.060355065
 20
126.3831417323
 10
163.6334938168
 20
126.1144243087
 10
163.2262989332
 20
125.631982852
 10
162.8717589219
 20
124.9749018998
 10
162.5985965061
 20
124.1964142431
 10
162.4289416801
 20
123.3595883219
 10
162.3765388691
 20
122.5322187957
 10
162.445633437
 20
121.7813342228
  0
CIRCLE
  5
156
330
1F
100
AcDbEntity
  8
0
  6
HIDDEN
 62
     7
370
     0
100
AcDbCircle
 10
244.9262463251
 20
109.4471588847
 30
0.0
 40
2.477364010367776
  0
CIRCLE
  5
157
330
1F
100
AcDbEntity
  8
0
  6
HIDDEN
 62
     7
370
     0
100
AcDbCircle
 10
244.9262463251
 20
109.4471588847
 30
0.0
 40
1.845534221835446
  0
CIRCLE
  5
158
330
1F
100
AcDbEntity
  8
0
  6
HIDDEN
 62
     7
370
     0
100
AcDbCircle
 10
244.9262463251
 20
109.4471588847
 30
0.0
 40
1.545534221835454
  0
LINE
  5
159
330
1F
100
AcDbEntity
  8
0
  6
HIDDEN
 62
     7
370
     0
100
AcDbLine
 10
185.3762463251
 20
95.0207973698
 30
0.0
 11
185.3762463251
 21
96.2793833667
 31
0.0
  0
LINE
  5
15A
330
1F
100
AcDbEntity
  8
0
  6
HIDDEN
 62
     7
370
     0
100
AcDbLine
 10
179.3762463251
 20
96.2793833667
 30
0.0
 11
179.3762463251
 21
95.0207973698
 31
0.0
  0
LINE
  5
15B
330
1F
100
AcDbEntity
  8
0
  6
HIDDEN
 62
     7
370
     0
100
AcDbLine
 10
179.3762463251
 20
123.8735203997
 30
0.0
 11
179.3762463251
 21
122.6149344028
 31
0.0
  0
LINE
  5
15C
330
1F
100
AcDbEntity
  8
0
  6
HIDDEN
 62
     7
370
     0
100
AcDbLine
 10
185.3762463251
 20
122.6149344028
 30
0.0
 11
185.3762463251
 21
123.8735203997
 31
0.0
  0
LINE
  5
15D
330
1F
100
AcDbEntity
  8
0
  6
HIDDEN
 62
     7
370
     0
100
AcDbLine
 10
162.8487463251
 20
96.2024354703
 30
0.0
 11
162.8487463251
 21
96.0266912449
 31
0.0
  0
LINE
  5
15E
330
1F
100
AcDbEntity
  8
0
  6
HIDDEN
 62
     7
370
     0
100
AcDbLine
 10
163.1572366023
 20
94.4644416403
 30
0.0
 11
163.2240386331
 21
94.301888506
 31
0.0
  0
LINE
  5
15F
330
1F
100
AcDbEntity
  8
0
  6
HIDDEN
 62
     7
370
     0
100
AcDbLine
 10
164.5830578906
 20
93.0093002735
 30
0.0
 11
168.0411658567
 21
93.6921570217
 31
0.0
  0
LINE
  5
160
330
1F
100
AcDbEntity
  8
0
  6
HIDDEN
 62
     7
370
     0
100
AcDbLine
 10
167.0725427257
 20
98.5974367517
 30
0.0
 11
163.6144347596
 21
97.9145800035
 31
0.0
  0
LINE
  5
161
330
1F
100
AcDbEntity
  8
0
  6
HIDDEN
 62
     7
370
     0
100
AcDbLine
 10
168.5802153278
 20
94.1895449931
 30
0.0
 11
168.9227260696
 21
94.9043781149
 31
0.0
  0
LINE
  5
162
330
1F
100
AcDbEntity
  8
0
  6
HIDDEN
 62
     7
370
     0
100
AcDbLine
 10
168.348711009
 20
97.8112924262
 30
0.0
 11
167.7601938125
 21
98.3422797235
 31
0.0
  0
LINE
  5
163
330
1F
100
AcDbEntity
  8
0
  6
HIDDEN
 62
     7
370
     0
100
AcDbLine
 10
167.7601938125
 20
120.552038046
 30
0.0
 11
168.348711009
 21
121.0830253433
 31
0.0
  0
LINE
  5
164
330
1F
100
AcDbEntity
  8
0
  6
HIDDEN
 62
     7
370
     0
100
AcDbLine
 10
168.9227260696
 20
123.9899396546
 30
0.0
 11
168.5802153278
 21
124.7047727764
 31
0.0
  0
LINE
  5
165
330
1F
100
AcDbEntity
  8
0
  6
HIDDEN
 62
     7
370
     0
100
AcDbLine
 10
163.6144347596
 20
120.9797377659
 30
0.0
 11
167.0725427257
 21
120.2968810177
 31
0.0
  0
LINE
  5
166
330
1F
100
AcDbEntity
  8
0
  6
HIDDEN
 62
     7
370
     0
100
AcDbLine
 10
168.0411658567
 20
125.2021607478
 30
0.0
 11
164.5830578906
 21
125.885017496
 31
0.0
  0
LINE
  5
167
330
1F
100
AcDbEntity
  8
0
  6
HIDDEN
 62
     7
370
     0
100
AcDbLine
 10
163.2240386331
 20
124.5924292634
 30
0.0
 11
163.1572366023
 21
124.4298761292
 31
0.0
  0
LINE
  5
168
330
1F
100
AcDbEntity
  8
0
  6
HIDDEN
 62
     7
370
     0
100
AcDbLine
 10
162.8487463251
 20
122.8676265246
 30
0.0
 11
162.8487463251
 21
122.6918822991
 31
0.0
  0
LINE
  5
169
330
1F
100
AcDbEntity
  8
0
  6
HIDDEN
 62
     7
370
     0
100
AcDbLine
 10
162.1762463251
 20
92.0243832819
 30
0.0
 11
164.4574202037
 21
92.4748362441
 31
0.0
  0
LINE
  5
16A
330
1F
100
AcDbEntity
  8
0
  6
HIDDEN
 62
     7
370
     0
100
AcDbLine
 10
163.2950724465
 20
98.3611719202
 30
0.0
 11
162.1762463251
 21
98.1402424482
 31
0.0
  0
LINE
  5
16B
330
1F
100
AcDbEntity
  8
0
  6
HIDDEN
 62
     7
370
     0
100
AcDbLine
 10
184.8762463251
 20
94.9119376184
 30
0.0
 11
184.8762463251
 21
107.9940145807
 31
0.0
  0
LINE
  5
16C
330
1F
100
AcDbEntity
  8
0
  6
HIDDEN
 62
     7
370
     0
100
AcDbLine
 10
179.8762463251
 20
97.754149125
 30
0.0
 11
179.8762463251
 21
94.9113665638
 31
0.0
  0
LINE
  5
16D
330
1F
100
AcDbEntity
  8
0
  6
HIDDEN
 62
     7
370
     0
100
AcDbLine
 10
179.8762463251
 20
107.9963965944
 30
0.0
 11
179.8762463251
 21
99.4060133814
 31
0.0
  0
LINE
  5
16E
330
1F
100
AcDbEntity
  8
0
  6
HIDDEN
 62
     7
370
     0
100
AcDbLine
 10
164.5667547623
 20
93.4138049138
 30
0.0
 11
180.7751900115
 21
96.6144104172
 31
0.0
  0
LINE
  5
16F
330
1F
100
AcDbEntity
  8
0
  6
HIDDEN
 62
     7
370
     0
100
AcDbLine
 10
180.7867857668
 20
100.8978015943
 30
0.0
 11
163.7531113323
 21
97.534239887
 31
0.0
  0
ARC
  5
170
330
1F
100
AcDbEntity
  8
0
  6
HIDDEN
 62
     7
370
     0
100
AcDbCircle
 10
58.5762463251
 20
95.7471588847
 30
0.0
 40
1.20000000000001
100
AcDbArc
 50
90.0
 51
180.0
  0
ARC
  5
171
330
1F
100
AcDbEntity
  8
0
  6
HIDDEN
 62
     7
370
     0
100
AcDbCircle
 10
58.5762463251
 20
123.1471588847
 30
0.0
 40
1.20000000000001
100
AcDbArc
 50
180.0
 51
270.0
  0
ARC
  5
172
330
1F
100
AcDbEntity
  8
0
  6
HIDDEN
 62
     7
370
     0
100
AcDbCircle
 10
190.1762463251
 20
146.7471588847
 30
0.0
 40
2.0
100
AcDbArc
 50
270.0
 51
0.0
  0
LINE
  5
173
330
1F
100
AcDbEntity
  8
0
  6
HIDDEN
 62
     7
370
     0
100
AcDbLine
 10
192.1762463251
 20
146.7471588847
 30
0.0
 11
192.1762463251
 21
158.5472622353
 31
0.0
  0
LINE
  5
174
330
1F
100
AcDbEntity
  8
0
  6
HIDDEN
 62
     7
370
     0
100
AcDbLine
 10
192.1762463251
 20
60.3469434976
 30
0.0
 11
192.1762463251
 21
72.1471588847
 31
0.0
  0
ARC
  5
175
330
1F
100
AcDbEntity
  8
0
  6
HIDDEN
 62
     7
370
     0
100
AcDbCircle
 10
190.1762463251
 20
72.1471588847
 30
0.0
 40
2.0
100
AcDbArc
 50
0.0
 51
90.0
  0
ARC
  5
176
330
1F
100
AcDbEntity
  8
0
  6
HIDDEN
 62
     7
370
     0
100
AcDbCircle
 10
69.1453062174
 20
97.1221588847
 30
0.0
 40
0.4000000000000199
100
AcDbArc
 50
270.0
 51
330.0
  0
ARC
  5
177
330
1F
100
AcDbEntity
  8
0
  6
HIDDEN
 62
     7
370
     0
100
AcDbCircle
 10
69.1453062174
 20
121.7721588847
 30
0.0
 40
0.4000000000000121
100
AcDbArc
 50
30.0
 51
90.0
  0
LINE
  5
178
330
1F
100
AcDbEntity
  8
0
  6
HIDDEN
 62
     7
370
     0
100
AcDbLine
 10
68.2686187559
 20
96.7221588847
 30
0.0
 11
69.1453062174
 21
96.7221588847
 31
0.0
  0
LINE
  5
179
330
1F
100
AcDbEntity
  8
0
  6
HIDDEN
 62
     7
370
     0
100
AcDbLine
 10
69.1453062174
 20
122.1721588847
 30
0.0
 11
68.2686187559
 21
122.1721588847
 31
0.0
  0
ARC
  5
17A
330
1F
100
AcDbEntity
  8
0
  6
HIDDEN
 62
     7
370
     0
100
AcDbCircle
 10
68.2686187559
 20
97.1221588847
 30
0.0
 40
0.4000000000000199
100
AcDbArc
 50
255.0
 51
270.0
  0
ARC
  5
17B
330
1F
100
AcDbEntity
  8
0
  6
HIDDEN
 62
     7
370
     0
100
AcDbCircle
 10
68.2686187559
 20
121.7721588847
 30
0.0
 40
0.4000000000000057
100
AcDbArc
 50
90.0
 51
105.0
  0
LINE
  5
17C
330
1F
100
AcDbEntity
  8
0
  6
HIDDEN
 62
     7
370
     0
100
AcDbLine
 10
68.1650911378
 20
122.1585292152
 30
0.0
 11
67.3762463251
 21
121.9471588847
 31
0.0
  0
LINE
  5
17D
330
1F
100
AcDbEntity
  8
0
  6
HIDDEN
 62
     7
370
     0
100
AcDbLine
 10
67.3762463251
 20
96.9471588847
 30
0.0
 11
68.1650911378
 21
96.7357885542
 31
0.0
  0
LINE
  5
17E
330
1F
100
AcDbEntity
  8
0
  6
HIDDEN
 62
     7
370
     0
100
AcDbLine
 10
69.491716379
 20
96.9221588847
 30
0.0
 11
70.6608506741
 21
98.9471588847
 31
0.0
  0
LINE
  5
17F
330
1F
100
AcDbEntity
  8
0
  6
HIDDEN
 62
     7
370
     0
100
AcDbLine
 10
70.6608506741
 20
119.9471588847
 30
0.0
 11
69.491716379
 21
121.9721588847
 31
0.0
  0
LINE
  5
180
330
1F
100
AcDbEntity
  8
0
  6
HIDDEN
 62
     7
370
     0
100
AcDbLine
 10
58.5762463251
 20
96.9471588847
 30
0.0
 11
67.3762463251
 21
96.9471588847
 31
0.0
  0
LINE
  5
181
330
1F
100
AcDbEntity
  8
0
  6
HIDDEN
 62
     7
370
     0
100
AcDbLine
 10
67.3762463251
 20
121.9471588847
 30
0.0
 11
58.5762463251
 21
121.9471588847
 31
0.0
  0
LINE
  5
182
330
1F
100
AcDbEntity
  8
0
  6
HIDDEN
 62
     7
370
     0
100
AcDbLine
 10
70.6608506741
 20
98.9471588847
 30
0.0
 11
115.3762463251
 21
98.9471588847
 31
0.0
  0
LINE
  5
183
330
1F
100
AcDbEntity
  8
0
  6
HIDDEN
 62
     7
370
     0
100
AcDbLine
 10
115.3762463251
 20
119.9471588847
 30
0.0
 11
70.6608506741
 21
119.9471588847
 31
0.0
  0
LINE
  5
184
330
1F
100
AcDbEntity
  8
0
  6
HIDDEN
 62
     7
370
     0
100
AcDbLine
 10
115.3762463251
 20
98.9471588847
 30
0.0
 11
119.131625194
 21
105.1971588847
 31
0.0
  0
LINE
  5
185
330
1F
100
AcDbEntity
  8
0
  6
HIDDEN
 62
     7
370
     0
100
AcDbLine
 10
119.131625194
 20
113.6971588847
 30
0.0
 11
115.3762463251
 21
119.9471588847
 31
0.0
  0
LINE
  5
186
330
1F
100
AcDbEntity
  8
0
  6
HIDDEN
 62
     7
370
     0
100
AcDbLine
 10
252.1762463251
 20
119.6971588847
 30
0.0
 11
251.838173273
 21
118.9721588847
 31
0.0
  0
LINE
  5
187
330
1F
100
AcDbEntity
  8
0
  6
HIDDEN
 62
     7
370
     0
100
AcDbLine
 10
251.838173273
 20
99.9221588847
 30
0.0
 11
252.1762463251
 21
99.1971588847
 31
0.0
  0
LINE
  5
188
330
1F
100
AcDbEntity
  8
0
  6
HIDDEN
 62
     7
370
     0
100
AcDbLine
 10
192.1762506455
 20
158.4471594084
 30
0.0
 11
193.1762504949
 21
159.4471591873
 31
0.0
  0
LINE
  5
189
330
1F
100
AcDbEntity
  8
0
  6
HIDDEN
 62
     7
370
     0
100
AcDbLine
 10
193.1762504955
 20
59.4471585815
 30
0.0
 11
192.1762506462
 21
60.4471583603
 31
0.0
  0
LINE
  5
18A
330
1F
100
AcDbEntity
  8
0
  6
HIDDEN
 62
     7
370
     0
100
AcDbLine
 10
251.8790868778
 20
117.6471588847
 30
0.0
 11
249.3262463251
 21
117.6471588847
 31
0.0
  0
LINE
  5
18B
330
1F
100
AcDbEntity
  8
0
  6
HIDDEN
 62
     7
370
     0
100
AcDbLine
 10
249.3262463251
 20
101.2471588847
 30
0.0
 11
251.8795505078
 21
101.2471588847
 31
0.0
  0
LINE
  5
18C
330
1F
100
AcDbEntity
  8
0
  6
HIDDEN
 62
     7
370
     0
100
AcDbLine
 10
249.3262463251
 20
116.7935690462
 30
0.0
 11
248.7262463251
 21
116.4471588847
 31
0.0
  0
LINE
  5
18D
330
1F
100
AcDbEntity
  8
0
  6
HIDDEN
 62
     7
370
     0
100
AcDbLine
 10
248.7262463251
 20
102.4471588847
 30
0.0
 11
249.3262463251
 21
102.1007487232
 31
0.0
  0
ARC
  5
18E
330
1F
100
AcDbEntity
  8
0
  6
HIDDEN
 62
     7
370
     0
100
AcDbCircle
 10
237.7762463251
 20
102.8471588847
 30
0.0
 40
0.6000000000000085
100
AcDbArc
 50
180.0
 51
270.0
  0
ARC
  5
18F
330
1F
100
AcDbEntity
  8
0
  6
HIDDEN
 62
     7
370
     0
100
AcDbCircle
 10
237.7762463251
 20
116.0471588847
 30
0.0
 40
0.5999999999999943
100
AcDbArc
 50
90.0
 51
180.0
  0
LINE
  5
190
330
1F
100
AcDbEntity
  8
0
  6
HIDDEN
 62
     7
370
     0
100
AcDbLine
 10
237.7762463251
 20
102.2471588847
 30
0.0
 11
238.350844665
 21
102.2471588847
 31
0.0
  0
LINE
  5
191
330
1F
100
AcDbEntity
  8
0
  6
HIDDEN
 62
     7
370
     0
100
AcDbLine
 10
238.350844665
 20
116.6471588847
 30
0.0
 11
237.7762463251
 21
116.6471588847
 31
0.0
  0
ARC
  5
192
330
1F
100
AcDbEntity
  8
0
  6
HIDDEN
 62
     7
370
     0
100
AcDbCircle
 10
238.350844665
 20
102.8471588847
 30
0.0
 40
0.6000000000000085
100
AcDbArc
 50
270.0
 51
285.0
  0
ARC
  5
193
330
1F
100
AcDbEntity
  8
0
  6
HIDDEN
 62
     7
370
     0
100
AcDbCircle
 10
238.350844665
 20
116.0471588847
 30
0.0
 40
0.6000000000000071
100
AcDbArc
 50
75.0
 51
90.0
  0
LINE
  5
194
330
1F
100
AcDbEntity
  8
0
  6
HIDDEN
 62
     7
370
     0
100
AcDbLine
 10
238.5061360921
 20
102.267603389
 30
0.0
 11
239.1762463251
 21
102.4471588847
 31
0.0
  0
LINE
  5
195
330
1F
100
AcDbEntity
  8
0
  6
HIDDEN
 62
     7
370
     0
100
AcDbLine
 10
239.1762463251
 20
116.4471588847
 30
0.0
 11
238.5061360921
 21
116.6267143805
 31
0.0
  0
LINE
  5
196
330
1F
100
AcDbEntity
  8
0
  6
HIDDEN
 62
     7
370
     0
100
AcDbLine
 10
239.1762463251
 20
102.4471588847
 30
0.0
 11
248.7262463251
 21
102.4471588847
 31
0.0
  0
LINE
  5
197
330
1F
100
AcDbEntity
  8
0
  6
HIDDEN
 62
     7
370
     0
100
AcDbLine
 10
248.7262463251
 20
116.4471588847
 30
0.0
 11
239.1762463251
 21
116.4471588847
 31
0.0
  0
LINE
  5
198
330
1F
100
AcDbEntity
  8
0
  6
HIDDEN
 62
     7
370
     0
100
AcDbLine
 10
251.838173273
 20
118.9721588847
 30
0.0
 11
249.3262463251
 21
118.9721588847
 31
0.0
  0
LINE
  5
199
330
1F
100
AcDbEntity
  8
0
  6
HIDDEN
 62
     7
370
     0
100
AcDbLine
 10
249.3262463251
 20
99.9221588847
 30
0.0
 11
251.838173273
 21
99.9221588847
 31
0.0
  0
LINE
  5
19A
330
1F
100
AcDbEntity
  8
0
  6
HIDDEN
 62
     7
370
     0
100
AcDbLine
 10
119.131625194
 20
105.1971588847
 30
0.0
 11
237.1762463251
 21
105.1971588847
 31
0.0
  0
LINE
  5
19B
330
1F
100
AcDbEntity
  8
0
  6
HIDDEN
 62
     7
370
     0
100
AcDbLine
 10
237.1762463251
 20
113.6971588847
 30
0.0
 11
119.131625194
 21
113.6971588847
 31
0.0
  0
LINE
  5
19C
330
1F
100
AcDbEntity
  8
0
  6
HIDDEN
 62
     7
370
     0
100
AcDbLine
 10
184.8762463251
 20
110.8979211751
 30
0.0
 11
184.8762463251
 21
123.9829512056
 31
0.0
  0
LINE
  5
19D
330
1F
100
AcDbEntity
  8
0
  6
HIDDEN
 62
     7
370
     0
100
AcDbLine
 10
179.8762463251
 20
119.4923897594
 30
0.0
 11
179.8762463251
 21
110.9003031887
 31
0.0
  0
LINE
  5
19E
330
1F
100
AcDbEntity
  8
0
  6
HIDDEN
 62
     7
370
     0
100
AcDbLine
 10
179.8762463251
 20
123.9823801511
 30
0.0
 11
179.8762463251
 21
121.1402553861
 31
0.0
  0
LINE
  5
19F
330
1F
100
AcDbEntity
  8
0
  6
HIDDEN
 62
     7
370
     0
100
AcDbLine
 10
251.8795505078
 20
117.6471588847
 30
0.0
 11
251.8790868778
 21
117.6471588847
 31
0.0
  0
LINE
  5
1A0
330
1F
100
AcDbEntity
  8
0
  6
HIDDEN
 62
     7
370
     0
100
AcDbLine
 10
163.7531113323
 20
121.3600778824
 30
0.0
 11
180.7862306817
 21
117.9966257852
 31
0.0
  0
LINE
  5
1A1
330
1F
100
AcDbEntity
  8
0
  6
HIDDEN
 62
     7
370
     0
100
AcDbLine
 10
180.7741107591
 20
122.2801204672
 30
0.0
 11
164.5667547623
 21
125.4805128557
 31
0.0
  0
LINE
  5
1A2
330
1F
100
AcDbEntity
  8
0
  6
HIDDEN
 62
     7
370
     0
100
AcDbLine
 10
162.1762463251
 20
120.7540753213
 30
0.0
 11
163.2950724465
 21
120.5331458493
 31
0.0
  0
LINE
  5
1A3
330
1F
100
AcDbEntity
  8
0
  6
HIDDEN
 62
     7
370
     0
100
AcDbLine
 10
164.4574202037
 20
126.4194815253
 30
0.0
 11
162.1762463251
 21
126.8699344875
 31
0.0
  0
DIMENSION
  5
1A4
330
1F
100
AcDbEntity
  8
VERMASSUNG
100
AcDbDimension
  2
_D
 10
52.327702393
 20
59.4471588847
 30
0.0
 11
52.327702393
 21
109.4471588847
 31
0.0
 70
   160
  1
MAS BT 50 %%c<>
 71
     2
 42
-1.0
  3
SLDDIMSTYLE0
100
AcDbAlignedDimension
 13
193.1762482336
 23
159.4471588847
 33
0.0
 14
193.1762483872
 24
59.4471588847
 34
0.0
 50
90.0
100
AcDbRotatedDimension
  0
DIMENSION
  5
1B1
330
1F
100
AcDbEntity
  8
VERMASSUNG
100
AcDbDimension
  2
_D_1
 10
252.1762463251
 20
179.2565754816
 30
0.0
 11
154.7762463251
 21
179.2565754816
 31
0.0
 70
   160
  1
<>
 71
     2
 42
-1.0
  3
SLDDIMSTYLE0
100
AcDbAlignedDimension
 13
57.3762463251
 23
127.7968367455
 33
0.0
 14
252.1762463251
 24
121.7471588847
 34
0.0
100
AcDbRotatedDimension
  0
DIMENSION
  5
1BB
330
1F
100
AcDbEntity
  8
VERMASSUNG
100
AcDbDimension
  2
_D_2
 10
252.1762463251
 20
173.2565754816
 30
0.0
 11
205.6762463251
 21
173.2565754816
 31
0.0
 70
   160
  1
<>
 71
     2
 42
-1.0
  3
SLDDIMSTYLE0
100
AcDbAlignedDimension
 13
159.1762463251
 23
144.3721588847
 33
0.0
 14
252.1762463251
 24
121.7471588847
 34
0.0
100
AcDbRotatedDimension
  0
DIMENSION
  5
1C5
330
1F
100
AcDbEntity
  8
VERMASSUNG
100
AcDbDimension
  2
_D_3
 10
252.1762463251
 20
167.2565754816
 30
0.0
 11
224.6762463251
 21
167.2565754816
 31
0.0
 70
   160
  1
<>
 71
     2
 42
-1.0
  3
SLDDIMSTYLE0
100
AcDbAlignedDimension
 13
197.1762463251
 23
158.4471588847
 33
0.0
 14
252.1762463251
 24
121.7471588847
 34
0.0
100
AcDbRotatedDimension
  0
DIMENSION
  5
1CF
330
1F
100
AcDbEntity
  8
VERMASSUNG
100
AcDbDimension
  2
_D_4
 10
260.4205783239
 20
96.9471588847
 30
0.0
 11
260.4205783239
 21
109.4471588847
 31
0.0
 70
   160
  1
MBM %%c<>
 71
     2
 42
-1.0
  3
SLDDIMSTYLE0
100
AcDbAlignedDimension
 13
251.9762463251
 23
121.9471588847
 33
0.0
 14
251.9762463251
 24
96.9471588847
 34
0.0
 50
90.0
100
AcDbRotatedDimension
  0
LINE
  5
1DB
330
1F
100
AcDbEntity
  8
VERMASSUNG
  6
CENTERX2
 62
     7
370
     0
100
AcDbLine
 10
55.3762463251
 20
109.4471588847
 30
0.0
 11
254.1762463251
 21
109.4471588847
 31
0.0
  0
OLE2FRAME
  5
1DC
330
1F
100
AcDbEntity
  8
0
100
AcDbOle2Frame
 70
     2
  3
Paintbrush-Bild
 10
13.8511154363
 20
38.264191557
 30
0.0
 11
51.6290888628
 21
31.9806341108
 31
0.0
 71
     2
 72
     0
 73
     1
 90
    12928
310
80552BED0767C5B32B40DDAF6807D121434000000000000000006FFBDDFB85D0
310
4940DDAF6807D121434000000000000000006FFBDDFB85D04940416F4BD60AFB
310
3F4000000000000000002BED0767C5B32B40416F4BD60AFB3F40000000000000
310
0000000000000100000000010000010000000100000000000100000000320000
310
D0CF11E0A1B11AE1000000000000000000000000000000003E000300FEFF0900
310
0600000000000000000000000100000001000000000000000010000002000000
310
01000000FEFFFFFF0000000000000000FFFFFFFFFFFFFFFFFFFFFFFFFFFFFFFF
310
FFFFFFFFFFFFFFFFFFFFFFFFFFFFFFFFFFFFFFFFFFFFFFFFFFFFFFFFFFFFFFFF
310
FFFFFFFFFFFFFFFFFFFFFFFFFFFFFFFFFFFFFFFFFFFFFFFFFFFFFFFFFFFFFFFF
310
FFFFFFFFFFFFFFFFFFFFFFFFFFFFFFFFFFFFFFFFFFFFFFFFFFFFFFFFFFFFFFFF
310
FFFFFFFFFFFFFFFFFFFFFFFFFFFFFFFFFFFFFFFFFFFFFFFFFFFFFFFFFFFFFFFF
310
FFFFFFFFFFFFFFFFFFFFFFFFFFFFFFFFFFFFFFFFFFFFFFFFFFFFFFFFFFFFFFFF
310
FFFFFFFFFFFFFFFFFFFFFFFFFFFFFFFFFFFFFFFFFFFFFFFFFFFFFFFFFFFFFFFF
310
FFFFFFFFFFFFFFFFFFFFFFFFFFFFFFFFFFFFFFFFFFFFFFFFFFFFFFFFFFFFFFFF
310
FFFFFFFFFFFFFFFFFFFFFFFFFFFFFFFFFFFFFFFFFFFFFFFFFFFFFFFFFFFFFFFF
310
FFFFFFFFFFFFFFFFFFFFFFFFFFFFFFFFFFFFFFFFFFFFFFFFFFFFFFFFFFFFFFFF
310
FFFFFFFFFFFFFFFFFFFFFFFFFFFFFFFFFFFFFFFFFFFFFFFFFFFFFFFFFFFFFFFF
310
FFFFFFFFFFFFFFFFFFFFFFFFFFFFFFFFFFFFFFFFFFFFFFFFFFFFFFFFFFFFFFFF
310
FFFFFFFFFFFFFFFFFFFFFFFFFFFFFFFFFFFFFFFFFFFFFFFFFFFFFFFFFFFFFFFF
310
FFFFFFFFFFFFFFFFFFFFFFFFFFFFFFFFFFFFFFFFFFFFFFFFFFFFFFFFFFFFFFFF
310
FDFFFFFFFEFFFFFFFEFFFFFFFEFFFFFF05000000060000000700000008000000
310
090000000A0000000B0000000C0000000D0000000E0000000F00000010000000
310
11000000120000001300000014000000150000001600000017000000FEFFFFFF
310
FFFFFFFFFFFFFFFFFFFFFFFFFFFFFFFFFFFFFFFFFFFFFFFFFFFFFFFFFFFFFFFF
310
FFFFFFFFFFFFFFFFFFFFFFFFFFFFFFFFFFFFFFFFFFFFFFFFFFFFFFFFFFFFFFFF
310
FFFFFFFFFFFFFFFFFFFFFFFFFFFFFFFFFFFFFFFFFFFFFFFFFFFFFFFFFFFFFFFF
310
FFFFFFFFFFFFFFFFFFFFFFFFFFFFFFFFFFFFFFFFFFFFFFFFFFFFFFFFFFFFFFFF
310
FFFFFFFFFFFFFFFFFFFFFFFFFFFFFFFFFFFFFFFFFFFFFFFFFFFFFFFFFFFFFFFF
310
FFFFFFFFFFFFFFFFFFFFFFFFFFFFFFFFFFFFFFFFFFFFFFFFFFFFFFFFFFFFFFFF
310
FFFFFFFFFFFFFFFFFFFFFFFFFFFFFFFFFFFFFFFFFFFFFFFFFFFFFFFFFFFFFFFF
310
FFFFFFFFFFFFFFFFFFFFFFFFFFFFFFFFFFFFFFFFFFFFFFFFFFFFFFFFFFFFFFFF
310
FFFFFFFFFFFFFFFFFFFFFFFFFFFFFFFFFFFFFFFFFFFFFFFFFFFFFFFFFFFFFFFF
310
FFFFFFFFFFFFFFFFFFFFFFFFFFFFFFFFFFFFFFFFFFFFFFFFFFFFFFFFFFFFFFFF
310
FFFFFFFFFFFFFFFFFFFFFFFFFFFFFFFFFFFFFFFFFFFFFFFFFFFFFFFFFFFFFFFF
310
FFFFFFFFFFFFFFFFFFFFFFFFFFFFFFFFFFFFFFFFFFFFFFFFFFFFFFFFFFFFFFFF
310
FFFFFFFFFFFFFFFFFFFFFFFFFFFFFFFFFFFFFFFFFFFFFFFFFFFFFFFFFFFFFFFF
310
52006F006F007400200045006E00740072007900000000000000000000000000
310
0000000000000000000000000000000000000000000000000000000000000000
310
16000500FFFFFFFFFFFFFFFF020000000A00030000000000C000000000000046
310
000000000000000000000000203B2CDB9B19D20103000000C000000000000000
310
01004F006C006500000000000000000000000000000000000000000000000000
310
0000000000000000000000000000000000000000000000000000000000000000
310
0A000200FFFFFFFFFFFFFFFFFFFFFFFF00000000000000000000000000000000
310
0000000000000000000000000000000000000000000000001400000000000000
310
010043006F006D0070004F0062006A0000000000000000000000000000000000
310
0000000000000000000000000000000000000000000000000000000000000000
310
120002010100000003000000FFFFFFFF00000000000000000000000000000000
310
0000000000000000000000000000000000000000010000004D00000000000000
310
01004F006C006500310030004E00610074006900760065000000000000000000
310
0000000000000000000000000000000000000000000000000000000000000000
310
1A000200FFFFFFFFFFFFFFFFFFFFFFFF00000000000000000000000000000000
310
0000000000000000000000000000000000000000040000002426000000000000
310
FEFFFFFF02000000FEFFFFFFFFFFFFFFFFFFFFFFFFFFFFFFFFFFFFFFFFFFFFFF
310
FFFFFFFFFFFFFFFFFFFFFFFFFFFFFFFFFFFFFFFFFFFFFFFFFFFFFFFFFFFFFFFF
310
FFFFFFFFFFFFFFFFFFFFFFFFFFFFFFFFFFFFFFFFFFFFFFFFFFFFFFFFFFFFFFFF
310
FFFFFFFFFFFFFFFFFFFFFFFFFFFFFFFFFFFFFFFFFFFFFFFFFFFFFFFFFFFFFFFF
310
FFFFFFFFFFFFFFFFFFFFFFFFFFFFFFFFFFFFFFFFFFFFFFFFFFFFFFFFFFFFFFFF
310
FFFFFFFFFFFFFFFFFFFFFFFFFFFFFFFFFFFFFFFFFFFFFFFFFFFFFFFFFFFFFFFF
310
FFFFFFFFFFFFFFFFFFFFFFFFFFFFFFFFFFFFFFFFFFFFFFFFFFFFFFFFFFFFFFFF
310
FFFFFFFFFFFFFFFFFFFFFFFFFFFFFFFFFFFFFFFFFFFFFFFFFFFFFFFFFFFFFFFF
310
FFFFFFFFFFFFFFFFFFFFFFFFFFFFFFFFFFFFFFFFFFFFFFFFFFFFFFFFFFFFFFFF
310
FFFFFFFFFFFFFFFFFFFFFFFFFFFFFFFFFFFFFFFFFFFFFFFFFFFFFFFFFFFFFFFF
310
FFFFFFFFFFFFFFFFFFFFFFFFFFFFFFFFFFFFFFFFFFFFFFFFFFFFFFFFFFFFFFFF
310
FFFFFFFFFFFFFFFFFFFFFFFFFFFFFFFFFFFFFFFFFFFFFFFFFFFFFFFFFFFFFFFF
310
FFFFFFFFFFFFFFFFFFFFFFFFFFFFFFFFFFFFFFFFFFFFFFFFFFFFFFFFFFFFFFFF
310
FFFFFFFFFFFFFFFFFFFFFFFFFFFFFFFFFFFFFFFFFFFFFFFFFFFFFFFFFFFFFFFF
310
FFFFFFFFFFFFFFFFFFFFFFFFFFFFFFFFFFFFFFFFFFFFFFFFFFFFFFFFFFFFFFFF
310
FFFFFFFFFFFFFFFFFFFFFFFFFFFFFFFFFFFFFFFFFFFFFFFFFFFFFFFFFFFFFFFF
310
0100000200000000000000000000000000000000000000000000000000000000
310
0000000000000000000000000000000000000000000000000000000000000000
310
0100FEFF030A0000FFFFFFFF0A00030000000000C00000000000004607000000
310
5042727573680007000000504272757368000700000050427275736800F439B2
310
7100000000000000000000000000000000000000000000000000000000000000
310
0000000000000000000000000000000000000000000000000000000000000000
310
0000000000000000000000000000000000000000000000000000000000000000
310
0000000000000000000000000000000000000000000000000000000000000000
310
0000000000000000000000000000000000000000000000000000000000000000
310
0000000000000000000000000000000000000000000000000000000000000000
310
0000000000000000000000000000000000000000000000000000000000000000
310
0000000000000000000000000000000000000000000000000000000000000000
310
0000000000000000000000000000000000000000000000000000000000000000
310
0000000000000000000000000000000000000000000000000000000000000000
310
0000000000000000000000000000000000000000000000000000000000000000
310
0000000000000000000000000000000000000000000000000000000000000000
310
20260000424D0E260000000000003E00000028000000B40200006E0000000100
310
01000000000000000000130B0000130B00000200000002000000000000FFFFFF
310
FFFFFFFFFFFFFFFFFFFFFFFFFFFFFFFFFFFFFFFFFFFFFFFFFFFFFFFFFFFFFFFF
310
FFFFFFFFFFFFFFFFFFFFFFFFFFFFFFFFFFFFFFFFFFFFFFFFFFFFFFFFFFFFFFFF
310
FFFFFFFFFFFFFFFFFFFFFFFFFFFFFFFFFFFFFFFFFFFFFFFFF000FFFFFFFFFFFF
310
FFFFFFFFFFFFFFFFFFFFFFFFFFFFFFFFFFFFFFFFFFFFFFFFFFFFFFFFFFFFFFFF
310
FFFFFFFFFFFFFFFFFFFFFFFFFFFFFFFFFFFFFFFFFFFFFFFFFFFFFFFFFFFFFFFF
310
FFFFFFFFFFFFFFFFFFFFFFFFFFFFFFFFF000FFFFFFFFFFFFFFFFFFFFFFFFFFFF
310
FFFFFFFFFFFFFFFFFFFFFFFFFFFFFFFFFFFFFFFFFFFFFFFFFFFFFFFFFFFFFFFF
310
FFFFFFFFFFFFFFFFFFFFFFFFFFFFFFFFFFFFFFFFFFFFFFFFFFFFFFFFFFFFFFFF
310
FFFFFFFFFFFFFFFFF000FFFFFFFFFFFFFFFFFFFFFFFFFFFFFFFFFFFFFFFFFFFF
310
FFFFFFFFFFFFFFFFFFFFFFFFFFFFFFFFFFFFFFFFFFFFFFFFFFFFFFFFFFFFFFFF
310
FFFFFFFFFFFFFFFFFFFFFFFFFFFFFFFFFFFFFFFFFFFFFFFFFFFFFFFFFFFFFFFF
310
F000FFFFFFFFFFFFFFFFFFFFFFFFFFFFFFFFFFFFFFFFFFFFFFFFFFFFFFFFFFFF
310
FFFFFFFFFFFFFFFFFFFFFFFFFFFFFFFFFFFFFFFFFFFFFFFFFFFFFFFFFFFFFFFF
310
FFFFFFFFFFFFFFFFFFFFFFFFFFFFFFFFFFFFFFFFFFFFFFFFF000FFFFFFFFFFFF
310
FFFFFFFFFFFFFFFFFFFFFFFFFFFFFFFFFFFFFFFFFFFFFFFFFFFFFFFFFFFFFFFF
310
FFFFFFFFFFFFFFFFFFFFFFFFFFFFFFFFFFFFFFFFFFFFFFFFFFFFFFFFFFFFFFFF
310
FFFFFFFFFFFFFFFFFFFFFFFFFFFFFFFFF000FFFFFFFFFFFFFFFFFFFFFFFFFFFF
310
FFFFFFFFFFFFFFFFFFFFFFFFFFFFFFFFFFFFFFFFFFFFFFFFFFFFFFFFFFFFFFFF
310
FFFFFFFFFFFFFFFFFFFFFFFFFFFFFFFFFFFFFFFFFFFFFFFFFFFFFFFFFFFFFFFF
310
FFFFFFFFFFFFFFFFF000FFFFFFFFFFFFFFFFFFFFFFFFFFFFFFFFFFFFFFFFFFFF
310
FFFFFFFFFFFFFFFFFFFFFFFFFFFFFFFFFFFFFFFFFFFFFFFFFFFFFFFFFFFFFFFF
310
FFFFFFFFFFFFFFFFFFFFFFFFFFFFFFFFFFFFFFFFFFFFFFFFFFFFFFFFFFFFFFFF
310
F000FFFFFFFFFFFFFFFFFFFFFFFFFFFFFFFFFFFFFFFFFFFFFFFFFFFFFFFFFFFF
310
FFFFFFFFFFFFFFFFFFFFFFFFFFFFFFFFFFFFFFFFFFFFFFFFFFFFFFFFFFFFFFFF
310
FFFFFFFFFFFFFFFFFFFFFFFFFFFFFFFFFFFFFFFFFFFFFFFFF000FFFFFFFFFFFF
310
FFFFFFFFFFFFFFFFFFFFFFFFFFFFFFFFFFFFFFFFFFFFFFFFFFFFFFFFFFFFFFFF
310
FFFFFFFFFFFFFFFFFFFFFFFFFFFFFFFFFFFFFFFFFFFFFFFFFFFFFFFFFFFFFFFF
310
FFFFFFFFFFFFFFFFFFFFFFFFFFFFFFFFF000FFFFFFFFFFFFFFFFFFFFFFFFFFFF
310
FFFFFFFFFFFFFFFFFFFFFFFFFFFFFFFFFFFFFFFFFFFFFFFFFFFFFFFFFFFFFFFF
310
FFFFFFFFFFFFFFFFFFFFFFFFFFFFFFFFFFFFFFFFFFFFFFFFFFFFFFFFFFFFFFFF
310
FFFFFFFFFFFFFFFFF000FFFFFFFFFFFFFFFFFFFFFFFFFFFFFFFFFFFFFFFFFFFF
310
FFFFFFFFFFFFFFFFFFFFFFFFFFFFFFFFFFFFFFFFFFFFFFFFFFFFFFFFFFFFFFFF
310
FFFFFFFFFFFFFFFFFFFFFFFFFFFFFFFFFFFFFFFFFFFFFFFFFFFFFFFFFFFFFFFF
310
F000FFFFFFFFFFFFFFFFFFFFFFFFFFFFFFFFFFFFFFFFFFFFFFFFFFFFFFFFFFFF
310
FFFFFFFFFFFFFFFFFFFFFFFFFFFFFFFFFFFFFFFFFFFFFFFFFFFFFFFFFFFFFFFF
310
FFFFFFFFFFFFFFFFFFFFFFFFFFFFFFFFFFFFFFFFFFFFFFFFF000FFFFFFFFFFFF
310
FFFFFFFFFFFFFFFFFFFFFFFFFFFFFFFFFFFFFFFFFFFFFFFFFFFFFFFFFFFFFFFF
310
FFFFFFFFFFFFFFFFFFFFFFFFFFFFFFFFFFFFFFFFFFFFFFFFFFFFFFFFFFFFFFFF
310
FFFFFFFFFFFFFFFFFFFFFFFFFFFFFFFFF000FFFFFFFFFFFFFFFFFFFFFFFFFFFF
310
FFFFFFFFFFFFFFFFFFFFFFFFFFFFFFFFFFFFFFFFFFFFFFFFFFFFFFFFFFFFFFFF
310
FFFFFFFFFFFFFFFFFFFFFFFFFFFFFFFFFFFFFFFFFFFFFFFFFFFFFFFFFFFFFFFF
310
FFFFFFFFFFFFFFFFF000FFFFFFFFFFFFFFFFFFFFFFFFFFFFFFFFFFFFFFFFFFFF
310
FFFFFFFFFFFFFFFFFFFFFFFFFFFFFFFFFFFFFFFFFFFFFFFFFFFFFFFFFFFFFFFF
310
FFFFFFFFFFFFFFFFFFFFFFFFFFFFFFFFFFFFFFFFFFFFFFFFFFFFFFFFFFFFFFFF
310
F000FFFFFFFFFFFFFFFFFFFFFFFFFFFFFFFFFFFFFFFFFFFFFFFFFFFFFFFFFFFF
310
FFFFFFFFFFFFFFFFFFFFFFFFFFFFFFFFFFFFFFFFFFFFFFFFFFFFFFFFFFFFFFFF
310
FFFFFFFFFFFFFFFFFFFFFFFFFFFFFFFFFFFFFFFFFFFFFFFFF000FFFFFFFFFFFF
310
FFFFFFFFFFFFFFFFFFFFFFFFFFFFFFFFFFFFFFFFFFFFFFFFFFFFFFFFFFFFFFFF
310
FFFFFFFFFFFFFFFFFFFFFFFFFFFFFFFFFFFFFFFFFFFFFFFFFFFFFFFFFFFFFFFF
310
FFFFFFFFFFFFFFFFFFFFFFFFFFFFFFFFF000FFFFFFFFFFFFFFFFFFFFFFFFFFFF
310
FFFFFFFFFFFFFFFFFFFFFFFFFFFFFFFFFFFFFFFFFFFFFFFFFFFFFFFFFFFFFFFF
310
FFFFFFFFFFFFFFFFFFFFFFFFFFFFFFFFFFFFFFFFFFFFFFFFFFFFFFFFFFFFFFFF
310
FFFFFFFFFFFFFFFFF000FFFFF80003FFFFFFFFFFFFFFFFFFFFFFFFFFFFFFFFFF
310
FFFFF00007FFFFFFFFFF00007FFFFFF800000000000000007FFFFFFFFFFFFFFF
310
FFFFFFFC001FFFFFFFFFFFFFFC001FFFFFFFFFFFFFFFFFFFFFFFFFFE0007FFFF
310
F000FFFF8000007FFFFFFFF8000FFFFFC0007FFFFF80007FFFFF0000007FFFFF
310
FFF8000007FFFFF800000000000000007FFFFFF0001FFFFFFFFFFFC00001FFFF
310
FFFFFFFFC00001FFFFFFFF000000000003FFFFE000007FFFF000FFFE0000000F
310
FFFFFFF0000FFFFF80007FFFFF80007FFFFC0000001FFFFFFFC0000001FFFFF8
310
00000000000000007FFFFFF0001FFFFFFFFFFE0000003FFFFFFFFFFE0000003F
310
FFFFFF000000000003FFFF0000000FFFF000FFF800000003FFFFFFF00007FFFF
310
80007FFFFF80007FFFF000000007FFFFFF000000003FFFF80000000000000000
310
7FFFFFF0001FFFFFFFFFF80000000FFFFFFFFFF80000000FFFFFFF0000000000
310
03FFFC00000003FFF000FFE000000000FFFFFFF00007FFFF80003FFFFF80007F
310
FFC000000001FFFFFC000000001FFFF800000000000000007FFFFFF0001FFFFF
310
FFFFE000000003FFFFFFFFE000000003FFFFFF000000000003FFF000000000FF
310
F000FF80000000007FFFFFF00007FFFF80003FFFFF80007FFF8000000000FFFF
310
F80000000007FFF800000000000000007FFFFFF0001FFFFFFFFFC000000001FF
310
FFFFFFC000000001FFFFFF000000000003FFC0000000007FF000FF0000000000
310
3FFFFFE00007FFFF00003FFFFF80007FFE00000000003FFFF00000000003FFF8
310
00000000000000007FFFFFF0001FFFFFFFFF8000000000FFFFFFFF8000000000
310
FFFFFF000000000003FF80000000003FF000FE00000000001FFFFFE00003FFFF
310
00003FFFFF80007FFC00000000001FFFE00000000001FFF8000001FFFE000000
310
7FFFFFF0001FFFFFFFFE00000000003FFFFFFE00000000003FFFFF0000000000
310
03FF00000000001FF000FC00000000000FFFFFE00003FFFF00001FFFFF80007F
310
F800000000001FFFC00000000000FFF8000001FFFE0000007FFFFFF0001FFFFF
310
FFFC00000000001FFFFFFC00000000001FFFFF000000000003FE00000000000F
310
F000F8000000000007FFFFE00003FFFF00001FFFFF80007FF800000000000FFF
310
800000000000FFF8000001FFFE0000007FFFFFF0001FFFFFFFF800000000000F
310
FFFFF800000000000FFFFF000000000003FC000000000007F000F80000000000
310
03FFFFC00003FFFE00001FFFFF80007FF0000000000007FF0000000000007FF8
310
000001FFFE0000007FFFFFF0001FFFFFFFF0000000000007FFFFF00000000000
310
07FFFF000000000003F8000000000003F000F0000000000003FFFFC00001FFFE
310
00001FFFFF80007FE0000000000007FE0000000000003FF8000001FFFE000000
310
7FFFFFF0001FFFFFFFF0000000000007FFFFF0000000000007FFFF0000000000
310
03F800001F800003F000E00001FFF00001FFFFC00001FFFE00000FFFFF80007F
310
E00001FFE00003FE00001FFF00003FF8000001FFFE0000007FFFFFF0001FFFFF
310
FFE000003E000003FFFFE000003E000003FFFF000000000003F00001FFF80001
310
F000E00007FFFC0001FFFFC00001FFFE00000FFFFF80007FC0000FFFFC0003FC
310
0000FFFFC0001FF8000001FFFE0000007FFFFFF0001FFFFFFFC00003FFE00001
310
FFFFC00003FFE00001FFFF0001FFFFFFFFF00007FFFE0001F000E0000FFFFF00
310
00FFFF800001FFFC00000FFFFF80007FC0001FFFFE0001FC0001FFFFE0001FF8
310
000001FFFE0000007FFFFFF0001FFFFFFF80000FFFF80000FFFF80000FFFF800
310
00FFFF0003FFFFFFFFE0000FFFFF8000F000C0003FFFFF8000FFFF800000FFFC
310
000007FFFF80007F80003FFFFF0001FC0003FFFFF0001FF8000001FFFE000000
310
7FFFFFF0001FFFFFFF80003FFFFE0000FFFF80003FFFFE0000FFFF0003FFFFFF
310
FFE0003FFFFF8000F000C0003FFFFF8000FFFF800000FFFC000007FFFF80007F
310
80007FFFFF8001F80007FFFFF8000FF8000001FFFE0000007FFFFFF0001FFFFF
310
FF00007FFFFF00007FFF00007FFFFF00007FFF0003FFFFFFFFE0003FFFFFC000
310
F000C0007FFFFFC000FFFF000000FFFC000007FFFF80007F8000FFFFFF8000F8
310
000FFFFFF8000FF8000001FFFE0000007FFFFFF0001FFFFFFF0000FFFFFF8000
310
7FFF0000FFFFFF80007FFF0003FFFFFFFFC0007FFFFFC00070008000FFFFFFC0
310
00FFFF000000FFF8000007FFFF80007F8000FFFFFF8000F8000FFFFFF8000FF8
310
000001FFFE0000007FFFFFF0001FFFFFFE0001FFFFFFC0003FFE0001FFFFFFC0
310
003FFF0003FFFFFFFFC0007FFFFFE00070008000FFFFFFC0007FFF0000007FF8
310
000003FFFF80007F0001FFFFFF8000F8000FFFFFF8000FF8000001FFFE000000
310
7FFFFFF0001FFFFFFE0001FFFFFFC0003FFE0001FFFFFFC0003FFF0003FFFFFF
310
FFC000FFFFFFE00070008000FFFFFFC0007FFF0000007FF8000003FFFF80007F
310
0001FFFFFF8000F8001FFFFFF8000FF8000001FFFE0000007FFFFFF0001FFFFF
310
FE0003FFFFFFE0003FFE0003FFFFFFE0003FFF0003FFFFFFFFC000FFFFFFE000
310
70008000FFFFFFC0007FFE0000007FF8000003FFFF80007F0001FFFFFF8000F0
310
001FFFFFF8000FF8000001FFFE0000007FFFFFF0001FFFFFFC0003FFFFFFE000
310
1FFC0003FFFFFFE0001FFF0003FFFFFFFFC000FFFFFFC00070008000FFFFFF80
310
007FFE0000007FF0000003FFFF80007F0001FFFFFF0000F0001FFFFFF8000FF8
310
000001FFFE0000007FFFFFF0001FFFFFFC0007FFFFFFF0001FFC0007FFFFFFF0
310
001FFF0003FFFFFFFFC000FFFFFFC00070008001FFFFFF0000FFFE0000003FF0
310
000001FFFF80007F0001FFFFFF0000F8001FFFFFF0000FF8000001FFFE000000
310
7FFFFFF0001FFFFFFC0007FFFFFFF0001FFC0007FFFFFFF0001FFF0003FFFFFF
310
FFC001FFFFFF80007000FFFFFFFFFE0000FFFE0008003FF0008001FFFF80007F
310
FFFFFFFFFC0000FFFFFFFFFFE0000FF8000001FFFE0000007FFFFFF0001FFFFF
310
F8000FFFFFFFF8000FF8000FFFFFFFF8000FFF0003FFFFFFFFFFFFFFFFFF0000
310
7000FFFFFFFFFC0000FFFC0008003FF0008001FFFF80007FFFFFFFFFF80001FF
310
FFFFFFFF80000FF8000001FFFE0000007FFFFFF0001FFFFFF8000FFFFFFFF800
310
0FF8000FFFFFFFF8000FFF0003FFFFFFFFFFFFFFFFFE0000F000FFFFFFFFE000
310
00FFFC000C003FE000C001FFFF80007FFFFFFFFFC00001FFFFFFFFFE00001FF8
310
000001FFFE0000007FFFFFF0001FFFFFF8000FFFFFFFF8000FF8000FFFFFFFF8
310
000FFF0003FFFFFFFFFFFFFFFFF00000F000FFFFFFFE000001FFFC000C001FE0
310
00C000FFFF80007FFFFFFFFE000001FFFFFFFFE000001FF80FFFFFFFFFFFFFC0
310
7FFFFFF0001FFFFFF8000FFFFFFFF8000FF8000FFFFFFFF8000FFF0003FFFFFF
310
FFFFFFFFFF800000F000FFFFFFC0000001FFFC001C001FE001C000FFFF80007F
310
FFFFFF80000003FFFFFFF80000001FF80FFFFFFFFFFFFFC07FFFFFF0001FFFFF
310
F8001FFFFFFFFC000FF8001FFFFFFFFC000FFF0003FFFFFFFFFFFFFFF0000001
310
F000FFFFF800000001FFF8001C001FE001C000FFFF80007FFFFFF800000003FF
310
FFFF800000003FF80FFFFFFFFFFFFFC07FFFFFF0001FFFFFF8001FFFFFFFFC00
310
0FF8001FFFFFFFFC000FFF0003FFFFFFFFFFFFFE00000001F000FFFFC0000000
310
03FFF8001E001FC001E000FFFF80007FFFFF8000000007FFFFFC000000003FF8
310
0FFFFFFFFFFFFFC07FFFFFF0001FFFFFF8001FFFFFFFFC000FF8001FFFFFFFFC
310
000FFF0003FFFFFFFFFFFFE000000003F000FFFE0000000007FFF8001E000FC0
310
01E0007FFF80007FFFFE0000000007FFFFE0000000007FF80FFFFFFFFFFFFFC0
310
7FFFFFF0001FFFFFF0001FFFFFFFFC0007F0001FFFFFFFFC0007FF0003FFFFFF
310
FFFFFF0000000003F000FFF80000000007FFF8001E000FC003E0007FFF80007F
310
FFF0000000000FFFFF8000000000FFF80FFFFFFFFFFFFFC07FFFFFF0001FFFFF
310
F0001FFFFFFFFC0007F0001FFFFFFFFC0007FF0003FFFFFFFFFFFC0000000007
310
F000FFE0000000000FFFF0003E000FC003E0007FFF80007FFFC0000000001FFF
310
FE0000000001FFF80FFFFFFFFFFFFFC07FFFFFF0001FFFFFF0001FFFFFFFFC00
310
07F0001FFFFFFFFC0007FF0003FFFFFFFFFFF0000000000FF000FFC000000000
310
1FFFF0003F000F8003F0003FFF80007FFF80000000003FFFF80000000003FFF8
310
0FFFFFFFFFFFFFC07FFFFFF0001FFFFFF0001FFFFFFFFC0007F0001FFFFFFFFC
310
0007FF0003FFFFFFFFFFE0000000001FF000FF00000000007FFFF0003F000780
310
03F0003FFF80007FFF00000000007FFFF00000000007FFF80FFFFFFFFFFFFFC0
310
7FFFFFF0001FFFFFF0001FFFFFFFFC0007F0001FFFFFFFFC0007FF0003FFFFFF
310
FFFF80000000007FF000FE0000000000FFFFE0003F00078007F0003FFF80007F
310
FE0000000001FFFFE0000000001FFFF80FFFFFFFFFFFFFC07FFFFFF0001FFFFF
310
F0001FFFFFFFFC0007F0001FFFFFFFFC0007FF0003FFFFFFFFFF0000000000FF
310
F000FC0000000003FFFFE0007F00078007F0003FFF80007FFC0000000007FFFF
310
C0000000007FFFF80FFFFFFFFFFFFFC07FFFFFF0001FFFFFF8001FFFFFFFFC00
310
0FF8001FFFFFFFFC000FFF0003FFFFFFFFFE0000000003FFF000FC000000000F
310
FFFFE0007F80070007F8001FFF80007FF8000000001FFFFF8000000001FFFFF8
310
0FFFFFFFFFFFFFC07FFFFFF0001FFFFFF8001FFFFFFFFC000FF8001FFFFFFFFC
310
000FFF0003FFFFFFFFFC000000000FFFF000F8000000007FFFFFE0007F800700
310
07F8001FFF80007FF000000000FFFFFF800000000FFFFFF80FFFFFFFFFFFFFC0
310
7FFFFFF0001FFFFFF8000FFFFFFFF8000FF8000FFFFFFFF8000FFF0003FFFFFF
310
FFFC000000007FFFF000F800000007FFFFFFC0007F8003000FF8001FFF80007F
310
F000000007FFFFFF000000007FFFFFF80FFFFFFFFFFFFFC07FFFFFF0001FFFFF
310
F8000FFFFFFFF8000FF8000FFFFFFFF8000FFF0003FFFFFFFFF80000000FFFFF
310
F000F0000000FFFFFFFFC000FF8003000FF8001FFF80007FE0000000FFFFFFFF
310
0000000FFFFFFFF8000001FFFE0000007FFFFFF0001FFFFFF8000FFFFFFFF800
310
0FF8000FFFFFFFF8000FFF0003FFFFFFFFF8000000FFFFFFF000F000000FFFFF
310
FFFFC000FFC002000FF8000FFF80007FE000001FFFFFFFFE000001FFFFFFFFF8
310
000001FFFE0000007FFFFFF0001FFFFFF8000FFFFFFFF8000FF8000FFFFFFFF8
310
000FFF0003FFFFFFFFF000001FFFFFFFF000E00000FFFFFFFFFFC000FFC00200
310
0FFC000FFF80007FE00001FFFFFFFFFE00001FFFFFFFFFF8000001FFFE000000
310
7FFFFFF0001FFFFFFC000FFFFFFFF8001FFC000FFFFFFFF8001FFF0003FFFFFF
310
FFF00001FFFFFFFFF000E00007FFFFFFFFFF8000FFC000001FFC000FFF80007F
310
C0000FFFFFFFFFFE0000FFFFFFFFFFF8000001FFFE0000007FFFFFF0001FFFFF
310
FC0007FFFFFFF0001FFC0007FFFFFFF0001FFF0003FFFFFFFFF00007FFFFFFFF
310
F000E0001FFFFFFFFFFF8000FFC000001FFC000FFF80007FC0003FFFFFFFFFFE
310
0001FFFFFFFFFFF8000001FFFE0000007FFFFFF0001FFFFFFC0007FFFFFFF000
310
1FFC0007FFFFFFF0001FFF0003FFFFFFFFF0001FFFFFFFFFF000E0003FFFFF00
310
03FF8001FFE000001FFC0007FF80007FC0007FFFFF0007FC0003FFFFF0003FF8
310
000001FFFE0000007FFFFFF0001FFFFFFC0003FFFFFFE0001FFC0003FFFFFFE0
310
001FFF0003FFFFFFFFF0003FFFFFFFFFF000E0003FFFFF0001FF8001FFE00000
310
1FFE0007FF80007FC0007FFFFE0003FC0007FFFFE0003FF8000001FFFE000000
310
7FFFFFF0001FFFFFFE0003FFFFFFE0003FFE0003FFFFFFE0003FFF0003FFFFFF
310
FFF0003FFFFF8001F000E0003FFFFF0001FF0001FFE000001FFE0007FF80007F
310
C0007FFFFE0003FC0007FFFFE0003FF8000001FFFE0000007FFFFFF0001FFFFF
310
FE0001FFFFFFC0003FFE0001FFFFFFC0003FFF0003FFFFFFFFF0003FFFFF0001
310
F000E0003FFFFF0003FF0001FFE000003FFE0007FF80007FC0007FFFFE0003FC
310
0007FFFFE0003FF8000001FFFE0000007FFFFFF0001FFFFFFF0001FFFFFFC000
310
7FFF0001FFFFFFC0007FFF0003FFFFFFFFF0003FFFFF0001F000E0003FFFFE00
310
03FF0003FFF000003FFE0003FF80007FC0007FFFFC0003FE0007FFFFE0003FF8
310
000001FFFE0000007FFFFFF0001FFFFFFF0000FFFFFF80007FFF0000FFFFFF80
310
007FFF0003FFFFFFFFF0003FFFFF0001F000E0003FFFFE0003FF0003FFF00000
310
3FFF0003FF80007FC0007FFFFC0007FE0007FFFFC0003FF8000001FFFE000000
310
7FFFFFF0001FFFFFFF80007FFFFF0000FFFF80007FFFFF0000FFFF0003FFFFFF
310
FFF0003FFFFF0003F000E0003FFFFC0003FE0003FFF000003FFF0003FF80007F
310
E0003FFFF80007FE0003FFFFC0007FF8000001FFFE0000007FFFFFF0001FFFFF
310
FF80003FFFFE0000FFFF80003FFFFE0000FFFF0003FFFFFFFFF0001FFFFE0003
310
F000F0001FFFF80003FE0003FFF000007FFF0001FF80007FE0003FFFF00007FE
310
0001FFFF80007FF8000001FFFE0000007FFFFFF0001FFFFFFFC0000FFFF80001
310
FFFFC0000FFFF80001FFFF0003FFFFFFFFF0001FFFFC0003F000F0000FFFF000
310
07FE0007FFF800007FFF0001FF80007FE0001FFFE00007FF0000FFFE00007FF8
310
000001FFFE0000007FFFFFF0001FFFFFFFC00003FFE00001FFFFC00003FFE000
310
01FFFF0003FFFFFFFFF8000FFFF80003F000F00003FFC00007FC0007FFF80000
310
7FFF8001FF80007FF00007FF80000FFF00007FF80000FFF8000001FFFE000000
310
7F80000000000001FFE000003E000003FFFFE000003E000003FFFF0003FFFFFF
310
FFF80003FFE00007F000F800000000000FFC0007FFF800007FFF8001FF80007F
310
F000000000000FFF000000000000FFF8000001FFFE0000007F80000000000001
310
FFF0000000000007FFFFF0000000000007FFFF0003FFFFFFFFFC00007E000007
310
F000F800000000000FFC0007FFF80000FFFF8000FF80007FF800000000001FFF
310
800000000001FFF8000001FFFE0000007F80000000000001FFF800000000000F
310
FFFFF800000000000FFFFF0003FFFFFFFFFC00000000000FF000FC0000000000
310
1FFC0007FFFC0000FFFF8000FF80007FF800000000003FFFC00000000001FFF8
310
000001FFFE0000007F80000000000001FFF800000000000FFFFFF80000000000
310
0FFFFF0003FFFFFFFFFE00000000001FF000FE00000000003FF8000FFFFC0000
310
FFFF8000FF80007FFC00000000003FFFC00000000003FFF8000001FFFE000000
310
7F80000000000001FFFC00000000001FFFFFFC00000000001FFFFF0003FFFFFF
310
FFFF00000000001FF000FF00000000003FF8000FFFFC0000FFFFC000FF80007F
310
FE00000000007FFFE00000000007FFF8000001FFFE0000007F80000000000001
310
FFFE00000000003FFFFFFE00000000003FFFFF0003FFFFFFFFFF80000000003F
310
F000FF80000000007FF8000FFFFC0001FFFFC0007F80007FFF0000000000FFFF
310
F0000000000FFFF800000000000000007F80000000000001FFFF8000000000FF
310
FFFFFF8000000000FFFFFF0003FFFFFFFFFFC0000000007FF000FFC000000000
310
FFF8000FFFFE0001FFFFC0007F80007FFF8000000001FFFFF8000000001FFFF8
310
00000000000000007F80000000000001FFFFC000000001FFFFFFFFC000000001
310
FFFFFF0003FFFFFFFFFFE000000000FFF000FFE000000003FFF0001FFFFE0001
310
FFFFC0007F80007FFFC000000007FFFFFE000000003FFFF80000000000000000
310
7F80000000000001FFFFE000000003FFFFFFFFE000000003FFFFFF0003FFFFFF
310
FFFFF000000003FFF000FFF80000000FFFF0001FFFFE0001FFFFE0007F80007F
310
FFF00000000FFFFFFF00000000FFFFF800000000000000007F80000000000001
310
FFFFF80000000FFFFFFFFFF80000000FFFFFFF0003FFFFFFFFFFFC0000000FFF
310
F000FFFE0000003FFFF0001FFFFE0003FFFFE0003F80007FFFFC0000003FFFFF
310
FFC0000003FFFFF800000000000000007F80000000000001FFFFFE0000003FFF
310
FFFFFFFE0000003FFFFFFF0003FFFFFFFFFFFF0000003FFFF000FFFF800000FF
310
FFF0001FFFFF0003FFFFE0003F80007FFFFF000001FFFFFFFFF800001FFFFFF8
310
00000000000000007F80000000000001FFFFFFC00001FFFFFFFFFFFFC00001FF
310
FFFFFF0003FFFFFFFFFFFFC00000FFFFF000FFFFF8000FFFFFFFFFFFFFFFFFFF
310
FFFFFFFFFFFFFFFFFFFFF0001FFFFFFFFFFF0000FFFFFFF80000000000000000
310
7FFFFFFFFFFFFFFFFFFFFFFC001FFFFFFFFFFFFFFC001FFFFFFFFFFFFFFFFFFF
310
FFFFFFFC001FFFFFF000FFFFFFFFFFFFFFFFFFFFFFFFFFFFFFFFFFFFFFFFFFFF
310
FFFFFFFFFFFFFFFFFFFFFFFFFFFFFFFFFFFFFFFFFFFFFFFFFFFFFFFFFFFFFFFF
310
FFFFFFFFFFFFFFFFFFFFFFFFFFFFFFFFFFFFFFFFFFFFFFFFFFFFFFFFFFFFFFFF
310
F000FFFFFFFFFFFFFFFFFFFFFFFFFFFFFFFFFFFFFFFFFFFFFFFFFFFFFFFFFFFF
310
FFFFFFFFFFFFFFFFFFFFFFFFFFFFFFFFFFFFFFFFFFFFFFFFFFFFFFFFFFFFFFFF
310
FFFFFFFFFFFFFFFFFFFFFFFFFFFFFFFFFFFFFFFFFFFFFFFFF000FFFFFFFFFFFF
310
FFFFFFFFFFFFFFFFFFFFFFFFFFFFFFFFFFFFFFFFFFFFFFFFFFFFFFFFFFFFFFFF
310
FFFFFFFFFFFFFFFFFFFFFFFFFFFFFFFFFFFFFFFFFFFFFFFFFFFFFFFFFFFFFFFF
310
FFFFFFFFFFFFFFFFFFFFFFFFFFFFFFFFF000FFFFFFFFFFFFFFFFFFFFFFFFFFFF
310
FFFFFFFFFFFFFFFFFFFFFFFFFFFFFFFFFFFFFFFFFFFFFFFFFFFFFFFFFFFFFFFF
310
FFFFFFFFFFFFFFFFFFFFFFFFFFFFFFFFFFFFFFFFFFFFFFFFFFFFFFFFFFFFFFFF
310
FFFFFFFFFFFFFFFFF000FFFFFFFFFFFFFFFFFFFFFFFFFFFFFFFFFFFFFFFFFFFF
310
FFFFFFFFFFFFFFFFFFFFFFFFFFFFFFFFFFFFFFFFFFFFFFFFFFFFFFFFFFFFFFFF
310
FFFFFFFFFFFFFFFFFFFFFFFFFFFFFFFFFFFFFFFFFFFFFFFFFFFFFFFFFFFFFFFF
310
F000FFFFFFFFFFFFFFFFFFFFFFFFFFFFFFFFFFFFFFFFFFFFFFFFFFFFFFFFFFFF
310
FFFFFFFFFFFFFFFFFFFFFFFFFFFFFFFFFFFFFFFFFFFFFFFFFFFFFFFFFFFFFFFF
310
FFFFFFFFFFFFFFFFFFFFFFFFFFFFFFFFFFFFFFFFFFFFFFFFF000FFFFFFFFFFFF
310
FFFFFFFFFFFFFFFFFFFFFFFFFFFFFFFFFFFFFFFFFFFFFFFFFFFFFFFFFFFFFFFF
310
FFFFFFFFFFFFFFFFFFFFFFFFFFFFFFFFFFFFFFFFFFFFFFFFFFFFFFFFFFFFFFFF
310
FFFFFFFFFFFFFFFFFFFFFFFFFFFFFFFFF000FFFFFFFFFFFFFFFFFFFFFFFFFFFF
310
FFFFFFFFFFFFFFFFFFFFFFFFFFFFFFFFFFFFFFFFFFFFFFFFFFFFFFFFFFFFFFFF
310
FFFFFFFFFFFFFFFFFFFFFFFFFFFFFFFFFFFFFFFFFFFFFFFFFFFFFFFFFFFFFFFF
310
FFFFFFFFFFFFFFFFF000FFFFFFFFFFFFFFFFFFFFFFFFFFFFFFFFFFFFFFFFFFFF
310
FFFFFFFFFFFFFFFFFFFFFFFFFFFFFFFFFFFFFFFFFFFFFFFFFFFFFFFFFFFFFFFF
310
FFFFFFFFFFFFFFFFFFFFFFFFFFFFFFFFFFFFFFFFFFFFFFFFFFFFFFFFFFFFFFFF
310
F000FFFFFFFFFFFFFFFFFFFFFFFFFFFFFFFFFFFFFFFFFFFFFFFFFFFFFFFFFFFF
310
FFFFFFFFFFFFFFFFFFFFFFFFFFFFFFFFFFFFFFFFFFFFFFFFFFFFFFFFFFFFFFFF
310
FFFFFFFFFFFFFFFFFFFFFFFFFFFFFFFFFFFFFFFFFFFFFFFFF000FFFFFFFFFFFF
310
FFFFFFFFFFFFFFFFFFFFFFFFFFFFFFFFFFFFFFFFFFFFFFFFFFFFFFFFFFFFFFFF
310
FFFFFFFFFFFFFFFFFFFFFFFFFFFFFFFFFFFFFFFFFFFFFFFFFFFFFFFFFFFFFFFF
310
FFFFFFFFFFFFFFFFFFFFFFFFFFFFFFFFF000FFFFFFFFFFFFFFFFFFFFFFFFFFFF
310
FFFFFFFFFFFFFFFFFFFFFFFFFFFFFFFFFFFFFFFFFFFFFFFFFFFFFFFFFFFFFFFF
310
FFFFFFFFFFFFFFFFFFFFFFFFFFFFFFFFFFFFFFFFFFFFFFFFFFFFFFFFFFFFFFFF
310
FFFFFFFFFFFFFFFFF000FFFFFFFFFFFFFFFFFFFFFFFFFFFFFFFFFFFFFFFFFFFF
310
FFFFFFFFFFFFFFFFFFFFFFFFFFFFFFFFFFFFFFFFFFFFFFFFFFFFFFFFFFFFFFFF
310
FFFFFFFFFFFFFFFFFFFFFFFFFFFFFFFFFFFFFFFFFFFFFFFFFFFFFFFFFFFFFFFF
310
F000FFFFFFFFFFFFFFFFFFFFFFFFFFFFFFFFFFFFFFFFFFFFFFFFFFFFFFFFFFFF
310
FFFFFFFFFFFFFFFFFFFFFFFFFFFFFFFFFFFFFFFFFFFFFFFFFFFFFFFFFFFFFFFF
310
FFFFFFFFFFFFFFFFFFFFFFFFFFFFFFFFFFFFFFFFFFFFFFFFF000FFFFFFFFFFFF
310
FFFFFFFFFFFFFFFFFFFFFFFFFFFFFFFFFFFFFFFFFFFFFFFFFFFFFFFFFFFFFFFF
310
FFFFFFFFFFFFFFFFFFFFFFFFFFFFFFFFFFFFFFFFFFFFFFFFFFFFFFFFFFFFFFFF
310
FFFFFFFFFFFFFFFFFFFFFFFFFFFFFFFFF000FFFFFFFFFFFFFFFFFFFFFFFFFFFF
310
FFFFFFFFFFFFFFFFFFFFFFFFFFFFFFFFFFFFFFFFFFFFFFFFFFFFFFFFFFFFFFFF
310
FFFFFFFFFFFFFFFFFFFFFFFFFFFFFFFFFFFFFFFFFFFFFFFFFFFFFFFFFFFFFFFF
310
FFFFFFFFFFFFFFFFF000FFFFFFFFFFFFFFFFFFFFFFFFFFFFFFFFFFFFFFFFFFFF
310
FFFFFFFFFFFFFFFFFFFFFFFFFFFFFFFFFFFFFFFFFFFFFFFFFFFFFFFFFFFFFFFF
310
FFFFFFFFFFFFFFFFFFFFFFFFFFFFFFFFFFFFFFFFFFFFFFFFFFFFFFFFFFFFFFFF
310
F000FFFFFFFFFFFFFFFFFFFFFFFFFFFFFFFFFFFFFFFFFFFFFFFFFFFFFFFFFFFF
310
FFFFFFFFFFFFFFFFFFFFFFFFFFFFFFFFFFFFFFFFFFFFFFFFFFFFFFFFFFFFFFFF
310
FFFFFFFFFFFFFFFFFFFFFFFFFFFFFFFFFFFFFFFFFFFFFFFFF000FFFFFFFFFFFF
310
FFFFFFFFFFFFFFFFFFFFFFFFFFFFFFFFFFFFFFFFFFFFFFFFFFFFFFFFFFFFFFFF
310
FFFFFFFFFFFFFFFFFFFFFFFFFFFFFFFFFFFFFFFFFFFFFFFFFFFFFFFFFFFFFFFF
310
FFFFFFFFFFFFFFFFFFFFFFFFFFFFFFFFF000FFFFFFFFFFFFFFFFFFFFFFFFFFFF
310
FFFFFFFFFFFFFFFFFFFFFFFFFFFFFFFFFFFFFFFFFFFFFFFFFFFFFFFFFFFFFFFF
310
FFFFFFFFFFFFFFFFFFFFFFFFFFFFFFFFFFFFFFFFFFFFFFFFFFFFFFFFFFFFFFFF
310
FFFFFFFFFFFFFFFFF000FFFFFFFFFFFFFFFFFFFFFFFFFFFFFFFFFFFFFFFFFFFF
310
FFFFFFFFFFFFFFFFFFFFFFFFFFFFFFFFFFFFFFFFFFFFFFFFFFFFFFFFFFFFFFFF
310
FFFFFFFFFFFFFFFFFFFFFFFFFFFFFFFFFFFFFFFFFFFFFFFFFFFFFFFFFFFFFFFF
310
F000FFFFFFFFFFFFFFFFFFFFFFFFFFFFFFFFFFFFFFFFFFFFFFFFFFFFFFFFFFFF
310
FFFFFFFFFFFFFFFFFFFFFFFFFFFFFFFFFFFFFFFFFFFFFFFFFFFFFFFFFFFFFFFF
310
FFFFFFFFFFFFFFFFFFFFFFFFFFFFFFFFFFFFFFFFFFFFFFFFF000FFFFFFFFFFFF
310
FFFFFFFFFFFFFFFFFFFFFFFFFFFFFFFFFFFFFFFFFFFFFFFFFFFFFFFFFFFFFFFF
310
FFFFFFFFFFFFFFFFFFFFFFFFFFFFFFFFFFFFFFFFFFFFFFFFFFFFFFFFFFFFFFFF
310
FFFFFFFFFFFFFFFFFFFFFFFFFFFFFFFFF0000000000000000000000000000000
310
0000000000000000000000000000000000000000000000000000000000000000
310
0000000000000000000000000000000000000000000000000000000000000000
310
0000000000000000000000000000000000000000000000000000000000000000
310
0000000000000000000000000000000000000000000000000000000000000000
310
0000000000000000000000000000000000000000000000000000000000000000
310
0000000000000000000000000000000000000000000000000000000000000000
310
0000000000000000000000000000000000000000000000000000000000000000
310
0000000000000000000000000000000000000000000000000000000000000000
310
0000000000000000000000000000000000000000000000000000000000000000
310
0000000000000000000000000000000000000000000000000000000000000000
310
0000000000000000000000000000000000000000000000000000000000000000
310
0000000000000000000000000000000000000000000000000000000000000000
310
0000000000000000000000000000000000000000000000000000000000000000
310
0000000000000000000000000000000000000000000000000000000000000000
310
0000000000000000000000000000000000000000000000000000000000000000
  1
OLE
  0
ENDSEC
  0
SECTION
  2
OBJECTS
  0
DICTIONARY
  5
C
330
0
100
AcDbDictionary
281
     1
  3
ACAD_GROUP
350
D
  3
ACAD_LAYOUT
350
1A
  3
ACAD_MLINESTYLE
350
17
  3
ACAD_PLOTSETTINGS
350
19
  3
ACAD_PLOTSTYLENAME
350
E
  3
ACAD_SCALELIST
350
47
  0
DICTIONARY
  5
D
102
{ACAD_REACTORS
330
C
102
}
330
C
100
AcDbDictionary
281
     1
  0
DICTIONARY
  5
1A
102
{ACAD_REACTORS
330
C
102
}
330
C
100
AcDbDictionary
281
     1
  3
Layout1
350
1E
  3
Layout2
350
26
  3
Model
350
22
  0
DICTIONARY
  5
17
102
{ACAD_REACTORS
330
C
102
}
330
C
100
AcDbDictionary
281
     1
  3
Standard
350
18
  0
DICTIONARY
  5
19
102
{ACAD_REACTORS
330
C
102
}
330
C
100
AcDbDictionary
281
     1
  0
ACDBDICTIONARYWDFLT
  5
E
102
{ACAD_REACTORS
330
C
102
}
330
C
100
AcDbDictionary
281
     1
  3
Normal
350
F
100
AcDbDictionaryWithDefault
340
F
  0
DICTIONARY
  5
47
102
{ACAD_REACTORS
330
C
102
}
330
C
100
AcDbDictionary
281
     1
  3
A0
350
48
  3
A1
350
49
  3
A2
350
4A
  3
A3
350
4B
  3
A4
350
4C
  3
A5
350
4D
  3
A6
350
4E
  3
A7
350
4F
  3
A8
350
50
  3
A9
350
51
  3
B0
350
52
  3
B1
350
53
  3
B2
350
54
  3
B3
350
55
  3
B4
350
56
  3
B5
350
57
  3
B6
350
58
  3
B7
350
59
  3
B8
350
5A
  3
B9
350
5B
  3
C0
350
5C
  3
C1
350
5D
  3
C2
350
5E
  3
C3
350
5F
  3
C4
350
60
  3
C5
350
61
  3
C6
350
62
  3
C7
350
63
  3
C8
350
64
  3
C9
350
65
  3
D0
350
66
  3
D1
350
67
  3
D2
350
68
  0
LAYOUT
  5
1E
102
{ACAD_REACTORS
330
1A
102
}
330
1A
100
AcDbPlotSettings
  1

  2
none_device
  4

  6

 40
0.0
 41
0.0
 42
0.0
 43
0.0
 44
0.0
 45
0.0
 46
0.0
 47
0.0
 48
0.0
 49
0.0
140
0.0
141
0.0
142
1.0
143
1.0
 70
   688
 72
     1
 73
     0
 74
     5
  7

 75
    16
147
1.0
148
0.0
149
0.0
100
AcDbLayout
  1
Layout1
 70
     1
 71
     1
 10
0.0
 20
0.0
 11
420.0
 21
297.0
 12
0.0
 22
0.0
 32
0.0
 14
1.0000000000E+20
 24
1.0000000000E+20
 34
1.0000000000E+20
 15
-1.0000000000E+20
 25
-1.0000000000E+20
 35
-1.0000000000E+20
146
0.0
 13
0.0
 23
0.0
 33
0.0
 16
1.0
 26
0.0
 36
0.0
 17
0.0
 27
1.0
 37
0.0
 76
     0
330
1B
  0
LAYOUT
  5
26
102
{ACAD_REACTORS
330
1A
102
}
330
1A
100
AcDbPlotSettings
  1

  2
none_device
  4

  6

 40
0.0
 41
0.0
 42
0.0
 43
0.0
 44
0.0
 45
0.0
 46
0.0
 47
0.0
 48
0.0
 49
0.0
140
0.0
141
0.0
142
1.0
143
1.0
 70
   688
 72
     1
 73
     0
 74
     5
  7

 75
    16
147
1.0
148
0.0
149
0.0
100
AcDbLayout
  1
Layout2
 70
     1
 71
     2
 10
0.0
 20
0.0
 11
0.0
 21
0.0
 12
0.0
 22
0.0
 32
0.0
 14
0.0
 24
0.0
 34
0.0
 15
0.0
 25
0.0
 35
0.0
146
0.0
 13
0.0
 23
0.0
 33
0.0
 16
1.0
 26
0.0
 36
0.0
 17
0.0
 27
1.0
 37
0.0
 76
     0
330
23
  0
LAYOUT
  5
22
102
{ACAD_REACTORS
330
1A
102
}
330
1A
100
AcDbPlotSettings
  1

  2
none_device
  4
Letter_(8.50_x_11.00_Inches)
  6

 40
6.35
 41
6.35
 42
6.35000508
 43
6.35000508
 44
215.9
 45
279.4
 46
0.0
 47
0.0
 48
0.0
 49
0.0
140
0.0
141
0.0
142
1.0
143
1.0
 70
  1712
 72
     1
 73
     0
 74
     0
  7

 75
     0
147
1.0
148
0.0
149
0.0
100
AcDbLayout
  1
Model
 70
     1
 71
     0
 10
0.0
 20
0.0
 11
297.0
 21
210.0
 12
0.0
 22
0.0
 32
0.0
 14
0.0
 24
0.0
 34
0.0
 15
297.0
 25
210.0
 35
0.0
146
0.0
 13
0.0
 23
0.0
 33
0.0
 16
1.0
 26
0.0
 36
0.0
 17
0.0
 27
1.0
 37
0.0
 76
     0
330
1F
331
29
  0
MLINESTYLE
  5
18
102
{ACAD_REACTORS
330
17
102
}
330
17
100
AcDbMlineStyle
  2
Standard
 70
     0
  3

 62
   256
 51
90.0
 52
90.0
 71
     2
 49
0.5
 62
   256
  6
BYLAYER
 49
-0.5
 62
   256
  6
BYLAYER
  0
ACDBPLACEHOLDER
  5
F
102
{ACAD_REACTORS
330
E
102
}
330
E
  0
SCALE
  5
48
102
{ACAD_REACTORS
330
47
102
}
330
47
100
AcDbScale
 70
     0
300
1:1
140
1.0
141
1.0
290
     1
  0
SCALE
  5
49
102
{ACAD_REACTORS
330
47
102
}
330
47
100
AcDbScale
 70
     0
300
1:2
140
1.0
141
2.0
290
     0
  0
SCALE
  5
4A
102
{ACAD_REACTORS
330
47
102
}
330
47
100
AcDbScale
 70
     0
300
1:4
140
1.0
141
4.0
290
     0
  0
SCALE
  5
4B
102
{ACAD_REACTORS
330
47
102
}
330
47
100
AcDbScale
 70
     0
300
1:5
140
1.0
141
5.0
290
     0
  0
SCALE
  5
4C
102
{ACAD_REACTORS
330
47
102
}
330
47
100
AcDbScale
 70
     0
300
1:8
140
1.0
141
8.0
290
     0
  0
SCALE
  5
4D
102
{ACAD_REACTORS
330
47
102
}
330
47
100
AcDbScale
 70
     0
300
1:10
140
1.0
141
10.0
290
     0
  0
SCALE
  5
4E
102
{ACAD_REACTORS
330
47
102
}
330
47
100
AcDbScale
 70
     0
300
1:16
140
1.0
141
16.0
290
     0
  0
SCALE
  5
4F
102
{ACAD_REACTORS
330
47
102
}
330
47
100
AcDbScale
 70
     0
300
1:20
140
1.0
141
20.0
290
     0
  0
SCALE
  5
50
102
{ACAD_REACTORS
330
47
102
}
330
47
100
AcDbScale
 70
     0
300
1:30
140
1.0
141
30.0
290
     0
  0
SCALE
  5
51
102
{ACAD_REACTORS
330
47
102
}
330
47
100
AcDbScale
 70
     0
300
1:40
140
1.0
141
40.0
290
     0
  0
SCALE
  5
52
102
{ACAD_REACTORS
330
47
102
}
330
47
100
AcDbScale
 70
     0
300
1:50
140
1.0
141
50.0
290
     0
  0
SCALE
  5
53
102
{ACAD_REACTORS
330
47
102
}
330
47
100
AcDbScale
 70
     0
300
1:100
140
1.0
141
100.0
290
     0
  0
SCALE
  5
54
102
{ACAD_REACTORS
330
47
102
}
330
47
100
AcDbScale
 70
     0
300
2:1
140
2.0
141
1.0
290
     0
  0
SCALE
  5
55
102
{ACAD_REACTORS
330
47
102
}
330
47
100
AcDbScale
 70
     0
300
4:1
140
4.0
141
1.0
290
     0
  0
SCALE
  5
56
102
{ACAD_REACTORS
330
47
102
}
330
47
100
AcDbScale
 70
     0
300
8:1
140
8.0
141
1.0
290
     0
  0
SCALE
  5
57
102
{ACAD_REACTORS
330
47
102
}
330
47
100
AcDbScale
 70
     0
300
10:1
140
10.0
141
1.0
290
     0
  0
SCALE
  5
58
102
{ACAD_REACTORS
330
47
102
}
330
47
100
AcDbScale
 70
     0
300
100:1
140
100.0
141
1.0
290
     0
  0
SCALE
  5
59
102
{ACAD_REACTORS
330
47
102
}
330
47
100
AcDbScale
 70
     0
300
1/128" = 1'-0"
140
0.0078125
141
12.0
290
     0
  0
SCALE
  5
5A
102
{ACAD_REACTORS
330
47
102
}
330
47
100
AcDbScale
 70
     0
300
1/64" = 1'-0"
140
0.015625
141
12.0
290
     0
  0
SCALE
  5
5B
102
{ACAD_REACTORS
330
47
102
}
330
47
100
AcDbScale
 70
     0
300
1/32" = 1'-0"
140
0.03125
141
12.0
290
     0
  0
SCALE
  5
5C
102
{ACAD_REACTORS
330
47
102
}
330
47
100
AcDbScale
 70
     0
300
1/16" = 1'-0"
140
0.0625
141
12.0
290
     0
  0
SCALE
  5
5D
102
{ACAD_REACTORS
330
47
102
}
330
47
100
AcDbScale
 70
     0
300
3/32" = 1'-0"
140
0.09375
141
12.0
290
     0
  0
SCALE
  5
5E
102
{ACAD_REACTORS
330
47
102
}
330
47
100
AcDbScale
 70
     0
300
1/8" = 1'-0"
140
0.125
141
12.0
290
     0
  0
SCALE
  5
5F
102
{ACAD_REACTORS
330
47
102
}
330
47
100
AcDbScale
 70
     0
300
3/16" = 1'-0"
140
0.1875
141
12.0
290
     0
  0
SCALE
  5
60
102
{ACAD_REACTORS
330
47
102
}
330
47
100
AcDbScale
 70
     0
300
1/4" = 1'-0"
140
0.25
141
12.0
290
     0
  0
SCALE
  5
61
102
{ACAD_REACTORS
330
47
102
}
330
47
100
AcDbScale
 70
     0
300
3/8" = 1'-0"
140
0.375
141
12.0
290
     0
  0
SCALE
  5
62
102
{ACAD_REACTORS
330
47
102
}
330
47
100
AcDbScale
 70
     0
300
1/2" = 1'-0"
140
0.5
141
12.0
290
     0
  0
SCALE
  5
63
102
{ACAD_REACTORS
330
47
102
}
330
47
100
AcDbScale
 70
     0
300
3/4" = 1'-0"
140
0.75
141
12.0
290
     0
  0
SCALE
  5
64
102
{ACAD_REACTORS
330
47
102
}
330
47
100
AcDbScale
 70
     0
300
1" = 1'-0"
140
1.0
141
12.0
290
     0
  0
SCALE
  5
65
102
{ACAD_REACTORS
330
47
102
}
330
47
100
AcDbScale
 70
     0
300
1-1/2" = 1'-0"
140
1.5
141
12.0
290
     0
  0
SCALE
  5
66
102
{ACAD_REACTORS
330
47
102
}
330
47
100
AcDbScale
 70
     0
300
3" = 1'-0"
140
3.0
141
12.0
290
     0
  0
SCALE
  5
67
102
{ACAD_REACTORS
330
47
102
}
330
47
100
AcDbScale
 70
     0
300
6" = 1'-0"
140
6.0
141
12.0
290
     0
  0
SCALE
  5
68
102
{ACAD_REACTORS
330
47
102
}
330
47
100
AcDbScale
 70
     0
300
1'-0" = 1'-0"
140
12.0
141
12.0
290
     0
  0
ENDSEC
  0
EOF
