  0
SECTION
  2
HEADER
  9
$ACADVER
  1
AC1015
  9
$ACADMAINTVER
 70
     6
  9
$DWGCODEPAGE
  3
ANSI_1252
  9
$INSBASE
 10
0.0
 20
0.0
 30
0.0
  9
$EXTMIN
 10
0.0
 20
0.0
 30
0.0
  9
$EXTMAX
 10
297.0
 20
210.0
 30
0.0
  9
$LIMMIN
 10
0.0
 20
0.0
  9
$LIMMAX
 10
297.0
 20
210.0
  9
$ORTHOMODE
 70
     0
  9
$REGENMODE
 70
     1
  9
$FILLMODE
 70
     1
  9
$QTEXTMODE
 70
     0
  9
$MIRRTEXT
 70
     1
  9
$LTSCALE
 40
1.0
  9
$ATTMODE
 70
     1
  9
$TEXTSIZE
 40
2.0
  9
$TRACEWID
 40
1.0
  9
$TEXTSTYLE
  7
Standard
  9
$CLAYER
  8
0
  9
$CELTYPE
  6
ByLayer
  9
$CECOLOR
 62
   256
  9
$CELTSCALE
 40
1.0
  9
$DISPSILH
 70
     0
  9
$DIMSCALE
 40
1.0
  9
$DIMASZ
 40
3.0
  9
$DIMEXO
 40
0.0
  9
$DIMDLI
 40
3.75
  9
$DIMRND
 40
0.0
  9
$DIMDLE
 40
0.0
  9
$DIMEXE
 40
1.0
  9
$DIMTP
 40
0.0
  9
$DIMTM
 40
0.0
  9
$DIMTXT
 40
2.0
  9
$DIMCEN
 40
2.5
  9
$DIMTSZ
 40
0.0
  9
$DIMTOL
 70
     0
  9
$DIMLIM
 70
     0
  9
$DIMTIH
 70
     1
  9
$DIMTOH
 70
     1
  9
$DIMSE1
 70
     0
  9
$DIMSE2
 70
     0
  9
$DIMTAD
 70
     1
  9
$DIMZIN
 70
     0
  9
$DIMBLK
  1

  9
$DIMASO
 70
     1
  9
$DIMSHO
 70
     1
  9
$DIMPOST
  1

  9
$DIMAPOST
  1

  9
$DIMALT
 70
     0
  9
$DIMALTD
 70
     3
  9
$DIMALTF
 40
0.0393700787
  9
$DIMLFAC
 40
1.0
  9
$DIMTOFL
 70
     1
  9
$DIMTVP
 40
0.0
  9
$DIMTIX
 70
     0
  9
$DIMSOXD
 70
     0
  9
$DIMSAH
 70
     0
  9
$DIMBLK1
  1

  9
$DIMBLK2
  1

  9
$DIMSTYLE
  2
ISO-25
  9
$DIMCLRD
 70
     0
  9
$DIMCLRE
 70
     0
  9
$DIMCLRT
 70
     0
  9
$DIMTFAC
 40
1.0
  9
$DIMGAP
 40
1.524
  9
$DIMJUST
 70
     0
  9
$DIMSD1
 70
     0
  9
$DIMSD2
 70
     0
  9
$DIMTOLJ
 70
     0
  9
$DIMTZIN
 70
     0
  9
$DIMALTZ
 70
     0
  9
$DIMALTTZ
 70
     0
  9
$DIMUPT
 70
     0
  9
$DIMDEC
 70
     2
  9
$DIMTDEC
 70
     3
  9
$DIMALTU
 70
     2
  9
$DIMALTTD
 70
     3
  9
$DIMTXSTY
  7
Standard
  9
$DIMAUNIT
 70
     0
  9
$DIMADEC
 70
     2
  9
$DIMALTRND
 40
0.0
  9
$DIMAZIN
 70
     0
  9
$DIMDSEP
 70
    44
  9
$DIMATFIT
 70
     3
  9
$DIMFRAC
 70
     0
  9
$DIMLDRBLK
  1

  9
$DIMLUNIT
 70
     2
  9
$DIMLWD
 70
    -2
  9
$DIMLWE
 70
    -2
  9
$DIMTMOVE
 70
     0
  9
$LUNITS
 70
     2
  9
$LUPREC
 70
     2
  9
$SKETCHINC
 40
1.0
  9
$FILLETRAD
 40
10.0
  9
$AUNITS
 70
     0
  9
$AUPREC
 70
     2
  9
$MENU
  1
.
  9
$ELEVATION
 40
0.0
  9
$PELEVATION
 40
0.0
  9
$THICKNESS
 40
0.0
  9
$LIMCHECK
 70
     0
  9
$CHAMFERA
 40
0.0
  9
$CHAMFERB
 40
0.0
  9
$CHAMFERC
 40
0.0
  9
$CHAMFERD
 40
0.0
  9
$SKPOLY
 70
     0
  9
$TDCREATE
 40
2457632.477081481
  9
$TDUCREATE
 40
2457632.393748148
  9
$TDUPDATE
 40
2457632.477082789
  9
$TDUUPDATE
 40
2457632.393749456
  9
$TDINDWG
 40
0.0000000116
  9
$TDUSRTIMER
 40
0.0000000116
  9
$USRTIMER
 70
     1
  9
$ANGBASE
 50
0.0
  9
$ANGDIR
 70
     0
  9
$PDMODE
 70
     0
  9
$PDSIZE
 40
-1.0
  9
$PLINEWID
 40
0.0
  9
$SPLFRAME
 70
     0
  9
$SPLINETYPE
 70
     6
  9
$SPLINESEGS
 70
     8
  9
$HANDSEED
  5
2BD
  9
$SURFTAB1
 70
     6
  9
$SURFTAB2
 70
     6
  9
$SURFTYPE
 70
     6
  9
$SURFU
 70
     6
  9
$SURFV
 70
     6
  9
$UCSBASE
  2

  9
$UCSNAME
  2

  9
$UCSORG
 10
0.0
 20
0.0
 30
0.0
  9
$UCSXDIR
 10
1.0
 20
0.0
 30
0.0
  9
$UCSYDIR
 10
0.0
 20
1.0
 30
0.0
  9
$UCSORTHOREF
  2

  9
$UCSORTHOVIEW
 70
     0
  9
$UCSORGTOP
 10
0.0
 20
0.0
 30
0.0
  9
$UCSORGBOTTOM
 10
0.0
 20
0.0
 30
0.0
  9
$UCSORGLEFT
 10
0.0
 20
0.0
 30
0.0
  9
$UCSORGRIGHT
 10
0.0
 20
0.0
 30
0.0
  9
$UCSORGFRONT
 10
0.0
 20
0.0
 30
0.0
  9
$UCSORGBACK
 10
0.0
 20
0.0
 30
0.0
  9
$PUCSBASE
  2

  9
$PUCSNAME
  2

  9
$PUCSORG
 10
0.0
 20
0.0
 30
0.0
  9
$PUCSXDIR
 10
1.0
 20
0.0
 30
0.0
  9
$PUCSYDIR
 10
0.0
 20
1.0
 30
0.0
  9
$PUCSORTHOREF
  2

  9
$PUCSORTHOVIEW
 70
     0
  9
$PUCSORGTOP
 10
0.0
 20
0.0
 30
0.0
  9
$PUCSORGBOTTOM
 10
0.0
 20
0.0
 30
0.0
  9
$PUCSORGLEFT
 10
0.0
 20
0.0
 30
0.0
  9
$PUCSORGRIGHT
 10
0.0
 20
0.0
 30
0.0
  9
$PUCSORGFRONT
 10
0.0
 20
0.0
 30
0.0
  9
$PUCSORGBACK
 10
0.0
 20
0.0
 30
0.0
  9
$USERI1
 70
     0
  9
$USERI2
 70
     0
  9
$USERI3
 70
     0
  9
$USERI4
 70
     0
  9
$USERI5
 70
     0
  9
$USERR1
 40
0.0
  9
$USERR2
 40
0.0
  9
$USERR3
 40
0.0
  9
$USERR4
 40
0.0
  9
$USERR5
 40
0.0
  9
$WORLDVIEW
 70
     1
  9
$SHADEDGE
 70
     3
  9
$SHADEDIF
 70
    70
  9
$TILEMODE
 70
     1
  9
$MAXACTVP
 70
    64
  9
$PINSBASE
 10
0.0
 20
0.0
 30
0.0
  9
$PLIMCHECK
 70
     0
  9
$PEXTMIN
 10
1.0000000000E+20
 20
1.0000000000E+20
 30
1.0000000000E+20
  9
$PEXTMAX
 10
-1.0000000000E+20
 20
-1.0000000000E+20
 30
-1.0000000000E+20
  9
$PLIMMIN
 10
0.0
 20
0.0
  9
$PLIMMAX
 10
420.0
 20
297.0
  9
$UNITMODE
 70
     0
  9
$VISRETAIN
 70
     1
  9
$PLINEGEN
 70
     0
  9
$PSLTSCALE
 70
     1
  9
$TREEDEPTH
 70
  3020
  9
$CMLSTYLE
  2
Standard
  9
$CMLJUST
 70
     0
  9
$CMLSCALE
 40
20.0
  9
$PROXYGRAPHICS
 70
     1
  9
$MEASUREMENT
 70
     1
  9
$CELWEIGHT
370
    -1
  9
$ENDCAPS
280
     0
  9
$JOINSTYLE
280
     0
  9
$LWDISPLAY
290
     1
  9
$INSUNITS
 70
     4
  9
$HYPERLINKBASE
  1

  9
$STYLESHEET
  1

  9
$XEDIT
290
     1
  9
$CEPSNTYPE
380
     0
  9
$PSTYLEMODE
290
     1
  9
$FINGERPRINTGUID
  2
{D3C082B5-E7F9-4920-A48E-1115D48872F4}
  9
$VERSIONGUID
  2
{FAEB1C32-E019-11D5-929B-00C0DF256EC4}
  9
$EXTNAMES
290
     1
  9
$PSVPSCALE
 40
0.0
  9
$OLESTARTUP
290
     0
  0
ENDSEC
  0
SECTION
  2
CLASSES
  0
CLASS
  1
ACDBDICTIONARYWDFLT
  2
AcDbDictionaryWithDefault
  3
ObjectDBX Classes
 90
        0
280
     0
281
     0
  0
CLASS
  1
VISUALSTYLE
  2
AcDbVisualStyle
  3
ObjectDBX Classes
 90
     4095
280
     0
281
     0
  0
CLASS
  1
MATERIAL
  2
AcDbMaterial
  3
ObjectDBX Classes
 90
     1153
280
     0
281
     0
  0
CLASS
  1
SCALE
  2
AcDbScale
  3
ObjectDBX Classes
 90
     1153
280
     0
281
     0
  0
CLASS
  1
TABLESTYLE
  2
AcDbTableStyle
  3
ObjectDBX Classes
 90
     4095
280
     0
281
     0
  0
CLASS
  1
MLEADERSTYLE
  2
AcDbMLeaderStyle
  3
ACDB_MLEADERSTYLE_CLASS
 90
     4095
280
     0
281
     0
  0
CLASS
  1
SUN
  2
AcDbSun
  3
SCENEOE
 90
     1153
280
     0
281
     0
  0
CLASS
  1
ACDBPLACEHOLDER
  2
AcDbPlaceHolder
  3
ObjectDBX Classes
 90
        0
280
     0
281
     0
  0
CLASS
  1
LAYOUT
  2
AcDbLayout
  3
ObjectDBX Classes
 90
        0
280
     0
281
     0
  0
ENDSEC
  0
SECTION
  2
TABLES
  0
TABLE
  2
VPORT
  5
8
330
0
100
AcDbSymbolTable
 70
     1
  0
VPORT
  5
29
330
8
100
AcDbSymbolTableRecord
100
AcDbViewportTableRecord
  2
*Active
 70
     0
 10
0.0
 20
0.0
 11
1.0
 21
1.0
 12
148.5
 22
105.0
 13
0.0
 23
0.0
 14
10.0
 24
10.0
 15
10.0
 25
10.0
 16
0.0
 26
0.0
 36
1.0
 17
0.0
 27
0.0
 37
0.0
 40
210.0
 41
1.4142857143
 42
50.0
 43
0.0
 44
0.0
 50
0.0
 51
0.0
 71
     0
 72
  2000
 73
     1
 74
     3
 75
     0
 76
     0
 77
     0
 78
     0
281
     0
 65
     1
110
0.0
120
0.0
130
0.0
111
1.0
121
0.0
131
0.0
112
0.0
122
1.0
132
0.0
 79
     0
146
0.0
  0
ENDTAB
  0
TABLE
  2
LTYPE
  5
5
330
0
100
AcDbSymbolTable
 70
     6
  0
LTYPE
  5
14
330
5
100
AcDbSymbolTableRecord
100
AcDbLinetypeTableRecord
  2
ByBlock
 70
     0
  3

 72
    65
 73
     0
 40
0.0
  0
LTYPE
  5
15
330
5
100
AcDbSymbolTableRecord
100
AcDbLinetypeTableRecord
  2
ByLayer
 70
     0
  3

 72
    65
 73
     0
 40
0.0
  0
LTYPE
  5
16
330
5
100
AcDbSymbolTableRecord
100
AcDbLinetypeTableRecord
  2
Continuous
 70
     0
  3
Solid line
 72
    65
 73
     0
 40
0.0
  0
LTYPE
  5
6E
330
5
100
AcDbSymbolTableRecord
100
AcDbLinetypeTableRecord
  2
HIDDEN
 70
     0
  3
Hidden __ __ __ __ __ __ __ __ __ __ __ __ __ __
 72
    65
 73
     2
 40
1.905
 49
1.27
 74
     0
 49
-0.635
 74
     0
  0
LTYPE
  5
6F
330
5
100
AcDbSymbolTableRecord
100
AcDbLinetypeTableRecord
  2
PHANTOM
 70
     0
  3
Phantom ______  __  __  ______  __  __  ______
 72
    65
 73
     6
 40
12.7
 49
6.35
 74
     0
 49
-1.27
 74
     0
 49
1.27
 74
     0
 49
-1.27
 74
     0
 49
1.27
 74
     0
 49
-1.27
 74
     0
  0
LTYPE
  5
70
330
5
100
AcDbSymbolTableRecord
100
AcDbLinetypeTableRecord
  2
CENTER
 70
     0
  3
Center ____ _ ____ _ ____ _ ____ _ ____ _ ____
 72
    65
 73
     4
 40
10.16
 49
6.35
 74
     0
 49
-1.27
 74
     0
 49
1.27
 74
     0
 49
-1.27
 74
     0
  0
LTYPE
  5
71
330
5
100
AcDbSymbolTableRecord
100
AcDbLinetypeTableRecord
  2
CENTERX2
 70
     0
  3
Center (2x) ________  __  ________  __  _____
 72
    65
 73
     4
 40
20.32
 49
12.7
 74
     0
 49
-2.54
 74
     0
 49
2.54
 74
     0
 49
-2.54
 74
     0
  0
LTYPE
  5
72
330
5
100
AcDbSymbolTableRecord
100
AcDbLinetypeTableRecord
  2
DOT2
 70
     0
  3
Dot (.5x) ........................................
 72
    65
 73
     2
 40
0.635
 49
0.0
 74
     0
 49
-0.635
 74
     0
  0
ENDTAB
  0
TABLE
  2
LAYER
  5
2
330
0
100
AcDbSymbolTable
 70
     5
  0
LAYER
  5
10
330
2
100
AcDbSymbolTableRecord
100
AcDbLayerTableRecord
  2
0
 70
     0
 62
     7
  6
Continuous
370
    -3
390
F
  0
LAYER
  5
73
330
2
100
AcDbSymbolTableRecord
100
AcDbLayerTableRecord
  2
FORMAT
 70
     0
 62
     7
  6
Continuous
370
    -3
390
F
  0
LAYER
  5
74
330
2
100
AcDbSymbolTableRecord
100
AcDbLayerTableRecord
  2
VERMASSUNG
 70
     0
 62
     7
  6
Continuous
370
    -3
390
F
  0
LAYER
  5
75
330
2
100
AcDbSymbolTableRecord
100
AcDbLayerTableRecord
  2
KOPF_DÜNN
 70
     0
 62
     7
  6
Continuous
370
    -3
390
F
  0
LAYER
  5
76
330
2
100
AcDbSymbolTableRecord
100
AcDbLayerTableRecord
  2
KOPF_DICK
 70
     0
 62
     7
  6
Continuous
370
    15
390
F
  0
ENDTAB
  0
TABLE
  2
STYLE
  5
3
330
0
100
AcDbSymbolTable
 70
     2
  0
STYLE
  5
11
330
3
100
AcDbSymbolTableRecord
100
AcDbTextStyleTableRecord
  2
Standard
 70
     0
 40
0.0
 41
1.0
 50
0.0
 71
     0
 42
2.0
  3
txt
  4

  0
STYLE
  5
77
330
3
100
AcDbSymbolTableRecord
100
AcDbTextStyleTableRecord
  2
SLDTEXTSTYLE0
 70
     0
 40
0.0
 41
0.7
 50
0.0
 71
     0
 42
2.0
  3
TXT
  4

  0
ENDTAB
  0
TABLE
  2
VIEW
  5
6
330
0
100
AcDbSymbolTable
 70
     0
  0
ENDTAB
  0
TABLE
  2
UCS
  5
7
330
0
100
AcDbSymbolTable
 70
     0
  0
ENDTAB
  0
TABLE
  2
APPID
  5
9
330
0
100
AcDbSymbolTable
 70
     1
  0
APPID
  5
12
330
9
100
AcDbSymbolTableRecord
100
AcDbRegAppTableRecord
  2
ACAD
 70
     0
  0
ENDTAB
  0
TABLE
  2
DIMSTYLE
  5
A
330
0
100
AcDbSymbolTable
 70
     2
100
AcDbDimStyleTable
  0
DIMSTYLE
105
27
330
A
100
AcDbSymbolTableRecord
100
AcDbDimStyleTableRecord
  2
ISO-25
 70
     0
 41
2.5
 42
0.625
 43
3.75
 44
1.25
 73
     0
 74
     0
 77
     1
 78
     8
140
2.5
141
2.5
143
0.0393700787
147
0.625
171
     3
172
     1
178
     0
271
     2
272
     2
274
     3
278
    44
283
     0
284
     8
340
11
  0
DIMSTYLE
105
1D7
102
{ACAD_REACTORS
330
1D6
330
1E3
330
1EF
330
1F9
330
203
102
}
330
A
100
AcDbSymbolTableRecord
100
AcDbDimStyleTableRecord
  2
SLDDIMSTYLE0
 70
     0
 41
3.0
 44
0.0
 45
0.000000001
 73
     0
 74
     0
 77
     1
 78
    12
 79
     3
140
2.0
147
0.5
173
     1
178
     0
271
     2
272
     3
276
     2
284
    12
340
77
  0
ENDTAB
  0
TABLE
  2
BLOCK_RECORD
  5
1
330
0
100
AcDbSymbolTable
 70
     6
  0
BLOCK_RECORD
  5
1F
330
1
100
AcDbSymbolTableRecord
100
AcDbBlockTableRecord
  2
*Model_Space
340
22
  0
BLOCK_RECORD
  5
1B
330
1
100
AcDbSymbolTableRecord
100
AcDbBlockTableRecord
  2
*Paper_Space
340
1E
  0
BLOCK_RECORD
  5
23
330
1
100
AcDbSymbolTableRecord
100
AcDbBlockTableRecord
  2
*Paper_Space0
340
26
  0
BLOCK_RECORD
  5
1D8
330
1
100
AcDbSymbolTableRecord
100
AcDbBlockTableRecord
  2
_D
340
0
  0
BLOCK_RECORD
  5
1E4
330
1
100
AcDbSymbolTableRecord
100
AcDbBlockTableRecord
  2
_D_1
340
0
  0
BLOCK_RECORD
  5
1F0
330
1
100
AcDbSymbolTableRecord
100
AcDbBlockTableRecord
  2
_D_2
340
0
  0
BLOCK_RECORD
  5
1FA
330
1
100
AcDbSymbolTableRecord
100
AcDbBlockTableRecord
  2
_D_3
340
0
  0
BLOCK_RECORD
  5
204
330
1
100
AcDbSymbolTableRecord
100
AcDbBlockTableRecord
  2
_D_4
340
0
  0
ENDTAB
  0
ENDSEC
  0
SECTION
  2
BLOCKS
  0
BLOCK
  5
20
330
1F
100
AcDbEntity
  8
0
100
AcDbBlockBegin
  2
*Model_Space
 70
     0
 10
0.0
 20
0.0
 30
0.0
  3
*Model_Space
  1

  0
ENDBLK
  5
21
330
1F
100
AcDbEntity
  8
0
100
AcDbBlockEnd
  0
BLOCK
  5
1C
330
1B
100
AcDbEntity
 67
     1
  8
0
100
AcDbBlockBegin
  2
*Paper_Space
 70
     0
 10
0.0
 20
0.0
 30
0.0
  3
*Paper_Space
  1

  0
ENDBLK
  5
1D
330
1B
100
AcDbEntity
 67
     1
  8
0
100
AcDbBlockEnd
  0
BLOCK
  5
24
330
23
100
AcDbEntity
  8
0
100
AcDbBlockBegin
  2
*Paper_Space0
 70
     0
 10
0.0
 20
0.0
 30
0.0
  3
*Paper_Space0
  1

  0
ENDBLK
  5
25
330
23
100
AcDbEntity
  8
0
100
AcDbBlockEnd
  0
BLOCK
  5
1D9
330
1D8
100
AcDbEntity
  8
0
100
AcDbBlockBegin
  2
_D
 70
     0
 10
0.0
 20
0.0
 30
0.0
  3
_D
  1

  0
SOLID
  5
1DB
330
1D8
100
AcDbEntity
  8
VERMASSUNG
100
AcDbTrace
 10
67.7028243458
 20
68.6782035965
 30
0.0
 11
68.1528243458
 21
71.6782035965
 31
0.0
 12
67.2528243458
 22
71.6782035965
 32
0.0
 13
67.2528243458
 23
71.6782035965
 33
0.0
  0
SOLID
  5
1DC
330
1D8
100
AcDbEntity
  8
VERMASSUNG
100
AcDbTrace
 10
67.7028243458
 20
166.1282035965
 30
0.0
 11
67.2528243458
 21
163.1282035965
 31
0.0
 12
68.1528243458
 22
163.1282035965
 32
0.0
 13
68.1528243458
 23
163.1282035965
 33
0.0
  0
LINE
  5
1DD
330
1D8
100
AcDbEntity
  8
VERMASSUNG
100
AcDbLine
 10
193.2049045101
 20
68.6782035965
 30
0.0
 11
66.7028243458
 21
68.6782035965
 31
0.0
  0
LINE
  5
1DE
330
1D8
100
AcDbEntity
  8
VERMASSUNG
100
AcDbLine
 10
193.2049045101
 20
166.1282035965
 30
0.0
 11
66.7028243458
 21
166.1282035965
 31
0.0
  0
LINE
  5
1DF
330
1D8
100
AcDbEntity
  8
VERMASSUNG
100
AcDbLine
 10
67.7028243458
 20
68.6782035965
 30
0.0
 11
67.7028243458
 21
166.1282035965
 31
0.0
  0
MTEXT
  5
1E0
330
1D8
100
AcDbEntity
  8
VERMASSUNG
100
AcDbMText
 10
64.9246890896
 20
107.8987679632
 30
0.0
 40
2.0
 41
0.0
 71
     1
 72
     1
  1
ISO 50
  7
SLDTEXTSTYLE0
 11
3.391901413832837E-15
 21
1.0
 31
0.0
 73
     1
 44
1.0
  0
MTEXT
  5
1E1
330
1D8
100
AcDbEntity
  8
VERMASSUNG
100
AcDbMText
 10
65.1246890409
 20
116.8987675757
 30
0.0
 40
2.0
 41
0.0
 71
     1
 72
     1
  1
%%c
  7
SLDTEXTSTYLE0
 11
3.391901413832837E-15
 21
1.0
 31
0.0
 73
     1
 44
1.0
  0
MTEXT
  5
1E2
330
1D8
100
AcDbEntity
  8
VERMASSUNG
100
AcDbMText
 10
65.1246887498
 20
120.5081109086
 30
0.0
 40
2.0
 41
0.0
 71
     1
 72
     1
  1
97.45
  7
SLDTEXTSTYLE0
 11
3.391901413832837E-15
 21
1.0
 31
0.0
 73
     1
 44
1.0
  0
ENDBLK
  5
1DA
330
1D8
100
AcDbEntity
  8
0
100
AcDbBlockEnd
  0
BLOCK
  5
1E5
330
1E4
100
AcDbEntity
  8
0
100
AcDbBlockBegin
  2
_D_1
 70
     0
 10
0.0
 20
0.0
 30
0.0
  3
_D_1
  1

  0
ARC
  5
1E7
330
1E4
100
AcDbEntity
  8
VERMASSUNG
100
AcDbCircle
 10
145.2170698036
 20
185.0497152152
 30
0.0
 40
4.247059938537233
100
AcDbArc
 50
153.4349488229
 51
206.5650511771
  0
ARC
  5
1E8
330
1E4
100
AcDbEntity
  8
VERMASSUNG
100
AcDbCircle
 10
146.7927392165
 20
185.0497152152
 30
0.0
 40
4.24705993853726
100
AcDbArc
 50
333.4349488229
 51
26.5650511771
  0
SOLID
  5
1E9
330
1E4
100
AcDbEntity
  8
VERMASSUNG
100
AcDbTrace
 10
73.1549045101
 20
183.1503722697
 30
0.0
 11
76.1549045101
 21
182.7003722697
 31
0.0
 12
76.1549045101
 22
183.6003722697
 32
0.0
 13
76.1549045101
 23
183.6003722697
 33
0.0
  0
SOLID
  5
1EA
330
1E4
100
AcDbEntity
  8
VERMASSUNG
100
AcDbTrace
 10
218.8549045101
 20
183.1503722697
 30
0.0
 11
215.8549045101
 21
183.6003722697
 31
0.0
 12
215.8549045101
 22
182.7003722697
 32
0.0
 13
215.8549045101
 23
182.7003722697
 33
0.0
  0
LINE
  5
1EB
330
1E4
100
AcDbEntity
  8
VERMASSUNG
100
AcDbLine
 10
73.1549045101
 20
135.7820481239
 30
0.0
 11
73.1549045101
 21
184.1503722697
 31
0.0
  0
LINE
  5
1EC
330
1E4
100
AcDbEntity
  8
VERMASSUNG
100
AcDbLine
 10
218.8549045101
 20
133.1032035965
 30
0.0
 11
218.8549045101
 21
184.1503722697
 31
0.0
  0
LINE
  5
1ED
330
1E4
100
AcDbEntity
  8
VERMASSUNG
100
AcDbLine
 10
73.1549045101
 20
183.1503722697
 30
0.0
 11
218.8549045101
 21
183.1503722697
 31
0.0
  0
MTEXT
  5
1EE
330
1E4
100
AcDbEntity
  8
VERMASSUNG
100
AcDbMText
 10
143.0058839127
 20
185.7285078657
 30
0.0
 40
2.0
 41
0.0
 71
     1
 72
     1
  1
145.7
  7
SLDTEXTSTYLE0
 73
     1
 44
1.0
  0
ENDBLK
  5
1E6
330
1E4
100
AcDbEntity
  8
0
100
AcDbBlockEnd
  0
BLOCK
  5
1F1
330
1F0
100
AcDbEntity
  8
0
100
AcDbBlockBegin
  2
_D_2
 70
     0
 10
0.0
 20
0.0
 30
0.0
  3
_D_2
  1

  0
SOLID
  5
1F3
330
1F0
100
AcDbEntity
  8
VERMASSUNG
100
AcDbTrace
 10
174.7549045101
 20
177.1503722697
 30
0.0
 11
177.7549045101
 21
176.7003722697
 31
0.0
 12
177.7549045101
 22
177.6003722697
 32
0.0
 13
177.7549045101
 23
177.6003722697
 33
0.0
  0
SOLID
  5
1F4
330
1F0
100
AcDbEntity
  8
VERMASSUNG
100
AcDbTrace
 10
218.8549045101
 20
177.1503722697
 30
0.0
 11
215.8549045101
 21
177.6003722697
 31
0.0
 12
215.8549045101
 22
176.7003722697
 32
0.0
 13
215.8549045101
 23
176.7003722697
 33
0.0
  0
LINE
  5
1F5
330
1F0
100
AcDbEntity
  8
VERMASSUNG
100
AcDbLine
 10
174.7549045101
 20
152.3282035965
 30
0.0
 11
174.7549045101
 21
178.1503722697
 31
0.0
  0
LINE
  5
1F6
330
1F0
100
AcDbEntity
  8
VERMASSUNG
100
AcDbLine
 10
218.8549045101
 20
133.1032035965
 30
0.0
 11
218.8549045101
 21
178.1503722697
 31
0.0
  0
LINE
  5
1F7
330
1F0
100
AcDbEntity
  8
VERMASSUNG
100
AcDbLine
 10
174.7549045101
 20
177.1503722697
 30
0.0
 11
218.8549045101
 21
177.1503722697
 31
0.0
  0
MTEXT
  5
1F8
330
1F0
100
AcDbEntity
  8
VERMASSUNG
100
AcDbMText
 10
194.4059086295
 20
179.7285078657
 30
0.0
 40
2.0
 41
0.0
 71
     1
 72
     1
  1
44.1
  7
SLDTEXTSTYLE0
 73
     1
 44
1.0
  0
ENDBLK
  5
1F2
330
1F0
100
AcDbEntity
  8
0
100
AcDbBlockEnd
  0
BLOCK
  5
1FB
330
1FA
100
AcDbEntity
  8
0
100
AcDbBlockBegin
  2
_D_3
 70
     0
 10
0.0
 20
0.0
 30
0.0
  3
_D_3
  1

  0
SOLID
  5
1FD
330
1FA
100
AcDbEntity
  8
VERMASSUNG
100
AcDbTrace
 10
193.8049045101
 20
171.1503722697
 30
0.0
 11
196.8049045101
 21
170.7003722697
 31
0.0
 12
196.8049045101
 22
171.6003722697
 32
0.0
 13
196.8049045101
 23
171.6003722697
 33
0.0
  0
SOLID
  5
1FE
330
1FA
100
AcDbEntity
  8
VERMASSUNG
100
AcDbTrace
 10
218.8549045101
 20
171.1503722697
 30
0.0
 11
215.8549045101
 21
171.6003722697
 31
0.0
 12
215.8549045101
 22
170.7003722697
 32
0.0
 13
215.8549045101
 23
170.7003722697
 33
0.0
  0
LINE
  5
1FF
330
1FA
100
AcDbEntity
  8
VERMASSUNG
100
AcDbLine
 10
193.8049045101
 20
163.6981905498
 30
0.0
 11
193.8049045101
 21
172.1503722697
 31
0.0
  0
LINE
  5
200
330
1FA
100
AcDbEntity
  8
VERMASSUNG
100
AcDbLine
 10
218.8549045101
 20
133.1032035965
 30
0.0
 11
218.8549045101
 21
172.1503722697
 31
0.0
  0
LINE
  5
201
330
1FA
100
AcDbEntity
  8
VERMASSUNG
100
AcDbLine
 10
193.8049045101
 20
171.1503722697
 30
0.0
 11
218.8549045101
 21
171.1503722697
 31
0.0
  0
MTEXT
  5
202
330
1FA
100
AcDbEntity
  8
VERMASSUNG
100
AcDbMText
 10
203.2305121311
 20
173.7285078657
 30
0.0
 40
2.0
 41
0.0
 71
     1
 72
     1
  1
25.05
  7
SLDTEXTSTYLE0
 73
     1
 44
1.0
  0
ENDBLK
  5
1FC
330
1FA
100
AcDbEntity
  8
0
100
AcDbBlockEnd
  0
BLOCK
  5
205
330
204
100
AcDbEntity
  8
0
100
AcDbBlockBegin
  2
_D_4
 70
     0
 10
0.0
 20
0.0
 30
0.0
  3
_D_4
  1

  0
SOLID
  5
207
330
204
100
AcDbEntity
  8
VERMASSUNG
100
AcDbTrace
 10
227.7533110466
 20
133.4032035965
 30
0.0
 11
227.3033110466
 21
130.4032035965
 31
0.0
 12
228.2033110466
 22
130.4032035965
 32
0.0
 13
228.2033110466
 23
130.4032035965
 33
0.0
  0
SOLID
  5
208
330
204
100
AcDbEntity
  8
VERMASSUNG
100
AcDbTrace
 10
227.7533110466
 20
101.4032035965
 30
0.0
 11
228.2033110466
 21
104.4032035965
 31
0.0
 12
227.3033110466
 22
104.4032035965
 32
0.0
 13
227.3033110466
 23
104.4032035965
 33
0.0
  0
LINE
  5
209
330
204
100
AcDbEntity
  8
VERMASSUNG
100
AcDbLine
 10
218.5549045101
 20
133.4032035965
 30
0.0
 11
228.7533110466
 21
133.4032035965
 31
0.0
  0
LINE
  5
20A
330
204
100
AcDbEntity
  8
VERMASSUNG
100
AcDbLine
 10
218.5549045101
 20
101.4032035965
 30
0.0
 11
228.7533110466
 21
101.4032035965
 31
0.0
  0
LINE
  5
20B
330
204
100
AcDbEntity
  8
VERMASSUNG
100
AcDbLine
 10
227.7533110466
 20
133.4032035965
 30
0.0
 11
227.7533110466
 21
101.4032035965
 31
0.0
  0
MTEXT
  5
20C
330
204
100
AcDbEntity
  8
VERMASSUNG
100
AcDbMText
 10
224.9751757904
 20
110.998203953
 30
0.0
 40
2.0
 41
0.0
 71
     1
 72
     1
  1
MBM
  7
SLDTEXTSTYLE0
 11
-7.044195017643634E-15
 21
1.0
 31
0.0
 73
     1
 44
1.0
  0
MTEXT
  5
20D
330
204
100
AcDbEntity
  8
VERMASSUNG
100
AcDbMText
 10
225.1751757417
 20
117.3982037913
 30
0.0
 40
2.0
 41
0.0
 71
     1
 72
     1
  1
%%c
  7
SLDTEXTSTYLE0
 11
-7.044195017643634E-15
 21
1.0
 31
0.0
 73
     1
 44
1.0
  0
MTEXT
  5
20E
330
204
100
AcDbEntity
  8
VERMASSUNG
100
AcDbMText
 10
224.9751757904
 20
121.0082042713
 30
0.0
 40
2.0
 41
0.0
 71
     1
 72
     1
  1
32
  7
SLDTEXTSTYLE0
 11
-7.044195017643634E-15
 21
1.0
 31
0.0
 73
     1
 44
1.0
  0
ENDBLK
  5
206
330
204
100
AcDbEntity
  8
0
100
AcDbBlockEnd
  0
ENDSEC
  0
SECTION
  2
ENTITIES
  0
MTEXT
  5
78
330
1F
100
AcDbEntity
  8
KOPF_DÜNN
100
AcDbMText
 10
13.8892156294
 20
23.8442973028
 30
0.0
 40
3.0
 41
0.0
 71
     1
 72
     1
  1
102.525.321
  7
SLDTEXTSTYLE0
 73
     1
 44
1.0
  0
MTEXT
  5
79
330
1F
100
AcDbEntity
  8
VERMASSUNG
100
AcDbMText
 10
13.9329988022
 20
28.8834360957
 30
0.0
 40
3.0
 41
0.0
 71
     1
 72
     1
  1
Aufnahme_Master shank MBM 32
  7
SLDTEXTSTYLE0
 73
     1
 44
1.0
  0
MTEXT
  5
7A
330
1F
100
AcDbEntity
  8
VERMASSUNG
100
AcDbMText
 10
98.8601118557
 20
13.8365368761
 30
0.0
 40
2.0
 41
0.0
 71
     1
 72
     1
  1
Datum: 01.11.2007
  7
SLDTEXTSTYLE0
 73
     1
 44
1.0
  0
MTEXT
  5
7B
330
1F
100
AcDbEntity
  8
VERMASSUNG
100
AcDbMText
 10
13.933048693
 20
18.0482802738
 30
0.0
 40
2.0
 41
0.0
 71
     1
 72
     1
  1
DIN 69871 B 50
  7
SLDTEXTSTYLE0
 73
     1
 44
1.0
  0
MTEXT
  5
7C
330
1F
100
AcDbEntity
  8
VERMASSUNG
100
AcDbMText
 10
13.9808475933
 20
13.9090974274
 30
0.0
 40
2.0
 41
0.0
 71
     1
 72
     1
  1
Gewicht: 2749g
  7
SLDTEXTSTYLE0
 73
     1
 44
1.0
  0
ARC
  5
7D
330
1F
100
AcDbEntity
  8
0
  6
Continuous
 62
     7
370
    15
100
AcDbCircle
 10
177.3549045101
 20
81.8782035965
 30
0.0
 40
0.6000000000000227
100
AcDbArc
 50
0.0
 51
90.0
  0
ARC
  5
7E
330
1F
100
AcDbEntity
  8
0
  6
Continuous
 62
     7
370
    15
100
AcDbCircle
 10
177.3549045101
 20
152.9282035965
 30
0.0
 40
0.6000000000000227
100
AcDbArc
 50
270.0
 51
0.0
  0
LINE
  5
7F
330
1F
100
AcDbEntity
  8
0
  6
Continuous
 62
     7
370
    15
100
AcDbLine
 10
174.7549045101
 20
152.328202476
 30
0.0
 11
74.8662891999
 21
137.7611141402
 31
0.0
  0
LINE
  5
80
330
1F
100
AcDbEntity
  8
0
  6
Continuous
 62
     7
370
    15
100
AcDbLine
 10
74.8662891999
 20
97.0452930529
 30
0.0
 11
174.7549045101
 21
82.4782047171
 31
0.0
  0
LINE
  5
81
330
1F
100
AcDbEntity
  8
0
  6
Continuous
 62
     7
370
    15
100
AcDbLine
 10
174.7549045101
 20
82.4782047171
 30
0.0
 11
177.3549045171
 21
82.4782047171
 31
0.0
  0
LINE
  5
82
330
1F
100
AcDbEntity
  8
0
  6
Continuous
 62
     7
370
    15
100
AcDbLine
 10
177.3549045171
 20
152.328202476
 30
0.0
 11
174.7549045101
 21
152.328202476
 31
0.0
  0
ARC
  5
83
330
1F
100
AcDbEntity
  8
0
  6
Continuous
 62
     7
370
    15
100
AcDbCircle
 10
75.1549045101
 20
99.0243590691
 30
0.0
 40
2.000000000000014
100
AcDbArc
 50
180.0
 51
261.7028550302
  0
ARC
  5
84
330
1F
100
AcDbEntity
  8
0
  6
Continuous
 62
     7
370
    15
100
AcDbCircle
 10
75.1549045101
 20
135.7820481239
 30
0.0
 40
2.000000000000014
100
AcDbArc
 50
98.2971449698
 51
180.0
  0
ARC
  5
85
330
1F
100
AcDbEntity
  8
0
  6
Continuous
 62
     7
370
    15
100
AcDbCircle
 10
197.8049045101
 20
97.4032035965
 30
0.0
 40
4.0
100
AcDbArc
 50
90.0
 51
180.0
  0
ARC
  5
86
330
1F
100
AcDbEntity
  8
0
  6
Continuous
 62
     7
370
    15
100
AcDbCircle
 10
197.8049045101
 20
137.4032035965
 30
0.0
 40
4.0
100
AcDbArc
 50
180.0
 51
270.0
  0
LINE
  5
87
330
1F
100
AcDbEntity
  8
0
  6
Continuous
 62
     7
370
    15
100
AcDbLine
 10
218.5549046114
 20
101.4032028366
 30
0.0
 11
218.8549059644
 21
101.7032041896
 31
0.0
  0
LINE
  5
88
330
1F
100
AcDbEntity
  8
0
  6
Continuous
 62
     7
370
    15
100
AcDbLine
 10
218.8549059644
 20
133.1032030035
 30
0.0
 11
218.5549046114
 21
133.4032043565
 31
0.0
  0
LINE
  5
89
330
1F
100
AcDbEntity
  8
0
  6
Continuous
 62
     7
370
    15
100
AcDbLine
 10
197.8049054011
 20
101.4032028366
 30
0.0
 11
218.5549046114
 21
101.4032028366
 31
0.0
  0
LINE
  5
8A
330
1F
100
AcDbEntity
  8
0
  6
Continuous
 62
     7
370
    15
100
AcDbLine
 10
218.5549046114
 20
133.4032043565
 30
0.0
 11
197.8049054011
 21
133.4032043565
 31
0.0
  0
ARC
  5
8B
330
1F
100
AcDbEntity
  8
0
  6
Continuous
 62
     7
370
    15
100
AcDbCircle
 10
188.9549045101
 20
102.9374616346
 30
0.0
 40
2.000000000000021
100
AcDbArc
 50
192.2156859339
 51
340.3453161116
  0
SPLINE
  5
8C
330
1F
100
AcDbEntity
  8
0
  6
Continuous
 62
     7
370
    15
100
AcDbSpline
210
0.0
220
0.0
230
1.0
 70
    24
 71
     3
 72
    11
 73
     7
 74
     0
 42
0.000000001
 43
0.00000001
 40
0.0
 40
0.0
 40
0.0
 40
0.0
 40
0.1323870169289419
 40
0.4819425560318888
 40
0.8154857350748964
 40
0.9999999999999999
 40
0.9999999999999999
 40
0.9999999999999999
 40
0.9999999999999999
 10
210.7096034303023
 20
115.403203501545
 30
0.0
 10
210.6137920160829
 20
115.403203501545
 30
0.0
 10
210.2649995216444
 20
115.403203501545
 30
0.0
 10
209.6127914324503
 20
115.403203501545
 30
0.0
 10
208.9108867511774
 20
115.403203501545
 30
0.0
 10
208.5343221994021
 20
115.403203501545
 30
0.0
 10
208.4002028420283
 20
115.403203501545
 30
0.0
  0
SPLINE
  5
8D
330
1F
100
AcDbEntity
  8
0
  6
Continuous
 62
     7
370
    15
100
AcDbSpline
210
0.0
220
0.0
230
1.0
 70
     8
 71
     3
 72
    10
 73
     6
 74
     0
 42
0.000000001
 43
0.00000001
 40
0.0
 40
0.0
 40
0.0
 40
0.0
 40
0.4391224171705035
 40
0.7513716621534018
 40
1.0
 40
1.0
 40
1.0
 40
1.0
 10
211.8643055870845
 20
117.4032035965399
 30
0.0
 10
211.6989983927577
 20
117.1168841779252
 30
0.0
 10
211.416145282758
 20
116.6269700012416
 30
0.0
 10
211.0049733460455
 20
115.9147989031793
 30
0.0
 10
210.8003221382517
 20
115.5603328209354
 30
0.0
 10
210.7096034303023
 20
115.403203501545
 30
0.0
  0
SPLINE
  5
8E
330
1F
100
AcDbEntity
  8
0
  6
Continuous
 62
     7
370
    15
100
AcDbSpline
210
0.0
220
0.0
230
1.0
 70
     8
 71
     3
 72
    10
 73
     6
 74
     0
 42
0.000000001
 43
0.00000001
 40
0.0
 40
0.0
 40
0.0
 40
0.0
 40
0.4391224577411379
 40
0.7513716716921134
 40
1.0
 40
1.0
 40
1.0
 40
1.0
 10
210.7096034303023
 20
119.4032036915348
 30
0.0
 10
210.8749106130061
 20
119.1168842274625
 30
0.0
 10
211.1577636805758
 20
118.6269700120415
 30
0.0
 10
211.5689356859344
 20
117.9147989588161
 30
0.0
 10
211.773586881482
 20
117.5603329075402
 30
0.0
 10
211.8643055870845
 20
117.4032035965399
 30
0.0
  0
SPLINE
  5
8F
330
1F
100
AcDbEntity
  8
0
  6
Continuous
 62
     7
370
    15
100
AcDbSpline
210
0.0
220
0.0
230
1.0
 70
    24
 71
     3
 72
    11
 73
     7
 74
     0
 42
0.000000001
 43
0.00000001
 40
0.0
 40
0.0
 40
0.0
 40
0.0
 40
0.1845142649251036
 40
0.518057443968111
 40
0.8676129830710579
 40
1.0
 40
1.0
 40
1.0
 40
1.0
 10
208.4002028420283
 20
119.4032036915348
 30
0.0
 10
208.5343221994021
 20
119.4032036915348
 30
0.0
 10
208.9108867511774
 20
119.4032036915348
 30
0.0
 10
209.6127914324503
 20
119.4032036915348
 30
0.0
 10
210.2649995216444
 20
119.4032036915348
 30
0.0
 10
210.6137920160829
 20
119.4032036915348
 30
0.0
 10
210.7096034303023
 20
119.4032036915348
 30
0.0
  0
SPLINE
  5
90
330
1F
100
AcDbEntity
  8
0
  6
Continuous
 62
     7
370
    15
100
AcDbSpline
210
0.0
220
0.0
230
1.0
 70
     8
 71
     3
 72
    10
 73
     6
 74
     0
 42
0.000000001
 43
0.00000001
 40
0.0
 40
0.0
 40
0.0
 40
0.0
 40
0.4391220006042077
 40
0.7513714774960203
 40
1.0
 40
1.0
 40
1.0
 40
1.0
 10
207.2455044105365
 20
117.4032035965399
 30
0.0
 10
207.410810073169
 20
117.6895231800551
 30
0.0
 10
207.6936607611322
 20
118.1794379832439
 30
0.0
 10
208.1048330134406
 20
118.8916082470472
 30
0.0
 10
208.3094841608475
 20
119.2460743589827
 30
0.0
 10
208.4002028420283
 20
119.4032036915348
 30
0.0
  0
SPLINE
  5
91
330
1F
100
AcDbEntity
  8
0
  6
Continuous
 62
     7
370
    15
100
AcDbSpline
210
0.0
220
0.0
230
1.0
 70
     8
 71
     3
 72
    10
 73
     6
 74
     0
 42
0.000000001
 43
0.00000001
 40
0.0
 40
0.0
 40
0.0
 40
0.0
 40
0.43912204117491
 40
0.7513714870347559
 40
0.9999999999999999
 40
0.9999999999999999
 40
0.9999999999999999
 40
0.9999999999999999
 10
208.4002028420283
 20
115.403203501545
 30
0.0
 10
208.2348971910189
 20
115.6895231305178
 30
0.0
 10
207.9520465454856
 20
116.1794379724439
 30
0.0
 10
207.5408742245311
 20
116.8916081914103
 30
0.0
 10
207.3362230893704
 20
117.2460742723779
 30
0.0
 10
207.2455044105365
 20
117.4032035965399
 30
0.0
  0
CIRCLE
  5
92
330
1F
100
AcDbEntity
  8
0
  6
Continuous
 62
     7
370
    15
100
AcDbCircle
 10
209.5549045101
 20
117.4032035965
 30
0.0
 40
2.350000000000009
  0
CIRCLE
  5
93
330
1F
100
AcDbEntity
  8
0
  6
Continuous
 62
     7
370
    15
100
AcDbCircle
 10
209.5549045101
 20
117.4032035965
 30
0.0
 40
3.5
  0
CIRCLE
  5
94
330
1F
100
AcDbEntity
  8
0
  6
Continuous
 62
     7
370
    15
100
AcDbCircle
 10
209.5549045101
 20
117.4032035965
 30
0.0
 40
4.0
  0
ARC
  5
95
330
1F
100
AcDbEntity
  8
0
  6
Continuous
 62
     7
370
    15
100
AcDbCircle
 10
209.5549045101
 20
117.4032035965
 30
0.0
 40
1.999999999999992
100
AcDbArc
 50
330.0
 51
30.0
  0
ARC
  5
96
330
1F
100
AcDbEntity
  8
0
  6
Continuous
 62
     7
370
    15
100
AcDbCircle
 10
209.5549045101
 20
117.4032035965
 30
0.0
 40
2.000000000000016
100
AcDbArc
 50
90.0
 51
150.0
  0
ARC
  5
97
330
1F
100
AcDbEntity
  8
0
  6
Continuous
 62
     7
370
    15
100
AcDbCircle
 10
209.5549045101
 20
117.4032035965
 30
0.0
 40
2.0
100
AcDbArc
 50
270.0
 51
330.0
  0
ARC
  5
98
330
1F
100
AcDbEntity
  8
0
  6
Continuous
 62
     7
370
    15
100
AcDbCircle
 10
209.5549045101
 20
117.4032035965
 30
0.0
 40
2.000000000000016
100
AcDbArc
 50
150.0
 51
210.0
  0
ARC
  5
99
330
1F
100
AcDbEntity
  8
0
  6
Continuous
 62
     7
370
    15
100
AcDbCircle
 10
209.5549045101
 20
117.4032035965
 30
0.0
 40
1.999999999999986
100
AcDbArc
 50
30.0
 51
90.0
  0
ARC
  5
9A
330
1F
100
AcDbEntity
  8
0
  6
Continuous
 62
     7
370
    15
100
AcDbCircle
 10
209.5549045101
 20
117.4032035965
 30
0.0
 40
2.000000000000016
100
AcDbArc
 50
210.0
 51
270.0
  0
LINE
  5
9B
330
1F
100
AcDbEntity
  8
0
  6
Continuous
 62
     7
370
    15
100
AcDbLine
 10
178.5549045741
 20
70.6739444036
 30
0.0
 11
182.621743457
 21
70.6739444036
 31
0.0
  0
LINE
  5
9C
330
1F
100
AcDbEntity
  8
0
  6
Continuous
 62
     7
370
    15
100
AcDbLine
 10
182.621743457
 20
147.2532041121
 30
0.0
 11
178.5549045741
 21
147.2532041121
 31
0.0
  0
LINE
  5
9D
330
1F
100
AcDbEntity
  8
0
  6
Continuous
 62
     7
370
    15
100
AcDbLine
 10
182.621743457
 20
70.6739444036
 30
0.0
 11
182.621743457
 21
147.2532041121
 31
0.0
  0
LINE
  5
9E
330
1F
100
AcDbEntity
  8
0
  6
Continuous
 62
     7
370
    15
100
AcDbLine
 10
187.7649043888
 20
103.6059418444
 30
0.0
 11
187.7649043888
 21
147.2532041121
 31
0.0
  0
SPLINE
  5
9F
330
1F
100
AcDbEntity
  8
0
  6
Continuous
 62
     7
370
    15
100
AcDbSpline
210
0.0
220
0.0
230
1.0
 70
    24
 71
     3
 72
     8
 73
     4
 74
     0
 42
0.000000001
 43
0.00000001
 40
0.0
 40
0.0
 40
0.0
 40
0.0
 40
1.0
 40
1.0
 40
1.0
 40
1.0
 10
189.0880660175143
 20
147.2532035965399
 30
0.0
 10
188.6414642974949
 20
147.2532035965399
 30
0.0
 10
188.2001046147561
 20
147.2532035965399
 30
0.0
 10
187.7649045100524
 20
147.2532035965399
 30
0.0
  0
LINE
  5
A0
330
1F
100
AcDbEntity
  8
0
  6
Continuous
 62
     7
370
    15
100
AcDbLine
 10
189.0880660355
 20
103.1060563151
 30
0.0
 11
189.0880660355
 21
147.2532041121
 31
0.0
  0
SPLINE
  5
A1
330
1F
100
AcDbEntity
  8
0
  6
Continuous
 62
     7
370
    15
100
AcDbSpline
210
0.0
220
0.0
230
1.0
 70
     8
 71
     3
 72
    10
 73
     6
 74
     0
 42
0.000000001
 43
0.00000001
 40
0.0
 40
0.0
 40
0.0
 40
0.0
 40
0.5
 40
0.5
 40
1.0
 40
1.0
 40
1.0
 40
1.0
 10
189.0880660175143
 20
103.1060565314088
 30
0.0
 10
188.8653389906409
 20
103.2495450317026
 30
0.0
 10
188.6436531034158
 20
103.3642657774355
 30
0.0
 10
188.2024322655638
 20
103.5340262067933
 30
0.0
 10
187.9828736181649
 20
103.5894462011807
 30
0.0
 10
187.7649045100527
 20
103.6059415305504
 30
0.0
  0
SPLINE
  5
A2
330
1F
100
AcDbEntity
  8
0
  6
Continuous
 62
     7
370
    15
100
AcDbSpline
210
0.0
220
0.0
230
1.0
 70
     8
 71
     3
 72
    10
 73
     6
 74
     0
 42
0.000000001
 43
0.00000001
 40
0.0
 40
0.0
 40
0.0
 40
0.0
 40
0.5
 40
0.5
 40
1.0
 40
1.0
 40
1.0
 40
1.0
 10
178.1705645412064
 20
70.7697493293477
 30
0.0
 10
178.2192151097861
 20
70.74179233808032
 30
0.0
 10
178.2766003217455
 20
70.71785005305351
 30
0.0
 10
178.4073134299116
 20
70.68373158995777
 30
0.0
 10
178.4800529636502
 20
70.67394425519393
 30
0.0
 10
178.5549045100524
 20
70.67394425519394
 30
0.0
  0
SPLINE
  5
A3
330
1F
100
AcDbEntity
  8
0
  6
Continuous
 62
     7
370
    15
100
AcDbSpline
210
0.0
220
0.0
230
1.0
 70
     8
 71
     3
 72
    10
 73
     6
 74
     0
 42
0.000000001
 43
0.00000001
 40
0.0
 40
0.0
 40
0.0
 40
0.0
 40
0.5
 40
0.5
 40
1.0
 40
1.0
 40
1.0
 40
1.0
 10
178.1705645412064
 20
70.7697493293477
 30
0.0
 10
178.1123765346242
 20
70.83733305952653
 30
0.0
 10
178.059934068098
 20
70.91780929416828
 30
0.0
 10
177.9815817609193
 20
71.10084491715102
 30
0.0
 10
177.9549045100524
 20
71.20672061994664
 30
0.0
 10
177.9549045100524
 20
71.31423392916724
 30
0.0
  0
LINE
  5
A4
330
1F
100
AcDbEntity
  8
0
  6
Continuous
 62
     7
370
    15
100
AcDbLine
 10
177.9549044292
 20
71.3142323989
 30
0.0
 11
177.9549044292
 21
147.2532041121
 31
0.0
  0
SPLINE
  5
A5
330
1F
100
AcDbEntity
  8
0
  6
Continuous
 62
     7
370
    15
100
AcDbSpline
210
0.0
220
0.0
230
1.0
 70
    24
 71
     3
 72
    14
 73
    10
 74
     0
 42
0.000000001
 43
0.00000001
 40
0.0
 40
0.0
 40
0.0
 40
0.0
 40
0.25
 40
0.25
 40
0.5
 40
0.5
 40
0.75
 40
0.75
 40
1.0
 40
1.0
 40
1.0
 40
1.0
 10
178.5549045100524
 20
147.2532035965399
 30
0.0
 10
178.4658825577088
 20
147.2532035965399
 30
0.0
 10
178.3761958584352
 20
147.2532035965399
 30
0.0
 10
178.2224690328779
 20
147.2532035965399
 30
0.0
 10
178.1572641382511
 20
147.2532035965399
 30
0.0
 10
178.0546734440807
 20
147.2532035965399
 30
0.0
 10
178.0170359897648
 20
147.2532035965399
 30
0.0
 10
177.9669440743796
 20
147.2532035965399
 30
0.0
 10
177.9549045100524
 20
147.2532035965399
 30
0.0
 10
177.9549045100524
 20
147.2532035965399
 30
0.0
  0
SPLINE
  5
A6
330
1F
100
AcDbEntity
  8
0
  6
Continuous
 62
     7
370
    15
100
AcDbSpline
210
0.0
220
0.0
230
1.0
 70
     8
 71
     3
 72
     8
 73
     4
 74
     0
 42
0.000000001
 43
0.00000001
 40
0.0
 40
0.0
 40
0.0
 40
0.0
 40
1.0
 40
1.0
 40
1.0
 40
1.0
 10
183.9449045100524
 20
72.78346418771017
 30
0.0
 10
183.6551760640278
 20
72.26124417754663
 30
0.0
 10
183.3651509138101
 20
71.73919079528666
 30
0.0
 10
183.0748566795483
 20
71.21728852956356
 30
0.0
  0
SPLINE
  5
A7
330
1F
100
AcDbEntity
  8
0
  6
Continuous
 62
     7
370
    15
100
AcDbSpline
210
0.0
220
0.0
230
1.0
 70
     8
 71
     3
 72
     8
 73
     4
 74
     0
 42
0.000000001
 43
0.00000001
 40
0.0
 40
0.0
 40
0.0
 40
0.0
 40
0.0011862984959113
 40
0.0011862984959113
 40
0.0011862984959113
 40
0.0011862984959113
 10
182.6217430025905
 20
70.67394425519394
 30
0.0
 10
182.7737677644613
 20
70.85485610481193
 30
0.0
 10
182.9248252096772
 20
71.03596843525277
 30
0.0
 10
183.0748566795483
 20
71.21728852956358
 30
0.0
  0
SPLINE
  5
A8
330
1F
100
AcDbEntity
  8
0
  6
Continuous
 62
     7
370
    15
100
AcDbSpline
210
0.0
220
0.0
230
1.0
 70
    24
 71
     3
 72
     8
 73
     4
 74
     0
 42
0.000000001
 43
0.00000001
 40
0.0
 40
0.0
 40
0.0
 40
0.0
 40
1.0
 40
1.0
 40
1.0
 40
1.0
 10
183.9449045100524
 20
147.2532035965399
 30
0.0
 10
183.5097044053487
 20
147.2532035965399
 30
0.0
 10
183.0683447226099
 20
147.2532035965399
 30
0.0
 10
182.6217430025905
 20
147.2532035965399
 30
0.0
  0
LINE
  5
A9
330
1F
100
AcDbEntity
  8
0
  6
Continuous
 62
     7
370
    15
100
AcDbLine
 10
183.9449041724
 20
72.7834645409
 30
0.0
 11
183.9449041724
 21
147.2532041121
 31
0.0
  0
SPLINE
  5
AA
330
1F
100
AcDbEntity
  8
0
  6
Continuous
 62
     7
370
    15
100
AcDbSpline
210
0.0
220
0.0
230
1.0
 70
     8
 71
     3
 72
    12
 73
     8
 74
     0
 42
0.000000001
 43
0.00000001
 40
0.0
 40
0.0
 40
0.0
 40
0.0
 40
0.2499999999999992
 40
0.2499999999999992
 40
0.4999999999999984
 40
0.4999999999999984
 40
1.0
 40
1.0
 40
1.0
 40
1.0
 10
193.2049045100524
 20
70.67394425519394
 30
0.0
 10
193.3008772632272
 20
70.67394425519393
 30
0.0
 10
193.3933052273817
 20
70.69021757930253
 30
0.0
 10
193.5497353274912
 20
70.74359130129893
 30
0.0
 10
193.613213752264
 20
70.77971955883328
 30
0.0
 10
193.7614929130912
 20
70.90042075511255
 30
0.0
 10
193.8049045100524
 20
70.99427034147772
 30
0.0
 10
193.8049045100524
 20
71.08857461642492
 30
0.0
  0
SPLINE
  5
AB
330
1F
100
AcDbEntity
  8
0
  6
Continuous
 62
     7
370
    15
100
AcDbSpline
210
0.0
220
0.0
230
1.0
 70
    24
 71
     3
 72
    12
 73
     8
 74
     0
 42
0.000000001
 43
0.00000001
 40
0.0
 40
0.0
 40
0.0
 40
0.0
 40
0.5
 40
0.5
 40
0.75
 40
0.75
 40
1.0
 40
1.0
 40
1.0
 40
1.0
 10
193.8049045100524
 20
147.2532035965399
 30
0.0
 10
193.8049045100524
 20
147.2532035965399
 30
0.0
 10
193.756773821667
 20
147.2532035965399
 30
0.0
 10
193.602876765864
 20
147.2532035965399
 30
0.0
 10
193.5374122008572
 20
147.2532035965399
 30
0.0
 10
193.3838828802471
 20
147.2532035965399
 30
0.0
 10
193.2955342195112
 20
147.2532035965399
 30
0.0
 10
193.2049045100522
 20
147.2532035965399
 30
0.0
  0
LINE
  5
AC
330
1F
100
AcDbEntity
  8
0
  6
Continuous
 62
     7
370
    15
100
AcDbLine
 10
193.8049047455
 20
71.0885729391
 30
0.0
 11
193.8049047455
 21
147.2532041121
 31
0.0
  0
LINE
  5
AD
330
1F
100
AcDbEntity
  8
0
  6
Continuous
 62
     7
370
    15
100
AcDbLine
 10
193.2049039021
 20
147.2532041121
 30
0.0
 11
189.0880660355
 21
147.2532041121
 31
0.0
  0
LINE
  5
AE
330
1F
100
AcDbEntity
  8
0
  6
Continuous
 62
     7
370
    15
100
AcDbLine
 10
189.0880660355
 20
70.6739444036
 30
0.0
 11
193.2049039021
 21
70.6739444036
 31
0.0
  0
LINE
  5
AF
330
1F
100
AcDbEntity
  8
0
  6
Continuous
 62
     7
370
    15
100
AcDbLine
 10
189.0880660355
 20
70.6739444036
 30
0.0
 11
189.0880660355
 21
98.4142627317
 31
0.0
  0
SPLINE
  5
B0
330
1F
100
AcDbEntity
  8
0
  6
Continuous
 62
     7
370
    15
100
AcDbSpline
210
0.0
220
0.0
230
1.0
 70
     8
 71
     3
 72
    34
 73
    30
 74
     0
 42
0.000000001
 43
0.00000001
 40
0.0
 40
0.0
 40
0.0
 40
0.0
 40
0.0624999999999992
 40
0.0624999999999992
 40
0.1249999999999984
 40
0.1249999999999984
 40
0.1874999999999976
 40
0.1874999999999976
 40
0.2499999999999973
 40
0.2499999999999973
 40
0.3124999999999971
 40
0.3124999999999971
 40
0.3749999999999968
 40
0.3749999999999968
 40
0.4999999999999972
 40
0.4999999999999972
 40
0.6249999999999976
 40
0.6249999999999976
 40
0.687499999999998
 40
0.687499999999998
 40
0.7499999999999984
 40
0.7499999999999984
 40
0.8124999999999989
 40
0.8124999999999989
 40
0.8749999999999992
 40
0.8749999999999992
 40
0.9374999999999997
 40
0.9374999999999997
 40
1.0
 40
1.0
 40
1.0
 40
1.0
 10
189.0880660175143
 20
98.41426320853877
 30
0.0
 10
189.2474578453022
 20
98.42210330446153
 30
0.0
 10
189.4034603287457
 20
98.44376195255197
 30
0.0
 10
189.708969844823
 20
98.51361018004478
 30
0.0
 10
189.8598641798352
 20
98.56243588237302
 30
0.0
 10
190.147763524526
 20
98.68535983578033
 30
0.0
 10
190.2837099274857
 20
98.75866734391465
 30
0.0
 10
190.5398925430777
 20
98.92867796768601
 30
0.0
 10
190.6610748308369
 20
99.02655175988748
 30
0.0
 10
190.8782209027096
 20
99.23913593531942
 30
0.0
 10
190.9751827756699
 20
99.35418187384903
 30
0.0
 10
191.1457452114955
 20
99.60204299396915
 30
0.0
 10
191.2189852647075
 20
99.73507649103475
 30
0.0
 10
191.3938657214563
 20
100.1445845071649
 30
0.0
 10
191.4549036824322
 20
100.44254515694
 30
0.0
 10
191.4549053376553
 20
101.0339867128144
 30
0.0
 10
191.393870728069
 20
101.334160262791
 30
0.0
 10
191.2189809606671
 20
101.7493915430588
 30
0.0
 10
191.1457372552427
 20
101.8847466613056
 30
0.0
 10
190.975176539506
 20
102.1376459926922
 30
0.0
 10
190.8782128239125
 20
102.2554112703
 30
0.0
 10
190.6610524953254
 20
102.4735415656686
 30
0.0
 10
190.5398712366385
 20
102.5742448908156
 30
0.0
 10
190.2837010096999
 20
102.7494885836488
 30
0.0
 10
190.1477576600371
 20
102.8252335527394
 30
0.0
 10
189.859854956854
 20
102.9524019280417
 30
0.0
 10
189.7089647609372
 20
103.0030032003692
 30
0.0
 10
189.4034592572316
 20
103.075432300117
 30
0.0
 10
189.2474578589681
 20
103.097918071514
 30
0.0
 10
189.0880660175143
 20
103.1060565314088
 30
0.0
  0
SPLINE
  5
B1
330
1F
100
AcDbEntity
  8
0
  6
Continuous
 62
     7
370
    15
100
AcDbSpline
210
0.0
220
0.0
230
1.0
 70
     8
 71
     3
 72
    14
 73
    10
 74
     0
 42
0.000000001
 43
0.00000001
 40
0.0
 40
0.0
 40
0.0
 40
0.0
 40
0.25
 40
0.25
 40
0.5
 40
0.5
 40
0.75
 40
0.75
 40
1.0
 40
1.0
 40
1.0
 40
1.0
 10
187.7649045100524
 20
103.6515557525629
 30
0.0
 10
187.7649045100524
 20
103.6935321344164
 30
0.0
 10
187.7352615560812
 20
103.7213825220573
 30
0.0
 10
187.6286067223512
 20
103.7348813973473
 30
0.0
 10
187.5523283277469
 20
103.7202658953097
 30
0.0
 10
187.3842767846805
 20
103.6481766911415
 30
0.0
 10
187.2931569780722
 20
103.5910390806587
 30
0.0
 10
187.1204798658195
 20
103.4488113800675
 30
0.0
 10
187.0395574262914
 20
103.3652475545554
 30
0.0
 10
186.9649045100524
 20
103.2718778826595
 30
0.0
  0
SPLINE
  5
B2
330
1F
100
AcDbEntity
  8
0
  6
Continuous
 62
     7
370
    15
100
AcDbSpline
210
0.0
220
0.0
230
1.0
 70
     8
 71
     3
 72
    10
 73
     6
 74
     0
 42
0.000000001
 43
0.00000001
 40
0.0
 40
0.0
 40
0.0
 40
0.0
 40
0.5
 40
0.5
 40
1.0
 40
1.0
 40
1.0
 40
1.0
 10
187.7649045100527
 20
99.47390033191886
 30
0.0
 10
187.9817953425735
 20
99.2368613924703
 30
0.0
 10
188.2009479792324
 20
99.03469115747681
 30
0.0
 10
188.6424324795012
 20
98.68393908595813
 30
0.0
 10
188.8656349447746
 20
98.53526299356128
 30
0.0
 10
189.0880660175143
 20
98.41426320853876
 30
0.0
  0
LINE
  5
B3
330
1F
100
AcDbEntity
  8
0
  6
Continuous
 62
     7
370
    15
100
AcDbLine
 10
187.7649043888
 20
99.5195153851
 30
0.0
 11
187.7649043888
 21
99.473901068
 31
0.0
  0
SPLINE
  5
B4
330
1F
100
AcDbEntity
  8
0
  6
Continuous
 62
     7
370
    15
100
AcDbSpline
210
0.0
220
0.0
230
1.0
 70
     8
 71
     3
 72
    16
 73
    12
 74
     0
 42
0.000000001
 43
0.00000001
 40
0.0
 40
0.0
 40
0.0
 40
0.0
 40
0.2500000000000061
 40
0.2500000000000061
 40
0.5000000000000122
 40
0.5000000000000122
 40
0.6250000000000117
 40
0.6250000000000117
 40
0.7500000000000112
 40
0.7500000000000112
 40
1.0
 40
1.0
 40
1.0
 40
1.0
 10
186.9649045100524
 20
100.4279140396059
 30
0.0
 10
187.0389124002746
 20
100.3375664594202
 30
0.0
 10
187.1195303952636
 20
100.2496068866205
 30
0.0
 10
187.2932983807678
 20
100.0732719625589
 30
0.0
 10
187.3840495117093
 20
99.98766472189295
 30
0.0
 10
187.5101626091707
 20
99.86646902586796
 30
0.0
 10
187.549739370034
 20
99.82793744687712
 30
0.0
 10
187.6222220267352
 20
99.75354146074777
 30
0.0
 10
187.6551500172041
 20
99.7175246728263
 30
0.0
 10
187.734940187199
 20
99.6187719970093
 30
0.0
 10
187.7649045100524
 20
99.5620079952272
 30
0.0
 10
187.7649045100524
 20
99.51951455393164
 30
0.0
  0
SPLINE
  5
B5
330
1F
100
AcDbEntity
  8
0
  6
Continuous
 62
     7
370
    15
100
AcDbSpline
210
0.0
220
0.0
230
1.0
 70
     8
 71
     3
 72
    16
 73
    12
 74
     0
 42
0.000000001
 43
0.00000001
 40
0.0
 40
0.0
 40
0.0
 40
0.0
 40
0.2499999999999994
 40
0.2499999999999994
 40
0.4999999999999988
 40
0.4999999999999988
 40
0.7499999999999997
 40
0.7499999999999997
 40
0.8749999999999999
 40
0.8749999999999999
 40
1.0
 40
1.0
 40
1.0
 40
1.0
 10
186.9649045100524
 20
103.2718778826595
 30
0.0
 10
186.7994904035722
 20
103.0649916466341
 30
0.0
 10
186.6732930725967
 20
102.8391229488254
 30
0.0
 10
186.4988867742658
 20
102.3502537032125
 30
0.0
 10
186.4550567351689
 20
102.0984866498679
 30
0.0
 10
186.4547530621989
 20
101.5867073252856
 30
0.0
 10
186.4986099222592
 20
101.3356526162029
 30
0.0
 10
186.6285316815264
 20
100.9748040480607
 30
0.0
 10
186.6826464929344
 20
100.8575312797122
 30
0.0
 10
186.8093234830779
 20
100.6350423283734
 30
0.0
 10
186.8821972034386
 20
100.5288817201301
 30
0.0
 10
186.9649045100524
 20
100.4279140396059
 30
0.0
  0
SPLINE
  5
B6
330
1F
100
AcDbEntity
  8
0
  6
Continuous
 62
     7
370
    15
100
AcDbSpline
210
0.0
220
0.0
230
1.0
 70
     8
 71
     3
 72
    14
 73
    10
 74
     0
 42
0.000000001
 43
0.00000001
 40
0.0
 40
0.0
 40
0.0
 40
0.0
 40
0.25
 40
0.25
 40
0.5
 40
0.5
 40
0.75
 40
0.75
 40
1.0
 40
1.0
 40
1.0
 40
1.0
 10
184.7449045100524
 20
73.75543733067016
 30
0.0
 10
184.6384595021431
 20
73.75543733067015
 30
0.0
 10
184.5315607508696
 20
73.73286778123706
 30
0.0
 10
184.3353424954272
 20
73.64642468999511
 30
0.0
 10
184.2456841819627
 20
73.58212077232798
 30
0.0
 10
184.1002304690816
 20
73.42715125828502
 30
0.0
 10
184.0421946863554
 20
73.33438577204129
 30
0.0
 10
183.9649095319708
 20
73.1359188903979
 30
0.0
 10
183.9449045100524
 20
73.02889446860412
 30
0.0
 10
183.9449045100524
 20
72.92211210813329
 30
0.0
  0
SPLINE
  5
B7
330
1F
100
AcDbEntity
  8
0
  6
Continuous
 62
     7
370
    15
100
AcDbSpline
210
0.0
220
0.0
230
1.0
 70
    24
 71
     3
 72
    14
 73
    10
 74
     0
 42
0.000000001
 43
0.00000001
 40
0.0
 40
0.0
 40
0.0
 40
0.0
 40
0.25
 40
0.25
 40
0.5
 40
0.5
 40
0.75
 40
0.75
 40
1.0
 40
1.0
 40
1.0
 40
1.0
 10
184.7449045100524
 20
147.2532035965399
 30
0.0
 10
184.6219232105061
 20
147.2532035965399
 30
0.0
 10
184.5017333221041
 20
147.2532035965399
 30
0.0
 10
184.2967094924249
 20
147.2532035965399
 30
0.0
 10
184.2101150036228
 20
147.2532035965399
 30
0.0
 10
184.0750071168604
 20
147.2532035965399
 30
0.0
 10
184.0264840318322
 20
147.2532035965399
 30
0.0
 10
183.9608015231055
 20
147.2532035965399
 30
0.0
 10
183.9449045100524
 20
147.2532035965399
 30
0.0
 10
183.9449045100524
 20
147.2532035965399
 30
0.0
  0
SPLINE
  5
B8
330
1F
100
AcDbEntity
  8
0
  6
Continuous
 62
     7
370
    15
100
AcDbSpline
210
0.0
220
0.0
230
1.0
 70
    24
 71
     3
 72
    14
 73
    10
 74
     0
 42
0.000000001
 43
0.00000001
 40
0.0
 40
0.0
 40
0.0
 40
0.0
 40
0.25
 40
0.25
 40
0.5
 40
0.5
 40
0.75
 40
0.75
 40
1.0
 40
1.0
 40
1.0
 40
1.0
 10
187.7649045100524
 20
147.2532035965399
 30
0.0
 10
187.7649045100524
 20
147.2532035965399
 30
0.0
 10
187.7486234752766
 20
147.2532035965399
 30
0.0
 10
187.683960412752
 20
147.2532035965399
 30
0.0
 10
187.6344806164633
 20
147.2532035965399
 30
0.0
 10
187.5005108593246
 20
147.2532035965399
 30
0.0
 10
187.4143961327251
 20
147.2532035965399
 30
0.0
 10
187.2089400170121
 20
147.2532035965399
 30
0.0
 10
187.0875194798192
 20
147.2532035965399
 30
0.0
 10
186.9649045100524
 20
147.2532035965399
 30
0.0
  0
LINE
  5
B9
330
1F
100
AcDbEntity
  8
0
  6
Continuous
 62
     7
370
    15
100
AcDbLine
 10
186.9649048164
 20
73.7554374833
 30
0.0
 11
184.7449046761
 21
73.7554374833
 31
0.0
  0
LINE
  5
BA
330
1F
100
AcDbEntity
  8
0
  6
Continuous
 62
     7
370
    15
100
AcDbLine
 10
186.9649048164
 20
147.2532041121
 30
0.0
 11
184.7449046761
 21
147.2532041121
 31
0.0
  0
SPLINE
  5
BB
330
1F
100
AcDbEntity
  8
0
  6
Continuous
 62
     7
370
    15
100
AcDbSpline
210
0.0
220
0.0
230
1.0
 70
     8
 71
     3
 72
     8
 73
     4
 74
     0
 42
0.000000001
 43
0.00000001
 40
0.0000000000000004
 40
0.0000000000000004
 40
0.0000000000000004
 40
0.0000000000000004
 40
0.0011862984959128
 40
0.0011862984959128
 40
0.0011862984959128
 40
0.0011862984959128
 10
188.6349523405526
 20
71.21728852956358
 30
0.0
 10
188.7849838104239
 20
71.03596843525253
 30
0.0
 10
188.9360412556433
 20
70.85485610481216
 30
0.0
 10
189.0880660175143
 20
70.67394425519394
 30
0.0
  0
SPLINE
  5
BC
330
1F
100
AcDbEntity
  8
0
  6
Continuous
 62
     7
370
    15
100
AcDbSpline
210
0.0
220
0.0
230
1.0
 70
     8
 71
     3
 72
     8
 73
     4
 74
     0
 42
0.000000001
 43
0.00000001
 40
0.0
 40
0.0
 40
0.0
 40
0.0
 40
1.0
 40
1.0
 40
1.0
 40
1.0
 10
188.6349523405556
 20
71.21728852956524
 30
0.0
 10
188.3446581062941
 20
71.73919079528778
 30
0.0
 10
188.0546329560767
 20
72.26124417754718
 30
0.0
 10
187.7649045100524
 20
72.78346418771017
 30
0.0
  0
LINE
  5
BD
330
1F
100
AcDbEntity
  8
0
  6
Continuous
 62
     7
370
    15
100
AcDbLine
 10
187.7649043888
 20
72.7834645409
 30
0.0
 11
187.7649043888
 21
99.473901068
 31
0.0
  0
SPLINE
  5
BE
330
1F
100
AcDbEntity
  8
0
  6
Continuous
 62
     7
370
    15
100
AcDbSpline
210
0.0
220
0.0
230
1.0
 70
     8
 71
     3
 72
    14
 73
    10
 74
     0
 42
0.000000001
 43
0.00000001
 40
0.0
 40
0.0
 40
0.0
 40
0.0
 40
0.25
 40
0.25
 40
0.5
 40
0.5
 40
0.75
 40
0.75
 40
1.0
 40
1.0
 40
1.0
 40
1.0
 10
187.7649045100524
 20
72.92211210813332
 30
0.0
 10
187.7649045100524
 20
73.02917609447412
 30
0.0
 10
187.7449206838124
 20
73.13591542084863
 30
0.0
 10
187.6674856013789
 20
73.33466532303942
 30
0.0
 10
187.6095466792195
 20
73.42721953953193
 30
0.0
 10
187.4639088734587
 20
73.58231648293753
 30
0.0
 10
187.3751198771234
 20
73.64605663985039
 30
0.0
 10
187.1785715169189
 20
73.73280519693799
 30
0.0
 10
187.0724322872195
 20
73.75543733067015
 30
0.0
 10
186.9649045100524
 20
73.75543733067015
 30
0.0
  0
LINE
  5
BF
330
1F
100
AcDbEntity
  8
0
  6
Continuous
 62
     7
370
    15
100
AcDbLine
 10
174.7549045101
 20
82.4782047171
 30
0.0
 11
174.7549045101
 21
152.328202476
 31
0.0
  0
SPLINE
  5
C0
330
1F
100
AcDbEntity
  8
0
  6
Continuous
 62
     7
370
    15
100
AcDbSpline
210
0.0
220
0.0
230
1.0
 70
     8
 71
     3
 72
    12
 73
     8
 74
     0
 42
0.000000001
 43
0.00000001
 40
0.0
 40
0.0
 40
0.0
 40
0.0
 40
0.2500000000000007
 40
0.2500000000000007
 40
0.5000000000000014
 40
0.5000000000000014
 40
1.0
 40
1.0
 40
1.0
 40
1.0
 10
184.7449045100524
 20
161.0509698624097
 30
0.0
 10
184.6385595301765
 20
161.0509698624097
 30
0.0
 10
184.5312831827738
 20
161.0736851002693
 30
0.0
 10
184.3359073933777
 20
161.1597102671516
 30
0.0
 10
184.2473536573008
 20
161.22268899408
 30
0.0
 10
184.0260957331695
 20
161.457880504517
 30
0.0
 10
183.9449045100524
 20
161.6710567190023
 30
0.0
 10
183.9449045100524
 20
161.8842950849464
 30
0.0
  0
SPLINE
  5
C1
330
1F
100
AcDbEntity
  8
0
  6
Continuous
 62
     7
370
    15
100
AcDbSpline
210
0.0
220
0.0
230
1.0
 70
     8
 71
     3
 72
    12
 73
     8
 74
     0
 42
0.000000001
 43
0.00000001
 40
0.0
 40
0.0
 40
0.0
 40
0.0
 40
0.499999999999994
 40
0.499999999999994
 40
0.749999999999997
 40
0.749999999999997
 40
1.0
 40
1.0
 40
1.0
 40
1.0
 10
183.9449045100524
 20
152.796246698257
 30
0.0
 10
183.9449045100524
 20
152.5538236022762
 30
0.0
 10
184.0078256514942
 20
152.3080530816748
 30
0.0
 10
184.2098545484967
 20
152.003106902258
 30
0.0
 10
184.2961482731439
 20
151.9125140356595
 30
0.0
 10
184.5016220677106
 20
151.7820804727227
 30
0.0
 10
184.6215726283103
 20
151.743085658073
 30
0.0
 10
184.7449045100524
 20
151.743085658073
 30
0.0
  0
SPLINE
  5
C2
330
1F
100
AcDbEntity
  8
0
  6
Continuous
 62
     7
370
    15
100
AcDbSpline
210
0.0
220
0.0
230
1.0
 70
     8
 71
     3
 72
    12
 73
     8
 74
     0
 42
0.000000001
 43
0.00000001
 40
0.0
 40
0.0
 40
0.0
 40
0.0
 40
0.5000000000000003
 40
0.5000000000000003
 40
0.7500000000000001
 40
0.7500000000000001
 40
1.0
 40
1.0
 40
1.0
 40
1.0
 10
177.9549045100524
 20
155.1522847111843
 30
0.0
 10
177.9549045100524
 20
155.3306449784236
 30
0.0
 10
178.0022166314284
 20
155.5094173901275
 30
0.0
 10
178.1565767093098
 20
155.7311792554793
 30
0.0
 10
178.2214622442287
 20
155.7954712940957
 30
0.0
 10
178.376694943457
 20
155.8881157782554
 30
0.0
 10
178.4657703561253
 20
155.9142815482151
 30
0.0
 10
178.5549045100524
 20
155.9142815482151
 30
0.0
  0
LINE
  5
C3
330
1F
100
AcDbEntity
  8
0
  6
Continuous
 62
     7
370
    15
100
AcDbLine
 10
178.5549045741
 20
155.9142824013
 30
0.0
 11
182.621743457
 21
155.9142824013
 31
0.0
  0
SPLINE
  5
C4
330
1F
100
AcDbEntity
  8
0
  6
Continuous
 62
     7
370
    15
100
AcDbSpline
210
0.0
220
0.0
230
1.0
 70
     8
 71
     3
 72
     8
 73
     4
 74
     0
 42
0.000000001
 43
0.00000001
 40
0.0
 40
0.0
 40
0.0
 40
0.0
 40
1.0
 40
1.0
 40
1.0
 40
1.0
 10
182.6217430025905
 20
155.9142815482151
 30
0.0
 10
183.0685917305182
 20
154.9350456499588
 30
0.0
 10
183.509958088414
 20
153.9538436572319
 30
0.0
 10
183.9449045100524
 20
152.9703393388496
 30
0.0
  0
LINE
  5
C5
330
1F
100
AcDbEntity
  8
0
  6
Continuous
 62
     7
370
    15
100
AcDbLine
 10
183.9449041724
 20
152.9703382153
 30
0.0
 11
183.9449041724
 21
152.7962479491
 31
0.0
  0
LINE
  5
C6
330
1F
100
AcDbEntity
  8
0
  6
Continuous
 62
     7
370
    15
100
AcDbLine
 10
184.7449046761
 20
151.74308603
 30
0.0
 11
186.9649048164
 21
151.74308603
 31
0.0
  0
SPLINE
  5
C7
330
1F
100
AcDbEntity
  8
0
  6
Continuous
 62
     7
370
    15
100
AcDbSpline
210
0.0
220
0.0
230
1.0
 70
     8
 71
     3
 72
    14
 73
    10
 74
     0
 42
0.000000001
 43
0.00000001
 40
0.0
 40
0.0
 40
0.0
 40
0.0
 40
0.25
 40
0.25
 40
0.5
 40
0.5
 40
0.75
 40
0.75
 40
1.0
 40
1.0
 40
1.0
 40
1.0
 10
186.9649045100524
 20
151.743085658073
 30
0.0
 10
187.0862310400381
 20
151.743085658073
 30
0.0
 10
187.2079357486004
 20
151.7818671735062
 30
0.0
 10
187.4143756274865
 20
151.9130217952001
 30
0.0
 10
187.5003261659426
 20
152.0036738797872
 30
0.0
 10
187.6342379256908
 20
152.2057909147285
 30
0.0
 10
187.68380236251
 20
152.3195258582676
 30
0.0
 10
187.7486563904779
 20
152.5524854753341
 30
0.0
 10
187.7649045100524
 20
152.6751837416633
 30
0.0
 10
187.7649045100524
 20
152.796246698257
 30
0.0
  0
LINE
  5
C8
330
1F
100
AcDbEntity
  8
0
  6
Continuous
 62
     7
370
    15
100
AcDbLine
 10
187.7649043888
 20
152.7962479491
 30
0.0
 11
187.7649043888
 21
152.9703382153
 31
0.0
  0
SPLINE
  5
C9
330
1F
100
AcDbEntity
  8
0
  6
Continuous
 62
     7
370
    15
100
AcDbSpline
210
0.0
220
0.0
230
1.0
 70
     8
 71
     3
 72
     8
 73
     4
 74
     0
 42
0.000000001
 43
0.00000001
 40
0.0
 40
0.0
 40
0.0
 40
0.0
 40
1.0
 40
1.0
 40
1.0
 40
1.0
 10
187.7649045100524
 20
152.9703393388496
 30
0.0
 10
188.1998509316908
 20
153.953843657232
 30
0.0
 10
188.6412172895866
 20
154.9350456499588
 30
0.0
 10
189.0880660175143
 20
155.9142815482151
 30
0.0
  0
LINE
  5
CA
330
1F
100
AcDbEntity
  8
0
  6
Continuous
 62
     7
370
    15
100
AcDbLine
 10
189.0880660355
 20
155.9142824013
 30
0.0
 11
193.2049039021
 21
155.9142824013
 31
0.0
  0
SPLINE
  5
CB
330
1F
100
AcDbEntity
  8
0
  6
Continuous
 62
     7
370
    15
100
AcDbSpline
210
0.0
220
0.0
230
1.0
 70
     8
 71
     3
 72
    12
 73
     8
 74
     0
 42
0.000000001
 43
0.00000001
 40
0.0
 40
0.0
 40
0.0
 40
0.0
 40
0.2499999999999946
 40
0.2499999999999946
 40
0.4999999999999892
 40
0.4999999999999892
 40
1.0
 40
1.0
 40
1.0
 40
1.0
 10
193.2049045100529
 20
155.9142815482151
 30
0.0
 10
193.294441568224
 20
155.9142815482151
 30
0.0
 10
193.3843407470126
 20
155.8874542493841
 30
0.0
 10
193.5377656060119
 20
155.7957472841245
 30
0.0
 10
193.6028146633896
 20
155.7314923425257
 30
0.0
 10
193.7561338946539
 20
155.5120801964641
 30
0.0
 10
193.8049045100524
 20
155.3302648866672
 30
0.0
 10
193.8049045100524
 20
155.1522847111843
 30
0.0
  0
LINE
  5
CC
330
1F
100
AcDbEntity
  8
0
  6
Continuous
 62
     7
370
    15
100
AcDbLine
 10
177.9549044292
 20
155.1522854466
 30
0.0
 11
177.9549044292
 21
147.2532041121
 31
0.0
  0
LINE
  5
CD
330
1F
100
AcDbEntity
  8
0
  6
Continuous
 62
     7
370
    15
100
AcDbLine
 10
193.8049047455
 20
155.1522854466
 30
0.0
 11
193.8049047455
 21
147.2532041121
 31
0.0
  0
SPLINE
  5
CE
330
1F
100
AcDbEntity
  8
0
  6
Continuous
 62
     7
370
    15
100
AcDbSpline
210
0.0
220
0.0
230
1.0
 70
     8
 71
     3
 72
    14
 73
    10
 74
     0
 42
0.000000001
 43
0.00000001
 40
0.0
 40
0.0
 40
0.0
 40
0.0
 40
0.25
 40
0.25
 40
0.5
 40
0.5
 40
0.75
 40
0.75
 40
1.0
 40
1.0
 40
1.0
 40
1.0
 10
187.7649045100524
 20
161.8842950849466
 30
0.0
 10
187.7649045100524
 20
161.7769527127991
 30
0.0
 10
187.7449083179882
 20
161.6703237059513
 30
0.0
 10
187.6672102336435
 20
161.4711719268001
 30
0.0
 10
187.60921708875
 20
161.3786890284846
 30
0.0
 10
187.4631705959271
 20
161.2234531933755
 30
0.0
 10
187.3738328567595
 20
161.1597192517631
 30
0.0
 10
187.179077844699
 20
161.0738889853679
 30
0.0
 10
187.0715475734901
 20
161.0509698624094
 30
0.0
 10
186.9649045100503
 20
161.0509698624097
 30
0.0
  0
SPLINE
  5
CF
330
1F
100
AcDbEntity
  8
0
  6
Continuous
 62
     7
370
    15
100
AcDbSpline
210
0.0
220
0.0
230
1.0
 70
     8
 71
     3
 72
    12
 73
     8
 74
     0
 42
0.000000001
 43
0.00000001
 40
0.0
 40
0.0
 40
0.0
 40
0.0
 40
0.4999999999999982
 40
0.4999999999999982
 40
0.7499999999999991
 40
0.7499999999999991
 40
1.0
 40
1.0
 40
1.0
 40
1.0
 10
193.8049045100524
 20
163.6981905497704
 30
0.0
 10
193.8049045100524
 20
163.8183831564356
 30
0.0
 10
193.7509360797833
 20
163.9362904569506
 30
0.0
 10
193.5898494388505
 20
164.0756700014339
 30
0.0
 10
193.5250870193773
 20
164.1138352989979
 30
0.0
 10
193.3730330178129
 20
164.1684875613313
 30
0.0
 10
193.2903032446637
 20
164.1830482513155
 30
0.0
 10
193.2049045100524
 20
164.1830482513155
 30
0.0
  0
LINE
  5
D0
330
1F
100
AcDbEntity
  8
0
  6
Continuous
 62
     7
370
    15
100
AcDbLine
 10
193.8049047455
 20
155.1522854466
 30
0.0
 11
193.8049047455
 21
163.6981907982
 31
0.0
  0
SPLINE
  5
D1
330
1F
100
AcDbEntity
  8
0
  6
Continuous
 62
     7
370
    15
100
AcDbSpline
210
0.0
220
0.0
230
1.0
 70
     8
 71
     3
 72
     8
 73
     4
 74
     0
 42
0.000000001
 43
0.00000001
 40
0.0
 40
0.0
 40
0.0
 40
0.0
 40
0.0012352705496723
 40
0.0012352705496723
 40
0.0012352705496723
 40
0.0012352705496723
 10
183.178233487885
 20
163.403236841209
 30
0.0
 10
182.9931982370831
 20
163.6633384169373
 30
0.0
 10
182.8076914279123
 20
163.9232724955642
 30
0.0
 10
182.6217430025905
 20
164.1830482513155
 30
0.0
  0
SPLINE
  5
D2
330
1F
100
AcDbEntity
  8
0
  6
Continuous
 62
     7
370
    15
100
AcDbSpline
210
0.0
220
0.0
230
1.0
 70
     8
 71
     3
 72
     8
 73
     4
 74
     0
 42
0.000000001
 43
0.00000001
 40
0.0
 40
0.0
 40
0.0
 40
0.0
 40
1.0
 40
1.0
 40
1.0
 40
1.0
 10
183.9449045100524
 20
162.0229430053697
 30
0.0
 10
183.6895731967471
 20
162.4831640256353
 30
0.0
 10
183.4340097986408
 20
162.9432584859437
 30
0.0
 10
183.178233487885
 20
163.403236841209
 30
0.0
  0
LINE
  5
D3
330
1F
100
AcDbEntity
  8
0
  6
Continuous
 62
     7
370
    15
100
AcDbLine
 10
183.9449041724
 20
152.9703382153
 30
0.0
 11
183.9449041724
 21
162.0229426522
 31
0.0
  0
LINE
  5
D4
330
1F
100
AcDbEntity
  8
0
  6
Continuous
 62
     7
370
    15
100
AcDbLine
 10
182.621743457
 20
155.9142824013
 30
0.0
 11
182.621743457
 21
164.1830485064
 31
0.0
  0
LINE
  5
D5
330
1F
100
AcDbEntity
  8
0
  6
Continuous
 62
     7
370
    15
100
AcDbLine
 10
186.9649048164
 20
161.0509697098
 30
0.0
 11
184.7449046761
 21
161.0509697098
 31
0.0
  0
LINE
  5
D6
330
1F
100
AcDbEntity
  8
0
  6
Continuous
 62
     7
370
    15
100
AcDbLine
 10
193.2049039021
 20
164.1830485064
 30
0.0
 11
189.0880660355
 21
164.1830485064
 31
0.0
  0
LINE
  5
D7
330
1F
100
AcDbEntity
  8
0
  6
Continuous
 62
     7
370
    15
100
AcDbLine
 10
189.0880660355
 20
155.9142824013
 30
0.0
 11
189.0880660355
 21
164.1830485064
 31
0.0
  0
LINE
  5
D8
330
1F
100
AcDbEntity
  8
0
  6
Continuous
 62
     7
370
    15
100
AcDbLine
 10
182.621743457
 20
164.1830485064
 30
0.0
 11
178.5549045741
 21
164.1830485064
 31
0.0
  0
SPLINE
  5
D9
330
1F
100
AcDbEntity
  8
0
  6
Continuous
 62
     7
370
    15
100
AcDbSpline
210
0.0
220
0.0
230
1.0
 70
     8
 71
     3
 72
     8
 73
     4
 74
     0
 42
0.000000001
 43
0.00000001
 40
0.0
 40
0.0
 40
0.0
 40
0.0
 40
1.0
 40
1.0
 40
1.0
 40
1.0
 10
188.5315755322188
 20
163.4032368412073
 30
0.0
 10
188.2757992214634
 20
162.9432584859426
 30
0.0
 10
188.0202358233574
 20
162.4831640256347
 30
0.0
 10
187.7649045100524
 20
162.0229430053697
 30
0.0
  0
SPLINE
  5
DA
330
1F
100
AcDbEntity
  8
0
  6
Continuous
 62
     7
370
    15
100
AcDbSpline
210
0.0
220
0.0
230
1.0
 70
     8
 71
     3
 72
     8
 73
     4
 74
     0
 42
0.000000001
 43
0.00000001
 40
0.0
 40
0.0
 40
0.0
 40
0.0
 40
0.0012352705496738
 40
0.0012352705496738
 40
0.0012352705496738
 40
0.0012352705496738
 10
189.0880660175143
 20
164.1830482513155
 30
0.0
 10
188.9021175921922
 20
163.9232724955638
 30
0.0
 10
188.7166107830212
 20
163.6633384169365
 30
0.0
 10
188.5315755322189
 20
163.4032368412079
 30
0.0
  0
LINE
  5
DB
330
1F
100
AcDbEntity
  8
0
  6
Continuous
 62
     7
370
    15
100
AcDbLine
 10
187.7649043888
 20
152.9703382153
 30
0.0
 11
187.7649043888
 21
162.0229426522
 31
0.0
  0
SPLINE
  5
DC
330
1F
100
AcDbEntity
  8
0
  6
Continuous
 62
     7
370
    15
100
AcDbSpline
210
0.0
220
0.0
230
1.0
 70
     8
 71
     3
 72
    10
 73
     6
 74
     0
 42
0.000000001
 43
0.00000001
 40
0.0
 40
0.0
 40
0.0
 40
0.0
 40
0.5
 40
0.5
 40
1.0
 40
1.0
 40
1.0
 40
1.0
 10
178.2447734289987
 20
164.1133679222627
 30
0.0
 10
178.1683203390799
 20
164.0431051510421
 30
0.0
 10
178.0994586168108
 20
163.9560102360004
 30
0.0
 10
177.9929463857379
 20
163.7468411077481
 30
0.0
 10
177.9549045100524
 20
163.6215235585086
 30
0.0
 10
177.9549045100524
 20
163.4921732639126
 30
0.0
  0
SPLINE
  5
DD
330
1F
100
AcDbEntity
  8
0
  6
Continuous
 62
     7
370
    15
100
AcDbSpline
210
0.0
220
0.0
230
1.0
 70
     8
 71
     3
 72
     8
 73
     4
 74
     0
 42
0.000000001
 43
0.00000001
 40
0.0
 40
0.0
 40
0.0
 40
0.0
 40
1.0
 40
1.0
 40
1.0
 40
1.0
 10
178.5549045100524
 20
164.1830482513155
 30
0.0
 10
178.443826324715
 20
164.1830482513155
 30
0.0
 10
178.3361623208127
 20
164.1578990757609
 30
0.0
 10
178.2447734289987
 20
164.1133679222627
 30
0.0
  0
LINE
  5
DE
330
1F
100
AcDbEntity
  8
0
  6
Continuous
 62
     7
370
    15
100
AcDbLine
 10
177.9549044292
 20
155.1522854466
 30
0.0
 11
177.9549044292
 21
163.4921747941
 31
0.0
  0
LINE
  5
DF
330
1F
100
AcDbEntity
  8
0
  6
Continuous
 62
     7
370
    15
100
AcDbLine
 10
73.1549057379
 20
99.0243591119
 30
0.0
 11
73.1549057379
 21
135.7820480812
 31
0.0
  0
LINE
  5
E0
330
1F
100
AcDbEntity
  8
0
  6
Continuous
 62
     7
370
    15
100
AcDbLine
 10
218.8549059644
 20
101.7032041896
 30
0.0
 11
218.8549059644
 21
133.1032030035
 31
0.0
  0
LINE
  5
E1
330
1F
100
AcDbEntity
  8
0
  6
Continuous
 62
     7
370
    15
100
AcDbLine
 10
218.5549046114
 20
101.4032028366
 30
0.0
 11
218.5549046114
 21
133.4032043565
 31
0.0
  0
SPLINE
  5
E2
330
1F
100
AcDbEntity
  8
0
  6
Continuous
 62
     7
370
    15
100
AcDbSpline
210
0.0
220
0.0
230
1.0
 70
     8
 71
     3
 72
    42
 73
    38
 74
     0
 42
0.000000001
 43
0.00000001
 40
0.0
 40
0.0
 40
0.0
 40
0.0
 40
0.0312499999999999
 40
0.0312499999999999
 40
0.0624999999999997
 40
0.0624999999999997
 40
0.1249999999999997
 40
0.1249999999999997
 40
0.1874999999999997
 40
0.1874999999999997
 40
0.2499999999999997
 40
0.2499999999999997
 40
0.3124999999999997
 40
0.3124999999999997
 40
0.3749999999999996
 40
0.3749999999999996
 40
0.4374999999999996
 40
0.4374999999999996
 40
0.4999999999999997
 40
0.4999999999999997
 40
0.5624999999999997
 40
0.5624999999999997
 40
0.6249999999999998
 40
0.6249999999999998
 40
0.6874999999999998
 40
0.6874999999999998
 40
0.7499999999999998
 40
0.7499999999999998
 40
0.7812499999999998
 40
0.7812499999999998
 40
0.8124999999999998
 40
0.8124999999999998
 40
0.8749999999999998
 40
0.8749999999999998
 40
0.9374999999999999
 40
0.9374999999999999
 40
1.0
 40
1.0
 40
1.0
 40
1.0
 10
214.8049045100524
 20
117.4032035965399
 30
0.0
 10
214.8049045100524
 20
117.2422708255327
 30
0.0
 10
214.7951038562971
 20
117.0811994456527
 30
0.0
 10
214.7554753132983
 20
116.7587736835598
 30
0.0
 10
214.7254877105744
 20
116.5976040834809
 30
0.0
 10
214.6084284580179
 20
116.1272110724973
 30
0.0
 10
214.4940613439148
 20
115.8261412453916
 30
0.0
 10
214.1962802374038
 20
115.2485147270417
 30
0.0
 10
214.0180128001641
 20
114.9817405189943
 30
0.0
 10
213.6090719215196
 20
114.4868681520852
 30
0.0
 10
213.3770521294996
 20
114.2586123809893
 30
0.0
 10
212.8804879600041
 20
113.8547100939865
 30
0.0
 10
212.613955062427
 20
113.6764328284483
 30
0.0
 10
212.0457433383533
 20
113.3657770116212
 30
0.0
 10
211.7514961302987
 20
113.2374396232183
 30
0.0
 10
211.1438919655311
 20
113.0306697806892
 30
0.0
 10
210.8280543138909
 20
112.9519208332808
 30
0.0
 10
210.1882549618067
 20
112.8477299945694
 30
0.0
 10
209.8673847188802
 20
112.822336743712
 30
0.0
 10
209.2237532440822
 20
112.8233467907847
 30
0.0
 10
208.8981292594412
 20
112.850303494988
 30
0.0
 10
208.2595404270401
 20
112.9568715789738
 30
0.0
 10
207.9484472050712
 20
113.0356018874617
 30
0.0
 10
207.3424412786815
 20
113.2439110022602
 30
0.0
 10
207.0447594657444
 20
113.3750824285927
 30
0.0
 10
206.4815751469477
 20
113.6855659290597
 30
0.0
 10
206.2172783466225
 20
113.8634544451076
 30
0.0
 10
205.847447086694
 20
114.1658832725762
 30
0.0
 10
205.7286367730198
 20
114.2726675014194
 30
0.0
 10
205.5005095367409
 20
114.499069443554
 30
0.0
 10
205.3909179236998
 20
114.619175172633
 30
0.0
 10
205.0852816989371
 20
114.9908660954973
 30
0.0
 10
204.9092977622174
 20
115.2561555533246
 30
0.0
 10
204.6167521060781
 20
115.8247655351756
 30
0.0
 10
204.4995256666515
 20
116.1330327961953
 30
0.0
 10
204.3447500153904
 20
116.75827561513
 30
0.0
 10
204.3049045100524
 20
117.0773197196662
 30
0.0
 10
204.3049045100524
 20
117.4032035965399
 30
0.0
  0
SPLINE
  5
E3
330
1F
100
AcDbEntity
  8
0
  6
Continuous
 62
     7
370
    15
100
AcDbSpline
210
0.0
220
0.0
230
1.0
 70
     8
 71
     3
 72
    42
 73
    38
 74
     0
 42
0.000000001
 43
0.00000001
 40
0.0
 40
0.0
 40
0.0
 40
0.0
 40
0.0312500000000002
 40
0.0312500000000002
 40
0.0625000000000003
 40
0.0625000000000003
 40
0.1250000000000005
 40
0.1250000000000005
 40
0.1875000000000006
 40
0.1875000000000006
 40
0.2500000000000007
 40
0.2500000000000007
 40
0.3125000000000003
 40
0.3125000000000003
 40
0.3749999999999999
 40
0.3749999999999999
 40
0.4999999999999991
 40
0.4999999999999991
 40
0.5624999999999994
 40
0.5624999999999994
 40
0.6249999999999997
 40
0.6249999999999997
 40
0.6875
 40
0.6875
 40
0.7500000000000003
 40
0.7500000000000003
 40
0.8125000000000006
 40
0.8125000000000006
 40
0.8437500000000006
 40
0.8437500000000006
 40
0.8750000000000006
 40
0.8750000000000006
 40
0.9375000000000001
 40
0.9375000000000001
 40
0.9687500000000001
 40
0.9687500000000001
 40
1.0
 40
1.0
 40
1.0
 40
1.0
 10
204.3049045100524
 20
117.4032035965399
 30
0.0
 10
204.3049045100524
 20
117.5661480268928
 30
0.0
 10
204.3151214153904
 20
117.7299840547032
 30
0.0
 10
204.354951759884
 20
118.0512357927144
 30
0.0
 10
204.3845421922844
 20
118.2098394565017
 30
0.0
 10
204.5015939222831
 20
118.6797547428569
 30
0.0
 10
204.6190294552392
 20
118.9874318268916
 30
0.0
 10
204.9147922100621
 20
119.5595308328267
 30
0.0
 10
205.0950065006615
 20
119.8293908401916
 30
0.0
 10
205.507549305128
 20
120.3269227408954
 30
0.0
 10
205.7370158382967
 20
120.5519888143537
 30
0.0
 10
206.2391182514546
 20
120.958915537023
 30
0.0
 10
206.5068751374219
 20
121.1365274926955
 30
0.0
 10
207.0671168513831
 20
121.4417573383343
 30
0.0
 10
207.360588019272
 20
121.5700855547248
 30
0.0
 10
208.2816476129554
 20
121.8824848252719
 30
0.0
 10
208.9187733555766
 20
121.9850777942972
 30
0.0
 10
209.8938534645558
 20
121.9827957923552
 30
0.0
 10
210.2144656366399
 20
121.9556298560688
 30
0.0
 10
210.8471634843273
 20
121.8500627253758
 30
0.0
 10
211.1606649980577
 20
121.771185885935
 30
0.0
 10
211.77254305392
 20
121.5605751316149
 30
0.0
 10
212.0649656774106
 20
121.4311715061062
 30
0.0
 10
212.6231090907586
 20
121.1238642027239
 30
0.0
 10
212.8903730805121
 20
120.9447649295779
 30
0.0
 10
213.3887030807205
 20
120.537160780414
 30
0.0
 10
213.6147102256511
 20
120.3132547685611
 30
0.0
 10
213.9178363223204
 20
119.9456174565835
 30
0.0
 10
214.0128529170163
 20
119.8177364470887
 30
0.0
 10
214.1900032129206
 20
119.5504669079431
 30
0.0
 10
214.272613240006
 20
119.4100625281613
 30
0.0
 10
214.4943349458088
 20
118.9792517485333
 30
0.0
 10
214.6085246164961
 20
118.6790703922876
 30
0.0
 10
214.7257251043404
 20
118.2077183472744
 30
0.0
 10
214.7556796712995
 20
118.046248585069
 30
0.0
 10
214.7951030079322
 20
117.7249354403385
 30
0.0
 10
214.8049045100524
 20
117.5641388287364
 30
0.0
 10
214.8049045100524
 20
117.4032035965399
 30
0.0
  0
ARC
  5
E4
330
1F
100
AcDbEntity
  8
0
  6
Continuous
 62
     7
370
    15
100
AcDbCircle
 10
188.8080348166
 20
102.2040492164
 30
0.0
 40
2.356059287371971
100
AcDbArc
 50
185.4017539361
 51
252.5076603369
  0
ARC
  5
E5
330
1F
100
AcDbEntity
  8
0
  6
Continuous
 62
     7
370
    15
100
AcDbCircle
 10
188.9667363824
 20
102.3320230362
 30
0.0
 40
2.528339291156961
100
AcDbArc
 50
249.9484111729
 51
339.7571495746
  0
ARC
  5
E6
330
1F
100
AcDbEntity
  8
0
  6
Continuous
 62
     7
370
    15
100
AcDbCircle
 10
188.7860462138
 20
102.1203879753
 30
0.0
 40
2.183107218796935
100
AcDbArc
 50
159.3153835038
 51
252.9991548677
  0
ARC
  5
E7
330
1F
100
AcDbEntity
  8
0
  6
Continuous
 62
     7
370
    15
100
AcDbCircle
 10
188.9696427338
 20
102.2566264512
 30
0.0
 40
2.370961923333679
100
AcDbArc
 50
249.7171366798
 51
345.4454345851
  0
ARC
  5
E8
330
1F
100
AcDbEntity
  8
0
  6
Continuous
 62
     7
370
    15
100
AcDbCircle
 10
188.8004102606
 20
102.1096081663
 30
0.0
 40
1.837019701238455
100
AcDbArc
 50
124.7810797156
 51
253.2459599739
  0
ARC
  5
E9
330
1F
100
AcDbEntity
  8
0
  6
Continuous
 62
     7
370
    15
100
AcDbCircle
 10
188.9754184257
 20
102.2024134779
 30
0.0
 40
1.981345107956135
100
AcDbArc
 50
249.1701466721
 51
357.5180965593
  0
CIRCLE
  5
EA
330
1F
100
AcDbEntity
  8
0
  6
HIDDEN
 62
     7
370
     0
100
AcDbCircle
 10
209.5549045101
 20
117.4032035965
 30
0.0
 40
3.50827075990334
  0
CIRCLE
  5
EB
330
1F
100
AcDbEntity
  8
0
  6
HIDDEN
 62
     7
370
     0
100
AcDbCircle
 10
209.5549045101
 20
117.4032035965
 30
0.0
 40
2.499560044877995
  0
ARC
  5
EC
330
1F
100
AcDbEntity
  8
0
  6
HIDDEN
 62
     7
370
     0
100
AcDbCircle
 10
209.5549045101
 20
117.4032035965
 30
0.0
 40
2.199560044878012
100
AcDbArc
 50
232.1941991511
 51
270.0
  0
LWPOLYLINE
  5
ED
330
1F
100
AcDbEntity
  8
0
  6
HIDDEN
 62
     7
370
     0
100
AcDbPolyline
 90
        3
 70
   128
 43
0.0
 10
207.3770928397
 20
117.0946515672
 10
207.355344595
 20
117.4032035965
 10
207.3736543968
 20
117.6864331688
  0
LWPOLYLINE
  5
EE
330
1F
100
AcDbEntity
  8
0
  6
HIDDEN
 62
     7
370
     0
100
AcDbPolyline
 90
        3
 70
   128
 43
0.0
 10
208.2263360932
 20
119.1561916826
 10
208.2620355501
 20
119.1826850159
 10
208.6886595204
 20
119.4250061858
  0
LWPOLYLINE
  5
EF
330
1F
100
AcDbEntity
  8
0
  6
HIDDEN
 62
     7
370
     0
100
AcDbPolyline
 90
        3
 70
   128
 43
0.0
 10
210.4232366398
 20
119.4241102535
 10
210.8477744475
 20
119.1826850159
 10
210.9120766833
 20
119.1341429699
  0
LWPOLYLINE
  5
F0
330
1F
100
AcDbEntity
  8
0
  6
HIDDEN
 62
     7
370
     0
100
AcDbPolyline
 90
        3
 70
   128
 43
0.0
 10
211.7331381157
 20
117.7087517322
 10
211.7544654026
 20
117.4032035965
 10
211.7446045592
 20
117.1951865004
  0
ARC
  5
F1
330
1F
100
AcDbEntity
  8
0
  6
HIDDEN
 62
     7
370
     0
100
AcDbCircle
 10
209.5549045101
 20
117.4032035965
 30
0.0
 40
2.199560044878012
100
AcDbArc
 50
270.0
 51
306.2871405132
  0
LWPOLYLINE
  5
F2
330
1F
100
AcDbEntity
  8
0
  6
HIDDEN
 62
     7
370
     0
100
AcDbPolyline
 90
       23
 70
   128
 43
0.0
 10
188.9549046024
 20
101.5458870429
 10
189.6592359259
 20
101.641047721
 10
190.3065069779
 20
101.9188184041
 10
190.8442787096
 20
102.3566983391
 10
191.2289838507
 20
102.9192115862
 10
191.4294584855
 20
103.5607876006
 10
191.4294584855
 20
104.2294483382
 10
191.2289838507
 20
104.8710243527
 10
190.8442787096
 20
105.4335375998
 10
190.3065069779
 20
105.8714175347
 10
189.6592359259
 20
106.1491891492
 10
188.9549046024
 20
106.2443498272
 10
188.2505732789
 20
106.1491891492
 10
187.6033022269
 20
105.8714175347
 10
187.0655304953
 20
105.4335375998
 10
186.6808244228
 20
104.8710243527
 10
186.4803507194
 20
104.2294483382
 10
186.4803507194
 20
103.5607876006
 10
186.6808244228
 20
102.9192115862
 10
187.0655304953
 20
102.3566983391
 10
187.6033022269
 20
101.9188184041
 10
188.2505732789
 20
101.641047721
 10
188.9549046024
 20
101.5458870429
  0
LWPOLYLINE
  5
F3
330
1F
100
AcDbEntity
  8
0
  6
HIDDEN
 62
     7
370
     0
100
AcDbPolyline
 90
       25
 70
   128
 43
0.0
 10
178.2266354855
 20
103.4983433533
 10
178.4100704096
 20
102.7369741101
 10
178.6933810651
 20
102.0274897788
 10
179.0572604365
 20
101.4182418335
 10
179.4769106634
 20
100.9507514287
 10
179.9237331576
 20
100.6568725903
 10
180.3672778621
 20
100.5566362042
 10
180.7773173056
 20
100.6568725903
 10
181.125909017
 20
100.9507514287
 10
181.3892963543
 20
101.4182418335
 10
181.5495304033
 20
102.0274897788
 10
181.595690941
 20
102.7369741101
 10
181.5246324256
 20
103.4983433533
 10
181.3411972686
 20
104.2597135279
 10
181.0578866131
 20
104.9691969279
 10
180.6940072417
 20
105.5784448732
 10
180.2743570149
 20
106.0459362093
 10
179.8275345206
 20
106.3398141164
 10
179.3839898161
 20
106.4400505025
 10
178.9739499069
 20
106.3398141164
 10
178.6253586612
 20
106.0459362093
 10
178.3619710911
 20
105.5784448732
 10
178.2017375078
 20
104.9691969279
 10
178.15557697
 20
104.2597135279
 10
178.2266354855
 20
103.4983433533
  0
LWPOLYLINE
  5
F4
330
1F
100
AcDbEntity
  8
0
  6
HIDDEN
 62
     7
370
     0
100
AcDbPolyline
 90
       21
 70
   128
 43
0.0
 10
178.9896673724
 20
103.5626055423
 10
179.1525109872
 20
102.9262793932
 10
179.4124053992
 20
102.3522410292
 10
179.7439101353
 20
101.8966817979
 10
180.1145746574
 20
101.6041952867
 10
180.4881169662
 20
101.5034094203
 10
180.8279710091
 20
101.6041952867
 10
181.1008694783
 20
101.8966817979
 10
181.2801001794
 20
102.3522410292
 10
181.3481179267
 20
102.9262793932
 10
181.2982651606
 20
103.5626055423
 10
181.1354210801
 20
104.1989316914
 10
180.8755266681
 20
104.7729691241
 10
180.5440223977
 20
105.2285283554
 10
180.17335741
 20
105.5210157979
 10
179.7998155668
 20
105.6217998017
 10
179.4599615238
 20
105.5210157979
 10
179.1870625891
 20
105.2285283554
 10
179.0078318879
 20
104.7729691241
 10
178.9398141406
 20
104.1989316914
 10
178.9896673724
 20
103.5626055423
  0
ELLIPSE
  5
F5
330
1F
100
AcDbEntity
  8
0
  6
HIDDEN
 62
     7
370
     0
100
AcDbEllipse
 10
188.9549045101
 20
105.6726934852
 30
0.0
 11
1.760776919379083
 21
2.232245799914452
 31
0.0
210
0.0
220
0.0
230
1.0
 40
0.5126701559
 41
1.100887047646267
 42
4.029627027608304
  0
ARC
  5
F6
330
1F
100
AcDbEntity
  8
0
  6
HIDDEN
 62
     7
370
     0
100
AcDbCircle
 10
188.2583050415
 20
106.8502333663
 30
0.0
 40
0.7945949542257675
100
AcDbArc
 50
53.4208190544
 51
99.1663888759
  0
ELLIPSE
  5
F7
330
1F
100
AcDbEntity
  8
0
  6
HIDDEN
 62
     7
370
     0
100
AcDbEllipse
 10
188.9549045101
 20
105.6726934852
 30
0.0
 11
1.760776919379083
 21
-1.388886188042946
 31
0.0
210
0.0
220
0.0
230
1.0
 40
0.8239737799
 41
2.549926265248543
 42
4.88593027385607
  0
ARC
  5
F8
330
1F
100
AcDbEntity
  8
0
  6
HIDDEN
 62
     7
370
     0
100
AcDbCircle
 10
189.200957272
 20
104.8332159212
 30
0.0
 40
1.353195702694776
100
AcDbArc
 50
217.8001040701
 51
249.7155767561
  0
LWPOLYLINE
  5
F9
330
1F
100
AcDbEntity
  8
0
  6
HIDDEN
 62
     7
370
     0
100
AcDbPolyline
 90
       21
 70
   128
 43
0.0
 10
188.9549046024
 20
101.9715573389
 10
189.6038399279
 20
102.0681401465
 10
190.1892534658
 20
102.3484347138
 10
190.6538400069
 20
102.7850033466
 10
190.9521240011
 20
103.3351123083
 10
191.0549047604
 20
103.9449125279
 10
190.9521240011
 20
104.5547118161
 10
190.6538400069
 20
105.1048207778
 10
190.1892534658
 20
105.5413894106
 10
189.6038399279
 20
105.8216839779
 10
188.9549046024
 20
105.9182667855
 10
188.305969277
 20
105.8216839779
 10
187.7205557391
 20
105.5413894106
 10
187.255969198
 20
105.1048207778
 10
186.9576861351
 20
104.5547118161
 10
186.8549044445
 20
103.9449125279
 10
186.9576861351
 20
103.3351123083
 10
187.255969198
 20
102.7850033466
 10
187.7205557391
 20
102.3484347138
 10
188.305969277
 20
102.0681401465
 10
188.9549046024
 20
101.9715573389
  0
SPLINE
  5
FA
330
1F
100
AcDbEntity
  8
0
  6
HIDDEN
 62
     7
370
     0
100
AcDbSpline
210
0.0
220
0.0
230
1.0
 70
    11
 71
     3
 72
    62
 73
    58
 74
     0
 42
0.000000001
 43
0.00000001
 40
0.0
 40
0.0
 40
0.0
 40
0.0
 40
0.0312499999999996
 40
0.0312499999999996
 40
0.0624999999999993
 40
0.0624999999999993
 40
0.1249999999999989
 40
0.1249999999999989
 40
0.1874999999999986
 40
0.1874999999999986
 40
0.2187499999999984
 40
0.2187499999999984
 40
0.2499999999999982
 40
0.2499999999999982
 40
0.281249999999998
 40
0.281249999999998
 40
0.3124999999999978
 40
0.3124999999999978
 40
0.3437499999999976
 40
0.3437499999999976
 40
0.3749999999999974
 40
0.3749999999999974
 40
0.4374999999999969
 40
0.4374999999999969
 40
0.4687499999999969
 40
0.4687499999999969
 40
0.4999999999999969
 40
0.4999999999999969
 40
0.5312499999999969
 40
0.5312499999999969
 40
0.5624999999999968
 40
0.5624999999999968
 40
0.5937499999999968
 40
0.5937499999999968
 40
0.6249999999999968
 40
0.6249999999999968
 40
0.6562499999999969
 40
0.6562499999999969
 40
0.6874999999999971
 40
0.6874999999999971
 40
0.7187499999999973
 40
0.7187499999999973
 40
0.7499999999999974
 40
0.7499999999999974
 40
0.7812499999999977
 40
0.7812499999999977
 40
0.8124999999999979
 40
0.8124999999999979
 40
0.8749999999999982
 40
0.8749999999999982
 40
0.9062499999999987
 40
0.9062499999999987
 40
0.9374999999999991
 40
0.9374999999999991
 40
0.9687499999999994
 40
0.9687499999999994
 40
1.0
 40
1.0
 40
1.0
 40
1.0
 10
188.9549045100524
 20
114.1661089613122
 30
0.0
 10
188.8137062860725
 20
114.1661089613122
 30
0.0
 10
188.6754284090588
 20
114.1765768976957
 30
0.0
 10
188.4042623378509
 20
114.2176003786311
 30
0.0
 10
188.2700590103914
 20
114.2487268320468
 30
0.0
 10
187.8909958306012
 20
114.3701008199586
 30
0.0
 10
187.6619889089074
 20
114.4902555939667
 30
0.0
 10
187.2809582899046
 20
114.7990344929896
 30
0.0
 10
187.125335212983
 20
114.9912036611534
 30
0.0
 10
186.9662647364144
 20
115.3211879729916
 30
0.0
 10
186.924537591271
 20
115.4406873363037
 30
0.0
 10
186.869266890129
 20
115.6872717354594
 30
0.0
 10
186.8551869586392
 20
115.8144436658966
 30
0.0
 10
186.854630392318
 20
116.0769328585927
 30
0.0
 10
186.8686196697386
 20
116.2120752272898
 30
0.0
 10
186.9231011889743
 20
116.4765603206495
 30
0.0
 10
186.9639516471291
 20
116.6087102248955
 30
0.0
 10
187.0705656139885
 20
116.8654059758173
 30
0.0
 10
187.1353177562616
 20
116.9881438602713
 30
0.0
 10
187.2868762982142
 20
117.2225146090296
 30
0.0
 10
187.3742144213872
 20
117.3343321100431
 30
0.0
 10
187.6599908423488
 20
117.6395155751714
 30
0.0
 10
187.8895271908146
 20
117.8103298943513
 30
0.0
 10
188.2658453268088
 20
117.9868402573253
 30
0.0
 10
188.3981782351695
 20
118.033325064519
 30
0.0
 10
188.6722108941604
 20
118.0964287772591
 30
0.0
 10
188.8102360537825
 20
118.1123864670034
 30
0.0
 10
189.0883074350012
 20
118.1132323358651
 30
0.0
 10
189.2300203736716
 20
118.097507660892
 30
0.0
 10
189.5024426293519
 20
118.0360672183928
 30
0.0
 10
189.634270773849
 20
117.9907455747065
 30
0.0
 10
189.8896696694536
 20
117.8721977717054
 30
0.0
 10
190.0098356726429
 20
117.8005106884891
 30
0.0
 10
190.2350070851992
 20
117.6357821224907
 30
0.0
 10
190.3411581465336
 20
117.5415228494558
 30
0.0
 10
190.5326054352358
 20
117.3379581753121
 30
0.0
 10
190.6185394491553
 20
117.228490885073
 30
0.0
 10
190.7709517671953
 20
116.994393282589
 30
0.0
 10
190.8371352574828
 20
116.8694990596911
 30
0.0
 10
190.9433169560339
 20
116.6157673081564
 30
0.0
 10
190.9842970192497
 20
116.4855976233727
 30
0.0
 10
191.040377160047
 20
116.2185339282438
 30
0.0
 10
191.0546013354883
 20
116.0845806982286
 30
0.0
 10
191.0551980193598
 20
115.8231239557605
 30
0.0
 10
191.0414294518614
 20
115.6930065863731
 30
0.0
 10
190.9865793849193
 20
115.4448157308892
 30
0.0
 10
190.9460828716428
 20
115.3274602398085
 30
0.0
 10
190.7866204004667
 20
114.9937111180688
 30
0.0
 10
190.6319519761525
 20
114.8018715461428
 30
0.0
 10
190.3436439448078
 20
114.5677489781731
 30
0.0
 10
190.23961912946
 20
114.4995925688099
 30
0.0
 10
190.0151998712812
 20
114.3808816295858
 30
0.0
 10
189.8932690834207
 20
114.3299596932174
 30
0.0
 10
189.6408119319948
 20
114.2490098583958
 30
0.0
 10
189.5099254020776
 20
114.2184745393968
 30
0.0
 10
189.2379844843648
 20
114.1769165106524
 30
0.0
 10
189.0961027340323
 20
114.1661089613122
 30
0.0
 10
188.9549045100524
 20
114.1661089613122
 30
0.0
  0
SPLINE
  5
FB
330
1F
100
AcDbEntity
  8
0
  6
HIDDEN
 62
     7
370
     0
100
AcDbSpline
210
0.0
220
0.0
230
1.0
 70
     8
 71
     3
 72
     8
 73
     4
 74
     0
 42
0.000000001
 43
0.00000001
 40
0.0
 40
0.0
 40
0.0
 40
0.0
 40
1.0
 40
1.0
 40
1.0
 40
1.0
 10
188.131724333893
 20
107.6346815610613
 30
0.0
 10
188.3431517238942
 20
107.6271720512788
 30
0.0
 10
188.545620270427
 20
107.5730485216442
 30
0.0
 10
188.7318308695643
 20
107.488320234419
 30
0.0
  0
SPLINE
  5
FC
330
1F
100
AcDbEntity
  8
0
  6
HIDDEN
 62
     7
370
     0
100
AcDbSpline
210
0.0
220
0.0
230
1.0
 70
     8
 71
     3
 72
     8
 73
     4
 74
     0
 42
0.000000001
 43
0.00000001
 40
0.0
 40
0.0
 40
0.0
 40
0.0
 40
1.0
 40
1.0
 40
1.0
 40
1.0
 10
188.7318308695644
 20
103.5639414664847
 30
0.0
 10
188.5453065202799
 20
103.6862618823852
 30
0.0
 10
188.3427516217542
 20
103.82734704305
 30
0.0
 10
188.1317243338929
 20
104.0038306788349
 30
0.0
  0
LINE
  5
FD
330
1F
100
AcDbEntity
  8
0
  6
HIDDEN
 62
     7
370
     0
100
AcDbLine
 10
178.1264773305
 20
82.1032020945
 30
0.0
 11
177.9549044292
 21
82.1032020945
 31
0.0
  0
ELLIPSE
  5
FE
330
1F
100
AcDbEntity
  8
0
  6
HIDDEN
 62
     7
370
     0
100
AcDbEllipse
 10
178.1264773853
 20
80.1032035965
 30
0.0
 11
0.0
 21
2.0
 31
0.0
210
0.0
220
0.0
230
1.0
 40
0.4142135624
 41
4.712388980384695
 42
6.283185307179586
  0
LINE
  5
FF
330
1F
100
AcDbEntity
  8
0
  6
HIDDEN
 62
     7
370
     0
100
AcDbLine
 10
177.9549044292
 20
154.9032050867
 30
0.0
 11
178.1264773305
 21
154.9032050867
 31
0.0
  0
ELLIPSE
  5
100
330
1F
100
AcDbEntity
  8
0
  6
HIDDEN
 62
     7
370
     0
100
AcDbEllipse
 10
178.1264773853
 20
156.9032035965
 30
0.0
 11
0.0
 21
2.0
 31
0.0
210
0.0
220
0.0
230
1.0
 40
0.4142135624
 41
3.141592653589758
 42
4.712388980384695
  0
LINE
  5
101
330
1F
100
AcDbEntity
  8
0
  6
HIDDEN
 62
     7
370
     0
100
AcDbLine
 10
178.9549043603
 20
71.2172891695
 30
0.0
 11
178.1705645114
 21
70.7697476942
 31
0.0
  0
LINE
  5
102
330
1F
100
AcDbEntity
  8
0
  6
HIDDEN
 62
     7
370
     0
100
AcDbLine
 10
178.2447734583
 20
164.1133669514
 30
0.0
 11
178.9549043603
 21
163.4032372136
 31
0.0
  0
LINE
  5
103
330
1F
100
AcDbEntity
  8
0
  6
HIDDEN
 62
     7
370
     0
100
AcDbLine
 10
218.4049057975
 20
128.2031777996
 30
0.0
 11
218.4049057975
 21
129.9381758768
 31
0.0
  0
LINE
  5
104
330
1F
100
AcDbEntity
  8
0
  6
HIDDEN
 62
     7
370
     0
100
AcDbLine
 10
218.4049057975
 20
109.221637224
 30
0.0
 11
218.4049057975
 21
125.5847699691
 31
0.0
  0
LINE
  5
105
330
1F
100
AcDbEntity
  8
0
  6
HIDDEN
 62
     7
370
     0
100
AcDbLine
 10
218.4049057975
 20
104.8682313163
 30
0.0
 11
218.4049057975
 21
106.6032293934
 31
0.0
  0
LINE
  5
106
330
1F
100
AcDbEntity
  8
0
  6
HIDDEN
 62
     7
370
     0
100
AcDbLine
 10
178.9549043603
 20
163.4032372136
 30
0.0
 11
183.178233841
 21
163.4032372136
 31
0.0
  0
LINE
  5
107
330
1F
100
AcDbEntity
  8
0
  6
HIDDEN
 62
     7
370
     0
100
AcDbLine
 10
188.5315756514
 20
163.4032372136
 30
0.0
 11
193.8049047455
 21
163.4032372136
 31
0.0
  0
LINE
  5
108
330
1F
100
AcDbEntity
  8
0
  6
HIDDEN
 62
     7
370
     0
100
AcDbLine
 10
178.9549043603
 20
163.4032372136
 30
0.0
 11
178.9549043603
 21
156.9032054145
 31
0.0
  0
LINE
  5
109
330
1F
100
AcDbEntity
  8
0
  6
HIDDEN
 62
     7
370
     0
100
AcDbLine
 10
193.8049047455
 20
82.1032020945
 30
0.0
 11
178.1264773305
 21
82.1032020945
 31
0.0
  0
LINE
  5
10A
330
1F
100
AcDbEntity
  8
0
  6
HIDDEN
 62
     7
370
     0
100
AcDbLine
 10
183.0748570353
 20
71.2172891695
 30
0.0
 11
178.9549043603
 21
71.2172891695
 31
0.0
  0
LINE
  5
10B
330
1F
100
AcDbEntity
  8
0
  6
HIDDEN
 62
     7
370
     0
100
AcDbLine
 10
193.8049047455
 20
71.2172891695
 30
0.0
 11
188.6349524572
 21
71.2172891695
 31
0.0
  0
LINE
  5
10C
330
1F
100
AcDbEntity
  8
0
  6
HIDDEN
 62
     7
370
     0
100
AcDbLine
 10
178.9549043603
 20
71.2172891695
 30
0.0
 11
178.9549043603
 21
80.1032017667
 31
0.0
  0
LINE
  5
10D
330
1F
100
AcDbEntity
  8
0
  6
HIDDEN
 62
     7
370
     0
100
AcDbLine
 10
178.1264773305
 20
154.9032050867
 30
0.0
 11
193.8049047455
 21
154.9032050867
 31
0.0
  0
LINE
  5
10E
330
1F
100
AcDbEntity
  8
0
  6
HIDDEN
 62
     7
370
     0
100
AcDbLine
 10
83.1549036517
 20
104.9032034103
 30
0.0
 11
83.1549036517
 21
129.9032037828
 31
0.0
  0
LINE
  5
10F
330
1F
100
AcDbEntity
  8
0
  6
HIDDEN
 62
     7
370
     0
100
AcDbLine
 10
86.4395070091
 20
106.9032037381
 30
0.0
 11
86.4395070091
 21
127.903203455
 31
0.0
  0
LINE
  5
110
330
1F
100
AcDbEntity
  8
0
  6
HIDDEN
 62
     7
370
     0
100
AcDbLine
 10
216.672854425
 20
113.0388593052
 30
0.0
 11
216.672854425
 21
121.7675478879
 31
0.0
  0
LINE
  5
111
330
1F
100
AcDbEntity
  8
0
  6
HIDDEN
 62
     7
370
     0
100
AcDbLine
 10
215.5049051359
 20
113.0388593052
 30
0.0
 11
215.5049051359
 21
121.7675478879
 31
0.0
  0
LINE
  5
112
330
1F
100
AcDbEntity
  8
0
  6
HIDDEN
 62
     7
370
     0
100
AcDbLine
 10
135.1549047246
 20
106.9032037381
 30
0.0
 11
135.1549047246
 21
127.903203455
 31
0.0
  0
LINE
  5
113
330
1F
100
AcDbEntity
  8
0
  6
HIDDEN
 62
     7
370
     0
100
AcDbLine
 10
138.9102841928
 20
113.1532033656
 30
0.0
 11
138.9102841928
 21
121.6532038275
 31
0.0
  0
LINE
  5
114
330
1F
100
AcDbEntity
  8
0
  6
HIDDEN
 62
     7
370
     0
100
AcDbLine
 10
215.5049051359
 20
125.0032037247
 30
0.0
 11
215.5049051359
 21
121.7675478879
 31
0.0
  0
LINE
  5
115
330
1F
100
AcDbEntity
  8
0
  6
HIDDEN
 62
     7
370
     0
100
AcDbLine
 10
215.5049051359
 20
121.7675478879
 30
0.0
 11
216.672854425
 21
121.7675478879
 31
0.0
  0
SPLINE
  5
116
330
1F
100
AcDbEntity
  8
0
  6
HIDDEN
 62
     7
370
     0
100
AcDbSpline
210
0.0
220
0.0
230
1.0
 70
     8
 71
     3
 72
     8
 73
     4
 74
     0
 42
0.000000001
 43
0.00000001
 40
0.0
 40
0.0
 40
0.0
 40
0.0
 40
1.0
 40
1.0
 40
1.0
 40
1.0
 10
216.6728537024834
 20
121.7675477626204
 30
0.0
 10
217.1996005959406
 20
122.4992117231545
 30
0.0
 10
217.7871258910036
 20
123.1698195818007
 30
0.0
 10
218.4049045100524
 20
123.8100358871497
 30
0.0
  0
LINE
  5
117
330
1F
100
AcDbEntity
  8
0
  6
HIDDEN
 62
     7
370
     0
100
AcDbLine
 10
218.4049057975
 20
128.2031777996
 30
0.0
 11
218.4049057975
 21
128.1433673326
 31
0.0
  0
LINE
  5
118
330
1F
100
AcDbEntity
  8
0
  6
HIDDEN
 62
     7
370
     0
100
AcDbLine
 10
215.5049051359
 20
128.1433673326
 30
0.0
 11
218.4049057975
 21
128.1433673326
 31
0.0
  0
LINE
  5
119
330
1F
100
AcDbEntity
  8
0
  6
HIDDEN
 62
     7
370
     0
100
AcDbLine
 10
215.5049051359
 20
128.2032038767
 30
0.0
 11
215.5049051359
 21
125.0032037247
 31
0.0
  0
LINE
  5
11A
330
1F
100
AcDbEntity
  8
0
  6
HIDDEN
 62
     7
370
     0
100
AcDbLine
 10
215.5049051359
 20
113.0388593052
 30
0.0
 11
215.5049051359
 21
109.8032034684
 31
0.0
  0
LINE
  5
11B
330
1F
100
AcDbEntity
  8
0
  6
HIDDEN
 62
     7
370
     0
100
AcDbLine
 10
216.672854425
 20
113.0388593052
 30
0.0
 11
215.5049051359
 21
113.0388593052
 31
0.0
  0
SPLINE
  5
11C
330
1F
100
AcDbEntity
  8
0
  6
HIDDEN
 62
     7
370
     0
100
AcDbSpline
210
0.0
220
0.0
230
1.0
 70
     8
 71
     3
 72
     8
 73
     4
 74
     0
 42
0.000000001
 43
0.00000001
 40
0.0
 40
0.0
 40
0.0
 40
0.0
 40
1.0
 40
1.0
 40
1.0
 40
1.0
 10
218.4049045100524
 20
110.9963713059302
 30
0.0
 10
217.781762421218
 20
111.6421458819997
 30
0.0
 10
217.1939862339409
 20
112.314993952247
 30
0.0
 10
216.6728537024835
 20
113.0388594304595
 30
0.0
  0
LINE
  5
11D
330
1F
100
AcDbEntity
  8
0
  6
HIDDEN
 62
     7
370
     0
100
AcDbLine
 10
215.5049051359
 20
106.6630398605
 30
0.0
 11
218.4049057975
 21
106.6630398605
 31
0.0
  0
LINE
  5
11E
330
1F
100
AcDbEntity
  8
0
  6
HIDDEN
 62
     7
370
     0
100
AcDbLine
 10
218.4049057975
 20
106.6630398605
 30
0.0
 11
218.4049057975
 21
106.6032293934
 31
0.0
  0
LINE
  5
11F
330
1F
100
AcDbEntity
  8
0
  6
HIDDEN
 62
     7
370
     0
100
AcDbLine
 10
215.5049051359
 20
109.8032034684
 30
0.0
 11
215.5049051359
 21
106.6032033164
 31
0.0
  0
LINE
  5
120
330
1F
100
AcDbEntity
  8
0
  6
HIDDEN
 62
     7
370
     0
100
AcDbLine
 10
214.7049027696
 20
108.403203984
 30
0.0
 11
214.7049027696
 21
126.4032032091
 31
0.0
  0
LINE
  5
121
330
1F
100
AcDbEntity
  8
0
  6
HIDDEN
 62
     7
370
     0
100
AcDbLine
 10
199.8549047127
 20
108.8032033045
 30
0.0
 11
199.8549047127
 21
126.0032038886
 31
0.0
  0
LINE
  5
122
330
1F
100
AcDbEntity
  8
0
  6
HIDDEN
 62
     7
370
     0
100
AcDbLine
 10
201.8549050405
 20
108.403203984
 30
0.0
 11
201.8549050405
 21
126.4032032091
 31
0.0
  0
LINE
  5
123
330
1F
100
AcDbEntity
  8
0
  6
HIDDEN
 62
     7
370
     0
100
AcDbLine
 10
215.5049051359
 20
129.5782038692
 30
0.0
 11
215.5049051359
 21
128.2032038767
 31
0.0
  0
LINE
  5
124
330
1F
100
AcDbEntity
  8
0
  6
HIDDEN
 62
     7
370
     0
100
AcDbLine
 10
215.5049051359
 20
106.6032033164
 30
0.0
 11
215.5049051359
 21
105.2282033238
 31
0.0
  0
SPLINE
  5
125
330
1F
100
AcDbEntity
  8
0
  6
HIDDEN
 62
     7
370
     0
100
AcDbSpline
210
0.0
220
0.0
230
1.0
 70
    11
 71
     3
 72
    62
 73
    58
 74
     0
 42
0.000000001
 43
0.00000001
 40
0.0
 40
0.0
 40
0.0
 40
0.0
 40
0.0312500000000004
 40
0.0312500000000004
 40
0.0625000000000007
 40
0.0625000000000007
 40
0.1250000000000011
 40
0.1250000000000011
 40
0.1875000000000015
 40
0.1875000000000015
 40
0.2187500000000016
 40
0.2187500000000016
 40
0.2500000000000016
 40
0.2500000000000016
 40
0.2812500000000017
 40
0.2812500000000017
 40
0.3125000000000017
 40
0.3125000000000017
 40
0.3437500000000017
 40
0.3437500000000017
 40
0.3750000000000018
 40
0.3750000000000018
 40
0.4375000000000019
 40
0.4375000000000019
 40
0.4687500000000018
 40
0.4687500000000018
 40
0.5000000000000017
 40
0.5000000000000017
 40
0.5312500000000016
 40
0.5312500000000016
 40
0.5625000000000016
 40
0.5625000000000016
 40
0.5937500000000014
 40
0.5937500000000014
 40
0.6250000000000013
 40
0.6250000000000013
 40
0.6562500000000013
 40
0.6562500000000013
 40
0.6875000000000012
 40
0.6875000000000012
 40
0.7187500000000012
 40
0.7187500000000012
 40
0.7500000000000011
 40
0.7500000000000011
 40
0.781250000000001
 40
0.781250000000001
 40
0.812500000000001
 40
0.812500000000001
 40
0.8750000000000008
 40
0.8750000000000008
 40
0.9062500000000007
 40
0.9062500000000007
 40
0.9375000000000004
 40
0.9375000000000004
 40
0.9687500000000003
 40
0.9687500000000003
 40
1.0
 40
1.0
 40
1.0
 40
1.0
 10
188.9549045100524
 20
116.6935892244668
 30
0.0
 10
189.0961027340323
 20
116.6935892244668
 30
0.0
 10
189.234380611046
 20
116.7096006344583
 30
0.0
 10
189.5055466822539
 20
116.7713302000813
 30
0.0
 10
189.6397500097134
 20
116.817867963536
 30
0.0
 10
190.0188131895036
 20
116.994844292271
 30
0.0
 10
190.2478201111974
 20
117.1652705859801
 30
0.0
 10
190.6288507302001
 20
117.5711568634035
 30
0.0
 10
190.7844738071218
 20
117.8108273047394
 30
0.0
 10
190.9435442836904
 20
118.1913041320561
 30
0.0
 10
190.9852714288338
 20
118.3245728673612
 30
0.0
 10
191.0405421299758
 20
118.58955410299
 30
0.0
 10
191.0546220614656
 20
118.7215194177079
 30
0.0
 10
191.0551786277868
 20
118.9841967275221
 30
0.0
 10
191.0411893503662
 20
119.1145765914796
 30
0.0
 10
190.9867078311306
 20
119.3609205222028
 30
0.0
 10
190.9458573729756
 20
119.4795747921856
 30
0.0
 10
190.8392434061163
 20
119.702401058941
 30
0.0
 10
190.7744912638432
 20
119.8050861699254
 30
0.0
 10
190.6229327218906
 20
119.9952094228388
 30
0.0
 10
190.5355945987176
 20
120.0827162140581
 30
0.0
 10
190.249818177756
 20
120.3149837095067
 30
0.0
 10
190.0202818292903
 20
120.4354324521493
 30
0.0
 10
189.643963693296
 20
120.556529044451
 30
0.0
 10
189.5116307849353
 20
120.5876371778872
 30
0.0
 10
189.2375981259445
 20
120.6295844174428
 30
0.0
 10
189.0995729663223
 20
120.6400146520525
 30
0.0
 10
188.8215015851036
 20
120.6405705509193
 30
0.0
 10
188.6797886464332
 20
120.6302920920892
 30
0.0
 10
188.4073663907529
 20
120.5894689073961
 30
0.0
 10
188.2755382462558
 20
120.5591755715213
 30
0.0
 10
188.0201393506512
 20
120.4779083812304
 30
0.0
 10
187.8999733474619
 20
120.4279605303721
 30
0.0
 10
187.6748019349056
 20
120.3096393191741
 30
0.0
 10
187.5686508735712
 20
120.2403462100916
 30
0.0
 10
187.377203584869
 20
120.0855315614978
 30
0.0
 10
187.2912695709495
 20
119.9999455736272
 30
0.0
 10
187.1388572529095
 20
119.8102619015501
 30
0.0
 10
187.072673762622
 20
119.7058406404796
 30
0.0
 10
186.966492064071
 20
119.4858093006722
 30
0.0
 10
186.9255120008552
 20
119.3691608145628
 30
0.0
 10
186.8694318600578
 20
119.1207594335735
 30
0.0
 10
186.8552076846165
 20
118.9916494447693
 30
0.0
 10
186.854611000745
 20
118.7303943789372
 30
0.0
 10
186.8683795682435
 20
118.5955880882645
 30
0.0
 10
186.9232296351855
 20
118.3291329739101
 30
0.0
 10
186.963726148462
 20
118.1983990392115
 30
0.0
 10
187.1231886196381
 20
117.8139835852079
 30
0.0
 10
187.2778570439523
 20
117.5748245533311
 30
0.0
 10
187.5661650752969
 20
117.2671651938873
 30
0.0
 10
187.6701898906448
 20
117.174492077123
 30
0.0
 10
187.8946091488235
 20
117.0093492344834
 30
0.0
 10
188.016539936684
 20
116.9363083658042
 30
0.0
 10
188.26899708811
 20
116.8182864495318
 30
0.0
 10
188.3998836180272
 20
116.7726387439141
 30
0.0
 10
188.6718245357401
 20
116.7101183044469
 30
0.0
 10
188.8137062860725
 20
116.6935892244668
 30
0.0
 10
188.9549045100524
 20
116.6935892244668
 30
0.0
  0
SPLINE
  5
126
330
1F
100
AcDbEntity
  8
0
  6
HIDDEN
 62
     7
370
     0
100
AcDbSpline
210
0.0
220
0.0
230
1.0
 70
     8
 71
     3
 72
     8
 73
     4
 74
     0
 42
0.000000001
 43
0.00000001
 40
0.0
 40
0.0
 40
0.0
 40
0.0
 40
1.0
 40
1.0
 40
1.0
 40
1.0
 10
188.1317243338929
 20
127.1717256320186
 30
0.0
 10
188.3431517238942
 20
127.1792351418011
 30
0.0
 10
188.5456202704269
 20
127.2333586714357
 30
0.0
 10
188.7318308695642
 20
127.3180869586609
 30
0.0
  0
ELLIPSE
  5
127
330
1F
100
AcDbEntity
  8
0
  6
HIDDEN
 62
     7
370
     0
100
AcDbEllipse
 10
188.9549045101
 20
129.1337137079
 30
0.0
 11
-1.760776919379055
 21
2.232245799914466
 31
0.0
210
0.0
220
0.0
230
1.0
 40
0.5126701559
 41
5.395150933160711
 42
8.323890913123106
  0
SPLINE
  5
128
330
1F
100
AcDbEntity
  8
0
  6
HIDDEN
 62
     7
370
     0
100
AcDbSpline
210
0.0
220
0.0
230
1.0
 70
     8
 71
     3
 72
     8
 73
     4
 74
     0
 42
0.000000001
 43
0.00000001
 40
0.0
 40
0.0
 40
0.0
 40
0.0
 40
1.0
 40
1.0
 40
1.0
 40
1.0
 10
188.7318308695651
 20
131.2424657265956
 30
0.0
 10
188.5453065202803
 20
131.1201453106949
 30
0.0
 10
188.3427516217541
 20
130.9790601500298
 30
0.0
 10
188.1317243338922
 20
130.8025765142444
 30
0.0
  0
ELLIPSE
  5
129
330
1F
100
AcDbEntity
  8
0
  6
HIDDEN
 62
     7
370
     0
100
AcDbEllipse
 10
188.9549045101
 20
129.1337137079
 30
0.0
 11
1.760776919379083
 21
1.388886188042904
 31
0.0
210
0.0
220
0.0
230
1.0
 40
0.8239737799
 41
1.397255033323967
 42
3.733259041931063
  0
LWPOLYLINE
  5
12A
330
1F
100
AcDbEntity
  8
0
  6
HIDDEN
 62
     7
370
     0
100
AcDbPolyline
 90
       21
 70
   128
 43
0.0
 10
188.9549046024
 20
128.8881404076
 10
189.6038399279
 20
128.9847232152
 10
190.1892534658
 20
129.2650177825
 10
190.6538400069
 20
129.7015864152
 10
190.9521240011
 20
130.251695377
 10
191.0549047604
 20
130.8614946652
 10
190.9521240011
 20
131.4712948847
 10
190.6538400069
 20
132.0214038465
 10
190.1892534658
 20
132.4579724792
 10
189.6038399279
 20
132.7382670466
 10
188.9549046024
 20
132.8348498542
 10
188.305969277
 20
132.7382670466
 10
187.7205557391
 20
132.4579724792
 10
187.255969198
 20
132.0214038465
 10
186.9576861351
 20
131.4712948847
 10
186.8549044445
 20
130.8614946652
 10
186.9576861351
 20
130.251695377
 10
187.255969198
 20
129.7015864152
 10
187.7205557391
 20
129.2650177825
 10
188.305969277
 20
128.9847232152
 10
188.9549046024
 20
128.8881404076
  0
LINE
  5
12B
330
1F
100
AcDbEntity
  8
0
  6
HIDDEN
 62
     7
370
     0
100
AcDbLine
 10
183.9449041724
 20
152.7962479491
 30
0.0
 11
183.9449041724
 21
147.2532041121
 31
0.0
  0
LINE
  5
12C
330
1F
100
AcDbEntity
  8
0
  6
HIDDEN
 62
     7
370
     0
100
AcDbLine
 10
187.7649043888
 20
152.7962479491
 30
0.0
 11
187.7649043888
 21
147.2532041121
 31
0.0
  0
SPLINE
  5
12D
330
1F
100
AcDbEntity
  8
0
  6
HIDDEN
 62
     7
370
     0
100
AcDbSpline
210
0.0
220
0.0
230
1.0
 70
     8
 71
     3
 72
    14
 73
    10
 74
     0
 42
0.000000001
 43
0.00000001
 40
0.0
 40
0.0
 40
0.0
 40
0.0
 40
0.25
 40
0.25
 40
0.5
 40
0.5
 40
0.75
 40
0.75
 40
1.0
 40
1.0
 40
1.0
 40
1.0
 10
186.9649045100522
 20
134.3784931534738
 30
0.0
 10
187.0393300621868
 20
134.4693506082554
 30
0.0
 10
187.1212083218003
 20
134.5585611914611
 30
0.0
 10
187.2941944679758
 20
134.733985510253
 30
0.0
 10
187.3848662878369
 20
134.8195204658797
 30
0.0
 10
187.5522298371812
 20
134.9803720788182
 30
0.0
 10
187.6286806621477
 20
135.0561041677147
 30
0.0
 10
187.7349737469862
 20
135.1876951912901
 30
0.0
 10
187.7649045100524
 20
135.2446953661964
 30
0.0
 10
187.7649045100524
 20
135.2868926391485
 30
0.0
  0
LINE
  5
12E
330
1F
100
AcDbEntity
  8
0
  6
HIDDEN
 62
     7
370
     0
100
AcDbLine
 10
187.7649043888
 20
103.6059418444
 30
0.0
 11
187.7649043888
 21
99.473901068
 31
0.0
  0
SPLINE
  5
12F
330
1F
100
AcDbEntity
  8
0
  6
HIDDEN
 62
     7
370
     0
100
AcDbSpline
210
0.0
220
0.0
230
1.0
 70
     8
 71
     3
 72
    14
 73
    10
 74
     0
 42
0.000000001
 43
0.00000001
 40
0.0
 40
0.0
 40
0.0
 40
0.0
 40
0.25
 40
0.25
 40
0.5
 40
0.5
 40
0.75
 40
0.75
 40
1.0
 40
1.0
 40
1.0
 40
1.0
 10
187.7649045100524
 20
131.154851440517
 30
0.0
 10
187.7649045100524
 20
131.1123510228624
 30
0.0
 10
187.7351910512357
 20
131.0850791163798
 30
0.0
 10
187.6291096843435
 20
131.0715263424127
 30
0.0
 10
187.552742755179
 20
131.0859718995536
 30
0.0
 10
187.3839832106505
 20
131.1583480635735
 30
0.0
 10
187.2931863981786
 20
131.2154209986909
 30
0.0
 10
187.1216214579713
 20
131.3565789322078
 30
0.0
 10
187.0395602176768
 20
131.4411561472914
 30
0.0
 10
186.9649045100522
 20
131.5345293104207
 30
0.0
  0
LINE
  5
130
330
1F
100
AcDbEntity
  8
0
  6
HIDDEN
 62
     7
370
     0
100
AcDbLine
 10
182.621743457
 20
155.9142824013
 30
0.0
 11
182.621743457
 21
147.2532041121
 31
0.0
  0
LINE
  5
131
330
1F
100
AcDbEntity
  8
0
  6
HIDDEN
 62
     7
370
     0
100
AcDbLine
 10
189.0880660355
 20
103.1060563151
 30
0.0
 11
189.0880660355
 21
98.4142627317
 31
0.0
  0
LINE
  5
132
330
1F
100
AcDbEntity
  8
0
  6
HIDDEN
 62
     7
370
     0
100
AcDbLine
 10
189.0880660355
 20
155.9142824013
 30
0.0
 11
189.0880660355
 21
147.2532041121
 31
0.0
  0
ARC
  5
133
330
1F
100
AcDbEntity
  8
0
  6
HIDDEN
 62
     7
370
     0
100
AcDbCircle
 10
189.200957272
 20
129.9731912719
 30
0.0
 40
1.353195702694801
100
AcDbArc
 50
110.2844232439
 51
142.1998959299
  0
ARC
  5
134
330
1F
100
AcDbEntity
  8
0
  6
HIDDEN
 62
     7
370
     0
100
AcDbCircle
 10
188.2583050415
 20
127.9561738267
 30
0.0
 40
0.7945949542257955
100
AcDbArc
 50
260.8336111241
 51
306.5791809456
  0
LWPOLYLINE
  5
135
330
1F
100
AcDbEntity
  8
0
  6
HIDDEN
 62
     7
370
     0
100
AcDbPolyline
 90
       21
 70
   128
 43
0.0
 10
178.9896673724
 20
130.1161553461
 10
179.1525109872
 20
129.6389130626
 10
179.4124053992
 20
129.3187681336
 10
179.7439101353
 20
129.1870595638
 10
180.1145746574
 20
129.2566787202
 10
180.4881169662
 20
129.5208120469
 10
180.8279710091
 20
129.9536032353
 10
181.1008694783
 20
130.512688284
 10
181.2801001794
 20
131.1433389533
 10
181.3481179267
 20
131.783824389
 10
181.2982651606
 20
132.3714488868
 10
181.1354210801
 20
132.8486911703
 10
180.8755266681
 20
133.168835168
 10
180.5440223977
 20
133.3005446691
 10
180.17335741
 20
133.2309245814
 10
179.7998155668
 20
132.966792186
 10
179.4599615238
 20
132.5340009976
 10
179.1870625891
 20
131.9749159489
 10
179.0078318879
 20
131.3442643482
 10
178.9398141406
 20
130.7037789125
 10
178.9896673724
 20
130.1161553461
  0
LWPOLYLINE
  5
136
330
1F
100
AcDbEntity
  8
0
  6
HIDDEN
 62
     7
370
     0
100
AcDbPolyline
 90
       25
 70
   128
 43
0.0
 10
178.2266354855
 20
129.6971393499
 10
178.4100704096
 20
129.1149696086
 10
178.6933810651
 20
128.6822547886
 10
179.0572604365
 20
128.4284852195
 10
179.4769106634
 20
128.3709536988
 10
179.9237331576
 20
128.5135820258
 10
180.3672778621
 20
128.8466490555
 10
180.7773173056
 20
129.3474575255
 10
181.125909017
 20
129.9818781886
 10
181.3892963543
 20
130.706676257
 10
181.5495304033
 20
131.4724571753
 10
181.595690941
 20
132.2270361457
 10
181.5246324256
 20
132.9189883295
 10
181.3411972686
 20
133.5011571396
 10
181.0578866131
 20
133.9338719595
 10
180.6940072417
 20
134.1876424599
 10
180.2743570149
 20
134.2451739807
 10
179.8275345206
 20
134.1025456536
 10
179.3839898161
 20
133.7694786239
 10
178.9739499069
 20
133.2686692227
 10
178.6253586612
 20
132.6342494909
 10
178.3619710911
 20
131.9094514225
 10
178.2017375078
 20
131.1436695728
 10
178.15557697
 20
130.3890915338
 10
178.2266354855
 20
129.6971393499
  0
LWPOLYLINE
  5
137
330
1F
100
AcDbEntity
  8
0
  6
HIDDEN
 62
     7
370
     0
100
AcDbPolyline
 90
       23
 70
   128
 43
0.0
 10
188.9549046024
 20
128.5620573658
 10
189.6592359259
 20
128.6572180439
 10
190.3065069779
 20
128.9349896584
 10
190.8442787096
 20
129.3728695933
 10
191.2289838507
 20
129.9353828404
 10
191.4294584855
 20
130.5769588549
 10
191.4294584855
 20
131.2456195924
 10
191.2289838507
 20
131.8871956069
 10
190.8442787096
 20
132.449708854
 10
190.3065069779
 20
132.8875887889
 10
189.6592359259
 20
133.1653594721
 10
188.9549046024
 20
133.2605201501
 10
188.2505732789
 20
133.1653594721
 10
187.6033022269
 20
132.8875887889
 10
187.0655304953
 20
132.449708854
 10
186.6808244228
 20
131.8871956069
 10
186.4803507194
 20
131.2456195924
 10
186.4803507194
 20
130.5769588549
 10
186.6808244228
 20
129.9353828404
 10
187.0655304953
 20
129.3728695933
 10
187.6033022269
 20
128.9349896584
 10
188.2505732789
 20
128.6572180439
 10
188.9549046024
 20
128.5620573658
  0
SPLINE
  5
138
330
1F
100
AcDbEntity
  8
0
  6
HIDDEN
 62
     7
370
     0
100
AcDbSpline
210
0.0
220
0.0
230
1.0
 70
     8
 71
     3
 72
    34
 73
    30
 74
     0
 42
0.000000001
 43
0.00000001
 40
0.0
 40
0.0
 40
0.0
 40
0.0
 40
0.0624999999999991
 40
0.0624999999999991
 40
0.1249999999999981
 40
0.1249999999999981
 40
0.1874999999999972
 40
0.1874999999999972
 40
0.2499999999999957
 40
0.2499999999999957
 40
0.3124999999999952
 40
0.3124999999999952
 40
0.3749999999999946
 40
0.3749999999999946
 40
0.4999999999999944
 40
0.4999999999999944
 40
0.6249999999999956
 40
0.6249999999999956
 40
0.6874999999999963
 40
0.6874999999999963
 40
0.749999999999997
 40
0.749999999999997
 40
0.8124999999999978
 40
0.8124999999999978
 40
0.8749999999999986
 40
0.8749999999999986
 40
0.9374999999999992
 40
0.9374999999999992
 40
1.0
 40
1.0
 40
1.0
 40
1.0
 10
189.0880660175143
 20
136.3921439845411
 30
0.0
 10
189.2474578453022
 20
136.3843038886183
 30
0.0
 10
189.4034603287457
 20
136.3626452405279
 30
0.0
 10
189.708969844823
 20
136.2927970130351
 30
0.0
 10
189.8598641798352
 20
136.2439713107069
 30
0.0
 10
190.147763524526
 20
136.1210473572995
 30
0.0
 10
190.2837099274857
 20
136.0477398491652
 30
0.0
 10
190.5398925430777
 20
135.8777292253938
 30
0.0
 10
190.6610748308369
 20
135.7798554331924
 30
0.0
 10
190.8782209027096
 20
135.5672712577604
 30
0.0
 10
190.9751827756699
 20
135.4522253192308
 30
0.0
 10
191.1457452114955
 20
135.2043641991107
 30
0.0
 10
191.2189852647075
 20
135.0713307020451
 30
0.0
 10
191.3938657214563
 20
134.661822685915
 30
0.0
 10
191.4549036824322
 20
134.3638620361399
 30
0.0
 10
191.4549053376553
 20
133.7724204802655
 30
0.0
 10
191.393870728069
 20
133.4722469302889
 30
0.0
 10
191.2189809606671
 20
133.0570156500211
 30
0.0
 10
191.1457372552427
 20
132.9216605317743
 30
0.0
 10
190.9751765395061
 20
132.6687612003876
 30
0.0
 10
190.8782128239126
 20
132.5509959227799
 30
0.0
 10
190.6610524953254
 20
132.3328656274113
 30
0.0
 10
190.5398712366386
 20
132.2321623022643
 30
0.0
 10
190.2837010096999
 20
132.0569186094311
 30
0.0
 10
190.1477576600371
 20
131.9811736403404
 30
0.0
 10
189.859854956854
 20
131.8540052650382
 30
0.0
 10
189.7089647609372
 20
131.8034039927107
 30
0.0
 10
189.4034592572316
 20
131.7309748929629
 30
0.0
 10
189.2474578589681
 20
131.7084891215659
 30
0.0
 10
189.0880660175143
 20
131.7003506616711
 30
0.0
  0
SPLINE
  5
139
330
1F
100
AcDbEntity
  8
0
  6
HIDDEN
 62
     7
370
     0
100
AcDbSpline
210
0.0
220
0.0
230
1.0
 70
     8
 71
     3
 72
    10
 73
     6
 74
     0
 42
0.000000001
 43
0.00000001
 40
0.0
 40
0.0
 40
0.0
 40
0.0
 40
0.5
 40
0.5
 40
1.0
 40
1.0
 40
1.0
 40
1.0
 10
189.0880660175143
 20
131.7003506616711
 30
0.0
 10
188.8653389906409
 20
131.5568621613773
 30
0.0
 10
188.6436531034158
 20
131.4421414156444
 30
0.0
 10
188.2024322655638
 20
131.2723809862865
 30
0.0
 10
187.9828736181649
 20
131.2169609918992
 30
0.0
 10
187.7649045100527
 20
131.2004656625295
 30
0.0
  0
SPLINE
  5
13A
330
1F
100
AcDbEntity
  8
0
  6
HIDDEN
 62
     7
370
     0
100
AcDbSpline
210
0.0
220
0.0
230
1.0
 70
     8
 71
     3
 72
    10
 73
     6
 74
     0
 42
0.000000001
 43
0.00000001
 40
0.0
 40
0.0
 40
0.0
 40
0.0
 40
0.5
 40
0.5
 40
1.0
 40
1.0
 40
1.0
 40
1.0
 10
187.7649045100527
 20
135.332506861161
 30
0.0
 10
187.9817953425735
 20
135.5695458006096
 30
0.0
 10
188.2009479792324
 20
135.771716035603
 30
0.0
 10
188.6424324795012
 20
136.1224681071218
 30
0.0
 10
188.8656349447746
 20
136.2711441995186
 30
0.0
 10
189.0880660175143
 20
136.3921439845411
 30
0.0
  0
SPLINE
  5
13B
330
1F
100
AcDbEntity
  8
0
  6
HIDDEN
 62
     7
370
     0
100
AcDbSpline
210
0.0
220
0.0
230
1.0
 70
     8
 71
     3
 72
    16
 73
    12
 74
     0
 42
0.000000001
 43
0.00000001
 40
0.0
 40
0.0
 40
0.0
 40
0.0
 40
0.2500000000000006
 40
0.2500000000000006
 40
0.5000000000000011
 40
0.5000000000000011
 40
0.7500000000000017
 40
0.7500000000000017
 40
0.8750000000000008
 40
0.8750000000000008
 40
1.0
 40
1.0
 40
1.0
 40
1.0
 10
186.9649045100524
 20
131.5345293104204
 30
0.0
 10
186.7994904035723
 20
131.7414155464457
 30
0.0
 10
186.6732930725966
 20
131.9672842442547
 30
0.0
 10
186.4988867742658
 20
132.4561534898675
 30
0.0
 10
186.4550567351689
 20
132.707920543212
 30
0.0
 10
186.4547530621989
 20
133.2196998677942
 30
0.0
 10
186.4986099222592
 20
133.4707545768769
 30
0.0
 10
186.6285316815264
 20
133.8316031450189
 30
0.0
 10
186.6826464929343
 20
133.9488759133675
 30
0.0
 10
186.8093234830777
 20
134.1713648647063
 30
0.0
 10
186.8821972034386
 20
134.2775254729498
 30
0.0
 10
186.9649045100524
 20
134.378493153474
 30
0.0
  0
ARC
  5
13C
330
1F
100
AcDbEntity
  8
0
  6
HIDDEN
 62
     7
370
     0
100
AcDbCircle
 10
188.9410751892
 20
102.0949673416
 30
0.0
 40
2.481198093993738
100
AcDbArc
 50
345.1059197262
 51
182.6037016399
  0
ARC
  5
13D
330
1F
100
AcDbEntity
  8
0
  6
HIDDEN
 62
     7
370
     0
100
AcDbCircle
 10
188.9373426955
 20
102.030965707
 30
0.0
 40
2.356430766252752
100
AcDbArc
 50
350.9620987549
 51
158.5806595779
  0
ARC
  5
13E
330
1F
100
AcDbEntity
  8
0
  6
HIDDEN
 62
     7
370
     0
100
AcDbCircle
 10
188.9531236222
 20
102.0133395901
 30
0.0
 40
2.004443546558751
100
AcDbArc
 50
2.9533320278
 51
126.7970820365
  0
LWPOLYLINE
  5
13F
330
1F
100
AcDbEntity
  8
0
  6
HIDDEN
 62
     7
370
     0
100
AcDbPolyline
 90
       23
 70
   128
 43
0.0
 10
188.0998545527
 20
100.1450512309
 10
187.4726348757
 20
100.4608403642
 10
186.9654999315
 20
100.929889803
 10
186.6195350155
 20
101.5141997237
 10
186.4627673492
 20
102.1664309997
 10
186.5078983098
 20
102.8337450448
 10
186.751271525
 20
103.4620813776
 10
187.1731690332
 20
104.000533906
 10
187.7394122272
 20
104.4054813433
 10
188.4041278824
 20
104.6441178519
 10
189.1134641334
 20
104.6971091751
 10
189.8099546522
 20
104.5601628471
 10
190.4371752605
 20
104.2443737138
 10
190.944308342
 20
103.775324275
 10
191.2902741894
 20
103.1910152856
 10
191.4470418557
 20
102.5387840096
 10
191.4019099638
 20
101.8714690331
 10
191.1585386112
 20
101.2431327004
 10
190.7366401717
 20
100.7046811033
 10
190.1703960463
 20
100.2997327346
 10
189.5056803912
 20
100.061096226
 10
188.7963450715
 20
100.0081058342
 10
188.0998545527
 20
100.1450512309
  0
LWPOLYLINE
  5
140
330
1F
100
AcDbEntity
  8
0
  6
HIDDEN
 62
     7
370
     0
100
AcDbPolyline
 90
       20
 70
   128
 43
0.0
 10
188.2708640039
 20
101.7683446158
 10
187.6976917699
 20
102.072746468
 10
187.2607580587
 20
102.5355402131
 10
187.00741131
 20
103.1065750617
 10
186.9651059821
 20
103.7239692856
 10
187.1384260446
 20
104.320820396
 10
187.5085895151
 20
104.8324489716
 10
188.035483399
 20
105.2034124482
 10
188.6620111033
 20
105.3935121495
 10
189.3202782809
 20
105.3821462888
 10
189.938952142
 20
105.1705479372
 10
190.4509886369
 20
104.7816462565
 10
190.8009014293
 20
104.2575845245
 10
190.9507717207
 20
103.6551538605
 10
190.8843591079
 20
103.0396362517
 10
190.6088589892
 20
102.4777320895
 10
190.1541286349
 20
102.0303340379
 10
189.5694424599
 20
101.7459239561
 10
188.9181629955
 20
101.6553211708
 10
188.2708640039
 20
101.7683446158
  0
LWPOLYLINE
  5
141
330
1F
100
AcDbEntity
  8
0
  6
HIDDEN
 62
     7
370
     0
100
AcDbPolyline
 90
       23
 70
   128
 43
0.0
 10
188.0998545527
 20
100.381044646
 10
187.4726348757
 20
100.6968356419
 10
186.9654999315
 20
101.1658832181
 10
186.6195350155
 20
101.7501931388
 10
186.4627673492
 20
102.4024244148
 10
186.5078983098
 20
103.0697393913
 10
186.751271525
 20
103.6980747927
 10
187.1731690332
 20
104.2365282524
 10
187.7394122272
 20
104.6414756898
 10
188.4041278824
 20
104.880111267
 10
189.1134641334
 20
104.9331025902
 10
189.8099546522
 20
104.7961562622
 10
190.4371752605
 20
104.4803671289
 10
190.944308342
 20
104.0113186214
 10
191.2902741894
 20
103.4270096321
 10
191.4470418557
 20
102.7747774247
 10
191.4019099638
 20
102.1074624482
 10
191.1585386112
 20
101.4791261155
 10
190.7366401717
 20
100.9406745184
 10
190.1703960463
 20
100.5357261497
 10
189.5056803912
 20
100.2970915038
 10
188.7963450715
 20
100.2440992493
 10
188.0998545527
 20
100.381044646
  0
LWPOLYLINE
  5
142
330
1F
100
AcDbEntity
  8
0
  6
HIDDEN
 62
     7
370
     0
100
AcDbPolyline
 90
       22
 70
   128
 43
0.0
 10
188.1682583332
 20
100.4961766053
 10
187.5661545634
 20
100.8042897779
 10
187.0874473095
 20
101.2654863048
 10
186.774671936
 20
101.8387842674
 10
186.6556191086
 20
102.4732449774
 10
186.7408686518
 20
103.1124926854
 10
187.0228451878
 20
103.6997288216
 10
187.4764933452
 20
104.1827732447
 10
188.0615045517
 20
104.5187068853
 10
188.7258989006
 20
104.6776799235
 10
189.4106407851
 20
104.6455669898
 10
190.054888764
 20
104.4252216566
 10
190.6013990953
 20
104.0362212557
 10
191.0016088947
 20
103.5131318245
 10
191.2199630603
 20
102.9024319474
 10
191.2370546922
 20
102.2583842028
 10
191.0513675973
 20
101.6382146377
 10
190.6794010862
 20
101.0970305402
 10
190.1542059347
 20
100.6829160947
 10
189.5224460602
 20
100.4326678563
 10
188.8402587935
 20
100.36852022
 10
188.1682583332
 20
100.4961766053
  0
LWPOLYLINE
  5
143
330
1F
100
AcDbEntity
  8
0
  6
HIDDEN
 62
     7
370
     0
100
AcDbPolyline
 90
       23
 70
   128
 43
0.0
 10
188.0998545527
 20
100.6170399237
 10
187.4726348757
 20
100.932829057
 10
186.9654999315
 20
101.4018784959
 10
186.6195350155
 20
101.9861865539
 10
186.4627673492
 20
102.6384187613
 10
186.5078983098
 20
103.3057337377
 10
186.751271525
 20
103.9340691391
 10
187.1731690332
 20
104.4725216675
 10
187.7394122272
 20
104.8774691049
 10
188.4041278824
 20
105.1161056135
 10
189.1134641334
 20
105.1690969367
 10
189.8099546522
 20
105.0321506087
 10
190.4371752605
 20
104.7163614754
 10
190.944308342
 20
104.2473120365
 10
191.2902741894
 20
103.6630030472
 10
191.4470418557
 20
103.0107717711
 10
191.4019099638
 20
102.3434567947
 10
191.1585386112
 20
101.7151213933
 10
190.7366401717
 20
101.1766679335
 10
190.1703960463
 20
100.7717195649
 10
189.5056803912
 20
100.5330849189
 10
188.7963450715
 20
100.4800926644
 10
188.0998545527
 20
100.6170399237
  0
LWPOLYLINE
  5
144
330
1F
100
AcDbEntity
  8
0
  6
HIDDEN
 62
     7
370
     0
100
AcDbPolyline
 90
       22
 70
   128
 43
0.0
 10
188.1682583332
 20
100.7321700204
 10
187.5661545634
 20
101.0402831931
 10
187.0874473095
 20
101.5014797199
 10
186.774671936
 20
102.0747776825
 10
186.6556191086
 20
102.7092383925
 10
186.7408686518
 20
103.3484870318
 10
187.0228451878
 20
103.9357222367
 10
187.4764933452
 20
104.4187675912
 10
188.0615045517
 20
104.7547012318
 10
188.7258989006
 20
104.91367427
 10
189.4106407851
 20
104.8815613363
 10
190.054888764
 20
104.6612150717
 10
190.6013990953
 20
104.2722156022
 10
191.0016088947
 20
103.7491261709
 10
191.2199630603
 20
103.1384253625
 10
191.2370546922
 20
102.4943776179
 10
191.0513675973
 20
101.8742089841
 10
190.6794010862
 20
101.3330239553
 10
190.1542059347
 20
100.9189095098
 10
189.5224460602
 20
100.6686612714
 10
188.8402587935
 20
100.6045154978
 10
188.1682583332
 20
100.7321700204
  0
LWPOLYLINE
  5
145
330
1F
100
AcDbEntity
  8
0
  6
HIDDEN
 62
     7
370
     0
100
AcDbPolyline
 90
       23
 70
   128
 43
0.0
 10
188.0998545527
 20
100.8530333389
 10
187.4726348757
 20
101.1688224722
 10
186.9654999315
 20
101.637871911
 10
186.6195350155
 20
102.2221809003
 10
186.4627673492
 20
102.8744121764
 10
186.5078983098
 20
103.5417271528
 10
186.751271525
 20
104.1700625542
 10
187.1731690332
 20
104.708516014
 10
187.7394122272
 20
105.1134634513
 10
188.4041278824
 20
105.3520990286
 10
189.1134641334
 20
105.4050903518
 10
189.8099546522
 20
105.2681440238
 10
190.4371752605
 20
104.9523548905
 10
190.944308342
 20
104.483306383
 10
191.2902741894
 20
103.8989973936
 10
191.4470418557
 20
103.2467651863
 10
191.4019099638
 20
102.5794502098
 10
191.1585386112
 20
101.9511148084
 10
190.7366401717
 20
101.4126613486
 10
190.1703960463
 20
101.0077148426
 10
189.5056803912
 20
100.769078334
 10
188.7963450715
 20
100.7160879422
 10
188.0998545527
 20
100.8530333389
  0
LWPOLYLINE
  5
146
330
1F
100
AcDbEntity
  8
0
  6
HIDDEN
 62
     7
370
     0
100
AcDbPolyline
 90
       22
 70
   128
 43
0.0
 10
188.1682583332
 20
100.9681634355
 10
187.5661545634
 20
101.2762784708
 10
187.0874473095
 20
101.7374731351
 10
186.774671936
 20
102.3107720289
 10
186.6556191086
 20
102.9452327389
 10
186.7408686518
 20
103.5844804469
 10
187.0228451878
 20
104.1717165831
 10
187.4764933452
 20
104.6547610063
 10
188.0615045517
 20
104.9906946469
 10
188.7258989006
 20
105.1496676851
 10
189.4106407851
 20
105.1175547514
 10
190.054888764
 20
104.8972094182
 10
190.6013990953
 20
104.5082090173
 10
191.0016088947
 20
103.9851195861
 10
191.2199630603
 20
103.3744197089
 10
191.2370546922
 20
102.7303719643
 10
191.0513675973
 20
102.1102033306
 10
190.6794010862
 20
101.5690173704
 10
190.1542059347
 20
101.154902925
 10
189.5224460602
 20
100.9046546865
 10
188.8402587935
 20
100.8405089129
 10
188.1682583332
 20
100.9681634355
  0
LWPOLYLINE
  5
147
330
1F
100
AcDbEntity
  8
0
  6
HIDDEN
 62
     7
370
     0
100
AcDbPolyline
 90
       23
 70
   128
 43
0.0
 10
188.0998545527
 20
101.089026754
 10
187.4726348757
 20
101.4048158873
 10
186.9654999315
 20
101.8738653261
 10
186.6195350155
 20
102.4581743155
 10
186.4627673492
 20
103.1104065228
 10
186.5078983098
 20
103.7777214993
 10
186.751271525
 20
104.4060569007
 10
187.1731690332
 20
104.9445094291
 10
187.7394122272
 20
105.3494568665
 10
188.4041278824
 20
105.588093375
 10
189.1134641334
 20
105.6410846982
 10
189.8099546522
 20
105.5041383702
 10
190.4371752605
 20
105.1883492369
 10
190.944308342
 20
104.7192997981
 10
191.2902741894
 20
104.1349908087
 10
191.4470418557
 20
103.4827595327
 10
191.4019099638
 20
102.8154445562
 10
191.1585386112
 20
102.1871082235
 10
190.7366401717
 20
101.6486566264
 10
190.1703960463
 20
101.2437082577
 10
189.5056803912
 20
101.0050717492
 10
188.7963450715
 20
100.9520813573
 10
188.0998545527
 20
101.089026754
  0
LWPOLYLINE
  5
148
330
1F
100
AcDbEntity
  8
0
  6
HIDDEN
 62
     7
370
     0
100
AcDbPolyline
 90
       22
 70
   128
 43
0.0
 10
188.1682583332
 20
101.2041568506
 10
187.5661545634
 20
101.5122718859
 10
187.0874473095
 20
101.9734674815
 10
186.774671936
 20
102.546765444
 10
186.6556191086
 20
103.181226154
 10
186.7408686518
 20
103.8204747934
 10
187.0228451878
 20
104.4077099983
 10
187.4764933452
 20
104.8907553527
 10
188.0615045517
 20
105.2266889933
 10
188.7258989006
 20
105.3856620315
 10
189.4106407851
 20
105.3535490978
 10
190.054888764
 20
105.1332028333
 10
190.6013990953
 20
104.7442033637
 10
191.0016088947
 20
104.2211139325
 10
191.2199630603
 20
103.610413124
 10
191.2370546922
 20
102.9663653795
 10
191.0513675973
 20
102.3461967457
 10
190.6794010862
 20
101.8050117169
 10
190.1542059347
 20
101.3908963401
 10
189.5224460602
 20
101.1406481016
 10
188.8402587935
 20
101.076502328
 10
188.1682583332
 20
101.2041568506
  0
LWPOLYLINE
  5
149
330
1F
100
AcDbEntity
  8
0
  6
HIDDEN
 62
     7
370
     0
100
AcDbPolyline
 90
       23
 70
   128
 43
0.0
 10
188.0998545527
 20
101.6875616956
 10
187.4726348757
 20
102.0033517603
 10
186.9654999315
 20
102.4724002678
 10
186.6195350155
 20
103.0567092571
 10
186.4627673492
 20
103.7089414645
 10
186.5078983098
 20
104.3762564409
 10
186.751271525
 20
105.0045918424
 10
187.1731690332
 20
105.5430453021
 10
187.7394122272
 20
105.9479927394
 10
188.4041278824
 20
106.1866283167
 10
189.1134641334
 20
106.2396196399
 10
189.8099546522
 20
106.1026733119
 10
190.4371752605
 20
105.7868841786
 10
190.944308342
 20
105.3178356711
 10
191.2902741894
 20
104.7335266817
 10
191.4470418557
 20
104.0812944744
 10
191.4019099638
 20
103.4139794979
 10
191.1585386112
 20
102.7856440965
 10
190.7366401717
 20
102.2471906368
 10
190.1703960463
 20
101.8422431994
 10
189.5056803912
 20
101.6036066908
 10
188.7963450715
 20
101.550616299
 10
188.0998545527
 20
101.6875616956
  0
LWPOLYLINE
  5
14A
330
1F
100
AcDbEntity
  8
0
  6
HIDDEN
 62
     7
370
     0
100
AcDbPolyline
 90
       20
 70
   128
 43
0.0
 10
188.2775732517
 20
102.2490001965
 10
187.7100224808
 20
102.5504171599
 10
187.2773737848
 20
103.0086716387
 10
187.0265118047
 20
103.5741055135
 10
186.9846209153
 20
104.1854452092
 10
187.1562413141
 20
104.776442026
 10
187.5227744892
 20
105.2830526356
 10
188.0445013955
 20
105.6503783662
 10
188.6648842334
 20
105.8386135597
 10
189.316695483
 20
105.8273594577
 10
189.9293008461
 20
105.6178360928
 10
190.4363147184
 20
105.232748178
 10
190.7827965185
 20
104.7138264153
 10
190.9311971828
 20
104.1173040617
 10
190.8654346332
 20
103.5078232858
 10
190.5926372125
 20
102.9514306907
 10
190.1423669621
 20
102.5084200997
 10
189.5634158715
 20
102.226799329
 10
188.9185234174
 20
102.1370850254
 10
188.2775732517
 20
102.2490001965
  0
LWPOLYLINE
  5
14B
330
1F
100
AcDbEntity
  8
0
  6
HIDDEN
 62
     7
370
     0
100
AcDbPolyline
 90
       20
 70
   128
 43
0.0
 10
189.6322359532
 20
132.5574069966
 10
188.9912857875
 20
132.6693221677
 10
188.3463933333
 20
132.5796078641
 10
187.7674422428
 20
132.2979870934
 10
187.317171061
 20
131.8549765024
 10
187.0443736404
 20
131.2985839073
 10
186.9786120221
 20
130.6891031314
 10
187.1270126864
 20
130.0925807778
 10
187.4734935552
 20
129.5736590151
 10
187.9805083587
 20
129.1885711003
 10
188.5931137219
 20
128.9790477354
 10
189.2449249714
 20
128.9677936334
 10
189.8653078094
 20
129.1560288269
 10
190.3870347157
 20
129.5233545575
 10
190.7535678908
 20
130.0299651671
 10
190.9251882896
 20
130.6209619839
 10
190.8832974001
 20
131.2323016796
 10
190.6324344888
 20
131.7977355543
 10
190.1997867241
 20
132.2559900332
 10
189.6322359532
 20
132.5574069966
  0
LWPOLYLINE
  5
14C
330
1F
100
AcDbEntity
  8
0
  6
HIDDEN
 62
     7
370
     0
100
AcDbPolyline
 90
       23
 70
   128
 43
0.0
 10
189.8099546522
 20
133.1188454974
 10
189.1134641334
 20
133.2557908941
 10
188.4041278824
 20
133.2028005022
 10
187.7394122272
 20
132.9641639937
 10
187.1731690332
 20
132.5592165563
 10
186.751271525
 20
132.0207630966
 10
186.5078983098
 20
131.3924276952
 10
186.4627673492
 20
130.7251127187
 10
186.6195350155
 20
130.0728805114
 10
186.9654999315
 20
129.488571522
 10
187.4726348757
 20
129.0195230145
 10
188.0998545527
 20
128.7037338812
 10
188.7963450715
 20
128.5667875532
 10
189.5056803912
 20
128.6197788764
 10
190.1703960463
 20
128.8584144536
 10
190.7366401717
 20
129.263361891
 10
191.1585386112
 20
129.8018153507
 10
191.4019099638
 20
130.4301507521
 10
191.4470418557
 20
131.0974657286
 10
191.2902741894
 20
131.7496979359
 10
190.944308342
 20
132.3340069253
 10
190.4371752605
 20
132.8030554328
 10
189.8099546522
 20
133.1188454974
  0
LWPOLYLINE
  5
14D
330
1F
100
AcDbEntity
  8
0
  6
HIDDEN
 62
     7
370
     0
100
AcDbPolyline
 90
       23
 70
   128
 43
0.0
 10
189.8099546522
 20
133.7173804391
 10
189.1134641334
 20
133.8543258358
 10
188.4041278824
 20
133.8013354439
 10
187.7394122272
 20
133.5626989353
 10
187.1731690332
 20
133.1577505667
 10
186.751271525
 20
132.6192989696
 10
186.5078983098
 20
131.9909626368
 10
186.4627673492
 20
131.3236476604
 10
186.6195350155
 20
130.6714163843
 10
186.9654999315
 20
130.087107395
 10
187.4726348757
 20
129.6180579562
 10
188.0998545527
 20
129.3022688229
 10
188.7963450715
 20
129.1653224949
 10
189.5056803912
 20
129.218313818
 10
190.1703960463
 20
129.4569503266
 10
190.7366401717
 20
129.861897764
 10
191.1585386112
 20
130.4003502924
 10
191.4019099638
 20
131.0286856938
 10
191.4470418557
 20
131.6960006703
 10
191.2902741894
 20
132.3482328776
 10
190.944308342
 20
132.932541867
 10
190.4371752605
 20
133.4015913058
 10
189.8099546522
 20
133.7173804391
  0
LWPOLYLINE
  5
14E
330
1F
100
AcDbEntity
  8
0
  6
HIDDEN
 62
     7
370
     0
100
AcDbPolyline
 90
       20
 70
   128
 43
0.0
 10
189.638945201
 20
134.455839147
 10
188.9916462093
 20
134.568862592
 10
188.3403658136
 20
134.4782598067
 10
187.75568057
 20
134.1938487936
 10
187.3009502157
 20
133.746450742
 10
187.0254510283
 20
133.1845465798
 10
186.9590374842
 20
132.5690299023
 10
187.1089077756
 20
131.966598307
 10
187.458820568
 20
131.4425375063
 10
187.9708570629
 20
131.0536358256
 10
188.5895299926
 20
130.8420365427
 10
189.2477971703
 20
130.830670682
 10
189.8743248746
 20
131.0207703832
 10
190.4012187585
 20
131.3917338598
 10
190.771382229
 20
131.9033633668
 10
190.9447032228
 20
132.5002135459
 10
190.9023969635
 20
133.1176087011
 10
190.6490511462
 20
133.6886435497
 10
190.212117435
 20
134.1514363635
 10
189.638945201
 20
134.455839147
  0
LWPOLYLINE
  5
14F
330
1F
100
AcDbEntity
  8
0
  6
HIDDEN
 62
     7
370
     0
100
AcDbPolyline
 90
       20
 70
   128
 43
0.0
 10
189.638945201
 20
133.0380625773
 10
188.9916462093
 20
133.1510860223
 10
188.3403658136
 20
133.060483237
 10
187.75568057
 20
132.7760731552
 10
187.3009502157
 20
132.3286751036
 10
187.0254510283
 20
131.7667709414
 10
186.9590374842
 20
131.1512533326
 10
187.1089077756
 20
130.5488226686
 10
187.458820568
 20
130.0247609366
 10
187.9708570629
 20
129.6358592559
 10
188.5895299926
 20
129.4242609043
 10
189.2477971703
 20
129.4128950436
 10
189.8743248746
 20
129.6029947448
 10
190.4012187585
 20
129.9739582214
 10
190.771382229
 20
130.4855867971
 10
190.9447032228
 20
131.0824379075
 10
190.9023969635
 20
131.6998321313
 10
190.6490511462
 20
132.27086698
 10
190.212117435
 20
132.7336607251
 10
189.638945201
 20
133.0380625773
  0
LWPOLYLINE
  5
150
330
1F
100
AcDbEntity
  8
0
  6
HIDDEN
 62
     7
370
     0
100
AcDbPolyline
 90
       23
 70
   128
 43
0.0
 10
189.8099546522
 20
133.9533738542
 10
189.1134641334
 20
134.0903192509
 10
188.4041278824
 20
134.037328859
 10
187.7394122272
 20
133.7986923505
 10
187.1731690332
 20
133.3937458444
 10
186.751271525
 20
132.8552923847
 10
186.5078983098
 20
132.2269569833
 10
186.4627673492
 20
131.5596420068
 10
186.6195350155
 20
130.9074097995
 10
186.9654999315
 20
130.3231008101
 10
187.4726348757
 20
129.8540523026
 10
188.0998545527
 20
129.5382631693
 10
188.7963450715
 20
129.4013168413
 10
189.5056803912
 20
129.4543081645
 10
190.1703960463
 20
129.6929437417
 10
190.7366401717
 20
130.0978911791
 10
191.1585386112
 20
130.6363446388
 10
191.4019099638
 20
131.2646800402
 10
191.4470418557
 20
131.9319950167
 10
191.2902741894
 20
132.5842262927
 10
190.944308342
 20
133.1685352821
 10
190.4371752605
 20
133.6375847209
 10
189.8099546522
 20
133.9533738542
  0
LWPOLYLINE
  5
151
330
1F
100
AcDbEntity
  8
0
  6
HIDDEN
 62
     7
370
     0
100
AcDbPolyline
 90
       22
 70
   128
 43
0.0
 10
189.7415508717
 20
133.6022503424
 10
189.0695504114
 20
133.7299048651
 10
188.3873622134
 20
133.6657590914
 10
187.7556032702
 20
133.415510853
 10
187.2304081186
 20
133.0013954762
 10
186.8584406763
 20
132.4602104474
 10
186.6727545127
 20
131.8400418136
 10
186.6898470759
 20
131.195994069
 10
186.9081993788
 20
130.5852932606
 10
187.3084110409
 20
130.0622038294
 10
187.8549204409
 20
129.6732043598
 10
188.4991684198
 20
129.4528580952
 10
189.1839103043
 20
129.4207451615
 10
189.8483046531
 20
129.5797181997
 10
190.4333158597
 20
129.9156518403
 10
190.8869649484
 20
130.3986971948
 10
191.1689396217
 20
130.9859323997
 10
191.2541891649
 20
131.625181039
 10
191.1351382002
 20
132.259641749
 10
190.8223628267
 20
132.8329397116
 10
190.3436546415
 20
133.2941353071
 10
189.7415508717
 20
133.6022503424
  0
LWPOLYLINE
  5
152
330
1F
100
AcDbEntity
  8
0
  6
HIDDEN
 62
     7
370
     0
100
AcDbPolyline
 90
       23
 70
   128
 43
0.0
 10
189.8099546522
 20
134.1893672693
 10
189.1134641334
 20
134.3263145287
 10
188.4041278824
 20
134.2733222742
 10
187.7394122272
 20
134.0346876282
 10
187.1731690332
 20
133.6297392595
 10
186.751271525
 20
133.0912857998
 10
186.5078983098
 20
132.4629503984
 10
186.4627673492
 20
131.7956354219
 10
186.6195350155
 20
131.1434041459
 10
186.9654999315
 20
130.5590951566
 10
187.4726348757
 20
130.0900457177
 10
188.0998545527
 20
129.7742565844
 10
188.7963450715
 20
129.6373102564
 10
189.5056803912
 20
129.6903015796
 10
190.1703960463
 20
129.9289380882
 10
190.7366401717
 20
130.3338855255
 10
191.1585386112
 20
130.8723380539
 10
191.4019099638
 20
131.5006734554
 10
191.4470418557
 20
132.1679884318
 10
191.2902741894
 20
132.8202206392
 10
190.944308342
 20
133.4045286972
 10
190.4371752605
 20
133.873578136
 10
189.8099546522
 20
134.1893672693
  0
LWPOLYLINE
  5
153
330
1F
100
AcDbEntity
  8
0
  6
HIDDEN
 62
     7
370
     0
100
AcDbPolyline
 90
       22
 70
   128
 43
0.0
 10
189.7415508717
 20
133.8382437576
 10
189.0695504114
 20
133.9658982802
 10
188.3873622134
 20
133.9017525066
 10
187.7556032702
 20
133.6515042681
 10
187.2304081186
 20
133.2373898227
 10
186.8584406763
 20
132.6962038625
 10
186.6727545127
 20
132.0760352287
 10
186.6898470759
 20
131.4319874842
 10
186.9081993788
 20
130.821287607
 10
187.3084110409
 20
130.2981981758
 10
187.8549204409
 20
129.9091977749
 10
188.4991684198
 20
129.6888524417
 10
189.1839103043
 20
129.656739508
 10
189.8483046531
 20
129.8157125462
 10
190.4333158597
 20
130.1516461868
 10
190.8869649484
 20
130.6346906099
 10
191.1689396217
 20
131.2219267461
 10
191.2541891649
 20
131.8611744542
 10
191.1351382002
 20
132.4956351641
 10
190.8223628267
 20
133.068934058
 10
190.3436546415
 20
133.5301287223
 10
189.7415508717
 20
133.8382437576
  0
LWPOLYLINE
  5
154
330
1F
100
AcDbEntity
  8
0
  6
HIDDEN
 62
     7
370
     0
100
AcDbPolyline
 90
       23
 70
   128
 43
0.0
 10
189.8099546522
 20
134.4253625471
 10
189.1134641334
 20
134.5623079438
 10
188.4041278824
 20
134.5093156893
 10
187.7394122272
 20
134.2706810433
 10
187.1731690332
 20
133.8657326747
 10
186.751271525
 20
133.3272810776
 10
186.5078983098
 20
132.6989447448
 10
186.4627673492
 20
132.0316297684
 10
186.6195350155
 20
131.379397561
 10
186.9654999315
 20
130.7950885717
 10
187.4726348757
 20
130.3260400642
 10
188.0998545527
 20
130.0102509309
 10
188.7963450715
 20
129.8733046029
 10
189.5056803912
 20
129.926295926
 10
190.1703960463
 20
130.1649315033
 10
190.7366401717
 20
130.5698789406
 10
191.1585386112
 20
131.1083324004
 10
191.4019099638
 20
131.7366678018
 10
191.4470418557
 20
132.4039827783
 10
191.2902741894
 20
133.0562140543
 10
190.944308342
 20
133.640523975
 10
190.4371752605
 20
134.1095715512
 10
189.8099546522
 20
134.4253625471
  0
LWPOLYLINE
  5
155
330
1F
100
AcDbEntity
  8
0
  6
HIDDEN
 62
     7
370
     0
100
AcDbPolyline
 90
       22
 70
   128
 43
0.0
 10
189.7415508717
 20
134.0742371727
 10
189.0695504114
 20
134.2018916953
 10
188.3873622134
 20
134.1377459217
 10
187.7556032702
 20
133.8874976832
 10
187.2304081186
 20
133.4733832378
 10
186.8584406763
 20
132.9321982089
 10
186.6727545127
 20
132.3120295752
 10
186.6898470759
 20
131.6679818306
 10
186.9081993788
 20
131.0572810221
 10
187.3084110409
 20
130.5341915909
 10
187.8549204409
 20
130.1451921213
 10
188.4991684198
 20
129.9248458568
 10
189.1839103043
 20
129.8927329231
 10
189.8483046531
 20
130.0517059613
 10
190.4333158597
 20
130.3876396019
 10
190.8869649484
 20
130.8706849564
 10
191.1689396217
 20
131.4579201613
 10
191.2541891649
 20
132.0971688006
 10
191.1351382002
 20
132.7316295106
 10
190.8223628267
 20
133.3049274731
 10
190.3436546415
 20
133.766124
 10
189.7415508717
 20
134.0742371727
  0
LWPOLYLINE
  5
156
330
1F
100
AcDbEntity
  8
0
  6
HIDDEN
 62
     7
370
     0
100
AcDbPolyline
 90
       23
 70
   128
 43
0.0
 10
189.8099546522
 20
134.6613559622
 10
189.1134641334
 20
134.7983013589
 10
188.4041278824
 20
134.745310967
 10
187.7394122272
 20
134.5066744585
 10
187.1731690332
 20
134.1017260898
 10
186.751271525
 20
133.5632744927
 10
186.5078983098
 20
132.93493816
 10
186.4627673492
 20
132.2676231835
 10
186.6195350155
 20
131.6153919075
 10
186.9654999315
 20
131.0310829181
 10
187.4726348757
 20
130.5620334793
 10
188.0998545527
 20
130.246244346
 10
188.7963450715
 20
130.109298018
 10
189.5056803912
 20
130.1622893412
 10
190.1703960463
 20
130.4009258497
 10
190.7366401717
 20
130.8058732871
 10
191.1585386112
 20
131.3443258155
 10
191.4019099638
 20
131.9726621482
 10
191.4470418557
 20
132.6399761934
 10
191.2902741894
 20
133.2922074694
 10
190.944308342
 20
133.8765173901
 10
190.4371752605
 20
134.3455668289
 10
189.8099546522
 20
134.6613559622
  0
LWPOLYLINE
  5
157
330
1F
100
AcDbEntity
  8
0
  6
HIDDEN
 62
     7
370
     0
100
AcDbPolyline
 90
       22
 70
   128
 43
0.0
 10
189.7415508717
 20
134.3102305878
 10
189.0695504114
 20
134.4378869731
 10
188.3873622134
 20
134.3737393368
 10
187.7556032702
 20
134.1234910984
 10
187.2304081186
 20
133.7093766529
 10
186.8584406763
 20
133.1681925554
 10
186.6727545127
 20
132.5480229903
 10
186.6898470759
 20
131.9039752457
 10
186.9081993788
 20
131.2932753686
 10
187.3084110409
 20
130.7701859374
 10
187.8549204409
 20
130.3811855365
 10
188.4991684198
 20
130.1608402032
 10
189.1839103043
 20
130.1287272695
 10
189.8483046531
 20
130.2877003077
 10
190.4333158597
 20
130.6236339483
 10
190.8869649484
 20
131.1066783715
 10
191.1689396217
 20
131.6939145077
 10
191.2541891649
 20
132.3331622157
 10
191.1351382002
 20
132.9676229257
 10
190.8223628267
 20
133.5409208883
 10
190.3436546415
 20
134.0021174151
 10
189.7415508717
 20
134.3102305878
  0
LWPOLYLINE
  5
158
330
1F
100
AcDbEntity
  8
0
  6
HIDDEN
 62
     7
370
     0
100
AcDbPolyline
 90
       23
 70
   128
 43
0.0
 10
189.8099546522
 20
134.8494663585
 10
189.1134641334
 20
134.9864136178
 10
188.4041278824
 20
134.9334213633
 10
187.7394122272
 20
134.6947848547
 10
187.1731690332
 20
134.2898383487
 10
186.751271525
 20
133.751384889
 10
186.5078983098
 20
133.1230494875
 10
186.4627673492
 20
132.4557345111
 10
186.6195350155
 20
131.8035023037
 10
186.9654999315
 20
131.2191933144
 10
187.4726348757
 20
130.7501448069
 10
188.0998545527
 20
130.4343556736
 10
188.7963450715
 20
130.2974093456
 10
189.5056803912
 20
130.3504006687
 10
190.1703960463
 20
130.589036246
 10
190.7366401717
 20
130.9939836834
 10
191.1585386112
 20
131.5324371431
 10
191.4019099638
 20
132.1607725445
 10
191.4470418557
 20
132.828087521
 10
191.2902741894
 20
133.4803197283
 10
190.944308342
 20
134.0646277863
 10
190.4371752605
 20
134.5336772252
 10
189.8099546522
 20
134.8494663585
  0
LWPOLYLINE
  5
159
330
1F
100
AcDbEntity
  8
0
  6
HIDDEN
 62
     7
370
     0
100
AcDbPolyline
 90
       22
 70
   128
 43
0.0
 10
189.7620716333
 20
134.7737256188
 10
189.0725408882
 20
134.9047124136
 10
188.3725569784
 20
134.838892122
 10
187.724317351
 20
134.5821153123
 10
187.1854205817
 20
134.157197525
 10
186.8037506208
 20
133.6018945772
 10
186.6132197171
 20
132.965547939
 10
186.6307583838
 20
132.3046991352
 10
186.8548066556
 20
131.6780671228
 10
187.2654584437
 20
131.1413319532
 10
187.826225461
 20
130.7421838615
 10
188.4872791558
 20
130.5160904054
 10
189.1898847386
 20
130.4831392813
 10
189.8716110006
 20
130.646259499
 10
190.4718837902
 20
130.990956885
 10
190.9373662635
 20
131.4866030339
 10
191.2266983852
 20
132.0891575638
 10
191.314170064
 20
132.7450824652
 10
191.1920122072
 20
133.3960927773
 10
190.871078448
 20
133.9843477804
 10
190.3798830896
 20
134.4575751323
 10
189.7620716333
 20
134.7737256188
  0
LWPOLYLINE
  5
15A
330
1F
100
AcDbEntity
  8
0
  6
HIDDEN
 62
     7
370
     0
100
AcDbPolyline
 90
       25
 70
   128
 43
0.0
 10
182.5637178696
 20
132.8849633906
 10
183.0022706851
 20
133.2584600646
 10
183.4510433688
 20
133.4455664951
 10
183.8794536158
 20
133.4335282195
 10
184.2583053946
 20
133.2231666643
 10
184.5617805808
 20
132.8288186092
 10
184.7691982254
 20
132.277357367
 10
184.8664236456
 20
131.6063645977
 10
184.8468295499
 20
130.8615673084
 10
184.7117523864
 20
130.0937225792
 10
184.4703973472
 20
129.3551567692
 10
184.1392115891
 20
128.6962022755
 10
183.7407657146
 20
128.16176561
 10
183.3022133648
 20
127.788268936
 10
182.8534406811
 20
127.6011634368
 10
182.4250304341
 20
127.6132017124
 10
182.0461786553
 20
127.8235632677
 10
181.7427030034
 20
128.2179113228
 10
181.5352853588
 20
128.7693725649
 10
181.4380604043
 20
129.4403644029
 10
181.4576545
 20
130.1851616923
 10
181.5927316636
 20
130.9530073527
 10
181.8340867027
 20
131.6915731627
 10
182.1652719952
 20
132.3505276564
 10
182.5637178696
 20
132.8849633906
  0
LWPOLYLINE
  5
15B
330
1F
100
AcDbEntity
  8
0
  6
HIDDEN
 62
     7
370
     0
100
AcDbPolyline
 90
       20
 70
   128
 43
0.0
 10
183.5790443435
 20
131.9015891973
 10
183.9503198132
 20
132.1959644306
 10
184.3238788858
 20
132.2878291581
 10
184.6592406943
 20
132.1672275413
 10
184.9200631693
 20
131.8472297613
 10
185.0780834645
 20
131.3625117514
 10
185.1161764204
 20
130.7656010363
 10
185.0302144155
 20
130.121181694
 10
184.829512538
 20
129.4990861539
 10
184.5358208954
 20
128.9667291317
 10
184.1809637114
 20
128.5817986105
 10
183.8033971578
 20
128.3860085282
 10
183.4440360978
 20
128.4005753446
 10
183.1418219223
 20
128.6239213992
 10
182.9295045897
 20
129.0318425495
 10
182.8300924241
 20
129.5801354323
 10
182.8543580338
 20
130.2093825985
 10
182.9996713638
 20
130.8513963345
 10
183.2502865433
 20
131.4366040502
 10
183.5790443435
 20
131.9015891973
  0
LWPOLYLINE
  5
15C
330
1F
100
AcDbEntity
  8
0
  6
HIDDEN
 62
     7
370
     0
100
AcDbPolyline
 90
       25
 70
   128
 43
0.0
 10
179.5493535898
 20
133.6068585265
 10
179.9879064053
 20
133.9803561319
 10
180.436679089
 20
134.1674606997
 10
180.865089336
 20
134.1554224241
 10
181.2439411148
 20
133.9450608689
 10
181.5474167667
 20
133.5507128138
 10
181.7548344113
 20
132.999252503
 10
181.8520593658
 20
132.3282597337
 10
181.8324652701
 20
131.5834624443
 10
181.6973881066
 20
130.8156177152
 10
181.4560330674
 20
130.0770519052
 10
181.1248473093
 20
129.4180974115
 10
180.7264019005
 20
128.883660746
 10
180.287849085
 20
128.510164072
 10
179.8390764013
 20
128.3230595041
 10
179.4106661543
 20
128.3350977797
 10
179.0318143755
 20
128.5454584036
 10
178.7283387236
 20
128.9398064587
 10
178.520921079
 20
129.4912677009
 10
178.4236963574
 20
130.1622604702
 10
178.4432902202
 20
130.9070577595
 10
178.5783673837
 20
131.6749024887
 10
178.8197224229
 20
132.4134682987
 10
179.150908181
 20
133.0724227924
 10
179.5493535898
 20
133.6068585265
  0
LINE
  5
15D
330
1F
100
AcDbEntity
  8
0
  6
HIDDEN
 62
     7
370
     0
100
AcDbLine
 10
180.5355673857
 20
130.7204523805
 30
0.0
 11
181.174153389
 21
132.2791836906
 31
0.0
  0
LINE
  5
15E
330
1F
100
AcDbEntity
  8
0
  6
HIDDEN
 62
     7
370
     0
100
AcDbLine
 10
178.8972634092
 20
131.1128018174
 30
0.0
 11
179.5358494125
 21
132.6715331275
 31
0.0
  0
LWPOLYLINE
  5
15F
330
1F
100
AcDbEntity
  8
0
  6
HIDDEN
 62
     7
370
     0
100
AcDbPolyline
 90
       22
 70
   128
 43
0.0
 10
179.3958883933
 20
133.2331597555
 10
179.805715961
 20
133.569072907
 10
180.2217559159
 20
133.7040867407
 10
180.607041271
 20
133.6262020964
 10
180.9273380056
 20
133.3423405636
 10
181.154185833
 20
132.8777242202
 10
181.2674290701
 20
132.2736376647
 10
181.2570052422
 20
131.5837548796
 10
181.1238400839
 20
130.8693764482
 10
180.8797669798
 20
130.1939766604
 10
180.546471776
 20
129.6175690118
 10
180.1535695992
 20
129.1913687933
 10
179.7359720073
 20
128.9532463748
 10
179.3307838231
 20
128.9243595425
 10
178.9740076489
 20
129.1072750214
 10
178.6973452396
 20
129.4857412327
 10
178.5253788545
 20
130.0261281181
 10
178.4733887031
 20
130.680420411
 10
178.5459939126
 20
131.3904821623
 10
178.7367434442
 20
132.0932199929
 10
179.0286888569
 20
132.7261933807
 10
179.3958883933
 20
133.2331597555
  0
LINE
  5
160
330
1F
100
AcDbEntity
  8
0
  6
HIDDEN
 62
     7
370
     0
100
AcDbLine
 10
178.8972634092
 20
131.1128018174
 30
0.0
 11
179.237047603
 21
129.7493325297
 31
0.0
  0
LINE
  5
161
330
1F
100
AcDbEntity
  8
0
  6
HIDDEN
 62
     7
370
     0
100
AcDbLine
 10
180.5355673857
 20
130.7204523805
 30
0.0
 11
180.8753520451
 21
129.3569830928
 31
0.0
  0
LINE
  5
162
330
1F
100
AcDbEntity
  8
0
  6
HIDDEN
 62
     7
370
     0
100
AcDbLine
 10
180.5355673857
 20
130.7204523805
 30
0.0
 11
178.8972634092
 21
131.1128018174
 31
0.0
  0
LINE
  5
163
330
1F
100
AcDbEntity
  8
0
  6
HIDDEN
 62
     7
370
     0
100
AcDbLine
 10
180.5142200753
 20
132.8667951498
 30
0.0
 11
179.5358494125
 21
132.6715331275
 31
0.0
  0
LINE
  5
164
330
1F
100
AcDbEntity
  8
0
  6
HIDDEN
 62
     7
370
     0
100
AcDbLine
 10
182.1525240518
 20
132.4744457129
 30
0.0
 11
181.174153389
 21
132.2791836906
 31
0.0
  0
LINE
  5
165
330
1F
100
AcDbEntity
  8
0
  6
HIDDEN
 62
     7
370
     0
100
AcDbLine
 10
181.174153389
 20
132.2791836906
 30
0.0
 11
179.5358494125
 21
132.6715331275
 31
0.0
  0
LINE
  5
166
330
1F
100
AcDbEntity
  8
0
  6
HIDDEN
 62
     7
370
     0
100
AcDbLine
 10
181.8537222422
 20
129.5522441838
 30
0.0
 11
180.2154182657
 21
129.9445936207
 31
0.0
  0
LINE
  5
167
330
1F
100
AcDbEntity
  8
0
  6
HIDDEN
 62
     7
370
     0
100
AcDbLine
 10
180.8753520451
 20
129.3569830928
 30
0.0
 11
179.237047603
 21
129.7493325297
 31
0.0
  0
LINE
  5
168
330
1F
100
AcDbEntity
  8
0
  6
HIDDEN
 62
     7
370
     0
100
AcDbLine
 10
179.237047603
 20
129.7493325297
 30
0.0
 11
180.2154182657
 21
129.9445936207
 31
0.0
  0
LINE
  5
169
330
1F
100
AcDbEntity
  8
0
  6
HIDDEN
 62
     7
370
     0
100
AcDbLine
 10
180.8753520451
 20
129.3569830928
 30
0.0
 11
181.8537222422
 21
129.5522441838
 31
0.0
  0
LINE
  5
16A
330
1F
100
AcDbEntity
  8
0
  6
HIDDEN
 62
     7
370
     0
100
AcDbLine
 10
182.4923087112
 20
131.1109754939
 30
0.0
 11
180.8540042691
 21
131.5033249307
 31
0.0
  0
LINE
  5
16B
330
1F
100
AcDbEntity
  8
0
  6
HIDDEN
 62
     7
370
     0
100
AcDbLine
 10
182.1525240518
 20
132.4744457129
 30
0.0
 11
180.5142200753
 21
132.8667951498
 31
0.0
  0
LINE
  5
16C
330
1F
100
AcDbEntity
  8
0
  6
HIDDEN
 62
     7
370
     0
100
AcDbLine
 10
180.5142200753
 20
132.8667951498
 30
0.0
 11
180.8540042691
 21
131.5033249307
 31
0.0
  0
LINE
  5
16D
330
1F
100
AcDbEntity
  8
0
  6
HIDDEN
 62
     7
370
     0
100
AcDbLine
 10
182.1525240518
 20
132.4744457129
 30
0.0
 11
182.4923087112
 21
131.1109754939
 31
0.0
  0
LINE
  5
16E
330
1F
100
AcDbEntity
  8
0
  6
HIDDEN
 62
     7
370
     0
100
AcDbLine
 10
180.8540042691
 20
131.5033249307
 30
0.0
 11
180.2154182657
 21
129.9445936207
 31
0.0
  0
LINE
  5
16F
330
1F
100
AcDbEntity
  8
0
  6
HIDDEN
 62
     7
370
     0
100
AcDbLine
 10
182.4923087112
 20
131.1109754939
 30
0.0
 11
181.8537222422
 21
129.5522441838
 31
0.0
  0
LWPOLYLINE
  5
170
330
1F
100
AcDbEntity
  8
0
  6
HIDDEN
 62
     7
370
     0
100
AcDbPolyline
 90
       22
 70
   128
 43
0.0
 10
180.3553788192
 20
101.1045779783
 10
180.7225788213
 20
101.2528240431
 10
181.0145237684
 20
101.600592931
 10
181.2052735328
 20
102.1169861529
 10
181.2778789751
 20
102.7561183769
 10
181.2258888237
 20
103.4612003464
 10
181.0539224386
 20
104.1695838544
 10
180.7772600293
 20
104.8183236021
 10
180.4204838551
 20
105.3497781727
 10
180.0152956709
 20
105.7167239238
 10
179.597698079
 20
105.8865571145
 10
179.2047959022
 20
105.8441875253
 10
178.8715006984
 20
105.5933786306
 10
178.6274273615
 20
105.1564169798
 10
178.494262436
 20
104.5721284795
 10
178.4838386081
 20
103.8924297068
 10
178.5970816124
 20
103.1777141366
 10
178.8239296727
 20
102.491487724
 10
179.1442264072
 20
101.8947250891
 10
179.5295117624
 20
101.4404520143
 10
179.9455517173
 20
101.1690292258
 10
180.3553788192
 20
101.1045779783
  0
LWPOLYLINE
  5
171
330
1F
100
AcDbEntity
  8
0
  6
HIDDEN
 62
     7
370
     0
100
AcDbPolyline
 90
       25
 70
   128
 43
0.0
 10
180.7264019005
 20
100.6246134389
 10
181.1248473093
 20
100.769802903
 10
181.4560330674
 20
101.1052187283
 10
181.6973881066
 20
101.6080025334
 10
181.8324652701
 20
102.2438890982
 10
181.8520593658
 20
102.9695449147
 10
181.7548344113
 20
103.7355176855
 10
181.5474167667
 20
104.4896067802
 10
181.2439411148
 20
105.1804236818
 10
180.865089336
 20
105.7608891029
 10
180.436679089
 20
106.1914460484
 10
179.9879064053
 20
106.4427522693
 10
179.5493535898
 20
106.4976816747
 10
179.150908181
 20
106.3524912793
 10
178.8197224229
 20
106.0170754541
 10
178.5783673837
 20
105.5142925803
 10
178.4432902202
 20
104.8784050841
 10
178.4236963574
 20
104.1527492676
 10
178.520921079
 20
103.3867764968
 10
178.7283387236
 20
102.6326874021
 10
179.0318143755
 20
101.9418705005
 10
179.4106661543
 20
101.3614050794
 10
179.8390764013
 20
100.9308490653
 10
180.287849085
 20
100.6795428444
 10
180.7264019005
 20
100.6246134389
  0
LWPOLYLINE
  5
172
330
1F
100
AcDbEntity
  8
0
  6
HIDDEN
 62
     7
370
     0
100
AcDbPolyline
 90
       25
 70
   128
 43
0.0
 10
183.7407657146
 20
101.3465076435
 10
184.1392115891
 20
101.4916989703
 10
184.4703973472
 20
101.8271138642
 10
184.7117523864
 20
102.3298976693
 10
184.8468295499
 20
102.9657842342
 10
184.8664236456
 20
103.6914400507
 10
184.7691982254
 20
104.4574128214
 10
184.5617805808
 20
105.2115019161
 10
184.2583053946
 20
105.9023188177
 10
183.8794536158
 20
106.4827842388
 10
183.4510433688
 20
106.9133411843
 10
183.0022706851
 20
107.1646474052
 10
182.5637178696
 20
107.2195768107
 10
182.1652719952
 20
107.0743864153
 10
181.8340867027
 20
106.73897059
 10
181.5927316636
 20
106.2361877162
 10
181.4576545
 20
105.60030022
 10
181.4380604043
 20
104.8746444035
 10
181.5352853588
 20
104.1086725641
 10
181.7427030034
 20
103.3545825381
 10
182.0461786553
 20
102.6637665678
 10
182.4250304341
 20
102.0833002154
 10
182.8534406811
 20
101.6527432699
 10
183.3022133648
 20
101.401437049
 10
183.7407657146
 20
101.3465076435
  0
LINE
  5
173
330
1F
100
AcDbEntity
  8
0
  6
HIDDEN
 62
     7
370
     0
100
AcDbLine
 10
180.5142200753
 20
104.4332328934
 30
0.0
 11
179.5358494125
 21
105.1937527705
 31
0.0
  0
LINE
  5
174
330
1F
100
AcDbEntity
  8
0
  6
HIDDEN
 62
     7
370
     0
100
AcDbLine
 10
178.8972634092
 20
104.2588632304
 30
0.0
 11
179.5358494125
 21
105.1937527705
 31
0.0
  0
LINE
  5
175
330
1F
100
AcDbEntity
  8
0
  6
HIDDEN
 62
     7
370
     0
100
AcDbLine
 10
179.237047603
 20
102.5634538133
 30
0.0
 11
178.8972634092
 21
104.2588632304
 31
0.0
  0
LINE
  5
176
330
1F
100
AcDbEntity
  8
0
  6
HIDDEN
 62
     7
370
     0
100
AcDbLine
 10
179.237047603
 20
102.5634538133
 30
0.0
 11
180.2154182657
 21
101.8029348675
 31
0.0
  0
LINE
  5
177
330
1F
100
AcDbEntity
  8
0
  6
HIDDEN
 62
     7
370
     0
100
AcDbLine
 10
180.8540042691
 20
102.7378244076
 30
0.0
 11
180.2154182657
 21
101.8029348675
 31
0.0
  0
LINE
  5
178
330
1F
100
AcDbEntity
  8
0
  6
HIDDEN
 62
     7
370
     0
100
AcDbLine
 10
180.8540042691
 20
102.7378244076
 30
0.0
 11
180.5142200753
 21
104.4332328934
 31
0.0
  0
LINE
  5
179
330
1F
100
AcDbEntity
  8
0
  6
HIDDEN
 62
     7
370
     0
100
AcDbLine
 10
182.1525240518
 20
104.8255823303
 30
0.0
 11
180.5142200753
 21
104.4332328934
 31
0.0
  0
LINE
  5
17A
330
1F
100
AcDbEntity
  8
0
  6
HIDDEN
 62
     7
370
     0
100
AcDbLine
 10
182.4923087112
 20
103.1301738445
 30
0.0
 11
180.8540042691
 21
102.7378244076
 31
0.0
  0
LWPOLYLINE
  5
17B
330
1F
100
AcDbEntity
  8
0
  6
HIDDEN
 62
     7
370
     0
100
AcDbPolyline
 90
       20
 70
   128
 43
0.0
 10
184.3637432173
 20
102.5215275336
 10
184.6925019487
 20
102.6653460909
 10
184.943116197
 20
103.0057249341
 10
185.0884304583
 20
103.5057799641
 10
185.1126951366
 20
104.1113221768
 10
185.0132829711
 20
104.756731515
 10
184.8009665698
 20
105.3720675159
 10
184.4987523943
 20
105.8906493459
 10
184.139390403
 20
106.2562810007
 10
183.7618238494
 20
106.4293402929
 10
183.4069675967
 20
106.3910731796
 10
183.1132759541
 20
106.145625909
 10
182.9125740766
 20
105.7195989165
 10
182.8266120717
 20
105.1591559995
 10
182.8647050276
 20
104.5250324283
 10
183.0227243915
 20
103.8859430451
 10
183.2835477978
 20
103.3111447219
 10
183.6189096063
 20
102.8629243124
 10
183.9924686789
 20
102.5898549456
 10
184.3637432173
 20
102.5215275336
  0
LINE
  5
17C
330
1F
100
AcDbEntity
  8
0
  6
HIDDEN
 62
     7
370
     0
100
AcDbLine
 10
180.8753520451
 20
102.9558032501
 30
0.0
 11
181.8537222422
 21
102.1952843044
 31
0.0
  0
LINE
  5
17D
330
1F
100
AcDbEntity
  8
0
  6
HIDDEN
 62
     7
370
     0
100
AcDbLine
 10
180.8753520451
 20
102.9558032501
 30
0.0
 11
180.5355673857
 21
104.6512126673
 31
0.0
  0
LINE
  5
17E
330
1F
100
AcDbEntity
  8
0
  6
HIDDEN
 62
     7
370
     0
100
AcDbLine
 10
180.5355673857
 20
104.6512126673
 30
0.0
 11
181.174153389
 21
105.5861022074
 31
0.0
  0
LINE
  5
17F
330
1F
100
AcDbEntity
  8
0
  6
HIDDEN
 62
     7
370
     0
100
AcDbLine
 10
182.4923087112
 20
103.1301738445
 30
0.0
 11
181.8537222422
 21
102.1952843044
 31
0.0
  0
LINE
  5
180
330
1F
100
AcDbEntity
  8
0
  6
HIDDEN
 62
     7
370
     0
100
AcDbLine
 10
182.4923087112
 20
103.1301738445
 30
0.0
 11
182.1525240518
 21
104.8255823303
 31
0.0
  0
LINE
  5
181
330
1F
100
AcDbEntity
  8
0
  6
HIDDEN
 62
     7
370
     0
100
AcDbLine
 10
182.1525240518
 20
104.8255823303
 30
0.0
 11
181.174153389
 21
105.5861022074
 31
0.0
  0
LINE
  5
182
330
1F
100
AcDbEntity
  8
0
  6
HIDDEN
 62
     7
370
     0
100
AcDbLine
 10
180.5355673857
 20
104.6512126673
 30
0.0
 11
178.8972634092
 21
104.2588632304
 31
0.0
  0
LINE
  5
183
330
1F
100
AcDbEntity
  8
0
  6
HIDDEN
 62
     7
370
     0
100
AcDbLine
 10
181.174153389
 20
105.5861022074
 30
0.0
 11
179.5358494125
 21
105.1937527705
 31
0.0
  0
LINE
  5
184
330
1F
100
AcDbEntity
  8
0
  6
HIDDEN
 62
     7
370
     0
100
AcDbLine
 10
180.8753520451
 20
102.9558032501
 30
0.0
 11
179.237047603
 21
102.5634538133
 31
0.0
  0
LINE
  5
185
330
1F
100
AcDbEntity
  8
0
  6
HIDDEN
 62
     7
370
     0
100
AcDbLine
 10
181.8537222422
 20
102.1952843044
 30
0.0
 11
180.2154182657
 21
101.8029348675
 31
0.0
  0
LINE
  5
186
330
1F
100
AcDbEntity
  8
0
  6
HIDDEN
 62
     7
370
     0
100
AcDbLine
 10
191.4549040809
 20
100.7388904441
 30
0.0
 11
191.4549040809
 21
103.8951184351
 31
0.0
  0
LINE
  5
187
330
1F
100
AcDbEntity
  8
0
  6
HIDDEN
 62
     7
370
     0
100
AcDbLine
 10
186.4549041927
 20
103.8951184351
 30
0.0
 11
186.4549041927
 21
101.8414590258
 31
0.0
  0
LINE
  5
188
330
1F
100
AcDbEntity
  8
0
  6
HIDDEN
 62
     7
370
     0
100
AcDbLine
 10
177.9549044292
 20
99.953526606
 30
0.0
 11
180.5743322909
 21
100.5808412779
 31
0.0
  0
LINE
  5
189
330
1F
100
AcDbEntity
  8
0
  6
HIDDEN
 62
     7
370
     0
100
AcDbLine
 10
179.1769353874
 20
106.4158463601
 30
0.0
 11
177.9549044292
 21
106.1231875542
 31
0.0
  0
LINE
  5
18A
330
1F
100
AcDbEntity
  8
0
  6
HIDDEN
 62
     7
370
     0
100
AcDbLine
 10
180.6330549732
 20
101.5203539032
 30
0.0
 11
188.1022042796
 21
103.3091032628
 31
0.0
  0
LINE
  5
18B
330
1F
100
AcDbEntity
  8
0
  6
HIDDEN
 62
     7
370
     0
100
AcDbLine
 10
188.1022042796
 20
107.6278658334
 30
0.0
 11
179.6548770942
 21
105.6048571814
 31
0.0
  0
LINE
  5
18C
330
1F
100
AcDbEntity
  8
0
  6
HIDDEN
 62
     7
370
     0
100
AcDbLine
 10
191.0549047604
 20
103.9449125279
 30
0.0
 11
191.0549047604
 21
115.954202342
 31
0.0
  0
LINE
  5
18D
330
1F
100
AcDbEntity
  8
0
  6
HIDDEN
 62
     7
370
     0
100
AcDbLine
 10
186.8549044445
 20
104.2929626752
 30
0.0
 11
186.8549044445
 21
103.9449125279
 31
0.0
  0
LINE
  5
18E
330
1F
100
AcDbEntity
  8
0
  6
HIDDEN
 62
     7
370
     0
100
AcDbLine
 10
186.8549044445
 20
115.9524853324
 30
0.0
 11
186.8549044445
 21
106.0465872038
 31
0.0
  0
ARC
  5
18F
330
1F
100
AcDbEntity
  8
0
  6
HIDDEN
 62
     7
370
     0
100
AcDbCircle
 10
74.3549045101
 20
103.7032035965
 30
0.0
 40
1.200000000000017
100
AcDbArc
 50
90.0
 51
180.0
  0
ARC
  5
190
330
1F
100
AcDbEntity
  8
0
  6
HIDDEN
 62
     7
370
     0
100
AcDbCircle
 10
74.3549045101
 20
131.1032035965
 30
0.0
 40
1.200000000000017
100
AcDbArc
 50
180.0
 51
270.0
  0
LINE
  5
191
330
1F
100
AcDbEntity
  8
0
  6
HIDDEN
 62
     7
370
     0
100
AcDbLine
 10
218.8549059644
 20
130.9032039467
 30
0.0
 11
218.4049057975
 21
129.9381758768
 31
0.0
  0
LINE
  5
192
330
1F
100
AcDbEntity
  8
0
  6
HIDDEN
 62
     7
370
     0
100
AcDbLine
 10
218.4049057975
 20
104.8682313163
 30
0.0
 11
218.8549059644
 21
103.9032032464
 31
0.0
  0
ARC
  5
193
330
1F
100
AcDbEntity
  8
0
  6
HIDDEN
 62
     7
370
     0
100
AcDbCircle
 10
84.0472769408
 20
105.0782035965
 30
0.0
 40
0.4000000000000096
100
AcDbArc
 50
255.0
 51
270.0
  0
ARC
  5
194
330
1F
100
AcDbEntity
  8
0
  6
HIDDEN
 62
     7
370
     0
100
AcDbCircle
 10
84.0472769408
 20
129.7282035965
 30
0.0
 40
0.3999999999999822
100
AcDbArc
 50
90.0
 51
105.0
  0
LINE
  5
195
330
1F
100
AcDbEntity
  8
0
  6
HIDDEN
 62
     7
370
     0
100
AcDbLine
 10
84.047274591
 20
104.6782033268
 30
0.0
 11
84.9239620581
 21
104.6782033268
 31
0.0
  0
LINE
  5
196
330
1F
100
AcDbEntity
  8
0
  6
HIDDEN
 62
     7
370
     0
100
AcDbLine
 10
84.9239620581
 20
130.1282038663
 30
0.0
 11
84.047274591
 21
130.1282038663
 31
0.0
  0
ARC
  5
197
330
1F
100
AcDbEntity
  8
0
  6
HIDDEN
 62
     7
370
     0
100
AcDbCircle
 10
84.9239644024
 20
105.0782035965
 30
0.0
 40
0.4000000000000121
100
AcDbArc
 50
270.0
 51
330.0
  0
ARC
  5
198
330
1F
100
AcDbEntity
  8
0
  6
HIDDEN
 62
     7
370
     0
100
AcDbCircle
 10
84.9239644024
 20
129.7282035965
 30
0.0
 40
0.4000000000000192
100
AcDbArc
 50
30.0
 51
90.0
  0
LINE
  5
199
330
1F
100
AcDbEntity
  8
0
  6
HIDDEN
 62
     7
370
     0
100
AcDbLine
 10
83.9437487736
 20
130.1145739604
 30
0.0
 11
83.1549036517
 21
129.9032037828
 31
0.0
  0
LINE
  5
19A
330
1F
100
AcDbEntity
  8
0
  6
HIDDEN
 62
     7
370
     0
100
AcDbLine
 10
83.1549036517
 20
104.9032034103
 30
0.0
 11
83.9437487736
 21
104.6918332327
 31
0.0
  0
LINE
  5
19B
330
1F
100
AcDbEntity
  8
0
  6
HIDDEN
 62
     7
370
     0
100
AcDbLine
 10
85.270376803
 20
104.8782039184
 30
0.0
 11
86.4395070091
 21
106.9032037381
 31
0.0
  0
LINE
  5
19C
330
1F
100
AcDbEntity
  8
0
  6
HIDDEN
 62
     7
370
     0
100
AcDbLine
 10
86.4395070091
 20
127.903203455
 30
0.0
 11
85.270376803
 21
129.9282032747
 31
0.0
  0
LINE
  5
19D
330
1F
100
AcDbEntity
  8
0
  6
HIDDEN
 62
     7
370
     0
100
AcDbLine
 10
74.3549036994
 20
104.9032034103
 30
0.0
 11
83.1549036517
 21
104.9032034103
 31
0.0
  0
LINE
  5
19E
330
1F
100
AcDbEntity
  8
0
  6
HIDDEN
 62
     7
370
     0
100
AcDbLine
 10
83.1549036517
 20
129.9032037828
 30
0.0
 11
74.3549036994
 21
129.9032037828
 31
0.0
  0
LINE
  5
19F
330
1F
100
AcDbEntity
  8
0
  6
HIDDEN
 62
     7
370
     0
100
AcDbLine
 10
135.1549047246
 20
106.9032037381
 30
0.0
 11
138.9102841928
 21
113.1532033656
 31
0.0
  0
LINE
  5
1A0
330
1F
100
AcDbEntity
  8
0
  6
HIDDEN
 62
     7
370
     0
100
AcDbLine
 10
138.9102841928
 20
121.6532038275
 30
0.0
 11
135.1549047246
 21
127.903203455
 31
0.0
  0
LINE
  5
1A1
330
1F
100
AcDbEntity
  8
0
  6
HIDDEN
 62
     7
370
     0
100
AcDbLine
 10
86.4395070091
 20
106.9032037381
 30
0.0
 11
135.1549047246
 21
106.9032037381
 31
0.0
  0
LINE
  5
1A2
330
1F
100
AcDbEntity
  8
0
  6
HIDDEN
 62
     7
370
     0
100
AcDbLine
 10
135.1549047246
 20
127.903203455
 30
0.0
 11
86.4395070091
 21
127.903203455
 31
0.0
  0
LINE
  5
1A3
330
1F
100
AcDbEntity
  8
0
  6
HIDDEN
 62
     7
370
     0
100
AcDbLine
 10
218.4020820275
 20
128.2032038767
 30
0.0
 11
215.5049051359
 21
128.2032038767
 31
0.0
  0
LINE
  5
1A4
330
1F
100
AcDbEntity
  8
0
  6
HIDDEN
 62
     7
370
     0
100
AcDbLine
 10
215.5049051359
 20
106.6032033164
 30
0.0
 11
218.4049057975
 21
106.6032033164
 31
0.0
  0
LINE
  5
1A5
330
1F
100
AcDbEntity
  8
0
  6
HIDDEN
 62
     7
370
     0
100
AcDbLine
 10
215.5049051359
 20
126.8650842581
 30
0.0
 11
214.7049027696
 21
126.4032032091
 31
0.0
  0
LINE
  5
1A6
330
1F
100
AcDbEntity
  8
0
  6
HIDDEN
 62
     7
370
     0
100
AcDbLine
 10
214.7049027696
 20
108.403203984
 30
0.0
 11
215.5049051359
 21
107.941322935
 31
0.0
  0
ARC
  5
1A7
330
1F
100
AcDbEntity
  8
0
  6
HIDDEN
 62
     7
370
     0
100
AcDbCircle
 10
200.4549045101
 20
108.8032035965
 30
0.0
 40
0.5999999999999943
100
AcDbArc
 50
180.0
 51
270.0
  0
ARC
  5
1A8
330
1F
100
AcDbEntity
  8
0
  6
HIDDEN
 62
     7
370
     0
100
AcDbCircle
 10
200.4549045101
 20
126.0032035965
 30
0.0
 40
0.5999999999999943
100
AcDbArc
 50
90.0
 51
180.0
  0
LINE
  5
1A9
330
1F
100
AcDbEntity
  8
0
  6
HIDDEN
 62
     7
370
     0
100
AcDbLine
 10
200.4549036935
 20
108.2032033924
 30
0.0
 11
201.029503645
 21
108.2032033924
 31
0.0
  0
LINE
  5
1AA
330
1F
100
AcDbEntity
  8
0
  6
HIDDEN
 62
     7
370
     0
100
AcDbLine
 10
201.029503645
 20
126.6032038007
 30
0.0
 11
200.4549036935
 21
126.6032038007
 31
0.0
  0
ARC
  5
1AB
330
1F
100
AcDbEntity
  8
0
  6
HIDDEN
 62
     7
370
     0
100
AcDbCircle
 10
201.02950285
 20
108.8032035965
 30
0.0
 40
0.5999999999999998
100
AcDbArc
 50
270.0
 51
285.0
  0
ARC
  5
1AC
330
1F
100
AcDbEntity
  8
0
  6
HIDDEN
 62
     7
370
     0
100
AcDbCircle
 10
201.02950285
 20
126.0032035965
 30
0.0
 40
0.5999999999999943
100
AcDbArc
 50
75.0
 51
90.0
  0
LINE
  5
1AD
330
1F
100
AcDbEntity
  8
0
  6
HIDDEN
 62
     7
370
     0
100
AcDbLine
 10
201.1847942337
 20
108.2236477856
 30
0.0
 11
201.8549050405
 21
108.403203984
 31
0.0
  0
LINE
  5
1AE
330
1F
100
AcDbEntity
  8
0
  6
HIDDEN
 62
     7
370
     0
100
AcDbLine
 10
201.8549050405
 20
126.4032032091
 30
0.0
 11
201.1847942337
 21
126.5827594075
 31
0.0
  0
LINE
  5
1AF
330
1F
100
AcDbEntity
  8
0
  6
HIDDEN
 62
     7
370
     0
100
AcDbLine
 10
201.8549050405
 20
108.403203984
 30
0.0
 11
214.7049027696
 21
108.403203984
 31
0.0
  0
LINE
  5
1B0
330
1F
100
AcDbEntity
  8
0
  6
HIDDEN
 62
     7
370
     0
100
AcDbLine
 10
214.7049027696
 20
126.4032032091
 30
0.0
 11
201.8549050405
 21
126.4032032091
 31
0.0
  0
LINE
  5
1B1
330
1F
100
AcDbEntity
  8
0
  6
HIDDEN
 62
     7
370
     0
100
AcDbLine
 10
218.4049057975
 20
129.5782038692
 30
0.0
 11
215.5049051359
 21
129.5782038692
 31
0.0
  0
LINE
  5
1B2
330
1F
100
AcDbEntity
  8
0
  6
HIDDEN
 62
     7
370
     0
100
AcDbLine
 10
215.5049051359
 20
105.2282033238
 30
0.0
 11
218.4049057975
 21
105.2282033238
 31
0.0
  0
LINE
  5
1B3
330
1F
100
AcDbEntity
  8
0
  6
HIDDEN
 62
     7
370
     0
100
AcDbLine
 10
138.9102841928
 20
113.1532033656
 30
0.0
 11
199.8549047127
 21
113.1532033656
 31
0.0
  0
LINE
  5
1B4
330
1F
100
AcDbEntity
  8
0
  6
HIDDEN
 62
     7
370
     0
100
AcDbLine
 10
199.8549047127
 20
121.6532038275
 30
0.0
 11
138.9102841928
 21
121.6532038275
 31
0.0
  0
LINE
  5
1B5
330
1F
100
AcDbEntity
  8
0
  6
HIDDEN
 62
     7
370
     0
100
AcDbLine
 10
191.0549047604
 20
118.8539218606
 30
0.0
 11
191.0549047604
 21
130.8614946652
 31
0.0
  0
LINE
  5
1B6
330
1F
100
AcDbEntity
  8
0
  6
HIDDEN
 62
     7
370
     0
100
AcDbLine
 10
186.8549044445
 20
128.7598199893
 30
0.0
 11
186.8549044445
 21
118.8522048511
 31
0.0
  0
LINE
  5
1B7
330
1F
100
AcDbEntity
  8
0
  6
HIDDEN
 62
     7
370
     0
100
AcDbLine
 10
186.8549044445
 20
130.8614946652
 30
0.0
 11
186.8549044445
 21
130.5134445179
 31
0.0
  0
LINE
  5
1B8
330
1F
100
AcDbEntity
  8
0
  6
HIDDEN
 62
     7
370
     0
100
AcDbLine
 10
218.4025737658
 20
128.2032038767
 30
0.0
 11
218.4020820275
 21
128.2032038767
 31
0.0
  0
LINE
  5
1B9
330
1F
100
AcDbEntity
  8
0
  6
HIDDEN
 62
     7
370
     0
100
AcDbLine
 10
179.6548770942
 20
129.2015500117
 30
0.0
 11
188.1022042796
 21
127.1785413597
 31
0.0
  0
LINE
  5
1BA
330
1F
100
AcDbEntity
  8
0
  6
HIDDEN
 62
     7
370
     0
100
AcDbLine
 10
188.1022042796
 20
131.4973039303
 30
0.0
 11
180.6330549732
 21
133.2860532898
 31
0.0
  0
LINE
  5
1BB
330
1F
100
AcDbEntity
  8
0
  6
HIDDEN
 62
     7
370
     0
100
AcDbLine
 10
177.9549044292
 20
128.6832196388
 30
0.0
 11
179.1769353874
 21
128.390560833
 31
0.0
  0
LINE
  5
1BC
330
1F
100
AcDbEntity
  8
0
  6
HIDDEN
 62
     7
370
     0
100
AcDbLine
 10
180.5743322909
 20
134.2255659152
 30
0.0
 11
177.9549044292
 21
134.852880587
 31
0.0
  0
LINE
  5
1BD
330
1F
100
AcDbEntity
  8
0
  6
HIDDEN
 62
     7
370
     0
100
AcDbLine
 10
191.4549040809
 20
130.911288758
 30
0.0
 11
191.4549040809
 21
134.067516749
 31
0.0
  0
LINE
  5
1BE
330
1F
100
AcDbEntity
  8
0
  6
HIDDEN
 62
     7
370
     0
100
AcDbLine
 10
186.4549041927
 20
132.9649481673
 30
0.0
 11
186.4549041927
 21
130.911288758
 31
0.0
  0
LINE
  5
1BF
330
1F
100
AcDbEntity
  8
0
  6
HIDDEN
 62
     7
370
     0
100
AcDbLine
 10
186.4549041927
 20
102.352607039
 30
0.0
 11
186.4549041927
 21
102.1644957114
 31
0.0
  0
LINE
  5
1C0
330
1F
100
AcDbEntity
  8
0
  6
HIDDEN
 62
     7
370
     0
100
AcDbLine
 10
191.4549040809
 20
102.1644957114
 30
0.0
 11
191.4549040809
 21
102.352607039
 31
0.0
  0
LINE
  5
1C1
330
1F
100
AcDbEntity
  8
0
  6
HIDDEN
 62
     7
370
     0
100
AcDbLine
 10
186.9549042746
 20
103.5343892623
 30
0.0
 11
186.9549042746
 21
102.1166136239
 31
0.0
  0
LINE
  5
1C2
330
1F
100
AcDbEntity
  8
0
  6
HIDDEN
 62
     7
370
     0
100
AcDbLine
 10
190.9549049303
 20
102.1166136239
 30
0.0
 11
190.9549049303
 21
103.5343892623
 31
0.0
  0
LINE
  5
1C3
330
1F
100
AcDbEntity
  8
0
  6
HIDDEN
 62
     7
370
     0
100
AcDbLine
 10
186.4549041927
 20
103.8951184351
 30
0.0
 11
186.4549041927
 21
103.2965825621
 31
0.0
  0
LINE
  5
1C4
330
1F
100
AcDbEntity
  8
0
  6
HIDDEN
 62
     7
370
     0
100
AcDbLine
 10
191.4549040809
 20
103.2965825621
 30
0.0
 11
191.4549040809
 21
103.8951184351
 31
0.0
  0
LINE
  5
1C5
330
1F
100
AcDbEntity
  8
0
  6
HIDDEN
 62
     7
370
     0
100
AcDbLine
 10
191.4549040809
 20
130.911288758
 30
0.0
 11
191.4549040809
 21
131.509824631
 31
0.0
  0
LINE
  5
1C6
330
1F
100
AcDbEntity
  8
0
  6
HIDDEN
 62
     7
370
     0
100
AcDbLine
 10
186.4549041927
 20
131.509824631
 30
0.0
 11
186.4549041927
 21
130.911288758
 31
0.0
  0
LINE
  5
1C7
330
1F
100
AcDbEntity
  8
0
  6
HIDDEN
 62
     7
370
     0
100
AcDbLine
 10
190.9549049303
 20
131.2720179308
 30
0.0
 11
190.9549049303
 21
132.6897935692
 31
0.0
  0
LINE
  5
1C8
330
1F
100
AcDbEntity
  8
0
  6
HIDDEN
 62
     7
370
     0
100
AcDbLine
 10
186.9549042746
 20
132.6897935692
 30
0.0
 11
186.9549042746
 21
131.2720179308
 31
0.0
  0
LINE
  5
1C9
330
1F
100
AcDbEntity
  8
0
  6
HIDDEN
 62
     7
370
     0
100
AcDbLine
 10
191.4549040809
 20
132.4538001541
 30
0.0
 11
191.4549040809
 21
132.6419114817
 31
0.0
  0
LINE
  5
1CA
330
1F
100
AcDbEntity
  8
0
  6
HIDDEN
 62
     7
370
     0
100
AcDbLine
 10
186.4549041927
 20
132.6419114817
 30
0.0
 11
186.4549041927
 21
132.4538001541
 31
0.0
  0
ARC
  5
1CB
330
1F
100
AcDbEntity
  8
0
  6
HIDDEN
 62
     7
370
     0
100
AcDbCircle
 10
188.9549045101
 20
102.9374616346
 30
0.0
 40
2.000000000000017
100
AcDbArc
 50
71.1182787691
 51
192.2156859339
  0
ARC
  5
1CC
330
1F
100
AcDbEntity
  8
0
  6
HIDDEN
 62
     7
370
     0
100
AcDbCircle
 10
188.9549045101
 20
102.9374616346
 30
0.0
 40
2.000000000000021
100
AcDbArc
 50
340.3453161116
 51
71.1182787691
  0
CIRCLE
  5
1CD
330
1F
100
AcDbEntity
  8
0
  6
HIDDEN
 62
     7
370
     0
100
AcDbCircle
 10
188.9549045101
 20
131.8689455585
 30
0.0
 40
1.999999999999989
  0
LINE
  5
1CE
330
1F
100
AcDbEntity
  8
0
  6
HIDDEN
 62
     7
370
     0
100
AcDbLine
 10
183.6215284854
 20
128.0403788883
 30
0.0
 11
184.2842520415
 21
128.6718658853
 31
0.0
  0
LINE
  5
1CF
330
1F
100
AcDbEntity
  8
0
  6
HIDDEN
 62
     7
370
     0
100
AcDbLine
 10
185.0001569107
 20
131.6612167034
 30
0.0
 11
184.6953862548
 21
132.5244037185
 31
0.0
  0
LINE
  5
1D0
330
1F
100
AcDbEntity
  8
0
  6
HIDDEN
 62
     7
370
     0
100
AcDbLine
 10
179.4391795262
 20
128.3277580265
 30
0.0
 11
182.453543806
 21
127.6058619592
 31
0.0
  0
LINE
  5
1D1
330
1F
100
AcDbEntity
  8
0
  6
HIDDEN
 62
     7
370
     0
100
AcDbLine
 10
183.8509402439
 20
133.4408670414
 30
0.0
 11
180.8365759641
 21
134.1627631087
 31
0.0
  0
LINE
  5
1D2
330
1F
100
AcDbEntity
  8
0
  6
HIDDEN
 62
     7
370
     0
100
AcDbLine
 10
180.8365759641
 20
100.6436440844
 30
0.0
 11
183.8509402439
 21
101.3655401517
 31
0.0
  0
LINE
  5
1D3
330
1F
100
AcDbEntity
  8
0
  6
HIDDEN
 62
     7
370
     0
100
AcDbLine
 10
182.453543806
 20
107.2005452339
 30
0.0
 11
179.4391795262
 21
106.4786491666
 31
0.0
  0
LINE
  5
1D4
330
1F
100
AcDbEntity
  8
0
  6
HIDDEN
 62
     7
370
     0
100
AcDbLine
 10
184.6953862548
 20
102.2820034746
 30
0.0
 11
185.0001569107
 21
103.1451904897
 31
0.0
  0
LINE
  5
1D5
330
1F
100
AcDbEntity
  8
0
  6
HIDDEN
 62
     7
370
     0
100
AcDbLine
 10
184.2842520415
 20
106.1345413078
 30
0.0
 11
183.6215284854
 21
106.7660283048
 31
0.0
  0
DIMENSION
  5
1D6
330
1F
100
AcDbEntity
  8
VERMASSUNG
100
AcDbDimension
  2
_D
 10
67.7028243458
 20
166.1282035965
 30
0.0
 11
67.7028243458
 21
117.4032035965
 31
0.0
 70
   160
  1
ISO 50 %%c<>
 71
     2
 42
-1.0
  3
SLDDIMSTYLE0
100
AcDbAlignedDimension
 13
193.2049045101
 23
68.6782035965
 33
0.0
 14
193.2049045101
 24
166.1282035965
 34
0.0
 50
90.0
100
AcDbRotatedDimension
  0
DIMENSION
  5
1E3
330
1F
100
AcDbEntity
  8
VERMASSUNG
100
AcDbDimension
  2
_D_1
 10
218.8549045101
 20
183.1503722697
 30
0.0
 11
146.0049045101
 21
183.1503722697
 31
0.0
 70
   160
  1
(<>)
 71
     2
 42
-1.0
  3
SLDDIMSTYLE0
100
AcDbAlignedDimension
 13
73.1549045101
 23
135.7820481239
 33
0.0
 14
218.8549045101
 24
133.1032035965
 34
0.0
100
AcDbRotatedDimension
  0
DIMENSION
  5
1EF
330
1F
100
AcDbEntity
  8
VERMASSUNG
100
AcDbDimension
  2
_D_2
 10
218.8549045101
 20
177.1503722697
 30
0.0
 11
196.8049045101
 21
177.1503722697
 31
0.0
 70
   160
  1
<>
 71
     2
 42
-1.0
  3
SLDDIMSTYLE0
100
AcDbAlignedDimension
 13
174.7549045101
 23
152.3282035965
 33
0.0
 14
218.8549045101
 24
133.1032035965
 34
0.0
100
AcDbRotatedDimension
  0
DIMENSION
  5
1F9
330
1F
100
AcDbEntity
  8
VERMASSUNG
100
AcDbDimension
  2
_D_3
 10
218.8549045101
 20
171.1503722697
 30
0.0
 11
206.3299045101
 21
171.1503722697
 31
0.0
 70
   160
  1
<>
 71
     2
 42
-1.0
  3
SLDDIMSTYLE0
100
AcDbAlignedDimension
 13
193.8049045101
 23
163.6981905498
 33
0.0
 14
218.8549045101
 24
133.1032035965
 34
0.0
100
AcDbRotatedDimension
  0
DIMENSION
  5
203
330
1F
100
AcDbEntity
  8
VERMASSUNG
100
AcDbDimension
  2
_D_4
 10
227.7533110466
 20
101.4032035965
 30
0.0
 11
227.7533110466
 21
117.4032035965
 31
0.0
 70
   160
  1
MBM %%c<>
 71
     2
 42
-1.0
  3
SLDDIMSTYLE0
100
AcDbAlignedDimension
 13
218.5549045101
 23
133.4032035965
 33
0.0
 14
218.5549045101
 24
101.4032035965
 34
0.0
 50
90.0
100
AcDbRotatedDimension
  0
LINE
  5
20F
330
1F
100
AcDbEntity
  8
VERMASSUNG
  6
CENTERX2
 62
     7
370
     0
100
AcDbLine
 10
71.1549045101
 20
117.4032035965
 30
0.0
 11
220.8549045101
 21
117.4032035965
 31
0.0
  0
LINE
  5
210
330
1F
100
AcDbEntity
  8
VERMASSUNG
  6
CENTERX2
370
     0
100
AcDbLine
 10
176.0099028639
 20
132.2338484961
 30
0.0
 11
187.2722745548
 21
129.5366784817
 31
0.0
  0
LINE
  5
211
330
1F
100
AcDbEntity
  8
VERMASSUNG
  6
CENTERX2
370
     0
100
AcDbLine
 10
176.0099028639
 20
102.572558697
 30
0.0
 11
187.2722745548
 21
105.2697287114
 31
0.0
  0
LINE
  5
212
330
1F
100
AcDbEntity
  8
0
  6
Continuous
 62
     7
370
    15
100
AcDbLine
 10
269.2193426748
 20
47.4404534634
 30
0.0
 11
269.042538374
 21
47.542554064
 31
0.0
  0
LINE
  5
213
330
1F
100
AcDbEntity
  8
0
  6
Continuous
 62
     7
370
    15
100
AcDbLine
 10
266.5672622102
 20
47.5425542642
 30
0.0
 11
266.3904564301
 21
47.4404532848
 31
0.0
  0
LINE
  5
214
330
1F
100
AcDbEntity
  8
0
  6
Continuous
 62
     7
370
    15
100
AcDbLine
 10
269.8048998718
 20
46.3179751374
 30
0.0
 11
269.8048998718
 21
46.6241778019
 31
0.0
  0
LINE
  5
215
330
1F
100
AcDbEntity
  8
0
  6
Continuous
 62
     7
370
    15
100
AcDbLine
 10
265.8049002011
 20
46.6241776119
 30
0.0
 11
265.8049002011
 21
46.3179749473
 31
0.0
  0
SPLINE
  5
216
330
1F
100
AcDbEntity
  8
0
  6
Continuous
 62
     7
370
    15
100
AcDbSpline
210
0.0
220
0.0
230
1.0
 70
     8
 71
     3
 72
    30
 73
    26
 74
     0
 42
0.000000001
 43
0.00000001
 40
0.0
 40
0.0
 40
0.0
 40
0.0
 40
0.0010768471761682
 40
0.0479834568678733
 40
0.0949634202906696
 40
0.1419914612471549
 40
0.1890464293784008
 40
0.2361126755931312
 40
0.2831778296900098
 40
0.3302361537493306
 40
0.3772851341648599
 40
0.424324036081729
 40
0.4713532336514151
 40
0.5183738303065261
 40
0.5653873328066101
 40
0.6123954038604512
 40
0.6593999111597145
 40
0.7064027720811668
 40
0.7534059227094612
 40
0.8004108120779757
 40
0.8474192727037518
 40
0.8944333132854649
 40
0.9414548591450183
 40
0.9884858395771194
 40
1.0
 40
1.0
 40
1.0
 40
1.0
 10
262.4657827889744
 20
68.71593896438213
 30
0.0
 10
262.4563453872661
 20
68.71480351410759
 30
0.0
 10
262.035822245417
 20
68.66420874961332
 30
0.0
 10
261.1743690155938
 20
68.44578914607428
 30
0.0
 10
259.8872890122322
 20
68.05223731164786
 30
0.0
 10
258.5787180934967
 20
67.51836726530699
 30
0.0
 10
257.2614063196098
 20
66.86694112846938
 30
0.0
 10
255.9418180086843
 20
66.09670763703039
 30
0.0
 10
254.6280221577462
 20
65.21375379641114
 30
0.0
 10
253.3275237563831
 20
64.22300984709143
 30
0.0
 10
252.0477999722619
 20
63.13045158598467
 30
0.0
 10
250.7961498823131
 20
61.94247468073995
 30
0.0
 10
249.5797129250708
 20
60.66602567033141
 30
0.0
 10
248.4054277421127
 20
59.30852201175786
 30
0.0
 10
247.2799987721507
 20
57.87783214820916
 30
0.0
 10
246.2098594628155
 20
56.38222939017493
 30
0.0
 10
245.2011399566342
 20
54.83034666855103
 30
0.0
 10
244.2596219734668
 20
53.23112960555422
 30
0.0
 10
243.3907446788481
 20
51.59379199542033
 30
0.0
 10
242.5994627931028
 20
49.92774958687169
 30
0.0
 10
241.8905565670222
 20
48.24263255701352
 30
0.0
 10
241.2674127645389
 20
46.54792762269152
 30
0.0
 10
240.7364013746561
 20
44.85405843203152
 30
0.0
 10
240.4027712413975
 20
43.5926244924217
 30
0.0
 10
240.2502288316087
 20
42.90023286945129
 30
0.0
 10
240.2202280877049
 20
42.76405917329284
 30
0.0
  0
LINE
  5
217
330
1F
100
AcDbEntity
  8
0
  6
Continuous
 62
     7
370
    15
100
AcDbLine
 10
270.9877998127
 20
31.9272730579
 30
0.0
 11
271.0938490695
 21
31.9885131354
 31
0.0
  0
LINE
  5
218
330
1F
100
AcDbEntity
  8
0
  6
Continuous
 62
     7
370
    15
100
AcDbLine
 10
276.643734933
 20
41.602239179
 30
0.0
 11
276.643734933
 21
41.7247009481
 31
0.0
  0
LINE
  5
219
330
1F
100
AcDbEntity
  8
0
  6
Continuous
 62
     7
370
    15
100
AcDbLine
 10
259.6509728309
 20
35.7657943799
 30
0.0
 11
266.9872054065
 21
31.530677461
 31
0.0
  0
LINE
  5
21A
330
1F
100
AcDbEntity
  8
0
  6
Continuous
 62
     7
370
    15
100
AcDbLine
 10
274.9865554231
 20
45.3874592304
 30
0.0
 11
267.6503228475
 21
49.6225761493
 31
0.0
  0
LINE
  5
21B
330
1F
100
AcDbEntity
  8
0
  6
Continuous
 62
     7
370
    15
100
AcDbLine
 10
255.4867334769
 20
65.7714179183
 30
0.0
 11
224.7223019266
 21
76.8576996695
 31
0.0
  0
LINE
  5
21C
330
1F
100
AcDbEntity
  8
0
  6
Continuous
 62
     7
370
    15
100
AcDbLine
 10
214.5984425461
 20
59.3207612691
 30
0.0
 11
244.0659536647
 21
34.4386388308
 31
0.0
  0
SPLINE
  5
21D
330
1F
100
AcDbEntity
  8
0
  6
Continuous
 62
     7
370
    15
100
AcDbSpline
210
0.0
220
0.0
230
1.0
 70
     8
 71
     3
 72
    20
 73
    16
 74
     0
 42
0.000000001
 43
0.00000001
 40
0.0
 40
0.0
 40
0.0
 40
0.0
 40
0.059111807981389
 40
0.1424864801948489
 40
0.2259606451947821
 40
0.3094938500659965
 40
0.3930550930736769
 40
0.4766207532306281
 40
0.5601766606059851
 40
0.6437170422802493
 40
0.7272396853700459
 40
0.8107446983790434
 40
0.894233747588433
 40
0.9777091919968338
 40
1.0
 40
1.0
 40
1.0
 40
1.0
 10
256.3882894694489
 20
21.54904566765885
 30
0.0
 10
256.6840149169078
 20
21.59957695540108
 30
0.0
 10
257.3968484361552
 20
21.72138045923522
 30
0.0
 10
258.5587441190223
 20
22.06283058752108
 30
0.0
 10
259.8607377868002
 20
22.54923917183319
 30
0.0
 10
261.1761560492691
 20
23.16311725544358
 30
0.0
 10
262.4958228771394
 20
23.89483549180506
 30
0.0
 10
263.8123660058267
 20
24.74150105752053
 30
0.0
 10
265.1180222425127
 20
25.69761695975678
 30
0.0
 10
266.405419295508
 20
26.75747554700245
 30
0.0
 10
267.6668007957456
 20
27.9152635889193
 30
0.0
 10
268.8964497984374
 20
29.16250266577185
 30
0.0
 10
270.0818441590658
 20
30.49830642347398
 30
0.0
 10
270.9546478631252
 20
31.55090563936481
 30
0.0
 10
271.4120192716991
 20
32.17605309221044
 30
0.0
 10
271.508412762271
 20
32.30780628878609
 30
0.0
  0
SPLINE
  5
21E
330
1F
100
AcDbEntity
  8
0
  6
Continuous
 62
     7
370
    15
100
AcDbSpline
210
0.0
220
0.0
230
1.0
 70
     8
 71
     3
 72
    12
 73
     8
 74
     0
 42
0.000000001
 43
0.00000001
 40
0.0
 40
0.0
 40
0.0
 40
0.0
 40
0.0588035295103005
 40
0.3192238608574913
 40
0.5796823288625615
 40
0.8401895255351186
 40
1.0
 40
1.0
 40
1.0
 40
1.0
 10
276.5756190403474
 20
41.08385357766502
 30
0.0
 10
276.6315101840736
 20
41.21009941723547
 30
0.0
 10
276.9349237178635
 20
41.89544406679115
 30
0.0
 10
277.4035295415608
 20
43.15439423336781
 30
0.0
 10
277.9689922088736
 20
44.84818326033951
 30
0.0
 10
278.3856765264703
 20
46.32134075754191
 30
0.0
 10
278.5830906268174
 20
47.21880605525435
 30
0.0
 10
278.6581501430094
 20
47.56003452336767
 30
0.0
  0
LINE
  5
21F
330
1F
100
AcDbEntity
  8
0
  6
Continuous
 62
     7
370
    15
100
AcDbLine
 10
248.3885196307
 20
23.374194632
 30
0.0
 11
249.844041617
 21
22.5339396747
 31
0.0
  0
LINE
  5
220
330
1F
100
AcDbEntity
  8
0
  6
Continuous
 62
     7
370
    15
100
AcDbLine
 10
244.6644846824
 20
25.5240342471
 30
0.0
 11
246.1023293584
 21
24.6939841837
 31
0.0
  0
SPLINE
  5
221
330
1F
100
AcDbEntity
  8
0
  6
Continuous
 62
     7
370
    15
100
AcDbSpline
210
0.0
220
0.0
230
1.0
 70
     8
 71
     3
 72
     9
 73
     5
 74
     0
 42
0.000000001
 43
0.00000001
 40
0.0
 40
0.0
 40
0.0
 40
0.0
 40
0.4644996340006745
 40
1.0
 40
1.0
 40
1.0
 40
1.0
 10
240.2323188002353
 20
31.58924102354561
 30
0.0
 10
240.27049662039
 20
31.45537748432074
 30
0.0
 10
240.3526879018467
 20
31.16718879820291
 30
0.0
 10
240.4602450661028
 20
30.90227919747249
 30
0.0
 10
240.5178419669279
 20
30.76042000932462
 30
0.0
  0
SPLINE
  5
222
330
1F
100
AcDbEntity
  8
0
  6
Continuous
 62
     7
370
    15
100
AcDbSpline
210
0.0
220
0.0
230
1.0
 70
     8
 71
     3
 72
     9
 73
     5
 74
     0
 42
0.000000001
 43
0.00000001
 40
0.0
 40
0.0
 40
0.0
 40
0.0
 40
0.4579441333770098
 40
1.0
 40
1.0
 40
1.0
 40
1.0
 10
278.6516661137838
 20
58.62117455823275
 30
0.0
 10
278.5996438241203
 20
58.79920437410068
 30
0.0
 10
278.4860441819984
 20
59.1879631830739
 30
0.0
 10
278.3381080496298
 20
59.54499234525525
 30
0.0
 10
278.2579184011939
 20
59.73852209717114
 30
0.0
  0
SPLINE
  5
223
330
1F
100
AcDbEntity
  8
0
  6
Continuous
 62
     7
370
    15
100
AcDbSpline
210
0.0
220
0.0
230
1.0
 70
     8
 71
     3
 72
    27
 73
    23
 74
     0
 42
0.000000001
 43
0.00000001
 40
0.0
 40
0.0
 40
0.0
 40
0.0
 40
0.0210493941658396
 40
0.0708063454179895
 40
0.1212520428713143
 40
0.1727913551720796
 40
0.2254715954620574
 40
0.2790354664579589
 40
0.3331030962417422
 40
0.3873430538027487
 40
0.4415291862507236
 40
0.4956044562406384
 40
0.5495679382220039
 40
0.6034462781106732
 40
0.6572785378024885
 40
0.7111090570924556
 40
0.7649757606989631
 40
0.8189198496674129
 40
0.8729892910442071
 40
0.9272290143764478
 40
0.9816726253023795
 40
1.0
 40
1.0
 40
1.0
 40
1.0
 10
224.697406639249
 20
76.84859380278172
 30
0.0
 10
224.5978030620586
 20
76.88824871980682
 30
0.0
 10
224.2627546879419
 20
77.02164067067632
 30
0.0
 10
223.6366674888053
 20
77.11310674274031
 30
0.0
 10
222.8351464530292
 20
77.12616062308823
 30
0.0
 10
221.9963489870994
 20
77.00207255063548
 30
0.0
 10
221.132300973176
 20
76.7501800562613
 30
0.0
 10
220.2531230901624
 20
76.36905005873004
 30
0.0
 10
219.3728753780159
 20
75.86449098539305
 30
0.0
 10
218.5057756888898
 20
75.2448752145061
 30
0.0
 10
217.664922177633
 20
74.52099025698921
 30
0.0
 10
216.8618052276461
 20
73.70451368893025
 30
0.0
 10
216.1065507535425
 20
72.80745190694515
 30
0.0
 10
215.4085757887325
 20
71.84232045604878
 30
0.0
 10
214.7766506117655
 20
70.82214015154707
 30
0.0
 10
214.2189415438425
 20
69.7604234476354
 30
0.0
 10
213.7428879556834
 20
68.67101927922688
 30
0.0
 10
213.35526330731
 20
67.56798382557884
 30
0.0
 10
213.0615768424735
 20
66.46501933743893
 30
0.0
 10
212.8683438520036
 20
65.37651904768757
 30
0.0
 10
212.795724983703
 20
64.54969619280692
 30
0.0
 10
212.7906901282791
 20
64.09152887760548
 30
0.0
 10
212.7894220998044
 20
63.97613942687938
 30
0.0
  0
SPLINE
  5
224
330
1F
100
AcDbEntity
  8
0
  6
Continuous
 62
     7
370
    15
100
AcDbSpline
210
0.0
220
0.0
230
1.0
 70
     8
 71
     3
 72
    14
 73
    10
 74
     0
 42
0.000000001
 43
0.00000001
 40
0.0
 40
0.0
 40
0.0
 40
0.0
 40
0.0940532694791947
 40
0.2713553957309421
 40
0.4486751925665135
 40
0.6245170232868934
 40
0.79731466382346
 40
0.9658955509345769
 40
0.9999999999999999
 40
0.9999999999999999
 40
0.9999999999999999
 40
0.9999999999999999
 10
212.7894220998044
 20
63.97613942687938
 30
0.0
 10
212.7925198694677
 20
63.79568286785947
 30
0.0
 10
212.8014573207387
 20
63.2750432212396
 30
0.0
 10
212.9010908299637
 20
62.45503144688421
 30
0.0
 10
213.1268942818421
 20
61.55085765388224
 30
0.0
 10
213.464038453647
 20
60.72994624758712
 30
0.0
 10
213.915044041198
 20
60.02286100101169
 30
0.0
 10
214.2995879888396
 20
59.55619107925772
 30
0.0
 10
214.5557332799083
 20
59.36776162960454
 30
0.0
 10
214.5988330630372
 20
59.33605591921943
 30
0.0
  0
LWPOLYLINE
  5
225
330
1F
100
AcDbEntity
  8
0
  6
Continuous
 62
     7
370
    15
100
AcDbPolyline
 90
       21
 70
   128
 43
0.0
 10
266.5674631312
 20
46.1139562037
 10
266.2456385217
 20
46.3696679111
 10
266.0764446904
 20
46.6702753259
 10
266.076445349
 20
46.9863517964
 10
266.2456379866
 20
47.2869591875
 10
266.5674632958
 20
47.5426703484
 10
267.0104160135
 20
47.7284561449
 10
267.5311397094
 20
47.8261289755
 10
268.0786595403
 20
47.8261293557
 10
268.5993832774
 20
47.728455836
 10
269.0423369417
 20
47.5426704435
 10
269.3641615512
 20
47.286958736
 10
269.5333540654
 20
46.9863520815
 10
269.5333547239
 20
46.6702748507
 10
269.3641607692
 20
46.36966822
 10
269.0423367771
 20
46.1139562987
 10
268.5993827423
 20
45.9281712626
 10
268.0786603635
 20
45.8304976716
 10
267.5311392155
 20
45.8304980518
 10
267.0104167955
 20
45.9281708111
 10
266.5674631312
 20
46.1139562037
  0
LWPOLYLINE
  5
226
330
1F
100
AcDbEntity
  8
0
  6
Continuous
 62
     7
370
    15
100
AcDbPolyline
 90
        7
 70
   128
 43
0.0
 10
266.3906864069
 20
45.8077695563
 10
266.0495420772
 20
46.0708485714
 10
265.8506058241
 20
46.3787552911
 10
265.8099956892
 20
46.7065442183
 10
265.9310004849
 20
47.0276605266
 10
266.2038171382
 20
47.3160892185
 10
266.3904564301
 20
47.4404532848
  0
LWPOLYLINE
  5
227
330
1F
100
AcDbEntity
  8
0
  6
Continuous
 62
     7
370
    15
100
AcDbPolyline
 90
       12
 70
   128
 43
0.0
 10
269.2193426748
 20
47.4404534634
 10
269.5602579957
 20
47.1775068424
 10
269.7591942488
 20
46.8696001227
 10
269.7998043837
 20
46.5418111955
 10
269.678799588
 20
46.2206948872
 10
269.4059829347
 20
45.9322661953
 10
269.0034557948
 20
45.6998922237
 10
268.5038285105
 20
45.5423985221
 10
267.9475784785
 20
45.4725439404
 10
267.3797698792
 20
45.4959876723
 10
266.8464020052
 20
45.6108311267
 10
266.3906864069
 20
45.8077695563
  0
LWPOLYLINE
  5
228
330
1F
100
AcDbEntity
  8
0
  6
Continuous
 62
     7
370
    15
100
AcDbPolyline
 90
       18
 70
   128
 43
0.0
 10
266.9740495805
 20
46.3486735648
 10
266.7300167758
 20
46.5543286667
 10
266.631153687
 20
46.7969865363
 10
266.6908111105
 20
47.0438754803
 10
266.9009330713
 20
47.2616511987
 10
267.2331398408
 20
47.4209027691
 10
267.6425661399
 20
47.5001217372
 10
268.0739165381
 20
47.4886093209
 10
268.4689346654
 20
47.3879202955
 10
268.7742714607
 20
47.2116531156
 10
268.948690184
 20
46.9836132443
 10
268.9686324346
 20
46.7345999598
 10
268.8314062883
 20
46.4982431884
 10
268.5555445869
 20
46.3064643025
 10
268.1783051034
 20
46.1851634765
 10
267.7506345696
 20
46.1507239789
 10
267.3302932657
 20
46.2077964253
 10
266.9740495805
 20
46.3486735648
  0
SPLINE
  5
229
330
1F
100
AcDbEntity
  8
0
  6
Continuous
 62
     7
370
    15
100
AcDbSpline
210
0.0
220
0.0
230
1.0
 70
     8
 71
     3
 72
     9
 73
     5
 74
     0
 42
0.000000001
 43
0.00000001
 40
0.0
 40
0.0
 40
0.0
 40
0.0
 40
0.6308777003253352
 40
1.0
 40
1.0
 40
1.0
 40
1.0
 10
267.0979130767735
 20
46.28033085686177
 30
0.0
 10
267.0079717659507
 20
46.34221016523808
 30
0.0
 10
266.8654063990398
 20
46.44029464079397
 30
0.0
 10
266.7369576548595
 20
46.58558177091864
 30
0.0
 10
266.6895443590173
 20
46.63921049050339
 30
0.0
  0
SPLINE
  5
22A
330
1F
100
AcDbEntity
  8
0
  6
Continuous
 62
     7
370
    15
100
AcDbSpline
210
0.0
220
0.0
230
1.0
 70
     8
 71
     3
 72
    10
 73
     6
 74
     0
 42
0.000000001
 43
0.00000001
 40
0.0
 40
0.0
 40
0.0
 40
0.0
 40
0.4391224577411379
 40
0.7513716716921134
 40
1.0
 40
1.0
 40
1.0
 40
1.0
 10
268.9202543967843
 20
46.98426529767464
 30
0.0
 10
268.8774700944031
 20
46.8361619495682
 30
0.0
 10
268.8042629235201
 20
46.58274594160003
 30
0.0
 10
268.6978436895814
 20
46.39600713383503
 30
0.0
 10
268.6448761393775
 20
46.35746798037351
 30
0.0
 10
268.6213964446677
 20
46.3403841704906
 30
0.0
  0
SPLINE
  5
22B
330
1F
100
AcDbEntity
  8
0
  6
Continuous
 62
     7
370
    15
100
AcDbSpline
210
0.0
220
0.0
230
1.0
 70
     8
 71
     3
 72
    11
 73
     7
 74
     0
 42
0.000000001
 43
0.00000001
 40
0.0
 40
0.0
 40
0.0
 40
0.0
 40
0.1845142649251036
 40
0.518057443968111
 40
0.8676129830710579
 40
1.0
 40
1.0
 40
1.0
 40
1.0
 10
268.1037579885619
 20
47.4556186411034
 30
0.0
 10
268.1511763421056
 20
47.40282123031288
 30
0.0
 10
268.284312016163
 20
47.25458287219261
 30
0.0
 10
268.5324727961004
 20
47.05830507951062
 30
0.0
 10
268.7630631774073
 20
46.98910320735784
 30
0.0
 10
268.8863799464295
 20
46.98530785928867
 30
0.0
 10
268.9202543967843
 20
46.98426529767464
 30
0.0
  0
SPLINE
  5
22C
330
1F
100
AcDbEntity
  8
0
  6
Continuous
 62
     7
370
    15
100
AcDbSpline
210
0.0
220
0.0
230
1.0
 70
     8
 71
     3
 72
    10
 73
     6
 74
     0
 42
0.000000001
 43
0.00000001
 40
0.0
 40
0.0
 40
0.0
 40
0.0
 40
0.4391220006042077
 40
0.7513714774960203
 40
1.0
 40
1.0
 40
1.0
 40
1.0
 10
266.988403628223
 20
47.28309085734811
 30
0.0
 10
267.148077265276
 20
47.25186462431905
 30
0.0
 10
267.4212911248063
 20
47.19843414072814
 30
0.0
 10
267.8184526801751
 20
47.3024062800024
 30
0.0
 10
268.0161304829548
 20
47.4085616231062
 30
0.0
 10
268.1037579885619
 20
47.4556186411034
 30
0.0
  0
SPLINE
  5
22D
330
1F
100
AcDbEntity
  8
0
  6
Continuous
 62
     7
370
    15
100
AcDbSpline
210
0.0
220
0.0
230
1.0
 70
     8
 71
     3
 72
    10
 73
     6
 74
     0
 42
0.000000001
 43
0.00000001
 40
0.0
 40
0.0
 40
0.0
 40
0.0
 40
0.43912204117491
 40
0.7513714870347559
 40
0.9999999999999999
 40
0.9999999999999999
 40
0.9999999999999999
 40
0.9999999999999999
 10
266.6895443590173
 20
46.63921049050339
 30
0.0
 10
266.7323292612354
 20
46.67546270460499
 30
0.0
 10
266.8055375099406
 20
46.73749302297603
 30
0.0
 10
266.9119563373442
 20
47.00930734696308
 30
0.0
 10
266.9649239193957
 20
47.19900210767958
 30
0.0
 10
266.988403628223
 20
47.28309085734811
 30
0.0
  0
LINE
  5
22E
330
1F
100
AcDbEntity
  8
0
  6
Continuous
 62
     7
370
    15
100
AcDbLine
 10
266.9884036282
 20
46.3405275222
 30
0.0
 11
266.9884036282
 21
47.2830908573
 31
0.0
  0
LINE
  5
22F
330
1F
100
AcDbEntity
  8
0
  6
Continuous
 62
     7
370
    15
100
AcDbLine
 10
268.1037579886
 20
46.1723082344
 30
0.0
 11
268.1037579886
 21
47.4556186411
 31
0.0
  0
SPLINE
  5
230
330
1F
100
AcDbEntity
  8
0
  6
Continuous
 62
     7
370
    15
100
AcDbSpline
210
0.0
220
0.0
230
1.0
 70
     8
 71
     3
 72
    12
 73
     8
 74
     0
 42
0.000000001
 43
0.00000001
 40
0.0
 40
0.0
 40
0.0
 40
0.0
 40
0.2499999999999992
 40
0.2499999999999992
 40
0.4999999999999984
 40
0.4999999999999984
 40
1.0
 40
1.0
 40
1.0
 40
1.0
 10
245.5030138473979
 20
39.73056604254398
 30
0.0
 10
245.5369453396875
 20
39.7109778089925
 30
0.0
 10
245.5753770487147
 20
39.68379062005609
 30
0.0
 10
245.6495539013797
 20
39.62456669252025
 30
0.0
 10
245.6847701816351
 20
39.59313401350349
 30
0.0
 10
245.7798690988931
 20
39.5011412967015
 30
0.0
 10
245.828398255655
 20
39.44428463117686
 30
0.0
 10
245.86173985181
 20
39.39605582517454
 30
0.0
  0
ARC
  5
231
330
1F
100
AcDbEntity
  8
0
  6
Continuous
 62
     7
370
    15
100
AcDbCircle
 10
269.6467529998
 20
55.6548474208
 30
0.0
 40
10.22280757319535
100
AcDbArc
 50
73.3381111008
 51
100.5922068816
  0
SPLINE
  5
232
330
1F
100
AcDbEntity
  8
0
  6
Continuous
 62
     7
370
    15
100
AcDbSpline
210
0.0
220
0.0
230
1.0
 70
     8
 71
     3
 72
    12
 73
     8
 74
     0
 42
0.000000001
 43
0.00000001
 40
0.0
 40
0.0
 40
0.0
 40
0.0
 40
0.5
 40
0.5
 40
0.75
 40
0.75
 40
1.0
 40
1.0
 40
1.0
 40
1.0
 10
272.7900026710084
 20
65.01487176338583
 30
0.0
 10
272.7900026710084
 20
65.08755476057863
 30
0.0
 10
272.7729859029382
 20
65.17113760731894
 30
0.0
 10
272.7185750770567
 20
65.29258178519461
 30
0.0
 10
272.6954298581348
 20
65.33229666287596
 30
0.0
 10
272.6411490462777
 20
65.40102643474175
 30
0.0
 10
272.6099130777201
 20
65.42993603064743
 30
0.0
 10
272.5778706366524
 20
65.44843373814102
 30
0.0
  0
ARC
  5
233
330
1F
100
AcDbEntity
  8
0
  6
Continuous
 62
     7
370
    15
100
AcDbCircle
 10
283.4372876482
 20
31.1826464123
 30
0.0
 40
38.4643905911794
100
AcDbArc
 50
126.8528649113
 51
166.728779873
  0
LWPOLYLINE
  5
234
330
1F
100
AcDbEntity
  8
0
  6
Continuous
 62
     7
370
    15
100
AcDbPolyline
 90
       12
 70
   128
 43
0.0
 10
255.5139748291
 20
60.5725605656
 10
256.9643318507
 20
61.8451638763
 10
258.4419638103
 20
62.9863129134
 10
259.9356895687
 20
63.9873719353
 10
261.4342060737
 20
64.84076639
 10
262.9261738064
 20
65.5400398472
 10
264.4003029677
 20
66.0798976689
 10
265.84543839
 20
66.4562575488
 10
267.2506449417
 20
66.666269918
 10
268.6052894338
 20
66.7083454561
 10
269.8991206334
 20
66.5821678219
 10
271.1223486177
 20
66.2886892731
  0
LINE
  5
235
330
1F
100
AcDbEntity
  8
0
  6
Continuous
 62
     7
370
    15
100
AcDbLine
 10
272.577870604
 20
65.4484343157
 30
0.0
 11
271.1223486177
 21
66.2886892731
 31
0.0
  0
LINE
  5
236
330
1F
100
AcDbEntity
  8
0
  6
Continuous
 62
     7
370
    15
100
AcDbLine
 10
244.0474916987
 20
40.570821185
 30
0.0
 11
245.5030136849
 21
39.7305662277
 31
0.0
  0
ARC
  5
237
330
1F
100
AcDbEntity
  8
0
  6
Continuous
 62
     7
370
    15
100
AcDbCircle
 10
283.4749466972
 20
31.2890801112
 30
0.0
 40
40.50524564818845
100
AcDbArc
 50
136.9919325105
 51
166.7530183965
  0
SPLINE
  5
238
330
1F
100
AcDbEntity
  8
0
  6
Continuous
 62
     7
370
    15
100
AcDbSpline
210
0.0
220
0.0
230
1.0
 70
     8
 71
     3
 72
    34
 73
    30
 74
     0
 42
0.000000001
 43
0.00000001
 40
0.0
 40
0.0
 40
0.0
 40
0.0
 40
0.0624999999999992
 40
0.0624999999999992
 40
0.1249999999999984
 40
0.1249999999999984
 40
0.1874999999999976
 40
0.1874999999999976
 40
0.2499999999999973
 40
0.2499999999999973
 40
0.3124999999999971
 40
0.3124999999999971
 40
0.3749999999999968
 40
0.3749999999999968
 40
0.4999999999999972
 40
0.4999999999999972
 40
0.6249999999999976
 40
0.6249999999999976
 40
0.687499999999998
 40
0.687499999999998
 40
0.7499999999999984
 40
0.7499999999999984
 40
0.8124999999999989
 40
0.8124999999999989
 40
0.8749999999999992
 40
0.8749999999999992
 40
0.9374999999999997
 40
0.9374999999999997
 40
1.0
 40
1.0
 40
1.0
 40
1.0
 10
253.8551754619301
 20
58.91776293357629
 30
0.0
 10
253.9143008755734
 20
58.88818544971807
 30
0.0
 10
253.9771135710039
 20
58.86450942752252
 30
0.0
 10
254.1098225739286
 20
58.82842991710279
 30
0.0
 10
254.1804342702997
 20
58.81598202696355
 30
0.0
 10
254.325682240277
 20
58.80327213323816
 30
0.0
 10
254.3996646700392
 20
58.80292995334082
 30
0.0
 10
254.550346734864
 20
58.81393629816344
 30
0.0
 10
254.6277947546642
 20
58.82552296214892
 30
0.0
 10
254.7797273406393
 20
58.85969750488772
 30
0.0
 10
254.8546834212237
 20
58.88220990727771
 30
0.0
 10
255.0026184881324
 20
58.93802197987578
 30
0.0
 10
255.0755472012228
 20
58.97146682608207
 30
0.0
 10
255.2821597272328
 20
59.08382908540138
 30
0.0
 10
255.4090849032821
 20
59.17786648642213
 30
0.0
 10
255.618191655909
 20
59.38646780159802
 30
0.0
 10
255.7027400391069
 20
59.50339189574174
 30
0.0
 10
255.7877135958809
 20
59.68191714571439
 30
0.0
 10
255.8096732964788
 20
59.74313372464108
 30
0.0
 10
255.8387843932186
 20
59.86393970715491
 30
0.0
 10
255.8461388559984
 20
59.92354023360007
 30
0.0
 10
255.8464817910427
 20
60.04128152373334
 30
0.0
 10
255.8392417482074
 20
60.09973291187043
 30
0.0
 10
255.8106298976854
 20
60.2104955362619
 30
0.0
 10
255.789346556126
 20
60.26340798098452
 30
0.0
 10
255.7325183895189
 20
60.36432618829378
 30
0.0
 10
255.697060900545
 20
60.41184120292489
 30
0.0
 10
255.6146559476584
 20
60.49810118080831
 30
0.0
 10
255.5674510450826
 20
60.53734673322838
 30
0.0
 10
255.5139748991937
 20
60.57255986134199
 30
0.0
  0
LINE
  5
239
330
1F
100
AcDbEntity
  8
0
  6
Continuous
 62
     7
370
    15
100
AcDbLine
 10
278.4999018977
 20
58.1455682071
 30
0.0
 11
278.6041837377
 21
58.3261900319
 31
0.0
  0
LINE
  5
23A
330
1F
100
AcDbEntity
  8
0
  6
Continuous
 62
     7
370
    15
100
AcDbLine
 10
276.2017936162
 20
56.8188985352
 30
0.0
 11
278.4999018977
 21
58.1455682071
 31
0.0
  0
ARC
  5
23B
330
1F
100
AcDbEntity
  8
0
  6
Continuous
 62
     7
370
    15
100
AcDbCircle
 10
277.0298967138
 20
55.5242962522
 30
0.0
 40
1.536798559128352
100
AcDbArc
 50
122.6053519586
 51
177.394632491
  0
LINE
  5
23C
330
1F
100
AcDbEntity
  8
0
  6
Continuous
 62
     7
370
    15
100
AcDbLine
 10
275.4946867191
 20
46.7346858785
 30
0.0
 11
275.4946867191
 21
55.5941538469
 31
0.0
  0
ARC
  5
23D
330
1F
100
AcDbEntity
  8
0
  6
Continuous
 62
     7
370
    15
100
AcDbCircle
 10
275.9257602022
 20
46.6647573315
 30
0.0
 40
0.436708540672343
100
AcDbArc
 50
170.7857695821
 51
309.2035248725
  0
LINE
  5
23E
330
1F
100
AcDbEntity
  8
0
  6
Continuous
 62
     7
370
    15
100
AcDbLine
 10
278.4999018977
 20
47.6530191078
 30
0.0
 11
276.2017936162
 21
46.3263494358
 31
0.0
  0
LINE
  5
23F
330
1F
100
AcDbEntity
  8
0
  6
Continuous
 62
     7
370
    15
100
AcDbLine
 10
278.6041837377
 20
47.5927985326
 30
0.0
 11
278.4999018977
 21
47.6530191078
 31
0.0
  0
LINE
  5
240
330
1F
100
AcDbEntity
  8
0
  6
Continuous
 62
     7
370
    15
100
AcDbLine
 10
245.9072474017
 20
28.837680163
 30
0.0
 11
245.861739342
 21
28.71931154
 31
0.0
  0
LINE
  5
241
330
1F
100
AcDbEntity
  8
0
  6
Continuous
 62
     7
370
    15
100
AcDbLine
 10
245.9072474017
 20
28.837680163
 30
0.0
 11
249.048891929
 21
30.6513129443
 31
0.0
  0
ARC
  5
242
330
1F
100
AcDbEntity
  8
0
  6
Continuous
 62
     7
370
    15
100
AcDbCircle
 10
248.2207888314
 20
31.9459152273
 30
0.0
 40
1.536798559128264
100
AcDbArc
 50
302.6053519586
 51
357.394632491
  0
LINE
  5
243
330
1F
100
AcDbEntity
  8
0
  6
Continuous
 62
     7
370
    15
100
AcDbLine
 10
249.755998826
 20
40.735525601
 30
0.0
 11
249.755998826
 21
31.8760576326
 31
0.0
  0
ARC
  5
244
330
1F
100
AcDbEntity
  8
0
  6
Continuous
 62
     7
370
    15
100
AcDbCircle
 10
249.324925343
 20
40.805454148
 30
0.0
 40
0.4367085406723178
100
AcDbArc
 50
350.7857695821
 51
129.2035248725
  0
LINE
  5
245
330
1F
100
AcDbEntity
  8
0
  6
Continuous
 62
     7
370
    15
100
AcDbLine
 10
249.048891929
 20
41.1438620437
 30
0.0
 11
245.9072474017
 21
39.3302292623
 31
0.0
  0
LINE
  5
246
330
1F
100
AcDbEntity
  8
0
  6
Continuous
 62
     7
370
    15
100
AcDbLine
 10
245.861739342
 20
39.396055398
 30
0.0
 11
245.9072474017
 21
39.3302292623
 31
0.0
  0
LINE
  5
247
330
1F
100
AcDbEntity
  8
0
  6
Continuous
 62
     7
370
    15
100
AcDbLine
 10
272.7900029365
 20
61.7899109778
 30
0.0
 11
272.7900029365
 21
65.0148721208
 31
0.0
  0
LINE
  5
248
330
1F
100
AcDbEntity
  8
0
  6
Continuous
 62
     7
370
    15
100
AcDbLine
 10
275.5827499249
 20
63.4021294972
 30
0.0
 11
272.7900029365
 21
61.7899109778
 31
0.0
  0
SPLINE
  5
249
330
1F
100
AcDbEntity
  8
0
  6
Continuous
 62
     7
370
    15
100
AcDbSpline
210
0.0
220
0.0
230
1.0
 70
     8
 71
     3
 72
     8
 73
     4
 74
     0
 42
0.000000001
 43
0.00000001
 40
0.0
 40
0.0
 40
0.0
 40
0.0
 40
1.0
 40
1.0
 40
1.0
 40
1.0
 10
242.9749373751694
 20
41.66233497007545
 30
0.0
 10
242.6878702454972
 20
41.6148829703521
 30
0.0
 10
242.4007571269116
 20
41.56752553764931
 30
0.0
 10
242.113602300514
 20
41.52025386873723
 30
0.0
  0
SPLINE
  5
24A
330
1F
100
AcDbEntity
  8
0
  6
Continuous
 62
     7
370
    15
100
AcDbSpline
210
0.0
220
0.0
230
1.0
 70
     8
 71
     3
 72
     8
 73
     4
 74
     0
 42
0.000000001
 43
0.00000001
 40
0.0
 40
0.0
 40
0.0
 40
0.0
 40
0.0011862984959113
 40
0.0011862984959113
 40
0.0011862984959113
 40
0.0011862984959113
 10
241.7613012132385
 20
41.89061076839941
 30
0.0
 10
241.8790120810831
 20
41.76706081728696
 30
0.0
 10
241.9964518315191
 20
41.64360576817168
 30
0.0
 10
242.113602300514
 20
41.52025386873724
 30
0.0
  0
LWPOLYLINE
  5
24B
330
1F
100
AcDbEntity
  8
0
  6
Continuous
 62
     7
370
    15
100
AcDbPolyline
 90
       25
 70
   128
 43
0.0
 10
241.7613014264
 20
41.8906107367
 10
242.2100376054
 20
43.6740309179
 10
242.764056612
 20
45.4713322155
 10
243.4197298659
 20
47.2707411032
 10
244.1727610228
 20
49.0604708094
 10
245.0182189014
 20
50.8287977404
 10
245.9505638253
 20
52.5641390452
 10
246.9636897698
 20
54.2551263766
 10
248.0509599233
 20
55.8906826944
 10
249.2052521271
 20
57.4600956459
 10
250.4190049731
 20
58.9530852427
 10
251.6842678533
 20
60.3598707771
 10
252.9927529853
 20
61.6712358361
 10
254.3358887537
 20
62.8785925562
 10
255.7048774977
 20
63.9740301921
 10
257.0907514052
 20
64.9503747605
 10
258.4844324196
 20
65.8012312283
 10
259.8767912
 20
66.521023633
 10
261.2587071727
 20
67.1050388756
 10
262.621128417
 20
67.5494521661
 10
263.9551298438
 20
67.8513499629
 10
265.2519738845
 20
68.0087558825
 10
266.5031649857
 20
68.0206393443
 10
267.700507561
 20
67.8869216488
 10
268.8361583454
 20
67.6084788248
  0
LINE
  5
24C
330
1F
100
AcDbEntity
  8
0
  6
Continuous
 62
     7
370
    15
100
AcDbLine
 10
269.141125368
 20
66.6488821701
 30
0.0
 11
268.8361583454
 21
67.6084788248
 31
0.0
  0
LWPOLYLINE
  5
24D
330
1F
100
AcDbEntity
  8
0
  6
Continuous
 62
     7
370
    15
100
AcDbPolyline
 90
       24
 70
   128
 43
0.0
 10
242.9749373807
 20
41.6623349444
 10
243.4050723115
 20
43.4003591375
 10
243.9405032408
 20
45.1529492427
 10
244.5775541731
 20
46.9080773632
 10
245.3118550071
 20
48.6537019792
 10
246.1383678773
 20
50.3778455125
 10
247.0514213984
 20
52.0686772136
 10
248.0447488608
 20
53.7145937672
 10
249.1115363046
 20
55.3043025585
 10
250.2444620318
 20
56.8268954344
 10
251.4357532416
 20
58.2719232235
 10
252.6772354212
 20
59.6294729182
 10
253.9603899679
 20
60.8902298375
 10
255.2764121418
 20
62.0455399797
 10
256.6162718158
 20
63.0874770316
 10
257.9707751325
 20
64.0088931721
 10
259.3306280532
 20
64.8034633627
 10
260.6864994961
 20
65.4657385267
 10
262.0290860383
 20
65.9911707331
 10
263.3491753831
 20
66.3761574405
 10
264.6377089214
 20
66.61805632
 10
265.8858456932
 20
66.7152084909
 10
267.0850209979
 20
66.6669449792
 10
267.1659686303
 20
66.6582281824
  0
LINE
  5
24E
330
1F
100
AcDbEntity
  8
0
  6
Continuous
 62
     7
370
    15
100
AcDbLine
 10
240.3234567503
 20
42.7206608001
 30
0.0
 11
241.7613014264
 21
41.8906107367
 31
0.0
  0
ARC
  5
24F
330
1F
100
AcDbEntity
  8
0
  6
Continuous
 62
     7
370
    15
100
AcDbCircle
 10
264.4672049255
 20
58.644994906
 30
0.0
 40
10.22275434149993
100
AcDbArc
 50
73.3380736439
 51
100.5916222847
  0
LINE
  5
250
330
1F
100
AcDbEntity
  8
0
  6
Continuous
 62
     7
370
    15
100
AcDbLine
 10
268.8361583454
 20
67.6084788248
 30
0.0
 11
267.3983136694
 21
68.4385288881
 31
0.0
  0
LINE
  5
251
330
1F
100
AcDbEntity
  8
0
  6
Continuous
 62
     7
370
    15
100
AcDbLine
 10
244.2275282182
 20
41.3359929429
 30
0.0
 11
243.6014246005
 21
41.6974348679
 31
0.0
  0
SPLINE
  5
252
330
1F
100
AcDbEntity
  8
0
  6
Continuous
 62
     7
370
    15
100
AcDbSpline
210
0.0
220
0.0
230
1.0
 70
     8
 71
     3
 72
    11
 73
     7
 74
     0
 42
0.000000001
 43
0.00000001
 40
0.0
 40
0.0
 40
0.0
 40
0.0
 40
0.3165694752064712
 40
0.6331520400060429
 40
0.9494411625907934
 40
1.0
 40
1.0
 40
1.0
 40
1.0
 10
254.8219509061074
 20
59.68008161582917
 30
0.0
 10
254.6883607259037
 20
59.6329029529091
 30
0.0
 10
254.4211748417763
 20
59.53854367631394
 30
0.0
 10
254.1052246425776
 20
59.27872797712075
 30
0.0
 10
253.924521951621
 20
59.05553659164826
 30
0.0
 10
253.8895869880709
 20
58.92678741415046
 30
0.0
 10
253.8847722655301
 20
58.90904325460331
 30
0.0
  0
SPLINE
  5
253
330
1F
100
AcDbEntity
  8
0
  6
Continuous
 62
     7
370
    15
100
AcDbSpline
210
0.0
220
0.0
230
1.0
 70
     8
 71
     3
 72
    14
 73
    10
 74
     0
 42
0.000000001
 43
0.00000001
 40
0.0
 40
0.0
 40
0.0
 40
0.0
 40
0.25
 40
0.25
 40
0.5
 40
0.5
 40
0.75
 40
0.75
 40
1.0
 40
1.0
 40
1.0
 40
1.0
 10
243.6014244879032
 20
41.69743503730749
 30
0.0
 10
243.5637904944451
 20
41.71916067928753
 30
0.0
 10
243.5180165377559
 20
41.73637244039904
 30
0.0
 10
243.418080660246
 20
41.75877777403154
 30
0.0
 10
243.3636467914061
 20
41.76395265763136
 30
0.0
 10
243.2574311409142
 20
41.7620104633166
 30
0.0
 10
243.2041148409641
 20
41.75492206039836
 30
0.0
 10
243.1066217736634
 20
41.73018862411369
 30
0.0
 10
243.0617100831337
 20
41.71242778812764
 30
0.0
 10
243.0239568175337
 20
41.69063329180565
 30
0.0
  0
LINE
  5
254
330
1F
100
AcDbEntity
  8
0
  6
Continuous
 62
     7
370
    15
100
AcDbLine
 10
243.0239567997
 20
41.6906332526
 30
0.0
 11
242.9749373807
 21
41.6623349444
 31
0.0
  0
SPLINE
  5
255
330
1F
100
AcDbEntity
  8
0
  6
Continuous
 62
     7
370
    15
100
AcDbSpline
210
0.0
220
0.0
230
1.0
 70
     8
 71
     3
 72
    10
 73
     6
 74
     0
 42
0.000000001
 43
0.00000001
 40
0.0
 40
0.0
 40
0.0
 40
0.0
 40
0.5
 40
0.5
 40
1.0
 40
1.0
 40
1.0
 40
1.0
 10
240.2214441848836
 20
42.75010897898414
 30
0.0
 10
240.2287604693058
 20
42.75447697887732
 30
0.0
 10
240.2405843295142
 20
42.75500903146558
 30
0.0
 10
240.274735693792
 20
42.74577898182727
 30
0.0
 10
240.2969926571848
 20
42.73593810451097
 30
0.0
 10
240.3234566752065
 20
42.72066075209466
 30
0.0
  0
SPLINE
  5
256
330
1F
100
AcDbEntity
  8
0
  6
Continuous
 62
     7
370
    15
100
AcDbSpline
210
0.0
220
0.0
230
1.0
 70
     8
 71
     3
 72
    14
 73
    10
 74
     0
 42
0.000000001
 43
0.00000001
 40
0.0
 40
0.0
 40
0.0
 40
0.0
 40
0.25
 40
0.25
 40
0.5
 40
0.5
 40
0.75
 40
0.75
 40
1.0
 40
1.0
 40
1.0
 40
1.0
 10
255.2390297611331
 20
59.98653342496741
 30
0.0
 10
255.2538706532622
 20
59.94801540613182
 30
0.0
 10
255.2532368853583
 20
59.91009676797835
 30
0.0
 10
255.2203012803978
 20
59.84415581820907
 30
0.0
 10
255.1881654350559
 20
59.81588226066712
 30
0.0
 10
255.1032628596515
 20
59.76796323447962
 30
0.0
 10
255.0508459471583
 20
59.74808613703187
 30
0.0
 10
254.9395102828632
 20
59.7122292110155
 30
0.0
 10
254.8813556061522
 20
59.69635718733207
 30
0.0
 10
254.8219506504209
 20
59.68008184177734
 30
0.0
  0
LINE
  5
257
330
1F
100
AcDbEntity
  8
0
  6
Continuous
 62
     7
370
    15
100
AcDbLine
 10
255.2229027663
 20
60.0283892676
 30
0.0
 11
255.2390298628
 21
59.9865337779
 31
0.0
  0
SPLINE
  5
258
330
1F
100
AcDbEntity
  8
0
  6
Continuous
 62
     7
370
    15
100
AcDbSpline
210
0.0
220
0.0
230
1.0
 70
     8
 71
     3
 72
    10
 73
     6
 74
     0
 42
0.000000001
 43
0.00000001
 40
0.0
 40
0.0
 40
0.0
 40
0.0
 40
0.5
 40
0.5
 40
1.0
 40
1.0
 40
1.0
 40
1.0
 10
255.5139748991937
 20
60.57255986134199
 30
0.0
 10
255.4859598494559
 20
60.50053375865397
 30
0.0
 10
255.448141961006
 20
60.41958727335052
 30
0.0
 10
255.3521662131711
 20
60.23919223701061
 30
0.0
 10
255.2941344358715
 20
60.1398660300358
 30
0.0
 10
255.2229026982814
 20
60.02838956847174
 30
0.0
  0
LINE
  5
259
330
1F
100
AcDbEntity
  8
0
  6
Continuous
 62
     7
370
    15
100
AcDbLine
 10
245.9072474017
 20
39.3302292623
 30
0.0
 11
244.079393241
 21
40.3854270088
 31
0.0
  0
SPLINE
  5
25A
330
1F
100
AcDbEntity
  8
0
  6
Continuous
 62
     7
370
    15
100
AcDbSpline
210
0.0
220
0.0
230
1.0
 70
     8
 71
     3
 72
     8
 73
     4
 74
     0
 42
0.000000001
 43
0.00000001
 40
0.0000000000000004
 40
0.0000000000000004
 40
0.0000000000000004
 40
0.0000000000000004
 40
0.0011862984959128
 40
0.0011862984959128
 40
0.0011862984959128
 40
0.0011862984959128
 10
244.079392973485
 20
40.3854270686987
 30
0.0
 10
244.0683307742273
 20
40.44753551361748
 30
0.0
 10
244.0577047676536
 20
40.50932830091911
 30
0.0
 10
244.0474916398362
 20
40.57082112763699
 30
0.0
  0
LWPOLYLINE
  5
25B
330
1F
100
AcDbEntity
  8
0
  6
Continuous
 62
     7
370
    15
100
AcDbPolyline
 90
       45
 70
   128
 43
0.0
 10
265.5421588877
 20
35.1934357433
 10
265.598657726
 20
36.1382679412
 10
265.7670047513
 20
37.1290985996
 10
266.0437722394
 20
38.145756952
 10
266.4233266715
 20
39.1675471491
 10
266.8979410155
 20
40.1736680241
 10
267.4579537649
 20
41.1436385561
 10
268.0919641973
 20
42.0577121147
 10
268.7870661573
 20
42.8972813838
 10
269.5291091698
 20
43.6452545767
 10
270.3029873763
 20
44.2864058872
 10
271.0929469104
 20
44.8076825923
 10
271.8829064444
 20
45.1984737513
 10
272.6567846509
 20
45.4508231994
 10
273.3988276634
 20
45.5595946324
 10
274.0939296234
 20
45.5225730035
 10
274.7279400558
 20
45.3405123089
 10
275.2879528052
 20
45.0171187345
 10
275.7625671492
 20
44.5589759171
 10
276.1421215813
 20
43.9754099393
 10
276.4188890694
 20
43.278300527
 10
276.5872360947
 20
42.4818392068
 10
276.643734933
 20
41.602239179
 10
276.5872360947
 20
40.657406981
 10
276.4188890694
 20
39.6665763227
 10
276.1421215813
 20
38.6499179703
 10
275.7625671492
 20
37.6281277731
 10
275.2879528052
 20
36.6220068982
 10
274.7279400558
 20
35.6520363661
 10
274.0939296234
 20
34.7379628076
 10
273.3988276634
 20
33.8983935385
 10
272.6567846509
 20
33.1504203455
 10
271.8829064444
 20
32.5092690351
 10
271.0929469104
 20
31.98799233
 10
270.3029873763
 20
31.5972011709
 10
269.5291091698
 20
31.3448517229
 10
268.7870661573
 20
31.2360802899
 10
268.0919641973
 20
31.2731019187
 10
267.4579537649
 20
31.4551626134
 10
266.8979410155
 20
31.7785561878
 10
266.4233266715
 20
32.2366990052
 10
266.0437722394
 20
32.8202649829
 10
265.7670047513
 20
33.5173743952
 10
265.598657726
 20
34.3138357155
 10
265.5421588877
 20
35.1934357433
  0
LWPOLYLINE
  5
25C
330
1F
100
AcDbEntity
  8
0
  6
Continuous
 62
     7
370
    15
100
AcDbPolyline
 90
       24
 70
   128
 43
0.0
 10
265.3300258966
 20
35.1934357433
 10
265.3876050771
 20
36.1563224646
 10
265.5591684338
 20
37.1660859708
 10
265.8412246929
 20
38.2021709921
 10
266.2280316757
 20
39.2434859638
 10
266.7117151654
 20
40.2688322007
 10
267.2824286045
 20
41.257336871
 10
267.9285539509
 20
42.1888769352
 10
268.6369382597
 20
43.0444889189
 10
269.393160394
 20
43.8067548221
 10
270.1818261351
 20
44.4601568954
 10
270.9868804148
 20
44.991395151
 10
271.7919346945
 20
45.3896527818
 10
272.5806004356
 20
45.6468247912
 10
273.3368225699
 20
45.7576743794
 10
274.0452068787
 20
45.7199455096
 10
274.6913322251
 20
45.5344058912
 10
275.2620456642
 20
45.204832932
 10
275.7457291539
 20
44.7379357654
 10
276.1325361367
 20
44.1432186298
 10
276.4145923958
 20
43.4327888335
 10
276.5861557525
 20
42.6211081627
 10
276.643734933
 20
41.7247009481
 10
276.643734933
 20
41.7247009481
  0
LWPOLYLINE
  5
25D
330
1F
100
AcDbEntity
  8
0
  6
Continuous
 62
     7
370
    15
100
AcDbPolyline
 90
       13
 70
   128
 43
0.0
 10
270.9877998127
 20
31.9272730579
 10
270.9868804148
 20
31.9267415403
 10
270.1818261351
 20
31.5284839095
 10
269.393160394
 20
31.2713119002
 10
268.6369382597
 20
31.1604623119
 10
267.9285539509
 20
31.1981911818
 10
267.2824286045
 20
31.3837308002
 10
266.7117151654
 20
31.7133037594
 10
266.2280316757
 20
32.180200926
 10
265.8412246929
 20
32.7749180615
 10
265.5591684338
 20
33.4853478579
 10
265.3876050771
 20
34.2970285287
 10
265.3300258966
 20
35.1934357433
  0
SPLINE
  5
25E
330
1F
100
AcDbEntity
  8
0
  6
Continuous
 62
     7
370
    15
100
AcDbSpline
210
0.0
220
0.0
230
1.0
 70
     8
 71
     3
 72
    42
 73
    38
 74
     0
 42
0.000000001
 43
0.00000001
 40
0.0
 40
0.0
 40
0.0
 40
0.0
 40
0.0312499999999999
 40
0.0312499999999999
 40
0.0624999999999997
 40
0.0624999999999997
 40
0.1249999999999997
 40
0.1249999999999997
 40
0.1874999999999997
 40
0.1874999999999997
 40
0.2499999999999997
 40
0.2499999999999997
 40
0.3124999999999997
 40
0.3124999999999997
 40
0.3749999999999996
 40
0.3749999999999996
 40
0.4374999999999996
 40
0.4374999999999996
 40
0.4999999999999997
 40
0.4999999999999997
 40
0.5624999999999997
 40
0.5624999999999997
 40
0.6249999999999998
 40
0.6249999999999998
 40
0.6874999999999998
 40
0.6874999999999998
 40
0.7499999999999998
 40
0.7499999999999998
 40
0.7812499999999998
 40
0.7812499999999998
 40
0.8124999999999998
 40
0.8124999999999998
 40
0.8749999999999998
 40
0.8749999999999998
 40
0.9374999999999999
 40
0.9374999999999999
 40
1.0
 40
1.0
 40
1.0
 40
1.0
 10
269.6610551642579
 20
45.75677746627929
 30
0.0
 10
269.6041568374108
 20
45.72393076135219
 30
0.0
 10
269.5437444505615
 20
45.69206503258982
 30
0.0
 10
269.4157389234173
 20
45.63036815795244
 30
0.0
 10
269.3481546462301
 20
45.60059193758773
 30
0.0
 10
269.1404589066439
 20
45.51690322111619
 30
0.0
 10
268.9935797675017
 20
45.46761432922963
 30
0.0
 10
268.684076433581
 20
45.38280679362595
 30
0.0
 10
268.5267304509345
 20
45.3487286364884
 30
0.0
 10
268.2071842135059
 20
45.29700914765404
 30
0.0
 10
268.0444522275591
 20
45.27953877616938
 30
0.0
 10
267.7260892587486
 20
45.26318054022485
 30
0.0
 10
267.5688251174088
 20
45.26397880487122
 30
0.0
 10
267.2580985184409
 20
45.28482532186607
 30
0.0
 10
267.1086923015509
 20
45.30460564054689
 30
0.0
 10
266.8207676100602
 20
45.36304484599889
 30
0.0
 10
266.6812601800839
 20
45.40209863761834
 30
0.0
 10
266.4182199255599
 20
45.49894019599967
 30
0.0
 10
266.295797293294
 20
45.5561198869508
 30
0.0
 10
266.0685963086538
 20
45.68781573622196
 30
0.0
 10
265.9630014789958
 20
45.76309649499336
 30
0.0
 10
265.7749037395275
 20
45.92793486446975
 30
0.0
 10
265.6927510436182
 20
46.01682221036827
 30
0.0
 10
265.552143987452
 20
46.2065375909885
 30
0.0
 10
265.493273675699
 20
46.30842450901294
 30
0.0
 10
265.4039304445728
 20
46.51836547157501
 30
0.0
 10
265.3733805026912
 20
46.62574878376104
 30
0.0
 10
265.3495501441608
 20
46.78929857583827
 30
0.0
 10
265.3452982810932
 20
46.844229996838
 30
0.0
 10
265.3446882974987
 20
46.95475018031156
 30
0.0
 10
265.348405598873
 20
47.01052147571016
 30
0.0
 10
265.3717594613514
 20
47.1743511689314
 30
0.0
 10
265.4033337311378
 20
47.28024761629617
 30
0.0
 10
265.500937209515
 20
47.48322311677935
 30
0.0
 10
265.568480339731
 20
47.58152081230073
 30
0.0
 10
265.7348156020247
 20
47.75602858670978
 30
0.0
 10
265.8335272134202
 20
47.83333519966592
 30
0.0
 10
265.9487445630286
 20
47.8998487598139
 30
0.0
  0
SPLINE
  5
25F
330
1F
100
AcDbEntity
  8
0
  6
Continuous
 62
     7
370
    15
100
AcDbSpline
210
0.0
220
0.0
230
1.0
 70
     8
 71
     3
 72
    42
 73
    38
 74
     0
 42
0.000000001
 43
0.00000001
 40
0.0
 40
0.0
 40
0.0
 40
0.0
 40
0.0312500000000002
 40
0.0312500000000002
 40
0.0625000000000003
 40
0.0625000000000003
 40
0.1250000000000005
 40
0.1250000000000005
 40
0.1875000000000006
 40
0.1875000000000006
 40
0.2500000000000007
 40
0.2500000000000007
 40
0.3125000000000003
 40
0.3125000000000003
 40
0.3749999999999999
 40
0.3749999999999999
 40
0.4999999999999991
 40
0.4999999999999991
 40
0.5624999999999994
 40
0.5624999999999994
 40
0.6249999999999997
 40
0.6249999999999997
 40
0.6875
 40
0.6875
 40
0.7500000000000003
 40
0.7500000000000003
 40
0.8125000000000006
 40
0.8125000000000006
 40
0.8437500000000006
 40
0.8437500000000006
 40
0.8750000000000006
 40
0.8750000000000006
 40
0.9375000000000001
 40
0.9375000000000001
 40
0.9687500000000001
 40
0.9687500000000001
 40
1.0
 40
1.0
 40
1.0
 40
1.0
 10
265.9487445630286
 20
47.8998487598139
 30
0.0
 10
266.0063541188581
 20
47.933106048493
 30
0.0
 10
266.0678911235154
 20
47.96342700648623
 30
0.0
 10
266.1955529180675
 20
48.01686838889179
 30
0.0
 10
266.2620895788643
 20
48.0402384168697
 30
0.0
 10
266.4696137576627
 20
48.10068718286694
 30
0.0
 10
266.6199137647837
 20
48.12804320886683
 30
0.0
 10
266.9267492328659
 20
48.15695285914137
 30
0.0
 10
267.0858745269301
 20
48.15906088856716
 30
0.0
 10
267.4076345246363
 20
48.14196275596468
 30
0.0
 10
267.5683360688444
 20
48.12304156967164
 30
0.0
 10
267.8897264019642
 20
48.06801782558076
 30
0.0
 10
268.0471880659906
 20
48.03241368496664
 30
0.0
 10
268.3531784703492
 20
47.94916536535332
 30
0.0
 10
268.5023070728113
 20
47.90138794404782
 30
0.0
 10
268.9384006364173
 20
47.74183097514297
 30
0.0
 10
269.1999306950053
 20
47.61974454265401
 30
0.0
 10
269.543866764111
 20
47.42054131586287
 30
0.0
 10
269.647615675734
 20
47.35290179862636
 30
0.0
 10
269.8339845280133
 20
47.21485107325834
 30
0.0
 10
269.9169368771252
 20
47.14411180056432
 30
0.0
 10
270.0588062921197
 20
47.00000736099874
 30
0.0
 10
270.1164422115873
 20
46.92806378043289
 30
0.0
 10
270.2051261687489
 20
46.78273593695452
 30
0.0
 10
270.2362971032362
 20
46.70891067254407
 30
0.0
 10
270.2683735354875
 20
46.5595039805372
 30
0.0
 10
270.2691163982111
 20
46.48549523082165
 30
0.0
 10
270.2463082393076
 20
46.37394511350806
 30
0.0
 10
270.2346889140256
 20
46.33667337704251
 30
0.0
 10
270.2028269500199
 20
46.26168237369935
 30
0.0
 10
270.182393560667
 20
46.22370386767311
 30
0.0
 10
270.10846940968
 20
46.11114366336004
 30
0.0
 10
270.0427114186287
 20
46.0377325109429
 30
0.0
 10
269.9174999348078
 20
45.9291946672214
 30
0.0
 10
269.8710022916139
 20
45.89312316334789
 30
0.0
 10
269.7713391941872
 20
45.82345297656754
 30
0.0
 10
269.7179543612669
 20
45.7896246735401
 30
0.0
 10
269.6610551642579
 20
45.75677746627929
 30
0.0
  0
LWPOLYLINE
  5
260
330
1F
100
AcDbEntity
  8
0
  6
Continuous
 62
     7
370
    15
100
AcDbPolyline
 90
       42
 70
   128
 43
0.0
 10
266.3199760135
 20
35.6424600123
 10
266.3759134426
 20
36.5161015293
 10
266.5424139091
 20
37.4338492155
 10
266.8155748783
 20
38.374191843
 10
267.1889939804
 20
39.315088756
 10
267.6539185006
 20
40.2344862114
 10
268.1994508441
 20
41.1108339034
 10
268.8128042169
 20
41.9235915034
 10
269.4796022632
 20
42.6537082934
 10
270.1842157462
 20
43.2840711423
 10
270.9101290898
 20
43.7999050811
 10
271.6403275413
 20
44.189118861
 10
272.357695879
 20
44.442589876
 10
273.0454195886
 20
44.554377126
 10
273.6873789824
 20
44.5218601427
 10
274.2685268946
 20
44.3458011334
 10
274.7752423199
 20
44.0303274579
 10
275.1956475849
 20
43.5828324053
 10
275.5198888882
 20
43.0138057746
 10
275.740366626
 20
42.3365846119
 10
275.8519128704
 20
41.5670427815
 10
275.8519128704
 20
40.7232172827
 10
275.740366626
 20
39.8248868999
 10
275.5198888882
 20
38.8931075595
 10
275.1956475849
 20
37.9497198886
 10
274.7752423199
 20
37.0168352488
 10
274.2685268946
 20
36.1163203962
 10
273.6873789824
 20
35.2692822897
 10
273.0454195886
 20
34.4955747669
 10
272.357695879
 20
33.8133331232
 10
271.6403275413
 20
33.2385482855
 10
270.9101290898
 20
32.7846928785
 10
270.1842157462
 20
32.4624051106
 10
269.4796022632
 20
32.2792385486
 10
268.8128042169
 20
32.2394867014
 10
268.1994508441
 20
32.3440815708
 10
267.6539185006
 20
32.5905710259
 10
267.1889939804
 20
32.9731780563
 10
266.8155748783
 20
33.482934451
 10
266.5424139091
 20
34.1078921366
 10
266.3759134426
 20
34.8334024761
 10
266.3199760135
 20
35.6424600123
  0
LINE
  5
261
330
1F
100
AcDbEntity
  8
0
  6
Continuous
 62
     7
370
    15
100
AcDbLine
 10
244.1521774733
 20
41.170601904
 30
0.0
 11
244.1322841608
 21
40.9412561475
 31
0.0
  0
ARC
  5
262
330
1F
100
AcDbEntity
  8
0
  6
Continuous
 62
     7
370
    15
100
AcDbCircle
 10
260.1349606353
 20
39.5139559665
 30
0.0
 40
16.06296283247877
100
AcDbArc
 50
176.9225000953
 51
185.727139394
  0
LWPOLYLINE
  5
263
330
1F
100
AcDbEntity
  8
0
  6
Continuous
 62
     7
370
    15
100
AcDbPolyline
 90
        3
 70
   128
 43
0.0
 10
243.1533901007
 20
40.2704740932
 10
243.2093018465
 20
41.6581405229
 10
243.215390749
 20
41.73338015
  0
ARC
  5
264
330
1F
100
AcDbEntity
  8
0
  6
Continuous
 62
     7
370
    15
100
AcDbCircle
 10
254.8714927769
 20
39.9724574579
 30
0.0
 40
11.72189166669269
100
AcDbArc
 50
178.543158738
 51
203.8694730025
  0
SPLINE
  5
265
330
1F
100
AcDbEntity
  8
0
  6
Continuous
 62
     7
370
    15
100
AcDbSpline
210
0.0
220
0.0
230
1.0
 70
     8
 71
     3
 72
    22
 73
    18
 74
     0
 42
0.000000001
 43
0.00000001
 40
0.0
 40
0.0
 40
0.0
 40
0.0
 40
0.1249999999999998
 40
0.1249999999999998
 40
0.2499999999999997
 40
0.2499999999999997
 40
0.3749999999999995
 40
0.3749999999999995
 40
0.4999999999999993
 40
0.4999999999999993
 40
0.6249999999999991
 40
0.6249999999999991
 40
0.7499999999999994
 40
0.7499999999999994
 40
0.8749999999999997
 40
0.8749999999999997
 40
1.0
 40
1.0
 40
1.0
 40
1.0
 10
268.0412268139095
 20
32.94258393822383
 30
0.0
 10
267.9928495119106
 20
32.91067648617937
 30
0.0
 10
267.9441577073858
 20
32.88686187034415
 30
0.0
 10
267.8463822259976
 20
32.85518343495357
 30
0.0
 10
267.7969921934207
 20
32.84732363911341
 30
0.0
 10
267.6993297436973
 20
32.8487270727799
 30
0.0
 10
267.6519044669481
 20
32.85786905191209
 30
0.0
 10
267.5599247470016
 20
32.89270793308933
 30
0.0
 10
267.5149539965781
 20
32.918767396472
 30
0.0
 10
267.43026820106
 20
32.98685321310542
 30
0.0
 10
267.3907997311051
 20
33.02845431103796
 30
0.0
 10
267.317441879518
 20
33.12642981310747
 30
0.0
 10
267.2832789562742
 20
33.18350059397068
 30
0.0
 10
267.2228174939455
 20
33.30880507990842
 30
0.0
 10
267.1963038178451
 20
33.37708816979357
 30
0.0
 10
267.1503673595406
 20
33.52468108115808
 30
0.0
 10
267.1309418048486
 20
33.60431809405226
 30
0.0
 10
267.1154798982697
 20
33.68761667541312
 30
0.0
  0
LWPOLYLINE
  5
266
330
1F
100
AcDbEntity
  8
0
  6
Continuous
 62
     7
370
    15
100
AcDbPolyline
 90
        9
 70
   128
 43
0.0
 10
273.8264683569
 20
36.2823323222
 10
273.1870825551
 20
35.3836048389
 10
272.4766644962
 20
34.5827945685
 10
271.7176100443
 20
33.9051475857
 10
270.9338478256
 20
33.3720251864
 10
270.1500856069
 20
33.0002349896
 10
269.391031155
 20
32.8014963566
 10
268.6806130961
 20
32.7820753953
 10
268.0412272942
 20
32.9425837453
  0
SPLINE
  5
267
330
1F
100
AcDbEntity
  8
0
  6
Continuous
 62
     7
370
    15
100
AcDbSpline
210
0.0
220
0.0
230
1.0
 70
     8
 71
     3
 72
    22
 73
    18
 74
     0
 42
0.000000001
 43
0.00000001
 40
0.0
 40
0.0
 40
0.0
 40
0.0
 40
0.125
 40
0.125
 40
0.25
 40
0.25
 40
0.375
 40
0.375
 40
0.5
 40
0.5
 40
0.625
 40
0.625
 40
0.75
 40
0.75
 40
0.875
 40
0.875
 40
1.0
 40
1.0
 40
1.0
 40
1.0
 10
274.7522148425178
 20
38.09620991918177
 30
0.0
 10
274.7671537748232
 20
38.01262753922355
 30
0.0
 10
274.7747377656601
 20
37.92760022004671
 30
0.0
 10
274.7755145161723
 20
37.7546087801088
 30
0.0
 10
274.7686171227447
 20
37.6660897017488
 30
0.0
 10
274.7398397605433
 20
37.48829307267037
 30
0.0
 10
274.7183070878735
 20
37.40057272744822
 30
0.0
 10
274.6612811700157
 20
37.22740332555888
 30
0.0
 10
274.6253470104832
 20
37.14113433239157
 30
0.0
 10
274.5407223494873
 20
36.9752162684204
 30
0.0
 10
274.4924807206796
 20
36.89609142179982
 30
0.0
 10
274.3843901796881
 20
36.74534761597776
 30
0.0
 10
274.3238428066158
 20
36.67310840499334
 30
0.0
 10
274.1949860639709
 20
36.54117746753909
 30
0.0
 10
274.1265720967733
 20
36.4810846547606
 30
0.0
 10
273.9818549871964
 20
36.37244193653902
 30
0.0
 10
273.9052585021626
 20
36.32383676349432
 30
0.0
 10
273.8264679268779
 20
36.28233254419258
 30
0.0
  0
LWPOLYLINE
  5
268
330
1F
100
AcDbEntity
  8
0
  6
Continuous
 62
     7
370
    15
100
AcDbPolyline
 90
        9
 70
   128
 43
0.0
 10
274.7522153234
 20
43.2917503686
 10
275.0169864356
 20
42.8364660494
 10
275.2095267397
 20
42.3042870781
 10
275.326430573
 20
41.7046280199
 10
275.3656297763
 20
41.0480966705
 10
275.326430573
 20
40.3463068844
 10
275.2095267397
 20
39.6116735333
 10
275.0169864356
 20
38.8571922588
 10
274.7522153234
 20
38.0962097204
  0
SPLINE
  5
269
330
1F
100
AcDbEntity
  8
0
  6
Continuous
 62
     7
370
    15
100
AcDbSpline
210
0.0
220
0.0
230
1.0
 70
     8
 71
     3
 72
    22
 73
    18
 74
     0
 42
0.000000001
 43
0.00000001
 40
0.0
 40
0.0
 40
0.0
 40
0.0
 40
0.1249999999999998
 40
0.1249999999999998
 40
0.2499999999999997
 40
0.2499999999999997
 40
0.3749999999999995
 40
0.3749999999999995
 40
0.4999999999999993
 40
0.4999999999999993
 40
0.6249999999999991
 40
0.6249999999999991
 40
0.7499999999999994
 40
0.7499999999999994
 40
0.8749999999999997
 40
0.8749999999999997
 40
1.0
 40
1.0
 40
1.0
 40
1.0
 10
273.8264679268779
 20
44.03678340288187
 30
0.0
 10
273.9052430318604
 20
44.05114257678952
 30
0.0
 10
273.9806234739746
 20
44.05955017009203
 30
0.0
 10
274.124811741391
 20
44.06443507442491
 30
0.0
 10
274.1940241701079
 20
44.06085164454939
 30
0.0
 10
274.3236795974093
 20
44.04097905805411
 30
0.0
 10
274.3830466664182
 20
44.02494322899005
 30
0.0
 10
274.4911247257871
 20
43.98081097427931
 30
0.0
 10
274.5402401172573
 20
43.9523588605494
 30
0.0
 10
274.6249539893655
 20
43.88425683564551
 30
0.0
 10
274.6603988475506
 20
43.84497851934584
 30
0.0
 10
274.7177609394751
 20
43.75623717277507
 30
0.0
 10
274.7397548692423
 20
43.7061914023143
 30
0.0
 10
274.7684518714755
 20
43.59922414887075
 30
0.0
 10
274.7754224554924
 20
43.54222304590152
 30
0.0
 10
274.7748438665874
 20
43.42148269971814
 30
0.0
 10
274.7671567086155
 20
43.35749752268615
 30
0.0
 10
274.7522148425178
 20
43.29175066569256
 30
0.0
  0
LWPOLYLINE
  5
26A
330
1F
100
AcDbEntity
  8
0
  6
Continuous
 62
     7
370
    15
100
AcDbPolyline
 90
        9
 70
   128
 43
0.0
 10
268.0412272942
 20
40.6970344933
 10
268.6806130961
 20
41.5957619767
 10
269.391031155
 20
42.396572247
 10
270.1500856069
 20
43.0742192299
 10
270.9338478256
 20
43.6073416291
 10
271.7176100443
 20
43.979131826
 10
272.4766644962
 20
44.1778704589
 10
273.1870825551
 20
44.1972914202
 10
273.8264683569
 20
44.0367830703
  0
SPLINE
  5
26B
330
1F
100
AcDbEntity
  8
0
  6
Continuous
 62
     7
370
    15
100
AcDbSpline
210
0.0
220
0.0
230
1.0
 70
     8
 71
     3
 72
    22
 73
    18
 74
     0
 42
0.000000001
 43
0.00000001
 40
0.0
 40
0.0
 40
0.0
 40
0.0
 40
0.125
 40
0.125
 40
0.25
 40
0.25
 40
0.375
 40
0.375
 40
0.5
 40
0.5
 40
0.625
 40
0.625
 40
0.75
 40
0.75
 40
0.875
 40
0.875
 40
1.0
 40
1.0
 40
1.0
 40
1.0
 10
267.1154798982697
 20
38.88315742192391
 30
0.0
 10
267.1309387689478
 20
38.94919152374533
 30
0.0
 10
267.1500434157003
 20
39.01881182038947
 30
0.0
 10
267.1956794512163
 20
39.16500972926967
 30
0.0
 10
267.2223992407839
 20
39.24208558191398
 30
0.0
 10
267.2831695805633
 20
39.40141305816363
 30
0.0
 10
267.3166440454928
 20
39.48223955345391
 30
0.0
 10
267.3897683027729
 20
39.64611558180975
 30
0.0
 10
267.4298471033522
 20
39.72999192462984
 30
0.0
 10
267.5144998409381
 20
39.89589378033052
 30
0.0
 10
267.5587178579761
 20
39.97734140858397
 30
0.0
 10
267.6508126393049
 20
40.13731936990478
 30
0.0
 10
267.6991910189006
 20
40.21658359129163
 30
0.0
 10
267.79628330145
 20
40.36685176124009
 30
0.0
 10
267.8451541765642
 20
40.43822656093448
 30
0.0
 10
267.9433562389316
 20
40.57372184433721
 30
0.0
 10
267.9928400113015
 20
40.6379788532441
 30
0.0
 10
268.0412268139095
 20
40.69703479691312
 30
0.0
  0
LWPOLYLINE
  5
26C
330
1F
100
AcDbEntity
  8
0
  6
Continuous
 62
     7
370
    15
100
AcDbPolyline
 90
        9
 70
   128
 43
0.0
 10
267.1154803278
 20
33.687616447
 10
266.8507092156
 20
34.1429007662
 10
266.6581689114
 20
34.6750797374
 10
266.5412650782
 20
35.2747387956
 10
266.5020658749
 20
35.931270145
 10
266.5412650782
 20
36.6330599311
 10
266.6581689114
 20
37.3676932822
 10
266.8507092156
 20
38.1221745568
 10
267.1154803278
 20
38.8831570951
  0
LINE
  5
26D
330
1F
100
AcDbEntity
  8
0
  6
Continuous
 62
     7
370
    15
100
AcDbLine
 10
240.6569794152
 20
42.3611444561
 30
0.0
 11
240.2214435962
 21
42.7501086258
 31
0.0
  0
LINE
  5
26E
330
1F
100
AcDbEntity
  8
0
  6
Continuous
 62
     7
370
    15
100
AcDbLine
 10
242.1136026525
 20
41.5202537601
 30
0.0
 11
240.6569794152
 21
42.3611444561
 31
0.0
  0
LINE
  5
26F
330
1F
100
AcDbEntity
  8
0
  6
Continuous
 62
     7
370
    15
100
AcDbLine
 10
244.1521774733
 20
41.170601904
 30
0.0
 11
244.1521774733
 21
41.0254520668
 31
0.0
  0
LINE
  5
270
330
1F
100
AcDbEntity
  8
0
  6
Continuous
 62
     7
370
    15
100
AcDbLine
 10
244.1521774733
 20
40.3434088694
 30
0.0
 11
244.1521774733
 21
37.9110157449
 31
0.0
  0
LINE
  5
271
330
1F
100
AcDbEntity
  8
0
  6
Continuous
 62
     7
370
    15
100
AcDbLine
 10
244.1521774733
 20
41.3794915544
 30
0.0
 11
244.1521774733
 21
41.170601904
 31
0.0
  0
LINE
  5
272
330
1F
100
AcDbEntity
  8
0
  6
Continuous
 62
     7
370
    15
100
AcDbLine
 10
244.1521774733
 20
37.9110157449
 30
0.0
 11
244.1521774733
 21
35.0410267022
 31
0.0
  0
ARC
  5
273
330
1F
100
AcDbEntity
  8
0
  6
Continuous
 62
     7
370
    15
100
AcDbCircle
 10
274.278692185
 20
42.8110867881
 30
0.0
 40
1.306460013513537
100
AcDbArc
 50
110.2516703451
 51
120.2336532865
  0
LINE
  5
274
330
1F
100
AcDbEntity
  8
0
  6
Continuous
 62
     7
370
    15
100
AcDbLine
 10
273.1990051741
 20
43.6963131284
 30
0.0
 11
273.6208536394
 21
43.9398410638
 31
0.0
  0
LWPOLYLINE
  5
275
330
1F
100
AcDbEntity
  8
0
  6
Continuous
 62
     7
370
    15
100
AcDbPolyline
 90
        9
 70
   128
 43
0.0
 10
268.6686904771
 20
41.0810181219
 10
269.1903411979
 20
41.7247028173
 10
269.7499717445
 20
42.2979165582
 10
270.3353915115
 20
42.7881731411
 10
270.9338478256
 20
43.1847930852
 10
271.5323041396
 20
43.4791360938
 10
272.1177239066
 20
43.6647907866
 10
272.6773544533
 20
43.7377127215
 10
273.1990051741
 20
43.6963131284
  0
LINE
  5
276
330
1F
100
AcDbEntity
  8
0
  6
Continuous
 62
     7
370
    15
100
AcDbLine
 10
268.2468420118
 20
40.8374901865
 30
0.0
 11
268.6686904771
 21
41.0810181219
 31
0.0
  0
ARC
  5
277
330
1F
100
AcDbEntity
  8
0
  6
Continuous
 62
     7
370
    15
100
AcDbCircle
 10
269.1095716494
 20
39.3538015374
 30
0.0
 40
1.716285068158724
100
AcDbArc
 50
120.1769820595
 51
128.4970899924
  0
LWPOLYLINE
  5
278
330
1F
100
AcDbEntity
  8
0
  6
Continuous
 62
     7
370
    15
100
AcDbPolyline
 90
       24
 70
   128
 43
0.0
 10
271.3484467037
 20
43.399662308
 10
271.3996623686
 20
43.4004054175
 10
271.9245243171
 20
43.3281258817
 10
272.3807343177
 20
43.1112353697
 10
272.7527569763
 20
42.7571198139
 10
273.0279232135
 20
42.2778380177
 10
273.1968629288
 20
41.6897116772
 10
273.2538227482
 20
41.0127684552
 10
273.1968629288
 20
40.2700608255
 10
273.0279232135
 20
39.4868808415
 10
272.7527569763
 20
38.6898988702
 10
272.3807343177
 20
37.9062550957
 10
271.9245243171
 20
37.1626357286
 10
271.3996623686
 20
36.4843634861
 10
270.8240220287
 20
35.8945363215
 10
270.217206233
 20
35.4132404268
 10
269.5998792849
 20
35.0568651653
 10
268.9930634892
 20
34.8375464553
 10
268.4174231493
 20
34.7627534303
 10
267.8925612008
 20
34.835032966
 10
267.4363512002
 20
35.0519234781
 10
267.0643285416
 20
35.4060390338
 10
266.7891623044
 20
35.88532083
 10
266.6405330895
 20
36.3695155106
  0
LINE
  5
279
330
1F
100
AcDbEntity
  8
0
  6
Continuous
 62
     7
370
    15
100
AcDbLine
 10
267.2215369451
 20
33.6314217679
 30
0.0
 11
268.365514037
 21
34.291825686
 31
0.0
  0
LWPOLYLINE
  5
27A
330
1F
100
AcDbEntity
  8
0
  6
Continuous
 62
     7
370
    15
100
AcDbPolyline
 90
        3
 70
   128
 43
0.0
 10
273.7057640633
 20
43.614718272
 10
273.7265108495
 20
43.9132662616
 10
273.7223416042
 20
43.993162215
  0
ARC
  5
27B
330
1F
100
AcDbEntity
  8
0
  6
Continuous
 62
     7
370
    15
100
AcDbCircle
 10
268.642205869
 20
41.273668623
 30
0.0
 40
5.578542376498904
100
AcDbArc
 50
335.1873452281
 51
24.812654772
  0
ARC
  5
27C
330
1F
100
AcDbEntity
  8
0
  6
Continuous
 62
     7
370
    15
100
AcDbCircle
 10
271.3508659678
 20
38.7419246736
 30
0.0
 40
2.36260647519019
100
AcDbArc
 50
301.7912526661
 51
4.6295804276
  0
LINE
  5
27D
330
1F
100
AcDbEntity
  8
0
  6
Continuous
 62
     7
370
    15
100
AcDbLine
 10
271.4515714809
 20
36.0733687271
 30
0.0
 11
272.5955485728
 21
36.7337726451
 31
0.0
  0
ARC
  5
27E
330
1F
100
AcDbEntity
  8
0
  6
Continuous
 62
     7
370
    15
100
AcDbCircle
 10
267.6580895052
 20
39.0809189733
 30
0.0
 40
4.841060212683646
100
AcDbArc
 50
278.4027252788
 51
321.5918981885
  0
ARC
  5
27F
330
1F
100
AcDbEntity
  8
0
  6
Continuous
 62
     7
370
    15
100
AcDbCircle
 10
268.8398804757
 20
33.6873198866
 30
0.0
 40
1.724400173482568
100
AcDbArc
 50
171.017860925
 51
179.9901463351
  0
ARC
  5
280
330
1F
100
AcDbEntity
  8
0
  6
Continuous
 62
     7
370
    15
100
AcDbCircle
 10
272.2001847155
 20
36.2975942087
 30
0.0
 40
5.578542376499426
100
AcDbArc
 50
155.1873452281
 51
204.8126547719
  0
ARC
  5
281
330
1F
100
AcDbEntity
  8
0
  6
Continuous
 62
     7
370
    15
100
AcDbCircle
 10
268.4148580601
 20
38.8723599311
 30
0.0
 40
1.299422591047507
100
AcDbArc
 50
179.5239123517
 51
190.3616916501
  0
LINE
  5
282
330
1F
100
AcDbEntity
  8
0
  6
Continuous
 62
     7
370
    15
100
AcDbLine
 10
272.2633265333
 20
43.6518879285
 30
0.0
 11
273.1990051741
 21
43.6963131284
 31
0.0
  0
LWPOLYLINE
  5
283
330
1F
100
AcDbEntity
  8
0
  6
Continuous
 62
     7
370
    15
100
AcDbPolyline
 90
       21
 70
   128
 43
0.0
 10
271.2316031272
 20
43.3440776931
 10
271.7094532297
 20
43.224738851
 10
272.1269049226
 20
42.9601610665
 10
272.4539562352
 20
42.5613025731
 10
272.6787872815
 20
42.0425793393
 10
272.7932716222
 20
41.4227392963
 10
272.7932716222
 20
40.7241850237
 10
272.6787872815
 20
39.9721641745
 10
272.4539562352
 20
39.19385654
 10
272.1269049226
 20
38.4173926386
 10
271.7094532297
 20
37.6708353887
 10
271.216689399
 20
36.9811676397
 10
270.6664231083
 20
36.3733158841
 10
270.078542237
 20
35.8692490745
 10
269.4742944768
 20
35.4871855751
 10
268.8755188921
 20
35.2409343411
 10
268.3038567373
 20
35.1393957956
 10
267.7799693524
 20
35.1862390395
 10
267.3227916206
 20
35.3797716445
 10
266.9488468353
 20
35.7129987007
 10
266.7223381468
 20
36.065156384
  0
LINE
  5
284
330
1F
100
AcDbEntity
  8
0
  6
Continuous
 62
     7
370
    15
100
AcDbLine
 10
244.079393241
 20
29.8928779095
 30
0.0
 11
245.9072474017
 21
28.837680163
 31
0.0
  0
SPLINE
  5
285
330
1F
100
AcDbEntity
  8
0
  6
Continuous
 62
     7
370
    15
100
AcDbSpline
210
0.0
220
0.0
230
1.0
 70
     8
 71
     3
 72
    14
 73
    10
 74
     0
 42
0.000000001
 43
0.00000001
 40
0.0
 40
0.0
 40
0.0
 40
0.0
 40
0.25
 40
0.25
 40
0.5
 40
0.5
 40
0.75
 40
0.75
 40
1.0
 40
1.0
 40
1.0
 40
1.0
 10
245.86173985181
 20
28.71931189363803
 30
0.0
 10
245.8450650087437
 20
28.67593927553144
 30
0.0
 10
245.8247697658277
 20
28.6357089460856
 30
0.0
 10
245.7764727867573
 20
28.56193705841346
 30
0.0
 10
245.7482539389522
 20
28.52836745173635
 30
0.0
 10
245.685328590529
 20
28.47481604607373
 30
0.0
 10
245.650165414512
 20
28.45436001671407
 30
0.0
 10
245.5754824253036
 20
28.4369277232022
 30
0.0
 10
245.5369575500952
 20
28.44087503218709
 30
0.0
 10
245.5030138473979
 20
28.46047031465691
 30
0.0
  0
LINE
  5
286
330
1F
100
AcDbEntity
  8
0
  6
Continuous
 62
     7
370
    15
100
AcDbLine
 10
245.5030136849
 20
28.4604704383
 30
0.0
 11
244.0474916987
 21
29.3007253956
 31
0.0
  0
SPLINE
  5
287
330
1F
100
AcDbEntity
  8
0
  6
Continuous
 62
     7
370
    15
100
AcDbSpline
210
0.0
220
0.0
230
1.0
 70
     8
 71
     3
 72
     8
 73
     4
 74
     0
 42
0.000000001
 43
0.00000001
 40
0.0
 40
0.0
 40
0.0
 40
0.0
 40
0.0011862984959113
 40
0.0011862984959113
 40
0.0011862984959113
 40
0.0011862984959113
 10
244.0474916398362
 20
29.30072539974993
 30
0.0
 10
244.0577047676535
 20
29.49812430163888
 30
0.0
 10
244.0683307742287
 20
29.69551013861567
 30
0.0
 10
244.0793929734864
 20
29.89287763596601
 30
0.0
  0
SPLINE
  5
288
330
1F
100
AcDbEntity
  8
0
  6
Continuous
 62
     7
370
    15
100
AcDbSpline
210
0.0
220
0.0
230
1.0
 70
     8
 71
     3
 72
     9
 73
     5
 74
     0
 42
0.000000001
 43
0.00000001
 40
0.0
 40
0.0
 40
0.0
 40
0.0
 40
0.4608557346342517
 40
1.0
 40
1.0
 40
1.0
 40
1.0
 10
278.6638715776947
 20
47.55832288774709
 30
0.0
 10
278.6610471646412
 20
47.55995619446157
 30
0.0
 10
278.6549185373046
 20
47.56350026821772
 30
0.0
 10
278.6219555456104
 20
47.58253569267138
 30
0.0
 10
278.6041837376692
 20
47.59279853260438
 30
0.0
  0
ARC
  5
289
330
1F
100
AcDbEntity
  8
0
  6
Continuous
 62
     7
370
    15
100
AcDbCircle
 10
254.3792608938
 20
30.3944872571
 30
0.0
 40
9.03345261081607
100
AcDbArc
 50
197.5681558126
 51
282.0358010661
  0
SPLINE
  5
28A
330
1F
100
AcDbEntity
  8
0
  6
Continuous
 62
     7
370
    15
100
AcDbSpline
210
0.0
220
0.0
230
1.0
 70
     8
 71
     3
 72
     8
 73
     4
 74
     0
 42
0.000000001
 43
0.00000001
 40
0.0
 40
0.0
 40
0.0
 40
0.0
 40
1.0
 40
1.0
 40
1.0
 40
1.0
 10
244.3255113272357
 20
30.39011579055287
 30
0.0
 10
244.2433131464501
 20
30.2243954640494
 30
0.0
 10
244.1612787782982
 20
30.05864858871143
 30
0.0
 10
244.0793929734864
 20
29.89287763596601
 30
0.0
  0
LINE
  5
28B
330
1F
100
AcDbEntity
  8
0
  6
Continuous
 62
     7
370
    15
100
AcDbLine
 10
244.3745308282
 20
30.4184143623
 30
0.0
 11
244.3255114092
 21
30.3901160541
 31
0.0
  0
SPLINE
  5
28C
330
1F
100
AcDbEntity
  8
0
  6
Continuous
 62
     7
370
    15
100
AcDbSpline
210
0.0
220
0.0
230
1.0
 70
     8
 71
     3
 72
    12
 73
     8
 74
     0
 42
0.000000001
 43
0.00000001
 40
0.0
 40
0.0
 40
0.0
 40
0.0
 40
0.249999999999997
 40
0.249999999999997
 40
0.499999999999994
 40
0.499999999999994
 40
1.0
 40
1.0
 40
1.0
 40
1.0
 10
244.3863130150202
 20
30.751779102514
 30
0.0
 10
244.4239117995949
 20
30.73007378618971
 30
0.0
 10
244.4540893588412
 20
30.70327191561654
 30
0.0
 10
244.4926790935222
 20
30.64564821078655
 30
0.0
 10
244.501538578712
 20
30.61460008521517
 30
0.0
 10
244.4964911448737
 20
30.52241110880987
 30
0.0
 10
244.4497888577984
 20
30.46185968183502
 30
0.0
 10
244.3745307696
 20
30.41841411228307
 30
0.0
  0
LINE
  5
28D
330
1F
100
AcDbEntity
  8
0
  6
Continuous
 62
     7
370
    15
100
AcDbLine
 10
243.6014246005
 20
31.2048857685
 30
0.0
 11
244.3863131773
 21
30.7517792378
 31
0.0
  0
SPLINE
  5
28E
330
1F
100
AcDbEntity
  8
0
  6
Continuous
 62
     7
370
    15
100
AcDbSpline
210
0.0
220
0.0
230
1.0
 70
     8
 71
     3
 72
    10
 73
     6
 74
     0
 42
0.000000001
 43
0.00000001
 40
0.0
 40
0.0
 40
0.0
 40
0.0
 40
0.5
 40
0.5
 40
1.0
 40
1.0
 40
1.0
 40
1.0
 10
243.0239568175337
 20
31.19808385907376
 30
0.0
 10
243.1000942078723
 20
31.24203703894647
 30
0.0
 10
243.2036019885566
 20
31.26852370512526
 30
0.0
 10
243.4180972806424
 20
31.27235177551259
 30
0.0
 10
243.5255275250607
 20
31.24869998860919
 30
0.0
 10
243.6014244879032
 20
31.20488560457561
 30
0.0
  0
LINE
  5
28F
330
1F
100
AcDbEntity
  8
0
  6
Continuous
 62
     7
370
    15
100
AcDbLine
 10
242.9749373807
 20
31.169785845
 30
0.0
 11
243.0239567997
 21
31.1980841533
 31
0.0
  0
SPLINE
  5
290
330
1F
100
AcDbEntity
  8
0
  6
Continuous
 62
     7
370
    15
100
AcDbSpline
210
0.0
220
0.0
230
1.0
 70
     8
 71
     3
 72
     8
 73
     4
 74
     0
 42
0.000000001
 43
0.00000001
 40
0.0
 40
0.0
 40
0.0
 40
0.0
 40
1.0
 40
1.0
 40
1.0
 40
1.0
 10
242.1136023005149
 20
31.0277044360055
 30
0.0
 10
242.4007571269123
 20
31.07497610491752
 30
0.0
 10
242.6878702454975
 20
31.12233353762026
 30
0.0
 10
242.9749373751694
 20
31.16978553734356
 30
0.0
  0
LINE
  5
291
330
1F
100
AcDbEntity
  8
0
  6
Continuous
 62
     7
370
    15
100
AcDbLine
 10
240.6569794152
 20
31.8685953568
 30
0.0
 11
242.1136026525
 21
31.0277046607
 31
0.0
  0
LINE
  5
292
330
1F
100
AcDbEntity
  8
0
  6
Continuous
 62
     7
370
    15
100
AcDbLine
 10
240.6569794152
 20
31.8685953568
 30
0.0
 11
243.7986239425
 21
33.6822281381
 31
0.0
  0
ARC
  5
293
330
1F
100
AcDbEntity
  8
0
  6
Continuous
 62
     7
370
    15
100
AcDbCircle
 10
253.6264195274
 20
31.7639283464
 30
0.0
 40
9.89056252824686
100
AcDbArc
 50
194.4210541018
 51
238.0225374632
  0
ARC
  5
294
330
1F
100
AcDbEntity
  8
0
  6
Continuous
 62
     7
370
    15
100
AcDbCircle
 10
267.5890034662
 20
34.1682800275
 30
0.0
 40
1.306460013512184
100
AcDbArc
 50
290.2516703451
 51
300.2336532865
  0
ARC
  5
295
330
1F
100
AcDbEntity
  8
0
  6
Continuous
 62
     7
370
    15
100
AcDbCircle
 10
273.0278151754
 20
43.292046929
 30
0.0
 40
1.724400173493878
100
AcDbArc
 50
351.017860925
 51
359.990146335
  0
LINE
  5
296
330
1F
100
AcDbEntity
  8
0
  6
Continuous
 62
     7
370
    15
100
AcDbLine
 10
273.7057640633
 20
43.614718272
 30
0.0
 11
274.73106913
 21
43.0228222559
 31
0.0
  0
ELLIPSE
  5
297
330
1F
100
AcDbEntity
  8
0
  6
Continuous
 62
     7
370
    15
100
AcDbEllipse
 10
243.5057314235
 20
34.6678527824
 30
0.0
 11
-7.507462981948265E-5
 21
1.066811201853405
 31
0.0
210
0.0
220
0.0
230
1.0
 40
0.7174342186
 41
3.534193645557445
 42
5.104989972352354
  0
ARC
  5
298
330
1F
100
AcDbEntity
  8
0
  6
Continuous
 62
     7
370
    15
100
AcDbCircle
 10
253.4851556144
 20
34.0579268671
 30
0.0
 40
10.89981861700352
100
AcDbArc
 50
195.3652578774
 51
215.9035762319
  0
ARC
  5
299
330
1F
100
AcDbEntity
  8
0
  6
Continuous
 62
     7
370
    15
100
AcDbCircle
 10
250.9020761904
 20
32.8080940579
 30
0.0
 40
9.398897044490585
100
AcDbArc
 50
193.4589411371
 51
247.459679895
  0
SPLINE
  5
29A
330
1F
100
AcDbEntity
  8
0
  6
Continuous
 62
     7
370
    15
100
AcDbSpline
210
0.0
220
0.0
230
1.0
 70
     8
 71
     3
 72
     8
 73
     4
 74
     0
 42
0.000000001
 43
0.00000001
 40
0.0000000000000004
 40
0.0000000000000004
 40
0.0000000000000004
 40
0.0000000000000004
 40
0.0011862984959128
 40
0.0011862984959128
 40
0.0011862984959128
 40
0.0011862984959128
 10
242.1136023005154
 20
31.02770443600454
 30
0.0
 10
241.9964518315203
 20
30.89158039316976
 30
0.0
 10
241.8790120810832
 20
30.75585681800683
 30
0.0
 10
241.7613012132385
 20
30.62051504051236
 30
0.0
  0
LWPOLYLINE
  5
29B
330
1F
100
AcDbEntity
  8
0
  6
Continuous
 62
     7
370
    15
100
AcDbPolyline
 90
        9
 70
   128
 43
0.0
 10
273.1990051741
 20
35.8983486937
 10
272.6773544533
 20
35.2546639983
 10
272.1177239066
 20
34.6814502574
 10
271.5323041396
 20
34.1911936744
 10
270.9338478256
 20
33.7945737303
 10
270.3353915115
 20
33.5002307218
 10
269.7499717445
 20
33.314576029
 10
269.1903411979
 20
33.2416540941
 10
268.6686904771
 20
33.2830536872
  0
LINE
  5
29C
330
1F
100
AcDbEntity
  8
0
  6
Continuous
 62
     7
370
    15
100
AcDbLine
 10
273.6208536394
 20
36.141876629
 30
0.0
 11
273.1990051741
 21
35.8983486937
 31
0.0
  0
ARC
  5
29D
330
1F
100
AcDbEntity
  8
0
  6
Continuous
 62
     7
370
    15
100
AcDbCircle
 10
272.7581240017
 20
37.6255652781
 30
0.0
 40
1.716285068155242
100
AcDbArc
 50
300.1769820595
 51
308.4970899924
  0
LINE
  5
29E
330
1F
100
AcDbEntity
  8
0
  6
Continuous
 62
     7
370
    15
100
AcDbLine
 10
268.6686904771
 20
33.2830536872
 30
0.0
 11
268.2468420118
 21
33.0395257518
 31
0.0
  0
LINE
  5
29F
330
1F
100
AcDbEntity
  8
0
  6
Continuous
 62
     7
370
    15
100
AcDbLine
 10
240.2214435962
 20
31.6171136492
 30
0.0
 11
240.6569794152
 21
31.8685953568
 31
0.0
  0
LINE
  5
2A0
330
1F
100
AcDbEntity
  8
0
  6
Continuous
 62
     7
370
    15
100
AcDbLine
 10
241.7613014264
 20
30.6205149473
 30
0.0
 11
240.3234567503
 21
31.4505650107
 31
0.0
  0
SPLINE
  5
2A1
330
1F
100
AcDbEntity
  8
0
  6
Continuous
 62
     7
370
    15
100
AcDbSpline
210
0.0
220
0.0
230
1.0
 70
     8
 71
     3
 72
    10
 73
     6
 74
     0
 42
0.000000001
 43
0.00000001
 40
0.0
 40
0.0
 40
0.0
 40
0.0
 40
0.5
 40
0.5
 40
1.0
 40
1.0
 40
1.0
 40
1.0
 10
240.3234566752065
 20
31.4505650242076
 30
0.0
 10
240.2970472459258
 20
31.46581086321452
 30
0.0
 10
240.2747638417167
 20
31.48966828562678
 30
0.0
 10
240.2406567068952
 20
31.54759437736107
 30
0.0
 10
240.2287566768403
 20
31.58149290884192
 30
0.0
 10
240.2214441848836
 20
31.61711395129628
 30
0.0
  0
LINE
  5
2A2
330
1F
100
AcDbEntity
  8
0
  6
Continuous
 62
     7
370
    15
100
AcDbLine
 10
268.365514037
 20
34.291825686
 30
0.0
 11
268.7784464682
 21
34.0534448675
 31
0.0
  0
SPLINE
  5
2A3
330
1F
100
AcDbEntity
  8
0
  6
Continuous
 62
     7
370
    15
100
AcDbSpline
210
0.0
220
0.0
230
1.0
 70
     8
 71
     3
 72
     8
 73
     4
 74
     0
 42
0.000000001
 43
0.00000001
 40
0.0
 40
0.0
 40
0.0
 40
0.0
 40
1.0
 40
1.0
 40
1.0
 40
1.0
 10
268.7784462570642
 20
34.05344488115194
 30
0.0
 10
268.7059971332087
 20
33.79660067385089
 30
0.0
 10
268.6766230111547
 20
33.53981314574056
 30
0.0
 10
268.6686900910862
 20
33.28305383051302
 30
0.0
  0
ARC
  5
2A4
330
1F
100
AcDbEntity
  8
0
  6
Continuous
 62
     7
370
    15
100
AcDbCircle
 10
249.7675431941
 20
33.7620547718
 30
0.0
 40
9.690520540132223
100
AcDbArc
 50
198.6952195728
 51
238.2237715521
  0
ARC
  5
2A5
330
1F
100
AcDbEntity
  8
0
  6
Continuous
 62
     7
370
    15
100
AcDbCircle
 10
268.0710219364
 20
38.8425381548
 30
0.0
 40
4.841060212683718
100
AcDbArc
 50
278.4027252788
 51
321.5918981885
  0
SPLINE
  5
2A6
330
1F
100
AcDbEntity
  8
0
  6
Continuous
 62
     7
370
    15
100
AcDbSpline
210
0.0
220
0.0
230
1.0
 70
     8
 71
     3
 72
     8
 73
     4
 74
     0
 42
0.000000001
 43
0.00000001
 40
0.0
 40
0.0
 40
0.0
 40
0.0
 40
1.0
 40
1.0
 40
1.0
 40
1.0
 10
273.1990046497012
 20
35.89834875708375
 30
0.0
 10
272.7503748604442
 20
35.89372942054138
 30
0.0
 10
272.3046768799323
 20
35.87636607670517
 30
0.0
 10
271.8645036123316
 20
35.83498787113901
 30
0.0
  0
ARC
  5
2A7
330
1F
100
AcDbEntity
  8
0
  6
Continuous
 62
     7
370
    15
100
AcDbCircle
 10
273.452837591
 20
38.1070068844
 30
0.0
 40
1.299422591055402
100
AcDbArc
 50
359.5239123517
 51
10.3616916501
  0
ARC
  5
2A8
330
1F
100
AcDbEntity
  8
0
  6
Continuous
 62
     7
370
    15
100
AcDbCircle
 10
269.6675109357
 20
40.6817726069
 30
0.0
 40
5.578542376500348
100
AcDbArc
 50
335.1873452281
 51
24.8126547719
  0
LINE
  5
2A9
330
1F
100
AcDbEntity
  8
0
  6
Continuous
 62
     7
370
    15
100
AcDbLine
 10
273.7057640633
 20
38.9326189739
 30
0.0
 11
274.73106913
 21
38.3407229578
 31
0.0
  0
LINE
  5
2AA
330
1F
100
AcDbEntity
  8
0
  6
Continuous
 62
     7
370
    15
100
AcDbLine
 10
271.8645039121
 20
35.8349879086
 30
0.0
 11
271.4515714809
 21
36.0733687271
 31
0.0
  0
ELLIPSE
  5
2AB
330
1F
100
AcDbEntity
  8
0
  6
Continuous
 62
     7
370
    15
100
AcDbEllipse
 10
243.4450712518
 20
34.6328230267
 30
0.0
 11
0.3250094736511926
 21
1.213179526238669
 31
0.0
210
0.0
220
0.0
230
1.0
 40
0.5176380889
 41
3.619174351347777
 42
5.189970678142604
  0
SPLINE
  5
2AC
330
1F
100
AcDbEntity
  8
0
  6
Continuous
 62
     7
370
    15
100
AcDbSpline
210
0.0
220
0.0
230
1.0
 70
     8
 71
     3
 72
    12
 73
     8
 74
     0
 42
0.000000001
 43
0.00000001
 40
0.0
 40
0.0
 40
0.0
 40
0.0
 40
0.5000000000000003
 40
0.5000000000000003
 40
0.7500000000000001
 40
0.7500000000000001
 40
1.0
 40
1.0
 40
1.0
 40
1.0
 10
269.9789283407589
 20
66.63714632771709
 30
0.0
 10
270.0419882179885
 20
66.67355001996734
 30
0.0
 10
270.1219211712196
 20
66.70038133181892
 30
0.0
 10
270.2549003595262
 20
66.71413817332946
 30
0.0
 10
270.3005715286382
 20
66.71401703953053
 30
0.0
 10
270.3882093472757
 20
66.70124265790889
 30
0.0
 10
270.4289532581299
 20
66.68840267225413
 30
0.0
 10
270.4604669404685
 20
66.67021021067748
 30
0.0
  0
LINE
  5
2AD
330
1F
100
AcDbEntity
  8
0
  6
Continuous
 62
     7
370
    15
100
AcDbLine
 10
270.4604672647
 20
66.6702105822
 30
0.0
 11
271.1201355789
 21
66.2893921704
 31
0.0
  0
LINE
  5
2AE
330
1F
100
AcDbEntity
  8
0
  6
Continuous
 62
     7
370
    15
100
AcDbLine
 10
272.7900026073
 20
64.2145959538
 30
0.0
 11
274.1845022131
 21
64.5203709672
 31
0.0
  0
LINE
  5
2AF
330
1F
100
AcDbEntity
  8
0
  6
Continuous
 62
     7
370
    15
100
AcDbLine
 10
274.1845022131
 20
64.5203709672
 30
0.0
 11
275.6400241993
 21
63.6801160098
 31
0.0
  0
SPLINE
  5
2B0
330
1F
100
AcDbEntity
  8
0
  6
Continuous
 62
     7
370
    15
100
AcDbSpline
210
0.0
220
0.0
230
1.0
 70
     8
 71
     3
 72
    12
 73
     8
 74
     0
 42
0.000000001
 43
0.00000001
 40
0.0
 40
0.0
 40
0.0
 40
0.0
 40
0.2499999999999946
 40
0.2499999999999946
 40
0.4999999999999892
 40
0.4999999999999892
 40
1.0
 40
1.0
 40
1.0
 40
1.0
 10
275.6400241126601
 20
63.68011550112671
 30
0.0
 10
275.6716802431602
 20
63.66184080597678
 30
0.0
 10
275.6939795201703
 20
63.63801669517849
 30
0.0
 10
275.7158000907622
 20
63.58798479273079
 30
0.0
 10
275.7160808530884
 20
63.56159358431689
 30
0.0
 10
275.6927134789676
 20
63.48551835432197
 30
0.0
 10
275.6456750761626
 20
63.43845529937156
 30
0.0
 10
275.5827495816623
 20
63.40212918461958
 30
0.0
  0
LINE
  5
2B1
330
1F
100
AcDbEntity
  8
0
  6
Continuous
 62
     7
370
    15
100
AcDbLine
 10
269.9789285722
 20
66.6371467048
 30
0.0
 11
269.8871380045
 21
66.584157138
 31
0.0
  0
SPLINE
  5
2B2
330
1F
100
AcDbEntity
  8
0
  6
Continuous
 62
     7
370
    15
100
AcDbSpline
210
0.0
220
0.0
230
1.0
 70
     8
 71
     3
 72
    10
 73
     6
 74
     0
 42
0.000000001
 43
0.00000001
 40
0.0
 40
0.0
 40
0.0
 40
0.0
 40
0.4037249728883606
 40
0.8085120872973824
 40
1.0
 40
1.0
 40
1.0
 40
1.0
 10
278.6041837376692
 20
58.32619003190811
 30
0.0
 10
278.6224252840424
 20
58.36495417950916
 30
0.0
 10
278.6589563676368
 20
58.44258445752989
 30
0.0
 10
278.6728928834921
 20
58.55000432037879
 30
0.0
 10
278.654828520145
 20
58.60329617198413
 30
0.0
 10
278.6490273259403
 20
58.6204103306592
 30
0.0
  0
ARC
  5
2B3
330
1F
100
AcDbEntity
  8
0
  6
Continuous
 62
     7
370
    15
100
AcDbCircle
 10
268.5645248153
 20
56.2157189794
 30
0.0
 40
10.28493629347796
100
AcDbArc
 50
20.64885911
 51
46.5321211303
  0
LWPOLYLINE
  5
2B4
330
1F
100
AcDbEntity
  8
0
  6
Continuous
 62
     7
370
    15
100
AcDbPolyline
 90
        3
 70
   128
 43
0.0
 10
272.790002278
 20
64.8955857402
 10
272.828457326
 20
64.8481216428
 10
273.215124368
 20
64.332683157
  0
LINE
  5
2B5
330
1F
100
AcDbEntity
  8
0
  6
Continuous
 62
     7
370
    15
100
AcDbLine
 10
278.4999018977
 20
47.6530191078
 30
0.0
 11
276.6354985168
 21
48.72931627
 31
0.0
  0
LINE
  5
2B6
330
1F
100
AcDbEntity
  8
0
  6
Continuous
 62
     7
370
    15
100
AcDbLine
 10
275.8274120512
 20
48.5757762021
 30
0.0
 11
275.8764314702
 21
48.6040745103
 31
0.0
  0
SPLINE
  5
2B7
330
1F
100
AcDbEntity
  8
0
  6
Continuous
 62
     7
370
    15
100
AcDbSpline
210
0.0
220
0.0
230
1.0
 70
     8
 71
     3
 72
    10
 73
     6
 74
     0
 42
0.000000001
 43
0.00000001
 40
0.0
 40
0.0
 40
0.0
 40
0.0
 40
0.348286225286859
 40
0.7262043038763673
 40
0.9999999999999999
 40
0.9999999999999999
 40
0.9999999999999999
 40
0.9999999999999999
 10
275.4946867191226
 20
48.50460369103189
 30
0.0
 10
275.5373343787987
 20
48.50469131440659
 30
0.0
 10
275.6262581195568
 20
48.50487401606748
 30
0.0
 10
275.742215074285
 20
48.53309719006744
 30
0.0
 10
275.8022080243261
 20
48.56315036714189
 30
0.0
 10
275.8274120512416
 20
48.57577620206682
 30
0.0
  0
SPLINE
  5
2B8
330
1F
100
AcDbEntity
  8
0
  6
Continuous
 62
     7
370
    15
100
AcDbSpline
210
0.0
220
0.0
230
1.0
 70
     8
 71
     3
 72
     8
 73
     4
 74
     0
 42
0.000000001
 43
0.00000001
 40
0.0
 40
0.0
 40
0.0
 40
0.0
 40
1.0
 40
1.0
 40
1.0
 40
1.0
 10
275.8764316379959
 20
48.60407439094485
 30
0.0
 10
276.1294175916769
 20
48.64589279564268
 30
0.0
 10
276.3824408540241
 20
48.68763800021806
 30
0.0
 10
276.6354983430288
 20
48.72931605161516
 30
0.0
  0
ARC
  5
2B9
330
1F
100
AcDbEntity
  8
0
  6
Continuous
 62
     7
370
    15
100
AcDbCircle
 10
255.3612825682
 20
57.8941657763
 30
0.0
 40
1.562487995952147
100
AcDbArc
 50
79.6969630873
 51
142.7113318612
  0
ARC
  5
2BA
330
1F
100
AcDbEntity
  8
0
  6
Continuous
 62
     7
370
    15
100
AcDbCircle
 10
255.329044136
 20
57.9782432761
 30
0.0
 40
1.467909010258831
100
AcDbArc
 50
78.3821019919
 51
144.2937504163
  0
ARC
  5
2BB
330
1F
100
AcDbEntity
  8
0
  6
Continuous
 62
     7
370
    15
100
AcDbCircle
 10
255.2987286671
 20
58.0568366987
 30
0.0
 40
1.249547245185315
100
AcDbArc
 50
80.705870252
 51
142.2259793291
  0
OLE2FRAME
  5
2BC
330
1F
100
AcDbEntity
  8
0
100
AcDbOle2Frame
 70
     2
  3
Paintbrush-Bild
 10
13.8511154363
 20
38.264191557
 30
0.0
 11
51.6290888628
 21
31.9806341108
 31
0.0
 71
     2
 72
     0
 73
     1
 90
    12928
310
80552BED0767C5B32B40DDAF6807D121434000000000000000006FFBDDFB85D0
310
4940DDAF6807D121434000000000000000006FFBDDFB85D04940416F4BD60AFB
310
3F4000000000000000002BED0767C5B32B40416F4BD60AFB3F40000000000000
310
0000000000000100000000010000010000000100000000000100000000320000
310
D0CF11E0A1B11AE1000000000000000000000000000000003E000300FEFF0900
310
0600000000000000000000000100000001000000000000000010000002000000
310
01000000FEFFFFFF0000000000000000FFFFFFFFFFFFFFFFFFFFFFFFFFFFFFFF
310
FFFFFFFFFFFFFFFFFFFFFFFFFFFFFFFFFFFFFFFFFFFFFFFFFFFFFFFFFFFFFFFF
310
FFFFFFFFFFFFFFFFFFFFFFFFFFFFFFFFFFFFFFFFFFFFFFFFFFFFFFFFFFFFFFFF
310
FFFFFFFFFFFFFFFFFFFFFFFFFFFFFFFFFFFFFFFFFFFFFFFFFFFFFFFFFFFFFFFF
310
FFFFFFFFFFFFFFFFFFFFFFFFFFFFFFFFFFFFFFFFFFFFFFFFFFFFFFFFFFFFFFFF
310
FFFFFFFFFFFFFFFFFFFFFFFFFFFFFFFFFFFFFFFFFFFFFFFFFFFFFFFFFFFFFFFF
310
FFFFFFFFFFFFFFFFFFFFFFFFFFFFFFFFFFFFFFFFFFFFFFFFFFFFFFFFFFFFFFFF
310
FFFFFFFFFFFFFFFFFFFFFFFFFFFFFFFFFFFFFFFFFFFFFFFFFFFFFFFFFFFFFFFF
310
FFFFFFFFFFFFFFFFFFFFFFFFFFFFFFFFFFFFFFFFFFFFFFFFFFFFFFFFFFFFFFFF
310
FFFFFFFFFFFFFFFFFFFFFFFFFFFFFFFFFFFFFFFFFFFFFFFFFFFFFFFFFFFFFFFF
310
FFFFFFFFFFFFFFFFFFFFFFFFFFFFFFFFFFFFFFFFFFFFFFFFFFFFFFFFFFFFFFFF
310
FFFFFFFFFFFFFFFFFFFFFFFFFFFFFFFFFFFFFFFFFFFFFFFFFFFFFFFFFFFFFFFF
310
FFFFFFFFFFFFFFFFFFFFFFFFFFFFFFFFFFFFFFFFFFFFFFFFFFFFFFFFFFFFFFFF
310
FFFFFFFFFFFFFFFFFFFFFFFFFFFFFFFFFFFFFFFFFFFFFFFFFFFFFFFFFFFFFFFF
310
FDFFFFFFFEFFFFFFFEFFFFFFFEFFFFFF05000000060000000700000008000000
310
090000000A0000000B0000000C0000000D0000000E0000000F00000010000000
310
11000000120000001300000014000000150000001600000017000000FEFFFFFF
310
FFFFFFFFFFFFFFFFFFFFFFFFFFFFFFFFFFFFFFFFFFFFFFFFFFFFFFFFFFFFFFFF
310
FFFFFFFFFFFFFFFFFFFFFFFFFFFFFFFFFFFFFFFFFFFFFFFFFFFFFFFFFFFFFFFF
310
FFFFFFFFFFFFFFFFFFFFFFFFFFFFFFFFFFFFFFFFFFFFFFFFFFFFFFFFFFFFFFFF
310
FFFFFFFFFFFFFFFFFFFFFFFFFFFFFFFFFFFFFFFFFFFFFFFFFFFFFFFFFFFFFFFF
310
FFFFFFFFFFFFFFFFFFFFFFFFFFFFFFFFFFFFFFFFFFFFFFFFFFFFFFFFFFFFFFFF
310
FFFFFFFFFFFFFFFFFFFFFFFFFFFFFFFFFFFFFFFFFFFFFFFFFFFFFFFFFFFFFFFF
310
FFFFFFFFFFFFFFFFFFFFFFFFFFFFFFFFFFFFFFFFFFFFFFFFFFFFFFFFFFFFFFFF
310
FFFFFFFFFFFFFFFFFFFFFFFFFFFFFFFFFFFFFFFFFFFFFFFFFFFFFFFFFFFFFFFF
310
FFFFFFFFFFFFFFFFFFFFFFFFFFFFFFFFFFFFFFFFFFFFFFFFFFFFFFFFFFFFFFFF
310
FFFFFFFFFFFFFFFFFFFFFFFFFFFFFFFFFFFFFFFFFFFFFFFFFFFFFFFFFFFFFFFF
310
FFFFFFFFFFFFFFFFFFFFFFFFFFFFFFFFFFFFFFFFFFFFFFFFFFFFFFFFFFFFFFFF
310
FFFFFFFFFFFFFFFFFFFFFFFFFFFFFFFFFFFFFFFFFFFFFFFFFFFFFFFFFFFFFFFF
310
FFFFFFFFFFFFFFFFFFFFFFFFFFFFFFFFFFFFFFFFFFFFFFFFFFFFFFFFFFFFFFFF
310
52006F006F007400200045006E00740072007900000000000000000000000000
310
0000000000000000000000000000000000000000000000000000000000000000
310
16000500FFFFFFFFFFFFFFFF020000000A00030000000000C000000000000046
310
000000000000000000000000F00F5AD36903D20103000000C000000000000000
310
01004F006C006500000000000000000000000000000000000000000000000000
310
0000000000000000000000000000000000000000000000000000000000000000
310
0A000200FFFFFFFFFFFFFFFFFFFFFFFF00000000000000000000000000000000
310
0000000000000000000000000000000000000000000000001400000000000000
310
010043006F006D0070004F0062006A0000000000000000000000000000000000
310
0000000000000000000000000000000000000000000000000000000000000000
310
120002010100000003000000FFFFFFFF00000000000000000000000000000000
310
0000000000000000000000000000000000000000010000004D00000000000000
310
01004F006C006500310030004E00610074006900760065000000000000000000
310
0000000000000000000000000000000000000000000000000000000000000000
310
1A000200FFFFFFFFFFFFFFFFFFFFFFFF00000000000000000000000000000000
310
0000000000000000000000000000000000000000040000002426000000000000
310
FEFFFFFF02000000FEFFFFFFFFFFFFFFFFFFFFFFFFFFFFFFFFFFFFFFFFFFFFFF
310
FFFFFFFFFFFFFFFFFFFFFFFFFFFFFFFFFFFFFFFFFFFFFFFFFFFFFFFFFFFFFFFF
310
FFFFFFFFFFFFFFFFFFFFFFFFFFFFFFFFFFFFFFFFFFFFFFFFFFFFFFFFFFFFFFFF
310
FFFFFFFFFFFFFFFFFFFFFFFFFFFFFFFFFFFFFFFFFFFFFFFFFFFFFFFFFFFFFFFF
310
FFFFFFFFFFFFFFFFFFFFFFFFFFFFFFFFFFFFFFFFFFFFFFFFFFFFFFFFFFFFFFFF
310
FFFFFFFFFFFFFFFFFFFFFFFFFFFFFFFFFFFFFFFFFFFFFFFFFFFFFFFFFFFFFFFF
310
FFFFFFFFFFFFFFFFFFFFFFFFFFFFFFFFFFFFFFFFFFFFFFFFFFFFFFFFFFFFFFFF
310
FFFFFFFFFFFFFFFFFFFFFFFFFFFFFFFFFFFFFFFFFFFFFFFFFFFFFFFFFFFFFFFF
310
FFFFFFFFFFFFFFFFFFFFFFFFFFFFFFFFFFFFFFFFFFFFFFFFFFFFFFFFFFFFFFFF
310
FFFFFFFFFFFFFFFFFFFFFFFFFFFFFFFFFFFFFFFFFFFFFFFFFFFFFFFFFFFFFFFF
310
FFFFFFFFFFFFFFFFFFFFFFFFFFFFFFFFFFFFFFFFFFFFFFFFFFFFFFFFFFFFFFFF
310
FFFFFFFFFFFFFFFFFFFFFFFFFFFFFFFFFFFFFFFFFFFFFFFFFFFFFFFFFFFFFFFF
310
FFFFFFFFFFFFFFFFFFFFFFFFFFFFFFFFFFFFFFFFFFFFFFFFFFFFFFFFFFFFFFFF
310
FFFFFFFFFFFFFFFFFFFFFFFFFFFFFFFFFFFFFFFFFFFFFFFFFFFFFFFFFFFFFFFF
310
FFFFFFFFFFFFFFFFFFFFFFFFFFFFFFFFFFFFFFFFFFFFFFFFFFFFFFFFFFFFFFFF
310
FFFFFFFFFFFFFFFFFFFFFFFFFFFFFFFFFFFFFFFFFFFFFFFFFFFFFFFFFFFFFFFF
310
0100000200000000000000000000000000000000000000000000000000000000
310
0000000000000000000000000000000000000000000000000000000000000000
310
0100FEFF030A0000FFFFFFFF0A00030000000000C00000000000004607000000
310
5042727573680007000000504272757368000700000050427275736800F439B2
310
7100000000000000000000000000000000000000000000000000000000000000
310
0000000000000000000000000000000000000000000000000000000000000000
310
0000000000000000000000000000000000000000000000000000000000000000
310
0000000000000000000000000000000000000000000000000000000000000000
310
0000000000000000000000000000000000000000000000000000000000000000
310
0000000000000000000000000000000000000000000000000000000000000000
310
0000000000000000000000000000000000000000000000000000000000000000
310
0000000000000000000000000000000000000000000000000000000000000000
310
0000000000000000000000000000000000000000000000000000000000000000
310
0000000000000000000000000000000000000000000000000000000000000000
310
0000000000000000000000000000000000000000000000000000000000000000
310
0000000000000000000000000000000000000000000000000000000000000000
310
20260000424D0E260000000000003E00000028000000B40200006E0000000100
310
01000000000000000000130B0000130B00000200000002000000000000FFFFFF
310
FFFFFFFFFFFFFFFFFFFFFFFFFFFFFFFFFFFFFFFFFFFFFFFFFFFFFFFFFFFFFFFF
310
FFFFFFFFFFFFFFFFFFFFFFFFFFFFFFFFFFFFFFFFFFFFFFFFFFFFFFFFFFFFFFFF
310
FFFFFFFFFFFFFFFFFFFFFFFFFFFFFFFFFFFFFFFFFFFFFFFFF000FFFFFFFFFFFF
310
FFFFFFFFFFFFFFFFFFFFFFFFFFFFFFFFFFFFFFFFFFFFFFFFFFFFFFFFFFFFFFFF
310
FFFFFFFFFFFFFFFFFFFFFFFFFFFFFFFFFFFFFFFFFFFFFFFFFFFFFFFFFFFFFFFF
310
FFFFFFFFFFFFFFFFFFFFFFFFFFFFFFFFF000FFFFFFFFFFFFFFFFFFFFFFFFFFFF
310
FFFFFFFFFFFFFFFFFFFFFFFFFFFFFFFFFFFFFFFFFFFFFFFFFFFFFFFFFFFFFFFF
310
FFFFFFFFFFFFFFFFFFFFFFFFFFFFFFFFFFFFFFFFFFFFFFFFFFFFFFFFFFFFFFFF
310
FFFFFFFFFFFFFFFFF000FFFFFFFFFFFFFFFFFFFFFFFFFFFFFFFFFFFFFFFFFFFF
310
FFFFFFFFFFFFFFFFFFFFFFFFFFFFFFFFFFFFFFFFFFFFFFFFFFFFFFFFFFFFFFFF
310
FFFFFFFFFFFFFFFFFFFFFFFFFFFFFFFFFFFFFFFFFFFFFFFFFFFFFFFFFFFFFFFF
310
F000FFFFFFFFFFFFFFFFFFFFFFFFFFFFFFFFFFFFFFFFFFFFFFFFFFFFFFFFFFFF
310
FFFFFFFFFFFFFFFFFFFFFFFFFFFFFFFFFFFFFFFFFFFFFFFFFFFFFFFFFFFFFFFF
310
FFFFFFFFFFFFFFFFFFFFFFFFFFFFFFFFFFFFFFFFFFFFFFFFF000FFFFFFFFFFFF
310
FFFFFFFFFFFFFFFFFFFFFFFFFFFFFFFFFFFFFFFFFFFFFFFFFFFFFFFFFFFFFFFF
310
FFFFFFFFFFFFFFFFFFFFFFFFFFFFFFFFFFFFFFFFFFFFFFFFFFFFFFFFFFFFFFFF
310
FFFFFFFFFFFFFFFFFFFFFFFFFFFFFFFFF000FFFFFFFFFFFFFFFFFFFFFFFFFFFF
310
FFFFFFFFFFFFFFFFFFFFFFFFFFFFFFFFFFFFFFFFFFFFFFFFFFFFFFFFFFFFFFFF
310
FFFFFFFFFFFFFFFFFFFFFFFFFFFFFFFFFFFFFFFFFFFFFFFFFFFFFFFFFFFFFFFF
310
FFFFFFFFFFFFFFFFF000FFFFFFFFFFFFFFFFFFFFFFFFFFFFFFFFFFFFFFFFFFFF
310
FFFFFFFFFFFFFFFFFFFFFFFFFFFFFFFFFFFFFFFFFFFFFFFFFFFFFFFFFFFFFFFF
310
FFFFFFFFFFFFFFFFFFFFFFFFFFFFFFFFFFFFFFFFFFFFFFFFFFFFFFFFFFFFFFFF
310
F000FFFFFFFFFFFFFFFFFFFFFFFFFFFFFFFFFFFFFFFFFFFFFFFFFFFFFFFFFFFF
310
FFFFFFFFFFFFFFFFFFFFFFFFFFFFFFFFFFFFFFFFFFFFFFFFFFFFFFFFFFFFFFFF
310
FFFFFFFFFFFFFFFFFFFFFFFFFFFFFFFFFFFFFFFFFFFFFFFFF000FFFFFFFFFFFF
310
FFFFFFFFFFFFFFFFFFFFFFFFFFFFFFFFFFFFFFFFFFFFFFFFFFFFFFFFFFFFFFFF
310
FFFFFFFFFFFFFFFFFFFFFFFFFFFFFFFFFFFFFFFFFFFFFFFFFFFFFFFFFFFFFFFF
310
FFFFFFFFFFFFFFFFFFFFFFFFFFFFFFFFF000FFFFFFFFFFFFFFFFFFFFFFFFFFFF
310
FFFFFFFFFFFFFFFFFFFFFFFFFFFFFFFFFFFFFFFFFFFFFFFFFFFFFFFFFFFFFFFF
310
FFFFFFFFFFFFFFFFFFFFFFFFFFFFFFFFFFFFFFFFFFFFFFFFFFFFFFFFFFFFFFFF
310
FFFFFFFFFFFFFFFFF000FFFFFFFFFFFFFFFFFFFFFFFFFFFFFFFFFFFFFFFFFFFF
310
FFFFFFFFFFFFFFFFFFFFFFFFFFFFFFFFFFFFFFFFFFFFFFFFFFFFFFFFFFFFFFFF
310
FFFFFFFFFFFFFFFFFFFFFFFFFFFFFFFFFFFFFFFFFFFFFFFFFFFFFFFFFFFFFFFF
310
F000FFFFFFFFFFFFFFFFFFFFFFFFFFFFFFFFFFFFFFFFFFFFFFFFFFFFFFFFFFFF
310
FFFFFFFFFFFFFFFFFFFFFFFFFFFFFFFFFFFFFFFFFFFFFFFFFFFFFFFFFFFFFFFF
310
FFFFFFFFFFFFFFFFFFFFFFFFFFFFFFFFFFFFFFFFFFFFFFFFF000FFFFFFFFFFFF
310
FFFFFFFFFFFFFFFFFFFFFFFFFFFFFFFFFFFFFFFFFFFFFFFFFFFFFFFFFFFFFFFF
310
FFFFFFFFFFFFFFFFFFFFFFFFFFFFFFFFFFFFFFFFFFFFFFFFFFFFFFFFFFFFFFFF
310
FFFFFFFFFFFFFFFFFFFFFFFFFFFFFFFFF000FFFFFFFFFFFFFFFFFFFFFFFFFFFF
310
FFFFFFFFFFFFFFFFFFFFFFFFFFFFFFFFFFFFFFFFFFFFFFFFFFFFFFFFFFFFFFFF
310
FFFFFFFFFFFFFFFFFFFFFFFFFFFFFFFFFFFFFFFFFFFFFFFFFFFFFFFFFFFFFFFF
310
FFFFFFFFFFFFFFFFF000FFFFFFFFFFFFFFFFFFFFFFFFFFFFFFFFFFFFFFFFFFFF
310
FFFFFFFFFFFFFFFFFFFFFFFFFFFFFFFFFFFFFFFFFFFFFFFFFFFFFFFFFFFFFFFF
310
FFFFFFFFFFFFFFFFFFFFFFFFFFFFFFFFFFFFFFFFFFFFFFFFFFFFFFFFFFFFFFFF
310
F000FFFFFFFFFFFFFFFFFFFFFFFFFFFFFFFFFFFFFFFFFFFFFFFFFFFFFFFFFFFF
310
FFFFFFFFFFFFFFFFFFFFFFFFFFFFFFFFFFFFFFFFFFFFFFFFFFFFFFFFFFFFFFFF
310
FFFFFFFFFFFFFFFFFFFFFFFFFFFFFFFFFFFFFFFFFFFFFFFFF000FFFFFFFFFFFF
310
FFFFFFFFFFFFFFFFFFFFFFFFFFFFFFFFFFFFFFFFFFFFFFFFFFFFFFFFFFFFFFFF
310
FFFFFFFFFFFFFFFFFFFFFFFFFFFFFFFFFFFFFFFFFFFFFFFFFFFFFFFFFFFFFFFF
310
FFFFFFFFFFFFFFFFFFFFFFFFFFFFFFFFF000FFFFFFFFFFFFFFFFFFFFFFFFFFFF
310
FFFFFFFFFFFFFFFFFFFFFFFFFFFFFFFFFFFFFFFFFFFFFFFFFFFFFFFFFFFFFFFF
310
FFFFFFFFFFFFFFFFFFFFFFFFFFFFFFFFFFFFFFFFFFFFFFFFFFFFFFFFFFFFFFFF
310
FFFFFFFFFFFFFFFFF000FFFFF80003FFFFFFFFFFFFFFFFFFFFFFFFFFFFFFFFFF
310
FFFFF00007FFFFFFFFFF00007FFFFFF800000000000000007FFFFFFFFFFFFFFF
310
FFFFFFFC001FFFFFFFFFFFFFFC001FFFFFFFFFFFFFFFFFFFFFFFFFFE0007FFFF
310
F000FFFF8000007FFFFFFFF8000FFFFFC0007FFFFF80007FFFFF0000007FFFFF
310
FFF8000007FFFFF800000000000000007FFFFFF0001FFFFFFFFFFFC00001FFFF
310
FFFFFFFFC00001FFFFFFFF000000000003FFFFE000007FFFF000FFFE0000000F
310
FFFFFFF0000FFFFF80007FFFFF80007FFFFC0000001FFFFFFFC0000001FFFFF8
310
00000000000000007FFFFFF0001FFFFFFFFFFE0000003FFFFFFFFFFE0000003F
310
FFFFFF000000000003FFFF0000000FFFF000FFF800000003FFFFFFF00007FFFF
310
80007FFFFF80007FFFF000000007FFFFFF000000003FFFF80000000000000000
310
7FFFFFF0001FFFFFFFFFF80000000FFFFFFFFFF80000000FFFFFFF0000000000
310
03FFFC00000003FFF000FFE000000000FFFFFFF00007FFFF80003FFFFF80007F
310
FFC000000001FFFFFC000000001FFFF800000000000000007FFFFFF0001FFFFF
310
FFFFE000000003FFFFFFFFE000000003FFFFFF000000000003FFF000000000FF
310
F000FF80000000007FFFFFF00007FFFF80003FFFFF80007FFF8000000000FFFF
310
F80000000007FFF800000000000000007FFFFFF0001FFFFFFFFFC000000001FF
310
FFFFFFC000000001FFFFFF000000000003FFC0000000007FF000FF0000000000
310
3FFFFFE00007FFFF00003FFFFF80007FFE00000000003FFFF00000000003FFF8
310
00000000000000007FFFFFF0001FFFFFFFFF8000000000FFFFFFFF8000000000
310
FFFFFF000000000003FF80000000003FF000FE00000000001FFFFFE00003FFFF
310
00003FFFFF80007FFC00000000001FFFE00000000001FFF8000001FFFE000000
310
7FFFFFF0001FFFFFFFFE00000000003FFFFFFE00000000003FFFFF0000000000
310
03FF00000000001FF000FC00000000000FFFFFE00003FFFF00001FFFFF80007F
310
F800000000001FFFC00000000000FFF8000001FFFE0000007FFFFFF0001FFFFF
310
FFFC00000000001FFFFFFC00000000001FFFFF000000000003FE00000000000F
310
F000F8000000000007FFFFE00003FFFF00001FFFFF80007FF800000000000FFF
310
800000000000FFF8000001FFFE0000007FFFFFF0001FFFFFFFF800000000000F
310
FFFFF800000000000FFFFF000000000003FC000000000007F000F80000000000
310
03FFFFC00003FFFE00001FFFFF80007FF0000000000007FF0000000000007FF8
310
000001FFFE0000007FFFFFF0001FFFFFFFF0000000000007FFFFF00000000000
310
07FFFF000000000003F8000000000003F000F0000000000003FFFFC00001FFFE
310
00001FFFFF80007FE0000000000007FE0000000000003FF8000001FFFE000000
310
7FFFFFF0001FFFFFFFF0000000000007FFFFF0000000000007FFFF0000000000
310
03F800001F800003F000E00001FFF00001FFFFC00001FFFE00000FFFFF80007F
310
E00001FFE00003FE00001FFF00003FF8000001FFFE0000007FFFFFF0001FFFFF
310
FFE000003E000003FFFFE000003E000003FFFF000000000003F00001FFF80001
310
F000E00007FFFC0001FFFFC00001FFFE00000FFFFF80007FC0000FFFFC0003FC
310
0000FFFFC0001FF8000001FFFE0000007FFFFFF0001FFFFFFFC00003FFE00001
310
FFFFC00003FFE00001FFFF0001FFFFFFFFF00007FFFE0001F000E0000FFFFF00
310
00FFFF800001FFFC00000FFFFF80007FC0001FFFFE0001FC0001FFFFE0001FF8
310
000001FFFE0000007FFFFFF0001FFFFFFF80000FFFF80000FFFF80000FFFF800
310
00FFFF0003FFFFFFFFE0000FFFFF8000F000C0003FFFFF8000FFFF800000FFFC
310
000007FFFF80007F80003FFFFF0001FC0003FFFFF0001FF8000001FFFE000000
310
7FFFFFF0001FFFFFFF80003FFFFE0000FFFF80003FFFFE0000FFFF0003FFFFFF
310
FFE0003FFFFF8000F000C0003FFFFF8000FFFF800000FFFC000007FFFF80007F
310
80007FFFFF8001F80007FFFFF8000FF8000001FFFE0000007FFFFFF0001FFFFF
310
FF00007FFFFF00007FFF00007FFFFF00007FFF0003FFFFFFFFE0003FFFFFC000
310
F000C0007FFFFFC000FFFF000000FFFC000007FFFF80007F8000FFFFFF8000F8
310
000FFFFFF8000FF8000001FFFE0000007FFFFFF0001FFFFFFF0000FFFFFF8000
310
7FFF0000FFFFFF80007FFF0003FFFFFFFFC0007FFFFFC00070008000FFFFFFC0
310
00FFFF000000FFF8000007FFFF80007F8000FFFFFF8000F8000FFFFFF8000FF8
310
000001FFFE0000007FFFFFF0001FFFFFFE0001FFFFFFC0003FFE0001FFFFFFC0
310
003FFF0003FFFFFFFFC0007FFFFFE00070008000FFFFFFC0007FFF0000007FF8
310
000003FFFF80007F0001FFFFFF8000F8000FFFFFF8000FF8000001FFFE000000
310
7FFFFFF0001FFFFFFE0001FFFFFFC0003FFE0001FFFFFFC0003FFF0003FFFFFF
310
FFC000FFFFFFE00070008000FFFFFFC0007FFF0000007FF8000003FFFF80007F
310
0001FFFFFF8000F8001FFFFFF8000FF8000001FFFE0000007FFFFFF0001FFFFF
310
FE0003FFFFFFE0003FFE0003FFFFFFE0003FFF0003FFFFFFFFC000FFFFFFE000
310
70008000FFFFFFC0007FFE0000007FF8000003FFFF80007F0001FFFFFF8000F0
310
001FFFFFF8000FF8000001FFFE0000007FFFFFF0001FFFFFFC0003FFFFFFE000
310
1FFC0003FFFFFFE0001FFF0003FFFFFFFFC000FFFFFFC00070008000FFFFFF80
310
007FFE0000007FF0000003FFFF80007F0001FFFFFF0000F0001FFFFFF8000FF8
310
000001FFFE0000007FFFFFF0001FFFFFFC0007FFFFFFF0001FFC0007FFFFFFF0
310
001FFF0003FFFFFFFFC000FFFFFFC00070008001FFFFFF0000FFFE0000003FF0
310
000001FFFF80007F0001FFFFFF0000F8001FFFFFF0000FF8000001FFFE000000
310
7FFFFFF0001FFFFFFC0007FFFFFFF0001FFC0007FFFFFFF0001FFF0003FFFFFF
310
FFC001FFFFFF80007000FFFFFFFFFE0000FFFE0008003FF0008001FFFF80007F
310
FFFFFFFFFC0000FFFFFFFFFFE0000FF8000001FFFE0000007FFFFFF0001FFFFF
310
F8000FFFFFFFF8000FF8000FFFFFFFF8000FFF0003FFFFFFFFFFFFFFFFFF0000
310
7000FFFFFFFFFC0000FFFC0008003FF0008001FFFF80007FFFFFFFFFF80001FF
310
FFFFFFFF80000FF8000001FFFE0000007FFFFFF0001FFFFFF8000FFFFFFFF800
310
0FF8000FFFFFFFF8000FFF0003FFFFFFFFFFFFFFFFFE0000F000FFFFFFFFE000
310
00FFFC000C003FE000C001FFFF80007FFFFFFFFFC00001FFFFFFFFFE00001FF8
310
000001FFFE0000007FFFFFF0001FFFFFF8000FFFFFFFF8000FF8000FFFFFFFF8
310
000FFF0003FFFFFFFFFFFFFFFFF00000F000FFFFFFFE000001FFFC000C001FE0
310
00C000FFFF80007FFFFFFFFE000001FFFFFFFFE000001FF80FFFFFFFFFFFFFC0
310
7FFFFFF0001FFFFFF8000FFFFFFFF8000FF8000FFFFFFFF8000FFF0003FFFFFF
310
FFFFFFFFFF800000F000FFFFFFC0000001FFFC001C001FE001C000FFFF80007F
310
FFFFFF80000003FFFFFFF80000001FF80FFFFFFFFFFFFFC07FFFFFF0001FFFFF
310
F8001FFFFFFFFC000FF8001FFFFFFFFC000FFF0003FFFFFFFFFFFFFFF0000001
310
F000FFFFF800000001FFF8001C001FE001C000FFFF80007FFFFFF800000003FF
310
FFFF800000003FF80FFFFFFFFFFFFFC07FFFFFF0001FFFFFF8001FFFFFFFFC00
310
0FF8001FFFFFFFFC000FFF0003FFFFFFFFFFFFFE00000001F000FFFFC0000000
310
03FFF8001E001FC001E000FFFF80007FFFFF8000000007FFFFFC000000003FF8
310
0FFFFFFFFFFFFFC07FFFFFF0001FFFFFF8001FFFFFFFFC000FF8001FFFFFFFFC
310
000FFF0003FFFFFFFFFFFFE000000003F000FFFE0000000007FFF8001E000FC0
310
01E0007FFF80007FFFFE0000000007FFFFE0000000007FF80FFFFFFFFFFFFFC0
310
7FFFFFF0001FFFFFF0001FFFFFFFFC0007F0001FFFFFFFFC0007FF0003FFFFFF
310
FFFFFF0000000003F000FFF80000000007FFF8001E000FC003E0007FFF80007F
310
FFF0000000000FFFFF8000000000FFF80FFFFFFFFFFFFFC07FFFFFF0001FFFFF
310
F0001FFFFFFFFC0007F0001FFFFFFFFC0007FF0003FFFFFFFFFFFC0000000007
310
F000FFE0000000000FFFF0003E000FC003E0007FFF80007FFFC0000000001FFF
310
FE0000000001FFF80FFFFFFFFFFFFFC07FFFFFF0001FFFFFF0001FFFFFFFFC00
310
07F0001FFFFFFFFC0007FF0003FFFFFFFFFFF0000000000FF000FFC000000000
310
1FFFF0003F000F8003F0003FFF80007FFF80000000003FFFF80000000003FFF8
310
0FFFFFFFFFFFFFC07FFFFFF0001FFFFFF0001FFFFFFFFC0007F0001FFFFFFFFC
310
0007FF0003FFFFFFFFFFE0000000001FF000FF00000000007FFFF0003F000780
310
03F0003FFF80007FFF00000000007FFFF00000000007FFF80FFFFFFFFFFFFFC0
310
7FFFFFF0001FFFFFF0001FFFFFFFFC0007F0001FFFFFFFFC0007FF0003FFFFFF
310
FFFF80000000007FF000FE0000000000FFFFE0003F00078007F0003FFF80007F
310
FE0000000001FFFFE0000000001FFFF80FFFFFFFFFFFFFC07FFFFFF0001FFFFF
310
F0001FFFFFFFFC0007F0001FFFFFFFFC0007FF0003FFFFFFFFFF0000000000FF
310
F000FC0000000003FFFFE0007F00078007F0003FFF80007FFC0000000007FFFF
310
C0000000007FFFF80FFFFFFFFFFFFFC07FFFFFF0001FFFFFF8001FFFFFFFFC00
310
0FF8001FFFFFFFFC000FFF0003FFFFFFFFFE0000000003FFF000FC000000000F
310
FFFFE0007F80070007F8001FFF80007FF8000000001FFFFF8000000001FFFFF8
310
0FFFFFFFFFFFFFC07FFFFFF0001FFFFFF8001FFFFFFFFC000FF8001FFFFFFFFC
310
000FFF0003FFFFFFFFFC000000000FFFF000F8000000007FFFFFE0007F800700
310
07F8001FFF80007FF000000000FFFFFF800000000FFFFFF80FFFFFFFFFFFFFC0
310
7FFFFFF0001FFFFFF8000FFFFFFFF8000FF8000FFFFFFFF8000FFF0003FFFFFF
310
FFFC000000007FFFF000F800000007FFFFFFC0007F8003000FF8001FFF80007F
310
F000000007FFFFFF000000007FFFFFF80FFFFFFFFFFFFFC07FFFFFF0001FFFFF
310
F8000FFFFFFFF8000FF8000FFFFFFFF8000FFF0003FFFFFFFFF80000000FFFFF
310
F000F0000000FFFFFFFFC000FF8003000FF8001FFF80007FE0000000FFFFFFFF
310
0000000FFFFFFFF8000001FFFE0000007FFFFFF0001FFFFFF8000FFFFFFFF800
310
0FF8000FFFFFFFF8000FFF0003FFFFFFFFF8000000FFFFFFF000F000000FFFFF
310
FFFFC000FFC002000FF8000FFF80007FE000001FFFFFFFFE000001FFFFFFFFF8
310
000001FFFE0000007FFFFFF0001FFFFFF8000FFFFFFFF8000FF8000FFFFFFFF8
310
000FFF0003FFFFFFFFF000001FFFFFFFF000E00000FFFFFFFFFFC000FFC00200
310
0FFC000FFF80007FE00001FFFFFFFFFE00001FFFFFFFFFF8000001FFFE000000
310
7FFFFFF0001FFFFFFC000FFFFFFFF8001FFC000FFFFFFFF8001FFF0003FFFFFF
310
FFF00001FFFFFFFFF000E00007FFFFFFFFFF8000FFC000001FFC000FFF80007F
310
C0000FFFFFFFFFFE0000FFFFFFFFFFF8000001FFFE0000007FFFFFF0001FFFFF
310
FC0007FFFFFFF0001FFC0007FFFFFFF0001FFF0003FFFFFFFFF00007FFFFFFFF
310
F000E0001FFFFFFFFFFF8000FFC000001FFC000FFF80007FC0003FFFFFFFFFFE
310
0001FFFFFFFFFFF8000001FFFE0000007FFFFFF0001FFFFFFC0007FFFFFFF000
310
1FFC0007FFFFFFF0001FFF0003FFFFFFFFF0001FFFFFFFFFF000E0003FFFFF00
310
03FF8001FFE000001FFC0007FF80007FC0007FFFFF0007FC0003FFFFF0003FF8
310
000001FFFE0000007FFFFFF0001FFFFFFC0003FFFFFFE0001FFC0003FFFFFFE0
310
001FFF0003FFFFFFFFF0003FFFFFFFFFF000E0003FFFFF0001FF8001FFE00000
310
1FFE0007FF80007FC0007FFFFE0003FC0007FFFFE0003FF8000001FFFE000000
310
7FFFFFF0001FFFFFFE0003FFFFFFE0003FFE0003FFFFFFE0003FFF0003FFFFFF
310
FFF0003FFFFF8001F000E0003FFFFF0001FF0001FFE000001FFE0007FF80007F
310
C0007FFFFE0003FC0007FFFFE0003FF8000001FFFE0000007FFFFFF0001FFFFF
310
FE0001FFFFFFC0003FFE0001FFFFFFC0003FFF0003FFFFFFFFF0003FFFFF0001
310
F000E0003FFFFF0003FF0001FFE000003FFE0007FF80007FC0007FFFFE0003FC
310
0007FFFFE0003FF8000001FFFE0000007FFFFFF0001FFFFFFF0001FFFFFFC000
310
7FFF0001FFFFFFC0007FFF0003FFFFFFFFF0003FFFFF0001F000E0003FFFFE00
310
03FF0003FFF000003FFE0003FF80007FC0007FFFFC0003FE0007FFFFE0003FF8
310
000001FFFE0000007FFFFFF0001FFFFFFF0000FFFFFF80007FFF0000FFFFFF80
310
007FFF0003FFFFFFFFF0003FFFFF0001F000E0003FFFFE0003FF0003FFF00000
310
3FFF0003FF80007FC0007FFFFC0007FE0007FFFFC0003FF8000001FFFE000000
310
7FFFFFF0001FFFFFFF80007FFFFF0000FFFF80007FFFFF0000FFFF0003FFFFFF
310
FFF0003FFFFF0003F000E0003FFFFC0003FE0003FFF000003FFF0003FF80007F
310
E0003FFFF80007FE0003FFFFC0007FF8000001FFFE0000007FFFFFF0001FFFFF
310
FF80003FFFFE0000FFFF80003FFFFE0000FFFF0003FFFFFFFFF0001FFFFE0003
310
F000F0001FFFF80003FE0003FFF000007FFF0001FF80007FE0003FFFF00007FE
310
0001FFFF80007FF8000001FFFE0000007FFFFFF0001FFFFFFFC0000FFFF80001
310
FFFFC0000FFFF80001FFFF0003FFFFFFFFF0001FFFFC0003F000F0000FFFF000
310
07FE0007FFF800007FFF0001FF80007FE0001FFFE00007FF0000FFFE00007FF8
310
000001FFFE0000007FFFFFF0001FFFFFFFC00003FFE00001FFFFC00003FFE000
310
01FFFF0003FFFFFFFFF8000FFFF80003F000F00003FFC00007FC0007FFF80000
310
7FFF8001FF80007FF00007FF80000FFF00007FF80000FFF8000001FFFE000000
310
7F80000000000001FFE000003E000003FFFFE000003E000003FFFF0003FFFFFF
310
FFF80003FFE00007F000F800000000000FFC0007FFF800007FFF8001FF80007F
310
F000000000000FFF000000000000FFF8000001FFFE0000007F80000000000001
310
FFF0000000000007FFFFF0000000000007FFFF0003FFFFFFFFFC00007E000007
310
F000F800000000000FFC0007FFF80000FFFF8000FF80007FF800000000001FFF
310
800000000001FFF8000001FFFE0000007F80000000000001FFF800000000000F
310
FFFFF800000000000FFFFF0003FFFFFFFFFC00000000000FF000FC0000000000
310
1FFC0007FFFC0000FFFF8000FF80007FF800000000003FFFC00000000001FFF8
310
000001FFFE0000007F80000000000001FFF800000000000FFFFFF80000000000
310
0FFFFF0003FFFFFFFFFE00000000001FF000FE00000000003FF8000FFFFC0000
310
FFFF8000FF80007FFC00000000003FFFC00000000003FFF8000001FFFE000000
310
7F80000000000001FFFC00000000001FFFFFFC00000000001FFFFF0003FFFFFF
310
FFFF00000000001FF000FF00000000003FF8000FFFFC0000FFFFC000FF80007F
310
FE00000000007FFFE00000000007FFF8000001FFFE0000007F80000000000001
310
FFFE00000000003FFFFFFE00000000003FFFFF0003FFFFFFFFFF80000000003F
310
F000FF80000000007FF8000FFFFC0001FFFFC0007F80007FFF0000000000FFFF
310
F0000000000FFFF800000000000000007F80000000000001FFFF8000000000FF
310
FFFFFF8000000000FFFFFF0003FFFFFFFFFFC0000000007FF000FFC000000000
310
FFF8000FFFFE0001FFFFC0007F80007FFF8000000001FFFFF8000000001FFFF8
310
00000000000000007F80000000000001FFFFC000000001FFFFFFFFC000000001
310
FFFFFF0003FFFFFFFFFFE000000000FFF000FFE000000003FFF0001FFFFE0001
310
FFFFC0007F80007FFFC000000007FFFFFE000000003FFFF80000000000000000
310
7F80000000000001FFFFE000000003FFFFFFFFE000000003FFFFFF0003FFFFFF
310
FFFFF000000003FFF000FFF80000000FFFF0001FFFFE0001FFFFE0007F80007F
310
FFF00000000FFFFFFF00000000FFFFF800000000000000007F80000000000001
310
FFFFF80000000FFFFFFFFFF80000000FFFFFFF0003FFFFFFFFFFFC0000000FFF
310
F000FFFE0000003FFFF0001FFFFE0003FFFFE0003F80007FFFFC0000003FFFFF
310
FFC0000003FFFFF800000000000000007F80000000000001FFFFFE0000003FFF
310
FFFFFFFE0000003FFFFFFF0003FFFFFFFFFFFF0000003FFFF000FFFF800000FF
310
FFF0001FFFFF0003FFFFE0003F80007FFFFF000001FFFFFFFFF800001FFFFFF8
310
00000000000000007F80000000000001FFFFFFC00001FFFFFFFFFFFFC00001FF
310
FFFFFF0003FFFFFFFFFFFFC00000FFFFF000FFFFF8000FFFFFFFFFFFFFFFFFFF
310
FFFFFFFFFFFFFFFFFFFFF0001FFFFFFFFFFF0000FFFFFFF80000000000000000
310
7FFFFFFFFFFFFFFFFFFFFFFC001FFFFFFFFFFFFFFC001FFFFFFFFFFFFFFFFFFF
310
FFFFFFFC001FFFFFF000FFFFFFFFFFFFFFFFFFFFFFFFFFFFFFFFFFFFFFFFFFFF
310
FFFFFFFFFFFFFFFFFFFFFFFFFFFFFFFFFFFFFFFFFFFFFFFFFFFFFFFFFFFFFFFF
310
FFFFFFFFFFFFFFFFFFFFFFFFFFFFFFFFFFFFFFFFFFFFFFFFFFFFFFFFFFFFFFFF
310
F000FFFFFFFFFFFFFFFFFFFFFFFFFFFFFFFFFFFFFFFFFFFFFFFFFFFFFFFFFFFF
310
FFFFFFFFFFFFFFFFFFFFFFFFFFFFFFFFFFFFFFFFFFFFFFFFFFFFFFFFFFFFFFFF
310
FFFFFFFFFFFFFFFFFFFFFFFFFFFFFFFFFFFFFFFFFFFFFFFFF000FFFFFFFFFFFF
310
FFFFFFFFFFFFFFFFFFFFFFFFFFFFFFFFFFFFFFFFFFFFFFFFFFFFFFFFFFFFFFFF
310
FFFFFFFFFFFFFFFFFFFFFFFFFFFFFFFFFFFFFFFFFFFFFFFFFFFFFFFFFFFFFFFF
310
FFFFFFFFFFFFFFFFFFFFFFFFFFFFFFFFF000FFFFFFFFFFFFFFFFFFFFFFFFFFFF
310
FFFFFFFFFFFFFFFFFFFFFFFFFFFFFFFFFFFFFFFFFFFFFFFFFFFFFFFFFFFFFFFF
310
FFFFFFFFFFFFFFFFFFFFFFFFFFFFFFFFFFFFFFFFFFFFFFFFFFFFFFFFFFFFFFFF
310
FFFFFFFFFFFFFFFFF000FFFFFFFFFFFFFFFFFFFFFFFFFFFFFFFFFFFFFFFFFFFF
310
FFFFFFFFFFFFFFFFFFFFFFFFFFFFFFFFFFFFFFFFFFFFFFFFFFFFFFFFFFFFFFFF
310
FFFFFFFFFFFFFFFFFFFFFFFFFFFFFFFFFFFFFFFFFFFFFFFFFFFFFFFFFFFFFFFF
310
F000FFFFFFFFFFFFFFFFFFFFFFFFFFFFFFFFFFFFFFFFFFFFFFFFFFFFFFFFFFFF
310
FFFFFFFFFFFFFFFFFFFFFFFFFFFFFFFFFFFFFFFFFFFFFFFFFFFFFFFFFFFFFFFF
310
FFFFFFFFFFFFFFFFFFFFFFFFFFFFFFFFFFFFFFFFFFFFFFFFF000FFFFFFFFFFFF
310
FFFFFFFFFFFFFFFFFFFFFFFFFFFFFFFFFFFFFFFFFFFFFFFFFFFFFFFFFFFFFFFF
310
FFFFFFFFFFFFFFFFFFFFFFFFFFFFFFFFFFFFFFFFFFFFFFFFFFFFFFFFFFFFFFFF
310
FFFFFFFFFFFFFFFFFFFFFFFFFFFFFFFFF000FFFFFFFFFFFFFFFFFFFFFFFFFFFF
310
FFFFFFFFFFFFFFFFFFFFFFFFFFFFFFFFFFFFFFFFFFFFFFFFFFFFFFFFFFFFFFFF
310
FFFFFFFFFFFFFFFFFFFFFFFFFFFFFFFFFFFFFFFFFFFFFFFFFFFFFFFFFFFFFFFF
310
FFFFFFFFFFFFFFFFF000FFFFFFFFFFFFFFFFFFFFFFFFFFFFFFFFFFFFFFFFFFFF
310
FFFFFFFFFFFFFFFFFFFFFFFFFFFFFFFFFFFFFFFFFFFFFFFFFFFFFFFFFFFFFFFF
310
FFFFFFFFFFFFFFFFFFFFFFFFFFFFFFFFFFFFFFFFFFFFFFFFFFFFFFFFFFFFFFFF
310
F000FFFFFFFFFFFFFFFFFFFFFFFFFFFFFFFFFFFFFFFFFFFFFFFFFFFFFFFFFFFF
310
FFFFFFFFFFFFFFFFFFFFFFFFFFFFFFFFFFFFFFFFFFFFFFFFFFFFFFFFFFFFFFFF
310
FFFFFFFFFFFFFFFFFFFFFFFFFFFFFFFFFFFFFFFFFFFFFFFFF000FFFFFFFFFFFF
310
FFFFFFFFFFFFFFFFFFFFFFFFFFFFFFFFFFFFFFFFFFFFFFFFFFFFFFFFFFFFFFFF
310
FFFFFFFFFFFFFFFFFFFFFFFFFFFFFFFFFFFFFFFFFFFFFFFFFFFFFFFFFFFFFFFF
310
FFFFFFFFFFFFFFFFFFFFFFFFFFFFFFFFF000FFFFFFFFFFFFFFFFFFFFFFFFFFFF
310
FFFFFFFFFFFFFFFFFFFFFFFFFFFFFFFFFFFFFFFFFFFFFFFFFFFFFFFFFFFFFFFF
310
FFFFFFFFFFFFFFFFFFFFFFFFFFFFFFFFFFFFFFFFFFFFFFFFFFFFFFFFFFFFFFFF
310
FFFFFFFFFFFFFFFFF000FFFFFFFFFFFFFFFFFFFFFFFFFFFFFFFFFFFFFFFFFFFF
310
FFFFFFFFFFFFFFFFFFFFFFFFFFFFFFFFFFFFFFFFFFFFFFFFFFFFFFFFFFFFFFFF
310
FFFFFFFFFFFFFFFFFFFFFFFFFFFFFFFFFFFFFFFFFFFFFFFFFFFFFFFFFFFFFFFF
310
F000FFFFFFFFFFFFFFFFFFFFFFFFFFFFFFFFFFFFFFFFFFFFFFFFFFFFFFFFFFFF
310
FFFFFFFFFFFFFFFFFFFFFFFFFFFFFFFFFFFFFFFFFFFFFFFFFFFFFFFFFFFFFFFF
310
FFFFFFFFFFFFFFFFFFFFFFFFFFFFFFFFFFFFFFFFFFFFFFFFF000FFFFFFFFFFFF
310
FFFFFFFFFFFFFFFFFFFFFFFFFFFFFFFFFFFFFFFFFFFFFFFFFFFFFFFFFFFFFFFF
310
FFFFFFFFFFFFFFFFFFFFFFFFFFFFFFFFFFFFFFFFFFFFFFFFFFFFFFFFFFFFFFFF
310
FFFFFFFFFFFFFFFFFFFFFFFFFFFFFFFFF000FFFFFFFFFFFFFFFFFFFFFFFFFFFF
310
FFFFFFFFFFFFFFFFFFFFFFFFFFFFFFFFFFFFFFFFFFFFFFFFFFFFFFFFFFFFFFFF
310
FFFFFFFFFFFFFFFFFFFFFFFFFFFFFFFFFFFFFFFFFFFFFFFFFFFFFFFFFFFFFFFF
310
FFFFFFFFFFFFFFFFF000FFFFFFFFFFFFFFFFFFFFFFFFFFFFFFFFFFFFFFFFFFFF
310
FFFFFFFFFFFFFFFFFFFFFFFFFFFFFFFFFFFFFFFFFFFFFFFFFFFFFFFFFFFFFFFF
310
FFFFFFFFFFFFFFFFFFFFFFFFFFFFFFFFFFFFFFFFFFFFFFFFFFFFFFFFFFFFFFFF
310
F000FFFFFFFFFFFFFFFFFFFFFFFFFFFFFFFFFFFFFFFFFFFFFFFFFFFFFFFFFFFF
310
FFFFFFFFFFFFFFFFFFFFFFFFFFFFFFFFFFFFFFFFFFFFFFFFFFFFFFFFFFFFFFFF
310
FFFFFFFFFFFFFFFFFFFFFFFFFFFFFFFFFFFFFFFFFFFFFFFFF000FFFFFFFFFFFF
310
FFFFFFFFFFFFFFFFFFFFFFFFFFFFFFFFFFFFFFFFFFFFFFFFFFFFFFFFFFFFFFFF
310
FFFFFFFFFFFFFFFFFFFFFFFFFFFFFFFFFFFFFFFFFFFFFFFFFFFFFFFFFFFFFFFF
310
FFFFFFFFFFFFFFFFFFFFFFFFFFFFFFFFF000FFFFFFFFFFFFFFFFFFFFFFFFFFFF
310
FFFFFFFFFFFFFFFFFFFFFFFFFFFFFFFFFFFFFFFFFFFFFFFFFFFFFFFFFFFFFFFF
310
FFFFFFFFFFFFFFFFFFFFFFFFFFFFFFFFFFFFFFFFFFFFFFFFFFFFFFFFFFFFFFFF
310
FFFFFFFFFFFFFFFFF000FFFFFFFFFFFFFFFFFFFFFFFFFFFFFFFFFFFFFFFFFFFF
310
FFFFFFFFFFFFFFFFFFFFFFFFFFFFFFFFFFFFFFFFFFFFFFFFFFFFFFFFFFFFFFFF
310
FFFFFFFFFFFFFFFFFFFFFFFFFFFFFFFFFFFFFFFFFFFFFFFFFFFFFFFFFFFFFFFF
310
F000FFFFFFFFFFFFFFFFFFFFFFFFFFFFFFFFFFFFFFFFFFFFFFFFFFFFFFFFFFFF
310
FFFFFFFFFFFFFFFFFFFFFFFFFFFFFFFFFFFFFFFFFFFFFFFFFFFFFFFFFFFFFFFF
310
FFFFFFFFFFFFFFFFFFFFFFFFFFFFFFFFFFFFFFFFFFFFFFFFF000FFFFFFFFFFFF
310
FFFFFFFFFFFFFFFFFFFFFFFFFFFFFFFFFFFFFFFFFFFFFFFFFFFFFFFFFFFFFFFF
310
FFFFFFFFFFFFFFFFFFFFFFFFFFFFFFFFFFFFFFFFFFFFFFFFFFFFFFFFFFFFFFFF
310
FFFFFFFFFFFFFFFFFFFFFFFFFFFFFFFFF0000000000000000000000000000000
310
0000000000000000000000000000000000000000000000000000000000000000
310
0000000000000000000000000000000000000000000000000000000000000000
310
0000000000000000000000000000000000000000000000000000000000000000
310
0000000000000000000000000000000000000000000000000000000000000000
310
0000000000000000000000000000000000000000000000000000000000000000
310
0000000000000000000000000000000000000000000000000000000000000000
310
0000000000000000000000000000000000000000000000000000000000000000
310
0000000000000000000000000000000000000000000000000000000000000000
310
0000000000000000000000000000000000000000000000000000000000000000
310
0000000000000000000000000000000000000000000000000000000000000000
310
0000000000000000000000000000000000000000000000000000000000000000
310
0000000000000000000000000000000000000000000000000000000000000000
310
0000000000000000000000000000000000000000000000000000000000000000
310
0000000000000000000000000000000000000000000000000000000000000000
310
0000000000000000000000000000000000000000000000000000000000000000
  1
OLE
  0
ENDSEC
  0
SECTION
  2
OBJECTS
  0
DICTIONARY
  5
C
330
0
100
AcDbDictionary
281
     1
  3
ACAD_GROUP
350
D
  3
ACAD_LAYOUT
350
1A
  3
ACAD_MLINESTYLE
350
17
  3
ACAD_PLOTSETTINGS
350
19
  3
ACAD_PLOTSTYLENAME
350
E
  3
ACAD_SCALELIST
350
47
  0
DICTIONARY
  5
D
102
{ACAD_REACTORS
330
C
102
}
330
C
100
AcDbDictionary
281
     1
  0
DICTIONARY
  5
1A
102
{ACAD_REACTORS
330
C
102
}
330
C
100
AcDbDictionary
281
     1
  3
Layout1
350
1E
  3
Layout2
350
26
  3
Model
350
22
  0
DICTIONARY
  5
17
102
{ACAD_REACTORS
330
C
102
}
330
C
100
AcDbDictionary
281
     1
  3
Standard
350
18
  0
DICTIONARY
  5
19
102
{ACAD_REACTORS
330
C
102
}
330
C
100
AcDbDictionary
281
     1
  0
ACDBDICTIONARYWDFLT
  5
E
102
{ACAD_REACTORS
330
C
102
}
330
C
100
AcDbDictionary
281
     1
  3
Normal
350
F
100
AcDbDictionaryWithDefault
340
F
  0
DICTIONARY
  5
47
102
{ACAD_REACTORS
330
C
102
}
330
C
100
AcDbDictionary
281
     1
  3
A0
350
48
  3
A1
350
49
  3
A2
350
4A
  3
A3
350
4B
  3
A4
350
4C
  3
A5
350
4D
  3
A6
350
4E
  3
A7
350
4F
  3
A8
350
50
  3
A9
350
51
  3
B0
350
52
  3
B1
350
53
  3
B2
350
54
  3
B3
350
55
  3
B4
350
56
  3
B5
350
57
  3
B6
350
58
  3
B7
350
59
  3
B8
350
5A
  3
B9
350
5B
  3
C0
350
5C
  3
C1
350
5D
  3
C2
350
5E
  3
C3
350
5F
  3
C4
350
60
  3
C5
350
61
  3
C6
350
62
  3
C7
350
63
  3
C8
350
64
  3
C9
350
65
  3
D0
350
66
  3
D1
350
67
  3
D2
350
68
  0
LAYOUT
  5
1E
102
{ACAD_REACTORS
330
1A
102
}
330
1A
100
AcDbPlotSettings
  1

  2
none_device
  4

  6

 40
0.0
 41
0.0
 42
0.0
 43
0.0
 44
0.0
 45
0.0
 46
0.0
 47
0.0
 48
0.0
 49
0.0
140
0.0
141
0.0
142
1.0
143
1.0
 70
   688
 72
     1
 73
     0
 74
     5
  7

 75
    16
147
1.0
148
0.0
149
0.0
100
AcDbLayout
  1
Layout1
 70
     1
 71
     1
 10
0.0
 20
0.0
 11
420.0
 21
297.0
 12
0.0
 22
0.0
 32
0.0
 14
1.0000000000E+20
 24
1.0000000000E+20
 34
1.0000000000E+20
 15
-1.0000000000E+20
 25
-1.0000000000E+20
 35
-1.0000000000E+20
146
0.0
 13
0.0
 23
0.0
 33
0.0
 16
1.0
 26
0.0
 36
0.0
 17
0.0
 27
1.0
 37
0.0
 76
     0
330
1B
  0
LAYOUT
  5
26
102
{ACAD_REACTORS
330
1A
102
}
330
1A
100
AcDbPlotSettings
  1

  2
none_device
  4

  6

 40
0.0
 41
0.0
 42
0.0
 43
0.0
 44
0.0
 45
0.0
 46
0.0
 47
0.0
 48
0.0
 49
0.0
140
0.0
141
0.0
142
1.0
143
1.0
 70
   688
 72
     1
 73
     0
 74
     5
  7

 75
    16
147
1.0
148
0.0
149
0.0
100
AcDbLayout
  1
Layout2
 70
     1
 71
     2
 10
0.0
 20
0.0
 11
0.0
 21
0.0
 12
0.0
 22
0.0
 32
0.0
 14
0.0
 24
0.0
 34
0.0
 15
0.0
 25
0.0
 35
0.0
146
0.0
 13
0.0
 23
0.0
 33
0.0
 16
1.0
 26
0.0
 36
0.0
 17
0.0
 27
1.0
 37
0.0
 76
     0
330
23
  0
LAYOUT
  5
22
102
{ACAD_REACTORS
330
1A
102
}
330
1A
100
AcDbPlotSettings
  1

  2
none_device
  4
Letter_(8.50_x_11.00_Inches)
  6

 40
6.35
 41
6.35
 42
6.35000508
 43
6.35000508
 44
215.9
 45
279.4
 46
0.0
 47
0.0
 48
0.0
 49
0.0
140
0.0
141
0.0
142
1.0
143
1.0
 70
  1712
 72
     1
 73
     0
 74
     0
  7

 75
     0
147
1.0
148
0.0
149
0.0
100
AcDbLayout
  1
Model
 70
     1
 71
     0
 10
0.0
 20
0.0
 11
297.0
 21
210.0
 12
0.0
 22
0.0
 32
0.0
 14
0.0
 24
0.0
 34
0.0
 15
297.0
 25
210.0
 35
0.0
146
0.0
 13
0.0
 23
0.0
 33
0.0
 16
1.0
 26
0.0
 36
0.0
 17
0.0
 27
1.0
 37
0.0
 76
     0
330
1F
331
29
  0
MLINESTYLE
  5
18
102
{ACAD_REACTORS
330
17
102
}
330
17
100
AcDbMlineStyle
  2
Standard
 70
     0
  3

 62
   256
 51
90.0
 52
90.0
 71
     2
 49
0.5
 62
   256
  6
BYLAYER
 49
-0.5
 62
   256
  6
BYLAYER
  0
ACDBPLACEHOLDER
  5
F
102
{ACAD_REACTORS
330
E
102
}
330
E
  0
SCALE
  5
48
102
{ACAD_REACTORS
330
47
102
}
330
47
100
AcDbScale
 70
     0
300
1:1
140
1.0
141
1.0
290
     1
  0
SCALE
  5
49
102
{ACAD_REACTORS
330
47
102
}
330
47
100
AcDbScale
 70
     0
300
1:2
140
1.0
141
2.0
290
     0
  0
SCALE
  5
4A
102
{ACAD_REACTORS
330
47
102
}
330
47
100
AcDbScale
 70
     0
300
1:4
140
1.0
141
4.0
290
     0
  0
SCALE
  5
4B
102
{ACAD_REACTORS
330
47
102
}
330
47
100
AcDbScale
 70
     0
300
1:5
140
1.0
141
5.0
290
     0
  0
SCALE
  5
4C
102
{ACAD_REACTORS
330
47
102
}
330
47
100
AcDbScale
 70
     0
300
1:8
140
1.0
141
8.0
290
     0
  0
SCALE
  5
4D
102
{ACAD_REACTORS
330
47
102
}
330
47
100
AcDbScale
 70
     0
300
1:10
140
1.0
141
10.0
290
     0
  0
SCALE
  5
4E
102
{ACAD_REACTORS
330
47
102
}
330
47
100
AcDbScale
 70
     0
300
1:16
140
1.0
141
16.0
290
     0
  0
SCALE
  5
4F
102
{ACAD_REACTORS
330
47
102
}
330
47
100
AcDbScale
 70
     0
300
1:20
140
1.0
141
20.0
290
     0
  0
SCALE
  5
50
102
{ACAD_REACTORS
330
47
102
}
330
47
100
AcDbScale
 70
     0
300
1:30
140
1.0
141
30.0
290
     0
  0
SCALE
  5
51
102
{ACAD_REACTORS
330
47
102
}
330
47
100
AcDbScale
 70
     0
300
1:40
140
1.0
141
40.0
290
     0
  0
SCALE
  5
52
102
{ACAD_REACTORS
330
47
102
}
330
47
100
AcDbScale
 70
     0
300
1:50
140
1.0
141
50.0
290
     0
  0
SCALE
  5
53
102
{ACAD_REACTORS
330
47
102
}
330
47
100
AcDbScale
 70
     0
300
1:100
140
1.0
141
100.0
290
     0
  0
SCALE
  5
54
102
{ACAD_REACTORS
330
47
102
}
330
47
100
AcDbScale
 70
     0
300
2:1
140
2.0
141
1.0
290
     0
  0
SCALE
  5
55
102
{ACAD_REACTORS
330
47
102
}
330
47
100
AcDbScale
 70
     0
300
4:1
140
4.0
141
1.0
290
     0
  0
SCALE
  5
56
102
{ACAD_REACTORS
330
47
102
}
330
47
100
AcDbScale
 70
     0
300
8:1
140
8.0
141
1.0
290
     0
  0
SCALE
  5
57
102
{ACAD_REACTORS
330
47
102
}
330
47
100
AcDbScale
 70
     0
300
10:1
140
10.0
141
1.0
290
     0
  0
SCALE
  5
58
102
{ACAD_REACTORS
330
47
102
}
330
47
100
AcDbScale
 70
     0
300
100:1
140
100.0
141
1.0
290
     0
  0
SCALE
  5
59
102
{ACAD_REACTORS
330
47
102
}
330
47
100
AcDbScale
 70
     0
300
1/128" = 1'-0"
140
0.0078125
141
12.0
290
     0
  0
SCALE
  5
5A
102
{ACAD_REACTORS
330
47
102
}
330
47
100
AcDbScale
 70
     0
300
1/64" = 1'-0"
140
0.015625
141
12.0
290
     0
  0
SCALE
  5
5B
102
{ACAD_REACTORS
330
47
102
}
330
47
100
AcDbScale
 70
     0
300
1/32" = 1'-0"
140
0.03125
141
12.0
290
     0
  0
SCALE
  5
5C
102
{ACAD_REACTORS
330
47
102
}
330
47
100
AcDbScale
 70
     0
300
1/16" = 1'-0"
140
0.0625
141
12.0
290
     0
  0
SCALE
  5
5D
102
{ACAD_REACTORS
330
47
102
}
330
47
100
AcDbScale
 70
     0
300
3/32" = 1'-0"
140
0.09375
141
12.0
290
     0
  0
SCALE
  5
5E
102
{ACAD_REACTORS
330
47
102
}
330
47
100
AcDbScale
 70
     0
300
1/8" = 1'-0"
140
0.125
141
12.0
290
     0
  0
SCALE
  5
5F
102
{ACAD_REACTORS
330
47
102
}
330
47
100
AcDbScale
 70
     0
300
3/16" = 1'-0"
140
0.1875
141
12.0
290
     0
  0
SCALE
  5
60
102
{ACAD_REACTORS
330
47
102
}
330
47
100
AcDbScale
 70
     0
300
1/4" = 1'-0"
140
0.25
141
12.0
290
     0
  0
SCALE
  5
61
102
{ACAD_REACTORS
330
47
102
}
330
47
100
AcDbScale
 70
     0
300
3/8" = 1'-0"
140
0.375
141
12.0
290
     0
  0
SCALE
  5
62
102
{ACAD_REACTORS
330
47
102
}
330
47
100
AcDbScale
 70
     0
300
1/2" = 1'-0"
140
0.5
141
12.0
290
     0
  0
SCALE
  5
63
102
{ACAD_REACTORS
330
47
102
}
330
47
100
AcDbScale
 70
     0
300
3/4" = 1'-0"
140
0.75
141
12.0
290
     0
  0
SCALE
  5
64
102
{ACAD_REACTORS
330
47
102
}
330
47
100
AcDbScale
 70
     0
300
1" = 1'-0"
140
1.0
141
12.0
290
     0
  0
SCALE
  5
65
102
{ACAD_REACTORS
330
47
102
}
330
47
100
AcDbScale
 70
     0
300
1-1/2" = 1'-0"
140
1.5
141
12.0
290
     0
  0
SCALE
  5
66
102
{ACAD_REACTORS
330
47
102
}
330
47
100
AcDbScale
 70
     0
300
3" = 1'-0"
140
3.0
141
12.0
290
     0
  0
SCALE
  5
67
102
{ACAD_REACTORS
330
47
102
}
330
47
100
AcDbScale
 70
     0
300
6" = 1'-0"
140
6.0
141
12.0
290
     0
  0
SCALE
  5
68
102
{ACAD_REACTORS
330
47
102
}
330
47
100
AcDbScale
 70
     0
300
1'-0" = 1'-0"
140
12.0
141
12.0
290
     0
  0
ENDSEC
  0
EOF
