  0
SECTION
  2
HEADER
  9
$ACADVER
  1
AC1015
  9
$ACADMAINTVER
 70
     6
  9
$DWGCODEPAGE
  3
ANSI_1252
  9
$INSBASE
 10
0.0
 20
0.0
 30
0.0
  9
$EXTMIN
 10
0.0
 20
0.0
 30
0.0
  9
$EXTMAX
 10
297.0
 20
210.0
 30
0.0
  9
$LIMMIN
 10
0.0
 20
0.0
  9
$LIMMAX
 10
297.0
 20
210.0
  9
$ORTHOMODE
 70
     0
  9
$REGENMODE
 70
     1
  9
$FILLMODE
 70
     1
  9
$QTEXTMODE
 70
     0
  9
$MIRRTEXT
 70
     1
  9
$LTSCALE
 40
1.0
  9
$ATTMODE
 70
     1
  9
$TEXTSIZE
 40
2.0
  9
$TRACEWID
 40
1.0
  9
$TEXTSTYLE
  7
Standard
  9
$CLAYER
  8
0
  9
$CELTYPE
  6
ByLayer
  9
$CECOLOR
 62
   256
  9
$CELTSCALE
 40
1.0
  9
$DISPSILH
 70
     0
  9
$DIMSCALE
 40
1.0
  9
$DIMASZ
 40
3.0
  9
$DIMEXO
 40
0.0
  9
$DIMDLI
 40
3.75
  9
$DIMRND
 40
0.0
  9
$DIMDLE
 40
0.0
  9
$DIMEXE
 40
1.0
  9
$DIMTP
 40
0.0
  9
$DIMTM
 40
0.0
  9
$DIMTXT
 40
2.0
  9
$DIMCEN
 40
2.5
  9
$DIMTSZ
 40
0.0
  9
$DIMTOL
 70
     0
  9
$DIMLIM
 70
     0
  9
$DIMTIH
 70
     1
  9
$DIMTOH
 70
     1
  9
$DIMSE1
 70
     0
  9
$DIMSE2
 70
     0
  9
$DIMTAD
 70
     1
  9
$DIMZIN
 70
     0
  9
$DIMBLK
  1

  9
$DIMASO
 70
     1
  9
$DIMSHO
 70
     1
  9
$DIMPOST
  1

  9
$DIMAPOST
  1

  9
$DIMALT
 70
     0
  9
$DIMALTD
 70
     3
  9
$DIMALTF
 40
0.0393700787
  9
$DIMLFAC
 40
1.0
  9
$DIMTOFL
 70
     1
  9
$DIMTVP
 40
0.0
  9
$DIMTIX
 70
     0
  9
$DIMSOXD
 70
     0
  9
$DIMSAH
 70
     0
  9
$DIMBLK1
  1

  9
$DIMBLK2
  1

  9
$DIMSTYLE
  2
ISO-25
  9
$DIMCLRD
 70
     0
  9
$DIMCLRE
 70
     0
  9
$DIMCLRT
 70
     0
  9
$DIMTFAC
 40
1.0
  9
$DIMGAP
 40
1.524
  9
$DIMJUST
 70
     0
  9
$DIMSD1
 70
     0
  9
$DIMSD2
 70
     0
  9
$DIMTOLJ
 70
     0
  9
$DIMTZIN
 70
     0
  9
$DIMALTZ
 70
     0
  9
$DIMALTTZ
 70
     0
  9
$DIMUPT
 70
     0
  9
$DIMDEC
 70
     2
  9
$DIMTDEC
 70
     3
  9
$DIMALTU
 70
     2
  9
$DIMALTTD
 70
     3
  9
$DIMTXSTY
  7
Standard
  9
$DIMAUNIT
 70
     0
  9
$DIMADEC
 70
     2
  9
$DIMALTRND
 40
0.0
  9
$DIMAZIN
 70
     0
  9
$DIMDSEP
 70
    44
  9
$DIMATFIT
 70
     3
  9
$DIMFRAC
 70
     0
  9
$DIMLDRBLK
  1

  9
$DIMLUNIT
 70
     2
  9
$DIMLWD
 70
    -2
  9
$DIMLWE
 70
    -2
  9
$DIMTMOVE
 70
     0
  9
$LUNITS
 70
     2
  9
$LUPREC
 70
     2
  9
$SKETCHINC
 40
1.0
  9
$FILLETRAD
 40
10.0
  9
$AUNITS
 70
     0
  9
$AUPREC
 70
     2
  9
$MENU
  1
.
  9
$ELEVATION
 40
0.0
  9
$PELEVATION
 40
0.0
  9
$THICKNESS
 40
0.0
  9
$LIMCHECK
 70
     0
  9
$CHAMFERA
 40
0.0
  9
$CHAMFERB
 40
0.0
  9
$CHAMFERC
 40
0.0
  9
$CHAMFERD
 40
0.0
  9
$SKPOLY
 70
     0
  9
$TDCREATE
 40
2457632.473161412
  9
$TDUCREATE
 40
2457632.389828079
  9
$TDUPDATE
 40
2457632.473162662
  9
$TDUUPDATE
 40
2457632.389829329
  9
$TDINDWG
 40
0.0000000116
  9
$TDUSRTIMER
 40
0.0000000116
  9
$USRTIMER
 70
     1
  9
$ANGBASE
 50
0.0
  9
$ANGDIR
 70
     0
  9
$PDMODE
 70
     0
  9
$PDSIZE
 40
-1.0
  9
$PLINEWID
 40
0.0
  9
$SPLFRAME
 70
     0
  9
$SPLINETYPE
 70
     6
  9
$SPLINESEGS
 70
     8
  9
$HANDSEED
  5
2D6
  9
$SURFTAB1
 70
     6
  9
$SURFTAB2
 70
     6
  9
$SURFTYPE
 70
     6
  9
$SURFU
 70
     6
  9
$SURFV
 70
     6
  9
$UCSBASE
  2

  9
$UCSNAME
  2

  9
$UCSORG
 10
0.0
 20
0.0
 30
0.0
  9
$UCSXDIR
 10
1.0
 20
0.0
 30
0.0
  9
$UCSYDIR
 10
0.0
 20
1.0
 30
0.0
  9
$UCSORTHOREF
  2

  9
$UCSORTHOVIEW
 70
     0
  9
$UCSORGTOP
 10
0.0
 20
0.0
 30
0.0
  9
$UCSORGBOTTOM
 10
0.0
 20
0.0
 30
0.0
  9
$UCSORGLEFT
 10
0.0
 20
0.0
 30
0.0
  9
$UCSORGRIGHT
 10
0.0
 20
0.0
 30
0.0
  9
$UCSORGFRONT
 10
0.0
 20
0.0
 30
0.0
  9
$UCSORGBACK
 10
0.0
 20
0.0
 30
0.0
  9
$PUCSBASE
  2

  9
$PUCSNAME
  2

  9
$PUCSORG
 10
0.0
 20
0.0
 30
0.0
  9
$PUCSXDIR
 10
1.0
 20
0.0
 30
0.0
  9
$PUCSYDIR
 10
0.0
 20
1.0
 30
0.0
  9
$PUCSORTHOREF
  2

  9
$PUCSORTHOVIEW
 70
     0
  9
$PUCSORGTOP
 10
0.0
 20
0.0
 30
0.0
  9
$PUCSORGBOTTOM
 10
0.0
 20
0.0
 30
0.0
  9
$PUCSORGLEFT
 10
0.0
 20
0.0
 30
0.0
  9
$PUCSORGRIGHT
 10
0.0
 20
0.0
 30
0.0
  9
$PUCSORGFRONT
 10
0.0
 20
0.0
 30
0.0
  9
$PUCSORGBACK
 10
0.0
 20
0.0
 30
0.0
  9
$USERI1
 70
     0
  9
$USERI2
 70
     0
  9
$USERI3
 70
     0
  9
$USERI4
 70
     0
  9
$USERI5
 70
     0
  9
$USERR1
 40
0.0
  9
$USERR2
 40
0.0
  9
$USERR3
 40
0.0
  9
$USERR4
 40
0.0
  9
$USERR5
 40
0.0
  9
$WORLDVIEW
 70
     1
  9
$SHADEDGE
 70
     3
  9
$SHADEDIF
 70
    70
  9
$TILEMODE
 70
     1
  9
$MAXACTVP
 70
    64
  9
$PINSBASE
 10
0.0
 20
0.0
 30
0.0
  9
$PLIMCHECK
 70
     0
  9
$PEXTMIN
 10
1.0000000000E+20
 20
1.0000000000E+20
 30
1.0000000000E+20
  9
$PEXTMAX
 10
-1.0000000000E+20
 20
-1.0000000000E+20
 30
-1.0000000000E+20
  9
$PLIMMIN
 10
0.0
 20
0.0
  9
$PLIMMAX
 10
420.0
 20
297.0
  9
$UNITMODE
 70
     0
  9
$VISRETAIN
 70
     1
  9
$PLINEGEN
 70
     0
  9
$PSLTSCALE
 70
     1
  9
$TREEDEPTH
 70
  3020
  9
$CMLSTYLE
  2
Standard
  9
$CMLJUST
 70
     0
  9
$CMLSCALE
 40
20.0
  9
$PROXYGRAPHICS
 70
     1
  9
$MEASUREMENT
 70
     1
  9
$CELWEIGHT
370
    -1
  9
$ENDCAPS
280
     0
  9
$JOINSTYLE
280
     0
  9
$LWDISPLAY
290
     1
  9
$INSUNITS
 70
     4
  9
$HYPERLINKBASE
  1

  9
$STYLESHEET
  1

  9
$XEDIT
290
     1
  9
$CEPSNTYPE
380
     0
  9
$PSTYLEMODE
290
     1
  9
$FINGERPRINTGUID
  2
{998A4AF1-8DAF-4F5C-A7E2-76C36BED0E51}
  9
$VERSIONGUID
  2
{FAEB1C32-E019-11D5-929B-00C0DF256EC4}
  9
$EXTNAMES
290
     1
  9
$PSVPSCALE
 40
0.0
  9
$OLESTARTUP
290
     0
  0
ENDSEC
  0
SECTION
  2
CLASSES
  0
CLASS
  1
ACDBDICTIONARYWDFLT
  2
AcDbDictionaryWithDefault
  3
ObjectDBX Classes
 90
        0
280
     0
281
     0
  0
CLASS
  1
VISUALSTYLE
  2
AcDbVisualStyle
  3
ObjectDBX Classes
 90
     4095
280
     0
281
     0
  0
CLASS
  1
MATERIAL
  2
AcDbMaterial
  3
ObjectDBX Classes
 90
     1153
280
     0
281
     0
  0
CLASS
  1
SCALE
  2
AcDbScale
  3
ObjectDBX Classes
 90
     1153
280
     0
281
     0
  0
CLASS
  1
TABLESTYLE
  2
AcDbTableStyle
  3
ObjectDBX Classes
 90
     4095
280
     0
281
     0
  0
CLASS
  1
MLEADERSTYLE
  2
AcDbMLeaderStyle
  3
ACDB_MLEADERSTYLE_CLASS
 90
     4095
280
     0
281
     0
  0
CLASS
  1
SUN
  2
AcDbSun
  3
SCENEOE
 90
     1153
280
     0
281
     0
  0
CLASS
  1
ACDBPLACEHOLDER
  2
AcDbPlaceHolder
  3
ObjectDBX Classes
 90
        0
280
     0
281
     0
  0
CLASS
  1
LAYOUT
  2
AcDbLayout
  3
ObjectDBX Classes
 90
        0
280
     0
281
     0
  0
ENDSEC
  0
SECTION
  2
TABLES
  0
TABLE
  2
VPORT
  5
8
330
0
100
AcDbSymbolTable
 70
     1
  0
VPORT
  5
29
330
8
100
AcDbSymbolTableRecord
100
AcDbViewportTableRecord
  2
*Active
 70
     0
 10
0.0
 20
0.0
 11
1.0
 21
1.0
 12
148.5
 22
105.0
 13
0.0
 23
0.0
 14
10.0
 24
10.0
 15
10.0
 25
10.0
 16
0.0
 26
0.0
 36
1.0
 17
0.0
 27
0.0
 37
0.0
 40
210.0
 41
1.4142857143
 42
50.0
 43
0.0
 44
0.0
 50
0.0
 51
0.0
 71
     0
 72
  2000
 73
     1
 74
     3
 75
     0
 76
     0
 77
     0
 78
     0
281
     0
 65
     1
110
0.0
120
0.0
130
0.0
111
1.0
121
0.0
131
0.0
112
0.0
122
1.0
132
0.0
 79
     0
146
0.0
  0
ENDTAB
  0
TABLE
  2
LTYPE
  5
5
330
0
100
AcDbSymbolTable
 70
     6
  0
LTYPE
  5
14
330
5
100
AcDbSymbolTableRecord
100
AcDbLinetypeTableRecord
  2
ByBlock
 70
     0
  3

 72
    65
 73
     0
 40
0.0
  0
LTYPE
  5
15
330
5
100
AcDbSymbolTableRecord
100
AcDbLinetypeTableRecord
  2
ByLayer
 70
     0
  3

 72
    65
 73
     0
 40
0.0
  0
LTYPE
  5
16
330
5
100
AcDbSymbolTableRecord
100
AcDbLinetypeTableRecord
  2
Continuous
 70
     0
  3
Solid line
 72
    65
 73
     0
 40
0.0
  0
LTYPE
  5
6E
330
5
100
AcDbSymbolTableRecord
100
AcDbLinetypeTableRecord
  2
HIDDEN
 70
     0
  3
Hidden __ __ __ __ __ __ __ __ __ __ __ __ __ __
 72
    65
 73
     2
 40
1.905
 49
1.27
 74
     0
 49
-0.635
 74
     0
  0
LTYPE
  5
6F
330
5
100
AcDbSymbolTableRecord
100
AcDbLinetypeTableRecord
  2
PHANTOM
 70
     0
  3
Phantom ______  __  __  ______  __  __  ______
 72
    65
 73
     6
 40
12.7
 49
6.35
 74
     0
 49
-1.27
 74
     0
 49
1.27
 74
     0
 49
-1.27
 74
     0
 49
1.27
 74
     0
 49
-1.27
 74
     0
  0
LTYPE
  5
70
330
5
100
AcDbSymbolTableRecord
100
AcDbLinetypeTableRecord
  2
CENTER
 70
     0
  3
Center ____ _ ____ _ ____ _ ____ _ ____ _ ____
 72
    65
 73
     4
 40
10.16
 49
6.35
 74
     0
 49
-1.27
 74
     0
 49
1.27
 74
     0
 49
-1.27
 74
     0
  0
LTYPE
  5
71
330
5
100
AcDbSymbolTableRecord
100
AcDbLinetypeTableRecord
  2
CENTERX2
 70
     0
  3
Center (2x) ________  __  ________  __  _____
 72
    65
 73
     4
 40
20.32
 49
12.7
 74
     0
 49
-2.54
 74
     0
 49
2.54
 74
     0
 49
-2.54
 74
     0
  0
LTYPE
  5
72
330
5
100
AcDbSymbolTableRecord
100
AcDbLinetypeTableRecord
  2
DOT2
 70
     0
  3
Dot (.5x) ........................................
 72
    65
 73
     2
 40
0.635
 49
0.0
 74
     0
 49
-0.635
 74
     0
  0
ENDTAB
  0
TABLE
  2
LAYER
  5
2
330
0
100
AcDbSymbolTable
 70
     5
  0
LAYER
  5
10
330
2
100
AcDbSymbolTableRecord
100
AcDbLayerTableRecord
  2
0
 70
     0
 62
     7
  6
Continuous
370
    -3
390
F
  0
LAYER
  5
73
330
2
100
AcDbSymbolTableRecord
100
AcDbLayerTableRecord
  2
FORMAT
 70
     0
 62
     7
  6
Continuous
370
    -3
390
F
  0
LAYER
  5
74
330
2
100
AcDbSymbolTableRecord
100
AcDbLayerTableRecord
  2
VERMASSUNG
 70
     0
 62
     7
  6
Continuous
370
    -3
390
F
  0
LAYER
  5
75
330
2
100
AcDbSymbolTableRecord
100
AcDbLayerTableRecord
  2
KOPF_DÜNN
 70
     0
 62
     7
  6
Continuous
370
    -3
390
F
  0
LAYER
  5
76
330
2
100
AcDbSymbolTableRecord
100
AcDbLayerTableRecord
  2
KOPF_DICK
 70
     0
 62
     7
  6
Continuous
370
    15
390
F
  0
ENDTAB
  0
TABLE
  2
STYLE
  5
3
330
0
100
AcDbSymbolTable
 70
     2
  0
STYLE
  5
11
330
3
100
AcDbSymbolTableRecord
100
AcDbTextStyleTableRecord
  2
Standard
 70
     0
 40
0.0
 41
1.0
 50
0.0
 71
     0
 42
2.0
  3
txt
  4

  0
STYLE
  5
77
330
3
100
AcDbSymbolTableRecord
100
AcDbTextStyleTableRecord
  2
SLDTEXTSTYLE0
 70
     0
 40
0.0
 41
0.7
 50
0.0
 71
     0
 42
2.0
  3
TXT
  4

  0
ENDTAB
  0
TABLE
  2
VIEW
  5
6
330
0
100
AcDbSymbolTable
 70
     0
  0
ENDTAB
  0
TABLE
  2
UCS
  5
7
330
0
100
AcDbSymbolTable
 70
     0
  0
ENDTAB
  0
TABLE
  2
APPID
  5
9
330
0
100
AcDbSymbolTable
 70
     1
  0
APPID
  5
12
330
9
100
AcDbSymbolTableRecord
100
AcDbRegAppTableRecord
  2
ACAD
 70
     0
  0
ENDTAB
  0
TABLE
  2
DIMSTYLE
  5
A
330
0
100
AcDbSymbolTable
 70
     2
100
AcDbDimStyleTable
  0
DIMSTYLE
105
27
330
A
100
AcDbSymbolTableRecord
100
AcDbDimStyleTableRecord
  2
ISO-25
 70
     0
 41
2.5
 42
0.625
 43
3.75
 44
1.25
 73
     0
 74
     0
 77
     1
 78
     8
140
2.5
141
2.5
143
0.0393700787
147
0.625
171
     3
172
     1
178
     0
271
     2
272
     2
274
     3
278
    44
283
     0
284
     8
340
11
  0
DIMSTYLE
105
1D3
102
{ACAD_REACTORS
330
1D2
330
1DF
330
1E9
330
1F3
330
1FD
102
}
330
A
100
AcDbSymbolTableRecord
100
AcDbDimStyleTableRecord
  2
SLDDIMSTYLE0
 70
     0
 41
3.0
 44
0.0
 45
0.000000001
 73
     0
 74
     0
 77
     1
 78
    12
 79
     3
140
2.0
147
0.5
173
     1
178
     0
271
     2
272
     3
276
     2
284
    12
340
77
  0
ENDTAB
  0
TABLE
  2
BLOCK_RECORD
  5
1
330
0
100
AcDbSymbolTable
 70
     6
  0
BLOCK_RECORD
  5
1F
330
1
100
AcDbSymbolTableRecord
100
AcDbBlockTableRecord
  2
*Model_Space
340
22
  0
BLOCK_RECORD
  5
1B
330
1
100
AcDbSymbolTableRecord
100
AcDbBlockTableRecord
  2
*Paper_Space
340
1E
  0
BLOCK_RECORD
  5
23
330
1
100
AcDbSymbolTableRecord
100
AcDbBlockTableRecord
  2
*Paper_Space0
340
26
  0
BLOCK_RECORD
  5
1D4
330
1
100
AcDbSymbolTableRecord
100
AcDbBlockTableRecord
  2
_D
340
0
  0
BLOCK_RECORD
  5
1E0
330
1
100
AcDbSymbolTableRecord
100
AcDbBlockTableRecord
  2
_D_1
340
0
  0
BLOCK_RECORD
  5
1EA
330
1
100
AcDbSymbolTableRecord
100
AcDbBlockTableRecord
  2
_D_2
340
0
  0
BLOCK_RECORD
  5
1F4
330
1
100
AcDbSymbolTableRecord
100
AcDbBlockTableRecord
  2
_D_3
340
0
  0
BLOCK_RECORD
  5
1FE
330
1
100
AcDbSymbolTableRecord
100
AcDbBlockTableRecord
  2
_D_4
340
0
  0
ENDTAB
  0
ENDSEC
  0
SECTION
  2
BLOCKS
  0
BLOCK
  5
20
330
1F
100
AcDbEntity
  8
0
100
AcDbBlockBegin
  2
*Model_Space
 70
     0
 10
0.0
 20
0.0
 30
0.0
  3
*Model_Space
  1

  0
ENDBLK
  5
21
330
1F
100
AcDbEntity
  8
0
100
AcDbBlockEnd
  0
BLOCK
  5
1C
330
1B
100
AcDbEntity
 67
     1
  8
0
100
AcDbBlockBegin
  2
*Paper_Space
 70
     0
 10
0.0
 20
0.0
 30
0.0
  3
*Paper_Space
  1

  0
ENDBLK
  5
1D
330
1B
100
AcDbEntity
 67
     1
  8
0
100
AcDbBlockEnd
  0
BLOCK
  5
24
330
23
100
AcDbEntity
  8
0
100
AcDbBlockBegin
  2
*Paper_Space0
 70
     0
 10
0.0
 20
0.0
 30
0.0
  3
*Paper_Space0
  1

  0
ENDBLK
  5
25
330
23
100
AcDbEntity
  8
0
100
AcDbBlockEnd
  0
BLOCK
  5
1D5
330
1D4
100
AcDbEntity
  8
0
100
AcDbBlockBegin
  2
_D
 70
     0
 10
0.0
 20
0.0
 30
0.0
  3
_D
  1

  0
SOLID
  5
1D7
330
1D4
100
AcDbEntity
  8
VERMASSUNG
100
AcDbTrace
 10
234.1669125031
 20
141.4634825148
 30
0.0
 11
233.7169125031
 21
138.4634825148
 31
0.0
 12
234.6169125031
 22
138.4634825148
 32
0.0
 13
234.6169125031
 23
138.4634825148
 33
0.0
  0
SOLID
  5
1D8
330
1D4
100
AcDbEntity
  8
VERMASSUNG
100
AcDbTrace
 10
234.1669125031
 20
99.4634825148
 30
0.0
 11
234.6169125031
 21
102.4634825148
 31
0.0
 12
233.7169125031
 22
102.4634825148
 32
0.0
 13
233.7169125031
 23
102.4634825148
 33
0.0
  0
LINE
  5
1D9
330
1D4
100
AcDbEntity
  8
VERMASSUNG
100
AcDbLine
 10
223.7669125031
 20
141.4634825148
 30
0.0
 11
235.1669125031
 21
141.4634825148
 31
0.0
  0
LINE
  5
1DA
330
1D4
100
AcDbEntity
  8
VERMASSUNG
100
AcDbLine
 10
223.7669125031
 20
99.4634825148
 30
0.0
 11
235.1669125031
 21
99.4634825148
 31
0.0
  0
LINE
  5
1DB
330
1D4
100
AcDbEntity
  8
VERMASSUNG
100
AcDbLine
 10
234.1669125031
 20
141.4634825148
 30
0.0
 11
234.1669125031
 21
99.4634825148
 31
0.0
  0
MTEXT
  5
1DC
330
1D4
100
AcDbEntity
  8
VERMASSUNG
100
AcDbMText
 10
231.3887772469
 20
113.9584830411
 30
0.0
 40
2.0
 41
0.0
 71
     1
 72
     1
  1
MBM
  7
SLDTEXTSTYLE0
 11
-7.044195017643634E-15
 21
1.0
 31
0.0
 73
     1
 44
1.0
  0
MTEXT
  5
1DD
330
1D4
100
AcDbEntity
  8
VERMASSUNG
100
AcDbMText
 10
231.5887771981
 20
120.3584828794
 30
0.0
 40
2.0
 41
0.0
 71
     1
 72
     1
  1
%%c
  7
SLDTEXTSTYLE0
 11
-7.044195017643634E-15
 21
1.0
 31
0.0
 73
     1
 44
1.0
  0
MTEXT
  5
1DE
330
1D4
100
AcDbEntity
  8
VERMASSUNG
100
AcDbMText
 10
231.3887772469
 20
123.9684833594
 30
0.0
 40
2.0
 41
0.0
 71
     1
 72
     1
  1
42
  7
SLDTEXTSTYLE0
 11
-7.044195017643634E-15
 21
1.0
 31
0.0
 73
     1
 44
1.0
  0
ENDBLK
  5
1D6
330
1D4
100
AcDbEntity
  8
0
100
AcDbBlockEnd
  0
BLOCK
  5
1E1
330
1E0
100
AcDbEntity
  8
0
100
AcDbBlockBegin
  2
_D_1
 70
     0
 10
0.0
 20
0.0
 30
0.0
  3
_D_1
  1

  0
SOLID
  5
1E3
330
1E0
100
AcDbEntity
  8
VERMASSUNG
100
AcDbTrace
 10
224.1669125031
 20
173.3942668358
 30
0.0
 11
221.1669125031
 21
173.8442668358
 31
0.0
 12
221.1669125031
 22
172.9442668358
 32
0.0
 13
221.1669125031
 23
172.9442668358
 33
0.0
  0
SOLID
  5
1E4
330
1E0
100
AcDbEntity
  8
VERMASSUNG
100
AcDbTrace
 10
194.1169125031
 20
173.3942668358
 30
0.0
 11
197.1169125031
 21
172.9442668358
 31
0.0
 12
197.1169125031
 22
173.8442668358
 32
0.0
 13
197.1169125031
 23
173.8442668358
 33
0.0
  0
LINE
  5
1E5
330
1E0
100
AcDbEntity
  8
VERMASSUNG
100
AcDbLine
 10
224.1669125031
 20
141.0634825148
 30
0.0
 11
224.1669125031
 21
174.3942668358
 31
0.0
  0
LINE
  5
1E6
330
1E0
100
AcDbEntity
  8
VERMASSUNG
100
AcDbLine
 10
194.1169125031
 20
158.2125636294
 30
0.0
 11
194.1169125031
 21
174.3942668358
 31
0.0
  0
LINE
  5
1E7
330
1E0
100
AcDbEntity
  8
VERMASSUNG
100
AcDbLine
 10
224.1669125031
 20
173.3942668358
 30
0.0
 11
194.1169125031
 21
173.3942668358
 31
0.0
  0
MTEXT
  5
1E8
330
1E0
100
AcDbEntity
  8
VERMASSUNG
100
AcDbMText
 10
206.0419126469
 20
175.9724024317
 30
0.0
 40
2.0
 41
0.0
 71
     1
 72
     1
  1
30.05
  7
SLDTEXTSTYLE0
 73
     1
 44
1.0
  0
ENDBLK
  5
1E2
330
1E0
100
AcDbEntity
  8
0
100
AcDbBlockEnd
  0
BLOCK
  5
1EB
330
1EA
100
AcDbEntity
  8
0
100
AcDbBlockBegin
  2
_D_2
 70
     0
 10
0.0
 20
0.0
 30
0.0
  3
_D_2
  1

  0
SOLID
  5
1ED
330
1EA
100
AcDbEntity
  8
VERMASSUNG
100
AcDbTrace
 10
224.1669125031
 20
180.9546134105
 30
0.0
 11
221.1669125031
 21
181.4046134105
 31
0.0
 12
221.1669125031
 22
180.5046134105
 32
0.0
 13
221.1669125031
 23
180.5046134105
 33
0.0
  0
SOLID
  5
1EE
330
1EA
100
AcDbEntity
  8
VERMASSUNG
100
AcDbTrace
 10
175.0669125031
 20
180.9546134105
 30
0.0
 11
178.0669125031
 21
180.5046134105
 31
0.0
 12
178.0669125031
 22
181.4046134105
 32
0.0
 13
178.0669125031
 23
181.4046134105
 33
0.0
  0
LINE
  5
1EF
330
1EA
100
AcDbEntity
  8
VERMASSUNG
100
AcDbLine
 10
224.1669125031
 20
141.0634825148
 30
0.0
 11
224.1669125031
 21
181.9546134105
 31
0.0
  0
LINE
  5
1F0
330
1EA
100
AcDbEntity
  8
VERMASSUNG
100
AcDbLine
 10
175.0669125031
 20
155.3884825148
 30
0.0
 11
175.0669125031
 21
181.9546134105
 31
0.0
  0
LINE
  5
1F1
330
1EA
100
AcDbEntity
  8
VERMASSUNG
100
AcDbLine
 10
224.1669125031
 20
180.9546134105
 30
0.0
 11
175.0669125031
 21
180.9546134105
 31
0.0
  0
MTEXT
  5
1F2
330
1EA
100
AcDbEntity
  8
VERMASSUNG
100
AcDbMText
 10
197.316912452
 20
183.5327490065
 30
0.0
 40
2.0
 41
0.0
 71
     1
 72
     1
  1
49.1
  7
SLDTEXTSTYLE0
 73
     1
 44
1.0
  0
ENDBLK
  5
1EC
330
1EA
100
AcDbEntity
  8
0
100
AcDbBlockEnd
  0
BLOCK
  5
1F5
330
1F4
100
AcDbEntity
  8
0
100
AcDbBlockBegin
  2
_D_3
 70
     0
 10
0.0
 20
0.0
 30
0.0
  3
_D_3
  1

  0
SOLID
  5
1F7
330
1F4
100
AcDbEntity
  8
VERMASSUNG
100
AcDbTrace
 10
224.1669125031
 20
189.2919093041
 30
0.0
 11
221.1669125031
 21
189.7419093041
 31
0.0
 12
221.1669125031
 22
188.8419093041
 32
0.0
 13
221.1669125031
 23
188.8419093041
 33
0.0
  0
SOLID
  5
1F8
330
1F4
100
AcDbEntity
  8
VERMASSUNG
100
AcDbTrace
 10
73.4669125031
 20
189.2919093041
 30
0.0
 11
76.4669125031
 21
188.8419093041
 31
0.0
 12
76.4669125031
 22
189.7419093041
 32
0.0
 13
76.4669125031
 23
189.7419093041
 33
0.0
  0
LINE
  5
1F9
330
1F4
100
AcDbEntity
  8
VERMASSUNG
100
AcDbLine
 10
224.1669125031
 20
141.0634825148
 30
0.0
 11
224.1669125031
 21
190.2919093041
 31
0.0
  0
LINE
  5
1FA
330
1F4
100
AcDbEntity
  8
VERMASSUNG
100
AcDbLine
 10
73.4669125031
 20
138.8423270422
 30
0.0
 11
73.4669125031
 21
190.2919093041
 31
0.0
  0
LINE
  5
1FB
330
1F4
100
AcDbEntity
  8
VERMASSUNG
100
AcDbLine
 10
224.1669125031
 20
189.2919093041
 30
0.0
 11
73.4669125031
 21
189.2919093041
 31
0.0
  0
MTEXT
  5
1FC
330
1F4
100
AcDbEntity
  8
VERMASSUNG
100
AcDbMText
 10
145.91691254
 20
191.8700449001
 30
0.0
 40
2.0
 41
0.0
 71
     1
 72
     1
  1
150.7
  7
SLDTEXTSTYLE0
 73
     1
 44
1.0
  0
ENDBLK
  5
1F6
330
1F4
100
AcDbEntity
  8
0
100
AcDbBlockEnd
  0
BLOCK
  5
1FF
330
1FE
100
AcDbEntity
  8
0
100
AcDbBlockBegin
  2
_D_4
 70
     0
 10
0.0
 20
0.0
 30
0.0
  3
_D_4
  1

  0
SOLID
  5
201
330
1FE
100
AcDbEntity
  8
VERMASSUNG
100
AcDbTrace
 10
63.4669125031
 20
73.7342231734
 30
0.0
 11
63.9169125031
 21
76.7342231734
 31
0.0
 12
63.0169125031
 22
76.7342231734
 32
0.0
 13
63.0169125031
 23
76.7342231734
 33
0.0
  0
SOLID
  5
202
330
1FE
100
AcDbEntity
  8
VERMASSUNG
100
AcDbTrace
 10
63.4669125031
 20
167.2433271696
 30
0.0
 11
63.0169125031
 21
164.2433271696
 31
0.0
 12
63.9169125031
 22
164.2433271696
 32
0.0
 13
63.9169125031
 23
164.2433271696
 33
0.0
  0
LINE
  5
203
330
1FE
100
AcDbEntity
  8
VERMASSUNG
100
AcDbLine
 10
189.4000740105
 20
73.7342231734
 30
0.0
 11
62.4669125031
 21
73.7342231734
 31
0.0
  0
LINE
  5
204
330
1FE
100
AcDbEntity
  8
VERMASSUNG
100
AcDbLine
 10
189.4000740105
 20
167.2433271696
 30
0.0
 11
62.4669125031
 21
167.2433271696
 31
0.0
  0
LINE
  5
205
330
1FE
100
AcDbEntity
  8
VERMASSUNG
100
AcDbLine
 10
63.4669125031
 20
73.7342231734
 30
0.0
 11
63.4669125031
 21
167.2433271696
 31
0.0
  0
MTEXT
  5
206
330
1FE
100
AcDbEntity
  8
VERMASSUNG
100
AcDbMText
 10
60.8887769071
 20
117.5887752084
 30
0.0
 40
2.0
 41
0.0
 71
     1
 72
     1
  1
93.51
  7
SLDTEXTSTYLE0
 11
6.123233995736766E-17
 21
1.0
 31
0.0
 73
     1
 44
1.0
  0
ENDBLK
  5
200
330
1FE
100
AcDbEntity
  8
0
100
AcDbBlockEnd
  0
ENDSEC
  0
SECTION
  2
ENTITIES
  0
MTEXT
  5
78
330
1F
100
AcDbEntity
  8
KOPF_DÜNN
100
AcDbMText
 10
13.8892156294
 20
23.8442973028
 30
0.0
 40
3.0
 41
0.0
 71
     1
 72
     1
  1
102.525.421
  7
SLDTEXTSTYLE0
 73
     1
 44
1.0
  0
MTEXT
  5
79
330
1F
100
AcDbEntity
  8
VERMASSUNG
100
AcDbMText
 10
13.9329988022
 20
28.8834360957
 30
0.0
 40
3.0
 41
0.0
 71
     1
 72
     1
  1
Aufnahme_Master shank MBM 42
  7
SLDTEXTSTYLE0
 73
     1
 44
1.0
  0
MTEXT
  5
7A
330
1F
100
AcDbEntity
  8
VERMASSUNG
100
AcDbMText
 10
98.8601118557
 20
13.8365368761
 30
0.0
 40
2.0
 41
0.0
 71
     1
 72
     1
  1
Datum: 01.11.2007
  7
SLDTEXTSTYLE0
 73
     1
 44
1.0
  0
MTEXT
  5
7B
330
1F
100
AcDbEntity
  8
VERMASSUNG
100
AcDbMText
 10
13.933048693
 20
18.0482802738
 30
0.0
 40
2.0
 41
0.0
 71
     1
 72
     1
  1
DIN 69871 B 50
  7
SLDTEXTSTYLE0
 73
     1
 44
1.0
  0
MTEXT
  5
7C
330
1F
100
AcDbEntity
  8
VERMASSUNG
100
AcDbMText
 10
13.9808475933
 20
13.9090974274
 30
0.0
 40
2.0
 41
0.0
 71
     1
 72
     1
  1
Gewicht: 2862g
  7
SLDTEXTSTYLE0
 73
     1
 44
1.0
  0
ARC
  5
7D
330
1F
100
AcDbEntity
  8
0
  6
Continuous
 62
     7
370
    15
100
AcDbCircle
 10
177.6669125031
 20
84.9384825148
 30
0.0
 40
0.6000000000000227
100
AcDbArc
 50
0.0
 51
90.0
  0
ARC
  5
7E
330
1F
100
AcDbEntity
  8
0
  6
Continuous
 62
     7
370
    15
100
AcDbCircle
 10
177.6669125031
 20
155.9884825148
 30
0.0
 40
0.6000000000000227
100
AcDbArc
 50
270.0
 51
0.0
  0
LINE
  5
7F
330
1F
100
AcDbEntity
  8
0
  6
Continuous
 62
     7
370
    15
100
AcDbLine
 10
175.0669118191
 20
85.538482301
 30
0.0
 11
177.6669129904
 21
85.538482301
 31
0.0
  0
LINE
  5
80
330
1F
100
AcDbEntity
  8
0
  6
Continuous
 62
     7
370
    15
100
AcDbLine
 10
177.6669129904
 20
155.3884800598
 30
0.0
 11
175.0669118191
 21
155.3884800598
 31
0.0
  0
LINE
  5
81
330
1F
100
AcDbEntity
  8
0
  6
Continuous
 62
     7
370
    15
100
AcDbLine
 10
175.0669118191
 20
155.3884800598
 30
0.0
 11
75.1783020969
 21
140.8213954494
 31
0.0
  0
LINE
  5
82
330
1F
100
AcDbEntity
  8
0
  6
Continuous
 62
     7
370
    15
100
AcDbLine
 10
75.1783020969
 20
100.105574362
 30
0.0
 11
175.0669118191
 21
85.538482301
 31
0.0
  0
ARC
  5
83
330
1F
100
AcDbEntity
  8
0
  6
Continuous
 62
     7
370
    15
100
AcDbCircle
 10
198.1169125031
 20
95.4634825148
 30
0.0
 40
4.0
100
AcDbArc
 50
90.0
 51
180.0
  0
ARC
  5
84
330
1F
100
AcDbEntity
  8
0
  6
Continuous
 62
     7
370
    15
100
AcDbCircle
 10
198.1169125031
 20
145.4634825148
 30
0.0
 40
4.0
100
AcDbArc
 50
180.0
 51
270.0
  0
LINE
  5
85
330
1F
100
AcDbEntity
  8
0
  6
Continuous
 62
     7
370
    15
100
AcDbLine
 10
198.1169127102
 20
99.4634833262
 30
0.0
 11
223.7669147725
 21
99.4634833262
 31
0.0
  0
LINE
  5
86
330
1F
100
AcDbEntity
  8
0
  6
Continuous
 62
     7
370
    15
100
AcDbLine
 10
223.7669147725
 20
141.4634790346
 30
0.0
 11
198.1169127102
 21
141.4634790346
 31
0.0
  0
LINE
  5
87
330
1F
100
AcDbEntity
  8
0
  6
Continuous
 62
     7
370
    15
100
AcDbLine
 10
223.7669147725
 20
99.4634833262
 30
0.0
 11
224.1669140931
 21
99.8634751961
 31
0.0
  0
LINE
  5
88
330
1F
100
AcDbEntity
  8
0
  6
Continuous
 62
     7
370
    15
100
AcDbLine
 10
224.1669140931
 20
141.0634797141
 30
0.0
 11
223.7669147725
 21
141.4634790346
 31
0.0
  0
ARC
  5
89
330
1F
100
AcDbEntity
  8
0
  6
Continuous
 62
     7
370
    15
100
AcDbCircle
 10
75.4669125031
 20
102.0846379874
 30
0.0
 40
2.0
100
AcDbArc
 50
180.0
 51
261.7028550302
  0
ARC
  5
8A
330
1F
100
AcDbEntity
  8
0
  6
Continuous
 62
     7
370
    15
100
AcDbCircle
 10
75.4669125031
 20
138.8423270422
 30
0.0
 40
2.0
100
AcDbArc
 50
98.2971449698
 51
180.0
  0
ARC
  5
8B
330
1F
100
AcDbEntity
  8
0
  6
Continuous
 62
     7
370
    15
100
AcDbCircle
 10
189.2669125031
 20
105.9977405528
 30
0.0
 40
2.000000000000016
100
AcDbArc
 50
192.2156860301
 51
340.3453161116
  0
SPLINE
  5
8C
330
1F
100
AcDbEntity
  8
0
  6
Continuous
 62
     7
370
    15
100
AcDbSpline
210
0.0
220
0.0
230
1.0
 70
     8
 71
     3
 72
    11
 73
     7
 74
     0
 42
0.000000001
 43
0.00000001
 40
0.0
 40
0.0
 40
0.0
 40
0.0
 40
0.1336651532723831
 40
0.4825482166646008
 40
0.8156354867628282
 40
0.9999999999999999
 40
0.9999999999999999
 40
0.9999999999999999
 40
0.9999999999999999
 10
208.4668457682468
 20
121.9046916887357
 30
0.0
 10
208.5851172324161
 20
121.9887887898913
 30
0.0
 10
209.012092272058
 20
122.2923900292258
 30
0.0
 10
209.8097242372077
 20
122.8595620311266
 30
0.0
 10
210.6663798703538
 20
123.4686876596439
 30
0.0
 10
211.1261809153805
 20
123.7956349121881
 30
0.0
 10
211.290004866872
 20
123.9121239707067
 30
0.0
  0
SPLINE
  5
8D
330
1F
100
AcDbEntity
  8
0
  6
Continuous
 62
     7
370
    15
100
AcDbSpline
210
0.0
220
0.0
230
1.0
 70
     8
 71
     3
 72
    11
 73
     7
 74
     0
 42
0.000000001
 43
0.00000001
 40
0.0
 40
0.0
 40
0.0
 40
0.0
 40
0.2164562961012489
 40
0.4403119768585966
 40
0.7519017453944076
 40
1.0
 40
1.0
 40
1.0
 40
1.0
 10
208.793754893098
 20
118.4560488984182
 30
0.0
 10
208.771361153972
 20
118.6922854577784
 30
0.0
 10
208.7258081637315
 20
119.1728341335699
 30
0.0
 10
208.6412757912634
 20
120.0646035019208
 30
0.0
 10
208.5506001470213
 20
121.0211838102256
 30
0.0
 10
208.4925695466297
 20
121.6333367912497
 30
0.0
 10
208.4668457682468
 20
121.9046916887357
 30
0.0
  0
SPLINE
  5
8E
330
1F
100
AcDbEntity
  8
0
  6
Continuous
 62
     7
370
    15
100
AcDbSpline
210
0.0
220
0.0
230
1.0
 70
     8
 71
     3
 72
    11
 73
     7
 74
     0
 42
0.000000001
 43
0.00000001
 40
0.0
 40
0.0
 40
0.0
 40
0.0
 40
0.2164556573104693
 40
0.4403116073242698
 40
0.7519008834418345
 40
0.9999999999999999
 40
0.9999999999999999
 40
0.9999999999999999
 40
0.9999999999999999
 10
211.9438193912841
 20
117.0148383900716
 30
0.0
 10
211.7280373795109
 20
117.1135644875556
 30
0.0
 10
211.2890960941867
 20
117.3143919790066
 30
0.0
 10
210.474532840074
 20
117.6870619424142
 30
0.0
 10
209.6007747485175
 20
118.0868301932288
 30
0.0
 10
209.0416182369672
 20
118.3426492313929
 30
0.0
 10
208.793754893098
 20
118.4560488984182
 30
0.0
  0
SPLINE
  5
8F
330
1F
100
AcDbEntity
  8
0
  6
Continuous
 62
     7
370
    15
100
AcDbSpline
210
0.0
220
0.0
230
1.0
 70
     8
 71
     3
 72
    11
 73
     7
 74
     0
 42
0.000000001
 43
0.00000001
 40
0.0
 40
0.0
 40
0.0
 40
0.0
 40
0.1843645132371718
 40
0.5174517833353992
 40
0.8663348467276168
 40
1.0
 40
1.0
 40
1.0
 40
1.0
 10
214.7669784899093
 20
119.0222706720426
 30
0.0
 10
214.6031545384179
 20
118.9057816135239
 30
0.0
 10
214.1433534933911
 20
118.5788343609799
 30
0.0
 10
213.2866978602451
 20
117.9697087324624
 30
0.0
 10
212.4890658950954
 20
117.4025367305617
 30
0.0
 10
212.0620908554534
 20
117.0989354912273
 30
0.0
 10
211.9438193912841
 20
117.0148383900716
 30
0.0
  0
SPLINE
  5
90
330
1F
100
AcDbEntity
  8
0
  6
Continuous
 62
     7
370
    15
100
AcDbSpline
210
0.0
220
0.0
230
1.0
 70
     8
 71
     3
 72
    11
 73
     7
 74
     0
 42
0.000000001
 43
0.00000001
 40
0.0
 40
0.0
 40
0.0
 40
0.0
 40
0.2164543937745727
 40
0.4403100709498456
 40
0.7518999312985094
 40
1.0
 40
1.0
 40
1.0
 40
1.0
 10
214.4400693650581
 20
122.4709134623601
 30
0.0
 10
214.4624632457131
 20
122.2346794562781
 30
0.0
 10
214.5080167270175
 20
121.7541338311008
 30
0.0
 10
214.5925471599437
 20
120.8623658502906
 30
0.0
 10
214.6832305526174
 20
119.9057845685192
 30
0.0
 10
214.7412566202977
 20
119.2936281523589
 30
0.0
 10
214.7669784899093
 20
119.0222706720426
 30
0.0
  0
SPLINE
  5
91
330
1F
100
AcDbEntity
  8
0
  6
Continuous
 62
     7
370
    15
100
AcDbSpline
210
0.0
220
0.0
230
1.0
 70
     8
 71
     3
 72
    11
 73
     7
 74
     0
 42
0.000000001
 43
0.00000001
 40
0.0
 40
0.0
 40
0.0
 40
0.0
 40
0.2164548653183193
 40
0.440311659203086
 40
0.7519000840735476
 40
1.0
 40
1.0
 40
1.0
 40
1.0
 10
211.290004866872
 20
123.9121239707067
 30
0.0
 10
211.5057874506981
 20
123.8134016785853
 30
0.0
 10
211.944731557461
 20
123.6125811695135
 30
0.0
 10
212.7592870319383
 20
123.2398953241207
 30
0.0
 10
213.6330532071895
 20
122.8401435744947
 30
0.0
 10
214.1922065875889
 20
122.584316893291
 30
0.0
 10
214.4400693650581
 20
122.4709134623601
 30
0.0
  0
CIRCLE
  5
92
330
1F
100
AcDbEntity
  8
0
  6
Continuous
 62
     7
370
    15
100
AcDbCircle
 10
211.6169125031
 20
120.4634825148
 30
0.0
 40
3.500000000000004
  0
CIRCLE
  5
93
330
1F
100
AcDbEntity
  8
0
  6
Continuous
 62
     7
370
    15
100
AcDbCircle
 10
211.6169125031
 20
120.4634825148
 30
0.0
 40
5.500000000000009
  0
CIRCLE
  5
94
330
1F
100
AcDbEntity
  8
0
  6
Continuous
 62
     7
370
    15
100
AcDbCircle
 10
211.6169125031
 20
120.4634825148
 30
0.0
 40
5.999999999999993
  0
ARC
  5
95
330
1F
100
AcDbEntity
  8
0
  6
Continuous
 62
     7
370
    15
100
AcDbCircle
 10
211.6169125031
 20
120.4634825148
 30
0.0
 40
3.000000000000027
100
AcDbArc
 50
65.4150768733
 51
125.4150768733
  0
ARC
  5
96
330
1F
100
AcDbEntity
  8
0
  6
Continuous
 62
     7
370
    15
100
AcDbCircle
 10
211.6169125031
 20
120.4634825148
 30
0.0
 40
3.000000000000019
100
AcDbArc
 50
245.4150768733
 51
305.4150768733
  0
ARC
  5
97
330
1F
100
AcDbEntity
  8
0
  6
Continuous
 62
     7
370
    15
100
AcDbCircle
 10
211.6169125031
 20
120.4634825148
 30
0.0
 40
3.000000000000023
100
AcDbArc
 50
185.4150768733
 51
245.4150768733
  0
ARC
  5
98
330
1F
100
AcDbEntity
  8
0
  6
Continuous
 62
     7
370
    15
100
AcDbCircle
 10
211.6169125031
 20
120.4634825148
 30
0.0
 40
2.999999999999991
100
AcDbArc
 50
5.4150768733
 51
65.4150768733
  0
ARC
  5
99
330
1F
100
AcDbEntity
  8
0
  6
Continuous
 62
     7
370
    15
100
AcDbCircle
 10
211.6169125031
 20
120.4634825148
 30
0.0
 40
3.000000000000027
100
AcDbArc
 50
125.4150768733
 51
185.4150768733
  0
ARC
  5
9A
330
1F
100
AcDbEntity
  8
0
  6
Continuous
 62
     7
370
    15
100
AcDbCircle
 10
211.6169125031
 20
120.4634825148
 30
0.0
 40
2.999999999999994
100
AcDbArc
 50
305.4150768733
 51
5.4150768733
  0
LINE
  5
9B
330
1F
100
AcDbEntity
  8
0
  6
Continuous
 62
     7
370
    15
100
AcDbLine
 10
184.2569124128
 20
75.8437421248
 30
0.0
 11
183.3868652757
 21
74.2775704786
 31
0.0
  0
LINE
  5
9C
330
1F
100
AcDbEntity
  8
0
  6
Continuous
 62
     7
370
    15
100
AcDbLine
 10
182.9337507661
 20
73.734229438
 30
0.0
 11
183.3868652757
 21
74.2775704786
 31
0.0
  0
LINE
  5
9D
330
1F
100
AcDbEntity
  8
0
  6
Continuous
 62
     7
370
    15
100
AcDbLine
 10
182.9337507661
 20
73.734229438
 30
0.0
 11
182.9337507661
 21
150.3134798333
 31
0.0
  0
LINE
  5
9E
330
1F
100
AcDbEntity
  8
0
  6
Continuous
 62
     7
370
    15
100
AcDbLine
 10
184.2569124128
 20
150.3134798333
 30
0.0
 11
182.9337507661
 21
150.3134798333
 31
0.0
  0
LINE
  5
9F
330
1F
100
AcDbEntity
  8
0
  6
Continuous
 62
     7
370
    15
100
AcDbLine
 10
184.2569124128
 20
75.8437421248
 30
0.0
 11
184.2569124128
 21
150.3134798333
 31
0.0
  0
SPLINE
  5
A0
330
1F
100
AcDbEntity
  8
0
  6
Continuous
 62
     7
370
    15
100
AcDbSpline
210
0.0
220
0.0
230
1.0
 70
     8
 71
     3
 72
    10
 73
     6
 74
     0
 42
0.000000001
 43
0.00000001
 40
0.0
 40
0.0
 40
0.0
 40
0.0
 40
0.4230135748590275
 40
0.8493046200449914
 40
0.9999999999999999
 40
0.9999999999999999
 40
0.9999999999999999
 40
0.9999999999999999
 10
178.482572751794
 20
73.83002900334138
 30
0.0
 10
178.5270634704085
 20
73.80814477850234
 30
0.0
 10
178.6163896176392
 20
73.76420677186013
 30
0.0
 10
178.7597983167595
 20
73.73679344867345
 30
0.0
 10
178.844730509261
 20
73.73476041812762
 30
0.0
 10
178.8669128145314
 20
73.73422943802616
 30
0.0
  0
SPLINE
  5
A1
330
1F
100
AcDbEntity
  8
0
  6
Continuous
 62
     7
370
    15
100
AcDbSpline
210
0.0
220
0.0
230
1.0
 70
     8
 71
     3
 72
    11
 73
     7
 74
     0
 42
0.000000001
 43
0.00000001
 40
0.0
 40
0.0
 40
0.0
 40
0.0
 40
0.2776575022357186
 40
0.6527282028936863
 40
0.9350112313446084
 40
1.0
 40
1.0
 40
1.0
 40
1.0
 10
178.482572751794
 20
73.83002900334138
 30
0.0
 10
178.4512997914255
 20
73.86992644899843
 30
0.0
 10
178.3777820832558
 20
73.96371893720443
 30
0.0
 10
178.2996852094868
 20
74.13471125240959
 30
0.0
 10
178.2686793026785
 20
74.28624408863676
 30
0.0
 10
178.2671905733278
 20
74.3606020205034
 30
0.0
 10
178.2669119711257
 20
74.3745174333646
 30
0.0
  0
LINE
  5
A2
330
1F
100
AcDbEntity
  8
0
  6
Continuous
 62
     7
370
    15
100
AcDbLine
 10
178.2669119711
 20
74.3745174334
 30
0.0
 11
178.2669119711
 21
150.3134798333
 31
0.0
  0
SPLINE
  5
A3
330
1F
100
AcDbEntity
  8
0
  6
Continuous
 62
     7
370
    15
100
AcDbSpline
210
0.0
220
0.0
230
1.0
 70
    24
 71
     3
 72
    13
 73
     9
 74
     0
 42
0.000000001
 43
0.00000001
 40
0.0
 40
0.0
 40
0.0
 40
0.0
 40
0.0569209336029511
 40
0.2067590977668465
 40
0.362771966615386
 40
0.5420831905010555
 40
0.7585662762291232
 40
0.9999999999999999
 40
0.9999999999999999
 40
0.9999999999999999
 40
0.9999999999999999
 10
178.8669128145314
 20
150.3134798333242
 30
0.0
 10
178.846599730589
 20
150.3134798333242
 30
0.0
 10
178.7728146634271
 20
150.3134798333241
 30
0.0
 10
178.6466533055732
 20
150.3134798333242
 30
0.0
 10
178.5026857233943
 20
150.3134798333241
 30
0.0
 10
178.3787062315204
 20
150.3134798333242
 30
0.0
 10
178.2858416874627
 20
150.3134798333241
 30
0.0
 10
178.2734469942475
 20
150.3134798333242
 30
0.0
 10
178.2669119711257
 20
150.3134798333242
 30
0.0
  0
LINE
  5
A4
330
1F
100
AcDbEntity
  8
0
  6
Continuous
 62
     7
370
    15
100
AcDbLine
 10
178.8669128145
 20
73.734229438
 30
0.0
 11
182.9337507661
 21
73.734229438
 31
0.0
  0
LINE
  5
A5
330
1F
100
AcDbEntity
  8
0
  6
Continuous
 62
     7
370
    15
100
AcDbLine
 10
182.9337507661
 20
150.3134798333
 30
0.0
 11
178.8669128145
 21
150.3134798333
 31
0.0
  0
LINE
  5
A6
330
1F
100
AcDbEntity
  8
0
  6
Continuous
 62
     7
370
    15
100
AcDbLine
 10
188.0769126292
 20
106.6662278101
 30
0.0
 11
188.0769126292
 21
150.3134798333
 31
0.0
  0
LINE
  5
A7
330
1F
100
AcDbEntity
  8
0
  6
Continuous
 62
     7
370
    15
100
AcDbLine
 10
189.4000724132
 20
150.3134798333
 30
0.0
 11
188.0769126292
 21
150.3134798333
 31
0.0
  0
LINE
  5
A8
330
1F
100
AcDbEntity
  8
0
  6
Continuous
 62
     7
370
    15
100
AcDbLine
 10
189.4000724132
 20
106.1663385555
 30
0.0
 11
189.4000724132
 21
150.3134798333
 31
0.0
  0
SPLINE
  5
A9
330
1F
100
AcDbEntity
  8
0
  6
Continuous
 62
     7
370
    15
100
AcDbSpline
210
0.0
220
0.0
230
1.0
 70
     8
 71
     3
 72
     9
 73
     5
 74
     0
 42
0.000000001
 43
0.00000001
 40
0.0
 40
0.0
 40
0.0
 40
0.0
 40
0.4949656808335898
 40
1.0
 40
1.0
 40
1.0
 40
1.0
 10
189.4000724132396
 20
106.1663385555341
 30
0.0
 10
189.1801257303182
 20
106.2950222883979
 30
0.0
 10
188.735758188409
 20
106.5550074506966
 30
0.0
 10
188.2979970351531
 20
106.6289063365832
 30
0.0
 10
188.076912629161
 20
106.6662278101041
 30
0.0
  0
LINE
  5
AA
330
1F
100
AcDbEntity
  8
0
  6
Continuous
 62
     7
370
    15
100
AcDbLine
 10
193.5169130738
 20
150.3134798333
 30
0.0
 11
189.4000724132
 21
150.3134798333
 31
0.0
  0
LINE
  5
AB
330
1F
100
AcDbEntity
  8
0
  6
Continuous
 62
     7
370
    15
100
AcDbLine
 10
189.4000724132
 20
73.734229438
 30
0.0
 11
193.5169130738
 21
73.734229438
 31
0.0
  0
LINE
  5
AC
330
1F
100
AcDbEntity
  8
0
  6
Continuous
 62
     7
370
    15
100
AcDbLine
 10
189.4000724132
 20
73.734229438
 30
0.0
 11
189.4000724132
 21
101.4745440409
 31
0.0
  0
SPLINE
  5
AD
330
1F
100
AcDbEntity
  8
0
  6
Continuous
 62
     7
370
    15
100
AcDbSpline
210
0.0
220
0.0
230
1.0
 70
     8
 71
     3
 72
    16
 73
    12
 74
     0
 42
0.000000001
 43
0.00000001
 40
0.0
 40
0.0
 40
0.0
 40
0.0
 40
0.1110767742980187
 40
0.2221490358361159
 40
0.3333165692634383
 40
0.444515828170624
 40
0.5556012648063821
 40
0.6666014793787196
 40
0.7776797781152691
 40
0.8888770729167649
 40
1.0
 40
1.0
 40
1.0
 40
1.0
 10
189.4000724132396
 20
101.474544040878
 30
0.0
 10
189.6791567472756
 20
101.5137589696128
 30
0.0
 10
190.2373140768784
 20
101.5921872338819
 30
0.0
 10
190.961268167287
 20
102.0261696214968
 30
0.0
 10
191.4956762675279
 20
102.6421281744261
 30
0.0
 10
191.7786789436626
 20
103.3970204501752
 30
0.0
 10
191.7785244520409
 20
104.200056167732
 30
0.0
 10
191.4957436809073
 20
104.9640410744163
 30
0.0
 10
190.9618695371698
 20
105.5949838208119
 30
0.0
 10
190.2378624437591
 20
106.044036499091
 30
0.0
 10
189.6792734727324
 20
106.1255802957158
 30
0.0
 10
189.4000724132396
 20
106.1663385555341
 30
0.0
  0
SPLINE
  5
AE
330
1F
100
AcDbEntity
  8
0
  6
Continuous
 62
     7
370
    15
100
AcDbSpline
210
0.0
220
0.0
230
1.0
 70
     8
 71
     3
 72
    12
 73
     8
 74
     0
 42
0.000000001
 43
0.00000001
 40
0.0
 40
0.0
 40
0.0
 40
0.0
 40
0.142692020981203
 40
0.2847587857105273
 40
0.4820441500217294
 40
0.7519515883035046
 40
1.0
 40
1.0
 40
1.0
 40
1.0
 10
193.5169130738117
 20
73.73422943802616
 30
0.0
 10
193.5710057663061
 20
73.73722704542335
 30
0.0
 10
193.678954124768
 20
73.74320912512614
 30
0.0
 10
193.8380030564205
 20
73.79176107525953
 30
0.0
 10
193.9898260539774
 20
73.87897773861692
 30
0.0
 10
194.0970961390737
 20
74.00538752010542
 30
0.0
 10
194.1104952412311
 20
74.10239668158793
 30
0.0
 10
194.1169120545722
 20
74.14885424824494
 30
0.0
  0
SPLINE
  5
AF
330
1F
100
AcDbEntity
  8
0
  6
Continuous
 62
     7
370
    15
100
AcDbSpline
210
0.0
220
0.0
230
1.0
 70
    24
 71
     3
 72
    12
 73
     8
 74
     0
 42
0.000000001
 43
0.00000001
 40
0.0
 40
0.0
 40
0.0
 40
0.0
 40
0.1485208619646011
 40
0.4532481838959425
 40
0.6602245763152709
 40
0.8316809730591648
 40
1.0
 40
1.0
 40
1.0
 40
1.0
 10
194.1169120545722
 20
150.3134798333242
 30
0.0
 10
194.1143207429148
 20
150.3134798333242
 30
0.0
 10
194.1064127137861
 20
150.3134798333242
 30
0.0
 10
194.02408044614
 20
150.3134798333241
 30
0.0
 10
193.8677781431759
 20
150.3134798333242
 30
0.0
 10
193.6988525731931
 20
150.3134798333242
 30
0.0
 10
193.5771850950083
 20
150.3134798333242
 30
0.0
 10
193.5169130738117
 20
150.3134798333242
 30
0.0
  0
LINE
  5
B0
330
1F
100
AcDbEntity
  8
0
  6
Continuous
 62
     7
370
    15
100
AcDbLine
 10
194.1169120546
 20
74.1488542482
 30
0.0
 11
194.1169120546
 21
150.3134798333
 31
0.0
  0
SPLINE
  5
B1
330
1F
100
AcDbEntity
  8
0
  6
Continuous
 62
     7
370
    15
100
AcDbSpline
210
0.0
220
0.0
230
1.0
 70
     8
 71
     3
 72
    13
 73
     9
 74
     0
 42
0.000000001
 43
0.00000001
 40
0.0
 40
0.0
 40
0.0
 40
0.0
 40
0.0505668747759441
 40
0.2126516391430378
 40
0.3722446963407748
 40
0.5361697904311924
 40
0.7169619299433152
 40
1.0
 40
1.0
 40
1.0
 40
1.0
 10
188.076912629161
 20
106.7118402645185
 30
0.0
 10
188.0762024446629
 20
106.7199590108457
 30
0.0
 10
188.0732158670213
 20
106.7541012180105
 30
0.0
 10
188.026864692989
 20
106.7919459869323
 30
0.0
 10
187.906735108126
 20
106.7923365224637
 30
0.0
 10
187.7408137877961
 20
106.7341552236802
 30
0.0
 10
187.5146041778629
 20
106.5951177124976
 30
0.0
 10
187.3669894545347
 20
106.4318113467952
 30
0.0
 10
187.2769121255018
 20
106.3321586772992
 30
0.0
  0
SPLINE
  5
B2
330
1F
100
AcDbEntity
  8
0
  6
Continuous
 62
     7
370
    15
100
AcDbSpline
210
0.0
220
0.0
230
1.0
 70
     8
 71
     3
 72
     9
 73
     5
 74
     0
 42
0.000000001
 43
0.00000001
 40
0.0
 40
0.0
 40
0.0
 40
0.0
 40
0.8509583977881479
 40
1.0
 40
1.0
 40
1.0
 40
1.0
 10
188.076912629161
 20
102.5341805145337
 30
0.0
 10
188.451632474777
 20
102.1781337443719
 30
0.0
 10
188.8919828451241
 20
101.7597269561115
 30
0.0
 10
189.3341683736006
 20
101.5115349718661
 30
0.0
 10
189.4000724132396
 20
101.474544040878
 30
0.0
  0
LINE
  5
B3
330
1F
100
AcDbEntity
  8
0
  6
Continuous
 62
     7
370
    15
100
AcDbLine
 10
188.0769126292
 20
102.5797929689
 30
0.0
 11
188.0769126292
 21
102.5341805145
 31
0.0
  0
SPLINE
  5
B4
330
1F
100
AcDbEntity
  8
0
  6
Continuous
 62
     7
370
    15
100
AcDbSpline
210
0.0
220
0.0
230
1.0
 70
     8
 71
     3
 72
    12
 73
     8
 74
     0
 42
0.000000001
 43
0.00000001
 40
0.0
 40
0.0
 40
0.0
 40
0.0
 40
0.2589104574766221
 40
0.4654384875822698
 40
0.6734893417198345
 40
0.8528462579010887
 40
1.0
 40
1.0
 40
1.0
 40
1.0
 10
187.2769121255018
 20
103.4881975576474
 30
0.0
 10
187.3586321419349
 20
103.3949924790737
 30
0.0
 10
187.5055386872499
 20
103.2274394523278
 30
0.0
 10
187.7497449474596
 20
102.9971608056546
 30
0.0
 10
187.9417530468495
 20
102.8113713548512
 30
0.0
 10
188.0582551001941
 20
102.6688501027712
 30
0.0
 10
188.0711162779816
 20
102.6074604282129
 30
0.0
 10
188.076912629161
 20
102.5797929689481
 30
0.0
  0
SPLINE
  5
B5
330
1F
100
AcDbEntity
  8
0
  6
Continuous
 62
     7
370
    15
100
AcDbSpline
210
0.0
220
0.0
230
1.0
 70
     8
 71
     3
 72
    11
 73
     7
 74
     0
 42
0.000000001
 43
0.00000001
 40
0.0
 40
0.0
 40
0.0
 40
0.0
 40
0.2592564451147522
 40
0.5185193351564553
 40
0.7775429912067656
 40
1.0
 40
1.0
 40
1.0
 40
1.0
 10
187.2769121255018
 20
106.3321586772992
 30
0.0
 10
187.1286282455841
 20
106.1037658220103
 30
0.0
 10
186.8320567995193
 20
105.6469744337517
 30
0.0
 10
186.7250301561409
 20
104.8427198417663
 30
0.0
 10
186.8666736453195
 20
104.0884573465413
 30
0.0
 10
187.1472693622132
 20
103.6778904837929
 30
0.0
 10
187.2769121255018
 20
103.4881975576474
 30
0.0
  0
SPLINE
  5
B6
330
1F
100
AcDbEntity
  8
0
  6
Continuous
 62
     7
370
    15
100
AcDbSpline
210
0.0
220
0.0
230
1.0
 70
    24
 71
     3
 72
    14
 73
    10
 74
     0
 42
0.000000001
 43
0.00000001
 40
0.0
 40
0.0
 40
0.0
 40
0.0
 40
0.0932029977328813
 40
0.4054942345917575
 40
0.6252282597674551
 40
0.7990149975231575
 40
0.8422315106575631
 40
0.9852523530134684
 40
0.9999999999999999
 40
0.9999999999999999
 40
0.9999999999999999
 40
0.9999999999999999
 10
188.076912629161
 20
150.3134798333242
 30
0.0
 10
188.0755220193205
 20
150.3134798333242
 30
0.0
 10
188.069471953479
 20
150.3134798333241
 30
0.0
 10
187.9857076685187
 20
150.3134798333242
 30
0.0
 10
187.790824596129
 20
150.3134798333242
 30
0.0
 10
187.6179668256914
 20
150.3134798333242
 30
0.0
 10
187.458359507637
 20
150.3134798333242
 30
0.0
 10
187.3605964436977
 20
150.3134798333242
 30
0.0
 10
187.2840659304114
 20
150.3134798333242
 30
0.0
 10
187.2769121255018
 20
150.3134798333242
 30
0.0
  0
SPLINE
  5
B7
330
1F
100
AcDbEntity
  8
0
  6
Continuous
 62
     7
370
    15
100
AcDbSpline
210
0.0
220
0.0
230
1.0
 70
     8
 71
     3
 72
    13
 73
     9
 74
     0
 42
0.000000001
 43
0.00000001
 40
0.0
 40
0.0
 40
0.0
 40
0.0
 40
0.0749682050554089
 40
0.2768314787418593
 40
0.3902857192565198
 40
0.6074057262216175
 40
0.8242722965485059
 40
1.0
 40
1.0
 40
1.0
 40
1.0
 10
185.0569129164554
 20
76.81571506710789
 30
0.0
 10
185.0249724749916
 20
76.81450095842648
 30
0.0
 10
184.9070275457306
 20
76.81001767779603
 30
0.0
 10
184.7443144344325
 20
76.75884663922491
 30
0.0
 10
184.5502116060295
 20
76.63993934464736
 30
0.0
 10
184.3878734907001
 20
76.4664485667145
 30
0.0
 10
184.275447545791
 20
76.22515097494507
 30
0.0
 10
184.2626435590211
 20
76.05745791425936
 30
0.0
 10
184.2569124127961
 20
75.98239742966435
 30
0.0
  0
SPLINE
  5
B8
330
1F
100
AcDbEntity
  8
0
  6
Continuous
 62
     7
370
    15
100
AcDbSpline
210
0.0
220
0.0
230
1.0
 70
    24
 71
     3
 72
    12
 73
     8
 74
     0
 42
0.000000001
 43
0.00000001
 40
0.0
 40
0.0
 40
0.0
 40
0.0
 40
0.1323418496566123
 40
0.3081674551653069
 40
0.4828043333670748
 40
0.7418321870721979
 40
1.0
 40
1.0
 40
1.0
 40
1.0
 10
185.0569129164554
 20
150.3134798333242
 30
0.0
 10
184.9924798412389
 20
150.3134798333242
 30
0.0
 10
184.8424428206785
 20
150.3134798333242
 30
0.0
 10
184.6335004245667
 20
150.3134798333242
 30
0.0
 10
184.4336446520462
 20
150.3134798333242
 30
0.0
 10
184.2865171192005
 20
150.3134798333242
 30
0.0
 10
184.2667697023207
 20
150.3134798333242
 30
0.0
 10
184.2569124127961
 20
150.3134798333242
 30
0.0
  0
LINE
  5
B9
330
1F
100
AcDbEntity
  8
0
  6
Continuous
 62
     7
370
    15
100
AcDbLine
 10
187.2769121255
 20
76.8157150671
 30
0.0
 11
185.0569129165
 21
76.8157150671
 31
0.0
  0
LINE
  5
BA
330
1F
100
AcDbEntity
  8
0
  6
Continuous
 62
     7
370
    15
100
AcDbLine
 10
187.2769121255
 20
150.3134798333
 30
0.0
 11
185.0569129165
 21
150.3134798333
 31
0.0
  0
LINE
  5
BB
330
1F
100
AcDbEntity
  8
0
  6
Continuous
 62
     7
370
    15
100
AcDbLine
 10
188.9469616289
 20
74.2775704786
 30
0.0
 11
189.4000724132
 21
73.734229438
 31
0.0
  0
LINE
  5
BC
330
1F
100
AcDbEntity
  8
0
  6
Continuous
 62
     7
370
    15
100
AcDbLine
 10
188.9469616289
 20
74.2775704786
 30
0.0
 11
188.0769126292
 21
75.8437421248
 31
0.0
  0
LINE
  5
BD
330
1F
100
AcDbEntity
  8
0
  6
Continuous
 62
     7
370
    15
100
AcDbLine
 10
188.0769126292
 20
75.8437421248
 30
0.0
 11
188.0769126292
 21
102.5341805145
 31
0.0
  0
SPLINE
  5
BE
330
1F
100
AcDbEntity
  8
0
  6
Continuous
 62
     7
370
    15
100
AcDbSpline
210
0.0
220
0.0
230
1.0
 70
     8
 71
     3
 72
    13
 73
     9
 74
     0
 42
0.000000001
 43
0.00000001
 40
0.0
 40
0.0
 40
0.0
 40
0.0
 40
0.1926692640707691
 40
0.4200694751398626
 40
0.6428405647880934
 40
0.7830994814970524
 40
0.9855905657891775
 40
1.0
 40
1.0
 40
1.0
 40
1.0
 10
188.076912629161
 20
75.98239742966432
 30
0.0
 10
188.0700378556683
 20
76.06469580674802
 30
0.0
 10
188.0550490482594
 20
76.24412783101589
 30
0.0
 10
187.9275700039959
 20
76.49499317394387
 30
0.0
 10
187.7437968033094
 20
76.67347995355209
 30
0.0
 10
187.5281331505672
 20
76.7845377081057
 30
0.0
 10
187.3753944841681
 20
76.81493782402238
 30
0.0
 10
187.2830470758205
 20
76.8156666488147
 30
0.0
 10
187.2769121255018
 20
76.81571506710789
 30
0.0
  0
LINE
  5
BF
330
1F
100
AcDbEntity
  8
0
  6
Continuous
 62
     7
370
    15
100
AcDbLine
 10
175.0669118191
 20
85.538482301
 30
0.0
 11
175.0669118191
 21
155.3884800598
 31
0.0
  0
LINE
  5
C0
330
1F
100
AcDbEntity
  8
0
  6
Continuous
 62
     7
370
    15
100
AcDbLine
 10
188.8435848232
 20
166.4635147974
 30
0.0
 11
188.0769126292
 21
165.083220236
 31
0.0
  0
LINE
  5
C1
330
1F
100
AcDbEntity
  8
0
  6
Continuous
 62
     7
370
    15
100
AcDbLine
 10
189.4000724132
 20
167.2433298156
 30
0.0
 11
188.8435848232
 21
166.4635147974
 31
0.0
  0
LINE
  5
C2
330
1F
100
AcDbEntity
  8
0
  6
Continuous
 62
     7
370
    15
100
AcDbLine
 10
189.4000724132
 20
158.9745637104
 30
0.0
 11
189.4000724132
 21
167.2433298156
 31
0.0
  0
LINE
  5
C3
330
1F
100
AcDbEntity
  8
0
  6
Continuous
 62
     7
370
    15
100
AcDbLine
 10
188.0769126292
 20
156.0306157991
 30
0.0
 11
189.4000724132
 21
158.9745637104
 31
0.0
  0
LINE
  5
C4
330
1F
100
AcDbEntity
  8
0
  6
Continuous
 62
     7
370
    15
100
AcDbLine
 10
188.0769126292
 20
156.0306157991
 30
0.0
 11
188.0769126292
 21
165.083220236
 31
0.0
  0
LINE
  5
C5
330
1F
100
AcDbEntity
  8
0
  6
Continuous
 62
     7
370
    15
100
AcDbLine
 10
187.2769121255
 20
164.1112472937
 30
0.0
 11
185.0569129165
 21
164.1112472937
 31
0.0
  0
LINE
  5
C6
330
1F
100
AcDbEntity
  8
0
  6
Continuous
 62
     7
370
    15
100
AcDbLine
 10
185.0569129165
 20
154.8033636138
 30
0.0
 11
187.2769121255
 21
154.8033636138
 31
0.0
  0
LINE
  5
C7
330
1F
100
AcDbEntity
  8
0
  6
Continuous
 62
     7
370
    15
100
AcDbLine
 10
193.5169130738
 20
167.2433298156
 30
0.0
 11
189.4000724132
 21
167.2433298156
 31
0.0
  0
LINE
  5
C8
330
1F
100
AcDbEntity
  8
0
  6
Continuous
 62
     7
370
    15
100
AcDbLine
 10
189.4000724132
 20
158.9745637104
 30
0.0
 11
193.5169130738
 21
158.9745637104
 31
0.0
  0
SPLINE
  5
C9
330
1F
100
AcDbEntity
  8
0
  6
Continuous
 62
     7
370
    15
100
AcDbSpline
210
0.0
220
0.0
230
1.0
 70
     8
 71
     3
 72
    13
 73
     9
 74
     0
 42
0.000000001
 43
0.00000001
 40
0.0
 40
0.0
 40
0.0
 40
0.0
 40
0.1022247553500026
 40
0.3040566900974469
 40
0.508407176495504
 40
0.7195526250425748
 40
0.9390399776138865
 40
1.0
 40
1.0
 40
1.0
 40
1.0
 10
185.0569129164554
 20
164.1112472936704
 30
0.0
 10
185.0133396513117
 20
164.1134882593962
 30
0.0
 10
184.8837355966874
 20
164.1201537742108
 30
0.0
 10
184.6753390358202
 20
164.1962898319712
 30
0.0
 10
184.465401779902
 20
164.3614920066146
 30
0.0
 10
184.3159094944616
 20
164.5923206156385
 30
0.0
 10
184.2609803725148
 20
164.799165479333
 30
0.0
 10
184.2576387676363
 20
164.918609241786
 30
0.0
 10
184.2569124127961
 20
164.9445723816945
 30
0.0
  0
SPLINE
  5
CA
330
1F
100
AcDbEntity
  8
0
  6
Continuous
 62
     7
370
    15
100
AcDbSpline
210
0.0
220
0.0
230
1.0
 70
     8
 71
     3
 72
    13
 73
     9
 74
     0
 42
0.000000001
 43
0.00000001
 40
0.0
 40
0.0
 40
0.0
 40
0.0
 40
0.1352236935139941
 40
0.4490554420158087
 40
0.658119879366343
 40
0.8254996170743873
 40
0.9939234618799678
 40
1.0
 40
1.0
 40
1.0
 40
1.0
 10
184.2569124127961
 20
155.8565255329206
 30
0.0
 10
184.259775751067
 20
155.7909694430734
 30
0.0
 10
184.2692844222136
 20
155.5732685495526
 30
0.0
 10
184.3731498987714
 20
155.2614831673202
 30
0.0
 10
184.5794142774005
 20
154.9915563332103
 30
0.0
 10
184.8025755087913
 20
154.8416705475255
 30
0.0
 10
184.9693516092531
 20
154.8038007385671
 30
0.0
 10
185.0539664179883
 20
154.8033783233538
 30
0.0
 10
185.0569129164554
 20
154.8033636138036
 30
0.0
  0
SPLINE
  5
CB
330
1F
100
AcDbEntity
  8
0
  6
Continuous
 62
     7
370
    15
100
AcDbSpline
210
0.0
220
0.0
230
1.0
 70
     8
 71
     3
 72
    12
 73
     8
 74
     0
 42
0.000000001
 43
0.00000001
 40
0.0
 40
0.0
 40
0.0
 40
0.0
 40
0.2559382645430678
 40
0.5125551479490991
 40
0.747662369139036
 40
0.9508638598814199
 40
1.0
 40
1.0
 40
1.0
 40
1.0
 10
194.1169120545722
 20
166.7584683820798
 30
0.0
 10
194.1087453415627
 20
166.8194035209951
 30
0.0
 10
194.0923902615503
 20
166.9414353680022
 30
0.0
 10
193.9631094567536
 20
167.1000144608148
 30
0.0
 10
193.7790682821687
 20
167.2063933331663
 30
0.0
 10
193.6179442863848
 20
167.2412408718129
 30
0.0
 10
193.5333797926284
 20
167.2429893460532
 30
0.0
 10
193.5169130738117
 20
167.2433298155858
 30
0.0
  0
SPLINE
  5
CC
330
1F
100
AcDbEntity
  8
0
  6
Continuous
 62
     7
370
    15
100
AcDbSpline
210
0.0
220
0.0
230
1.0
 70
     8
 71
     3
 72
    13
 73
     9
 74
     0
 42
0.000000001
 43
0.00000001
 40
0.0
 40
0.0
 40
0.0
 40
0.0
 40
0.046160643589082
 40
0.211119545169445
 40
0.4059613064087658
 40
0.5995911196875489
 40
0.8281449037337145
 40
1.0
 40
1.0
 40
1.0
 40
1.0
 10
193.5169130738117
 20
158.9745637104108
 30
0.0
 10
193.5333769859241
 20
158.9740319198795
 30
0.0
 10
193.608676058178
 20
158.9715997316267
 30
0.0
 10
193.7506974355836
 20
158.9277027505316
 30
0.0
 10
193.9103501445211
 20
158.8048814581042
 30
0.0
 10
194.0352305820767
 20
158.6206441337153
 30
0.0
 10
194.1056102707745
 20
158.4168894713117
 30
0.0
 10
194.113518045475
 20
158.2739237688463
 30
0.0
 10
194.1169120545722
 20
158.212563030441
 30
0.0
  0
LINE
  5
CD
330
1F
100
AcDbEntity
  8
0
  6
Continuous
 62
     7
370
    15
100
AcDbLine
 10
194.1169120546
 20
158.2125630304
 30
0.0
 11
194.1169120546
 21
166.7584683821
 31
0.0
  0
SPLINE
  5
CE
330
1F
100
AcDbEntity
  8
0
  6
Continuous
 62
     7
370
    15
100
AcDbSpline
210
0.0
220
0.0
230
1.0
 70
     8
 71
     3
 72
    12
 73
     8
 74
     0
 42
0.000000001
 43
0.00000001
 40
0.0
 40
0.0
 40
0.0
 40
0.0
 40
0.2008803955838861
 40
0.4282581531919187
 40
0.6508145273407403
 40
0.8647528066364746
 40
0.9999999999999999
 40
0.9999999999999999
 40
0.9999999999999999
 40
0.9999999999999999
 10
188.076912629161
 20
164.9445723816945
 30
0.0
 10
188.0694630301325
 20
164.8587745093523
 30
0.0
 10
188.0535811840583
 20
164.6758614966101
 30
0.0
 10
187.9211516914099
 20
164.4231489443542
 30
0.0
 10
187.712631935271
 20
164.2265140615881
 30
0.0
 10
187.4834412462362
 20
164.1251429269207
 30
0.0
 10
187.3345723245063
 20
164.1151267706936
 30
0.0
 10
187.2769121255018
 20
164.1112472936704
 30
0.0
  0
SPLINE
  5
CF
330
1F
100
AcDbEntity
  8
0
  6
Continuous
 62
     7
370
    15
100
AcDbSpline
210
0.0
220
0.0
230
1.0
 70
     8
 71
     3
 72
    13
 73
     9
 74
     0
 42
0.000000001
 43
0.00000001
 40
0.0
 40
0.0
 40
0.0
 40
0.0
 40
0.0804903424699555
 40
0.2204756456842417
 40
0.3712548488254411
 40
0.5965400059908036
 40
0.8836205072698007
 40
0.9999999999999999
 40
0.9999999999999999
 40
0.9999999999999999
 40
0.9999999999999999
 10
187.2769121255018
 20
154.8033636138036
 30
0.0
 10
187.3160338039695
 20
154.805650357096
 30
0.0
 10
187.4231942042827
 20
154.8119141048755
 30
0.0
 10
187.5949118851427
 20
154.8789626294295
 30
0.0
 10
187.7954285531842
 20
155.0336563232857
 30
0.0
 10
187.9794027847799
 20
155.3047984116338
 30
0.0
 10
188.067351725443
 20
155.6041899030204
 30
0.0
 10
188.074772173976
 20
155.8000336861974
 30
0.0
 10
188.076912629161
 20
155.8565255329206
 30
0.0
  0
SPLINE
  5
D0
330
1F
100
AcDbEntity
  8
0
  6
Continuous
 62
     7
370
    15
100
AcDbSpline
210
0.0
220
0.0
230
1.0
 70
     8
 71
     3
 72
    13
 73
     9
 74
     0
 42
0.000000001
 43
0.00000001
 40
0.0
 40
0.0
 40
0.0
 40
0.0
 40
0.2101432683864977
 40
0.5130289845157361
 40
0.706846591081291
 40
0.7853734635619405
 40
0.9389598358176393
 40
1.0
 40
1.0
 40
1.0
 40
1.0
 10
178.2669119711257
 20
158.212563030441
 30
0.0
 10
178.2719851709373
 20
158.287553531964
 30
0.0
 10
178.2843705238805
 20
158.4706300641796
 30
0.0
 10
178.3913736254767
 20
158.7082997692269
 30
0.0
 10
178.5368173436785
 20
158.8577464657521
 30
0.0
 10
178.6669580673203
 20
158.9364877598773
 30
0.0
 10
178.7686248917794
 20
158.9704491323173
 30
0.0
 10
178.8451491741338
 20
158.9736526300308
 30
0.0
 10
178.8669128145314
 20
158.9745637104108
 30
0.0
  0
LINE
  5
D1
330
1F
100
AcDbEntity
  8
0
  6
Continuous
 62
     7
370
    15
100
AcDbLine
 10
178.8669128145
 20
158.9745637104
 30
0.0
 11
182.9337507661
 21
158.9745637104
 31
0.0
  0
LINE
  5
D2
330
1F
100
AcDbEntity
  8
0
  6
Continuous
 62
     7
370
    15
100
AcDbLine
 10
182.9337507661
 20
158.9745637104
 30
0.0
 11
184.2569124128
 21
156.0306157991
 31
0.0
  0
LINE
  5
D3
330
1F
100
AcDbEntity
  8
0
  6
Continuous
 62
     7
370
    15
100
AcDbLine
 10
184.2569124128
 20
156.0306157991
 30
0.0
 11
184.2569124128
 21
155.8565255329
 31
0.0
  0
LINE
  5
D4
330
1F
100
AcDbEntity
  8
0
  6
Continuous
 62
     7
370
    15
100
AcDbLine
 10
188.0769126292
 20
155.8565255329
 30
0.0
 11
188.0769126292
 21
156.0306157991
 31
0.0
  0
LINE
  5
D5
330
1F
100
AcDbEntity
  8
0
  6
Continuous
 62
     7
370
    15
100
AcDbLine
 10
178.2669119711
 20
158.2125630304
 30
0.0
 11
178.2669119711
 21
150.3134798333
 31
0.0
  0
LINE
  5
D6
330
1F
100
AcDbEntity
  8
0
  6
Continuous
 62
     7
370
    15
100
AcDbLine
 10
194.1169120546
 20
158.2125630304
 30
0.0
 11
194.1169120546
 21
150.3134798333
 31
0.0
  0
SPLINE
  5
D7
330
1F
100
AcDbEntity
  8
0
  6
Continuous
 62
     7
370
    15
100
AcDbSpline
210
0.0
220
0.0
230
1.0
 70
     8
 71
     3
 72
    11
 73
     7
 74
     0
 42
0.000000001
 43
0.00000001
 40
0.0
 40
0.0
 40
0.0
 40
0.0
 40
0.3986830717533045
 40
0.7109121906173357
 40
0.9458998371834026
 40
1.0
 40
1.0
 40
1.0
 40
1.0
 10
178.5567805345393
 20
167.1736445352628
 30
0.0
 10
178.498498598592
 20
167.1114109580886
 30
0.0
 10
178.3945730956215
 20
167.000439081394
 30
0.0
 10
178.2996888308838
 20
166.7921891316353
 30
0.0
 10
178.2686791597439
 20
166.6407284629808
 30
0.0
 10
178.2671905507955
 20
166.5663682228299
 30
0.0
 10
178.2669119711257
 20
166.5524523779943
 30
0.0
  0
SPLINE
  5
D8
330
1F
100
AcDbEntity
  8
0
  6
Continuous
 62
     7
370
    15
100
AcDbSpline
210
0.0
220
0.0
230
1.0
 70
     8
 71
     3
 72
     9
 73
     5
 74
     0
 42
0.000000001
 43
0.00000001
 40
0.0
 40
0.0
 40
0.0
 40
0.0
 40
0.5581640986882475
 40
1.0
 40
1.0
 40
1.0
 40
1.0
 10
178.8669128145314
 20
167.2433298155858
 30
0.0
 10
178.804964392135
 20
167.2392652926727
 30
0.0
 10
178.6939783531871
 20
167.231983342933
 30
0.0
 10
178.5988234062733
 20
167.1915218676589
 30
0.0
 10
178.5567805345393
 20
167.1736445352628
 30
0.0
  0
LINE
  5
D9
330
1F
100
AcDbEntity
  8
0
  6
Continuous
 62
     7
370
    15
100
AcDbLine
 10
178.2669119711
 20
158.2125630304
 30
0.0
 11
178.2669119711
 21
166.552452378
 31
0.0
  0
LINE
  5
DA
330
1F
100
AcDbEntity
  8
0
  6
Continuous
 62
     7
370
    15
100
AcDbLine
 10
183.4902420814
 20
166.4635147974
 30
0.0
 11
182.9337507661
 21
167.2433298156
 31
0.0
  0
LINE
  5
DB
330
1F
100
AcDbEntity
  8
0
  6
Continuous
 62
     7
370
    15
100
AcDbLine
 10
184.2569124128
 20
165.083220236
 30
0.0
 11
183.4902420814
 21
166.4635147974
 31
0.0
  0
LINE
  5
DC
330
1F
100
AcDbEntity
  8
0
  6
Continuous
 62
     7
370
    15
100
AcDbLine
 10
184.2569124128
 20
156.0306157991
 30
0.0
 11
184.2569124128
 21
165.083220236
 31
0.0
  0
LINE
  5
DD
330
1F
100
AcDbEntity
  8
0
  6
Continuous
 62
     7
370
    15
100
AcDbLine
 10
182.9337507661
 20
158.9745637104
 30
0.0
 11
182.9337507661
 21
167.2433298156
 31
0.0
  0
LINE
  5
DE
330
1F
100
AcDbEntity
  8
0
  6
Continuous
 62
     7
370
    15
100
AcDbLine
 10
182.9337507661
 20
167.2433298156
 30
0.0
 11
178.8669128145
 21
167.2433298156
 31
0.0
  0
SPLINE
  5
DF
330
1F
100
AcDbEntity
  8
0
  6
Continuous
 62
     7
370
    15
100
AcDbSpline
210
0.0
220
0.0
230
1.0
 70
     8
 71
     3
 72
    23
 73
    19
 74
     0
 42
0.000000001
 43
0.00000001
 40
0.0
 40
0.0
 40
0.0
 40
0.0
 40
0.0406579024154398
 40
0.1225135999929463
 40
0.2089414425509381
 40
0.3078413433022212
 40
0.3647834802571096
 40
0.421733735183637
 40
0.4832090083858926
 40
0.5446847321703377
 40
0.6070576707458775
 40
0.6694239532332605
 40
0.7315134123415172
 40
0.7935584070573074
 40
0.8898913455317454
 40
0.938536946327176
 40
0.9871522616603389
 40
1.0
 40
1.0
 40
1.0
 40
1.0
 10
219.1169142897464
 20
120.4634811803891
 30
0.0
 10
219.1022522951805
 20
120.1646409777918
 30
0.0
 10
219.0580716161334
 20
119.2641520969656
 30
0.0
 10
218.5420742594487
 20
117.7872449236601
 30
0.0
 10
217.3866106801369
 20
116.1959177525427
 30
0.0
 10
215.9586792473606
 20
115.1184831593112
 30
0.0
 10
214.5420988484993
 20
114.4726918028825
 30
0.0
 10
213.3025146250689
 20
114.1200124955192
 30
0.0
 10
211.9857632566008
 20
113.9604203253688
 30
0.0
 10
210.6192568757872
 20
114.0080463588138
 30
0.0
 10
209.2743843898265
 20
114.2770372453346
 30
0.0
 10
207.9905967788473
 20
114.7588335014474
 30
0.0
 10
206.815030999531
 20
115.4521790956903
 30
0.0
 10
205.5965463360772
 20
116.5024844318888
 30
0.0
 10
204.7190387474235
 20
117.768349998417
 30
0.0
 10
204.252007012015
 20
119.1128097740718
 30
0.0
 10
204.1255451058384
 20
119.9177057322534
 30
0.0
 10
204.1184059954458
 20
120.3691209944732
 30
0.0
 10
204.1169136937
 20
120.4634811803891
 30
0.0
  0
SPLINE
  5
E0
330
1F
100
AcDbEntity
  8
0
  6
Continuous
 62
     7
370
    15
100
AcDbSpline
210
0.0
220
0.0
230
1.0
 70
     8
 71
     3
 72
    23
 73
    19
 74
     0
 42
0.000000001
 43
0.00000001
 40
0.0
 40
0.0
 40
0.0
 40
0.0
 40
0.0722614121239717
 40
0.1546458878782462
 40
0.2451920333824336
 40
0.2572053293853526
 40
0.3168315962183252
 40
0.3764791899650844
 40
0.436469071931646
 40
0.4964609624204384
 40
0.558719485563055
 40
0.6209763417480894
 40
0.6833265885677611
 40
0.745651420872205
 40
0.8060571451957361
 40
0.8663888333551995
 40
0.9532269197572654
 40
1.0
 40
1.0
 40
1.0
 40
1.0
 10
204.1169136937
 20
120.4634811803891
 30
0.0
 10
204.1624944124443
 20
120.9960544988091
 30
0.0
 10
204.2600412291083
 20
122.1358090547542
 30
0.0
 10
205.0752347975735
 20
123.7769444535465
 30
0.0
 10
205.9922231568955
 20
124.7813719957038
 30
0.0
 10
206.9145543821699
 20
125.5157891386505
 30
0.0
 10
207.7255439210379
 20
126.0304139852383
 30
0.0
 10
208.9348118699134
 20
126.5440175702753
 30
0.0
 10
210.2184874602003
 20
126.8585750027251
 30
0.0
 10
211.5572649814242
 20
126.9756500874045
 30
0.0
 10
212.9150000654944
 20
126.8770002952912
 30
0.0
 10
214.2539831188124
 20
126.5620614220012
 30
0.0
 10
215.5171386619405
 20
126.0291901799743
 30
0.0
 10
216.6567026021217
 20
125.2992683985013
 30
0.0
 10
217.6313957223938
 20
124.3812485496262
 30
0.0
 10
218.5139227576169
 20
123.1474236371798
 30
0.0
 10
219.0424109225343
 20
121.7897298202691
 30
0.0
 10
219.0975957958474
 20
120.8073733723365
 30
0.0
 10
219.1169142897464
 20
120.4634811803891
 30
0.0
  0
LINE
  5
E1
330
1F
100
AcDbEntity
  8
0
  6
Continuous
 62
     7
370
    15
100
AcDbLine
 10
223.7669147725
 20
99.4634833262
 30
0.0
 11
223.7669147725
 21
141.4634790346
 31
0.0
  0
LINE
  5
E2
330
1F
100
AcDbEntity
  8
0
  6
Continuous
 62
     7
370
    15
100
AcDbLine
 10
224.1669140931
 20
99.8634751961
 30
0.0
 11
224.1669140931
 21
141.0634797141
 31
0.0
  0
LINE
  5
E3
330
1F
100
AcDbEntity
  8
0
  6
Continuous
 62
     7
370
    15
100
AcDbLine
 10
73.4669111843
 20
102.0846422836
 30
0.0
 11
73.4669111843
 21
138.8423275277
 31
0.0
  0
ARC
  5
E4
330
1F
100
AcDbEntity
  8
0
  6
Continuous
 62
     7
370
    15
100
AcDbCircle
 10
189.1197687166
 20
105.26410147
 30
0.0
 40
2.355764260551991
100
AcDbArc
 50
185.3967456243
 51
252.5123472928
  0
ARC
  5
E5
330
1F
100
AcDbEntity
  8
0
  6
Continuous
 62
     7
370
    15
100
AcDbCircle
 10
189.2787337085
 20
105.3923186862
 30
0.0
 40
2.528354908453161
100
AcDbArc
 50
249.9487587039
 51
339.7568437349
  0
ARC
  5
E6
330
1F
100
AcDbEntity
  8
0
  6
Continuous
 62
     7
370
    15
100
AcDbCircle
 10
189.0980700956
 20
105.1806737003
 30
0.0
 40
2.183119305195741
100
AcDbArc
 50
159.3157055275
 51
252.9988481486
  0
ARC
  5
E7
330
1F
100
AcDbEntity
  8
0
  6
Continuous
 62
     7
370
    15
100
AcDbCircle
 10
189.2816459816
 20
105.3169134316
 30
0.0
 40
2.370968683712664
100
AcDbArc
 50
249.717349673
 51
345.4451958949
  0
ARC
  5
E8
330
1F
100
AcDbEntity
  8
0
  6
Continuous
 62
     7
370
    15
100
AcDbCircle
 10
189.1123825243
 20
105.1698730143
 30
0.0
 40
1.83699767239221
100
AcDbArc
 50
124.8102928026
 51
253.2468643144
  0
ARC
  5
E9
330
1F
100
AcDbEntity
  8
0
  6
Continuous
 62
     7
370
    15
100
AcDbCircle
 10
189.2874258364
 20
105.2626907619
 30
0.0
 40
1.98134519505779
100
AcDbArc
 50
249.1701156699
 51
357.5179705621
  0
CIRCLE
  5
EA
330
1F
100
AcDbEntity
  8
0
  6
HIDDEN
 62
     7
370
     0
100
AcDbCircle
 10
211.6169125031
 20
120.4634825148
 30
0.0
 40
5.181257848382057
  0
CIRCLE
  5
EB
330
1F
100
AcDbEntity
  8
0
  6
HIDDEN
 62
     7
370
     0
100
AcDbCircle
 10
211.6169125031
 20
120.4634825148
 30
0.0
 40
4.172547133356727
  0
CIRCLE
  5
EC
330
1F
100
AcDbEntity
  8
0
  6
HIDDEN
 62
     7
370
     0
100
AcDbCircle
 10
211.6169125031
 20
120.4634825148
 30
0.0
 40
3.872547133356739
  0
LWPOLYLINE
  5
ED
330
1F
100
AcDbEntity
  8
0
  6
HIDDEN
 62
     7
370
     0
100
AcDbPolyline
 90
       23
 70
   128
 43
0.0
 10
189.2669119115
 20
104.6061720774
 10
189.9712450977
 20
104.7013308928
 10
190.618514287
 20
104.9791034386
 10
191.1562860186
 20
105.4169740603
 10
191.5409930225
 20
105.9794928953
 10
191.7414657946
 20
106.6210623905
 10
191.7414657946
 20
107.2897221968
 10
191.5409930225
 20
107.9313065931
 10
191.1562860186
 20
108.493810527
 10
190.618514287
 20
108.9316960499
 10
189.9712450977
 20
109.2094685957
 10
189.2669119115
 20
109.3046274111
 10
188.5625824507
 20
109.2094685957
 10
187.915309536
 20
108.9316960499
 10
187.3775378044
 20
108.493810527
 10
186.9928326632
 20
107.9313065931
 10
186.7923580284
 20
107.2897221968
 10
186.7923580284
 20
106.6210623905
 10
186.9928326632
 20
105.9794928953
 10
187.3775378044
 20
105.4169740603
 10
187.915309536
 20
104.9791034386
 10
188.5625824507
 20
104.7013308928
 10
189.2669119115
 20
104.6061720774
  0
LWPOLYLINE
  5
EE
330
1F
100
AcDbEntity
  8
0
  6
HIDDEN
 62
     7
370
     0
100
AcDbPolyline
 90
       25
 70
   128
 43
0.0
 10
178.5386439587
 20
106.5586265251
 10
178.7220791157
 20
105.7972516939
 10
179.0053893055
 20
105.087762706
 10
179.3692682113
 20
104.4785287306
 10
179.7889184381
 20
104.0110346005
 10
180.2357409324
 20
103.7171538994
 10
180.6792851712
 20
103.616913788
 10
181.0893260117
 20
103.7171538994
 10
181.4379163261
 20
104.0110346005
 10
181.7013036634
 20
104.4785287306
 10
181.8615377124
 20
105.087762706
 10
181.9076996471
 20
105.7972516939
 10
181.8366397347
 20
106.5586265251
 10
181.6532045777
 20
107.3199864552
 10
181.3698943879
 20
108.0294754431
 10
181.0060154821
 20
108.6387243197
 10
180.5863652553
 20
109.1062184498
 10
180.139542761
 20
109.4000991509
 10
179.6959985222
 20
109.500324361
 10
179.2859576817
 20
109.4000991509
 10
178.9373673673
 20
109.1062184498
 10
178.67398003
 20
108.6387243197
 10
178.513745981
 20
108.0294754431
 10
178.4675840463
 20
107.3199864552
 10
178.5386439587
 20
106.5586265251
  0
LWPOLYLINE
  5
EF
330
1F
100
AcDbEntity
  8
0
  6
HIDDEN
 62
     7
370
     0
100
AcDbPolyline
 90
       21
 70
   128
 43
0.0
 10
179.3016746815
 20
106.6228803322
 10
179.4645182963
 20
105.9865560457
 10
179.7244131739
 20
105.4125186131
 10
180.0559174444
 20
104.956960313
 10
180.4265819664
 20
104.6644803211
 10
180.8001242752
 20
104.5636888668
 10
181.1399787839
 20
104.6644803211
 10
181.4128767873
 20
104.956960313
 10
181.5921079542
 20
105.4125186131
 10
181.6601261671
 20
105.9865560457
 10
181.6102724697
 20
106.6228803322
 10
181.4474288549
 20
107.2592046187
 10
181.1875339772
 20
107.8332420513
 10
180.8560297068
 20
108.2888003513
 10
180.4853651847
 20
108.5812952444
 10
180.1118228759
 20
108.6820717976
 10
179.7719702299
 20
108.5812952444
 10
179.4990703638
 20
108.2888003513
 10
179.319839197
 20
107.8332420513
 10
179.2518228467
 20
107.2592046187
 10
179.3016746815
 20
106.6228803322
  0
ELLIPSE
  5
F0
330
1F
100
AcDbEntity
  8
0
  6
HIDDEN
 62
     7
370
     0
100
AcDbEllipse
 10
189.2669125031
 20
108.7329724034
 30
0.0
 11
1.760776919379083
 21
2.232245799914466
 31
0.0
210
0.0
220
0.0
230
1.0
 40
0.5126701559
 41
1.100887047646267
 42
4.029627027608273
  0
ARC
  5
F1
330
1F
100
AcDbEntity
  8
0
  6
HIDDEN
 62
     7
370
     0
100
AcDbCircle
 10
188.57029325
 20
109.9104318374
 30
0.0
 40
0.7946765989738104
100
AcDbArc
 50
53.4234725008
 51
99.1641120745
  0
ELLIPSE
  5
F2
330
1F
100
AcDbEntity
  8
0
  6
HIDDEN
 62
     7
370
     0
100
AcDbEllipse
 10
189.2669125031
 20
108.7329724034
 30
0.0
 11
1.760776919379083
 21
-1.388886188042946
 31
0.0
210
0.0
220
0.0
230
1.0
 40
0.8239737799
 41
2.549926265248556
 42
4.885930273856093
  0
ARC
  5
F3
330
1F
100
AcDbEntity
  8
0
  6
HIDDEN
 62
     7
370
     0
100
AcDbCircle
 10
189.5130557579
 20
107.8936369982
 30
0.0
 40
1.353359285947789
100
AcDbArc
 50
217.8026699375
 51
249.7140211356
  0
LWPOLYLINE
  5
F4
330
1F
100
AcDbEntity
  8
0
  6
HIDDEN
 62
     7
370
     0
100
AcDbPolyline
 90
       21
 70
   128
 43
0.0
 10
189.2669119115
 20
105.031838648
 10
189.9158500309
 20
105.1284130737
 10
190.5012607749
 20
105.408718817
 10
190.9658491786
 20
105.8452781365
 10
191.2641294475
 20
106.3953843042
 10
191.3669139321
 20
107.0051845238
 10
191.2641294475
 20
107.6149847433
 10
190.9658491786
 20
108.1651058123
 10
190.5012607749
 20
108.6016651318
 10
189.9158500309
 20
108.8819559738
 10
189.2669119115
 20
108.9785453007
 10
188.6179775174
 20
108.8819559738
 10
188.0325630482
 20
108.6016651318
 10
187.5679765071
 20
108.1651058123
 10
187.2696943755
 20
107.6149847433
 10
187.1669117536
 20
107.0051845238
 10
187.2696943755
 20
106.3953843042
 10
187.5679765071
 20
105.8452781365
 10
188.0325630482
 20
105.408718817
 10
188.6179775174
 20
105.1284130737
 10
189.2669119115
 20
105.031838648
  0
SPLINE
  5
F5
330
1F
100
AcDbEntity
  8
0
  6
HIDDEN
 62
     7
370
     0
100
AcDbSpline
210
0.0
220
0.0
230
1.0
 70
    11
 71
     3
 72
    27
 73
    23
 74
     0
 42
0.000000001
 43
0.00000001
 40
0.0
 40
0.0
 40
0.0
 40
0.0
 40
0.0490745117467658
 40
0.0979898713679517
 40
0.1508478091313801
 40
0.2071049416070417
 40
0.2593992164817228
 40
0.3072769240116587
 40
0.355863288855722
 40
0.4089805564324159
 40
0.4652650225208183
 40
0.5170679948698272
 40
0.5634502354316929
 40
0.6120260226813179
 40
0.6665431236216514
 40
0.7223052700627922
 40
0.7730121793236774
 40
0.8205398498527411
 40
0.8701611158907742
 40
0.924628555054799
 40
0.9804900479294549
 40
1.0
 40
1.0
 40
1.0
 40
1.0
 10
189.2669119115211
 20
117.2263901755407
 30
0.0
 10
189.0474102592626
 20
117.2413846797456
 30
0.0
 10
188.6091188141871
 20
117.2713250599139
 30
0.0
 10
188.0159638268063
 20
117.5097740492458
 30
0.0
 10
187.5258240254083
 20
117.8981674837679
 30
0.0
 10
187.2098900344688
 20
118.4555763983699
 30
0.0
 10
187.133245761229
 20
119.1073411848983
 30
0.0
 10
187.2764253540962
 20
119.7478586396397
 30
0.0
 10
187.6038381251387
 20
120.3371774701239
 30
0.0
 10
188.1130931587304
 20
120.838416883219
 30
0.0
 10
188.7741389164009
 20
121.1552693770919
 30
0.0
 10
189.4778096575675
 20
121.2009958210853
 30
0.0
 10
190.1137371470899
 20
121.0094418729738
 30
0.0
 10
190.6696366590861
 20
120.6280948949053
 30
0.0
 10
191.1175756425241
 20
120.0645046334958
 30
0.0
 10
191.3702877709847
 20
119.3852005236839
 30
0.0
 10
191.3803963429717
 20
118.7246018822004
 30
0.0
 10
191.1839719072396
 20
118.1626060315391
 30
0.0
 10
190.8055777609017
 20
117.7044778277623
 30
0.0
 10
190.2483700195721
 20
117.3740540831752
 30
0.0
 10
189.6895567091283
 20
117.2384178701965
 30
0.0
 10
189.3538180912732
 20
117.2288633657933
 30
0.0
 10
189.2669119115211
 20
117.2263901755407
 30
0.0
  0
LINE
  5
F6
330
1F
100
AcDbEntity
  8
0
  6
HIDDEN
 62
     7
370
     0
100
AcDbLine
 10
188.443730789
 20
110.6949653551
 30
0.0
 11
189.0438378032
 21
110.5486061499
 31
0.0
  0
LINE
  5
F7
330
1F
100
AcDbEntity
  8
0
  6
HIDDEN
 62
     7
370
     0
100
AcDbLine
 10
189.0438378032
 20
106.6242214367
 30
0.0
 11
188.443730789
 21
107.0641037151
 31
0.0
  0
LINE
  5
F8
330
1F
100
AcDbEntity
  8
0
  6
HIDDEN
 62
     7
370
     0
100
AcDbLine
 10
223.6169122334
 20
109.2451866791
 30
0.0
 11
223.6169122334
 21
131.6817756817
 31
0.0
  0
LINE
  5
F9
330
1F
100
AcDbEntity
  8
0
  6
HIDDEN
 62
     7
370
     0
100
AcDbLine
 10
220.3169159766
 20
112.4318298027
 30
0.0
 11
220.3169159766
 21
128.4951400086
 31
0.0
  0
LINE
  5
FA
330
1F
100
AcDbEntity
  8
0
  6
HIDDEN
 62
     7
370
     0
100
AcDbLine
 10
178.4384858038
 20
85.1634796784
 30
0.0
 11
178.2669119711
 21
85.1634796784
 31
0.0
  0
ELLIPSE
  5
FB
330
1F
100
AcDbEntity
  8
0
  6
HIDDEN
 62
     7
370
     0
100
AcDbEllipse
 10
178.4384853783
 20
83.1634825148
 30
0.0
 11
0.0
 21
2.0
 31
0.0
210
0.0
220
0.0
230
1.0
 40
0.4142135624
 41
4.712388980384695
 42
6.283185307179586
  0
LINE
  5
FC
330
1F
100
AcDbEntity
  8
0
  6
HIDDEN
 62
     7
370
     0
100
AcDbLine
 10
178.2669119711
 20
157.9634826705
 30
0.0
 11
178.4384858038
 21
157.9634826705
 31
0.0
  0
ELLIPSE
  5
FD
330
1F
100
AcDbEntity
  8
0
  6
HIDDEN
 62
     7
370
     0
100
AcDbEllipse
 10
178.4384853783
 20
159.9634825148
 30
0.0
 11
0.0
 21
2.0
 31
0.0
210
0.0
220
0.0
230
1.0
 40
0.4142135624
 41
3.141592653589793
 42
4.712388980384695
  0
LINE
  5
FE
330
1F
100
AcDbEntity
  8
0
  6
HIDDEN
 62
     7
370
     0
100
AcDbLine
 10
179.266912135
 20
74.2775704786
 30
0.0
 11
178.4825727518
 21
73.8300290033
 31
0.0
  0
LINE
  5
FF
330
1F
100
AcDbEntity
  8
0
  6
HIDDEN
 62
     7
370
     0
100
AcDbLine
 10
178.5567805345
 20
167.1736445353
 30
0.0
 11
179.266912135
 21
166.4635147974
 31
0.0
  0
LINE
  5
100
330
1F
100
AcDbEntity
  8
0
  6
HIDDEN
 62
     7
370
     0
100
AcDbLine
 10
194.1169120546
 20
85.1634796784
 30
0.0
 11
178.4384858038
 21
85.1634796784
 31
0.0
  0
LINE
  5
101
330
1F
100
AcDbEntity
  8
0
  6
HIDDEN
 62
     7
370
     0
100
AcDbLine
 10
178.4384858038
 20
157.9634826705
 30
0.0
 11
194.1169120546
 21
157.9634826705
 31
0.0
  0
LINE
  5
102
330
1F
100
AcDbEntity
  8
0
  6
HIDDEN
 62
     7
370
     0
100
AcDbLine
 10
179.266912135
 20
166.4635147974
 30
0.0
 11
183.4902420814
 21
166.4635147974
 31
0.0
  0
LINE
  5
103
330
1F
100
AcDbEntity
  8
0
  6
HIDDEN
 62
     7
370
     0
100
AcDbLine
 10
188.8435848232
 20
166.4635147974
 30
0.0
 11
194.1169120546
 21
166.4635147974
 31
0.0
  0
LINE
  5
104
330
1F
100
AcDbEntity
  8
0
  6
HIDDEN
 62
     7
370
     0
100
AcDbLine
 10
179.266912135
 20
166.4635147974
 30
0.0
 11
179.266912135
 21
159.963479273
 31
0.0
  0
LINE
  5
105
330
1F
100
AcDbEntity
  8
0
  6
HIDDEN
 62
     7
370
     0
100
AcDbLine
 10
183.3868652757
 20
74.2775704786
 30
0.0
 11
179.266912135
 21
74.2775704786
 31
0.0
  0
LINE
  5
106
330
1F
100
AcDbEntity
  8
0
  6
HIDDEN
 62
     7
370
     0
100
AcDbLine
 10
194.1169120546
 20
74.2775704786
 30
0.0
 11
188.9469616289
 21
74.2775704786
 31
0.0
  0
LINE
  5
107
330
1F
100
AcDbEntity
  8
0
  6
HIDDEN
 62
     7
370
     0
100
AcDbLine
 10
179.266912135
 20
74.2775704786
 30
0.0
 11
179.266912135
 21
83.1634756252
 31
0.0
  0
LINE
  5
108
330
1F
100
AcDbEntity
  8
0
  6
HIDDEN
 62
     7
370
     0
100
AcDbLine
 10
83.4669090982
 20
107.9634782002
 30
0.0
 11
83.4669090982
 21
132.9634841606
 31
0.0
  0
LINE
  5
109
330
1F
100
AcDbEntity
  8
0
  6
HIDDEN
 62
     7
370
     0
100
AcDbLine
 10
219.31691395
 20
108.463486664
 30
0.0
 11
219.31691395
 21
132.4634831473
 31
0.0
  0
LINE
  5
10A
330
1F
100
AcDbEntity
  8
0
  6
HIDDEN
 62
     7
370
     0
100
AcDbLine
 10
224.1669140931
 20
136.3380756304
 30
0.0
 11
223.9636920567
 21
136.3998260424
 31
0.0
  0
LINE
  5
10B
330
1F
100
AcDbEntity
  8
0
  6
HIDDEN
 62
     7
370
     0
100
AcDbLine
 10
223.6169122334
 20
136.23861783
 30
0.0
 11
223.6169122334
 21
136.0825356171
 31
0.0
  0
LINE
  5
10C
330
1F
100
AcDbEntity
  8
0
  6
HIDDEN
 62
     7
370
     0
100
AcDbLine
 10
220.3169159766
 20
136.0825356171
 30
0.0
 11
223.6169122334
 21
136.0825356171
 31
0.0
  0
LINE
  5
10D
330
1F
100
AcDbEntity
  8
0
  6
HIDDEN
 62
     7
370
     0
100
AcDbLine
 10
220.3169159766
 20
136.463483803
 30
0.0
 11
220.3169159766
 21
131.2634851858
 31
0.0
  0
SPLINE
  5
10E
330
1F
100
AcDbEntity
  8
0
  6
HIDDEN
 62
     7
370
     0
100
AcDbSpline
210
0.0
220
0.0
230
1.0
 70
     8
 71
     3
 72
     9
 73
     5
 74
     0
 42
0.000000001
 43
0.00000001
 40
0.0
 40
0.0
 40
0.0
 40
0.0
 40
0.5592970175802489
 40
0.9999999999999999
 40
0.9999999999999999
 40
0.9999999999999999
 40
0.9999999999999999
 10
223.6169122333862
 20
131.6817756816938
 30
0.0
 10
223.7468991345899
 20
132.174488592947
 30
0.0
 10
223.979310352812
 20
133.055438957004
 30
0.0
 10
224.1095271584467
 20
133.8369391490276
 30
0.0
 10
224.1669140930511
 20
134.1813486144139
 30
0.0
  0
LINE
  5
10F
330
1F
100
AcDbEntity
  8
0
  6
HIDDEN
 62
     7
370
     0
100
AcDbLine
 10
220.3169159766
 20
128.4951400086
 30
0.0
 11
223.6169122334
 21
128.4951400086
 31
0.0
  0
LINE
  5
110
330
1F
100
AcDbEntity
  8
0
  6
HIDDEN
 62
     7
370
     0
100
AcDbLine
 10
220.3169159766
 20
131.2634851858
 30
0.0
 11
220.3169159766
 21
128.4951400086
 31
0.0
  0
LINE
  5
111
330
1F
100
AcDbEntity
  8
0
  6
HIDDEN
 62
     7
370
     0
100
AcDbLine
 10
220.3169159766
 20
104.8444267437
 30
0.0
 11
223.6169122334
 21
104.8444267437
 31
0.0
  0
LINE
  5
112
330
1F
100
AcDbEntity
  8
0
  6
HIDDEN
 62
     7
370
     0
100
AcDbLine
 10
223.6169122334
 20
104.8444267437
 30
0.0
 11
223.6169122334
 21
104.6883519814
 31
0.0
  0
SPLINE
  5
113
330
1F
100
AcDbEntity
  8
0
  6
HIDDEN
 62
     7
370
     0
100
AcDbSpline
210
0.0
220
0.0
230
1.0
 70
     8
 71
     3
 72
     9
 73
     5
 74
     0
 42
0.000000001
 43
0.00000001
 40
0.0
 40
0.0
 40
0.0
 40
0.0
 40
0.8031954514126567
 40
1.0
 40
1.0
 40
1.0
 40
1.0
 10
223.6169122333862
 20
104.6883519813611
 30
0.0
 10
223.7308562324955
 20
104.5741240311814
 30
0.0
 10
223.872719584571
 20
104.4319071523648
 30
0.0
 10
223.9566075148868
 20
104.4863509818337
 30
0.0
 10
223.9731170411445
 20
104.4970657751157
 30
0.0
  0
LINE
  5
114
330
1F
100
AcDbEntity
  8
0
  6
HIDDEN
 62
     7
370
     0
100
AcDbLine
 10
220.3169159766
 20
109.663477175
 30
0.0
 11
220.3169159766
 21
104.4634785578
 31
0.0
  0
SPLINE
  5
115
330
1F
100
AcDbEntity
  8
0
  6
HIDDEN
 62
     7
370
     0
100
AcDbSpline
210
0.0
220
0.0
230
1.0
 70
     8
 71
     3
 72
     9
 73
     5
 74
     0
 42
0.000000001
 43
0.00000001
 40
0.0
 40
0.0
 40
0.0
 40
0.0
 40
0.6394870728978168
 40
0.9999999999999999
 40
0.9999999999999999
 40
0.9999999999999999
 40
0.9999999999999999
 10
224.1669140930511
 20
106.7456211969449
 30
0.0
 10
224.0783911242249
 20
107.2549052514079
 30
0.0
 10
223.9399630424421
 20
108.0512998558447
 30
0.0
 10
223.7025152368237
 20
108.9288268528007
 30
0.0
 10
223.6169122333862
 20
109.2451866790845
 30
0.0
  0
LINE
  5
116
330
1F
100
AcDbEntity
  8
0
  6
HIDDEN
 62
     7
370
     0
100
AcDbLine
 10
223.6169122334
 20
112.4318298027
 30
0.0
 11
220.3169159766
 21
112.4318298027
 31
0.0
  0
LINE
  5
117
330
1F
100
AcDbEntity
  8
0
  6
HIDDEN
 62
     7
370
     0
100
AcDbLine
 10
220.3169159766
 20
112.4318298027
 30
0.0
 11
220.3169159766
 21
109.663477175
 31
0.0
  0
LINE
  5
118
330
1F
100
AcDbEntity
  8
0
  6
HIDDEN
 62
     7
370
     0
100
AcDbLine
 10
86.7515199061
 20
109.9634822533
 30
0.0
 11
86.7515199061
 21
130.9634801075
 31
0.0
  0
LINE
  5
119
330
1F
100
AcDbEntity
  8
0
  6
HIDDEN
 62
     7
370
     0
100
AcDbLine
 10
199.1669118579
 20
108.7634768412
 30
0.0
 11
199.1669118579
 21
132.1634855196
 31
0.0
  0
LINE
  5
11A
330
1F
100
AcDbEntity
  8
0
  6
HIDDEN
 62
     7
370
     0
100
AcDbLine
 10
201.666913199
 20
108.463486664
 30
0.0
 11
201.666913199
 21
132.4634831473
 31
0.0
  0
LINE
  5
11B
330
1F
100
AcDbEntity
  8
0
  6
HIDDEN
 62
     7
370
     0
100
AcDbLine
 10
135.4669120337
 20
109.9634822533
 30
0.0
 11
135.4669120337
 21
130.9634801075
 31
0.0
  0
LINE
  5
11C
330
1F
100
AcDbEntity
  8
0
  6
HIDDEN
 62
     7
370
     0
100
AcDbLine
 10
139.2222915019
 20
116.2134837434
 30
0.0
 11
139.2222915019
 21
124.713486068
 31
0.0
  0
LINE
  5
11D
330
1F
100
AcDbEntity
  8
0
  6
HIDDEN
 62
     7
370
     0
100
AcDbLine
 10
223.6169122334
 20
103.6429610178
 30
0.0
 11
223.6169122334
 21
104.6883519814
 31
0.0
  0
LINE
  5
11E
330
1F
100
AcDbEntity
  8
0
  6
HIDDEN
 62
     7
370
     0
100
AcDbLine
 10
223.6169122334
 20
136.23861783
 30
0.0
 11
223.6169122334
 21
137.284001343
 31
0.0
  0
LINE
  5
11F
330
1F
100
AcDbEntity
  8
0
  6
HIDDEN
 62
     7
370
     0
100
AcDbLine
 10
220.3169159766
 20
136.9884815142
 30
0.0
 11
220.3169159766
 21
136.463483803
 31
0.0
  0
LINE
  5
120
330
1F
100
AcDbEntity
  8
0
  6
HIDDEN
 62
     7
370
     0
100
AcDbLine
 10
220.3169159766
 20
104.4634785578
 30
0.0
 11
220.3169159766
 21
103.9384808466
 31
0.0
  0
SPLINE
  5
121
330
1F
100
AcDbEntity
  8
0
  6
HIDDEN
 62
     7
370
     0
100
AcDbSpline
210
0.0
220
0.0
230
1.0
 70
    11
 71
     3
 72
    27
 73
    23
 74
     0
 42
0.000000001
 43
0.00000001
 40
0.0
 40
0.0
 40
0.0
 40
0.0
 40
0.0490745275724379
 40
0.0979898565071834
 40
0.1508483103611417
 40
0.207104817470648
 40
0.2593989943002054
 40
0.3072767147315407
 40
0.3558630112576037
 40
0.4089805172491607
 40
0.4652651163071017
 40
0.5170681064258374
 40
0.5634503922158146
 40
0.6120262881496913
 40
0.6665431359766126
 40
0.722305316307423
 40
0.7730127139544866
 40
0.8205399872541386
 40
0.8701611673737236
 40
0.9246285511829139
 40
0.98049003384156
 40
1.0
 40
1.0
 40
1.0
 40
1.0
 10
189.2669119115211
 20
119.7538655325963
 30
0.0
 10
189.4864131005147
 20
119.7770007553339
 30
0.0
 10
189.9247034127524
 20
119.8231961497364
 30
0.0
 10
190.5178673246309
 20
120.1715489430498
 30
0.0
 10
191.0079921198408
 20
120.6879153827273
 30
0.0
 10
191.3239387184014
 20
121.3478195397816
 30
0.0
 10
191.4005790489852
 20
122.0260505015689
 30
0.0
 10
191.2574011786937
 20
122.6177367358725
 30
0.0
 10
190.9299850019519
 20
123.1050632883225
 30
0.0
 10
190.4207373103599
 20
123.4766255812158
 30
0.0
 10
189.7596841447671
 20
123.6894149648578
 30
0.0
 10
189.0560145321605
 20
123.7188301135928
 30
0.0
 10
188.4200851961563
 20
123.5928263404112
 30
0.0
 10
187.8641927403862
 20
123.3249168181506
 30
0.0
 10
187.4162457442206
 20
122.8884480559799
 30
0.0
 10
187.1635355546248
 20
122.2933901351703
 30
0.0
 10
187.1534285579307
 20
121.6362641152658
 30
0.0
 10
187.349855318413
 20
121.0084603453082
 30
0.0
 10
187.7282454448032
 20
120.4371689541059
 30
0.0
 10
188.28545427969
 20
119.9779349414485
 30
0.0
 10
188.8442673658531
 20
119.7721422303769
 30
0.0
 10
189.1800057372702
 20
119.7576236738011
 30
0.0
 10
189.2669119115211
 20
119.7538655325963
 30
0.0
  0
LINE
  5
122
330
1F
100
AcDbEntity
  8
0
  6
HIDDEN
 62
     7
370
     0
100
AcDbLine
 10
188.443730789
 20
130.2320044562
 30
0.0
 11
189.0438378032
 21
130.3783636615
 31
0.0
  0
ELLIPSE
  5
123
330
1F
100
AcDbEntity
  8
0
  6
HIDDEN
 62
     7
370
     0
100
AcDbEllipse
 10
189.2669125031
 20
132.1939926261
 30
0.0
 11
-1.760776919379055
 21
2.232245799914466
 31
0.0
210
0.0
220
0.0
230
1.0
 40
0.5126701559
 41
5.395150933160709
 42
8.323890913123115
  0
LINE
  5
124
330
1F
100
AcDbEntity
  8
0
  6
HIDDEN
 62
     7
370
     0
100
AcDbLine
 10
189.0438378032
 20
134.3027409241
 30
0.0
 11
188.443730789
 21
133.8628586456
 31
0.0
  0
ELLIPSE
  5
125
330
1F
100
AcDbEntity
  8
0
  6
HIDDEN
 62
     7
370
     0
100
AcDbEllipse
 10
189.2669125031
 20
132.1939926261
 30
0.0
 11
1.760776919379111
 21
1.388886188042903
 31
0.0
210
0.0
220
0.0
230
1.0
 40
0.8239737799
 41
1.397255033323994
 42
3.733259041931049
  0
LWPOLYLINE
  5
126
330
1F
100
AcDbEntity
  8
0
  6
HIDDEN
 62
     7
370
     0
100
AcDbPolyline
 90
       21
 70
   128
 43
0.0
 10
189.2669119115
 20
131.9484170601
 10
189.9158500309
 20
132.0449989364
 10
190.5012607749
 20
132.325297229
 10
190.9658491786
 20
132.7618639991
 10
191.2641294475
 20
133.3119776175
 10
191.3669139321
 20
133.9217703864
 10
191.2641294475
 20
134.531570606
 10
190.9658491786
 20
135.0816842243
 10
190.5012607749
 20
135.5182509944
 10
189.9158500309
 20
135.798549287
 10
189.2669119115
 20
135.8951311633
 10
188.6179775174
 20
135.798549287
 10
188.0325630482
 20
135.5182509944
 10
187.5679765071
 20
135.0816842243
 10
187.2696943755
 20
134.531570606
 10
187.1669117536
 20
133.9217703864
 10
187.2696943755
 20
133.3119776175
 10
187.5679765071
 20
132.7618639991
 10
188.0325630482
 20
132.325297229
 10
188.6179775174
 20
132.0449989364
 10
189.2669119115
 20
131.9484170601
  0
LINE
  5
127
330
1F
100
AcDbEntity
  8
0
  6
HIDDEN
 62
     7
370
     0
100
AcDbLine
 10
184.2569124128
 20
155.8565255329
 30
0.0
 11
184.2569124128
 21
150.3134798333
 31
0.0
  0
LINE
  5
128
330
1F
100
AcDbEntity
  8
0
  6
HIDDEN
 62
     7
370
     0
100
AcDbLine
 10
188.0769126292
 20
106.6662278101
 30
0.0
 11
188.0769126292
 21
102.5341805145
 31
0.0
  0
SPLINE
  5
129
330
1F
100
AcDbEntity
  8
0
  6
HIDDEN
 62
     7
370
     0
100
AcDbSpline
210
0.0
220
0.0
230
1.0
 70
     8
 71
     3
 72
    14
 73
    10
 74
     0
 42
0.000000001
 43
0.00000001
 40
0.0
 40
0.0
 40
0.0
 40
0.0
 40
0.0017077578758277
 40
0.1655002084160543
 40
0.325287412268932
 40
0.486978441304447
 40
0.6611029675865377
 40
0.9276972522152135
 40
0.9999999999999999
 40
0.9999999999999999
 40
0.9999999999999999
 40
0.9999999999999999
 10
188.076912629161
 20
134.2151295468404
 30
0.0
 10
188.0769118400925
 20
134.2148437249544
 30
0.0
 10
188.0768353708158
 20
134.1871444928992
 30
0.0
 10
188.0516158965374
 20
134.1446801814424
 30
0.0
 10
187.9473683397457
 20
134.1291574210122
 30
0.0
 10
187.7930477258137
 20
134.1690874027494
 30
0.0
 10
187.5797900149247
 20
134.2858893018136
 30
0.0
 10
187.4009850255964
 20
134.4447642059278
 30
0.0
 10
187.2987283132394
 20
134.5684278388269
 30
0.0
 10
187.2769121255018
 20
134.5948111340596
 30
0.0
  0
SPLINE
  5
12A
330
1F
100
AcDbEntity
  8
0
  6
HIDDEN
 62
     7
370
     0
100
AcDbSpline
210
0.0
220
0.0
230
1.0
 70
     8
 71
     3
 72
    13
 73
     9
 74
     0
 42
0.000000001
 43
0.00000001
 40
0.0
 40
0.0
 40
0.0
 40
0.0
 40
0.2217020817346642
 40
0.4377112252778501
 40
0.6197395814272989
 40
0.8025450676507084
 40
0.9670763568818255
 40
1.0
 40
1.0
 40
1.0
 40
1.0
 10
187.2769121255018
 20
137.4387722537114
 30
0.0
 10
187.3462351118294
 20
137.5185962774697
 30
0.0
 10
187.4831009862856
 20
137.6761945777314
 30
0.0
 10
187.7072153610673
 20
137.8901052441853
 30
0.0
 10
187.9024824774808
 20
138.0761145851823
 30
0.0
 10
188.0335069322599
 20
138.2233067297099
 30
0.0
 10
188.0747680052808
 20
138.3074424341686
 30
0.0
 10
188.0766061387197
 20
138.3414919707698
 30
0.0
 10
188.076912629161
 20
138.3471693918302
 30
0.0
  0
LINE
  5
12B
330
1F
100
AcDbEntity
  8
0
  6
HIDDEN
 62
     7
370
     0
100
AcDbLine
 10
188.0769126292
 20
155.8565255329
 30
0.0
 11
188.0769126292
 21
150.3134798333
 31
0.0
  0
LINE
  5
12C
330
1F
100
AcDbEntity
  8
0
  6
HIDDEN
 62
     7
370
     0
100
AcDbLine
 10
189.4000724132
 20
106.1663385555
 30
0.0
 11
189.4000724132
 21
101.4745440409
 31
0.0
  0
LINE
  5
12D
330
1F
100
AcDbEntity
  8
0
  6
HIDDEN
 62
     7
370
     0
100
AcDbLine
 10
189.4000724132
 20
158.9745637104
 30
0.0
 11
189.4000724132
 21
150.3134798333
 31
0.0
  0
LINE
  5
12E
330
1F
100
AcDbEntity
  8
0
  6
HIDDEN
 62
     7
370
     0
100
AcDbLine
 10
182.9337507661
 20
158.9745637104
 30
0.0
 11
182.9337507661
 21
150.3134798333
 31
0.0
  0
ARC
  5
12F
330
1F
100
AcDbEntity
  8
0
  6
HIDDEN
 62
     7
370
     0
100
AcDbCircle
 10
189.5129837887
 20
133.0334235461
 30
0.0
 40
1.353242240613404
100
AcDbArc
 50
110.2845619958
 51
142.1987469311
  0
ARC
  5
130
330
1F
100
AcDbEntity
  8
0
  6
HIDDEN
 62
     7
370
     0
100
AcDbCircle
 10
188.5703103
 20
131.0164680648
 30
0.0
 40
0.7946102980423049
100
AcDbArc
 50
260.8338713974
 51
306.5785440273
  0
LWPOLYLINE
  5
131
330
1F
100
AcDbEntity
  8
0
  6
HIDDEN
 62
     7
370
     0
100
AcDbPolyline
 90
       21
 70
   128
 43
0.0
 10
179.3016746815
 20
133.1764366552
 10
179.4645182963
 20
132.6991897151
 10
179.7244131739
 20
132.3790457174
 10
180.0559174444
 20
132.2473418042
 10
180.4265819664
 20
132.3169600293
 10
180.8001242752
 20
132.5810905621
 10
181.1399787839
 20
133.0138798878
 10
181.4128767873
 20
133.5729640052
 10
181.5921079542
 20
134.2036183998
 10
181.6601261671
 20
134.8441001103
 10
181.6102724697
 20
135.4317274019
 10
181.4474288549
 20
135.9089668915
 10
181.1875339772
 20
136.2291183397
 10
180.8560297068
 20
136.3608222529
 10
180.4853651847
 20
136.2912040279
 10
180.1118228759
 20
136.0270734951
 10
179.7719702299
 20
135.5942767188
 10
179.4990703638
 20
135.0351926014
 10
179.319839197
 20
134.4045456574
 10
179.2518228467
 20
133.7640564963
 10
179.3016746815
 20
133.1764366552
  0
LWPOLYLINE
  5
132
330
1F
100
AcDbEntity
  8
0
  6
HIDDEN
 62
     7
370
     0
100
AcDbPolyline
 90
       25
 70
   128
 43
0.0
 10
178.5386439587
 20
132.7574160025
 10
178.7220791157
 20
132.1752499864
 10
179.0053893055
 20
131.7425351665
 10
179.3692682113
 20
131.4887609407
 10
179.7889184381
 20
131.431235008
 10
180.2357409324
 20
131.5738614723
 10
180.6792851712
 20
131.9069247768
 10
181.0893260117
 20
132.4077379033
 10
181.4379163261
 20
133.0421548411
 10
181.7013036634
 20
133.7669547722
 10
181.8615377124
 20
134.5327328965
 10
181.9076996471
 20
135.2873127982
 10
181.8366397347
 20
135.9792631194
 10
181.6532045777
 20
136.5614365861
 10
181.3698943879
 20
136.994151406
 10
181.0060154821
 20
137.2479181811
 10
180.5863652553
 20
137.3054515645
 10
180.139542761
 20
137.1628251001
 10
179.6959985222
 20
136.8297543451
 10
179.2859576817
 20
136.3289486692
 10
178.9373673673
 20
135.6945317313
 10
178.67398003
 20
134.9697318003
 10
178.513745981
 20
134.2039462254
 10
178.4675840463
 20
133.4493737742
 10
178.5386439587
 20
132.7574160025
  0
LWPOLYLINE
  5
133
330
1F
100
AcDbEntity
  8
0
  6
HIDDEN
 62
     7
370
     0
100
AcDbPolyline
 90
       23
 70
   128
 43
0.0
 10
189.2669119115
 20
131.6223349497
 10
189.9712450977
 20
131.7174937651
 10
190.618514287
 20
131.9952663109
 10
191.1562860186
 20
132.4331518337
 10
191.5409930225
 20
132.9956632182
 10
191.7414657946
 20
133.637240164
 10
191.7414657946
 20
134.3058999703
 10
191.5409930225
 20
134.947476916
 10
191.1562860186
 20
135.5099883005
 10
190.618514287
 20
135.9478663728
 10
189.9712450977
 20
136.2256389186
 10
189.2669119115
 20
136.320797734
 10
188.5625824507
 20
136.2256389186
 10
187.915309536
 20
135.9478663728
 10
187.3775378044
 20
135.5099883005
 10
186.9928326632
 20
134.947476916
 10
186.7923580284
 20
134.3058999703
 10
186.7923580284
 20
133.637240164
 10
186.9928326632
 20
132.9956632182
 10
187.3775378044
 20
132.4331518337
 10
187.915309536
 20
131.9952663109
 10
188.5625824507
 20
131.7174937651
 10
189.2669119115
 20
131.6223349497
  0
SPLINE
  5
134
330
1F
100
AcDbEntity
  8
0
  6
HIDDEN
 62
     7
370
     0
100
AcDbSpline
210
0.0
220
0.0
230
1.0
 70
     8
 71
     3
 72
    16
 73
    12
 74
     0
 42
0.000000001
 43
0.00000001
 40
0.0
 40
0.0
 40
0.0
 40
0.0
 40
0.111076788122634
 40
0.2221501126602761
 40
0.3333161176788063
 40
0.4445165203411648
 40
0.5556010543692267
 40
0.6666020804371577
 40
0.7776796923702893
 40
0.8888769833286715
 40
1.0
 40
1.0
 40
1.0
 40
1.0
 10
189.4000724132396
 20
139.4524257704808
 30
0.0
 10
189.6791576768647
 20
139.4132121751886
 30
0.0
 10
190.2373195017069
 20
139.3347862073585
 30
0.0
 10
190.9612580379041
 20
138.9007829614478
 30
0.0
 10
191.4956836873859
 20
138.2848397708211
 30
0.0
 10
191.7786764419608
 20
137.5299450349472
 30
0.0
 10
191.7785232413614
 20
136.7269114029975
 30
0.0
 10
191.4957471972398
 20
135.9629221781585
 30
0.0
 10
190.9618669792743
 20
135.3319864979869
 30
0.0
 10
190.2378623292794
 20
134.882932815446
 30
0.0
 10
189.6792735128637
 20
134.8013893615005
 30
0.0
 10
189.4000724132396
 20
134.7606312558248
 30
0.0
  0
SPLINE
  5
135
330
1F
100
AcDbEntity
  8
0
  6
HIDDEN
 62
     7
370
     0
100
AcDbSpline
210
0.0
220
0.0
230
1.0
 70
     8
 71
     3
 72
     9
 73
     5
 74
     0
 42
0.000000001
 43
0.00000001
 40
0.0
 40
0.0
 40
0.0
 40
0.0
 40
0.4949673067311291
 40
0.9999999999999999
 40
0.9999999999999999
 40
0.9999999999999999
 40
0.9999999999999999
 10
189.4000724132396
 20
134.7606312558248
 30
0.0
 10
189.1801260782168
 20
134.6319475568806
 30
0.0
 10
188.7357606988639
 20
134.3719633171253
 30
0.0
 10
188.2979974046514
 20
134.2980637158954
 30
0.0
 10
188.076912629161
 20
134.2607420012548
 30
0.0
  0
SPLINE
  5
136
330
1F
100
AcDbEntity
  8
0
  6
HIDDEN
 62
     7
370
     0
100
AcDbSpline
210
0.0
220
0.0
230
1.0
 70
     8
 71
     3
 72
     9
 73
     5
 74
     0
 42
0.000000001
 43
0.00000001
 40
0.0
 40
0.0
 40
0.0
 40
0.0
 40
0.8509574133902194
 40
1.0
 40
1.0
 40
1.0
 40
1.0
 10
188.076912629161
 20
138.3927892968251
 30
0.0
 10
188.4516337176656
 20
138.748836740693
 30
0.0
 10
188.8919860579921
 20
139.1672448046752
 30
0.0
 10
189.3341684115171
 20
139.4154348797246
 30
0.0
 10
189.4000724132396
 20
139.4524257704808
 30
0.0
  0
SPLINE
  5
137
330
1F
100
AcDbEntity
  8
0
  6
HIDDEN
 62
     7
370
     0
100
AcDbSpline
210
0.0
220
0.0
230
1.0
 70
     8
 71
     3
 72
    11
 73
     7
 74
     0
 42
0.000000001
 43
0.00000001
 40
0.0
 40
0.0
 40
0.0
 40
0.0
 40
0.2592527436452932
 40
0.5185170805262699
 40
0.777543316584346
 40
1.0
 40
1.0
 40
1.0
 40
1.0
 10
187.2769121255018
 20
134.5948111340596
 30
0.0
 10
187.1286280475359
 20
134.823198387031
 30
0.0
 10
186.8320532606532
 20
135.2799831059698
 30
0.0
 10
186.7250313674912
 20
136.0842453310872
 30
0.0
 10
186.8666714883071
 20
136.8385092074088
 30
0.0
 10
187.1472692254887
 20
137.2490790955067
 30
0.0
 10
187.2769121255018
 20
137.4387722537114
 30
0.0
  0
LWPOLYLINE
  5
138
330
1F
100
AcDbEntity
  8
0
  6
HIDDEN
 62
     7
370
     0
100
AcDbPolyline
 90
       23
 70
   128
 43
0.0
 10
183.1786010589
 20
135.5025973246
 10
183.5780918773
 20
135.8346771524
 10
183.9849494572
 20
135.9804179594
 10
184.3662161554
 20
135.9280180261
 10
184.6910000022
 20
135.6817092821
 10
184.932989272
 20
135.2614592835
 10
185.0725833501
 20
134.7013097331
 10
185.0984685297
 20
134.0466346666
 10
185.0085511978
 20
133.350482218
 10
184.8101142968
 20
132.6692458317
 10
184.5192324545
 20
132.0581194088
 10
184.1594755824
 20
131.5666046068
 10
183.759984764
 20
131.234524779
 10
183.3531253214
 20
131.088783972
 10
182.9718604858
 20
131.1411839053
 10
182.6470766391
 20
131.3874926493
 10
182.4050855066
 20
131.8077426478
 10
182.2654932912
 20
132.3678921983
 10
182.2396062489
 20
133.0225598142
 10
182.3295254435
 20
133.7187197134
 10
182.5279623444
 20
134.3999560997
 10
182.8188423242
 20
135.0110825226
 10
183.1786010589
 20
135.5025973246
  0
LWPOLYLINE
  5
139
330
1F
100
AcDbEntity
  8
0
  6
HIDDEN
 62
     7
370
     0
100
AcDbPolyline
 90
       19
 70
   128
 43
0.0
 10
183.940096962
 20
134.7650718019
 10
184.2834029521
 20
135.0319292471
 10
184.6267070796
 20
135.1004447863
 10
184.928606468
 20
134.9623557255
 10
185.1526826794
 20
134.6343066618
 10
185.2719105955
 20
134.1558676288
 10
185.2719105955
 20
133.5847508237
 10
185.1526826794
 20
132.9898443148
 10
184.928606468
 20
132.4428897426
 10
184.6267070796
 20
132.0098694489
 10
184.2834029521
 20
131.743004553
 10
183.940096962
 20
131.6744890139
 10
183.6381975736
 20
131.8125855252
 10
183.4141213621
 20
132.1406345889
 10
183.2948934461
 20
132.6190661714
 10
183.2948934461
 20
133.1901829764
 10
183.4141213621
 20
133.7850969359
 10
183.6381975736
 20
134.3320440576
 10
183.940096962
 20
134.7650718019
  0
LWPOLYLINE
  5
13A
330
1F
100
AcDbEntity
  8
0
  6
HIDDEN
 62
     7
370
     0
100
AcDbPolyline
 90
       23
 70
   128
 43
0.0
 10
179.9076620664
 20
136.2859439179
 10
180.3071528848
 20
136.6180162952
 10
180.7140104647
 20
136.7637571022
 10
181.0952771629
 20
136.7113571689
 10
181.4200610097
 20
136.4650484249
 10
181.6620521422
 20
136.0447984263
 10
181.8016443576
 20
135.4846488759
 10
181.8275295372
 20
134.82998126
 10
181.7376122053
 20
134.1338288114
 10
181.5391753043
 20
133.4525849745
 10
181.248293462
 20
132.8414585516
 10
180.8885365899
 20
132.3499437496
 10
180.4890457715
 20
132.0178639218
 10
180.0821863289
 20
131.8721231148
 10
179.7009214933
 20
131.9245230481
 10
179.3761376466
 20
132.1708317921
 10
179.1341465141
 20
132.5910817906
 10
178.9945542987
 20
133.1512313411
 10
178.9686672564
 20
133.8059064076
 10
179.058586451
 20
134.5020588562
 10
179.2570233519
 20
135.1832952425
 10
179.5479033317
 20
135.7944216654
 10
179.9076620664
 20
136.2859439179
  0
LINE
  5
13B
330
1F
100
AcDbEntity
  8
0
  6
HIDDEN
 62
     7
370
     0
100
AcDbLine
 10
181.0106367047
 20
133.8132750318
 30
0.0
 11
181.5427925612
 21
135.1122167036
 31
0.0
  0
LINE
  5
13C
330
1F
100
AcDbEntity
  8
0
  6
HIDDEN
 62
     7
370
     0
100
AcDbLine
 10
179.3723322625
 20
134.205622606
 30
0.0
 11
179.904488119
 21
135.5045642778
 31
0.0
  0
LWPOLYLINE
  5
13D
330
1F
100
AcDbEntity
  8
0
  6
HIDDEN
 62
     7
370
     0
100
AcDbPolyline
 90
       20
 70
   128
 43
0.0
 10
179.7845021065
 20
135.9860356972
 10
180.1659885968
 20
136.2885069177
 10
180.5498201574
 20
136.3828983233
 10
180.8944039221
 20
136.2589802668
 10
181.1623994435
 20
135.930186145
 10
181.3247643586
 20
135.4321371839
 10
181.3639059837
 20
134.8188128397
 10
181.2755793507
 20
134.1566648409
 10
181.0693584557
 20
133.5174646303
 10
180.7675894524
 20
132.9704653546
 10
180.4029748018
 20
132.5749512837
 10
180.0150249328
 20
132.373778157
 10
179.645781609
 20
132.3887463734
 10
179.3352563109
 20
132.6182317063
 10
179.1171014483
 20
133.0373715684
 10
179.0149539883
 20
133.6007397697
 10
179.0398873563
 20
134.2472937033
 10
179.1891969915
 20
134.9069606587
 10
179.4467039581
 20
135.5082672164
 10
179.7845021065
 20
135.9860356972
  0
LINE
  5
13E
330
1F
100
AcDbEntity
  8
0
  6
HIDDEN
 62
     7
370
     0
100
AcDbLine
 10
179.3723322625
 20
134.205622606
 30
0.0
 11
179.6554859902
 21
133.0694016144
 31
0.0
  0
LINE
  5
13F
330
1F
100
AcDbEntity
  8
0
  6
HIDDEN
 62
     7
370
     0
100
AcDbLine
 10
181.0106367047
 20
133.8132750318
 30
0.0
 11
181.2937904324
 21
132.6770540402
 31
0.0
  0
LINE
  5
140
330
1F
100
AcDbEntity
  8
0
  6
HIDDEN
 62
     7
370
     0
100
AcDbLine
 10
181.0106367047
 20
133.8132750318
 30
0.0
 11
179.3723322625
 21
134.205622606
 31
0.0
  0
LINE
  5
141
330
1F
100
AcDbEntity
  8
0
  6
HIDDEN
 62
     7
370
     0
100
AcDbLine
 10
180.7197977032
 20
135.6672849581
 30
0.0
 11
179.904488119
 21
135.5045642778
 31
0.0
  0
LINE
  5
142
330
1F
100
AcDbEntity
  8
0
  6
HIDDEN
 62
     7
370
     0
100
AcDbLine
 10
182.3581002827
 20
135.2749373838
 30
0.0
 11
181.5427925612
 21
135.1122167036
 31
0.0
  0
LINE
  5
143
330
1F
100
AcDbEntity
  8
0
  6
HIDDEN
 62
     7
370
     0
100
AcDbLine
 10
181.5427925612
 20
135.1122167036
 30
0.0
 11
179.904488119
 21
135.5045642778
 31
0.0
  0
LINE
  5
144
330
1F
100
AcDbEntity
  8
0
  6
HIDDEN
 62
     7
370
     0
100
AcDbLine
 10
182.1091000165
 20
132.8397672698
 30
0.0
 11
180.4707955743
 21
133.232114844
 31
0.0
  0
LINE
  5
145
330
1F
100
AcDbEntity
  8
0
  6
HIDDEN
 62
     7
370
     0
100
AcDbLine
 10
181.2937904324
 20
132.6770540402
 30
0.0
 11
179.6554859902
 21
133.0694016144
 31
0.0
  0
LINE
  5
146
330
1F
100
AcDbEntity
  8
0
  6
HIDDEN
 62
     7
370
     0
100
AcDbLine
 10
179.6554859902
 20
133.0694016144
 30
0.0
 11
180.4707955743
 21
133.232114844
 31
0.0
  0
LINE
  5
147
330
1F
100
AcDbEntity
  8
0
  6
HIDDEN
 62
     7
370
     0
100
AcDbLine
 10
181.2937904324
 20
132.6770540402
 30
0.0
 11
182.1091000165
 21
132.8397672698
 31
0.0
  0
LINE
  5
148
330
1F
100
AcDbEntity
  8
0
  6
HIDDEN
 62
     7
370
     0
100
AcDbLine
 10
182.6412540104
 20
134.1387089417
 30
0.0
 11
181.0029514308
 21
134.5310639665
 31
0.0
  0
LINE
  5
149
330
1F
100
AcDbEntity
  8
0
  6
HIDDEN
 62
     7
370
     0
100
AcDbLine
 10
182.3581002827
 20
135.2749373838
 30
0.0
 11
180.7197977032
 21
135.6672849581
 31
0.0
  0
LINE
  5
14A
330
1F
100
AcDbEntity
  8
0
  6
HIDDEN
 62
     7
370
     0
100
AcDbLine
 10
180.7197977032
 20
135.6672849581
 30
0.0
 11
181.0029514308
 21
134.5310639665
 31
0.0
  0
LINE
  5
14B
330
1F
100
AcDbEntity
  8
0
  6
HIDDEN
 62
     7
370
     0
100
AcDbLine
 10
182.3581002827
 20
135.2749373838
 30
0.0
 11
182.6412540104
 21
134.1387089417
 31
0.0
  0
LINE
  5
14C
330
1F
100
AcDbEntity
  8
0
  6
HIDDEN
 62
     7
370
     0
100
AcDbLine
 10
181.0029514308
 20
134.5310639665
 30
0.0
 11
180.4707955743
 21
133.232114844
 31
0.0
  0
LINE
  5
14D
330
1F
100
AcDbEntity
  8
0
  6
HIDDEN
 62
     7
370
     0
100
AcDbLine
 10
182.6412540104
 20
134.1387089417
 30
0.0
 11
182.1091000165
 21
132.8397672698
 31
0.0
  0
LWPOLYLINE
  5
14E
330
1F
100
AcDbEntity
  8
0
  6
HIDDEN
 62
     7
370
     0
100
AcDbPolyline
 90
       20
 70
   128
 43
0.0
 10
180.5907815869
 20
104.5471038744
 10
180.9285797353
 20
104.6948637888
 10
181.1860867019
 20
105.0446089432
 10
181.3353963371
 20
105.5584158823
 10
181.360329705
 20
106.180613868
 10
181.258182245
 20
106.8437751457
 10
181.0400273825
 20
107.4760314152
 10
180.7295020844
 20
108.0088671372
 10
180.3602587606
 20
108.3845552132
 10
179.9723088916
 20
108.5623707697
 10
179.607694241
 20
108.5230615065
 10
179.3059252377
 20
108.2708593533
 10
179.0997043426
 20
107.8331079409
 10
179.0113777097
 20
107.2572674677
 10
179.0505193348
 20
106.6056992933
 10
179.2128842498
 20
105.9490349218
 10
179.4808797713
 20
105.3584273979
 10
179.8254635359
 20
104.8978772089
 10
180.2092950966
 20
104.6173032448
 10
180.5907815869
 20
104.5471038744
  0
LWPOLYLINE
  5
14F
330
1F
100
AcDbEntity
  8
0
  6
HIDDEN
 62
     7
370
     0
100
AcDbPolyline
 90
       23
 70
   128
 43
0.0
 10
180.8885365899
 20
104.1619088575
 10
181.248293462
 20
104.3019797728
 10
181.5391753043
 20
104.6289410517
 10
181.7376122053
 20
105.116328232
 10
181.8275295372
 20
105.7246383354
 10
181.8016443576
 20
106.4045932219
 10
181.6620521422
 20
107.1011181995
 10
181.4200610097
 20
107.7577676699
 10
181.0952771629
 20
108.3213593885
 10
180.7140104647
 20
108.7462212965
 10
180.3071528848
 20
108.9979466126
 10
179.9076620664
 20
109.056135647
 10
179.5479033317
 20
108.916079633
 10
179.2570233519
 20
108.5891034529
 10
179.058586451
 20
108.1017311737
 10
178.9686672564
 20
107.4934210703
 10
178.9945542987
 20
106.8134512827
 10
179.1341465141
 20
106.1169412062
 10
179.3761376466
 20
105.4602768347
 10
179.7009214933
 20
104.896685116
 10
180.0821863289
 20
104.4718232081
 10
180.4890457715
 20
104.220097892
 10
180.8885365899
 20
104.1619088575
  0
LWPOLYLINE
  5
150
330
1F
100
AcDbEntity
  8
0
  6
HIDDEN
 62
     7
370
     0
100
AcDbPolyline
 90
       23
 70
   128
 43
0.0
 10
184.1594755824
 20
104.9452480003
 10
184.5192324545
 20
105.0853189156
 10
184.8101142968
 20
105.4122801945
 10
185.0085511978
 20
105.8996673748
 10
185.0984685297
 20
106.5079774782
 10
185.0725833501
 20
107.1879323647
 10
184.932989272
 20
107.8844573423
 10
184.6910000022
 20
108.5411068127
 10
184.3662161554
 20
109.1046985313
 10
183.9849494572
 20
109.5295604393
 10
183.5780918773
 20
109.7812857554
 10
183.1786010589
 20
109.8394747898
 10
182.8188423242
 20
109.6994187758
 10
182.5279623444
 20
109.3724425957
 10
182.3295254435
 20
108.8850703165
 10
182.2396062489
 20
108.2767602131
 10
182.2654932912
 20
107.5967904255
 10
182.4050855066
 20
106.900280349
 10
182.6470766391
 20
106.2436159775
 10
182.9718604858
 20
105.6800242588
 10
183.3531253214
 20
105.2551623509
 10
183.759984764
 20
105.0034370348
 10
184.1594755824
 20
104.9452480003
  0
LINE
  5
151
330
1F
100
AcDbEntity
  8
0
  6
HIDDEN
 62
     7
370
     0
100
AcDbLine
 10
180.7197977032
 20
107.3377039358
 30
0.0
 11
179.904488119
 21
107.9714652226
 31
0.0
  0
LINE
  5
152
330
1F
100
AcDbEntity
  8
0
  6
HIDDEN
 62
     7
370
     0
100
AcDbLine
 10
179.3723322625
 20
107.1923878119
 30
0.0
 11
179.904488119
 21
107.9714652226
 31
0.0
  0
LINE
  5
153
330
1F
100
AcDbEntity
  8
0
  6
HIDDEN
 62
     7
370
     0
100
AcDbLine
 10
179.6554859902
 20
105.7795491144
 30
0.0
 11
179.3723322625
 21
107.1923878119
 31
0.0
  0
LINE
  5
154
330
1F
100
AcDbEntity
  8
0
  6
HIDDEN
 62
     7
370
     0
100
AcDbLine
 10
179.6554859902
 20
105.7795491144
 30
0.0
 11
180.4707955743
 21
105.1457878277
 31
0.0
  0
LINE
  5
155
330
1F
100
AcDbEntity
  8
0
  6
HIDDEN
 62
     7
370
     0
100
AcDbLine
 10
181.0029514308
 20
105.9248503372
 30
0.0
 11
180.4707955743
 21
105.1457878277
 31
0.0
  0
LINE
  5
156
330
1F
100
AcDbEntity
  8
0
  6
HIDDEN
 62
     7
370
     0
100
AcDbLine
 10
181.0029514308
 20
105.9248503372
 30
0.0
 11
180.7197977032
 21
107.3377039358
 31
0.0
  0
LINE
  5
157
330
1F
100
AcDbEntity
  8
0
  6
HIDDEN
 62
     7
370
     0
100
AcDbLine
 10
182.3581002827
 20
107.7300515101
 30
0.0
 11
180.7197977032
 21
107.3377039358
 31
0.0
  0
LINE
  5
158
330
1F
100
AcDbEntity
  8
0
  6
HIDDEN
 62
     7
370
     0
100
AcDbLine
 10
182.6412540104
 20
106.3172128126
 30
0.0
 11
181.0029514308
 21
105.9248503372
 31
0.0
  0
LINE
  5
159
330
1F
100
AcDbEntity
  8
0
  6
HIDDEN
 62
     7
370
     0
100
AcDbLine
 10
181.0106367047
 20
107.5847353861
 30
0.0
 11
181.5427925612
 21
108.3638127968
 31
0.0
  0
LINE
  5
15A
330
1F
100
AcDbEntity
  8
0
  6
HIDDEN
 62
     7
370
     0
100
AcDbLine
 10
181.0106367047
 20
107.5847353861
 30
0.0
 11
179.3723322625
 21
107.1923878119
 31
0.0
  0
LINE
  5
15B
330
1F
100
AcDbEntity
  8
0
  6
HIDDEN
 62
     7
370
     0
100
AcDbLine
 10
181.5427925612
 20
108.3638127968
 30
0.0
 11
179.904488119
 21
107.9714652226
 31
0.0
  0
LINE
  5
15C
330
1F
100
AcDbEntity
  8
0
  6
HIDDEN
 62
     7
370
     0
100
AcDbLine
 10
181.2937904324
 20
106.1718966887
 30
0.0
 11
182.1091000165
 21
105.5381354019
 31
0.0
  0
LINE
  5
15D
330
1F
100
AcDbEntity
  8
0
  6
HIDDEN
 62
     7
370
     0
100
AcDbLine
 10
181.2937904324
 20
106.1718966887
 30
0.0
 11
181.0106367047
 21
107.5847353861
 31
0.0
  0
LINE
  5
15E
330
1F
100
AcDbEntity
  8
0
  6
HIDDEN
 62
     7
370
     0
100
AcDbLine
 10
182.6412540104
 20
106.3172128126
 30
0.0
 11
182.1091000165
 21
105.5381354019
 31
0.0
  0
LINE
  5
15F
330
1F
100
AcDbEntity
  8
0
  6
HIDDEN
 62
     7
370
     0
100
AcDbLine
 10
182.6412540104
 20
106.3172128126
 30
0.0
 11
182.3581002827
 21
107.7300515101
 31
0.0
  0
LINE
  5
160
330
1F
100
AcDbEntity
  8
0
  6
HIDDEN
 62
     7
370
     0
100
AcDbLine
 10
182.3581002827
 20
107.7300515101
 30
0.0
 11
181.5427925612
 21
108.3638127968
 31
0.0
  0
LINE
  5
161
330
1F
100
AcDbEntity
  8
0
  6
HIDDEN
 62
     7
370
     0
100
AcDbLine
 10
181.2937904324
 20
106.1718966887
 30
0.0
 11
179.6554859902
 21
105.7795491144
 31
0.0
  0
LINE
  5
162
330
1F
100
AcDbEntity
  8
0
  6
HIDDEN
 62
     7
370
     0
100
AcDbLine
 10
182.1091000165
 20
105.5381354019
 30
0.0
 11
180.4707955743
 21
105.1457878277
 31
0.0
  0
LWPOLYLINE
  5
163
330
1F
100
AcDbEntity
  8
0
  6
HIDDEN
 62
     7
370
     0
100
AcDbPolyline
 90
       19
 70
   128
 43
0.0
 10
184.6267070796
 20
105.8265175745
 10
184.928606468
 20
105.9646066353
 10
185.1526826794
 20
106.292655699
 10
185.2719105955
 20
106.7711021826
 10
185.2719105955
 20
107.3422040865
 10
185.1526826794
 20
107.937118046
 10
184.928606468
 20
108.4840800688
 10
184.6267070796
 20
108.9170929119
 10
184.2834029521
 20
109.1839578077
 10
183.940096962
 20
109.2524733469
 10
183.6381975736
 20
109.1143842861
 10
183.4141213621
 20
108.7863352224
 10
183.2948934461
 20
108.30790364
 10
183.2948934461
 20
107.7367868349
 10
183.4141213621
 20
107.1418728754
 10
183.6381975736
 20
106.5949108526
 10
183.940096962
 20
106.1618980095
 10
184.2834029521
 20
105.8950331137
 10
184.6267070796
 20
105.8265175745
  0
LWPOLYLINE
  5
164
330
1F
100
AcDbEntity
  8
0
  6
HIDDEN
 62
     7
370
     0
100
AcDbPolyline
 90
       20
 70
   128
 43
0.0
 10
189.9442441936
 20
135.6176864431
 10
189.3032930966
 20
135.7296016142
 10
188.6584006424
 20
135.6398891732
 10
188.0794495519
 20
135.3582646772
 10
187.6291793014
 20
134.915253155
 10
187.3563818808
 20
134.3588661477
 10
187.2906211938
 20
133.7493788526
 10
187.4390199955
 20
133.1528630182
 10
187.7855017956
 20
132.6339375302
 10
188.2925175305
 20
132.2488468215
 10
188.9051228936
 20
132.0393290445
 10
189.5569332118
 20
132.0280712173
 10
190.1773169811
 20
132.216310136
 10
190.6990438874
 20
132.58363121
 10
191.0655751999
 20
133.0902408883
 10
191.2371955986
 20
133.681243293
 10
191.1953047092
 20
134.2925783321
 10
190.9444436605
 20
134.8580177948
 10
190.5117958958
 20
135.3162657544
 10
189.9442441936
 20
135.6176864431
  0
LWPOLYLINE
  5
165
330
1F
100
AcDbEntity
  8
0
  6
HIDDEN
 62
     7
370
     0
100
AcDbPolyline
 90
       23
 70
   128
 43
0.0
 10
190.1219628926
 20
136.1791249439
 10
189.4254714425
 20
136.3160666153
 10
188.7161351915
 20
136.2630780861
 10
188.0514204676
 20
136.0244434402
 10
187.4851763423
 20
135.6194969341
 10
187.0632797654
 20
135.0810434744
 10
186.8199065502
 20
134.4527062103
 10
186.7747746582
 20
133.7853949592
 10
186.9315423246
 20
133.1331562326
 10
187.2775081719
 20
132.5488518998
 10
187.7846431162
 20
132.0798005983
 10
188.4118609305
 20
131.7640151903
 10
189.1083523805
 20
131.6270660684
 10
189.8176886316
 20
131.6800545976
 10
190.4824033554
 20
131.9186966941
 10
191.0486474808
 20
132.3236432001
 10
191.4705440576
 20
132.8620966599
 10
191.7139172728
 20
133.4904264733
 10
191.7590491648
 20
134.1577451751
 10
191.6022814985
 20
134.8099764511
 10
191.2563175137
 20
135.3942882344
 10
190.7491825695
 20
135.8633320853
 10
190.1219628926
 20
136.1791249439
  0
LWPOLYLINE
  5
166
330
1F
100
AcDbEntity
  8
0
  6
HIDDEN
 62
     7
370
     0
100
AcDbPolyline
 90
       23
 70
   128
 43
0.0
 10
190.1219628926
 20
136.7776598856
 10
189.4254714425
 20
136.914601557
 10
188.7161351915
 20
136.8616130278
 10
188.0514204676
 20
136.6229783818
 10
187.4851763423
 20
136.2180318758
 10
187.0632797654
 20
135.6795784161
 10
186.8199065502
 20
135.051241152
 10
186.7747746582
 20
134.3839299008
 10
186.9315423246
 20
133.7316986248
 10
187.2775081719
 20
133.1473868415
 10
187.7846431162
 20
132.67833554
 10
188.4118609305
 20
132.362550132
 10
189.1083523805
 20
132.22560101
 10
189.8176886316
 20
132.2785895392
 10
190.4824033554
 20
132.5172316358
 10
191.0486474808
 20
132.9221781418
 10
191.4705440576
 20
133.4606316015
 10
191.7139172728
 20
134.088961415
 10
191.7590491648
 20
134.7562801168
 10
191.6022814985
 20
135.4085113928
 10
191.2563175137
 20
135.9928231761
 10
190.7491825695
 20
136.461867027
 10
190.1219628926
 20
136.7776598856
  0
LWPOLYLINE
  5
167
330
1F
100
AcDbEntity
  8
0
  6
HIDDEN
 62
     7
370
     0
100
AcDbPolyline
 90
       20
 70
   128
 43
0.0
 10
189.9509534414
 20
137.5161167309
 10
189.3036544497
 20
137.6291420385
 10
188.6523731227
 20
137.5385355279
 10
188.0676888104
 20
137.2541245148
 10
187.6129575248
 20
136.8067320511
 10
187.3374592687
 20
136.2448241636
 10
187.2710466559
 20
135.6293093488
 10
187.4209150846
 20
135.0268777535
 10
187.7708278771
 20
134.5028188154
 10
188.2828653033
 20
134.1139134094
 10
188.9015391643
 20
133.9023169205
 10
189.5598054107
 20
133.8909473345
 10
190.1863321836
 20
134.0810488984
 10
190.7132260676
 20
134.4520133063
 10
191.0833895381
 20
134.9636446759
 10
191.2567123945
 20
135.5604957864
 10
191.2144042726
 20
136.1778881476
 10
190.9610584553
 20
136.7489229962
 10
190.5241266067
 20
137.21171581
 10
189.9509534414
 20
137.5161167309
  0
LWPOLYLINE
  5
168
330
1F
100
AcDbEntity
  8
0
  6
HIDDEN
 62
     7
370
     0
100
AcDbPolyline
 90
       20
 70
   128
 43
0.0
 10
189.9509534414
 20
136.0983382985
 10
189.3036544497
 20
136.2113636062
 10
188.6523731227
 20
136.1207645461
 10
188.0676888104
 20
135.836353533
 10
187.6129575248
 20
135.3889536187
 10
187.3374592687
 20
134.8270531818
 10
187.2710466559
 20
134.2115309164
 10
187.4209150846
 20
133.6090993211
 10
187.7708278771
 20
133.0850403831
 10
188.2828653033
 20
132.6961349771
 10
188.9015391643
 20
132.4845384881
 10
189.5598054107
 20
132.4731763527
 10
190.1863321836
 20
132.663270466
 10
190.7132260676
 20
133.034234874
 10
191.0833895381
 20
133.5458662436
 10
191.2567123945
 20
134.142717354
 10
191.2144042726
 20
134.7601097152
 10
190.9610584553
 20
135.3311445639
 10
190.5241266067
 20
135.7939373777
 10
189.9509534414
 20
136.0983382985
  0
LWPOLYLINE
  5
169
330
1F
100
AcDbEntity
  8
0
  6
HIDDEN
 62
     7
370
     0
100
AcDbPolyline
 90
       23
 70
   128
 43
0.0
 10
190.1219628926
 20
137.0136495754
 10
189.4254714425
 20
137.1505986974
 10
188.7161351915
 20
137.0976101682
 10
188.0514204676
 20
136.8589680717
 10
187.4851763423
 20
136.4540215656
 10
187.0632797654
 20
135.9155681059
 10
186.8199065502
 20
135.2872382924
 10
186.7747746582
 20
134.6199195907
 10
186.9315423246
 20
133.9676883146
 10
187.2775081719
 20
133.3833765313
 10
187.7846431162
 20
132.9143326804
 10
188.4118609305
 20
132.5985398218
 10
189.1083523805
 20
132.4615981505
 10
189.8176886316
 20
132.5145866797
 10
190.4824033554
 20
132.7532213256
 10
191.0486474808
 20
133.1581678316
 10
191.4705440576
 20
133.6966212914
 10
191.7139172728
 20
134.3249585554
 10
191.7590491648
 20
134.9922772572
 10
191.6022814985
 20
135.6445085332
 10
191.2563175137
 20
136.2288128659
 10
190.7491825695
 20
136.6978641674
 10
190.1219628926
 20
137.0136495754
  0
LWPOLYLINE
  5
16A
330
1F
100
AcDbEntity
  8
0
  6
HIDDEN
 62
     7
370
     0
100
AcDbPolyline
 90
       22
 70
   128
 43
0.0
 10
190.0535591121
 20
136.6625260636
 10
189.3815577205
 20
136.7901843116
 10
188.6993713851
 20
136.7260348126
 10
188.0676124419
 20
136.4757921621
 10
187.5424154277
 20
136.0616739914
 10
187.1704489167
 20
135.5204861686
 10
186.9847618218
 20
134.9003221914
 10
187.0018553163
 20
134.2562716529
 10
187.2202076192
 20
133.6455699131
 10
187.6204192813
 20
133.1224795506
 10
188.1669268186
 20
132.7334847376
 10
188.8111747976
 20
132.5131338164
 10
189.4959204073
 20
132.4810218141
 10
190.1603110309
 20
132.6399948523
 10
190.7453231688
 20
132.9759340808
 10
191.1989703949
 20
133.4589775726
 10
191.4809487934
 20
134.0462099835
 10
191.5661983366
 20
134.6854623482
 10
191.4471455093
 20
135.3199239895
 10
191.1343701358
 20
135.8932163641
 10
190.6556628819
 20
136.3544147536
 10
190.0535591121
 20
136.6625260636
  0
LWPOLYLINE
  5
16B
330
1F
100
AcDbEntity
  8
0
  6
HIDDEN
 62
     7
370
     0
100
AcDbPolyline
 90
       23
 70
   128
 43
0.0
 10
190.1219628926
 20
137.2496467158
 10
189.4254714425
 20
137.3865958378
 10
188.7161351915
 20
137.333599858
 10
188.0514204676
 20
137.0949652121
 10
187.4851763423
 20
136.690018706
 10
187.0632797654
 20
136.1515652463
 10
186.8199065502
 20
135.5232279822
 10
186.7747746582
 20
134.8559167311
 10
186.9315423246
 20
134.203685455
 10
187.2775081719
 20
133.6193736717
 10
187.7846431162
 20
133.1503223703
 10
188.4118609305
 20
132.8345369622
 10
189.1083523805
 20
132.6975878403
 10
189.8176886316
 20
132.7505838201
 10
190.4824033554
 20
132.989218466
 10
191.0486474808
 20
133.394164972
 10
191.4705440576
 20
133.9326184318
 10
191.7139172728
 20
134.5609556958
 10
191.7590491648
 20
135.228266947
 10
191.6022814985
 20
135.880498223
 10
191.2563175137
 20
136.4648100063
 10
190.7491825695
 20
136.9338538572
 10
190.1219628926
 20
137.2496467158
  0
LWPOLYLINE
  5
16C
330
1F
100
AcDbEntity
  8
0
  6
HIDDEN
 62
     7
370
     0
100
AcDbPolyline
 90
       22
 70
   128
 43
0.0
 10
190.0535591121
 20
136.898523204
 10
189.3815577205
 20
137.0261740014
 10
188.6993713851
 20
136.9620319531
 10
188.0676124419
 20
136.711781852
 10
187.5424154277
 20
136.2976711318
 10
187.1704489167
 20
135.756483309
 10
186.9847618218
 20
135.1363118813
 10
187.0018553163
 20
134.4922687933
 10
187.2202076192
 20
133.8815670535
 10
187.6204192813
 20
133.358476691
 10
188.1669268186
 20
132.9694744274
 10
188.8111747976
 20
132.7491309568
 10
189.4959204073
 20
132.7170189545
 10
190.1603110309
 20
132.8759919927
 10
190.7453231688
 20
133.2119237706
 10
191.1989703949
 20
133.6949672625
 10
191.4809487934
 20
134.282207124
 10
191.5661983366
 20
134.921452038
 10
191.4471455093
 20
135.5559136793
 10
191.1343701358
 20
136.1292135045
 10
190.6556628819
 20
136.5904044435
 10
190.0535591121
 20
136.898523204
  0
LWPOLYLINE
  5
16D
330
1F
100
AcDbEntity
  8
0
  6
HIDDEN
 62
     7
370
     0
100
AcDbPolyline
 90
       23
 70
   128
 43
0.0
 10
190.1219628926
 20
137.4856438562
 10
189.4254714425
 20
137.6225855276
 10
188.7161351915
 20
137.5695969984
 10
188.0514204676
 20
137.3309623525
 10
187.4851763423
 20
136.9260083959
 10
187.0632797654
 20
136.3875623867
 10
186.8199065502
 20
135.7592251226
 10
186.7747746582
 20
135.0919064209
 10
186.9315423246
 20
134.4396751449
 10
187.2775081719
 20
133.8553708121
 10
187.7846431162
 20
133.3863195107
 10
188.4118609305
 20
133.0705266521
 10
189.1083523805
 20
132.9335849807
 10
189.8176886316
 20
132.9865735099
 10
190.4824033554
 20
133.2252081558
 10
191.0486474808
 20
133.6301546619
 10
191.4705440576
 20
134.1686081216
 10
191.7139172728
 20
134.7969453857
 10
191.7590491648
 20
135.4642640874
 10
191.6022814985
 20
136.1164953634
 10
191.2563175137
 20
136.7007996962
 10
190.7491825695
 20
137.1698509976
 10
190.1219628926
 20
137.4856438562
  0
LWPOLYLINE
  5
16E
330
1F
100
AcDbEntity
  8
0
  6
HIDDEN
 62
     7
370
     0
100
AcDbPolyline
 90
       22
 70
   128
 43
0.0
 10
190.0535591121
 20
137.1345128939
 10
189.3815577205
 20
137.2621711418
 10
188.6993713851
 20
137.1980216429
 10
188.0676124419
 20
136.9477789924
 10
187.5424154277
 20
136.5336608216
 10
187.1704489167
 20
135.9924804494
 10
186.9847618218
 20
135.3723090217
 10
187.0018553163
 20
134.7282584831
 10
187.2202076192
 20
134.1175567433
 10
187.6204192813
 20
133.5944738314
 10
188.1669268186
 20
133.2054715678
 10
188.8111747976
 20
132.9851280973
 10
189.4959204073
 20
132.9530086443
 10
190.1603110309
 20
133.1119816825
 10
190.7453231688
 20
133.447920911
 10
191.1989703949
 20
133.9309644029
 10
191.4809487934
 20
134.5181968138
 10
191.5661983366
 20
135.1574491784
 10
191.4471455093
 20
135.7919108197
 10
191.1343701358
 20
136.3652031943
 10
190.6556628819
 20
136.8264015839
 10
190.0535591121
 20
137.1345128939
  0
LWPOLYLINE
  5
16F
330
1F
100
AcDbEntity
  8
0
  6
HIDDEN
 62
     7
370
     0
100
AcDbPolyline
 90
       23
 70
   128
 43
0.0
 10
190.1219628926
 20
137.7216335461
 10
189.4254714425
 20
137.858582668
 10
188.7161351915
 20
137.8055866882
 10
188.0514204676
 20
137.5669520423
 10
187.4851763423
 20
137.1620055363
 10
187.0632797654
 20
136.6235520765
 10
186.8199065502
 20
135.9952148125
 10
186.7747746582
 20
135.3279035613
 10
186.9315423246
 20
134.6756722853
 10
187.2775081719
 20
134.091360502
 10
187.7846431162
 20
133.6223092005
 10
188.4118609305
 20
133.3065237925
 10
189.1083523805
 20
133.1695746705
 10
189.8176886316
 20
133.2225706503
 10
190.4824033554
 20
133.4612052962
 10
191.0486474808
 20
133.8661518023
 10
191.4705440576
 20
134.404605262
 10
191.7139172728
 20
135.0329425261
 10
191.7590491648
 20
135.7002537772
 10
191.6022814985
 20
136.3524850533
 10
191.2563175137
 20
136.9367968366
 10
190.7491825695
 20
137.4058481381
 10
190.1219628926
 20
137.7216335461
  0
LWPOLYLINE
  5
170
330
1F
100
AcDbEntity
  8
0
  6
HIDDEN
 62
     7
370
     0
100
AcDbPolyline
 90
       22
 70
   128
 43
0.0
 10
190.0535591121
 20
137.3705100343
 10
189.3815577205
 20
137.4981682822
 10
188.6993713851
 20
137.4340187833
 10
188.0676124419
 20
137.1837686822
 10
187.5424154277
 20
136.769657962
 10
187.1704489167
 20
136.2284701392
 10
186.9847618218
 20
135.6082987115
 10
187.0018553163
 20
134.9642556235
 10
187.2202076192
 20
134.3535538838
 10
187.6204192813
 20
133.8304635212
 10
188.1669268186
 20
133.4414612577
 10
188.8111747976
 20
133.2211177871
 10
189.4959204073
 20
133.1890057847
 10
190.1603110309
 20
133.3479788229
 10
190.7453231688
 20
133.6839106009
 10
191.1989703949
 20
134.1669540927
 10
191.4809487934
 20
134.7541939542
 10
191.5661983366
 20
135.3934388682
 10
191.4471455093
 20
136.0279005096
 10
191.1343701358
 20
136.6012003347
 10
190.6556628819
 20
137.0623987243
 10
190.0535591121
 20
137.3705100343
  0
LWPOLYLINE
  5
171
330
1F
100
AcDbEntity
  8
0
  6
HIDDEN
 62
     7
370
     0
100
AcDbPolyline
 90
       23
 70
   128
 43
0.0
 10
190.1219628926
 20
137.909745805
 10
189.4254714425
 20
138.0466949269
 10
188.7161351915
 20
137.9936989472
 10
188.0514204676
 20
137.7550643012
 10
187.4851763423
 20
137.3501177952
 10
187.0632797654
 20
136.8116643354
 10
186.8199065502
 20
136.1833270714
 10
186.7747746582
 20
135.5160158202
 10
186.9315423246
 20
134.8637845442
 10
187.2775081719
 20
134.2794727609
 10
187.7846431162
 20
133.8104214594
 10
188.4118609305
 20
133.4946360514
 10
189.1083523805
 20
133.3576869294
 10
189.8176886316
 20
133.4106829092
 10
190.4824033554
 20
133.6493175551
 10
191.0486474808
 20
134.0542640612
 10
191.4705440576
 20
134.5927175209
 10
191.7139172728
 20
135.221054785
 10
191.7590491648
 20
135.8883660361
 10
191.6022814985
 20
136.5405973122
 10
191.2563175137
 20
137.1249090955
 10
190.7491825695
 20
137.5939529464
 10
190.1219628926
 20
137.909745805
  0
LWPOLYLINE
  5
172
330
1F
100
AcDbEntity
  8
0
  6
HIDDEN
 62
     7
370
     0
100
AcDbPolyline
 90
       22
 70
   128
 43
0.0
 10
190.0740817364
 20
137.8340032026
 10
189.3845491286
 20
137.9649918601
 10
188.6845633562
 20
137.8991734311
 10
188.0363255914
 20
137.6423966214
 10
187.4974288221
 20
137.2174751088
 10
187.1157579298
 20
136.6621758864
 10
186.9252279575
 20
136.0258292481
 10
186.9427666242
 20
135.3649776504
 10
187.166814896
 20
134.7383465693
 10
187.5774666841
 20
134.2016141936
 10
188.1382346328
 20
133.8024642393
 10
188.7992873962
 20
133.5763689205
 10
189.5018920477
 20
133.5434150025
 10
190.1836201723
 20
133.7065380141
 10
190.7838910992
 20
134.0512391254
 10
191.2493735726
 20
134.5468815491
 10
191.5387056942
 20
135.1494398043
 10
191.6261792357
 20
135.8053591177
 10
191.5040195163
 20
136.4563759491
 10
191.1830857571
 20
137.0446290896
 10
190.69189133
 20
137.5178527162
 10
190.0740817364
 20
137.8340032026
  0
ARC
  5
173
330
1F
100
AcDbEntity
  8
0
  6
HIDDEN
 62
     7
370
     0
100
AcDbCircle
 10
189.2530829471
 20
105.1552430988
 30
0.0
 40
2.481197190654
100
AcDbArc
 50
345.1059578258
 51
182.6034881371
  0
ARC
  5
174
330
1F
100
AcDbEntity
  8
0
  6
HIDDEN
 62
     7
370
     0
100
AcDbCircle
 10
189.2493511877
 20
105.0912460676
 30
0.0
 40
2.356430326681501
100
AcDbArc
 50
350.9619828331
 51
158.5807035834
  0
ARC
  5
175
330
1F
100
AcDbEntity
  8
0
  6
HIDDEN
 62
     7
370
     0
100
AcDbCircle
 10
189.2651153356
 20
105.073613224
 30
0.0
 40
2.004459085137275
100
AcDbArc
 50
2.9532888888
 51
126.8244559643
  0
LWPOLYLINE
  5
176
330
1F
100
AcDbEntity
  8
0
  6
HIDDEN
 62
     7
370
     0
100
AcDbPolyline
 90
       23
 70
   128
 43
0.0
 10
188.4118609305
 20
103.2053288147
 10
187.7846431162
 20
103.5211142227
 10
187.2775081719
 20
103.9901729748
 10
186.9315423246
 20
104.5744773075
 10
186.7747746582
 20
105.2267160341
 10
186.8199065502
 20
105.8940198347
 10
187.0632797654
 20
106.5223570988
 10
187.4851763423
 20
107.0608105585
 10
188.0514204676
 20
107.4657645151
 10
188.7161351915
 20
107.7043917105
 10
189.4254714425
 20
107.7573951408
 10
190.1219628926
 20
107.6204385683
 10
190.7491825695
 20
107.3046531603
 10
191.2563175137
 20
106.8356093094
 10
191.6022814985
 20
106.2512900755
 10
191.7590491648
 20
105.59906625
 10
191.7139172728
 20
104.9317475483
 10
191.4705440576
 20
104.3034102842
 10
191.0486474808
 20
103.7649568245
 10
190.4824033554
 20
103.3600177691
 10
189.8176886316
 20
103.1213756725
 10
189.1083523805
 20
103.0683871433
 10
188.4118609305
 20
103.2053288147
  0
LWPOLYLINE
  5
177
330
1F
100
AcDbEntity
  8
0
  6
HIDDEN
 62
     7
370
     0
100
AcDbPolyline
 90
       20
 70
   128
 43
0.0
 10
188.5828703816
 20
104.8286166117
 10
188.0097009416
 20
105.1330324337
 10
187.5727653678
 20
105.5958177969
 10
187.3194195505
 20
106.1668600962
 10
187.2771132912
 20
106.7842450068
 10
187.450434285
 20
107.3810961172
 10
187.8205977555
 20
107.8927274868
 10
188.3474916394
 20
108.2636918947
 10
188.9740184124
 20
108.4537860081
 10
189.632288384
 20
108.4424313232
 10
190.2509585197
 20
108.2308199331
 10
190.762995946
 20
107.8419294283
 10
191.1129087384
 20
107.3178704903
 10
191.2627808924
 20
106.7154314444
 10
191.196366417
 20
106.0999091789
 10
190.9208662982
 20
105.5380161926
 10
190.4661350127
 20
105.0906088278
 10
189.8814507003
 20
104.8062052652
 10
189.2301693733
 20
104.7156062052
 10
188.5828703816
 20
104.8286166117
  0
LWPOLYLINE
  5
178
330
1F
100
AcDbEntity
  8
0
  6
HIDDEN
 62
     7
370
     0
100
AcDbPolyline
 90
       23
 70
   128
 43
0.0
 10
188.4118609305
 20
103.4413185045
 10
187.7846431162
 20
103.7571188137
 10
187.2775081719
 20
104.2261626646
 10
186.9315423246
 20
104.8104669973
 10
186.7747746582
 20
105.462705724
 10
186.8199065502
 20
106.1300244257
 10
187.0632797654
 20
106.7583467886
 10
187.4851763423
 20
107.2968002483
 10
188.0514204676
 20
107.7017542049
 10
188.7161351915
 20
107.9403963015
 10
189.4254714425
 20
107.9933848307
 10
190.1219628926
 20
107.8564282581
 10
190.7491825695
 20
107.5406428501
 10
191.2563175137
 20
107.0715989992
 10
191.6022814985
 20
106.4872946665
 10
191.7590491648
 20
105.8350559399
 10
191.7139172728
 20
105.1677372381
 10
191.4705440576
 20
104.5393999741
 10
191.0486474808
 20
104.0009465143
 10
190.4824033554
 20
103.5960074589
 10
189.8176886316
 20
103.3573653624
 10
189.1083523805
 20
103.3043768332
 10
188.4118609305
 20
103.4413185045
  0
LWPOLYLINE
  5
179
330
1F
100
AcDbEntity
  8
0
  6
HIDDEN
 62
     7
370
     0
100
AcDbPolyline
 90
       22
 70
   128
 43
0.0
 10
188.4802647109
 20
103.5564597771
 10
187.8781628038
 20
103.8645710871
 10
187.3994555499
 20
104.325762026
 10
187.0866801764
 20
104.8990693018
 10
186.9676273491
 20
105.533516042
 10
187.0528768922
 20
106.1727758572
 10
187.3348534282
 20
106.7600008175
 10
187.7885006543
 20
107.2430517599
 10
188.3735127921
 20
107.5789835379
 10
189.037907141
 20
107.7379640266
 10
189.7226490255
 20
107.7058520243
 10
190.3668970044
 20
107.4854936525
 10
190.9134045418
 20
107.0964988396
 10
191.3136162038
 20
106.573408477
 10
191.5319703694
 20
105.9627141878
 10
191.5490620013
 20
105.3186561987
 10
191.3633749063
 20
104.6984996721
 10
190.9914083953
 20
104.1573043987
 10
190.4662132438
 20
103.7432011292
 10
189.8344561632
 20
103.4929510281
 10
189.1522661026
 20
103.4288015291
 10
188.4802647109
 20
103.5564597771
  0
LWPOLYLINE
  5
17A
330
1F
100
AcDbEntity
  8
0
  6
HIDDEN
 62
     7
370
     0
100
AcDbPolyline
 90
       23
 70
   128
 43
0.0
 10
188.4118609305
 20
103.6773230955
 10
187.7846431162
 20
103.9931085035
 10
187.2775081719
 20
104.4621523544
 10
186.9315423246
 20
105.0464715883
 10
186.7747746582
 20
105.6986954138
 10
186.8199065502
 20
106.3660141155
 10
187.0632797654
 20
106.9943513796
 10
187.4851763423
 20
107.5328048393
 10
188.0514204676
 20
107.9377438948
 10
188.7161351915
 20
108.1763859913
 10
189.4254714425
 20
108.2293745205
 10
190.1219628926
 20
108.0924328491
 10
190.7491825695
 20
107.7766474411
 10
191.2563175137
 20
107.307588689
 10
191.6022814985
 20
106.7232843563
 10
191.7590491648
 20
106.0710456297
 10
191.7139172728
 20
105.4037418291
 10
191.4705440576
 20
104.7754045651
 10
191.0486474808
 20
104.2369511053
 10
190.4824033554
 20
103.8319971487
 10
189.8176886316
 20
103.5933699534
 10
189.1083523805
 20
103.540366523
 10
188.4118609305
 20
103.6773230955
  0
LWPOLYLINE
  5
17B
330
1F
100
AcDbEntity
  8
0
  6
HIDDEN
 62
     7
370
     0
100
AcDbPolyline
 90
       22
 70
   128
 43
0.0
 10
188.4802647109
 20
103.7924494669
 10
187.8781628038
 20
104.1005607769
 10
187.3994555499
 20
104.5617517159
 10
187.0866801764
 20
105.1350589916
 10
186.9676273491
 20
105.7695206329
 10
187.0528768922
 20
106.408765547
 10
187.3348534282
 20
106.9960054085
 10
187.7885006543
 20
107.4790414497
 10
188.3735127921
 20
107.8149732277
 10
189.037907141
 20
107.9739537165
 10
189.7226490255
 20
107.9418417141
 10
190.3668970044
 20
107.7214982435
 10
190.9134045418
 20
107.3324885294
 10
191.3136162038
 20
106.8093981669
 10
191.5319703694
 20
106.1987038776
 10
191.5490620013
 20
105.5546607897
 10
191.3633749063
 20
104.934489362
 10
190.9914083953
 20
104.3933089897
 10
190.4662132438
 20
103.979190819
 10
189.8344561632
 20
103.7289407179
 10
189.1522661026
 20
103.664791219
 10
188.4802647109
 20
103.7924494669
  0
LWPOLYLINE
  5
17C
330
1F
100
AcDbEntity
  8
0
  6
HIDDEN
 62
     7
370
     0
100
AcDbPolyline
 90
       23
 70
   128
 43
0.0
 10
188.4118609305
 20
103.9133127853
 10
187.7846431162
 20
104.2290981934
 10
187.2775081719
 20
104.6981569454
 10
186.9315423246
 20
105.2824612782
 10
186.7747746582
 20
105.9346851036
 10
186.8199065502
 20
106.6020038054
 10
187.0632797654
 20
107.2303410694
 10
187.4851763423
 20
107.7687945292
 10
188.0514204676
 20
108.1737484858
 10
188.7161351915
 20
108.4123756811
 10
189.4254714425
 20
108.4653642103
 10
190.1219628926
 20
108.328422539
 10
190.7491825695
 20
108.0126371309
 10
191.2563175137
 20
107.5435783789
 10
191.6022814985
 20
106.9592740461
 10
191.7590491648
 20
106.3070502207
 10
191.7139172728
 20
105.6397315189
 10
191.4705440576
 20
105.0113942549
 10
191.0486474808
 20
104.4729407951
 10
190.4824033554
 20
104.0679868385
 10
189.8176886316
 20
103.8293596432
 10
189.1083523805
 20
103.776371114
 10
188.4118609305
 20
103.9133127853
  0
LWPOLYLINE
  5
17D
330
1F
100
AcDbEntity
  8
0
  6
HIDDEN
 62
     7
370
     0
100
AcDbPolyline
 90
       22
 70
   128
 43
0.0
 10
188.4802647109
 20
104.0284391567
 10
187.8781628038
 20
104.3365504667
 10
187.3994555499
 20
104.7977563068
 10
187.0866801764
 20
105.3710486815
 10
186.9676273491
 20
106.0055103228
 10
187.0528768922
 20
106.6447552368
 10
187.3348534282
 20
107.2319950983
 10
187.7885006543
 20
107.7150460407
 10
188.3735127921
 20
108.0509778187
 10
189.037907141
 20
108.2099434063
 10
189.7226490255
 20
108.1778314039
 10
190.3668970044
 20
107.9574879334
 10
190.9134045418
 20
107.5684931204
 10
191.3136162038
 20
107.0454027578
 10
191.5319703694
 20
106.4346935675
 10
191.5490620013
 20
105.7906504795
 10
191.3633749063
 20
105.1704790518
 10
190.9914083953
 20
104.6292986795
 10
190.4662132438
 20
104.2151805088
 10
189.8344561632
 20
103.9649304077
 10
189.1522661026
 20
103.9007809088
 10
188.4802647109
 20
104.0284391567
  0
LWPOLYLINE
  5
17E
330
1F
100
AcDbEntity
  8
0
  6
HIDDEN
 62
     7
370
     0
100
AcDbPolyline
 90
       23
 70
   128
 43
0.0
 10
188.4118609305
 20
104.1493024752
 10
187.7846431162
 20
104.4651027844
 10
187.2775081719
 20
104.9341466353
 10
186.9315423246
 20
105.518450968
 10
186.7747746582
 20
106.1706896946
 10
186.8199065502
 20
106.8379934952
 10
187.0632797654
 20
107.4663307592
 10
187.4851763423
 20
108.004784219
 10
188.0514204676
 20
108.4097381756
 10
188.7161351915
 20
108.6483653709
 10
189.4254714425
 20
108.7013688013
 10
190.1219628926
 20
108.5644122288
 10
190.7491825695
 20
108.2486268208
 10
191.2563175137
 20
107.7795829699
 10
191.6022814985
 20
107.195263736
 10
191.7590491648
 20
106.5430399105
 10
191.7139172728
 20
105.8757212088
 10
191.4705440576
 20
105.2473839447
 10
191.0486474808
 20
104.708930485
 10
190.4824033554
 20
104.3039914295
 10
189.8176886316
 20
104.065349333
 10
189.1083523805
 20
104.0123608038
 10
188.4118609305
 20
104.1493024752
  0
LWPOLYLINE
  5
17F
330
1F
100
AcDbEntity
  8
0
  6
HIDDEN
 62
     7
370
     0
100
AcDbPolyline
 90
       22
 70
   128
 43
0.0
 10
188.4802647109
 20
104.2644437477
 10
187.8781628038
 20
104.5725550577
 10
187.3994555499
 20
105.0337459967
 10
187.0866801764
 20
105.6070383713
 10
186.9676273491
 20
106.2415000126
 10
187.0528768922
 20
106.8807598278
 10
187.3348534282
 20
107.4679847881
 10
187.7885006543
 20
107.9510357306
 10
188.3735127921
 20
108.2869675085
 10
189.037907141
 20
108.4459479973
 10
189.7226490255
 20
108.4138210938
 10
190.3668970044
 20
108.1934776232
 10
190.9134045418
 20
107.8044828102
 10
191.3136162038
 20
107.2813924477
 10
191.5319703694
 20
106.6706981585
 10
191.5490620013
 20
106.0266401693
 10
191.3633749063
 20
105.4064687416
 10
190.9914083953
 20
104.8652883694
 10
190.4662132438
 20
104.4511701986
 10
189.8344561632
 20
104.2009349987
 10
189.1522661026
 20
104.1367854998
 10
188.4802647109
 20
104.2644437477
  0
LWPOLYLINE
  5
180
330
1F
100
AcDbEntity
  8
0
  6
HIDDEN
 62
     7
370
     0
100
AcDbPolyline
 90
       23
 70
   128
 43
0.0
 10
188.4118609305
 20
104.7478374168
 10
187.7846431162
 20
105.063637726
 10
187.2775081719
 20
105.5326815769
 10
186.9315423246
 20
106.1169859097
 10
186.7747746582
 20
106.7692246363
 10
186.8199065502
 20
107.4365284369
 10
187.0632797654
 20
108.0648657009
 10
187.4851763423
 20
108.6033191607
 10
188.0514204676
 20
109.0082731173
 10
188.7161351915
 20
109.2469003126
 10
189.4254714425
 20
109.299903743
 10
190.1219628926
 20
109.1629471705
 10
190.7491825695
 20
108.8471617624
 10
191.2563175137
 20
108.3781179115
 10
191.6022814985
 20
107.7937986776
 10
191.7590491648
 20
107.1415748522
 10
191.7139172728
 20
106.4742561504
 10
191.4705440576
 20
105.8459188864
 10
191.0486474808
 20
105.3074654266
 10
190.4824033554
 20
104.9025263712
 10
189.8176886316
 20
104.6638842747
 10
189.1083523805
 20
104.6108957455
 10
188.4118609305
 20
104.7478374168
  0
LWPOLYLINE
  5
181
330
1F
100
AcDbEntity
  8
0
  6
HIDDEN
 62
     7
370
     0
100
AcDbPolyline
 90
       20
 70
   128
 43
0.0
 10
188.5895796295
 20
105.3092833683
 10
188.0220297898
 20
105.6106891558
 10
187.5893820252
 20
106.068944566
 10
187.3385191138
 20
106.6343840286
 10
187.2966300871
 20
107.2457190678
 10
187.4682486232
 20
107.8367140219
 10
187.8347817983
 20
108.3433386013
 10
188.3565105672
 20
108.7106522247
 10
188.9768906112
 20
108.8988985941
 10
189.6287046547
 20
108.8876333162
 10
190.2413100179
 20
108.6781080887
 10
190.7483220275
 20
108.2930322811
 10
191.0948038276
 20
107.7740993425
 10
191.2432044919
 20
107.1775760576
 10
191.1774419422
 20
106.5681036636
 10
190.9046463843
 20
106.0117092058
 10
190.4543742712
 20
105.5686976835
 10
189.8754231806
 20
105.2870806381
 10
189.2305307265
 20
105.1973607466
 10
188.5895796295
 20
105.3092833683
  0
LINE
  5
182
330
1F
100
AcDbEntity
  8
0
  6
HIDDEN
 62
     7
370
     0
100
AcDbLine
 10
191.7669132526
 20
103.7991698906
 30
0.0
 11
191.7669132526
 21
106.9553997442
 31
0.0
  0
LINE
  5
183
330
1F
100
AcDbEntity
  8
0
  6
HIDDEN
 62
     7
370
     0
100
AcDbLine
 10
186.7669124331
 20
106.9553997442
 30
0.0
 11
186.7669124331
 21
104.9017366097
 31
0.0
  0
LINE
  5
184
330
1F
100
AcDbEntity
  8
0
  6
HIDDEN
 62
     7
370
     0
100
AcDbLine
 10
178.2669119711
 20
103.0138041899
 30
0.0
 11
180.8863405313
 21
103.6411132738
 31
0.0
  0
LINE
  5
185
330
1F
100
AcDbEntity
  8
0
  6
HIDDEN
 62
     7
370
     0
100
AcDbLine
 10
179.4889431621
 20
109.4761248753
 30
0.0
 11
178.2669119711
 21
109.1834660694
 31
0.0
  0
LINE
  5
186
330
1F
100
AcDbEntity
  8
0
  6
HIDDEN
 62
     7
370
     0
100
AcDbLine
 10
180.9450622822
 20
104.5806314871
 30
0.0
 11
188.4142115887
 21
106.369381778
 31
0.0
  0
LINE
  5
187
330
1F
100
AcDbEntity
  8
0
  6
HIDDEN
 62
     7
370
     0
100
AcDbLine
 10
188.4142115887
 20
110.6881406233
 30
0.0
 11
179.9668848689
 21
108.6651291773
 31
0.0
  0
LINE
  5
188
330
1F
100
AcDbEntity
  8
0
  6
HIDDEN
 62
     7
370
     0
100
AcDbLine
 10
191.3669139321
 20
107.0051845238
 30
0.0
 11
191.3669139321
 21
119.0144848153
 31
0.0
  0
LINE
  5
189
330
1F
100
AcDbEntity
  8
0
  6
HIDDEN
 62
     7
370
     0
100
AcDbLine
 10
187.1669117536
 20
107.3532458469
 30
0.0
 11
187.1669117536
 21
107.0051845238
 31
0.0
  0
LINE
  5
18A
330
1F
100
AcDbEntity
  8
0
  6
HIDDEN
 62
     7
370
     0
100
AcDbLine
 10
187.1669117536
 20
119.0127637312
 30
0.0
 11
187.1669117536
 21
109.1068591997
 31
0.0
  0
ARC
  5
18B
330
1F
100
AcDbEntity
  8
0
  6
HIDDEN
 62
     7
370
     0
100
AcDbCircle
 10
74.6669125031
 20
106.7634825148
 30
0.0
 40
1.200000000000003
100
AcDbArc
 50
90.0
 51
180.0
  0
ARC
  5
18C
330
1F
100
AcDbEntity
  8
0
  6
HIDDEN
 62
     7
370
     0
100
AcDbCircle
 10
74.6669125031
 20
134.1634825148
 30
0.0
 40
1.200000000000003
100
AcDbArc
 50
180.0
 51
270.0
  0
ARC
  5
18D
330
1F
100
AcDbEntity
  8
0
  6
HIDDEN
 62
     7
370
     0
100
AcDbCircle
 10
85.2359723954
 20
108.1384825148
 30
0.0
 40
0.4000000000000199
100
AcDbArc
 50
270.0
 51
330.0
  0
ARC
  5
18E
330
1F
100
AcDbEntity
  8
0
  6
HIDDEN
 62
     7
370
     0
100
AcDbCircle
 10
85.2359723954
 20
132.7884825148
 30
0.0
 40
0.400000000000005
100
AcDbArc
 50
30.0
 51
90.0
  0
LINE
  5
18F
330
1F
100
AcDbEntity
  8
0
  6
HIDDEN
 62
     7
370
     0
100
AcDbLine
 10
84.359287488
 20
107.7384855673
 30
0.0
 11
85.2359749551
 21
107.7384855673
 31
0.0
  0
LINE
  5
190
330
1F
100
AcDbEntity
  8
0
  6
HIDDEN
 62
     7
370
     0
100
AcDbLine
 10
85.2359749551
 20
133.1884842441
 30
0.0
 11
84.359287488
 21
133.1884842441
 31
0.0
  0
ARC
  5
191
330
1F
100
AcDbEntity
  8
0
  6
HIDDEN
 62
     7
370
     0
100
AcDbCircle
 10
84.3592849338
 20
108.1384825148
 30
0.0
 40
0.4000000000000234
100
AcDbArc
 50
255.0
 51
270.0
  0
ARC
  5
192
330
1F
100
AcDbEntity
  8
0
  6
HIDDEN
 62
     7
370
     0
100
AcDbCircle
 10
84.3592849338
 20
132.7884825148
 30
0.0
 40
0.3999999999999822
100
AcDbArc
 50
90.0
 51
105.0
  0
LINE
  5
193
330
1F
100
AcDbEntity
  8
0
  6
HIDDEN
 62
     7
370
     0
100
AcDbLine
 10
84.25575422
 20
133.1748496816
 30
0.0
 11
83.4669090982
 21
132.9634841606
 31
0.0
  0
LINE
  5
194
330
1F
100
AcDbEntity
  8
0
  6
HIDDEN
 62
     7
370
     0
100
AcDbLine
 10
83.4669090982
 20
107.9634782002
 30
0.0
 11
84.25575422
 21
107.7521052286
 31
0.0
  0
LINE
  5
195
330
1F
100
AcDbEntity
  8
0
  6
HIDDEN
 62
     7
370
     0
100
AcDbLine
 10
220.3169159766
 20
133.0408360884
 30
0.0
 11
219.31691395
 21
132.4634831473
 31
0.0
  0
LINE
  5
196
330
1F
100
AcDbEntity
  8
0
  6
HIDDEN
 62
     7
370
     0
100
AcDbLine
 10
219.31691395
 20
108.463486664
 30
0.0
 11
220.3169159766
 21
107.8861262724
 31
0.0
  0
LINE
  5
197
330
1F
100
AcDbEntity
  8
0
  6
HIDDEN
 62
     7
370
     0
100
AcDbLine
 10
223.9636920567
 20
136.463483803
 30
0.0
 11
220.3169159766
 21
136.463483803
 31
0.0
  0
LINE
  5
198
330
1F
100
AcDbEntity
  8
0
  6
HIDDEN
 62
     7
370
     0
100
AcDbLine
 10
220.3169159766
 20
104.4634785578
 30
0.0
 11
223.9731170411
 21
104.4634785578
 31
0.0
  0
LINE
  5
199
330
1F
100
AcDbEntity
  8
0
  6
HIDDEN
 62
     7
370
     0
100
AcDbLine
 10
85.5823822494
 20
107.9384889528
 30
0.0
 11
86.7515199061
 21
109.9634822533
 31
0.0
  0
LINE
  5
19A
330
1F
100
AcDbEntity
  8
0
  6
HIDDEN
 62
     7
370
     0
100
AcDbLine
 10
86.7515199061
 20
130.9634801075
 30
0.0
 11
85.5823822494
 21
132.9884808585
 31
0.0
  0
LINE
  5
19B
330
1F
100
AcDbEntity
  8
0
  6
HIDDEN
 62
     7
370
     0
100
AcDbLine
 10
74.6669091459
 20
107.9634782002
 30
0.0
 11
83.4669090982
 21
107.9634782002
 31
0.0
  0
LINE
  5
19C
330
1F
100
AcDbEntity
  8
0
  6
HIDDEN
 62
     7
370
     0
100
AcDbLine
 10
83.4669090982
 20
132.9634841606
 30
0.0
 11
74.6669091459
 21
132.9634841606
 31
0.0
  0
LINE
  5
19D
330
1F
100
AcDbEntity
  8
0
  6
HIDDEN
 62
     7
370
     0
100
AcDbLine
 10
199.7669108386
 20
108.1634815857
 30
0.0
 11
200.4683047707
 21
108.1634815857
 31
0.0
  0
LINE
  5
19E
330
1F
100
AcDbEntity
  8
0
  6
HIDDEN
 62
     7
370
     0
100
AcDbLine
 10
200.4683047707
 20
132.7634807751
 30
0.0
 11
199.7669108386
 21
132.7634807751
 31
0.0
  0
ARC
  5
19F
330
1F
100
AcDbEntity
  8
0
  6
HIDDEN
 62
     7
370
     0
100
AcDbCircle
 10
199.7669125031
 20
108.7634825148
 30
0.0
 40
0.5999999999999943
100
AcDbArc
 50
180.0
 51
270.0
  0
ARC
  5
1A0
330
1F
100
AcDbEntity
  8
0
  6
HIDDEN
 62
     7
370
     0
100
AcDbCircle
 10
199.7669125031
 20
132.1634825148
 30
0.0
 40
0.5999999999999943
100
AcDbArc
 50
90.0
 51
180.0
  0
ARC
  5
1A1
330
1F
100
AcDbEntity
  8
0
  6
HIDDEN
 62
     7
370
     0
100
AcDbCircle
 10
200.4683057622
 20
108.7634825148
 30
0.0
 40
0.5999999999999943
100
AcDbArc
 50
270.0
 51
285.0
  0
ARC
  5
1A2
330
1F
100
AcDbEntity
  8
0
  6
HIDDEN
 62
     7
370
     0
100
AcDbCircle
 10
200.4683057622
 20
132.1634825148
 30
0.0
 40
0.5999999999999943
100
AcDbArc
 50
75.0
 51
90.0
  0
LINE
  5
1A3
330
1F
100
AcDbEntity
  8
0
  6
HIDDEN
 62
     7
370
     0
100
AcDbLine
 10
200.6235972221
 20
108.1839259789
 30
0.0
 11
201.666913199
 21
108.463486664
 31
0.0
  0
LINE
  5
1A4
330
1F
100
AcDbEntity
  8
0
  6
HIDDEN
 62
     7
370
     0
100
AcDbLine
 10
201.666913199
 20
132.4634831473
 30
0.0
 11
200.6235972221
 21
132.7430363819
 31
0.0
  0
LINE
  5
1A5
330
1F
100
AcDbEntity
  8
0
  6
HIDDEN
 62
     7
370
     0
100
AcDbLine
 10
201.666913199
 20
108.463486664
 30
0.0
 11
219.31691395
 21
108.463486664
 31
0.0
  0
LINE
  5
1A6
330
1F
100
AcDbEntity
  8
0
  6
HIDDEN
 62
     7
370
     0
100
AcDbLine
 10
219.31691395
 20
132.4634831473
 30
0.0
 11
201.666913199
 21
132.4634831473
 31
0.0
  0
LINE
  5
1A7
330
1F
100
AcDbEntity
  8
0
  6
HIDDEN
 62
     7
370
     0
100
AcDbLine
 10
135.4669120337
 20
109.9634822533
 30
0.0
 11
139.2222915019
 21
116.2134837434
 31
0.0
  0
LINE
  5
1A8
330
1F
100
AcDbEntity
  8
0
  6
HIDDEN
 62
     7
370
     0
100
AcDbLine
 10
139.2222915019
 20
124.713486068
 30
0.0
 11
135.4669120337
 21
130.9634801075
 31
0.0
  0
LINE
  5
1A9
330
1F
100
AcDbEntity
  8
0
  6
HIDDEN
 62
     7
370
     0
100
AcDbLine
 10
86.7515199061
 20
109.9634822533
 30
0.0
 11
135.4669120337
 21
109.9634822533
 31
0.0
  0
LINE
  5
1AA
330
1F
100
AcDbEntity
  8
0
  6
HIDDEN
 62
     7
370
     0
100
AcDbLine
 10
135.4669120337
 20
130.9634801075
 30
0.0
 11
86.7515199061
 21
130.9634801075
 31
0.0
  0
LINE
  5
1AB
330
1F
100
AcDbEntity
  8
0
  6
HIDDEN
 62
     7
370
     0
100
AcDbLine
 10
223.6169122334
 20
103.6429610178
 30
0.0
 11
224.1669140931
 21
102.4634894058
 31
0.0
  0
LINE
  5
1AC
330
1F
100
AcDbEntity
  8
0
  6
HIDDEN
 62
     7
370
     0
100
AcDbLine
 10
224.1669140931
 20
138.4634804055
 30
0.0
 11
223.6169122334
 21
137.284001343
 31
0.0
  0
LINE
  5
1AD
330
1F
100
AcDbEntity
  8
0
  6
HIDDEN
 62
     7
370
     0
100
AcDbLine
 10
223.6169122334
 20
136.9884815142
 30
0.0
 11
220.3169159766
 21
136.9884815142
 31
0.0
  0
LINE
  5
1AE
330
1F
100
AcDbEntity
  8
0
  6
HIDDEN
 62
     7
370
     0
100
AcDbLine
 10
220.3169159766
 20
103.9384808466
 30
0.0
 11
223.6169122334
 21
103.9384808466
 31
0.0
  0
LINE
  5
1AF
330
1F
100
AcDbEntity
  8
0
  6
HIDDEN
 62
     7
370
     0
100
AcDbLine
 10
139.2222915019
 20
116.2134837434
 30
0.0
 11
199.1669118579
 21
116.2134837434
 31
0.0
  0
LINE
  5
1B0
330
1F
100
AcDbEntity
  8
0
  6
HIDDEN
 62
     7
370
     0
100
AcDbLine
 10
199.1669118579
 20
124.713486068
 30
0.0
 11
139.2222915019
 21
124.713486068
 31
0.0
  0
LINE
  5
1B1
330
1F
100
AcDbEntity
  8
0
  6
HIDDEN
 62
     7
370
     0
100
AcDbLine
 10
191.3669139321
 20
121.9141986296
 30
0.0
 11
191.3669139321
 21
133.9217703864
 31
0.0
  0
LINE
  5
1B2
330
1F
100
AcDbEntity
  8
0
  6
HIDDEN
 62
     7
370
     0
100
AcDbLine
 10
187.1669117536
 20
131.8200957105
 30
0.0
 11
187.1669117536
 21
121.912484996
 31
0.0
  0
LINE
  5
1B3
330
1F
100
AcDbEntity
  8
0
  6
HIDDEN
 62
     7
370
     0
100
AcDbLine
 10
187.1669117536
 20
133.9217703864
 30
0.0
 11
187.1669117536
 21
133.5737239644
 31
0.0
  0
LINE
  5
1B4
330
1F
100
AcDbEntity
  8
0
  6
HIDDEN
 62
     7
370
     0
100
AcDbLine
 10
223.9731170411
 20
136.463483803
 30
0.0
 11
223.9636920567
 21
136.463483803
 31
0.0
  0
LINE
  5
1B5
330
1F
100
AcDbEntity
  8
0
  6
HIDDEN
 62
     7
370
     0
100
AcDbLine
 10
179.9668848689
 20
132.2618257329
 30
0.0
 11
188.4142115887
 21
130.2388217375
 31
0.0
  0
LINE
  5
1B6
330
1F
100
AcDbEntity
  8
0
  6
HIDDEN
 62
     7
370
     0
100
AcDbLine
 10
188.4142115887
 20
134.5575805828
 30
0.0
 11
180.9450622822
 21
136.3463308737
 31
0.0
  0
LINE
  5
1B7
330
1F
100
AcDbEntity
  8
0
  6
HIDDEN
 62
     7
370
     0
100
AcDbLine
 10
178.2669119711
 20
131.7434962914
 30
0.0
 11
179.4889431621
 21
131.4508374855
 31
0.0
  0
LINE
  5
1B8
330
1F
100
AcDbEntity
  8
0
  6
HIDDEN
 62
     7
370
     0
100
AcDbLine
 10
180.8863405313
 20
137.2858416364
 30
0.0
 11
178.2669119711
 21
137.9131581709
 31
0.0
  0
LINE
  5
1B9
330
1F
100
AcDbEntity
  8
0
  6
HIDDEN
 62
     7
370
     0
100
AcDbLine
 10
191.7669132526
 20
133.9715700671
 30
0.0
 11
191.7669132526
 21
137.1277999208
 31
0.0
  0
LINE
  5
1BA
330
1F
100
AcDbEntity
  8
0
  6
HIDDEN
 62
     7
370
     0
100
AcDbLine
 10
186.7669124331
 20
136.0252257511
 30
0.0
 11
186.7669124331
 21
133.9715700671
 31
0.0
  0
LINE
  5
1BB
330
1F
100
AcDbEntity
  8
0
  6
HIDDEN
 62
     7
370
     0
100
AcDbLine
 10
184.0601109143
 20
131.4654480741
 30
0.0
 11
184.5571521844
 21
131.9390591309
 31
0.0
  0
LINE
  5
1BC
330
1F
100
AcDbEntity
  8
0
  6
HIDDEN
 62
     7
370
     0
100
AcDbLine
 10
185.1835690613
 20
134.5547419116
 30
0.0
 11
184.9549908365
 21
135.2021303103
 31
0.0
  0
LINE
  5
1BD
330
1F
100
AcDbEntity
  8
0
  6
HIDDEN
 62
     7
370
     0
100
AcDbLine
 10
179.8158504243
 20
131.8866889999
 30
0.0
 11
183.0867894168
 21
131.1033498571
 31
0.0
  0
LINE
  5
1BE
330
1F
100
AcDbEntity
  8
0
  6
HIDDEN
 62
     7
370
     0
100
AcDbLine
 10
184.2512872244
 20
135.9658520743
 30
0.0
 11
180.9803482319
 21
136.7491912171
 31
0.0
  0
LINE
  5
1BF
330
1F
100
AcDbEntity
  8
0
  6
HIDDEN
 62
     7
370
     0
100
AcDbLine
 10
180.9803482319
 20
104.1777785942
 30
0.0
 11
184.2512872244
 21
104.961117737
 31
0.0
  0
LINE
  5
1C0
330
1F
100
AcDbEntity
  8
0
  6
HIDDEN
 62
     7
370
     0
100
AcDbLine
 10
183.0867894168
 20
109.8236199543
 30
0.0
 11
179.8158504243
 21
109.0402808115
 31
0.0
  0
LINE
  5
1C1
330
1F
100
AcDbEntity
  8
0
  6
HIDDEN
 62
     7
370
     0
100
AcDbLine
 10
184.9549908365
 20
105.7248320505
 30
0.0
 11
185.1835690613
 21
106.3722278997
 31
0.0
  0
LINE
  5
1C2
330
1F
100
AcDbEntity
  8
0
  6
HIDDEN
 62
     7
370
     0
100
AcDbLine
 10
184.5571521844
 20
108.9879032299
 30
0.0
 11
184.0601109143
 21
109.4615217373
 31
0.0
  0
LINE
  5
1C3
330
1F
100
AcDbEntity
  8
0
  6
HIDDEN
 62
     7
370
     0
100
AcDbLine
 10
191.7669132526
 20
133.9715700671
 30
0.0
 11
191.7669132526
 21
134.5701050088
 31
0.0
  0
LINE
  5
1C4
330
1F
100
AcDbEntity
  8
0
  6
HIDDEN
 62
     7
370
     0
100
AcDbLine
 10
186.7669124331
 20
134.5701050088
 30
0.0
 11
186.7669124331
 21
133.9715700671
 31
0.0
  0
LINE
  5
1C5
330
1F
100
AcDbEntity
  8
0
  6
HIDDEN
 62
     7
370
     0
100
AcDbLine
 10
191.2669122393
 20
134.3322973773
 30
0.0
 11
191.2669122393
 21
135.7500758097
 31
0.0
  0
LINE
  5
1C6
330
1F
100
AcDbEntity
  8
0
  6
HIDDEN
 62
     7
370
     0
100
AcDbLine
 10
187.2669115837
 20
135.7500758097
 30
0.0
 11
187.2669115837
 21
134.3322973773
 31
0.0
  0
LINE
  5
1C7
330
1F
100
AcDbEntity
  8
0
  6
HIDDEN
 62
     7
370
     0
100
AcDbLine
 10
191.7669132526
 20
135.5140786693
 30
0.0
 11
191.7669132526
 21
135.7021909282
 31
0.0
  0
LINE
  5
1C8
330
1F
100
AcDbEntity
  8
0
  6
HIDDEN
 62
     7
370
     0
100
AcDbLine
 10
186.7669124331
 20
135.7021909282
 30
0.0
 11
186.7669124331
 21
135.5140786693
 31
0.0
  0
LINE
  5
1C9
330
1F
100
AcDbEntity
  8
0
  6
HIDDEN
 62
     7
370
     0
100
AcDbLine
 10
186.7669124331
 20
105.4128911421
 30
0.0
 11
186.7669124331
 21
105.2247788832
 31
0.0
  0
LINE
  5
1CA
330
1F
100
AcDbEntity
  8
0
  6
HIDDEN
 62
     7
370
     0
100
AcDbLine
 10
191.7669132526
 20
105.2247788832
 30
0.0
 11
191.7669132526
 21
105.4128911421
 31
0.0
  0
LINE
  5
1CB
330
1F
100
AcDbEntity
  8
0
  6
HIDDEN
 62
     7
370
     0
100
AcDbLine
 10
187.2669115837
 20
106.5946724341
 30
0.0
 11
187.2669115837
 21
105.1768865511
 31
0.0
  0
LINE
  5
1CC
330
1F
100
AcDbEntity
  8
0
  6
HIDDEN
 62
     7
370
     0
100
AcDbLine
 10
191.2669122393
 20
105.1768865511
 30
0.0
 11
191.2669122393
 21
106.5946724341
 31
0.0
  0
LINE
  5
1CD
330
1F
100
AcDbEntity
  8
0
  6
HIDDEN
 62
     7
370
     0
100
AcDbLine
 10
186.7669124331
 20
106.9553997442
 30
0.0
 11
186.7669124331
 21
106.3568648026
 31
0.0
  0
LINE
  5
1CE
330
1F
100
AcDbEntity
  8
0
  6
HIDDEN
 62
     7
370
     0
100
AcDbLine
 10
191.7669132526
 20
106.3568648026
 30
0.0
 11
191.7669132526
 21
106.9553997442
 31
0.0
  0
ARC
  5
1CF
330
1F
100
AcDbEntity
  8
0
  6
HIDDEN
 62
     7
370
     0
100
AcDbCircle
 10
189.2669125031
 20
105.9977405528
 30
0.0
 40
2.000000000000003
100
AcDbArc
 50
71.1182787691
 51
192.2156860301
  0
ARC
  5
1D0
330
1F
100
AcDbEntity
  8
0
  6
HIDDEN
 62
     7
370
     0
100
AcDbCircle
 10
189.2669125031
 20
105.9977405528
 30
0.0
 40
2.000000000000016
100
AcDbArc
 50
340.3453161116
 51
71.1182787691
  0
CIRCLE
  5
1D1
330
1F
100
AcDbEntity
  8
0
  6
HIDDEN
 62
     7
370
     0
100
AcDbCircle
 10
189.2669125031
 20
134.9292244767
 30
0.0
 40
1.999999999999989
  0
DIMENSION
  5
1D2
330
1F
100
AcDbEntity
  8
VERMASSUNG
100
AcDbDimension
  2
_D
 10
234.1669125031
 20
99.4634825148
 30
0.0
 11
234.1669125031
 21
120.4634825148
 31
0.0
 70
   160
  1
MBM %%c<>
 71
     2
 42
-1.0
  3
SLDDIMSTYLE0
100
AcDbAlignedDimension
 13
223.7669125031
 23
141.4634825148
 33
0.0
 14
223.7669125031
 24
99.4634825148
 34
0.0
 50
90.0
100
AcDbRotatedDimension
  0
DIMENSION
  5
1DF
330
1F
100
AcDbEntity
  8
VERMASSUNG
100
AcDbDimension
  2
_D_1
 10
194.1169125031
 20
173.3942668358
 30
0.0
 11
209.1419125031
 21
173.3942668358
 31
0.0
 70
   160
  1
<>
 71
     2
 42
-1.0
  3
SLDDIMSTYLE0
100
AcDbAlignedDimension
 13
224.1669125031
 23
141.0634825148
 33
0.0
 14
194.1169125031
 24
158.2125636294
 34
0.0
100
AcDbRotatedDimension
  0
DIMENSION
  5
1E9
330
1F
100
AcDbEntity
  8
VERMASSUNG
100
AcDbDimension
  2
_D_2
 10
175.0669125031
 20
180.9546134105
 30
0.0
 11
199.6169125031
 21
180.9546134105
 31
0.0
 70
   160
  1
<>
 71
     2
 42
-1.0
  3
SLDDIMSTYLE0
100
AcDbAlignedDimension
 13
224.1669125031
 23
141.0634825148
 33
0.0
 14
175.0669125031
 24
155.3884825148
 34
0.0
100
AcDbRotatedDimension
  0
DIMENSION
  5
1F3
330
1F
100
AcDbEntity
  8
VERMASSUNG
100
AcDbDimension
  2
_D_3
 10
73.4669125031
 20
189.2919093041
 30
0.0
 11
148.8169125031
 21
189.2919093041
 31
0.0
 70
   160
  1
<>
 71
     2
 42
-1.0
  3
SLDDIMSTYLE0
100
AcDbAlignedDimension
 13
224.1669125031
 23
141.0634825148
 33
0.0
 14
73.4669125031
 24
138.8423270422
 34
0.0
100
AcDbRotatedDimension
  0
DIMENSION
  5
1FD
330
1F
100
AcDbEntity
  8
VERMASSUNG
100
AcDbDimension
  2
_D_4
 10
63.4669125031
 20
167.2433271696
 30
0.0
 11
63.4669125031
 21
120.4887751715
 31
0.0
 70
   160
  1
<>
 71
     2
 42
-1.0
  3
SLDDIMSTYLE0
100
AcDbAlignedDimension
 13
189.4000740105
 23
73.7342231734
 33
0.0
 14
189.4000740105
 24
167.2433271696
 34
0.0
 50
90.0
100
AcDbRotatedDimension
  0
LINE
  5
207
330
1F
100
AcDbEntity
  8
0
  6
Continuous
 62
     7
370
    15
100
AcDbLine
 10
269.4408033215
 20
50.9254100379
 30
0.0
 11
269.2639986091
 21
51.0275096404
 31
0.0
  0
LINE
  5
208
330
1F
100
AcDbEntity
  8
0
  6
Continuous
 62
     7
370
    15
100
AcDbLine
 10
265.3742778138
 20
51.0275088801
 30
0.0
 11
265.1974717843
 21
50.9254085172
 31
0.0
  0
LINE
  5
209
330
1F
100
AcDbEntity
  8
0
  6
Continuous
 62
     7
370
    15
100
AcDbLine
 10
270.3191383761
 20
49.2927256451
 30
0.0
 11
270.3191383761
 21
49.700996118
 31
0.0
  0
LINE
  5
20A
330
1F
100
AcDbEntity
  8
0
  6
Continuous
 62
     7
370
    15
100
AcDbLine
 10
264.3191380468
 20
49.7009968783
 30
0.0
 11
264.3191380468
 21
49.2927264054
 31
0.0
  0
SPLINE
  5
20B
330
1F
100
AcDbEntity
  8
0
  6
Continuous
 62
     7
370
    15
100
AcDbSpline
210
0.0
220
0.0
230
1.0
 70
     8
 71
     3
 72
    30
 73
    26
 74
     0
 42
0.000000001
 43
0.00000001
 40
0.0
 40
0.0
 40
0.0
 40
0.0
 40
0.0034134107120831
 40
0.0506521130230022
 40
0.097964477690866
 40
0.14532459265138
 40
0.1927110825984
 40
0.2401083646991222
 40
0.2875038877953931
 40
0.3348922660228913
 40
0.3822709817965746
 40
0.4296395822472253
 40
0.4769984183721331
 40
0.5243485170027335
 40
0.5716917463930844
 40
0.6190296840470307
 40
0.6663642282012998
 40
0.7136974185263814
 40
0.7610312107912467
 40
0.8083669654632968
 40
0.8557067004144093
 40
0.9030523809123417
 40
0.9504060989246358
 40
0.9952843163711362
 40
1.0
 40
1.0
 40
1.0
 40
1.0
 10
261.3790996766559
 20
70.10876274620284
 30
0.0
 10
261.3491538646172
 20
70.10512731509857
 30
0.0
 10
260.9047834726862
 20
70.05118060820828
 30
0.0
 10
260.0153802679877
 20
69.8246641716438
 30
0.0
 10
258.7170838083398
 20
69.42118581764225
 30
0.0
 10
257.3977010884905
 20
68.8766728515552
 30
0.0
 10
256.0698063977875
 20
68.21263295537544
 30
0.0
 10
254.7401386546175
 20
67.42832432878333
 30
0.0
 10
253.4169167283564
 20
66.52988815155945
 30
0.0
 10
252.1078231021643
 20
65.52245694405941
 30
0.0
 10
250.8204929210718
 20
64.41218300917264
 30
0.0
 10
249.5623843439454
 20
63.20566668097531
 30
0.0
 10
248.3407847021236
 20
61.91006748507381
 30
0.0
 10
247.1627752076817
 20
60.53302573537974
 30
0.0
 10
246.0351799161477
 20
59.08265325816691
 30
0.0
 10
244.9645493278855
 20
57.56745788337626
 30
0.0
 10
243.9571165745702
 20
55.99632051554432
 30
0.0
 10
243.0187449128858
 20
54.37843890248098
 30
0.0
 10
242.1549367218122
 20
52.72328035653005
 30
0.0
 10
241.3707093788593
 20
51.04050713613327
 30
0.0
 10
240.6708560774034
 20
49.33999393649928
 30
0.0
 10
240.058834339218
 20
47.6314767133394
 30
0.0
 10
239.5498682354966
 20
45.95540684260681
 30
0.0
 10
239.2546739851477
 20
44.79816639204137
 30
0.0
 10
239.1267357127189
 20
44.21155869970011
 30
0.0
 10
239.114570579432
 20
44.15578054489967
 30
0.0
  0
LINE
  5
20C
330
1F
100
AcDbEntity
  8
0
  6
Continuous
 62
     7
370
    15
100
AcDbLine
 10
271.6160179782
 20
30.2786308276
 30
0.0
 11
271.7574180208
 21
30.3602858747
 31
0.0
  0
LINE
  5
20D
330
1F
100
AcDbEntity
  8
0
  6
Continuous
 62
     7
370
    15
100
AcDbLine
 10
279.0394319685
 20
42.9744728097
 30
0.0
 11
279.0394319685
 21
43.1377541547
 31
0.0
  0
LINE
  5
20E
330
1F
100
AcDbEntity
  8
0
  6
Continuous
 62
     7
370
    15
100
AcDbLine
 10
257.2965919523
 20
34.9933158965
 30
0.0
 11
266.3652371502
 21
29.7580984585
 31
0.0
  0
LINE
  5
20F
330
1F
100
AcDbEntity
  8
0
  6
Continuous
 62
     7
370
    15
100
AcDbLine
 10
276.8643858992
 20
47.9451255526
 30
0.0
 11
267.7957407013
 21
53.1803429906
 31
0.0
  0
LINE
  5
210
330
1F
100
AcDbEntity
  8
0
  6
Continuous
 62
     7
370
    15
100
AcDbLine
 10
254.3807994623
 20
67.1645854201
 30
0.0
 11
223.6178223898
 21
78.2503434684
 31
0.0
  0
LINE
  5
211
330
1F
100
AcDbEntity
  8
0
  6
Continuous
 62
     7
370
    15
100
AcDbLine
 10
213.493964985
 20
60.7134062085
 30
0.0
 11
242.961471823
 21
35.8312824395
 31
0.0
  0
SPLINE
  5
212
330
1F
100
AcDbEntity
  8
0
  6
Continuous
 62
     7
370
    15
100
AcDbSpline
210
0.0
220
0.0
230
1.0
 70
     8
 71
     3
 72
    17
 73
    13
 74
     0
 42
0.000000001
 43
0.00000001
 40
0.0
 40
0.0
 40
0.0
 40
0.0
 40
0.0911041827639326
 40
0.2042081068197221
 40
0.317441775487242
 40
0.4307509185466514
 40
0.5440940473999112
 40
0.6574398339253229
 40
0.7707710274795795
 40
0.8840800757823453
 40
0.997364921837021
 40
1.0
 40
1.0
 40
1.0
 40
1.0
 10
255.2854128299971
 20
22.93902694933757
 30
0.0
 10
255.6247612244934
 20
22.99991812170186
 30
0.0
 10
256.3854035033663
 20
23.1364044020604
 30
0.0
 10
257.5998769542375
 20
23.50361160856565
 30
0.0
 10
258.9139584413977
 20
24.00897093944844
 30
0.0
 10
260.2405132157729
 20
24.64260532674099
 30
0.0
 10
261.570510590285
 20
25.39539130778507
 30
0.0
 10
262.8959447054257
 20
26.26495231166255
 30
0.0
 10
264.2104260369888
 20
27.24202459906681
 30
0.0
 10
265.5007468819144
 20
28.33422256582198
 30
0.0
 10
266.3637129479563
 20
29.11035976143442
 30
0.0
 10
266.7834403697618
 20
29.54451803668105
 30
0.0
 10
266.7929815644361
 20
29.55438727182849
 30
0.0
  0
SPLINE
  5
213
330
1F
100
AcDbEntity
  8
0
  6
Continuous
 62
     7
370
    15
100
AcDbSpline
210
0.0
220
0.0
230
1.0
 70
     8
 71
     3
 72
     9
 73
     5
 74
     0
 42
0.000000001
 43
0.00000001
 40
0.0
 40
0.0
 40
0.0
 40
0.0
 40
0.5437667042986908
 40
0.9999999999999999
 40
0.9999999999999999
 40
0.9999999999999999
 40
0.9999999999999999
 10
277.2390964071074
 20
47.65554938754607
 30
0.0
 10
277.3044970622507
 20
47.89199039488513
 30
0.0
 10
277.4247704343167
 20
48.32681107344067
 30
0.0
 10
277.5152243715492
 20
48.75587838961415
 30
0.0
 10
277.5564924694419
 20
48.95163318534968
 30
0.0
  0
LINE
  5
214
330
1F
100
AcDbEntity
  8
0
  6
Continuous
 62
     7
370
    15
100
AcDbLine
 10
247.284037789
 20
24.7668374802
 30
0.0
 11
248.7395607631
 21
23.9265819526
 31
0.0
  0
LINE
  5
215
330
1F
100
AcDbEntity
  8
0
  6
Continuous
 62
     7
370
    15
100
AcDbLine
 10
243.5600034992
 20
26.9166767151
 30
0.0
 11
244.997847846
 21
26.0866268418
 31
0.0
  0
SPLINE
  5
216
330
1F
100
AcDbEntity
  8
0
  6
Continuous
 62
     7
370
    15
100
AcDbSpline
210
0.0
220
0.0
230
1.0
 70
     8
 71
     3
 72
     9
 73
     5
 74
     0
 42
0.000000001
 43
0.00000001
 40
0.0
 40
0.0
 40
0.0
 40
0.0
 40
0.5773234461785324
 40
1.0
 40
1.0
 40
1.0
 40
1.0
 10
239.1278764712158
 20
32.98193595994591
 30
0.0
 10
239.1661011586528
 20
32.84593579316078
 30
0.0
 10
239.2323113354437
 20
32.61036565014071
 30
0.0
 10
239.3193513817539
 20
32.39392078491681
 30
0.0
 10
239.3561411685727
 20
32.30243461519162
 30
0.0
  0
SPLINE
  5
217
330
1F
100
AcDbEntity
  8
0
  6
Continuous
 62
     7
370
    15
100
AcDbSpline
210
0.0
220
0.0
230
1.0
 70
     8
 71
     3
 72
     9
 73
     5
 74
     0
 42
0.000000001
 43
0.00000001
 40
0.0
 40
0.0
 40
0.0
 40
0.0
 40
0.4996423004972448
 40
1.0
 40
1.0
 40
1.0
 40
1.0
 10
277.5471648450308
 20
60.01379630542488
 30
0.0
 10
277.4948543002999
 20
60.19373986360905
 30
0.0
 10
277.3901583114319
 20
60.55388462718307
 30
0.0
 10
277.2534447871339
 20
60.88442621633609
 30
0.0
 10
277.1850391226251
 20
61.04981524547466
 30
0.0
  0
SPLINE
  5
218
330
1F
100
AcDbEntity
  8
0
  6
Continuous
 62
     7
370
    15
100
AcDbSpline
210
0.0
220
0.0
230
1.0
 70
     8
 71
     3
 72
    33
 73
    29
 74
     0
 42
0.000000001
 43
0.00000001
 40
0.0
 40
0.0
 40
0.0
 40
0.0
 40
0.0248727993263012
 40
0.063251916259983
 40
0.1022728584104158
 40
0.1421796282359817
 40
0.1829336151434865
 40
0.2242899295150008
 40
0.2659538127646046
 40
0.3076824034062278
 40
0.3493492022761797
 40
0.3909267683353101
 40
0.4324228767509466
 40
0.4738629833672966
 40
0.5152790180909584
 40
0.5567065280914287
 40
0.5981713725330603
 40
0.6397101752485648
 40
0.6813599448978224
 40
0.7231535693718201
 40
0.7621466855943548
 40
0.7844759332474452
 40
0.8265716334961772
 40
0.8686706776303393
 40
0.910411463602328
 40
0.9514160202749014
 40
0.9914068762610485
 40
0.9999999999999999
 40
0.9999999999999999
 40
0.9999999999999999
 40
0.9999999999999999
 10
223.5678520325065
 20
78.25113726826824
 30
0.0
 10
223.4109566811119
 20
78.30624896012124
 30
0.0
 10
223.0119693577391
 20
78.44639885126547
 30
0.0
 10
222.3147891192667
 20
78.52235117253818
 30
0.0
 10
221.4960799594585
 20
78.49718625934442
 30
0.0
 10
220.6426828125729
 20
78.33511412304584
 30
0.0
 10
219.7663035181203
 20
78.04267087717488
 30
0.0
 10
218.8785896332105
 20
77.6203214727896
 30
0.0
 10
217.9942238174245
 20
77.07491823075897
 30
0.0
 10
217.1274997065527
 20
76.41591938057796
 30
0.0
 10
216.2913101457811
 20
75.65477021745986
 30
0.0
 10
215.4969203094792
 20
74.80352659558874
 30
0.0
 10
214.7544261546759
 20
73.87465918483554
 30
0.0
 10
214.0732447524929
 20
72.88116387664495
 30
0.0
 10
213.4621293220197
 20
71.83653116360925
 30
0.0
 10
212.9292108602051
 20
70.75475104003554
 30
0.0
 10
212.4818248731966
 20
69.65009565237682
 30
0.0
 10
212.1265140540015
 20
68.53689144821499
 30
0.0
 10
211.8689870429943
 20
67.42926160889267
 30
0.0
 10
211.7179003484923
 20
66.36686220216056
 30
0.0
 10
211.6758264583126
 20
65.5014137516383
 30
0.0
 10
211.6999930072584
 20
64.6635791338488
 30
0.0
 10
211.7974079964158
 20
63.83589278111437
 30
0.0
 10
212.0279457093541
 20
62.92641300104744
 30
0.0
 10
212.370076858519
 20
62.10117345598591
 30
0.0
 10
212.827811707168
 20
61.3919541966046
 30
0.0
 10
213.2206340821371
 20
60.92275642905118
 30
0.0
 10
213.4830493698034
 20
60.73363822350262
 30
0.0
 10
213.5294631681515
 20
60.70018859358834
 30
0.0
  0
LWPOLYLINE
  5
219
330
1F
100
AcDbEntity
  8
0
  6
Continuous
 62
     7
370
    15
100
AcDbPolyline
 90
       27
 70
   128
 43
0.0
 10
267.7770380373
 20
51.4705099312
 10
268.4126625622
 20
51.3617616418
 10
268.984736225
 20
51.1683594552
 10
269.4600104306
 20
50.9015442278
 10
269.8108658223
 20
50.5768192779
 10
270.0169099109
 20
50.2130585081
 10
270.0661703572
 20
49.8314039131
 10
269.9557824925
 20
49.4540323095
 10
269.6921631747
 20
49.1028779653
 10
269.2906314661
 20
48.7983461067
 10
268.7745248668
 20
48.5581381929
 10
268.1738348109
 20
48.3962117726
 10
267.523473377
 20
48.3219775652
 10
266.8612357514
 20
48.3397512568
 10
266.2256112265
 20
48.4484995462
 10
265.6535388808
 20
48.6419009724
 10
265.1782633581
 20
48.9087169602
 10
264.8274079664
 20
49.2334419101
 10
264.6213651949
 20
49.5972019195
 10
264.5721060657
 20
49.9788587955
 10
264.6824912961
 20
50.3562288785
 10
264.9461132481
 20
50.7073847433
 10
265.3476423226
 20
51.0119150813
 10
265.8637515561
 20
51.2521245157
 10
266.4644416119
 20
51.4140509361
 10
267.1148017288
 20
51.4882828624
 10
267.7770380373
 20
51.4705099312
  0
LWPOLYLINE
  5
21A
330
1F
100
AcDbEntity
  8
0
  6
Continuous
 62
     7
370
    15
100
AcDbPolyline
 90
       22
 70
   128
 43
0.0
 10
269.4408033215
 20
50.9254100379
 10
269.603242544
 20
50.8237982932
 10
269.9902098823
 20
50.489445927
 10
270.2331851469
 20
50.1125890731
 10
270.3190580337
 20
49.7135424768
 10
270.2432068772
 20
49.3138184183
 10
270.0097186048
 20
48.934968715
 10
269.6311793191
 20
48.5974160807
 10
269.1279986315
 20
48.3193569556
 10
268.5273019901
 20
48.1157829499
 10
267.8614700286
 20
47.9976665199
 10
267.1664026422
 20
47.9713785488
 10
266.4795710135
 20
48.0383347883
 10
265.8379971975
 20
48.1949243871
 10
265.2762745372
 20
48.4327068185
 10
264.8246829092
 20
48.7388642825
 10
264.5075660698
 20
49.0968890526
 10
264.3420224684
 20
49.4874821965
 10
264.3369767004
 20
49.8895853567
 10
264.4927014031
 20
50.2815235408
 10
264.8007974999
 20
50.6421631177
 10
265.1974717843
 20
50.9254085172
  0
LWPOLYLINE
  5
21B
330
1F
100
AcDbEntity
  8
0
  6
Continuous
 62
     7
370
    15
100
AcDbPolyline
 90
       21
 70
   128
 43
0.0
 10
267.6105290097
 20
50.9012819107
 10
268.1294976434
 20
50.8005437959
 10
268.569143274
 20
50.6121583281
 10
268.8864273838
 20
50.3545629751
 10
269.050296965
 20
50.0529743899
 10
269.0447072392
 20
49.7369135064
 10
268.8702061155
 20
49.4373200515
 10
268.5438788725
 20
49.1835187917
 10
268.0976609677
 20
49.0003522928
 10
267.5752389266
 20
48.9057546782
 10
267.0277474132
 20
48.9089807979
 10
266.5087774624
 20
49.0097166317
 10
266.0691331489
 20
49.1981043805
 10
265.7518464049
 20
49.4556982129
 10
265.5879768237
 20
49.7572867981
 10
265.5935678666
 20
50.0733469212
 10
265.7680676732
 20
50.3729411364
 10
266.0943975504
 20
50.626743917
 10
266.5406141381
 20
50.8099081348
 10
267.0630374963
 20
50.9045080304
 10
267.6105290097
 20
50.9012819107
  0
SPLINE
  5
21C
330
1F
100
AcDbEntity
  8
0
  6
Continuous
 62
     7
370
    15
100
AcDbSpline
210
0.0
220
0.0
230
1.0
 70
     8
 71
     3
 72
    11
 73
     7
 74
     0
 42
0.000000001
 43
0.00000001
 40
0.0
 40
0.0
 40
0.0
 40
0.0
 40
0.1336651532723831
 40
0.4825482166646008
 40
0.8156354867628282
 40
0.9999999999999999
 40
0.9999999999999999
 40
0.9999999999999999
 40
0.9999999999999999
 10
266.7149651136644
 20
50.82756311258457
 30
0.0
 10
266.7865132060845
 20
50.79256145676483
 30
0.0
 10
267.0448109266036
 20
50.66620102412682
 30
0.0
 10
267.5273419966495
 20
50.52372971335599
 30
0.0
 10
268.0455739315787
 20
50.55279156148301
 30
0.0
 10
268.3237314597284
 20
50.63262685041873
 30
0.0
 10
268.4228370748448
 20
50.66107161504762
 30
0.0
  0
SPLINE
  5
21D
330
1F
100
AcDbEntity
  8
0
  6
Continuous
 62
     7
370
    15
100
AcDbSpline
210
0.0
220
0.0
230
1.0
 70
     8
 71
     3
 72
    10
 73
     6
 74
     0
 42
0.000000001
 43
0.00000001
 40
0.0
 40
0.0
 40
0.0
 40
0.0
 40
0.4391286131870673
 40
0.7513771844795208
 40
0.9999999999999999
 40
0.9999999999999999
 40
0.9999999999999999
 40
0.9999999999999999
 10
265.6112655917096
 20
50.05696531004669
 30
0.0
 10
265.769273540634
 20
50.08339731940706
 30
0.0
 10
266.0396352620589
 20
50.12862418046083
 30
0.0
 10
266.4326474301835
 20
50.46682890263752
 30
0.0
 10
266.6282558856848
 20
50.71676953966821
 30
0.0
 10
266.7149651136644
 20
50.82756311258457
 30
0.0
  0
SPLINE
  5
21E
330
1F
100
AcDbEntity
  8
0
  6
Continuous
 62
     7
370
    15
100
AcDbSpline
210
0.0
220
0.0
230
1.0
 70
     8
 71
     3
 72
    10
 73
     6
 74
     0
 42
0.000000001
 43
0.00000001
 40
0.0
 40
0.0
 40
0.0
 40
0.0
 40
0.3745338033299851
 40
0.7227428460880506
 40
0.9999999999999999
 40
0.9999999999999999
 40
0.9999999999999999
 40
0.9999999999999999
 10
266.1533175274973
 20
49.17242506443029
 30
0.0
 10
266.0870396847963
 20
49.21280593320108
 30
0.0
 10
265.9591424529832
 20
49.29072943106274
 30
0.0
 10
265.765734749946
 20
49.65484644537589
 30
0.0
 10
265.6587083427498
 20
49.93346088105296
 30
0.0
 10
265.6112655917096
 20
50.05696531004669
 30
0.0
  0
SPLINE
  5
21F
330
1F
100
AcDbEntity
  8
0
  6
Continuous
 62
     7
370
    15
100
AcDbSpline
210
0.0
220
0.0
230
1.0
 70
     8
 71
     3
 72
     9
 73
     5
 74
     0
 42
0.000000001
 43
0.00000001
 40
0.0
 40
0.0
 40
0.0
 40
0.0
 40
0.7583264616180793
 40
1.0
 40
1.0
 40
1.0
 40
1.0
 10
269.0270081969815
 20
49.72398307531209
 30
0.0
 10
268.8684783115754
 20
49.51865011668568
 30
0.0
 10
268.659426018889
 20
49.24787892641458
 30
0.0
 10
268.4382886842982
 20
49.13853477066984
 30
0.0
 10
268.3848456421793
 20
49.11210918164961
 30
0.0
  0
SPLINE
  5
220
330
1F
100
AcDbEntity
  8
0
  6
Continuous
 62
     7
370
    15
100
AcDbSpline
210
0.0
220
0.0
230
1.0
 70
     8
 71
     3
 72
    10
 73
     6
 74
     0
 42
0.000000001
 43
0.00000001
 40
0.0
 40
0.0
 40
0.0
 40
0.0
 40
0.4391282495944155
 40
0.7513754995806855
 40
0.9999999999999999
 40
0.9999999999999999
 40
0.9999999999999999
 40
0.9999999999999999
 10
268.4228370748448
 20
50.66107161504762
 30
0.0
 10
268.509330633734
 20
50.44302769499558
 30
0.0
 10
268.6573264437982
 20
50.06994110921805
 30
0.0
 10
268.8724668352948
 20
49.80006651077991
 30
0.0
 10
268.9795431607885
 20
49.74735094899167
 30
0.0
 10
269.0270081969815
 20
49.72398307531208
 30
0.0
  0
LINE
  5
221
330
1F
100
AcDbEntity
  8
0
  6
Continuous
 62
     7
370
    15
100
AcDbLine
 10
268.4228370748
 20
49.1211350208
 30
0.0
 11
268.4228370748
 21
50.661071615
 31
0.0
  0
LINE
  5
222
330
1F
100
AcDbEntity
  8
0
  6
Continuous
 62
     7
370
    15
100
AcDbLine
 10
266.7149651137
 20
48.9569939834
 30
0.0
 11
266.7149651137
 21
50.8275631126
 31
0.0
  0
SPLINE
  5
223
330
1F
100
AcDbEntity
  8
0
  6
Continuous
 62
     7
370
    15
100
AcDbSpline
210
0.0
220
0.0
230
1.0
 70
     8
 71
     3
 72
    12
 73
     8
 74
     0
 42
0.000000001
 43
0.00000001
 40
0.0
 40
0.0
 40
0.0
 40
0.0
 40
0.142692020981203
 40
0.2847587857105273
 40
0.4820441500217294
 40
0.7519515883035046
 40
1.0
 40
1.0
 40
1.0
 40
1.0
 10
244.398535465222
 20
41.12321192741103
 30
0.0
 10
244.4187199343186
 20
41.11063791867518
 30
0.0
 10
244.4590004270235
 20
41.08554499873114
 30
0.0
 10
244.5323984226691
 20
41.02824236254207
 30
0.0
 10
244.6169117052716
 20
40.95265304546475
 30
0.0
 10
244.699530014416
 20
40.86611752996673
 30
0.0
 10
244.7385652303754
 20
40.81376966482294
 30
0.0
 10
244.7572591466993
 20
40.78870033737898
 30
0.0
  0
ARC
  5
224
330
1F
100
AcDbEntity
  8
0
  6
Continuous
 62
     7
370
    15
100
AcDbCircle
 10
268.5432928579
 20
57.0533651249
 30
0.0
 40
10.21688682927268
100
AcDbArc
 50
73.3341525064
 51
100.4966920742
  0
SPLINE
  5
225
330
1F
100
AcDbEntity
  8
0
  6
Continuous
 62
     7
370
    15
100
AcDbSpline
210
0.0
220
0.0
230
1.0
 70
     8
 71
     3
 72
    12
 73
     8
 74
     0
 42
0.000000001
 43
0.00000001
 40
0.0
 40
0.0
 40
0.0
 40
0.0
 40
0.1485208619646011
 40
0.4532481838959425
 40
0.6602245763152709
 40
0.8316809730591648
 40
1.0
 40
1.0
 40
1.0
 40
1.0
 10
271.6855207655714
 20
66.40751563445886
 30
0.0
 10
271.6846045985488
 20
66.42963949279336
 30
0.0
 10
271.6818086880374
 20
66.49715592434538
 30
0.0
 10
271.6526998356559
 20
66.60733496778661
 30
0.0
 10
271.5974386264854
 20
66.71672416751403
 30
0.0
 10
271.5377144184601
 20
66.79551555145257
 30
0.0
 10
271.4946984690229
 20
66.82598392814504
 30
0.0
 10
271.4733890915709
 20
66.84107744921766
 30
0.0
  0
ARC
  5
226
330
1F
100
AcDbEntity
  8
0
  6
Continuous
 62
     7
370
    15
100
AcDbCircle
 10
282.2279906217
 20
32.6254452012
 30
0.0
 40
38.35084763321485
100
AcDbArc
 50
126.2443606703
 51
166.8190588754
  0
LWPOLYLINE
  5
227
330
1F
100
AcDbEntity
  8
0
  6
Continuous
 62
     7
370
    15
100
AcDbPolyline
 90
       12
 70
   128
 43
0.0
 10
254.4094946337
 20
61.9652051246
 10
255.8598519847
 20
63.2378090056
 10
257.337483615
 20
64.3789582329
 10
258.8312074389
 20
65.3800165183
 10
260.3297254668
 20
66.2334122324
 10
261.8216922939
 20
66.9326840261
 10
263.2958204675
 20
67.4725418479
 10
264.7409568776
 20
67.8489017278
 10
266.1461644171
 20
68.0589146672
 10
267.5008089092
 20
68.1009907757
 10
268.7946381332
 20
67.9748110979
 10
270.0178661175
 20
67.6813329768
  0
LINE
  5
228
330
1F
100
AcDbEntity
  8
0
  6
Continuous
 62
     7
370
    15
100
AcDbLine
 10
271.4733890916
 20
66.8410774492
 30
0.0
 11
270.0178661175
 21
67.6813329768
 31
0.0
  0
LINE
  5
229
330
1F
100
AcDbEntity
  8
0
  6
Continuous
 62
     7
370
    15
100
AcDbLine
 10
242.9430124911
 20
41.963467455
 30
0.0
 11
244.3985354652
 21
41.1232119274
 31
0.0
  0
ARC
  5
22A
330
1F
100
AcDbEntity
  8
0
  6
Continuous
 62
     7
370
    15
100
AcDbCircle
 10
282.2757244238
 20
32.7323745205
 30
0.0
 40
40.40142701365798
100
AcDbArc
 50
136.9528105797
 51
166.7921457381
  0
SPLINE
  5
22B
330
1F
100
AcDbEntity
  8
0
  6
Continuous
 62
     7
370
    15
100
AcDbSpline
210
0.0
220
0.0
230
1.0
 70
     8
 71
     3
 72
    16
 73
    12
 74
     0
 42
0.000000001
 43
0.00000001
 40
0.0
 40
0.0
 40
0.0
 40
0.0
 40
0.1110767742980187
 40
0.2221490358361159
 40
0.3333165692634383
 40
0.444515828170624
 40
0.5556012648063821
 40
0.6666014793787196
 40
0.7776797781152691
 40
0.8888770729167649
 40
1.0
 40
1.0
 40
1.0
 40
1.0
 10
252.7506947751069
 20
60.31040797078644
 30
0.0
 10
252.8632305586828
 20
60.26824077768199
 30
0.0
 10
253.088297553799
 20
60.18390810461626
 30
0.0
 10
253.4976899216959
 20
60.19853824279717
 30
0.0
 10
253.9044059523496
 20
60.31631763743943
 30
0.0
 10
254.2713572316678
 20
60.53104957691544
 30
0.0
 10
254.5552186113408
 20
60.81430626625725
 30
0.0
 10
254.7253499650323
 20
61.1352484576741
 30
0.0
 10
254.7596688986222
 20
61.4571433389467
 30
0.0
 10
254.6624578328939
 20
61.75396759065751
 30
0.0
 10
254.4937968940179
 20
61.89480831738887
 30
0.0
 10
254.4094946337304
 20
61.96520512463493
 30
0.0
  0
LINE
  5
22C
330
1F
100
AcDbEntity
  8
0
  6
Continuous
 62
     7
370
    15
100
AcDbLine
 10
277.3954203853
 20
59.5382123861
 30
0.0
 11
277.4997022253
 21
59.7188338307
 31
0.0
  0
LINE
  5
22D
330
1F
100
AcDbEntity
  8
0
  6
Continuous
 62
     7
370
    15
100
AcDbLine
 10
275.0973107867
 20
58.2115419538
 30
0.0
 11
277.3954203853
 21
59.5382123861
 31
0.0
  0
ARC
  5
22E
330
1F
100
AcDbEntity
  8
0
  6
Continuous
 62
     7
370
    15
100
AcDbCircle
 10
275.925417148
 20
56.9169394159
 30
0.0
 40
1.536800532586032
100
AcDbArc
 50
122.6054493378
 51
177.3946121357
  0
LINE
  5
22F
330
1F
100
AcDbEntity
  8
0
  6
Continuous
 62
     7
370
    15
100
AcDbLine
 10
274.3902052067
 20
49.3734393801
 30
0.0
 11
274.3902052067
 21
56.9867976456
 31
0.0
  0
LINE
  5
230
330
1F
100
AcDbEntity
  8
0
  6
Continuous
 62
     7
370
    15
100
AcDbLine
 10
277.3954203853
 20
49.0456625263
 30
0.0
 11
276.176704748
 21
48.3421129644
 31
0.0
  0
LINE
  5
231
330
1F
100
AcDbEntity
  8
0
  6
Continuous
 62
     7
370
    15
100
AcDbLine
 10
277.4997022253
 20
48.9854423314
 30
0.0
 11
277.3954203853
 21
49.0456625263
 31
0.0
  0
LINE
  5
232
330
1F
100
AcDbEntity
  8
0
  6
Continuous
 62
     7
370
    15
100
AcDbLine
 10
244.8027672064
 20
30.2303243419
 30
0.0
 11
244.7572591467
 21
30.1119564793
 31
0.0
  0
LINE
  5
233
330
1F
100
AcDbEntity
  8
0
  6
Continuous
 62
     7
370
    15
100
AcDbLine
 10
244.8027672064
 20
30.2303243419
 30
0.0
 11
247.9444090994
 21
32.0439556025
 31
0.0
  0
ARC
  5
234
330
1F
100
AcDbEntity
  8
0
  6
Continuous
 62
     7
370
    15
100
AcDbCircle
 10
247.1162983509
 20
33.3385638887
 30
0.0
 40
1.536807738952981
100
AcDbArc
 50
302.6054716486
 51
357.3944665867
  0
LINE
  5
235
330
1F
100
AcDbEntity
  8
0
  6
Continuous
 62
     7
370
    15
100
AcDbLine
 10
248.6515173136
 20
42.1281693997
 30
0.0
 11
248.6515173136
 21
33.2687014314
 31
0.0
  0
ARC
  5
236
330
1F
100
AcDbEntity
  8
0
  6
Continuous
 62
     7
370
    15
100
AcDbCircle
 10
248.2204429207
 20
42.1980969466
 30
0.0
 40
0.4367092785950082
100
AcDbArc
 50
350.7859182247
 51
129.2035148577
  0
LINE
  5
237
330
1F
100
AcDbEntity
  8
0
  6
Continuous
 62
     7
370
    15
100
AcDbLine
 10
247.9444090994
 20
42.5365054623
 30
0.0
 11
244.8027672064
 21
40.7228742017
 31
0.0
  0
LINE
  5
238
330
1F
100
AcDbEntity
  8
0
  6
Continuous
 62
     7
370
    15
100
AcDbLine
 10
244.7572591467
 20
40.7887003374
 30
0.0
 11
244.8027672064
 21
40.7228742017
 31
0.0
  0
LINE
  5
239
330
1F
100
AcDbEntity
  8
0
  6
Continuous
 62
     7
370
    15
100
AcDbLine
 10
271.6855207656
 20
63.1825547766
 30
0.0
 11
271.6855207656
 21
66.4075156345
 31
0.0
  0
LINE
  5
23A
330
1F
100
AcDbEntity
  8
0
  6
Continuous
 62
     7
370
    15
100
AcDbLine
 10
274.4782684125
 20
64.7947736762
 30
0.0
 11
271.6855207656
 21
63.1825547766
 31
0.0
  0
LINE
  5
23B
330
1F
100
AcDbEntity
  8
0
  6
Continuous
 62
     7
370
    15
100
AcDbLine
 10
241.8704561975
 20
43.0549789333
 30
0.0
 11
241.0091227865
 21
42.9128985093
 31
0.0
  0
LINE
  5
23C
330
1F
100
AcDbEntity
  8
0
  6
Continuous
 62
     7
370
    15
100
AcDbLine
 10
240.6568225481
 20
43.2832568166
 30
0.0
 11
241.0091227865
 21
42.9128985093
 31
0.0
  0
LWPOLYLINE
  5
23D
330
1F
100
AcDbEntity
  8
0
  6
Continuous
 62
     7
370
    15
100
AcDbPolyline
 90
       25
 70
   128
 43
0.0
 10
240.6568225481
 20
43.2832568166
 10
241.1055547759
 20
45.0666743365
 10
241.6595750995
 20
46.8639763944
 10
242.3152483535
 20
48.6633856624
 10
243.0682808275
 20
50.4531157487
 10
243.9137360719
 20
52.2214415393
 10
244.8460823128
 20
53.956782844
 10
245.8592082574
 20
55.6477701754
 10
246.9464810451
 20
57.2833288218
 10
248.1007725903
 20
58.8527417259
 10
249.3145228021
 20
60.3457291366
 10
250.5797869995
 20
61.7525145758
 10
251.88827279
 20
63.0638805853
 10
253.2314085583
 20
64.2712369251
 10
254.6003961499
 20
65.3666748463
 10
255.9862714568
 20
66.3430202226
 10
257.3799518332
 20
67.1938755617
 10
258.7723098523
 20
67.9136682873
 10
260.1542259896
 20
68.4976836249
 10
261.5166465753
 20
68.9420955846
 10
262.8506496484
 20
69.2439943319
 10
264.147492372
 20
69.4013996813
 10
265.3986847904
 20
69.4132836182
 10
266.5960267072
 20
69.27956559
 10
267.7316761745
 20
69.0011223384
  0
LINE
  5
23E
330
1F
100
AcDbEntity
  8
0
  6
Continuous
 62
     7
370
    15
100
AcDbLine
 10
268.0331980214
 20
68.0523678503
 30
0.0
 11
267.7316761745
 21
69.0011223384
 31
0.0
  0
LWPOLYLINE
  5
23F
330
1F
100
AcDbEntity
  8
0
  6
Continuous
 62
     7
370
    15
100
AcDbPolyline
 90
       24
 70
   128
 43
0.0
 10
241.8704561975
 20
43.0549789333
 10
242.3005911284
 20
44.7930031264
 10
242.8360194235
 20
46.5455917109
 10
243.4730743071
 20
48.3007221124
 10
244.2073725069
 20
50.0463452078
 10
245.0338880113
 20
51.7704902617
 10
245.9469415323
 20
53.4613217727
 10
246.9402689948
 20
55.1072385164
 10
248.0070531458
 20
56.696945597
 10
249.1399815072
 20
58.2195395952
 10
250.331272717
 20
59.6645684005
 10
251.5727555551
 20
61.0221184279
 10
252.8559110897
 20
62.2828743966
 10
254.1719306294
 20
63.4381832081
 10
255.5117921144
 20
64.4801218758
 10
256.866294361
 20
65.4015368282
 10
258.2261466231
 20
66.1961073992
 10
259.5820186422
 20
66.8583819452
 10
260.9246065016
 20
67.3838160526
 10
262.2446958463
 20
67.7688031403
 10
263.5332277382
 20
68.0107009743
 10
264.78136451
 20
68.1078520996
 10
265.9805398147
 20
68.059588576
 10
266.0614881057
 20
68.0508732169
  0
LINE
  5
240
330
1F
100
AcDbEntity
  8
0
  6
Continuous
 62
     7
370
    15
100
AcDbLine
 10
239.2189782014
 20
44.1133066899
 30
0.0
 11
240.6568225481
 21
43.2832568166
 31
0.0
  0
ARC
  5
241
330
1F
100
AcDbEntity
  8
0
  6
Continuous
 62
     7
370
    15
100
AcDbCircle
 10
263.36374915
 20
60.0435363423
 30
0.0
 40
10.21680969822623
100
AcDbArc
 50
73.3341023711
 51
100.4952720297
  0
LINE
  5
242
330
1F
100
AcDbEntity
  8
0
  6
Continuous
 62
     7
370
    15
100
AcDbLine
 10
267.7316761745
 20
69.0011223384
 30
0.0
 11
266.2938318277
 21
69.8311722117
 31
0.0
  0
LINE
  5
243
330
1F
100
AcDbEntity
  8
0
  6
Continuous
 62
     7
370
    15
100
AcDbLine
 10
243.1230467058
 20
42.7286371219
 30
0.0
 11
242.4969434174
 21
43.0900788568
 31
0.0
  0
SPLINE
  5
244
330
1F
100
AcDbEntity
  8
0
  6
Continuous
 62
     7
370
    15
100
AcDbSpline
210
0.0
220
0.0
230
1.0
 70
     8
 71
     3
 72
    11
 73
     7
 74
     0
 42
0.000000001
 43
0.00000001
 40
0.0
 40
0.0
 40
0.0
 40
0.0
 40
0.3165720417906488
 40
0.6331519533323589
 40
0.9494397417868785
 40
1.0
 40
1.0
 40
1.0
 40
1.0
 10
253.7174703815064
 20
61.07272665025085
 30
0.0
 10
253.5838792408409
 20
61.0255473021882
 30
0.0
 10
253.3166936385311
 20
60.93118743321857
 30
0.0
 10
253.0007424025307
 20
60.67137236635654
 30
0.0
 10
252.8200424610874
 20
60.44818120150698
 30
0.0
 10
252.7851061278641
 20
60.31943216346613
 30
0.0
 10
252.7802910823847
 20
60.30168752868569
 30
0.0
  0
SPLINE
  5
245
330
1F
100
AcDbEntity
  8
0
  6
Continuous
 62
     7
370
    15
100
AcDbSpline
210
0.0
220
0.0
230
1.0
 70
     8
 71
     3
 72
    13
 73
     9
 74
     0
 42
0.000000001
 43
0.00000001
 40
0.0
 40
0.0
 40
0.0
 40
0.0
 40
0.0749682050554089
 40
0.2768314787418593
 40
0.3902857192565198
 40
0.6074057262216175
 40
0.8242722965485059
 40
1.0
 40
1.0
 40
1.0
 40
1.0
 10
242.4969434173953
 20
43.09007885678573
 30
0.0
 10
242.4852215137779
 20
43.09635016361825
 30
0.0
 10
242.4419366050665
 20
43.11950791619896
 30
0.0
 10
242.3663171386861
 20
43.1422738794449
 30
0.0
 10
242.2556513484163
 20
43.1576214403919
 30
0.0
 10
242.1369179045442
 20
43.15534515933741
 30
0.0
 10
242.0118577488189
 20
43.12904219486724
 30
0.0
 10
241.9480424056989
 20
43.09742902077284
 30
0.0
 10
241.9194782506909
 20
43.08327876221469
 30
0.0
  0
LINE
  5
246
330
1F
100
AcDbEntity
  8
0
  6
Continuous
 62
     7
370
    15
100
AcDbLine
 10
241.9194782507
 20
43.0832787622
 30
0.0
 11
241.8704561975
 21
43.0549789333
 31
0.0
  0
SPLINE
  5
247
330
1F
100
AcDbEntity
  8
0
  6
Continuous
 62
     7
370
    15
100
AcDbSpline
210
0.0
220
0.0
230
1.0
 70
     8
 71
     3
 72
    10
 73
     6
 74
     0
 42
0.000000001
 43
0.00000001
 40
0.0
 40
0.0
 40
0.0
 40
0.0
 40
0.4230135748590275
 40
0.8493046200449914
 40
0.9999999999999999
 40
0.9999999999999999
 40
0.9999999999999999
 40
0.9999999999999999
 10
239.116963730174
 20
44.14275375526695
 30
0.0
 10
239.1249563326978
 20
44.14486230794042
 30
0.0
 10
239.1410034636955
 20
44.14909575015982
 30
0.0
 10
239.18201402215
 20
44.13385931265357
 30
0.0
 10
239.2113233019367
 20
44.11756292560969
 30
0.0
 10
239.2189782013611
 20
44.11330668988133
 30
0.0
  0
LWPOLYLINE
  5
248
330
1F
100
AcDbEntity
  8
0
  6
Continuous
 62
     7
370
    15
100
AcDbPolyline
 90
       51
 70
   128
 43
0.0
 10
264.4730306787
 20
34.5654683358
 10
264.5304610281
 20
35.6527210773
 10
264.7018459192
 20
36.7891346566
 10
264.9844826853
 20
37.956786738
 10
265.3739142972
 20
39.1372638911
 10
265.8640031201
 20
40.3119513208
 10
266.4470099388
 20
41.4623172727
 10
267.1137467405
 20
42.5702232874
 10
267.8536978864
 20
43.6181964355
 10
268.6551992361
 20
44.5897137132
 10
269.5056014669
 20
45.4694468965
 10
270.3914966125
 20
46.2435256399
 10
271.2989182609
 20
46.8997435432
 10
272.2135496546
 20
47.4277490079
 10
273.1209686689
 20
47.8192163186
 10
274.0068664486
 20
48.0679718593
 10
274.8572686794
 20
48.1700921923
 10
275.658767395
 20
48.1239671548
 10
276.3987185408
 20
47.9303234148
 10
277.0654579767
 20
47.5922168463
 10
277.6484647954
 20
47.1149762395
 10
278.1385509841
 20
46.5061317997
 10
278.5279799618
 20
45.7752812943
 10
278.8106167279
 20
44.9339546771
 10
278.982001619
 20
43.9954178811
 10
279.0394319685
 20
42.9744728097
 10
278.982001619
 20
41.8872200682
 10
278.8106167279
 20
40.7508064889
 10
278.5279799618
 20
39.5831544075
 10
278.1385509841
 20
38.4026787751
 10
277.6484647954
 20
37.2279936265
 10
277.0654579767
 20
36.0776276746
 10
276.3987185408
 20
34.9697201392
 10
275.658767395
 20
33.9217454702
 10
274.8572686794
 20
32.9502304736
 10
274.0068664486
 20
32.0704972903
 10
273.1209686689
 20
31.2964170262
 10
272.2135496546
 20
30.6401998832
 10
271.2989182609
 20
30.1121944185
 10
270.3914966125
 20
29.7207263476
 10
269.5056014669
 20
29.4719723275
 10
268.6551992361
 20
29.3698519946
 10
267.8536978864
 20
29.4159747509
 10
267.1137467405
 20
29.6096200118
 10
266.4470099388
 20
29.947728101
 10
265.8640031201
 20
30.4249687078
 10
265.3739142972
 20
31.0338108665
 10
264.9844826853
 20
31.7646598512
 10
264.7018459192
 20
32.6059864684
 10
264.5304610281
 20
33.5445232644
 10
264.4730306787
 20
34.5654683358
  0
LWPOLYLINE
  5
249
330
1F
100
AcDbEntity
  8
0
  6
Continuous
 62
     7
370
    15
100
AcDbPolyline
 90
       27
 70
   128
 43
0.0
 10
264.1901910808
 20
34.5654698565
 10
264.2464676603
 20
35.6515622398
 10
264.4144386567
 20
36.786163196
 10
264.691559454
 20
37.9520743349
 10
265.0736311725
 20
39.1316213721
 10
265.5548586204
 20
40.3069225664
 10
266.127950393
 20
41.4601647587
 10
266.7842189712
 20
42.5738642016
 10
267.5137124303
 20
43.6311365107
 10
268.305372491
 20
44.6159559683
 10
269.1472031064
 20
45.513395053
 10
270.0264390499
 20
46.3098472395
 10
270.9297540148
 20
46.99324143
 10
271.8434529095
 20
47.5532160816
 10
272.7536878601
 20
47.9812842071
 10
273.6466557736
 20
48.2709542693
 10
274.5088248777
 20
48.4178381463
 10
275.3271217466
 20
48.419706627
 10
276.0891446702
 20
48.2765327381
 10
276.7833427778
 20
47.9904879244
 10
277.3991898941
 20
47.5659055309
 10
277.9273531262
 20
47.009224512
 10
278.3598219388
 20
46.3288814342
 10
278.690045131
 20
45.5351903101
 10
278.9130151305
 20
44.6401851743
 10
279.0253522869
 20
43.6574299599
 10
279.0394319685
 20
43.1377541547
  0
LWPOLYLINE
  5
24A
330
1F
100
AcDbEntity
  8
0
  6
Continuous
 62
     7
370
    15
100
AcDbPolyline
 90
       14
 70
   128
 43
0.0
 10
271.6160179782
 20
30.2786308276
 10
270.9297540148
 20
29.9190327766
 10
270.0264390499
 20
29.5594809479
 10
269.1472031064
 20
29.340788922
 10
268.305372491
 20
29.2662710667
 10
267.5137124303
 20
29.337059274
 10
266.7842189712
 20
29.5520771236
 10
266.127950393
 20
29.908064234
 10
265.5548586204
 20
30.3996279895
 10
265.0736311725
 20
31.0193165594
 10
264.691559454
 20
31.7577345011
 10
264.4144386567
 20
32.6036872569
 10
264.2464676603
 20
33.5443530287
 10
264.1901910808
 20
34.5654698565
  0
SPLINE
  5
24B
330
1F
100
AcDbEntity
  8
0
  6
Continuous
 62
     7
370
    15
100
AcDbSpline
210
0.0
220
0.0
230
1.0
 70
     8
 71
     3
 72
    18
 73
    14
 74
     0
 42
0.000000001
 43
0.00000001
 40
0.0
 40
0.0
 40
0.0
 40
0.0
 40
0.0407455722367475
 40
0.1227777736167943
 40
0.2093919788020473
 40
0.3085051354300755
 40
0.4222998280196062
 40
0.5450961496101829
 40
0.6696601686364961
 40
0.793557809439779
 40
0.8900984687015763
 40
0.9871245583392738
 40
1.0
 40
1.0
 40
1.0
 40
1.0
 10
269.9707880877067
 20
48.37436494331718
 30
0.0
 10
269.8599465299467
 20
48.3147866445928
 30
0.0
 10
269.5259500012707
 20
48.13526061337761
 30
0.0
 10
268.8214259283884
 20
47.88427076564389
 30
0.0
 10
267.8499455237022
 20
47.68520770487881
 30
0.0
 10
266.7587436433082
 20
47.63928157307304
 30
0.0
 10
265.6318633334085
 20
47.83357299558938
 30
0.0
 10
264.6388417114109
 20
48.34388899996956
 30
0.0
 10
263.9656301982702
 20
49.13917206696901
 30
0.0
 10
263.7497456799971
 20
50.02339266931337
 30
0.0
 10
263.9590603837148
 20
50.81849509811102
 30
0.0
 10
264.3545787924807
 20
51.24774932295453
 30
0.0
 10
264.6346727899109
 20
51.41616487142546
 30
0.0
 10
264.6674870180734
 20
51.43589548430663
 30
0.0
  0
SPLINE
  5
24C
330
1F
100
AcDbEntity
  8
0
  6
Continuous
 62
     7
370
    15
100
AcDbSpline
210
0.0
220
0.0
230
1.0
 70
     8
 71
     3
 72
    13
 73
     9
 74
     0
 42
0.000000001
 43
0.00000001
 40
0.0
 40
0.0
 40
0.0
 40
0.0
 40
0.1887899187968037
 40
0.4040273190995183
 40
0.6405878699474911
 40
0.6719737661016111
 40
0.982512926529049
 40
1.0
 40
1.0
 40
1.0
 40
1.0
 10
264.6674870180734
 20
51.43589548430663
 30
0.0
 10
264.871914042977
 20
51.53034209050765
 30
0.0
 10
265.3094061683497
 20
51.73246627883635
 30
0.0
 10
266.1775055913758
 20
51.81675556903659
 30
0.0
 10
266.8578595316681
 20
51.7536528776399
 30
0.0
 10
267.6555016001057
 20
51.6050883499982
 30
0.0
 10
268.1794772743118
 20
51.47812579615449
 30
0.0
 10
268.552022442013
 20
51.30312044600512
 30
0.0
 10
268.5718828191585
 20
51.29379091348725
 30
0.0
  0
SPLINE
  5
24D
330
1F
100
AcDbEntity
  8
0
  6
Continuous
 62
     7
370
    15
100
AcDbSpline
210
0.0
220
0.0
230
1.0
 70
     8
 71
     3
 72
    12
 73
     8
 74
     0
 42
0.000000001
 43
0.00000001
 40
0.0
 40
0.0
 40
0.0
 40
0.0
 40
0.209036978484612
 40
0.468943261392629
 40
0.720410667891064
 40
0.902124540978606
 40
1.0
 40
1.0
 40
1.0
 40
1.0
 10
269.7394572071206
 20
50.71099018582857
 30
0.0
 10
269.9760771336571
 20
50.55613673344084
 30
0.0
 10
270.5068986221083
 20
50.20874612567827
 30
0.0
 10
270.8650969396024
 20
49.64043373928888
 30
0.0
 10
270.7982954701581
 20
49.08210905382604
 30
0.0
 10
270.4132096801005
 20
48.65230756995862
 30
0.0
 10
270.0855066454478
 20
48.44643461127927
 30
0.0
 10
269.9707880877067
 20
48.37436494331718
 30
0.0
  0
ARC
  5
24E
330
1F
100
AcDbEntity
  8
0
  6
Continuous
 62
     7
370
    15
100
AcDbCircle
 10
267.1534561681
 20
32.2002811373
 30
0.0
 40
1.018667955067641
100
AcDbArc
 50
187.5911865096
 51
255.9547022813
  0
LWPOLYLINE
  5
24F
330
1F
100
AcDbEntity
  8
0
  6
Continuous
 62
     7
370
    15
100
AcDbPolyline
 90
       14
 70
   128
 43
0.0
 10
276.6062311837
 20
36.8117547198
 10
276.0155062233
 20
35.7685158996
 10
275.3491935243
 20
34.7785439512
 10
274.6191152777
 20
33.8594059788
 10
273.8382316394
 20
33.0274187791
 10
273.0203983858
 20
32.2973416367
 10
272.1801298379
 20
31.6821360402
 10
271.3323380776
 20
31.1927162745
 10
270.4920695297
 20
30.837768456
 10
269.674233642
 20
30.6235939021
 10
268.8933500036
 20
30.5539920438
 10
268.163271757
 20
30.6301996149
 10
267.4969616922
 20
30.850864817
 10
266.9062367318
 20
31.2120671154
  0
ARC
  5
250
330
1F
100
AcDbEntity
  8
0
  6
Continuous
 62
     7
370
    15
100
AcDbCircle
 10
273.2143123175
 20
39.3379777354
 30
0.0
 40
4.229292650020448
100
AcDbArc
 50
323.3221082883
 51
349.2041048286
  0
LWPOLYLINE
  5
251
330
1F
100
AcDbEntity
  8
0
  6
Continuous
 62
     7
370
    15
100
AcDbPolyline
 90
        9
 70
   128
 43
0.0
 10
277.3687493328
 20
45.4742323148
 10
277.693764755
 20
44.8424495521
 10
277.9294762737
 20
44.1193336899
 10
278.0723356509
 20
43.3157573989
 10
278.1201933974
 20
42.4438076781
 10
278.0723356509
 20
41.5166025794
 10
277.9294762737
 20
40.5480843624
 10
277.693764755
 20
39.5528217735
 10
277.3687493328
 20
38.5457849522
  0
ARC
  5
252
330
1F
100
AcDbEntity
  8
0
  6
Continuous
 62
     7
370
    15
100
AcDbCircle
 10
276.35900689
 20
45.3396619463
 30
0.0
 40
1.018670204158128
100
AcDbArc
 50
7.5911891132
 51
75.9544522982
  0
LWPOLYLINE
  5
253
330
1F
100
AcDbEntity
  8
0
  6
Continuous
 62
     7
370
    15
100
AcDbPolyline
 90
       14
 70
   128
 43
0.0
 10
266.9062367318
 20
40.7281894671
 10
267.4969616922
 20
41.7714290477
 10
268.163271757
 20
42.761398715
 10
268.8933500036
 20
43.6805359269
 10
269.674233642
 20
44.5125246475
 10
270.4920695297
 20
45.2426017896
 10
271.3323380776
 20
45.8578089071
 10
272.1801298379
 20
46.3472286728
 10
273.0203983858
 20
46.7021749703
 10
273.8382316394
 20
46.9163495245
 10
274.6191152777
 20
46.9859498619
 10
275.3491935243
 20
46.9097430512
 10
276.0155062233
 20
46.6890801303
 10
276.6062311837
 20
46.3278770714
  0
ARC
  5
254
330
1F
100
AcDbEntity
  8
0
  6
Continuous
 62
     7
370
    15
100
AcDbCircle
 10
270.2981466769
 20
38.2019644107
 30
0.0
 40
4.229286714173065
100
AcDbArc
 50
143.3220139247
 51
169.2040718341
  0
LWPOLYLINE
  5
255
330
1F
100
AcDbEntity
  8
0
  6
Continuous
 62
     7
370
    15
100
AcDbPolyline
 90
        9
 70
   128
 43
0.0
 10
266.1437159486
 20
32.0657111118
 10
265.8187005263
 20
32.697493114
 10
265.5829890076
 20
33.4206089763
 10
265.4401322646
 20
34.2241867879
 10
265.3922745181
 20
35.0961365087
 10
265.4401322646
 20
36.0233416074
 10
265.5829890076
 20
36.9918583037
 10
265.8187005263
 20
37.9871208926
 10
266.1437159486
 20
38.9941584744
  0
SPLINE
  5
256
330
1F
100
AcDbEntity
  8
0
  6
Continuous
 62
     7
370
    15
100
AcDbSpline
210
0.0
220
0.0
230
1.0
 70
     8
 71
     3
 72
    13
 73
     9
 74
     0
 42
0.000000001
 43
0.00000001
 40
0.0
 40
0.0
 40
0.0
 40
0.0
 40
0.0505668747759441
 40
0.2126516391430378
 40
0.3722446963407748
 40
0.5361697904311924
 40
0.7169619299433152
 40
1.0
 40
1.0
 40
1.0
 40
1.0
 10
254.1345509845586
 20
61.37917890730792
 30
0.0
 10
254.1371703067127
 20
61.37141326253302
 30
0.0
 10
254.1481854851667
 20
61.3387559726035
 30
0.0
 10
254.1451780167982
 20
61.2835735648786
 30
0.0
 10
254.1028438699206
 20
61.22229901156641
 30
0.0
 10
254.0236116290922
 20
61.17116829632464
 30
0.0
 10
253.8944772710173
 20
61.12102511540471
 30
0.0
 10
253.7845500657835
 20
61.09103015133234
 30
0.0
 10
253.7174703815064
 20
61.07272665025085
 30
0.0
  0
LINE
  5
257
330
1F
100
AcDbEntity
  8
0
  6
Continuous
 62
     7
370
    15
100
AcDbLine
 10
254.1184245466
 20
61.4210353475
 30
0.0
 11
254.1345509846
 21
61.3791789073
 31
0.0
  0
LINE
  5
258
330
1F
100
AcDbEntity
  8
0
  6
Continuous
 62
     7
370
    15
100
AcDbLine
 10
254.4094946337
 20
61.9652051246
 30
0.0
 11
254.1184245466
 21
61.4210353475
 31
0.0
  0
SPLINE
  5
259
330
1F
100
AcDbEntity
  8
0
  6
Continuous
 62
     7
370
    15
100
AcDbSpline
210
0.0
220
0.0
230
1.0
 70
     8
 71
     3
 72
     9
 73
     5
 74
     0
 42
0.000000001
 43
0.00000001
 40
0.0
 40
0.0
 40
0.0
 40
0.0
 40
0.5592970175802489
 40
0.9999999999999999
 40
0.9999999999999999
 40
0.9999999999999999
 40
0.9999999999999999
 10
275.5280436759534
 20
46.28881821410975
 30
0.0
 10
275.7482013059694
 20
46.33206914458943
 30
0.0
 10
276.1418340683405
 20
46.40940002446218
 30
0.0
 10
276.464174704124
 20
46.35281448668339
 30
0.0
 10
276.606231183669
 20
46.32787707142245
 30
0.0
  0
LWPOLYLINE
  5
25A
330
1F
100
AcDbEntity
  8
0
  6
Continuous
 62
     7
370
    15
100
AcDbPolyline
 90
       11
 70
   128
 43
0.0
 10
267.5955115607
 20
41.7094648983
 10
268.2824525079
 20
42.7179818406
 10
269.0391939046
 20
43.6448618651
 10
269.8496224837
 20
44.4703739928
 10
270.6964922817
 20
45.1769493468
 10
271.5617776183
 20
45.7495491834
 10
272.4270655892
 20
46.1759880521
 10
273.2739353872
 20
46.4471877544
 10
274.0843639663
 20
46.5573765472
 10
274.8411027288
 20
46.504210021
 10
275.528043676
 20
46.2888182141
  0
SPLINE
  5
25B
330
1F
100
AcDbEntity
  8
0
  6
Continuous
 62
     7
370
    15
100
AcDbSpline
210
0.0
220
0.0
230
1.0
 70
     8
 71
     3
 72
     9
 73
     5
 74
     0
 42
0.000000001
 43
0.00000001
 40
0.0
 40
0.0
 40
0.0
 40
0.0
 40
0.6394870728978168
 40
0.9999999999999999
 40
0.9999999999999999
 40
0.9999999999999999
 40
0.9999999999999999
 10
266.9062367318299
 20
40.72818946707785
 30
0.0
 10
267.0549982402866
 20
40.96613705298397
 30
0.0
 10
267.2876245352677
 20
41.33822836802473
 30
0.0
 10
267.5139267036133
 20
41.61109349326476
 30
0.0
 10
267.5955115607331
 20
41.70946489826915
 30
0.0
  0
LINE
  5
25C
330
1F
100
AcDbEntity
  8
0
  6
Continuous
 62
     7
370
    15
100
AcDbLine
 10
244.8027672064
 20
40.7228742017
 30
0.0
 11
242.9749137042
 21
41.778071568
 31
0.0
  0
LINE
  5
25D
330
1F
100
AcDbEntity
  8
0
  6
Continuous
 62
     7
370
    15
100
AcDbLine
 10
242.9749137042
 20
41.778071568
 30
0.0
 11
242.9430124911
 21
41.963467455
 31
0.0
  0
LINE
  5
25E
330
1F
100
AcDbEntity
  8
0
  6
Continuous
 62
     7
370
    15
100
AcDbLine
 10
266.5766747183
 20
32.2276674009
 30
0.0
 11
267.5554351762
 21
32.7926937863
 31
0.0
  0
LINE
  5
25F
330
1F
100
AcDbEntity
  8
0
  6
Continuous
 62
     7
370
    15
100
AcDbLine
 10
266.1497166061
 20
32.0392343407
 30
0.0
 11
266.5766747183
 21
32.2276674009
 31
0.0
  0
ARC
  5
260
330
1F
100
AcDbEntity
  8
0
  6
Continuous
 62
     7
370
    15
100
AcDbCircle
 10
273.4899996697
 20
45.7658349031
 30
0.0
 40
2.561678440878509
100
AcDbArc
 50
341.3541121641
 51
13.7253310219
  0
ARC
  5
261
330
1F
100
AcDbEntity
  8
0
  6
Continuous
 62
     7
370
    15
100
AcDbCircle
 10
268.5534984844
 20
42.7436444416
 30
0.0
 40
7.686248133725586
100
AcDbArc
 50
343.3431821303
 51
16.6568178697
  0
ARC
  5
262
330
1F
100
AcDbEntity
  8
0
  6
Continuous
 62
     7
370
    15
100
AcDbCircle
 10
272.3859749448
 20
39.7576403412
 30
0.0
 40
3.616978011483184
100
AcDbArc
 50
300.3475400268
 51
12.4995409945
  0
LINE
  5
263
330
1F
100
AcDbEntity
  8
0
  6
Continuous
 62
     7
370
    15
100
AcDbLine
 10
273.2346729636
 20
36.071247975
 30
0.0
 11
274.2134307873
 21
36.6362728398
 31
0.0
  0
LWPOLYLINE
  5
264
330
1F
100
AcDbEntity
  8
0
  6
Continuous
 62
     7
370
    15
100
AcDbPolyline
 90
        9
 70
   128
 43
0.0
 10
273.2346729636
 20
36.071247975
 10
272.5765894368
 20
35.2780328601
 10
271.8743913305
 20
34.5713230175
 10
271.1422768642
 20
33.9654046918
 10
270.3950527528
 20
33.4725351555
 10
269.6478286414
 20
33.1026780964
 10
268.9157168093
 20
32.8633165724
 10
268.213518703
 20
32.7592857385
 10
267.5554351762
 20
32.7926937863
  0
LINE
  5
265
330
1F
100
AcDbEntity
  8
0
  6
Continuous
 62
     7
370
    15
100
AcDbLine
 10
265.9482862804
 20
36.9887001132
 30
0.0
 11
265.9861341503
 21
37.6790721512
 31
0.0
  0
ARC
  5
266
330
1F
100
AcDbEntity
  8
0
  6
Continuous
 62
     7
370
    15
100
AcDbCircle
 10
275.5677511617
 20
36.4380299977
 30
0.0
 40
9.66646147901509
100
AcDbArc
 50
151.6444883262
 51
171.0276052392
  0
LWPOLYLINE
  5
267
330
1F
100
AcDbEntity
  8
0
  6
Continuous
 62
     7
370
    15
100
AcDbPolyline
 90
       29
 70
   128
 43
0.0
 10
272.2042457378
 20
45.2909343965
 10
272.618435989
 20
45.2863015754
 10
273.2073881476
 20
45.1568558326
 10
273.7235052835
 20
44.8823464603
 10
274.1534136751
 20
44.4698797181
 10
274.4859865541
 20
43.9301419141
 10
274.712602256
 20
43.2771081236
 10
274.8273997347
 20
42.5276961538
 10
274.8273997347
 20
41.7013102555
 10
274.712602256
 20
40.8193559381
 10
274.4859865541
 20
39.9046772273
 10
274.1534136751
 20
38.9809589505
 10
273.7235052835
 20
38.0721305448
 10
273.2073881476
 20
37.2017257717
 10
272.618435989
 20
36.3922895802
 10
271.9718980645
 20
35.6647865013
 10
271.2845198438
 20
35.0380561922
 10
270.5741057362
 20
34.5283328651
 10
269.8590554752
 20
34.1488194712
 10
269.1578846983
 20
33.9093394535
 10
268.4887586972
 20
33.8161025684
 10
267.8690024607
 20
33.8715163369
 10
267.314671304
 20
34.0741511029
 10
266.8401188632
 20
34.4187568049
 10
266.457636213
 20
34.896407497
 10
266.1771331311
 20
35.4947325599
 10
266.0058746805
 20
36.1982391619
 10
265.9482862804
 20
36.9887001132
 10
265.9482862804
 20
36.9887001132
  0
ARC
  5
268
330
1F
100
AcDbEntity
  8
0
  6
Continuous
 62
     7
370
    15
100
AcDbCircle
 10
276.5337313096
 20
44.2154727047
 30
0.0
 40
2.304380441175794
100
AcDbArc
 50
115.8759593286
 51
120.0397842727
  0
LINE
  5
269
330
1F
100
AcDbEntity
  8
0
  6
Continuous
 62
     7
370
    15
100
AcDbLine
 10
274.4013978292
 20
45.6452993187
 30
0.0
 11
275.3801556529
 21
46.2103241834
 31
0.0
  0
LWPOLYLINE
  5
26A
330
1F
100
AcDbEntity
  8
0
  6
Continuous
 62
     7
370
    15
100
AcDbPolyline
 90
        9
 70
   128
 43
0.0
 10
268.7221600417
 20
42.3667451299
 10
269.3802435685
 20
43.1599594844
 10
270.0824416749
 20
43.8666708479
 10
270.8145535069
 20
44.4725868925
 10
271.5617776183
 20
44.9654571893
 10
272.3090017298
 20
45.3353134879
 10
273.041116196
 20
45.574677293
 10
273.7433143023
 20
45.678706606
 10
274.4013978292
 20
45.6452993187
  0
LINE
  5
26B
330
1F
100
AcDbEntity
  8
0
  6
Continuous
 62
     7
370
    15
100
AcDbLine
 10
267.7433995838
 20
41.8017187445
 30
0.0
 11
268.7221600417
 21
42.3667451299
 31
0.0
  0
ARC
  5
26C
330
1F
100
AcDbEntity
  8
0
  6
Continuous
 62
     7
370
    15
100
AcDbCircle
 10
269.0447461517
 20
39.5509248814
 30
0.0
 40
2.599918441768554
100
AcDbArc
 50
120.0353097518
 51
123.8772435512
  0
SPLINE
  5
26D
330
1F
100
AcDbEntity
  8
0
  6
Continuous
 62
     7
370
    15
100
AcDbSpline
210
0.0
220
0.0
230
1.0
 70
     8
 71
     3
 72
     9
 73
     5
 74
     0
 42
0.000000001
 43
0.00000001
 40
0.0
 40
0.0
 40
0.0
 40
0.0
 40
0.6394866448644078
 40
1.0
 40
1.0
 40
1.0
 40
1.0
 10
266.1437159485708
 20
32.0657111117872
 30
0.0
 10
266.0850894984107
 20
32.30396399398643
 30
0.0
 10
265.9934121340264
 20
32.67653296647803
 30
0.0
 10
265.9868080599006
 20
33.11954893135196
 30
0.0
 10
265.98442720298
 20
33.27926210322729
 30
0.0
  0
ARC
  5
26E
330
1F
100
AcDbEntity
  8
0
  6
Continuous
 62
     7
370
    15
100
AcDbCircle
 10
273.4216789487
 20
35.6624919672
 30
0.0
 40
7.809769402063642
100
AcDbArc
 50
162.2322049757
 51
197.7677950243
  0
SPLINE
  5
26F
330
1F
100
AcDbEntity
  8
0
  6
Continuous
 62
     7
370
    15
100
AcDbSpline
210
0.0
220
0.0
230
1.0
 70
     8
 71
     3
 72
     9
 73
     5
 74
     0
 42
0.000000001
 43
0.00000001
 40
0.0
 40
0.0
 40
0.0
 40
0.0
 40
0.4624819774030834
 40
1.0
 40
1.0
 40
1.0
 40
1.0
 10
265.98442720298
 20
38.04572183123169
 30
0.0
 10
265.9887996583504
 20
38.1669215226492
 30
0.0
 10
265.9982539843222
 20
38.4289851215338
 30
0.0
 10
266.0928622829637
 20
38.79657323728447
 30
0.0
 10
266.1437159485708
 20
38.9941584743929
 30
0.0
  0
LINE
  5
270
330
1F
100
AcDbEntity
  8
0
  6
Continuous
 62
     7
370
    15
100
AcDbLine
 10
243.0476960432
 20
42.5632466058
 30
0.0
 11
243.0278027307
 21
42.3339004691
 31
0.0
  0
ARC
  5
271
330
1F
100
AcDbEntity
  8
0
  6
Continuous
 62
     7
370
    15
100
AcDbCircle
 10
259.0300803942
 20
40.9065903045
 30
0.0
 40
16.06256509176791
100
AcDbArc
 50
176.9223908702
 51
185.7272486191
  0
LWPOLYLINE
  5
272
330
1F
100
AcDbEntity
  8
0
  6
Continuous
 62
     7
370
    15
100
AcDbPolyline
 90
        3
 70
   128
 43
0.0
 10
242.0489085883
 20
41.6631182722
 10
242.1065549403
 20
43.0725730367
 10
242.1108802607
 20
43.1256514197
  0
ARC
  5
273
330
1F
100
AcDbEntity
  8
0
  6
Continuous
 62
     7
370
    15
100
AcDbCircle
 10
253.745079422
 20
41.3607638792
 30
0.0
 40
11.70007821982484
100
AcDbArc
 50
178.5191928594
 51
203.8935047327
  0
ARC
  5
274
330
1F
100
AcDbEntity
  8
0
  6
Continuous
 62
     7
370
    15
100
AcDbCircle
 10
269.5821533579
 20
32.4555637738
 30
0.0
 40
3.69081460166147
100
AcDbArc
 50
163.7045364914
 51
167.1044027951
  0
ARC
  5
275
330
1F
100
AcDbEntity
  8
0
  6
Continuous
 62
     7
370
    15
100
AcDbCircle
 10
273.4033318868
 20
35.6943471427
 30
0.0
 40
7.686248133725148
100
AcDbArc
 50
163.3431821303
 51
196.6568178697
  0
ARC
  5
276
330
1F
100
AcDbEntity
  8
0
  6
Continuous
 62
     7
370
    15
100
AcDbCircle
 10
267.3134108163
 20
38.4561837742
 30
0.0
 40
1.39092647222031
100
AcDbArc
 50
197.1635141179
 51
203.6811863139
  0
LWPOLYLINE
  5
277
330
1F
100
AcDbEntity
  8
0
  6
Continuous
 62
     7
370
    15
100
AcDbPolyline
 90
       25
 70
   128
 43
0.0
 10
272.0765671286
 20
45.2335228737
 10
272.362004026
 20
45.200949039
 10
272.9149627759
 20
45.0231731731
 10
273.3895389243
 20
44.7018277474
 10
273.7727907545
 20
44.245678311
 10
274.0542605798
 20
43.6671662575
 10
274.2262750394
 20
42.9820749539
 10
274.2841400282
 20
42.2090909348
 10
274.2262750394
 20
41.3692974216
 10
274.0542605798
 20
40.4856024503
 10
273.7727907545
 20
39.582112254
 10
273.3895389243
 20
38.6834696731
 10
272.9149627759
 20
37.814189529
 10
272.362004026
 20
36.9979818404
 10
271.7457486121
 20
36.2571115451
 10
271.0830052243
 20
35.6117856068
 10
270.3918548607
 20
35.0796116076
 10
269.6911450649
 20
34.6751004528
 10
268.9999920671
 20
34.409287707
 10
268.3372486793
 20
34.2894264173
 10
267.7209958996
 20
34.3187848774
 10
267.1680371497
 20
34.4965599828
 10
266.6934583671
 20
34.8179046483
 10
266.3102065369
 20
35.2740540848
 10
266.164288879
 20
35.5324411277
  0
LINE
  5
278
330
1F
100
AcDbEntity
  8
0
  6
Continuous
 62
     7
370
    15
100
AcDbLine
 10
239.5524993845
 20
43.7537893004
 30
0.0
 11
239.1169637302
 21
44.1427537553
 31
0.0
  0
LINE
  5
279
330
1F
100
AcDbEntity
  8
0
  6
Continuous
 62
     7
370
    15
100
AcDbLine
 10
241.0091227865
 20
42.9128985093
 30
0.0
 11
239.5524993845
 21
43.7537893004
 31
0.0
  0
LINE
  5
27A
330
1F
100
AcDbEntity
  8
0
  6
Continuous
 62
     7
370
    15
100
AcDbLine
 10
243.0476960432
 20
42.5632466058
 30
0.0
 11
243.0476960432
 21
42.4180955329
 31
0.0
  0
LINE
  5
27B
330
1F
100
AcDbEntity
  8
0
  6
Continuous
 62
     7
370
    15
100
AcDbLine
 10
243.0476960432
 20
41.7360530959
 30
0.0
 11
243.0476960432
 21
39.303659306
 31
0.0
  0
LINE
  5
27C
330
1F
100
AcDbEntity
  8
0
  6
Continuous
 62
     7
370
    15
100
AcDbLine
 10
243.0476960432
 20
42.7721351156
 30
0.0
 11
243.0476960432
 21
42.5632466058
 31
0.0
  0
LINE
  5
27D
330
1F
100
AcDbEntity
  8
0
  6
Continuous
 62
     7
370
    15
100
AcDbLine
 10
243.0476960432
 20
39.303659306
 30
0.0
 11
243.0476960432
 21
36.4336708337
 31
0.0
  0
ARC
  5
27E
330
1F
100
AcDbEntity
  8
0
  6
Continuous
 62
     7
370
    15
100
AcDbCircle
 10
266.5903068648
 20
33.5480931426
 30
0.0
 40
2.303368394329476
100
AcDbArc
 50
295.8748187509
 51
300.0404651153
  0
SPLINE
  5
27F
330
1F
100
AcDbEntity
  8
0
  6
Continuous
 62
     7
370
    15
100
AcDbSpline
210
0.0
220
0.0
230
1.0
 70
     8
 71
     3
 72
     9
 73
     5
 74
     0
 42
0.000000001
 43
0.00000001
 40
0.0
 40
0.0
 40
0.0
 40
0.0
 40
0.5592958124215154
 40
0.9999999999999999
 40
0.9999999999999999
 40
0.9999999999999999
 40
0.9999999999999999
 10
267.5955115607331
 20
31.47563820238097
 30
0.0
 10
267.467269497432
 20
31.37932643823817
 30
0.0
 10
267.237977483344
 20
31.20712460514057
 30
0.0
 10
267.0077145644365
 20
31.21055522629932
 30
0.0
 10
266.9062367318299
 20
31.21206711540998
 30
0.0
  0
LINE
  5
280
330
1F
100
AcDbEntity
  8
0
  6
Continuous
 62
     7
370
    15
100
AcDbLine
 10
242.9749137042
 20
31.2855217082
 30
0.0
 11
244.8027672064
 21
30.2303243419
 31
0.0
  0
SPLINE
  5
281
330
1F
100
AcDbEntity
  8
0
  6
Continuous
 62
     7
370
    15
100
AcDbSpline
210
0.0
220
0.0
230
1.0
 70
     8
 71
     3
 72
    12
 73
     8
 74
     0
 42
0.000000001
 43
0.00000001
 40
0.0
 40
0.0
 40
0.0
 40
0.0
 40
0.3369879635593786
 40
0.5753686760168654
 40
0.7541528808403113
 40
0.8980344862102034
 40
1.0
 40
1.0
 40
1.0
 40
1.0
 10
244.7572591466993
 20
30.11195647930392
 30
0.0
 10
244.7308041654799
 20
30.05602131305148
 30
0.0
 10
244.6856352895429
 20
29.96051836923851
 30
0.0
 10
244.5920878823592
 20
29.87134080639279
 30
0.0
 10
244.5118402203383
 20
29.83421377860822
 30
0.0
 10
244.4468737958818
 20
29.83107454413402
 30
0.0
 10
244.4127064361832
 20
29.84665383851678
 30
0.0
 10
244.398535465222
 20
29.85311537754823
 30
0.0
  0
LINE
  5
282
330
1F
100
AcDbEntity
  8
0
  6
Continuous
 62
     7
370
    15
100
AcDbLine
 10
244.3985354652
 20
29.8531153775
 30
0.0
 11
242.9430124911
 21
30.6933709051
 31
0.0
  0
LINE
  5
283
330
1F
100
AcDbEntity
  8
0
  6
Continuous
 62
     7
370
    15
100
AcDbLine
 10
242.9430124911
 20
30.6933709051
 30
0.0
 11
242.9749137042
 21
31.2855217082
 31
0.0
  0
SPLINE
  5
284
330
1F
100
AcDbEntity
  8
0
  6
Continuous
 62
     7
370
    15
100
AcDbSpline
210
0.0
220
0.0
230
1.0
 70
     8
 71
     3
 72
     9
 73
     5
 74
     0
 42
0.000000001
 43
0.00000001
 40
0.0
 40
0.0
 40
0.0
 40
0.0
 40
0.4719507612744183
 40
0.9999999999999999
 40
0.9999999999999999
 40
0.9999999999999999
 40
0.9999999999999999
 10
277.5600380730729
 20
48.95059449487562
 30
0.0
 10
277.5571322652206
 20
48.95227434435115
 30
0.0
 10
277.5509752503566
 20
48.95583371878882
 30
0.0
 10
277.5174206869265
 20
48.97521045863944
 30
0.0
 10
277.4997022252514
 20
48.98544233136655
 30
0.0
  0
ARC
  5
285
330
1F
100
AcDbEntity
  8
0
  6
Continuous
 62
     7
370
    15
100
AcDbCircle
 10
253.2832425733
 20
31.8119699877
 30
0.0
 40
9.056067753378546
100
AcDbArc
 50
196.7423036916
 51
281.9622250064
  0
LINE
  5
286
330
1F
100
AcDbEntity
  8
0
  6
Continuous
 62
     7
370
    15
100
AcDbLine
 10
243.2210302261
 20
31.7827592825
 30
0.0
 11
242.9749137042
 21
31.2855217082
 31
0.0
  0
LINE
  5
287
330
1F
100
AcDbEntity
  8
0
  6
Continuous
 62
     7
370
    15
100
AcDbLine
 10
243.2700522793
 20
31.8110591115
 30
0.0
 11
243.2210302261
 21
31.7827592825
 31
0.0
  0
SPLINE
  5
288
330
1F
100
AcDbEntity
  8
0
  6
Continuous
 62
     7
370
    15
100
AcDbSpline
210
0.0
220
0.0
230
1.0
 70
     8
 71
     3
 72
    13
 73
     9
 74
     0
 42
0.000000001
 43
0.00000001
 40
0.0
 40
0.0
 40
0.0
 40
0.0
 40
0.1024660590960729
 40
0.2174120531680571
 40
0.4277318430648525
 40
0.6378026405216253
 40
0.8539951269725037
 40
1.0
 40
1.0
 40
1.0
 40
1.0
 10
243.2818316648681
 20
32.14442265635152
 30
0.0
 10
243.2965132654241
 20
32.13505156859453
 30
0.0
 10
243.3276646237261
 20
32.11516803401113
 30
0.0
 10
243.3725431090428
 20
32.06891193218819
 30
0.0
 10
243.4018939624836
 20
32.00389365553978
 30
0.0
 10
243.3899211923483
 20
31.92467814474333
 30
0.0
 10
243.3418279770847
 20
31.8581546921576
 30
0.0
 10
243.2906732072583
 20
31.8245895208886
 30
0.0
 10
243.2700522792537
 20
31.81105911145564
 30
0.0
  0
LINE
  5
289
330
1F
100
AcDbEntity
  8
0
  6
Continuous
 62
     7
370
    15
100
AcDbLine
 10
242.4969434174
 20
32.597528997
 30
0.0
 11
243.2818316649
 21
32.1444226564
 31
0.0
  0
SPLINE
  5
28A
330
1F
100
AcDbEntity
  8
0
  6
Continuous
 62
     7
370
    15
100
AcDbSpline
210
0.0
220
0.0
230
1.0
 70
     8
 71
     3
 72
    13
 73
     9
 74
     0
 42
0.000000001
 43
0.00000001
 40
0.0
 40
0.0
 40
0.0
 40
0.0
 40
0.0059608611977443
 40
0.2326892358064938
 40
0.4597006206230347
 40
0.6100299051019101
 40
0.8155418429313405
 40
1.0
 40
1.0
 40
1.0
 40
1.0
 10
241.9194782506909
 20
32.59072890240684
 30
0.0
 10
241.9203781831216
 20
32.59124541989497
 30
0.0
 10
241.9555081052304
 20
32.61140828824681
 30
0.0
 10
242.0375139220693
 20
32.64443242418119
 30
0.0
 10
242.1641940397609
 20
32.6646111950809
 30
0.0
 10
242.2889116983625
 20
32.66271791610382
 30
0.0
 10
242.4023303757082
 20
32.6431136007153
 30
0.0
 10
242.4665616469227
 20
32.61216694691736
 30
0.0
 10
242.4969434173953
 20
32.59752899697789
 30
0.0
  0
LINE
  5
28B
330
1F
100
AcDbEntity
  8
0
  6
Continuous
 62
     7
370
    15
100
AcDbLine
 10
241.8704561975
 20
32.5624290735
 30
0.0
 11
241.9194782507
 21
32.5907289024
 31
0.0
  0
LINE
  5
28C
330
1F
100
AcDbEntity
  8
0
  6
Continuous
 62
     7
370
    15
100
AcDbLine
 10
241.0091227865
 20
32.4203486495
 30
0.0
 11
241.8704561975
 21
32.5624290735
 31
0.0
  0
LINE
  5
28D
330
1F
100
AcDbEntity
  8
0
  6
Continuous
 62
     7
370
    15
100
AcDbLine
 10
239.5524993845
 20
33.2612394406
 30
0.0
 11
241.0091227865
 21
32.4203486495
 31
0.0
  0
LINE
  5
28E
330
1F
100
AcDbEntity
  8
0
  6
Continuous
 62
     7
370
    15
100
AcDbLine
 10
239.5524993845
 20
33.2612394406
 30
0.0
 11
242.6941412776
 21
35.0748707012
 31
0.0
  0
ARC
  5
28F
330
1F
100
AcDbEntity
  8
0
  6
Continuous
 62
     7
370
    15
100
AcDbCircle
 10
252.5219476471
 20
33.1565731272
 30
0.0
 40
9.89056944306631
100
AcDbArc
 50
194.4210394427
 51
238.0224944433
  0
SPLINE
  5
290
330
1F
100
AcDbEntity
  8
0
  6
Continuous
 62
     7
370
    15
100
AcDbSpline
210
0.0
220
0.0
230
1.0
 70
     8
 71
     3
 72
     9
 73
     5
 74
     0
 42
0.000000001
 43
0.00000001
 40
0.0
 40
0.0
 40
0.0
 40
0.0
 40
0.6394878531411851
 40
1.0
 40
1.0
 40
1.0
 40
1.0
 10
276.606231183669
 20
36.81175471975457
 30
0.0
 10
276.3948736029404
 20
36.60994234447261
 30
0.0
 10
276.0643628986473
 20
36.29435796817732
 30
0.0
 10
275.6701589777693
 20
36.11841948022747
 30
0.0
 10
275.5280436759534
 20
36.05499151822156
 30
0.0
  0
LWPOLYLINE
  5
291
330
1F
100
AcDbEntity
  8
0
  6
Continuous
 62
     7
370
    15
100
AcDbPolyline
 90
       11
 70
   128
 43
0.0
 10
275.528043676
 20
36.0549915182
 10
274.8411027288
 20
35.0464738155
 10
274.0843639663
 20
34.1195953116
 10
273.2739353872
 20
33.2940839443
 10
272.4270655892
 20
32.5875078299
 10
271.5617776183
 20
32.0149072331
 10
270.6964922817
 20
31.5884691246
 10
269.8496224837
 20
31.3172701828
 10
269.0391939046
 20
31.2070806295
 10
268.2824525079
 20
31.2602456351
 10
267.5955115607
 20
31.4756382024
  0
SPLINE
  5
292
330
1F
100
AcDbEntity
  8
0
  6
Continuous
 62
     7
370
    15
100
AcDbSpline
210
0.0
220
0.0
230
1.0
 70
     8
 71
     3
 72
     9
 73
     5
 74
     0
 42
0.000000001
 43
0.00000001
 40
0.0
 40
0.0
 40
0.0
 40
0.0
 40
0.6394872287294089
 40
1.0
 40
1.0
 40
1.0
 40
1.0
 10
277.36874933275
 20
45.47423231482952
 30
0.0
 10
277.3647801195962
 20
45.27211446524007
 30
0.0
 10
277.3585732510686
 20
44.95605209446993
 30
0.0
 10
277.1972792244208
 20
44.60996418487168
 30
0.0
 10
277.1391306678847
 20
44.48519507347915
 30
0.0
  0
ARC
  5
293
330
1F
100
AcDbEntity
  8
0
  6
Continuous
 62
     7
370
    15
100
AcDbCircle
 10
273.5421306944
 20
45.3087409038
 30
0.0
 40
3.690072701752783
100
AcDbArc
 50
343.7036113034
 51
347.104194532
  0
LINE
  5
294
330
1F
100
AcDbEntity
  8
0
  6
Continuous
 62
     7
370
    15
100
AcDbLine
 10
275.9172224067
 20
44.9468195068
 30
0.0
 11
277.0839472723
 21
44.2732835785
 31
0.0
  0
LWPOLYLINE
  5
295
330
1F
100
AcDbEntity
  8
0
  6
Continuous
 62
     7
370
    15
100
AcDbPolyline
 90
        9
 70
   128
 43
0.0
 10
274.4013978292
 20
35.3977120468
 10
273.7433143023
 20
34.6044969318
 10
273.041116196
 20
33.8977870892
 10
272.3090017298
 20
33.2918687636
 10
271.5617776183
 20
32.7989992272
 10
270.8145535069
 20
32.4291421682
 10
270.0824416749
 20
32.1897806441
 10
269.3802435685
 20
32.0857498102
 10
268.7221600417
 20
32.119157858
  0
LINE
  5
296
330
1F
100
AcDbEntity
  8
0
  6
Continuous
 62
     7
370
    15
100
AcDbLine
 10
275.3801556529
 20
35.9627369115
 30
0.0
 11
274.4013978292
 21
35.3977120468
 31
0.0
  0
ARC
  5
297
330
1F
100
AcDbEntity
  8
0
  6
Continuous
 62
     7
370
    15
100
AcDbCircle
 10
274.079343797
 20
38.2126558157
 30
0.0
 40
2.598893333643197
100
AcDbArc
 50
300.0347594123
 51
303.8782180719
  0
LINE
  5
298
330
1F
100
AcDbEntity
  8
0
  6
Continuous
 62
     7
370
    15
100
AcDbLine
 10
268.7221600417
 20
32.119157858
 30
0.0
 11
267.7433995838
 21
31.5541314726
 31
0.0
  0
LINE
  5
299
330
1F
100
AcDbEntity
  8
0
  6
Continuous
 62
     7
370
    15
100
AcDbLine
 10
267.5554351762
 20
32.7926937863
 30
0.0
 11
268.7221600417
 21
32.119157858
 31
0.0
  0
ELLIPSE
  5
29A
330
1F
100
AcDbEntity
  8
0
  6
Continuous
 62
     7
370
    15
100
AcDbEllipse
 10
242.4012506247
 20
36.0604971416
 30
0.0
 11
-7.507462979106094E-5
 21
1.066811201853398
 31
0.0
210
0.0
220
0.0
230
1.0
 40
0.7174342186
 41
3.534193645557525
 42
5.104989972352351
  0
LINE
  5
29B
330
1F
100
AcDbEntity
  8
0
  6
Continuous
 62
     7
370
    15
100
AcDbLine
 10
274.4013978292
 20
35.3977120468
 30
0.0
 11
273.2346729636
 21
36.071247975
 31
0.0
  0
ARC
  5
29C
330
1F
100
AcDbEntity
  8
0
  6
Continuous
 62
     7
370
    15
100
AcDbCircle
 10
252.380702155
 20
35.450592267
 30
0.0
 40
10.8998512246343
100
AcDbArc
 50
195.3653316422
 51
215.9035762825
  0
ARC
  5
29D
330
1F
100
AcDbEntity
  8
0
  6
Continuous
 62
     7
370
    15
100
AcDbCircle
 10
249.7768497781
 20
34.1830420892
 30
0.0
 40
9.374608461070098
100
AcDbArc
 50
193.383262853
 51
247.5353145012
  0
LINE
  5
29E
330
1F
100
AcDbEntity
  8
0
  6
Continuous
 62
     7
370
    15
100
AcDbLine
 10
241.0091227865
 20
32.4203486495
 30
0.0
 11
240.6568225481
 21
32.0131602667
 31
0.0
  0
LINE
  5
29F
330
1F
100
AcDbEntity
  8
0
  6
Continuous
 62
     7
370
    15
100
AcDbLine
 10
239.1169637302
 20
33.0097587787
 30
0.0
 11
239.5524993845
 21
33.2612394406
 31
0.0
  0
LINE
  5
2A0
330
1F
100
AcDbEntity
  8
0
  6
Continuous
 62
     7
370
    15
100
AcDbLine
 10
240.6568225481
 20
32.0131602667
 30
0.0
 11
239.2189782014
 21
32.84321014
 31
0.0
  0
SPLINE
  5
2A1
330
1F
100
AcDbEntity
  8
0
  6
Continuous
 62
     7
370
    15
100
AcDbSpline
210
0.0
220
0.0
230
1.0
 70
     8
 71
     3
 72
    10
 73
     6
 74
     0
 42
0.000000001
 43
0.00000001
 40
0.0
 40
0.0
 40
0.0
 40
0.0
 40
0.3651906522557558
 40
0.72878291810239
 40
1.0
 40
1.0
 40
1.0
 40
1.0
 10
239.2189782013611
 20
32.84321014001853
 30
0.0
 10
239.2009545544453
 20
32.85701601642084
 30
0.0
 10
239.1649861474968
 20
32.88456734291097
 30
0.0
 10
239.1327572749392
 20
32.94696794620951
 30
0.0
 10
239.1216914941596
 20
32.99096247671645
 30
0.0
 10
239.116963730174
 20
33.00975877867067
 30
0.0
  0
SPLINE
  5
2A2
330
1F
100
AcDbEntity
  8
0
  6
Continuous
 62
     7
370
    15
100
AcDbSpline
210
0.0
220
0.0
230
1.0
 70
     8
 71
     3
 72
     9
 73
     5
 74
     0
 42
0.000000001
 43
0.00000001
 40
0.0
 40
0.0
 40
0.0
 40
0.0
 40
0.4624821874294383
 40
1.0
 40
1.0
 40
1.0
 40
1.0
 10
277.1391306678847
 20
39.71873534547476
 30
0.0
 10
277.2115899392551
 20
39.55318183423267
 30
0.0
 10
277.3682646682283
 20
39.19521450977797
 30
0.0
 10
277.3685798935335
 20
38.77282619515522
 30
0.0
 10
277.36874933275
 20
38.54578495222382
 30
0.0
  0
ARC
  5
2A3
330
1F
100
AcDbEntity
  8
0
  6
Continuous
 62
     7
370
    15
100
AcDbCircle
 10
269.7018105005
 20
42.1019652095
 30
0.0
 40
7.809834560133875
100
AcDbArc
 50
342.2323581558
 51
17.7676418442
  0
ARC
  5
2A4
330
1F
100
AcDbEntity
  8
0
  6
Continuous
 62
     7
370
    15
100
AcDbCircle
 10
248.6723205779
 20
35.1703416329
 30
0.0
 40
9.708695612151702
100
AcDbArc
 50
197.822641445
 51
238.2259407901
  0
ARC
  5
2A5
330
1F
100
AcDbEntity
  8
0
  6
Continuous
 62
     7
370
    15
100
AcDbCircle
 10
275.8104676153
 20
39.3083643933
 30
0.0
 40
1.390593335799959
100
AcDbArc
 50
17.1638296743
 51
23.6830440796
  0
ARC
  5
2A6
330
1F
100
AcDbEntity
  8
0
  6
Continuous
 62
     7
370
    15
100
AcDbCircle
 10
269.7202233499
 20
42.0701085133
 30
0.0
 40
7.686248133725638
100
AcDbArc
 50
343.3431821303
 51
16.6568178697
  0
LINE
  5
2A7
330
1F
100
AcDbEntity
  8
0
  6
Continuous
 62
     7
370
    15
100
AcDbLine
 10
275.9172224067
 20
40.5404693763
 30
0.0
 11
277.0839472723
 21
39.866933448
 31
0.0
  0
ELLIPSE
  5
2A8
330
1F
100
AcDbEntity
  8
0
  6
Continuous
 62
     7
370
    15
100
AcDbEllipse
 10
242.3405904529
 20
36.025467386
 30
0.0
 11
0.3250094736511642
 21
1.213179526238669
 31
0.0
210
0.0
220
0.0
230
1.0
 40
0.5176380889
 41
3.619174351347738
 42
5.189970678142604
  0
SPLINE
  5
2A9
330
1F
100
AcDbEntity
  8
0
  6
Continuous
 62
     7
370
    15
100
AcDbSpline
210
0.0
220
0.0
230
1.0
 70
     8
 71
     3
 72
    13
 73
     9
 74
     0
 42
0.000000001
 43
0.00000001
 40
0.0
 40
0.0
 40
0.0
 40
0.0
 40
0.2101432683864977
 40
0.5130289845157361
 40
0.706846591081291
 40
0.7853734635619405
 40
0.9389598358176393
 40
1.0
 40
1.0
 40
1.0
 40
1.0
 10
268.8744471420842
 20
68.02979083628314
 30
0.0
 10
268.9027539351545
 20
68.04406109935162
 30
0.0
 10
268.9718601473841
 20
68.07889951519527
 30
0.0
 10
269.0937203868182
 20
68.10556883394572
 30
0.0
 10
269.1979798927984
 20
68.1063858499394
 30
0.0
 10
269.2718308384138
 20
68.09589512213931
 30
0.0
 10
269.3197826472876
 20
68.08207630207855
 30
0.0
 10
269.347970674255
 20
68.06711138124204
 30
0.0
 10
269.3559873986668
 20
68.06285533145437
 30
0.0
  0
LINE
  5
2AA
330
1F
100
AcDbEntity
  8
0
  6
Continuous
 62
     7
370
    15
100
AcDbLine
 10
269.3559873987
 20
68.0628553315
 30
0.0
 11
270.0156553836
 21
67.6820371097
 31
0.0
  0
LINE
  5
2AB
330
1F
100
AcDbEntity
  8
0
  6
Continuous
 62
     7
370
    15
100
AcDbLine
 10
271.6855207656
 20
65.6072403228
 30
0.0
 11
273.0800216885
 21
65.9130160966
 31
0.0
  0
LINE
  5
2AC
330
1F
100
AcDbEntity
  8
0
  6
Continuous
 62
     7
370
    15
100
AcDbLine
 10
273.0800216885
 20
65.9130160966
 30
0.0
 11
274.5355446625
 21
65.072760569
 31
0.0
  0
SPLINE
  5
2AD
330
1F
100
AcDbEntity
  8
0
  6
Continuous
 62
     7
370
    15
100
AcDbSpline
210
0.0
220
0.0
230
1.0
 70
     8
 71
     3
 72
    13
 73
     9
 74
     0
 42
0.000000001
 43
0.00000001
 40
0.0
 40
0.0
 40
0.0
 40
0.0
 40
0.046160643589082
 40
0.211119545169445
 40
0.4059613064087658
 40
0.5995911196875489
 40
0.8281449037337145
 40
1.0
 40
1.0
 40
1.0
 40
1.0
 10
274.5355446625276
 20
65.07276056898408
 30
0.0
 10
274.541177518132
 20
65.06929171160796
 30
0.0
 10
274.5669398520325
 20
65.05342660370299
 30
0.0
 10
274.6016320650481
 20
65.0154802896988
 30
0.0
 10
274.6146539372356
 20
64.95782677317547
 30
0.0
 10
274.5936681086405
 20
64.89473521108549
 30
0.0
 10
274.5465129344666
 20
64.83878383409336
 30
0.0
 10
274.4987627461788
 20
64.80799025143908
 30
0.0
 10
274.4782684124904
 20
64.79477367615407
 30
0.0
  0
LINE
  5
2AE
330
1F
100
AcDbEntity
  8
0
  6
Continuous
 62
     7
370
    15
100
AcDbLine
 10
268.8744471421
 20
68.0297908363
 30
0.0
 11
268.7826565744
 21
67.9768012695
 31
0.0
  0
SPLINE
  5
2AF
330
1F
100
AcDbEntity
  8
0
  6
Continuous
 62
     7
370
    15
100
AcDbSpline
210
0.0
220
0.0
230
1.0
 70
     8
 71
     3
 72
    10
 73
     6
 74
     0
 42
0.000000001
 43
0.00000001
 40
0.0
 40
0.0
 40
0.0
 40
0.0
 40
0.4037433740833463
 40
0.8085572714428374
 40
1.0
 40
1.0
 40
1.0
 40
1.0
 10
277.4997022252514
 20
59.71883383067028
 30
0.0
 10
277.5179428248797
 20
59.7575981074183
 30
0.0
 10
277.5544723889831
 20
59.83522944417518
 30
0.0
 10
277.5684131578357
 20
59.94264292743264
 30
0.0
 10
277.5503510277156
 20
59.99593100555686
 30
0.0
 10
277.5445517404231
 20
60.01304044238699
 30
0.0
  0
ARC
  5
2B0
330
1F
100
AcDbEntity
  8
0
  6
Continuous
 62
     7
370
    15
100
AcDbCircle
 10
267.4386821196
 20
57.5912903316
 30
0.0
 40
10.31202477044488
100
AcDbArc
 50
20.2168466528
 51
46.5112350333
  0
LWPOLYLINE
  5
2B1
330
1F
100
AcDbEntity
  8
0
  6
Continuous
 62
     7
370
    15
100
AcDbPolyline
 90
        3
 70
   128
 43
0.0
 10
271.6855220827
 20
66.2882310598
 10
271.7239758136
 20
66.2407658218
 10
272.1097775281
 20
65.7265658311
  0
LINE
  5
2B2
330
1F
100
AcDbEntity
  8
0
  6
Continuous
 62
     7
370
    15
100
AcDbLine
 10
277.3954203853
 20
49.0456625263
 30
0.0
 11
275.531017663
 21
50.1219593083
 31
0.0
  0
LINE
  5
2B3
330
1F
100
AcDbEntity
  8
0
  6
Continuous
 62
     7
370
    15
100
AcDbLine
 10
274.7229308681
 20
49.9684194305
 30
0.0
 11
274.7719502871
 21
49.9967177388
 31
0.0
  0
SPLINE
  5
2B4
330
1F
100
AcDbEntity
  8
0
  6
Continuous
 62
     7
370
    15
100
AcDbSpline
210
0.0
220
0.0
230
1.0
 70
     8
 71
     3
 72
    10
 73
     6
 74
     0
 42
0.000000001
 43
0.00000001
 40
0.0
 40
0.0
 40
0.0
 40
0.0
 40
0.3482868962127422
 40
0.7262095043937583
 40
1.0
 40
1.0
 40
1.0
 40
1.0
 10
274.3902052067049
 20
49.89724710956262
 30
0.0
 10
274.4328530041563
 20
49.89733461769975
 30
0.0
 10
274.5217774976916
 20
49.89751708003635
 30
0.0
 10
274.6377340874298
 20
49.92574094692348
 30
0.0
 10
274.6977272180855
 20
49.95579391162627
 30
0.0
 10
274.7229308680961
 20
49.96841943051272
 30
0.0
  0
LINE
  5
2B5
330
1F
100
AcDbEntity
  8
0
  6
Continuous
 62
     7
370
    15
100
AcDbLine
 10
274.7719502871
 20
49.9967177388
 30
0.0
 11
275.531017663
 21
50.1219593083
 31
0.0
  0
ARC
  5
2B6
330
1F
100
AcDbEntity
  8
0
  6
Continuous
 62
     7
370
    15
100
AcDbCircle
 10
254.2568021333
 20
59.286807383
 30
0.0
 40
1.56249067362392
100
AcDbArc
 50
79.6970088225
 51
142.711288064
  0
ARC
  5
2B7
330
1F
100
AcDbEntity
  8
0
  6
Continuous
 62
     7
370
    15
100
AcDbCircle
 10
254.2245692186
 20
59.370867103
 30
0.0
 40
1.467927404245674
100
AcDbArc
 50
78.3824992792
 51
144.293324703
  0
ARC
  5
2B8
330
1F
100
AcDbEntity
  8
0
  6
Continuous
 62
     7
370
    15
100
AcDbCircle
 10
254.1942500031
 20
59.4494776611
 30
0.0
 40
1.249550922560312
100
AcDbArc
 50
80.7059689964
 51
142.225851724
  0
LWPOLYLINE
  5
2B9
330
1F
100
AcDbEntity
  8
0
  6
Continuous
 62
     7
370
     0
100
AcDbPolyline
 90
       22
 70
   128
 43
0.0
 10
244.3985354652
 20
41.1232119274
 10
244.847267693
 20
42.9066294473
 10
245.4012880166
 20
44.7039315053
 10
246.0569612706
 20
46.5033407732
 10
246.8099937446
 20
48.2930708595
 10
247.655448989
 20
50.0613966501
 10
248.5877952299
 20
51.7967379548
 10
249.6009211745
 20
53.4877252862
 10
250.6881939622
 20
55.1232839326
 10
251.8424855074
 20
56.6926968367
 10
253.0562357192
 20
58.1856842474
 10
254.3214999166
 20
59.5924696866
 10
255.6299857071
 20
60.9038356961
 10
256.9731214754
 20
62.111192036
 10
258.342109067
 20
63.2066299572
 10
259.7279843739
 20
64.1829753335
 10
261.1216647503
 20
65.0338306725
 10
262.5140227694
 20
65.7536233981
 10
263.8959389067
 20
66.3376387357
 10
265.2583594924
 20
66.7820506954
 10
266.5923625655
 20
67.0839494427
 10
266.6819931072
 20
67.0992767172
  0
LINE
  5
2BA
330
1F
100
AcDbEntity
  8
0
  6
Continuous
 62
     7
370
     0
100
AcDbLine
 10
244.7572591467
 20
40.7887003374
 30
0.0
 11
244.8875034453
 21
41.3704741674
 31
0.0
  0
LWPOLYLINE
  5
2BB
330
1F
100
AcDbEntity
  8
0
  6
Continuous
 62
     7
370
     0
100
AcDbPolyline
 90
       11
 70
   128
 43
0.0
 10
259.5538085712
 20
63.5555111974
 10
259.9810564429
 20
63.8418534473
 10
261.3730483112
 20
64.6884602386
 10
262.7634227942
 20
65.4025477776
 10
264.1428733409
 20
65.9793370479
 10
265.5021539864
 20
66.4149610128
 10
266.8321662798
 20
66.7065049114
 10
268.1239987967
 20
66.8520146198
 10
269.3689982625
 20
66.8505146107
 10
270.5588301378
 20
66.7020176196
 10
271.6855207656
 20
66.4075156345
  0
LINE
  5
2BC
330
1F
100
AcDbEntity
  8
0
  6
Continuous
 62
     7
370
     0
100
AcDbLine
 10
277.4997022253
 20
48.9854423314
 30
0.0
 11
277.2017819582
 21
47.7235353506
 31
0.0
  0
LWPOLYLINE
  5
2BD
330
1F
100
AcDbEntity
  8
0
  6
Continuous
 62
     7
370
     0
100
AcDbPolyline
 90
       21
 70
   128
 43
0.0
 10
266.7258561227
 20
29.5767330435
 10
266.0241743153
 20
28.9091368008
 10
264.6472868238
 20
27.708499656
 10
263.2458804032
 20
26.6277989354
 10
261.829727854
 20
25.6745714301
 10
260.408709978
 20
24.8554641797
 10
258.9927339187
 20
24.1761903726
 10
257.591680478
 20
23.6414898073
 10
256.2153224563
 20
23.2550908769
 10
254.8732561642
 20
23.0196892824
 10
253.5748487389
 20
22.9369297864
 10
252.3291459476
 20
23.0073834083
 10
251.1448511145
 20
23.2305656771
 10
250.030209217
 20
23.6049092654
 10
248.9930068853
 20
24.1278157015
 10
248.0404723039
 20
24.7956310433
 10
247.1792541382
 20
25.6036975923
 10
246.415358314
 20
26.5463812758
 10
245.754105871
 20
27.6171035904
 10
245.2001224258
 20
28.8083993985
 10
244.7572591467
 20
30.1119564793
  0
ARC
  5
2BE
330
1F
100
AcDbEntity
  8
0
  6
Continuous
 62
     7
370
     0
100
AcDbCircle
 10
267.3195875634
 20
57.0963778398
 30
0.0
 40
10.51246926046788
100
AcDbArc
 50
14.4456468042
 51
47.0804764984
  0
LWPOLYLINE
  5
2BF
330
1F
100
AcDbEntity
  8
0
  6
Continuous
 62
     7
370
     0
100
AcDbPolyline
 90
       27
 70
   128
 43
0.0
 10
252.2931156604
 20
39.8006857738
 10
252.3507304024
 20
40.9974284241
 10
252.5228212532
 20
42.2450900536
 10
252.8071438932
 20
43.5274030505
 10
253.1999946682
 20
44.8276535487
 10
253.696252736
 20
46.1288905501
 10
254.289443287
 20
47.4141472145
 10
254.9718376429
 20
48.6666712695
 10
255.7345375503
 20
49.8701326094
 10
256.5676016212
 20
51.0088430572
 10
257.4601665056
 20
52.0679563548
 10
258.4006049414
 20
53.0336704311
 10
259.3766442934
 20
53.8933874689
 10
260.3755693842
 20
54.6359059022
 10
261.3843542033
 20
55.2515439792
 10
262.3898515682
 20
55.7322773885
 10
263.3789459065
 20
56.071835443
 10
264.3387508193
 20
56.2657953591
 10
265.2567486925
 20
56.3116267304
 10
266.1209724554
 20
56.2087310547
 10
266.9201583627
 20
55.9584523664
 10
267.6438856061
 20
55.5640517478
 10
268.2827211941
 20
55.0306715737
 10
268.8283332215
 20
54.365264017
 10
269.2736120418
 20
53.5765043452
 10
269.6127519267
 20
52.6746753217
 10
269.772967903
 20
52.038914832
  0
LWPOLYLINE
  5
2C0
330
1F
100
AcDbEntity
  8
0
  6
Continuous
 62
     7
370
     0
100
AcDbPolyline
 90
       13
 70
   128
 43
0.0
 10
259.273819154
 20
33.851887738
 10
258.4006049414
 20
33.6192589041
 10
257.4601665056
 20
33.499165114
 10
256.5676016212
 20
33.5277449316
 10
255.7345375503
 20
33.7046200763
 10
254.9718376429
 20
34.0274868472
 10
254.289443287
 20
34.4921343888
 10
253.696252736
 20
35.0925085816
 10
253.1999946682
 20
35.8207774535
 10
252.8071438932
 20
36.6674528619
 10
252.5228212532
 20
37.6214939261
 10
252.3507304024
 20
38.6704636885
 10
252.2931156604
 20
39.8006857738
  0
LWPOLYLINE
  5
2C1
330
1F
100
AcDbEntity
  8
0
  6
Continuous
 62
     7
370
     0
100
AcDbPolyline
 90
       22
 70
   128
 43
0.0
 10
239.2189782014
 20
44.1133066899
 10
239.6677104291
 20
45.8967242098
 10
240.2217307528
 20
47.6940262677
 10
240.8774040067
 20
49.4934355357
 10
241.6304364807
 20
51.283165622
 10
242.4758917251
 20
53.0514914125
 10
243.4082379661
 20
54.7868327173
 10
244.4213639106
 20
56.4778200487
 10
245.5086366983
 20
58.1133786951
 10
246.6629282436
 20
59.6827915991
 10
247.8766784553
 20
61.1757790099
 10
249.1419426527
 20
62.5825644491
 10
250.4504284432
 20
63.8939304586
 10
251.7935642116
 20
65.1012867984
 10
253.1625518031
 20
66.1967247196
 10
254.54842711
 20
67.1730700959
 10
255.9421074865
 20
68.0239254349
 10
257.3344655055
 20
68.7437181606
 10
258.7163816428
 20
69.3277334982
 10
260.0788022286
 20
69.7721454579
 10
261.4128053017
 20
70.0740442052
 10
261.5027124321
 20
70.0894182222
  0
LWPOLYLINE
  5
2C2
330
1F
100
AcDbEntity
  8
0
  6
Continuous
 62
     7
370
     0
100
AcDbPolyline
 90
       20
 70
   128
 43
0.0
 10
242.4969434174
 20
43.0900788568
 10
242.9498218414
 20
44.8793553542
 10
243.5158961637
 20
46.682785612
 10
244.1908884793
 20
48.486741776
 10
244.9697042879
 20
50.2775953083
 10
245.8464430306
 20
52.0418032987
 10
246.8144929206
 20
53.766041727
 10
247.8665362114
 20
55.4372792272
 10
248.9946176852
 20
57.0428835937
 10
250.190213142
 20
58.5707213893
 10
251.4442926194
 20
60.0092497951
 10
252.7473730766
 20
61.3475943508
 10
254.0896079561
 20
62.5756416396
 10
255.4608556724
 20
63.6841121618
 10
256.8507560033
 20
64.6646307709
 10
258.2488012127
 20
65.5097850804
 10
259.6444282467
 20
66.2131893338
 10
261.0270898564
 20
66.7695277447
 10
262.3863388918
 20
67.1745970741
 10
262.5128215842
 20
67.204843644
  0
LINE
  5
2C3
330
1F
100
AcDbEntity
  8
0
  6
Continuous
 62
     7
370
     0
100
AcDbLine
 10
253.7174703815
 20
61.0727266503
 30
0.0
 11
254.0763297232
 21
61.4099496193
 31
0.0
  0
LWPOLYLINE
  5
2C4
330
1F
100
AcDbEntity
  8
0
  6
Continuous
 62
     7
370
     0
100
AcDbPolyline
 90
       23
 70
   128
 43
0.0
 10
241.9194782507
 20
43.0832787622
 10
242.3498291841
 20
44.8179120311
 10
242.8853048945
 20
46.5669621772
 10
243.5222280692
 20
48.3184104298
 10
244.2562207043
 20
50.060219072
 10
245.0822304465
 20
51.7804131884
 10
245.9945885446
 20
53.4671751475
 10
246.9870256548
 20
55.1089126608
 10
248.0527139878
 20
56.6943386283
 10
249.1843357969
 20
58.2125605542
 10
250.3741097202
 20
59.6531418957
 10
251.6138592691
 20
61.0061823031
 10
252.8950707803
 20
62.2623865134
 10
254.208930294
 20
63.4131162103
 10
255.5464078479
 20
64.4504626663
 10
256.8983154291
 20
65.3672987348
 10
258.2553622917
 20
66.157323902
 10
259.6082208111
 20
66.815107437
 10
260.9475949732
 20
67.3361300206
 10
262.2642756916
 20
67.7168084552
 10
263.5492145647
 20
67.9545268371
 10
264.7935844619
 20
68.0476535185
 10
265.7589395878
 20
68.0171904048
  0
LWPOLYLINE
  5
2C5
330
1F
100
AcDbEntity
  8
0
  6
Continuous
 62
     7
370
     0
100
AcDbPolyline
 90
        8
 70
   128
 43
0.0
 10
255.121545883
 20
39.8006872944
 10
255.1778224625
 20
38.7795704667
 10
255.3457934588
 20
37.8389046949
 10
255.6229142562
 20
36.9929519391
 10
256.0049859746
 20
36.2545339974
 10
256.4862134226
 20
35.6348454275
 10
257.0593051952
 20
35.143281672
 10
257.2965919523
 20
34.9933158965
  0
LWPOLYLINE
  5
2C6
330
1F
100
AcDbEntity
  8
0
  6
Continuous
 62
     7
370
     0
100
AcDbPolyline
 90
       21
 70
   128
 43
0.0
 10
267.7957407013
 20
53.1803429906
 10
267.71469758
 20
53.2257053624
 10
267.0204994723
 20
53.5117501761
 10
266.2584765487
 20
53.654924065
 10
265.4401796798
 20
53.6530555842
 10
264.5780105758
 20
53.5061717073
 10
263.6850426622
 20
53.2165016451
 10
262.7748077116
 20
52.7884335196
 10
261.8611088169
 20
52.228458868
 10
260.957793852
 20
51.5450646775
 10
260.0785579085
 20
50.7486124909
 10
259.2367272931
 20
49.8511734063
 10
258.4450672324
 20
48.8663539487
 10
257.7155737734
 20
47.8090816396
 10
257.0593051952
 20
46.6953821967
 10
256.4862134226
 20
45.5421400043
 10
256.0049859746
 20
44.36683881
 10
255.6229142562
 20
43.1872917729
 10
255.3457934588
 20
42.021380634
 10
255.1778224625
 20
40.8867796778
 10
255.121545883
 20
39.8006872944
  0
LWPOLYLINE
  5
2C7
330
1F
100
AcDbEntity
  8
0
  6
Continuous
 62
     7
370
     0
100
AcDbPolyline
 90
        3
 70
   128
 43
0.0
 10
242.9686008965
 20
41.0107740926
 10
242.9681478179
 20
41.1324527604
 10
242.9804125508
 20
41.7748967438
  0
LWPOLYLINE
  5
2C8
330
1F
100
AcDbEntity
  8
0
  6
Continuous
 62
     7
370
     0
100
AcDbPolyline
 90
       19
 70
   128
 43
0.0
 10
211.8831967286
 20
65.0237591172
 10
211.9399527285
 20
66.0982346245
 10
212.1093198392
 20
67.221291623
 10
212.388637541
 20
68.3752237443
 10
212.7734909515
 20
69.5418266815
 10
213.2578161928
 20
70.7027061669
 10
213.8339741486
 20
71.839554773
 10
214.4928769048
 20
72.9344408772
 10
215.2241352632
 20
73.9701006654
 10
216.016211524
 20
74.9301974353
 10
216.8566196833
 20
75.7995923029
 10
217.7321071915
 20
76.5645753658
 10
218.628863053
 20
77.2130808948
 10
219.5327470004
 20
77.7348819908
 10
220.4295002278
 20
78.1217472204
 10
221.304987736
 20
78.3675805186
 10
222.1453958953
 20
78.468500258
 10
222.9374747902
 20
78.4229167935
 10
223.6178223898
 20
78.2503434684
  0
ARC
  5
2C9
330
1F
100
AcDbEntity
  8
0
  6
Continuous
 62
     7
370
     0
100
AcDbCircle
 10
217.3039152305
 20
64.5933217409
 30
0.0
 40
5.437781294955053
100
AcDbArc
 50
175.4598996652
 51
225.5212841365
  0
LINE
  5
2CA
330
1F
100
AcDbEntity
  8
0
  6
Continuous
 62
     7
370
     0
100
AcDbLine
 10
248.6515173136
 20
42.1281693997
 30
0.0
 11
247.9442958298
 21
42.5364396721
 31
0.0
  0
LINE
  5
2CB
330
1F
100
AcDbEntity
  8
0
  6
Continuous
 62
     7
370
     0
100
AcDbLine
 10
243.1083565535
 20
36.4687000243
 30
0.0
 11
248.6515173136
 21
33.2687014314
 31
0.0
  0
LINE
  5
2CC
330
1F
100
AcDbEntity
  8
0
  6
Continuous
 62
     7
370
     0
100
AcDbLine
 10
243.0476960432
 20
36.4336708337
 30
0.0
 11
243.1083565535
 21
36.4687000243
 31
0.0
  0
LINE
  5
2CD
330
1F
100
AcDbEntity
  8
0
  6
Continuous
 62
     7
370
     0
100
AcDbLine
 10
266.5766747183
 20
32.2276674009
 30
0.0
 11
267.7433995838
 21
31.5541314726
 31
0.0
  0
LINE
  5
2CE
330
1F
100
AcDbEntity
  8
0
  6
Continuous
 62
     7
370
     0
100
AcDbLine
 10
244.6110609488
 20
29.2032099325
 30
0.0
 11
244.3985354652
 21
29.8531153775
 31
0.0
  0
LINE
  5
2CF
330
1F
100
AcDbEntity
  8
0
  6
Continuous
 62
     7
370
     0
100
AcDbLine
 10
247.9444090994
 20
32.0439556025
 30
0.0
 11
242.6941412776
 21
35.0748707012
 31
0.0
  0
LINE
  5
2D0
330
1F
100
AcDbEntity
  8
0
  6
Continuous
 62
     7
370
     0
100
AcDbLine
 10
243.3736696478
 20
31.8498000684
 30
0.0
 11
243.2818316649
 21
32.1444226564
 31
0.0
  0
LWPOLYLINE
  5
2D1
330
1F
100
AcDbEntity
  8
0
  6
Continuous
 62
     7
370
     0
100
AcDbPolyline
 90
        3
 70
   128
 43
0.0
 10
242.9655900311
 20
31.2939329947
 10
242.9420562845
 20
31.3496026075
 10
242.4969434174
 20
32.597528997
  0
ARC
  5
2D2
330
1F
100
AcDbEntity
  8
0
  6
Continuous
 62
     7
370
     0
100
AcDbCircle
 10
252.704491926
 20
35.6200637781
 30
0.0
 40
11.20238321809845
100
AcDbArc
 50
195.6891885997
 51
214.1127149527
  0
LINE
  5
2D3
330
1F
100
AcDbEntity
  8
0
  6
Continuous
 62
     7
370
     0
100
AcDbLine
 10
239.4295596616
 20
32.1987862939
 30
0.0
 11
239.2189782014
 21
32.84321014
 31
0.0
  0
LINE
  5
2D4
330
1F
100
AcDbEntity
  8
0
  6
Continuous
 62
     7
370
     0
100
AcDbLine
 10
274.2134307873
 20
36.6362728398
 30
0.0
 11
275.3801556529
 21
35.9627369115
 31
0.0
  0
OLE2FRAME
  5
2D5
330
1F
100
AcDbEntity
  8
0
100
AcDbOle2Frame
 70
     2
  3
Paintbrush-Bild
 10
13.8511154363
 20
38.264191557
 30
0.0
 11
51.6290888628
 21
31.9806341108
 31
0.0
 71
     2
 72
     0
 73
     1
 90
    12928
310
80552BED0767C5B32B40DDAF6807D121434000000000000000006FFBDDFB85D0
310
4940DDAF6807D121434000000000000000006FFBDDFB85D04940416F4BD60AFB
310
3F4000000000000000002BED0767C5B32B40416F4BD60AFB3F40000000000000
310
0000000000000100000000010000010000000100000000000100000000320000
310
D0CF11E0A1B11AE1000000000000000000000000000000003E000300FEFF0900
310
0600000000000000000000000100000001000000000000000010000002000000
310
01000000FEFFFFFF0000000000000000FFFFFFFFFFFFFFFFFFFFFFFFFFFFFFFF
310
FFFFFFFFFFFFFFFFFFFFFFFFFFFFFFFFFFFFFFFFFFFFFFFFFFFFFFFFFFFFFFFF
310
FFFFFFFFFFFFFFFFFFFFFFFFFFFFFFFFFFFFFFFFFFFFFFFFFFFFFFFFFFFFFFFF
310
FFFFFFFFFFFFFFFFFFFFFFFFFFFFFFFFFFFFFFFFFFFFFFFFFFFFFFFFFFFFFFFF
310
FFFFFFFFFFFFFFFFFFFFFFFFFFFFFFFFFFFFFFFFFFFFFFFFFFFFFFFFFFFFFFFF
310
FFFFFFFFFFFFFFFFFFFFFFFFFFFFFFFFFFFFFFFFFFFFFFFFFFFFFFFFFFFFFFFF
310
FFFFFFFFFFFFFFFFFFFFFFFFFFFFFFFFFFFFFFFFFFFFFFFFFFFFFFFFFFFFFFFF
310
FFFFFFFFFFFFFFFFFFFFFFFFFFFFFFFFFFFFFFFFFFFFFFFFFFFFFFFFFFFFFFFF
310
FFFFFFFFFFFFFFFFFFFFFFFFFFFFFFFFFFFFFFFFFFFFFFFFFFFFFFFFFFFFFFFF
310
FFFFFFFFFFFFFFFFFFFFFFFFFFFFFFFFFFFFFFFFFFFFFFFFFFFFFFFFFFFFFFFF
310
FFFFFFFFFFFFFFFFFFFFFFFFFFFFFFFFFFFFFFFFFFFFFFFFFFFFFFFFFFFFFFFF
310
FFFFFFFFFFFFFFFFFFFFFFFFFFFFFFFFFFFFFFFFFFFFFFFFFFFFFFFFFFFFFFFF
310
FFFFFFFFFFFFFFFFFFFFFFFFFFFFFFFFFFFFFFFFFFFFFFFFFFFFFFFFFFFFFFFF
310
FFFFFFFFFFFFFFFFFFFFFFFFFFFFFFFFFFFFFFFFFFFFFFFFFFFFFFFFFFFFFFFF
310
FDFFFFFFFEFFFFFFFEFFFFFFFEFFFFFF05000000060000000700000008000000
310
090000000A0000000B0000000C0000000D0000000E0000000F00000010000000
310
11000000120000001300000014000000150000001600000017000000FEFFFFFF
310
FFFFFFFFFFFFFFFFFFFFFFFFFFFFFFFFFFFFFFFFFFFFFFFFFFFFFFFFFFFFFFFF
310
FFFFFFFFFFFFFFFFFFFFFFFFFFFFFFFFFFFFFFFFFFFFFFFFFFFFFFFFFFFFFFFF
310
FFFFFFFFFFFFFFFFFFFFFFFFFFFFFFFFFFFFFFFFFFFFFFFFFFFFFFFFFFFFFFFF
310
FFFFFFFFFFFFFFFFFFFFFFFFFFFFFFFFFFFFFFFFFFFFFFFFFFFFFFFFFFFFFFFF
310
FFFFFFFFFFFFFFFFFFFFFFFFFFFFFFFFFFFFFFFFFFFFFFFFFFFFFFFFFFFFFFFF
310
FFFFFFFFFFFFFFFFFFFFFFFFFFFFFFFFFFFFFFFFFFFFFFFFFFFFFFFFFFFFFFFF
310
FFFFFFFFFFFFFFFFFFFFFFFFFFFFFFFFFFFFFFFFFFFFFFFFFFFFFFFFFFFFFFFF
310
FFFFFFFFFFFFFFFFFFFFFFFFFFFFFFFFFFFFFFFFFFFFFFFFFFFFFFFFFFFFFFFF
310
FFFFFFFFFFFFFFFFFFFFFFFFFFFFFFFFFFFFFFFFFFFFFFFFFFFFFFFFFFFFFFFF
310
FFFFFFFFFFFFFFFFFFFFFFFFFFFFFFFFFFFFFFFFFFFFFFFFFFFFFFFFFFFFFFFF
310
FFFFFFFFFFFFFFFFFFFFFFFFFFFFFFFFFFFFFFFFFFFFFFFFFFFFFFFFFFFFFFFF
310
FFFFFFFFFFFFFFFFFFFFFFFFFFFFFFFFFFFFFFFFFFFFFFFFFFFFFFFFFFFFFFFF
310
FFFFFFFFFFFFFFFFFFFFFFFFFFFFFFFFFFFFFFFFFFFFFFFFFFFFFFFFFFFFFFFF
310
52006F006F007400200045006E00740072007900000000000000000000000000
310
0000000000000000000000000000000000000000000000000000000000000000
310
16000500FFFFFFFFFFFFFFFF020000000A00030000000000C000000000000046
310
00000000000000000000000040B278096903D20103000000C000000000000000
310
01004F006C006500000000000000000000000000000000000000000000000000
310
0000000000000000000000000000000000000000000000000000000000000000
310
0A000200FFFFFFFFFFFFFFFFFFFFFFFF00000000000000000000000000000000
310
0000000000000000000000000000000000000000000000001400000000000000
310
010043006F006D0070004F0062006A0000000000000000000000000000000000
310
0000000000000000000000000000000000000000000000000000000000000000
310
120002010100000003000000FFFFFFFF00000000000000000000000000000000
310
0000000000000000000000000000000000000000010000004D00000000000000
310
01004F006C006500310030004E00610074006900760065000000000000000000
310
0000000000000000000000000000000000000000000000000000000000000000
310
1A000200FFFFFFFFFFFFFFFFFFFFFFFF00000000000000000000000000000000
310
0000000000000000000000000000000000000000040000002426000000000000
310
FEFFFFFF02000000FEFFFFFFFFFFFFFFFFFFFFFFFFFFFFFFFFFFFFFFFFFFFFFF
310
FFFFFFFFFFFFFFFFFFFFFFFFFFFFFFFFFFFFFFFFFFFFFFFFFFFFFFFFFFFFFFFF
310
FFFFFFFFFFFFFFFFFFFFFFFFFFFFFFFFFFFFFFFFFFFFFFFFFFFFFFFFFFFFFFFF
310
FFFFFFFFFFFFFFFFFFFFFFFFFFFFFFFFFFFFFFFFFFFFFFFFFFFFFFFFFFFFFFFF
310
FFFFFFFFFFFFFFFFFFFFFFFFFFFFFFFFFFFFFFFFFFFFFFFFFFFFFFFFFFFFFFFF
310
FFFFFFFFFFFFFFFFFFFFFFFFFFFFFFFFFFFFFFFFFFFFFFFFFFFFFFFFFFFFFFFF
310
FFFFFFFFFFFFFFFFFFFFFFFFFFFFFFFFFFFFFFFFFFFFFFFFFFFFFFFFFFFFFFFF
310
FFFFFFFFFFFFFFFFFFFFFFFFFFFFFFFFFFFFFFFFFFFFFFFFFFFFFFFFFFFFFFFF
310
FFFFFFFFFFFFFFFFFFFFFFFFFFFFFFFFFFFFFFFFFFFFFFFFFFFFFFFFFFFFFFFF
310
FFFFFFFFFFFFFFFFFFFFFFFFFFFFFFFFFFFFFFFFFFFFFFFFFFFFFFFFFFFFFFFF
310
FFFFFFFFFFFFFFFFFFFFFFFFFFFFFFFFFFFFFFFFFFFFFFFFFFFFFFFFFFFFFFFF
310
FFFFFFFFFFFFFFFFFFFFFFFFFFFFFFFFFFFFFFFFFFFFFFFFFFFFFFFFFFFFFFFF
310
FFFFFFFFFFFFFFFFFFFFFFFFFFFFFFFFFFFFFFFFFFFFFFFFFFFFFFFFFFFFFFFF
310
FFFFFFFFFFFFFFFFFFFFFFFFFFFFFFFFFFFFFFFFFFFFFFFFFFFFFFFFFFFFFFFF
310
FFFFFFFFFFFFFFFFFFFFFFFFFFFFFFFFFFFFFFFFFFFFFFFFFFFFFFFFFFFFFFFF
310
FFFFFFFFFFFFFFFFFFFFFFFFFFFFFFFFFFFFFFFFFFFFFFFFFFFFFFFFFFFFFFFF
310
0100000200000000000000000000000000000000000000000000000000000000
310
0000000000000000000000000000000000000000000000000000000000000000
310
0100FEFF030A0000FFFFFFFF0A00030000000000C00000000000004607000000
310
5042727573680007000000504272757368000700000050427275736800F439B2
310
7100000000000000000000000000000000000000000000000000000000000000
310
0000000000000000000000000000000000000000000000000000000000000000
310
0000000000000000000000000000000000000000000000000000000000000000
310
0000000000000000000000000000000000000000000000000000000000000000
310
0000000000000000000000000000000000000000000000000000000000000000
310
0000000000000000000000000000000000000000000000000000000000000000
310
0000000000000000000000000000000000000000000000000000000000000000
310
0000000000000000000000000000000000000000000000000000000000000000
310
0000000000000000000000000000000000000000000000000000000000000000
310
0000000000000000000000000000000000000000000000000000000000000000
310
0000000000000000000000000000000000000000000000000000000000000000
310
0000000000000000000000000000000000000000000000000000000000000000
310
20260000424D0E260000000000003E00000028000000B40200006E0000000100
310
01000000000000000000130B0000130B00000200000002000000000000FFFFFF
310
FFFFFFFFFFFFFFFFFFFFFFFFFFFFFFFFFFFFFFFFFFFFFFFFFFFFFFFFFFFFFFFF
310
FFFFFFFFFFFFFFFFFFFFFFFFFFFFFFFFFFFFFFFFFFFFFFFFFFFFFFFFFFFFFFFF
310
FFFFFFFFFFFFFFFFFFFFFFFFFFFFFFFFFFFFFFFFFFFFFFFFF000FFFFFFFFFFFF
310
FFFFFFFFFFFFFFFFFFFFFFFFFFFFFFFFFFFFFFFFFFFFFFFFFFFFFFFFFFFFFFFF
310
FFFFFFFFFFFFFFFFFFFFFFFFFFFFFFFFFFFFFFFFFFFFFFFFFFFFFFFFFFFFFFFF
310
FFFFFFFFFFFFFFFFFFFFFFFFFFFFFFFFF000FFFFFFFFFFFFFFFFFFFFFFFFFFFF
310
FFFFFFFFFFFFFFFFFFFFFFFFFFFFFFFFFFFFFFFFFFFFFFFFFFFFFFFFFFFFFFFF
310
FFFFFFFFFFFFFFFFFFFFFFFFFFFFFFFFFFFFFFFFFFFFFFFFFFFFFFFFFFFFFFFF
310
FFFFFFFFFFFFFFFFF000FFFFFFFFFFFFFFFFFFFFFFFFFFFFFFFFFFFFFFFFFFFF
310
FFFFFFFFFFFFFFFFFFFFFFFFFFFFFFFFFFFFFFFFFFFFFFFFFFFFFFFFFFFFFFFF
310
FFFFFFFFFFFFFFFFFFFFFFFFFFFFFFFFFFFFFFFFFFFFFFFFFFFFFFFFFFFFFFFF
310
F000FFFFFFFFFFFFFFFFFFFFFFFFFFFFFFFFFFFFFFFFFFFFFFFFFFFFFFFFFFFF
310
FFFFFFFFFFFFFFFFFFFFFFFFFFFFFFFFFFFFFFFFFFFFFFFFFFFFFFFFFFFFFFFF
310
FFFFFFFFFFFFFFFFFFFFFFFFFFFFFFFFFFFFFFFFFFFFFFFFF000FFFFFFFFFFFF
310
FFFFFFFFFFFFFFFFFFFFFFFFFFFFFFFFFFFFFFFFFFFFFFFFFFFFFFFFFFFFFFFF
310
FFFFFFFFFFFFFFFFFFFFFFFFFFFFFFFFFFFFFFFFFFFFFFFFFFFFFFFFFFFFFFFF
310
FFFFFFFFFFFFFFFFFFFFFFFFFFFFFFFFF000FFFFFFFFFFFFFFFFFFFFFFFFFFFF
310
FFFFFFFFFFFFFFFFFFFFFFFFFFFFFFFFFFFFFFFFFFFFFFFFFFFFFFFFFFFFFFFF
310
FFFFFFFFFFFFFFFFFFFFFFFFFFFFFFFFFFFFFFFFFFFFFFFFFFFFFFFFFFFFFFFF
310
FFFFFFFFFFFFFFFFF000FFFFFFFFFFFFFFFFFFFFFFFFFFFFFFFFFFFFFFFFFFFF
310
FFFFFFFFFFFFFFFFFFFFFFFFFFFFFFFFFFFFFFFFFFFFFFFFFFFFFFFFFFFFFFFF
310
FFFFFFFFFFFFFFFFFFFFFFFFFFFFFFFFFFFFFFFFFFFFFFFFFFFFFFFFFFFFFFFF
310
F000FFFFFFFFFFFFFFFFFFFFFFFFFFFFFFFFFFFFFFFFFFFFFFFFFFFFFFFFFFFF
310
FFFFFFFFFFFFFFFFFFFFFFFFFFFFFFFFFFFFFFFFFFFFFFFFFFFFFFFFFFFFFFFF
310
FFFFFFFFFFFFFFFFFFFFFFFFFFFFFFFFFFFFFFFFFFFFFFFFF000FFFFFFFFFFFF
310
FFFFFFFFFFFFFFFFFFFFFFFFFFFFFFFFFFFFFFFFFFFFFFFFFFFFFFFFFFFFFFFF
310
FFFFFFFFFFFFFFFFFFFFFFFFFFFFFFFFFFFFFFFFFFFFFFFFFFFFFFFFFFFFFFFF
310
FFFFFFFFFFFFFFFFFFFFFFFFFFFFFFFFF000FFFFFFFFFFFFFFFFFFFFFFFFFFFF
310
FFFFFFFFFFFFFFFFFFFFFFFFFFFFFFFFFFFFFFFFFFFFFFFFFFFFFFFFFFFFFFFF
310
FFFFFFFFFFFFFFFFFFFFFFFFFFFFFFFFFFFFFFFFFFFFFFFFFFFFFFFFFFFFFFFF
310
FFFFFFFFFFFFFFFFF000FFFFFFFFFFFFFFFFFFFFFFFFFFFFFFFFFFFFFFFFFFFF
310
FFFFFFFFFFFFFFFFFFFFFFFFFFFFFFFFFFFFFFFFFFFFFFFFFFFFFFFFFFFFFFFF
310
FFFFFFFFFFFFFFFFFFFFFFFFFFFFFFFFFFFFFFFFFFFFFFFFFFFFFFFFFFFFFFFF
310
F000FFFFFFFFFFFFFFFFFFFFFFFFFFFFFFFFFFFFFFFFFFFFFFFFFFFFFFFFFFFF
310
FFFFFFFFFFFFFFFFFFFFFFFFFFFFFFFFFFFFFFFFFFFFFFFFFFFFFFFFFFFFFFFF
310
FFFFFFFFFFFFFFFFFFFFFFFFFFFFFFFFFFFFFFFFFFFFFFFFF000FFFFFFFFFFFF
310
FFFFFFFFFFFFFFFFFFFFFFFFFFFFFFFFFFFFFFFFFFFFFFFFFFFFFFFFFFFFFFFF
310
FFFFFFFFFFFFFFFFFFFFFFFFFFFFFFFFFFFFFFFFFFFFFFFFFFFFFFFFFFFFFFFF
310
FFFFFFFFFFFFFFFFFFFFFFFFFFFFFFFFF000FFFFFFFFFFFFFFFFFFFFFFFFFFFF
310
FFFFFFFFFFFFFFFFFFFFFFFFFFFFFFFFFFFFFFFFFFFFFFFFFFFFFFFFFFFFFFFF
310
FFFFFFFFFFFFFFFFFFFFFFFFFFFFFFFFFFFFFFFFFFFFFFFFFFFFFFFFFFFFFFFF
310
FFFFFFFFFFFFFFFFF000FFFFFFFFFFFFFFFFFFFFFFFFFFFFFFFFFFFFFFFFFFFF
310
FFFFFFFFFFFFFFFFFFFFFFFFFFFFFFFFFFFFFFFFFFFFFFFFFFFFFFFFFFFFFFFF
310
FFFFFFFFFFFFFFFFFFFFFFFFFFFFFFFFFFFFFFFFFFFFFFFFFFFFFFFFFFFFFFFF
310
F000FFFFFFFFFFFFFFFFFFFFFFFFFFFFFFFFFFFFFFFFFFFFFFFFFFFFFFFFFFFF
310
FFFFFFFFFFFFFFFFFFFFFFFFFFFFFFFFFFFFFFFFFFFFFFFFFFFFFFFFFFFFFFFF
310
FFFFFFFFFFFFFFFFFFFFFFFFFFFFFFFFFFFFFFFFFFFFFFFFF000FFFFFFFFFFFF
310
FFFFFFFFFFFFFFFFFFFFFFFFFFFFFFFFFFFFFFFFFFFFFFFFFFFFFFFFFFFFFFFF
310
FFFFFFFFFFFFFFFFFFFFFFFFFFFFFFFFFFFFFFFFFFFFFFFFFFFFFFFFFFFFFFFF
310
FFFFFFFFFFFFFFFFFFFFFFFFFFFFFFFFF000FFFFFFFFFFFFFFFFFFFFFFFFFFFF
310
FFFFFFFFFFFFFFFFFFFFFFFFFFFFFFFFFFFFFFFFFFFFFFFFFFFFFFFFFFFFFFFF
310
FFFFFFFFFFFFFFFFFFFFFFFFFFFFFFFFFFFFFFFFFFFFFFFFFFFFFFFFFFFFFFFF
310
FFFFFFFFFFFFFFFFF000FFFFF80003FFFFFFFFFFFFFFFFFFFFFFFFFFFFFFFFFF
310
FFFFF00007FFFFFFFFFF00007FFFFFF800000000000000007FFFFFFFFFFFFFFF
310
FFFFFFFC001FFFFFFFFFFFFFFC001FFFFFFFFFFFFFFFFFFFFFFFFFFE0007FFFF
310
F000FFFF8000007FFFFFFFF8000FFFFFC0007FFFFF80007FFFFF0000007FFFFF
310
FFF8000007FFFFF800000000000000007FFFFFF0001FFFFFFFFFFFC00001FFFF
310
FFFFFFFFC00001FFFFFFFF000000000003FFFFE000007FFFF000FFFE0000000F
310
FFFFFFF0000FFFFF80007FFFFF80007FFFFC0000001FFFFFFFC0000001FFFFF8
310
00000000000000007FFFFFF0001FFFFFFFFFFE0000003FFFFFFFFFFE0000003F
310
FFFFFF000000000003FFFF0000000FFFF000FFF800000003FFFFFFF00007FFFF
310
80007FFFFF80007FFFF000000007FFFFFF000000003FFFF80000000000000000
310
7FFFFFF0001FFFFFFFFFF80000000FFFFFFFFFF80000000FFFFFFF0000000000
310
03FFFC00000003FFF000FFE000000000FFFFFFF00007FFFF80003FFFFF80007F
310
FFC000000001FFFFFC000000001FFFF800000000000000007FFFFFF0001FFFFF
310
FFFFE000000003FFFFFFFFE000000003FFFFFF000000000003FFF000000000FF
310
F000FF80000000007FFFFFF00007FFFF80003FFFFF80007FFF8000000000FFFF
310
F80000000007FFF800000000000000007FFFFFF0001FFFFFFFFFC000000001FF
310
FFFFFFC000000001FFFFFF000000000003FFC0000000007FF000FF0000000000
310
3FFFFFE00007FFFF00003FFFFF80007FFE00000000003FFFF00000000003FFF8
310
00000000000000007FFFFFF0001FFFFFFFFF8000000000FFFFFFFF8000000000
310
FFFFFF000000000003FF80000000003FF000FE00000000001FFFFFE00003FFFF
310
00003FFFFF80007FFC00000000001FFFE00000000001FFF8000001FFFE000000
310
7FFFFFF0001FFFFFFFFE00000000003FFFFFFE00000000003FFFFF0000000000
310
03FF00000000001FF000FC00000000000FFFFFE00003FFFF00001FFFFF80007F
310
F800000000001FFFC00000000000FFF8000001FFFE0000007FFFFFF0001FFFFF
310
FFFC00000000001FFFFFFC00000000001FFFFF000000000003FE00000000000F
310
F000F8000000000007FFFFE00003FFFF00001FFFFF80007FF800000000000FFF
310
800000000000FFF8000001FFFE0000007FFFFFF0001FFFFFFFF800000000000F
310
FFFFF800000000000FFFFF000000000003FC000000000007F000F80000000000
310
03FFFFC00003FFFE00001FFFFF80007FF0000000000007FF0000000000007FF8
310
000001FFFE0000007FFFFFF0001FFFFFFFF0000000000007FFFFF00000000000
310
07FFFF000000000003F8000000000003F000F0000000000003FFFFC00001FFFE
310
00001FFFFF80007FE0000000000007FE0000000000003FF8000001FFFE000000
310
7FFFFFF0001FFFFFFFF0000000000007FFFFF0000000000007FFFF0000000000
310
03F800001F800003F000E00001FFF00001FFFFC00001FFFE00000FFFFF80007F
310
E00001FFE00003FE00001FFF00003FF8000001FFFE0000007FFFFFF0001FFFFF
310
FFE000003E000003FFFFE000003E000003FFFF000000000003F00001FFF80001
310
F000E00007FFFC0001FFFFC00001FFFE00000FFFFF80007FC0000FFFFC0003FC
310
0000FFFFC0001FF8000001FFFE0000007FFFFFF0001FFFFFFFC00003FFE00001
310
FFFFC00003FFE00001FFFF0001FFFFFFFFF00007FFFE0001F000E0000FFFFF00
310
00FFFF800001FFFC00000FFFFF80007FC0001FFFFE0001FC0001FFFFE0001FF8
310
000001FFFE0000007FFFFFF0001FFFFFFF80000FFFF80000FFFF80000FFFF800
310
00FFFF0003FFFFFFFFE0000FFFFF8000F000C0003FFFFF8000FFFF800000FFFC
310
000007FFFF80007F80003FFFFF0001FC0003FFFFF0001FF8000001FFFE000000
310
7FFFFFF0001FFFFFFF80003FFFFE0000FFFF80003FFFFE0000FFFF0003FFFFFF
310
FFE0003FFFFF8000F000C0003FFFFF8000FFFF800000FFFC000007FFFF80007F
310
80007FFFFF8001F80007FFFFF8000FF8000001FFFE0000007FFFFFF0001FFFFF
310
FF00007FFFFF00007FFF00007FFFFF00007FFF0003FFFFFFFFE0003FFFFFC000
310
F000C0007FFFFFC000FFFF000000FFFC000007FFFF80007F8000FFFFFF8000F8
310
000FFFFFF8000FF8000001FFFE0000007FFFFFF0001FFFFFFF0000FFFFFF8000
310
7FFF0000FFFFFF80007FFF0003FFFFFFFFC0007FFFFFC00070008000FFFFFFC0
310
00FFFF000000FFF8000007FFFF80007F8000FFFFFF8000F8000FFFFFF8000FF8
310
000001FFFE0000007FFFFFF0001FFFFFFE0001FFFFFFC0003FFE0001FFFFFFC0
310
003FFF0003FFFFFFFFC0007FFFFFE00070008000FFFFFFC0007FFF0000007FF8
310
000003FFFF80007F0001FFFFFF8000F8000FFFFFF8000FF8000001FFFE000000
310
7FFFFFF0001FFFFFFE0001FFFFFFC0003FFE0001FFFFFFC0003FFF0003FFFFFF
310
FFC000FFFFFFE00070008000FFFFFFC0007FFF0000007FF8000003FFFF80007F
310
0001FFFFFF8000F8001FFFFFF8000FF8000001FFFE0000007FFFFFF0001FFFFF
310
FE0003FFFFFFE0003FFE0003FFFFFFE0003FFF0003FFFFFFFFC000FFFFFFE000
310
70008000FFFFFFC0007FFE0000007FF8000003FFFF80007F0001FFFFFF8000F0
310
001FFFFFF8000FF8000001FFFE0000007FFFFFF0001FFFFFFC0003FFFFFFE000
310
1FFC0003FFFFFFE0001FFF0003FFFFFFFFC000FFFFFFC00070008000FFFFFF80
310
007FFE0000007FF0000003FFFF80007F0001FFFFFF0000F0001FFFFFF8000FF8
310
000001FFFE0000007FFFFFF0001FFFFFFC0007FFFFFFF0001FFC0007FFFFFFF0
310
001FFF0003FFFFFFFFC000FFFFFFC00070008001FFFFFF0000FFFE0000003FF0
310
000001FFFF80007F0001FFFFFF0000F8001FFFFFF0000FF8000001FFFE000000
310
7FFFFFF0001FFFFFFC0007FFFFFFF0001FFC0007FFFFFFF0001FFF0003FFFFFF
310
FFC001FFFFFF80007000FFFFFFFFFE0000FFFE0008003FF0008001FFFF80007F
310
FFFFFFFFFC0000FFFFFFFFFFE0000FF8000001FFFE0000007FFFFFF0001FFFFF
310
F8000FFFFFFFF8000FF8000FFFFFFFF8000FFF0003FFFFFFFFFFFFFFFFFF0000
310
7000FFFFFFFFFC0000FFFC0008003FF0008001FFFF80007FFFFFFFFFF80001FF
310
FFFFFFFF80000FF8000001FFFE0000007FFFFFF0001FFFFFF8000FFFFFFFF800
310
0FF8000FFFFFFFF8000FFF0003FFFFFFFFFFFFFFFFFE0000F000FFFFFFFFE000
310
00FFFC000C003FE000C001FFFF80007FFFFFFFFFC00001FFFFFFFFFE00001FF8
310
000001FFFE0000007FFFFFF0001FFFFFF8000FFFFFFFF8000FF8000FFFFFFFF8
310
000FFF0003FFFFFFFFFFFFFFFFF00000F000FFFFFFFE000001FFFC000C001FE0
310
00C000FFFF80007FFFFFFFFE000001FFFFFFFFE000001FF80FFFFFFFFFFFFFC0
310
7FFFFFF0001FFFFFF8000FFFFFFFF8000FF8000FFFFFFFF8000FFF0003FFFFFF
310
FFFFFFFFFF800000F000FFFFFFC0000001FFFC001C001FE001C000FFFF80007F
310
FFFFFF80000003FFFFFFF80000001FF80FFFFFFFFFFFFFC07FFFFFF0001FFFFF
310
F8001FFFFFFFFC000FF8001FFFFFFFFC000FFF0003FFFFFFFFFFFFFFF0000001
310
F000FFFFF800000001FFF8001C001FE001C000FFFF80007FFFFFF800000003FF
310
FFFF800000003FF80FFFFFFFFFFFFFC07FFFFFF0001FFFFFF8001FFFFFFFFC00
310
0FF8001FFFFFFFFC000FFF0003FFFFFFFFFFFFFE00000001F000FFFFC0000000
310
03FFF8001E001FC001E000FFFF80007FFFFF8000000007FFFFFC000000003FF8
310
0FFFFFFFFFFFFFC07FFFFFF0001FFFFFF8001FFFFFFFFC000FF8001FFFFFFFFC
310
000FFF0003FFFFFFFFFFFFE000000003F000FFFE0000000007FFF8001E000FC0
310
01E0007FFF80007FFFFE0000000007FFFFE0000000007FF80FFFFFFFFFFFFFC0
310
7FFFFFF0001FFFFFF0001FFFFFFFFC0007F0001FFFFFFFFC0007FF0003FFFFFF
310
FFFFFF0000000003F000FFF80000000007FFF8001E000FC003E0007FFF80007F
310
FFF0000000000FFFFF8000000000FFF80FFFFFFFFFFFFFC07FFFFFF0001FFFFF
310
F0001FFFFFFFFC0007F0001FFFFFFFFC0007FF0003FFFFFFFFFFFC0000000007
310
F000FFE0000000000FFFF0003E000FC003E0007FFF80007FFFC0000000001FFF
310
FE0000000001FFF80FFFFFFFFFFFFFC07FFFFFF0001FFFFFF0001FFFFFFFFC00
310
07F0001FFFFFFFFC0007FF0003FFFFFFFFFFF0000000000FF000FFC000000000
310
1FFFF0003F000F8003F0003FFF80007FFF80000000003FFFF80000000003FFF8
310
0FFFFFFFFFFFFFC07FFFFFF0001FFFFFF0001FFFFFFFFC0007F0001FFFFFFFFC
310
0007FF0003FFFFFFFFFFE0000000001FF000FF00000000007FFFF0003F000780
310
03F0003FFF80007FFF00000000007FFFF00000000007FFF80FFFFFFFFFFFFFC0
310
7FFFFFF0001FFFFFF0001FFFFFFFFC0007F0001FFFFFFFFC0007FF0003FFFFFF
310
FFFF80000000007FF000FE0000000000FFFFE0003F00078007F0003FFF80007F
310
FE0000000001FFFFE0000000001FFFF80FFFFFFFFFFFFFC07FFFFFF0001FFFFF
310
F0001FFFFFFFFC0007F0001FFFFFFFFC0007FF0003FFFFFFFFFF0000000000FF
310
F000FC0000000003FFFFE0007F00078007F0003FFF80007FFC0000000007FFFF
310
C0000000007FFFF80FFFFFFFFFFFFFC07FFFFFF0001FFFFFF8001FFFFFFFFC00
310
0FF8001FFFFFFFFC000FFF0003FFFFFFFFFE0000000003FFF000FC000000000F
310
FFFFE0007F80070007F8001FFF80007FF8000000001FFFFF8000000001FFFFF8
310
0FFFFFFFFFFFFFC07FFFFFF0001FFFFFF8001FFFFFFFFC000FF8001FFFFFFFFC
310
000FFF0003FFFFFFFFFC000000000FFFF000F8000000007FFFFFE0007F800700
310
07F8001FFF80007FF000000000FFFFFF800000000FFFFFF80FFFFFFFFFFFFFC0
310
7FFFFFF0001FFFFFF8000FFFFFFFF8000FF8000FFFFFFFF8000FFF0003FFFFFF
310
FFFC000000007FFFF000F800000007FFFFFFC0007F8003000FF8001FFF80007F
310
F000000007FFFFFF000000007FFFFFF80FFFFFFFFFFFFFC07FFFFFF0001FFFFF
310
F8000FFFFFFFF8000FF8000FFFFFFFF8000FFF0003FFFFFFFFF80000000FFFFF
310
F000F0000000FFFFFFFFC000FF8003000FF8001FFF80007FE0000000FFFFFFFF
310
0000000FFFFFFFF8000001FFFE0000007FFFFFF0001FFFFFF8000FFFFFFFF800
310
0FF8000FFFFFFFF8000FFF0003FFFFFFFFF8000000FFFFFFF000F000000FFFFF
310
FFFFC000FFC002000FF8000FFF80007FE000001FFFFFFFFE000001FFFFFFFFF8
310
000001FFFE0000007FFFFFF0001FFFFFF8000FFFFFFFF8000FF8000FFFFFFFF8
310
000FFF0003FFFFFFFFF000001FFFFFFFF000E00000FFFFFFFFFFC000FFC00200
310
0FFC000FFF80007FE00001FFFFFFFFFE00001FFFFFFFFFF8000001FFFE000000
310
7FFFFFF0001FFFFFFC000FFFFFFFF8001FFC000FFFFFFFF8001FFF0003FFFFFF
310
FFF00001FFFFFFFFF000E00007FFFFFFFFFF8000FFC000001FFC000FFF80007F
310
C0000FFFFFFFFFFE0000FFFFFFFFFFF8000001FFFE0000007FFFFFF0001FFFFF
310
FC0007FFFFFFF0001FFC0007FFFFFFF0001FFF0003FFFFFFFFF00007FFFFFFFF
310
F000E0001FFFFFFFFFFF8000FFC000001FFC000FFF80007FC0003FFFFFFFFFFE
310
0001FFFFFFFFFFF8000001FFFE0000007FFFFFF0001FFFFFFC0007FFFFFFF000
310
1FFC0007FFFFFFF0001FFF0003FFFFFFFFF0001FFFFFFFFFF000E0003FFFFF00
310
03FF8001FFE000001FFC0007FF80007FC0007FFFFF0007FC0003FFFFF0003FF8
310
000001FFFE0000007FFFFFF0001FFFFFFC0003FFFFFFE0001FFC0003FFFFFFE0
310
001FFF0003FFFFFFFFF0003FFFFFFFFFF000E0003FFFFF0001FF8001FFE00000
310
1FFE0007FF80007FC0007FFFFE0003FC0007FFFFE0003FF8000001FFFE000000
310
7FFFFFF0001FFFFFFE0003FFFFFFE0003FFE0003FFFFFFE0003FFF0003FFFFFF
310
FFF0003FFFFF8001F000E0003FFFFF0001FF0001FFE000001FFE0007FF80007F
310
C0007FFFFE0003FC0007FFFFE0003FF8000001FFFE0000007FFFFFF0001FFFFF
310
FE0001FFFFFFC0003FFE0001FFFFFFC0003FFF0003FFFFFFFFF0003FFFFF0001
310
F000E0003FFFFF0003FF0001FFE000003FFE0007FF80007FC0007FFFFE0003FC
310
0007FFFFE0003FF8000001FFFE0000007FFFFFF0001FFFFFFF0001FFFFFFC000
310
7FFF0001FFFFFFC0007FFF0003FFFFFFFFF0003FFFFF0001F000E0003FFFFE00
310
03FF0003FFF000003FFE0003FF80007FC0007FFFFC0003FE0007FFFFE0003FF8
310
000001FFFE0000007FFFFFF0001FFFFFFF0000FFFFFF80007FFF0000FFFFFF80
310
007FFF0003FFFFFFFFF0003FFFFF0001F000E0003FFFFE0003FF0003FFF00000
310
3FFF0003FF80007FC0007FFFFC0007FE0007FFFFC0003FF8000001FFFE000000
310
7FFFFFF0001FFFFFFF80007FFFFF0000FFFF80007FFFFF0000FFFF0003FFFFFF
310
FFF0003FFFFF0003F000E0003FFFFC0003FE0003FFF000003FFF0003FF80007F
310
E0003FFFF80007FE0003FFFFC0007FF8000001FFFE0000007FFFFFF0001FFFFF
310
FF80003FFFFE0000FFFF80003FFFFE0000FFFF0003FFFFFFFFF0001FFFFE0003
310
F000F0001FFFF80003FE0003FFF000007FFF0001FF80007FE0003FFFF00007FE
310
0001FFFF80007FF8000001FFFE0000007FFFFFF0001FFFFFFFC0000FFFF80001
310
FFFFC0000FFFF80001FFFF0003FFFFFFFFF0001FFFFC0003F000F0000FFFF000
310
07FE0007FFF800007FFF0001FF80007FE0001FFFE00007FF0000FFFE00007FF8
310
000001FFFE0000007FFFFFF0001FFFFFFFC00003FFE00001FFFFC00003FFE000
310
01FFFF0003FFFFFFFFF8000FFFF80003F000F00003FFC00007FC0007FFF80000
310
7FFF8001FF80007FF00007FF80000FFF00007FF80000FFF8000001FFFE000000
310
7F80000000000001FFE000003E000003FFFFE000003E000003FFFF0003FFFFFF
310
FFF80003FFE00007F000F800000000000FFC0007FFF800007FFF8001FF80007F
310
F000000000000FFF000000000000FFF8000001FFFE0000007F80000000000001
310
FFF0000000000007FFFFF0000000000007FFFF0003FFFFFFFFFC00007E000007
310
F000F800000000000FFC0007FFF80000FFFF8000FF80007FF800000000001FFF
310
800000000001FFF8000001FFFE0000007F80000000000001FFF800000000000F
310
FFFFF800000000000FFFFF0003FFFFFFFFFC00000000000FF000FC0000000000
310
1FFC0007FFFC0000FFFF8000FF80007FF800000000003FFFC00000000001FFF8
310
000001FFFE0000007F80000000000001FFF800000000000FFFFFF80000000000
310
0FFFFF0003FFFFFFFFFE00000000001FF000FE00000000003FF8000FFFFC0000
310
FFFF8000FF80007FFC00000000003FFFC00000000003FFF8000001FFFE000000
310
7F80000000000001FFFC00000000001FFFFFFC00000000001FFFFF0003FFFFFF
310
FFFF00000000001FF000FF00000000003FF8000FFFFC0000FFFFC000FF80007F
310
FE00000000007FFFE00000000007FFF8000001FFFE0000007F80000000000001
310
FFFE00000000003FFFFFFE00000000003FFFFF0003FFFFFFFFFF80000000003F
310
F000FF80000000007FF8000FFFFC0001FFFFC0007F80007FFF0000000000FFFF
310
F0000000000FFFF800000000000000007F80000000000001FFFF8000000000FF
310
FFFFFF8000000000FFFFFF0003FFFFFFFFFFC0000000007FF000FFC000000000
310
FFF8000FFFFE0001FFFFC0007F80007FFF8000000001FFFFF8000000001FFFF8
310
00000000000000007F80000000000001FFFFC000000001FFFFFFFFC000000001
310
FFFFFF0003FFFFFFFFFFE000000000FFF000FFE000000003FFF0001FFFFE0001
310
FFFFC0007F80007FFFC000000007FFFFFE000000003FFFF80000000000000000
310
7F80000000000001FFFFE000000003FFFFFFFFE000000003FFFFFF0003FFFFFF
310
FFFFF000000003FFF000FFF80000000FFFF0001FFFFE0001FFFFE0007F80007F
310
FFF00000000FFFFFFF00000000FFFFF800000000000000007F80000000000001
310
FFFFF80000000FFFFFFFFFF80000000FFFFFFF0003FFFFFFFFFFFC0000000FFF
310
F000FFFE0000003FFFF0001FFFFE0003FFFFE0003F80007FFFFC0000003FFFFF
310
FFC0000003FFFFF800000000000000007F80000000000001FFFFFE0000003FFF
310
FFFFFFFE0000003FFFFFFF0003FFFFFFFFFFFF0000003FFFF000FFFF800000FF
310
FFF0001FFFFF0003FFFFE0003F80007FFFFF000001FFFFFFFFF800001FFFFFF8
310
00000000000000007F80000000000001FFFFFFC00001FFFFFFFFFFFFC00001FF
310
FFFFFF0003FFFFFFFFFFFFC00000FFFFF000FFFFF8000FFFFFFFFFFFFFFFFFFF
310
FFFFFFFFFFFFFFFFFFFFF0001FFFFFFFFFFF0000FFFFFFF80000000000000000
310
7FFFFFFFFFFFFFFFFFFFFFFC001FFFFFFFFFFFFFFC001FFFFFFFFFFFFFFFFFFF
310
FFFFFFFC001FFFFFF000FFFFFFFFFFFFFFFFFFFFFFFFFFFFFFFFFFFFFFFFFFFF
310
FFFFFFFFFFFFFFFFFFFFFFFFFFFFFFFFFFFFFFFFFFFFFFFFFFFFFFFFFFFFFFFF
310
FFFFFFFFFFFFFFFFFFFFFFFFFFFFFFFFFFFFFFFFFFFFFFFFFFFFFFFFFFFFFFFF
310
F000FFFFFFFFFFFFFFFFFFFFFFFFFFFFFFFFFFFFFFFFFFFFFFFFFFFFFFFFFFFF
310
FFFFFFFFFFFFFFFFFFFFFFFFFFFFFFFFFFFFFFFFFFFFFFFFFFFFFFFFFFFFFFFF
310
FFFFFFFFFFFFFFFFFFFFFFFFFFFFFFFFFFFFFFFFFFFFFFFFF000FFFFFFFFFFFF
310
FFFFFFFFFFFFFFFFFFFFFFFFFFFFFFFFFFFFFFFFFFFFFFFFFFFFFFFFFFFFFFFF
310
FFFFFFFFFFFFFFFFFFFFFFFFFFFFFFFFFFFFFFFFFFFFFFFFFFFFFFFFFFFFFFFF
310
FFFFFFFFFFFFFFFFFFFFFFFFFFFFFFFFF000FFFFFFFFFFFFFFFFFFFFFFFFFFFF
310
FFFFFFFFFFFFFFFFFFFFFFFFFFFFFFFFFFFFFFFFFFFFFFFFFFFFFFFFFFFFFFFF
310
FFFFFFFFFFFFFFFFFFFFFFFFFFFFFFFFFFFFFFFFFFFFFFFFFFFFFFFFFFFFFFFF
310
FFFFFFFFFFFFFFFFF000FFFFFFFFFFFFFFFFFFFFFFFFFFFFFFFFFFFFFFFFFFFF
310
FFFFFFFFFFFFFFFFFFFFFFFFFFFFFFFFFFFFFFFFFFFFFFFFFFFFFFFFFFFFFFFF
310
FFFFFFFFFFFFFFFFFFFFFFFFFFFFFFFFFFFFFFFFFFFFFFFFFFFFFFFFFFFFFFFF
310
F000FFFFFFFFFFFFFFFFFFFFFFFFFFFFFFFFFFFFFFFFFFFFFFFFFFFFFFFFFFFF
310
FFFFFFFFFFFFFFFFFFFFFFFFFFFFFFFFFFFFFFFFFFFFFFFFFFFFFFFFFFFFFFFF
310
FFFFFFFFFFFFFFFFFFFFFFFFFFFFFFFFFFFFFFFFFFFFFFFFF000FFFFFFFFFFFF
310
FFFFFFFFFFFFFFFFFFFFFFFFFFFFFFFFFFFFFFFFFFFFFFFFFFFFFFFFFFFFFFFF
310
FFFFFFFFFFFFFFFFFFFFFFFFFFFFFFFFFFFFFFFFFFFFFFFFFFFFFFFFFFFFFFFF
310
FFFFFFFFFFFFFFFFFFFFFFFFFFFFFFFFF000FFFFFFFFFFFFFFFFFFFFFFFFFFFF
310
FFFFFFFFFFFFFFFFFFFFFFFFFFFFFFFFFFFFFFFFFFFFFFFFFFFFFFFFFFFFFFFF
310
FFFFFFFFFFFFFFFFFFFFFFFFFFFFFFFFFFFFFFFFFFFFFFFFFFFFFFFFFFFFFFFF
310
FFFFFFFFFFFFFFFFF000FFFFFFFFFFFFFFFFFFFFFFFFFFFFFFFFFFFFFFFFFFFF
310
FFFFFFFFFFFFFFFFFFFFFFFFFFFFFFFFFFFFFFFFFFFFFFFFFFFFFFFFFFFFFFFF
310
FFFFFFFFFFFFFFFFFFFFFFFFFFFFFFFFFFFFFFFFFFFFFFFFFFFFFFFFFFFFFFFF
310
F000FFFFFFFFFFFFFFFFFFFFFFFFFFFFFFFFFFFFFFFFFFFFFFFFFFFFFFFFFFFF
310
FFFFFFFFFFFFFFFFFFFFFFFFFFFFFFFFFFFFFFFFFFFFFFFFFFFFFFFFFFFFFFFF
310
FFFFFFFFFFFFFFFFFFFFFFFFFFFFFFFFFFFFFFFFFFFFFFFFF000FFFFFFFFFFFF
310
FFFFFFFFFFFFFFFFFFFFFFFFFFFFFFFFFFFFFFFFFFFFFFFFFFFFFFFFFFFFFFFF
310
FFFFFFFFFFFFFFFFFFFFFFFFFFFFFFFFFFFFFFFFFFFFFFFFFFFFFFFFFFFFFFFF
310
FFFFFFFFFFFFFFFFFFFFFFFFFFFFFFFFF000FFFFFFFFFFFFFFFFFFFFFFFFFFFF
310
FFFFFFFFFFFFFFFFFFFFFFFFFFFFFFFFFFFFFFFFFFFFFFFFFFFFFFFFFFFFFFFF
310
FFFFFFFFFFFFFFFFFFFFFFFFFFFFFFFFFFFFFFFFFFFFFFFFFFFFFFFFFFFFFFFF
310
FFFFFFFFFFFFFFFFF000FFFFFFFFFFFFFFFFFFFFFFFFFFFFFFFFFFFFFFFFFFFF
310
FFFFFFFFFFFFFFFFFFFFFFFFFFFFFFFFFFFFFFFFFFFFFFFFFFFFFFFFFFFFFFFF
310
FFFFFFFFFFFFFFFFFFFFFFFFFFFFFFFFFFFFFFFFFFFFFFFFFFFFFFFFFFFFFFFF
310
F000FFFFFFFFFFFFFFFFFFFFFFFFFFFFFFFFFFFFFFFFFFFFFFFFFFFFFFFFFFFF
310
FFFFFFFFFFFFFFFFFFFFFFFFFFFFFFFFFFFFFFFFFFFFFFFFFFFFFFFFFFFFFFFF
310
FFFFFFFFFFFFFFFFFFFFFFFFFFFFFFFFFFFFFFFFFFFFFFFFF000FFFFFFFFFFFF
310
FFFFFFFFFFFFFFFFFFFFFFFFFFFFFFFFFFFFFFFFFFFFFFFFFFFFFFFFFFFFFFFF
310
FFFFFFFFFFFFFFFFFFFFFFFFFFFFFFFFFFFFFFFFFFFFFFFFFFFFFFFFFFFFFFFF
310
FFFFFFFFFFFFFFFFFFFFFFFFFFFFFFFFF000FFFFFFFFFFFFFFFFFFFFFFFFFFFF
310
FFFFFFFFFFFFFFFFFFFFFFFFFFFFFFFFFFFFFFFFFFFFFFFFFFFFFFFFFFFFFFFF
310
FFFFFFFFFFFFFFFFFFFFFFFFFFFFFFFFFFFFFFFFFFFFFFFFFFFFFFFFFFFFFFFF
310
FFFFFFFFFFFFFFFFF000FFFFFFFFFFFFFFFFFFFFFFFFFFFFFFFFFFFFFFFFFFFF
310
FFFFFFFFFFFFFFFFFFFFFFFFFFFFFFFFFFFFFFFFFFFFFFFFFFFFFFFFFFFFFFFF
310
FFFFFFFFFFFFFFFFFFFFFFFFFFFFFFFFFFFFFFFFFFFFFFFFFFFFFFFFFFFFFFFF
310
F000FFFFFFFFFFFFFFFFFFFFFFFFFFFFFFFFFFFFFFFFFFFFFFFFFFFFFFFFFFFF
310
FFFFFFFFFFFFFFFFFFFFFFFFFFFFFFFFFFFFFFFFFFFFFFFFFFFFFFFFFFFFFFFF
310
FFFFFFFFFFFFFFFFFFFFFFFFFFFFFFFFFFFFFFFFFFFFFFFFF000FFFFFFFFFFFF
310
FFFFFFFFFFFFFFFFFFFFFFFFFFFFFFFFFFFFFFFFFFFFFFFFFFFFFFFFFFFFFFFF
310
FFFFFFFFFFFFFFFFFFFFFFFFFFFFFFFFFFFFFFFFFFFFFFFFFFFFFFFFFFFFFFFF
310
FFFFFFFFFFFFFFFFFFFFFFFFFFFFFFFFF000FFFFFFFFFFFFFFFFFFFFFFFFFFFF
310
FFFFFFFFFFFFFFFFFFFFFFFFFFFFFFFFFFFFFFFFFFFFFFFFFFFFFFFFFFFFFFFF
310
FFFFFFFFFFFFFFFFFFFFFFFFFFFFFFFFFFFFFFFFFFFFFFFFFFFFFFFFFFFFFFFF
310
FFFFFFFFFFFFFFFFF000FFFFFFFFFFFFFFFFFFFFFFFFFFFFFFFFFFFFFFFFFFFF
310
FFFFFFFFFFFFFFFFFFFFFFFFFFFFFFFFFFFFFFFFFFFFFFFFFFFFFFFFFFFFFFFF
310
FFFFFFFFFFFFFFFFFFFFFFFFFFFFFFFFFFFFFFFFFFFFFFFFFFFFFFFFFFFFFFFF
310
F000FFFFFFFFFFFFFFFFFFFFFFFFFFFFFFFFFFFFFFFFFFFFFFFFFFFFFFFFFFFF
310
FFFFFFFFFFFFFFFFFFFFFFFFFFFFFFFFFFFFFFFFFFFFFFFFFFFFFFFFFFFFFFFF
310
FFFFFFFFFFFFFFFFFFFFFFFFFFFFFFFFFFFFFFFFFFFFFFFFF000FFFFFFFFFFFF
310
FFFFFFFFFFFFFFFFFFFFFFFFFFFFFFFFFFFFFFFFFFFFFFFFFFFFFFFFFFFFFFFF
310
FFFFFFFFFFFFFFFFFFFFFFFFFFFFFFFFFFFFFFFFFFFFFFFFFFFFFFFFFFFFFFFF
310
FFFFFFFFFFFFFFFFFFFFFFFFFFFFFFFFF0000000000000000000000000000000
310
0000000000000000000000000000000000000000000000000000000000000000
310
0000000000000000000000000000000000000000000000000000000000000000
310
0000000000000000000000000000000000000000000000000000000000000000
310
0000000000000000000000000000000000000000000000000000000000000000
310
0000000000000000000000000000000000000000000000000000000000000000
310
0000000000000000000000000000000000000000000000000000000000000000
310
0000000000000000000000000000000000000000000000000000000000000000
310
0000000000000000000000000000000000000000000000000000000000000000
310
0000000000000000000000000000000000000000000000000000000000000000
310
0000000000000000000000000000000000000000000000000000000000000000
310
0000000000000000000000000000000000000000000000000000000000000000
310
0000000000000000000000000000000000000000000000000000000000000000
310
0000000000000000000000000000000000000000000000000000000000000000
310
0000000000000000000000000000000000000000000000000000000000000000
310
0000000000000000000000000000000000000000000000000000000000000000
  1
OLE
  0
ENDSEC
  0
SECTION
  2
OBJECTS
  0
DICTIONARY
  5
C
330
0
100
AcDbDictionary
281
     1
  3
ACAD_GROUP
350
D
  3
ACAD_LAYOUT
350
1A
  3
ACAD_MLINESTYLE
350
17
  3
ACAD_PLOTSETTINGS
350
19
  3
ACAD_PLOTSTYLENAME
350
E
  3
ACAD_SCALELIST
350
47
  0
DICTIONARY
  5
D
102
{ACAD_REACTORS
330
C
102
}
330
C
100
AcDbDictionary
281
     1
  0
DICTIONARY
  5
1A
102
{ACAD_REACTORS
330
C
102
}
330
C
100
AcDbDictionary
281
     1
  3
Layout1
350
1E
  3
Layout2
350
26
  3
Model
350
22
  0
DICTIONARY
  5
17
102
{ACAD_REACTORS
330
C
102
}
330
C
100
AcDbDictionary
281
     1
  3
Standard
350
18
  0
DICTIONARY
  5
19
102
{ACAD_REACTORS
330
C
102
}
330
C
100
AcDbDictionary
281
     1
  0
ACDBDICTIONARYWDFLT
  5
E
102
{ACAD_REACTORS
330
C
102
}
330
C
100
AcDbDictionary
281
     1
  3
Normal
350
F
100
AcDbDictionaryWithDefault
340
F
  0
DICTIONARY
  5
47
102
{ACAD_REACTORS
330
C
102
}
330
C
100
AcDbDictionary
281
     1
  3
A0
350
48
  3
A1
350
49
  3
A2
350
4A
  3
A3
350
4B
  3
A4
350
4C
  3
A5
350
4D
  3
A6
350
4E
  3
A7
350
4F
  3
A8
350
50
  3
A9
350
51
  3
B0
350
52
  3
B1
350
53
  3
B2
350
54
  3
B3
350
55
  3
B4
350
56
  3
B5
350
57
  3
B6
350
58
  3
B7
350
59
  3
B8
350
5A
  3
B9
350
5B
  3
C0
350
5C
  3
C1
350
5D
  3
C2
350
5E
  3
C3
350
5F
  3
C4
350
60
  3
C5
350
61
  3
C6
350
62
  3
C7
350
63
  3
C8
350
64
  3
C9
350
65
  3
D0
350
66
  3
D1
350
67
  3
D2
350
68
  0
LAYOUT
  5
1E
102
{ACAD_REACTORS
330
1A
102
}
330
1A
100
AcDbPlotSettings
  1

  2
none_device
  4

  6

 40
0.0
 41
0.0
 42
0.0
 43
0.0
 44
0.0
 45
0.0
 46
0.0
 47
0.0
 48
0.0
 49
0.0
140
0.0
141
0.0
142
1.0
143
1.0
 70
   688
 72
     1
 73
     0
 74
     5
  7

 75
    16
147
1.0
148
0.0
149
0.0
100
AcDbLayout
  1
Layout1
 70
     1
 71
     1
 10
0.0
 20
0.0
 11
420.0
 21
297.0
 12
0.0
 22
0.0
 32
0.0
 14
1.0000000000E+20
 24
1.0000000000E+20
 34
1.0000000000E+20
 15
-1.0000000000E+20
 25
-1.0000000000E+20
 35
-1.0000000000E+20
146
0.0
 13
0.0
 23
0.0
 33
0.0
 16
1.0
 26
0.0
 36
0.0
 17
0.0
 27
1.0
 37
0.0
 76
     0
330
1B
  0
LAYOUT
  5
26
102
{ACAD_REACTORS
330
1A
102
}
330
1A
100
AcDbPlotSettings
  1

  2
none_device
  4

  6

 40
0.0
 41
0.0
 42
0.0
 43
0.0
 44
0.0
 45
0.0
 46
0.0
 47
0.0
 48
0.0
 49
0.0
140
0.0
141
0.0
142
1.0
143
1.0
 70
   688
 72
     1
 73
     0
 74
     5
  7

 75
    16
147
1.0
148
0.0
149
0.0
100
AcDbLayout
  1
Layout2
 70
     1
 71
     2
 10
0.0
 20
0.0
 11
0.0
 21
0.0
 12
0.0
 22
0.0
 32
0.0
 14
0.0
 24
0.0
 34
0.0
 15
0.0
 25
0.0
 35
0.0
146
0.0
 13
0.0
 23
0.0
 33
0.0
 16
1.0
 26
0.0
 36
0.0
 17
0.0
 27
1.0
 37
0.0
 76
     0
330
23
  0
LAYOUT
  5
22
102
{ACAD_REACTORS
330
1A
102
}
330
1A
100
AcDbPlotSettings
  1

  2
none_device
  4
Letter_(8.50_x_11.00_Inches)
  6

 40
6.35
 41
6.35
 42
6.35000508
 43
6.35000508
 44
215.9
 45
279.4
 46
0.0
 47
0.0
 48
0.0
 49
0.0
140
0.0
141
0.0
142
1.0
143
1.0
 70
  1712
 72
     1
 73
     0
 74
     0
  7

 75
     0
147
1.0
148
0.0
149
0.0
100
AcDbLayout
  1
Model
 70
     1
 71
     0
 10
0.0
 20
0.0
 11
297.0
 21
210.0
 12
0.0
 22
0.0
 32
0.0
 14
0.0
 24
0.0
 34
0.0
 15
297.0
 25
210.0
 35
0.0
146
0.0
 13
0.0
 23
0.0
 33
0.0
 16
1.0
 26
0.0
 36
0.0
 17
0.0
 27
1.0
 37
0.0
 76
     0
330
1F
331
29
  0
MLINESTYLE
  5
18
102
{ACAD_REACTORS
330
17
102
}
330
17
100
AcDbMlineStyle
  2
Standard
 70
     0
  3

 62
   256
 51
90.0
 52
90.0
 71
     2
 49
0.5
 62
   256
  6
BYLAYER
 49
-0.5
 62
   256
  6
BYLAYER
  0
ACDBPLACEHOLDER
  5
F
102
{ACAD_REACTORS
330
E
102
}
330
E
  0
SCALE
  5
48
102
{ACAD_REACTORS
330
47
102
}
330
47
100
AcDbScale
 70
     0
300
1:1
140
1.0
141
1.0
290
     1
  0
SCALE
  5
49
102
{ACAD_REACTORS
330
47
102
}
330
47
100
AcDbScale
 70
     0
300
1:2
140
1.0
141
2.0
290
     0
  0
SCALE
  5
4A
102
{ACAD_REACTORS
330
47
102
}
330
47
100
AcDbScale
 70
     0
300
1:4
140
1.0
141
4.0
290
     0
  0
SCALE
  5
4B
102
{ACAD_REACTORS
330
47
102
}
330
47
100
AcDbScale
 70
     0
300
1:5
140
1.0
141
5.0
290
     0
  0
SCALE
  5
4C
102
{ACAD_REACTORS
330
47
102
}
330
47
100
AcDbScale
 70
     0
300
1:8
140
1.0
141
8.0
290
     0
  0
SCALE
  5
4D
102
{ACAD_REACTORS
330
47
102
}
330
47
100
AcDbScale
 70
     0
300
1:10
140
1.0
141
10.0
290
     0
  0
SCALE
  5
4E
102
{ACAD_REACTORS
330
47
102
}
330
47
100
AcDbScale
 70
     0
300
1:16
140
1.0
141
16.0
290
     0
  0
SCALE
  5
4F
102
{ACAD_REACTORS
330
47
102
}
330
47
100
AcDbScale
 70
     0
300
1:20
140
1.0
141
20.0
290
     0
  0
SCALE
  5
50
102
{ACAD_REACTORS
330
47
102
}
330
47
100
AcDbScale
 70
     0
300
1:30
140
1.0
141
30.0
290
     0
  0
SCALE
  5
51
102
{ACAD_REACTORS
330
47
102
}
330
47
100
AcDbScale
 70
     0
300
1:40
140
1.0
141
40.0
290
     0
  0
SCALE
  5
52
102
{ACAD_REACTORS
330
47
102
}
330
47
100
AcDbScale
 70
     0
300
1:50
140
1.0
141
50.0
290
     0
  0
SCALE
  5
53
102
{ACAD_REACTORS
330
47
102
}
330
47
100
AcDbScale
 70
     0
300
1:100
140
1.0
141
100.0
290
     0
  0
SCALE
  5
54
102
{ACAD_REACTORS
330
47
102
}
330
47
100
AcDbScale
 70
     0
300
2:1
140
2.0
141
1.0
290
     0
  0
SCALE
  5
55
102
{ACAD_REACTORS
330
47
102
}
330
47
100
AcDbScale
 70
     0
300
4:1
140
4.0
141
1.0
290
     0
  0
SCALE
  5
56
102
{ACAD_REACTORS
330
47
102
}
330
47
100
AcDbScale
 70
     0
300
8:1
140
8.0
141
1.0
290
     0
  0
SCALE
  5
57
102
{ACAD_REACTORS
330
47
102
}
330
47
100
AcDbScale
 70
     0
300
10:1
140
10.0
141
1.0
290
     0
  0
SCALE
  5
58
102
{ACAD_REACTORS
330
47
102
}
330
47
100
AcDbScale
 70
     0
300
100:1
140
100.0
141
1.0
290
     0
  0
SCALE
  5
59
102
{ACAD_REACTORS
330
47
102
}
330
47
100
AcDbScale
 70
     0
300
1/128" = 1'-0"
140
0.0078125
141
12.0
290
     0
  0
SCALE
  5
5A
102
{ACAD_REACTORS
330
47
102
}
330
47
100
AcDbScale
 70
     0
300
1/64" = 1'-0"
140
0.015625
141
12.0
290
     0
  0
SCALE
  5
5B
102
{ACAD_REACTORS
330
47
102
}
330
47
100
AcDbScale
 70
     0
300
1/32" = 1'-0"
140
0.03125
141
12.0
290
     0
  0
SCALE
  5
5C
102
{ACAD_REACTORS
330
47
102
}
330
47
100
AcDbScale
 70
     0
300
1/16" = 1'-0"
140
0.0625
141
12.0
290
     0
  0
SCALE
  5
5D
102
{ACAD_REACTORS
330
47
102
}
330
47
100
AcDbScale
 70
     0
300
3/32" = 1'-0"
140
0.09375
141
12.0
290
     0
  0
SCALE
  5
5E
102
{ACAD_REACTORS
330
47
102
}
330
47
100
AcDbScale
 70
     0
300
1/8" = 1'-0"
140
0.125
141
12.0
290
     0
  0
SCALE
  5
5F
102
{ACAD_REACTORS
330
47
102
}
330
47
100
AcDbScale
 70
     0
300
3/16" = 1'-0"
140
0.1875
141
12.0
290
     0
  0
SCALE
  5
60
102
{ACAD_REACTORS
330
47
102
}
330
47
100
AcDbScale
 70
     0
300
1/4" = 1'-0"
140
0.25
141
12.0
290
     0
  0
SCALE
  5
61
102
{ACAD_REACTORS
330
47
102
}
330
47
100
AcDbScale
 70
     0
300
3/8" = 1'-0"
140
0.375
141
12.0
290
     0
  0
SCALE
  5
62
102
{ACAD_REACTORS
330
47
102
}
330
47
100
AcDbScale
 70
     0
300
1/2" = 1'-0"
140
0.5
141
12.0
290
     0
  0
SCALE
  5
63
102
{ACAD_REACTORS
330
47
102
}
330
47
100
AcDbScale
 70
     0
300
3/4" = 1'-0"
140
0.75
141
12.0
290
     0
  0
SCALE
  5
64
102
{ACAD_REACTORS
330
47
102
}
330
47
100
AcDbScale
 70
     0
300
1" = 1'-0"
140
1.0
141
12.0
290
     0
  0
SCALE
  5
65
102
{ACAD_REACTORS
330
47
102
}
330
47
100
AcDbScale
 70
     0
300
1-1/2" = 1'-0"
140
1.5
141
12.0
290
     0
  0
SCALE
  5
66
102
{ACAD_REACTORS
330
47
102
}
330
47
100
AcDbScale
 70
     0
300
3" = 1'-0"
140
3.0
141
12.0
290
     0
  0
SCALE
  5
67
102
{ACAD_REACTORS
330
47
102
}
330
47
100
AcDbScale
 70
     0
300
6" = 1'-0"
140
6.0
141
12.0
290
     0
  0
SCALE
  5
68
102
{ACAD_REACTORS
330
47
102
}
330
47
100
AcDbScale
 70
     0
300
1'-0" = 1'-0"
140
12.0
141
12.0
290
     0
  0
ENDSEC
  0
EOF
