  0
SECTION
  2
HEADER
  9
$ACADVER
  1
AC1015
  9
$ACADMAINTVER
 70
     6
  9
$DWGCODEPAGE
  3
ANSI_1252
  9
$INSBASE
 10
0.0
 20
0.0
 30
0.0
  9
$EXTMIN
 10
0.0
 20
0.0
 30
0.0
  9
$EXTMAX
 10
297.0
 20
210.0
 30
0.0
  9
$LIMMIN
 10
0.0
 20
0.0
  9
$LIMMAX
 10
297.0
 20
210.0
  9
$ORTHOMODE
 70
     0
  9
$REGENMODE
 70
     1
  9
$FILLMODE
 70
     1
  9
$QTEXTMODE
 70
     0
  9
$MIRRTEXT
 70
     1
  9
$LTSCALE
 40
1.0
  9
$ATTMODE
 70
     1
  9
$TEXTSIZE
 40
2.0
  9
$TRACEWID
 40
1.0
  9
$TEXTSTYLE
  7
Standard
  9
$CLAYER
  8
0
  9
$CELTYPE
  6
ByLayer
  9
$CECOLOR
 62
   256
  9
$CELTSCALE
 40
1.0
  9
$DISPSILH
 70
     0
  9
$DIMSCALE
 40
1.0
  9
$DIMASZ
 40
3.0
  9
$DIMEXO
 40
0.0
  9
$DIMDLI
 40
3.75
  9
$DIMRND
 40
0.0
  9
$DIMDLE
 40
0.0
  9
$DIMEXE
 40
1.0
  9
$DIMTP
 40
0.0
  9
$DIMTM
 40
0.0
  9
$DIMTXT
 40
2.0
  9
$DIMCEN
 40
2.5
  9
$DIMTSZ
 40
0.0
  9
$DIMTOL
 70
     0
  9
$DIMLIM
 70
     0
  9
$DIMTIH
 70
     1
  9
$DIMTOH
 70
     1
  9
$DIMSE1
 70
     0
  9
$DIMSE2
 70
     0
  9
$DIMTAD
 70
     1
  9
$DIMZIN
 70
     0
  9
$DIMBLK
  1

  9
$DIMASO
 70
     1
  9
$DIMSHO
 70
     1
  9
$DIMPOST
  1

  9
$DIMAPOST
  1

  9
$DIMALT
 70
     0
  9
$DIMALTD
 70
     3
  9
$DIMALTF
 40
0.0393700787
  9
$DIMLFAC
 40
1.0
  9
$DIMTOFL
 70
     1
  9
$DIMTVP
 40
0.0
  9
$DIMTIX
 70
     0
  9
$DIMSOXD
 70
     0
  9
$DIMSAH
 70
     0
  9
$DIMBLK1
  1

  9
$DIMBLK2
  1

  9
$DIMSTYLE
  2
ISO-25
  9
$DIMCLRD
 70
     0
  9
$DIMCLRE
 70
     0
  9
$DIMCLRT
 70
     0
  9
$DIMTFAC
 40
1.0
  9
$DIMGAP
 40
1.524
  9
$DIMJUST
 70
     0
  9
$DIMSD1
 70
     0
  9
$DIMSD2
 70
     0
  9
$DIMTOLJ
 70
     0
  9
$DIMTZIN
 70
     0
  9
$DIMALTZ
 70
     0
  9
$DIMALTTZ
 70
     0
  9
$DIMUPT
 70
     0
  9
$DIMDEC
 70
     2
  9
$DIMTDEC
 70
     3
  9
$DIMALTU
 70
     2
  9
$DIMALTTD
 70
     3
  9
$DIMTXSTY
  7
Standard
  9
$DIMAUNIT
 70
     0
  9
$DIMADEC
 70
     2
  9
$DIMALTRND
 40
0.0
  9
$DIMAZIN
 70
     0
  9
$DIMDSEP
 70
    44
  9
$DIMATFIT
 70
     3
  9
$DIMFRAC
 70
     0
  9
$DIMLDRBLK
  1

  9
$DIMLUNIT
 70
     2
  9
$DIMLWD
 70
    -2
  9
$DIMLWE
 70
    -2
  9
$DIMTMOVE
 70
     0
  9
$LUNITS
 70
     2
  9
$LUPREC
 70
     2
  9
$SKETCHINC
 40
1.0
  9
$FILLETRAD
 40
10.0
  9
$AUNITS
 70
     0
  9
$AUPREC
 70
     2
  9
$MENU
  1
.
  9
$ELEVATION
 40
0.0
  9
$PELEVATION
 40
0.0
  9
$THICKNESS
 40
0.0
  9
$LIMCHECK
 70
     0
  9
$CHAMFERA
 40
0.0
  9
$CHAMFERB
 40
0.0
  9
$CHAMFERC
 40
0.0
  9
$CHAMFERD
 40
0.0
  9
$SKPOLY
 70
     0
  9
$TDCREATE
 40
2457632.463697674
  9
$TDUCREATE
 40
2457632.38036434
  9
$TDUPDATE
 40
2457632.463699016
  9
$TDUUPDATE
 40
2457632.380365683
  9
$TDINDWG
 40
0.0000000116
  9
$TDUSRTIMER
 40
0.0000000116
  9
$USRTIMER
 70
     1
  9
$ANGBASE
 50
0.0
  9
$ANGDIR
 70
     0
  9
$PDMODE
 70
     0
  9
$PDSIZE
 40
-1.0
  9
$PLINEWID
 40
0.0
  9
$SPLFRAME
 70
     0
  9
$SPLINETYPE
 70
     6
  9
$SPLINESEGS
 70
     8
  9
$HANDSEED
  5
2E0
  9
$SURFTAB1
 70
     6
  9
$SURFTAB2
 70
     6
  9
$SURFTYPE
 70
     6
  9
$SURFU
 70
     6
  9
$SURFV
 70
     6
  9
$UCSBASE
  2

  9
$UCSNAME
  2

  9
$UCSORG
 10
0.0
 20
0.0
 30
0.0
  9
$UCSXDIR
 10
1.0
 20
0.0
 30
0.0
  9
$UCSYDIR
 10
0.0
 20
1.0
 30
0.0
  9
$UCSORTHOREF
  2

  9
$UCSORTHOVIEW
 70
     0
  9
$UCSORGTOP
 10
0.0
 20
0.0
 30
0.0
  9
$UCSORGBOTTOM
 10
0.0
 20
0.0
 30
0.0
  9
$UCSORGLEFT
 10
0.0
 20
0.0
 30
0.0
  9
$UCSORGRIGHT
 10
0.0
 20
0.0
 30
0.0
  9
$UCSORGFRONT
 10
0.0
 20
0.0
 30
0.0
  9
$UCSORGBACK
 10
0.0
 20
0.0
 30
0.0
  9
$PUCSBASE
  2

  9
$PUCSNAME
  2

  9
$PUCSORG
 10
0.0
 20
0.0
 30
0.0
  9
$PUCSXDIR
 10
1.0
 20
0.0
 30
0.0
  9
$PUCSYDIR
 10
0.0
 20
1.0
 30
0.0
  9
$PUCSORTHOREF
  2

  9
$PUCSORTHOVIEW
 70
     0
  9
$PUCSORGTOP
 10
0.0
 20
0.0
 30
0.0
  9
$PUCSORGBOTTOM
 10
0.0
 20
0.0
 30
0.0
  9
$PUCSORGLEFT
 10
0.0
 20
0.0
 30
0.0
  9
$PUCSORGRIGHT
 10
0.0
 20
0.0
 30
0.0
  9
$PUCSORGFRONT
 10
0.0
 20
0.0
 30
0.0
  9
$PUCSORGBACK
 10
0.0
 20
0.0
 30
0.0
  9
$USERI1
 70
     0
  9
$USERI2
 70
     0
  9
$USERI3
 70
     0
  9
$USERI4
 70
     0
  9
$USERI5
 70
     0
  9
$USERR1
 40
0.0
  9
$USERR2
 40
0.0
  9
$USERR3
 40
0.0
  9
$USERR4
 40
0.0
  9
$USERR5
 40
0.0
  9
$WORLDVIEW
 70
     1
  9
$SHADEDGE
 70
     3
  9
$SHADEDIF
 70
    70
  9
$TILEMODE
 70
     1
  9
$MAXACTVP
 70
    64
  9
$PINSBASE
 10
0.0
 20
0.0
 30
0.0
  9
$PLIMCHECK
 70
     0
  9
$PEXTMIN
 10
1.0000000000E+20
 20
1.0000000000E+20
 30
1.0000000000E+20
  9
$PEXTMAX
 10
-1.0000000000E+20
 20
-1.0000000000E+20
 30
-1.0000000000E+20
  9
$PLIMMIN
 10
0.0
 20
0.0
  9
$PLIMMAX
 10
420.0
 20
297.0
  9
$UNITMODE
 70
     0
  9
$VISRETAIN
 70
     1
  9
$PLINEGEN
 70
     0
  9
$PSLTSCALE
 70
     1
  9
$TREEDEPTH
 70
  3020
  9
$CMLSTYLE
  2
Standard
  9
$CMLJUST
 70
     0
  9
$CMLSCALE
 40
20.0
  9
$PROXYGRAPHICS
 70
     1
  9
$MEASUREMENT
 70
     1
  9
$CELWEIGHT
370
    -1
  9
$ENDCAPS
280
     0
  9
$JOINSTYLE
280
     0
  9
$LWDISPLAY
290
     1
  9
$INSUNITS
 70
     4
  9
$HYPERLINKBASE
  1

  9
$STYLESHEET
  1

  9
$XEDIT
290
     1
  9
$CEPSNTYPE
380
     0
  9
$PSTYLEMODE
290
     1
  9
$FINGERPRINTGUID
  2
{CE42D231-6447-41CC-B0DE-D7536676529E}
  9
$VERSIONGUID
  2
{FAEB1C32-E019-11D5-929B-00C0DF256EC4}
  9
$EXTNAMES
290
     1
  9
$PSVPSCALE
 40
0.0
  9
$OLESTARTUP
290
     0
  0
ENDSEC
  0
SECTION
  2
CLASSES
  0
CLASS
  1
ACDBDICTIONARYWDFLT
  2
AcDbDictionaryWithDefault
  3
ObjectDBX Classes
 90
        0
280
     0
281
     0
  0
CLASS
  1
VISUALSTYLE
  2
AcDbVisualStyle
  3
ObjectDBX Classes
 90
     4095
280
     0
281
     0
  0
CLASS
  1
MATERIAL
  2
AcDbMaterial
  3
ObjectDBX Classes
 90
     1153
280
     0
281
     0
  0
CLASS
  1
SCALE
  2
AcDbScale
  3
ObjectDBX Classes
 90
     1153
280
     0
281
     0
  0
CLASS
  1
TABLESTYLE
  2
AcDbTableStyle
  3
ObjectDBX Classes
 90
     4095
280
     0
281
     0
  0
CLASS
  1
MLEADERSTYLE
  2
AcDbMLeaderStyle
  3
ACDB_MLEADERSTYLE_CLASS
 90
     4095
280
     0
281
     0
  0
CLASS
  1
SUN
  2
AcDbSun
  3
SCENEOE
 90
     1153
280
     0
281
     0
  0
CLASS
  1
ACDBPLACEHOLDER
  2
AcDbPlaceHolder
  3
ObjectDBX Classes
 90
        0
280
     0
281
     0
  0
CLASS
  1
LAYOUT
  2
AcDbLayout
  3
ObjectDBX Classes
 90
        0
280
     0
281
     0
  0
ENDSEC
  0
SECTION
  2
TABLES
  0
TABLE
  2
VPORT
  5
8
330
0
100
AcDbSymbolTable
 70
     1
  0
VPORT
  5
29
330
8
100
AcDbSymbolTableRecord
100
AcDbViewportTableRecord
  2
*Active
 70
     0
 10
0.0
 20
0.0
 11
1.0
 21
1.0
 12
148.5
 22
105.0
 13
0.0
 23
0.0
 14
10.0
 24
10.0
 15
10.0
 25
10.0
 16
0.0
 26
0.0
 36
1.0
 17
0.0
 27
0.0
 37
0.0
 40
210.0
 41
1.4142857143
 42
50.0
 43
0.0
 44
0.0
 50
0.0
 51
0.0
 71
     0
 72
  2000
 73
     1
 74
     3
 75
     0
 76
     0
 77
     0
 78
     0
281
     0
 65
     1
110
0.0
120
0.0
130
0.0
111
1.0
121
0.0
131
0.0
112
0.0
122
1.0
132
0.0
 79
     0
146
0.0
  0
ENDTAB
  0
TABLE
  2
LTYPE
  5
5
330
0
100
AcDbSymbolTable
 70
     6
  0
LTYPE
  5
14
330
5
100
AcDbSymbolTableRecord
100
AcDbLinetypeTableRecord
  2
ByBlock
 70
     0
  3

 72
    65
 73
     0
 40
0.0
  0
LTYPE
  5
15
330
5
100
AcDbSymbolTableRecord
100
AcDbLinetypeTableRecord
  2
ByLayer
 70
     0
  3

 72
    65
 73
     0
 40
0.0
  0
LTYPE
  5
16
330
5
100
AcDbSymbolTableRecord
100
AcDbLinetypeTableRecord
  2
Continuous
 70
     0
  3
Solid line
 72
    65
 73
     0
 40
0.0
  0
LTYPE
  5
6E
330
5
100
AcDbSymbolTableRecord
100
AcDbLinetypeTableRecord
  2
HIDDEN
 70
     0
  3
Hidden __ __ __ __ __ __ __ __ __ __ __ __ __ __
 72
    65
 73
     2
 40
1.905
 49
1.27
 74
     0
 49
-0.635
 74
     0
  0
LTYPE
  5
6F
330
5
100
AcDbSymbolTableRecord
100
AcDbLinetypeTableRecord
  2
PHANTOM
 70
     0
  3
Phantom ______  __  __  ______  __  __  ______
 72
    65
 73
     6
 40
12.7
 49
6.35
 74
     0
 49
-1.27
 74
     0
 49
1.27
 74
     0
 49
-1.27
 74
     0
 49
1.27
 74
     0
 49
-1.27
 74
     0
  0
LTYPE
  5
70
330
5
100
AcDbSymbolTableRecord
100
AcDbLinetypeTableRecord
  2
CENTER
 70
     0
  3
Center ____ _ ____ _ ____ _ ____ _ ____ _ ____
 72
    65
 73
     4
 40
10.16
 49
6.35
 74
     0
 49
-1.27
 74
     0
 49
1.27
 74
     0
 49
-1.27
 74
     0
  0
LTYPE
  5
71
330
5
100
AcDbSymbolTableRecord
100
AcDbLinetypeTableRecord
  2
CENTERX2
 70
     0
  3
Center (2x) ________  __  ________  __  _____
 72
    65
 73
     4
 40
20.32
 49
12.7
 74
     0
 49
-2.54
 74
     0
 49
2.54
 74
     0
 49
-2.54
 74
     0
  0
LTYPE
  5
72
330
5
100
AcDbSymbolTableRecord
100
AcDbLinetypeTableRecord
  2
DOT2
 70
     0
  3
Dot (.5x) ........................................
 72
    65
 73
     2
 40
0.635
 49
0.0
 74
     0
 49
-0.635
 74
     0
  0
ENDTAB
  0
TABLE
  2
LAYER
  5
2
330
0
100
AcDbSymbolTable
 70
     5
  0
LAYER
  5
10
330
2
100
AcDbSymbolTableRecord
100
AcDbLayerTableRecord
  2
0
 70
     0
 62
     7
  6
Continuous
370
    -3
390
F
  0
LAYER
  5
73
330
2
100
AcDbSymbolTableRecord
100
AcDbLayerTableRecord
  2
FORMAT
 70
     0
 62
     7
  6
Continuous
370
    -3
390
F
  0
LAYER
  5
74
330
2
100
AcDbSymbolTableRecord
100
AcDbLayerTableRecord
  2
VERMASSUNG
 70
     0
 62
     7
  6
Continuous
370
    -3
390
F
  0
LAYER
  5
75
330
2
100
AcDbSymbolTableRecord
100
AcDbLayerTableRecord
  2
KOPF_DÜNN
 70
     0
 62
     7
  6
Continuous
370
    -3
390
F
  0
LAYER
  5
76
330
2
100
AcDbSymbolTableRecord
100
AcDbLayerTableRecord
  2
KOPF_DICK
 70
     0
 62
     7
  6
Continuous
370
    15
390
F
  0
ENDTAB
  0
TABLE
  2
STYLE
  5
3
330
0
100
AcDbSymbolTable
 70
     2
  0
STYLE
  5
11
330
3
100
AcDbSymbolTableRecord
100
AcDbTextStyleTableRecord
  2
Standard
 70
     0
 40
0.0
 41
1.0
 50
0.0
 71
     0
 42
2.0
  3
txt
  4

  0
STYLE
  5
77
330
3
100
AcDbSymbolTableRecord
100
AcDbTextStyleTableRecord
  2
SLDTEXTSTYLE0
 70
     0
 40
0.0
 41
0.7
 50
0.0
 71
     0
 42
2.0
  3
TXT
  4

  0
ENDTAB
  0
TABLE
  2
VIEW
  5
6
330
0
100
AcDbSymbolTable
 70
     0
  0
ENDTAB
  0
TABLE
  2
UCS
  5
7
330
0
100
AcDbSymbolTable
 70
     0
  0
ENDTAB
  0
TABLE
  2
APPID
  5
9
330
0
100
AcDbSymbolTable
 70
     1
  0
APPID
  5
12
330
9
100
AcDbSymbolTableRecord
100
AcDbRegAppTableRecord
  2
ACAD
 70
     0
  0
ENDTAB
  0
TABLE
  2
DIMSTYLE
  5
A
330
0
100
AcDbSymbolTable
 70
     2
100
AcDbDimStyleTable
  0
DIMSTYLE
105
27
330
A
100
AcDbSymbolTableRecord
100
AcDbDimStyleTableRecord
  2
ISO-25
 70
     0
 41
2.5
 42
0.625
 43
3.75
 44
1.25
 73
     0
 74
     0
 77
     1
 78
     8
140
2.5
141
2.5
143
0.0393700787
147
0.625
171
     3
172
     1
178
     0
271
     2
272
     2
274
     3
278
    44
283
     0
284
     8
340
11
  0
DIMSTYLE
105
1D1
102
{ACAD_REACTORS
330
1D0
330
1DD
330
1E9
330
1F3
330
1FD
102
}
330
A
100
AcDbSymbolTableRecord
100
AcDbDimStyleTableRecord
  2
SLDDIMSTYLE0
 70
     0
 41
3.0
 44
0.0
 45
0.000000001
 73
     0
 74
     0
 77
     1
 78
    12
 79
     3
140
2.0
147
0.5
173
     1
178
     0
271
     2
272
     3
276
     2
284
    12
340
77
  0
ENDTAB
  0
TABLE
  2
BLOCK_RECORD
  5
1
330
0
100
AcDbSymbolTable
 70
     6
  0
BLOCK_RECORD
  5
1F
330
1
100
AcDbSymbolTableRecord
100
AcDbBlockTableRecord
  2
*Model_Space
340
22
  0
BLOCK_RECORD
  5
1B
330
1
100
AcDbSymbolTableRecord
100
AcDbBlockTableRecord
  2
*Paper_Space
340
1E
  0
BLOCK_RECORD
  5
23
330
1
100
AcDbSymbolTableRecord
100
AcDbBlockTableRecord
  2
*Paper_Space0
340
26
  0
BLOCK_RECORD
  5
1D2
330
1
100
AcDbSymbolTableRecord
100
AcDbBlockTableRecord
  2
_D
340
0
  0
BLOCK_RECORD
  5
1DE
330
1
100
AcDbSymbolTableRecord
100
AcDbBlockTableRecord
  2
_D_1
340
0
  0
BLOCK_RECORD
  5
1EA
330
1
100
AcDbSymbolTableRecord
100
AcDbBlockTableRecord
  2
_D_2
340
0
  0
BLOCK_RECORD
  5
1F4
330
1
100
AcDbSymbolTableRecord
100
AcDbBlockTableRecord
  2
_D_3
340
0
  0
BLOCK_RECORD
  5
1FE
330
1
100
AcDbSymbolTableRecord
100
AcDbBlockTableRecord
  2
_D_4
340
0
  0
ENDTAB
  0
ENDSEC
  0
SECTION
  2
BLOCKS
  0
BLOCK
  5
20
330
1F
100
AcDbEntity
  8
0
100
AcDbBlockBegin
  2
*Model_Space
 70
     0
 10
0.0
 20
0.0
 30
0.0
  3
*Model_Space
  1

  0
ENDBLK
  5
21
330
1F
100
AcDbEntity
  8
0
100
AcDbBlockEnd
  0
BLOCK
  5
1C
330
1B
100
AcDbEntity
 67
     1
  8
0
100
AcDbBlockBegin
  2
*Paper_Space
 70
     0
 10
0.0
 20
0.0
 30
0.0
  3
*Paper_Space
  1

  0
ENDBLK
  5
1D
330
1B
100
AcDbEntity
 67
     1
  8
0
100
AcDbBlockEnd
  0
BLOCK
  5
24
330
23
100
AcDbEntity
  8
0
100
AcDbBlockBegin
  2
*Paper_Space0
 70
     0
 10
0.0
 20
0.0
 30
0.0
  3
*Paper_Space0
  1

  0
ENDBLK
  5
25
330
23
100
AcDbEntity
  8
0
100
AcDbBlockEnd
  0
BLOCK
  5
1D3
330
1D2
100
AcDbEntity
  8
0
100
AcDbBlockBegin
  2
_D
 70
     0
 10
0.0
 20
0.0
 30
0.0
  3
_D
  1

  0
SOLID
  5
1D5
330
1D2
100
AcDbEntity
  8
VERMASSUNG
100
AcDbTrace
 10
37.6440905521
 20
76.1387739774
 30
0.0
 11
38.0940905521
 21
79.1387739774
 31
0.0
 12
37.1940905521
 22
79.1387739774
 32
0.0
 13
37.1940905521
 23
79.1387739774
 33
0.0
  0
SOLID
  5
1D6
330
1D2
100
AcDbEntity
  8
VERMASSUNG
100
AcDbTrace
 10
37.6440905521
 20
173.5887739774
 30
0.0
 11
37.1940905521
 21
170.5887739774
 31
0.0
 12
38.0940905521
 22
170.5887739774
 32
0.0
 13
38.0940905521
 23
170.5887739774
 33
0.0
  0
LINE
  5
1D7
330
1D2
100
AcDbEntity
  8
VERMASSUNG
100
AcDbLine
 10
164.4607977339
 20
76.1387739774
 30
0.0
 11
36.6440905521
 21
76.1387739774
 31
0.0
  0
LINE
  5
1D8
330
1D2
100
AcDbEntity
  8
VERMASSUNG
100
AcDbLine
 10
164.4607977339
 20
173.5887739774
 30
0.0
 11
36.6440905521
 21
173.5887739774
 31
0.0
  0
LINE
  5
1D9
330
1D2
100
AcDbEntity
  8
VERMASSUNG
100
AcDbLine
 10
37.6440905521
 20
76.1387739774
 30
0.0
 11
37.6440905521
 21
173.5887739774
 31
0.0
  0
MTEXT
  5
1DA
330
1D2
100
AcDbEntity
  8
VERMASSUNG
100
AcDbMText
 10
34.8659552959
 20
115.3593383441
 30
0.0
 40
2.0
 41
0.0
 71
     1
 72
     1
  1
ISO 50
  7
SLDTEXTSTYLE0
 11
3.391901413832837E-15
 21
1.0
 31
0.0
 73
     1
 44
1.0
  0
MTEXT
  5
1DB
330
1D2
100
AcDbEntity
  8
VERMASSUNG
100
AcDbMText
 10
35.0659552472
 20
124.3593379566
 30
0.0
 40
2.0
 41
0.0
 71
     1
 72
     1
  1
%%c
  7
SLDTEXTSTYLE0
 11
3.391901413832837E-15
 21
1.0
 31
0.0
 73
     1
 44
1.0
  0
MTEXT
  5
1DC
330
1D2
100
AcDbEntity
  8
VERMASSUNG
100
AcDbMText
 10
35.0659549561
 20
127.9686812895
 30
0.0
 40
2.0
 41
0.0
 71
     1
 72
     1
  1
97.45
  7
SLDTEXTSTYLE0
 11
3.391901413832837E-15
 21
1.0
 31
0.0
 73
     1
 44
1.0
  0
ENDBLK
  5
1D4
330
1D2
100
AcDbEntity
  8
0
100
AcDbBlockEnd
  0
BLOCK
  5
1DF
330
1DE
100
AcDbEntity
  8
0
100
AcDbBlockBegin
  2
_D_1
 70
     0
 10
0.0
 20
0.0
 30
0.0
  3
_D_1
  1

  0
ARC
  5
1E1
330
1DE
100
AcDbEntity
  8
VERMASSUNG
100
AcDbCircle
 10
143.8725912457
 20
189.6203928664
 30
0.0
 40
4.24705993853731
100
AcDbArc
 50
153.4349488229
 51
206.5650511771
  0
ARC
  5
1E2
330
1DE
100
AcDbEntity
  8
VERMASSUNG
100
AcDbCircle
 10
145.649004222
 20
189.6203928664
 30
0.0
 40
4.24705993853726
100
AcDbArc
 50
333.4349488229
 51
26.5650511771
  0
SOLID
  5
1E3
330
1DE
100
AcDbEntity
  8
VERMASSUNG
100
AcDbTrace
 10
44.4107977339
 20
187.721049921
 30
0.0
 11
47.4107977339
 21
187.271049921
 31
0.0
 12
47.4107977339
 22
188.171049921
 32
0.0
 13
47.4107977339
 23
188.171049921
 33
0.0
  0
SOLID
  5
1E4
330
1DE
100
AcDbEntity
  8
VERMASSUNG
100
AcDbTrace
 10
245.1107977339
 20
187.721049921
 30
0.0
 11
242.1107977339
 21
188.171049921
 31
0.0
 12
242.1107977339
 22
187.271049921
 32
0.0
 13
242.1107977339
 23
187.271049921
 33
0.0
  0
LINE
  5
1E5
330
1DE
100
AcDbEntity
  8
VERMASSUNG
100
AcDbLine
 10
44.4107977339
 20
143.2426185048
 30
0.0
 11
44.4107977339
 21
188.721049921
 31
0.0
  0
LINE
  5
1E6
330
1DE
100
AcDbEntity
  8
VERMASSUNG
100
AcDbLine
 10
245.1107977339
 20
145.4637739774
 30
0.0
 11
245.1107977339
 21
188.721049921
 31
0.0
  0
LINE
  5
1E7
330
1DE
100
AcDbEntity
  8
VERMASSUNG
100
AcDbLine
 10
44.4107977339
 20
187.721049921
 30
0.0
 11
245.1107977339
 21
187.721049921
 31
0.0
  0
MTEXT
  5
1E8
330
1DE
100
AcDbEntity
  8
VERMASSUNG
100
AcDbMText
 10
141.6614053549
 20
190.2991855169
 30
0.0
 40
2.0
 41
0.0
 71
     1
 72
     1
  1
200.7
  7
SLDTEXTSTYLE0
 73
     1
 44
1.0
  0
ENDBLK
  5
1E0
330
1DE
100
AcDbEntity
  8
0
100
AcDbBlockEnd
  0
BLOCK
  5
1EB
330
1EA
100
AcDbEntity
  8
0
100
AcDbBlockBegin
  2
_D_2
 70
     0
 10
0.0
 20
0.0
 30
0.0
  3
_D_2
  1

  0
SOLID
  5
1ED
330
1EA
100
AcDbEntity
  8
VERMASSUNG
100
AcDbTrace
 10
146.0107977339
 20
181.721049921
 30
0.0
 11
149.0107977339
 21
181.271049921
 31
0.0
 12
149.0107977339
 22
182.171049921
 32
0.0
 13
149.0107977339
 23
182.171049921
 33
0.0
  0
SOLID
  5
1EE
330
1EA
100
AcDbEntity
  8
VERMASSUNG
100
AcDbTrace
 10
245.1107977339
 20
181.721049921
 30
0.0
 11
242.1107977339
 21
182.171049921
 31
0.0
 12
242.1107977339
 22
181.271049921
 32
0.0
 13
242.1107977339
 23
181.271049921
 33
0.0
  0
LINE
  5
1EF
330
1EA
100
AcDbEntity
  8
VERMASSUNG
100
AcDbLine
 10
146.0107977339
 20
159.7887739774
 30
0.0
 11
146.0107977339
 21
182.721049921
 31
0.0
  0
LINE
  5
1F0
330
1EA
100
AcDbEntity
  8
VERMASSUNG
100
AcDbLine
 10
245.1107977339
 20
145.4637739774
 30
0.0
 11
245.1107977339
 21
182.721049921
 31
0.0
  0
LINE
  5
1F1
330
1EA
100
AcDbEntity
  8
VERMASSUNG
100
AcDbLine
 10
146.0107977339
 20
181.721049921
 30
0.0
 11
245.1107977339
 21
181.721049921
 31
0.0
  0
MTEXT
  5
1F2
330
1EA
100
AcDbEntity
  8
VERMASSUNG
100
AcDbMText
 10
193.3614424301
 20
184.2991855169
 30
0.0
 40
2.0
 41
0.0
 71
     1
 72
     1
  1
99.1
  7
SLDTEXTSTYLE0
 73
     1
 44
1.0
  0
ENDBLK
  5
1EC
330
1EA
100
AcDbEntity
  8
0
100
AcDbBlockEnd
  0
BLOCK
  5
1F5
330
1F4
100
AcDbEntity
  8
0
100
AcDbBlockBegin
  2
_D_3
 70
     0
 10
0.0
 20
0.0
 30
0.0
  3
_D_3
  1

  0
SOLID
  5
1F7
330
1F4
100
AcDbEntity
  8
VERMASSUNG
100
AcDbTrace
 10
165.0607977339
 20
175.721049921
 30
0.0
 11
168.0607977339
 21
175.271049921
 31
0.0
 12
168.0607977339
 22
176.171049921
 32
0.0
 13
168.0607977339
 23
176.171049921
 33
0.0
  0
SOLID
  5
1F8
330
1F4
100
AcDbEntity
  8
VERMASSUNG
100
AcDbTrace
 10
245.1107977339
 20
175.721049921
 30
0.0
 11
242.1107977339
 21
176.171049921
 31
0.0
 12
242.1107977339
 22
175.271049921
 32
0.0
 13
242.1107977339
 23
175.271049921
 33
0.0
  0
LINE
  5
1F9
330
1F4
100
AcDbEntity
  8
VERMASSUNG
100
AcDbLine
 10
165.0607977339
 20
171.1587609307
 30
0.0
 11
165.0607977339
 21
176.721049921
 31
0.0
  0
LINE
  5
1FA
330
1F4
100
AcDbEntity
  8
VERMASSUNG
100
AcDbLine
 10
245.1107977339
 20
145.4637739774
 30
0.0
 11
245.1107977339
 21
176.721049921
 31
0.0
  0
LINE
  5
1FB
330
1F4
100
AcDbEntity
  8
VERMASSUNG
100
AcDbLine
 10
165.0607977339
 20
175.721049921
 30
0.0
 11
245.1107977339
 21
175.721049921
 31
0.0
  0
MTEXT
  5
1FC
330
1F4
100
AcDbEntity
  8
VERMASSUNG
100
AcDbMText
 10
201.9864053549
 20
178.2991855169
 30
0.0
 40
2.0
 41
0.0
 71
     1
 72
     1
  1
80.05
  7
SLDTEXTSTYLE0
 73
     1
 44
1.0
  0
ENDBLK
  5
1F6
330
1F4
100
AcDbEntity
  8
0
100
AcDbBlockEnd
  0
BLOCK
  5
1FF
330
1FE
100
AcDbEntity
  8
0
100
AcDbBlockBegin
  2
_D_4
 70
     0
 10
0.0
 20
0.0
 30
0.0
  3
_D_4
  1

  0
SOLID
  5
201
330
1FE
100
AcDbEntity
  8
VERMASSUNG
100
AcDbTrace
 10
254.2308855987
 20
145.8637739774
 30
0.0
 11
253.7808855987
 21
142.8637739774
 31
0.0
 12
254.6808855987
 22
142.8637739774
 32
0.0
 13
254.6808855987
 23
142.8637739774
 33
0.0
  0
SOLID
  5
202
330
1FE
100
AcDbEntity
  8
VERMASSUNG
100
AcDbTrace
 10
254.2308855987
 20
103.8637739774
 30
0.0
 11
254.6808855987
 21
106.8637739774
 31
0.0
 12
253.7808855987
 22
106.8637739774
 32
0.0
 13
253.7808855987
 23
106.8637739774
 33
0.0
  0
LINE
  5
203
330
1FE
100
AcDbEntity
  8
VERMASSUNG
100
AcDbLine
 10
244.7107977339
 20
145.8637739774
 30
0.0
 11
255.2308855987
 21
145.8637739774
 31
0.0
  0
LINE
  5
204
330
1FE
100
AcDbEntity
  8
VERMASSUNG
100
AcDbLine
 10
244.7107977339
 20
103.8637739774
 30
0.0
 11
255.2308855987
 21
103.8637739774
 31
0.0
  0
LINE
  5
205
330
1FE
100
AcDbEntity
  8
VERMASSUNG
100
AcDbLine
 10
254.2308855987
 20
145.8637739774
 30
0.0
 11
254.2308855987
 21
103.8637739774
 31
0.0
  0
MTEXT
  5
206
330
1FE
100
AcDbEntity
  8
VERMASSUNG
100
AcDbMText
 10
251.4527503425
 20
118.3587745037
 30
0.0
 40
2.0
 41
0.0
 71
     1
 72
     1
  1
MBM
  7
SLDTEXTSTYLE0
 11
-7.044195017643634E-15
 21
1.0
 31
0.0
 73
     1
 44
1.0
  0
MTEXT
  5
207
330
1FE
100
AcDbEntity
  8
VERMASSUNG
100
AcDbMText
 10
251.6527502938
 20
124.7587743421
 30
0.0
 40
2.0
 41
0.0
 71
     1
 72
     1
  1
%%c
  7
SLDTEXTSTYLE0
 11
-7.044195017643634E-15
 21
1.0
 31
0.0
 73
     1
 44
1.0
  0
MTEXT
  5
208
330
1FE
100
AcDbEntity
  8
VERMASSUNG
100
AcDbMText
 10
251.4527503425
 20
128.368774822
 30
0.0
 40
2.0
 41
0.0
 71
     1
 72
     1
  1
42
  7
SLDTEXTSTYLE0
 11
-7.044195017643634E-15
 21
1.0
 31
0.0
 73
     1
 44
1.0
  0
ENDBLK
  5
200
330
1FE
100
AcDbEntity
  8
0
100
AcDbBlockEnd
  0
ENDSEC
  0
SECTION
  2
ENTITIES
  0
MTEXT
  5
78
330
1F
100
AcDbEntity
  8
KOPF_DÜNN
100
AcDbMText
 10
13.8892156294
 20
23.8442973028
 30
0.0
 40
3.0
 41
0.0
 71
     1
 72
     1
  1
102.525.422
  7
SLDTEXTSTYLE0
 73
     1
 44
1.0
  0
MTEXT
  5
79
330
1F
100
AcDbEntity
  8
VERMASSUNG
100
AcDbMText
 10
13.9329988022
 20
28.8834360957
 30
0.0
 40
3.0
 41
0.0
 71
     1
 72
     1
  1
Aufnahme_Master shank MBM 42
  7
SLDTEXTSTYLE0
 73
     1
 44
1.0
  0
MTEXT
  5
7A
330
1F
100
AcDbEntity
  8
VERMASSUNG
100
AcDbMText
 10
98.8601118557
 20
13.8365368761
 30
0.0
 40
2.0
 41
0.0
 71
     1
 72
     1
  1
Datum: 01.11.2007
  7
SLDTEXTSTYLE0
 73
     1
 44
1.0
  0
MTEXT
  5
7B
330
1F
100
AcDbEntity
  8
VERMASSUNG
100
AcDbMText
 10
13.933048693
 20
18.0482802738
 30
0.0
 40
2.0
 41
0.0
 71
     1
 72
     1
  1
DIN 69871 B 50
  7
SLDTEXTSTYLE0
 73
     1
 44
1.0
  0
MTEXT
  5
7C
330
1F
100
AcDbEntity
  8
VERMASSUNG
100
AcDbMText
 10
13.9808475933
 20
13.9090974274
 30
0.0
 40
2.0
 41
0.0
 71
     1
 72
     1
  1
Gewicht: 3383g
  7
SLDTEXTSTYLE0
 73
     1
 44
1.0
  0
ARC
  5
7D
330
1F
100
AcDbEntity
  8
0
  6
Continuous
 62
     7
370
    15
100
AcDbCircle
 10
148.6107977339
 20
89.3387739774
 30
0.0
 40
0.6000000000000227
100
AcDbArc
 50
0.0
 51
90.0
  0
ARC
  5
7E
330
1F
100
AcDbEntity
  8
0
  6
Continuous
 62
     7
370
    15
100
AcDbCircle
 10
148.6107977339
 20
160.3887739774
 30
0.0
 40
0.6000000000000227
100
AcDbArc
 50
270.0
 51
0.0
  0
LINE
  5
7F
330
1F
100
AcDbEntity
  8
0
  6
Continuous
 62
     7
370
    15
100
AcDbLine
 10
146.0107977339
 20
89.938775098
 30
0.0
 11
148.6107977409
 21
89.938775098
 31
0.0
  0
LINE
  5
80
330
1F
100
AcDbEntity
  8
0
  6
Continuous
 62
     7
370
    15
100
AcDbLine
 10
148.6107977409
 20
159.7887728569
 30
0.0
 11
146.0107977339
 21
159.7887728569
 31
0.0
  0
LINE
  5
81
330
1F
100
AcDbEntity
  8
0
  6
Continuous
 62
     7
370
    15
100
AcDbLine
 10
146.0107977339
 20
159.7887728569
 30
0.0
 11
46.1221824237
 21
145.2216845211
 31
0.0
  0
LINE
  5
82
330
1F
100
AcDbEntity
  8
0
  6
Continuous
 62
     7
370
    15
100
AcDbLine
 10
46.1221824237
 20
104.5058634337
 30
0.0
 11
146.0107977339
 21
89.938775098
 31
0.0
  0
ARC
  5
83
330
1F
100
AcDbEntity
  8
0
  6
Continuous
 62
     7
370
    15
100
AcDbCircle
 10
169.0607977339
 20
99.8637739774
 30
0.0
 40
4.0
100
AcDbArc
 50
90.0
 51
180.0
  0
ARC
  5
84
330
1F
100
AcDbEntity
  8
0
  6
Continuous
 62
     7
370
    15
100
AcDbCircle
 10
169.0607977339
 20
149.8637739774
 30
0.0
 40
4.0
100
AcDbArc
 50
180.0
 51
270.0
  0
LINE
  5
85
330
1F
100
AcDbEntity
  8
0
  6
Continuous
 62
     7
370
    15
100
AcDbLine
 10
169.060798625
 20
103.8637742605
 30
0.0
 11
244.7107995697
 21
103.8637742605
 31
0.0
  0
LINE
  5
86
330
1F
100
AcDbEntity
  8
0
  6
Continuous
 62
     7
370
    15
100
AcDbLine
 10
244.7107995697
 20
145.8637736943
 30
0.0
 11
169.060798625
 21
145.8637736943
 31
0.0
  0
LINE
  5
87
330
1F
100
AcDbEntity
  8
0
  6
Continuous
 62
     7
370
    15
100
AcDbLine
 10
244.7107995697
 20
103.8637742605
 30
0.0
 11
245.1107988902
 21
104.2637735811
 31
0.0
  0
LINE
  5
88
330
1F
100
AcDbEntity
  8
0
  6
Continuous
 62
     7
370
    15
100
AcDbLine
 10
245.1107988902
 20
145.4637743738
 30
0.0
 11
244.7107995697
 21
145.8637736943
 31
0.0
  0
ARC
  5
89
330
1F
100
AcDbEntity
  8
0
  6
Continuous
 62
     7
370
    15
100
AcDbCircle
 10
46.4107977339
 20
106.48492945
 30
0.0
 40
1.999999999999993
100
AcDbArc
 50
180.0
 51
261.7028550302
  0
ARC
  5
8A
330
1F
100
AcDbEntity
  8
0
  6
Continuous
 62
     7
370
    15
100
AcDbCircle
 10
46.4107977339
 20
143.2426185048
 30
0.0
 40
2.000000000000021
100
AcDbArc
 50
98.2971449698
 51
180.0
  0
ARC
  5
8B
330
1F
100
AcDbEntity
  8
0
  6
Continuous
 62
     7
370
    15
100
AcDbCircle
 10
160.2107977339
 20
110.3980320155
 30
0.0
 40
2.000000000000009
100
AcDbArc
 50
192.2156859341
 51
340.3290945648
  0
SPLINE
  5
8C
330
1F
100
AcDbEntity
  8
0
  6
Continuous
 62
     7
370
    15
100
AcDbSpline
210
0.0
220
0.0
230
1.0
 70
     8
 71
     3
 72
    12
 73
     8
 74
     0
 42
0.000000001
 43
0.00000001
 40
0.0
 40
0.0
 40
0.0
 40
0.0
 40
0.2499999999999992
 40
0.2499999999999992
 40
0.4999999999999984
 40
0.4999999999999984
 40
1.0
 40
1.0
 40
1.0
 40
1.0
 10
164.4607977338717
 20
78.13451463607522
 30
0.0
 10
164.5567704870465
 20
78.13451463607521
 30
0.0
 10
164.649198451201
 20
78.1507879601838
 30
0.0
 10
164.8056285513105
 20
78.20416168218023
 30
0.0
 10
164.8691069760833
 20
78.24028993971454
 30
0.0
 10
165.0173861369105
 20
78.36099113599381
 30
0.0
 10
165.0607977338717
 20
78.45484072235901
 30
0.0
 10
165.0607977338717
 20
78.54914499730623
 30
0.0
  0
SPLINE
  5
8D
330
1F
100
AcDbEntity
  8
0
  6
Continuous
 62
     7
370
    15
100
AcDbSpline
210
0.0
220
0.0
230
1.0
 70
    24
 71
     3
 72
    12
 73
     8
 74
     0
 42
0.000000001
 43
0.00000001
 40
0.0
 40
0.0
 40
0.0
 40
0.0
 40
0.5
 40
0.5
 40
0.75
 40
0.75
 40
1.0
 40
1.0
 40
1.0
 40
1.0
 10
165.0607977338717
 20
154.7137739774212
 30
0.0
 10
165.0607977338717
 20
154.7137739774212
 30
0.0
 10
165.0126670454863
 20
154.7137739774212
 30
0.0
 10
164.8587699896833
 20
154.7137739774212
 30
0.0
 10
164.7933054246765
 20
154.7137739774212
 30
0.0
 10
164.6397761040664
 20
154.7137739774212
 30
0.0
 10
164.5514274433305
 20
154.7137739774212
 30
0.0
 10
164.4607977338715
 20
154.7137739774212
 30
0.0
  0
LINE
  5
8E
330
1F
100
AcDbEntity
  8
0
  6
Continuous
 62
     7
370
    15
100
AcDbLine
 10
165.0607979693
 20
78.54914332
 30
0.0
 11
165.0607979693
 21
154.713774493
 31
0.0
  0
LINE
  5
8F
330
1F
100
AcDbEntity
  8
0
  6
Continuous
 62
     7
370
    15
100
AcDbLine
 10
159.0207976126
 20
111.0665122252
 30
0.0
 11
159.0207976126
 21
154.713774493
 31
0.0
  0
SPLINE
  5
90
330
1F
100
AcDbEntity
  8
0
  6
Continuous
 62
     7
370
    15
100
AcDbSpline
210
0.0
220
0.0
230
1.0
 70
    24
 71
     3
 72
     8
 73
     4
 74
     0
 42
0.000000001
 43
0.00000001
 40
0.0
 40
0.0
 40
0.0
 40
0.0
 40
1.0
 40
1.0
 40
1.0
 40
1.0
 10
160.3439592413336
 20
154.7137739774212
 30
0.0
 10
159.8973575213142
 20
154.7137739774212
 30
0.0
 10
159.4559978385753
 20
154.7137739774212
 30
0.0
 10
159.0207977338717
 20
154.7137739774212
 30
0.0
  0
LINE
  5
91
330
1F
100
AcDbEntity
  8
0
  6
Continuous
 62
     7
370
    15
100
AcDbLine
 10
160.3439592593
 20
110.566626696
 30
0.0
 11
160.3439592593
 21
154.713774493
 31
0.0
  0
SPLINE
  5
92
330
1F
100
AcDbEntity
  8
0
  6
Continuous
 62
     7
370
    15
100
AcDbSpline
210
0.0
220
0.0
230
1.0
 70
     8
 71
     3
 72
    10
 73
     6
 74
     0
 42
0.000000001
 43
0.00000001
 40
0.0
 40
0.0
 40
0.0
 40
0.0
 40
0.5
 40
0.5
 40
1.0
 40
1.0
 40
1.0
 40
1.0
 10
160.3439592413336
 20
110.5666269122901
 30
0.0
 10
160.1212322144602
 20
110.7101154125839
 30
0.0
 10
159.899546327235
 20
110.8248361583168
 30
0.0
 10
159.4583254893831
 20
110.9945965876746
 30
0.0
 10
159.2387668419842
 20
111.050016582062
 30
0.0
 10
159.020797733872
 20
111.0665119114317
 30
0.0
  0
SPLINE
  5
93
330
1F
100
AcDbEntity
  8
0
  6
Continuous
 62
     7
370
    15
100
AcDbSpline
210
0.0
220
0.0
230
1.0
 70
     8
 71
     3
 72
     8
 73
     4
 74
     0
 42
0.000000001
 43
0.00000001
 40
0.0
 40
0.0
 40
0.0
 40
0.0
 40
1.0
 40
1.0
 40
1.0
 40
1.0
 10
155.2007977338717
 20
80.24403456859145
 30
0.0
 10
154.9110692878471
 20
79.72181455842792
 30
0.0
 10
154.6210441376294
 20
79.19976117616795
 30
0.0
 10
154.3307499033676
 20
78.67785891044485
 30
0.0
  0
SPLINE
  5
94
330
1F
100
AcDbEntity
  8
0
  6
Continuous
 62
     7
370
    15
100
AcDbSpline
210
0.0
220
0.0
230
1.0
 70
     8
 71
     3
 72
     8
 73
     4
 74
     0
 42
0.000000001
 43
0.00000001
 40
0.0
 40
0.0
 40
0.0
 40
0.0
 40
0.0011862984959113
 40
0.0011862984959113
 40
0.0011862984959113
 40
0.0011862984959113
 10
153.8776362264098
 20
78.13451463607522
 30
0.0
 10
154.0296609882806
 20
78.31542648569321
 30
0.0
 10
154.1807184334965
 20
78.49653881613405
 30
0.0
 10
154.3307499033676
 20
78.67785891044485
 30
0.0
  0
LINE
  5
95
330
1F
100
AcDbEntity
  8
0
  6
Continuous
 62
     7
370
    15
100
AcDbLine
 10
153.8776366808
 20
78.1345147845
 30
0.0
 11
153.8776366808
 21
154.713774493
 31
0.0
  0
SPLINE
  5
96
330
1F
100
AcDbEntity
  8
0
  6
Continuous
 62
     7
370
    15
100
AcDbSpline
210
0.0
220
0.0
230
1.0
 70
    24
 71
     3
 72
     8
 73
     4
 74
     0
 42
0.000000001
 43
0.00000001
 40
0.0
 40
0.0
 40
0.0
 40
0.0
 40
1.0
 40
1.0
 40
1.0
 40
1.0
 10
155.2007977338717
 20
154.7137739774212
 30
0.0
 10
154.765597629168
 20
154.7137739774212
 30
0.0
 10
154.3242379464292
 20
154.7137739774212
 30
0.0
 10
153.8776362264098
 20
154.7137739774212
 30
0.0
  0
LINE
  5
97
330
1F
100
AcDbEntity
  8
0
  6
Continuous
 62
     7
370
    15
100
AcDbLine
 10
155.2007973962
 20
80.2440349218
 30
0.0
 11
155.2007973962
 21
154.713774493
 31
0.0
  0
LINE
  5
98
330
1F
100
AcDbEntity
  8
0
  6
Continuous
 62
     7
370
    15
100
AcDbLine
 10
164.4607971259
 20
154.713774493
 30
0.0
 11
160.3439592593
 21
154.713774493
 31
0.0
  0
LINE
  5
99
330
1F
100
AcDbEntity
  8
0
  6
Continuous
 62
     7
370
    15
100
AcDbLine
 10
160.3439592593
 20
78.1345147845
 30
0.0
 11
164.4607971259
 21
78.1345147845
 31
0.0
  0
LINE
  5
9A
330
1F
100
AcDbEntity
  8
0
  6
Continuous
 62
     7
370
    15
100
AcDbLine
 10
160.3439592593
 20
78.1345147845
 30
0.0
 11
160.3439592593
 21
105.8748331126
 31
0.0
  0
SPLINE
  5
9B
330
1F
100
AcDbEntity
  8
0
  6
Continuous
 62
     7
370
    15
100
AcDbSpline
210
0.0
220
0.0
230
1.0
 70
     8
 71
     3
 72
    34
 73
    30
 74
     0
 42
0.000000001
 43
0.00000001
 40
0.0
 40
0.0
 40
0.0
 40
0.0
 40
0.0624999999999989
 40
0.0624999999999989
 40
0.1249999999999978
 40
0.1249999999999978
 40
0.1874999999999968
 40
0.1874999999999968
 40
0.2499999999999962
 40
0.2499999999999962
 40
0.3124999999999957
 40
0.3124999999999957
 40
0.3749999999999952
 40
0.3749999999999952
 40
0.499999999999995
 40
0.499999999999995
 40
0.6249999999999948
 40
0.6249999999999948
 40
0.6874999999999954
 40
0.6874999999999954
 40
0.749999999999996
 40
0.749999999999996
 40
0.8124999999999966
 40
0.8124999999999966
 40
0.8749999999999977
 40
0.8749999999999977
 40
0.9374999999999989
 40
0.9374999999999989
 40
1.0
 40
1.0
 40
1.0
 40
1.0
 10
160.3439592413336
 20
105.87483358942
 30
0.0
 10
160.5033510691214
 20
105.8826736853428
 30
0.0
 10
160.659353552565
 20
105.9043323334333
 30
0.0
 10
160.9648630686422
 20
105.9741805609261
 30
0.0
 10
161.1157574036545
 20
106.0230062632543
 30
0.0
 10
161.4036567483453
 20
106.1459302166616
 30
0.0
 10
161.539603151305
 20
106.2192377247959
 30
0.0
 10
161.795785766897
 20
106.3892483485673
 30
0.0
 10
161.9169680546561
 20
106.4871221407687
 30
0.0
 10
162.1341141265289
 20
106.6997063162007
 30
0.0
 10
162.2310759994892
 20
106.8147522547303
 30
0.0
 10
162.4016384353148
 20
107.0626133748504
 30
0.0
 10
162.4748784885267
 20
107.195646871916
 30
0.0
 10
162.6497589452755
 20
107.6051548880462
 30
0.0
 10
162.7107969062515
 20
107.9031155378212
 30
0.0
 10
162.7107985614746
 20
108.4945570936957
 30
0.0
 10
162.6497639518883
 20
108.7947306436723
 30
0.0
 10
162.4748741844864
 20
109.20996192394
 30
0.0
 10
162.401630479062
 20
109.3453170421869
 30
0.0
 10
162.2310697633254
 20
109.5982163735735
 30
0.0
 10
162.1341060477318
 20
109.7159816511813
 30
0.0
 10
161.9169457191447
 20
109.9341119465499
 30
0.0
 10
161.7957644604578
 20
110.0348152716969
 30
0.0
 10
161.5395942335191
 20
110.2100589645301
 30
0.0
 10
161.4036508838564
 20
110.2858039336207
 30
0.0
 10
161.1157481806733
 20
110.412972308923
 30
0.0
 10
160.9648579847565
 20
110.4635735812504
 30
0.0
 10
160.6593524810509
 20
110.5360026809983
 30
0.0
 10
160.5033510827874
 20
110.5584884523953
 30
0.0
 10
160.3439592413336
 20
110.5666269122901
 30
0.0
  0
LINE
  5
9C
330
1F
100
AcDbEntity
  8
0
  6
Continuous
 62
     7
370
    15
100
AcDbLine
 10
149.8107977979
 20
78.1345147845
 30
0.0
 11
153.8776366808
 21
78.1345147845
 31
0.0
  0
LINE
  5
9D
330
1F
100
AcDbEntity
  8
0
  6
Continuous
 62
     7
370
    15
100
AcDbLine
 10
153.8776366808
 20
154.713774493
 30
0.0
 11
149.8107977979
 21
154.713774493
 31
0.0
  0
SPLINE
  5
9E
330
1F
100
AcDbEntity
  8
0
  6
Continuous
 62
     7
370
    15
100
AcDbSpline
210
0.0
220
0.0
230
1.0
 70
     8
 71
     3
 72
    10
 73
     6
 74
     0
 42
0.000000001
 43
0.00000001
 40
0.0
 40
0.0
 40
0.0
 40
0.0
 40
0.5
 40
0.5
 40
1.0
 40
1.0
 40
1.0
 40
1.0
 10
149.4264577650257
 20
78.23031971022901
 30
0.0
 10
149.4751083336054
 20
78.20236271896158
 30
0.0
 10
149.5324935455648
 20
78.1784204339348
 30
0.0
 10
149.6632066537308
 20
78.14430197083905
 30
0.0
 10
149.7359461874694
 20
78.13451463607521
 30
0.0
 10
149.8107977338717
 20
78.13451463607521
 30
0.0
  0
SPLINE
  5
9F
330
1F
100
AcDbEntity
  8
0
  6
Continuous
 62
     7
370
    15
100
AcDbSpline
210
0.0
220
0.0
230
1.0
 70
     8
 71
     3
 72
    10
 73
     6
 74
     0
 42
0.000000001
 43
0.00000001
 40
0.0
 40
0.0
 40
0.0
 40
0.0
 40
0.5
 40
0.5
 40
1.0
 40
1.0
 40
1.0
 40
1.0
 10
149.4264577650257
 20
78.23031971022898
 30
0.0
 10
149.3682697584435
 20
78.2979034404078
 30
0.0
 10
149.3158272919172
 20
78.37837967504957
 30
0.0
 10
149.2374749847386
 20
78.56141529803229
 30
0.0
 10
149.2107977338716
 20
78.66729100082792
 30
0.0
 10
149.2107977338716
 20
78.77480431004855
 30
0.0
  0
LINE
  5
A0
330
1F
100
AcDbEntity
  8
0
  6
Continuous
 62
     7
370
    15
100
AcDbLine
 10
149.210797653
 20
78.7748027798
 30
0.0
 11
149.210797653
 21
154.713774493
 31
0.0
  0
SPLINE
  5
A1
330
1F
100
AcDbEntity
  8
0
  6
Continuous
 62
     7
370
    15
100
AcDbSpline
210
0.0
220
0.0
230
1.0
 70
    24
 71
     3
 72
    14
 73
    10
 74
     0
 42
0.000000001
 43
0.00000001
 40
0.0
 40
0.0
 40
0.0
 40
0.0
 40
0.25
 40
0.25
 40
0.5
 40
0.5
 40
0.75
 40
0.75
 40
1.0
 40
1.0
 40
1.0
 40
1.0
 10
149.8107977338717
 20
154.7137739774212
 30
0.0
 10
149.721775781528
 20
154.7137739774212
 30
0.0
 10
149.6320890822545
 20
154.7137739774212
 30
0.0
 10
149.4783622566972
 20
154.7137739774212
 30
0.0
 10
149.4131573620704
 20
154.7137739774212
 30
0.0
 10
149.3105666678999
 20
154.7137739774212
 30
0.0
 10
149.2729292135841
 20
154.7137739774212
 30
0.0
 10
149.2228372981989
 20
154.7137739774212
 30
0.0
 10
149.2107977338717
 20
154.7137739774212
 30
0.0
 10
149.2107977338717
 20
154.7137739774212
 30
0.0
  0
SPLINE
  5
A2
330
1F
100
AcDbEntity
  8
0
  6
Continuous
 62
     7
370
    15
100
AcDbSpline
210
0.0
220
0.0
230
1.0
 70
     8
 71
     3
 72
    14
 73
    10
 74
     0
 42
0.000000001
 43
0.00000001
 40
0.0
 40
0.0
 40
0.0
 40
0.0
 40
0.25
 40
0.25
 40
0.5
 40
0.5
 40
0.75
 40
0.75
 40
1.0
 40
1.0
 40
1.0
 40
1.0
 10
159.0207977338717
 20
111.1121261334442
 30
0.0
 10
159.0207977338717
 20
111.1541025152977
 30
0.0
 10
158.9911547799005
 20
111.1819529029386
 30
0.0
 10
158.8844999461704
 20
111.1954517782286
 30
0.0
 10
158.8082215515662
 20
111.1808362761909
 30
0.0
 10
158.6401700084997
 20
111.1087470720228
 30
0.0
 10
158.5490502018915
 20
111.05160946154
 30
0.0
 10
158.3763730896388
 20
110.9093817609487
 30
0.0
 10
158.2954506501107
 20
110.8258179354367
 30
0.0
 10
158.2207977338717
 20
110.7324482635408
 30
0.0
  0
SPLINE
  5
A3
330
1F
100
AcDbEntity
  8
0
  6
Continuous
 62
     7
370
    15
100
AcDbSpline
210
0.0
220
0.0
230
1.0
 70
     8
 71
     3
 72
    10
 73
     6
 74
     0
 42
0.000000001
 43
0.00000001
 40
0.0
 40
0.0
 40
0.0
 40
0.0
 40
0.5
 40
0.5
 40
1.0
 40
1.0
 40
1.0
 40
1.0
 10
159.020797733872
 20
106.9344707128001
 30
0.0
 10
159.2376885663927
 20
106.6974317733516
 30
0.0
 10
159.4568412030516
 20
106.4952615383581
 30
0.0
 10
159.8983257033205
 20
106.1445094668394
 30
0.0
 10
160.1215281685939
 20
105.9958333744425
 30
0.0
 10
160.3439592413336
 20
105.87483358942
 30
0.0
  0
LINE
  5
A4
330
1F
100
AcDbEntity
  8
0
  6
Continuous
 62
     7
370
    15
100
AcDbLine
 10
159.0207976126
 20
106.980085766
 30
0.0
 11
159.0207976126
 21
106.9344714489
 31
0.0
  0
SPLINE
  5
A5
330
1F
100
AcDbEntity
  8
0
  6
Continuous
 62
     7
370
    15
100
AcDbSpline
210
0.0
220
0.0
230
1.0
 70
     8
 71
     3
 72
    16
 73
    12
 74
     0
 42
0.000000001
 43
0.00000001
 40
0.0
 40
0.0
 40
0.0
 40
0.0
 40
0.2500000000000014
 40
0.2500000000000014
 40
0.5000000000000028
 40
0.5000000000000028
 40
0.6250000000000047
 40
0.6250000000000047
 40
0.7500000000000067
 40
0.7500000000000067
 40
1.0
 40
1.0
 40
1.0
 40
1.0
 10
158.2207977338717
 20
107.8884844204871
 30
0.0
 10
158.2948056240939
 20
107.7981368403015
 30
0.0
 10
158.3754236190828
 20
107.7101772675018
 30
0.0
 10
158.5491916045871
 20
107.5338423434402
 30
0.0
 10
158.6399427355286
 20
107.4482351027742
 30
0.0
 10
158.76605583299
 20
107.3270394067493
 30
0.0
 10
158.8056325938533
 20
107.2885078277584
 30
0.0
 10
158.8781152505545
 20
107.2141118416291
 30
0.0
 10
158.9110432410233
 20
107.1780950537076
 30
0.0
 10
158.9908334110183
 20
107.0793423778906
 30
0.0
 10
159.0207977338717
 20
107.0225783761085
 30
0.0
 10
159.0207977338717
 20
106.9800849348129
 30
0.0
  0
SPLINE
  5
A6
330
1F
100
AcDbEntity
  8
0
  6
Continuous
 62
     7
370
    15
100
AcDbSpline
210
0.0
220
0.0
230
1.0
 70
     8
 71
     3
 72
    16
 73
    12
 74
     0
 42
0.000000001
 43
0.00000001
 40
0.0
 40
0.0
 40
0.0
 40
0.0
 40
0.2500000000000009
 40
0.2500000000000009
 40
0.5000000000000018
 40
0.5000000000000018
 40
0.7500000000000011
 40
0.7500000000000011
 40
0.8750000000000006
 40
0.8750000000000006
 40
1.0
 40
1.0
 40
1.0
 40
1.0
 10
158.2207977338717
 20
110.7324482635408
 30
0.0
 10
158.0553836273915
 20
110.5255620275154
 30
0.0
 10
157.9291862964159
 20
110.2996933297067
 30
0.0
 10
157.754779998085
 20
109.8108240840938
 30
0.0
 10
157.7109499589882
 20
109.5590570307492
 30
0.0
 10
157.7106462860182
 20
109.0472777061669
 30
0.0
 10
157.7545031460785
 20
108.7962229970841
 30
0.0
 10
157.8844249053457
 20
108.4353744289421
 30
0.0
 10
157.9385397167537
 20
108.3181016605935
 30
0.0
 10
158.0652167068971
 20
108.0956127092547
 30
0.0
 10
158.1380904272579
 20
107.9894521010114
 30
0.0
 10
158.2207977338717
 20
107.8884844204871
 30
0.0
  0
SPLINE
  5
A7
330
1F
100
AcDbEntity
  8
0
  6
Continuous
 62
     7
370
    15
100
AcDbSpline
210
0.0
220
0.0
230
1.0
 70
     8
 71
     3
 72
    14
 73
    10
 74
     0
 42
0.000000001
 43
0.00000001
 40
0.0
 40
0.0
 40
0.0
 40
0.0
 40
0.25
 40
0.25
 40
0.5
 40
0.5
 40
0.75
 40
0.75
 40
1.0
 40
1.0
 40
1.0
 40
1.0
 10
156.0007977338717
 20
81.21600771155144
 30
0.0
 10
155.8943527259624
 20
81.21600771155144
 30
0.0
 10
155.7874539746889
 20
81.19343816211833
 30
0.0
 10
155.5912357192465
 20
81.10699507087641
 30
0.0
 10
155.501577405782
 20
81.04269115320926
 30
0.0
 10
155.3561236929009
 20
80.8877216391663
 30
0.0
 10
155.2980879101747
 20
80.79495615292257
 30
0.0
 10
155.2208027557901
 20
80.59648927127918
 30
0.0
 10
155.2007977338717
 20
80.48946484948542
 30
0.0
 10
155.2007977338717
 20
80.38268248901458
 30
0.0
  0
SPLINE
  5
A8
330
1F
100
AcDbEntity
  8
0
  6
Continuous
 62
     7
370
    15
100
AcDbSpline
210
0.0
220
0.0
230
1.0
 70
    24
 71
     3
 72
    14
 73
    10
 74
     0
 42
0.000000001
 43
0.00000001
 40
0.0
 40
0.0
 40
0.0
 40
0.0
 40
0.25
 40
0.25
 40
0.5
 40
0.5
 40
0.75
 40
0.75
 40
1.0
 40
1.0
 40
1.0
 40
1.0
 10
156.0007977338717
 20
154.7137739774212
 30
0.0
 10
155.8778164343254
 20
154.7137739774212
 30
0.0
 10
155.7576265459234
 20
154.7137739774212
 30
0.0
 10
155.5526027162442
 20
154.7137739774212
 30
0.0
 10
155.4660082274421
 20
154.7137739774212
 30
0.0
 10
155.3309003406796
 20
154.7137739774212
 30
0.0
 10
155.2823772556516
 20
154.7137739774212
 30
0.0
 10
155.2166947469248
 20
154.7137739774212
 30
0.0
 10
155.2007977338717
 20
154.7137739774212
 30
0.0
 10
155.2007977338717
 20
154.7137739774212
 30
0.0
  0
SPLINE
  5
A9
330
1F
100
AcDbEntity
  8
0
  6
Continuous
 62
     7
370
    15
100
AcDbSpline
210
0.0
220
0.0
230
1.0
 70
    24
 71
     3
 72
    14
 73
    10
 74
     0
 42
0.000000001
 43
0.00000001
 40
0.0
 40
0.0
 40
0.0
 40
0.0
 40
0.25
 40
0.25
 40
0.5
 40
0.5
 40
0.75
 40
0.75
 40
1.0
 40
1.0
 40
1.0
 40
1.0
 10
159.0207977338717
 20
154.7137739774212
 30
0.0
 10
159.0207977338717
 20
154.7137739774212
 30
0.0
 10
159.0045166990959
 20
154.7137739774212
 30
0.0
 10
158.9398536365713
 20
154.7137739774212
 30
0.0
 10
158.8903738402826
 20
154.7137739774212
 30
0.0
 10
158.7564040831438
 20
154.7137739774212
 30
0.0
 10
158.6702893565444
 20
154.7137739774212
 30
0.0
 10
158.4648332408314
 20
154.7137739774212
 30
0.0
 10
158.3434127036385
 20
154.7137739774212
 30
0.0
 10
158.2207977338717
 20
154.7137739774212
 30
0.0
  0
LINE
  5
AA
330
1F
100
AcDbEntity
  8
0
  6
Continuous
 62
     7
370
    15
100
AcDbLine
 10
158.2207980402
 20
81.2160078641
 30
0.0
 11
156.0007978999
 21
81.2160078641
 31
0.0
  0
LINE
  5
AB
330
1F
100
AcDbEntity
  8
0
  6
Continuous
 62
     7
370
    15
100
AcDbLine
 10
158.2207980402
 20
154.713774493
 30
0.0
 11
156.0007978999
 21
154.713774493
 31
0.0
  0
SPLINE
  5
AC
330
1F
100
AcDbEntity
  8
0
  6
Continuous
 62
     7
370
    15
100
AcDbSpline
210
0.0
220
0.0
230
1.0
 70
     8
 71
     3
 72
     8
 73
     4
 74
     0
 42
0.000000001
 43
0.00000001
 40
0.0000000000000004
 40
0.0000000000000004
 40
0.0000000000000004
 40
0.0000000000000004
 40
0.0011862984959128
 40
0.0011862984959128
 40
0.0011862984959128
 40
0.0011862984959128
 10
159.8908455643718
 20
78.67785891044485
 30
0.0
 10
160.0408770342432
 20
78.49653881613382
 30
0.0
 10
160.1919344794626
 20
78.31542648569345
 30
0.0
 10
160.3439592413336
 20
78.13451463607522
 30
0.0
  0
SPLINE
  5
AD
330
1F
100
AcDbEntity
  8
0
  6
Continuous
 62
     7
370
    15
100
AcDbSpline
210
0.0
220
0.0
230
1.0
 70
     8
 71
     3
 72
     8
 73
     4
 74
     0
 42
0.000000001
 43
0.00000001
 40
0.0
 40
0.0
 40
0.0
 40
0.0
 40
1.0
 40
1.0
 40
1.0
 40
1.0
 10
159.8908455643748
 20
78.67785891044652
 30
0.0
 10
159.6005513301133
 20
79.19976117616906
 30
0.0
 10
159.3105261798959
 20
79.72181455842848
 30
0.0
 10
159.0207977338717
 20
80.24403456859145
 30
0.0
  0
LINE
  5
AE
330
1F
100
AcDbEntity
  8
0
  6
Continuous
 62
     7
370
    15
100
AcDbLine
 10
159.0207976126
 20
80.2440349218
 30
0.0
 11
159.0207976126
 21
106.9344714489
 31
0.0
  0
SPLINE
  5
AF
330
1F
100
AcDbEntity
  8
0
  6
Continuous
 62
     7
370
    15
100
AcDbSpline
210
0.0
220
0.0
230
1.0
 70
     8
 71
     3
 72
    14
 73
    10
 74
     0
 42
0.000000001
 43
0.00000001
 40
0.0
 40
0.0
 40
0.0
 40
0.0
 40
0.25
 40
0.25
 40
0.5
 40
0.5
 40
0.75
 40
0.75
 40
1.0
 40
1.0
 40
1.0
 40
1.0
 10
159.0207977338717
 20
80.38268248901458
 30
0.0
 10
159.0207977338717
 20
80.48974647535539
 30
0.0
 10
159.0008139076317
 20
80.59648580172991
 30
0.0
 10
158.9233788251982
 20
80.79523570392071
 30
0.0
 10
158.8654399030388
 20
80.88778992041324
 30
0.0
 10
158.719802097278
 20
81.04288686381881
 30
0.0
 10
158.6310131009426
 20
81.10662702073168
 30
0.0
 10
158.4344647407381
 20
81.19337557781928
 30
0.0
 10
158.3283255110388
 20
81.21600771155144
 30
0.0
 10
158.2207977338717
 20
81.21600771155144
 30
0.0
  0
LINE
  5
B0
330
1F
100
AcDbEntity
  8
0
  6
Continuous
 62
     7
370
    15
100
AcDbLine
 10
146.0107977339
 20
89.938775098
 30
0.0
 11
146.0107977339
 21
159.7887728569
 31
0.0
  0
SPLINE
  5
B1
330
1F
100
AcDbEntity
  8
0
  6
Continuous
 62
     7
370
    15
100
AcDbSpline
210
0.0
220
0.0
230
1.0
 70
     8
 71
     3
 72
    14
 73
    10
 74
     0
 42
0.000000001
 43
0.00000001
 40
0.0
 40
0.0
 40
0.0
 40
0.0
 40
0.25
 40
0.25
 40
0.5
 40
0.5
 40
0.75
 40
0.75
 40
1.0
 40
1.0
 40
1.0
 40
1.0
 10
159.0207977338717
 20
169.3448654658278
 30
0.0
 10
159.0207977338717
 20
169.2375230936804
 30
0.0
 10
159.0008015418075
 20
169.1308940868326
 30
0.0
 10
158.9231034574628
 20
168.9317423076814
 30
0.0
 10
158.8651103125692
 20
168.8392594093659
 30
0.0
 10
158.7190638197464
 20
168.6840235742567
 30
0.0
 10
158.6297260805787
 20
168.6202896326444
 30
0.0
 10
158.4349710685183
 20
168.5344593662492
 30
0.0
 10
158.3274407973094
 20
168.5115402432907
 30
0.0
 10
158.2207977338696
 20
168.511540243291
 30
0.0
  0
SPLINE
  5
B2
330
1F
100
AcDbEntity
  8
0
  6
Continuous
 62
     7
370
    15
100
AcDbSpline
210
0.0
220
0.0
230
1.0
 70
     8
 71
     3
 72
    14
 73
    10
 74
     0
 42
0.000000001
 43
0.00000001
 40
0.0
 40
0.0
 40
0.0
 40
0.0
 40
0.25
 40
0.25
 40
0.5
 40
0.5
 40
0.75
 40
0.75
 40
1.0
 40
1.0
 40
1.0
 40
1.0
 10
158.2207977338717
 20
159.2036560389543
 30
0.0
 10
158.3421242638574
 20
159.2036560389543
 30
0.0
 10
158.4638289724196
 20
159.2424375543875
 30
0.0
 10
158.6702688513058
 20
159.3735921760813
 30
0.0
 10
158.7562193897618
 20
159.4642442606685
 30
0.0
 10
158.8901311495101
 20
159.6663612956098
 30
0.0
 10
158.9396955863293
 20
159.7800962391489
 30
0.0
 10
159.0045496142972
 20
160.0130558562154
 30
0.0
 10
159.0207977338717
 20
160.1357541225446
 30
0.0
 10
159.0207977338717
 20
160.2568170791382
 30
0.0
  0
SPLINE
  5
B3
330
1F
100
AcDbEntity
  8
0
  6
Continuous
 62
     7
370
    15
100
AcDbSpline
210
0.0
220
0.0
230
1.0
 70
     8
 71
     3
 72
    12
 73
     8
 74
     0
 42
0.000000001
 43
0.00000001
 40
0.0
 40
0.0
 40
0.0
 40
0.0
 40
0.4999999999999982
 40
0.4999999999999982
 40
0.7499999999999991
 40
0.7499999999999991
 40
1.0
 40
1.0
 40
1.0
 40
1.0
 10
165.0607977338717
 20
171.1587609306517
 30
0.0
 10
165.0607977338717
 20
171.2789535373169
 30
0.0
 10
165.0068293036026
 20
171.3968608378318
 30
0.0
 10
164.8457426626697
 20
171.5362403823152
 30
0.0
 10
164.7809802431966
 20
171.5744056798791
 30
0.0
 10
164.6289262416322
 20
171.6290579422126
 30
0.0
 10
164.5461964684829
 20
171.6436186321968
 30
0.0
 10
164.4607977338717
 20
171.6436186321968
 30
0.0
  0
SPLINE
  5
B4
330
1F
100
AcDbEntity
  8
0
  6
Continuous
 62
     7
370
    15
100
AcDbSpline
210
0.0
220
0.0
230
1.0
 70
     8
 71
     3
 72
    12
 73
     8
 74
     0
 42
0.000000001
 43
0.00000001
 40
0.0
 40
0.0
 40
0.0
 40
0.0
 40
0.2499999999999946
 40
0.2499999999999946
 40
0.4999999999999892
 40
0.4999999999999892
 40
1.0
 40
1.0
 40
1.0
 40
1.0
 10
164.4607977338722
 20
163.3748519290964
 30
0.0
 10
164.5503347920433
 20
163.3748519290963
 30
0.0
 10
164.6402339708319
 20
163.3480246302653
 30
0.0
 10
164.7936588298312
 20
163.2563176650058
 30
0.0
 10
164.8587078872089
 20
163.1920627234069
 30
0.0
 10
165.0120271184732
 20
162.9726505773454
 30
0.0
 10
165.0607977338717
 20
162.7908352675485
 30
0.0
 10
165.0607977338717
 20
162.6128550920656
 30
0.0
  0
LINE
  5
B5
330
1F
100
AcDbEntity
  8
0
  6
Continuous
 62
     7
370
    15
100
AcDbLine
 10
165.0607979693
 20
162.6128558275
 30
0.0
 11
165.0607979693
 21
171.1587611791
 31
0.0
  0
SPLINE
  5
B6
330
1F
100
AcDbEntity
  8
0
  6
Continuous
 62
     7
370
    15
100
AcDbSpline
210
0.0
220
0.0
230
1.0
 70
     8
 71
     3
 72
     8
 73
     4
 74
     0
 42
0.000000001
 43
0.00000001
 40
0.0
 40
0.0
 40
0.0
 40
0.0
 40
0.0012352705496723
 40
0.0012352705496723
 40
0.0012352705496723
 40
0.0012352705496723
 10
154.4341267117043
 20
170.8638072220903
 30
0.0
 10
154.2490914609024
 20
171.1239087978186
 30
0.0
 10
154.0635846517316
 20
171.3838428764455
 30
0.0
 10
153.8776362264098
 20
171.6436186321968
 30
0.0
  0
SPLINE
  5
B7
330
1F
100
AcDbEntity
  8
0
  6
Continuous
 62
     7
370
    15
100
AcDbSpline
210
0.0
220
0.0
230
1.0
 70
     8
 71
     3
 72
     8
 73
     4
 74
     0
 42
0.000000001
 43
0.00000001
 40
0.0
 40
0.0
 40
0.0
 40
0.0
 40
1.0
 40
1.0
 40
1.0
 40
1.0
 10
155.2007977338717
 20
169.483513386251
 30
0.0
 10
154.9454664205663
 20
169.9437344065166
 30
0.0
 10
154.68990302246
 20
170.403828866825
 30
0.0
 10
154.4341267117043
 20
170.8638072220903
 30
0.0
  0
LINE
  5
B8
330
1F
100
AcDbEntity
  8
0
  6
Continuous
 62
     7
370
    15
100
AcDbLine
 10
155.2007973962
 20
160.4309085962
 30
0.0
 11
155.2007973962
 21
169.4835130331
 31
0.0
  0
SPLINE
  5
B9
330
1F
100
AcDbEntity
  8
0
  6
Continuous
 62
     7
370
    15
100
AcDbSpline
210
0.0
220
0.0
230
1.0
 70
     8
 71
     3
 72
     8
 73
     4
 74
     0
 42
0.000000001
 43
0.00000001
 40
0.0
 40
0.0
 40
0.0
 40
0.0
 40
1.0
 40
1.0
 40
1.0
 40
1.0
 10
153.8776362264098
 20
163.3748519290964
 30
0.0
 10
154.3244849543375
 20
162.3956160308401
 30
0.0
 10
154.7658513122333
 20
161.4144140381133
 30
0.0
 10
155.2007977338717
 20
160.4309097197308
 30
0.0
  0
LINE
  5
BA
330
1F
100
AcDbEntity
  8
0
  6
Continuous
 62
     7
370
    15
100
AcDbLine
 10
153.8776366808
 20
163.3748527822
 30
0.0
 11
153.8776366808
 21
171.6436188873
 31
0.0
  0
LINE
  5
BB
330
1F
100
AcDbEntity
  8
0
  6
Continuous
 62
     7
370
    15
100
AcDbLine
 10
153.8776366808
 20
171.6436188873
 30
0.0
 11
149.8107977979
 21
171.6436188873
 31
0.0
  0
LINE
  5
BC
330
1F
100
AcDbEntity
  8
0
  6
Continuous
 62
     7
370
    15
100
AcDbLine
 10
149.8107977979
 20
163.3748527822
 30
0.0
 11
153.8776366808
 21
163.3748527822
 31
0.0
  0
SPLINE
  5
BD
330
1F
100
AcDbEntity
  8
0
  6
Continuous
 62
     7
370
    15
100
AcDbSpline
210
0.0
220
0.0
230
1.0
 70
     8
 71
     3
 72
    12
 73
     8
 74
     0
 42
0.000000001
 43
0.00000001
 40
0.0
 40
0.0
 40
0.0
 40
0.0
 40
0.5000000000000003
 40
0.5000000000000003
 40
0.7500000000000001
 40
0.7500000000000001
 40
1.0
 40
1.0
 40
1.0
 40
1.0
 10
149.2107977338717
 20
162.6128550920656
 30
0.0
 10
149.2107977338717
 20
162.7912153593049
 30
0.0
 10
149.2581098552477
 20
162.9699877710088
 30
0.0
 10
149.412469933129
 20
163.1917496363606
 30
0.0
 10
149.477355468048
 20
163.256041674977
 30
0.0
 10
149.6325881672763
 20
163.3486861591366
 30
0.0
 10
149.7216635799445
 20
163.3748519290964
 30
0.0
 10
149.8107977338717
 20
163.3748519290965
 30
0.0
  0
LINE
  5
BE
330
1F
100
AcDbEntity
  8
0
  6
Continuous
 62
     7
370
    15
100
AcDbLine
 10
155.2007973962
 20
160.4309085962
 30
0.0
 11
155.2007973962
 21
160.25681833
 31
0.0
  0
SPLINE
  5
BF
330
1F
100
AcDbEntity
  8
0
  6
Continuous
 62
     7
370
    15
100
AcDbSpline
210
0.0
220
0.0
230
1.0
 70
     8
 71
     3
 72
    12
 73
     8
 74
     0
 42
0.000000001
 43
0.00000001
 40
0.0
 40
0.0
 40
0.0
 40
0.0
 40
0.499999999999994
 40
0.499999999999994
 40
0.749999999999997
 40
0.749999999999997
 40
1.0
 40
1.0
 40
1.0
 40
1.0
 10
155.2007977338717
 20
160.2568170791382
 30
0.0
 10
155.2007977338717
 20
160.0143939831575
 30
0.0
 10
155.2637188753135
 20
159.7686234625561
 30
0.0
 10
155.465747772316
 20
159.4636772831392
 30
0.0
 10
155.5520414969632
 20
159.3730844165408
 30
0.0
 10
155.7575152915299
 20
159.242650853604
 30
0.0
 10
155.8774658521295
 20
159.2036560389543
 30
0.0
 10
156.0007977338717
 20
159.2036560389543
 30
0.0
  0
LINE
  5
C0
330
1F
100
AcDbEntity
  8
0
  6
Continuous
 62
     7
370
    15
100
AcDbLine
 10
156.0007978999
 20
159.2036564108
 30
0.0
 11
158.2207980402
 21
159.2036564108
 31
0.0
  0
LINE
  5
C1
330
1F
100
AcDbEntity
  8
0
  6
Continuous
 62
     7
370
    15
100
AcDbLine
 10
159.0207976126
 20
160.25681833
 30
0.0
 11
159.0207976126
 21
160.4309085962
 31
0.0
  0
SPLINE
  5
C2
330
1F
100
AcDbEntity
  8
0
  6
Continuous
 62
     7
370
    15
100
AcDbSpline
210
0.0
220
0.0
230
1.0
 70
     8
 71
     3
 72
     8
 73
     4
 74
     0
 42
0.000000001
 43
0.00000001
 40
0.0
 40
0.0
 40
0.0
 40
0.0
 40
1.0
 40
1.0
 40
1.0
 40
1.0
 10
159.0207977338717
 20
160.4309097197308
 30
0.0
 10
159.45574415551
 20
161.4144140381133
 30
0.0
 10
159.8971105134059
 20
162.3956160308401
 30
0.0
 10
160.3439592413336
 20
163.3748519290964
 30
0.0
  0
LINE
  5
C3
330
1F
100
AcDbEntity
  8
0
  6
Continuous
 62
     7
370
    15
100
AcDbLine
 10
160.3439592593
 20
163.3748527822
 30
0.0
 11
164.4607971259
 21
163.3748527822
 31
0.0
  0
LINE
  5
C4
330
1F
100
AcDbEntity
  8
0
  6
Continuous
 62
     7
370
    15
100
AcDbLine
 10
149.210797653
 20
162.6128558275
 30
0.0
 11
149.210797653
 21
154.713774493
 31
0.0
  0
LINE
  5
C5
330
1F
100
AcDbEntity
  8
0
  6
Continuous
 62
     7
370
    15
100
AcDbLine
 10
165.0607979693
 20
162.6128558275
 30
0.0
 11
165.0607979693
 21
154.713774493
 31
0.0
  0
LINE
  5
C6
330
1F
100
AcDbEntity
  8
0
  6
Continuous
 62
     7
370
    15
100
AcDbLine
 10
158.2207980402
 20
168.5115400907
 30
0.0
 11
156.0007978999
 21
168.5115400907
 31
0.0
  0
LINE
  5
C7
330
1F
100
AcDbEntity
  8
0
  6
Continuous
 62
     7
370
    15
100
AcDbLine
 10
164.4607971259
 20
171.6436188873
 30
0.0
 11
160.3439592593
 21
171.6436188873
 31
0.0
  0
LINE
  5
C8
330
1F
100
AcDbEntity
  8
0
  6
Continuous
 62
     7
370
    15
100
AcDbLine
 10
160.3439592593
 20
163.3748527822
 30
0.0
 11
160.3439592593
 21
171.6436188873
 31
0.0
  0
SPLINE
  5
C9
330
1F
100
AcDbEntity
  8
0
  6
Continuous
 62
     7
370
    15
100
AcDbSpline
210
0.0
220
0.0
230
1.0
 70
     8
 71
     3
 72
     8
 73
     4
 74
     0
 42
0.000000001
 43
0.00000001
 40
0.0
 40
0.0
 40
0.0
 40
0.0
 40
1.0
 40
1.0
 40
1.0
 40
1.0
 10
159.7874687560381
 20
170.8638072220886
 30
0.0
 10
159.5316924452827
 20
170.4038288668238
 30
0.0
 10
159.2761290471767
 20
169.943734406516
 30
0.0
 10
159.0207977338717
 20
169.483513386251
 30
0.0
  0
SPLINE
  5
CA
330
1F
100
AcDbEntity
  8
0
  6
Continuous
 62
     7
370
    15
100
AcDbSpline
210
0.0
220
0.0
230
1.0
 70
     8
 71
     3
 72
     8
 73
     4
 74
     0
 42
0.000000001
 43
0.00000001
 40
0.0
 40
0.0
 40
0.0
 40
0.0
 40
0.0012352705496738
 40
0.0012352705496738
 40
0.0012352705496738
 40
0.0012352705496738
 10
160.3439592413336
 20
171.6436186321968
 30
0.0
 10
160.1580108160115
 20
171.3838428764451
 30
0.0
 10
159.9725040068404
 20
171.1239087978178
 30
0.0
 10
159.7874687560382
 20
170.8638072220892
 30
0.0
  0
LINE
  5
CB
330
1F
100
AcDbEntity
  8
0
  6
Continuous
 62
     7
370
    15
100
AcDbLine
 10
159.0207976126
 20
160.4309085962
 30
0.0
 11
159.0207976126
 21
169.4835130331
 31
0.0
  0
SPLINE
  5
CC
330
1F
100
AcDbEntity
  8
0
  6
Continuous
 62
     7
370
    15
100
AcDbSpline
210
0.0
220
0.0
230
1.0
 70
     8
 71
     3
 72
    12
 73
     8
 74
     0
 42
0.000000001
 43
0.00000001
 40
0.0
 40
0.0
 40
0.0
 40
0.0
 40
0.2500000000000007
 40
0.2500000000000007
 40
0.5000000000000014
 40
0.5000000000000014
 40
1.0
 40
1.0
 40
1.0
 40
1.0
 10
156.0007977338717
 20
168.511540243291
 30
0.0
 10
155.8944527539957
 20
168.511540243291
 30
0.0
 10
155.7871764065931
 20
168.5342554811505
 30
0.0
 10
155.591800617197
 20
168.6202806480329
 30
0.0
 10
155.5032468811201
 20
168.6832593749613
 30
0.0
 10
155.2819889569888
 20
168.9184508853983
 30
0.0
 10
155.2007977338717
 20
169.1316270998836
 30
0.0
 10
155.2007977338717
 20
169.3448654658277
 30
0.0
  0
SPLINE
  5
CD
330
1F
100
AcDbEntity
  8
0
  6
Continuous
 62
     7
370
    15
100
AcDbSpline
210
0.0
220
0.0
230
1.0
 70
     8
 71
     3
 72
    10
 73
     6
 74
     0
 42
0.000000001
 43
0.00000001
 40
0.0
 40
0.0
 40
0.0
 40
0.0
 40
0.5
 40
0.5
 40
1.0
 40
1.0
 40
1.0
 40
1.0
 10
149.500666652818
 20
171.573938303144
 30
0.0
 10
149.4242135628992
 20
171.5036755319234
 30
0.0
 10
149.3553518406301
 20
171.4165806168816
 30
0.0
 10
149.2488396095572
 20
171.2074114886294
 30
0.0
 10
149.2107977338716
 20
171.0820939393898
 30
0.0
 10
149.2107977338716
 20
170.9527436447939
 30
0.0
  0
SPLINE
  5
CE
330
1F
100
AcDbEntity
  8
0
  6
Continuous
 62
     7
370
    15
100
AcDbSpline
210
0.0
220
0.0
230
1.0
 70
     8
 71
     3
 72
     8
 73
     4
 74
     0
 42
0.000000001
 43
0.00000001
 40
0.0
 40
0.0
 40
0.0
 40
0.0
 40
1.0
 40
1.0
 40
1.0
 40
1.0
 10
149.8107977338717
 20
171.6436186321968
 30
0.0
 10
149.6997195485342
 20
171.6436186321968
 30
0.0
 10
149.592055544632
 20
171.6184694566422
 30
0.0
 10
149.500666652818
 20
171.573938303144
 30
0.0
  0
LINE
  5
CF
330
1F
100
AcDbEntity
  8
0
  6
Continuous
 62
     7
370
    15
100
AcDbLine
 10
149.210797653
 20
162.6128558275
 30
0.0
 11
149.210797653
 21
170.952745175
 31
0.0
  0
LINE
  5
D0
330
1F
100
AcDbEntity
  8
0
  6
Continuous
 62
     7
370
    15
100
AcDbLine
 10
244.7107995697
 20
103.8637742605
 30
0.0
 11
244.7107995697
 21
145.8637736943
 31
0.0
  0
SPLINE
  5
D1
330
1F
100
AcDbEntity
  8
0
  6
Continuous
 62
     7
370
    15
100
AcDbSpline
210
0.0
220
0.0
230
1.0
 70
     8
 71
     3
 72
    54
 73
    50
 74
     0
 42
0.000000001
 43
0.00000001
 40
0.0
 40
0.0
 40
0.0
 40
0.0
 40
0.0312500000000008
 40
0.0312500000000008
 40
0.0625000000000017
 40
0.0625000000000017
 40
0.1250000000000034
 40
0.1250000000000034
 40
0.1875000000000051
 40
0.1875000000000051
 40
0.2187500000000059
 40
0.2187500000000059
 40
0.2500000000000068
 40
0.2500000000000068
 40
0.3125000000000084
 40
0.3125000000000084
 40
0.3750000000000101
 40
0.3750000000000101
 40
0.40625000000001
 40
0.40625000000001
 40
0.43750000000001
 40
0.43750000000001
 40
0.5000000000000099
 40
0.5000000000000099
 40
0.5312500000000098
 40
0.5312500000000098
 40
0.5625000000000098
 40
0.5625000000000098
 40
0.6250000000000097
 40
0.6250000000000097
 40
0.6562500000000087
 40
0.6562500000000087
 40
0.6875000000000078
 40
0.6875000000000078
 40
0.7500000000000061
 40
0.7500000000000061
 40
0.7812500000000051
 40
0.7812500000000051
 40
0.8125000000000042
 40
0.8125000000000042
 40
0.8750000000000034
 40
0.8750000000000034
 40
0.9062500000000026
 40
0.9062500000000026
 40
0.9375000000000018
 40
0.9375000000000018
 40
0.9687500000000009
 40
0.9687500000000009
 40
1.0
 40
1.0
 40
1.0
 40
1.0
 10
240.3107977338717
 20
124.8637739774212
 30
0.0
 10
240.3107977338717
 20
124.6276450387192
 30
0.0
 10
240.2960646965483
 20
124.3914059710633
 30
0.0
 10
240.2365581217978
 20
123.9187035055807
 30
0.0
 10
240.191510259078
 20
123.6823478202611
 30
0.0
 10
240.0158959140116
 20
122.9932920365705
 30
0.0
 10
239.8441094059951
 20
122.5522317724687
 30
0.0
 10
239.4001466420455
 20
121.7108114322328
 30
0.0
 10
239.1349136548405
 20
121.3228274378705
 30
0.0
 10
238.6794549927833
 20
120.7835940365938
 30
0.0
 10
238.5170878482616
 20
120.6102862341096
 30
0.0
 10
238.1780374166549
 20
120.2824044955996
 30
0.0
 10
238.0014661313335
 20
120.1277267765486
 30
0.0
 10
237.4517563252883
 20
119.689640740466
 30
0.0
 10
237.0571726311207
 20
119.4310688712133
 30
0.0
 10
236.2228070285926
 20
118.983643594943
 30
0.0
 10
235.7906845405888
 20
118.7985327858135
 30
0.0
 10
235.1211904791336
 20
118.5746551370171
 30
0.0
 10
234.8944482925183
 20
118.5090651610626
 30
0.0
 10
234.4337085196578
 20
118.3960474477178
 30
0.0
 10
234.1989433266769
 20
118.3485687682123
 30
0.0
 10
233.4958308380163
 20
118.2358163491093
 30
0.0
 10
233.0252909660831
 20
118.1989167179007
 30
0.0
 10
232.3168366086907
 20
118.1995387491803
 30
0.0
 10
232.0802420306249
 20
118.2091314401207
 30
0.0
 10
231.6061466452764
 20
118.2475381125696
 30
0.0
 10
231.3680901718514
 20
118.2765321269275
 30
0.0
 10
230.6657705754531
 20
118.3910674850901
 30
0.0
 10
230.2090647992785
 20
118.5040648315233
 30
0.0
 10
229.541048754372
 20
118.7286893075209
 30
0.0
 10
229.3212334136398
 20
118.8128091632376
 30
0.0
 10
228.8874962942409
 20
119.0003319392843
 30
0.0
 10
228.6730616235316
 20
119.1041215045569
 30
0.0
 10
228.0514659210532
 20
119.4392185281607
 30
0.0
 10
227.6616817808376
 20
119.6955241283442
 30
0.0
 10
227.1150049164312
 20
120.1321272661903
 30
0.0
 10
226.9391572241448
 20
120.2864144232286
 30
0.0
 10
226.6010508665536
 20
120.6138808291842
 30
0.0
 10
226.4384429704409
 20
120.7876792154317
 30
0.0
 10
225.9833001319399
 20
121.3274264840577
 30
0.0
 10
225.7192252061242
 20
121.7147460924693
 30
0.0
 10
225.388377911034
 20
122.3422046129689
 30
0.0
 10
225.2887286388958
 20
122.5604608490938
 30
0.0
 10
225.1180339495183
 20
123.0019501425762
 30
0.0
 10
225.0462628988729
 20
123.226249729619
 30
0.0
 10
224.9302173503692
 20
123.6820841716668
 30
0.0
 10
224.8859388927946
 20
123.9136179518243
 30
0.0
 10
224.8261726824871
 20
124.3842839089304
 30
0.0
 10
224.8107977338716
 20
124.6253389785644
 30
0.0
 10
224.8107977338716
 20
124.8637739774212
 30
0.0
  0
SPLINE
  5
D2
330
1F
100
AcDbEntity
  8
0
  6
Continuous
 62
     7
370
    15
100
AcDbSpline
210
0.0
220
0.0
230
1.0
 70
     8
 71
     3
 72
    42
 73
    38
 74
     0
 42
0.000000001
 43
0.00000001
 40
0.0
 40
0.0
 40
0.0
 40
0.0
 40
0.0624999999999986
 40
0.0624999999999986
 40
0.0937499999999979
 40
0.0937499999999979
 40
0.1249999999999972
 40
0.1249999999999972
 40
0.1874999999999958
 40
0.1874999999999958
 40
0.2499999999999944
 40
0.2499999999999944
 40
0.3124999999999931
 40
0.3124999999999931
 40
0.3749999999999917
 40
0.3749999999999917
 40
0.4999999999999908
 40
0.4999999999999908
 40
0.5624999999999912
 40
0.5624999999999912
 40
0.6249999999999918
 40
0.6249999999999918
 40
0.6874999999999922
 40
0.6874999999999922
 40
0.7499999999999927
 40
0.7499999999999927
 40
0.8124999999999932
 40
0.8124999999999932
 40
0.8437499999999941
 40
0.8437499999999941
 40
0.8749999999999949
 40
0.8749999999999949
 40
0.9374999999999974
 40
0.9374999999999974
 40
0.9687499999999987
 40
0.9687499999999987
 40
1.0
 40
1.0
 40
1.0
 40
1.0
 10
224.8107977338716
 20
124.8637739774212
 30
0.0
 10
224.8107977338717
 20
125.3411733217436
 30
0.0
 10
224.8705176674999
 20
125.8109589660106
 30
0.0
 10
225.047100695799
 20
126.5045894410512
 30
0.0
 10
225.1207153930361
 20
126.733472164803
 30
0.0
 10
225.2923656681605
 20
127.1755197368767
 30
0.0
 10
225.3907679368361
 20
127.3903002260633
 30
0.0
 10
225.7218668801895
 20
128.0169491098694
 30
0.0
 10
225.9927322160469
 20
128.41295075784
 30
0.0
 10
226.6010317661963
 20
129.1309806138542
 30
0.0
 10
226.9414012508126
 20
129.4583696529215
 30
0.0
 10
227.6846708141928
 20
130.0487170757361
 30
0.0
 10
228.0785126809444
 20
130.304721394362
 30
0.0
 10
228.9033968500576
 20
130.7456731641333
 30
0.0
 10
229.3350386593667
 20
130.9309437856198
 30
0.0
 10
230.6884885878661
 20
131.3818736750325
 30
0.0
 10
231.6229058148331
 20
131.5300681579293
 30
0.0
 10
233.0557939492134
 20
131.5272704564888
 30
0.0
 10
233.5267805230978
 20
131.4881963035272
 30
0.0
 10
234.4559734323012
 20
131.3362487191206
 30
0.0
 10
234.9152166468226
 20
131.2230548363918
 30
0.0
 10
235.8159857378959
 20
130.9192077316215
 30
0.0
 10
236.2465151768502
 20
130.7324679787395
 30
0.0
 10
237.0685818860983
 20
130.2890281986745
 30
0.0
 10
237.4610924284999
 20
130.0316798056222
 30
0.0
 10
238.1993177558397
 20
129.4408923235375
 30
0.0
 10
238.5343746082471
 20
129.1162126965634
 30
0.0
 10
238.9842897578424
 20
128.5827991098679
 30
0.0
 10
239.125416309982
 20
128.3972047230395
 30
0.0
 10
239.3887588878076
 20
128.0091857505131
 30
0.0
 10
239.5116167568241
 20
127.8055280940808
 30
0.0
 10
239.8441032715789
 20
127.1752170019402
 30
0.0
 10
240.0154054768775
 20
126.7358747320157
 30
0.0
 10
240.1914130601452
 20
126.0457338214452
 30
0.0
 10
240.23656064652
 20
125.8087834879911
 30
0.0
 10
240.2960316090509
 20
125.3364457055945
 30
0.0
 10
240.3107977338717
 20
125.1001650295998
 30
0.0
 10
240.3107977338717
 20
124.8637739774212
 30
0.0
  0
LINE
  5
D3
330
1F
100
AcDbEntity
  8
0
  6
Continuous
 62
     7
370
    15
100
AcDbLine
 10
245.1107988902
 20
104.2637735811
 30
0.0
 11
245.1107988902
 21
145.4637743738
 31
0.0
  0
LINE
  5
D4
330
1F
100
AcDbEntity
  8
0
  6
Continuous
 62
     7
370
    15
100
AcDbLine
 10
44.4107989617
 20
106.4849294927
 30
0.0
 11
44.4107989617
 21
143.2426184621
 31
0.0
  0
SPLINE
  5
D5
330
1F
100
AcDbEntity
  8
0
  6
Continuous
 62
     7
370
    15
100
AcDbSpline
210
0.0
220
0.0
230
1.0
 70
    24
 71
     3
 72
    11
 73
     7
 74
     0
 42
0.000000001
 43
0.00000001
 40
0.0
 40
0.0
 40
0.0
 40
0.0
 40
0.1336639888063557
 40
0.4825459052081235
 40
0.815634780835194
 40
1.0
 40
1.0
 40
1.0
 40
1.0
 10
234.2928464361117
 20
121.8637739513442
 30
0.0
 10
234.1477257750658
 20
121.8637739513442
 30
0.0
 10
233.6238196626255
 20
121.8637739513442
 30
0.0
 10
232.6450959324609
 20
121.8637739513442
 30
0.0
 10
231.5939559379525
 20
121.8637739513442
 30
0.0
 10
231.0297619885022
 20
121.8637739513442
 30
0.0
 10
230.8287436910555
 20
121.8637739513442
 30
0.0
  0
SPLINE
  5
D6
330
1F
100
AcDbEntity
  8
0
  6
Continuous
 62
     7
370
    15
100
AcDbSpline
210
0.0
220
0.0
230
1.0
 70
    24
 71
     3
 72
    11
 73
     7
 74
     0
 42
0.000000001
 43
0.00000001
 40
0.0
 40
0.0
 40
0.0
 40
0.0
 40
0.184365219164806
 40
0.5174540947918765
 40
0.8663360111936443
 40
1.0
 40
1.0
 40
1.0
 40
1.0
 10
230.8287436910555
 20
127.8637740034982
 30
0.0
 10
231.0297619885022
 20
127.8637740034982
 30
0.0
 10
231.5939559379526
 20
127.8637740034982
 30
0.0
 10
232.6450959324608
 20
127.8637740034982
 30
0.0
 10
233.6238196626256
 20
127.8637740034982
 30
0.0
 10
234.1477257750658
 20
127.8637740034982
 30
0.0
 10
234.2928464361117
 20
127.8637740034982
 30
0.0
  0
CIRCLE
  5
D7
330
1F
100
AcDbEntity
  8
0
  6
Continuous
 62
     7
370
    15
100
AcDbCircle
 10
232.5607977339
 20
124.8637739774
 30
0.0
 40
3.499999999999986
  0
SPLINE
  5
D8
330
1F
100
AcDbEntity
  8
0
  6
Continuous
 62
     7
370
    15
100
AcDbSpline
210
0.0
220
0.0
230
1.0
 70
     8
 71
     3
 72
    10
 73
     6
 74
     0
 42
0.000000001
 43
0.00000001
 40
0.0
 40
0.0
 40
0.0
 40
0.0
 40
0.4391285493055155
 40
0.751376477880981
 40
1.0
 40
1.0
 40
1.0
 40
1.0
 10
234.2928464361117
 20
127.8637740034982
 30
0.0
 10
234.5408118195713
 20
127.4342889732394
 30
0.0
 10
234.9650961362138
 20
126.6994131610224
 30
0.0
 10
235.5818526189311
 20
125.6311571306414
 30
0.0
 10
235.8888235163679
 20
125.099463523096
 30
0.0
 10
236.0248978086397
 20
124.8637739774212
 30
0.0
  0
SPLINE
  5
D9
330
1F
100
AcDbEntity
  8
0
  6
Continuous
 62
     7
370
    15
100
AcDbSpline
210
0.0
220
0.0
230
1.0
 70
     8
 71
     3
 72
    10
 73
     6
 74
     0
 42
0.000000001
 43
0.00000001
 40
0.0
 40
0.0
 40
0.0
 40
0.0
 40
0.439127544428511
 40
0.7513755234048167
 40
1.0
 40
1.0
 40
1.0
 40
1.0
 10
236.0248978086397
 20
124.8637739774212
 30
0.0
 10
235.7769351683103
 20
124.4342888048387
 30
0.0
 10
235.3526551134007
 20
123.6994120009621
 30
0.0
 10
234.7359003784429
 20
122.6311552273981
 30
0.0
 10
234.428923609648
 20
122.0994632548196
 30
0.0
 10
234.2928464361117
 20
121.8637739513442
 30
0.0
  0
SPLINE
  5
DA
330
1F
100
AcDbEntity
  8
0
  6
Continuous
 62
     7
370
    15
100
AcDbSpline
210
0.0
220
0.0
230
1.0
 70
     8
 71
     3
 72
    10
 73
     6
 74
     0
 42
0.000000001
 43
0.00000001
 40
0.0
 40
0.0
 40
0.0
 40
0.0
 40
0.4391279938880447
 40
0.7513762316751033
 40
1.0
 40
1.0
 40
1.0
 40
1.0
 10
230.8287436910555
 20
121.8637739513442
 30
0.0
 10
230.5807813709885
 20
122.2932593114071
 30
0.0
 10
230.1565018983916
 20
123.0281363766254
 30
0.0
 10
229.5397447845142
 20
124.0963907384979
 30
0.0
 10
229.2327740078457
 20
124.6280844054241
 30
0.0
 10
229.096699769108
 20
124.8637739774212
 30
0.0
  0
SPLINE
  5
DB
330
1F
100
AcDbEntity
  8
0
  6
Continuous
 62
     7
370
    15
100
AcDbSpline
210
0.0
220
0.0
230
1.0
 70
     8
 71
     3
 72
    10
 73
     6
 74
     0
 42
0.000000001
 43
0.00000001
 40
0.0
 40
0.0
 40
0.0
 40
0.0
 40
0.4391279662407926
 40
0.7513762451528099
 40
1.0
 40
1.0
 40
1.0
 40
1.0
 10
229.0966997691081
 20
124.8637739774212
 30
0.0
 10
229.3446621093972
 20
125.2932592862541
 30
0.0
 10
229.7689416509184
 20
126.0281363232639
 30
0.0
 10
230.3856986175034
 20
127.0963907882688
 30
0.0
 10
230.6926694442176
 20
127.6280844556804
 30
0.0
 10
230.8287436910555
 20
127.8637740034982
 30
0.0
  0
CIRCLE
  5
DC
330
1F
100
AcDbEntity
  8
0
  6
Continuous
 62
     7
370
    15
100
AcDbCircle
 10
232.5607977339
 20
124.8637739774
 30
0.0
 40
5.499999999999986
  0
CIRCLE
  5
DD
330
1F
100
AcDbEntity
  8
0
  6
Continuous
 62
     7
370
    15
100
AcDbCircle
 10
232.5607977339
 20
124.8637739774
 30
0.0
 40
6.0
  0
ARC
  5
DE
330
1F
100
AcDbEntity
  8
0
  6
Continuous
 62
     7
370
    15
100
AcDbCircle
 10
232.5607977339
 20
124.8637739774
 30
0.0
 40
3.0
100
AcDbArc
 50
330.0
 51
30.0
  0
ARC
  5
DF
330
1F
100
AcDbEntity
  8
0
  6
Continuous
 62
     7
370
    15
100
AcDbCircle
 10
232.5607977339
 20
124.8637739774
 30
0.0
 40
3.000000000000025
100
AcDbArc
 50
210.0
 51
270.0
  0
ARC
  5
E0
330
1F
100
AcDbEntity
  8
0
  6
Continuous
 62
     7
370
    15
100
AcDbCircle
 10
232.5607977339
 20
124.8637739774
 30
0.0
 40
3.0
100
AcDbArc
 50
270.0
 51
330.0
  0
ARC
  5
E1
330
1F
100
AcDbEntity
  8
0
  6
Continuous
 62
     7
370
    15
100
AcDbCircle
 10
232.5607977339
 20
124.8637739774
 30
0.0
 40
3.000000000000025
100
AcDbArc
 50
150.0
 51
210.0
  0
ARC
  5
E2
330
1F
100
AcDbEntity
  8
0
  6
Continuous
 62
     7
370
    15
100
AcDbCircle
 10
232.5607977339
 20
124.8637739774
 30
0.0
 40
3.0
100
AcDbArc
 50
30.0
 51
90.0
  0
ARC
  5
E3
330
1F
100
AcDbEntity
  8
0
  6
Continuous
 62
     7
370
    15
100
AcDbCircle
 10
232.5607977339
 20
124.8637739774
 30
0.0
 40
3.000000000000025
100
AcDbArc
 50
90.0
 51
150.0
  0
ARC
  5
E4
330
1F
100
AcDbEntity
  8
0
  6
Continuous
 62
     7
370
    15
100
AcDbCircle
 10
159.98846186
 20
109.636513732
 30
0.0
 40
2.27769321155244
100
AcDbArc
 50
180.287968634
 51
228.4343125155
  0
ARC
  5
E5
330
1F
100
AcDbEntity
  8
0
  6
Continuous
 62
     7
370
    15
100
AcDbCircle
 10
160.2011071274
 20
109.8242750117
 30
0.0
 40
2.559493740388663
100
AcDbArc
 50
227.6614328866
 51
339.3156258653
  0
ARC
  5
E6
330
1F
100
AcDbEntity
  8
0
  6
Continuous
 62
     7
370
    15
100
AcDbCircle
 10
159.977061642
 20
109.5750126954
 30
0.0
 40
2.12462898001369
100
AcDbArc
 50
157.9557510786
 51
228.6833526541
  0
ARC
  5
E7
330
1F
100
AcDbEntity
  8
0
  6
Continuous
 62
     7
370
    15
100
AcDbCircle
 10
160.2002952692
 20
109.7497822363
 30
0.0
 40
2.403845370347435
100
AcDbArc
 50
227.437199129
 51
344.7742810381
  0
ARC
  5
E8
330
1F
100
AcDbEntity
  8
0
  6
Continuous
 62
     7
370
    15
100
AcDbCircle
 10
160.0340571565
 20
109.5789612627
 30
0.0
 40
1.817389926097898
100
AcDbArc
 50
123.9180825519
 51
228.2533205366
  0
ARC
  5
E9
330
1F
100
AcDbEntity
  8
0
  6
Continuous
 62
     7
370
    15
100
AcDbCircle
 10
160.2009180021
 20
109.6915911618
 30
0.0
 40
2.013133682356826
100
AcDbArc
 50
226.8443341874
 51
356.7421036637
  0
LWPOLYLINE
  5
EA
330
1F
100
AcDbEntity
  8
0
  6
HIDDEN
 62
     7
370
     0
100
AcDbPolyline
 90
       21
 70
   128
 43
0.0
 10
160.2107978263
 20
109.0064574238
 10
160.9833401465
 20
109.1214366462
 10
161.6802609362
 20
109.4551202115
 10
162.2333398857
 20
109.9748447743
 10
162.5884382822
 20
110.6297359076
 10
162.7107973047
 20
111.355688816
 10
162.5884382822
 20
112.081640793
 10
162.2333398857
 20
112.7365319264
 10
161.6802609362
 20
113.2562564891
 10
160.9833401465
 20
113.5899400544
 10
160.2107978263
 20
113.7049202081
 10
159.4382555061
 20
113.5899400544
 10
158.7413347163
 20
113.2562564891
 10
158.1882548355
 20
112.7365319264
 10
157.833156439
 20
112.081640793
 10
157.7107974165
 20
111.355688816
 10
157.833156439
 20
110.6297359076
 10
158.1882548355
 20
109.9748447743
 10
158.7413347163
 20
109.4551202115
 10
159.4382555061
 20
109.1214366462
 10
160.2107978263
 20
109.0064574238
  0
LWPOLYLINE
  5
EB
330
1F
100
AcDbEntity
  8
0
  6
HIDDEN
 62
     7
370
     0
100
AcDbPolyline
 90
       23
 70
   128
 43
0.0
 10
149.4825287093
 20
110.9589137342
 10
149.6878366754
 20
110.1301390883
 10
150.0101040885
 20
109.3685072121
 10
150.4232224845
 20
108.7357200887
 10
150.8937233896
 20
108.2830433008
 10
151.3834896334
 20
108.0471486058
 10
151.8528436147
 20
108.0471486058
 10
152.2637608298
 20
108.2830433008
 10
152.5829511531
 20
108.7357200887
 10
152.7845554822
 20
109.3685072121
 10
152.8522416786
 20
110.1301390883
 10
152.7805256494
 20
110.9589137342
 10
152.5752174505
 20
111.7876883801
 10
152.2529500373
 20
112.5493211877
 10
151.8398316414
 20
113.1821073797
 10
151.3693307363
 20
113.634785099
 10
150.8795644925
 20
113.8706788626
 10
150.4102105111
 20
113.8706788626
 10
149.9992932961
 20
113.634785099
 10
149.6801032056
 20
113.1821073797
 10
149.4784986437
 20
112.5493211877
 10
149.4108126801
 20
111.7876883801
 10
149.4825287093
 20
110.9589137342
  0
LWPOLYLINE
  5
EC
330
1F
100
AcDbEntity
  8
0
  6
HIDDEN
 62
     7
370
     0
100
AcDbPolyline
 90
       19
 70
   128
 43
0.0
 10
150.2455605962
 20
111.0231759232
 10
150.4328798339
 20
110.3188893032
 10
150.736830926
 20
109.6995504778
 10
151.1207532906
 20
109.2398608309
 10
151.5383397066
 20
108.9952647891
 10
151.9392233179
 20
108.9952647891
 10
152.2750521847
 20
109.2398608309
 10
152.5053193629
 20
109.6995504778
 10
152.6022518822
 20
110.3188893032
 10
152.5541583844
 20
111.0231759232
 10
152.3668391467
 20
111.7274616119
 10
152.0628875889
 20
112.3468004372
 10
151.67896569
 20
112.8064910155
 10
151.2613788084
 20
113.0510861259
 10
150.8604951971
 20
113.0510861259
 10
150.5246667959
 20
112.8064910155
 10
150.294399152
 20
112.3468004372
 10
150.1974666328
 20
111.7274616119
 10
150.2455605962
 20
111.0231759232
  0
ELLIPSE
  5
ED
330
1F
100
AcDbEntity
  8
0
  6
HIDDEN
 62
     7
370
     0
100
AcDbEllipse
 10
160.2107977339
 20
113.1332638661
 30
0.0
 11
1.760776919379055
 21
2.232245799914438
 31
0.0
210
0.0
220
0.0
230
1.0
 40
0.5126701559
 41
1.100887047646268
 42
4.029627027608244
  0
ARC
  5
EE
330
1F
100
AcDbEntity
  8
0
  6
HIDDEN
 62
     7
370
     0
100
AcDbCircle
 10
159.5141982653
 20
114.3108037472
 30
0.0
 40
0.7945949542257955
100
AcDbArc
 50
53.4208190544
 51
99.1663888759
  0
ELLIPSE
  5
EF
330
1F
100
AcDbEntity
  8
0
  6
HIDDEN
 62
     7
370
     0
100
AcDbEllipse
 10
160.2107977339
 20
113.1332638661
 30
0.0
 11
1.760776919379055
 21
-1.388886188042946
 31
0.0
210
0.0
220
0.0
230
1.0
 40
0.8239737799
 41
2.549926265248561
 42
4.885930273856136
  0
ARC
  5
F0
330
1F
100
AcDbEntity
  8
0
  6
HIDDEN
 62
     7
370
     0
100
AcDbCircle
 10
160.4568504958
 20
112.2937863021
 30
0.0
 40
1.353195702694788
100
AcDbArc
 50
217.8001040701
 51
249.7155767561
  0
LWPOLYLINE
  5
F1
330
1F
100
AcDbEntity
  8
0
  6
HIDDEN
 62
     7
370
     0
100
AcDbPolyline
 90
       19
 70
   128
 43
0.0
 10
160.2107978263
 20
109.4321277198
 10
160.9290403151
 20
109.5511358437
 10
161.5606521093
 20
109.8938048091
 10
162.0294510224
 20
110.4188053143
 10
162.2788945981
 20
111.062813012
 10
162.2788945981
 20
111.7481518742
 10
162.0294510224
 20
112.3921595719
 10
161.5606521093
 20
112.9171600771
 10
160.9290403151
 20
113.2598290425
 10
160.2107978263
 20
113.3788371664
 10
159.4925553375
 20
113.2598290425
 10
158.8609435432
 20
112.9171600771
 10
158.3921446302
 20
112.3921595719
 10
158.1427010544
 20
111.7481518742
 10
158.1427010544
 20
111.062813012
 10
158.3921446302
 20
110.4188053143
 10
158.8609435432
 20
109.8938048091
 10
159.4925553375
 20
109.5511358437
 10
160.2107978263
 20
109.4321277198
  0
SPLINE
  5
F2
330
1F
100
AcDbEntity
  8
0
  6
HIDDEN
 62
     7
370
     0
100
AcDbSpline
210
0.0
220
0.0
230
1.0
 70
    11
 71
     3
 72
    62
 73
    58
 74
     0
 42
0.000000001
 43
0.00000001
 40
0.0
 40
0.0
 40
0.0
 40
0.0
 40
0.0312499999999996
 40
0.0312499999999996
 40
0.0624999999999993
 40
0.0624999999999993
 40
0.1249999999999989
 40
0.1249999999999989
 40
0.1874999999999986
 40
0.1874999999999986
 40
0.2187499999999984
 40
0.2187499999999984
 40
0.2499999999999982
 40
0.2499999999999982
 40
0.281249999999998
 40
0.281249999999998
 40
0.3124999999999978
 40
0.3124999999999978
 40
0.3437499999999976
 40
0.3437499999999976
 40
0.3749999999999974
 40
0.3749999999999974
 40
0.4374999999999969
 40
0.4374999999999969
 40
0.4687499999999969
 40
0.4687499999999969
 40
0.4999999999999969
 40
0.4999999999999969
 40
0.5312499999999969
 40
0.5312499999999969
 40
0.5624999999999968
 40
0.5624999999999968
 40
0.5937499999999968
 40
0.5937499999999968
 40
0.6249999999999968
 40
0.6249999999999968
 40
0.6562499999999969
 40
0.6562499999999969
 40
0.6874999999999971
 40
0.6874999999999971
 40
0.7187499999999973
 40
0.7187499999999973
 40
0.7499999999999974
 40
0.7499999999999974
 40
0.7812499999999977
 40
0.7812499999999977
 40
0.8124999999999979
 40
0.8124999999999979
 40
0.8749999999999982
 40
0.8749999999999982
 40
0.9062499999999987
 40
0.9062499999999987
 40
0.9374999999999991
 40
0.9374999999999991
 40
0.9687499999999994
 40
0.9687499999999994
 40
1.0
 40
1.0
 40
1.0
 40
1.0
 10
160.2107977338717
 20
121.6266793421935
 30
0.0
 10
160.0695995098918
 20
121.6266793421935
 30
0.0
 10
159.9313216328781
 20
121.637147278577
 30
0.0
 10
159.6601555616702
 20
121.6781707595124
 30
0.0
 10
159.5259522342107
 20
121.709297212928
 30
0.0
 10
159.1468890544205
 20
121.8306712008398
 30
0.0
 10
158.9178821327267
 20
121.950825974848
 30
0.0
 10
158.5368515137239
 20
122.2596048738708
 30
0.0
 10
158.3812284368023
 20
122.4517740420347
 30
0.0
 10
158.2221579602337
 20
122.7817583538729
 30
0.0
 10
158.1804308150903
 20
122.901257717185
 30
0.0
 10
158.1251601139483
 20
123.1478421163407
 30
0.0
 10
158.1110801824585
 20
123.2750140467779
 30
0.0
 10
158.1105236161372
 20
123.537503239474
 30
0.0
 10
158.1245128935579
 20
123.672645608171
 30
0.0
 10
158.1789944127935
 20
123.9371307015308
 30
0.0
 10
158.2198448709485
 20
124.0692806057768
 30
0.0
 10
158.3264588378078
 20
124.3259763566986
 30
0.0
 10
158.3912109800809
 20
124.4487142411526
 30
0.0
 10
158.5427695220335
 20
124.6830849899109
 30
0.0
 10
158.6301076452065
 20
124.7949024909244
 30
0.0
 10
158.9158840661681
 20
125.1000859560527
 30
0.0
 10
159.1454204146338
 20
125.2709002752325
 30
0.0
 10
159.5217385506281
 20
125.4474106382065
 30
0.0
 10
159.6540714589888
 20
125.4938954454003
 30
0.0
 10
159.9281041179796
 20
125.5569991581404
 30
0.0
 10
160.0661292776018
 20
125.5729568478847
 30
0.0
 10
160.3442006588205
 20
125.5738027167464
 30
0.0
 10
160.4859135974908
 20
125.5580780417733
 30
0.0
 10
160.7583358531712
 20
125.4966375992741
 30
0.0
 10
160.8901639976683
 20
125.4513159555877
 30
0.0
 10
161.1455628932729
 20
125.3327681525867
 30
0.0
 10
161.2657288964622
 20
125.2610810693704
 30
0.0
 10
161.4909003090185
 20
125.096352503372
 30
0.0
 10
161.5970513703528
 20
125.0020932303371
 30
0.0
 10
161.788498659055
 20
124.7985285561934
 30
0.0
 10
161.8744326729746
 20
124.6890612659543
 30
0.0
 10
162.0268449910146
 20
124.4549636634703
 30
0.0
 10
162.093028481302
 20
124.3300694405724
 30
0.0
 10
162.1992101798531
 20
124.0763376890376
 30
0.0
 10
162.2401902430689
 20
123.9461680042539
 30
0.0
 10
162.2962703838663
 20
123.6791043091251
 30
0.0
 10
162.3104945593076
 20
123.5451510791098
 30
0.0
 10
162.311091243179
 20
123.2836943366418
 30
0.0
 10
162.2973226756806
 20
123.1535769672544
 30
0.0
 10
162.2424726087386
 20
122.9053861117705
 30
0.0
 10
162.2019760954621
 20
122.7880306206898
 30
0.0
 10
162.042513624286
 20
122.4542814989501
 30
0.0
 10
161.8878451999718
 20
122.2624419270241
 30
0.0
 10
161.5995371686272
 20
122.0283193590544
 30
0.0
 10
161.4955123532793
 20
121.9601629496911
 30
0.0
 10
161.2710930951006
 20
121.8414520104671
 30
0.0
 10
161.14916230724
 20
121.7905300740987
 30
0.0
 10
160.896705155814
 20
121.7095802392771
 30
0.0
 10
160.7658186258969
 20
121.6790449202781
 30
0.0
 10
160.493877708184
 20
121.6374868915337
 30
0.0
 10
160.3519959578516
 20
121.6266793421935
 30
0.0
 10
160.2107977338717
 20
121.6266793421935
 30
0.0
  0
SPLINE
  5
F3
330
1F
100
AcDbEntity
  8
0
  6
HIDDEN
 62
     7
370
     0
100
AcDbSpline
210
0.0
220
0.0
230
1.0
 70
     8
 71
     3
 72
     8
 73
     4
 74
     0
 42
0.000000001
 43
0.00000001
 40
0.0
 40
0.0
 40
0.0
 40
0.0
 40
1.0
 40
1.0
 40
1.0
 40
1.0
 10
159.3876175577123
 20
115.0952519419426
 30
0.0
 10
159.5990449477135
 20
115.0877424321601
 30
0.0
 10
159.8015134942463
 20
115.0336189025255
 30
0.0
 10
159.9877240933836
 20
114.9488906153003
 30
0.0
  0
SPLINE
  5
F4
330
1F
100
AcDbEntity
  8
0
  6
HIDDEN
 62
     7
370
     0
100
AcDbSpline
210
0.0
220
0.0
230
1.0
 70
     8
 71
     3
 72
     8
 73
     4
 74
     0
 42
0.000000001
 43
0.00000001
 40
0.0
 40
0.0
 40
0.0
 40
0.0
 40
1.0
 40
1.0
 40
1.0
 40
1.0
 10
159.9877240933836
 20
111.0245118473661
 30
0.0
 10
159.8011997440992
 20
111.1468322632665
 30
0.0
 10
159.5986448455736
 20
111.2879174239312
 30
0.0
 10
159.3876175577123
 20
111.4644010597161
 30
0.0
  0
LINE
  5
F5
330
1F
100
AcDbEntity
  8
0
  6
HIDDEN
 62
     7
370
     0
100
AcDbLine
 10
244.5607970305
 20
113.6454804074
 30
0.0
 11
244.5607970305
 21
136.0820675474
 31
0.0
  0
LINE
  5
F6
330
1F
100
AcDbEntity
  8
0
  6
HIDDEN
 62
     7
370
     0
100
AcDbLine
 10
241.2608007737
 20
116.8321179431
 30
0.0
 11
241.2608007737
 21
132.8954300117
 31
0.0
  0
LINE
  5
F7
330
1F
100
AcDbEntity
  8
0
  6
HIDDEN
 62
     7
370
     0
100
AcDbLine
 10
149.3823705543
 20
89.5637724754
 30
0.0
 11
149.210797653
 21
89.5637724754
 31
0.0
  0
ELLIPSE
  5
F8
330
1F
100
AcDbEntity
  8
0
  6
HIDDEN
 62
     7
370
     0
100
AcDbEllipse
 10
149.3823706091
 20
87.5637739774
 30
0.0
 11
0.0
 21
2.0
 31
0.0
210
0.0
220
0.0
230
1.0
 40
0.4142135624
 41
4.712388980384695
 42
6.283185307179586
  0
LINE
  5
F9
330
1F
100
AcDbEntity
  8
0
  6
HIDDEN
 62
     7
370
     0
100
AcDbLine
 10
149.210797653
 20
162.3637754675
 30
0.0
 11
149.3823705543
 21
162.3637754675
 31
0.0
  0
ELLIPSE
  5
FA
330
1F
100
AcDbEntity
  8
0
  6
HIDDEN
 62
     7
370
     0
100
AcDbEllipse
 10
149.3823706091
 20
164.3637739774
 30
0.0
 11
0.0
 21
2.0
 31
0.0
210
0.0
220
0.0
230
1.0
 40
0.4142135624
 41
3.141592653589793
 42
4.712388980384695
  0
LINE
  5
FB
330
1F
100
AcDbEntity
  8
0
  6
HIDDEN
 62
     7
370
     0
100
AcDbLine
 10
150.2107975841
 20
78.6778595504
 30
0.0
 11
149.4264577352
 21
78.2303180751
 31
0.0
  0
LINE
  5
FC
330
1F
100
AcDbEntity
  8
0
  6
HIDDEN
 62
     7
370
     0
100
AcDbLine
 10
149.5006666821
 20
171.5739373323
 30
0.0
 11
150.2107975841
 21
170.8638075944
 31
0.0
  0
LINE
  5
FD
330
1F
100
AcDbEntity
  8
0
  6
HIDDEN
 62
     7
370
     0
100
AcDbLine
 10
165.0607979693
 20
89.5637724754
 30
0.0
 11
149.3823705543
 21
89.5637724754
 31
0.0
  0
LINE
  5
FE
330
1F
100
AcDbEntity
  8
0
  6
HIDDEN
 62
     7
370
     0
100
AcDbLine
 10
154.3307502591
 20
78.6778595504
 30
0.0
 11
150.2107975841
 21
78.6778595504
 31
0.0
  0
LINE
  5
FF
330
1F
100
AcDbEntity
  8
0
  6
HIDDEN
 62
     7
370
     0
100
AcDbLine
 10
165.0607979693
 20
78.6778595504
 30
0.0
 11
159.890845681
 21
78.6778595504
 31
0.0
  0
LINE
  5
100
330
1F
100
AcDbEntity
  8
0
  6
HIDDEN
 62
     7
370
     0
100
AcDbLine
 10
150.2107975841
 20
78.6778595504
 30
0.0
 11
150.2107975841
 21
87.5637721476
 31
0.0
  0
LINE
  5
101
330
1F
100
AcDbEntity
  8
0
  6
HIDDEN
 62
     7
370
     0
100
AcDbLine
 10
149.3823705543
 20
162.3637754675
 30
0.0
 11
165.0607979693
 21
162.3637754675
 31
0.0
  0
LINE
  5
102
330
1F
100
AcDbEntity
  8
0
  6
HIDDEN
 62
     7
370
     0
100
AcDbLine
 10
150.2107975841
 20
170.8638075944
 30
0.0
 11
154.4341270649
 21
170.8638075944
 31
0.0
  0
LINE
  5
103
330
1F
100
AcDbEntity
  8
0
  6
HIDDEN
 62
     7
370
     0
100
AcDbLine
 10
159.7874688753
 20
170.8638075944
 30
0.0
 11
165.0607979693
 21
170.8638075944
 31
0.0
  0
LINE
  5
104
330
1F
100
AcDbEntity
  8
0
  6
HIDDEN
 62
     7
370
     0
100
AcDbLine
 10
150.2107975841
 20
170.8638075944
 30
0.0
 11
150.2107975841
 21
164.3637757954
 31
0.0
  0
LINE
  5
105
330
1F
100
AcDbEntity
  8
0
  6
HIDDEN
 62
     7
370
     0
100
AcDbLine
 10
54.4107968756
 20
112.3637737912
 30
0.0
 11
54.4107968756
 21
137.3637741637
 31
0.0
  0
LINE
  5
106
330
1F
100
AcDbEntity
  8
0
  6
HIDDEN
 62
     7
370
     0
100
AcDbLine
 10
240.2607987472
 20
112.8637738731
 30
0.0
 11
240.2607987472
 21
136.8637740817
 31
0.0
  0
LINE
  5
107
330
1F
100
AcDbEntity
  8
0
  6
HIDDEN
 62
     7
370
     0
100
AcDbLine
 10
241.2608007737
 20
132.8954300117
 30
0.0
 11
244.5607970305
 21
132.8954300117
 31
0.0
  0
LINE
  5
108
330
1F
100
AcDbEntity
  8
0
  6
HIDDEN
 62
     7
370
     0
100
AcDbLine
 10
241.2608007737
 20
135.6637742576
 30
0.0
 11
241.2608007737
 21
132.8954300117
 31
0.0
  0
LINE
  5
109
330
1F
100
AcDbEntity
  8
0
  6
HIDDEN
 62
     7
370
     0
100
AcDbLine
 10
244.5607970305
 20
140.638910627
 30
0.0
 11
244.5607970305
 21
140.4828293454
 31
0.0
  0
LINE
  5
10A
330
1F
100
AcDbEntity
  8
0
  6
HIDDEN
 62
     7
370
     0
100
AcDbLine
 10
241.2608007737
 20
140.4828293454
 30
0.0
 11
244.5607970305
 21
140.4828293454
 31
0.0
  0
LINE
  5
10B
330
1F
100
AcDbEntity
  8
0
  6
HIDDEN
 62
     7
370
     0
100
AcDbLine
 10
241.2608007737
 20
140.8637747374
 30
0.0
 11
241.2608007737
 21
135.6637742576
 31
0.0
  0
SPLINE
  5
10C
330
1F
100
AcDbEntity
  8
0
  6
HIDDEN
 62
     7
370
     0
100
AcDbSpline
210
0.0
220
0.0
230
1.0
 70
     8
 71
     3
 72
    12
 73
     8
 74
     0
 42
0.000000001
 43
0.00000001
 40
0.0
 40
0.0
 40
0.0
 40
0.0
 40
0.5000000000000003
 40
0.5000000000000003
 40
0.7500000000000001
 40
0.7500000000000001
 40
1.0
 40
1.0
 40
1.0
 40
1.0
 10
244.5607977338717
 20
136.0820678494454
 30
0.0
 10
244.6851555691922
 20
136.5215577912686
 30
0.0
 10
244.7933215246001
 20
136.9539243216299
 30
0.0
 10
244.9328111805636
 20
137.5904345696038
 30
0.0
 10
244.9751615869077
 20
137.7994486628543
 30
0.0
 10
245.0498995063569
 20
138.2008257556283
 30
0.0
 10
245.0826257408711
 20
138.3947031883645
 30
0.0
 10
245.1107977338717
 20
138.5816391510841
 30
0.0
  0
LINE
  5
10D
330
1F
100
AcDbEntity
  8
0
  6
HIDDEN
 62
     7
370
     0
100
AcDbLine
 10
244.5607970305
 20
116.8321179431
 30
0.0
 11
241.2608007737
 21
116.8321179431
 31
0.0
  0
LINE
  5
10E
330
1F
100
AcDbEntity
  8
0
  6
HIDDEN
 62
     7
370
     0
100
AcDbLine
 10
241.2608007737
 20
116.8321179431
 30
0.0
 11
241.2608007737
 21
114.0637736973
 31
0.0
  0
LINE
  5
10F
330
1F
100
AcDbEntity
  8
0
  6
HIDDEN
 62
     7
370
     0
100
AcDbLine
 10
241.2608007737
 20
109.2447186094
 30
0.0
 11
244.5607970305
 21
109.2447186094
 31
0.0
  0
LINE
  5
110
330
1F
100
AcDbEntity
  8
0
  6
HIDDEN
 62
     7
370
     0
100
AcDbLine
 10
244.5607970305
 20
109.2447186094
 30
0.0
 11
244.5607970305
 21
109.0886373278
 31
0.0
  0
LINE
  5
111
330
1F
100
AcDbEntity
  8
0
  6
HIDDEN
 62
     7
370
     0
100
AcDbLine
 10
241.2608007737
 20
114.0637736973
 30
0.0
 11
241.2608007737
 21
108.8637732175
 31
0.0
  0
SPLINE
  5
112
330
1F
100
AcDbEntity
  8
0
  6
HIDDEN
 62
     7
370
     0
100
AcDbSpline
210
0.0
220
0.0
230
1.0
 70
     8
 71
     3
 72
    12
 73
     8
 74
     0
 42
0.000000001
 43
0.00000001
 40
0.0
 40
0.0
 40
0.0
 40
0.0
 40
0.5000000000000006
 40
0.5000000000000006
 40
0.7500000000000002
 40
0.7500000000000002
 40
1.0
 40
1.0
 40
1.0
 40
1.0
 10
245.1107977338717
 20
111.1459088037583
 30
0.0
 10
245.05388982237
 20
111.5235226709319
 30
0.0
 10
244.9795174360613
 20
111.9234712412377
 30
0.0
 10
244.8414451023584
 20
112.5542819761011
 30
0.0
 10
244.7906231293221
 20
112.7709454757283
 30
0.0
 10
244.6815300671826
 20
113.2060387495433
 30
0.0
 10
244.6231665531449
 20
113.4250640079046
 30
0.0
 10
244.5607977338717
 20
113.6454801053971
 30
0.0
  0
LINE
  5
113
330
1F
100
AcDbEntity
  8
0
  6
HIDDEN
 62
     7
370
     0
100
AcDbLine
 10
57.6954002329
 20
114.363774119
 30
0.0
 11
57.6954002329
 21
135.3637738359
 31
0.0
  0
LINE
  5
114
330
1F
100
AcDbEntity
  8
0
  6
HIDDEN
 62
     7
370
     0
100
AcDbLine
 10
220.1108003803
 20
113.1637742948
 30
0.0
 11
220.1108003803
 21
136.56377366
 31
0.0
  0
LINE
  5
115
330
1F
100
AcDbEntity
  8
0
  6
HIDDEN
 62
     7
370
     0
100
AcDbLine
 10
222.6107979961
 20
112.8637738731
 30
0.0
 11
222.6107979961
 21
136.8637740817
 31
0.0
  0
LINE
  5
116
330
1F
100
AcDbEntity
  8
0
  6
HIDDEN
 62
     7
370
     0
100
AcDbLine
 10
106.4107979484
 20
114.363774119
 30
0.0
 11
106.4107979484
 21
135.3637738359
 31
0.0
  0
LINE
  5
117
330
1F
100
AcDbEntity
  8
0
  6
HIDDEN
 62
     7
370
     0
100
AcDbLine
 10
110.1661774167
 20
120.6137737465
 30
0.0
 11
110.1661774167
 21
129.1137742084
 31
0.0
  0
LINE
  5
118
330
1F
100
AcDbEntity
  8
0
  6
HIDDEN
 62
     7
370
     0
100
AcDbLine
 10
244.5607970305
 20
108.0432519522
 30
0.0
 11
244.5607970305
 21
109.0886373278
 31
0.0
  0
LINE
  5
119
330
1F
100
AcDbEntity
  8
0
  6
HIDDEN
 62
     7
370
     0
100
AcDbLine
 10
244.5607970305
 20
140.638910627
 30
0.0
 11
244.5607970305
 21
141.6842960026
 31
0.0
  0
LINE
  5
11A
330
1F
100
AcDbEntity
  8
0
  6
HIDDEN
 62
     7
370
     0
100
AcDbLine
 10
241.2608007737
 20
141.3887743112
 30
0.0
 11
241.2608007737
 21
140.8637747374
 31
0.0
  0
LINE
  5
11B
330
1F
100
AcDbEntity
  8
0
  6
HIDDEN
 62
     7
370
     0
100
AcDbLine
 10
241.2608007737
 20
108.8637732175
 30
0.0
 11
241.2608007737
 21
108.3387736436
 31
0.0
  0
SPLINE
  5
11C
330
1F
100
AcDbEntity
  8
0
  6
HIDDEN
 62
     7
370
     0
100
AcDbSpline
210
0.0
220
0.0
230
1.0
 70
    11
 71
     3
 72
    62
 73
    58
 74
     0
 42
0.000000001
 43
0.00000001
 40
0.0
 40
0.0
 40
0.0
 40
0.0
 40
0.0312500000000004
 40
0.0312500000000004
 40
0.0625000000000007
 40
0.0625000000000007
 40
0.1250000000000011
 40
0.1250000000000011
 40
0.1875000000000015
 40
0.1875000000000015
 40
0.2187500000000016
 40
0.2187500000000016
 40
0.2500000000000016
 40
0.2500000000000016
 40
0.2812500000000017
 40
0.2812500000000017
 40
0.3125000000000017
 40
0.3125000000000017
 40
0.3437500000000017
 40
0.3437500000000017
 40
0.3750000000000018
 40
0.3750000000000018
 40
0.4375000000000019
 40
0.4375000000000019
 40
0.4687500000000018
 40
0.4687500000000018
 40
0.5000000000000017
 40
0.5000000000000017
 40
0.5312500000000016
 40
0.5312500000000016
 40
0.5625000000000016
 40
0.5625000000000016
 40
0.5937500000000014
 40
0.5937500000000014
 40
0.6250000000000013
 40
0.6250000000000013
 40
0.6562500000000013
 40
0.6562500000000013
 40
0.6875000000000012
 40
0.6875000000000012
 40
0.7187500000000012
 40
0.7187500000000012
 40
0.7500000000000011
 40
0.7500000000000011
 40
0.781250000000001
 40
0.781250000000001
 40
0.812500000000001
 40
0.812500000000001
 40
0.8750000000000008
 40
0.8750000000000008
 40
0.9062500000000007
 40
0.9062500000000007
 40
0.9375000000000004
 40
0.9375000000000004
 40
0.9687500000000003
 40
0.9687500000000003
 40
1.0
 40
1.0
 40
1.0
 40
1.0
 10
160.2107977338717
 20
124.1541596053481
 30
0.0
 10
160.3519959578516
 20
124.1541596053481
 30
0.0
 10
160.4902738348653
 20
124.1701710153396
 30
0.0
 10
160.7614399060732
 20
124.2319005809625
 30
0.0
 10
160.8956432335327
 20
124.2784383444173
 30
0.0
 10
161.2747064133229
 20
124.4554146731523
 30
0.0
 10
161.5037133350167
 20
124.6258409668614
 30
0.0
 10
161.8847439540194
 20
125.0317272442847
 30
0.0
 10
162.0403670309411
 20
125.2713976856207
 30
0.0
 10
162.1994375075097
 20
125.6518745129374
 30
0.0
 10
162.2411646526531
 20
125.7851432482424
 30
0.0
 10
162.2964353537951
 20
126.0501244838712
 30
0.0
 10
162.3105152852849
 20
126.1820897985891
 30
0.0
 10
162.3110718516061
 20
126.4447671084033
 30
0.0
 10
162.2970825741855
 20
126.5751469723609
 30
0.0
 10
162.2426010549498
 20
126.8214909030841
 30
0.0
 10
162.2017505967949
 20
126.9401451730669
 30
0.0
 10
162.0951366299355
 20
127.1629714398222
 30
0.0
 10
162.0303844876625
 20
127.2656565508067
 30
0.0
 10
161.8788259457099
 20
127.45577980372
 30
0.0
 10
161.7914878225369
 20
127.5432865949394
 30
0.0
 10
161.5057114015753
 20
127.775554090388
 30
0.0
 10
161.2761750531095
 20
127.8960028330306
 30
0.0
 10
160.8998569171153
 20
128.0170994253322
 30
0.0
 10
160.7675240087546
 20
128.0482075587685
 30
0.0
 10
160.4934913497637
 20
128.0901547983241
 30
0.0
 10
160.3554661901416
 20
128.1005850329337
 30
0.0
 10
160.0773948089229
 20
128.1011409318006
 30
0.0
 10
159.9356818702525
 20
128.0908624729705
 30
0.0
 10
159.6632596145722
 20
128.0500392882773
 30
0.0
 10
159.5314314700751
 20
128.0197459524026
 30
0.0
 10
159.2760325744705
 20
127.9384787621117
 30
0.0
 10
159.1558665712812
 20
127.8885309112534
 30
0.0
 10
158.9306951587249
 20
127.7702097000554
 30
0.0
 10
158.8245440973905
 20
127.7009165909729
 30
0.0
 10
158.6330968086884
 20
127.5461019423791
 30
0.0
 10
158.5471627947688
 20
127.4605159545084
 30
0.0
 10
158.3947504767288
 20
127.2708322824314
 30
0.0
 10
158.3285669864413
 20
127.1664110213608
 30
0.0
 10
158.2223852878902
 20
126.9463796815535
 30
0.0
 10
158.1814052246744
 20
126.8297311954441
 30
0.0
 10
158.1253250838771
 20
126.5813298144548
 30
0.0
 10
158.1111009084358
 20
126.4522198256506
 30
0.0
 10
158.1105042245643
 20
126.1909647598185
 30
0.0
 10
158.1242727920627
 20
126.0561584691458
 30
0.0
 10
158.1791228590048
 20
125.7897033547914
 30
0.0
 10
158.2196193722813
 20
125.6589694200928
 30
0.0
 10
158.3790818434574
 20
125.2745539660892
 30
0.0
 10
158.5337502677716
 20
125.0353949342124
 30
0.0
 10
158.8220582991162
 20
124.7277355747686
 30
0.0
 10
158.9260831144641
 20
124.6350624580043
 30
0.0
 10
159.1505023726428
 20
124.4699196153647
 30
0.0
 10
159.2724331605033
 20
124.3968787466855
 30
0.0
 10
159.5248903119293
 20
124.2788568304131
 30
0.0
 10
159.6557768418465
 20
124.2332091247954
 30
0.0
 10
159.9277177595593
 20
124.1706886853282
 30
0.0
 10
160.0695995098918
 20
124.1541596053481
 30
0.0
 10
160.2107977338717
 20
124.1541596053481
 30
0.0
  0
SPLINE
  5
11D
330
1F
100
AcDbEntity
  8
0
  6
HIDDEN
 62
     7
370
     0
100
AcDbSpline
210
0.0
220
0.0
230
1.0
 70
     8
 71
     3
 72
     8
 73
     4
 74
     0
 42
0.000000001
 43
0.00000001
 40
0.0
 40
0.0
 40
0.0
 40
0.0
 40
1.0
 40
1.0
 40
1.0
 40
1.0
 10
159.3876175577122
 20
134.6322960128999
 30
0.0
 10
159.5990449477134
 20
134.6398055226823
 30
0.0
 10
159.8015134942462
 20
134.693929052317
 30
0.0
 10
159.9877240933835
 20
134.7786573395422
 30
0.0
  0
ELLIPSE
  5
11E
330
1F
100
AcDbEntity
  8
0
  6
HIDDEN
 62
     7
370
     0
100
AcDbEllipse
 10
160.2107977339
 20
136.5942840888
 30
0.0
 11
-1.760776919379083
 21
2.232245799914438
 31
0.0
210
0.0
220
0.0
230
1.0
 40
0.5126701559
 41
5.395150933160724
 42
8.323890913123092
  0
SPLINE
  5
11F
330
1F
100
AcDbEntity
  8
0
  6
HIDDEN
 62
     7
370
     0
100
AcDbSpline
210
0.0
220
0.0
230
1.0
 70
     8
 71
     3
 72
     8
 73
     4
 74
     0
 42
0.000000001
 43
0.00000001
 40
0.0
 40
0.0
 40
0.0
 40
0.0
 40
1.0
 40
1.0
 40
1.0
 40
1.0
 10
159.9877240933844
 20
138.7030361074768
 30
0.0
 10
159.8011997440995
 20
138.5807156915761
 30
0.0
 10
159.5986448455734
 20
138.4396305309111
 30
0.0
 10
159.3876175577116
 20
138.2631468951257
 30
0.0
  0
ELLIPSE
  5
120
330
1F
100
AcDbEntity
  8
0
  6
HIDDEN
 62
     7
370
     0
100
AcDbEllipse
 10
160.2107977339
 20
136.5942840888
 30
0.0
 11
1.760776919379083
 21
1.388886188042932
 31
0.0
210
0.0
220
0.0
230
1.0
 40
0.8239737799
 41
1.39725503332392
 42
3.733259041931057
  0
LWPOLYLINE
  5
121
330
1F
100
AcDbEntity
  8
0
  6
HIDDEN
 62
     7
370
     0
100
AcDbPolyline
 90
       19
 70
   128
 43
0.0
 10
160.2107978263
 20
136.3487107885
 10
160.9290403151
 20
136.4677189123
 10
161.5606521093
 20
136.8103878778
 10
162.0294510224
 20
137.3353883829
 10
162.2788945981
 20
137.9793960806
 10
162.2788945981
 20
138.6647349429
 10
162.0294510224
 20
139.3087426406
 10
161.5606521093
 20
139.8337431457
 10
160.9290403151
 20
140.1764121112
 10
160.2107978263
 20
140.2954202351
 10
159.4925553375
 20
140.1764121112
 10
158.8609435432
 20
139.8337431457
 10
158.3921446302
 20
139.3087426406
 10
158.1427010544
 20
138.6647349429
 10
158.1427010544
 20
137.9793960806
 10
158.3921446302
 20
137.3353883829
 10
158.8609435432
 20
136.8103878778
 10
159.4925553375
 20
136.4677189123
 10
160.2107978263
 20
136.3487107885
  0
LINE
  5
122
330
1F
100
AcDbEntity
  8
0
  6
HIDDEN
 62
     7
370
     0
100
AcDbLine
 10
155.2007973962
 20
160.25681833
 30
0.0
 11
155.2007973962
 21
154.713774493
 31
0.0
  0
LINE
  5
123
330
1F
100
AcDbEntity
  8
0
  6
HIDDEN
 62
     7
370
     0
100
AcDbLine
 10
159.0207976126
 20
160.25681833
 30
0.0
 11
159.0207976126
 21
154.713774493
 31
0.0
  0
SPLINE
  5
124
330
1F
100
AcDbEntity
  8
0
  6
HIDDEN
 62
     7
370
     0
100
AcDbSpline
210
0.0
220
0.0
230
1.0
 70
     8
 71
     3
 72
    14
 73
    10
 74
     0
 42
0.000000001
 43
0.00000001
 40
0.0
 40
0.0
 40
0.0
 40
0.0
 40
0.25
 40
0.25
 40
0.5
 40
0.5
 40
0.75
 40
0.75
 40
1.0
 40
1.0
 40
1.0
 40
1.0
 10
158.2207977338715
 20
141.839063534355
 30
0.0
 10
158.2952232860061
 20
141.9299209891367
 30
0.0
 10
158.3771015456196
 20
142.0191315723424
 30
0.0
 10
158.5500876917951
 20
142.1945558911343
 30
0.0
 10
158.6407595116561
 20
142.2800908467611
 30
0.0
 10
158.8081230610005
 20
142.4409424596995
 30
0.0
 10
158.884573885967
 20
142.516674548596
 30
0.0
 10
158.9908669708055
 20
142.6482655721715
 30
0.0
 10
159.0207977338717
 20
142.7052657470777
 30
0.0
 10
159.0207977338717
 20
142.7474630200298
 30
0.0
  0
LINE
  5
125
330
1F
100
AcDbEntity
  8
0
  6
HIDDEN
 62
     7
370
     0
100
AcDbLine
 10
159.0207976126
 20
111.0665122252
 30
0.0
 11
159.0207976126
 21
106.9344714489
 31
0.0
  0
SPLINE
  5
126
330
1F
100
AcDbEntity
  8
0
  6
HIDDEN
 62
     7
370
     0
100
AcDbSpline
210
0.0
220
0.0
230
1.0
 70
     8
 71
     3
 72
    14
 73
    10
 74
     0
 42
0.000000001
 43
0.00000001
 40
0.0
 40
0.0
 40
0.0
 40
0.0
 40
0.25
 40
0.25
 40
0.5
 40
0.5
 40
0.75
 40
0.75
 40
1.0
 40
1.0
 40
1.0
 40
1.0
 10
159.0207977338717
 20
138.6154218213983
 30
0.0
 10
159.0207977338717
 20
138.5729214037437
 30
0.0
 10
158.991084275055
 20
138.5456494972611
 30
0.0
 10
158.8850029081628
 20
138.5320967232939
 30
0.0
 10
158.8086359789982
 20
138.5465422804349
 30
0.0
 10
158.6398764344698
 20
138.6189184444548
 30
0.0
 10
158.5490796219979
 20
138.6759913795722
 30
0.0
 10
158.3775146817905
 20
138.8171493130891
 30
0.0
 10
158.2954534414961
 20
138.9017265281727
 30
0.0
 10
158.2207977338715
 20
138.9950996913019
 30
0.0
  0
LINE
  5
127
330
1F
100
AcDbEntity
  8
0
  6
HIDDEN
 62
     7
370
     0
100
AcDbLine
 10
153.8776366808
 20
163.3748527822
 30
0.0
 11
153.8776366808
 21
154.713774493
 31
0.0
  0
LINE
  5
128
330
1F
100
AcDbEntity
  8
0
  6
HIDDEN
 62
     7
370
     0
100
AcDbLine
 10
160.3439592593
 20
110.566626696
 30
0.0
 11
160.3439592593
 21
105.8748331126
 31
0.0
  0
LINE
  5
129
330
1F
100
AcDbEntity
  8
0
  6
HIDDEN
 62
     7
370
     0
100
AcDbLine
 10
160.3439592593
 20
163.3748527822
 30
0.0
 11
160.3439592593
 21
154.713774493
 31
0.0
  0
ARC
  5
12A
330
1F
100
AcDbEntity
  8
0
  6
HIDDEN
 62
     7
370
     0
100
AcDbCircle
 10
160.4568504958
 20
137.4337616528
 30
0.0
 40
1.353195702694764
100
AcDbArc
 50
110.2844232439
 51
142.1998959299
  0
ARC
  5
12B
330
1F
100
AcDbEntity
  8
0
  6
HIDDEN
 62
     7
370
     0
100
AcDbCircle
 10
159.5141982653
 20
135.4167442076
 30
0.0
 40
0.7945949542257815
100
AcDbArc
 50
260.8336111241
 51
306.5791809456
  0
LWPOLYLINE
  5
12C
330
1F
100
AcDbEntity
  8
0
  6
HIDDEN
 62
     7
370
     0
100
AcDbPolyline
 90
       19
 70
   128
 43
0.0
 10
150.2455605962
 20
137.576725727
 10
150.4328798339
 20
137.0554337483
 10
150.736830926
 20
136.7330275681
 10
151.1207532906
 20
136.6483954918
 10
151.5383397066
 20
136.8117448148
 10
151.9392233179
 20
137.2033724767
 10
152.2750521847
 20
137.7760427278
 10
152.5053193629
 20
138.4606830981
 10
152.6022518822
 20
139.1747169402
 10
152.5541583844
 20
139.8320192676
 10
152.3668391467
 20
140.3533112463
 10
152.0628875889
 20
140.6757164952
 10
151.67896569
 20
140.7603495028
 10
151.2613788084
 20
140.5970011112
 10
150.8604951971
 20
140.205372518
 10
150.5246667959
 20
139.6327022668
 10
150.294399152
 20
138.9480618965
 10
150.1974666328
 20
138.2340280544
 10
150.2455605962
 20
137.576725727
  0
LWPOLYLINE
  5
12D
330
1F
100
AcDbEntity
  8
0
  6
HIDDEN
 62
     7
370
     0
100
AcDbPolyline
 90
       23
 70
   128
 43
0.0
 10
149.4825287093
 20
137.1577097308
 10
149.6878366754
 20
136.5295028519
 10
150.0101040885
 20
136.0826971215
 10
150.4232224845
 20
135.8534902539
 10
150.8937233896
 20
135.8604500275
 10
151.3834896334
 20
136.1030148548
 10
151.8528436147
 20
136.5615310353
 10
152.2637608298
 20
137.1988546309
 10
152.5829511531
 20
137.9633521866
 10
152.7845554822
 20
138.7930888888
 10
152.8522416786
 20
139.6208437365
 10
152.7805256494
 20
140.3795587104
 10
152.5752174505
 20
141.007764658
 10
152.2529500373
 20
141.4545703885
 10
151.8398316414
 20
141.6837781873
 10
151.3693307363
 20
141.6768174824
 10
150.8795644925
 20
141.4342526552
 10
150.4102105111
 20
140.9757364747
 10
149.9992932961
 20
140.3384138104
 10
149.6801032056
 20
139.5739162546
 10
149.4784986437
 20
138.7441795525
 10
149.4108126801
 20
137.9164237734
 10
149.4825287093
 20
137.1577097308
  0
LWPOLYLINE
  5
12E
330
1F
100
AcDbEntity
  8
0
  6
HIDDEN
 62
     7
370
     0
100
AcDbPolyline
 90
       21
 70
   128
 43
0.0
 10
160.2107978263
 20
136.0226277467
 10
160.9833401465
 20
136.1376079005
 10
161.6802609362
 20
136.4712914657
 10
162.2333398857
 20
136.9910160285
 10
162.5884382822
 20
137.6459071618
 10
162.7107973047
 20
138.3718591389
 10
162.5884382822
 20
139.0978120473
 10
162.2333398857
 20
139.7527031806
 10
161.6802609362
 20
140.2724277433
 10
160.9833401465
 20
140.6061113086
 10
160.2107978263
 20
140.721090531
 10
159.4382555061
 20
140.6061113086
 10
158.7413347163
 20
140.2724277433
 10
158.1882548355
 20
139.7527031806
 10
157.833156439
 20
139.0978120473
 10
157.7107974165
 20
138.3718591389
 10
157.833156439
 20
137.6459071618
 10
158.1882548355
 20
136.9910160285
 10
158.7413347163
 20
136.4712914657
 10
159.4382555061
 20
136.1376079005
 10
160.2107978263
 20
136.0226277467
  0
SPLINE
  5
12F
330
1F
100
AcDbEntity
  8
0
  6
HIDDEN
 62
     7
370
     0
100
AcDbSpline
210
0.0
220
0.0
230
1.0
 70
     8
 71
     3
 72
    34
 73
    30
 74
     0
 42
0.000000001
 43
0.00000001
 40
0.0
 40
0.0
 40
0.0
 40
0.0
 40
0.062499999999999
 40
0.062499999999999
 40
0.124999999999998
 40
0.124999999999998
 40
0.1874999999999971
 40
0.1874999999999971
 40
0.2499999999999966
 40
0.2499999999999966
 40
0.3124999999999962
 40
0.3124999999999962
 40
0.3749999999999957
 40
0.3749999999999957
 40
0.4999999999999958
 40
0.4999999999999958
 40
0.6249999999999958
 40
0.6249999999999958
 40
0.6874999999999964
 40
0.6874999999999964
 40
0.7499999999999971
 40
0.7499999999999971
 40
0.8124999999999979
 40
0.8124999999999979
 40
0.8749999999999986
 40
0.8749999999999986
 40
0.9374999999999992
 40
0.9374999999999992
 40
1.0
 40
1.0
 40
1.0
 40
1.0
 10
160.3439592413336
 20
143.8527143654224
 30
0.0
 10
160.5033510691214
 20
143.8448742694996
 30
0.0
 10
160.659353552565
 20
143.8232156214092
 30
0.0
 10
160.9648630686423
 20
143.7533673939164
 30
0.0
 10
161.1157574036545
 20
143.7045416915881
 30
0.0
 10
161.4036567483453
 20
143.5816177381808
 30
0.0
 10
161.539603151305
 20
143.5083102300465
 30
0.0
 10
161.795785766897
 20
143.3382996062751
 30
0.0
 10
161.9169680546561
 20
143.2404258140737
 30
0.0
 10
162.1341141265289
 20
143.0278416386417
 30
0.0
 10
162.2310759994892
 20
142.9127957001121
 30
0.0
 10
162.4016384353148
 20
142.664934579992
 30
0.0
 10
162.4748784885267
 20
142.5319010829264
 30
0.0
 10
162.6497589452756
 20
142.1223930667962
 30
0.0
 10
162.7107969062515
 20
141.8244324170212
 30
0.0
 10
162.7107985614746
 20
141.2329908611468
 30
0.0
 10
162.6497639518883
 20
140.9328173111702
 30
0.0
 10
162.4748741844864
 20
140.5175860309024
 30
0.0
 10
162.401630479062
 20
140.3822309126556
 30
0.0
 10
162.2310697633254
 20
140.129331581269
 30
0.0
 10
162.1341060477318
 20
140.0115663036612
 30
0.0
 10
161.9169457191447
 20
139.7934360082925
 30
0.0
 10
161.7957644604579
 20
139.6927326831456
 30
0.0
 10
161.5395942335191
 20
139.5174889903123
 30
0.0
 10
161.4036508838564
 20
139.4417440212217
 30
0.0
 10
161.1157481806733
 20
139.3145756459195
 30
0.0
 10
160.9648579847565
 20
139.263974373592
 30
0.0
 10
160.6593524810509
 20
139.1915452738442
 30
0.0
 10
160.5033510827874
 20
139.1690595024472
 30
0.0
 10
160.3439592413336
 20
139.1609210425523
 30
0.0
  0
SPLINE
  5
130
330
1F
100
AcDbEntity
  8
0
  6
HIDDEN
 62
     7
370
     0
100
AcDbSpline
210
0.0
220
0.0
230
1.0
 70
     8
 71
     3
 72
    10
 73
     6
 74
     0
 42
0.000000001
 43
0.00000001
 40
0.0
 40
0.0
 40
0.0
 40
0.0
 40
0.5
 40
0.5
 40
1.0
 40
1.0
 40
1.0
 40
1.0
 10
160.3439592413336
 20
139.1609210425523
 30
0.0
 10
160.1212322144602
 20
139.0174325422586
 30
0.0
 10
159.899546327235
 20
138.9027117965257
 30
0.0
 10
159.4583254893831
 20
138.7329513671678
 30
0.0
 10
159.2387668419842
 20
138.6775313727804
 30
0.0
 10
159.020797733872
 20
138.6610360434108
 30
0.0
  0
SPLINE
  5
131
330
1F
100
AcDbEntity
  8
0
  6
HIDDEN
 62
     7
370
     0
100
AcDbSpline
210
0.0
220
0.0
230
1.0
 70
     8
 71
     3
 72
    10
 73
     6
 74
     0
 42
0.000000001
 43
0.00000001
 40
0.0
 40
0.0
 40
0.0
 40
0.0
 40
0.5
 40
0.5
 40
1.0
 40
1.0
 40
1.0
 40
1.0
 10
159.020797733872
 20
142.7930772420423
 30
0.0
 10
159.2376885663928
 20
143.0301161814909
 30
0.0
 10
159.4568412030517
 20
143.2322864164843
 30
0.0
 10
159.8983257033205
 20
143.583038488003
 30
0.0
 10
160.1215281685939
 20
143.7317145803999
 30
0.0
 10
160.3439592413336
 20
143.8527143654224
 30
0.0
  0
SPLINE
  5
132
330
1F
100
AcDbEntity
  8
0
  6
HIDDEN
 62
     7
370
     0
100
AcDbSpline
210
0.0
220
0.0
230
1.0
 70
     8
 71
     3
 72
    16
 73
    12
 74
     0
 42
0.000000001
 43
0.00000001
 40
0.0
 40
0.0
 40
0.0
 40
0.0
 40
0.2499999999999994
 40
0.2499999999999994
 40
0.4999999999999989
 40
0.4999999999999989
 40
0.7499999999999983
 40
0.7499999999999983
 40
0.8749999999999991
 40
0.8749999999999991
 40
1.0
 40
1.0
 40
1.0
 40
1.0
 10
158.2207977338717
 20
138.9950996913017
 30
0.0
 10
158.0553836273915
 20
139.201985927327
 30
0.0
 10
157.9291862964159
 20
139.427854625136
 30
0.0
 10
157.7547799980851
 20
139.9167238707488
 30
0.0
 10
157.7109499589882
 20
140.1684909240933
 30
0.0
 10
157.7106462860182
 20
140.6802702486755
 30
0.0
 10
157.7545031460785
 20
140.9313249577582
 30
0.0
 10
157.8844249053457
 20
141.2921735259002
 30
0.0
 10
157.9385397167536
 20
141.4094462942488
 30
0.0
 10
158.065216706897
 20
141.6319352455876
 30
0.0
 10
158.1380904272579
 20
141.7380958538311
 30
0.0
 10
158.2207977338717
 20
141.8390635343553
 30
0.0
  0
CIRCLE
  5
133
330
1F
100
AcDbEntity
  8
0
  6
HIDDEN
 62
     7
370
     0
100
AcDbCircle
 10
232.5607977339
 20
124.8637739774
 30
0.0
 40
5.18125784838206
  0
CIRCLE
  5
134
330
1F
100
AcDbEntity
  8
0
  6
HIDDEN
 62
     7
370
     0
100
AcDbCircle
 10
232.5607977339
 20
124.8637739774
 30
0.0
 40
4.172547133356716
  0
CIRCLE
  5
135
330
1F
100
AcDbEntity
  8
0
  6
HIDDEN
 62
     7
370
     0
100
AcDbCircle
 10
232.5607977339
 20
124.8637739774
 30
0.0
 40
3.872547133356719
  0
LWPOLYLINE
  5
136
330
1F
100
AcDbEntity
  8
0
  6
HIDDEN
 62
     7
370
     0
100
AcDbPolyline
 90
       21
 70
   128
 43
0.0
 10
156.3138433569
 20
138.4683506769
 10
156.2244820245
 20
137.7044277471
 10
156.0036356398
 20
136.9567740914
 10
155.6729229935
 20
136.2985749003
 10
155.2647168585
 20
135.7942600008
 10
154.8189746984
 20
135.4931941461
 10
154.3793289759
 20
135.4248481077
 10
153.9888151758
 20
135.5959125068
 10
153.6856598989
 20
135.9896421638
 10
153.4995374106
 20
136.5674961564
 10
153.4486676403
 20
137.2729096767
 10
153.5380294383
 20
138.0368326065
 10
153.7588753574
 20
138.7844862622
 10
154.0895880037
 20
139.4426845219
 10
154.4977941387
 20
139.9470003527
 10
154.9435362988
 20
140.2480662074
 10
155.3831820213
 20
140.3164113146
 10
155.7736958214
 20
140.1453469154
 10
156.076851564
 20
139.7516172585
 10
156.2629735865
 20
139.1737641972
 10
156.3138433569
 20
138.4683506769
  0
LWPOLYLINE
  5
137
330
1F
100
AcDbEntity
  8
0
  6
HIDDEN
 62
     7
370
     0
100
AcDbPolyline
 90
       17
 70
   128
 43
0.0
 10
156.4984314912
 20
138.141903488
 10
156.4054128551
 20
137.4731905964
 10
156.1738869943
 20
136.8425846305
 10
155.8391007431
 20
136.3460900467
 10
155.452022592
 20
136.0592939165
 10
155.0715819769
 20
136.0258575734
 10
154.7556969174
 20
136.2508716267
 10
154.5524590485
 20
136.7000801694
 10
154.4928078376
 20
137.3050943222
 10
154.5858264737
 20
137.9738072139
 10
154.8173523345
 20
138.6044131797
 10
155.1521385857
 20
139.1009077635
 10
155.5392158054
 20
139.3877038937
 10
155.9196573519
 20
139.4211402368
 10
156.2355414801
 20
139.1961261835
 10
156.4387802803
 20
138.7469176408
 10
156.4984314912
 20
138.141903488
  0
LWPOLYLINE
  5
138
330
1F
100
AcDbEntity
  8
0
  6
HIDDEN
 62
     7
370
     0
100
AcDbPolyline
 90
       21
 70
   128
 43
0.0
 10
153.0429043644
 20
139.2516916823
 10
152.9535425664
 20
138.4877687525
 10
152.7326966473
 20
137.7401150968
 10
152.4019844667
 20
137.0819159057
 10
151.993777866
 20
136.5776010063
 10
151.5480357059
 20
136.2765351516
 10
151.1083899834
 20
136.2081891131
 10
150.7178761833
 20
136.3792535123
 10
150.4147209064
 20
136.7729831692
 10
150.2285984181
 20
137.3508371618
 10
150.1777286478
 20
138.0562506821
 10
150.2670904458
 20
138.8201736119
 10
150.4879363649
 20
139.5678272676
 10
150.8186490112
 20
140.2260264587
 10
151.2268551462
 20
140.7303422895
 10
151.6725973063
 20
141.0314072129
 10
152.1122430288
 20
141.0997532513
 10
152.5027568289
 20
140.9286879208
 10
152.8059121058
 20
140.5349582639
 10
152.992034594
 20
139.9571052026
 10
153.0429043644
 20
139.2516916823
  0
LINE
  5
139
330
1F
100
AcDbEntity
  8
0
  6
HIDDEN
 62
     7
370
     0
100
AcDbLine
 10
152.6557512418
 20
139.3281942439
 30
0.0
 11
152.2110582166
 21
137.9669293967
 31
0.0
  0
LINE
  5
13A
330
1F
100
AcDbEntity
  8
0
  6
HIDDEN
 62
     7
370
     0
100
AcDbLine
 10
151.0174472653
 20
139.7205436807
 30
0.0
 11
150.5727542401
 21
138.3592788335
 31
0.0
  0
LWPOLYLINE
  5
13B
330
1F
100
AcDbEntity
  8
0
  6
HIDDEN
 62
     7
370
     0
100
AcDbPolyline
 90
       19
 70
   128
 43
0.0
 10
152.5774465711
 20
139.1956987065
 10
152.4889197037
 20
138.4976742994
 10
152.2690358408
 20
137.8245804664
 10
151.944316721
 20
137.2576033902
 10
151.5539281838
 20
136.8651272934
 10
151.1449565016
 20
136.6944913026
 10
150.7667296403
 20
136.7662767154
 10
150.4648675047
 20
137.071825957
 10
150.2757796854
 20
137.5742828679
 10
150.2222719439
 20
138.2130462882
 10
150.3107988112
 20
138.9110706952
 10
150.5306826741
 20
139.5841645282
 10
150.8554017939
 20
140.1511416044
 10
151.2457903311
 20
140.5436177012
 10
151.654762479
 20
140.7142527607
 10
152.0329888747
 20
140.6424682793
 10
152.3348510102
 20
140.3369190377
 10
152.5239388295
 20
139.8344611954
 10
152.5774465711
 20
139.1956987065
  0
LINE
  5
13C
330
1F
100
AcDbEntity
  8
0
  6
HIDDEN
 62
     7
370
     0
100
AcDbLine
 10
150.9551664651
 20
137.3431071844
 30
0.0
 11
150.5727542401
 21
138.3592788335
 31
0.0
  0
LINE
  5
13D
330
1F
100
AcDbEntity
  8
0
  6
HIDDEN
 62
     7
370
     0
100
AcDbLine
 10
152.2110582166
 20
137.9669293967
 30
0.0
 11
150.5727542401
 21
138.3592788335
 31
0.0
  0
LINE
  5
13E
330
1F
100
AcDbEntity
  8
0
  6
HIDDEN
 62
     7
370
     0
100
AcDbLine
 10
152.5934704416
 20
136.9507577476
 30
0.0
 11
152.2110582166
 21
137.9669293967
 31
0.0
  0
LINE
  5
13F
330
1F
100
AcDbEntity
  8
0
  6
HIDDEN
 62
     7
370
     0
100
AcDbLine
 10
151.8445520498
 20
140.0656378102
 30
0.0
 11
151.0174472653
 21
139.7205436807
 31
0.0
  0
LINE
  5
140
330
1F
100
AcDbEntity
  8
0
  6
HIDDEN
 62
     7
370
     0
100
AcDbLine
 10
152.6557512418
 20
139.3281942439
 30
0.0
 11
151.0174472653
 21
139.7205436807
 31
0.0
  0
LINE
  5
141
330
1F
100
AcDbEntity
  8
0
  6
HIDDEN
 62
     7
370
     0
100
AcDbLine
 10
153.482856492
 20
139.6732883733
 30
0.0
 11
152.6557512418
 21
139.3281942439
 31
0.0
  0
LINE
  5
142
330
1F
100
AcDbEntity
  8
0
  6
HIDDEN
 62
     7
370
     0
100
AcDbLine
 10
153.4205756918
 20
137.295851877
 30
0.0
 11
151.7822712497
 21
137.6882013139
 31
0.0
  0
LINE
  5
143
330
1F
100
AcDbEntity
  8
0
  6
HIDDEN
 62
     7
370
     0
100
AcDbLine
 10
152.5934704416
 20
136.9507577476
 30
0.0
 11
150.9551664651
 21
137.3431071844
 31
0.0
  0
LINE
  5
144
330
1F
100
AcDbEntity
  8
0
  6
HIDDEN
 62
     7
370
     0
100
AcDbLine
 10
151.7822712497
 20
137.6882013139
 30
0.0
 11
150.9551664651
 21
137.3431071844
 31
0.0
  0
LINE
  5
145
330
1F
100
AcDbEntity
  8
0
  6
HIDDEN
 62
     7
370
     0
100
AcDbLine
 10
153.4205756918
 20
137.295851877
 30
0.0
 11
152.5934704416
 21
136.9507577476
 31
0.0
  0
LINE
  5
146
330
1F
100
AcDbEntity
  8
0
  6
HIDDEN
 62
     7
370
     0
100
AcDbLine
 10
153.865268717
 20
138.6571167242
 30
0.0
 11
152.2269642749
 21
139.0494661611
 31
0.0
  0
LINE
  5
147
330
1F
100
AcDbEntity
  8
0
  6
HIDDEN
 62
     7
370
     0
100
AcDbLine
 10
153.482856492
 20
139.6732883733
 30
0.0
 11
151.8445520498
 21
140.0656378102
 31
0.0
  0
LINE
  5
148
330
1F
100
AcDbEntity
  8
0
  6
HIDDEN
 62
     7
370
     0
100
AcDbLine
 10
151.8445520498
 20
140.0656378102
 30
0.0
 11
152.2269642749
 21
139.0494661611
 31
0.0
  0
LINE
  5
149
330
1F
100
AcDbEntity
  8
0
  6
HIDDEN
 62
     7
370
     0
100
AcDbLine
 10
153.482856492
 20
139.6732883733
 30
0.0
 11
153.865268717
 21
138.6571167242
 31
0.0
  0
LINE
  5
14A
330
1F
100
AcDbEntity
  8
0
  6
HIDDEN
 62
     7
370
     0
100
AcDbLine
 10
151.7822712497
 20
137.6882013139
 30
0.0
 11
152.2269642749
 21
139.0494661611
 31
0.0
  0
LINE
  5
14B
330
1F
100
AcDbEntity
  8
0
  6
HIDDEN
 62
     7
370
     0
100
AcDbLine
 10
153.4205756918
 20
137.295851877
 30
0.0
 11
153.865268717
 21
138.6571167242
 31
0.0
  0
LWPOLYLINE
  5
14C
330
1F
100
AcDbEntity
  8
0
  6
HIDDEN
 62
     7
370
     0
100
AcDbPolyline
 90
       19
 70
   128
 43
0.0
 10
151.8029982992
 20
109.0116486159
 10
152.1575127565
 20
109.1738123652
 10
152.4206430488
 20
109.5590343904
 10
152.5606515654
 20
110.1208538022
 10
152.5606515654
 20
110.7915066388
 10
152.4206430488
 20
111.4901019466
 10
152.1575127565
 20
112.1323801782
 10
151.8029982992
 20
112.6408711281
 10
151.3998594903
 20
112.9542434793
 10
150.9967202157
 20
113.0347013679
 10
150.6422057585
 20
112.8725394812
 10
150.3790754662
 20
112.487317456
 10
150.2390669495
 20
111.9254971128
 10
150.2390669495
 20
111.2548442763
 10
150.3790754662
 20
110.5562489685
 10
150.6422057585
 20
109.9139716681
 10
150.9967202157
 20
109.4054807183
 10
151.3998594903
 20
109.0921074357
 10
151.8029982992
 20
109.0116486159
  0
LWPOLYLINE
  5
14D
330
1F
100
AcDbEntity
  8
0
  6
HIDDEN
 62
     7
370
     0
100
AcDbPolyline
 90
       21
 70
   128
 43
0.0
 10
152.1007533022
 20
108.6264647749
 10
152.4931390606
 20
108.7911375072
 10
152.7991073974
 20
109.1792326626
 10
152.9887093068
 20
109.7527578678
 10
153.0433839955
 20
110.4555739295
 10
152.9577805497
 20
111.2188859117
 10
152.740277613
 20
111.9679728728
 10
152.4121661507
 20
112.629509924
 10
152.0055642188
 20
113.1387422067
 10
151.5602728189
 20
113.4458216112
 10
151.11987971
 20
113.5206887704
 10
150.7274944172
 20
113.356016038
 10
150.4215256148
 20
112.967921814
 10
150.2319237054
 20
112.3943966087
 10
150.1772490167
 20
111.6915796157
 10
150.2628529281
 20
110.9282685649
 10
150.4803553992
 20
110.1791806724
 10
150.8084668615
 20
109.5176436212
 10
151.2150687934
 20
109.0084113386
 10
151.6603601933
 20
108.701331934
 10
152.1007533022
 20
108.6264647749
  0
LWPOLYLINE
  5
14E
330
1F
100
AcDbEntity
  8
0
  6
HIDDEN
 62
     7
370
     0
100
AcDbPolyline
 90
       21
 70
   128
 43
0.0
 10
155.3716922947
 20
109.4098057803
 10
155.7640780531
 20
109.5744785127
 10
156.0700463899
 20
109.9625727367
 10
156.2596478336
 20
110.5360988733
 10
156.314322988
 20
111.2389158663
 10
156.2287195422
 20
112.0022269171
 10
156.0112166055
 20
112.7513138783
 10
155.6831051432
 20
113.4128518608
 10
155.276503677
 20
113.9220832121
 10
154.8312113457
 20
114.2291626167
 10
154.3908187025
 20
114.3040297758
 10
153.998432944
 20
114.1393570435
 10
153.6924646073
 20
113.7512628194
 10
153.5028626979
 20
113.1777376142
 10
153.4481880092
 20
112.4749206212
 10
153.5337914549
 20
111.7116095703
 10
153.7512943917
 20
110.9625226092
 10
154.079405854
 20
110.3009846267
 10
154.4860073202
 20
109.791752344
 10
154.9312996515
 20
109.4846729394
 10
155.3716922947
 20
109.4098057803
  0
LINE
  5
14F
330
1F
100
AcDbEntity
  8
0
  6
HIDDEN
 62
     7
370
     0
100
AcDbLine
 10
151.9320144155
 20
111.8022505399
 30
0.0
 11
151.116705297
 21
112.4360164833
 31
0.0
  0
LINE
  5
150
330
1F
100
AcDbEntity
  8
0
  6
HIDDEN
 62
     7
370
     0
100
AcDbLine
 10
150.5845503718
 20
111.6569418665
 30
0.0
 11
151.116705297
 21
112.4360164833
 31
0.0
  0
LINE
  5
151
330
1F
100
AcDbEntity
  8
0
  6
HIDDEN
 62
     7
370
     0
100
AcDbLine
 10
150.8677040995
 20
110.2441013065
 30
0.0
 11
150.5845503718
 21
111.6569418665
 31
0.0
  0
LINE
  5
152
330
1F
100
AcDbEntity
  8
0
  6
HIDDEN
 62
     7
370
     0
100
AcDbLine
 10
150.8677040995
 20
110.2441013065
 30
0.0
 11
151.683013218
 21
109.6103344318
 31
0.0
  0
LINE
  5
153
330
1F
100
AcDbEntity
  8
0
  6
HIDDEN
 62
     7
370
     0
100
AcDbLine
 10
152.2151681431
 20
110.3894090485
 30
0.0
 11
151.683013218
 21
109.6103344318
 31
0.0
  0
LINE
  5
154
330
1F
100
AcDbEntity
  8
0
  6
HIDDEN
 62
     7
370
     0
100
AcDbLine
 10
152.2151681431
 20
110.3894090485
 30
0.0
 11
151.9320144155
 21
111.8022505399
 31
0.0
  0
LINE
  5
155
330
1F
100
AcDbEntity
  8
0
  6
HIDDEN
 62
     7
370
     0
100
AcDbLine
 10
153.570318392
 20
112.1945999768
 30
0.0
 11
151.9320144155
 21
111.8022505399
 31
0.0
  0
LINE
  5
156
330
1F
100
AcDbEntity
  8
0
  6
HIDDEN
 62
     7
370
     0
100
AcDbLine
 10
153.8534725853
 20
110.7817584854
 30
0.0
 11
152.2151681431
 21
110.3894090485
 31
0.0
  0
LINE
  5
157
330
1F
100
AcDbEntity
  8
0
  6
HIDDEN
 62
     7
370
     0
100
AcDbLine
 10
152.2228543483
 20
112.0492913034
 30
0.0
 11
152.7550097392
 21
112.8283659201
 31
0.0
  0
LINE
  5
158
330
1F
100
AcDbEntity
  8
0
  6
HIDDEN
 62
     7
370
     0
100
AcDbLine
 10
152.2228543483
 20
112.0492913034
 30
0.0
 11
150.5845503718
 21
111.6569418665
 31
0.0
  0
LINE
  5
159
330
1F
100
AcDbEntity
  8
0
  6
HIDDEN
 62
     7
370
     0
100
AcDbLine
 10
152.7550097392
 20
112.8283659201
 30
0.0
 11
151.116705297
 21
112.4360164833
 31
0.0
  0
LINE
  5
15A
330
1F
100
AcDbEntity
  8
0
  6
HIDDEN
 62
     7
370
     0
100
AcDbLine
 10
152.5060085416
 20
110.6364507433
 30
0.0
 11
153.3213171945
 21
110.0026838687
 31
0.0
  0
LINE
  5
15B
330
1F
100
AcDbEntity
  8
0
  6
HIDDEN
 62
     7
370
     0
100
AcDbLine
 10
152.5060085416
 20
110.6364507433
 30
0.0
 11
152.2228543483
 21
112.0492913034
 31
0.0
  0
LINE
  5
15C
330
1F
100
AcDbEntity
  8
0
  6
HIDDEN
 62
     7
370
     0
100
AcDbLine
 10
153.8534725853
 20
110.7817584854
 30
0.0
 11
153.3213171945
 21
110.0026838687
 31
0.0
  0
LINE
  5
15D
330
1F
100
AcDbEntity
  8
0
  6
HIDDEN
 62
     7
370
     0
100
AcDbLine
 10
153.8534725853
 20
110.7817584854
 30
0.0
 11
153.570318392
 21
112.1945999768
 31
0.0
  0
LINE
  5
15E
330
1F
100
AcDbEntity
  8
0
  6
HIDDEN
 62
     7
370
     0
100
AcDbLine
 10
153.570318392
 20
112.1945999768
 30
0.0
 11
152.7550097392
 21
112.8283659201
 31
0.0
  0
LINE
  5
15F
330
1F
100
AcDbEntity
  8
0
  6
HIDDEN
 62
     7
370
     0
100
AcDbLine
 10
152.5060085416
 20
110.6364507433
 30
0.0
 11
150.8677040995
 21
110.2441013065
 31
0.0
  0
LINE
  5
160
330
1F
100
AcDbEntity
  8
0
  6
HIDDEN
 62
     7
370
     0
100
AcDbLine
 10
153.3213171945
 20
110.0026838687
 30
0.0
 11
151.683013218
 21
109.6103344318
 31
0.0
  0
LWPOLYLINE
  5
161
330
1F
100
AcDbEntity
  8
0
  6
HIDDEN
 62
     7
370
     0
100
AcDbPolyline
 90
       17
 70
   128
 43
0.0
 10
155.8389256545
 20
110.2910706979
 10
156.1737491586
 20
110.4603879359
 10
156.4053336926
 20
110.8647141811
 10
156.4984231093
 20
111.4424936679
 10
156.4388445415
 20
112.1057648417
 10
156.23566814
 20
112.7535509151
 10
155.9198259213
 20
113.2872313466
 10
155.5394030013
 20
113.6255594176
 10
155.1523136743
 20
113.7170274016
 10
154.8174901702
 20
113.5477101636
 10
154.5859047048
 20
113.1433839184
 10
154.4928162195
 20
112.5656044316
 10
154.5523947873
 20
111.9023332578
 10
154.7555711888
 20
111.2545471844
 10
155.0714124762
 20
110.7208667528
 10
155.4518363275
 20
110.3825386819
 10
155.8389256545
 20
110.2910706979
  0
ARC
  5
162
330
1F
100
AcDbEntity
  8
0
  6
HIDDEN
 62
     7
370
     0
100
AcDbCircle
 10
160.1920081419
 20
109.5415391899
 30
0.0
 40
2.482616242461242
100
AcDbArc
 50
345.5064276205
 51
178.0719362723
  0
ARC
  5
163
330
1F
100
AcDbEntity
  8
0
  6
HIDDEN
 62
     7
370
     0
100
AcDbCircle
 10
160.1907128082
 20
109.4826203902
 30
0.0
 40
2.357344236281958
100
AcDbArc
 50
351.1138752614
 51
157.823292325
  0
ARC
  5
164
330
1F
100
AcDbEntity
  8
0
  6
HIDDEN
 62
     7
370
     0
100
AcDbCircle
 10
160.2127592564
 20
109.4813157303
 30
0.0
 40
2.00033751223758
100
AcDbArc
 50
2.7470126512
 51
126.6059755192
  0
LWPOLYLINE
  5
165
330
1F
100
AcDbEntity
  8
0
  6
HIDDEN
 62
     7
370
     0
100
AcDbPolyline
 90
       21
 70
   128
 43
0.0
 10
158.4772619255
 20
108.1204641816
 10
158.0054604285
 20
108.7066982147
 10
157.7495320537
 20
109.4012413379
 10
157.7345303096
 20
110.1361070034
 10
157.9619220295
 20
110.8393626493
 10
158.4094504662
 20
111.4421686363
 10
159.0333062061
 20
111.8855172973
 10
159.7724242904
 20
112.1260108631
 10
160.554452131
 20
112.140108293
 10
161.3028415315
 20
111.9264293667
 10
161.944333727
 20
111.5058906582
 10
162.4161361553
 20
110.9196575564
 10
162.6720635988
 20
110.2251144331
 10
162.6870653429
 20
109.4902478364
 10
162.4596736231
 20
108.7869912591
 10
162.0121451863
 20
108.1841871348
 10
161.3882885151
 20
107.7408384737
 10
160.6491713621
 20
107.5003449079
 10
159.8671435215
 20
107.4862465468
 10
159.118754121
 20
107.699925473
 10
158.4772619255
 20
108.1204641816
  0
LWPOLYLINE
  5
166
330
1F
100
AcDbEntity
  8
0
  6
HIDDEN
 62
     7
370
     0
100
AcDbPolyline
 90
       18
 70
   128
 43
0.0
 10
158.8239691057
 20
109.6407896113
 10
158.3970405929
 20
110.2030011099
 10
158.2150713377
 20
110.8721712809
 10
158.3026352175
 20
111.5579245817
 10
158.6479062982
 20
112.1676465702
 10
159.2042560526
 20
112.6189906355
 10
159.8965435126
 20
112.8509998527
 10
160.6312732049
 20
112.8323408049
 10
161.3092155032
 20
112.5655336511
 10
161.838811154
 20
112.0866112616
 10
162.148533652
 20
111.460255852
 10
162.1965545066
 20
110.7710594517
 10
161.9763879873
 20
110.1121012327
 10
161.5177674987
 20
109.5723793116
 10
160.8826353051
 20
109.2247836497
 10
160.1567671471
 20
109.1162603554
 10
159.4381959014
 20
109.261465652
 10
158.8239691057
 20
109.6407896113
  0
LWPOLYLINE
  5
167
330
1F
100
AcDbEntity
  8
0
  6
HIDDEN
 62
     7
370
     0
100
AcDbPolyline
 90
       21
 70
   128
 43
0.0
 10
158.4772619255
 20
108.3564594593
 10
158.0054604285
 20
108.9426916298
 10
157.7495320537
 20
109.637234753
 10
157.7345303096
 20
110.3721013498
 10
157.9619220295
 20
111.0753569957
 10
158.4094504662
 20
111.6781620514
 10
159.0333062061
 20
112.1215107125
 10
159.7724242904
 20
112.3620042783
 10
160.554452131
 20
112.3761017081
 10
161.3028415315
 20
112.1624227818
 10
161.944333727
 20
111.7418840733
 10
162.4161361553
 20
111.1556509715
 10
162.6720635988
 20
110.4611078482
 10
162.6870653429
 20
109.7262421828
 10
162.4596736231
 20
109.0229865369
 10
162.0121451863
 20
108.4201805499
 10
161.3882885151
 20
107.9768318888
 10
160.6491713621
 20
107.736338323
 10
159.8671435215
 20
107.7222418245
 10
159.118754121
 20
107.9359207508
 10
158.4772619255
 20
108.3564594593
  0
LWPOLYLINE
  5
168
330
1F
100
AcDbEntity
  8
0
  6
HIDDEN
 62
     7
370
     0
100
AcDbPolyline
 90
       20
 70
   128
 43
0.0
 10
158.6159442388
 20
108.4304008838
 10
158.1642537214
 20
109.0013984796
 10
157.9343371861
 20
109.6792755854
 10
157.9511103057
 20
110.3905750644
 10
158.2127560698
 20
111.0582169351
 10
158.6909203627
 20
111.6098514032
 10
159.3337871902
 20
111.9856996667
 10
160.0716917612
 20
112.1450340581
 10
160.8246707194
 20
112.0705869254
 10
161.5111262374
 20
111.7704272475
 10
162.0566717186
 20
111.2770805341
 10
162.4021886685
 20
110.6440093574
 10
162.510233263
 20
109.9398168009
 10
162.3690987774
 20
109.2408126425
 10
161.994079391
 20
108.6227450725
 10
161.4258133643
 20
108.1525910851
 10
160.7258816086
 20
107.8812986818
 10
159.9701319658
 20
107.8382697162
 10
159.2404630803
 20
108.0281626638
 10
158.6159442388
 20
108.4304008838
  0
LWPOLYLINE
  5
169
330
1F
100
AcDbEntity
  8
0
  6
HIDDEN
 62
     7
370
     0
100
AcDbPolyline
 90
       21
 70
   128
 43
0.0
 10
158.4772619255
 20
108.5924528744
 10
158.0054604285
 20
109.1786850449
 10
157.7495320537
 20
109.8732290995
 10
157.7345303096
 20
110.6080947649
 10
157.9619220295
 20
111.3113504108
 10
158.4094504662
 20
111.9141563978
 10
159.0333062061
 20
112.3575050589
 10
159.7724242904
 20
112.5979986247
 10
160.554452131
 20
112.6120960545
 10
161.3028415315
 20
112.3984171283
 10
161.944333727
 20
111.9778784197
 10
162.4161361553
 20
111.3916453179
 10
162.6720635988
 20
110.6971021947
 10
162.6870653429
 20
109.9622355979
 10
162.4596736231
 20
109.258979952
 10
162.0121451863
 20
108.656173965
 10
161.3882885151
 20
108.2128253039
 10
160.6491713621
 20
107.9723317381
 10
159.8671435215
 20
107.9582352396
 10
159.118754121
 20
108.1719141659
 10
158.4772619255
 20
108.5924528744
  0
LWPOLYLINE
  5
16A
330
1F
100
AcDbEntity
  8
0
  6
HIDDEN
 62
     7
370
     0
100
AcDbPolyline
 90
       20
 70
   128
 43
0.0
 10
158.6159442388
 20
108.6663961616
 10
158.1642537214
 20
109.2373918947
 10
157.9343371861
 20
109.9152690005
 10
157.9511103057
 20
110.6265694108
 10
158.2127560698
 20
111.2942103502
 10
158.6909203627
 20
111.8458448183
 10
159.3337871902
 20
112.2216940131
 10
160.0716917612
 20
112.3810274732
 10
160.8246707194
 20
112.3065812718
 10
161.5111262374
 20
112.0064206627
 10
162.0566717186
 20
111.5130748805
 10
162.4021886685
 20
110.8800037038
 10
162.510233263
 20
110.175810216
 10
162.3690987774
 20
109.4768060577
 10
161.994079391
 20
108.8587384876
 10
161.4258133643
 20
108.3885845002
 10
160.7258816086
 20
108.1172939595
 10
159.9701319658
 20
108.0742631313
 10
159.2404630803
 20
108.264156079
 10
158.6159442388
 20
108.6663961616
  0
LWPOLYLINE
  5
16B
330
1F
100
AcDbEntity
  8
0
  6
HIDDEN
 62
     7
370
     0
100
AcDbPolyline
 90
       21
 70
   128
 43
0.0
 10
158.4772619255
 20
108.8284462896
 10
158.0054604285
 20
109.4146793913
 10
157.7495320537
 20
110.1092225146
 10
157.7345303096
 20
110.8440891114
 10
157.9619220295
 20
111.5473447573
 10
158.4094504662
 20
112.1501507443
 10
159.0333062061
 20
112.593498474
 10
159.7724242904
 20
112.8339920398
 10
160.554452131
 20
112.8480894696
 10
161.3028415315
 20
112.6344105434
 10
161.944333727
 20
112.2138718348
 10
162.4161361553
 20
111.6276387331
 10
162.6720635988
 20
110.9330956098
 10
162.6870653429
 20
110.1982299444
 10
162.4596736231
 20
109.4949733671
 10
162.0121451863
 20
108.8921673801
 10
161.3882885151
 20
108.4488205817
 10
160.6491713621
 20
108.2083270159
 10
159.8671435215
 20
108.1942286548
 10
159.118754121
 20
108.407907581
 10
158.4772619255
 20
108.8284462896
  0
LWPOLYLINE
  5
16C
330
1F
100
AcDbEntity
  8
0
  6
HIDDEN
 62
     7
370
     0
100
AcDbPolyline
 90
       20
 70
   128
 43
0.0
 10
158.6159442388
 20
108.9023895767
 10
158.1642537214
 20
109.4733862412
 10
157.9343371861
 20
110.1512633469
 10
157.9511103057
 20
110.8625628259
 10
158.2127560698
 20
111.5302046966
 10
158.6909203627
 20
112.0818391648
 10
159.3337871902
 20
112.4576874283
 10
160.0716917612
 20
112.6170218196
 10
160.8246707194
 20
112.542574687
 10
161.5111262374
 20
112.2424150091
 10
162.0566717186
 20
111.7490682956
 10
162.4021886685
 20
111.1159971189
 10
162.510233263
 20
110.4118045625
 10
162.3690987774
 20
109.7128004041
 10
161.994079391
 20
109.0947319027
 10
161.4258133643
 20
108.624579778
 10
160.7258816086
 20
108.3532873746
 10
159.9701319658
 20
108.3102565464
 10
159.2404630803
 20
108.5001494941
 10
158.6159442388
 20
108.9023895767
  0
LWPOLYLINE
  5
16D
330
1F
100
AcDbEntity
  8
0
  6
HIDDEN
 62
     7
370
     0
100
AcDbPolyline
 90
       21
 70
   128
 43
0.0
 10
158.4772619255
 20
109.0644397047
 10
158.0054604285
 20
109.6506737378
 10
157.7495320537
 20
110.345216861
 10
157.7345303096
 20
111.0800825265
 10
157.9619220295
 20
111.7833391037
 10
158.4094504662
 20
112.3861441594
 10
159.0333062061
 20
112.8294928205
 10
159.7724242904
 20
113.0699863863
 10
160.554452131
 20
113.0840838161
 10
161.3028415315
 20
112.8704048898
 10
161.944333727
 20
112.4498661813
 10
162.4161361553
 20
111.8636330795
 10
162.6720635988
 20
111.1690899562
 10
162.6870653429
 20
110.4342233595
 10
162.4596736231
 20
109.7309677136
 10
162.0121451863
 20
109.1281626579
 10
161.3882885151
 20
108.6848139968
 10
160.6491713621
 20
108.444320431
 10
159.8671435215
 20
108.4302220699
 10
159.118754121
 20
108.6439009961
 10
158.4772619255
 20
109.0644397047
  0
LWPOLYLINE
  5
16E
330
1F
100
AcDbEntity
  8
0
  6
HIDDEN
 62
     7
370
     0
100
AcDbPolyline
 90
       20
 70
   128
 43
0.0
 10
158.6159442388
 20
109.1383829918
 10
158.1642537214
 20
109.7093796563
 10
157.9343371861
 20
110.3872567621
 10
157.9511103057
 20
111.0985571724
 10
158.2127560698
 20
111.7661981117
 10
158.6909203627
 20
112.3178325799
 10
159.3337871902
 20
112.6936817747
 10
160.0716917612
 20
112.8530152347
 10
160.8246707194
 20
112.7785690334
 10
161.5111262374
 20
112.4784084242
 10
162.0566717186
 20
111.9850626421
 10
162.4021886685
 20
111.3519914654
 10
162.510233263
 20
110.6477979776
 10
162.3690987774
 20
109.9487938192
 10
161.994079391
 20
109.3307262492
 10
161.4258133643
 20
108.8605731931
 10
160.7258816086
 20
108.5892807898
 10
159.9701319658
 20
108.5462499615
 10
159.2404630803
 20
108.7361447718
 10
158.6159442388
 20
109.1383829918
  0
LWPOLYLINE
  5
16F
330
1F
100
AcDbEntity
  8
0
  6
HIDDEN
 62
     7
370
     0
100
AcDbPolyline
 90
       21
 70
   128
 43
0.0
 10
158.4772619255
 20
109.6629755777
 10
158.0054604285
 20
110.2492086795
 10
157.7495320537
 20
110.9437518027
 10
157.7345303096
 20
111.6786183995
 10
157.9619220295
 20
112.3818740454
 10
158.4094504662
 20
112.9846791011
 10
159.0333062061
 20
113.4280277621
 10
159.7724242904
 20
113.6685213279
 10
160.554452131
 20
113.6826187577
 10
161.3028415315
 20
113.4689398315
 10
161.944333727
 20
113.0484011229
 10
162.4161361553
 20
112.4621680212
 10
162.6720635988
 20
111.7676248979
 10
162.6870653429
 20
111.0327583012
 10
162.4596736231
 20
110.3295026552
 10
162.0121451863
 20
109.7266975996
 10
161.3882885151
 20
109.2833489385
 10
160.6491713621
 20
109.0428553727
 10
159.8671435215
 20
109.0287588742
 10
159.118754121
 20
109.2424368691
 10
158.4772619255
 20
109.6629755777
  0
LWPOLYLINE
  5
170
330
1F
100
AcDbEntity
  8
0
  6
HIDDEN
 62
     7
370
     0
100
AcDbPolyline
 90
       18
 70
   128
 43
0.0
 10
158.8375701406
 20
110.1174051147
 10
158.4148297854
 20
110.6741031837
 10
158.234644013
 20
111.3367103245
 10
158.3213492133
 20
112.0157376137
 10
158.6632349365
 20
112.6194795799
 10
159.2141271406
 20
113.0663970691
 10
159.8996261903
 20
113.2961310652
 10
160.6271493085
 20
113.2776554879
 10
161.298442895
 20
113.0134653505
 10
161.8228445598
 20
112.5392396208
 10
162.1295290836
 20
111.9190272149
 10
162.1770786889
 20
111.2365903538
 10
161.9590709754
 20
110.5840955135
 10
161.5049497061
 20
110.0496662986
 10
160.8760461979
 20
109.7054792773
 10
160.1572970696
 20
109.5980204847
 10
159.4457731419
 20
109.7418017891
 10
158.8375701406
 20
110.1174051147
  0
LWPOLYLINE
  5
171
330
1F
100
AcDbEntity
  8
0
  6
HIDDEN
 62
     7
370
     0
100
AcDbPolyline
 90
       18
 70
   128
 43
0.0
 10
160.888129177
 20
136.5205295589
 10
161.5146438428
 20
136.868541522
 10
161.9650668301
 20
137.4057274517
 10
162.1785669424
 20
138.0595363882
 10
162.1263085701
 20
138.7416696381
 10
161.8153492757
 20
139.3600007724
 10
161.2876870506
 20
139.8310199585
 10
160.6145848357
 20
140.0911141392
 10
159.8869480961
 20
140.1051556897
 10
159.2030499898
 20
139.8712484371
 10
158.655253502
 20
139.4209828433
 10
158.3175419666
 20
138.815170547
 10
158.2355250441
 20
138.1356282365
 10
158.4202798851
 20
137.4741330948
 10
158.846853564
 20
136.9200241026
 10
159.4576353975
 20
136.5481348914
 10
160.170137214
 20
136.4086926189
 10
160.888129177
 20
136.5205295589
  0
LWPOLYLINE
  5
172
330
1F
100
AcDbEntity
  8
0
  6
HIDDEN
 62
     7
370
     0
100
AcDbPolyline
 90
       21
 70
   128
 43
0.0
 10
161.065847876
 20
136.1643042621
 10
161.7499518045
 20
136.520639455
 10
162.2833910235
 20
137.0581858065
 10
162.6139527955
 20
137.7243235913
 10
162.7092755236
 20
138.4538462591
 10
162.5600292184
 20
139.1753437203
 10
162.1808244683
 20
139.8181909901
 10
161.608780066
 20
140.3194604647
 10
160.8998908498
 20
140.6300854143
 10
160.1235487335
 20
140.7196600195
 10
159.3557477765
 20
140.5794158783
 10
158.671643848
 20
140.2230788228
 10
158.1382036977
 20
139.6855334025
 10
157.8076437884
 20
139.0193956178
 10
157.7123210602
 20
138.28987295
 10
157.8615664341
 20
137.5683754888
 10
158.2407711842
 20
136.925528219
 10
158.8128155865
 20
136.4242587444
 10
159.5217048027
 20
136.1136328634
 10
160.298046919
 20
136.0240591895
 10
161.065847876
 20
136.1643042621
  0
LWPOLYLINE
  5
173
330
1F
100
AcDbEntity
  8
0
  6
HIDDEN
 62
     7
370
     0
100
AcDbPolyline
 90
       21
 70
   128
 43
0.0
 10
161.065847876
 20
136.7628392037
 10
161.7499518045
 20
137.119175328
 10
162.2833910235
 20
137.6567207482
 10
162.6139527955
 20
138.3228585329
 10
162.7092755236
 20
139.0523821321
 10
162.5600292184
 20
139.7738795933
 10
162.1808244683
 20
140.4167259317
 10
161.608780066
 20
140.9179963377
 10
160.8998908498
 20
141.228620356
 10
160.1235487335
 20
141.3181949612
 10
159.3557477765
 20
141.17795082
 10
158.671643848
 20
140.8216137644
 10
158.1382036977
 20
140.2840683442
 10
157.8076437884
 20
139.6179305595
 10
157.7123210602
 20
138.8884078917
 10
157.8615664341
 20
138.1669104305
 10
158.2407711842
 20
137.5240631607
 10
158.8128155865
 20
137.0227936861
 10
159.5217048027
 20
136.7121687364
 10
160.298046919
 20
136.6225941312
 10
161.065847876
 20
136.7628392037
  0
LWPOLYLINE
  5
174
330
1F
100
AcDbEntity
  8
0
  6
HIDDEN
 62
     7
370
     0
100
AcDbPolyline
 90
       18
 70
   128
 43
0.0
 10
160.8948384248
 20
138.3843202349
 10
161.5275584929
 20
138.7357780915
 10
161.9824434467
 20
139.2782846671
 10
162.1980576613
 20
139.9385700208
 10
162.1452814736
 20
140.6274590847
 10
161.8312413641
 20
141.2519145962
 10
161.2983534881
 20
141.7275987771
 10
160.6185839348
 20
141.990268996
 10
159.8837406211
 20
142.0044511762
 10
159.1930680745
 20
141.7682267931
 10
158.6398457014
 20
141.3135010954
 10
158.2987897866
 20
140.7016873565
 10
158.2159607508
 20
140.015415309
 10
158.4025447094
 20
139.347368313
 10
158.8333437987
 20
138.7877710369
 10
159.4501755037
 20
138.4121984449
 10
160.1697339513
 20
138.271375021
 10
160.8948384248
 20
138.3843202349
  0
LWPOLYLINE
  5
175
330
1F
100
AcDbEntity
  8
0
  6
HIDDEN
 62
     7
370
     0
100
AcDbPolyline
 90
       18
 70
   128
 43
0.0
 10
160.8948384248
 20
136.9665436652
 10
161.5275584929
 20
137.3180024531
 10
161.9824434467
 20
137.8605090287
 10
162.1980576613
 20
138.5207943824
 10
162.1452814736
 20
139.2096843776
 10
161.8312413641
 20
139.8341389578
 10
161.2983534881
 20
140.3098231387
 10
160.6185839348
 20
140.5724942889
 10
159.8837406211
 20
140.5866746065
 10
159.1930680745
 20
140.3504502233
 10
158.6398457014
 20
139.895725457
 10
158.2987897866
 20
139.2839126494
 10
158.2159607508
 20
138.5976396706
 10
158.4025447094
 20
137.9295926746
 10
158.8333437987
 20
137.3699944672
 10
159.4501755037
 20
136.9944228065
 10
160.1697339513
 20
136.8535993826
 10
160.8948384248
 20
136.9665436652
  0
LWPOLYLINE
  5
176
330
1F
100
AcDbEntity
  8
0
  6
HIDDEN
 62
     7
370
     0
100
AcDbPolyline
 90
       21
 70
   128
 43
0.0
 10
161.065847876
 20
136.9988335502
 10
161.7499518045
 20
137.3551687431
 10
162.2833910235
 20
137.8927150946
 10
162.6139527955
 20
138.5588528794
 10
162.7092755236
 20
139.2883755472
 10
162.5600292184
 20
140.0098730084
 10
162.1808244683
 20
140.6527202782
 10
161.608780066
 20
141.1539897528
 10
160.8998908498
 20
141.4646156337
 10
160.1235487335
 20
141.5541883763
 10
159.3557477765
 20
141.4139442351
 10
158.671643848
 20
141.0576090422
 10
158.1382036977
 20
140.5200626906
 10
157.8076437884
 20
139.8539249059
 10
157.7123210602
 20
139.1244013068
 10
157.8615664341
 20
138.4029038456
 10
158.2407711842
 20
137.7600575071
 10
158.8128155865
 20
137.2587871012
 10
159.5217048027
 20
136.9481621515
 10
160.298046919
 20
136.8585884776
 10
161.065847876
 20
136.9988335502
  0
LWPOLYLINE
  5
177
330
1F
100
AcDbEntity
  8
0
  6
HIDDEN
 62
     7
370
     0
100
AcDbPolyline
 90
       20
 70
   128
 43
0.0
 10
160.9974440955
 20
137.0009178501
 10
161.6565923043
 20
137.3509796542
 10
162.1590650477
 20
137.8831923213
 10
162.450414414
 20
138.5398818385
 10
162.4990667053
 20
139.2498858478
 10
162.2997487732
 20
139.9362640661
 10
161.8740598508
 20
140.5246373471
 10
161.2681320705
 20
140.9512464162
 10
160.5476246052
 20
141.1698594895
 10
159.7906176769
 20
141.1567893085
 10
159.0791431092
 20
140.9134514835
 10
158.4903013729
 20
140.4662136194
 10
158.0879020341
 20
139.8635436055
 10
157.9155505472
 20
139.1707476434
 10
157.9919255175
 20
138.4629024398
 10
158.3087502815
 20
137.8167135846
 10
158.8316907012
 20
137.3022053596
 10
159.5040785917
 20
136.9751332533
 10
160.2530510001
 20
136.8709406089
 10
160.9974440955
 20
137.0009178501
  0
LWPOLYLINE
  5
178
330
1F
100
AcDbEntity
  8
0
  6
HIDDEN
 62
     7
370
     0
100
AcDbPolyline
 90
       21
 70
   128
 43
0.0
 10
161.065847876
 20
137.2348269653
 10
161.7499518045
 20
137.5911630895
 10
162.2833910235
 20
138.1287085098
 10
162.6139527955
 20
138.7948462945
 10
162.7092755236
 20
139.5243698936
 10
162.5600292184
 20
140.2458673548
 10
162.1808244683
 20
140.8887136933
 10
161.608780066
 20
141.3899831679
 10
160.8998908498
 20
141.7006090489
 10
160.1235487335
 20
141.7901836541
 10
159.3557477765
 20
141.6499376502
 10
158.671643848
 20
141.2936024573
 10
158.1382036977
 20
140.7560561058
 10
157.8076437884
 20
140.089918321
 10
157.7123210602
 20
139.3603956532
 10
157.8615664341
 20
138.638898192
 10
158.2407711842
 20
137.9960509222
 10
158.8128155865
 20
137.4947814476
 10
159.5217048027
 20
137.184156498
 10
160.298046919
 20
137.0945818928
 10
161.065847876
 20
137.2348269653
  0
LWPOLYLINE
  5
179
330
1F
100
AcDbEntity
  8
0
  6
HIDDEN
 62
     7
370
     0
100
AcDbPolyline
 90
       20
 70
   128
 43
0.0
 10
160.9974440955
 20
137.2369112652
 10
161.6565923043
 20
137.5869740006
 10
162.1590650477
 20
138.1191866678
 10
162.450414414
 20
138.775876185
 10
162.4990667053
 20
139.4858801943
 10
162.2997487732
 20
140.1722584125
 10
161.8740598508
 20
140.7606307622
 10
161.2681320705
 20
141.1872398314
 10
160.5476246052
 20
141.4058547672
 10
159.7906176769
 20
141.3927827236
 10
159.0791431092
 20
141.1494448986
 10
158.4903013729
 20
140.7022070345
 10
158.0879020341
 20
140.0995370206
 10
157.9155505472
 20
139.4067419898
 10
157.9919255175
 20
138.6988967862
 10
158.3087502815
 20
138.0527069997
 10
158.8316907012
 20
137.538199706
 10
159.5040785917
 20
137.2111275997
 10
160.2530510001
 20
137.1069340241
 10
160.9974440955
 20
137.2369112652
  0
LWPOLYLINE
  5
17A
330
1F
100
AcDbEntity
  8
0
  6
HIDDEN
 62
     7
370
     0
100
AcDbPolyline
 90
       21
 70
   128
 43
0.0
 10
161.065847876
 20
137.4708213117
 10
161.7499518045
 20
137.8271565047
 10
162.2833910235
 20
138.3647028562
 10
162.6139527955
 20
139.0308406409
 10
162.7092755236
 20
139.7603633088
 10
162.5600292184
 20
140.4818607699
 10
162.1808244683
 20
141.1247071084
 10
161.608780066
 20
141.6259784457
 10
160.8998908498
 20
141.936602464
 10
160.1235487335
 20
142.0261770692
 10
159.3557477765
 20
141.885932928
 10
158.671643848
 20
141.5295958724
 10
158.1382036977
 20
140.9920495209
 10
157.8076437884
 20
140.3259126675
 10
157.7123210602
 20
139.5963890683
 10
157.8615664341
 20
138.8748916071
 10
158.2407711842
 20
138.2320452687
 10
158.8128155865
 20
137.7307748627
 10
159.5217048027
 20
137.4201499131
 10
160.298046919
 20
137.3305762392
 10
161.065847876
 20
137.4708213117
  0
LWPOLYLINE
  5
17B
330
1F
100
AcDbEntity
  8
0
  6
HIDDEN
 62
     7
370
     0
100
AcDbPolyline
 90
       20
 70
   128
 43
0.0
 10
160.9974440955
 20
137.4729056117
 10
161.6565923043
 20
137.8229674157
 10
162.1590650477
 20
138.3551800829
 10
162.450414414
 20
139.0118696001
 10
162.4990667053
 20
139.7218736094
 10
162.2997487732
 20
140.4082518276
 10
161.8740598508
 20
140.99662604
 10
161.2681320705
 20
141.4232332465
 10
160.5476246052
 20
141.6418481823
 10
159.7906176769
 20
141.6287780013
 10
159.0791431092
 20
141.3854383137
 10
158.4903013729
 20
140.9382023123
 10
158.0879020341
 20
140.335531367
 10
157.9155505472
 20
139.6427354049
 10
157.9919255175
 20
138.9348902014
 10
158.3087502815
 20
138.2887013462
 10
158.8316907012
 20
137.7741931212
 10
159.5040785917
 20
137.4471210149
 10
160.2530510001
 20
137.3429283705
 10
160.9974440955
 20
137.4729056117
  0
LWPOLYLINE
  5
17C
330
1F
100
AcDbEntity
  8
0
  6
HIDDEN
 62
     7
370
     0
100
AcDbPolyline
 90
       21
 70
   128
 43
0.0
 10
161.065847876
 20
137.7068147269
 10
161.7499518045
 20
138.0631508511
 10
162.2833910235
 20
138.6006972026
 10
162.6139527955
 20
139.266834056
 10
162.7092755236
 20
139.9963576552
 10
162.5600292184
 20
140.7178551164
 10
162.1808244683
 20
141.3607023862
 10
161.608780066
 20
141.8619718608
 10
160.8998908498
 20
142.1725958791
 10
160.1235487335
 20
142.2621704843
 10
159.3557477765
 20
142.1219263431
 10
158.671643848
 20
141.7655892875
 10
158.1382036977
 20
141.2280447986
 10
157.8076437884
 20
140.5619070139
 10
157.7123210602
 20
139.8323834148
 10
157.8615664341
 20
139.1108859536
 10
158.2407711842
 20
138.4680386838
 10
158.8128155865
 20
137.9667692092
 10
159.5217048027
 20
137.6561442595
 10
160.298046919
 20
137.5665696543
 10
161.065847876
 20
137.7068147269
  0
LWPOLYLINE
  5
17D
330
1F
100
AcDbEntity
  8
0
  6
HIDDEN
 62
     7
370
     0
100
AcDbPolyline
 90
       20
 70
   128
 43
0.0
 10
160.9974440955
 20
137.7088990268
 10
161.6565923043
 20
138.0589617622
 10
162.1590650477
 20
138.5911744293
 10
162.450414414
 20
139.2478639465
 10
162.4990667053
 20
139.9578679558
 10
162.2997487732
 20
140.6442452427
 10
161.8740598508
 20
141.2326194551
 10
161.2681320705
 20
141.6592285242
 10
160.5476246052
 20
141.8778415975
 10
159.7906176769
 20
141.8647714164
 10
159.0791431092
 20
141.6214335915
 10
158.4903013729
 20
141.1741957274
 10
158.0879020341
 20
140.5715257135
 10
157.9155505472
 20
139.8787297514
 10
157.9919255175
 20
139.1708845478
 10
158.3087502815
 20
138.5246947613
 10
158.8316907012
 20
138.0101874676
 10
159.5040785917
 20
137.6831153613
 10
160.2530510001
 20
137.5789217856
 10
160.9974440955
 20
137.7088990268
  0
LWPOLYLINE
  5
17E
330
1F
100
AcDbEntity
  8
0
  6
HIDDEN
 62
     7
370
     0
100
AcDbPolyline
 90
       21
 70
   128
 43
0.0
 10
161.065847876
 20
137.8949260544
 10
161.7499518045
 20
138.2512621787
 10
162.2833910235
 20
138.7888075989
 10
162.6139527955
 20
139.4549453836
 10
162.7092755236
 20
140.1844680515
 10
162.5600292184
 20
140.9059655127
 10
162.1808244683
 20
141.5488127824
 10
161.608780066
 20
142.0500822571
 10
160.8998908498
 20
142.360708138
 10
160.1235487335
 20
142.4502827432
 10
159.3557477765
 20
142.3100367394
 10
158.671643848
 20
141.9537015465
 10
158.1382036977
 20
141.4161551949
 10
157.8076437884
 20
140.7500174102
 10
157.7123210602
 20
140.0204947424
 10
157.8615664341
 20
139.2989972812
 10
158.2407711842
 20
138.6561500114
 10
158.8128155865
 20
138.1548805368
 10
159.5217048027
 20
137.8442555871
 10
160.298046919
 20
137.7546809819
 10
161.065847876
 20
137.8949260544
  0
LWPOLYLINE
  5
17F
330
1F
100
AcDbEntity
  8
0
  6
HIDDEN
 62
     7
370
     0
100
AcDbPolyline
 90
       20
 70
   128
 43
0.0
 10
161.0179648571
 20
138.0664319005
 10
161.6943090059
 20
138.4256262537
 10
162.2098910459
 20
138.9717221465
 10
162.5088400044
 20
139.6455433425
 10
162.5587607571
 20
140.3740685638
 10
162.3542423197
 20
141.0783533212
 10
161.9174501695
 20
141.682073867
 10
161.2957141199
 20
142.1198122409
 10
160.5564116337
 20
142.3441287335
 10
159.7796560102
 20
142.3307176885
 10
159.0496220463
 20
142.0810319689
 10
158.4454190754
 20
141.6221264955
 10
158.0325218686
 20
141.0037338939
 10
157.8556748875
 20
140.2928656172
 10
157.9340419569
 20
139.566555081
 10
158.2591312774
 20
138.9035092872
 10
158.7957137101
 20
138.3755797726
 10
159.48564213
 20
138.0399748888
 10
160.2541527548
 20
137.9330637139
 10
161.0179648571
 20
138.0664319005
  0
LINE
  5
180
330
1F
100
AcDbEntity
  8
0
  6
HIDDEN
 62
     7
370
     0
100
AcDbLine
 10
162.7107973047
 20
108.199460825
 30
0.0
 11
162.7107973047
 21
111.355688816
 31
0.0
  0
LINE
  5
181
330
1F
100
AcDbEntity
  8
0
  6
HIDDEN
 62
     7
370
     0
100
AcDbLine
 10
157.7107974165
 20
111.355688816
 30
0.0
 11
157.7107974165
 21
109.3020294067
 31
0.0
  0
LINE
  5
182
330
1F
100
AcDbEntity
  8
0
  6
HIDDEN
 62
     7
370
     0
100
AcDbLine
 10
149.210797653
 20
107.4140969869
 30
0.0
 11
151.8302255147
 21
108.0414116588
 31
0.0
  0
LINE
  5
183
330
1F
100
AcDbEntity
  8
0
  6
HIDDEN
 62
     7
370
     0
100
AcDbLine
 10
150.4328286112
 20
113.876416741
 30
0.0
 11
149.210797653
 21
113.5837579351
 31
0.0
  0
LINE
  5
184
330
1F
100
AcDbEntity
  8
0
  6
HIDDEN
 62
     7
370
     0
100
AcDbLine
 10
151.888948197
 20
108.9809242841
 30
0.0
 11
159.3580975034
 21
110.7696736437
 31
0.0
  0
LINE
  5
185
330
1F
100
AcDbEntity
  8
0
  6
HIDDEN
 62
     7
370
     0
100
AcDbLine
 10
159.3580975034
 20
115.0884362143
 30
0.0
 11
150.910770318
 21
113.0654275623
 31
0.0
  0
LINE
  5
186
330
1F
100
AcDbEntity
  8
0
  6
HIDDEN
 62
     7
370
     0
100
AcDbLine
 10
162.3107979842
 20
111.4054829087
 30
0.0
 11
162.3107979842
 21
123.4147727229
 31
0.0
  0
LINE
  5
187
330
1F
100
AcDbEntity
  8
0
  6
HIDDEN
 62
     7
370
     0
100
AcDbLine
 10
158.1107976683
 20
111.753533056
 30
0.0
 11
158.1107976683
 21
111.4054829087
 31
0.0
  0
LINE
  5
188
330
1F
100
AcDbEntity
  8
0
  6
HIDDEN
 62
     7
370
     0
100
AcDbLine
 10
158.1107976683
 20
123.4130557133
 30
0.0
 11
158.1107976683
 21
113.5071575847
 31
0.0
  0
ARC
  5
189
330
1F
100
AcDbEntity
  8
0
  6
HIDDEN
 62
     7
370
     0
100
AcDbCircle
 10
45.6107977339
 20
111.1637739774
 30
0.0
 40
1.200000000000017
100
AcDbArc
 50
90.0
 51
180.0
  0
ARC
  5
18A
330
1F
100
AcDbEntity
  8
0
  6
HIDDEN
 62
     7
370
     0
100
AcDbCircle
 10
45.6107977339
 20
138.5637739774
 30
0.0
 40
1.200000000000003
100
AcDbArc
 50
180.0
 51
270.0
  0
ARC
  5
18B
330
1F
100
AcDbEntity
  8
0
  6
HIDDEN
 62
     7
370
     0
100
AcDbCircle
 10
55.3031701646
 20
112.5387739774
 30
0.0
 40
0.4000000000000057
100
AcDbArc
 50
255.0
 51
270.0
  0
ARC
  5
18C
330
1F
100
AcDbEntity
  8
0
  6
HIDDEN
 62
     7
370
     0
100
AcDbCircle
 10
55.3031701646
 20
137.1887739774
 30
0.0
 40
0.400000000000006
100
AcDbArc
 50
90.0
 51
105.0
  0
LINE
  5
18D
330
1F
100
AcDbEntity
  8
0
  6
HIDDEN
 62
     7
370
     0
100
AcDbLine
 10
55.3031678148
 20
112.1387737077
 30
0.0
 11
56.1798552819
 21
112.1387737077
 31
0.0
  0
LINE
  5
18E
330
1F
100
AcDbEntity
  8
0
  6
HIDDEN
 62
     7
370
     0
100
AcDbLine
 10
56.1798552819
 20
137.5887742471
 30
0.0
 11
55.3031678148
 21
137.5887742471
 31
0.0
  0
ARC
  5
18F
330
1F
100
AcDbEntity
  8
0
  6
HIDDEN
 62
     7
370
     0
100
AcDbCircle
 10
56.1798576262
 20
112.5387739774
 30
0.0
 40
0.400000000000006
100
AcDbArc
 50
270.0
 51
330.0
  0
ARC
  5
190
330
1F
100
AcDbEntity
  8
0
  6
HIDDEN
 62
     7
370
     0
100
AcDbCircle
 10
56.1798576262
 20
137.1887739774
 30
0.0
 40
0.4000000000000057
100
AcDbArc
 50
30.0
 51
90.0
  0
LINE
  5
191
330
1F
100
AcDbEntity
  8
0
  6
HIDDEN
 62
     7
370
     0
100
AcDbLine
 10
55.1996419974
 20
137.5751443413
 30
0.0
 11
54.4107968756
 21
137.3637741637
 31
0.0
  0
LINE
  5
192
330
1F
100
AcDbEntity
  8
0
  6
HIDDEN
 62
     7
370
     0
100
AcDbLine
 10
54.4107968756
 20
112.3637737912
 30
0.0
 11
55.1996419974
 21
112.1524036136
 31
0.0
  0
LINE
  5
193
330
1F
100
AcDbEntity
  8
0
  6
HIDDEN
 62
     7
370
     0
100
AcDbLine
 10
241.2608007737
 20
137.4411242288
 30
0.0
 11
240.2607987472
 21
136.8637740817
 31
0.0
  0
LINE
  5
194
330
1F
100
AcDbEntity
  8
0
  6
HIDDEN
 62
     7
370
     0
100
AcDbLine
 10
240.2607987472
 20
112.8637738731
 30
0.0
 11
241.2608007737
 21
112.286423726
 31
0.0
  0
LINE
  5
195
330
1F
100
AcDbEntity
  8
0
  6
HIDDEN
 62
     7
370
     0
100
AcDbLine
 10
244.9075768538
 20
140.8637747374
 30
0.0
 11
241.2608007737
 21
140.8637747374
 31
0.0
  0
LINE
  5
196
330
1F
100
AcDbEntity
  8
0
  6
HIDDEN
 62
     7
370
     0
100
AcDbLine
 10
241.2608007737
 20
108.8637732175
 30
0.0
 11
244.9170018383
 21
108.8637732175
 31
0.0
  0
LINE
  5
197
330
1F
100
AcDbEntity
  8
0
  6
HIDDEN
 62
     7
370
     0
100
AcDbLine
 10
56.5262700268
 20
112.3387742993
 30
0.0
 11
57.6954002329
 21
114.363774119
 31
0.0
  0
LINE
  5
198
330
1F
100
AcDbEntity
  8
0
  6
HIDDEN
 62
     7
370
     0
100
AcDbLine
 10
57.6954002329
 20
135.3637738359
 30
0.0
 11
56.5262700268
 21
137.3887736556
 31
0.0
  0
LINE
  5
199
330
1F
100
AcDbEntity
  8
0
  6
HIDDEN
 62
     7
370
     0
100
AcDbLine
 10
45.6107969232
 20
112.3637737912
 30
0.0
 11
54.4107968756
 21
112.3637737912
 31
0.0
  0
LINE
  5
19A
330
1F
100
AcDbEntity
  8
0
  6
HIDDEN
 62
     7
370
     0
100
AcDbLine
 10
54.4107968756
 20
137.3637741637
 30
0.0
 11
45.6107969232
 21
137.3637741637
 31
0.0
  0
ARC
  5
19B
330
1F
100
AcDbEntity
  8
0
  6
HIDDEN
 62
     7
370
     0
100
AcDbCircle
 10
220.7107977339
 20
113.1637739774
 30
0.0
 40
0.6000000000000085
100
AcDbArc
 50
180.0
 51
270.0
  0
ARC
  5
19C
330
1F
100
AcDbEntity
  8
0
  6
HIDDEN
 62
     7
370
     0
100
AcDbCircle
 10
220.7107977339
 20
136.5637739774
 30
0.0
 40
0.5999999999999943
100
AcDbArc
 50
90.0
 51
180.0
  0
LINE
  5
19D
330
1F
100
AcDbEntity
  8
0
  6
HIDDEN
 62
     7
370
     0
100
AcDbLine
 10
220.7107956358
 20
112.5637743827
 30
0.0
 11
221.4121932932
 21
112.5637743827
 31
0.0
  0
LINE
  5
19E
330
1F
100
AcDbEntity
  8
0
  6
HIDDEN
 62
     7
370
     0
100
AcDbLine
 10
221.4121932932
 20
137.1637735721
 30
0.0
 11
220.7107956358
 21
137.1637735721
 31
0.0
  0
ARC
  5
19F
330
1F
100
AcDbEntity
  8
0
  6
HIDDEN
 62
     7
370
     0
100
AcDbCircle
 10
221.412190993
 20
113.1637739774
 30
0.0
 40
0.5999999999999943
100
AcDbArc
 50
270.0
 51
285.0
  0
ARC
  5
1A0
330
1F
100
AcDbEntity
  8
0
  6
HIDDEN
 62
     7
370
     0
100
AcDbCircle
 10
221.412190993
 20
136.5637739774
 30
0.0
 40
0.5999999999999943
100
AcDbArc
 50
75.0
 51
90.0
  0
LINE
  5
1A1
330
1F
100
AcDbEntity
  8
0
  6
HIDDEN
 62
     7
370
     0
100
AcDbLine
 10
221.5674857446
 20
112.5842187759
 30
0.0
 11
222.6107979961
 21
112.8637738731
 31
0.0
  0
LINE
  5
1A2
330
1F
100
AcDbEntity
  8
0
  6
HIDDEN
 62
     7
370
     0
100
AcDbLine
 10
222.6107979961
 20
136.8637740817
 30
0.0
 11
221.5674857446
 21
137.143329179
 31
0.0
  0
LINE
  5
1A3
330
1F
100
AcDbEntity
  8
0
  6
HIDDEN
 62
     7
370
     0
100
AcDbLine
 10
222.6107979961
 20
112.8637738731
 30
0.0
 11
240.2607987472
 21
112.8637738731
 31
0.0
  0
LINE
  5
1A4
330
1F
100
AcDbEntity
  8
0
  6
HIDDEN
 62
     7
370
     0
100
AcDbLine
 10
240.2607987472
 20
136.8637740817
 30
0.0
 11
222.6107979961
 21
136.8637740817
 31
0.0
  0
LINE
  5
1A5
330
1F
100
AcDbEntity
  8
0
  6
HIDDEN
 62
     7
370
     0
100
AcDbLine
 10
57.6954002329
 20
114.363774119
 30
0.0
 11
106.4107979484
 21
114.363774119
 31
0.0
  0
LINE
  5
1A6
330
1F
100
AcDbEntity
  8
0
  6
HIDDEN
 62
     7
370
     0
100
AcDbLine
 10
106.4107979484
 20
135.3637738359
 30
0.0
 11
57.6954002329
 21
135.3637738359
 31
0.0
  0
LINE
  5
1A7
330
1F
100
AcDbEntity
  8
0
  6
HIDDEN
 62
     7
370
     0
100
AcDbLine
 10
106.4107979484
 20
114.363774119
 30
0.0
 11
110.1661774167
 21
120.6137737465
 31
0.0
  0
LINE
  5
1A8
330
1F
100
AcDbEntity
  8
0
  6
HIDDEN
 62
     7
370
     0
100
AcDbLine
 10
110.1661774167
 20
129.1137742084
 30
0.0
 11
106.4107979484
 21
135.3637738359
 31
0.0
  0
LINE
  5
1A9
330
1F
100
AcDbEntity
  8
0
  6
HIDDEN
 62
     7
370
     0
100
AcDbLine
 10
244.5607970305
 20
108.0432519522
 30
0.0
 11
245.1107988902
 21
106.8637747523
 31
0.0
  0
LINE
  5
1AA
330
1F
100
AcDbEntity
  8
0
  6
HIDDEN
 62
     7
370
     0
100
AcDbLine
 10
245.1107988902
 20
142.8637732026
 30
0.0
 11
244.5607970305
 21
141.6842960026
 31
0.0
  0
LINE
  5
1AB
330
1F
100
AcDbEntity
  8
0
  6
HIDDEN
 62
     7
370
     0
100
AcDbLine
 10
244.5607970305
 20
141.3887743112
 30
0.0
 11
241.2608007737
 21
141.3887743112
 31
0.0
  0
LINE
  5
1AC
330
1F
100
AcDbEntity
  8
0
  6
HIDDEN
 62
     7
370
     0
100
AcDbLine
 10
241.2608007737
 20
108.3387736436
 30
0.0
 11
244.5607970305
 21
108.3387736436
 31
0.0
  0
LINE
  5
1AD
330
1F
100
AcDbEntity
  8
0
  6
HIDDEN
 62
     7
370
     0
100
AcDbLine
 10
110.1661774167
 20
120.6137737465
 30
0.0
 11
220.1108003803
 21
120.6137737465
 31
0.0
  0
LINE
  5
1AE
330
1F
100
AcDbEntity
  8
0
  6
HIDDEN
 62
     7
370
     0
100
AcDbLine
 10
220.1108003803
 20
129.1137742084
 30
0.0
 11
110.1661774167
 21
129.1137742084
 31
0.0
  0
LINE
  5
1AF
330
1F
100
AcDbEntity
  8
0
  6
HIDDEN
 62
     7
370
     0
100
AcDbLine
 10
162.3107979842
 20
126.3144922415
 30
0.0
 11
162.3107979842
 21
138.3220650461
 31
0.0
  0
LINE
  5
1B0
330
1F
100
AcDbEntity
  8
0
  6
HIDDEN
 62
     7
370
     0
100
AcDbLine
 10
158.1107976683
 20
136.2203903702
 30
0.0
 11
158.1107976683
 21
126.3127752319
 31
0.0
  0
LINE
  5
1B1
330
1F
100
AcDbEntity
  8
0
  6
HIDDEN
 62
     7
370
     0
100
AcDbLine
 10
158.1107976683
 20
138.3220650461
 30
0.0
 11
158.1107976683
 21
137.9740148988
 31
0.0
  0
LINE
  5
1B2
330
1F
100
AcDbEntity
  8
0
  6
HIDDEN
 62
     7
370
     0
100
AcDbLine
 10
244.9170018383
 20
140.8637747374
 30
0.0
 11
244.9075768538
 21
140.8637747374
 31
0.0
  0
LINE
  5
1B3
330
1F
100
AcDbEntity
  8
0
  6
HIDDEN
 62
     7
370
     0
100
AcDbLine
 10
150.910770318
 20
136.6621203926
 30
0.0
 11
159.3580975034
 21
134.6391117406
 31
0.0
  0
LINE
  5
1B4
330
1F
100
AcDbEntity
  8
0
  6
HIDDEN
 62
     7
370
     0
100
AcDbLine
 10
159.3580975034
 20
138.9578743112
 30
0.0
 11
151.888948197
 21
140.7466236707
 31
0.0
  0
LINE
  5
1B5
330
1F
100
AcDbEntity
  8
0
  6
HIDDEN
 62
     7
370
     0
100
AcDbLine
 10
149.210797653
 20
136.1437900197
 30
0.0
 11
150.4328286112
 21
135.8511312139
 31
0.0
  0
LINE
  5
1B6
330
1F
100
AcDbEntity
  8
0
  6
HIDDEN
 62
     7
370
     0
100
AcDbLine
 10
151.8302255147
 20
141.6861362961
 30
0.0
 11
149.210797653
 21
142.3134509679
 31
0.0
  0
LINE
  5
1B7
330
1F
100
AcDbEntity
  8
0
  6
HIDDEN
 62
     7
370
     0
100
AcDbLine
 10
162.7107973047
 20
138.3718591389
 30
0.0
 11
162.7107973047
 21
141.5280871299
 31
0.0
  0
LINE
  5
1B8
330
1F
100
AcDbEntity
  8
0
  6
HIDDEN
 62
     7
370
     0
100
AcDbLine
 10
157.7107974165
 20
140.4255185482
 30
0.0
 11
157.7107974165
 21
138.3718591389
 31
0.0
  0
LINE
  5
1B9
330
1F
100
AcDbEntity
  8
0
  6
HIDDEN
 62
     7
370
     0
100
AcDbLine
 10
155.2723276266
 20
135.8014749568
 30
0.0
 11
155.769369828
 21
136.2750906703
 31
0.0
  0
LINE
  5
1BA
330
1F
100
AcDbEntity
  8
0
  6
HIDDEN
 62
     7
370
     0
100
AcDbLine
 10
156.3957867049
 20
138.8907715883
 30
0.0
 11
156.1672084801
 21
139.538162781
 31
0.0
  0
LINE
  5
1BB
330
1F
100
AcDbEntity
  8
0
  6
HIDDEN
 62
     7
370
     0
100
AcDbLine
 10
151.0280680679
 20
136.2227186766
 30
0.0
 11
154.2990070604
 21
135.4393776711
 31
0.0
  0
LINE
  5
1BC
330
1F
100
AcDbEntity
  8
0
  6
HIDDEN
 62
     7
370
     0
100
AcDbLine
 10
155.4635039367
 20
140.3018817511
 30
0.0
 11
152.1925649442
 21
141.0852227565
 31
0.0
  0
LINE
  5
1BD
330
1F
100
AcDbEntity
  8
0
  6
HIDDEN
 62
     7
370
     0
100
AcDbLine
 10
152.1925649442
 20
108.6423251983
 30
0.0
 11
155.4635039367
 21
109.4256662038
 31
0.0
  0
LINE
  5
1BE
330
1F
100
AcDbEntity
  8
0
  6
HIDDEN
 62
     7
370
     0
100
AcDbLine
 10
154.2990070604
 20
114.2881702837
 30
0.0
 11
151.0280680679
 21
113.5048292783
 31
0.0
  0
LINE
  5
1BF
330
1F
100
AcDbEntity
  8
0
  6
HIDDEN
 62
     7
370
     0
100
AcDbLine
 10
156.1672084801
 20
110.1893851739
 30
0.0
 11
156.3957867049
 21
110.8367763665
 31
0.0
  0
LINE
  5
1C0
330
1F
100
AcDbEntity
  8
0
  6
HIDDEN
 62
     7
370
     0
100
AcDbLine
 10
155.769369828
 20
113.4524572846
 30
0.0
 11
155.2723276266
 21
113.926072998
 31
0.0
  0
LINE
  5
1C1
330
1F
100
AcDbEntity
  8
0
  6
HIDDEN
 62
     7
370
     0
100
AcDbLine
 10
157.7107974165
 20
109.8131774199
 30
0.0
 11
157.7107974165
 21
109.6250660923
 31
0.0
  0
LINE
  5
1C2
330
1F
100
AcDbEntity
  8
0
  6
HIDDEN
 62
     7
370
     0
100
AcDbLine
 10
162.7107973047
 20
109.6250660923
 30
0.0
 11
162.7107973047
 21
109.8131774199
 31
0.0
  0
LINE
  5
1C3
330
1F
100
AcDbEntity
  8
0
  6
HIDDEN
 62
     7
370
     0
100
AcDbLine
 10
158.2107974984
 20
110.9949596431
 30
0.0
 11
158.2107974984
 21
109.5771840047
 31
0.0
  0
LINE
  5
1C4
330
1F
100
AcDbEntity
  8
0
  6
HIDDEN
 62
     7
370
     0
100
AcDbLine
 10
162.2107981541
 20
109.5771840047
 30
0.0
 11
162.2107981541
 21
110.9949596431
 31
0.0
  0
LINE
  5
1C5
330
1F
100
AcDbEntity
  8
0
  6
HIDDEN
 62
     7
370
     0
100
AcDbLine
 10
157.7107974165
 20
111.355688816
 30
0.0
 11
157.7107974165
 21
110.757152943
 31
0.0
  0
LINE
  5
1C6
330
1F
100
AcDbEntity
  8
0
  6
HIDDEN
 62
     7
370
     0
100
AcDbLine
 10
162.7107973047
 20
110.757152943
 30
0.0
 11
162.7107973047
 21
111.355688816
 31
0.0
  0
LINE
  5
1C7
330
1F
100
AcDbEntity
  8
0
  6
HIDDEN
 62
     7
370
     0
100
AcDbLine
 10
162.7107973047
 20
138.3718591389
 30
0.0
 11
162.7107973047
 21
138.9703950119
 31
0.0
  0
LINE
  5
1C8
330
1F
100
AcDbEntity
  8
0
  6
HIDDEN
 62
     7
370
     0
100
AcDbLine
 10
157.7107974165
 20
138.9703950119
 30
0.0
 11
157.7107974165
 21
138.3718591389
 31
0.0
  0
LINE
  5
1C9
330
1F
100
AcDbEntity
  8
0
  6
HIDDEN
 62
     7
370
     0
100
AcDbLine
 10
162.2107981541
 20
138.7325883117
 30
0.0
 11
162.2107981541
 21
140.1503639501
 31
0.0
  0
LINE
  5
1CA
330
1F
100
AcDbEntity
  8
0
  6
HIDDEN
 62
     7
370
     0
100
AcDbLine
 10
158.2107974984
 20
140.1503639501
 30
0.0
 11
158.2107974984
 21
138.7325883117
 31
0.0
  0
LINE
  5
1CB
330
1F
100
AcDbEntity
  8
0
  6
HIDDEN
 62
     7
370
     0
100
AcDbLine
 10
162.7107973047
 20
139.914370535
 30
0.0
 11
162.7107973047
 21
140.1024818626
 31
0.0
  0
LINE
  5
1CC
330
1F
100
AcDbEntity
  8
0
  6
HIDDEN
 62
     7
370
     0
100
AcDbLine
 10
157.7107974165
 20
140.1024818626
 30
0.0
 11
157.7107974165
 21
139.914370535
 31
0.0
  0
CIRCLE
  5
1CD
330
1F
100
AcDbEntity
  8
0
  6
HIDDEN
 62
     7
370
     0
100
AcDbCircle
 10
160.2107977339
 20
139.3295159394
 30
0.0
 40
2.000000000000007
  0
ARC
  5
1CE
330
1F
100
AcDbEntity
  8
0
  6
HIDDEN
 62
     7
370
     0
100
AcDbCircle
 10
160.2107977339
 20
110.3980320155
 30
0.0
 40
2.000000000000009
100
AcDbArc
 50
47.87639236
 51
192.2156859341
  0
ARC
  5
1CF
330
1F
100
AcDbEntity
  8
0
  6
HIDDEN
 62
     7
370
     0
100
AcDbCircle
 10
160.2107977339
 20
110.3980320155
 30
0.0
 40
1.999999999999973
100
AcDbArc
 50
340.3290945648
 51
47.87639236
  0
DIMENSION
  5
1D0
330
1F
100
AcDbEntity
  8
VERMASSUNG
100
AcDbDimension
  2
_D
 10
37.6440905521
 20
173.5887739774
 30
0.0
 11
37.6440905521
 21
124.8637739774
 31
0.0
 70
   160
  1
ISO 50 %%c<>
 71
     2
 42
-1.0
  3
SLDDIMSTYLE0
100
AcDbAlignedDimension
 13
164.4607977339
 23
76.1387739774
 33
0.0
 14
164.4607977339
 24
173.5887739774
 34
0.0
 50
90.0
100
AcDbRotatedDimension
  0
DIMENSION
  5
1DD
330
1F
100
AcDbEntity
  8
VERMASSUNG
100
AcDbDimension
  2
_D_1
 10
245.1107977339
 20
187.721049921
 30
0.0
 11
144.7607977339
 21
187.721049921
 31
0.0
 70
   160
  1
(<>)
 71
     2
 42
-1.0
  3
SLDDIMSTYLE0
100
AcDbAlignedDimension
 13
44.4107977339
 23
143.2426185048
 33
0.0
 14
245.1107977339
 24
145.4637739774
 34
0.0
100
AcDbRotatedDimension
  0
DIMENSION
  5
1E9
330
1F
100
AcDbEntity
  8
VERMASSUNG
100
AcDbDimension
  2
_D_2
 10
245.1107977339
 20
181.721049921
 30
0.0
 11
195.5607977339
 21
181.721049921
 31
0.0
 70
   160
  1
<>
 71
     2
 42
-1.0
  3
SLDDIMSTYLE0
100
AcDbAlignedDimension
 13
146.0107977339
 23
159.7887739774
 33
0.0
 14
245.1107977339
 24
145.4637739774
 34
0.0
100
AcDbRotatedDimension
  0
DIMENSION
  5
1F3
330
1F
100
AcDbEntity
  8
VERMASSUNG
100
AcDbDimension
  2
_D_3
 10
245.1107977339
 20
175.721049921
 30
0.0
 11
205.0857977339
 21
175.721049921
 31
0.0
 70
   160
  1
<>
 71
     2
 42
-1.0
  3
SLDDIMSTYLE0
100
AcDbAlignedDimension
 13
165.0607977339
 23
171.1587609307
 33
0.0
 14
245.1107977339
 24
145.4637739774
 34
0.0
100
AcDbRotatedDimension
  0
DIMENSION
  5
1FD
330
1F
100
AcDbEntity
  8
VERMASSUNG
100
AcDbDimension
  2
_D_4
 10
254.2308855987
 20
103.8637739774
 30
0.0
 11
254.2308855987
 21
124.8637739774
 31
0.0
 70
   160
  1
MBM %%c<>
 71
     2
 42
-1.0
  3
SLDDIMSTYLE0
100
AcDbAlignedDimension
 13
244.7107977339
 23
145.8637739774
 33
0.0
 14
244.7107977339
 24
103.8637739774
 34
0.0
 50
90.0
100
AcDbRotatedDimension
  0
LINE
  5
209
330
1F
100
AcDbEntity
  8
VERMASSUNG
  6
CENTERX2
 62
     7
370
     0
100
AcDbLine
 10
42.4107977339
 20
124.8637739774
 30
0.0
 11
247.1107977339
 21
124.8637739774
 31
0.0
  0
LINE
  5
20A
330
1F
100
AcDbEntity
  8
VERMASSUNG
  6
CENTERX2
370
     0
100
AcDbLine
 10
147.2657960877
 20
139.6944188769
 30
0.0
 11
158.5281677786
 21
136.9972488625
 31
0.0
  0
LINE
  5
20B
330
1F
100
AcDbEntity
  8
VERMASSUNG
  6
CENTERX2
370
     0
100
AcDbLine
 10
147.2657960877
 20
110.0331290779
 30
0.0
 11
158.5281677786
 21
112.7302990923
 31
0.0
  0
LINE
  5
20C
330
1F
100
AcDbEntity
  8
0
  6
Continuous
 62
     7
370
    15
100
AcDbLine
 10
273.6163363249
 20
25.6172745693
 30
0.0
 11
273.757734456
 21
25.6989285128
 31
0.0
  0
LINE
  5
20D
330
1F
100
AcDbEntity
  8
0
  6
Continuous
 62
     7
370
    15
100
AcDbLine
 10
281.0397507175
 20
38.3131175441
 30
0.0
 11
281.0397507175
 21
38.4763988891
 31
0.0
  0
LINE
  5
20E
330
1F
100
AcDbEntity
  8
0
  6
Continuous
 62
     7
370
    15
100
AcDbLine
 10
241.6192418961
 20
40.5370619907
 30
0.0
 11
268.3655562285
 21
25.096743383
 31
0.0
  0
LINE
  5
20F
330
1F
100
AcDbEntity
  8
0
  6
Continuous
 62
     7
370
    15
100
AcDbLine
 10
278.8647030018
 20
43.2837693365
 30
0.0
 11
252.1183886694
 21
58.7240879442
 31
0.0
  0
SPLINE
  5
210
330
1F
100
AcDbEntity
  8
0
  6
Continuous
 62
     7
370
    15
100
AcDbSpline
210
0.0
220
0.0
230
1.0
 70
     8
 71
     3
 72
    10
 73
     6
 74
     0
 42
0.000000001
 43
0.00000001
 40
0.0
 40
0.0
 40
0.0
 40
0.0
 40
0.134195124446517
 40
0.6045542330645128
 40
1.0
 40
1.0
 40
1.0
 40
1.0
 10
224.5119693584614
 20
53.48676912236103
 30
0.0
 10
224.4509374987125
 20
53.31635795854493
 30
0.0
 10
224.1759866067544
 20
52.54864906545817
 30
0.0
 10
223.8085809177252
 20
51.27850213045645
 30
0.0
 10
223.5568457364651
 20
50.19287201548966
 30
0.0
 10
223.4418687773039
 20
49.69702376429235
 30
0.0
  0
SPLINE
  5
211
330
1F
100
AcDbEntity
  8
0
  6
Continuous
 62
     7
370
    15
100
AcDbSpline
210
0.0
220
0.0
230
1.0
 70
     8
 71
     3
 72
    19
 73
    15
 74
     0
 42
0.000000001
 43
0.00000001
 40
0.0
 40
0.0
 40
0.0
 40
0.0
 40
0.0322518670420541
 40
0.1267981326814274
 40
0.2214319228444567
 40
0.3161097108905252
 40
0.4107995680169471
 40
0.5054797862936263
 40
0.6001421720025398
 40
0.6947836094698621
 40
0.7894041357995022
 40
0.884005857290241
 40
0.9785918871585876
 40
1.0
 40
1.0
 40
1.0
 40
1.0
 10
244.4426981319593
 20
75.36917423576841
 30
0.0
 10
244.2898222703336
 20
75.33301007063613
 30
0.0
 10
243.6887912118548
 20
75.19083074803208
 30
0.0
 10
242.6131659491532
 20
74.79711931596013
 30
0.0
 10
241.2261781573459
 20
74.19096613290267
 30
0.0
 10
239.8301103608729
 20
73.44067100024543
 30
0.0
 10
238.4365307133458
 20
72.5637941121062
 30
0.0
 10
237.0539085630057
 20
71.56289740864311
 30
0.0
 10
235.6911931425981
 20
70.44569635487782
 30
0.0
 10
234.3575416851358
 20
69.21878611598162
 30
0.0
 10
233.0596632991757
 20
67.89225067921654
 30
0.0
 10
231.8126129743489
 20
66.46730786094341
 30
0.0
 10
230.9119805332346
 20
65.36410414569143
 30
0.0
 10
230.4498755978922
 20
64.71757363092853
 30
0.0
 10
230.3645885793474
 20
64.5982486556141
 30
0.0
  0
LINE
  5
212
330
1F
100
AcDbEntity
  8
0
  6
Continuous
 62
     7
370
    15
100
AcDbLine
 10
238.7017524192
 20
72.7089423663
 30
0.0
 11
207.9404693701
 21
83.7940893723
 31
0.0
  0
LINE
  5
213
330
1F
100
AcDbEntity
  8
0
  6
Continuous
 62
     7
370
    15
100
AcDbLine
 10
197.8166099897
 20
66.2571509719
 30
0.0
 11
227.2841211082
 21
41.3750285337
 31
0.0
  0
LINE
  5
214
330
1F
100
AcDbEntity
  8
0
  6
Continuous
 62
     7
370
    15
100
AcDbLine
 10
261.5858974829
 20
53.2586114065
 30
0.0
 11
261.8743834413
 21
54.4971559702
 31
0.0
  0
SPLINE
  5
215
330
1F
100
AcDbEntity
  8
0
  6
Continuous
 62
     7
370
    15
100
AcDbSpline
210
0.0
220
0.0
230
1.0
 70
     8
 71
     3
 72
    15
 73
    11
 74
     0
 42
0.000000001
 43
0.00000001
 40
0.0
 40
0.0
 40
0.0
 40
0.0
 40
0.0606605195996318
 40
0.1950367366237254
 40
0.3295283595787534
 40
0.4640760054033284
 40
0.5986355216370632
 40
0.7331793658790621
 40
0.867696945532949
 40
0.9999999999999999
 40
0.9999999999999999
 40
0.9999999999999999
 40
0.9999999999999999
 10
240.886284822154
 20
28.76759183762417
 30
0.0
 10
241.0890777184085
 20
28.81769304371982
 30
0.0
 10
241.7411008952128
 20
28.9787792955736
 30
0.0
 10
242.8686179875735
 20
29.40159437199211
 30
0.0
 10
244.2573369619537
 20
30.02646431057484
 30
0.0
 10
245.6535417803501
 20
30.79332006705208
 30
0.0
 10
247.0463846095503
 20
31.68596603388521
 30
0.0
 10
248.4263658979476
 20
32.70368783898767
 30
0.0
 10
249.7806748495077
 20
33.82332856256447
 30
0.0
 10
250.65474230884
 20
34.65726923566965
 30
0.0
 10
251.0881487995371
 20
35.07077885294354
 30
0.0
  0
LINE
  5
216
330
1F
100
AcDbEntity
  8
0
  6
Continuous
 62
     7
370
    15
100
AcDbLine
 10
231.6066870742
 20
30.3105843349
 30
0.0
 11
233.0622090605
 21
29.4703293776
 31
0.0
  0
LINE
  5
217
330
1F
100
AcDbEntity
  8
0
  6
Continuous
 62
     7
370
    15
100
AcDbLine
 10
227.8826521259
 20
32.46042395
 30
0.0
 11
229.3204968019
 21
31.6303738866
 31
0.0
  0
LINE
  5
218
330
1F
100
AcDbEntity
  8
0
  6
Continuous
 62
     7
370
    15
100
AcDbLine
 10
223.4507696649
 20
38.526004706
 30
0.0
 11
223.4951308693
 21
38.3801388805
 31
0.0
  0
LINE
  5
219
330
1F
100
AcDbEntity
  8
0
  6
Continuous
 62
     7
370
    15
100
AcDbLine
 10
261.8696867019
 20
65.5574022957
 30
0.0
 11
261.818093691
 21
65.7232573373
 31
0.0
  0
SPLINE
  5
21A
330
1F
100
AcDbEntity
  8
0
  6
Continuous
 62
     7
370
    15
100
AcDbSpline
210
0.0
220
0.0
230
1.0
 70
     8
 71
     3
 72
    26
 73
    22
 74
     0
 42
0.000000001
 43
0.00000001
 40
0.0
 40
0.0
 40
0.0
 40
0.0
 40
0.0206098635346963
 40
0.0728944510643923
 40
0.1258585040611578
 40
0.1800156137396773
 40
0.2354401611125397
 40
0.2918299514627566
 40
0.3487416667418533
 40
0.4057939356565405
 40
0.4627674603426434
 40
0.5196158025351038
 40
0.5763503990457023
 40
0.6330092550266897
 40
0.6896415235028057
 40
0.7462991724022513
 40
0.8030217144057956
 40
0.8598660589598679
 40
0.9168873020481363
 40
0.9741306256673679
 40
1.0
 40
1.0
 40
1.0
 40
1.0
 10
207.9918055486776
 20
83.75528979417619
 30
0.0
 10
207.8949334199844
 20
83.79689161699564
 30
0.0
 10
207.5523090919462
 20
83.94403194291752
 30
0.0
 10
206.9002036909036
 20
84.04687651649476
 30
0.0
 10
206.0546605114268
 20
84.06529894463033
 30
0.0
 10
205.1677523505885
 20
83.93032473100641
 30
0.0
 10
204.2534821907699
 20
83.65299615951719
 30
0.0
 10
203.3235825274139
 20
83.2317682332737
 30
0.0
 10
202.3947211377723
 20
82.67385145837746
 30
0.0
 10
201.4835372412521
 20
81.98958629817312
 30
0.0
 10
200.6052204506499
 20
81.19209495987428
 30
0.0
 10
199.7729793891426
 20
80.29538783526085
 30
0.0
 10
198.998526971171
 20
79.31394529814048
 30
0.0
 10
198.2927075160181
 20
78.26286693469422
 30
0.0
 10
197.6655808187315
 20
77.15785518212661
 30
0.0
 10
197.1263552262359
 20
76.01516273808319
 30
0.0
 10
196.6834400425753
 20
74.85140313173177
 30
0.0
 10
196.3436262668155
 20
73.68286567989745
 30
0.0
 10
196.1150848250508
 20
72.52674969226487
 30
0.0
 10
196.0181652711876
 20
71.60369118641479
 30
0.0
 10
196.0100999329632
 20
71.07659216868379
 30
0.0
 10
196.0075895433503
 20
70.91252912974906
 30
0.0
  0
SPLINE
  5
21B
330
1F
100
AcDbEntity
  8
0
  6
Continuous
 62
     7
370
    15
100
AcDbSpline
210
0.0
220
0.0
230
1.0
 70
     8
 71
     3
 72
    13
 73
     9
 74
     0
 42
0.000000001
 43
0.00000001
 40
0.0
 40
0.0
 40
0.0
 40
0.0
 40
0.1013708038922181
 40
0.2925452651573772
 40
0.4837075735181394
 40
0.673017314708729
 40
0.8585816591153959
 40
1.0
 40
1.0
 40
1.0
 40
1.0
 10
196.0075895433503
 20
70.91252912974906
 30
0.0
 10
196.0110454511089
 20
70.72176295211563
 30
0.0
 10
196.021018830157
 20
70.17123222851428
 30
0.0
 10
196.1328700400211
 20
69.30733971191314
 30
0.0
 10
196.3844911921287
 20
68.35851118910429
 30
0.0
 10
196.7663685737158
 20
67.51314982403196
 30
0.0
 10
197.2182218156212
 20
66.82309189998442
 30
0.0
 10
197.5909030631934
 20
66.48000756692429
 30
0.0
 10
197.7520857987977
 20
66.33162534564048
 30
0.0
  0
LINE
  5
21C
330
1F
100
AcDbEntity
  8
0
  6
Continuous
 62
     7
370
    15
100
AcDbLine
 10
271.4411197656
 20
46.2640534416
 30
0.0
 11
271.2643140654
 21
46.3661539946
 31
0.0
  0
LINE
  5
21D
330
1F
100
AcDbEntity
  8
0
  6
Continuous
 62
     7
370
    15
100
AcDbLine
 10
267.374596014
 20
46.3661532976
 30
0.0
 11
267.1977902339
 21
46.2640530787
 31
0.0
  0
LINE
  5
21E
330
1F
100
AcDbEntity
  8
0
  6
Continuous
 62
     7
370
    15
100
AcDbLine
 10
272.3194553141
 20
44.5293015257
 30
0.0
 11
272.3194553141
 21
45.0396398068
 31
0.0
  0
LINE
  5
21F
330
1F
100
AcDbEntity
  8
0
  6
Continuous
 62
     7
370
    15
100
AcDbLine
 10
266.3194559726
 20
45.0396396168
 30
0.0
 11
266.3194559726
 21
44.5293013356
 31
0.0
  0
LWPOLYLINE
  5
220
330
1F
100
AcDbEntity
  8
0
  6
Continuous
 62
     7
370
    15
100
AcDbPolyline
 90
       49
 70
   128
 43
0.0
 10
266.4733507448
 20
29.9041138305
 10
266.535659592
 20
31.0378575834
 10
266.7215199499
 20
32.224142862
 10
267.0277517072
 20
33.4426720695
 10
267.4491148252
 20
34.6725957061
 10
267.9783995586
 20
35.8928692083
 10
268.6065505912
 20
37.0826139664
 10
269.3228194887
 20
38.2214728272
 10
270.114950738
 20
39.2899589382
 10
270.9693908344
 20
40.2697912828
 10
271.8715199253
 20
41.1442044521
 10
272.8059023859
 20
41.8982366463
 10
273.7565507312
 20
42.5189862115
 10
274.7071990765
 20
42.9958318629
 10
275.6415815371
 20
43.3206146944
 10
276.5437106279
 20
43.4877776029
 10
277.3981507243
 20
43.4944607949
 10
278.1902819736
 20
43.340549957
 10
278.9065508711
 20
43.0286775625
 10
279.5347019037
 20
42.5641805493
 10
280.0639866371
 20
41.9550061927
 10
280.4853497551
 20
41.2115780567
 10
280.7915815124
 20
40.3466165104
 10
280.9774418704
 20
39.3749210333
 10
281.0397507175
 20
38.3131175441
 10
280.9774418704
 20
37.1793737911
 10
280.7915815124
 20
35.9930885125
 10
280.4853497551
 20
34.7745593051
 10
280.0639866371
 20
33.5446356684
 10
279.5347019037
 20
32.3243621663
 10
278.9065508711
 20
31.1346174081
 10
278.1902819736
 20
29.9957585474
 10
277.3981507243
 20
28.9272724364
 10
276.5437106279
 20
27.9474400917
 10
275.6415815371
 20
27.0730269224
 10
274.7071990765
 20
26.3189947282
 10
273.7565507312
 20
25.698245163
 10
272.8059023859
 20
25.2213995117
 10
271.8715199253
 20
24.8966166801
 10
270.9693908344
 20
24.7294537717
 10
270.114950738
 20
24.7227705796
 10
269.3228194887
 20
24.8766814175
 10
268.6065505912
 20
25.188553812
 10
267.9783995586
 20
25.6530508253
 10
267.4491148252
 20
26.2622251819
 10
267.0277517072
 20
27.0056533178
 10
266.7215199499
 20
27.8706148642
 10
266.535659592
 20
28.8423103412
 10
266.4733507448
 20
29.9041138305
  0
LWPOLYLINE
  5
221
330
1F
100
AcDbEntity
  8
0
  6
Continuous
 62
     7
370
    15
100
AcDbPolyline
 90
       25
 70
   128
 43
0.0
 10
266.1905085128
 20
29.9041138305
 10
266.2540271062
 20
31.05987192
 10
266.4434962881
 20
32.2691918513
 10
266.7556740437
 20
33.5113815432
 10
267.1852189187
 20
34.7651871295
 10
267.7247815562
 20
36.0091556909
 10
268.3651294916
 20
37.2220021672
 10
269.0953065199
 20
38.3829745542
 10
269.902819064
 20
39.472208642
 10
270.7738502015
 20
40.4710667818
 10
271.693496247
 20
41.3624584932
 10
272.6460221027
 20
42.1311319831
 10
273.6151296152
 20
42.763934769
 10
274.5842371277
 20
43.2500397004
 10
275.5367629834
 20
43.5811291544
 10
276.4564090289
 20
43.751538166
 10
277.3274401663
 20
43.7583511713
 10
278.1349527104
 20
43.6014512215
 10
278.8651297387
 20
43.2835232868
 10
279.5054776741
 20
42.8100067996
 10
280.0450403116
 20
42.1890039993
 10
280.4745851866
 20
41.4311403692
 10
280.7867629422
 20
40.549383442
 10
280.9762321241
 20
39.5588199716
 10
281.0397507175
 20
38.4763988891
  0
LWPOLYLINE
  5
222
330
1F
100
AcDbEntity
  8
0
  6
Continuous
 62
     7
370
    15
100
AcDbPolyline
 90
       14
 70
   128
 43
0.0
 10
273.6163363249
 20
25.6172745693
 10
273.6151296152
 20
25.6165779506
 10
272.6460221027
 20
25.1304730191
 10
271.693496247
 20
24.7993835652
 10
270.7738502015
 20
24.6289745535
 10
269.902819064
 20
24.6221615483
 10
269.0953065199
 20
24.779061498
 10
268.3651294916
 20
25.0969894328
 10
267.7247815562
 20
25.5705059199
 10
267.1852189187
 20
26.1915087203
 10
266.7556740437
 20
26.9493723503
 10
266.4434962881
 20
27.8311292776
 10
266.2540271062
 20
28.8216927479
 10
266.1905085128
 20
29.9041138305
  0
SPLINE
  5
223
330
1F
100
AcDbEntity
  8
0
  6
Continuous
 62
     7
370
    15
100
AcDbSpline
210
0.0
220
0.0
230
1.0
 70
     8
 71
     3
 72
    54
 73
    50
 74
     0
 42
0.000000001
 43
0.00000001
 40
0.0
 40
0.0
 40
0.0
 40
0.0
 40
0.0312500000000008
 40
0.0312500000000008
 40
0.0625000000000017
 40
0.0625000000000017
 40
0.1250000000000034
 40
0.1250000000000034
 40
0.1875000000000051
 40
0.1875000000000051
 40
0.2187500000000059
 40
0.2187500000000059
 40
0.2500000000000068
 40
0.2500000000000068
 40
0.3125000000000084
 40
0.3125000000000084
 40
0.3750000000000101
 40
0.3750000000000101
 40
0.40625000000001
 40
0.40625000000001
 40
0.43750000000001
 40
0.43750000000001
 40
0.5000000000000099
 40
0.5000000000000099
 40
0.5312500000000098
 40
0.5312500000000098
 40
0.5625000000000098
 40
0.5625000000000098
 40
0.6250000000000097
 40
0.6250000000000097
 40
0.6562500000000087
 40
0.6562500000000087
 40
0.6875000000000078
 40
0.6875000000000078
 40
0.7500000000000061
 40
0.7500000000000061
 40
0.7812500000000051
 40
0.7812500000000051
 40
0.8125000000000042
 40
0.8125000000000042
 40
0.8750000000000034
 40
0.8750000000000034
 40
0.9062500000000026
 40
0.9062500000000026
 40
0.9375000000000018
 40
0.9375000000000018
 40
0.9687500000000009
 40
0.9687500000000009
 40
1.0
 40
1.0
 40
1.0
 40
1.0
 10
272.0594940474888
 20
43.66198418226784
 30
0.0
 10
271.9760098605935
 20
43.61378978701973
 30
0.0
 10
271.8872778219338
 20
43.56695444023236
 30
0.0
 10
271.699113511255
 20
43.47610346446847
 30
0.0
 10
271.5996223327207
 20
43.43213684499238
 30
0.0
 10
271.293915276954
 20
43.30839599340599
 30
0.0
 10
271.0772412227574
 20
43.23510812174025
 30
0.0
 10
270.6227896680613
 20
43.10890769510611
 30
0.0
 10
270.391842589435
 20
43.05782981843016
 30
0.0
 10
270.0401658378472
 20
42.99911700152891
 30
0.0
 10
269.921486822196
 20
42.98250705146491
 30
0.0
 10
269.6856906921555
 20
42.95598325942368
 30
0.0
 10
269.568576483529
 20
42.946029018655
 30
0.0
 10
269.2193379143307
 20
42.92605952917504
 30
0.0
 10
268.9884125502987
 20
42.92590440281207
 30
0.0
 10
268.535231039068
 20
42.95378856545636
 30
0.0
 10
268.3170061140794
 20
42.98148481719557
 30
0.0
 10
268.0011515168599
 20
43.04411910488598
 30
0.0
 10
267.8977964896038
 20
43.06853067735727
 30
0.0
 10
267.6949425849777
 20
43.12470828471721
 30
0.0
 10
267.5951543068859
 20
43.15661330690075
 30
0.0
 10
267.3067025024801
 20
43.26198792050079
 30
0.0
 10
267.1272955456233
 20
43.3454042435176
 30
0.0
 10
266.8770390267546
 20
43.49021316004755
 30
0.0
 10
266.7967817398904
 20
43.54177422656548
 30
0.0
 10
266.6427425182015
 20
43.65159903241679
 30
0.0
 10
266.5688277769525
 20
43.71003696097011
 30
0.0
 10
266.361014666587
 20
43.89210718963265
 30
0.0
 10
266.2394953858764
 20
44.02337266639753
 30
0.0
 10
266.0827327933282
 20
44.23395108148016
 30
0.0
 10
266.0347571945127
 20
44.30643202468409
 30
0.0
 10
265.9477072786079
 20
44.45588109618647
 30
0.0
 10
265.9085883264282
 20
44.5330737733655
 30
0.0
 10
265.8072957471116
 20
44.7665394387389
 30
0.0
 10
265.7601039567119
 20
44.92603840983789
 30
0.0
 10
265.7211870174712
 20
45.16929011074365
 30
0.0
 10
265.7135642171312
 20
45.25104499454593
 30
0.0
 10
265.7098024261547
 20
45.41563069905283
 30
0.0
 10
265.7137588618842
 20
45.49869694488626
 30
0.0
 10
265.7436710450142
 20
45.74336283527904
 30
0.0
 10
265.7872446204185
 20
45.90223811671721
 30
0.0
 10
265.8921125248501
 20
46.1314267956459
 30
0.0
 10
265.9340464191155
 20
46.20666241219585
 30
0.0
 10
266.0297867695512
 20
46.34957403934045
 30
0.0
 10
266.0837137507567
 20
46.41768772668878
 30
0.0
 10
266.2038472661552
 20
46.54692988281325
 30
0.0
 10
266.270052020361
 20
46.60805955906294
 30
0.0
 10
266.4153270190355
 20
46.72286656940273
 30
0.0
 10
266.4951169910112
 20
46.77690054877857
 30
0.0
 10
266.5794164932931
 20
46.82556561558085
 30
0.0
  0
SPLINE
  5
224
330
1F
100
AcDbEntity
  8
0
  6
Continuous
 62
     7
370
    15
100
AcDbSpline
210
0.0
220
0.0
230
1.0
 70
     8
 71
     3
 72
    42
 73
    38
 74
     0
 42
0.000000001
 43
0.00000001
 40
0.0
 40
0.0
 40
0.0
 40
0.0
 40
0.0624999999999986
 40
0.0624999999999986
 40
0.0937499999999979
 40
0.0937499999999979
 40
0.1249999999999972
 40
0.1249999999999972
 40
0.1874999999999958
 40
0.1874999999999958
 40
0.2499999999999944
 40
0.2499999999999944
 40
0.3124999999999931
 40
0.3124999999999931
 40
0.3749999999999917
 40
0.3749999999999917
 40
0.4999999999999908
 40
0.4999999999999908
 40
0.5624999999999912
 40
0.5624999999999912
 40
0.6249999999999918
 40
0.6249999999999918
 40
0.6874999999999922
 40
0.6874999999999922
 40
0.7499999999999927
 40
0.7499999999999927
 40
0.8124999999999932
 40
0.8124999999999932
 40
0.8437499999999941
 40
0.8437499999999941
 40
0.8749999999999949
 40
0.8749999999999949
 40
0.9374999999999974
 40
0.9374999999999974
 40
0.9687499999999987
 40
0.9687499999999987
 40
1.0
 40
1.0
 40
1.0
 40
1.0
 10
266.5794164932931
 20
46.82556561558085
 30
0.0
 10
266.7482026501453
 20
46.92300378990176
 30
0.0
 10
266.9354111425482
 20
47.00006344136677
 30
0.0
 10
267.2430780771941
 20
47.08654212285911
 30
0.0
 10
267.3500270660303
 20
47.1103524712275
 30
0.0
 10
267.567002020707
 20
47.14748363530714
 30
0.0
 10
267.6777288466246
 20
47.16101943684621
 30
0.0
 10
268.0163438382501
 20
47.18773002780143
 30
0.0
 10
268.2521169214573
 20
47.18670555168751
 30
0.0
 10
268.7210451800499
 20
47.15357512011822
 30
0.0
 10
268.9571334701959
 20
47.12166522353328
 30
0.0
 10
269.4286382774178
 20
47.03274644040316
 30
0.0
 10
269.6583935996221
 20
46.97688420688504
 30
0.0
 10
270.1059341877496
 20
46.84812283881207
 30
0.0
 10
270.3240456693565
 20
46.77511089900847
 30
0.0
 10
270.9619902718974
 20
46.53383929677839
 30
0.0
 10
271.3447513126157
 20
46.35235261598699
 30
0.0
 10
271.8503646340366
 20
46.05970847219245
 30
0.0
 10
272.0030687348931
 20
45.96098996492385
 30
0.0
 10
272.2778664547979
 20
45.76068683528812
 30
0.0
 10
272.4002133693657
 20
45.65887205273027
 30
0.0
 10
272.6112571615428
 20
45.45139086567314
 30
0.0
 10
272.6974498316453
 20
45.34825907530215
 30
0.0
 10
272.8313146662279
 20
45.14051154197634
 30
0.0
 10
272.8791017024103
 20
45.03565160212305
 30
0.0
 10
272.9312288525019
 20
44.82193203898202
 30
0.0
 10
272.9348977557389
 20
44.71616499628511
 30
0.0
 10
272.9053766001928
 20
44.55659128421358
 30
0.0
 10
272.8896548464663
 20
44.5032482182835
 30
0.0
 10
272.8455750843928
 20
44.39582011577327
 30
0.0
 10
272.8170080455928
 20
44.34141831772124
 30
0.0
 10
272.711711156456
 20
44.17867029906624
 30
0.0
 10
272.6169446827927
 20
44.07231222767806
 30
0.0
 10
272.4351711017078
 20
43.91451790887416
 30
0.0
 10
272.3673585901528
 20
43.86187238860087
 30
0.0
 10
272.2213881261258
 20
43.7598420906729
 30
0.0
 10
272.1430709054925
 20
43.71023207540806
 30
0.0
 10
272.0594940474888
 20
43.66198418226784
 30
0.0
  0
ARC
  5
225
330
1F
100
AcDbEntity
  8
0
  6
Continuous
 62
     7
370
    15
100
AcDbCircle
 10
269.1537774768
 20
27.5389260935
 30
0.0
 40
1.018671274853483
100
AcDbArc
 50
187.5912173594
 51
255.9544478585
  0
LWPOLYLINE
  5
226
330
1F
100
AcDbEntity
  8
0
  6
Continuous
 62
     7
370
    15
100
AcDbPolyline
 90
       13
 70
   128
 43
0.0
 10
278.6065486156
 20
32.1503983135
 10
277.963030447
 20
31.0223779679
 10
277.2319222367
 20
29.9586213432
 10
276.4284478876
 20
28.9812787247
 10
275.5693375582
 20
28.1107003355
 10
274.6724801984
 20
27.3650144552
 10
273.7565507312
 20
26.7597486967
 10
272.8406212639
 20
26.307504802
 10
271.9437639041
 20
26.0177012157
 10
271.0846535747
 20
25.8963719319
 10
270.2811792256
 20
25.9460428131
 10
269.5500710154
 20
26.1656798658
 10
268.9065528467
 20
26.5507099489
  0
ARC
  5
227
330
1F
100
AcDbEntity
  8
0
  6
Continuous
 62
     7
370
    15
100
AcDbCircle
 10
275.2146258132
 20
34.6766244642
 30
0.0
 40
4.229297679490521
100
AcDbArc
 50
323.3221060787
 51
349.2040798282
  0
LWPOLYLINE
  5
228
330
1F
100
AcDbEntity
  8
0
  6
Continuous
 62
     7
370
    15
100
AcDbPolyline
 90
        9
 70
   128
 43
0.0
 10
279.3690674233
 20
40.8128762888
 10
279.6940828455
 20
40.1810942866
 10
279.9297930471
 20
39.4579770936
 10
280.0726517658
 20
38.6544007076
 10
280.1205114879
 20
37.7824520323
 10
280.0726517658
 20
36.855245698
 10
279.9297930471
 20
35.8867281464
 10
279.6940828455
 20
34.8914657475
 10
279.3690674233
 20
33.8844289262
  0
ARC
  5
229
330
1F
100
AcDbEntity
  8
0
  6
Continuous
 62
     7
370
    15
100
AcDbCircle
 10
278.3593239855
 20
40.6783052811
 30
0.0
 40
1.018671274853521
100
AcDbArc
 50
7.5912173594
 51
75.9544478585
  0
LWPOLYLINE
  5
22A
330
1F
100
AcDbEntity
  8
0
  6
Continuous
 62
     7
370
    15
100
AcDbPolyline
 90
       13
 70
   128
 43
0.0
 10
268.9065528467
 20
36.066833061
 10
269.5500710154
 20
37.1948534066
 10
270.2811792256
 20
38.2586100313
 10
271.0846535747
 20
39.2359526499
 10
271.9437639041
 20
40.1065310391
 10
272.8406212639
 20
40.8522169194
 10
273.7565507312
 20
41.4574826779
 10
274.6724801984
 20
41.9097265725
 10
275.5693375582
 20
42.1995301588
 10
276.4284478876
 20
42.3208594426
 10
277.2319222367
 20
42.2711885615
 10
277.963030447
 20
42.0515515088
 10
278.6065486156
 20
41.6665214257
  0
ARC
  5
22B
330
1F
100
AcDbEntity
  8
0
  6
Continuous
 62
     7
370
    15
100
AcDbCircle
 10
272.2984756491
 20
33.5406069104
 30
0.0
 40
4.22929767949001
100
AcDbArc
 50
143.3221060787
 51
169.2040798282
  0
LWPOLYLINE
  5
22C
330
1F
100
AcDbEntity
  8
0
  6
Continuous
 62
     7
370
    15
100
AcDbPolyline
 90
        9
 70
   128
 43
0.0
 10
268.1440340391
 20
27.4043550857
 10
267.8190186168
 20
28.036137088
 10
267.5833084152
 20
28.7592542809
 10
267.4404496966
 20
29.5628306669
 10
267.3925899744
 20
30.4347793422
 10
267.4404496966
 20
31.3619856765
 10
267.5833084152
 20
32.3305032282
 10
267.8190186168
 20
33.3257656271
 10
268.1440340391
 20
34.3328024484
  0
SPLINE
  5
22D
330
1F
100
AcDbEntity
  8
0
  6
Continuous
 62
     7
370
    15
100
AcDbSpline
210
0.0
220
0.0
230
1.0
 70
     8
 71
     3
 72
    12
 73
     8
 74
     0
 42
0.000000001
 43
0.00000001
 40
0.0
 40
0.0
 40
0.0
 40
0.0
 40
0.5000000000000003
 40
0.5000000000000003
 40
0.7500000000000001
 40
0.7500000000000001
 40
1.0
 40
1.0
 40
1.0
 40
1.0
 10
277.5283617926362
 20
41.62746226737186
 30
0.0
 10
277.7277120860238
 20
41.67730083209603
 30
0.0
 10
277.9188191790934
 20
41.70662174477189
 30
0.0
 10
278.1931765762304
 20
41.71730869468189
 30
0.0
 10
278.2820473473369
 20
41.71514399231337
 30
0.0
 10
278.4503794242207
 20
41.69939771432233
 30
0.0
 10
278.5304959190981
 20
41.6858559622322
 30
0.0
 10
278.6065480661865
 20
41.66652144129151
 30
0.0
  0
LWPOLYLINE
  5
22E
330
1F
100
AcDbEntity
  8
0
  6
Continuous
 62
     7
370
    15
100
AcDbPolyline
 90
       11
 70
   128
 43
0.0
 10
269.5958299805
 20
37.0481094425
 10
270.2827722448
 20
38.0566271452
 10
271.0395110072
 20
38.9835056491
 10
271.849939751
 20
39.8090178718
 10
272.6968094667
 20
40.5155931783
 10
273.5620957088
 20
41.0881935376
 10
274.427381951
 20
41.5146314083
 10
275.2742516667
 20
41.7858310631
 10
276.0846804104
 20
41.8960199509
 10
276.8414191729
 20
41.8428534247
 10
277.5283614372
 20
41.6274623782
  0
SPLINE
  5
22F
330
1F
100
AcDbEntity
  8
0
  6
Continuous
 62
     7
370
    15
100
AcDbSpline
210
0.0
220
0.0
230
1.0
 70
     8
 71
     3
 72
    12
 73
     8
 74
     0
 42
0.000000001
 43
0.00000001
 40
0.0
 40
0.0
 40
0.0
 40
0.0
 40
0.5000000000000006
 40
0.5000000000000006
 40
0.7500000000000002
 40
0.7500000000000002
 40
1.0
 40
1.0
 40
1.0
 40
1.0
 10
268.9065525784866
 20
36.06683323895719
 30
0.0
 10
269.0199392564979
 20
36.26003281670255
 30
0.0
 10
269.1350478202465
 20
36.43842643402132
 30
0.0
 10
269.3092571526523
 20
36.68561079577119
 30
0.0
 10
269.3678909866797
 20
36.76492928103222
 30
0.0
 10
269.4831494668517
 20
36.91354266824229
 30
0.0
 10
269.5399519712959
 20
36.98312985215679
 30
0.0
 10
269.5958301223844
 20
37.04810920840608
 30
0.0
  0
LINE
  5
230
330
1F
100
AcDbEntity
  8
0
  6
Continuous
 62
     7
370
    15
100
AcDbLine
 10
268.5769941258
 20
27.5663125154
 30
0.0
 11
269.5557516203
 21
28.1313371901
 31
0.0
  0
LINE
  5
231
330
1F
100
AcDbEntity
  8
0
  6
Continuous
 62
     7
370
    15
100
AcDbLine
 10
268.1500320625
 20
27.3778771743
 30
0.0
 11
268.5769941258
 21
27.5663125154
 31
0.0
  0
ARC
  5
232
330
1F
100
AcDbEntity
  8
0
  6
Continuous
 62
     7
370
    15
100
AcDbCircle
 10
275.4903124971
 20
41.1044761403
 30
0.0
 40
2.561682743198247
100
AcDbArc
 50
341.3542182125
 51
13.7253530251
  0
ARC
  5
233
330
1F
100
AcDbEntity
  8
0
  6
Continuous
 62
     7
370
    15
100
AcDbCircle
 10
270.5538234634
 20
38.0822889858
 30
0.0
 40
7.686241795227018
100
AcDbArc
 50
343.3431694729
 51
16.6568305271
  0
ARC
  5
234
330
1F
100
AcDbEntity
  8
0
  6
Continuous
 62
     7
370
    15
100
AcDbCircle
 10
274.3862870983
 20
35.096287669
 30
0.0
 40
3.61698356792685
100
AcDbArc
 50
300.3475732975
 51
12.4994794039
  0
LINE
  5
235
330
1F
100
AcDbEntity
  8
0
  6
Continuous
 62
     7
370
    15
100
AcDbLine
 10
275.2349900663
 20
31.409891759
 30
0.0
 11
276.2137475607
 21
31.9749164336
 31
0.0
  0
LWPOLYLINE
  5
236
330
1F
100
AcDbEntity
  8
0
  6
Continuous
 62
     7
370
    15
100
AcDbPolyline
 90
        9
 70
   128
 43
0.0
 10
275.2349900663
 20
31.409891759
 10
274.5769062102
 20
30.6166772144
 10
273.87470761
 20
29.909965946
 10
273.1425943785
 20
29.3040490936
 10
272.3953708433
 20
28.8111791295
 10
271.6481473081
 20
28.4413231635
 10
270.9160340766
 20
28.2019600711
 10
270.2138354764
 20
28.0979300928
 10
269.5557516203
 20
28.1313371901
  0
LINE
  5
237
330
1F
100
AcDbEntity
  8
0
  6
Continuous
 62
     7
370
    15
100
AcDbLine
 10
267.9486060172
 20
32.3273454179
 30
0.0
 11
267.9864522408
 21
33.0177159825
 31
0.0
  0
ARC
  5
238
330
1F
100
AcDbEntity
  8
0
  6
Continuous
 62
     7
370
    15
100
AcDbCircle
 10
277.3838282382
 20
31.8306106262
 30
0.0
 40
9.47609639411147
100
AcDbArc
 50
153.0857383512
 51
171.1760023584
  0
LWPOLYLINE
  5
239
330
1F
100
AcDbEntity
  8
0
  6
Continuous
 62
     7
370
    15
100
AcDbPolyline
 90
       28
 70
   128
 43
0.0
 10
274.2045643222
 20
40.629579416
 10
274.3973209582
 20
40.6352476903
 10
275.0395646786
 20
40.5493616798
 10
275.6057397583
 20
40.3007930833
 10
276.0795582513
 20
39.8966922557
 10
276.4473896033
 20
39.3486851018
 10
276.6986516627
 20
38.6725365351
 10
276.8261162449
 20
37.8876980209
 10
276.8261162449
 20
37.0167479515
 10
276.6986516627
 20
36.0847419632
 10
276.4473896033
 20
35.1184923977
 10
276.0795582513
 20
34.1457962046
 10
275.6057397583
 20
33.1946361895
 10
275.0395646786
 20
32.2923757602
 10
274.3973209582
 20
31.4649709337
 10
273.6974848041
 20
30.7362247937
 10
272.9601891978
 20
30.1271017695
 10
272.2066447878
 20
29.6551256411
 10
271.4585297068
 20
29.3338744355
 10
270.7373658479
 20
29.1725891796
 10
270.0638997092
 20
29.1759103862
 10
269.4575056701
 20
29.3437423201
 10
268.9356289038
 20
29.6712572569
 10
268.5132822496
 20
30.1490320327
 10
268.2026165121
 20
30.7633229926
 10
268.0125687989
 20
31.4964579463
 10
267.9486060172
 20
32.3273454179
 10
267.9486060172
 20
32.3273454179
  0
ARC
  5
23A
330
1F
100
AcDbEntity
  8
0
  6
Continuous
 62
     7
370
    15
100
AcDbCircle
 10
278.5339537172
 20
39.5542964965
 30
0.0
 40
2.304177208158966
100
AcDbArc
 50
115.8757753281
 51
120.0399960545
  0
LINE
  5
23B
330
1F
100
AcDbEntity
  8
0
  6
Continuous
 62
     7
370
    15
100
AcDbLine
 10
276.4017149318
 20
40.9839431026
 30
0.0
 11
277.3804724263
 21
41.5489677773
 31
0.0
  0
LWPOLYLINE
  5
23C
330
1F
100
AcDbEntity
  8
0
  6
Continuous
 62
     7
370
    15
100
AcDbPolyline
 90
        9
 70
   128
 43
0.0
 10
270.7224764858
 20
37.7053885337
 10
271.3805603419
 20
38.4986030783
 10
272.0827589422
 20
39.2053143467
 10
272.8148721736
 20
39.8112311991
 10
273.5620957088
 20
40.3041011632
 10
274.309319244
 20
40.6739571292
 10
275.0414324755
 20
40.9133202215
 10
275.7436310757
 20
41.0173501999
 10
276.4017149318
 20
40.9839431026
  0
LINE
  5
23D
330
1F
100
AcDbEntity
  8
0
  6
Continuous
 62
     7
370
    15
100
AcDbLine
 10
269.7437189914
 20
37.1403638591
 30
0.0
 11
270.7224764858
 21
37.7053885337
 31
0.0
  0
ARC
  5
23E
330
1F
100
AcDbEntity
  8
0
  6
Continuous
 62
     7
370
    15
100
AcDbCircle
 10
271.044964089
 20
34.8897304833
 30
0.0
 40
2.599728715873211
100
AcDbArc
 50
120.0351441237
 51
123.8773835464
  0
SPLINE
  5
23F
330
1F
100
AcDbEntity
  8
0
  6
Continuous
 62
     7
370
    15
100
AcDbSpline
210
0.0
220
0.0
230
1.0
 70
     8
 71
     3
 72
    12
 73
     8
 74
     0
 42
0.000000001
 43
0.00000001
 40
0.0
 40
0.0
 40
0.0
 40
0.0
 40
0.5
 40
0.5
 40
0.75
 40
0.75
 40
1.0
 40
1.0
 40
1.0
 40
1.0
 10
268.1440339213615
 20
27.40435540470814
 30
0.0
 10
268.0887049512409
 20
27.57740773405927
 30
0.0
 10
268.0485698995562
 20
27.766430174339
 30
0.0
 10
268.0088769301593
 20
28.0725721309407
 30
0.0
 10
267.9990972544566
 20
28.17903170581278
 30
0.0
 10
267.9867233957303
 20
28.39544268914468
 30
0.0
 10
267.9840514322389
 20
28.50566881232514
 30
0.0
 10
267.9847430271546
 20
28.61790514381222
 30
0.0
  0
ARC
  5
240
330
1F
100
AcDbEntity
  8
0
  6
Continuous
 62
     7
370
    15
100
AcDbCircle
 10
275.4220549507
 20
31.0011348007
 30
0.0
 40
7.809827001796517
100
AcDbArc
 50
162.2323418517
 51
197.7676581483
  0
SPLINE
  5
241
330
1F
100
AcDbEntity
  8
0
  6
Continuous
 62
     7
370
    15
100
AcDbSpline
210
0.0
220
0.0
230
1.0
 70
     8
 71
     3
 72
    12
 73
     8
 74
     0
 42
0.000000001
 43
0.00000001
 40
0.0
 40
0.0
 40
0.0
 40
0.0
 40
0.2500000000000001
 40
0.2500000000000001
 40
0.5000000000000001
 40
0.5000000000000001
 40
1.0
 40
1.0
 40
1.0
 40
1.0
 10
267.9847430271546
 20
33.38436430818219
 30
0.0
 10
267.9840568050014
 20
33.44441357666254
 30
0.0
 10
267.9866810494509
 20
33.50960811288799
 30
0.0
 10
267.9989023933729
 20
33.65039394605876
 30
0.0
 10
268.0085719443232
 20
33.72642187877342
 30
0.0
 10
268.0485688054391
 20
33.9680329604253
 30
0.0
 10
268.0889974505875
 20
34.14333616837234
 30
0.0
 10
268.1440339213615
 20
34.33280293752932
 30
0.0
  0
ARC
  5
242
330
1F
100
AcDbEntity
  8
0
  6
Continuous
 62
     7
370
    15
100
AcDbCircle
 10
271.5850114646
 20
27.7935126462
 30
0.0
 40
3.693448041100499
100
AcDbArc
 50
163.7052385196
 51
167.102708996
  0
ARC
  5
243
330
1F
100
AcDbEntity
  8
0
  6
Continuous
 62
     7
370
    15
100
AcDbCircle
 10
275.4036430888
 20
31.0329913068
 30
0.0
 40
7.686241795228161
100
AcDbArc
 50
163.3431694729
 51
196.6568305271
  0
ARC
  5
244
330
1F
100
AcDbEntity
  8
0
  6
Continuous
 62
     7
370
    15
100
AcDbCircle
 10
269.3146052674
 20
33.795178547
 30
0.0
 40
1.391870237616439
100
AcDbArc
 50
197.1666861273
 51
203.6799159605
  0
LWPOLYLINE
  5
245
330
1F
100
AcDbEntity
  8
0
  6
Continuous
 62
     7
370
    15
100
AcDbPolyline
 90
       24
 70
   128
 43
0.0
 10
274.0768858776
 20
40.5721672278
 10
274.1631370982
 20
40.5659931114
 10
274.7689336728
 20
40.4258807713
 10
275.2918678969
 20
40.1238991324
 10
275.7160512318
 20
39.6692234346
 10
276.0285948089
 20
39.0756689809
 10
276.2200020872
 20
38.3612705646
 10
276.2844574602
 20
37.5477349088
 10
276.2200020872
 20
36.6597806634
 10
276.0285948089
 20
35.7243881075
 10
275.7160512318
 20
34.7699785207
 10
275.2918678969
 20
33.8255511692
 10
274.7689336728
 20
32.9198025267
 10
274.1631370982
 20
32.0802523495
 10
273.4928853152
 20
31.3324104442
 10
272.7785435659
 20
30.6989996698
 10
272.0418167362
 20
30.1992656382
 10
271.3050899066
 20
29.8483929779
 10
270.5907481572
 20
29.657042324
 10
269.9204963742
 20
29.6310279927
 10
269.3146997996
 20
29.7711403328
 10
268.7917655755
 20
30.0731219717
 10
268.3675822407
 20
30.5277976695
 10
268.1646072988
 20
30.8710849115
  0
SPLINE
  5
246
330
1F
100
AcDbEntity
  8
0
  6
Continuous
 62
     7
370
    15
100
AcDbSpline
210
0.0
220
0.0
230
1.0
 70
     8
 71
     3
 72
    12
 73
     8
 74
     0
 42
0.000000001
 43
0.00000001
 40
0.0
 40
0.0
 40
0.0
 40
0.0
 40
0.2499999999999992
 40
0.2499999999999992
 40
0.4999999999999984
 40
0.4999999999999984
 40
1.0
 40
1.0
 40
1.0
 40
1.0
 10
228.7211812909438
 20
46.66695574541367
 30
0.0
 10
228.7551127832333
 20
46.64736751186219
 30
0.0
 10
228.7935444922606
 20
46.62018032292578
 30
0.0
 10
228.8677213449255
 20
46.56095639538994
 30
0.0
 10
228.902937625181
 20
46.52952371637318
 30
0.0
 10
228.9980365424389
 20
46.4375309995712
 30
0.0
 10
229.0465656992008
 20
46.38067433404656
 30
0.0
 10
229.0799072953559
 20
46.33244552804422
 30
0.0
  0
ARC
  5
247
330
1F
100
AcDbEntity
  8
0
  6
Continuous
 62
     7
370
    15
100
AcDbCircle
 10
252.7964740513
 20
61.9374746504
 30
0.0
 40
10.86942928536228
100
AcDbArc
 50
73.9805689162
 51
106.2233053919
  0
SPLINE
  5
248
330
1F
100
AcDbEntity
  8
0
  6
Continuous
 62
     7
370
    15
100
AcDbSpline
210
0.0
220
0.0
230
1.0
 70
     8
 71
     3
 72
    12
 73
     8
 74
     0
 42
0.000000001
 43
0.00000001
 40
0.0
 40
0.0
 40
0.0
 40
0.0
 40
0.5
 40
0.5
 40
0.75
 40
0.75
 40
1.0
 40
1.0
 40
1.0
 40
1.0
 10
256.0081701145543
 20
71.95126146625552
 30
0.0
 10
256.0081701145543
 20
72.02394446344833
 30
0.0
 10
255.991153346484
 20
72.10752731018863
 30
0.0
 10
255.9367425206026
 20
72.2289714880643
 30
0.0
 10
255.9135973016807
 20
72.26868636574565
 30
0.0
 10
255.8593164898235
 20
72.33741613761146
 30
0.0
 10
255.828080521266
 20
72.36632573351712
 30
0.0
 10
255.7960380801983
 20
72.38482344101071
 30
0.0
  0
LWPOLYLINE
  5
249
330
1F
100
AcDbEntity
  8
0
  6
Continuous
 62
     7
370
    15
100
AcDbPolyline
 90
       17
 70
   128
 43
0.0
 10
229.1600832623
 20
46.6964122279
 10
229.5340338099
 20
48.1884178791
 10
230.1042595969
 20
50.0608597547
 10
230.7864300476
 20
51.9361185272
 10
231.5755665657
 20
53.8005162177
 10
232.4659174234
 20
55.6404593313
 10
233.4509880548
 20
57.4425285889
 10
234.5235957149
 20
59.1935834852
 10
235.6759175535
 20
60.8808531605
 10
236.8995505427
 20
62.4920341135
 10
238.1855714044
 20
64.0153757485
 10
239.5246018063
 20
65.4397697234
 10
240.9068768504
 20
66.7548290314
 10
242.3223165252
 20
67.9509627097
 10
243.7605981455
 20
69.0194480768
 10
245.2112332787
 20
69.9524933924
 10
245.6530927508
 20
70.2082456852
  0
LWPOLYLINE
  5
24A
330
1F
100
AcDbEntity
  8
0
  6
Continuous
 62
     7
370
    15
100
AcDbPolyline
 90
       12
 70
   128
 43
0.0
 10
238.7321422726
 20
67.5089502685
 10
240.1824992943
 20
68.7815535791
 10
241.6601312539
 20
69.9227026163
 10
243.1538570122
 20
70.9237616382
 10
244.6523735173
 20
71.7771560929
 10
246.1443412499
 20
72.47642955
 10
247.6184704112
 20
73.0162873717
 10
249.0636058335
 20
73.3926472517
 10
250.4688123852
 20
73.6026596209
 10
251.8234568774
 20
73.644735159
 10
253.1172880769
 20
73.5185575248
 10
254.3405160613
 20
73.2250789759
  0
LINE
  5
24B
330
1F
100
AcDbEntity
  8
0
  6
Continuous
 62
     7
370
    15
100
AcDbLine
 10
255.7960380475
 20
72.3848240186
 30
0.0
 11
254.3405160613
 21
73.2250789759
 31
0.0
  0
LINE
  5
24C
330
1F
100
AcDbEntity
  8
0
  6
Continuous
 62
     7
370
    15
100
AcDbLine
 10
227.2656591422
 20
47.5072108879
 30
0.0
 11
228.7211811285
 21
46.6669559305
 31
0.0
  0
ARC
  5
24D
330
1F
100
AcDbEntity
  8
0
  6
Continuous
 62
     7
370
    15
100
AcDbCircle
 10
266.5983830138
 20
38.276110023
 30
0.0
 40
40.40144044883942
100
AcDbArc
 50
136.9528122493
 51
166.7921386576
  0
SPLINE
  5
24E
330
1F
100
AcDbEntity
  8
0
  6
Continuous
 62
     7
370
    15
100
AcDbSpline
210
0.0
220
0.0
230
1.0
 70
     8
 71
     3
 72
    34
 73
    30
 74
     0
 42
0.000000001
 43
0.00000001
 40
0.0
 40
0.0
 40
0.0
 40
0.0
 40
0.0624999999999989
 40
0.0624999999999989
 40
0.1249999999999978
 40
0.1249999999999978
 40
0.1874999999999968
 40
0.1874999999999968
 40
0.2499999999999962
 40
0.2499999999999962
 40
0.3124999999999957
 40
0.3124999999999957
 40
0.3749999999999952
 40
0.3749999999999952
 40
0.499999999999995
 40
0.499999999999995
 40
0.6249999999999948
 40
0.6249999999999948
 40
0.6874999999999954
 40
0.6874999999999954
 40
0.749999999999996
 40
0.749999999999996
 40
0.8124999999999966
 40
0.8124999999999966
 40
0.8749999999999977
 40
0.8749999999999977
 40
0.9374999999999989
 40
0.9374999999999989
 40
1.0
 40
1.0
 40
1.0
 40
1.0
 10
237.073342905476
 20
65.85415263644597
 30
0.0
 10
237.1324683191193
 20
65.82457515258774
 30
0.0
 10
237.1952810145498
 20
65.80089913039222
 30
0.0
 10
237.3279900174744
 20
65.76481961997249
 30
0.0
 10
237.3986017138456
 20
65.75237172983323
 30
0.0
 10
237.5438496838229
 20
65.73966183610786
 30
0.0
 10
237.6178321135851
 20
65.73931965621053
 30
0.0
 10
237.7685141784099
 20
65.75032600103313
 30
0.0
 10
237.84596219821
 20
65.76191266501861
 30
0.0
 10
237.9978947841851
 20
65.79608720775742
 30
0.0
 10
238.0728508647696
 20
65.81859961014742
 30
0.0
 10
238.2207859316783
 20
65.87441168274546
 30
0.0
 10
238.2937146447686
 20
65.90785652895175
 30
0.0
 10
238.5003271707786
 20
66.02021878827108
 30
0.0
 10
238.6272523468279
 20
66.11425618929181
 30
0.0
 10
238.8363590994548
 20
66.32285750446772
 30
0.0
 10
238.9209074826527
 20
66.43978159861143
 30
0.0
 10
239.0058810394268
 20
66.61830684858408
 30
0.0
 10
239.0278407400247
 20
66.67952342751077
 30
0.0
 10
239.0569518367645
 20
66.8003294100246
 30
0.0
 10
239.0643062995443
 20
66.85992993646975
 30
0.0
 10
239.0646492345886
 20
66.97767122660304
 30
0.0
 10
239.0574091917532
 20
67.03612261474012
 30
0.0
 10
239.0287973412313
 20
67.14688523913159
 30
0.0
 10
239.0075139996718
 20
67.19979768385421
 30
0.0
 10
238.9506858330648
 20
67.30071589116346
 30
0.0
 10
238.9152283440908
 20
67.34823090579458
 30
0.0
 10
238.8328233912043
 20
67.43449088367801
 30
0.0
 10
238.7856184886284
 20
67.47373643609806
 30
0.0
 10
238.7321423427396
 20
67.50894956421169
 30
0.0
  0
LINE
  5
24F
330
1F
100
AcDbEntity
  8
0
  6
Continuous
 62
     7
370
    15
100
AcDbLine
 10
261.7180693413
 20
65.08195791
 30
0.0
 11
261.8223511812
 21
65.2625797348
 31
0.0
  0
LINE
  5
250
330
1F
100
AcDbEntity
  8
0
  6
Continuous
 62
     7
370
    15
100
AcDbLine
 10
259.4199610598
 20
63.755288238
 30
0.0
 11
261.7180693413
 21
65.08195791
 31
0.0
  0
ARC
  5
251
330
1F
100
AcDbEntity
  8
0
  6
Continuous
 62
     7
370
    15
100
AcDbCircle
 10
260.2480641574
 20
62.4606859551
 30
0.0
 40
1.53679855912835
100
AcDbArc
 50
122.6053519586
 51
177.394632491
  0
LINE
  5
252
330
1F
100
AcDbEntity
  8
0
  6
Continuous
 62
     7
370
    15
100
AcDbLine
 10
258.7128541627
 20
54.9171847138
 30
0.0
 11
258.7128541627
 21
62.5305435497
 31
0.0
  0
LINE
  5
253
330
1F
100
AcDbEntity
  8
0
  6
Continuous
 62
     7
370
    15
100
AcDbLine
 10
261.7180693413
 20
54.5894088107
 30
0.0
 11
260.499355021
 21
53.885860009
 31
0.0
  0
LINE
  5
254
330
1F
100
AcDbEntity
  8
0
  6
Continuous
 62
     7
370
    15
100
AcDbLine
 10
261.8223511812
 20
54.5291882355
 30
0.0
 11
261.7180693413
 21
54.5894088107
 31
0.0
  0
LINE
  5
255
330
1F
100
AcDbEntity
  8
0
  6
Continuous
 62
     7
370
    15
100
AcDbLine
 10
229.1254148453
 20
35.7740698659
 30
0.0
 11
229.0799067856
 21
35.6557012428
 31
0.0
  0
LINE
  5
256
330
1F
100
AcDbEntity
  8
0
  6
Continuous
 62
     7
370
    15
100
AcDbLine
 10
229.1254148453
 20
35.7740698659
 30
0.0
 11
232.2670593725
 21
37.5877026472
 31
0.0
  0
ARC
  5
257
330
1F
100
AcDbEntity
  8
0
  6
Continuous
 62
     7
370
    15
100
AcDbCircle
 10
231.4389562749
 20
38.8823049302
 30
0.0
 40
1.536798559128181
100
AcDbArc
 50
302.6053519586
 51
357.394632491
  0
LINE
  5
258
330
1F
100
AcDbEntity
  8
0
  6
Continuous
 62
     7
370
    15
100
AcDbLine
 10
232.9741662696
 20
47.6719153039
 30
0.0
 11
232.9741662696
 21
38.8124473355
 31
0.0
  0
ARC
  5
259
330
1F
100
AcDbEntity
  8
0
  6
Continuous
 62
     7
370
    15
100
AcDbCircle
 10
232.5430927865
 20
47.7418438509
 30
0.0
 40
0.4367085406723013
100
AcDbArc
 50
350.7857695821
 51
129.2035248725
  0
LINE
  5
25A
330
1F
100
AcDbEntity
  8
0
  6
Continuous
 62
     7
370
    15
100
AcDbLine
 10
232.2670593725
 20
48.0802517465
 30
0.0
 11
229.1254148453
 21
46.2666189652
 31
0.0
  0
LINE
  5
25B
330
1F
100
AcDbEntity
  8
0
  6
Continuous
 62
     7
370
    15
100
AcDbLine
 10
229.0799067856
 20
46.3324451009
 30
0.0
 11
229.1254148453
 21
46.2666189652
 31
0.0
  0
LINE
  5
25C
330
1F
100
AcDbEntity
  8
0
  6
Continuous
 62
     7
370
    15
100
AcDbLine
 10
256.0081703801
 20
68.7263006807
 30
0.0
 11
256.0081703801
 21
71.9512618237
 31
0.0
  0
LINE
  5
25D
330
1F
100
AcDbEntity
  8
0
  6
Continuous
 62
     7
370
    15
100
AcDbLine
 10
258.8009173685
 20
70.3385192
 30
0.0
 11
256.0081703801
 21
68.7263006807
 31
0.0
  0
ARC
  5
25E
330
1F
100
AcDbEntity
  8
0
  6
Continuous
 62
     7
370
    15
100
AcDbCircle
 10
268.5902377005
 20
28.8874478679
 30
0.0
 40
2.3041772081603
100
AcDbArc
 50
295.8757753281
 51
300.0399960545
  0
SPLINE
  5
25F
330
1F
100
AcDbEntity
  8
0
  6
Continuous
 62
     7
370
    15
100
AcDbSpline
210
0.0
220
0.0
230
1.0
 70
     8
 71
     3
 72
    12
 73
     8
 74
     0
 42
0.000000001
 43
0.00000001
 40
0.0
 40
0.0
 40
0.0
 40
0.0
 40
0.5
 40
0.5
 40
0.75
 40
0.75
 40
1.0
 40
1.0
 40
1.0
 40
1.0
 10
269.5958301223844
 20
26.8142818099398
 30
0.0
 10
269.4844140976455
 20
26.71367987245347
 30
0.0
 10
269.3697918851385
 20
26.64020517806854
 30
0.0
 10
269.1940685696385
 20
26.57257798483657
 30
0.0
 10
269.135144058044
 20
26.55745507956595
 30
0.0
 10
269.0196596708144
 20
26.54269303570746
 30
0.0
 10
268.9626841182848
 20
26.54287580613416
 30
0.0
 10
268.9065525784866
 20
26.55071040526892
 30
0.0
  0
SPLINE
  5
260
330
1F
100
AcDbEntity
  8
0
  6
Continuous
 62
     7
370
    15
100
AcDbSpline
210
0.0
220
0.0
230
1.0
 70
     8
 71
     3
 72
     8
 73
     4
 74
     0
 42
0.000000001
 43
0.00000001
 40
0.0
 40
0.0
 40
0.0
 40
0.0
 40
1.0
 40
1.0
 40
1.0
 40
1.0
 10
226.1931048187153
 20
48.59872467294514
 30
0.0
 10
225.906037689043
 20
48.55127267322178
 30
0.0
 10
225.6189245704575
 20
48.50391524051899
 30
0.0
 10
225.3317697440599
 20
48.45664357160693
 30
0.0
  0
SPLINE
  5
261
330
1F
100
AcDbEntity
  8
0
  6
Continuous
 62
     7
370
    15
100
AcDbSpline
210
0.0
220
0.0
230
1.0
 70
     8
 71
     3
 72
     8
 73
     4
 74
     0
 42
0.000000001
 43
0.00000001
 40
0.0
 40
0.0
 40
0.0
 40
0.0
 40
0.0011862984959113
 40
0.0011862984959113
 40
0.0011862984959113
 40
0.0011862984959113
 10
224.9794686567844
 20
48.8270004712691
 30
0.0
 10
225.0971795246289
 20
48.70345052015666
 30
0.0
 10
225.2146192750649
 20
48.57999547104137
 30
0.0
 10
225.3317697440599
 20
48.45664357160693
 30
0.0
  0
LWPOLYLINE
  5
262
330
1F
100
AcDbEntity
  8
0
  6
Continuous
 62
     7
370
    15
100
AcDbPolyline
 90
       23
 70
   128
 43
0.0
 10
224.9794688699
 20
48.8270004396
 10
225.4742702372
 20
50.7734146749
 10
226.0939935465
 20
52.7350762565
 10
226.8338103493
 20
54.6966938695
 10
227.6879531129
 20
56.6429781881
 10
228.6497626351
 20
58.5587570816
 10
229.7117433625
 20
60.4290988041
 10
230.8656173905
 20
62.2394222562
 10
232.1023903183
 20
63.9756194139
 10
233.4124210542
 20
65.6241549425
 10
234.7854988657
 20
67.1721791179
 10
236.2109204289
 20
68.607625539
 10
237.67757511
 20
69.9193044665
 10
239.1740310705
 20
71.0969935953
 10
240.6886230997
 20
72.131511573
 10
242.2095456349
 20
73.0147945133
 10
243.7249432287
 20
73.7399573471
 10
245.2230038975
 20
74.3013492323
 10
246.6920504123
 20
74.6945925669
 10
248.1206320013
 20
74.9166222389
 10
249.4976123475
 20
74.9657075293
 10
250.8122594805
 20
74.8414675024
 10
252.054325789
 20
74.5448685276
  0
LINE
  5
263
330
1F
100
AcDbEntity
  8
0
  6
Continuous
 62
     7
370
    15
100
AcDbLine
 10
252.3647699262
 20
73.5680383966
 30
0.0
 11
252.054325789
 21
74.5448685276
 31
0.0
  0
LWPOLYLINE
  5
264
330
1F
100
AcDbEntity
  8
0
  6
Continuous
 62
     7
370
    15
100
AcDbPolyline
 90
       22
 70
   128
 43
0.0
 10
226.1931048242
 20
48.5987246473
 10
226.6676138011
 20
50.4956532838
 10
227.2670578907
 20
52.4086167247
 10
227.9865414733
 20
54.3219955217
 10
228.8201890147
 20
56.2201649949
 10
229.761195116
 20
58.0876283098
 10
230.8018758798
 20
59.9091366249
 10
231.9337334478
 20
61.6698176044
 10
233.147526465
 20
63.3552944238
 10
234.433344495
 20
64.9518047754
 10
235.7806890213
 20
66.4463145499
 10
237.1785574115
 20
67.8266195404
 10
238.6155370893
 20
69.0814484764
 10
240.0798947672
 20
70.2005571224
 10
241.5596734584
 20
71.1748086171
 10
243.0427908879
 20
71.9962454934
 10
244.5171370397
 20
72.6581627219
 10
245.9706738435
 20
73.1551561332
 10
247.3915330103
 20
73.4831652088
 10
248.7681132908
 20
73.6395140176
 10
250.0891739887
 20
73.6229241356
 10
250.3841360738
 20
73.5946178853
  0
LINE
  5
265
330
1F
100
AcDbEntity
  8
0
  6
Continuous
 62
     7
370
    15
100
AcDbLine
 10
223.5416241939
 20
49.6570505029
 30
0.0
 11
224.9794688699
 21
48.8270004396
 31
0.0
  0
ARC
  5
266
330
1F
100
AcDbEntity
  8
0
  6
Continuous
 62
     7
370
    15
100
AcDbCircle
 10
247.6169222487
 20
64.9276082945
 30
0.0
 40
10.86939031458806
100
AcDbArc
 50
73.9805380809
 51
106.2228094608
  0
LINE
  5
267
330
1F
100
AcDbEntity
  8
0
  6
Continuous
 62
     7
370
    15
100
AcDbLine
 10
252.054325789
 20
74.5448685276
 30
0.0
 11
250.6164811129
 21
75.374918591
 31
0.0
  0
LINE
  5
268
330
1F
100
AcDbEntity
  8
0
  6
Continuous
 62
     7
370
    15
100
AcDbLine
 10
227.4456956618
 20
48.2723826458
 30
0.0
 11
226.8195920441
 21
48.6338245707
 31
0.0
  0
SPLINE
  5
269
330
1F
100
AcDbEntity
  8
0
  6
Continuous
 62
     7
370
    15
100
AcDbSpline
210
0.0
220
0.0
230
1.0
 70
     8
 71
     3
 72
    11
 73
     7
 74
     0
 42
0.000000001
 43
0.00000001
 40
0.0
 40
0.0
 40
0.0
 40
0.0
 40
0.3165694752064712
 40
0.6331520400060429
 40
0.9494411625907934
 40
1.0
 40
1.0
 40
1.0
 40
1.0
 10
238.0401183496532
 20
66.61647131869886
 30
0.0
 10
237.9065281694495
 20
66.5692926557788
 30
0.0
 10
237.6393422853222
 20
66.47493337918362
 30
0.0
 10
237.3233920861235
 20
66.21511767999044
 30
0.0
 10
237.1426893951668
 20
65.99192629451795
 30
0.0
 10
237.1077544316167
 20
65.86317711702016
 30
0.0
 10
237.102939709076
 20
65.845432957473
 30
0.0
  0
SPLINE
  5
26A
330
1F
100
AcDbEntity
  8
0
  6
Continuous
 62
     7
370
    15
100
AcDbSpline
210
0.0
220
0.0
230
1.0
 70
     8
 71
     3
 72
    12
 73
     8
 74
     0
 42
0.000000001
 43
0.00000001
 40
0.0
 40
0.0
 40
0.0
 40
0.0
 40
0.5000000000000009
 40
0.5000000000000009
 40
0.7500000000000004
 40
0.7500000000000004
 40
1.0
 40
1.0
 40
1.0
 40
1.0
 10
278.6065480661865
 20
32.15039860760321
 30
0.0
 10
278.4529214180492
 20
31.98042907014628
 30
0.0
 10
278.2852236356087
 20
31.83239456256653
 30
0.0
 10
278.0133824197474
 20
31.64157188744333
 30
0.0
 10
277.9188120239527
 20
31.58299913770515
 30
0.0
 10
277.7264130997615
 20
31.47891798093219
 30
0.0
 10
277.6283413587673
 20
31.43315502016517
 30
0.0
 10
277.5283617926362
 20
31.39363486890559
 30
0.0
  0
LWPOLYLINE
  5
26B
330
1F
100
AcDbEntity
  8
0
  6
Continuous
 62
     7
370
    15
100
AcDbPolyline
 90
       11
 70
   128
 43
0.0
 10
277.5283614372
 20
31.3936349219
 10
276.8414191729
 20
30.3851172192
 10
276.0846804104
 20
29.4582387153
 10
275.2742516667
 20
28.6327264926
 10
274.427381951
 20
27.9261511861
 10
273.5620957088
 20
27.3535508268
 10
272.6968094667
 20
26.9271129561
 10
271.849939751
 20
26.6559133013
 10
271.0395110072
 20
26.5457244135
 10
270.2827722448
 20
26.5988909397
 10
269.5958299805
 20
26.8142819862
  0
SPLINE
  5
26C
330
1F
100
AcDbEntity
  8
0
  6
Continuous
 62
     7
370
    15
100
AcDbSpline
210
0.0
220
0.0
230
1.0
 70
     8
 71
     3
 72
    14
 73
    10
 74
     0
 42
0.000000001
 43
0.00000001
 40
0.0
 40
0.0
 40
0.0
 40
0.0
 40
0.25
 40
0.25
 40
0.5
 40
0.5
 40
0.75
 40
0.75
 40
1.0
 40
1.0
 40
1.0
 40
1.0
 10
226.819591931449
 20
48.63382474017718
 30
0.0
 10
226.7819579379909
 20
48.65555038215723
 30
0.0
 10
226.7361839813018
 20
48.67276214326873
 30
0.0
 10
226.6362481037918
 20
48.69516747690123
 30
0.0
 10
226.581814234952
 20
48.70034236050105
 30
0.0
 10
226.47559858446
 20
48.69840016618629
 30
0.0
 10
226.4222822845099
 20
48.69131176326806
 30
0.0
 10
226.3247892172092
 20
48.66657832698337
 30
0.0
 10
226.2798775266796
 20
48.64881749099733
 30
0.0
 10
226.2421242610796
 20
48.62702299467534
 30
0.0
  0
SPLINE
  5
26D
330
1F
100
AcDbEntity
  8
0
  6
Continuous
 62
     7
370
    15
100
AcDbSpline
210
0.0
220
0.0
230
1.0
 70
     8
 71
     3
 72
    12
 73
     8
 74
     0
 42
0.000000001
 43
0.00000001
 40
0.0
 40
0.0
 40
0.0
 40
0.0
 40
0.4999999999999996
 40
0.4999999999999996
 40
0.7499999999999998
 40
0.7499999999999998
 40
1.0
 40
1.0
 40
1.0
 40
1.0
 10
279.3690667233116
 20
40.81287644185228
 30
0.0
 10
279.3841557233063
 20
40.66305415278956
 30
0.0
 10
279.3717015562991
 20
40.50439082224886
 30
0.0
 10
279.3137626422404
 20
40.25461055227382
 30
0.0
 10
279.2876057561758
 20
40.1688967129246
 30
0.0
 10
279.2228391708829
 20
39.99701796002981
 30
0.0
 10
279.1842418978243
 20
39.91061605999683
 30
0.0
 10
279.139448887866
 20
39.82383893349945
 30
0.0
  0
ARC
  5
26E
330
1F
100
AcDbEntity
  8
0
  6
Continuous
 62
     7
370
    15
100
AcDbCircle
 10
275.5391799531
 20
40.6482317182
 30
0.0
 40
3.69344804113375
100
AcDbArc
 50
343.7052385196
 51
347.102708996
  0
LINE
  5
26F
330
1F
100
AcDbEntity
  8
0
  6
Continuous
 62
     7
370
    15
100
AcDbLine
 10
277.9175408265
 20
40.285463861
 30
0.0
 11
279.0842656921
 21
39.6119279327
 31
0.0
  0
LINE
  5
270
330
1F
100
AcDbEntity
  8
0
  6
Continuous
 62
     7
370
    15
100
AcDbLine
 10
226.2421242432
 20
48.6270229555
 30
0.0
 11
226.1931048242
 21
48.5987246473
 31
0.0
  0
SPLINE
  5
271
330
1F
100
AcDbEntity
  8
0
  6
Continuous
 62
     7
370
    15
100
AcDbSpline
210
0.0
220
0.0
230
1.0
 70
     8
 71
     3
 72
    10
 73
     6
 74
     0
 42
0.000000001
 43
0.00000001
 40
0.0
 40
0.0
 40
0.0
 40
0.0
 40
0.5
 40
0.5
 40
1.0
 40
1.0
 40
1.0
 40
1.0
 10
223.4396116284294
 20
49.68649868185383
 30
0.0
 10
223.4469279128517
 20
49.690866681747
 30
0.0
 10
223.4587517730601
 20
49.69139873433527
 30
0.0
 10
223.4929031373378
 20
49.68216868469696
 30
0.0
 10
223.5151601007306
 20
49.67232780738066
 30
0.0
 10
223.5416241187523
 20
49.65705045496434
 30
0.0
  0
ARC
  5
272
330
1F
100
AcDbEntity
  8
0
  6
Continuous
 62
     7
370
    15
100
AcDbCircle
 10
263.2599854415
 20
40.1778759644
 30
0.0
 40
40.92045494687235
100
AcDbArc
 50
143.5835897407
 51
160.8037648338
  0
LWPOLYLINE
  5
273
330
1F
100
AcDbEntity
  8
0
  6
Continuous
 62
     7
370
    15
100
AcDbPolyline
 90
        9
 70
   128
 43
0.0
 10
276.4017149318
 20
30.7363558307
 10
275.7436310757
 20
29.9431412861
 10
275.0414324755
 20
29.2364300177
 10
274.309319244
 20
28.6305131653
 10
273.5620957088
 20
28.1376432012
 10
272.8148721736
 20
27.7677872352
 10
272.0827589422
 20
27.5284241429
 10
271.3805603419
 20
27.4243941646
 10
270.7224764858
 20
27.4578012618
  0
LINE
  5
274
330
1F
100
AcDbEntity
  8
0
  6
Continuous
 62
     7
370
    15
100
AcDbLine
 10
277.3804724263
 20
31.3013805054
 30
0.0
 11
276.4017149318
 21
30.7363558307
 31
0.0
  0
ARC
  5
275
330
1F
100
AcDbEntity
  8
0
  6
Continuous
 62
     7
370
    15
100
AcDbCircle
 10
276.0792273286
 20
33.5520138811
 30
0.0
 40
2.599728715881156
100
AcDbArc
 50
300.0351441237
 51
303.8773835464
  0
LINE
  5
276
330
1F
100
AcDbEntity
  8
0
  6
Continuous
 62
     7
370
    15
100
AcDbLine
 10
270.7224764858
 20
27.4578012618
 30
0.0
 11
269.7437189914
 21
26.8927765872
 31
0.0
  0
LINE
  5
277
330
1F
100
AcDbEntity
  8
0
  6
Continuous
 62
     7
370
    15
100
AcDbLine
 10
269.5557516203
 20
28.1313371901
 30
0.0
 11
270.7224764858
 21
27.4578012618
 31
0.0
  0
LINE
  5
278
330
1F
100
AcDbEntity
  8
0
  6
Continuous
 62
     7
370
    15
100
AcDbLine
 10
276.4017149318
 20
30.7363558307
 30
0.0
 11
275.2349900663
 21
31.409891759
 31
0.0
  0
SPLINE
  5
279
330
1F
100
AcDbEntity
  8
0
  6
Continuous
 62
     7
370
    15
100
AcDbSpline
210
0.0
220
0.0
230
1.0
 70
     8
 71
     3
 72
    12
 73
     8
 74
     0
 42
0.000000001
 43
0.00000001
 40
0.0
 40
0.0
 40
0.0
 40
0.0
 40
0.25
 40
0.25
 40
0.5
 40
0.5
 40
1.0
 40
1.0
 40
1.0
 40
1.0
 10
279.139448887866
 20
35.05737976912947
 30
0.0
 10
279.1838939163717
 20
34.97206907944628
 30
0.0
 10
279.2222992350896
 20
34.88318868057205
 30
0.0
 10
279.2868980174509
 20
34.69805553245704
 30
0.0
 10
279.3131947280116
 20
34.60126471892241
 30
0.0
 10
279.3719426385245
 20
34.3026494939766
 30
0.0
 10
279.384075954559
 20
34.09700291171558
 30
0.0
 10
279.3690667233116
 20
33.88442890903112
 30
0.0
  0
ARC
  5
27A
330
1F
100
AcDbEntity
  8
0
  6
Continuous
 62
     7
370
    15
100
AcDbCircle
 10
271.702136467
 20
37.4406095637
 30
0.0
 40
7.809827001796895
100
AcDbArc
 50
342.2323418517
 51
17.7676581483
  0
ARC
  5
27B
330
1F
100
AcDbEntity
  8
0
  6
Continuous
 62
     7
370
    15
100
AcDbCircle
 10
277.8095861503
 20
34.6465658174
 30
0.0
 40
1.39187023762507
100
AcDbArc
 50
17.1666861273
 51
23.6799159605
  0
ARC
  5
27C
330
1F
100
AcDbEntity
  8
0
  6
Continuous
 62
     7
370
    15
100
AcDbCircle
 10
271.7205483289
 20
37.4087530576
 30
0.0
 40
7.686241795228216
100
AcDbArc
 50
343.3431694729
 51
16.6568305271
  0
LINE
  5
27D
330
1F
100
AcDbEntity
  8
0
  6
Continuous
 62
     7
370
    15
100
AcDbLine
 10
277.9175408265
 20
35.8791141107
 30
0.0
 11
279.0842656921
 21
35.2055781824
 31
0.0
  0
SPLINE
  5
27E
330
1F
100
AcDbEntity
  8
0
  6
Continuous
 62
     7
370
    15
100
AcDbSpline
210
0.0
220
0.0
230
1.0
 70
     8
 71
     3
 72
    14
 73
    10
 74
     0
 42
0.000000001
 43
0.00000001
 40
0.0
 40
0.0
 40
0.0
 40
0.0
 40
0.25
 40
0.25
 40
0.5
 40
0.5
 40
0.75
 40
0.75
 40
1.0
 40
1.0
 40
1.0
 40
1.0
 10
238.4571972046789
 20
66.9229231278371
 30
0.0
 10
238.4720380968081
 20
66.8844051090015
 30
0.0
 10
238.4714043289041
 20
66.84648647084803
 30
0.0
 10
238.4384687239437
 20
66.78054552107876
 30
0.0
 10
238.4063328786017
 20
66.75227196353681
 30
0.0
 10
238.3214303031973
 20
66.7043529373493
 30
0.0
 10
238.2690133907042
 20
66.68447583990155
 30
0.0
 10
238.157677726409
 20
66.64861891388519
 30
0.0
 10
238.0995230496981
 20
66.63274689020177
 30
0.0
 10
238.0401180939667
 20
66.61647154464703
 30
0.0
  0
LINE
  5
27F
330
1F
100
AcDbEntity
  8
0
  6
Continuous
 62
     7
370
    15
100
AcDbLine
 10
238.4410702099
 20
66.9647789704
 30
0.0
 11
238.4571973063
 21
66.9229234808
 31
0.0
  0
SPLINE
  5
280
330
1F
100
AcDbEntity
  8
0
  6
Continuous
 62
     7
370
    15
100
AcDbSpline
210
0.0
220
0.0
230
1.0
 70
     8
 71
     3
 72
    10
 73
     6
 74
     0
 42
0.000000001
 43
0.00000001
 40
0.0
 40
0.0
 40
0.0
 40
0.0
 40
0.5
 40
0.5
 40
1.0
 40
1.0
 40
1.0
 40
1.0
 10
238.7321423427396
 20
67.50894956421169
 30
0.0
 10
238.7041272930017
 20
67.43692346152366
 30
0.0
 10
238.6663094045519
 20
67.35597697622022
 30
0.0
 10
238.5703336567169
 20
67.1755819398803
 30
0.0
 10
238.5123018794173
 20
67.07625573290551
 30
0.0
 10
238.4410701418272
 20
66.96477927134143
 30
0.0
  0
LINE
  5
281
330
1F
100
AcDbEntity
  8
0
  6
Continuous
 62
     7
370
    15
100
AcDbLine
 10
229.1254148453
 20
46.2666189652
 30
0.0
 11
227.2975606845
 21
47.3218167117
 31
0.0
  0
SPLINE
  5
282
330
1F
100
AcDbEntity
  8
0
  6
Continuous
 62
     7
370
    15
100
AcDbSpline
210
0.0
220
0.0
230
1.0
 70
     8
 71
     3
 72
     8
 73
     4
 74
     0
 42
0.000000001
 43
0.00000001
 40
0.0000000000000004
 40
0.0000000000000004
 40
0.0000000000000004
 40
0.0000000000000004
 40
0.0011862984959128
 40
0.0011862984959128
 40
0.0011862984959128
 40
0.0011862984959128
 10
227.2975604170308
 20
47.32181677156839
 30
0.0
 10
227.2864982177732
 20
47.38392521648718
 30
0.0
 10
227.2758722111994
 20
47.44571800378879
 30
0.0
 10
227.265659083382
 20
47.50721083050669
 30
0.0
  0
LINE
  5
283
330
1F
100
AcDbEntity
  8
0
  6
Continuous
 62
     7
370
    15
100
AcDbLine
 10
227.3703449169
 20
48.1069916069
 30
0.0
 11
227.3504516044
 21
47.8776458504
 31
0.0
  0
ARC
  5
284
330
1F
100
AcDbEntity
  8
0
  6
Continuous
 62
     7
370
    15
100
AcDbCircle
 10
243.3531280789
 20
46.4503456694
 30
0.0
 40
16.06296283248737
100
AcDbArc
 50
176.9225000953
 51
185.727139394
  0
LINE
  5
285
330
1F
100
AcDbEntity
  8
0
  6
Continuous
 62
     7
370
    15
100
AcDbLine
 10
226.3715575443
 20
47.206863796
 30
0.0
 11
226.4333303362
 21
48.6670099643
 31
0.0
  0
ARC
  5
286
330
1F
100
AcDbEntity
  8
0
  6
Continuous
 62
     7
370
    15
100
AcDbCircle
 10
238.206545266
 20
46.9320044131
 30
0.0
 40
11.83817900076304
100
AcDbArc
 50
178.6695844123
 51
203.7430473282
  0
LINE
  5
287
330
1F
100
AcDbEntity
  8
0
  6
Continuous
 62
     7
370
    15
100
AcDbLine
 10
207.9404693701
 20
83.7940893723
 30
0.0
 11
207.9901680778
 21
83.7757535608
 31
0.0
  0
LINE
  5
288
330
1F
100
AcDbEntity
  8
0
  6
Continuous
 62
     7
370
    15
100
AcDbLine
 10
197.8166099897
 20
66.2571509719
 30
0.0
 11
197.7549926143
 21
66.3104165327
 31
0.0
  0
LINE
  5
289
330
1F
100
AcDbEntity
  8
0
  6
Continuous
 62
     7
370
    15
100
AcDbLine
 10
223.8751468588
 20
49.297534159
 30
0.0
 11
223.4396110398
 21
49.6864983287
 31
0.0
  0
LINE
  5
28A
330
1F
100
AcDbEntity
  8
0
  6
Continuous
 62
     7
370
    15
100
AcDbLine
 10
225.3317700961
 20
48.4566434629
 30
0.0
 11
223.8751468588
 21
49.297534159
 31
0.0
  0
LINE
  5
28B
330
1F
100
AcDbEntity
  8
0
  6
Continuous
 62
     7
370
    15
100
AcDbLine
 10
227.3703449169
 20
48.1069916069
 30
0.0
 11
227.3703449169
 21
47.9618417697
 31
0.0
  0
LINE
  5
28C
330
1F
100
AcDbEntity
  8
0
  6
Continuous
 62
     7
370
    15
100
AcDbLine
 10
227.3703449169
 20
47.2797985723
 30
0.0
 11
227.3703449169
 21
44.8474054478
 31
0.0
  0
LINE
  5
28D
330
1F
100
AcDbEntity
  8
0
  6
Continuous
 62
     7
370
    15
100
AcDbLine
 10
227.3703449169
 20
48.3158812573
 30
0.0
 11
227.3703449169
 21
48.1069916069
 31
0.0
  0
LINE
  5
28E
330
1F
100
AcDbEntity
  8
0
  6
Continuous
 62
     7
370
    15
100
AcDbLine
 10
227.3703449169
 20
44.8474054478
 30
0.0
 11
227.3703449169
 21
41.9774164051
 31
0.0
  0
LINE
  5
28F
330
1F
100
AcDbEntity
  8
0
  6
Continuous
 62
     7
370
    15
100
AcDbLine
 10
227.2975606845
 20
36.8292676123
 30
0.0
 11
229.1254148453
 21
35.7740698659
 31
0.0
  0
SPLINE
  5
290
330
1F
100
AcDbEntity
  8
0
  6
Continuous
 62
     7
370
    15
100
AcDbSpline
210
0.0
220
0.0
230
1.0
 70
     8
 71
     3
 72
    14
 73
    10
 74
     0
 42
0.000000001
 43
0.00000001
 40
0.0
 40
0.0
 40
0.0
 40
0.0
 40
0.25
 40
0.25
 40
0.5
 40
0.5
 40
0.75
 40
0.75
 40
1.0
 40
1.0
 40
1.0
 40
1.0
 10
229.0799072953559
 20
35.65570159650772
 30
0.0
 10
229.0632324522895
 20
35.61232897840114
 30
0.0
 10
229.0429372093735
 20
35.57209864895529
 30
0.0
 10
228.9946402303031
 20
35.49832676128316
 30
0.0
 10
228.966421382498
 20
35.46475715460603
 30
0.0
 10
228.9034960340749
 20
35.41120574894342
 30
0.0
 10
228.8683328580579
 20
35.39074971958377
 30
0.0
 10
228.7936498688495
 20
35.37331742607189
 30
0.0
 10
228.7551249936411
 20
35.37726473505678
 30
0.0
 10
228.7211812909438
 20
35.3968600175266
 30
0.0
  0
LINE
  5
291
330
1F
100
AcDbEntity
  8
0
  6
Continuous
 62
     7
370
    15
100
AcDbLine
 10
228.7211811285
 20
35.3968601411
 30
0.0
 11
227.2656591422
 21
36.2371150985
 31
0.0
  0
SPLINE
  5
292
330
1F
100
AcDbEntity
  8
0
  6
Continuous
 62
     7
370
    15
100
AcDbSpline
210
0.0
220
0.0
230
1.0
 70
     8
 71
     3
 72
     8
 73
     4
 74
     0
 42
0.000000001
 43
0.00000001
 40
0.0
 40
0.0
 40
0.0
 40
0.0
 40
0.0011862984959113
 40
0.0011862984959113
 40
0.0011862984959113
 40
0.0011862984959113
 10
227.265659083382
 20
36.23711510261962
 30
0.0
 10
227.2758722111994
 20
36.43451400450857
 30
0.0
 10
227.2864982177746
 20
36.63189984148536
 30
0.0
 10
227.2975604170323
 20
36.8292673388357
 30
0.0
  0
SPLINE
  5
293
330
1F
100
AcDbEntity
  8
0
  6
Continuous
 62
     7
370
    15
100
AcDbSpline
210
0.0
220
0.0
230
1.0
 70
     8
 71
     3
 72
     9
 73
     5
 74
     0
 42
0.000000001
 43
0.00000001
 40
0.0
 40
0.0
 40
0.0
 40
0.0
 40
0.4529515425247135
 40
1.0
 40
1.0
 40
1.0
 40
1.0
 10
261.8815945036977
 20
54.49496909036459
 30
0.0
 10
261.8788271534349
 20
54.49656952307461
 30
0.0
 10
261.8727175589132
 20
54.5001028650765
 30
0.0
 10
261.8401611270479
 20
54.518903420584
 30
0.0
 10
261.822351181215
 20
54.52918823547407
 30
0.0
  0
LWPOLYLINE
  5
294
330
1F
100
AcDbEntity
  8
0
  6
Continuous
 62
     7
370
    15
100
AcDbPolyline
 90
       13
 70
   128
 43
0.0
 10
240.7482588324
 20
28.7709041828
 10
239.4822600286
 20
28.4961949185
 10
238.1137979556
 20
28.3443227633
 10
236.7976552681
 20
28.3555661297
 10
235.5434921555
 20
28.5298454033
 10
234.3605124358
 20
28.865879101
 10
233.2573990185
 20
29.3612028885
 10
232.2422473911
 20
30.0121798529
 10
231.3225096432
 20
30.8140343483
 10
230.504933222
 20
31.7608782381
 10
229.7955214192
 20
32.8457648907
 10
229.1994793704
 20
34.0607317714
 10
228.7477599848
 20
35.3093131591
  0
SPLINE
  5
295
330
1F
100
AcDbEntity
  8
0
  6
Continuous
 62
     7
370
    15
100
AcDbSpline
210
0.0
220
0.0
230
1.0
 70
     8
 71
     3
 72
     8
 73
     4
 74
     0
 42
0.000000001
 43
0.00000001
 40
0.0
 40
0.0
 40
0.0
 40
0.0
 40
1.0
 40
1.0
 40
1.0
 40
1.0
 10
227.5436787707816
 20
37.32650549342257
 30
0.0
 10
227.4614805899959
 20
37.16078516691909
 30
0.0
 10
227.379446221844
 20
36.99503829158112
 30
0.0
 10
227.2975604170323
 20
36.82926733883571
 30
0.0
  0
LINE
  5
296
330
1F
100
AcDbEntity
  8
0
  6
Continuous
 62
     7
370
    15
100
AcDbLine
 10
227.5926982718
 20
37.3548040652
 30
0.0
 11
227.5436788528
 21
37.326505757
 31
0.0
  0
SPLINE
  5
297
330
1F
100
AcDbEntity
  8
0
  6
Continuous
 62
     7
370
    15
100
AcDbSpline
210
0.0
220
0.0
230
1.0
 70
     8
 71
     3
 72
    12
 73
     8
 74
     0
 42
0.000000001
 43
0.00000001
 40
0.0
 40
0.0
 40
0.0
 40
0.0
 40
0.249999999999997
 40
0.249999999999997
 40
0.499999999999994
 40
0.499999999999994
 40
1.0
 40
1.0
 40
1.0
 40
1.0
 10
227.6044804585661
 20
37.68816880538369
 30
0.0
 10
227.6420792431407
 20
37.6664634890594
 30
0.0
 10
227.6722568023871
 20
37.63966161848622
 30
0.0
 10
227.710846537068
 20
37.58203791365623
 30
0.0
 10
227.7197060222578
 20
37.55098978808486
 30
0.0
 10
227.7146585884195
 20
37.45880081167956
 30
0.0
 10
227.6679563013442
 20
37.39824938470471
 30
0.0
 10
227.5926982131459
 20
37.35480381515276
 30
0.0
  0
LINE
  5
298
330
1F
100
AcDbEntity
  8
0
  6
Continuous
 62
     7
370
    15
100
AcDbLine
 10
226.8195920441
 20
38.1412754714
 30
0.0
 11
227.6044806208
 21
37.6881689407
 31
0.0
  0
SPLINE
  5
299
330
1F
100
AcDbEntity
  8
0
  6
Continuous
 62
     7
370
    15
100
AcDbSpline
210
0.0
220
0.0
230
1.0
 70
     8
 71
     3
 72
    10
 73
     6
 74
     0
 42
0.000000001
 43
0.00000001
 40
0.0
 40
0.0
 40
0.0
 40
0.0
 40
0.5
 40
0.5
 40
1.0
 40
1.0
 40
1.0
 40
1.0
 10
226.2421242610796
 20
38.13447356194345
 30
0.0
 10
226.3182616514181
 20
38.17842674181617
 30
0.0
 10
226.4217694321025
 20
38.20491340799495
 30
0.0
 10
226.6362647241883
 20
38.20874147838228
 30
0.0
 10
226.7436949686065
 20
38.18508969147888
 30
0.0
 10
226.819591931449
 20
38.14127530744529
 30
0.0
  0
LINE
  5
29A
330
1F
100
AcDbEntity
  8
0
  6
Continuous
 62
     7
370
    15
100
AcDbLine
 10
226.1931048242
 20
38.1061755479
 30
0.0
 11
226.2421242432
 21
38.1344738562
 31
0.0
  0
SPLINE
  5
29B
330
1F
100
AcDbEntity
  8
0
  6
Continuous
 62
     7
370
    15
100
AcDbSpline
210
0.0
220
0.0
230
1.0
 70
     8
 71
     3
 72
     8
 73
     4
 74
     0
 42
0.000000001
 43
0.00000001
 40
0.0
 40
0.0
 40
0.0
 40
0.0
 40
1.0
 40
1.0
 40
1.0
 40
1.0
 10
225.3317697440608
 20
37.96409413887519
 30
0.0
 10
225.6189245704581
 20
38.01136580778721
 30
0.0
 10
225.9060376890433
 20
38.05872324048995
 30
0.0
 10
226.1931048187153
 20
38.10617524021325
 30
0.0
  0
LINE
  5
29C
330
1F
100
AcDbEntity
  8
0
  6
Continuous
 62
     7
370
    15
100
AcDbLine
 10
223.8751468588
 20
38.8049850596
 30
0.0
 11
225.3317700961
 21
37.9640943636
 31
0.0
  0
LINE
  5
29D
330
1F
100
AcDbEntity
  8
0
  6
Continuous
 62
     7
370
    15
100
AcDbLine
 10
223.8751468588
 20
38.8049850596
 30
0.0
 11
227.016791386
 21
40.6186178409
 31
0.0
  0
ARC
  5
29E
330
1F
100
AcDbEntity
  8
0
  6
Continuous
 62
     7
370
    15
100
AcDbCircle
 10
236.806081378
 20
38.6721137149
 30
0.0
 40
9.846261965767201
100
AcDbArc
 50
194.3179057184
 51
238.1256858466
  0
ELLIPSE
  5
29F
330
1F
100
AcDbEntity
  8
0
  6
Continuous
 62
     7
370
    15
100
AcDbEllipse
 10
226.7238988671
 20
41.6042424852
 30
0.0
 11
-7.507462979106096E-5
 21
1.066811201853405
 31
0.0
210
0.0
220
0.0
230
1.0
 40
0.7174342186
 41
3.534193645557492
 42
5.104989972352362
  0
ARC
  5
2A0
330
1F
100
AcDbEntity
  8
0
  6
Continuous
 62
     7
370
    15
100
AcDbCircle
 10
236.8686130323
 20
41.073632372
 30
0.0
 40
11.08026513689245
100
AcDbArc
 50
195.5342643695
 51
215.7345697398
  0
ARC
  5
2A1
330
1F
100
AcDbEntity
  8
0
  6
Continuous
 62
     7
370
    15
100
AcDbCircle
 10
234.290651457
 20
39.8898166233
 30
0.0
 40
9.598989501195932
100
AcDbArc
 50
194.065870688
 51
246.8527503441
  0
SPLINE
  5
2A2
330
1F
100
AcDbEntity
  8
0
  6
Continuous
 62
     7
370
    15
100
AcDbSpline
210
0.0
220
0.0
230
1.0
 70
     8
 71
     3
 72
     8
 73
     4
 74
     0
 42
0.000000001
 43
0.00000001
 40
0.0000000000000004
 40
0.0000000000000004
 40
0.0000000000000004
 40
0.0000000000000004
 40
0.0011862984959128
 40
0.0011862984959128
 40
0.0011862984959128
 40
0.0011862984959128
 10
225.3317697440612
 20
37.96409413887424
 30
0.0
 10
225.2146192750662
 20
37.82797009603946
 30
0.0
 10
225.0971795246291
 20
37.69224652087652
 30
0.0
 10
224.9794686567844
 20
37.55690474338205
 30
0.0
  0
LINE
  5
2A3
330
1F
100
AcDbEntity
  8
0
  6
Continuous
 62
     7
370
    15
100
AcDbLine
 10
223.4396110398
 20
38.5535033521
 30
0.0
 11
223.8751468588
 21
38.8049850596
 31
0.0
  0
LINE
  5
2A4
330
1F
100
AcDbEntity
  8
0
  6
Continuous
 62
     7
370
    15
100
AcDbLine
 10
224.9794688699
 20
37.5569046502
 30
0.0
 11
223.5416241939
 21
38.3869547135
 31
0.0
  0
SPLINE
  5
2A5
330
1F
100
AcDbEntity
  8
0
  6
Continuous
 62
     7
370
    15
100
AcDbSpline
210
0.0
220
0.0
230
1.0
 70
     8
 71
     3
 72
    10
 73
     6
 74
     0
 42
0.000000001
 43
0.00000001
 40
0.0
 40
0.0
 40
0.0
 40
0.0
 40
0.5
 40
0.5
 40
1.0
 40
1.0
 40
1.0
 40
1.0
 10
223.5416241187523
 20
38.38695472707728
 30
0.0
 10
223.5152146894716
 20
38.4022005660842
 30
0.0
 10
223.4929312852625
 20
38.42605798849647
 30
0.0
 10
223.458824150441
 20
38.48398408023075
 30
0.0
 10
223.4469241203861
 20
38.51788261171161
 30
0.0
 10
223.4396116284294
 20
38.55350365416597
 30
0.0
  0
ARC
  5
2A6
330
1F
100
AcDbEntity
  8
0
  6
Continuous
 62
     7
370
    15
100
AcDbCircle
 10
233.0780988814
 20
40.8112753854
 30
0.0
 40
9.835109896964653
100
AcDbArc
 50
194.9325993597
 51
238.1123668138
  0
ELLIPSE
  5
2A7
330
1F
100
AcDbEntity
  8
0
  6
Continuous
 62
     7
370
    15
100
AcDbEllipse
 10
226.6632386953
 20
41.5692127296
 30
0.0
 11
0.3250094736511642
 21
1.213179526238662
 31
0.0
210
0.0
220
0.0
230
1.0
 40
0.5176380889
 41
3.619174351347721
 42
5.189970678142625
  0
SPLINE
  5
2A8
330
1F
100
AcDbEntity
  8
0
  6
Continuous
 62
     7
370
    15
100
AcDbSpline
210
0.0
220
0.0
230
1.0
 70
     8
 71
     3
 72
    12
 73
     8
 74
     0
 42
0.000000001
 43
0.00000001
 40
0.0
 40
0.0
 40
0.0
 40
0.0
 40
0.5000000000000003
 40
0.5000000000000003
 40
0.7500000000000001
 40
0.7500000000000001
 40
1.0
 40
1.0
 40
1.0
 40
1.0
 10
253.1970957843047
 20
73.57353603058678
 30
0.0
 10
253.2601556615343
 20
73.60993972283703
 30
0.0
 10
253.3400886147654
 20
73.63677103468862
 30
0.0
 10
253.473067803072
 20
73.65052787619915
 30
0.0
 10
253.5187389721841
 20
73.65040674240021
 30
0.0
 10
253.6063767908216
 20
73.63763236077857
 30
0.0
 10
253.6471207016757
 20
73.62479237512382
 30
0.0
 10
253.6786343840143
 20
73.60659991354717
 30
0.0
  0
LINE
  5
2A9
330
1F
100
AcDbEntity
  8
0
  6
Continuous
 62
     7
370
    15
100
AcDbLine
 10
253.6786347083
 20
73.6066002851
 30
0.0
 11
254.3383030225
 21
73.2257818732
 31
0.0
  0
LINE
  5
2AA
330
1F
100
AcDbEntity
  8
0
  6
Continuous
 62
     7
370
    15
100
AcDbLine
 10
256.0081700508
 20
71.1509856566
 30
0.0
 11
257.4026696566
 21
71.45676067
 31
0.0
  0
LINE
  5
2AB
330
1F
100
AcDbEntity
  8
0
  6
Continuous
 62
     7
370
    15
100
AcDbLine
 10
257.4026696566
 20
71.45676067
 30
0.0
 11
258.8581916429
 21
70.6165057127
 31
0.0
  0
SPLINE
  5
2AC
330
1F
100
AcDbEntity
  8
0
  6
Continuous
 62
     7
370
    15
100
AcDbSpline
210
0.0
220
0.0
230
1.0
 70
     8
 71
     3
 72
    12
 73
     8
 74
     0
 42
0.000000001
 43
0.00000001
 40
0.0
 40
0.0
 40
0.0
 40
0.0
 40
0.2499999999999946
 40
0.2499999999999946
 40
0.4999999999999892
 40
0.4999999999999892
 40
1.0
 40
1.0
 40
1.0
 40
1.0
 10
258.858191556206
 20
70.61650520399638
 30
0.0
 10
258.889847686706
 20
70.59823050884647
 30
0.0
 10
258.9121469637162
 20
70.57440639804817
 30
0.0
 10
258.9339675343081
 20
70.52437449560048
 30
0.0
 10
258.9342482966342
 20
70.49798328718659
 30
0.0
 10
258.9108809225135
 20
70.42190805719166
 30
0.0
 10
258.8638425197085
 20
70.37484500224124
 30
0.0
 10
258.8009170252082
 20
70.33851888748929
 30
0.0
  0
LINE
  5
2AD
330
1F
100
AcDbEntity
  8
0
  6
Continuous
 62
     7
370
    15
100
AcDbLine
 10
253.1970960157
 20
73.5735364077
 30
0.0
 11
253.105305448
 21
73.5205468409
 31
0.0
  0
SPLINE
  5
2AE
330
1F
100
AcDbEntity
  8
0
  6
Continuous
 62
     7
370
    15
100
AcDbSpline
210
0.0
220
0.0
230
1.0
 70
     8
 71
     3
 72
    10
 73
     6
 74
     0
 42
0.000000001
 43
0.00000001
 40
0.0
 40
0.0
 40
0.0
 40
0.0
 40
0.403890055881665
 40
0.8088426875932694
 40
1.0
 40
1.0
 40
1.0
 40
1.0
 10
261.822351181215
 20
65.2625797347778
 30
0.0
 10
261.8405919457267
 20
65.30134356087073
 30
0.0
 10
261.8771214635411
 20
65.37897319502937
 30
0.0
 10
261.8910619775059
 20
65.48635313831566
 30
0.0
 10
261.8730134312601
 20
65.53960981334596
 30
0.0
 10
261.867225721078
 20
65.55668787581908
 30
0.0
  0
ARC
  5
2AF
330
1F
100
AcDbEntity
  8
0
  6
Continuous
 62
     7
370
    15
100
AcDbCircle
 10
251.5291351308
 20
62.9492528601
 30
0.0
 40
10.60668825138477
100
AcDbArc
 50
15.7413341421
 51
46.2919137943
  0
LWPOLYLINE
  5
2B0
330
1F
100
AcDbEntity
  8
0
  6
Continuous
 62
     7
370
    15
100
AcDbPolyline
 90
        3
 70
   128
 43
0.0
 10
256.0081697215
 20
71.8319754431
 10
256.0466247695
 20
71.7845113457
 10
256.4268802222
 20
71.2782301952
  0
LINE
  5
2B1
330
1F
100
AcDbEntity
  8
0
  6
Continuous
 62
     7
370
    15
100
AcDbLine
 10
261.7180693413
 20
54.5894088107
 30
0.0
 11
259.8536659604
 21
55.6657059728
 31
0.0
  0
LINE
  5
2B2
330
1F
100
AcDbEntity
  8
0
  6
Continuous
 62
     7
370
    15
100
AcDbLine
 10
259.0455794948
 20
55.5121659049
 30
0.0
 11
259.0945989138
 21
55.5404642132
 31
0.0
  0
SPLINE
  5
2B3
330
1F
100
AcDbEntity
  8
0
  6
Continuous
 62
     7
370
    15
100
AcDbSpline
210
0.0
220
0.0
230
1.0
 70
     8
 71
     3
 72
    10
 73
     6
 74
     0
 42
0.000000001
 43
0.00000001
 40
0.0
 40
0.0
 40
0.0
 40
0.0
 40
0.348286225286859
 40
0.7262043038763673
 40
0.9999999999999999
 40
0.9999999999999999
 40
0.9999999999999999
 40
0.9999999999999999
 10
258.7128541626685
 20
55.44099339390159
 30
0.0
 10
258.7555018223446
 20
55.44108101727628
 30
0.0
 10
258.8444255631027
 20
55.44126371893717
 30
0.0
 10
258.9603825178309
 20
55.46948689293713
 30
0.0
 10
259.020375467872
 20
55.49954007001158
 30
0.0
 10
259.0455794947874
 20
55.51216590493651
 30
0.0
  0
SPLINE
  5
2B4
330
1F
100
AcDbEntity
  8
0
  6
Continuous
 62
     7
370
    15
100
AcDbSpline
210
0.0
220
0.0
230
1.0
 70
     8
 71
     3
 72
     8
 73
     4
 74
     0
 42
0.000000001
 43
0.00000001
 40
0.0
 40
0.0
 40
0.0
 40
0.0
 40
1.0
 40
1.0
 40
1.0
 40
1.0
 10
259.0945990815418
 20
55.54046409381454
 30
0.0
 10
259.3475850352227
 20
55.58228249851238
 30
0.0
 10
259.60060829757
 20
55.62402770308775
 30
0.0
 10
259.8536657865747
 20
55.66570575448485
 30
0.0
  0
LWPOLYLINE
  5
2B5
330
1F
100
AcDbEntity
  8
0
  6
Continuous
 62
     7
370
    15
100
AcDbPolyline
 90
       25
 70
   128
 43
0.0
 10
267.3749106886
 20
44.1212141807
 10
266.9378859005
 20
44.4500038094
 10
266.6631602295
 20
44.8328882532
 10
266.5694555199
 20
45.2437746155
 10
266.6631603942
 20
45.6546600274
 10
266.9378845422
 20
46.0375458731
 10
267.3749120057
 20
46.3663357157
 10
267.9444544292
 20
46.6186263002
 10
268.6077040319
 20
46.7772211751
 10
269.3194555611
 20
46.8313158475
 10
270.0312087366
 20
46.7772212701
 10
270.6944559109
 20
46.6186255161
 10
271.263997964
 20
46.366336476
 10
271.7010253863
 20
46.0375453266
 10
271.9757510573
 20
45.6546608828
 10
272.0694557669
 20
45.2437745205
 10
271.9757508926
 20
44.8328891086
 10
271.7010241104
 20
44.4500047836
 10
271.2639992811
 20
44.1212134203
 10
270.6944542234
 20
43.8689243565
 10
270.0312072549
 20
43.710327961
 10
269.3194557257
 20
43.6562332885
 10
268.6077025502
 20
43.7103278659
 10
267.9444553758
 20
43.8689236199
 10
267.3749106886
 20
44.1212141807
  0
LWPOLYLINE
  5
2B6
330
1F
100
AcDbEntity
  8
0
  6
Continuous
 62
     7
370
    15
100
AcDbPolyline
 90
        8
 70
   128
 43
0.0
 10
267.1981339643
 20
43.8150282938
 10
266.7372296938
 20
44.1580495735
 10
266.4385739972
 20
44.5564655633
 10
266.3209350636
 20
44.9852411412
 10
266.3917057961
 20
45.4174337315
 10
266.6464343926
 20
45.8258900731
 10
267.0691218539
 20
46.1849416874
 10
267.1977902339
 20
46.2640530787
  0
LWPOLYLINE
  5
2B7
330
1F
100
AcDbEntity
  8
0
  6
Continuous
 62
     7
370
    15
100
AcDbPolyline
 90
       14
 70
   128
 43
0.0
 10
271.4411197656
 20
46.2640534416
 10
271.6899203503
 20
46.1011111129
 10
272.0727181141
 20
45.7274463534
 10
272.282521504
 20
45.3105623872
 10
272.3061422607
 20
44.8766565624
 10
272.1420966835
 20
44.4529927456
 10
271.8006981967
 20
44.066187731
 10
271.3033918187
 20
43.7405496671
 10
270.6814261551
 20
43.4965389103
 10
269.9738849891
 20
43.3494857009
 10
269.2252243451
 20
43.3086306267
 10
268.4824827815
 20
43.3765421375
 10
267.7923312652
 20
43.5489524013
 10
267.1981339643
 20
43.8150282938
  0
LWPOLYLINE
  5
2B8
330
1F
100
AcDbEntity
  8
0
  6
Continuous
 62
     7
370
    15
100
AcDbPolyline
 90
       20
 70
   128
 43
0.0
 10
268.082017421
 20
44.5294182085
 10
267.7472714274
 20
44.8000747176
 10
267.5828955078
 20
45.1188131835
 10
267.6066999573
 20
45.4510947893
 10
267.8161111016
 20
45.7609082974
 10
268.1884321631
 20
46.0146828028
 10
268.6833168364
 20
46.1849176408
 10
269.2471360965
 20
46.253165578
 10
269.818792736
 20
46.2120299861
 10
270.3363394898
 20
46.065968378
 10
270.7436914148
 20
45.8308091172
 10
270.9967023215
 20
45.5320372565
 10
271.0679616117
 20
45.2020253823
 10
270.9497399074
 20
44.8765394515
 10
270.6548525671
 20
44.5908486108
 10
270.2152545986
 20
44.375912237
 10
269.6785810782
 20
44.2550232773
 10
269.1029927222
 20
44.2412797404
 10
268.5508616804
 20
44.336171939
 10
268.082017421
 20
44.5294182085
  0
SPLINE
  5
2B9
330
1F
100
AcDbEntity
  8
0
  6
Continuous
 62
     7
370
    15
100
AcDbSpline
210
0.0
220
0.0
230
1.0
 70
     8
 71
     3
 72
     9
 73
     5
 74
     0
 42
0.000000001
 43
0.00000001
 40
0.0
 40
0.0
 40
0.0
 40
0.0
 40
0.6311758463587019
 40
1.0
 40
1.0
 40
1.0
 40
1.0
 10
268.2589627326961
 20
44.4318568715885
 30
0.0
 10
268.1239952864608
 20
44.52479178947159
 30
0.0
 10
267.9101603512141
 20
44.67203271831771
 30
0.0
 10
267.7174848781452
 20
44.88995356402954
 30
0.0
 10
267.6464215098631
 20
44.97032803551001
 30
0.0
  0
SPLINE
  5
2BA
330
1F
100
AcDbEntity
  8
0
  6
Continuous
 62
     7
370
    15
100
AcDbSpline
210
0.0
220
0.0
230
1.0
 70
     8
 71
     3
 72
    10
 73
     6
 74
     0
 42
0.000000001
 43
0.00000001
 40
0.0
 40
0.0
 40
0.0
 40
0.0
 40
0.4391285493055155
 40
0.751376477880981
 40
1.0
 40
1.0
 40
1.0
 40
1.0
 10
270.9924871427401
 20
45.48790981857604
 30
0.0
 10
270.9283102561549
 20
45.26575200185684
 30
0.0
 10
270.8184995798051
 20
44.88562604984532
 30
0.0
 10
270.6588703838773
 20
44.60552023033483
 30
0.0
 10
270.5794189077751
 20
44.54771325264894
 30
0.0
 10
270.5441995971797
 20
44.52208853173023
 30
0.0
  0
SPLINE
  5
2BB
330
1F
100
AcDbEntity
  8
0
  6
Continuous
 62
     7
370
    15
100
AcDbSpline
210
0.0
220
0.0
230
1.0
 70
     8
 71
     3
 72
    11
 73
     7
 74
     0
 42
0.000000001
 43
0.00000001
 40
0.0
 40
0.0
 40
0.0
 40
0.0
 40
0.184365219164806
 40
0.5174540947918765
 40
0.8663360111936443
 40
1.0
 40
1.0
 40
1.0
 40
1.0
 10
269.767741871862
 20
46.19494021388882
 30
0.0
 10
269.8388125724956
 20
46.11580606239009
 30
0.0
 10
270.0382852562759
 20
45.8937018557702
 30
0.0
 10
270.4099193653225
 20
45.59957898574421
 30
0.0
 10
270.7559504585764
 20
45.49525287502912
 30
0.0
 10
270.9411792409821
 20
45.48950262360088
 30
0.0
 10
270.9924871427401
 20
45.48790981857604
 30
0.0
  0
SPLINE
  5
2BC
330
1F
100
AcDbEntity
  8
0
  6
Continuous
 62
     7
370
    15
100
AcDbSpline
210
0.0
220
0.0
230
1.0
 70
     8
 71
     3
 72
    10
 73
     6
 74
     0
 42
0.000000001
 43
0.00000001
 40
0.0
 40
0.0
 40
0.0
 40
0.0
 40
0.4391279662407926
 40
0.7513762451528099
 40
1.0
 40
1.0
 40
1.0
 40
1.0
 10
268.0947116896015
 20
45.9361478016772
 30
0.0
 10
268.3342256028981
 20
45.88930822231743
 30
0.0
 10
268.7440493414662
 20
45.8091626839561
 30
0.0
 10
269.3397908462933
 20
45.96512297041525
 30
0.0
 10
269.6363035217616
 20
46.12435550325135
 30
0.0
 10
269.767741871862
 20
46.19494021388882
 30
0.0
  0
SPLINE
  5
2BD
330
1F
100
AcDbEntity
  8
0
  6
Continuous
 62
     7
370
    15
100
AcDbSpline
210
0.0
220
0.0
230
1.0
 70
     8
 71
     3
 72
    10
 73
     6
 74
     0
 42
0.000000001
 43
0.00000001
 40
0.0
 40
0.0
 40
0.0
 40
0.0
 40
0.4391279938880447
 40
0.7513762316751033
 40
1.0
 40
1.0
 40
1.0
 40
1.0
 10
267.6464215098631
 20
44.97032803551001
 30
0.0
 10
267.7105995961244
 20
45.02470769182295
 30
0.0
 10
267.8204124281059
 20
45.11775478016371
 30
0.0
 10
267.980040810978
 20
45.52547778086765
 30
0.0
 10
268.0594923507726
 20
45.81001702825498
 30
0.0
 10
268.0947116896015
 20
45.9361478016772
 30
0.0
  0
LINE
  5
2BE
330
1F
100
AcDbEntity
  8
0
  6
Continuous
 62
     7
370
    15
100
AcDbLine
 10
268.0947116896
 20
44.5590263125
 30
0.0
 11
268.0947116896
 21
45.9361478017
 31
0.0
  0
LINE
  5
2BF
330
1F
100
AcDbEntity
  8
0
  6
Continuous
 62
     7
370
    15
100
AcDbLine
 10
269.7677418719
 20
44.2672306636
 30
0.0
 11
269.7677418719
 21
46.1949402139
 31
0.0
  0
ARC
  5
2C0
330
1F
100
AcDbEntity
  8
0
  6
Continuous
 62
     7
370
    15
100
AcDbCircle
 10
238.5770666926
 20
64.8366607876
 30
0.0
 40
1.55690100662432
100
AcDbArc
 50
79.543651949
 51
142.8274205623
  0
ARC
  5
2C1
330
1F
100
AcDbEntity
  8
0
  6
Continuous
 62
     7
370
    15
100
AcDbCircle
 10
238.5449885758
 20
64.9202811386
 30
0.0
 40
1.462816222113416
100
AcDbArc
 50
78.2289829239
 51
144.4134981149
  0
ARC
  5
2C2
330
1F
100
AcDbEntity
  8
0
  6
Continuous
 62
     7
370
    15
100
AcDbCircle
 10
238.5166653274
 20
64.9937675655
 30
0.0
 40
1.249041798584939
100
AcDbArc
 50
80.6613934525
 51
142.2173857776
  0
LWPOLYLINE
  5
2C3
330
1F
100
AcDbEntity
  8
0
  6
Continuous
 62
     7
370
     0
100
AcDbPolyline
 90
        8
 70
   128
 43
0.0
 10
239.4441941804
 20
45.3444324382
 10
239.5077127738
 20
44.2620113556
 10
239.6971819557
 20
43.2714478852
 10
240.0093597113
 20
42.389690958
 10
240.4389045863
 20
41.6318273279
 10
240.9784672238
 20
41.0108245276
 10
241.6188151592
 20
40.5373080404
 10
241.6192418961
 20
40.5370619907
  0
LWPOLYLINE
  5
2C4
330
1F
100
AcDbEntity
  8
0
  6
Continuous
 62
     7
370
     0
100
AcDbPolyline
 90
       19
 70
   128
 43
0.0
 10
252.1183886694
 20
58.7240879442
 10
251.388638378
 20
59.0417698292
 10
250.5811258339
 20
59.1986697789
 10
249.7100946965
 20
59.1918567737
 10
248.790448651
 20
59.021447762
 10
247.8379227953
 20
58.6903583081
 10
246.8688152828
 20
58.2042533766
 10
245.8997077703
 20
57.5714505907
 10
244.9471819146
 20
56.8027771008
 10
244.0275358691
 20
55.9113853894
 10
243.1565047316
 20
54.9125272497
 10
242.3489921875
 20
53.8232931618
 10
241.6188151592
 20
52.6623207749
 10
240.9784672238
 20
51.4494742986
 10
240.4389045863
 20
50.2055057372
 10
240.0093597113
 20
48.9517001509
 10
239.6971819557
 20
47.709510459
 10
239.5077127738
 20
46.5001905277
 10
239.4441941804
 20
45.3444324382
  0
LWPOLYLINE
  5
2C5
330
1F
100
AcDbEntity
  8
0
  6
Continuous
 62
     7
370
     0
100
AcDbPolyline
 90
       19
 70
   128
 43
0.0
 10
228.7211811285
 20
46.6669559305
 10
229.2159824958
 20
48.6133701659
 10
229.835705805
 20
50.5750317475
 10
230.5755226078
 20
52.5366493605
 10
231.4296653714
 20
54.4829336791
 10
232.3914748937
 20
56.3987125726
 10
233.453455621
 20
58.269054295
 10
234.6073296491
 20
60.0793777471
 10
235.8441025768
 20
61.8155749049
 10
237.1541333128
 20
63.4641104335
 10
238.5272111243
 20
65.0121346088
 10
239.9526326874
 20
66.4475810299
 10
241.4192873686
 20
67.7592599575
 10
242.915743329
 20
68.9369490862
 10
244.4303353582
 20
69.971467064
 10
245.9512578935
 20
70.8547500043
 10
247.4666554873
 20
71.579912838
 10
248.964716156
 20
72.1413047233
 10
249.75975455
 20
72.3740846201
  0
LINE
  5
2C6
330
1F
100
AcDbEntity
  8
0
  6
Continuous
 62
     7
370
     0
100
AcDbLine
 10
229.0799067856
 20
46.3324451009
 30
0.0
 11
229.1600832623
 21
46.6964122279
 31
0.0
  0
LWPOLYLINE
  5
2C7
330
1F
100
AcDbEntity
  8
0
  6
Continuous
 62
     7
370
     0
100
AcDbPolyline
 90
        9
 70
   128
 43
0.0
 10
245.6530927508
 20
70.2082456852
 10
246.6636432718
 20
70.7432936249
 10
248.1072362182
 20
71.3860840098
 10
249.5314849136
 20
71.8761759268
 10
250.9260026293
 20
72.2099945588
 10
252.2806201212
 20
72.3851050974
 10
253.5854588922
 20
72.4002322226
 10
254.8310036328
 20
72.2552654196
 10
256.0081703801
 20
71.9512618237
  0
LINE
  5
2C8
330
1F
100
AcDbEntity
  8
0
  6
Continuous
 62
     7
370
     0
100
AcDbLine
 10
261.8223511812
 20
54.5291882355
 30
0.0
 11
261.5304170837
 21
53.2906394514
 31
0.0
  0
LWPOLYLINE
  5
2C9
330
1F
100
AcDbEntity
  8
0
  6
Continuous
 62
     7
370
     0
100
AcDbPolyline
 90
       20
 70
   128
 43
0.0
 10
251.0312703104
 20
35.1036134979
 10
249.7996284321
 20
33.9587516127
 10
248.3650985399
 20
32.7687549502
 10
246.9088924905
 20
31.7104149844
 10
245.4418555912
 20
30.7916169266
 10
243.9749137177
 20
30.0192035165
 10
242.5189918303
 20
29.3989264615
 10
241.0849327974
 20
28.9354041373
 10
239.6834170584
 20
28.6320904198
 10
238.3248825438
 20
28.4912436648
 10
237.0194464729
 20
28.5139135024
 10
235.7768315968
 20
28.6999301976
 10
234.6062924415
 20
29.0479076988
 10
233.5165461605
 20
29.5552569526
 10
232.5157086566
 20
30.218196176
 10
231.6112346533
 20
31.0317915468
 10
230.809858427
 20
31.9899807832
 10
230.1175503421
 20
33.0856294227
 10
229.5394641679
 20
34.3105772149
 10
229.0799067856
 20
35.6557012428
  0
ARC
  5
2CA
330
1F
100
AcDbEntity
  8
0
  6
Continuous
 62
     7
370
     0
100
AcDbCircle
 10
251.6422117785
 20
62.6401084403
 30
0.0
 40
10.51249703684707
100
AcDbArc
 50
14.4456939373
 51
47.0804331381
  0
LWPOLYLINE
  5
2CB
330
1F
100
AcDbEntity
  8
0
  6
Continuous
 62
     7
370
     0
100
AcDbPolyline
 90
       26
 70
   128
 43
0.0
 10
236.615766592
 20
45.3444324382
 10
236.677805436
 20
46.5874325854
 10
236.8630513719
 20
47.8846125178
 10
237.1689038075
 20
49.2177621499
 10
237.5910696913
 20
50.5681681285
 10
238.123621464
 20
51.9168720995
 10
238.7590846455
 20
53.2449422801
 10
239.4885385919
 20
54.5337359993
 10
240.3017422776
 20
55.7651593835
 10
241.1872808213
 20
56.9219276122
 10
242.1327235369
 20
57.9878021666
 10
243.1247981184
 20
58.9478206639
 10
244.1495779135
 20
59.7885053486
 10
245.1926774084
 20
60.498055032
 10
246.2394537631
 20
61.066510866
 10
247.2752124829
 20
61.4858910445
 10
248.2854136666
 20
61.7503091073
 10
249.255876793
 20
61.8560533773
 10
250.1729780579
 20
61.8016392836
 10
251.023843904
 20
61.5878313486
 10
251.7965293217
 20
61.2176297688
 10
252.4801887416
 20
60.6962318048
 10
253.0652238774
 20
60.030957052
 10
253.5434226792
 20
59.2311443852
 10
253.9080719441
 20
58.3080211478
 10
254.0956155418
 20
57.5826594055
  0
LWPOLYLINE
  5
2CC
330
1F
100
AcDbEntity
  8
0
  6
Continuous
 62
     7
370
     0
100
AcDbPolyline
 90
       13
 70
   128
 43
0.0
 10
243.5964687685
 20
39.3956328816
 10
243.1247981184
 20
39.2562120479
 10
242.1327235369
 20
39.0708056145
 10
241.1872808213
 20
39.0450952445
 10
240.3017422776
 20
39.1794424334
 10
239.4885385919
 20
39.4719608274
 10
238.7590846455
 20
39.9185449469
 10
238.123621464
 20
40.5129249552
 10
237.5910696913
 20
41.2467577373
 10
237.1689038075
 20
42.1097413616
 10
236.8630513719
 20
43.089761288
 10
236.677805436
 20
44.1730608154
 10
236.615766592
 20
45.3444324382
  0
LINE
  5
2CD
330
1F
100
AcDbEntity
  8
0
  6
Continuous
 62
     7
370
     0
100
AcDbLine
 10
268.5769941258
 20
27.5663125154
 30
0.0
 11
269.7437189914
 21
26.8927765872
 31
0.0
  0
LWPOLYLINE
  5
2CE
330
1F
100
AcDbEntity
  8
0
  6
Continuous
 62
     7
370
     0
100
AcDbPolyline
 90
       19
 70
   128
 43
0.0
 10
223.5416241939
 20
49.6570505029
 10
224.0364255612
 20
51.6034647382
 10
224.6561488705
 20
53.5651263199
 10
225.3959656733
 20
55.5267439329
 10
226.2501084368
 20
57.4730282515
 10
227.2119179591
 20
59.388807145
 10
228.2738986865
 20
61.2591488674
 10
229.4277727145
 20
63.0694723195
 10
230.6645456422
 20
64.8056694773
 10
231.9745763782
 20
66.4542050059
 10
233.3476541897
 20
68.0022291812
 10
234.7730757528
 20
69.4376756023
 10
236.239730434
 20
70.7493545299
 10
237.7361863944
 20
71.9270436586
 10
239.2507784236
 20
72.9615616363
 10
240.7717009589
 20
73.8448445767
 10
242.2870985527
 20
74.5700074104
 10
243.7851592214
 20
75.1313992956
 10
244.5803039704
 20
75.3642071295
  0
LWPOLYLINE
  5
2CF
330
1F
100
AcDbEntity
  8
0
  6
Continuous
 62
     7
370
     0
100
AcDbPolyline
 90
       19
 70
   128
 43
0.0
 10
226.8195920441
 20
48.6338245707
 10
227.2957750411
 20
50.5048706957
 10
227.8954785973
 20
52.3907114428
 10
228.613750458
 20
54.2757707154
 10
229.4446584542
 20
56.1444801133
 10
230.3813392351
 20
57.9814059257
 10
231.4160568784
 20
59.7713757426
 10
232.540265452
 20
61.4996058267
 10
233.7446801368
 20
63.1518250618
 10
235.0193536181
 20
64.7143836922
 10
236.3537570863
 20
66.1743776506
 10
237.7368707868
 20
67.519749501
 10
239.1572706188
 20
68.7393871009
 10
240.6032255997
 20
69.8232178892
 10
242.0627931895
 20
70.7622897717
 10
243.5239184841
 20
71.5488451143
 10
244.9745339022
 20
72.1763904586
 10
246.4026586259
 20
72.6397417602
 10
246.8354685645
 20
72.7485880273
  0
LINE
  5
2D0
330
1F
100
AcDbEntity
  8
0
  6
Continuous
 62
     7
370
     0
100
AcDbLine
 10
238.0401183497
 20
66.6164713187
 30
0.0
 11
238.400345159
 21
66.9549592846
 31
0.0
  0
LWPOLYLINE
  5
2D1
330
1F
100
AcDbEntity
  8
0
  6
Continuous
 62
     7
370
     0
100
AcDbPolyline
 90
       21
 70
   128
 43
0.0
 10
226.2421242432
 20
48.6270229555
 10
226.7168623936
 20
50.5202458349
 10
227.316332825
 20
52.4293286312
 10
228.035630698
 20
54.3386564597
 10
228.8688738931
 20
56.2326160484
 10
229.8092491087
 20
58.0957181677
 10
230.849064545
 20
59.9127246237
 10
231.9798164168
 20
61.6687779101
 10
233.1922587592
 20
63.3495160317
 10
234.4764745504
 20
64.9411926513
 10
235.8219619812
 20
66.4307915307
 10
237.2177174314
 20
67.8061307067
 10
238.6523260197
 20
69.0559619129
 10
240.1140552818
 20
70.170065724
 10
241.5909509475
 20
71.1393266187
 10
243.0709348576
 20
71.9558214457
 10
244.5419034169
 20
72.6128732168
 10
245.9918269517
 20
73.1051054239
 10
247.4088474625
 20
73.4284939068
 10
248.7813763772
 20
73.5803943879
 10
250.081587556
 20
73.5609349544
  0
LINE
  5
2D2
330
1F
100
AcDbEntity
  8
0
  6
Continuous
 62
     7
370
     0
100
AcDbLine
 10
276.2137475607
 20
31.9749164336
 30
0.0
 11
277.3804724263
 21
31.3013805054
 31
0.0
  0
LWPOLYLINE
  5
2D3
330
1F
100
AcDbEntity
  8
0
  6
Continuous
 62
     7
370
     0
100
AcDbPolyline
 90
        3
 70
   128
 43
0.0
 10
227.2912481238
 20
46.5545196046
 10
227.2907963623
 20
46.6761985219
 10
227.3030610952
 20
47.3186419349
  0
LWPOLYLINE
  5
2D4
330
1F
100
AcDbEntity
  8
0
  6
Continuous
 62
     7
370
     0
100
AcDbPolyline
 90
       18
 70
   128
 43
0.0
 10
196.2058423918
 20
70.5675050213
 10
196.2700629937
 20
71.7123976462
 10
196.4615795904
 20
72.9110076915
 10
196.7769736775
 20
74.1419452726
 10
197.2106173334
 20
75.383244662
 10
197.7547720018
 20
76.6127544919
 10
198.3997277732
 20
77.8085342276
 10
199.1339752651
 20
78.9492456
 10
199.9444114175
 20
80.0145330074
 10
200.8165742637
 20
80.9853849037
 10
201.7349000921
 20
81.8444773135
 10
202.6830011049
 20
82.5764797493
 10
203.6439586146
 20
83.1683294146
 10
204.6006242663
 20
83.6094644115
 10
205.535926302
 20
83.8920134718
 10
206.433174261
 20
84.0109338329
 10
207.276356539
 20
83.964103167
 10
207.9404693701
 20
83.7940893723
  0
ARC
  5
2D5
330
1F
100
AcDbEntity
  8
0
  6
Continuous
 62
     7
370
     0
100
AcDbCircle
 10
201.604032494
 20
70.1214896252
 30
0.0
 40
5.416584358434783
100
AcDbArc
 50
175.2767713466
 51
224.7160200036
  0
LINE
  5
2D6
330
1F
100
AcDbEntity
  8
0
  6
Continuous
 62
     7
370
     0
100
AcDbLine
 10
232.9741662696
 20
47.6719153039
 30
0.0
 11
232.2669447858
 21
48.0801855762
 31
0.0
  0
LINE
  5
2D7
330
1F
100
AcDbEntity
  8
0
  6
Continuous
 62
     7
370
     0
100
AcDbLine
 10
227.4310050979
 20
42.012446166
 30
0.0
 11
232.9741662696
 21
38.8124473355
 31
0.0
  0
LINE
  5
2D8
330
1F
100
AcDbEntity
  8
0
  6
Continuous
 62
     7
370
     0
100
AcDbLine
 10
227.3703449169
 20
41.9774164051
 30
0.0
 11
227.4310050979
 21
42.012446166
 31
0.0
  0
LINE
  5
2D9
330
1F
100
AcDbEntity
  8
0
  6
Continuous
 62
     7
370
     0
100
AcDbLine
 10
228.7477599848
 20
35.3093131591
 30
0.0
 11
228.7211811285
 21
35.3968601411
 31
0.0
  0
LINE
  5
2DA
330
1F
100
AcDbEntity
  8
0
  6
Continuous
 62
     7
370
     0
100
AcDbLine
 10
232.2670593725
 20
37.5877026472
 30
0.0
 11
227.016791386
 21
40.6186178409
 31
0.0
  0
LINE
  5
2DB
330
1F
100
AcDbEntity
  8
0
  6
Continuous
 62
     7
370
     0
100
AcDbLine
 10
227.6819267721
 20
37.4381420075
 30
0.0
 11
227.6044806208
 21
37.6881689407
 31
0.0
  0
LWPOLYLINE
  5
2DC
330
1F
100
AcDbEntity
  8
0
  6
Continuous
 62
     7
370
     0
100
AcDbPolyline
 90
        3
 70
   128
 43
0.0
 10
227.2909452757
 20
36.8313217454
 10
227.2820312172
 20
36.8522771368
 10
226.8195920441
 20
38.1412754714
  0
ARC
  5
2DD
330
1F
100
AcDbEntity
  8
0
  6
Continuous
 62
     7
370
     0
100
AcDbCircle
 10
236.980766193
 20
41.1422916927
 30
0.0
 40
11.15192355892386
100
AcDbArc
 50
195.6471844777
 51
214.1548056384
  0
LINE
  5
2DE
330
1F
100
AcDbEntity
  8
0
  6
Continuous
 62
     7
370
     0
100
AcDbLine
 10
223.575124353
 20
38.2769388257
 30
0.0
 11
223.5416241939
 21
38.3869547135
 31
0.0
  0
OLE2FRAME
  5
2DF
330
1F
100
AcDbEntity
  8
0
100
AcDbOle2Frame
 70
     2
  3
Paintbrush-Bild
 10
13.8511154363
 20
38.264191557
 30
0.0
 11
51.6290888628
 21
31.9806341108
 31
0.0
 71
     2
 72
     0
 73
     1
 90
    12928
310
80552BED0767C5B32B40DDAF6807D121434000000000000000006FFBDDFB85D0
310
4940DDAF6807D121434000000000000000006FFBDDFB85D04940416F4BD60AFB
310
3F4000000000000000002BED0767C5B32B40416F4BD60AFB3F40000000000000
310
0000000000000100000000010000010000000100000000000100000000320000
310
D0CF11E0A1B11AE1000000000000000000000000000000003E000300FEFF0900
310
0600000000000000000000000100000001000000000000000010000002000000
310
01000000FEFFFFFF0000000000000000FFFFFFFFFFFFFFFFFFFFFFFFFFFFFFFF
310
FFFFFFFFFFFFFFFFFFFFFFFFFFFFFFFFFFFFFFFFFFFFFFFFFFFFFFFFFFFFFFFF
310
FFFFFFFFFFFFFFFFFFFFFFFFFFFFFFFFFFFFFFFFFFFFFFFFFFFFFFFFFFFFFFFF
310
FFFFFFFFFFFFFFFFFFFFFFFFFFFFFFFFFFFFFFFFFFFFFFFFFFFFFFFFFFFFFFFF
310
FFFFFFFFFFFFFFFFFFFFFFFFFFFFFFFFFFFFFFFFFFFFFFFFFFFFFFFFFFFFFFFF
310
FFFFFFFFFFFFFFFFFFFFFFFFFFFFFFFFFFFFFFFFFFFFFFFFFFFFFFFFFFFFFFFF
310
FFFFFFFFFFFFFFFFFFFFFFFFFFFFFFFFFFFFFFFFFFFFFFFFFFFFFFFFFFFFFFFF
310
FFFFFFFFFFFFFFFFFFFFFFFFFFFFFFFFFFFFFFFFFFFFFFFFFFFFFFFFFFFFFFFF
310
FFFFFFFFFFFFFFFFFFFFFFFFFFFFFFFFFFFFFFFFFFFFFFFFFFFFFFFFFFFFFFFF
310
FFFFFFFFFFFFFFFFFFFFFFFFFFFFFFFFFFFFFFFFFFFFFFFFFFFFFFFFFFFFFFFF
310
FFFFFFFFFFFFFFFFFFFFFFFFFFFFFFFFFFFFFFFFFFFFFFFFFFFFFFFFFFFFFFFF
310
FFFFFFFFFFFFFFFFFFFFFFFFFFFFFFFFFFFFFFFFFFFFFFFFFFFFFFFFFFFFFFFF
310
FFFFFFFFFFFFFFFFFFFFFFFFFFFFFFFFFFFFFFFFFFFFFFFFFFFFFFFFFFFFFFFF
310
FFFFFFFFFFFFFFFFFFFFFFFFFFFFFFFFFFFFFFFFFFFFFFFFFFFFFFFFFFFFFFFF
310
FDFFFFFFFEFFFFFFFEFFFFFFFEFFFFFF05000000060000000700000008000000
310
090000000A0000000B0000000C0000000D0000000E0000000F00000010000000
310
11000000120000001300000014000000150000001600000017000000FEFFFFFF
310
FFFFFFFFFFFFFFFFFFFFFFFFFFFFFFFFFFFFFFFFFFFFFFFFFFFFFFFFFFFFFFFF
310
FFFFFFFFFFFFFFFFFFFFFFFFFFFFFFFFFFFFFFFFFFFFFFFFFFFFFFFFFFFFFFFF
310
FFFFFFFFFFFFFFFFFFFFFFFFFFFFFFFFFFFFFFFFFFFFFFFFFFFFFFFFFFFFFFFF
310
FFFFFFFFFFFFFFFFFFFFFFFFFFFFFFFFFFFFFFFFFFFFFFFFFFFFFFFFFFFFFFFF
310
FFFFFFFFFFFFFFFFFFFFFFFFFFFFFFFFFFFFFFFFFFFFFFFFFFFFFFFFFFFFFFFF
310
FFFFFFFFFFFFFFFFFFFFFFFFFFFFFFFFFFFFFFFFFFFFFFFFFFFFFFFFFFFFFFFF
310
FFFFFFFFFFFFFFFFFFFFFFFFFFFFFFFFFFFFFFFFFFFFFFFFFFFFFFFFFFFFFFFF
310
FFFFFFFFFFFFFFFFFFFFFFFFFFFFFFFFFFFFFFFFFFFFFFFFFFFFFFFFFFFFFFFF
310
FFFFFFFFFFFFFFFFFFFFFFFFFFFFFFFFFFFFFFFFFFFFFFFFFFFFFFFFFFFFFFFF
310
FFFFFFFFFFFFFFFFFFFFFFFFFFFFFFFFFFFFFFFFFFFFFFFFFFFFFFFFFFFFFFFF
310
FFFFFFFFFFFFFFFFFFFFFFFFFFFFFFFFFFFFFFFFFFFFFFFFFFFFFFFFFFFFFFFF
310
FFFFFFFFFFFFFFFFFFFFFFFFFFFFFFFFFFFFFFFFFFFFFFFFFFFFFFFFFFFFFFFF
310
FFFFFFFFFFFFFFFFFFFFFFFFFFFFFFFFFFFFFFFFFFFFFFFFFFFFFFFFFFFFFFFF
310
52006F006F007400200045006E00740072007900000000000000000000000000
310
0000000000000000000000000000000000000000000000000000000000000000
310
16000500FFFFFFFFFFFFFFFF020000000A00030000000000C000000000000046
310
00000000000000000000000090D51B226703D20103000000C000000000000000
310
01004F006C006500000000000000000000000000000000000000000000000000
310
0000000000000000000000000000000000000000000000000000000000000000
310
0A000200FFFFFFFFFFFFFFFFFFFFFFFF00000000000000000000000000000000
310
0000000000000000000000000000000000000000000000001400000000000000
310
010043006F006D0070004F0062006A0000000000000000000000000000000000
310
0000000000000000000000000000000000000000000000000000000000000000
310
120002010100000003000000FFFFFFFF00000000000000000000000000000000
310
0000000000000000000000000000000000000000010000004D00000000000000
310
01004F006C006500310030004E00610074006900760065000000000000000000
310
0000000000000000000000000000000000000000000000000000000000000000
310
1A000200FFFFFFFFFFFFFFFFFFFFFFFF00000000000000000000000000000000
310
0000000000000000000000000000000000000000040000002426000000000000
310
FEFFFFFF02000000FEFFFFFFFFFFFFFFFFFFFFFFFFFFFFFFFFFFFFFFFFFFFFFF
310
FFFFFFFFFFFFFFFFFFFFFFFFFFFFFFFFFFFFFFFFFFFFFFFFFFFFFFFFFFFFFFFF
310
FFFFFFFFFFFFFFFFFFFFFFFFFFFFFFFFFFFFFFFFFFFFFFFFFFFFFFFFFFFFFFFF
310
FFFFFFFFFFFFFFFFFFFFFFFFFFFFFFFFFFFFFFFFFFFFFFFFFFFFFFFFFFFFFFFF
310
FFFFFFFFFFFFFFFFFFFFFFFFFFFFFFFFFFFFFFFFFFFFFFFFFFFFFFFFFFFFFFFF
310
FFFFFFFFFFFFFFFFFFFFFFFFFFFFFFFFFFFFFFFFFFFFFFFFFFFFFFFFFFFFFFFF
310
FFFFFFFFFFFFFFFFFFFFFFFFFFFFFFFFFFFFFFFFFFFFFFFFFFFFFFFFFFFFFFFF
310
FFFFFFFFFFFFFFFFFFFFFFFFFFFFFFFFFFFFFFFFFFFFFFFFFFFFFFFFFFFFFFFF
310
FFFFFFFFFFFFFFFFFFFFFFFFFFFFFFFFFFFFFFFFFFFFFFFFFFFFFFFFFFFFFFFF
310
FFFFFFFFFFFFFFFFFFFFFFFFFFFFFFFFFFFFFFFFFFFFFFFFFFFFFFFFFFFFFFFF
310
FFFFFFFFFFFFFFFFFFFFFFFFFFFFFFFFFFFFFFFFFFFFFFFFFFFFFFFFFFFFFFFF
310
FFFFFFFFFFFFFFFFFFFFFFFFFFFFFFFFFFFFFFFFFFFFFFFFFFFFFFFFFFFFFFFF
310
FFFFFFFFFFFFFFFFFFFFFFFFFFFFFFFFFFFFFFFFFFFFFFFFFFFFFFFFFFFFFFFF
310
FFFFFFFFFFFFFFFFFFFFFFFFFFFFFFFFFFFFFFFFFFFFFFFFFFFFFFFFFFFFFFFF
310
FFFFFFFFFFFFFFFFFFFFFFFFFFFFFFFFFFFFFFFFFFFFFFFFFFFFFFFFFFFFFFFF
310
FFFFFFFFFFFFFFFFFFFFFFFFFFFFFFFFFFFFFFFFFFFFFFFFFFFFFFFFFFFFFFFF
310
0100000200000000000000000000000000000000000000000000000000000000
310
0000000000000000000000000000000000000000000000000000000000000000
310
0100FEFF030A0000FFFFFFFF0A00030000000000C00000000000004607000000
310
5042727573680007000000504272757368000700000050427275736800F439B2
310
7100000000000000000000000000000000000000000000000000000000000000
310
0000000000000000000000000000000000000000000000000000000000000000
310
0000000000000000000000000000000000000000000000000000000000000000
310
0000000000000000000000000000000000000000000000000000000000000000
310
0000000000000000000000000000000000000000000000000000000000000000
310
0000000000000000000000000000000000000000000000000000000000000000
310
0000000000000000000000000000000000000000000000000000000000000000
310
0000000000000000000000000000000000000000000000000000000000000000
310
0000000000000000000000000000000000000000000000000000000000000000
310
0000000000000000000000000000000000000000000000000000000000000000
310
0000000000000000000000000000000000000000000000000000000000000000
310
0000000000000000000000000000000000000000000000000000000000000000
310
20260000424D0E260000000000003E00000028000000B40200006E0000000100
310
01000000000000000000130B0000130B00000200000002000000000000FFFFFF
310
FFFFFFFFFFFFFFFFFFFFFFFFFFFFFFFFFFFFFFFFFFFFFFFFFFFFFFFFFFFFFFFF
310
FFFFFFFFFFFFFFFFFFFFFFFFFFFFFFFFFFFFFFFFFFFFFFFFFFFFFFFFFFFFFFFF
310
FFFFFFFFFFFFFFFFFFFFFFFFFFFFFFFFFFFFFFFFFFFFFFFFF000FFFFFFFFFFFF
310
FFFFFFFFFFFFFFFFFFFFFFFFFFFFFFFFFFFFFFFFFFFFFFFFFFFFFFFFFFFFFFFF
310
FFFFFFFFFFFFFFFFFFFFFFFFFFFFFFFFFFFFFFFFFFFFFFFFFFFFFFFFFFFFFFFF
310
FFFFFFFFFFFFFFFFFFFFFFFFFFFFFFFFF000FFFFFFFFFFFFFFFFFFFFFFFFFFFF
310
FFFFFFFFFFFFFFFFFFFFFFFFFFFFFFFFFFFFFFFFFFFFFFFFFFFFFFFFFFFFFFFF
310
FFFFFFFFFFFFFFFFFFFFFFFFFFFFFFFFFFFFFFFFFFFFFFFFFFFFFFFFFFFFFFFF
310
FFFFFFFFFFFFFFFFF000FFFFFFFFFFFFFFFFFFFFFFFFFFFFFFFFFFFFFFFFFFFF
310
FFFFFFFFFFFFFFFFFFFFFFFFFFFFFFFFFFFFFFFFFFFFFFFFFFFFFFFFFFFFFFFF
310
FFFFFFFFFFFFFFFFFFFFFFFFFFFFFFFFFFFFFFFFFFFFFFFFFFFFFFFFFFFFFFFF
310
F000FFFFFFFFFFFFFFFFFFFFFFFFFFFFFFFFFFFFFFFFFFFFFFFFFFFFFFFFFFFF
310
FFFFFFFFFFFFFFFFFFFFFFFFFFFFFFFFFFFFFFFFFFFFFFFFFFFFFFFFFFFFFFFF
310
FFFFFFFFFFFFFFFFFFFFFFFFFFFFFFFFFFFFFFFFFFFFFFFFF000FFFFFFFFFFFF
310
FFFFFFFFFFFFFFFFFFFFFFFFFFFFFFFFFFFFFFFFFFFFFFFFFFFFFFFFFFFFFFFF
310
FFFFFFFFFFFFFFFFFFFFFFFFFFFFFFFFFFFFFFFFFFFFFFFFFFFFFFFFFFFFFFFF
310
FFFFFFFFFFFFFFFFFFFFFFFFFFFFFFFFF000FFFFFFFFFFFFFFFFFFFFFFFFFFFF
310
FFFFFFFFFFFFFFFFFFFFFFFFFFFFFFFFFFFFFFFFFFFFFFFFFFFFFFFFFFFFFFFF
310
FFFFFFFFFFFFFFFFFFFFFFFFFFFFFFFFFFFFFFFFFFFFFFFFFFFFFFFFFFFFFFFF
310
FFFFFFFFFFFFFFFFF000FFFFFFFFFFFFFFFFFFFFFFFFFFFFFFFFFFFFFFFFFFFF
310
FFFFFFFFFFFFFFFFFFFFFFFFFFFFFFFFFFFFFFFFFFFFFFFFFFFFFFFFFFFFFFFF
310
FFFFFFFFFFFFFFFFFFFFFFFFFFFFFFFFFFFFFFFFFFFFFFFFFFFFFFFFFFFFFFFF
310
F000FFFFFFFFFFFFFFFFFFFFFFFFFFFFFFFFFFFFFFFFFFFFFFFFFFFFFFFFFFFF
310
FFFFFFFFFFFFFFFFFFFFFFFFFFFFFFFFFFFFFFFFFFFFFFFFFFFFFFFFFFFFFFFF
310
FFFFFFFFFFFFFFFFFFFFFFFFFFFFFFFFFFFFFFFFFFFFFFFFF000FFFFFFFFFFFF
310
FFFFFFFFFFFFFFFFFFFFFFFFFFFFFFFFFFFFFFFFFFFFFFFFFFFFFFFFFFFFFFFF
310
FFFFFFFFFFFFFFFFFFFFFFFFFFFFFFFFFFFFFFFFFFFFFFFFFFFFFFFFFFFFFFFF
310
FFFFFFFFFFFFFFFFFFFFFFFFFFFFFFFFF000FFFFFFFFFFFFFFFFFFFFFFFFFFFF
310
FFFFFFFFFFFFFFFFFFFFFFFFFFFFFFFFFFFFFFFFFFFFFFFFFFFFFFFFFFFFFFFF
310
FFFFFFFFFFFFFFFFFFFFFFFFFFFFFFFFFFFFFFFFFFFFFFFFFFFFFFFFFFFFFFFF
310
FFFFFFFFFFFFFFFFF000FFFFFFFFFFFFFFFFFFFFFFFFFFFFFFFFFFFFFFFFFFFF
310
FFFFFFFFFFFFFFFFFFFFFFFFFFFFFFFFFFFFFFFFFFFFFFFFFFFFFFFFFFFFFFFF
310
FFFFFFFFFFFFFFFFFFFFFFFFFFFFFFFFFFFFFFFFFFFFFFFFFFFFFFFFFFFFFFFF
310
F000FFFFFFFFFFFFFFFFFFFFFFFFFFFFFFFFFFFFFFFFFFFFFFFFFFFFFFFFFFFF
310
FFFFFFFFFFFFFFFFFFFFFFFFFFFFFFFFFFFFFFFFFFFFFFFFFFFFFFFFFFFFFFFF
310
FFFFFFFFFFFFFFFFFFFFFFFFFFFFFFFFFFFFFFFFFFFFFFFFF000FFFFFFFFFFFF
310
FFFFFFFFFFFFFFFFFFFFFFFFFFFFFFFFFFFFFFFFFFFFFFFFFFFFFFFFFFFFFFFF
310
FFFFFFFFFFFFFFFFFFFFFFFFFFFFFFFFFFFFFFFFFFFFFFFFFFFFFFFFFFFFFFFF
310
FFFFFFFFFFFFFFFFFFFFFFFFFFFFFFFFF000FFFFFFFFFFFFFFFFFFFFFFFFFFFF
310
FFFFFFFFFFFFFFFFFFFFFFFFFFFFFFFFFFFFFFFFFFFFFFFFFFFFFFFFFFFFFFFF
310
FFFFFFFFFFFFFFFFFFFFFFFFFFFFFFFFFFFFFFFFFFFFFFFFFFFFFFFFFFFFFFFF
310
FFFFFFFFFFFFFFFFF000FFFFFFFFFFFFFFFFFFFFFFFFFFFFFFFFFFFFFFFFFFFF
310
FFFFFFFFFFFFFFFFFFFFFFFFFFFFFFFFFFFFFFFFFFFFFFFFFFFFFFFFFFFFFFFF
310
FFFFFFFFFFFFFFFFFFFFFFFFFFFFFFFFFFFFFFFFFFFFFFFFFFFFFFFFFFFFFFFF
310
F000FFFFFFFFFFFFFFFFFFFFFFFFFFFFFFFFFFFFFFFFFFFFFFFFFFFFFFFFFFFF
310
FFFFFFFFFFFFFFFFFFFFFFFFFFFFFFFFFFFFFFFFFFFFFFFFFFFFFFFFFFFFFFFF
310
FFFFFFFFFFFFFFFFFFFFFFFFFFFFFFFFFFFFFFFFFFFFFFFFF000FFFFFFFFFFFF
310
FFFFFFFFFFFFFFFFFFFFFFFFFFFFFFFFFFFFFFFFFFFFFFFFFFFFFFFFFFFFFFFF
310
FFFFFFFFFFFFFFFFFFFFFFFFFFFFFFFFFFFFFFFFFFFFFFFFFFFFFFFFFFFFFFFF
310
FFFFFFFFFFFFFFFFFFFFFFFFFFFFFFFFF000FFFFFFFFFFFFFFFFFFFFFFFFFFFF
310
FFFFFFFFFFFFFFFFFFFFFFFFFFFFFFFFFFFFFFFFFFFFFFFFFFFFFFFFFFFFFFFF
310
FFFFFFFFFFFFFFFFFFFFFFFFFFFFFFFFFFFFFFFFFFFFFFFFFFFFFFFFFFFFFFFF
310
FFFFFFFFFFFFFFFFF000FFFFF80003FFFFFFFFFFFFFFFFFFFFFFFFFFFFFFFFFF
310
FFFFF00007FFFFFFFFFF00007FFFFFF800000000000000007FFFFFFFFFFFFFFF
310
FFFFFFFC001FFFFFFFFFFFFFFC001FFFFFFFFFFFFFFFFFFFFFFFFFFE0007FFFF
310
F000FFFF8000007FFFFFFFF8000FFFFFC0007FFFFF80007FFFFF0000007FFFFF
310
FFF8000007FFFFF800000000000000007FFFFFF0001FFFFFFFFFFFC00001FFFF
310
FFFFFFFFC00001FFFFFFFF000000000003FFFFE000007FFFF000FFFE0000000F
310
FFFFFFF0000FFFFF80007FFFFF80007FFFFC0000001FFFFFFFC0000001FFFFF8
310
00000000000000007FFFFFF0001FFFFFFFFFFE0000003FFFFFFFFFFE0000003F
310
FFFFFF000000000003FFFF0000000FFFF000FFF800000003FFFFFFF00007FFFF
310
80007FFFFF80007FFFF000000007FFFFFF000000003FFFF80000000000000000
310
7FFFFFF0001FFFFFFFFFF80000000FFFFFFFFFF80000000FFFFFFF0000000000
310
03FFFC00000003FFF000FFE000000000FFFFFFF00007FFFF80003FFFFF80007F
310
FFC000000001FFFFFC000000001FFFF800000000000000007FFFFFF0001FFFFF
310
FFFFE000000003FFFFFFFFE000000003FFFFFF000000000003FFF000000000FF
310
F000FF80000000007FFFFFF00007FFFF80003FFFFF80007FFF8000000000FFFF
310
F80000000007FFF800000000000000007FFFFFF0001FFFFFFFFFC000000001FF
310
FFFFFFC000000001FFFFFF000000000003FFC0000000007FF000FF0000000000
310
3FFFFFE00007FFFF00003FFFFF80007FFE00000000003FFFF00000000003FFF8
310
00000000000000007FFFFFF0001FFFFFFFFF8000000000FFFFFFFF8000000000
310
FFFFFF000000000003FF80000000003FF000FE00000000001FFFFFE00003FFFF
310
00003FFFFF80007FFC00000000001FFFE00000000001FFF8000001FFFE000000
310
7FFFFFF0001FFFFFFFFE00000000003FFFFFFE00000000003FFFFF0000000000
310
03FF00000000001FF000FC00000000000FFFFFE00003FFFF00001FFFFF80007F
310
F800000000001FFFC00000000000FFF8000001FFFE0000007FFFFFF0001FFFFF
310
FFFC00000000001FFFFFFC00000000001FFFFF000000000003FE00000000000F
310
F000F8000000000007FFFFE00003FFFF00001FFFFF80007FF800000000000FFF
310
800000000000FFF8000001FFFE0000007FFFFFF0001FFFFFFFF800000000000F
310
FFFFF800000000000FFFFF000000000003FC000000000007F000F80000000000
310
03FFFFC00003FFFE00001FFFFF80007FF0000000000007FF0000000000007FF8
310
000001FFFE0000007FFFFFF0001FFFFFFFF0000000000007FFFFF00000000000
310
07FFFF000000000003F8000000000003F000F0000000000003FFFFC00001FFFE
310
00001FFFFF80007FE0000000000007FE0000000000003FF8000001FFFE000000
310
7FFFFFF0001FFFFFFFF0000000000007FFFFF0000000000007FFFF0000000000
310
03F800001F800003F000E00001FFF00001FFFFC00001FFFE00000FFFFF80007F
310
E00001FFE00003FE00001FFF00003FF8000001FFFE0000007FFFFFF0001FFFFF
310
FFE000003E000003FFFFE000003E000003FFFF000000000003F00001FFF80001
310
F000E00007FFFC0001FFFFC00001FFFE00000FFFFF80007FC0000FFFFC0003FC
310
0000FFFFC0001FF8000001FFFE0000007FFFFFF0001FFFFFFFC00003FFE00001
310
FFFFC00003FFE00001FFFF0001FFFFFFFFF00007FFFE0001F000E0000FFFFF00
310
00FFFF800001FFFC00000FFFFF80007FC0001FFFFE0001FC0001FFFFE0001FF8
310
000001FFFE0000007FFFFFF0001FFFFFFF80000FFFF80000FFFF80000FFFF800
310
00FFFF0003FFFFFFFFE0000FFFFF8000F000C0003FFFFF8000FFFF800000FFFC
310
000007FFFF80007F80003FFFFF0001FC0003FFFFF0001FF8000001FFFE000000
310
7FFFFFF0001FFFFFFF80003FFFFE0000FFFF80003FFFFE0000FFFF0003FFFFFF
310
FFE0003FFFFF8000F000C0003FFFFF8000FFFF800000FFFC000007FFFF80007F
310
80007FFFFF8001F80007FFFFF8000FF8000001FFFE0000007FFFFFF0001FFFFF
310
FF00007FFFFF00007FFF00007FFFFF00007FFF0003FFFFFFFFE0003FFFFFC000
310
F000C0007FFFFFC000FFFF000000FFFC000007FFFF80007F8000FFFFFF8000F8
310
000FFFFFF8000FF8000001FFFE0000007FFFFFF0001FFFFFFF0000FFFFFF8000
310
7FFF0000FFFFFF80007FFF0003FFFFFFFFC0007FFFFFC00070008000FFFFFFC0
310
00FFFF000000FFF8000007FFFF80007F8000FFFFFF8000F8000FFFFFF8000FF8
310
000001FFFE0000007FFFFFF0001FFFFFFE0001FFFFFFC0003FFE0001FFFFFFC0
310
003FFF0003FFFFFFFFC0007FFFFFE00070008000FFFFFFC0007FFF0000007FF8
310
000003FFFF80007F0001FFFFFF8000F8000FFFFFF8000FF8000001FFFE000000
310
7FFFFFF0001FFFFFFE0001FFFFFFC0003FFE0001FFFFFFC0003FFF0003FFFFFF
310
FFC000FFFFFFE00070008000FFFFFFC0007FFF0000007FF8000003FFFF80007F
310
0001FFFFFF8000F8001FFFFFF8000FF8000001FFFE0000007FFFFFF0001FFFFF
310
FE0003FFFFFFE0003FFE0003FFFFFFE0003FFF0003FFFFFFFFC000FFFFFFE000
310
70008000FFFFFFC0007FFE0000007FF8000003FFFF80007F0001FFFFFF8000F0
310
001FFFFFF8000FF8000001FFFE0000007FFFFFF0001FFFFFFC0003FFFFFFE000
310
1FFC0003FFFFFFE0001FFF0003FFFFFFFFC000FFFFFFC00070008000FFFFFF80
310
007FFE0000007FF0000003FFFF80007F0001FFFFFF0000F0001FFFFFF8000FF8
310
000001FFFE0000007FFFFFF0001FFFFFFC0007FFFFFFF0001FFC0007FFFFFFF0
310
001FFF0003FFFFFFFFC000FFFFFFC00070008001FFFFFF0000FFFE0000003FF0
310
000001FFFF80007F0001FFFFFF0000F8001FFFFFF0000FF8000001FFFE000000
310
7FFFFFF0001FFFFFFC0007FFFFFFF0001FFC0007FFFFFFF0001FFF0003FFFFFF
310
FFC001FFFFFF80007000FFFFFFFFFE0000FFFE0008003FF0008001FFFF80007F
310
FFFFFFFFFC0000FFFFFFFFFFE0000FF8000001FFFE0000007FFFFFF0001FFFFF
310
F8000FFFFFFFF8000FF8000FFFFFFFF8000FFF0003FFFFFFFFFFFFFFFFFF0000
310
7000FFFFFFFFFC0000FFFC0008003FF0008001FFFF80007FFFFFFFFFF80001FF
310
FFFFFFFF80000FF8000001FFFE0000007FFFFFF0001FFFFFF8000FFFFFFFF800
310
0FF8000FFFFFFFF8000FFF0003FFFFFFFFFFFFFFFFFE0000F000FFFFFFFFE000
310
00FFFC000C003FE000C001FFFF80007FFFFFFFFFC00001FFFFFFFFFE00001FF8
310
000001FFFE0000007FFFFFF0001FFFFFF8000FFFFFFFF8000FF8000FFFFFFFF8
310
000FFF0003FFFFFFFFFFFFFFFFF00000F000FFFFFFFE000001FFFC000C001FE0
310
00C000FFFF80007FFFFFFFFE000001FFFFFFFFE000001FF80FFFFFFFFFFFFFC0
310
7FFFFFF0001FFFFFF8000FFFFFFFF8000FF8000FFFFFFFF8000FFF0003FFFFFF
310
FFFFFFFFFF800000F000FFFFFFC0000001FFFC001C001FE001C000FFFF80007F
310
FFFFFF80000003FFFFFFF80000001FF80FFFFFFFFFFFFFC07FFFFFF0001FFFFF
310
F8001FFFFFFFFC000FF8001FFFFFFFFC000FFF0003FFFFFFFFFFFFFFF0000001
310
F000FFFFF800000001FFF8001C001FE001C000FFFF80007FFFFFF800000003FF
310
FFFF800000003FF80FFFFFFFFFFFFFC07FFFFFF0001FFFFFF8001FFFFFFFFC00
310
0FF8001FFFFFFFFC000FFF0003FFFFFFFFFFFFFE00000001F000FFFFC0000000
310
03FFF8001E001FC001E000FFFF80007FFFFF8000000007FFFFFC000000003FF8
310
0FFFFFFFFFFFFFC07FFFFFF0001FFFFFF8001FFFFFFFFC000FF8001FFFFFFFFC
310
000FFF0003FFFFFFFFFFFFE000000003F000FFFE0000000007FFF8001E000FC0
310
01E0007FFF80007FFFFE0000000007FFFFE0000000007FF80FFFFFFFFFFFFFC0
310
7FFFFFF0001FFFFFF0001FFFFFFFFC0007F0001FFFFFFFFC0007FF0003FFFFFF
310
FFFFFF0000000003F000FFF80000000007FFF8001E000FC003E0007FFF80007F
310
FFF0000000000FFFFF8000000000FFF80FFFFFFFFFFFFFC07FFFFFF0001FFFFF
310
F0001FFFFFFFFC0007F0001FFFFFFFFC0007FF0003FFFFFFFFFFFC0000000007
310
F000FFE0000000000FFFF0003E000FC003E0007FFF80007FFFC0000000001FFF
310
FE0000000001FFF80FFFFFFFFFFFFFC07FFFFFF0001FFFFFF0001FFFFFFFFC00
310
07F0001FFFFFFFFC0007FF0003FFFFFFFFFFF0000000000FF000FFC000000000
310
1FFFF0003F000F8003F0003FFF80007FFF80000000003FFFF80000000003FFF8
310
0FFFFFFFFFFFFFC07FFFFFF0001FFFFFF0001FFFFFFFFC0007F0001FFFFFFFFC
310
0007FF0003FFFFFFFFFFE0000000001FF000FF00000000007FFFF0003F000780
310
03F0003FFF80007FFF00000000007FFFF00000000007FFF80FFFFFFFFFFFFFC0
310
7FFFFFF0001FFFFFF0001FFFFFFFFC0007F0001FFFFFFFFC0007FF0003FFFFFF
310
FFFF80000000007FF000FE0000000000FFFFE0003F00078007F0003FFF80007F
310
FE0000000001FFFFE0000000001FFFF80FFFFFFFFFFFFFC07FFFFFF0001FFFFF
310
F0001FFFFFFFFC0007F0001FFFFFFFFC0007FF0003FFFFFFFFFF0000000000FF
310
F000FC0000000003FFFFE0007F00078007F0003FFF80007FFC0000000007FFFF
310
C0000000007FFFF80FFFFFFFFFFFFFC07FFFFFF0001FFFFFF8001FFFFFFFFC00
310
0FF8001FFFFFFFFC000FFF0003FFFFFFFFFE0000000003FFF000FC000000000F
310
FFFFE0007F80070007F8001FFF80007FF8000000001FFFFF8000000001FFFFF8
310
0FFFFFFFFFFFFFC07FFFFFF0001FFFFFF8001FFFFFFFFC000FF8001FFFFFFFFC
310
000FFF0003FFFFFFFFFC000000000FFFF000F8000000007FFFFFE0007F800700
310
07F8001FFF80007FF000000000FFFFFF800000000FFFFFF80FFFFFFFFFFFFFC0
310
7FFFFFF0001FFFFFF8000FFFFFFFF8000FF8000FFFFFFFF8000FFF0003FFFFFF
310
FFFC000000007FFFF000F800000007FFFFFFC0007F8003000FF8001FFF80007F
310
F000000007FFFFFF000000007FFFFFF80FFFFFFFFFFFFFC07FFFFFF0001FFFFF
310
F8000FFFFFFFF8000FF8000FFFFFFFF8000FFF0003FFFFFFFFF80000000FFFFF
310
F000F0000000FFFFFFFFC000FF8003000FF8001FFF80007FE0000000FFFFFFFF
310
0000000FFFFFFFF8000001FFFE0000007FFFFFF0001FFFFFF8000FFFFFFFF800
310
0FF8000FFFFFFFF8000FFF0003FFFFFFFFF8000000FFFFFFF000F000000FFFFF
310
FFFFC000FFC002000FF8000FFF80007FE000001FFFFFFFFE000001FFFFFFFFF8
310
000001FFFE0000007FFFFFF0001FFFFFF8000FFFFFFFF8000FF8000FFFFFFFF8
310
000FFF0003FFFFFFFFF000001FFFFFFFF000E00000FFFFFFFFFFC000FFC00200
310
0FFC000FFF80007FE00001FFFFFFFFFE00001FFFFFFFFFF8000001FFFE000000
310
7FFFFFF0001FFFFFFC000FFFFFFFF8001FFC000FFFFFFFF8001FFF0003FFFFFF
310
FFF00001FFFFFFFFF000E00007FFFFFFFFFF8000FFC000001FFC000FFF80007F
310
C0000FFFFFFFFFFE0000FFFFFFFFFFF8000001FFFE0000007FFFFFF0001FFFFF
310
FC0007FFFFFFF0001FFC0007FFFFFFF0001FFF0003FFFFFFFFF00007FFFFFFFF
310
F000E0001FFFFFFFFFFF8000FFC000001FFC000FFF80007FC0003FFFFFFFFFFE
310
0001FFFFFFFFFFF8000001FFFE0000007FFFFFF0001FFFFFFC0007FFFFFFF000
310
1FFC0007FFFFFFF0001FFF0003FFFFFFFFF0001FFFFFFFFFF000E0003FFFFF00
310
03FF8001FFE000001FFC0007FF80007FC0007FFFFF0007FC0003FFFFF0003FF8
310
000001FFFE0000007FFFFFF0001FFFFFFC0003FFFFFFE0001FFC0003FFFFFFE0
310
001FFF0003FFFFFFFFF0003FFFFFFFFFF000E0003FFFFF0001FF8001FFE00000
310
1FFE0007FF80007FC0007FFFFE0003FC0007FFFFE0003FF8000001FFFE000000
310
7FFFFFF0001FFFFFFE0003FFFFFFE0003FFE0003FFFFFFE0003FFF0003FFFFFF
310
FFF0003FFFFF8001F000E0003FFFFF0001FF0001FFE000001FFE0007FF80007F
310
C0007FFFFE0003FC0007FFFFE0003FF8000001FFFE0000007FFFFFF0001FFFFF
310
FE0001FFFFFFC0003FFE0001FFFFFFC0003FFF0003FFFFFFFFF0003FFFFF0001
310
F000E0003FFFFF0003FF0001FFE000003FFE0007FF80007FC0007FFFFE0003FC
310
0007FFFFE0003FF8000001FFFE0000007FFFFFF0001FFFFFFF0001FFFFFFC000
310
7FFF0001FFFFFFC0007FFF0003FFFFFFFFF0003FFFFF0001F000E0003FFFFE00
310
03FF0003FFF000003FFE0003FF80007FC0007FFFFC0003FE0007FFFFE0003FF8
310
000001FFFE0000007FFFFFF0001FFFFFFF0000FFFFFF80007FFF0000FFFFFF80
310
007FFF0003FFFFFFFFF0003FFFFF0001F000E0003FFFFE0003FF0003FFF00000
310
3FFF0003FF80007FC0007FFFFC0007FE0007FFFFC0003FF8000001FFFE000000
310
7FFFFFF0001FFFFFFF80007FFFFF0000FFFF80007FFFFF0000FFFF0003FFFFFF
310
FFF0003FFFFF0003F000E0003FFFFC0003FE0003FFF000003FFF0003FF80007F
310
E0003FFFF80007FE0003FFFFC0007FF8000001FFFE0000007FFFFFF0001FFFFF
310
FF80003FFFFE0000FFFF80003FFFFE0000FFFF0003FFFFFFFFF0001FFFFE0003
310
F000F0001FFFF80003FE0003FFF000007FFF0001FF80007FE0003FFFF00007FE
310
0001FFFF80007FF8000001FFFE0000007FFFFFF0001FFFFFFFC0000FFFF80001
310
FFFFC0000FFFF80001FFFF0003FFFFFFFFF0001FFFFC0003F000F0000FFFF000
310
07FE0007FFF800007FFF0001FF80007FE0001FFFE00007FF0000FFFE00007FF8
310
000001FFFE0000007FFFFFF0001FFFFFFFC00003FFE00001FFFFC00003FFE000
310
01FFFF0003FFFFFFFFF8000FFFF80003F000F00003FFC00007FC0007FFF80000
310
7FFF8001FF80007FF00007FF80000FFF00007FF80000FFF8000001FFFE000000
310
7F80000000000001FFE000003E000003FFFFE000003E000003FFFF0003FFFFFF
310
FFF80003FFE00007F000F800000000000FFC0007FFF800007FFF8001FF80007F
310
F000000000000FFF000000000000FFF8000001FFFE0000007F80000000000001
310
FFF0000000000007FFFFF0000000000007FFFF0003FFFFFFFFFC00007E000007
310
F000F800000000000FFC0007FFF80000FFFF8000FF80007FF800000000001FFF
310
800000000001FFF8000001FFFE0000007F80000000000001FFF800000000000F
310
FFFFF800000000000FFFFF0003FFFFFFFFFC00000000000FF000FC0000000000
310
1FFC0007FFFC0000FFFF8000FF80007FF800000000003FFFC00000000001FFF8
310
000001FFFE0000007F80000000000001FFF800000000000FFFFFF80000000000
310
0FFFFF0003FFFFFFFFFE00000000001FF000FE00000000003FF8000FFFFC0000
310
FFFF8000FF80007FFC00000000003FFFC00000000003FFF8000001FFFE000000
310
7F80000000000001FFFC00000000001FFFFFFC00000000001FFFFF0003FFFFFF
310
FFFF00000000001FF000FF00000000003FF8000FFFFC0000FFFFC000FF80007F
310
FE00000000007FFFE00000000007FFF8000001FFFE0000007F80000000000001
310
FFFE00000000003FFFFFFE00000000003FFFFF0003FFFFFFFFFF80000000003F
310
F000FF80000000007FF8000FFFFC0001FFFFC0007F80007FFF0000000000FFFF
310
F0000000000FFFF800000000000000007F80000000000001FFFF8000000000FF
310
FFFFFF8000000000FFFFFF0003FFFFFFFFFFC0000000007FF000FFC000000000
310
FFF8000FFFFE0001FFFFC0007F80007FFF8000000001FFFFF8000000001FFFF8
310
00000000000000007F80000000000001FFFFC000000001FFFFFFFFC000000001
310
FFFFFF0003FFFFFFFFFFE000000000FFF000FFE000000003FFF0001FFFFE0001
310
FFFFC0007F80007FFFC000000007FFFFFE000000003FFFF80000000000000000
310
7F80000000000001FFFFE000000003FFFFFFFFE000000003FFFFFF0003FFFFFF
310
FFFFF000000003FFF000FFF80000000FFFF0001FFFFE0001FFFFE0007F80007F
310
FFF00000000FFFFFFF00000000FFFFF800000000000000007F80000000000001
310
FFFFF80000000FFFFFFFFFF80000000FFFFFFF0003FFFFFFFFFFFC0000000FFF
310
F000FFFE0000003FFFF0001FFFFE0003FFFFE0003F80007FFFFC0000003FFFFF
310
FFC0000003FFFFF800000000000000007F80000000000001FFFFFE0000003FFF
310
FFFFFFFE0000003FFFFFFF0003FFFFFFFFFFFF0000003FFFF000FFFF800000FF
310
FFF0001FFFFF0003FFFFE0003F80007FFFFF000001FFFFFFFFF800001FFFFFF8
310
00000000000000007F80000000000001FFFFFFC00001FFFFFFFFFFFFC00001FF
310
FFFFFF0003FFFFFFFFFFFFC00000FFFFF000FFFFF8000FFFFFFFFFFFFFFFFFFF
310
FFFFFFFFFFFFFFFFFFFFF0001FFFFFFFFFFF0000FFFFFFF80000000000000000
310
7FFFFFFFFFFFFFFFFFFFFFFC001FFFFFFFFFFFFFFC001FFFFFFFFFFFFFFFFFFF
310
FFFFFFFC001FFFFFF000FFFFFFFFFFFFFFFFFFFFFFFFFFFFFFFFFFFFFFFFFFFF
310
FFFFFFFFFFFFFFFFFFFFFFFFFFFFFFFFFFFFFFFFFFFFFFFFFFFFFFFFFFFFFFFF
310
FFFFFFFFFFFFFFFFFFFFFFFFFFFFFFFFFFFFFFFFFFFFFFFFFFFFFFFFFFFFFFFF
310
F000FFFFFFFFFFFFFFFFFFFFFFFFFFFFFFFFFFFFFFFFFFFFFFFFFFFFFFFFFFFF
310
FFFFFFFFFFFFFFFFFFFFFFFFFFFFFFFFFFFFFFFFFFFFFFFFFFFFFFFFFFFFFFFF
310
FFFFFFFFFFFFFFFFFFFFFFFFFFFFFFFFFFFFFFFFFFFFFFFFF000FFFFFFFFFFFF
310
FFFFFFFFFFFFFFFFFFFFFFFFFFFFFFFFFFFFFFFFFFFFFFFFFFFFFFFFFFFFFFFF
310
FFFFFFFFFFFFFFFFFFFFFFFFFFFFFFFFFFFFFFFFFFFFFFFFFFFFFFFFFFFFFFFF
310
FFFFFFFFFFFFFFFFFFFFFFFFFFFFFFFFF000FFFFFFFFFFFFFFFFFFFFFFFFFFFF
310
FFFFFFFFFFFFFFFFFFFFFFFFFFFFFFFFFFFFFFFFFFFFFFFFFFFFFFFFFFFFFFFF
310
FFFFFFFFFFFFFFFFFFFFFFFFFFFFFFFFFFFFFFFFFFFFFFFFFFFFFFFFFFFFFFFF
310
FFFFFFFFFFFFFFFFF000FFFFFFFFFFFFFFFFFFFFFFFFFFFFFFFFFFFFFFFFFFFF
310
FFFFFFFFFFFFFFFFFFFFFFFFFFFFFFFFFFFFFFFFFFFFFFFFFFFFFFFFFFFFFFFF
310
FFFFFFFFFFFFFFFFFFFFFFFFFFFFFFFFFFFFFFFFFFFFFFFFFFFFFFFFFFFFFFFF
310
F000FFFFFFFFFFFFFFFFFFFFFFFFFFFFFFFFFFFFFFFFFFFFFFFFFFFFFFFFFFFF
310
FFFFFFFFFFFFFFFFFFFFFFFFFFFFFFFFFFFFFFFFFFFFFFFFFFFFFFFFFFFFFFFF
310
FFFFFFFFFFFFFFFFFFFFFFFFFFFFFFFFFFFFFFFFFFFFFFFFF000FFFFFFFFFFFF
310
FFFFFFFFFFFFFFFFFFFFFFFFFFFFFFFFFFFFFFFFFFFFFFFFFFFFFFFFFFFFFFFF
310
FFFFFFFFFFFFFFFFFFFFFFFFFFFFFFFFFFFFFFFFFFFFFFFFFFFFFFFFFFFFFFFF
310
FFFFFFFFFFFFFFFFFFFFFFFFFFFFFFFFF000FFFFFFFFFFFFFFFFFFFFFFFFFFFF
310
FFFFFFFFFFFFFFFFFFFFFFFFFFFFFFFFFFFFFFFFFFFFFFFFFFFFFFFFFFFFFFFF
310
FFFFFFFFFFFFFFFFFFFFFFFFFFFFFFFFFFFFFFFFFFFFFFFFFFFFFFFFFFFFFFFF
310
FFFFFFFFFFFFFFFFF000FFFFFFFFFFFFFFFFFFFFFFFFFFFFFFFFFFFFFFFFFFFF
310
FFFFFFFFFFFFFFFFFFFFFFFFFFFFFFFFFFFFFFFFFFFFFFFFFFFFFFFFFFFFFFFF
310
FFFFFFFFFFFFFFFFFFFFFFFFFFFFFFFFFFFFFFFFFFFFFFFFFFFFFFFFFFFFFFFF
310
F000FFFFFFFFFFFFFFFFFFFFFFFFFFFFFFFFFFFFFFFFFFFFFFFFFFFFFFFFFFFF
310
FFFFFFFFFFFFFFFFFFFFFFFFFFFFFFFFFFFFFFFFFFFFFFFFFFFFFFFFFFFFFFFF
310
FFFFFFFFFFFFFFFFFFFFFFFFFFFFFFFFFFFFFFFFFFFFFFFFF000FFFFFFFFFFFF
310
FFFFFFFFFFFFFFFFFFFFFFFFFFFFFFFFFFFFFFFFFFFFFFFFFFFFFFFFFFFFFFFF
310
FFFFFFFFFFFFFFFFFFFFFFFFFFFFFFFFFFFFFFFFFFFFFFFFFFFFFFFFFFFFFFFF
310
FFFFFFFFFFFFFFFFFFFFFFFFFFFFFFFFF000FFFFFFFFFFFFFFFFFFFFFFFFFFFF
310
FFFFFFFFFFFFFFFFFFFFFFFFFFFFFFFFFFFFFFFFFFFFFFFFFFFFFFFFFFFFFFFF
310
FFFFFFFFFFFFFFFFFFFFFFFFFFFFFFFFFFFFFFFFFFFFFFFFFFFFFFFFFFFFFFFF
310
FFFFFFFFFFFFFFFFF000FFFFFFFFFFFFFFFFFFFFFFFFFFFFFFFFFFFFFFFFFFFF
310
FFFFFFFFFFFFFFFFFFFFFFFFFFFFFFFFFFFFFFFFFFFFFFFFFFFFFFFFFFFFFFFF
310
FFFFFFFFFFFFFFFFFFFFFFFFFFFFFFFFFFFFFFFFFFFFFFFFFFFFFFFFFFFFFFFF
310
F000FFFFFFFFFFFFFFFFFFFFFFFFFFFFFFFFFFFFFFFFFFFFFFFFFFFFFFFFFFFF
310
FFFFFFFFFFFFFFFFFFFFFFFFFFFFFFFFFFFFFFFFFFFFFFFFFFFFFFFFFFFFFFFF
310
FFFFFFFFFFFFFFFFFFFFFFFFFFFFFFFFFFFFFFFFFFFFFFFFF000FFFFFFFFFFFF
310
FFFFFFFFFFFFFFFFFFFFFFFFFFFFFFFFFFFFFFFFFFFFFFFFFFFFFFFFFFFFFFFF
310
FFFFFFFFFFFFFFFFFFFFFFFFFFFFFFFFFFFFFFFFFFFFFFFFFFFFFFFFFFFFFFFF
310
FFFFFFFFFFFFFFFFFFFFFFFFFFFFFFFFF000FFFFFFFFFFFFFFFFFFFFFFFFFFFF
310
FFFFFFFFFFFFFFFFFFFFFFFFFFFFFFFFFFFFFFFFFFFFFFFFFFFFFFFFFFFFFFFF
310
FFFFFFFFFFFFFFFFFFFFFFFFFFFFFFFFFFFFFFFFFFFFFFFFFFFFFFFFFFFFFFFF
310
FFFFFFFFFFFFFFFFF000FFFFFFFFFFFFFFFFFFFFFFFFFFFFFFFFFFFFFFFFFFFF
310
FFFFFFFFFFFFFFFFFFFFFFFFFFFFFFFFFFFFFFFFFFFFFFFFFFFFFFFFFFFFFFFF
310
FFFFFFFFFFFFFFFFFFFFFFFFFFFFFFFFFFFFFFFFFFFFFFFFFFFFFFFFFFFFFFFF
310
F000FFFFFFFFFFFFFFFFFFFFFFFFFFFFFFFFFFFFFFFFFFFFFFFFFFFFFFFFFFFF
310
FFFFFFFFFFFFFFFFFFFFFFFFFFFFFFFFFFFFFFFFFFFFFFFFFFFFFFFFFFFFFFFF
310
FFFFFFFFFFFFFFFFFFFFFFFFFFFFFFFFFFFFFFFFFFFFFFFFF000FFFFFFFFFFFF
310
FFFFFFFFFFFFFFFFFFFFFFFFFFFFFFFFFFFFFFFFFFFFFFFFFFFFFFFFFFFFFFFF
310
FFFFFFFFFFFFFFFFFFFFFFFFFFFFFFFFFFFFFFFFFFFFFFFFFFFFFFFFFFFFFFFF
310
FFFFFFFFFFFFFFFFFFFFFFFFFFFFFFFFF000FFFFFFFFFFFFFFFFFFFFFFFFFFFF
310
FFFFFFFFFFFFFFFFFFFFFFFFFFFFFFFFFFFFFFFFFFFFFFFFFFFFFFFFFFFFFFFF
310
FFFFFFFFFFFFFFFFFFFFFFFFFFFFFFFFFFFFFFFFFFFFFFFFFFFFFFFFFFFFFFFF
310
FFFFFFFFFFFFFFFFF000FFFFFFFFFFFFFFFFFFFFFFFFFFFFFFFFFFFFFFFFFFFF
310
FFFFFFFFFFFFFFFFFFFFFFFFFFFFFFFFFFFFFFFFFFFFFFFFFFFFFFFFFFFFFFFF
310
FFFFFFFFFFFFFFFFFFFFFFFFFFFFFFFFFFFFFFFFFFFFFFFFFFFFFFFFFFFFFFFF
310
F000FFFFFFFFFFFFFFFFFFFFFFFFFFFFFFFFFFFFFFFFFFFFFFFFFFFFFFFFFFFF
310
FFFFFFFFFFFFFFFFFFFFFFFFFFFFFFFFFFFFFFFFFFFFFFFFFFFFFFFFFFFFFFFF
310
FFFFFFFFFFFFFFFFFFFFFFFFFFFFFFFFFFFFFFFFFFFFFFFFF000FFFFFFFFFFFF
310
FFFFFFFFFFFFFFFFFFFFFFFFFFFFFFFFFFFFFFFFFFFFFFFFFFFFFFFFFFFFFFFF
310
FFFFFFFFFFFFFFFFFFFFFFFFFFFFFFFFFFFFFFFFFFFFFFFFFFFFFFFFFFFFFFFF
310
FFFFFFFFFFFFFFFFFFFFFFFFFFFFFFFFF0000000000000000000000000000000
310
0000000000000000000000000000000000000000000000000000000000000000
310
0000000000000000000000000000000000000000000000000000000000000000
310
0000000000000000000000000000000000000000000000000000000000000000
310
0000000000000000000000000000000000000000000000000000000000000000
310
0000000000000000000000000000000000000000000000000000000000000000
310
0000000000000000000000000000000000000000000000000000000000000000
310
0000000000000000000000000000000000000000000000000000000000000000
310
0000000000000000000000000000000000000000000000000000000000000000
310
0000000000000000000000000000000000000000000000000000000000000000
310
0000000000000000000000000000000000000000000000000000000000000000
310
0000000000000000000000000000000000000000000000000000000000000000
310
0000000000000000000000000000000000000000000000000000000000000000
310
0000000000000000000000000000000000000000000000000000000000000000
310
0000000000000000000000000000000000000000000000000000000000000000
310
0000000000000000000000000000000000000000000000000000000000000000
  1
OLE
  0
ENDSEC
  0
SECTION
  2
OBJECTS
  0
DICTIONARY
  5
C
330
0
100
AcDbDictionary
281
     1
  3
ACAD_GROUP
350
D
  3
ACAD_LAYOUT
350
1A
  3
ACAD_MLINESTYLE
350
17
  3
ACAD_PLOTSETTINGS
350
19
  3
ACAD_PLOTSTYLENAME
350
E
  3
ACAD_SCALELIST
350
47
  0
DICTIONARY
  5
D
102
{ACAD_REACTORS
330
C
102
}
330
C
100
AcDbDictionary
281
     1
  0
DICTIONARY
  5
1A
102
{ACAD_REACTORS
330
C
102
}
330
C
100
AcDbDictionary
281
     1
  3
Layout1
350
1E
  3
Layout2
350
26
  3
Model
350
22
  0
DICTIONARY
  5
17
102
{ACAD_REACTORS
330
C
102
}
330
C
100
AcDbDictionary
281
     1
  3
Standard
350
18
  0
DICTIONARY
  5
19
102
{ACAD_REACTORS
330
C
102
}
330
C
100
AcDbDictionary
281
     1
  0
ACDBDICTIONARYWDFLT
  5
E
102
{ACAD_REACTORS
330
C
102
}
330
C
100
AcDbDictionary
281
     1
  3
Normal
350
F
100
AcDbDictionaryWithDefault
340
F
  0
DICTIONARY
  5
47
102
{ACAD_REACTORS
330
C
102
}
330
C
100
AcDbDictionary
281
     1
  3
A0
350
48
  3
A1
350
49
  3
A2
350
4A
  3
A3
350
4B
  3
A4
350
4C
  3
A5
350
4D
  3
A6
350
4E
  3
A7
350
4F
  3
A8
350
50
  3
A9
350
51
  3
B0
350
52
  3
B1
350
53
  3
B2
350
54
  3
B3
350
55
  3
B4
350
56
  3
B5
350
57
  3
B6
350
58
  3
B7
350
59
  3
B8
350
5A
  3
B9
350
5B
  3
C0
350
5C
  3
C1
350
5D
  3
C2
350
5E
  3
C3
350
5F
  3
C4
350
60
  3
C5
350
61
  3
C6
350
62
  3
C7
350
63
  3
C8
350
64
  3
C9
350
65
  3
D0
350
66
  3
D1
350
67
  3
D2
350
68
  0
LAYOUT
  5
1E
102
{ACAD_REACTORS
330
1A
102
}
330
1A
100
AcDbPlotSettings
  1

  2
none_device
  4

  6

 40
0.0
 41
0.0
 42
0.0
 43
0.0
 44
0.0
 45
0.0
 46
0.0
 47
0.0
 48
0.0
 49
0.0
140
0.0
141
0.0
142
1.0
143
1.0
 70
   688
 72
     1
 73
     0
 74
     5
  7

 75
    16
147
1.0
148
0.0
149
0.0
100
AcDbLayout
  1
Layout1
 70
     1
 71
     1
 10
0.0
 20
0.0
 11
420.0
 21
297.0
 12
0.0
 22
0.0
 32
0.0
 14
1.0000000000E+20
 24
1.0000000000E+20
 34
1.0000000000E+20
 15
-1.0000000000E+20
 25
-1.0000000000E+20
 35
-1.0000000000E+20
146
0.0
 13
0.0
 23
0.0
 33
0.0
 16
1.0
 26
0.0
 36
0.0
 17
0.0
 27
1.0
 37
0.0
 76
     0
330
1B
  0
LAYOUT
  5
26
102
{ACAD_REACTORS
330
1A
102
}
330
1A
100
AcDbPlotSettings
  1

  2
none_device
  4

  6

 40
0.0
 41
0.0
 42
0.0
 43
0.0
 44
0.0
 45
0.0
 46
0.0
 47
0.0
 48
0.0
 49
0.0
140
0.0
141
0.0
142
1.0
143
1.0
 70
   688
 72
     1
 73
     0
 74
     5
  7

 75
    16
147
1.0
148
0.0
149
0.0
100
AcDbLayout
  1
Layout2
 70
     1
 71
     2
 10
0.0
 20
0.0
 11
0.0
 21
0.0
 12
0.0
 22
0.0
 32
0.0
 14
0.0
 24
0.0
 34
0.0
 15
0.0
 25
0.0
 35
0.0
146
0.0
 13
0.0
 23
0.0
 33
0.0
 16
1.0
 26
0.0
 36
0.0
 17
0.0
 27
1.0
 37
0.0
 76
     0
330
23
  0
LAYOUT
  5
22
102
{ACAD_REACTORS
330
1A
102
}
330
1A
100
AcDbPlotSettings
  1

  2
none_device
  4
Letter_(8.50_x_11.00_Inches)
  6

 40
6.35
 41
6.35
 42
6.35000508
 43
6.35000508
 44
215.9
 45
279.4
 46
0.0
 47
0.0
 48
0.0
 49
0.0
140
0.0
141
0.0
142
1.0
143
1.0
 70
  1712
 72
     1
 73
     0
 74
     0
  7

 75
     0
147
1.0
148
0.0
149
0.0
100
AcDbLayout
  1
Model
 70
     1
 71
     0
 10
0.0
 20
0.0
 11
297.0
 21
210.0
 12
0.0
 22
0.0
 32
0.0
 14
0.0
 24
0.0
 34
0.0
 15
297.0
 25
210.0
 35
0.0
146
0.0
 13
0.0
 23
0.0
 33
0.0
 16
1.0
 26
0.0
 36
0.0
 17
0.0
 27
1.0
 37
0.0
 76
     0
330
1F
331
29
  0
MLINESTYLE
  5
18
102
{ACAD_REACTORS
330
17
102
}
330
17
100
AcDbMlineStyle
  2
Standard
 70
     0
  3

 62
   256
 51
90.0
 52
90.0
 71
     2
 49
0.5
 62
   256
  6
BYLAYER
 49
-0.5
 62
   256
  6
BYLAYER
  0
ACDBPLACEHOLDER
  5
F
102
{ACAD_REACTORS
330
E
102
}
330
E
  0
SCALE
  5
48
102
{ACAD_REACTORS
330
47
102
}
330
47
100
AcDbScale
 70
     0
300
1:1
140
1.0
141
1.0
290
     1
  0
SCALE
  5
49
102
{ACAD_REACTORS
330
47
102
}
330
47
100
AcDbScale
 70
     0
300
1:2
140
1.0
141
2.0
290
     0
  0
SCALE
  5
4A
102
{ACAD_REACTORS
330
47
102
}
330
47
100
AcDbScale
 70
     0
300
1:4
140
1.0
141
4.0
290
     0
  0
SCALE
  5
4B
102
{ACAD_REACTORS
330
47
102
}
330
47
100
AcDbScale
 70
     0
300
1:5
140
1.0
141
5.0
290
     0
  0
SCALE
  5
4C
102
{ACAD_REACTORS
330
47
102
}
330
47
100
AcDbScale
 70
     0
300
1:8
140
1.0
141
8.0
290
     0
  0
SCALE
  5
4D
102
{ACAD_REACTORS
330
47
102
}
330
47
100
AcDbScale
 70
     0
300
1:10
140
1.0
141
10.0
290
     0
  0
SCALE
  5
4E
102
{ACAD_REACTORS
330
47
102
}
330
47
100
AcDbScale
 70
     0
300
1:16
140
1.0
141
16.0
290
     0
  0
SCALE
  5
4F
102
{ACAD_REACTORS
330
47
102
}
330
47
100
AcDbScale
 70
     0
300
1:20
140
1.0
141
20.0
290
     0
  0
SCALE
  5
50
102
{ACAD_REACTORS
330
47
102
}
330
47
100
AcDbScale
 70
     0
300
1:30
140
1.0
141
30.0
290
     0
  0
SCALE
  5
51
102
{ACAD_REACTORS
330
47
102
}
330
47
100
AcDbScale
 70
     0
300
1:40
140
1.0
141
40.0
290
     0
  0
SCALE
  5
52
102
{ACAD_REACTORS
330
47
102
}
330
47
100
AcDbScale
 70
     0
300
1:50
140
1.0
141
50.0
290
     0
  0
SCALE
  5
53
102
{ACAD_REACTORS
330
47
102
}
330
47
100
AcDbScale
 70
     0
300
1:100
140
1.0
141
100.0
290
     0
  0
SCALE
  5
54
102
{ACAD_REACTORS
330
47
102
}
330
47
100
AcDbScale
 70
     0
300
2:1
140
2.0
141
1.0
290
     0
  0
SCALE
  5
55
102
{ACAD_REACTORS
330
47
102
}
330
47
100
AcDbScale
 70
     0
300
4:1
140
4.0
141
1.0
290
     0
  0
SCALE
  5
56
102
{ACAD_REACTORS
330
47
102
}
330
47
100
AcDbScale
 70
     0
300
8:1
140
8.0
141
1.0
290
     0
  0
SCALE
  5
57
102
{ACAD_REACTORS
330
47
102
}
330
47
100
AcDbScale
 70
     0
300
10:1
140
10.0
141
1.0
290
     0
  0
SCALE
  5
58
102
{ACAD_REACTORS
330
47
102
}
330
47
100
AcDbScale
 70
     0
300
100:1
140
100.0
141
1.0
290
     0
  0
SCALE
  5
59
102
{ACAD_REACTORS
330
47
102
}
330
47
100
AcDbScale
 70
     0
300
1/128" = 1'-0"
140
0.0078125
141
12.0
290
     0
  0
SCALE
  5
5A
102
{ACAD_REACTORS
330
47
102
}
330
47
100
AcDbScale
 70
     0
300
1/64" = 1'-0"
140
0.015625
141
12.0
290
     0
  0
SCALE
  5
5B
102
{ACAD_REACTORS
330
47
102
}
330
47
100
AcDbScale
 70
     0
300
1/32" = 1'-0"
140
0.03125
141
12.0
290
     0
  0
SCALE
  5
5C
102
{ACAD_REACTORS
330
47
102
}
330
47
100
AcDbScale
 70
     0
300
1/16" = 1'-0"
140
0.0625
141
12.0
290
     0
  0
SCALE
  5
5D
102
{ACAD_REACTORS
330
47
102
}
330
47
100
AcDbScale
 70
     0
300
3/32" = 1'-0"
140
0.09375
141
12.0
290
     0
  0
SCALE
  5
5E
102
{ACAD_REACTORS
330
47
102
}
330
47
100
AcDbScale
 70
     0
300
1/8" = 1'-0"
140
0.125
141
12.0
290
     0
  0
SCALE
  5
5F
102
{ACAD_REACTORS
330
47
102
}
330
47
100
AcDbScale
 70
     0
300
3/16" = 1'-0"
140
0.1875
141
12.0
290
     0
  0
SCALE
  5
60
102
{ACAD_REACTORS
330
47
102
}
330
47
100
AcDbScale
 70
     0
300
1/4" = 1'-0"
140
0.25
141
12.0
290
     0
  0
SCALE
  5
61
102
{ACAD_REACTORS
330
47
102
}
330
47
100
AcDbScale
 70
     0
300
3/8" = 1'-0"
140
0.375
141
12.0
290
     0
  0
SCALE
  5
62
102
{ACAD_REACTORS
330
47
102
}
330
47
100
AcDbScale
 70
     0
300
1/2" = 1'-0"
140
0.5
141
12.0
290
     0
  0
SCALE
  5
63
102
{ACAD_REACTORS
330
47
102
}
330
47
100
AcDbScale
 70
     0
300
3/4" = 1'-0"
140
0.75
141
12.0
290
     0
  0
SCALE
  5
64
102
{ACAD_REACTORS
330
47
102
}
330
47
100
AcDbScale
 70
     0
300
1" = 1'-0"
140
1.0
141
12.0
290
     0
  0
SCALE
  5
65
102
{ACAD_REACTORS
330
47
102
}
330
47
100
AcDbScale
 70
     0
300
1-1/2" = 1'-0"
140
1.5
141
12.0
290
     0
  0
SCALE
  5
66
102
{ACAD_REACTORS
330
47
102
}
330
47
100
AcDbScale
 70
     0
300
3" = 1'-0"
140
3.0
141
12.0
290
     0
  0
SCALE
  5
67
102
{ACAD_REACTORS
330
47
102
}
330
47
100
AcDbScale
 70
     0
300
6" = 1'-0"
140
6.0
141
12.0
290
     0
  0
SCALE
  5
68
102
{ACAD_REACTORS
330
47
102
}
330
47
100
AcDbScale
 70
     0
300
1'-0" = 1'-0"
140
12.0
141
12.0
290
     0
  0
ENDSEC
  0
EOF
