  0
SECTION
  2
HEADER
  9
$ACADVER
  1
AC1015
  9
$ACADMAINTVER
 70
     6
  9
$DWGCODEPAGE
  3
ANSI_1252
  9
$INSBASE
 10
0.0
 20
0.0
 30
0.0
  9
$EXTMIN
 10
0.0
 20
0.0
 30
0.0
  9
$EXTMAX
 10
297.0
 20
210.0
 30
0.0
  9
$LIMMIN
 10
0.0
 20
0.0
  9
$LIMMAX
 10
297.0
 20
210.0
  9
$ORTHOMODE
 70
     0
  9
$REGENMODE
 70
     1
  9
$FILLMODE
 70
     1
  9
$QTEXTMODE
 70
     0
  9
$MIRRTEXT
 70
     1
  9
$LTSCALE
 40
1.0
  9
$ATTMODE
 70
     1
  9
$TEXTSIZE
 40
2.0
  9
$TRACEWID
 40
1.0
  9
$TEXTSTYLE
  7
Standard
  9
$CLAYER
  8
0
  9
$CELTYPE
  6
ByLayer
  9
$CECOLOR
 62
   256
  9
$CELTSCALE
 40
1.0
  9
$DISPSILH
 70
     0
  9
$DIMSCALE
 40
1.0
  9
$DIMASZ
 40
3.0
  9
$DIMEXO
 40
0.0
  9
$DIMDLI
 40
3.75
  9
$DIMRND
 40
0.0
  9
$DIMDLE
 40
0.0
  9
$DIMEXE
 40
1.0
  9
$DIMTP
 40
0.0
  9
$DIMTM
 40
0.0
  9
$DIMTXT
 40
2.0
  9
$DIMCEN
 40
2.5
  9
$DIMTSZ
 40
0.0
  9
$DIMTOL
 70
     0
  9
$DIMLIM
 70
     0
  9
$DIMTIH
 70
     1
  9
$DIMTOH
 70
     1
  9
$DIMSE1
 70
     0
  9
$DIMSE2
 70
     0
  9
$DIMTAD
 70
     1
  9
$DIMZIN
 70
     0
  9
$DIMBLK
  1

  9
$DIMASO
 70
     1
  9
$DIMSHO
 70
     1
  9
$DIMPOST
  1

  9
$DIMAPOST
  1

  9
$DIMALT
 70
     0
  9
$DIMALTD
 70
     3
  9
$DIMALTF
 40
0.0393700787
  9
$DIMLFAC
 40
1.0
  9
$DIMTOFL
 70
     1
  9
$DIMTVP
 40
0.0
  9
$DIMTIX
 70
     0
  9
$DIMSOXD
 70
     0
  9
$DIMSAH
 70
     0
  9
$DIMBLK1
  1

  9
$DIMBLK2
  1

  9
$DIMSTYLE
  2
ISO-25
  9
$DIMCLRD
 70
     0
  9
$DIMCLRE
 70
     0
  9
$DIMCLRT
 70
     0
  9
$DIMTFAC
 40
1.0
  9
$DIMGAP
 40
1.524
  9
$DIMJUST
 70
     0
  9
$DIMSD1
 70
     0
  9
$DIMSD2
 70
     0
  9
$DIMTOLJ
 70
     0
  9
$DIMTZIN
 70
     0
  9
$DIMALTZ
 70
     0
  9
$DIMALTTZ
 70
     0
  9
$DIMUPT
 70
     0
  9
$DIMDEC
 70
     2
  9
$DIMTDEC
 70
     3
  9
$DIMALTU
 70
     2
  9
$DIMALTTD
 70
     3
  9
$DIMTXSTY
  7
Standard
  9
$DIMAUNIT
 70
     0
  9
$DIMADEC
 70
     2
  9
$DIMALTRND
 40
0.0
  9
$DIMAZIN
 70
     0
  9
$DIMDSEP
 70
    44
  9
$DIMATFIT
 70
     3
  9
$DIMFRAC
 70
     0
  9
$DIMLDRBLK
  1

  9
$DIMLUNIT
 70
     2
  9
$DIMLWD
 70
    -2
  9
$DIMLWE
 70
    -2
  9
$DIMTMOVE
 70
     0
  9
$LUNITS
 70
     2
  9
$LUPREC
 70
     2
  9
$SKETCHINC
 40
1.0
  9
$FILLETRAD
 40
10.0
  9
$AUNITS
 70
     0
  9
$AUPREC
 70
     2
  9
$MENU
  1
.
  9
$ELEVATION
 40
0.0
  9
$PELEVATION
 40
0.0
  9
$THICKNESS
 40
0.0
  9
$LIMCHECK
 70
     0
  9
$CHAMFERA
 40
0.0
  9
$CHAMFERB
 40
0.0
  9
$CHAMFERC
 40
0.0
  9
$CHAMFERD
 40
0.0
  9
$SKPOLY
 70
     0
  9
$TDCREATE
 40
2457632.459591007
  9
$TDUCREATE
 40
2457632.376257674
  9
$TDUPDATE
 40
2457632.459592396
  9
$TDUUPDATE
 40
2457632.376259062
  9
$TDINDWG
 40
0.0000000116
  9
$TDUSRTIMER
 40
0.0000000116
  9
$USRTIMER
 70
     1
  9
$ANGBASE
 50
0.0
  9
$ANGDIR
 70
     0
  9
$PDMODE
 70
     0
  9
$PDSIZE
 40
-1.0
  9
$PLINEWID
 40
0.0
  9
$SPLFRAME
 70
     0
  9
$SPLINETYPE
 70
     6
  9
$SPLINESEGS
 70
     8
  9
$HANDSEED
  5
2D7
  9
$SURFTAB1
 70
     6
  9
$SURFTAB2
 70
     6
  9
$SURFTYPE
 70
     6
  9
$SURFU
 70
     6
  9
$SURFV
 70
     6
  9
$UCSBASE
  2

  9
$UCSNAME
  2

  9
$UCSORG
 10
0.0
 20
0.0
 30
0.0
  9
$UCSXDIR
 10
1.0
 20
0.0
 30
0.0
  9
$UCSYDIR
 10
0.0
 20
1.0
 30
0.0
  9
$UCSORTHOREF
  2

  9
$UCSORTHOVIEW
 70
     0
  9
$UCSORGTOP
 10
0.0
 20
0.0
 30
0.0
  9
$UCSORGBOTTOM
 10
0.0
 20
0.0
 30
0.0
  9
$UCSORGLEFT
 10
0.0
 20
0.0
 30
0.0
  9
$UCSORGRIGHT
 10
0.0
 20
0.0
 30
0.0
  9
$UCSORGFRONT
 10
0.0
 20
0.0
 30
0.0
  9
$UCSORGBACK
 10
0.0
 20
0.0
 30
0.0
  9
$PUCSBASE
  2

  9
$PUCSNAME
  2

  9
$PUCSORG
 10
0.0
 20
0.0
 30
0.0
  9
$PUCSXDIR
 10
1.0
 20
0.0
 30
0.0
  9
$PUCSYDIR
 10
0.0
 20
1.0
 30
0.0
  9
$PUCSORTHOREF
  2

  9
$PUCSORTHOVIEW
 70
     0
  9
$PUCSORGTOP
 10
0.0
 20
0.0
 30
0.0
  9
$PUCSORGBOTTOM
 10
0.0
 20
0.0
 30
0.0
  9
$PUCSORGLEFT
 10
0.0
 20
0.0
 30
0.0
  9
$PUCSORGRIGHT
 10
0.0
 20
0.0
 30
0.0
  9
$PUCSORGFRONT
 10
0.0
 20
0.0
 30
0.0
  9
$PUCSORGBACK
 10
0.0
 20
0.0
 30
0.0
  9
$USERI1
 70
     0
  9
$USERI2
 70
     0
  9
$USERI3
 70
     0
  9
$USERI4
 70
     0
  9
$USERI5
 70
     0
  9
$USERR1
 40
0.0
  9
$USERR2
 40
0.0
  9
$USERR3
 40
0.0
  9
$USERR4
 40
0.0
  9
$USERR5
 40
0.0
  9
$WORLDVIEW
 70
     1
  9
$SHADEDGE
 70
     3
  9
$SHADEDIF
 70
    70
  9
$TILEMODE
 70
     1
  9
$MAXACTVP
 70
    64
  9
$PINSBASE
 10
0.0
 20
0.0
 30
0.0
  9
$PLIMCHECK
 70
     0
  9
$PEXTMIN
 10
1.0000000000E+20
 20
1.0000000000E+20
 30
1.0000000000E+20
  9
$PEXTMAX
 10
-1.0000000000E+20
 20
-1.0000000000E+20
 30
-1.0000000000E+20
  9
$PLIMMIN
 10
0.0
 20
0.0
  9
$PLIMMAX
 10
420.0
 20
297.0
  9
$UNITMODE
 70
     0
  9
$VISRETAIN
 70
     1
  9
$PLINEGEN
 70
     0
  9
$PSLTSCALE
 70
     1
  9
$TREEDEPTH
 70
  3020
  9
$CMLSTYLE
  2
Standard
  9
$CMLJUST
 70
     0
  9
$CMLSCALE
 40
20.0
  9
$PROXYGRAPHICS
 70
     1
  9
$MEASUREMENT
 70
     1
  9
$CELWEIGHT
370
    -1
  9
$ENDCAPS
280
     0
  9
$JOINSTYLE
280
     0
  9
$LWDISPLAY
290
     1
  9
$INSUNITS
 70
     4
  9
$HYPERLINKBASE
  1

  9
$STYLESHEET
  1

  9
$XEDIT
290
     1
  9
$CEPSNTYPE
380
     0
  9
$PSTYLEMODE
290
     1
  9
$FINGERPRINTGUID
  2
{7BE54274-6B61-4287-BB3E-A685F1E59E4B}
  9
$VERSIONGUID
  2
{FAEB1C32-E019-11D5-929B-00C0DF256EC4}
  9
$EXTNAMES
290
     1
  9
$PSVPSCALE
 40
0.0
  9
$OLESTARTUP
290
     0
  0
ENDSEC
  0
SECTION
  2
CLASSES
  0
CLASS
  1
ACDBDICTIONARYWDFLT
  2
AcDbDictionaryWithDefault
  3
ObjectDBX Classes
 90
        0
280
     0
281
     0
  0
CLASS
  1
VISUALSTYLE
  2
AcDbVisualStyle
  3
ObjectDBX Classes
 90
     4095
280
     0
281
     0
  0
CLASS
  1
MATERIAL
  2
AcDbMaterial
  3
ObjectDBX Classes
 90
     1153
280
     0
281
     0
  0
CLASS
  1
SCALE
  2
AcDbScale
  3
ObjectDBX Classes
 90
     1153
280
     0
281
     0
  0
CLASS
  1
TABLESTYLE
  2
AcDbTableStyle
  3
ObjectDBX Classes
 90
     4095
280
     0
281
     0
  0
CLASS
  1
MLEADERSTYLE
  2
AcDbMLeaderStyle
  3
ACDB_MLEADERSTYLE_CLASS
 90
     4095
280
     0
281
     0
  0
CLASS
  1
SUN
  2
AcDbSun
  3
SCENEOE
 90
     1153
280
     0
281
     0
  0
CLASS
  1
ACDBPLACEHOLDER
  2
AcDbPlaceHolder
  3
ObjectDBX Classes
 90
        0
280
     0
281
     0
  0
CLASS
  1
LAYOUT
  2
AcDbLayout
  3
ObjectDBX Classes
 90
        0
280
     0
281
     0
  0
ENDSEC
  0
SECTION
  2
TABLES
  0
TABLE
  2
VPORT
  5
8
330
0
100
AcDbSymbolTable
 70
     1
  0
VPORT
  5
29
330
8
100
AcDbSymbolTableRecord
100
AcDbViewportTableRecord
  2
*Active
 70
     0
 10
0.0
 20
0.0
 11
1.0
 21
1.0
 12
148.5
 22
105.0
 13
0.0
 23
0.0
 14
10.0
 24
10.0
 15
10.0
 25
10.0
 16
0.0
 26
0.0
 36
1.0
 17
0.0
 27
0.0
 37
0.0
 40
210.0
 41
1.4142857143
 42
50.0
 43
0.0
 44
0.0
 50
0.0
 51
0.0
 71
     0
 72
  2000
 73
     1
 74
     3
 75
     0
 76
     0
 77
     0
 78
     0
281
     0
 65
     1
110
0.0
120
0.0
130
0.0
111
1.0
121
0.0
131
0.0
112
0.0
122
1.0
132
0.0
 79
     0
146
0.0
  0
ENDTAB
  0
TABLE
  2
LTYPE
  5
5
330
0
100
AcDbSymbolTable
 70
     6
  0
LTYPE
  5
14
330
5
100
AcDbSymbolTableRecord
100
AcDbLinetypeTableRecord
  2
ByBlock
 70
     0
  3

 72
    65
 73
     0
 40
0.0
  0
LTYPE
  5
15
330
5
100
AcDbSymbolTableRecord
100
AcDbLinetypeTableRecord
  2
ByLayer
 70
     0
  3

 72
    65
 73
     0
 40
0.0
  0
LTYPE
  5
16
330
5
100
AcDbSymbolTableRecord
100
AcDbLinetypeTableRecord
  2
Continuous
 70
     0
  3
Solid line
 72
    65
 73
     0
 40
0.0
  0
LTYPE
  5
6E
330
5
100
AcDbSymbolTableRecord
100
AcDbLinetypeTableRecord
  2
HIDDEN
 70
     0
  3
Hidden __ __ __ __ __ __ __ __ __ __ __ __ __ __
 72
    65
 73
     2
 40
1.905
 49
1.27
 74
     0
 49
-0.635
 74
     0
  0
LTYPE
  5
6F
330
5
100
AcDbSymbolTableRecord
100
AcDbLinetypeTableRecord
  2
PHANTOM
 70
     0
  3
Phantom ______  __  __  ______  __  __  ______
 72
    65
 73
     6
 40
12.7
 49
6.35
 74
     0
 49
-1.27
 74
     0
 49
1.27
 74
     0
 49
-1.27
 74
     0
 49
1.27
 74
     0
 49
-1.27
 74
     0
  0
LTYPE
  5
70
330
5
100
AcDbSymbolTableRecord
100
AcDbLinetypeTableRecord
  2
CENTER
 70
     0
  3
Center ____ _ ____ _ ____ _ ____ _ ____ _ ____
 72
    65
 73
     4
 40
10.16
 49
6.35
 74
     0
 49
-1.27
 74
     0
 49
1.27
 74
     0
 49
-1.27
 74
     0
  0
LTYPE
  5
71
330
5
100
AcDbSymbolTableRecord
100
AcDbLinetypeTableRecord
  2
CENTERX2
 70
     0
  3
Center (2x) ________  __  ________  __  _____
 72
    65
 73
     4
 40
20.32
 49
12.7
 74
     0
 49
-2.54
 74
     0
 49
2.54
 74
     0
 49
-2.54
 74
     0
  0
LTYPE
  5
72
330
5
100
AcDbSymbolTableRecord
100
AcDbLinetypeTableRecord
  2
DOT2
 70
     0
  3
Dot (.5x) ........................................
 72
    65
 73
     2
 40
0.635
 49
0.0
 74
     0
 49
-0.635
 74
     0
  0
ENDTAB
  0
TABLE
  2
LAYER
  5
2
330
0
100
AcDbSymbolTable
 70
     5
  0
LAYER
  5
10
330
2
100
AcDbSymbolTableRecord
100
AcDbLayerTableRecord
  2
0
 70
     0
 62
     7
  6
Continuous
370
    -3
390
F
  0
LAYER
  5
73
330
2
100
AcDbSymbolTableRecord
100
AcDbLayerTableRecord
  2
FORMAT
 70
     0
 62
     7
  6
Continuous
370
    -3
390
F
  0
LAYER
  5
74
330
2
100
AcDbSymbolTableRecord
100
AcDbLayerTableRecord
  2
VERMASSUNG
 70
     0
 62
     7
  6
Continuous
370
    -3
390
F
  0
LAYER
  5
75
330
2
100
AcDbSymbolTableRecord
100
AcDbLayerTableRecord
  2
KOPF_DÜNN
 70
     0
 62
     7
  6
Continuous
370
    -3
390
F
  0
LAYER
  5
76
330
2
100
AcDbSymbolTableRecord
100
AcDbLayerTableRecord
  2
KOPF_DICK
 70
     0
 62
     7
  6
Continuous
370
    15
390
F
  0
ENDTAB
  0
TABLE
  2
STYLE
  5
3
330
0
100
AcDbSymbolTable
 70
     2
  0
STYLE
  5
11
330
3
100
AcDbSymbolTableRecord
100
AcDbTextStyleTableRecord
  2
Standard
 70
     0
 40
0.0
 41
1.0
 50
0.0
 71
     0
 42
2.0
  3
txt
  4

  0
STYLE
  5
77
330
3
100
AcDbSymbolTableRecord
100
AcDbTextStyleTableRecord
  2
SLDTEXTSTYLE0
 70
     0
 40
0.0
 41
0.7
 50
0.0
 71
     0
 42
2.0
  3
TXT
  4

  0
ENDTAB
  0
TABLE
  2
VIEW
  5
6
330
0
100
AcDbSymbolTable
 70
     0
  0
ENDTAB
  0
TABLE
  2
UCS
  5
7
330
0
100
AcDbSymbolTable
 70
     0
  0
ENDTAB
  0
TABLE
  2
APPID
  5
9
330
0
100
AcDbSymbolTable
 70
     1
  0
APPID
  5
12
330
9
100
AcDbSymbolTableRecord
100
AcDbRegAppTableRecord
  2
ACAD
 70
     0
  0
ENDTAB
  0
TABLE
  2
DIMSTYLE
  5
A
330
0
100
AcDbSymbolTable
 70
     2
100
AcDbDimStyleTable
  0
DIMSTYLE
105
27
330
A
100
AcDbSymbolTableRecord
100
AcDbDimStyleTableRecord
  2
ISO-25
 70
     0
 41
2.5
 42
0.625
 43
3.75
 44
1.25
 73
     0
 74
     0
 77
     1
 78
     8
140
2.5
141
2.5
143
0.0393700787
147
0.625
171
     3
172
     1
178
     0
271
     2
272
     2
274
     3
278
    44
283
     0
284
     8
340
11
  0
DIMSTYLE
105
1D9
102
{ACAD_REACTORS
330
1D8
330
1E5
330
1F1
330
1FB
330
205
102
}
330
A
100
AcDbSymbolTableRecord
100
AcDbDimStyleTableRecord
  2
SLDDIMSTYLE0
 70
     0
 41
3.0
 44
0.0
 45
0.000000001
 73
     0
 74
     0
 77
     1
 78
    12
 79
     3
140
2.0
147
0.5
173
     1
178
     0
271
     2
272
     3
276
     2
284
    12
340
77
  0
ENDTAB
  0
TABLE
  2
BLOCK_RECORD
  5
1
330
0
100
AcDbSymbolTable
 70
     6
  0
BLOCK_RECORD
  5
1F
330
1
100
AcDbSymbolTableRecord
100
AcDbBlockTableRecord
  2
*Model_Space
340
22
  0
BLOCK_RECORD
  5
1B
330
1
100
AcDbSymbolTableRecord
100
AcDbBlockTableRecord
  2
*Paper_Space
340
1E
  0
BLOCK_RECORD
  5
23
330
1
100
AcDbSymbolTableRecord
100
AcDbBlockTableRecord
  2
*Paper_Space0
340
26
  0
BLOCK_RECORD
  5
1DA
330
1
100
AcDbSymbolTableRecord
100
AcDbBlockTableRecord
  2
_D
340
0
  0
BLOCK_RECORD
  5
1E6
330
1
100
AcDbSymbolTableRecord
100
AcDbBlockTableRecord
  2
_D_1
340
0
  0
BLOCK_RECORD
  5
1F2
330
1
100
AcDbSymbolTableRecord
100
AcDbBlockTableRecord
  2
_D_2
340
0
  0
BLOCK_RECORD
  5
1FC
330
1
100
AcDbSymbolTableRecord
100
AcDbBlockTableRecord
  2
_D_3
340
0
  0
BLOCK_RECORD
  5
206
330
1
100
AcDbSymbolTableRecord
100
AcDbBlockTableRecord
  2
_D_4
340
0
  0
ENDTAB
  0
ENDSEC
  0
SECTION
  2
BLOCKS
  0
BLOCK
  5
20
330
1F
100
AcDbEntity
  8
0
100
AcDbBlockBegin
  2
*Model_Space
 70
     0
 10
0.0
 20
0.0
 30
0.0
  3
*Model_Space
  1

  0
ENDBLK
  5
21
330
1F
100
AcDbEntity
  8
0
100
AcDbBlockEnd
  0
BLOCK
  5
1C
330
1B
100
AcDbEntity
 67
     1
  8
0
100
AcDbBlockBegin
  2
*Paper_Space
 70
     0
 10
0.0
 20
0.0
 30
0.0
  3
*Paper_Space
  1

  0
ENDBLK
  5
1D
330
1B
100
AcDbEntity
 67
     1
  8
0
100
AcDbBlockEnd
  0
BLOCK
  5
24
330
23
100
AcDbEntity
  8
0
100
AcDbBlockBegin
  2
*Paper_Space0
 70
     0
 10
0.0
 20
0.0
 30
0.0
  3
*Paper_Space0
  1

  0
ENDBLK
  5
25
330
23
100
AcDbEntity
  8
0
100
AcDbBlockEnd
  0
BLOCK
  5
1DB
330
1DA
100
AcDbEntity
  8
0
100
AcDbBlockBegin
  2
_D
 70
     0
 10
0.0
 20
0.0
 30
0.0
  3
_D
  1

  0
SOLID
  5
1DD
330
1DA
100
AcDbEntity
  8
VERMASSUNG
100
AcDbTrace
 10
48.7716215848
 20
63.7962761397
 30
0.0
 11
49.2216215848
 21
66.7962761397
 31
0.0
 12
48.3216215848
 22
66.7962761397
 32
0.0
 13
48.3216215848
 23
66.7962761397
 33
0.0
  0
SOLID
  5
1DE
330
1DA
100
AcDbEntity
  8
VERMASSUNG
100
AcDbTrace
 10
48.7716215848
 20
161.2462761397
 30
0.0
 11
48.3216215848
 21
158.2462761397
 31
0.0
 12
49.2216215848
 22
158.2462761397
 32
0.0
 13
49.2216215848
 23
158.2462761397
 33
0.0
  0
LINE
  5
1DF
330
1DA
100
AcDbEntity
  8
VERMASSUNG
100
AcDbLine
 10
176.1817674575
 20
63.7962761397
 30
0.0
 11
47.7716215848
 21
63.7962761397
 31
0.0
  0
LINE
  5
1E0
330
1DA
100
AcDbEntity
  8
VERMASSUNG
100
AcDbLine
 10
176.1817674575
 20
161.2462761397
 30
0.0
 11
47.7716215848
 21
161.2462761397
 31
0.0
  0
LINE
  5
1E1
330
1DA
100
AcDbEntity
  8
VERMASSUNG
100
AcDbLine
 10
48.7716215848
 20
63.7962761397
 30
0.0
 11
48.7716215848
 21
161.2462761397
 31
0.0
  0
MTEXT
  5
1E2
330
1DA
100
AcDbEntity
  8
VERMASSUNG
100
AcDbMText
 10
45.9934863286
 20
103.0168405063
 30
0.0
 40
2.0
 41
0.0
 71
     1
 72
     1
  1
ISO 50
  7
SLDTEXTSTYLE0
 11
3.391901413832837E-15
 21
1.0
 31
0.0
 73
     1
 44
1.0
  0
MTEXT
  5
1E3
330
1DA
100
AcDbEntity
  8
VERMASSUNG
100
AcDbMText
 10
46.1934862799
 20
112.0168401189
 30
0.0
 40
2.0
 41
0.0
 71
     1
 72
     1
  1
%%c
  7
SLDTEXTSTYLE0
 11
3.391901413832837E-15
 21
1.0
 31
0.0
 73
     1
 44
1.0
  0
MTEXT
  5
1E4
330
1DA
100
AcDbEntity
  8
VERMASSUNG
100
AcDbMText
 10
46.1934859889
 20
115.6261834518
 30
0.0
 40
2.0
 41
0.0
 71
     1
 72
     1
  1
97.45
  7
SLDTEXTSTYLE0
 11
3.391901413832837E-15
 21
1.0
 31
0.0
 73
     1
 44
1.0
  0
ENDBLK
  5
1DC
330
1DA
100
AcDbEntity
  8
0
100
AcDbBlockEnd
  0
BLOCK
  5
1E7
330
1E6
100
AcDbEntity
  8
0
100
AcDbBlockBegin
  2
_D_1
 70
     0
 10
0.0
 20
0.0
 30
0.0
  3
_D_1
  1

  0
ARC
  5
1E9
330
1E6
100
AcDbEntity
  8
VERMASSUNG
100
AcDbCircle
 10
145.7932015461
 20
181.2968478008
 30
0.0
 40
4.247059938537386
100
AcDbArc
 50
153.4349488229
 51
206.5650511771
  0
ARC
  5
1EA
330
1E6
100
AcDbEntity
  8
VERMASSUNG
100
AcDbCircle
 10
147.1703333689
 20
181.2968478008
 30
0.0
 40
4.247059938537386
100
AcDbArc
 50
333.4349488229
 51
26.5650511771
  0
SOLID
  5
1EB
330
1E6
100
AcDbEntity
  8
VERMASSUNG
100
AcDbTrace
 10
56.1317674575
 20
179.3975048554
 30
0.0
 11
59.1317674575
 21
178.9475048554
 31
0.0
 12
59.1317674575
 22
179.8475048554
 32
0.0
 13
59.1317674575
 23
179.8475048554
 33
0.0
  0
SOLID
  5
1EC
330
1E6
100
AcDbEntity
  8
VERMASSUNG
100
AcDbTrace
 10
236.8317674575
 20
179.3975048554
 30
0.0
 11
233.8317674575
 21
179.8475048554
 31
0.0
 12
233.8317674575
 22
178.9475048554
 32
0.0
 13
233.8317674575
 23
178.9475048554
 33
0.0
  0
LINE
  5
1ED
330
1E6
100
AcDbEntity
  8
VERMASSUNG
100
AcDbLine
 10
56.1317674575
 20
130.9001206671
 30
0.0
 11
56.1317674575
 21
180.3975048554
 31
0.0
  0
LINE
  5
1EE
330
1E6
100
AcDbEntity
  8
VERMASSUNG
100
AcDbLine
 10
236.8317674575
 20
147.8212761397
 30
0.0
 11
236.8317674575
 21
180.3975048554
 31
0.0
  0
LINE
  5
1EF
330
1E6
100
AcDbEntity
  8
VERMASSUNG
100
AcDbLine
 10
56.1317674575
 20
179.3975048554
 30
0.0
 11
236.8317674575
 21
179.3975048554
 31
0.0
  0
MTEXT
  5
1F0
330
1E6
100
AcDbEntity
  8
VERMASSUNG
100
AcDbMText
 10
143.5820156552
 20
181.9756404513
 30
0.0
 40
2.0
 41
0.0
 71
     1
 72
     1
  1
180.7
  7
SLDTEXTSTYLE0
 73
     1
 44
1.0
  0
ENDBLK
  5
1E8
330
1E6
100
AcDbEntity
  8
0
100
AcDbBlockEnd
  0
BLOCK
  5
1F3
330
1F2
100
AcDbEntity
  8
0
100
AcDbBlockBegin
  2
_D_2
 70
     0
 10
0.0
 20
0.0
 30
0.0
  3
_D_2
  1

  0
SOLID
  5
1F5
330
1F2
100
AcDbEntity
  8
VERMASSUNG
100
AcDbTrace
 10
157.7317674575
 20
173.3975048554
 30
0.0
 11
160.7317674575
 21
172.9475048554
 31
0.0
 12
160.7317674575
 22
173.8475048554
 32
0.0
 13
160.7317674575
 23
173.8475048554
 33
0.0
  0
SOLID
  5
1F6
330
1F2
100
AcDbEntity
  8
VERMASSUNG
100
AcDbTrace
 10
236.8317674575
 20
173.3975048554
 30
0.0
 11
233.8317674575
 21
173.8475048554
 31
0.0
 12
233.8317674575
 22
172.9475048554
 32
0.0
 13
233.8317674575
 23
172.9475048554
 33
0.0
  0
LINE
  5
1F7
330
1F2
100
AcDbEntity
  8
VERMASSUNG
100
AcDbLine
 10
157.7317674575
 20
147.4462761397
 30
0.0
 11
157.7317674575
 21
174.3975048554
 31
0.0
  0
LINE
  5
1F8
330
1F2
100
AcDbEntity
  8
VERMASSUNG
100
AcDbLine
 10
236.8317674575
 20
147.8212761397
 30
0.0
 11
236.8317674575
 21
174.3975048554
 31
0.0
  0
LINE
  5
1F9
330
1F2
100
AcDbEntity
  8
VERMASSUNG
100
AcDbLine
 10
157.7317674575
 20
173.3975048554
 30
0.0
 11
236.8317674575
 21
173.3975048554
 31
0.0
  0
MTEXT
  5
1FA
330
1F2
100
AcDbEntity
  8
VERMASSUNG
100
AcDbMText
 10
195.0824121537
 20
175.9756404513
 30
0.0
 40
2.0
 41
0.0
 71
     1
 72
     1
  1
79.1
  7
SLDTEXTSTYLE0
 73
     1
 44
1.0
  0
ENDBLK
  5
1F4
330
1F2
100
AcDbEntity
  8
0
100
AcDbBlockEnd
  0
BLOCK
  5
1FD
330
1FC
100
AcDbEntity
  8
0
100
AcDbBlockBegin
  2
_D_3
 70
     0
 10
0.0
 20
0.0
 30
0.0
  3
_D_3
  1

  0
SOLID
  5
1FF
330
1FC
100
AcDbEntity
  8
VERMASSUNG
100
AcDbTrace
 10
176.7817674575
 20
167.3975048554
 30
0.0
 11
179.7817674575
 21
166.9475048554
 31
0.0
 12
179.7817674575
 22
167.8475048554
 32
0.0
 13
179.7817674575
 23
167.8475048554
 33
0.0
  0
SOLID
  5
200
330
1FC
100
AcDbEntity
  8
VERMASSUNG
100
AcDbTrace
 10
236.8317674575
 20
167.3975048554
 30
0.0
 11
233.8317674575
 21
167.8475048554
 31
0.0
 12
233.8317674575
 22
166.9475048554
 32
0.0
 13
233.8317674575
 23
166.9475048554
 33
0.0
  0
LINE
  5
201
330
1FC
100
AcDbEntity
  8
VERMASSUNG
100
AcDbLine
 10
176.7817674575
 20
158.8162630929
 30
0.0
 11
176.7817674575
 21
168.3975048554
 31
0.0
  0
LINE
  5
202
330
1FC
100
AcDbEntity
  8
VERMASSUNG
100
AcDbLine
 10
236.8317674575
 20
147.8212761397
 30
0.0
 11
236.8317674575
 21
168.3975048554
 31
0.0
  0
LINE
  5
203
330
1FC
100
AcDbEntity
  8
VERMASSUNG
100
AcDbLine
 10
176.7817674575
 20
167.3975048554
 30
0.0
 11
236.8317674575
 21
167.3975048554
 31
0.0
  0
MTEXT
  5
204
330
1FC
100
AcDbEntity
  8
VERMASSUNG
100
AcDbMText
 10
203.7073750785
 20
169.9756404513
 30
0.0
 40
2.0
 41
0.0
 71
     1
 72
     1
  1
60.05
  7
SLDTEXTSTYLE0
 73
     1
 44
1.0
  0
ENDBLK
  5
1FE
330
1FC
100
AcDbEntity
  8
0
100
AcDbBlockEnd
  0
BLOCK
  5
207
330
206
100
AcDbEntity
  8
0
100
AcDbBlockBegin
  2
_D_4
 70
     0
 10
0.0
 20
0.0
 30
0.0
  3
_D_4
  1

  0
SOLID
  5
209
330
206
100
AcDbEntity
  8
VERMASSUNG
100
AcDbTrace
 10
245.8979816285
 20
148.5212761397
 30
0.0
 11
245.4479816285
 21
145.5212761397
 31
0.0
 12
246.3479816285
 22
145.5212761397
 32
0.0
 13
246.3479816285
 23
145.5212761397
 33
0.0
  0
SOLID
  5
20A
330
206
100
AcDbEntity
  8
VERMASSUNG
100
AcDbTrace
 10
245.8979816285
 20
76.5212761397
 30
0.0
 11
246.3479816285
 21
79.5212761397
 31
0.0
 12
245.4479816285
 22
79.5212761397
 32
0.0
 13
245.4479816285
 23
79.5212761397
 33
0.0
  0
LINE
  5
20B
330
206
100
AcDbEntity
  8
VERMASSUNG
100
AcDbLine
 10
236.1317674575
 20
148.5212761397
 30
0.0
 11
246.8979816285
 21
148.5212761397
 31
0.0
  0
LINE
  5
20C
330
206
100
AcDbEntity
  8
VERMASSUNG
100
AcDbLine
 10
236.1317674575
 20
76.5212761397
 30
0.0
 11
246.8979816285
 21
76.5212761397
 31
0.0
  0
LINE
  5
20D
330
206
100
AcDbEntity
  8
VERMASSUNG
100
AcDbLine
 10
245.8979816285
 20
148.5212761397
 30
0.0
 11
245.8979816285
 21
76.5212761397
 31
0.0
  0
MTEXT
  5
20E
330
206
100
AcDbEntity
  8
VERMASSUNG
100
AcDbMText
 10
243.1198463722
 20
106.1162764962
 30
0.0
 40
2.0
 41
0.0
 71
     1
 72
     1
  1
MBM
  7
SLDTEXTSTYLE0
 11
-7.044195017643634E-15
 21
1.0
 31
0.0
 73
     1
 44
1.0
  0
MTEXT
  5
20F
330
206
100
AcDbEntity
  8
VERMASSUNG
100
AcDbMText
 10
243.3198463235
 20
112.5162763345
 30
0.0
 40
2.0
 41
0.0
 71
     1
 72
     1
  1
%%c
  7
SLDTEXTSTYLE0
 11
-7.044195017643634E-15
 21
1.0
 31
0.0
 73
     1
 44
1.0
  0
MTEXT
  5
210
330
206
100
AcDbEntity
  8
VERMASSUNG
100
AcDbMText
 10
243.1198463722
 20
116.1262768144
 30
0.0
 40
2.0
 41
0.0
 71
     1
 72
     1
  1
72
  7
SLDTEXTSTYLE0
 11
-7.044195017643634E-15
 21
1.0
 31
0.0
 73
     1
 44
1.0
  0
ENDBLK
  5
208
330
206
100
AcDbEntity
  8
0
100
AcDbBlockEnd
  0
ENDSEC
  0
SECTION
  2
ENTITIES
  0
MTEXT
  5
78
330
1F
100
AcDbEntity
  8
KOPF_DÜNN
100
AcDbMText
 10
13.8892156294
 20
23.8442973028
 30
0.0
 40
3.0
 41
0.0
 71
     1
 72
     1
  1
102.525.721
  7
SLDTEXTSTYLE0
 73
     1
 44
1.0
  0
MTEXT
  5
79
330
1F
100
AcDbEntity
  8
VERMASSUNG
100
AcDbMText
 10
13.9329988022
 20
28.8834360957
 30
0.0
 40
3.0
 41
0.0
 71
     1
 72
     1
  1
Aufnahme_Master shank MBM 72
  7
SLDTEXTSTYLE0
 73
     1
 44
1.0
  0
MTEXT
  5
7A
330
1F
100
AcDbEntity
  8
VERMASSUNG
100
AcDbMText
 10
98.8601118557
 20
13.8365368761
 30
0.0
 40
2.0
 41
0.0
 71
     1
 72
     1
  1
Datum: 01.11.2007
  7
SLDTEXTSTYLE0
 73
     1
 44
1.0
  0
MTEXT
  5
7B
330
1F
100
AcDbEntity
  8
VERMASSUNG
100
AcDbMText
 10
13.933048693
 20
18.0482802738
 30
0.0
 40
2.0
 41
0.0
 71
     1
 72
     1
  1
DIN 69871 B 50
  7
SLDTEXTSTYLE0
 73
     1
 44
1.0
  0
MTEXT
  5
7C
330
1F
100
AcDbEntity
  8
VERMASSUNG
100
AcDbMText
 10
13.9808475933
 20
13.9090974274
 30
0.0
 40
2.0
 41
0.0
 71
     1
 72
     1
  1
Gewicht: 4089g
  7
SLDTEXTSTYLE0
 73
     1
 44
1.0
  0
LINE
  5
7D
330
1F
100
AcDbEntity
  8
0
  6
Continuous
 62
     7
370
    15
100
AcDbLine
 10
189.587615144
 20
76.5212776894
 30
0.0
 11
236.1317683873
 21
76.5212776894
 31
0.0
  0
LINE
  5
7E
330
1F
100
AcDbEntity
  8
0
  6
Continuous
 62
     7
370
    15
100
AcDbLine
 10
236.1317683873
 20
148.52127459
 30
0.0
 11
179.9222134916
 21
148.52127459
 31
0.0
  0
LINE
  5
7F
330
1F
100
AcDbEntity
  8
0
  6
Continuous
 62
     7
370
    15
100
AcDbLine
 10
236.1317683873
 20
76.5212776894
 30
0.0
 11
236.8317653356
 21
77.2212746377
 31
0.0
  0
LINE
  5
80
330
1F
100
AcDbEntity
  8
0
  6
Continuous
 62
     7
370
    15
100
AcDbLine
 10
236.8317653356
 20
147.8212776418
 30
0.0
 11
236.1317683873
 21
148.52127459
 31
0.0
  0
ARC
  5
81
330
1F
100
AcDbEntity
  8
0
  6
Continuous
 62
     7
370
    15
100
AcDbCircle
 10
160.3317674575
 20
76.9962761397
 30
0.0
 40
0.6000000000000085
100
AcDbArc
 50
0.0
 51
90.0
  0
ARC
  5
82
330
1F
100
AcDbEntity
  8
0
  6
Continuous
 62
     7
370
    15
100
AcDbCircle
 10
160.3317674575
 20
148.0462761397
 30
0.0
 40
0.5999999999999943
100
AcDbArc
 50
270.0
 51
0.0
  0
LINE
  5
83
330
1F
100
AcDbEntity
  8
0
  6
Continuous
 62
     7
370
    15
100
AcDbLine
 10
157.7317674575
 20
77.5962772603
 30
0.0
 11
160.3317674646
 21
77.5962772603
 31
0.0
  0
LINE
  5
84
330
1F
100
AcDbEntity
  8
0
  6
Continuous
 62
     7
370
    15
100
AcDbLine
 10
160.3317674646
 20
147.4462750191
 30
0.0
 11
157.7317674575
 21
147.4462750191
 31
0.0
  0
LINE
  5
85
330
1F
100
AcDbEntity
  8
0
  6
Continuous
 62
     7
370
    15
100
AcDbLine
 10
157.7317674575
 20
147.4462750191
 30
0.0
 11
57.8431521473
 21
132.8791866834
 31
0.0
  0
LINE
  5
86
330
1F
100
AcDbEntity
  8
0
  6
Continuous
 62
     7
370
    15
100
AcDbLine
 10
57.8431521473
 20
92.163365596
 30
0.0
 11
157.7317674575
 21
77.5962772603
 31
0.0
  0
ARC
  5
87
330
1F
100
AcDbEntity
  8
0
  6
Continuous
 62
     7
370
    15
100
AcDbCircle
 10
58.1317674575
 20
94.1424316123
 30
0.0
 40
1.999999999999993
100
AcDbArc
 50
180.0
 51
261.7028550302
  0
ARC
  5
88
330
1F
100
AcDbEntity
  8
0
  6
Continuous
 62
     7
370
    15
100
AcDbCircle
 10
58.1317674575
 20
130.9001206671
 30
0.0
 40
1.999999999999993
100
AcDbArc
 50
98.2971449698
 51
180.0
  0
SPLINE
  5
89
330
1F
100
AcDbEntity
  8
0
  6
Continuous
 62
     7
370
    15
100
AcDbSpline
210
0.0
220
0.0
230
1.0
 70
     8
 71
     3
 72
    13
 73
     9
 74
     0
 42
0.000000001
 43
0.00000001
 40
0.0
 40
0.0
 40
0.0
 40
0.0
 40
0.0556527005319817
 40
0.1307074357282425
 40
0.2426223465124436
 40
0.4605984187801145
 40
0.9276824156878235
 40
1.0
 40
1.0
 40
1.0
 40
1.0
 10
177.0328150061512
 20
149.3004116053391
 30
0.0
 10
177.0323324119742
 20
149.3015282853415
 30
0.0
 10
177.0311989782548
 20
149.3041509501586
 30
0.0
 10
177.0103718842086
 20
149.3552767969989
 30
0.0
 10
176.9663560293961
 20
149.47146255245
 30
0.0
 10
176.879049265286
 20
149.7582726903618
 30
0.0
 10
176.7996719098168
 20
150.0558663087302
 30
0.0
 10
176.8025589083188
 20
150.2689344090218
 30
0.0
 10
176.8029459682846
 20
150.2975004548836
 30
0.0
  0
SPLINE
  5
8A
330
1F
100
AcDbEntity
  8
0
  6
Continuous
 62
     7
370
    15
100
AcDbSpline
210
0.0
220
0.0
230
1.0
 70
     8
 71
     3
 72
    20
 73
    16
 74
     0
 42
0.000000001
 43
0.00000001
 40
0.0
 40
0.0
 40
0.0
 40
0.0
 40
0.0655956356134642
 40
0.1317523657086754
 40
0.1907588165784713
 40
0.2415482926641535
 40
0.2819690990681765
 40
0.3100262335714116
 40
0.3287605045312672
 40
0.3483026876542759
 40
0.3799168730165762
 40
0.4409545468779738
 40
0.548316728819745
 40
0.7481533927375598
 40
1.0
 40
1.0
 40
1.0
 40
1.0
 10
179.9238004652405
 20
148.5257933671284
 30
0.0
 10
179.7320056770531
 20
148.5309536322099
 30
0.0
 10
179.3467755190103
 20
148.5413183024477
 30
0.0
 10
178.8005615901698
 20
148.6647188663433
 30
0.0
 10
178.3167078884057
 20
148.8391032220831
 30
0.0
 10
177.9256431145642
 20
149.037453090109
 30
0.0
 10
177.6345941327055
 20
149.2232498367491
 30
0.0
 10
177.4433204384836
 20
149.3666378588335
 30
0.0
 10
177.3373781292982
 20
149.4533276960928
 30
0.0
 10
177.2635506842228
 20
149.5168485811081
 30
0.0
 10
177.1907093950518
 20
149.5826419602826
 30
0.0
 10
177.1138736489947
 20
149.6561516335979
 30
0.0
 10
177.0208418386153
 20
149.7521105375761
 30
0.0
 10
176.9279252876685
 20
149.8605347458898
 30
0.0
 10
176.8913668323254
 20
149.9193762238363
 30
0.0
 10
176.8709828076506
 20
149.9521846706677
 30
0.0
  0
ARC
  5
8B
330
1F
100
AcDbEntity
  8
0
  6
Continuous
 62
     7
370
    15
100
AcDbCircle
 10
171.9317674575
 20
98.0555341778
 30
0.0
 40
2.000000000000011
100
AcDbArc
 50
192.2156859337
 51
340.3453161116
  0
SPLINE
  5
8C
330
1F
100
AcDbEntity
  8
0
  6
Continuous
 62
     7
370
    15
100
AcDbSpline
210
0.0
220
0.0
230
1.0
 70
     8
 71
     3
 72
    11
 73
     7
 74
     0
 42
0.000000001
 43
0.00000001
 40
0.0
 40
0.0
 40
0.0
 40
0.0
 40
0.1304720456394447
 40
0.4810446126498819
 40
0.815272440757657
 40
1.0
 40
1.0
 40
1.0
 40
1.0
 10
214.6245089290285
 20
108.7434059298295
 30
0.0
 10
214.5450740849854
 20
108.9147022727425
 30
0.0
 10
214.2522013581392
 20
109.5462642484984
 30
0.0
 10
213.7037792531914
 20
110.7288995253663
 30
0.0
 10
213.1117652700842
 20
112.0055547701479
 30
0.0
 10
212.7943811377318
 20
112.6899707695909
 30
0.0
 10
212.6814049599314
 20
112.9335957519408
 30
0.0
  0
SPLINE
  5
8D
330
1F
100
AcDbEntity
  8
0
  6
Continuous
 62
     7
370
    15
100
AcDbSpline
210
0.0
220
0.0
230
1.0
 70
     8
 71
     3
 72
    11
 73
     7
 74
     0
 42
0.000000001
 43
0.00000001
 40
0.0
 40
0.0
 40
0.0
 40
0.0
 40
0.2164564659625277
 40
0.4403145350757812
 40
0.7519033613020265
 40
1.0
 40
1.0
 40
1.0
 40
1.0
 10
219.2248699185991
 20
108.3310863758135
 30
0.0
 10
218.9097388592456
 20
108.3593308142178
 30
0.0
 10
218.2687010169703
 20
108.4167854931952
 30
0.0
 10
217.0791110436435
 20
108.5234057418525
 30
0.0
 10
215.8030697844756
 20
108.6377739856285
 30
0.0
 10
214.9864840030321
 20
108.7109628611134
 30
0.0
 10
214.6245089290285
 20
108.7434059298295
 30
0.0
  0
SPLINE
  5
8E
330
1F
100
AcDbEntity
  8
0
  6
Continuous
 62
     7
370
    15
100
AcDbSpline
210
0.0
220
0.0
230
1.0
 70
     8
 71
     3
 72
    11
 73
     7
 74
     0
 42
0.000000001
 43
0.00000001
 40
0.0
 40
0.0
 40
0.0
 40
0.0
 40
0.2164567157464973
 40
0.4403139934787316
 40
0.7519029129338317
 40
1.0
 40
1.0
 40
1.0
 40
1.0
 10
221.8821306643629
 20
112.1089565274934
 30
0.0
 10
221.7001038923367
 20
111.8501672165673
 30
0.0
 10
221.3298269312617
 20
111.3237406995126
 30
0.0
 10
220.6426995842171
 20
110.3468343038733
 30
0.0
 10
219.9056300620657
 20
109.298936718834
 30
0.0
 10
219.4339540278427
 20
108.6283454453899
 30
0.0
 10
219.2248699185991
 20
108.3310863758135
 30
0.0
  0
SPLINE
  5
8F
330
1F
100
AcDbEntity
  8
0
  6
Continuous
 62
     7
370
    15
100
AcDbSpline
210
0.0
220
0.0
230
1.0
 70
     8
 71
     3
 72
    11
 73
     7
 74
     0
 42
0.000000001
 43
0.00000001
 40
0.0
 40
0.0
 40
0.0
 40
0.0
 40
0.1847272802606927
 40
0.5189557268378123
 40
0.8695279775655258
 40
1.0
 40
1.0
 40
1.0
 40
1.0
 10
219.9390266952658
 20
116.2991463496047
 30
0.0
 10
220.0520011056948
 20
116.0555210821377
 30
0.0
 10
220.3693809599075
 20
115.3711028003551
 30
0.0
 10
220.9614085154592
 20
114.0944533568258
 30
0.0
 10
221.5098226333977
 20
112.9118140541124
 30
0.0
 10
221.8026956891735
 20
112.2802527725469
 30
0.0
 10
221.8821306643629
 20
112.1089565274934
 30
0.0
  0
SPLINE
  5
90
330
1F
100
AcDbEntity
  8
0
  6
Continuous
 62
     7
370
    15
100
AcDbSpline
210
0.0
220
0.0
230
1.0
 70
     8
 71
     3
 72
    11
 73
     7
 74
     0
 42
0.000000001
 43
0.00000001
 40
0.0
 40
0.0
 40
0.0
 40
0.0
 40
0.2164564768259306
 40
0.4403145571740548
 40
0.7519026328160926
 40
0.9999999999999999
 40
0.9999999999999999
 40
0.9999999999999999
 40
0.9999999999999999
 10
215.3386657056951
 20
116.7114659036207
 30
0.0
 10
215.6537967606852
 20
116.6832214581385
 30
0.0
 10
216.2948345940844
 20
116.6257667647631
 30
0.0
 10
217.4844234325089
 20
116.5191467502117
 30
0.0
 10
218.7604641773458
 20
116.4047779011881
 30
0.0
 10
219.5770503643334
 20
116.3315893646264
 30
0.0
 10
219.9390266952658
 20
116.2991463496047
 30
0.0
  0
CIRCLE
  5
91
330
1F
100
AcDbEntity
  8
0
  6
Continuous
 62
     7
370
    15
100
AcDbCircle
 10
217.2817674575
 20
112.5212761397
 30
0.0
 40
4.749999999999997
  0
SPLINE
  5
92
330
1F
100
AcDbEntity
  8
0
  6
Continuous
 62
     7
370
    15
100
AcDbSpline
210
0.0
220
0.0
230
1.0
 70
     8
 71
     3
 72
    11
 73
     7
 74
     0
 42
0.000000001
 43
0.00000001
 40
0.0
 40
0.0
 40
0.0
 40
0.0
 40
0.2164567157464973
 40
0.4403139934787316
 40
0.7519029129338317
 40
1.0
 40
1.0
 40
1.0
 40
1.0
 10
212.6814049599314
 20
112.9335957519408
 30
0.0
 10
212.8634317319575
 20
113.1923850628669
 30
0.0
 10
213.2337086930326
 20
113.7188115799216
 30
0.0
 10
213.9208360400772
 20
114.6957179755609
 30
0.0
 10
214.6579055622286
 20
115.7436155606002
 30
0.0
 10
215.1295815964515
 20
116.4142068340443
 30
0.0
 10
215.3386657056951
 20
116.7114659036207
 30
0.0
  0
CIRCLE
  5
93
330
1F
100
AcDbEntity
  8
0
  6
Continuous
 62
     7
370
    15
100
AcDbCircle
 10
217.2817674575
 20
112.5212761397
 30
0.0
 40
7.199999999999983
  0
CIRCLE
  5
94
330
1F
100
AcDbEntity
  8
0
  6
Continuous
 62
     7
370
    15
100
AcDbCircle
 10
217.2817674575
 20
112.5212761397
 30
0.0
 40
8.000000000000004
  0
ARC
  5
95
330
1F
100
AcDbEntity
  8
0
  6
Continuous
 62
     7
370
    15
100
AcDbCircle
 10
217.2817674575
 20
112.5212761397
 30
0.0
 40
4.0
100
AcDbArc
 50
84.8783986768
 51
144.8783986768
  0
ARC
  5
96
330
1F
100
AcDbEntity
  8
0
  6
Continuous
 62
     7
370
    15
100
AcDbCircle
 10
217.2817674575
 20
112.5212761397
 30
0.0
 40
4.000000000000012
100
AcDbArc
 50
324.8783986768
 51
24.8783986768
  0
ARC
  5
97
330
1F
100
AcDbEntity
  8
0
  6
Continuous
 62
     7
370
    15
100
AcDbCircle
 10
217.2817674575
 20
112.5212761397
 30
0.0
 40
3.999999999999996
100
AcDbArc
 50
144.8783986768
 51
204.8783986768
  0
ARC
  5
98
330
1F
100
AcDbEntity
  8
0
  6
Continuous
 62
     7
370
    15
100
AcDbCircle
 10
217.2817674575
 20
112.5212761397
 30
0.0
 40
4.000000000000004
100
AcDbArc
 50
264.8783986768
 51
324.8783986768
  0
ARC
  5
99
330
1F
100
AcDbEntity
  8
0
  6
Continuous
 62
     7
370
    15
100
AcDbCircle
 10
217.2817674575
 20
112.5212761397
 30
0.0
 40
4.000000000000012
100
AcDbArc
 50
24.8783986768
 51
84.8783986768
  0
ARC
  5
9A
330
1F
100
AcDbEntity
  8
0
  6
Continuous
 62
     7
370
    15
100
AcDbCircle
 10
217.2817674575
 20
112.5212761397
 30
0.0
 40
4.0
100
AcDbArc
 50
204.8783986768
 51
264.8783986768
  0
LINE
  5
9B
330
1F
100
AcDbEntity
  8
0
  6
Continuous
 62
     7
370
    15
100
AcDbLine
 10
170.7417673362
 20
98.7240143875
 30
0.0
 11
170.7417673362
 21
142.3712766553
 31
0.0
  0
SPLINE
  5
9C
330
1F
100
AcDbEntity
  8
0
  6
Continuous
 62
     7
370
    15
100
AcDbSpline
210
0.0
220
0.0
230
1.0
 70
    24
 71
     3
 72
     8
 73
     4
 74
     0
 42
0.000000001
 43
0.00000001
 40
0.0
 40
0.0
 40
0.0
 40
0.0
 40
1.0
 40
1.0
 40
1.0
 40
1.0
 10
172.0649289649614
 20
142.3712761397171
 30
0.0
 10
171.618327244942
 20
142.3712761397171
 30
0.0
 10
171.1769675622031
 20
142.3712761397171
 30
0.0
 10
170.7417674574995
 20
142.3712761397171
 30
0.0
  0
LINE
  5
9D
330
1F
100
AcDbEntity
  8
0
  6
Continuous
 62
     7
370
    15
100
AcDbLine
 10
172.0649289829
 20
98.2241288582
 30
0.0
 11
172.0649289829
 21
142.3712766553
 31
0.0
  0
SPLINE
  5
9E
330
1F
100
AcDbEntity
  8
0
  6
Continuous
 62
     7
370
    15
100
AcDbSpline
210
0.0
220
0.0
230
1.0
 70
     8
 71
     3
 72
    10
 73
     6
 74
     0
 42
0.000000001
 43
0.00000001
 40
0.0
 40
0.0
 40
0.0
 40
0.0
 40
0.5
 40
0.5
 40
1.0
 40
1.0
 40
1.0
 40
1.0
 10
172.0649289649614
 20
98.224129074586
 30
0.0
 10
171.842201938088
 20
98.36761757487977
 30
0.0
 10
171.6205160508629
 20
98.48233832061266
 30
0.0
 10
171.1792952130109
 20
98.65209874997052
 30
0.0
 10
170.959736565612
 20
98.7075187443579
 30
0.0
 10
170.7417674574998
 20
98.72401407372755
 30
0.0
  0
SPLINE
  5
9F
330
1F
100
AcDbEntity
  8
0
  6
Continuous
 62
     7
370
    15
100
AcDbSpline
210
0.0
220
0.0
230
1.0
 70
     8
 71
     3
 72
    10
 73
     6
 74
     0
 42
0.000000001
 43
0.00000001
 40
0.0
 40
0.0
 40
0.0
 40
0.0
 40
0.5
 40
0.5
 40
1.0
 40
1.0
 40
1.0
 40
1.0
 10
161.1474274886535
 20
65.8878218725249
 30
0.0
 10
161.1960780572332
 20
65.85986488125748
 30
0.0
 10
161.2534632691926
 20
65.83592259623067
 30
0.0
 10
161.3841763773586
 20
65.80180413313494
 30
0.0
 10
161.4569159110972
 20
65.7920167983711
 30
0.0
 10
161.5317674574995
 20
65.7920167983711
 30
0.0
  0
SPLINE
  5
A0
330
1F
100
AcDbEntity
  8
0
  6
Continuous
 62
     7
370
    15
100
AcDbSpline
210
0.0
220
0.0
230
1.0
 70
     8
 71
     3
 72
    10
 73
     6
 74
     0
 42
0.000000001
 43
0.00000001
 40
0.0
 40
0.0
 40
0.0
 40
0.0
 40
0.5
 40
0.5
 40
1.0
 40
1.0
 40
1.0
 40
1.0
 10
161.1474274886535
 20
65.88782187252488
 30
0.0
 10
161.0892394820713
 20
65.9554056027037
 30
0.0
 10
161.036797015545
 20
66.03588183734546
 30
0.0
 10
160.9584447083664
 20
66.21891746032821
 30
0.0
 10
160.9317674574994
 20
66.32479316312381
 30
0.0
 10
160.9317674574994
 20
66.43230647234442
 30
0.0
  0
LINE
  5
A1
330
1F
100
AcDbEntity
  8
0
  6
Continuous
 62
     7
370
    15
100
AcDbLine
 10
160.9317673767
 20
66.4323049421
 30
0.0
 11
160.9317673767
 21
142.3712766553
 31
0.0
  0
SPLINE
  5
A2
330
1F
100
AcDbEntity
  8
0
  6
Continuous
 62
     7
370
    15
100
AcDbSpline
210
0.0
220
0.0
230
1.0
 70
    24
 71
     3
 72
    12
 73
     8
 74
     0
 42
0.000000001
 43
0.00000001
 40
0.0
 40
0.0
 40
0.0
 40
0.0
 40
0.25
 40
0.25
 40
0.5
 40
0.5
 40
1.0
 40
1.0
 40
1.0
 40
1.0
 10
161.5317674574995
 20
142.3712761397171
 30
0.0
 10
161.4413578227364
 20
142.3712761397171
 30
0.0
 10
161.3531328976095
 20
142.3712761397171
 30
0.0
 10
161.1994589561013
 20
142.3712761397171
 30
0.0
 10
161.1338557363399
 20
142.3712761397171
 30
0.0
 10
160.9799683960153
 20
142.3712761397171
 30
0.0
 10
160.9317674574995
 20
142.3712761397171
 30
0.0
 10
160.9317674574995
 20
142.3712761397171
 30
0.0
  0
LINE
  5
A3
330
1F
100
AcDbEntity
  8
0
  6
Continuous
 62
     7
370
    15
100
AcDbLine
 10
161.5317675216
 20
65.7920169468
 30
0.0
 11
165.5986064044
 21
65.7920169468
 31
0.0
  0
LINE
  5
A4
330
1F
100
AcDbEntity
  8
0
  6
Continuous
 62
     7
370
    15
100
AcDbLine
 10
165.5986064044
 20
142.3712766553
 30
0.0
 11
161.5317675216
 21
142.3712766553
 31
0.0
  0
LINE
  5
A5
330
1F
100
AcDbEntity
  8
0
  6
Continuous
 62
     7
370
    15
100
AcDbLine
 10
165.5986064044
 20
65.7920169468
 30
0.0
 11
165.5986064044
 21
142.3712766553
 31
0.0
  0
SPLINE
  5
A6
330
1F
100
AcDbEntity
  8
0
  6
Continuous
 62
     7
370
    15
100
AcDbSpline
210
0.0
220
0.0
230
1.0
 70
     8
 71
     3
 72
     8
 73
     4
 74
     0
 42
0.000000001
 43
0.00000001
 40
0.0
 40
0.0
 40
0.0
 40
0.0
 40
1.0
 40
1.0
 40
1.0
 40
1.0
 10
166.9217674574995
 20
67.90153673088733
 30
0.0
 10
166.6320390114749
 20
67.3793167207238
 30
0.0
 10
166.3420138612572
 20
66.85726333846385
 30
0.0
 10
166.0517196269954
 20
66.33536107274077
 30
0.0
  0
SPLINE
  5
A7
330
1F
100
AcDbEntity
  8
0
  6
Continuous
 62
     7
370
    15
100
AcDbSpline
210
0.0
220
0.0
230
1.0
 70
     8
 71
     3
 72
     8
 73
     4
 74
     0
 42
0.000000001
 43
0.00000001
 40
0.0
 40
0.0
 40
0.0
 40
0.0
 40
0.0011862984959113
 40
0.0011862984959113
 40
0.0011862984959113
 40
0.0011862984959113
 10
165.5986059500376
 20
65.79201679837112
 30
0.0
 10
165.7506307119084
 20
65.97292864798912
 30
0.0
 10
165.9016881571243
 20
66.15404097842995
 30
0.0
 10
166.0517196269954
 20
66.33536107274077
 30
0.0
  0
SPLINE
  5
A8
330
1F
100
AcDbEntity
  8
0
  6
Continuous
 62
     7
370
    15
100
AcDbSpline
210
0.0
220
0.0
230
1.0
 70
    24
 71
     3
 72
     8
 73
     4
 74
     0
 42
0.000000001
 43
0.00000001
 40
0.0
 40
0.0
 40
0.0
 40
0.0
 40
1.0
 40
1.0
 40
1.0
 40
1.0
 10
166.9217674574995
 20
142.3712761397171
 30
0.0
 10
166.4865673527958
 20
142.3712761397171
 30
0.0
 10
166.045207670057
 20
142.3712761397171
 30
0.0
 10
165.5986059500376
 20
142.3712761397171
 30
0.0
  0
LINE
  5
A9
330
1F
100
AcDbEntity
  8
0
  6
Continuous
 62
     7
370
    15
100
AcDbLine
 10
166.9217671198
 20
67.9015370841
 30
0.0
 11
166.9217671198
 21
142.3712766553
 31
0.0
  0
LINE
  5
AA
330
1F
100
AcDbEntity
  8
0
  6
Continuous
 62
     7
370
    15
100
AcDbLine
 10
176.1817668495
 20
142.3712766553
 30
0.0
 11
172.0649289829
 21
142.3712766553
 31
0.0
  0
LINE
  5
AB
330
1F
100
AcDbEntity
  8
0
  6
Continuous
 62
     7
370
    15
100
AcDbLine
 10
172.0649289829
 20
65.7920169468
 30
0.0
 11
176.1817668495
 21
65.7920169468
 31
0.0
  0
LINE
  5
AC
330
1F
100
AcDbEntity
  8
0
  6
Continuous
 62
     7
370
    15
100
AcDbLine
 10
172.0649289829
 20
65.7920169468
 30
0.0
 11
172.0649289829
 21
93.5323352749
 31
0.0
  0
SPLINE
  5
AD
330
1F
100
AcDbEntity
  8
0
  6
Continuous
 62
     7
370
    15
100
AcDbSpline
210
0.0
220
0.0
230
1.0
 70
     8
 71
     3
 72
    34
 73
    30
 74
     0
 42
0.000000001
 43
0.00000001
 40
0.0
 40
0.0
 40
0.0
 40
0.0
 40
0.0624999999999994
 40
0.0624999999999994
 40
0.1249999999999988
 40
0.1249999999999988
 40
0.1874999999999983
 40
0.1874999999999983
 40
0.2499999999999982
 40
0.2499999999999982
 40
0.3124999999999982
 40
0.3124999999999982
 40
0.3749999999999982
 40
0.3749999999999982
 40
0.499999999999999
 40
0.499999999999999
 40
0.6249999999999998
 40
0.6249999999999998
 40
0.6874999999999996
 40
0.6874999999999996
 40
0.7499999999999993
 40
0.7499999999999993
 40
0.8124999999999991
 40
0.8124999999999991
 40
0.8749999999999993
 40
0.8749999999999993
 40
0.9374999999999997
 40
0.9374999999999997
 40
1.0
 40
1.0
 40
1.0
 40
1.0
 10
172.0649289649614
 20
93.53233575171593
 30
0.0
 10
172.2243207927492
 20
93.5401758476387
 30
0.0
 10
172.3803232761928
 20
93.56183449572914
 30
0.0
 10
172.6858327922701
 20
93.63168272322194
 30
0.0
 10
172.8367271272823
 20
93.6805084255502
 30
0.0
 10
173.1246264719731
 20
93.80343237895751
 30
0.0
 10
173.2605728749328
 20
93.87673988709183
 30
0.0
 10
173.5167554905248
 20
94.04675051086316
 30
0.0
 10
173.637937778284
 20
94.14462430306463
 30
0.0
 10
173.8550838501567
 20
94.35720847849659
 30
0.0
 10
173.952045723117
 20
94.47225441702619
 30
0.0
 10
174.1226081589426
 20
94.72011553714633
 30
0.0
 10
174.1958482121545
 20
94.85314903421191
 30
0.0
 10
174.3707286689034
 20
95.26265705034206
 30
0.0
 10
174.4317666298793
 20
95.56061770011712
 30
0.0
 10
174.4317682851024
 20
96.15205925599157
 30
0.0
 10
174.3707336755161
 20
96.45223280596815
 30
0.0
 10
174.1958439081142
 20
96.86746408623593
 30
0.0
 10
174.1226002026898
 20
97.00281920448275
 30
0.0
 10
173.9520394869531
 20
97.25571853586939
 30
0.0
 10
173.8550757713597
 20
97.37348381347715
 30
0.0
 10
173.6379154427725
 20
97.5916141088458
 30
0.0
 10
173.5167341840856
 20
97.69231743399276
 30
0.0
 10
173.260563957147
 20
97.867561126826
 30
0.0
 10
173.1246206074842
 20
97.9433060959166
 30
0.0
 10
172.8367179043011
 20
98.07047447121886
 30
0.0
 10
172.6858277083843
 20
98.12107574354633
 30
0.0
 10
172.3803222046787
 20
98.19350484329418
 30
0.0
 10
172.2243208064152
 20
98.21599061469117
 30
0.0
 10
172.0649289649614
 20
98.224129074586
 30
0.0
  0
SPLINE
  5
AE
330
1F
100
AcDbEntity
  8
0
  6
Continuous
 62
     7
370
    15
100
AcDbSpline
210
0.0
220
0.0
230
1.0
 70
     8
 71
     3
 72
    12
 73
     8
 74
     0
 42
0.000000001
 43
0.00000001
 40
0.0
 40
0.0
 40
0.0
 40
0.0
 40
0.2499999999999969
 40
0.2499999999999969
 40
0.4999999999999938
 40
0.4999999999999938
 40
1.0
 40
1.0
 40
1.0
 40
1.0
 10
176.1817674574995
 20
65.79201679837112
 30
0.0
 10
176.2777402106744
 20
65.79201679837112
 30
0.0
 10
176.3701681748288
 20
65.80829012247972
 30
0.0
 10
176.5265982749383
 20
65.86166384447611
 30
0.0
 10
176.5900766997112
 20
65.89779210201047
 30
0.0
 10
176.7383558605383
 20
66.01849329828974
 30
0.0
 10
176.7817674574995
 20
66.1123428846549
 30
0.0
 10
176.7817674574995
 20
66.20664715960211
 30
0.0
  0
SPLINE
  5
AF
330
1F
100
AcDbEntity
  8
0
  6
Continuous
 62
     7
370
    15
100
AcDbSpline
210
0.0
220
0.0
230
1.0
 70
    24
 71
     3
 72
    14
 73
    10
 74
     0
 42
0.000000001
 43
0.00000001
 40
0.0
 40
0.0
 40
0.0
 40
0.0
 40
0.25
 40
0.25
 40
0.5
 40
0.5
 40
0.75
 40
0.75
 40
1.0
 40
1.0
 40
1.0
 40
1.0
 10
176.7817674574995
 20
142.3712761397171
 30
0.0
 10
176.7817674574995
 20
142.3712761397171
 30
0.0
 10
176.7696977313399
 20
142.3712761397171
 30
0.0
 10
176.7199336482476
 20
142.3712761397171
 30
0.0
 10
176.6823822211263
 20
142.3712761397171
 30
0.0
 10
176.5797824894241
 20
142.3712761397171
 30
0.0
 10
176.5146378687026
 20
142.3712761397171
 30
0.0
 10
176.3600360049246
 20
142.3712761397171
 30
0.0
 10
176.2711112918468
 20
142.3712761397171
 30
0.0
 10
176.1817674575001
 20
142.3712761397171
 30
0.0
  0
LINE
  5
B0
330
1F
100
AcDbEntity
  8
0
  6
Continuous
 62
     7
370
    15
100
AcDbLine
 10
176.7817676929
 20
66.2066454823
 30
0.0
 11
176.7817676929
 21
142.3712766553
 31
0.0
  0
SPLINE
  5
B1
330
1F
100
AcDbEntity
  8
0
  6
Continuous
 62
     7
370
    15
100
AcDbSpline
210
0.0
220
0.0
230
1.0
 70
     8
 71
     3
 72
    14
 73
    10
 74
     0
 42
0.000000001
 43
0.00000001
 40
0.0
 40
0.0
 40
0.0
 40
0.0
 40
0.25
 40
0.25
 40
0.5
 40
0.5
 40
0.75
 40
0.75
 40
1.0
 40
1.0
 40
1.0
 40
1.0
 10
170.7417674574995
 20
98.76962829574006
 30
0.0
 10
170.7417674574995
 20
98.81160467759359
 30
0.0
 10
170.7121245035283
 20
98.83945506523449
 30
0.0
 10
170.6054696697982
 20
98.85295394052451
 30
0.0
 10
170.5291912751941
 20
98.83833843848683
 30
0.0
 10
170.3611397321276
 20
98.76624923431864
 30
0.0
 10
170.2700199255193
 20
98.7091116238359
 30
0.0
 10
170.0973428132666
 20
98.56688392324463
 30
0.0
 10
170.0164203737385
 20
98.48332009773256
 30
0.0
 10
169.9417674574995
 20
98.38995042583666
 30
0.0
  0
SPLINE
  5
B2
330
1F
100
AcDbEntity
  8
0
  6
Continuous
 62
     7
370
    15
100
AcDbSpline
210
0.0
220
0.0
230
1.0
 70
     8
 71
     3
 72
    10
 73
     6
 74
     0
 42
0.000000001
 43
0.00000001
 40
0.0
 40
0.0
 40
0.0
 40
0.0
 40
0.5
 40
0.5
 40
1.0
 40
1.0
 40
1.0
 40
1.0
 10
170.7417674574998
 20
94.59197287509602
 30
0.0
 10
170.9586582900205
 20
94.35493393564747
 30
0.0
 10
171.1778109266794
 20
94.15276370065398
 30
0.0
 10
171.6192954269483
 20
93.8020116291353
 30
0.0
 10
171.8424978922217
 20
93.65333553673844
 30
0.0
 10
172.0649289649614
 20
93.53233575171593
 30
0.0
  0
LINE
  5
B3
330
1F
100
AcDbEntity
  8
0
  6
Continuous
 62
     7
370
    15
100
AcDbLine
 10
170.7417673362
 20
94.6375879283
 30
0.0
 11
170.7417673362
 21
94.5919736112
 31
0.0
  0
SPLINE
  5
B4
330
1F
100
AcDbEntity
  8
0
  6
Continuous
 62
     7
370
    15
100
AcDbSpline
210
0.0
220
0.0
230
1.0
 70
     8
 71
     3
 72
    16
 73
    12
 74
     0
 42
0.000000001
 43
0.00000001
 40
0.0
 40
0.0
 40
0.0
 40
0.0
 40
0.2500000000000038
 40
0.2500000000000038
 40
0.5000000000000075
 40
0.5000000000000075
 40
0.6250000000000082
 40
0.6250000000000082
 40
0.7500000000000089
 40
0.7500000000000089
 40
1.0
 40
1.0
 40
1.0
 40
1.0
 10
169.9417674574995
 20
95.54598658278302
 30
0.0
 10
170.0157753477217
 20
95.45563900259735
 30
0.0
 10
170.0963933427107
 20
95.3676794297977
 30
0.0
 10
170.2701613282149
 20
95.19134450573613
 30
0.0
 10
170.3609124591564
 20
95.10573726507012
 30
0.0
 10
170.4870255566178
 20
94.98454156904512
 30
0.0
 10
170.5266023174811
 20
94.94600999005428
 30
0.0
 10
170.5990849741823
 20
94.87161400392496
 30
0.0
 10
170.6320129646511
 20
94.83559721600346
 30
0.0
 10
170.7118031346461
 20
94.73684454018647
 30
0.0
 10
170.7417674574995
 20
94.68008053840438
 30
0.0
 10
170.7417674574995
 20
94.63758709710882
 30
0.0
  0
SPLINE
  5
B5
330
1F
100
AcDbEntity
  8
0
  6
Continuous
 62
     7
370
    15
100
AcDbSpline
210
0.0
220
0.0
230
1.0
 70
     8
 71
     3
 72
    16
 73
    12
 74
     0
 42
0.000000001
 43
0.00000001
 40
0.0
 40
0.0
 40
0.0
 40
0.0
 40
0.2499999999999992
 40
0.2499999999999992
 40
0.4999999999999983
 40
0.4999999999999983
 40
0.7499999999999976
 40
0.7499999999999976
 40
0.8749999999999988
 40
0.8749999999999988
 40
1.0
 40
1.0
 40
1.0
 40
1.0
 10
169.9417674574995
 20
98.38995042583666
 30
0.0
 10
169.7763533510193
 20
98.18306418981132
 30
0.0
 10
169.6501560200437
 20
97.95719549200254
 30
0.0
 10
169.4757497217129
 20
97.46832624638967
 30
0.0
 10
169.431919682616
 20
97.21655919304507
 30
0.0
 10
169.431616009646
 20
96.70477986846275
 30
0.0
 10
169.4754728697063
 20
96.45372515938004
 30
0.0
 10
169.6053946289735
 20
96.09287659123792
 30
0.0
 10
169.6595094403815
 20
95.97560382288935
 30
0.0
 10
169.786186430525
 20
95.75311487155054
 30
0.0
 10
169.8590601508857
 20
95.64695426330726
 30
0.0
 10
169.9417674574995
 20
95.54598658278302
 30
0.0
  0
SPLINE
  5
B6
330
1F
100
AcDbEntity
  8
0
  6
Continuous
 62
     7
370
    15
100
AcDbSpline
210
0.0
220
0.0
230
1.0
 70
    24
 71
     3
 72
    14
 73
    10
 74
     0
 42
0.000000001
 43
0.00000001
 40
0.0
 40
0.0
 40
0.0
 40
0.0
 40
0.25
 40
0.25
 40
0.5
 40
0.5
 40
0.75
 40
0.75
 40
1.0
 40
1.0
 40
1.0
 40
1.0
 10
170.7417674574995
 20
142.3712761397171
 30
0.0
 10
170.7417674574995
 20
142.3712761397171
 30
0.0
 10
170.7254864227237
 20
142.3712761397171
 30
0.0
 10
170.6608233601991
 20
142.3712761397171
 30
0.0
 10
170.6113435639104
 20
142.3712761397171
 30
0.0
 10
170.4773738067716
 20
142.3712761397171
 30
0.0
 10
170.3912590801722
 20
142.3712761397171
 30
0.0
 10
170.1858029644592
 20
142.3712761397171
 30
0.0
 10
170.0643824272663
 20
142.3712761397171
 30
0.0
 10
169.9417674574995
 20
142.3712761397171
 30
0.0
  0
SPLINE
  5
B7
330
1F
100
AcDbEntity
  8
0
  6
Continuous
 62
     7
370
    15
100
AcDbSpline
210
0.0
220
0.0
230
1.0
 70
     8
 71
     3
 72
    14
 73
    10
 74
     0
 42
0.000000001
 43
0.00000001
 40
0.0
 40
0.0
 40
0.0
 40
0.0
 40
0.25
 40
0.25
 40
0.5
 40
0.5
 40
0.75
 40
0.75
 40
1.0
 40
1.0
 40
1.0
 40
1.0
 10
167.7217674574995
 20
68.87350987384733
 30
0.0
 10
167.6153224495902
 20
68.87350987384733
 30
0.0
 10
167.5084236983167
 20
68.85094032441421
 30
0.0
 10
167.3122054428742
 20
68.76449723317229
 30
0.0
 10
167.2225471294098
 20
68.70019331550515
 30
0.0
 10
167.0770934165287
 20
68.54522380146219
 30
0.0
 10
167.0190576338025
 20
68.45245831521845
 30
0.0
 10
166.9417724794179
 20
68.25399143357508
 30
0.0
 10
166.9217674574995
 20
68.1469670117813
 30
0.0
 10
166.9217674574995
 20
68.04018465131047
 30
0.0
  0
SPLINE
  5
B8
330
1F
100
AcDbEntity
  8
0
  6
Continuous
 62
     7
370
    15
100
AcDbSpline
210
0.0
220
0.0
230
1.0
 70
    24
 71
     3
 72
    14
 73
    10
 74
     0
 42
0.000000001
 43
0.00000001
 40
0.0
 40
0.0
 40
0.0
 40
0.0
 40
0.25
 40
0.25
 40
0.5
 40
0.5
 40
0.75
 40
0.75
 40
1.0
 40
1.0
 40
1.0
 40
1.0
 10
167.7217674574995
 20
142.3712761397171
 30
0.0
 10
167.5987861579532
 20
142.3712761397171
 30
0.0
 10
167.4785962695512
 20
142.3712761397171
 30
0.0
 10
167.273572439872
 20
142.3712761397171
 30
0.0
 10
167.1869779510699
 20
142.3712761397171
 30
0.0
 10
167.0518700643075
 20
142.3712761397171
 30
0.0
 10
167.0033469792793
 20
142.3712761397171
 30
0.0
 10
166.9376644705526
 20
142.3712761397171
 30
0.0
 10
166.9217674574995
 20
142.3712761397171
 30
0.0
 10
166.9217674574995
 20
142.3712761397171
 30
0.0
  0
LINE
  5
B9
330
1F
100
AcDbEntity
  8
0
  6
Continuous
 62
     7
370
    15
100
AcDbLine
 10
169.9417677639
 20
68.8735100264
 30
0.0
 11
167.7217676235
 21
68.8735100264
 31
0.0
  0
LINE
  5
BA
330
1F
100
AcDbEntity
  8
0
  6
Continuous
 62
     7
370
    15
100
AcDbLine
 10
169.9417677639
 20
142.3712766553
 30
0.0
 11
167.7217676235
 21
142.3712766553
 31
0.0
  0
SPLINE
  5
BB
330
1F
100
AcDbEntity
  8
0
  6
Continuous
 62
     7
370
    15
100
AcDbSpline
210
0.0
220
0.0
230
1.0
 70
     8
 71
     3
 72
     8
 73
     4
 74
     0
 42
0.000000001
 43
0.00000001
 40
0.0000000000000004
 40
0.0000000000000004
 40
0.0000000000000004
 40
0.0000000000000004
 40
0.0011862984959128
 40
0.0011862984959128
 40
0.0011862984959128
 40
0.0011862984959128
 10
171.6118152879996
 20
66.33536107274077
 30
0.0
 10
171.761846757871
 20
66.15404097842972
 30
0.0
 10
171.9129042030904
 20
65.97292864798935
 30
0.0
 10
172.0649289649614
 20
65.79201679837112
 30
0.0
  0
SPLINE
  5
BC
330
1F
100
AcDbEntity
  8
0
  6
Continuous
 62
     7
370
    15
100
AcDbSpline
210
0.0
220
0.0
230
1.0
 70
     8
 71
     3
 72
     8
 73
     4
 74
     0
 42
0.000000001
 43
0.00000001
 40
0.0
 40
0.0
 40
0.0
 40
0.0
 40
1.0
 40
1.0
 40
1.0
 40
1.0
 10
171.6118152880026
 20
66.33536107274243
 30
0.0
 10
171.3215210537412
 20
66.85726333846497
 30
0.0
 10
171.0314959035237
 20
67.37931672072436
 30
0.0
 10
170.7417674574995
 20
67.90153673088733
 30
0.0
  0
LINE
  5
BD
330
1F
100
AcDbEntity
  8
0
  6
Continuous
 62
     7
370
    15
100
AcDbLine
 10
170.7417673362
 20
67.9015370841
 30
0.0
 11
170.7417673362
 21
94.5919736112
 31
0.0
  0
SPLINE
  5
BE
330
1F
100
AcDbEntity
  8
0
  6
Continuous
 62
     7
370
    15
100
AcDbSpline
210
0.0
220
0.0
230
1.0
 70
     8
 71
     3
 72
    14
 73
    10
 74
     0
 42
0.000000001
 43
0.00000001
 40
0.0
 40
0.0
 40
0.0
 40
0.0
 40
0.25
 40
0.25
 40
0.5
 40
0.5
 40
0.75
 40
0.75
 40
1.0
 40
1.0
 40
1.0
 40
1.0
 10
170.7417674574995
 20
68.04018465131048
 30
0.0
 10
170.7417674574995
 20
68.14724863765129
 30
0.0
 10
170.7217836312595
 20
68.2539879640258
 30
0.0
 10
170.644348548826
 20
68.45273786621658
 30
0.0
 10
170.5864096266666
 20
68.54529208270911
 30
0.0
 10
170.4407718209058
 20
68.70038902611469
 30
0.0
 10
170.3519828245705
 20
68.76412918302756
 30
0.0
 10
170.1554344643659
 20
68.85087774011517
 30
0.0
 10
170.0492952346665
 20
68.87350987384733
 30
0.0
 10
169.9417674574995
 20
68.87350987384733
 30
0.0
  0
SPLINE
  5
BF
330
1F
100
AcDbEntity
  8
0
  6
Continuous
 62
     7
370
    15
100
AcDbSpline
210
0.0
220
0.0
230
1.0
 70
     8
 71
     3
 72
    20
 73
    16
 74
     0
 42
0.000000001
 43
0.00000001
 40
0.0
 40
0.0
 40
0.0
 40
0.0
 40
0.1250000000000008
 40
0.1250000000000008
 40
0.2500000000000016
 40
0.2500000000000016
 40
0.3750000000000023
 40
0.3750000000000023
 40
0.5000000000000031
 40
0.5000000000000031
 40
0.6250000000000039
 40
0.6250000000000039
 40
0.7500000000000047
 40
0.7500000000000047
 40
1.0
 40
1.0
 40
1.0
 40
1.0
 10
178.2177726926031
 20
77.2212761397171
 30
0.0
 10
178.1692735901766
 20
77.2212761397171
 30
0.0
 10
178.1092768363743
 20
77.20738454180763
 30
0.0
 10
177.9777707002597
 20
77.15732753557633
 30
0.0
 10
177.9055050439048
 20
77.1206355458877
 30
0.0
 10
177.7581493932714
 20
77.02679685671872
 30
0.0
 10
177.6833590043221
 20
76.9700125441839
 30
0.0
 10
177.5350971210653
 20
76.83609609792073
 30
0.0
 10
177.461183466476
 20
76.75826971128186
 30
0.0
 10
177.3219839982012
 20
76.58548526037437
 30
0.0
 10
177.2560986450003
 20
76.4901470276634
 30
0.0
 10
177.1335059273765
 20
76.27939461472214
 30
0.0
 10
177.0762206579906
 20
76.16230667608954
 30
0.0
 10
176.9276081283307
 20
75.79135217196257
 30
0.0
 10
176.8574585583495
 20
75.51072427455374
 30
0.0
 10
176.819567107179
 20
75.2212761397171
 30
0.0
  0
SPLINE
  5
C0
330
1F
100
AcDbEntity
  8
0
  6
Continuous
 62
     7
370
    15
100
AcDbSpline
210
0.0
220
0.0
230
1.0
 70
    24
 71
     3
 72
    20
 73
    16
 74
     0
 42
0.000000001
 43
0.00000001
 40
0.0
 40
0.0
 40
0.0
 40
0.0
 40
0.0624999999999997
 40
0.0624999999999997
 40
0.1249999999999994
 40
0.1249999999999994
 40
0.2499999999999988
 40
0.2499999999999988
 40
0.374999999999999
 40
0.374999999999999
 40
0.4999999999999992
 40
0.4999999999999992
 40
0.7499999999999997
 40
0.7499999999999997
 40
1.0
 40
1.0
 40
1.0
 40
1.0
 10
180.7817674574995
 20
77.2212761397171
 30
0.0
 10
180.6804150895335
 20
77.2212761397171
 30
0.0
 10
180.5824039396233
 20
77.2212761397171
 30
0.0
 10
180.3930998430382
 20
77.2212761397171
 30
0.0
 10
180.3062396551127
 20
77.2212761397171
 30
0.0
 10
180.0602302994255
 20
77.2212761397171
 30
0.0
 10
179.9197679546846
 20
77.2212761397171
 30
0.0
 10
179.6652033087172
 20
77.2212761397171
 30
0.0
 10
179.5500991377605
 20
77.2212761397171
 30
0.0
 10
179.3376867928878
 20
77.2212761397171
 30
0.0
 10
179.2397284793651
 20
77.2212761397171
 30
0.0
 10
178.9615396198011
 20
77.2212761397171
 30
0.0
 10
178.7966924967771
 20
77.2212761397171
 30
0.0
 10
178.4903919241723
 20
77.2212761397171
 30
0.0
 10
178.3493011771287
 20
77.2212761397171
 30
0.0
 10
178.217772692603
 20
77.2212761397171
 30
0.0
  0
LINE
  5
C1
330
1F
100
AcDbEntity
  8
0
  6
Continuous
 62
     7
370
    15
100
AcDbLine
 10
236.1317683873
 20
76.5212776894
 30
0.0
 11
236.1317683873
 21
148.52127459
 31
0.0
  0
SPLINE
  5
C2
330
1F
100
AcDbEntity
  8
0
  6
Continuous
 62
     7
370
    15
100
AcDbSpline
210
0.0
220
0.0
230
1.0
 70
     8
 71
     3
 72
    11
 73
     7
 74
     0
 42
0.000000001
 43
0.00000001
 40
0.0
 40
0.0
 40
0.0
 40
0.0
 40
0.124616900224668
 40
0.3937077485265751
 40
0.6704520379047679
 40
0.9999999999999999
 40
0.9999999999999999
 40
0.9999999999999999
 40
0.9999999999999999
 10
189.5876151440287
 20
76.53700959036827
 30
0.0
 10
189.5980435389216
 20
76.53331185903369
 30
0.0
 10
189.6309904334972
 20
76.52162945098328
 30
0.0
 10
189.3254032780262
 20
76.62982144630325
 30
0.0
 10
188.6887869452236
 20
76.85197240005884
 30
0.0
 10
187.9286474873405
 20
77.09122807840559
 30
0.0
 10
187.5154764322185
 20
77.22127463768005
 30
0.0
  0
LINE
  5
C3
330
1F
100
AcDbEntity
  8
0
  6
Continuous
 62
     7
370
    15
100
AcDbLine
 10
180.7817683486
 20
77.2212746377
 30
0.0
 11
187.5154764322
 21
77.2212746377
 31
0.0
  0
SPLINE
  5
C4
330
1F
100
AcDbEntity
  8
0
  6
Continuous
 62
     7
370
    15
100
AcDbSpline
210
0.0
220
0.0
230
1.0
 70
     8
 71
     3
 72
    52
 73
    48
 74
     0
 42
0.000000001
 43
0.00000001
 40
0.0
 40
0.0
 40
0.0
 40
0.0
 40
0.0312499999999997
 40
0.0312499999999997
 40
0.0624999999999993
 40
0.0624999999999993
 40
0.1249999999999989
 40
0.1249999999999989
 40
0.1562499999999988
 40
0.1562499999999988
 40
0.1874999999999986
 40
0.1874999999999986
 40
0.2187499999999985
 40
0.2187499999999985
 40
0.2499999999999984
 40
0.2499999999999984
 40
0.3124999999999981
 40
0.3124999999999981
 40
0.3437499999999986
 40
0.3437499999999986
 40
0.3749999999999991
 40
0.3749999999999991
 40
0.4375
 40
0.4375
 40
0.4687500000000001
 40
0.4687500000000001
 40
0.5000000000000002
 40
0.5000000000000002
 40
0.5625000000000004
 40
0.5625000000000004
 40
0.5937500000000002
 40
0.5937500000000002
 40
0.625
 40
0.625
 40
0.6875000000000001
 40
0.6875000000000001
 40
0.7500000000000001
 40
0.7500000000000001
 40
0.8125000000000001
 40
0.8125000000000001
 40
0.8750000000000001
 40
0.8750000000000001
 40
0.9062500000000001
 40
0.9062500000000001
 40
0.9375000000000001
 40
0.9375000000000001
 40
1.0
 40
1.0
 40
1.0
 40
1.0
 10
227.2817674574995
 20
112.5212761397171
 30
0.0
 10
227.2817674574995
 20
112.2124873812882
 30
0.0
 10
227.2635405323572
 20
111.9041062034946
 30
0.0
 10
227.1903409081222
 20
111.2881649908089
 30
0.0
 10
227.134777650999
 20
110.9785206974394
 30
0.0
 10
226.9158965391377
 20
110.0700971094743
 30
0.0
 10
226.7021573828561
 20
109.4907143600171
 30
0.0
 10
226.2861870290122
 20
108.6582370493448
 30
0.0
 10
226.1308621708963
 20
108.3862509851783
 30
0.0
 10
225.7957388094258
 20
107.8659850703214
 30
0.0
 10
225.6152852284288
 20
107.6161715877555
 30
0.0
 10
225.2298299779637
 20
107.1360624235144
 30
0.0
 10
225.0248240009484
 20
106.9057704219804
 30
0.0
 10
224.5906471598091
 20
106.4642586702481
 30
0.0
 10
224.3611993024873
 20
106.2530448144586
 30
0.0
 10
223.6507235866948
 20
105.6591044495197
 30
0.0
 10
223.1436368802357
 20
105.311175354138
 30
0.0
 10
222.3350581504332
 20
104.8570600975798
 30
0.0
 10
222.0561504251264
 20
104.7165360757584
 30
0.0
 10
221.490394037187
 20
104.4621947013865
 30
0.0
 10
221.2033530037718
 20
104.3480957938355
 30
0.0
 10
220.3301370588148
 20
104.0435250504923
 30
0.0
 10
219.7319671969637
 20
103.8904595885655
 30
0.0
 10
218.8103406892155
 20
103.7361655593682
 30
0.0
 10
218.4994973483596
 20
103.6975970034048
 30
0.0
 10
217.8812170635014
 20
103.6470093016026
 30
0.0
 10
217.5723493362881
 20
103.6347233637607
 30
0.0
 10
216.6465500129821
 20
103.6362194830623
 30
0.0
 10
216.030415768329
 20
103.6880228801857
 30
0.0
 10
215.1078737941367
 20
103.8451338980319
 30
0.0
 10
214.8027581659512
 20
103.9105644506859
 30
0.0
 10
214.2040917100462
 20
104.0656841443981
 30
0.0
 10
213.9094670643424
 20
104.155548285379
 30
0.0
 10
213.039620952283
 20
104.4619942031952
 30
0.0
 10
212.4782859723646
 20
104.7150370800648
 30
0.0
 10
211.3952945646215
 20
105.3267899709926
 30
0.0
 10
210.8886543576221
 20
105.6773159414306
 30
0.0
 10
209.9519266499724
 20
106.4644451867598
 30
0.0
 10
209.5196103184531
 20
106.9027658957621
 30
0.0
 10
208.7423070884854
 20
107.8744711202169
 30
0.0
 10
208.4103841326573
 20
108.391219110549
 30
0.0
 10
207.999649510182
 20
109.2143834764199
 30
0.0
 10
207.8773725903579
 20
109.4968373079268
 30
0.0
 10
207.663949658157
 20
110.0789807898112
 30
0.0
 10
207.5725321453643
 20
110.3806107288102
 30
0.0
 10
207.3549622782832
 20
111.2872357457721
 30
0.0
 10
207.2817674574995
 20
111.8999952556881
 30
0.0
 10
207.2817674574995
 20
112.5212761397171
 30
0.0
  0
SPLINE
  5
C5
330
1F
100
AcDbEntity
  8
0
  6
Continuous
 62
     7
370
    15
100
AcDbSpline
210
0.0
220
0.0
230
1.0
 70
     8
 71
     3
 72
    54
 73
    50
 74
     0
 42
0.000000001
 43
0.00000001
 40
0.0
 40
0.0
 40
0.0
 40
0.0
 40
0.0312499999999999
 40
0.0312499999999999
 40
0.0624999999999997
 40
0.0624999999999997
 40
0.0937499999999996
 40
0.0937499999999996
 40
0.1249999999999995
 40
0.1249999999999995
 40
0.1874999999999994
 40
0.1874999999999994
 40
0.2187499999999992
 40
0.2187499999999992
 40
0.2499999999999989
 40
0.2499999999999989
 40
0.3124999999999985
 40
0.3124999999999985
 40
0.3749999999999981
 40
0.3749999999999981
 40
0.4374999999999976
 40
0.4374999999999976
 40
0.4687499999999973
 40
0.4687499999999973
 40
0.4999999999999971
 40
0.4999999999999971
 40
0.5624999999999972
 40
0.5624999999999972
 40
0.5937499999999973
 40
0.5937499999999973
 40
0.6249999999999974
 40
0.6249999999999974
 40
0.687499999999999
 40
0.687499999999999
 40
0.7187499999999992
 40
0.7187499999999992
 40
0.7499999999999993
 40
0.7499999999999993
 40
0.8124999999999996
 40
0.8124999999999996
 40
0.8437499999999997
 40
0.8437499999999997
 40
0.8749999999999997
 40
0.8749999999999997
 40
0.9374999999999999
 40
0.9374999999999999
 40
0.9687499999999999
 40
0.9687499999999999
 40
1.0
 40
1.0
 40
1.0
 40
1.0
 10
207.2817674574995
 20
112.5212761397171
 30
0.0
 10
207.2817674574995
 20
112.831988960713
 30
0.0
 10
207.3006082462189
 20
113.1470648611613
 30
0.0
 10
207.3750608272145
 20
113.7665246419219
 30
0.0
 10
207.4303740154957
 20
114.0716932881021
 30
0.0
 10
207.5757859575172
 20
114.6732759265094
 30
0.0
 10
207.6658885190517
 20
114.9696889336448
 30
0.0
 10
207.8806638911729
 20
115.553843127333
 30
0.0
 10
208.0058501477789
 20
115.8420978930341
 30
0.0
 10
208.423196155105
 20
116.6738649302685
 30
0.0
 10
208.7588959520196
 20
117.191854233526
 30
0.0
 10
209.3434775775173
 20
117.9179797384814
 30
0.0
 10
209.551512821091
 20
118.1506904646938
 30
0.0
 10
209.9874342077616
 20
118.5921376382025
 30
0.0
 10
210.2160653345198
 20
118.8018244508889
 30
0.0
 10
210.9332552945053
 20
119.3987728567987
 30
0.0
 10
211.4430337553965
 20
119.7458639747294
 30
0.0
 10
212.5137729806206
 20
120.3441718491326
 30
0.0
 10
213.0770518555113
 20
120.5965998368719
 30
0.0
 10
214.2534623778675
 20
121.0051071071204
 30
0.0
 10
214.8518884046899
 20
121.156292574464
 30
0.0
 10
215.7641584703048
 20
121.3078093281974
 30
0.0
 10
216.0707031289886
 20
121.3456826581644
 30
0.0
 10
216.6887680885361
 20
121.3958848267594
 30
0.0
 10
217.0017923434042
 20
121.4081718779276
 30
0.0
 10
217.9353164729059
 20
121.4055595891697
 30
0.0
 10
218.5499933132953
 20
121.3521704433062
 30
0.0
 10
219.4607855383011
 20
121.1962825135908
 30
0.0
 10
219.7625014210504
 20
121.1316066592722
 30
0.0
 10
220.3620806080774
 20
120.9761185730777
 30
0.0
 10
220.661313761214
 20
120.8847515086542
 30
0.0
 10
221.5377087510305
 20
120.5750829313136
 30
0.0
 10
222.0966256796877
 20
120.3213586108882
 30
0.0
 10
222.8969757536105
 20
119.8688562017365
 30
0.0
 10
223.1573803213547
 20
119.7059561755829
 30
0.0
 10
223.6648721982503
 20
119.3547653088109
 30
0.0
 10
223.9129251635747
 20
119.1655063641084
 30
0.0
 10
224.6205601450084
 20
118.5699779272467
 30
0.0
 10
225.048619129243
 20
118.1336641487923
 30
0.0
 10
225.622368156066
 20
117.4168013192085
 30
0.0
 10
225.8021448393096
 20
117.1673733068271
 30
0.0
 10
226.1370705264461
 20
116.6458830531776
 30
0.0
 10
226.2917231954364
 20
116.3740322317364
 30
0.0
 10
226.7043161862599
 20
115.545885687494
 30
0.0
 10
226.9163132623349
 20
114.9700522192019
 30
0.0
 10
227.1338544793851
 20
114.0681980799156
 30
0.0
 10
227.1897112368199
 20
113.7587769230049
 30
0.0
 10
227.2635336079218
 20
113.1394052881396
 30
0.0
 10
227.2817674574995
 20
112.8301368456867
 30
0.0
 10
227.2817674574995
 20
112.5212761397171
 30
0.0
  0
LINE
  5
C6
330
1F
100
AcDbEntity
  8
0
  6
Continuous
 62
     7
370
    15
100
AcDbLine
 10
236.8317653356
 20
77.2212746377
 30
0.0
 11
236.8317653356
 21
147.8212776418
 31
0.0
  0
LINE
  5
C7
330
1F
100
AcDbEntity
  8
0
  6
Continuous
 62
     7
370
    15
100
AcDbLine
 10
157.7317674575
 20
77.5962772603
 30
0.0
 11
157.7317674575
 21
147.4462750191
 31
0.0
  0
SPLINE
  5
C8
330
1F
100
AcDbEntity
  8
0
  6
Continuous
 62
     7
370
    15
100
AcDbSpline
210
0.0
220
0.0
230
1.0
 70
     8
 71
     3
 72
    12
 73
     8
 74
     0
 42
0.000000001
 43
0.00000001
 40
0.0
 40
0.0
 40
0.0
 40
0.0
 40
0.4999999999999958
 40
0.4999999999999958
 40
0.7499999999999979
 40
0.7499999999999979
 40
1.0
 40
1.0
 40
1.0
 40
1.0
 10
176.7817674574995
 20
158.8162630929476
 30
0.0
 10
176.7817674574995
 20
158.9364556996127
 30
0.0
 10
176.7277990272304
 20
159.0543630001277
 30
0.0
 10
176.5667123862975
 20
159.1937425446111
 30
0.0
 10
176.5019499668244
 20
159.231907842175
 30
0.0
 10
176.34989596526
 20
159.2865601045085
 30
0.0
 10
176.2671661921108
 20
159.3011207944926
 30
0.0
 10
176.1817674574995
 20
159.3011207944926
 30
0.0
  0
SPLINE
  5
C9
330
1F
100
AcDbEntity
  8
0
  6
Continuous
 62
     7
370
    15
100
AcDbSpline
210
0.0
220
0.0
230
1.0
 70
     8
 71
     3
 72
    12
 73
     8
 74
     0
 42
0.000000001
 43
0.00000001
 40
0.0
 40
0.0
 40
0.0
 40
0.0
 40
0.250000000000004
 40
0.250000000000004
 40
0.500000000000008
 40
0.500000000000008
 40
1.0
 40
1.0
 40
1.0
 40
1.0
 10
176.1817674575
 20
151.0323540913923
 30
0.0
 10
176.2713045156711
 20
151.0323540913922
 30
0.0
 10
176.3612036944597
 20
151.0055267925612
 30
0.0
 10
176.514628553459
 20
150.9138198273017
 30
0.0
 10
176.5796776108367
 20
150.8495648857028
 30
0.0
 10
176.732996842101
 20
150.6301527396413
 30
0.0
 10
176.7817674574995
 20
150.4483374298444
 30
0.0
 10
176.7817674574995
 20
150.2703572543615
 30
0.0
  0
LINE
  5
CA
330
1F
100
AcDbEntity
  8
0
  6
Continuous
 62
     7
370
    15
100
AcDbLine
 10
176.7817676929
 20
150.2703579898
 30
0.0
 11
176.7817676929
 21
158.8162633414
 31
0.0
  0
SPLINE
  5
CB
330
1F
100
AcDbEntity
  8
0
  6
Continuous
 62
     7
370
    15
100
AcDbSpline
210
0.0
220
0.0
230
1.0
 70
     8
 71
     3
 72
    14
 73
    10
 74
     0
 42
0.000000001
 43
0.00000001
 40
0.0
 40
0.0
 40
0.0
 40
0.0
 40
0.25
 40
0.25
 40
0.5
 40
0.5
 40
0.75
 40
0.75
 40
1.0
 40
1.0
 40
1.0
 40
1.0
 10
170.7417674574995
 20
157.0023676281237
 30
0.0
 10
170.7417674574995
 20
156.8950252559763
 30
0.0
 10
170.7217712654353
 20
156.7883962491285
 30
0.0
 10
170.6440731810906
 20
156.5892444699773
 30
0.0
 10
170.5860800361971
 20
156.4967615716618
 30
0.0
 10
170.4400335433742
 20
156.3415257365526
 30
0.0
 10
170.3506958042066
 20
156.2777917949402
 30
0.0
 10
170.1559407921461
 20
156.1919615285451
 30
0.0
 10
170.0484105209372
 20
156.1690424055866
 30
0.0
 10
169.9417674574974
 20
156.1690424055869
 30
0.0
  0
SPLINE
  5
CC
330
1F
100
AcDbEntity
  8
0
  6
Continuous
 62
     7
370
    15
100
AcDbSpline
210
0.0
220
0.0
230
1.0
 70
     8
 71
     3
 72
    14
 73
    10
 74
     0
 42
0.000000001
 43
0.00000001
 40
0.0
 40
0.0
 40
0.0
 40
0.0
 40
0.25
 40
0.25
 40
0.5
 40
0.5
 40
0.75
 40
0.75
 40
1.0
 40
1.0
 40
1.0
 40
1.0
 10
169.9417674574995
 20
146.8611582012502
 30
0.0
 10
170.0630939874852
 20
146.8611582012502
 30
0.0
 10
170.1847986960475
 20
146.8999397166833
 30
0.0
 10
170.3912385749336
 20
147.0310943383772
 30
0.0
 10
170.4771891133897
 20
147.1217464229644
 30
0.0
 10
170.6111008731379
 20
147.3238634579056
 30
0.0
 10
170.6606653099571
 20
147.4375984014448
 30
0.0
 10
170.725519337925
 20
147.6705580185113
 30
0.0
 10
170.7417674574995
 20
147.7932562848405
 30
0.0
 10
170.7417674574995
 20
147.9143192414341
 30
0.0
  0
LINE
  5
CD
330
1F
100
AcDbEntity
  8
0
  6
Continuous
 62
     7
370
    15
100
AcDbLine
 10
169.9417677639
 20
156.169042253
 30
0.0
 11
167.7217676235
 21
156.169042253
 31
0.0
  0
LINE
  5
CE
330
1F
100
AcDbEntity
  8
0
  6
Continuous
 62
     7
370
    15
100
AcDbLine
 10
167.7217676235
 20
146.8611585731
 30
0.0
 11
169.9417677639
 21
146.8611585731
 31
0.0
  0
SPLINE
  5
CF
330
1F
100
AcDbEntity
  8
0
  6
Continuous
 62
     7
370
    15
100
AcDbSpline
210
0.0
220
0.0
230
1.0
 70
     8
 71
     3
 72
    14
 73
    10
 74
     0
 42
0.000000001
 43
0.00000001
 40
0.0
 40
0.0
 40
0.0
 40
0.0
 40
0.25
 40
0.25
 40
0.5
 40
0.5
 40
0.75
 40
0.75
 40
1.0
 40
1.0
 40
1.0
 40
1.0
 10
160.9317674574995
 20
150.2703572543774
 30
0.0
 10
160.931767457501
 20
150.3600809327192
 30
0.0
 10
160.9439809109479
 20
150.4489295082571
 30
0.0
 10
160.9935587663581
 20
150.6200076295605
 30
0.0
 10
161.0314224559984
 20
150.7028992248168
 30
0.0
 10
161.1336865093546
 20
150.8493933420996
 30
0.0
 10
161.1999116946448
 20
150.9146680676123
 30
0.0
 10
161.3535990187675
 20
151.0060335887298
 30
0.0
 10
161.4421193959315
 20
151.0323540913922
 30
0.0
 10
161.5317674574995
 20
151.0323540913922
 30
0.0
  0
LINE
  5
D0
330
1F
100
AcDbEntity
  8
0
  6
Continuous
 62
     7
370
    15
100
AcDbLine
 10
161.5317675216
 20
151.0323549444
 30
0.0
 11
165.5986064044
 21
151.0323549444
 31
0.0
  0
SPLINE
  5
D1
330
1F
100
AcDbEntity
  8
0
  6
Continuous
 62
     7
370
    15
100
AcDbSpline
210
0.0
220
0.0
230
1.0
 70
     8
 71
     3
 72
     8
 73
     4
 74
     0
 42
0.000000001
 43
0.00000001
 40
0.0
 40
0.0
 40
0.0
 40
0.0
 40
1.0
 40
1.0
 40
1.0
 40
1.0
 10
165.5986059500376
 20
151.0323540913922
 30
0.0
 10
166.0454546779653
 20
150.053118193136
 30
0.0
 10
166.4868210358611
 20
149.0719162004091
 30
0.0
 10
166.9217674574995
 20
148.0884118820267
 30
0.0
  0
LINE
  5
D2
330
1F
100
AcDbEntity
  8
0
  6
Continuous
 62
     7
370
    15
100
AcDbLine
 10
166.9217671198
 20
148.0884107585
 30
0.0
 11
166.9217671198
 21
147.9143204922
 31
0.0
  0
SPLINE
  5
D3
330
1F
100
AcDbEntity
  8
0
  6
Continuous
 62
     7
370
    15
100
AcDbSpline
210
0.0
220
0.0
230
1.0
 70
     8
 71
     3
 72
    12
 73
     8
 74
     0
 42
0.000000001
 43
0.00000001
 40
0.0
 40
0.0
 40
0.0
 40
0.0
 40
0.499999999999994
 40
0.499999999999994
 40
0.749999999999997
 40
0.749999999999997
 40
1.0
 40
1.0
 40
1.0
 40
1.0
 10
166.9217674574995
 20
147.9143192414341
 30
0.0
 10
166.9217674574995
 20
147.6718961454534
 30
0.0
 10
166.9846885989413
 20
147.426125624852
 30
0.0
 10
167.1867174959438
 20
147.1211794454352
 30
0.0
 10
167.273011220591
 20
147.0305865788367
 30
0.0
 10
167.4784850151577
 20
146.9001530158999
 30
0.0
 10
167.5984355757574
 20
146.8611582012502
 30
0.0
 10
167.7217674574995
 20
146.8611582012502
 30
0.0
  0
LINE
  5
D4
330
1F
100
AcDbEntity
  8
0
  6
Continuous
 62
     7
370
    15
100
AcDbLine
 10
170.7417673362
 20
147.9143204922
 30
0.0
 11
170.7417673362
 21
148.0884107585
 31
0.0
  0
SPLINE
  5
D5
330
1F
100
AcDbEntity
  8
0
  6
Continuous
 62
     7
370
    15
100
AcDbSpline
210
0.0
220
0.0
230
1.0
 70
     8
 71
     3
 72
     8
 73
     4
 74
     0
 42
0.000000001
 43
0.00000001
 40
0.0
 40
0.0
 40
0.0
 40
0.0
 40
1.0
 40
1.0
 40
1.0
 40
1.0
 10
170.7417674574995
 20
148.0884118820267
 30
0.0
 10
171.1767138791378
 20
149.0719162004091
 30
0.0
 10
171.6180802370337
 20
150.053118193136
 30
0.0
 10
172.0649289649614
 20
151.0323540913922
 30
0.0
  0
LINE
  5
D6
330
1F
100
AcDbEntity
  8
0
  6
Continuous
 62
     7
370
    15
100
AcDbLine
 10
172.0649289829
 20
151.0323549444
 30
0.0
 11
176.1817668495
 21
151.0323549444
 31
0.0
  0
LINE
  5
D7
330
1F
100
AcDbEntity
  8
0
  6
Continuous
 62
     7
370
    15
100
AcDbLine
 10
176.7817676929
 20
150.2703579898
 30
0.0
 11
176.7817676929
 21
142.3712766553
 31
0.0
  0
LINE
  5
D8
330
1F
100
AcDbEntity
  8
0
  6
Continuous
 62
     7
370
    15
100
AcDbLine
 10
160.9317673767
 20
150.2703579898
 30
0.0
 11
160.9317673767
 21
142.3712766553
 31
0.0
  0
LINE
  5
D9
330
1F
100
AcDbEntity
  8
0
  6
Continuous
 62
     7
370
    15
100
AcDbLine
 10
176.1817668495
 20
159.3011210496
 30
0.0
 11
172.0649289829
 21
159.3011210496
 31
0.0
  0
LINE
  5
DA
330
1F
100
AcDbEntity
  8
0
  6
Continuous
 62
     7
370
    15
100
AcDbLine
 10
172.0649289829
 20
151.0323549444
 30
0.0
 11
172.0649289829
 21
159.3011210496
 31
0.0
  0
SPLINE
  5
DB
330
1F
100
AcDbEntity
  8
0
  6
Continuous
 62
     7
370
    15
100
AcDbSpline
210
0.0
220
0.0
230
1.0
 70
     8
 71
     3
 72
     8
 73
     4
 74
     0
 42
0.000000001
 43
0.00000001
 40
0.0
 40
0.0
 40
0.0
 40
0.0
 40
1.0
 40
1.0
 40
1.0
 40
1.0
 10
171.5084384796659
 20
158.5213093843845
 30
0.0
 10
171.2526621689105
 20
158.0613310291197
 30
0.0
 10
170.9970987708045
 20
157.6012365688119
 30
0.0
 10
170.7417674574995
 20
157.1410155485469
 30
0.0
  0
SPLINE
  5
DC
330
1F
100
AcDbEntity
  8
0
  6
Continuous
 62
     7
370
    15
100
AcDbSpline
210
0.0
220
0.0
230
1.0
 70
     8
 71
     3
 72
     8
 73
     4
 74
     0
 42
0.000000001
 43
0.00000001
 40
0.0
 40
0.0
 40
0.0
 40
0.0
 40
0.0012352705496738
 40
0.0012352705496738
 40
0.0012352705496738
 40
0.0012352705496738
 10
172.0649289649614
 20
159.3011207944926
 30
0.0
 10
171.8789805396393
 20
159.041345038741
 30
0.0
 10
171.6934737304682
 20
158.7814109601137
 30
0.0
 10
171.508438479666
 20
158.521309384385
 30
0.0
  0
LINE
  5
DD
330
1F
100
AcDbEntity
  8
0
  6
Continuous
 62
     7
370
    15
100
AcDbLine
 10
170.7417673362
 20
148.0884107585
 30
0.0
 11
170.7417673362
 21
157.1410151954
 31
0.0
  0
SPLINE
  5
DE
330
1F
100
AcDbEntity
  8
0
  6
Continuous
 62
     7
370
    15
100
AcDbSpline
210
0.0
220
0.0
230
1.0
 70
     8
 71
     3
 72
    12
 73
     8
 74
     0
 42
0.000000001
 43
0.00000001
 40
0.0
 40
0.0
 40
0.0
 40
0.0
 40
0.2500000000000007
 40
0.2500000000000007
 40
0.5000000000000014
 40
0.5000000000000014
 40
1.0
 40
1.0
 40
1.0
 40
1.0
 10
167.7217674574995
 20
156.1690424055869
 30
0.0
 10
167.6154224776235
 20
156.1690424055869
 30
0.0
 10
167.508146130221
 20
156.1917576434464
 30
0.0
 10
167.3127703408248
 20
156.2777828103287
 30
0.0
 10
167.2242166047479
 20
156.3407615372572
 30
0.0
 10
167.0029586806166
 20
156.5759530476942
 30
0.0
 10
166.9217674574995
 20
156.7891292621795
 30
0.0
 10
166.9217674574995
 20
157.0023676281236
 30
0.0
  0
LINE
  5
DF
330
1F
100
AcDbEntity
  8
0
  6
Continuous
 62
     7
370
    15
100
AcDbLine
 10
165.5986064044
 20
159.3011210496
 30
0.0
 11
161.5317675216
 21
159.3011210496
 31
0.0
  0
LINE
  5
E0
330
1F
100
AcDbEntity
  8
0
  6
Continuous
 62
     7
370
    15
100
AcDbLine
 10
165.5986064044
 20
151.0323549444
 30
0.0
 11
165.5986064044
 21
159.3011210496
 31
0.0
  0
SPLINE
  5
E1
330
1F
100
AcDbEntity
  8
0
  6
Continuous
 62
     7
370
    15
100
AcDbSpline
210
0.0
220
0.0
230
1.0
 70
     8
 71
     3
 72
     8
 73
     4
 74
     0
 42
0.000000001
 43
0.00000001
 40
0.0
 40
0.0
 40
0.0
 40
0.0
 40
0.0012352705496723
 40
0.0012352705496723
 40
0.0012352705496723
 40
0.0012352705496723
 10
166.1550964353321
 20
158.5213093843862
 30
0.0
 10
165.9700611845302
 20
158.7814109601144
 30
0.0
 10
165.7845543753594
 20
159.0413450387414
 30
0.0
 10
165.5986059500376
 20
159.3011207944926
 30
0.0
  0
SPLINE
  5
E2
330
1F
100
AcDbEntity
  8
0
  6
Continuous
 62
     7
370
    15
100
AcDbSpline
210
0.0
220
0.0
230
1.0
 70
     8
 71
     3
 72
     8
 73
     4
 74
     0
 42
0.000000001
 43
0.00000001
 40
0.0
 40
0.0
 40
0.0
 40
0.0
 40
1.0
 40
1.0
 40
1.0
 40
1.0
 10
166.9217674574995
 20
157.1410155485469
 30
0.0
 10
166.6664361441941
 20
157.6012365688125
 30
0.0
 10
166.4108727460878
 20
158.0613310291209
 30
0.0
 10
166.1550964353321
 20
158.5213093843862
 30
0.0
  0
LINE
  5
E3
330
1F
100
AcDbEntity
  8
0
  6
Continuous
 62
     7
370
    15
100
AcDbLine
 10
166.9217671198
 20
148.0884107585
 30
0.0
 11
166.9217671198
 21
157.1410151954
 31
0.0
  0
SPLINE
  5
E4
330
1F
100
AcDbEntity
  8
0
  6
Continuous
 62
     7
370
    15
100
AcDbSpline
210
0.0
220
0.0
230
1.0
 70
     8
 71
     3
 72
    10
 73
     6
 74
     0
 42
0.000000001
 43
0.00000001
 40
0.0
 40
0.0
 40
0.0
 40
0.0
 40
0.5
 40
0.5
 40
1.0
 40
1.0
 40
1.0
 40
1.0
 10
161.2216363764458
 20
159.2314404654398
 30
0.0
 10
161.145183286527
 20
159.1611776942192
 30
0.0
 10
161.0763215642579
 20
159.0740827791775
 30
0.0
 10
160.969809333185
 20
158.8649136509252
 30
0.0
 10
160.9317674574994
 20
158.7395961016857
 30
0.0
 10
160.9317674574994
 20
158.6102458070898
 30
0.0
  0
SPLINE
  5
E5
330
1F
100
AcDbEntity
  8
0
  6
Continuous
 62
     7
370
    15
100
AcDbSpline
210
0.0
220
0.0
230
1.0
 70
     8
 71
     3
 72
     8
 73
     4
 74
     0
 42
0.000000001
 43
0.00000001
 40
0.0
 40
0.0
 40
0.0
 40
0.0
 40
1.0
 40
1.0
 40
1.0
 40
1.0
 10
161.5317674574995
 20
159.3011207944926
 30
0.0
 10
161.420689272162
 20
159.3011207944926
 30
0.0
 10
161.3130252682598
 20
159.2759716189381
 30
0.0
 10
161.2216363764458
 20
159.2314404654398
 30
0.0
  0
LINE
  5
E6
330
1F
100
AcDbEntity
  8
0
  6
Continuous
 62
     7
370
    15
100
AcDbLine
 10
160.9317673767
 20
150.2703579898
 30
0.0
 11
160.9317673767
 21
158.6102473373
 31
0.0
  0
LINE
  5
E7
330
1F
100
AcDbEntity
  8
0
  6
Continuous
 62
     7
370
    15
100
AcDbLine
 10
56.1317686854
 20
94.142431655
 30
0.0
 11
56.1317686854
 21
130.9001206244
 31
0.0
  0
ARC
  5
E8
330
1F
100
AcDbEntity
  8
0
  6
Continuous
 62
     7
370
    15
100
AcDbCircle
 10
171.7976169268
 20
97.3324048971
 30
0.0
 40
2.369707250905896
100
AcDbArc
 50
185.6203299175
 51
252.2890843555
  0
ARC
  5
E9
330
1F
100
AcDbEntity
  8
0
  6
Continuous
 62
     7
370
    15
100
AcDbCircle
 10
171.9484752937
 20
97.4395685058
 30
0.0
 40
2.520135433679694
100
AcDbArc
 50
249.7622145608
 51
339.9433461867
  0
ARC
  5
EA
330
1F
100
AcDbEntity
  8
0
  6
Continuous
 62
     7
370
    15
100
AcDbCircle
 10
171.7606669037
 20
97.2373592674
 30
0.0
 40
2.181399248729519
100
AcDbArc
 50
159.26752016
 51
253.0470182115
  0
ARC
  5
EB
330
1F
100
AcDbEntity
  8
0
  6
Continuous
 62
     7
370
    15
100
AcDbCircle
 10
171.9491983647
 20
97.3695442658
 30
0.0
 40
2.367064187020484
100
AcDbArc
 50
249.6127475989
 51
345.549823666
  0
ARC
  5
EC
330
1F
100
AcDbEntity
  8
0
  6
Continuous
 62
     7
370
    15
100
AcDbCircle
 10
171.7788654876
 20
97.2279101167
 30
0.0
 40
1.837698945659598
100
AcDbArc
 50
124.9990245476
 51
253.2004850097
  0
ARC
  5
ED
330
1F
100
AcDbEntity
  8
0
  6
Continuous
 62
     7
370
    15
100
AcDbCircle
 10
171.9555928848
 20
97.3154531765
 30
0.0
 40
1.977824793145184
100
AcDbArc
 50
249.0286405794
 51
357.659602652
  0
CIRCLE
  5
EE
330
1F
100
AcDbEntity
  8
0
  6
HIDDEN
 62
     7
370
     0
100
AcDbCircle
 10
217.2817674575
 20
112.5212761397
 30
0.0
 40
7.012850235103728
  0
CIRCLE
  5
EF
330
1F
100
AcDbEntity
  8
0
  6
HIDDEN
 62
     7
370
     0
100
AcDbCircle
 10
217.2817674575
 20
112.5212761397
 30
0.0
 40
5.29471659962102
  0
CIRCLE
  5
F0
330
1F
100
AcDbEntity
  8
0
  6
HIDDEN
 62
     7
370
     0
100
AcDbCircle
 10
217.2817674575
 20
112.5212761397
 30
0.0
 40
4.894716599621004
  0
LWPOLYLINE
  5
F1
330
1F
100
AcDbEntity
  8
0
  6
HIDDEN
 62
     7
370
     0
100
AcDbPolyline
 90
       21
 70
   128
 43
0.0
 10
171.9317675499
 20
96.6639595861
 10
172.7043098701
 20
96.7789388085
 10
173.4012306599
 20
97.1126223738
 10
173.9543096093
 20
97.6323469366
 10
174.3094080058
 20
98.2872380699
 10
174.4317670283
 20
99.0131909783
 10
174.3094080058
 20
99.7391429553
 10
173.9543096093
 20
100.3940340887
 10
173.4012306599
 20
100.9137586514
 10
172.7043098701
 20
101.2474422167
 10
171.9317675499
 20
101.3624223704
 10
171.1592252297
 20
101.2474422167
 10
170.4623044399
 20
100.9137586514
 10
169.9092245591
 20
100.3940340887
 10
169.5541261626
 20
99.7391429553
 10
169.4317671401
 20
99.0131909783
 10
169.5541261626
 20
98.2872380699
 10
169.9092245591
 20
97.6323469366
 10
170.4623044399
 20
97.1126223738
 10
171.1592252297
 20
96.7789388085
 10
171.9317675499
 20
96.6639595861
  0
LWPOLYLINE
  5
F2
330
1F
100
AcDbEntity
  8
0
  6
HIDDEN
 62
     7
370
     0
100
AcDbPolyline
 90
       23
 70
   128
 43
0.0
 10
161.2034984329
 20
98.6164158965
 10
161.408806399
 20
97.7876412506
 10
161.7310738122
 20
97.0260093744
 10
162.1441922081
 20
96.393222251
 10
162.6146931132
 20
95.9405454631
 10
163.104459357
 20
95.7046507681
 10
163.5738133384
 20
95.7046507681
 10
163.9847305534
 20
95.9405454631
 10
164.3039208768
 20
96.393222251
 10
164.5055252058
 20
97.0260093744
 10
164.5732114022
 20
97.7876412506
 10
164.501495373
 20
98.6164158965
 10
164.2961871741
 20
99.4451905424
 10
163.973919761
 20
100.20682335
 10
163.560801365
 20
100.839609542
 10
163.0903004599
 20
101.2922872613
 10
162.6005342161
 20
101.5281810249
 10
162.1311802348
 20
101.5281810249
 10
161.7202630197
 20
101.2922872613
 10
161.4010729292
 20
100.839609542
 10
161.1994683673
 20
100.20682335
 10
161.1317824037
 20
99.4451905424
 10
161.2034984329
 20
98.6164158965
  0
LWPOLYLINE
  5
F3
330
1F
100
AcDbEntity
  8
0
  6
HIDDEN
 62
     7
370
     0
100
AcDbPolyline
 90
       20
 70
   128
 43
0.0
 10
161.9665303198
 20
98.6806780855
 10
162.1408189578
 20
98.0120583261
 10
162.4213067745
 20
97.4158945317
 10
162.777598661
 20
96.956788824
 10
163.1710852427
 20
96.6844933862
 10
163.55912545
 20
96.6285153116
 10
163.899669603
 20
96.7949221666
 10
164.1558145104
 20
97.1656788896
 10
164.2998021027
 20
97.700609156
 10
164.3160299329
 20
98.3417455862
 10
164.2027391983
 20
99.0196096535
 10
163.9722070587
 20
99.6607460837
 10
163.6494143797
 20
100.1956763501
 10
163.269341637
 20
100.5664330731
 10
162.8731751745
 20
100.7328389967
 10
162.5038457034
 20
100.6768618534
 10
162.2013758799
 20
100.4045664156
 10
161.9985431363
 20
99.9454616393
 10
161.9173276169
 20
99.3492969135
 10
161.9665303198
 20
98.6806780855
  0
ELLIPSE
  5
F4
330
1F
100
AcDbEntity
  8
0
  6
HIDDEN
 62
     7
370
     0
100
AcDbEllipse
 10
171.9317674575
 20
100.7907660284
 30
0.0
 11
1.760776919379083
 21
2.232245799914466
 31
0.0
210
0.0
220
0.0
230
1.0
 40
0.5126701559
 41
1.10088704764626
 42
4.029627027608278
  0
ARC
  5
F5
330
1F
100
AcDbEntity
  8
0
  6
HIDDEN
 62
     7
370
     0
100
AcDbCircle
 10
171.2351679889
 20
101.9683059095
 30
0.0
 40
0.7945949542257675
100
AcDbArc
 50
53.4208190544
 51
99.1663888759
  0
ELLIPSE
  5
F6
330
1F
100
AcDbEntity
  8
0
  6
HIDDEN
 62
     7
370
     0
100
AcDbEllipse
 10
171.9317674575
 20
100.7907660284
 30
0.0
 11
1.760776919379083
 21
-1.388886188042932
 31
0.0
210
0.0
220
0.0
230
1.0
 40
0.8239737799
 41
2.549926265248541
 42
4.885930273856101
  0
ARC
  5
F7
330
1F
100
AcDbEntity
  8
0
  6
HIDDEN
 62
     7
370
     0
100
AcDbCircle
 10
172.1778202194
 20
99.9512884644
 30
0.0
 40
1.353195702694776
100
AcDbArc
 50
217.8001040701
 51
249.7155767561
  0
LWPOLYLINE
  5
F8
330
1F
100
AcDbEntity
  8
0
  6
HIDDEN
 62
     7
370
     0
100
AcDbPolyline
 90
       20
 70
   128
 43
0.0
 10
171.9317675499
 20
97.0896298821
 10
172.6136363042
 20
97.1965522329
 10
173.2216139255
 20
97.5057308386
 10
173.6898177234
 20
97.9836623008
 10
173.9675083128
 20
98.5785548399
 10
174.0245946614
 20
99.2259432385
 10
173.8548909245
 20
99.8556718985
 10
173.4767869977
 20
100.3995009522
 10
172.931257349
 20
100.7984981696
 10
172.2774158163
 20
101.0094250376
 10
171.5861192835
 20
101.0094250376
 10
170.9322777507
 20
100.7984981696
 10
170.3867471708
 20
100.3995009522
 10
170.008643244
 20
99.8556718985
 10
169.8389404384
 20
99.2259432385
 10
169.8960267869
 20
98.5785548399
 10
170.1737183077
 20
97.9836623008
 10
170.6419211743
 20
97.5057308386
 10
171.2498987956
 20
97.1965522329
 10
171.9317675499
 20
97.0896298821
  0
SPLINE
  5
F9
330
1F
100
AcDbEntity
  8
0
  6
HIDDEN
 62
     7
370
     0
100
AcDbSpline
210
0.0
220
0.0
230
1.0
 70
    11
 71
     3
 72
    64
 73
    60
 74
     0
 42
0.000000001
 43
0.00000001
 40
0.0
 40
0.0
 40
0.0
 40
0.0
 40
0.03125
 40
0.03125
 40
0.0625000000000001
 40
0.0625000000000001
 40
0.0937500000000001
 40
0.0937500000000001
 40
0.1250000000000002
 40
0.1250000000000002
 40
0.1875000000000003
 40
0.1875000000000003
 40
0.2187500000000004
 40
0.2187500000000004
 40
0.2500000000000004
 40
0.2500000000000004
 40
0.2812500000000005
 40
0.2812500000000005
 40
0.3125000000000006
 40
0.3125000000000006
 40
0.3437500000000006
 40
0.3437500000000006
 40
0.3750000000000006
 40
0.3750000000000006
 40
0.4062500000000007
 40
0.4062500000000007
 40
0.4375000000000007
 40
0.4375000000000007
 40
0.5000000000000011
 40
0.5000000000000011
 40
0.5312500000000013
 40
0.5312500000000013
 40
0.5625000000000017
 40
0.5625000000000017
 40
0.5937500000000019
 40
0.5937500000000019
 40
0.6250000000000022
 40
0.6250000000000022
 40
0.6562500000000021
 40
0.6562500000000021
 40
0.687500000000002
 40
0.687500000000002
 40
0.718750000000002
 40
0.718750000000002
 40
0.7500000000000019
 40
0.7500000000000019
 40
0.8125000000000018
 40
0.8125000000000018
 40
0.8437500000000017
 40
0.8437500000000017
 40
0.8750000000000017
 40
0.8750000000000017
 40
0.9062500000000012
 40
0.9062500000000012
 40
0.9375000000000008
 40
0.9375000000000008
 40
0.9687500000000004
 40
0.9687500000000004
 40
1.0
 40
1.0
 40
1.0
 40
1.0
 10
171.9317674574995
 20
108.9583556530653
 30
0.0
 10
171.791356403226
 20
108.9583556530653
 30
0.0
 10
171.6536459013409
 20
108.9692745183098
 30
0.0
 10
171.3832804301192
 20
109.0120830622049
 30
0.0
 10
171.2492219377699
 20
109.0445595478457
 30
0.0
 10
170.9958735157212
 20
109.1291118920654
 30
0.0
 10
170.8759629420739
 20
109.1810054813455
 30
0.0
 10
170.6489999169802
 20
109.3050299133359
 30
0.0
 10
170.5429539219318
 20
109.3769105374363
 30
0.0
 10
170.2558107369702
 20
109.6167105177324
 30
0.0
 10
170.0998899450549
 20
109.8145723333164
 30
0.0
 10
169.9416707062253
 20
110.1492094429521
 30
0.0
 10
169.9004199381191
 20
110.2694018548276
 30
0.0
 10
169.8457020678506
 20
110.5172624804005
 30
0.0
 10
169.8319250057242
 20
110.6443647567574
 30
0.0
 10
169.8316125702006
 20
110.9051397888268
 30
0.0
 10
169.8455620017582
 20
111.0393833746589
 30
0.0
 10
169.899831566374
 20
111.301407899463
 30
0.0
 10
169.9401019837431
 20
111.4310469589266
 30
0.0
 10
170.0468466569058
 20
111.6856959093425
 30
0.0
 10
170.1116968534816
 20
111.8069810877657
 30
0.0
 10
170.2633021097555
 20
112.0376937810666
 30
0.0
 10
170.3510915911377
 20
112.1480091629906
 30
0.0
 10
170.5431239989061
 20
112.3483823267997
 30
0.0
 10
170.6475620596922
 20
112.4391908373591
 30
0.0
 10
170.8740534637603
 20
112.6010799436054
 30
0.0
 10
170.996033396173
 20
112.6716386809501
 30
0.0
 10
171.3737947685809
 20
112.8421815791245
 30
0.0
 10
171.6528308712074
 20
112.9047033077906
 30
0.0
 10
172.0674896935885
 20
112.9052428993008
 30
0.0
 10
172.2077108876672
 20
112.8901749437221
 30
0.0
 10
172.4799590749331
 20
112.8307566028083
 30
0.0
 10
172.6114183977253
 20
112.7869930539922
 30
0.0
 10
172.8655167956698
 20
112.6727845613003
 30
0.0
 10
172.9875295251919
 20
112.6022519849709
 30
0.0
 10
173.2133121529624
 20
112.441311246981
 30
0.0
 10
173.3189657265914
 20
112.3497985370792
 30
0.0
 10
173.5124652051852
 20
112.1480774084527
 30
0.0
 10
173.5985597296667
 20
112.0399053376711
 30
0.0
 10
173.7502093070032
 20
111.8097870396897
 30
0.0
 10
173.8163150016572
 20
111.6862723111244
 30
0.0
 10
173.9223137609995
 20
111.4340264789221
 30
0.0
 10
173.9626413413707
 20
111.3052920126769
 30
0.0
 10
174.0174999895241
 20
111.0428757536731
 30
0.0
 10
174.0316692463585
 20
110.9085135753719
 30
0.0
 10
174.0319623123568
 20
110.5180693338385
 30
0.0
 10
173.9757195535204
 20
110.2639652068828
 30
0.0
 10
173.8173756314375
 20
109.9277947700293
 30
0.0
 10
173.7514454494946
 20
109.8210667876039
 30
0.0
 10
173.5993211126314
 20
109.6263787368387
 30
0.0
 10
173.513179109446
 20
109.5378125996567
 30
0.0
 10
173.3204257574664
 20
109.3767223285497
 30
0.0
 10
173.2141398191688
 20
109.3048503825069
 30
0.0
 10
172.9888711473671
 20
109.1816791483328
 30
0.0
 10
172.868969544541
 20
109.1295512353362
 30
0.0
 10
172.6130913752155
 20
109.0441490883995
 30
0.0
 10
172.481554447247
 20
109.0123746303576
 30
0.0
 10
172.2117311086373
 20
108.9694814429758
 30
0.0
 10
172.072178511773
 20
108.9583556530653
 30
0.0
 10
171.9317674574995
 20
108.9583556530653
 30
0.0
  0
SPLINE
  5
FA
330
1F
100
AcDbEntity
  8
0
  6
HIDDEN
 62
     7
370
     0
100
AcDbSpline
210
0.0
220
0.0
230
1.0
 70
     8
 71
     3
 72
     8
 73
     4
 74
     0
 42
0.000000001
 43
0.00000001
 40
0.0
 40
0.0
 40
0.0
 40
0.0
 40
1.0
 40
1.0
 40
1.0
 40
1.0
 10
171.1085872813401
 20
102.7527541042385
 30
0.0
 10
171.3200146713413
 20
102.745244594456
 30
0.0
 10
171.5224832178741
 20
102.6911210648214
 30
0.0
 10
171.7086938170114
 20
102.6063927775962
 30
0.0
  0
SPLINE
  5
FB
330
1F
100
AcDbEntity
  8
0
  6
HIDDEN
 62
     7
370
     0
100
AcDbSpline
210
0.0
220
0.0
230
1.0
 70
     8
 71
     3
 72
     8
 73
     4
 74
     0
 42
0.000000001
 43
0.00000001
 40
0.0
 40
0.0
 40
0.0
 40
0.0
 40
1.0
 40
1.0
 40
1.0
 40
1.0
 10
171.7086938170114
 20
98.68201400966193
 30
0.0
 10
171.522169467727
 20
98.8043344255624
 30
0.0
 10
171.3196145692013
 20
98.94541958622713
 30
0.0
 10
171.1085872813401
 20
99.12190322201198
 30
0.0
  0
CIRCLE
  5
FC
330
1F
100
AcDbEntity
  8
0
  6
HIDDEN
 62
     7
370
     0
100
AcDbCircle
 10
217.2817674575
 20
112.5212761397
 30
0.0
 40
7.249999999999986
  0
LINE
  5
FD
330
1F
100
AcDbEntity
  8
0
  6
HIDDEN
 62
     7
370
     0
100
AcDbLine
 10
236.0817675409
 20
136.5155729289
 30
0.0
 11
236.0817675409
 21
141.4128954346
 31
0.0
  0
SPLINE
  5
FE
330
1F
100
AcDbEntity
  8
0
  6
HIDDEN
 62
     7
370
     0
100
AcDbSpline
210
0.0
220
0.0
230
1.0
 70
     8
 71
     3
 72
    16
 73
    12
 74
     0
 42
0.000000001
 43
0.00000001
 40
0.0
 40
0.0
 40
0.0
 40
0.0
 40
0.2499999999999994
 40
0.2499999999999994
 40
0.4999999999999988
 40
0.4999999999999988
 40
0.6249999999999989
 40
0.6249999999999989
 40
0.749999999999999
 40
0.749999999999999
 40
1.0
 40
1.0
 40
1.0
 40
1.0
 10
236.0817674574995
 20
132.4393197515871
 30
0.0
 10
236.2172720041919
 20
132.9876771178796
 30
0.0
 10
236.3210797808721
 20
133.5098225936632
 30
0.0
 10
236.4646795903076
 20
134.491776484318
 30
0.0
 10
236.5007019714624
 20
134.9260652956858
 30
0.0
 10
236.5006027654266
 20
135.4838057045603
 30
0.0
 10
236.4914004348651
 20
135.6488387728043
 30
0.0
 10
236.455338703881
 20
135.9389301481615
 30
0.0
 10
236.428227230834
 20
136.0646597714431
 30
0.0
 10
236.3206099489236
 20
136.3749734064925
 30
0.0
 10
236.2172601981426
 20
136.4892878879698
 30
0.0
 10
236.0817674574995
 20
136.5155738260125
 30
0.0
  0
LINE
  5
FF
330
1F
100
AcDbEntity
  8
0
  6
HIDDEN
 62
     7
370
     0
100
AcDbLine
 10
236.0817675409
 20
92.6032329733
 30
0.0
 11
236.0817675409
 21
132.4393193061
 31
0.0
  0
SPLINE
  5
100
330
1F
100
AcDbEntity
  8
0
  6
HIDDEN
 62
     7
370
     0
100
AcDbSpline
210
0.0
220
0.0
230
1.0
 70
     8
 71
     3
 72
    16
 73
    12
 74
     0
 42
0.000000001
 43
0.00000001
 40
0.0
 40
0.0
 40
0.0
 40
0.0
 40
0.2499999999999986
 40
0.2499999999999986
 40
0.4999999999999972
 40
0.4999999999999972
 40
0.6249999999999977
 40
0.6249999999999977
 40
0.749999999999998
 40
0.749999999999998
 40
1.0
 40
1.0
 40
1.0
 40
1.0
 10
236.0817674574995
 20
88.52697845342176
 30
0.0
 10
236.2172720041919
 20
88.55326668186815
 30
0.0
 10
236.3210797808721
 20
88.66801184017696
 30
0.0
 10
236.4646795903076
 20
89.08393116143885
 30
0.0
 10
236.5007019714624
 20
89.37456641910157
 30
0.0
 10
236.5006027654266
 20
89.93270093048325
 30
0.0
 10
236.4914004348651
 20
90.13432515394332
 30
0.0
 10
236.455338703881
 20
90.56739293804424
 30
0.0
 10
236.428227230834
 20
90.80050588692716
 30
0.0
 10
236.3206099489236
 20
91.53500380459357
 30
0.0
 10
236.2172601981426
 20
92.05492293806284
 30
0.0
 10
236.0817674574995
 20
92.60323252784711
 30
0.0
  0
LINE
  5
101
330
1F
100
AcDbEntity
  8
0
  6
HIDDEN
 62
     7
370
     0
100
AcDbLine
 10
236.0817675409
 20
83.6296568448
 30
0.0
 11
236.0817675409
 21
88.5269793505
 31
0.0
  0
LINE
  5
102
330
1F
100
AcDbEntity
  8
0
  6
HIDDEN
 62
     7
370
     0
100
AcDbLine
 10
231.7817692576
 20
101.523094141
 30
0.0
 11
231.7817692576
 21
123.5194581384
 31
0.0
  0
LINE
  5
103
330
1F
100
AcDbEntity
  8
0
  6
HIDDEN
 62
     7
370
     0
100
AcDbLine
 10
231.7817692576
 20
131.3212758685
 30
0.0
 11
231.7817692576
 21
123.5194581384
 31
0.0
  0
LINE
  5
104
330
1F
100
AcDbEntity
  8
0
  6
HIDDEN
 62
     7
370
     0
100
AcDbLine
 10
231.7817692576
 20
123.5194581384
 30
0.0
 11
236.0817675409
 21
123.5194581384
 31
0.0
  0
LINE
  5
105
330
1F
100
AcDbEntity
  8
0
  6
HIDDEN
 62
     7
370
     0
100
AcDbLine
 10
236.0817675409
 20
136.5155729289
 30
0.0
 11
236.0817675409
 21
136.3895426328
 31
0.0
  0
LINE
  5
106
330
1F
100
AcDbEntity
  8
0
  6
HIDDEN
 62
     7
370
     0
100
AcDbLine
 10
231.7817692576
 20
136.3895426328
 30
0.0
 11
236.0817675409
 21
136.3895426328
 31
0.0
  0
LINE
  5
107
330
1F
100
AcDbEntity
  8
0
  6
HIDDEN
 62
     7
370
     0
100
AcDbLine
 10
231.7817692576
 20
136.5212763483
 30
0.0
 11
231.7817692576
 21
131.3212758685
 31
0.0
  0
LINE
  5
108
330
1F
100
AcDbEntity
  8
0
  6
HIDDEN
 62
     7
370
     0
100
AcDbLine
 10
231.7817692576
 20
101.523094141
 30
0.0
 11
231.7817692576
 21
93.7212764109
 31
0.0
  0
LINE
  5
109
330
1F
100
AcDbEntity
  8
0
  6
HIDDEN
 62
     7
370
     0
100
AcDbLine
 10
236.0817675409
 20
101.523094141
 30
0.0
 11
231.7817692576
 21
101.523094141
 31
0.0
  0
LINE
  5
10A
330
1F
100
AcDbEntity
  8
0
  6
HIDDEN
 62
     7
370
     0
100
AcDbLine
 10
231.7817692576
 20
88.6530096466
 30
0.0
 11
236.0817675409
 21
88.6530096466
 31
0.0
  0
LINE
  5
10B
330
1F
100
AcDbEntity
  8
0
  6
HIDDEN
 62
     7
370
     0
100
AcDbLine
 10
236.0817675409
 20
88.6530096466
 30
0.0
 11
236.0817675409
 21
88.5269793505
 31
0.0
  0
LINE
  5
10C
330
1F
100
AcDbEntity
  8
0
  6
HIDDEN
 62
     7
370
     0
100
AcDbLine
 10
231.7817692576
 20
93.7212764109
 30
0.0
 11
231.7817692576
 21
88.5212759311
 31
0.0
  0
LINE
  5
10D
330
1F
100
AcDbEntity
  8
0
  6
HIDDEN
 62
     7
370
     0
100
AcDbLine
 10
230.2817662177
 20
92.5212765868
 30
0.0
 11
230.2817662177
 21
132.5212756927
 31
0.0
  0
LINE
  5
10E
330
1F
100
AcDbEntity
  8
0
  6
HIDDEN
 62
     7
370
     0
100
AcDbLine
 10
195.8317679284
 20
92.8212760771
 30
0.0
 11
195.8317679284
 21
132.2212762023
 31
0.0
  0
LINE
  5
10F
330
1F
100
AcDbEntity
  8
0
  6
HIDDEN
 62
     7
370
     0
100
AcDbLine
 10
198.3317692695
 20
92.5212765868
 30
0.0
 11
198.3317692695
 21
132.5212756927
 31
0.0
  0
LINE
  5
110
330
1F
100
AcDbEntity
  8
0
  6
HIDDEN
 62
     7
370
     0
100
AcDbLine
 10
231.7817692576
 20
140.5462755645
 30
0.0
 11
231.7817692576
 21
136.5212763483
 31
0.0
  0
LINE
  5
111
330
1F
100
AcDbEntity
  8
0
  6
HIDDEN
 62
     7
370
     0
100
AcDbLine
 10
231.7817692576
 20
88.5212759311
 30
0.0
 11
231.7817692576
 21
84.4962767149
 31
0.0
  0
LINE
  5
112
330
1F
100
AcDbEntity
  8
0
  6
HIDDEN
 62
     7
370
     0
100
AcDbLine
 10
161.103340278
 20
77.2212746377
 30
0.0
 11
160.9317673767
 21
77.2212746377
 31
0.0
  0
ELLIPSE
  5
113
330
1F
100
AcDbEntity
  8
0
  6
HIDDEN
 62
     7
370
     0
100
AcDbEllipse
 10
161.1033403328
 20
75.2212761397
 30
0.0
 11
0.0
 21
2.0
 31
0.0
210
0.0
220
0.0
230
1.0
 40
0.4142135624
 41
4.712388980384695
 42
6.283185307179586
  0
LINE
  5
114
330
1F
100
AcDbEntity
  8
0
  6
HIDDEN
 62
     7
370
     0
100
AcDbLine
 10
160.9317673767
 20
150.0212776298
 30
0.0
 11
161.103340278
 21
150.0212776298
 31
0.0
  0
ELLIPSE
  5
115
330
1F
100
AcDbEntity
  8
0
  6
HIDDEN
 62
     7
370
     0
100
AcDbEllipse
 10
161.1033403328
 20
152.0212761397
 30
0.0
 11
0.0
 21
2.0
 31
0.0
210
0.0
220
0.0
230
1.0
 40
0.4142135624
 41
3.141592653589758
 42
4.712388980384695
  0
LINE
  5
116
330
1F
100
AcDbEntity
  8
0
  6
HIDDEN
 62
     7
370
     0
100
AcDbLine
 10
161.9317673077
 20
66.3353617127
 30
0.0
 11
161.1474274588
 21
65.8878202374
 31
0.0
  0
LINE
  5
117
330
1F
100
AcDbEntity
  8
0
  6
HIDDEN
 62
     7
370
     0
100
AcDbLine
 10
161.2216364057
 20
159.2314394946
 30
0.0
 11
161.9317673077
 21
158.5213097567
 31
0.0
  0
LINE
  5
118
330
1F
100
AcDbEntity
  8
0
  6
HIDDEN
 62
     7
370
     0
100
AcDbLine
 10
178.2177721081
 20
77.2212746377
 30
0.0
 11
161.103340278
 21
77.2212746377
 31
0.0
  0
LINE
  5
119
330
1F
100
AcDbEntity
  8
0
  6
HIDDEN
 62
     7
370
     0
100
AcDbLine
 10
161.9317673077
 20
158.5213097567
 30
0.0
 11
166.1550967885
 21
158.5213097567
 31
0.0
  0
LINE
  5
11A
330
1F
100
AcDbEntity
  8
0
  6
HIDDEN
 62
     7
370
     0
100
AcDbLine
 10
171.5084385989
 20
158.5213097567
 30
0.0
 11
176.7817676929
 21
158.5213097567
 31
0.0
  0
LINE
  5
11B
330
1F
100
AcDbEntity
  8
0
  6
HIDDEN
 62
     7
370
     0
100
AcDbLine
 10
161.9317673077
 20
158.5213097567
 30
0.0
 11
161.9317673077
 21
152.0212779577
 31
0.0
  0
LINE
  5
11C
330
1F
100
AcDbEntity
  8
0
  6
HIDDEN
 62
     7
370
     0
100
AcDbLine
 10
161.103340278
 20
150.0212776298
 30
0.0
 11
176.7817676929
 21
150.0212776298
 31
0.0
  0
LINE
  5
11D
330
1F
100
AcDbEntity
  8
0
  6
HIDDEN
 62
     7
370
     0
100
AcDbLine
 10
166.0517199827
 20
66.3353617127
 30
0.0
 11
161.9317673077
 21
66.3353617127
 31
0.0
  0
LINE
  5
11E
330
1F
100
AcDbEntity
  8
0
  6
HIDDEN
 62
     7
370
     0
100
AcDbLine
 10
176.7817676929
 20
66.3353617127
 30
0.0
 11
171.6118154047
 21
66.3353617127
 31
0.0
  0
LINE
  5
11F
330
1F
100
AcDbEntity
  8
0
  6
HIDDEN
 62
     7
370
     0
100
AcDbLine
 10
161.9317673077
 20
66.3353617127
 30
0.0
 11
161.9317673077
 21
75.2212743099
 31
0.0
  0
LINE
  5
120
330
1F
100
AcDbEntity
  8
0
  6
HIDDEN
 62
     7
370
     0
100
AcDbLine
 10
66.1317665992
 20
100.0212759535
 30
0.0
 11
66.1317665992
 21
125.021276326
 31
0.0
  0
LINE
  5
121
330
1F
100
AcDbEntity
  8
0
  6
HIDDEN
 62
     7
370
     0
100
AcDbLine
 10
69.4163699565
 20
102.0212762813
 30
0.0
 11
69.4163699565
 21
123.0212759982
 31
0.0
  0
LINE
  5
122
330
1F
100
AcDbEntity
  8
0
  6
HIDDEN
 62
     7
370
     0
100
AcDbLine
 10
118.1317676721
 20
102.0212762813
 30
0.0
 11
118.1317676721
 21
123.0212759982
 31
0.0
  0
LINE
  5
123
330
1F
100
AcDbEntity
  8
0
  6
HIDDEN
 62
     7
370
     0
100
AcDbLine
 10
121.3764135656
 20
107.4212759557
 30
0.0
 11
121.3764135656
 21
117.6212763237
 31
0.0
  0
LINE
  5
124
330
1F
100
AcDbEntity
  8
0
  6
HIDDEN
 62
     7
370
     0
100
AcDbLine
 10
189.6317672846
 20
77.2212746377
 30
0.0
 11
187.5154764322
 21
77.2212746377
 31
0.0
  0
SPLINE
  5
125
330
1F
100
AcDbEntity
  8
0
  6
HIDDEN
 62
     7
370
     0
100
AcDbSpline
210
0.0
220
0.0
230
1.0
 70
    11
 71
     3
 72
    64
 73
    60
 74
     0
 42
0.000000001
 43
0.00000001
 40
0.0
 40
0.0
 40
0.0
 40
0.0
 40
0.0312499999999999
 40
0.0312499999999999
 40
0.0624999999999997
 40
0.0624999999999997
 40
0.0937499999999996
 40
0.0937499999999996
 40
0.1249999999999994
 40
0.1249999999999994
 40
0.1874999999999992
 40
0.1874999999999992
 40
0.218749999999999
 40
0.218749999999999
 40
0.2499999999999989
 40
0.2499999999999989
 40
0.2812499999999988
 40
0.2812499999999988
 40
0.3124999999999987
 40
0.3124999999999987
 40
0.3437499999999986
 40
0.3437499999999986
 40
0.3749999999999986
 40
0.3749999999999986
 40
0.4062499999999984
 40
0.4062499999999984
 40
0.4374999999999984
 40
0.4374999999999984
 40
0.4999999999999986
 40
0.4999999999999986
 40
0.5312499999999987
 40
0.5312499999999987
 40
0.5624999999999987
 40
0.5624999999999987
 40
0.5937499999999988
 40
0.5937499999999988
 40
0.6249999999999989
 40
0.6249999999999989
 40
0.656249999999999
 40
0.656249999999999
 40
0.687499999999999
 40
0.687499999999999
 40
0.7187499999999991
 40
0.7187499999999991
 40
0.7499999999999992
 40
0.7499999999999992
 40
0.8124999999999993
 40
0.8124999999999993
 40
0.8437499999999994
 40
0.8437499999999994
 40
0.8749999999999996
 40
0.8749999999999996
 40
0.9062499999999997
 40
0.9062499999999997
 40
0.9374999999999997
 40
0.9374999999999997
 40
0.9687499999999998
 40
0.9687499999999998
 40
1.0
 40
1.0
 40
1.0
 40
1.0
 10
171.9317674574995
 20
112.137487619068
 30
0.0
 10
172.072178511773
 20
112.137487619068
 30
0.0
 10
172.2098890136581
 20
112.152761606524
 30
0.0
 10
172.4802544848798
 20
112.2119520939228
 30
0.0
 10
172.6143129772291
 20
112.2566581938114
 30
0.0
 10
172.8676613992778
 20
112.3709377474544
 30
0.0
 10
172.9875719729251
 20
112.440269868835
 30
0.0
 10
173.2145349980188
 20
112.602173714135
 30
0.0
 10
173.3205809930672
 20
112.694364177724
 30
0.0
 10
173.6077241780288
 20
112.9939289220058
 30
0.0
 10
173.7636449699441
 20
113.2310982488503
 30
0.0
 10
173.9218642087737
 20
113.6073774883379
 30
0.0
 10
173.9631149768799
 20
113.7388921541046
 30
0.0
 10
174.0178328471484
 20
114.0019118845249
 30
0.0
 10
174.0316099092748
 20
114.1329258430949
 30
0.0
 10
174.0319223447984
 20
114.3937888768471
 30
0.0
 10
174.0179729132408
 20
114.5240727020817
 30
0.0
 10
173.963703348625
 20
114.7710600976623
 30
0.0
 10
173.9234329312559
 20
114.8896337132889
 30
0.0
 10
173.8166882580932
 20
115.1161766933592
 30
0.0
 10
173.7518380615173
 20
115.2208575356095
 30
0.0
 10
173.6002328052435
 20
115.4151311809631
 30
0.0
 10
173.5124433238613
 20
115.5053978248655
 30
0.0
 10
173.3204109160929
 20
115.6657989599451
 30
0.0
 10
173.2159728553068
 20
115.7366002394649
 30
0.0
 10
172.9894814512386
 20
115.8606377655346
 30
0.0
 10
172.867501518826
 20
115.9134563250732
 30
0.0
 10
172.4897401464181
 20
116.0396421676875
 30
0.0
 10
172.2107040437916
 20
116.0839373430208
 30
0.0
 10
171.7960452214105
 20
116.0843245191554
 30
0.0
 10
171.6558240273318
 20
116.0735546549779
 30
0.0
 10
171.3835758400659
 20
116.0305833578611
 30
0.0
 10
171.2521165172737
 20
115.9987975615054
 30
0.0
 10
170.9980181193291
 20
115.9143141647167
 30
0.0
 10
170.8760053898071
 20
115.8615189026456
 30
0.0
 10
170.6502227620366
 20
115.7382413979466
 30
0.0
 10
170.5445691884075
 20
115.6669231425752
 30
0.0
 10
170.3510697098138
 20
115.505461897233
 30
0.0
 10
170.2649751853323
 20
115.4169558928882
 30
0.0
 10
170.1133256079957
 20
115.2232570508068
 30
0.0
 10
170.0472199133418
 20
115.1166594253785
 30
0.0
 10
169.9412211539995
 20
114.8923140101677
 30
0.0
 10
169.9008935736283
 20
114.7746523489099
 30
0.0
 10
169.8460349254749
 20
114.5274317073034
 30
0.0
 10
169.8318656686405
 20
114.3970913747913
 30
0.0
 10
169.8315726026422
 20
114.0067296792788
 30
0.0
 10
169.8878153614786
 20
113.7363202542257
 30
0.0
 10
170.0461592835615
 20
113.3584559521919
 30
0.0
 10
170.1120894655044
 20
113.2348429031636
 30
0.0
 10
170.2642138023676
 20
113.0036030245384
 30
0.0
 10
170.350355805553
 20
112.8953590276763
 30
0.0
 10
170.5431091575326
 20
112.6941374583598
 30
0.0
 10
170.6493950958302
 20
112.6019350767514
 30
0.0
 10
170.8746637676318
 20
112.4411535438154
 30
0.0
 10
170.994565370458
 20
112.3715313641564
 30
0.0
 10
171.2504435397835
 20
112.2561036159453
 30
0.0
 10
171.3819804677519
 20
112.2123534361274
 30
0.0
 10
171.6518038063618
 20
112.1530494991856
 30
0.0
 10
171.791356403226
 20
112.137487619068
 30
0.0
 10
171.9317674574995
 20
112.137487619068
 30
0.0
  0
ELLIPSE
  5
126
330
1F
100
AcDbEntity
  8
0
  6
HIDDEN
 62
     7
370
     0
100
AcDbEllipse
 10
171.9317674575
 20
124.2517862511
 30
0.0
 11
-1.760776919379055
 21
2.232245799914452
 31
0.0
210
0.0
220
0.0
230
1.0
 40
0.5126701559
 41
5.395150933160679
 42
8.323890913122796
  0
SPLINE
  5
127
330
1F
100
AcDbEntity
  8
0
  6
HIDDEN
 62
     7
370
     0
100
AcDbSpline
210
0.0
220
0.0
230
1.0
 70
     8
 71
     3
 72
     8
 73
     4
 74
     0
 42
0.000000001
 43
0.00000001
 40
0.0
 40
0.0
 40
0.0
 40
0.0
 40
1.0
 40
1.0
 40
1.0
 40
1.0
 10
171.7086938170123
 20
126.3605382697728
 30
0.0
 10
171.5221694677277
 20
126.2382178538722
 30
0.0
 10
171.3196145692017
 20
126.0971326932074
 30
0.0
 10
171.1085872813402
 20
125.9206490574223
 30
0.0
  0
ELLIPSE
  5
128
330
1F
100
AcDbEntity
  8
0
  6
HIDDEN
 62
     7
370
     0
100
AcDbEllipse
 10
171.9317674575
 20
124.2517862511
 30
0.0
 11
1.760776919379083
 21
1.388886188042918
 31
0.0
210
0.0
220
0.0
230
1.0
 40
0.8239737799
 41
1.397255033323491
 42
3.733259041931057
  0
SPLINE
  5
129
330
1F
100
AcDbEntity
  8
0
  6
HIDDEN
 62
     7
370
     0
100
AcDbSpline
210
0.0
220
0.0
230
1.0
 70
     8
 71
     3
 72
     8
 73
     4
 74
     0
 42
0.000000001
 43
0.00000001
 40
0.0
 40
0.0
 40
0.0
 40
0.0
 40
1.0
 40
1.0
 40
1.0
 40
1.0
 10
171.10858728134
 20
122.2897981751958
 30
0.0
 10
171.320014671341
 20
122.2973076849782
 30
0.0
 10
171.5224832178735
 20
122.3514312146128
 30
0.0
 10
171.7086938170106
 20
122.4361595018377
 30
0.0
  0
LWPOLYLINE
  5
12A
330
1F
100
AcDbEntity
  8
0
  6
HIDDEN
 62
     7
370
     0
100
AcDbPolyline
 90
       20
 70
   128
 43
0.0
 10
171.9317675499
 20
124.0062129507
 10
172.6136363042
 20
124.1131353016
 10
173.2216139255
 20
124.4223139072
 10
173.6898177234
 20
124.9002453695
 10
173.9675083128
 20
125.4951379086
 10
174.0245946614
 20
126.1425263072
 10
173.8548909245
 20
126.7722549672
 10
173.4767869977
 20
127.3160840208
 10
172.931257349
 20
127.7150812383
 10
172.2774158163
 20
127.9260081063
 10
171.5861192835
 20
127.9260081063
 10
170.9322777507
 20
127.7150812383
 10
170.3867471708
 20
127.3160840208
 10
170.008643244
 20
126.7722549672
 10
169.8389404384
 20
126.1425263072
 10
169.8960267869
 20
125.4951379086
 10
170.1737183077
 20
124.9002453695
 10
170.6419211743
 20
124.4223139072
 10
171.2498987956
 20
124.1131353016
 10
171.9317675499
 20
124.0062129507
  0
LINE
  5
12B
330
1F
100
AcDbEntity
  8
0
  6
HIDDEN
 62
     7
370
     0
100
AcDbLine
 10
166.9217671198
 20
147.9143204922
 30
0.0
 11
166.9217671198
 21
142.3712766553
 31
0.0
  0
LINE
  5
12C
330
1F
100
AcDbEntity
  8
0
  6
HIDDEN
 62
     7
370
     0
100
AcDbLine
 10
170.7417673362
 20
147.9143204922
 30
0.0
 11
170.7417673362
 21
142.3712766553
 31
0.0
  0
SPLINE
  5
12D
330
1F
100
AcDbEntity
  8
0
  6
HIDDEN
 62
     7
370
     0
100
AcDbSpline
210
0.0
220
0.0
230
1.0
 70
     8
 71
     3
 72
    14
 73
    10
 74
     0
 42
0.000000001
 43
0.00000001
 40
0.0
 40
0.0
 40
0.0
 40
0.0
 40
0.25
 40
0.25
 40
0.5
 40
0.5
 40
0.75
 40
0.75
 40
1.0
 40
1.0
 40
1.0
 40
1.0
 10
169.9417674574993
 20
129.4965656966509
 30
0.0
 10
170.016193009634
 20
129.5874231514326
 30
0.0
 10
170.0980712692474
 20
129.6766337346383
 30
0.0
 10
170.2710574154229
 20
129.8520580534302
 30
0.0
 10
170.361729235284
 20
129.9375930090569
 30
0.0
 10
170.5290927846283
 20
130.0984446219954
 30
0.0
 10
170.6055436095948
 20
130.1741767108919
 30
0.0
 10
170.7118366944332
 20
130.3057677344673
 30
0.0
 10
170.7417674574995
 20
130.3627679093736
 30
0.0
 10
170.7417674574995
 20
130.4049651823257
 30
0.0
  0
LINE
  5
12E
330
1F
100
AcDbEntity
  8
0
  6
HIDDEN
 62
     7
370
     0
100
AcDbLine
 10
170.7417673362
 20
98.7240143875
 30
0.0
 11
170.7417673362
 21
94.5919736112
 31
0.0
  0
SPLINE
  5
12F
330
1F
100
AcDbEntity
  8
0
  6
HIDDEN
 62
     7
370
     0
100
AcDbSpline
210
0.0
220
0.0
230
1.0
 70
     8
 71
     3
 72
    14
 73
    10
 74
     0
 42
0.000000001
 43
0.00000001
 40
0.0
 40
0.0
 40
0.0
 40
0.0
 40
0.25
 40
0.25
 40
0.5
 40
0.5
 40
0.75
 40
0.75
 40
1.0
 40
1.0
 40
1.0
 40
1.0
 10
170.7417674574995
 20
126.2729239836942
 30
0.0
 10
170.7417674574995
 20
126.2304235660396
 30
0.0
 10
170.7120539986828
 20
126.203151659557
 30
0.0
 10
170.6059726317906
 20
126.1895988855898
 30
0.0
 10
170.529605702626
 20
126.2040444427308
 30
0.0
 10
170.3608461580976
 20
126.2764206067507
 30
0.0
 10
170.2700493456257
 20
126.3334935418681
 30
0.0
 10
170.0984844054184
 20
126.474651475385
 30
0.0
 10
170.0164231651238
 20
126.5592286904686
 30
0.0
 10
169.9417674574993
 20
126.6526018535978
 30
0.0
  0
LINE
  5
130
330
1F
100
AcDbEntity
  8
0
  6
HIDDEN
 62
     7
370
     0
100
AcDbLine
 10
165.5986064044
 20
151.0323549444
 30
0.0
 11
165.5986064044
 21
142.3712766553
 31
0.0
  0
LINE
  5
131
330
1F
100
AcDbEntity
  8
0
  6
HIDDEN
 62
     7
370
     0
100
AcDbLine
 10
172.0649289829
 20
98.2241288582
 30
0.0
 11
172.0649289829
 21
93.5323352749
 31
0.0
  0
LINE
  5
132
330
1F
100
AcDbEntity
  8
0
  6
HIDDEN
 62
     7
370
     0
100
AcDbLine
 10
172.0649289829
 20
151.0323549444
 30
0.0
 11
172.0649289829
 21
142.3712766553
 31
0.0
  0
ARC
  5
133
330
1F
100
AcDbEntity
  8
0
  6
HIDDEN
 62
     7
370
     0
100
AcDbCircle
 10
172.1778202194
 20
125.0912638151
 30
0.0
 40
1.353195702694764
100
AcDbArc
 50
110.2844232439
 51
142.1998959299
  0
ARC
  5
134
330
1F
100
AcDbEntity
  8
0
  6
HIDDEN
 62
     7
370
     0
100
AcDbCircle
 10
171.2351679889
 20
123.0742463699
 30
0.0
 40
0.7945949542257815
100
AcDbArc
 50
260.8336111241
 51
306.5791809456
  0
LWPOLYLINE
  5
135
330
1F
100
AcDbEntity
  8
0
  6
HIDDEN
 62
     7
370
     0
100
AcDbPolyline
 90
       20
 70
   128
 43
0.0
 10
161.9665303198
 20
125.2342278893
 10
162.1408189578
 20
124.735872523
 10
162.4213067745
 20
124.4137196625
 10
162.777598661
 20
124.3026808659
 10
163.1710852427
 20
124.4147860269
 10
163.55912545
 20
124.7378897677
 10
163.899669603
 20
125.2369762222
 10
164.1558145104
 20
125.8579634885
 10
164.2998021027
 20
126.5335579226
 10
164.3160299329
 20
127.1905473257
 10
164.2027391983
 20
127.7577367435
 10
163.9722070587
 20
128.1736626113
 10
163.6494143797
 20
128.3932535733
 10
163.269341637
 20
128.3927134062
 10
162.8731751745
 20
128.1720998521
 10
162.5038457034
 20
127.7553208927
 10
162.2013758799
 20
127.1875400851
 10
161.9985431363
 20
126.5302852551
 10
161.9173276169
 20
125.8547802279
 10
161.9665303198
 20
125.2342278893
  0
LWPOLYLINE
  5
136
330
1F
100
AcDbEntity
  8
0
  6
HIDDEN
 62
     7
370
     0
100
AcDbPolyline
 90
       23
 70
   128
 43
0.0
 10
161.2034984329
 20
124.8152118931
 10
161.408806399
 20
124.1870050142
 10
161.7310738122
 20
123.7401992838
 10
162.1441922081
 20
123.5109924162
 10
162.6146931132
 20
123.5179521898
 10
163.104459357
 20
123.760517017
 10
163.5738133384
 20
124.2190331976
 10
163.9847305534
 20
124.8563567931
 10
164.3039208768
 20
125.6208543489
 10
164.5055252058
 20
126.4505910511
 10
164.5732114022
 20
127.2783458988
 10
164.501495373
 20
128.0370608727
 10
164.2961871741
 20
128.6652668203
 10
163.973919761
 20
129.1120725508
 10
163.560801365
 20
129.3412803496
 10
163.0903004599
 20
129.3343196447
 10
162.6005342161
 20
129.0917548175
 10
162.1311802348
 20
128.633238637
 10
161.7202630197
 20
127.9959159727
 10
161.4010729292
 20
127.2314184169
 10
161.1994683673
 20
126.4016817148
 10
161.1317824037
 20
125.5739259357
 10
161.2034984329
 20
124.8152118931
  0
LWPOLYLINE
  5
137
330
1F
100
AcDbEntity
  8
0
  6
HIDDEN
 62
     7
370
     0
100
AcDbPolyline
 90
       21
 70
   128
 43
0.0
 10
171.9317675499
 20
123.680129909
 10
172.7043098701
 20
123.7951100628
 10
173.4012306599
 20
124.128793628
 10
173.9543096093
 20
124.6485181908
 10
174.3094080058
 20
125.3034093241
 10
174.4317670283
 20
126.0293613012
 10
174.3094080058
 20
126.7553142096
 10
173.9543096093
 20
127.4102053429
 10
173.4012306599
 20
127.9299299056
 10
172.7043098701
 20
128.2636134709
 10
171.9317675499
 20
128.3785926933
 10
171.1592252297
 20
128.2636134709
 10
170.4623044399
 20
127.9299299056
 10
169.9092245591
 20
127.4102053429
 10
169.5541261626
 20
126.7553142096
 10
169.4317671401
 20
126.0293613012
 10
169.5541261626
 20
125.3034093241
 10
169.9092245591
 20
124.6485181908
 10
170.4623044399
 20
124.128793628
 10
171.1592252297
 20
123.7951100628
 10
171.9317675499
 20
123.680129909
  0
SPLINE
  5
138
330
1F
100
AcDbEntity
  8
0
  6
HIDDEN
 62
     7
370
     0
100
AcDbSpline
210
0.0
220
0.0
230
1.0
 70
     8
 71
     3
 72
    34
 73
    30
 74
     0
 42
0.000000001
 43
0.00000001
 40
0.0
 40
0.0
 40
0.0
 40
0.0
 40
0.062499999999999
 40
0.062499999999999
 40
0.124999999999998
 40
0.124999999999998
 40
0.1874999999999971
 40
0.1874999999999971
 40
0.2499999999999966
 40
0.2499999999999966
 40
0.3124999999999962
 40
0.3124999999999962
 40
0.3749999999999957
 40
0.3749999999999957
 40
0.4999999999999958
 40
0.4999999999999958
 40
0.6249999999999958
 40
0.6249999999999958
 40
0.6874999999999964
 40
0.6874999999999964
 40
0.7499999999999971
 40
0.7499999999999971
 40
0.8124999999999979
 40
0.8124999999999979
 40
0.8749999999999986
 40
0.8749999999999986
 40
0.9374999999999992
 40
0.9374999999999992
 40
1.0
 40
1.0
 40
1.0
 40
1.0
 10
172.0649289649614
 20
131.5102165277183
 30
0.0
 10
172.2243207927493
 20
131.5023764317955
 30
0.0
 10
172.3803232761928
 20
131.4807177837051
 30
0.0
 10
172.6858327922701
 20
131.4108695562122
 30
0.0
 10
172.8367271272823
 20
131.362043853884
 30
0.0
 10
173.1246264719731
 20
131.2391199004767
 30
0.0
 10
173.2605728749328
 20
131.1658123923424
 30
0.0
 10
173.5167554905248
 20
130.995801768571
 30
0.0
 10
173.637937778284
 20
130.8979279763696
 30
0.0
 10
173.8550838501567
 20
130.6853438009376
 30
0.0
 10
173.952045723117
 20
130.570297862408
 30
0.0
 10
174.1226081589426
 20
130.3224367422879
 30
0.0
 10
174.1958482121545
 20
130.1894032452223
 30
0.0
 10
174.3707286689034
 20
129.7798952290921
 30
0.0
 10
174.4317666298793
 20
129.4819345793171
 30
0.0
 10
174.4317682851024
 20
128.8904930234426
 30
0.0
 10
174.3707336755161
 20
128.5903194734661
 30
0.0
 10
174.1958439081142
 20
128.1750881931983
 30
0.0
 10
174.1226002026898
 20
128.0397330749514
 30
0.0
 10
173.9520394869531
 20
127.7868337435648
 30
0.0
 10
173.8550757713597
 20
127.6690684659571
 30
0.0
 10
173.6379154427725
 20
127.4509381705884
 30
0.0
 10
173.5167341840856
 20
127.3502348454415
 30
0.0
 10
173.260563957147
 20
127.1749911526082
 30
0.0
 10
173.1246206074842
 20
127.0992461835176
 30
0.0
 10
172.8367179043011
 20
126.9720778082153
 30
0.0
 10
172.6858277083844
 20
126.9214765358879
 30
0.0
 10
172.3803222046787
 20
126.84904743614
 30
0.0
 10
172.2243208064152
 20
126.8265616647431
 30
0.0
 10
172.0649289649614
 20
126.8184232048482
 30
0.0
  0
SPLINE
  5
139
330
1F
100
AcDbEntity
  8
0
  6
HIDDEN
 62
     7
370
     0
100
AcDbSpline
210
0.0
220
0.0
230
1.0
 70
     8
 71
     3
 72
    10
 73
     6
 74
     0
 42
0.000000001
 43
0.00000001
 40
0.0
 40
0.0
 40
0.0
 40
0.0
 40
0.5
 40
0.5
 40
1.0
 40
1.0
 40
1.0
 40
1.0
 10
172.0649289649614
 20
126.8184232048482
 30
0.0
 10
171.842201938088
 20
126.6749347045545
 30
0.0
 10
171.6205160508629
 20
126.5602139588215
 30
0.0
 10
171.1792952130109
 20
126.3904535294637
 30
0.0
 10
170.959736565612
 20
126.3350335350763
 30
0.0
 10
170.7417674574998
 20
126.3185382057067
 30
0.0
  0
SPLINE
  5
13A
330
1F
100
AcDbEntity
  8
0
  6
HIDDEN
 62
     7
370
     0
100
AcDbSpline
210
0.0
220
0.0
230
1.0
 70
     8
 71
     3
 72
    10
 73
     6
 74
     0
 42
0.000000001
 43
0.00000001
 40
0.0
 40
0.0
 40
0.0
 40
0.0
 40
0.5
 40
0.5
 40
1.0
 40
1.0
 40
1.0
 40
1.0
 10
170.7417674574998
 20
130.4505794043382
 30
0.0
 10
170.9586582900205
 20
130.6876183437868
 30
0.0
 10
171.1778109266794
 20
130.8897885787802
 30
0.0
 10
171.6192954269483
 20
131.2405406502989
 30
0.0
 10
171.8424978922217
 20
131.3892167426958
 30
0.0
 10
172.0649289649614
 20
131.5102165277183
 30
0.0
  0
SPLINE
  5
13B
330
1F
100
AcDbEntity
  8
0
  6
HIDDEN
 62
     7
370
     0
100
AcDbSpline
210
0.0
220
0.0
230
1.0
 70
     8
 71
     3
 72
    16
 73
    12
 74
     0
 42
0.000000001
 43
0.00000001
 40
0.0
 40
0.0
 40
0.0
 40
0.0
 40
0.2499999999999994
 40
0.2499999999999994
 40
0.4999999999999989
 40
0.4999999999999989
 40
0.7499999999999983
 40
0.7499999999999983
 40
0.8749999999999991
 40
0.8749999999999991
 40
1.0
 40
1.0
 40
1.0
 40
1.0
 10
169.9417674574995
 20
126.6526018535976
 30
0.0
 10
169.7763533510194
 20
126.8594880896229
 30
0.0
 10
169.6501560200437
 20
127.0853567874318
 30
0.0
 10
169.4757497217129
 20
127.5742260330446
 30
0.0
 10
169.431919682616
 20
127.8259930863892
 30
0.0
 10
169.431616009646
 20
128.3377724109714
 30
0.0
 10
169.4754728697063
 20
128.5888271200541
 30
0.0
 10
169.6053946289735
 20
128.9496756881961
 30
0.0
 10
169.6595094403814
 20
129.0669484565447
 30
0.0
 10
169.7861864305249
 20
129.2894374078835
 30
0.0
 10
169.8590601508857
 20
129.3955980161269
 30
0.0
 10
169.9417674574995
 20
129.4965656966512
 30
0.0
  0
ARC
  5
13C
330
1F
100
AcDbEntity
  8
0
  6
HIDDEN
 62
     7
370
     0
100
AcDbCircle
 10
171.916658979
 20
97.2011591951
 30
0.0
 40
2.479408675144699
100
AcDbArc
 50
345.3788411692
 51
182.3307801969
  0
ARC
  5
13D
330
1F
100
AcDbEntity
  8
0
  6
HIDDEN
 62
     7
370
     0
100
AcDbCircle
 10
171.9121547861
 20
97.1415047182
 30
0.0
 40
2.357285514969169
100
AcDbArc
 50
351.1507649568
 51
158.3919933761
  0
ARC
  5
13E
330
1F
100
AcDbEntity
  8
0
  6
HIDDEN
 62
     7
370
     0
100
AcDbCircle
 10
171.9373874651
 20
97.1474491686
 30
0.0
 40
1.996287435241675
100
AcDbArc
 50
2.5046012683
 51
127.4021823473
  0
LWPOLYLINE
  5
13F
330
1F
100
AcDbEntity
  8
0
  6
HIDDEN
 62
     7
370
     0
100
AcDbPolyline
 90
       21
 70
   128
 43
0.0
 10
171.0767175002
 20
95.263123774
 10
170.3926135717
 20
95.6194608296
 10
169.8591734213
 20
96.1570053185
 10
169.528613512
 20
96.8231431032
 10
169.4332907838
 20
97.5526667024
 10
169.5825361577
 20
98.2741641636
 10
169.9617409078
 20
98.9170114333
 10
170.5337853102
 20
99.418280908
 10
171.2426745263
 20
99.7289058576
 10
172.0190166426
 20
99.8184804628
 10
172.7868175996
 20
99.6782353903
 10
173.4709215281
 20
99.321899266
 10
174.0043607471
 20
98.7843529145
 10
174.3349225191
 20
98.1182160611
 10
174.4302452473
 20
97.3886924619
 10
174.280998942
 20
96.6671950007
 10
173.901794192
 20
96.024347731
 10
173.3297497896
 20
95.5230782563
 10
172.6208605734
 20
95.212454238
 10
171.8445184571
 20
95.1228796328
 10
171.0767175002
 20
95.263123774
  0
LWPOLYLINE
  5
140
330
1F
100
AcDbEntity
  8
0
  6
HIDDEN
 62
     7
370
     0
100
AcDbPolyline
 90
       19
 70
   128
 43
0.0
 10
171.2477269513
 20
96.8864171589
 10
170.6461922196
 20
97.2127693529
 10
170.1997171087
 20
97.7127694349
 10
169.9621516211
 20
98.3261096115
 10
169.9621516211
 20
98.9788139994
 10
170.1997171087
 20
99.592154176
 10
170.6461922196
 20
100.092154258
 10
171.2477269513
 20
100.4185064519
 10
171.9317675499
 20
100.5318465466
 10
172.6158081485
 20
100.4185064519
 10
173.2173428801
 20
100.092154258
 10
173.6638189224
 20
99.592154176
 10
173.9013825474
 20
98.9788139994
 10
173.9013825474
 20
98.3261096115
 10
173.6638189224
 20
97.7127694349
 10
173.2173428801
 20
97.2127693529
 10
172.6158081485
 20
96.8864171589
 10
171.9317675499
 20
96.7730770643
 10
171.2477269513
 20
96.8864171589
  0
LWPOLYLINE
  5
141
330
1F
100
AcDbEntity
  8
0
  6
HIDDEN
 62
     7
370
     0
100
AcDbPolyline
 90
       21
 70
   128
 43
0.0
 10
171.0767175002
 20
95.4991171891
 10
170.3926135717
 20
95.8554542447
 10
169.8591734213
 20
96.3930005963
 10
169.528613512
 20
97.0591374497
 10
169.4332907838
 20
97.7886610488
 10
169.5825361577
 20
98.51015851
 10
169.9617409078
 20
99.1530048485
 10
170.5337853102
 20
99.6542752544
 10
171.2426745263
 20
99.964900204
 10
172.0190166426
 20
100.0544738779
 10
172.7868175996
 20
99.9142288054
 10
173.4709215281
 20
99.5578936125
 10
174.0043607471
 20
99.0203472609
 10
174.3349225191
 20
98.3542094762
 10
174.4302452473
 20
97.6246868084
 10
174.280998942
 20
96.9031893472
 10
173.901794192
 20
96.2603430087
 10
173.3297497896
 20
95.7590716715
 10
172.6208605734
 20
95.4484476532
 10
171.8445184571
 20
95.3588730479
 10
171.0767175002
 20
95.4991171891
  0
LWPOLYLINE
  5
142
330
1F
100
AcDbEntity
  8
0
  6
HIDDEN
 62
     7
370
     0
100
AcDbPolyline
 90
       20
 70
   128
 43
0.0
 10
171.1451212806
 20
95.6142491485
 10
170.4859730718
 20
95.9643109525
 10
169.9834993971
 20
96.4965226884
 10
169.6921509621
 20
97.1532131369
 10
169.6434996022
 20
97.8632171462
 10
169.8428175343
 20
98.5495953644
 10
170.2685055254
 20
99.1379686455
 10
170.8744333056
 20
99.5645767833
 10
171.5949407709
 20
99.7831907878
 10
172.3519476993
 20
99.7701206068
 10
173.0634222669
 20
99.5267818506
 10
173.6522649346
 20
99.0795449177
 10
174.054663342
 20
98.4768739725
 10
174.2270138977
 20
97.7840789417
 10
174.1506398586
 20
97.0762328068
 10
173.8338150946
 20
96.430044883
 10
173.310874675
 20
95.9155357266
 10
172.6384867845
 20
95.5884645517
 10
171.889514376
 20
95.4842719073
 10
171.1451212806
 20
95.6142491485
  0
LWPOLYLINE
  5
143
330
1F
100
AcDbEntity
  8
0
  6
HIDDEN
 62
     7
370
     0
100
AcDbPolyline
 90
       21
 70
   128
 43
0.0
 10
171.0767175002
 20
95.7351124669
 10
170.3926135717
 20
96.0914476598
 10
169.8591734213
 20
96.6289940114
 10
169.528613512
 20
97.2951317961
 10
169.4332907838
 20
98.0246544639
 10
169.5825361577
 20
98.7461519251
 10
169.9617409078
 20
99.3889991949
 10
170.5337853102
 20
99.8902686695
 10
171.2426745263
 20
100.2008936192
 10
172.0190166426
 20
100.2904682244
 10
172.7868175996
 20
100.1502231518
 10
173.4709215281
 20
99.7938870276
 10
174.0043607471
 20
99.2563416074
 10
174.3349225191
 20
98.5902038227
 10
174.4302452473
 20
97.8606802235
 10
174.280998942
 20
97.1391827623
 10
173.901794192
 20
96.4963364239
 10
173.3297497896
 20
95.9950669492
 10
172.6208605734
 20
95.6844410683
 10
171.8445184571
 20
95.594866463
 10
171.0767175002
 20
95.7351124669
  0
LWPOLYLINE
  5
144
330
1F
100
AcDbEntity
  8
0
  6
HIDDEN
 62
     7
370
     0
100
AcDbPolyline
 90
       20
 70
   128
 43
0.0
 10
171.1451212806
 20
95.8502425636
 10
170.4859730718
 20
96.2003043676
 10
169.9834993971
 20
96.7325179661
 10
169.6921509621
 20
97.389206552
 10
169.6434996022
 20
98.0992105613
 10
169.8428175343
 20
98.7855887795
 10
170.2685055254
 20
99.3739620606
 10
170.8744333056
 20
99.8005701984
 10
171.5949407709
 20
100.0191851343
 10
172.3519476993
 20
100.0061140219
 10
173.0634222669
 20
99.762776197
 10
173.6522649346
 20
99.3155383329
 10
174.054663342
 20
98.712868319
 10
174.2270138977
 20
98.0200723569
 10
174.1506398586
 20
97.3122271533
 10
173.8338150946
 20
96.6660382981
 10
173.310874675
 20
96.1515310044
 10
172.6384867845
 20
95.8244579668
 10
171.889514376
 20
95.7202653224
 10
171.1451212806
 20
95.8502425636
  0
LWPOLYLINE
  5
145
330
1F
100
AcDbEntity
  8
0
  6
HIDDEN
 62
     7
370
     0
100
AcDbPolyline
 90
       21
 70
   128
 43
0.0
 10
171.0767175002
 20
95.971105882
 10
170.3926135717
 20
96.3274410749
 10
169.8591734213
 20
96.8649874265
 10
169.528613512
 20
97.5311252112
 10
169.4332907838
 20
98.2606488104
 10
169.5825361577
 20
98.9821462716
 10
169.9617409078
 20
99.62499261
 10
170.5337853102
 20
100.126263016
 10
171.2426745263
 20
100.4368879656
 10
172.0190166426
 20
100.5264616395
 10
172.7868175996
 20
100.386216567
 10
173.4709215281
 20
100.029881374
 10
174.0043607471
 20
99.4923350225
 10
174.3349225191
 20
98.8261972378
 10
174.4302452473
 20
98.0966745699
 10
174.280998942
 20
97.3751771087
 10
173.901794192
 20
96.732329839
 10
173.3297497896
 20
96.2310603643
 10
172.6208605734
 20
95.9204344834
 10
171.8445184571
 20
95.8308617408
 10
171.0767175002
 20
95.971105882
  0
LWPOLYLINE
  5
146
330
1F
100
AcDbEntity
  8
0
  6
HIDDEN
 62
     7
370
     0
100
AcDbPolyline
 90
       20
 70
   128
 43
0.0
 10
171.1451212806
 20
96.0862359787
 10
170.4859730718
 20
96.4362977828
 10
169.9834993971
 20
96.9685113812
 10
169.6921509621
 20
97.6252008984
 10
169.6434996022
 20
98.3352049078
 10
169.8428175343
 20
99.021583126
 10
170.2685055254
 20
99.6099564071
 10
170.8744333056
 20
100.0365645448
 10
171.5949407709
 20
100.2551785494
 10
172.3519476993
 20
100.2421083684
 10
173.0634222669
 20
99.9987696121
 10
173.6522649346
 20
99.5515326793
 10
174.054663342
 20
98.9488617341
 10
174.2270138977
 20
98.2560667033
 10
174.1506398586
 20
97.5482214997
 10
173.8338150946
 20
96.9020317132
 10
173.310874675
 20
96.3875244195
 10
172.6384867845
 20
96.0604513819
 10
171.889514376
 20
95.9562587375
 10
171.1451212806
 20
96.0862359787
  0
LWPOLYLINE
  5
147
330
1F
100
AcDbEntity
  8
0
  6
HIDDEN
 62
     7
370
     0
100
AcDbPolyline
 90
       21
 70
   128
 43
0.0
 10
171.0767175002
 20
96.2070992971
 10
170.3926135717
 20
96.5634363527
 10
169.8591734213
 20
97.1009817729
 10
169.528613512
 20
97.7671195577
 10
169.4332907838
 20
98.4966422255
 10
169.5825361577
 20
99.2181396867
 10
169.9617409078
 20
99.8609869565
 10
170.5337853102
 20
100.3622564311
 10
171.2426745263
 20
100.6728813807
 10
172.0190166426
 20
100.7624559859
 10
172.7868175996
 20
100.6222109134
 10
173.4709215281
 20
100.2658747892
 10
174.0043607471
 20
99.7283293689
 10
174.3349225191
 20
99.0621915842
 10
174.4302452473
 20
98.3326679851
 10
174.280998942
 20
97.6111705239
 10
173.901794192
 20
96.9683241854
 10
173.3297497896
 20
96.4670537795
 10
172.6208605734
 20
96.1564297612
 10
171.8445184571
 20
96.0668551559
 10
171.0767175002
 20
96.2070992971
  0
LWPOLYLINE
  5
148
330
1F
100
AcDbEntity
  8
0
  6
HIDDEN
 62
     7
370
     0
100
AcDbPolyline
 90
       20
 70
   128
 43
0.0
 10
171.1451212806
 20
96.3222293938
 10
170.4859730718
 20
96.6722930605
 10
169.9834993971
 20
97.2045047964
 10
169.6921509621
 20
97.8611943136
 10
169.6434996022
 20
98.5711983229
 10
169.8428175343
 20
99.2575765411
 10
170.2685055254
 20
99.8459498222
 10
170.8744333056
 20
100.27255796
 10
171.5949407709
 20
100.4911728958
 10
172.3519476993
 20
100.4781017835
 10
173.0634222669
 20
100.2347639586
 10
173.6522649346
 20
99.7875260944
 10
174.054663342
 20
99.1848560805
 10
174.2270138977
 20
98.4920601184
 10
174.1506398586
 20
97.7842149148
 10
173.8338150946
 20
97.1380260597
 10
173.310874675
 20
96.6235178346
 10
172.6384867845
 20
96.2964466597
 10
171.889514376
 20
96.1922521527
 10
171.1451212806
 20
96.3222293938
  0
LWPOLYLINE
  5
149
330
1F
100
AcDbEntity
  8
0
  6
HIDDEN
 62
     7
370
     0
100
AcDbPolyline
 90
       21
 70
   128
 43
0.0
 10
171.0767175002
 20
96.8056342388
 10
170.3926135717
 20
97.1619712944
 10
169.8591734213
 20
97.6995167146
 10
169.528613512
 20
98.3656544993
 10
169.4332907838
 20
99.0951771672
 10
169.5825361577
 20
99.8166746284
 10
169.9617409078
 20
100.4595218981
 10
170.5337853102
 20
100.9607913728
 10
171.2426745263
 20
101.2714172537
 10
172.0190166426
 20
101.3609909276
 10
172.7868175996
 20
101.2207458551
 10
173.4709215281
 20
100.8644106622
 10
174.0043607471
 20
100.3268643106
 10
174.3349225191
 20
99.6607265259
 10
174.4302452473
 20
98.9312038581
 10
174.280998942
 20
98.2097063969
 10
173.901794192
 20
97.5668591271
 10
173.3297497896
 20
97.0655896525
 10
172.6208605734
 20
96.7549647028
 10
171.8445184571
 20
96.6653900976
 10
171.0767175002
 20
96.8056342388
  0
LWPOLYLINE
  5
14A
330
1F
100
AcDbEntity
  8
0
  6
HIDDEN
 62
     7
370
     0
100
AcDbPolyline
 90
       19
 70
   128
 43
0.0
 10
171.2544361991
 20
97.3670727397
 10
170.6588004646
 20
97.690223978
 10
170.2167035011
 20
98.1853197152
 10
169.9814691139
 20
98.7926454107
 10
169.9814691139
 20
99.4389478872
 10
170.2167035011
 20
100.0462726514
 10
170.6588004646
 20
100.54136932
 10
171.2544361991
 20
100.8645205582
 10
171.9317675499
 20
100.9767495851
 10
172.6090989006
 20
100.8645205582
 10
173.2047346351
 20
100.54136932
 10
173.6468315987
 20
100.0462726514
 10
173.8820650546
 20
99.4389478872
 10
173.8820650546
 20
98.7926454107
 10
173.6468315987
 20
98.1853197152
 10
173.2047346351
 20
97.690223978
 10
172.6090989006
 20
97.3670727397
 10
171.9317675499
 20
97.2548437128
 10
171.2544361991
 20
97.3670727397
  0
LWPOLYLINE
  5
14B
330
1F
100
AcDbEntity
  8
0
  6
HIDDEN
 62
     7
370
     0
100
AcDbPolyline
 90
       19
 70
   128
 43
0.0
 10
172.6090989006
 20
124.1780317212
 10
173.2047346351
 20
124.5011829595
 10
173.6468315987
 20
124.9962796281
 10
173.8820650546
 20
125.6036043922
 10
173.8820650546
 20
126.2499068687
 10
173.6468315987
 20
126.8572325642
 10
173.2047346351
 20
127.3523283015
 10
172.6090989006
 20
127.6754795397
 10
171.9317675499
 20
127.7877085666
 10
171.2544361991
 20
127.6754795397
 10
170.6588004646
 20
127.3523283015
 10
170.2167035011
 20
126.8572325642
 10
169.9814691139
 20
126.2499068687
 10
169.9814691139
 20
125.6036043922
 10
170.2167035011
 20
124.9962796281
 10
170.6588004646
 20
124.5011829595
 10
171.2544361991
 20
124.1780317212
 10
171.9317675499
 20
124.0658026944
 10
172.6090989006
 20
124.1780317212
  0
LWPOLYLINE
  5
14C
330
1F
100
AcDbEntity
  8
0
  6
HIDDEN
 62
     7
370
     0
100
AcDbPolyline
 90
       21
 70
   128
 43
0.0
 10
172.7868175996
 20
123.8218064244
 10
173.4709215281
 20
124.1781416173
 10
174.0043607471
 20
124.7156879688
 10
174.3349225191
 20
125.3818257536
 10
174.4302452473
 20
126.1113484214
 10
174.280998942
 20
126.8328458826
 10
173.901794192
 20
127.4756931523
 10
173.3297497896
 20
127.976962627
 10
172.6208605734
 20
128.2875875766
 10
171.8445184571
 20
128.3771621818
 10
171.0767175002
 20
128.2369180406
 10
170.3926135717
 20
127.8805809851
 10
169.8591734213
 20
127.3430355648
 10
169.528613512
 20
126.6768977801
 10
169.4332907838
 20
125.9473751123
 10
169.5825361577
 20
125.2258776511
 10
169.9617409078
 20
124.5830303813
 10
170.5337853102
 20
124.0817609067
 10
171.2426745263
 20
123.7711350257
 10
172.0190166426
 20
123.6815613518
 10
172.7868175996
 20
123.8218064244
  0
LWPOLYLINE
  5
14D
330
1F
100
AcDbEntity
  8
0
  6
HIDDEN
 62
     7
370
     0
100
AcDbPolyline
 90
       21
 70
   128
 43
0.0
 10
172.7868175996
 20
124.420341366
 10
173.4709215281
 20
124.7766774903
 10
174.0043607471
 20
125.3142229105
 10
174.3349225191
 20
125.9803606952
 10
174.4302452473
 20
126.7098842944
 10
174.280998942
 20
127.4313817556
 10
173.901794192
 20
128.074228094
 10
173.3297497896
 20
128.5754985
 10
172.6208605734
 20
128.8861225183
 10
171.8445184571
 20
128.9756971235
 10
171.0767175002
 20
128.8354529823
 10
170.3926135717
 20
128.4791159267
 10
169.8591734213
 20
127.9415705065
 10
169.528613512
 20
127.2754327218
 10
169.4332907838
 20
126.5459100539
 10
169.5825361577
 20
125.8244125927
 10
169.9617409078
 20
125.181565323
 10
170.5337853102
 20
124.6802958484
 10
171.2426745263
 20
124.3696708987
 10
172.0190166426
 20
124.2800962935
 10
172.7868175996
 20
124.420341366
  0
LWPOLYLINE
  5
14E
330
1F
100
AcDbEntity
  8
0
  6
HIDDEN
 62
     7
370
     0
100
AcDbPolyline
 90
       19
 70
   128
 43
0.0
 10
172.6158081485
 20
126.0418223972
 10
173.2173428801
 20
126.3681736598
 10
173.6638189224
 20
126.8681737418
 10
173.9013825474
 20
127.4815148498
 10
173.9013825474
 20
128.1342183063
 10
173.6638189224
 20
128.747558483
 10
173.2173428801
 20
129.2475594963
 10
172.6158081485
 20
129.5739116902
 10
171.9317675499
 20
129.6872517849
 10
171.2477269513
 20
129.5739116902
 10
170.6461922196
 20
129.2475594963
 10
170.1997171087
 20
128.747558483
 10
169.9621516211
 20
128.1342183063
 10
169.9621516211
 20
127.4815148498
 10
170.1997171087
 20
126.8681737418
 10
170.6461922196
 20
126.3681736598
 10
171.2477269513
 20
126.0418223972
 10
171.9317675499
 20
125.9284813712
 10
172.6158081485
 20
126.0418223972
  0
LWPOLYLINE
  5
14F
330
1F
100
AcDbEntity
  8
0
  6
HIDDEN
 62
     7
370
     0
100
AcDbPolyline
 90
       19
 70
   128
 43
0.0
 10
172.6158081485
 20
124.6240458275
 10
173.2173428801
 20
124.9503980214
 10
173.6638189224
 20
125.4503981034
 10
173.9013825474
 20
126.06373828
 10
173.9013825474
 20
126.7164426679
 10
173.6638189224
 20
127.3297828446
 10
173.2173428801
 20
127.8297829265
 10
172.6158081485
 20
128.1561351205
 10
171.9317675499
 20
128.2694752152
 10
171.2477269513
 20
128.1561351205
 10
170.6461922196
 20
127.8297829265
 10
170.1997171087
 20
127.3297828446
 10
169.9621516211
 20
126.7164426679
 10
169.9621516211
 20
126.06373828
 10
170.1997171087
 20
125.4503981034
 10
170.6461922196
 20
124.9503980214
 10
171.2477269513
 20
124.6240458275
 10
171.9317675499
 20
124.5107057328
 10
172.6158081485
 20
124.6240458275
  0
LWPOLYLINE
  5
150
330
1F
100
AcDbEntity
  8
0
  6
HIDDEN
 62
     7
370
     0
100
AcDbPolyline
 90
       21
 70
   128
 43
0.0
 10
172.7868175996
 20
124.6563357125
 10
173.4709215281
 20
125.0126709054
 10
174.0043607471
 20
125.5502172569
 10
174.3349225191
 20
126.2163550417
 10
174.4302452473
 20
126.9458777095
 10
174.280998942
 20
127.6673751707
 10
173.901794192
 20
128.3102224405
 10
173.3297497896
 20
128.8114919151
 10
172.6208605734
 20
129.122117796
 10
171.8445184571
 20
129.2116905386
 10
171.0767175002
 20
129.0714463974
 10
170.3926135717
 20
128.7151112045
 10
169.8591734213
 20
128.1775648529
 10
169.528613512
 20
127.5114270682
 10
169.4332907838
 20
126.7819034691
 10
169.5825361577
 20
126.0604060079
 10
169.9617409078
 20
125.4175596694
 10
170.5337853102
 20
124.9162892635
 10
171.2426745263
 20
124.6056643138
 10
172.0190166426
 20
124.5160906399
 10
172.7868175996
 20
124.6563357125
  0
LWPOLYLINE
  5
151
330
1F
100
AcDbEntity
  8
0
  6
HIDDEN
 62
     7
370
     0
100
AcDbPolyline
 90
       20
 70
   128
 43
0.0
 10
172.7184138191
 20
124.6584200124
 10
173.3775620279
 20
125.0084818165
 10
173.8800347713
 20
125.5406944836
 10
174.1713841376
 20
126.1973840008
 10
174.2200364289
 20
126.9073880101
 10
174.0207184968
 20
127.5937662284
 10
173.5950295744
 20
128.1821395094
 10
172.9891017941
 20
128.6087485785
 10
172.2685943288
 20
128.8273616518
 10
171.5115874005
 20
128.8142914707
 10
170.8001128329
 20
128.5709536458
 10
170.2112710965
 20
128.1237157817
 10
169.8088717578
 20
127.5210457678
 10
169.6365202708
 20
126.8282498057
 10
169.7128952412
 20
126.1204046021
 10
170.0297200052
 20
125.4742157469
 10
170.5526604248
 20
124.9597075219
 10
171.2250483153
 20
124.6326354156
 10
171.9740207238
 20
124.5284427712
 10
172.7184138191
 20
124.6584200124
  0
LWPOLYLINE
  5
152
330
1F
100
AcDbEntity
  8
0
  6
HIDDEN
 62
     7
370
     0
100
AcDbPolyline
 90
       21
 70
   128
 43
0.0
 10
172.7868175996
 20
124.8923291276
 10
173.4709215281
 20
125.2486652518
 10
174.0043607471
 20
125.7862106721
 10
174.3349225191
 20
126.4523484568
 10
174.4302452473
 20
127.1818720559
 10
174.280998942
 20
127.9033695171
 10
173.901794192
 20
128.5462158556
 10
173.3297497896
 20
129.0474853302
 10
172.6208605734
 20
129.3581112112
 10
171.8445184571
 20
129.4476858164
 10
171.0767175002
 20
129.3074398125
 10
170.3926135717
 20
128.9511046196
 10
169.8591734213
 20
128.4135582681
 10
169.528613512
 20
127.7474204833
 10
169.4332907838
 20
127.0178978155
 10
169.5825361577
 20
126.2964003543
 10
169.9617409078
 20
125.6535530845
 10
170.5337853102
 20
125.1522836099
 10
171.2426745263
 20
124.8416586603
 10
172.0190166426
 20
124.752084055
 10
172.7868175996
 20
124.8923291276
  0
LWPOLYLINE
  5
153
330
1F
100
AcDbEntity
  8
0
  6
HIDDEN
 62
     7
370
     0
100
AcDbPolyline
 90
       20
 70
   128
 43
0.0
 10
172.7184138191
 20
124.8944134275
 10
173.3775620279
 20
125.2444761629
 10
173.8800347713
 20
125.7766888301
 10
174.1713841376
 20
126.4333783473
 10
174.2200364289
 20
127.1433823566
 10
174.0207184968
 20
127.8297605748
 10
173.5950295744
 20
128.4181329245
 10
172.9891017941
 20
128.8447419936
 10
172.2685943288
 20
129.0633569295
 10
171.5115874005
 20
129.0502848859
 10
170.8001128329
 20
128.8069470609
 10
170.2112710965
 20
128.3597091968
 10
169.8088717578
 20
127.7570391829
 10
169.6365202708
 20
127.0642441521
 10
169.7128952412
 20
126.3563989485
 10
170.0297200052
 20
125.710209162
 10
170.5526604248
 20
125.1957018683
 10
171.2250483153
 20
124.868629762
 10
171.9740207238
 20
124.7644361864
 10
172.7184138191
 20
124.8944134275
  0
LWPOLYLINE
  5
154
330
1F
100
AcDbEntity
  8
0
  6
HIDDEN
 62
     7
370
     0
100
AcDbPolyline
 90
       21
 70
   128
 43
0.0
 10
172.7868175996
 20
125.128323474
 10
173.4709215281
 20
125.4846586669
 10
174.0043607471
 20
126.0222050185
 10
174.3349225191
 20
126.6883428032
 10
174.4302452473
 20
127.417865471
 10
174.280998942
 20
128.1393629322
 10
173.901794192
 20
128.7822092707
 10
173.3297497896
 20
129.283480608
 10
172.6208605734
 20
129.5941046263
 10
171.8445184571
 20
129.6836792315
 10
171.0767175002
 20
129.5434350903
 10
170.3926135717
 20
129.1870980347
 10
169.8591734213
 20
128.6495516832
 10
169.528613512
 20
127.9834148298
 10
169.4332907838
 20
127.2538912306
 10
169.5825361577
 20
126.5323937694
 10
169.9617409078
 20
125.889547431
 10
170.5337853102
 20
125.388277025
 10
171.2426745263
 20
125.0776520754
 10
172.0190166426
 20
124.9880784015
 10
172.7868175996
 20
125.128323474
  0
LWPOLYLINE
  5
155
330
1F
100
AcDbEntity
  8
0
  6
HIDDEN
 62
     7
370
     0
100
AcDbPolyline
 90
       20
 70
   128
 43
0.0
 10
172.7184138191
 20
125.130407774
 10
173.3775620279
 20
125.480469578
 10
173.8800347713
 20
126.0126822452
 10
174.1713841376
 20
126.6693717624
 10
174.2200364289
 20
127.3793757717
 10
174.0207184968
 20
128.0657539899
 10
173.5950295744
 20
128.6541282023
 10
172.9891017941
 20
129.0807354088
 10
172.2685943288
 20
129.2993503446
 10
171.5115874005
 20
129.2862801636
 10
170.8001128329
 20
129.042940476
 10
170.2112710965
 20
128.5957044745
 10
169.8088717578
 20
127.9930335293
 10
169.6365202708
 20
127.3002375672
 10
169.7128952412
 20
126.5923923636
 10
170.0297200052
 20
125.9462035085
 10
170.5526604248
 20
125.4316952835
 10
171.2250483153
 20
125.1046231772
 10
171.9740207238
 20
125.0004305328
 10
172.7184138191
 20
125.130407774
  0
LWPOLYLINE
  5
156
330
1F
100
AcDbEntity
  8
0
  6
HIDDEN
 62
     7
370
     0
100
AcDbPolyline
 90
       21
 70
   128
 43
0.0
 10
172.7868175996
 20
125.3643168891
 10
173.4709215281
 20
125.7206530134
 10
174.0043607471
 20
126.2581993649
 10
174.3349225191
 20
126.9243362183
 10
174.4302452473
 20
127.6538598175
 10
174.280998942
 20
128.3753572787
 10
173.901794192
 20
129.0182045485
 10
173.3297497896
 20
129.5194740231
 10
172.6208605734
 20
129.8300980414
 10
171.8445184571
 20
129.9196726466
 10
171.0767175002
 20
129.7794285054
 10
170.3926135717
 20
129.4230914498
 10
169.8591734213
 20
128.8855469609
 10
169.528613512
 20
128.2194091762
 10
169.4332907838
 20
127.4898855771
 10
169.5825361577
 20
126.7683881159
 10
169.9617409078
 20
126.1255408461
 10
170.5337853102
 20
125.6242713715
 10
171.2426745263
 20
125.3136464218
 10
172.0190166426
 20
125.2240718166
 10
172.7868175996
 20
125.3643168891
  0
LWPOLYLINE
  5
157
330
1F
100
AcDbEntity
  8
0
  6
HIDDEN
 62
     7
370
     0
100
AcDbPolyline
 90
       20
 70
   128
 43
0.0
 10
172.7184138191
 20
125.3664011891
 10
173.3775620279
 20
125.7164639244
 10
173.8800347713
 20
126.2486765916
 10
174.1713841376
 20
126.9053661088
 10
174.2200364289
 20
127.6153701181
 10
174.0207184968
 20
128.301747405
 10
173.5950295744
 20
128.8901216174
 10
172.9891017941
 20
129.3167306865
 10
172.2685943288
 20
129.5353437598
 10
171.5115874005
 20
129.5222735787
 10
170.8001128329
 20
129.2789357538
 10
170.2112710965
 20
128.8316978897
 10
169.8088717578
 20
128.2290278758
 10
169.6365202708
 20
127.5362319137
 10
169.7128952412
 20
126.8283867101
 10
170.0297200052
 20
126.1821969236
 10
170.5526604248
 20
125.6676896299
 10
171.2250483153
 20
125.3406175236
 10
171.9740207238
 20
125.2364239479
 10
172.7184138191
 20
125.3664011891
  0
LWPOLYLINE
  5
158
330
1F
100
AcDbEntity
  8
0
  6
HIDDEN
 62
     7
370
     0
100
AcDbPolyline
 90
       21
 70
   128
 43
0.0
 10
172.7868175996
 20
125.5524282167
 10
173.4709215281
 20
125.908764341
 10
174.0043607471
 20
126.4463097612
 10
174.3349225191
 20
127.1124475459
 10
174.4302452473
 20
127.8419702138
 10
174.280998942
 20
128.563467675
 10
173.901794192
 20
129.2063149447
 10
173.3297497896
 20
129.7075844194
 10
172.6208605734
 20
130.0182103003
 10
171.8445184571
 20
130.1077849055
 10
171.0767175002
 20
129.9675389017
 10
170.3926135717
 20
129.6112037087
 10
169.8591734213
 20
129.0736573572
 10
169.528613512
 20
128.4075195725
 10
169.4332907838
 20
127.6779969047
 10
169.5825361577
 20
126.9564994435
 10
169.9617409078
 20
126.3136521737
 10
170.5337853102
 20
125.8123826991
 10
171.2426745263
 20
125.5017577494
 10
172.0190166426
 20
125.4121831442
 10
172.7868175996
 20
125.5524282167
  0
LWPOLYLINE
  5
159
330
1F
100
AcDbEntity
  8
0
  6
HIDDEN
 62
     7
370
     0
100
AcDbPolyline
 90
       21
 70
   128
 43
0.0
 10
172.7389345808
 20
125.7239340628
 10
173.3847276238
 20
126.0603147383
 10
173.8882956026
 20
126.5677588815
 10
174.2003445444
 20
127.1965925405
 10
174.2903289316
 20
127.8852618123
 10
174.1494421778
 20
128.5663566376
 10
173.7914734451
 20
129.1732027019
 10
173.251462814
 20
129.6464021141
 10
172.5822712225
 20
129.939632752
 10
171.8494051067
 20
130.0241893912
 10
171.1245995877
 20
129.891798162
 10
170.4788065446
 20
129.5554174865
 10
169.9752385659
 20
129.0479752059
 10
169.663189624
 20
128.4191406156
 10
169.5732052369
 20
127.7304704125
 10
169.714092922
 20
127.0493774499
 10
170.0720616547
 20
126.4425295229
 10
170.6120722858
 20
125.969331042
 10
171.2812629459
 20
125.6761004041
 10
172.0141299931
 20
125.5915428335
 10
172.7389345808
 20
125.7239340628
  0
LWPOLYLINE
  5
15A
330
1F
100
AcDbEntity
  8
0
  6
HIDDEN
 62
     7
370
     0
100
AcDbPolyline
 90
       21
 70
   128
 43
0.0
 10
162.552408122
 20
96.5181833888
 10
162.99051204
 20
96.2621348734
 10
163.4151061928
 20
96.2365384037
 10
163.784627982
 20
96.4439011003
 10
164.0629067016
 20
96.8639257188
 10
164.222701632
 20
97.4554962302
 10
164.2483716761
 20
98.1607048596
 10
164.1374031944
 20
98.9105219776
 10
163.9006595989
 20
99.6315500523
 10
163.5613145237
 20
100.2532097335
 10
163.1525854511
 20
100.7146484042
 10
162.7144815331
 20
100.970697851
 10
162.2898873804
 20
100.9962933893
 10
161.9203655911
 20
100.7889306928
 10
161.6420868715
 20
100.3689060743
 10
161.4822919411
 20
99.7773364941
 10
161.4566221298
 20
99.0721278648
 10
161.5675901459
 20
98.3223098154
 10
161.8043339742
 20
97.6012826721
 10
162.1436790494
 20
96.9796229909
 10
162.552408122
 20
96.5181833888
  0
LWPOLYLINE
  5
15B
330
1F
100
AcDbEntity
  8
0
  6
HIDDEN
 62
     7
370
     0
100
AcDbPolyline
 90
       23
 70
   128
 43
0.0
 10
162.746609368
 20
96.1052275086
 10
163.2350824704
 20
95.8082622672
 10
163.7138060225
 20
95.7438855256
 10
164.1439969582
 20
95.9173126901
 10
164.4908037899
 20
96.3144919659
 10
164.726130378
 20
96.9032470892
 10
164.8309116182
 20
97.6358822371
 10
164.7966585053
 20
98.4530414278
 10
164.626146846
 20
99.2885243903
 10
164.333190017
 20
100.0746453936
 10
163.9415213769
 20
100.7477168749
 10
163.4828720172
 20
101.25321176
 10
162.9943989148
 20
101.5501760701
 10
162.5156753627
 20
101.6145537431
 10
162.085484427
 20
101.4411275099
 10
161.7386775953
 20
101.0439473028
 10
161.5033510072
 20
100.4551921795
 10
161.3985699998
 20
99.7225570316
 10
161.4328226471
 20
98.9053978408
 10
161.6033345392
 20
98.0699148784
 10
161.8962913682
 20
97.2837938751
 10
162.2879600083
 20
96.6107214625
 10
162.746609368
 20
96.1052275086
  0
LWPOLYLINE
  5
15C
330
1F
100
AcDbEntity
  8
0
  6
HIDDEN
 62
     7
370
     0
100
AcDbPolyline
 90
       23
 70
   128
 43
0.0
 10
165.7609731821
 20
96.8271235759
 10
166.2494462845
 20
96.5301583345
 10
166.7281703023
 20
96.4657815928
 10
167.158361238
 20
96.6392068947
 10
167.5051680697
 20
97.0363871018
 10
167.7404946578
 20
97.6251431564
 10
167.8452758981
 20
98.357777373
 10
167.8110227851
 20
99.1749365638
 10
167.6405106602
 20
100.0104195262
 10
167.3475538311
 20
100.7965405295
 10
166.9558861224
 20
101.4696120108
 10
166.4972367627
 20
101.975106896
 10
166.0087636603
 20
102.2720712061
 10
165.5300396425
 20
102.336448879
 10
165.0998487068
 20
102.1630226458
 10
164.7530418751
 20
101.7658424387
 10
164.517715287
 20
101.1770873154
 10
164.4129340468
 20
100.4444521676
 10
164.4471871597
 20
99.6272929768
 10
164.617698819
 20
98.7918100143
 10
164.910655648
 20
98.005689011
 10
165.3023242881
 20
97.3326175297
 10
165.7609731821
 20
96.8271235759
  0
LINE
  5
15D
330
1F
100
AcDbEntity
  8
0
  6
HIDDEN
 62
     7
370
     0
100
AcDbLine
 10
163.7992115622
 20
98.6473879601
 30
0.0
 11
163.0650374038
 21
100.1025114963
 31
0.0
  0
LINE
  5
15E
330
1F
100
AcDbEntity
  8
0
  6
HIDDEN
 62
     7
370
     0
100
AcDbLine
 10
162.1183223953
 20
100.0715385015
 30
0.0
 11
163.0650374038
 21
100.1025114963
 31
0.0
  0
LINE
  5
15F
330
1F
100
AcDbEntity
  8
0
  6
HIDDEN
 62
     7
370
     0
100
AcDbLine
 10
161.9057815453
 20
98.585443833
 30
0.0
 11
162.1183223953
 21
100.0715385015
 31
0.0
  0
LINE
  5
160
330
1F
100
AcDbEntity
  8
0
  6
HIDDEN
 62
     7
370
     0
100
AcDbLine
 10
161.9057815453
 20
98.585443833
 30
0.0
 11
162.6399561694
 21
97.130321228
 31
0.0
  0
LINE
  5
161
330
1F
100
AcDbEntity
  8
0
  6
HIDDEN
 62
     7
370
     0
100
AcDbLine
 10
163.5866711778
 20
97.1612932915
 30
0.0
 11
162.6399561694
 21
97.130321228
 31
0.0
  0
LINE
  5
162
330
1F
100
AcDbEntity
  8
0
  6
HIDDEN
 62
     7
370
     0
100
AcDbLine
 10
163.5866711778
 20
97.1612932915
 30
0.0
 11
163.7992115622
 21
98.6473879601
 31
0.0
  0
LINE
  5
163
330
1F
100
AcDbEntity
  8
0
  6
HIDDEN
 62
     7
370
     0
100
AcDbLine
 10
165.4375160044
 20
99.0397373969
 30
0.0
 11
163.7992115622
 21
98.6473879601
 31
0.0
  0
LWPOLYLINE
  5
164
330
1F
100
AcDbEntity
  8
0
  6
HIDDEN
 62
     7
370
     0
100
AcDbPolyline
 90
       19
 70
   128
 43
0.0
 10
166.7028355343
 20
97.8812950487
 10
167.1009023605
 20
97.6600565771
 10
167.4805569393
 20
97.6724776263
 10
167.7960080025
 20
97.9170587669
 10
168.009208229
 20
98.3643003563
 10
168.0944419397
 20
98.9602592597
 10
168.0414291961
 20
99.6330532069
 10
167.8565635277
 20
100.3015332679
 10
167.5621426595
 20
100.8850711222
 10
167.1936779214
 20
101.3132839287
 10
166.7956120265
 20
101.5345224003
 10
166.4159574477
 20
101.5221022824
 10
166.1005054531
 20
101.2775211419
 10
165.8873052267
 20
100.8302786211
 10
165.802071516
 20
100.2343197177
 10
165.8550842596
 20
99.5615257705
 10
166.0399508593
 20
98.8930457095
 10
166.3343717275
 20
98.3095078553
 10
166.7028355343
 20
97.8812950487
  0
LINE
  5
165
330
1F
100
AcDbEntity
  8
0
  6
HIDDEN
 62
     7
370
     0
100
AcDbLine
 10
164.7033418459
 20
100.4948600019
 30
0.0
 11
163.0650374038
 21
100.1025114963
 31
0.0
  0
LINE
  5
166
330
1F
100
AcDbEntity
  8
0
  6
HIDDEN
 62
     7
370
     0
100
AcDbLine
 10
163.5440859874
 20
98.9777932699
 30
0.0
 11
164.2782601459
 21
97.5226706649
 31
0.0
  0
LINE
  5
167
330
1F
100
AcDbEntity
  8
0
  6
HIDDEN
 62
     7
370
     0
100
AcDbLine
 10
163.5440859874
 20
98.9777932699
 30
0.0
 11
163.7566268375
 21
100.4638879384
 31
0.0
  0
LINE
  5
168
330
1F
100
AcDbEntity
  8
0
  6
HIDDEN
 62
     7
370
     0
100
AcDbLine
 10
165.2249751543
 20
97.5536427284
 30
0.0
 11
164.2782601459
 21
97.5226706649
 31
0.0
  0
LINE
  5
169
330
1F
100
AcDbEntity
  8
0
  6
HIDDEN
 62
     7
370
     0
100
AcDbLine
 10
163.7566268375
 20
100.4638879384
 30
0.0
 11
164.7033418459
 21
100.4948600019
 31
0.0
  0
LINE
  5
16A
330
1F
100
AcDbEntity
  8
0
  6
HIDDEN
 62
     7
370
     0
100
AcDbLine
 10
165.2249751543
 20
97.5536427284
 30
0.0
 11
165.4375160044
 21
99.0397373969
 31
0.0
  0
LINE
  5
16B
330
1F
100
AcDbEntity
  8
0
  6
HIDDEN
 62
     7
370
     0
100
AcDbLine
 10
165.4375160044
 20
99.0397373969
 30
0.0
 11
164.7033418459
 21
100.4948600019
 31
0.0
  0
LINE
  5
16C
330
1F
100
AcDbEntity
  8
0
  6
HIDDEN
 62
     7
370
     0
100
AcDbLine
 10
164.2782601459
 20
97.5226706649
 30
0.0
 11
162.6399561694
 21
97.130321228
 31
0.0
  0
LINE
  5
16D
330
1F
100
AcDbEntity
  8
0
  6
HIDDEN
 62
     7
370
     0
100
AcDbLine
 10
165.2249751543
 20
97.5536427284
 30
0.0
 11
163.5866711778
 21
97.1612932915
 31
0.0
  0
LINE
  5
16E
330
1F
100
AcDbEntity
  8
0
  6
HIDDEN
 62
     7
370
     0
100
AcDbLine
 10
163.5440859874
 20
98.9777932699
 30
0.0
 11
161.9057815453
 21
98.585443833
 31
0.0
  0
LINE
  5
16F
330
1F
100
AcDbEntity
  8
0
  6
HIDDEN
 62
     7
370
     0
100
AcDbLine
 10
163.7566268375
 20
100.4638879384
 30
0.0
 11
162.1183223953
 21
100.0715385015
 31
0.0
  0
LWPOLYLINE
  5
170
330
1F
100
AcDbEntity
  8
0
  6
HIDDEN
 62
     7
370
     0
100
AcDbPolyline
 90
       23
 70
   128
 43
0.0
 10
166.4972367627
 20
123.0674453835
 10
166.0087636603
 20
122.7704810734
 10
165.5300396425
 20
122.7061034004
 10
165.0998487068
 20
122.8795296336
 10
164.7530418751
 20
123.2767098407
 10
164.517715287
 20
123.865464964
 10
164.4129340468
 20
124.5981001119
 10
164.4471871597
 20
125.4152593027
 10
164.617698819
 20
126.2507422651
 10
164.910655648
 20
127.0368632684
 10
165.3023242881
 20
127.7099347497
 10
165.7609731821
 20
128.2154287035
 10
166.2494462845
 20
128.512393945
 10
166.7281703023
 20
128.5767706866
 10
167.158361238
 20
128.4033453847
 10
167.5051680697
 20
128.0061651776
 10
167.7404946578
 20
127.417409123
 10
167.8452758981
 20
126.6847749064
 10
167.8110227851
 20
125.8676157157
 10
167.6405106602
 20
125.0321327532
 10
167.3475538311
 20
124.2460117499
 10
166.9558861224
 20
123.5729402686
 10
166.4972367627
 20
123.0674453835
  0
LWPOLYLINE
  5
171
330
1F
100
AcDbEntity
  8
0
  6
HIDDEN
 62
     7
370
     0
100
AcDbPolyline
 90
       19
 70
   128
 43
0.0
 10
167.1936779214
 20
123.7292683507
 10
166.7956120265
 20
123.5080298791
 10
166.4159574477
 20
123.520449997
 10
166.1005054531
 20
123.7650311376
 10
165.8873052267
 20
124.2122736583
 10
165.802071516
 20
124.8082325617
 10
165.8550842596
 20
125.4810265089
 10
166.0399508593
 20
126.1495065699
 10
166.3343717275
 20
126.7330444242
 10
166.7028355343
 20
127.1612572307
 10
167.1009023605
 20
127.3824957023
 10
167.4805569393
 20
127.3700746531
 10
167.7960080025
 20
127.1254935126
 10
168.009208229
 20
126.6782519231
 10
168.0944419397
 20
126.0822930197
 10
168.0414291961
 20
125.4094990725
 10
167.8565635277
 20
124.7410190115
 10
167.5621426595
 20
124.1574811573
 10
167.1936779214
 20
123.7292683507
  0
LWPOLYLINE
  5
172
330
1F
100
AcDbEntity
  8
0
  6
HIDDEN
 62
     7
370
     0
100
AcDbPolyline
 90
       23
 70
   128
 43
0.0
 10
163.4828720172
 20
123.7893405194
 10
162.9943989148
 20
123.4923762093
 10
162.5156753627
 20
123.4279985363
 10
162.085484427
 20
123.6014247696
 10
161.7386775953
 20
123.9986049766
 10
161.5033510072
 20
124.5873601
 10
161.3985699998
 20
125.3199952478
 10
161.4328226471
 20
126.1371544386
 10
161.6033345392
 20
126.972637401
 10
161.8962913682
 20
127.7587584044
 10
162.2879600083
 20
128.431830817
 10
162.746609368
 20
128.9373247708
 10
163.2350824704
 20
129.2342900122
 10
163.7138060225
 20
129.2986667539
 10
164.1439969582
 20
129.1252395893
 10
164.4908037899
 20
128.7280603136
 10
164.726130378
 20
128.1393051902
 10
164.8309116182
 20
127.4066700424
 10
164.7966585053
 20
126.5895108516
 10
164.626146846
 20
125.7540278892
 10
164.333190017
 20
124.9679068858
 10
163.9415213769
 20
124.2948354046
 10
163.4828720172
 20
123.7893405194
  0
LINE
  5
173
330
1F
100
AcDbEntity
  8
0
  6
HIDDEN
 62
     7
370
     0
100
AcDbLine
 10
163.5440859874
 20
126.0647590096
 30
0.0
 11
164.2782601459
 21
127.5198816145
 31
0.0
  0
LINE
  5
174
330
1F
100
AcDbEntity
  8
0
  6
HIDDEN
 62
     7
370
     0
100
AcDbLine
 10
161.9057815453
 20
126.4571084465
 30
0.0
 11
162.6399561694
 21
127.9122310514
 31
0.0
  0
LWPOLYLINE
  5
175
330
1F
100
AcDbEntity
  8
0
  6
HIDDEN
 62
     7
370
     0
100
AcDbPolyline
 90
       21
 70
   128
 43
0.0
 10
163.1525854511
 20
124.3279038752
 10
162.7144815331
 20
124.0718544285
 10
162.2898873804
 20
124.0462588901
 10
161.9203655911
 20
124.2536215867
 10
161.6420868715
 20
124.6736462052
 10
161.4822919411
 20
125.2652157853
 10
161.4566221298
 20
125.9704244147
 10
161.5675901459
 20
126.720242464
 10
161.8043339742
 20
127.4412696073
 10
162.1436790494
 20
128.0629292885
 10
162.552408122
 20
128.5243688906
 10
162.99051204
 20
128.7804174061
 10
163.4151061928
 20
128.8060138757
 10
163.784627982
 20
128.5986511792
 10
164.0629067016
 20
128.1786265607
 10
164.222701632
 20
127.5870560492
 10
164.2483716761
 20
126.8818474198
 10
164.1374031944
 20
126.1320303018
 10
163.9006595989
 20
125.4110022272
 10
163.5613145237
 20
124.789342546
 10
163.1525854511
 20
124.3279038752
  0
LINE
  5
176
330
1F
100
AcDbEntity
  8
0
  6
HIDDEN
 62
     7
370
     0
100
AcDbLine
 10
162.1183223953
 20
124.971013778
 30
0.0
 11
161.9057815453
 21
126.4571084465
 31
0.0
  0
LINE
  5
177
330
1F
100
AcDbEntity
  8
0
  6
HIDDEN
 62
     7
370
     0
100
AcDbLine
 10
163.7566268375
 20
124.5786643411
 30
0.0
 11
163.5440859874
 21
126.0647590096
 31
0.0
  0
LINE
  5
178
330
1F
100
AcDbEntity
  8
0
  6
HIDDEN
 62
     7
370
     0
100
AcDbLine
 10
163.5440859874
 20
126.0647590096
 30
0.0
 11
161.9057815453
 21
126.4571084465
 31
0.0
  0
LINE
  5
179
330
1F
100
AcDbEntity
  8
0
  6
HIDDEN
 62
     7
370
     0
100
AcDbLine
 10
163.5866711778
 20
127.8812589879
 30
0.0
 11
162.6399561694
 21
127.9122310514
 31
0.0
  0
LINE
  5
17A
330
1F
100
AcDbEntity
  8
0
  6
HIDDEN
 62
     7
370
     0
100
AcDbLine
 10
165.2249751543
 20
127.488909551
 30
0.0
 11
164.2782601459
 21
127.5198816145
 31
0.0
  0
LINE
  5
17B
330
1F
100
AcDbEntity
  8
0
  6
HIDDEN
 62
     7
370
     0
100
AcDbLine
 10
164.2782601459
 20
127.5198816145
 30
0.0
 11
162.6399561694
 21
127.9122310514
 31
0.0
  0
LINE
  5
17C
330
1F
100
AcDbEntity
  8
0
  6
HIDDEN
 62
     7
370
     0
100
AcDbLine
 10
164.7033418459
 20
124.5476922775
 30
0.0
 11
163.0650374038
 21
124.9400407831
 31
0.0
  0
LINE
  5
17D
330
1F
100
AcDbEntity
  8
0
  6
HIDDEN
 62
     7
370
     0
100
AcDbLine
 10
163.7566268375
 20
124.5786643411
 30
0.0
 11
162.1183223953
 21
124.971013778
 31
0.0
  0
LINE
  5
17E
330
1F
100
AcDbEntity
  8
0
  6
HIDDEN
 62
     7
370
     0
100
AcDbLine
 10
162.1183223953
 20
124.971013778
 30
0.0
 11
163.0650374038
 21
124.9400407831
 31
0.0
  0
LINE
  5
17F
330
1F
100
AcDbEntity
  8
0
  6
HIDDEN
 62
     7
370
     0
100
AcDbLine
 10
163.7566268375
 20
124.5786643411
 30
0.0
 11
164.7033418459
 21
124.5476922775
 31
0.0
  0
LINE
  5
180
330
1F
100
AcDbEntity
  8
0
  6
HIDDEN
 62
     7
370
     0
100
AcDbLine
 10
165.4375160044
 20
126.0028148825
 30
0.0
 11
163.7992115622
 21
126.3951643194
 31
0.0
  0
LINE
  5
181
330
1F
100
AcDbEntity
  8
0
  6
HIDDEN
 62
     7
370
     0
100
AcDbLine
 10
163.7992115622
 20
126.3951643194
 30
0.0
 11
163.0650374038
 21
124.9400407831
 31
0.0
  0
LINE
  5
182
330
1F
100
AcDbEntity
  8
0
  6
HIDDEN
 62
     7
370
     0
100
AcDbLine
 10
165.4375160044
 20
126.0028148825
 30
0.0
 11
164.7033418459
 21
124.5476922775
 31
0.0
  0
LINE
  5
183
330
1F
100
AcDbEntity
  8
0
  6
HIDDEN
 62
     7
370
     0
100
AcDbLine
 10
165.2249751543
 20
127.488909551
 30
0.0
 11
163.5866711778
 21
127.8812589879
 31
0.0
  0
LINE
  5
184
330
1F
100
AcDbEntity
  8
0
  6
HIDDEN
 62
     7
370
     0
100
AcDbLine
 10
163.7992115622
 20
126.3951643194
 30
0.0
 11
163.5866711778
 21
127.8812589879
 31
0.0
  0
LINE
  5
185
330
1F
100
AcDbEntity
  8
0
  6
HIDDEN
 62
     7
370
     0
100
AcDbLine
 10
165.4375160044
 20
126.0028148825
 30
0.0
 11
165.2249751543
 21
127.488909551
 31
0.0
  0
LINE
  5
186
330
1F
100
AcDbEntity
  8
0
  6
HIDDEN
 62
     7
370
     0
100
AcDbLine
 10
174.4317670283
 20
95.8569629873
 30
0.0
 11
174.4317670283
 21
99.0131909783
 31
0.0
  0
LINE
  5
187
330
1F
100
AcDbEntity
  8
0
  6
HIDDEN
 62
     7
370
     0
100
AcDbLine
 10
169.4317671401
 20
99.0131909783
 30
0.0
 11
169.4317671401
 21
96.959531569
 31
0.0
  0
LINE
  5
188
330
1F
100
AcDbEntity
  8
0
  6
HIDDEN
 62
     7
370
     0
100
AcDbLine
 10
160.9317673767
 20
95.0715991492
 30
0.0
 11
163.5511952383
 21
95.6989138211
 31
0.0
  0
LINE
  5
189
330
1F
100
AcDbEntity
  8
0
  6
HIDDEN
 62
     7
370
     0
100
AcDbLine
 10
162.1537983348
 20
101.5339189033
 30
0.0
 11
160.9317673767
 21
101.2412600974
 31
0.0
  0
LINE
  5
18A
330
1F
100
AcDbEntity
  8
0
  6
HIDDEN
 62
     7
370
     0
100
AcDbLine
 10
163.6099179206
 20
96.6384264464
 30
0.0
 11
171.079067227
 21
98.427175806
 31
0.0
  0
LINE
  5
18B
330
1F
100
AcDbEntity
  8
0
  6
HIDDEN
 62
     7
370
     0
100
AcDbLine
 10
171.079067227
 20
102.7459383766
 30
0.0
 11
162.6317400416
 21
100.7229297246
 31
0.0
  0
LINE
  5
18C
330
1F
100
AcDbEntity
  8
0
  6
HIDDEN
 62
     7
370
     0
100
AcDbLine
 10
174.0317677078
 20
99.062985071
 30
0.0
 11
174.0317677078
 21
110.7805471691
 31
0.0
  0
LINE
  5
18D
330
1F
100
AcDbEntity
  8
0
  6
HIDDEN
 62
     7
370
     0
100
AcDbLine
 10
169.8317673919
 20
99.4110352183
 30
0.0
 11
169.8317673919
 21
99.062985071
 31
0.0
  0
LINE
  5
18E
330
1F
100
AcDbEntity
  8
0
  6
HIDDEN
 62
     7
370
     0
100
AcDbLine
 10
169.8317673919
 20
110.7798361043
 30
0.0
 11
169.8317673919
 21
101.164659747
 31
0.0
  0
LINE
  5
18F
330
1F
100
AcDbEntity
  8
0
  6
HIDDEN
 62
     7
370
     0
100
AcDbLine
 10
236.8317653356
 20
143.0212764824
 30
0.0
 11
236.0817675409
 21
141.4128954346
 31
0.0
  0
LINE
  5
190
330
1F
100
AcDbEntity
  8
0
  6
HIDDEN
 62
     7
370
     0
100
AcDbLine
 10
236.0817675409
 20
83.6296568448
 30
0.0
 11
236.8317653356
 21
82.021275797
 31
0.0
  0
LINE
  5
191
330
1F
100
AcDbEntity
  8
0
  6
HIDDEN
 62
     7
370
     0
100
AcDbLine
 10
236.0817675409
 20
136.5212763483
 30
0.0
 11
231.7817692576
 21
136.5212763483
 31
0.0
  0
LINE
  5
192
330
1F
100
AcDbEntity
  8
0
  6
HIDDEN
 62
     7
370
     0
100
AcDbLine
 10
231.7817692576
 20
88.5212759311
 30
0.0
 11
236.0817675409
 21
88.5212759311
 31
0.0
  0
LINE
  5
193
330
1F
100
AcDbEntity
  8
0
  6
HIDDEN
 62
     7
370
     0
100
AcDbLine
 10
231.7817692576
 20
133.3873013789
 30
0.0
 11
230.2817662177
 21
132.5212756927
 31
0.0
  0
LINE
  5
194
330
1F
100
AcDbEntity
  8
0
  6
HIDDEN
 62
     7
370
     0
100
AcDbLine
 10
230.2817662177
 20
92.5212765868
 30
0.0
 11
231.7817692576
 21
91.6552509005
 31
0.0
  0
ARC
  5
195
330
1F
100
AcDbEntity
  8
0
  6
HIDDEN
 62
     7
370
     0
100
AcDbCircle
 10
196.4317674575
 20
92.8212761397
 30
0.0
 40
0.6000000000000227
100
AcDbArc
 50
180.0
 51
270.0
  0
ARC
  5
196
330
1F
100
AcDbEntity
  8
0
  6
HIDDEN
 62
     7
370
     0
100
AcDbCircle
 10
196.4317674575
 20
132.2212761397
 30
0.0
 40
0.6000000000000227
100
AcDbArc
 50
90.0
 51
180.0
  0
LINE
  5
197
330
1F
100
AcDbEntity
  8
0
  6
HIDDEN
 62
     7
370
     0
100
AcDbLine
 10
196.4317669091
 20
92.2212752337
 30
0.0
 11
197.1331608412
 21
92.2212752337
 31
0.0
  0
LINE
  5
198
330
1F
100
AcDbEntity
  8
0
  6
HIDDEN
 62
     7
370
     0
100
AcDbLine
 10
197.1331608412
 20
132.8212770457
 30
0.0
 11
196.4317669091
 21
132.8212770457
 31
0.0
  0
ARC
  5
199
330
1F
100
AcDbEntity
  8
0
  6
HIDDEN
 62
     7
370
     0
100
AcDbCircle
 10
197.1331607167
 20
92.8212761397
 30
0.0
 40
0.6000000000000085
100
AcDbArc
 50
270.0
 51
285.0
  0
ARC
  5
19A
330
1F
100
AcDbEntity
  8
0
  6
HIDDEN
 62
     7
370
     0
100
AcDbCircle
 10
197.1331607167
 20
132.2212761397
 30
0.0
 40
0.6000000000000227
100
AcDbArc
 50
75.0
 51
90.0
  0
LINE
  5
19B
330
1F
100
AcDbEntity
  8
0
  6
HIDDEN
 62
     7
370
     0
100
AcDbLine
 10
197.2884532926
 20
92.2417214895
 30
0.0
 11
198.3317692695
 21
92.5212765868
 31
0.0
  0
LINE
  5
19C
330
1F
100
AcDbEntity
  8
0
  6
HIDDEN
 62
     7
370
     0
100
AcDbLine
 10
198.3317692695
 20
132.5212756927
 30
0.0
 11
197.2884532926
 21
132.8008307899
 31
0.0
  0
LINE
  5
19D
330
1F
100
AcDbEntity
  8
0
  6
HIDDEN
 62
     7
370
     0
100
AcDbLine
 10
198.3317692695
 20
92.5212765868
 30
0.0
 11
230.2817662177
 21
92.5212765868
 31
0.0
  0
LINE
  5
19E
330
1F
100
AcDbEntity
  8
0
  6
HIDDEN
 62
     7
370
     0
100
AcDbLine
 10
230.2817662177
 20
132.5212756927
 30
0.0
 11
198.3317692695
 21
132.5212756927
 31
0.0
  0
LINE
  5
19F
330
1F
100
AcDbEntity
  8
0
  6
HIDDEN
 62
     7
370
     0
100
AcDbLine
 10
236.0817675409
 20
140.5462755645
 30
0.0
 11
231.7817692576
 21
140.5462755645
 31
0.0
  0
LINE
  5
1A0
330
1F
100
AcDbEntity
  8
0
  6
HIDDEN
 62
     7
370
     0
100
AcDbLine
 10
231.7817692576
 20
84.4962767149
 30
0.0
 11
236.0817675409
 21
84.4962767149
 31
0.0
  0
ARC
  5
1A1
330
1F
100
AcDbEntity
  8
0
  6
HIDDEN
 62
     7
370
     0
100
AcDbCircle
 10
57.3317674575
 20
98.8212761397
 30
0.0
 40
1.20000000000001
100
AcDbArc
 50
90.0
 51
180.0
  0
ARC
  5
1A2
330
1F
100
AcDbEntity
  8
0
  6
HIDDEN
 62
     7
370
     0
100
AcDbCircle
 10
57.3317674575
 20
126.2212761397
 30
0.0
 40
1.20000000000001
100
AcDbArc
 50
180.0
 51
270.0
  0
ARC
  5
1A3
330
1F
100
AcDbEntity
  8
0
  6
HIDDEN
 62
     7
370
     0
100
AcDbCircle
 10
67.0241398882
 20
100.1962761397
 30
0.0
 40
0.400000000000006
100
AcDbArc
 50
255.0
 51
270.0
  0
ARC
  5
1A4
330
1F
100
AcDbEntity
  8
0
  6
HIDDEN
 62
     7
370
     0
100
AcDbCircle
 10
67.0241398882
 20
124.8462761397
 30
0.0
 40
0.4000000000000197
100
AcDbArc
 50
90.0
 51
105.0
  0
LINE
  5
1A5
330
1F
100
AcDbEntity
  8
0
  6
HIDDEN
 62
     7
370
     0
100
AcDbLine
 10
67.0241375384
 20
99.79627587
 30
0.0
 11
67.9008250055
 21
99.79627587
 31
0.0
  0
LINE
  5
1A6
330
1F
100
AcDbEntity
  8
0
  6
HIDDEN
 62
     7
370
     0
100
AcDbLine
 10
67.9008250055
 20
125.2462764094
 30
0.0
 11
67.0241375384
 21
125.2462764094
 31
0.0
  0
ARC
  5
1A7
330
1F
100
AcDbEntity
  8
0
  6
HIDDEN
 62
     7
370
     0
100
AcDbCircle
 10
67.9008273498
 20
100.1962761397
 30
0.0
 40
0.3999999999999915
100
AcDbArc
 50
270.0
 51
330.0
  0
ARC
  5
1A8
330
1F
100
AcDbEntity
  8
0
  6
HIDDEN
 62
     7
370
     0
100
AcDbCircle
 10
67.9008273498
 20
124.8462761397
 30
0.0
 40
0.3999999999999875
100
AcDbArc
 50
30.0
 51
90.0
  0
LINE
  5
1A9
330
1F
100
AcDbEntity
  8
0
  6
HIDDEN
 62
     7
370
     0
100
AcDbLine
 10
66.9206117211
 20
125.2326465035
 30
0.0
 11
66.1317665992
 21
125.021276326
 31
0.0
  0
LINE
  5
1AA
330
1F
100
AcDbEntity
  8
0
  6
HIDDEN
 62
     7
370
     0
100
AcDbLine
 10
66.1317665992
 20
100.0212759535
 30
0.0
 11
66.9206117211
 21
99.8099057759
 31
0.0
  0
LINE
  5
1AB
330
1F
100
AcDbEntity
  8
0
  6
HIDDEN
 62
     7
370
     0
100
AcDbLine
 10
68.2472397504
 20
99.9962764616
 30
0.0
 11
69.4163699565
 21
102.0212762813
 31
0.0
  0
LINE
  5
1AC
330
1F
100
AcDbEntity
  8
0
  6
HIDDEN
 62
     7
370
     0
100
AcDbLine
 10
69.4163699565
 20
123.0212759982
 30
0.0
 11
68.2472397504
 21
125.0462758179
 31
0.0
  0
LINE
  5
1AD
330
1F
100
AcDbEntity
  8
0
  6
HIDDEN
 62
     7
370
     0
100
AcDbLine
 10
57.3317666469
 20
100.0212759535
 30
0.0
 11
66.1317665992
 21
100.0212759535
 31
0.0
  0
LINE
  5
1AE
330
1F
100
AcDbEntity
  8
0
  6
HIDDEN
 62
     7
370
     0
100
AcDbLine
 10
66.1317665992
 20
125.021276326
 30
0.0
 11
57.3317666469
 21
125.021276326
 31
0.0
  0
SPLINE
  5
1AF
330
1F
100
AcDbEntity
  8
0
  6
HIDDEN
 62
     7
370
     0
100
AcDbSpline
210
0.0
220
0.0
230
1.0
 70
     8
 71
     3
 72
    12
 73
     8
 74
     0
 42
0.000000001
 43
0.00000001
 40
0.0
 40
0.0
 40
0.0
 40
0.0
 40
0.4548683134194858
 40
0.7523499226564663
 40
0.8878945115703005
 40
0.9804131905777426
 40
0.9999999999999999
 40
0.9999999999999999
 40
0.9999999999999999
 40
0.9999999999999999
 10
176.797222059741
 20
149.994202219944
 30
0.0
 10
176.8328671474664
 20
149.8613756155821
 30
0.0
 10
176.8918239448561
 20
149.6416810741728
 30
0.0
 10
176.984137603562
 20
149.4154945769959
 30
0.0
 10
177.0232033335994
 20
149.3228403474099
 30
0.0
 10
177.0352456089096
 20
149.2945888958254
 30
0.0
 10
177.0331765136485
 20
149.2995455842928
 30
0.0
 10
177.0328150061512
 20
149.3004116053391
 30
0.0
  0
LINE
  5
1B0
330
1F
100
AcDbEntity
  8
0
  6
HIDDEN
 62
     7
370
     0
100
AcDbLine
 10
176.8029459683
 20
150.2975004549
 30
0.0
 11
176.80325703
 21
150.5856740112
 31
0.0
  0
LINE
  5
1B1
330
1F
100
AcDbEntity
  8
0
  6
HIDDEN
 62
     7
370
     0
100
AcDbLine
 10
118.1317676721
 20
102.0212762813
 30
0.0
 11
121.3764135656
 21
107.4212759557
 31
0.0
  0
LINE
  5
1B2
330
1F
100
AcDbEntity
  8
0
  6
HIDDEN
 62
     7
370
     0
100
AcDbLine
 10
121.3764135656
 20
117.6212763237
 30
0.0
 11
118.1317676721
 21
123.0212759982
 31
0.0
  0
LINE
  5
1B3
330
1F
100
AcDbEntity
  8
0
  6
HIDDEN
 62
     7
370
     0
100
AcDbLine
 10
69.4163699565
 20
102.0212762813
 30
0.0
 11
118.1317676721
 21
102.0212762813
 31
0.0
  0
LINE
  5
1B4
330
1F
100
AcDbEntity
  8
0
  6
HIDDEN
 62
     7
370
     0
100
AcDbLine
 10
118.1317676721
 20
123.0212759982
 30
0.0
 11
69.4163699565
 21
123.0212759982
 31
0.0
  0
LINE
  5
1B5
330
1F
100
AcDbEntity
  8
0
  6
HIDDEN
 62
     7
370
     0
100
AcDbLine
 10
189.6317672846
 20
76.5212776894
 30
0.0
 11
189.6317672846
 21
77.2212746377
 31
0.0
  0
LINE
  5
1B6
330
1F
100
AcDbEntity
  8
0
  6
HIDDEN
 62
     7
370
     0
100
AcDbLine
 10
121.3764135656
 20
107.4212759557
 30
0.0
 11
195.8317679284
 21
107.4212759557
 31
0.0
  0
LINE
  5
1B7
330
1F
100
AcDbEntity
  8
0
  6
HIDDEN
 62
     7
370
     0
100
AcDbLine
 10
195.8317679284
 20
117.6212763237
 30
0.0
 11
121.3764135656
 21
117.6212763237
 31
0.0
  0
LINE
  5
1B8
330
1F
100
AcDbEntity
  8
0
  6
HIDDEN
 62
     7
370
     0
100
AcDbLine
 10
174.0317677078
 20
114.2627161751
 30
0.0
 11
174.0317677078
 21
125.9795672084
 31
0.0
  0
LINE
  5
1B9
330
1F
100
AcDbEntity
  8
0
  6
HIDDEN
 62
     7
370
     0
100
AcDbLine
 10
169.8317673919
 20
123.8778925324
 30
0.0
 11
169.8317673919
 21
114.2620051103
 31
0.0
  0
LINE
  5
1BA
330
1F
100
AcDbEntity
  8
0
  6
HIDDEN
 62
     7
370
     0
100
AcDbLine
 10
169.8317673919
 20
125.9795672084
 30
0.0
 11
169.8317673919
 21
125.6315170611
 31
0.0
  0
LINE
  5
1BB
330
1F
100
AcDbEntity
  8
0
  6
HIDDEN
 62
     7
370
     0
100
AcDbLine
 10
162.6317400416
 20
124.3196225549
 30
0.0
 11
171.079067227
 21
122.2966139028
 31
0.0
  0
LINE
  5
1BC
330
1F
100
AcDbEntity
  8
0
  6
HIDDEN
 62
     7
370
     0
100
AcDbLine
 10
171.079067227
 20
126.6153764735
 30
0.0
 11
163.6099179206
 21
128.404125833
 31
0.0
  0
LINE
  5
1BD
330
1F
100
AcDbEntity
  8
0
  6
HIDDEN
 62
     7
370
     0
100
AcDbLine
 10
160.9317673767
 20
123.801292182
 30
0.0
 11
162.1537983348
 21
123.5086333762
 31
0.0
  0
LINE
  5
1BE
330
1F
100
AcDbEntity
  8
0
  6
HIDDEN
 62
     7
370
     0
100
AcDbLine
 10
163.5511952383
 20
129.3436384584
 30
0.0
 11
160.9317673767
 21
129.9709531302
 31
0.0
  0
LINE
  5
1BF
330
1F
100
AcDbEntity
  8
0
  6
HIDDEN
 62
     7
370
     0
100
AcDbLine
 10
174.4317670283
 20
126.0293613012
 30
0.0
 11
174.4317670283
 21
129.1855892921
 31
0.0
  0
LINE
  5
1C0
330
1F
100
AcDbEntity
  8
0
  6
HIDDEN
 62
     7
370
     0
100
AcDbLine
 10
169.4317671401
 20
128.0830207104
 30
0.0
 11
169.4317671401
 21
126.0293613012
 31
0.0
  0
LINE
  5
1C1
330
1F
100
AcDbEntity
  8
0
  6
HIDDEN
 62
     7
370
     0
100
AcDbLine
 10
169.4317671401
 20
97.4706795822
 30
0.0
 11
169.4317671401
 21
97.2825682546
 31
0.0
  0
LINE
  5
1C2
330
1F
100
AcDbEntity
  8
0
  6
HIDDEN
 62
     7
370
     0
100
AcDbLine
 10
174.4317670283
 20
97.2825682546
 30
0.0
 11
174.4317670283
 21
97.4706795822
 31
0.0
  0
LINE
  5
1C3
330
1F
100
AcDbEntity
  8
0
  6
HIDDEN
 62
     7
370
     0
100
AcDbLine
 10
169.9317672221
 20
98.6524618054
 30
0.0
 11
169.9317672221
 21
97.234686167
 31
0.0
  0
LINE
  5
1C4
330
1F
100
AcDbEntity
  8
0
  6
HIDDEN
 62
     7
370
     0
100
AcDbLine
 10
173.9317678777
 20
97.234686167
 30
0.0
 11
173.9317678777
 21
98.6524618054
 31
0.0
  0
LINE
  5
1C5
330
1F
100
AcDbEntity
  8
0
  6
HIDDEN
 62
     7
370
     0
100
AcDbLine
 10
169.4317671401
 20
99.0131909783
 30
0.0
 11
169.4317671401
 21
98.4146551053
 31
0.0
  0
LINE
  5
1C6
330
1F
100
AcDbEntity
  8
0
  6
HIDDEN
 62
     7
370
     0
100
AcDbLine
 10
174.4317670283
 20
98.4146551053
 30
0.0
 11
174.4317670283
 21
99.0131909783
 31
0.0
  0
LINE
  5
1C7
330
1F
100
AcDbEntity
  8
0
  6
HIDDEN
 62
     7
370
     0
100
AcDbLine
 10
174.4317670283
 20
126.0293613012
 30
0.0
 11
174.4317670283
 21
126.6278971742
 31
0.0
  0
LINE
  5
1C8
330
1F
100
AcDbEntity
  8
0
  6
HIDDEN
 62
     7
370
     0
100
AcDbLine
 10
169.4317671401
 20
126.6278971742
 30
0.0
 11
169.4317671401
 21
126.0293613012
 31
0.0
  0
LINE
  5
1C9
330
1F
100
AcDbEntity
  8
0
  6
HIDDEN
 62
     7
370
     0
100
AcDbLine
 10
173.9317678777
 20
126.390090474
 30
0.0
 11
173.9317678777
 21
127.8078661124
 31
0.0
  0
LINE
  5
1CA
330
1F
100
AcDbEntity
  8
0
  6
HIDDEN
 62
     7
370
     0
100
AcDbLine
 10
169.9317672221
 20
127.8078661124
 30
0.0
 11
169.9317672221
 21
126.390090474
 31
0.0
  0
LINE
  5
1CB
330
1F
100
AcDbEntity
  8
0
  6
HIDDEN
 62
     7
370
     0
100
AcDbLine
 10
174.4317670283
 20
127.5718726973
 30
0.0
 11
174.4317670283
 21
127.7599840249
 31
0.0
  0
LINE
  5
1CC
330
1F
100
AcDbEntity
  8
0
  6
HIDDEN
 62
     7
370
     0
100
AcDbLine
 10
169.4317671401
 20
127.7599840249
 30
0.0
 11
169.4317671401
 21
127.5718726973
 31
0.0
  0
ARC
  5
1CD
330
1F
100
AcDbEntity
  8
0
  6
HIDDEN
 62
     7
370
     0
100
AcDbCircle
 10
171.9317674575
 20
98.0555341778
 30
0.0
 40
2.000000000000003
100
AcDbArc
 50
71.1182787691
 51
192.2156859337
  0
ARC
  5
1CE
330
1F
100
AcDbEntity
  8
0
  6
HIDDEN
 62
     7
370
     0
100
AcDbCircle
 10
171.9317674575
 20
98.0555341778
 30
0.0
 40
2.000000000000011
100
AcDbArc
 50
340.3453161116
 51
71.1182787691
  0
CIRCLE
  5
1CF
330
1F
100
AcDbEntity
  8
0
  6
HIDDEN
 62
     7
370
     0
100
AcDbCircle
 10
171.9317674575
 20
126.9870181017
 30
0.0
 40
2.000000000000003
  0
LINE
  5
1D0
330
1F
100
AcDbEntity
  8
0
  6
HIDDEN
 62
     7
370
     0
100
AcDbLine
 10
163.8134389115
 20
95.7617166276
 30
0.0
 11
166.8278031913
 21
96.4836126948
 31
0.0
  0
LINE
  5
1D1
330
1F
100
AcDbEntity
  8
0
  6
HIDDEN
 62
     7
370
     0
100
AcDbLine
 10
165.4304067535
 20
102.318617777
 30
0.0
 11
162.4160424737
 21
101.5967217098
 31
0.0
  0
LINE
  5
1D2
330
1F
100
AcDbEntity
  8
0
  6
HIDDEN
 62
     7
370
     0
100
AcDbLine
 10
167.6722492022
 20
97.4000760178
 30
0.0
 11
167.9770198581
 21
98.2632630328
 31
0.0
  0
LINE
  5
1D3
330
1F
100
AcDbEntity
  8
0
  6
HIDDEN
 62
     7
370
     0
100
AcDbLine
 10
167.261114989
 20
101.2526138509
 30
0.0
 11
166.5983914328
 21
101.8841008479
 31
0.0
  0
LINE
  5
1D4
330
1F
100
AcDbEntity
  8
0
  6
HIDDEN
 62
     7
370
     0
100
AcDbLine
 10
166.5983914328
 20
123.1584514315
 30
0.0
 11
167.261114989
 21
123.7899384285
 31
0.0
  0
LINE
  5
1D5
330
1F
100
AcDbEntity
  8
0
  6
HIDDEN
 62
     7
370
     0
100
AcDbLine
 10
167.9770198581
 20
126.7792892466
 30
0.0
 11
167.6722492022
 21
127.6424762617
 31
0.0
  0
LINE
  5
1D6
330
1F
100
AcDbEntity
  8
0
  6
HIDDEN
 62
     7
370
     0
100
AcDbLine
 10
162.4160424737
 20
123.4458305697
 30
0.0
 11
165.4304067535
 21
122.7239345024
 31
0.0
  0
LINE
  5
1D7
330
1F
100
AcDbEntity
  8
0
  6
HIDDEN
 62
     7
370
     0
100
AcDbLine
 10
166.8278031913
 20
128.5589395846
 30
0.0
 11
163.8134389115
 21
129.2808356519
 31
0.0
  0
DIMENSION
  5
1D8
330
1F
100
AcDbEntity
  8
VERMASSUNG
100
AcDbDimension
  2
_D
 10
48.7716215848
 20
161.2462761397
 30
0.0
 11
48.7716215848
 21
112.5212761397
 31
0.0
 70
   160
  1
ISO 50 %%c<>
 71
     2
 42
-1.0
  3
SLDDIMSTYLE0
100
AcDbAlignedDimension
 13
176.1817674575
 23
63.7962761397
 33
0.0
 14
176.1817674575
 24
161.2462761397
 34
0.0
 50
90.0
100
AcDbRotatedDimension
  0
DIMENSION
  5
1E5
330
1F
100
AcDbEntity
  8
VERMASSUNG
100
AcDbDimension
  2
_D_1
 10
236.8317674575
 20
179.3975048554
 30
0.0
 11
146.4817674575
 21
179.3975048554
 31
0.0
 70
   160
  1
(<>)
 71
     2
 42
-1.0
  3
SLDDIMSTYLE0
100
AcDbAlignedDimension
 13
56.1317674575
 23
130.9001206671
 33
0.0
 14
236.8317674575
 24
147.8212761397
 34
0.0
100
AcDbRotatedDimension
  0
DIMENSION
  5
1F1
330
1F
100
AcDbEntity
  8
VERMASSUNG
100
AcDbDimension
  2
_D_2
 10
236.8317674575
 20
173.3975048554
 30
0.0
 11
197.2817674575
 21
173.3975048554
 31
0.0
 70
   160
  1
<>
 71
     2
 42
-1.0
  3
SLDDIMSTYLE0
100
AcDbAlignedDimension
 13
157.7317674575
 23
147.4462761397
 33
0.0
 14
236.8317674575
 24
147.8212761397
 34
0.0
100
AcDbRotatedDimension
  0
DIMENSION
  5
1FB
330
1F
100
AcDbEntity
  8
VERMASSUNG
100
AcDbDimension
  2
_D_3
 10
236.8317674575
 20
167.3975048554
 30
0.0
 11
206.8067674575
 21
167.3975048554
 31
0.0
 70
   160
  1
<>
 71
     2
 42
-1.0
  3
SLDDIMSTYLE0
100
AcDbAlignedDimension
 13
176.7817674575
 23
158.8162630929
 33
0.0
 14
236.8317674575
 24
147.8212761397
 34
0.0
100
AcDbRotatedDimension
  0
DIMENSION
  5
205
330
1F
100
AcDbEntity
  8
VERMASSUNG
100
AcDbDimension
  2
_D_4
 10
245.8979816285
 20
76.5212761397
 30
0.0
 11
245.8979816285
 21
112.5212761397
 31
0.0
 70
   160
  1
MBM %%c<>
 71
     2
 42
-1.0
  3
SLDDIMSTYLE0
100
AcDbAlignedDimension
 13
236.1317674575
 23
148.5212761397
 33
0.0
 14
236.1317674575
 24
76.5212761397
 34
0.0
 50
90.0
100
AcDbRotatedDimension
  0
LINE
  5
211
330
1F
100
AcDbEntity
  8
VERMASSUNG
  6
CENTERX2
 62
     7
370
     0
100
AcDbLine
 10
54.1317674575
 20
112.5212761397
 30
0.0
 11
238.8317674575
 21
112.5212761397
 31
0.0
  0
LINE
  5
212
330
1F
100
AcDbEntity
  8
VERMASSUNG
  6
CENTERX2
370
     0
100
AcDbLine
 10
158.9867658113
 20
127.3519210392
 30
0.0
 11
170.2491375023
 21
124.6547510248
 31
0.0
  0
LINE
  5
213
330
1F
100
AcDbEntity
  8
VERMASSUNG
  6
CENTERX2
370
     0
100
AcDbLine
 10
158.9867658113
 20
97.6906312402
 30
0.0
 11
170.2491375023
 21
100.3878012546
 31
0.0
  0
LINE
  5
214
330
1F
100
AcDbEntity
  8
0
  6
Continuous
 62
     7
370
    15
100
AcDbLine
 10
274.2063218522
 20
37.1714714227
 30
0.0
 11
274.0177294126
 21
37.2803786539
 31
0.0
  0
LINE
  5
215
330
1F
100
AcDbEntity
  8
0
  6
Continuous
 62
     7
370
    15
100
AcDbLine
 10
270.6230656556
 20
37.2803784903
 30
0.0
 11
270.4344735259
 21
37.1714711846
 31
0.0
  0
LINE
  5
216
330
1F
100
AcDbEntity
  8
0
  6
Continuous
 62
     7
370
    15
100
AcDbLine
 10
274.9870647815
 20
35.7564881042
 30
0.0
 11
274.9870647815
 21
36.0831038741
 31
0.0
  0
LINE
  5
217
330
1F
100
AcDbEntity
  8
0
  6
Continuous
 62
     7
370
    15
100
AcDbLine
 10
269.6537310091
 20
36.0831041276
 30
0.0
 11
269.6537310091
 21
35.7564883576
 31
0.0
  0
LINE
  5
218
330
1F
100
AcDbEntity
  8
0
  6
Continuous
 62
     7
370
    15
100
AcDbLine
 10
276.7647647362
 20
14.1397831119
 30
0.0
 11
276.9297287834
 21
14.2350468064
 31
0.0
  0
LINE
  5
219
330
1F
100
AcDbEntity
  8
0
  6
Continuous
 62
     7
370
    15
100
AcDbLine
 10
285.2486666483
 20
28.6454303615
 30
0.0
 11
285.2486666483
 21
28.8359247571
 31
0.0
  0
LINE
  5
21A
330
1F
100
AcDbEntity
  8
0
  6
Continuous
 62
     7
370
    15
100
AcDbLine
 10
257.71775295
 20
21.076254585
 30
0.0
 11
270.763873072
 21
13.5448897482
 31
0.0
  0
LINE
  5
21B
330
1F
100
AcDbEntity
  8
0
  6
Continuous
 62
     7
370
    15
100
AcDbLine
 10
282.7628982067
 20
34.3300628459
 30
0.0
 11
269.7167780847
 21
41.8614276827
 31
0.0
  0
SPLINE
  5
21C
330
1F
100
AcDbEntity
  8
0
  6
Continuous
 62
     7
370
    15
100
AcDbSpline
210
0.0
220
0.0
230
1.0
 70
     8
 71
     3
 72
    12
 73
     8
 74
     0
 42
0.000000001
 43
0.00000001
 40
0.0
 40
0.0
 40
0.0
 40
0.0
 40
0.0683707430871598
 40
0.3059383310151668
 40
0.5435368956365365
 40
0.7811773009636312
 40
1.0
 40
1.0
 40
1.0
 40
1.0
 10
249.8057409169843
 20
36.52411295189074
 30
0.0
 10
249.7522754568186
 20
36.41203963828454
 30
0.0
 10
249.5130337444796
 20
35.91054556395061
 30
0.0
 10
249.1485165154124
 20
35.00443498864318
 30
0.0
 10
248.719489550884
 20
33.81533362570737
 30
0.0
 10
248.3662273936691
 20
32.65688016547493
 30
0.0
 10
248.1881509584121
 20
31.90382221723812
 30
0.0
 10
248.1027833441948
 20
31.54281566229703
 30
0.0
  0
SPLINE
  5
21D
330
1F
100
AcDbEntity
  8
0
  6
Continuous
 62
     7
370
    15
100
AcDbSpline
210
0.0
220
0.0
230
1.0
 70
     8
 71
     3
 72
    19
 73
    15
 74
     0
 42
0.000000001
 43
0.00000001
 40
0.0
 40
0.0
 40
0.0
 40
0.0
 40
0.02995242280917
 40
0.1237519395994877
 40
0.2176390268743573
 40
0.3115705624416367
 40
0.4055149501095269
 40
0.4994502539140036
 40
0.5933681367585224
 40
0.6872653560138531
 40
0.7811418805492235
 40
0.8749996236302255
 40
0.9688416278868224
 40
1.0
 40
1.0
 40
1.0
 40
1.0
 10
262.1005612504991
 20
48.62851035667385
 30
0.0
 10
262.0056060837824
 20
48.60620225924144
 30
0.0
 10
261.6132877016915
 20
48.5140337444063
 30
0.0
 10
260.9061284532964
 20
48.25651335128007
 30
0.0
 10
259.9857528037985
 20
47.85708852843193
 30
0.0
 10
259.0591270591299
 20
47.36205528106557
 30
0.0
 10
258.1339394983268
 20
46.78329769659047
 30
0.0
 10
257.2157431548491
 20
46.12238638433705
 30
0.0
 10
256.3104512809357
 20
45.38439126836994
 30
0.0
 10
255.4240405043508
 20
44.57368149800929
 30
0.0
 10
254.5611300545302
 20
43.69666412603586
 30
0.0
 10
253.7309063576959
 20
42.75488136324068
 30
0.0
 10
253.1041798531435
 20
41.98903651711296
 30
0.0
 10
252.7701698025649
 20
41.52370692581657
 30
0.0
 10
252.6869123776857
 20
41.40771597457339
 30
0.0
  0
LINE
  5
21E
330
1F
100
AcDbEntity
  8
0
  6
Continuous
 62
     7
370
    15
100
AcDbLine
 10
258.2713259024
 20
46.854863414
 30
0.0
 11
237.7650349089
 21
54.2445174038
 31
0.0
  0
LINE
  5
21F
330
1F
100
AcDbEntity
  8
0
  6
Continuous
 62
     7
370
    15
100
AcDbLine
 10
231.0157953219
 20
42.5532251369
 30
0.0
 11
250.6608027343
 21
25.9651435114
 31
0.0
  0
SPLINE
  5
220
330
1F
100
AcDbEntity
  8
0
  6
Continuous
 62
     7
370
    15
100
AcDbSpline
210
0.0
220
0.0
230
1.0
 70
     8
 71
     3
 72
    11
 73
     7
 74
     0
 42
0.000000001
 43
0.00000001
 40
0.0
 40
0.0
 40
0.0
 40
0.0
 40
0.150126292354772
 40
0.5259335034288708
 40
0.9020732196394513
 40
1.0
 40
1.0
 40
1.0
 40
1.0
 10
259.724499189685
 20
17.5585762223556
 30
0.0
 10
259.8434941511468
 20
17.58734665919462
 30
0.0
 10
260.260366079377
 20
17.68813737616088
 30
0.0
 10
260.9926517330058
 20
17.96438212417183
 30
0.0
 10
261.6862094521246
 20
18.25623556496956
 30
0.0
 10
262.0750552261774
 20
18.47025859903406
 30
0.0
 10
262.1553781660714
 20
18.51446882439384
 30
0.0
  0
LINE
  5
221
330
1F
100
AcDbEntity
  8
0
  6
Continuous
 62
     7
370
    15
100
AcDbLine
 10
253.5425133783
 20
18.5888473789
 30
0.0
 11
254.5128613691
 21
18.0286774073
 31
0.0
  0
LINE
  5
222
330
1F
100
AcDbEntity
  8
0
  6
Continuous
 62
     7
370
    15
100
AcDbLine
 10
251.0598234128
 20
20.0220737889
 30
0.0
 11
252.0183865301
 21
19.46870708
 31
0.0
  0
LINE
  5
223
330
1F
100
AcDbEntity
  8
0
  6
Continuous
 62
     7
370
    15
100
AcDbLine
 10
248.105219904
 20
24.0657744272
 30
0.0
 11
248.145824551
 21
23.9322101805
 31
0.0
  0
LINE
  5
224
330
1F
100
AcDbEntity
  8
0
  6
Continuous
 62
     7
370
    15
100
AcDbLine
 10
273.717854805
 20
42.0867346372
 30
0.0
 11
273.6671776099
 21
42.24970681
 31
0.0
  0
SPLINE
  5
225
330
1F
100
AcDbEntity
  8
0
  6
Continuous
 62
     7
370
    15
100
AcDbSpline
210
0.0
220
0.0
230
1.0
 70
     8
 71
     3
 72
    26
 73
    22
 74
     0
 42
0.000000001
 43
0.00000001
 40
0.0
 40
0.0
 40
0.0
 40
0.0
 40
0.0170660870953465
 40
0.0688883783585355
 40
0.1212819441606049
 40
0.1748061370279395
 40
0.2295988673892279
 40
0.2854064779574215
 40
0.3417971368448844
 40
0.3983836790978005
 40
0.4549087397379342
 40
0.5113125746846924
 40
0.567599352208161
 40
0.6238032550364042
 40
0.6799712874882304
 40
0.7361557405374543
 40
0.7923949987668263
 40
0.8487433011688196
 40
0.905255601218731
 40
0.9619792839188597
 40
1.0
 40
1.0
 40
1.0
 40
1.0
 10
237.8368887001496
 20
54.20520630565296
 30
0.0
 10
237.7838260948839
 20
54.22954356464887
 30
0.0
 10
237.569635413223
 20
54.32778250463276
 30
0.0
 10
237.151428245481
 20
54.40342852564995
 30
0.0
 10
236.5944939888008
 20
54.43028663501514
 30
0.0
 10
236.009084935512
 20
54.35515865418313
 30
0.0
 10
235.4046125103751
 20
54.18612183851847
 30
0.0
 10
234.7882319564572
 20
53.92155023698231
 30
0.0
 10
234.1707385461874
 20
53.56574360687315
 30
0.0
 10
233.5631548333709
 20
53.12512045770336
 30
0.0
 10
232.9756956179909
 20
52.60812285219315
 30
0.0
 10
232.4172542432003
 20
52.02393145281968
 30
0.0
 10
231.8956651441677
 20
51.381987495236
 30
0.0
 10
231.4181584369905
 20
50.69215215243506
 30
0.0
 10
230.9914443381878
 20
49.96468629617124
 30
0.0
 10
230.6216843796532
 20
49.21022480762376
 30
0.0
 10
230.3145734093198
 20
48.43968096351109
 30
0.0
 10
230.0746076195046
 20
47.66376673509904
 30
0.0
 10
229.9076403638614
 20
46.89395568828161
 30
0.0
 10
229.8221853848217
 20
46.2221175902649
 30
0.0
 10
229.8133338087855
 20
45.81870082447189
 30
0.0
 10
229.809781691049
 20
45.65681057542405
 30
0.0
  0
SPLINE
  5
226
330
1F
100
AcDbEntity
  8
0
  6
Continuous
 62
     7
370
    15
100
AcDbSpline
210
0.0
220
0.0
230
1.0
 70
     8
 71
     3
 72
    13
 73
     9
 74
     0
 42
0.000000001
 43
0.00000001
 40
0.0
 40
0.0
 40
0.0
 40
0.0
 40
0.1025228209652328
 40
0.2958634722394881
 40
0.4891945857157094
 40
0.6806737938534416
 40
0.868402970526384
 40
1.0
 40
1.0
 40
1.0
 40
1.0
 10
229.809781691049
 20
45.65681057542405
 30
0.0
 10
229.8120656884227
 20
45.53017670350584
 30
0.0
 10
229.8186569174509
 20
45.16473282773151
 30
0.0
 10
229.892589885584
 20
44.59115290949089
 30
0.0
 10
230.0588072312909
 20
43.96078011629223
 30
0.0
 10
230.3114487365549
 20
43.39899355252962
 30
0.0
 10
230.602734333449
 20
42.9488888271538
 30
0.0
 10
230.8403200069024
 20
42.72746021543102
 30
0.0
 10
230.9382310717324
 20
42.63620761234898
 30
0.0
  0
LWPOLYLINE
  5
227
330
1F
100
AcDbEntity
  8
0
  6
Continuous
 62
     7
370
    15
100
AcDbPolyline
 90
       29
 70
   128
 43
0.0
 10
270.0668829552
 20
36.7774755379
 10
270.3071034457
 20
37.0550090943
 10
270.6482797543
 20
37.2947254398
 10
271.0733020629
 20
37.4846051575
 10
271.5608599345
 20
37.6151257946
 10
272.086504179
 20
37.679743072
 10
272.6238759488
 20
37.6752172156
 10
273.1460310598
 20
37.601774268
 10
273.6267847947
 20
37.4630977564
 10
274.0420309123
 20
37.266141237
 10
274.3709468937
 20
37.020780884
 10
274.5970405893
 20
36.7393197474
 10
274.7089732896
 20
36.4358720692
 10
274.7011335368
 20
36.1256533795
 10
274.5739128355
 20
35.824220157
 10
274.3336914669
 20
35.5466871075
 10
273.9925169144
 20
35.3069697482
 10
273.5674928497
 20
35.1170910443
 10
273.0799349781
 20
34.9865704072
 10
272.5542916116
 20
34.9219526229
 10
272.0169198419
 20
34.9264784793
 10
271.4947656089
 20
34.99992092
 10
271.0140109959
 20
35.1385979385
 10
270.5987648783
 20
35.3355544578
 10
270.2698480189
 20
35.5809153178
 10
270.0437552013
 20
35.8623759475
 10
269.931822501
 20
36.1658236256
 10
269.9396622539
 20
36.4760423154
 10
270.0668829552
 20
36.7774755379
  0
ARC
  5
228
330
1F
100
AcDbEntity
  8
0
  6
Continuous
 62
     7
370
    15
100
AcDbCircle
 10
271.3420844956
 20
35.546583456
 30
0.0
 40
1.861187202535999
100
AcDbArc
 50
119.1863464323
 51
145.0535689198
  0
LWPOLYLINE
  5
229
330
1F
100
AcDbEntity
  8
0
  6
Continuous
 62
     7
370
    15
100
AcDbPolyline
 90
       23
 70
   128
 43
0.0
 10
274.2063218522
 20
37.1714714227
 10
274.3668163928
 20
37.0701279511
 10
274.6775764119
 20
36.8029380665
 10
274.8853164721
 20
36.5042879393
 10
274.9809574398
 20
36.1872300609
 10
274.9603198622
 20
35.8656209181
 10
274.8243031466
 20
35.5535178224
 10
274.5788554315
 20
35.2645593285
 10
274.2347008811
 20
35.0113759314
 10
273.806884123
 20
34.8050310512
 10
273.3140996854
 20
34.6545447119
 10
272.7778841552
 20
34.5664940939
 10
272.221677354
 20
34.5447250093
 10
271.6697827022
 20
34.5901917157
 10
271.1463241121
 20
34.7009052288
 10
270.6741782124
 20
34.8720275728
 10
270.2739793978
 20
35.0960800505
 10
269.9632193788
 20
35.3632699352
 10
269.7554793186
 20
35.6619200624
 10
269.6598383509
 20
35.9789779408
 10
269.6804768065
 20
36.3005865767
 10
269.816491766
 20
36.6126906861
 10
269.816491766
 20
36.6126906861
  0
LWPOLYLINE
  5
22A
330
1F
100
AcDbEntity
  8
0
  6
Continuous
 62
     7
370
    15
100
AcDbPolyline
 90
       24
 70
   128
 43
0.0
 10
270.8337039243
 20
36.6152897785
 10
271.0357900232
 20
36.8351823607
 10
271.333149128
 20
37.0154460899
 10
271.7037280923
 20
37.1427112709
 10
272.1200429179
 20
37.2075391306
 10
272.5512169222
 20
37.2051219486
 10
272.9652723364
 20
37.1356388165
 10
273.3315003521
 20
37.0042430605
 10
273.622738807
 20
36.8206800448
 10
273.8173895268
 20
36.5985630741
 10
273.9010150207
 20
36.3543659134
 10
273.8674136652
 20
36.1061994014
 10
273.7190758014
 20
35.872469927
 10
273.4670066528
 20
35.6705099701
 10
273.1298968566
 20
35.5153003961
 10
272.7327515208
 20
35.418350561
 10
272.3050233506
 20
35.3868517311
 10
271.8784344076
 20
35.4231404134
 10
271.4846249015
 20
35.5245241197
 10
271.1528013364
 20
35.6834838862
 10
270.9075719837
 20
35.8882312856
 10
270.7671259526
 20
36.1235803778
 10
270.7418794964
 20
36.3720762117
 10
270.8337039243
 20
36.6152897785
  0
SPLINE
  5
22B
330
1F
100
AcDbEntity
  8
0
  6
Continuous
 62
     7
370
    15
100
AcDbSpline
210
0.0
220
0.0
230
1.0
 70
     8
 71
     3
 72
    11
 73
     7
 74
     0
 42
0.000000001
 43
0.00000001
 40
0.0
 40
0.0
 40
0.0
 40
0.0
 40
0.1304720456394447
 40
0.4810446126498819
 40
0.815272440757657
 40
1.0
 40
1.0
 40
1.0
 40
1.0
 10
270.8036234221632
 20
36.1126591750799
 30
0.0
 10
270.8252753850902
 20
36.12243599081831
 30
0.0
 10
270.9051052066299
 20
36.15848267435717
 30
0.0
 10
271.0545906848241
 20
36.30821566162157
 30
0.0
 10
271.2159621777607
 20
36.6331021317942
 30
0.0
 10
271.3024724184712
 20
36.86474767303203
 30
0.0
 10
271.3332666370214
 20
36.94720430896896
 30
0.0
  0
SPLINE
  5
22C
330
1F
100
AcDbEntity
  8
0
  6
Continuous
 62
     7
370
    15
100
AcDbSpline
210
0.0
220
0.0
230
1.0
 70
     8
 71
     3
 72
     9
 73
     5
 74
     0
 42
0.000000001
 43
0.00000001
 40
0.0
 40
0.0
 40
0.0
 40
0.0
 40
0.4780104630869531
 40
1.0
 40
1.0
 40
1.0
 40
1.0
 10
271.2728977933763
 20
35.63506155642694
 30
0.0
 10
271.1942660962117
 20
35.69418889264383
 30
0.0
 10
271.0297682384517
 20
35.81788354115643
 30
0.0
 10
270.88118323783
 20
36.01156137321389
 30
0.0
 10
270.8036234221632
 20
36.11265917507989
 30
0.0
  0
SPLINE
  5
22D
330
1F
100
AcDbEntity
  8
0
  6
Continuous
 62
     7
370
    15
100
AcDbSpline
210
0.0
220
0.0
230
1.0
 70
     8
 71
     3
 72
    11
 73
     7
 74
     0
 42
0.000000001
 43
0.00000001
 40
0.0
 40
0.0
 40
0.0
 40
0.0
 40
0.2061461878737719
 40
0.5791280238192383
 40
0.9703487084948204
 40
1.0
 40
1.0
 40
1.0
 40
1.0
 10
273.8371723684803
 20
36.41761790087143
 30
0.0
 10
273.8063660741406
 20
36.33508868192825
 30
0.0
 10
273.719821721581
 20
36.10323873133309
 30
0.0
 10
273.5588600970716
 20
35.7808961249079
 30
0.0
 10
273.4272130608772
 20
35.6426486334991
 30
0.0
 10
273.3641866843634
 20
35.61167658082603
 30
0.0
 10
273.3597463472341
 20
35.60949453636999
 30
0.0
  0
SPLINE
  5
22E
330
1F
100
AcDbEntity
  8
0
  6
Continuous
 62
     7
370
    15
100
AcDbSpline
210
0.0
220
0.0
230
1.0
 70
     8
 71
     3
 72
    10
 73
     6
 74
     0
 42
0.000000001
 43
0.00000001
 40
0.0
 40
0.0
 40
0.0
 40
0.0
 40
0.4391311837579124
 40
0.7513780670395416
 40
1.0
 40
1.0
 40
1.0
 40
1.0
 10
272.85004153549
 20
37.09968341049809
 30
0.0
 10
272.9913620810595
 20
36.92746907576403
 30
0.0
 10
273.2331694550073
 20
36.63280069707673
 30
0.0
 10
273.5846717329457
 20
36.44664648487344
 30
0.0
 10
273.7596209002983
 20
36.4265335588611
 30
0.0
 10
273.8371723684803
 20
36.41761790087143
 30
0.0
  0
SPLINE
  5
22F
330
1F
100
AcDbEntity
  8
0
  6
Continuous
 62
     7
370
    15
100
AcDbSpline
210
0.0
220
0.0
230
1.0
 70
     8
 71
     3
 72
    10
 73
     6
 74
     0
 42
0.000000001
 43
0.00000001
 40
0.0
 40
0.0
 40
0.0
 40
0.0
 40
0.4391306349725278
 40
0.7513783548871352
 40
1.0
 40
1.0
 40
1.0
 40
1.0
 10
271.3332666370214
 20
36.94720430896896
 30
0.0
 10
271.5504122354245
 20
36.89446594670611
 30
0.0
 10
271.9219611311403
 20
36.8042275057488
 30
0.0
 10
272.4620620370586
 20
36.91524136822966
 30
0.0
 10
272.7308801118772
 20
37.04303511743205
 30
0.0
 10
272.85004153549
 20
37.09968341049809
 30
0.0
  0
LINE
  5
230
330
1F
100
AcDbEntity
  8
0
  6
Continuous
 62
     7
370
    15
100
AcDbLine
 10
271.333266637
 20
35.586195761
 30
0.0
 11
271.333266637
 21
36.947204309
 31
0.0
  0
LINE
  5
231
330
1F
100
AcDbEntity
  8
0
  6
Continuous
 62
     7
370
    15
100
AcDbLine
 10
272.8500415355
 20
35.4394656682
 30
0.0
 11
272.8500415355
 21
37.0996834105
 31
0.0
  0
LWPOLYLINE
  5
232
330
1F
100
AcDbEntity
  8
0
  6
Continuous
 62
     7
370
    15
100
AcDbPolyline
 90
       64
 70
   128
 43
0.0
 10
268.6080863563
 20
19.039027837
 10
268.6494324147
 20
20.0195406646
 10
268.7730570239
 20
21.038044328
 10
268.9777335351
 20
22.0844176248
 10
269.2614274846
 20
23.1482610991
 10
269.621318546
 20
24.2190011591
 10
270.0538303835
 20
25.2859964764
 10
270.5546648966
 20
26.3386435595
 10
271.1188439278
 20
27.3664801737
 10
271.7407606293
 20
28.3592905332
 10
272.4142343413
 20
29.3072089723
 10
273.1325716174
 20
30.2008134769
 10
273.8886333961
 20
31.0312237777
 10
274.6749052456
 20
31.7901860087
 10
275.4835733157
 20
32.4701586321
 10
276.306600455
 20
33.0643827425
 10
277.1358070878
 20
33.5669530911
 10
277.9629521195
 20
33.9728749309
 10
278.7798151175
 20
34.2781134865
 10
279.5782777234
 20
34.4796358825
 10
280.3504044759
 20
34.575438537
 10
281.0885215753
 20
34.5645703239
 10
281.7852928359
 20
34.4471378894
 10
282.4337945401
 20
34.2243098275
 10
283.0275804154
 20
33.8982994365
 10
283.5607499028
 20
33.4723473491
 10
284.0280039144
 20
32.9506873058
 10
284.4246983941
 20
32.3385028041
 10
284.7468917337
 20
31.6418789308
 10
284.9913803335
 20
30.8677382268
 10
285.1557354815
 20
30.02377503
 10
285.2383231092
 20
29.1183766073
 10
285.2383231092
 20
28.1605417197
 10
285.1557354815
 20
27.1597896517
 10
284.9913803335
 20
26.1260660402
 10
284.7468917337
 20
25.0696448073
 10
284.4246983941
 20
24.0010244224
 10
284.0280039144
 20
22.9308262234
 10
283.5607499028
 20
21.8696861816
 10
283.0275804154
 20
20.828149707
 10
282.4337945401
 20
19.8165687373
 10
281.7852928359
 20
18.8449965451
 10
281.0885215753
 20
17.9230891369
 10
280.3504044759
 20
17.0600090606
 10
279.5782777234
 20
16.2643331423
 10
278.7798151175
 20
15.5439702365
 10
277.9629521195
 20
14.9060788496
 10
277.1358070878
 20
14.3569993635
 10
276.306600455
 20
13.9021881124
 10
275.4835733157
 20
13.5461653144
 10
274.6749052456
 20
13.2924696577
 10
273.8886333961
 20
13.1436217345
 10
273.1325716174
 20
13.1011016865
 10
272.4142343413
 20
13.1653316259
 10
271.7407606293
 20
13.3356738683
 10
271.1188439278
 20
13.6104344883
 10
270.5546648966
 20
13.9868838583
 10
270.0538303835
 20
14.461279721
 10
269.621318546
 20
15.0289075
 10
269.2614274846
 20
15.6841261852
 10
268.9777335351
 20
16.4204235974
 10
268.7730570239
 20
17.2304824245
 10
268.6494324147
 20
18.1062521523
 10
268.6080863563
 20
19.039027837
  0
LWPOLYLINE
  5
233
330
1F
100
AcDbEntity
  8
0
  6
Continuous
 62
     7
370
    15
100
AcDbPolyline
 90
       33
 70
   128
 43
0.0
 10
268.2781046304
 20
19.039027837
 10
268.3202699181
 20
20.0389838494
 10
268.446346069
 20
21.0776845434
 10
268.6550818485
 20
22.1448078301
 10
268.9444006463
 20
23.2297467776
 10
269.311428574
 20
24.3217195593
 10
269.7525172951
 20
25.4098742052
 10
270.2632830984
 20
26.4833948094
 10
270.8386499228
 20
27.5316130607
 10
271.4728994068
 20
28.5441114076
 10
272.1597279624
 20
29.5108264758
 10
272.8923099952
 20
30.422151471
 10
273.6633641982
 20
31.2690292029
 10
274.465227967
 20
32.0430416861
 10
275.2899320349
 20
32.7364978398
 10
276.1292797729
 20
33.342506136
 10
276.9749295761
 20
33.8550424397
 10
277.8184770034
 20
34.2690136502
 10
278.6515383304
 20
34.580304921
 10
279.4658345414
 20
34.7858230777
 10
280.2532724537
 20
34.8835262132
 10
281.0060261438
 20
34.8724417959
 10
281.7166149853
 20
34.752680795
 10
282.3779763076
 20
34.5254339974
 10
282.9835369587
 20
34.192958567
 10
283.5272791587
 20
33.7585602936
 10
284.0037988915
 20
33.2265553112
 10
284.4083603439
 20
32.6022315626
 10
284.7369415652
 20
31.8917930281
 10
284.9862788087
 20
31.1023014186
 10
285.153893313
 20
30.2416024092
 10
285.2381193995
 20
29.3182503495
 10
285.2486666483
 20
28.8359247571
  0
LWPOLYLINE
  5
234
330
1F
100
AcDbEntity
  8
0
  6
Continuous
 62
     7
370
    15
100
AcDbPolyline
 90
       17
 70
   128
 43
0.0
 10
276.7647647362
 20
14.1397831119
 10
276.1292797729
 20
13.8003234084
 10
275.2899320349
 20
13.437241434
 10
274.465227967
 20
13.1785145386
 10
273.6633641982
 20
13.0267148208
 10
272.8923099952
 20
12.9833523193
 10
272.1597279624
 20
13.0488561032
 10
271.4728994068
 20
13.2225758004
 10
270.8386499228
 20
13.5027852804
 10
270.2632830984
 20
13.8866991364
 10
269.7525172951
 20
14.3705020965
 10
269.311428574
 20
14.9493865451
 10
268.9444006463
 20
15.6175979015
 10
268.6550818485
 20
16.3684964754
 10
268.446346069
 20
17.1946185609
 10
268.3202699181
 20
18.0877548295
 10
268.2781046304
 20
19.039027837
  0
SPLINE
  5
235
330
1F
100
AcDbEntity
  8
0
  6
Continuous
 62
     7
370
    15
100
AcDbSpline
210
0.0
220
0.0
230
1.0
 70
     8
 71
     3
 72
    24
 73
    20
 74
     0
 42
0.000000001
 43
0.00000001
 40
0.0
 40
0.0
 40
0.0
 40
0.0
 40
0.25
 40
0.25
 40
0.3125000000000001
 40
0.3125000000000001
 40
0.3750000000000001
 40
0.3750000000000001
 40
0.5000000000000001
 40
0.5000000000000001
 40
0.6250000000000001
 40
0.6250000000000001
 40
0.7500000000000001
 40
0.7500000000000001
 40
0.8124999999999999
 40
0.8124999999999999
 40
0.8749999999999997
 40
0.8749999999999997
 40
1.0
 40
1.0
 40
1.0
 40
1.0
 10
256.9841258497967
 20
23.82652558605848
 30
0.0
 10
257.0965357867545
 20
23.98831837965376
 30
0.0
 10
257.1784060659811
 20
24.19740231313538
 30
0.0
 10
257.2482204294382
 20
24.52247034449238
 30
0.0
 10
257.2605315282331
 20
24.59098111562226
 30
0.0
 10
257.2814445919655
 20
24.73241080040997
 30
0.0
 10
257.2901045039152
 20
24.8055282664937
 30
0.0
 10
257.3108872248655
 20
25.03202245665737
 30
0.0
 10
257.3178527338347
 20
25.19251093476914
 30
0.0
 10
257.3180431773547
 20
25.53284853986109
 30
0.0
 10
257.3110842856776
 20
25.7140824523301
 30
0.0
 10
257.283420896244
 20
26.08427164891162
 30
0.0
 10
257.2628078300411
 20
26.27428618971377
 30
0.0
 10
257.2214217758788
 20
26.56634264648235
 30
0.0
 10
257.2058722563636
 20
26.66487072390991
 30
0.0
 10
257.1710922997616
 20
26.86426167825556
 30
0.0
 10
257.151831280184
 20
26.96521073325947
 30
0.0
 10
257.0890431023963
 20
27.26754996778401
 30
0.0
 10
257.0403437174357
 20
27.4697272215464
 30
0.0
 10
256.9841258497967
 20
27.67227003778571
 30
0.0
  0
LINE
  5
236
330
1F
100
AcDbEntity
  8
0
  6
Continuous
 62
     7
370
    15
100
AcDbLine
 10
255.3969753713
 20
28.5885121175
 30
0.0
 11
256.9841255875
 21
27.6722698005
 31
0.0
  0
LINE
  5
237
330
1F
100
AcDbEntity
  8
0
  6
Continuous
 62
     7
370
    15
100
AcDbLine
 10
256.9841255875
 20
23.8265253087
 30
0.0
 11
255.3969753713
 21
24.7427676257
 31
0.0
  0
SPLINE
  5
238
330
1F
100
AcDbEntity
  8
0
  6
Continuous
 62
     7
370
    15
100
AcDbSpline
210
0.0
220
0.0
230
1.0
 70
     8
 71
     3
 72
    52
 73
    48
 74
     0
 42
0.000000001
 43
0.00000001
 40
0.0
 40
0.0
 40
0.0
 40
0.0
 40
0.0312499999999997
 40
0.0312499999999997
 40
0.0624999999999993
 40
0.0624999999999993
 40
0.1249999999999989
 40
0.1249999999999989
 40
0.1562499999999988
 40
0.1562499999999988
 40
0.1874999999999986
 40
0.1874999999999986
 40
0.2187499999999985
 40
0.2187499999999985
 40
0.2499999999999984
 40
0.2499999999999984
 40
0.3124999999999981
 40
0.3124999999999981
 40
0.3437499999999986
 40
0.3437499999999986
 40
0.3749999999999991
 40
0.3749999999999991
 40
0.4375
 40
0.4375
 40
0.4687500000000001
 40
0.4687500000000001
 40
0.5000000000000002
 40
0.5000000000000002
 40
0.5625000000000004
 40
0.5625000000000004
 40
0.5937500000000002
 40
0.5937500000000002
 40
0.625
 40
0.625
 40
0.6875000000000001
 40
0.6875000000000001
 40
0.7500000000000001
 40
0.7500000000000001
 40
0.8125000000000001
 40
0.8125000000000001
 40
0.8750000000000001
 40
0.8750000000000001
 40
0.9062500000000001
 40
0.9062500000000001
 40
0.9375000000000001
 40
0.9375000000000001
 40
1.0
 40
1.0
 40
1.0
 40
1.0
 10
274.6774204156857
 20
34.940168131134
 30
0.0
 10
274.6046382073393
 20
34.89815185659715
 30
0.0
 10
274.5276559392138
 20
34.85758995937716
 30
0.0
 10
274.3652238862207
 20
34.77943051130772
 30
0.0
 10
274.2791436410561
 20
34.74159535574334
 30
0.0
 10
274.0134353751525
 20
34.63507830093001
 30
0.0
 10
273.8264947492007
 20
34.57307114333545
 30
0.0
 10
273.5322328126887
 20
34.4937176737281
 30
0.0
 10
273.4315146624151
 20
34.4695347578806
 30
0.0
 10
273.2298974764666
 20
34.42692410506601
 30
0.0
 10
273.1284825570111
 20
34.40833981959172
 30
0.0
 10
272.9244670679469
 20
34.37659033958904
 30
0.0
 10
272.8218663504572
 20
34.36342563606205
 30
0.0
 10
272.6154645697148
 20
34.34268452132163
 30
0.0
 10
272.5115996078647
 20
34.33514058639839
 30
0.0
 10
272.2041457891401
 20
34.32148060408629
 30
0.0
 10
272.0026166319723
 20
34.3240096791143
 30
0.0
 10
271.7049968051993
 20
34.34586573822357
 30
0.0
 10
271.6061357943195
 20
34.35625454222131
 30
0.0
 10
271.4128368979975
 20
34.38299110965833
 30
0.0
 10
271.3182873071768
 20
34.39931289409453
 30
0.0
 10
271.0406803224807
 20
34.45710873236015
 30
0.0
 10
270.8636124585773
 20
34.50735621032241
 30
0.0
 10
270.6100155560133
 20
34.60126361049776
 30
0.0
 10
270.5276583821238
 20
34.63565543195102
 30
0.0
 10
270.3700046857618
 20
34.70940863214816
 30
0.0
 10
270.294308040974
 20
34.74891008067405
 30
0.0
 10
270.0764476864993
 20
34.87518905835682
 30
0.0
 10
269.9434336301257
 20
34.96969935059603
 30
0.0
 10
269.7630198235382
 20
35.12729262050989
 30
0.0
 10
269.7065255094523
 20
35.18213024357832
 30
0.0
 10
269.6019805350124
 20
35.29499761019369
 30
0.0
 10
269.5537180212095
 20
35.35320930883544
 30
0.0
 10
269.4209233219191
 20
35.53293620522436
 30
0.0
 10
269.3482581763684
 20
35.65951391538464
 30
0.0
 10
269.2371861927696
 20
35.92558340458424
 30
0.0
 10
269.2003897143322
 20
36.06142156044953
 30
0.0
 10
269.1651290186115
 20
36.33500201884456
 30
0.0
 10
269.1665442639566
 20
36.47338192001721
 30
0.0
 10
269.2123652534825
 20
36.74946300802802
 30
0.0
 10
269.2559289318928
 20
36.8824533544539
 30
0.0
 10
269.3531395546655
 20
37.07274706582617
 30
0.0
 10
269.3908936148123
 20
37.13463922754403
 30
0.0
 10
269.477801881827
 20
37.25495565842782
 30
0.0
 10
269.527349425847
 20
37.3136971057537
 30
0.0
 10
269.6897612822111
 20
37.47928242083923
 30
0.0
 10
269.8169378990692
 20
37.57699204496943
 30
0.0
 10
269.9633752077754
 20
37.66152850387636
 30
0.0
  0
SPLINE
  5
239
330
1F
100
AcDbEntity
  8
0
  6
Continuous
 62
     7
370
    15
100
AcDbSpline
210
0.0
220
0.0
230
1.0
 70
     8
 71
     3
 72
    54
 73
    50
 74
     0
 42
0.000000001
 43
0.00000001
 40
0.0
 40
0.0
 40
0.0
 40
0.0
 40
0.0312499999999999
 40
0.0312499999999999
 40
0.0624999999999997
 40
0.0624999999999997
 40
0.0937499999999996
 40
0.0937499999999996
 40
0.1249999999999995
 40
0.1249999999999995
 40
0.1874999999999994
 40
0.1874999999999994
 40
0.2187499999999992
 40
0.2187499999999992
 40
0.2499999999999989
 40
0.2499999999999989
 40
0.3124999999999985
 40
0.3124999999999985
 40
0.3749999999999981
 40
0.3749999999999981
 40
0.4374999999999976
 40
0.4374999999999976
 40
0.4687499999999973
 40
0.4687499999999973
 40
0.4999999999999971
 40
0.4999999999999971
 40
0.5624999999999972
 40
0.5624999999999972
 40
0.5937499999999973
 40
0.5937499999999973
 40
0.6249999999999974
 40
0.6249999999999974
 40
0.687499999999999
 40
0.687499999999999
 40
0.7187499999999992
 40
0.7187499999999992
 40
0.7499999999999993
 40
0.7499999999999993
 40
0.8124999999999996
 40
0.8124999999999996
 40
0.8437499999999997
 40
0.8437499999999997
 40
0.8749999999999997
 40
0.8749999999999997
 40
0.9374999999999999
 40
0.9374999999999999
 40
0.9687499999999999
 40
0.9687499999999999
 40
1.0
 40
1.0
 40
1.0
 40
1.0
 10
269.9633752077754
 20
37.66152850387636
 30
0.0
 10
270.036610922018
 20
37.70380658179442
 30
0.0
 10
270.1153158404386
 20
37.7429971382744
 30
0.0
 10
270.2788725526209
 20
37.81277223949077
 30
0.0
 10
270.363838935835
 20
37.84352210214705
 30
0.0
 10
270.5399072469453
 20
37.89716133273549
 30
0.0
 10
270.6310098401588
 20
37.92004969344844
 30
0.0
 10
270.8193193447169
 20
37.95817164653517
 30
0.0
 10
270.9167683282149
 20
37.97337895335976
 30
0.0
 10
271.2111870963074
 20
38.00702756652087
 30
0.0
 10
271.4124035468929
 20
38.01415277560882
 30
0.0
 10
271.7213401802572
 20
38.00481907488072
 30
0.0
 10
271.825225001596
 20
37.99832381451341
 30
0.0
 10
272.0320227544302
 20
37.97928731131928
 30
0.0
 10
272.1353352835292
 20
37.96673675636568
 30
0.0
 10
272.4450806668432
 20
37.92064636805031
 30
0.0
 10
272.6470467634357
 20
37.87937150614643
 30
0.0
 10
273.0404449375245
 20
37.78028619020743
 30
0.0
 10
273.2327088888665
 20
37.72224288445677
 30
0.0
 10
273.6062775951245
 20
37.59147958729945
 30
0.0
 10
273.7829627187178
 20
37.52042262367918
 30
0.0
 10
274.0336996766172
 20
37.40659250655169
 30
0.0
 10
274.1148797750631
 20
37.36742660254128
 30
0.0
 10
274.2723918477143
 20
37.28669341996081
 30
0.0
 10
274.3490684578792
 20
37.24491878694142
 30
0.0
 10
274.5684864829715
 20
37.11772166547851
 30
0.0
 10
274.7007832613034
 20
37.03055276561786
 30
0.0
 10
274.8787159100857
 20
36.89601354756839
 30
0.0
 10
274.934586780591
 20
36.85052657188149
 30
0.0
 10
275.0392600568788
 20
36.75811098217336
 30
0.0
 10
275.0882545638481
 20
36.71095580301102
 30
0.0
 10
275.2218332602944
 20
36.56944007358489
 30
0.0
 10
275.2937678479107
 20
36.47464842666228
 30
0.0
 10
275.3757563287705
 20
36.33040390965444
 30
0.0
 10
275.3987383696223
 20
36.2819746503266
 30
0.0
 10
275.4355788710105
 20
36.18410900614251
 30
0.0
 10
275.4494367545688
 20
36.13445424734309
 30
0.0
 10
275.4758605205296
 20
35.98663412463913
 30
0.0
 10
275.4739148468729
 20
35.88877976108549
 30
0.0
 10
275.4401826000683
 20
35.74128449000208
 30
0.0
 10
275.423765624351
 20
35.69200113116059
 30
0.0
 10
275.3797919343141
 20
35.59289043283201
 30
0.0
 10
275.3521680648673
 20
35.54313591950029
 30
0.0
 10
275.2542211530111
 20
35.39681697664241
 30
0.0
 10
275.1684640929514
 20
35.30177331936173
 30
0.0
 10
275.0071699903625
 20
35.16207353141392
 30
0.0
 10
274.9474042882502
 20
35.11565045087796
 30
0.0
 10
274.818817093624
 20
35.02567512999011
 30
0.0
 10
274.75021958223
 20
34.98219419543014
 30
0.0
 10
274.6774204156857
 20
34.940168131134
 30
0.0
  0
LWPOLYLINE
  5
23A
330
1F
100
AcDbEntity
  8
0
  6
Continuous
 62
     7
370
    15
100
AcDbPolyline
 90
       59
 70
   128
 43
0.0
 10
269.7394574795
 20
19.6921544842
 10
269.7815994987
 20
20.6140323796
 10
269.9075303307
 20
21.5737576218
 10
270.115774836
 20
22.560078984
 10
270.4038902534
 20
23.5614320192
 10
270.7684995667
 20
24.5660772718
 10
271.2053279439
 20
25.5622360796
 10
271.7092536649
 20
26.5382294807
 10
272.2743691465
 20
27.4826145838
 10
272.8940481137
 20
28.3843194175
 10
273.5610261622
 20
29.2327725816
 10
274.2674832953
 20
30.0180269412
 10
275.0051369989
 20
30.7308752087
 10
275.7653388275
 20
31.3629604548
 10
276.5391762865
 20
31.9068719337
 10
277.3175767181
 20
32.3562329379
 10
278.0914141772
 20
32.7057751716
 10
278.8516160057
 20
32.9514002741
 10
279.5892697093
 20
33.0902288443
 10
280.2957268425
 20
33.1206325289
 10
280.9627048909
 20
33.0422558281
 10
281.5823838582
 20
32.8560171008
 10
282.1474993397
 20
32.5641004445
 10
282.6514250607
 20
32.1699272965
 10
283.088253438
 20
31.6781197976
 10
283.4528627512
 20
31.0944434975
 10
283.7409781686
 20
30.4257414425
 10
283.9492226739
 20
29.6798540684
 10
284.075153506
 20
28.86552547
 10
284.1172955252
 20
27.9923037143
 10
284.075153506
 20
27.0704258189
 10
283.9492226739
 20
26.1107005767
 10
283.7409781686
 20
25.1243792145
 10
283.4528627512
 20
24.1230261793
 10
283.088253438
 20
23.1183809267
 10
282.6514250607
 20
22.1222221189
 10
282.1474993397
 20
21.1462287178
 10
281.5823838582
 20
20.2018436147
 10
280.9627048909
 20
19.300138781
 10
280.2957268425
 20
18.4516856169
 10
279.5892697093
 20
17.6664312573
 10
278.8516160057
 20
16.9535829898
 10
278.0914141772
 20
16.3214977437
 10
277.3175767181
 20
15.7775862648
 10
276.5391762865
 20
15.3282252606
 10
275.7653388275
 20
14.9786830269
 10
275.0051369989
 20
14.7330579244
 10
274.2674832953
 20
14.5942293542
 10
273.5610261622
 20
14.5638256696
 10
272.8940481137
 20
14.6422023704
 10
272.2743691465
 20
14.8284410977
 10
271.7092536649
 20
15.120357754
 10
271.2053279439
 20
15.514530902
 10
270.7684995667
 20
16.0063384009
 10
270.4038902534
 20
16.5900147009
 10
270.115774836
 20
17.258716756
 10
269.9075303307
 20
18.0046041301
 10
269.7815994987
 20
18.8189327285
 10
269.7394574795
 20
19.6921544842
  0
SPLINE
  5
23B
330
1F
100
AcDbEntity
  8
0
  6
Continuous
 62
     7
370
    15
100
AcDbSpline
210
0.0
220
0.0
230
1.0
 70
     8
 71
     3
 72
    16
 73
    12
 74
     0
 42
0.000000001
 43
0.00000001
 40
0.0
 40
0.0
 40
0.0
 40
0.0
 40
0.2500000000000003
 40
0.2500000000000003
 40
0.5000000000000007
 40
0.5000000000000007
 40
0.6250000000000003
 40
0.6250000000000003
 40
0.7500000000000001
 40
0.7500000000000001
 40
1.0
 40
1.0
 40
1.0
 40
1.0
 10
272.056872405192
 20
15.5377780234156
 30
0.0
 10
271.9595620624016
 20
15.47758523006742
 30
0.0
 10
271.8609589211142
 20
15.44847609078583
 30
0.0
 10
271.6633569691591
 20
15.45602352744804
 30
0.0
 10
271.5694846713182
 20
15.49256371704077
 30
0.0
 10
271.4380006131457
 20
15.59685545372588
 30
0.0
 10
271.3969329358063
 20
15.63903571279934
 30
0.0
 10
271.3200579114066
 20
15.73760666483443
 30
0.0
 10
271.2840329195207
 20
15.79443266118866
 30
0.0
 10
271.1855256577041
 20
15.98417385362504
 30
0.0
 10
271.1342217061535
 20
16.1315966755451
 30
0.0
 10
271.0960901059035
 20
16.29910166659631
 30
0.0
  0
LWPOLYLINE
  5
23C
330
1F
100
AcDbEntity
  8
0
  6
Continuous
 62
     7
370
    15
100
AcDbPolyline
 90
       14
 70
   128
 43
0.0
 10
281.4463281238
 20
20.9581955676
 10
280.8382614914
 20
20.0131422455
 10
280.1742912352
 20
19.1218638385
 10
279.4635006597
 20
18.2965541504
 10
278.7156127354
 20
17.5485017206
 10
277.9408582805
 20
16.8879402158
 10
277.1498355263
 20
16.3239050001
 10
276.3533651273
 20
15.8641124257
 10
275.5623423731
 20
15.5148522094
 10
274.7875879183
 20
15.280901261
 10
274.039699994
 20
15.1654606733
 10
273.3289094185
 20
15.1701090312
 10
272.6649391623
 20
15.294783698
 10
272.0568725299
 20
15.53777823
  0
SPLINE
  5
23D
330
1F
100
AcDbEntity
  8
0
  6
Continuous
 62
     7
370
    15
100
AcDbSpline
210
0.0
220
0.0
230
1.0
 70
     8
 71
     3
 72
    16
 73
    12
 74
     0
 42
0.000000001
 43
0.00000001
 40
0.0
 40
0.0
 40
0.0
 40
0.0
 40
0.25
 40
0.25
 40
0.5
 40
0.5
 40
0.625
 40
0.625
 40
0.75
 40
0.75
 40
1.0
 40
1.0
 40
1.0
 40
1.0
 10
282.4071105084289
 20
22.8288147561231
 30
0.0
 10
282.4328530415116
 20
22.65414119534494
 30
0.0
 10
282.4302750759389
 20
22.47485343877453
 30
0.0
 10
282.3660887514516
 20
22.10813288714136
 30
0.0
 10
282.3060759209329
 20
21.930186384108
 30
0.0
 10
282.1744989719086
 20
21.67417719066286
 30
0.0
 10
282.1248066765743
 20
21.59300749998501
 30
0.0
 10
282.0142317894505
 20
21.43866036895391
 30
0.0
 10
281.9528963049916
 20
21.36502675697091
 30
0.0
 10
281.7544078489379
 20
21.15974471503475
 30
0.0
 10
281.6075019640859
 20
21.04722273221339
 30
0.0
 10
281.4463282091405
 20
20.95819548220531
 30
0.0
  0
LWPOLYLINE
  5
23E
330
1F
100
AcDbEntity
  8
0
  6
Continuous
 62
     7
370
    15
100
AcDbPolyline
 90
       11
 70
   128
 43
0.0
 10
282.4071103166
 20
31.5894577495
 10
282.8148481488
 20
31.0244100108
 10
283.1380293051
 20
30.3606243534
 10
283.372147146
 20
29.6073584417
 10
283.5139366079
 20
28.7751166024
 10
283.5614203011
 20
27.8755052058
 10
283.5139366079
 20
26.921070304
 10
283.372147146
 20
25.9251218366
 10
283.1380293051
 20
24.9015492194
 10
282.8148481488
 20
23.8646265413
 10
282.4071103166
 20
22.8288147222
  0
SPLINE
  5
23F
330
1F
100
AcDbEntity
  8
0
  6
Continuous
 62
     7
370
    15
100
AcDbSpline
210
0.0
220
0.0
230
1.0
 70
     8
 71
     3
 72
    16
 73
    12
 74
     0
 42
0.000000001
 43
0.00000001
 40
0.0
 40
0.0
 40
0.0
 40
0.0
 40
0.2499999999999994
 40
0.2499999999999994
 40
0.4999999999999988
 40
0.4999999999999988
 40
0.6249999999999989
 40
0.6249999999999989
 40
0.749999999999999
 40
0.749999999999999
 40
1.0
 40
1.0
 40
1.0
 40
1.0
 10
281.4463282091405
 20
32.35078162558111
 30
0.0
 10
281.6075160078294
 20
32.37409874855979
 30
0.0
 10
281.755054604337
 20
32.37495805085737
 30
0.0
 10
282.0203501556448
 20
32.32833193110204
 30
0.0
 10
282.1312035668117
 20
32.28198875344867
 30
0.0
 10
282.2626408588105
 20
32.177724014301
 30
0.0
 10
282.2993705159213
 20
32.13804804100026
 30
0.0
 10
282.3592458773076
 20
32.04929078553243
 30
0.0
 10
282.3824903982339
 20
31.99984279801789
 30
0.0
 10
282.4302663868427
 20
31.8393881462228
 30
0.0
 10
282.4328507986525
 20
31.72009051593357
 30
0.0
 10
282.4071105084289
 20
31.58945798240039
 30
0.0
  0
LWPOLYLINE
  5
240
330
1F
100
AcDbEntity
  8
0
  6
Continuous
 62
     7
370
    15
100
AcDbPolyline
 90
       14
 70
   128
 43
0.0
 10
272.0568725299
 20
26.9303640587
 10
272.6649391623
 20
27.8754173808
 10
273.3289094185
 20
28.7666957878
 10
274.039699994
 20
29.5920054759
 10
274.7875879183
 20
30.3400579056
 10
275.5623423731
 20
31.0006194105
 10
276.3533651273
 20
31.5646546262
 10
277.1498355263
 20
32.0244472006
 10
277.9408582805
 20
32.3737074169
 10
278.7156127354
 20
32.6076583653
 10
279.4635006597
 20
32.723098953
 10
280.1742912352
 20
32.7184505951
 10
280.8382614914
 20
32.5937759283
 10
281.4463281238
 20
32.3507813963
  0
SPLINE
  5
241
330
1F
100
AcDbEntity
  8
0
  6
Continuous
 62
     7
370
    15
100
AcDbSpline
210
0.0
220
0.0
230
1.0
 70
     8
 71
     3
 72
    16
 73
    12
 74
     0
 42
0.000000001
 43
0.00000001
 40
0.0
 40
0.0
 40
0.0
 40
0.0
 40
0.2499999999999986
 40
0.2499999999999986
 40
0.4999999999999972
 40
0.4999999999999972
 40
0.6249999999999977
 40
0.6249999999999977
 40
0.749999999999998
 40
0.749999999999998
 40
1.0
 40
1.0
 40
1.0
 40
1.0
 10
271.0960901059035
 20
25.05974489287362
 30
0.0
 10
271.1342250287194
 20
25.19754278328226
 30
0.0
 10
271.1857384495124
 20
25.34858070286868
 30
0.0
 10
271.3176183733523
 20
25.67622257140873
 30
0.0
 10
271.394612317197
 20
25.84436608638145
 30
0.0
 10
271.5261425000475
 20
26.10040227736402
 30
0.0
 10
271.5714967751533
 20
26.18407625381459
 30
0.0
 10
271.6650719992637
 20
26.34823708141294
 30
0.0
 10
271.713627012763
 20
26.42924870223564
 30
0.0
 10
271.8613841956089
 20
26.66381728481308
 30
0.0
 10
271.9595705407201
 20
26.80446445926528
 30
0.0
 10
272.056872405192
 20
26.93036416679141
 30
0.0
  0
LWPOLYLINE
  5
242
330
1F
100
AcDbEntity
  8
0
  6
Continuous
 62
     7
370
    15
100
AcDbPolyline
 90
       11
 70
   128
 43
0.0
 10
271.096090337
 20
16.2991018768
 10
270.6883525049
 20
16.8641496155
 10
270.3651713486
 20
17.5279352729
 10
270.1310535076
 20
18.2812011846
 10
269.9892640457
 20
19.1134430239
 10
269.9417803525
 20
20.0130544205
 10
269.9892640457
 20
20.9674893223
 10
270.1310535076
 20
21.9634377897
 10
270.3651713486
 20
22.9870104069
 10
270.6883525049
 20
24.0239330849
 10
271.096090337
 20
25.0597449041
  0
ARC
  5
243
330
1F
100
AcDbEntity
  8
0
  6
Continuous
 62
     7
370
    15
100
AcDbCircle
 10
281.8780067796
 20
31.0438209015
 30
0.0
 40
1.376405534988377
100
AcDbArc
 50
108.2779783612
 51
120.3371026508
  0
LINE
  5
244
330
1F
100
AcDbEntity
  8
0
  6
Continuous
 62
     7
370
    15
100
AcDbLine
 10
279.3438966842
 20
31.1701754964
 30
0.0
 11
281.1828027583
 21
32.2317533767
 31
0.0
  0
LWPOLYLINE
  5
245
330
1F
100
AcDbEntity
  8
0
  6
Continuous
 62
     7
370
    15
100
AcDbPolyline
 90
        9
 70
   128
 43
0.0
 10
274.1593039695
 20
28.17717383
 10
274.7738247771
 20
28.8499227827
 10
275.4169655998
 20
29.4516837047
 10
276.0794194475
 20
29.9737478878
 10
276.7516003268
 20
30.4085611595
 10
277.4237812062
 20
30.7498314117
 10
278.0862350539
 20
30.9926201608
 10
278.7293758766
 20
31.133413827
 10
279.3438966842
 20
31.1701754964
  0
LINE
  5
246
330
1F
100
AcDbEntity
  8
0
  6
Continuous
 62
     7
370
    15
100
AcDbLine
 10
272.3203978953
 20
27.1155959497
 30
0.0
 11
274.1593039695
 21
28.17717383
 31
0.0
  0
ARC
  5
247
330
1F
100
AcDbEntity
  8
0
  6
Continuous
 62
     7
370
    15
100
AcDbCircle
 10
273.2778651041
 20
25.4733564287
 30
0.0
 40
1.900971883051765
100
AcDbArc
 50
120.24326773
 51
129.9634737695
  0
ARC
  5
248
330
1F
100
AcDbEntity
  8
0
  6
Continuous
 62
     7
370
    15
100
AcDbCircle
 10
281.3568423044
 20
21.2214398322
 30
0.0
 40
10.54735121848582
100
AcDbArc
 50
144.1703899245
 51
177.4528865379
  0
LWPOLYLINE
  5
249
330
1F
100
AcDbEntity
  8
0
  6
Continuous
 62
     7
370
    15
100
AcDbPolyline
 90
       35
 70
   128
 43
0.0
 10
277.7236982899
 20
30.8715285124
 10
278.1971656689
 20
30.8674071172
 10
278.7320728358
 20
30.7634743989
 10
279.2157518255
 20
30.5528745834
 10
279.6399269285
 20
30.2392110133
 10
279.9973405454
 20
29.8278504494
 10
280.2818769929
 20
29.3258315495
 10
280.488667871
 20
28.7417438185
 10
280.6141746004
 20
28.0855810216
 10
280.6562503261
 20
27.3685707708
 10
280.6141746004
 20
26.6029809212
 10
280.488667871
 20
25.8019111389
 10
280.2818769929
 20
24.9790677423
 10
279.9973405454
 20
24.1485300528
 10
279.6399269285
 20
23.3245085105
 10
279.2157518255
 20
22.5211027909
 10
278.7320728358
 20
21.7520591007
 10
278.1971656689
 20
21.0305357133
 10
277.6201829958
 20
20.3688785186
 10
277.0109969475
 20
19.7784084252
 10
276.3800309115
 20
19.2692289471
 10
275.7380810117
 20
18.8500516632
 10
275.0961311119
 20
18.5280493693
 10
274.465165076
 20
18.3087309687
 10
273.8559790277
 20
18.195849822
 10
273.2789963546
 20
18.1913370022
 10
272.7440891877
 20
18.2952697205
 10
272.260410198
 20
18.505869536
 10
271.836235095
 20
18.8195331061
 10
271.4788214781
 20
19.23089367
 10
271.1942850306
 20
19.73291257
 10
270.9874941525
 20
20.3170003009
 10
270.8619874231
 20
20.9731630978
 10
270.8199116974
 20
21.6901733486
 10
270.8199116974
 20
21.6901733486
  0
LINE
  5
24A
330
1F
100
AcDbEntity
  8
0
  6
Continuous
 62
     7
370
    15
100
AcDbLine
 10
271.3068785802
 20
16.2418984962
 30
0.0
 11
273.1457846544
 21
17.3034763765
 31
0.0
  0
LINE
  5
24B
330
1F
100
AcDbEntity
  8
0
  6
Continuous
 62
     7
370
    15
100
AcDbLine
 10
271.1435779815
 20
16.1602456814
 30
0.0
 11
271.3068785802
 21
16.2418984962
 31
0.0
  0
LWPOLYLINE
  5
24C
330
1F
100
AcDbEntity
  8
0
  6
Continuous
 62
     7
370
    15
100
AcDbPolyline
 90
        3
 70
   128
 43
0.0
 10
281.3638853759
 20
31.7745779467
 10
281.3949344323
 20
32.1076098705
 10
281.3774342706
 20
32.3372822057
  0
LWPOLYLINE
  5
24D
330
1F
100
AcDbEntity
  8
0
  6
Continuous
 62
     7
370
    15
100
AcDbPolyline
 90
       10
 70
   128
 43
0.0
 10
281.3638853759
 20
23.7795816327
 10
281.7449561067
 20
24.8239215036
 10
282.0358786798
 20
25.8638408975
 10
282.2322869451
 20
26.8837333709
 10
282.3312336965
 20
27.8682927934
 10
282.3312336965
 20
28.8027433836
 10
282.2322869451
 20
29.6730613187
 10
282.0358786798
 20
30.4661856359
 10
281.7449561067
 20
31.1702129765
 10
281.3638853759
 20
31.7745779467
  0
ARC
  5
24E
330
1F
100
AcDbEntity
  8
0
  6
Continuous
 62
     7
370
    15
100
AcDbCircle
 10
278.8396282578
 20
23.5194366193
 30
0.0
 40
2.537626731035155
100
AcDbArc
 50
301.5993251811
 51
5.8840186056
  0
LINE
  5
24F
330
1F
100
AcDbEntity
  8
0
  6
Continuous
 62
     7
370
    15
100
AcDbLine
 10
278.3303773691
 20
20.2964780428
 30
0.0
 11
280.1692834433
 21
21.3580559231
 31
0.0
  0
LWPOLYLINE
  5
250
330
1F
100
AcDbEntity
  8
0
  6
Continuous
 62
     7
370
    15
100
AcDbPolyline
 90
        9
 70
   128
 43
0.0
 10
278.3303773691
 20
20.2964780428
 10
277.7158565615
 20
19.6237290901
 10
277.0727157388
 20
19.0219681681
 10
276.4102618911
 20
18.499903985
 10
275.7380810117
 20
18.0650907134
 10
275.0659001324
 20
17.7238204611
 10
274.4034462847
 20
17.481031712
 10
273.760305462
 20
17.3402380459
 10
273.1457846544
 20
17.3034763765
  0
ARC
  5
251
330
1F
100
AcDbEntity
  8
0
  6
Continuous
 62
     7
370
    15
100
AcDbCircle
 10
272.9468715256
 20
16.3627348709
 30
0.0
 40
1.851874770611584
100
AcDbArc
 50
169.5358164779
 51
181.9691503398
  0
LWPOLYLINE
  5
252
330
1F
100
AcDbEntity
  8
0
  6
Continuous
 62
     7
370
    15
100
AcDbPolyline
 90
       10
 70
   128
 43
0.0
 10
271.1257959627
 20
16.6990739261
 10
270.7447252319
 20
17.3034388963
 10
270.4538026588
 20
18.007466237
 10
270.2573943934
 20
18.8005905541
 10
270.1584476421
 20
19.6709084892
 10
270.1584476421
 20
20.6053590795
 10
270.2573943934
 20
21.589918502
 10
270.4538026588
 20
22.6098109754
 10
270.7447252319
 20
23.6497303693
 10
271.1257959627
 20
24.6940702401
  0
ARC
  5
253
330
1F
100
AcDbEntity
  8
0
  6
Continuous
 62
     7
370
    15
100
AcDbCircle
 10
272.5134760115
 20
24.9908424992
 30
0.0
 40
1.419059439059235
100
AcDbArc
 50
177.2169101887
 51
192.0715528643
  0
LWPOLYLINE
  5
254
330
1F
100
AcDbEntity
  8
0
  6
Continuous
 62
     7
370
    15
100
AcDbPolyline
 90
       30
 70
   128
 43
0.0
 10
277.5856792149
 20
30.8179078535
 10
277.9210715425
 20
30.7861635591
 10
278.4280458855
 20
30.6474818286
 10
278.8807085264
 20
30.4032644788
 10
279.2709817582
 20
30.0578697199
 10
279.5919010336
 20
29.6174611235
 10
279.8377396497
 20
29.0898973434
 10
280.004110822
 20
28.4845934487
 10
280.0880449537
 20
27.8123504139
 10
280.0880449537
 20
27.0851649352
 10
280.004110822
 20
26.3160136148
 10
279.8377396497
 20
25.5186216532
 10
279.5919010336
 20
24.7072186487
 10
279.2709817582
 20
23.8962845437
 10
278.8807085264
 20
23.1002899027
 10
278.4280458855
 20
22.3334393923
 10
277.9210715425
 20
21.6094175447
 10
277.3688323622
 20
20.9411444092
 10
276.7811833535
 20
20.3405459709
 10
276.1686110144
 20
19.818339115
 10
275.5420466213
 20
19.3838432309
 10
274.9126713134
 20
19.0448114166
 10
274.2917161966
 20
18.8072937878
 10
273.6902624486
 20
18.6755291784
 10
273.1190426985
 20
18.6518690099
 10
272.5882507763
 20
18.7367348896
 10
272.107358308
 20
18.9286128613
 10
271.6849472261
 20
19.2240786423
 10
271.3285547922
 20
19.6178597433
 10
271.0664966639
 20
20.056779914
  0
SPLINE
  5
255
330
1F
100
AcDbEntity
  8
0
  6
Continuous
 62
     7
370
    15
100
AcDbSpline
210
0.0
220
0.0
230
1.0
 70
     8
 71
     3
 72
    12
 73
     8
 74
     0
 42
0.000000001
 43
0.00000001
 40
0.0
 40
0.0
 40
0.0
 40
0.0
 40
0.2499999999999969
 40
0.2499999999999969
 40
0.4999999999999938
 40
0.4999999999999938
 40
1.0
 40
1.0
 40
1.0
 40
1.0
 10
251.6188428561113
 20
29.49309498586713
 30
0.0
 10
251.641463850971
 20
29.48003616349948
 30
0.0
 10
251.6670849903225
 20
29.46191137087521
 30
0.0
 10
251.7165362254324
 20
29.42242875251799
 30
0.0
 10
251.7400137456028
 20
29.40147363317348
 30
0.0
 10
251.8034130237747
 20
29.34014515530549
 30
0.0
 10
251.8357657949494
 20
29.30224071162239
 30
0.0
 10
251.8579935257194
 20
29.2700881742875
 30
0.0
  0
ARC
  5
256
330
1F
100
AcDbEntity
  8
0
  6
Continuous
 62
     7
370
    15
100
AcDbCircle
 10
267.6689936599
 20
39.7079556754
 30
0.0
 40
7.213130298229662
100
AcDbArc
 50
73.9045721116
 51
106.2967792496
  0
SPLINE
  5
257
330
1F
100
AcDbEntity
  8
0
  6
Continuous
 62
     7
370
    15
100
AcDbSpline
210
0.0
220
0.0
230
1.0
 70
     8
 71
     3
 72
    14
 73
    10
 74
     0
 42
0.000000001
 43
0.00000001
 40
0.0
 40
0.0
 40
0.0
 40
0.0
 40
0.25
 40
0.25
 40
0.5
 40
0.5
 40
0.75
 40
0.75
 40
1.0
 40
1.0
 40
1.0
 40
1.0
 10
269.8101687385183
 20
46.34929879976169
 30
0.0
 10
269.8101687385183
 20
46.37379287861302
 30
0.0
 10
269.8073238767801
 20
46.39939230585634
 30
0.0
 10
269.7955943699088
 20
46.452937870123
 30
0.0
 10
269.7867434136552
 20
46.48043579167655
 30
0.0
 10
269.762560424977
 20
46.53442074387644
 30
0.0
 10
269.7472056906204
 20
46.56081755540384
 30
0.0
 10
269.7107656818665
 20
46.60693665844776
 30
0.0
 10
269.689805925989
 20
46.62618327774803
 30
0.0
 10
269.6687473822811
 20
46.63834011626507
 30
0.0
  0
LWPOLYLINE
  5
258
330
1F
100
AcDbEntity
  8
0
  6
Continuous
 62
     7
370
    15
100
AcDbPolyline
 90
       17
 70
   128
 43
0.0
 10
251.9143935717
 20
29.5257476865
 10
252.1607445354
 20
30.507403075
 10
252.54089506
 20
31.7556976587
 10
252.9956753606
 20
33.0058701737
 10
253.5217663726
 20
34.2488019674
 10
254.1153336111
 20
35.4754307098
 10
254.7720473653
 20
36.6768102148
 10
255.4871191387
 20
37.8441801457
 10
256.2553336978
 20
38.9690265959
 10
257.0710890239
 20
40.0431472313
 10
257.9284362651
 20
41.0587083213
 10
258.8211231997
 20
42.0083043046
 10
259.7426398957
 20
42.8850105099
 10
260.6862663456
 20
43.682432962
 10
261.6451207591
 20
44.3947565401
 10
262.612210848
 20
45.0167867505
 10
262.8027314184
 20
45.1280708053
  0
LWPOLYLINE
  5
259
330
1F
100
AcDbEntity
  8
0
  6
Continuous
 62
     7
370
    15
100
AcDbPolyline
 90
       12
 70
   128
 43
0.0
 10
258.2928168439
 20
43.3877580012
 10
259.259721525
 20
44.2361602084
 10
260.2448094981
 20
44.9969262331
 10
261.2406266703
 20
45.6642989144
 10
262.2396376737
 20
46.2332285509
 10
263.2342828288
 20
46.6994108556
 10
264.217035603
 20
47.0593160701
 10
265.1804592178
 20
47.3102226567
 10
266.1172635856
 20
47.4502309029
 10
267.0203599137
 20
47.4782812616
 10
267.8829140468
 20
47.3941628388
 10
268.6983993697
 20
47.1985104729
  0
LINE
  5
25A
330
1F
100
AcDbEntity
  8
0
  6
Continuous
 62
     7
370
    15
100
AcDbLine
 10
269.6687473605
 20
46.6383405013
 30
0.0
 11
268.6983993697
 21
47.1985104729
 31
0.0
  0
LINE
  5
25B
330
1F
100
AcDbEntity
  8
0
  6
Continuous
 62
     7
370
    15
100
AcDbLine
 10
250.648494757
 20
30.0532650808
 30
0.0
 11
251.6188427478
 21
29.4930951093
 31
0.0
  0
ARC
  5
25C
330
1F
100
AcDbEntity
  8
0
  6
Continuous
 62
     7
370
    15
100
AcDbCircle
 10
276.8703106714
 20
23.8991978376
 30
0.0
 40
26.93429363256123
100
AcDbArc
 50
136.9528122493
 51
166.7921386576
  0
SPLINE
  5
25D
330
1F
100
AcDbEntity
  8
0
  6
Continuous
 62
     7
370
    15
100
AcDbSpline
210
0.0
220
0.0
230
1.0
 70
     8
 71
     3
 72
    34
 73
    30
 74
     0
 42
0.000000001
 43
0.00000001
 40
0.0
 40
0.0
 40
0.0
 40
0.0
 40
0.0624999999999994
 40
0.0624999999999994
 40
0.1249999999999988
 40
0.1249999999999988
 40
0.1874999999999983
 40
0.1874999999999983
 40
0.2499999999999982
 40
0.2499999999999982
 40
0.3124999999999982
 40
0.3124999999999982
 40
0.3749999999999982
 40
0.3749999999999982
 40
0.499999999999999
 40
0.499999999999999
 40
0.6249999999999998
 40
0.6249999999999998
 40
0.6874999999999996
 40
0.6874999999999996
 40
0.7499999999999993
 40
0.7499999999999993
 40
0.8124999999999991
 40
0.8124999999999991
 40
0.8749999999999993
 40
0.8749999999999993
 40
0.9374999999999997
 40
0.9374999999999997
 40
1.0
 40
1.0
 40
1.0
 40
1.0
 10
257.1869505991328
 20
42.28455957988866
 30
0.0
 10
257.2263675415616
 20
42.2648412573165
 30
0.0
 10
257.2682426718486
 20
42.24905724251948
 30
0.0
 10
257.3567153404651
 20
42.225004235573
 30
0.0
 10
257.4037898047125
 20
42.21670564214683
 30
0.0
 10
257.5006217846973
 20
42.20823237966324
 30
0.0
 10
257.5499434045388
 20
42.20800425973168
 30
0.0
 10
257.650398114422
 20
42.21534182294676
 30
0.0
 10
257.7020301276221
 20
42.22306626560375
 30
0.0
 10
257.8033185182722
 20
42.24584929409629
 30
0.0
 10
257.8532892386618
 20
42.26085756235628
 30
0.0
 10
257.951912616601
 20
42.29806561075499
 30
0.0
 10
258.0005317586612
 20
42.32036217489252
 30
0.0
 10
258.1382734426679
 20
42.39527034777206
 30
0.0
 10
258.2228902267008
 20
42.45796194845256
 30
0.0
 10
258.362294728452
 20
42.59702949190315
 30
0.0
 10
258.4186603172506
 20
42.67497888799897
 30
0.0
 10
258.4753093550999
 20
42.79399572131406
 30
0.0
 10
258.4899491554986
 20
42.83480677393185
 30
0.0
 10
258.5093565533251
 20
42.91534409560774
 30
0.0
 10
258.5142595285116
 20
42.95507777990452
 30
0.0
 10
258.5144881518745
 20
43.03357197332669
 30
0.0
 10
258.5096614566509
 20
43.07253956541809
 30
0.0
 10
258.4905868896363
 20
43.1463813150124
 30
0.0
 10
258.4763979952633
 20
43.18165627816082
 30
0.0
 10
258.4385125508587
 20
43.24893508303365
 30
0.0
 10
258.414874224876
 20
43.28061175945439
 30
0.0
 10
258.3599375896183
 20
43.33811841137668
 30
0.0
 10
258.3284676545678
 20
43.36428211299005
 30
0.0
 10
258.2928168906418
 20
43.38775753173246
 30
0.0
  0
LINE
  5
25E
330
1F
100
AcDbEntity
  8
0
  6
Continuous
 62
     7
370
    15
100
AcDbLine
 10
251.8579931859
 20
29.2700878895
 30
0.0
 11
251.8883318923
 21
29.2262037991
 31
0.0
  0
LINE
  5
25F
330
1F
100
AcDbEntity
  8
0
  6
Continuous
 62
     7
370
    15
100
AcDbLine
 10
269.8101689155
 20
44.1993249427
 30
0.0
 11
269.8101689155
 21
46.349299038
 31
0.0
  0
LINE
  5
260
330
1F
100
AcDbEntity
  8
0
  6
Continuous
 62
     7
370
    15
100
AcDbLine
 10
271.6720002411
 20
45.2741372889
 30
0.0
 11
269.8101689155
 21
44.1993249427
 31
0.0
  0
LINE
  5
261
330
1F
100
AcDbEntity
  8
0
  6
Continuous
 62
     7
370
    15
100
AcDbLine
 10
273.616768223
 20
41.7697630956
 30
0.0
 11
273.6862894496
 21
41.8901776454
 31
0.0
  0
LINE
  5
262
330
1F
100
AcDbEntity
  8
0
  6
Continuous
 62
     7
370
    15
100
AcDbLine
 10
272.0846960353
 20
40.8853166476
 30
0.0
 11
273.616768223
 21
41.7697630956
 31
0.0
  0
ARC
  5
263
330
1F
100
AcDbEntity
  8
0
  6
Continuous
 62
     7
370
    15
100
AcDbCircle
 10
272.5483818381
 20
40.1229597947
 30
0.0
 40
0.8922961922944589
100
AcDbArc
 50
121.3090842362
 51
144.2195567953
  0
LINE
  5
264
330
1F
100
AcDbEntity
  8
0
  6
Continuous
 62
     7
370
    15
100
AcDbLine
 10
251.8883318923
 20
29.2262037991
 30
0.0
 11
253.8461074453
 21
30.3564035688
 31
0.0
  0
SPLINE
  5
265
330
1F
100
AcDbEntity
  8
0
  6
Continuous
 62
     7
370
    15
100
AcDbSpline
210
0.0
220
0.0
230
1.0
 70
     8
 71
     3
 72
     8
 73
     4
 74
     0
 42
0.000000001
 43
0.00000001
 40
0.0
 40
0.0
 40
0.0
 40
0.0
 40
1.0
 40
1.0
 40
1.0
 40
1.0
 10
249.9334585412923
 20
30.78094093755477
 30
0.0
 10
249.7420804548441
 20
30.74930627107253
 30
0.0
 10
249.5506717091205
 20
30.71773464927067
 30
0.0
 10
249.3592351581887
 20
30.6862202033293
 30
0.0
  0
SPLINE
  5
266
330
1F
100
AcDbEntity
  8
0
  6
Continuous
 62
     7
370
    15
100
AcDbSpline
210
0.0
220
0.0
230
1.0
 70
     8
 71
     3
 72
     8
 73
     4
 74
     0
 42
0.000000001
 43
0.00000001
 40
0.0
 40
0.0
 40
0.0
 40
0.0
 40
0.0011862984959113
 40
0.0011862984959113
 40
0.0011862984959113
 40
0.0011862984959113
 10
249.1243677666717
 20
30.93312480310409
 30
0.0
 10
249.2028416785681
 20
30.85075816902912
 30
0.0
 10
249.2811348455254
 20
30.76845480295226
 30
0.0
 10
249.3592351581887
 20
30.6862202033293
 30
0.0
  0
LWPOLYLINE
  5
267
330
1F
100
AcDbEntity
  8
0
  6
Continuous
 62
     7
370
    15
100
AcDbPolyline
 90
       24
 70
   128
 43
0.0
 10
249.1243679088
 20
30.933124782
 10
249.4381406592
 20
32.1740316134
 10
249.8282299375
 20
33.4246436624
 10
250.2918531737
 20
34.6760407069
 10
250.8257044742
 20
35.9192987714
 10
251.4259765739
 20
37.1455496951
 10
252.0883871771
 20
38.3460490635
 10
252.8082123248
 20
39.5122329868
 10
253.5803188819
 20
40.6357855243
 10
254.3991992212
 20
41.7086926747
 10
255.2590133701
 20
42.7233032081
 10
256.1536294011
 20
43.6723793607
 10
257.0766660179
 20
44.549153865
 10
258.0215404096
 20
45.347372785
 10
258.9815135805
 20
46.0613419632
 10
259.9497390686
 20
46.6859713688
 10
260.919311198
 20
47.2168039668
 10
261.8833148808
 20
47.6500556219
 10
262.8348749261
 20
47.982635452
 10
263.7672042645
 20
48.2121716397
 10
264.6736539012
 20
48.3370270889
 10
265.5477589049
 20
48.3563117774
 10
266.3832846152
 20
48.2698871254
 10
267.1742725215
 20
48.078370174
  0
LINE
  5
268
330
1F
100
AcDbEntity
  8
0
  6
Continuous
 62
     7
370
    15
100
AcDbLine
 10
267.3801774376
 20
47.4304781533
 30
0.0
 11
267.1742725215
 21
48.078370174
 31
0.0
  0
LWPOLYLINE
  5
269
330
1F
100
AcDbEntity
  8
0
  6
Continuous
 62
     7
370
    15
100
AcDbPolyline
 90
       22
 70
   128
 43
0.0
 10
249.933458545
 20
30.7809409204
 10
250.2497978629
 20
32.0455600114
 10
250.649427256
 20
33.3208689721
 10
251.1290829777
 20
34.5964548367
 10
251.6848480053
 20
35.8619011522
 10
252.3121854061
 20
37.1068766954
 10
253.005972582
 20
38.3212155722
 10
253.760544294
 20
39.4950028919
 10
254.5697396388
 20
40.6186541048
 10
255.4269516588
 20
41.6829943392
 10
256.325181343
 20
42.6793341889
 10
257.2570936031
 20
43.5995375159
 10
258.215080055
 20
44.4360901398
 10
259.191318507
 20
45.1821625705
 10
260.1778376344
 20
45.831663567
 10
261.1665825874
 20
46.3792881512
 10
262.1494800219
 20
46.8205663035
 10
263.1185045578
 20
47.1518952444
 10
264.0657440024
 20
47.3705679614
 10
264.9834641893
 20
47.4748005006
 10
265.8641713213
 20
47.4637405793
 10
266.0608127114
 20
47.4448697458
  0
LINE
  5
26A
330
1F
100
AcDbEntity
  8
0
  6
Continuous
 62
     7
370
    15
100
AcDbLine
 10
248.1658047914
 20
31.4864914909
 30
0.0
 11
249.1243679088
 21
30.933124782
 31
0.0
  0
ARC
  5
26B
330
1F
100
AcDbEntity
  8
0
  6
Continuous
 62
     7
370
    15
100
AcDbCircle
 10
264.2159576527
 20
41.7013586556
 30
0.0
 40
7.213123417823375
100
AcDbArc
 50
73.9045724564
 51
106.2962554629
  0
LINE
  5
26C
330
1F
100
AcDbEntity
  8
0
  6
Continuous
 62
     7
370
    15
100
AcDbLine
 10
267.1742725215
 20
48.078370174
 30
0.0
 11
266.2157094041
 21
48.6317368829
 31
0.0
  0
LINE
  5
26D
330
1F
100
AcDbEntity
  8
0
  6
Continuous
 62
     7
370
    15
100
AcDbLine
 10
250.7685191033
 20
30.5633795861
 30
0.0
 11
250.3511166915
 21
30.8043408694
 31
0.0
  0
SPLINE
  5
26E
330
1F
100
AcDbEntity
  8
0
  6
Continuous
 62
     7
370
    15
100
AcDbSpline
210
0.0
220
0.0
230
1.0
 70
     8
 71
     3
 72
    11
 73
     7
 74
     0
 42
0.000000001
 43
0.00000001
 40
0.0
 40
0.0
 40
0.0
 40
0.0
 40
0.3165694752064712
 40
0.6331520400060429
 40
0.9494411625907934
 40
1.0
 40
1.0
 40
1.0
 40
1.0
 10
257.8314675619176
 20
42.79277203472391
 30
0.0
 10
257.7424074417818
 20
42.7613195927772
 30
0.0
 10
257.5642835190302
 20
42.69841340838042
 30
0.0
 10
257.3536500528978
 20
42.52520294225164
 30
0.0
 10
257.23318159226
 20
42.37640868526998
 30
0.0
 10
257.20989161656
 20
42.29057590027144
 30
0.0
 10
257.2066818015328
 20
42.27874646057334
 30
0.0
  0
SPLINE
  5
26F
330
1F
100
AcDbEntity
  8
0
  6
Continuous
 62
     7
370
    15
100
AcDbSpline
210
0.0
220
0.0
230
1.0
 70
     8
 71
     3
 72
    20
 73
    16
 74
     0
 42
0.000000001
 43
0.00000001
 40
0.0
 40
0.0
 40
0.0
 40
0.0
 40
0.1250000000000008
 40
0.1250000000000008
 40
0.2500000000000016
 40
0.2500000000000016
 40
0.3750000000000023
 40
0.3750000000000023
 40
0.5000000000000031
 40
0.5000000000000031
 40
0.6250000000000039
 40
0.6250000000000039
 40
0.7500000000000047
 40
0.7500000000000047
 40
1.0
 40
1.0
 40
1.0
 40
1.0
 10
254.7926361536041
 20
29.96767382101626
 30
0.0
 10
254.7812048055351
 20
30.01179559983733
 30
0.0
 10
254.7637891540197
 20
30.05339050959684
 30
0.0
 10
254.7209943109642
 20
30.13252233087884
 30
0.0
 10
254.6953127475044
 20
30.17030814563161
 30
0.0
 10
254.6384626964184
 20
30.24034252440621
 30
0.0
 10
254.6074502418677
 20
30.27249725648372
 30
0.0
 10
254.5409401717652
 20
30.33108167921459
 30
0.0
 10
254.5051747010553
 20
30.35760284441026
 30
0.0
 10
254.4316393860969
 20
30.40258009614374
 30
0.0
 10
254.3936386224684
 20
30.42129612418989
 30
0.0
 10
254.3150684217024
 20
30.45032796938018
 30
0.0
 10
254.2739682624201
 20
30.46066337299354
 30
0.0
 10
254.1515051381295
 20
30.47562191173875
 30
0.0
 10
254.0688260961698
 20
30.46437820817658
 30
0.0
 10
253.991671415831
 20
30.43014938865522
 30
0.0
  0
SPLINE
  5
270
330
1F
100
AcDbEntity
  8
0
  6
Continuous
 62
     7
370
    15
100
AcDbSpline
210
0.0
220
0.0
230
1.0
 70
     8
 71
     3
 72
     8
 73
     4
 74
     0
 42
0.000000001
 43
0.00000001
 40
0.0
 40
0.0
 40
0.0
 40
0.0
 40
1.0
 40
1.0
 40
1.0
 40
1.0
 10
253.991671415831
 20
30.43014938865522
 30
0.0
 10
253.9403755474571
 20
30.40739254470159
 30
0.0
 10
253.891852421304
 20
30.38281175655615
 30
0.0
 10
253.8461072208625
 20
30.35640361445442
 30
0.0
  0
SPLINE
  5
271
330
1F
100
AcDbEntity
  8
0
  6
Continuous
 62
     7
370
    15
100
AcDbSpline
210
0.0
220
0.0
230
1.0
 70
     8
 71
     3
 72
    20
 73
    16
 74
     0
 42
0.000000001
 43
0.00000001
 40
0.0
 40
0.0
 40
0.0
 40
0.0
 40
0.0624999999999997
 40
0.0624999999999997
 40
0.1249999999999994
 40
0.1249999999999994
 40
0.2499999999999988
 40
0.2499999999999988
 40
0.374999999999999
 40
0.374999999999999
 40
0.4999999999999992
 40
0.4999999999999992
 40
0.7499999999999997
 40
0.7499999999999997
 40
1.0
 40
1.0
 40
1.0
 40
1.0
 10
255.3969755153325
 20
28.58851242310436
 30
0.0
 10
255.3730865331065
 20
28.60230323899768
 30
0.0
 10
255.3499850835287
 20
28.62098696694081
 30
0.0
 10
255.3053656800614
 20
28.6659530508654
 30
0.0
 10
255.284892537429
 20
28.69106520651216
 30
0.0
 10
255.2269075762151
 20
28.77131826086307
 30
0.0
 10
255.1938002840592
 20
28.82969475033412
 30
0.0
 10
255.1337988215879
 20
28.94759802864139
 30
0.0
 10
255.1066685083125
 20
29.00806213531613
 30
0.0
 10
255.05660243849
 20
29.12809279252923
 30
0.0
 10
255.0335134425682
 20
29.18809720426575
 30
0.0
 10
254.9679436995522
 20
29.36808967737094
 30
0.0
 10
254.9290888600357
 20
29.48805737723349
 30
0.0
 10
254.8568931227123
 20
29.72796181308116
 30
0.0
 10
254.8236377147132
 20
29.84801654051909
 30
0.0
 10
254.7926361536041
 20
29.96767382101627
 30
0.0
  0
SPLINE
  5
272
330
1F
100
AcDbEntity
  8
0
  6
Continuous
 62
     7
370
    15
100
AcDbSpline
210
0.0
220
0.0
230
1.0
 70
     8
 71
     3
 72
    14
 73
    10
 74
     0
 42
0.000000001
 43
0.00000001
 40
0.0
 40
0.0
 40
0.0
 40
0.0
 40
0.25
 40
0.25
 40
0.5
 40
0.5
 40
0.75
 40
0.75
 40
1.0
 40
1.0
 40
1.0
 40
1.0
 10
250.3511166164481
 20
30.80434098237613
 30
0.0
 10
250.3260272874761
 20
30.81882474369616
 30
0.0
 10
250.29551131635
 20
30.83029925110383
 30
0.0
 10
250.22888739801
 20
30.84523614019216
 30
0.0
 10
250.1925981521167
 20
30.84868606259204
 30
0.0
 10
250.1217877184554
 20
30.8473912663822
 30
0.0
 10
250.0862435184887
 20
30.84266566443672
 30
0.0
 10
250.0212481402883
 20
30.82617670691359
 30
0.0
 10
249.9913070132685
 20
30.81433614958956
 30
0.0
 10
249.9661381695352
 20
30.7998064853749
 30
0.0
  0
LINE
  5
273
330
1F
100
AcDbEntity
  8
0
  6
Continuous
 62
     7
370
    15
100
AcDbLine
 10
249.9661381576
 20
30.7998064593
 30
0.0
 11
249.933458545
 21
30.7809409204
 31
0.0
  0
SPLINE
  5
274
330
1F
100
AcDbEntity
  8
0
  6
Continuous
 62
     7
370
    15
100
AcDbSpline
210
0.0
220
0.0
230
1.0
 70
     8
 71
     3
 72
    10
 73
     6
 74
     0
 42
0.000000001
 43
0.00000001
 40
0.0
 40
0.0
 40
0.0
 40
0.0
 40
0.5
 40
0.5
 40
1.0
 40
1.0
 40
1.0
 40
1.0
 10
248.097796414435
 20
31.50612361016057
 30
0.0
 10
248.1026739373832
 20
31.50903561008936
 30
0.0
 10
248.1105565108555
 20
31.50939031181487
 30
0.0
 10
248.1333240870407
 20
31.50323694538933
 30
0.0
 10
248.1481620626359
 20
31.4966763605118
 30
0.0
 10
248.165804741317
 20
31.48649145890092
 30
0.0
  0
ARC
  5
275
330
1F
100
AcDbEntity
  8
0
  6
Continuous
 62
     7
370
    15
100
AcDbCircle
 10
274.905446678
 20
25.0091862968
 30
0.0
 40
27.58386665816291
100
AcDbArc
 50
143.719260561
 51
155.2090787044
  0
ARC
  5
276
330
1F
100
AcDbEntity
  8
0
  6
Continuous
 62
     7
370
    15
100
AcDbCircle
 10
271.625193874
 20
16.8447387248
 30
0.0
 40
1.376405534993425
100
AcDbArc
 50
288.2779783612
 51
300.3371026508
  0
SPLINE
  5
277
330
1F
100
AcDbEntity
  8
0
  6
Continuous
 62
     7
370
    15
100
AcDbSpline
210
0.0
220
0.0
230
1.0
 70
     8
 71
     3
 72
    14
 73
    10
 74
     0
 42
0.000000001
 43
0.00000001
 40
0.0
 40
0.0
 40
0.0
 40
0.0
 40
0.25
 40
0.25
 40
0.5
 40
0.5
 40
0.75
 40
0.75
 40
1.0
 40
1.0
 40
1.0
 40
1.0
 10
258.1095201319347
 20
42.99707324081608
 30
0.0
 10
258.1194140600208
 20
42.97139456159235
 30
0.0
 10
258.1189915480849
 20
42.94611546949004
 30
0.0
 10
258.0970344781112
 20
42.90215483631052
 30
0.0
 10
258.0756105812166
 20
42.88330579794921
 30
0.0
 10
258.0190088642803
 20
42.85135978049088
 30
0.0
 10
257.9840642559515
 20
42.83810838219239
 30
0.0
 10
257.9098404797548
 20
42.81420376484813
 30
0.0
 10
257.8710706952808
 20
42.80362241572585
 30
0.0
 10
257.8314673914599
 20
42.79277218535603
 30
0.0
  0
LINE
  5
278
330
1F
100
AcDbEntity
  8
0
  6
Continuous
 62
     7
370
    15
100
AcDbLine
 10
258.0987688021
 20
43.0249771359
 30
0.0
 11
258.1095201997
 21
42.9970734761
 31
0.0
  0
SPLINE
  5
279
330
1F
100
AcDbEntity
  8
0
  6
Continuous
 62
     7
370
    15
100
AcDbSpline
210
0.0
220
0.0
230
1.0
 70
     8
 71
     3
 72
    10
 73
     6
 74
     0
 42
0.000000001
 43
0.00000001
 40
0.0
 40
0.0
 40
0.0
 40
0.0
 40
0.5
 40
0.5
 40
1.0
 40
1.0
 40
1.0
 40
1.0
 10
258.2928168906418
 20
43.38775753173247
 30
0.0
 10
258.2741401908166
 20
43.33974012994045
 30
0.0
 10
258.2489282651833
 20
43.28577580640481
 30
0.0
 10
258.1849444332934
 20
43.16551244884487
 30
0.0
 10
258.1462565817603
 20
43.09929497752834
 30
0.0
 10
258.0987687567002
 20
43.02497733648562
 30
0.0
  0
ARC
  5
27A
330
1F
100
AcDbEntity
  8
0
  6
Continuous
 62
     7
370
    15
100
AcDbCircle
 10
280.556329128
 20
31.5258247554
 30
0.0
 40
1.851874770604104
100
AcDbArc
 50
349.5358164779
 51
1.9691503398
  0
LINE
  5
27B
330
1F
100
AcDbEntity
  8
0
  6
Continuous
 62
     7
370
    15
100
AcDbLine
 10
281.3638853759
 20
31.7745779467
 30
0.0
 11
282.377404691
 21
31.1894857002
 31
0.0
  0
LINE
  5
27C
330
1F
100
AcDbEntity
  8
0
  6
Continuous
 62
     7
370
    15
100
AcDbLine
 10
251.8883318923
 20
29.2262037991
 30
0.0
 11
250.6697624518
 21
29.9296689634
 31
0.0
  0
SPLINE
  5
27D
330
1F
100
AcDbEntity
  8
0
  6
Continuous
 62
     7
370
    15
100
AcDbSpline
210
0.0
220
0.0
230
1.0
 70
     8
 71
     3
 72
     8
 73
     4
 74
     0
 42
0.000000001
 43
0.00000001
 40
0.0000000000000004
 40
0.0000000000000004
 40
0.0000000000000004
 40
0.0000000000000004
 40
0.0011862984959128
 40
0.0011862984959128
 40
0.0011862984959128
 40
0.0011862984959128
 10
250.6697622735027
 20
29.92966900330361
 30
0.0
 10
250.6623874739975
 20
29.97107463324947
 30
0.0
 10
250.6553034696151
 20
30.01226982478388
 30
0.0
 10
250.6484947177368
 20
30.05326504259581
 30
0.0
  0
LINE
  5
27E
330
1F
100
AcDbEntity
  8
0
  6
Continuous
 62
     7
370
    15
100
AcDbLine
 10
250.7182852734
 20
30.4531188935
 30
0.0
 11
250.7182852734
 21
30.3563523354
 31
0.0
  0
LINE
  5
27F
330
1F
100
AcDbEntity
  8
0
  6
Continuous
 62
     7
370
    15
100
AcDbLine
 10
250.7182852734
 20
29.9016568704
 30
0.0
 11
250.7182852734
 21
28.2800614541
 31
0.0
  0
SPLINE
  5
280
330
1F
100
AcDbEntity
  8
0
  6
Continuous
 62
     7
370
    15
100
AcDbSpline
210
0.0
220
0.0
230
1.0
 70
     8
 71
     3
 72
    20
 73
    16
 74
     0
 42
0.000000001
 43
0.00000001
 40
0.0
 40
0.0
 40
0.0
 40
0.0
 40
0.2500000000000007
 40
0.2500000000000007
 40
0.5000000000000014
 40
0.5000000000000014
 40
0.6250000000000018
 40
0.6250000000000018
 40
0.7500000000000022
 40
0.7500000000000022
 40
0.8750000000000021
 40
0.8750000000000021
 40
0.937500000000001
 40
0.937500000000001
 40
1.0
 40
1.0
 40
1.0
 40
1.0
 10
254.7926361536041
 20
24.06136194837601
 30
0.0
 10
254.8236714231523
 20
24.14531677443615
 30
0.0
 10
254.8569224374631
 20
24.22698013012482
 30
0.0
 10
254.9294160011108
 20
24.38411053892095
 30
0.0
 10
254.9685545615635
 20
24.45970725733221
 30
0.0
 10
255.0345875202911
 20
24.56443507756803
 30
0.0
 10
255.0578820033286
 20
24.59792572287827
 30
0.0
 10
255.107990074768
 20
24.65987213089954
 30
0.0
 10
255.1347631797259
 20
24.68847690671869
 30
0.0
 10
255.1947670326548
 20
24.73678951376442
 30
0.0
 10
255.2279066020849
 20
24.75674499670687
 30
0.0
 10
255.2856999508817
 20
24.76970663744245
 30
0.0
 10
255.30604801211
 20
24.77105271549343
 30
0.0
 10
255.3501225996954
 20
24.76447112530953
 30
0.0
 10
255.3732958434689
 20
24.7564379549702
 30
0.0
 10
255.3969755153325
 20
24.74276797137713
 30
0.0
  0
LINE
  5
281
330
1F
100
AcDbEntity
  8
0
  6
Continuous
 62
     7
370
    15
100
AcDbLine
 10
250.7182852734
 20
30.5923786605
 30
0.0
 11
250.7182852734
 21
30.4531188935
 31
0.0
  0
LINE
  5
282
330
1F
100
AcDbEntity
  8
0
  6
Continuous
 62
     7
370
    15
100
AcDbLine
 10
250.7182852734
 20
28.2800614541
 30
0.0
 11
250.7182852734
 21
26.3667354256
 31
0.0
  0
LWPOLYLINE
  5
283
330
1F
100
AcDbEntity
  8
0
  6
Continuous
 62
     7
370
    15
100
AcDbPolyline
 90
        9
 70
   128
 43
0.0
 10
279.3438966842
 20
19.7113857963
 10
278.7293758766
 20
19.0386368436
 10
278.0862350539
 20
18.4368759215
 10
277.4237812062
 20
17.9148117384
 10
276.7516003268
 20
17.4799984668
 10
276.0794194475
 20
17.1387282145
 10
275.4169655998
 20
16.8959394655
 10
274.7738247771
 20
16.7551457993
 10
274.1593039695
 20
16.7183841299
  0
LINE
  5
284
330
1F
100
AcDbEntity
  8
0
  6
Continuous
 62
     7
370
    15
100
AcDbLine
 10
281.1828027583
 20
20.7729636766
 30
0.0
 11
279.3438966842
 21
19.7113857963
 31
0.0
  0
ARC
  5
285
330
1F
100
AcDbEntity
  8
0
  6
Continuous
 62
     7
370
    15
100
AcDbCircle
 10
280.2253355496
 20
22.4152031976
 30
0.0
 40
1.900971883059036
100
AcDbArc
 50
300.24326773
 51
309.9634737695
  0
LINE
  5
286
330
1F
100
AcDbEntity
  8
0
  6
Continuous
 62
     7
370
    15
100
AcDbLine
 10
274.1593039695
 20
16.7183841299
 30
0.0
 11
272.3203978953
 21
15.6568062496
 31
0.0
  0
LINE
  5
287
330
1F
100
AcDbEntity
  8
0
  6
Continuous
 62
     7
370
    15
100
AcDbLine
 10
273.1457846544
 20
17.3034763765
 30
0.0
 11
274.1593039695
 21
16.7183841299
 31
0.0
  0
LINE
  5
288
330
1F
100
AcDbEntity
  8
0
  6
Continuous
 62
     7
370
    15
100
AcDbLine
 10
250.7182852734
 20
30.4531188935
 30
0.0
 11
250.7050230651
 21
30.3002217225
 31
0.0
  0
ARC
  5
289
330
1F
100
AcDbEntity
  8
0
  6
Continuous
 62
     7
370
    15
100
AcDbCircle
 10
261.3734740481
 20
29.3486882685
 30
0.0
 40
10.70864188833179
100
AcDbArc
 50
176.9225000953
 51
185.727139394
  0
LWPOLYLINE
  5
28A
330
1F
100
AcDbEntity
  8
0
  6
Continuous
 62
     7
370
    15
100
AcDbPolyline
 90
        3
 70
   128
 43
0.0
 10
250.052427025
 20
29.8530336863
 10
250.0933331756
 20
30.8231299246
 10
250.093620301
 20
30.8266083817
  0
ARC
  5
28B
330
1F
100
AcDbEntity
  8
0
  6
Continuous
 62
     7
370
    15
100
AcDbCircle
 10
257.8199567665
 20
29.6455319253
 30
0.0
 40
7.770300847840586
100
AcDbArc
 50
178.4697646986
 51
203.9428670419
  0
ARC
  5
28C
330
1F
100
AcDbEntity
  8
0
  6
Continuous
 62
     7
370
    15
100
AcDbCircle
 10
280.9897246422
 20
22.8977171271
 30
0.0
 40
1.419059439054089
100
AcDbArc
 50
357.2169101887
 51
12.0715528644
  0
LWPOLYLINE
  5
28D
330
1F
100
AcDbEntity
  8
0
  6
Continuous
 62
     7
370
    15
100
AcDbPolyline
 90
       10
 70
   128
 43
0.0
 10
282.377404691
 20
31.1894857002
 10
282.7584754218
 20
30.58512073
 10
283.0493979949
 20
29.8810933893
 10
283.2458062602
 20
29.0879690722
 10
283.3447530116
 20
28.2176511371
 10
283.3447530116
 20
27.2832005468
 10
283.2458062602
 20
26.2986411243
 10
283.0493979949
 20
25.2787486509
 10
282.7584754218
 20
24.238829257
 10
282.377404691
 20
23.1944893861
  0
LINE
  5
28E
330
1F
100
AcDbEntity
  8
0
  6
Continuous
 62
     7
370
    15
100
AcDbLine
 10
231.0157953219
 20
42.5532251369
 30
0.0
 11
230.9445254401
 21
42.6159177944
 31
0.0
  0
LINE
  5
28F
330
1F
100
AcDbEntity
  8
0
  6
Continuous
 62
     7
370
    15
100
AcDbLine
 10
281.3638853759
 20
23.7795816327
 30
0.0
 11
282.377404691
 21
23.1944893861
 31
0.0
  0
LINE
  5
290
330
1F
100
AcDbEntity
  8
0
  6
Continuous
 62
     7
370
    15
100
AcDbLine
 10
248.3881532347
 20
31.2468139282
 30
0.0
 11
248.097796022
 21
31.5061233747
 31
0.0
  0
LINE
  5
291
330
1F
100
AcDbEntity
  8
0
  6
Continuous
 62
     7
370
    15
100
AcDbLine
 10
249.3592353929
 20
30.6862201309
 30
0.0
 11
248.3881532347
 21
31.2468139282
 31
0.0
  0
LINE
  5
292
330
1F
100
AcDbEntity
  8
0
  6
Continuous
 62
     7
370
    15
100
AcDbLine
 10
279.3438966842
 20
19.7113857963
 30
0.0
 11
278.3303773691
 21
20.2964780428
 31
0.0
  0
SPLINE
  5
293
330
1F
100
AcDbEntity
  8
0
  6
Continuous
 62
     7
370
    15
100
AcDbSpline
210
0.0
220
0.0
230
1.0
 70
     8
 71
     3
 72
    20
 73
    16
 74
     0
 42
0.000000001
 43
0.00000001
 40
0.0
 40
0.0
 40
0.0
 40
0.0
 40
0.1249999999999992
 40
0.1249999999999992
 40
0.2499999999999984
 40
0.2499999999999984
 40
0.4999999999999979
 40
0.4999999999999979
 40
0.6249999999999984
 40
0.6249999999999984
 40
0.7499999999999989
 40
0.7499999999999989
 40
0.8749999999999994
 40
0.8749999999999994
 40
1.0
 40
1.0
 40
1.0
 40
1.0
 10
253.991671415831
 20
23.43511643350062
 30
0.0
 10
254.0301866111101
 20
23.45220327336891
 30
0.0
 10
254.0694772155571
 20
23.47195398300303
 30
0.0
 10
254.1499887950496
 20
23.51576736724243
 30
0.0
 10
254.1915725872266
 20
23.5400887805086
 30
0.0
 10
254.3137750072306
 20
23.61534162625355
 30
0.0
 10
254.3945410787038
 20
23.66991004946442
 30
0.0
 10
254.5052943605528
 20
23.75141474343609
 30
0.0
 10
254.5410167239866
 20
23.77897484229413
 30
0.0
 10
254.6074528310169
 20
23.83359742646723
 30
0.0
 10
254.638392334953
 20
23.8607913619065
 30
0.0
 10
254.6950635343229
 20
23.91606434208712
 30
0.0
 10
254.7208784303099
 20
23.94427977902231
 30
0.0
 10
254.7637992108363
 20
24.00139377565374
 30
0.0
 10
254.7812185065759
 20
24.0304755863682
 30
0.0
 10
254.7926361536041
 20
24.061361948376
 30
0.0
  0
SPLINE
  5
294
330
1F
100
AcDbEntity
  8
0
  6
Continuous
 62
     7
370
    15
100
AcDbSpline
210
0.0
220
0.0
230
1.0
 70
     8
 71
     3
 72
     8
 73
     4
 74
     0
 42
0.000000001
 43
0.00000001
 40
0.0
 40
0.0
 40
0.0
 40
0.0
 40
1.0
 40
1.0
 40
1.0
 40
1.0
 10
253.8461072208625
 20
23.36137065929983
 30
0.0
 10
253.891852421304
 20
23.38777880140156
 30
0.0
 10
253.9403755474571
 20
23.412359589547
 30
0.0
 10
253.991671415831
 20
23.43511643350063
 30
0.0
  0
LINE
  5
295
330
1F
100
AcDbEntity
  8
0
  6
Continuous
 62
     7
370
    15
100
AcDbLine
 10
251.8883318923
 20
22.2311710662
 30
0.0
 11
251.8579931859
 21
22.1522586508
 31
0.0
  0
LINE
  5
296
330
1F
100
AcDbEntity
  8
0
  6
Continuous
 62
     7
370
    15
100
AcDbLine
 10
251.8883318923
 20
22.2311710662
 30
0.0
 11
253.8461074453
 21
23.3613708359
 31
0.0
  0
LINE
  5
297
330
1F
100
AcDbEntity
  8
0
  6
Continuous
 62
     7
370
    15
100
AcDbLine
 10
250.6697624518
 20
22.9346362305
 30
0.0
 11
251.8883318923
 21
22.2311710662
 31
0.0
  0
SPLINE
  5
298
330
1F
100
AcDbEntity
  8
0
  6
Continuous
 62
     7
370
    15
100
AcDbSpline
210
0.0
220
0.0
230
1.0
 70
     8
 71
     3
 72
    14
 73
    10
 74
     0
 42
0.000000001
 43
0.00000001
 40
0.0
 40
0.0
 40
0.0
 40
0.0
 40
0.25
 40
0.25
 40
0.5
 40
0.5
 40
0.75
 40
0.75
 40
1.0
 40
1.0
 40
1.0
 40
1.0
 10
251.8579935257194
 20
22.15225888659649
 30
0.0
 10
251.8468769636751
 20
22.12334380785876
 30
0.0
 10
251.8333468017312
 20
22.0965235882282
 30
0.0
 10
251.8011488156842
 20
22.0473423297801
 30
0.0
 10
251.7823362504808
 20
22.02496259199537
 30
0.0
 10
251.7403860181987
 20
21.98926165488695
 30
0.0
 10
251.716943900854
 20
21.97562430198052
 30
0.0
 10
251.6671552413818
 20
21.9640027729726
 30
0.0
 10
251.6414719912428
 20
21.96663431229586
 30
0.0
 10
251.6188428561113
 20
21.9796978339424
 30
0.0
  0
LINE
  5
299
330
1F
100
AcDbEntity
  8
0
  6
Continuous
 62
     7
370
    15
100
AcDbLine
 10
251.6188427478
 20
21.9796979164
 30
0.0
 11
250.648494757
 21
22.5398678879
 31
0.0
  0
SPLINE
  5
29A
330
1F
100
AcDbEntity
  8
0
  6
Continuous
 62
     7
370
    15
100
AcDbSpline
210
0.0
220
0.0
230
1.0
 70
     8
 71
     3
 72
     8
 73
     4
 74
     0
 42
0.000000001
 43
0.00000001
 40
0.0
 40
0.0
 40
0.0
 40
0.0
 40
0.0011862984959113
 40
0.0011862984959113
 40
0.0011862984959113
 40
0.0011862984959113
 10
250.6484947177368
 20
22.53986789067108
 30
0.0
 10
250.6553034696151
 20
22.67146715859705
 30
0.0
 10
250.6623874739985
 20
22.80305771658158
 30
0.0
 10
250.6697622735036
 20
22.93463604814848
 30
0.0
  0
LWPOLYLINE
  5
29B
330
1F
100
AcDbEntity
  8
0
  6
Continuous
 62
     7
370
    15
100
AcDbPolyline
 90
       13
 70
   128
 43
0.0
 10
259.6328943315
 20
17.561333854
 10
258.7928953479
 20
17.3792544346
 10
257.8805872992
 20
17.2780063312
 10
257.0031588409
 20
17.2855019088
 10
256.1670500991
 20
17.4016880912
 10
255.3783969527
 20
17.6257105563
 10
254.6429880078
 20
17.9559264146
 10
253.9662202562
 20
18.3899110575
 10
253.3530617576
 20
18.9244807211
 10
252.8080108102
 20
19.555709981
 10
252.3350696083
 20
20.2789677494
 10
251.9377082424
 20
21.0889456699
 10
251.6465543007
 20
21.8890042861
  0
SPLINE
  5
29C
330
1F
100
AcDbEntity
  8
0
  6
Continuous
 62
     7
370
    15
100
AcDbSpline
210
0.0
220
0.0
230
1.0
 70
     8
 71
     3
 72
     8
 73
     4
 74
     0
 42
0.000000001
 43
0.00000001
 40
0.0
 40
0.0
 40
0.0
 40
0.0
 40
1.0
 40
1.0
 40
1.0
 40
1.0
 10
250.8338411760031
 20
23.26612815120638
 30
0.0
 10
250.7790423888127
 20
23.15564793353741
 30
0.0
 10
250.7243528100448
 20
23.04515001664543
 30
0.0
 10
250.6697622735036
 20
22.93463604814848
 30
0.0
  0
LINE
  5
29D
330
1F
100
AcDbEntity
  8
0
  6
Continuous
 62
     7
370
    15
100
AcDbLine
 10
250.8665208433
 20
23.2849938657
 30
0.0
 11
250.8338412307
 21
23.2661283269
 31
0.0
  0
SPLINE
  5
29E
330
1F
100
AcDbEntity
  8
0
  6
Continuous
 62
     7
370
    15
100
AcDbSpline
210
0.0
220
0.0
230
1.0
 70
     8
 71
     3
 72
    12
 73
     8
 74
     0
 42
0.000000001
 43
0.00000001
 40
0.0
 40
0.0
 40
0.0
 40
0.0
 40
0.249999999999997
 40
0.249999999999997
 40
0.499999999999994
 40
0.499999999999994
 40
1.0
 40
1.0
 40
1.0
 40
1.0
 10
250.8743756345261
 20
23.50723702584714
 30
0.0
 10
250.8994414909093
 20
23.49276681496428
 30
0.0
 10
250.9195598637401
 20
23.47489890124883
 30
0.0
 10
250.9452863535275
 20
23.43648309802883
 30
0.0
 10
250.9511926769873
 20
23.41578434764792
 30
0.0
 10
250.9478277210951
 20
23.35432503004439
 30
0.0
 10
250.9166928630449
 20
23.31395741206115
 30
0.0
 10
250.8665208042461
 20
23.28499369902652
 30
0.0
  0
LINE
  5
29F
330
1F
100
AcDbEntity
  8
0
  6
Continuous
 62
     7
370
    15
100
AcDbLine
 10
250.3511166915
 20
23.8093081365
 30
0.0
 11
250.8743757427
 21
23.5072371161
 31
0.0
  0
SPLINE
  5
2A0
330
1F
100
AcDbEntity
  8
0
  6
Continuous
 62
     7
370
    15
100
AcDbSpline
210
0.0
220
0.0
230
1.0
 70
     8
 71
     3
 72
    10
 73
     6
 74
     0
 42
0.000000001
 43
0.00000001
 40
0.0
 40
0.0
 40
0.0
 40
0.0
 40
0.5
 40
0.5
 40
1.0
 40
1.0
 40
1.0
 40
1.0
 10
249.9661381695352
 20
23.80477353022031
 30
0.0
 10
250.0168964297609
 20
23.83407565013546
 30
0.0
 10
250.0859016168838
 20
23.85173342758798
 30
0.0
 10
250.2288984782743
 20
23.85428547451286
 30
0.0
 10
250.3005186412198
 20
23.83851761657726
 30
0.0
 10
250.3511166164481
 20
23.80930802722154
 30
0.0
  0
LINE
  5
2A1
330
1F
100
AcDbEntity
  8
0
  6
Continuous
 62
     7
370
    15
100
AcDbLine
 10
249.933458545
 20
23.7859081875
 30
0.0
 11
249.9661381576
 21
23.8047737264
 31
0.0
  0
SPLINE
  5
2A2
330
1F
100
AcDbEntity
  8
0
  6
Continuous
 62
     7
370
    15
100
AcDbSpline
210
0.0
220
0.0
230
1.0
 70
     8
 71
     3
 72
     8
 73
     4
 74
     0
 42
0.000000001
 43
0.00000001
 40
0.0
 40
0.0
 40
0.0
 40
0.0
 40
1.0
 40
1.0
 40
1.0
 40
1.0
 10
249.3592351581893
 20
23.6911872481748
 30
0.0
 10
249.5506717091208
 20
23.72270169411615
 30
0.0
 10
249.7420804548443
 20
23.75427331591797
 30
0.0
 10
249.9334585412923
 20
23.78590798240018
 30
0.0
  0
LINE
  5
2A3
330
1F
100
AcDbEntity
  8
0
  6
Continuous
 62
     7
370
    15
100
AcDbLine
 10
248.3881532347
 20
24.2517811953
 30
0.0
 11
249.3592353929
 21
23.691187398
 31
0.0
  0
LINE
  5
2A4
330
1F
100
AcDbEntity
  8
0
  6
Continuous
 62
     7
370
    15
100
AcDbLine
 10
248.3881532347
 20
24.2517811953
 30
0.0
 11
250.4825829195
 21
25.4608697162
 31
0.0
  0
ARC
  5
2A5
330
1F
100
AcDbEntity
  8
0
  6
Continuous
 62
     7
370
    15
100
AcDbCircle
 10
257.0087762475
 20
24.1632002989
 30
0.0
 40
6.564174643845133
100
AcDbArc
 50
194.3179057184
 51
238.1256858466
  0
ELLIPSE
  5
2A6
330
1F
100
AcDbEntity
  8
0
  6
Continuous
 62
     7
370
    15
100
AcDbEllipse
 10
250.2873212402
 20
26.1179528124
 30
0.0
 11
-5.004975324141014E-5
 21
0.7112074679022697
 31
0.0
210
0.0
220
0.0
230
1.0
 40
0.7174342186
 41
3.534193645557378
 42
5.104989972352342
  0
ARC
  5
2A7
330
1F
100
AcDbEntity
  8
0
  6
Continuous
 62
     7
370
    15
100
AcDbCircle
 10
257.050464017
 20
25.7642127369
 30
0.0
 40
7.386843424594142
100
AcDbArc
 50
195.5342643695
 51
215.7345697398
  0
ARC
  5
2A8
330
1F
100
AcDbEntity
  8
0
  6
Continuous
 62
     7
370
    15
100
AcDbCircle
 10
255.3318229668
 20
24.9750022378
 30
0.0
 40
6.399326334130608
100
AcDbArc
 50
194.065870688
 51
246.8527503441
  0
SPLINE
  5
2A9
330
1F
100
AcDbEntity
  8
0
  6
Continuous
 62
     7
370
    15
100
AcDbSpline
210
0.0
220
0.0
230
1.0
 70
     8
 71
     3
 72
     8
 73
     4
 74
     0
 42
0.000000001
 43
0.00000001
 40
0.0000000000000004
 40
0.0000000000000004
 40
0.0000000000000004
 40
0.0000000000000004
 40
0.0011862984959128
 40
0.0011862984959128
 40
0.0011862984959128
 40
0.0011862984959128
 10
249.3592351581896
 20
23.69118724817416
 30
0.0
 10
249.2811348455263
 20
23.60043788628431
 30
0.0
 10
249.2028416785681
 20
23.50995550284235
 30
0.0
 10
249.1243677666717
 20
23.41972765117936
 30
0.0
  0
LINE
  5
2AA
330
1F
100
AcDbEntity
  8
0
  6
Continuous
 62
     7
370
    15
100
AcDbLine
 10
248.097796022
 20
24.0841267236
 30
0.0
 11
248.3881532347
 21
24.2517811953
 31
0.0
  0
LINE
  5
2AB
330
1F
100
AcDbEntity
  8
0
  6
Continuous
 62
     7
370
    15
100
AcDbLine
 10
249.1243679088
 20
23.419727589
 30
0.0
 11
248.1658047914
 21
23.9730942979
 31
0.0
  0
SPLINE
  5
2AC
330
1F
100
AcDbEntity
  8
0
  6
Continuous
 62
     7
370
    15
100
AcDbSpline
210
0.0
220
0.0
230
1.0
 70
     8
 71
     3
 72
    10
 73
     6
 74
     0
 42
0.000000001
 43
0.00000001
 40
0.0
 40
0.0
 40
0.0
 40
0.0
 40
0.5
 40
0.5
 40
1.0
 40
1.0
 40
1.0
 40
1.0
 10
248.165804741317
 20
23.97309430697619
 30
0.0
 10
248.1481984551299
 20
23.98325819964747
 30
0.0
 10
248.1333428523238
 20
23.99916314792231
 30
0.0
 10
248.1106047624428
 20
24.03778054241184
 30
0.0
 10
248.1026714090729
 20
24.06037956339908
 30
0.0
 10
248.097796414435
 20
24.08412692503532
 30
0.0
  0
ARC
  5
2AD
330
1F
100
AcDbEntity
  8
0
  6
Continuous
 62
     7
370
    15
100
AcDbCircle
 10
254.5163775929
 20
25.5815925559
 30
0.0
 40
6.546450620066441
100
AcDbArc
 50
195.2117991469
 51
238.1292866088
  0
ELLIPSE
  5
2AE
330
1F
100
AcDbEntity
  8
0
  6
Continuous
 62
     7
370
    15
100
AcDbEllipse
 10
250.2468811257
 20
26.094599642
 30
0.0
 11
0.2166729824340905
 21
0.8087863508257769
 31
0.0
210
0.0
220
0.0
230
1.0
 40
0.5176380889
 41
3.619174351347649
 42
5.189970678142649
  0
SPLINE
  5
2AF
330
1F
100
AcDbEntity
  8
0
  6
Continuous
 62
     7
370
    15
100
AcDbSpline
210
0.0
220
0.0
230
1.0
 70
     8
 71
     3
 72
    14
 73
    10
 74
     0
 42
0.000000001
 43
0.00000001
 40
0.0
 40
0.0
 40
0.0
 40
0.0
 40
0.25
 40
0.25
 40
0.5
 40
0.5
 40
0.75
 40
0.75
 40
1.0
 40
1.0
 40
1.0
 40
1.0
 10
267.9361191850223
 20
47.43081517598468
 30
0.0
 10
267.9572672588188
 20
47.44302369912128
 30
0.0
 10
267.9810878074907
 20
47.45345128834222
 30
0.0
 10
268.033096919972
 20
47.46998358878619
 30
0.0
 10
268.0615592135768
 20
47.47611044668675
 30
0.0
 10
268.1201920766882
 20
47.48212874384942
 30
0.0
 10
268.1511869029063
 20
47.48199941667071
 30
0.0
 10
268.2089464124458
 20
47.47351941241789
 30
0.0
 10
268.2360146674067
 20
47.465055998735
 30
0.0
 10
268.2571449181583
 20
47.45285776462278
 30
0.0
  0
LINE
  5
2B0
330
1F
100
AcDbEntity
  8
0
  6
Continuous
 62
     7
370
    15
100
AcDbLine
 10
268.2571451343
 20
47.4528580123
 30
0.0
 11
268.6969240105
 21
47.1989790711
 31
0.0
  0
LINE
  5
2B1
330
1F
100
AcDbEntity
  8
0
  6
Continuous
 62
     7
370
    15
100
AcDbLine
 10
269.810168696
 20
45.8157815933
 30
0.0
 11
270.7398350999
 21
46.0196316023
 31
0.0
  0
LINE
  5
2B2
330
1F
100
AcDbEntity
  8
0
  6
Continuous
 62
     7
370
    15
100
AcDbLine
 10
270.7398350999
 20
46.0196316023
 30
0.0
 11
271.7101830907
 21
45.4594616307
 31
0.0
  0
SPLINE
  5
2B3
330
1F
100
AcDbEntity
  8
0
  6
Continuous
 62
     7
370
    15
100
AcDbSpline
210
0.0
220
0.0
230
1.0
 70
     8
 71
     3
 72
    12
 73
     8
 74
     0
 42
0.000000001
 43
0.00000001
 40
0.0
 40
0.0
 40
0.0
 40
0.0
 40
0.250000000000004
 40
0.250000000000004
 40
0.500000000000008
 40
0.500000000000008
 40
1.0
 40
1.0
 40
1.0
 40
1.0
 10
271.7101830329527
 20
45.45946129158893
 30
0.0
 10
271.7312871199528
 20
45.44727816148898
 30
0.0
 10
271.7461533046262
 20
45.43139542095679
 30
0.0
 10
271.7607003516875
 20
45.39804081932499
 30
0.0
 10
271.7608875265717
 20
45.38044668038239
 30
0.0
 10
271.7453092771578
 20
45.32972986038578
 30
0.0
 10
271.7139503419544
 20
45.29835449041884
 30
0.0
 10
271.6720000122875
 20
45.27413708058419
 30
0.0
  0
LINE
  5
2B4
330
1F
100
AcDbEntity
  8
0
  6
Continuous
 62
     7
370
    15
100
AcDbLine
 10
267.9361193393
 20
47.4308154274
 30
0.0
 11
267.8749256275
 21
47.3954890495
 31
0.0
  0
SPLINE
  5
2B5
330
1F
100
AcDbEntity
  8
0
  6
Continuous
 62
     7
370
    15
100
AcDbSpline
210
0.0
220
0.0
230
1.0
 70
     8
 71
     3
 72
    10
 73
     6
 74
     0
 42
0.000000001
 43
0.00000001
 40
0.0
 40
0.0
 40
0.0
 40
0.0
 40
0.403876945935624
 40
0.8088164332108314
 40
1.0
 40
1.0
 40
1.0
 40
1.0
 10
273.6862894496255
 20
41.89017764544321
 30
0.0
 10
273.6984500503079
 20
41.91602022282048
 30
0.0
 10
273.7228032444398
 20
41.96777336562696
 30
0.0
 10
273.7320960936327
 20
42.03936198777308
 30
0.0
 10
273.7200638207325
 20
42.07486847951551
 30
0.0
 10
273.7162049314748
 20
42.08625582259712
 30
0.0
  0
ARC
  5
2B6
330
1F
100
AcDbEntity
  8
0
  6
Continuous
 62
     7
370
    15
100
AcDbCircle
 10
266.8380511699
 20
40.3590879674
 30
0.0
 40
7.05347297145186
100
AcDbArc
 50
16.1259606409
 51
46.3111053972
  0
LWPOLYLINE
  5
2B7
330
1F
100
AcDbEntity
  8
0
  6
Continuous
 62
     7
370
    15
100
AcDbPolyline
 90
        3
 70
   128
 43
0.0
 10
269.8101684765
 20
46.2697747843
 10
269.8358051752
 20
46.2381320527
 10
270.089645107
 20
45.9001311486
  0
ARC
  5
2B8
330
1F
100
AcDbEntity
  8
0
  6
Continuous
 62
     7
370
    15
100
AcDbCircle
 10
258.1896314752
 20
41.6057457012
 30
0.0
 40
1.038382877301677
100
AcDbArc
 50
79.5861017376
 51
142.8221932109
  0
ARC
  5
2B9
330
1F
100
AcDbEntity
  8
0
  6
Continuous
 62
     7
370
    15
100
AcDbCircle
 10
258.1682368754
 20
41.6615226296
 30
0.0
 40
0.9756265940572899
100
AcDbArc
 50
78.2685922876
 51
144.4072601206
  0
ARC
  5
2BA
330
1F
100
AcDbEntity
  8
0
  6
Continuous
 62
     7
370
    15
100
AcDbCircle
 10
258.1493194026
 20
41.7106087566
 30
0.0
 40
0.8330314967903828
100
AcDbArc
 50
80.705870252
 51
142.2259793291
  0
LWPOLYLINE
  5
2BB
330
1F
100
AcDbEntity
  8
0
  6
Continuous
 62
     7
370
     0
100
AcDbPolyline
 90
       23
 70
   128
 43
0.0
 10
269.7167780847
 20
41.8614276827
 10
269.5205735291
 20
41.9675177387
 10
268.8650908141
 20
42.2299115655
 10
268.1568722938
 20
42.3820657818
 10
267.4031729338
 20
42.4224210115
 10
266.6117143878
 20
42.3505663869
 10
265.7906042167
 20
42.1672349942
 10
264.9482540097
 20
41.8743057814
 10
264.0932933338
 20
41.4747812603
 10
263.2344805019
 20
40.9727522162
 10
262.3806134489
 20
40.373362482
 10
261.5404394022
 20
39.682751721
 10
260.7225655384
 20
38.9079967539
 10
259.9353699705
 20
38.0570317811
 10
259.186917454
 20
37.1385753866
 10
258.4848752032
 20
36.1620373259
 10
257.8364349631
 20
35.1374203064
 10
257.2482396917
 20
34.0752213881
 10
256.7263146322
 20
32.9863217226
 10
256.2760076051
 20
31.8818775592
 10
255.9019306169
 20
30.773201111
 10
255.6079159578
 20
29.6716513062
 10
255.3969753713
 20
28.5885121175
  0
ARC
  5
2BC
330
1F
100
AcDbEntity
  8
0
  6
Continuous
 62
     7
370
     0
100
AcDbCircle
 10
260.5322237347
 20
25.4254615126
 30
0.0
 40
5.180429200043491
100
AcDbArc
 50
187.5726526912
 51
237.0921750356
  0
LWPOLYLINE
  5
2BD
330
1F
100
AcDbEntity
  8
0
  6
Continuous
 62
     7
370
     0
100
AcDbPolyline
 90
       20
 70
   128
 43
0.0
 10
251.6188427478
 20
29.4930951093
 10
251.9326154982
 20
30.7340019408
 10
252.3227047766
 20
31.9846139898
 10
252.7863280127
 20
33.2360110342
 10
253.3201793133
 20
34.4792690988
 10
253.9204514129
 20
35.7055200225
 10
254.5828620162
 20
36.9060193908
 10
255.3026871638
 20
38.0722033141
 10
256.0747937209
 20
39.1957558517
 10
256.8936740603
 20
40.268663002
 10
257.7534882092
 20
41.2832735354
 10
258.6481042401
 20
42.232349688
 10
259.5711408569
 20
43.1091241924
 10
260.5160152486
 20
43.9073431123
 10
261.4759884195
 20
44.6213122905
 10
262.4442139077
 20
45.2459416961
 10
263.413786037
 20
45.7767742941
 10
264.3777897199
 20
46.2100259492
 10
265.3293497652
 20
46.5426057793
 10
265.6448972931
 20
46.6312700982
  0
LINE
  5
2BE
330
1F
100
AcDbEntity
  8
0
  6
Continuous
 62
     7
370
     0
100
AcDbLine
 10
251.8579931859
 20
29.2700878895
 30
0.0
 11
251.9143935717
 21
29.5257476865
 31
0.0
  0
LWPOLYLINE
  5
2BF
330
1F
100
AcDbEntity
  8
0
  6
Continuous
 62
     7
370
     0
100
AcDbPolyline
 90
        9
 70
   128
 43
0.0
 10
262.8027314184
 20
45.1280708053
 10
263.5804841767
 20
45.5439869055
 10
264.5428794743
 20
45.9725138288
 10
265.4923786045
 20
46.2992417735
 10
266.4220570817
 20
46.5217875281
 10
267.3251354096
 20
46.6385278872
 10
268.1950279236
 20
46.6486126374
 10
269.025391084
 20
46.551968102
 10
269.8101689155
 20
46.349299038
  0
ARC
  5
2C0
330
1F
100
AcDbEntity
  8
0
  6
Continuous
 62
     7
370
     0
100
AcDbCircle
 10
266.8995298478
 20
40.1418634491
 30
0.0
 40
7.008331357898917
100
AcDbArc
 50
14.4456939373
 51
47.0804331381
  0
LWPOLYLINE
  5
2C1
330
1F
100
AcDbEntity
  8
0
  6
Continuous
 62
     7
370
     0
100
AcDbPolyline
 90
       27
 70
   128
 43
0.0
 10
253.8461074453
 20
30.3564035688
 10
254.178600421
 20
31.5232317
 10
254.5907070374
 20
32.694597394
 10
255.0786094925
 20
33.8596507245
 10
255.6377901709
 20
35.0076021609
 10
256.2630694006
 20
36.1278188902
 10
256.9486559413
 20
37.2099264606
 10
257.6882001066
 20
38.2439012994
 10
258.4748521558
 20
39.2201688078
 10
259.3013263914
 20
40.1296844701
 10
260.1599681115
 20
40.9640262445
 10
261.0428249522
 20
41.715466166
 10
261.9417197115
 20
42.3770448336
 10
262.8483272206
 20
42.9426350522
 10
263.7542505842
 20
43.4069969985
 10
264.6510991908
 20
43.7658313669
 10
265.5305667225
 20
44.0158132504
 10
266.3845075324
 20
44.1546291347
 10
267.205012501
 20
44.1809912842
 10
267.9844829028
 20
44.0946580779
 10
268.7156986753
 20
43.896426778
 10
269.3918873468
 20
43.5881337775
 10
270.006787037
 20
43.172635709
 10
270.5547022141
 20
42.6537802889
 10
271.030557695
 20
42.0363720907
 10
271.4299464998
 20
41.3261307161
 10
271.6801372171
 20
40.7280039365
  0
LWPOLYLINE
  5
2C2
330
1F
100
AcDbEntity
  8
0
  6
Continuous
 62
     7
370
     0
100
AcDbPolyline
 90
       20
 70
   128
 43
0.0
 10
248.1658047914
 20
31.4864914909
 10
248.4795775418
 20
32.7273983223
 10
248.8696668202
 20
33.9780103713
 10
249.3332900563
 20
35.2294074158
 10
249.8671413569
 20
36.4726654803
 10
250.4674134565
 20
37.698916404
 10
251.1298240598
 20
38.8994157724
 10
251.8496492074
 20
40.0655996957
 10
252.6217557646
 20
41.1891522333
 10
253.4406361039
 20
42.2620593836
 10
254.3004502528
 20
43.276669917
 10
255.1950662837
 20
44.2257460696
 10
256.1181029005
 20
45.102520574
 10
257.0629772922
 20
45.9007394939
 10
258.0229504631
 20
46.6147086721
 10
258.9911759513
 20
47.2393380777
 10
259.9607480807
 20
47.7701706757
 10
260.9247517635
 20
48.2034223308
 10
261.8763118088
 20
48.5360021609
 10
262.1919265082
 20
48.624684978
  0
LWPOLYLINE
  5
2C3
330
1F
100
AcDbEntity
  8
0
  6
Continuous
 62
     7
370
     0
100
AcDbPolyline
 90
       19
 70
   128
 43
0.0
 10
250.3511166915
 20
30.8043408694
 10
250.6685720229
 20
32.0517049527
 10
251.0683743937
 20
33.3089321175
 10
251.5472223008
 20
34.5656382992
 10
252.101160965
 20
35.8114445645
 10
252.7256148189
 20
37.0360617727
 10
253.4154265811
 20
38.229374984
 10
254.1648989635
 20
39.3815283734
 10
254.9678420867
 20
40.4830078634
 10
255.8176244076
 20
41.524713617
 10
256.7072267197
 20
42.4980429226
 10
257.62930252
 20
43.3949574896
 10
258.5762357414
 20
44.2080492229
 10
259.5402057286
 20
44.9306030817
 10
260.5132507885
 20
45.5566510034
 10
261.4873343182
 20
46.0810212318
 10
262.4544112636
 20
46.4993847947
 10
263.4064944127
 20
46.8082856624
 10
263.6950343718
 20
46.8808498405
  0
LINE
  5
2C4
330
1F
100
AcDbEntity
  8
0
  6
Continuous
 62
     7
370
     0
100
AcDbLine
 10
257.8314675619
 20
42.7927720347
 30
0.0
 11
258.0715349135
 21
43.0183528658
 31
0.0
  0
LWPOLYLINE
  5
2C5
330
1F
100
AcDbEntity
  8
0
  6
Continuous
 62
     7
370
     0
100
AcDbPolyline
 90
       21
 70
   128
 43
0.0
 10
249.9661381576
 20
30.7998064593
 10
250.2826302579
 20
32.0619550455
 10
250.6822772122
 20
33.3346769097
 10
251.1618091275
 20
34.6075621288
 10
251.7173045909
 20
35.8702018545
 10
252.3442214013
 20
37.1122699341
 10
253.0374316922
 20
38.3236075714
 10
253.7912662734
 20
39.4943097623
 10
254.5995611683
 20
40.6148018434
 10
255.4557050291
 20
41.6759195898
 10
256.3526966496
 20
42.6689855094
 10
257.2832002831
 20
43.5858782934
 10
258.2396060086
 20
44.4190990975
 10
259.2140921834
 20
45.1618349716
 10
260.1986892938
 20
45.8080089014
 10
261.1853452339
 20
46.352338786
 10
262.1659909401
 20
46.7903733001
 10
263.1326066299
 20
47.1185281048
 10
264.0772869705
 20
47.3341204268
 10
264.9923062469
 20
47.4353874142
 10
265.8591136995
 20
47.4224144585
  0
LINE
  5
2C6
330
1F
100
AcDbEntity
  8
0
  6
Continuous
 62
     7
370
     0
100
AcDbLine
 10
271.3068785802
 20
16.2418984962
 30
0.0
 11
272.3203978953
 21
15.6568062496
 31
0.0
  0
LINE
  5
2C7
330
1F
100
AcDbEntity
  8
0
  6
Continuous
 62
     7
370
     0
100
AcDbLine
 10
254.7926356618
 20
29.9676737493
 30
0.0
 11
254.0259603408
 21
30.4102659913
 31
0.0
  0
LINE
  5
2C8
330
1F
100
AcDbEntity
  8
0
  6
Continuous
 62
     7
370
     0
100
AcDbLine
 10
250.7587253941
 20
26.3900885996
 30
0.0
 11
254.7926356618
 21
24.0613617704
 31
0.0
  0
LINE
  5
2C9
330
1F
100
AcDbEntity
  8
0
  6
Continuous
 62
     7
370
     0
100
AcDbLine
 10
250.7182852734
 20
26.3667354256
 30
0.0
 11
250.7587253941
 21
26.3900885996
 31
0.0
  0
LWPOLYLINE
  5
2CA
330
1F
100
AcDbEntity
  8
0
  6
Continuous
 62
     7
370
     0
100
AcDbPolyline
 90
        3
 70
   128
 43
0.0
 10
250.665554078
 20
29.4181375587
 10
250.6652529037
 20
29.4992568369
 10
250.6734293923
 20
29.9275524455
  0
LWPOLYLINE
  5
2CB
330
1F
100
AcDbEntity
  8
0
  6
Continuous
 62
     7
370
     0
100
AcDbPolyline
 90
       19
 70
   128
 43
0.0
 10
229.9419502567
 20
45.4267945031
 10
229.9830012872
 20
46.1737411941
 10
230.105451931
 20
46.9553038691
 10
230.3072071387
 20
47.7581099213
 10
230.58481482
 20
48.5684231166
 10
230.9335246736
 20
49.3723783809
 10
231.3473707256
 20
50.1562203874
 10
231.8192716467
 20
50.9065371363
 10
232.3411530227
 20
51.6104901102
 10
232.904085539
 20
52.2560352384
 10
233.498437104
 20
52.8321265607
 10
234.114038199
 20
53.3289069924
 10
234.7403557888
 20
53.7378766556
 10
235.3666733786
 20
54.0520378893
 10
235.9822744736
 20
54.266015353
 10
236.5766260386
 20
54.376147741
 10
237.1395585548
 20
54.3805506615
 10
237.6614399309
 20
54.2791490987
 10
237.7650349089
 20
54.2445174038
  0
ARC
  5
2CC
330
1F
100
AcDbEntity
  8
0
  6
Continuous
 62
     7
370
     0
100
AcDbCircle
 10
233.5738910173
 20
45.1379882534
 30
0.0
 40
3.643405376602
100
AcDbArc
 50
175.4534958965
 51
223.8068048097
  0
ARC
  5
2CD
330
1F
100
AcDbEntity
  8
0
  6
Continuous
 62
     7
370
     0
100
AcDbCircle
 10
258.6163678348
 20
24.8145193933
 30
0.0
 40
4.986684761757662
100
AcDbArc
 50
196.9421343097
 51
282.3285720174
  0
LWPOLYLINE
  5
2CE
330
1F
100
AcDbEntity
  8
0
  6
Continuous
 62
     7
370
     0
100
AcDbPolyline
 90
       16
 70
   128
 43
0.0
 10
262.0983237358
 20
18.5474055083
 10
261.7879978073
 20
18.3945934999
 10
260.8173832157
 20
17.9810754632
 10
259.8613438604
 20
17.6720605805
 10
258.9270000344
 20
17.4698514355
 10
258.021310358
 20
17.3759535988
 10
257.1510196441
 20
17.3910668239
 10
256.3226097267
 20
17.515077954
 10
255.5422502898
 20
17.7470629548
 10
254.8157527692
 20
18.0852957907
 10
254.1485277665
 20
18.527255273
 10
253.5455450977
 20
19.0696521868
 10
253.0112942802
 20
19.708445011
 10
252.5497555569
 20
20.4388774374
 10
252.1643647741
 20
21.2555092989
 10
251.8579931859
 20
22.1522586508
  0
LINE
  5
2CF
330
1F
100
AcDbEntity
  8
0
  6
Continuous
 62
     7
370
     0
100
AcDbLine
 10
251.6465543007
 20
21.8890042861
 30
0.0
 11
251.6188427478
 21
21.9796979164
 31
0.0
  0
LINE
  5
2D0
330
1F
100
AcDbEntity
  8
0
  6
Continuous
 62
     7
370
     0
100
AcDbLine
 10
253.9916708063
 20
23.4351163985
 30
0.0
 11
250.4825829195
 21
25.4608697162
 31
0.0
  0
LINE
  5
2D1
330
1F
100
AcDbEntity
  8
0
  6
Continuous
 62
     7
370
     0
100
AcDbLine
 10
280.1692834433
 20
21.3580559231
 30
0.0
 11
281.1828027583
 21
20.7729636766
 31
0.0
  0
LINE
  5
2D2
330
1F
100
AcDbEntity
  8
0
  6
Continuous
 62
     7
370
     0
100
AcDbLine
 10
250.9259547047
 20
23.3407154914
 30
0.0
 11
250.8743757427
 21
23.5072371161
 31
0.0
  0
LWPOLYLINE
  5
2D3
330
1F
100
AcDbEntity
  8
0
  6
Continuous
 62
     7
370
     0
100
AcDbPolyline
 90
        3
 70
   128
 43
0.0
 10
250.6642317755
 20
22.9386359453
 10
250.6594094736
 20
22.9499759134
 10
250.3511166915
 20
23.8093081365
  0
ARC
  5
2D4
330
1F
100
AcDbEntity
  8
0
  6
Continuous
 62
     7
370
     0
100
AcDbCircle
 10
257.1252327908
 20
25.8099856174
 30
0.0
 40
7.434615705948274
100
AcDbArc
 50
195.6471844777
 51
214.1548056384
  0
LINE
  5
2D5
330
1F
100
AcDbEntity
  8
0
  6
Continuous
 62
     7
370
     0
100
AcDbLine
 10
248.1992983651
 20
23.8638831072
 30
0.0
 11
248.1658047914
 21
23.9730942979
 31
0.0
  0
OLE2FRAME
  5
2D6
330
1F
100
AcDbEntity
  8
0
100
AcDbOle2Frame
 70
     2
  3
Paintbrush-Bild
 10
13.8511154363
 20
38.264191557
 30
0.0
 11
51.6290888628
 21
31.9806341108
 31
0.0
 71
     2
 72
     0
 73
     1
 90
    12928
310
80552BED0767C5B32B40DDAF6807D121434000000000000000006FFBDDFB85D0
310
4940DDAF6807D121434000000000000000006FFBDDFB85D04940416F4BD60AFB
310
3F4000000000000000002BED0767C5B32B40416F4BD60AFB3F40000000000000
310
0000000000000100000000010000010000000100000000000100000000320000
310
D0CF11E0A1B11AE1000000000000000000000000000000003E000300FEFF0900
310
0600000000000000000000000100000001000000000000000010000002000000
310
01000000FEFFFFFF0000000000000000FFFFFFFFFFFFFFFFFFFFFFFFFFFFFFFF
310
FFFFFFFFFFFFFFFFFFFFFFFFFFFFFFFFFFFFFFFFFFFFFFFFFFFFFFFFFFFFFFFF
310
FFFFFFFFFFFFFFFFFFFFFFFFFFFFFFFFFFFFFFFFFFFFFFFFFFFFFFFFFFFFFFFF
310
FFFFFFFFFFFFFFFFFFFFFFFFFFFFFFFFFFFFFFFFFFFFFFFFFFFFFFFFFFFFFFFF
310
FFFFFFFFFFFFFFFFFFFFFFFFFFFFFFFFFFFFFFFFFFFFFFFFFFFFFFFFFFFFFFFF
310
FFFFFFFFFFFFFFFFFFFFFFFFFFFFFFFFFFFFFFFFFFFFFFFFFFFFFFFFFFFFFFFF
310
FFFFFFFFFFFFFFFFFFFFFFFFFFFFFFFFFFFFFFFFFFFFFFFFFFFFFFFFFFFFFFFF
310
FFFFFFFFFFFFFFFFFFFFFFFFFFFFFFFFFFFFFFFFFFFFFFFFFFFFFFFFFFFFFFFF
310
FFFFFFFFFFFFFFFFFFFFFFFFFFFFFFFFFFFFFFFFFFFFFFFFFFFFFFFFFFFFFFFF
310
FFFFFFFFFFFFFFFFFFFFFFFFFFFFFFFFFFFFFFFFFFFFFFFFFFFFFFFFFFFFFFFF
310
FFFFFFFFFFFFFFFFFFFFFFFFFFFFFFFFFFFFFFFFFFFFFFFFFFFFFFFFFFFFFFFF
310
FFFFFFFFFFFFFFFFFFFFFFFFFFFFFFFFFFFFFFFFFFFFFFFFFFFFFFFFFFFFFFFF
310
FFFFFFFFFFFFFFFFFFFFFFFFFFFFFFFFFFFFFFFFFFFFFFFFFFFFFFFFFFFFFFFF
310
FFFFFFFFFFFFFFFFFFFFFFFFFFFFFFFFFFFFFFFFFFFFFFFFFFFFFFFFFFFFFFFF
310
FDFFFFFFFEFFFFFFFEFFFFFFFEFFFFFF05000000060000000700000008000000
310
090000000A0000000B0000000C0000000D0000000E0000000F00000010000000
310
11000000120000001300000014000000150000001600000017000000FEFFFFFF
310
FFFFFFFFFFFFFFFFFFFFFFFFFFFFFFFFFFFFFFFFFFFFFFFFFFFFFFFFFFFFFFFF
310
FFFFFFFFFFFFFFFFFFFFFFFFFFFFFFFFFFFFFFFFFFFFFFFFFFFFFFFFFFFFFFFF
310
FFFFFFFFFFFFFFFFFFFFFFFFFFFFFFFFFFFFFFFFFFFFFFFFFFFFFFFFFFFFFFFF
310
FFFFFFFFFFFFFFFFFFFFFFFFFFFFFFFFFFFFFFFFFFFFFFFFFFFFFFFFFFFFFFFF
310
FFFFFFFFFFFFFFFFFFFFFFFFFFFFFFFFFFFFFFFFFFFFFFFFFFFFFFFFFFFFFFFF
310
FFFFFFFFFFFFFFFFFFFFFFFFFFFFFFFFFFFFFFFFFFFFFFFFFFFFFFFFFFFFFFFF
310
FFFFFFFFFFFFFFFFFFFFFFFFFFFFFFFFFFFFFFFFFFFFFFFFFFFFFFFFFFFFFFFF
310
FFFFFFFFFFFFFFFFFFFFFFFFFFFFFFFFFFFFFFFFFFFFFFFFFFFFFFFFFFFFFFFF
310
FFFFFFFFFFFFFFFFFFFFFFFFFFFFFFFFFFFFFFFFFFFFFFFFFFFFFFFFFFFFFFFF
310
FFFFFFFFFFFFFFFFFFFFFFFFFFFFFFFFFFFFFFFFFFFFFFFFFFFFFFFFFFFFFFFF
310
FFFFFFFFFFFFFFFFFFFFFFFFFFFFFFFFFFFFFFFFFFFFFFFFFFFFFFFFFFFFFFFF
310
FFFFFFFFFFFFFFFFFFFFFFFFFFFFFFFFFFFFFFFFFFFFFFFFFFFFFFFFFFFFFFFF
310
FFFFFFFFFFFFFFFFFFFFFFFFFFFFFFFFFFFFFFFFFFFFFFFFFFFFFFFFFFFFFFFF
310
52006F006F007400200045006E00740072007900000000000000000000000000
310
0000000000000000000000000000000000000000000000000000000000000000
310
16000500FFFFFFFFFFFFFFFF020000000A00030000000000C000000000000046
310
000000000000000000000000D0D19F4E6603D20103000000C000000000000000
310
01004F006C006500000000000000000000000000000000000000000000000000
310
0000000000000000000000000000000000000000000000000000000000000000
310
0A000200FFFFFFFFFFFFFFFFFFFFFFFF00000000000000000000000000000000
310
0000000000000000000000000000000000000000000000001400000000000000
310
010043006F006D0070004F0062006A0000000000000000000000000000000000
310
0000000000000000000000000000000000000000000000000000000000000000
310
120002010100000003000000FFFFFFFF00000000000000000000000000000000
310
0000000000000000000000000000000000000000010000004D00000000000000
310
01004F006C006500310030004E00610074006900760065000000000000000000
310
0000000000000000000000000000000000000000000000000000000000000000
310
1A000200FFFFFFFFFFFFFFFFFFFFFFFF00000000000000000000000000000000
310
0000000000000000000000000000000000000000040000002426000000000000
310
FEFFFFFF02000000FEFFFFFFFFFFFFFFFFFFFFFFFFFFFFFFFFFFFFFFFFFFFFFF
310
FFFFFFFFFFFFFFFFFFFFFFFFFFFFFFFFFFFFFFFFFFFFFFFFFFFFFFFFFFFFFFFF
310
FFFFFFFFFFFFFFFFFFFFFFFFFFFFFFFFFFFFFFFFFFFFFFFFFFFFFFFFFFFFFFFF
310
FFFFFFFFFFFFFFFFFFFFFFFFFFFFFFFFFFFFFFFFFFFFFFFFFFFFFFFFFFFFFFFF
310
FFFFFFFFFFFFFFFFFFFFFFFFFFFFFFFFFFFFFFFFFFFFFFFFFFFFFFFFFFFFFFFF
310
FFFFFFFFFFFFFFFFFFFFFFFFFFFFFFFFFFFFFFFFFFFFFFFFFFFFFFFFFFFFFFFF
310
FFFFFFFFFFFFFFFFFFFFFFFFFFFFFFFFFFFFFFFFFFFFFFFFFFFFFFFFFFFFFFFF
310
FFFFFFFFFFFFFFFFFFFFFFFFFFFFFFFFFFFFFFFFFFFFFFFFFFFFFFFFFFFFFFFF
310
FFFFFFFFFFFFFFFFFFFFFFFFFFFFFFFFFFFFFFFFFFFFFFFFFFFFFFFFFFFFFFFF
310
FFFFFFFFFFFFFFFFFFFFFFFFFFFFFFFFFFFFFFFFFFFFFFFFFFFFFFFFFFFFFFFF
310
FFFFFFFFFFFFFFFFFFFFFFFFFFFFFFFFFFFFFFFFFFFFFFFFFFFFFFFFFFFFFFFF
310
FFFFFFFFFFFFFFFFFFFFFFFFFFFFFFFFFFFFFFFFFFFFFFFFFFFFFFFFFFFFFFFF
310
FFFFFFFFFFFFFFFFFFFFFFFFFFFFFFFFFFFFFFFFFFFFFFFFFFFFFFFFFFFFFFFF
310
FFFFFFFFFFFFFFFFFFFFFFFFFFFFFFFFFFFFFFFFFFFFFFFFFFFFFFFFFFFFFFFF
310
FFFFFFFFFFFFFFFFFFFFFFFFFFFFFFFFFFFFFFFFFFFFFFFFFFFFFFFFFFFFFFFF
310
FFFFFFFFFFFFFFFFFFFFFFFFFFFFFFFFFFFFFFFFFFFFFFFFFFFFFFFFFFFFFFFF
310
0100000200000000000000000000000000000000000000000000000000000000
310
0000000000000000000000000000000000000000000000000000000000000000
310
0100FEFF030A0000FFFFFFFF0A00030000000000C00000000000004607000000
310
5042727573680007000000504272757368000700000050427275736800F439B2
310
7100000000000000000000000000000000000000000000000000000000000000
310
0000000000000000000000000000000000000000000000000000000000000000
310
0000000000000000000000000000000000000000000000000000000000000000
310
0000000000000000000000000000000000000000000000000000000000000000
310
0000000000000000000000000000000000000000000000000000000000000000
310
0000000000000000000000000000000000000000000000000000000000000000
310
0000000000000000000000000000000000000000000000000000000000000000
310
0000000000000000000000000000000000000000000000000000000000000000
310
0000000000000000000000000000000000000000000000000000000000000000
310
0000000000000000000000000000000000000000000000000000000000000000
310
0000000000000000000000000000000000000000000000000000000000000000
310
0000000000000000000000000000000000000000000000000000000000000000
310
20260000424D0E260000000000003E00000028000000B40200006E0000000100
310
01000000000000000000130B0000130B00000200000002000000000000FFFFFF
310
FFFFFFFFFFFFFFFFFFFFFFFFFFFFFFFFFFFFFFFFFFFFFFFFFFFFFFFFFFFFFFFF
310
FFFFFFFFFFFFFFFFFFFFFFFFFFFFFFFFFFFFFFFFFFFFFFFFFFFFFFFFFFFFFFFF
310
FFFFFFFFFFFFFFFFFFFFFFFFFFFFFFFFFFFFFFFFFFFFFFFFF000FFFFFFFFFFFF
310
FFFFFFFFFFFFFFFFFFFFFFFFFFFFFFFFFFFFFFFFFFFFFFFFFFFFFFFFFFFFFFFF
310
FFFFFFFFFFFFFFFFFFFFFFFFFFFFFFFFFFFFFFFFFFFFFFFFFFFFFFFFFFFFFFFF
310
FFFFFFFFFFFFFFFFFFFFFFFFFFFFFFFFF000FFFFFFFFFFFFFFFFFFFFFFFFFFFF
310
FFFFFFFFFFFFFFFFFFFFFFFFFFFFFFFFFFFFFFFFFFFFFFFFFFFFFFFFFFFFFFFF
310
FFFFFFFFFFFFFFFFFFFFFFFFFFFFFFFFFFFFFFFFFFFFFFFFFFFFFFFFFFFFFFFF
310
FFFFFFFFFFFFFFFFF000FFFFFFFFFFFFFFFFFFFFFFFFFFFFFFFFFFFFFFFFFFFF
310
FFFFFFFFFFFFFFFFFFFFFFFFFFFFFFFFFFFFFFFFFFFFFFFFFFFFFFFFFFFFFFFF
310
FFFFFFFFFFFFFFFFFFFFFFFFFFFFFFFFFFFFFFFFFFFFFFFFFFFFFFFFFFFFFFFF
310
F000FFFFFFFFFFFFFFFFFFFFFFFFFFFFFFFFFFFFFFFFFFFFFFFFFFFFFFFFFFFF
310
FFFFFFFFFFFFFFFFFFFFFFFFFFFFFFFFFFFFFFFFFFFFFFFFFFFFFFFFFFFFFFFF
310
FFFFFFFFFFFFFFFFFFFFFFFFFFFFFFFFFFFFFFFFFFFFFFFFF000FFFFFFFFFFFF
310
FFFFFFFFFFFFFFFFFFFFFFFFFFFFFFFFFFFFFFFFFFFFFFFFFFFFFFFFFFFFFFFF
310
FFFFFFFFFFFFFFFFFFFFFFFFFFFFFFFFFFFFFFFFFFFFFFFFFFFFFFFFFFFFFFFF
310
FFFFFFFFFFFFFFFFFFFFFFFFFFFFFFFFF000FFFFFFFFFFFFFFFFFFFFFFFFFFFF
310
FFFFFFFFFFFFFFFFFFFFFFFFFFFFFFFFFFFFFFFFFFFFFFFFFFFFFFFFFFFFFFFF
310
FFFFFFFFFFFFFFFFFFFFFFFFFFFFFFFFFFFFFFFFFFFFFFFFFFFFFFFFFFFFFFFF
310
FFFFFFFFFFFFFFFFF000FFFFFFFFFFFFFFFFFFFFFFFFFFFFFFFFFFFFFFFFFFFF
310
FFFFFFFFFFFFFFFFFFFFFFFFFFFFFFFFFFFFFFFFFFFFFFFFFFFFFFFFFFFFFFFF
310
FFFFFFFFFFFFFFFFFFFFFFFFFFFFFFFFFFFFFFFFFFFFFFFFFFFFFFFFFFFFFFFF
310
F000FFFFFFFFFFFFFFFFFFFFFFFFFFFFFFFFFFFFFFFFFFFFFFFFFFFFFFFFFFFF
310
FFFFFFFFFFFFFFFFFFFFFFFFFFFFFFFFFFFFFFFFFFFFFFFFFFFFFFFFFFFFFFFF
310
FFFFFFFFFFFFFFFFFFFFFFFFFFFFFFFFFFFFFFFFFFFFFFFFF000FFFFFFFFFFFF
310
FFFFFFFFFFFFFFFFFFFFFFFFFFFFFFFFFFFFFFFFFFFFFFFFFFFFFFFFFFFFFFFF
310
FFFFFFFFFFFFFFFFFFFFFFFFFFFFFFFFFFFFFFFFFFFFFFFFFFFFFFFFFFFFFFFF
310
FFFFFFFFFFFFFFFFFFFFFFFFFFFFFFFFF000FFFFFFFFFFFFFFFFFFFFFFFFFFFF
310
FFFFFFFFFFFFFFFFFFFFFFFFFFFFFFFFFFFFFFFFFFFFFFFFFFFFFFFFFFFFFFFF
310
FFFFFFFFFFFFFFFFFFFFFFFFFFFFFFFFFFFFFFFFFFFFFFFFFFFFFFFFFFFFFFFF
310
FFFFFFFFFFFFFFFFF000FFFFFFFFFFFFFFFFFFFFFFFFFFFFFFFFFFFFFFFFFFFF
310
FFFFFFFFFFFFFFFFFFFFFFFFFFFFFFFFFFFFFFFFFFFFFFFFFFFFFFFFFFFFFFFF
310
FFFFFFFFFFFFFFFFFFFFFFFFFFFFFFFFFFFFFFFFFFFFFFFFFFFFFFFFFFFFFFFF
310
F000FFFFFFFFFFFFFFFFFFFFFFFFFFFFFFFFFFFFFFFFFFFFFFFFFFFFFFFFFFFF
310
FFFFFFFFFFFFFFFFFFFFFFFFFFFFFFFFFFFFFFFFFFFFFFFFFFFFFFFFFFFFFFFF
310
FFFFFFFFFFFFFFFFFFFFFFFFFFFFFFFFFFFFFFFFFFFFFFFFF000FFFFFFFFFFFF
310
FFFFFFFFFFFFFFFFFFFFFFFFFFFFFFFFFFFFFFFFFFFFFFFFFFFFFFFFFFFFFFFF
310
FFFFFFFFFFFFFFFFFFFFFFFFFFFFFFFFFFFFFFFFFFFFFFFFFFFFFFFFFFFFFFFF
310
FFFFFFFFFFFFFFFFFFFFFFFFFFFFFFFFF000FFFFFFFFFFFFFFFFFFFFFFFFFFFF
310
FFFFFFFFFFFFFFFFFFFFFFFFFFFFFFFFFFFFFFFFFFFFFFFFFFFFFFFFFFFFFFFF
310
FFFFFFFFFFFFFFFFFFFFFFFFFFFFFFFFFFFFFFFFFFFFFFFFFFFFFFFFFFFFFFFF
310
FFFFFFFFFFFFFFFFF000FFFFFFFFFFFFFFFFFFFFFFFFFFFFFFFFFFFFFFFFFFFF
310
FFFFFFFFFFFFFFFFFFFFFFFFFFFFFFFFFFFFFFFFFFFFFFFFFFFFFFFFFFFFFFFF
310
FFFFFFFFFFFFFFFFFFFFFFFFFFFFFFFFFFFFFFFFFFFFFFFFFFFFFFFFFFFFFFFF
310
F000FFFFFFFFFFFFFFFFFFFFFFFFFFFFFFFFFFFFFFFFFFFFFFFFFFFFFFFFFFFF
310
FFFFFFFFFFFFFFFFFFFFFFFFFFFFFFFFFFFFFFFFFFFFFFFFFFFFFFFFFFFFFFFF
310
FFFFFFFFFFFFFFFFFFFFFFFFFFFFFFFFFFFFFFFFFFFFFFFFF000FFFFFFFFFFFF
310
FFFFFFFFFFFFFFFFFFFFFFFFFFFFFFFFFFFFFFFFFFFFFFFFFFFFFFFFFFFFFFFF
310
FFFFFFFFFFFFFFFFFFFFFFFFFFFFFFFFFFFFFFFFFFFFFFFFFFFFFFFFFFFFFFFF
310
FFFFFFFFFFFFFFFFFFFFFFFFFFFFFFFFF000FFFFFFFFFFFFFFFFFFFFFFFFFFFF
310
FFFFFFFFFFFFFFFFFFFFFFFFFFFFFFFFFFFFFFFFFFFFFFFFFFFFFFFFFFFFFFFF
310
FFFFFFFFFFFFFFFFFFFFFFFFFFFFFFFFFFFFFFFFFFFFFFFFFFFFFFFFFFFFFFFF
310
FFFFFFFFFFFFFFFFF000FFFFF80003FFFFFFFFFFFFFFFFFFFFFFFFFFFFFFFFFF
310
FFFFF00007FFFFFFFFFF00007FFFFFF800000000000000007FFFFFFFFFFFFFFF
310
FFFFFFFC001FFFFFFFFFFFFFFC001FFFFFFFFFFFFFFFFFFFFFFFFFFE0007FFFF
310
F000FFFF8000007FFFFFFFF8000FFFFFC0007FFFFF80007FFFFF0000007FFFFF
310
FFF8000007FFFFF800000000000000007FFFFFF0001FFFFFFFFFFFC00001FFFF
310
FFFFFFFFC00001FFFFFFFF000000000003FFFFE000007FFFF000FFFE0000000F
310
FFFFFFF0000FFFFF80007FFFFF80007FFFFC0000001FFFFFFFC0000001FFFFF8
310
00000000000000007FFFFFF0001FFFFFFFFFFE0000003FFFFFFFFFFE0000003F
310
FFFFFF000000000003FFFF0000000FFFF000FFF800000003FFFFFFF00007FFFF
310
80007FFFFF80007FFFF000000007FFFFFF000000003FFFF80000000000000000
310
7FFFFFF0001FFFFFFFFFF80000000FFFFFFFFFF80000000FFFFFFF0000000000
310
03FFFC00000003FFF000FFE000000000FFFFFFF00007FFFF80003FFFFF80007F
310
FFC000000001FFFFFC000000001FFFF800000000000000007FFFFFF0001FFFFF
310
FFFFE000000003FFFFFFFFE000000003FFFFFF000000000003FFF000000000FF
310
F000FF80000000007FFFFFF00007FFFF80003FFFFF80007FFF8000000000FFFF
310
F80000000007FFF800000000000000007FFFFFF0001FFFFFFFFFC000000001FF
310
FFFFFFC000000001FFFFFF000000000003FFC0000000007FF000FF0000000000
310
3FFFFFE00007FFFF00003FFFFF80007FFE00000000003FFFF00000000003FFF8
310
00000000000000007FFFFFF0001FFFFFFFFF8000000000FFFFFFFF8000000000
310
FFFFFF000000000003FF80000000003FF000FE00000000001FFFFFE00003FFFF
310
00003FFFFF80007FFC00000000001FFFE00000000001FFF8000001FFFE000000
310
7FFFFFF0001FFFFFFFFE00000000003FFFFFFE00000000003FFFFF0000000000
310
03FF00000000001FF000FC00000000000FFFFFE00003FFFF00001FFFFF80007F
310
F800000000001FFFC00000000000FFF8000001FFFE0000007FFFFFF0001FFFFF
310
FFFC00000000001FFFFFFC00000000001FFFFF000000000003FE00000000000F
310
F000F8000000000007FFFFE00003FFFF00001FFFFF80007FF800000000000FFF
310
800000000000FFF8000001FFFE0000007FFFFFF0001FFFFFFFF800000000000F
310
FFFFF800000000000FFFFF000000000003FC000000000007F000F80000000000
310
03FFFFC00003FFFE00001FFFFF80007FF0000000000007FF0000000000007FF8
310
000001FFFE0000007FFFFFF0001FFFFFFFF0000000000007FFFFF00000000000
310
07FFFF000000000003F8000000000003F000F0000000000003FFFFC00001FFFE
310
00001FFFFF80007FE0000000000007FE0000000000003FF8000001FFFE000000
310
7FFFFFF0001FFFFFFFF0000000000007FFFFF0000000000007FFFF0000000000
310
03F800001F800003F000E00001FFF00001FFFFC00001FFFE00000FFFFF80007F
310
E00001FFE00003FE00001FFF00003FF8000001FFFE0000007FFFFFF0001FFFFF
310
FFE000003E000003FFFFE000003E000003FFFF000000000003F00001FFF80001
310
F000E00007FFFC0001FFFFC00001FFFE00000FFFFF80007FC0000FFFFC0003FC
310
0000FFFFC0001FF8000001FFFE0000007FFFFFF0001FFFFFFFC00003FFE00001
310
FFFFC00003FFE00001FFFF0001FFFFFFFFF00007FFFE0001F000E0000FFFFF00
310
00FFFF800001FFFC00000FFFFF80007FC0001FFFFE0001FC0001FFFFE0001FF8
310
000001FFFE0000007FFFFFF0001FFFFFFF80000FFFF80000FFFF80000FFFF800
310
00FFFF0003FFFFFFFFE0000FFFFF8000F000C0003FFFFF8000FFFF800000FFFC
310
000007FFFF80007F80003FFFFF0001FC0003FFFFF0001FF8000001FFFE000000
310
7FFFFFF0001FFFFFFF80003FFFFE0000FFFF80003FFFFE0000FFFF0003FFFFFF
310
FFE0003FFFFF8000F000C0003FFFFF8000FFFF800000FFFC000007FFFF80007F
310
80007FFFFF8001F80007FFFFF8000FF8000001FFFE0000007FFFFFF0001FFFFF
310
FF00007FFFFF00007FFF00007FFFFF00007FFF0003FFFFFFFFE0003FFFFFC000
310
F000C0007FFFFFC000FFFF000000FFFC000007FFFF80007F8000FFFFFF8000F8
310
000FFFFFF8000FF8000001FFFE0000007FFFFFF0001FFFFFFF0000FFFFFF8000
310
7FFF0000FFFFFF80007FFF0003FFFFFFFFC0007FFFFFC00070008000FFFFFFC0
310
00FFFF000000FFF8000007FFFF80007F8000FFFFFF8000F8000FFFFFF8000FF8
310
000001FFFE0000007FFFFFF0001FFFFFFE0001FFFFFFC0003FFE0001FFFFFFC0
310
003FFF0003FFFFFFFFC0007FFFFFE00070008000FFFFFFC0007FFF0000007FF8
310
000003FFFF80007F0001FFFFFF8000F8000FFFFFF8000FF8000001FFFE000000
310
7FFFFFF0001FFFFFFE0001FFFFFFC0003FFE0001FFFFFFC0003FFF0003FFFFFF
310
FFC000FFFFFFE00070008000FFFFFFC0007FFF0000007FF8000003FFFF80007F
310
0001FFFFFF8000F8001FFFFFF8000FF8000001FFFE0000007FFFFFF0001FFFFF
310
FE0003FFFFFFE0003FFE0003FFFFFFE0003FFF0003FFFFFFFFC000FFFFFFE000
310
70008000FFFFFFC0007FFE0000007FF8000003FFFF80007F0001FFFFFF8000F0
310
001FFFFFF8000FF8000001FFFE0000007FFFFFF0001FFFFFFC0003FFFFFFE000
310
1FFC0003FFFFFFE0001FFF0003FFFFFFFFC000FFFFFFC00070008000FFFFFF80
310
007FFE0000007FF0000003FFFF80007F0001FFFFFF0000F0001FFFFFF8000FF8
310
000001FFFE0000007FFFFFF0001FFFFFFC0007FFFFFFF0001FFC0007FFFFFFF0
310
001FFF0003FFFFFFFFC000FFFFFFC00070008001FFFFFF0000FFFE0000003FF0
310
000001FFFF80007F0001FFFFFF0000F8001FFFFFF0000FF8000001FFFE000000
310
7FFFFFF0001FFFFFFC0007FFFFFFF0001FFC0007FFFFFFF0001FFF0003FFFFFF
310
FFC001FFFFFF80007000FFFFFFFFFE0000FFFE0008003FF0008001FFFF80007F
310
FFFFFFFFFC0000FFFFFFFFFFE0000FF8000001FFFE0000007FFFFFF0001FFFFF
310
F8000FFFFFFFF8000FF8000FFFFFFFF8000FFF0003FFFFFFFFFFFFFFFFFF0000
310
7000FFFFFFFFFC0000FFFC0008003FF0008001FFFF80007FFFFFFFFFF80001FF
310
FFFFFFFF80000FF8000001FFFE0000007FFFFFF0001FFFFFF8000FFFFFFFF800
310
0FF8000FFFFFFFF8000FFF0003FFFFFFFFFFFFFFFFFE0000F000FFFFFFFFE000
310
00FFFC000C003FE000C001FFFF80007FFFFFFFFFC00001FFFFFFFFFE00001FF8
310
000001FFFE0000007FFFFFF0001FFFFFF8000FFFFFFFF8000FF8000FFFFFFFF8
310
000FFF0003FFFFFFFFFFFFFFFFF00000F000FFFFFFFE000001FFFC000C001FE0
310
00C000FFFF80007FFFFFFFFE000001FFFFFFFFE000001FF80FFFFFFFFFFFFFC0
310
7FFFFFF0001FFFFFF8000FFFFFFFF8000FF8000FFFFFFFF8000FFF0003FFFFFF
310
FFFFFFFFFF800000F000FFFFFFC0000001FFFC001C001FE001C000FFFF80007F
310
FFFFFF80000003FFFFFFF80000001FF80FFFFFFFFFFFFFC07FFFFFF0001FFFFF
310
F8001FFFFFFFFC000FF8001FFFFFFFFC000FFF0003FFFFFFFFFFFFFFF0000001
310
F000FFFFF800000001FFF8001C001FE001C000FFFF80007FFFFFF800000003FF
310
FFFF800000003FF80FFFFFFFFFFFFFC07FFFFFF0001FFFFFF8001FFFFFFFFC00
310
0FF8001FFFFFFFFC000FFF0003FFFFFFFFFFFFFE00000001F000FFFFC0000000
310
03FFF8001E001FC001E000FFFF80007FFFFF8000000007FFFFFC000000003FF8
310
0FFFFFFFFFFFFFC07FFFFFF0001FFFFFF8001FFFFFFFFC000FF8001FFFFFFFFC
310
000FFF0003FFFFFFFFFFFFE000000003F000FFFE0000000007FFF8001E000FC0
310
01E0007FFF80007FFFFE0000000007FFFFE0000000007FF80FFFFFFFFFFFFFC0
310
7FFFFFF0001FFFFFF0001FFFFFFFFC0007F0001FFFFFFFFC0007FF0003FFFFFF
310
FFFFFF0000000003F000FFF80000000007FFF8001E000FC003E0007FFF80007F
310
FFF0000000000FFFFF8000000000FFF80FFFFFFFFFFFFFC07FFFFFF0001FFFFF
310
F0001FFFFFFFFC0007F0001FFFFFFFFC0007FF0003FFFFFFFFFFFC0000000007
310
F000FFE0000000000FFFF0003E000FC003E0007FFF80007FFFC0000000001FFF
310
FE0000000001FFF80FFFFFFFFFFFFFC07FFFFFF0001FFFFFF0001FFFFFFFFC00
310
07F0001FFFFFFFFC0007FF0003FFFFFFFFFFF0000000000FF000FFC000000000
310
1FFFF0003F000F8003F0003FFF80007FFF80000000003FFFF80000000003FFF8
310
0FFFFFFFFFFFFFC07FFFFFF0001FFFFFF0001FFFFFFFFC0007F0001FFFFFFFFC
310
0007FF0003FFFFFFFFFFE0000000001FF000FF00000000007FFFF0003F000780
310
03F0003FFF80007FFF00000000007FFFF00000000007FFF80FFFFFFFFFFFFFC0
310
7FFFFFF0001FFFFFF0001FFFFFFFFC0007F0001FFFFFFFFC0007FF0003FFFFFF
310
FFFF80000000007FF000FE0000000000FFFFE0003F00078007F0003FFF80007F
310
FE0000000001FFFFE0000000001FFFF80FFFFFFFFFFFFFC07FFFFFF0001FFFFF
310
F0001FFFFFFFFC0007F0001FFFFFFFFC0007FF0003FFFFFFFFFF0000000000FF
310
F000FC0000000003FFFFE0007F00078007F0003FFF80007FFC0000000007FFFF
310
C0000000007FFFF80FFFFFFFFFFFFFC07FFFFFF0001FFFFFF8001FFFFFFFFC00
310
0FF8001FFFFFFFFC000FFF0003FFFFFFFFFE0000000003FFF000FC000000000F
310
FFFFE0007F80070007F8001FFF80007FF8000000001FFFFF8000000001FFFFF8
310
0FFFFFFFFFFFFFC07FFFFFF0001FFFFFF8001FFFFFFFFC000FF8001FFFFFFFFC
310
000FFF0003FFFFFFFFFC000000000FFFF000F8000000007FFFFFE0007F800700
310
07F8001FFF80007FF000000000FFFFFF800000000FFFFFF80FFFFFFFFFFFFFC0
310
7FFFFFF0001FFFFFF8000FFFFFFFF8000FF8000FFFFFFFF8000FFF0003FFFFFF
310
FFFC000000007FFFF000F800000007FFFFFFC0007F8003000FF8001FFF80007F
310
F000000007FFFFFF000000007FFFFFF80FFFFFFFFFFFFFC07FFFFFF0001FFFFF
310
F8000FFFFFFFF8000FF8000FFFFFFFF8000FFF0003FFFFFFFFF80000000FFFFF
310
F000F0000000FFFFFFFFC000FF8003000FF8001FFF80007FE0000000FFFFFFFF
310
0000000FFFFFFFF8000001FFFE0000007FFFFFF0001FFFFFF8000FFFFFFFF800
310
0FF8000FFFFFFFF8000FFF0003FFFFFFFFF8000000FFFFFFF000F000000FFFFF
310
FFFFC000FFC002000FF8000FFF80007FE000001FFFFFFFFE000001FFFFFFFFF8
310
000001FFFE0000007FFFFFF0001FFFFFF8000FFFFFFFF8000FF8000FFFFFFFF8
310
000FFF0003FFFFFFFFF000001FFFFFFFF000E00000FFFFFFFFFFC000FFC00200
310
0FFC000FFF80007FE00001FFFFFFFFFE00001FFFFFFFFFF8000001FFFE000000
310
7FFFFFF0001FFFFFFC000FFFFFFFF8001FFC000FFFFFFFF8001FFF0003FFFFFF
310
FFF00001FFFFFFFFF000E00007FFFFFFFFFF8000FFC000001FFC000FFF80007F
310
C0000FFFFFFFFFFE0000FFFFFFFFFFF8000001FFFE0000007FFFFFF0001FFFFF
310
FC0007FFFFFFF0001FFC0007FFFFFFF0001FFF0003FFFFFFFFF00007FFFFFFFF
310
F000E0001FFFFFFFFFFF8000FFC000001FFC000FFF80007FC0003FFFFFFFFFFE
310
0001FFFFFFFFFFF8000001FFFE0000007FFFFFF0001FFFFFFC0007FFFFFFF000
310
1FFC0007FFFFFFF0001FFF0003FFFFFFFFF0001FFFFFFFFFF000E0003FFFFF00
310
03FF8001FFE000001FFC0007FF80007FC0007FFFFF0007FC0003FFFFF0003FF8
310
000001FFFE0000007FFFFFF0001FFFFFFC0003FFFFFFE0001FFC0003FFFFFFE0
310
001FFF0003FFFFFFFFF0003FFFFFFFFFF000E0003FFFFF0001FF8001FFE00000
310
1FFE0007FF80007FC0007FFFFE0003FC0007FFFFE0003FF8000001FFFE000000
310
7FFFFFF0001FFFFFFE0003FFFFFFE0003FFE0003FFFFFFE0003FFF0003FFFFFF
310
FFF0003FFFFF8001F000E0003FFFFF0001FF0001FFE000001FFE0007FF80007F
310
C0007FFFFE0003FC0007FFFFE0003FF8000001FFFE0000007FFFFFF0001FFFFF
310
FE0001FFFFFFC0003FFE0001FFFFFFC0003FFF0003FFFFFFFFF0003FFFFF0001
310
F000E0003FFFFF0003FF0001FFE000003FFE0007FF80007FC0007FFFFE0003FC
310
0007FFFFE0003FF8000001FFFE0000007FFFFFF0001FFFFFFF0001FFFFFFC000
310
7FFF0001FFFFFFC0007FFF0003FFFFFFFFF0003FFFFF0001F000E0003FFFFE00
310
03FF0003FFF000003FFE0003FF80007FC0007FFFFC0003FE0007FFFFE0003FF8
310
000001FFFE0000007FFFFFF0001FFFFFFF0000FFFFFF80007FFF0000FFFFFF80
310
007FFF0003FFFFFFFFF0003FFFFF0001F000E0003FFFFE0003FF0003FFF00000
310
3FFF0003FF80007FC0007FFFFC0007FE0007FFFFC0003FF8000001FFFE000000
310
7FFFFFF0001FFFFFFF80007FFFFF0000FFFF80007FFFFF0000FFFF0003FFFFFF
310
FFF0003FFFFF0003F000E0003FFFFC0003FE0003FFF000003FFF0003FF80007F
310
E0003FFFF80007FE0003FFFFC0007FF8000001FFFE0000007FFFFFF0001FFFFF
310
FF80003FFFFE0000FFFF80003FFFFE0000FFFF0003FFFFFFFFF0001FFFFE0003
310
F000F0001FFFF80003FE0003FFF000007FFF0001FF80007FE0003FFFF00007FE
310
0001FFFF80007FF8000001FFFE0000007FFFFFF0001FFFFFFFC0000FFFF80001
310
FFFFC0000FFFF80001FFFF0003FFFFFFFFF0001FFFFC0003F000F0000FFFF000
310
07FE0007FFF800007FFF0001FF80007FE0001FFFE00007FF0000FFFE00007FF8
310
000001FFFE0000007FFFFFF0001FFFFFFFC00003FFE00001FFFFC00003FFE000
310
01FFFF0003FFFFFFFFF8000FFFF80003F000F00003FFC00007FC0007FFF80000
310
7FFF8001FF80007FF00007FF80000FFF00007FF80000FFF8000001FFFE000000
310
7F80000000000001FFE000003E000003FFFFE000003E000003FFFF0003FFFFFF
310
FFF80003FFE00007F000F800000000000FFC0007FFF800007FFF8001FF80007F
310
F000000000000FFF000000000000FFF8000001FFFE0000007F80000000000001
310
FFF0000000000007FFFFF0000000000007FFFF0003FFFFFFFFFC00007E000007
310
F000F800000000000FFC0007FFF80000FFFF8000FF80007FF800000000001FFF
310
800000000001FFF8000001FFFE0000007F80000000000001FFF800000000000F
310
FFFFF800000000000FFFFF0003FFFFFFFFFC00000000000FF000FC0000000000
310
1FFC0007FFFC0000FFFF8000FF80007FF800000000003FFFC00000000001FFF8
310
000001FFFE0000007F80000000000001FFF800000000000FFFFFF80000000000
310
0FFFFF0003FFFFFFFFFE00000000001FF000FE00000000003FF8000FFFFC0000
310
FFFF8000FF80007FFC00000000003FFFC00000000003FFF8000001FFFE000000
310
7F80000000000001FFFC00000000001FFFFFFC00000000001FFFFF0003FFFFFF
310
FFFF00000000001FF000FF00000000003FF8000FFFFC0000FFFFC000FF80007F
310
FE00000000007FFFE00000000007FFF8000001FFFE0000007F80000000000001
310
FFFE00000000003FFFFFFE00000000003FFFFF0003FFFFFFFFFF80000000003F
310
F000FF80000000007FF8000FFFFC0001FFFFC0007F80007FFF0000000000FFFF
310
F0000000000FFFF800000000000000007F80000000000001FFFF8000000000FF
310
FFFFFF8000000000FFFFFF0003FFFFFFFFFFC0000000007FF000FFC000000000
310
FFF8000FFFFE0001FFFFC0007F80007FFF8000000001FFFFF8000000001FFFF8
310
00000000000000007F80000000000001FFFFC000000001FFFFFFFFC000000001
310
FFFFFF0003FFFFFFFFFFE000000000FFF000FFE000000003FFF0001FFFFE0001
310
FFFFC0007F80007FFFC000000007FFFFFE000000003FFFF80000000000000000
310
7F80000000000001FFFFE000000003FFFFFFFFE000000003FFFFFF0003FFFFFF
310
FFFFF000000003FFF000FFF80000000FFFF0001FFFFE0001FFFFE0007F80007F
310
FFF00000000FFFFFFF00000000FFFFF800000000000000007F80000000000001
310
FFFFF80000000FFFFFFFFFF80000000FFFFFFF0003FFFFFFFFFFFC0000000FFF
310
F000FFFE0000003FFFF0001FFFFE0003FFFFE0003F80007FFFFC0000003FFFFF
310
FFC0000003FFFFF800000000000000007F80000000000001FFFFFE0000003FFF
310
FFFFFFFE0000003FFFFFFF0003FFFFFFFFFFFF0000003FFFF000FFFF800000FF
310
FFF0001FFFFF0003FFFFE0003F80007FFFFF000001FFFFFFFFF800001FFFFFF8
310
00000000000000007F80000000000001FFFFFFC00001FFFFFFFFFFFFC00001FF
310
FFFFFF0003FFFFFFFFFFFFC00000FFFFF000FFFFF8000FFFFFFFFFFFFFFFFFFF
310
FFFFFFFFFFFFFFFFFFFFF0001FFFFFFFFFFF0000FFFFFFF80000000000000000
310
7FFFFFFFFFFFFFFFFFFFFFFC001FFFFFFFFFFFFFFC001FFFFFFFFFFFFFFFFFFF
310
FFFFFFFC001FFFFFF000FFFFFFFFFFFFFFFFFFFFFFFFFFFFFFFFFFFFFFFFFFFF
310
FFFFFFFFFFFFFFFFFFFFFFFFFFFFFFFFFFFFFFFFFFFFFFFFFFFFFFFFFFFFFFFF
310
FFFFFFFFFFFFFFFFFFFFFFFFFFFFFFFFFFFFFFFFFFFFFFFFFFFFFFFFFFFFFFFF
310
F000FFFFFFFFFFFFFFFFFFFFFFFFFFFFFFFFFFFFFFFFFFFFFFFFFFFFFFFFFFFF
310
FFFFFFFFFFFFFFFFFFFFFFFFFFFFFFFFFFFFFFFFFFFFFFFFFFFFFFFFFFFFFFFF
310
FFFFFFFFFFFFFFFFFFFFFFFFFFFFFFFFFFFFFFFFFFFFFFFFF000FFFFFFFFFFFF
310
FFFFFFFFFFFFFFFFFFFFFFFFFFFFFFFFFFFFFFFFFFFFFFFFFFFFFFFFFFFFFFFF
310
FFFFFFFFFFFFFFFFFFFFFFFFFFFFFFFFFFFFFFFFFFFFFFFFFFFFFFFFFFFFFFFF
310
FFFFFFFFFFFFFFFFFFFFFFFFFFFFFFFFF000FFFFFFFFFFFFFFFFFFFFFFFFFFFF
310
FFFFFFFFFFFFFFFFFFFFFFFFFFFFFFFFFFFFFFFFFFFFFFFFFFFFFFFFFFFFFFFF
310
FFFFFFFFFFFFFFFFFFFFFFFFFFFFFFFFFFFFFFFFFFFFFFFFFFFFFFFFFFFFFFFF
310
FFFFFFFFFFFFFFFFF000FFFFFFFFFFFFFFFFFFFFFFFFFFFFFFFFFFFFFFFFFFFF
310
FFFFFFFFFFFFFFFFFFFFFFFFFFFFFFFFFFFFFFFFFFFFFFFFFFFFFFFFFFFFFFFF
310
FFFFFFFFFFFFFFFFFFFFFFFFFFFFFFFFFFFFFFFFFFFFFFFFFFFFFFFFFFFFFFFF
310
F000FFFFFFFFFFFFFFFFFFFFFFFFFFFFFFFFFFFFFFFFFFFFFFFFFFFFFFFFFFFF
310
FFFFFFFFFFFFFFFFFFFFFFFFFFFFFFFFFFFFFFFFFFFFFFFFFFFFFFFFFFFFFFFF
310
FFFFFFFFFFFFFFFFFFFFFFFFFFFFFFFFFFFFFFFFFFFFFFFFF000FFFFFFFFFFFF
310
FFFFFFFFFFFFFFFFFFFFFFFFFFFFFFFFFFFFFFFFFFFFFFFFFFFFFFFFFFFFFFFF
310
FFFFFFFFFFFFFFFFFFFFFFFFFFFFFFFFFFFFFFFFFFFFFFFFFFFFFFFFFFFFFFFF
310
FFFFFFFFFFFFFFFFFFFFFFFFFFFFFFFFF000FFFFFFFFFFFFFFFFFFFFFFFFFFFF
310
FFFFFFFFFFFFFFFFFFFFFFFFFFFFFFFFFFFFFFFFFFFFFFFFFFFFFFFFFFFFFFFF
310
FFFFFFFFFFFFFFFFFFFFFFFFFFFFFFFFFFFFFFFFFFFFFFFFFFFFFFFFFFFFFFFF
310
FFFFFFFFFFFFFFFFF000FFFFFFFFFFFFFFFFFFFFFFFFFFFFFFFFFFFFFFFFFFFF
310
FFFFFFFFFFFFFFFFFFFFFFFFFFFFFFFFFFFFFFFFFFFFFFFFFFFFFFFFFFFFFFFF
310
FFFFFFFFFFFFFFFFFFFFFFFFFFFFFFFFFFFFFFFFFFFFFFFFFFFFFFFFFFFFFFFF
310
F000FFFFFFFFFFFFFFFFFFFFFFFFFFFFFFFFFFFFFFFFFFFFFFFFFFFFFFFFFFFF
310
FFFFFFFFFFFFFFFFFFFFFFFFFFFFFFFFFFFFFFFFFFFFFFFFFFFFFFFFFFFFFFFF
310
FFFFFFFFFFFFFFFFFFFFFFFFFFFFFFFFFFFFFFFFFFFFFFFFF000FFFFFFFFFFFF
310
FFFFFFFFFFFFFFFFFFFFFFFFFFFFFFFFFFFFFFFFFFFFFFFFFFFFFFFFFFFFFFFF
310
FFFFFFFFFFFFFFFFFFFFFFFFFFFFFFFFFFFFFFFFFFFFFFFFFFFFFFFFFFFFFFFF
310
FFFFFFFFFFFFFFFFFFFFFFFFFFFFFFFFF000FFFFFFFFFFFFFFFFFFFFFFFFFFFF
310
FFFFFFFFFFFFFFFFFFFFFFFFFFFFFFFFFFFFFFFFFFFFFFFFFFFFFFFFFFFFFFFF
310
FFFFFFFFFFFFFFFFFFFFFFFFFFFFFFFFFFFFFFFFFFFFFFFFFFFFFFFFFFFFFFFF
310
FFFFFFFFFFFFFFFFF000FFFFFFFFFFFFFFFFFFFFFFFFFFFFFFFFFFFFFFFFFFFF
310
FFFFFFFFFFFFFFFFFFFFFFFFFFFFFFFFFFFFFFFFFFFFFFFFFFFFFFFFFFFFFFFF
310
FFFFFFFFFFFFFFFFFFFFFFFFFFFFFFFFFFFFFFFFFFFFFFFFFFFFFFFFFFFFFFFF
310
F000FFFFFFFFFFFFFFFFFFFFFFFFFFFFFFFFFFFFFFFFFFFFFFFFFFFFFFFFFFFF
310
FFFFFFFFFFFFFFFFFFFFFFFFFFFFFFFFFFFFFFFFFFFFFFFFFFFFFFFFFFFFFFFF
310
FFFFFFFFFFFFFFFFFFFFFFFFFFFFFFFFFFFFFFFFFFFFFFFFF000FFFFFFFFFFFF
310
FFFFFFFFFFFFFFFFFFFFFFFFFFFFFFFFFFFFFFFFFFFFFFFFFFFFFFFFFFFFFFFF
310
FFFFFFFFFFFFFFFFFFFFFFFFFFFFFFFFFFFFFFFFFFFFFFFFFFFFFFFFFFFFFFFF
310
FFFFFFFFFFFFFFFFFFFFFFFFFFFFFFFFF000FFFFFFFFFFFFFFFFFFFFFFFFFFFF
310
FFFFFFFFFFFFFFFFFFFFFFFFFFFFFFFFFFFFFFFFFFFFFFFFFFFFFFFFFFFFFFFF
310
FFFFFFFFFFFFFFFFFFFFFFFFFFFFFFFFFFFFFFFFFFFFFFFFFFFFFFFFFFFFFFFF
310
FFFFFFFFFFFFFFFFF000FFFFFFFFFFFFFFFFFFFFFFFFFFFFFFFFFFFFFFFFFFFF
310
FFFFFFFFFFFFFFFFFFFFFFFFFFFFFFFFFFFFFFFFFFFFFFFFFFFFFFFFFFFFFFFF
310
FFFFFFFFFFFFFFFFFFFFFFFFFFFFFFFFFFFFFFFFFFFFFFFFFFFFFFFFFFFFFFFF
310
F000FFFFFFFFFFFFFFFFFFFFFFFFFFFFFFFFFFFFFFFFFFFFFFFFFFFFFFFFFFFF
310
FFFFFFFFFFFFFFFFFFFFFFFFFFFFFFFFFFFFFFFFFFFFFFFFFFFFFFFFFFFFFFFF
310
FFFFFFFFFFFFFFFFFFFFFFFFFFFFFFFFFFFFFFFFFFFFFFFFF000FFFFFFFFFFFF
310
FFFFFFFFFFFFFFFFFFFFFFFFFFFFFFFFFFFFFFFFFFFFFFFFFFFFFFFFFFFFFFFF
310
FFFFFFFFFFFFFFFFFFFFFFFFFFFFFFFFFFFFFFFFFFFFFFFFFFFFFFFFFFFFFFFF
310
FFFFFFFFFFFFFFFFFFFFFFFFFFFFFFFFF000FFFFFFFFFFFFFFFFFFFFFFFFFFFF
310
FFFFFFFFFFFFFFFFFFFFFFFFFFFFFFFFFFFFFFFFFFFFFFFFFFFFFFFFFFFFFFFF
310
FFFFFFFFFFFFFFFFFFFFFFFFFFFFFFFFFFFFFFFFFFFFFFFFFFFFFFFFFFFFFFFF
310
FFFFFFFFFFFFFFFFF000FFFFFFFFFFFFFFFFFFFFFFFFFFFFFFFFFFFFFFFFFFFF
310
FFFFFFFFFFFFFFFFFFFFFFFFFFFFFFFFFFFFFFFFFFFFFFFFFFFFFFFFFFFFFFFF
310
FFFFFFFFFFFFFFFFFFFFFFFFFFFFFFFFFFFFFFFFFFFFFFFFFFFFFFFFFFFFFFFF
310
F000FFFFFFFFFFFFFFFFFFFFFFFFFFFFFFFFFFFFFFFFFFFFFFFFFFFFFFFFFFFF
310
FFFFFFFFFFFFFFFFFFFFFFFFFFFFFFFFFFFFFFFFFFFFFFFFFFFFFFFFFFFFFFFF
310
FFFFFFFFFFFFFFFFFFFFFFFFFFFFFFFFFFFFFFFFFFFFFFFFF000FFFFFFFFFFFF
310
FFFFFFFFFFFFFFFFFFFFFFFFFFFFFFFFFFFFFFFFFFFFFFFFFFFFFFFFFFFFFFFF
310
FFFFFFFFFFFFFFFFFFFFFFFFFFFFFFFFFFFFFFFFFFFFFFFFFFFFFFFFFFFFFFFF
310
FFFFFFFFFFFFFFFFFFFFFFFFFFFFFFFFF0000000000000000000000000000000
310
0000000000000000000000000000000000000000000000000000000000000000
310
0000000000000000000000000000000000000000000000000000000000000000
310
0000000000000000000000000000000000000000000000000000000000000000
310
0000000000000000000000000000000000000000000000000000000000000000
310
0000000000000000000000000000000000000000000000000000000000000000
310
0000000000000000000000000000000000000000000000000000000000000000
310
0000000000000000000000000000000000000000000000000000000000000000
310
0000000000000000000000000000000000000000000000000000000000000000
310
0000000000000000000000000000000000000000000000000000000000000000
310
0000000000000000000000000000000000000000000000000000000000000000
310
0000000000000000000000000000000000000000000000000000000000000000
310
0000000000000000000000000000000000000000000000000000000000000000
310
0000000000000000000000000000000000000000000000000000000000000000
310
0000000000000000000000000000000000000000000000000000000000000000
310
0000000000000000000000000000000000000000000000000000000000000000
  1
OLE
  0
ENDSEC
  0
SECTION
  2
OBJECTS
  0
DICTIONARY
  5
C
330
0
100
AcDbDictionary
281
     1
  3
ACAD_GROUP
350
D
  3
ACAD_LAYOUT
350
1A
  3
ACAD_MLINESTYLE
350
17
  3
ACAD_PLOTSETTINGS
350
19
  3
ACAD_PLOTSTYLENAME
350
E
  3
ACAD_SCALELIST
350
47
  0
DICTIONARY
  5
D
102
{ACAD_REACTORS
330
C
102
}
330
C
100
AcDbDictionary
281
     1
  0
DICTIONARY
  5
1A
102
{ACAD_REACTORS
330
C
102
}
330
C
100
AcDbDictionary
281
     1
  3
Layout1
350
1E
  3
Layout2
350
26
  3
Model
350
22
  0
DICTIONARY
  5
17
102
{ACAD_REACTORS
330
C
102
}
330
C
100
AcDbDictionary
281
     1
  3
Standard
350
18
  0
DICTIONARY
  5
19
102
{ACAD_REACTORS
330
C
102
}
330
C
100
AcDbDictionary
281
     1
  0
ACDBDICTIONARYWDFLT
  5
E
102
{ACAD_REACTORS
330
C
102
}
330
C
100
AcDbDictionary
281
     1
  3
Normal
350
F
100
AcDbDictionaryWithDefault
340
F
  0
DICTIONARY
  5
47
102
{ACAD_REACTORS
330
C
102
}
330
C
100
AcDbDictionary
281
     1
  3
A0
350
48
  3
A1
350
49
  3
A2
350
4A
  3
A3
350
4B
  3
A4
350
4C
  3
A5
350
4D
  3
A6
350
4E
  3
A7
350
4F
  3
A8
350
50
  3
A9
350
51
  3
B0
350
52
  3
B1
350
53
  3
B2
350
54
  3
B3
350
55
  3
B4
350
56
  3
B5
350
57
  3
B6
350
58
  3
B7
350
59
  3
B8
350
5A
  3
B9
350
5B
  3
C0
350
5C
  3
C1
350
5D
  3
C2
350
5E
  3
C3
350
5F
  3
C4
350
60
  3
C5
350
61
  3
C6
350
62
  3
C7
350
63
  3
C8
350
64
  3
C9
350
65
  3
D0
350
66
  3
D1
350
67
  3
D2
350
68
  0
LAYOUT
  5
1E
102
{ACAD_REACTORS
330
1A
102
}
330
1A
100
AcDbPlotSettings
  1

  2
none_device
  4

  6

 40
0.0
 41
0.0
 42
0.0
 43
0.0
 44
0.0
 45
0.0
 46
0.0
 47
0.0
 48
0.0
 49
0.0
140
0.0
141
0.0
142
1.0
143
1.0
 70
   688
 72
     1
 73
     0
 74
     5
  7

 75
    16
147
1.0
148
0.0
149
0.0
100
AcDbLayout
  1
Layout1
 70
     1
 71
     1
 10
0.0
 20
0.0
 11
420.0
 21
297.0
 12
0.0
 22
0.0
 32
0.0
 14
1.0000000000E+20
 24
1.0000000000E+20
 34
1.0000000000E+20
 15
-1.0000000000E+20
 25
-1.0000000000E+20
 35
-1.0000000000E+20
146
0.0
 13
0.0
 23
0.0
 33
0.0
 16
1.0
 26
0.0
 36
0.0
 17
0.0
 27
1.0
 37
0.0
 76
     0
330
1B
  0
LAYOUT
  5
26
102
{ACAD_REACTORS
330
1A
102
}
330
1A
100
AcDbPlotSettings
  1

  2
none_device
  4

  6

 40
0.0
 41
0.0
 42
0.0
 43
0.0
 44
0.0
 45
0.0
 46
0.0
 47
0.0
 48
0.0
 49
0.0
140
0.0
141
0.0
142
1.0
143
1.0
 70
   688
 72
     1
 73
     0
 74
     5
  7

 75
    16
147
1.0
148
0.0
149
0.0
100
AcDbLayout
  1
Layout2
 70
     1
 71
     2
 10
0.0
 20
0.0
 11
0.0
 21
0.0
 12
0.0
 22
0.0
 32
0.0
 14
0.0
 24
0.0
 34
0.0
 15
0.0
 25
0.0
 35
0.0
146
0.0
 13
0.0
 23
0.0
 33
0.0
 16
1.0
 26
0.0
 36
0.0
 17
0.0
 27
1.0
 37
0.0
 76
     0
330
23
  0
LAYOUT
  5
22
102
{ACAD_REACTORS
330
1A
102
}
330
1A
100
AcDbPlotSettings
  1

  2
none_device
  4
Letter_(8.50_x_11.00_Inches)
  6

 40
6.35
 41
6.35
 42
6.35000508
 43
6.35000508
 44
215.9
 45
279.4
 46
0.0
 47
0.0
 48
0.0
 49
0.0
140
0.0
141
0.0
142
1.0
143
1.0
 70
  1712
 72
     1
 73
     0
 74
     0
  7

 75
     0
147
1.0
148
0.0
149
0.0
100
AcDbLayout
  1
Model
 70
     1
 71
     0
 10
0.0
 20
0.0
 11
297.0
 21
210.0
 12
0.0
 22
0.0
 32
0.0
 14
0.0
 24
0.0
 34
0.0
 15
297.0
 25
210.0
 35
0.0
146
0.0
 13
0.0
 23
0.0
 33
0.0
 16
1.0
 26
0.0
 36
0.0
 17
0.0
 27
1.0
 37
0.0
 76
     0
330
1F
331
29
  0
MLINESTYLE
  5
18
102
{ACAD_REACTORS
330
17
102
}
330
17
100
AcDbMlineStyle
  2
Standard
 70
     0
  3

 62
   256
 51
90.0
 52
90.0
 71
     2
 49
0.5
 62
   256
  6
BYLAYER
 49
-0.5
 62
   256
  6
BYLAYER
  0
ACDBPLACEHOLDER
  5
F
102
{ACAD_REACTORS
330
E
102
}
330
E
  0
SCALE
  5
48
102
{ACAD_REACTORS
330
47
102
}
330
47
100
AcDbScale
 70
     0
300
1:1
140
1.0
141
1.0
290
     1
  0
SCALE
  5
49
102
{ACAD_REACTORS
330
47
102
}
330
47
100
AcDbScale
 70
     0
300
1:2
140
1.0
141
2.0
290
     0
  0
SCALE
  5
4A
102
{ACAD_REACTORS
330
47
102
}
330
47
100
AcDbScale
 70
     0
300
1:4
140
1.0
141
4.0
290
     0
  0
SCALE
  5
4B
102
{ACAD_REACTORS
330
47
102
}
330
47
100
AcDbScale
 70
     0
300
1:5
140
1.0
141
5.0
290
     0
  0
SCALE
  5
4C
102
{ACAD_REACTORS
330
47
102
}
330
47
100
AcDbScale
 70
     0
300
1:8
140
1.0
141
8.0
290
     0
  0
SCALE
  5
4D
102
{ACAD_REACTORS
330
47
102
}
330
47
100
AcDbScale
 70
     0
300
1:10
140
1.0
141
10.0
290
     0
  0
SCALE
  5
4E
102
{ACAD_REACTORS
330
47
102
}
330
47
100
AcDbScale
 70
     0
300
1:16
140
1.0
141
16.0
290
     0
  0
SCALE
  5
4F
102
{ACAD_REACTORS
330
47
102
}
330
47
100
AcDbScale
 70
     0
300
1:20
140
1.0
141
20.0
290
     0
  0
SCALE
  5
50
102
{ACAD_REACTORS
330
47
102
}
330
47
100
AcDbScale
 70
     0
300
1:30
140
1.0
141
30.0
290
     0
  0
SCALE
  5
51
102
{ACAD_REACTORS
330
47
102
}
330
47
100
AcDbScale
 70
     0
300
1:40
140
1.0
141
40.0
290
     0
  0
SCALE
  5
52
102
{ACAD_REACTORS
330
47
102
}
330
47
100
AcDbScale
 70
     0
300
1:50
140
1.0
141
50.0
290
     0
  0
SCALE
  5
53
102
{ACAD_REACTORS
330
47
102
}
330
47
100
AcDbScale
 70
     0
300
1:100
140
1.0
141
100.0
290
     0
  0
SCALE
  5
54
102
{ACAD_REACTORS
330
47
102
}
330
47
100
AcDbScale
 70
     0
300
2:1
140
2.0
141
1.0
290
     0
  0
SCALE
  5
55
102
{ACAD_REACTORS
330
47
102
}
330
47
100
AcDbScale
 70
     0
300
4:1
140
4.0
141
1.0
290
     0
  0
SCALE
  5
56
102
{ACAD_REACTORS
330
47
102
}
330
47
100
AcDbScale
 70
     0
300
8:1
140
8.0
141
1.0
290
     0
  0
SCALE
  5
57
102
{ACAD_REACTORS
330
47
102
}
330
47
100
AcDbScale
 70
     0
300
10:1
140
10.0
141
1.0
290
     0
  0
SCALE
  5
58
102
{ACAD_REACTORS
330
47
102
}
330
47
100
AcDbScale
 70
     0
300
100:1
140
100.0
141
1.0
290
     0
  0
SCALE
  5
59
102
{ACAD_REACTORS
330
47
102
}
330
47
100
AcDbScale
 70
     0
300
1/128" = 1'-0"
140
0.0078125
141
12.0
290
     0
  0
SCALE
  5
5A
102
{ACAD_REACTORS
330
47
102
}
330
47
100
AcDbScale
 70
     0
300
1/64" = 1'-0"
140
0.015625
141
12.0
290
     0
  0
SCALE
  5
5B
102
{ACAD_REACTORS
330
47
102
}
330
47
100
AcDbScale
 70
     0
300
1/32" = 1'-0"
140
0.03125
141
12.0
290
     0
  0
SCALE
  5
5C
102
{ACAD_REACTORS
330
47
102
}
330
47
100
AcDbScale
 70
     0
300
1/16" = 1'-0"
140
0.0625
141
12.0
290
     0
  0
SCALE
  5
5D
102
{ACAD_REACTORS
330
47
102
}
330
47
100
AcDbScale
 70
     0
300
3/32" = 1'-0"
140
0.09375
141
12.0
290
     0
  0
SCALE
  5
5E
102
{ACAD_REACTORS
330
47
102
}
330
47
100
AcDbScale
 70
     0
300
1/8" = 1'-0"
140
0.125
141
12.0
290
     0
  0
SCALE
  5
5F
102
{ACAD_REACTORS
330
47
102
}
330
47
100
AcDbScale
 70
     0
300
3/16" = 1'-0"
140
0.1875
141
12.0
290
     0
  0
SCALE
  5
60
102
{ACAD_REACTORS
330
47
102
}
330
47
100
AcDbScale
 70
     0
300
1/4" = 1'-0"
140
0.25
141
12.0
290
     0
  0
SCALE
  5
61
102
{ACAD_REACTORS
330
47
102
}
330
47
100
AcDbScale
 70
     0
300
3/8" = 1'-0"
140
0.375
141
12.0
290
     0
  0
SCALE
  5
62
102
{ACAD_REACTORS
330
47
102
}
330
47
100
AcDbScale
 70
     0
300
1/2" = 1'-0"
140
0.5
141
12.0
290
     0
  0
SCALE
  5
63
102
{ACAD_REACTORS
330
47
102
}
330
47
100
AcDbScale
 70
     0
300
3/4" = 1'-0"
140
0.75
141
12.0
290
     0
  0
SCALE
  5
64
102
{ACAD_REACTORS
330
47
102
}
330
47
100
AcDbScale
 70
     0
300
1" = 1'-0"
140
1.0
141
12.0
290
     0
  0
SCALE
  5
65
102
{ACAD_REACTORS
330
47
102
}
330
47
100
AcDbScale
 70
     0
300
1-1/2" = 1'-0"
140
1.5
141
12.0
290
     0
  0
SCALE
  5
66
102
{ACAD_REACTORS
330
47
102
}
330
47
100
AcDbScale
 70
     0
300
3" = 1'-0"
140
3.0
141
12.0
290
     0
  0
SCALE
  5
67
102
{ACAD_REACTORS
330
47
102
}
330
47
100
AcDbScale
 70
     0
300
6" = 1'-0"
140
6.0
141
12.0
290
     0
  0
SCALE
  5
68
102
{ACAD_REACTORS
330
47
102
}
330
47
100
AcDbScale
 70
     0
300
1'-0" = 1'-0"
140
12.0
141
12.0
290
     0
  0
ENDSEC
  0
EOF
