  0
SECTION
  2
HEADER
  9
$ACADVER
  1
AC1015
  9
$ACADMAINTVER
 70
     6
  9
$DWGCODEPAGE
  3
ANSI_1252
  9
$INSBASE
 10
0.0
 20
0.0
 30
0.0
  9
$EXTMIN
 10
0.0
 20
0.0
 30
0.0
  9
$EXTMAX
 10
297.0
 20
210.0
 30
0.0
  9
$LIMMIN
 10
0.0
 20
0.0
  9
$LIMMAX
 10
297.0
 20
210.0
  9
$ORTHOMODE
 70
     0
  9
$REGENMODE
 70
     1
  9
$FILLMODE
 70
     1
  9
$QTEXTMODE
 70
     0
  9
$MIRRTEXT
 70
     1
  9
$LTSCALE
 40
1.0
  9
$ATTMODE
 70
     1
  9
$TEXTSIZE
 40
2.0
  9
$TRACEWID
 40
1.0
  9
$TEXTSTYLE
  7
Standard
  9
$CLAYER
  8
0
  9
$CELTYPE
  6
ByLayer
  9
$CECOLOR
 62
   256
  9
$CELTSCALE
 40
1.0
  9
$DISPSILH
 70
     0
  9
$DIMSCALE
 40
1.0
  9
$DIMASZ
 40
3.0
  9
$DIMEXO
 40
0.0
  9
$DIMDLI
 40
3.75
  9
$DIMRND
 40
0.0
  9
$DIMDLE
 40
0.0
  9
$DIMEXE
 40
1.0
  9
$DIMTP
 40
0.0
  9
$DIMTM
 40
0.0
  9
$DIMTXT
 40
2.0
  9
$DIMCEN
 40
2.5
  9
$DIMTSZ
 40
0.0
  9
$DIMTOL
 70
     0
  9
$DIMLIM
 70
     0
  9
$DIMTIH
 70
     1
  9
$DIMTOH
 70
     1
  9
$DIMSE1
 70
     0
  9
$DIMSE2
 70
     0
  9
$DIMTAD
 70
     1
  9
$DIMZIN
 70
     0
  9
$DIMBLK
  1

  9
$DIMASO
 70
     1
  9
$DIMSHO
 70
     1
  9
$DIMPOST
  1

  9
$DIMAPOST
  1

  9
$DIMALT
 70
     0
  9
$DIMALTD
 70
     3
  9
$DIMALTF
 40
0.0393700787
  9
$DIMLFAC
 40
1.0
  9
$DIMTOFL
 70
     1
  9
$DIMTVP
 40
0.0
  9
$DIMTIX
 70
     0
  9
$DIMSOXD
 70
     0
  9
$DIMSAH
 70
     0
  9
$DIMBLK1
  1

  9
$DIMBLK2
  1

  9
$DIMSTYLE
  2
ISO-25
  9
$DIMCLRD
 70
     0
  9
$DIMCLRE
 70
     0
  9
$DIMCLRT
 70
     0
  9
$DIMTFAC
 40
1.0
  9
$DIMGAP
 40
1.524
  9
$DIMJUST
 70
     0
  9
$DIMSD1
 70
     0
  9
$DIMSD2
 70
     0
  9
$DIMTOLJ
 70
     0
  9
$DIMTZIN
 70
     0
  9
$DIMALTZ
 70
     0
  9
$DIMALTTZ
 70
     0
  9
$DIMUPT
 70
     0
  9
$DIMDEC
 70
     2
  9
$DIMTDEC
 70
     3
  9
$DIMALTU
 70
     2
  9
$DIMALTTD
 70
     3
  9
$DIMTXSTY
  7
Standard
  9
$DIMAUNIT
 70
     0
  9
$DIMADEC
 70
     2
  9
$DIMALTRND
 40
0.0
  9
$DIMAZIN
 70
     0
  9
$DIMDSEP
 70
    44
  9
$DIMATFIT
 70
     3
  9
$DIMFRAC
 70
     0
  9
$DIMLDRBLK
  1

  9
$DIMLUNIT
 70
     2
  9
$DIMLWD
 70
    -2
  9
$DIMLWE
 70
    -2
  9
$DIMTMOVE
 70
     0
  9
$LUNITS
 70
     2
  9
$LUPREC
 70
     2
  9
$SKETCHINC
 40
1.0
  9
$FILLETRAD
 40
10.0
  9
$AUNITS
 70
     0
  9
$AUPREC
 70
     2
  9
$MENU
  1
.
  9
$ELEVATION
 40
0.0
  9
$PELEVATION
 40
0.0
  9
$THICKNESS
 40
0.0
  9
$LIMCHECK
 70
     0
  9
$CHAMFERA
 40
0.0
  9
$CHAMFERB
 40
0.0
  9
$CHAMFERC
 40
0.0
  9
$CHAMFERD
 40
0.0
  9
$SKPOLY
 70
     0
  9
$TDCREATE
 40
2457632.452560243
  9
$TDUCREATE
 40
2457632.36922691
  9
$TDUPDATE
 40
2457632.452561655
  9
$TDUUPDATE
 40
2457632.369228322
  9
$TDINDWG
 40
0.0000000116
  9
$TDUSRTIMER
 40
0.0000000116
  9
$USRTIMER
 70
     1
  9
$ANGBASE
 50
0.0
  9
$ANGDIR
 70
     0
  9
$PDMODE
 70
     0
  9
$PDSIZE
 40
-1.0
  9
$PLINEWID
 40
0.0
  9
$SPLFRAME
 70
     0
  9
$SPLINETYPE
 70
     6
  9
$SPLINESEGS
 70
     8
  9
$HANDSEED
  5
2D6
  9
$SURFTAB1
 70
     6
  9
$SURFTAB2
 70
     6
  9
$SURFTYPE
 70
     6
  9
$SURFU
 70
     6
  9
$SURFV
 70
     6
  9
$UCSBASE
  2

  9
$UCSNAME
  2

  9
$UCSORG
 10
0.0
 20
0.0
 30
0.0
  9
$UCSXDIR
 10
1.0
 20
0.0
 30
0.0
  9
$UCSYDIR
 10
0.0
 20
1.0
 30
0.0
  9
$UCSORTHOREF
  2

  9
$UCSORTHOVIEW
 70
     0
  9
$UCSORGTOP
 10
0.0
 20
0.0
 30
0.0
  9
$UCSORGBOTTOM
 10
0.0
 20
0.0
 30
0.0
  9
$UCSORGLEFT
 10
0.0
 20
0.0
 30
0.0
  9
$UCSORGRIGHT
 10
0.0
 20
0.0
 30
0.0
  9
$UCSORGFRONT
 10
0.0
 20
0.0
 30
0.0
  9
$UCSORGBACK
 10
0.0
 20
0.0
 30
0.0
  9
$PUCSBASE
  2

  9
$PUCSNAME
  2

  9
$PUCSORG
 10
0.0
 20
0.0
 30
0.0
  9
$PUCSXDIR
 10
1.0
 20
0.0
 30
0.0
  9
$PUCSYDIR
 10
0.0
 20
1.0
 30
0.0
  9
$PUCSORTHOREF
  2

  9
$PUCSORTHOVIEW
 70
     0
  9
$PUCSORGTOP
 10
0.0
 20
0.0
 30
0.0
  9
$PUCSORGBOTTOM
 10
0.0
 20
0.0
 30
0.0
  9
$PUCSORGLEFT
 10
0.0
 20
0.0
 30
0.0
  9
$PUCSORGRIGHT
 10
0.0
 20
0.0
 30
0.0
  9
$PUCSORGFRONT
 10
0.0
 20
0.0
 30
0.0
  9
$PUCSORGBACK
 10
0.0
 20
0.0
 30
0.0
  9
$USERI1
 70
     0
  9
$USERI2
 70
     0
  9
$USERI3
 70
     0
  9
$USERI4
 70
     0
  9
$USERI5
 70
     0
  9
$USERR1
 40
0.0
  9
$USERR2
 40
0.0
  9
$USERR3
 40
0.0
  9
$USERR4
 40
0.0
  9
$USERR5
 40
0.0
  9
$WORLDVIEW
 70
     1
  9
$SHADEDGE
 70
     3
  9
$SHADEDIF
 70
    70
  9
$TILEMODE
 70
     1
  9
$MAXACTVP
 70
    64
  9
$PINSBASE
 10
0.0
 20
0.0
 30
0.0
  9
$PLIMCHECK
 70
     0
  9
$PEXTMIN
 10
1.0000000000E+20
 20
1.0000000000E+20
 30
1.0000000000E+20
  9
$PEXTMAX
 10
-1.0000000000E+20
 20
-1.0000000000E+20
 30
-1.0000000000E+20
  9
$PLIMMIN
 10
0.0
 20
0.0
  9
$PLIMMAX
 10
420.0
 20
297.0
  9
$UNITMODE
 70
     0
  9
$VISRETAIN
 70
     1
  9
$PLINEGEN
 70
     0
  9
$PSLTSCALE
 70
     1
  9
$TREEDEPTH
 70
  3020
  9
$CMLSTYLE
  2
Standard
  9
$CMLJUST
 70
     0
  9
$CMLSCALE
 40
20.0
  9
$PROXYGRAPHICS
 70
     1
  9
$MEASUREMENT
 70
     1
  9
$CELWEIGHT
370
    -1
  9
$ENDCAPS
280
     0
  9
$JOINSTYLE
280
     0
  9
$LWDISPLAY
290
     1
  9
$INSUNITS
 70
     4
  9
$HYPERLINKBASE
  1

  9
$STYLESHEET
  1

  9
$XEDIT
290
     1
  9
$CEPSNTYPE
380
     0
  9
$PSTYLEMODE
290
     1
  9
$FINGERPRINTGUID
  2
{AF754994-0D01-4EF1-A653-3C281241DC75}
  9
$VERSIONGUID
  2
{FAEB1C32-E019-11D5-929B-00C0DF256EC4}
  9
$EXTNAMES
290
     1
  9
$PSVPSCALE
 40
0.0
  9
$OLESTARTUP
290
     0
  0
ENDSEC
  0
SECTION
  2
CLASSES
  0
CLASS
  1
ACDBDICTIONARYWDFLT
  2
AcDbDictionaryWithDefault
  3
ObjectDBX Classes
 90
        0
280
     0
281
     0
  0
CLASS
  1
VISUALSTYLE
  2
AcDbVisualStyle
  3
ObjectDBX Classes
 90
     4095
280
     0
281
     0
  0
CLASS
  1
MATERIAL
  2
AcDbMaterial
  3
ObjectDBX Classes
 90
     1153
280
     0
281
     0
  0
CLASS
  1
SCALE
  2
AcDbScale
  3
ObjectDBX Classes
 90
     1153
280
     0
281
     0
  0
CLASS
  1
TABLESTYLE
  2
AcDbTableStyle
  3
ObjectDBX Classes
 90
     4095
280
     0
281
     0
  0
CLASS
  1
MLEADERSTYLE
  2
AcDbMLeaderStyle
  3
ACDB_MLEADERSTYLE_CLASS
 90
     4095
280
     0
281
     0
  0
CLASS
  1
SUN
  2
AcDbSun
  3
SCENEOE
 90
     1153
280
     0
281
     0
  0
CLASS
  1
ACDBPLACEHOLDER
  2
AcDbPlaceHolder
  3
ObjectDBX Classes
 90
        0
280
     0
281
     0
  0
CLASS
  1
LAYOUT
  2
AcDbLayout
  3
ObjectDBX Classes
 90
        0
280
     0
281
     0
  0
ENDSEC
  0
SECTION
  2
TABLES
  0
TABLE
  2
VPORT
  5
8
330
0
100
AcDbSymbolTable
 70
     1
  0
VPORT
  5
29
330
8
100
AcDbSymbolTableRecord
100
AcDbViewportTableRecord
  2
*Active
 70
     0
 10
0.0
 20
0.0
 11
1.0
 21
1.0
 12
148.5
 22
105.0
 13
0.0
 23
0.0
 14
10.0
 24
10.0
 15
10.0
 25
10.0
 16
0.0
 26
0.0
 36
1.0
 17
0.0
 27
0.0
 37
0.0
 40
210.0
 41
1.4142857143
 42
50.0
 43
0.0
 44
0.0
 50
0.0
 51
0.0
 71
     0
 72
  2000
 73
     1
 74
     3
 75
     0
 76
     0
 77
     0
 78
     0
281
     0
 65
     1
110
0.0
120
0.0
130
0.0
111
1.0
121
0.0
131
0.0
112
0.0
122
1.0
132
0.0
 79
     0
146
0.0
  0
ENDTAB
  0
TABLE
  2
LTYPE
  5
5
330
0
100
AcDbSymbolTable
 70
     6
  0
LTYPE
  5
14
330
5
100
AcDbSymbolTableRecord
100
AcDbLinetypeTableRecord
  2
ByBlock
 70
     0
  3

 72
    65
 73
     0
 40
0.0
  0
LTYPE
  5
15
330
5
100
AcDbSymbolTableRecord
100
AcDbLinetypeTableRecord
  2
ByLayer
 70
     0
  3

 72
    65
 73
     0
 40
0.0
  0
LTYPE
  5
16
330
5
100
AcDbSymbolTableRecord
100
AcDbLinetypeTableRecord
  2
Continuous
 70
     0
  3
Solid line
 72
    65
 73
     0
 40
0.0
  0
LTYPE
  5
6E
330
5
100
AcDbSymbolTableRecord
100
AcDbLinetypeTableRecord
  2
HIDDEN
 70
     0
  3
Hidden __ __ __ __ __ __ __ __ __ __ __ __ __ __
 72
    65
 73
     2
 40
1.905
 49
1.27
 74
     0
 49
-0.635
 74
     0
  0
LTYPE
  5
6F
330
5
100
AcDbSymbolTableRecord
100
AcDbLinetypeTableRecord
  2
PHANTOM
 70
     0
  3
Phantom ______  __  __  ______  __  __  ______
 72
    65
 73
     6
 40
12.7
 49
6.35
 74
     0
 49
-1.27
 74
     0
 49
1.27
 74
     0
 49
-1.27
 74
     0
 49
1.27
 74
     0
 49
-1.27
 74
     0
  0
LTYPE
  5
70
330
5
100
AcDbSymbolTableRecord
100
AcDbLinetypeTableRecord
  2
CENTER
 70
     0
  3
Center ____ _ ____ _ ____ _ ____ _ ____ _ ____
 72
    65
 73
     4
 40
10.16
 49
6.35
 74
     0
 49
-1.27
 74
     0
 49
1.27
 74
     0
 49
-1.27
 74
     0
  0
LTYPE
  5
71
330
5
100
AcDbSymbolTableRecord
100
AcDbLinetypeTableRecord
  2
CENTERX2
 70
     0
  3
Center (2x) ________  __  ________  __  _____
 72
    65
 73
     4
 40
20.32
 49
12.7
 74
     0
 49
-2.54
 74
     0
 49
2.54
 74
     0
 49
-2.54
 74
     0
  0
LTYPE
  5
72
330
5
100
AcDbSymbolTableRecord
100
AcDbLinetypeTableRecord
  2
DOT2
 70
     0
  3
Dot (.5x) ........................................
 72
    65
 73
     2
 40
0.635
 49
0.0
 74
     0
 49
-0.635
 74
     0
  0
ENDTAB
  0
TABLE
  2
LAYER
  5
2
330
0
100
AcDbSymbolTable
 70
     5
  0
LAYER
  5
10
330
2
100
AcDbSymbolTableRecord
100
AcDbLayerTableRecord
  2
0
 70
     0
 62
     7
  6
Continuous
370
    -3
390
F
  0
LAYER
  5
73
330
2
100
AcDbSymbolTableRecord
100
AcDbLayerTableRecord
  2
FORMAT
 70
     0
 62
     7
  6
Continuous
370
    -3
390
F
  0
LAYER
  5
74
330
2
100
AcDbSymbolTableRecord
100
AcDbLayerTableRecord
  2
VERMASSUNG
 70
     0
 62
     7
  6
Continuous
370
    -3
390
F
  0
LAYER
  5
75
330
2
100
AcDbSymbolTableRecord
100
AcDbLayerTableRecord
  2
KOPF_DÜNN
 70
     0
 62
     7
  6
Continuous
370
    -3
390
F
  0
LAYER
  5
76
330
2
100
AcDbSymbolTableRecord
100
AcDbLayerTableRecord
  2
KOPF_DICK
 70
     0
 62
     7
  6
Continuous
370
    15
390
F
  0
ENDTAB
  0
TABLE
  2
STYLE
  5
3
330
0
100
AcDbSymbolTable
 70
     2
  0
STYLE
  5
11
330
3
100
AcDbSymbolTableRecord
100
AcDbTextStyleTableRecord
  2
Standard
 70
     0
 40
0.0
 41
1.0
 50
0.0
 71
     0
 42
2.0
  3
txt
  4

  0
STYLE
  5
77
330
3
100
AcDbSymbolTableRecord
100
AcDbTextStyleTableRecord
  2
SLDTEXTSTYLE0
 70
     0
 40
0.0
 41
0.7
 50
0.0
 71
     0
 42
2.0
  3
TXT
  4

  0
ENDTAB
  0
TABLE
  2
VIEW
  5
6
330
0
100
AcDbSymbolTable
 70
     0
  0
ENDTAB
  0
TABLE
  2
UCS
  5
7
330
0
100
AcDbSymbolTable
 70
     0
  0
ENDTAB
  0
TABLE
  2
APPID
  5
9
330
0
100
AcDbSymbolTable
 70
     1
  0
APPID
  5
12
330
9
100
AcDbSymbolTableRecord
100
AcDbRegAppTableRecord
  2
ACAD
 70
     0
  0
ENDTAB
  0
TABLE
  2
DIMSTYLE
  5
A
330
0
100
AcDbSymbolTable
 70
     2
100
AcDbDimStyleTable
  0
DIMSTYLE
105
27
330
A
100
AcDbSymbolTableRecord
100
AcDbDimStyleTableRecord
  2
ISO-25
 70
     0
 41
2.5
 42
0.625
 43
3.75
 44
1.25
 73
     0
 74
     0
 77
     1
 78
     8
140
2.5
141
2.5
143
0.0393700787
147
0.625
171
     3
172
     1
178
     0
271
     2
272
     2
274
     3
278
    44
283
     0
284
     8
340
11
  0
DIMSTYLE
105
1D7
102
{ACAD_REACTORS
330
1D6
330
1E3
330
1EF
330
1F9
330
203
102
}
330
A
100
AcDbSymbolTableRecord
100
AcDbDimStyleTableRecord
  2
SLDDIMSTYLE0
 70
     0
 41
3.0
 44
0.0
 45
0.000000001
 73
     0
 74
     0
 77
     1
 78
    12
 79
     3
140
2.0
147
0.5
173
     1
178
     0
271
     2
272
     3
276
     2
284
    12
340
77
  0
ENDTAB
  0
TABLE
  2
BLOCK_RECORD
  5
1
330
0
100
AcDbSymbolTable
 70
     6
  0
BLOCK_RECORD
  5
1F
330
1
100
AcDbSymbolTableRecord
100
AcDbBlockTableRecord
  2
*Model_Space
340
22
  0
BLOCK_RECORD
  5
1B
330
1
100
AcDbSymbolTableRecord
100
AcDbBlockTableRecord
  2
*Paper_Space
340
1E
  0
BLOCK_RECORD
  5
23
330
1
100
AcDbSymbolTableRecord
100
AcDbBlockTableRecord
  2
*Paper_Space0
340
26
  0
BLOCK_RECORD
  5
1D8
330
1
100
AcDbSymbolTableRecord
100
AcDbBlockTableRecord
  2
_D
340
0
  0
BLOCK_RECORD
  5
1E4
330
1
100
AcDbSymbolTableRecord
100
AcDbBlockTableRecord
  2
_D_1
340
0
  0
BLOCK_RECORD
  5
1F0
330
1
100
AcDbSymbolTableRecord
100
AcDbBlockTableRecord
  2
_D_2
340
0
  0
BLOCK_RECORD
  5
1FA
330
1
100
AcDbSymbolTableRecord
100
AcDbBlockTableRecord
  2
_D_3
340
0
  0
BLOCK_RECORD
  5
204
330
1
100
AcDbSymbolTableRecord
100
AcDbBlockTableRecord
  2
_D_4
340
0
  0
ENDTAB
  0
ENDSEC
  0
SECTION
  2
BLOCKS
  0
BLOCK
  5
20
330
1F
100
AcDbEntity
  8
0
100
AcDbBlockBegin
  2
*Model_Space
 70
     0
 10
0.0
 20
0.0
 30
0.0
  3
*Model_Space
  1

  0
ENDBLK
  5
21
330
1F
100
AcDbEntity
  8
0
100
AcDbBlockEnd
  0
BLOCK
  5
1C
330
1B
100
AcDbEntity
 67
     1
  8
0
100
AcDbBlockBegin
  2
*Paper_Space
 70
     0
 10
0.0
 20
0.0
 30
0.0
  3
*Paper_Space
  1

  0
ENDBLK
  5
1D
330
1B
100
AcDbEntity
 67
     1
  8
0
100
AcDbBlockEnd
  0
BLOCK
  5
24
330
23
100
AcDbEntity
  8
0
100
AcDbBlockBegin
  2
*Paper_Space0
 70
     0
 10
0.0
 20
0.0
 30
0.0
  3
*Paper_Space0
  1

  0
ENDBLK
  5
25
330
23
100
AcDbEntity
  8
0
100
AcDbBlockEnd
  0
BLOCK
  5
1D9
330
1D8
100
AcDbEntity
  8
0
100
AcDbBlockBegin
  2
_D
 70
     0
 10
0.0
 20
0.0
 30
0.0
  3
_D
  1

  0
SOLID
  5
1DB
330
1D8
100
AcDbEntity
  8
VERMASSUNG
100
AcDbTrace
 10
25.9161785298
 20
67.0827692151
 30
0.0
 11
26.3661785298
 21
70.0827692151
 31
0.0
 12
25.4661785298
 22
70.0827692151
 32
0.0
 13
25.4661785298
 23
70.0827692151
 33
0.0
  0
SOLID
  5
1DC
330
1D8
100
AcDbEntity
  8
VERMASSUNG
100
AcDbTrace
 10
25.9161785298
 20
164.5327692151
 30
0.0
 11
25.4661785298
 21
161.5327692151
 31
0.0
 12
26.3661785298
 22
161.5327692151
 32
0.0
 13
26.3661785298
 23
161.5327692151
 33
0.0
  0
LINE
  5
1DD
330
1D8
100
AcDbEntity
  8
VERMASSUNG
100
AcDbLine
 10
153.9850965092
 20
67.0827692151
 30
0.0
 11
24.9161785298
 21
67.0827692151
 31
0.0
  0
LINE
  5
1DE
330
1D8
100
AcDbEntity
  8
VERMASSUNG
100
AcDbLine
 10
153.9850965092
 20
164.5327692151
 30
0.0
 11
24.9161785298
 21
164.5327692151
 31
0.0
  0
LINE
  5
1DF
330
1D8
100
AcDbEntity
  8
VERMASSUNG
100
AcDbLine
 10
25.9161785298
 20
67.0827692151
 30
0.0
 11
25.9161785298
 21
164.5327692151
 31
0.0
  0
MTEXT
  5
1E0
330
1D8
100
AcDbEntity
  8
VERMASSUNG
100
AcDbMText
 10
23.1380432736
 20
106.3033335817
 30
0.0
 40
2.0
 41
0.0
 71
     1
 72
     1
  1
ISO 50
  7
SLDTEXTSTYLE0
 11
3.391901413832837E-15
 21
1.0
 31
0.0
 73
     1
 44
1.0
  0
MTEXT
  5
1E1
330
1D8
100
AcDbEntity
  8
VERMASSUNG
100
AcDbMText
 10
23.3380432249
 20
115.3033331943
 30
0.0
 40
2.0
 41
0.0
 71
     1
 72
     1
  1
%%c
  7
SLDTEXTSTYLE0
 11
3.391901413832837E-15
 21
1.0
 31
0.0
 73
     1
 44
1.0
  0
MTEXT
  5
1E2
330
1D8
100
AcDbEntity
  8
VERMASSUNG
100
AcDbMText
 10
23.3380429338
 20
118.9126765271
 30
0.0
 40
2.0
 41
0.0
 71
     1
 72
     1
  1
97.45
  7
SLDTEXTSTYLE0
 11
3.391901413832837E-15
 21
1.0
 31
0.0
 73
     1
 44
1.0
  0
ENDBLK
  5
1DA
330
1D8
100
AcDbEntity
  8
0
100
AcDbBlockEnd
  0
BLOCK
  5
1E5
330
1E4
100
AcDbEntity
  8
0
100
AcDbBlockBegin
  2
_D_1
 70
     0
 10
0.0
 20
0.0
 30
0.0
  3
_D_1
  1

  0
ARC
  5
1E7
330
1E4
100
AcDbEntity
  8
VERMASSUNG
100
AcDbCircle
 10
153.2965182394
 20
186.5355389498
 30
0.0
 40
4.247059938537323
100
AcDbArc
 50
153.4349488229
 51
206.5650511771
  0
ARC
  5
1E8
330
1E4
100
AcDbEntity
  8
VERMASSUNG
100
AcDbCircle
 10
155.2736747791
 20
186.5355389498
 30
0.0
 40
4.247059938537297
100
AcDbArc
 50
333.4349488229
 51
26.5650511771
  0
SOLID
  5
1E9
330
1E4
100
AcDbEntity
  8
VERMASSUNG
100
AcDbTrace
 10
33.9350965092
 20
184.6361960044
 30
0.0
 11
36.9350965092
 21
184.1861960044
 31
0.0
 12
36.9350965092
 22
185.0861960044
 32
0.0
 13
36.9350965092
 23
185.0861960044
 33
0.0
  0
SOLID
  5
1EA
330
1E4
100
AcDbEntity
  8
VERMASSUNG
100
AcDbTrace
 10
274.6350965092
 20
184.6361960044
 30
0.0
 11
271.6350965092
 21
185.0861960044
 31
0.0
 12
271.6350965092
 22
184.1861960044
 32
0.0
 13
271.6350965092
 23
184.1861960044
 33
0.0
  0
LINE
  5
1EB
330
1E4
100
AcDbEntity
  8
VERMASSUNG
100
AcDbLine
 10
33.9350965092
 20
134.1866137425
 30
0.0
 11
33.9350965092
 21
185.6361960044
 31
0.0
  0
LINE
  5
1EC
330
1E4
100
AcDbEntity
  8
VERMASSUNG
100
AcDbLine
 10
274.6350965092
 20
151.1077692151
 30
0.0
 11
274.6350965092
 21
185.6361960044
 31
0.0
  0
LINE
  5
1ED
330
1E4
100
AcDbEntity
  8
VERMASSUNG
100
AcDbLine
 10
33.9350965092
 20
184.6361960044
 30
0.0
 11
274.6350965092
 21
184.6361960044
 31
0.0
  0
MTEXT
  5
1EE
330
1E4
100
AcDbEntity
  8
VERMASSUNG
100
AcDbMText
 10
151.0853323486
 20
187.2143316004
 30
0.0
 40
2.0
 41
0.0
 71
     1
 72
     1
  1
240.7
  7
SLDTEXTSTYLE0
 73
     1
 44
1.0
  0
ENDBLK
  5
1E6
330
1E4
100
AcDbEntity
  8
0
100
AcDbBlockEnd
  0
BLOCK
  5
1F1
330
1F0
100
AcDbEntity
  8
0
100
AcDbBlockBegin
  2
_D_2
 70
     0
 10
0.0
 20
0.0
 30
0.0
  3
_D_2
  1

  0
SOLID
  5
1F3
330
1F0
100
AcDbEntity
  8
VERMASSUNG
100
AcDbTrace
 10
135.5350965092
 20
178.6361960044
 30
0.0
 11
138.5350965092
 21
178.1861960044
 31
0.0
 12
138.5350965092
 22
179.0861960044
 32
0.0
 13
138.5350965092
 23
179.0861960044
 33
0.0
  0
SOLID
  5
1F4
330
1F0
100
AcDbEntity
  8
VERMASSUNG
100
AcDbTrace
 10
274.6350965092
 20
178.6361960044
 30
0.0
 11
271.6350965092
 21
179.0861960044
 31
0.0
 12
271.6350965092
 22
178.1861960044
 32
0.0
 13
271.6350965092
 23
178.1861960044
 33
0.0
  0
LINE
  5
1F5
330
1F0
100
AcDbEntity
  8
VERMASSUNG
100
AcDbLine
 10
135.5350965092
 20
150.7327692151
 30
0.0
 11
135.5350965092
 21
179.6361960044
 31
0.0
  0
LINE
  5
1F6
330
1F0
100
AcDbEntity
  8
VERMASSUNG
100
AcDbLine
 10
274.6350965092
 20
151.1077692151
 30
0.0
 11
274.6350965092
 21
179.6361960044
 31
0.0
  0
LINE
  5
1F7
330
1F0
100
AcDbEntity
  8
VERMASSUNG
100
AcDbLine
 10
135.5350965092
 20
178.6361960044
 30
0.0
 11
274.6350965092
 21
178.6361960044
 31
0.0
  0
MTEXT
  5
1F8
330
1F0
100
AcDbEntity
  8
VERMASSUNG
100
AcDbMText
 10
202.3860882703
 20
181.2143316004
 30
0.0
 40
2.0
 41
0.0
 71
     1
 72
     1
  1
139.1
  7
SLDTEXTSTYLE0
 73
     1
 44
1.0
  0
ENDBLK
  5
1F2
330
1F0
100
AcDbEntity
  8
0
100
AcDbBlockEnd
  0
BLOCK
  5
1FB
330
1FA
100
AcDbEntity
  8
0
100
AcDbBlockBegin
  2
_D_3
 70
     0
 10
0.0
 20
0.0
 30
0.0
  3
_D_3
  1

  0
SOLID
  5
1FD
330
1FA
100
AcDbEntity
  8
VERMASSUNG
100
AcDbTrace
 10
154.5850965092
 20
172.6361960044
 30
0.0
 11
157.5850965092
 21
172.1861960044
 31
0.0
 12
157.5850965092
 22
173.0861960044
 32
0.0
 13
157.5850965092
 23
173.0861960044
 33
0.0
  0
SOLID
  5
1FE
330
1FA
100
AcDbEntity
  8
VERMASSUNG
100
AcDbTrace
 10
274.6350965092
 20
172.6361960044
 30
0.0
 11
271.6350965092
 21
173.0861960044
 31
0.0
 12
271.6350965092
 22
172.1861960044
 32
0.0
 13
271.6350965092
 23
172.1861960044
 33
0.0
  0
LINE
  5
1FF
330
1FA
100
AcDbEntity
  8
VERMASSUNG
100
AcDbLine
 10
154.5850965092
 20
162.1027561683
 30
0.0
 11
154.5850965092
 21
173.6361960044
 31
0.0
  0
LINE
  5
200
330
1FA
100
AcDbEntity
  8
VERMASSUNG
100
AcDbLine
 10
274.6350965092
 20
151.1077692151
 30
0.0
 11
274.6350965092
 21
173.6361960044
 31
0.0
  0
LINE
  5
201
330
1FA
100
AcDbEntity
  8
VERMASSUNG
100
AcDbLine
 10
154.5850965092
 20
172.6361960044
 30
0.0
 11
274.6350965092
 21
172.6361960044
 31
0.0
  0
MTEXT
  5
202
330
1FA
100
AcDbEntity
  8
VERMASSUNG
100
AcDbMText
 10
211.0110511951
 20
175.2143316004
 30
0.0
 40
2.0
 41
0.0
 71
     1
 72
     1
  1
120.05
  7
SLDTEXTSTYLE0
 73
     1
 44
1.0
  0
ENDBLK
  5
1FC
330
1FA
100
AcDbEntity
  8
0
100
AcDbBlockEnd
  0
BLOCK
  5
205
330
204
100
AcDbEntity
  8
0
100
AcDbBlockBegin
  2
_D_4
 70
     0
 10
0.0
 20
0.0
 30
0.0
  3
_D_4
  1

  0
SOLID
  5
207
330
204
100
AcDbEntity
  8
VERMASSUNG
100
AcDbTrace
 10
282.6830468644
 20
151.8077692151
 30
0.0
 11
282.2330468644
 21
148.8077692151
 31
0.0
 12
283.1330468644
 22
148.8077692151
 32
0.0
 13
283.1330468644
 23
148.8077692151
 33
0.0
  0
SOLID
  5
208
330
204
100
AcDbEntity
  8
VERMASSUNG
100
AcDbTrace
 10
282.6830468644
 20
79.8077692151
 30
0.0
 11
283.1330468644
 21
82.8077692151
 31
0.0
 12
282.2330468644
 22
82.8077692151
 32
0.0
 13
282.2330468644
 23
82.8077692151
 33
0.0
  0
LINE
  5
209
330
204
100
AcDbEntity
  8
VERMASSUNG
100
AcDbLine
 10
273.9350965092
 20
151.8077692151
 30
0.0
 11
283.6830468644
 21
151.8077692151
 31
0.0
  0
LINE
  5
20A
330
204
100
AcDbEntity
  8
VERMASSUNG
100
AcDbLine
 10
273.9350965092
 20
79.8077692151
 30
0.0
 11
283.6830468644
 21
79.8077692151
 31
0.0
  0
LINE
  5
20B
330
204
100
AcDbEntity
  8
VERMASSUNG
100
AcDbLine
 10
282.6830468644
 20
151.8077692151
 30
0.0
 11
282.6830468644
 21
79.8077692151
 31
0.0
  0
MTEXT
  5
20C
330
204
100
AcDbEntity
  8
VERMASSUNG
100
AcDbMText
 10
279.9049116082
 20
109.4027695715
 30
0.0
 40
2.0
 41
0.0
 71
     1
 72
     1
  1
MBM
  7
SLDTEXTSTYLE0
 11
-7.044195017643634E-15
 21
1.0
 31
0.0
 73
     1
 44
1.0
  0
MTEXT
  5
20D
330
204
100
AcDbEntity
  8
VERMASSUNG
100
AcDbMText
 10
280.1049115595
 20
115.8027694098
 30
0.0
 40
2.0
 41
0.0
 71
     1
 72
     1
  1
%%c
  7
SLDTEXTSTYLE0
 11
-7.044195017643634E-15
 21
1.0
 31
0.0
 73
     1
 44
1.0
  0
MTEXT
  5
20E
330
204
100
AcDbEntity
  8
VERMASSUNG
100
AcDbMText
 10
279.9049116082
 20
119.4127698898
 30
0.0
 40
2.0
 41
0.0
 71
     1
 72
     1
  1
72
  7
SLDTEXTSTYLE0
 11
-7.044195017643634E-15
 21
1.0
 31
0.0
 73
     1
 44
1.0
  0
ENDBLK
  5
206
330
204
100
AcDbEntity
  8
0
100
AcDbBlockEnd
  0
ENDSEC
  0
SECTION
  2
ENTITIES
  0
MTEXT
  5
78
330
1F
100
AcDbEntity
  8
KOPF_DÜNN
100
AcDbMText
 10
13.8892156294
 20
23.8442973028
 30
0.0
 40
3.0
 41
0.0
 71
     1
 72
     1
  1
102.525.722
  7
SLDTEXTSTYLE0
 73
     1
 44
1.0
  0
MTEXT
  5
79
330
1F
100
AcDbEntity
  8
VERMASSUNG
100
AcDbMText
 10
13.9329988022
 20
28.8834360957
 30
0.0
 40
3.0
 41
0.0
 71
     1
 72
     1
  1
Aufnahme_Master shank MBM 72
  7
SLDTEXTSTYLE0
 73
     1
 44
1.0
  0
MTEXT
  5
7A
330
1F
100
AcDbEntity
  8
VERMASSUNG
100
AcDbMText
 10
98.8601118557
 20
13.8365368761
 30
0.0
 40
2.0
 41
0.0
 71
     1
 72
     1
  1
Datum: 01.11.2007
  7
SLDTEXTSTYLE0
 73
     1
 44
1.0
  0
MTEXT
  5
7B
330
1F
100
AcDbEntity
  8
VERMASSUNG
100
AcDbMText
 10
13.933048693
 20
18.0482802738
 30
0.0
 40
2.0
 41
0.0
 71
     1
 72
     1
  1
DIN 69871 B 50
  7
SLDTEXTSTYLE0
 73
     1
 44
1.0
  0
MTEXT
  5
7C
330
1F
100
AcDbEntity
  8
VERMASSUNG
100
AcDbMText
 10
13.9808475933
 20
13.9090974274
 30
0.0
 40
2.0
 41
0.0
 71
     1
 72
     1
  1
Gewicht: 5969g
  7
SLDTEXTSTYLE0
 73
     1
 44
1.0
  0
LINE
  5
7D
330
1F
100
AcDbEntity
  8
0
  6
Continuous
 62
     7
370
    15
100
AcDbLine
 10
167.3909441958
 20
79.8077707648
 30
0.0
 11
273.9350998233
 21
79.8077707648
 31
0.0
  0
LINE
  5
7E
330
1F
100
AcDbEntity
  8
0
  6
Continuous
 62
     7
370
    15
100
AcDbLine
 10
273.9350998233
 20
151.8077676654
 30
0.0
 11
157.7255425433
 21
151.8077676654
 31
0.0
  0
LINE
  5
7F
330
1F
100
AcDbEntity
  8
0
  6
Continuous
 62
     7
370
    15
100
AcDbLine
 10
273.9350998233
 20
79.8077707648
 30
0.0
 11
274.6350967715
 21
80.507767713
 31
0.0
  0
LINE
  5
80
330
1F
100
AcDbEntity
  8
0
  6
Continuous
 62
     7
370
    15
100
AcDbLine
 10
274.6350967715
 20
151.1077707171
 30
0.0
 11
273.9350998233
 21
151.8077676654
 31
0.0
  0
ARC
  5
81
330
1F
100
AcDbEntity
  8
0
  6
Continuous
 62
     7
370
    15
100
AcDbCircle
 10
138.1350965092
 20
80.2827692151
 30
0.0
 40
0.5999999999999943
100
AcDbArc
 50
0.0
 51
90.0
  0
ARC
  5
82
330
1F
100
AcDbEntity
  8
0
  6
Continuous
 62
     7
370
    15
100
AcDbCircle
 10
138.1350965092
 20
151.3327692151
 30
0.0
 40
0.6000000000000227
100
AcDbArc
 50
270.0
 51
0.0
  0
LINE
  5
83
330
1F
100
AcDbEntity
  8
0
  6
Continuous
 62
     7
370
    15
100
AcDbLine
 10
135.5350965092
 20
80.8827703357
 30
0.0
 11
138.1350965163
 21
80.8827703357
 31
0.0
  0
LINE
  5
84
330
1F
100
AcDbEntity
  8
0
  6
Continuous
 62
     7
370
    15
100
AcDbLine
 10
138.1350965163
 20
150.7327680945
 30
0.0
 11
135.5350965092
 21
150.7327680945
 31
0.0
  0
LINE
  5
85
330
1F
100
AcDbEntity
  8
0
  6
Continuous
 62
     7
370
    15
100
AcDbLine
 10
135.5350965092
 20
150.7327680945
 30
0.0
 11
35.646481199
 21
136.1656797588
 31
0.0
  0
LINE
  5
86
330
1F
100
AcDbEntity
  8
0
  6
Continuous
 62
     7
370
    15
100
AcDbLine
 10
35.646481199
 20
95.4498586714
 30
0.0
 11
135.5350965092
 21
80.8827703357
 31
0.0
  0
ARC
  5
87
330
1F
100
AcDbEntity
  8
0
  6
Continuous
 62
     7
370
    15
100
AcDbCircle
 10
35.9350965092
 20
97.4289246877
 30
0.0
 40
1.999999999999993
100
AcDbArc
 50
180.0
 51
261.7028550302
  0
ARC
  5
88
330
1F
100
AcDbEntity
  8
0
  6
Continuous
 62
     7
370
    15
100
AcDbCircle
 10
35.9350965092
 20
134.1866137425
 30
0.0
 40
1.999999999999993
100
AcDbArc
 50
98.2971449698
 51
180.0
  0
SPLINE
  5
89
330
1F
100
AcDbEntity
  8
0
  6
Continuous
 62
     7
370
    15
100
AcDbSpline
210
0.0
220
0.0
230
1.0
 70
     8
 71
     3
 72
    13
 73
     9
 74
     0
 42
0.000000001
 43
0.00000001
 40
0.0
 40
0.0
 40
0.0
 40
0.0
 40
0.0127798990765281
 40
0.092273346689302
 40
0.1887516987551405
 40
0.3471119000170722
 40
0.6815091071571721
 40
1.0
 40
1.0
 40
1.0
 40
1.0
 10
154.8364607075673
 20
152.5861149191621
 30
0.0
 10
154.8367284864078
 20
152.5854851738129
 30
0.0
 10
154.8386619015026
 20
152.5809382904149
 30
0.0
 10
154.82865561001
 20
152.6046645104788
 30
0.0
 10
154.8032826551754
 20
152.6682890502312
 30
0.0
 10
154.7455242069317
 20
152.8299268272981
 30
0.0
 10
154.6648195818855
 20
153.09070880146
 30
0.0
 10
154.6420784267399
 20
153.3115696260985
 30
0.0
 10
154.630984870575
 20
153.4193096220258
 30
0.0
  0
SPLINE
  5
8A
330
1F
100
AcDbEntity
  8
0
  6
Continuous
 62
     7
370
    15
100
AcDbSpline
210
0.0
220
0.0
230
1.0
 70
     8
 71
     3
 72
    21
 73
    17
 74
     0
 42
0.000000001
 43
0.00000001
 40
0.0
 40
0.0
 40
0.0
 40
0.0
 40
0.0360389553246001
 40
0.0876025891883597
 40
0.133139672595812
 40
0.1718861950463911
 40
0.2023123056810517
 40
0.223143762803253
 40
0.2361248964705853
 40
0.250773856550734
 40
0.2756859997095381
 40
0.3275771591146645
 40
0.42217516825711
 40
0.6022118591513876
 40
0.8906530878258729
 40
1.0
 40
1.0
 40
1.0
 40
1.0
 10
157.7262708375674
 20
151.822225517011
 30
0.0
 10
157.5784142471765
 20
151.8205158620682
 30
0.0
 10
157.2190081536828
 20
151.8163600756904
 30
0.0
 10
156.681085890284
 20
151.9287967699867
 30
0.0
 10
156.1541129078674
 20
152.1091549788091
 30
0.0
 10
155.7341637812883
 20
152.3200156956179
 30
0.0
 10
155.4259561085488
 20
152.5175620113439
 30
0.0
 10
155.2310701581071
 20
152.6654347205522
 30
0.0
 10
155.1287730852469
 20
152.7499094339483
 30
0.0
 10
155.0559398904226
 20
152.8130025194128
 30
0.0
 10
154.9793259483681
 20
152.882782560138
 30
0.0
 10
154.8958548848614
 20
152.9637662809203
 30
0.0
 10
154.7916395776074
 20
153.0742690918571
 30
0.0
 10
154.6865449827068
 20
153.2062239098362
 30
0.0
 10
154.625020826015
 20
153.3160037859321
 30
0.0
 10
154.615224524153
 20
153.3534410007659
 30
0.0
 10
154.6125316450816
 20
153.363732016063
 30
0.0
  0
ARC
  5
8B
330
1F
100
AcDbEntity
  8
0
  6
Continuous
 62
     7
370
    15
100
AcDbCircle
 10
149.7350965092
 20
101.3420272531
 30
0.0
 40
2.000000000000007
100
AcDbArc
 50
192.2156859339
 51
340.4206183739
  0
SPLINE
  5
8C
330
1F
100
AcDbEntity
  8
0
  6
Continuous
 62
     7
370
    15
100
AcDbSpline
210
0.0
220
0.0
230
1.0
 70
     8
 71
     3
 72
    10
 73
     6
 74
     0
 42
0.000000001
 43
0.00000001
 40
0.0
 40
0.0
 40
0.0
 40
0.0
 40
0.5
 40
0.5
 40
1.0
 40
1.0
 40
1.0
 40
1.0
 10
138.9507565403943
 20
69.17431494789119
 30
0.0
 10
138.9994071089739
 20
69.14635795662377
 30
0.0
 10
139.0567923209333
 20
69.122415671597
 30
0.0
 10
139.1875054290994
 20
69.08829720850125
 30
0.0
 10
139.260244962838
 20
69.07850987373742
 30
0.0
 10
139.3350965092402
 20
69.07850987373743
 30
0.0
  0
SPLINE
  5
8D
330
1F
100
AcDbEntity
  8
0
  6
Continuous
 62
     7
370
    15
100
AcDbSpline
210
0.0
220
0.0
230
1.0
 70
     8
 71
     3
 72
    10
 73
     6
 74
     0
 42
0.000000001
 43
0.00000001
 40
0.0
 40
0.0
 40
0.0
 40
0.0
 40
0.5
 40
0.5
 40
1.0
 40
1.0
 40
1.0
 40
1.0
 10
138.9507565403943
 20
69.17431494789118
 30
0.0
 10
138.892568533812
 20
69.24189867807002
 30
0.0
 10
138.8401260672858
 20
69.32237491271177
 30
0.0
 10
138.7617737601071
 20
69.50541053569451
 30
0.0
 10
138.7350965092402
 20
69.61128623849012
 30
0.0
 10
138.7350965092402
 20
69.71879954771073
 30
0.0
  0
LINE
  5
8E
330
1F
100
AcDbEntity
  8
0
  6
Continuous
 62
     7
370
    15
100
AcDbLine
 10
138.7350964284
 20
69.7187980175
 30
0.0
 11
138.7350964284
 21
145.6577697307
 31
0.0
  0
SPLINE
  5
8F
330
1F
100
AcDbEntity
  8
0
  6
Continuous
 62
     7
370
    15
100
AcDbSpline
210
0.0
220
0.0
230
1.0
 70
    24
 71
     3
 72
    12
 73
     8
 74
     0
 42
0.000000001
 43
0.00000001
 40
0.0
 40
0.0
 40
0.0
 40
0.0
 40
0.25
 40
0.25
 40
0.5
 40
0.5
 40
1.0
 40
1.0
 40
1.0
 40
1.0
 10
139.3350965092402
 20
145.6577692150834
 30
0.0
 10
139.2446868744772
 20
145.6577692150834
 30
0.0
 10
139.1564619493502
 20
145.6577692150834
 30
0.0
 10
139.002788007842
 20
145.6577692150834
 30
0.0
 10
138.9371847880806
 20
145.6577692150834
 30
0.0
 10
138.783297447756
 20
145.6577692150834
 30
0.0
 10
138.7350965092402
 20
145.6577692150834
 30
0.0
 10
138.7350965092402
 20
145.6577692150834
 30
0.0
  0
LINE
  5
90
330
1F
100
AcDbEntity
  8
0
  6
Continuous
 62
     7
370
    15
100
AcDbLine
 10
149.8682580347
 20
101.5106219336
 30
0.0
 11
149.8682580347
 21
145.6577697307
 31
0.0
  0
LINE
  5
91
330
1F
100
AcDbEntity
  8
0
  6
Continuous
 62
     7
370
    15
100
AcDbLine
 10
153.9850959013
 20
145.6577697307
 30
0.0
 11
149.8682580347
 21
145.6577697307
 31
0.0
  0
LINE
  5
92
330
1F
100
AcDbEntity
  8
0
  6
Continuous
 62
     7
370
    15
100
AcDbLine
 10
149.8682580347
 20
69.0785100221
 30
0.0
 11
153.9850959013
 21
69.0785100221
 31
0.0
  0
LINE
  5
93
330
1F
100
AcDbEntity
  8
0
  6
Continuous
 62
     7
370
    15
100
AcDbLine
 10
149.8682580347
 20
69.0785100221
 30
0.0
 11
149.8682580347
 21
96.8188283503
 31
0.0
  0
SPLINE
  5
94
330
1F
100
AcDbEntity
  8
0
  6
Continuous
 62
     7
370
    15
100
AcDbSpline
210
0.0
220
0.0
230
1.0
 70
     8
 71
     3
 72
    34
 73
    30
 74
     0
 42
0.000000001
 43
0.00000001
 40
0.0
 40
0.0
 40
0.0
 40
0.0
 40
0.0624999999999989
 40
0.0624999999999989
 40
0.1249999999999978
 40
0.1249999999999978
 40
0.1874999999999968
 40
0.1874999999999968
 40
0.2499999999999962
 40
0.2499999999999962
 40
0.3124999999999957
 40
0.3124999999999957
 40
0.3749999999999952
 40
0.3749999999999952
 40
0.499999999999995
 40
0.499999999999995
 40
0.6249999999999948
 40
0.6249999999999948
 40
0.6874999999999954
 40
0.6874999999999954
 40
0.749999999999996
 40
0.749999999999996
 40
0.8124999999999966
 40
0.8124999999999966
 40
0.8749999999999977
 40
0.8749999999999977
 40
0.9374999999999989
 40
0.9374999999999989
 40
1.0
 40
1.0
 40
1.0
 40
1.0
 10
149.8682580167021
 20
96.81882882708224
 30
0.0
 10
150.02764984449
 20
96.82666892300503
 30
0.0
 10
150.1836523279335
 20
96.84832757109547
 30
0.0
 10
150.4891618440108
 20
96.91817579858827
 30
0.0
 10
150.640056179023
 20
96.96700150091651
 30
0.0
 10
150.9279555237138
 20
97.08992545432382
 30
0.0
 10
151.0639019266735
 20
97.16323296245814
 30
0.0
 10
151.3200845422656
 20
97.33324358622949
 30
0.0
 10
151.4412668300247
 20
97.43111737843095
 30
0.0
 10
151.6584129018974
 20
97.64370155386291
 30
0.0
 10
151.7553747748578
 20
97.75874749239252
 30
0.0
 10
151.9259372106833
 20
98.00660861251265
 30
0.0
 10
151.9991772638953
 20
98.13964210957823
 30
0.0
 10
152.1740577206441
 20
98.54915012570838
 30
0.0
 10
152.2350956816201
 20
98.84711077548343
 30
0.0
 10
152.2350973368431
 20
99.43855233135788
 30
0.0
 10
152.1740627272568
 20
99.73872588133447
 30
0.0
 10
151.9991729598549
 20
100.1539571616022
 30
0.0
 10
151.9259292544305
 20
100.2893122798491
 30
0.0
 10
151.7553685386939
 20
100.5422116112357
 30
0.0
 10
151.6584048231004
 20
100.6599768888435
 30
0.0
 10
151.4412444945132
 20
100.8781071842121
 30
0.0
 10
151.3200632358264
 20
100.9788105093591
 30
0.0
 10
151.0638930088877
 20
101.1540542021923
 30
0.0
 10
150.9279496592249
 20
101.2297991712829
 30
0.0
 10
150.6400469560418
 20
101.3569675465852
 30
0.0
 10
150.4891567601251
 20
101.4075688189127
 30
0.0
 10
150.1836512564194
 20
101.4799979186605
 30
0.0
 10
150.0276498581559
 20
101.5024836900575
 30
0.0
 10
149.8682580167021
 20
101.5106221499523
 30
0.0
  0
SPLINE
  5
95
330
1F
100
AcDbEntity
  8
0
  6
Continuous
 62
     7
370
    15
100
AcDbSpline
210
0.0
220
0.0
230
1.0
 70
     8
 71
     3
 72
     8
 73
     4
 74
     0
 42
0.000000001
 43
0.00000001
 40
0.0
 40
0.0
 40
0.0
 40
0.0
 40
1.0
 40
1.0
 40
1.0
 40
1.0
 10
144.7250965092402
 20
71.18802980625365
 30
0.0
 10
144.4353680632157
 20
70.66580979609012
 30
0.0
 10
144.1453429129979
 20
70.14375641383016
 30
0.0
 10
143.8550486787361
 20
69.62185414810706
 30
0.0
  0
SPLINE
  5
96
330
1F
100
AcDbEntity
  8
0
  6
Continuous
 62
     7
370
    15
100
AcDbSpline
210
0.0
220
0.0
230
1.0
 70
     8
 71
     3
 72
     8
 73
     4
 74
     0
 42
0.000000001
 43
0.00000001
 40
0.0
 40
0.0
 40
0.0
 40
0.0
 40
0.0011862984959113
 40
0.0011862984959113
 40
0.0011862984959113
 40
0.0011862984959113
 10
143.4019350017783
 20
69.07850987373743
 30
0.0
 10
143.5539597636491
 20
69.25942172335542
 30
0.0
 10
143.705017208865
 20
69.44053405379626
 30
0.0
 10
143.8550486787361
 20
69.62185414810706
 30
0.0
  0
LINE
  5
97
330
1F
100
AcDbEntity
  8
0
  6
Continuous
 62
     7
370
    15
100
AcDbLine
 10
143.4019354562
 20
69.0785100221
 30
0.0
 11
143.4019354562
 21
145.6577697307
 31
0.0
  0
SPLINE
  5
98
330
1F
100
AcDbEntity
  8
0
  6
Continuous
 62
     7
370
    15
100
AcDbSpline
210
0.0
220
0.0
230
1.0
 70
    24
 71
     3
 72
     8
 73
     4
 74
     0
 42
0.000000001
 43
0.00000001
 40
0.0
 40
0.0
 40
0.0
 40
0.0
 40
1.0
 40
1.0
 40
1.0
 40
1.0
 10
144.7250965092402
 20
145.6577692150834
 30
0.0
 10
144.2898964045366
 20
145.6577692150834
 30
0.0
 10
143.8485367217977
 20
145.6577692150834
 30
0.0
 10
143.4019350017783
 20
145.6577692150834
 30
0.0
  0
LINE
  5
99
330
1F
100
AcDbEntity
  8
0
  6
Continuous
 62
     7
370
    15
100
AcDbLine
 10
144.7250961716
 20
71.1880301594
 30
0.0
 11
144.7250961716
 21
145.6577697307
 31
0.0
  0
LINE
  5
9A
330
1F
100
AcDbEntity
  8
0
  6
Continuous
 62
     7
370
    15
100
AcDbLine
 10
139.3350965733
 20
69.0785100221
 30
0.0
 11
143.4019354562
 21
69.0785100221
 31
0.0
  0
LINE
  5
9B
330
1F
100
AcDbEntity
  8
0
  6
Continuous
 62
     7
370
    15
100
AcDbLine
 10
143.4019354562
 20
145.6577697307
 30
0.0
 11
139.3350965733
 21
145.6577697307
 31
0.0
  0
LINE
  5
9C
330
1F
100
AcDbEntity
  8
0
  6
Continuous
 62
     7
370
    15
100
AcDbLine
 10
148.5450963879
 20
102.0105074629
 30
0.0
 11
148.5450963879
 21
145.6577697307
 31
0.0
  0
SPLINE
  5
9D
330
1F
100
AcDbEntity
  8
0
  6
Continuous
 62
     7
370
    15
100
AcDbSpline
210
0.0
220
0.0
230
1.0
 70
    24
 71
     3
 72
     8
 73
     4
 74
     0
 42
0.000000001
 43
0.00000001
 40
0.0
 40
0.0
 40
0.0
 40
0.0
 40
1.0
 40
1.0
 40
1.0
 40
1.0
 10
149.8682580167021
 20
145.6577692150834
 30
0.0
 10
149.4216562966828
 20
145.6577692150834
 30
0.0
 10
148.9802966139439
 20
145.6577692150834
 30
0.0
 10
148.5450965092402
 20
145.6577692150834
 30
0.0
  0
SPLINE
  5
9E
330
1F
100
AcDbEntity
  8
0
  6
Continuous
 62
     7
370
    15
100
AcDbSpline
210
0.0
220
0.0
230
1.0
 70
     8
 71
     3
 72
    10
 73
     6
 74
     0
 42
0.000000001
 43
0.00000001
 40
0.0
 40
0.0
 40
0.0
 40
0.0
 40
0.5
 40
0.5
 40
1.0
 40
1.0
 40
1.0
 40
1.0
 10
149.8682580167021
 20
101.5106221499523
 30
0.0
 10
149.6455309898287
 20
101.6541106502461
 30
0.0
 10
149.4238451026036
 20
101.768831395979
 30
0.0
 10
148.9826242647516
 20
101.9385918253368
 30
0.0
 10
148.7630656173528
 20
101.9940118197242
 30
0.0
 10
148.5450965092405
 20
102.0105071490939
 30
0.0
  0
SPLINE
  5
9F
330
1F
100
AcDbEntity
  8
0
  6
Continuous
 62
     7
370
    15
100
AcDbSpline
210
0.0
220
0.0
230
1.0
 70
     8
 71
     3
 72
    12
 73
     8
 74
     0
 42
0.000000001
 43
0.00000001
 40
0.0
 40
0.0
 40
0.0
 40
0.0
 40
0.2500000000000012
 40
0.2500000000000012
 40
0.5000000000000023
 40
0.5000000000000023
 40
1.0
 40
1.0
 40
1.0
 40
1.0
 10
153.9850965092402
 20
69.07850987373743
 30
0.0
 10
154.0810692624151
 20
69.07850987373743
 30
0.0
 10
154.1734972265695
 20
69.09478319784601
 30
0.0
 10
154.329927326679
 20
69.1481569198424
 30
0.0
 10
154.3934057514519
 20
69.18428517737674
 30
0.0
 10
154.541684912279
 20
69.30498637365606
 30
0.0
 10
154.5850965092402
 20
69.39883596002122
 30
0.0
 10
154.5850965092402
 20
69.49314023496842
 30
0.0
  0
SPLINE
  5
A0
330
1F
100
AcDbEntity
  8
0
  6
Continuous
 62
     7
370
    15
100
AcDbSpline
210
0.0
220
0.0
230
1.0
 70
    24
 71
     3
 72
    14
 73
    10
 74
     0
 42
0.000000001
 43
0.00000001
 40
0.0
 40
0.0
 40
0.0
 40
0.0
 40
0.25
 40
0.25
 40
0.5
 40
0.5
 40
0.75
 40
0.75
 40
1.0
 40
1.0
 40
1.0
 40
1.0
 10
154.5850965092402
 20
145.6577692150834
 30
0.0
 10
154.5850965092402
 20
145.6577692150834
 30
0.0
 10
154.5730267830806
 20
145.6577692150834
 30
0.0
 10
154.5232626999883
 20
145.6577692150834
 30
0.0
 10
154.485711272867
 20
145.6577692150834
 30
0.0
 10
154.3831115411648
 20
145.6577692150834
 30
0.0
 10
154.3179669204433
 20
145.6577692150834
 30
0.0
 10
154.1633650566653
 20
145.6577692150834
 30
0.0
 10
154.0744403435876
 20
145.6577692150834
 30
0.0
 10
153.9850965092408
 20
145.6577692150834
 30
0.0
  0
LINE
  5
A1
330
1F
100
AcDbEntity
  8
0
  6
Continuous
 62
     7
370
    15
100
AcDbLine
 10
154.5850967447
 20
69.4931385576
 30
0.0
 11
154.5850967447
 21
145.6577697307
 31
0.0
  0
SPLINE
  5
A2
330
1F
100
AcDbEntity
  8
0
  6
Continuous
 62
     7
370
    15
100
AcDbSpline
210
0.0
220
0.0
230
1.0
 70
     8
 71
     3
 72
    14
 73
    10
 74
     0
 42
0.000000001
 43
0.00000001
 40
0.0
 40
0.0
 40
0.0
 40
0.0
 40
0.25
 40
0.25
 40
0.5
 40
0.5
 40
0.75
 40
0.75
 40
1.0
 40
1.0
 40
1.0
 40
1.0
 10
148.5450965092402
 20
102.0561213711064
 30
0.0
 10
148.5450965092402
 20
102.0980977529599
 30
0.0
 10
148.515453555269
 20
102.1259481406008
 30
0.0
 10
148.4087987215389
 20
102.1394470158908
 30
0.0
 10
148.3325203269348
 20
102.1248315138531
 30
0.0
 10
148.1644687838683
 20
102.0527423096849
 30
0.0
 10
148.07334897726
 20
101.9956046992022
 30
0.0
 10
147.9006718650073
 20
101.8533769986109
 30
0.0
 10
147.8197494254792
 20
101.7698131730989
 30
0.0
 10
147.7450965092402
 20
101.676443501203
 30
0.0
  0
SPLINE
  5
A3
330
1F
100
AcDbEntity
  8
0
  6
Continuous
 62
     7
370
    15
100
AcDbSpline
210
0.0
220
0.0
230
1.0
 70
     8
 71
     3
 72
    10
 73
     6
 74
     0
 42
0.000000001
 43
0.00000001
 40
0.0
 40
0.0
 40
0.0
 40
0.0
 40
0.5
 40
0.5
 40
1.0
 40
1.0
 40
1.0
 40
1.0
 10
148.5450965092405
 20
97.87846595046233
 30
0.0
 10
148.7619873417613
 20
97.64142701101379
 30
0.0
 10
148.9811399784202
 20
97.4392567760203
 30
0.0
 10
149.422624478689
 20
97.0885047045016
 30
0.0
 10
149.6458269439624
 20
96.93982861210475
 30
0.0
 10
149.8682580167021
 20
96.81882882708224
 30
0.0
  0
LINE
  5
A4
330
1F
100
AcDbEntity
  8
0
  6
Continuous
 62
     7
370
    15
100
AcDbLine
 10
148.5450963879
 20
97.9240810036
 30
0.0
 11
148.5450963879
 21
97.8784666866
 31
0.0
  0
SPLINE
  5
A5
330
1F
100
AcDbEntity
  8
0
  6
Continuous
 62
     7
370
    15
100
AcDbSpline
210
0.0
220
0.0
230
1.0
 70
     8
 71
     3
 72
    16
 73
    12
 74
     0
 42
0.000000001
 43
0.00000001
 40
0.0
 40
0.0
 40
0.0
 40
0.0
 40
0.2499999999999956
 40
0.2499999999999956
 40
0.4999999999999911
 40
0.4999999999999911
 40
0.6249999999999911
 40
0.6249999999999911
 40
0.7499999999999911
 40
0.7499999999999911
 40
1.0
 40
1.0
 40
1.0
 40
1.0
 10
147.7450965092402
 20
98.83247965814932
 30
0.0
 10
147.8191043994624
 20
98.74213207796367
 30
0.0
 10
147.8997223944514
 20
98.65417250516403
 30
0.0
 10
148.0734903799556
 20
98.47783758110243
 30
0.0
 10
148.1642415108971
 20
98.39223034043644
 30
0.0
 10
148.2903546083585
 20
98.27103464441144
 30
0.0
 10
148.3299313692218
 20
98.23250306542059
 30
0.0
 10
148.402414025923
 20
98.15810707929127
 30
0.0
 10
148.4353420163919
 20
98.12209029136979
 30
0.0
 10
148.5151321863868
 20
98.02333761555279
 30
0.0
 10
148.5450965092402
 20
97.96657361377069
 30
0.0
 10
148.5450965092402
 20
97.92408017247513
 30
0.0
  0
SPLINE
  5
A6
330
1F
100
AcDbEntity
  8
0
  6
Continuous
 62
     7
370
    15
100
AcDbSpline
210
0.0
220
0.0
230
1.0
 70
     8
 71
     3
 72
    16
 73
    12
 74
     0
 42
0.000000001
 43
0.00000001
 40
0.0
 40
0.0
 40
0.0
 40
0.0
 40
0.2500000000000008
 40
0.2500000000000008
 40
0.5000000000000017
 40
0.5000000000000017
 40
0.7500000000000024
 40
0.7500000000000024
 40
0.8750000000000012
 40
0.8750000000000012
 40
1.0
 40
1.0
 40
1.0
 40
1.0
 10
147.7450965092402
 20
101.676443501203
 30
0.0
 10
147.57968240276
 20
101.4695572651776
 30
0.0
 10
147.4534850717845
 20
101.2436885673689
 30
0.0
 10
147.2790787734536
 20
100.754819321756
 30
0.0
 10
147.2352487343567
 20
100.5030522684114
 30
0.0
 10
147.2349450613867
 20
99.99127294382906
 30
0.0
 10
147.278801921447
 20
99.74021823474635
 30
0.0
 10
147.4087236807142
 20
99.37936966660423
 30
0.0
 10
147.4628384921222
 20
99.26209689825569
 30
0.0
 10
147.5895154822657
 20
99.03960794691685
 30
0.0
 10
147.6623892026264
 20
98.93344733867359
 30
0.0
 10
147.7450965092402
 20
98.83247965814932
 30
0.0
  0
SPLINE
  5
A7
330
1F
100
AcDbEntity
  8
0
  6
Continuous
 62
     7
370
    15
100
AcDbSpline
210
0.0
220
0.0
230
1.0
 70
     8
 71
     3
 72
    14
 73
    10
 74
     0
 42
0.000000001
 43
0.00000001
 40
0.0
 40
0.0
 40
0.0
 40
0.0
 40
0.25
 40
0.25
 40
0.5
 40
0.5
 40
0.75
 40
0.75
 40
1.0
 40
1.0
 40
1.0
 40
1.0
 10
145.5250965092402
 20
72.16000294921365
 30
0.0
 10
145.4186515013309
 20
72.16000294921363
 30
0.0
 10
145.3117527500575
 20
72.13743339978055
 30
0.0
 10
145.115534494615
 20
72.0509903085386
 30
0.0
 10
145.0258761811505
 20
71.98668639087147
 30
0.0
 10
144.8804224682694
 20
71.83171687682852
 30
0.0
 10
144.8223866855433
 20
71.73895139058479
 30
0.0
 10
144.7451015311586
 20
71.54048450894139
 30
0.0
 10
144.7250965092402
 20
71.43346008714761
 30
0.0
 10
144.7250965092402
 20
71.32667772667678
 30
0.0
  0
SPLINE
  5
A8
330
1F
100
AcDbEntity
  8
0
  6
Continuous
 62
     7
370
    15
100
AcDbSpline
210
0.0
220
0.0
230
1.0
 70
    24
 71
     3
 72
    14
 73
    10
 74
     0
 42
0.000000001
 43
0.00000001
 40
0.0
 40
0.0
 40
0.0
 40
0.0
 40
0.25
 40
0.25
 40
0.5
 40
0.5
 40
0.75
 40
0.75
 40
1.0
 40
1.0
 40
1.0
 40
1.0
 10
145.5250965092402
 20
145.6577692150834
 30
0.0
 10
145.4021152096939
 20
145.6577692150834
 30
0.0
 10
145.2819253212919
 20
145.6577692150834
 30
0.0
 10
145.0769014916127
 20
145.6577692150834
 30
0.0
 10
144.9903070028106
 20
145.6577692150834
 30
0.0
 10
144.8551991160482
 20
145.6577692150834
 30
0.0
 10
144.8066760310201
 20
145.6577692150834
 30
0.0
 10
144.7409935222933
 20
145.6577692150834
 30
0.0
 10
144.7250965092402
 20
145.6577692150834
 30
0.0
 10
144.7250965092402
 20
145.6577692150834
 30
0.0
  0
SPLINE
  5
A9
330
1F
100
AcDbEntity
  8
0
  6
Continuous
 62
     7
370
    15
100
AcDbSpline
210
0.0
220
0.0
230
1.0
 70
    24
 71
     3
 72
    14
 73
    10
 74
     0
 42
0.000000001
 43
0.00000001
 40
0.0
 40
0.0
 40
0.0
 40
0.0
 40
0.25
 40
0.25
 40
0.5
 40
0.5
 40
0.75
 40
0.75
 40
1.0
 40
1.0
 40
1.0
 40
1.0
 10
148.5450965092402
 20
145.6577692150834
 30
0.0
 10
148.5450965092402
 20
145.6577692150834
 30
0.0
 10
148.5288154744644
 20
145.6577692150834
 30
0.0
 10
148.4641524119398
 20
145.6577692150834
 30
0.0
 10
148.4146726156511
 20
145.6577692150834
 30
0.0
 10
148.2807028585124
 20
145.6577692150834
 30
0.0
 10
148.1945881319129
 20
145.6577692150834
 30
0.0
 10
147.9891320161999
 20
145.6577692150834
 30
0.0
 10
147.8677114790071
 20
145.6577692150834
 30
0.0
 10
147.7450965092402
 20
145.6577692150834
 30
0.0
  0
LINE
  5
AA
330
1F
100
AcDbEntity
  8
0
  6
Continuous
 62
     7
370
    15
100
AcDbLine
 10
147.7450968156
 20
72.1600031018
 30
0.0
 11
145.5250966752
 21
72.1600031018
 31
0.0
  0
LINE
  5
AB
330
1F
100
AcDbEntity
  8
0
  6
Continuous
 62
     7
370
    15
100
AcDbLine
 10
147.7450968156
 20
145.6577697307
 30
0.0
 11
145.5250966752
 21
145.6577697307
 31
0.0
  0
SPLINE
  5
AC
330
1F
100
AcDbEntity
  8
0
  6
Continuous
 62
     7
370
    15
100
AcDbSpline
210
0.0
220
0.0
230
1.0
 70
     8
 71
     3
 72
     8
 73
     4
 74
     0
 42
0.000000001
 43
0.00000001
 40
0.0000000000000004
 40
0.0000000000000004
 40
0.0000000000000004
 40
0.0000000000000004
 40
0.0011862984959128
 40
0.0011862984959128
 40
0.0011862984959128
 40
0.0011862984959128
 10
149.4151443397404
 20
69.62185414810706
 30
0.0
 10
149.5651758096117
 20
69.44053405379603
 30
0.0
 10
149.7162332548311
 20
69.25942172335564
 30
0.0
 10
149.8682580167021
 20
69.07850987373743
 30
0.0
  0
SPLINE
  5
AD
330
1F
100
AcDbEntity
  8
0
  6
Continuous
 62
     7
370
    15
100
AcDbSpline
210
0.0
220
0.0
230
1.0
 70
     8
 71
     3
 72
     8
 73
     4
 74
     0
 42
0.000000001
 43
0.00000001
 40
0.0
 40
0.0
 40
0.0
 40
0.0
 40
1.0
 40
1.0
 40
1.0
 40
1.0
 10
149.4151443397434
 20
69.62185414810872
 30
0.0
 10
149.1248501054819
 20
70.14375641383127
 30
0.0
 10
148.8348249552645
 20
70.66580979609068
 30
0.0
 10
148.5450965092402
 20
71.18802980625365
 30
0.0
  0
LINE
  5
AE
330
1F
100
AcDbEntity
  8
0
  6
Continuous
 62
     7
370
    15
100
AcDbLine
 10
148.5450963879
 20
71.1880301594
 30
0.0
 11
148.5450963879
 21
97.8784666866
 31
0.0
  0
SPLINE
  5
AF
330
1F
100
AcDbEntity
  8
0
  6
Continuous
 62
     7
370
    15
100
AcDbSpline
210
0.0
220
0.0
230
1.0
 70
     8
 71
     3
 72
    14
 73
    10
 74
     0
 42
0.000000001
 43
0.00000001
 40
0.0
 40
0.0
 40
0.0
 40
0.0
 40
0.25
 40
0.25
 40
0.5
 40
0.5
 40
0.75
 40
0.75
 40
1.0
 40
1.0
 40
1.0
 40
1.0
 10
148.5450965092402
 20
71.3266777266768
 30
0.0
 10
148.5450965092402
 20
71.43374171301761
 30
0.0
 10
148.5251126830002
 20
71.54048103939212
 30
0.0
 10
148.4476776005667
 20
71.7392309415829
 30
0.0
 10
148.3897386784073
 20
71.83178515807542
 30
0.0
 10
148.2441008726465
 20
71.98688210148102
 30
0.0
 10
148.1553118763112
 20
72.05062225839387
 30
0.0
 10
147.9587635161066
 20
72.13737081548148
 30
0.0
 10
147.8526242864073
 20
72.16000294921363
 30
0.0
 10
147.7450965092402
 20
72.16000294921363
 30
0.0
  0
SPLINE
  5
B0
330
1F
100
AcDbEntity
  8
0
  6
Continuous
 62
     7
370
    15
100
AcDbSpline
210
0.0
220
0.0
230
1.0
 70
     8
 71
     3
 72
    20
 73
    16
 74
     0
 42
0.000000001
 43
0.00000001
 40
0.0
 40
0.0
 40
0.0
 40
0.0
 40
0.1250000000000008
 40
0.1250000000000008
 40
0.2500000000000016
 40
0.2500000000000016
 40
0.3750000000000023
 40
0.3750000000000023
 40
0.5000000000000031
 40
0.5000000000000031
 40
0.6250000000000039
 40
0.6250000000000039
 40
0.7500000000000047
 40
0.7500000000000047
 40
1.0
 40
1.0
 40
1.0
 40
1.0
 10
156.0211017443439
 20
80.50776921508343
 30
0.0
 10
155.9726026419173
 20
80.50776921508341
 30
0.0
 10
155.9126058881151
 20
80.49387761717394
 30
0.0
 10
155.7810997520004
 20
80.44382061094264
 30
0.0
 10
155.7088340956455
 20
80.40712862125402
 30
0.0
 10
155.5614784450121
 20
80.31328993208503
 30
0.0
 10
155.4866880560628
 20
80.25650561955023
 30
0.0
 10
155.338426172806
 20
80.12258917328704
 30
0.0
 10
155.2645125182167
 20
80.04476278664818
 30
0.0
 10
155.1253130499419
 20
79.87197833574069
 30
0.0
 10
155.0594276967411
 20
79.7766401030297
 30
0.0
 10
154.9368349791172
 20
79.56588769008845
 30
0.0
 10
154.8795497097314
 20
79.44879975145585
 30
0.0
 10
154.7309371800715
 20
79.07784524732888
 30
0.0
 10
154.6607876100903
 20
78.79721734992006
 30
0.0
 10
154.6228961589197
 20
78.50776921508343
 30
0.0
  0
SPLINE
  5
B1
330
1F
100
AcDbEntity
  8
0
  6
Continuous
 62
     7
370
    15
100
AcDbSpline
210
0.0
220
0.0
230
1.0
 70
    24
 71
     3
 72
    20
 73
    16
 74
     0
 42
0.000000001
 43
0.00000001
 40
0.0
 40
0.0
 40
0.0
 40
0.0
 40
0.0624999999999997
 40
0.0624999999999997
 40
0.1249999999999994
 40
0.1249999999999994
 40
0.2499999999999988
 40
0.2499999999999988
 40
0.374999999999999
 40
0.374999999999999
 40
0.4999999999999992
 40
0.4999999999999992
 40
0.7499999999999997
 40
0.7499999999999997
 40
1.0
 40
1.0
 40
1.0
 40
1.0
 10
158.5850965092402
 20
80.50776921508343
 30
0.0
 10
158.4837441412742
 20
80.50776921508341
 30
0.0
 10
158.385732991364
 20
80.50776921508343
 30
0.0
 10
158.1964288947789
 20
80.50776921508343
 30
0.0
 10
158.1095687068535
 20
80.50776921508343
 30
0.0
 10
157.8635593511662
 20
80.50776921508343
 30
0.0
 10
157.7230970064253
 20
80.50776921508341
 30
0.0
 10
157.4685323604579
 20
80.50776921508341
 30
0.0
 10
157.3534281895012
 20
80.50776921508343
 30
0.0
 10
157.1410158446285
 20
80.50776921508343
 30
0.0
 10
157.0430575311059
 20
80.50776921508341
 30
0.0
 10
156.7648686715418
 20
80.50776921508343
 30
0.0
 10
156.6000215485178
 20
80.50776921508343
 30
0.0
 10
156.293720975913
 20
80.50776921508343
 30
0.0
 10
156.1526302288694
 20
80.50776921508343
 30
0.0
 10
156.0211017443437
 20
80.50776921508343
 30
0.0
  0
LINE
  5
B2
330
1F
100
AcDbEntity
  8
0
  6
Continuous
 62
     7
370
    15
100
AcDbLine
 10
273.9350998233
 20
79.8077707648
 30
0.0
 11
273.9350998233
 21
151.8077676654
 31
0.0
  0
SPLINE
  5
B3
330
1F
100
AcDbEntity
  8
0
  6
Continuous
 62
     7
370
    15
100
AcDbSpline
210
0.0
220
0.0
230
1.0
 70
     8
 71
     3
 72
    11
 73
     7
 74
     0
 42
0.000000001
 43
0.00000001
 40
0.0
 40
0.0
 40
0.0
 40
0.0
 40
0.124616900224668
 40
0.3937077485265751
 40
0.6704520379047679
 40
0.9999999999999999
 40
0.9999999999999999
 40
0.9999999999999999
 40
0.9999999999999999
 10
167.3909441957694
 20
79.8235026657346
 30
0.0
 10
167.4013725906623
 20
79.8198049344
 30
0.0
 10
167.4343194852379
 20
79.8081225263496
 30
0.0
 10
167.1287323297669
 20
79.91631452166959
 30
0.0
 10
166.4921159969643
 20
80.13846547542516
 30
0.0
 10
165.7319765390812
 20
80.37772115377193
 30
0.0
 10
165.3188054839593
 20
80.50776771304638
 30
0.0
  0
LINE
  5
B4
330
1F
100
AcDbEntity
  8
0
  6
Continuous
 62
     7
370
    15
100
AcDbLine
 10
158.5850974003
 20
80.507767713
 30
0.0
 11
165.318805484
 21
80.507767713
 31
0.0
  0
SPLINE
  5
B5
330
1F
100
AcDbEntity
  8
0
  6
Continuous
 62
     7
370
    15
100
AcDbSpline
210
0.0
220
0.0
230
1.0
 70
     8
 71
     3
 72
    52
 73
    48
 74
     0
 42
0.000000001
 43
0.00000001
 40
0.0
 40
0.0
 40
0.0
 40
0.0
 40
0.0312499999999997
 40
0.0312499999999997
 40
0.0624999999999993
 40
0.0624999999999993
 40
0.1249999999999993
 40
0.1249999999999993
 40
0.1562499999999994
 40
0.1562499999999994
 40
0.1874999999999994
 40
0.1874999999999994
 40
0.2187499999999994
 40
0.2187499999999994
 40
0.2499999999999995
 40
0.2499999999999995
 40
0.3124999999999976
 40
0.3124999999999976
 40
0.3437499999999972
 40
0.3437499999999972
 40
0.3749999999999968
 40
0.3749999999999968
 40
0.4374999999999961
 40
0.4374999999999961
 40
0.4687499999999957
 40
0.4687499999999957
 40
0.4999999999999953
 40
0.4999999999999953
 40
0.562499999999996
 40
0.562499999999996
 40
0.5937499999999963
 40
0.5937499999999963
 40
0.6249999999999967
 40
0.6249999999999967
 40
0.6874999999999972
 40
0.6874999999999972
 40
0.7499999999999977
 40
0.7499999999999977
 40
0.8124999999999982
 40
0.8124999999999982
 40
0.8749999999999988
 40
0.8749999999999988
 40
0.9062499999999991
 40
0.9062499999999991
 40
0.9374999999999994
 40
0.9374999999999994
 40
1.0
 40
1.0
 40
1.0
 40
1.0
 10
265.0850965092402
 20
115.8077692150834
 30
0.0
 10
265.0850965092402
 20
115.4989804566545
 30
0.0
 10
265.066869584098
 20
115.190599278861
 30
0.0
 10
264.9936699598629
 20
114.5746580661752
 30
0.0
 10
264.9381067027398
 20
114.2650137728058
 30
0.0
 10
264.7192255908784
 20
113.3565901848406
 30
0.0
 10
264.5054864345969
 20
112.7772074353834
 30
0.0
 10
264.0895160807529
 20
111.9447301247112
 30
0.0
 10
263.934191222637
 20
111.6727440605446
 30
0.0
 10
263.5990678611665
 20
111.1524781456878
 30
0.0
 10
263.4186142801696
 20
110.9026646631218
 30
0.0
 10
263.0331590297044
 20
110.4225554988808
 30
0.0
 10
262.8281530526891
 20
110.1922634973467
 30
0.0
 10
262.3939762115498
 20
109.7507517456144
 30
0.0
 10
262.164528354228
 20
109.5395378898249
 30
0.0
 10
261.4540526384355
 20
108.9455975248861
 30
0.0
 10
260.9469659319765
 20
108.5976684295044
 30
0.0
 10
260.1383872021739
 20
108.1435531729461
 30
0.0
 10
259.8594794768671
 20
108.0030291511247
 30
0.0
 10
259.2937230889277
 20
107.7486877767528
 30
0.0
 10
259.0066820555125
 20
107.6345888692018
 30
0.0
 10
258.1334661105556
 20
107.3300181258587
 30
0.0
 10
257.5352962487044
 20
107.1769526639318
 30
0.0
 10
256.6136697409563
 20
107.0226586347345
 30
0.0
 10
256.3028264001003
 20
106.9840900787711
 30
0.0
 10
255.6845461152421
 20
106.9335023769689
 30
0.0
 10
255.3756783880288
 20
106.921216439127
 30
0.0
 10
254.4498790647228
 20
106.9227125584286
 30
0.0
 10
253.8337448200698
 20
106.9745159555521
 30
0.0
 10
252.9112028458774
 20
107.1316269733982
 30
0.0
 10
252.6060872176919
 20
107.1970575260522
 30
0.0
 10
252.0074207617869
 20
107.3521772197645
 30
0.0
 10
251.7127961160832
 20
107.4420413607453
 30
0.0
 10
250.8429500040237
 20
107.7484872785615
 30
0.0
 10
250.2816150241053
 20
108.0015301554311
 30
0.0
 10
249.1986236163623
 20
108.6132830463589
 30
0.0
 10
248.6919834093629
 20
108.963809016797
 30
0.0
 10
247.7552557017131
 20
109.7509382621261
 30
0.0
 10
247.3229393701938
 20
110.1892589711284
 30
0.0
 10
246.5456361402261
 20
111.1609641955832
 30
0.0
 10
246.213713184398
 20
111.6777121859153
 30
0.0
 10
245.8029785619227
 20
112.5008765517862
 30
0.0
 10
245.6807016420987
 20
112.7833303832931
 30
0.0
 10
245.4672787098978
 20
113.3654738651775
 30
0.0
 10
245.375861197105
 20
113.6671038041765
 30
0.0
 10
245.1582913300239
 20
114.5737288211384
 30
0.0
 10
245.0850965092402
 20
115.1864883310545
 30
0.0
 10
245.0850965092402
 20
115.8077692150834
 30
0.0
  0
SPLINE
  5
B6
330
1F
100
AcDbEntity
  8
0
  6
Continuous
 62
     7
370
    15
100
AcDbSpline
210
0.0
220
0.0
230
1.0
 70
     8
 71
     3
 72
    54
 73
    50
 74
     0
 42
0.000000001
 43
0.00000001
 40
0.0
 40
0.0
 40
0.0
 40
0.0
 40
0.0312499999999994
 40
0.0312499999999994
 40
0.0624999999999989
 40
0.0624999999999989
 40
0.0937499999999983
 40
0.0937499999999983
 40
0.1249999999999978
 40
0.1249999999999978
 40
0.1874999999999965
 40
0.1874999999999965
 40
0.2187499999999959
 40
0.2187499999999959
 40
0.2499999999999953
 40
0.2499999999999953
 40
0.3124999999999952
 40
0.3124999999999952
 40
0.374999999999995
 40
0.374999999999995
 40
0.4374999999999949
 40
0.4374999999999949
 40
0.4687499999999955
 40
0.4687499999999955
 40
0.4999999999999961
 40
0.4999999999999961
 40
0.5624999999999987
 40
0.5624999999999987
 40
0.59375
 40
0.59375
 40
0.6250000000000013
 40
0.6250000000000013
 40
0.687500000000004
 40
0.687500000000004
 40
0.7187500000000036
 40
0.7187500000000036
 40
0.7500000000000031
 40
0.7500000000000031
 40
0.8125000000000023
 40
0.8125000000000023
 40
0.8437500000000019
 40
0.8437500000000019
 40
0.8750000000000014
 40
0.8750000000000014
 40
0.9375000000000008
 40
0.9375000000000008
 40
0.9687500000000004
 40
0.9687500000000004
 40
1.0
 40
1.0
 40
1.0
 40
1.0
 10
245.0850965092402
 20
115.8077692150834
 30
0.0
 10
245.0850965092403
 20
116.1184820360793
 30
0.0
 10
245.1039372979596
 20
116.4335579365276
 30
0.0
 10
245.1783898789552
 20
117.0530177172882
 30
0.0
 10
245.2337030672363
 20
117.3581863634684
 30
0.0
 10
245.3791150092579
 20
117.9597690018757
 30
0.0
 10
245.4692175707924
 20
118.2561820090112
 30
0.0
 10
245.6839929429136
 20
118.8403362026993
 30
0.0
 10
245.8091791995195
 20
119.1285909684004
 30
0.0
 10
246.2265252068458
 20
119.9603580056348
 30
0.0
 10
246.5622250037603
 20
120.4783473088923
 30
0.0
 10
247.1468066292581
 20
121.2044728138477
 30
0.0
 10
247.3548418728317
 20
121.4371835400602
 30
0.0
 10
247.7907632595023
 20
121.8786307135688
 30
0.0
 10
248.0193943862606
 20
122.0883175262553
 30
0.0
 10
248.7365843462461
 20
122.685265932165
 30
0.0
 10
249.2463628071372
 20
123.0323570500958
 30
0.0
 10
250.3171020323614
 20
123.6306649244989
 30
0.0
 10
250.8803809072521
 20
123.8830929122383
 30
0.0
 10
252.0567914296082
 20
124.2916001824867
 30
0.0
 10
252.6552174564306
 20
124.4427856498303
 30
0.0
 10
253.5674875220456
 20
124.5943024035637
 30
0.0
 10
253.8740321807294
 20
124.6321757335307
 30
0.0
 10
254.4920971402768
 20
124.6823779021257
 30
0.0
 10
254.8051213951449
 20
124.6946649532939
 30
0.0
 10
255.7386455246466
 20
124.692052664536
 30
0.0
 10
256.3533223650359
 20
124.6386635186725
 30
0.0
 10
257.2641145900419
 20
124.4827755889571
 30
0.0
 10
257.5658304727912
 20
124.4180997346385
 30
0.0
 10
258.1654096598182
 20
124.262611648444
 30
0.0
 10
258.4646428129547
 20
124.1712445840206
 30
0.0
 10
259.3410378027712
 20
123.8615760066799
 30
0.0
 10
259.8999547314285
 20
123.6078516862545
 30
0.0
 10
260.7003048053513
 20
123.1553492771028
 30
0.0
 10
260.9607093730955
 20
122.9924492509492
 30
0.0
 10
261.468201249991
 20
122.6412583841772
 30
0.0
 10
261.7162542153154
 20
122.4519994394747
 30
0.0
 10
262.4238891967491
 20
121.856471002613
 30
0.0
 10
262.8519481809837
 20
121.4201572241587
 30
0.0
 10
263.4256972078066
 20
120.7032943945749
 30
0.0
 10
263.6054738910503
 20
120.4538663821935
 30
0.0
 10
263.9403995781868
 20
119.9323761285439
 30
0.0
 10
264.0950522471772
 20
119.6605253071027
 30
0.0
 10
264.5076452380006
 20
118.8323787628603
 30
0.0
 10
264.7196423140756
 20
118.2565452945682
 30
0.0
 10
264.9371835311258
 20
117.3546911552819
 30
0.0
 10
264.9930402885606
 20
117.0452699983713
 30
0.0
 10
265.0668626596625
 20
116.4258983635059
 30
0.0
 10
265.0850965092402
 20
116.116629921053
 30
0.0
 10
265.0850965092402
 20
115.8077692150834
 30
0.0
  0
LINE
  5
B7
330
1F
100
AcDbEntity
  8
0
  6
Continuous
 62
     7
370
    15
100
AcDbLine
 10
274.6350967715
 20
80.507767713
 30
0.0
 11
274.6350967715
 21
151.1077707171
 31
0.0
  0
LINE
  5
B8
330
1F
100
AcDbEntity
  8
0
  6
Continuous
 62
     7
370
    15
100
AcDbLine
 10
135.5350965092
 20
80.8827703357
 30
0.0
 11
135.5350965092
 21
150.7327680945
 31
0.0
  0
SPLINE
  5
B9
330
1F
100
AcDbEntity
  8
0
  6
Continuous
 62
     7
370
    15
100
AcDbSpline
210
0.0
220
0.0
230
1.0
 70
     8
 71
     3
 72
    14
 73
    10
 74
     0
 42
0.000000001
 43
0.00000001
 40
0.0
 40
0.0
 40
0.0
 40
0.0
 40
0.25
 40
0.25
 40
0.5
 40
0.5
 40
0.75
 40
0.75
 40
1.0
 40
1.0
 40
1.0
 40
1.0
 10
148.5450965092402
 20
160.2888607034901
 30
0.0
 10
148.5450965092402
 20
160.1815183313426
 30
0.0
 10
148.525100317176
 20
160.0748893244948
 30
0.0
 10
148.4474022328314
 20
159.8757375453436
 30
0.0
 10
148.3894090879378
 20
159.7832546470281
 30
0.0
 10
148.2433625951149
 20
159.628018811919
 30
0.0
 10
148.1540248559473
 20
159.5642848703066
 30
0.0
 10
147.9592698438868
 20
159.4784546039114
 30
0.0
 10
147.851739572678
 20
159.4555354809529
 30
0.0
 10
147.7450965092381
 20
159.4555354809532
 30
0.0
  0
SPLINE
  5
BA
330
1F
100
AcDbEntity
  8
0
  6
Continuous
 62
     7
370
    15
100
AcDbSpline
210
0.0
220
0.0
230
1.0
 70
     8
 71
     3
 72
    14
 73
    10
 74
     0
 42
0.000000001
 43
0.00000001
 40
0.0
 40
0.0
 40
0.0
 40
0.0
 40
0.25
 40
0.25
 40
0.5
 40
0.5
 40
0.75
 40
0.75
 40
1.0
 40
1.0
 40
1.0
 40
1.0
 10
147.7450965092402
 20
150.1476512766165
 30
0.0
 10
147.866423039226
 20
150.1476512766165
 30
0.0
 10
147.9881277477882
 20
150.1864327920497
 30
0.0
 10
148.1945676266743
 20
150.3175874137436
 30
0.0
 10
148.2805181651304
 20
150.4082394983307
 30
0.0
 10
148.4144299248786
 20
150.610356533272
 30
0.0
 10
148.4639943616978
 20
150.7240914768111
 30
0.0
 10
148.5288483896658
 20
150.9570510938776
 30
0.0
 10
148.5450965092402
 20
151.0797493602068
 30
0.0
 10
148.5450965092402
 20
151.2008123168005
 30
0.0
  0
SPLINE
  5
BB
330
1F
100
AcDbEntity
  8
0
  6
Continuous
 62
     7
370
    15
100
AcDbSpline
210
0.0
220
0.0
230
1.0
 70
     8
 71
     3
 72
    12
 73
     8
 74
     0
 42
0.000000001
 43
0.00000001
 40
0.0
 40
0.0
 40
0.0
 40
0.0
 40
0.2500000000000007
 40
0.2500000000000007
 40
0.5000000000000014
 40
0.5000000000000014
 40
1.0
 40
1.0
 40
1.0
 40
1.0
 10
145.5250965092402
 20
159.4555354809532
 30
0.0
 10
145.4187515293642
 20
159.4555354809532
 30
0.0
 10
145.3114751819617
 20
159.4782507188127
 30
0.0
 10
145.1160993925655
 20
159.5642758856951
 30
0.0
 10
145.0275456564886
 20
159.6272546126235
 30
0.0
 10
144.8062877323574
 20
159.8624461230605
 30
0.0
 10
144.7250965092402
 20
160.0756223375458
 30
0.0
 10
144.7250965092402
 20
160.2888607034899
 30
0.0
  0
SPLINE
  5
BC
330
1F
100
AcDbEntity
  8
0
  6
Continuous
 62
     7
370
    15
100
AcDbSpline
210
0.0
220
0.0
230
1.0
 70
     8
 71
     3
 72
    12
 73
     8
 74
     0
 42
0.000000001
 43
0.00000001
 40
0.0
 40
0.0
 40
0.0
 40
0.0
 40
0.499999999999994
 40
0.499999999999994
 40
0.749999999999997
 40
0.749999999999997
 40
1.0
 40
1.0
 40
1.0
 40
1.0
 10
144.7250965092402
 20
151.2008123168005
 30
0.0
 10
144.7250965092402
 20
150.9583892208197
 30
0.0
 10
144.788017650682
 20
150.7126187002183
 30
0.0
 10
144.9900465476845
 20
150.4076725208014
 30
0.0
 10
145.0763402723317
 20
150.317079654203
 30
0.0
 10
145.2818140668984
 20
150.1866460912662
 30
0.0
 10
145.4017646274981
 20
150.1476512766165
 30
0.0
 10
145.5250965092402
 20
150.1476512766165
 30
0.0
  0
LINE
  5
BD
330
1F
100
AcDbEntity
  8
0
  6
Continuous
 62
     7
370
    15
100
AcDbLine
 10
147.7450968156
 20
159.4555353284
 30
0.0
 11
145.5250966752
 21
159.4555353284
 31
0.0
  0
LINE
  5
BE
330
1F
100
AcDbEntity
  8
0
  6
Continuous
 62
     7
370
    15
100
AcDbLine
 10
145.5250966752
 20
150.1476516485
 30
0.0
 11
147.7450968156
 21
150.1476516485
 31
0.0
  0
SPLINE
  5
BF
330
1F
100
AcDbEntity
  8
0
  6
Continuous
 62
     7
370
    15
100
AcDbSpline
210
0.0
220
0.0
230
1.0
 70
     8
 71
     3
 72
    12
 73
     8
 74
     0
 42
0.000000001
 43
0.00000001
 40
0.0
 40
0.0
 40
0.0
 40
0.0
 40
0.4999999999999977
 40
0.4999999999999977
 40
0.7499999999999988
 40
0.7499999999999988
 40
1.0
 40
1.0
 40
1.0
 40
1.0
 10
154.5850965092402
 20
162.1027561683139
 30
0.0
 10
154.5850965092402
 20
162.222948774979
 30
0.0
 10
154.5311280789712
 20
162.3408560754941
 30
0.0
 10
154.3700414380383
 20
162.4802356199774
 30
0.0
 10
154.3052790185651
 20
162.5184009175414
 30
0.0
 10
154.1532250170007
 20
162.5730531798748
 30
0.0
 10
154.0704952438515
 20
162.587613869859
 30
0.0
 10
153.9850965092402
 20
162.587613869859
 30
0.0
  0
SPLINE
  5
C0
330
1F
100
AcDbEntity
  8
0
  6
Continuous
 62
     7
370
    15
100
AcDbSpline
210
0.0
220
0.0
230
1.0
 70
     8
 71
     3
 72
    12
 73
     8
 74
     0
 42
0.000000001
 43
0.00000001
 40
0.0
 40
0.0
 40
0.0
 40
0.0
 40
0.250000000000004
 40
0.250000000000004
 40
0.500000000000008
 40
0.500000000000008
 40
1.0
 40
1.0
 40
1.0
 40
1.0
 10
153.9850965092407
 20
154.3188471667586
 30
0.0
 10
154.0746335674118
 20
154.3188471667586
 30
0.0
 10
154.1645327462004
 20
154.2920198679275
 30
0.0
 10
154.3179576051997
 20
154.200312902668
 30
0.0
 10
154.3830066625774
 20
154.1360579610692
 30
0.0
 10
154.5363258938417
 20
153.9166458150076
 30
0.0
 10
154.5850965092402
 20
153.7348305052107
 30
0.0
 10
154.5850965092402
 20
153.5568503297278
 30
0.0
  0
LINE
  5
C1
330
1F
100
AcDbEntity
  8
0
  6
Continuous
 62
     7
370
    15
100
AcDbLine
 10
154.5850967447
 20
153.5568510651
 30
0.0
 11
154.5850967447
 21
162.1027564168
 31
0.0
  0
SPLINE
  5
C2
330
1F
100
AcDbEntity
  8
0
  6
Continuous
 62
     7
370
    15
100
AcDbSpline
210
0.0
220
0.0
230
1.0
 70
     8
 71
     3
 72
     8
 73
     4
 74
     0
 42
0.000000001
 43
0.00000001
 40
0.0
 40
0.0
 40
0.0
 40
0.0
 40
1.0
 40
1.0
 40
1.0
 40
1.0
 10
149.3117675314066
 20
161.8078024597508
 30
0.0
 10
149.0559912206512
 20
161.347824104486
 30
0.0
 10
148.8004278225453
 20
160.8877296441782
 30
0.0
 10
148.5450965092402
 20
160.4275086239132
 30
0.0
  0
SPLINE
  5
C3
330
1F
100
AcDbEntity
  8
0
  6
Continuous
 62
     7
370
    15
100
AcDbSpline
210
0.0
220
0.0
230
1.0
 70
     8
 71
     3
 72
     8
 73
     4
 74
     0
 42
0.000000001
 43
0.00000001
 40
0.0
 40
0.0
 40
0.0
 40
0.0
 40
0.0012352705496738
 40
0.0012352705496738
 40
0.0012352705496738
 40
0.0012352705496738
 10
149.8682580167021
 20
162.587613869859
 30
0.0
 10
149.68230959138
 20
162.3278381141073
 30
0.0
 10
149.496802782209
 20
162.06790403548
 30
0.0
 10
149.3117675314068
 20
161.8078024597513
 30
0.0
  0
LINE
  5
C4
330
1F
100
AcDbEntity
  8
0
  6
Continuous
 62
     7
370
    15
100
AcDbLine
 10
149.8682580347
 20
154.3188480198
 30
0.0
 11
149.8682580347
 21
162.587614125
 31
0.0
  0
SPLINE
  5
C5
330
1F
100
AcDbEntity
  8
0
  6
Continuous
 62
     7
370
    15
100
AcDbSpline
210
0.0
220
0.0
230
1.0
 70
     8
 71
     3
 72
     8
 73
     4
 74
     0
 42
0.000000001
 43
0.00000001
 40
0.0
 40
0.0
 40
0.0
 40
0.0
 40
1.0
 40
1.0
 40
1.0
 40
1.0
 10
148.5450965092402
 20
151.374904957393
 30
0.0
 10
148.9800429308786
 20
152.3584092757754
 30
0.0
 10
149.4214092887744
 20
153.3396112685023
 30
0.0
 10
149.8682580167021
 20
154.3188471667586
 30
0.0
  0
LINE
  5
C6
330
1F
100
AcDbEntity
  8
0
  6
Continuous
 62
     7
370
    15
100
AcDbLine
 10
148.5450963879
 20
151.3749038338
 30
0.0
 11
148.5450963879
 21
160.4275082707
 31
0.0
  0
LINE
  5
C7
330
1F
100
AcDbEntity
  8
0
  6
Continuous
 62
     7
370
    15
100
AcDbLine
 10
153.9850959013
 20
162.587614125
 30
0.0
 11
149.8682580347
 21
162.587614125
 31
0.0
  0
LINE
  5
C8
330
1F
100
AcDbEntity
  8
0
  6
Continuous
 62
     7
370
    15
100
AcDbLine
 10
149.8682580347
 20
154.3188480198
 30
0.0
 11
153.9850959013
 21
154.3188480198
 31
0.0
  0
SPLINE
  5
C9
330
1F
100
AcDbEntity
  8
0
  6
Continuous
 62
     7
370
    15
100
AcDbSpline
210
0.0
220
0.0
230
1.0
 70
     8
 71
     3
 72
     8
 73
     4
 74
     0
 42
0.000000001
 43
0.00000001
 40
0.0
 40
0.0
 40
0.0
 40
0.0
 40
0.0012352705496723
 40
0.0012352705496723
 40
0.0012352705496723
 40
0.0012352705496723
 10
143.9584254870728
 20
161.8078024597525
 30
0.0
 10
143.7733902362709
 20
162.0679040354808
 30
0.0
 10
143.5878834271001
 20
162.3278381141077
 30
0.0
 10
143.4019350017783
 20
162.587613869859
 30
0.0
  0
SPLINE
  5
CA
330
1F
100
AcDbEntity
  8
0
  6
Continuous
 62
     7
370
    15
100
AcDbSpline
210
0.0
220
0.0
230
1.0
 70
     8
 71
     3
 72
     8
 73
     4
 74
     0
 42
0.000000001
 43
0.00000001
 40
0.0
 40
0.0
 40
0.0
 40
0.0
 40
1.0
 40
1.0
 40
1.0
 40
1.0
 10
144.7250965092402
 20
160.4275086239132
 30
0.0
 10
144.4697651959349
 20
160.8877296441788
 30
0.0
 10
144.2142017978286
 20
161.3478241044872
 30
0.0
 10
143.9584254870728
 20
161.8078024597525
 30
0.0
  0
SPLINE
  5
CB
330
1F
100
AcDbEntity
  8
0
  6
Continuous
 62
     7
370
    15
100
AcDbSpline
210
0.0
220
0.0
230
1.0
 70
     8
 71
     3
 72
     8
 73
     4
 74
     0
 42
0.000000001
 43
0.00000001
 40
0.0
 40
0.0
 40
0.0
 40
0.0
 40
1.0
 40
1.0
 40
1.0
 40
1.0
 10
143.4019350017783
 20
154.3188471667586
 30
0.0
 10
143.848783729706
 20
153.3396112685023
 30
0.0
 10
144.2901500876019
 20
152.3584092757754
 30
0.0
 10
144.7250965092402
 20
151.374904957393
 30
0.0
  0
LINE
  5
CC
330
1F
100
AcDbEntity
  8
0
  6
Continuous
 62
     7
370
    15
100
AcDbLine
 10
143.4019354562
 20
154.3188480198
 30
0.0
 11
143.4019354562
 21
162.587614125
 31
0.0
  0
LINE
  5
CD
330
1F
100
AcDbEntity
  8
0
  6
Continuous
 62
     7
370
    15
100
AcDbLine
 10
144.7250961716
 20
151.3749038338
 30
0.0
 11
144.7250961716
 21
160.4275082707
 31
0.0
  0
SPLINE
  5
CE
330
1F
100
AcDbEntity
  8
0
  6
Continuous
 62
     7
370
    15
100
AcDbSpline
210
0.0
220
0.0
230
1.0
 70
     8
 71
     3
 72
    14
 73
    10
 74
     0
 42
0.000000001
 43
0.00000001
 40
0.0
 40
0.0
 40
0.0
 40
0.0
 40
0.25
 40
0.25
 40
0.5
 40
0.5
 40
0.75
 40
0.75
 40
1.0
 40
1.0
 40
1.0
 40
1.0
 10
138.7350965092402
 20
153.5568503297437
 30
0.0
 10
138.7350965092417
 20
153.6465740080855
 30
0.0
 10
138.7473099626886
 20
153.7354225836234
 30
0.0
 10
138.7968878180988
 20
153.9065007049269
 30
0.0
 10
138.8347515077391
 20
153.9893923001831
 30
0.0
 10
138.9370155610953
 20
154.1358864174659
 30
0.0
 10
139.0032407463856
 20
154.2011611429787
 30
0.0
 10
139.1569280705083
 20
154.2925266640961
 30
0.0
 10
139.2454484476722
 20
154.3188471667586
 30
0.0
 10
139.3350965092402
 20
154.3188471667586
 30
0.0
  0
LINE
  5
CF
330
1F
100
AcDbEntity
  8
0
  6
Continuous
 62
     7
370
    15
100
AcDbLine
 10
139.3350965733
 20
154.3188480198
 30
0.0
 11
143.4019354562
 21
154.3188480198
 31
0.0
  0
LINE
  5
D0
330
1F
100
AcDbEntity
  8
0
  6
Continuous
 62
     7
370
    15
100
AcDbLine
 10
148.5450963879
 20
151.2008135676
 30
0.0
 11
148.5450963879
 21
151.3749038338
 31
0.0
  0
LINE
  5
D1
330
1F
100
AcDbEntity
  8
0
  6
Continuous
 62
     7
370
    15
100
AcDbLine
 10
144.7250961716
 20
151.3749038338
 30
0.0
 11
144.7250961716
 21
151.2008135676
 31
0.0
  0
LINE
  5
D2
330
1F
100
AcDbEntity
  8
0
  6
Continuous
 62
     7
370
    15
100
AcDbLine
 10
154.5850967447
 20
153.5568510651
 30
0.0
 11
154.5850967447
 21
145.6577697307
 31
0.0
  0
LINE
  5
D3
330
1F
100
AcDbEntity
  8
0
  6
Continuous
 62
     7
370
    15
100
AcDbLine
 10
138.7350964284
 20
153.5568510651
 30
0.0
 11
138.7350964284
 21
145.6577697307
 31
0.0
  0
SPLINE
  5
D4
330
1F
100
AcDbEntity
  8
0
  6
Continuous
 62
     7
370
    15
100
AcDbSpline
210
0.0
220
0.0
230
1.0
 70
     8
 71
     3
 72
    10
 73
     6
 74
     0
 42
0.000000001
 43
0.00000001
 40
0.0
 40
0.0
 40
0.0
 40
0.0
 40
0.5
 40
0.5
 40
1.0
 40
1.0
 40
1.0
 40
1.0
 10
139.0249654281865
 20
162.5179335408062
 30
0.0
 10
138.9485123382677
 20
162.4476707695856
 30
0.0
 10
138.8796506159987
 20
162.3605758545438
 30
0.0
 10
138.7731383849257
 20
162.1514067262916
 30
0.0
 10
138.7350965092402
 20
162.026089177052
 30
0.0
 10
138.7350965092402
 20
161.8967388824561
 30
0.0
  0
SPLINE
  5
D5
330
1F
100
AcDbEntity
  8
0
  6
Continuous
 62
     7
370
    15
100
AcDbSpline
210
0.0
220
0.0
230
1.0
 70
     8
 71
     3
 72
     8
 73
     4
 74
     0
 42
0.000000001
 43
0.00000001
 40
0.0
 40
0.0
 40
0.0
 40
0.0
 40
1.0
 40
1.0
 40
1.0
 40
1.0
 10
139.3350965092402
 20
162.587613869859
 30
0.0
 10
139.2240183239028
 20
162.587613869859
 30
0.0
 10
139.1163543200005
 20
162.5624646943044
 30
0.0
 10
139.0249654281865
 20
162.5179335408062
 30
0.0
  0
LINE
  5
D6
330
1F
100
AcDbEntity
  8
0
  6
Continuous
 62
     7
370
    15
100
AcDbLine
 10
138.7350964284
 20
153.5568510651
 30
0.0
 11
138.7350964284
 21
161.8967404127
 31
0.0
  0
LINE
  5
D7
330
1F
100
AcDbEntity
  8
0
  6
Continuous
 62
     7
370
    15
100
AcDbLine
 10
143.4019354562
 20
162.587614125
 30
0.0
 11
139.3350965733
 21
162.587614125
 31
0.0
  0
LINE
  5
D8
330
1F
100
AcDbEntity
  8
0
  6
Continuous
 62
     7
370
    15
100
AcDbLine
 10
33.9350977371
 20
97.4289247304
 30
0.0
 11
33.9350977371
 21
134.1866136998
 31
0.0
  0
SPLINE
  5
D9
330
1F
100
AcDbEntity
  8
0
  6
Continuous
 62
     7
370
    15
100
AcDbSpline
210
0.0
220
0.0
230
1.0
 70
     8
 71
     3
 72
    11
 73
     7
 74
     0
 42
0.000000001
 43
0.00000001
 40
0.0
 40
0.0
 40
0.0
 40
0.0
 40
0.1304724613150232
 40
0.481044162257746
 40
0.8152722247316435
 40
1.0
 40
1.0
 40
1.0
 40
1.0
 10
259.6224599907619
 20
114.944246749277
 30
0.0
 10
259.4991423768986
 20
114.8012593918389
 30
0.0
 10
259.044477709316
 20
114.2740735560007
 30
0.0
 10
258.1931063887386
 20
113.2868768427375
 30
0.0
 10
257.2740432800366
 20
112.2212075655666
 30
0.0
 10
256.78132991593
 20
111.6498995534323
 30
0.0
 10
256.6059434244853
 20
111.4465364724162
 30
0.0
  0
SPLINE
  5
DA
330
1F
100
AcDbEntity
  8
0
  6
Continuous
 62
     7
370
    15
100
AcDbSpline
210
0.0
220
0.0
230
1.0
 70
     8
 71
     3
 72
    11
 73
     7
 74
     0
 42
0.000000001
 43
0.00000001
 40
0.0
 40
0.0
 40
0.0
 40
0.0
 40
0.2164567457028521
 40
0.440314254148393
 40
0.7519026095375057
 40
1.0
 40
1.0
 40
1.0
 40
1.0
 10
258.1016102264148
 20
119.3054794337365
 30
0.0
 10
258.2057917131671
 20
119.0067289018785
 30
0.0
 10
258.4177167030144
 20
118.3990134103408
 30
0.0
 10
258.8109875210457
 20
117.2712603333688
 30
0.0
 10
259.2328299094189
 20
116.0615459726513
 30
0.0
 10
259.5027914781608
 20
115.2874069481266
 30
0.0
 10
259.6224599907619
 20
114.944246749277
 30
0.0
  0
SPLINE
  5
DB
330
1F
100
AcDbEntity
  8
0
  6
Continuous
 62
     7
370
    15
100
AcDbSpline
210
0.0
220
0.0
230
1.0
 70
     8
 71
     3
 72
    11
 73
     7
 74
     0
 42
0.000000001
 43
0.00000001
 40
0.0
 40
0.0
 40
0.0
 40
0.0
 40
0.2164574908830598
 40
0.4403138415244623
 40
0.7519032141988741
 40
1.0
 40
1.0
 40
1.0
 40
1.0
 10
253.5642438957911
 20
120.1690019577506
 30
0.0
 10
253.8750616285121
 20
120.1098496217566
 30
0.0
 10
254.5073213361802
 20
119.9895230292676
 30
0.0
 10
255.680620046127
 20
119.7662262223131
 30
0.0
 10
256.9391867136315
 20
119.5267052045526
 30
0.0
 10
257.7445916246919
 20
119.3734251647831
 30
0.0
 10
258.1016102264148
 20
119.3054794337365
 30
0.0
  0
SPLINE
  5
DC
330
1F
100
AcDbEntity
  8
0
  6
Continuous
 62
     7
370
    15
100
AcDbSpline
210
0.0
220
0.0
230
1.0
 70
     8
 71
     3
 72
    11
 73
     7
 74
     0
 42
0.000000001
 43
0.00000001
 40
0.0
 40
0.0
 40
0.0
 40
0.0
 40
0.184726995531443
 40
0.5189553281823305
 40
0.869528374057594
 40
1.0
 40
1.0
 40
1.0
 40
1.0
 10
250.5477347800952
 20
116.6712916808899
 30
0.0
 10
250.723118593723
 20
116.8746548993721
 30
0.0
 10
251.2158260309726
 20
117.445965148229
 30
0.0
 10
252.1348893078539
 20
118.511634722543
 30
0.0
 10
252.9862713025567
 20
119.4988239810004
 30
0.0
 10
253.4409290728409
 20
120.0260144190412
 30
0.0
 10
253.5642438957911
 20
120.1690019577506
 30
0.0
  0
CIRCLE
  5
DD
330
1F
100
AcDbEntity
  8
0
  6
Continuous
 62
     7
370
    15
100
AcDbCircle
 10
255.0850965092
 20
115.8077692151
 30
0.0
 40
4.750000000000031
  0
SPLINE
  5
DE
330
1F
100
AcDbEntity
  8
0
  6
Continuous
 62
     7
370
    15
100
AcDbSpline
210
0.0
220
0.0
230
1.0
 70
     8
 71
     3
 72
    11
 73
     7
 74
     0
 42
0.000000001
 43
0.00000001
 40
0.0
 40
0.0
 40
0.0
 40
0.0
 40
0.216456394066552
 40
0.4403145553195471
 40
0.751902860611501
 40
0.9999999999999999
 40
0.9999999999999999
 40
0.9999999999999999
 40
0.9999999999999999
 10
256.6059434244853
 20
111.4465364724162
 30
0.0
 10
256.29512829264
 20
111.505689080641
 30
0.0
 10
255.6628696469425
 20
111.6260170316761
 30
0.0
 10
254.4895714643469
 20
111.8493101590528
 30
0.0
 10
253.23100603445
 20
112.0888341915319
 30
0.0
 10
252.425603192928
 20
112.2421134349147
 30
0.0
 10
252.0685845444422
 20
112.3100589964303
 30
0.0
  0
SPLINE
  5
DF
330
1F
100
AcDbEntity
  8
0
  6
Continuous
 62
     7
370
    15
100
AcDbSpline
210
0.0
220
0.0
230
1.0
 70
     8
 71
     3
 72
    11
 73
     7
 74
     0
 42
0.000000001
 43
0.00000001
 40
0.0
 40
0.0
 40
0.0
 40
0.0
 40
0.2164567385202839
 40
0.440314239537681
 40
0.7519030912017651
 40
0.9999999999999999
 40
0.9999999999999999
 40
0.9999999999999999
 40
0.9999999999999999
 10
252.0685845444422
 20
112.3100589964303
 30
0.0
 10
251.9644029082833
 20
112.6088094787881
 30
0.0
 10
251.7524776145144
 20
113.2165248696332
 30
0.0
 10
251.3592091797004
 20
114.3442795838355
 30
0.0
 10
250.9373537329224
 20
115.553989711719
 30
0.0
 10
250.667399711622
 20
116.328131106525
 30
0.0
 10
250.5477347800952
 20
116.6712916808899
 30
0.0
  0
CIRCLE
  5
E0
330
1F
100
AcDbEntity
  8
0
  6
Continuous
 62
     7
370
    15
100
AcDbCircle
 10
255.0850965092
 20
115.8077692151
 30
0.0
 40
7.199999999999998
  0
CIRCLE
  5
E1
330
1F
100
AcDbEntity
  8
0
  6
Continuous
 62
     7
370
    15
100
AcDbCircle
 10
255.0850965092
 20
115.8077692151
 30
0.0
 40
8.000000000000028
  0
ARC
  5
E2
330
1F
100
AcDbEntity
  8
0
  6
Continuous
 62
     7
370
    15
100
AcDbCircle
 10
255.0850965092
 20
115.8077692151
 30
0.0
 40
3.999999999999996
100
AcDbArc
 50
199.224684967
 51
259.224684967
  0
ARC
  5
E3
330
1F
100
AcDbEntity
  8
0
  6
Continuous
 62
     7
370
    15
100
AcDbCircle
 10
255.0850965092
 20
115.8077692151
 30
0.0
 40
4.000000000000012
100
AcDbArc
 50
19.224684967
 51
79.224684967
  0
ARC
  5
E4
330
1F
100
AcDbEntity
  8
0
  6
Continuous
 62
     7
370
    15
100
AcDbCircle
 10
255.0850965092
 20
115.8077692151
 30
0.0
 40
4.000000000000012
100
AcDbArc
 50
79.224684967
 51
139.224684967
  0
ARC
  5
E5
330
1F
100
AcDbEntity
  8
0
  6
Continuous
 62
     7
370
    15
100
AcDbCircle
 10
255.0850965092
 20
115.8077692151
 30
0.0
 40
4.000000000000027
100
AcDbArc
 50
259.224684967
 51
319.224684967
  0
ARC
  5
E6
330
1F
100
AcDbEntity
  8
0
  6
Continuous
 62
     7
370
    15
100
AcDbCircle
 10
255.0850965092
 20
115.8077692151
 30
0.0
 40
4.000000000000027
100
AcDbArc
 50
319.224684967
 51
19.224684967
  0
ARC
  5
E7
330
1F
100
AcDbEntity
  8
0
  6
Continuous
 62
     7
370
    15
100
AcDbCircle
 10
255.0850965092
 20
115.8077692151
 30
0.0
 40
3.999999999999992
100
AcDbArc
 50
139.224684967
 51
199.224684967
  0
ARC
  5
E8
330
1F
100
AcDbEntity
  8
0
  6
Continuous
 62
     7
370
    15
100
AcDbCircle
 10
149.6741997013
 20
100.6597518131
 30
0.0
 40
2.448182909934524
100
AcDbArc
 50
187.5229922127
 51
277.4472457422
  0
ARC
  5
E9
330
1F
100
AcDbEntity
  8
0
  6
Continuous
 62
     7
370
    15
100
AcDbCircle
 10
149.8042741555
 20
100.680757069
 30
0.0
 40
2.45568571150539
100
AcDbArc
 50
274.372966375
 51
340.1405988701
  0
ARC
  5
EA
330
1F
100
AcDbEntity
  8
0
  6
Continuous
 62
     7
370
    15
100
AcDbCircle
 10
149.651890033
 20
100.5483606506
 30
0.0
 40
2.256723282915114
100
AcDbArc
 50
161.3784256048
 51
278.2870333198
  0
ARC
  5
EB
330
1F
100
AcDbEntity
  8
0
  6
Continuous
 62
     7
370
    15
100
AcDbCircle
 10
149.8065690229
 20
100.6129538468
 30
0.0
 40
2.30407635487525
100
AcDbArc
 50
274.245910784
 51
346.3471065976
  0
ARC
  5
EC
330
1F
100
AcDbEntity
  8
0
  6
Continuous
 62
     7
370
    15
100
AcDbCircle
 10
149.6280314302
 20
100.5008596827
 30
0.0
 40
1.875324943586429
100
AcDbArc
 50
125.9259481112
 51
279.5831278713
  0
ARC
  5
ED
330
1F
100
AcDbEntity
  8
0
  6
Continuous
 62
     7
370
    15
100
AcDbCircle
 10
149.8122397084
 20
100.5709426079
 30
0.0
 40
1.923501048884409
100
AcDbArc
 50
273.815370798
 51
358.517521486
  0
LWPOLYLINE
  5
EE
330
1F
100
AcDbEntity
  8
0
  6
HIDDEN
 62
     7
370
     0
100
AcDbPolyline
 90
       19
 70
   128
 43
0.0
 10
149.7350966016
 20
99.9504526615
 10
150.5901466513
 20
100.0921273142
 10
151.3420657644
 20
100.5000680223
 10
151.9001608173
 20
101.1250674262
 10
152.1971167455
 20
101.8917442769
 10
152.1971167455
 20
102.7076238304
 10
151.9001608173
 20
103.4742997497
 10
151.3420657644
 20
104.0992991537
 10
150.5901466513
 20
104.5072389304
 10
149.7350966016
 20
104.6489154458
 10
148.8800465519
 20
104.5072389304
 10
148.1281274388
 20
104.0992991537
 10
147.5700333173
 20
103.4742997497
 10
147.2730773891
 20
102.7076238304
 10
147.2730773891
 20
101.8917442769
 10
147.5700333173
 20
101.1250674262
 10
148.1281274388
 20
100.5000680223
 10
148.8800465519
 20
100.0921273142
 10
149.7350966016
 20
99.9504526615
  0
LWPOLYLINE
  5
EF
330
1F
100
AcDbEntity
  8
0
  6
HIDDEN
 62
     7
370
     0
100
AcDbPolyline
 90
       21
 70
   128
 43
0.0
 10
139.0068274847
 20
101.9029089719
 10
139.2394613864
 20
100.9938720152
 10
139.6107391844
 20
100.1738173425
 10
140.0843171793
 20
99.5230184406
 10
140.6138383242
 20
99.1051805675
 10
141.1474698613
 20
98.9612018227
 10
141.6329753044
 20
99.1051805675
 10
142.022831125
 20
99.5230184406
 10
142.2788745182
 20
100.1738173425
 10
142.376042662
 20
100.9938720152
 10
142.3048244248
 20
101.9029089719
 10
142.0721902902
 20
102.8119468599
 10
141.7009124922
 20
103.6320015326
 10
141.2273344974
 20
104.2828004345
 10
140.6978133524
 20
104.7006383076
 10
140.1641818153
 20
104.844616121
 10
139.6786763723
 20
104.7006383076
 10
139.2888205516
 20
104.2828004345
 10
139.0327771584
 20
103.6320015326
 10
138.9356087817
 20
102.8119468599
 10
139.0068274847
 20
101.9029089719
  0
LWPOLYLINE
  5
F0
330
1F
100
AcDbEntity
  8
0
  6
HIDDEN
 62
     7
370
     0
100
AcDbPolyline
 90
       18
 70
   128
 43
0.0
 10
139.7698593716
 20
101.9671711609
 10
139.9721281993
 20
101.2233042627
 10
140.302973559
 20
100.5799000621
 10
140.7177138532
 20
100.1238556117
 10
141.160335617
 20
99.9167592734
 10
141.5710600483
 20
99.9865842521
 10
141.8944166432
 20
100.3238981128
 10
142.0867347548
 20
100.8831442803
 10
142.1220402623
 20
101.5887943566
 10
141.9955652597
 20
102.3455470338
 10
141.7243906687
 20
103.0511971101
 10
141.3451402838
 20
103.6104432776
 10
140.9090340527
 20
103.9477571383
 10
140.4749702121
 20
104.0175811857
 10
140.1015717926
 20
103.81048671
 10
139.8392680491
 20
103.3544413283
 10
139.7234850953
 20
102.711038059
 10
139.7698593716
 20
101.9671711609
  0
ELLIPSE
  5
F1
330
1F
100
AcDbEntity
  8
0
  6
HIDDEN
 62
     7
370
     0
100
AcDbEllipse
 10
149.7350965092
 20
104.0772591037
 30
0.0
 11
1.760776919379083
 21
2.232245799914452
 31
0.0
210
0.0
220
0.0
230
1.0
 40
0.5126701559
 41
1.100887047646267
 42
4.029627027608258
  0
ARC
  5
F2
330
1F
100
AcDbEntity
  8
0
  6
HIDDEN
 62
     7
370
     0
100
AcDbCircle
 10
149.0384970407
 20
105.2547989849
 30
0.0
 40
0.7945949542257815
100
AcDbArc
 50
53.4208190544
 51
99.1663888759
  0
ELLIPSE
  5
F3
330
1F
100
AcDbEntity
  8
0
  6
HIDDEN
 62
     7
370
     0
100
AcDbEllipse
 10
149.7350965092
 20
104.0772591037
 30
0.0
 11
1.760776919379083
 21
-1.388886188042932
 31
0.0
210
0.0
220
0.0
230
1.0
 40
0.8239737799
 41
2.549926265248539
 42
4.885930273856119
  0
ARC
  5
F4
330
1F
100
AcDbEntity
  8
0
  6
HIDDEN
 62
     7
370
     0
100
AcDbCircle
 10
149.9811492712
 20
103.2377815397
 30
0.0
 40
1.353195702694778
100
AcDbArc
 50
217.8001040701
 51
249.7155767561
  0
LWPOLYLINE
  5
F5
330
1F
100
AcDbEntity
  8
0
  6
HIDDEN
 62
     7
370
     0
100
AcDbPolyline
 90
       18
 70
   128
 43
0.0
 10
149.7350966016
 20
100.3761229574
 10
150.4937044735
 20
100.5093793854
 10
151.1498575489
 20
100.8911508605
 10
151.6149395535
 20
101.4698775023
 10
151.8261374364
 20
102.1673999265
 10
151.754930375
 20
102.8895120606
 10
151.4109333436
 20
103.5386895299
 10
150.8406044374
 20
104.0272576272
 10
150.1209705526
 20
104.2892321482
 10
149.3492226506
 20
104.2892321482
 10
148.6295887659
 20
104.0272576272
 10
148.059260791
 20
103.5386895299
 10
147.7152628283
 20
102.8895120606
 10
147.6440548355
 20
102.1673999265
 10
147.8552536497
 20
101.4698775023
 10
148.3203356544
 20
100.8911508605
 10
148.9764887298
 20
100.5093793854
 10
149.7350966016
 20
100.3761229574
  0
SPLINE
  5
F6
330
1F
100
AcDbEntity
  8
0
  6
HIDDEN
 62
     7
370
     0
100
AcDbSpline
210
0.0
220
0.0
230
1.0
 70
    11
 71
     3
 72
    64
 73
    60
 74
     0
 42
0.000000001
 43
0.00000001
 40
0.0
 40
0.0
 40
0.0
 40
0.0
 40
0.03125
 40
0.03125
 40
0.0625000000000001
 40
0.0625000000000001
 40
0.0937500000000001
 40
0.0937500000000001
 40
0.1250000000000001
 40
0.1250000000000001
 40
0.1875000000000002
 40
0.1875000000000002
 40
0.2187500000000002
 40
0.2187500000000002
 40
0.2500000000000003
 40
0.2500000000000003
 40
0.2812500000000003
 40
0.2812500000000003
 40
0.3125000000000003
 40
0.3125000000000003
 40
0.3437500000000004
 40
0.3437500000000004
 40
0.3750000000000004
 40
0.3750000000000004
 40
0.4062500000000004
 40
0.4062500000000004
 40
0.4375000000000005
 40
0.4375000000000005
 40
0.5000000000000009
 40
0.5000000000000009
 40
0.5312500000000009
 40
0.5312500000000009
 40
0.562500000000001
 40
0.562500000000001
 40
0.593750000000001
 40
0.593750000000001
 40
0.625000000000001
 40
0.625000000000001
 40
0.6562500000000011
 40
0.6562500000000011
 40
0.6875000000000011
 40
0.6875000000000011
 40
0.7187500000000011
 40
0.7187500000000011
 40
0.7500000000000012
 40
0.7500000000000012
 40
0.8125000000000011
 40
0.8125000000000011
 40
0.8437500000000011
 40
0.8437500000000011
 40
0.8750000000000012
 40
0.8750000000000012
 40
0.9062500000000009
 40
0.9062500000000009
 40
0.9375000000000006
 40
0.9375000000000006
 40
0.9687500000000003
 40
0.9687500000000003
 40
1.0
 40
1.0
 40
1.0
 40
1.0
 10
149.7350965092402
 20
112.2448487284317
 30
0.0
 10
149.5946854549667
 20
112.2448487284317
 30
0.0
 10
149.4569749530816
 20
112.2557675936761
 30
0.0
 10
149.1866094818599
 20
112.2985761375712
 30
0.0
 10
149.0525509895106
 20
112.331052623212
 30
0.0
 10
148.7992025674619
 20
112.4156049674317
 30
0.0
 10
148.6792919938146
 20
112.4674985567118
 30
0.0
 10
148.452328968721
 20
112.5915229887022
 30
0.0
 10
148.3462829736725
 20
112.6634036128026
 30
0.0
 10
148.0591397887109
 20
112.9032035930987
 30
0.0
 10
147.9032189967957
 20
113.1010654086827
 30
0.0
 10
147.744999757966
 20
113.4357025183184
 30
0.0
 10
147.7037489898598
 20
113.555894930194
 30
0.0
 10
147.6490311195913
 20
113.8037555557669
 30
0.0
 10
147.6352540574649
 20
113.9308578321237
 30
0.0
 10
147.6349416219414
 20
114.1916328641931
 30
0.0
 10
147.6488910534989
 20
114.3258764500252
 30
0.0
 10
147.7031606181148
 20
114.5879009748293
 30
0.0
 10
147.7434310354838
 20
114.717540034293
 30
0.0
 10
147.8501757086466
 20
114.9721889847088
 30
0.0
 10
147.9150259052224
 20
115.0934741631321
 30
0.0
 10
148.0666311614962
 20
115.3241868564329
 30
0.0
 10
148.1544206428784
 20
115.4345022383569
 30
0.0
 10
148.3464530506468
 20
115.634875402166
 30
0.0
 10
148.4508911114329
 20
115.7256839127254
 30
0.0
 10
148.6773825155011
 20
115.8875730189718
 30
0.0
 10
148.7993624479137
 20
115.9581317563164
 30
0.0
 10
149.1771238203216
 20
116.1286746544908
 30
0.0
 10
149.4561599229481
 20
116.1911963831569
 30
0.0
 10
149.8708187453292
 20
116.1917359746671
 30
0.0
 10
150.011039939408
 20
116.1766680190884
 30
0.0
 10
150.2832881266738
 20
116.1172496781747
 30
0.0
 10
150.414747449466
 20
116.0734861293585
 30
0.0
 10
150.6688458474106
 20
115.9592776366666
 30
0.0
 10
150.7908585769325
 20
115.8887450603372
 30
0.0
 10
151.0166412047031
 20
115.7278043223473
 30
0.0
 10
151.1222947783322
 20
115.6362916124455
 30
0.0
 10
151.3157942569259
 20
115.4345704838191
 30
0.0
 10
151.4018887814074
 20
115.3263984130375
 30
0.0
 10
151.553538358744
 20
115.096280115056
 30
0.0
 10
151.6196440533979
 20
114.9727653864907
 30
0.0
 10
151.7256428127403
 20
114.7205195542884
 30
0.0
 10
151.7659703931114
 20
114.5917850880432
 30
0.0
 10
151.8208290412648
 20
114.3293688290394
 30
0.0
 10
151.8349982980992
 20
114.1950066507383
 30
0.0
 10
151.8352913640975
 20
113.8045624092048
 30
0.0
 10
151.7790486052611
 20
113.5504582822491
 30
0.0
 10
151.6207046831782
 20
113.2142878453956
 30
0.0
 10
151.5547745012353
 20
113.1075598629702
 30
0.0
 10
151.4026501643721
 20
112.912871812205
 30
0.0
 10
151.3165081611868
 20
112.8243056750231
 30
0.0
 10
151.1237548092072
 20
112.663215403916
 30
0.0
 10
151.0174688709096
 20
112.5913434578732
 30
0.0
 10
150.7922001991079
 20
112.4681722236991
 30
0.0
 10
150.6722985962817
 20
112.4160443107025
 30
0.0
 10
150.4164204269562
 20
112.3306421637658
 30
0.0
 10
150.2848834989878
 20
112.2988677057239
 30
0.0
 10
150.015060160378
 20
112.2559745183421
 30
0.0
 10
149.8755075635137
 20
112.2448487284317
 30
0.0
 10
149.7350965092402
 20
112.2448487284317
 30
0.0
  0
SPLINE
  5
F7
330
1F
100
AcDbEntity
  8
0
  6
HIDDEN
 62
     7
370
     0
100
AcDbSpline
210
0.0
220
0.0
230
1.0
 70
     8
 71
     3
 72
     8
 73
     4
 74
     0
 42
0.000000001
 43
0.00000001
 40
0.0
 40
0.0
 40
0.0
 40
0.0
 40
1.0
 40
1.0
 40
1.0
 40
1.0
 10
148.9119163330808
 20
106.0392471796048
 30
0.0
 10
149.123343723082
 20
106.0317376698223
 30
0.0
 10
149.3258122696148
 20
105.9776141401877
 30
0.0
 10
149.5120228687522
 20
105.8928858529625
 30
0.0
  0
SPLINE
  5
F8
330
1F
100
AcDbEntity
  8
0
  6
HIDDEN
 62
     7
370
     0
100
AcDbSpline
210
0.0
220
0.0
230
1.0
 70
     8
 71
     3
 72
     8
 73
     4
 74
     0
 42
0.000000001
 43
0.00000001
 40
0.0
 40
0.0
 40
0.0
 40
0.0
 40
1.0
 40
1.0
 40
1.0
 40
1.0
 10
149.5120228687521
 20
101.9685070850283
 30
0.0
 10
149.3254985194677
 20
102.0908275009287
 30
0.0
 10
149.1229436209421
 20
102.2319126615934
 30
0.0
 10
148.9119163330809
 20
102.4083962973783
 30
0.0
  0
CIRCLE
  5
F9
330
1F
100
AcDbEntity
  8
0
  6
HIDDEN
 62
     7
370
     0
100
AcDbCircle
 10
255.0850965092
 20
115.8077692151
 30
0.0
 40
7.25
  0
LINE
  5
FA
330
1F
100
AcDbEntity
  8
0
  6
HIDDEN
 62
     7
370
     0
100
AcDbLine
 10
273.8850915263
 20
139.8020660043
 30
0.0
 11
273.8850915263
 21
144.69938851
 31
0.0
  0
LINE
  5
FB
330
1F
100
AcDbEntity
  8
0
  6
HIDDEN
 62
     7
370
     0
100
AcDbLine
 10
273.8850915263
 20
95.8897260487
 30
0.0
 11
273.8850915263
 21
135.7258123815
 31
0.0
  0
LINE
  5
FC
330
1F
100
AcDbEntity
  8
0
  6
HIDDEN
 62
     7
370
     0
100
AcDbLine
 10
273.8850915263
 20
86.9161499202
 30
0.0
 11
273.8850915263
 21
91.8134724259
 31
0.0
  0
LINE
  5
FD
330
1F
100
AcDbEntity
  8
0
  6
HIDDEN
 62
     7
370
     0
100
AcDbLine
 10
269.5850932429
 20
104.8095872164
 30
0.0
 11
269.5850932429
 21
126.8059512138
 31
0.0
  0
LINE
  5
FE
330
1F
100
AcDbEntity
  8
0
  6
HIDDEN
 62
     7
370
     0
100
AcDbLine
 10
273.8850915263
 20
139.8020660043
 30
0.0
 11
273.8850915263
 21
139.6760357082
 31
0.0
  0
LINE
  5
FF
330
1F
100
AcDbEntity
  8
0
  6
HIDDEN
 62
     7
370
     0
100
AcDbLine
 10
269.5850932429
 20
139.6760357082
 30
0.0
 11
273.8850915263
 21
139.6760357082
 31
0.0
  0
LINE
  5
100
330
1F
100
AcDbEntity
  8
0
  6
HIDDEN
 62
     7
370
     0
100
AcDbLine
 10
269.5850932429
 20
139.8077694237
 30
0.0
 11
269.5850932429
 21
134.6077689439
 31
0.0
  0
LINE
  5
101
330
1F
100
AcDbEntity
  8
0
  6
HIDDEN
 62
     7
370
     0
100
AcDbLine
 10
269.5850932429
 20
134.6077689439
 30
0.0
 11
269.5850932429
 21
126.8059512138
 31
0.0
  0
LINE
  5
102
330
1F
100
AcDbEntity
  8
0
  6
HIDDEN
 62
     7
370
     0
100
AcDbLine
 10
269.5850932429
 20
126.8059512138
 30
0.0
 11
273.8850915263
 21
126.8059512138
 31
0.0
  0
LINE
  5
103
330
1F
100
AcDbEntity
  8
0
  6
HIDDEN
 62
     7
370
     0
100
AcDbLine
 10
269.5850932429
 20
104.8095872164
 30
0.0
 11
269.5850932429
 21
97.0077694863
 31
0.0
  0
LINE
  5
104
330
1F
100
AcDbEntity
  8
0
  6
HIDDEN
 62
     7
370
     0
100
AcDbLine
 10
273.8850915263
 20
104.8095872164
 30
0.0
 11
269.5850932429
 21
104.8095872164
 31
0.0
  0
LINE
  5
105
330
1F
100
AcDbEntity
  8
0
  6
HIDDEN
 62
     7
370
     0
100
AcDbLine
 10
269.5850932429
 20
91.939502722
 30
0.0
 11
273.8850915263
 21
91.939502722
 31
0.0
  0
LINE
  5
106
330
1F
100
AcDbEntity
  8
0
  6
HIDDEN
 62
     7
370
     0
100
AcDbLine
 10
273.8850915263
 20
91.939502722
 30
0.0
 11
273.8850915263
 21
91.8134724259
 31
0.0
  0
LINE
  5
107
330
1F
100
AcDbEntity
  8
0
  6
HIDDEN
 62
     7
370
     0
100
AcDbLine
 10
269.5850932429
 20
97.0077694863
 30
0.0
 11
269.5850932429
 21
91.8077690065
 31
0.0
  0
LINE
  5
108
330
1F
100
AcDbEntity
  8
0
  6
HIDDEN
 62
     7
370
     0
100
AcDbLine
 10
268.0850976536
 20
95.8077696621
 30
0.0
 11
268.0850976536
 21
135.807768768
 31
0.0
  0
LINE
  5
109
330
1F
100
AcDbEntity
  8
0
  6
HIDDEN
 62
     7
370
     0
100
AcDbLine
 10
233.635095639
 20
96.1077691525
 30
0.0
 11
233.635095639
 21
135.5077692777
 31
0.0
  0
LINE
  5
10A
330
1F
100
AcDbEntity
  8
0
  6
HIDDEN
 62
     7
370
     0
100
AcDbLine
 10
236.1350932548
 20
95.8077696621
 30
0.0
 11
236.1350932548
 21
135.807768768
 31
0.0
  0
LINE
  5
10B
330
1F
100
AcDbEntity
  8
0
  6
HIDDEN
 62
     7
370
     0
100
AcDbLine
 10
269.5850932429
 20
143.8327686399
 30
0.0
 11
269.5850932429
 21
139.8077694237
 31
0.0
  0
LINE
  5
10C
330
1F
100
AcDbEntity
  8
0
  6
HIDDEN
 62
     7
370
     0
100
AcDbLine
 10
269.5850932429
 20
91.8077690065
 30
0.0
 11
269.5850932429
 21
87.7827697903
 31
0.0
  0
LINE
  5
10D
330
1F
100
AcDbEntity
  8
0
  6
HIDDEN
 62
     7
370
     0
100
AcDbLine
 10
138.9066693297
 20
80.507767713
 30
0.0
 11
138.7350964284
 21
80.507767713
 31
0.0
  0
ELLIPSE
  5
10E
330
1F
100
AcDbEntity
  8
0
  6
HIDDEN
 62
     7
370
     0
100
AcDbEllipse
 10
138.9066693845
 20
78.5077692151
 30
0.0
 11
0.0
 21
2.0
 31
0.0
210
0.0
220
0.0
230
1.0
 40
0.4142135624
 41
4.712388980384695
 42
6.283185307179586
  0
LINE
  5
10F
330
1F
100
AcDbEntity
  8
0
  6
HIDDEN
 62
     7
370
     0
100
AcDbLine
 10
138.7350964284
 20
153.3077707052
 30
0.0
 11
138.9066693297
 21
153.3077707052
 31
0.0
  0
ELLIPSE
  5
110
330
1F
100
AcDbEntity
  8
0
  6
HIDDEN
 62
     7
370
     0
100
AcDbEllipse
 10
138.9066693845
 20
155.3077692151
 30
0.0
 11
0.0
 21
2.0
 31
0.0
210
0.0
220
0.0
230
1.0
 40
0.4142135624
 41
3.141592653589758
 42
4.712388980384695
  0
LINE
  5
111
330
1F
100
AcDbEntity
  8
0
  6
HIDDEN
 62
     7
370
     0
100
AcDbLine
 10
139.7350963595
 20
69.621854788
 30
0.0
 11
138.9507565106
 21
69.1743133127
 31
0.0
  0
LINE
  5
112
330
1F
100
AcDbEntity
  8
0
  6
HIDDEN
 62
     7
370
     0
100
AcDbLine
 10
139.0249654575
 20
162.51793257
 30
0.0
 11
139.7350963595
 21
161.8078028321
 31
0.0
  0
LINE
  5
113
330
1F
100
AcDbEntity
  8
0
  6
HIDDEN
 62
     7
370
     0
100
AcDbLine
 10
156.0211011598
 20
80.507767713
 30
0.0
 11
138.9066693297
 21
80.507767713
 31
0.0
  0
LINE
  5
114
330
1F
100
AcDbEntity
  8
0
  6
HIDDEN
 62
     7
370
     0
100
AcDbLine
 10
139.7350963595
 20
161.8078028321
 30
0.0
 11
143.9584258402
 21
161.8078028321
 31
0.0
  0
LINE
  5
115
330
1F
100
AcDbEntity
  8
0
  6
HIDDEN
 62
     7
370
     0
100
AcDbLine
 10
149.3117676506
 20
161.8078028321
 30
0.0
 11
154.5850967447
 21
161.8078028321
 31
0.0
  0
LINE
  5
116
330
1F
100
AcDbEntity
  8
0
  6
HIDDEN
 62
     7
370
     0
100
AcDbLine
 10
139.7350963595
 20
161.8078028321
 30
0.0
 11
139.7350963595
 21
155.307771033
 31
0.0
  0
LINE
  5
117
330
1F
100
AcDbEntity
  8
0
  6
HIDDEN
 62
     7
370
     0
100
AcDbLine
 10
143.8550490344
 20
69.621854788
 30
0.0
 11
139.7350963595
 21
69.621854788
 31
0.0
  0
LINE
  5
118
330
1F
100
AcDbEntity
  8
0
  6
HIDDEN
 62
     7
370
     0
100
AcDbLine
 10
154.5850967447
 20
69.621854788
 30
0.0
 11
149.4151444564
 21
69.621854788
 31
0.0
  0
LINE
  5
119
330
1F
100
AcDbEntity
  8
0
  6
HIDDEN
 62
     7
370
     0
100
AcDbLine
 10
139.7350963595
 20
69.621854788
 30
0.0
 11
139.7350963595
 21
78.5077673852
 31
0.0
  0
LINE
  5
11A
330
1F
100
AcDbEntity
  8
0
  6
HIDDEN
 62
     7
370
     0
100
AcDbLine
 10
138.9066693297
 20
153.3077707052
 30
0.0
 11
154.5850967447
 21
153.3077707052
 31
0.0
  0
LINE
  5
11B
330
1F
100
AcDbEntity
  8
0
  6
HIDDEN
 62
     7
370
     0
100
AcDbLine
 10
43.9350956509
 20
103.3077690288
 30
0.0
 11
43.9350956509
 21
128.3077694013
 31
0.0
  0
LINE
  5
11C
330
1F
100
AcDbEntity
  8
0
  6
HIDDEN
 62
     7
370
     0
100
AcDbLine
 10
47.2196990082
 20
105.3077693566
 30
0.0
 11
47.2196990082
 21
126.3077690735
 31
0.0
  0
LINE
  5
11D
330
1F
100
AcDbEntity
  8
0
  6
HIDDEN
 62
     7
370
     0
100
AcDbLine
 10
95.9350967238
 20
105.3077693566
 30
0.0
 11
95.9350967238
 21
126.3077690735
 31
0.0
  0
LINE
  5
11E
330
1F
100
AcDbEntity
  8
0
  6
HIDDEN
 62
     7
370
     0
100
AcDbLine
 10
99.1797426174
 20
110.7077690311
 30
0.0
 11
99.1797426174
 21
120.9077693991
 31
0.0
  0
LINE
  5
11F
330
1F
100
AcDbEntity
  8
0
  6
HIDDEN
 62
     7
370
     0
100
AcDbLine
 10
167.4350963364
 20
80.507767713
 30
0.0
 11
165.318805484
 21
80.507767713
 31
0.0
  0
SPLINE
  5
120
330
1F
100
AcDbEntity
  8
0
  6
HIDDEN
 62
     7
370
     0
100
AcDbSpline
210
0.0
220
0.0
230
1.0
 70
    11
 71
     3
 72
    64
 73
    60
 74
     0
 42
0.000000001
 43
0.00000001
 40
0.0
 40
0.0
 40
0.0
 40
0.0
 40
0.0312499999999998
 40
0.0312499999999998
 40
0.0624999999999996
 40
0.0624999999999996
 40
0.0937499999999993
 40
0.0937499999999993
 40
0.1249999999999991
 40
0.1249999999999991
 40
0.1874999999999992
 40
0.1874999999999992
 40
0.2187499999999993
 40
0.2187499999999993
 40
0.2499999999999993
 40
0.2499999999999993
 40
0.2812499999999993
 40
0.2812499999999993
 40
0.3124999999999993
 40
0.3124999999999993
 40
0.3437499999999993
 40
0.3437499999999993
 40
0.3749999999999993
 40
0.3749999999999993
 40
0.4062499999999993
 40
0.4062499999999993
 40
0.4374999999999993
 40
0.4374999999999993
 40
0.4999999999999997
 40
0.4999999999999997
 40
0.5312499999999997
 40
0.5312499999999997
 40
0.5624999999999997
 40
0.5624999999999997
 40
0.5937499999999997
 40
0.5937499999999997
 40
0.6249999999999997
 40
0.6249999999999997
 40
0.6562499999999997
 40
0.6562499999999997
 40
0.6874999999999997
 40
0.6874999999999997
 40
0.7187499999999997
 40
0.7187499999999997
 40
0.7499999999999997
 40
0.7499999999999997
 40
0.8124999999999996
 40
0.8124999999999996
 40
0.8437499999999996
 40
0.8437499999999996
 40
0.8749999999999997
 40
0.8749999999999997
 40
0.9062499999999998
 40
0.9062499999999998
 40
0.9374999999999999
 40
0.9374999999999999
 40
0.96875
 40
0.96875
 40
1.0
 40
1.0
 40
1.0
 40
1.0
 10
149.7350965092402
 20
115.4239806944344
 30
0.0
 10
149.8755075635137
 20
115.4239806944344
 30
0.0
 10
150.0132180653989
 20
115.4392546818904
 30
0.0
 10
150.2835835366205
 20
115.4984451692891
 30
0.0
 10
150.4176420289698
 20
115.5431512691777
 30
0.0
 10
150.6709904510185
 20
115.6574308228208
 30
0.0
 10
150.7909010246659
 20
115.7267629442013
 30
0.0
 10
151.0178640497595
 20
115.8886667895013
 30
0.0
 10
151.1239100448079
 20
115.9808572530903
 30
0.0
 10
151.4110532297695
 20
116.2804219973721
 30
0.0
 10
151.5669740216848
 20
116.5175913242167
 30
0.0
 10
151.7251932605144
 20
116.8938705637042
 30
0.0
 10
151.7664440286206
 20
117.025385229471
 30
0.0
 10
151.8211618988891
 20
117.2884049598912
 30
0.0
 10
151.8349389610156
 20
117.4194189184612
 30
0.0
 10
151.8352513965391
 20
117.6802819522134
 30
0.0
 10
151.8213019649815
 20
117.810565777448
 30
0.0
 10
151.7670324003657
 20
118.0575531730287
 30
0.0
 10
151.7267619829966
 20
118.1761267886552
 30
0.0
 10
151.6200173098339
 20
118.4026697687255
 30
0.0
 10
151.5551671132581
 20
118.5073506109758
 30
0.0
 10
151.4035618569842
 20
118.7016242563294
 30
0.0
 10
151.315772375602
 20
118.7918909002318
 30
0.0
 10
151.1237399678336
 20
118.9522920353114
 30
0.0
 10
151.0193019070475
 20
119.0230933148312
 30
0.0
 10
150.7928105029794
 20
119.1471308409009
 30
0.0
 10
150.6708305705667
 20
119.1999494004395
 30
0.0
 10
150.2930691981588
 20
119.3261352430538
 30
0.0
 10
150.0140330955323
 20
119.3704304183872
 30
0.0
 10
149.5993742731512
 20
119.3708175945217
 30
0.0
 10
149.4591530790725
 20
119.3600477303442
 30
0.0
 10
149.1869048918066
 20
119.3170764332274
 30
0.0
 10
149.0554455690144
 20
119.2852906368717
 30
0.0
 10
148.8013471710699
 20
119.200807240083
 30
0.0
 10
148.6793344415478
 20
119.1480119780119
 30
0.0
 10
148.4535518137773
 20
119.0247344733129
 30
0.0
 10
148.3478982401483
 20
118.9534162179415
 30
0.0
 10
148.1543987615546
 20
118.7919549725994
 30
0.0
 10
148.068304237073
 20
118.7034489682545
 30
0.0
 10
147.9166546597365
 20
118.5097501261731
 30
0.0
 10
147.8505489650825
 20
118.4031525007448
 30
0.0
 10
147.7445502057402
 20
118.178807085534
 30
0.0
 10
147.704222625369
 20
118.0611454242762
 30
0.0
 10
147.6493639772156
 20
117.8139247826697
 30
0.0
 10
147.6351947203812
 20
117.6835844501576
 30
0.0
 10
147.6349016543829
 20
117.2932227546451
 30
0.0
 10
147.6911444132193
 20
117.022813329592
 30
0.0
 10
147.8494883353022
 20
116.6449490275582
 30
0.0
 10
147.9154185172451
 20
116.5213359785299
 30
0.0
 10
148.0675428541083
 20
116.2900960999048
 30
0.0
 10
148.1536848572937
 20
116.1818521030426
 30
0.0
 10
148.3464382092733
 20
115.9806305337261
 30
0.0
 10
148.4527241475709
 20
115.8884281521177
 30
0.0
 10
148.6779928193725
 20
115.7276466191817
 30
0.0
 10
148.7978944221987
 20
115.6580244395227
 30
0.0
 10
149.0537725915243
 20
115.5425966913116
 30
0.0
 10
149.1853095194926
 20
115.4988465114938
 30
0.0
 10
149.4551328581025
 20
115.439542574552
 30
0.0
 10
149.5946854549667
 20
115.4239806944344
 30
0.0
 10
149.7350965092402
 20
115.4239806944344
 30
0.0
  0
SPLINE
  5
121
330
1F
100
AcDbEntity
  8
0
  6
HIDDEN
 62
     7
370
     0
100
AcDbSpline
210
0.0
220
0.0
230
1.0
 70
     8
 71
     3
 72
     8
 73
     4
 74
     0
 42
0.000000001
 43
0.00000001
 40
0.0
 40
0.0
 40
0.0
 40
0.0
 40
1.0
 40
1.0
 40
1.0
 40
1.0
 10
148.9119163330808
 20
125.5762912505621
 30
0.0
 10
149.1233437230819
 20
125.5838007603446
 30
0.0
 10
149.3258122696147
 20
125.6379242899792
 30
0.0
 10
149.5120228687521
 20
125.7226525772044
 30
0.0
  0
ELLIPSE
  5
122
330
1F
100
AcDbEntity
  8
0
  6
HIDDEN
 62
     7
370
     0
100
AcDbEllipse
 10
149.7350965092
 20
127.5382793264
 30
0.0
 11
-1.760776919379055
 21
2.232245799914452
 31
0.0
210
0.0
220
0.0
230
1.0
 40
0.5126701559
 41
5.39515093316068
 42
8.323890913123119
  0
SPLINE
  5
123
330
1F
100
AcDbEntity
  8
0
  6
HIDDEN
 62
     7
370
     0
100
AcDbSpline
210
0.0
220
0.0
230
1.0
 70
     8
 71
     3
 72
     8
 73
     4
 74
     0
 42
0.000000001
 43
0.00000001
 40
0.0
 40
0.0
 40
0.0
 40
0.0
 40
1.0
 40
1.0
 40
1.0
 40
1.0
 10
149.512022868753
 20
129.6470313451391
 30
0.0
 10
149.3254985194681
 20
129.5247109292384
 30
0.0
 10
149.1229436209419
 20
129.3836257685733
 30
0.0
 10
148.91191633308
 20
129.2071421327878
 30
0.0
  0
ELLIPSE
  5
124
330
1F
100
AcDbEntity
  8
0
  6
HIDDEN
 62
     7
370
     0
100
AcDbEllipse
 10
149.7350965092
 20
127.5382793264
 30
0.0
 11
1.760776919379083
 21
1.388886188042918
 31
0.0
210
0.0
220
0.0
230
1.0
 40
0.8239737799
 41
1.397255033323988
 42
3.733259041931051
  0
LWPOLYLINE
  5
125
330
1F
100
AcDbEntity
  8
0
  6
HIDDEN
 62
     7
370
     0
100
AcDbPolyline
 90
       18
 70
   128
 43
0.0
 10
149.7350966016
 20
127.2927060261
 10
150.4937044735
 20
127.4259624541
 10
151.1498575489
 20
127.8077339291
 10
151.6149395535
 20
128.386460571
 10
151.8261374364
 20
129.0839829951
 10
151.754930375
 20
129.8060951292
 10
151.4109333436
 20
130.4552725985
 10
150.8406044374
 20
130.9438406959
 10
150.1209705526
 20
131.2058152169
 10
149.3492226506
 20
131.2058152169
 10
148.6295887659
 20
130.9438406959
 10
148.059260791
 20
130.4552725985
 10
147.7152628283
 20
129.8060951292
 10
147.6440548355
 20
129.0839829951
 10
147.8552536497
 20
128.386460571
 10
148.3203356544
 20
127.8077339291
 10
148.9764887298
 20
127.4259624541
 10
149.7350966016
 20
127.2927060261
  0
LINE
  5
126
330
1F
100
AcDbEntity
  8
0
  6
HIDDEN
 62
     7
370
     0
100
AcDbLine
 10
144.7250961716
 20
151.2008135676
 30
0.0
 11
144.7250961716
 21
145.6577697307
 31
0.0
  0
LINE
  5
127
330
1F
100
AcDbEntity
  8
0
  6
HIDDEN
 62
     7
370
     0
100
AcDbLine
 10
148.5450963879
 20
151.2008135676
 30
0.0
 11
148.5450963879
 21
145.6577697307
 31
0.0
  0
SPLINE
  5
128
330
1F
100
AcDbEntity
  8
0
  6
HIDDEN
 62
     7
370
     0
100
AcDbSpline
210
0.0
220
0.0
230
1.0
 70
     8
 71
     3
 72
    14
 73
    10
 74
     0
 42
0.000000001
 43
0.00000001
 40
0.0
 40
0.0
 40
0.0
 40
0.0
 40
0.25
 40
0.25
 40
0.5
 40
0.5
 40
0.75
 40
0.75
 40
1.0
 40
1.0
 40
1.0
 40
1.0
 10
147.74509650924
 20
132.7830587720172
 30
0.0
 10
147.8195220613747
 20
132.8739162267989
 30
0.0
 10
147.9014003209881
 20
132.9631268100046
 30
0.0
 10
148.0743864671637
 20
133.1385511287965
 30
0.0
 10
148.1650582870247
 20
133.2240860844233
 30
0.0
 10
148.332421836369
 20
133.3849376973617
 30
0.0
 10
148.4088726613355
 20
133.4606697862582
 30
0.0
 10
148.5151657461739
 20
133.5922608098337
 30
0.0
 10
148.5450965092402
 20
133.6492609847399
 30
0.0
 10
148.5450965092402
 20
133.691458257692
 30
0.0
  0
SPLINE
  5
129
330
1F
100
AcDbEntity
  8
0
  6
HIDDEN
 62
     7
370
     0
100
AcDbSpline
210
0.0
220
0.0
230
1.0
 70
     8
 71
     3
 72
    14
 73
    10
 74
     0
 42
0.000000001
 43
0.00000001
 40
0.0
 40
0.0
 40
0.0
 40
0.0
 40
0.25
 40
0.25
 40
0.5
 40
0.5
 40
0.75
 40
0.75
 40
1.0
 40
1.0
 40
1.0
 40
1.0
 10
148.5450965092402
 20
129.5594170590605
 30
0.0
 10
148.5450965092402
 20
129.5169166414059
 30
0.0
 10
148.5153830504235
 20
129.4896447349233
 30
0.0
 10
148.4093016835313
 20
129.4760919609561
 30
0.0
 10
148.3329347543668
 20
129.4905375180971
 30
0.0
 10
148.1641752098383
 20
129.562913682117
 30
0.0
 10
148.0733783973664
 20
129.6199866172344
 30
0.0
 10
147.9018134571591
 20
129.7611445507513
 30
0.0
 10
147.8197522168645
 20
129.8457217658349
 30
0.0
 10
147.74509650924
 20
129.9390949289641
 30
0.0
  0
LINE
  5
12A
330
1F
100
AcDbEntity
  8
0
  6
HIDDEN
 62
     7
370
     0
100
AcDbLine
 10
148.5450963879
 20
102.0105074629
 30
0.0
 11
148.5450963879
 21
97.8784666866
 31
0.0
  0
LINE
  5
12B
330
1F
100
AcDbEntity
  8
0
  6
HIDDEN
 62
     7
370
     0
100
AcDbLine
 10
143.4019354562
 20
154.3188480198
 30
0.0
 11
143.4019354562
 21
145.6577697307
 31
0.0
  0
LINE
  5
12C
330
1F
100
AcDbEntity
  8
0
  6
HIDDEN
 62
     7
370
     0
100
AcDbLine
 10
149.8682580347
 20
101.5106219336
 30
0.0
 11
149.8682580347
 21
96.8188283503
 31
0.0
  0
LINE
  5
12D
330
1F
100
AcDbEntity
  8
0
  6
HIDDEN
 62
     7
370
     0
100
AcDbLine
 10
149.8682580347
 20
154.3188480198
 30
0.0
 11
149.8682580347
 21
145.6577697307
 31
0.0
  0
ARC
  5
12E
330
1F
100
AcDbEntity
  8
0
  6
HIDDEN
 62
     7
370
     0
100
AcDbCircle
 10
149.9811492712
 20
128.3777568904
 30
0.0
 40
1.353195702694764
100
AcDbArc
 50
110.2844232439
 51
142.1998959299
  0
ARC
  5
12F
330
1F
100
AcDbEntity
  8
0
  6
HIDDEN
 62
     7
370
     0
100
AcDbCircle
 10
149.0384970407
 20
126.3607394453
 30
0.0
 40
0.7945949542257675
100
AcDbArc
 50
260.8336111241
 51
306.5791809456
  0
LWPOLYLINE
  5
130
330
1F
100
AcDbEntity
  8
0
  6
HIDDEN
 62
     7
370
     0
100
AcDbPolyline
 90
       18
 70
   128
 43
0.0
 10
139.7698593716
 20
128.5207209646
 10
139.9721281993
 20
127.9744518459
 10
140.302973559
 20
127.6542556941
 10
140.7177138532
 20
127.6033747479
 10
141.160335617
 20
127.8286812365
 10
141.5710600483
 20
128.2997469887
 10
141.8944166432
 20
128.9529505655
 10
142.0867347548
 20
129.70007523
 10
142.1220402623
 20
130.4402159065
 10
141.9955652597
 20
131.0734128117
 10
141.7243906687
 20
131.5141500443
 10
141.3451402838
 20
131.7029030531
 10
140.9090340527
 20
131.6141796767
 10
140.4749702121
 20
131.25996138
 10
140.1015717926
 20
130.6880902037
 10
139.8392680491
 20
129.9757979348
 10
139.7234850953
 20
129.2192836761
 10
139.7698593716
 20
128.5207209646
  0
LWPOLYLINE
  5
131
330
1F
100
AcDbEntity
  8
0
  6
HIDDEN
 62
     7
370
     0
100
AcDbPolyline
 90
       21
 70
   128
 43
0.0
 10
139.0068274847
 20
128.1017049685
 10
139.2394613864
 20
127.4199302777
 10
139.6107391844
 20
126.9625810444
 10
140.0843171793
 20
126.7744250133
 10
140.6138383242
 20
126.8738818824
 10
141.1474698613
 20
127.2512146741
 10
141.6329753044
 20
127.8694880664
 10
142.022831125
 20
128.6681800619
 10
142.2788745182
 20
129.5691107869
 10
142.376042662
 20
130.484090513
 10
142.3048244248
 20
131.3235539481
 10
142.0721902902
 20
132.0053277075
 10
141.7009124922
 20
132.4626778722
 10
141.2273344974
 20
132.6508329719
 10
140.6978133524
 20
132.5513770342
 10
140.1641818153
 20
132.1740442425
 10
139.6786763723
 20
131.5557708502
 10
139.2888205516
 20
130.7570779234
 10
139.0327771584
 20
129.8561471984
 10
138.9356087817
 20
128.9411684036
 10
139.0068274847
 20
128.1017049685
  0
LWPOLYLINE
  5
132
330
1F
100
AcDbEntity
  8
0
  6
HIDDEN
 62
     7
370
     0
100
AcDbPolyline
 90
       19
 70
   128
 43
0.0
 10
149.7350966016
 20
126.9666229844
 10
150.5901466513
 20
127.1082994997
 10
151.3420657644
 20
127.5162392765
 10
151.9001608173
 20
128.1412386805
 10
152.1971167455
 20
128.9079145998
 10
152.1971167455
 20
129.7237941533
 10
151.9001608173
 20
130.4904710039
 10
151.3420657644
 20
131.1154704079
 10
150.5901466513
 20
131.523411116
 10
149.7350966016
 20
131.6650857687
 10
148.8800465519
 20
131.523411116
 10
148.1281274388
 20
131.1154704079
 10
147.5700333173
 20
130.4904710039
 10
147.2730773891
 20
129.7237941533
 10
147.2730773891
 20
128.9079145998
 10
147.5700333173
 20
128.1412386805
 10
148.1281274388
 20
127.5162392765
 10
148.8800465519
 20
127.1082994997
 10
149.7350966016
 20
126.9666229844
  0
SPLINE
  5
133
330
1F
100
AcDbEntity
  8
0
  6
HIDDEN
 62
     7
370
     0
100
AcDbSpline
210
0.0
220
0.0
230
1.0
 70
     8
 71
     3
 72
    34
 73
    30
 74
     0
 42
0.000000001
 43
0.00000001
 40
0.0
 40
0.0
 40
0.0
 40
0.0
 40
0.0624999999999992
 40
0.0624999999999992
 40
0.1249999999999984
 40
0.1249999999999984
 40
0.1874999999999976
 40
0.1874999999999976
 40
0.2499999999999973
 40
0.2499999999999973
 40
0.3124999999999971
 40
0.3124999999999971
 40
0.3749999999999968
 40
0.3749999999999968
 40
0.4999999999999972
 40
0.4999999999999972
 40
0.6249999999999976
 40
0.6249999999999976
 40
0.687499999999998
 40
0.687499999999998
 40
0.7499999999999984
 40
0.7499999999999984
 40
0.8124999999999989
 40
0.8124999999999989
 40
0.8749999999999992
 40
0.8749999999999992
 40
0.9374999999999997
 40
0.9374999999999997
 40
1.0
 40
1.0
 40
1.0
 40
1.0
 10
149.8682580167021
 20
134.7967096030846
 30
0.0
 10
150.02764984449
 20
134.7888695071618
 30
0.0
 10
150.1836523279335
 20
134.7672108590714
 30
0.0
 10
150.4891618440108
 20
134.6973626315786
 30
0.0
 10
150.640056179023
 20
134.6485369292503
 30
0.0
 10
150.9279555237138
 20
134.525612975843
 30
0.0
 10
151.0639019266735
 20
134.4523054677087
 30
0.0
 10
151.3200845422656
 20
134.2822948439374
 30
0.0
 10
151.4412668300247
 20
134.1844210517359
 30
0.0
 10
151.6584129018974
 20
133.9718368763039
 30
0.0
 10
151.7553747748578
 20
133.8567909377743
 30
0.0
 10
151.9259372106833
 20
133.6089298176542
 30
0.0
 10
151.9991772638953
 20
133.4758963205886
 30
0.0
 10
152.1740577206441
 20
133.0663883044585
 30
0.0
 10
152.2350956816201
 20
132.7684276546834
 30
0.0
 10
152.2350973368431
 20
132.176986098809
 30
0.0
 10
152.1740627272568
 20
131.8768125488324
 30
0.0
 10
151.9991729598549
 20
131.4615812685646
 30
0.0
 10
151.9259292544305
 20
131.3262261503178
 30
0.0
 10
151.7553685386939
 20
131.0733268189312
 30
0.0
 10
151.6584048231004
 20
130.9555615413234
 30
0.0
 10
151.4412444945132
 20
130.7374312459548
 30
0.0
 10
151.3200632358264
 20
130.6367279208078
 30
0.0
 10
151.0638930088877
 20
130.4614842279746
 30
0.0
 10
150.9279496592249
 20
130.3857392588839
 30
0.0
 10
150.6400469560418
 20
130.2585708835817
 30
0.0
 10
150.4891567601251
 20
130.2079696112542
 30
0.0
 10
150.1836512564194
 20
130.1355405115063
 30
0.0
 10
150.0276498581559
 20
130.1130547401094
 30
0.0
 10
149.8682580167021
 20
130.1049162802145
 30
0.0
  0
SPLINE
  5
134
330
1F
100
AcDbEntity
  8
0
  6
HIDDEN
 62
     7
370
     0
100
AcDbSpline
210
0.0
220
0.0
230
1.0
 70
     8
 71
     3
 72
    10
 73
     6
 74
     0
 42
0.000000001
 43
0.00000001
 40
0.0
 40
0.0
 40
0.0
 40
0.0
 40
0.5
 40
0.5
 40
1.0
 40
1.0
 40
1.0
 40
1.0
 10
149.8682580167021
 20
130.1049162802145
 30
0.0
 10
149.6455309898287
 20
129.9614277799208
 30
0.0
 10
149.4238451026036
 20
129.8467070341879
 30
0.0
 10
148.9826242647516
 20
129.67694660483
 30
0.0
 10
148.7630656173528
 20
129.6215266104427
 30
0.0
 10
148.5450965092405
 20
129.605031281073
 30
0.0
  0
SPLINE
  5
135
330
1F
100
AcDbEntity
  8
0
  6
HIDDEN
 62
     7
370
     0
100
AcDbSpline
210
0.0
220
0.0
230
1.0
 70
     8
 71
     3
 72
    10
 73
     6
 74
     0
 42
0.000000001
 43
0.00000001
 40
0.0
 40
0.0
 40
0.0
 40
0.0
 40
0.5
 40
0.5
 40
1.0
 40
1.0
 40
1.0
 40
1.0
 10
148.5450965092405
 20
133.7370724797045
 30
0.0
 10
148.7619873417613
 20
133.974111419153
 30
0.0
 10
148.9811399784202
 20
134.1762816541465
 30
0.0
 10
149.422624478689
 20
134.5270337256652
 30
0.0
 10
149.6458269439624
 20
134.6757098180621
 30
0.0
 10
149.8682580167021
 20
134.7967096030846
 30
0.0
  0
SPLINE
  5
136
330
1F
100
AcDbEntity
  8
0
  6
HIDDEN
 62
     7
370
     0
100
AcDbSpline
210
0.0
220
0.0
230
1.0
 70
     8
 71
     3
 72
    16
 73
    12
 74
     0
 42
0.000000001
 43
0.00000001
 40
0.0
 40
0.0
 40
0.0
 40
0.0
 40
0.2500000000000007
 40
0.2500000000000007
 40
0.5000000000000014
 40
0.5000000000000014
 40
0.7500000000000007
 40
0.7500000000000007
 40
0.8750000000000004
 40
0.8750000000000004
 40
1.0
 40
1.0
 40
1.0
 40
1.0
 10
147.7450965092402
 20
129.9390949289639
 30
0.0
 10
147.5796824027601
 20
130.1459811649892
 30
0.0
 10
147.4534850717844
 20
130.3718498627981
 30
0.0
 10
147.2790787734536
 20
130.860719108411
 30
0.0
 10
147.2352487343568
 20
131.1124861617555
 30
0.0
 10
147.2349450613868
 20
131.6242654863377
 30
0.0
 10
147.278801921447
 20
131.8753201954204
 30
0.0
 10
147.4087236807142
 20
132.2361687635625
 30
0.0
 10
147.4628384921222
 20
132.353441531911
 30
0.0
 10
147.5895154822656
 20
132.5759304832498
 30
0.0
 10
147.6623892026265
 20
132.6820910914932
 30
0.0
 10
147.7450965092402
 20
132.7830587720175
 30
0.0
  0
CIRCLE
  5
137
330
1F
100
AcDbEntity
  8
0
  6
HIDDEN
 62
     7
370
     0
100
AcDbCircle
 10
255.0850965092
 20
115.8077692151
 30
0.0
 40
7.012850235103769
  0
CIRCLE
  5
138
330
1F
100
AcDbEntity
  8
0
  6
HIDDEN
 62
     7
370
     0
100
AcDbCircle
 10
255.0850965092
 20
115.8077692151
 30
0.0
 40
5.294716599621035
  0
CIRCLE
  5
139
330
1F
100
AcDbEntity
  8
0
  6
HIDDEN
 62
     7
370
     0
100
AcDbCircle
 10
255.0850965092
 20
115.8077692151
 30
0.0
 40
4.894716599621046
  0
ARC
  5
13A
330
1F
100
AcDbEntity
  8
0
  6
HIDDEN
 62
     7
370
     0
100
AcDbCircle
 10
149.7221083925
 20
100.5038432584
 30
0.0
 40
2.480487071701254
100
AcDbArc
 50
344.6333838584
 51
183.8052291519
  0
ARC
  5
13B
330
1F
100
AcDbEntity
  8
0
  6
HIDDEN
 62
     7
370
     0
100
AcDbCircle
 10
149.7160445275
 20
100.429628733
 30
0.0
 40
2.357229401931
100
AcDbArc
 50
351.2023433267
 51
159.140925431
  0
ARC
  5
13C
330
1F
100
AcDbEntity
  8
0
  6
HIDDEN
 62
     7
370
     0
100
AcDbCircle
 10
149.7409282002
 20
100.4344212649
 30
0.0
 40
1.99605507620408
100
AcDbArc
 50
2.4911298722
 51
127.4313591573
  0
LWPOLYLINE
  5
13D
330
1F
100
AcDbEntity
  8
0
  6
HIDDEN
 62
     7
370
     0
100
AcDbPolyline
 90
       19
 70
   128
 43
0.0
 10
149.9915167148
 20
98.4203306496
 10
149.1255115176
 20
98.4788475096
 10
148.3330314437
 20
98.8121641338
 10
147.7096618543
 20
99.3800771892
 10
147.3305884207
 20
100.1140897631
 10
147.2415353561
 20
100.9256656751
 10
147.4532417411
 20
101.7169191971
 10
147.9401735047
 20
102.3924139797
 10
148.6435995827
 20
102.8706741988
 10
149.4786764885
 20
103.0940146655
 10
150.3446816856
 20
103.0354978055
 10
151.1371608282
 20
102.7021811813
 10
151.760531349
 20
102.1342671945
 10
152.1396038512
 20
101.4002564832
 10
152.2286587785
 20
100.58867964
 10
152.0169523934
 20
99.7974251866
 10
151.5300196985
 20
99.1219313353
 10
150.8265936206
 20
98.6436711162
 10
149.9915167148
 20
98.4203306496
  0
LWPOLYLINE
  5
13E
330
1F
100
AcDbEntity
  8
0
  6
HIDDEN
 62
     7
370
     0
100
AcDbPolyline
 90
       17
 70
   128
 43
0.0
 10
149.9402325059
 20
100.0694812745
 10
149.1632868926
 20
100.1380191654
 10
148.4733947942
 20
100.480731903
 10
147.9755842517
 20
101.0454467967
 10
147.7456444333
 20
101.7461897343
 10
147.8185800294
 20
102.4762795776
 10
148.1832887436
 20
103.1245667025
 10
148.7842451239
 20
103.5923551306
 10
149.5299606974
 20
103.8084284872
 10
150.3069063107
 20
103.7398905962
 10
150.996798409
 20
103.3971778586
 10
151.4946089516
 20
102.8324629649
 10
151.72454877
 20
102.1317200273
 10
151.6516131739
 20
101.401630184
 10
151.286905391
 20
100.7533430591
 10
150.6859480793
 20
100.285554631
 10
149.9402325059
 20
100.0694812745
  0
LWPOLYLINE
  5
13F
330
1F
100
AcDbEntity
  8
0
  6
HIDDEN
 62
     7
370
     0
100
AcDbPolyline
 90
       19
 70
   128
 43
0.0
 10
149.9915167148
 20
98.6563259274
 10
149.1255115176
 20
98.7148427874
 10
148.3330314437
 20
99.0481594115
 10
147.7096618543
 20
99.6160724669
 10
147.3305884207
 20
100.3500831783
 10
147.2415353561
 20
101.1616600215
 10
147.4532417411
 20
101.9529135436
 10
147.9401735047
 20
102.6284073949
 10
148.6435995827
 20
103.106667614
 10
149.4786764885
 20
103.3300080806
 10
150.3446816856
 20
103.2714912206
 10
151.1371608282
 20
102.9381745964
 10
151.760531349
 20
102.370261541
 10
152.1396038512
 20
101.6362498984
 10
152.2286587785
 20
100.8246739864
 10
152.0169523934
 20
100.0334204644
 10
151.5300196985
 20
99.3579247504
 10
150.8265936206
 20
98.879666394
 10
149.9915167148
 20
98.6563259274
  0
LWPOLYLINE
  5
140
330
1F
100
AcDbEntity
  8
0
  6
HIDDEN
 62
     7
370
     0
100
AcDbPolyline
 90
       19
 70
   128
 43
0.0
 10
149.9710024724
 20
98.7817974299
 10
149.1742783616
 20
98.8356334626
 10
148.4451971407
 20
99.1422844589
 10
147.8716961498
 20
99.6647657364
 10
147.5229493732
 20
100.3400556281
 10
147.441019995
 20
101.0867062494
 10
147.635790279
 20
101.8146596387
 10
148.0837676133
 20
102.4361144289
 10
148.730919456
 20
102.876114054
 10
149.4991897995
 20
103.081587097
 10
150.2959148417
 20
103.0277510643
 10
151.0249960626
 20
102.7211000681
 10
151.5984961221
 20
102.1986197218
 10
151.9472428987
 20
101.5233298301
 10
152.0291732083
 20
100.7766792089
 10
151.8344038556
 20
100.0487258196
 10
151.3864265213
 20
99.4272710293
 10
150.7392737473
 20
98.9872714042
 10
149.9710024724
 20
98.7817974299
  0
LWPOLYLINE
  5
141
330
1F
100
AcDbEntity
  8
0
  6
HIDDEN
 62
     7
370
     0
100
AcDbPolyline
 90
       19
 70
   128
 43
0.0
 10
149.9915167148
 20
98.8923193425
 10
149.1255115176
 20
98.9508362025
 10
148.3330314437
 20
99.2841528266
 10
147.7096618543
 20
99.8520658821
 10
147.3305884207
 20
100.5860765934
 10
147.2415353561
 20
101.3976534366
 10
147.4532417411
 20
102.18890789
 10
147.9401735047
 20
102.8644017413
 10
148.6435995827
 20
103.3426619604
 10
149.4786764885
 20
103.566002427
 10
150.3446816856
 20
103.507485567
 10
151.1371608282
 20
103.1741689428
 10
151.760531349
 20
102.6062558874
 10
152.1396038512
 20
101.8722442448
 10
152.2286587785
 20
101.0606674015
 10
152.0169523934
 20
100.2694138795
 10
151.5300196985
 20
99.5939200282
 10
150.8265936206
 20
99.1156598091
 10
149.9915167148
 20
98.8923193425
  0
LWPOLYLINE
  5
142
330
1F
100
AcDbEntity
  8
0
  6
HIDDEN
 62
     7
370
     0
100
AcDbPolyline
 90
       19
 70
   128
 43
0.0
 10
149.9710024724
 20
99.0177927077
 10
149.1742783616
 20
99.0716287404
 10
148.4451971407
 20
99.3782797366
 10
147.8716961498
 20
99.9007591516
 10
147.5229493732
 20
100.5760499745
 10
147.441019995
 20
101.3227005958
 10
147.635790279
 20
102.0506539851
 10
148.0837676133
 20
102.6721087754
 10
148.730919456
 20
103.1121074691
 10
149.4991897995
 20
103.3175805121
 10
150.2959148417
 20
103.2637454107
 10
151.0249960626
 20
102.9570944145
 10
151.5984961221
 20
102.4346140682
 10
151.9472428987
 20
101.7593232453
 10
152.0291732083
 20
101.012672624
 10
151.8344038556
 20
100.2847192347
 10
151.3864265213
 20
99.6632644444
 10
150.7392737473
 20
99.2232648194
 10
149.9710024724
 20
99.0177927077
  0
LWPOLYLINE
  5
143
330
1F
100
AcDbEntity
  8
0
  6
HIDDEN
 62
     7
370
     0
100
AcDbPolyline
 90
       19
 70
   128
 43
0.0
 10
149.9915167148
 20
99.1283127576
 10
149.1255115176
 20
99.1868296176
 10
148.3330314437
 20
99.5201462418
 10
147.7096618543
 20
100.0880592972
 10
147.3305884207
 20
100.8220709398
 10
147.2415353561
 20
101.6336477831
 10
147.4532417411
 20
102.4249013051
 10
147.9401735047
 20
103.1003951564
 10
148.6435995827
 20
103.5786553755
 10
149.4786764885
 20
103.8019958421
 10
150.3446816856
 20
103.7434789821
 10
151.1371608282
 20
103.410162358
 10
151.760531349
 20
102.8422493025
 10
152.1396038512
 20
102.1082376599
 10
152.2286587785
 20
101.296661748
 10
152.0169523934
 20
100.5054072946
 10
151.5300196985
 20
99.8299134433
 10
150.8265936206
 20
99.3516532242
 10
149.9915167148
 20
99.1283127576
  0
LWPOLYLINE
  5
144
330
1F
100
AcDbEntity
  8
0
  6
HIDDEN
 62
     7
370
     0
100
AcDbPolyline
 90
       19
 70
   128
 43
0.0
 10
149.9710024724
 20
99.2537861228
 10
149.1742783616
 20
99.3076221555
 10
148.4451971407
 20
99.6142731517
 10
147.8716961498
 20
100.1367525667
 10
147.5229493732
 20
100.8120433897
 10
147.441019995
 20
101.5586940109
 10
147.635790279
 20
102.2866474002
 10
148.0837676133
 20
102.9081021905
 10
148.730919456
 20
103.3481018156
 10
149.4991897995
 20
103.5535748586
 10
150.2959148417
 20
103.4997388258
 10
151.0249960626
 20
103.1930878296
 10
151.5984961221
 20
102.6706074834
 10
151.9472428987
 20
101.9953175917
 10
152.0291732083
 20
101.2486669704
 10
151.8344038556
 20
100.5207135811
 10
151.3864265213
 20
99.8992578596
 10
150.7392737473
 20
99.4592600971
 10
149.9710024724
 20
99.2537861228
  0
LWPOLYLINE
  5
145
330
1F
100
AcDbEntity
  8
0
  6
HIDDEN
 62
     7
370
     0
100
AcDbPolyline
 90
       19
 70
   128
 43
0.0
 10
149.9915167148
 20
99.3643061727
 10
149.1255115176
 20
99.4228230327
 10
148.3330314437
 20
99.7561396569
 10
147.7096618543
 20
100.3240536436
 10
147.3305884207
 20
101.0580643549
 10
147.2415353561
 20
101.8696411982
 10
147.4532417411
 20
102.6608956516
 10
147.9401735047
 20
103.3363895029
 10
148.6435995827
 20
103.814649722
 10
149.4786764885
 20
104.0379901886
 10
150.3446816856
 20
103.9794733286
 10
151.1371608282
 20
103.6461567044
 10
151.760531349
 20
103.078243649
 10
152.1396038512
 20
102.3442320063
 10
152.2286587785
 20
101.5326551631
 10
152.0169523934
 20
100.741401641
 10
151.5300196985
 20
100.0659068584
 10
150.8265936206
 20
99.5876466393
 10
149.9915167148
 20
99.3643061727
  0
LWPOLYLINE
  5
146
330
1F
100
AcDbEntity
  8
0
  6
HIDDEN
 62
     7
370
     0
100
AcDbPolyline
 90
       19
 70
   128
 43
0.0
 10
149.9710024724
 20
99.4897795379
 10
149.1742783616
 20
99.5436155706
 10
148.4451971407
 20
99.8502665668
 10
147.8716961498
 20
100.3727469131
 10
147.5229493732
 20
101.0480377361
 10
147.441019995
 20
101.7946883574
 10
147.635790279
 20
102.5226417467
 10
148.0837676133
 20
103.1440965369
 10
148.730919456
 20
103.5840952307
 10
149.4991897995
 20
103.789569205
 10
150.2959148417
 20
103.7357331723
 10
151.0249960626
 20
103.4290821761
 10
151.5984961221
 20
102.9066018298
 10
151.9472428987
 20
102.2313110068
 10
152.0291732083
 20
101.4846603855
 10
151.8344038556
 20
100.7567069962
 10
151.3864265213
 20
100.1352531373
 10
150.7392737473
 20
99.6952535122
 10
149.9710024724
 20
99.4897795379
  0
LWPOLYLINE
  5
147
330
1F
100
AcDbEntity
  8
0
  6
HIDDEN
 62
     7
370
     0
100
AcDbPolyline
 90
       19
 70
   128
 43
0.0
 10
149.9915167148
 20
99.9628411144
 10
149.1255115176
 20
100.021359837
 10
148.3330314437
 20
100.3546755299
 10
147.7096618543
 20
100.9225885853
 10
147.3305884207
 20
101.6566002279
 10
147.2415353561
 20
102.4681770712
 10
147.4532417411
 20
103.2594305932
 10
147.9401735047
 20
103.9349244445
 10
148.6435995827
 20
104.4131846636
 10
149.4786764885
 20
104.6365251302
 10
150.3446816856
 20
104.5780082702
 10
151.1371608282
 20
104.2446916461
 10
151.760531349
 20
103.6767785907
 10
152.1396038512
 20
102.942766948
 10
152.2286587785
 20
102.1311910361
 10
152.0169523934
 20
101.3399365827
 10
151.5300196985
 20
100.6644427314
 10
150.8265936206
 20
100.1861825123
 10
149.9915167148
 20
99.9628411144
  0
LWPOLYLINE
  5
148
330
1F
100
AcDbEntity
  8
0
  6
HIDDEN
 62
     7
370
     0
100
AcDbPolyline
 90
       17
 70
   128
 43
0.0
 10
149.9382208491
 20
100.5511510655
 10
149.1688953171
 20
100.6190165415
 10
148.4857692773
 20
100.9583690673
 10
147.992841659
 20
101.5175453856
 10
147.7651565725
 20
102.2114151627
 10
147.8373769129
 20
102.934344998
 10
148.1985084171
 20
103.5762739837
 10
148.7935704569
 20
104.0394737854
 10
149.5319723541
 20
104.2534283831
 10
150.3012978862
 20
104.1855629071
 10
150.984423926
 20
103.8462103814
 10
151.4773515443
 20
103.287034063
 10
151.705037562
 20
102.593164286
 10
151.632815359
 20
101.8702344507
 10
151.2716857175
 20
101.228305465
 10
150.676621815
 20
100.7651056632
 10
149.9382208491
 20
100.5511510655
  0
LWPOLYLINE
  5
149
330
1F
100
AcDbEntity
  8
0
  6
HIDDEN
 62
     7
370
     0
100
AcDbPolyline
 90
       17
 70
   128
 43
0.0
 10
150.4124279524
 20
127.4645247966
 10
151.0730252991
 20
127.8412103191
 10
151.5299340168
 20
128.4267756626
 10
151.7135964165
 20
129.1320755616
 10
151.5960486064
 20
129.8497322485
 10
151.1951887439
 20
130.4704904094
 10
150.5720436031
 20
130.8998450175
 10
149.8214795644
 20
131.0724302664
 10
149.0577652509
 20
130.9619726151
 10
148.3971679042
 20
130.5852870926
 10
147.9402582551
 20
129.9997217491
 10
147.7565967868
 20
129.2944227814
 10
147.8741436655
 20
128.5767651632
 10
148.2750035281
 20
127.9560070023
 10
148.8981496001
 20
127.5266523942
 10
149.6487136389
 20
127.3540671453
 10
150.4124279524
 20
127.4645247966
  0
LWPOLYLINE
  5
14A
330
1F
100
AcDbEntity
  8
0
  6
HIDDEN
 62
     7
370
     0
100
AcDbPolyline
 90
       19
 70
   128
 43
0.0
 10
150.5901466513
 20
127.1082994997
 10
151.3420657644
 20
127.5162392765
 10
151.9001608173
 20
128.1412386805
 10
152.1971167455
 20
128.9079145998
 10
152.1971167455
 20
129.7237941533
 10
151.9001608173
 20
130.4904710039
 10
151.3420657644
 20
131.1154704079
 10
150.5901466513
 20
131.523411116
 10
149.7350966016
 20
131.6650857687
 10
148.8800465519
 20
131.523411116
 10
148.1281274388
 20
131.1154704079
 10
147.5700333173
 20
130.4904710039
 10
147.2730773891
 20
129.7237941533
 10
147.2730773891
 20
128.9079145998
 10
147.5700333173
 20
128.1412386805
 10
148.1281274388
 20
127.5162392765
 10
148.8800465519
 20
127.1082994997
 10
149.7350966016
 20
126.9666229844
 10
150.5901466513
 20
127.1082994997
  0
LWPOLYLINE
  5
14B
330
1F
100
AcDbEntity
  8
0
  6
HIDDEN
 62
     7
370
     0
100
AcDbPolyline
 90
       19
 70
   128
 43
0.0
 10
150.5901466513
 20
127.7068344414
 10
151.3420657644
 20
128.1147742182
 10
151.9001608173
 20
128.7397745535
 10
152.1971167455
 20
129.5064504727
 10
152.1971167455
 20
130.3223300263
 10
151.9001608173
 20
131.0890059456
 10
151.3420657644
 20
131.7140062809
 10
150.5901466513
 20
132.1219460577
 10
149.7350966016
 20
132.2636207103
 10
148.8800465519
 20
132.1219460577
 10
148.1281274388
 20
131.7140062809
 10
147.5700333173
 20
131.0890059456
 10
147.2730773891
 20
130.3223300263
 10
147.2730773891
 20
129.5064504727
 10
147.5700333173
 20
128.7397745535
 10
148.1281274388
 20
128.1147742182
 10
148.8800465519
 20
127.7068344414
 10
149.7350966016
 20
127.5651588574
 10
150.5901466513
 20
127.7068344414
  0
LWPOLYLINE
  5
14C
330
1F
100
AcDbEntity
  8
0
  6
HIDDEN
 62
     7
370
     0
100
AcDbPolyline
 90
       17
 70
   128
 43
0.0
 10
150.4191372002
 20
129.3283154726
 10
151.086277088
 20
129.708730942
 10
151.5477129648
 20
130.3000965625
 10
151.7331933061
 20
131.0123823121
 10
151.6144813428
 20
131.7371477842
 10
151.2096503208
 20
132.3640545368
 10
150.5803333054
 20
132.7976615637
 10
149.8223354498
 20
132.9719567209
 10
149.0510560031
 20
132.8604047656
 10
148.3839161152
 20
132.4799874335
 10
147.9224811698
 20
131.888621813
 10
147.7369998971
 20
131.1763369947
 10
147.8557109291
 20
130.4515715226
 10
148.2605419511
 20
129.8246657014
 10
148.8898598979
 20
129.3910577431
 10
149.6478577534
 20
129.2167625859
 10
150.4191372002
 20
129.3283154726
  0
LWPOLYLINE
  5
14D
330
1F
100
AcDbEntity
  8
0
  6
HIDDEN
 62
     7
370
     0
100
AcDbPolyline
 90
       17
 70
   128
 43
0.0
 10
150.4191372002
 20
127.9105389029
 10
151.086277088
 20
128.2909553036
 10
151.5477129648
 20
128.8823209241
 10
151.7331933061
 20
129.5946057424
 10
151.6144813428
 20
130.3193712145
 10
151.2096503208
 20
130.9462779671
 10
150.5803333054
 20
131.379884994
 10
149.8223354498
 20
131.5541801512
 10
149.0510560031
 20
131.4426281959
 10
148.3839161152
 20
131.0622117951
 10
147.9224811698
 20
130.4708461746
 10
147.7369998971
 20
129.7585613563
 10
147.8557109291
 20
129.0337958842
 10
148.2605419511
 20
128.4068891316
 10
148.8898598979
 20
127.9732821047
 10
149.6478577534
 20
127.7989869475
 10
150.4191372002
 20
127.9105389029
  0
LWPOLYLINE
  5
14E
330
1F
100
AcDbEntity
  8
0
  6
HIDDEN
 62
     7
370
     0
100
AcDbPolyline
 90
       19
 70
   128
 43
0.0
 10
150.5901466513
 20
127.9428287878
 10
151.3420657644
 20
128.3507685646
 10
151.9001608173
 20
128.9757679686
 10
152.1971167455
 20
129.7424438879
 10
152.1971167455
 20
130.5583234414
 10
151.9001608173
 20
131.3249993607
 10
151.3420657644
 20
131.949999696
 10
150.5901466513
 20
132.3579394728
 10
149.7350966016
 20
132.4996159881
 10
148.8800465519
 20
132.3579394728
 10
148.1281274388
 20
131.949999696
 10
147.5700333173
 20
131.3249993607
 10
147.2730773891
 20
130.5583234414
 10
147.2730773891
 20
129.7424438879
 10
147.5700333173
 20
128.9757679686
 10
148.1281274388
 20
128.3507685646
 10
148.8800465519
 20
127.9428287878
 10
149.7350966016
 20
127.8011522725
 10
150.5901466513
 20
127.9428287878
  0
LWPOLYLINE
  5
14F
330
1F
100
AcDbEntity
  8
0
  6
HIDDEN
 62
     7
370
     0
100
AcDbPolyline
 90
       19
 70
   128
 43
0.0
 10
150.5217428709
 20
127.9449130878
 10
151.2135078589
 20
128.3202174589
 10
151.7269553075
 20
128.8952178791
 10
152.0001550595
 20
129.6005596876
 10
152.0001550595
 20
130.3511684298
 10
151.7269553075
 20
131.0565102383
 10
151.2135078589
 20
131.6315097272
 10
150.5217428709
 20
132.006815961
 10
149.7350966016
 20
132.1371564179
 10
148.9484503324
 20
132.006815961
 10
148.2566853444
 20
131.6315097272
 10
147.7432378957
 20
131.0565102383
 10
147.4700390751
 20
130.3511684298
 10
147.4700390751
 20
129.6005596876
 10
147.7432378957
 20
128.8952178791
 10
148.2566853444
 20
128.3202174589
 10
148.9484503324
 20
127.9449130878
 10
149.7350966016
 20
127.8145707682
 10
150.5217428709
 20
127.9449130878
  0
LWPOLYLINE
  5
150
330
1F
100
AcDbEntity
  8
0
  6
HIDDEN
 62
     7
370
     0
100
AcDbPolyline
 90
       19
 70
   128
 43
0.0
 10
150.5901466513
 20
128.178822203
 10
151.3420657644
 20
128.5867619797
 10
151.9001608173
 20
129.211762315
 10
152.1971167455
 20
129.9784382343
 10
152.1971167455
 20
130.7943177879
 10
151.9001608173
 20
131.5609937072
 10
151.3420657644
 20
132.1859931111
 10
150.5901466513
 20
132.5939328879
 10
149.7350966016
 20
132.7356094032
 10
148.8800465519
 20
132.5939328879
 10
148.1281274388
 20
132.1859931111
 10
147.5700333173
 20
131.5609937072
 10
147.2730773891
 20
130.7943177879
 10
147.2730773891
 20
129.9784382343
 10
147.5700333173
 20
129.211762315
 10
148.1281274388
 20
128.5867619797
 10
148.8800465519
 20
128.178822203
 10
149.7350966016
 20
128.0371466189
 10
150.5901466513
 20
128.178822203
  0
LWPOLYLINE
  5
151
330
1F
100
AcDbEntity
  8
0
  6
HIDDEN
 62
     7
370
     0
100
AcDbPolyline
 90
       19
 70
   128
 43
0.0
 10
150.5217428709
 20
128.1809065029
 10
151.2135078589
 20
128.5562118053
 10
151.7269553075
 20
129.1312112942
 10
152.0001550595
 20
129.8365531027
 10
152.0001550595
 20
130.5871627763
 10
151.7269553075
 20
131.2925045848
 10
151.2135078589
 20
131.867505005
 10
150.5217428709
 20
132.2428093761
 10
149.7350966016
 20
132.3731516957
 10
148.9484503324
 20
132.2428093761
 10
148.2566853444
 20
131.867505005
 10
147.7432378957
 20
131.2925045848
 10
147.4700390751
 20
130.5871627763
 10
147.4700390751
 20
129.8365531027
 10
147.7432378957
 20
129.1312112942
 10
148.2566853444
 20
128.5562118053
 10
148.9484503324
 20
128.1809065029
 10
149.7350966016
 20
128.0505651146
 10
150.5217428709
 20
128.1809065029
  0
LWPOLYLINE
  5
152
330
1F
100
AcDbEntity
  8
0
  6
HIDDEN
 62
     7
370
     0
100
AcDbPolyline
 90
       19
 70
   128
 43
0.0
 10
150.5901466513
 20
128.4148165494
 10
151.3420657644
 20
128.8227563262
 10
151.9001608173
 20
129.4477557301
 10
152.1971167455
 20
130.2144316494
 10
152.1971167455
 20
131.030311203
 10
151.9001608173
 20
131.7969871223
 10
151.3420657644
 20
132.4219883889
 10
150.5901466513
 20
132.8299281657
 10
149.7350966016
 20
132.9716028183
 10
148.8800465519
 20
132.8299281657
 10
148.1281274388
 20
132.4219883889
 10
147.5700333173
 20
131.7969871223
 10
147.2730773891
 20
131.030311203
 10
147.2730773891
 20
130.2144316494
 10
147.5700333173
 20
129.4477557301
 10
148.1281274388
 20
128.8227563262
 10
148.8800465519
 20
128.4148165494
 10
149.7350966016
 20
128.2731400341
 10
150.5901466513
 20
128.4148165494
  0
LWPOLYLINE
  5
153
330
1F
100
AcDbEntity
  8
0
  6
HIDDEN
 62
     7
370
     0
100
AcDbPolyline
 90
       19
 70
   128
 43
0.0
 10
150.5217428709
 20
128.4169008493
 10
151.2135078589
 20
128.7922052204
 10
151.7269553075
 20
129.3672056407
 10
152.0001550595
 20
130.0725474491
 10
152.0001550595
 20
130.8231561914
 10
151.7269553075
 20
131.5284979999
 10
151.2135078589
 20
132.1034984201
 10
150.5217428709
 20
132.4788027912
 10
149.7350966016
 20
132.6091451108
 10
148.9484503324
 20
132.4788027912
 10
148.2566853444
 20
132.1034984201
 10
147.7432378957
 20
131.5284979999
 10
147.4700390751
 20
130.8231561914
 10
147.4700390751
 20
130.0725474491
 10
147.7432378957
 20
129.3672056407
 10
148.2566853444
 20
128.7922052204
 10
148.9484503324
 20
128.4169008493
 10
149.7350966016
 20
128.2865585297
 10
150.5217428709
 20
128.4169008493
  0
LWPOLYLINE
  5
154
330
1F
100
AcDbEntity
  8
0
  6
HIDDEN
 62
     7
370
     0
100
AcDbPolyline
 90
       19
 70
   128
 43
0.0
 10
150.5901466513
 20
128.6508099645
 10
151.3420657644
 20
129.0587497413
 10
151.9001608173
 20
129.6837500766
 10
152.1971167455
 20
130.4504259959
 10
152.1971167455
 20
131.2663055494
 10
151.9001608173
 20
132.0329805374
 10
151.3420657644
 20
132.657981804
 10
150.5901466513
 20
133.0659215808
 10
149.7350966016
 20
133.2075980961
 10
148.8800465519
 20
133.0659215808
 10
148.1281274388
 20
132.657981804
 10
147.5700333173
 20
132.0329805374
 10
147.2730773891
 20
131.2663055494
 10
147.2730773891
 20
130.4504259959
 10
147.5700333173
 20
129.6837500766
 10
148.1281274388
 20
129.0587497413
 10
148.8800465519
 20
128.6508099645
 10
149.7350966016
 20
128.5091343805
 10
150.5901466513
 20
128.6508099645
  0
LWPOLYLINE
  5
155
330
1F
100
AcDbEntity
  8
0
  6
HIDDEN
 62
     7
370
     0
100
AcDbPolyline
 90
       19
 70
   128
 43
0.0
 10
150.5217428709
 20
128.6528942644
 10
151.2135078589
 20
129.0281995669
 10
151.7269553075
 20
129.6031990558
 10
152.0001550595
 20
130.3085408643
 10
152.0001550595
 20
131.0591505378
 10
151.7269553075
 20
131.764491415
 10
151.2135078589
 20
132.3394918352
 10
150.5217428709
 20
132.7147962063
 10
149.7350966016
 20
132.8451385259
 10
148.9484503324
 20
132.7147962063
 10
148.2566853444
 20
132.3394918352
 10
147.7432378957
 20
131.764491415
 10
147.4700390751
 20
131.0591505378
 10
147.4700390751
 20
130.3085408643
 10
147.7432378957
 20
129.6031990558
 10
148.2566853444
 20
129.0281995669
 10
148.9484503324
 20
128.6528942644
 10
149.7350966016
 20
128.5225528762
 10
150.5217428709
 20
128.6528942644
  0
LWPOLYLINE
  5
156
330
1F
100
AcDbEntity
  8
0
  6
HIDDEN
 62
     7
370
     0
100
AcDbPolyline
 90
       19
 70
   128
 43
0.0
 10
150.5901466513
 20
128.8389212921
 10
151.3420657644
 20
129.2468610689
 10
151.9001608173
 20
129.8718604728
 10
152.1971167455
 20
130.6385373235
 10
152.1971167455
 20
131.454416877
 10
151.9001608173
 20
132.2210927963
 10
151.3420657644
 20
132.8460922003
 10
150.5901466513
 20
133.254031977
 10
149.7350966016
 20
133.3957084924
 10
148.8800465519
 20
133.254031977
 10
148.1281274388
 20
132.8460922003
 10
147.5700333173
 20
132.2210927963
 10
147.2730773891
 20
131.454416877
 10
147.2730773891
 20
130.6385373235
 10
147.5700333173
 20
129.8718604728
 10
148.1281274388
 20
129.2468610689
 10
148.8800465519
 20
128.8389212921
 10
149.7350966016
 20
128.6972447768
 10
150.5901466513
 20
128.8389212921
  0
LWPOLYLINE
  5
157
330
1F
100
AcDbEntity
  8
0
  6
HIDDEN
 62
     7
370
     0
100
AcDbPolyline
 90
       19
 70
   128
 43
0.0
 10
150.5422636325
 20
129.0104271382
 10
151.2520757894
 20
129.3955225035
 10
151.7789156566
 20
129.9855218738
 10
152.0592418889
 20
130.7092647537
 10
152.0592418889
 20
131.4794545531
 10
151.7789156566
 20
132.2031965017
 10
151.2520757894
 20
132.7931968033
 10
150.5422636325
 20
133.1782912373
 10
149.7350966016
 20
133.312034747
 10
148.9279286394
 20
133.1782912373
 10
148.2181174139
 20
132.7931968033
 10
147.6912766153
 20
132.2031965017
 10
147.410950383
 20
131.4794545531
 10
147.410950383
 20
130.7092647537
 10
147.6912766153
 20
129.9855218738
 10
148.2181174139
 20
129.3955225035
 10
148.9279286394
 20
129.0104271382
 10
149.7350966016
 20
128.8766845599
 10
150.5422636325
 20
129.0104271382
  0
LWPOLYLINE
  5
158
330
1F
100
AcDbEntity
  8
0
  6
HIDDEN
 62
     7
370
     0
100
AcDbPolyline
 90
       19
 70
   128
 43
0.0
 10
141.1355708184
 20
99.5091435969
 10
141.5574520285
 20
99.7021210849
 10
141.8705831672
 20
100.1605459958
 10
142.0371972414
 20
100.8291238457
 10
142.0371972414
 20
101.627217932
 10
141.8705831672
 20
102.4585639596
 10
141.5574520285
 20
103.2228892207
 10
141.1355708184
 20
103.828005819
 10
140.6558256055
 20
104.200927867
 10
140.1760803925
 20
104.2966743469
 10
139.7541996481
 20
104.1036977902
 10
139.4410682766
 20
103.6452728793
 10
139.2744544352
 20
102.9766940981
 10
139.2744544352
 20
102.1786009431
 10
139.4410682766
 20
101.3472549155
 10
139.7541996481
 20
100.5829287231
 10
140.1760803925
 20
99.9778130561
 10
140.6558256055
 20
99.6048910081
 10
141.1355708184
 20
99.5091435969
  0
LWPOLYLINE
  5
159
330
1F
100
AcDbEntity
  8
0
  6
HIDDEN
 62
     7
370
     0
100
AcDbPolyline
 90
       21
 70
   128
 43
0.0
 10
141.5065938997
 20
99.0291790575
 10
141.9774566235
 20
99.2267852187
 10
142.3446189071
 20
99.6924986601
 10
142.572141012
 20
100.3807292789
 10
142.6377508248
 20
101.2241098568
 10
142.5350264105
 20
102.140083304
 10
142.2740227933
 20
103.0389874711
 10
141.880289411
 20
103.8328328639
 10
141.3923671859
 20
104.443910858
 10
140.8580171334
 20
104.8124063298
 10
140.329545589
 20
104.9022472933
 10
139.8586828651
 20
104.7046392694
 10
139.4915205816
 20
104.2389267593
 10
139.2639984766
 20
103.5506961405
 10
139.1983886639
 20
102.7073155626
 10
139.3011130782
 20
101.7913421154
 10
139.5621166954
 20
100.8924379483
 10
139.9558500777
 20
100.0985925555
 10
140.4437723028
 20
99.4875145614
 10
140.9781223553
 20
99.1190200209
 10
141.5065938997
 20
99.0291790575
  0
LWPOLYLINE
  5
15A
330
1F
100
AcDbEntity
  8
0
  6
HIDDEN
 62
     7
370
     0
100
AcDbPolyline
 90
       21
 70
   128
 43
0.0
 10
144.5209577138
 20
99.7510732621
 10
144.9918204377
 20
99.948681286
 10
145.3589831869
 20
100.414393796
 10
145.5865052918
 20
101.1026244148
 10
145.6521151046
 20
101.9460049927
 10
145.5493902246
 20
102.86197844
 10
145.2883870731
 20
103.7608826071
 10
144.8946536908
 20
104.5547279998
 10
144.406731
 20
105.1658069253
 10
143.8723809476
 20
105.5343014657
 10
143.3439098688
 20
105.6241424292
 10
142.8730471449
 20
105.4265344053
 10
142.5058848614
 20
104.9608218953
 10
142.2783627565
 20
104.2725912764
 10
142.2127529437
 20
103.4292106986
 10
142.315477358
 20
102.5132381826
 10
142.5764809752
 20
101.6143330842
 10
142.9702143575
 20
100.8204876914
 10
143.4581370483
 20
100.2094096973
 10
143.9924861694
 20
99.8409142256
 10
144.5209577138
 20
99.7510732621
  0
LINE
  5
15B
330
1F
100
AcDbEntity
  8
0
  6
HIDDEN
 62
     7
370
     0
100
AcDbLine
 10
141.2944120745
 20
102.837798512
 30
0.0
 11
140.3160414117
 21
103.598318389
 31
0.0
  0
LINE
  5
15C
330
1F
100
AcDbEntity
  8
0
  6
HIDDEN
 62
     7
370
     0
100
AcDbLine
 10
139.6774554084
 20
102.663428849
 30
0.0
 11
140.3160414117
 21
103.598318389
 31
0.0
  0
LINE
  5
15D
330
1F
100
AcDbEntity
  8
0
  6
HIDDEN
 62
     7
370
     0
100
AcDbLine
 10
140.0172396021
 20
100.9680194318
 30
0.0
 11
139.6774554084
 21
102.663428849
 31
0.0
  0
LINE
  5
15E
330
1F
100
AcDbEntity
  8
0
  6
HIDDEN
 62
     7
370
     0
100
AcDbLine
 10
140.0172396021
 20
100.9680194318
 30
0.0
 11
140.9956102649
 21
100.2075004861
 31
0.0
  0
LINE
  5
15F
330
1F
100
AcDbEntity
  8
0
  6
HIDDEN
 62
     7
370
     0
100
AcDbLine
 10
141.6341962683
 20
101.1423900261
 30
0.0
 11
140.9956102649
 21
100.2075004861
 31
0.0
  0
LINE
  5
160
330
1F
100
AcDbEntity
  8
0
  6
HIDDEN
 62
     7
370
     0
100
AcDbLine
 10
141.6341962683
 20
101.1423900261
 30
0.0
 11
141.2944120745
 21
102.837798512
 31
0.0
  0
LINE
  5
161
330
1F
100
AcDbEntity
  8
0
  6
HIDDEN
 62
     7
370
     0
100
AcDbLine
 10
142.932716051
 20
103.2301479488
 30
0.0
 11
141.2944120745
 21
102.837798512
 31
0.0
  0
LINE
  5
162
330
1F
100
AcDbEntity
  8
0
  6
HIDDEN
 62
     7
370
     0
100
AcDbLine
 10
143.2725007104
 20
101.534739463
 30
0.0
 11
141.6341962683
 21
101.1423900261
 31
0.0
  0
LWPOLYLINE
  5
163
330
1F
100
AcDbEntity
  8
0
  6
HIDDEN
 62
     7
370
     0
100
AcDbPolyline
 90
       17
 70
   128
 43
0.0
 10
145.1439352164
 20
100.9260931521
 10
145.526591448
 20
101.1195987001
 10
145.7912593538
 20
101.5816855713
 10
145.8976471255
 20
102.2420053839
 10
145.8295572008
 20
103.0000293165
 10
145.5973561312
 20
103.7403562575
 10
145.2363941277
 20
104.350277549
 10
144.8016238789
 20
104.7369375363
 10
144.3592363427
 20
104.841471976
 10
143.9765810425
 20
104.6479664281
 10
143.7119122053
 20
104.1858795568
 10
143.605525365
 20
103.5255597442
 10
143.6736152897
 20
102.7675358116
 10
143.9058163593
 20
102.0272088706
 10
144.2667783628
 20
101.4172885105
 10
144.7015476803
 20
101.0306275919
 10
145.1439352164
 20
100.9260931521
  0
LINE
  5
164
330
1F
100
AcDbEntity
  8
0
  6
HIDDEN
 62
     7
370
     0
100
AcDbLine
 10
141.6555440443
 20
101.3603688687
 30
0.0
 11
142.6339142414
 21
100.5998499229
 31
0.0
  0
LINE
  5
165
330
1F
100
AcDbEntity
  8
0
  6
HIDDEN
 62
     7
370
     0
100
AcDbLine
 10
141.6555440443
 20
101.3603688687
 30
0.0
 11
141.3157593849
 21
103.0557782858
 31
0.0
  0
LINE
  5
166
330
1F
100
AcDbEntity
  8
0
  6
HIDDEN
 62
     7
370
     0
100
AcDbLine
 10
141.3157593849
 20
103.0557782858
 30
0.0
 11
141.9543453882
 21
103.9906678259
 31
0.0
  0
LINE
  5
167
330
1F
100
AcDbEntity
  8
0
  6
HIDDEN
 62
     7
370
     0
100
AcDbLine
 10
143.2725007104
 20
101.534739463
 30
0.0
 11
142.6339142414
 21
100.5998499229
 31
0.0
  0
LINE
  5
168
330
1F
100
AcDbEntity
  8
0
  6
HIDDEN
 62
     7
370
     0
100
AcDbLine
 10
143.2725007104
 20
101.534739463
 30
0.0
 11
142.932716051
 21
103.2301479488
 31
0.0
  0
LINE
  5
169
330
1F
100
AcDbEntity
  8
0
  6
HIDDEN
 62
     7
370
     0
100
AcDbLine
 10
142.932716051
 20
103.2301479488
 30
0.0
 11
141.9543453882
 21
103.9906678259
 31
0.0
  0
LINE
  5
16A
330
1F
100
AcDbEntity
  8
0
  6
HIDDEN
 62
     7
370
     0
100
AcDbLine
 10
141.3157593849
 20
103.0557782858
 30
0.0
 11
139.6774554084
 21
102.663428849
 31
0.0
  0
LINE
  5
16B
330
1F
100
AcDbEntity
  8
0
  6
HIDDEN
 62
     7
370
     0
100
AcDbLine
 10
141.9543453882
 20
103.9906678259
 30
0.0
 11
140.3160414117
 21
103.598318389
 31
0.0
  0
LINE
  5
16C
330
1F
100
AcDbEntity
  8
0
  6
HIDDEN
 62
     7
370
     0
100
AcDbLine
 10
141.6555440443
 20
101.3603688687
 30
0.0
 11
140.0172396021
 21
100.9680194318
 31
0.0
  0
LINE
  5
16D
330
1F
100
AcDbEntity
  8
0
  6
HIDDEN
 62
     7
370
     0
100
AcDbLine
 10
142.6339142414
 20
100.5998499229
 30
0.0
 11
140.9956102649
 21
100.2075004861
 31
0.0
  0
LWPOLYLINE
  5
16E
330
1F
100
AcDbEntity
  8
0
  6
HIDDEN
 62
     7
370
     0
100
AcDbPolyline
 90
       21
 70
   128
 43
0.0
 10
143.3439098688
 20
125.991396001
 10
142.8730471449
 20
126.1890040248
 10
142.5058848614
 20
126.6547165349
 10
142.2783627565
 20
127.3429471537
 10
142.2127529437
 20
128.1863277316
 10
142.315477358
 20
129.1023002475
 10
142.5764809752
 20
130.001205346
 10
142.9702143575
 20
130.7950507387
 10
143.4581370483
 20
131.4061287328
 10
143.9924861694
 20
131.7746242046
 10
144.5209577138
 20
131.8644651681
 10
144.9918204377
 20
131.6668571442
 10
145.3589831869
 20
131.2011446342
 10
145.5865052918
 20
130.5129140153
 10
145.6521151046
 20
129.6695334375
 10
145.5493902246
 20
128.7535599902
 10
145.2883870731
 20
127.8546558231
 10
144.8946536908
 20
127.0608104303
 10
144.406731
 20
126.4497315049
 10
143.8723809476
 20
126.0812369644
 10
143.3439098688
 20
125.991396001
  0
LWPOLYLINE
  5
16F
330
1F
100
AcDbEntity
  8
0
  6
HIDDEN
 62
     7
370
     0
100
AcDbPolyline
 90
       17
 70
   128
 43
0.0
 10
144.3592363427
 20
126.7740664541
 10
143.9765810425
 20
126.9675720021
 10
143.7119122053
 20
127.4296588734
 10
143.605525365
 20
128.089978686
 10
143.6736152897
 20
128.8480026185
 10
143.9058163593
 20
129.5883295595
 10
144.2667783628
 20
130.1982499197
 10
144.7015476803
 20
130.5849108383
 10
145.1439352164
 20
130.689445278
 10
145.526591448
 20
130.4959397301
 10
145.7912593538
 20
130.0338528588
 10
145.8976471255
 20
129.3735330462
 10
145.8295572008
 20
128.6155091136
 10
145.5973561312
 20
127.8751821726
 10
145.2363941277
 20
127.2652608812
 10
144.8016238789
 20
126.8786008939
 10
144.3592363427
 20
126.7740664541
  0
LWPOLYLINE
  5
170
330
1F
100
AcDbEntity
  8
0
  6
HIDDEN
 62
     7
370
     0
100
AcDbPolyline
 90
       21
 70
   128
 43
0.0
 10
140.329545589
 20
126.7132911369
 10
139.8586828651
 20
126.9108991608
 10
139.4915205816
 20
127.3766116708
 10
139.2639984766
 20
128.0648422897
 10
139.1983886639
 20
128.9082228675
 10
139.3011130782
 20
129.8241963148
 10
139.5621166954
 20
130.7231004819
 10
139.9558500777
 20
131.5169458747
 10
140.4437723028
 20
132.1280238688
 10
140.9781223553
 20
132.4965184092
 10
141.5065938997
 20
132.5863593727
 10
141.9774566235
 20
132.3887532115
 10
142.3446189071
 20
131.9230397701
 10
142.572141012
 20
131.2348091513
 10
142.6377508248
 20
130.3914285734
 10
142.5350264105
 20
129.4754551261
 10
142.2740227933
 20
128.576550959
 10
141.880289411
 20
127.7827055663
 10
141.3923671859
 20
127.1716275722
 10
140.8580171334
 20
126.8031321004
 10
140.329545589
 20
126.7132911369
  0
LINE
  5
171
330
1F
100
AcDbEntity
  8
0
  6
HIDDEN
 62
     7
370
     0
100
AcDbLine
 10
141.6555440443
 20
130.2551695615
 30
0.0
 11
142.6339142414
 21
131.0156885072
 31
0.0
  0
LINE
  5
172
330
1F
100
AcDbEntity
  8
0
  6
HIDDEN
 62
     7
370
     0
100
AcDbLine
 10
141.6555440443
 20
130.2551695615
 30
0.0
 11
140.0172396021
 21
130.6475189984
 31
0.0
  0
LINE
  5
173
330
1F
100
AcDbEntity
  8
0
  6
HIDDEN
 62
     7
370
     0
100
AcDbLine
 10
141.3157593849
 20
128.5597601443
 30
0.0
 11
141.6555440443
 21
130.2551695615
 31
0.0
  0
LINE
  5
174
330
1F
100
AcDbEntity
  8
0
  6
HIDDEN
 62
     7
370
     0
100
AcDbLine
 10
141.3157593849
 20
128.5597601443
 30
0.0
 11
139.6774554084
 21
128.9521095812
 31
0.0
  0
LINE
  5
175
330
1F
100
AcDbEntity
  8
0
  6
HIDDEN
 62
     7
370
     0
100
AcDbLine
 10
141.3157593849
 20
128.5597601443
 30
0.0
 11
141.9543453882
 21
127.6248706043
 31
0.0
  0
LINE
  5
176
330
1F
100
AcDbEntity
  8
0
  6
HIDDEN
 62
     7
370
     0
100
AcDbLine
 10
139.6774554084
 20
128.9521095812
 30
0.0
 11
140.3160414117
 21
128.0172200411
 31
0.0
  0
LINE
  5
177
330
1F
100
AcDbEntity
  8
0
  6
HIDDEN
 62
     7
370
     0
100
AcDbLine
 10
139.6774554084
 20
128.9521095812
 30
0.0
 11
140.0172396021
 21
130.6475189984
 31
0.0
  0
LINE
  5
178
330
1F
100
AcDbEntity
  8
0
  6
HIDDEN
 62
     7
370
     0
100
AcDbLine
 10
140.0172396021
 20
130.6475189984
 30
0.0
 11
140.9956102649
 21
131.4080379441
 31
0.0
  0
LWPOLYLINE
  5
179
330
1F
100
AcDbEntity
  8
0
  6
HIDDEN
 62
     7
370
     0
100
AcDbPolyline
 90
       19
 70
   128
 43
0.0
 10
140.1760803925
 20
127.3188640833
 10
139.7541996481
 20
127.51184064
 10
139.4410682766
 20
127.9702655509
 10
139.2744544352
 20
128.6388443321
 10
139.2744544352
 20
129.4369374871
 10
139.4410682766
 20
130.2682835147
 10
139.7541996481
 20
131.0326097071
 10
140.1760803925
 20
131.6377253741
 10
140.6558256055
 20
132.0106474221
 10
141.1355708184
 20
132.1063948333
 10
141.5574520285
 20
131.9134173453
 10
141.8705831672
 20
131.4549924344
 10
142.0371972414
 20
130.7864145845
 10
142.0371972414
 20
129.9883204981
 10
141.8705831672
 20
129.1569744706
 10
141.5574520285
 20
128.3926492095
 10
141.1355708184
 20
127.7875326112
 10
140.6558256055
 20
127.4146105632
 10
140.1760803925
 20
127.3188640833
  0
LINE
  5
17A
330
1F
100
AcDbEntity
  8
0
  6
HIDDEN
 62
     7
370
     0
100
AcDbLine
 10
143.2725007104
 20
130.0807989672
 30
0.0
 11
141.6341962683
 21
130.473148404
 31
0.0
  0
LINE
  5
17B
330
1F
100
AcDbEntity
  8
0
  6
HIDDEN
 62
     7
370
     0
100
AcDbLine
 10
141.6341962683
 20
130.473148404
 30
0.0
 11
140.9956102649
 21
131.4080379441
 31
0.0
  0
LINE
  5
17C
330
1F
100
AcDbEntity
  8
0
  6
HIDDEN
 62
     7
370
     0
100
AcDbLine
 10
142.6339142414
 20
131.0156885072
 30
0.0
 11
140.9956102649
 21
131.4080379441
 31
0.0
  0
LINE
  5
17D
330
1F
100
AcDbEntity
  8
0
  6
HIDDEN
 62
     7
370
     0
100
AcDbLine
 10
143.2725007104
 20
130.0807989672
 30
0.0
 11
142.6339142414
 21
131.0156885072
 31
0.0
  0
LINE
  5
17E
330
1F
100
AcDbEntity
  8
0
  6
HIDDEN
 62
     7
370
     0
100
AcDbLine
 10
142.932716051
 20
128.3853904813
 30
0.0
 11
141.2944120745
 21
128.7777399182
 31
0.0
  0
LINE
  5
17F
330
1F
100
AcDbEntity
  8
0
  6
HIDDEN
 62
     7
370
     0
100
AcDbLine
 10
141.2944120745
 20
128.7777399182
 30
0.0
 11
140.3160414117
 21
128.0172200411
 31
0.0
  0
LINE
  5
180
330
1F
100
AcDbEntity
  8
0
  6
HIDDEN
 62
     7
370
     0
100
AcDbLine
 10
141.9543453882
 20
127.6248706043
 30
0.0
 11
140.3160414117
 21
128.0172200411
 31
0.0
  0
LINE
  5
181
330
1F
100
AcDbEntity
  8
0
  6
HIDDEN
 62
     7
370
     0
100
AcDbLine
 10
142.932716051
 20
128.3853904813
 30
0.0
 11
141.9543453882
 21
127.6248706043
 31
0.0
  0
LINE
  5
182
330
1F
100
AcDbEntity
  8
0
  6
HIDDEN
 62
     7
370
     0
100
AcDbLine
 10
141.2944120745
 20
128.7777399182
 30
0.0
 11
141.6341962683
 21
130.473148404
 31
0.0
  0
LINE
  5
183
330
1F
100
AcDbEntity
  8
0
  6
HIDDEN
 62
     7
370
     0
100
AcDbLine
 10
142.932716051
 20
128.3853904813
 30
0.0
 11
143.2725007104
 21
130.0807989672
 31
0.0
  0
LINE
  5
184
330
1F
100
AcDbEntity
  8
0
  6
HIDDEN
 62
     7
370
     0
100
AcDbLine
 10
152.2350960801
 20
99.1434560627
 30
0.0
 11
152.2350960801
 21
102.2996840536
 31
0.0
  0
LINE
  5
185
330
1F
100
AcDbEntity
  8
0
  6
HIDDEN
 62
     7
370
     0
100
AcDbLine
 10
147.2350961918
 20
102.2996840536
 30
0.0
 11
147.2350961918
 21
100.2460246444
 31
0.0
  0
LINE
  5
186
330
1F
100
AcDbEntity
  8
0
  6
HIDDEN
 62
     7
370
     0
100
AcDbLine
 10
138.7350964284
 20
98.3580922246
 30
0.0
 11
141.35452429
 21
98.9854068964
 31
0.0
  0
LINE
  5
187
330
1F
100
AcDbEntity
  8
0
  6
HIDDEN
 62
     7
370
     0
100
AcDbLine
 10
139.9571273866
 20
104.8204119786
 30
0.0
 11
138.7350964284
 21
104.5277531728
 31
0.0
  0
LINE
  5
188
330
1F
100
AcDbEntity
  8
0
  6
HIDDEN
 62
     7
370
     0
100
AcDbLine
 10
141.4132469723
 20
99.9249195218
 30
0.0
 11
148.8823962788
 21
101.7136688813
 31
0.0
  0
LINE
  5
189
330
1F
100
AcDbEntity
  8
0
  6
HIDDEN
 62
     7
370
     0
100
AcDbLine
 10
148.8823962788
 20
106.032431452
 30
0.0
 11
140.4350690933
 21
104.0094227999
 31
0.0
  0
LINE
  5
18A
330
1F
100
AcDbEntity
  8
0
  6
HIDDEN
 62
     7
370
     0
100
AcDbLine
 10
151.8350967596
 20
102.3494781464
 30
0.0
 11
151.8350967596
 21
114.0670402445
 31
0.0
  0
LINE
  5
18B
330
1F
100
AcDbEntity
  8
0
  6
HIDDEN
 62
     7
370
     0
100
AcDbLine
 10
147.6350964437
 20
102.6975282937
 30
0.0
 11
147.6350964437
 21
102.3494781464
 31
0.0
  0
LINE
  5
18C
330
1F
100
AcDbEntity
  8
0
  6
HIDDEN
 62
     7
370
     0
100
AcDbLine
 10
147.6350964437
 20
114.0663291797
 30
0.0
 11
147.6350964437
 21
104.4511528224
 31
0.0
  0
LINE
  5
18D
330
1F
100
AcDbEntity
  8
0
  6
HIDDEN
 62
     7
370
     0
100
AcDbLine
 10
274.6350967715
 20
146.3077695578
 30
0.0
 11
273.8850915263
 21
144.69938851
 31
0.0
  0
LINE
  5
18E
330
1F
100
AcDbEntity
  8
0
  6
HIDDEN
 62
     7
370
     0
100
AcDbLine
 10
273.8850915263
 20
86.9161499202
 30
0.0
 11
274.6350967715
 21
85.3077688724
 31
0.0
  0
LINE
  5
18F
330
1F
100
AcDbEntity
  8
0
  6
HIDDEN
 62
     7
370
     0
100
AcDbLine
 10
273.8850915263
 20
139.8077694237
 30
0.0
 11
269.5850932429
 21
139.8077694237
 31
0.0
  0
LINE
  5
190
330
1F
100
AcDbEntity
  8
0
  6
HIDDEN
 62
     7
370
     0
100
AcDbLine
 10
269.5850932429
 20
91.8077690065
 30
0.0
 11
273.8850915263
 21
91.8077690065
 31
0.0
  0
LINE
  5
191
330
1F
100
AcDbEntity
  8
0
  6
HIDDEN
 62
     7
370
     0
100
AcDbLine
 10
269.5850932429
 20
136.6737944543
 30
0.0
 11
268.0850976536
 21
135.807768768
 31
0.0
  0
LINE
  5
192
330
1F
100
AcDbEntity
  8
0
  6
HIDDEN
 62
     7
370
     0
100
AcDbLine
 10
268.0850976536
 20
95.8077696621
 30
0.0
 11
269.5850932429
 21
94.9417439759
 31
0.0
  0
ARC
  5
193
330
1F
100
AcDbEntity
  8
0
  6
HIDDEN
 62
     7
370
     0
100
AcDbCircle
 10
234.2350965092
 20
96.1077692151
 30
0.0
 40
0.6000000000000085
100
AcDbArc
 50
180.0
 51
270.0
  0
ARC
  5
194
330
1F
100
AcDbEntity
  8
0
  6
HIDDEN
 62
     7
370
     0
100
AcDbCircle
 10
234.2350965092
 20
135.5077692151
 30
0.0
 40
0.5999999999999943
100
AcDbArc
 50
90.0
 51
180.0
  0
LINE
  5
195
330
1F
100
AcDbEntity
  8
0
  6
HIDDEN
 62
     7
370
     0
100
AcDbLine
 10
234.2350983451
 20
95.5077683091
 30
0.0
 11
234.9364885519
 21
95.5077683091
 31
0.0
  0
LINE
  5
196
330
1F
100
AcDbEntity
  8
0
  6
HIDDEN
 62
     7
370
     0
100
AcDbLine
 10
234.9364885519
 20
136.1077701211
 30
0.0
 11
234.2350983451
 21
136.1077701211
 31
0.0
  0
ARC
  5
197
330
1F
100
AcDbEntity
  8
0
  6
HIDDEN
 62
     7
370
     0
100
AcDbCircle
 10
234.9364897684
 20
96.1077692151
 30
0.0
 40
0.6000000000000085
100
AcDbArc
 50
270.0
 51
285.0
  0
ARC
  5
198
330
1F
100
AcDbEntity
  8
0
  6
HIDDEN
 62
     7
370
     0
100
AcDbCircle
 10
234.9364897684
 20
135.5077692151
 30
0.0
 40
0.5999999999999943
100
AcDbArc
 50
75.0
 51
90.0
  0
LINE
  5
199
330
1F
100
AcDbEntity
  8
0
  6
HIDDEN
 62
     7
370
     0
100
AcDbLine
 10
235.0917810033
 20
95.5282145649
 30
0.0
 11
236.1350932548
 21
95.8077696621
 31
0.0
  0
LINE
  5
19A
330
1F
100
AcDbEntity
  8
0
  6
HIDDEN
 62
     7
370
     0
100
AcDbLine
 10
236.1350932548
 20
135.807768768
 30
0.0
 11
235.0917810033
 21
136.0873238653
 31
0.0
  0
LINE
  5
19B
330
1F
100
AcDbEntity
  8
0
  6
HIDDEN
 62
     7
370
     0
100
AcDbLine
 10
236.1350932548
 20
95.8077696621
 30
0.0
 11
268.0850976536
 21
95.8077696621
 31
0.0
  0
LINE
  5
19C
330
1F
100
AcDbEntity
  8
0
  6
HIDDEN
 62
     7
370
     0
100
AcDbLine
 10
268.0850976536
 20
135.807768768
 30
0.0
 11
236.1350932548
 21
135.807768768
 31
0.0
  0
LINE
  5
19D
330
1F
100
AcDbEntity
  8
0
  6
HIDDEN
 62
     7
370
     0
100
AcDbLine
 10
273.8850915263
 20
143.8327686399
 30
0.0
 11
269.5850932429
 21
143.8327686399
 31
0.0
  0
LINE
  5
19E
330
1F
100
AcDbEntity
  8
0
  6
HIDDEN
 62
     7
370
     0
100
AcDbLine
 10
269.5850932429
 20
87.7827697903
 30
0.0
 11
273.8850915263
 21
87.7827697903
 31
0.0
  0
ARC
  5
19F
330
1F
100
AcDbEntity
  8
0
  6
HIDDEN
 62
     7
370
     0
100
AcDbCircle
 10
35.1350965092
 20
102.1077692151
 30
0.0
 40
1.200000000000003
100
AcDbArc
 50
90.0
 51
180.0
  0
ARC
  5
1A0
330
1F
100
AcDbEntity
  8
0
  6
HIDDEN
 62
     7
370
     0
100
AcDbCircle
 10
35.1350965092
 20
129.5077692151
 30
0.0
 40
1.200000000000003
100
AcDbArc
 50
180.0
 51
270.0
  0
ARC
  5
1A1
330
1F
100
AcDbEntity
  8
0
  6
HIDDEN
 62
     7
370
     0
100
AcDbCircle
 10
44.82746894
 20
103.4827692151
 30
0.0
 40
0.400000000000006
100
AcDbArc
 50
255.0
 51
270.0
  0
ARC
  5
1A2
330
1F
100
AcDbEntity
  8
0
  6
HIDDEN
 62
     7
370
     0
100
AcDbCircle
 10
44.82746894
 20
128.1327692151
 30
0.0
 40
0.3999999999999785
100
AcDbArc
 50
90.0
 51
105.0
  0
LINE
  5
1A3
330
1F
100
AcDbEntity
  8
0
  6
HIDDEN
 62
     7
370
     0
100
AcDbLine
 10
44.8274665902
 20
103.0827689454
 30
0.0
 11
45.7041540573
 21
103.0827689454
 31
0.0
  0
LINE
  5
1A4
330
1F
100
AcDbEntity
  8
0
  6
HIDDEN
 62
     7
370
     0
100
AcDbLine
 10
45.7041540573
 20
128.5327694848
 30
0.0
 11
44.8274665902
 21
128.5327694848
 31
0.0
  0
ARC
  5
1A5
330
1F
100
AcDbEntity
  8
0
  6
HIDDEN
 62
     7
370
     0
100
AcDbCircle
 10
45.7041564016
 20
103.4827692151
 30
0.0
 40
0.3999999999999936
100
AcDbArc
 50
270.0
 51
330.0
  0
ARC
  5
1A6
330
1F
100
AcDbEntity
  8
0
  6
HIDDEN
 62
     7
370
     0
100
AcDbCircle
 10
45.7041564016
 20
128.1327692151
 30
0.0
 40
0.3999999999999865
100
AcDbArc
 50
30.0
 51
90.0
  0
LINE
  5
1A7
330
1F
100
AcDbEntity
  8
0
  6
HIDDEN
 62
     7
370
     0
100
AcDbLine
 10
44.7239407728
 20
128.5191395789
 30
0.0
 11
43.9350956509
 21
128.3077694013
 31
0.0
  0
LINE
  5
1A8
330
1F
100
AcDbEntity
  8
0
  6
HIDDEN
 62
     7
370
     0
100
AcDbLine
 10
43.9350956509
 20
103.3077690288
 30
0.0
 11
44.7239407728
 21
103.0963988513
 31
0.0
  0
LINE
  5
1A9
330
1F
100
AcDbEntity
  8
0
  6
HIDDEN
 62
     7
370
     0
100
AcDbLine
 10
46.0505688021
 20
103.2827695369
 30
0.0
 11
47.2196990082
 21
105.3077693566
 31
0.0
  0
LINE
  5
1AA
330
1F
100
AcDbEntity
  8
0
  6
HIDDEN
 62
     7
370
     0
100
AcDbLine
 10
47.2196990082
 20
126.3077690735
 30
0.0
 11
46.0505688021
 21
128.3327688932
 31
0.0
  0
LINE
  5
1AB
330
1F
100
AcDbEntity
  8
0
  6
HIDDEN
 62
     7
370
     0
100
AcDbLine
 10
35.1350956986
 20
103.3077690288
 30
0.0
 11
43.9350956509
 21
103.3077690288
 31
0.0
  0
LINE
  5
1AC
330
1F
100
AcDbEntity
  8
0
  6
HIDDEN
 62
     7
370
     0
100
AcDbLine
 10
43.9350956509
 20
128.3077694013
 30
0.0
 11
35.1350956986
 21
128.3077694013
 31
0.0
  0
SPLINE
  5
1AD
330
1F
100
AcDbEntity
  8
0
  6
HIDDEN
 62
     7
370
     0
100
AcDbSpline
210
0.0
220
0.0
230
1.0
 70
     8
 71
     3
 72
    11
 73
     7
 74
     0
 42
0.000000001
 43
0.00000001
 40
0.0
 40
0.0
 40
0.0
 40
0.0
 40
0.5976787424590362
 40
0.8120422002779878
 40
0.9270965127979297
 40
1.0
 40
1.0
 40
1.0
 40
1.0
 10
154.6016072312813
 20
153.2590997874501
 30
0.0
 10
154.6527341544113
 20
153.0889218255833
 30
0.0
 10
154.7221982597952
 20
152.8577078358993
 30
0.0
 10
154.8081319690194
 20
152.652675245686
 30
0.0
 10
154.8345661294697
 20
152.5905543617193
 30
0.0
 10
154.8359312255896
 20
152.5873556201011
 30
0.0
 10
154.8364607075673
 20
152.5861149191621
 30
0.0
  0
SPLINE
  5
1AE
330
1F
100
AcDbEntity
  8
0
  6
HIDDEN
 62
     7
370
     0
100
AcDbSpline
210
0.0
220
0.0
230
1.0
 70
     8
 71
     3
 72
     9
 73
     5
 74
     0
 42
0.000000001
 43
0.00000001
 40
0.0
 40
0.0
 40
0.0
 40
0.0
 40
0.7132820139390459
 40
1.0
 40
1.0
 40
1.0
 40
1.0
 10
154.630984870575
 20
153.4193096220258
 30
0.0
 10
154.6078263455898
 20
153.5259312743563
 30
0.0
 10
154.5753587878319
 20
153.675411634504
 30
0.0
 10
154.5942904585881
 20
153.8263410769483
 30
0.0
 10
154.5997185091
 20
153.8696152627233
 30
0.0
  0
LINE
  5
1AF
330
1F
100
AcDbEntity
  8
0
  6
HIDDEN
 62
     7
370
     0
100
AcDbLine
 10
95.9350967238
 20
105.3077693566
 30
0.0
 11
99.1797426174
 21
110.7077690311
 31
0.0
  0
LINE
  5
1B0
330
1F
100
AcDbEntity
  8
0
  6
HIDDEN
 62
     7
370
     0
100
AcDbLine
 10
99.1797426174
 20
120.9077693991
 30
0.0
 11
95.9350967238
 21
126.3077690735
 31
0.0
  0
LINE
  5
1B1
330
1F
100
AcDbEntity
  8
0
  6
HIDDEN
 62
     7
370
     0
100
AcDbLine
 10
47.2196990082
 20
105.3077693566
 30
0.0
 11
95.9350967238
 21
105.3077693566
 31
0.0
  0
LINE
  5
1B2
330
1F
100
AcDbEntity
  8
0
  6
HIDDEN
 62
     7
370
     0
100
AcDbLine
 10
95.9350967238
 20
126.3077690735
 30
0.0
 11
47.2196990082
 21
126.3077690735
 31
0.0
  0
LINE
  5
1B3
330
1F
100
AcDbEntity
  8
0
  6
HIDDEN
 62
     7
370
     0
100
AcDbLine
 10
167.4350963364
 20
79.8077707648
 30
0.0
 11
167.4350963364
 21
80.507767713
 31
0.0
  0
LINE
  5
1B4
330
1F
100
AcDbEntity
  8
0
  6
HIDDEN
 62
     7
370
     0
100
AcDbLine
 10
99.1797426174
 20
110.7077690311
 30
0.0
 11
233.635095639
 21
110.7077690311
 31
0.0
  0
LINE
  5
1B5
330
1F
100
AcDbEntity
  8
0
  6
HIDDEN
 62
     7
370
     0
100
AcDbLine
 10
233.635095639
 20
120.9077693991
 30
0.0
 11
99.1797426174
 21
120.9077693991
 31
0.0
  0
LINE
  5
1B6
330
1F
100
AcDbEntity
  8
0
  6
HIDDEN
 62
     7
370
     0
100
AcDbLine
 10
151.8350967596
 20
117.5492092505
 30
0.0
 11
151.8350967596
 21
129.2660602838
 31
0.0
  0
LINE
  5
1B7
330
1F
100
AcDbEntity
  8
0
  6
HIDDEN
 62
     7
370
     0
100
AcDbLine
 10
147.6350964437
 20
127.1643856078
 30
0.0
 11
147.6350964437
 21
117.5484981857
 31
0.0
  0
LINE
  5
1B8
330
1F
100
AcDbEntity
  8
0
  6
HIDDEN
 62
     7
370
     0
100
AcDbLine
 10
147.6350964437
 20
129.2660602838
 30
0.0
 11
147.6350964437
 21
128.9180101365
 31
0.0
  0
LINE
  5
1B9
330
1F
100
AcDbEntity
  8
0
  6
HIDDEN
 62
     7
370
     0
100
AcDbLine
 10
140.4350690933
 20
127.6061156302
 30
0.0
 11
148.8823962788
 21
125.5831069782
 31
0.0
  0
LINE
  5
1BA
330
1F
100
AcDbEntity
  8
0
  6
HIDDEN
 62
     7
370
     0
100
AcDbLine
 10
148.8823962788
 20
129.9018695488
 30
0.0
 11
141.4132469723
 21
131.6906189084
 31
0.0
  0
LINE
  5
1BB
330
1F
100
AcDbEntity
  8
0
  6
HIDDEN
 62
     7
370
     0
100
AcDbLine
 10
138.7350964284
 20
127.0877852574
 30
0.0
 11
139.9571273866
 21
126.7951264515
 31
0.0
  0
LINE
  5
1BC
330
1F
100
AcDbEntity
  8
0
  6
HIDDEN
 62
     7
370
     0
100
AcDbLine
 10
141.35452429
 20
132.6301315337
 30
0.0
 11
138.7350964284
 21
133.2574462056
 31
0.0
  0
LINE
  5
1BD
330
1F
100
AcDbEntity
  8
0
  6
HIDDEN
 62
     7
370
     0
100
AcDbLine
 10
152.2350960801
 20
129.3158543765
 30
0.0
 11
152.2350960801
 21
132.4720823675
 31
0.0
  0
LINE
  5
1BE
330
1F
100
AcDbEntity
  8
0
  6
HIDDEN
 62
     7
370
     0
100
AcDbLine
 10
147.2350961918
 20
131.3695137858
 30
0.0
 11
147.2350961918
 21
129.3158543765
 31
0.0
  0
LINE
  5
1BF
330
1F
100
AcDbEntity
  8
0
  6
HIDDEN
 62
     7
370
     0
100
AcDbLine
 10
147.2350961918
 20
100.7571726575
 30
0.0
 11
147.2350961918
 21
100.5690613299
 31
0.0
  0
LINE
  5
1C0
330
1F
100
AcDbEntity
  8
0
  6
HIDDEN
 62
     7
370
     0
100
AcDbLine
 10
152.2350960801
 20
100.5690613299
 30
0.0
 11
152.2350960801
 21
100.7571726575
 31
0.0
  0
LINE
  5
1C1
330
1F
100
AcDbEntity
  8
0
  6
HIDDEN
 62
     7
370
     0
100
AcDbLine
 10
147.7350962738
 20
101.9389548808
 30
0.0
 11
147.7350962738
 21
100.5211792424
 31
0.0
  0
LINE
  5
1C2
330
1F
100
AcDbEntity
  8
0
  6
HIDDEN
 62
     7
370
     0
100
AcDbLine
 10
151.7350969295
 20
100.5211792424
 30
0.0
 11
151.7350969295
 21
101.9389548808
 31
0.0
  0
LINE
  5
1C3
330
1F
100
AcDbEntity
  8
0
  6
HIDDEN
 62
     7
370
     0
100
AcDbLine
 10
147.2350961918
 20
102.2996840536
 30
0.0
 11
147.2350961918
 21
101.7011481806
 31
0.0
  0
LINE
  5
1C4
330
1F
100
AcDbEntity
  8
0
  6
HIDDEN
 62
     7
370
     0
100
AcDbLine
 10
152.2350960801
 20
101.7011481806
 30
0.0
 11
152.2350960801
 21
102.2996840536
 31
0.0
  0
LINE
  5
1C5
330
1F
100
AcDbEntity
  8
0
  6
HIDDEN
 62
     7
370
     0
100
AcDbLine
 10
152.2350960801
 20
129.3158543765
 30
0.0
 11
152.2350960801
 21
129.9143902495
 31
0.0
  0
LINE
  5
1C6
330
1F
100
AcDbEntity
  8
0
  6
HIDDEN
 62
     7
370
     0
100
AcDbLine
 10
147.2350961918
 20
129.9143902495
 30
0.0
 11
147.2350961918
 21
129.3158543765
 31
0.0
  0
LINE
  5
1C7
330
1F
100
AcDbEntity
  8
0
  6
HIDDEN
 62
     7
370
     0
100
AcDbLine
 10
151.7350969295
 20
129.6765835494
 30
0.0
 11
151.7350969295
 21
131.0943591878
 31
0.0
  0
LINE
  5
1C8
330
1F
100
AcDbEntity
  8
0
  6
HIDDEN
 62
     7
370
     0
100
AcDbLine
 10
147.7350962738
 20
131.0943591878
 30
0.0
 11
147.7350962738
 21
129.6765835494
 31
0.0
  0
LINE
  5
1C9
330
1F
100
AcDbEntity
  8
0
  6
HIDDEN
 62
     7
370
     0
100
AcDbLine
 10
152.2350960801
 20
130.8583657726
 30
0.0
 11
152.2350960801
 21
131.0464771002
 31
0.0
  0
LINE
  5
1CA
330
1F
100
AcDbEntity
  8
0
  6
HIDDEN
 62
     7
370
     0
100
AcDbLine
 10
147.2350961918
 20
131.0464771002
 30
0.0
 11
147.2350961918
 21
130.8583657726
 31
0.0
  0
ARC
  5
1CB
330
1F
100
AcDbEntity
  8
0
  6
HIDDEN
 62
     7
370
     0
100
AcDbCircle
 10
149.7350965092
 20
101.3420272531
 30
0.0
 40
2.000000000000012
100
AcDbArc
 50
95.5343072053
 51
192.2156859339
  0
ARC
  5
1CC
330
1F
100
AcDbEntity
  8
0
  6
HIDDEN
 62
     7
370
     0
100
AcDbCircle
 10
149.7350965092
 20
101.3420272531
 30
0.0
 40
2.000000000000012
100
AcDbArc
 50
340.4206183739
 51
95.5343072053
  0
CIRCLE
  5
1CD
330
1F
100
AcDbEntity
  8
0
  6
HIDDEN
 62
     7
370
     0
100
AcDbCircle
 10
149.7350965092
 20
130.273511177
 30
0.0
 40
2.000000000000016
  0
LINE
  5
1CE
330
1F
100
AcDbEntity
  8
0
  6
HIDDEN
 62
     7
370
     0
100
AcDbLine
 10
141.6167679633
 20
99.0482097029
 30
0.0
 11
144.6311322431
 21
99.7701057702
 31
0.0
  0
LINE
  5
1CF
330
1F
100
AcDbEntity
  8
0
  6
HIDDEN
 62
     7
370
     0
100
AcDbLine
 10
143.2337358052
 20
105.6051108524
 30
0.0
 11
140.2193715254
 21
104.8832147851
 31
0.0
  0
LINE
  5
1D0
330
1F
100
AcDbEntity
  8
0
  6
HIDDEN
 62
     7
370
     0
100
AcDbLine
 10
145.4755782539
 20
100.6865690931
 30
0.0
 11
145.7803489099
 21
101.5497561082
 31
0.0
  0
LINE
  5
1D1
330
1F
100
AcDbEntity
  8
0
  6
HIDDEN
 62
     7
370
     0
100
AcDbLine
 10
145.0644440407
 20
104.5391069263
 30
0.0
 11
144.4017204846
 21
105.1705939233
 31
0.0
  0
LINE
  5
1D2
330
1F
100
AcDbEntity
  8
0
  6
HIDDEN
 62
     7
370
     0
100
AcDbLine
 10
144.4017204846
 20
126.4449445069
 30
0.0
 11
145.0644440407
 21
127.0764315039
 31
0.0
  0
LINE
  5
1D3
330
1F
100
AcDbEntity
  8
0
  6
HIDDEN
 62
     7
370
     0
100
AcDbLine
 10
145.7803489099
 20
130.065782322
 30
0.0
 11
145.4755782539
 21
130.928969337
 31
0.0
  0
LINE
  5
1D4
330
1F
100
AcDbEntity
  8
0
  6
HIDDEN
 62
     7
370
     0
100
AcDbLine
 10
140.2193715254
 20
126.732323645
 30
0.0
 11
143.2337358052
 21
126.0104275778
 31
0.0
  0
LINE
  5
1D5
330
1F
100
AcDbEntity
  8
0
  6
HIDDEN
 62
     7
370
     0
100
AcDbLine
 10
144.6311322431
 20
131.84543266
 30
0.0
 11
141.6167679633
 21
132.5673287272
 31
0.0
  0
DIMENSION
  5
1D6
330
1F
100
AcDbEntity
  8
VERMASSUNG
100
AcDbDimension
  2
_D
 10
25.9161785298
 20
164.5327692151
 30
0.0
 11
25.9161785298
 21
115.8077692151
 31
0.0
 70
   160
  1
ISO 50 %%c<>
 71
     2
 42
-1.0
  3
SLDDIMSTYLE0
100
AcDbAlignedDimension
 13
153.9850965092
 23
67.0827692151
 33
0.0
 14
153.9850965092
 24
164.5327692151
 34
0.0
 50
90.0
100
AcDbRotatedDimension
  0
DIMENSION
  5
1E3
330
1F
100
AcDbEntity
  8
VERMASSUNG
100
AcDbDimension
  2
_D_1
 10
274.6350965092
 20
184.6361960044
 30
0.0
 11
154.2850965092
 21
184.6361960044
 31
0.0
 70
   160
  1
(<>)
 71
     2
 42
-1.0
  3
SLDDIMSTYLE0
100
AcDbAlignedDimension
 13
33.9350965092
 23
134.1866137425
 33
0.0
 14
274.6350965092
 24
151.1077692151
 34
0.0
100
AcDbRotatedDimension
  0
DIMENSION
  5
1EF
330
1F
100
AcDbEntity
  8
VERMASSUNG
100
AcDbDimension
  2
_D_2
 10
274.6350965092
 20
178.6361960044
 30
0.0
 11
205.0850965092
 21
178.6361960044
 31
0.0
 70
   160
  1
<>
 71
     2
 42
-1.0
  3
SLDDIMSTYLE0
100
AcDbAlignedDimension
 13
135.5350965092
 23
150.7327692151
 33
0.0
 14
274.6350965092
 24
151.1077692151
 34
0.0
100
AcDbRotatedDimension
  0
DIMENSION
  5
1F9
330
1F
100
AcDbEntity
  8
VERMASSUNG
100
AcDbDimension
  2
_D_3
 10
274.6350965092
 20
172.6361960044
 30
0.0
 11
214.6100965092
 21
172.6361960044
 31
0.0
 70
   160
  1
<>
 71
     2
 42
-1.0
  3
SLDDIMSTYLE0
100
AcDbAlignedDimension
 13
154.5850965092
 23
162.1027561683
 33
0.0
 14
274.6350965092
 24
151.1077692151
 34
0.0
100
AcDbRotatedDimension
  0
DIMENSION
  5
203
330
1F
100
AcDbEntity
  8
VERMASSUNG
100
AcDbDimension
  2
_D_4
 10
282.6830468644
 20
79.8077692151
 30
0.0
 11
282.6830468644
 21
115.8077692151
 31
0.0
 70
   160
  1
MBM %%c<>
 71
     2
 42
-1.0
  3
SLDDIMSTYLE0
100
AcDbAlignedDimension
 13
273.9350965092
 23
151.8077692151
 33
0.0
 14
273.9350965092
 24
79.8077692151
 34
0.0
 50
90.0
100
AcDbRotatedDimension
  0
LINE
  5
20F
330
1F
100
AcDbEntity
  8
VERMASSUNG
  6
CENTERX2
 62
     7
370
     0
100
AcDbLine
 10
31.9350965092
 20
115.8077692151
 30
0.0
 11
276.6350965092
 21
115.8077692151
 31
0.0
  0
LINE
  5
210
330
1F
100
AcDbEntity
  8
VERMASSUNG
  6
CENTERX2
370
     0
100
AcDbLine
 10
136.7900948631
 20
130.6384141146
 30
0.0
 11
148.052466554
 21
127.9412441002
 31
0.0
  0
LINE
  5
211
330
1F
100
AcDbEntity
  8
VERMASSUNG
  6
CENTERX2
370
     0
100
AcDbLine
 10
136.7900948631
 20
100.9771243156
 30
0.0
 11
148.052466554
 21
103.67429433
 31
0.0
  0
LINE
  5
212
330
1F
100
AcDbEntity
  8
0
  6
Continuous
 62
     7
370
    15
100
AcDbLine
 10
285.8657741549
 20
10.2676177326
 30
0.0
 11
285.9647525832
 21
10.3247759494
 31
0.0
  0
LINE
  5
213
330
1F
100
AcDbEntity
  8
0
  6
Continuous
 62
     7
370
    15
100
AcDbLine
 10
290.9561153022
 20
18.9710060824
 30
0.0
 11
290.9561153022
 21
19.0853027198
 31
0.0
  0
LINE
  5
214
330
1F
100
AcDbEntity
  8
0
  6
Continuous
 62
     7
370
    15
100
AcDbLine
 10
265.9522853717
 20
19.3279494821
 30
0.0
 11
282.2652391564
 21
9.9106817144
 31
0.0
  0
LINE
  5
215
330
1F
100
AcDbEntity
  8
0
  6
Continuous
 62
     7
370
    15
100
AcDbLine
 10
289.4646542372
 20
22.3817855731
 30
0.0
 11
273.1517004526
 21
31.7990533408
 31
0.0
  0
SPLINE
  5
216
330
1F
100
AcDbEntity
  8
0
  6
Continuous
 62
     7
370
    15
100
AcDbSpline
210
0.0
220
0.0
230
1.0
 70
     8
 71
     3
 72
    10
 73
     6
 74
     0
 42
0.000000001
 43
0.00000001
 40
0.0
 40
0.0
 40
0.0
 40
0.0
 40
0.134195124446517
 40
0.6045542330645128
 40
1.0
 40
1.0
 40
1.0
 40
1.0
 10
260.6092545424282
 20
27.10597907341374
 30
0.0
 10
260.5848417985287
 20
27.0378146078873
 30
0.0
 10
260.4748614417454
 20
26.7307310506526
 30
0.0
 10
260.3278991661338
 20
26.22267227665191
 30
0.0
 10
260.2272050936297
 20
25.7884202306652
 30
0.0
 10
260.1812143099652
 20
25.59008093018627
 30
0.0
  0
SPLINE
  5
217
330
1F
100
AcDbEntity
  8
0
  6
Continuous
 62
     7
370
    15
100
AcDbSpline
210
0.0
220
0.0
230
1.0
 70
     8
 71
     3
 72
    19
 73
    15
 74
     0
 42
0.000000001
 43
0.00000001
 40
0.0
 40
0.0
 40
0.0
 40
0.0
 40
0.0322518670420541
 40
0.1267981326814274
 40
0.2214319228444567
 40
0.3161097108905252
 40
0.4107995680169471
 40
0.5054797862936263
 40
0.6001421720025398
 40
0.6947836094698621
 40
0.7894041357995022
 40
0.884005857290241
 40
0.9785918871585876
 40
1.0
 40
1.0
 40
1.0
 40
1.0
 10
268.5815460518274
 20
35.8589411187767
 30
0.0
 10
268.5203957071771
 20
35.84447545272379
 30
0.0
 10
268.2799832837856
 20
35.78760372368217
 30
0.0
 10
267.849733178705
 20
35.63011915085339
 30
0.0
 10
267.294938061982
 20
35.3876578776304
 30
0.0
 10
266.7365109433928
 20
35.08753982456751
 30
0.0
 10
266.179079084382
 20
34.73678906931181
 30
0.0
 10
265.626030224246
 20
34.33643038792658
 30
0.0
 10
265.0809440560829
 20
33.88954996642046
 30
0.0
 10
264.5474834730981
 20
33.39878587086198
 30
0.0
 10
264.0283321187139
 20
32.86817169615595
 30
0.0
 10
263.5295119887832
 20
32.2981945688467
 30
0.0
 10
263.1692590123375
 20
31.8569130827459
 30
0.0
 10
262.9844170382006
 20
31.59830087684074
 30
0.0
 10
262.9503022307827
 20
31.55057088671497
 30
0.0
  0
LINE
  5
218
330
1F
100
AcDbEntity
  8
0
  6
Continuous
 62
     7
370
    15
100
AcDbLine
 10
266.2851677667
 20
34.794848371
 30
0.0
 11
253.9806545471
 21
39.2289071734
 31
0.0
  0
LINE
  5
219
330
1F
100
AcDbEntity
  8
0
  6
Continuous
 62
     7
370
    15
100
AcDbLine
 10
249.9311107949
 20
32.2141318132
 30
0.0
 11
261.7181152423
 21
22.2612828379
 31
0.0
  0
SPLINE
  5
21A
330
1F
100
AcDbEntity
  8
0
  6
Continuous
 62
     7
370
    15
100
AcDbSpline
210
0.0
220
0.0
230
1.0
 70
     8
 71
     3
 72
    11
 73
     7
 74
     0
 42
0.000000001
 43
0.00000001
 40
0.0
 40
0.0
 40
0.0
 40
0.0
 40
0.1706080492582558
 40
0.5485419081255609
 40
0.9268003468164401
 40
1.0
 40
1.0
 40
1.0
 40
1.0
 10
267.1589807279053
 20
17.218308159519
 30
0.0
 10
267.2400963702216
 20
17.23827721392022
 30
0.0
 10
267.5009007660778
 20
17.30248205801947
 30
0.0
 10
267.9519788123223
 20
17.47496278398403
 30
0.0
 10
268.3578161713829
 20
17.64727223108929
 30
0.0
 10
268.5797117395721
 20
17.77043012510021
 30
0.0
 10
268.6156900040595
 20
17.79039901100717
 30
0.0
  0
LINE
  5
21B
330
1F
100
AcDbEntity
  8
0
  6
Continuous
 62
     7
370
    15
100
AcDbLine
 10
263.4471416287
 20
17.8355051584
 30
0.0
 11
264.0293504232
 21
17.4994031755
 31
0.0
  0
LINE
  5
21C
330
1F
100
AcDbEntity
  8
0
  6
Continuous
 62
     7
370
    15
100
AcDbLine
 10
261.9575276494
 20
18.6954410045
 30
0.0
 11
262.5326655198
 21
18.3634209791
 31
0.0
  0
LINE
  5
21D
330
1F
100
AcDbEntity
  8
0
  6
Continuous
 62
     7
370
    15
100
AcDbLine
 10
260.184774665
 20
21.1216733069
 30
0.0
 11
260.2025191468
 21
21.0633269767
 31
0.0
  0
LINE
  5
21E
330
1F
100
AcDbEntity
  8
0
  6
Continuous
 62
     7
370
    15
100
AcDbLine
 10
275.5523414798
 20
31.9342323427
 30
0.0
 11
275.5317042754
 21
32.0005743594
 31
0.0
  0
SPLINE
  5
21F
330
1F
100
AcDbEntity
  8
0
  6
Continuous
 62
     7
370
    15
100
AcDbSpline
210
0.0
220
0.0
230
1.0
 70
     8
 71
     3
 72
    26
 73
    22
 74
     0
 42
0.000000001
 43
0.00000001
 40
0.0
 40
0.0
 40
0.0
 40
0.0
 40
0.0206098635346963
 40
0.0728944510643923
 40
0.1258585040611578
 40
0.1800156137396773
 40
0.2354401611125397
 40
0.2918299514627566
 40
0.3487416667418533
 40
0.4057939356565405
 40
0.4627674603426434
 40
0.5196158025351038
 40
0.5763503990457023
 40
0.6330092550266897
 40
0.6896415235028057
 40
0.7462991724022513
 40
0.8030217144057956
 40
0.8598660589598679
 40
0.9168873020481363
 40
0.9741306256673679
 40
1.0
 40
1.0
 40
1.0
 40
1.0
 10
254.0011890185147
 20
39.21338734213981
 30
0.0
 10
253.9624401670374
 20
39.23002807126758
 30
0.0
 10
253.8253904358221
 20
39.28888420163634
 30
0.0
 10
253.5645482754051
 20
39.33002203106723
 30
0.0
 10
253.2263310036144
 20
39.33739100232146
 30
0.0
 10
252.8715677392791
 20
39.2834013168719
 30
0.0
 10
252.5058596753516
 20
39.1724698882762
 30
0.0
 10
252.1338998100093
 20
39.00397871777881
 30
0.0
 10
251.7623552541526
 20
38.78081200782031
 30
0.0
 10
251.3978816955445
 20
38.50710594373858
 30
0.0
 10
251.0465549793036
 20
38.18810940841905
 30
0.0
 10
250.7136585547007
 20
37.82942655857367
 30
0.0
 10
250.4038775875121
 20
37.43684954372553
 30
0.0
 10
250.1215498054509
 20
37.01641819834701
 30
0.0
 10
249.8706991265363
 20
36.57441349731997
 30
0.0
 10
249.655008889538
 20
36.1173365197026
 30
0.0
 10
249.4778428160738
 20
35.65183267716204
 30
0.0
 10
249.3419173057699
 20
35.18441769642831
 30
0.0
 10
249.250500729064
 20
34.72197130137528
 30
0.0
 10
249.2117329075187
 20
34.35274789903525
 30
0.0
 10
249.208506772229
 20
34.14190829194284
 30
0.0
 10
249.2075026163838
 20
34.07628307636896
 30
0.0
  0
SPLINE
  5
220
330
1F
100
AcDbEntity
  8
0
  6
Continuous
 62
     7
370
    15
100
AcDbSpline
210
0.0
220
0.0
230
1.0
 70
     8
 71
     3
 72
    13
 73
     9
 74
     0
 42
0.000000001
 43
0.00000001
 40
0.0
 40
0.0
 40
0.0
 40
0.0
 40
0.1013708038922181
 40
0.2925452651573772
 40
0.4837075735181394
 40
0.673017314708729
 40
0.8585816591153959
 40
1.0
 40
1.0
 40
1.0
 40
1.0
 10
249.2075026163838
 20
34.07628307636896
 30
0.0
 10
249.2088849794873
 20
33.99997660531558
 30
0.0
 10
249.2128743311065
 20
33.77976431587505
 30
0.0
 10
249.2576148150521
 20
33.43420730923459
 30
0.0
 10
249.3582632758952
 20
33.05467590011105
 30
0.0
 10
249.51101422853
 20
32.71653135408211
 30
0.0
 10
249.6917555252922
 20
32.4405081844631
 30
0.0
 10
249.840828024321
 20
32.30327445123905
 30
0.0
 10
249.9053011185627
 20
32.24392156272552
 30
0.0
  0
LINE
  5
221
330
1F
100
AcDbEntity
  8
0
  6
Continuous
 62
     7
370
    15
100
AcDbLine
 10
284.3307084245
 20
24.0866307192
 30
0.0
 11
284.2175524339
 21
24.151975362
 31
0.0
  0
LINE
  5
222
330
1F
100
AcDbEntity
  8
0
  6
Continuous
 62
     7
370
    15
100
AcDbLine
 10
282.1807547065
 20
24.1519749597
 30
0.0
 11
282.0675994287
 21
24.0866305763
 31
0.0
  0
LINE
  5
223
330
1F
100
AcDbEntity
  8
0
  6
Continuous
 62
     7
370
    15
100
AcDbLine
 10
284.7991541821
 20
23.237640728
 30
0.0
 11
284.7991541821
 21
23.43361019
 31
0.0
  0
LINE
  5
224
330
1F
100
AcDbEntity
  8
0
  6
Continuous
 62
     7
370
    15
100
AcDbLine
 10
281.5991533918
 20
23.4336106462
 30
0.0
 11
281.5991533918
 21
23.2376411842
 31
0.0
  0
LWPOLYLINE
  5
225
330
1F
100
AcDbEntity
  8
0
  6
Continuous
 62
     7
370
    15
100
AcDbPolyline
 90
       64
 70
   128
 43
0.0
 10
280.971767127
 20
13.2071645677
 10
280.996574762
 20
13.7954722643
 10
281.0707495275
 20
14.4065744623
 10
281.1935554342
 20
15.0343984404
 10
281.3637718039
 20
15.672704525
 10
281.5797064408
 20
16.315148561
 10
281.8392135433
 20
16.9553457513
 10
282.1397142511
 20
17.5869340012
 10
282.4782216699
 20
18.2036359698
 10
282.8513716908
 20
18.7993221855
 10
283.2554559179
 20
19.3680732489
 10
283.6864582836
 20
19.9042359517
 10
284.1400953508
 20
20.4024821322
 10
284.6118584605
 20
20.8578594708
 10
285.0970593026
 20
21.2658430448
 10
285.5908755862
 20
21.622377511
 10
286.0883995658
 20
21.9239197202
 10
286.5846865849
 20
22.1674728241
 10
287.0748043837
 20
22.3506159574
 10
287.5538819472
 20
22.471529395
 10
288.0171579987
 20
22.5290109877
 10
288.4600282584
 20
22.5224900598
 10
288.8780910147
 20
22.4520305992
 10
289.2671920372
 20
22.318333762
 10
289.6234635624
 20
22.1227275274
 10
289.9433652549
 20
21.867156275
 10
290.2237176618
 20
21.554160249
 10
290.4617343496
 20
21.186849548
 10
290.6550503534
 20
20.768875224
 10
290.8017435133
 20
20.3043908016
 10
290.9003566021
 20
19.7980128835
 10
290.9499091787
 20
19.2547738299
 10
290.9499091787
 20
18.6800728974
 10
290.9003566021
 20
18.0796216566
 10
290.8017435133
 20
17.4593874897
 10
290.6550503534
 20
16.8255347499
 10
290.4617343496
 20
16.1843625189
 10
290.2237176618
 20
15.5422435996
 10
289.9433652549
 20
14.9055595745
 10
289.6234635624
 20
14.2806376897
 10
289.2671920372
 20
13.6736891079
 10
288.8780910147
 20
13.0907457926
 10
288.4600282584
 20
12.5376013477
 10
288.0171579987
 20
12.0197533019
 10
287.5538819472
 20
11.5423477509
 10
287.0748043837
 20
11.1101300074
 10
286.5846865849
 20
10.7273951753
 10
286.0883995658
 20
10.3979474837
 10
285.5908755862
 20
10.125060733
 10
285.0970593026
 20
9.9114470542
 10
284.6118584605
 20
9.7592296601
 10
284.1400953508
 20
9.6699209063
 10
283.6864582836
 20
9.6444088774
 10
283.2554559179
 20
9.682946841
 10
282.8513716908
 20
9.7851521865
 10
282.4782216699
 20
9.9500085585
 10
282.1397142511
 20
10.1758781805
 10
281.8392135433
 20
10.4605156981
 10
281.5797064408
 20
10.8010923655
 10
281.3637718039
 20
11.1942235767
 10
281.1935554342
 20
11.6360020239
 10
281.0707495275
 20
12.1220373202
 10
280.996574762
 20
12.6474991569
 10
280.971767127
 20
13.2071645677
  0
LWPOLYLINE
  5
226
330
1F
100
AcDbEntity
  8
0
  6
Continuous
 62
     7
370
    15
100
AcDbPolyline
 90
       33
 70
   128
 43
0.0
 10
280.7737780914
 20
13.2071645677
 10
280.7990772641
 20
13.8071381752
 10
280.8747229546
 20
14.4303585916
 10
280.9999644223
 20
15.0706325636
 10
281.1735557009
 20
15.7215959321
 10
281.3937724576
 20
16.3767796011
 10
281.6584256902
 20
17.0296723887
 10
281.9648851722
 20
17.6737847511
 10
282.3101052669
 20
18.3027157019
 10
282.6906549573
 20
18.9102147101
 10
283.1027520906
 20
19.490243751
 10
283.5423013103
 20
20.0370387481
 10
284.0049338321
 20
20.5451653873
 10
284.4860520934
 20
21.0095728772
 10
284.9808745341
 20
21.4256465694
 10
285.4844831769
 20
21.7892515471
 10
285.9918730588
 20
22.0967733294
 10
286.4980015152
 20
22.3451560556
 10
286.9978383114
 20
22.5319308181
 10
287.486416038
 20
22.6552417122
 10
287.9588787854
 20
22.7138635934
 10
288.4105309995
 20
22.7072129431
 10
288.8368843043
 20
22.6353563425
 10
289.2337010977
 20
22.499008264
 10
289.5970374884
 20
22.2995230058
 10
289.9232828084
 20
22.0388840417
 10
290.209194648
 20
21.7196810523
 10
290.4519315195
 20
21.3450868031
 10
290.6490802523
 20
20.9188236824
 10
290.7986825984
 20
20.4451287167
 10
290.899251301
 20
19.928709311
 10
290.9497869529
 20
19.3746980752
 10
290.9561153022
 20
19.0853027198
  0
LWPOLYLINE
  5
227
330
1F
100
AcDbEntity
  8
0
  6
Continuous
 62
     7
370
    15
100
AcDbPolyline
 90
       17
 70
   128
 43
0.0
 10
285.8657741549
 20
10.2676177326
 10
285.4844831769
 20
10.0639419106
 10
284.9808745341
 20
9.8460927259
 10
284.4860520934
 20
9.6908565887
 10
284.0049338321
 20
9.599776758
 10
283.5423013103
 20
9.5737592571
 10
283.1027520906
 20
9.6130615274
 10
282.6906549573
 20
9.7172933458
 10
282.3101052669
 20
9.8854190338
 10
281.9648851722
 20
10.1157673474
 10
281.6584256902
 20
10.4060491235
 10
281.3937724576
 20
10.7533797926
 10
281.1735557009
 20
11.1543066064
 10
280.9999644223
 20
11.6048457508
 10
280.8747229546
 20
12.1005190021
 10
280.7990772641
 20
12.6364007633
 10
280.7737780914
 20
13.2071645677
  0
SPLINE
  5
228
330
1F
100
AcDbEntity
  8
0
  6
Continuous
 62
     7
370
    15
100
AcDbSpline
210
0.0
220
0.0
230
1.0
 70
     8
 71
     3
 72
    24
 73
    20
 74
     0
 42
0.000000001
 43
0.00000001
 40
0.0
 40
0.0
 40
0.0
 40
0.0
 40
0.25
 40
0.25
 40
0.3125000000000001
 40
0.3125000000000001
 40
0.3750000000000001
 40
0.3750000000000001
 40
0.5000000000000001
 40
0.5000000000000001
 40
0.6250000000000001
 40
0.6250000000000001
 40
0.7500000000000001
 40
0.7500000000000001
 40
0.8124999999999999
 40
0.8124999999999999
 40
0.8749999999999997
 40
0.8749999999999997
 40
1.0
 40
1.0
 40
1.0
 40
1.0
 10
265.5121091116324
 20
20.97811208274961
 30
0.0
 10
265.5795550738071
 20
21.07518775890678
 30
0.0
 10
265.628677241343
 20
21.20063811899576
 30
0.0
 10
265.6705658594174
 20
21.39567893780995
 30
0.0
 10
265.6779525186943
 20
21.43678540048788
 30
0.0
 10
265.6905003569337
 20
21.52164321136051
 30
0.0
 10
265.6956963041035
 20
21.56551369101075
 30
0.0
 10
265.7081659366737
 20
21.70141020510895
 30
0.0
 10
265.7123452420553
 20
21.79770329197601
 30
0.0
 10
265.7124595081672
 20
22.00190585503118
 30
0.0
 10
265.708284173161
 20
22.11064620251259
 30
0.0
 10
265.6916861395008
 20
22.3327597204615
 30
0.0
 10
265.6793182997791
 20
22.44676844494279
 30
0.0
 10
265.6544866672817
 20
22.62200231900394
 30
0.0
 10
265.6451569555726
 20
22.68111916546047
 30
0.0
 10
265.6242889816114
 20
22.80075373806786
 30
0.0
 10
265.6127323698648
 20
22.86132317107021
 30
0.0
 10
265.5750594631922
 20
23.04272671178493
 30
0.0
 10
265.5458398322158
 20
23.16403306404236
 30
0.0
 10
265.5121091116324
 20
23.28555875378595
 30
0.0
  0
LINE
  5
229
330
1F
100
AcDbEntity
  8
0
  6
Continuous
 62
     7
370
    15
100
AcDbLine
 10
264.5598188246
 20
23.8353040016
 30
0.0
 11
265.5121089542
 21
23.2855586114
 31
0.0
  0
LINE
  5
22A
330
1F
100
AcDbEntity
  8
0
  6
Continuous
 62
     7
370
    15
100
AcDbLine
 10
265.5121089542
 20
20.9781119163
 30
0.0
 11
264.5598188246
 21
21.5278573066
 31
0.0
  0
SPLINE
  5
22B
330
1F
100
AcDbEntity
  8
0
  6
Continuous
 62
     7
370
    15
100
AcDbSpline
210
0.0
220
0.0
230
1.0
 70
     8
 71
     3
 72
    52
 73
    48
 74
     0
 42
0.000000001
 43
0.00000001
 40
0.0
 40
0.0
 40
0.0
 40
0.0
 40
0.0312499999999997
 40
0.0312499999999997
 40
0.0624999999999993
 40
0.0624999999999993
 40
0.1249999999999993
 40
0.1249999999999993
 40
0.1562499999999994
 40
0.1562499999999994
 40
0.1874999999999994
 40
0.1874999999999994
 40
0.2187499999999994
 40
0.2187499999999994
 40
0.2499999999999995
 40
0.2499999999999995
 40
0.3124999999999976
 40
0.3124999999999976
 40
0.3437499999999972
 40
0.3437499999999972
 40
0.3749999999999968
 40
0.3749999999999968
 40
0.4374999999999961
 40
0.4374999999999961
 40
0.4687499999999957
 40
0.4687499999999957
 40
0.4999999999999953
 40
0.4999999999999953
 40
0.562499999999996
 40
0.562499999999996
 40
0.5937499999999963
 40
0.5937499999999963
 40
0.6249999999999967
 40
0.6249999999999967
 40
0.6874999999999972
 40
0.6874999999999972
 40
0.7499999999999977
 40
0.7499999999999977
 40
0.8124999999999982
 40
0.8124999999999982
 40
0.8749999999999988
 40
0.8749999999999988
 40
0.9062499999999991
 40
0.9062499999999991
 40
0.9374999999999994
 40
0.9374999999999994
 40
1.0
 40
1.0
 40
1.0
 40
1.0
 10
284.6133672254044
 20
22.74784893885866
 30
0.0
 10
284.5696979003965
 20
22.72263917413656
 30
0.0
 10
284.5235085395212
 20
22.69830203580456
 30
0.0
 10
284.4260493077254
 20
22.6514063669629
 30
0.0
 10
284.3744011606266
 20
22.62870527362427
 30
0.0
 10
284.2149762010844
 20
22.56479504073627
 30
0.0
 10
284.1028118255134
 20
22.52759074617953
 30
0.0
 10
283.9262546636062
 20
22.47997866441512
 30
0.0
 10
283.865823773442
 20
22.46546891490662
 30
0.0
 10
283.7448534618729
 20
22.43990252321788
 30
0.0
 10
283.6840045101997
 20
22.42875195193329
 30
0.0
 10
283.5615952167611
 20
22.40970226393168
 30
0.0
 10
283.5000347862673
 20
22.40180344181549
 30
0.0
 10
283.3761937178219
 20
22.38935877297124
 30
0.0
 10
283.3138747407118
 20
22.3848324120173
 30
0.0
 10
283.129402449477
 20
22.37663642263003
 30
0.0
 10
283.0084849551764
 20
22.37815386764684
 30
0.0
 10
282.8299130591125
 20
22.39126750311241
 30
0.0
 10
282.7705964525847
 20
22.39750078551105
 30
0.0
 10
282.6546171147914
 20
22.41354272597326
 30
0.0
 10
282.5978873602991
 20
22.42333579663499
 30
0.0
 10
282.4313231694814
 20
22.45801329959436
 30
0.0
 10
282.3250824511393
 20
22.48816178637171
 30
0.0
 10
282.1729243096009
 20
22.54450622647693
 30
0.0
 10
282.1235100052673
 20
22.56514131934888
 30
0.0
 10
282.02891778745
 20
22.60939323946716
 30
0.0
 10
281.9834998005774
 20
22.63309410858269
 30
0.0
 10
281.8527835878926
 20
22.70886149519236
 30
0.0
 10
281.7729751540684
 20
22.76556767053588
 30
0.0
 10
281.6647268701159
 20
22.8601236324842
 30
0.0
 10
281.6308302816644
 20
22.89302620632526
 30
0.0
 10
281.5681032970004
 20
22.96074662629447
 30
0.0
 10
281.5391457887187
 20
22.99567364547952
 30
0.0
 10
281.4594689691444
 20
23.10350978331288
 30
0.0
 10
281.415869881814
 20
23.17945640940904
 30
0.0
 10
281.3492266916547
 20
23.33909810292881
 30
0.0
 10
281.3271488045923
 20
23.42060099644798
 30
0.0
 10
281.3059923871598
 20
23.584749271485
 30
0.0
 10
281.3068415343669
 20
23.66777721218859
 30
0.0
 10
281.3343341280825
 20
23.83342586499508
 30
0.0
 10
281.3604723351287
 20
23.91322007285061
 30
0.0
 10
281.4187987087923
 20
24.02739629967397
 30
0.0
 10
281.4414511448803
 20
24.06453159670468
 30
0.0
 10
281.4935961050892
 20
24.13672145523496
 30
0.0
 10
281.5233246315012
 20
24.17196632363048
 30
0.0
 10
281.6207717453196
 20
24.2713175126818
 30
0.0
 10
281.6970777154345
 20
24.32994328715992
 30
0.0
 10
281.7849401006582
 20
24.38066516250408
 30
0.0
  0
SPLINE
  5
22C
330
1F
100
AcDbEntity
  8
0
  6
Continuous
 62
     7
370
    15
100
AcDbSpline
210
0.0
220
0.0
230
1.0
 70
     8
 71
     3
 72
    54
 73
    50
 74
     0
 42
0.000000001
 43
0.00000001
 40
0.0
 40
0.0
 40
0.0
 40
0.0
 40
0.0312499999999994
 40
0.0312499999999994
 40
0.0624999999999989
 40
0.0624999999999989
 40
0.0937499999999983
 40
0.0937499999999983
 40
0.1249999999999978
 40
0.1249999999999978
 40
0.1874999999999965
 40
0.1874999999999965
 40
0.2187499999999959
 40
0.2187499999999959
 40
0.2499999999999953
 40
0.2499999999999953
 40
0.3124999999999952
 40
0.3124999999999952
 40
0.374999999999995
 40
0.374999999999995
 40
0.4374999999999949
 40
0.4374999999999949
 40
0.4687499999999955
 40
0.4687499999999955
 40
0.4999999999999961
 40
0.4999999999999961
 40
0.5624999999999987
 40
0.5624999999999987
 40
0.59375
 40
0.59375
 40
0.6250000000000013
 40
0.6250000000000013
 40
0.687500000000004
 40
0.687500000000004
 40
0.7187500000000036
 40
0.7187500000000036
 40
0.7500000000000031
 40
0.7500000000000031
 40
0.8125000000000023
 40
0.8125000000000023
 40
0.8437500000000019
 40
0.8437500000000019
 40
0.8750000000000014
 40
0.8750000000000014
 40
0.9375000000000008
 40
0.9375000000000008
 40
0.9687500000000004
 40
0.9687500000000004
 40
1.0
 40
1.0
 40
1.0
 40
1.0
 10
281.7849401006582
 20
24.38066516250408
 30
0.0
 10
281.8288815292038
 20
24.40603200925492
 30
0.0
 10
281.8761044802561
 20
24.42954634314291
 30
0.0
 10
281.9742385075655
 20
24.47141140387273
 30
0.0
 10
282.0252183374939
 20
24.4898613214665
 30
0.0
 10
282.1308593241602
 20
24.52204485981956
 30
0.0
 10
282.1855208800882
 20
24.53577787624733
 30
0.0
 10
282.2985065828231
 20
24.55865104809936
 30
0.0
 10
282.3569759729219
 20
24.56777543219412
 30
0.0
 10
282.5336272337774
 20
24.58796460009079
 30
0.0
 10
282.6543571041287
 20
24.59223972554356
 30
0.0
 10
282.8397190841473
 20
24.5866395051067
 30
0.0
 10
282.9020499769506
 20
24.58274234888631
 30
0.0
 10
283.0261286286511
 20
24.57132044696983
 30
0.0
 10
283.0881161461105
 20
24.56379011399768
 30
0.0
 10
283.2739633760989
 20
24.53613588100845
 30
0.0
 10
283.3951430340544
 20
24.51137096386612
 30
0.0
 10
283.6311819385076
 20
24.45191977430272
 30
0.0
 10
283.7465403093128
 20
24.41709379085233
 30
0.0
 10
283.9706815330676
 20
24.33863581255793
 30
0.0
 10
284.0766926072237
 20
24.29600163438577
 30
0.0
 10
284.2271347819633
 20
24.22770356410928
 30
0.0
 10
284.2758428410308
 20
24.20420402170303
 30
0.0
 10
284.3703500846215
 20
24.15576411215475
 30
0.0
 10
284.4163560507205
 20
24.13069933234311
 30
0.0
 10
284.5480068657758
 20
24.05438105946537
 30
0.0
 10
284.627384932775
 20
24.00207971954898
 30
0.0
 10
284.7341445220444
 20
23.92135618871929
 30
0.0
 10
284.7676670443476
 20
23.89406400330716
 30
0.0
 10
284.8304710101203
 20
23.83861464948227
 30
0.0
 10
284.8598677143018
 20
23.81032154198488
 30
0.0
 10
284.9400149321696
 20
23.72541210432921
 30
0.0
 10
284.9831756847394
 20
23.66853711617563
 30
0.0
 10
285.0323687732553
 20
23.58199040597092
 30
0.0
 10
285.0461579977663
 20
23.55293285037422
 30
0.0
 10
285.0682622985993
 20
23.49421346386377
 30
0.0
 10
285.0765770287342
 20
23.46442060858412
 30
0.0
 10
285.0924312883107
 20
23.37572853496174
 30
0.0
 10
285.0912638841167
 20
23.31701591682956
 30
0.0
 10
285.071024536034
 20
23.22851875417951
 30
0.0
 10
285.0611743506036
 20
23.19894873887462
 30
0.0
 10
285.0347901365815
 20
23.13948231987747
 30
0.0
 10
285.0182158149134
 20
23.10962961187843
 30
0.0
 10
284.9594476677996
 20
23.02183824616371
 30
0.0
 10
284.9079934317638
 20
22.9648120517953
 30
0.0
 10
284.8112169702105
 20
22.88099217902662
 30
0.0
 10
284.7753575489431
 20
22.85313833070504
 30
0.0
 10
284.6982052321674
 20
22.79915313817233
 30
0.0
 10
284.657046725331
 20
22.77306457743635
 30
0.0
 10
284.6133672254044
 20
22.74784893885866
 30
0.0
  0
LWPOLYLINE
  5
22D
330
1F
100
AcDbEntity
  8
0
  6
Continuous
 62
     7
370
    15
100
AcDbPolyline
 90
       59
 70
   128
 43
0.0
 10
281.6505898009
 20
13.599040556
 10
281.6758750124
 20
14.1521672933
 10
281.7514335116
 20
14.7280024386
 10
281.8763802148
 20
15.3197952559
 10
282.0492494652
 20
15.9206070771
 10
282.2680150532
 20
16.5233942286
 10
282.5301120795
 20
17.1210895133
 10
282.8324675121
 20
17.706685554
 10
283.171536801
 20
18.2733166158
 10
283.5433441814
 20
18.814339516
 10
283.9435310105
 20
19.3234114145
 10
284.3674052904
 20
19.7945640303
 10
284.8099975125
 20
20.2222729907
 10
285.2661186097
 20
20.6015241384
 10
285.7304210851
 20
20.9278710257
 10
286.197461344
 20
21.1974876283
 10
286.6617638195
 20
21.4072129685
 10
287.1178849166
 20
21.55458803
 10
287.5604771388
 20
21.6378851721
 10
287.9843514187
 20
21.6561273829
 10
288.3845382477
 20
21.6091013624
 10
288.7563456281
 20
21.497358126
 10
289.095414917
 20
21.3222081323
 10
289.3977703496
 20
21.0857042435
 10
289.6598673759
 20
20.7906197441
 10
289.8786329639
 20
20.4404139641
 10
290.0515022143
 20
20.0391927311
 10
290.1764489175
 20
19.5916603066
 10
290.2520074168
 20
19.1030631476
 10
290.2772926283
 20
18.5791300941
 10
290.2520074168
 20
18.0260033569
 10
290.1764489175
 20
17.4501682115
 10
290.0515022143
 20
16.8583753942
 10
289.8786329639
 20
16.2575635731
 10
289.6598673759
 20
15.6547764215
 10
289.3977703496
 20
15.0570811368
 10
289.095414917
 20
14.4714850962
 10
288.7563456281
 20
13.9048540343
 10
288.3845382477
 20
13.3638311341
 10
287.9843514187
 20
12.8547592357
 10
287.5604771388
 20
12.3836066199
 10
287.1178849166
 20
11.9558976594
 10
286.6617638195
 20
11.5766465117
 10
286.197461344
 20
11.2502996244
 10
285.7304210851
 20
10.9806830219
 10
285.2661186097
 20
10.7709576817
 10
284.8099975125
 20
10.6235826202
 10
284.3674052904
 20
10.540285478
 10
283.9435310105
 20
10.5220432673
 10
283.5433441814
 20
10.5690692878
 10
283.171536801
 20
10.6808125241
 10
282.8324675121
 20
10.8559625179
 10
282.5301120795
 20
11.0924664067
 10
282.2680150532
 20
11.3875509061
 10
282.0492494652
 20
11.7377566861
 10
281.8763802148
 20
12.1389779191
 10
281.7514335116
 20
12.5865103436
 10
281.6758750124
 20
13.0751075026
 10
281.6505898009
 20
13.599040556
  0
SPLINE
  5
22E
330
1F
100
AcDbEntity
  8
0
  6
Continuous
 62
     7
370
    15
100
AcDbSpline
210
0.0
220
0.0
230
1.0
 70
     8
 71
     3
 72
    16
 73
    12
 74
     0
 42
0.000000001
 43
0.00000001
 40
0.0
 40
0.0
 40
0.0
 40
0.0
 40
0.2499999999999998
 40
0.2499999999999998
 40
0.4999999999999996
 40
0.4999999999999996
 40
0.6249999999999996
 40
0.6249999999999996
 40
0.7499999999999996
 40
0.7499999999999996
 40
1.0
 40
1.0
 40
1.0
 40
1.0
 10
283.0410384191081
 20
11.10641487422763
 30
0.0
 10
282.9826522134339
 20
11.07029919821871
 30
0.0
 10
282.9234903286615
 20
11.05283371464976
 30
0.0
 10
282.8049291574884
 20
11.05736217664709
 30
0.0
 10
282.7486057787839
 20
11.07928629040273
 30
0.0
 10
282.6697153438804
 20
11.14186133241379
 30
0.0
 10
282.6450747374768
 20
11.16716948785786
 30
0.0
 10
282.5989497228369
 20
11.22631205907892
 30
0.0
 10
282.5773347277054
 20
11.26040765689145
 30
0.0
 10
282.5182303706154
 20
11.37425237235329
 30
0.0
 10
282.4874479996851
 20
11.46270606550532
 30
0.0
 10
282.4645690395351
 20
11.56320906013605
 30
0.0
  0
LWPOLYLINE
  5
22F
330
1F
100
AcDbEntity
  8
0
  6
Continuous
 62
     7
370
    15
100
AcDbPolyline
 90
       14
 70
   128
 43
0.0
 10
288.6747111338
 20
14.3586658144
 10
288.3098711543
 20
13.7916338211
 10
287.9114890006
 20
13.2568667769
 10
287.4850146553
 20
12.761680964
 10
287.0362819007
 20
12.3128495062
 10
286.5714292278
 20
11.9165126033
 10
286.0968155753
 20
11.5780914738
 10
285.6189333359
 20
11.3022159292
 10
285.1443196834
 20
11.0926597995
 10
284.6794670105
 20
10.9522892304
 10
284.2307342559
 20
10.8830248778
 10
283.8042599106
 20
10.8858138925
 10
283.4058777569
 20
10.9606186926
 10
283.0410377774
 20
11.1064154118
  0
SPLINE
  5
230
330
1F
100
AcDbEntity
  8
0
  6
Continuous
 62
     7
370
    15
100
AcDbSpline
210
0.0
220
0.0
230
1.0
 70
     8
 71
     3
 72
    16
 73
    12
 74
     0
 42
0.000000001
 43
0.00000001
 40
0.0
 40
0.0
 40
0.0
 40
0.0
 40
0.2500000000000006
 40
0.2500000000000006
 40
0.5000000000000011
 40
0.5000000000000011
 40
0.6250000000000008
 40
0.6250000000000008
 40
0.7500000000000006
 40
0.7500000000000006
 40
1.0
 40
1.0
 40
1.0
 40
1.0
 10
289.2511812810503
 20
15.48103691385212
 30
0.0
 10
289.2666268008999
 20
15.37623277738523
 30
0.0
 10
289.2650800215563
 20
15.26866012344298
 30
0.0
 10
289.2265682268639
 20
15.04862779246308
 30
0.0
 10
289.1905605285527
 20
14.94185989064306
 30
0.0
 10
289.1116143591381
 20
14.78825437457598
 30
0.0
 10
289.0817989819376
 20
14.73955256016927
 30
0.0
 10
289.0154540496633
 20
14.64694428155061
 30
0.0
 10
288.9786527589879
 20
14.6027641143608
 30
0.0
 10
288.8595596853557
 20
14.47959488919911
 30
0.0
 10
288.7714161544445
 20
14.41208169950629
 30
0.0
 10
288.6747119014773
 20
14.35866534950145
 30
0.0
  0
LWPOLYLINE
  5
231
330
1F
100
AcDbEntity
  8
0
  6
Continuous
 62
     7
370
    15
100
AcDbPolyline
 90
       11
 70
   128
 43
0.0
 10
289.2511804495
 20
20.7374231235
 10
289.4958231488
 20
20.3983944803
 10
289.6897318425
 20
20.0001230858
 10
289.8302025471
 20
19.5481635388
 10
289.9152762242
 20
19.0488184352
 10
289.9437664402
 20
18.5090515973
 10
289.9152762242
 20
17.9363906562
 10
289.8302025471
 20
17.3388215758
 10
289.6897318425
 20
16.7246780054
 10
289.4958231488
 20
16.1025243986
 10
289.2511804495
 20
15.4810373071
  0
SPLINE
  5
232
330
1F
100
AcDbEntity
  8
0
  6
Continuous
 62
     7
370
    15
100
AcDbSpline
210
0.0
220
0.0
230
1.0
 70
     8
 71
     3
 72
    16
 73
    12
 74
     0
 42
0.000000001
 43
0.00000001
 40
0.0
 40
0.0
 40
0.0
 40
0.0
 40
0.2500000000000002
 40
0.2500000000000002
 40
0.5000000000000003
 40
0.5000000000000003
 40
0.6250000000000004
 40
0.6250000000000004
 40
0.7500000000000004
 40
0.7500000000000004
 40
1.0
 40
1.0
 40
1.0
 40
1.0
 10
288.6747119014773
 20
21.19421703552693
 30
0.0
 10
288.7714245806906
 20
21.20820730931413
 30
0.0
 10
288.8599477385952
 20
21.20872289069269
 30
0.0
 10
289.0191250693799
 20
21.1807472188395
 30
0.0
 10
289.08563711608
 20
21.15294131224746
 30
0.0
 10
289.1644994912793
 20
21.09038246875886
 30
0.0
 10
289.1865372855458
 20
21.06657688477842
 30
0.0
 10
289.2224625023775
 20
21.01332253149772
 30
0.0
 10
289.2364092149333
 20
20.98365373898899
 30
0.0
 10
289.2650748080986
 20
20.88738094791194
 30
0.0
 10
289.2666254551844
 20
20.81580236973841
 30
0.0
 10
289.2511812810503
 20
20.7374228496185
 30
0.0
  0
LWPOLYLINE
  5
233
330
1F
100
AcDbEntity
  8
0
  6
Continuous
 62
     7
370
    15
100
AcDbPolyline
 90
       14
 70
   128
 43
0.0
 10
283.0410377774
 20
17.941966909
 10
283.4058777569
 20
18.5089989023
 10
283.8042599106
 20
19.0437659465
 10
284.2307342559
 20
19.5389517594
 10
284.6794670105
 20
19.9877832172
 10
285.1443196834
 20
20.3841201201
 10
285.6189333359
 20
20.7225412495
 10
286.0968155753
 20
20.9984167942
 10
286.5714292278
 20
21.2079729239
 10
287.0362819007
 20
21.348343493
 10
287.4850146553
 20
21.4176078456
 10
287.9114890006
 20
21.4148188309
 10
288.3098711543
 20
21.3400140308
 10
288.6747111338
 20
21.1942173116
  0
SPLINE
  5
234
330
1F
100
AcDbEntity
  8
0
  6
Continuous
 62
     7
370
    15
100
AcDbSpline
210
0.0
220
0.0
230
1.0
 70
     8
 71
     3
 72
    16
 73
    12
 74
     0
 42
0.000000001
 43
0.00000001
 40
0.0
 40
0.0
 40
0.0
 40
0.0
 40
0.2500000000000008
 40
0.2500000000000008
 40
0.5000000000000016
 40
0.5000000000000016
 40
0.6250000000000008
 40
0.6250000000000008
 40
0.7500000000000001
 40
0.7500000000000001
 40
1.0
 40
1.0
 40
1.0
 40
1.0
 10
282.464569039535
 20
16.81959499590243
 30
0.0
 10
282.4874499932246
 20
16.90227373014762
 30
0.0
 10
282.5183580457004
 20
16.99289648189947
 30
0.0
 10
282.5974860000043
 20
17.1894816030235
 30
0.0
 10
282.6436823663112
 20
17.29036771200712
 30
0.0
 10
282.7226004760215
 20
17.44398942659667
 30
0.0
 10
282.749813041085
 20
17.49419381246701
 30
0.0
 10
282.8059581755512
 20
17.59269030902603
 30
0.0
 10
282.8350911836507
 20
17.64129728151965
 30
0.0
 10
282.9237454933583
 20
17.78203843106612
 30
0.0
 10
282.982657300425
 20
17.86642673573744
 30
0.0
 10
283.0410384191081
 20
17.9419665602531
 30
0.0
  0
LWPOLYLINE
  5
235
330
1F
100
AcDbEntity
  8
0
  6
Continuous
 62
     7
370
    15
100
AcDbPolyline
 90
       11
 70
   128
 43
0.0
 10
282.4645684617
 20
11.5632095999
 10
282.2199257624
 20
11.9022382431
 10
282.0260170686
 20
12.3005096375
 10
281.8855463641
 20
12.7524691846
 10
281.8004726869
 20
13.2518142881
 10
281.771982471
 20
13.7915811261
 10
281.8004726869
 20
14.3642420672
 10
281.8855463641
 20
14.9618111476
 10
282.0260170686
 20
15.5759547179
 10
282.2199257624
 20
16.1981083248
 10
282.4645684617
 20
16.8195954163
  0
ARC
  5
236
330
1F
100
AcDbEntity
  8
0
  6
Continuous
 62
     7
370
    15
100
AcDbCircle
 10
288.9337183273
 20
20.4100410147
 30
0.0
 40
0.8258433209944646
100
AcDbArc
 50
108.2779783612
 51
120.3371026508
  0
LINE
  5
237
330
1F
100
AcDbEntity
  8
0
  6
Continuous
 62
     7
370
    15
100
AcDbLine
 10
287.41325227
 20
20.4858537716
 30
0.0
 11
288.5165959145
 21
21.1228004998
 31
0.0
  0
LWPOLYLINE
  5
238
330
1F
100
AcDbEntity
  8
0
  6
Continuous
 62
     7
370
    15
100
AcDbPolyline
 90
        9
 70
   128
 43
0.0
 10
284.3024966412
 20
18.6900527718
 10
284.6712091258
 20
19.0937021434
 10
285.0570936194
 20
19.4547586966
 10
285.454565928
 20
19.7679972065
 10
285.8578744556
 20
20.0288851695
 10
286.2611829832
 20
20.2336473208
 10
286.6586552918
 20
20.3793205703
 10
287.0445397854
 20
20.46379677
 10
287.41325227
 20
20.4858537716
  0
LINE
  5
239
330
1F
100
AcDbEntity
  8
0
  6
Continuous
 62
     7
370
    15
100
AcDbLine
 10
283.1991529967
 20
18.0531060436
 30
0.0
 11
284.3024966412
 21
18.6900527718
 31
0.0
  0
ARC
  5
23A
330
1F
100
AcDbEntity
  8
0
  6
Continuous
 62
     7
370
    15
100
AcDbCircle
 10
283.773633322
 20
17.067762331
 30
0.0
 40
1.140583129835061
100
AcDbArc
 50
120.24326773
 51
129.9634737695
  0
ARC
  5
23B
330
1F
100
AcDbEntity
  8
0
  6
Continuous
 62
     7
370
    15
100
AcDbCircle
 10
288.6210196421
 20
14.5166123731
 30
0.0
 40
6.328410731091684
100
AcDbArc
 50
144.1703899245
 51
177.4528865379
  0
LWPOLYLINE
  5
23C
330
1F
100
AcDbEntity
  8
0
  6
Continuous
 62
     7
370
    15
100
AcDbPolyline
 90
       35
 70
   128
 43
0.0
 10
286.4411332335
 20
20.3066655813
 10
286.7252136608
 20
20.3041927441
 10
287.046157961
 20
20.2418331132
 10
287.3363653548
 20
20.1154732238
 10
287.5908704166
 20
19.9272750818
 10
287.8053185868
 20
19.6804587434
 10
287.9760404553
 20
19.3792474035
 10
288.1001149821
 20
19.0287947649
 10
288.1754190197
 20
18.6350970868
 10
288.2006644552
 20
18.2048909363
 10
288.1754190197
 20
17.7455370265
 10
288.1001149821
 20
17.2648951572
 10
287.9760404553
 20
16.7711891192
 10
287.8053185868
 20
16.2728665055
 10
287.5908704166
 20
15.7784535801
 10
287.3363653548
 20
15.2964101483
 10
287.046157961
 20
14.8349839342
 10
286.7252136608
 20
14.4020699018
 10
286.379024057
 20
14.005075585
 10
286.013512428
 20
13.6507935289
 10
285.6349328064
 20
13.3452858421
 10
285.2497628665
 20
13.0937794717
 10
284.8645929267
 20
12.9005780954
 10
284.4860133051
 20
12.768987055
 10
284.1205016761
 20
12.701258367
 10
283.7743120722
 20
12.6985506751
 10
283.4533677721
 20
12.7609103061
 10
283.1631603783
 20
12.8872701954
 10
282.9086553165
 20
13.0754683375
 10
282.6942071463
 20
13.3222846758
 10
282.5234852778
 20
13.6234960158
 10
282.399410751
 20
13.9739486543
 10
282.3241067134
 20
14.3676463325
 10
282.2988612779
 20
14.7978524829
 10
282.2988612779
 20
14.7978524829
  0
LINE
  5
23D
330
1F
100
AcDbEntity
  8
0
  6
Continuous
 62
     7
370
    15
100
AcDbLine
 10
282.5910414076
 20
11.5288875715
 30
0.0
 11
283.6943850521
 21
12.1658342997
 31
0.0
  0
LINE
  5
23E
330
1F
100
AcDbEntity
  8
0
  6
Continuous
 62
     7
370
    15
100
AcDbLine
 10
282.4930610484
 20
11.4798958826
 30
0.0
 11
282.5910414076
 21
11.5288875715
 31
0.0
  0
LWPOLYLINE
  5
23F
330
1F
100
AcDbEntity
  8
0
  6
Continuous
 62
     7
370
    15
100
AcDbPolyline
 90
        3
 70
   128
 43
0.0
 10
288.625245485
 20
20.8484952418
 10
288.6438749189
 20
21.0483143961
 10
288.6333966855
 20
21.1859822807
  0
LWPOLYLINE
  5
240
330
1F
100
AcDbEntity
  8
0
  6
Continuous
 62
     7
370
    15
100
AcDbPolyline
 90
       10
 70
   128
 43
0.0
 10
288.625245485
 20
16.0514974534
 10
288.8538879235
 20
16.678101376
 10
289.0284414674
 20
17.3020530123
 10
289.1462864266
 20
17.9139884963
 10
289.2056544774
 20
18.5047241498
 10
289.2056544774
 20
19.065394504
 10
289.1462864266
 20
19.5875852651
 10
289.0284414674
 20
20.0634598553
 10
288.8538879235
 20
20.4858762597
 10
288.625245485
 20
20.8484952418
  0
ARC
  5
241
330
1F
100
AcDbEntity
  8
0
  6
Continuous
 62
     7
370
    15
100
AcDbCircle
 10
287.1106912142
 20
15.8954104454
 30
0.0
 40
1.522576038621081
100
AcDbArc
 50
301.5993251811
 51
5.8840186056
  0
LINE
  5
242
330
1F
100
AcDbEntity
  8
0
  6
Continuous
 62
     7
370
    15
100
AcDbLine
 10
286.8051406809
 20
13.9616352995
 30
0.0
 11
287.9084843255
 21
14.5985820277
 31
0.0
  0
LWPOLYLINE
  5
243
330
1F
100
AcDbEntity
  8
0
  6
Continuous
 62
     7
370
    15
100
AcDbPolyline
 90
        9
 70
   128
 43
0.0
 10
286.8051406809
 20
13.9616352995
 10
286.4364281964
 20
13.5579859279
 10
286.0505437028
 20
13.1969293747
 10
285.6530713942
 20
12.8836908648
 10
285.2497628665
 20
12.6228029018
 10
284.8464543389
 20
12.4180407505
 10
284.4489820303
 20
12.272367501
 10
284.0630975367
 20
12.1878913013
 10
283.6943850521
 20
12.1658342997
  0
ARC
  5
244
330
1F
100
AcDbEntity
  8
0
  6
Continuous
 62
     7
370
    15
100
AcDbCircle
 10
283.5750371749
 20
11.6013893963
 30
0.0
 40
1.111124862361913
100
AcDbArc
 50
169.5358164779
 51
181.9691503398
  0
LWPOLYLINE
  5
245
330
1F
100
AcDbEntity
  8
0
  6
Continuous
 62
     7
370
    15
100
AcDbPolyline
 90
       10
 70
   128
 43
0.0
 10
282.4823918371
 20
11.8031928295
 10
282.2537493986
 20
12.1658118116
 10
282.0791958548
 20
12.588228216
 10
281.9613508956
 20
13.0641028063
 10
281.9019828447
 20
13.5862935673
 10
281.9019828447
 20
14.1469639215
 10
281.9613508956
 20
14.737699575
 10
282.0791958548
 20
15.349635059
 10
282.2537493986
 20
15.9735866954
 10
282.4823918371
 20
16.6001906179
  0
ARC
  5
246
330
1F
100
AcDbEntity
  8
0
  6
Continuous
 62
     7
370
    15
100
AcDbCircle
 10
283.3149998664
 20
16.7782539733
 30
0.0
 40
0.8514356634322432
100
AcDbArc
 50
177.2169101887
 51
192.0715528644
  0
LWPOLYLINE
  5
247
330
1F
100
AcDbEntity
  8
0
  6
Continuous
 62
     7
370
    15
100
AcDbPolyline
 90
       30
 70
   128
 43
0.0
 10
286.3583228421
 20
20.2744925776
 10
286.5595582387
 20
20.255446001
 10
286.8637428445
 20
20.1722369627
 10
287.135340429
 20
20.0257065528
 10
287.3695043681
 20
19.8184696975
 10
287.5620559334
 20
19.5542245396
 10
287.709559103
 20
19.2376862716
 10
287.8093818064
 20
18.8745039347
 10
287.8597422854
 20
18.4711581139
 10
287.8597422854
 20
18.0348468267
 10
287.8093818064
 20
17.5733560344
 10
287.709559103
 20
17.0949208575
 10
287.5620559334
 20
16.6080790548
 10
287.3695043681
 20
16.1215185918
 10
287.135340429
 20
15.6439218072
 10
286.8637428445
 20
15.1838115009
 10
286.5595582387
 20
14.7493983923
 10
286.2282147305
 20
14.348434511
 10
285.8756253252
 20
13.9880754481
 10
285.5080819218
 20
13.6747513345
 10
285.132143286
 20
13.4140538041
 10
284.7545181012
 20
13.2106347155
 10
284.3819450311
 20
13.0681241382
 10
284.0210727824
 20
12.9890653725
 10
283.6783409323
 20
12.9748692714
 10
283.3598657789
 20
13.0257887993
 10
283.0713302979
 20
13.1409155823
 10
282.8178836489
 20
13.3181950509
 10
282.6040481885
 20
13.5544637115
 10
282.4468133115
 20
13.8178158139
  0
ARC
  5
248
330
1F
100
AcDbEntity
  8
0
  6
Continuous
 62
     7
370
    15
100
AcDbCircle
 10
282.7820305839
 20
11.8905917087
 30
0.0
 40
0.8258433209931569
100
AcDbArc
 50
288.2779783612
 51
300.3371026508
  0
ARC
  5
249
330
1F
100
AcDbEntity
  8
0
  6
Continuous
 62
     7
370
    15
100
AcDbCircle
 10
288.1407117363
 20
20.6992433271
 30
0.0
 40
1.111124862361931
100
AcDbArc
 50
349.5358164779
 51
1.9691503398
  0
LINE
  5
24A
330
1F
100
AcDbEntity
  8
0
  6
Continuous
 62
     7
370
    15
100
AcDbLine
 10
288.625245485
 20
20.8484952418
 30
0.0
 11
289.2333570741
 21
20.4974398939
 31
0.0
  0
LWPOLYLINE
  5
24B
330
1F
100
AcDbEntity
  8
0
  6
Continuous
 62
     7
370
    15
100
AcDbPolyline
 90
        9
 70
   128
 43
0.0
 10
287.41325227
 20
13.6105799516
 10
287.0445397854
 20
13.2069305799
 10
286.6586552918
 20
12.8458740267
 10
286.2611829832
 20
12.5326355169
 10
285.8578744556
 20
12.2717475539
 10
285.454565928
 20
12.0669854025
 10
285.0570936194
 20
11.9213121531
 10
284.6712091258
 20
11.8368359534
 10
284.3024966412
 20
11.8147789518
  0
LINE
  5
24C
330
1F
100
AcDbEntity
  8
0
  6
Continuous
 62
     7
370
    15
100
AcDbLine
 10
288.5165959145
 20
14.2475266798
 30
0.0
 11
287.41325227
 21
13.6105799516
 31
0.0
  0
ARC
  5
24D
330
1F
100
AcDbEntity
  8
0
  6
Continuous
 62
     7
370
    15
100
AcDbCircle
 10
287.9421155892
 20
15.2328703923
 30
0.0
 40
1.140583129836104
100
AcDbArc
 50
300.24326773
 51
309.9634737695
  0
LINE
  5
24E
330
1F
100
AcDbEntity
  8
0
  6
Continuous
 62
     7
370
    15
100
AcDbLine
 10
284.3024966412
 20
11.8147789518
 30
0.0
 11
283.1991529967
 21
11.1778322236
 31
0.0
  0
LINE
  5
24F
330
1F
100
AcDbEntity
  8
0
  6
Continuous
 62
     7
370
    15
100
AcDbLine
 10
283.6943850521
 20
12.1658342997
 30
0.0
 11
284.3024966412
 21
11.8147789518
 31
0.0
  0
ARC
  5
250
330
1F
100
AcDbEntity
  8
0
  6
Continuous
 62
     7
370
    15
100
AcDbCircle
 10
288.4007490448
 20
15.5223787501
 30
0.0
 40
0.8514356634319246
100
AcDbArc
 50
357.2169101887
 51
12.0715528644
  0
LWPOLYLINE
  5
251
330
1F
100
AcDbEntity
  8
0
  6
Continuous
 62
     7
370
    15
100
AcDbPolyline
 90
       10
 70
   128
 43
0.0
 10
289.2333570741
 20
20.4974398939
 10
289.4619995126
 20
20.1348209118
 10
289.6365530564
 20
19.7124045074
 10
289.7543980156
 20
19.2365299171
 10
289.8137660664
 20
18.7143391561
 10
289.8137660664
 20
18.1536688019
 10
289.7543980156
 20
17.5629331484
 10
289.6365530564
 20
16.9509976643
 10
289.4619995126
 20
16.327046028
 10
289.2333570741
 20
15.7004421055
  0
LINE
  5
252
330
1F
100
AcDbEntity
  8
0
  6
Continuous
 62
     7
370
    15
100
AcDbLine
 10
288.625245485
 20
16.0514974534
 30
0.0
 11
289.2333570741
 21
15.7004421055
 31
0.0
  0
LINE
  5
253
330
1F
100
AcDbEntity
  8
0
  6
Continuous
 62
     7
370
    15
100
AcDbLine
 10
287.41325227
 20
13.6105799516
 30
0.0
 11
286.8051406809
 21
13.9616352995
 31
0.0
  0
SPLINE
  5
254
330
1F
100
AcDbEntity
  8
0
  6
Continuous
 62
     7
370
    15
100
AcDbSpline
210
0.0
220
0.0
230
1.0
 70
     8
 71
     3
 72
    12
 73
     8
 74
     0
 42
0.000000001
 43
0.00000001
 40
0.0
 40
0.0
 40
0.0
 40
0.0
 40
0.2500000000000012
 40
0.2500000000000012
 40
0.5000000000000023
 40
0.5000000000000023
 40
1.0
 40
1.0
 40
1.0
 40
1.0
 10
262.2929393154212
 20
24.3780537226348
 30
0.0
 10
262.306511912337
 20
24.37021842921421
 30
0.0
 10
262.3218845959479
 20
24.35934355363964
 30
0.0
 10
262.3515553370138
 20
24.33565398262531
 30
0.0
 10
262.3656418491161
 20
24.3230809110186
 30
0.0
 10
262.4036814160193
 20
24.28628382429781
 30
0.0
 10
262.423093078724
 20
24.26354115808796
 30
0.0
 10
262.436429717186
 20
24.24424963568702
 30
0.0
  0
ARC
  5
255
330
1F
100
AcDbEntity
  8
0
  6
Continuous
 62
     7
370
    15
100
AcDbCircle
 10
271.9230564196
 20
30.4862612846
 30
0.0
 40
4.347771714144888
100
AcDbArc
 50
73.9805689162
 51
106.2233053919
  0
SPLINE
  5
256
330
1F
100
AcDbEntity
  8
0
  6
Continuous
 62
     7
370
    15
100
AcDbSpline
210
0.0
220
0.0
230
1.0
 70
     8
 71
     3
 72
    14
 73
    10
 74
     0
 42
0.000000001
 43
0.00000001
 40
0.0
 40
0.0
 40
0.0
 40
0.0
 40
0.25
 40
0.25
 40
0.5
 40
0.5
 40
0.75
 40
0.75
 40
1.0
 40
1.0
 40
1.0
 40
1.0
 10
273.2077348448654
 20
34.49177601097154
 30
0.0
 10
273.2077348448654
 20
34.50647245828234
 30
0.0
 10
273.2060279278225
 20
34.52183211462833
 30
0.0
 10
273.1989902236996
 20
34.55395945318833
 30
0.0
 10
273.1936796499476
 20
34.57045820612046
 30
0.0
 10
273.1791698567406
 20
34.60284917744039
 30
0.0
 10
273.1699570161266
 20
34.61868726435683
 30
0.0
 10
273.1480930108743
 20
34.64635872618319
 30
0.0
 10
273.1355171573479
 20
34.65790669776335
 30
0.0
 10
273.1228820311231
 20
34.66520080087357
 30
0.0
  0
LWPOLYLINE
  5
257
330
1F
100
AcDbEntity
  8
0
  6
Continuous
 62
     7
370
    15
100
AcDbPolyline
 90
       17
 70
   128
 43
0.0
 10
262.468500104
 20
24.3898363156
 10
262.618080323
 20
24.9866385761
 10
262.8461706378
 20
25.7356153263
 10
263.1190388181
 20
26.4857188353
 10
263.4346934253
 20
27.2314779115
 10
263.7908337684
 20
27.967455157
 10
264.184862021
 20
28.68828286
 10
264.613905085
 20
29.3887048186
 10
265.0748338204
 20
30.0636126887
 10
265.5642870161
 20
30.7080850699
 10
266.0786953608
 20
31.3174217239
 10
266.6143075216
 20
31.8871793138
 10
267.1672175392
 20
32.413203037
 10
267.7333934091
 20
32.8916565083
 10
268.3087060572
 20
33.3190506552
 10
268.8889601105
 20
33.6922687814
 10
269.0657038994
 20
33.7945696986
  0
LWPOLYLINE
  5
258
330
1F
100
AcDbEntity
  8
0
  6
Continuous
 62
     7
370
    15
100
AcDbPolyline
 90
       12
 70
   128
 43
0.0
 10
266.2973237081
 20
32.7148515319
 10
266.8774665168
 20
33.2238928561
 10
267.4685193006
 20
33.680352471
 10
268.0660096039
 20
34.0807760797
 10
268.6654162059
 20
34.4221338616
 10
269.262203299
 20
34.7018432445
 10
269.8518549635
 20
34.9177863732
 10
270.4299091325
 20
35.0683303252
 10
270.9919917531
 20
35.1523352728
 10
271.53384955
 20
35.1691654881
 10
272.0513820298
 20
35.1186944344
 10
272.5406732236
 20
35.0013030148
  0
LINE
  5
259
330
1F
100
AcDbEntity
  8
0
  6
Continuous
 62
     7
370
    15
100
AcDbLine
 10
273.1228820181
 20
34.6652010319
 30
0.0
 11
272.5406732236
 21
35.0013030148
 31
0.0
  0
LINE
  5
25A
330
1F
100
AcDbEntity
  8
0
  6
Continuous
 62
     7
370
    15
100
AcDbLine
 10
261.7107304559
 20
24.7141557796
 30
0.0
 11
262.2929392504
 21
24.3780537967
 31
0.0
  0
ARC
  5
25B
330
1F
100
AcDbEntity
  8
0
  6
Continuous
 62
     7
370
    15
100
AcDbCircle
 10
277.4438200046
 20
21.0217154337
 30
0.0
 40
16.16057617953564
100
AcDbArc
 50
136.9528122493
 51
166.7921386576
  0
SPLINE
  5
25C
330
1F
100
AcDbEntity
  8
0
  6
Continuous
 62
     7
370
    15
100
AcDbSpline
210
0.0
220
0.0
230
1.0
 70
     8
 71
     3
 72
    34
 73
    30
 74
     0
 42
0.000000001
 43
0.00000001
 40
0.0
 40
0.0
 40
0.0
 40
0.0
 40
0.0624999999999989
 40
0.0624999999999989
 40
0.1249999999999978
 40
0.1249999999999978
 40
0.1874999999999968
 40
0.1874999999999968
 40
0.2499999999999962
 40
0.2499999999999962
 40
0.3124999999999957
 40
0.3124999999999957
 40
0.3749999999999952
 40
0.3749999999999952
 40
0.499999999999995
 40
0.499999999999995
 40
0.6249999999999948
 40
0.6249999999999948
 40
0.6874999999999954
 40
0.6874999999999954
 40
0.749999999999996
 40
0.749999999999996
 40
0.8124999999999966
 40
0.8124999999999966
 40
0.8749999999999977
 40
0.8749999999999977
 40
0.9374999999999989
 40
0.9374999999999989
 40
1.0
 40
1.0
 40
1.0
 40
1.0
 10
265.633803961234
 20
32.05293247904773
 30
0.0
 10
265.6574541266914
 20
32.04110148550443
 30
0.0
 10
265.6825792048636
 20
32.03163107662622
 30
0.0
 10
265.7356628060335
 20
32.01719927245832
 30
0.0
 10
265.7639074845819
 20
32.01222011640262
 30
0.0
 10
265.8220066725729
 20
32.00713615891247
 30
0.0
 10
265.8515996444777
 20
32.00699928695354
 30
0.0
 10
265.9118724704077
 20
32.01140182488259
 30
0.0
 10
265.9428516783277
 20
32.01603649047677
 30
0.0
 10
266.0036247127177
 20
32.0297063075723
 30
0.0
 10
266.0336071449515
 20
32.0387112685283
 30
0.0
 10
266.092781171715
 20
32.06103609756752
 30
0.0
 10
266.1219526569512
 20
32.07441403605004
 30
0.0
 10
266.2045976673551
 20
32.11935893977776
 30
0.0
 10
266.2553677377749
 20
32.15697390018605
 30
0.0
 10
266.3390104388257
 20
32.24041442625642
 30
0.0
 10
266.3728297921048
 20
32.28718406391391
 30
0.0
 10
266.4068192148144
 20
32.35859416390296
 30
0.0
 10
266.4156030950535
 20
32.38308079547364
 30
0.0
 10
266.4272475337495
 20
32.43140318847917
 30
0.0
 10
266.4301893188614
 20
32.45524339905724
 30
0.0
 10
266.4303264928791
 20
32.50233991511054
 30
0.0
 10
266.427430475745
 20
32.52572047036538
 30
0.0
 10
266.4159857355362
 20
32.57002552012197
 30
0.0
 10
266.4074723989124
 20
32.59119049801102
 30
0.0
 10
266.3847411322696
 20
32.63155778093472
 30
0.0
 10
266.37055813668
 20
32.65056378678717
 30
0.0
 10
266.3375961555254
 20
32.68506777794053
 30
0.0
 10
266.318714194495
 20
32.70076599890856
 30
0.0
 10
266.2973237361395
 20
32.71485125015401
 30
0.0
  0
LINE
  5
25D
330
1F
100
AcDbEntity
  8
0
  6
Continuous
 62
     7
370
    15
100
AcDbLine
 10
262.4364295133
 20
24.2442494648
 30
0.0
 11
262.4546327371
 21
24.2179190106
 31
0.0
  0
LINE
  5
25E
330
1F
100
AcDbEntity
  8
0
  6
Continuous
 62
     7
370
    15
100
AcDbLine
 10
273.2077349511
 20
33.2017916967
 30
0.0
 11
273.2077349511
 21
34.4917761539
 31
0.0
  0
LINE
  5
25F
330
1F
100
AcDbEntity
  8
0
  6
Continuous
 62
     7
370
    15
100
AcDbLine
 10
274.3248337464
 20
33.8466791045
 30
0.0
 11
273.2077349511
 21
33.2017916967
 31
0.0
  0
LINE
  5
260
330
1F
100
AcDbEntity
  8
0
  6
Continuous
 62
     7
370
    15
100
AcDbLine
 10
275.4916945356
 20
31.7440545885
 30
0.0
 11
275.5334072715
 21
31.8163033184
 31
0.0
  0
LINE
  5
261
330
1F
100
AcDbEntity
  8
0
  6
Continuous
 62
     7
370
    15
100
AcDbLine
 10
274.5724512229
 20
31.2133867197
 30
0.0
 11
275.4916945356
 21
31.7440545885
 31
0.0
  0
ARC
  5
262
330
1F
100
AcDbEntity
  8
0
  6
Continuous
 62
     7
370
    15
100
AcDbCircle
 10
274.8506627046
 20
30.755972608
 30
0.0
 40
0.5353777153781336
100
AcDbArc
 50
121.3090842362
 51
144.2195567953
  0
LINE
  5
263
330
1F
100
AcDbEntity
  8
0
  6
Continuous
 62
     7
370
    15
100
AcDbLine
 10
262.4546327371
 20
24.2179190106
 30
0.0
 11
263.629298069
 21
24.8960388724
 31
0.0
  0
SPLINE
  5
264
330
1F
100
AcDbEntity
  8
0
  6
Continuous
 62
     7
370
    15
100
AcDbSpline
210
0.0
220
0.0
230
1.0
 70
     8
 71
     3
 72
     8
 73
     4
 74
     0
 42
0.000000001
 43
0.00000001
 40
0.0
 40
0.0
 40
0.0
 40
0.0
 40
1.0
 40
1.0
 40
1.0
 40
1.0
 10
261.2817087265298
 20
25.15076129364738
 30
0.0
 10
261.1668818746609
 20
25.13178049375805
 30
0.0
 10
261.0520366272267
 20
25.11283752067693
 30
0.0
 10
260.9371746966676
 20
25.0939288531121
 30
0.0
  0
SPLINE
  5
265
330
1F
100
AcDbEntity
  8
0
  6
Continuous
 62
     7
370
    15
100
AcDbSpline
210
0.0
220
0.0
230
1.0
 70
     8
 71
     3
 72
     8
 73
     4
 74
     0
 42
0.000000001
 43
0.00000001
 40
0.0
 40
0.0
 40
0.0
 40
0.0
 40
0.0011862984959113
 40
0.0011862984959113
 40
0.0011862984959113
 40
0.0011862984959113
 10
260.7962542617574
 20
25.24207161297697
 30
0.0
 10
260.8433386088952
 20
25.19265163253199
 30
0.0
 10
260.8903145090696
 20
25.14326961288588
 30
0.0
 10
260.9371746966676
 20
25.0939288531121
 30
0.0
  0
LWPOLYLINE
  5
266
330
1F
100
AcDbEntity
  8
0
  6
Continuous
 62
     7
370
    15
100
AcDbPolyline
 90
       23
 70
   128
 43
0.0
 10
260.796254347
 20
25.2420716003
 10
260.9941748939
 20
26.0206372944
 10
261.2420642176
 20
26.8053019271
 10
261.5379909388
 20
27.5899489723
 10
261.8796480442
 20
28.3684626997
 10
262.2643718531
 20
29.1347742571
 10
262.689164144
 20
29.8829109461
 10
263.1507137552
 20
30.6070403269
 10
263.6454229264
 20
31.30151919
 10
264.1694352207
 20
31.9609334015
 10
264.7186663453
 20
32.5801430716
 10
265.2888349706
 20
33.15432164
 10
265.8754968431
 20
33.6789932111
 10
266.4740792272
 20
34.1500688626
 10
267.0799160389
 20
34.5638760537
 10
267.688285053
 20
34.9171892298
 10
268.2944440905
 20
35.2072543633
 10
268.893668358
 20
35.4318111174
 10
269.481286964
 20
35.5891084512
 10
270.0527195996
 20
35.67792032
 10
270.6035117381
 20
35.6975544362
 10
271.1293705912
 20
35.6478584254
 10
271.6261971146
 20
35.5292188355
  0
LINE
  5
267
330
1F
100
AcDbEntity
  8
0
  6
Continuous
 62
     7
370
    15
100
AcDbLine
 10
271.7503747695
 20
35.1384867831
 30
0.0
 11
271.6261971146
 21
35.5292188355
 31
0.0
  0
LWPOLYLINE
  5
268
330
1F
100
AcDbEntity
  8
0
  6
Continuous
 62
     7
370
    15
100
AcDbPolyline
 90
       22
 70
   128
 43
0.0
 10
261.2817087287
 20
25.1507612834
 10
261.4715123195
 20
25.909532738
 10
261.7112899553
 20
26.6747181144
 10
261.9990833884
 20
27.4400696331
 10
262.3325424049
 20
28.1993374224
 10
262.7089448454
 20
28.9463227484
 10
263.1252171509
 20
29.6749260744
 10
263.5779601782
 20
30.3791984662
 10
264.063477385
 20
31.053389194
 10
264.577804597
 20
31.6919933346
 10
265.1167424075
 20
32.2897972444
 10
265.6758897636
 20
32.8419192406
 10
266.2506816348
 20
33.343850815
 10
266.8364247059
 20
33.7914942734
 10
267.4283361824
 20
34.1811948713
 10
268.0215831542
 20
34.5097696218
 10
268.6113216149
 20
34.7745365132
 10
269.1927363365
 20
34.9733338778
 10
269.7610800032
 20
35.104537508
 10
270.3117121154
 20
35.1670770315
 10
270.8401363945
 20
35.1604410787
 10
270.9581212286
 20
35.1491185786
  0
LINE
  5
269
330
1F
100
AcDbEntity
  8
0
  6
Continuous
 62
     7
370
    15
100
AcDbLine
 10
260.2211164766
 20
25.5740916256
 30
0.0
 11
260.796254347
 21
25.2420716003
 31
0.0
  0
ARC
  5
26A
330
1F
100
AcDbEntity
  8
0
  6
Continuous
 62
     7
370
    15
100
AcDbCircle
 10
269.8512356985
 20
31.6823147423
 30
0.0
 40
4.347756125835347
100
AcDbArc
 50
73.9805380809
 51
106.2228094608
  0
LINE
  5
26B
330
1F
100
AcDbEntity
  8
0
  6
Continuous
 62
     7
370
    15
100
AcDbLine
 10
271.6261971146
 20
35.5292188355
 30
0.0
 11
271.0510592442
 21
35.8612388609
 31
0.0
  0
LINE
  5
26C
330
1F
100
AcDbEntity
  8
0
  6
Continuous
 62
     7
370
    15
100
AcDbLine
 10
261.7827450638
 20
25.0202244828
 30
0.0
 11
261.5323036167
 21
25.1648012528
 31
0.0
  0
SPLINE
  5
26D
330
1F
100
AcDbEntity
  8
0
  6
Continuous
 62
     7
370
    15
100
AcDbSpline
210
0.0
220
0.0
230
1.0
 70
     8
 71
     3
 72
    11
 73
     7
 74
     0
 42
0.000000001
 43
0.00000001
 40
0.0
 40
0.0
 40
0.0
 40
0.0
 40
0.3165694752064712
 40
0.6331520400060429
 40
0.9494411625907934
 40
1.0
 40
1.0
 40
1.0
 40
1.0
 10
266.020514138905
 20
32.35785995194887
 30
0.0
 10
265.9670780668234
 20
32.33898848678085
 30
0.0
 10
265.8602037131726
 20
32.30124477614278
 30
0.0
 10
265.733823633493
 20
32.19731849646551
 30
0.0
 10
265.6615425571104
 20
32.10804194227651
 30
0.0
 10
265.6475685716904
 20
32.05654227127739
 30
0.0
 10
265.6456426826741
 20
32.04944460745854
 30
0.0
  0
SPLINE
  5
26E
330
1F
100
AcDbEntity
  8
0
  6
Continuous
 62
     7
370
    15
100
AcDbSpline
210
0.0
220
0.0
230
1.0
 70
     8
 71
     3
 72
    20
 73
    16
 74
     0
 42
0.000000001
 43
0.00000001
 40
0.0
 40
0.0
 40
0.0
 40
0.0
 40
0.1250000000000008
 40
0.1250000000000008
 40
0.2500000000000016
 40
0.2500000000000016
 40
0.3750000000000023
 40
0.3750000000000023
 40
0.5000000000000031
 40
0.5000000000000031
 40
0.6250000000000039
 40
0.6250000000000039
 40
0.7500000000000047
 40
0.7500000000000047
 40
1.0
 40
1.0
 40
1.0
 40
1.0
 10
264.1972152939169
 20
24.66280102372428
 30
0.0
 10
264.1903564850754
 20
24.68927409101693
 30
0.0
 10
264.1799070941662
 20
24.71423103687263
 30
0.0
 10
264.154230188333
 20
24.76171012964183
 30
0.0
 10
264.1388212502571
 20
24.78438161849349
 30
0.0
 10
264.1047112196055
 20
24.82640224575825
 30
0.0
 10
264.086103746875
 20
24.84569508500476
 30
0.0
 10
264.0461977048136
 20
24.88084573864328
 30
0.0
 10
264.0247384223875
 20
24.89675843776068
 30
0.0
 10
263.9806172334126
 20
24.92374478880077
 30
0.0
 10
263.9578167752355
 20
24.93497440562846
 30
0.0
 10
263.9106746547758
 20
24.95239351274263
 30
0.0
 10
263.8860145592064
 20
24.95859475491065
 30
0.0
 10
263.8125366846321
 20
24.96756987815778
 30
0.0
 10
263.7629292594563
 20
24.96082365602047
 30
0.0
 10
263.716636451253
 20
24.94028636430766
 30
0.0
  0
SPLINE
  5
26F
330
1F
100
AcDbEntity
  8
0
  6
Continuous
 62
     7
370
    15
100
AcDbSpline
210
0.0
220
0.0
230
1.0
 70
     8
 71
     3
 72
     8
 73
     4
 74
     0
 42
0.000000001
 43
0.00000001
 40
0.0
 40
0.0
 40
0.0
 40
0.0
 40
1.0
 40
1.0
 40
1.0
 40
1.0
 10
263.716636451253
 20
24.94028636430766
 30
0.0
 10
263.6858589302287
 20
24.92663225793548
 30
0.0
 10
263.6567450545368
 20
24.91188378504822
 30
0.0
 10
263.6292979342719
 20
24.89603889978718
 30
0.0
  0
SPLINE
  5
270
330
1F
100
AcDbEntity
  8
0
  6
Continuous
 62
     7
370
    15
100
AcDbSpline
210
0.0
220
0.0
230
1.0
 70
     8
 71
     3
 72
    20
 73
    16
 74
     0
 42
0.000000001
 43
0.00000001
 40
0.0
 40
0.0
 40
0.0
 40
0.0
 40
0.0624999999999997
 40
0.0624999999999997
 40
0.1249999999999994
 40
0.1249999999999994
 40
0.2499999999999988
 40
0.2499999999999988
 40
0.374999999999999
 40
0.374999999999999
 40
0.4999999999999992
 40
0.4999999999999992
 40
0.7499999999999997
 40
0.7499999999999997
 40
1.0
 40
1.0
 40
1.0
 40
1.0
 10
264.5598189109539
 20
23.83530418497714
 30
0.0
 10
264.5454855216183
 20
23.84357867451313
 30
0.0
 10
264.5316246518717
 20
23.85478891127901
 30
0.0
 10
264.5048530097912
 20
23.88176856163377
 30
0.0
 10
264.4925691242118
 20
23.89683585502182
 30
0.0
 10
264.4577781474835
 20
23.94498768763237
 30
0.0
 10
264.43791377219
 20
23.980013581315
 30
0.0
 10
264.4019128947072
 20
24.05075554829936
 30
0.0
 10
264.3856347067419
 20
24.0870340123042
 30
0.0
 10
264.3555950648484
 20
24.15905240663206
 30
0.0
 10
264.3417416672954
 20
24.19505505367398
 30
0.0
 10
264.3023998214857
 20
24.30305053753709
 30
0.0
 10
264.2790869177758
 20
24.37503115745462
 30
0.0
 10
264.2357694753818
 20
24.51897381896322
 30
0.0
 10
264.2158162305823
 20
24.59100665542597
 30
0.0
 10
264.1972152939169
 20
24.66280102372429
 30
0.0
  0
SPLINE
  5
271
330
1F
100
AcDbEntity
  8
0
  6
Continuous
 62
     7
370
    15
100
AcDbSpline
210
0.0
220
0.0
230
1.0
 70
     8
 71
     3
 72
    14
 73
    10
 74
     0
 42
0.000000001
 43
0.00000001
 40
0.0
 40
0.0
 40
0.0
 40
0.0
 40
0.25
 40
0.25
 40
0.5
 40
0.5
 40
0.75
 40
0.75
 40
1.0
 40
1.0
 40
1.0
 40
1.0
 10
261.5323035716233
 20
25.16480132054021
 30
0.0
 10
261.51724997424
 20
25.17349157733222
 30
0.0
 10
261.4989403915644
 20
25.18037628177683
 30
0.0
 10
261.4589660405604
 20
25.18933841522982
 30
0.0
 10
261.4371924930244
 20
25.19140836866975
 30
0.0
 10
261.3947062328277
 20
25.19063149094385
 30
0.0
 10
261.3733797128476
 20
25.18779612977655
 30
0.0
 10
261.3343824859274
 20
25.17790275526268
 30
0.0
 10
261.3164178097155
 20
25.17079842086827
 30
0.0
 10
261.3013165034755
 20
25.16208062233947
 30
0.0
  0
LINE
  5
272
330
1F
100
AcDbEntity
  8
0
  6
Continuous
 62
     7
370
    15
100
AcDbLine
 10
261.3013164963
 20
25.1620806067
 30
0.0
 11
261.2817087287
 21
25.1507612834
 31
0.0
  0
SPLINE
  5
273
330
1F
100
AcDbEntity
  8
0
  6
Continuous
 62
     7
370
    15
100
AcDbSpline
210
0.0
220
0.0
230
1.0
 70
     8
 71
     3
 72
    10
 73
     6
 74
     0
 42
0.000000001
 43
0.00000001
 40
0.0
 40
0.0
 40
0.0
 40
0.0
 40
0.5
 40
0.5
 40
1.0
 40
1.0
 40
1.0
 40
1.0
 10
260.1803114504154
 20
25.58587089721086
 30
0.0
 10
260.1832379641843
 20
25.58761809716814
 30
0.0
 10
260.1879675082677
 20
25.58783091820344
 30
0.0
 10
260.2016280539788
 20
25.58413889834812
 30
0.0
 10
260.2105308393359
 20
25.5802025474216
 30
0.0
 10
260.2211164465446
 20
25.57409160645507
 30
0.0
  0
ARC
  5
274
330
1F
100
AcDbEntity
  8
0
  6
Continuous
 62
     7
370
    15
100
AcDbCircle
 10
276.1084609757
 20
21.7824218102
 30
0.0
 40
16.36818197874911
100
AcDbArc
 50
143.5835897407
 51
160.8037648338
  0
SPLINE
  5
275
330
1F
100
AcDbEntity
  8
0
  6
Continuous
 62
     7
370
    15
100
AcDbSpline
210
0.0
220
0.0
230
1.0
 70
     8
 71
     3
 72
    14
 73
    10
 74
     0
 42
0.000000001
 43
0.00000001
 40
0.0
 40
0.0
 40
0.0
 40
0.0
 40
0.25
 40
0.25
 40
0.5
 40
0.5
 40
0.75
 40
0.75
 40
1.0
 40
1.0
 40
1.0
 40
1.0
 10
266.1873456809153
 20
32.48044067560417
 30
0.0
 10
266.1932820377669
 20
32.46503346806993
 30
0.0
 10
266.1930285306053
 20
32.44986601280855
 30
0.0
 10
266.1798542886212
 20
32.42348963290083
 30
0.0
 10
266.1669999504844
 20
32.41218020988406
 30
0.0
 10
266.1330389203226
 20
32.39301259940905
 30
0.0
 10
266.1120721553253
 20
32.38506176042996
 30
0.0
 10
266.0675378896073
 20
32.37071899002341
 30
0.0
 10
266.0442760189229
 20
32.36437018055004
 30
0.0
 10
266.0205140366303
 20
32.35786004232814
 30
0.0
  0
LINE
  5
276
330
1F
100
AcDbEntity
  8
0
  6
Continuous
 62
     7
370
    15
100
AcDbLine
 10
266.180894883
 20
32.4971830126
 30
0.0
 11
266.1873457216
 21
32.4804408168
 31
0.0
  0
SPLINE
  5
277
330
1F
100
AcDbEntity
  8
0
  6
Continuous
 62
     7
370
    15
100
AcDbSpline
210
0.0
220
0.0
230
1.0
 70
     8
 71
     3
 72
    10
 73
     6
 74
     0
 42
0.000000001
 43
0.00000001
 40
0.0
 40
0.0
 40
0.0
 40
0.0
 40
0.5
 40
0.5
 40
1.0
 40
1.0
 40
1.0
 40
1.0
 10
266.2973237361395
 20
32.71485125015401
 30
0.0
 10
266.2861177162444
 20
32.6860408090788
 30
0.0
 10
266.2709905608644
 20
32.65366221495741
 30
0.0
 10
266.2326002617305
 20
32.58150420042145
 30
0.0
 10
266.2093875508106
 20
32.54177371763154
 30
0.0
 10
266.1808948557746
 20
32.4971831330059
 30
0.0
  0
LINE
  5
278
330
1F
100
AcDbEntity
  8
0
  6
Continuous
 62
     7
370
    15
100
AcDbLine
 10
262.4546327371
 20
24.2179190106
 30
0.0
 11
261.7234910729
 21
24.6399981091
 31
0.0
  0
SPLINE
  5
279
330
1F
100
AcDbEntity
  8
0
  6
Continuous
 62
     7
370
    15
100
AcDbSpline
210
0.0
220
0.0
230
1.0
 70
     8
 71
     3
 72
     8
 73
     4
 74
     0
 42
0.000000001
 43
0.00000001
 40
0.0000000000000004
 40
0.0000000000000004
 40
0.0000000000000004
 40
0.0000000000000004
 40
0.0011862984959128
 40
0.0011862984959128
 40
0.0011862984959128
 40
0.0011862984959128
 10
261.723490965856
 20
24.63999813309669
 30
0.0
 10
261.719066086153
 20
24.6648415110642
 30
0.0
 10
261.7148156835235
 20
24.68955862598485
 30
0.0
 10
261.7107304323965
 20
24.714155756672
 30
0.0
  0
LINE
  5
27A
330
1F
100
AcDbEntity
  8
0
  6
Continuous
 62
     7
370
    15
100
AcDbLine
 10
261.7526047658
 20
24.9540680672
 30
0.0
 11
261.7526047658
 21
24.8960081323
 31
0.0
  0
LINE
  5
27B
330
1F
100
AcDbEntity
  8
0
  6
Continuous
 62
     7
370
    15
100
AcDbLine
 10
261.7526047658
 20
24.6231908534
 30
0.0
 11
261.7526047658
 21
23.6502336036
 31
0.0
  0
SPLINE
  5
27C
330
1F
100
AcDbEntity
  8
0
  6
Continuous
 62
     7
370
    15
100
AcDbSpline
210
0.0
220
0.0
230
1.0
 70
     8
 71
     3
 72
    20
 73
    16
 74
     0
 42
0.000000001
 43
0.00000001
 40
0.0
 40
0.0
 40
0.0
 40
0.0
 40
0.2500000000000007
 40
0.2500000000000007
 40
0.5000000000000014
 40
0.5000000000000014
 40
0.6250000000000018
 40
0.6250000000000018
 40
0.7500000000000022
 40
0.7500000000000022
 40
0.8750000000000021
 40
0.8750000000000021
 40
0.937500000000001
 40
0.937500000000001
 40
1.0
 40
1.0
 40
1.0
 40
1.0
 10
264.1972152939169
 20
21.11901390014013
 30
0.0
 10
264.2158364556458
 20
21.16938679577622
 30
0.0
 10
264.2357870642323
 20
21.21838480918941
 30
0.0
 10
264.2792832024209
 20
21.31266305446709
 30
0.0
 10
264.3027663386925
 20
21.35802108551385
 30
0.0
 10
264.3423861139291
 20
21.42085777765534
 30
0.0
 10
264.3563628037516
 20
21.44095216484149
 30
0.0
 10
264.3864276466152
 20
21.47812000965425
 30
0.0
 10
264.4024915095899
 20
21.49528287514574
 30
0.0
 10
264.4384938213473
 20
21.52427043937318
 30
0.0
 10
264.4583775630054
 20
21.53624372913865
 30
0.0
 10
264.4930535722834
 20
21.54402071358
 30
0.0
 10
264.5052624090204
 20
21.54482836041058
 30
0.0
 10
264.5317071615716
 20
21.54087940630025
 30
0.0
 10
264.5456111078358
 20
21.53605950409664
 30
0.0
 10
264.5598189109539
 20
21.52785751394081
 30
0.0
  0
LINE
  5
27D
330
1F
100
AcDbEntity
  8
0
  6
Continuous
 62
     7
370
    15
100
AcDbLine
 10
261.7526047658
 20
25.0376239274
 30
0.0
 11
261.7526047658
 21
24.9540680672
 31
0.0
  0
LINE
  5
27E
330
1F
100
AcDbEntity
  8
0
  6
Continuous
 62
     7
370
    15
100
AcDbLine
 10
261.7526047658
 20
23.6502336036
 30
0.0
 11
261.7526047658
 21
22.5022379865
 31
0.0
  0
LINE
  5
27F
330
1F
100
AcDbEntity
  8
0
  6
Continuous
 62
     7
370
    15
100
AcDbLine
 10
261.7526047658
 20
24.9540680672
 30
0.0
 11
261.7446474408
 21
24.8623297646
 31
0.0
  0
ARC
  5
280
330
1F
100
AcDbEntity
  8
0
  6
Continuous
 62
     7
370
    15
100
AcDbCircle
 10
268.1457180306
 20
24.2914096922
 30
0.0
 40
6.42518513298218
100
AcDbArc
 50
176.9225000953
 51
185.727139394
  0
LINE
  5
281
330
1F
100
AcDbEntity
  8
0
  6
Continuous
 62
     7
370
    15
100
AcDbLine
 10
261.3530898167
 20
24.5940169429
 30
0.0
 11
261.3777989335
 21
25.1780754102
 31
0.0
  0
ARC
  5
282
330
1F
100
AcDbEntity
  8
0
  6
Continuous
 62
     7
370
    15
100
AcDbCircle
 10
266.0870849054
 20
24.4840731897
 30
0.0
 40
4.735271600306311
100
AcDbArc
 50
178.6695844123
 51
203.7430473282
  0
LINE
  5
283
330
1F
100
AcDbEntity
  8
0
  6
Continuous
 62
     7
370
    15
100
AcDbLine
 10
253.9806545471
 20
39.2289071734
 30
0.0
 11
254.0005340301
 21
39.2215728488
 31
0.0
  0
LINE
  5
284
330
1F
100
AcDbEntity
  8
0
  6
Continuous
 62
     7
370
    15
100
AcDbLine
 10
249.9311107949
 20
32.2141318132
 30
0.0
 11
249.9064638447
 21
32.2354380376
 31
0.0
  0
LINE
  5
285
330
1F
100
AcDbEntity
  8
0
  6
Continuous
 62
     7
370
    15
100
AcDbLine
 10
260.3545255425
 20
25.4302850881
 30
0.0
 11
260.180311215
 21
25.5858707559
 31
0.0
  0
LINE
  5
286
330
1F
100
AcDbEntity
  8
0
  6
Continuous
 62
     7
370
    15
100
AcDbLine
 10
260.9371748375
 20
25.0939288096
 30
0.0
 11
260.3545255425
 21
25.4302850881
 31
0.0
  0
SPLINE
  5
287
330
1F
100
AcDbEntity
  8
0
  6
Continuous
 62
     7
370
    15
100
AcDbSpline
210
0.0
220
0.0
230
1.0
 70
     8
 71
     3
 72
    20
 73
    16
 74
     0
 42
0.000000001
 43
0.00000001
 40
0.0
 40
0.0
 40
0.0
 40
0.0
 40
0.1249999999999992
 40
0.1249999999999992
 40
0.2499999999999984
 40
0.2499999999999984
 40
0.4999999999999979
 40
0.4999999999999979
 40
0.6249999999999984
 40
0.6249999999999984
 40
0.7499999999999989
 40
0.7499999999999989
 40
0.8749999999999994
 40
0.8749999999999994
 40
1.0
 40
1.0
 40
1.0
 40
1.0
 10
263.716636451253
 20
20.7432665912149
 30
0.0
 10
263.7397455684205
 20
20.75351869513587
 30
0.0
 10
263.7633199310887
 20
20.76536912091635
 30
0.0
 10
263.8116268787842
 20
20.79165715145998
 30
0.0
 10
263.8365771540904
 20
20.80624999941968
 30
0.0
 10
263.9098986060928
 20
20.85140170686666
 30
0.0
 10
263.9583582489767
 20
20.88414276079317
 30
0.0
 10
264.0248102180861
 20
20.93304557717618
 30
0.0
 10
264.0462436361463
 20
20.949581636491
 30
0.0
 10
264.0861053003645
 20
20.98235518699486
 30
0.0
 10
264.1046690027262
 20
20.99867154825843
 30
0.0
 10
264.1386717223482
 20
21.0318353363668
 30
0.0
 10
264.1541606599404
 20
21.04876459852791
 30
0.0
 10
264.1799131282561
 20
21.08303299650677
 30
0.0
 10
264.1903647056999
 20
21.10048208293545
 30
0.0
 10
264.1972152939169
 20
21.11901390014013
 30
0.0
  0
SPLINE
  5
288
330
1F
100
AcDbEntity
  8
0
  6
Continuous
 62
     7
370
    15
100
AcDbSpline
210
0.0
220
0.0
230
1.0
 70
     8
 71
     3
 72
     8
 73
     4
 74
     0
 42
0.000000001
 43
0.00000001
 40
0.0
 40
0.0
 40
0.0
 40
0.0
 40
1.0
 40
1.0
 40
1.0
 40
1.0
 10
263.6292979342719
 20
20.69901912669442
 30
0.0
 10
263.6567450545368
 20
20.71486401195546
 30
0.0
 10
263.6858589302287
 20
20.72961248484273
 30
0.0
 10
263.716636451253
 20
20.7432665912149
 30
0.0
  0
LINE
  5
289
330
1F
100
AcDbEntity
  8
0
  6
Continuous
 62
     7
370
    15
100
AcDbLine
 10
262.4546327371
 20
20.0208993708
 30
0.0
 11
262.4364295133
 21
19.9735519216
 31
0.0
  0
LINE
  5
28A
330
1F
100
AcDbEntity
  8
0
  6
Continuous
 62
     7
370
    15
100
AcDbLine
 10
262.4546327371
 20
20.0208993708
 30
0.0
 11
263.629298069
 21
20.6990192327
 31
0.0
  0
LINE
  5
28B
330
1F
100
AcDbEntity
  8
0
  6
Continuous
 62
     7
370
    15
100
AcDbLine
 10
261.7234910729
 20
20.4429784694
 30
0.0
 11
262.4546327371
 21
20.0208993708
 31
0.0
  0
SPLINE
  5
28C
330
1F
100
AcDbEntity
  8
0
  6
Continuous
 62
     7
370
    15
100
AcDbSpline
210
0.0
220
0.0
230
1.0
 70
     8
 71
     3
 72
    14
 73
    10
 74
     0
 42
0.000000001
 43
0.00000001
 40
0.0
 40
0.0
 40
0.0
 40
0.0
 40
0.25
 40
0.25
 40
0.5
 40
0.5
 40
0.75
 40
0.75
 40
1.0
 40
1.0
 40
1.0
 40
1.0
 10
262.436429717186
 20
19.97355206307242
 30
0.0
 10
262.4297597799595
 20
19.95620301582979
 30
0.0
 10
262.4216416827931
 20
19.94011088405145
 30
0.0
 10
262.4023228911649
 20
19.9106021289826
 30
0.0
 10
262.3910353520429
 20
19.89717428631175
 30
0.0
 10
262.3658652126736
 20
19.8757537240467
 30
0.0
 10
262.3517999422668
 20
19.86757131230284
 30
0.0
 10
262.3219267465835
 20
19.86059839489809
 30
0.0
 10
262.3065167965001
 20
19.86217731849204
 30
0.0
 10
262.2929393154212
 20
19.87001543147997
 30
0.0
  0
LINE
  5
28D
330
1F
100
AcDbEntity
  8
0
  6
Continuous
 62
     7
370
    15
100
AcDbLine
 10
262.2929392504
 20
19.8700154809
 30
0.0
 11
261.7107304559
 21
20.2061174639
 31
0.0
  0
SPLINE
  5
28E
330
1F
100
AcDbEntity
  8
0
  6
Continuous
 62
     7
370
    15
100
AcDbSpline
210
0.0
220
0.0
230
1.0
 70
     8
 71
     3
 72
     8
 73
     4
 74
     0
 42
0.000000001
 43
0.00000001
 40
0.0
 40
0.0
 40
0.0
 40
0.0
 40
0.0011862984959113
 40
0.0011862984959113
 40
0.0011862984959113
 40
0.0011862984959113
 10
261.7107304323965
 20
20.20611746551718
 30
0.0
 10
261.7148156835235
 20
20.28507702627276
 30
0.0
 10
261.7190660861535
 20
20.36403136106347
 30
0.0
 10
261.7234909658566
 20
20.44297836000361
 30
0.0
  0
LWPOLYLINE
  5
28F
330
1F
100
AcDbEntity
  8
0
  6
Continuous
 62
     7
370
    15
100
AcDbPolyline
 90
       13
 70
   128
 43
0.0
 10
267.103770332
 20
17.2196330976
 10
266.5973708105
 20
17.1097493919
 10
266.0499859813
 20
17.0490005298
 10
265.5235289063
 20
17.0534978764
 10
265.0218636612
 20
17.1232095858
 10
264.5486717734
 20
17.2576230649
 10
264.1074264064
 20
17.4557525799
 10
263.7013657555
 20
17.7161433656
 10
263.3334706563
 20
18.0368851638
 10
263.0064400879
 20
18.4156227197
 10
262.7226753667
 20
18.8495773808
 10
262.4842585472
 20
19.335564133
 10
262.303570793
 20
19.8349966881
  0
SPLINE
  5
290
330
1F
100
AcDbEntity
  8
0
  6
Continuous
 62
     7
370
    15
100
AcDbSpline
210
0.0
220
0.0
230
1.0
 70
     8
 71
     3
 72
     8
 73
     4
 74
     0
 42
0.000000001
 43
0.00000001
 40
0.0
 40
0.0
 40
0.0
 40
0.0
 40
1.0
 40
1.0
 40
1.0
 40
1.0
 10
261.8219383073563
 20
20.64187362183836
 30
0.0
 10
261.789059035042
 20
20.57558549123697
 30
0.0
 10
261.7562452877813
 20
20.50928674110178
 30
0.0
 10
261.7234909658566
 20
20.44297836000361
 30
0.0
  0
LINE
  5
291
330
1F
100
AcDbEntity
  8
0
  6
Continuous
 62
     7
370
    15
100
AcDbLine
 10
261.8415461078
 20
20.6531930505
 30
0.0
 11
261.8219383402
 21
20.6418737273
 31
0.0
  0
SPLINE
  5
292
330
1F
100
AcDbEntity
  8
0
  6
Continuous
 62
     7
370
    15
100
AcDbSpline
210
0.0
220
0.0
230
1.0
 70
     8
 71
     3
 72
    12
 73
     8
 74
     0
 42
0.000000001
 43
0.00000001
 40
0.0
 40
0.0
 40
0.0
 40
0.0
 40
0.249999999999997
 40
0.249999999999997
 40
0.499999999999994
 40
0.499999999999994
 40
1.0
 40
1.0
 40
1.0
 40
1.0
 10
261.8462589824701
 20
20.78653894662281
 30
0.0
 10
261.8612984963
 20
20.77785682009309
 30
0.0
 10
261.8733695199985
 20
20.76713607186382
 30
0.0
 10
261.8888054138709
 20
20.74408658993183
 30
0.0
 10
261.8923492079468
 20
20.73166733970328
 30
0.0
 10
261.8903302344115
 20
20.69479174914116
 30
0.0
 10
261.8716493195814
 20
20.67057117835121
 30
0.0
 10
261.841546084302
 20
20.65319295053044
 30
0.0
  0
LINE
  5
293
330
1F
100
AcDbEntity
  8
0
  6
Continuous
 62
     7
370
    15
100
AcDbLine
 10
261.5323036167
 20
20.967781613
 30
0.0
 11
261.8462590474
 21
20.7865390007
 31
0.0
  0
SPLINE
  5
294
330
1F
100
AcDbEntity
  8
0
  6
Continuous
 62
     7
370
    15
100
AcDbSpline
210
0.0
220
0.0
230
1.0
 70
     8
 71
     3
 72
    10
 73
     6
 74
     0
 42
0.000000001
 43
0.00000001
 40
0.0
 40
0.0
 40
0.0
 40
0.0
 40
0.5
 40
0.5
 40
1.0
 40
1.0
 40
1.0
 40
1.0
 10
261.3013165034755
 20
20.96506084924671
 30
0.0
 10
261.3317714596109
 20
20.9826421211958
 30
0.0
 10
261.3731745718847
 20
20.99323678766731
 30
0.0
 10
261.458972688719
 20
20.99476801582224
 30
0.0
 10
261.5019447864863
 20
20.98530730106089
 30
0.0
 10
261.5323035716233
 20
20.96778154744745
 30
0.0
  0
LINE
  5
295
330
1F
100
AcDbEntity
  8
0
  6
Continuous
 62
     7
370
    15
100
AcDbLine
 10
261.2817087287
 20
20.9537416436
 30
0.0
 11
261.3013164963
 21
20.9650609669
 31
0.0
  0
SPLINE
  5
296
330
1F
100
AcDbEntity
  8
0
  6
Continuous
 62
     7
370
    15
100
AcDbSpline
210
0.0
220
0.0
230
1.0
 70
     8
 71
     3
 72
     8
 73
     4
 74
     0
 42
0.000000001
 43
0.00000001
 40
0.0
 40
0.0
 40
0.0
 40
0.0
 40
1.0
 40
1.0
 40
1.0
 40
1.0
 10
260.937174696668
 20
20.89690908001941
 30
0.0
 10
261.0520366272269
 20
20.91581774758422
 30
0.0
 10
261.166881874661
 20
20.93476072066531
 30
0.0
 10
261.2817087265298
 20
20.95374152055463
 30
0.0
  0
LINE
  5
297
330
1F
100
AcDbEntity
  8
0
  6
Continuous
 62
     7
370
    15
100
AcDbLine
 10
260.3545255425
 20
21.2332654483
 30
0.0
 11
260.9371748375
 21
20.8969091699
 31
0.0
  0
LINE
  5
298
330
1F
100
AcDbEntity
  8
0
  6
Continuous
 62
     7
370
    15
100
AcDbLine
 10
260.3545255425
 20
21.2332654483
 30
0.0
 11
261.6111833534
 21
21.9587185608
 31
0.0
  0
ARC
  5
299
330
1F
100
AcDbEntity
  8
0
  6
Continuous
 62
     7
370
    15
100
AcDbCircle
 10
265.5268993502
 20
21.1801169104
 30
0.0
 40
3.938504786307019
100
AcDbArc
 50
194.3179057184
 51
238.1256858466
  0
ELLIPSE
  5
29A
330
1F
100
AcDbEntity
  8
0
  6
Continuous
 62
     7
370
    15
100
AcDbEllipse
 10
261.4940263459
 20
22.3529684186
 30
0.0
 11
-3.002985192779306E-5
 21
0.4267244807413597
 31
0.0
210
0.0
220
0.0
230
1.0
 40
0.7174342186
 41
3.53419364555751
 42
5.104989972352337
  0
ARC
  5
29B
330
1F
100
AcDbEntity
  8
0
  6
Continuous
 62
     7
370
    15
100
AcDbCircle
 10
265.551912012
 20
22.1407243733
 30
0.0
 40
4.432106054756309
100
AcDbArc
 50
195.5342643695
 51
215.7345697398
  0
ARC
  5
29C
330
1F
100
AcDbEntity
  8
0
  6
Continuous
 62
     7
370
    15
100
AcDbCircle
 10
264.5207273818
 20
21.6671980738
 30
0.0
 40
3.839595800477866
100
AcDbArc
 50
194.065870688
 51
246.8527503441
  0
SPLINE
  5
29D
330
1F
100
AcDbEntity
  8
0
  6
Continuous
 62
     7
370
    15
100
AcDbSpline
210
0.0
220
0.0
230
1.0
 70
     8
 71
     3
 72
     8
 73
     4
 74
     0
 42
0.000000001
 43
0.00000001
 40
0.0000000000000004
 40
0.0000000000000004
 40
0.0000000000000004
 40
0.0000000000000004
 40
0.0011862984959128
 40
0.0011862984959128
 40
0.0011862984959128
 40
0.0011862984959128
 10
260.9371746966681
 20
20.89690908001903
 30
0.0
 10
260.8903145090702
 20
20.84245946288512
 30
0.0
 10
260.8433386088953
 20
20.78817003281994
 30
0.0
 10
260.7962542617574
 20
20.73403332182215
 30
0.0
  0
LINE
  5
29E
330
1F
100
AcDbEntity
  8
0
  6
Continuous
 62
     7
370
    15
100
AcDbLine
 10
260.180311215
 20
21.1326727653
 30
0.0
 11
260.3545255425
 21
21.2332654483
 31
0.0
  0
LINE
  5
29F
330
1F
100
AcDbEntity
  8
0
  6
Continuous
 62
     7
370
    15
100
AcDbLine
 10
260.796254347
 20
20.7340332845
 30
0.0
 11
260.2211164766
 21
21.0660533099
 31
0.0
  0
SPLINE
  5
2A0
330
1F
100
AcDbEntity
  8
0
  6
Continuous
 62
     7
370
    15
100
AcDbSpline
210
0.0
220
0.0
230
1.0
 70
     8
 71
     3
 72
    10
 73
     6
 74
     0
 42
0.000000001
 43
0.00000001
 40
0.0
 40
0.0
 40
0.0
 40
0.0
 40
0.5
 40
0.5
 40
1.0
 40
1.0
 40
1.0
 40
1.0
 10
260.2211164465446
 20
21.06605331530024
 30
0.0
 10
260.2105526748323
 20
21.07215165090302
 30
0.0
 10
260.2016393131487
 20
21.08169461986792
 30
0.0
 10
260.1879964592201
 20
21.10486505656164
 30
0.0
 10
260.1832364471982
 20
21.11842446915398
 30
0.0
 10
260.1803114504154
 20
21.13267288613572
 30
0.0
  0
ARC
  5
2A1
330
1F
100
AcDbEntity
  8
0
  6
Continuous
 62
     7
370
    15
100
AcDbCircle
 10
264.0357063516
 20
22.0357815786
 30
0.0
 40
3.934043958785235
100
AcDbArc
 50
194.9325993597
 51
238.1123668138
  0
ELLIPSE
  5
2A2
330
1F
100
AcDbEntity
  8
0
  6
Continuous
 62
     7
370
    15
100
AcDbEllipse
 10
261.4697622772
 20
22.3389565163
 30
0.0
 11
0.1300037894604884
 21
0.485271810495469
 31
0.0
210
0.0
220
0.0
230
1.0
 40
0.5176380889
 41
3.619174351347831
 42
5.189970678142606
  0
SPLINE
  5
2A3
330
1F
100
AcDbEntity
  8
0
  6
Continuous
 62
     7
370
    15
100
AcDbSpline
210
0.0
220
0.0
230
1.0
 70
     8
 71
     3
 72
    14
 73
    10
 74
     0
 42
0.000000001
 43
0.00000001
 40
0.0
 40
0.0
 40
0.0
 40
0.0
 40
0.25
 40
0.25
 40
0.5
 40
0.5
 40
0.75
 40
0.75
 40
1.0
 40
1.0
 40
1.0
 40
1.0
 10
272.0833051127678
 20
35.14068583670534
 30
0.0
 10
272.0959939570457
 20
35.1480109505873
 30
0.0
 10
272.1102862862489
 20
35.15426750411986
 30
0.0
 10
272.1414917537376
 20
35.16418688438625
 30
0.0
 10
272.1585691299005
 20
35.16786299912658
 30
0.0
 10
272.1937488477673
 20
35.17147397742418
 30
0.0
 10
272.2123457434982
 20
35.17139638111695
 30
0.0
 10
272.2470014492219
 20
35.16630837856526
 30
0.0
 10
272.2632424021984
 20
35.16123033035553
 30
0.0
 10
272.2759205526494
 20
35.15391138988819
 30
0.0
  0
LINE
  5
2A4
330
1F
100
AcDbEntity
  8
0
  6
Continuous
 62
     7
370
    15
100
AcDbLine
 10
272.2759206824
 20
35.1539115385
 30
0.0
 11
272.539788008
 21
35.0015841738
 31
0.0
  0
LINE
  5
2A5
330
1F
100
AcDbEntity
  8
0
  6
Continuous
 62
     7
370
    15
100
AcDbLine
 10
273.2077348194
 20
34.1716656871
 30
0.0
 11
273.7655346617
 21
34.2939756925
 31
0.0
  0
LINE
  5
2A6
330
1F
100
AcDbEntity
  8
0
  6
Continuous
 62
     7
370
    15
100
AcDbLine
 10
273.7655346617
 20
34.2939756925
 30
0.0
 11
274.3477434562
 21
33.9578737095
 31
0.0
  0
SPLINE
  5
2A7
330
1F
100
AcDbEntity
  8
0
  6
Continuous
 62
     7
370
    15
100
AcDbSpline
210
0.0
220
0.0
230
1.0
 70
     8
 71
     3
 72
    12
 73
     8
 74
     0
 42
0.000000001
 43
0.00000001
 40
0.0
 40
0.0
 40
0.0
 40
0.0
 40
0.250000000000004
 40
0.250000000000004
 40
0.500000000000008
 40
0.500000000000008
 40
1.0
 40
1.0
 40
1.0
 40
1.0
 10
274.347743421526
 20
33.95787350606789
 30
0.0
 10
274.3604058737261
 20
33.95056362800792
 30
0.0
 10
274.3693255845301
 20
33.94103398368861
 30
0.0
 10
274.3780538127669
 20
33.92102122270952
 30
0.0
 10
274.3781661176974
 20
33.91046473934396
 30
0.0
 10
274.3688191680491
 20
33.880034647346
 30
0.0
 10
274.3500038069271
 20
33.86120942536583
 30
0.0
 10
274.3248336091269
 20
33.84667897946504
 30
0.0
  0
LINE
  5
2A8
330
1F
100
AcDbEntity
  8
0
  6
Continuous
 62
     7
370
    15
100
AcDbLine
 10
272.0833052053
 20
35.1406859875
 30
0.0
 11
272.0465889783
 21
35.1194901608
 31
0.0
  0
SPLINE
  5
2A9
330
1F
100
AcDbEntity
  8
0
  6
Continuous
 62
     7
370
    15
100
AcDbSpline
210
0.0
220
0.0
230
1.0
 70
     8
 71
     3
 72
    10
 73
     6
 74
     0
 42
0.000000001
 43
0.00000001
 40
0.0
 40
0.0
 40
0.0
 40
0.0
 40
0.403890055881665
 40
0.8088426875932694
 40
1.0
 40
1.0
 40
1.0
 40
1.0
 10
275.5334072715297
 20
31.81630331838045
 30
0.0
 10
275.5407035773344
 20
31.83180884881763
 30
0.0
 10
275.5553153844601
 20
31.86286070248108
 30
0.0
 10
275.560891590046
 20
31.9058126797956
 30
0.0
 10
275.5536721715477
 20
31.92711534980772
 30
0.0
 10
275.5513570874749
 20
31.93394657479697
 30
0.0
  0
ARC
  5
2AA
330
1F
100
AcDbEntity
  8
0
  6
Continuous
 62
     7
370
    15
100
AcDbCircle
 10
271.4161208514
 20
30.8909725685
 30
0.0
 40
4.242675300554783
100
AcDbArc
 50
15.7413341422
 51
46.2919137943
  0
LWPOLYLINE
  5
2AB
330
1F
100
AcDbEntity
  8
0
  6
Continuous
 62
     7
370
    15
100
AcDbPolyline
 90
        3
 70
   128
 43
0.0
 10
273.2077346877
 20
34.4440616017
 10
273.2231167069
 20
34.4250759627
 10
273.3752188879
 20
34.2225635026
  0
LWPOLYLINE
  5
2AC
330
1F
100
AcDbEntity
  8
0
  6
Continuous
 62
     7
370
    15
100
AcDbPolyline
 90
       29
 70
   128
 43
0.0
 10
283.3052344412
 20
22.7352217917
 10
282.9830157257
 20
22.7423800821
 10
282.6716346114
 20
22.7907509298
 10
282.3867061104
 20
22.8779083202
 10
282.1425161604
 20
22.9994825832
 10
281.9513109894
 20
23.1493766721
 10
281.8226771614
 20
23.3200749369
 10
281.7630663052
 20
23.5030171737
 10
281.775466369
 20
23.6890304969
 10
281.8592564441
 20
23.8687868929
 10
282.0102344239
 20
24.0332729575
 10
282.2208303268
 20
24.1742402947
 10
282.4804825519
 20
24.2846210207
 10
282.7761718019
 20
24.358879787
 10
283.093072079
 20
24.3932922687
 10
283.4152907945
 20
24.3861339783
 10
283.7266719089
 20
24.3377631306
 10
284.0116014635
 20
24.250605132
 10
284.2557914135
 20
24.1290308689
 10
284.4469965845
 20
23.9791367801
 10
284.5756293588
 20
23.8084391235
 10
284.6352412687
 20
23.6254962785
 10
284.6228412049
 20
23.4394829552
 10
284.5390500761
 20
23.2597271675
 10
284.3880720963
 20
23.0952411029
 10
284.1774772471
 20
22.9542731574
 10
283.9178250219
 20
22.8438924314
 10
283.6221347183
 20
22.7696342734
 10
283.3052344412
 20
22.7352217917
  0
LWPOLYLINE
  5
2AD
330
1F
100
AcDbEntity
  8
0
  6
Continuous
 62
     7
370
    15
100
AcDbPolyline
 90
       13
 70
   128
 43
0.0
 10
283.3170214001
 20
22.512460415
 10
282.9712489183
 20
22.5193680976
 10
282.6361307647
 20
22.5690260857
 10
282.3273404303
 20
22.6591102501
 10
282.0593143961
 20
22.7854096037
 10
281.8445856859
 20
22.942018211
 10
281.69319605
 20
23.1216126358
 10
281.6122220759
 20
23.3157963751
 10
281.605451909
 20
23.5154886586
 10
281.6732014204
 20
23.7113523866
 10
281.8123028793
 20
23.8942291962
 10
282.0162524341
 20
24.0555676652
 10
282.0675994287
 20
24.0866305763
  0
LWPOLYLINE
  5
2AE
330
1F
100
AcDbEntity
  8
0
  6
Continuous
 62
     7
370
    15
100
AcDbPolyline
 90
       12
 70
   128
 43
0.0
 10
284.3307084245
 20
24.0866307192
 10
284.453711236
 20
24.0068677046
 10
284.6378498293
 20
23.8377749722
 10
284.7547167841
 20
23.6497838544
 10
284.7988482223
 20
23.4516841396
 10
284.7681778948
 20
23.2527404101
 10
284.6641420871
 20
23.0622538206
 10
284.4916064553
 20
22.8891305677
 10
284.2586363751
 20
22.7414670767
 10
283.9761255721
 20
22.6261677324
 10
283.6572850912
 20
22.5486231028
 10
283.3170214001
 20
22.512460415
  0
LWPOLYLINE
  5
2AF
330
1F
100
AcDbEntity
  8
0
  6
Continuous
 62
     7
370
    15
100
AcDbPolyline
 90
       24
 70
   128
 43
0.0
 10
283.2691380691
 20
23.0173236599
 10
283.0109328104
 20
23.0267050494
 10
282.7666861598
 20
23.0759547352
 10
282.5545143145
 20
23.1614190781
 10
282.3901517469
 20
23.2767604977
 10
282.285790289
 20
23.4134235421
 10
282.2491674106
 20
23.56127401
 10
282.2830019457
 20
23.7093449763
 10
282.3847821232
 20
23.8466560295
 10
282.5469615314
 20
23.9630222617
 10
282.757510511
 20
24.0498141866
 10
283.0008145045
 20
24.10059435
 10
283.2588276988
 20
24.1115971821
 10
283.5124162971
 20
24.0820056697
 10
283.7427703586
 20
24.014015787
 10
283.9328076668
 20
23.9126688304
 10
284.068432735
 20
23.7854821228
 10
284.1395877777
 20
23.6418878443
 10
284.1409948568
 20
23.4925361625
 10
284.0725503175
 20
23.3485034723
 10
283.9393292495
 20
23.2204725884
 10
283.7512128498
 20
23.1179385522
 10
283.5221532069
 20
23.0485056119
 10
283.2691380691
 20
23.0173236599
  0
SPLINE
  5
2B0
330
1F
100
AcDbEntity
  8
0
  6
Continuous
 62
     7
370
    15
100
AcDbSpline
210
0.0
220
0.0
230
1.0
 70
     8
 71
     3
 72
    10
 73
     6
 74
     0
 42
0.000000001
 43
0.00000001
 40
0.0
 40
0.0
 40
0.0
 40
0.0
 40
0.5526017805564746
 40
0.9455332208827363
 40
0.9999999999999999
 40
0.9999999999999999
 40
0.9999999999999999
 40
0.9999999999999999
 10
284.1204040468696
 20
23.58211648463616
 30
0.0
 10
284.0631414093142
 20
23.47003406950907
 30
0.0
 10
283.9651617646063
 20
23.27825465310416
 30
0.0
 10
283.8496690386281
 20
23.15888356848257
 30
0.0
 10
283.8039385594744
 20
23.13976409532209
 30
0.0
 10
283.7983712778029
 20
23.13743646844248
 30
0.0
  0
SPLINE
  5
2B1
330
1F
100
AcDbEntity
  8
0
  6
Continuous
 62
     7
370
    15
100
AcDbSpline
210
0.0
220
0.0
230
1.0
 70
     8
 71
     3
 72
    10
 73
     6
 74
     0
 42
0.000000001
 43
0.00000001
 40
0.0
 40
0.0
 40
0.0
 40
0.0
 40
0.4391305122717398
 40
0.7513786698990035
 40
1.0
 40
1.0
 40
1.0
 40
1.0
 10
283.6008440731348
 20
24.02304943183408
 30
0.0
 10
283.6752256681504
 20
23.91518363577296
 30
0.0
 10
283.8024970427552
 20
23.73061878293976
 30
0.0
 10
283.987504677509
 20
23.6076404404714
 30
0.0
 10
284.0795862670353
 20
23.58995573334588
 30
0.0
 10
284.1204040468696
 20
23.58211648463616
 30
0.0
  0
SPLINE
  5
2B2
330
1F
100
AcDbEntity
  8
0
  6
Continuous
 62
     7
370
    15
100
AcDbSpline
210
0.0
220
0.0
230
1.0
 70
     8
 71
     3
 72
    11
 73
     7
 74
     0
 42
0.000000001
 43
0.00000001
 40
0.0
 40
0.0
 40
0.0
 40
0.0
 40
0.184726995531443
 40
0.5189553281823305
 40
0.869528374057594
 40
1.0
 40
1.0
 40
1.0
 40
1.0
 10
282.679594331812
 20
23.98376377869473
 30
0.0
 10
282.7331572507639
 20
23.96568725763715
 30
0.0
 10
282.8836320749936
 20
23.91490471288325
 30
0.0
 10
283.1643156865783
 20
23.8845018739741
 30
0.0
 10
283.4243289267392
 20
23.94707410366873
 30
0.0
 10
283.5631832319797
 20
24.00683952110307
 30
0.0
 10
283.6008440731348
 20
24.02304943183408
 30
0.0
  0
SPLINE
  5
2B3
330
1F
100
AcDbEntity
  8
0
  6
Continuous
 62
     7
370
    15
100
AcDbSpline
210
0.0
220
0.0
230
1.0
 70
     8
 71
     3
 72
    10
 73
     6
 74
     0
 42
0.000000001
 43
0.00000001
 40
0.0
 40
0.0
 40
0.0
 40
0.0
 40
0.4391308788841486
 40
0.7513785323495044
 40
1.0
 40
1.0
 40
1.0
 40
1.0
 10
282.2779035270165
 20
23.50354579613316
 30
0.0
 10
282.3354105987851
 20
23.52755451191005
 30
0.0
 10
282.4338085508833
 20
23.56863482416202
 30
0.0
 10
282.5768438146694
 20
23.77366473900516
 30
0.0
 10
282.648036232523
 20
23.91923537981713
 30
0.0
 10
282.679594331812
 20
23.98376377869473
 30
0.0
  0
SPLINE
  5
2B4
330
1F
100
AcDbEntity
  8
0
  6
Continuous
 62
     7
370
    15
100
AcDbSpline
210
0.0
220
0.0
230
1.0
 70
     8
 71
     3
 72
    10
 73
     6
 74
     0
 42
0.000000001
 43
0.00000001
 40
0.0
 40
0.0
 40
0.0
 40
0.0
 40
0.1529741417483665
 40
0.624530717356249
 40
0.9999999999999999
 40
0.9999999999999999
 40
0.9999999999999999
 40
0.9999999999999999
 10
282.6227055446678
 20
23.13449796116327
 30
0.0
 10
282.6053756938985
 20
23.14038365007526
 30
0.0
 10
282.5346250166336
 20
23.16441250538592
 30
0.0
 10
282.4104483016915
 20
23.30687983405924
 30
0.0
 10
282.3186124752982
 20
23.44314307940232
 30
0.0
 10
282.2779035270165
 20
23.50354579613316
 30
0.0
  0
LINE
  5
2B5
330
1F
100
AcDbEntity
  8
0
  6
Continuous
 62
     7
370
    15
100
AcDbLine
 10
282.6795943318
 20
23.105119783
 30
0.0
 11
282.6795943318
 21
23.9837637787
 31
0.0
  0
LINE
  5
2B6
330
1F
100
AcDbEntity
  8
0
  6
Continuous
 62
     7
370
    15
100
AcDbLine
 10
283.6008440731
 20
23.0672716851
 30
0.0
 11
283.6008440731
 21
24.0230494318
 31
0.0
  0
ARC
  5
2B7
330
1F
100
AcDbEntity
  8
0
  6
Continuous
 62
     7
370
    15
100
AcDbCircle
 10
266.2355896167
 20
31.6452363266
 30
0.0
 40
0.6234125898154941
100
AcDbArc
 50
79.6874549488
 51
142.8275370304
  0
ARC
  5
2B8
330
1F
100
AcDbEntity
  8
0
  6
Continuous
 62
     7
370
    15
100
AcDbCircle
 10
266.222729342
 20
31.6787621171
 30
0.0
 40
0.5856979864917105
100
AcDbArc
 50
78.355514738
 51
144.4147675873
  0
ARC
  5
2B9
330
1F
100
AcDbEntity
  8
0
  6
Continuous
 62
     7
370
    15
100
AcDbCircle
 10
266.2113404128
 20
31.7083290906
 30
0.0
 40
0.5000402028741335
100
AcDbArc
 50
80.8135387067
 51
142.2995404464
  0
LWPOLYLINE
  5
2BA
330
1F
100
AcDbEntity
  8
0
  6
Continuous
 62
     7
370
     0
100
AcDbPolyline
 90
       23
 70
   128
 43
0.0
 10
273.1517004526
 20
31.7990533408
 10
273.0339777192
 20
31.8627073743
 10
272.6406880902
 20
32.0201436704
 10
272.2157569781
 20
32.1114362002
 10
271.763537362
 20
32.135649338
 10
271.2886622344
 20
32.0925365633
 10
270.7959961318
 20
31.9825377276
 10
270.2905860075
 20
31.8067801999
 10
269.777609602
 20
31.5670654873
 10
269.2623219029
 20
31.2658480609
 10
268.7500016711
 20
30.9062142203
 10
268.2458972431
 20
30.4918477637
 10
267.7551729248
 20
30.0269947834
 10
267.282855584
 20
29.5164157998
 10
266.8337840742
 20
28.9653419631
 10
266.4125587237
 20
28.3794191267
 10
266.0234945796
 20
27.764648915
 10
265.6705774168
 20
27.127329564
 10
265.3574223811
 20
26.4739897647
 10
265.0872381648
 20
25.8113232666
 10
264.8627919719
 20
25.1461173977
 10
264.6863831765
 20
24.4851875148
 10
264.5598188246
 20
23.8353040016
  0
ARC
  5
2BB
330
1F
100
AcDbEntity
  8
0
  6
Continuous
 62
     7
370
     0
100
AcDbCircle
 10
267.6409678426
 20
21.9374736386
 30
0.0
 40
3.108257520026299
100
AcDbArc
 50
187.5726526912
 51
237.0921750356
  0
LINE
  5
2BC
330
1F
100
AcDbEntity
  8
0
  6
Continuous
 62
     7
370
     0
100
AcDbLine
 10
282.5910414076
 20
11.5288875715
 30
0.0
 11
283.1991529967
 21
11.1778322236
 31
0.0
  0
LWPOLYLINE
  5
2BD
330
1F
100
AcDbEntity
  8
0
  6
Continuous
 62
     7
370
     0
100
AcDbPolyline
 90
       19
 70
   128
 43
0.0
 10
262.2929392504
 20
24.3780537967
 10
262.4908597974
 20
25.1566194908
 10
262.7387491211
 20
25.9412841235
 10
263.0346758422
 20
26.7259311687
 10
263.3763329476
 20
27.5044448961
 10
263.7610567565
 20
28.2707564535
 10
264.1858490475
 20
29.0188931425
 10
264.6473986587
 20
29.7430225233
 10
265.1421078298
 20
30.4375013864
 10
265.6661201241
 20
31.0969155979
 10
266.2153512487
 20
31.716125268
 10
266.785519874
 20
32.2903038364
 10
267.3721817465
 20
32.8149754075
 10
267.9707641306
 20
33.286051059
 10
268.5766009423
 20
33.6998582501
 10
269.1849699564
 20
34.0531714262
 10
269.791128994
 20
34.3432365597
 10
270.3903532615
 20
34.5677933138
 10
270.708368619
 20
34.6609052725
  0
LINE
  5
2BE
330
1F
100
AcDbEntity
  8
0
  6
Continuous
 62
     7
370
     0
100
AcDbLine
 10
262.4364295133
 20
24.2442494648
 30
0.0
 11
262.468500104
 21
24.3898363156
 31
0.0
  0
LWPOLYLINE
  5
2BF
330
1F
100
AcDbEntity
  8
0
  6
Continuous
 62
     7
370
     0
100
AcDbPolyline
 90
        9
 70
   128
 43
0.0
 10
269.0657038994
 20
33.7945696986
 10
269.4699241077
 20
34.0085888744
 10
270.0473612863
 20
34.2657050284
 10
270.6170607645
 20
34.4617417952
 10
271.1748678508
 20
34.595269248
 10
271.7167148475
 20
34.6653134634
 10
272.2386503559
 20
34.6713643135
 10
272.7368682522
 20
34.6133775923
 10
273.2077349511
 20
34.4917761539
  0
ARC
  5
2C0
330
1F
100
AcDbEntity
  8
0
  6
Continuous
 62
     7
370
     0
100
AcDbCircle
 10
271.4613515104
 20
30.7673148006
 30
0.0
 40
4.204998814739523
100
AcDbArc
 50
14.4456939373
 51
47.0804331381
  0
LWPOLYLINE
  5
2C1
330
1F
100
AcDbEntity
  8
0
  6
Continuous
 62
     7
370
     0
100
AcDbPolyline
 90
       27
 70
   128
 43
0.0
 10
263.629298069
 20
24.8960388724
 10
263.8287938544
 20
25.5961357511
 10
264.0760578242
 20
26.2989551675
 10
264.3687992972
 20
26.9979871658
 10
264.7043077043
 20
27.6867580277
 10
265.0794752421
 20
28.3588880653
 10
265.4908271665
 20
29.0081526075
 10
265.9345536657
 20
29.6285375108
 10
266.4065448952
 20
30.2142980158
 10
266.9024294366
 20
30.7600074132
 10
267.4176144687
 20
31.2606124778
 10
267.9473285731
 20
31.7114764307
 10
268.4866654287
 20
32.1084236313
 10
269.0306299341
 20
32.4477777624
 10
269.5741839523
 20
32.7263949302
 10
270.1122931163
 20
32.9416955512
 10
270.6399736352
 20
33.0916846814
 10
271.1523381212
 20
33.1749742119
 10
271.6446411024
 20
33.1907915016
 10
272.1123233435
 20
33.1389915778
 10
272.551052807
 20
33.0200527979
 10
272.9567660098
 20
32.8350769976
 10
273.325705824
 20
32.5857781565
 10
273.6544549302
 20
32.2744649044
 10
273.9399682187
 20
31.9040199856
 10
274.1796015016
 20
31.4778751608
 10
274.329715932
 20
31.118999093
  0
LINE
  5
2C2
330
1F
100
AcDbEntity
  8
0
  6
Continuous
 62
     7
370
     0
100
AcDbLine
 10
287.9084843255
 20
14.5985820277
 30
0.0
 11
288.5165959145
 21
14.2475266798
 31
0.0
  0
LWPOLYLINE
  5
2C3
330
1F
100
AcDbEntity
  8
0
  6
Continuous
 62
     7
370
     0
100
AcDbPolyline
 90
       19
 70
   128
 43
0.0
 10
260.2211164766
 20
25.5740916256
 10
260.4190370235
 20
26.3526573198
 10
260.6669263472
 20
27.1373219524
 10
260.9628530683
 20
27.9219689976
 10
261.3045101738
 20
28.7004827251
 10
261.6892339827
 20
29.4667942825
 10
262.1140262736
 20
30.2149309714
 10
262.5755758848
 20
30.9390603523
 10
263.0702850559
 20
31.6335392154
 10
263.5942973503
 20
32.2929534268
 10
264.1435284749
 20
32.912163097
 10
264.7136971002
 20
33.4863416654
 10
265.3003589726
 20
34.0110132364
 10
265.8989413568
 20
34.4820888879
 10
266.5047781685
 20
34.895896079
 10
267.1131471826
 20
35.2492092551
 10
267.7193062201
 20
35.5392743886
 10
268.3185304876
 20
35.7638311427
 10
268.6365883872
 20
35.8569542763
  0
LWPOLYLINE
  5
2C4
330
1F
100
AcDbEntity
  8
0
  6
Continuous
 62
     7
370
     0
100
AcDbPolyline
 90
       19
 70
   128
 43
0.0
 10
261.5323036167
 20
25.1648012528
 10
261.7227768155
 20
25.9132197027
 10
261.962658238
 20
26.6675560016
 10
262.2499669822
 20
27.4215797106
 10
262.5823301807
 20
28.1690634698
 10
262.9570024931
 20
28.9038337947
 10
263.3708895504
 20
29.6198217215
 10
263.8205729798
 20
30.3111137551
 10
264.3023388538
 20
30.9720014492
 10
264.8122082463
 20
31.5970249013
 10
265.3459696336
 20
32.1810224847
 10
265.8992151138
 20
32.7191712249
 10
266.4673750466
 20
33.2070262648
 10
267.0457570389
 20
33.6405585801
 10
267.6295840749
 20
34.0161873331
 10
268.2140341927
 20
34.3308094702
 10
268.7942803599
 20
34.5818276079
 10
269.3655302494
 20
34.7671681285
 10
269.5386542248
 20
34.8107066354
  0
LINE
  5
2C5
330
1F
100
AcDbEntity
  8
0
  6
Continuous
 62
     7
370
     0
100
AcDbLine
 10
266.0205141389
 20
32.3578599519
 30
0.0
 11
266.1646048626
 21
32.4932551383
 31
0.0
  0
LWPOLYLINE
  5
2C6
330
1F
100
AcDbEntity
  8
0
  6
Continuous
 62
     7
370
     0
100
AcDbPolyline
 90
       21
 70
   128
 43
0.0
 10
261.3013164963
 20
25.1620806067
 10
261.4912117565
 20
25.9193697584
 10
261.730999929
 20
26.6830028769
 10
262.0187190783
 20
27.4467340084
 10
262.3520163563
 20
28.2043178438
 10
262.7281664425
 20
28.9495586916
 10
263.1440926171
 20
29.676361274
 10
263.5963933658
 20
30.3787825885
 10
264.0813703027
 20
31.0510778372
 10
264.5950566192
 20
31.687748485
 10
265.1332515915
 20
32.2835880367
 10
265.6915537716
 20
32.8337237071
 10
266.2653972069
 20
33.3336561896
 10
266.8500889118
 20
33.7792977141
 10
267.440847178
 20
34.167002072
 10
268.0328407421
 20
34.4936000027
 10
268.6212281658
 20
34.7564207112
 10
269.2011975797
 20
34.953313594
 10
269.7680057841
 20
35.0826689872
 10
270.3170173499
 20
35.1434291796
 10
270.8371018214
 20
35.1356454062
  0
LINE
  5
2C7
330
1F
100
AcDbEntity
  8
0
  6
Continuous
 62
     7
370
     0
100
AcDbLine
 10
264.1972149988
 20
24.6628009807
 30
0.0
 11
263.7373894571
 21
24.9282526156
 31
0.0
  0
LINE
  5
2C8
330
1F
100
AcDbEntity
  8
0
  6
Continuous
 62
     7
370
     0
100
AcDbLine
 10
261.7768688382
 20
22.5162498909
 30
0.0
 11
264.1972149988
 21
21.1190137934
 31
0.0
  0
LINE
  5
2C9
330
1F
100
AcDbEntity
  8
0
  6
Continuous
 62
     7
370
     0
100
AcDbLine
 10
261.7526047658
 20
22.5022379865
 30
0.0
 11
261.7768688382
 21
22.5162498909
 31
0.0
  0
LWPOLYLINE
  5
2CA
330
1F
100
AcDbEntity
  8
0
  6
Continuous
 62
     7
370
     0
100
AcDbPolyline
 90
        3
 70
   128
 43
0.0
 10
261.7209660486
 20
24.3330792663
 10
261.720785344
 20
24.3817508332
 10
261.7256912371
 20
24.6387281984
  0
LWPOLYLINE
  5
2CB
330
1F
100
AcDbEntity
  8
0
  6
Continuous
 62
     7
370
     0
100
AcDbPolyline
 90
       18
 70
   128
 43
0.0
 10
249.2868037558
 20
33.938273433
 10
249.3124919965
 20
34.396230483
 10
249.3890986352
 20
34.8756745011
 10
249.51525627
 20
35.3680495335
 10
249.6887137324
 20
35.8645692893
 10
249.9063755998
 20
36.3563732212
 10
250.1643579083
 20
36.8346851155
 10
250.4580569051
 20
37.2909696645
 10
250.782231366
 20
37.7170846274
 10
251.1310965045
 20
38.105425386
 10
251.4984268359
 20
38.4490623499
 10
251.877667241
 20
38.7418633242
 10
252.2620502449
 20
38.9786031903
 10
252.6447165056
 20
39.1550571891
 10
253.0188373198
 20
39.2680768132
 10
253.3777365034
 20
39.3156449576
 10
253.7150094147
 20
39.2969126913
 10
253.9806545471
 20
39.2289071734
  0
ARC
  5
2CC
330
1F
100
AcDbEntity
  8
0
  6
Continuous
 62
     7
370
     0
100
AcDbCircle
 10
251.4460797968
 20
33.7598672746
 30
0.0
 40
2.166633743516972
100
AcDbArc
 50
175.2767713484
 51
224.7160200019
  0
ARC
  5
2CD
330
1F
100
AcDbEntity
  8
0
  6
Continuous
 62
     7
370
     0
100
AcDbCircle
 10
266.4914543026
 20
21.5709083671
 30
0.0
 40
2.992010857054565
100
AcDbArc
 50
196.9421343097
 51
282.3285720174
  0
LWPOLYLINE
  5
2CE
330
1F
100
AcDbEntity
  8
0
  6
Continuous
 62
     7
370
     0
100
AcDbPolyline
 90
       16
 70
   128
 43
0.0
 10
268.5806278432
 20
17.8106400361
 10
268.3944322861
 20
17.7189528311
 10
267.8120635312
 20
17.4708420091
 10
267.238439918
 20
17.2854330794
 10
266.6778336224
 20
17.1641075924
 10
266.1344198166
 20
17.1077688904
 10
265.6122453882
 20
17.1168368254
 10
265.1151994378
 20
17.1912435035
 10
264.6469837756
 20
17.330434504
 10
264.2110852633
 20
17.5333742055
 10
263.8107502617
 20
17.7985498949
 10
263.4489606604
 20
18.1239880432
 10
263.1284101699
 20
18.5072637377
 10
262.8514869359
 20
18.9455231936
 10
262.6202524662
 20
19.4355023104
 10
262.4364295133
 20
19.9735519216
  0
LINE
  5
2CF
330
1F
100
AcDbEntity
  8
0
  6
Continuous
 62
     7
370
     0
100
AcDbLine
 10
262.303570793
 20
19.8349966881
 30
0.0
 11
262.2929392504
 21
19.8700154809
 31
0.0
  0
LINE
  5
2D0
330
1F
100
AcDbEntity
  8
0
  6
Continuous
 62
     7
370
     0
100
AcDbLine
 10
263.7166360855
 20
20.7432665702
 30
0.0
 11
261.6111833534
 21
21.9587185608
 31
0.0
  0
LINE
  5
2D1
330
1F
100
AcDbEntity
  8
0
  6
Continuous
 62
     7
370
     0
100
AcDbLine
 10
261.8795397795
 20
20.6793696222
 30
0.0
 11
261.8462590474
 21
20.7865390007
 31
0.0
  0
LWPOLYLINE
  5
2D2
330
1F
100
AcDbEntity
  8
0
  6
Continuous
 62
     7
370
     0
100
AcDbPolyline
 90
        3
 70
   128
 43
0.0
 10
261.7208449093
 20
20.4438001226
 10
261.7172792859
 20
20.4521822792
 10
261.5323036167
 20
20.967781613
  0
ARC
  5
2D3
330
1F
100
AcDbEntity
  8
0
  6
Continuous
 62
     7
370
     0
100
AcDbCircle
 10
265.5967732762
 20
22.1681881016
 30
0.0
 40
4.460769423568197
100
AcDbArc
 50
195.6471844777
 51
214.1548056384
  0
LINE
  5
2D4
330
1F
100
AcDbEntity
  8
0
  6
Continuous
 62
     7
370
     0
100
AcDbLine
 10
260.2345165402
 20
21.0220469548
 30
0.0
 11
260.2211164766
 21
21.0660533099
 31
0.0
  0
OLE2FRAME
  5
2D5
330
1F
100
AcDbEntity
  8
0
100
AcDbOle2Frame
 70
     2
  3
Paintbrush-Bild
 10
13.8511154363
 20
38.264191557
 30
0.0
 11
51.6290888628
 21
31.9806341108
 31
0.0
 71
     2
 72
     0
 73
     1
 90
    12928
310
80552BED0767C5B32B40DDAF6807D121434000000000000000006FFBDDFB85D0
310
4940DDAF6807D121434000000000000000006FFBDDFB85D04940416F4BD60AFB
310
3F4000000000000000002BED0767C5B32B40416F4BD60AFB3F40000000000000
310
0000000000000100000000010000010000000100000000000100000000320000
310
D0CF11E0A1B11AE1000000000000000000000000000000003E000300FEFF0900
310
0600000000000000000000000100000001000000000000000010000002000000
310
01000000FEFFFFFF0000000000000000FFFFFFFFFFFFFFFFFFFFFFFFFFFFFFFF
310
FFFFFFFFFFFFFFFFFFFFFFFFFFFFFFFFFFFFFFFFFFFFFFFFFFFFFFFFFFFFFFFF
310
FFFFFFFFFFFFFFFFFFFFFFFFFFFFFFFFFFFFFFFFFFFFFFFFFFFFFFFFFFFFFFFF
310
FFFFFFFFFFFFFFFFFFFFFFFFFFFFFFFFFFFFFFFFFFFFFFFFFFFFFFFFFFFFFFFF
310
FFFFFFFFFFFFFFFFFFFFFFFFFFFFFFFFFFFFFFFFFFFFFFFFFFFFFFFFFFFFFFFF
310
FFFFFFFFFFFFFFFFFFFFFFFFFFFFFFFFFFFFFFFFFFFFFFFFFFFFFFFFFFFFFFFF
310
FFFFFFFFFFFFFFFFFFFFFFFFFFFFFFFFFFFFFFFFFFFFFFFFFFFFFFFFFFFFFFFF
310
FFFFFFFFFFFFFFFFFFFFFFFFFFFFFFFFFFFFFFFFFFFFFFFFFFFFFFFFFFFFFFFF
310
FFFFFFFFFFFFFFFFFFFFFFFFFFFFFFFFFFFFFFFFFFFFFFFFFFFFFFFFFFFFFFFF
310
FFFFFFFFFFFFFFFFFFFFFFFFFFFFFFFFFFFFFFFFFFFFFFFFFFFFFFFFFFFFFFFF
310
FFFFFFFFFFFFFFFFFFFFFFFFFFFFFFFFFFFFFFFFFFFFFFFFFFFFFFFFFFFFFFFF
310
FFFFFFFFFFFFFFFFFFFFFFFFFFFFFFFFFFFFFFFFFFFFFFFFFFFFFFFFFFFFFFFF
310
FFFFFFFFFFFFFFFFFFFFFFFFFFFFFFFFFFFFFFFFFFFFFFFFFFFFFFFFFFFFFFFF
310
FFFFFFFFFFFFFFFFFFFFFFFFFFFFFFFFFFFFFFFFFFFFFFFFFFFFFFFFFFFFFFFF
310
FDFFFFFFFEFFFFFFFEFFFFFFFEFFFFFF05000000060000000700000008000000
310
090000000A0000000B0000000C0000000D0000000E0000000F00000010000000
310
11000000120000001300000014000000150000001600000017000000FEFFFFFF
310
FFFFFFFFFFFFFFFFFFFFFFFFFFFFFFFFFFFFFFFFFFFFFFFFFFFFFFFFFFFFFFFF
310
FFFFFFFFFFFFFFFFFFFFFFFFFFFFFFFFFFFFFFFFFFFFFFFFFFFFFFFFFFFFFFFF
310
FFFFFFFFFFFFFFFFFFFFFFFFFFFFFFFFFFFFFFFFFFFFFFFFFFFFFFFFFFFFFFFF
310
FFFFFFFFFFFFFFFFFFFFFFFFFFFFFFFFFFFFFFFFFFFFFFFFFFFFFFFFFFFFFFFF
310
FFFFFFFFFFFFFFFFFFFFFFFFFFFFFFFFFFFFFFFFFFFFFFFFFFFFFFFFFFFFFFFF
310
FFFFFFFFFFFFFFFFFFFFFFFFFFFFFFFFFFFFFFFFFFFFFFFFFFFFFFFFFFFFFFFF
310
FFFFFFFFFFFFFFFFFFFFFFFFFFFFFFFFFFFFFFFFFFFFFFFFFFFFFFFFFFFFFFFF
310
FFFFFFFFFFFFFFFFFFFFFFFFFFFFFFFFFFFFFFFFFFFFFFFFFFFFFFFFFFFFFFFF
310
FFFFFFFFFFFFFFFFFFFFFFFFFFFFFFFFFFFFFFFFFFFFFFFFFFFFFFFFFFFFFFFF
310
FFFFFFFFFFFFFFFFFFFFFFFFFFFFFFFFFFFFFFFFFFFFFFFFFFFFFFFFFFFFFFFF
310
FFFFFFFFFFFFFFFFFFFFFFFFFFFFFFFFFFFFFFFFFFFFFFFFFFFFFFFFFFFFFFFF
310
FFFFFFFFFFFFFFFFFFFFFFFFFFFFFFFFFFFFFFFFFFFFFFFFFFFFFFFFFFFFFFFF
310
FFFFFFFFFFFFFFFFFFFFFFFFFFFFFFFFFFFFFFFFFFFFFFFFFFFFFFFFFFFFFFFF
310
52006F006F007400200045006E00740072007900000000000000000000000000
310
0000000000000000000000000000000000000000000000000000000000000000
310
16000500FFFFFFFFFFFFFFFF020000000A00030000000000C000000000000046
310
000000000000000000000000D0638DE46403D20103000000C000000000000000
310
01004F006C006500000000000000000000000000000000000000000000000000
310
0000000000000000000000000000000000000000000000000000000000000000
310
0A000200FFFFFFFFFFFFFFFFFFFFFFFF00000000000000000000000000000000
310
0000000000000000000000000000000000000000000000001400000000000000
310
010043006F006D0070004F0062006A0000000000000000000000000000000000
310
0000000000000000000000000000000000000000000000000000000000000000
310
120002010100000003000000FFFFFFFF00000000000000000000000000000000
310
0000000000000000000000000000000000000000010000004D00000000000000
310
01004F006C006500310030004E00610074006900760065000000000000000000
310
0000000000000000000000000000000000000000000000000000000000000000
310
1A000200FFFFFFFFFFFFFFFFFFFFFFFF00000000000000000000000000000000
310
0000000000000000000000000000000000000000040000002426000000000000
310
FEFFFFFF02000000FEFFFFFFFFFFFFFFFFFFFFFFFFFFFFFFFFFFFFFFFFFFFFFF
310
FFFFFFFFFFFFFFFFFFFFFFFFFFFFFFFFFFFFFFFFFFFFFFFFFFFFFFFFFFFFFFFF
310
FFFFFFFFFFFFFFFFFFFFFFFFFFFFFFFFFFFFFFFFFFFFFFFFFFFFFFFFFFFFFFFF
310
FFFFFFFFFFFFFFFFFFFFFFFFFFFFFFFFFFFFFFFFFFFFFFFFFFFFFFFFFFFFFFFF
310
FFFFFFFFFFFFFFFFFFFFFFFFFFFFFFFFFFFFFFFFFFFFFFFFFFFFFFFFFFFFFFFF
310
FFFFFFFFFFFFFFFFFFFFFFFFFFFFFFFFFFFFFFFFFFFFFFFFFFFFFFFFFFFFFFFF
310
FFFFFFFFFFFFFFFFFFFFFFFFFFFFFFFFFFFFFFFFFFFFFFFFFFFFFFFFFFFFFFFF
310
FFFFFFFFFFFFFFFFFFFFFFFFFFFFFFFFFFFFFFFFFFFFFFFFFFFFFFFFFFFFFFFF
310
FFFFFFFFFFFFFFFFFFFFFFFFFFFFFFFFFFFFFFFFFFFFFFFFFFFFFFFFFFFFFFFF
310
FFFFFFFFFFFFFFFFFFFFFFFFFFFFFFFFFFFFFFFFFFFFFFFFFFFFFFFFFFFFFFFF
310
FFFFFFFFFFFFFFFFFFFFFFFFFFFFFFFFFFFFFFFFFFFFFFFFFFFFFFFFFFFFFFFF
310
FFFFFFFFFFFFFFFFFFFFFFFFFFFFFFFFFFFFFFFFFFFFFFFFFFFFFFFFFFFFFFFF
310
FFFFFFFFFFFFFFFFFFFFFFFFFFFFFFFFFFFFFFFFFFFFFFFFFFFFFFFFFFFFFFFF
310
FFFFFFFFFFFFFFFFFFFFFFFFFFFFFFFFFFFFFFFFFFFFFFFFFFFFFFFFFFFFFFFF
310
FFFFFFFFFFFFFFFFFFFFFFFFFFFFFFFFFFFFFFFFFFFFFFFFFFFFFFFFFFFFFFFF
310
FFFFFFFFFFFFFFFFFFFFFFFFFFFFFFFFFFFFFFFFFFFFFFFFFFFFFFFFFFFFFFFF
310
0100000200000000000000000000000000000000000000000000000000000000
310
0000000000000000000000000000000000000000000000000000000000000000
310
0100FEFF030A0000FFFFFFFF0A00030000000000C00000000000004607000000
310
5042727573680007000000504272757368000700000050427275736800F439B2
310
7100000000000000000000000000000000000000000000000000000000000000
310
0000000000000000000000000000000000000000000000000000000000000000
310
0000000000000000000000000000000000000000000000000000000000000000
310
0000000000000000000000000000000000000000000000000000000000000000
310
0000000000000000000000000000000000000000000000000000000000000000
310
0000000000000000000000000000000000000000000000000000000000000000
310
0000000000000000000000000000000000000000000000000000000000000000
310
0000000000000000000000000000000000000000000000000000000000000000
310
0000000000000000000000000000000000000000000000000000000000000000
310
0000000000000000000000000000000000000000000000000000000000000000
310
0000000000000000000000000000000000000000000000000000000000000000
310
0000000000000000000000000000000000000000000000000000000000000000
310
20260000424D0E260000000000003E00000028000000B40200006E0000000100
310
01000000000000000000130B0000130B00000200000002000000000000FFFFFF
310
FFFFFFFFFFFFFFFFFFFFFFFFFFFFFFFFFFFFFFFFFFFFFFFFFFFFFFFFFFFFFFFF
310
FFFFFFFFFFFFFFFFFFFFFFFFFFFFFFFFFFFFFFFFFFFFFFFFFFFFFFFFFFFFFFFF
310
FFFFFFFFFFFFFFFFFFFFFFFFFFFFFFFFFFFFFFFFFFFFFFFFF000FFFFFFFFFFFF
310
FFFFFFFFFFFFFFFFFFFFFFFFFFFFFFFFFFFFFFFFFFFFFFFFFFFFFFFFFFFFFFFF
310
FFFFFFFFFFFFFFFFFFFFFFFFFFFFFFFFFFFFFFFFFFFFFFFFFFFFFFFFFFFFFFFF
310
FFFFFFFFFFFFFFFFFFFFFFFFFFFFFFFFF000FFFFFFFFFFFFFFFFFFFFFFFFFFFF
310
FFFFFFFFFFFFFFFFFFFFFFFFFFFFFFFFFFFFFFFFFFFFFFFFFFFFFFFFFFFFFFFF
310
FFFFFFFFFFFFFFFFFFFFFFFFFFFFFFFFFFFFFFFFFFFFFFFFFFFFFFFFFFFFFFFF
310
FFFFFFFFFFFFFFFFF000FFFFFFFFFFFFFFFFFFFFFFFFFFFFFFFFFFFFFFFFFFFF
310
FFFFFFFFFFFFFFFFFFFFFFFFFFFFFFFFFFFFFFFFFFFFFFFFFFFFFFFFFFFFFFFF
310
FFFFFFFFFFFFFFFFFFFFFFFFFFFFFFFFFFFFFFFFFFFFFFFFFFFFFFFFFFFFFFFF
310
F000FFFFFFFFFFFFFFFFFFFFFFFFFFFFFFFFFFFFFFFFFFFFFFFFFFFFFFFFFFFF
310
FFFFFFFFFFFFFFFFFFFFFFFFFFFFFFFFFFFFFFFFFFFFFFFFFFFFFFFFFFFFFFFF
310
FFFFFFFFFFFFFFFFFFFFFFFFFFFFFFFFFFFFFFFFFFFFFFFFF000FFFFFFFFFFFF
310
FFFFFFFFFFFFFFFFFFFFFFFFFFFFFFFFFFFFFFFFFFFFFFFFFFFFFFFFFFFFFFFF
310
FFFFFFFFFFFFFFFFFFFFFFFFFFFFFFFFFFFFFFFFFFFFFFFFFFFFFFFFFFFFFFFF
310
FFFFFFFFFFFFFFFFFFFFFFFFFFFFFFFFF000FFFFFFFFFFFFFFFFFFFFFFFFFFFF
310
FFFFFFFFFFFFFFFFFFFFFFFFFFFFFFFFFFFFFFFFFFFFFFFFFFFFFFFFFFFFFFFF
310
FFFFFFFFFFFFFFFFFFFFFFFFFFFFFFFFFFFFFFFFFFFFFFFFFFFFFFFFFFFFFFFF
310
FFFFFFFFFFFFFFFFF000FFFFFFFFFFFFFFFFFFFFFFFFFFFFFFFFFFFFFFFFFFFF
310
FFFFFFFFFFFFFFFFFFFFFFFFFFFFFFFFFFFFFFFFFFFFFFFFFFFFFFFFFFFFFFFF
310
FFFFFFFFFFFFFFFFFFFFFFFFFFFFFFFFFFFFFFFFFFFFFFFFFFFFFFFFFFFFFFFF
310
F000FFFFFFFFFFFFFFFFFFFFFFFFFFFFFFFFFFFFFFFFFFFFFFFFFFFFFFFFFFFF
310
FFFFFFFFFFFFFFFFFFFFFFFFFFFFFFFFFFFFFFFFFFFFFFFFFFFFFFFFFFFFFFFF
310
FFFFFFFFFFFFFFFFFFFFFFFFFFFFFFFFFFFFFFFFFFFFFFFFF000FFFFFFFFFFFF
310
FFFFFFFFFFFFFFFFFFFFFFFFFFFFFFFFFFFFFFFFFFFFFFFFFFFFFFFFFFFFFFFF
310
FFFFFFFFFFFFFFFFFFFFFFFFFFFFFFFFFFFFFFFFFFFFFFFFFFFFFFFFFFFFFFFF
310
FFFFFFFFFFFFFFFFFFFFFFFFFFFFFFFFF000FFFFFFFFFFFFFFFFFFFFFFFFFFFF
310
FFFFFFFFFFFFFFFFFFFFFFFFFFFFFFFFFFFFFFFFFFFFFFFFFFFFFFFFFFFFFFFF
310
FFFFFFFFFFFFFFFFFFFFFFFFFFFFFFFFFFFFFFFFFFFFFFFFFFFFFFFFFFFFFFFF
310
FFFFFFFFFFFFFFFFF000FFFFFFFFFFFFFFFFFFFFFFFFFFFFFFFFFFFFFFFFFFFF
310
FFFFFFFFFFFFFFFFFFFFFFFFFFFFFFFFFFFFFFFFFFFFFFFFFFFFFFFFFFFFFFFF
310
FFFFFFFFFFFFFFFFFFFFFFFFFFFFFFFFFFFFFFFFFFFFFFFFFFFFFFFFFFFFFFFF
310
F000FFFFFFFFFFFFFFFFFFFFFFFFFFFFFFFFFFFFFFFFFFFFFFFFFFFFFFFFFFFF
310
FFFFFFFFFFFFFFFFFFFFFFFFFFFFFFFFFFFFFFFFFFFFFFFFFFFFFFFFFFFFFFFF
310
FFFFFFFFFFFFFFFFFFFFFFFFFFFFFFFFFFFFFFFFFFFFFFFFF000FFFFFFFFFFFF
310
FFFFFFFFFFFFFFFFFFFFFFFFFFFFFFFFFFFFFFFFFFFFFFFFFFFFFFFFFFFFFFFF
310
FFFFFFFFFFFFFFFFFFFFFFFFFFFFFFFFFFFFFFFFFFFFFFFFFFFFFFFFFFFFFFFF
310
FFFFFFFFFFFFFFFFFFFFFFFFFFFFFFFFF000FFFFFFFFFFFFFFFFFFFFFFFFFFFF
310
FFFFFFFFFFFFFFFFFFFFFFFFFFFFFFFFFFFFFFFFFFFFFFFFFFFFFFFFFFFFFFFF
310
FFFFFFFFFFFFFFFFFFFFFFFFFFFFFFFFFFFFFFFFFFFFFFFFFFFFFFFFFFFFFFFF
310
FFFFFFFFFFFFFFFFF000FFFFFFFFFFFFFFFFFFFFFFFFFFFFFFFFFFFFFFFFFFFF
310
FFFFFFFFFFFFFFFFFFFFFFFFFFFFFFFFFFFFFFFFFFFFFFFFFFFFFFFFFFFFFFFF
310
FFFFFFFFFFFFFFFFFFFFFFFFFFFFFFFFFFFFFFFFFFFFFFFFFFFFFFFFFFFFFFFF
310
F000FFFFFFFFFFFFFFFFFFFFFFFFFFFFFFFFFFFFFFFFFFFFFFFFFFFFFFFFFFFF
310
FFFFFFFFFFFFFFFFFFFFFFFFFFFFFFFFFFFFFFFFFFFFFFFFFFFFFFFFFFFFFFFF
310
FFFFFFFFFFFFFFFFFFFFFFFFFFFFFFFFFFFFFFFFFFFFFFFFF000FFFFFFFFFFFF
310
FFFFFFFFFFFFFFFFFFFFFFFFFFFFFFFFFFFFFFFFFFFFFFFFFFFFFFFFFFFFFFFF
310
FFFFFFFFFFFFFFFFFFFFFFFFFFFFFFFFFFFFFFFFFFFFFFFFFFFFFFFFFFFFFFFF
310
FFFFFFFFFFFFFFFFFFFFFFFFFFFFFFFFF000FFFFFFFFFFFFFFFFFFFFFFFFFFFF
310
FFFFFFFFFFFFFFFFFFFFFFFFFFFFFFFFFFFFFFFFFFFFFFFFFFFFFFFFFFFFFFFF
310
FFFFFFFFFFFFFFFFFFFFFFFFFFFFFFFFFFFFFFFFFFFFFFFFFFFFFFFFFFFFFFFF
310
FFFFFFFFFFFFFFFFF000FFFFF80003FFFFFFFFFFFFFFFFFFFFFFFFFFFFFFFFFF
310
FFFFF00007FFFFFFFFFF00007FFFFFF800000000000000007FFFFFFFFFFFFFFF
310
FFFFFFFC001FFFFFFFFFFFFFFC001FFFFFFFFFFFFFFFFFFFFFFFFFFE0007FFFF
310
F000FFFF8000007FFFFFFFF8000FFFFFC0007FFFFF80007FFFFF0000007FFFFF
310
FFF8000007FFFFF800000000000000007FFFFFF0001FFFFFFFFFFFC00001FFFF
310
FFFFFFFFC00001FFFFFFFF000000000003FFFFE000007FFFF000FFFE0000000F
310
FFFFFFF0000FFFFF80007FFFFF80007FFFFC0000001FFFFFFFC0000001FFFFF8
310
00000000000000007FFFFFF0001FFFFFFFFFFE0000003FFFFFFFFFFE0000003F
310
FFFFFF000000000003FFFF0000000FFFF000FFF800000003FFFFFFF00007FFFF
310
80007FFFFF80007FFFF000000007FFFFFF000000003FFFF80000000000000000
310
7FFFFFF0001FFFFFFFFFF80000000FFFFFFFFFF80000000FFFFFFF0000000000
310
03FFFC00000003FFF000FFE000000000FFFFFFF00007FFFF80003FFFFF80007F
310
FFC000000001FFFFFC000000001FFFF800000000000000007FFFFFF0001FFFFF
310
FFFFE000000003FFFFFFFFE000000003FFFFFF000000000003FFF000000000FF
310
F000FF80000000007FFFFFF00007FFFF80003FFFFF80007FFF8000000000FFFF
310
F80000000007FFF800000000000000007FFFFFF0001FFFFFFFFFC000000001FF
310
FFFFFFC000000001FFFFFF000000000003FFC0000000007FF000FF0000000000
310
3FFFFFE00007FFFF00003FFFFF80007FFE00000000003FFFF00000000003FFF8
310
00000000000000007FFFFFF0001FFFFFFFFF8000000000FFFFFFFF8000000000
310
FFFFFF000000000003FF80000000003FF000FE00000000001FFFFFE00003FFFF
310
00003FFFFF80007FFC00000000001FFFE00000000001FFF8000001FFFE000000
310
7FFFFFF0001FFFFFFFFE00000000003FFFFFFE00000000003FFFFF0000000000
310
03FF00000000001FF000FC00000000000FFFFFE00003FFFF00001FFFFF80007F
310
F800000000001FFFC00000000000FFF8000001FFFE0000007FFFFFF0001FFFFF
310
FFFC00000000001FFFFFFC00000000001FFFFF000000000003FE00000000000F
310
F000F8000000000007FFFFE00003FFFF00001FFFFF80007FF800000000000FFF
310
800000000000FFF8000001FFFE0000007FFFFFF0001FFFFFFFF800000000000F
310
FFFFF800000000000FFFFF000000000003FC000000000007F000F80000000000
310
03FFFFC00003FFFE00001FFFFF80007FF0000000000007FF0000000000007FF8
310
000001FFFE0000007FFFFFF0001FFFFFFFF0000000000007FFFFF00000000000
310
07FFFF000000000003F8000000000003F000F0000000000003FFFFC00001FFFE
310
00001FFFFF80007FE0000000000007FE0000000000003FF8000001FFFE000000
310
7FFFFFF0001FFFFFFFF0000000000007FFFFF0000000000007FFFF0000000000
310
03F800001F800003F000E00001FFF00001FFFFC00001FFFE00000FFFFF80007F
310
E00001FFE00003FE00001FFF00003FF8000001FFFE0000007FFFFFF0001FFFFF
310
FFE000003E000003FFFFE000003E000003FFFF000000000003F00001FFF80001
310
F000E00007FFFC0001FFFFC00001FFFE00000FFFFF80007FC0000FFFFC0003FC
310
0000FFFFC0001FF8000001FFFE0000007FFFFFF0001FFFFFFFC00003FFE00001
310
FFFFC00003FFE00001FFFF0001FFFFFFFFF00007FFFE0001F000E0000FFFFF00
310
00FFFF800001FFFC00000FFFFF80007FC0001FFFFE0001FC0001FFFFE0001FF8
310
000001FFFE0000007FFFFFF0001FFFFFFF80000FFFF80000FFFF80000FFFF800
310
00FFFF0003FFFFFFFFE0000FFFFF8000F000C0003FFFFF8000FFFF800000FFFC
310
000007FFFF80007F80003FFFFF0001FC0003FFFFF0001FF8000001FFFE000000
310
7FFFFFF0001FFFFFFF80003FFFFE0000FFFF80003FFFFE0000FFFF0003FFFFFF
310
FFE0003FFFFF8000F000C0003FFFFF8000FFFF800000FFFC000007FFFF80007F
310
80007FFFFF8001F80007FFFFF8000FF8000001FFFE0000007FFFFFF0001FFFFF
310
FF00007FFFFF00007FFF00007FFFFF00007FFF0003FFFFFFFFE0003FFFFFC000
310
F000C0007FFFFFC000FFFF000000FFFC000007FFFF80007F8000FFFFFF8000F8
310
000FFFFFF8000FF8000001FFFE0000007FFFFFF0001FFFFFFF0000FFFFFF8000
310
7FFF0000FFFFFF80007FFF0003FFFFFFFFC0007FFFFFC00070008000FFFFFFC0
310
00FFFF000000FFF8000007FFFF80007F8000FFFFFF8000F8000FFFFFF8000FF8
310
000001FFFE0000007FFFFFF0001FFFFFFE0001FFFFFFC0003FFE0001FFFFFFC0
310
003FFF0003FFFFFFFFC0007FFFFFE00070008000FFFFFFC0007FFF0000007FF8
310
000003FFFF80007F0001FFFFFF8000F8000FFFFFF8000FF8000001FFFE000000
310
7FFFFFF0001FFFFFFE0001FFFFFFC0003FFE0001FFFFFFC0003FFF0003FFFFFF
310
FFC000FFFFFFE00070008000FFFFFFC0007FFF0000007FF8000003FFFF80007F
310
0001FFFFFF8000F8001FFFFFF8000FF8000001FFFE0000007FFFFFF0001FFFFF
310
FE0003FFFFFFE0003FFE0003FFFFFFE0003FFF0003FFFFFFFFC000FFFFFFE000
310
70008000FFFFFFC0007FFE0000007FF8000003FFFF80007F0001FFFFFF8000F0
310
001FFFFFF8000FF8000001FFFE0000007FFFFFF0001FFFFFFC0003FFFFFFE000
310
1FFC0003FFFFFFE0001FFF0003FFFFFFFFC000FFFFFFC00070008000FFFFFF80
310
007FFE0000007FF0000003FFFF80007F0001FFFFFF0000F0001FFFFFF8000FF8
310
000001FFFE0000007FFFFFF0001FFFFFFC0007FFFFFFF0001FFC0007FFFFFFF0
310
001FFF0003FFFFFFFFC000FFFFFFC00070008001FFFFFF0000FFFE0000003FF0
310
000001FFFF80007F0001FFFFFF0000F8001FFFFFF0000FF8000001FFFE000000
310
7FFFFFF0001FFFFFFC0007FFFFFFF0001FFC0007FFFFFFF0001FFF0003FFFFFF
310
FFC001FFFFFF80007000FFFFFFFFFE0000FFFE0008003FF0008001FFFF80007F
310
FFFFFFFFFC0000FFFFFFFFFFE0000FF8000001FFFE0000007FFFFFF0001FFFFF
310
F8000FFFFFFFF8000FF8000FFFFFFFF8000FFF0003FFFFFFFFFFFFFFFFFF0000
310
7000FFFFFFFFFC0000FFFC0008003FF0008001FFFF80007FFFFFFFFFF80001FF
310
FFFFFFFF80000FF8000001FFFE0000007FFFFFF0001FFFFFF8000FFFFFFFF800
310
0FF8000FFFFFFFF8000FFF0003FFFFFFFFFFFFFFFFFE0000F000FFFFFFFFE000
310
00FFFC000C003FE000C001FFFF80007FFFFFFFFFC00001FFFFFFFFFE00001FF8
310
000001FFFE0000007FFFFFF0001FFFFFF8000FFFFFFFF8000FF8000FFFFFFFF8
310
000FFF0003FFFFFFFFFFFFFFFFF00000F000FFFFFFFE000001FFFC000C001FE0
310
00C000FFFF80007FFFFFFFFE000001FFFFFFFFE000001FF80FFFFFFFFFFFFFC0
310
7FFFFFF0001FFFFFF8000FFFFFFFF8000FF8000FFFFFFFF8000FFF0003FFFFFF
310
FFFFFFFFFF800000F000FFFFFFC0000001FFFC001C001FE001C000FFFF80007F
310
FFFFFF80000003FFFFFFF80000001FF80FFFFFFFFFFFFFC07FFFFFF0001FFFFF
310
F8001FFFFFFFFC000FF8001FFFFFFFFC000FFF0003FFFFFFFFFFFFFFF0000001
310
F000FFFFF800000001FFF8001C001FE001C000FFFF80007FFFFFF800000003FF
310
FFFF800000003FF80FFFFFFFFFFFFFC07FFFFFF0001FFFFFF8001FFFFFFFFC00
310
0FF8001FFFFFFFFC000FFF0003FFFFFFFFFFFFFE00000001F000FFFFC0000000
310
03FFF8001E001FC001E000FFFF80007FFFFF8000000007FFFFFC000000003FF8
310
0FFFFFFFFFFFFFC07FFFFFF0001FFFFFF8001FFFFFFFFC000FF8001FFFFFFFFC
310
000FFF0003FFFFFFFFFFFFE000000003F000FFFE0000000007FFF8001E000FC0
310
01E0007FFF80007FFFFE0000000007FFFFE0000000007FF80FFFFFFFFFFFFFC0
310
7FFFFFF0001FFFFFF0001FFFFFFFFC0007F0001FFFFFFFFC0007FF0003FFFFFF
310
FFFFFF0000000003F000FFF80000000007FFF8001E000FC003E0007FFF80007F
310
FFF0000000000FFFFF8000000000FFF80FFFFFFFFFFFFFC07FFFFFF0001FFFFF
310
F0001FFFFFFFFC0007F0001FFFFFFFFC0007FF0003FFFFFFFFFFFC0000000007
310
F000FFE0000000000FFFF0003E000FC003E0007FFF80007FFFC0000000001FFF
310
FE0000000001FFF80FFFFFFFFFFFFFC07FFFFFF0001FFFFFF0001FFFFFFFFC00
310
07F0001FFFFFFFFC0007FF0003FFFFFFFFFFF0000000000FF000FFC000000000
310
1FFFF0003F000F8003F0003FFF80007FFF80000000003FFFF80000000003FFF8
310
0FFFFFFFFFFFFFC07FFFFFF0001FFFFFF0001FFFFFFFFC0007F0001FFFFFFFFC
310
0007FF0003FFFFFFFFFFE0000000001FF000FF00000000007FFFF0003F000780
310
03F0003FFF80007FFF00000000007FFFF00000000007FFF80FFFFFFFFFFFFFC0
310
7FFFFFF0001FFFFFF0001FFFFFFFFC0007F0001FFFFFFFFC0007FF0003FFFFFF
310
FFFF80000000007FF000FE0000000000FFFFE0003F00078007F0003FFF80007F
310
FE0000000001FFFFE0000000001FFFF80FFFFFFFFFFFFFC07FFFFFF0001FFFFF
310
F0001FFFFFFFFC0007F0001FFFFFFFFC0007FF0003FFFFFFFFFF0000000000FF
310
F000FC0000000003FFFFE0007F00078007F0003FFF80007FFC0000000007FFFF
310
C0000000007FFFF80FFFFFFFFFFFFFC07FFFFFF0001FFFFFF8001FFFFFFFFC00
310
0FF8001FFFFFFFFC000FFF0003FFFFFFFFFE0000000003FFF000FC000000000F
310
FFFFE0007F80070007F8001FFF80007FF8000000001FFFFF8000000001FFFFF8
310
0FFFFFFFFFFFFFC07FFFFFF0001FFFFFF8001FFFFFFFFC000FF8001FFFFFFFFC
310
000FFF0003FFFFFFFFFC000000000FFFF000F8000000007FFFFFE0007F800700
310
07F8001FFF80007FF000000000FFFFFF800000000FFFFFF80FFFFFFFFFFFFFC0
310
7FFFFFF0001FFFFFF8000FFFFFFFF8000FF8000FFFFFFFF8000FFF0003FFFFFF
310
FFFC000000007FFFF000F800000007FFFFFFC0007F8003000FF8001FFF80007F
310
F000000007FFFFFF000000007FFFFFF80FFFFFFFFFFFFFC07FFFFFF0001FFFFF
310
F8000FFFFFFFF8000FF8000FFFFFFFF8000FFF0003FFFFFFFFF80000000FFFFF
310
F000F0000000FFFFFFFFC000FF8003000FF8001FFF80007FE0000000FFFFFFFF
310
0000000FFFFFFFF8000001FFFE0000007FFFFFF0001FFFFFF8000FFFFFFFF800
310
0FF8000FFFFFFFF8000FFF0003FFFFFFFFF8000000FFFFFFF000F000000FFFFF
310
FFFFC000FFC002000FF8000FFF80007FE000001FFFFFFFFE000001FFFFFFFFF8
310
000001FFFE0000007FFFFFF0001FFFFFF8000FFFFFFFF8000FF8000FFFFFFFF8
310
000FFF0003FFFFFFFFF000001FFFFFFFF000E00000FFFFFFFFFFC000FFC00200
310
0FFC000FFF80007FE00001FFFFFFFFFE00001FFFFFFFFFF8000001FFFE000000
310
7FFFFFF0001FFFFFFC000FFFFFFFF8001FFC000FFFFFFFF8001FFF0003FFFFFF
310
FFF00001FFFFFFFFF000E00007FFFFFFFFFF8000FFC000001FFC000FFF80007F
310
C0000FFFFFFFFFFE0000FFFFFFFFFFF8000001FFFE0000007FFFFFF0001FFFFF
310
FC0007FFFFFFF0001FFC0007FFFFFFF0001FFF0003FFFFFFFFF00007FFFFFFFF
310
F000E0001FFFFFFFFFFF8000FFC000001FFC000FFF80007FC0003FFFFFFFFFFE
310
0001FFFFFFFFFFF8000001FFFE0000007FFFFFF0001FFFFFFC0007FFFFFFF000
310
1FFC0007FFFFFFF0001FFF0003FFFFFFFFF0001FFFFFFFFFF000E0003FFFFF00
310
03FF8001FFE000001FFC0007FF80007FC0007FFFFF0007FC0003FFFFF0003FF8
310
000001FFFE0000007FFFFFF0001FFFFFFC0003FFFFFFE0001FFC0003FFFFFFE0
310
001FFF0003FFFFFFFFF0003FFFFFFFFFF000E0003FFFFF0001FF8001FFE00000
310
1FFE0007FF80007FC0007FFFFE0003FC0007FFFFE0003FF8000001FFFE000000
310
7FFFFFF0001FFFFFFE0003FFFFFFE0003FFE0003FFFFFFE0003FFF0003FFFFFF
310
FFF0003FFFFF8001F000E0003FFFFF0001FF0001FFE000001FFE0007FF80007F
310
C0007FFFFE0003FC0007FFFFE0003FF8000001FFFE0000007FFFFFF0001FFFFF
310
FE0001FFFFFFC0003FFE0001FFFFFFC0003FFF0003FFFFFFFFF0003FFFFF0001
310
F000E0003FFFFF0003FF0001FFE000003FFE0007FF80007FC0007FFFFE0003FC
310
0007FFFFE0003FF8000001FFFE0000007FFFFFF0001FFFFFFF0001FFFFFFC000
310
7FFF0001FFFFFFC0007FFF0003FFFFFFFFF0003FFFFF0001F000E0003FFFFE00
310
03FF0003FFF000003FFE0003FF80007FC0007FFFFC0003FE0007FFFFE0003FF8
310
000001FFFE0000007FFFFFF0001FFFFFFF0000FFFFFF80007FFF0000FFFFFF80
310
007FFF0003FFFFFFFFF0003FFFFF0001F000E0003FFFFE0003FF0003FFF00000
310
3FFF0003FF80007FC0007FFFFC0007FE0007FFFFC0003FF8000001FFFE000000
310
7FFFFFF0001FFFFFFF80007FFFFF0000FFFF80007FFFFF0000FFFF0003FFFFFF
310
FFF0003FFFFF0003F000E0003FFFFC0003FE0003FFF000003FFF0003FF80007F
310
E0003FFFF80007FE0003FFFFC0007FF8000001FFFE0000007FFFFFF0001FFFFF
310
FF80003FFFFE0000FFFF80003FFFFE0000FFFF0003FFFFFFFFF0001FFFFE0003
310
F000F0001FFFF80003FE0003FFF000007FFF0001FF80007FE0003FFFF00007FE
310
0001FFFF80007FF8000001FFFE0000007FFFFFF0001FFFFFFFC0000FFFF80001
310
FFFFC0000FFFF80001FFFF0003FFFFFFFFF0001FFFFC0003F000F0000FFFF000
310
07FE0007FFF800007FFF0001FF80007FE0001FFFE00007FF0000FFFE00007FF8
310
000001FFFE0000007FFFFFF0001FFFFFFFC00003FFE00001FFFFC00003FFE000
310
01FFFF0003FFFFFFFFF8000FFFF80003F000F00003FFC00007FC0007FFF80000
310
7FFF8001FF80007FF00007FF80000FFF00007FF80000FFF8000001FFFE000000
310
7F80000000000001FFE000003E000003FFFFE000003E000003FFFF0003FFFFFF
310
FFF80003FFE00007F000F800000000000FFC0007FFF800007FFF8001FF80007F
310
F000000000000FFF000000000000FFF8000001FFFE0000007F80000000000001
310
FFF0000000000007FFFFF0000000000007FFFF0003FFFFFFFFFC00007E000007
310
F000F800000000000FFC0007FFF80000FFFF8000FF80007FF800000000001FFF
310
800000000001FFF8000001FFFE0000007F80000000000001FFF800000000000F
310
FFFFF800000000000FFFFF0003FFFFFFFFFC00000000000FF000FC0000000000
310
1FFC0007FFFC0000FFFF8000FF80007FF800000000003FFFC00000000001FFF8
310
000001FFFE0000007F80000000000001FFF800000000000FFFFFF80000000000
310
0FFFFF0003FFFFFFFFFE00000000001FF000FE00000000003FF8000FFFFC0000
310
FFFF8000FF80007FFC00000000003FFFC00000000003FFF8000001FFFE000000
310
7F80000000000001FFFC00000000001FFFFFFC00000000001FFFFF0003FFFFFF
310
FFFF00000000001FF000FF00000000003FF8000FFFFC0000FFFFC000FF80007F
310
FE00000000007FFFE00000000007FFF8000001FFFE0000007F80000000000001
310
FFFE00000000003FFFFFFE00000000003FFFFF0003FFFFFFFFFF80000000003F
310
F000FF80000000007FF8000FFFFC0001FFFFC0007F80007FFF0000000000FFFF
310
F0000000000FFFF800000000000000007F80000000000001FFFF8000000000FF
310
FFFFFF8000000000FFFFFF0003FFFFFFFFFFC0000000007FF000FFC000000000
310
FFF8000FFFFE0001FFFFC0007F80007FFF8000000001FFFFF8000000001FFFF8
310
00000000000000007F80000000000001FFFFC000000001FFFFFFFFC000000001
310
FFFFFF0003FFFFFFFFFFE000000000FFF000FFE000000003FFF0001FFFFE0001
310
FFFFC0007F80007FFFC000000007FFFFFE000000003FFFF80000000000000000
310
7F80000000000001FFFFE000000003FFFFFFFFE000000003FFFFFF0003FFFFFF
310
FFFFF000000003FFF000FFF80000000FFFF0001FFFFE0001FFFFE0007F80007F
310
FFF00000000FFFFFFF00000000FFFFF800000000000000007F80000000000001
310
FFFFF80000000FFFFFFFFFF80000000FFFFFFF0003FFFFFFFFFFFC0000000FFF
310
F000FFFE0000003FFFF0001FFFFE0003FFFFE0003F80007FFFFC0000003FFFFF
310
FFC0000003FFFFF800000000000000007F80000000000001FFFFFE0000003FFF
310
FFFFFFFE0000003FFFFFFF0003FFFFFFFFFFFF0000003FFFF000FFFF800000FF
310
FFF0001FFFFF0003FFFFE0003F80007FFFFF000001FFFFFFFFF800001FFFFFF8
310
00000000000000007F80000000000001FFFFFFC00001FFFFFFFFFFFFC00001FF
310
FFFFFF0003FFFFFFFFFFFFC00000FFFFF000FFFFF8000FFFFFFFFFFFFFFFFFFF
310
FFFFFFFFFFFFFFFFFFFFF0001FFFFFFFFFFF0000FFFFFFF80000000000000000
310
7FFFFFFFFFFFFFFFFFFFFFFC001FFFFFFFFFFFFFFC001FFFFFFFFFFFFFFFFFFF
310
FFFFFFFC001FFFFFF000FFFFFFFFFFFFFFFFFFFFFFFFFFFFFFFFFFFFFFFFFFFF
310
FFFFFFFFFFFFFFFFFFFFFFFFFFFFFFFFFFFFFFFFFFFFFFFFFFFFFFFFFFFFFFFF
310
FFFFFFFFFFFFFFFFFFFFFFFFFFFFFFFFFFFFFFFFFFFFFFFFFFFFFFFFFFFFFFFF
310
F000FFFFFFFFFFFFFFFFFFFFFFFFFFFFFFFFFFFFFFFFFFFFFFFFFFFFFFFFFFFF
310
FFFFFFFFFFFFFFFFFFFFFFFFFFFFFFFFFFFFFFFFFFFFFFFFFFFFFFFFFFFFFFFF
310
FFFFFFFFFFFFFFFFFFFFFFFFFFFFFFFFFFFFFFFFFFFFFFFFF000FFFFFFFFFFFF
310
FFFFFFFFFFFFFFFFFFFFFFFFFFFFFFFFFFFFFFFFFFFFFFFFFFFFFFFFFFFFFFFF
310
FFFFFFFFFFFFFFFFFFFFFFFFFFFFFFFFFFFFFFFFFFFFFFFFFFFFFFFFFFFFFFFF
310
FFFFFFFFFFFFFFFFFFFFFFFFFFFFFFFFF000FFFFFFFFFFFFFFFFFFFFFFFFFFFF
310
FFFFFFFFFFFFFFFFFFFFFFFFFFFFFFFFFFFFFFFFFFFFFFFFFFFFFFFFFFFFFFFF
310
FFFFFFFFFFFFFFFFFFFFFFFFFFFFFFFFFFFFFFFFFFFFFFFFFFFFFFFFFFFFFFFF
310
FFFFFFFFFFFFFFFFF000FFFFFFFFFFFFFFFFFFFFFFFFFFFFFFFFFFFFFFFFFFFF
310
FFFFFFFFFFFFFFFFFFFFFFFFFFFFFFFFFFFFFFFFFFFFFFFFFFFFFFFFFFFFFFFF
310
FFFFFFFFFFFFFFFFFFFFFFFFFFFFFFFFFFFFFFFFFFFFFFFFFFFFFFFFFFFFFFFF
310
F000FFFFFFFFFFFFFFFFFFFFFFFFFFFFFFFFFFFFFFFFFFFFFFFFFFFFFFFFFFFF
310
FFFFFFFFFFFFFFFFFFFFFFFFFFFFFFFFFFFFFFFFFFFFFFFFFFFFFFFFFFFFFFFF
310
FFFFFFFFFFFFFFFFFFFFFFFFFFFFFFFFFFFFFFFFFFFFFFFFF000FFFFFFFFFFFF
310
FFFFFFFFFFFFFFFFFFFFFFFFFFFFFFFFFFFFFFFFFFFFFFFFFFFFFFFFFFFFFFFF
310
FFFFFFFFFFFFFFFFFFFFFFFFFFFFFFFFFFFFFFFFFFFFFFFFFFFFFFFFFFFFFFFF
310
FFFFFFFFFFFFFFFFFFFFFFFFFFFFFFFFF000FFFFFFFFFFFFFFFFFFFFFFFFFFFF
310
FFFFFFFFFFFFFFFFFFFFFFFFFFFFFFFFFFFFFFFFFFFFFFFFFFFFFFFFFFFFFFFF
310
FFFFFFFFFFFFFFFFFFFFFFFFFFFFFFFFFFFFFFFFFFFFFFFFFFFFFFFFFFFFFFFF
310
FFFFFFFFFFFFFFFFF000FFFFFFFFFFFFFFFFFFFFFFFFFFFFFFFFFFFFFFFFFFFF
310
FFFFFFFFFFFFFFFFFFFFFFFFFFFFFFFFFFFFFFFFFFFFFFFFFFFFFFFFFFFFFFFF
310
FFFFFFFFFFFFFFFFFFFFFFFFFFFFFFFFFFFFFFFFFFFFFFFFFFFFFFFFFFFFFFFF
310
F000FFFFFFFFFFFFFFFFFFFFFFFFFFFFFFFFFFFFFFFFFFFFFFFFFFFFFFFFFFFF
310
FFFFFFFFFFFFFFFFFFFFFFFFFFFFFFFFFFFFFFFFFFFFFFFFFFFFFFFFFFFFFFFF
310
FFFFFFFFFFFFFFFFFFFFFFFFFFFFFFFFFFFFFFFFFFFFFFFFF000FFFFFFFFFFFF
310
FFFFFFFFFFFFFFFFFFFFFFFFFFFFFFFFFFFFFFFFFFFFFFFFFFFFFFFFFFFFFFFF
310
FFFFFFFFFFFFFFFFFFFFFFFFFFFFFFFFFFFFFFFFFFFFFFFFFFFFFFFFFFFFFFFF
310
FFFFFFFFFFFFFFFFFFFFFFFFFFFFFFFFF000FFFFFFFFFFFFFFFFFFFFFFFFFFFF
310
FFFFFFFFFFFFFFFFFFFFFFFFFFFFFFFFFFFFFFFFFFFFFFFFFFFFFFFFFFFFFFFF
310
FFFFFFFFFFFFFFFFFFFFFFFFFFFFFFFFFFFFFFFFFFFFFFFFFFFFFFFFFFFFFFFF
310
FFFFFFFFFFFFFFFFF000FFFFFFFFFFFFFFFFFFFFFFFFFFFFFFFFFFFFFFFFFFFF
310
FFFFFFFFFFFFFFFFFFFFFFFFFFFFFFFFFFFFFFFFFFFFFFFFFFFFFFFFFFFFFFFF
310
FFFFFFFFFFFFFFFFFFFFFFFFFFFFFFFFFFFFFFFFFFFFFFFFFFFFFFFFFFFFFFFF
310
F000FFFFFFFFFFFFFFFFFFFFFFFFFFFFFFFFFFFFFFFFFFFFFFFFFFFFFFFFFFFF
310
FFFFFFFFFFFFFFFFFFFFFFFFFFFFFFFFFFFFFFFFFFFFFFFFFFFFFFFFFFFFFFFF
310
FFFFFFFFFFFFFFFFFFFFFFFFFFFFFFFFFFFFFFFFFFFFFFFFF000FFFFFFFFFFFF
310
FFFFFFFFFFFFFFFFFFFFFFFFFFFFFFFFFFFFFFFFFFFFFFFFFFFFFFFFFFFFFFFF
310
FFFFFFFFFFFFFFFFFFFFFFFFFFFFFFFFFFFFFFFFFFFFFFFFFFFFFFFFFFFFFFFF
310
FFFFFFFFFFFFFFFFFFFFFFFFFFFFFFFFF000FFFFFFFFFFFFFFFFFFFFFFFFFFFF
310
FFFFFFFFFFFFFFFFFFFFFFFFFFFFFFFFFFFFFFFFFFFFFFFFFFFFFFFFFFFFFFFF
310
FFFFFFFFFFFFFFFFFFFFFFFFFFFFFFFFFFFFFFFFFFFFFFFFFFFFFFFFFFFFFFFF
310
FFFFFFFFFFFFFFFFF000FFFFFFFFFFFFFFFFFFFFFFFFFFFFFFFFFFFFFFFFFFFF
310
FFFFFFFFFFFFFFFFFFFFFFFFFFFFFFFFFFFFFFFFFFFFFFFFFFFFFFFFFFFFFFFF
310
FFFFFFFFFFFFFFFFFFFFFFFFFFFFFFFFFFFFFFFFFFFFFFFFFFFFFFFFFFFFFFFF
310
F000FFFFFFFFFFFFFFFFFFFFFFFFFFFFFFFFFFFFFFFFFFFFFFFFFFFFFFFFFFFF
310
FFFFFFFFFFFFFFFFFFFFFFFFFFFFFFFFFFFFFFFFFFFFFFFFFFFFFFFFFFFFFFFF
310
FFFFFFFFFFFFFFFFFFFFFFFFFFFFFFFFFFFFFFFFFFFFFFFFF000FFFFFFFFFFFF
310
FFFFFFFFFFFFFFFFFFFFFFFFFFFFFFFFFFFFFFFFFFFFFFFFFFFFFFFFFFFFFFFF
310
FFFFFFFFFFFFFFFFFFFFFFFFFFFFFFFFFFFFFFFFFFFFFFFFFFFFFFFFFFFFFFFF
310
FFFFFFFFFFFFFFFFFFFFFFFFFFFFFFFFF000FFFFFFFFFFFFFFFFFFFFFFFFFFFF
310
FFFFFFFFFFFFFFFFFFFFFFFFFFFFFFFFFFFFFFFFFFFFFFFFFFFFFFFFFFFFFFFF
310
FFFFFFFFFFFFFFFFFFFFFFFFFFFFFFFFFFFFFFFFFFFFFFFFFFFFFFFFFFFFFFFF
310
FFFFFFFFFFFFFFFFF000FFFFFFFFFFFFFFFFFFFFFFFFFFFFFFFFFFFFFFFFFFFF
310
FFFFFFFFFFFFFFFFFFFFFFFFFFFFFFFFFFFFFFFFFFFFFFFFFFFFFFFFFFFFFFFF
310
FFFFFFFFFFFFFFFFFFFFFFFFFFFFFFFFFFFFFFFFFFFFFFFFFFFFFFFFFFFFFFFF
310
F000FFFFFFFFFFFFFFFFFFFFFFFFFFFFFFFFFFFFFFFFFFFFFFFFFFFFFFFFFFFF
310
FFFFFFFFFFFFFFFFFFFFFFFFFFFFFFFFFFFFFFFFFFFFFFFFFFFFFFFFFFFFFFFF
310
FFFFFFFFFFFFFFFFFFFFFFFFFFFFFFFFFFFFFFFFFFFFFFFFF000FFFFFFFFFFFF
310
FFFFFFFFFFFFFFFFFFFFFFFFFFFFFFFFFFFFFFFFFFFFFFFFFFFFFFFFFFFFFFFF
310
FFFFFFFFFFFFFFFFFFFFFFFFFFFFFFFFFFFFFFFFFFFFFFFFFFFFFFFFFFFFFFFF
310
FFFFFFFFFFFFFFFFFFFFFFFFFFFFFFFFF0000000000000000000000000000000
310
0000000000000000000000000000000000000000000000000000000000000000
310
0000000000000000000000000000000000000000000000000000000000000000
310
0000000000000000000000000000000000000000000000000000000000000000
310
0000000000000000000000000000000000000000000000000000000000000000
310
0000000000000000000000000000000000000000000000000000000000000000
310
0000000000000000000000000000000000000000000000000000000000000000
310
0000000000000000000000000000000000000000000000000000000000000000
310
0000000000000000000000000000000000000000000000000000000000000000
310
0000000000000000000000000000000000000000000000000000000000000000
310
0000000000000000000000000000000000000000000000000000000000000000
310
0000000000000000000000000000000000000000000000000000000000000000
310
0000000000000000000000000000000000000000000000000000000000000000
310
0000000000000000000000000000000000000000000000000000000000000000
310
0000000000000000000000000000000000000000000000000000000000000000
310
0000000000000000000000000000000000000000000000000000000000000000
  1
OLE
  0
ENDSEC
  0
SECTION
  2
OBJECTS
  0
DICTIONARY
  5
C
330
0
100
AcDbDictionary
281
     1
  3
ACAD_GROUP
350
D
  3
ACAD_LAYOUT
350
1A
  3
ACAD_MLINESTYLE
350
17
  3
ACAD_PLOTSETTINGS
350
19
  3
ACAD_PLOTSTYLENAME
350
E
  3
ACAD_SCALELIST
350
47
  0
DICTIONARY
  5
D
102
{ACAD_REACTORS
330
C
102
}
330
C
100
AcDbDictionary
281
     1
  0
DICTIONARY
  5
1A
102
{ACAD_REACTORS
330
C
102
}
330
C
100
AcDbDictionary
281
     1
  3
Layout1
350
1E
  3
Layout2
350
26
  3
Model
350
22
  0
DICTIONARY
  5
17
102
{ACAD_REACTORS
330
C
102
}
330
C
100
AcDbDictionary
281
     1
  3
Standard
350
18
  0
DICTIONARY
  5
19
102
{ACAD_REACTORS
330
C
102
}
330
C
100
AcDbDictionary
281
     1
  0
ACDBDICTIONARYWDFLT
  5
E
102
{ACAD_REACTORS
330
C
102
}
330
C
100
AcDbDictionary
281
     1
  3
Normal
350
F
100
AcDbDictionaryWithDefault
340
F
  0
DICTIONARY
  5
47
102
{ACAD_REACTORS
330
C
102
}
330
C
100
AcDbDictionary
281
     1
  3
A0
350
48
  3
A1
350
49
  3
A2
350
4A
  3
A3
350
4B
  3
A4
350
4C
  3
A5
350
4D
  3
A6
350
4E
  3
A7
350
4F
  3
A8
350
50
  3
A9
350
51
  3
B0
350
52
  3
B1
350
53
  3
B2
350
54
  3
B3
350
55
  3
B4
350
56
  3
B5
350
57
  3
B6
350
58
  3
B7
350
59
  3
B8
350
5A
  3
B9
350
5B
  3
C0
350
5C
  3
C1
350
5D
  3
C2
350
5E
  3
C3
350
5F
  3
C4
350
60
  3
C5
350
61
  3
C6
350
62
  3
C7
350
63
  3
C8
350
64
  3
C9
350
65
  3
D0
350
66
  3
D1
350
67
  3
D2
350
68
  0
LAYOUT
  5
1E
102
{ACAD_REACTORS
330
1A
102
}
330
1A
100
AcDbPlotSettings
  1

  2
none_device
  4

  6

 40
0.0
 41
0.0
 42
0.0
 43
0.0
 44
0.0
 45
0.0
 46
0.0
 47
0.0
 48
0.0
 49
0.0
140
0.0
141
0.0
142
1.0
143
1.0
 70
   688
 72
     1
 73
     0
 74
     5
  7

 75
    16
147
1.0
148
0.0
149
0.0
100
AcDbLayout
  1
Layout1
 70
     1
 71
     1
 10
0.0
 20
0.0
 11
420.0
 21
297.0
 12
0.0
 22
0.0
 32
0.0
 14
1.0000000000E+20
 24
1.0000000000E+20
 34
1.0000000000E+20
 15
-1.0000000000E+20
 25
-1.0000000000E+20
 35
-1.0000000000E+20
146
0.0
 13
0.0
 23
0.0
 33
0.0
 16
1.0
 26
0.0
 36
0.0
 17
0.0
 27
1.0
 37
0.0
 76
     0
330
1B
  0
LAYOUT
  5
26
102
{ACAD_REACTORS
330
1A
102
}
330
1A
100
AcDbPlotSettings
  1

  2
none_device
  4

  6

 40
0.0
 41
0.0
 42
0.0
 43
0.0
 44
0.0
 45
0.0
 46
0.0
 47
0.0
 48
0.0
 49
0.0
140
0.0
141
0.0
142
1.0
143
1.0
 70
   688
 72
     1
 73
     0
 74
     5
  7

 75
    16
147
1.0
148
0.0
149
0.0
100
AcDbLayout
  1
Layout2
 70
     1
 71
     2
 10
0.0
 20
0.0
 11
0.0
 21
0.0
 12
0.0
 22
0.0
 32
0.0
 14
0.0
 24
0.0
 34
0.0
 15
0.0
 25
0.0
 35
0.0
146
0.0
 13
0.0
 23
0.0
 33
0.0
 16
1.0
 26
0.0
 36
0.0
 17
0.0
 27
1.0
 37
0.0
 76
     0
330
23
  0
LAYOUT
  5
22
102
{ACAD_REACTORS
330
1A
102
}
330
1A
100
AcDbPlotSettings
  1

  2
none_device
  4
Letter_(8.50_x_11.00_Inches)
  6

 40
6.35
 41
6.35
 42
6.35000508
 43
6.35000508
 44
215.9
 45
279.4
 46
0.0
 47
0.0
 48
0.0
 49
0.0
140
0.0
141
0.0
142
1.0
143
1.0
 70
  1712
 72
     1
 73
     0
 74
     0
  7

 75
     0
147
1.0
148
0.0
149
0.0
100
AcDbLayout
  1
Model
 70
     1
 71
     0
 10
0.0
 20
0.0
 11
297.0
 21
210.0
 12
0.0
 22
0.0
 32
0.0
 14
0.0
 24
0.0
 34
0.0
 15
297.0
 25
210.0
 35
0.0
146
0.0
 13
0.0
 23
0.0
 33
0.0
 16
1.0
 26
0.0
 36
0.0
 17
0.0
 27
1.0
 37
0.0
 76
     0
330
1F
331
29
  0
MLINESTYLE
  5
18
102
{ACAD_REACTORS
330
17
102
}
330
17
100
AcDbMlineStyle
  2
Standard
 70
     0
  3

 62
   256
 51
90.0
 52
90.0
 71
     2
 49
0.5
 62
   256
  6
BYLAYER
 49
-0.5
 62
   256
  6
BYLAYER
  0
ACDBPLACEHOLDER
  5
F
102
{ACAD_REACTORS
330
E
102
}
330
E
  0
SCALE
  5
48
102
{ACAD_REACTORS
330
47
102
}
330
47
100
AcDbScale
 70
     0
300
1:1
140
1.0
141
1.0
290
     1
  0
SCALE
  5
49
102
{ACAD_REACTORS
330
47
102
}
330
47
100
AcDbScale
 70
     0
300
1:2
140
1.0
141
2.0
290
     0
  0
SCALE
  5
4A
102
{ACAD_REACTORS
330
47
102
}
330
47
100
AcDbScale
 70
     0
300
1:4
140
1.0
141
4.0
290
     0
  0
SCALE
  5
4B
102
{ACAD_REACTORS
330
47
102
}
330
47
100
AcDbScale
 70
     0
300
1:5
140
1.0
141
5.0
290
     0
  0
SCALE
  5
4C
102
{ACAD_REACTORS
330
47
102
}
330
47
100
AcDbScale
 70
     0
300
1:8
140
1.0
141
8.0
290
     0
  0
SCALE
  5
4D
102
{ACAD_REACTORS
330
47
102
}
330
47
100
AcDbScale
 70
     0
300
1:10
140
1.0
141
10.0
290
     0
  0
SCALE
  5
4E
102
{ACAD_REACTORS
330
47
102
}
330
47
100
AcDbScale
 70
     0
300
1:16
140
1.0
141
16.0
290
     0
  0
SCALE
  5
4F
102
{ACAD_REACTORS
330
47
102
}
330
47
100
AcDbScale
 70
     0
300
1:20
140
1.0
141
20.0
290
     0
  0
SCALE
  5
50
102
{ACAD_REACTORS
330
47
102
}
330
47
100
AcDbScale
 70
     0
300
1:30
140
1.0
141
30.0
290
     0
  0
SCALE
  5
51
102
{ACAD_REACTORS
330
47
102
}
330
47
100
AcDbScale
 70
     0
300
1:40
140
1.0
141
40.0
290
     0
  0
SCALE
  5
52
102
{ACAD_REACTORS
330
47
102
}
330
47
100
AcDbScale
 70
     0
300
1:50
140
1.0
141
50.0
290
     0
  0
SCALE
  5
53
102
{ACAD_REACTORS
330
47
102
}
330
47
100
AcDbScale
 70
     0
300
1:100
140
1.0
141
100.0
290
     0
  0
SCALE
  5
54
102
{ACAD_REACTORS
330
47
102
}
330
47
100
AcDbScale
 70
     0
300
2:1
140
2.0
141
1.0
290
     0
  0
SCALE
  5
55
102
{ACAD_REACTORS
330
47
102
}
330
47
100
AcDbScale
 70
     0
300
4:1
140
4.0
141
1.0
290
     0
  0
SCALE
  5
56
102
{ACAD_REACTORS
330
47
102
}
330
47
100
AcDbScale
 70
     0
300
8:1
140
8.0
141
1.0
290
     0
  0
SCALE
  5
57
102
{ACAD_REACTORS
330
47
102
}
330
47
100
AcDbScale
 70
     0
300
10:1
140
10.0
141
1.0
290
     0
  0
SCALE
  5
58
102
{ACAD_REACTORS
330
47
102
}
330
47
100
AcDbScale
 70
     0
300
100:1
140
100.0
141
1.0
290
     0
  0
SCALE
  5
59
102
{ACAD_REACTORS
330
47
102
}
330
47
100
AcDbScale
 70
     0
300
1/128" = 1'-0"
140
0.0078125
141
12.0
290
     0
  0
SCALE
  5
5A
102
{ACAD_REACTORS
330
47
102
}
330
47
100
AcDbScale
 70
     0
300
1/64" = 1'-0"
140
0.015625
141
12.0
290
     0
  0
SCALE
  5
5B
102
{ACAD_REACTORS
330
47
102
}
330
47
100
AcDbScale
 70
     0
300
1/32" = 1'-0"
140
0.03125
141
12.0
290
     0
  0
SCALE
  5
5C
102
{ACAD_REACTORS
330
47
102
}
330
47
100
AcDbScale
 70
     0
300
1/16" = 1'-0"
140
0.0625
141
12.0
290
     0
  0
SCALE
  5
5D
102
{ACAD_REACTORS
330
47
102
}
330
47
100
AcDbScale
 70
     0
300
3/32" = 1'-0"
140
0.09375
141
12.0
290
     0
  0
SCALE
  5
5E
102
{ACAD_REACTORS
330
47
102
}
330
47
100
AcDbScale
 70
     0
300
1/8" = 1'-0"
140
0.125
141
12.0
290
     0
  0
SCALE
  5
5F
102
{ACAD_REACTORS
330
47
102
}
330
47
100
AcDbScale
 70
     0
300
3/16" = 1'-0"
140
0.1875
141
12.0
290
     0
  0
SCALE
  5
60
102
{ACAD_REACTORS
330
47
102
}
330
47
100
AcDbScale
 70
     0
300
1/4" = 1'-0"
140
0.25
141
12.0
290
     0
  0
SCALE
  5
61
102
{ACAD_REACTORS
330
47
102
}
330
47
100
AcDbScale
 70
     0
300
3/8" = 1'-0"
140
0.375
141
12.0
290
     0
  0
SCALE
  5
62
102
{ACAD_REACTORS
330
47
102
}
330
47
100
AcDbScale
 70
     0
300
1/2" = 1'-0"
140
0.5
141
12.0
290
     0
  0
SCALE
  5
63
102
{ACAD_REACTORS
330
47
102
}
330
47
100
AcDbScale
 70
     0
300
3/4" = 1'-0"
140
0.75
141
12.0
290
     0
  0
SCALE
  5
64
102
{ACAD_REACTORS
330
47
102
}
330
47
100
AcDbScale
 70
     0
300
1" = 1'-0"
140
1.0
141
12.0
290
     0
  0
SCALE
  5
65
102
{ACAD_REACTORS
330
47
102
}
330
47
100
AcDbScale
 70
     0
300
1-1/2" = 1'-0"
140
1.5
141
12.0
290
     0
  0
SCALE
  5
66
102
{ACAD_REACTORS
330
47
102
}
330
47
100
AcDbScale
 70
     0
300
3" = 1'-0"
140
3.0
141
12.0
290
     0
  0
SCALE
  5
67
102
{ACAD_REACTORS
330
47
102
}
330
47
100
AcDbScale
 70
     0
300
6" = 1'-0"
140
6.0
141
12.0
290
     0
  0
SCALE
  5
68
102
{ACAD_REACTORS
330
47
102
}
330
47
100
AcDbScale
 70
     0
300
1'-0" = 1'-0"
140
12.0
141
12.0
290
     0
  0
ENDSEC
  0
EOF
