  0
SECTION
  2
HEADER
  9
$ACADVER
  1
AC1015
  9
$ACADMAINTVER
 70
     6
  9
$DWGCODEPAGE
  3
ANSI_1252
  9
$INSBASE
 10
0.0
 20
0.0
 30
0.0
  9
$EXTMIN
 10
0.0
 20
0.0
 30
0.0
  9
$EXTMAX
 10
297.0
 20
210.0
 30
0.0
  9
$LIMMIN
 10
0.0
 20
0.0
  9
$LIMMAX
 10
297.0
 20
210.0
  9
$ORTHOMODE
 70
     0
  9
$REGENMODE
 70
     1
  9
$FILLMODE
 70
     1
  9
$QTEXTMODE
 70
     0
  9
$MIRRTEXT
 70
     1
  9
$LTSCALE
 40
1.0
  9
$ATTMODE
 70
     1
  9
$TEXTSIZE
 40
2.0
  9
$TRACEWID
 40
1.0
  9
$TEXTSTYLE
  7
Standard
  9
$CLAYER
  8
0
  9
$CELTYPE
  6
ByLayer
  9
$CECOLOR
 62
   256
  9
$CELTSCALE
 40
1.0
  9
$DISPSILH
 70
     0
  9
$DIMSCALE
 40
1.0
  9
$DIMASZ
 40
3.0
  9
$DIMEXO
 40
0.0
  9
$DIMDLI
 40
3.75
  9
$DIMRND
 40
0.0
  9
$DIMDLE
 40
0.0
  9
$DIMEXE
 40
1.0
  9
$DIMTP
 40
0.0
  9
$DIMTM
 40
0.0
  9
$DIMTXT
 40
2.0
  9
$DIMCEN
 40
2.5
  9
$DIMTSZ
 40
0.0
  9
$DIMTOL
 70
     0
  9
$DIMLIM
 70
     0
  9
$DIMTIH
 70
     1
  9
$DIMTOH
 70
     1
  9
$DIMSE1
 70
     0
  9
$DIMSE2
 70
     0
  9
$DIMTAD
 70
     1
  9
$DIMZIN
 70
     0
  9
$DIMBLK
  1

  9
$DIMASO
 70
     1
  9
$DIMSHO
 70
     1
  9
$DIMPOST
  1

  9
$DIMAPOST
  1

  9
$DIMALT
 70
     0
  9
$DIMALTD
 70
     3
  9
$DIMALTF
 40
0.0393700787
  9
$DIMLFAC
 40
1.0
  9
$DIMTOFL
 70
     1
  9
$DIMTVP
 40
0.0
  9
$DIMTIX
 70
     0
  9
$DIMSOXD
 70
     0
  9
$DIMSAH
 70
     0
  9
$DIMBLK1
  1

  9
$DIMBLK2
  1

  9
$DIMSTYLE
  2
ISO-25
  9
$DIMCLRD
 70
     0
  9
$DIMCLRE
 70
     0
  9
$DIMCLRT
 70
     0
  9
$DIMTFAC
 40
1.0
  9
$DIMGAP
 40
1.524
  9
$DIMJUST
 70
     0
  9
$DIMSD1
 70
     0
  9
$DIMSD2
 70
     0
  9
$DIMTOLJ
 70
     0
  9
$DIMTZIN
 70
     0
  9
$DIMALTZ
 70
     0
  9
$DIMALTTZ
 70
     0
  9
$DIMUPT
 70
     0
  9
$DIMDEC
 70
     2
  9
$DIMTDEC
 70
     3
  9
$DIMALTU
 70
     2
  9
$DIMALTTD
 70
     3
  9
$DIMTXSTY
  7
Standard
  9
$DIMAUNIT
 70
     0
  9
$DIMADEC
 70
     2
  9
$DIMALTRND
 40
0.0
  9
$DIMAZIN
 70
     0
  9
$DIMDSEP
 70
    44
  9
$DIMATFIT
 70
     3
  9
$DIMFRAC
 70
     0
  9
$DIMLDRBLK
  1

  9
$DIMLUNIT
 70
     2
  9
$DIMLWD
 70
    -2
  9
$DIMLWE
 70
    -2
  9
$DIMTMOVE
 70
     0
  9
$LUNITS
 70
     2
  9
$LUPREC
 70
     2
  9
$SKETCHINC
 40
1.0
  9
$FILLETRAD
 40
10.0
  9
$AUNITS
 70
     0
  9
$AUPREC
 70
     2
  9
$MENU
  1
.
  9
$ELEVATION
 40
0.0
  9
$PELEVATION
 40
0.0
  9
$THICKNESS
 40
0.0
  9
$LIMCHECK
 70
     0
  9
$CHAMFERA
 40
0.0
  9
$CHAMFERB
 40
0.0
  9
$CHAMFERC
 40
0.0
  9
$CHAMFERD
 40
0.0
  9
$SKPOLY
 70
     0
  9
$TDCREATE
 40
2457632.44904647
  9
$TDUCREATE
 40
2457632.365713137
  9
$TDUPDATE
 40
2457632.449047755
  9
$TDUUPDATE
 40
2457632.365714421
  9
$TDINDWG
 40
0.0000000116
  9
$TDUSRTIMER
 40
0.0000000116
  9
$USRTIMER
 70
     1
  9
$ANGBASE
 50
0.0
  9
$ANGDIR
 70
     0
  9
$PDMODE
 70
     0
  9
$PDSIZE
 40
-1.0
  9
$PLINEWID
 40
0.0
  9
$SPLFRAME
 70
     0
  9
$SPLINETYPE
 70
     6
  9
$SPLINESEGS
 70
     8
  9
$HANDSEED
  5
2E5
  9
$SURFTAB1
 70
     6
  9
$SURFTAB2
 70
     6
  9
$SURFTYPE
 70
     6
  9
$SURFU
 70
     6
  9
$SURFV
 70
     6
  9
$UCSBASE
  2

  9
$UCSNAME
  2

  9
$UCSORG
 10
0.0
 20
0.0
 30
0.0
  9
$UCSXDIR
 10
1.0
 20
0.0
 30
0.0
  9
$UCSYDIR
 10
0.0
 20
1.0
 30
0.0
  9
$UCSORTHOREF
  2

  9
$UCSORTHOVIEW
 70
     0
  9
$UCSORGTOP
 10
0.0
 20
0.0
 30
0.0
  9
$UCSORGBOTTOM
 10
0.0
 20
0.0
 30
0.0
  9
$UCSORGLEFT
 10
0.0
 20
0.0
 30
0.0
  9
$UCSORGRIGHT
 10
0.0
 20
0.0
 30
0.0
  9
$UCSORGFRONT
 10
0.0
 20
0.0
 30
0.0
  9
$UCSORGBACK
 10
0.0
 20
0.0
 30
0.0
  9
$PUCSBASE
  2

  9
$PUCSNAME
  2

  9
$PUCSORG
 10
0.0
 20
0.0
 30
0.0
  9
$PUCSXDIR
 10
1.0
 20
0.0
 30
0.0
  9
$PUCSYDIR
 10
0.0
 20
1.0
 30
0.0
  9
$PUCSORTHOREF
  2

  9
$PUCSORTHOVIEW
 70
     0
  9
$PUCSORGTOP
 10
0.0
 20
0.0
 30
0.0
  9
$PUCSORGBOTTOM
 10
0.0
 20
0.0
 30
0.0
  9
$PUCSORGLEFT
 10
0.0
 20
0.0
 30
0.0
  9
$PUCSORGRIGHT
 10
0.0
 20
0.0
 30
0.0
  9
$PUCSORGFRONT
 10
0.0
 20
0.0
 30
0.0
  9
$PUCSORGBACK
 10
0.0
 20
0.0
 30
0.0
  9
$USERI1
 70
     0
  9
$USERI2
 70
     0
  9
$USERI3
 70
     0
  9
$USERI4
 70
     0
  9
$USERI5
 70
     0
  9
$USERR1
 40
0.0
  9
$USERR2
 40
0.0
  9
$USERR3
 40
0.0
  9
$USERR4
 40
0.0
  9
$USERR5
 40
0.0
  9
$WORLDVIEW
 70
     1
  9
$SHADEDGE
 70
     3
  9
$SHADEDIF
 70
    70
  9
$TILEMODE
 70
     1
  9
$MAXACTVP
 70
    64
  9
$PINSBASE
 10
0.0
 20
0.0
 30
0.0
  9
$PLIMCHECK
 70
     0
  9
$PEXTMIN
 10
1.0000000000E+20
 20
1.0000000000E+20
 30
1.0000000000E+20
  9
$PEXTMAX
 10
-1.0000000000E+20
 20
-1.0000000000E+20
 30
-1.0000000000E+20
  9
$PLIMMIN
 10
0.0
 20
0.0
  9
$PLIMMAX
 10
420.0
 20
297.0
  9
$UNITMODE
 70
     0
  9
$VISRETAIN
 70
     1
  9
$PLINEGEN
 70
     0
  9
$PSLTSCALE
 70
     1
  9
$TREEDEPTH
 70
  3020
  9
$CMLSTYLE
  2
Standard
  9
$CMLJUST
 70
     0
  9
$CMLSCALE
 40
20.0
  9
$PROXYGRAPHICS
 70
     1
  9
$MEASUREMENT
 70
     1
  9
$CELWEIGHT
370
    -1
  9
$ENDCAPS
280
     0
  9
$JOINSTYLE
280
     0
  9
$LWDISPLAY
290
     1
  9
$INSUNITS
 70
     4
  9
$HYPERLINKBASE
  1

  9
$STYLESHEET
  1

  9
$XEDIT
290
     1
  9
$CEPSNTYPE
380
     0
  9
$PSTYLEMODE
290
     1
  9
$FINGERPRINTGUID
  2
{3258C56F-22C9-4056-9C92-A582D5E30B1D}
  9
$VERSIONGUID
  2
{FAEB1C32-E019-11D5-929B-00C0DF256EC4}
  9
$EXTNAMES
290
     1
  9
$PSVPSCALE
 40
0.0
  9
$OLESTARTUP
290
     0
  0
ENDSEC
  0
SECTION
  2
CLASSES
  0
CLASS
  1
ACDBDICTIONARYWDFLT
  2
AcDbDictionaryWithDefault
  3
ObjectDBX Classes
 90
        0
280
     0
281
     0
  0
CLASS
  1
VISUALSTYLE
  2
AcDbVisualStyle
  3
ObjectDBX Classes
 90
     4095
280
     0
281
     0
  0
CLASS
  1
MATERIAL
  2
AcDbMaterial
  3
ObjectDBX Classes
 90
     1153
280
     0
281
     0
  0
CLASS
  1
SCALE
  2
AcDbScale
  3
ObjectDBX Classes
 90
     1153
280
     0
281
     0
  0
CLASS
  1
TABLESTYLE
  2
AcDbTableStyle
  3
ObjectDBX Classes
 90
     4095
280
     0
281
     0
  0
CLASS
  1
MLEADERSTYLE
  2
AcDbMLeaderStyle
  3
ACDB_MLEADERSTYLE_CLASS
 90
     4095
280
     0
281
     0
  0
CLASS
  1
SUN
  2
AcDbSun
  3
SCENEOE
 90
     1153
280
     0
281
     0
  0
CLASS
  1
ACDBPLACEHOLDER
  2
AcDbPlaceHolder
  3
ObjectDBX Classes
 90
        0
280
     0
281
     0
  0
CLASS
  1
LAYOUT
  2
AcDbLayout
  3
ObjectDBX Classes
 90
        0
280
     0
281
     0
  0
ENDSEC
  0
SECTION
  2
TABLES
  0
TABLE
  2
VPORT
  5
8
330
0
100
AcDbSymbolTable
 70
     1
  0
VPORT
  5
29
330
8
100
AcDbSymbolTableRecord
100
AcDbViewportTableRecord
  2
*Active
 70
     0
 10
0.0
 20
0.0
 11
1.0
 21
1.0
 12
148.5
 22
105.0
 13
0.0
 23
0.0
 14
10.0
 24
10.0
 15
10.0
 25
10.0
 16
0.0
 26
0.0
 36
1.0
 17
0.0
 27
0.0
 37
0.0
 40
210.0
 41
1.4142857143
 42
50.0
 43
0.0
 44
0.0
 50
0.0
 51
0.0
 71
     0
 72
  2000
 73
     1
 74
     3
 75
     0
 76
     0
 77
     0
 78
     0
281
     0
 65
     1
110
0.0
120
0.0
130
0.0
111
1.0
121
0.0
131
0.0
112
0.0
122
1.0
132
0.0
 79
     0
146
0.0
  0
ENDTAB
  0
TABLE
  2
LTYPE
  5
5
330
0
100
AcDbSymbolTable
 70
     6
  0
LTYPE
  5
14
330
5
100
AcDbSymbolTableRecord
100
AcDbLinetypeTableRecord
  2
ByBlock
 70
     0
  3

 72
    65
 73
     0
 40
0.0
  0
LTYPE
  5
15
330
5
100
AcDbSymbolTableRecord
100
AcDbLinetypeTableRecord
  2
ByLayer
 70
     0
  3

 72
    65
 73
     0
 40
0.0
  0
LTYPE
  5
16
330
5
100
AcDbSymbolTableRecord
100
AcDbLinetypeTableRecord
  2
Continuous
 70
     0
  3
Solid line
 72
    65
 73
     0
 40
0.0
  0
LTYPE
  5
6E
330
5
100
AcDbSymbolTableRecord
100
AcDbLinetypeTableRecord
  2
HIDDEN
 70
     0
  3
Hidden __ __ __ __ __ __ __ __ __ __ __ __ __ __
 72
    65
 73
     2
 40
1.905
 49
1.27
 74
     0
 49
-0.635
 74
     0
  0
LTYPE
  5
6F
330
5
100
AcDbSymbolTableRecord
100
AcDbLinetypeTableRecord
  2
PHANTOM
 70
     0
  3
Phantom ______  __  __  ______  __  __  ______
 72
    65
 73
     6
 40
12.7
 49
6.35
 74
     0
 49
-1.27
 74
     0
 49
1.27
 74
     0
 49
-1.27
 74
     0
 49
1.27
 74
     0
 49
-1.27
 74
     0
  0
LTYPE
  5
70
330
5
100
AcDbSymbolTableRecord
100
AcDbLinetypeTableRecord
  2
CENTER
 70
     0
  3
Center ____ _ ____ _ ____ _ ____ _ ____ _ ____
 72
    65
 73
     4
 40
10.16
 49
6.35
 74
     0
 49
-1.27
 74
     0
 49
1.27
 74
     0
 49
-1.27
 74
     0
  0
LTYPE
  5
71
330
5
100
AcDbSymbolTableRecord
100
AcDbLinetypeTableRecord
  2
CENTERX2
 70
     0
  3
Center (2x) ________  __  ________  __  _____
 72
    65
 73
     4
 40
20.32
 49
12.7
 74
     0
 49
-2.54
 74
     0
 49
2.54
 74
     0
 49
-2.54
 74
     0
  0
LTYPE
  5
72
330
5
100
AcDbSymbolTableRecord
100
AcDbLinetypeTableRecord
  2
DOT2
 70
     0
  3
Dot (.5x) ........................................
 72
    65
 73
     2
 40
0.635
 49
0.0
 74
     0
 49
-0.635
 74
     0
  0
ENDTAB
  0
TABLE
  2
LAYER
  5
2
330
0
100
AcDbSymbolTable
 70
     5
  0
LAYER
  5
10
330
2
100
AcDbSymbolTableRecord
100
AcDbLayerTableRecord
  2
0
 70
     0
 62
     7
  6
Continuous
370
    -3
390
F
  0
LAYER
  5
73
330
2
100
AcDbSymbolTableRecord
100
AcDbLayerTableRecord
  2
FORMAT
 70
     0
 62
     7
  6
Continuous
370
    -3
390
F
  0
LAYER
  5
74
330
2
100
AcDbSymbolTableRecord
100
AcDbLayerTableRecord
  2
VERMASSUNG
 70
     0
 62
     7
  6
Continuous
370
    -3
390
F
  0
LAYER
  5
75
330
2
100
AcDbSymbolTableRecord
100
AcDbLayerTableRecord
  2
KOPF_DÜNN
 70
     0
 62
     7
  6
Continuous
370
    -3
390
F
  0
LAYER
  5
76
330
2
100
AcDbSymbolTableRecord
100
AcDbLayerTableRecord
  2
KOPF_DICK
 70
     0
 62
     7
  6
Continuous
370
    15
390
F
  0
ENDTAB
  0
TABLE
  2
STYLE
  5
3
330
0
100
AcDbSymbolTable
 70
     2
  0
STYLE
  5
11
330
3
100
AcDbSymbolTableRecord
100
AcDbTextStyleTableRecord
  2
Standard
 70
     0
 40
0.0
 41
1.0
 50
0.0
 71
     0
 42
2.0
  3
txt
  4

  0
STYLE
  5
77
330
3
100
AcDbSymbolTableRecord
100
AcDbTextStyleTableRecord
  2
SLDTEXTSTYLE0
 70
     0
 40
0.0
 41
0.7
 50
0.0
 71
     0
 42
2.0
  3
TXT
  4

  0
ENDTAB
  0
TABLE
  2
VIEW
  5
6
330
0
100
AcDbSymbolTable
 70
     0
  0
ENDTAB
  0
TABLE
  2
UCS
  5
7
330
0
100
AcDbSymbolTable
 70
     0
  0
ENDTAB
  0
TABLE
  2
APPID
  5
9
330
0
100
AcDbSymbolTable
 70
     1
  0
APPID
  5
12
330
9
100
AcDbSymbolTableRecord
100
AcDbRegAppTableRecord
  2
ACAD
 70
     0
  0
ENDTAB
  0
TABLE
  2
DIMSTYLE
  5
A
330
0
100
AcDbSymbolTable
 70
     2
100
AcDbDimStyleTable
  0
DIMSTYLE
105
27
330
A
100
AcDbSymbolTableRecord
100
AcDbDimStyleTableRecord
  2
ISO-25
 70
     0
 41
2.5
 42
0.625
 43
3.75
 44
1.25
 73
     0
 74
     0
 77
     1
 78
     8
140
2.5
141
2.5
143
0.0393700787
147
0.625
171
     3
172
     1
178
     0
271
     2
272
     2
274
     3
278
    44
283
     0
284
     8
340
11
  0
DIMSTYLE
105
1E7
102
{ACAD_REACTORS
330
1E6
330
1F3
330
1FF
330
209
330
213
102
}
330
A
100
AcDbSymbolTableRecord
100
AcDbDimStyleTableRecord
  2
SLDDIMSTYLE0
 70
     0
 41
3.0
 44
0.0
 45
0.000000001
 73
     0
 74
     0
 77
     1
 78
    12
 79
     3
140
2.0
147
0.5
173
     1
178
     0
271
     2
272
     3
276
     2
284
    12
340
77
  0
ENDTAB
  0
TABLE
  2
BLOCK_RECORD
  5
1
330
0
100
AcDbSymbolTable
 70
     6
  0
BLOCK_RECORD
  5
1F
330
1
100
AcDbSymbolTableRecord
100
AcDbBlockTableRecord
  2
*Model_Space
340
22
  0
BLOCK_RECORD
  5
1B
330
1
100
AcDbSymbolTableRecord
100
AcDbBlockTableRecord
  2
*Paper_Space
340
1E
  0
BLOCK_RECORD
  5
23
330
1
100
AcDbSymbolTableRecord
100
AcDbBlockTableRecord
  2
*Paper_Space0
340
26
  0
BLOCK_RECORD
  5
1E8
330
1
100
AcDbSymbolTableRecord
100
AcDbBlockTableRecord
  2
_D
340
0
  0
BLOCK_RECORD
  5
1F4
330
1
100
AcDbSymbolTableRecord
100
AcDbBlockTableRecord
  2
_D_1
340
0
  0
BLOCK_RECORD
  5
200
330
1
100
AcDbSymbolTableRecord
100
AcDbBlockTableRecord
  2
_D_2
340
0
  0
BLOCK_RECORD
  5
20A
330
1
100
AcDbSymbolTableRecord
100
AcDbBlockTableRecord
  2
_D_3
340
0
  0
BLOCK_RECORD
  5
214
330
1
100
AcDbSymbolTableRecord
100
AcDbBlockTableRecord
  2
_D_4
340
0
  0
ENDTAB
  0
ENDSEC
  0
SECTION
  2
BLOCKS
  0
BLOCK
  5
20
330
1F
100
AcDbEntity
  8
0
100
AcDbBlockBegin
  2
*Model_Space
 70
     0
 10
0.0
 20
0.0
 30
0.0
  3
*Model_Space
  1

  0
ENDBLK
  5
21
330
1F
100
AcDbEntity
  8
0
100
AcDbBlockEnd
  0
BLOCK
  5
1C
330
1B
100
AcDbEntity
 67
     1
  8
0
100
AcDbBlockBegin
  2
*Paper_Space
 70
     0
 10
0.0
 20
0.0
 30
0.0
  3
*Paper_Space
  1

  0
ENDBLK
  5
1D
330
1B
100
AcDbEntity
 67
     1
  8
0
100
AcDbBlockEnd
  0
BLOCK
  5
24
330
23
100
AcDbEntity
  8
0
100
AcDbBlockBegin
  2
*Paper_Space0
 70
     0
 10
0.0
 20
0.0
 30
0.0
  3
*Paper_Space0
  1

  0
ENDBLK
  5
25
330
23
100
AcDbEntity
  8
0
100
AcDbBlockEnd
  0
BLOCK
  5
1E9
330
1E8
100
AcDbEntity
  8
0
100
AcDbBlockBegin
  2
_D
 70
     0
 10
0.0
 20
0.0
 30
0.0
  3
_D
  1

  0
SOLID
  5
1EB
330
1E8
100
AcDbEntity
  8
VERMASSUNG
100
AcDbTrace
 10
8.4631743954
 20
67.4719609856
 30
0.0
 11
8.9131743954
 21
70.4719609856
 31
0.0
 12
8.0131743954
 22
70.4719609856
 32
0.0
 13
8.0131743954
 23
70.4719609856
 33
0.0
  0
SOLID
  5
1EC
330
1E8
100
AcDbEntity
  8
VERMASSUNG
100
AcDbTrace
 10
8.4631743954
 20
164.9219609856
 30
0.0
 11
8.0131743954
 21
161.9219609856
 31
0.0
 12
8.9131743954
 22
161.9219609856
 32
0.0
 13
8.9131743954
 23
161.9219609856
 33
0.0
  0
LINE
  5
1ED
330
1E8
100
AcDbEntity
  8
VERMASSUNG
100
AcDbLine
 10
133.511026694
 20
67.4719609856
 30
0.0
 11
7.4631743954
 21
67.4719609856
 31
0.0
  0
LINE
  5
1EE
330
1E8
100
AcDbEntity
  8
VERMASSUNG
100
AcDbLine
 10
133.511026694
 20
164.9219609856
 30
0.0
 11
7.4631743954
 21
164.9219609856
 31
0.0
  0
LINE
  5
1EF
330
1E8
100
AcDbEntity
  8
VERMASSUNG
100
AcDbLine
 10
8.4631743954
 20
67.4719609856
 30
0.0
 11
8.4631743954
 21
164.9219609856
 31
0.0
  0
MTEXT
  5
1F0
330
1E8
100
AcDbEntity
  8
VERMASSUNG
100
AcDbMText
 10
5.6850391392
 20
106.6925253523
 30
0.0
 40
2.0
 41
0.0
 71
     1
 72
     1
  1
ISO 50
  7
SLDTEXTSTYLE0
 11
3.391901413832837E-15
 21
1.0
 31
0.0
 73
     1
 44
1.0
  0
MTEXT
  5
1F1
330
1E8
100
AcDbEntity
  8
VERMASSUNG
100
AcDbMText
 10
5.8850390905
 20
115.6925249648
 30
0.0
 40
2.0
 41
0.0
 71
     1
 72
     1
  1
%%c
  7
SLDTEXTSTYLE0
 11
3.391901413832837E-15
 21
1.0
 31
0.0
 73
     1
 44
1.0
  0
MTEXT
  5
1F2
330
1E8
100
AcDbEntity
  8
VERMASSUNG
100
AcDbMText
 10
5.8850387995
 20
119.3018682977
 30
0.0
 40
2.0
 41
0.0
 71
     1
 72
     1
  1
97.45
  7
SLDTEXTSTYLE0
 11
3.391901413832837E-15
 21
1.0
 31
0.0
 73
     1
 44
1.0
  0
ENDBLK
  5
1EA
330
1E8
100
AcDbEntity
  8
0
100
AcDbBlockEnd
  0
BLOCK
  5
1F5
330
1F4
100
AcDbEntity
  8
0
100
AcDbBlockBegin
  2
_D_1
 70
     0
 10
0.0
 20
0.0
 30
0.0
  3
_D_1
  1

  0
ARC
  5
1F7
330
1F4
100
AcDbEntity
  8
VERMASSUNG
100
AcDbCircle
 10
147.9228202059
 20
189.1018433223
 30
0.0
 40
4.247059938537335
100
AcDbArc
 50
153.4349488229
 51
206.5650511771
  0
ARC
  5
1F8
330
1F4
100
AcDbEntity
  8
VERMASSUNG
100
AcDbCircle
 10
149.6992331822
 20
189.1018433223
 30
0.0
 40
4.247059938537335
100
AcDbArc
 50
333.4349488229
 51
26.5650511771
  0
SOLID
  5
1F9
330
1F4
100
AcDbEntity
  8
VERMASSUNG
100
AcDbTrace
 10
13.461026694
 20
187.2025003769
 30
0.0
 11
16.461026694
 21
186.7525003769
 31
0.0
 12
16.461026694
 22
187.6525003769
 32
0.0
 13
16.461026694
 23
187.6525003769
 33
0.0
  0
SOLID
  5
1FA
330
1F4
100
AcDbEntity
  8
VERMASSUNG
100
AcDbTrace
 10
284.161026694
 20
187.2025003769
 30
0.0
 11
281.161026694
 21
187.6525003769
 31
0.0
 12
281.161026694
 22
186.7525003769
 32
0.0
 13
281.161026694
 23
186.7525003769
 33
0.0
  0
LINE
  5
1FB
330
1F4
100
AcDbEntity
  8
VERMASSUNG
100
AcDbLine
 10
13.461026694
 20
134.575805513
 30
0.0
 11
13.461026694
 21
188.2025003769
 31
0.0
  0
LINE
  5
1FC
330
1F4
100
AcDbEntity
  8
VERMASSUNG
100
AcDbLine
 10
284.161026694
 20
162.2969609856
 30
0.0
 11
284.161026694
 21
188.2025003769
 31
0.0
  0
LINE
  5
1FD
330
1F4
100
AcDbEntity
  8
VERMASSUNG
100
AcDbLine
 10
13.461026694
 20
187.2025003769
 30
0.0
 11
284.161026694
 21
187.2025003769
 31
0.0
  0
MTEXT
  5
1FE
330
1F4
100
AcDbEntity
  8
VERMASSUNG
100
AcDbMText
 10
145.7116343151
 20
189.7806359728
 30
0.0
 40
2.0
 41
0.0
 71
     1
 72
     1
  1
270.7
  7
SLDTEXTSTYLE0
 73
     1
 44
1.0
  0
ENDBLK
  5
1F6
330
1F4
100
AcDbEntity
  8
0
100
AcDbBlockEnd
  0
BLOCK
  5
201
330
200
100
AcDbEntity
  8
0
100
AcDbBlockBegin
  2
_D_2
 70
     0
 10
0.0
 20
0.0
 30
0.0
  3
_D_2
  1

  0
SOLID
  5
203
330
200
100
AcDbEntity
  8
VERMASSUNG
100
AcDbTrace
 10
115.061026694
 20
181.2025003769
 30
0.0
 11
118.061026694
 21
180.7525003769
 31
0.0
 12
118.061026694
 22
181.6525003769
 32
0.0
 13
118.061026694
 23
181.6525003769
 33
0.0
  0
SOLID
  5
204
330
200
100
AcDbEntity
  8
VERMASSUNG
100
AcDbTrace
 10
284.161026694
 20
181.2025003769
 30
0.0
 11
281.161026694
 21
181.6525003769
 31
0.0
 12
281.161026694
 22
180.7525003769
 32
0.0
 13
281.161026694
 23
180.7525003769
 33
0.0
  0
LINE
  5
205
330
200
100
AcDbEntity
  8
VERMASSUNG
100
AcDbLine
 10
115.061026694
 20
151.1219609856
 30
0.0
 11
115.061026694
 21
182.2025003769
 31
0.0
  0
LINE
  5
206
330
200
100
AcDbEntity
  8
VERMASSUNG
100
AcDbLine
 10
284.161026694
 20
162.2969609856
 30
0.0
 11
284.161026694
 21
182.2025003769
 31
0.0
  0
LINE
  5
207
330
200
100
AcDbEntity
  8
VERMASSUNG
100
AcDbLine
 10
115.061026694
 20
181.2025003769
 30
0.0
 11
284.161026694
 21
181.2025003769
 31
0.0
  0
MTEXT
  5
208
330
200
100
AcDbEntity
  8
VERMASSUNG
100
AcDbMText
 10
196.9120184551
 20
183.7806359728
 30
0.0
 40
2.0
 41
0.0
 71
     1
 72
     1
  1
169.1
  7
SLDTEXTSTYLE0
 73
     1
 44
1.0
  0
ENDBLK
  5
202
330
200
100
AcDbEntity
  8
0
100
AcDbBlockEnd
  0
BLOCK
  5
20B
330
20A
100
AcDbEntity
  8
0
100
AcDbBlockBegin
  2
_D_3
 70
     0
 10
0.0
 20
0.0
 30
0.0
  3
_D_3
  1

  0
SOLID
  5
20D
330
20A
100
AcDbEntity
  8
VERMASSUNG
100
AcDbTrace
 10
134.111026694
 20
175.2025003769
 30
0.0
 11
137.111026694
 21
174.7525003769
 31
0.0
 12
137.111026694
 22
175.6525003769
 32
0.0
 13
137.111026694
 23
175.6525003769
 33
0.0
  0
SOLID
  5
20E
330
20A
100
AcDbEntity
  8
VERMASSUNG
100
AcDbTrace
 10
284.161026694
 20
175.2025003769
 30
0.0
 11
281.161026694
 21
175.6525003769
 31
0.0
 12
281.161026694
 22
174.7525003769
 32
0.0
 13
281.161026694
 23
174.7525003769
 33
0.0
  0
LINE
  5
20F
330
20A
100
AcDbEntity
  8
VERMASSUNG
100
AcDbLine
 10
134.111026694
 20
162.4919479389
 30
0.0
 11
134.111026694
 21
176.2025003769
 31
0.0
  0
LINE
  5
210
330
20A
100
AcDbEntity
  8
VERMASSUNG
100
AcDbLine
 10
284.161026694
 20
162.2969609856
 30
0.0
 11
284.161026694
 21
176.2025003769
 31
0.0
  0
LINE
  5
211
330
20A
100
AcDbEntity
  8
VERMASSUNG
100
AcDbLine
 10
134.111026694
 20
175.2025003769
 30
0.0
 11
284.161026694
 21
175.2025003769
 31
0.0
  0
MTEXT
  5
212
330
20A
100
AcDbEntity
  8
VERMASSUNG
100
AcDbMText
 10
205.5369813799
 20
177.7806359728
 30
0.0
 40
2.0
 41
0.0
 71
     1
 72
     1
  1
150.05
  7
SLDTEXTSTYLE0
 73
     1
 44
1.0
  0
ENDBLK
  5
20C
330
20A
100
AcDbEntity
  8
0
100
AcDbBlockEnd
  0
BLOCK
  5
215
330
214
100
AcDbEntity
  8
0
100
AcDbBlockBegin
  2
_D_4
 70
     0
 10
0.0
 20
0.0
 30
0.0
  3
_D_4
  1

  0
SOLID
  5
217
330
214
100
AcDbEntity
  8
VERMASSUNG
100
AcDbTrace
 10
291.6487320329
 20
163.1969609856
 30
0.0
 11
291.1987320329
 21
160.1969609856
 31
0.0
 12
292.0987320329
 22
160.1969609856
 32
0.0
 13
292.0987320329
 23
160.1969609856
 33
0.0
  0
SOLID
  5
218
330
214
100
AcDbEntity
  8
VERMASSUNG
100
AcDbTrace
 10
291.6487320329
 20
69.1969609856
 30
0.0
 11
292.0987320329
 21
72.1969609856
 31
0.0
 12
291.1987320329
 22
72.1969609856
 32
0.0
 13
291.1987320329
 23
72.1969609856
 33
0.0
  0
LINE
  5
219
330
214
100
AcDbEntity
  8
VERMASSUNG
100
AcDbLine
 10
283.261026694
 20
163.1969609856
 30
0.0
 11
292.6487320329
 21
163.1969609856
 31
0.0
  0
LINE
  5
21A
330
214
100
AcDbEntity
  8
VERMASSUNG
100
AcDbLine
 10
283.261026694
 20
69.1969609856
 30
0.0
 11
292.6487320329
 21
69.1969609856
 31
0.0
  0
LINE
  5
21B
330
214
100
AcDbEntity
  8
VERMASSUNG
100
AcDbLine
 10
291.6487320329
 20
163.1969609856
 30
0.0
 11
291.6487320329
 21
69.1969609856
 31
0.0
  0
MTEXT
  5
21C
330
214
100
AcDbEntity
  8
VERMASSUNG
100
AcDbMText
 10
288.8705967766
 20
109.6919610463
 30
0.0
 40
2.0
 41
0.0
 71
     1
 72
     1
  1
MBM
  7
SLDTEXTSTYLE0
 11
-7.044195017643634E-15
 21
1.0
 31
0.0
 73
     1
 44
1.0
  0
MTEXT
  5
21D
330
214
100
AcDbEntity
  8
VERMASSUNG
100
AcDbMText
 10
289.0705967279
 20
116.0919608846
 30
0.0
 40
2.0
 41
0.0
 71
     1
 72
     1
  1
%%c
  7
SLDTEXTSTYLE0
 11
-7.044195017643634E-15
 21
1.0
 31
0.0
 73
     1
 44
1.0
  0
MTEXT
  5
21E
330
214
100
AcDbEntity
  8
VERMASSUNG
100
AcDbMText
 10
288.8705967766
 20
119.7019613646
 30
0.0
 40
2.0
 41
0.0
 71
     1
 72
     1
  1
94
  7
SLDTEXTSTYLE0
 11
-7.044195017643634E-15
 21
1.0
 31
0.0
 73
     1
 44
1.0
  0
ENDBLK
  5
216
330
214
100
AcDbEntity
  8
0
100
AcDbBlockEnd
  0
ENDSEC
  0
SECTION
  2
ENTITIES
  0
MTEXT
  5
78
330
1F
100
AcDbEntity
  8
KOPF_DÜNN
100
AcDbMText
 10
13.8892156294
 20
23.8442973028
 30
0.0
 40
3.0
 41
0.0
 71
     1
 72
     1
  1
102.525.942
  7
SLDTEXTSTYLE0
 73
     1
 44
1.0
  0
MTEXT
  5
79
330
1F
100
AcDbEntity
  8
VERMASSUNG
100
AcDbMText
 10
13.9329988022
 20
28.8834360957
 30
0.0
 40
3.0
 41
0.0
 71
     1
 72
     1
  1
Aufnahme_Master shank MBM 94
  7
SLDTEXTSTYLE0
 73
     1
 44
1.0
  0
MTEXT
  5
7A
330
1F
100
AcDbEntity
  8
VERMASSUNG
100
AcDbMText
 10
98.8601118557
 20
13.8365368761
 30
0.0
 40
2.0
 41
0.0
 71
     1
 72
     1
  1
Datum: 01.11.2007
  7
SLDTEXTSTYLE0
 73
     1
 44
1.0
  0
MTEXT
  5
7B
330
1F
100
AcDbEntity
  8
VERMASSUNG
100
AcDbMText
 10
13.933048693
 20
18.0482802738
 30
0.0
 40
2.0
 41
0.0
 71
     1
 72
     1
  1
DIN 69871 B 50
  7
SLDTEXTSTYLE0
 73
     1
 44
1.0
  0
MTEXT
  5
7C
330
1F
100
AcDbEntity
  8
VERMASSUNG
100
AcDbMText
 10
13.9808475933
 20
13.9090974274
 30
0.0
 40
2.0
 41
0.0
 71
     1
 72
     1
  1
Gewicht: 9617g
  7
SLDTEXTSTYLE0
 73
     1
 44
1.0
  0
LINE
  5
7D
330
1F
100
AcDbEntity
  8
0
  6
Continuous
 62
     7
370
    15
100
AcDbLine
 10
283.2610278146
 20
163.1969593763
 30
0.0
 11
154.6798280196
 21
163.1969593763
 31
0.0
  0
LINE
  5
7E
330
1F
100
AcDbEntity
  8
0
  6
Continuous
 62
     7
370
    15
100
AcDbLine
 10
154.6798280196
 20
69.196962595
 30
0.0
 11
283.2610278146
 21
69.196962595
 31
0.0
  0
LINE
  5
7F
330
1F
100
AcDbEntity
  8
0
  6
Continuous
 62
     7
370
    15
100
AcDbLine
 10
283.2610278146
 20
69.196962595
 30
0.0
 11
284.1610281484
 21
70.0969592034
 31
0.0
  0
LINE
  5
80
330
1F
100
AcDbEntity
  8
0
  6
Continuous
 62
     7
370
    15
100
AcDbLine
 10
284.1610281484
 20
162.2969627678
 30
0.0
 11
283.2610278146
 21
163.1969593763
 31
0.0
  0
ARC
  5
81
330
1F
100
AcDbEntity
  8
0
  6
Continuous
 62
     7
370
    15
100
AcDbCircle
 10
154.6798288476
 20
70.1969609856
 30
0.0
 40
1.0
100
AcDbArc
 50
210.0
 51
270.0
  0
ARC
  5
82
330
1F
100
AcDbEntity
  8
0
  6
Continuous
 62
     7
370
    15
100
AcDbCircle
 10
154.6798288476
 20
162.1969609856
 30
0.0
 40
1.0
100
AcDbArc
 50
90.0
 51
150.0
  0
LINE
  5
83
330
1F
100
AcDbEntity
  8
0
  6
Continuous
 62
     7
370
    15
100
AcDbLine
 10
153.8138023333
 20
162.6969620883
 30
0.0
 11
150.3497033136
 21
156.6969611048
 31
0.0
  0
LINE
  5
84
330
1F
100
AcDbEntity
  8
0
  6
Continuous
 62
     7
370
    15
100
AcDbLine
 10
150.3497033136
 20
75.6969608664
 30
0.0
 11
153.8138023333
 21
69.6969598829
 31
0.0
  0
ARC
  5
85
330
1F
100
AcDbEntity
  8
0
  6
Continuous
 62
     7
370
    15
100
AcDbCircle
 10
149.4836764249
 20
157.1969609856
 30
0.0
 40
1.0
100
AcDbArc
 50
270.0
 51
330.0
  0
ARC
  5
86
330
1F
100
AcDbEntity
  8
0
  6
Continuous
 62
     7
370
    15
100
AcDbCircle
 10
149.4836764249
 20
75.1969609856
 30
0.0
 40
1.0
100
AcDbArc
 50
30.0
 51
90.0
  0
LINE
  5
87
330
1F
100
AcDbEntity
  8
0
  6
Continuous
 62
     7
370
    15
100
AcDbLine
 10
146.9542502181
 20
76.1969618797
 30
0.0
 11
149.4836776273
 21
76.1969618797
 31
0.0
  0
LINE
  5
88
330
1F
100
AcDbEntity
  8
0
  6
Continuous
 62
     7
370
    15
100
AcDbLine
 10
149.4836776273
 20
156.1969600916
 30
0.0
 11
146.9542502181
 21
156.1969600916
 31
0.0
  0
ARC
  5
89
330
1F
100
AcDbEntity
  8
0
  6
Continuous
 62
     7
370
    15
100
AcDbCircle
 10
117.661026694
 20
80.6719609856
 30
0.0
 40
0.6000000000000085
100
AcDbArc
 50
0.0
 51
90.0
  0
ARC
  5
8A
330
1F
100
AcDbEntity
  8
0
  6
Continuous
 62
     7
370
    15
100
AcDbCircle
 10
117.661026694
 20
151.7219609856
 30
0.0
 40
0.5999999999999801
100
AcDbArc
 50
270.0
 51
0.0
  0
LINE
  5
8B
330
1F
100
AcDbEntity
  8
0
  6
Continuous
 62
     7
370
    15
100
AcDbLine
 10
115.061026694
 20
81.2719621062
 30
0.0
 11
117.6610267011
 21
81.2719621062
 31
0.0
  0
LINE
  5
8C
330
1F
100
AcDbEntity
  8
0
  6
Continuous
 62
     7
370
    15
100
AcDbLine
 10
117.6610267011
 20
151.1219598651
 30
0.0
 11
115.061026694
 21
151.1219598651
 31
0.0
  0
LINE
  5
8D
330
1F
100
AcDbEntity
  8
0
  6
Continuous
 62
     7
370
    15
100
AcDbLine
 10
115.061026694
 20
151.1219598651
 30
0.0
 11
15.1724113839
 21
136.5548715293
 31
0.0
  0
LINE
  5
8E
330
1F
100
AcDbEntity
  8
0
  6
Continuous
 62
     7
370
    15
100
AcDbLine
 10
15.1724113839
 20
95.8390504419
 30
0.0
 11
115.061026694
 21
81.2719621062
 31
0.0
  0
ARC
  5
8F
330
1F
100
AcDbEntity
  8
0
  6
Continuous
 62
     7
370
    15
100
AcDbCircle
 10
15.461026694
 20
97.8181164582
 30
0.0
 40
1.99999999999999
100
AcDbArc
 50
180.0
 51
261.7028550302
  0
ARC
  5
90
330
1F
100
AcDbEntity
  8
0
  6
Continuous
 62
     7
370
    15
100
AcDbCircle
 10
15.461026694
 20
134.575805513
 30
0.0
 40
1.99999999999999
100
AcDbArc
 50
98.2971449698
 51
180.0
  0
ARC
  5
91
330
1F
100
AcDbEntity
  8
0
  6
Continuous
 62
     7
370
    15
100
AcDbCircle
 10
129.261026694
 20
101.7312190237
 30
0.0
 40
2.000000000000021
100
AcDbArc
 50
192.215685934
 51
340.3453161116
  0
LINE
  5
92
330
1F
100
AcDbEntity
  8
0
  6
Continuous
 62
     7
370
    15
100
AcDbLine
 10
129.3941882195
 20
101.8998137042
 30
0.0
 11
129.3941882195
 21
146.0469615012
 31
0.0
  0
LINE
  5
93
330
1F
100
AcDbEntity
  8
0
  6
Continuous
 62
     7
370
    15
100
AcDbLine
 10
133.5110260861
 20
146.0469615012
 30
0.0
 11
129.3941882195
 21
146.0469615012
 31
0.0
  0
LINE
  5
94
330
1F
100
AcDbEntity
  8
0
  6
Continuous
 62
     7
370
    15
100
AcDbLine
 10
129.3941882195
 20
69.4677017927
 30
0.0
 11
133.5110260861
 21
69.4677017927
 31
0.0
  0
LINE
  5
95
330
1F
100
AcDbEntity
  8
0
  6
Continuous
 62
     7
370
    15
100
AcDbLine
 10
129.3941882195
 20
69.4677017927
 30
0.0
 11
129.3941882195
 21
97.2080201208
 31
0.0
  0
SPLINE
  5
96
330
1F
100
AcDbEntity
  8
0
  6
Continuous
 62
     7
370
    15
100
AcDbSpline
210
0.0
220
0.0
230
1.0
 70
     8
 71
     3
 72
    34
 73
    30
 74
     0
 42
0.000000001
 43
0.00000001
 40
0.0
 40
0.0
 40
0.0
 40
0.0
 40
0.0624999999999989
 40
0.0624999999999989
 40
0.1249999999999978
 40
0.1249999999999978
 40
0.1874999999999968
 40
0.1874999999999968
 40
0.2499999999999962
 40
0.2499999999999962
 40
0.3124999999999957
 40
0.3124999999999957
 40
0.3749999999999952
 40
0.3749999999999952
 40
0.499999999999995
 40
0.499999999999995
 40
0.6249999999999948
 40
0.6249999999999948
 40
0.6874999999999954
 40
0.6874999999999954
 40
0.749999999999996
 40
0.749999999999996
 40
0.8124999999999966
 40
0.8124999999999966
 40
0.8749999999999977
 40
0.8749999999999977
 40
0.9374999999999989
 40
0.9374999999999989
 40
1.0
 40
1.0
 40
1.0
 40
1.0
 10
129.3941882015071
 20
97.20802059762512
 30
0.0
 10
129.5535800292949
 20
97.2158606935479
 30
0.0
 10
129.7095825127385
 20
97.23751934163833
 30
0.0
 10
130.0150920288157
 20
97.30736756913113
 30
0.0
 10
130.165986363828
 20
97.35619327145939
 30
0.0
 10
130.4538857085188
 20
97.4791172248667
 30
0.0
 10
130.5898321114785
 20
97.55242473300102
 30
0.0
 10
130.8460147270705
 20
97.72243535677235
 30
0.0
 10
130.9671970148296
 20
97.82030914897382
 30
0.0
 10
131.1843430867024
 20
98.03289332440578
 30
0.0
 10
131.2813049596627
 20
98.14793926293538
 30
0.0
 10
131.4518673954883
 20
98.39580038305552
 30
0.0
 10
131.5251074487002
 20
98.52883388012111
 30
0.0
 10
131.699987905449
 20
98.93834189625126
 30
0.0
 10
131.761025866425
 20
99.23630254602631
 30
0.0
 10
131.7610275216481
 20
99.82774410190075
 30
0.0
 10
131.6999929120618
 20
100.1279176518773
 30
0.0
 10
131.5251031446599
 20
100.5431489321451
 30
0.0
 10
131.4518594392354
 20
100.6785040503919
 30
0.0
 10
131.2812987234988
 20
100.9314033817786
 30
0.0
 10
131.1843350079053
 20
101.0491686593863
 30
0.0
 10
130.9671746793182
 20
101.267298954755
 30
0.0
 10
130.8459934206313
 20
101.3680022799019
 30
0.0
 10
130.5898231936926
 20
101.5432459727352
 30
0.0
 10
130.4538798440299
 20
101.6189909418258
 30
0.0
 10
130.1659771408468
 20
101.746159317128
 30
0.0
 10
130.01508694493
 20
101.7967605894555
 30
0.0
 10
129.7095814412244
 20
101.8691896892034
 30
0.0
 10
129.5535800429609
 20
101.8916754606004
 30
0.0
 10
129.3941882015071
 20
101.8998139204952
 30
0.0
  0
SPLINE
  5
97
330
1F
100
AcDbEntity
  8
0
  6
Continuous
 62
     7
370
    15
100
AcDbSpline
210
0.0
220
0.0
230
1.0
 70
     8
 71
     3
 72
    10
 73
     6
 74
     0
 42
0.000000001
 43
0.00000001
 40
0.0
 40
0.0
 40
0.0
 40
0.0
 40
0.5
 40
0.5
 40
1.0
 40
1.0
 40
1.0
 40
1.0
 10
118.4766867251992
 20
69.56350671843406
 30
0.0
 10
118.5253372937788
 20
69.53554972716664
 30
0.0
 10
118.5827225057383
 20
69.51160744213986
 30
0.0
 10
118.7134356139043
 20
69.47748897904413
 30
0.0
 10
118.7861751476429
 20
69.46770164428028
 30
0.0
 10
118.8610266940452
 20
69.46770164428028
 30
0.0
  0
SPLINE
  5
98
330
1F
100
AcDbEntity
  8
0
  6
Continuous
 62
     7
370
    15
100
AcDbSpline
210
0.0
220
0.0
230
1.0
 70
     8
 71
     3
 72
    10
 73
     6
 74
     0
 42
0.000000001
 43
0.00000001
 40
0.0
 40
0.0
 40
0.0
 40
0.0
 40
0.5
 40
0.5
 40
1.0
 40
1.0
 40
1.0
 40
1.0
 10
118.4766867251992
 20
69.56350671843406
 30
0.0
 10
118.418498718617
 20
69.63109044861288
 30
0.0
 10
118.3660562520907
 20
69.71156668325462
 30
0.0
 10
118.287703944912
 20
69.89460230623737
 30
0.0
 10
118.2610266940451
 20
70.00047800903299
 30
0.0
 10
118.2610266940451
 20
70.10799131825361
 30
0.0
  0
LINE
  5
99
330
1F
100
AcDbEntity
  8
0
  6
Continuous
 62
     7
370
    15
100
AcDbLine
 10
118.2610266132
 20
70.107989788
 30
0.0
 11
118.2610266132
 21
146.0469615012
 31
0.0
  0
SPLINE
  5
9A
330
1F
100
AcDbEntity
  8
0
  6
Continuous
 62
     7
370
    15
100
AcDbSpline
210
0.0
220
0.0
230
1.0
 70
    24
 71
     3
 72
    14
 73
    10
 74
     0
 42
0.000000001
 43
0.00000001
 40
0.0
 40
0.0
 40
0.0
 40
0.0
 40
0.25
 40
0.25
 40
0.5
 40
0.5
 40
0.75
 40
0.75
 40
1.0
 40
1.0
 40
1.0
 40
1.0
 10
118.8610266940452
 20
146.0469609856263
 30
0.0
 10
118.7720047417015
 20
146.0469609856263
 30
0.0
 10
118.682318042428
 20
146.0469609856263
 30
0.0
 10
118.5285912168707
 20
146.0469609856263
 30
0.0
 10
118.4633863222438
 20
146.0469609856263
 30
0.0
 10
118.3607956280734
 20
146.0469609856263
 30
0.0
 10
118.3231581737575
 20
146.0469609856263
 30
0.0
 10
118.2730662583724
 20
146.0469609856263
 30
0.0
 10
118.2610266940452
 20
146.0469609856263
 30
0.0
 10
118.2610266940452
 20
146.0469609856263
 30
0.0
  0
LINE
  5
9B
330
1F
100
AcDbEntity
  8
0
  6
Continuous
 62
     7
370
    15
100
AcDbLine
 10
118.8610267581
 20
69.4677017927
 30
0.0
 11
122.927865641
 21
69.4677017927
 31
0.0
  0
LINE
  5
9C
330
1F
100
AcDbEntity
  8
0
  6
Continuous
 62
     7
370
    15
100
AcDbLine
 10
122.927865641
 20
146.0469615012
 30
0.0
 11
118.8610267581
 21
146.0469615012
 31
0.0
  0
LINE
  5
9D
330
1F
100
AcDbEntity
  8
0
  6
Continuous
 62
     7
370
    15
100
AcDbLine
 10
122.927865641
 20
69.4677017927
 30
0.0
 11
122.927865641
 21
146.0469615012
 31
0.0
  0
SPLINE
  5
9E
330
1F
100
AcDbEntity
  8
0
  6
Continuous
 62
     7
370
    15
100
AcDbSpline
210
0.0
220
0.0
230
1.0
 70
     8
 71
     3
 72
     8
 73
     4
 74
     0
 42
0.000000001
 43
0.00000001
 40
0.0
 40
0.0
 40
0.0
 40
0.0
 40
1.0
 40
1.0
 40
1.0
 40
1.0
 10
124.2510266940452
 20
71.57722157679652
 30
0.0
 10
123.9612982480206
 20
71.05500156663298
 30
0.0
 10
123.6712730978029
 20
70.53294818437303
 30
0.0
 10
123.3809788635411
 20
70.01104591864991
 30
0.0
  0
SPLINE
  5
9F
330
1F
100
AcDbEntity
  8
0
  6
Continuous
 62
     7
370
    15
100
AcDbSpline
210
0.0
220
0.0
230
1.0
 70
     8
 71
     3
 72
     8
 73
     4
 74
     0
 42
0.000000001
 43
0.00000001
 40
0.0
 40
0.0
 40
0.0
 40
0.0
 40
0.0011862984959113
 40
0.0011862984959113
 40
0.0011862984959113
 40
0.0011862984959113
 10
122.9278651865833
 20
69.46770164428028
 30
0.0
 10
123.0798899484541
 20
69.64861349389828
 30
0.0
 10
123.2309473936699
 20
69.8297258243391
 30
0.0
 10
123.3809788635411
 20
70.01104591864991
 30
0.0
  0
SPLINE
  5
A0
330
1F
100
AcDbEntity
  8
0
  6
Continuous
 62
     7
370
    15
100
AcDbSpline
210
0.0
220
0.0
230
1.0
 70
    24
 71
     3
 72
     8
 73
     4
 74
     0
 42
0.000000001
 43
0.00000001
 40
0.0
 40
0.0
 40
0.0
 40
0.0
 40
1.0
 40
1.0
 40
1.0
 40
1.0
 10
124.2510266940452
 20
146.0469609856263
 30
0.0
 10
123.8158265893415
 20
146.0469609856263
 30
0.0
 10
123.3744669066026
 20
146.0469609856263
 30
0.0
 10
122.9278651865833
 20
146.0469609856263
 30
0.0
  0
LINE
  5
A1
330
1F
100
AcDbEntity
  8
0
  6
Continuous
 62
     7
370
    15
100
AcDbLine
 10
124.2510263564
 20
71.57722193
 30
0.0
 11
124.2510263564
 21
146.0469615012
 31
0.0
  0
LINE
  5
A2
330
1F
100
AcDbEntity
  8
0
  6
Continuous
 62
     7
370
    15
100
AcDbLine
 10
128.0710265727
 20
102.3996992334
 30
0.0
 11
128.0710265727
 21
146.0469615012
 31
0.0
  0
SPLINE
  5
A3
330
1F
100
AcDbEntity
  8
0
  6
Continuous
 62
     7
370
    15
100
AcDbSpline
210
0.0
220
0.0
230
1.0
 70
    24
 71
     3
 72
     8
 73
     4
 74
     0
 42
0.000000001
 43
0.00000001
 40
0.0
 40
0.0
 40
0.0
 40
0.0
 40
1.0
 40
1.0
 40
1.0
 40
1.0
 10
129.3941882015071
 20
146.0469609856263
 30
0.0
 10
128.9475864814877
 20
146.0469609856263
 30
0.0
 10
128.5062267987488
 20
146.0469609856263
 30
0.0
 10
128.0710266940452
 20
146.0469609856263
 30
0.0
  0
SPLINE
  5
A4
330
1F
100
AcDbEntity
  8
0
  6
Continuous
 62
     7
370
    15
100
AcDbSpline
210
0.0
220
0.0
230
1.0
 70
     8
 71
     3
 72
    10
 73
     6
 74
     0
 42
0.000000001
 43
0.00000001
 40
0.0
 40
0.0
 40
0.0
 40
0.0
 40
0.5
 40
0.5
 40
1.0
 40
1.0
 40
1.0
 40
1.0
 10
129.3941882015071
 20
101.8998139204952
 30
0.0
 10
129.1714611746336
 20
102.043302420789
 30
0.0
 10
128.9497752874085
 20
102.1580231665218
 30
0.0
 10
128.5085544495566
 20
102.3277835958797
 30
0.0
 10
128.2889958021578
 20
102.3832035902671
 30
0.0
 10
128.0710266940455
 20
102.3996989196367
 30
0.0
  0
SPLINE
  5
A5
330
1F
100
AcDbEntity
  8
0
  6
Continuous
 62
     7
370
    15
100
AcDbSpline
210
0.0
220
0.0
230
1.0
 70
     8
 71
     3
 72
    12
 73
     8
 74
     0
 42
0.000000001
 43
0.00000001
 40
0.0
 40
0.0
 40
0.0
 40
0.0
 40
0.2499999999999984
 40
0.2499999999999984
 40
0.4999999999999969
 40
0.4999999999999969
 40
1.0
 40
1.0
 40
1.0
 40
1.0
 10
133.5110266940452
 20
69.46770164428028
 30
0.0
 10
133.60699944722
 20
69.46770164428028
 30
0.0
 10
133.6994274113745
 20
69.48397496838888
 30
0.0
 10
133.8558575114839
 20
69.53734869038527
 30
0.0
 10
133.9193359362568
 20
69.57347694791963
 30
0.0
 10
134.0676150970839
 20
69.69417814419893
 30
0.0
 10
134.1110266940452
 20
69.78802773056408
 30
0.0
 10
134.1110266940452
 20
69.88233200551129
 30
0.0
  0
SPLINE
  5
A6
330
1F
100
AcDbEntity
  8
0
  6
Continuous
 62
     7
370
    15
100
AcDbSpline
210
0.0
220
0.0
230
1.0
 70
    24
 71
     3
 72
    12
 73
     8
 74
     0
 42
0.000000001
 43
0.00000001
 40
0.0
 40
0.0
 40
0.0
 40
0.0
 40
0.5
 40
0.5
 40
0.75
 40
0.75
 40
1.0
 40
1.0
 40
1.0
 40
1.0
 10
134.1110266940452
 20
146.0469609856263
 30
0.0
 10
134.1110266940452
 20
146.0469609856263
 30
0.0
 10
134.0628960056598
 20
146.0469609856263
 30
0.0
 10
133.9089989498567
 20
146.0469609856263
 30
0.0
 10
133.8435343848499
 20
146.0469609856263
 30
0.0
 10
133.6900050642398
 20
146.0469609856263
 30
0.0
 10
133.601656403504
 20
146.0469609856263
 30
0.0
 10
133.511026694045
 20
146.0469609856263
 30
0.0
  0
LINE
  5
A7
330
1F
100
AcDbEntity
  8
0
  6
Continuous
 62
     7
370
    15
100
AcDbLine
 10
134.1110269295
 20
69.8823303282
 30
0.0
 11
134.1110269295
 21
146.0469615012
 31
0.0
  0
SPLINE
  5
A8
330
1F
100
AcDbEntity
  8
0
  6
Continuous
 62
     7
370
    15
100
AcDbSpline
210
0.0
220
0.0
230
1.0
 70
     8
 71
     3
 72
    54
 73
    50
 74
     0
 42
0.000000001
 43
0.00000001
 40
0.0
 40
0.0
 40
0.0
 40
0.0
 40
0.0312500000000021
 40
0.0312500000000021
 40
0.0625000000000041
 40
0.0625000000000041
 40
0.0937500000000062
 40
0.0937500000000062
 40
0.1250000000000083
 40
0.1250000000000083
 40
0.1875000000000114
 40
0.1875000000000114
 40
0.2500000000000145
 40
0.2500000000000145
 40
0.3125000000000176
 40
0.3125000000000176
 40
0.3750000000000207
 40
0.3750000000000207
 40
0.4062500000000221
 40
0.4062500000000221
 40
0.4375000000000237
 40
0.4375000000000237
 40
0.5000000000000244
 40
0.5000000000000244
 40
0.5312500000000236
 40
0.5312500000000236
 40
0.5625000000000228
 40
0.5625000000000228
 40
0.6250000000000189
 40
0.6250000000000189
 40
0.656250000000017
 40
0.656250000000017
 40
0.687500000000015
 40
0.687500000000015
 40
0.7187500000000131
 40
0.7187500000000131
 40
0.7500000000000112
 40
0.7500000000000112
 40
0.8125000000000073
 40
0.8125000000000073
 40
0.8437500000000061
 40
0.8437500000000061
 40
0.8750000000000049
 40
0.8750000000000049
 40
0.9375000000000024
 40
0.9375000000000024
 40
0.9687500000000012
 40
0.9687500000000012
 40
1.0
 40
1.0
 40
1.0
 40
1.0
 10
271.6110266940452
 20
116.1969609856263
 30
0.0
 10
271.6110266940452
 20
116.5731230677056
 30
0.0
 10
271.5885962127654
 20
116.9501071853404
 30
0.0
 10
271.5010162180447
 20
117.6911773040222
 30
0.0
 10
271.4358922240968
 20
118.0574787603839
 30
0.0
 10
271.2638444480925
 20
118.7818013982116
 30
0.0
 10
271.1569201713561
 20
119.1398224439903
 30
0.0
 10
270.900791699581
 20
119.8475131801846
 30
0.0
 10
270.7534682248315
 20
120.1918031015736
 30
0.0
 10
270.2593884343752
 20
121.1925565038445
 30
0.0
 10
269.8589277731046
 20
121.8211991551835
 30
0.0
 10
268.9279861738891
 20
122.9953336599525
 30
0.0
 10
268.4098947942309
 20
123.5259599902313
 30
0.0
 10
267.2773076277045
 20
124.4851956827881
 30
0.0
 10
266.657380026336
 20
124.9156886991217
 30
0.0
 10
265.3656792463273
 20
125.6489536005537
 30
0.0
 10
264.6903146682357
 20
125.9559085461817
 30
0.0
 10
263.6335977398538
 20
126.3290876576008
 30
0.0
 10
263.2727551428417
 20
126.4390412109608
 30
0.0
 10
262.549042948528
 20
126.6258900930926
 30
0.0
 10
262.1848948642329
 20
126.7033500258392
 30
0.0
 10
261.0857389356248
 20
126.8891394008659
 30
0.0
 10
260.3440730406954
 20
126.9512705669382
 30
0.0
 10
259.2178893913754
 20
126.9497660006798
 30
0.0
 10
258.8411740668904
 20
126.9332057938059
 30
0.0
 10
258.0974166317552
 20
126.8689815321122
 30
0.0
 10
257.7286388902248
 20
126.821342500896
 30
0.0
 10
256.6314863045069
 20
126.6323591772522
 30
0.0
 10
255.9122102738582
 20
126.4453828412255
 30
0.0
 10
254.8524395012951
 20
126.0681182786511
 30
0.0
 10
254.5050832196604
 20
125.9269517355084
 30
0.0
 10
253.8293420487903
 20
125.6169637163846
 30
0.0
 10
253.4997960185582
 20
125.4477385322177
 30
0.0
 10
252.8574150277152
 20
125.0805395907587
 30
0.0
 10
252.5445781424477
 20
124.8825694881718
 30
0.0
 10
251.9361644736953
 20
124.4567339040933
 30
0.0
 10
251.6391762448338
 20
124.2276280381532
 30
0.0
 10
250.787022731664
 20
123.5020492621401
 30
0.0
 10
250.271833883334
 20
122.9701744708663
 30
0.0
 10
249.5820594651828
 20
122.0958053039563
 30
0.0
 10
249.3650328643486
 20
121.7897905981736
 30
0.0
 10
248.9661254491041
 20
121.158413426986
 30
0.0
 10
248.7850478217069
 20
120.8347548443023
 30
0.0
 10
248.2968349265589
 20
119.8398003642439
 30
0.0
 10
248.0440439282439
 20
119.1448159180931
 30
0.0
 10
247.784538109193
 20
118.0498132493665
 30
0.0
 10
247.7190622063888
 20
117.6784087966619
 30
0.0
 10
247.6325991915716
 20
116.9387736992644
 30
0.0
 10
247.6110266940451
 20
116.5682294518374
 30
0.0
 10
247.6110266940452
 20
116.1969609856263
 30
0.0
  0
SPLINE
  5
A9
330
1F
100
AcDbEntity
  8
0
  6
Continuous
 62
     7
370
    15
100
AcDbSpline
210
0.0
220
0.0
230
1.0
 70
     8
 71
     3
 72
    52
 73
    48
 74
     0
 42
0.000000001
 43
0.00000001
 40
0.0
 40
0.0
 40
0.0
 40
0.0
 40
0.0312500000000003
 40
0.0312500000000003
 40
0.0625000000000007
 40
0.0625000000000007
 40
0.1250000000000014
 40
0.1250000000000014
 40
0.1875000000000021
 40
0.1875000000000021
 40
0.2500000000000028
 40
0.2500000000000028
 40
0.3125000000000034
 40
0.3125000000000034
 40
0.3437500000000048
 40
0.3437500000000048
 40
0.3750000000000062
 40
0.3750000000000062
 40
0.4062500000000075
 40
0.4062500000000075
 40
0.4375000000000088
 40
0.4375000000000088
 40
0.5000000000000114
 40
0.5000000000000114
 40
0.5312500000000115
 40
0.5312500000000115
 40
0.5625000000000117
 40
0.5625000000000117
 40
0.6250000000000097
 40
0.6250000000000097
 40
0.6562500000000087
 40
0.6562500000000087
 40
0.6875000000000077
 40
0.6875000000000077
 40
0.7500000000000058
 40
0.7500000000000058
 40
0.7812500000000058
 40
0.7812500000000058
 40
0.8125000000000057
 40
0.8125000000000057
 40
0.875000000000004
 40
0.875000000000004
 40
0.9062500000000031
 40
0.9062500000000031
 40
0.9375000000000022
 40
0.9375000000000022
 40
1.0
 40
1.0
 40
1.0
 40
1.0
 10
247.6110266940452
 20
116.1969609856263
 30
0.0
 10
247.6110266940452
 20
115.8252381605462
 30
0.0
 10
247.6326491842551
 20
115.4527894358969
 30
0.0
 10
247.7203567613462
 20
114.7064001871905
 30
0.0
 10
247.7865665426494
 20
114.3341984584062
 30
0.0
 10
248.0456825595319
 20
113.2449391587289
 30
0.0
 10
248.299387197914
 20
112.5453824037836
 30
0.0
 10
248.9642185155085
 20
111.19766636039
 30
0.0
 10
249.3654511379347
 20
110.5701268931366
 30
0.0
 10
250.2879281470035
 20
109.4059953935184
 30
0.0
 10
250.8149908276539
 20
108.8652414962974
 30
0.0
 10
251.9478133936427
 20
107.9064516080498
 30
0.0
 10
252.5566802489759
 20
107.4830532681919
 30
0.0
 10
253.5321774161454
 20
106.9288662949213
 30
0.0
 10
253.866735089062
 20
106.7585137084821
 30
0.0
 10
254.5443462536303
 20
106.450404686396
 30
0.0
 10
254.8887783061551
 20
106.311844341357
 30
0.0
 10
255.5886433258127
 20
106.0648493260006
 30
0.0
 10
255.9440770797959
 20
105.956417069211
 30
0.0
 10
256.6659888652778
 20
105.769659580757
 30
0.0
 10
257.0338641307793
 20
105.6911120328755
 30
0.0
 10
258.144619640579
 20
105.5034123124057
 30
0.0
 10
258.8865463488963
 20
105.4426026682464
 30
0.0
 10
260.0014950316229
 20
105.4441825603231
 30
0.0
 10
260.373489822636
 20
105.4602765623413
 30
0.0
 10
261.1181824100598
 20
105.5241882790111
 30
0.0
 10
261.4927037969169
 20
105.5723771263235
 30
0.0
 10
262.6002052804499
 20
105.7633837087253
 30
0.0
 10
263.3182839625772
 20
105.951540094357
 30
0.0
 10
264.365482707271
 20
106.3243349806137
 30
0.0
 10
264.7095315069702
 20
106.4637904820442
 30
0.0
 10
265.3872717959457
 20
106.7742346688343
 30
0.0
 10
265.7224115835594
 20
106.9461757239178
 30
0.0
 10
266.6927136366918
 20
107.5011101460282
 30
0.0
 10
267.297816297855
 20
107.9243012841724
 30
0.0
 10
268.1415755679294
 20
108.6416490541253
 30
0.0
 10
268.4121057323048
 20
108.894620939792
 30
0.0
 10
268.9304758778243
 20
109.4300869834138
 30
0.0
 10
269.1786298282962
 20
109.7133942552658
 30
0.0
 10
269.8692391985578
 20
110.5884922608574
 30
0.0
 10
270.2650311040887
 20
111.2113727596379
 30
0.0
 10
270.7564394890189
 20
112.2088607053652
 30
0.0
 10
270.9030694239474
 20
112.5519609228723
 30
0.0
 10
271.1592081933003
 20
113.2611760106347
 30
0.0
 10
271.2659302677246
 20
113.6196661496122
 30
0.0
 10
271.5229708644517
 20
114.7055545437808
 30
0.0
 10
271.6110266940452
 20
115.4437161261016
 30
0.0
 10
271.6110266940452
 20
116.1969609856263
 30
0.0
  0
LINE
  5
AA
330
1F
100
AcDbEntity
  8
0
  6
Continuous
 62
     7
370
    15
100
AcDbLine
 10
283.2610278146
 20
116.1969609856
 30
0.0
 11
283.2610278146
 21
69.196962595
 31
0.0
  0
LINE
  5
AB
330
1F
100
AcDbEntity
  8
0
  6
Continuous
 62
     7
370
    15
100
AcDbLine
 10
283.2610278146
 20
163.1969593763
 30
0.0
 11
283.2610278146
 21
116.1969609856
 31
0.0
  0
LINE
  5
AC
330
1F
100
AcDbEntity
  8
0
  6
Continuous
 62
     7
370
    15
100
AcDbLine
 10
284.1610281484
 20
116.1969609856
 30
0.0
 11
284.1610281484
 21
70.0969592034
 31
0.0
  0
LINE
  5
AD
330
1F
100
AcDbEntity
  8
0
  6
Continuous
 62
     7
370
    15
100
AcDbLine
 10
284.1610281484
 20
162.2969627678
 30
0.0
 11
284.1610281484
 21
116.1969609856
 31
0.0
  0
SPLINE
  5
AE
330
1F
100
AcDbEntity
  8
0
  6
Continuous
 62
     7
370
    15
100
AcDbSpline
210
0.0
220
0.0
230
1.0
 70
     8
 71
     3
 72
    14
 73
    10
 74
     0
 42
0.000000001
 43
0.00000001
 40
0.0
 40
0.0
 40
0.0
 40
0.0
 40
0.25
 40
0.25
 40
0.5
 40
0.5
 40
0.75
 40
0.75
 40
1.0
 40
1.0
 40
1.0
 40
1.0
 10
128.0710266940452
 20
102.4453131416493
 30
0.0
 10
128.0710266940452
 20
102.4872895235028
 30
0.0
 10
128.041383740074
 20
102.5151399111437
 30
0.0
 10
127.9347289063439
 20
102.5286387864337
 30
0.0
 10
127.8584505117397
 20
102.514023284396
 30
0.0
 10
127.6903989686732
 20
102.4419340802278
 30
0.0
 10
127.5992791620649
 20
102.3847964697451
 30
0.0
 10
127.4266020498123
 20
102.2425687691538
 30
0.0
 10
127.3456796102842
 20
102.1590049436417
 30
0.0
 10
127.2710266940452
 20
102.0656352717458
 30
0.0
  0
SPLINE
  5
AF
330
1F
100
AcDbEntity
  8
0
  6
Continuous
 62
     7
370
    15
100
AcDbSpline
210
0.0
220
0.0
230
1.0
 70
     8
 71
     3
 72
    10
 73
     6
 74
     0
 42
0.000000001
 43
0.00000001
 40
0.0
 40
0.0
 40
0.0
 40
0.0
 40
0.5
 40
0.5
 40
1.0
 40
1.0
 40
1.0
 40
1.0
 10
128.0710266940455
 20
98.26765772100521
 30
0.0
 10
128.2879175265662
 20
98.03061878155665
 30
0.0
 10
128.5070701632251
 20
97.82844854656317
 30
0.0
 10
128.948554663494
 20
97.47769647504447
 30
0.0
 10
129.1717571287674
 20
97.32902038264763
 30
0.0
 10
129.3941882015071
 20
97.20802059762512
 30
0.0
  0
LINE
  5
B0
330
1F
100
AcDbEntity
  8
0
  6
Continuous
 62
     7
370
    15
100
AcDbLine
 10
128.0710265727
 20
98.3132727742
 30
0.0
 11
128.0710265727
 21
98.2676584571
 31
0.0
  0
SPLINE
  5
B1
330
1F
100
AcDbEntity
  8
0
  6
Continuous
 62
     7
370
    15
100
AcDbSpline
210
0.0
220
0.0
230
1.0
 70
     8
 71
     3
 72
    16
 73
    12
 74
     0
 42
0.000000001
 43
0.00000001
 40
0.0
 40
0.0
 40
0.0
 40
0.0
 40
0.2500000000000014
 40
0.2500000000000014
 40
0.5000000000000028
 40
0.5000000000000028
 40
0.6250000000000047
 40
0.6250000000000047
 40
0.7500000000000067
 40
0.7500000000000067
 40
1.0
 40
1.0
 40
1.0
 40
1.0
 10
127.2710266940452
 20
99.2216714286922
 30
0.0
 10
127.3450345842674
 20
99.13132384850655
 30
0.0
 10
127.4256525792563
 20
99.04336427570689
 30
0.0
 10
127.5994205647606
 20
98.8670293516453
 30
0.0
 10
127.690171695702
 20
98.78142211097932
 30
0.0
 10
127.8162847931635
 20
98.66022641495432
 30
0.0
 10
127.8558615540268
 20
98.62169483596347
 30
0.0
 10
127.928344210728
 20
98.54729884983414
 30
0.0
 10
127.9612722011968
 20
98.51128206191265
 30
0.0
 10
128.0410623711917
 20
98.41252938609566
 30
0.0
 10
128.0710266940452
 20
98.35576538431356
 30
0.0
 10
128.0710266940452
 20
98.31327194301801
 30
0.0
  0
SPLINE
  5
B2
330
1F
100
AcDbEntity
  8
0
  6
Continuous
 62
     7
370
    15
100
AcDbSpline
210
0.0
220
0.0
230
1.0
 70
     8
 71
     3
 72
    16
 73
    12
 74
     0
 42
0.000000001
 43
0.00000001
 40
0.0
 40
0.0
 40
0.0
 40
0.0
 40
0.2500000000000009
 40
0.2500000000000009
 40
0.5000000000000018
 40
0.5000000000000018
 40
0.7500000000000011
 40
0.7500000000000011
 40
0.8750000000000006
 40
0.8750000000000006
 40
1.0
 40
1.0
 40
1.0
 40
1.0
 10
127.2710266940452
 20
102.0656352717458
 30
0.0
 10
127.105612587565
 20
101.8587490357205
 30
0.0
 10
126.9794152565894
 20
101.6328803379117
 30
0.0
 10
126.8050089582585
 20
101.1440110922989
 30
0.0
 10
126.7611789191617
 20
100.8922440389543
 30
0.0
 10
126.7608752461917
 20
100.3804647143719
 30
0.0
 10
126.804732106252
 20
100.1294100052892
 30
0.0
 10
126.9346538655192
 20
99.76856143714713
 30
0.0
 10
126.9887686769272
 20
99.65128866879856
 30
0.0
 10
127.1154456670706
 20
99.42879971745973
 30
0.0
 10
127.1883193874314
 20
99.32263910921645
 30
0.0
 10
127.2710266940452
 20
99.2216714286922
 30
0.0
  0
SPLINE
  5
B3
330
1F
100
AcDbEntity
  8
0
  6
Continuous
 62
     7
370
    15
100
AcDbSpline
210
0.0
220
0.0
230
1.0
 70
     8
 71
     3
 72
    14
 73
    10
 74
     0
 42
0.000000001
 43
0.00000001
 40
0.0
 40
0.0
 40
0.0
 40
0.0
 40
0.25
 40
0.25
 40
0.5
 40
0.5
 40
0.75
 40
0.75
 40
1.0
 40
1.0
 40
1.0
 40
1.0
 10
125.0510266940452
 20
72.54919471975651
 30
0.0
 10
124.9445816861359
 20
72.54919471975651
 30
0.0
 10
124.8376829348624
 20
72.5266251703234
 30
0.0
 10
124.6414646794199
 20
72.44018207908148
 30
0.0
 10
124.5518063659555
 20
72.37587816141433
 30
0.0
 10
124.4063526530744
 20
72.22090864737137
 30
0.0
 10
124.3483168703482
 20
72.12814316112764
 30
0.0
 10
124.2710317159636
 20
71.92967627948427
 30
0.0
 10
124.2510266940452
 20
71.82265185769049
 30
0.0
 10
124.2510266940452
 20
71.71586949721966
 30
0.0
  0
SPLINE
  5
B4
330
1F
100
AcDbEntity
  8
0
  6
Continuous
 62
     7
370
    15
100
AcDbSpline
210
0.0
220
0.0
230
1.0
 70
    24
 71
     3
 72
    14
 73
    10
 74
     0
 42
0.000000001
 43
0.00000001
 40
0.0
 40
0.0
 40
0.0
 40
0.0
 40
0.25
 40
0.25
 40
0.5
 40
0.5
 40
0.75
 40
0.75
 40
1.0
 40
1.0
 40
1.0
 40
1.0
 10
125.0510266940452
 20
146.0469609856263
 30
0.0
 10
124.9280453944989
 20
146.0469609856263
 30
0.0
 10
124.8078555060969
 20
146.0469609856263
 30
0.0
 10
124.6028316764177
 20
146.0469609856263
 30
0.0
 10
124.5162371876156
 20
146.0469609856263
 30
0.0
 10
124.3811293008531
 20
146.0469609856263
 30
0.0
 10
124.332606215825
 20
146.0469609856263
 30
0.0
 10
124.2669237070982
 20
146.0469609856263
 30
0.0
 10
124.2510266940452
 20
146.0469609856263
 30
0.0
 10
124.2510266940452
 20
146.0469609856263
 30
0.0
  0
SPLINE
  5
B5
330
1F
100
AcDbEntity
  8
0
  6
Continuous
 62
     7
370
    15
100
AcDbSpline
210
0.0
220
0.0
230
1.0
 70
    24
 71
     3
 72
    14
 73
    10
 74
     0
 42
0.000000001
 43
0.00000001
 40
0.0
 40
0.0
 40
0.0
 40
0.0
 40
0.25
 40
0.25
 40
0.5
 40
0.5
 40
0.75
 40
0.75
 40
1.0
 40
1.0
 40
1.0
 40
1.0
 10
128.0710266940452
 20
146.0469609856263
 30
0.0
 10
128.0710266940452
 20
146.0469609856263
 30
0.0
 10
128.0547456592694
 20
146.0469609856263
 30
0.0
 10
127.9900825967448
 20
146.0469609856263
 30
0.0
 10
127.940602800456
 20
146.0469609856263
 30
0.0
 10
127.8066330433173
 20
146.0469609856263
 30
0.0
 10
127.7205183167179
 20
146.0469609856263
 30
0.0
 10
127.5150622010049
 20
146.0469609856263
 30
0.0
 10
127.393641663812
 20
146.0469609856263
 30
0.0
 10
127.2710266940452
 20
146.0469609856263
 30
0.0
  0
LINE
  5
B6
330
1F
100
AcDbEntity
  8
0
  6
Continuous
 62
     7
370
    15
100
AcDbLine
 10
127.2710270004
 20
72.5491948723
 30
0.0
 11
125.05102686
 21
72.5491948723
 31
0.0
  0
LINE
  5
B7
330
1F
100
AcDbEntity
  8
0
  6
Continuous
 62
     7
370
    15
100
AcDbLine
 10
127.2710270004
 20
146.0469615012
 30
0.0
 11
125.05102686
 21
146.0469615012
 31
0.0
  0
SPLINE
  5
B8
330
1F
100
AcDbEntity
  8
0
  6
Continuous
 62
     7
370
    15
100
AcDbSpline
210
0.0
220
0.0
230
1.0
 70
     8
 71
     3
 72
     8
 73
     4
 74
     0
 42
0.000000001
 43
0.00000001
 40
0.0000000000000004
 40
0.0000000000000004
 40
0.0000000000000004
 40
0.0000000000000004
 40
0.0011862984959128
 40
0.0011862984959128
 40
0.0011862984959128
 40
0.0011862984959128
 10
128.9410745245453
 20
70.01104591864991
 30
0.0
 10
129.0911059944166
 20
69.82972582433888
 30
0.0
 10
129.242163439636
 20
69.64861349389851
 30
0.0
 10
129.3941882015071
 20
69.46770164428028
 30
0.0
  0
SPLINE
  5
B9
330
1F
100
AcDbEntity
  8
0
  6
Continuous
 62
     7
370
    15
100
AcDbSpline
210
0.0
220
0.0
230
1.0
 70
     8
 71
     3
 72
     8
 73
     4
 74
     0
 42
0.000000001
 43
0.00000001
 40
0.0
 40
0.0
 40
0.0
 40
0.0
 40
1.0
 40
1.0
 40
1.0
 40
1.0
 10
128.9410745245483
 20
70.01104591865159
 30
0.0
 10
128.6507802902868
 20
70.53294818437413
 30
0.0
 10
128.3607551400694
 20
71.05500156663355
 30
0.0
 10
128.0710266940452
 20
71.57722157679652
 30
0.0
  0
LINE
  5
BA
330
1F
100
AcDbEntity
  8
0
  6
Continuous
 62
     7
370
    15
100
AcDbLine
 10
128.0710265727
 20
71.57722193
 30
0.0
 11
128.0710265727
 21
98.2676584571
 31
0.0
  0
SPLINE
  5
BB
330
1F
100
AcDbEntity
  8
0
  6
Continuous
 62
     7
370
    15
100
AcDbSpline
210
0.0
220
0.0
230
1.0
 70
     8
 71
     3
 72
    14
 73
    10
 74
     0
 42
0.000000001
 43
0.00000001
 40
0.0
 40
0.0
 40
0.0
 40
0.0
 40
0.25
 40
0.25
 40
0.5
 40
0.5
 40
0.75
 40
0.75
 40
1.0
 40
1.0
 40
1.0
 40
1.0
 10
128.0710266940452
 20
71.71586949721967
 30
0.0
 10
128.0710266940452
 20
71.82293348356048
 30
0.0
 10
128.0510428678052
 20
71.92967280993498
 30
0.0
 10
127.9736077853717
 20
72.12842271212577
 30
0.0
 10
127.9156688632123
 20
72.2209769286183
 30
0.0
 10
127.7700310574515
 20
72.37607387202388
 30
0.0
 10
127.6812420611161
 20
72.43981402893675
 30
0.0
 10
127.4846937009116
 20
72.52656258602435
 30
0.0
 10
127.3785544712122
 20
72.54919471975651
 30
0.0
 10
127.2710266940452
 20
72.54919471975651
 30
0.0
  0
SPLINE
  5
BC
330
1F
100
AcDbEntity
  8
0
  6
Continuous
 62
     7
370
    15
100
AcDbSpline
210
0.0
220
0.0
230
1.0
 70
     8
 71
     3
 72
    14
 73
    10
 74
     0
 42
0.000000001
 43
0.00000001
 40
0.0
 40
0.0
 40
0.0
 40
0.0
 40
0.25
 40
0.25
 40
0.5
 40
0.5
 40
0.75
 40
0.75
 40
1.0
 40
1.0
 40
1.0
 40
1.0
 10
135.1110266940452
 20
78.30398670278595
 30
0.0
 10
134.9759853437941
 20
78.3075504597305
 30
0.0
 10
134.8422005801916
 20
78.28117802448106
 30
0.0
 10
134.5965969186351
 20
78.17476652192676
 30
0.0
 10
134.4849663990597
 20
78.09440893346512
 30
0.0
 10
134.3030605916443
 20
77.89834584329144
 30
0.0
 10
134.2313550184095
 20
77.78155791417139
 30
0.0
 10
134.1355279931185
 20
77.53094817864445
 30
0.0
 10
134.1110266940452
 20
77.39736204567002
 30
0.0
 10
134.1110266940452
 20
77.26268945012752
 30
0.0
  0
SPLINE
  5
BD
330
1F
100
AcDbEntity
  8
0
  6
Continuous
 62
     7
370
    15
100
AcDbSpline
210
0.0
220
0.0
230
1.0
 70
     8
 71
     3
 72
    14
 73
    10
 74
     0
 42
0.000000001
 43
0.00000001
 40
0.0
 40
0.0
 40
0.0
 40
0.0
 40
0.25
 40
0.25
 40
0.5
 40
0.5
 40
0.75
 40
0.75
 40
1.0
 40
1.0
 40
1.0
 40
1.0
 10
135.1110266940452
 20
154.2833625466628
 30
0.0
 10
134.9769727073908
 20
154.2806996051598
 30
0.0
 10
134.8467137392632
 20
154.299796197189
 30
0.0
 10
134.60659924917
 20
154.3776912863508
 30
0.0
 10
134.4974386603784
 20
154.4366736681965
 30
0.0
 10
134.3150943865888
 20
154.5892847558812
 30
0.0
 10
134.2401838077973
 20
154.6849521843977
 30
0.0
 10
134.1387368472014
 20
154.9021405384474
 30
0.0
 10
134.1110266940451
 20
155.0264027052054
 30
0.0
 10
134.1110266940452
 20
155.1557782920138
 30
0.0
  0
SPLINE
  5
BE
330
1F
100
AcDbEntity
  8
0
  6
Continuous
 62
     7
370
    15
100
AcDbSpline
210
0.0
220
0.0
230
1.0
 70
     8
 71
     3
 72
    17
 73
    13
 74
     0
 42
0.000000001
 43
0.00000001
 40
0.0
 40
0.0
 40
0.0
 40
0.0
 40
0.0045085079287206
 40
0.1160981167433076
 40
0.2216418390647785
 40
0.3301078333418276
 40
0.4383786628823748
 40
0.5495442680163631
 40
0.6622529182566766
 40
0.7782389060721052
 40
0.8874741877179562
 40
1.0
 40
1.0
 40
1.0
 40
1.0
 10
146.9542502181388
 20
76.19912627335937
 30
0.0
 10
146.9564950622386
 20
76.19840882813156
 30
0.0
 10
147.0143018081723
 20
76.1799339710097
 30
0.0
 10
146.8049772551177
 20
76.24729851949056
 30
0.0
 10
146.3083838960431
 20
76.40339969597551
 30
0.0
 10
145.4685635468246
 20
76.65491987033138
 30
0.0
 10
144.330942866325
 20
76.96917808706765
 30
0.0
 10
142.9055423277792
 20
77.31950094127629
 30
0.0
 10
141.202615297834
 20
77.67345631697886
 30
0.0
 10
139.3005403927669
 20
77.97873209661543
 30
0.0
 10
137.2477747547357
 20
78.21185866959662
 30
0.0
 10
135.8302872910511
 20
78.27297465490862
 30
0.0
 10
135.1110270933963
 20
78.30398607250602
 30
0.0
  0
SPLINE
  5
BF
330
1F
100
AcDbEntity
  8
0
  6
Continuous
 62
     7
370
    15
100
AcDbSpline
210
0.0
220
0.0
230
1.0
 70
     8
 71
     3
 72
    20
 73
    16
 74
     0
 42
0.000000001
 43
0.00000001
 40
0.0
 40
0.0
 40
0.0
 40
0.0
 40
0.2499999999999993
 40
0.2499999999999993
 40
0.3749999999999994
 40
0.3749999999999994
 40
0.4999999999999996
 40
0.4999999999999996
 40
0.6249999999999997
 40
0.6249999999999997
 40
0.7499999999999998
 40
0.7499999999999998
 40
0.8749999999999999
 40
0.8749999999999999
 40
1.0
 40
1.0
 40
1.0
 40
1.0
 10
145.3080128956978
 20
155.6969609856263
 30
0.0
 10
144.8013819294217
 20
155.5533473162915
 30
0.0
 10
144.1871649029167
 20
155.3929827776219
 30
0.0
 10
143.1007497284161
 20
155.1516127374895
 30
0.0
 10
142.7084252748507
 20
155.0706344888248
 30
0.0
 10
141.890746446522
 20
154.9169764536381
 30
0.0
 10
141.4632445252221
 20
154.8437498717117
 30
0.0
 10
140.5725531764895
 20
154.7074398144244
 30
0.0
 10
140.1083788410722
 20
154.6442369238118
 30
0.0
 10
139.1490475846209
 20
154.5309701277277
 30
0.0
 10
138.6611439871711
 20
154.4817274797894
 30
0.0
 10
137.670441490349
 20
154.3984988796362
 30
0.0
 10
137.1676419038301
 20
154.3645027273946
 30
0.0
 10
136.1480372916103
 20
154.3120901073296
 30
0.0
 10
135.6301488405727
 20
154.2936747495567
 30
0.0
 10
135.1110266940452
 20
154.2833625466628
 30
0.0
  0
SPLINE
  5
C0
330
1F
100
AcDbEntity
  8
0
  6
Continuous
 62
     7
370
    15
100
AcDbSpline
210
0.0
220
0.0
230
1.0
 70
     8
 71
     3
 72
    12
 73
     8
 74
     0
 42
0.000000001
 43
0.00000001
 40
0.0
 40
0.0
 40
0.0
 40
0.0
 40
0.0131684556703008
 40
0.3390995264753813
 40
0.6473717643514794
 40
0.9641793778578283
 40
1.0
 40
1.0
 40
1.0
 40
1.0
 10
146.9542502181388
 20
156.1947956978932
 30
0.0
 10
146.956495043738
 20
156.1955131440512
 30
0.0
 10
147.0143013132617
 20
156.2139880251243
 30
0.0
 10
146.8050461127662
 20
156.1466199899704
 30
0.0
 10
146.3081529501161
 20
155.9905338859942
 30
0.0
 10
145.719297645901
 20
155.8139017580472
 30
0.0
 10
145.34593920468
 20
155.7077462722746
 30
0.0
 10
145.3080127702809
 20
155.696962803568
 30
0.0
  0
LINE
  5
C1
330
1F
100
AcDbEntity
  8
0
  6
Continuous
 62
     7
370
    15
100
AcDbLine
 10
115.061026694
 20
81.2719621062
 30
0.0
 11
115.061026694
 21
151.1219598651
 31
0.0
  0
SPLINE
  5
C2
330
1F
100
AcDbEntity
  8
0
  6
Continuous
 62
     7
370
    15
100
AcDbSpline
210
0.0
220
0.0
230
1.0
 70
     8
 71
     3
 72
    12
 73
     8
 74
     0
 42
0.000000001
 43
0.00000001
 40
0.0
 40
0.0
 40
0.0
 40
0.0
 40
0.4999999999999944
 40
0.4999999999999944
 40
0.7499999999999972
 40
0.7499999999999972
 40
1.0
 40
1.0
 40
1.0
 40
1.0
 10
134.1110266940452
 20
162.4919479388568
 30
0.0
 10
134.1110266940452
 20
162.6121405455219
 30
0.0
 10
134.0570582637761
 20
162.7300478460369
 30
0.0
 10
133.8959716228432
 20
162.8694273905203
 30
0.0
 10
133.8312092033701
 20
162.9075926880842
 30
0.0
 10
133.6791552018057
 20
162.9622449504177
 30
0.0
 10
133.5964254286565
 20
162.9768056404018
 30
0.0
 10
133.5110266940452
 20
162.9768056404018
 30
0.0
  0
SPLINE
  5
C3
330
1F
100
AcDbEntity
  8
0
  6
Continuous
 62
     7
370
    15
100
AcDbSpline
210
0.0
220
0.0
230
1.0
 70
     8
 71
     3
 72
    12
 73
     8
 74
     0
 42
0.000000001
 43
0.00000001
 40
0.0
 40
0.0
 40
0.0
 40
0.0
 40
0.2499999999999946
 40
0.2499999999999946
 40
0.4999999999999892
 40
0.4999999999999892
 40
1.0
 40
1.0
 40
1.0
 40
1.0
 10
133.5110266940457
 20
154.7080389373015
 30
0.0
 10
133.6005637522168
 20
154.7080389373014
 30
0.0
 10
133.6904629310054
 20
154.6812116384704
 30
0.0
 10
133.8438877900047
 20
154.5895046732109
 30
0.0
 10
133.9089368473824
 20
154.525249731612
 30
0.0
 10
134.0622560786467
 20
154.3058375855504
 30
0.0
 10
134.1110266940452
 20
154.1240222757536
 30
0.0
 10
134.1110266940452
 20
153.9460421002707
 30
0.0
  0
LINE
  5
C4
330
1F
100
AcDbEntity
  8
0
  6
Continuous
 62
     7
370
    15
100
AcDbLine
 10
134.1110269295
 20
153.9460428357
 30
0.0
 11
134.1110269295
 21
162.4919481873
 31
0.0
  0
SPLINE
  5
C5
330
1F
100
AcDbEntity
  8
0
  6
Continuous
 62
     7
370
    15
100
AcDbSpline
210
0.0
220
0.0
230
1.0
 70
     8
 71
     3
 72
     8
 73
     4
 74
     0
 42
0.000000001
 43
0.00000001
 40
0.0
 40
0.0
 40
0.0
 40
0.0
 40
1.0
 40
1.0
 40
1.0
 40
1.0
 10
128.8376977162116
 20
162.1969942302937
 30
0.0
 10
128.5819214054561
 20
161.7370158750289
 30
0.0
 10
128.3263580073502
 20
161.2769214147211
 30
0.0
 10
128.0710266940452
 20
160.8167003944561
 30
0.0
  0
SPLINE
  5
C6
330
1F
100
AcDbEntity
  8
0
  6
Continuous
 62
     7
370
    15
100
AcDbSpline
210
0.0
220
0.0
230
1.0
 70
     8
 71
     3
 72
     8
 73
     4
 74
     0
 42
0.000000001
 43
0.00000001
 40
0.0
 40
0.0
 40
0.0
 40
0.0
 40
0.0012352705496738
 40
0.0012352705496738
 40
0.0012352705496738
 40
0.0012352705496738
 10
129.3941882015071
 20
162.9768056404018
 30
0.0
 10
129.2082397761849
 20
162.7170298846502
 30
0.0
 10
129.0227329670139
 20
162.4570958060229
 30
0.0
 10
128.8376977162117
 20
162.1969942302942
 30
0.0
  0
LINE
  5
C7
330
1F
100
AcDbEntity
  8
0
  6
Continuous
 62
     7
370
    15
100
AcDbLine
 10
129.3941882195
 20
154.7080397904
 30
0.0
 11
129.3941882195
 21
162.9768058955
 31
0.0
  0
SPLINE
  5
C8
330
1F
100
AcDbEntity
  8
0
  6
Continuous
 62
     7
370
    15
100
AcDbSpline
210
0.0
220
0.0
230
1.0
 70
     8
 71
     3
 72
     8
 73
     4
 74
     0
 42
0.000000001
 43
0.00000001
 40
0.0
 40
0.0
 40
0.0
 40
0.0
 40
1.0
 40
1.0
 40
1.0
 40
1.0
 10
128.0710266940452
 20
151.7640967279359
 30
0.0
 10
128.5059731156835
 20
152.7476010463183
 30
0.0
 10
128.9473394735794
 20
153.7288030390452
 30
0.0
 10
129.3941882015071
 20
154.7080389373014
 30
0.0
  0
LINE
  5
C9
330
1F
100
AcDbEntity
  8
0
  6
Continuous
 62
     7
370
    15
100
AcDbLine
 10
128.0710265727
 20
151.7640956044
 30
0.0
 11
128.0710265727
 21
160.8167000413
 31
0.0
  0
LINE
  5
CA
330
1F
100
AcDbEntity
  8
0
  6
Continuous
 62
     7
370
    15
100
AcDbLine
 10
133.5110260861
 20
162.9768058955
 30
0.0
 11
129.3941882195
 21
162.9768058955
 31
0.0
  0
LINE
  5
CB
330
1F
100
AcDbEntity
  8
0
  6
Continuous
 62
     7
370
    15
100
AcDbLine
 10
129.3941882195
 20
154.7080397904
 30
0.0
 11
133.5110260861
 21
154.7080397904
 31
0.0
  0
LINE
  5
CC
330
1F
100
AcDbEntity
  8
0
  6
Continuous
 62
     7
370
    15
100
AcDbLine
 10
122.927865641
 20
162.9768058955
 30
0.0
 11
118.8610267581
 21
162.9768058955
 31
0.0
  0
LINE
  5
CD
330
1F
100
AcDbEntity
  8
0
  6
Continuous
 62
     7
370
    15
100
AcDbLine
 10
122.927865641
 20
154.7080397904
 30
0.0
 11
122.927865641
 21
162.9768058955
 31
0.0
  0
LINE
  5
CE
330
1F
100
AcDbEntity
  8
0
  6
Continuous
 62
     7
370
    15
100
AcDbLine
 10
118.8610267581
 20
154.7080397904
 30
0.0
 11
122.927865641
 21
154.7080397904
 31
0.0
  0
LINE
  5
CF
330
1F
100
AcDbEntity
  8
0
  6
Continuous
 62
     7
370
    15
100
AcDbLine
 10
127.2710270004
 20
159.8447270989
 30
0.0
 11
125.05102686
 21
159.8447270989
 31
0.0
  0
LINE
  5
D0
330
1F
100
AcDbEntity
  8
0
  6
Continuous
 62
     7
370
    15
100
AcDbLine
 10
125.05102686
 20
150.536843419
 30
0.0
 11
127.2710270004
 21
150.536843419
 31
0.0
  0
SPLINE
  5
D1
330
1F
100
AcDbEntity
  8
0
  6
Continuous
 62
     7
370
    15
100
AcDbSpline
210
0.0
220
0.0
230
1.0
 70
     8
 71
     3
 72
    14
 73
    10
 74
     0
 42
0.000000001
 43
0.00000001
 40
0.0
 40
0.0
 40
0.0
 40
0.0
 40
0.25
 40
0.25
 40
0.5
 40
0.5
 40
0.75
 40
0.75
 40
1.0
 40
1.0
 40
1.0
 40
1.0
 10
128.0710266940452
 20
160.6780524740329
 30
0.0
 10
128.0710266940452
 20
160.5707101018855
 30
0.0
 10
128.051030501981
 20
160.4640810950376
 30
0.0
 10
127.9733324176363
 20
160.2649293158865
 30
0.0
 10
127.9153392727427
 20
160.172446417571
 30
0.0
 10
127.7692927799199
 20
160.0172105824618
 30
0.0
 10
127.6799550407522
 20
159.9534766408494
 30
0.0
 10
127.4852000286918
 20
159.8676463744542
 30
0.0
 10
127.3776697574829
 20
159.8447272514958
 30
0.0
 10
127.2710266940431
 20
159.8447272514961
 30
0.0
  0
SPLINE
  5
D2
330
1F
100
AcDbEntity
  8
0
  6
Continuous
 62
     7
370
    15
100
AcDbSpline
210
0.0
220
0.0
230
1.0
 70
     8
 71
     3
 72
    14
 73
    10
 74
     0
 42
0.000000001
 43
0.00000001
 40
0.0
 40
0.0
 40
0.0
 40
0.0
 40
0.25
 40
0.25
 40
0.5
 40
0.5
 40
0.75
 40
0.75
 40
1.0
 40
1.0
 40
1.0
 40
1.0
 10
127.2710266940452
 20
150.5368430471594
 30
0.0
 10
127.3923532240309
 20
150.5368430471594
 30
0.0
 10
127.5140579325931
 20
150.5756245625925
 30
0.0
 10
127.7204978114793
 20
150.7067791842864
 30
0.0
 10
127.8064483499353
 20
150.7974312688735
 30
0.0
 10
127.9403601096836
 20
150.9995483038148
 30
0.0
 10
127.9899245465028
 20
151.113283247354
 30
0.0
 10
128.0547785744707
 20
151.3462428644205
 30
0.0
 10
128.0710266940452
 20
151.4689411307497
 30
0.0
 10
128.0710266940452
 20
151.5900040873433
 30
0.0
  0
SPLINE
  5
D3
330
1F
100
AcDbEntity
  8
0
  6
Continuous
 62
     7
370
    15
100
AcDbSpline
210
0.0
220
0.0
230
1.0
 70
     8
 71
     3
 72
    12
 73
     8
 74
     0
 42
0.000000001
 43
0.00000001
 40
0.0
 40
0.0
 40
0.0
 40
0.0
 40
0.5
 40
0.5
 40
0.75
 40
0.75
 40
1.0
 40
1.0
 40
1.0
 40
1.0
 10
118.2610266940451
 20
153.9460421002707
 30
0.0
 10
118.2610266940451
 20
154.12440236751
 30
0.0
 10
118.3083388154211
 20
154.3031747792139
 30
0.0
 10
118.4626988933025
 20
154.5249366445657
 30
0.0
 10
118.5275844282215
 20
154.5892286831821
 30
0.0
 10
118.6828171274498
 20
154.6818731673417
 30
0.0
 10
118.771892540118
 20
154.7080389373015
 30
0.0
 10
118.8610266940452
 20
154.7080389373015
 30
0.0
  0
SPLINE
  5
D4
330
1F
100
AcDbEntity
  8
0
  6
Continuous
 62
     7
370
    15
100
AcDbSpline
210
0.0
220
0.0
230
1.0
 70
     8
 71
     3
 72
     8
 73
     4
 74
     0
 42
0.000000001
 43
0.00000001
 40
0.0
 40
0.0
 40
0.0
 40
0.0
 40
1.0
 40
1.0
 40
1.0
 40
1.0
 10
122.9278651865833
 20
154.7080389373014
 30
0.0
 10
123.3747139145109
 20
153.7288030390451
 30
0.0
 10
123.8160802724068
 20
152.7476010463183
 30
0.0
 10
124.2510266940452
 20
151.7640967279359
 30
0.0
  0
LINE
  5
D5
330
1F
100
AcDbEntity
  8
0
  6
Continuous
 62
     7
370
    15
100
AcDbLine
 10
124.2510263564
 20
151.7640956044
 30
0.0
 11
124.2510263564
 21
151.5900053382
 31
0.0
  0
SPLINE
  5
D6
330
1F
100
AcDbEntity
  8
0
  6
Continuous
 62
     7
370
    15
100
AcDbSpline
210
0.0
220
0.0
230
1.0
 70
     8
 71
     3
 72
    12
 73
     8
 74
     0
 42
0.000000001
 43
0.00000001
 40
0.0
 40
0.0
 40
0.0
 40
0.0
 40
0.499999999999994
 40
0.499999999999994
 40
0.749999999999997
 40
0.749999999999997
 40
1.0
 40
1.0
 40
1.0
 40
1.0
 10
124.2510266940452
 20
151.5900040873433
 30
0.0
 10
124.2510266940452
 20
151.3475809913626
 30
0.0
 10
124.313947835487
 20
151.1018104707612
 30
0.0
 10
124.5159767324894
 20
150.7968642913443
 30
0.0
 10
124.6022704571366
 20
150.7062714247459
 30
0.0
 10
124.8077442517034
 20
150.575837861809
 30
0.0
 10
124.927694812303
 20
150.5368430471594
 30
0.0
 10
125.0510266940452
 20
150.5368430471594
 30
0.0
  0
LINE
  5
D7
330
1F
100
AcDbEntity
  8
0
  6
Continuous
 62
     7
370
    15
100
AcDbLine
 10
128.0710265727
 20
151.5900053382
 30
0.0
 11
128.0710265727
 21
151.7640956044
 31
0.0
  0
LINE
  5
D8
330
1F
100
AcDbEntity
  8
0
  6
Continuous
 62
     7
370
    15
100
AcDbLine
 10
134.1110269295
 20
153.9460428357
 30
0.0
 11
134.1110269295
 21
146.0469615012
 31
0.0
  0
LINE
  5
D9
330
1F
100
AcDbEntity
  8
0
  6
Continuous
 62
     7
370
    15
100
AcDbLine
 10
118.2610266132
 20
153.9460428357
 30
0.0
 11
118.2610266132
 21
146.0469615012
 31
0.0
  0
SPLINE
  5
DA
330
1F
100
AcDbEntity
  8
0
  6
Continuous
 62
     7
370
    15
100
AcDbSpline
210
0.0
220
0.0
230
1.0
 70
     8
 71
     3
 72
    10
 73
     6
 74
     0
 42
0.000000001
 43
0.00000001
 40
0.0
 40
0.0
 40
0.0
 40
0.0
 40
0.5
 40
0.5
 40
1.0
 40
1.0
 40
1.0
 40
1.0
 10
118.5508956129915
 20
162.907125311349
 30
0.0
 10
118.4744425230727
 20
162.8368625401284
 30
0.0
 10
118.4055808008036
 20
162.7497676250867
 30
0.0
 10
118.2990685697307
 20
162.5405984968344
 30
0.0
 10
118.2610266940451
 20
162.4152809475949
 30
0.0
 10
118.2610266940451
 20
162.285930652999
 30
0.0
  0
SPLINE
  5
DB
330
1F
100
AcDbEntity
  8
0
  6
Continuous
 62
     7
370
    15
100
AcDbSpline
210
0.0
220
0.0
230
1.0
 70
     8
 71
     3
 72
     8
 73
     4
 74
     0
 42
0.000000001
 43
0.00000001
 40
0.0
 40
0.0
 40
0.0
 40
0.0
 40
1.0
 40
1.0
 40
1.0
 40
1.0
 10
118.8610266940452
 20
162.9768056404018
 30
0.0
 10
118.7499485087077
 20
162.9768056404018
 30
0.0
 10
118.6422845048055
 20
162.9516564648473
 30
0.0
 10
118.5508956129915
 20
162.907125311349
 30
0.0
  0
LINE
  5
DC
330
1F
100
AcDbEntity
  8
0
  6
Continuous
 62
     7
370
    15
100
AcDbLine
 10
118.2610266132
 20
153.9460428357
 30
0.0
 11
118.2610266132
 21
162.2859321832
 31
0.0
  0
SPLINE
  5
DD
330
1F
100
AcDbEntity
  8
0
  6
Continuous
 62
     7
370
    15
100
AcDbSpline
210
0.0
220
0.0
230
1.0
 70
     8
 71
     3
 72
    12
 73
     8
 74
     0
 42
0.000000001
 43
0.00000001
 40
0.0
 40
0.0
 40
0.0
 40
0.0
 40
0.2500000000000007
 40
0.2500000000000007
 40
0.5000000000000014
 40
0.5000000000000014
 40
1.0
 40
1.0
 40
1.0
 40
1.0
 10
125.0510266940452
 20
159.8447272514961
 30
0.0
 10
124.9446817141692
 20
159.8447272514961
 30
0.0
 10
124.8374053667666
 20
159.8674424893556
 30
0.0
 10
124.6420295773705
 20
159.9534676562379
 30
0.0
 10
124.5534758412936
 20
160.0164463831663
 30
0.0
 10
124.3322179171623
 20
160.2516378936034
 30
0.0
 10
124.2510266940452
 20
160.4648141080887
 30
0.0
 10
124.2510266940451
 20
160.6780524740328
 30
0.0
  0
SPLINE
  5
DE
330
1F
100
AcDbEntity
  8
0
  6
Continuous
 62
     7
370
    15
100
AcDbSpline
210
0.0
220
0.0
230
1.0
 70
     8
 71
     3
 72
     8
 73
     4
 74
     0
 42
0.000000001
 43
0.00000001
 40
0.0
 40
0.0
 40
0.0
 40
0.0
 40
0.0012352705496723
 40
0.0012352705496723
 40
0.0012352705496723
 40
0.0012352705496723
 10
123.4843556718778
 20
162.1969942302954
 30
0.0
 10
123.2993204210759
 20
162.4570958060236
 30
0.0
 10
123.1138136119051
 20
162.7170298846506
 30
0.0
 10
122.9278651865833
 20
162.9768056404018
 30
0.0
  0
SPLINE
  5
DF
330
1F
100
AcDbEntity
  8
0
  6
Continuous
 62
     7
370
    15
100
AcDbSpline
210
0.0
220
0.0
230
1.0
 70
     8
 71
     3
 72
     8
 73
     4
 74
     0
 42
0.000000001
 43
0.00000001
 40
0.0
 40
0.0
 40
0.0
 40
0.0
 40
1.0
 40
1.0
 40
1.0
 40
1.0
 10
124.2510266940452
 20
160.8167003944561
 30
0.0
 10
123.9956953807398
 20
161.2769214147217
 30
0.0
 10
123.7401319826335
 20
161.73701587503
 30
0.0
 10
123.4843556718778
 20
162.1969942302954
 30
0.0
  0
LINE
  5
E0
330
1F
100
AcDbEntity
  8
0
  6
Continuous
 62
     7
370
    15
100
AcDbLine
 10
124.2510263564
 20
151.7640956044
 30
0.0
 11
124.2510263564
 21
160.8167000413
 31
0.0
  0
LINE
  5
E1
330
1F
100
AcDbEntity
  8
0
  6
Continuous
 62
     7
370
    15
100
AcDbLine
 10
13.4610279219
 20
97.8181165009
 30
0.0
 11
13.4610279219
 21
134.5758054703
 31
0.0
  0
SPLINE
  5
E2
330
1F
100
AcDbEntity
  8
0
  6
Continuous
 62
     7
370
    15
100
AcDbSpline
210
0.0
220
0.0
230
1.0
 70
     8
 71
     3
 72
    11
 73
     7
 74
     0
 42
0.000000001
 43
0.00000001
 40
0.0
 40
0.0
 40
0.0
 40
0.0
 40
0.1285556595458678
 40
0.4801542498637137
 40
0.8150694374219397
 40
1.0
 40
1.0
 40
1.0
 40
1.0
 10
264.8898332135535
 20
113.8586970809504
 30
0.0
 10
264.7019860563091
 20
113.7216700325867
 30
0.0
 10
264.0003785876505
 20
113.2098752205143
 30
0.0
 10
262.6846948949351
 20
112.2501604787441
 30
0.0
 10
261.2600973419305
 20
111.2109776477986
 30
0.0
 10
260.496931488039
 20
110.654283122949
 30
0.0
 10
260.2254419343329
 20
110.4562439322129
 30
0.0
  0
SPLINE
  5
E3
330
1F
100
AcDbEntity
  8
0
  6
Continuous
 62
     7
370
    15
100
AcDbSpline
210
0.0
220
0.0
230
1.0
 70
     8
 71
     3
 72
    11
 73
     7
 74
     0
 42
0.000000001
 43
0.00000001
 40
0.0
 40
0.0
 40
0.0
 40
0.0
 40
0.2164577238535426
 40
0.4403159429962105
 40
0.7519041708237777
 40
1.0
 40
1.0
 40
1.0
 40
1.0
 10
264.2754285352088
 20
119.5994143671945
 30
0.0
 10
264.3175178396454
 20
119.2061657925719
 30
0.0
 10
264.4031354440584
 20
118.4062238275349
 30
0.0
 10
264.5620072687614
 20
116.9217492418751
 30
0.0
 10
264.7324298787984
 20
115.3294006822162
 30
0.0
 10
264.841489461104
 20
114.3103986343947
 30
0.0
 10
264.8898332135535
 20
113.8586970809504
 30
0.0
  0
SPLINE
  5
E4
330
1F
100
AcDbEntity
  8
0
  6
Continuous
 62
     7
370
    15
100
AcDbSpline
210
0.0
220
0.0
230
1.0
 70
     8
 71
     3
 72
    11
 73
     7
 74
     0
 42
0.000000001
 43
0.00000001
 40
0.0
 40
0.0
 40
0.0
 40
0.0
 40
0.2164584158873335
 40
0.4403159723837256
 40
0.7519046341964986
 40
1.0
 40
1.0
 40
1.0
 40
1.0
 10
258.9966176764823
 20
121.9376780390397
 30
0.0
 10
259.3582269585322
 20
121.7775035777036
 30
0.0
 10
260.0938063167939
 20
121.4516794539099
 30
0.0
 10
261.4588353875532
 20
120.847029970648
 30
0.0
 10
262.9230623201412
 20
120.1984516080169
 30
0.0
 10
263.8600728161094
 20
119.7833982179864
 30
0.0
 10
264.2754285352088
 20
119.5994143671945
 30
0.0
  0
SPLINE
  5
E5
330
1F
100
AcDbEntity
  8
0
  6
Continuous
 62
     7
370
    15
100
AcDbSpline
210
0.0
220
0.0
230
1.0
 70
     8
 71
     3
 72
    11
 73
     7
 74
     0
 42
0.000000001
 43
0.00000001
 40
0.0
 40
0.0
 40
0.0
 40
0.0
 40
0.1849320849278038
 40
0.5198466554984204
 40
0.8714445980941511
 40
1.0
 40
1.0
 40
1.0
 40
1.0
 10
254.3322114961005
 20
118.5352248903021
 30
0.0
 10
254.6037063842494
 20
118.7332637382431
 30
0.0
 10
255.3668822801154
 20
119.2899536863452
 30
0.0
 10
256.7914781219711
 20
120.3291426732259
 30
0.0
 10
258.1071630430915
 20
121.2888564396843
 30
0.0
 10
258.8087705352223
 20
121.8006510586281
 30
0.0
 10
258.9966176764823
 20
121.9376780390397
 30
0.0
  0
SPLINE
  5
E6
330
1F
100
AcDbEntity
  8
0
  6
Continuous
 62
     7
370
    15
100
AcDbSpline
210
0.0
220
0.0
230
1.0
 70
     8
 71
     3
 72
    11
 73
     7
 74
     0
 42
0.000000001
 43
0.00000001
 40
0.0
 40
0.0
 40
0.0
 40
0.0
 40
0.2164576678915374
 40
0.4403160876944065
 40
0.7519042349653562
 40
1.0
 40
1.0
 40
1.0
 40
1.0
 10
254.9466310756064
 20
112.7945076040581
 30
0.0
 10
254.9045432920365
 20
113.1877563386092
 30
0.0
 10
254.8189287310842
 20
113.9876990986648
 30
0.0
 10
254.6600298874313
 20
115.4721714296157
 30
0.0
 10
254.4896164870466
 20
117.0645214575686
 30
0.0
 10
254.3805557572209
 20
118.0835233886198
 30
0.0
 10
254.3322114961005
 20
118.5352248903021
 30
0.0
  0
SPLINE
  5
E7
330
1F
100
AcDbEntity
  8
0
  6
Continuous
 62
     7
370
    15
100
AcDbSpline
210
0.0
220
0.0
230
1.0
 70
     8
 71
     3
 72
    11
 73
     7
 74
     0
 42
0.000000001
 43
0.00000001
 40
0.0
 40
0.0
 40
0.0
 40
0.0
 40
0.2164584158873335
 40
0.4403159723837256
 40
0.7519046341964986
 40
1.0
 40
1.0
 40
1.0
 40
1.0
 10
260.2254419343329
 20
110.4562439322129
 30
0.0
 10
259.8638326522832
 20
110.616418393549
 30
0.0
 10
259.1282532940215
 20
110.9422425173427
 30
0.0
 10
257.7632242232619
 20
111.5468920006046
 30
0.0
 10
256.2989972906742
 20
112.1954703632357
 30
0.0
 10
255.3619867947058
 20
112.6105237532662
 30
0.0
 10
254.9466310756064
 20
112.7945076040581
 30
0.0
  0
CIRCLE
  5
E8
330
1F
100
AcDbEntity
  8
0
  6
Continuous
 62
     7
370
    15
100
AcDbCircle
 10
259.611026694
 20
116.1969609856
 30
0.0
 40
6.000000000000012
  0
CIRCLE
  5
E9
330
1F
100
AcDbEntity
  8
0
  6
Continuous
 62
     7
370
    15
100
AcDbCircle
 10
259.611026694
 20
116.1969609856
 30
0.0
 40
9.00000000000003
  0
CIRCLE
  5
EA
330
1F
100
AcDbEntity
  8
0
  6
Continuous
 62
     7
370
    15
100
AcDbCircle
 10
259.611026694
 20
116.1969609856
 30
0.0
 40
10.00000000000003
  0
ARC
  5
EB
330
1F
100
AcDbEntity
  8
0
  6
Continuous
 62
     7
370
    15
100
AcDbCircle
 10
259.611026694
 20
116.1969609856
 30
0.0
 40
5.000000000000036
100
AcDbArc
 50
246.1089242151
 51
306.1089242151
  0
ARC
  5
EC
330
1F
100
AcDbEntity
  8
0
  6
Continuous
 62
     7
370
    15
100
AcDbCircle
 10
259.611026694
 20
116.1969609856
 30
0.0
 40
5.000000000000036
100
AcDbArc
 50
306.1089242151
 51
6.1089242151
  0
ARC
  5
ED
330
1F
100
AcDbEntity
  8
0
  6
Continuous
 62
     7
370
    15
100
AcDbCircle
 10
259.611026694
 20
116.1969609856
 30
0.0
 40
5.00000000000002
100
AcDbArc
 50
66.1089242151
 51
126.1089242151
  0
ARC
  5
EE
330
1F
100
AcDbEntity
  8
0
  6
Continuous
 62
     7
370
    15
100
AcDbCircle
 10
259.611026694
 20
116.1969609856
 30
0.0
 40
5.000000000000025
100
AcDbArc
 50
6.1089242151
 51
66.1089242151
  0
ARC
  5
EF
330
1F
100
AcDbEntity
  8
0
  6
Continuous
 62
     7
370
    15
100
AcDbCircle
 10
259.611026694
 20
116.1969609856
 30
0.0
 40
4.999999999999996
100
AcDbArc
 50
186.1089242151
 51
246.1089242151
  0
ARC
  5
F0
330
1F
100
AcDbEntity
  8
0
  6
Continuous
 62
     7
370
    15
100
AcDbCircle
 10
259.611026694
 20
116.1969609856
 30
0.0
 40
4.99999999999997
100
AcDbArc
 50
126.1089242151
 51
186.1089242151
  0
ARC
  5
F1
330
1F
100
AcDbEntity
  8
0
  6
Continuous
 62
     7
370
    15
100
AcDbCircle
 10
129.1103544912
 20
100.9922037932
 30
0.0
 40
2.349573416440398
100
AcDbArc
 50
180.8279371438
 51
252.5550315061
  0
ARC
  5
F2
330
1F
100
AcDbEntity
  8
0
  6
Continuous
 62
     7
370
    15
100
AcDbCircle
 10
129.2727139459
 20
101.126092657
 30
0.0
 40
2.528583022929716
100
AcDbArc
 50
249.953915282
 51
339.7516454656
  0
ARC
  5
F3
330
1F
100
AcDbEntity
  8
0
  6
Continuous
 62
     7
370
    15
100
AcDbCircle
 10
129.084105286
 20
100.9101852882
 30
0.0
 40
2.176972519054651
100
AcDbArc
 50
159.1429176814
 51
253.1716206901
  0
ARC
  5
F4
330
1F
100
AcDbEntity
  8
0
  6
Continuous
 62
     7
370
    15
100
AcDbCircle
 10
129.2731855177
 20
101.0553217051
 30
0.0
 40
2.374703035505879
100
AcDbArc
 50
249.8168123538
 51
345.3457589111
  0
ARC
  5
F5
330
1F
100
AcDbEntity
  8
0
  6
Continuous
 62
     7
370
    15
100
AcDbCircle
 10
129.1146959524
 20
100.9046993194
 30
0.0
 40
1.840665098108555
100
AcDbArc
 50
124.5478429302
 51
253.0146022911
  0
ARC
  5
F6
330
1F
100
AcDbEntity
  8
0
  6
Continuous
 62
     7
370
    15
100
AcDbCircle
 10
129.2763728789
 20
101.0040247985
 30
0.0
 40
1.986862719350459
100
AcDbArc
 50
249.3899677367
 51
357.2982754948
  0
CIRCLE
  5
F7
330
1F
100
AcDbEntity
  8
0
  6
HIDDEN
 62
     7
370
     0
100
AcDbCircle
 10
259.611026694
 20
116.1969609856
 30
0.0
 40
9.250000000000014
  0
LWPOLYLINE
  5
F8
330
1F
100
AcDbEntity
  8
0
  6
HIDDEN
 62
     7
370
     0
100
AcDbPolyline
 90
       18
 70
   128
 43
0.0
 10
129.2610267864
 20
100.339644432
 10
130.1641312184
 20
100.4982821941
 10
130.9452659206
 20
100.9527722671
 10
131.4989353286
 20
101.6417330429
 10
131.7503626214
 20
102.4721160829
 10
131.6655899154
 20
103.3317733854
 10
131.2560706155
 20
104.1046034842
 10
130.5771066563
 20
104.6862321272
 10
129.720400715
 20
104.9981069117
 10
128.8016528578
 20
104.9981069117
 10
127.9449459852
 20
104.6862321272
 10
127.2659838887
 20
104.1046034842
 10
126.8564627262
 20
103.3317733854
 10
126.7716909515
 20
102.4721160829
 10
127.0231182443
 20
101.6417330429
 10
127.5767876522
 20
100.9527722671
 10
128.3579223545
 20
100.4982821941
 10
129.2610267864
 20
100.339644432
  0
LWPOLYLINE
  5
F9
330
1F
100
AcDbEntity
  8
0
  6
HIDDEN
 62
     7
370
     0
100
AcDbPolyline
 90
       20
 70
   128
 43
0.0
 10
118.5327576695
 20
102.2921007424
 10
118.7817414047
 20
101.336930722
 10
119.1824382858
 20
100.4852678924
 10
119.6914270276
 20
99.8294025957
 10
120.2535505162
 20
99.4404096454
 10
120.8078937361
 20
99.3604407012
 10
121.2943854498
 20
99.5981645137
 10
121.6603062803
 20
100.1278169751
 10
121.8660033064
 20
100.8920034691
 10
121.8891862536
 20
101.8079117238
 10
121.7273424135
 20
102.776289761
 10
121.3980099873
 20
103.692198947
 10
120.9368781874
 20
104.4563854411
 10
120.3939166607
 20
104.9860379025
 10
119.827964505
 20
105.2237607836
 10
119.3003511743
 20
105.1437927708
 10
118.8682517258
 20
104.7547998204
 10
118.5784907302
 20
104.0989345237
 10
118.4624684265
 20
103.2472716942
 10
118.5327576695
 20
102.2921007424
  0
LWPOLYLINE
  5
FA
330
1F
100
AcDbEntity
  8
0
  6
HIDDEN
 62
     7
370
     0
100
AcDbPolyline
 90
       17
 70
   128
 43
0.0
 10
119.2957895564
 20
102.3563629314
 10
119.5153558383
 20
101.5683429613
 10
119.8772268126
 20
100.90029224
 10
120.3263110237
 20
100.4539139866
 10
120.7942391502
 20
100.2971668094
 10
121.2097729312
 20
100.4539139866
 10
121.509652281
 20
100.90029224
 10
121.6482223699
 20
101.5683429613
 10
121.6043873446
 20
102.3563629314
 10
121.384820597
 20
103.1443819701
 10
121.0229496227
 20
103.8124336227
 10
120.5738654116
 20
104.2588109448
 10
120.1059377508
 20
104.4155571907
 10
119.6904035041
 20
104.2588109448
 10
119.39052462
 20
103.8124336227
 10
119.2519545311
 20
103.1443819701
 10
119.2957895564
 20
102.3563629314
  0
LINE
  5
FB
330
1F
100
AcDbEntity
  8
0
  6
HIDDEN
 62
     7
370
     0
100
AcDbLine
 10
283.4110229032
 20
143.530950725
 30
0.0
 11
283.4110229032
 21
88.8629712462
 31
0.0
  0
SPLINE
  5
FC
330
1F
100
AcDbEntity
  8
0
  6
HIDDEN
 62
     7
370
     0
100
AcDbSpline
210
0.0
220
0.0
230
1.0
 70
     8
 71
     3
 72
    22
 73
    18
 74
     0
 42
0.000000001
 43
0.00000001
 40
0.0
 40
0.0
 40
0.0
 40
0.0
 40
0.125
 40
0.125
 40
0.25
 40
0.25
 40
0.375
 40
0.375
 40
0.5
 40
0.5
 40
0.625
 40
0.625
 40
0.75
 40
0.75
 40
0.875
 40
0.875
 40
1.0
 40
1.0
 40
1.0
 40
1.0
 10
283.4110266940453
 20
88.86297056443063
 30
0.0
 10
283.4864170486221
 20
88.57908302999179
 30
0.0
 10
283.5530215627945
 20
88.3019857160614
 30
0.0
 10
283.6692335631231
 20
87.76145931010069
 30
0.0
 10
283.7190550088392
 20
87.49669167778555
 30
0.0
 10
283.7998043201261
 20
86.98786262876618
 30
0.0
 10
283.8300363218572
 20
86.74871562674824
 30
0.0
 10
283.8708079110237
 20
86.30052158409723
 30
0.0
 10
283.8813309733392
 20
86.08980907996505
 30
0.0
 10
283.8814107750948
 20
85.70871665638346
 30
0.0
 10
283.8711691799301
 20
85.54008810018688
 30
0.0
 10
283.8306451631873
 20
85.24534313419032
 30
0.0
 10
283.7998798984636
 20
85.11834086308268
 30
0.0
 10
283.7196645296495
 20
84.91510387656703
 30
0.0
 10
283.6704457004564
 20
84.83814072616653
 30
0.0
 10
283.5540347017592
 20
84.73169523834994
 30
0.0
 10
283.4864339288048
 20
84.70242123977862
 30
0.0
 10
283.4110266940453
 20
84.69766242837605
 30
0.0
  0
LINE
  5
FD
330
1F
100
AcDbEntity
  8
0
  6
HIDDEN
 62
     7
370
     0
100
AcDbLine
 10
283.4110229032
 20
84.6976608336
 30
0.0
 11
283.4110229032
 21
77.8053410649
 31
0.0
  0
LINE
  5
FE
330
1F
100
AcDbEntity
  8
0
  6
HIDDEN
 62
     7
370
     0
100
AcDbLine
 10
283.4110229032
 20
154.5885809064
 30
0.0
 11
283.4110229032
 21
147.6962611377
 31
0.0
  0
SPLINE
  5
FF
330
1F
100
AcDbEntity
  8
0
  6
HIDDEN
 62
     7
370
     0
100
AcDbSpline
210
0.0
220
0.0
230
1.0
 70
     8
 71
     3
 72
    22
 73
    18
 74
     0
 42
0.000000001
 43
0.00000001
 40
0.0
 40
0.0
 40
0.0
 40
0.0
 40
0.125
 40
0.125
 40
0.25
 40
0.25
 40
0.375
 40
0.375
 40
0.5
 40
0.5
 40
0.625
 40
0.625
 40
0.75
 40
0.75
 40
0.875
 40
0.875
 40
1.0
 40
1.0
 40
1.0
 40
1.0
 10
283.4110266940453
 20
147.6962595428765
 30
0.0
 10
283.4864170486221
 20
147.6915017967511
 30
0.0
 10
283.5530215627945
 20
147.6627408667702
 30
0.0
 10
283.6692335631232
 20
147.5572940628228
 30
0.0
 10
283.7190550088392
 20
147.480086109606
 30
0.0
 10
283.7998043201261
 20
147.2760465530467
 30
0.0
 10
283.8300363218572
 20
147.1514832397939
 30
0.0
 10
283.8708079110237
 20
146.8579494382349
 30
0.0
 10
283.8813309733392
 20
146.6872532112895
 30
0.0
 10
283.8814107750948
 20
146.3064640131762
 30
0.0
 10
283.8711691799301
 20
146.0988884247673
 30
0.0
 10
283.8306451631873
 20
145.6504182772554
 30
0.0
 10
283.7998798984636
 20
145.406812912472
 30
0.0
 10
283.7196645296495
 20
144.9007961246058
 30
0.0
 10
283.6704457004564
 20
144.6385270536677
 30
0.0
 10
283.5540347017592
 20
144.0962301576602
 30
0.0
 10
283.4864339288048
 20
143.8149025047431
 30
0.0
 10
283.4110266940453
 20
143.5309514068219
 30
0.0
  0
ELLIPSE
  5
100
330
1F
100
AcDbEntity
  8
0
  6
HIDDEN
 62
     7
370
     0
100
AcDbEllipse
 10
129.261026694
 20
104.4664508743
 30
0.0
 11
1.760776919379111
 21
2.232245799914466
 31
0.0
210
0.0
220
0.0
230
1.0
 40
0.5126701559
 41
1.100887047646275
 42
3.717928269552377
  0
ARC
  5
101
330
1F
100
AcDbEntity
  8
0
  6
HIDDEN
 62
     7
370
     0
100
AcDbCircle
 10
128.5644272255
 20
105.6439907554
 30
0.0
 40
0.7945949542257675
100
AcDbArc
 50
53.4208190544
 51
99.1663888759
  0
ELLIPSE
  5
102
330
1F
100
AcDbEntity
  8
0
  6
HIDDEN
 62
     7
370
     0
100
AcDbEllipse
 10
129.261026694
 20
104.4664508743
 30
0.0
 11
1.760776919379112
 21
-1.388886188042932
 31
0.0
210
0.0
220
0.0
230
1.0
 40
0.8239737799
 41
2.54992626524852
 42
4.88593027385607
  0
ARC
  5
103
330
1F
100
AcDbEntity
  8
0
  6
HIDDEN
 62
     7
370
     0
100
AcDbCircle
 10
129.507079456
 20
103.6269733103
 30
0.0
 40
1.353195702694776
100
AcDbArc
 50
217.8001040701
 51
249.7155767561
  0
LWPOLYLINE
  5
104
330
1F
100
AcDbEntity
  8
0
  6
HIDDEN
 62
     7
370
     0
100
AcDbPolyline
 90
       17
 70
   128
 43
0.0
 10
129.2610267864
 20
100.765314728
 10
130.0646622421
 20
100.915527746
 10
130.7459517138
 20
101.3432972431
 10
131.201172875
 20
101.9834995567
 10
131.3610269444
 20
102.738669917
 10
131.201172875
 20
103.4938393458
 10
130.7459517138
 20
104.1340416595
 10
130.0646622421
 20
104.5618111565
 10
129.2610267864
 20
104.7120241746
 10
128.4573913308
 20
104.5618111565
 10
127.7761027904
 20
104.1340416595
 10
127.3208797665
 20
103.4938393458
 10
127.1610266285
 20
102.738669917
 10
127.3208797665
 20
101.9834995567
 10
127.7761027904
 20
101.3432972431
 10
128.4573913308
 20
100.915527746
 10
129.2610267864
 20
100.765314728
  0
SPLINE
  5
105
330
1F
100
AcDbEntity
  8
0
  6
HIDDEN
 62
     7
370
     0
100
AcDbSpline
210
0.0
220
0.0
230
1.0
 70
    11
 71
     3
 72
    62
 73
    58
 74
     0
 42
0.000000001
 43
0.00000001
 40
0.0
 40
0.0
 40
0.0
 40
0.0
 40
0.0312499999999996
 40
0.0312499999999996
 40
0.0624999999999993
 40
0.0624999999999993
 40
0.1249999999999989
 40
0.1249999999999989
 40
0.1874999999999986
 40
0.1874999999999986
 40
0.2187499999999984
 40
0.2187499999999984
 40
0.2499999999999982
 40
0.2499999999999982
 40
0.281249999999998
 40
0.281249999999998
 40
0.3124999999999978
 40
0.3124999999999978
 40
0.3437499999999976
 40
0.3437499999999976
 40
0.3749999999999974
 40
0.3749999999999974
 40
0.4374999999999969
 40
0.4374999999999969
 40
0.4687499999999969
 40
0.4687499999999969
 40
0.4999999999999969
 40
0.4999999999999969
 40
0.5312499999999969
 40
0.5312499999999969
 40
0.5624999999999968
 40
0.5624999999999968
 40
0.5937499999999968
 40
0.5937499999999968
 40
0.6249999999999968
 40
0.6249999999999968
 40
0.6562499999999969
 40
0.6562499999999969
 40
0.6874999999999971
 40
0.6874999999999971
 40
0.7187499999999973
 40
0.7187499999999973
 40
0.7499999999999974
 40
0.7499999999999974
 40
0.7812499999999977
 40
0.7812499999999977
 40
0.8124999999999979
 40
0.8124999999999979
 40
0.8749999999999982
 40
0.8749999999999982
 40
0.9062499999999987
 40
0.9062499999999987
 40
0.9374999999999991
 40
0.9374999999999991
 40
0.9687499999999994
 40
0.9687499999999994
 40
1.0
 40
1.0
 40
1.0
 40
1.0
 10
129.2610266940451
 20
112.9598663503985
 30
0.0
 10
129.1198284700653
 20
112.9598663503986
 30
0.0
 10
128.9815505930515
 20
112.9703342867821
 30
0.0
 10
128.7103845218437
 20
113.0113577677175
 30
0.0
 10
128.5761811943842
 20
113.0424842211331
 30
0.0
 10
128.197118014594
 20
113.1638582090449
 30
0.0
 10
127.9681110929002
 20
113.284012983053
 30
0.0
 10
127.5870804738974
 20
113.5927918820759
 30
0.0
 10
127.4314573969758
 20
113.7849610502397
 30
0.0
 10
127.2723869204072
 20
114.114945362078
 30
0.0
 10
127.2306597752638
 20
114.2344447253901
 30
0.0
 10
127.1753890741217
 20
114.4810291245458
 30
0.0
 10
127.1613091426319
 20
114.6082010549829
 30
0.0
 10
127.1607525763107
 20
114.8706902476791
 30
0.0
 10
127.1747418537313
 20
115.0058326163761
 30
0.0
 10
127.229223372967
 20
115.2703177097359
 30
0.0
 10
127.2700738311219
 20
115.4024676139819
 30
0.0
 10
127.3766877979813
 20
115.6591633649037
 30
0.0
 10
127.4414399402544
 20
115.7819012493577
 30
0.0
 10
127.592998482207
 20
116.016271998116
 30
0.0
 10
127.68033660538
 20
116.1280894991295
 30
0.0
 10
127.9661130263416
 20
116.4332729642578
 30
0.0
 10
128.1956493748073
 20
116.6040872834376
 30
0.0
 10
128.5719675108016
 20
116.7805976464116
 30
0.0
 10
128.7043004191623
 20
116.8270824536054
 30
0.0
 10
128.9783330781531
 20
116.8901861663455
 30
0.0
 10
129.1163582377752
 20
116.9061438560898
 30
0.0
 10
129.394429618994
 20
116.9069897249515
 30
0.0
 10
129.5361425576643
 20
116.8912650499784
 30
0.0
 10
129.8085648133446
 20
116.8298246074792
 30
0.0
 10
129.9403929578417
 20
116.7845029637928
 30
0.0
 10
130.1957918534463
 20
116.6659551607918
 30
0.0
 10
130.3159578566356
 20
116.5942680775754
 30
0.0
 10
130.5411292691919
 20
116.4295395115771
 30
0.0
 10
130.6472803305263
 20
116.3352802385422
 30
0.0
 10
130.8387276192285
 20
116.1317155643985
 30
0.0
 10
130.924661633148
 20
116.0222482741593
 30
0.0
 10
131.0770739511881
 20
115.7881506716754
 30
0.0
 10
131.1432574414755
 20
115.6632564487775
 30
0.0
 10
131.2494391400266
 20
115.4095246972427
 30
0.0
 10
131.2904192032424
 20
115.279355012459
 30
0.0
 10
131.3464993440398
 20
115.0122913173302
 30
0.0
 10
131.360723519481
 20
114.8783380873149
 30
0.0
 10
131.3613202033525
 20
114.6168813448468
 30
0.0
 10
131.3475516358541
 20
114.4867639754594
 30
0.0
 10
131.292701568912
 20
114.2385731199756
 30
0.0
 10
131.2522050556356
 20
114.1212176288948
 30
0.0
 10
131.0927425844594
 20
113.7874685071551
 30
0.0
 10
130.9380741601452
 20
113.5956289352292
 30
0.0
 10
130.6497661288006
 20
113.3615063672594
 30
0.0
 10
130.5457413134528
 20
113.2933499578962
 30
0.0
 10
130.321322055274
 20
113.1746390186721
 30
0.0
 10
130.1993912674135
 20
113.1237170823038
 30
0.0
 10
129.9469341159875
 20
113.0427672474821
 30
0.0
 10
129.8160475860703
 20
113.0122319284832
 30
0.0
 10
129.5441066683575
 20
112.9706738997387
 30
0.0
 10
129.402224918025
 20
112.9598663503986
 30
0.0
 10
129.2610266940451
 20
112.9598663503986
 30
0.0
  0
SPLINE
  5
106
330
1F
100
AcDbEntity
  8
0
  6
HIDDEN
 62
     7
370
     0
100
AcDbSpline
210
0.0
220
0.0
230
1.0
 70
     8
 71
     3
 72
     8
 73
     4
 74
     0
 42
0.000000001
 43
0.00000001
 40
0.0
 40
0.0
 40
0.0
 40
0.0
 40
1.0
 40
1.0
 40
1.0
 40
1.0
 10
128.4378465178858
 20
106.4284389501477
 30
0.0
 10
128.649273907887
 20
106.4209294403652
 30
0.0
 10
128.8517424544197
 20
106.3668059107306
 30
0.0
 10
129.0379530535571
 20
106.2820776235054
 30
0.0
  0
SPLINE
  5
107
330
1F
100
AcDbEntity
  8
0
  6
HIDDEN
 62
     7
370
     0
100
AcDbSpline
210
0.0
220
0.0
230
1.0
 70
     8
 71
     3
 72
     8
 73
     4
 74
     0
 42
0.000000001
 43
0.00000001
 40
0.0
 40
0.0
 40
0.0
 40
0.0
 40
1.0
 40
1.0
 40
1.0
 40
1.0
 10
129.0379530535571
 20
102.3576988555711
 30
0.0
 10
128.8514287042727
 20
102.4800192714716
 30
0.0
 10
128.648873805747
 20
102.6211044321363
 30
0.0
 10
128.4378465178857
 20
102.7975880679212
 30
0.0
  0
LINE
  5
108
330
1F
100
AcDbEntity
  8
0
  6
HIDDEN
 62
     7
370
     0
100
AcDbLine
 10
278.6110310571
 20
129.1438171938
 30
0.0
 11
278.6110310571
 21
103.2501047775
 31
0.0
  0
LINE
  5
109
330
1F
100
AcDbEntity
  8
0
  6
HIDDEN
 62
     7
370
     0
100
AcDbLine
 10
278.6110310571
 20
147.547022283
 30
0.0
 11
283.4110229032
 21
147.547022283
 31
0.0
  0
LINE
  5
10A
330
1F
100
AcDbEntity
  8
0
  6
HIDDEN
 62
     7
370
     0
100
AcDbLine
 10
283.4110229032
 20
147.547022283
 30
0.0
 11
283.4110229032
 21
147.696317017
 31
0.0
  0
LINE
  5
10B
330
1F
100
AcDbEntity
  8
0
  6
HIDDEN
 62
     7
370
     0
100
AcDbLine
 10
278.6110310571
 20
142.4969610124
 30
0.0
 11
278.6110310571
 21
147.6969614923
 31
0.0
  0
LINE
  5
10C
330
1F
100
AcDbEntity
  8
0
  6
HIDDEN
 62
     7
370
     0
100
AcDbLine
 10
278.6110310571
 20
129.1438171938
 30
0.0
 11
278.6110310571
 21
142.4969610124
 31
0.0
  0
LINE
  5
10D
330
1F
100
AcDbEntity
  8
0
  6
HIDDEN
 62
     7
370
     0
100
AcDbLine
 10
283.4110229032
 20
129.1438171938
 30
0.0
 11
278.6110310571
 21
129.1438171938
 31
0.0
  0
LINE
  5
10E
330
1F
100
AcDbEntity
  8
0
  6
HIDDEN
 62
     7
370
     0
100
AcDbLine
 10
278.6110310571
 20
89.8969609588
 30
0.0
 11
278.6110310571
 21
103.2501047775
 31
0.0
  0
LINE
  5
10F
330
1F
100
AcDbEntity
  8
0
  6
HIDDEN
 62
     7
370
     0
100
AcDbLine
 10
278.6110310571
 20
103.2501047775
 30
0.0
 11
283.4110229032
 21
103.2501047775
 31
0.0
  0
LINE
  5
110
330
1F
100
AcDbEntity
  8
0
  6
HIDDEN
 62
     7
370
     0
100
AcDbLine
 10
278.6110310571
 20
84.8468996882
 30
0.0
 11
283.4110229032
 21
84.8468996882
 31
0.0
  0
LINE
  5
111
330
1F
100
AcDbEntity
  8
0
  6
HIDDEN
 62
     7
370
     0
100
AcDbLine
 10
283.4110229032
 20
84.8468996882
 30
0.0
 11
283.4110229032
 21
84.6976049542
 31
0.0
  0
LINE
  5
112
330
1F
100
AcDbEntity
  8
0
  6
HIDDEN
 62
     7
370
     0
100
AcDbLine
 10
278.6110310571
 20
84.696960479
 30
0.0
 11
278.6110310571
 21
89.8969609588
 31
0.0
  0
LINE
  5
113
330
1F
100
AcDbEntity
  8
0
  6
HIDDEN
 62
     7
370
     0
100
AcDbLine
 10
277.1110205667
 20
116.1969609856
 30
0.0
 11
277.1110205667
 21
91.1969606131
 31
0.0
  0
LINE
  5
114
330
1F
100
AcDbEntity
  8
0
  6
HIDDEN
 62
     7
370
     0
100
AcDbLine
 10
277.1110205667
 20
141.1969613582
 30
0.0
 11
277.1110205667
 21
116.1969609856
 31
0.0
  0
LINE
  5
115
330
1F
100
AcDbEntity
  8
0
  6
HIDDEN
 62
     7
370
     0
100
AcDbLine
 10
233.1610291021
 20
116.1969609856
 30
0.0
 11
233.1610291021
 21
91.4969601035
 31
0.0
  0
LINE
  5
116
330
1F
100
AcDbEntity
  8
0
  6
HIDDEN
 62
     7
370
     0
100
AcDbLine
 10
233.1610291021
 20
140.8969618678
 30
0.0
 11
233.1610291021
 21
116.1969609856
 31
0.0
  0
LINE
  5
117
330
1F
100
AcDbEntity
  8
0
  6
HIDDEN
 62
     7
370
     0
100
AcDbLine
 10
235.6610267179
 20
116.1969609856
 30
0.0
 11
235.6610267179
 21
91.1969606131
 31
0.0
  0
LINE
  5
118
330
1F
100
AcDbEntity
  8
0
  6
HIDDEN
 62
     7
370
     0
100
AcDbLine
 10
235.6610267179
 20
141.1969613582
 30
0.0
 11
235.6610267179
 21
116.1969609856
 31
0.0
  0
LINE
  5
119
330
1F
100
AcDbEntity
  8
0
  6
HIDDEN
 62
     7
370
     0
100
AcDbLine
 10
278.6110310571
 20
147.6969614923
 30
0.0
 11
278.6110310571
 21
153.7219591736
 31
0.0
  0
LINE
  5
11A
330
1F
100
AcDbEntity
  8
0
  6
HIDDEN
 62
     7
370
     0
100
AcDbLine
 10
278.6110310571
 20
78.6719627976
 30
0.0
 11
278.6110310571
 21
84.696960479
 31
0.0
  0
ELLIPSE
  5
11B
330
1F
100
AcDbEntity
  8
0
  6
HIDDEN
 62
     7
370
     0
100
AcDbEllipse
 10
118.4325995693
 20
78.8969609856
 30
0.0
 11
0.0
 21
2.0
 31
0.0
210
0.0
220
0.0
230
1.0
 40
0.4142135624
 41
4.712388980384695
 42
6.283185307179586
  0
LINE
  5
11C
330
1F
100
AcDbEntity
  8
0
  6
HIDDEN
 62
     7
370
     0
100
AcDbLine
 10
118.4325995145
 20
80.8969594836
 30
0.0
 11
118.2610266132
 21
80.8969594836
 31
0.0
  0
LINE
  5
11D
330
1F
100
AcDbEntity
  8
0
  6
HIDDEN
 62
     7
370
     0
100
AcDbLine
 10
118.2610266132
 20
153.6969624757
 30
0.0
 11
118.4325995145
 21
153.6969624757
 31
0.0
  0
ELLIPSE
  5
11E
330
1F
100
AcDbEntity
  8
0
  6
HIDDEN
 62
     7
370
     0
100
AcDbEllipse
 10
118.4325995693
 20
155.6969609856
 30
0.0
 11
0.0
 21
2.0
 31
0.0
210
0.0
220
0.0
230
1.0
 40
0.4142135624
 41
3.141592653589793
 42
4.712388980384695
  0
LINE
  5
11F
330
1F
100
AcDbEntity
  8
0
  6
HIDDEN
 62
     7
370
     0
100
AcDbLine
 10
119.2610265443
 20
70.0110465586
 30
0.0
 11
118.4766866954
 21
69.5635050833
 31
0.0
  0
LINE
  5
120
330
1F
100
AcDbEntity
  8
0
  6
HIDDEN
 62
     7
370
     0
100
AcDbLine
 10
118.5508956423
 20
162.9071243405
 30
0.0
 11
119.2610265443
 21
162.1969946026
 31
0.0
  0
LINE
  5
121
330
1F
100
AcDbEntity
  8
0
  6
HIDDEN
 62
     7
370
     0
100
AcDbLine
 10
134.1110269295
 20
153.6969624757
 30
0.0
 11
144.9610261934
 21
153.6969624757
 31
0.0
  0
LINE
  5
122
330
1F
100
AcDbEntity
  8
0
  6
HIDDEN
 62
     7
370
     0
100
AcDbLine
 10
144.9610261934
 20
80.8969594836
 30
0.0
 11
134.1110269295
 21
80.8969594836
 31
0.0
  0
LINE
  5
123
330
1F
100
AcDbEntity
  8
0
  6
HIDDEN
 62
     7
370
     0
100
AcDbLine
 10
118.4325995145
 20
153.6969624757
 30
0.0
 11
134.1110269295
 21
153.6969624757
 31
0.0
  0
LINE
  5
124
330
1F
100
AcDbEntity
  8
0
  6
HIDDEN
 62
     7
370
     0
100
AcDbLine
 10
119.2610265443
 20
162.1969946026
 30
0.0
 11
123.484356025
 21
162.1969946026
 31
0.0
  0
LINE
  5
125
330
1F
100
AcDbEntity
  8
0
  6
HIDDEN
 62
     7
370
     0
100
AcDbLine
 10
128.8376978354
 20
162.1969946026
 30
0.0
 11
134.1110269295
 21
162.1969946026
 31
0.0
  0
LINE
  5
126
330
1F
100
AcDbEntity
  8
0
  6
HIDDEN
 62
     7
370
     0
100
AcDbLine
 10
119.2610265443
 20
162.1969946026
 30
0.0
 11
119.2610265443
 21
155.6969628036
 31
0.0
  0
LINE
  5
127
330
1F
100
AcDbEntity
  8
0
  6
HIDDEN
 62
     7
370
     0
100
AcDbLine
 10
134.1110269295
 20
80.8969594836
 30
0.0
 11
118.4325995145
 21
80.8969594836
 31
0.0
  0
LINE
  5
128
330
1F
100
AcDbEntity
  8
0
  6
HIDDEN
 62
     7
370
     0
100
AcDbLine
 10
123.3809792192
 20
70.0110465586
 30
0.0
 11
119.2610265443
 21
70.0110465586
 31
0.0
  0
LINE
  5
129
330
1F
100
AcDbEntity
  8
0
  6
HIDDEN
 62
     7
370
     0
100
AcDbLine
 10
134.1110269295
 20
70.0110465586
 30
0.0
 11
128.9410746412
 21
70.0110465586
 31
0.0
  0
LINE
  5
12A
330
1F
100
AcDbEntity
  8
0
  6
HIDDEN
 62
     7
370
     0
100
AcDbLine
 10
119.2610265443
 20
70.0110465586
 30
0.0
 11
119.2610265443
 21
78.8969591558
 31
0.0
  0
LINE
  5
12B
330
1F
100
AcDbEntity
  8
0
  6
HIDDEN
 62
     7
370
     0
100
AcDbLine
 10
23.4610258357
 20
103.6969607994
 30
0.0
 11
23.4610258357
 21
128.6969611719
 31
0.0
  0
LINE
  5
12C
330
1F
100
AcDbEntity
  8
0
  6
HIDDEN
 62
     7
370
     0
100
AcDbLine
 10
26.7456291931
 20
105.6969611272
 30
0.0
 11
26.7456291931
 21
126.6969608441
 31
0.0
  0
LINE
  5
12D
330
1F
100
AcDbEntity
  8
0
  6
HIDDEN
 62
     7
370
     0
100
AcDbLine
 10
75.4610269086
 20
105.6969611272
 30
0.0
 11
75.4610269086
 21
126.6969608441
 31
0.0
  0
LINE
  5
12E
330
1F
100
AcDbEntity
  8
0
  6
HIDDEN
 62
     7
370
     0
100
AcDbLine
 10
79.2164063768
 20
111.9469607547
 30
0.0
 11
79.2164063768
 21
120.4469612166
 31
0.0
  0
SPLINE
  5
12F
330
1F
100
AcDbEntity
  8
0
  6
HIDDEN
 62
     7
370
     0
100
AcDbSpline
210
0.0
220
0.0
230
1.0
 70
    11
 71
     3
 72
    62
 73
    58
 74
     0
 42
0.000000001
 43
0.00000001
 40
0.0
 40
0.0
 40
0.0
 40
0.0
 40
0.0312500000000004
 40
0.0312500000000004
 40
0.0625000000000007
 40
0.0625000000000007
 40
0.1250000000000011
 40
0.1250000000000011
 40
0.1875000000000015
 40
0.1875000000000015
 40
0.2187500000000016
 40
0.2187500000000016
 40
0.2500000000000016
 40
0.2500000000000016
 40
0.2812500000000017
 40
0.2812500000000017
 40
0.3125000000000017
 40
0.3125000000000017
 40
0.3437500000000017
 40
0.3437500000000017
 40
0.3750000000000018
 40
0.3750000000000018
 40
0.4375000000000019
 40
0.4375000000000019
 40
0.4687500000000018
 40
0.4687500000000018
 40
0.5000000000000017
 40
0.5000000000000017
 40
0.5312500000000016
 40
0.5312500000000016
 40
0.5625000000000016
 40
0.5625000000000016
 40
0.5937500000000014
 40
0.5937500000000014
 40
0.6250000000000013
 40
0.6250000000000013
 40
0.6562500000000013
 40
0.6562500000000013
 40
0.6875000000000012
 40
0.6875000000000012
 40
0.7187500000000012
 40
0.7187500000000012
 40
0.7500000000000011
 40
0.7500000000000011
 40
0.781250000000001
 40
0.781250000000001
 40
0.812500000000001
 40
0.812500000000001
 40
0.8750000000000008
 40
0.8750000000000008
 40
0.9062500000000007
 40
0.9062500000000007
 40
0.9375000000000004
 40
0.9375000000000004
 40
0.9687500000000003
 40
0.9687500000000003
 40
1.0
 40
1.0
 40
1.0
 40
1.0
 10
129.2610266940451
 20
115.4873466135532
 30
0.0
 10
129.402224918025
 20
115.4873466135532
 30
0.0
 10
129.5405027950388
 20
115.5033580235447
 30
0.0
 10
129.8116688662467
 20
115.5650875891676
 30
0.0
 10
129.9458721937062
 20
115.6116253526223
 30
0.0
 10
130.3249353734964
 20
115.7886016813573
 30
0.0
 10
130.5539422951902
 20
115.9590279750665
 30
0.0
 10
130.9349729141929
 20
116.3649142524898
 30
0.0
 10
131.0905959911146
 20
116.6045846938258
 30
0.0
 10
131.2496664676832
 20
116.9850615211424
 30
0.0
 10
131.2913936128266
 20
117.1183302564475
 30
0.0
 10
131.3466643139686
 20
117.3833114920763
 30
0.0
 10
131.3607442454584
 20
117.5152768067942
 30
0.0
 10
131.3613008117796
 20
117.7779541166084
 30
0.0
 10
131.347311534359
 20
117.908333980566
 30
0.0
 10
131.2928300151233
 20
118.1546779112891
 30
0.0
 10
131.2519795569684
 20
118.273332181272
 30
0.0
 10
131.145365590109
 20
118.4961584480273
 30
0.0
 10
131.080613447836
 20
118.5988435590118
 30
0.0
 10
130.9290549058834
 20
118.7889668119251
 30
0.0
 10
130.8417167827103
 20
118.8764736031444
 30
0.0
 10
130.5559403617488
 20
119.1087410985931
 30
0.0
 10
130.326404013283
 20
119.2291898412357
 30
0.0
 10
129.9500858772887
 20
119.3502864335373
 30
0.0
 10
129.8177529689281
 20
119.3813945669736
 30
0.0
 10
129.5437203099372
 20
119.4233418065292
 30
0.0
 10
129.4056951503151
 20
119.4337720411388
 30
0.0
 10
129.1276237690964
 20
119.4343279400056
 30
0.0
 10
128.985910830426
 20
119.4240494811756
 30
0.0
 10
128.7134885747457
 20
119.3832262964824
 30
0.0
 10
128.5816604302486
 20
119.3529329606077
 30
0.0
 10
128.326261534644
 20
119.2716657703168
 30
0.0
 10
128.2060955314547
 20
119.2217179194585
 30
0.0
 10
127.9809241188984
 20
119.1033967082605
 30
0.0
 10
127.874773057564
 20
119.0341035991779
 30
0.0
 10
127.6833257688618
 20
118.8792889505842
 30
0.0
 10
127.5973917549423
 20
118.7937029627135
 30
0.0
 10
127.4449794369023
 20
118.6040192906365
 30
0.0
 10
127.3787959466148
 20
118.4995980295659
 30
0.0
 10
127.2726142480637
 20
118.2795666897586
 30
0.0
 10
127.2316341848479
 20
118.1629182036491
 30
0.0
 10
127.1755540440506
 20
117.9145168226598
 30
0.0
 10
127.1613298686093
 20
117.7854068338557
 30
0.0
 10
127.1607331847378
 20
117.5241517680236
 30
0.0
 10
127.1745017522362
 20
117.3893454773509
 30
0.0
 10
127.2293518191783
 20
117.1228903629964
 30
0.0
 10
127.2698483324547
 20
116.9921564282978
 30
0.0
 10
127.4293108036309
 20
116.6077409742943
 30
0.0
 10
127.5839792279451
 20
116.3685819424175
 30
0.0
 10
127.8722872592897
 20
116.0609225829736
 30
0.0
 10
127.9763120746375
 20
115.9682494662093
 30
0.0
 10
128.2007313328163
 20
115.8031066235697
 30
0.0
 10
128.3226621206768
 20
115.7300657548906
 30
0.0
 10
128.5751192721028
 20
115.6120438386182
 30
0.0
 10
128.70600580202
 20
115.5663961330005
 30
0.0
 10
128.9779467197328
 20
115.5038756935333
 30
0.0
 10
129.1198284700653
 20
115.4873466135532
 30
0.0
 10
129.2610266940451
 20
115.4873466135532
 30
0.0
  0
SPLINE
  5
130
330
1F
100
AcDbEntity
  8
0
  6
HIDDEN
 62
     7
370
     0
100
AcDbSpline
210
0.0
220
0.0
230
1.0
 70
     8
 71
     3
 72
     8
 73
     4
 74
     0
 42
0.000000001
 43
0.00000001
 40
0.0
 40
0.0
 40
0.0
 40
0.0
 40
1.0
 40
1.0
 40
1.0
 40
1.0
 10
128.4378465178857
 20
125.9654830211049
 30
0.0
 10
128.6492739078869
 20
125.9729925308874
 30
0.0
 10
128.8517424544197
 20
126.0271160605221
 30
0.0
 10
129.037953053557
 20
126.1118443477472
 30
0.0
  0
ELLIPSE
  5
131
330
1F
100
AcDbEntity
  8
0
  6
HIDDEN
 62
     7
370
     0
100
AcDbEllipse
 10
129.261026694
 20
127.927471097
 30
0.0
 11
-1.760776919379055
 21
2.232245799914466
 31
0.0
210
0.0
220
0.0
230
1.0
 40
0.5126701559
 41
5.395150933160685
 42
8.323890913123124
  0
SPLINE
  5
132
330
1F
100
AcDbEntity
  8
0
  6
HIDDEN
 62
     7
370
     0
100
AcDbSpline
210
0.0
220
0.0
230
1.0
 70
     8
 71
     3
 72
     8
 73
     4
 74
     0
 42
0.000000001
 43
0.00000001
 40
0.0
 40
0.0
 40
0.0
 40
0.0
 40
1.0
 40
1.0
 40
1.0
 40
1.0
 10
129.037953053558
 20
130.036223115682
 30
0.0
 10
128.8514287042731
 20
129.9139026997812
 30
0.0
 10
128.6488738057469
 20
129.7728175391161
 30
0.0
 10
128.437846517885
 20
129.5963339033307
 30
0.0
  0
ELLIPSE
  5
133
330
1F
100
AcDbEntity
  8
0
  6
HIDDEN
 62
     7
370
     0
100
AcDbEllipse
 10
129.261026694
 20
127.927471097
 30
0.0
 11
1.760776919379083
 21
1.388886188042932
 31
0.0
210
0.0
220
0.0
230
1.0
 40
0.8239737799
 41
1.397255033323972
 42
3.73325904193107
  0
LWPOLYLINE
  5
134
330
1F
100
AcDbEntity
  8
0
  6
HIDDEN
 62
     7
370
     0
100
AcDbPolyline
 90
       17
 70
   128
 43
0.0
 10
129.2610267864
 20
127.6818977967
 10
130.0646622421
 20
127.8321108147
 10
130.7459517138
 20
128.2598803118
 10
131.201172875
 20
128.9000826254
 10
131.3610269444
 20
129.6552520543
 10
131.201172875
 20
130.4104224145
 10
130.7459517138
 20
131.0506247282
 10
130.0646622421
 20
131.4783942252
 10
129.2610267864
 20
131.6286072433
 10
128.4573913308
 20
131.4783942252
 10
127.7761027904
 20
131.0506247282
 10
127.3208797665
 20
130.4104224145
 10
127.1610266285
 20
129.6552520543
 10
127.3208797665
 20
128.9000826254
 10
127.7761027904
 20
128.2598803118
 10
128.4573913308
 20
127.8321108147
 10
129.2610267864
 20
127.6818977967
  0
LINE
  5
135
330
1F
100
AcDbEntity
  8
0
  6
HIDDEN
 62
     7
370
     0
100
AcDbLine
 10
124.2510263564
 20
151.5900053382
 30
0.0
 11
124.2510263564
 21
146.0469615012
 31
0.0
  0
LINE
  5
136
330
1F
100
AcDbEntity
  8
0
  6
HIDDEN
 62
     7
370
     0
100
AcDbLine
 10
128.0710265727
 20
151.5900053382
 30
0.0
 11
128.0710265727
 21
146.0469615012
 31
0.0
  0
SPLINE
  5
137
330
1F
100
AcDbEntity
  8
0
  6
HIDDEN
 62
     7
370
     0
100
AcDbSpline
210
0.0
220
0.0
230
1.0
 70
     8
 71
     3
 72
    14
 73
    10
 74
     0
 42
0.000000001
 43
0.00000001
 40
0.0
 40
0.0
 40
0.0
 40
0.0
 40
0.25
 40
0.25
 40
0.5
 40
0.5
 40
0.75
 40
0.75
 40
1.0
 40
1.0
 40
1.0
 40
1.0
 10
127.271026694045
 20
133.1722505425601
 30
0.0
 10
127.3454522461796
 20
133.2631079973417
 30
0.0
 10
127.427330505793
 20
133.3523185805475
 30
0.0
 10
127.6003166519686
 20
133.5277428993394
 30
0.0
 10
127.6909884718296
 20
133.6132778549661
 30
0.0
 10
127.858352021174
 20
133.7741294679046
 30
0.0
 10
127.9348028461405
 20
133.8498615568011
 30
0.0
 10
128.0410959309789
 20
133.9814525803765
 30
0.0
 10
128.0710266940452
 20
134.0384527552828
 30
0.0
 10
128.0710266940452
 20
134.0806500282349
 30
0.0
  0
SPLINE
  5
138
330
1F
100
AcDbEntity
  8
0
  6
HIDDEN
 62
     7
370
     0
100
AcDbSpline
210
0.0
220
0.0
230
1.0
 70
     8
 71
     3
 72
    14
 73
    10
 74
     0
 42
0.000000001
 43
0.00000001
 40
0.0
 40
0.0
 40
0.0
 40
0.0
 40
0.25
 40
0.25
 40
0.5
 40
0.5
 40
0.75
 40
0.75
 40
1.0
 40
1.0
 40
1.0
 40
1.0
 10
128.0710266940452
 20
129.9486088296034
 30
0.0
 10
128.0710266940452
 20
129.9061084119488
 30
0.0
 10
128.0413132352284
 20
129.8788365054662
 30
0.0
 10
127.9352318683363
 20
129.865283731499
 30
0.0
 10
127.8588649391717
 20
129.87972928864
 30
0.0
 10
127.6901053946432
 20
129.9521054526599
 30
0.0
 10
127.5993085821714
 20
130.0091783877773
 30
0.0
 10
127.427743641964
 20
130.1503363212942
 30
0.0
 10
127.3456824016695
 20
130.2349135363777
 30
0.0
 10
127.271026694045
 20
130.328286699507
 30
0.0
  0
LINE
  5
139
330
1F
100
AcDbEntity
  8
0
  6
HIDDEN
 62
     7
370
     0
100
AcDbLine
 10
128.0710265727
 20
102.3996992334
 30
0.0
 11
128.0710265727
 21
98.2676584571
 31
0.0
  0
LINE
  5
13A
330
1F
100
AcDbEntity
  8
0
  6
HIDDEN
 62
     7
370
     0
100
AcDbLine
 10
122.927865641
 20
154.7080397904
 30
0.0
 11
122.927865641
 21
146.0469615012
 31
0.0
  0
LINE
  5
13B
330
1F
100
AcDbEntity
  8
0
  6
HIDDEN
 62
     7
370
     0
100
AcDbLine
 10
129.3941882195
 20
101.8998137042
 30
0.0
 11
129.3941882195
 21
97.2080201208
 31
0.0
  0
LINE
  5
13C
330
1F
100
AcDbEntity
  8
0
  6
HIDDEN
 62
     7
370
     0
100
AcDbLine
 10
129.3941882195
 20
154.7080397904
 30
0.0
 11
129.3941882195
 21
146.0469615012
 31
0.0
  0
ARC
  5
13D
330
1F
100
AcDbEntity
  8
0
  6
HIDDEN
 62
     7
370
     0
100
AcDbCircle
 10
129.507079456
 20
128.766948661
 30
0.0
 40
1.353195702694776
100
AcDbArc
 50
110.2844232439
 51
142.1998959299
  0
ARC
  5
13E
330
1F
100
AcDbEntity
  8
0
  6
HIDDEN
 62
     7
370
     0
100
AcDbCircle
 10
128.5644272255
 20
126.7499312158
 30
0.0
 40
0.7945949542257955
100
AcDbArc
 50
260.8336111241
 51
306.5791809456
  0
LWPOLYLINE
  5
13F
330
1F
100
AcDbEntity
  8
0
  6
HIDDEN
 62
     7
370
     0
100
AcDbPolyline
 90
       17
 70
   128
 43
0.0
 10
119.2957895564
 20
128.9099127352
 10
119.5153558383
 20
128.3363893926
 10
119.8772268126
 20
128.0218547508
 10
120.3263110237
 20
128.0141918286
 10
120.7942391502
 20
128.314569436
 10
121.2097729312
 20
128.8772559091
 10
121.509652281
 20
129.6165881976
 10
121.6482223699
 20
130.4200094491
 10
121.6043873446
 20
131.1652062758
 10
121.384820597
 20
131.7387296185
 10
121.0229496227
 20
132.0532642603
 10
120.5738654116
 20
132.0609271824
 10
120.1059377508
 20
131.7605495751
 10
119.6904035041
 20
131.1978631019
 10
119.39052462
 20
130.4585308134
 10
119.2519545311
 20
129.6551095619
 10
119.2957895564
 20
128.9099127352
  0
LWPOLYLINE
  5
140
330
1F
100
AcDbEntity
  8
0
  6
HIDDEN
 62
     7
370
     0
100
AcDbPolyline
 90
       20
 70
   128
 43
0.0
 10
118.5327576695
 20
128.490896739
 10
118.7817414047
 20
127.7789611667
 10
119.1824382858
 20
127.3187434598
 10
119.6914270276
 20
127.160115011
 10
120.2535505162
 20
127.3202661723
 10
120.8078937361
 20
127.7818426788
 10
121.2943854498
 20
128.4948241263
 10
121.6603062803
 20
129.3819489255
 10
121.8660033064
 20
130.3470822349
 10
121.8891862536
 20
131.2856383919
 10
121.7273424135
 20
132.0959095209
 10
121.3980099873
 20
132.6900895983
 10
120.9368781874
 20
133.003792569
 10
120.3939166607
 20
133.0030195713
 10
119.827964505
 20
132.6878581494
 10
119.3003511743
 20
132.0924580395
 10
118.8682517258
 20
131.2813431322
 10
118.5784907302
 20
130.3424079269
 10
118.4624684265
 20
129.3774012774
 10
118.5327576695
 20
128.490896739
  0
LWPOLYLINE
  5
141
330
1F
100
AcDbEntity
  8
0
  6
HIDDEN
 62
     7
370
     0
100
AcDbPolyline
 90
       18
 70
   128
 43
0.0
 10
129.2610267864
 20
127.3558147549
 10
130.1641312184
 20
127.5144534483
 10
130.9452659206
 20
127.9689435213
 10
131.4989353286
 20
128.6579042971
 10
131.7503626214
 20
129.4882864058
 10
131.6655899154
 20
130.3479446396
 10
131.2560706155
 20
131.1207747385
 10
130.5771066563
 20
131.7024033814
 10
129.720400715
 20
132.0142772346
 10
128.8016528578
 20
132.0142772346
 10
127.9449459852
 20
131.7024033814
 10
127.2659838887
 20
131.1207747385
 10
126.8564627262
 20
130.3479446396
 10
126.7716909515
 20
129.4882864058
 10
127.0231182443
 20
128.6579042971
 10
127.5767876522
 20
127.9689435213
 10
128.3579223545
 20
127.5144534483
 10
129.2610267864
 20
127.3558147549
  0
SPLINE
  5
142
330
1F
100
AcDbEntity
  8
0
  6
HIDDEN
 62
     7
370
     0
100
AcDbSpline
210
0.0
220
0.0
230
1.0
 70
     8
 71
     3
 72
    34
 73
    30
 74
     0
 42
0.000000001
 43
0.00000001
 40
0.0
 40
0.0
 40
0.0
 40
0.0
 40
0.062499999999999
 40
0.062499999999999
 40
0.124999999999998
 40
0.124999999999998
 40
0.1874999999999971
 40
0.1874999999999971
 40
0.2499999999999966
 40
0.2499999999999966
 40
0.3124999999999962
 40
0.3124999999999962
 40
0.3749999999999957
 40
0.3749999999999957
 40
0.4999999999999958
 40
0.4999999999999958
 40
0.6249999999999958
 40
0.6249999999999958
 40
0.6874999999999964
 40
0.6874999999999964
 40
0.7499999999999971
 40
0.7499999999999971
 40
0.8124999999999979
 40
0.8124999999999979
 40
0.8749999999999986
 40
0.8749999999999986
 40
0.9374999999999992
 40
0.9374999999999992
 40
1.0
 40
1.0
 40
1.0
 40
1.0
 10
129.3941882015071
 20
135.1859013736275
 30
0.0
 10
129.5535800292949
 20
135.1780612777047
 30
0.0
 10
129.7095825127385
 20
135.1564026296143
 30
0.0
 10
130.0150920288158
 20
135.0865544021214
 30
0.0
 10
130.165986363828
 20
135.0377286997932
 30
0.0
 10
130.4538857085188
 20
134.9148047463859
 30
0.0
 10
130.5898321114785
 20
134.8414972382515
 30
0.0
 10
130.8460147270705
 20
134.6714866144802
 30
0.0
 10
130.9671970148296
 20
134.5736128222788
 30
0.0
 10
131.1843430867024
 20
134.3610286468468
 30
0.0
 10
131.2813049596627
 20
134.2459827083172
 30
0.0
 10
131.4518673954883
 20
133.9981215881971
 30
0.0
 10
131.5251074487002
 20
133.8650880911315
 30
0.0
 10
131.699987905449
 20
133.4555800750013
 30
0.0
 10
131.761025866425
 20
133.1576194252263
 30
0.0
 10
131.7610275216481
 20
132.5661778693518
 30
0.0
 10
131.6999929120618
 20
132.2660043193752
 30
0.0
 10
131.5251031446599
 20
131.8507730391075
 30
0.0
 10
131.4518594392354
 20
131.7154179208606
 30
0.0
 10
131.2812987234988
 20
131.462518589474
 30
0.0
 10
131.1843350079053
 20
131.3447533118662
 30
0.0
 10
130.9671746793182
 20
131.1266230164976
 30
0.0
 10
130.8459934206313
 20
131.0259196913506
 30
0.0
 10
130.5898231936926
 20
130.8506759985174
 30
0.0
 10
130.4538798440299
 20
130.7749310294268
 30
0.0
 10
130.1659771408468
 20
130.6477626541245
 30
0.0
 10
130.01508694493
 20
130.5971613817971
 30
0.0
 10
129.7095814412244
 20
130.5247322820492
 30
0.0
 10
129.5535800429609
 20
130.5022465106523
 30
0.0
 10
129.3941882015071
 20
130.4941080507574
 30
0.0
  0
SPLINE
  5
143
330
1F
100
AcDbEntity
  8
0
  6
HIDDEN
 62
     7
370
     0
100
AcDbSpline
210
0.0
220
0.0
230
1.0
 70
     8
 71
     3
 72
    10
 73
     6
 74
     0
 42
0.000000001
 43
0.00000001
 40
0.0
 40
0.0
 40
0.0
 40
0.0
 40
0.5
 40
0.5
 40
1.0
 40
1.0
 40
1.0
 40
1.0
 10
129.3941882015071
 20
130.4941080507574
 30
0.0
 10
129.1714611746336
 20
130.3506195504636
 30
0.0
 10
128.9497752874085
 20
130.2358988047307
 30
0.0
 10
128.5085544495566
 20
130.0661383753729
 30
0.0
 10
128.2889958021578
 20
130.0107183809855
 30
0.0
 10
128.0710266940455
 20
129.9942230516159
 30
0.0
  0
SPLINE
  5
144
330
1F
100
AcDbEntity
  8
0
  6
HIDDEN
 62
     7
370
     0
100
AcDbSpline
210
0.0
220
0.0
230
1.0
 70
     8
 71
     3
 72
    10
 73
     6
 74
     0
 42
0.000000001
 43
0.00000001
 40
0.0
 40
0.0
 40
0.0
 40
0.0
 40
0.5
 40
0.5
 40
1.0
 40
1.0
 40
1.0
 40
1.0
 10
128.0710266940455
 20
134.1262642502474
 30
0.0
 10
128.2879175265662
 20
134.363303189696
 30
0.0
 10
128.5070701632251
 20
134.5654734246894
 30
0.0
 10
128.948554663494
 20
134.9162254962081
 30
0.0
 10
129.1717571287674
 20
135.064901588605
 30
0.0
 10
129.3941882015071
 20
135.1859013736275
 30
0.0
  0
SPLINE
  5
145
330
1F
100
AcDbEntity
  8
0
  6
HIDDEN
 62
     7
370
     0
100
AcDbSpline
210
0.0
220
0.0
230
1.0
 70
     8
 71
     3
 72
    16
 73
    12
 74
     0
 42
0.000000001
 43
0.00000001
 40
0.0
 40
0.0
 40
0.0
 40
0.0
 40
0.2499999999999994
 40
0.2499999999999994
 40
0.4999999999999989
 40
0.4999999999999989
 40
0.7499999999999983
 40
0.7499999999999983
 40
0.8749999999999991
 40
0.8749999999999991
 40
1.0
 40
1.0
 40
1.0
 40
1.0
 10
127.2710266940452
 20
130.3282866995067
 30
0.0
 10
127.105612587565
 20
130.5351729355321
 30
0.0
 10
126.9794152565894
 20
130.7610416333411
 30
0.0
 10
126.8050089582585
 20
131.2499108789538
 30
0.0
 10
126.7611789191617
 20
131.5016779322983
 30
0.0
 10
126.7608752461917
 20
132.0134572568806
 30
0.0
 10
126.804732106252
 20
132.2645119659633
 30
0.0
 10
126.9346538655191
 20
132.6253605341053
 30
0.0
 10
126.9887686769271
 20
132.7426333024539
 30
0.0
 10
127.1154456670705
 20
132.9651222537927
 30
0.0
 10
127.1883193874314
 20
133.0712828620361
 30
0.0
 10
127.2710266940452
 20
133.1722505425604
 30
0.0
  0
CIRCLE
  5
146
330
1F
100
AcDbEntity
  8
0
  6
HIDDEN
 62
     7
370
     0
100
AcDbCircle
 10
259.611026694
 20
116.1969609856
 30
0.0
 40
8.980667620239306
  0
CIRCLE
  5
147
330
1F
100
AcDbEntity
  8
0
  6
HIDDEN
 62
     7
370
     0
100
AcDbCircle
 10
259.611026694
 20
116.1969609856
 30
0.0
 40
6.375755334184878
  0
CIRCLE
  5
148
330
1F
100
AcDbEntity
  8
0
  6
HIDDEN
 62
     7
370
     0
100
AcDbCircle
 10
259.611026694
 20
116.1969609856
 30
0.0
 40
5.975755334184861
  0
LWPOLYLINE
  5
149
330
1F
100
AcDbEntity
  8
0
  6
HIDDEN
 62
     7
370
     0
100
AcDbPolyline
 90
       17
 70
   128
 43
0.0
 10
120.5848950648
 20
100.2805743664
 10
120.9780738445
 20
100.4794024229
 10
121.2500205019
 20
100.9541962593
 10
121.3593335578
 20
101.6326749995
 10
121.289371209
 20
102.4115447253
 10
121.0507845262
 20
103.1722303778
 10
120.6798960211
 20
103.7989238575
 10
120.2331703843
 20
104.1962176859
 10
119.7786169814
 20
104.3036271184
 10
119.3854382017
 20
104.1047999933
 10
119.1134915443
 20
103.6300052255
 10
119.0041784884
 20
102.9515274167
 10
119.0741408372
 20
102.1726576909
 10
119.31272752
 20
101.4119720384
 10
119.6836160252
 20
100.7852776274
 10
120.1303416619
 20
100.3879837989
 10
120.5848950648
 20
100.2805743664
  0
LWPOLYLINE
  5
14A
330
1F
100
AcDbEntity
  8
0
  6
HIDDEN
 62
     7
370
     0
100
AcDbPolyline
 90
       18
 70
   128
 43
0.0
 10
120.8826500678
 20
99.8953905254
 10
121.3362921716
 20
100.1131300181
 10
121.6624310927
 20
100.6319586485
 10
121.8170199299
 20
101.3818055689
 10
121.7791807594
 20
102.2613996938
 10
121.5540242137
 20
103.1519480347
 10
121.1719584407
 20
103.9331758693
 10
120.6845838332
 20
104.4995736628
 10
120.1577230112
 20
104.7746481672
 10
119.6625313477
 20
104.7212470621
 10
119.2658871168
 20
104.3465834409
 10
119.0213595273
 20
103.7012579217
 10
118.9619735105
 20
102.8724246025
 10
119.0957493836
 20
101.9720228687
 10
119.4046197215
 20
101.1216555088
 10
119.8468698876
 20
100.436170429
 10
120.3627718368
 20
100.0081476122
 10
120.8826500678
 20
99.8953905254
  0
LWPOLYLINE
  5
14B
330
1F
100
AcDbEntity
  8
0
  6
HIDDEN
 62
     7
370
     0
100
AcDbPolyline
 90
       18
 70
   128
 43
0.0
 10
124.1535885947
 20
100.6787315309
 10
124.6072311641
 20
100.8964710235
 10
124.9333700852
 20
101.415299654
 10
125.0879584567
 20
102.1651465743
 10
125.0501197519
 20
103.0447406992
 10
124.8249632062
 20
103.9352890402
 10
124.4428974332
 20
104.7165168747
 10
123.9555223601
 20
105.2829146683
 10
123.4286620037
 20
105.5579891726
 10
122.9334703402
 20
105.5045880675
 10
122.5368261093
 20
105.1299253776
 10
122.2922985198
 20
104.4845989272
 10
122.2329127358
 20
103.6557656079
 10
122.3666883761
 20
102.7553638741
 10
122.6755582483
 20
101.9049965143
 10
123.1178088801
 20
101.2195123657
 10
123.6337103637
 20
100.7914876863
 10
124.1535885947
 20
100.6787315309
  0
LINE
  5
14C
330
1F
100
AcDbEntity
  8
0
  6
HIDDEN
 62
     7
370
     0
100
AcDbLine
 10
120.7139111811
 20
103.0711753592
 30
0.0
 11
119.8986020626
 21
103.7049413025
 31
0.0
  0
LINE
  5
14D
330
1F
100
AcDbEntity
  8
0
  6
HIDDEN
 62
     7
370
     0
100
AcDbLine
 10
119.3664471375
 20
102.9258666858
 30
0.0
 11
119.8986020626
 21
103.7049413025
 31
0.0
  0
LINE
  5
14E
330
1F
100
AcDbEntity
  8
0
  6
HIDDEN
 62
     7
370
     0
100
AcDbLine
 10
119.6496008651
 20
101.5130261257
 30
0.0
 11
119.3664471375
 21
102.9258666858
 31
0.0
  0
LINE
  5
14F
330
1F
100
AcDbEntity
  8
0
  6
HIDDEN
 62
     7
370
     0
100
AcDbLine
 10
119.6496008651
 20
101.5130261257
 30
0.0
 11
120.4649099836
 21
100.8792601823
 31
0.0
  0
LINE
  5
150
330
1F
100
AcDbEntity
  8
0
  6
HIDDEN
 62
     7
370
     0
100
AcDbLine
 10
120.9970649088
 20
101.6583347991
 30
0.0
 11
120.4649099836
 21
100.8792601823
 31
0.0
  0
LINE
  5
151
330
1F
100
AcDbEntity
  8
0
  6
HIDDEN
 62
     7
370
     0
100
AcDbLine
 10
120.9970649088
 20
101.6583347991
 30
0.0
 11
120.7139111811
 21
103.0711753592
 31
0.0
  0
LINE
  5
152
330
1F
100
AcDbEntity
  8
0
  6
HIDDEN
 62
     7
370
     0
100
AcDbLine
 10
122.3522151576
 20
103.463524796
 30
0.0
 11
120.7139111811
 21
103.0711753592
 31
0.0
  0
LINE
  5
153
330
1F
100
AcDbEntity
  8
0
  6
HIDDEN
 62
     7
370
     0
100
AcDbLine
 10
122.6353688853
 20
102.050684236
 30
0.0
 11
120.9970649088
 21
101.6583347991
 31
0.0
  0
LINE
  5
154
330
1F
100
AcDbEntity
  8
0
  6
HIDDEN
 62
     7
370
     0
100
AcDbLine
 10
121.004751114
 20
103.3182161227
 30
0.0
 11
121.5369065048
 21
104.0972907394
 31
0.0
  0
LINE
  5
155
330
1F
100
AcDbEntity
  8
0
  6
HIDDEN
 62
     7
370
     0
100
AcDbLine
 10
121.004751114
 20
103.3182161227
 30
0.0
 11
119.3664471375
 21
102.9258666858
 31
0.0
  0
LINE
  5
156
330
1F
100
AcDbEntity
  8
0
  6
HIDDEN
 62
     7
370
     0
100
AcDbLine
 10
121.5369065048
 20
104.0972907394
 30
0.0
 11
119.8986020626
 21
103.7049413025
 31
0.0
  0
LINE
  5
157
330
1F
100
AcDbEntity
  8
0
  6
HIDDEN
 62
     7
370
     0
100
AcDbLine
 10
121.2879048416
 20
101.9053755626
 30
0.0
 11
122.1032139601
 21
101.2716096192
 31
0.0
  0
LINE
  5
158
330
1F
100
AcDbEntity
  8
0
  6
HIDDEN
 62
     7
370
     0
100
AcDbLine
 10
121.2879048416
 20
101.9053755626
 30
0.0
 11
121.004751114
 21
103.3182161227
 31
0.0
  0
LINE
  5
159
330
1F
100
AcDbEntity
  8
0
  6
HIDDEN
 62
     7
370
     0
100
AcDbLine
 10
122.6353688853
 20
102.050684236
 30
0.0
 11
122.1032139601
 21
101.2716096192
 31
0.0
  0
LINE
  5
15A
330
1F
100
AcDbEntity
  8
0
  6
HIDDEN
 62
     7
370
     0
100
AcDbLine
 10
122.6353688853
 20
102.050684236
 30
0.0
 11
122.3522151576
 21
103.463524796
 31
0.0
  0
LINE
  5
15B
330
1F
100
AcDbEntity
  8
0
  6
HIDDEN
 62
     7
370
     0
100
AcDbLine
 10
122.3522151576
 20
103.463524796
 30
0.0
 11
121.5369065048
 21
104.0972907394
 31
0.0
  0
LINE
  5
15C
330
1F
100
AcDbEntity
  8
0
  6
HIDDEN
 62
     7
370
     0
100
AcDbLine
 10
121.2879048416
 20
101.9053755626
 30
0.0
 11
119.6496008651
 21
101.5130261257
 31
0.0
  0
LINE
  5
15D
330
1F
100
AcDbEntity
  8
0
  6
HIDDEN
 62
     7
370
     0
100
AcDbLine
 10
122.1032139601
 20
101.2716096192
 30
0.0
 11
120.4649099836
 21
100.8792601823
 31
0.0
  0
LWPOLYLINE
  5
15E
330
1F
100
AcDbEntity
  8
0
  6
HIDDEN
 62
     7
370
     0
100
AcDbPolyline
 90
       17
 70
   128
 43
0.0
 10
124.6208219545
 20
101.5599964484
 10
124.9556454586
 20
101.7293136865
 10
125.1872309239
 20
102.1336399316
 10
125.2803194092
 20
102.7114194184
 10
125.2207408415
 20
103.3746905923
 10
125.0175644399
 20
104.0224766656
 10
124.7017231526
 20
104.5561570972
 10
124.3212993013
 20
104.8944851681
 10
123.9342109056
 20
104.9859531521
 10
123.5993864702
 20
104.8166349828
 10
123.3678019361
 20
104.4123087376
 10
123.2747125195
 20
103.8345292508
 10
123.3342910873
 20
103.171258077
 10
123.5374674888
 20
102.5234729349
 10
123.8533097075
 20
101.9897915721
 10
124.2337326275
 20
101.6514635011
 10
124.6208219545
 20
101.5599964484
  0
LWPOLYLINE
  5
15F
330
1F
100
AcDbEntity
  8
0
  6
HIDDEN
 62
     7
370
     0
100
AcDbPolyline
 90
       18
 70
   128
 43
0.0
 10
123.1727150025
 20
131.2360780611
 10
123.6925932335
 20
131.6311953887
 10
124.2084956484
 20
131.7071615085
 10
124.6507462801
 20
131.4537160396
 10
124.959616618
 20
130.9050878808
 10
125.0933917926
 20
130.1353721246
 10
125.0340060087
 20
129.2485239282
 10
124.7894779535
 20
128.3643169626
 10
124.3928341882
 20
127.6021682024
 10
123.8976425247
 20
127.065009281
 10
123.3707812371
 20
126.8253865018
 10
122.8834070952
 20
126.9156642556
 10
122.5013413222
 20
127.3236478045
 10
122.2761847766
 20
127.9942373112
 10
122.238345606
 20
128.8368663117
 10
122.3929344432
 20
129.7377327755
 10
122.7190733643
 20
130.575170584
 10
123.1727150025
 20
131.2360780611
  0
LWPOLYLINE
  5
160
330
1F
100
AcDbEntity
  8
0
  6
HIDDEN
 62
     7
370
     0
100
AcDbPolyline
 90
       17
 70
   128
 43
0.0
 10
123.9342109056
 20
130.4985469505
 10
124.3212993013
 20
130.7852303907
 10
124.7017231526
 20
130.8185419365
 10
125.0175644399
 20
130.5934105366
 10
125.2207408415
 20
130.144109793
 10
125.2803194092
 20
129.5390416234
 10
125.1872309239
 20
128.8703231439
 10
124.9556454586
 20
128.2397590875
 10
124.6208219545
 20
127.7433483228
 10
124.2337326275
 20
127.4566639512
 10
123.8533097075
 20
127.4233524054
 10
123.5374674888
 20
127.6484847366
 10
123.3342910873
 20
128.0977854803
 10
123.2747125195
 20
128.7028536498
 10
123.3678019361
 20
129.3715721294
 10
123.5993864702
 20
130.0021361857
 10
123.9342109056
 20
130.4985469505
  0
LWPOLYLINE
  5
161
330
1F
100
AcDbEntity
  8
0
  6
HIDDEN
 62
     7
370
     0
100
AcDbPolyline
 90
       18
 70
   128
 43
0.0
 10
119.9017764756
 20
132.0194181353
 10
120.4216547066
 20
132.4145373255
 10
120.9375566559
 20
132.4905034452
 10
121.379806822
 20
132.2370570451
 10
121.6886771599
 20
131.6884288862
 10
121.8224528001
 20
130.9187140613
 10
121.7630670162
 20
130.031865865
 10
121.5185394266
 20
129.1476579681
 10
121.1218951957
 20
128.3855092078
 10
120.6267035322
 20
127.8483502864
 10
120.0998427102
 20
127.6087275073
 10
119.6124681027
 20
127.699005261
 10
119.2304023297
 20
128.10698881
 10
119.0052457841
 20
128.7775783166
 10
118.9674066135
 20
129.6202073171
 10
119.1219954507
 20
130.5210737809
 10
119.4481343718
 20
131.3585115894
 10
119.9017764756
 20
132.0194181353
  0
LINE
  5
162
330
1F
100
AcDbEntity
  8
0
  6
HIDDEN
 62
     7
370
     0
100
AcDbLine
 10
121.004751114
 20
129.5467539057
 30
0.0
 11
121.5369065048
 21
130.8456965089
 31
0.0
  0
LINE
  5
163
330
1F
100
AcDbEntity
  8
0
  6
HIDDEN
 62
     7
370
     0
100
AcDbLine
 10
119.3664471375
 20
129.9391033426
 30
0.0
 11
119.8986020626
 21
131.2380459457
 31
0.0
  0
LWPOLYLINE
  5
164
330
1F
100
AcDbEntity
  8
0
  6
HIDDEN
 62
     7
370
     0
100
AcDbPolyline
 90
       17
 70
   128
 43
0.0
 10
119.7786169814
 20
131.7195164337
 10
120.2331703843
 20
132.0561643988
 10
120.6798960211
 20
132.0952818095
 10
121.0507845262
 20
131.8309128582
 10
121.289371209
 20
131.3033055812
 10
121.3593335578
 20
130.5927828252
 10
121.2500205019
 20
129.8075158447
 10
120.9780738445
 20
129.0670538619
 10
120.5848950648
 20
128.4841260239
 10
120.1303416619
 20
128.1474771276
 10
119.6836160252
 20
128.1083597168
 10
119.31272752
 20
128.3727286681
 10
119.0741408372
 20
128.9003359452
 10
119.0041784884
 20
129.6108587011
 10
119.1134915443
 20
130.3961256817
 10
119.3854382017
 20
131.1365885958
 10
119.7786169814
 20
131.7195164337
  0
LINE
  5
165
330
1F
100
AcDbEntity
  8
0
  6
HIDDEN
 62
     7
370
     0
100
AcDbLine
 10
119.3664471375
 20
129.9391033426
 30
0.0
 11
119.6496008651
 21
128.8028786257
 31
0.0
  0
LINE
  5
166
330
1F
100
AcDbEntity
  8
0
  6
HIDDEN
 62
     7
370
     0
100
AcDbLine
 10
121.004751114
 20
129.5467539057
 30
0.0
 11
121.2879048416
 21
128.4105291888
 31
0.0
  0
LINE
  5
167
330
1F
100
AcDbEntity
  8
0
  6
HIDDEN
 62
     7
370
     0
100
AcDbLine
 10
121.004751114
 20
129.5467539057
 30
0.0
 11
119.3664471375
 21
129.9391033426
 31
0.0
  0
LINE
  5
168
330
1F
100
AcDbEntity
  8
0
  6
HIDDEN
 62
     7
370
     0
100
AcDbLine
 10
120.7139111811
 20
131.400763832
 30
0.0
 11
119.8986020626
 21
131.2380459457
 31
0.0
  0
LINE
  5
169
330
1F
100
AcDbEntity
  8
0
  6
HIDDEN
 62
     7
370
     0
100
AcDbLine
 10
122.3522151576
 20
131.0084143951
 30
0.0
 11
121.5369065048
 21
130.8456965089
 31
0.0
  0
LINE
  5
16A
330
1F
100
AcDbEntity
  8
0
  6
HIDDEN
 62
     7
370
     0
100
AcDbLine
 10
121.5369065048
 20
130.8456965089
 30
0.0
 11
119.8986020626
 21
131.2380459457
 31
0.0
  0
LINE
  5
16B
330
1F
100
AcDbEntity
  8
0
  6
HIDDEN
 62
     7
370
     0
100
AcDbLine
 10
122.1032139601
 20
128.573247075
 30
0.0
 11
120.4649099836
 21
128.9655965119
 31
0.0
  0
LINE
  5
16C
330
1F
100
AcDbEntity
  8
0
  6
HIDDEN
 62
     7
370
     0
100
AcDbLine
 10
121.2879048416
 20
128.4105291888
 30
0.0
 11
119.6496008651
 21
128.8028786257
 31
0.0
  0
LINE
  5
16D
330
1F
100
AcDbEntity
  8
0
  6
HIDDEN
 62
     7
370
     0
100
AcDbLine
 10
119.6496008651
 20
128.8028786257
 30
0.0
 11
120.4649099836
 21
128.9655965119
 31
0.0
  0
LINE
  5
16E
330
1F
100
AcDbEntity
  8
0
  6
HIDDEN
 62
     7
370
     0
100
AcDbLine
 10
121.2879048416
 20
128.4105291888
 30
0.0
 11
122.1032139601
 21
128.573247075
 31
0.0
  0
LINE
  5
16F
330
1F
100
AcDbEntity
  8
0
  6
HIDDEN
 62
     7
370
     0
100
AcDbLine
 10
122.6353688853
 20
129.8721896782
 30
0.0
 11
120.9970649088
 21
130.2645391151
 31
0.0
  0
LINE
  5
170
330
1F
100
AcDbEntity
  8
0
  6
HIDDEN
 62
     7
370
     0
100
AcDbLine
 10
122.3522151576
 20
131.0084143951
 30
0.0
 11
120.7139111811
 21
131.400763832
 31
0.0
  0
LINE
  5
171
330
1F
100
AcDbEntity
  8
0
  6
HIDDEN
 62
     7
370
     0
100
AcDbLine
 10
120.7139111811
 20
131.400763832
 30
0.0
 11
120.9970649088
 21
130.2645391151
 31
0.0
  0
LINE
  5
172
330
1F
100
AcDbEntity
  8
0
  6
HIDDEN
 62
     7
370
     0
100
AcDbLine
 10
122.3522151576
 20
131.0084143951
 30
0.0
 11
122.6353688853
 21
129.8721896782
 31
0.0
  0
LINE
  5
173
330
1F
100
AcDbEntity
  8
0
  6
HIDDEN
 62
     7
370
     0
100
AcDbLine
 10
120.9970649088
 20
130.2645391151
 30
0.0
 11
120.4649099836
 21
128.9655965119
 31
0.0
  0
LINE
  5
174
330
1F
100
AcDbEntity
  8
0
  6
HIDDEN
 62
     7
370
     0
100
AcDbLine
 10
122.6353688853
 20
129.8721896782
 30
0.0
 11
122.1032139601
 21
128.573247075
 31
0.0
  0
LWPOLYLINE
  5
175
330
1F
100
AcDbEntity
  8
0
  6
HIDDEN
 62
     7
370
     0
100
AcDbPolyline
 90
       17
 70
   128
 43
0.0
 10
129.9383581372
 20
131.3511643856
 10
129.1746438237
 20
131.461622037
 10
128.4240797849
 20
131.289036788
 10
127.8009337129
 20
130.85968218
 10
127.4000738503
 20
130.238924019
 10
127.2825269716
 20
129.5212673321
 10
127.4661884399
 20
128.8159674331
 10
127.923098089
 20
128.2304020896
 10
128.5836954357
 20
127.8537165671
 10
129.3474097492
 20
127.7432589158
 10
130.0979737879
 20
127.9158441648
 10
130.7211189287
 20
128.3451987728
 10
131.1219787912
 20
128.9659569338
 10
131.2395266013
 20
129.683614552
 10
131.0558642017
 20
130.3889135196
 10
130.5989554839
 20
130.9744788631
 10
129.9383581372
 20
131.3511643856
  0
LWPOLYLINE
  5
176
330
1F
100
AcDbEntity
  8
0
  6
HIDDEN
 62
     7
370
     0
100
AcDbPolyline
 90
       18
 70
   128
 43
0.0
 10
130.1160768362
 20
131.9126028865
 10
129.2096969427
 20
132.0537820756
 10
128.3102498146
 20
131.8777546584
 10
127.5392097177
 20
131.4082889184
 10
127.0007106231
 20
130.7087911591
 10
126.7674795108
 20
129.8737319484
 10
126.871016504
 20
129.0158916562
 10
127.2973368631
 20
128.2511249482
 10
127.9888652952
 20
127.6827182918
 10
128.8522050472
 20
127.3874387443
 10
129.7707591893
 20
127.4051646068
 10
130.620470898
 20
127.7335023805
 10
131.2865826057
 20
128.3281080722
 10
131.6791313456
 20
129.1086774617
 10
131.7451006489
 20
129.9697885587
 10
131.4755833464
 20
130.7951461821
 10
130.9069773869
 20
131.4732784703
 10
130.1160768362
 20
131.9126028865
  0
LWPOLYLINE
  5
177
330
1F
100
AcDbEntity
  8
0
  6
HIDDEN
 62
     7
370
     0
100
AcDbPolyline
 90
       18
 70
   128
 43
0.0
 10
130.1160768362
 20
132.5111378282
 10
129.2096969427
 20
132.6523188799
 10
128.3102498146
 20
132.4762896001
 10
127.5392097177
 20
132.0068229288
 10
127.0007106231
 20
131.3073261007
 10
126.7674795108
 20
130.4722678214
 10
126.871016504
 20
129.6144265979
 10
127.2973368631
 20
128.8496598899
 10
127.9888652952
 20
128.2812541648
 10
128.8522050472
 20
127.9859746173
 10
129.7707591893
 20
128.0037004798
 10
130.620470898
 20
128.3320382535
 10
131.2865826057
 20
128.9266439452
 10
131.6791313456
 20
129.7072124034
 10
131.7451006489
 20
130.5683244317
 10
131.4755833464
 20
131.3936811238
 10
130.9069773869
 20
132.0718143433
 10
130.1160768362
 20
132.5111378282
  0
LWPOLYLINE
  5
178
330
1F
100
AcDbEntity
  8
0
  6
HIDDEN
 62
     7
370
     0
100
AcDbPolyline
 90
       17
 70
   128
 43
0.0
 10
129.945067385
 20
133.2495965361
 10
129.1737879382
 20
133.3611484915
 10
128.4157900827
 20
133.1868533343
 10
127.7864721359
 20
132.7532463073
 10
127.3816411139
 20
132.1263395548
 10
127.2629300819
 20
131.4015740826
 10
127.4484113546
 20
130.689288333
 10
127.9098463001
 20
130.0979227125
 10
128.5769861879
 20
129.7175072431
 10
129.3482656346
 20
129.6059543565
 10
130.1062634902
 20
129.7802495137
 10
130.7355805056
 20
130.2138574719
 10
131.1404115276
 20
130.8407632932
 10
131.2591234909
 20
131.5655287653
 10
131.0736431496
 20
132.2778135836
 10
130.6122072728
 20
132.8691792041
 10
129.945067385
 20
133.2495965361
  0
LWPOLYLINE
  5
179
330
1F
100
AcDbEntity
  8
0
  6
HIDDEN
 62
     7
370
     0
100
AcDbPolyline
 90
       17
 70
   128
 43
0.0
 10
129.945067385
 20
131.8318199664
 10
129.1737879382
 20
131.9433719217
 10
128.4157900827
 20
131.7690767645
 10
127.7864721359
 20
131.3354697376
 10
127.3816411139
 20
130.708562985
 10
127.2629300819
 20
129.9837975129
 10
127.4484113546
 20
129.2715126946
 10
127.9098463001
 20
128.6801470741
 10
128.5769861879
 20
128.2997306734
 10
129.3482656346
 20
128.1881787181
 10
130.1062634902
 20
128.3624738752
 10
130.7355805056
 20
128.7960809022
 10
131.1404115276
 20
129.4229876548
 10
131.2591234909
 20
130.1477531269
 10
131.0736431496
 20
130.8600379452
 10
130.6122072728
 20
131.4514035657
 10
129.945067385
 20
131.8318199664
  0
LWPOLYLINE
  5
17A
330
1F
100
AcDbEntity
  8
0
  6
HIDDEN
 62
     7
370
     0
100
AcDbPolyline
 90
       18
 70
   128
 43
0.0
 10
130.1160768362
 20
132.7471312433
 10
129.2096969427
 20
132.888312295
 10
128.3102498146
 20
132.7122830152
 10
127.5392097177
 20
132.2428182065
 10
127.0007106231
 20
131.5433204472
 10
126.7674795108
 20
130.7082612365
 10
126.871016504
 20
129.8504209444
 10
127.2973368631
 20
129.0856542363
 10
127.9888652952
 20
128.51724758
 10
128.8522050472
 20
128.2219680324
 10
129.7707591893
 20
128.2396938949
 10
130.620470898
 20
128.5680316686
 10
131.2865826057
 20
129.1626373604
 10
131.6791313456
 20
129.9432058185
 10
131.7451006489
 20
130.8043178469
 10
131.4755833464
 20
131.6296745389
 10
130.9069773869
 20
132.3078077584
 10
130.1160768362
 20
132.7471312433
  0
LWPOLYLINE
  5
17B
330
1F
100
AcDbEntity
  8
0
  6
HIDDEN
 62
     7
370
     0
100
AcDbPolyline
 90
       18
 70
   128
 43
0.0
 10
130.0476730557
 20
132.3960077315
 10
129.213803144
 20
132.5258937031
 10
128.3863118605
 20
132.3639460206
 10
127.6769551204
 20
131.932037726
 10
127.1815362142
 20
131.2885003462
 10
126.9669632183
 20
130.5202467665
 10
127.0622170286
 20
129.7310328409
 10
127.454432355
 20
129.0274484381
 10
128.0906383635
 20
128.5045145377
 10
128.8849112334
 20
128.2328570559
 10
129.729980299
 20
128.2491645142
 10
130.5117157044
 20
128.551235266
 10
131.1245380657
 20
129.0982727259
 10
131.4856826084
 20
129.8163960054
 10
131.5463750379
 20
130.6086190343
 10
131.2984197156
 20
131.3679468184
 10
130.7753014134
 20
131.9918286353
 10
130.0476730557
 20
132.3960077315
  0
LWPOLYLINE
  5
17C
330
1F
100
AcDbEntity
  8
0
  6
HIDDEN
 62
     7
370
     0
100
AcDbPolyline
 90
       18
 70
   128
 43
0.0
 10
130.1160768362
 20
132.9831246584
 10
129.2096969427
 20
133.1243057102
 10
128.3102498146
 20
132.9482764303
 10
127.5392097177
 20
132.4788116216
 10
127.0007106231
 20
131.7793138623
 10
126.7674795108
 20
130.944255583
 10
126.871016504
 20
130.0864143595
 10
127.2973368631
 20
129.3216485828
 10
127.9888652952
 20
128.7532419264
 10
128.8522050472
 20
128.4579623788
 10
129.7707591893
 20
128.4756882414
 10
130.620470898
 20
128.8040260151
 10
131.2865826057
 20
129.3986317068
 10
131.6791313456
 20
130.1792001649
 10
131.7451006489
 20
131.0403121933
 10
131.4755833464
 20
131.8656679541
 10
130.9069773869
 20
132.5438011735
 10
130.1160768362
 20
132.9831246584
  0
LWPOLYLINE
  5
17D
330
1F
100
AcDbEntity
  8
0
  6
HIDDEN
 62
     7
370
     0
100
AcDbPolyline
 90
       18
 70
   128
 43
0.0
 10
130.0476730557
 20
132.6320011466
 10
129.213803144
 20
132.7618871182
 10
128.3863118605
 20
132.5999412983
 10
127.6769551204
 20
132.1680330038
 10
127.1815362142
 20
131.5244946926
 10
126.9669632183
 20
130.7562401816
 10
127.0622170286
 20
129.9670271873
 10
127.454432355
 20
129.2634418532
 10
128.0906383635
 20
128.7405079528
 10
128.8849112334
 20
128.468850471
 10
129.729980299
 20
128.4851588606
 10
130.5117157044
 20
128.7872296124
 10
131.1245380657
 20
129.334266141
 10
131.4856826084
 20
130.0523894205
 10
131.5463750379
 20
130.8446124494
 10
131.2984197156
 20
131.6039411649
 10
130.7753014134
 20
132.2278239131
 10
130.0476730557
 20
132.6320011466
  0
LWPOLYLINE
  5
17E
330
1F
100
AcDbEntity
  8
0
  6
HIDDEN
 62
     7
370
     0
100
AcDbPolyline
 90
       18
 70
   128
 43
0.0
 10
130.1160768362
 20
133.2191199362
 10
129.2096969427
 20
133.3602991253
 10
128.3102498146
 20
133.1842698455
 10
127.5392097177
 20
132.7148050367
 10
127.0007106231
 20
132.0153072774
 10
126.7674795108
 20
131.1802489981
 10
126.871016504
 20
130.3224087059
 10
127.2973368631
 20
129.5576419979
 10
127.9888652952
 20
128.9892353415
 10
128.8522050472
 20
128.6939557939
 10
129.7707591893
 20
128.7116816565
 10
130.620470898
 20
129.0400194302
 10
131.2865826057
 20
129.6346251219
 10
131.6791313456
 20
130.4151935801
 10
131.7451006489
 20
131.2763056084
 10
131.4755833464
 20
132.1016632318
 10
130.9069773869
 20
132.7797964513
 10
130.1160768362
 20
133.2191199362
  0
LWPOLYLINE
  5
17F
330
1F
100
AcDbEntity
  8
0
  6
HIDDEN
 62
     7
370
     0
100
AcDbPolyline
 90
       18
 70
   128
 43
0.0
 10
130.0476730557
 20
132.8679945618
 10
129.213803144
 20
132.9978805333
 10
128.3863118605
 20
132.8359347134
 10
127.6769551204
 20
132.4040264189
 10
127.1815362142
 20
131.7604881078
 10
126.9669632183
 20
130.992234528
 10
127.0622170286
 20
130.2030206024
 10
127.454432355
 20
129.4994361996
 10
128.0906383635
 20
128.9765022993
 10
128.8849112334
 20
128.7048448175
 10
129.729980299
 20
128.7211522758
 10
130.5117157044
 20
129.0232230276
 10
131.1245380657
 20
129.5702604875
 10
131.4856826084
 20
130.288383767
 10
131.5463750379
 20
131.0806067958
 10
131.2984197156
 20
131.8399355113
 10
130.7753014134
 20
132.4638173282
 10
130.0476730557
 20
132.8679945618
  0
LWPOLYLINE
  5
180
330
1F
100
AcDbEntity
  8
0
  6
HIDDEN
 62
     7
370
     0
100
AcDbPolyline
 90
       18
 70
   128
 43
0.0
 10
130.1160768362
 20
133.4551133513
 10
129.2096969427
 20
133.596294403
 10
128.3102498146
 20
133.4202651232
 10
127.5392097177
 20
132.9508003145
 10
127.0007106231
 20
132.2513025552
 10
126.7674795108
 20
131.4162433445
 10
126.871016504
 20
130.558402121
 10
127.2973368631
 20
129.7936363443
 10
127.9888652952
 20
129.225229688
 10
128.8522050472
 20
128.9299501404
 10
129.7707591893
 20
128.9476760029
 10
130.620470898
 20
129.2760137766
 10
131.2865826057
 20
129.8706194684
 10
131.6791313456
 20
130.6511879265
 10
131.7451006489
 20
131.5122999549
 10
131.4755833464
 20
132.3376566469
 10
130.9069773869
 20
133.0157898664
 10
130.1160768362
 20
133.4551133513
  0
LWPOLYLINE
  5
181
330
1F
100
AcDbEntity
  8
0
  6
HIDDEN
 62
     7
370
     0
100
AcDbPolyline
 90
       18
 70
   128
 43
0.0
 10
130.0476730557
 20
133.1039879769
 10
129.213803144
 20
133.2338758111
 10
128.3863118605
 20
133.0719281286
 10
127.6769551204
 20
132.640019834
 10
127.1815362142
 20
131.9964833855
 10
126.9669632183
 20
131.2282279431
 10
127.0622170286
 20
130.4390149489
 10
127.454432355
 20
129.7354296147
 10
128.0906383635
 20
129.2124957144
 10
128.8849112334
 20
128.9408382326
 10
129.729980299
 20
128.9571466222
 10
130.5117157044
 20
129.259217374
 10
131.1245380657
 20
129.8062539026
 10
131.4856826084
 20
130.5243771821
 10
131.5463750379
 20
131.3166002109
 10
131.2984197156
 20
132.0759289264
 10
130.7753014134
 20
132.6998107433
 10
130.0476730557
 20
133.1039879769
  0
LWPOLYLINE
  5
182
330
1F
100
AcDbEntity
  8
0
  6
HIDDEN
 62
     7
370
     0
100
AcDbPolyline
 90
       18
 70
   128
 43
0.0
 10
130.1160768362
 20
133.6432237476
 10
129.2096969427
 20
133.7844047993
 10
128.3102498146
 20
133.6083755195
 10
127.5392097177
 20
133.1389107108
 10
127.0007106231
 20
132.4394129514
 10
126.7674795108
 20
131.6043546721
 10
126.871016504
 20
130.7465134486
 10
127.2973368631
 20
129.9817467406
 10
127.9888652952
 20
129.4133410155
 10
128.8522050472
 20
129.1180605366
 10
129.7707591893
 20
129.1357863992
 10
130.620470898
 20
129.4641241729
 10
131.2865826057
 20
130.0587298646
 10
131.6791313456
 20
130.8392992541
 10
131.7451006489
 20
131.7004103511
 10
131.4755833464
 20
132.5257670432
 10
130.9069773869
 20
133.2039002627
 10
130.1160768362
 20
133.6432237476
  0
LWPOLYLINE
  5
183
330
1F
100
AcDbEntity
  8
0
  6
HIDDEN
 62
     7
370
     0
100
AcDbPolyline
 90
       18
 70
   128
 43
0.0
 10
130.0681938173
 20
133.5674830079
 10
129.2125719355
 20
133.7007589936
 10
128.3634925948
 20
133.5345868319
 10
127.6356314065
 20
133.0914113968
 10
127.1272885369
 20
132.4310869276
 10
126.9071182923
 20
131.6427903548
 10
127.0048568712
 20
130.8329886123
 10
127.4073037075
 20
130.1110497042
 10
128.0601058842
 20
129.5744737908
 10
128.87509975
 20
129.2957298755
 10
129.7422141524
 20
129.3124629482
 10
130.5443417968
 20
129.6224136203
 10
131.1731512414
 20
130.183721736
 10
131.5437170433
 20
130.9205785691
 10
131.6059927212
 20
131.7334676459
 10
131.3515684323
 20
132.5126055926
 10
130.8148043917
 20
133.1527632028
 10
130.0681938173
 20
133.5674830079
  0
ARC
  5
184
330
1F
100
AcDbEntity
  8
0
  6
HIDDEN
 62
     7
370
     0
100
AcDbCircle
 10
129.2442930842
 20
100.8895499357
 30
0.0
 40
2.484216911932045
100
AcDbArc
 50
345.1047438734
 51
178.415233659
  0
ARC
  5
185
330
1F
100
AcDbEntity
  8
0
  6
HIDDEN
 62
     7
370
     0
100
AcDbCircle
 10
129.2428197393
 20
100.8198643278
 30
0.0
 40
2.356309738087234
100
AcDbArc
 50
351.0812415852
 51
153.4524969253
  0
ARC
  5
186
330
1F
100
AcDbEntity
  8
0
  6
HIDDEN
 62
     7
370
     0
100
AcDbCircle
 10
129.2696970592
 20
100.8286384016
 30
0.0
 40
1.99300667536721
100
AcDbArc
 50
2.3503419996
 51
126.9787736656
  0
LWPOLYLINE
  5
187
330
1F
100
AcDbEntity
  8
0
  6
HIDDEN
 62
     7
370
     0
100
AcDbPolyline
 90
       18
 70
   128
 43
0.0
 10
128.4059767367
 20
98.9388086199
 10
127.6150752546
 20
99.3781321048
 10
127.0464702265
 20
100.0562653243
 10
126.7769519927
 20
100.8816220164
 10
126.8429222272
 20
101.7427340448
 10
127.2354709672
 20
102.5233025029
 10
127.9015826748
 20
103.1179081946
 10
128.7512943836
 20
103.4462459683
 10
129.6698475944
 20
103.4639718309
 10
130.5331882776
 20
103.1686922833
 10
131.2247167097
 20
102.6002856269
 10
131.6510370688
 20
101.8355198502
 10
131.7545740621
 20
100.9776786267
 10
131.5213429497
 20
100.1426194161
 10
130.9828429239
 20
99.4431216567
 10
130.2118037583
 20
98.973656848
 10
129.3123566301
 20
98.7976275682
 10
128.4059767367
 20
98.9388086199
  0
LWPOLYLINE
  5
188
330
1F
100
AcDbEntity
  8
0
  6
HIDDEN
 62
     7
370
     0
100
AcDbPolyline
 90
       17
 70
   128
 43
0.0
 10
128.5769861879
 20
100.5621020049
 10
127.9098463001
 20
100.9425184056
 10
127.4484113546
 20
101.5338840261
 10
127.2629300819
 20
102.2461688444
 10
127.3816411139
 20
102.9709343165
 10
127.7864721359
 20
103.5978410691
 10
128.4157900827
 20
104.031448096
 10
129.1737879382
 20
104.2057432532
 10
129.945067385
 20
104.0941912979
 10
130.6122072728
 20
103.7137748971
 10
131.0736431496
 20
103.1224092766
 10
131.2591234909
 20
102.4101244583
 10
131.1404115276
 20
101.6853589862
 10
130.7355805056
 20
101.0584522336
 10
130.1062634902
 20
100.6248452067
 10
129.3482656346
 20
100.4505500495
 10
128.5769861879
 20
100.5621020049
  0
LWPOLYLINE
  5
189
330
1F
100
AcDbEntity
  8
0
  6
HIDDEN
 62
     7
370
     0
100
AcDbPolyline
 90
       18
 70
   128
 43
0.0
 10
128.4059767367
 20
99.1748020351
 10
127.6150752546
 20
99.61412552
 10
127.0464702265
 20
100.2922587394
 10
126.7769519927
 20
101.1176163628
 10
126.8429222272
 20
101.9787283912
 10
127.2354709672
 20
102.7592968493
 10
127.9015826748
 20
103.3539025411
 10
128.7512943836
 20
103.6822403147
 10
129.6698475944
 20
103.6999661773
 10
130.5331882776
 20
103.4046866297
 10
131.2247167097
 20
102.8362799734
 10
131.6510370688
 20
102.0715132653
 10
131.7545740621
 20
101.2136729732
 10
131.5213429497
 20
100.3786146938
 10
130.9828429239
 20
99.6791169345
 10
130.2118037583
 20
99.2096521258
 10
129.3123566301
 20
99.033622846
 10
128.4059767367
 20
99.1748020351
  0
LWPOLYLINE
  5
18A
330
1F
100
AcDbEntity
  8
0
  6
HIDDEN
 62
     7
370
     0
100
AcDbPolyline
 90
       18
 70
   128
 43
0.0
 10
128.4743805172
 20
99.2899339944
 10
127.7467521595
 20
99.694111228
 10
127.2236347886
 20
100.3179930448
 10
126.975678535
 20
101.0773217603
 10
127.0363709645
 20
101.8695447892
 10
127.3975155072
 20
102.5876680687
 10
128.0103378685
 20
103.1347045973
 10
128.7920723425
 20
103.436775349
 10
129.6371423395
 20
103.4530837387
 10
130.4314152093
 20
103.1814262569
 10
131.0676212178
 20
102.6584923565
 10
131.4598365443
 20
101.9549070224
 10
131.5550903545
 20
101.1656940281
 10
131.3405173586
 20
100.3974385857
 10
130.8450984524
 20
99.7539021372
 10
130.1357417123
 20
99.3219938427
 10
129.3082494976
 20
99.1600461602
 10
128.4743805172
 20
99.2899339944
  0
LWPOLYLINE
  5
18B
330
1F
100
AcDbEntity
  8
0
  6
HIDDEN
 62
     7
370
     0
100
AcDbPolyline
 90
       18
 70
   128
 43
0.0
 10
128.4059767367
 20
99.4107973128
 10
127.6150752546
 20
99.8501207977
 10
127.0464702265
 20
100.5282540172
 10
126.7769519927
 20
101.353609778
 10
126.8429222272
 20
102.2147218063
 10
127.2354709672
 20
102.9952902645
 10
127.9015826748
 20
103.5898959562
 10
128.7512943836
 20
103.9182337299
 10
129.6698475944
 20
103.9359595924
 10
130.5331882776
 20
103.6406800449
 10
131.2247167097
 20
103.0722733885
 10
131.6510370688
 20
102.3075076118
 10
131.7545740621
 20
101.4496663883
 10
131.5213429497
 20
100.614608109
 10
130.9828429239
 20
99.9151103496
 10
130.2118037583
 20
99.4456455409
 10
129.3123566301
 20
99.2696162611
 10
128.4059767367
 20
99.4107973128
  0
LWPOLYLINE
  5
18C
330
1F
100
AcDbEntity
  8
0
  6
HIDDEN
 62
     7
370
     0
100
AcDbPolyline
 90
       18
 70
   128
 43
0.0
 10
128.4743805172
 20
99.5259274095
 10
127.7467521595
 20
99.9301046431
 10
127.2236347886
 20
100.5539864599
 10
126.975678535
 20
101.3133151754
 10
127.0363709645
 20
102.1055382043
 10
127.3975155072
 20
102.8236614838
 10
128.0103378685
 20
103.3706989437
 10
128.7920723425
 20
103.6727696955
 10
129.6371423395
 20
103.6890771538
 10
130.4314152093
 20
103.417419672
 10
131.0676212178
 20
102.8944857716
 10
131.4598365443
 20
102.1909013688
 10
131.5550903545
 20
101.4016874432
 10
131.3405173586
 20
100.6334338635
 10
130.8450984524
 20
99.9898955524
 10
130.1357417123
 20
99.5579872578
 10
129.3082494976
 20
99.3960414379
 10
128.4743805172
 20
99.5259274095
  0
LWPOLYLINE
  5
18D
330
1F
100
AcDbEntity
  8
0
  6
HIDDEN
 62
     7
370
     0
100
AcDbPolyline
 90
       18
 70
   128
 43
0.0
 10
128.4059767367
 20
99.6467907279
 10
127.6150752546
 20
100.0861142128
 10
127.0464702265
 20
100.7642474323
 10
126.7769519927
 20
101.5896041244
 10
126.8429222272
 20
102.4507161528
 10
127.2354709672
 20
103.2312846109
 10
127.9015826748
 20
103.8258903026
 10
128.7512943836
 20
104.1542280763
 10
129.6698475944
 20
104.1719539389
 10
130.5331882776
 20
103.8766743913
 10
131.2247167097
 20
103.3082677349
 10
131.6510370688
 20
102.5435010269
 10
131.7545740621
 20
101.6856607347
 10
131.5213429497
 20
100.8506015241
 10
130.9828429239
 20
100.1511037647
 10
130.2118037583
 20
99.681638956
 10
129.3123566301
 20
99.5056096762
 10
128.4059767367
 20
99.6467907279
  0
LWPOLYLINE
  5
18E
330
1F
100
AcDbEntity
  8
0
  6
HIDDEN
 62
     7
370
     0
100
AcDbPolyline
 90
       18
 70
   128
 43
0.0
 10
128.4743805172
 20
99.7619208246
 10
127.7467521595
 20
100.1660980582
 10
127.2236347886
 20
100.7899808064
 10
126.975678535
 20
101.5493095219
 10
127.0363709645
 20
102.3415325507
 10
127.3975155072
 20
103.0596558302
 10
128.0103378685
 20
103.6066923588
 10
128.7920723425
 20
103.9087631106
 10
129.6371423395
 20
103.9250715002
 10
130.4314152093
 20
103.6534140184
 10
131.0676212178
 20
103.1304801181
 10
131.4598365443
 20
102.4268947839
 10
131.5550903545
 20
101.6376817897
 10
131.3405173586
 20
100.8694272786
 10
130.8450984524
 20
100.2258889675
 10
130.1357417123
 20
99.7939806729
 10
129.3082494976
 20
99.6320348531
 10
128.4743805172
 20
99.7619208246
  0
LWPOLYLINE
  5
18F
330
1F
100
AcDbEntity
  8
0
  6
HIDDEN
 62
     7
370
     0
100
AcDbPolyline
 90
       18
 70
   128
 43
0.0
 10
128.4059767367
 20
99.8827841431
 10
127.6150752546
 20
100.322107628
 10
127.0464702265
 20
101.0002408474
 10
126.7769519927
 20
101.8255975395
 10
126.8429222272
 20
102.6867095679
 10
127.2354709672
 20
103.467278026
 10
127.9015826748
 20
104.0618837177
 10
128.7512943836
 20
104.3902214914
 10
129.6698475944
 20
104.407947354
 10
130.5331882776
 20
104.1126678064
 10
131.2247167097
 20
103.5442620814
 10
131.6510370688
 20
102.7794953733
 10
131.7545740621
 20
101.9216541499
 10
131.5213429497
 20
101.0865958705
 10
130.9828429239
 20
100.3870990425
 10
130.2118037583
 20
99.9176323712
 10
129.3123566301
 20
99.7416030913
 10
128.4059767367
 20
99.8827841431
  0
LWPOLYLINE
  5
190
330
1F
100
AcDbEntity
  8
0
  6
HIDDEN
 62
     7
370
     0
100
AcDbPolyline
 90
       18
 70
   128
 43
0.0
 10
128.4743805172
 20
99.9979142397
 10
127.7467521595
 20
100.402093336
 10
127.2236347886
 20
101.0259751528
 10
126.975678535
 20
101.785302937
 10
127.0363709645
 20
102.5775259658
 10
127.3975155072
 20
103.2956492453
 10
128.0103378685
 20
103.8426867053
 10
128.7920723425
 20
104.144757457
 10
129.6371423395
 20
104.1610649153
 10
130.4314152093
 20
103.8894074335
 10
131.0676212178
 20
103.3664735332
 10
131.4598365443
 20
102.6628891304
 10
131.5550903545
 20
101.8736752048
 10
131.3405173586
 20
101.105421625
 10
130.8450984524
 20
100.4618842452
 10
130.1357417123
 20
100.0299759507
 10
129.3082494976
 20
99.8680282682
 10
128.4743805172
 20
99.9979142397
  0
LWPOLYLINE
  5
191
330
1F
100
AcDbEntity
  8
0
  6
HIDDEN
 62
     7
370
     0
100
AcDbPolyline
 90
       18
 70
   128
 43
0.0
 10
128.4059767367
 20
100.4813190847
 10
127.6150752546
 20
100.9206435009
 10
127.0464702265
 20
101.5987757891
 10
126.7769519927
 20
102.4241334125
 10
126.8429222272
 20
103.2852445095
 10
127.2354709672
 20
104.065813899
 10
127.9015826748
 20
104.6604195907
 10
128.7512943836
 20
104.9887573644
 10
129.6698475944
 20
105.006483227
 10
130.5331882776
 20
104.7112036794
 10
131.2247167097
 20
104.142797023
 10
131.6510370688
 20
103.378030315
 10
131.7545740621
 20
102.5201900229
 10
131.5213429497
 20
101.6851308122
 10
130.9828429239
 20
100.9856330529
 10
130.2118037583
 20
100.5161673128
 10
129.3123566301
 20
100.3401398956
 10
128.4059767367
 20
100.4813190847
  0
LWPOLYLINE
  5
192
330
1F
100
AcDbEntity
  8
0
  6
HIDDEN
 62
     7
370
     0
100
AcDbPolyline
 90
       17
 70
   128
 43
0.0
 10
128.5836954357
 20
101.0427575856
 10
127.923098089
 20
101.4194431081
 10
127.4661884399
 20
102.0050084516
 10
127.2825269716
 20
102.7103074193
 10
127.4000738503
 20
103.4279650375
 10
127.8009337129
 20
104.0487231984
 10
128.4240797849
 20
104.4780778065
 10
129.1746438237
 20
104.6506630554
 10
129.9383581372
 20
104.5402054041
 10
130.5989554839
 20
104.1635198816
 10
131.0558642017
 20
103.5779545381
 10
131.2395266013
 20
102.8726546392
 10
131.1219787912
 20
102.1549979522
 10
130.7211189287
 20
101.5342397913
 10
130.0979737879
 20
101.1048851832
 10
129.3474097492
 20
100.9322999343
 10
128.5836954357
 20
101.0427575856
  0
LINE
  5
193
330
1F
100
AcDbEntity
  8
0
  6
HIDDEN
 62
     7
370
     0
100
AcDbLine
 10
131.7610262649
 20
99.5326478332
 30
0.0
 11
131.7610262649
 21
102.6888758242
 31
0.0
  0
LINE
  5
194
330
1F
100
AcDbEntity
  8
0
  6
HIDDEN
 62
     7
370
     0
100
AcDbLine
 10
126.7610263767
 20
102.6888758242
 30
0.0
 11
126.7610263767
 21
100.6352164149
 31
0.0
  0
LINE
  5
195
330
1F
100
AcDbEntity
  8
0
  6
HIDDEN
 62
     7
370
     0
100
AcDbLine
 10
118.2610266132
 20
98.7472839951
 30
0.0
 11
120.8804544749
 21
99.374598667
 31
0.0
  0
LINE
  5
196
330
1F
100
AcDbEntity
  8
0
  6
HIDDEN
 62
     7
370
     0
100
AcDbLine
 10
119.4830575714
 20
105.2096037492
 30
0.0
 11
118.2610266132
 21
104.9169449433
 31
0.0
  0
LINE
  5
197
330
1F
100
AcDbEntity
  8
0
  6
HIDDEN
 62
     7
370
     0
100
AcDbLine
 10
284.1610281484
 20
156.1969600916
 30
0.0
 11
283.4110229032
 21
154.5885809064
 31
0.0
  0
LINE
  5
198
330
1F
100
AcDbEntity
  8
0
  6
HIDDEN
 62
     7
370
     0
100
AcDbLine
 10
283.4110229032
 20
77.8053410649
 30
0.0
 11
284.1610281484
 21
76.1969618797
 31
0.0
  0
LINE
  5
199
330
1F
100
AcDbEntity
  8
0
  6
HIDDEN
 62
     7
370
     0
100
AcDbLine
 10
120.9391771571
 20
100.3141112923
 30
0.0
 11
128.4083264636
 21
102.1028606519
 31
0.0
  0
LINE
  5
19A
330
1F
100
AcDbEntity
  8
0
  6
HIDDEN
 62
     7
370
     0
100
AcDbLine
 10
128.4083264636
 20
106.4216232225
 30
0.0
 11
119.9609992781
 21
104.3986145705
 31
0.0
  0
LINE
  5
19B
330
1F
100
AcDbEntity
  8
0
  6
HIDDEN
 62
     7
370
     0
100
AcDbLine
 10
131.3610269444
 20
102.738669917
 30
0.0
 11
131.3610269444
 21
114.7479597311
 31
0.0
  0
LINE
  5
19C
330
1F
100
AcDbEntity
  8
0
  6
HIDDEN
 62
     7
370
     0
100
AcDbLine
 10
127.1610266285
 20
103.0867200642
 30
0.0
 11
127.1610266285
 21
102.738669917
 31
0.0
  0
LINE
  5
19D
330
1F
100
AcDbEntity
  8
0
  6
HIDDEN
 62
     7
370
     0
100
AcDbLine
 10
127.1610266285
 20
114.7462427215
 30
0.0
 11
127.1610266285
 21
104.8403445929
 31
0.0
  0
LINE
  5
19E
330
1F
100
AcDbEntity
  8
0
  6
HIDDEN
 62
     7
370
     0
100
AcDbLine
 10
283.3938716667
 20
147.6969614923
 30
0.0
 11
278.6110310571
 21
147.6969614923
 31
0.0
  0
LINE
  5
19F
330
1F
100
AcDbEntity
  8
0
  6
HIDDEN
 62
     7
370
     0
100
AcDbLine
 10
278.6110310571
 20
84.696960479
 30
0.0
 11
283.4110229032
 21
84.696960479
 31
0.0
  0
LINE
  5
1A0
330
1F
100
AcDbEntity
  8
0
  6
HIDDEN
 62
     7
370
     0
100
AcDbLine
 10
278.6110310571
 20
142.0629870444
 30
0.0
 11
277.1110205667
 21
141.1969613582
 31
0.0
  0
LINE
  5
1A1
330
1F
100
AcDbEntity
  8
0
  6
HIDDEN
 62
     7
370
     0
100
AcDbLine
 10
277.1110205667
 20
91.1969606131
 30
0.0
 11
278.6110310571
 21
90.3309349268
 31
0.0
  0
LINE
  5
1A2
330
1F
100
AcDbEntity
  8
0
  6
HIDDEN
 62
     7
370
     0
100
AcDbLine
 10
234.4624220149
 20
141.4969608485
 30
0.0
 11
233.7610243575
 21
141.4969608485
 31
0.0
  0
LINE
  5
1A3
330
1F
100
AcDbEntity
  8
0
  6
HIDDEN
 62
     7
370
     0
100
AcDbLine
 10
233.7610243575
 20
90.8969611227
 30
0.0
 11
234.4624220149
 21
90.8969611227
 31
0.0
  0
ARC
  5
1A4
330
1F
100
AcDbEntity
  8
0
  6
HIDDEN
 62
     7
370
     0
100
AcDbCircle
 10
233.761026694
 20
140.8969609856
 30
0.0
 40
0.6000000000000227
100
AcDbArc
 50
90.0
 51
180.0
  0
ARC
  5
1A5
330
1F
100
AcDbEntity
  8
0
  6
HIDDEN
 62
     7
370
     0
100
AcDbCircle
 10
233.761026694
 20
91.4969609856
 30
0.0
 40
0.5999999999999943
100
AcDbArc
 50
180.0
 51
270.0
  0
ARC
  5
1A6
330
1F
100
AcDbEntity
  8
0
  6
HIDDEN
 62
     7
370
     0
100
AcDbCircle
 10
234.4624199532
 20
140.8969609856
 30
0.0
 40
0.6000000000000227
100
AcDbArc
 50
75.0
 51
90.0
  0
ARC
  5
1A7
330
1F
100
AcDbEntity
  8
0
  6
HIDDEN
 62
     7
370
     0
100
AcDbCircle
 10
234.4624199532
 20
91.4969609856
 30
0.0
 40
0.5999999999999943
100
AcDbArc
 50
270.0
 51
285.0
  0
LINE
  5
1A8
330
1F
100
AcDbEntity
  8
0
  6
HIDDEN
 62
     7
370
     0
100
AcDbLine
 10
234.6177144663
 20
90.9174055159
 30
0.0
 11
235.6610267179
 21
91.1969606131
 31
0.0
  0
LINE
  5
1A9
330
1F
100
AcDbEntity
  8
0
  6
HIDDEN
 62
     7
370
     0
100
AcDbLine
 10
235.6610267179
 20
141.1969613582
 30
0.0
 11
234.6177144663
 21
141.4765164554
 31
0.0
  0
LINE
  5
1AA
330
1F
100
AcDbEntity
  8
0
  6
HIDDEN
 62
     7
370
     0
100
AcDbLine
 10
277.1110205667
 20
141.1969613582
 30
0.0
 11
235.6610267179
 21
141.1969613582
 31
0.0
  0
LINE
  5
1AB
330
1F
100
AcDbEntity
  8
0
  6
HIDDEN
 62
     7
370
     0
100
AcDbLine
 10
235.6610267179
 20
91.1969606131
 30
0.0
 11
277.1110205667
 21
91.1969606131
 31
0.0
  0
LINE
  5
1AC
330
1F
100
AcDbEntity
  8
0
  6
HIDDEN
 62
     7
370
     0
100
AcDbLine
 10
283.4110229032
 20
153.7219591736
 30
0.0
 11
278.6110310571
 21
153.7219591736
 31
0.0
  0
LINE
  5
1AD
330
1F
100
AcDbEntity
  8
0
  6
HIDDEN
 62
     7
370
     0
100
AcDbLine
 10
278.6110310571
 20
78.6719627976
 30
0.0
 11
283.4110229032
 21
78.6719627976
 31
0.0
  0
ARC
  5
1AE
330
1F
100
AcDbEntity
  8
0
  6
HIDDEN
 62
     7
370
     0
100
AcDbCircle
 10
14.661026694
 20
102.4969609856
 30
0.0
 40
1.200000000000006
100
AcDbArc
 50
90.0
 51
180.0
  0
ARC
  5
1AF
330
1F
100
AcDbEntity
  8
0
  6
HIDDEN
 62
     7
370
     0
100
AcDbCircle
 10
14.661026694
 20
129.8969609856
 30
0.0
 40
1.200000000000017
100
AcDbArc
 50
180.0
 51
270.0
  0
ARC
  5
1B0
330
1F
100
AcDbEntity
  8
0
  6
HIDDEN
 62
     7
370
     0
100
AcDbCircle
 10
144.961026694
 20
155.6969609856
 30
0.0
 40
2.0
100
AcDbArc
 50
270.0
 51
0.0
  0
ARC
  5
1B1
330
1F
100
AcDbEntity
  8
0
  6
HIDDEN
 62
     7
370
     0
100
AcDbCircle
 10
144.961026694
 20
78.8969609856
 30
0.0
 40
2.0
100
AcDbArc
 50
0.0
 51
90.0
  0
LINE
  5
1B2
330
1F
100
AcDbEntity
  8
0
  6
HIDDEN
 62
     7
370
     0
100
AcDbLine
 10
146.9610265212
 20
76.1969618797
 30
0.0
 11
146.9610265212
 21
78.8969591558
 31
0.0
  0
LINE
  5
1B3
330
1F
100
AcDbEntity
  8
0
  6
HIDDEN
 62
     7
370
     0
100
AcDbLine
 10
24.353396775
 20
103.4719607159
 30
0.0
 11
25.2300842421
 21
103.4719607159
 31
0.0
  0
LINE
  5
1B4
330
1F
100
AcDbEntity
  8
0
  6
HIDDEN
 62
     7
370
     0
100
AcDbLine
 10
25.2300842421
 20
128.9219612553
 30
0.0
 11
24.353396775
 21
128.9219612553
 31
0.0
  0
ARC
  5
1B5
330
1F
100
AcDbEntity
  8
0
  6
HIDDEN
 62
     7
370
     0
100
AcDbCircle
 10
24.3533991248
 20
103.8719609856
 30
0.0
 40
0.400000000000006
100
AcDbArc
 50
255.0
 51
270.0
  0
ARC
  5
1B6
330
1F
100
AcDbEntity
  8
0
  6
HIDDEN
 62
     7
370
     0
100
AcDbCircle
 10
24.3533991248
 20
128.5219609856
 30
0.0
 40
0.400000000000006
100
AcDbArc
 50
90.0
 51
105.0
  0
ARC
  5
1B7
330
1F
100
AcDbEntity
  8
0
  6
HIDDEN
 62
     7
370
     0
100
AcDbCircle
 10
25.2300865864
 20
103.8719609856
 30
0.0
 40
0.3999999999999936
100
AcDbArc
 50
270.0
 51
330.0
  0
ARC
  5
1B8
330
1F
100
AcDbEntity
  8
0
  6
HIDDEN
 62
     7
370
     0
100
AcDbCircle
 10
25.2300865864
 20
128.5219609856
 30
0.0
 40
0.4000000000000007
100
AcDbArc
 50
30.0
 51
90.0
  0
LINE
  5
1B9
330
1F
100
AcDbEntity
  8
0
  6
HIDDEN
 62
     7
370
     0
100
AcDbLine
 10
24.2498709576
 20
128.9083313495
 30
0.0
 11
23.4610258357
 21
128.6969611719
 31
0.0
  0
LINE
  5
1BA
330
1F
100
AcDbEntity
  8
0
  6
HIDDEN
 62
     7
370
     0
100
AcDbLine
 10
23.4610258357
 20
103.6969607994
 30
0.0
 11
24.2498709576
 21
103.4855906218
 31
0.0
  0
LINE
  5
1BB
330
1F
100
AcDbEntity
  8
0
  6
HIDDEN
 62
     7
370
     0
100
AcDbLine
 10
25.5764989869
 20
103.6719613075
 30
0.0
 11
26.7456291931
 21
105.6969611272
 31
0.0
  0
LINE
  5
1BC
330
1F
100
AcDbEntity
  8
0
  6
HIDDEN
 62
     7
370
     0
100
AcDbLine
 10
26.7456291931
 20
126.6969608441
 30
0.0
 11
25.5764989869
 21
128.7219606638
 31
0.0
  0
LINE
  5
1BD
330
1F
100
AcDbEntity
  8
0
  6
HIDDEN
 62
     7
370
     0
100
AcDbLine
 10
14.6610258834
 20
103.6969607994
 30
0.0
 11
23.4610258357
 21
103.6969607994
 31
0.0
  0
LINE
  5
1BE
330
1F
100
AcDbEntity
  8
0
  6
HIDDEN
 62
     7
370
     0
100
AcDbLine
 10
23.4610258357
 20
128.6969611719
 30
0.0
 11
14.6610258834
 21
128.6969611719
 31
0.0
  0
LINE
  5
1BF
330
1F
100
AcDbEntity
  8
0
  6
HIDDEN
 62
     7
370
     0
100
AcDbLine
 10
75.4610269086
 20
105.6969611272
 30
0.0
 11
79.2164063768
 21
111.9469607547
 31
0.0
  0
LINE
  5
1C0
330
1F
100
AcDbEntity
  8
0
  6
HIDDEN
 62
     7
370
     0
100
AcDbLine
 10
79.2164063768
 20
120.4469612166
 30
0.0
 11
75.4610269086
 21
126.6969608441
 31
0.0
  0
LINE
  5
1C1
330
1F
100
AcDbEntity
  8
0
  6
HIDDEN
 62
     7
370
     0
100
AcDbLine
 10
26.7456291931
 20
105.6969611272
 30
0.0
 11
75.4610269086
 21
105.6969611272
 31
0.0
  0
LINE
  5
1C2
330
1F
100
AcDbEntity
  8
0
  6
HIDDEN
 62
     7
370
     0
100
AcDbLine
 10
75.4610269086
 20
126.6969608441
 30
0.0
 11
26.7456291931
 21
126.6969608441
 31
0.0
  0
LINE
  5
1C3
330
1F
100
AcDbEntity
  8
0
  6
HIDDEN
 62
     7
370
     0
100
AcDbLine
 10
146.9610265212
 20
155.6969628036
 30
0.0
 11
146.9610265212
 21
156.1969600916
 31
0.0
  0
LINE
  5
1C4
330
1F
100
AcDbEntity
  8
0
  6
HIDDEN
 62
     7
370
     0
100
AcDbLine
 10
79.2164063768
 20
111.9469607547
 30
0.0
 11
233.1610291021
 21
111.9469607547
 31
0.0
  0
LINE
  5
1C5
330
1F
100
AcDbEntity
  8
0
  6
HIDDEN
 62
     7
370
     0
100
AcDbLine
 10
233.1610291021
 20
120.4469612166
 30
0.0
 11
79.2164063768
 21
120.4469612166
 31
0.0
  0
LINE
  5
1C6
330
1F
100
AcDbEntity
  8
0
  6
HIDDEN
 62
     7
370
     0
100
AcDbLine
 10
131.3610269444
 20
117.6476792497
 30
0.0
 11
131.3610269444
 21
129.6552520543
 31
0.0
  0
LINE
  5
1C7
330
1F
100
AcDbEntity
  8
0
  6
HIDDEN
 62
     7
370
     0
100
AcDbLine
 10
127.1610266285
 20
127.5535773784
 30
0.0
 11
127.1610266285
 21
117.6459622401
 31
0.0
  0
LINE
  5
1C8
330
1F
100
AcDbEntity
  8
0
  6
HIDDEN
 62
     7
370
     0
100
AcDbLine
 10
127.1610266285
 20
129.6552520543
 30
0.0
 11
127.1610266285
 21
129.307201907
 31
0.0
  0
LINE
  5
1C9
330
1F
100
AcDbEntity
  8
0
  6
HIDDEN
 62
     7
370
     0
100
AcDbLine
 10
119.9609992781
 20
127.9953074008
 30
0.0
 11
128.4083264636
 21
125.9722987488
 31
0.0
  0
LINE
  5
1CA
330
1F
100
AcDbEntity
  8
0
  6
HIDDEN
 62
     7
370
     0
100
AcDbLine
 10
128.4083264636
 20
130.2910613194
 30
0.0
 11
120.9391771571
 21
132.0798106789
 31
0.0
  0
LINE
  5
1CB
330
1F
100
AcDbEntity
  8
0
  6
HIDDEN
 62
     7
370
     0
100
AcDbLine
 10
118.2610266132
 20
127.4769770279
 30
0.0
 11
119.4830575714
 21
127.1843182221
 31
0.0
  0
LINE
  5
1CC
330
1F
100
AcDbEntity
  8
0
  6
HIDDEN
 62
     7
370
     0
100
AcDbLine
 10
120.8804544749
 20
133.0193233043
 30
0.0
 11
118.2610266132
 21
133.6466379761
 31
0.0
  0
LINE
  5
1CD
330
1F
100
AcDbEntity
  8
0
  6
HIDDEN
 62
     7
370
     0
100
AcDbLine
 10
131.7610262649
 20
129.7050461471
 30
0.0
 11
131.7610262649
 21
132.8612741381
 31
0.0
  0
LINE
  5
1CE
330
1F
100
AcDbEntity
  8
0
  6
HIDDEN
 62
     7
370
     0
100
AcDbLine
 10
126.7610263767
 20
131.7587055564
 30
0.0
 11
126.7610263767
 21
129.7050461471
 31
0.0
  0
LINE
  5
1CF
330
1F
100
AcDbEntity
  8
0
  6
HIDDEN
 62
     7
370
     0
100
AcDbLine
 10
120.9744617099
 20
99.9112509489
 30
0.0
 11
124.245401168
 21
100.694591023
 31
0.0
  0
LINE
  5
1D0
330
1F
100
AcDbEntity
  8
0
  6
HIDDEN
 62
     7
370
     0
100
AcDbLine
 10
123.0809033604
 20
105.5570951029
 30
0.0
 11
119.8099648336
 21
104.7737540975
 31
0.0
  0
LINE
  5
1D1
330
1F
100
AcDbEntity
  8
0
  6
HIDDEN
 62
     7
370
     0
100
AcDbLine
 10
124.9491057114
 20
101.4583109244
 30
0.0
 11
125.1776839362
 21
102.1057011857
 31
0.0
  0
LINE
  5
1D2
330
1F
100
AcDbEntity
  8
0
  6
HIDDEN
 62
     7
370
     0
100
AcDbLine
 10
124.5512670593
 20
104.7213830351
 30
0.0
 11
124.0542248579
 21
105.1949987486
 31
0.0
  0
LINE
  5
1D3
330
1F
100
AcDbEntity
  8
0
  6
HIDDEN
 62
     7
370
     0
100
AcDbLine
 10
124.0542248579
 20
127.1989232227
 30
0.0
 11
124.5512670593
 21
127.6725389361
 31
0.0
  0
LINE
  5
1D4
330
1F
100
AcDbEntity
  8
0
  6
HIDDEN
 62
     7
370
     0
100
AcDbLine
 10
125.1776839362
 20
130.2882207855
 30
0.0
 11
124.9491057114
 21
130.9356110468
 31
0.0
  0
LINE
  5
1D5
330
1F
100
AcDbEntity
  8
0
  6
HIDDEN
 62
     7
370
     0
100
AcDbLine
 10
119.8099648336
 20
127.6201678738
 30
0.0
 11
123.0809033604
 21
126.8368268683
 31
0.0
  0
LINE
  5
1D6
330
1F
100
AcDbEntity
  8
0
  6
HIDDEN
 62
     7
370
     0
100
AcDbLine
 10
124.245401168
 20
131.6993309483
 30
0.0
 11
120.9744617099
 21
132.4826710224
 31
0.0
  0
LINE
  5
1D7
330
1F
100
AcDbEntity
  8
0
  6
HIDDEN
 62
     7
370
     0
100
AcDbLine
 10
131.7610262649
 20
129.7050461471
 30
0.0
 11
131.7610262649
 21
130.3035820201
 31
0.0
  0
LINE
  5
1D8
330
1F
100
AcDbEntity
  8
0
  6
HIDDEN
 62
     7
370
     0
100
AcDbLine
 10
126.7610263767
 20
130.3035820201
 30
0.0
 11
126.7610263767
 21
129.7050461471
 31
0.0
  0
LINE
  5
1D9
330
1F
100
AcDbEntity
  8
0
  6
HIDDEN
 62
     7
370
     0
100
AcDbLine
 10
131.2610271143
 20
130.0657753199
 30
0.0
 11
131.2610271143
 21
131.4835509583
 31
0.0
  0
LINE
  5
1DA
330
1F
100
AcDbEntity
  8
0
  6
HIDDEN
 62
     7
370
     0
100
AcDbLine
 10
127.2610264586
 20
131.4835509583
 30
0.0
 11
127.2610264586
 21
130.0657753199
 31
0.0
  0
LINE
  5
1DB
330
1F
100
AcDbEntity
  8
0
  6
HIDDEN
 62
     7
370
     0
100
AcDbLine
 10
131.7610262649
 20
131.2475575432
 30
0.0
 11
131.7610262649
 21
131.4356688708
 31
0.0
  0
LINE
  5
1DC
330
1F
100
AcDbEntity
  8
0
  6
HIDDEN
 62
     7
370
     0
100
AcDbLine
 10
126.7610263767
 20
131.4356688708
 30
0.0
 11
126.7610263767
 21
131.2475575432
 31
0.0
  0
LINE
  5
1DD
330
1F
100
AcDbEntity
  8
0
  6
HIDDEN
 62
     7
370
     0
100
AcDbLine
 10
126.7610263767
 20
101.1463644281
 30
0.0
 11
126.7610263767
 21
100.9582531005
 31
0.0
  0
LINE
  5
1DE
330
1F
100
AcDbEntity
  8
0
  6
HIDDEN
 62
     7
370
     0
100
AcDbLine
 10
131.7610262649
 20
100.9582531005
 30
0.0
 11
131.7610262649
 21
101.1463644281
 31
0.0
  0
LINE
  5
1DF
330
1F
100
AcDbEntity
  8
0
  6
HIDDEN
 62
     7
370
     0
100
AcDbLine
 10
127.2610264586
 20
102.3281466514
 30
0.0
 11
127.2610264586
 21
100.910371013
 31
0.0
  0
LINE
  5
1E0
330
1F
100
AcDbEntity
  8
0
  6
HIDDEN
 62
     7
370
     0
100
AcDbLine
 10
131.2610271143
 20
100.910371013
 30
0.0
 11
131.2610271143
 21
102.3281466514
 31
0.0
  0
LINE
  5
1E1
330
1F
100
AcDbEntity
  8
0
  6
HIDDEN
 62
     7
370
     0
100
AcDbLine
 10
126.7610263767
 20
102.6888758242
 30
0.0
 11
126.7610263767
 21
102.0903399512
 31
0.0
  0
LINE
  5
1E2
330
1F
100
AcDbEntity
  8
0
  6
HIDDEN
 62
     7
370
     0
100
AcDbLine
 10
131.7610262649
 20
102.0903399512
 30
0.0
 11
131.7610262649
 21
102.6888758242
 31
0.0
  0
ARC
  5
1E3
330
1F
100
AcDbEntity
  8
0
  6
HIDDEN
 62
     7
370
     0
100
AcDbCircle
 10
129.261026694
 20
101.7312190237
 30
0.0
 40
1.999999999999989
100
AcDbArc
 50
71.1182787691
 51
192.215685934
  0
ARC
  5
1E4
330
1F
100
AcDbEntity
  8
0
  6
HIDDEN
 62
     7
370
     0
100
AcDbCircle
 10
129.261026694
 20
101.7312190237
 30
0.0
 40
2.000000000000021
100
AcDbArc
 50
340.3453161116
 51
71.1182787691
  0
CIRCLE
  5
1E5
330
1F
100
AcDbEntity
  8
0
  6
HIDDEN
 62
     7
370
     0
100
AcDbCircle
 10
129.261026694
 20
130.6627029476
 30
0.0
 40
1.999999999999989
  0
DIMENSION
  5
1E6
330
1F
100
AcDbEntity
  8
VERMASSUNG
100
AcDbDimension
  2
_D
 10
8.4631743954
 20
164.9219609856
 30
0.0
 11
8.4631743954
 21
116.1969609856
 31
0.0
 70
   160
  1
ISO 50 %%c<>
 71
     2
 42
-1.0
  3
SLDDIMSTYLE0
100
AcDbAlignedDimension
 13
133.511026694
 23
67.4719609856
 33
0.0
 14
133.511026694
 24
164.9219609856
 34
0.0
 50
90.0
100
AcDbRotatedDimension
  0
DIMENSION
  5
1F3
330
1F
100
AcDbEntity
  8
VERMASSUNG
100
AcDbDimension
  2
_D_1
 10
284.161026694
 20
187.2025003769
 30
0.0
 11
148.811026694
 21
187.2025003769
 31
0.0
 70
   160
  1
(<>)
 71
     2
 42
-1.0
  3
SLDDIMSTYLE0
100
AcDbAlignedDimension
 13
13.461026694
 23
134.575805513
 33
0.0
 14
284.161026694
 24
162.2969609856
 34
0.0
100
AcDbRotatedDimension
  0
DIMENSION
  5
1FF
330
1F
100
AcDbEntity
  8
VERMASSUNG
100
AcDbDimension
  2
_D_2
 10
284.161026694
 20
181.2025003769
 30
0.0
 11
199.611026694
 21
181.2025003769
 31
0.0
 70
   160
  1
<>
 71
     2
 42
-1.0
  3
SLDDIMSTYLE0
100
AcDbAlignedDimension
 13
115.061026694
 23
151.1219609856
 33
0.0
 14
284.161026694
 24
162.2969609856
 34
0.0
100
AcDbRotatedDimension
  0
DIMENSION
  5
209
330
1F
100
AcDbEntity
  8
VERMASSUNG
100
AcDbDimension
  2
_D_3
 10
284.161026694
 20
175.2025003769
 30
0.0
 11
209.136026694
 21
175.2025003769
 31
0.0
 70
   160
  1
<>
 71
     2
 42
-1.0
  3
SLDDIMSTYLE0
100
AcDbAlignedDimension
 13
134.111026694
 23
162.4919479389
 33
0.0
 14
284.161026694
 24
162.2969609856
 34
0.0
100
AcDbRotatedDimension
  0
DIMENSION
  5
213
330
1F
100
AcDbEntity
  8
VERMASSUNG
100
AcDbDimension
  2
_D_4
 10
291.6487320329
 20
69.1969609856
 30
0.0
 11
291.6487320329
 21
116.1969609856
 31
0.0
 70
   160
  1
MBM %%c<>
 71
     2
 42
-1.0
  3
SLDDIMSTYLE0
100
AcDbAlignedDimension
 13
283.261026694
 23
163.1969609856
 33
0.0
 14
283.261026694
 24
69.1969609856
 34
0.0
 50
90.0
100
AcDbRotatedDimension
  0
LINE
  5
21F
330
1F
100
AcDbEntity
  8
VERMASSUNG
  6
CENTERX2
 62
     7
370
     0
100
AcDbLine
 10
286.161026694
 20
116.1969609856
 30
0.0
 11
11.461026694
 21
116.1969609856
 31
0.0
  0
LINE
  5
220
330
1F
100
AcDbEntity
  8
VERMASSUNG
  6
CENTERX2
370
     0
100
AcDbLine
 10
116.3160250479
 20
131.0276058851
 30
0.0
 11
127.5783967388
 21
128.3304358707
 31
0.0
  0
LINE
  5
221
330
1F
100
AcDbEntity
  8
VERMASSUNG
  6
CENTERX2
370
     0
100
AcDbLine
 10
116.3160250479
 20
101.3663160861
 30
0.0
 11
127.5783967388
 21
104.0634861005
 31
0.0
  0
LINE
  5
222
330
1F
100
AcDbEntity
  8
0
  6
Continuous
 62
     7
370
    15
100
AcDbLine
 10
275.7422182597
 20
16.5398261135
 30
0.0
 11
275.8694768411
 21
16.6133148148
 31
0.0
  0
LINE
  5
223
330
1F
100
AcDbEntity
  8
0
  6
Continuous
 62
     7
370
    15
100
AcDbLine
 10
282.3879420096
 20
27.9048506265
 30
0.0
 11
282.3879414828
 21
28.051803837
 31
0.0
  0
LINE
  5
224
330
1F
100
AcDbEntity
  8
0
  6
Continuous
 62
     7
370
    15
100
AcDbLine
 10
280.4407560279
 20
32.3555452132
 30
0.0
 11
262.2566283663
 21
42.8530186672
 31
0.0
  0
LINE
  5
225
330
1F
100
AcDbEntity
  8
0
  6
Continuous
 62
     7
370
    15
100
AcDbLine
 10
252.8573922449
 20
26.5712999265
 30
0.0
 11
271.0415199066
 21
16.0738264725
 31
0.0
  0
SPLINE
  5
226
330
1F
100
AcDbEntity
  8
0
  6
Continuous
 62
     7
370
    15
100
AcDbSpline
210
0.0
220
0.0
230
1.0
 70
     8
 71
     3
 72
    13
 73
     9
 74
     0
 42
0.000000001
 43
0.00000001
 40
0.0
 40
0.0
 40
0.0
 40
0.0
 40
0.0077434362880941
 40
0.2514008748426301
 40
0.4948022739366089
 40
0.7377080429709805
 40
0.9798372204789003
 40
1.0
 40
1.0
 40
1.0
 40
1.0
 10
250.9717348668441
 20
29.57507843916873
 30
0.0
 10
250.9726072320641
 20
29.56888917003588
 30
0.0
 10
251.0009297198241
 20
29.367946382268
 30
0.0
 10
251.0986700877603
 20
29.00333853444194
 30
0.0
 10
251.2665004349178
 20
28.48724213758881
 30
0.0
 10
251.4875594223356
 20
28.02231618879939
 30
0.0
 10
251.6582639738639
 20
27.71639310166203
 30
0.0
 10
251.7668474857494
 20
27.5810502103935
 30
0.0
 10
251.7751944645686
 20
27.57064619760064
 30
0.0
  0
SPLINE
  5
227
330
1F
100
AcDbEntity
  8
0
  6
Continuous
 62
     7
370
    15
100
AcDbSpline
210
0.0
220
0.0
230
1.0
 70
     8
 71
     3
 72
    12
 73
     8
 74
     0
 42
0.000000001
 43
0.00000001
 40
0.0
 40
0.0
 40
0.0
 40
0.0
 40
0.1407550491968473
 40
0.370865868295352
 40
0.6019770586453497
 40
0.8339064361517494
 40
1.0
 40
1.0
 40
1.0
 40
1.0
 10
260.7851691419571
 20
43.29135111677542
 30
0.0
 10
260.686699010173
 20
43.29972192724715
 30
0.0
 10
260.4272467835307
 20
43.32177760419552
 30
0.0
 10
259.9852834572777
 20
43.29258791373905
 30
0.0
 10
259.4648035403222
 20
43.20844862261617
 30
0.0
 10
258.9820908526584
 20
43.08457299476327
 30
0.0
 10
258.6714732844488
 20
42.96549437169742
 30
0.0
 10
258.5418536732722
 20
42.91580328400323
 30
0.0
  0
LINE
  5
228
330
1F
100
AcDbEntity
  8
0
  6
Continuous
 62
     7
370
    15
100
AcDbLine
 10
250.7898891279
 20
29.3813813837
 30
0.0
 11
251.0503358417
 21
29.2310286962
 31
0.0
  0
LINE
  5
229
330
1F
100
AcDbEntity
  8
0
  6
Continuous
 62
     7
370
    15
100
AcDbLine
 10
259.0474516803
 20
43.0890996209
 30
0.0
 11
258.7892387494
 21
43.238162773
 31
0.0
  0
SPLINE
  5
22A
330
1F
100
AcDbEntity
  8
0
  6
Continuous
 62
     7
370
    15
100
AcDbSpline
210
0.0
220
0.0
230
1.0
 70
     8
 71
     3
 72
    10
 73
     6
 74
     0
 42
0.000000001
 43
0.00000001
 40
0.0
 40
0.0
 40
0.0
 40
0.0
 40
0.134195124446517
 40
0.6045542330645128
 40
1.0
 40
1.0
 40
1.0
 40
1.0
 10
246.2710897072162
 20
37.60732726662638
 30
0.0
 10
246.2466769633166
 20
37.53916280109994
 30
0.0
 10
246.1366966065334
 20
37.23207924386524
 30
0.0
 10
245.9897343309217
 20
36.72402046986456
 30
0.0
 10
245.8890402584177
 20
36.28976842387784
 30
0.0
 10
245.8430494747532
 20
36.09142912339891
 30
0.0
  0
SPLINE
  5
22B
330
1F
100
AcDbEntity
  8
0
  6
Continuous
 62
     7
370
    15
100
AcDbSpline
210
0.0
220
0.0
230
1.0
 70
     8
 71
     3
 72
    19
 73
    15
 74
     0
 42
0.000000001
 43
0.00000001
 40
0.0
 40
0.0
 40
0.0
 40
0.0
 40
0.0322518670420541
 40
0.1267981326814274
 40
0.2214319228444567
 40
0.3161097108905252
 40
0.4107995680169471
 40
0.5054797862936263
 40
0.6001421720025398
 40
0.6947836094698621
 40
0.7894041357995022
 40
0.884005857290241
 40
0.9785918871585876
 40
1.0
 40
1.0
 40
1.0
 40
1.0
 10
254.2433812166153
 20
46.36028931198933
 30
0.0
 10
254.1822308719651
 20
46.34582364593643
 30
0.0
 10
253.9418184485735
 20
46.2889519168948
 30
0.0
 10
253.5115683434929
 20
46.13146734406602
 30
0.0
 10
252.95677322677
 20
45.88900607084304
 30
0.0
 10
252.3983461081808
 20
45.58888801778015
 30
0.0
 10
251.8409142491699
 20
45.23813726252445
 30
0.0
 10
251.2878653890339
 20
44.83777858113921
 30
0.0
 10
250.7427792208709
 20
44.3908981596331
 30
0.0
 10
250.209318637886
 20
43.90013406407462
 30
0.0
 10
249.6901672835019
 20
43.36951988936859
 30
0.0
 10
249.1913471535712
 20
42.79954276205933
 30
0.0
 10
248.8310941771255
 20
42.35826127595854
 30
0.0
 10
248.6462522029885
 20
42.09964907005338
 30
0.0
 10
248.6121373955706
 20
42.05191907992761
 30
0.0
  0
LINE
  5
22C
330
1F
100
AcDbEntity
  8
0
  6
Continuous
 62
     7
370
    15
100
AcDbLine
 10
251.9470029315
 20
45.2961965642
 30
0.0
 11
239.6424897119
 21
49.7302553666
 31
0.0
  0
LINE
  5
22D
330
1F
100
AcDbEntity
  8
0
  6
Continuous
 62
     7
370
    15
100
AcDbLine
 10
235.5929459597
 20
42.7154800065
 30
0.0
 11
247.3799504071
 21
32.7626310311
 31
0.0
  0
LINE
  5
22E
330
1F
100
AcDbEntity
  8
0
  6
Continuous
 62
     7
370
    15
100
AcDbLine
 10
249.1089767935
 20
28.3368533516
 30
0.0
 11
249.691185588
 21
28.0007513687
 31
0.0
  0
LINE
  5
22F
330
1F
100
AcDbEntity
  8
0
  6
Continuous
 62
     7
370
    15
100
AcDbLine
 10
247.6193628142
 20
29.1967891977
 30
0.0
 11
248.1945006846
 21
28.8647691723
 31
0.0
  0
LINE
  5
230
330
1F
100
AcDbEntity
  8
0
  6
Continuous
 62
     7
370
    15
100
AcDbLine
 10
245.8466098298
 20
31.6230215001
 30
0.0
 11
245.8643543115
 21
31.5646751699
 31
0.0
  0
SPLINE
  5
231
330
1F
100
AcDbEntity
  8
0
  6
Continuous
 62
     7
370
    15
100
AcDbSpline
210
0.0
220
0.0
230
1.0
 70
     8
 71
     3
 72
    26
 73
    22
 74
     0
 42
0.000000001
 43
0.00000001
 40
0.0
 40
0.0
 40
0.0
 40
0.0
 40
0.0206098635346963
 40
0.0728944510643923
 40
0.1258585040611578
 40
0.1800156137396773
 40
0.2354401611125397
 40
0.2918299514627566
 40
0.3487416667418533
 40
0.4057939356565405
 40
0.4627674603426434
 40
0.5196158025351038
 40
0.5763503990457023
 40
0.6330092550266897
 40
0.6896415235028057
 40
0.7462991724022513
 40
0.8030217144057956
 40
0.8598660589598679
 40
0.9168873020481363
 40
0.9741306256673679
 40
1.0
 40
1.0
 40
1.0
 40
1.0
 10
239.6630241833027
 20
49.71473553535245
 30
0.0
 10
239.6242753318254
 20
49.73137626448023
 30
0.0
 10
239.4872256006101
 20
49.79023239484898
 30
0.0
 10
239.2263834401931
 20
49.83137022427987
 30
0.0
 10
238.8881661684023
 20
49.8387391955341
 30
0.0
 10
238.533402904067
 20
49.78474951008453
 30
0.0
 10
238.1676948401396
 20
49.67381808148885
 30
0.0
 10
237.7957349747972
 20
49.50532691099145
 30
0.0
 10
237.4241904189406
 20
49.28216020103295
 30
0.0
 10
237.0597168603325
 20
49.00845413695122
 30
0.0
 10
236.7083901440916
 20
48.68945760163168
 30
0.0
 10
236.3754937194886
 20
48.33077475178631
 30
0.0
 10
236.0657127523
 20
47.93819773693816
 30
0.0
 10
235.7833849702388
 20
47.51776639155965
 30
0.0
 10
235.5325342913242
 20
47.07576169053262
 30
0.0
 10
235.316844054326
 20
46.61868471291525
 30
0.0
 10
235.1396779808617
 20
46.15318087037468
 30
0.0
 10
235.0037524705578
 20
45.68576588964095
 30
0.0
 10
234.9123358938519
 20
45.22331949458793
 30
0.0
 10
234.8735680723067
 20
44.85409609224789
 30
0.0
 10
234.8703419370169
 20
44.64325648515548
 30
0.0
 10
234.8693377811717
 20
44.5776312695816
 30
0.0
  0
SPLINE
  5
232
330
1F
100
AcDbEntity
  8
0
  6
Continuous
 62
     7
370
    15
100
AcDbSpline
210
0.0
220
0.0
230
1.0
 70
     8
 71
     3
 72
    13
 73
     9
 74
     0
 42
0.000000001
 43
0.00000001
 40
0.0
 40
0.0
 40
0.0
 40
0.0
 40
0.1013708038922181
 40
0.2925452651573772
 40
0.4837075735181394
 40
0.673017314708729
 40
0.8585816591153959
 40
1.0
 40
1.0
 40
1.0
 40
1.0
 10
234.8693377811717
 20
44.5776312695816
 30
0.0
 10
234.8707201442752
 20
44.50132479852822
 30
0.0
 10
234.8747094958944
 20
44.28111250908768
 30
0.0
 10
234.9194499798401
 20
43.93555550244723
 30
0.0
 10
235.0200984406831
 20
43.55602409332369
 30
0.0
 10
235.172849393318
 20
43.21787954729475
 30
0.0
 10
235.3535906900801
 20
42.94185637767574
 30
0.0
 10
235.502663189109
 20
42.80462264445169
 30
0.0
 10
235.5671362833507
 20
42.74526975593816
 30
0.0
  0
LINE
  5
233
330
1F
100
AcDbEntity
  8
0
  6
Continuous
 62
     7
370
    15
100
AcDbLine
 10
273.8109653512
 20
34.4739424474
 30
0.0
 11
273.669520791
 21
34.5556228897
 31
0.0
  0
LINE
  5
234
330
1F
100
AcDbEntity
  8
0
  6
Continuous
 62
     7
370
    15
100
AcDbLine
 10
271.1235247183
 20
34.5556217976
 30
0.0
 11
270.9820800943
 21
34.4739416225
 31
0.0
  0
LINE
  5
235
330
1F
100
AcDbEntity
  8
0
  6
Continuous
 62
     7
370
    15
100
AcDbLine
 10
274.3965235031
 20
33.4943582356
 30
0.0
 11
274.3965235031
 21
33.6576661206
 31
0.0
  0
LINE
  5
236
330
1F
100
AcDbEntity
  8
0
  6
Continuous
 62
     7
370
    15
100
AcDbLine
 10
270.3965228445
 20
33.6576665768
 30
0.0
 11
270.3965228445
 21
33.4943586918
 31
0.0
  0
LWPOLYLINE
  5
237
330
1F
100
AcDbEntity
  8
0
  6
Continuous
 62
     7
370
    15
100
AcDbPolyline
 90
       73
 70
   128
 43
0.0
 10
275.8684172351
 20
31.6697156621
 10
275.3002032357
 20
31.3130439361
 10
274.7363136348
 20
30.9017907209
 10
274.1810401009
 20
30.4390857173
 10
273.6386084484
 20
29.9284495098
 10
273.1131470927
 20
29.3737692735
 10
272.6086548478
 20
28.7792661907
 10
272.128971555
 20
28.1494645033
 10
271.6777476582
 20
27.4891575227
 10
271.258417072
 20
26.8033706737
 10
270.8741716299
 20
26.0973230178
 10
270.5279352693
 20
25.37638832
 10
270.2223432222
 20
24.6460532247
 10
269.9597214676
 20
23.911875889
 10
269.742068293
 20
23.1794440068
 10
269.5710400696
 20
22.4543314636
 10
269.447939135
 20
21.7420574247
 10
269.373701676
 20
21.0480421536
 10
269.3488924605
 20
20.3775675445
 10
269.373701676
 20
19.7357370459
 10
269.447939135
 20
19.1274345205
 10
269.5710400696
 20
18.5572897954
 10
269.742068293
 20
18.0296422358
 10
269.9597214676
 20
17.54850736
 10
270.2223432222
 20
17.117546648
 10
270.5279352693
 20
16.7400406202
 10
270.8741716299
 20
16.4188619151
 10
271.258417072
 20
16.1564546037
 10
271.6777476582
 20
15.9548165441
 10
272.128971555
 20
15.8154815854
 10
272.6086548478
 20
15.7395104393
 10
273.1131470927
 20
15.7274817042
 10
273.6386084484
 20
15.7794862355
 10
274.1810401009
 20
15.8951282833
 10
274.7363136348
 20
16.0735284556
 10
275.3002032357
 20
16.3133283156
 10
275.8684172351
 20
16.6127025089
 10
276.4366312344
 20
16.9693742349
 10
277.0005208353
 20
17.3806274501
 10
277.5557943692
 20
17.8433324537
 10
278.0982260217
 20
18.3539686612
 10
278.6236873774
 20
18.9086488975
 10
279.1281796223
 20
19.5031519803
 10
279.6078629151
 20
20.1329536677
 10
280.0590868119
 20
20.7932606483
 10
280.4784173981
 20
21.4790474973
 10
280.8626628403
 20
22.1850951532
 10
281.2088992008
 20
22.906029851
 10
281.5144912479
 20
23.6363649463
 10
281.7771130025
 20
24.370542282
 10
281.9947661771
 20
25.1029741642
 10
282.1657944005
 20
25.8280867074
 10
282.2888953351
 20
26.5403607463
 10
282.3631327941
 20
27.2343760174
 10
282.3879420096
 20
27.9048506265
 10
282.3631327941
 20
28.5466811251
 10
282.2888953351
 20
29.1549836505
 10
282.1657944005
 20
29.7251283756
 10
281.9947661771
 20
30.2527759352
 10
281.7771130025
 20
30.733910811
 10
281.5144912479
 20
31.164871523
 10
281.2088992008
 20
31.5423775508
 10
280.8626628403
 20
31.8635562559
 10
280.4784173981
 20
32.1259635673
 10
280.0590868119
 20
32.3276016269
 10
279.6078629151
 20
32.4669365856
 10
279.1281796223
 20
32.5429077317
 10
278.6236873774
 20
32.5549364668
 10
278.0982260217
 20
32.5029319355
 10
277.5557943692
 20
32.3872898877
 10
277.0005208353
 20
32.2088897154
 10
276.4366312344
 20
31.9690898554
 10
275.8684172351
 20
31.6697156621
  0
LWPOLYLINE
  5
238
330
1F
100
AcDbEntity
  8
0
  6
Continuous
 62
     7
370
    15
100
AcDbPolyline
 90
       38
 70
   128
 43
0.0
 10
275.7411379672
 20
31.8901692117
 10
275.1618308515
 20
31.526535082
 10
274.5869325596
 20
31.1072530581
 10
274.0208185929
 20
30.6355146204
 10
273.4677972812
 20
30.1149092818
 10
272.9320773826
 20
29.5494004081
 10
272.4177362095
 20
28.9432903918
 10
271.9286878869
 20
28.3011932024
 10
271.468654772
 20
27.6279953772
 10
271.0411379507
 20
26.9288201304
 10
270.6493908964
 20
26.2089887239
 10
270.296395235
 20
25.4739794048
 10
269.9848373015
 20
24.7293858858
 10
269.7170878559
 20
23.9808752184
 10
269.4951857522
 20
23.2341442949
 10
269.3208184447
 20
22.494875592
 10
269.195314086
 20
21.7686959542
 10
269.1196273023
 20
21.0611315757
 10
269.0943344517
 20
20.3775678486
 10
269.1196273023
 20
19.7232066253
 10
269.195314086
 20
19.1030283473
 10
269.3208184447
 20
18.5217529576
 10
269.4951857522
 20
17.9838044627
 10
269.7170878559
 20
17.4932762547
 10
269.9848373015
 20
17.0539025169
 10
270.296395235
 20
16.6690261313
 10
270.6493908964
 20
16.3415769276
 10
271.0411379507
 20
16.0740470426
 10
271.468654772
 20
15.868472211
 10
271.9286878869
 20
15.7264173146
 10
272.4177362095
 20
15.6489632996
 10
272.9320773826
 20
15.6366989615
 10
273.4677972812
 20
15.689719117
 10
274.0208185929
 20
15.8076185939
 10
274.5869325596
 20
15.9895014295
 10
275.1618308515
 20
16.2339828448
 10
275.7411379672
 20
16.5392024739
 10
275.7422182597
 20
16.5398261135
  0
LWPOLYLINE
  5
239
330
1F
100
AcDbEntity
  8
0
  6
Continuous
 62
     7
370
    15
100
AcDbPolyline
 90
       19
 70
   128
 43
0.0
 10
282.3879414828
 20
28.051803837
 10
282.3626486322
 20
28.7061650603
 10
282.2869618484
 20
29.3263433384
 10
282.1614574898
 20
29.907618728
 10
281.9870901823
 20
30.4455672229
 10
281.7651880786
 20
30.9360954309
 10
281.497438633
 20
31.3754691687
 10
281.1858806995
 20
31.7603455543
 10
280.8328850381
 20
32.0877947581
 10
280.4411379837
 20
32.3553246431
 10
280.0136211624
 20
32.5608994746
 10
279.5535880475
 20
32.702954371
 10
279.064539725
 20
32.780408386
 10
278.5501985519
 20
32.7926727241
 10
278.0144786532
 20
32.7396525686
 10
277.4614573416
 20
32.6217530917
 10
276.8953433749
 20
32.4398702561
 10
276.3204450829
 20
32.1953888408
 10
275.7411379672
 20
31.8901692117
  0
SPLINE
  5
23A
330
1F
100
AcDbEntity
  8
0
  6
Continuous
 62
     7
370
    15
100
AcDbSpline
210
0.0
220
0.0
230
1.0
 70
     8
 71
     3
 72
    54
 73
    50
 74
     0
 42
0.000000001
 43
0.00000001
 40
0.0
 40
0.0
 40
0.0
 40
0.0
 40
0.0312500000000021
 40
0.0312500000000021
 40
0.0625000000000041
 40
0.0625000000000041
 40
0.0937500000000062
 40
0.0937500000000062
 40
0.1250000000000083
 40
0.1250000000000083
 40
0.1875000000000114
 40
0.1875000000000114
 40
0.2500000000000145
 40
0.2500000000000145
 40
0.3125000000000176
 40
0.3125000000000176
 40
0.3750000000000207
 40
0.3750000000000207
 40
0.4062500000000221
 40
0.4062500000000221
 40
0.4375000000000237
 40
0.4375000000000237
 40
0.5000000000000244
 40
0.5000000000000244
 40
0.5312500000000236
 40
0.5312500000000236
 40
0.5625000000000228
 40
0.5625000000000228
 40
0.6250000000000189
 40
0.6250000000000189
 40
0.656250000000017
 40
0.656250000000017
 40
0.687500000000015
 40
0.687500000000015
 40
0.7187500000000131
 40
0.7187500000000131
 40
0.7500000000000112
 40
0.7500000000000112
 40
0.8125000000000073
 40
0.8125000000000073
 40
0.8437500000000061
 40
0.8437500000000061
 40
0.8750000000000049
 40
0.8750000000000049
 40
0.9375000000000024
 40
0.9375000000000024
 40
0.9687500000000012
 40
0.9687500000000012
 40
1.0
 40
1.0
 40
1.0
 40
1.0
 10
274.0935790085996
 20
32.84128501629872
 30
0.0
 10
274.1467763604124
 20
32.87199519381568
 30
0.0
 10
274.1969178165245
 20
32.90385689423462
 30
0.0
 10
274.2893352761429
 20
32.96861430775936
 30
0.0
 10
274.3319282013455
 20
33.00168973194777
 30
0.0
 10
274.4100316613204
 20
33.06926992029268
 30
0.0
 10
274.4455421069451
 20
33.10377453592584
 30
0.0
 10
274.5094026548049
 20
33.17433499295065
 30
0.0
 10
274.5372579168219
 20
33.20985887226202
 30
0.0
 10
274.6089123861743
 20
33.31678296852965
 30
0.0
 10
274.6411821926787
 20
33.38895576862261
 30
0.0
 10
274.6755748632094
 20
33.53525142084738
 30
0.0
 10
274.6773475729266
 20
33.60749637170352
 30
0.0
 10
274.652831972372
 20
33.75188155596609
 30
0.0
 10
274.6260418764381
 20
33.82453494099562
 30
0.0
 10
274.5470671171183
 20
33.9662618065002
 30
0.0
 10
274.4949661272443
 20
34.03586091336985
 30
0.0
 10
274.39829928213
 20
34.13931754677687
 30
0.0
 10
274.3628182133116
 20
34.17375446401353
 30
0.0
 10
274.2868942755888
 20
34.24121488253704
 30
0.0
 10
274.2463504483797
 20
34.27436906854802
 30
0.0
 10
274.1171809116304
 20
34.37227134878003
 30
0.0
 10
274.0210801886651
 20
34.43548748319187
 30
0.0
 10
273.8616009918051
 20
34.52736494407399
 30
0.0
 10
273.8059834327854
 20
34.55740530609736
 30
0.0
 10
273.6917175654049
 20
34.61533610883887
 30
0.0
 10
273.6328273406431
 20
34.64336928347018
 30
0.0
 10
273.4509402560357
 20
34.72463010333469
 30
0.0
 10
273.3227768172472
 20
34.77506335422562
 30
0.0
 10
273.1195493311911
 20
34.84419514625444
 30
0.0
 10
273.0504617707583
 20
34.86595898653544
 30
0.0
 10
272.9110586118265
 20
34.90635349010168
 30
0.0
 10
272.8405217102342
 20
34.9250605921676
 30
0.0
 10
272.6977455469781
 20
34.95931683338846
 30
0.0
 10
272.6255065299802
 20
34.9748666537437
 30
0.0
 10
272.4792415979574
 20
35.00251769382093
 30
0.0
 10
272.4048406575621
 20
35.01466676015092
 30
0.0
 10
272.1817156174465
 20
35.04491231423693
 30
0.0
 10
272.0336384574669
 20
35.05689149429313
 30
0.0
 10
271.8124351503176
 20
35.06079317939815
 30
0.0
 10
271.7384659393678
 20
35.05970904725368
 30
0.0
 10
271.5927616958442
 20
35.05238074131447
 30
0.0
 10
271.5213812164724
 20
35.04618367961469
 30
0.0
 10
271.3116296747438
 20
35.0197625728397
 30
0.0
 10
271.1775939859791
 20
34.99179560521851
 30
0.0
 10
270.9860375586026
 20
34.93203273443817
 30
0.0
 10
270.9242533462131
 20
34.90921500691256
 30
0.0
 10
270.8074254307987
 20
34.85874716073158
 30
0.0
 10
270.7519717489239
 20
34.83097514342109
 30
0.0
 10
270.6994664589042
 20
34.80066448467322
 30
0.0
  0
SPLINE
  5
23B
330
1F
100
AcDbEntity
  8
0
  6
Continuous
 62
     7
370
    15
100
AcDbSpline
210
0.0
220
0.0
230
1.0
 70
     8
 71
     3
 72
    52
 73
    48
 74
     0
 42
0.000000001
 43
0.00000001
 40
0.0
 40
0.0
 40
0.0
 40
0.0
 40
0.0312500000000003
 40
0.0312500000000003
 40
0.0625000000000007
 40
0.0625000000000007
 40
0.1250000000000014
 40
0.1250000000000014
 40
0.1875000000000021
 40
0.1875000000000021
 40
0.2500000000000028
 40
0.2500000000000028
 40
0.3125000000000034
 40
0.3125000000000034
 40
0.3437500000000048
 40
0.3437500000000048
 40
0.3750000000000062
 40
0.3750000000000062
 40
0.4062500000000075
 40
0.4062500000000075
 40
0.4375000000000088
 40
0.4375000000000088
 40
0.5000000000000114
 40
0.5000000000000114
 40
0.5312500000000115
 40
0.5312500000000115
 40
0.5625000000000117
 40
0.5625000000000117
 40
0.6250000000000097
 40
0.6250000000000097
 40
0.6562500000000087
 40
0.6562500000000087
 40
0.6875000000000077
 40
0.6875000000000077
 40
0.7500000000000058
 40
0.7500000000000058
 40
0.7812500000000058
 40
0.7812500000000058
 40
0.8125000000000057
 40
0.8125000000000057
 40
0.875000000000004
 40
0.875000000000004
 40
0.9062500000000031
 40
0.9062500000000031
 40
0.9375000000000022
 40
0.9375000000000022
 40
1.0
 40
1.0
 40
1.0
 40
1.0
 10
270.6994664589042
 20
34.80066448467322
 30
0.0
 10
270.6468969128371
 20
34.77031673169872
 30
0.0
 10
270.597282590959
 20
34.73742439195764
 30
0.0
 10
270.5041309356305
 20
34.66642941441748
 30
0.0
 10
270.4608571394201
 20
34.62845487975625
 30
0.0
 10
270.3434571504959
 20
34.50993860039028
 30
0.0
 10
270.2804041394903
 20
34.42394579133371
 30
0.0
 10
270.1838296554141
 20
34.23929817997664
 30
0.0
 10
270.1518250344927
 20
34.14345163202414
 30
0.0
 10
270.1176499286985
 20
33.94776253892088
 30
0.0
 10
270.1157136982825
 20
33.84697512839644
 30
0.0
 10
270.1403256355982
 20
33.64982484877142
 30
0.0
 10
270.1665548445961
 20
33.55266537780612
 30
0.0
 10
270.2261371036139
 20
33.40995369025167
 30
0.0
 10
270.2493592096445
 20
33.36306416589788
 30
0.0
 10
270.301614703767
 20
33.27209893041719
 30
0.0
 10
270.3307293598505
 20
33.22781907158527
 30
0.0
 10
270.394774850058
 20
33.14172542344323
 30
0.0
 10
270.4297061367838
 20
33.09991163493272
 30
0.0
 10
270.5053883832657
 20
33.01885308223797
 30
0.0
 10
270.5463055014886
 20
32.9794676181037
 30
0.0
 10
270.6768453030983
 20
32.86638692129989
 30
0.0
 10
270.7731698020679
 20
32.79849417935032
 30
0.0
 10
270.9310707873943
 20
32.70765848750258
 30
0.0
 10
270.9859548308452
 20
32.67922157965495
 30
0.0
 10
271.1003087481895
 20
32.62608344547209
 30
0.0
 10
271.1600890028012
 20
32.60127769332717
 30
0.0
 10
271.3437257745707
 20
32.53364730841922
 30
0.0
 10
271.471886766923
 20
32.49739824581762
 30
0.0
 10
271.6727041920603
 20
32.45559187659364
 30
0.0
 10
271.7410820260727
 20
32.44376150967232
 30
0.0
 10
271.8808324148481
 20
32.42432817215906
 30
0.0
 10
271.9525444753443
 20
32.41671442841983
 30
0.0
 10
272.1682454862558
 20
32.40061871360523
 30
0.0
 10
272.3136681899643
 20
32.39861511976127
 30
0.0
 10
272.5344420647965
 20
32.40799539761461
 30
0.0
 10
272.6084764347065
 20
32.41320038134902
 30
0.0
 10
272.7575113778268
 20
32.42783347184239
 30
0.0
 10
272.8326713446754
 20
32.4373141959047
 30
0.0
 10
273.0540958052393
 20
32.47136885278066
 30
0.0
 10
273.1981578382185
 20
32.50161972542618
 30
0.0
 10
273.4087195765969
 20
32.55797496073188
 30
0.0
 10
273.4779778789446
 20
32.57860575733954
 30
0.0
 10
273.6144995306668
 20
32.62372362934961
 30
0.0
 10
273.6802904728242
 20
32.64772624023577
 30
0.0
 10
273.8702093120471
 20
32.72376195719082
 30
0.0
 10
273.987054098987
 20
32.77978949494825
 30
0.0
 10
274.0935790085996
 20
32.84128501629872
 30
0.0
  0
ARC
  5
23C
330
1F
100
AcDbEntity
  8
0
  6
Continuous
 62
     7
370
    15
100
AcDbCircle
 10
260.5962002551
 20
39.9176145976
 30
0.0
 40
3.372479586932486
100
AcDbArc
 50
60.5050807617
 51
85.8327302438
  0
ARC
  5
23D
330
1F
100
AcDbEntity
  8
0
  6
Continuous
 62
     7
370
    15
100
AcDbCircle
 10
254.5137879026
 20
29.4160462053
 30
0.0
 40
3.291842639852606
100
AcDbArc
 50
214.9127700829
 51
239.7892624856
  0
LWPOLYLINE
  5
23E
330
1F
100
AcDbEntity
  8
0
  6
Continuous
 62
     7
370
    15
100
AcDbPolyline
 90
       68
 70
   128
 43
0.0
 10
275.8684172351
 20
30.6735354346
 10
275.3387009904
 20
30.3390338443
 10
274.8136398651
 20
29.9500650314
 10
274.2978482476
 20
29.5100484216
 10
273.7958587353
 20
29.0228496119
 10
273.3120831152
 20
28.4927511533
 10
272.850772424
 20
27.9244112426
 10
272.4159810566
 20
27.3228241435
 10
272.0115298884
 20
26.6932769961
 10
271.6409729524
 20
26.0413019865
 10
271.3075671463
 20
25.3726293531
 10
271.0142419394
 20
24.6931343097
 10
270.7635756652
 20
24.0087892896
 10
270.5577710234
 20
23.3256082832
 10
270.3986366406
 20
22.649594671
 10
270.2875702118
 20
21.9866889819
 10
270.2255490168
 20
21.3427176007
 10
270.2131178039
 20
20.7233396702
 10
270.250385101
 20
20.133997794
 10
270.3370237433
 20
19.5798713825
 10
270.4722729802
 20
19.0658304924
 10
270.6549432168
 20
18.5963919287
 10
270.883429712
 20
18.1756815051
 10
271.1557246951
 20
17.8073963244
 10
271.4694350156
 20
17.4947729892
 10
271.8218037425
 20
17.2405588541
 10
272.2097341364
 20
17.0469878416
 10
272.6298170438
 20
16.9157609705
 10
273.0783611912
 20
16.848031297
 10
273.5514242678
 20
16.8443947855
 10
274.0448491454
 20
16.9048832332
 10
274.5542997036
 20
17.0289639625
 10
275.0752986959
 20
17.2155476882
 10
275.6032676738
 20
17.4629945309
 10
276.1335667963
 20
17.769129698
 10
276.6615357742
 20
18.131262862
 10
277.1825347665
 20
18.5462117688
 10
277.6919853247
 20
19.0103301338
 10
278.1854102023
 20
19.5195379235
 10
278.6584732789
 20
20.0693614372
 10
279.1070174263
 20
20.65496916
 10
279.5271003338
 20
21.2712134321
 10
279.9150307276
 20
21.9126793437
 10
280.2673994546
 20
22.5737297512
 10
280.581109775
 20
23.2485553127
 10
280.8534047581
 20
23.9312255891
 10
281.0818912533
 20
24.6157409047
 10
281.2645614899
 20
25.2960860344
 10
281.3998107268
 20
25.9662823695
 10
281.4864493691
 20
26.6204396282
 10
281.5237166662
 20
27.2528094098
 10
281.5112854533
 20
27.8578345673
 10
281.4492642583
 20
28.430197801
 10
281.3381978295
 20
28.9648689209
 10
281.1790634467
 20
29.4571498856
 10
280.9732588049
 20
29.9027139105
 10
280.7225925308
 20
30.2976458107
 10
280.4292673239
 20
30.638474779
 10
280.0958615177
 20
30.9222052623
 10
279.7253045817
 20
31.1463443403
 10
279.3208534135
 20
31.3089221087
 10
278.8860620461
 20
31.4085097803
 10
278.4247513549
 20
31.444231704
 10
277.9409757348
 20
31.4157747209
 10
277.4389862225
 20
31.3233887764
 10
276.923194605
 20
31.1678850607
 10
276.3981334798
 20
30.9506312022
 10
275.8684172351
 20
30.6735354346
  0
LWPOLYLINE
  5
23F
330
1F
100
AcDbEntity
  8
0
  6
Continuous
 62
     7
370
    15
100
AcDbPolyline
 90
       17
 70
   128
 43
0.0
 10
279.6279603764
 20
30.8365786305
 10
279.232045789
 20
31.0278218549
 10
278.8021258071
 20
31.1521714142
 10
278.3424137985
 20
31.2084088037
 10
277.8574155247
 20
31.1959828732
 10
277.3518842282
 20
31.1150155354
 10
276.8307742712
 20
30.9663002485
 10
276.2991930943
 20
30.7512943597
 10
275.7623504761
 20
30.472105022
 10
275.2255078579
 20
30.131469066
 10
274.693926681
 20
29.7327243921
 10
274.1728167239
 20
29.2797789293
 10
273.6672854275
 20
28.7770722561
 10
273.1822871537
 20
28.2295310989
 10
272.7225751451
 20
27.6425215221
 10
272.2926551632
 20
27.0217969173
 10
271.8967405758
 20
26.3734404401
  0
SPLINE
  5
240
330
1F
100
AcDbEntity
  8
0
  6
Continuous
 62
     7
370
    15
100
AcDbSpline
210
0.0
220
0.0
230
1.0
 70
     8
 71
     3
 72
    22
 73
    18
 74
     0
 42
0.000000001
 43
0.00000001
 40
0.0
 40
0.0
 40
0.0
 40
0.0
 40
0.125
 40
0.125
 40
0.25
 40
0.25
 40
0.375
 40
0.375
 40
0.5
 40
0.5
 40
0.625
 40
0.625
 40
0.75
 40
0.75
 40
0.875
 40
0.875
 40
1.0
 40
1.0
 40
1.0
 40
1.0
 10
271.8967410154568
 20
26.37344015993649
 30
0.0
 10
271.8672550615091
 20
26.33470193304749
 30
0.0
 10
271.8374868842891
 20
26.29345439851375
 30
0.0
 10
271.7774797655736
 20
26.20591715460865
 30
0.0
 10
271.7470817843467
 20
26.15937335241773
 30
0.0
 10
271.6865421672588
 20
26.06190444245905
 30
0.0
 10
271.65699712458
 20
26.01196329198009
 30
0.0
 10
271.5993788886466
 20
25.90968340365682
 30
0.0
 10
271.5710678262806
 20
25.85687284398723
 30
0.0
 10
271.5171845045584
 20
25.75093636328796
 30
0.0
 10
271.4918884451625
 20
25.69840826482939
 30
0.0
 10
271.4444742509192
 20
25.59421478673577
 30
0.0
 10
271.4221625520317
 20
25.54203934061116
 30
0.0
 10
271.3820763355124
 20
25.4417756605841
 30
0.0
 10
271.3642315088255
 20
25.39361061196535
 30
0.0
 10
271.3327148422565
 20
25.30111551407528
 30
0.0
 10
271.3190146806821
 20
25.25662624838394
 30
0.0
 10
271.3076774897097
 20
25.21508403696011
 30
0.0
  0
LWPOLYLINE
  5
241
330
1F
100
AcDbEntity
  8
0
  6
Continuous
 62
     7
370
    15
100
AcDbPolyline
 90
       13
 70
   128
 43
0.0
 10
271.3076767281
 20
25.2150841126
 10
271.0162923835
 20
24.5075989856
 10
270.773690382
 20
23.7969770867
 10
270.5823642363
 20
23.0905227321
 10
270.4442806239
 20
22.3954973214
 10
270.360858313
 20
21.7190443578
 10
270.3329555188
 20
21.0681171292
 10
270.360858313
 20
20.4494057811
 10
270.4442806239
 20
19.8692701674
 10
270.5823642363
 20
19.3336727021
 10
270.773690382
 20
18.8481188133
 10
271.0162923835
 20
18.4175992232
 10
271.3076767281
 20
18.0465392995
  0
SPLINE
  5
242
330
1F
100
AcDbEntity
  8
0
  6
Continuous
 62
     7
370
    15
100
AcDbSpline
210
0.0
220
0.0
230
1.0
 70
     8
 71
     3
 72
    22
 73
    18
 74
     0
 42
0.000000001
 43
0.00000001
 40
0.0
 40
0.0
 40
0.0
 40
0.0
 40
0.1249999999999997
 40
0.1249999999999997
 40
0.2499999999999993
 40
0.2499999999999993
 40
0.3749999999999994
 40
0.3749999999999994
 40
0.4999999999999996
 40
0.4999999999999996
 40
0.6249999999999997
 40
0.6249999999999997
 40
0.7499999999999998
 40
0.7499999999999998
 40
0.8749999999999999
 40
0.8749999999999999
 40
1.0
 40
1.0
 40
1.0
 40
1.0
 10
271.3076774897097
 20
18.04653901651058
 30
0.0
 10
271.3190121428108
 20
17.99347309756155
 30
0.0
 10
271.3324988532611
 20
17.94348347263456
 30
0.0
 10
271.3638461419839
 20
17.84962030028339
 30
0.0
 10
271.3818108118629
 20
17.80553372484723
 30
0.0
 10
271.422086039795
 20
17.72488765709453
 30
0.0
 10
271.4439774031792
 20
17.68908494166752
 30
0.0
 10
271.4912553249331
 20
17.62636460219639
 30
0.0
 10
271.5168836025967
 20
17.59926019939922
 30
0.0
 10
271.5707466131068
 20
17.55548318831316
 30
0.0
 10
271.5986538540632
 20
17.53895590865643
 30
0.0
 10
271.6563461491484
 20
17.51630789145597
 30
0.0
 10
271.6864462847604
 20
17.51021846534989
 30
0.0
 10
271.7466636989306
 20
17.5089623446307
 30
0.0
 10
271.7767935530648
 20
17.51364847092544
 30
0.0
 10
271.8370229142648
 20
17.53328570841853
 30
0.0
 10
271.8672484594935
 20
17.54837145259018
 30
0.0
 10
271.8967410154568
 20
17.56830116363741
 30
0.0
  0
LWPOLYLINE
  5
243
330
1F
100
AcDbEntity
  8
0
  6
Continuous
 62
     7
370
    15
100
AcDbPolyline
 90
       17
 70
   128
 43
0.0
 10
271.8967405758
 20
17.5683016137
 10
272.2926551632
 20
17.3770583893
 10
272.7225751451
 20
17.25270883
 10
273.1822871537
 20
17.1964714406
 10
273.6672854275
 20
17.208897371
 10
274.1728167239
 20
17.2898647088
 10
274.693926681
 20
17.4385799957
 10
275.2255078579
 20
17.6535858845
 10
275.7623504761
 20
17.9327752222
 10
276.2991930943
 20
18.2734111782
 10
276.8307742712
 20
18.6721558522
 10
277.3518842282
 20
19.1251013149
 10
277.8574155247
 20
19.6278079881
 10
278.3424137985
 20
20.1753491454
 10
278.8021258071
 20
20.7623587222
 10
279.232045789
 20
21.383083327
 10
279.6279603764
 20
22.0314398041
  0
SPLINE
  5
244
330
1F
100
AcDbEntity
  8
0
  6
Continuous
 62
     7
370
    15
100
AcDbSpline
210
0.0
220
0.0
230
1.0
 70
     8
 71
     3
 72
    22
 73
    18
 74
     0
 42
0.000000001
 43
0.00000001
 40
0.0
 40
0.0
 40
0.0
 40
0.0
 40
0.125
 40
0.125
 40
0.25
 40
0.25
 40
0.375
 40
0.375
 40
0.5
 40
0.5
 40
0.625
 40
0.625
 40
0.75
 40
0.75
 40
0.875
 40
0.875
 40
1.0
 40
1.0
 40
1.0
 40
1.0
 10
279.627961008943
 20
22.03143946530708
 30
0.0
 10
279.6787705752737
 20
22.05786783279013
 30
0.0
 10
279.7273773539453
 20
22.088240074193
 30
0.0
 10
279.8202541900558
 20
22.15680203414621
 30
0.0
 10
279.8647438041285
 20
22.19521090985207
 30
0.0
 10
279.9481227754511
 20
22.27949494125901
 30
0.0
 10
279.9862187195032
 20
22.32449976144796
 30
0.0
 10
280.0553689023083
 20
22.42012239854576
 30
0.0
 10
280.0866563361632
 20
22.47121473552822
 30
0.0
 10
280.1405622292304
 20
22.57713818606739
 30
0.0
 10
280.1629615280698
 20
22.63133854880006
 30
0.0
 10
280.1989137994972
 20
22.74214885409214
 30
0.0
 10
280.2125237674603
 20
22.79934770255332
 30
0.0
 10
280.2299216514821
 20
22.91270907813892
 30
0.0
 10
280.2338452910151
 20
22.96891065703922
 30
0.0
 10
280.2324359549509
 20
23.08041353165764
 30
0.0
 10
280.2270157305374
 20
23.13594076123007
 30
0.0
 10
280.2170245346902
 20
23.18979558828346
 30
0.0
  0
LWPOLYLINE
  5
245
330
1F
100
AcDbEntity
  8
0
  6
Continuous
 62
     7
370
    15
100
AcDbPolyline
 90
       13
 70
   128
 43
0.0
 10
280.2170242241
 20
23.1897961316
 10
280.5084085686
 20
23.8972812586
 10
280.7510105702
 20
24.6079031575
 10
280.9423367158
 20
25.3143575121
 10
281.0804203283
 20
26.0093829228
 10
281.1638426392
 20
26.6858358864
 10
281.1917454334
 20
27.336763115
 10
281.1638426392
 20
27.9554744632
 10
281.0804203283
 20
28.5356100768
 10
280.9423367158
 20
29.0712075421
 10
280.7510105702
 20
29.5567614309
 10
280.5084085686
 20
29.987281021
 10
280.2170242241
 20
30.3583409448
  0
SPLINE
  5
246
330
1F
100
AcDbEntity
  8
0
  6
Continuous
 62
     7
370
    15
100
AcDbSpline
210
0.0
220
0.0
230
1.0
 70
     8
 71
     3
 72
    22
 73
    18
 74
     0
 42
0.000000001
 43
0.00000001
 40
0.0
 40
0.0
 40
0.0
 40
0.0
 40
0.125
 40
0.125
 40
0.25
 40
0.25
 40
0.375
 40
0.375
 40
0.5
 40
0.5
 40
0.625
 40
0.625
 40
0.75
 40
0.75
 40
0.875
 40
0.875
 40
1.0
 40
1.0
 40
1.0
 40
1.0
 10
280.2170245346902
 20
30.35834060873299
 30
0.0
 10
280.227013493972
 20
30.39909666827608
 30
0.0
 10
280.2323653849732
 20
30.43821100007219
 30
0.0
 10
280.2338878136456
 20
30.51309888847146
 30
0.0
 10
280.2300147766122
 20
30.54905053742257
 30
0.0
 10
280.212578902915
 20
30.61651172662353
 30
0.0
 10
280.199238440904
 20
30.64737811176055
 30
0.0
 10
280.1634924660219
 20
30.7034412000062
 30
0.0
 10
280.1408405598471
 20
30.72882738011624
 30
0.0
 10
280.0870001206819
 20
30.77259136104218
 30
0.0
 10
280.0561961191691
 20
30.79079090497302
 30
0.0
 10
279.9870419012681
 20
30.82005574937195
 30
0.0
 10
279.9482400347315
 20
30.83116857781459
 30
0.0
 10
279.8653342880639
 20
30.84552239409233
 30
0.0
 10
279.8212832467758
 20
30.84887279807913
 30
0.0
 10
279.7281278829424
 20
30.84824333731438
 30
0.0
 10
279.6787819517259
 20
30.84419555702383
 30
0.0
 10
279.627961008943
 20
30.83657846160616
 30
0.0
  0
LINE
  5
247
330
1F
100
AcDbEntity
  8
0
  6
Continuous
 62
     7
370
    15
100
AcDbLine
 10
279.4817321489
 20
30.7691205857
 30
0.0
 11
277.5933124401
 21
29.6789590925
 31
0.0
  0
LWPOLYLINE
  5
248
330
1F
100
AcDbEntity
  8
0
  6
Continuous
 62
     7
370
    15
100
AcDbPolyline
 90
        9
 70
   128
 43
0.0
 10
277.5933124401
 20
29.6789590925
 10
277.1558680603
 20
29.6343332107
 10
276.7010996136
 20
29.522178861
 10
276.2346609021
 20
29.3438906964
 10
275.7623504761
 20
29.1016848839
 10
275.2900400501
 20
28.7985726859
 10
274.8236013386
 20
28.4383221774
 10
274.3688328919
 20
28.0254120548
 10
273.9313885121
 20
27.5649754063
  0
LINE
  5
249
330
1F
100
AcDbEntity
  8
0
  6
Continuous
 62
     7
370
    15
100
AcDbLine
 10
273.9313885121
 20
27.5649754063
 30
0.0
 11
272.0429688033
 21
26.4748139131
 31
0.0
  0
ARC
  5
24A
330
1F
100
AcDbEntity
  8
0
  6
Continuous
 62
     7
370
    15
100
AcDbCircle
 10
272.6107675581
 20
25.4996293768
 30
0.0
 40
1.128441538541104
100
AcDbArc
 50
120.209996585
 51
129.2536723413
  0
ARC
  5
24B
330
1F
100
AcDbEntity
  8
0
  6
Continuous
 62
     7
370
    15
100
AcDbCircle
 10
279.9039056329
 20
30.0461965927
 30
0.0
 40
0.837167575983026
100
AcDbArc
 50
109.2455734938
 51
120.2840933907
  0
LWPOLYLINE
  5
24C
330
1F
100
AcDbEntity
  8
0
  6
Continuous
 62
     7
370
    15
100
AcDbPolyline
 90
       49
 70
   128
 43
0.0
 10
273.2212851058
 20
27.1550399764
 10
273.0399945199
 20
26.9181280055
 10
272.695500273
 20
26.4155639418
 10
272.3845287075
 20
25.8874336963
 10
272.1114453149
 20
25.3411508405
 10
271.880083351
 20
24.7843839786
 10
271.6936907574
 20
24.2249489955
 10
271.5548840631
 20
23.6706991742
 10
271.4656117696
 20
23.1294148559
 10
271.4271272188
 20
22.6086945821
 10
271.4399704172
 20
22.1158479857
 10
271.503961187
 20
21.6577936608
 10
271.6182012736
 20
21.2409617476
 10
271.7810869893
 20
20.8712034742
 10
271.9903318676
 20
20.5537095946
 10
272.2429982731
 20
20.2929370012
 10
272.5355395486
 20
20.0925461346
 10
272.8638490106
 20
19.9553504845
 10
273.2233180327
 20
19.8832754431
 10
273.6089001885
 20
19.8773332798
 10
274.0151830324
 20
19.9376073928
 10
274.4364629762
 20
20.0632511238
 10
274.8668264055
 20
20.2525011244
 10
275.300231833
 20
20.502700752
 10
275.7305952624
 20
20.8103377904
 10
276.1518752062
 20
21.1710935293
 10
276.5581580501
 20
21.579903603
 10
276.9437402059
 20
22.0310294474
 10
277.303209228
 20
22.5181385876
 10
277.6315186899
 20
23.0343922739
 10
277.9240599655
 20
23.5725441078
 10
278.176726371
 20
24.1250391236
 10
278.3859712493
 20
24.6841219973
 10
278.548856965
 20
25.241944115
 10
278.6630970516
 20
25.7906748245
 10
278.7270878214
 20
26.3226113197
 10
278.7399310198
 20
26.8302863574
 10
278.701446469
 20
27.3065733146
 10
278.6121741755
 20
27.7447860368
 10
278.4733674812
 20
28.1387730601
 10
278.2869748876
 20
28.4830037353
 10
278.0556129237
 20
28.7726457596
 10
277.7825295311
 20
29.0036332416
 10
277.4715579655
 20
29.1727233599
 10
277.1270637187
 20
29.2775428324
 10
276.7538827462
 20
29.3166199379
 10
276.357253638
 20
29.2894061953
 10
275.9427442561
 20
29.1962838991
 10
275.9204483098
 20
29.1895490505
  0
LWPOLYLINE
  5
24D
330
1F
100
AcDbEntity
  8
0
  6
Continuous
 62
     7
370
    15
100
AcDbPolyline
 90
        3
 70
   128
 43
0.0
 10
279.536268327
 20
30.7982642248
 10
279.5382265749
 20
30.7241520654
 10
279.5170973061
 20
30.5216290917
  0
LWPOLYLINE
  5
24E
330
1F
100
AcDbEntity
  8
0
  6
Continuous
 62
     7
370
    15
100
AcDbPolyline
 90
       13
 70
   128
 43
0.0
 10
279.5170973061
 20
30.5216290917
 10
279.7786532723
 20
30.1610870393
 10
279.9960899174
 20
29.7482346031
 10
280.1673631194
 20
29.2869507919
 10
280.2908639222
 20
28.7815706233
 10
280.3654317071
 20
28.2368431068
 10
280.3903652558
 20
27.6578866418
 10
280.3654317071
 20
27.0501425141
 10
280.2908639222
 20
26.4193208658
 10
280.1673631194
 20
25.7713497053
 10
279.9960899174
 20
25.1123180643
 10
279.7786532723
 20
24.4484186213
 10
279.5170973061
 20
23.7858904783
  0
ARC
  5
24F
330
1F
100
AcDbEntity
  8
0
  6
Continuous
 62
     7
370
    15
100
AcDbCircle
 10
278.0107190319
 20
23.6145939558
 30
0.0
 40
1.516086410327032
100
AcDbArc
 50
301.5017191795
 51
6.4874735737
  0
LINE
  5
250
330
1F
100
AcDbEntity
  8
0
  6
Continuous
 62
     7
370
    15
100
AcDbLine
 10
278.8029107921
 20
22.3219415591
 30
0.0
 11
276.9144910833
 21
21.2317800659
 31
0.0
  0
LWPOLYLINE
  5
251
330
1F
100
AcDbEntity
  8
0
  6
Continuous
 62
     7
370
    15
100
AcDbPolyline
 90
        9
 70
   128
 43
0.0
 10
273.2525671553
 20
19.1177963797
 10
273.6900115351
 20
19.1624222615
 10
274.1447799818
 20
19.2745766112
 10
274.6112186933
 20
19.4528647758
 10
275.0835291193
 20
19.6950705883
 10
275.5558395453
 20
19.9981827863
 10
276.0222782568
 20
20.3584332948
 10
276.4770467035
 20
20.7713434174
 10
276.9144910833
 20
21.2317800659
  0
LINE
  5
252
330
1F
100
AcDbEntity
  8
0
  6
Continuous
 62
     7
370
    15
100
AcDbLine
 10
273.2525671553
 20
19.1177963797
 30
0.0
 11
271.3641474465
 21
18.0276348865
 31
0.0
  0
ARC
  5
253
330
1F
100
AcDbEntity
  8
0
  6
Continuous
 62
     7
370
    15
100
AcDbCircle
 10
272.1281765306
 20
25.1966806556
 30
0.0
 40
0.8207061673722521
100
AcDbArc
 50
178.7150958032
 51
193.0857748737
  0
LWPOLYLINE
  5
254
330
1F
100
AcDbEntity
  8
0
  6
Continuous
 62
     7
370
    15
100
AcDbPolyline
 90
       13
 70
   128
 43
0.0
 10
271.3287822893
 20
25.0108649939
 10
271.0672263231
 20
24.3483368509
 10
270.849789678
 20
23.6844374079
 10
270.678516476
 20
23.0254057669
 10
270.5550156732
 20
22.3774346064
 10
270.4804478883
 20
21.7466129581
 10
270.4555143395
 20
21.1388688304
 10
270.4804478883
 20
20.5599123654
 10
270.5550156732
 20
20.0151848489
 10
270.678516476
 20
19.5098046803
 10
270.849789678
 20
19.0485208691
 10
271.0672263231
 20
18.6356684329
 10
271.3287822893
 20
18.2751263805
  0
ARC
  5
255
330
1F
100
AcDbEntity
  8
0
  6
Continuous
 62
     7
370
    15
100
AcDbCircle
 10
272.4534315328
 20
18.0560190608
 30
0.0
 40
1.145794020980098
100
AcDbArc
 50
168.9755719698
 51
180.4740437654
  0
LWPOLYLINE
  5
256
330
1F
100
AcDbEntity
  8
0
  6
Continuous
 62
     7
370
    15
100
AcDbPolyline
 90
       35
 70
   128
 43
0.0
 10
271.6195344311
 20
21.2371832246
 10
271.6795233577
 20
21.1183198313
 10
271.8817623761
 20
20.8114560552
 10
272.1259691189
 20
20.5594142174
 10
272.4087157302
 20
20.3657329214
 10
272.7260331623
 20
20.23313051
 10
273.073466625
 20
20.1634687862
 10
273.4461390695
 20
20.1577254786
 10
273.838819018
 20
20.2159813828
 10
274.245994058
 20
20.337418682
 10
274.6619483523
 20
20.5203322324
 10
275.0808428504
 20
20.7621548787
 10
275.4967971448
 20
21.0594919343
 10
275.9039721847
 20
21.4081689296
 10
276.2966521333
 20
21.8032916435
 10
276.6693245777
 20
22.2393133967
 10
277.0167580404
 20
22.7101132581
 10
277.3340754725
 20
23.2090825783
 10
277.6168220839
 20
23.729216163
 10
277.8610288267
 20
24.2632131044
 10
278.0632678451
 20
24.803577081
 10
278.220700022
 20
25.3427227418
 10
278.331115282
 20
25.8730813309
 10
278.3929636749
 20
26.3872080242
 10
278.405376712
 20
26.8778853974
 10
278.3681808011
 20
27.3382257736
 10
278.2818975094
 20
27.7617666428
 10
278.147738032
 20
28.1425624689
 10
277.9675860696
 20
28.4752678955
 10
277.743970433
 20
28.7552122264
 10
277.4800302723
 20
28.9784658554
 10
277.1794702955
 20
29.1418948714
 10
276.8465101922
 20
29.2432048661
 10
276.4858237847
 20
29.2809734875
 10
276.2584544445
 20
29.2728990864
  0
ARC
  5
257
330
1F
100
AcDbEntity
  8
0
  6
Continuous
 62
     7
370
    15
100
AcDbCircle
 10
271.6207953193
 20
18.3586836516
 30
0.0
 40
0.8371675759856394
100
AcDbArc
 50
289.2455734938
 51
300.2840933907
  0
LINE
  5
258
330
1F
100
AcDbEntity
  8
0
  6
Continuous
 62
     7
370
    15
100
AcDbLine
 10
279.5170973061
 20
30.5216290917
 30
0.0
 11
280.1959186629
 21
30.1297538638
 31
0.0
  0
ARC
  5
259
330
1F
100
AcDbEntity
  8
0
  6
Continuous
 62
     7
370
    15
100
AcDbCircle
 10
279.0712694194
 20
30.3488611834
 30
0.0
 40
1.145794020980834
100
AcDbArc
 50
348.9755719698
 51
0.4740437653
  0
LINE
  5
25A
330
1F
100
AcDbEntity
  8
0
  6
Continuous
 62
     7
370
    15
100
AcDbLine
 10
272.0429688033
 20
17.6357596585
 30
0.0
 11
273.9313885121
 21
18.7259211517
 31
0.0
  0
LWPOLYLINE
  5
25B
330
1F
100
AcDbEntity
  8
0
  6
Continuous
 62
     7
370
    15
100
AcDbPolyline
 90
        9
 70
   128
 43
0.0
 10
273.9313885121
 20
18.7259211517
 10
274.3688328919
 20
18.7705470336
 10
274.8236013386
 20
18.8827013832
 10
275.2900400501
 20
19.0609895478
 10
275.7623504761
 20
19.3031953603
 10
276.2346609021
 20
19.6063075583
 10
276.7010996136
 20
19.9665580668
 10
277.1558680603
 20
20.3794681895
 10
277.5933124401
 20
20.8399048379
  0
LINE
  5
25C
330
1F
100
AcDbEntity
  8
0
  6
Continuous
 62
     7
370
    15
100
AcDbLine
 10
277.5933124401
 20
20.8399048379
 30
0.0
 11
279.4817321489
 21
21.9300663311
 31
0.0
  0
ARC
  5
25D
330
1F
100
AcDbEntity
  8
0
  6
Continuous
 62
     7
370
    15
100
AcDbCircle
 10
278.9139333941
 20
22.9052508674
 30
0.0
 40
1.128441538545231
100
AcDbArc
 50
300.209996585
 51
309.2536723413
  0
LINE
  5
25E
330
1F
100
AcDbEntity
  8
0
  6
Continuous
 62
     7
370
    15
100
AcDbLine
 10
273.9313885121
 20
18.7259211517
 30
0.0
 11
273.2525671553
 21
19.1177963797
 31
0.0
  0
ARC
  5
25F
330
1F
100
AcDbEntity
  8
0
  6
Continuous
 62
     7
370
    15
100
AcDbCircle
 10
279.3965244216
 20
23.2081995886
 30
0.0
 40
0.8207061673726446
100
AcDbArc
 50
358.7150958032
 51
13.0857748737
  0
LWPOLYLINE
  5
260
330
1F
100
AcDbEntity
  8
0
  6
Continuous
 62
     7
370
    15
100
AcDbPolyline
 90
       13
 70
   128
 43
0.0
 10
280.1959186629
 20
23.3940152503
 10
280.4574746291
 20
24.0565433933
 10
280.6749112742
 20
24.7204428363
 10
280.8461844762
 20
25.3794744774
 10
280.969685279
 20
26.0274456378
 10
281.0442530639
 20
26.6582672862
 10
281.0691866126
 20
27.2660114138
 10
281.0442530639
 20
27.8449678788
 10
280.969685279
 20
28.3896953953
 10
280.8461844762
 20
28.8950755639
 10
280.6749112742
 20
29.3563593751
 10
280.4574746291
 20
29.7692118114
 10
280.1959186629
 20
30.1297538638
  0
LINE
  5
261
330
1F
100
AcDbEntity
  8
0
  6
Continuous
 62
     7
370
    15
100
AcDbLine
 10
279.5170973061
 20
23.7858904783
 30
0.0
 11
280.1959186629
 21
23.3940152503
 31
0.0
  0
LINE
  5
262
330
1F
100
AcDbEntity
  8
0
  6
Continuous
 62
     7
370
    15
100
AcDbLine
 10
276.9144910833
 20
21.2317800659
 30
0.0
 11
277.5933124401
 21
20.8399048379
 31
0.0
  0
LWPOLYLINE
  5
263
330
1F
100
AcDbEntity
  8
0
  6
Continuous
 62
     7
370
    15
100
AcDbPolyline
 90
       24
 70
   128
 43
0.0
 10
250.9673405311
 20
29.6731857692
 10
250.9583485009
 20
29.7255843312
 10
250.883466722
 20
30.3391648337
 10
250.8584425575
 20
30.9865645264
 10
250.883466722
 20
31.6628565044
 10
250.9583485009
 20
32.3628936685
 10
251.0825178582
 20
33.0813481933
 10
251.2550296506
 20
33.8127520589
 10
251.4745715309
 20
34.5515391043
 10
251.7394723763
 20
35.29208708
 10
252.0477154602
 20
36.0287587118
 10
252.3969563642
 20
36.7559493038
 10
252.7845356221
 20
37.4681229359
 10
253.207504535
 20
38.1598599135
 10
253.662643874
 20
38.8258967668
 10
254.146489168
 20
39.4611624458
 10
254.65535889
 20
40.0608244022
 10
255.185379481
 20
40.6203176367
 10
255.7325176195
 20
41.1353840114
 10
256.2926091967
 20
41.6021041873
 10
256.8613915199
 20
42.0169259478
 10
257.4345357785
 20
42.376692067
 10
258.0076800371
 20
42.6786642233
 10
258.495193029
 20
42.8895711126
  0
SPLINE
  5
264
330
1F
100
AcDbEntity
  8
0
  6
Continuous
 62
     7
370
    15
100
AcDbSpline
210
0.0
220
0.0
230
1.0
 70
     8
 71
     3
 72
    12
 73
     8
 74
     0
 42
0.000000001
 43
0.00000001
 40
0.0
 40
0.0
 40
0.0
 40
0.0
 40
0.2499999999999984
 40
0.2499999999999984
 40
0.4999999999999969
 40
0.4999999999999969
 40
1.0
 40
1.0
 40
1.0
 40
1.0
 10
247.9547744802092
 20
34.87940191584744
 30
0.0
 10
247.9683470771249
 20
34.87156662242684
 30
0.0
 10
247.9837197607359
 20
34.86069174685228
 30
0.0
 10
248.0133905018018
 20
34.83700217583795
 30
0.0
 10
248.027477013904
 20
34.82442910423124
 30
0.0
 10
248.0655165808072
 20
34.78763201751045
 30
0.0
 10
248.084928243512
 20
34.76488935130059
 30
0.0
 10
248.098264881974
 20
34.74559782889965
 30
0.0
  0
ARC
  5
265
330
1F
100
AcDbEntity
  8
0
  6
Continuous
 62
     7
370
    15
100
AcDbCircle
 10
257.5848915844
 20
40.9876094778
 30
0.0
 40
4.347771714144772
100
AcDbArc
 50
73.9805689162
 51
106.2233053919
  0
SPLINE
  5
266
330
1F
100
AcDbEntity
  8
0
  6
Continuous
 62
     7
370
    15
100
AcDbSpline
210
0.0
220
0.0
230
1.0
 70
     8
 71
     3
 72
    12
 73
     8
 74
     0
 42
0.000000001
 43
0.00000001
 40
0.0
 40
0.0
 40
0.0
 40
0.0
 40
0.5
 40
0.5
 40
0.75
 40
0.75
 40
1.0
 40
1.0
 40
1.0
 40
1.0
 10
258.8695700096533
 20
44.99312420418418
 30
0.0
 10
258.8695700096533
 20
45.02219740306131
 30
0.0
 10
258.8627633024253
 20
45.05563054175742
 30
0.0
 10
258.8409989720726
 20
45.10420821290769
 30
0.0
 10
258.8317408845039
 20
45.12009416398023
 30
0.0
 10
258.8100285597611
 20
45.14758607272655
 30
0.0
 10
258.797534172338
 20
45.15914991108882
 30
0.0
 10
258.784717195911
 20
45.16654899408626
 30
0.0
  0
LWPOLYLINE
  5
267
330
1F
100
AcDbEntity
  8
0
  6
Continuous
 62
     7
370
    15
100
AcDbPolyline
 90
       17
 70
   128
 43
0.0
 10
248.1303352688
 20
34.8911845088
 10
248.2799154878
 20
35.4879867693
 10
248.5080058026
 20
36.2369635195
 10
248.7808739829
 20
36.9870670285
 10
249.0965285901
 20
37.7328261048
 10
249.4526689332
 20
38.4688033502
 10
249.8466971857
 20
39.1896310532
 10
250.2757402498
 20
39.8900530118
 10
250.7366689852
 20
40.5649608819
 10
251.2261221809
 20
41.2094332631
 10
251.7405305256
 20
41.8187699171
 10
252.2761426863
 20
42.3885275071
 10
252.829052704
 20
42.9145512302
 10
253.3952285739
 20
43.3930047016
 10
253.970541222
 20
43.8203988484
 10
254.5507952753
 20
44.1936169746
 10
254.7275390641
 20
44.2959178918
  0
SPLINE
  5
268
330
1F
100
AcDbEntity
  8
0
  6
Continuous
 62
     7
370
    15
100
AcDbSpline
210
0.0
220
0.0
230
1.0
 70
     8
 71
     3
 72
    51
 73
    47
 74
     0
 42
0.000000001
 43
0.00000001
 40
0.0
 40
0.0
 40
0.0
 40
0.0
 40
0.0625000000000002
 40
0.0625000000000002
 40
0.0937500000000003
 40
0.0937500000000003
 40
0.1250000000000004
 40
0.1250000000000004
 40
0.1875000000000006
 40
0.1875000000000006
 40
0.2500000000000008
 40
0.2500000000000008
 40
0.3125000000000011
 40
0.3125000000000011
 40
0.3437500000000012
 40
0.3437500000000012
 40
0.3750000000000012
 40
0.3750000000000012
 40
0.4375000000000013
 40
0.4375000000000013
 40
0.4687500000000013
 40
0.4687500000000013
 40
0.5000000000000013
 40
0.5312500000000013
 40
0.5312500000000013
 40
0.5625000000000013
 40
0.5625000000000013
 40
0.6250000000000013
 40
0.6250000000000013
 40
0.6562500000000014
 40
0.6562500000000014
 40
0.6875000000000014
 40
0.6875000000000014
 40
0.7500000000000013
 40
0.7500000000000013
 40
0.7812500000000011
 40
0.7812500000000011
 40
0.8125000000000009
 40
0.8125000000000009
 40
0.8750000000000006
 40
0.8750000000000006
 40
0.9062500000000006
 40
0.9062500000000006
 40
0.9375000000000004
 40
0.9375000000000004
 40
1.0
 40
1.0
 40
1.0
 40
1.0
 10
249.4306880672622
 20
31.12401311903537
 30
0.0
 10
249.5422587560591
 20
31.06644247032823
 30
0.0
 10
249.6473211526682
 20
31.02073170407612
 30
0.0
 10
249.7962556872342
 20
30.96932304027496
 30
0.0
 10
249.8444523382433
 20
30.95506953729717
 30
0.0
 10
249.9380805935595
 20
30.93249514725033
 30
0.0
 10
249.9836902315762
 20
30.92417405800479
 30
0.0
 10
250.114004460678
 20
30.90881792984246
 30
0.0
 10
250.1929985089801
 20
30.91102329011544
 30
0.0
 10
250.3375914757364
 20
30.94071231796118
 30
0.0
 10
250.4035678293371
 20
30.96870370764015
 30
0.0
 10
250.5191104807969
 20
31.04960188753392
 30
0.0
 10
250.5693119781436
 20
31.10241547466775
 30
0.0
 10
250.6345127559057
 20
31.2013354575764
 30
0.0
 10
250.6546422421872
 20
31.23784037152587
 30
0.0
 10
250.690976280738
 20
31.3165991196201
 30
0.0
 10
250.7072046766876
 20
31.35880286604256
 30
0.0
 10
250.7504423657328
 20
31.49387763740422
 30
0.0
 10
250.7720670903465
 20
31.59514302260529
 30
0.0
 10
250.7939816322572
 20
31.76502951166558
 30
0.0
 10
250.799490328883
 20
31.82473320894289
 30
0.0
 10
250.806747394501
 20
31.94751754845808
 30
0.0
 10
250.8103438214493
 20
32.07432364657356
 30
0.0
 10
250.8067757532484
 20
32.20906800663307
 30
0.0
 10
250.7995684556193
 20
32.34781083710346
 30
0.0
 10
250.7941172348632
 20
32.4194553015535
 30
0.0
 10
250.7721992583182
 20
32.63869657271624
 30
0.0
 10
250.7505380060757
 20
32.78807827235198
 30
0.0
 10
250.7072393157177
 20
33.01646318381182
 30
0.0
 10
250.6909893750688
 20
33.09331384899959
 30
0.0
 10
250.654616880293
 20
33.24841190200119
 30
0.0
 10
250.6345024172429
 20
33.32652655115952
 30
0.0
 10
250.5692998948543
 20
33.55811055447905
 30
0.0
 10
250.5190575854077
 20
33.71041745854813
 30
0.0
 10
250.4322172325221
 20
33.93529505000574
 30
0.0
 10
250.4011964915044
 20
34.00997457731841
 30
0.0
 10
250.3356095258459
 20
34.15640990241891
 30
0.0
 10
250.3012083482378
 20
34.22784753900853
 30
0.0
 10
250.1929170517846
 20
34.43681880828237
 30
0.0
 10
250.113986609008
 20
34.5690608603288
 30
0.0
 10
249.9836533985142
 20
34.75592668710466
 30
0.0
 10
249.9380369738696
 20
34.81644958961832
 30
0.0
 10
249.8444322189157
 20
34.93093999150185
 30
0.0
 10
249.7962451019556
 20
34.98522467891143
 30
0.0
 10
249.6473310903568
 20
35.1391933999546
 30
0.0
 10
249.5422717930969
 20
35.23006624935812
 30
0.0
 10
249.4306880672622
 20
35.30830478574977
 30
0.0
  0
ARC
  5
269
330
1F
100
AcDbEntity
  8
0
  6
Continuous
 62
     7
370
    15
100
AcDbCircle
 10
257.4048453803
 20
40.8194684949
 30
0.0
 40
2.786866880816314
100
AcDbArc
 50
60.2143778007
 51
81.9496603317
  0
ARC
  5
26A
330
1F
100
AcDbEntity
  8
0
  6
Continuous
 62
     7
370
    15
100
AcDbCircle
 10
252.2049580186
 20
31.8063806467
 30
0.0
 40
2.807675442550136
100
AcDbArc
 50
216.3106857683
 51
239.7349963392
  0
LWPOLYLINE
  5
26B
330
1F
100
AcDbEntity
  8
0
  6
Continuous
 62
     7
370
    15
100
AcDbPolyline
 90
       12
 70
   128
 43
0.0
 10
251.9591588729
 20
43.2161997251
 10
252.5393016815
 20
43.7252410493
 10
253.1303544654
 20
44.1817006642
 10
253.7278447687
 20
44.582124273
 10
254.3272513707
 20
44.9234820548
 10
254.9240384638
 20
45.2031914377
 10
255.5136901283
 20
45.4191345664
 10
256.0917442972
 20
45.5696785184
 10
256.6538269179
 20
45.653683466
 10
257.1956847148
 20
45.6705136813
 10
257.7132171946
 20
45.6200426276
 10
258.2025083883
 20
45.5026512081
  0
LINE
  5
26C
330
1F
100
AcDbEntity
  8
0
  6
Continuous
 62
     7
370
    15
100
AcDbLine
 10
258.7847171828
 20
45.1665492251
 30
0.0
 11
258.2025083883
 21
45.5026512081
 31
0.0
  0
LINE
  5
26D
330
1F
100
AcDbEntity
  8
0
  6
Continuous
 62
     7
370
    15
100
AcDbLine
 10
247.3725656207
 20
35.2155039728
 30
0.0
 11
247.9547744152
 21
34.8794019899
 31
0.0
  0
ARC
  5
26E
330
1F
100
AcDbEntity
  8
0
  6
Continuous
 62
     7
370
    15
100
AcDbCircle
 10
263.1056551694
 20
31.5230636269
 30
0.0
 40
16.16057617953551
100
AcDbArc
 50
136.9528122493
 51
166.7921386576
  0
SPLINE
  5
26F
330
1F
100
AcDbEntity
  8
0
  6
Continuous
 62
     7
370
    15
100
AcDbSpline
210
0.0
220
0.0
230
1.0
 70
     8
 71
     3
 72
    34
 73
    30
 74
     0
 42
0.000000001
 43
0.00000001
 40
0.0
 40
0.0
 40
0.0
 40
0.0
 40
0.0624999999999989
 40
0.0624999999999989
 40
0.1249999999999978
 40
0.1249999999999978
 40
0.1874999999999968
 40
0.1874999999999968
 40
0.2499999999999962
 40
0.2499999999999962
 40
0.3124999999999957
 40
0.3124999999999957
 40
0.3749999999999952
 40
0.3749999999999952
 40
0.499999999999995
 40
0.499999999999995
 40
0.6249999999999948
 40
0.6249999999999948
 40
0.6874999999999954
 40
0.6874999999999954
 40
0.749999999999996
 40
0.749999999999996
 40
0.8124999999999966
 40
0.8124999999999966
 40
0.8749999999999977
 40
0.8749999999999977
 40
0.9374999999999989
 40
0.9374999999999989
 40
1.0
 40
1.0
 40
1.0
 40
1.0
 10
251.2956391260221
 20
42.55428067226037
 30
0.0
 10
251.3192892914794
 20
42.54244967871706
 30
0.0
 10
251.3444143696516
 20
42.53297926983886
 30
0.0
 10
251.3974979708214
 20
42.51854746567096
 30
0.0
 10
251.4257426493699
 20
42.51356830961527
 30
0.0
 10
251.4838418373608
 20
42.50848435212511
 30
0.0
 10
251.5134348092656
 20
42.50834748016617
 30
0.0
 10
251.5737076351956
 20
42.51275001809522
 30
0.0
 10
251.6046868431156
 20
42.51738468368941
 30
0.0
 10
251.6654598775057
 20
42.53105450078494
 30
0.0
 10
251.6954423097395
 20
42.54005946174094
 30
0.0
 10
251.754616336503
 20
42.56238429078016
 30
0.0
 10
251.7837878217391
 20
42.57576222926267
 30
0.0
 10
251.8664328321431
 20
42.6207071329904
 30
0.0
 10
251.9172029025628
 20
42.6583220933987
 30
0.0
 10
252.0008456036136
 20
42.74176261946906
 30
0.0
 10
252.0346649568927
 20
42.78853225712654
 30
0.0
 10
252.0686543796023
 20
42.85994235711561
 30
0.0
 10
252.0774382598415
 20
42.88442898868627
 30
0.0
 10
252.0890826985374
 20
42.93275138169182
 30
0.0
 10
252.0920244836493
 20
42.95659159226987
 30
0.0
 10
252.0921616576671
 20
43.00368810832318
 30
0.0
 10
252.0892656405329
 20
43.02706866357802
 30
0.0
 10
252.0778209003242
 20
43.07137371333461
 30
0.0
 10
252.0693075637003
 20
43.09253869122366
 30
0.0
 10
252.0465762970576
 20
43.13290597414736
 30
0.0
 10
252.032393301468
 20
43.1519119799998
 30
0.0
 10
251.9994313203133
 20
43.18641597115317
 30
0.0
 10
251.980549359283
 20
43.20211419212119
 30
0.0
 10
251.9591589009275
 20
43.21619944336665
 30
0.0
  0
LINE
  5
270
330
1F
100
AcDbEntity
  8
0
  6
Continuous
 62
     7
370
    15
100
AcDbLine
 10
248.1164679019
 20
34.7192672038
 30
0.0
 11
249.1420050397
 21
35.3112971917
 31
0.0
  0
LINE
  5
271
330
1F
100
AcDbEntity
  8
0
  6
Continuous
 62
     7
370
    15
100
AcDbLine
 10
248.0982646781
 20
34.745597658
 30
0.0
 11
248.1164679019
 21
34.7192672038
 31
0.0
  0
LINE
  5
272
330
1F
100
AcDbEntity
  8
0
  6
Continuous
 62
     7
370
    15
100
AcDbLine
 10
258.8695701159
 20
43.70313989
 30
0.0
 11
258.8695701159
 21
44.9931243472
 31
0.0
  0
LINE
  5
273
330
1F
100
AcDbEntity
  8
0
  6
Continuous
 62
     7
370
    15
100
AcDbLine
 10
259.9866689112
 20
44.3480272977
 30
0.0
 11
258.8695701159
 21
43.70313989
 31
0.0
  0
SPLINE
  5
274
330
1F
100
AcDbEntity
  8
0
  6
Continuous
 62
     7
370
    15
100
AcDbSpline
210
0.0
220
0.0
230
1.0
 70
     8
 71
     3
 72
     8
 73
     4
 74
     0
 42
0.000000001
 43
0.00000001
 40
0.0
 40
0.0
 40
0.0
 40
0.0
 40
1.0
 40
1.0
 40
1.0
 40
1.0
 10
246.9435438913177
 20
35.65210948686003
 30
0.0
 10
246.8287170394488
 20
35.63312868697068
 30
0.0
 10
246.7138717920146
 20
35.61418571388957
 30
0.0
 10
246.5990098614556
 20
35.59527704632474
 30
0.0
  0
SPLINE
  5
275
330
1F
100
AcDbEntity
  8
0
  6
Continuous
 62
     7
370
    15
100
AcDbSpline
210
0.0
220
0.0
230
1.0
 70
     8
 71
     3
 72
     8
 73
     4
 74
     0
 42
0.000000001
 43
0.00000001
 40
0.0
 40
0.0
 40
0.0
 40
0.0
 40
0.0011862984959113
 40
0.0011862984959113
 40
0.0011862984959113
 40
0.0011862984959113
 10
246.4580894265454
 20
35.74341980618961
 30
0.0
 10
246.5051737736832
 20
35.69399982574463
 30
0.0
 10
246.5521496738576
 20
35.64461780609852
 30
0.0
 10
246.5990098614556
 20
35.59527704632474
 30
0.0
  0
LWPOLYLINE
  5
276
330
1F
100
AcDbEntity
  8
0
  6
Continuous
 62
     7
370
    15
100
AcDbPolyline
 90
       23
 70
   128
 43
0.0
 10
246.4580895118
 20
35.7434197935
 10
246.6560100587
 20
36.5219854876
 10
246.9038993824
 20
37.3066501203
 10
247.1998261035
 20
38.0912971655
 10
247.541483209
 20
38.8698108929
 10
247.9262070179
 20
39.6361224503
 10
248.3509993088
 20
40.3842591393
 10
248.81254892
 20
41.1083885201
 10
249.3072580911
 20
41.8028673832
 10
249.8312703855
 20
42.4622815947
 10
250.3805015101
 20
43.0814912648
 10
250.9506701354
 20
43.6556698333
 10
251.5373320078
 20
44.1803414043
 10
252.135914392
 20
44.6514170558
 10
252.7417512037
 20
45.0652242469
 10
253.3501202178
 20
45.418537423
 10
253.9562792553
 20
45.7086025565
 10
254.5555035228
 20
45.9331593106
 10
255.1431221287
 20
46.0904566444
 10
255.7145547643
 20
46.1792685133
 10
256.2653469028
 20
46.1989026294
 10
256.791205756
 20
46.1492066187
 10
257.2880322794
 20
46.0305670287
  0
LINE
  5
277
330
1F
100
AcDbEntity
  8
0
  6
Continuous
 62
     7
370
    15
100
AcDbLine
 10
257.4122099343
 20
45.6398349763
 30
0.0
 11
257.2880322794
 21
46.0305670287
 31
0.0
  0
LWPOLYLINE
  5
278
330
1F
100
AcDbEntity
  8
0
  6
Continuous
 62
     7
370
    15
100
AcDbPolyline
 90
       22
 70
   128
 43
0.0
 10
246.9435438935
 20
35.6521094766
 10
247.1333474843
 20
36.4108809312
 10
247.3731251201
 20
37.1760663076
 10
247.6609185532
 20
37.9414178264
 10
247.9943775697
 20
38.7006856156
 10
248.3707800102
 20
39.4476709416
 10
248.7870523157
 20
40.1762742676
 10
249.2397953429
 20
40.8805466594
 10
249.7253125498
 20
41.5547373872
 10
250.2396397618
 20
42.1933415279
 10
250.7785775723
 20
42.7911454376
 10
251.3377249284
 20
43.3432674338
 10
251.9125167996
 20
43.8451990082
 10
252.4982598707
 20
44.2928424667
 10
253.0901713472
 20
44.6825430645
 10
253.683418319
 20
45.011117815
 10
254.2731567797
 20
45.2758847064
 10
254.8545715012
 20
45.474682071
 10
255.422915168
 20
45.6058857012
 10
255.9735472802
 20
45.6684252247
 10
256.5019715593
 20
45.6617892719
 10
256.6199563934
 20
45.6504667718
  0
LINE
  5
279
330
1F
100
AcDbEntity
  8
0
  6
Continuous
 62
     7
370
    15
100
AcDbLine
 10
245.8829516414
 20
36.0754398189
 30
0.0
 11
246.4580895118
 21
35.7434197935
 31
0.0
  0
ARC
  5
27A
330
1F
100
AcDbEntity
  8
0
  6
Continuous
 62
     7
370
    15
100
AcDbCircle
 10
255.5130708633
 20
42.1836629355
 30
0.0
 40
4.347756125835152
100
AcDbArc
 50
73.9805380809
 51
106.2228094608
  0
LINE
  5
27B
330
1F
100
AcDbEntity
  8
0
  6
Continuous
 62
     7
370
    15
100
AcDbLine
 10
257.2880322794
 20
46.0305670287
 30
0.0
 11
256.712894409
 21
46.3625870541
 31
0.0
  0
LINE
  5
27C
330
1F
100
AcDbEntity
  8
0
  6
Continuous
 62
     7
370
    15
100
AcDbLine
 10
247.4445802285
 20
35.521572676
 30
0.0
 11
247.1941387815
 21
35.666149446
 31
0.0
  0
SPLINE
  5
27D
330
1F
100
AcDbEntity
  8
0
  6
Continuous
 62
     7
370
    15
100
AcDbSpline
210
0.0
220
0.0
230
1.0
 70
     8
 71
     3
 72
    11
 73
     7
 74
     0
 42
0.000000001
 43
0.00000001
 40
0.0
 40
0.0
 40
0.0
 40
0.0
 40
0.3165694752064712
 40
0.6331520400060429
 40
0.9494411625907934
 40
1.0
 40
1.0
 40
1.0
 40
1.0
 10
251.6823493036929
 20
42.85920814516152
 30
0.0
 10
251.6289132316114
 20
42.84033667999348
 30
0.0
 10
251.5220388779605
 20
42.80259296935542
 30
0.0
 10
251.395658798281
 20
42.69866668967814
 30
0.0
 10
251.3233777218983
 20
42.60939013548915
 30
0.0
 10
251.3094037364783
 20
42.55789046449003
 30
0.0
 10
251.3074778474621
 20
42.55079280067118
 30
0.0
  0
SPLINE
  5
27E
330
1F
100
AcDbEntity
  8
0
  6
Continuous
 62
     7
370
    15
100
AcDbSpline
210
0.0
220
0.0
230
1.0
 70
     8
 71
     3
 72
    14
 73
    10
 74
     0
 42
0.000000001
 43
0.00000001
 40
0.0
 40
0.0
 40
0.0
 40
0.0
 40
0.25
 40
0.25
 40
0.5
 40
0.5
 40
0.75
 40
0.75
 40
1.0
 40
1.0
 40
1.0
 40
1.0
 10
247.1941387364112
 20
35.66614951375285
 30
0.0
 10
247.179085139028
 20
35.67483977054486
 30
0.0
 10
247.1607755563523
 20
35.68172447498947
 30
0.0
 10
247.1208012053484
 20
35.69068660844246
 30
0.0
 10
247.0990276578124
 20
35.69275656188239
 30
0.0
 10
247.0565413976156
 20
35.69197968415649
 30
0.0
 10
247.0352148776356
 20
35.68914432298919
 30
0.0
 10
246.9962176507153
 20
35.67925094847532
 30
0.0
 10
246.9782529745034
 20
35.6721466140809
 30
0.0
 10
246.9631516682635
 20
35.66342881555211
 30
0.0
  0
LINE
  5
27F
330
1F
100
AcDbEntity
  8
0
  6
Continuous
 62
     7
370
    15
100
AcDbLine
 10
246.9631516611
 20
35.6634287999
 30
0.0
 11
246.9435438935
 21
35.6521094766
 31
0.0
  0
SPLINE
  5
280
330
1F
100
AcDbEntity
  8
0
  6
Continuous
 62
     7
370
    15
100
AcDbSpline
210
0.0
220
0.0
230
1.0
 70
     8
 71
     3
 72
    14
 73
    10
 74
     0
 42
0.000000001
 43
0.00000001
 40
0.0
 40
0.0
 40
0.0
 40
0.0
 40
0.25
 40
0.25
 40
0.5
 40
0.5
 40
0.75
 40
0.75
 40
1.0
 40
1.0
 40
1.0
 40
1.0
 10
249.4306880672622
 20
35.30830478574977
 30
0.0
 10
249.4120943277019
 20
35.32134205402843
 30
0.0
 10
249.3894446794291
 20
35.33145018203597
 30
0.0
 10
249.3396622175045
 20
35.34471500416061
 30
0.0
 10
249.3125109988844
 20
35.34783469353711
 30
0.0
 10
249.2590581247719
 20
35.34733325068451
 30
0.0
 10
249.232401118027
 20
35.34375702008853
 30
0.0
 10
249.1834075614616
 20
35.33120862563769
 30
0.0
 10
249.1610506224173
 20
35.32229207767642
 30
0.0
 10
249.1420050413077
 20
35.31129729773232
 30
0.0
  0
SPLINE
  5
281
330
1F
100
AcDbEntity
  8
0
  6
Continuous
 62
     7
370
    15
100
AcDbSpline
210
0.0
220
0.0
230
1.0
 70
     8
 71
     3
 72
    10
 73
     6
 74
     0
 42
0.000000001
 43
0.00000001
 40
0.0
 40
0.0
 40
0.0
 40
0.0
 40
0.5
 40
0.5
 40
1.0
 40
1.0
 40
1.0
 40
1.0
 10
245.8421466152034
 20
36.0872190904235
 30
0.0
 10
245.8450731289723
 20
36.08896629038077
 30
0.0
 10
245.8498026730556
 20
36.08917911141608
 30
0.0
 10
245.8634632187668
 20
36.08548709156076
 30
0.0
 10
245.8723660041239
 20
36.08155074063423
 30
0.0
 10
245.8829516113325
 20
36.07543979966771
 30
0.0
  0
ARC
  5
282
330
1F
100
AcDbEntity
  8
0
  6
Continuous
 62
     7
370
    15
100
AcDbCircle
 10
261.7702961404
 20
32.2837700035
 30
0.0
 40
16.36818197875017
100
AcDbArc
 50
143.5835897407
 51
160.8037648338
  0
SPLINE
  5
283
330
1F
100
AcDbEntity
  8
0
  6
Continuous
 62
     7
370
    15
100
AcDbSpline
210
0.0
220
0.0
230
1.0
 70
     8
 71
     3
 72
    12
 73
     8
 74
     0
 42
0.000000001
 43
0.00000001
 40
0.0
 40
0.0
 40
0.0
 40
0.0
 40
0.5000000000000022
 40
0.5000000000000022
 40
0.7500000000000011
 40
0.7500000000000011
 40
1.0
 40
1.0
 40
1.0
 40
1.0
 10
249.1420050413076
 20
31.11427752463944
 30
0.0
 10
249.1798405659295
 20
31.13611950808399
 30
0.0
 10
249.2319627893029
 20
31.14974209132399
 30
0.0
 10
249.3125130535696
 20
31.15249584286005
 30
0.0
 10
249.3392694490813
 20
31.15056669471717
 30
0.0
 10
249.3896352802444
 20
31.14101009633005
 30
0.0
 10
249.412075546581
 20
31.1336172086152
 30
0.0
 10
249.4306880672622
 20
31.12401311903538
 30
0.0
  0
SPLINE
  5
284
330
1F
100
AcDbEntity
  8
0
  6
Continuous
 62
     7
370
    15
100
AcDbSpline
210
0.0
220
0.0
230
1.0
 70
     8
 71
     3
 72
    14
 73
    10
 74
     0
 42
0.000000001
 43
0.00000001
 40
0.0
 40
0.0
 40
0.0
 40
0.0
 40
0.25
 40
0.25
 40
0.5
 40
0.5
 40
0.75
 40
0.75
 40
1.0
 40
1.0
 40
1.0
 40
1.0
 10
251.8491808457032
 20
42.98178886881681
 30
0.0
 10
251.8551172025549
 20
42.96638166128258
 30
0.0
 10
251.8548636953933
 20
42.95121420602118
 30
0.0
 10
251.8416894534091
 20
42.92483782611347
 30
0.0
 10
251.8288351152723
 20
42.91352840309669
 30
0.0
 10
251.7948740851105
 20
42.8943607926217
 30
0.0
 10
251.7739073201133
 20
42.8864099536426
 30
0.0
 10
251.7293730543952
 20
42.87206718323604
 30
0.0
 10
251.7061111837108
 20
42.86571837376268
 30
0.0
 10
251.6823492014183
 20
42.85920823554078
 30
0.0
  0
LINE
  5
285
330
1F
100
AcDbEntity
  8
0
  6
Continuous
 62
     7
370
    15
100
AcDbLine
 10
251.8427300478
 20
42.9985312059
 30
0.0
 11
251.8491808864
 21
42.98178901
 31
0.0
  0
SPLINE
  5
286
330
1F
100
AcDbEntity
  8
0
  6
Continuous
 62
     7
370
    15
100
AcDbSpline
210
0.0
220
0.0
230
1.0
 70
     8
 71
     3
 72
    10
 73
     6
 74
     0
 42
0.000000001
 43
0.00000001
 40
0.0
 40
0.0
 40
0.0
 40
0.0
 40
0.5
 40
0.5
 40
1.0
 40
1.0
 40
1.0
 40
1.0
 10
251.9591589009275
 20
43.21619944336665
 30
0.0
 10
251.9479528810323
 20
43.18738900229144
 30
0.0
 10
251.9328257256524
 20
43.15501040817006
 30
0.0
 10
251.8944354265184
 20
43.08285239363409
 30
0.0
 10
251.8712227155985
 20
43.04312191084417
 30
0.0
 10
251.8427300205625
 20
42.99853132621855
 30
0.0
  0
LINE
  5
287
330
1F
100
AcDbEntity
  8
0
  6
Continuous
 62
     7
370
    15
100
AcDbLine
 10
248.1164679019
 20
34.7192672038
 30
0.0
 11
247.3853262376
 21
35.1413463024
 31
0.0
  0
SPLINE
  5
288
330
1F
100
AcDbEntity
  8
0
  6
Continuous
 62
     7
370
    15
100
AcDbSpline
210
0.0
220
0.0
230
1.0
 70
     8
 71
     3
 72
     8
 73
     4
 74
     0
 42
0.000000001
 43
0.00000001
 40
0.0000000000000004
 40
0.0000000000000004
 40
0.0000000000000004
 40
0.0000000000000004
 40
0.0011862984959128
 40
0.0011862984959128
 40
0.0011862984959128
 40
0.0011862984959128
 10
247.385326130644
 20
35.14134632630932
 30
0.0
 10
247.3809012509409
 20
35.16618970427684
 30
0.0
 10
247.3766508483114
 20
35.19090681919749
 30
0.0
 10
247.3725655971844
 20
35.21550394988464
 30
0.0
  0
LINE
  5
289
330
1F
100
AcDbEntity
  8
0
  6
Continuous
 62
     7
370
    15
100
AcDbLine
 10
247.4144399306
 20
35.4554162604
 30
0.0
 11
247.4144399306
 21
35.3973563256
 31
0.0
  0
LINE
  5
28A
330
1F
100
AcDbEntity
  8
0
  6
Continuous
 62
     7
370
    15
100
AcDbLine
 10
247.4144399306
 20
35.1245390466
 30
0.0
 11
247.4144399306
 21
34.1515817968
 31
0.0
  0
LINE
  5
28B
330
1F
100
AcDbEntity
  8
0
  6
Continuous
 62
     7
370
    15
100
AcDbLine
 10
247.4144399306
 20
35.5389721206
 30
0.0
 11
247.4144399306
 21
35.4554162604
 31
0.0
  0
LINE
  5
28C
330
1F
100
AcDbEntity
  8
0
  6
Continuous
 62
     7
370
    15
100
AcDbLine
 10
247.4144399306
 20
34.1515817968
 30
0.0
 11
247.4144399306
 21
33.0035861797
 31
0.0
  0
LINE
  5
28D
330
1F
100
AcDbEntity
  8
0
  6
Continuous
 62
     7
370
    15
100
AcDbLine
 10
247.4144399306
 20
35.4554162604
 30
0.0
 11
247.4064826056
 21
35.3636779578
 31
0.0
  0
ARC
  5
28E
330
1F
100
AcDbEntity
  8
0
  6
Continuous
 62
     7
370
    15
100
AcDbCircle
 10
253.8105343428
 20
34.7929463965
 30
0.0
 40
6.428170212393315
100
AcDbArc
 50
176.8764611198
 51
185.7261596353
  0
LINE
  5
28F
330
1F
100
AcDbEntity
  8
0
  6
Continuous
 62
     7
370
    15
100
AcDbLine
 10
247.0149249815
 20
35.0953651361
 30
0.0
 11
247.0396340983
 21
35.6794236034
 31
0.0
  0
ARC
  5
290
330
1F
100
AcDbEntity
  8
0
  6
Continuous
 62
     7
370
    15
100
AcDbCircle
 10
251.7489200702
 20
34.9854213829
 30
0.0
 40
4.735271600304472
100
AcDbArc
 50
178.6695844123
 51
203.7430473282
  0
LINE
  5
291
330
1F
100
AcDbEntity
  8
0
  6
Continuous
 62
     7
370
    15
100
AcDbLine
 10
239.6424897119
 20
49.7302553666
 30
0.0
 11
239.6623691949
 21
49.722921042
 31
0.0
  0
LINE
  5
292
330
1F
100
AcDbEntity
  8
0
  6
Continuous
 62
     7
370
    15
100
AcDbLine
 10
235.5929459597
 20
42.7154800065
 30
0.0
 11
235.5682990095
 21
42.7367862308
 31
0.0
  0
LINE
  5
293
330
1F
100
AcDbEntity
  8
0
  6
Continuous
 62
     7
370
    15
100
AcDbLine
 10
246.0163607073
 20
35.9316332813
 30
0.0
 11
245.8421463797
 21
36.0872189491
 31
0.0
  0
LINE
  5
294
330
1F
100
AcDbEntity
  8
0
  6
Continuous
 62
     7
370
    15
100
AcDbLine
 10
246.5990100023
 20
35.5952770029
 30
0.0
 11
246.0163607073
 21
35.9316332813
 31
0.0
  0
LINE
  5
295
330
1F
100
AcDbEntity
  8
0
  6
Continuous
 62
     7
370
    15
100
AcDbLine
 10
247.3853262376
 20
30.9443266626
 30
0.0
 11
248.1164679019
 21
30.522247564
 31
0.0
  0
LINE
  5
296
330
1F
100
AcDbEntity
  8
0
  6
Continuous
 62
     7
370
    15
100
AcDbLine
 10
248.1164679019
 20
30.522247564
 30
0.0
 11
248.0982646781
 21
30.4749001148
 31
0.0
  0
SPLINE
  5
297
330
1F
100
AcDbEntity
  8
0
  6
Continuous
 62
     7
370
    15
100
AcDbSpline
210
0.0
220
0.0
230
1.0
 70
     8
 71
     3
 72
    14
 73
    10
 74
     0
 42
0.000000001
 43
0.00000001
 40
0.0
 40
0.0
 40
0.0
 40
0.0
 40
0.25
 40
0.25
 40
0.5
 40
0.5
 40
0.75
 40
0.75
 40
1.0
 40
1.0
 40
1.0
 40
1.0
 10
248.098264881974
 20
30.47490025628506
 30
0.0
 10
248.0915949447474
 20
30.45755120904243
 30
0.0
 10
248.083476847581
 20
30.44145907726409
 30
0.0
 10
248.0641580559529
 20
30.41195032219523
 30
0.0
 10
248.0528705168308
 20
30.39852247952439
 30
0.0
 10
248.0277003774616
 20
30.37710191725934
 30
0.0
 10
248.0136351070548
 20
30.36891950551548
 30
0.0
 10
247.9837619113714
 20
30.36194658811073
 30
0.0
 10
247.9683519612881
 20
30.36352551170468
 30
0.0
 10
247.9547744802092
 20
30.37136362469261
 30
0.0
  0
LINE
  5
298
330
1F
100
AcDbEntity
  8
0
  6
Continuous
 62
     7
370
    15
100
AcDbLine
 10
247.9547744152
 20
30.3713636741
 30
0.0
 11
247.3725656207
 21
30.7074656571
 31
0.0
  0
SPLINE
  5
299
330
1F
100
AcDbEntity
  8
0
  6
Continuous
 62
     7
370
    15
100
AcDbSpline
210
0.0
220
0.0
230
1.0
 70
     8
 71
     3
 72
     8
 73
     4
 74
     0
 42
0.000000001
 43
0.00000001
 40
0.0
 40
0.0
 40
0.0
 40
0.0
 40
0.0011862984959113
 40
0.0011862984959113
 40
0.0011862984959113
 40
0.0011862984959113
 10
247.3725655971845
 20
30.70746565872982
 30
0.0
 10
247.3766508483114
 20
30.7864252194854
 30
0.0
 10
247.3809012509415
 20
30.86537955427612
 30
0.0
 10
247.3853261306445
 20
30.94432655321625
 30
0.0
  0
LWPOLYLINE
  5
29A
330
1F
100
AcDbEntity
  8
0
  6
Continuous
 62
     7
370
    15
100
AcDbPolyline
 90
       12
 70
   128
 43
0.0
 10
251.7608094818
 20
27.5531803487
 10
251.7118211461
 20
27.550348723
 10
251.1853640711
 20
27.5548460696
 10
250.683698826
 20
27.624557779
 10
250.2105069382
 20
27.7589712581
 10
249.7692615712
 20
27.9571007731
 10
249.3632009203
 20
28.2174915588
 10
248.9953058211
 20
28.538233357
 10
248.6682752526
 20
28.9169709129
 10
248.3845105315
 20
29.350925574
 10
248.146093712
 20
29.8369123262
 10
247.9654059578
 20
30.3363448813
  0
LINE
  5
29B
330
1F
100
AcDbEntity
  8
0
  6
Continuous
 62
     7
370
    15
100
AcDbLine
 10
248.1164679019
 20
30.522247564
 30
0.0
 11
249.1420050397
 21
31.1142775519
 31
0.0
  0
SPLINE
  5
29C
330
1F
100
AcDbEntity
  8
0
  6
Continuous
 62
     7
370
    15
100
AcDbSpline
210
0.0
220
0.0
230
1.0
 70
     8
 71
     3
 72
     8
 73
     4
 74
     0
 42
0.000000001
 43
0.00000001
 40
0.0
 40
0.0
 40
0.0
 40
0.0
 40
1.0
 40
1.0
 40
1.0
 40
1.0
 10
247.4837734721443
 20
31.14322181505099
 30
0.0
 10
247.45089419983
 20
31.07693368444961
 30
0.0
 10
247.4180804525693
 20
31.01063493431442
 30
0.0
 10
247.3853261306445
 20
30.94432655321625
 30
0.0
  0
LINE
  5
29D
330
1F
100
AcDbEntity
  8
0
  6
Continuous
 62
     7
370
    15
100
AcDbLine
 10
247.5033812725
 20
31.1545412438
 30
0.0
 11
247.4837735049
 21
31.1432219205
 31
0.0
  0
SPLINE
  5
29E
330
1F
100
AcDbEntity
  8
0
  6
Continuous
 62
     7
370
    15
100
AcDbSpline
210
0.0
220
0.0
230
1.0
 70
     8
 71
     3
 72
    12
 73
     8
 74
     0
 42
0.000000001
 43
0.00000001
 40
0.0
 40
0.0
 40
0.0
 40
0.0
 40
0.249999999999997
 40
0.249999999999997
 40
0.499999999999994
 40
0.499999999999994
 40
1.0
 40
1.0
 40
1.0
 40
1.0
 10
247.508094147258
 20
31.28788713983545
 30
0.0
 10
247.5231336610879
 20
31.27920501330573
 30
0.0
 10
247.5352046847865
 20
31.26848426507646
 30
0.0
 10
247.5506405786588
 20
31.24543478314446
 30
0.0
 10
247.5541843727348
 20
31.23301553291591
 30
0.0
 10
247.5521653991995
 20
31.1961399423538
 30
0.0
 10
247.5334844843693
 20
31.17191937156386
 30
0.0
 10
247.50338124909
 20
31.15454114374307
 30
0.0
  0
LINE
  5
29F
330
1F
100
AcDbEntity
  8
0
  6
Continuous
 62
     7
370
    15
100
AcDbLine
 10
247.1941387815
 20
31.4691298062
 30
0.0
 11
247.5080942122
 21
31.287887194
 31
0.0
  0
SPLINE
  5
2A0
330
1F
100
AcDbEntity
  8
0
  6
Continuous
 62
     7
370
    15
100
AcDbSpline
210
0.0
220
0.0
230
1.0
 70
     8
 71
     3
 72
    10
 73
     6
 74
     0
 42
0.000000001
 43
0.00000001
 40
0.0
 40
0.0
 40
0.0
 40
0.0
 40
0.5
 40
0.5
 40
1.0
 40
1.0
 40
1.0
 40
1.0
 10
246.9631516682635
 20
31.46640904245935
 30
0.0
 10
246.9936066243989
 20
31.48399031440844
 30
0.0
 10
247.0350097366726
 20
31.49458498087995
 30
0.0
 10
247.1208078535069
 20
31.49611620903488
 30
0.0
 10
247.1637799512742
 20
31.48665549427353
 30
0.0
 10
247.1941387364112
 20
31.46912974066009
 30
0.0
  0
LINE
  5
2A1
330
1F
100
AcDbEntity
  8
0
  6
Continuous
 62
     7
370
    15
100
AcDbLine
 10
246.9435438935
 20
31.4550898368
 30
0.0
 11
246.9631516611
 21
31.4664091601
 31
0.0
  0
SPLINE
  5
2A2
330
1F
100
AcDbEntity
  8
0
  6
Continuous
 62
     7
370
    15
100
AcDbSpline
210
0.0
220
0.0
230
1.0
 70
     8
 71
     3
 72
     8
 73
     4
 74
     0
 42
0.000000001
 43
0.00000001
 40
0.0
 40
0.0
 40
0.0
 40
0.0
 40
1.0
 40
1.0
 40
1.0
 40
1.0
 10
246.599009861456
 20
31.39825727323205
 30
0.0
 10
246.7138717920149
 20
31.41716594079685
 30
0.0
 10
246.8287170394489
 20
31.43610891387795
 30
0.0
 10
246.9435438913177
 20
31.45508971376727
 30
0.0
  0
LINE
  5
2A3
330
1F
100
AcDbEntity
  8
0
  6
Continuous
 62
     7
370
    15
100
AcDbLine
 10
246.0163607073
 20
31.7346136415
 30
0.0
 11
246.5990100023
 21
31.3982573631
 31
0.0
  0
LINE
  5
2A4
330
1F
100
AcDbEntity
  8
0
  6
Continuous
 62
     7
370
    15
100
AcDbLine
 10
246.0163607073
 20
31.7346136415
 30
0.0
 11
247.2730185182
 21
32.4600667541
 31
0.0
  0
ARC
  5
2A5
330
1F
100
AcDbEntity
  8
0
  6
Continuous
 62
     7
370
    15
100
AcDbCircle
 10
251.188734515
 20
31.6814651037
 30
0.0
 40
3.938504786306847
100
AcDbArc
 50
194.3179057184
 51
238.1256858466
  0
ELLIPSE
  5
2A6
330
1F
100
AcDbEntity
  8
0
  6
Continuous
 62
     7
370
    15
100
AcDbEllipse
 10
247.1558615107
 20
32.8543166118
 30
0.0
 11
-3.002985189937135E-5
 21
0.4267244807413562
 31
0.0
210
0.0
220
0.0
230
1.0
 40
0.7174342186
 41
3.534193645557594
 42
5.104989972352402
  0
ARC
  5
2A7
330
1F
100
AcDbEntity
  8
0
  6
Continuous
 62
     7
370
    15
100
AcDbCircle
 10
251.2137471767
 20
32.6420725665
 30
0.0
 40
4.432106054756314
100
AcDbArc
 50
195.5342643695
 51
215.7345697398
  0
ARC
  5
2A8
330
1F
100
AcDbEntity
  8
0
  6
Continuous
 62
     7
370
    15
100
AcDbCircle
 10
250.1825625466
 20
32.168546267
 30
0.0
 40
3.83959580047809
100
AcDbArc
 50
194.065870688
 51
246.8527503441
  0
SPLINE
  5
2A9
330
1F
100
AcDbEntity
  8
0
  6
Continuous
 62
     7
370
    15
100
AcDbSpline
210
0.0
220
0.0
230
1.0
 70
     8
 71
     3
 72
     8
 73
     4
 74
     0
 42
0.000000001
 43
0.00000001
 40
0.0000000000000004
 40
0.0000000000000004
 40
0.0000000000000004
 40
0.0000000000000004
 40
0.0011862984959128
 40
0.0011862984959128
 40
0.0011862984959128
 40
0.0011862984959128
 10
246.5990098614561
 20
31.39825727323166
 30
0.0
 10
246.5521496738581
 20
31.34380765609775
 30
0.0
 10
246.5051737736833
 20
31.28951822603258
 30
0.0
 10
246.4580894265454
 20
31.23538151503479
 30
0.0
  0
LINE
  5
2AA
330
1F
100
AcDbEntity
  8
0
  6
Continuous
 62
     7
370
    15
100
AcDbLine
 10
245.8421463797
 20
31.6340209585
 30
0.0
 11
246.0163607073
 21
31.7346136415
 31
0.0
  0
LINE
  5
2AB
330
1F
100
AcDbEntity
  8
0
  6
Continuous
 62
     7
370
    15
100
AcDbLine
 10
246.4580895118
 20
31.2353814778
 30
0.0
 11
245.8829516414
 21
31.5674015031
 31
0.0
  0
SPLINE
  5
2AC
330
1F
100
AcDbEntity
  8
0
  6
Continuous
 62
     7
370
    15
100
AcDbSpline
210
0.0
220
0.0
230
1.0
 70
     8
 71
     3
 72
    10
 73
     6
 74
     0
 42
0.000000001
 43
0.00000001
 40
0.0
 40
0.0
 40
0.0
 40
0.0
 40
0.5
 40
0.5
 40
1.0
 40
1.0
 40
1.0
 40
1.0
 10
245.8829516113325
 20
31.56740150851289
 30
0.0
 10
245.8723878396203
 20
31.57349984411566
 30
0.0
 10
245.8634744779366
 20
31.58304281308056
 30
0.0
 10
245.849831624008
 20
31.60621324977427
 30
0.0
 10
245.8450716119861
 20
31.61977266236662
 30
0.0
 10
245.8421466152034
 20
31.63402107934836
 30
0.0
  0
ARC
  5
2AD
330
1F
100
AcDbEntity
  8
0
  6
Continuous
 62
     7
370
    15
100
AcDbCircle
 10
249.6975415164
 20
32.5371297718
 30
0.0
 40
3.934043958785966
100
AcDbArc
 50
194.9325993597
 51
238.1123668138
  0
ELLIPSE
  5
2AE
330
1F
100
AcDbEntity
  8
0
  6
Continuous
 62
     7
370
    15
100
AcDbEllipse
 10
247.131597442
 20
32.8403047095
 30
0.0
 11
0.13000378946046
 21
0.4852718104954689
 31
0.0
210
0.0
220
0.0
230
1.0
 40
0.5176380889
 41
3.619174351347737
 42
5.1899706781426
  0
SPLINE
  5
2AF
330
1F
100
AcDbEntity
  8
0
  6
Continuous
 62
     7
370
    15
100
AcDbSpline
210
0.0
220
0.0
230
1.0
 70
     8
 71
     3
 72
    12
 73
     8
 74
     0
 42
0.000000001
 43
0.00000001
 40
0.0
 40
0.0
 40
0.0
 40
0.0
 40
0.5
 40
0.5
 40
0.75
 40
0.75
 40
1.0
 40
1.0
 40
1.0
 40
1.0
 10
257.7451402775535
 20
45.64203402991668
 30
0.0
 10
257.7703642284454
 20
45.65659550681679
 30
0.0
 10
257.8023374097378
 20
45.66732803155742
 30
0.0
 10
257.8555290850604
 20
45.67283076816163
 30
0.0
 10
257.8737975527053
 20
45.67278231464206
 30
0.0
 10
257.9088526801603
 20
45.66767256199341
 30
0.0
 10
257.9251502445019
 20
45.6625365677315
 30
0.0
 10
257.9377557174374
 20
45.65525958310084
 30
0.0
  0
LINE
  5
2B0
330
1F
100
AcDbEntity
  8
0
  6
Continuous
 62
     7
370
    15
100
AcDbLine
 10
257.9377558471
 20
45.6552597317
 30
0.0
 11
258.2016231728
 21
45.502932367
 31
0.0
  0
LINE
  5
2B1
330
1F
100
AcDbEntity
  8
0
  6
Continuous
 62
     7
370
    15
100
AcDbLine
 10
258.8695699842
 20
44.6730138803
 30
0.0
 11
259.4273698265
 21
44.7953238857
 31
0.0
  0
LINE
  5
2B2
330
1F
100
AcDbEntity
  8
0
  6
Continuous
 62
     7
370
    15
100
AcDbLine
 10
259.4273698265
 20
44.7953238857
 30
0.0
 11
260.009578621
 21
44.4592219028
 31
0.0
  0
SPLINE
  5
2B3
330
1F
100
AcDbEntity
  8
0
  6
Continuous
 62
     7
370
    15
100
AcDbSpline
210
0.0
220
0.0
230
1.0
 70
     8
 71
     3
 72
    12
 73
     8
 74
     0
 42
0.000000001
 43
0.00000001
 40
0.0
 40
0.0
 40
0.0
 40
0.0
 40
0.2499999999999946
 40
0.2499999999999946
 40
0.4999999999999892
 40
0.4999999999999892
 40
1.0
 40
1.0
 40
1.0
 40
1.0
 10
260.009578586314
 20
44.45922169928053
 30
0.0
 10
260.0222410385141
 20
44.45191182122056
 30
0.0
 10
260.0311607493181
 20
44.44238217690124
 30
0.0
 10
260.0398889775549
 20
44.42236941592216
 30
0.0
 10
260.0400012824853
 20
44.4118129325566
 30
0.0
 10
260.030654332837
 20
44.38138284055864
 30
0.0
 10
260.0118389717151
 20
44.36255761857847
 30
0.0
 10
259.9866687739149
 20
44.34802717267768
 30
0.0
  0
LINE
  5
2B4
330
1F
100
AcDbEntity
  8
0
  6
Continuous
 62
     7
370
    15
100
AcDbLine
 10
257.7451403701
 20
45.6420341808
 30
0.0
 11
257.708424143
 21
45.620838354
 31
0.0
  0
ARC
  5
2B5
330
1F
100
AcDbEntity
  8
0
  6
Continuous
 62
     7
370
    15
100
AcDbCircle
 10
257.3391862831
 20
41.5967276742
 30
0.0
 40
3.914699023808293
100
AcDbArc
 50
25.4412839189
 51
46.9885114007
  0
LWPOLYLINE
  5
2B6
330
1F
100
AcDbEntity
  8
0
  6
Continuous
 62
     7
370
    15
100
AcDbPolyline
 90
        3
 70
   128
 43
0.0
 10
258.8695698524
 20
44.9454097949
 10
258.8849518716
 20
44.926424156
 10
259.0370540527
 20
44.7239116958
  0
LWPOLYLINE
  5
2B7
330
1F
100
AcDbEntity
  8
0
  6
Continuous
 62
     7
370
    15
100
AcDbPolyline
 90
       32
 70
   128
 43
0.0
 10
272.1183210464
 20
32.794342663
 10
271.7660313447
 20
32.8476874603
 10
271.4395552707
 20
32.940878143
 10
271.1522578534
 20
33.0700997847
 10
270.9159010929
 20
33.2300621726
 10
270.7401604567
 20
33.4142170365
 10
270.632231268
 20
33.6150247378
 10
270.5965315043
 20
33.8242644499
 10
270.634523859
 20
34.0333693919
 10
270.7446540022
 20
34.2337780481
 10
270.9224124188
 20
34.4172861674
 10
271.1605193272
 20
34.5763822247
 10
271.4492284664
 20
34.7045517469
 10
271.776719588
 20
34.7965476894
 10
272.1295876892
 20
34.848602305
 10
272.4933816366
 20
34.8585872329
 10
272.8532112777
 20
34.8260914715
 10
273.1943453671
 20
34.7524453866
 10
273.5028152537
 20
34.6406653203
 10
273.7659929516
 20
34.4953274506
 10
273.9731036189
 20
34.3223818889
 10
274.1156699438
 20
34.1289080024
 10
274.1878559707
 20
33.9228262836
 10
274.1867017398
 20
33.7125763847
 10
274.1122577612
 20
33.506764092
 10
273.9675737877
 20
33.3138142123
 10
273.7585695169
 20
33.1416282914
 10
273.4938017386
 20
32.9972555442
 10
273.1841109269
 20
32.8866061119
 10
272.8421771011
 20
32.8142092645
 10
272.4819986289
 20
32.7830293083
 10
272.1183210464
 20
32.794342663
  0
LWPOLYLINE
  5
2B8
330
1F
100
AcDbEntity
  8
0
  6
Continuous
 62
     7
370
    15
100
AcDbPolyline
 90
       13
 70
   128
 43
0.0
 10
272.0874102843
 20
32.5169642656
 10
271.7190410331
 20
32.5713501195
 10
271.3751580472
 20
32.6649980703
 10
271.0681922762
 20
32.794522327
 10
270.8092330828
 20
32.9552443699
 10
270.6076439161
 20
33.1413530777
 10
270.470708015
 20
33.3461235534
 10
270.4033787538
 20
33.5621525633
 10
270.4080843177
 20
33.7816350723
 10
270.484659017
 20
33.9966360274
 10
270.6303329146
 20
34.1993860724
 10
270.8398418693
 20
34.3825567531
 10
270.9820800943
 20
34.4739416225
  0
LWPOLYLINE
  5
2B9
330
1F
100
AcDbEntity
  8
0
  6
Continuous
 62
     7
370
    15
100
AcDbPolyline
 90
       15
 70
   128
 43
0.0
 10
273.8109653512
 20
34.4739424474
 10
273.8609638942
 20
34.4440104741
 10
274.092286082
 20
34.2698059426
 10
274.2623184544
 20
34.0734774382
 10
274.3649144203
 20
33.8621213596
 10
274.3963689427
 20
33.6433749731
 10
274.355543332
 20
33.4251453892
 10
274.2439144732
 20
33.2153192464
 10
274.0655161489
 20
33.0214806631
 10
273.8267951899
 20
32.8506359813
 10
273.5363811027
 20
32.7089591211
 10
273.2047683815
 20
32.601571687
 10
272.8439455565
 20
32.5323531529
 10
272.466949504
 20
32.5038076584
 10
272.0874102843
 20
32.5169642656
  0
LWPOLYLINE
  5
2BA
330
1F
100
AcDbEntity
  8
0
  6
Continuous
 62
     7
370
    15
100
AcDbPolyline
 90
       26
 70
   128
 43
0.0
 10
272.2110554401
 20
33.1365529838
 10
271.9220392216
 20
33.1846827659
 10
271.6628372228
 20
33.2727927473
 10
271.4497366322
 20
33.3953461753
 10
271.2961257257
 20
33.54464374
 10
271.2116548802
 20
33.7113051734
 10
271.2016354877
 20
33.8848565544
 10
271.266694285
 20
34.0543945034
 10
271.4027448059
 20
34.2092655643
 10
271.6012380396
 20
34.3397388861
 10
271.8497035074
 20
34.4376154164
 10
272.1325240733
 20
34.4967481826
 10
272.4319360096
 20
34.5134176715
 10
272.7291202873
 20
34.486579823
 10
273.0054071697
 20
34.4179190928
 10
273.2434366333
 20
34.3117494942
 10
273.4282490494
 20
34.1747439929
 10
273.5482370441
 20
34.0155083373
 10
273.595857056
 20
33.8440502274
 10
273.5681187333
 20
33.6711421314
 10
273.4667643377
 20
33.5076486993
 10
273.2981627479
 20
33.3638427019
 10
273.0729081793
 20
33.2487597525
 10
272.8051538276
 20
33.169631146
 10
272.5117230889
 20
33.1314291712
 10
272.2110554401
 20
33.1365529838
  0
SPLINE
  5
2BB
330
1F
100
AcDbEntity
  8
0
  6
Continuous
 62
     7
370
    15
100
AcDbSpline
210
0.0
220
0.0
230
1.0
 70
     8
 71
     3
 72
    10
 73
     6
 74
     0
 42
0.000000001
 43
0.00000001
 40
0.0
 40
0.0
 40
0.0
 40
0.0
 40
0.366706263509342
 40
0.745949885017652
 40
0.9999999999999999
 40
0.9999999999999999
 40
0.9999999999999999
 40
0.9999999999999999
 10
273.5373483399207
 20
33.68095968510047
 30
0.0
 10
273.4877470779122
 20
33.61656240736293
 30
0.0
 10
273.3868487312686
 20
33.48556616676409
 30
0.0
 10
273.2388411886612
 20
33.33087081181384
 30
0.0
 10
273.1453165365388
 20
33.2843228765424
 30
0.0
 10
273.1077984825043
 20
33.26564985385719
 30
0.0
  0
SPLINE
  5
2BC
330
1F
100
AcDbEntity
  8
0
  6
Continuous
 62
     7
370
    15
100
AcDbSpline
210
0.0
220
0.0
230
1.0
 70
     8
 71
     3
 72
    11
 73
     7
 74
     0
 42
0.000000001
 43
0.00000001
 40
0.0
 40
0.0
 40
0.0
 40
0.0
 40
0.2164584158873335
 40
0.4403159723837256
 40
0.7519046341964986
 40
1.0
 40
1.0
 40
1.0
 40
1.0
 10
273.1214921686721
 20
34.30282382861216
 30
0.0
 10
273.1499793542109
 20
34.23064990892543
 30
0.0
 10
273.2079274951947
 20
34.08383496760133
 30
0.0
 10
273.3154614077138
 20
33.87288539121643
 30
0.0
 10
273.4308115346901
 20
33.7306283286414
 30
0.0
 10
273.5046274165095
 20
33.69621454352919
 30
0.0
 10
273.5373483399207
 20
33.68095968510047
 30
0.0
  0
SPLINE
  5
2BD
330
1F
100
AcDbEntity
  8
0
  6
Continuous
 62
     7
370
    15
100
AcDbSpline
210
0.0
220
0.0
230
1.0
 70
     8
 71
     3
 72
    11
 73
     7
 74
     0
 42
0.000000001
 43
0.00000001
 40
0.0
 40
0.0
 40
0.0
 40
0.0
 40
0.1849320849278038
 40
0.5198466554984204
 40
0.8714445980941511
 40
1.0
 40
1.0
 40
1.0
 40
1.0
 10
271.9806659817725
 20
34.40585069778952
 30
0.0
 10
272.0470680795295
 20
34.37437597521664
 30
0.0
 10
272.2337252972348
 20
34.28590009355103
 30
0.0
 10
272.5821570891916
 20
34.20152110799681
 30
0.0
 10
272.9039470575696
 20
34.23725498898438
 30
0.0
 10
273.075548029779
 20
34.28897610820302
 30
0.0
 10
273.1214921686721
 20
34.30282382861216
 30
0.0
  0
SPLINE
  5
2BE
330
1F
100
AcDbEntity
  8
0
  6
Continuous
 62
     7
370
    15
100
AcDbSpline
210
0.0
220
0.0
230
1.0
 70
     8
 71
     3
 72
    11
 73
     7
 74
     0
 42
0.000000001
 43
0.00000001
 40
0.0
 40
0.0
 40
0.0
 40
0.0
 40
0.2164576678915374
 40
0.4403160876944065
 40
0.7519042349653562
 40
1.0
 40
1.0
 40
1.0
 40
1.0
 10
271.2556980076094
 20
33.88701216889534
 30
0.0
 10
271.3053596655548
 20
33.89297830400821
 30
0.0
 10
271.4063809282705
 20
33.90511455816426
 30
0.0
 10
271.5938453286364
 20
33.98913769136168
 30
0.0
 10
271.7949375349906
 20
34.16328520489457
 30
0.0
 10
271.9236226537641
 20
34.33135083945076
 30
0.0
 10
271.9806659817725
 20
34.40585069778952
 30
0.0
  0
SPLINE
  5
2BF
330
1F
100
AcDbEntity
  8
0
  6
Continuous
 62
     7
370
    15
100
AcDbSpline
210
0.0
220
0.0
230
1.0
 70
     8
 71
     3
 72
    11
 73
     7
 74
     0
 42
0.000000001
 43
0.00000001
 40
0.0
 40
0.0
 40
0.0
 40
0.0
 40
0.1085194910948514
 40
0.3632151606471786
 40
0.7177275750922854
 40
1.0
 40
1.0
 40
1.0
 40
1.0
 10
271.6230710785091
 20
33.29218225592638
 30
0.0
 10
271.6104511995634
 20
33.29843462810574
 30
0.0
 10
271.5682124154301
 20
33.31936134221617
 30
0.0
 10
271.4773773357965
 20
33.41691013417991
 30
0.0
 10
271.362279996167
 20
33.61770799416686
 30
0.0
 10
271.2884328082922
 20
33.80430008402918
 30
0.0
 10
271.2556980076094
 20
33.88701216889534
 30
0.0
  0
LINE
  5
2C0
330
1F
100
AcDbEntity
  8
0
  6
Continuous
 62
     7
370
    15
100
AcDbLine
 10
273.1214921687
 20
33.268941676
 30
0.0
 11
273.1214921687
 21
34.3028238286
 31
0.0
  0
LINE
  5
2C1
330
1F
100
AcDbEntity
  8
0
  6
Continuous
 62
     7
370
    15
100
AcDbLine
 10
271.9806659818
 20
33.1711570639
 30
0.0
 11
271.9806659818
 21
34.4058506978
 31
0.0
  0
ARC
  5
2C2
330
1F
100
AcDbEntity
  8
0
  6
Continuous
 62
     7
370
    15
100
AcDbCircle
 10
251.8972476516
 20
42.146992345
 30
0.0
 40
0.6230297263809403
100
AcDbArc
 50
79.5861017376
 51
142.8221932109
  0
ARC
  5
2C3
330
1F
100
AcDbEntity
  8
0
  6
Continuous
 62
     7
370
    15
100
AcDbCircle
 10
251.8844108918
 20
42.1804585021
 30
0.0
 40
0.585375956434236
100
AcDbArc
 50
78.2685922876
 51
144.4072601207
  0
ARC
  5
2C4
330
1F
100
AcDbEntity
  8
0
  6
Continuous
 62
     7
370
    15
100
AcDbCircle
 10
251.8730604081
 20
42.2099101783
 30
0.0
 40
0.4998188980741842
100
AcDbArc
 50
80.705870252
 51
142.2259793291
  0
LWPOLYLINE
  5
2C5
330
1F
100
AcDbEntity
  8
0
  6
Continuous
 62
     7
370
     0
100
AcDbPolyline
 90
       32
 70
   128
 43
0.0
 10
260.8412731828
 20
43.2811778606
 10
260.3660708902
 20
43.2901461782
 10
259.8303509916
 20
43.2371260226
 10
259.2773296799
 20
43.1192265458
 10
258.7112157132
 20
42.9373437102
 10
258.1363174213
 20
42.6928622948
 10
257.5570103056
 20
42.3876426658
 10
256.9777031899
 20
42.024008536
 10
256.402804898
 20
41.6047265121
 10
255.8366909313
 20
41.1329880744
 10
255.2836696196
 20
40.6123827358
 10
254.747949721
 20
40.0468738621
 10
254.2336085478
 20
39.4407638459
 10
253.7445602253
 20
38.7986666565
 10
253.2845271104
 20
38.1254688313
 10
252.8570102891
 20
37.4262935845
 10
252.4652632347
 20
36.706462178
 10
252.1122675734
 20
35.9714528588
 10
251.8007096398
 20
35.2268593399
 10
251.5329601943
 20
34.4783486724
 10
251.3110580905
 20
33.7316177489
 10
251.1366907831
 20
32.992349046
 10
251.0111864244
 20
32.2661694082
 10
250.9354996407
 20
31.5586050298
 10
250.91020679
 20
30.8750413027
 10
250.9354996407
 20
30.2206800794
 10
251.0111864244
 20
29.6005018013
 10
251.1366907831
 20
29.0192264116
 10
251.3110580905
 20
28.4812779167
 10
251.5329601943
 20
27.9907497088
 10
251.8007096398
 20
27.551375971
 10
251.8143968289
 20
27.5320303358
  0
LINE
  5
2C6
330
1F
100
AcDbEntity
  8
0
  6
Continuous
 62
     7
370
     0
100
AcDbLine
 10
271.3641474465
 20
18.0276348865
 30
0.0
 11
272.0429688033
 21
17.6357596585
 31
0.0
  0
LINE
  5
2C7
330
1F
100
AcDbEntity
  8
0
  6
Continuous
 62
     7
370
     0
100
AcDbLine
 10
278.8029107921
 20
22.3219415591
 30
0.0
 11
279.4817321489
 21
21.9300663311
 31
0.0
  0
LWPOLYLINE
  5
2C8
330
1F
100
AcDbEntity
  8
0
  6
Continuous
 62
     7
370
     0
100
AcDbPolyline
 90
       19
 70
   128
 43
0.0
 10
247.9547744152
 20
34.8794019899
 10
248.1526949622
 20
35.657967684
 10
248.4005842858
 20
36.4426323167
 10
248.696511007
 20
37.2272793619
 10
249.0381681124
 20
38.0057930893
 10
249.4228919213
 20
38.7721046467
 10
249.8476842123
 20
39.5202413357
 10
250.3092338235
 20
40.2443707165
 10
250.8039429946
 20
40.9388495796
 10
251.3279552889
 20
41.5982637911
 10
251.8771864135
 20
42.2174734612
 10
252.4473550388
 20
42.7916520297
 10
253.0340169113
 20
43.3163236007
 10
253.6325992954
 20
43.7873992522
 10
254.2384361071
 20
44.2012064433
 10
254.8468051212
 20
44.5545196194
 10
255.4529641587
 20
44.8445847529
 10
256.0521884262
 20
45.069141507
 10
256.3702037838
 20
45.1622534657
  0
LINE
  5
2C9
330
1F
100
AcDbEntity
  8
0
  6
Continuous
 62
     7
370
     0
100
AcDbLine
 10
248.0982646781
 20
34.745597658
 30
0.0
 11
248.1303352688
 21
34.8911845088
 31
0.0
  0
LWPOLYLINE
  5
2CA
330
1F
100
AcDbEntity
  8
0
  6
Continuous
 62
     7
370
     0
100
AcDbPolyline
 90
        9
 70
   128
 43
0.0
 10
254.7275390641
 20
44.2959178918
 10
255.1317592725
 20
44.5099370676
 10
255.7091964511
 20
44.7670532216
 10
256.2788959293
 20
44.9630899884
 10
256.8367030156
 20
45.0966174412
 10
257.3785500123
 20
45.1666616566
 10
257.9004855207
 20
45.1727125067
 10
258.398703417
 20
45.1147257855
 10
258.8695701159
 20
44.9931243472
  0
LWPOLYLINE
  5
2CB
330
1F
100
AcDbEntity
  8
0
  6
Continuous
 62
     7
370
     0
100
AcDbPolyline
 90
       20
 70
   128
 43
0.0
 10
249.4306880346
 20
35.3083046785
 10
249.6298266255
 20
36.0088534577
 10
249.8768245433
 20
36.7121936641
 10
250.1693895264
 20
37.4118008931
 10
250.5048091617
 20
38.1011866735
 10
250.8799714312
 20
38.7739558046
 10
251.2913968491
 20
39.4238687106
 10
251.7352695452
 20
40.0448977123
 10
252.2074717724
 20
40.6312807124
 10
252.7036242096
 20
41.1775809643
 10
253.2191246845
 20
41.6787295022
 10
253.7491915713
 20
42.1300787874
 10
254.288908407
 20
42.5274418495
 10
254.8332690023
 20
42.8671341451
 10
255.3772242305
 20
43.1460036111
 10
255.9157286529
 20
43.3614642724
 10
256.4437874398
 20
43.5115172459
 10
256.9565025349
 20
43.5947706977
 10
257.4491183247
 20
43.6104528238
 10
257.7951268288
 20
43.5788719453
  0
ARC
  5
2CC
330
1F
100
AcDbEntity
  8
0
  6
Continuous
 62
     7
370
     0
100
AcDbCircle
 10
252.850901557
 20
32.2860304992
 30
0.0
 40
3.612221625535323
100
AcDbArc
 50
198.7651910149
 51
216.3742314258
  0
LWPOLYLINE
  5
2CD
330
1F
100
AcDbEntity
  8
0
  6
Continuous
 62
     7
370
     0
100
AcDbPolyline
 90
       25
 70
   128
 43
0.0
 10
249.1420050397
 20
35.3112971917
 10
249.3341261802
 20
36.002455369
 10
249.5719898223
 20
36.6969613745
 10
249.8535486828
 20
37.3888369454
 10
250.1763798447
 20
38.0721272761
 10
250.5377031964
 20
38.7409496866
 10
250.9344093544
 20
39.3895477646
 10
251.3630831067
 20
40.0123377514
 10
251.8200344967
 20
40.6039590342
 10
252.3013301699
 20
41.1593187058
 10
252.8028269592
 20
41.673636505
 10
253.3202082372
 20
42.1424852697
 10
253.8490203991
 20
42.5618290329
 10
254.3847113053
 20
42.9280579908
 10
254.9226698272
 20
43.238019849
 10
255.4582652445
 20
43.4890462164
 10
255.9868871528
 20
43.6789768605
 10
256.503985125
 20
43.8061759107
 10
257.0051081245
 20
43.8695491365
 10
257.4859425531
 20
43.868550702
 10
257.9423491951
 20
43.8031898931
 10
258.3703994374
 20
43.6740283001
 10
258.7664088553
 20
43.4821785216
 10
259.126968032
 20
43.2292915383
 10
259.2138358478
 20
43.1544109486
  0
ARC
  5
2CE
330
1F
100
AcDbEntity
  8
0
  6
Continuous
 62
     7
370
     0
100
AcDbCircle
 10
257.4693038712
 20
41.5474747438
 30
0.0
 40
3.765663467704449
100
AcDbArc
 50
27.969578927
 51
48.0482116561
  0
LWPOLYLINE
  5
2CF
330
1F
100
AcDbEntity
  8
0
  6
Continuous
 62
     7
370
     0
100
AcDbPolyline
 90
       19
 70
   128
 43
0.0
 10
245.8829516414
 20
36.0754398189
 10
246.0808721883
 20
36.854005513
 10
246.328761512
 20
37.6386701456
 10
246.6246882331
 20
38.4233171908
 10
246.9663453386
 20
39.2018309183
 10
247.3510691475
 20
39.9681424757
 10
247.7758614384
 20
40.7162791646
 10
248.2374110496
 20
41.4404085455
 10
248.7321202207
 20
42.1348874086
 10
249.2561325151
 20
42.79430162
 10
249.8053636397
 20
43.4135112902
 10
250.375532265
 20
43.9876898586
 10
250.9621941374
 20
44.5123614296
 10
251.5607765216
 20
44.9834370811
 10
252.1666133333
 20
45.3972442722
 10
252.7749823474
 20
45.7505574484
 10
253.3811413849
 20
46.0406225819
 10
253.9803656524
 20
46.2651793359
 10
254.298423552
 20
46.3583024695
  0
LWPOLYLINE
  5
2D0
330
1F
100
AcDbEntity
  8
0
  6
Continuous
 62
     7
370
     0
100
AcDbPolyline
 90
       19
 70
   128
 43
0.0
 10
247.1941387815
 20
35.666149446
 10
247.3846119803
 20
36.414567896
 10
247.6244934027
 20
37.1689041948
 10
247.911802147
 20
37.9229279038
 10
248.2441653455
 20
38.670411663
 10
248.6188376579
 20
39.405181988
 10
249.0327247152
 20
40.1211699147
 10
249.4824081446
 20
40.8124619483
 10
249.9641740186
 20
41.4733496424
 10
250.4740434111
 20
42.0983730945
 10
251.0078047983
 20
42.6823706779
 10
251.5610502786
 20
43.2205194181
 10
252.1292102114
 20
43.708374458
 10
252.7075922037
 20
44.1419067734
 10
253.2914192397
 20
44.5175355264
 10
253.8758693575
 20
44.8321576634
 10
254.4561155247
 20
45.0831758011
 10
255.0273654142
 20
45.2685163218
 10
255.2004893896
 20
45.3120548286
  0
LINE
  5
2D1
330
1F
100
AcDbEntity
  8
0
  6
Continuous
 62
     7
370
     0
100
AcDbLine
 10
251.6823493037
 20
42.8592081452
 30
0.0
 11
251.8264400274
 21
42.9946033315
 31
0.0
  0
LWPOLYLINE
  5
2D2
330
1F
100
AcDbEntity
  8
0
  6
Continuous
 62
     7
370
     0
100
AcDbPolyline
 90
       21
 70
   128
 43
0.0
 10
246.9631516611
 20
35.6634287999
 10
247.1530469213
 20
36.4207179516
 10
247.3928350938
 20
37.1843510702
 10
247.680554243
 20
37.9480822016
 10
248.0138515211
 20
38.705666037
 10
248.3900016073
 20
39.4509068848
 10
248.8059277818
 20
40.1777094672
 10
249.2582285306
 20
40.8801307817
 10
249.7432054675
 20
41.5524260304
 10
250.256891784
 20
42.1890966782
 10
250.7950867563
 20
42.78493623
 10
251.3533889364
 20
43.3350719003
 10
251.9272323717
 20
43.8350043828
 10
252.5119240766
 20
44.2806459073
 10
253.1026823428
 20
44.6683502652
 10
253.6946759069
 20
44.9949481959
 10
254.2830633306
 20
45.2577689044
 10
254.8630327445
 20
45.4546617872
 10
255.4298409489
 20
45.5840171804
 10
255.9788525147
 20
45.6447773728
 10
256.4989369862
 20
45.6369935994
  0
LINE
  5
2D3
330
1F
100
AcDbEntity
  8
0
  6
Continuous
 62
     7
370
     0
100
AcDbLine
 10
249.1420050397
 20
31.1142775519
 30
0.0
 11
249.3731257128
 21
31.2477006766
 31
0.0
  0
ARC
  5
2D4
330
1F
100
AcDbEntity
  8
0
  6
Continuous
 62
     7
370
     0
100
AcDbCircle
 10
250.1415699805
 20
32.3486864807
 30
0.0
 40
1.342637826657831
100
AcDbArc
 50
235.0864926813
 51
288.6356526405
  0
ARC
  5
2D5
330
1F
100
AcDbEntity
  8
0
  6
Continuous
 62
     7
370
     0
100
AcDbCircle
 10
250.2800235726
 20
32.5565814464
 30
0.0
 40
1.029649333780331
100
AcDbArc
 50
232.6930359511
 51
300.1497192481
  0
ARC
  5
2D6
330
1F
100
AcDbEntity
  8
0
  6
Continuous
 62
     7
370
     0
100
AcDbCircle
 10
249.0418844738
 20
31.7655415897
 30
0.0
 40
0.6147194236513531
100
AcDbArc
 50
302.6053519586
 51
357.394632491
  0
LINE
  5
2D7
330
1F
100
AcDbEntity
  8
0
  6
Continuous
 62
     7
370
     0
100
AcDbLine
 10
247.438704003
 20
33.0175980841
 30
0.0
 11
249.6559684717
 21
31.7375985519
 31
0.0
  0
LINE
  5
2D8
330
1F
100
AcDbEntity
  8
0
  6
Continuous
 62
     7
370
     0
100
AcDbLine
 10
247.4144399306
 20
33.0035861797
 30
0.0
 11
247.438704003
 21
33.0175980841
 31
0.0
  0
LWPOLYLINE
  5
2D9
330
1F
100
AcDbEntity
  8
0
  6
Continuous
 62
     7
370
     0
100
AcDbPolyline
 90
        3
 70
   128
 43
0.0
 10
247.3828012134
 20
34.8344274595
 10
247.3826205088
 20
34.8830990264
 10
247.3875264019
 20
35.1400763917
  0
LWPOLYLINE
  5
2DA
330
1F
100
AcDbEntity
  8
0
  6
Continuous
 62
     7
370
     0
100
AcDbPolyline
 90
       18
 70
   128
 43
0.0
 10
234.9486389206
 20
44.4396216262
 10
234.9743271613
 20
44.8975786762
 10
235.0509338
 20
45.3770226943
 10
235.1770914348
 20
45.8693977267
 10
235.3505488972
 20
46.3659174825
 10
235.5682107646
 20
46.8577214144
 10
235.8261930731
 20
47.3360333087
 10
236.1198920699
 20
47.7923178577
 10
236.4440665308
 20
48.2184328206
 10
236.7929316693
 20
48.6067735792
 10
237.1602620007
 20
48.9504105431
 10
237.5395024058
 20
49.2432115174
 10
237.9238854097
 20
49.4799513835
 10
238.3065516704
 20
49.6564053823
 10
238.6806724846
 20
49.7694250064
 10
239.0395716682
 20
49.8169931508
 10
239.3768445794
 20
49.7982608845
 10
239.6424897119
 20
49.7302553666
  0
ARC
  5
2DB
330
1F
100
AcDbEntity
  8
0
  6
Continuous
 62
     7
370
     0
100
AcDbCircle
 10
237.1079149614
 20
44.2612154678
 30
0.0
 40
2.166633743378974
100
AcDbArc
 50
175.2767713467
 51
224.7160200035
  0
LINE
  5
2DC
330
1F
100
AcDbEntity
  8
0
  6
Continuous
 62
     7
370
     0
100
AcDbLine
 10
247.9654059578
 20
30.3363448813
 30
0.0
 11
247.9547744152
 21
30.3713636741
 31
0.0
  0
LWPOLYLINE
  5
2DD
330
1F
100
AcDbEntity
  8
0
  6
Continuous
 62
     7
370
     0
100
AcDbPolyline
 90
       11
 70
   128
 43
0.0
 10
251.7519146528
 20
27.6073735484
 10
251.274080553
 20
27.6181850186
 10
250.7770346026
 20
27.6925916967
 10
250.3088189404
 20
27.8317826972
 10
249.872920428
 20
28.0347223987
 10
249.4725854265
 20
28.2998980881
 10
249.1107958252
 20
28.6253362364
 10
248.7902453346
 20
29.008611931
 10
248.5133221007
 20
29.4468713868
 10
248.282087631
 20
29.9368505036
 10
248.0982646781
 20
30.4749001148
  0
ARC
  5
2DE
330
1F
100
AcDbEntity
  8
0
  6
Continuous
 62
     7
370
     0
100
AcDbCircle
 10
252.1381365401
 20
31.9902151264
 30
0.0
 40
3.121549391270359
100
AcDbArc
 50
196.2966071242
 51
249.9764815425
  0
LINE
  5
2DF
330
1F
100
AcDbEntity
  8
0
  6
Continuous
 62
     7
370
     0
100
AcDbLine
 10
249.3731257128
 20
31.2477006766
 30
0.0
 11
247.2730185182
 21
32.4600667541
 31
0.0
  0
LINE
  5
2E0
330
1F
100
AcDbEntity
  8
0
  6
Continuous
 62
     7
370
     0
100
AcDbLine
 10
247.5390726727
 20
31.1878764207
 30
0.0
 11
247.5080942122
 21
31.287887194
 31
0.0
  0
LWPOLYLINE
  5
2E1
330
1F
100
AcDbEntity
  8
0
  6
Continuous
 62
     7
370
     0
100
AcDbPolyline
 90
        3
 70
   128
 43
0.0
 10
247.3826800741
 20
30.9451483158
 10
247.3791144507
 20
30.9535304724
 10
247.1941387815
 20
31.4691298062
  0
ARC
  5
2E2
330
1F
100
AcDbEntity
  8
0
  6
Continuous
 62
     7
370
     0
100
AcDbCircle
 10
251.258608441
 20
32.6695362948
 30
0.0
 40
4.460769423568068
100
AcDbArc
 50
195.6471844777
 51
214.1548056384
  0
LINE
  5
2E3
330
1F
100
AcDbEntity
  8
0
  6
Continuous
 62
     7
370
     0
100
AcDbLine
 10
245.896351705
 20
31.523395148
 30
0.0
 11
245.8829516414
 21
31.5674015031
 31
0.0
  0
OLE2FRAME
  5
2E4
330
1F
100
AcDbEntity
  8
0
100
AcDbOle2Frame
 70
     2
  3
Paintbrush-Bild
 10
13.8511154363
 20
38.264191557
 30
0.0
 11
51.6290888628
 21
31.9806341108
 31
0.0
 71
     2
 72
     0
 73
     1
 90
    12928
310
80552BED0767C5B32B40DDAF6807D121434000000000000000006FFBDDFB85D0
310
4940DDAF6807D121434000000000000000006FFBDDFB85D04940416F4BD60AFB
310
3F4000000000000000002BED0767C5B32B40416F4BD60AFB3F40000000000000
310
0000000000000100000000010000010000000100000000000100000000320000
310
D0CF11E0A1B11AE1000000000000000000000000000000003E000300FEFF0900
310
0600000000000000000000000100000001000000000000000010000002000000
310
01000000FEFFFFFF0000000000000000FFFFFFFFFFFFFFFFFFFFFFFFFFFFFFFF
310
FFFFFFFFFFFFFFFFFFFFFFFFFFFFFFFFFFFFFFFFFFFFFFFFFFFFFFFFFFFFFFFF
310
FFFFFFFFFFFFFFFFFFFFFFFFFFFFFFFFFFFFFFFFFFFFFFFFFFFFFFFFFFFFFFFF
310
FFFFFFFFFFFFFFFFFFFFFFFFFFFFFFFFFFFFFFFFFFFFFFFFFFFFFFFFFFFFFFFF
310
FFFFFFFFFFFFFFFFFFFFFFFFFFFFFFFFFFFFFFFFFFFFFFFFFFFFFFFFFFFFFFFF
310
FFFFFFFFFFFFFFFFFFFFFFFFFFFFFFFFFFFFFFFFFFFFFFFFFFFFFFFFFFFFFFFF
310
FFFFFFFFFFFFFFFFFFFFFFFFFFFFFFFFFFFFFFFFFFFFFFFFFFFFFFFFFFFFFFFF
310
FFFFFFFFFFFFFFFFFFFFFFFFFFFFFFFFFFFFFFFFFFFFFFFFFFFFFFFFFFFFFFFF
310
FFFFFFFFFFFFFFFFFFFFFFFFFFFFFFFFFFFFFFFFFFFFFFFFFFFFFFFFFFFFFFFF
310
FFFFFFFFFFFFFFFFFFFFFFFFFFFFFFFFFFFFFFFFFFFFFFFFFFFFFFFFFFFFFFFF
310
FFFFFFFFFFFFFFFFFFFFFFFFFFFFFFFFFFFFFFFFFFFFFFFFFFFFFFFFFFFFFFFF
310
FFFFFFFFFFFFFFFFFFFFFFFFFFFFFFFFFFFFFFFFFFFFFFFFFFFFFFFFFFFFFFFF
310
FFFFFFFFFFFFFFFFFFFFFFFFFFFFFFFFFFFFFFFFFFFFFFFFFFFFFFFFFFFFFFFF
310
FFFFFFFFFFFFFFFFFFFFFFFFFFFFFFFFFFFFFFFFFFFFFFFFFFFFFFFFFFFFFFFF
310
FDFFFFFFFEFFFFFFFEFFFFFFFEFFFFFF05000000060000000700000008000000
310
090000000A0000000B0000000C0000000D0000000E0000000F00000010000000
310
11000000120000001300000014000000150000001600000017000000FEFFFFFF
310
FFFFFFFFFFFFFFFFFFFFFFFFFFFFFFFFFFFFFFFFFFFFFFFFFFFFFFFFFFFFFFFF
310
FFFFFFFFFFFFFFFFFFFFFFFFFFFFFFFFFFFFFFFFFFFFFFFFFFFFFFFFFFFFFFFF
310
FFFFFFFFFFFFFFFFFFFFFFFFFFFFFFFFFFFFFFFFFFFFFFFFFFFFFFFFFFFFFFFF
310
FFFFFFFFFFFFFFFFFFFFFFFFFFFFFFFFFFFFFFFFFFFFFFFFFFFFFFFFFFFFFFFF
310
FFFFFFFFFFFFFFFFFFFFFFFFFFFFFFFFFFFFFFFFFFFFFFFFFFFFFFFFFFFFFFFF
310
FFFFFFFFFFFFFFFFFFFFFFFFFFFFFFFFFFFFFFFFFFFFFFFFFFFFFFFFFFFFFFFF
310
FFFFFFFFFFFFFFFFFFFFFFFFFFFFFFFFFFFFFFFFFFFFFFFFFFFFFFFFFFFFFFFF
310
FFFFFFFFFFFFFFFFFFFFFFFFFFFFFFFFFFFFFFFFFFFFFFFFFFFFFFFFFFFFFFFF
310
FFFFFFFFFFFFFFFFFFFFFFFFFFFFFFFFFFFFFFFFFFFFFFFFFFFFFFFFFFFFFFFF
310
FFFFFFFFFFFFFFFFFFFFFFFFFFFFFFFFFFFFFFFFFFFFFFFFFFFFFFFFFFFFFFFF
310
FFFFFFFFFFFFFFFFFFFFFFFFFFFFFFFFFFFFFFFFFFFFFFFFFFFFFFFFFFFFFFFF
310
FFFFFFFFFFFFFFFFFFFFFFFFFFFFFFFFFFFFFFFFFFFFFFFFFFFFFFFFFFFFFFFF
310
FFFFFFFFFFFFFFFFFFFFFFFFFFFFFFFFFFFFFFFFFFFFFFFFFFFFFFFFFFFFFFFF
310
52006F006F007400200045006E00740072007900000000000000000000000000
310
0000000000000000000000000000000000000000000000000000000000000000
310
16000500FFFFFFFFFFFFFFFF020000000A00030000000000C000000000000046
310
000000000000000000000000C08D972F6403D20103000000C000000000000000
310
01004F006C006500000000000000000000000000000000000000000000000000
310
0000000000000000000000000000000000000000000000000000000000000000
310
0A000200FFFFFFFFFFFFFFFFFFFFFFFF00000000000000000000000000000000
310
0000000000000000000000000000000000000000000000001400000000000000
310
010043006F006D0070004F0062006A0000000000000000000000000000000000
310
0000000000000000000000000000000000000000000000000000000000000000
310
120002010100000003000000FFFFFFFF00000000000000000000000000000000
310
0000000000000000000000000000000000000000010000004D00000000000000
310
01004F006C006500310030004E00610074006900760065000000000000000000
310
0000000000000000000000000000000000000000000000000000000000000000
310
1A000200FFFFFFFFFFFFFFFFFFFFFFFF00000000000000000000000000000000
310
0000000000000000000000000000000000000000040000002426000000000000
310
FEFFFFFF02000000FEFFFFFFFFFFFFFFFFFFFFFFFFFFFFFFFFFFFFFFFFFFFFFF
310
FFFFFFFFFFFFFFFFFFFFFFFFFFFFFFFFFFFFFFFFFFFFFFFFFFFFFFFFFFFFFFFF
310
FFFFFFFFFFFFFFFFFFFFFFFFFFFFFFFFFFFFFFFFFFFFFFFFFFFFFFFFFFFFFFFF
310
FFFFFFFFFFFFFFFFFFFFFFFFFFFFFFFFFFFFFFFFFFFFFFFFFFFFFFFFFFFFFFFF
310
FFFFFFFFFFFFFFFFFFFFFFFFFFFFFFFFFFFFFFFFFFFFFFFFFFFFFFFFFFFFFFFF
310
FFFFFFFFFFFFFFFFFFFFFFFFFFFFFFFFFFFFFFFFFFFFFFFFFFFFFFFFFFFFFFFF
310
FFFFFFFFFFFFFFFFFFFFFFFFFFFFFFFFFFFFFFFFFFFFFFFFFFFFFFFFFFFFFFFF
310
FFFFFFFFFFFFFFFFFFFFFFFFFFFFFFFFFFFFFFFFFFFFFFFFFFFFFFFFFFFFFFFF
310
FFFFFFFFFFFFFFFFFFFFFFFFFFFFFFFFFFFFFFFFFFFFFFFFFFFFFFFFFFFFFFFF
310
FFFFFFFFFFFFFFFFFFFFFFFFFFFFFFFFFFFFFFFFFFFFFFFFFFFFFFFFFFFFFFFF
310
FFFFFFFFFFFFFFFFFFFFFFFFFFFFFFFFFFFFFFFFFFFFFFFFFFFFFFFFFFFFFFFF
310
FFFFFFFFFFFFFFFFFFFFFFFFFFFFFFFFFFFFFFFFFFFFFFFFFFFFFFFFFFFFFFFF
310
FFFFFFFFFFFFFFFFFFFFFFFFFFFFFFFFFFFFFFFFFFFFFFFFFFFFFFFFFFFFFFFF
310
FFFFFFFFFFFFFFFFFFFFFFFFFFFFFFFFFFFFFFFFFFFFFFFFFFFFFFFFFFFFFFFF
310
FFFFFFFFFFFFFFFFFFFFFFFFFFFFFFFFFFFFFFFFFFFFFFFFFFFFFFFFFFFFFFFF
310
FFFFFFFFFFFFFFFFFFFFFFFFFFFFFFFFFFFFFFFFFFFFFFFFFFFFFFFFFFFFFFFF
310
0100000200000000000000000000000000000000000000000000000000000000
310
0000000000000000000000000000000000000000000000000000000000000000
310
0100FEFF030A0000FFFFFFFF0A00030000000000C00000000000004607000000
310
5042727573680007000000504272757368000700000050427275736800F439B2
310
7100000000000000000000000000000000000000000000000000000000000000
310
0000000000000000000000000000000000000000000000000000000000000000
310
0000000000000000000000000000000000000000000000000000000000000000
310
0000000000000000000000000000000000000000000000000000000000000000
310
0000000000000000000000000000000000000000000000000000000000000000
310
0000000000000000000000000000000000000000000000000000000000000000
310
0000000000000000000000000000000000000000000000000000000000000000
310
0000000000000000000000000000000000000000000000000000000000000000
310
0000000000000000000000000000000000000000000000000000000000000000
310
0000000000000000000000000000000000000000000000000000000000000000
310
0000000000000000000000000000000000000000000000000000000000000000
310
0000000000000000000000000000000000000000000000000000000000000000
310
20260000424D0E260000000000003E00000028000000B40200006E0000000100
310
01000000000000000000130B0000130B00000200000002000000000000FFFFFF
310
FFFFFFFFFFFFFFFFFFFFFFFFFFFFFFFFFFFFFFFFFFFFFFFFFFFFFFFFFFFFFFFF
310
FFFFFFFFFFFFFFFFFFFFFFFFFFFFFFFFFFFFFFFFFFFFFFFFFFFFFFFFFFFFFFFF
310
FFFFFFFFFFFFFFFFFFFFFFFFFFFFFFFFFFFFFFFFFFFFFFFFF000FFFFFFFFFFFF
310
FFFFFFFFFFFFFFFFFFFFFFFFFFFFFFFFFFFFFFFFFFFFFFFFFFFFFFFFFFFFFFFF
310
FFFFFFFFFFFFFFFFFFFFFFFFFFFFFFFFFFFFFFFFFFFFFFFFFFFFFFFFFFFFFFFF
310
FFFFFFFFFFFFFFFFFFFFFFFFFFFFFFFFF000FFFFFFFFFFFFFFFFFFFFFFFFFFFF
310
FFFFFFFFFFFFFFFFFFFFFFFFFFFFFFFFFFFFFFFFFFFFFFFFFFFFFFFFFFFFFFFF
310
FFFFFFFFFFFFFFFFFFFFFFFFFFFFFFFFFFFFFFFFFFFFFFFFFFFFFFFFFFFFFFFF
310
FFFFFFFFFFFFFFFFF000FFFFFFFFFFFFFFFFFFFFFFFFFFFFFFFFFFFFFFFFFFFF
310
FFFFFFFFFFFFFFFFFFFFFFFFFFFFFFFFFFFFFFFFFFFFFFFFFFFFFFFFFFFFFFFF
310
FFFFFFFFFFFFFFFFFFFFFFFFFFFFFFFFFFFFFFFFFFFFFFFFFFFFFFFFFFFFFFFF
310
F000FFFFFFFFFFFFFFFFFFFFFFFFFFFFFFFFFFFFFFFFFFFFFFFFFFFFFFFFFFFF
310
FFFFFFFFFFFFFFFFFFFFFFFFFFFFFFFFFFFFFFFFFFFFFFFFFFFFFFFFFFFFFFFF
310
FFFFFFFFFFFFFFFFFFFFFFFFFFFFFFFFFFFFFFFFFFFFFFFFF000FFFFFFFFFFFF
310
FFFFFFFFFFFFFFFFFFFFFFFFFFFFFFFFFFFFFFFFFFFFFFFFFFFFFFFFFFFFFFFF
310
FFFFFFFFFFFFFFFFFFFFFFFFFFFFFFFFFFFFFFFFFFFFFFFFFFFFFFFFFFFFFFFF
310
FFFFFFFFFFFFFFFFFFFFFFFFFFFFFFFFF000FFFFFFFFFFFFFFFFFFFFFFFFFFFF
310
FFFFFFFFFFFFFFFFFFFFFFFFFFFFFFFFFFFFFFFFFFFFFFFFFFFFFFFFFFFFFFFF
310
FFFFFFFFFFFFFFFFFFFFFFFFFFFFFFFFFFFFFFFFFFFFFFFFFFFFFFFFFFFFFFFF
310
FFFFFFFFFFFFFFFFF000FFFFFFFFFFFFFFFFFFFFFFFFFFFFFFFFFFFFFFFFFFFF
310
FFFFFFFFFFFFFFFFFFFFFFFFFFFFFFFFFFFFFFFFFFFFFFFFFFFFFFFFFFFFFFFF
310
FFFFFFFFFFFFFFFFFFFFFFFFFFFFFFFFFFFFFFFFFFFFFFFFFFFFFFFFFFFFFFFF
310
F000FFFFFFFFFFFFFFFFFFFFFFFFFFFFFFFFFFFFFFFFFFFFFFFFFFFFFFFFFFFF
310
FFFFFFFFFFFFFFFFFFFFFFFFFFFFFFFFFFFFFFFFFFFFFFFFFFFFFFFFFFFFFFFF
310
FFFFFFFFFFFFFFFFFFFFFFFFFFFFFFFFFFFFFFFFFFFFFFFFF000FFFFFFFFFFFF
310
FFFFFFFFFFFFFFFFFFFFFFFFFFFFFFFFFFFFFFFFFFFFFFFFFFFFFFFFFFFFFFFF
310
FFFFFFFFFFFFFFFFFFFFFFFFFFFFFFFFFFFFFFFFFFFFFFFFFFFFFFFFFFFFFFFF
310
FFFFFFFFFFFFFFFFFFFFFFFFFFFFFFFFF000FFFFFFFFFFFFFFFFFFFFFFFFFFFF
310
FFFFFFFFFFFFFFFFFFFFFFFFFFFFFFFFFFFFFFFFFFFFFFFFFFFFFFFFFFFFFFFF
310
FFFFFFFFFFFFFFFFFFFFFFFFFFFFFFFFFFFFFFFFFFFFFFFFFFFFFFFFFFFFFFFF
310
FFFFFFFFFFFFFFFFF000FFFFFFFFFFFFFFFFFFFFFFFFFFFFFFFFFFFFFFFFFFFF
310
FFFFFFFFFFFFFFFFFFFFFFFFFFFFFFFFFFFFFFFFFFFFFFFFFFFFFFFFFFFFFFFF
310
FFFFFFFFFFFFFFFFFFFFFFFFFFFFFFFFFFFFFFFFFFFFFFFFFFFFFFFFFFFFFFFF
310
F000FFFFFFFFFFFFFFFFFFFFFFFFFFFFFFFFFFFFFFFFFFFFFFFFFFFFFFFFFFFF
310
FFFFFFFFFFFFFFFFFFFFFFFFFFFFFFFFFFFFFFFFFFFFFFFFFFFFFFFFFFFFFFFF
310
FFFFFFFFFFFFFFFFFFFFFFFFFFFFFFFFFFFFFFFFFFFFFFFFF000FFFFFFFFFFFF
310
FFFFFFFFFFFFFFFFFFFFFFFFFFFFFFFFFFFFFFFFFFFFFFFFFFFFFFFFFFFFFFFF
310
FFFFFFFFFFFFFFFFFFFFFFFFFFFFFFFFFFFFFFFFFFFFFFFFFFFFFFFFFFFFFFFF
310
FFFFFFFFFFFFFFFFFFFFFFFFFFFFFFFFF000FFFFFFFFFFFFFFFFFFFFFFFFFFFF
310
FFFFFFFFFFFFFFFFFFFFFFFFFFFFFFFFFFFFFFFFFFFFFFFFFFFFFFFFFFFFFFFF
310
FFFFFFFFFFFFFFFFFFFFFFFFFFFFFFFFFFFFFFFFFFFFFFFFFFFFFFFFFFFFFFFF
310
FFFFFFFFFFFFFFFFF000FFFFFFFFFFFFFFFFFFFFFFFFFFFFFFFFFFFFFFFFFFFF
310
FFFFFFFFFFFFFFFFFFFFFFFFFFFFFFFFFFFFFFFFFFFFFFFFFFFFFFFFFFFFFFFF
310
FFFFFFFFFFFFFFFFFFFFFFFFFFFFFFFFFFFFFFFFFFFFFFFFFFFFFFFFFFFFFFFF
310
F000FFFFFFFFFFFFFFFFFFFFFFFFFFFFFFFFFFFFFFFFFFFFFFFFFFFFFFFFFFFF
310
FFFFFFFFFFFFFFFFFFFFFFFFFFFFFFFFFFFFFFFFFFFFFFFFFFFFFFFFFFFFFFFF
310
FFFFFFFFFFFFFFFFFFFFFFFFFFFFFFFFFFFFFFFFFFFFFFFFF000FFFFFFFFFFFF
310
FFFFFFFFFFFFFFFFFFFFFFFFFFFFFFFFFFFFFFFFFFFFFFFFFFFFFFFFFFFFFFFF
310
FFFFFFFFFFFFFFFFFFFFFFFFFFFFFFFFFFFFFFFFFFFFFFFFFFFFFFFFFFFFFFFF
310
FFFFFFFFFFFFFFFFFFFFFFFFFFFFFFFFF000FFFFFFFFFFFFFFFFFFFFFFFFFFFF
310
FFFFFFFFFFFFFFFFFFFFFFFFFFFFFFFFFFFFFFFFFFFFFFFFFFFFFFFFFFFFFFFF
310
FFFFFFFFFFFFFFFFFFFFFFFFFFFFFFFFFFFFFFFFFFFFFFFFFFFFFFFFFFFFFFFF
310
FFFFFFFFFFFFFFFFF000FFFFF80003FFFFFFFFFFFFFFFFFFFFFFFFFFFFFFFFFF
310
FFFFF00007FFFFFFFFFF00007FFFFFF800000000000000007FFFFFFFFFFFFFFF
310
FFFFFFFC001FFFFFFFFFFFFFFC001FFFFFFFFFFFFFFFFFFFFFFFFFFE0007FFFF
310
F000FFFF8000007FFFFFFFF8000FFFFFC0007FFFFF80007FFFFF0000007FFFFF
310
FFF8000007FFFFF800000000000000007FFFFFF0001FFFFFFFFFFFC00001FFFF
310
FFFFFFFFC00001FFFFFFFF000000000003FFFFE000007FFFF000FFFE0000000F
310
FFFFFFF0000FFFFF80007FFFFF80007FFFFC0000001FFFFFFFC0000001FFFFF8
310
00000000000000007FFFFFF0001FFFFFFFFFFE0000003FFFFFFFFFFE0000003F
310
FFFFFF000000000003FFFF0000000FFFF000FFF800000003FFFFFFF00007FFFF
310
80007FFFFF80007FFFF000000007FFFFFF000000003FFFF80000000000000000
310
7FFFFFF0001FFFFFFFFFF80000000FFFFFFFFFF80000000FFFFFFF0000000000
310
03FFFC00000003FFF000FFE000000000FFFFFFF00007FFFF80003FFFFF80007F
310
FFC000000001FFFFFC000000001FFFF800000000000000007FFFFFF0001FFFFF
310
FFFFE000000003FFFFFFFFE000000003FFFFFF000000000003FFF000000000FF
310
F000FF80000000007FFFFFF00007FFFF80003FFFFF80007FFF8000000000FFFF
310
F80000000007FFF800000000000000007FFFFFF0001FFFFFFFFFC000000001FF
310
FFFFFFC000000001FFFFFF000000000003FFC0000000007FF000FF0000000000
310
3FFFFFE00007FFFF00003FFFFF80007FFE00000000003FFFF00000000003FFF8
310
00000000000000007FFFFFF0001FFFFFFFFF8000000000FFFFFFFF8000000000
310
FFFFFF000000000003FF80000000003FF000FE00000000001FFFFFE00003FFFF
310
00003FFFFF80007FFC00000000001FFFE00000000001FFF8000001FFFE000000
310
7FFFFFF0001FFFFFFFFE00000000003FFFFFFE00000000003FFFFF0000000000
310
03FF00000000001FF000FC00000000000FFFFFE00003FFFF00001FFFFF80007F
310
F800000000001FFFC00000000000FFF8000001FFFE0000007FFFFFF0001FFFFF
310
FFFC00000000001FFFFFFC00000000001FFFFF000000000003FE00000000000F
310
F000F8000000000007FFFFE00003FFFF00001FFFFF80007FF800000000000FFF
310
800000000000FFF8000001FFFE0000007FFFFFF0001FFFFFFFF800000000000F
310
FFFFF800000000000FFFFF000000000003FC000000000007F000F80000000000
310
03FFFFC00003FFFE00001FFFFF80007FF0000000000007FF0000000000007FF8
310
000001FFFE0000007FFFFFF0001FFFFFFFF0000000000007FFFFF00000000000
310
07FFFF000000000003F8000000000003F000F0000000000003FFFFC00001FFFE
310
00001FFFFF80007FE0000000000007FE0000000000003FF8000001FFFE000000
310
7FFFFFF0001FFFFFFFF0000000000007FFFFF0000000000007FFFF0000000000
310
03F800001F800003F000E00001FFF00001FFFFC00001FFFE00000FFFFF80007F
310
E00001FFE00003FE00001FFF00003FF8000001FFFE0000007FFFFFF0001FFFFF
310
FFE000003E000003FFFFE000003E000003FFFF000000000003F00001FFF80001
310
F000E00007FFFC0001FFFFC00001FFFE00000FFFFF80007FC0000FFFFC0003FC
310
0000FFFFC0001FF8000001FFFE0000007FFFFFF0001FFFFFFFC00003FFE00001
310
FFFFC00003FFE00001FFFF0001FFFFFFFFF00007FFFE0001F000E0000FFFFF00
310
00FFFF800001FFFC00000FFFFF80007FC0001FFFFE0001FC0001FFFFE0001FF8
310
000001FFFE0000007FFFFFF0001FFFFFFF80000FFFF80000FFFF80000FFFF800
310
00FFFF0003FFFFFFFFE0000FFFFF8000F000C0003FFFFF8000FFFF800000FFFC
310
000007FFFF80007F80003FFFFF0001FC0003FFFFF0001FF8000001FFFE000000
310
7FFFFFF0001FFFFFFF80003FFFFE0000FFFF80003FFFFE0000FFFF0003FFFFFF
310
FFE0003FFFFF8000F000C0003FFFFF8000FFFF800000FFFC000007FFFF80007F
310
80007FFFFF8001F80007FFFFF8000FF8000001FFFE0000007FFFFFF0001FFFFF
310
FF00007FFFFF00007FFF00007FFFFF00007FFF0003FFFFFFFFE0003FFFFFC000
310
F000C0007FFFFFC000FFFF000000FFFC000007FFFF80007F8000FFFFFF8000F8
310
000FFFFFF8000FF8000001FFFE0000007FFFFFF0001FFFFFFF0000FFFFFF8000
310
7FFF0000FFFFFF80007FFF0003FFFFFFFFC0007FFFFFC00070008000FFFFFFC0
310
00FFFF000000FFF8000007FFFF80007F8000FFFFFF8000F8000FFFFFF8000FF8
310
000001FFFE0000007FFFFFF0001FFFFFFE0001FFFFFFC0003FFE0001FFFFFFC0
310
003FFF0003FFFFFFFFC0007FFFFFE00070008000FFFFFFC0007FFF0000007FF8
310
000003FFFF80007F0001FFFFFF8000F8000FFFFFF8000FF8000001FFFE000000
310
7FFFFFF0001FFFFFFE0001FFFFFFC0003FFE0001FFFFFFC0003FFF0003FFFFFF
310
FFC000FFFFFFE00070008000FFFFFFC0007FFF0000007FF8000003FFFF80007F
310
0001FFFFFF8000F8001FFFFFF8000FF8000001FFFE0000007FFFFFF0001FFFFF
310
FE0003FFFFFFE0003FFE0003FFFFFFE0003FFF0003FFFFFFFFC000FFFFFFE000
310
70008000FFFFFFC0007FFE0000007FF8000003FFFF80007F0001FFFFFF8000F0
310
001FFFFFF8000FF8000001FFFE0000007FFFFFF0001FFFFFFC0003FFFFFFE000
310
1FFC0003FFFFFFE0001FFF0003FFFFFFFFC000FFFFFFC00070008000FFFFFF80
310
007FFE0000007FF0000003FFFF80007F0001FFFFFF0000F0001FFFFFF8000FF8
310
000001FFFE0000007FFFFFF0001FFFFFFC0007FFFFFFF0001FFC0007FFFFFFF0
310
001FFF0003FFFFFFFFC000FFFFFFC00070008001FFFFFF0000FFFE0000003FF0
310
000001FFFF80007F0001FFFFFF0000F8001FFFFFF0000FF8000001FFFE000000
310
7FFFFFF0001FFFFFFC0007FFFFFFF0001FFC0007FFFFFFF0001FFF0003FFFFFF
310
FFC001FFFFFF80007000FFFFFFFFFE0000FFFE0008003FF0008001FFFF80007F
310
FFFFFFFFFC0000FFFFFFFFFFE0000FF8000001FFFE0000007FFFFFF0001FFFFF
310
F8000FFFFFFFF8000FF8000FFFFFFFF8000FFF0003FFFFFFFFFFFFFFFFFF0000
310
7000FFFFFFFFFC0000FFFC0008003FF0008001FFFF80007FFFFFFFFFF80001FF
310
FFFFFFFF80000FF8000001FFFE0000007FFFFFF0001FFFFFF8000FFFFFFFF800
310
0FF8000FFFFFFFF8000FFF0003FFFFFFFFFFFFFFFFFE0000F000FFFFFFFFE000
310
00FFFC000C003FE000C001FFFF80007FFFFFFFFFC00001FFFFFFFFFE00001FF8
310
000001FFFE0000007FFFFFF0001FFFFFF8000FFFFFFFF8000FF8000FFFFFFFF8
310
000FFF0003FFFFFFFFFFFFFFFFF00000F000FFFFFFFE000001FFFC000C001FE0
310
00C000FFFF80007FFFFFFFFE000001FFFFFFFFE000001FF80FFFFFFFFFFFFFC0
310
7FFFFFF0001FFFFFF8000FFFFFFFF8000FF8000FFFFFFFF8000FFF0003FFFFFF
310
FFFFFFFFFF800000F000FFFFFFC0000001FFFC001C001FE001C000FFFF80007F
310
FFFFFF80000003FFFFFFF80000001FF80FFFFFFFFFFFFFC07FFFFFF0001FFFFF
310
F8001FFFFFFFFC000FF8001FFFFFFFFC000FFF0003FFFFFFFFFFFFFFF0000001
310
F000FFFFF800000001FFF8001C001FE001C000FFFF80007FFFFFF800000003FF
310
FFFF800000003FF80FFFFFFFFFFFFFC07FFFFFF0001FFFFFF8001FFFFFFFFC00
310
0FF8001FFFFFFFFC000FFF0003FFFFFFFFFFFFFE00000001F000FFFFC0000000
310
03FFF8001E001FC001E000FFFF80007FFFFF8000000007FFFFFC000000003FF8
310
0FFFFFFFFFFFFFC07FFFFFF0001FFFFFF8001FFFFFFFFC000FF8001FFFFFFFFC
310
000FFF0003FFFFFFFFFFFFE000000003F000FFFE0000000007FFF8001E000FC0
310
01E0007FFF80007FFFFE0000000007FFFFE0000000007FF80FFFFFFFFFFFFFC0
310
7FFFFFF0001FFFFFF0001FFFFFFFFC0007F0001FFFFFFFFC0007FF0003FFFFFF
310
FFFFFF0000000003F000FFF80000000007FFF8001E000FC003E0007FFF80007F
310
FFF0000000000FFFFF8000000000FFF80FFFFFFFFFFFFFC07FFFFFF0001FFFFF
310
F0001FFFFFFFFC0007F0001FFFFFFFFC0007FF0003FFFFFFFFFFFC0000000007
310
F000FFE0000000000FFFF0003E000FC003E0007FFF80007FFFC0000000001FFF
310
FE0000000001FFF80FFFFFFFFFFFFFC07FFFFFF0001FFFFFF0001FFFFFFFFC00
310
07F0001FFFFFFFFC0007FF0003FFFFFFFFFFF0000000000FF000FFC000000000
310
1FFFF0003F000F8003F0003FFF80007FFF80000000003FFFF80000000003FFF8
310
0FFFFFFFFFFFFFC07FFFFFF0001FFFFFF0001FFFFFFFFC0007F0001FFFFFFFFC
310
0007FF0003FFFFFFFFFFE0000000001FF000FF00000000007FFFF0003F000780
310
03F0003FFF80007FFF00000000007FFFF00000000007FFF80FFFFFFFFFFFFFC0
310
7FFFFFF0001FFFFFF0001FFFFFFFFC0007F0001FFFFFFFFC0007FF0003FFFFFF
310
FFFF80000000007FF000FE0000000000FFFFE0003F00078007F0003FFF80007F
310
FE0000000001FFFFE0000000001FFFF80FFFFFFFFFFFFFC07FFFFFF0001FFFFF
310
F0001FFFFFFFFC0007F0001FFFFFFFFC0007FF0003FFFFFFFFFF0000000000FF
310
F000FC0000000003FFFFE0007F00078007F0003FFF80007FFC0000000007FFFF
310
C0000000007FFFF80FFFFFFFFFFFFFC07FFFFFF0001FFFFFF8001FFFFFFFFC00
310
0FF8001FFFFFFFFC000FFF0003FFFFFFFFFE0000000003FFF000FC000000000F
310
FFFFE0007F80070007F8001FFF80007FF8000000001FFFFF8000000001FFFFF8
310
0FFFFFFFFFFFFFC07FFFFFF0001FFFFFF8001FFFFFFFFC000FF8001FFFFFFFFC
310
000FFF0003FFFFFFFFFC000000000FFFF000F8000000007FFFFFE0007F800700
310
07F8001FFF80007FF000000000FFFFFF800000000FFFFFF80FFFFFFFFFFFFFC0
310
7FFFFFF0001FFFFFF8000FFFFFFFF8000FF8000FFFFFFFF8000FFF0003FFFFFF
310
FFFC000000007FFFF000F800000007FFFFFFC0007F8003000FF8001FFF80007F
310
F000000007FFFFFF000000007FFFFFF80FFFFFFFFFFFFFC07FFFFFF0001FFFFF
310
F8000FFFFFFFF8000FF8000FFFFFFFF8000FFF0003FFFFFFFFF80000000FFFFF
310
F000F0000000FFFFFFFFC000FF8003000FF8001FFF80007FE0000000FFFFFFFF
310
0000000FFFFFFFF8000001FFFE0000007FFFFFF0001FFFFFF8000FFFFFFFF800
310
0FF8000FFFFFFFF8000FFF0003FFFFFFFFF8000000FFFFFFF000F000000FFFFF
310
FFFFC000FFC002000FF8000FFF80007FE000001FFFFFFFFE000001FFFFFFFFF8
310
000001FFFE0000007FFFFFF0001FFFFFF8000FFFFFFFF8000FF8000FFFFFFFF8
310
000FFF0003FFFFFFFFF000001FFFFFFFF000E00000FFFFFFFFFFC000FFC00200
310
0FFC000FFF80007FE00001FFFFFFFFFE00001FFFFFFFFFF8000001FFFE000000
310
7FFFFFF0001FFFFFFC000FFFFFFFF8001FFC000FFFFFFFF8001FFF0003FFFFFF
310
FFF00001FFFFFFFFF000E00007FFFFFFFFFF8000FFC000001FFC000FFF80007F
310
C0000FFFFFFFFFFE0000FFFFFFFFFFF8000001FFFE0000007FFFFFF0001FFFFF
310
FC0007FFFFFFF0001FFC0007FFFFFFF0001FFF0003FFFFFFFFF00007FFFFFFFF
310
F000E0001FFFFFFFFFFF8000FFC000001FFC000FFF80007FC0003FFFFFFFFFFE
310
0001FFFFFFFFFFF8000001FFFE0000007FFFFFF0001FFFFFFC0007FFFFFFF000
310
1FFC0007FFFFFFF0001FFF0003FFFFFFFFF0001FFFFFFFFFF000E0003FFFFF00
310
03FF8001FFE000001FFC0007FF80007FC0007FFFFF0007FC0003FFFFF0003FF8
310
000001FFFE0000007FFFFFF0001FFFFFFC0003FFFFFFE0001FFC0003FFFFFFE0
310
001FFF0003FFFFFFFFF0003FFFFFFFFFF000E0003FFFFF0001FF8001FFE00000
310
1FFE0007FF80007FC0007FFFFE0003FC0007FFFFE0003FF8000001FFFE000000
310
7FFFFFF0001FFFFFFE0003FFFFFFE0003FFE0003FFFFFFE0003FFF0003FFFFFF
310
FFF0003FFFFF8001F000E0003FFFFF0001FF0001FFE000001FFE0007FF80007F
310
C0007FFFFE0003FC0007FFFFE0003FF8000001FFFE0000007FFFFFF0001FFFFF
310
FE0001FFFFFFC0003FFE0001FFFFFFC0003FFF0003FFFFFFFFF0003FFFFF0001
310
F000E0003FFFFF0003FF0001FFE000003FFE0007FF80007FC0007FFFFE0003FC
310
0007FFFFE0003FF8000001FFFE0000007FFFFFF0001FFFFFFF0001FFFFFFC000
310
7FFF0001FFFFFFC0007FFF0003FFFFFFFFF0003FFFFF0001F000E0003FFFFE00
310
03FF0003FFF000003FFE0003FF80007FC0007FFFFC0003FE0007FFFFE0003FF8
310
000001FFFE0000007FFFFFF0001FFFFFFF0000FFFFFF80007FFF0000FFFFFF80
310
007FFF0003FFFFFFFFF0003FFFFF0001F000E0003FFFFE0003FF0003FFF00000
310
3FFF0003FF80007FC0007FFFFC0007FE0007FFFFC0003FF8000001FFFE000000
310
7FFFFFF0001FFFFFFF80007FFFFF0000FFFF80007FFFFF0000FFFF0003FFFFFF
310
FFF0003FFFFF0003F000E0003FFFFC0003FE0003FFF000003FFF0003FF80007F
310
E0003FFFF80007FE0003FFFFC0007FF8000001FFFE0000007FFFFFF0001FFFFF
310
FF80003FFFFE0000FFFF80003FFFFE0000FFFF0003FFFFFFFFF0001FFFFE0003
310
F000F0001FFFF80003FE0003FFF000007FFF0001FF80007FE0003FFFF00007FE
310
0001FFFF80007FF8000001FFFE0000007FFFFFF0001FFFFFFFC0000FFFF80001
310
FFFFC0000FFFF80001FFFF0003FFFFFFFFF0001FFFFC0003F000F0000FFFF000
310
07FE0007FFF800007FFF0001FF80007FE0001FFFE00007FF0000FFFE00007FF8
310
000001FFFE0000007FFFFFF0001FFFFFFFC00003FFE00001FFFFC00003FFE000
310
01FFFF0003FFFFFFFFF8000FFFF80003F000F00003FFC00007FC0007FFF80000
310
7FFF8001FF80007FF00007FF80000FFF00007FF80000FFF8000001FFFE000000
310
7F80000000000001FFE000003E000003FFFFE000003E000003FFFF0003FFFFFF
310
FFF80003FFE00007F000F800000000000FFC0007FFF800007FFF8001FF80007F
310
F000000000000FFF000000000000FFF8000001FFFE0000007F80000000000001
310
FFF0000000000007FFFFF0000000000007FFFF0003FFFFFFFFFC00007E000007
310
F000F800000000000FFC0007FFF80000FFFF8000FF80007FF800000000001FFF
310
800000000001FFF8000001FFFE0000007F80000000000001FFF800000000000F
310
FFFFF800000000000FFFFF0003FFFFFFFFFC00000000000FF000FC0000000000
310
1FFC0007FFFC0000FFFF8000FF80007FF800000000003FFFC00000000001FFF8
310
000001FFFE0000007F80000000000001FFF800000000000FFFFFF80000000000
310
0FFFFF0003FFFFFFFFFE00000000001FF000FE00000000003FF8000FFFFC0000
310
FFFF8000FF80007FFC00000000003FFFC00000000003FFF8000001FFFE000000
310
7F80000000000001FFFC00000000001FFFFFFC00000000001FFFFF0003FFFFFF
310
FFFF00000000001FF000FF00000000003FF8000FFFFC0000FFFFC000FF80007F
310
FE00000000007FFFE00000000007FFF8000001FFFE0000007F80000000000001
310
FFFE00000000003FFFFFFE00000000003FFFFF0003FFFFFFFFFF80000000003F
310
F000FF80000000007FF8000FFFFC0001FFFFC0007F80007FFF0000000000FFFF
310
F0000000000FFFF800000000000000007F80000000000001FFFF8000000000FF
310
FFFFFF8000000000FFFFFF0003FFFFFFFFFFC0000000007FF000FFC000000000
310
FFF8000FFFFE0001FFFFC0007F80007FFF8000000001FFFFF8000000001FFFF8
310
00000000000000007F80000000000001FFFFC000000001FFFFFFFFC000000001
310
FFFFFF0003FFFFFFFFFFE000000000FFF000FFE000000003FFF0001FFFFE0001
310
FFFFC0007F80007FFFC000000007FFFFFE000000003FFFF80000000000000000
310
7F80000000000001FFFFE000000003FFFFFFFFE000000003FFFFFF0003FFFFFF
310
FFFFF000000003FFF000FFF80000000FFFF0001FFFFE0001FFFFE0007F80007F
310
FFF00000000FFFFFFF00000000FFFFF800000000000000007F80000000000001
310
FFFFF80000000FFFFFFFFFF80000000FFFFFFF0003FFFFFFFFFFFC0000000FFF
310
F000FFFE0000003FFFF0001FFFFE0003FFFFE0003F80007FFFFC0000003FFFFF
310
FFC0000003FFFFF800000000000000007F80000000000001FFFFFE0000003FFF
310
FFFFFFFE0000003FFFFFFF0003FFFFFFFFFFFF0000003FFFF000FFFF800000FF
310
FFF0001FFFFF0003FFFFE0003F80007FFFFF000001FFFFFFFFF800001FFFFFF8
310
00000000000000007F80000000000001FFFFFFC00001FFFFFFFFFFFFC00001FF
310
FFFFFF0003FFFFFFFFFFFFC00000FFFFF000FFFFF8000FFFFFFFFFFFFFFFFFFF
310
FFFFFFFFFFFFFFFFFFFFF0001FFFFFFFFFFF0000FFFFFFF80000000000000000
310
7FFFFFFFFFFFFFFFFFFFFFFC001FFFFFFFFFFFFFFC001FFFFFFFFFFFFFFFFFFF
310
FFFFFFFC001FFFFFF000FFFFFFFFFFFFFFFFFFFFFFFFFFFFFFFFFFFFFFFFFFFF
310
FFFFFFFFFFFFFFFFFFFFFFFFFFFFFFFFFFFFFFFFFFFFFFFFFFFFFFFFFFFFFFFF
310
FFFFFFFFFFFFFFFFFFFFFFFFFFFFFFFFFFFFFFFFFFFFFFFFFFFFFFFFFFFFFFFF
310
F000FFFFFFFFFFFFFFFFFFFFFFFFFFFFFFFFFFFFFFFFFFFFFFFFFFFFFFFFFFFF
310
FFFFFFFFFFFFFFFFFFFFFFFFFFFFFFFFFFFFFFFFFFFFFFFFFFFFFFFFFFFFFFFF
310
FFFFFFFFFFFFFFFFFFFFFFFFFFFFFFFFFFFFFFFFFFFFFFFFF000FFFFFFFFFFFF
310
FFFFFFFFFFFFFFFFFFFFFFFFFFFFFFFFFFFFFFFFFFFFFFFFFFFFFFFFFFFFFFFF
310
FFFFFFFFFFFFFFFFFFFFFFFFFFFFFFFFFFFFFFFFFFFFFFFFFFFFFFFFFFFFFFFF
310
FFFFFFFFFFFFFFFFFFFFFFFFFFFFFFFFF000FFFFFFFFFFFFFFFFFFFFFFFFFFFF
310
FFFFFFFFFFFFFFFFFFFFFFFFFFFFFFFFFFFFFFFFFFFFFFFFFFFFFFFFFFFFFFFF
310
FFFFFFFFFFFFFFFFFFFFFFFFFFFFFFFFFFFFFFFFFFFFFFFFFFFFFFFFFFFFFFFF
310
FFFFFFFFFFFFFFFFF000FFFFFFFFFFFFFFFFFFFFFFFFFFFFFFFFFFFFFFFFFFFF
310
FFFFFFFFFFFFFFFFFFFFFFFFFFFFFFFFFFFFFFFFFFFFFFFFFFFFFFFFFFFFFFFF
310
FFFFFFFFFFFFFFFFFFFFFFFFFFFFFFFFFFFFFFFFFFFFFFFFFFFFFFFFFFFFFFFF
310
F000FFFFFFFFFFFFFFFFFFFFFFFFFFFFFFFFFFFFFFFFFFFFFFFFFFFFFFFFFFFF
310
FFFFFFFFFFFFFFFFFFFFFFFFFFFFFFFFFFFFFFFFFFFFFFFFFFFFFFFFFFFFFFFF
310
FFFFFFFFFFFFFFFFFFFFFFFFFFFFFFFFFFFFFFFFFFFFFFFFF000FFFFFFFFFFFF
310
FFFFFFFFFFFFFFFFFFFFFFFFFFFFFFFFFFFFFFFFFFFFFFFFFFFFFFFFFFFFFFFF
310
FFFFFFFFFFFFFFFFFFFFFFFFFFFFFFFFFFFFFFFFFFFFFFFFFFFFFFFFFFFFFFFF
310
FFFFFFFFFFFFFFFFFFFFFFFFFFFFFFFFF000FFFFFFFFFFFFFFFFFFFFFFFFFFFF
310
FFFFFFFFFFFFFFFFFFFFFFFFFFFFFFFFFFFFFFFFFFFFFFFFFFFFFFFFFFFFFFFF
310
FFFFFFFFFFFFFFFFFFFFFFFFFFFFFFFFFFFFFFFFFFFFFFFFFFFFFFFFFFFFFFFF
310
FFFFFFFFFFFFFFFFF000FFFFFFFFFFFFFFFFFFFFFFFFFFFFFFFFFFFFFFFFFFFF
310
FFFFFFFFFFFFFFFFFFFFFFFFFFFFFFFFFFFFFFFFFFFFFFFFFFFFFFFFFFFFFFFF
310
FFFFFFFFFFFFFFFFFFFFFFFFFFFFFFFFFFFFFFFFFFFFFFFFFFFFFFFFFFFFFFFF
310
F000FFFFFFFFFFFFFFFFFFFFFFFFFFFFFFFFFFFFFFFFFFFFFFFFFFFFFFFFFFFF
310
FFFFFFFFFFFFFFFFFFFFFFFFFFFFFFFFFFFFFFFFFFFFFFFFFFFFFFFFFFFFFFFF
310
FFFFFFFFFFFFFFFFFFFFFFFFFFFFFFFFFFFFFFFFFFFFFFFFF000FFFFFFFFFFFF
310
FFFFFFFFFFFFFFFFFFFFFFFFFFFFFFFFFFFFFFFFFFFFFFFFFFFFFFFFFFFFFFFF
310
FFFFFFFFFFFFFFFFFFFFFFFFFFFFFFFFFFFFFFFFFFFFFFFFFFFFFFFFFFFFFFFF
310
FFFFFFFFFFFFFFFFFFFFFFFFFFFFFFFFF000FFFFFFFFFFFFFFFFFFFFFFFFFFFF
310
FFFFFFFFFFFFFFFFFFFFFFFFFFFFFFFFFFFFFFFFFFFFFFFFFFFFFFFFFFFFFFFF
310
FFFFFFFFFFFFFFFFFFFFFFFFFFFFFFFFFFFFFFFFFFFFFFFFFFFFFFFFFFFFFFFF
310
FFFFFFFFFFFFFFFFF000FFFFFFFFFFFFFFFFFFFFFFFFFFFFFFFFFFFFFFFFFFFF
310
FFFFFFFFFFFFFFFFFFFFFFFFFFFFFFFFFFFFFFFFFFFFFFFFFFFFFFFFFFFFFFFF
310
FFFFFFFFFFFFFFFFFFFFFFFFFFFFFFFFFFFFFFFFFFFFFFFFFFFFFFFFFFFFFFFF
310
F000FFFFFFFFFFFFFFFFFFFFFFFFFFFFFFFFFFFFFFFFFFFFFFFFFFFFFFFFFFFF
310
FFFFFFFFFFFFFFFFFFFFFFFFFFFFFFFFFFFFFFFFFFFFFFFFFFFFFFFFFFFFFFFF
310
FFFFFFFFFFFFFFFFFFFFFFFFFFFFFFFFFFFFFFFFFFFFFFFFF000FFFFFFFFFFFF
310
FFFFFFFFFFFFFFFFFFFFFFFFFFFFFFFFFFFFFFFFFFFFFFFFFFFFFFFFFFFFFFFF
310
FFFFFFFFFFFFFFFFFFFFFFFFFFFFFFFFFFFFFFFFFFFFFFFFFFFFFFFFFFFFFFFF
310
FFFFFFFFFFFFFFFFFFFFFFFFFFFFFFFFF000FFFFFFFFFFFFFFFFFFFFFFFFFFFF
310
FFFFFFFFFFFFFFFFFFFFFFFFFFFFFFFFFFFFFFFFFFFFFFFFFFFFFFFFFFFFFFFF
310
FFFFFFFFFFFFFFFFFFFFFFFFFFFFFFFFFFFFFFFFFFFFFFFFFFFFFFFFFFFFFFFF
310
FFFFFFFFFFFFFFFFF000FFFFFFFFFFFFFFFFFFFFFFFFFFFFFFFFFFFFFFFFFFFF
310
FFFFFFFFFFFFFFFFFFFFFFFFFFFFFFFFFFFFFFFFFFFFFFFFFFFFFFFFFFFFFFFF
310
FFFFFFFFFFFFFFFFFFFFFFFFFFFFFFFFFFFFFFFFFFFFFFFFFFFFFFFFFFFFFFFF
310
F000FFFFFFFFFFFFFFFFFFFFFFFFFFFFFFFFFFFFFFFFFFFFFFFFFFFFFFFFFFFF
310
FFFFFFFFFFFFFFFFFFFFFFFFFFFFFFFFFFFFFFFFFFFFFFFFFFFFFFFFFFFFFFFF
310
FFFFFFFFFFFFFFFFFFFFFFFFFFFFFFFFFFFFFFFFFFFFFFFFF000FFFFFFFFFFFF
310
FFFFFFFFFFFFFFFFFFFFFFFFFFFFFFFFFFFFFFFFFFFFFFFFFFFFFFFFFFFFFFFF
310
FFFFFFFFFFFFFFFFFFFFFFFFFFFFFFFFFFFFFFFFFFFFFFFFFFFFFFFFFFFFFFFF
310
FFFFFFFFFFFFFFFFFFFFFFFFFFFFFFFFF000FFFFFFFFFFFFFFFFFFFFFFFFFFFF
310
FFFFFFFFFFFFFFFFFFFFFFFFFFFFFFFFFFFFFFFFFFFFFFFFFFFFFFFFFFFFFFFF
310
FFFFFFFFFFFFFFFFFFFFFFFFFFFFFFFFFFFFFFFFFFFFFFFFFFFFFFFFFFFFFFFF
310
FFFFFFFFFFFFFFFFF000FFFFFFFFFFFFFFFFFFFFFFFFFFFFFFFFFFFFFFFFFFFF
310
FFFFFFFFFFFFFFFFFFFFFFFFFFFFFFFFFFFFFFFFFFFFFFFFFFFFFFFFFFFFFFFF
310
FFFFFFFFFFFFFFFFFFFFFFFFFFFFFFFFFFFFFFFFFFFFFFFFFFFFFFFFFFFFFFFF
310
F000FFFFFFFFFFFFFFFFFFFFFFFFFFFFFFFFFFFFFFFFFFFFFFFFFFFFFFFFFFFF
310
FFFFFFFFFFFFFFFFFFFFFFFFFFFFFFFFFFFFFFFFFFFFFFFFFFFFFFFFFFFFFFFF
310
FFFFFFFFFFFFFFFFFFFFFFFFFFFFFFFFFFFFFFFFFFFFFFFFF000FFFFFFFFFFFF
310
FFFFFFFFFFFFFFFFFFFFFFFFFFFFFFFFFFFFFFFFFFFFFFFFFFFFFFFFFFFFFFFF
310
FFFFFFFFFFFFFFFFFFFFFFFFFFFFFFFFFFFFFFFFFFFFFFFFFFFFFFFFFFFFFFFF
310
FFFFFFFFFFFFFFFFFFFFFFFFFFFFFFFFF0000000000000000000000000000000
310
0000000000000000000000000000000000000000000000000000000000000000
310
0000000000000000000000000000000000000000000000000000000000000000
310
0000000000000000000000000000000000000000000000000000000000000000
310
0000000000000000000000000000000000000000000000000000000000000000
310
0000000000000000000000000000000000000000000000000000000000000000
310
0000000000000000000000000000000000000000000000000000000000000000
310
0000000000000000000000000000000000000000000000000000000000000000
310
0000000000000000000000000000000000000000000000000000000000000000
310
0000000000000000000000000000000000000000000000000000000000000000
310
0000000000000000000000000000000000000000000000000000000000000000
310
0000000000000000000000000000000000000000000000000000000000000000
310
0000000000000000000000000000000000000000000000000000000000000000
310
0000000000000000000000000000000000000000000000000000000000000000
310
0000000000000000000000000000000000000000000000000000000000000000
310
0000000000000000000000000000000000000000000000000000000000000000
  1
OLE
  0
ENDSEC
  0
SECTION
  2
OBJECTS
  0
DICTIONARY
  5
C
330
0
100
AcDbDictionary
281
     1
  3
ACAD_GROUP
350
D
  3
ACAD_LAYOUT
350
1A
  3
ACAD_MLINESTYLE
350
17
  3
ACAD_PLOTSETTINGS
350
19
  3
ACAD_PLOTSTYLENAME
350
E
  3
ACAD_SCALELIST
350
47
  0
DICTIONARY
  5
D
102
{ACAD_REACTORS
330
C
102
}
330
C
100
AcDbDictionary
281
     1
  0
DICTIONARY
  5
1A
102
{ACAD_REACTORS
330
C
102
}
330
C
100
AcDbDictionary
281
     1
  3
Layout1
350
1E
  3
Layout2
350
26
  3
Model
350
22
  0
DICTIONARY
  5
17
102
{ACAD_REACTORS
330
C
102
}
330
C
100
AcDbDictionary
281
     1
  3
Standard
350
18
  0
DICTIONARY
  5
19
102
{ACAD_REACTORS
330
C
102
}
330
C
100
AcDbDictionary
281
     1
  0
ACDBDICTIONARYWDFLT
  5
E
102
{ACAD_REACTORS
330
C
102
}
330
C
100
AcDbDictionary
281
     1
  3
Normal
350
F
100
AcDbDictionaryWithDefault
340
F
  0
DICTIONARY
  5
47
102
{ACAD_REACTORS
330
C
102
}
330
C
100
AcDbDictionary
281
     1
  3
A0
350
48
  3
A1
350
49
  3
A2
350
4A
  3
A3
350
4B
  3
A4
350
4C
  3
A5
350
4D
  3
A6
350
4E
  3
A7
350
4F
  3
A8
350
50
  3
A9
350
51
  3
B0
350
52
  3
B1
350
53
  3
B2
350
54
  3
B3
350
55
  3
B4
350
56
  3
B5
350
57
  3
B6
350
58
  3
B7
350
59
  3
B8
350
5A
  3
B9
350
5B
  3
C0
350
5C
  3
C1
350
5D
  3
C2
350
5E
  3
C3
350
5F
  3
C4
350
60
  3
C5
350
61
  3
C6
350
62
  3
C7
350
63
  3
C8
350
64
  3
C9
350
65
  3
D0
350
66
  3
D1
350
67
  3
D2
350
68
  0
LAYOUT
  5
1E
102
{ACAD_REACTORS
330
1A
102
}
330
1A
100
AcDbPlotSettings
  1

  2
none_device
  4

  6

 40
0.0
 41
0.0
 42
0.0
 43
0.0
 44
0.0
 45
0.0
 46
0.0
 47
0.0
 48
0.0
 49
0.0
140
0.0
141
0.0
142
1.0
143
1.0
 70
   688
 72
     1
 73
     0
 74
     5
  7

 75
    16
147
1.0
148
0.0
149
0.0
100
AcDbLayout
  1
Layout1
 70
     1
 71
     1
 10
0.0
 20
0.0
 11
420.0
 21
297.0
 12
0.0
 22
0.0
 32
0.0
 14
1.0000000000E+20
 24
1.0000000000E+20
 34
1.0000000000E+20
 15
-1.0000000000E+20
 25
-1.0000000000E+20
 35
-1.0000000000E+20
146
0.0
 13
0.0
 23
0.0
 33
0.0
 16
1.0
 26
0.0
 36
0.0
 17
0.0
 27
1.0
 37
0.0
 76
     0
330
1B
  0
LAYOUT
  5
26
102
{ACAD_REACTORS
330
1A
102
}
330
1A
100
AcDbPlotSettings
  1

  2
none_device
  4

  6

 40
0.0
 41
0.0
 42
0.0
 43
0.0
 44
0.0
 45
0.0
 46
0.0
 47
0.0
 48
0.0
 49
0.0
140
0.0
141
0.0
142
1.0
143
1.0
 70
   688
 72
     1
 73
     0
 74
     5
  7

 75
    16
147
1.0
148
0.0
149
0.0
100
AcDbLayout
  1
Layout2
 70
     1
 71
     2
 10
0.0
 20
0.0
 11
0.0
 21
0.0
 12
0.0
 22
0.0
 32
0.0
 14
0.0
 24
0.0
 34
0.0
 15
0.0
 25
0.0
 35
0.0
146
0.0
 13
0.0
 23
0.0
 33
0.0
 16
1.0
 26
0.0
 36
0.0
 17
0.0
 27
1.0
 37
0.0
 76
     0
330
23
  0
LAYOUT
  5
22
102
{ACAD_REACTORS
330
1A
102
}
330
1A
100
AcDbPlotSettings
  1

  2
none_device
  4
Letter_(8.50_x_11.00_Inches)
  6

 40
6.35
 41
6.35
 42
6.35000508
 43
6.35000508
 44
215.9
 45
279.4
 46
0.0
 47
0.0
 48
0.0
 49
0.0
140
0.0
141
0.0
142
1.0
143
1.0
 70
  1712
 72
     1
 73
     0
 74
     0
  7

 75
     0
147
1.0
148
0.0
149
0.0
100
AcDbLayout
  1
Model
 70
     1
 71
     0
 10
0.0
 20
0.0
 11
297.0
 21
210.0
 12
0.0
 22
0.0
 32
0.0
 14
0.0
 24
0.0
 34
0.0
 15
297.0
 25
210.0
 35
0.0
146
0.0
 13
0.0
 23
0.0
 33
0.0
 16
1.0
 26
0.0
 36
0.0
 17
0.0
 27
1.0
 37
0.0
 76
     0
330
1F
331
29
  0
MLINESTYLE
  5
18
102
{ACAD_REACTORS
330
17
102
}
330
17
100
AcDbMlineStyle
  2
Standard
 70
     0
  3

 62
   256
 51
90.0
 52
90.0
 71
     2
 49
0.5
 62
   256
  6
BYLAYER
 49
-0.5
 62
   256
  6
BYLAYER
  0
ACDBPLACEHOLDER
  5
F
102
{ACAD_REACTORS
330
E
102
}
330
E
  0
SCALE
  5
48
102
{ACAD_REACTORS
330
47
102
}
330
47
100
AcDbScale
 70
     0
300
1:1
140
1.0
141
1.0
290
     1
  0
SCALE
  5
49
102
{ACAD_REACTORS
330
47
102
}
330
47
100
AcDbScale
 70
     0
300
1:2
140
1.0
141
2.0
290
     0
  0
SCALE
  5
4A
102
{ACAD_REACTORS
330
47
102
}
330
47
100
AcDbScale
 70
     0
300
1:4
140
1.0
141
4.0
290
     0
  0
SCALE
  5
4B
102
{ACAD_REACTORS
330
47
102
}
330
47
100
AcDbScale
 70
     0
300
1:5
140
1.0
141
5.0
290
     0
  0
SCALE
  5
4C
102
{ACAD_REACTORS
330
47
102
}
330
47
100
AcDbScale
 70
     0
300
1:8
140
1.0
141
8.0
290
     0
  0
SCALE
  5
4D
102
{ACAD_REACTORS
330
47
102
}
330
47
100
AcDbScale
 70
     0
300
1:10
140
1.0
141
10.0
290
     0
  0
SCALE
  5
4E
102
{ACAD_REACTORS
330
47
102
}
330
47
100
AcDbScale
 70
     0
300
1:16
140
1.0
141
16.0
290
     0
  0
SCALE
  5
4F
102
{ACAD_REACTORS
330
47
102
}
330
47
100
AcDbScale
 70
     0
300
1:20
140
1.0
141
20.0
290
     0
  0
SCALE
  5
50
102
{ACAD_REACTORS
330
47
102
}
330
47
100
AcDbScale
 70
     0
300
1:30
140
1.0
141
30.0
290
     0
  0
SCALE
  5
51
102
{ACAD_REACTORS
330
47
102
}
330
47
100
AcDbScale
 70
     0
300
1:40
140
1.0
141
40.0
290
     0
  0
SCALE
  5
52
102
{ACAD_REACTORS
330
47
102
}
330
47
100
AcDbScale
 70
     0
300
1:50
140
1.0
141
50.0
290
     0
  0
SCALE
  5
53
102
{ACAD_REACTORS
330
47
102
}
330
47
100
AcDbScale
 70
     0
300
1:100
140
1.0
141
100.0
290
     0
  0
SCALE
  5
54
102
{ACAD_REACTORS
330
47
102
}
330
47
100
AcDbScale
 70
     0
300
2:1
140
2.0
141
1.0
290
     0
  0
SCALE
  5
55
102
{ACAD_REACTORS
330
47
102
}
330
47
100
AcDbScale
 70
     0
300
4:1
140
4.0
141
1.0
290
     0
  0
SCALE
  5
56
102
{ACAD_REACTORS
330
47
102
}
330
47
100
AcDbScale
 70
     0
300
8:1
140
8.0
141
1.0
290
     0
  0
SCALE
  5
57
102
{ACAD_REACTORS
330
47
102
}
330
47
100
AcDbScale
 70
     0
300
10:1
140
10.0
141
1.0
290
     0
  0
SCALE
  5
58
102
{ACAD_REACTORS
330
47
102
}
330
47
100
AcDbScale
 70
     0
300
100:1
140
100.0
141
1.0
290
     0
  0
SCALE
  5
59
102
{ACAD_REACTORS
330
47
102
}
330
47
100
AcDbScale
 70
     0
300
1/128" = 1'-0"
140
0.0078125
141
12.0
290
     0
  0
SCALE
  5
5A
102
{ACAD_REACTORS
330
47
102
}
330
47
100
AcDbScale
 70
     0
300
1/64" = 1'-0"
140
0.015625
141
12.0
290
     0
  0
SCALE
  5
5B
102
{ACAD_REACTORS
330
47
102
}
330
47
100
AcDbScale
 70
     0
300
1/32" = 1'-0"
140
0.03125
141
12.0
290
     0
  0
SCALE
  5
5C
102
{ACAD_REACTORS
330
47
102
}
330
47
100
AcDbScale
 70
     0
300
1/16" = 1'-0"
140
0.0625
141
12.0
290
     0
  0
SCALE
  5
5D
102
{ACAD_REACTORS
330
47
102
}
330
47
100
AcDbScale
 70
     0
300
3/32" = 1'-0"
140
0.09375
141
12.0
290
     0
  0
SCALE
  5
5E
102
{ACAD_REACTORS
330
47
102
}
330
47
100
AcDbScale
 70
     0
300
1/8" = 1'-0"
140
0.125
141
12.0
290
     0
  0
SCALE
  5
5F
102
{ACAD_REACTORS
330
47
102
}
330
47
100
AcDbScale
 70
     0
300
3/16" = 1'-0"
140
0.1875
141
12.0
290
     0
  0
SCALE
  5
60
102
{ACAD_REACTORS
330
47
102
}
330
47
100
AcDbScale
 70
     0
300
1/4" = 1'-0"
140
0.25
141
12.0
290
     0
  0
SCALE
  5
61
102
{ACAD_REACTORS
330
47
102
}
330
47
100
AcDbScale
 70
     0
300
3/8" = 1'-0"
140
0.375
141
12.0
290
     0
  0
SCALE
  5
62
102
{ACAD_REACTORS
330
47
102
}
330
47
100
AcDbScale
 70
     0
300
1/2" = 1'-0"
140
0.5
141
12.0
290
     0
  0
SCALE
  5
63
102
{ACAD_REACTORS
330
47
102
}
330
47
100
AcDbScale
 70
     0
300
3/4" = 1'-0"
140
0.75
141
12.0
290
     0
  0
SCALE
  5
64
102
{ACAD_REACTORS
330
47
102
}
330
47
100
AcDbScale
 70
     0
300
1" = 1'-0"
140
1.0
141
12.0
290
     0
  0
SCALE
  5
65
102
{ACAD_REACTORS
330
47
102
}
330
47
100
AcDbScale
 70
     0
300
1-1/2" = 1'-0"
140
1.5
141
12.0
290
     0
  0
SCALE
  5
66
102
{ACAD_REACTORS
330
47
102
}
330
47
100
AcDbScale
 70
     0
300
3" = 1'-0"
140
3.0
141
12.0
290
     0
  0
SCALE
  5
67
102
{ACAD_REACTORS
330
47
102
}
330
47
100
AcDbScale
 70
     0
300
6" = 1'-0"
140
6.0
141
12.0
290
     0
  0
SCALE
  5
68
102
{ACAD_REACTORS
330
47
102
}
330
47
100
AcDbScale
 70
     0
300
1'-0" = 1'-0"
140
12.0
141
12.0
290
     0
  0
ENDSEC
  0
EOF
