  0
SECTION
  2
HEADER
  9
$ACADVER
  1
AC1015
  9
$ACADMAINTVER
 70
     6
  9
$DWGCODEPAGE
  3
ANSI_1252
  9
$INSBASE
 10
0.0
 20
0.0
 30
0.0
  9
$EXTMIN
 10
0.0
 20
0.0
 30
0.0
  9
$EXTMAX
 10
297.0
 20
210.0
 30
0.0
  9
$LIMMIN
 10
0.0
 20
0.0
  9
$LIMMAX
 10
297.0
 20
210.0
  9
$ORTHOMODE
 70
     0
  9
$REGENMODE
 70
     1
  9
$FILLMODE
 70
     1
  9
$QTEXTMODE
 70
     0
  9
$MIRRTEXT
 70
     1
  9
$LTSCALE
 40
1.0
  9
$ATTMODE
 70
     1
  9
$TEXTSIZE
 40
2.0
  9
$TRACEWID
 40
1.0
  9
$TEXTSTYLE
  7
Standard
  9
$CLAYER
  8
0
  9
$CELTYPE
  6
ByLayer
  9
$CECOLOR
 62
   256
  9
$CELTSCALE
 40
1.0
  9
$DISPSILH
 70
     0
  9
$DIMSCALE
 40
1.0
  9
$DIMASZ
 40
3.0
  9
$DIMEXO
 40
0.0
  9
$DIMDLI
 40
3.75
  9
$DIMRND
 40
0.0
  9
$DIMDLE
 40
0.0
  9
$DIMEXE
 40
1.0
  9
$DIMTP
 40
0.0
  9
$DIMTM
 40
0.0
  9
$DIMTXT
 40
2.0
  9
$DIMCEN
 40
2.5
  9
$DIMTSZ
 40
0.0
  9
$DIMTOL
 70
     0
  9
$DIMLIM
 70
     0
  9
$DIMTIH
 70
     1
  9
$DIMTOH
 70
     1
  9
$DIMSE1
 70
     0
  9
$DIMSE2
 70
     0
  9
$DIMTAD
 70
     1
  9
$DIMZIN
 70
     0
  9
$DIMBLK
  1

  9
$DIMASO
 70
     1
  9
$DIMSHO
 70
     1
  9
$DIMPOST
  1

  9
$DIMAPOST
  1

  9
$DIMALT
 70
     0
  9
$DIMALTD
 70
     3
  9
$DIMALTF
 40
0.0393700787
  9
$DIMLFAC
 40
1.0
  9
$DIMTOFL
 70
     1
  9
$DIMTVP
 40
0.0
  9
$DIMTIX
 70
     0
  9
$DIMSOXD
 70
     0
  9
$DIMSAH
 70
     0
  9
$DIMBLK1
  1

  9
$DIMBLK2
  1

  9
$DIMSTYLE
  2
ISO-25
  9
$DIMCLRD
 70
     0
  9
$DIMCLRE
 70
     0
  9
$DIMCLRT
 70
     0
  9
$DIMTFAC
 40
1.0
  9
$DIMGAP
 40
1.524
  9
$DIMJUST
 70
     0
  9
$DIMSD1
 70
     0
  9
$DIMSD2
 70
     0
  9
$DIMTOLJ
 70
     0
  9
$DIMTZIN
 70
     0
  9
$DIMALTZ
 70
     0
  9
$DIMALTTZ
 70
     0
  9
$DIMUPT
 70
     0
  9
$DIMDEC
 70
     2
  9
$DIMTDEC
 70
     3
  9
$DIMALTU
 70
     2
  9
$DIMALTTD
 70
     3
  9
$DIMTXSTY
  7
Standard
  9
$DIMAUNIT
 70
     0
  9
$DIMADEC
 70
     2
  9
$DIMALTRND
 40
0.0
  9
$DIMAZIN
 70
     0
  9
$DIMDSEP
 70
    44
  9
$DIMATFIT
 70
     3
  9
$DIMFRAC
 70
     0
  9
$DIMLDRBLK
  1

  9
$DIMLUNIT
 70
     2
  9
$DIMLWD
 70
    -2
  9
$DIMLWE
 70
    -2
  9
$DIMTMOVE
 70
     0
  9
$LUNITS
 70
     2
  9
$LUPREC
 70
     2
  9
$SKETCHINC
 40
1.0
  9
$FILLETRAD
 40
10.0
  9
$AUNITS
 70
     0
  9
$AUPREC
 70
     2
  9
$MENU
  1
.
  9
$ELEVATION
 40
0.0
  9
$PELEVATION
 40
0.0
  9
$THICKNESS
 40
0.0
  9
$LIMCHECK
 70
     0
  9
$CHAMFERA
 40
0.0
  9
$CHAMFERB
 40
0.0
  9
$CHAMFERC
 40
0.0
  9
$CHAMFERD
 40
0.0
  9
$SKPOLY
 70
     0
  9
$TDCREATE
 40
2457662.418021285
  9
$TDUCREATE
 40
2457662.334687951
  9
$TDUPDATE
 40
2457662.418022419
  9
$TDUUPDATE
 40
2457662.334689086
  9
$TDINDWG
 40
0.0000000116
  9
$TDUSRTIMER
 40
0.0000000116
  9
$USRTIMER
 70
     1
  9
$ANGBASE
 50
0.0
  9
$ANGDIR
 70
     0
  9
$PDMODE
 70
     0
  9
$PDSIZE
 40
-1.0
  9
$PLINEWID
 40
0.0
  9
$SPLFRAME
 70
     0
  9
$SPLINETYPE
 70
     6
  9
$SPLINESEGS
 70
     8
  9
$HANDSEED
  5
204
  9
$SURFTAB1
 70
     6
  9
$SURFTAB2
 70
     6
  9
$SURFTYPE
 70
     6
  9
$SURFU
 70
     6
  9
$SURFV
 70
     6
  9
$UCSBASE
  2

  9
$UCSNAME
  2

  9
$UCSORG
 10
0.0
 20
0.0
 30
0.0
  9
$UCSXDIR
 10
1.0
 20
0.0
 30
0.0
  9
$UCSYDIR
 10
0.0
 20
1.0
 30
0.0
  9
$UCSORTHOREF
  2

  9
$UCSORTHOVIEW
 70
     0
  9
$UCSORGTOP
 10
0.0
 20
0.0
 30
0.0
  9
$UCSORGBOTTOM
 10
0.0
 20
0.0
 30
0.0
  9
$UCSORGLEFT
 10
0.0
 20
0.0
 30
0.0
  9
$UCSORGRIGHT
 10
0.0
 20
0.0
 30
0.0
  9
$UCSORGFRONT
 10
0.0
 20
0.0
 30
0.0
  9
$UCSORGBACK
 10
0.0
 20
0.0
 30
0.0
  9
$PUCSBASE
  2

  9
$PUCSNAME
  2

  9
$PUCSORG
 10
0.0
 20
0.0
 30
0.0
  9
$PUCSXDIR
 10
1.0
 20
0.0
 30
0.0
  9
$PUCSYDIR
 10
0.0
 20
1.0
 30
0.0
  9
$PUCSORTHOREF
  2

  9
$PUCSORTHOVIEW
 70
     0
  9
$PUCSORGTOP
 10
0.0
 20
0.0
 30
0.0
  9
$PUCSORGBOTTOM
 10
0.0
 20
0.0
 30
0.0
  9
$PUCSORGLEFT
 10
0.0
 20
0.0
 30
0.0
  9
$PUCSORGRIGHT
 10
0.0
 20
0.0
 30
0.0
  9
$PUCSORGFRONT
 10
0.0
 20
0.0
 30
0.0
  9
$PUCSORGBACK
 10
0.0
 20
0.0
 30
0.0
  9
$USERI1
 70
     0
  9
$USERI2
 70
     0
  9
$USERI3
 70
     0
  9
$USERI4
 70
     0
  9
$USERI5
 70
     0
  9
$USERR1
 40
0.0
  9
$USERR2
 40
0.0
  9
$USERR3
 40
0.0
  9
$USERR4
 40
0.0
  9
$USERR5
 40
0.0
  9
$WORLDVIEW
 70
     1
  9
$SHADEDGE
 70
     3
  9
$SHADEDIF
 70
    70
  9
$TILEMODE
 70
     1
  9
$MAXACTVP
 70
    64
  9
$PINSBASE
 10
0.0
 20
0.0
 30
0.0
  9
$PLIMCHECK
 70
     0
  9
$PEXTMIN
 10
1.0000000000E+20
 20
1.0000000000E+20
 30
1.0000000000E+20
  9
$PEXTMAX
 10
-1.0000000000E+20
 20
-1.0000000000E+20
 30
-1.0000000000E+20
  9
$PLIMMIN
 10
0.0
 20
0.0
  9
$PLIMMAX
 10
420.0
 20
297.0
  9
$UNITMODE
 70
     0
  9
$VISRETAIN
 70
     1
  9
$PLINEGEN
 70
     0
  9
$PSLTSCALE
 70
     1
  9
$TREEDEPTH
 70
  3020
  9
$CMLSTYLE
  2
Standard
  9
$CMLJUST
 70
     0
  9
$CMLSCALE
 40
20.0
  9
$PROXYGRAPHICS
 70
     1
  9
$MEASUREMENT
 70
     1
  9
$CELWEIGHT
370
    -1
  9
$ENDCAPS
280
     0
  9
$JOINSTYLE
280
     0
  9
$LWDISPLAY
290
     1
  9
$INSUNITS
 70
     4
  9
$HYPERLINKBASE
  1

  9
$STYLESHEET
  1

  9
$XEDIT
290
     1
  9
$CEPSNTYPE
380
     0
  9
$PSTYLEMODE
290
     1
  9
$FINGERPRINTGUID
  2
{10F7E9D7-3A93-44B5-A709-272E8885EBCE}
  9
$VERSIONGUID
  2
{FAEB1C32-E019-11D5-929B-00C0DF256EC4}
  9
$EXTNAMES
290
     1
  9
$PSVPSCALE
 40
0.0
  9
$OLESTARTUP
290
     0
  0
ENDSEC
  0
SECTION
  2
CLASSES
  0
CLASS
  1
ACDBDICTIONARYWDFLT
  2
AcDbDictionaryWithDefault
  3
ObjectDBX Classes
 90
        0
280
     0
281
     0
  0
CLASS
  1
VISUALSTYLE
  2
AcDbVisualStyle
  3
ObjectDBX Classes
 90
     4095
280
     0
281
     0
  0
CLASS
  1
MATERIAL
  2
AcDbMaterial
  3
ObjectDBX Classes
 90
     1153
280
     0
281
     0
  0
CLASS
  1
SCALE
  2
AcDbScale
  3
ObjectDBX Classes
 90
     1153
280
     0
281
     0
  0
CLASS
  1
TABLESTYLE
  2
AcDbTableStyle
  3
ObjectDBX Classes
 90
     4095
280
     0
281
     0
  0
CLASS
  1
MLEADERSTYLE
  2
AcDbMLeaderStyle
  3
ACDB_MLEADERSTYLE_CLASS
 90
     4095
280
     0
281
     0
  0
CLASS
  1
SUN
  2
AcDbSun
  3
SCENEOE
 90
     1153
280
     0
281
     0
  0
CLASS
  1
ACDBPLACEHOLDER
  2
AcDbPlaceHolder
  3
ObjectDBX Classes
 90
        0
280
     0
281
     0
  0
CLASS
  1
LAYOUT
  2
AcDbLayout
  3
ObjectDBX Classes
 90
        0
280
     0
281
     0
  0
ENDSEC
  0
SECTION
  2
TABLES
  0
TABLE
  2
VPORT
  5
8
330
0
100
AcDbSymbolTable
 70
     1
  0
VPORT
  5
29
330
8
100
AcDbSymbolTableRecord
100
AcDbViewportTableRecord
  2
*Active
 70
     0
 10
0.0
 20
0.0
 11
1.0
 21
1.0
 12
148.5
 22
105.0
 13
0.0
 23
0.0
 14
10.0
 24
10.0
 15
10.0
 25
10.0
 16
0.0
 26
0.0
 36
1.0
 17
0.0
 27
0.0
 37
0.0
 40
210.0
 41
1.4142857143
 42
50.0
 43
0.0
 44
0.0
 50
0.0
 51
0.0
 71
     0
 72
  2000
 73
     1
 74
     3
 75
     0
 76
     0
 77
     0
 78
     0
281
     0
 65
     1
110
0.0
120
0.0
130
0.0
111
1.0
121
0.0
131
0.0
112
0.0
122
1.0
132
0.0
 79
     0
146
0.0
  0
ENDTAB
  0
TABLE
  2
LTYPE
  5
5
330
0
100
AcDbSymbolTable
 70
     6
  0
LTYPE
  5
14
330
5
100
AcDbSymbolTableRecord
100
AcDbLinetypeTableRecord
  2
ByBlock
 70
     0
  3

 72
    65
 73
     0
 40
0.0
  0
LTYPE
  5
15
330
5
100
AcDbSymbolTableRecord
100
AcDbLinetypeTableRecord
  2
ByLayer
 70
     0
  3

 72
    65
 73
     0
 40
0.0
  0
LTYPE
  5
16
330
5
100
AcDbSymbolTableRecord
100
AcDbLinetypeTableRecord
  2
Continuous
 70
     0
  3
Solid line
 72
    65
 73
     0
 40
0.0
  0
LTYPE
  5
6E
330
5
100
AcDbSymbolTableRecord
100
AcDbLinetypeTableRecord
  2
HIDDEN
 70
     0
  3
Hidden __ __ __ __ __ __ __ __ __ __ __ __ __ __
 72
    65
 73
     2
 40
1.905
 49
1.27
 74
     0
 49
-0.635
 74
     0
  0
LTYPE
  5
6F
330
5
100
AcDbSymbolTableRecord
100
AcDbLinetypeTableRecord
  2
PHANTOM
 70
     0
  3
Phantom ______  __  __  ______  __  __  ______
 72
    65
 73
     6
 40
12.7
 49
6.35
 74
     0
 49
-1.27
 74
     0
 49
1.27
 74
     0
 49
-1.27
 74
     0
 49
1.27
 74
     0
 49
-1.27
 74
     0
  0
LTYPE
  5
70
330
5
100
AcDbSymbolTableRecord
100
AcDbLinetypeTableRecord
  2
CENTER
 70
     0
  3
Center ____ _ ____ _ ____ _ ____ _ ____ _ ____
 72
    65
 73
     4
 40
10.16
 49
6.35
 74
     0
 49
-1.27
 74
     0
 49
1.27
 74
     0
 49
-1.27
 74
     0
  0
LTYPE
  5
71
330
5
100
AcDbSymbolTableRecord
100
AcDbLinetypeTableRecord
  2
CENTERX2
 70
     0
  3
Center (2x) ________  __  ________  __  _____
 72
    65
 73
     4
 40
20.32
 49
12.7
 74
     0
 49
-2.54
 74
     0
 49
2.54
 74
     0
 49
-2.54
 74
     0
  0
LTYPE
  5
72
330
5
100
AcDbSymbolTableRecord
100
AcDbLinetypeTableRecord
  2
DOT2
 70
     0
  3
Dot (.5x) ........................................
 72
    65
 73
     2
 40
0.635
 49
0.0
 74
     0
 49
-0.635
 74
     0
  0
ENDTAB
  0
TABLE
  2
LAYER
  5
2
330
0
100
AcDbSymbolTable
 70
     5
  0
LAYER
  5
10
330
2
100
AcDbSymbolTableRecord
100
AcDbLayerTableRecord
  2
0
 70
     0
 62
     7
  6
Continuous
370
    -3
390
F
  0
LAYER
  5
73
330
2
100
AcDbSymbolTableRecord
100
AcDbLayerTableRecord
  2
FORMAT
 70
     0
 62
     7
  6
Continuous
370
    -3
390
F
  0
LAYER
  5
74
330
2
100
AcDbSymbolTableRecord
100
AcDbLayerTableRecord
  2
VERMASSUNG
 70
     0
 62
     7
  6
Continuous
370
    -3
390
F
  0
LAYER
  5
75
330
2
100
AcDbSymbolTableRecord
100
AcDbLayerTableRecord
  2
KOPF_DÜNN
 70
     0
 62
     7
  6
Continuous
370
    -3
390
F
  0
LAYER
  5
76
330
2
100
AcDbSymbolTableRecord
100
AcDbLayerTableRecord
  2
KOPF_DICK
 70
     0
 62
     7
  6
Continuous
370
    15
390
F
  0
ENDTAB
  0
TABLE
  2
STYLE
  5
3
330
0
100
AcDbSymbolTable
 70
     2
  0
STYLE
  5
11
330
3
100
AcDbSymbolTableRecord
100
AcDbTextStyleTableRecord
  2
Standard
 70
     0
 40
0.0
 41
1.0
 50
0.0
 71
     0
 42
2.0
  3
txt
  4

  0
STYLE
  5
77
330
3
100
AcDbSymbolTableRecord
100
AcDbTextStyleTableRecord
  2
SLDTEXTSTYLE0
 70
     0
 40
0.0
 41
0.7
 50
0.0
 71
     0
 42
2.0
  3
TXT
  4

  0
ENDTAB
  0
TABLE
  2
VIEW
  5
6
330
0
100
AcDbSymbolTable
 70
     0
  0
ENDTAB
  0
TABLE
  2
UCS
  5
7
330
0
100
AcDbSymbolTable
 70
     0
  0
ENDTAB
  0
TABLE
  2
APPID
  5
9
330
0
100
AcDbSymbolTable
 70
     1
  0
APPID
  5
12
330
9
100
AcDbSymbolTableRecord
100
AcDbRegAppTableRecord
  2
ACAD
 70
     0
  0
ENDTAB
  0
TABLE
  2
DIMSTYLE
  5
A
330
0
100
AcDbSymbolTable
 70
     3
100
AcDbDimStyleTable
  0
DIMSTYLE
105
27
330
A
100
AcDbSymbolTableRecord
100
AcDbDimStyleTableRecord
  2
ISO-25
 70
     0
 41
2.5
 42
0.625
 43
3.75
 44
1.25
 73
     0
 74
     0
 77
     1
 78
     8
140
2.5
141
2.5
143
0.0393700787
147
0.625
171
     3
172
     1
178
     0
271
     2
272
     2
274
     3
278
    44
283
     0
284
     8
340
11
  0
DIMSTYLE
105
115
102
{ACAD_REACTORS
330
114
102
}
330
A
100
AcDbSymbolTableRecord
100
AcDbDimStyleTableRecord
  2
SLDDIMSTYLE0
 70
     0
 41
3.0
 44
0.0
 45
0.000000001
 73
     0
 74
     0
 77
     1
 78
    12
 79
     3
140
2.0
147
0.5
173
     1
178
     0
271
     3
272
     3
276
     2
284
    12
340
77
  0
DIMSTYLE
105
122
102
{ACAD_REACTORS
330
121
330
12D
330
137
330
143
330
14F
102
}
330
A
100
AcDbSymbolTableRecord
100
AcDbDimStyleTableRecord
  2
SLDDIMSTYLE1
 70
     0
 41
3.0
 44
0.0
 45
0.000000001
 73
     0
 74
     0
 77
     1
 78
    12
 79
     3
140
2.0
147
0.5
173
     1
178
     0
271
     2
272
     3
276
     2
284
    12
340
77
  0
ENDTAB
  0
TABLE
  2
BLOCK_RECORD
  5
1
330
0
100
AcDbSymbolTable
 70
     7
  0
BLOCK_RECORD
  5
1F
330
1
100
AcDbSymbolTableRecord
100
AcDbBlockTableRecord
  2
*Model_Space
340
22
  0
BLOCK_RECORD
  5
1B
330
1
100
AcDbSymbolTableRecord
100
AcDbBlockTableRecord
  2
*Paper_Space
340
1E
  0
BLOCK_RECORD
  5
23
330
1
100
AcDbSymbolTableRecord
100
AcDbBlockTableRecord
  2
*Paper_Space0
340
26
  0
BLOCK_RECORD
  5
116
330
1
100
AcDbSymbolTableRecord
100
AcDbBlockTableRecord
  2
_D
340
0
  0
BLOCK_RECORD
  5
123
330
1
100
AcDbSymbolTableRecord
100
AcDbBlockTableRecord
  2
_D_1
340
0
  0
BLOCK_RECORD
  5
12E
330
1
100
AcDbSymbolTableRecord
100
AcDbBlockTableRecord
  2
_D_2
340
0
  0
BLOCK_RECORD
  5
138
330
1
100
AcDbSymbolTableRecord
100
AcDbBlockTableRecord
  2
_D_3
340
0
  0
BLOCK_RECORD
  5
144
330
1
100
AcDbSymbolTableRecord
100
AcDbBlockTableRecord
  2
_D_4
340
0
  0
BLOCK_RECORD
  5
150
330
1
100
AcDbSymbolTableRecord
100
AcDbBlockTableRecord
  2
_D_5
340
0
  0
ENDTAB
  0
ENDSEC
  0
SECTION
  2
BLOCKS
  0
BLOCK
  5
20
330
1F
100
AcDbEntity
  8
0
100
AcDbBlockBegin
  2
*Model_Space
 70
     0
 10
0.0
 20
0.0
 30
0.0
  3
*Model_Space
  1

  0
ENDBLK
  5
21
330
1F
100
AcDbEntity
  8
0
100
AcDbBlockEnd
  0
BLOCK
  5
1C
330
1B
100
AcDbEntity
 67
     1
  8
0
100
AcDbBlockBegin
  2
*Paper_Space
 70
     0
 10
0.0
 20
0.0
 30
0.0
  3
*Paper_Space
  1

  0
ENDBLK
  5
1D
330
1B
100
AcDbEntity
 67
     1
  8
0
100
AcDbBlockEnd
  0
BLOCK
  5
24
330
23
100
AcDbEntity
  8
0
100
AcDbBlockBegin
  2
*Paper_Space0
 70
     0
 10
0.0
 20
0.0
 30
0.0
  3
*Paper_Space0
  1

  0
ENDBLK
  5
25
330
23
100
AcDbEntity
  8
0
100
AcDbBlockEnd
  0
BLOCK
  5
117
330
116
100
AcDbEntity
  8
0
100
AcDbBlockBegin
  2
_D
 70
     0
 10
0.0
 20
0.0
 30
0.0
  3
_D
  1

  0
SOLID
  5
119
330
116
100
AcDbEntity
  8
VERMASSUNG
100
AcDbTrace
 10
78.863203315
 20
74.4782578857
 30
0.0
 11
79.313203315
 21
77.4782578857
 31
0.0
 12
78.413203315
 22
77.4782578857
 32
0.0
 13
78.413203315
 23
77.4782578857
 33
0.0
  0
SOLID
  5
11A
330
116
100
AcDbEntity
  8
VERMASSUNG
100
AcDbTrace
 10
78.863203315
 20
137.9782578857
 30
0.0
 11
78.413203315
 21
134.9782578857
 31
0.0
 12
79.313203315
 22
134.9782578857
 32
0.0
 13
79.313203315
 23
134.9782578857
 33
0.0
  0
LINE
  5
11B
330
116
100
AcDbEntity
  8
VERMASSUNG
100
AcDbLine
 10
172.4221126536
 20
74.4782578857
 30
0.0
 11
77.863203315
 21
74.4782578857
 31
0.0
  0
LINE
  5
11C
330
116
100
AcDbEntity
  8
VERMASSUNG
100
AcDbLine
 10
172.4221126536
 20
137.9782578857
 30
0.0
 11
77.863203315
 21
137.9782578857
 31
0.0
  0
LINE
  5
11D
330
116
100
AcDbEntity
  8
VERMASSUNG
100
AcDbLine
 10
78.863203315
 20
74.4782578857
 30
0.0
 11
78.863203315
 21
137.9782578857
 31
0.0
  0
MTEXT
  5
11E
330
116
100
AcDbEntity
  8
VERMASSUNG
100
AcDbMText
 10
76.0850680588
 20
96.9245658157
 30
0.0
 40
2.0
 41
0.0
 71
     1
 72
     1
  1
CAT 40
  7
SLDTEXTSTYLE0
 11
3.391901413832837E-15
 21
1.0
 31
0.0
 73
     1
 44
1.0
  0
MTEXT
  5
11F
330
116
100
AcDbEntity
  8
VERMASSUNG
100
AcDbMText
 10
76.2850680101
 20
107.1245652524
 30
0.0
 40
2.0
 41
0.0
 71
     1
 72
     1
  1
%%c
  7
SLDTEXTSTYLE0
 11
3.391901413832837E-15
 21
1.0
 31
0.0
 73
     1
 44
1.0
  0
MTEXT
  5
120
330
116
100
AcDbEntity
  8
VERMASSUNG
100
AcDbMText
 10
76.2850677191
 20
110.7339581947
 30
0.0
 40
2.0
 41
0.0
 71
     1
 72
     1
  1
63.5
  7
SLDTEXTSTYLE0
 11
3.391901413832837E-15
 21
1.0
 31
0.0
 73
     1
 44
1.0
  0
ENDBLK
  5
118
330
116
100
AcDbEntity
  8
0
100
AcDbBlockEnd
  0
BLOCK
  5
124
330
123
100
AcDbEntity
  8
0
100
AcDbBlockBegin
  2
_D_1
 70
     0
 10
0.0
 20
0.0
 30
0.0
  3
_D_1
  1

  0
SOLID
  5
126
330
123
100
AcDbEntity
  8
VERMASSUNG
100
AcDbTrace
 10
216.7988838196
 20
115.2282578857
 30
0.0
 11
216.3488838196
 21
112.2282578857
 31
0.0
 12
217.2488838196
 22
112.2282578857
 32
0.0
 13
217.2488838196
 23
112.2282578857
 33
0.0
  0
SOLID
  5
127
330
123
100
AcDbEntity
  8
VERMASSUNG
100
AcDbTrace
 10
216.7988838196
 20
97.2282578857
 30
0.0
 11
217.2488838196
 21
100.2282578857
 31
0.0
 12
216.3488838196
 22
100.2282578857
 32
0.0
 13
216.3488838196
 23
100.2282578857
 33
0.0
  0
LINE
  5
128
330
123
100
AcDbEntity
  8
VERMASSUNG
100
AcDbLine
 10
201.0721126536
 20
115.2282578857
 30
0.0
 11
217.7988838196
 21
115.2282578857
 31
0.0
  0
LINE
  5
129
330
123
100
AcDbEntity
  8
VERMASSUNG
100
AcDbLine
 10
201.0721126536
 20
97.2282578857
 30
0.0
 11
217.7988838196
 21
97.2282578857
 31
0.0
  0
LINE
  5
12A
330
123
100
AcDbEntity
  8
VERMASSUNG
100
AcDbLine
 10
216.7988838196
 20
115.2282578857
 30
0.0
 11
216.7988838196
 21
97.2282578857
 31
0.0
  0
MTEXT
  5
12B
330
123
100
AcDbEntity
  8
VERMASSUNG
100
AcDbMText
 10
214.2207482819
 20
103.2248253419
 30
0.0
 40
2.0
 41
0.0
 71
     1
 72
     1
  1
%%c
  7
SLDTEXTSTYLE0
 11
-7.044195017643634E-15
 21
1.0
 31
0.0
 73
     1
 44
1.0
  0
MTEXT
  5
12C
330
123
100
AcDbEntity
  8
VERMASSUNG
100
AcDbMText
 10
214.2207482237
 20
106.8337975356
 30
0.0
 40
2.0
 41
0.0
 71
     1
 72
     1
  1
18
  7
SLDTEXTSTYLE0
 11
-7.044195017643634E-15
 21
1.0
 31
0.0
 73
     1
 44
1.0
  0
ENDBLK
  5
125
330
123
100
AcDbEntity
  8
0
100
AcDbBlockEnd
  0
BLOCK
  5
12F
330
12E
100
AcDbEntity
  8
0
100
AcDbBlockBegin
  2
_D_2
 70
     0
 10
0.0
 20
0.0
 30
0.0
  3
_D_2
  1

  0
SOLID
  5
131
330
12E
100
AcDbEntity
  8
VERMASSUNG
100
AcDbTrace
 10
153.9721126536
 20
145.1993907382
 30
0.0
 11
156.9721126536
 21
144.7493907382
 31
0.0
 12
156.9721126536
 22
145.6493907382
 32
0.0
 13
156.9721126536
 23
145.6493907382
 33
0.0
  0
SOLID
  5
132
330
12E
100
AcDbEntity
  8
VERMASSUNG
100
AcDbTrace
 10
209.9721126536
 20
145.1993907382
 30
0.0
 11
206.9721126536
 21
145.6493907382
 31
0.0
 12
206.9721126536
 22
144.7493907382
 32
0.0
 13
206.9721126536
 23
144.7493907382
 33
0.0
  0
LINE
  5
133
330
12E
100
AcDbEntity
  8
VERMASSUNG
100
AcDbLine
 10
153.9721126536
 20
128.4532578857
 30
0.0
 11
153.9721126536
 21
146.1993907382
 31
0.0
  0
LINE
  5
134
330
12E
100
AcDbEntity
  8
VERMASSUNG
100
AcDbLine
 10
209.9721126536
 20
121.9282578857
 30
0.0
 11
209.9721126536
 21
146.1993907382
 31
0.0
  0
LINE
  5
135
330
12E
100
AcDbEntity
  8
VERMASSUNG
100
AcDbLine
 10
153.9721126536
 20
145.1993907382
 30
0.0
 11
209.9721126536
 21
145.1993907382
 31
0.0
  0
MTEXT
  5
136
330
12E
100
AcDbEntity
  8
VERMASSUNG
100
AcDbMText
 10
180.5724226433
 20
147.7775263342
 30
0.0
 40
2.0
 41
0.0
 71
     1
 72
     1
  1
56
  7
SLDTEXTSTYLE0
 73
     1
 44
1.0
  0
ENDBLK
  5
130
330
12E
100
AcDbEntity
  8
0
100
AcDbBlockEnd
  0
BLOCK
  5
139
330
138
100
AcDbEntity
  8
0
100
AcDbBlockBegin
  2
_D_3
 70
     0
 10
0.0
 20
0.0
 30
0.0
  3
_D_3
  1

  0
ARC
  5
13B
330
138
100
AcDbEntity
  8
VERMASSUNG
100
AcDbCircle
 10
200.4843520975
 20
141.0987336837
 30
0.0
 40
4.247059938537297
100
AcDbArc
 50
153.4349488229
 51
206.5650511771
  0
ARC
  5
13C
330
138
100
AcDbEntity
  8
VERMASSUNG
100
AcDbCircle
 10
198.4598732097
 20
141.0987336837
 30
0.0
 40
4.247059938537297
100
AcDbArc
 50
333.4349488229
 51
26.5650511771
  0
SOLID
  5
13D
330
138
100
AcDbEntity
  8
VERMASSUNG
100
AcDbTrace
 10
188.9721126536
 20
139.1993907382
 30
0.0
 11
191.9721126536
 21
138.7493907382
 31
0.0
 12
191.9721126536
 22
139.6493907382
 32
0.0
 13
191.9721126536
 23
139.6493907382
 33
0.0
  0
SOLID
  5
13E
330
138
100
AcDbEntity
  8
VERMASSUNG
100
AcDbTrace
 10
209.9721126536
 20
139.1993907382
 30
0.0
 11
206.9721126536
 21
139.6493907382
 31
0.0
 12
206.9721126536
 22
138.7493907382
 32
0.0
 13
206.9721126536
 23
138.7493907382
 33
0.0
  0
LINE
  5
13F
330
138
100
AcDbEntity
  8
VERMASSUNG
100
AcDbLine
 10
188.9721126536
 20
127.4532578857
 30
0.0
 11
188.9721126536
 21
140.1993907382
 31
0.0
  0
LINE
  5
140
330
138
100
AcDbEntity
  8
VERMASSUNG
100
AcDbLine
 10
209.9721126536
 20
121.9282578857
 30
0.0
 11
209.9721126536
 21
140.1993907382
 31
0.0
  0
LINE
  5
141
330
138
100
AcDbEntity
  8
VERMASSUNG
100
AcDbLine
 10
188.9721126536
 20
139.1993907382
 30
0.0
 11
209.9721126536
 21
139.1993907382
 31
0.0
  0
MTEXT
  5
142
330
138
100
AcDbEntity
  8
VERMASSUNG
100
AcDbMText
 10
198.2731662066
 20
141.7775263342
 30
0.0
 40
2.0
 41
0.0
 71
     1
 72
     1
  1
21
  7
SLDTEXTSTYLE0
 73
     1
 44
1.0
  0
ENDBLK
  5
13A
330
138
100
AcDbEntity
  8
0
100
AcDbBlockEnd
  0
BLOCK
  5
145
330
144
100
AcDbEntity
  8
0
100
AcDbBlockBegin
  2
_D_4
 70
     0
 10
0.0
 20
0.0
 30
0.0
  3
_D_4
  1

  0
ARC
  5
147
330
144
100
AcDbEntity
  8
VERMASSUNG
100
AcDbCircle
 10
146.3588814486
 20
151.9321036573
 30
0.0
 40
4.247059938537386
100
AcDbArc
 50
153.4349488229
 51
206.5650511771
  0
ARC
  5
148
330
144
100
AcDbEntity
  8
VERMASSUNG
100
AcDbCircle
 10
149.3353438585
 20
151.9321036573
 30
0.0
 40
4.247059938537361
100
AcDbArc
 50
333.4349488229
 51
26.5650511771
  0
SOLID
  5
149
330
144
100
AcDbEntity
  8
VERMASSUNG
100
AcDbTrace
 10
209.9721126536
 20
150.0327607119
 30
0.0
 11
206.9721126536
 21
150.4827607119
 31
0.0
 12
206.9721126536
 22
149.5827607119
 32
0.0
 13
206.9721126536
 23
149.5827607119
 33
0.0
  0
SOLID
  5
14A
330
144
100
AcDbEntity
  8
VERMASSUNG
100
AcDbTrace
 10
85.7221126536
 20
150.0327607119
 30
0.0
 11
88.7221126536
 21
149.5827607119
 31
0.0
 12
88.7221126536
 22
150.4827607119
 32
0.0
 13
88.7221126536
 23
150.4827607119
 33
0.0
  0
LINE
  5
14B
330
144
100
AcDbEntity
  8
VERMASSUNG
100
AcDbLine
 10
209.9721126536
 20
121.9282578857
 30
0.0
 11
209.9721126536
 21
151.0327607119
 31
0.0
  0
LINE
  5
14C
330
144
100
AcDbEntity
  8
VERMASSUNG
100
AcDbLine
 10
85.7221126536
 20
117.6353884827
 30
0.0
 11
85.7221126536
 21
151.0327607119
 31
0.0
  0
LINE
  5
14D
330
144
100
AcDbEntity
  8
VERMASSUNG
100
AcDbLine
 10
209.9721126536
 20
150.0327607119
 30
0.0
 11
85.7221126536
 21
150.0327607119
 31
0.0
  0
MTEXT
  5
14E
330
144
100
AcDbEntity
  8
VERMASSUNG
100
AcDbMText
 10
144.1476955578
 20
152.6108963079
 30
0.0
 40
2.0
 41
0.0
 71
     1
 72
     1
  1
124.25
  7
SLDTEXTSTYLE0
 73
     1
 44
1.0
  0
ENDBLK
  5
146
330
144
100
AcDbEntity
  8
0
100
AcDbBlockEnd
  0
BLOCK
  5
151
330
150
100
AcDbEntity
  8
0
100
AcDbBlockBegin
  2
_D_5
 70
     0
 10
0.0
 20
0.0
 30
0.0
  3
_D_5
  1

  0
SOLID
  5
153
330
150
100
AcDbEntity
  8
VERMASSUNG
100
AcDbTrace
 10
222.7988838196
 20
122.2282578857
 30
0.0
 11
222.3488838196
 21
119.2282578857
 31
0.0
 12
223.2488838196
 22
119.2282578857
 32
0.0
 13
223.2488838196
 23
119.2282578857
 33
0.0
  0
SOLID
  5
154
330
150
100
AcDbEntity
  8
VERMASSUNG
100
AcDbTrace
 10
222.7988838196
 20
90.2282578857
 30
0.0
 11
223.2488838196
 21
93.2282578857
 31
0.0
 12
222.3488838196
 22
93.2282578857
 32
0.0
 13
222.3488838196
 23
93.2282578857
 33
0.0
  0
LINE
  5
155
330
150
100
AcDbEntity
  8
VERMASSUNG
100
AcDbLine
 10
209.6721126536
 20
122.2282578857
 30
0.0
 11
223.7988838196
 21
122.2282578857
 31
0.0
  0
LINE
  5
156
330
150
100
AcDbEntity
  8
VERMASSUNG
100
AcDbLine
 10
209.6721126536
 20
90.2282578857
 30
0.0
 11
223.7988838196
 21
90.2282578857
 31
0.0
  0
LINE
  5
157
330
150
100
AcDbEntity
  8
VERMASSUNG
100
AcDbLine
 10
222.7988838196
 20
122.2282578857
 30
0.0
 11
222.7988838196
 21
90.2282578857
 31
0.0
  0
MTEXT
  5
158
330
150
100
AcDbEntity
  8
VERMASSUNG
100
AcDbMText
 10
220.0207485634
 20
100.1232586639
 30
0.0
 40
2.0
 41
0.0
 71
     1
 72
     1
  1
ST3
  7
SLDTEXTSTYLE0
 11
-7.044195017643634E-15
 21
1.0
 31
0.0
 73
     1
 44
1.0
  0
MTEXT
  5
159
330
150
100
AcDbEntity
  8
VERMASSUNG
100
AcDbMText
 10
220.2207485147
 20
105.9232585901
 30
0.0
 40
2.0
 41
0.0
 71
     1
 72
     1
  1
%%c
  7
SLDTEXTSTYLE0
 11
-7.044195017643634E-15
 21
1.0
 31
0.0
 73
     1
 44
1.0
  0
MTEXT
  5
15A
330
150
100
AcDbEntity
  8
VERMASSUNG
100
AcDbMText
 10
220.0207485634
 20
109.5332581387
 30
0.0
 40
2.0
 41
0.0
 71
     1
 72
     1
  1
32
  7
SLDTEXTSTYLE0
 11
-7.044195017643634E-15
 21
1.0
 31
0.0
 73
     1
 44
1.0
  0
ENDBLK
  5
152
330
150
100
AcDbEntity
  8
0
100
AcDbBlockEnd
  0
ENDSEC
  0
SECTION
  2
ENTITIES
  0
MTEXT
  5
78
330
1F
100
AcDbEntity
  8
KOPF_DÜNN
100
AcDbMText
 10
13.8892156294
 20
23.8442973028
 30
0.0
 40
3.0
 41
0.0
 71
     1
 72
     1
  1
104.340.032.056
  7
SLDTEXTSTYLE0
 73
     1
 44
1.0
  0
MTEXT
  5
79
330
1F
100
AcDbEntity
  8
VERMASSUNG
100
AcDbMText
 10
13.9329988022
 20
28.8834360957
 30
0.0
 40
3.0
 41
0.0
 71
     1
 72
     1
  1
Aufnahme_Master shank ST3
  7
SLDTEXTSTYLE0
 73
     1
 44
1.0
  0
MTEXT
  5
7A
330
1F
100
AcDbEntity
  8
VERMASSUNG
100
AcDbMText
 10
98.8601118557
 20
13.8365368761
 30
0.0
 40
2.0
 41
0.0
 71
     1
 72
     1
  1
Datum: 07.05.2008
  7
SLDTEXTSTYLE0
 73
     1
 44
1.0
  0
MTEXT
  5
7B
330
1F
100
AcDbEntity
  8
VERMASSUNG
100
AcDbMText
 10
13.933048693
 20
18.0482802738
 30
0.0
 40
2.0
 41
0.0
 71
     1
 72
     1
  1
ANSI B5.50 CAT 40
  7
SLDTEXTSTYLE0
 73
     1
 44
1.0
  0
MTEXT
  5
7C
330
1F
100
AcDbEntity
  8
VERMASSUNG
100
AcDbMText
 10
13.9808475933
 20
13.9090974274
 30
0.0
 40
2.0
 41
0.0
 71
     1
 72
     1
  1
Gewicht: 1109g
  7
SLDTEXTSTYLE0
 73
     1
 44
1.0
  0
ARC
  5
7D
330
1F
100
AcDbEntity
  8
0
  6
Continuous
 62
     7
370
    15
100
AcDbCircle
 10
173.6221126536
 20
83.4032578857
 30
0.0
 40
0.6000000000000199
100
AcDbArc
 50
90.0
 51
134.8884465586
  0
ARC
  5
7E
330
1F
100
AcDbEntity
  8
0
  6
Continuous
 62
     7
370
    15
100
AcDbCircle
 10
173.6221126536
 20
129.0532578857
 30
0.0
 40
0.6000000000000227
100
AcDbArc
 50
180.0
 51
270.0
  0
ARC
  5
7F
330
1F
100
AcDbEntity
  8
0
  6
Continuous
 62
     7
370
    15
100
AcDbCircle
 10
156.5471126536
 20
83.4032578857
 30
0.0
 40
0.6000000000000136
100
AcDbArc
 50
45.0661038784
 51
90.0
  0
ARC
  5
80
330
1F
100
AcDbEntity
  8
0
  6
Continuous
 62
     7
370
    15
100
AcDbCircle
 10
156.5471126536
 20
129.0532578857
 30
0.0
 40
0.6000000000000227
100
AcDbArc
 50
270.0
 51
0.0
  0
LINE
  5
81
330
1F
100
AcDbEntity
  8
0
  6
Continuous
 62
     7
370
    15
100
AcDbLine
 10
153.9721126536
 20
128.4532578857
 30
0.0
 11
86.5778057605
 21
118.6249214638
 31
0.0
  0
LINE
  5
82
330
1F
100
AcDbEntity
  8
0
  6
Continuous
 62
     7
370
    15
100
AcDbLine
 10
86.5778057605
 20
93.8315943076
 30
0.0
 11
153.9721126536
 21
84.0032578857
 31
0.0
  0
LINE
  5
83
330
1F
100
AcDbEntity
  8
0
  6
Continuous
 62
     7
370
    15
100
AcDbLine
 10
153.9721126536
 20
84.0032578857
 30
0.0
 11
156.5471126536
 21
84.0032578857
 31
0.0
  0
LINE
  5
84
330
1F
100
AcDbEntity
  8
0
  6
Continuous
 62
     7
370
    15
100
AcDbLine
 10
156.5471126536
 20
128.4532578857
 30
0.0
 11
153.9721126536
 21
128.4532578857
 31
0.0
  0
ARC
  5
85
330
1F
100
AcDbEntity
  8
0
  6
Continuous
 62
     7
370
    15
100
AcDbCircle
 10
187.9721126536
 20
85.0032578857
 30
0.0
 40
1.0
100
AcDbArc
 50
270.0
 51
0.0
  0
ARC
  5
86
330
1F
100
AcDbEntity
  8
0
  6
Continuous
 62
     7
370
    15
100
AcDbCircle
 10
187.9721126536
 20
127.4532578857
 30
0.0
 40
1.0
100
AcDbArc
 50
0.0
 51
90.0
  0
LINE
  5
87
330
1F
100
AcDbEntity
  8
0
  6
Continuous
 62
     7
370
    15
100
AcDbLine
 10
173.6221126536
 20
84.0032578857
 30
0.0
 11
187.9721126536
 21
84.0032578857
 31
0.0
  0
LINE
  5
88
330
1F
100
AcDbEntity
  8
0
  6
Continuous
 62
     7
370
    15
100
AcDbLine
 10
187.9721126536
 20
128.4532578857
 30
0.0
 11
173.6221126536
 21
128.4532578857
 31
0.0
  0
ARC
  5
89
330
1F
100
AcDbEntity
  8
0
  6
Continuous
 62
     7
370
    15
100
AcDbCircle
 10
192.9721126536
 20
86.2282578857
 30
0.0
 40
4.0
100
AcDbArc
 50
90.0
 51
180.0
  0
ARC
  5
8A
330
1F
100
AcDbEntity
  8
0
  6
Continuous
 62
     7
370
    15
100
AcDbCircle
 10
192.9721126536
 20
126.2282578857
 30
0.0
 40
4.000000000000014
100
AcDbArc
 50
180.0
 51
270.0
  0
LINE
  5
8B
330
1F
100
AcDbEntity
  8
0
  6
Continuous
 62
     7
370
    15
100
AcDbLine
 10
209.6721126536
 20
122.2282578857
 30
0.0
 11
192.9721126536
 21
122.2282578857
 31
0.0
  0
LINE
  5
8C
330
1F
100
AcDbEntity
  8
0
  6
Continuous
 62
     7
370
    15
100
AcDbLine
 10
192.9721126536
 20
90.2282578857
 30
0.0
 11
209.6721126536
 21
90.2282578857
 31
0.0
  0
LINE
  5
8D
330
1F
100
AcDbEntity
  8
0
  6
Continuous
 62
     7
370
    15
100
AcDbLine
 10
209.6721126536
 20
90.2282578857
 30
0.0
 11
209.9721126536
 21
90.5282578857
 31
0.0
  0
LINE
  5
8E
330
1F
100
AcDbEntity
  8
0
  6
Continuous
 62
     7
370
    15
100
AcDbLine
 10
209.9721126536
 20
121.9282578857
 30
0.0
 11
209.6721126536
 21
122.2282578857
 31
0.0
  0
ARC
  5
8F
330
1F
100
AcDbEntity
  8
0
  6
Continuous
 62
     7
370
    15
100
AcDbCircle
 10
86.7221126536
 20
94.8211272887
 30
0.0
 40
1.00000000000001
100
AcDbArc
 50
180.0
 51
261.7028550302
  0
ARC
  5
90
330
1F
100
AcDbEntity
  8
0
  6
Continuous
 62
     7
370
    15
100
AcDbCircle
 10
86.7221126536
 20
117.6353884827
 30
0.0
 40
1.00000000000001
100
AcDbArc
 50
98.2971449698
 51
180.0
  0
SPLINE
  5
91
330
1F
100
AcDbEntity
  8
0
  6
Continuous
 62
     7
370
    15
100
AcDbSpline
210
0.0
220
0.0
230
1.0
 70
    24
 71
     3
 72
    11
 73
     7
 74
     0
 42
0.000000001
 43
0.00000001
 40
0.0
 40
0.0
 40
0.0
 40
0.0
 40
0.1183358584681206
 40
0.4755396850857851
 40
0.8141708872487055
 40
1.0
 40
1.0
 40
1.0
 40
1.0
 10
202.7881380573634
 20
104.7282578857141
 30
0.0
 10
202.7239887532023
 20
104.7282578857141
 30
0.0
 10
202.4662009592558
 20
104.7282578857141
 30
0.0
 10
201.979116032118
 20
104.7282578857141
 30
0.0
 10
201.4432597704292
 20
104.7282578857141
 30
0.0
 10
201.1573810649477
 20
104.7282578857141
 30
0.0
 10
201.0560872497945
 20
104.7282578857141
 30
0.0
  0
SPLINE
  5
92
330
1F
100
AcDbEntity
  8
0
  6
Continuous
 62
     7
370
    15
100
AcDbSpline
210
0.0
220
0.0
230
1.0
 70
    24
 71
     3
 72
    11
 73
     7
 74
     0
 42
0.000000001
 43
0.00000001
 40
0.0
 40
0.0
 40
0.0
 40
0.0
 40
0.2164499953511932
 40
0.4402998152333236
 40
0.75189147600105
 40
1.0
 40
1.0
 40
1.0
 40
1.0
 10
203.6541634611478
 20
106.2282578857141
 30
0.0
 10
203.5948413856727
 20
106.1255090369808
 30
0.0
 10
203.4741691776251
 20
105.9164986415807
 30
0.0
 10
203.2502312093067
 20
105.5286267027096
 30
0.0
 10
203.0100117431507
 20
105.1125543823602
 30
0.0
 10
202.8562838350674
 20
104.8462898350187
 30
0.0
 10
202.7881380573634
 20
104.7282578857141
 30
0.0
  0
SPLINE
  5
93
330
1F
100
AcDbEntity
  8
0
  6
Continuous
 62
     7
370
    15
100
AcDbSpline
210
0.0
220
0.0
230
1.0
 70
    24
 71
     3
 72
    11
 73
     7
 74
     0
 42
0.000000001
 43
0.00000001
 40
0.0
 40
0.0
 40
0.0
 40
0.0
 40
0.2164499953511927
 40
0.4402998152333233
 40
0.7518914760010499
 40
1.0
 40
1.0
 40
1.0
 40
1.0
 10
202.7881380573634
 20
107.7282578857141
 30
0.0
 10
202.8474601328385
 20
107.6255090369808
 30
0.0
 10
202.9681323408862
 20
107.4164986415807
 30
0.0
 10
203.1920703092045
 20
107.0286267027096
 30
0.0
 10
203.4322897753606
 20
106.6125543823602
 30
0.0
 10
203.5860176834438
 20
106.3462898350187
 30
0.0
 10
203.6541634611478
 20
106.2282578857141
 30
0.0
  0
SPLINE
  5
94
330
1F
100
AcDbEntity
  8
0
  6
Continuous
 62
     7
370
    15
100
AcDbSpline
210
0.0
220
0.0
230
1.0
 70
    24
 71
     3
 72
    11
 73
     7
 74
     0
 42
0.000000001
 43
0.00000001
 40
0.0
 40
0.0
 40
0.0
 40
0.0
 40
0.1858291127512951
 40
0.524460314914215
 40
0.8816641415318794
 40
0.9999999999999999
 40
0.9999999999999999
 40
0.9999999999999999
 40
0.9999999999999999
 10
201.0560872497945
 20
107.7282578857141
 30
0.0
 10
201.1573810649477
 20
107.7282578857141
 30
0.0
 10
201.4432597704292
 20
107.7282578857141
 30
0.0
 10
201.979116032118
 20
107.7282578857141
 30
0.0
 10
202.4662009592558
 20
107.7282578857141
 30
0.0
 10
202.7239887532022
 20
107.7282578857141
 30
0.0
 10
202.7881380573634
 20
107.7282578857141
 30
0.0
  0
SPLINE
  5
95
330
1F
100
AcDbEntity
  8
0
  6
Continuous
 62
     7
370
    15
100
AcDbSpline
210
0.0
220
0.0
230
1.0
 70
    24
 71
     3
 72
    10
 73
     6
 74
     0
 42
0.000000001
 43
0.00000001
 40
0.0
 40
0.0
 40
0.0
 40
0.0
 40
0.4391165375904116
 40
0.7513669429073457
 40
0.9999999999999999
 40
0.9999999999999999
 40
0.9999999999999999
 40
0.9999999999999999
 10
200.1900618460101
 20
106.2282578857141
 30
0.0
 10
200.3140400589389
 20
106.4429944495384
 30
0.0
 10
200.5261776644744
 20
106.8104275605219
 30
0.0
 10
200.8345571418986
 20
107.3445564834323
 30
0.0
 10
200.9880469978203
 20
107.610408712335
 30
0.0
 10
201.0560872497945
 20
107.7282578857141
 30
0.0
  0
SPLINE
  5
96
330
1F
100
AcDbEntity
  8
0
  6
Continuous
 62
     7
370
    15
100
AcDbSpline
210
0.0
220
0.0
230
1.0
 70
    24
 71
     3
 72
    10
 73
     6
 74
     0
 42
0.000000001
 43
0.00000001
 40
0.0
 40
0.0
 40
0.0
 40
0.0
 40
0.4391165375904104
 40
0.7513669429073431
 40
1.0
 40
1.0
 40
1.0
 40
1.0
 10
201.0560872497945
 20
104.7282578857141
 30
0.0
 10
200.9321090368657
 20
104.9429944495384
 30
0.0
 10
200.7199714313302
 20
105.3104275605219
 30
0.0
 10
200.4115919539059
 20
105.8445564834323
 30
0.0
 10
200.2581020979843
 20
106.110408712335
 30
0.0
 10
200.1900618460101
 20
106.2282578857141
 30
0.0
  0
CIRCLE
  5
97
330
1F
100
AcDbEntity
  8
0
  6
Continuous
 62
     7
370
    15
100
AcDbCircle
 10
201.9221126536
 20
106.2282578857
 30
0.0
 40
1.900000000000006
  0
CIRCLE
  5
98
330
1F
100
AcDbEntity
  8
0
  6
Continuous
 62
     7
370
    15
100
AcDbCircle
 10
201.9221126536
 20
106.2282578857
 30
0.0
 40
2.599999999999994
  0
CIRCLE
  5
99
330
1F
100
AcDbEntity
  8
0
  6
Continuous
 62
     7
370
    15
100
AcDbCircle
 10
201.9221126536
 20
106.2282578857
 30
0.0
 40
3.0
  0
ARC
  5
9A
330
1F
100
AcDbEntity
  8
0
  6
Continuous
 62
     7
370
    15
100
AcDbCircle
 10
201.9221126536
 20
106.2282578857
 30
0.0
 40
1.5
100
AcDbArc
 50
330.0
 51
30.0
  0
ARC
  5
9B
330
1F
100
AcDbEntity
  8
0
  6
Continuous
 62
     7
370
    15
100
AcDbCircle
 10
201.9221126536
 20
106.2282578857
 30
0.0
 40
1.5
100
AcDbArc
 50
90.0
 51
150.0
  0
ARC
  5
9C
330
1F
100
AcDbEntity
  8
0
  6
Continuous
 62
     7
370
    15
100
AcDbCircle
 10
201.9221126536
 20
106.2282578857
 30
0.0
 40
1.499999999999993
100
AcDbArc
 50
30.0
 51
90.0
  0
ARC
  5
9D
330
1F
100
AcDbEntity
  8
0
  6
Continuous
 62
     7
370
    15
100
AcDbCircle
 10
201.9221126536
 20
106.2282578857
 30
0.0
 40
1.5
100
AcDbArc
 50
270.0
 51
330.0
  0
ARC
  5
9E
330
1F
100
AcDbEntity
  8
0
  6
Continuous
 62
     7
370
    15
100
AcDbCircle
 10
201.9221126536
 20
106.2282578857
 30
0.0
 40
1.5
100
AcDbArc
 50
210.0
 51
270.0
  0
ARC
  5
9F
330
1F
100
AcDbEntity
  8
0
  6
Continuous
 62
     7
370
    15
100
AcDbCircle
 10
201.9221126536
 20
106.2282578857
 30
0.0
 40
1.5
100
AcDbArc
 50
150.0
 51
210.0
  0
LINE
  5
A0
330
1F
100
AcDbEntity
  8
0
  6
Continuous
 62
     7
370
    15
100
AcDbLine
 10
157.1471126536
 20
76.4616641941
 30
0.0
 11
157.1471126536
 21
135.9948515773
 31
0.0
  0
SPLINE
  5
A1
330
1F
100
AcDbEntity
  8
0
  6
Continuous
 62
     7
370
    15
100
AcDbSpline
210
0.0
220
0.0
230
1.0
 70
     8
 71
     3
 72
    10
 73
     6
 74
     0
 42
0.000000001
 43
0.00000001
 40
0.0
 40
0.0
 40
0.0
 40
0.0
 40
0.5
 40
0.5
 40
1.0
 40
1.0
 40
1.0
 40
1.0
 10
157.4361054897686
 20
136.6174348124032
 30
0.0
 10
157.359797790959
 20
136.5469180312924
 30
0.0
 10
157.2921353297078
 20
136.4612144788387
 30
0.0
 10
157.1848264807508
 20
136.2497148142752
 30
0.0
 10
157.147112653579
 20
136.125561854024
 30
0.0
 10
157.147112653579
 20
135.9948515773007
 30
0.0
  0
SPLINE
  5
A2
330
1F
100
AcDbEntity
  8
0
  6
Continuous
 62
     7
370
    15
100
AcDbSpline
210
0.0
220
0.0
230
1.0
 70
     8
 71
     3
 72
     8
 73
     4
 74
     0
 42
0.000000001
 43
0.00000001
 40
0.0
 40
0.0
 40
0.0
 40
0.0
 40
1.0
 40
1.0
 40
1.0
 40
1.0
 10
157.747112653579
 20
136.6874524627288
 30
0.0
 10
157.6356915033647
 20
136.6874524627288
 30
0.0
 10
157.5276970727683
 20
136.6621856821616
 30
0.0
 10
157.4361054897686
 20
136.6174348124032
 30
0.0
  0
SPLINE
  5
A3
330
1F
100
AcDbEntity
  8
0
  6
Continuous
 62
     7
370
    15
100
AcDbSpline
210
0.0
220
0.0
230
1.0
 70
     8
 71
     3
 72
    10
 73
     6
 74
     0
 42
0.000000001
 43
0.00000001
 40
0.0
 40
0.0
 40
0.0
 40
0.0
 40
0.5
 40
0.5
 40
1.0
 40
1.0
 40
1.0
 40
1.0
 10
157.3640283189387
 20
75.91377060677256
 30
0.0
 10
157.4127636398068
 20
75.88586278880402
 30
0.0
 10
157.470129848822
 20
75.86205285763413
 30
0.0
 10
157.6004682463576
 20
75.82820063667809
 30
0.0
 10
157.6727646710814
 20
75.81854934425704
 30
0.0
 10
157.747112653579
 20
75.81854934425704
 30
0.0
  0
SPLINE
  5
A4
330
1F
100
AcDbEntity
  8
0
  6
Continuous
 62
     7
370
    15
100
AcDbSpline
210
0.0
220
0.0
230
1.0
 70
     8
 71
     3
 72
    10
 73
     6
 74
     0
 42
0.000000001
 43
0.00000001
 40
0.0
 40
0.0
 40
0.0
 40
0.0
 40
0.5
 40
0.5
 40
1.0
 40
1.0
 40
1.0
 40
1.0
 10
157.3640283189387
 20
75.91377060677257
 30
0.0
 10
157.3057027840333
 20
75.9814715159989
 30
0.0
 10
157.2531433817878
 20
76.0619518410027
 30
0.0
 10
157.173955978726
 20
76.24682498139822
 30
0.0
 10
157.147112653579
 20
76.35244042618608
 30
0.0
 10
157.147112653579
 20
76.46166419412756
 30
0.0
  0
SPLINE
  5
A5
330
1F
100
AcDbEntity
  8
0
  6
Continuous
 62
     7
370
    15
100
AcDbSpline
210
0.0
220
0.0
230
1.0
 70
     8
 71
     3
 72
     8
 73
     4
 74
     0
 42
0.000000001
 43
0.00000001
 40
0.0
 40
0.0
 40
0.0
 40
0.0
 40
1.0
 40
1.0
 40
1.0
 40
1.0
 10
168.0395986605354
 20
135.9064276485928
 30
0.0
 10
167.6864506387787
 20
135.271948809427
 30
0.0
 10
167.333913208035
 20
134.6371363463867
 30
0.0
 10
166.982112653579
 20
134.0019212578297
 30
0.0
  0
SPLINE
  5
A6
330
1F
100
AcDbEntity
  8
0
  6
Continuous
 62
     7
370
    15
100
AcDbSpline
210
0.0
220
0.0
230
1.0
 70
     8
 71
     3
 72
     8
 73
     4
 74
     0
 42
0.000000001
 43
0.00000001
 40
0.0
 40
0.0
 40
0.0
 40
0.0
 40
0.0012371390485494
 40
0.0012371390485494
 40
0.0012371390485494
 40
0.0012371390485494
 10
168.5968360469816
 20
136.6874524627288
 30
0.0
 10
168.4103943806554
 20
136.4273596832396
 30
0.0
 10
168.2246246771365
 20
136.1670253999338
 30
0.0
 10
168.0395986605354
 20
135.9064276485928
 30
0.0
  0
LINE
  5
A7
330
1F
100
AcDbEntity
  8
0
  6
Continuous
 62
     7
370
    15
100
AcDbLine
 10
168.596836047
 20
75.8185493443
 30
0.0
 11
168.596836047
 21
136.6874524627
 31
0.0
  0
SPLINE
  5
A8
330
1F
100
AcDbEntity
  8
0
  6
Continuous
 62
     7
370
    15
100
AcDbSpline
210
0.0
220
0.0
230
1.0
 70
     8
 71
     3
 72
     8
 73
     4
 74
     0
 42
0.000000001
 43
0.00000001
 40
0.0
 40
0.0
 40
0.0
 40
0.0
 40
0.0011858378198547
 40
0.0011858378198547
 40
0.0011858378198547
 40
0.0011858378198547
 10
168.1414364668929
 20
76.36716211766709
 30
0.0
 10
168.2917044533864
 20
76.18397383260368
 30
0.0
 10
168.4435500560554
 20
76.00110877347183
 30
0.0
 10
168.5968360469816
 20
75.81854934425705
 30
0.0
  0
SPLINE
  5
A9
330
1F
100
AcDbEntity
  8
0
  6
Continuous
 62
     7
370
    15
100
AcDbSpline
210
0.0
220
0.0
230
1.0
 70
     8
 71
     3
 72
     8
 73
     4
 74
     0
 42
0.000000001
 43
0.00000001
 40
0.0
 40
0.0
 40
0.0
 40
0.0
 40
1.0
 40
1.0
 40
1.0
 40
1.0
 10
168.1414364668929
 20
76.36716211766709
 30
0.0
 10
167.7542241368508
 20
77.0625421208973
 30
0.0
 10
167.3677234867133
 20
77.75833120072026
 30
0.0
 10
166.982112653579
 20
78.4545945135985
 30
0.0
  0
LINE
  5
AA
330
1F
100
AcDbEntity
  8
0
  6
Continuous
 62
     7
370
    15
100
AcDbLine
 10
172.4221126536
 20
136.6874524627
 30
0.0
 11
168.596836047
 21
136.6874524627
 31
0.0
  0
LINE
  5
AB
330
1F
100
AcDbEntity
  8
0
  6
Continuous
 62
     7
370
    15
100
AcDbLine
 10
168.596836047
 20
75.8185493443
 30
0.0
 11
172.4221126536
 21
75.8185493443
 31
0.0
  0
SPLINE
  5
AC
330
1F
100
AcDbEntity
  8
0
  6
Continuous
 62
     7
370
    15
100
AcDbSpline
210
0.0
220
0.0
230
1.0
 70
     8
 71
     3
 72
    12
 73
     8
 74
     0
 42
0.000000001
 43
0.00000001
 40
0.0
 40
0.0
 40
0.0
 40
0.0
 40
0.4999999999999953
 40
0.4999999999999953
 40
0.7499999999999977
 40
0.7499999999999977
 40
1.0
 40
1.0
 40
1.0
 40
1.0
 10
173.022112653579
 20
136.2028056799577
 30
0.0
 10
173.022112653579
 20
136.3229758588278
 30
0.0
 10
172.9682005418909
 20
136.4408783508129
 30
0.0
 10
172.8070801860322
 20
136.5801972196659
 30
0.0
 10
172.7422820771901
 20
136.6183369106581
 30
0.0
 10
172.590226649872
 20
136.6729169959932
 30
0.0
 10
172.5074943874207
 20
136.6874524627288
 30
0.0
 10
172.422112653579
 20
136.6874524627288
 30
0.0
  0
LINE
  5
AD
330
1F
100
AcDbEntity
  8
0
  6
Continuous
 62
     7
370
    15
100
AcDbLine
 10
173.0221126536
 20
76.2346851024
 30
0.0
 11
173.0221126536
 21
136.20280568
 31
0.0
  0
SPLINE
  5
AE
330
1F
100
AcDbEntity
  8
0
  6
Continuous
 62
     7
370
    15
100
AcDbSpline
210
0.0
220
0.0
230
1.0
 70
     8
 71
     3
 72
    12
 73
     8
 74
     0
 42
0.000000001
 43
0.00000001
 40
0.0
 40
0.0
 40
0.0
 40
0.0
 40
0.2500000000000008
 40
0.2500000000000008
 40
0.5000000000000017
 40
0.5000000000000017
 40
1.0
 40
1.0
 40
1.0
 40
1.0
 10
172.422112653579
 20
75.81854934425705
 30
0.0
 10
172.517654563715
 20
75.81854934425705
 30
0.0
 10
172.6097995055777
 20
75.8346851277392
 30
0.0
 10
172.7661257821876
 20
75.88790473386253
 30
0.0
 10
172.8297939248076
 20
75.92405177406592
 30
0.0
 10
172.978661770238
 20
76.04528966713782
 30
0.0
 10
173.022112653579
 20
76.13975221279856
 30
0.0
 10
173.022112653579
 20
76.23468510237693
 30
0.0
  0
LINE
  5
AF
330
1F
100
AcDbEntity
  8
0
  6
Continuous
 62
     7
370
    15
100
AcDbLine
 10
161.5473892602
 20
136.6874524627
 30
0.0
 11
157.7471126536
 21
136.6874524627
 31
0.0
  0
LINE
  5
B0
330
1F
100
AcDbEntity
  8
0
  6
Continuous
 62
     7
370
    15
100
AcDbLine
 10
161.5473892602
 20
75.8185493443
 30
0.0
 11
161.5473892602
 21
136.6874524627
 31
0.0
  0
LINE
  5
B1
330
1F
100
AcDbEntity
  8
0
  6
Continuous
 62
     7
370
    15
100
AcDbLine
 10
157.7471126536
 20
75.8185493443
 30
0.0
 11
161.5473892602
 21
75.8185493443
 31
0.0
  0
SPLINE
  5
B2
330
1F
100
AcDbEntity
  8
0
  6
Continuous
 62
     7
370
    15
100
AcDbSpline
210
0.0
220
0.0
230
1.0
 70
     8
 71
     3
 72
     8
 73
     4
 74
     0
 42
0.000000001
 43
0.00000001
 40
0.0
 40
0.0
 40
0.0
 40
0.0
 40
0.0012371390485494
 40
0.0012371390485494
 40
0.0012371390485494
 40
0.0012371390485494
 10
162.1046266466225
 20
135.9064276485928
 30
0.0
 10
161.9196006300214
 20
136.1670253999338
 30
0.0
 10
161.7338309265026
 20
136.4273596832396
 30
0.0
 10
161.5473892601763
 20
136.6874524627288
 30
0.0
  0
SPLINE
  5
B3
330
1F
100
AcDbEntity
  8
0
  6
Continuous
 62
     7
370
    15
100
AcDbSpline
210
0.0
220
0.0
230
1.0
 70
     8
 71
     3
 72
     8
 73
     4
 74
     0
 42
0.000000001
 43
0.00000001
 40
0.0
 40
0.0
 40
0.0
 40
0.0
 40
1.0
 40
1.0
 40
1.0
 40
1.0
 10
163.162112653579
 20
134.0019212578297
 30
0.0
 10
162.8103120991229
 20
134.6371363463867
 30
0.0
 10
162.4577746683793
 20
135.271948809427
 30
0.0
 10
162.1046266466225
 20
135.9064276485928
 30
0.0
  0
SPLINE
  5
B4
330
1F
100
AcDbEntity
  8
0
  6
Continuous
 62
     7
370
    15
100
AcDbSpline
210
0.0
220
0.0
230
1.0
 70
     8
 71
     3
 72
     8
 73
     4
 74
     0
 42
0.000000001
 43
0.00000001
 40
0.0
 40
0.0
 40
0.0
 40
0.0
 40
1.0
 40
1.0
 40
1.0
 40
1.0
 10
163.162112653579
 20
78.45459451359848
 30
0.0
 10
162.7765018204447
 20
77.75833120072026
 30
0.0
 10
162.3900011703071
 20
77.0625421208973
 30
0.0
 10
162.002788840265
 20
76.36716211766709
 30
0.0
  0
SPLINE
  5
B5
330
1F
100
AcDbEntity
  8
0
  6
Continuous
 62
     7
370
    15
100
AcDbSpline
210
0.0
220
0.0
230
1.0
 70
     8
 71
     3
 72
     8
 73
     4
 74
     0
 42
0.000000001
 43
0.00000001
 40
0.0
 40
0.0
 40
0.0
 40
0.0
 40
0.0011858378198547
 40
0.0011858378198547
 40
0.0011858378198547
 40
0.0011858378198547
 10
161.5473892601763
 20
75.81854934425704
 30
0.0
 10
161.7006752511026
 20
76.00110877347183
 30
0.0
 10
161.8525208537716
 20
76.18397383260368
 30
0.0
 10
162.002788840265
 20
76.36716211766709
 30
0.0
  0
SPLINE
  5
B6
330
1F
100
AcDbEntity
  8
0
  6
Continuous
 62
     7
370
    15
100
AcDbSpline
210
0.0
220
0.0
230
1.0
 70
     8
 71
     3
 72
    12
 73
     8
 74
     0
 42
0.000000001
 43
0.00000001
 40
0.0
 40
0.0
 40
0.0
 40
0.0
 40
0.2500000000000015
 40
0.2500000000000015
 40
0.500000000000003
 40
0.500000000000003
 40
1.0
 40
1.0
 40
1.0
 40
1.0
 10
163.962112653579
 20
79.26161182062103
 30
0.0
 10
163.8556526983922
 20
79.26161182062103
 30
0.0
 10
163.7473830920915
 20
79.23858522330501
 30
0.0
 10
163.5513427367048
 20
79.15159073433406
 30
0.0
 10
163.4628813166094
 20
79.08792339450724
 30
0.0
 10
163.244198114794
 20
78.85428756331659
 30
0.0
 10
163.1621126535789
 20
78.63964131238336
 30
0.0
 10
163.1621126535789
 20
78.42667519695337
 30
0.0
  0
LINE
  5
B7
330
1F
100
AcDbEntity
  8
0
  6
Continuous
 62
     7
370
    15
100
AcDbLine
 10
163.1621126536
 20
78.426675197
 30
0.0
 11
163.1621126536
 21
134.0298405745
 31
0.0
  0
SPLINE
  5
B8
330
1F
100
AcDbEntity
  8
0
  6
Continuous
 62
     7
370
    15
100
AcDbSpline
210
0.0
220
0.0
230
1.0
 70
     8
 71
     3
 72
    12
 73
     8
 74
     0
 42
0.000000001
 43
0.00000001
 40
0.0
 40
0.0
 40
0.0
 40
0.0
 40
0.2500000000000015
 40
0.2500000000000015
 40
0.500000000000003
 40
0.500000000000003
 40
1.0
 40
1.0
 40
1.0
 40
1.0
 10
163.962112653579
 20
133.1949039508072
 30
0.0
 10
163.8556199130826
 20
133.1949039508072
 30
0.0
 10
163.7484862100488
 20
133.2176225825335
 30
0.0
 10
163.552441856494
 20
133.304257770606
 30
0.0
 10
163.4639725709105
 20
133.3675345751457
 30
0.0
 10
163.2431672719579
 20
133.6031142434566
 30
0.0
 10
163.1621126535789
 20
133.8168325229447
 30
0.0
 10
163.1621126535789
 20
134.0298405744748
 30
0.0
  0
SPLINE
  5
B9
330
1F
100
AcDbEntity
  8
0
  6
Continuous
 62
     7
370
    15
100
AcDbSpline
210
0.0
220
0.0
230
1.0
 70
     8
 71
     3
 72
    14
 73
    10
 74
     0
 42
0.000000001
 43
0.00000001
 40
0.0
 40
0.0
 40
0.0
 40
0.0
 40
0.25
 40
0.25
 40
0.5
 40
0.5
 40
0.75
 40
0.75
 40
1.0
 40
1.0
 40
1.0
 40
1.0
 10
166.982112653579
 20
78.42667519695337
 30
0.0
 10
166.982112653579
 20
78.53370455452102
 30
0.0
 10
166.9621249647674
 20
78.64073888435708
 30
0.0
 10
166.8848600762936
 20
78.83956346487281
 30
0.0
 10
166.826934111306
 20
78.93238751706282
 30
0.0
 10
166.6814772792802
 20
79.08777191000517
 30
0.0
 10
166.5926664169171
 20
79.15177910829884
 30
0.0
 10
166.3959318441043
 20
79.23889622266397
 30
0.0
 10
166.2895882694072
 20
79.26161182062103
 30
0.0
 10
166.182112653579
 20
79.26161182062103
 30
0.0
  0
SPLINE
  5
BA
330
1F
100
AcDbEntity
  8
0
  6
Continuous
 62
     7
370
    15
100
AcDbSpline
210
0.0
220
0.0
230
1.0
 70
     8
 71
     3
 72
    12
 73
     8
 74
     0
 42
0.000000001
 43
0.00000001
 40
0.0
 40
0.0
 40
0.0
 40
0.0
 40
0.5
 40
0.5
 40
0.75
 40
0.75
 40
1.0
 40
1.0
 40
1.0
 40
1.0
 10
166.982112653579
 20
134.0298405744748
 30
0.0
 10
166.982112653579
 20
133.8166719632962
 30
0.0
 10
166.8996117247348
 20
133.6015919154287
 30
0.0
 10
166.6810319473372
 20
133.3683555497786
 30
0.0
 10
166.5920317461441
 20
133.304446450653
 30
0.0
 10
166.3964543446955
 20
133.2178600958087
 30
0.0
 10
166.2900514135992
 20
133.1949039508072
 30
0.0
 10
166.182112653579
 20
133.1949039508072
 30
0.0
  0
LINE
  5
BB
330
1F
100
AcDbEntity
  8
0
  6
Continuous
 62
     7
370
    15
100
AcDbLine
 10
166.9821126536
 20
78.426675197
 30
0.0
 11
166.9821126536
 21
134.0298405745
 31
0.0
  0
LINE
  5
BC
330
1F
100
AcDbEntity
  8
0
  6
Continuous
 62
     7
370
    15
100
AcDbLine
 10
166.1821126536
 20
79.2616118206
 30
0.0
 11
163.9621126536
 21
79.2616118206
 31
0.0
  0
LINE
  5
BD
330
1F
100
AcDbEntity
  8
0
  6
Continuous
 62
     7
370
    15
100
AcDbLine
 10
166.1821126536
 20
133.1949039508
 30
0.0
 11
163.9621126536
 21
133.1949039508
 31
0.0
  0
SPLINE
  5
BE
330
1F
100
AcDbEntity
  8
0
  6
Continuous
 62
     7
370
    15
100
AcDbSpline
210
0.0
220
0.0
230
1.0
 70
    24
 71
     3
 72
    10
 73
     6
 74
     0
 42
0.000000001
 43
0.00000001
 40
0.0
 40
0.0
 40
0.0
 40
0.0
 40
0.5
 40
0.5
 40
1.0
 40
1.0
 40
1.0
 40
1.0
 10
173.0221126535789
 20
83.82825788571411
 30
0.0
 10
173.0221126535789
 20
83.82825788571411
 30
0.0
 10
173.0688623863705
 20
83.82825788571411
 30
0.0
 10
173.1577554179921
 20
83.82825788571411
 30
0.0
 10
173.1985887277141
 20
83.82825788571411
 30
0.0
 10
173.1985857947478
 20
83.82825788571411
 30
0.0
  0
LINE
  5
BF
330
1F
100
AcDbEntity
  8
0
  6
Continuous
 62
     7
370
    15
100
AcDbLine
 10
156.9706418413
 20
83.8282578857
 30
0.0
 11
156.9884004403
 21
83.8282578857
 31
0.0
  0
LINE
  5
C0
330
1F
100
AcDbEntity
  8
0
  6
Continuous
 62
     7
370
    15
100
AcDbLine
 10
153.9721126536
 20
84.0032578857
 30
0.0
 11
153.9721126536
 21
128.4532578857
 31
0.0
  0
LINE
  5
C1
330
1F
100
AcDbEntity
  8
0
  6
Continuous
 62
     7
370
    15
100
AcDbLine
 10
188.9721126536
 20
127.4532578851
 30
0.0
 11
188.9721126536
 21
85.0032578857
 31
0.0
  0
SPLINE
  5
C2
330
1F
100
AcDbEntity
  8
0
  6
Continuous
 62
     7
370
    15
100
AcDbSpline
210
0.0
220
0.0
230
1.0
 70
    11
 71
     3
 72
    66
 73
    62
 74
     0
 42
0.000000001
 43
0.00000001
 40
0.0
 40
0.0
 40
0.0
 40
0.0
 40
0.0312499999999996
 40
0.0312499999999996
 40
0.0624999999999993
 40
0.0624999999999993
 40
0.0937499999999989
 40
0.0937499999999989
 40
0.1249999999999986
 40
0.1249999999999986
 40
0.1562499999999982
 40
0.1562499999999982
 40
0.1874999999999978
 40
0.1874999999999978
 40
0.2187499999999975
 40
0.2187499999999975
 40
0.2499999999999971
 40
0.2499999999999971
 40
0.2812499999999968
 40
0.2812499999999968
 40
0.3124999999999964
 40
0.3124999999999964
 40
0.343749999999996
 40
0.343749999999996
 40
0.3749999999999957
 40
0.3749999999999957
 40
0.4062499999999953
 40
0.4062499999999953
 40
0.4374999999999949
 40
0.4374999999999949
 40
0.4687499999999946
 40
0.4687499999999946
 40
0.4999999999999942
 40
0.4999999999999942
 40
0.5312499999999939
 40
0.5312499999999939
 40
0.5624999999999936
 40
0.5624999999999936
 40
0.6249999999999937
 40
0.6249999999999937
 40
0.6562499999999942
 40
0.6562499999999942
 40
0.6874999999999947
 40
0.6874999999999947
 40
0.7187499999999952
 40
0.7187499999999952
 40
0.7499999999999958
 40
0.7499999999999958
 40
0.7812499999999963
 40
0.7812499999999963
 40
0.8124999999999968
 40
0.8124999999999968
 40
0.8437499999999973
 40
0.8437499999999973
 40
0.8749999999999979
 40
0.8749999999999979
 40
0.9062499999999984
 40
0.9062499999999984
 40
0.9374999999999989
 40
0.9374999999999989
 40
1.0
 40
1.0
 40
1.0
 40
1.0
 10
199.4054530619636
 20
108.735375044041
 30
0.0
 10
199.5872379669083
 20
108.8843601471496
 30
0.0
 10
199.7802922691495
 20
109.0136879724467
 30
0.0
 10
200.1871569837135
 20
109.23656499295
 30
0.0
 10
200.4025978467262
 20
109.3305953540317
 30
0.0
 10
200.8474767231697
 20
109.4796240220078
 30
0.0
 10
201.0739693392052
 20
109.5339712685053
 30
0.0
 10
201.5347796043428
 20
109.6039801969324
 30
0.0
 10
201.7713970999212
 20
109.619483410764
 30
0.0
 10
202.23973248292
 20
109.6099973025761
 30
0.0
 10
202.4711774547728
 20
109.5855065939752
 30
0.0
 10
202.9286729058954
 20
109.4972830822309
 30
0.0
 10
203.1568834147551
 20
109.4325560026719
 30
0.0
 10
203.5926733712263
 20
109.2662175642672
 30
0.0
 10
203.8011175795374
 20
109.1649093278368
 30
0.0
 10
204.1987373652204
 20
108.9249219639719
 30
0.0
 10
204.3895422743049
 20
108.7844426057574
 30
0.0
 10
204.7351975338394
 20
108.4743269432721
 30
0.0
 10
204.8916736518098
 20
108.3042366257356
 30
0.0
 10
205.1699236861438
 20
107.9317916768834
 30
0.0
 10
205.2918687854408
 20
107.727638577616
 30
0.0
 10
205.4852085539468
 20
107.3053158489688
 30
0.0
 10
205.5586706105946
 20
107.0849971248874
 30
0.0
 10
205.6552808620023
 20
106.6243949242303
 30
0.0
 10
205.6767963333696
 20
106.389132246148
 30
0.0
 10
205.6657120953155
 20
105.9229501106775
 30
0.0
 10
205.6325642240925
 20
105.6867897990804
 30
0.0
 10
205.514911789654
 20
105.2333790419783
 30
0.0
 10
205.4312713451274
 20
105.0156117077871
 30
0.0
 10
205.2159530529469
 20
104.5972695029003
 30
0.0
 10
205.0865609162247
 20
104.4016662651382
 30
0.0
 10
204.7919311747947
 20
104.041047976238
 30
0.0
 10
204.6242508318082
 20
103.8737447725774
 30
0.0
 10
204.264255968692
 20
103.5775385770279
 30
0.0
 10
204.0714821590242
 20
103.4474277722448
 30
0.0
 10
203.661131880901
 20
103.2217250897954
 30
0.0
 10
203.4449011288849
 20
103.1273444944238
 30
0.0
 10
202.7827879499512
 20
102.9045738428695
 30
0.0
 10
202.3093843970038
 20
102.8327861236616
 30
0.0
 10
201.6104898991289
 20
102.8461285863174
 30
0.0
 10
201.3769991958441
 20
102.8703270498459
 30
0.0
 10
200.9142605154156
 20
102.9594024240998
 30
0.0
 10
200.6901107442819
 20
103.0231431778328
 30
0.0
 10
200.2559096383531
 20
103.1883985468065
 30
0.0
 10
200.0444583348369
 20
103.2907494039478
 30
0.0
 10
199.6431359689533
 20
103.5330553359279
 30
0.0
 10
199.4564970031461
 20
103.6706972370573
 30
0.0
 10
199.1115441247204
 20
103.9796828094134
 30
0.0
 10
198.9516224079095
 20
104.1532233070948
 30
0.0
 10
198.6720890633284
 20
104.5279887066448
 30
0.0
 10
198.5533396375284
 20
104.7270503835416
 30
0.0
 10
198.3595631806015
 20
105.1496881898679
 30
0.0
 10
198.2842551697776
 20
105.3764649590542
 30
0.0
 10
198.1888497498384
 20
105.8338400162783
 30
0.0
 10
198.1672973142314
 20
106.0659870596615
 30
0.0
 10
198.1787058566587
 20
106.5375046623616
 30
0.0
 10
198.2120459712994
 20
106.7716045607998
 30
0.0
 10
198.3295927951103
 20
107.2238154717742
 30
0.0
 10
198.415359594977
 20
107.4462592091375
 30
0.0
 10
198.7371311443812
 20
108.0693665836847
 30
0.0
 10
199.0418832520743
 20
108.4374048378238
 30
0.0
 10
199.4054530619637
 20
108.735375044041
 30
0.0
  0
LINE
  5
C3
330
1F
100
AcDbEntity
  8
0
  6
Continuous
 62
     7
370
    15
100
AcDbLine
 10
209.6721126536
 20
106.2282578857
 30
0.0
 11
209.6721126536
 21
90.2282578857
 31
0.0
  0
LINE
  5
C4
330
1F
100
AcDbEntity
  8
0
  6
Continuous
 62
     7
370
    15
100
AcDbLine
 10
209.6721126536
 20
122.2282578857
 30
0.0
 11
209.6721126536
 21
106.2282578857
 31
0.0
  0
LINE
  5
C5
330
1F
100
AcDbEntity
  8
0
  6
Continuous
 62
     7
370
    15
100
AcDbLine
 10
209.9721126536
 20
106.2282578857
 30
0.0
 11
209.9721126536
 21
90.5282578857
 31
0.0
  0
LINE
  5
C6
330
1F
100
AcDbEntity
  8
0
  6
Continuous
 62
     7
370
    15
100
AcDbLine
 10
209.9721126536
 20
121.9282578857
 30
0.0
 11
209.9721126536
 21
106.2282578857
 31
0.0
  0
LINE
  5
C7
330
1F
100
AcDbEntity
  8
0
  6
Continuous
 62
     7
370
    15
100
AcDbLine
 10
85.7221126536
 20
94.8211272887
 30
0.0
 11
85.7221126536
 21
117.6353884827
 31
0.0
  0
CIRCLE
  5
C8
330
1F
100
AcDbEntity
  8
0
  6
HIDDEN
 62
     7
370
     0
100
AcDbCircle
 10
201.9221126536
 20
106.2282578857
 30
0.0
 40
2.153589838486226
  0
CIRCLE
  5
C9
330
1F
100
AcDbEntity
  8
0
  6
HIDDEN
 62
     7
370
     0
100
AcDbCircle
 10
201.9221126536
 20
106.2282578857
 30
0.0
 40
1.953589838486224
  0
CIRCLE
  5
CA
330
1F
100
AcDbEntity
  8
0
  6
HIDDEN
 62
     7
370
     0
100
AcDbCircle
 10
201.9221126536
 20
106.2282578857
 30
0.0
 40
2.624999999999986
  0
SPLINE
  5
CB
330
1F
100
AcDbEntity
  8
0
  6
HIDDEN
 62
     7
370
     0
100
AcDbSpline
210
0.0
220
0.0
230
1.0
 70
     8
 71
     3
 72
    16
 73
    12
 74
     0
 42
0.000000001
 43
0.00000001
 40
0.0
 40
0.0
 40
0.0
 40
0.0
 40
0.2499999999999956
 40
0.2499999999999956
 40
0.4999999999999911
 40
0.4999999999999911
 40
0.6249999999999889
 40
0.6249999999999889
 40
0.7499999999999867
 40
0.7499999999999867
 40
1.0
 40
1.0
 40
1.0
 40
1.0
 10
209.972112653579
 20
114.8370211425203
 30
0.0
 10
209.972112653579
 20
114.7634953319989
 30
0.0
 10
209.9678995035972
 20
114.6885478201181
 30
0.0
 10
209.9453513113589
 20
114.5338900655251
 30
0.0
 10
209.9272029363069
 20
114.4529458114087
 30
0.0
 10
209.8773905566989
 20
114.3364728128902
 30
0.0
 10
209.8564240102771
 20
114.2980480328545
 30
0.0
 10
209.8052406801163
 20
114.2318270388783
 30
0.0
 10
209.7756708386036
 20
114.2053874005439
 30
0.0
 10
209.6851317572612
 20
114.1519306574539
 30
0.0
 10
209.625672269855
 20
114.1487081325615
 30
0.0
 10
209.5721126535385
 20
114.1564636729056
 30
0.0
  0
SPLINE
  5
CC
330
1F
100
AcDbEntity
  8
0
  6
HIDDEN
 62
     7
370
     0
100
AcDbSpline
210
0.0
220
0.0
230
1.0
 70
     8
 71
     3
 72
    10
 73
     6
 74
     0
 42
0.000000001
 43
0.00000001
 40
0.0
 40
0.0
 40
0.0
 40
0.0
 40
0.5
 40
0.5
 40
1.0
 40
1.0
 40
1.0
 40
1.0
 10
209.5721126535456
 20
114.156463672912
 30
0.0
 10
209.5309165916351
 20
114.123575428676
 30
0.0
 10
209.4854791272881
 20
114.0950999018407
 30
0.0
 10
209.3838061960212
 20
114.0536275819276
 30
0.0
 10
209.3286449080234
 20
114.0415738836934
 30
0.0
 10
209.2721126535791
 20
114.0415738836934
 30
0.0
  0
SPLINE
  5
CD
330
1F
100
AcDbEntity
  8
0
  6
HIDDEN
 62
     7
370
     0
100
AcDbSpline
210
0.0
220
0.0
230
1.0
 70
     8
 71
     3
 72
    10
 73
     6
 74
     0
 42
0.000000001
 43
0.00000001
 40
0.0
 40
0.0
 40
0.0
 40
0.0
 40
0.5
 40
0.5
 40
1.0
 40
1.0
 40
1.0
 40
1.0
 10
209.5721126536116
 20
98.30005209846351
 30
0.0
 10
209.5309165916944
 20
98.33294034271336
 30
0.0
 10
209.4854791273406
 20
98.3614158695606
 30
0.0
 10
209.3838061960501
 20
98.40288818949429
 30
0.0
 10
209.3286449080385
 20
98.41494188773477
 30
0.0
 10
209.2721126535791
 20
98.41494188773478
 30
0.0
  0
SPLINE
  5
CE
330
1F
100
AcDbEntity
  8
0
  6
HIDDEN
 62
     7
370
     0
100
AcDbSpline
210
0.0
220
0.0
230
1.0
 70
     8
 71
     3
 72
    16
 73
    12
 74
     0
 42
0.000000001
 43
0.00000001
 40
0.0
 40
0.0
 40
0.0
 40
0.0
 40
0.2499999999999996
 40
0.2499999999999996
 40
0.3749999999999997
 40
0.3749999999999997
 40
0.4999999999999999
 40
0.4999999999999999
 40
0.7499999999999999
 40
0.7499999999999999
 40
1.0
 40
1.0
 40
1.0
 40
1.0
 10
209.5721126535932
 20
98.30005209847141
 30
0.0
 10
209.625367280236
 20
98.3077636307409
 30
0.0
 10
209.6849040847751
 20
98.304528189489
 30
0.0
 10
209.7749988987431
 20
98.25162762951912
 30
0.0
 10
209.8046481553455
 20
98.22523379464724
 30
0.0
 10
209.8554319765576
 20
98.1599835266483
 30
0.0
 10
209.8764283108426
 20
98.12203171516326
 30
0.0
 10
209.9272341887902
 20
98.00403235498787
 30
0.0
 10
209.9452249258652
 20
97.92330465612307
 30
0.0
 10
209.9678900724377
 20
97.76823284032004
 30
0.0
 10
209.9721126535791
 20
97.6931403178468
 30
0.0
 10
209.9721126535791
 20
97.61949967165903
 30
0.0
  0
LINE
  5
CF
330
1F
100
AcDbEntity
  8
0
  6
HIDDEN
 62
     7
370
     0
100
AcDbLine
 10
192.8381380574
 20
106.2282578857
 30
0.0
 11
192.8381380574
 21
97.2282578857
 31
0.0
  0
LINE
  5
D0
330
1F
100
AcDbEntity
  8
0
  6
HIDDEN
 62
     7
370
     0
100
AcDbLine
 10
192.8381380574
 20
115.2282578857
 30
0.0
 11
192.8381380574
 21
106.2282578857
 31
0.0
  0
LINE
  5
D1
330
1F
100
AcDbEntity
  8
0
  6
HIDDEN
 62
     7
370
     0
100
AcDbLine
 10
157.1471126536
 20
131.0282578857
 30
0.0
 11
157.8157418037
 21
131.0282578857
 31
0.0
  0
ELLIPSE
  5
D2
330
1F
100
AcDbEntity
  8
0
  6
HIDDEN
 62
     7
370
     0
100
AcDbEllipse
 10
157.8157418037
 20
131.8282578857
 30
0.0
 11
0.0
 21
0.7999999999999829
 31
0.0
210
0.0
220
0.0
230
1.0
 40
0.4142135624
 41
3.141592653589793
 42
4.712388980384695
  0
LINE
  5
D3
330
1F
100
AcDbEntity
  8
0
  6
HIDDEN
 62
     7
370
     0
100
AcDbLine
 10
157.8157418037
 20
83.8282578857
 30
0.0
 11
157.1471126536
 21
83.8282578857
 31
0.0
  0
ELLIPSE
  5
D4
330
1F
100
AcDbEntity
  8
0
  6
HIDDEN
 62
     7
370
     0
100
AcDbEllipse
 10
157.8157418037
 20
83.0282578857
 30
0.0
 11
0.0
 21
0.7999999999999972
 31
0.0
210
0.0
220
0.0
230
1.0
 40
0.4142135624
 41
4.712388980384677
 42
6.283185307179586
  0
LINE
  5
D5
330
1F
100
AcDbEntity
  8
0
  6
HIDDEN
 62
     7
370
     0
100
AcDbLine
 10
158.1471126536
 20
76.3671621177
 30
0.0
 11
157.3640283189
 21
75.9137706068
 31
0.0
  0
LINE
  5
D6
330
1F
100
AcDbEntity
  8
0
  6
HIDDEN
 62
     7
370
     0
100
AcDbLine
 10
201.0721126536
 20
114.0415738837
 30
0.0
 11
209.2721126536
 21
114.0415738837
 31
0.0
  0
LINE
  5
D7
330
1F
100
AcDbEntity
  8
0
  6
HIDDEN
 62
     7
370
     0
100
AcDbLine
 10
201.0721126536
 20
98.4149418877
 30
0.0
 11
209.2721126536
 21
98.4149418877
 31
0.0
  0
LINE
  5
D8
330
1F
100
AcDbEntity
  8
0
  6
HIDDEN
 62
     7
370
     0
100
AcDbLine
 10
157.4361054898
 20
136.6174348124
 30
0.0
 11
158.1471126536
 21
135.9064276486
 31
0.0
  0
LINE
  5
D9
330
1F
100
AcDbEntity
  8
0
  6
HIDDEN
 62
     7
370
     0
100
AcDbLine
 10
162.0027888403
 20
76.3671621177
 30
0.0
 11
158.1471126536
 21
76.3671621177
 31
0.0
  0
LINE
  5
DA
330
1F
100
AcDbEntity
  8
0
  6
HIDDEN
 62
     7
370
     0
100
AcDbLine
 10
173.0221126536
 20
76.3671621177
 30
0.0
 11
168.1414364669
 21
76.3671621177
 31
0.0
  0
LINE
  5
DB
330
1F
100
AcDbEntity
  8
0
  6
HIDDEN
 62
     7
370
     0
100
AcDbLine
 10
158.1471126536
 20
76.3671621177
 30
0.0
 11
158.1471126536
 21
83.0282578857
 31
0.0
  0
LINE
  5
DC
330
1F
100
AcDbEntity
  8
0
  6
HIDDEN
 62
     7
370
     0
100
AcDbLine
 10
173.0221126536
 20
83.8282578857
 30
0.0
 11
157.8157418037
 21
83.8282578857
 31
0.0
  0
LINE
  5
DD
330
1F
100
AcDbEntity
  8
0
  6
HIDDEN
 62
     7
370
     0
100
AcDbLine
 10
158.1471126536
 20
135.9064276486
 30
0.0
 11
162.1046266466
 21
135.9064276486
 31
0.0
  0
LINE
  5
DE
330
1F
100
AcDbEntity
  8
0
  6
HIDDEN
 62
     7
370
     0
100
AcDbLine
 10
168.0395986605
 20
135.9064276486
 30
0.0
 11
173.0221126536
 21
135.9064276486
 31
0.0
  0
LINE
  5
DF
330
1F
100
AcDbEntity
  8
0
  6
HIDDEN
 62
     7
370
     0
100
AcDbLine
 10
158.1471126536
 20
135.9064276486
 30
0.0
 11
158.1471126536
 21
131.8282578857
 31
0.0
  0
LINE
  5
E0
330
1F
100
AcDbEntity
  8
0
  6
HIDDEN
 62
     7
370
     0
100
AcDbLine
 10
157.8157418037
 20
131.0282578857
 30
0.0
 11
173.0221126536
 21
131.0282578857
 31
0.0
  0
LINE
  5
E1
330
1F
100
AcDbEntity
  8
0
  6
HIDDEN
 62
     7
370
     0
100
AcDbLine
 10
91.3479307979
 20
99.4782578857
 30
0.0
 11
91.3479307979
 21
112.9782578857
 31
0.0
  0
LINE
  5
E2
330
1F
100
AcDbEntity
  8
0
  6
HIDDEN
 62
     7
370
     0
100
AcDbLine
 10
128.7221126536
 20
99.4782578857
 30
0.0
 11
128.7221126536
 21
112.9782578857
 31
0.0
  0
LINE
  5
E3
330
1F
100
AcDbEntity
  8
0
  6
HIDDEN
 62
     7
370
     0
100
AcDbLine
 10
130.7349957273
 20
102.8282578857
 30
0.0
 11
130.7349957273
 21
109.6282578857
 31
0.0
  0
SPLINE
  5
E4
330
1F
100
AcDbEntity
  8
0
  6
HIDDEN
 62
     7
370
     0
100
AcDbSpline
210
0.0
220
0.0
230
1.0
 70
     8
 71
     3
 72
    14
 73
    10
 74
     0
 42
0.000000001
 43
0.00000001
 40
0.0
 40
0.0
 40
0.0
 40
0.0
 40
0.25
 40
0.25
 40
0.5
 40
0.5
 40
0.75
 40
0.75
 40
1.0
 40
1.0
 40
1.0
 40
1.0
 10
209.572112653579
 20
118.0282578857141
 30
0.0
 10
209.572112653579
 20
118.2125221864517
 30
0.0
 10
209.5722647230953
 20
118.3794830357344
 30
0.0
 10
209.5690362738239
 20
118.6798861654177
 30
0.0
 10
209.5661890733119
 20
118.8126226224484
 30
0.0
 10
209.5585391529538
 20
119.0287815544221
 30
0.0
 10
209.5534116182326
 20
119.1152655871765
 30
0.0
 10
209.5433735975158
 20
119.2349219361848
 30
0.0
 10
209.5384370026007
 20
119.2690611072538
 30
0.0
 10
209.5348340983354
 20
119.2766618391754
 30
0.0
  0
SPLINE
  5
E5
330
1F
100
AcDbEntity
  8
0
  6
HIDDEN
 62
     7
370
     0
100
AcDbSpline
210
0.0
220
0.0
230
1.0
 70
     8
 71
     3
 72
    14
 73
    10
 74
     0
 42
0.000000001
 43
0.00000001
 40
0.0
 40
0.0
 40
0.0
 40
0.0
 40
0.1122112745605364
 40
0.2779452809072411
 40
0.4384377351675602
 40
0.6035721931121278
 40
0.7643357755313298
 40
0.9297497879028492
 40
1.0
 40
1.0
 40
1.0
 40
1.0
 10
209.5334172206851
 20
119.2706946733852
 30
0.0
 10
209.5321118846547
 20
119.2689205968786
 30
0.0
 10
209.5288785911102
 20
119.2645262417222
 30
0.0
 10
209.5301607369078
 20
119.1763685926039
 30
0.0
 10
209.5374267148126
 20
119.0191948705746
 30
0.0
 10
209.5495504824646
 20
118.7982130053029
 30
0.0
 10
209.5631360134995
 20
118.5181734336493
 30
0.0
 10
209.5710709668086
 20
118.2531012692642
 30
0.0
 10
209.5718734315499
 20
118.0798909356622
 30
0.0
 10
209.5721126418857
 20
118.0282578857141
 30
0.0
  0
LINE
  5
E6
330
1F
100
AcDbEntity
  8
0
  6
HIDDEN
 62
     7
370
     0
100
AcDbLine
 10
209.5721126419
 20
118.0282578857
 30
0.0
 11
209.5721126535
 21
114.1564636729
 31
0.0
  0
LINE
  5
E7
330
1F
100
AcDbEntity
  8
0
  6
HIDDEN
 62
     7
370
     0
100
AcDbLine
 10
209.5721126583
 20
94.4282578857
 30
0.0
 11
209.5721126536
 21
98.3000520985
 31
0.0
  0
SPLINE
  5
E8
330
1F
100
AcDbEntity
  8
0
  6
HIDDEN
 62
     7
370
     0
100
AcDbSpline
210
0.0
220
0.0
230
1.0
 70
     8
 71
     3
 72
    14
 73
    10
 74
     0
 42
0.000000001
 43
0.00000001
 40
0.0
 40
0.0
 40
0.0
 40
0.0
 40
0.1120447440477286
 40
0.2777995672052052
 40
0.4383129393945613
 40
0.603468960642107
 40
0.7642534932053299
 40
0.9296888757742867
 40
1.0
 40
1.0
 40
1.0
 40
1.0
 10
209.533413134883
 20
93.18584107578684
 30
0.0
 10
209.5321109637807
 20
93.18760927284576
 30
0.0
 10
209.5288824092268
 20
93.19199327480746
 30
0.0
 10
209.5301545075431
 20
93.28010817326121
 30
0.0
 10
209.5374269619687
 20
93.43725590921404
 30
0.0
 10
209.5495512764766
 20
93.65822011157273
 30
0.0
 10
209.5631044711408
 20
93.93824407784679
 30
0.0
 10
209.5711105115965
 20
94.20333907572427
 30
0.0
 10
209.5718824334691
 20
94.37658691663167
 30
0.0
 10
209.5721126582789
 20
94.42825788571409
 30
0.0
  0
LINE
  5
E9
330
1F
100
AcDbEntity
  8
0
  6
HIDDEN
 62
     7
370
     0
100
AcDbLine
 10
160.3221126536
 20
130.6282578857
 30
0.0
 11
169.8221126536
 21
130.6282578857
 31
0.0
  0
LINE
  5
EA
330
1F
100
AcDbEntity
  8
0
  6
HIDDEN
 62
     7
370
     0
100
AcDbLine
 10
201.0721126536
 20
94.4282578857
 30
0.0
 11
201.0721126536
 21
98.4149418877
 31
0.0
  0
LINE
  5
EB
330
1F
100
AcDbEntity
  8
0
  6
HIDDEN
 62
     7
370
     0
100
AcDbLine
 10
201.0721126536
 20
118.0282578857
 30
0.0
 11
201.0721126536
 21
114.0415738837
 31
0.0
  0
LINE
  5
EC
330
1F
100
AcDbEntity
  8
0
  6
HIDDEN
 62
     7
370
     0
100
AcDbLine
 10
201.0721126536
 20
119.2782578857
 30
0.0
 11
201.0721126536
 21
118.0282578857
 31
0.0
  0
LINE
  5
ED
330
1F
100
AcDbEntity
  8
0
  6
HIDDEN
 62
     7
370
     0
100
AcDbLine
 10
201.0721126536
 20
93.1782578857
 30
0.0
 11
201.0721126536
 21
94.4282578857
 31
0.0
  0
ARC
  5
EE
330
1F
100
AcDbEntity
  8
0
  6
HIDDEN
 62
     7
370
     0
100
AcDbCircle
 10
190.2221126536
 20
114.9782578857
 30
0.0
 40
0.7500000000000284
100
AcDbArc
 50
0.0
 51
180.0
  0
ARC
  5
EF
330
1F
100
AcDbEntity
  8
0
  6
HIDDEN
 62
     7
370
     0
100
AcDbCircle
 10
190.2221126536
 20
114.9782578857
 30
0.0
 40
0.7500000000000284
100
AcDbArc
 50
180.0
 51
0.0
  0
ARC
  5
F0
330
1F
100
AcDbEntity
  8
0
  6
HIDDEN
 62
     7
370
     0
100
AcDbCircle
 10
190.2221126536
 20
97.4782578857
 30
0.0
 40
0.7500000000000284
100
AcDbArc
 50
180.0
 51
0.0
  0
ARC
  5
F1
330
1F
100
AcDbEntity
  8
0
  6
HIDDEN
 62
     7
370
     0
100
AcDbCircle
 10
190.2221126536
 20
97.4782578857
 30
0.0
 40
0.7500000000000284
100
AcDbArc
 50
0.0
 51
180.0
  0
LINE
  5
F2
330
1F
100
AcDbEntity
  8
0
  6
HIDDEN
 62
     7
370
     0
100
AcDbLine
 10
189.4721126536
 20
114.9782578857
 30
0.0
 11
189.4721126536
 21
97.4782578857
 31
0.0
  0
LINE
  5
F3
330
1F
100
AcDbEntity
  8
0
  6
HIDDEN
 62
     7
370
     0
100
AcDbLine
 10
190.9721126536
 20
97.4782578857
 30
0.0
 11
190.9721126536
 21
114.9782578857
 31
0.0
  0
ARC
  5
F4
330
1F
100
AcDbEntity
  8
0
  6
HIDDEN
 62
     7
370
     0
100
AcDbCircle
 10
190.2721126536
 20
114.9282578857
 30
0.0
 40
0.7999999999999972
100
AcDbArc
 50
90.0
 51
180.0
  0
ARC
  5
F5
330
1F
100
AcDbEntity
  8
0
  6
HIDDEN
 62
     7
370
     0
100
AcDbCircle
 10
190.2721126536
 20
97.5282578857
 30
0.0
 40
0.7999999999999972
100
AcDbArc
 50
180.0
 51
270.0
  0
LINE
  5
F6
330
1F
100
AcDbEntity
  8
0
  6
HIDDEN
 62
     7
370
     0
100
AcDbLine
 10
190.8667906555
 20
115.7282578857
 30
0.0
 11
190.2721126536
 21
115.7282578857
 31
0.0
  0
LINE
  5
F7
330
1F
100
AcDbEntity
  8
0
  6
HIDDEN
 62
     7
370
     0
100
AcDbLine
 10
190.2721126536
 20
96.7282578857
 30
0.0
 11
190.8667906555
 21
96.7282578857
 31
0.0
  0
ARC
  5
F8
330
1F
100
AcDbEntity
  8
0
  6
HIDDEN
 62
     7
370
     0
100
AcDbCircle
 10
190.8667906555
 20
114.9282578857
 30
0.0
 40
0.7999999999999972
100
AcDbArc
 50
75.0
 51
90.0
  0
ARC
  5
F9
330
1F
100
AcDbEntity
  8
0
  6
HIDDEN
 62
     7
370
     0
100
AcDbCircle
 10
190.8667906555
 20
97.5282578857
 30
0.0
 40
0.7999999999999972
100
AcDbArc
 50
270.0
 51
285.0
  0
LINE
  5
FA
330
1F
100
AcDbEntity
  8
0
  6
HIDDEN
 62
     7
370
     0
100
AcDbLine
 10
191.0738458916
 20
96.7555172247
 30
0.0
 11
192.8381380574
 21
97.2282578857
 31
0.0
  0
LINE
  5
FB
330
1F
100
AcDbEntity
  8
0
  6
HIDDEN
 62
     7
370
     0
100
AcDbLine
 10
192.8381380574
 20
115.2282578857
 30
0.0
 11
191.0738458916
 21
115.7009985467
 31
0.0
  0
ARC
  5
FC
330
1F
100
AcDbEntity
  8
0
  6
HIDDEN
 62
     7
370
     0
100
AcDbCircle
 10
86.5221126536
 20
97.2132578857
 30
0.0
 40
0.7999999999999972
100
AcDbArc
 50
90.0
 51
180.0
  0
ARC
  5
FD
330
1F
100
AcDbEntity
  8
0
  6
HIDDEN
 62
     7
370
     0
100
AcDbCircle
 10
86.5221126536
 20
115.2432578857
 30
0.0
 40
0.7999999999999972
100
AcDbArc
 50
180.0
 51
270.0
  0
LINE
  5
FE
330
1F
100
AcDbEntity
  8
0
  6
HIDDEN
 62
     7
370
     0
100
AcDbLine
 10
201.0721126536
 20
115.2282578857
 30
0.0
 11
192.8381380574
 21
115.2282578857
 31
0.0
  0
LINE
  5
FF
330
1F
100
AcDbEntity
  8
0
  6
HIDDEN
 62
     7
370
     0
100
AcDbLine
 10
192.8381380574
 20
97.2282578857
 30
0.0
 11
201.0721126536
 21
97.2282578857
 31
0.0
  0
ARC
  5
100
330
1F
100
AcDbEntity
  8
0
  6
HIDDEN
 62
     7
370
     0
100
AcDbCircle
 10
90.2711725459
 20
98.4132578857
 30
0.0
 40
0.4000000000000057
100
AcDbArc
 50
270.0
 51
330.0
  0
ARC
  5
101
330
1F
100
AcDbEntity
  8
0
  6
HIDDEN
 62
     7
370
     0
100
AcDbCircle
 10
90.2711725459
 20
114.0432578857
 30
0.0
 40
0.4000000000000057
100
AcDbArc
 50
30.0
 51
90.0
  0
LINE
  5
102
330
1F
100
AcDbEntity
  8
0
  6
HIDDEN
 62
     7
370
     0
100
AcDbLine
 10
86.5221126536
 20
98.0132578857
 30
0.0
 11
90.2711725459
 21
98.0132578857
 31
0.0
  0
LINE
  5
103
330
1F
100
AcDbEntity
  8
0
  6
HIDDEN
 62
     7
370
     0
100
AcDbLine
 10
90.2711725459
 20
114.4432578857
 30
0.0
 11
86.5221126536
 21
114.4432578857
 31
0.0
  0
LINE
  5
104
330
1F
100
AcDbEntity
  8
0
  6
HIDDEN
 62
     7
370
     0
100
AcDbLine
 10
90.6175827074
 20
98.2132578857
 30
0.0
 11
91.3479307979
 21
99.4782578857
 31
0.0
  0
LINE
  5
105
330
1F
100
AcDbEntity
  8
0
  6
HIDDEN
 62
     7
370
     0
100
AcDbLine
 10
91.3479307979
 20
112.9782578857
 30
0.0
 11
90.6175827074
 21
114.2432578857
 31
0.0
  0
LINE
  5
106
330
1F
100
AcDbEntity
  8
0
  6
HIDDEN
 62
     7
370
     0
100
AcDbLine
 10
91.3479307979
 20
99.4782578857
 30
0.0
 11
128.7221126536
 21
99.4782578857
 31
0.0
  0
LINE
  5
107
330
1F
100
AcDbEntity
  8
0
  6
HIDDEN
 62
     7
370
     0
100
AcDbLine
 10
128.7221126536
 20
112.9782578857
 30
0.0
 11
91.3479307979
 21
112.9782578857
 31
0.0
  0
LINE
  5
108
330
1F
100
AcDbEntity
  8
0
  6
HIDDEN
 62
     7
370
     0
100
AcDbLine
 10
128.7221126536
 20
99.4782578857
 30
0.0
 11
130.7349957273
 21
102.8282578857
 31
0.0
  0
LINE
  5
109
330
1F
100
AcDbEntity
  8
0
  6
HIDDEN
 62
     7
370
     0
100
AcDbLine
 10
130.7349957273
 20
109.6282578857
 30
0.0
 11
128.7221126536
 21
112.9782578857
 31
0.0
  0
LINE
  5
10A
330
1F
100
AcDbEntity
  8
0
  6
HIDDEN
 62
     7
370
     0
100
AcDbLine
 10
209.9721126536
 20
119.7172069325
 30
0.0
 11
209.5256898753
 21
119.2707844004
 31
0.0
  0
LINE
  5
10B
330
1F
100
AcDbEntity
  8
0
  6
HIDDEN
 62
     7
370
     0
100
AcDbLine
 10
209.525689602
 20
93.1857321109
 30
0.0
 11
209.9721126536
 21
92.7393093417
 31
0.0
  0
LINE
  5
10C
330
1F
100
AcDbEntity
  8
0
  6
HIDDEN
 62
     7
370
     0
100
AcDbLine
 10
160.3221126536
 20
130.6282578857
 30
0.0
 11
165.0721126536
 21
127.7741699453
 31
0.0
  0
LINE
  5
10D
330
1F
100
AcDbEntity
  8
0
  6
HIDDEN
 62
     7
370
     0
100
AcDbLine
 10
165.0721126536
 20
127.7741699453
 30
0.0
 11
169.8221126536
 21
130.6282578857
 31
0.0
  0
LINE
  5
10E
330
1F
100
AcDbEntity
  8
0
  6
HIDDEN
 62
     7
370
     0
100
AcDbLine
 10
160.3221126536
 20
131.0282578857
 30
0.0
 11
160.3221126536
 21
130.6282578857
 31
0.0
  0
LINE
  5
10F
330
1F
100
AcDbEntity
  8
0
  6
HIDDEN
 62
     7
370
     0
100
AcDbLine
 10
169.8221126536
 20
130.6282578857
 30
0.0
 11
169.8221126536
 21
131.0282578857
 31
0.0
  0
LINE
  5
110
330
1F
100
AcDbEntity
  8
0
  6
HIDDEN
 62
     7
370
     0
100
AcDbLine
 10
130.7349957273
 20
102.8282578857
 30
0.0
 11
189.4721126536
 21
102.8282578857
 31
0.0
  0
LINE
  5
111
330
1F
100
AcDbEntity
  8
0
  6
HIDDEN
 62
     7
370
     0
100
AcDbLine
 10
189.4721126536
 20
109.6282578857
 30
0.0
 11
130.7349957273
 21
109.6282578857
 31
0.0
  0
LINE
  5
112
330
1F
100
AcDbEntity
  8
0
  6
HIDDEN
 62
     7
370
     0
100
AcDbLine
 10
209.5338308907
 20
119.2782578857
 30
0.0
 11
201.0721126536
 21
119.2782578857
 31
0.0
  0
LINE
  5
113
330
1F
100
AcDbEntity
  8
0
  6
HIDDEN
 62
     7
370
     0
100
AcDbLine
 10
201.0721126536
 20
93.1782578857
 30
0.0
 11
209.533830283
 21
93.1782578857
 31
0.0
  0
DIMENSION
  5
114
330
1F
100
AcDbEntity
  8
VERMASSUNG
100
AcDbDimension
  2
_D
 10
76.9638603696
 20
137.9782578857
 30
0.0
 11
76.9638603696
 21
106.2282578857
 31
0.0
 70
   160
  1
CAT 40 %%c<>
 71
     2
 42
-1.0
  3
SLDDIMSTYLE0
100
AcDbAlignedDimension
 13
172.4221126536
 23
74.4782578857
 33
0.0
 14
172.4221126536
 24
137.9782578857
 34
0.0
 50
90.0
100
AcDbRotatedDimension
  0
DIMENSION
  5
121
330
1F
100
AcDbEntity
  8
VERMASSUNG
100
AcDbDimension
  2
_D_1
 10
216.7988838196
 20
97.2282578857
 30
0.0
 11
216.7988838196
 21
106.2282578857
 31
0.0
 70
   160
  1
%%c<>
 71
     2
 42
-1.0
  3
SLDDIMSTYLE1
100
AcDbAlignedDimension
 13
201.0721126536
 23
115.2282578857
 33
0.0
 14
201.0721126536
 24
97.2282578857
 34
0.0
 50
90.0
100
AcDbRotatedDimension
  0
DIMENSION
  5
12D
330
1F
100
AcDbEntity
  8
VERMASSUNG
100
AcDbDimension
  2
_D_2
 10
209.9721126536
 20
145.1993907382
 30
0.0
 11
181.9721126536
 21
145.1993907382
 31
0.0
 70
   160
  1
<>
 71
     2
 42
-1.0
  3
SLDDIMSTYLE1
100
AcDbAlignedDimension
 13
153.9721126536
 23
128.4532578857
 33
0.0
 14
209.9721126536
 24
121.9282578857
 34
0.0
100
AcDbRotatedDimension
  0
DIMENSION
  5
137
330
1F
100
AcDbEntity
  8
VERMASSUNG
100
AcDbDimension
  2
_D_3
 10
209.9721126536
 20
139.1993907382
 30
0.0
 11
199.4721126536
 21
139.1993907382
 31
0.0
 70
   160
  1
(<>)
 71
     2
 42
-1.0
  3
SLDDIMSTYLE1
100
AcDbAlignedDimension
 13
188.9721126536
 23
127.4532578857
 33
0.0
 14
209.9721126536
 24
121.9282578857
 34
0.0
100
AcDbRotatedDimension
  0
DIMENSION
  5
143
330
1F
100
AcDbEntity
  8
VERMASSUNG
100
AcDbDimension
  2
_D_4
 10
85.7221126536
 20
150.0327607119
 30
0.0
 11
147.8471126536
 21
150.0327607119
 31
0.0
 70
   160
  1
(<>)
 71
     2
 42
-1.0
  3
SLDDIMSTYLE1
100
AcDbAlignedDimension
 13
209.9721126536
 23
121.9282578857
 33
0.0
 14
85.7221126536
 24
117.6353884827
 34
0.0
100
AcDbRotatedDimension
  0
DIMENSION
  5
14F
330
1F
100
AcDbEntity
  8
VERMASSUNG
100
AcDbDimension
  2
_D_5
 10
222.7988838196
 20
90.2282578857
 30
0.0
 11
222.7988838196
 21
106.2282578857
 31
0.0
 70
   160
  1
ST3 %%c<>
 71
     2
 42
-1.0
  3
SLDDIMSTYLE1
100
AcDbAlignedDimension
 13
209.6721126536
 23
122.2282578857
 33
0.0
 14
209.6721126536
 24
90.2282578857
 34
0.0
 50
90.0
100
AcDbRotatedDimension
  0
LINE
  5
15B
330
1F
100
AcDbEntity
  8
VERMASSUNG
  6
CENTERX2
 62
     7
370
     0
100
AcDbLine
 10
83.7221126536
 20
106.2282578857
 30
0.0
 11
212.0337805702
 21
106.2282578857
 31
0.0
  0
LINE
  5
15C
330
1F
100
AcDbEntity
  8
0
  6
Continuous
 62
     7
370
    15
100
AcDbLine
 10
270.7992874809
 20
41.4964878559
 30
0.0
 11
270.6578431453
 21
41.578168475
 31
0.0
  0
LINE
  5
15D
330
1F
100
AcDbEntity
  8
0
  6
Continuous
 62
     7
370
    15
100
AcDbLine
 10
268.8190667827
 20
41.578168475
 30
0.0
 11
268.6776224472
 21
41.4964878559
 31
0.0
  0
LINE
  5
15E
330
1F
100
AcDbEntity
  8
0
  6
Continuous
 62
     7
370
    15
100
AcDbLine
 10
271.238454964
 20
40.7413866389
 30
0.0
 11
271.238454964
 21
40.8842812809
 31
0.0
  0
LINE
  5
15F
330
1F
100
AcDbEntity
  8
0
  6
Continuous
 62
     7
370
    15
100
AcDbLine
 10
268.238454964
 20
40.8842812809
 30
0.0
 11
268.238454964
 21
40.7413866389
 31
0.0
  0
LINE
  5
160
330
1F
100
AcDbEntity
  8
0
  6
Continuous
 62
     7
370
    15
100
AcDbLine
 10
272.479413139
 20
26.4016765799
 30
0.0
 11
272.5854619175
 21
26.46291714
 31
0.0
  0
LINE
  5
161
330
1F
100
AcDbEntity
  8
0
  6
Continuous
 62
     7
370
    15
100
AcDbLine
 10
278.1353479906
 20
36.0766434621
 30
0.0
 11
278.1353479906
 21
36.1991046789
 31
0.0
  0
LINE
  5
162
330
1F
100
AcDbEntity
  8
0
  6
Continuous
 62
     7
370
    15
100
AcDbLine
 10
276.4781686717
 20
39.8618631306
 30
0.0
 11
270.5738270488
 21
43.2703669975
 31
0.0
  0
LINE
  5
163
330
1F
100
AcDbEntity
  8
0
  6
Continuous
 62
     7
370
    15
100
AcDbLine
 10
262.5744771877
 20
29.4135851994
 30
0.0
 11
268.4788188106
 21
26.0050813325
 31
0.0
  0
SPLINE
  5
164
330
1F
100
AcDbEntity
  8
0
  6
Continuous
 62
     7
370
    15
100
AcDbSpline
210
0.0
220
0.0
230
1.0
 70
     8
 71
     3
 72
    11
 73
     7
 74
     0
 42
0.000000001
 43
0.00000001
 40
0.0
 40
0.0
 40
0.0
 40
0.0
 40
0.0958381642735566
 40
0.5063912390169859
 40
0.9163277565415986
 40
1.0
 40
1.0
 40
1.0
 40
1.0
 10
270.1653237247029
 20
50.28732642570234
 30
0.0
 10
270.1456236244924
 20
50.35615769318117
 30
0.0
 10
270.0415319170818
 20
50.71984945507906
 30
0.0
 10
269.7977803233849
 20
51.32881802935517
 30
0.0
 10
269.5292580211353
 20
51.90390641886703
 30
0.0
 10
269.3445412977924
 20
52.17596409843696
 30
0.0
 10
269.3132297331119
 20
52.22208093873447
 30
0.0
  0
LINE
  5
165
330
1F
100
AcDbEntity
  8
0
  6
Continuous
 62
     7
370
    15
100
AcDbLine
 10
267.2454848818
 20
54.2847984632
 30
0.0
 11
265.8930453676
 21
55.0655451761
 31
0.0
  0
SPLINE
  5
166
330
1F
100
AcDbEntity
  8
0
  6
Continuous
 62
     7
370
    15
100
AcDbSpline
210
0.0
220
0.0
230
1.0
 70
     8
 71
     3
 72
    16
 73
    12
 74
     0
 42
0.000000001
 43
0.00000001
 40
0.0
 40
0.0
 40
0.0
 40
0.0
 40
0.0663720320907887
 40
0.1892388732441596
 40
0.3122247302692928
 40
0.4360175769630882
 40
0.5610327019986616
 40
0.6873211530075456
 40
0.8146522619910518
 40
0.9426758064763902
 40
1.0
 40
1.0
 40
1.0
 40
1.0
 10
259.1977506389478
 20
27.78485796738548
 30
0.0
 10
259.2971908404431
 20
27.72266862631747
 30
0.0
 10
259.5807131478573
 20
27.54535537462424
 30
0.0
 10
260.1042142644091
 20
27.35386513185866
 30
0.0
 10
260.7546026690911
 20
27.20611067086529
 30
0.0
 10
261.4437702289124
 20
27.15852951602232
 30
0.0
 10
262.1636406871006
 20
27.20644524742431
 30
0.0
 10
262.9095380306445
 20
27.35005228564221
 30
0.0
 10
263.6742187315784
 20
27.59459810715001
 30
0.0
 10
264.3068494131863
 20
27.85520409846969
 30
0.0
 10
264.681525255035
 20
28.06532916468215
 30
0.0
 10
264.7974046863001
 20
28.1303164695671
 30
0.0
  0
SPLINE
  5
167
330
1F
100
AcDbEntity
  8
0
  6
Continuous
 62
     7
370
    15
100
AcDbSpline
210
0.0
220
0.0
230
1.0
 70
     8
 71
     3
 72
    16
 73
    12
 74
     0
 42
0.000000001
 43
0.00000001
 40
0.0
 40
0.0
 40
0.0
 40
0.0
 40
0.0050760057542259
 40
0.1398819583057578
 40
0.2747271517317225
 40
0.4093687145935992
 40
0.5434664765552323
 40
0.6765947817182235
 40
0.8083719335475169
 40
0.9386629227056199
 40
1.0
 40
1.0
 40
1.0
 40
1.0
 10
272.8051331480289
 20
41.98226140446393
 30
0.0
 10
272.8052844770142
 20
41.99365776239328
 30
0.0
 10
272.8094547234334
 20
42.30771273827366
 30
0.0
 10
272.7461299536519
 20
42.88667100246427
 30
0.0
 10
272.6084087178175
 20
43.70562998623492
 30
0.0
 10
272.3841570150394
 20
44.46111969617187
 30
0.0
 10
272.0860970961992
 20
45.14998792446811
 30
0.0
 10
271.7154110086473
 20
45.76424877537612
 30
0.0
 10
271.2738217659891
 20
46.29055670061671
 30
0.0
 10
270.867084026322
 20
46.66803336924887
 30
0.0
 10
270.5892413330798
 20
46.83419164893022
 30
0.0
 10
270.5003083335115
 20
46.88737625509251
 30
0.0
  0
LINE
  5
168
330
1F
100
AcDbEntity
  8
0
  6
Continuous
 62
     7
370
    15
100
AcDbLine
 10
254.177095552
 20
30.6673823562
 30
0.0
 11
259.250586707
 21
27.738518255
 31
0.0
  0
LINE
  5
169
330
1F
100
AcDbEntity
  8
0
  6
Continuous
 62
     7
370
    15
100
AcDbLine
 10
270.3621836235
 20
46.9864542214
 30
0.0
 11
265.2886924684
 21
49.9153183226
 31
0.0
  0
SPLINE
  5
16A
330
1F
100
AcDbEntity
  8
0
  6
Continuous
 62
     7
370
    15
100
AcDbSpline
210
0.0
220
0.0
230
1.0
 70
     8
 71
     3
 72
    21
 73
    17
 74
     0
 42
0.000000001
 43
0.00000001
 40
0.0
 40
0.0
 40
0.0
 40
0.0
 40
0.0111564448369705
 40
0.0936243566761017
 40
0.1762123370193817
 40
0.2588136369627259
 40
0.3413250607362557
 40
0.4236620137062427
 40
0.5057480055336276
 40
0.5875268252173722
 40
0.6690031821369641
 40
0.7503331060337151
 40
0.8318058484123914
 40
0.9142555155992788
 40
0.999144418088334
 40
1.0
 40
1.0
 40
1.0
 40
1.0
 10
269.6939687257484
 20
33.15129916821908
 30
0.0
 10
269.7044243290889
 20
33.17949407406505
 30
0.0
 10
269.7921672571203
 20
33.41610438854669
 30
0.0
 10
269.9991745362041
 20
33.85882762731192
 30
0.0
 10
270.3349380052643
 20
34.46067146279286
 30
0.0
 10
270.7218593394323
 20
35.02807713258914
 30
0.0
 10
271.1465838119578
 20
35.54732565847218
 30
0.0
 10
271.5993210813085
 20
36.00604506203225
 30
0.0
 10
272.0680519759277
 20
36.39367559398379
 30
0.0
 10
272.5403581406896
 20
36.70173774368947
 30
0.0
 10
273.0036553434234
 20
36.92469708151314
 30
0.0
 10
273.4449472557908
 20
37.0588679263789
 30
0.0
 10
273.8552745623007
 20
37.10813419633347
 30
0.0
 10
274.2205805976162
 20
37.06297912069208
 30
0.0
 10
274.4485080395934
 20
37.00425861660709
 30
0.0
 10
274.5427978575927
 20
36.93626671097561
 30
0.0
 10
274.5437387071797
 20
36.93558826914924
 30
0.0
  0
LINE
  5
16B
330
1F
100
AcDbEntity
  8
0
  6
Continuous
 62
     7
370
    15
100
AcDbLine
 10
263.4006895543
 20
56.5043515613
 30
0.0
 11
262.0570888749
 21
57.2799957235
 31
0.0
  0
SPLINE
  5
16C
330
1F
100
AcDbEntity
  8
0
  6
Continuous
 62
     7
370
    15
100
AcDbSpline
210
0.0
220
0.0
230
1.0
 70
     8
 71
     3
 72
    30
 73
    26
 74
     0
 42
0.000000001
 43
0.00000001
 40
0.0
 40
0.0
 40
0.0
 40
0.0
 40
0.0176947951267189
 40
0.0635722705018497
 40
0.1096222498576542
 40
0.1558093254351187
 40
0.2020904554714179
 40
0.2484265833162201
 40
0.2947878024604413
 40
0.3411514045733993
 40
0.3875051489105949
 40
0.4338442773165594
 40
0.4801674128765984
 40
0.5264752746518986
 40
0.5727698211068667
 40
0.6190537112299899
 40
0.6653299827294855
 40
0.7116018707043826
 40
0.7578727127553079
 40
0.804145512856428
 40
0.8504229569107844
 40
0.8967084906562643
 40
0.9430055398382903
 40
0.9893174308521351
 40
1.0
 40
1.0
 40
1.0
 40
1.0
 10
259.2567351404832
 20
58.03504075774298
 30
0.0
 10
259.152009602446
 20
58.04119866978152
 30
0.0
 10
258.7757610963249
 20
58.06332226302106
 30
0.0
 10
258.0953769263074
 20
58.00080721381484
 30
0.0
 10
257.2219903006213
 20
57.84908075235952
 30
0.0
 10
256.3256911118244
 20
57.59572241514056
 30
0.0
 10
255.4152385766839
 20
57.25021714827764
 30
0.0
 10
254.4962419857623
 20
56.81286033651482
 30
0.0
 10
253.5751856885598
 20
56.28734066553437
 30
0.0
 10
252.6582243004611
 20
55.67724157153319
 30
0.0
 10
251.7514399306433
 20
54.98687390535266
 30
0.0
 10
250.860737632464
 20
54.22096130441843
 30
0.0
 10
249.9918770066261
 20
53.38467826353558
 30
0.0
 10
249.1504640933883
 20
52.48361468504322
 30
0.0
 10
248.3419292911457
 20
51.5237518030218
 30
0.0
 10
247.5714985343767
 20
50.5114289084006
 30
0.0
 10
246.8441645118386
 20
49.45330824181955
 30
0.0
 10
246.1646504858492
 20
48.35633395310098
 30
0.0
 10
245.5374016610692
 20
47.22769715864104
 30
0.0
 10
244.9664838755323
 20
46.07477514661721
 30
0.0
 10
244.4558275613801
 20
44.90514561220775
 30
0.0
 10
244.0081791359077
 20
43.72627856568285
 30
0.0
 10
243.6289065920249
 20
42.546433602874
 30
0.0
 10
243.3930909344639
 20
41.67262897043232
 30
0.0
 10
243.2875761410343
 20
41.19572304549973
 30
0.0
 10
243.267799322836
 20
41.10633575231957
 30
0.0
  0
SPLINE
  5
16D
330
1F
100
AcDbEntity
  8
0
  6
Continuous
 62
     7
370
    15
100
AcDbSpline
210
0.0
220
0.0
230
1.0
 70
     8
 71
     3
 72
     9
 73
     5
 74
     0
 42
0.000000001
 43
0.00000001
 40
0.0
 40
0.0
 40
0.0
 40
0.0
 40
0.5425780461994713
 40
1.0
 40
1.0
 40
1.0
 40
1.0
 10
270.1304172703094
 20
29.09465755044977
 30
0.0
 10
270.0296200888603
 20
29.15619993281262
 30
0.0
 10
269.843845558993
 20
29.26962579438944
 30
0.0
 10
269.7019195070229
 20
29.46291302834525
 30
0.0
 10
269.6369994150356
 20
29.55132685254602
 30
0.0
  0
LINE
  5
16E
330
1F
100
AcDbEntity
  8
0
  6
Continuous
 62
     7
370
    15
100
AcDbLine
 10
253.0223738223
 20
55.9049994509
 30
0.0
 11
231.7208379314
 21
63.5812286222
 31
0.0
  0
LINE
  5
16F
330
1F
100
AcDbEntity
  8
0
  6
Continuous
 62
     7
370
    15
100
AcDbLine
 10
225.5560561823
 20
52.9023563371
 30
0.0
 11
245.9770141614
 21
35.6590682371
 31
0.0
  0
SPLINE
  5
170
330
1F
100
AcDbEntity
  8
0
  6
Continuous
 62
     7
370
    15
100
AcDbSpline
210
0.0
220
0.0
230
1.0
 70
     8
 71
     3
 72
    14
 73
    10
 74
     0
 42
0.000000001
 43
0.00000001
 40
0.0
 40
0.0
 40
0.0
 40
0.0
 40
0.0464038140930932
 40
0.2104657909579802
 40
0.3751572381043018
 40
0.5403598311597416
 40
0.705920336706485
 40
0.8716954134050074
 40
1.0
 40
1.0
 40
1.0
 40
1.0
 10
254.1416317756228
 20
26.03205282320761
 30
0.0
 10
254.2180240309731
 20
26.02648928857239
 30
0.0
 10
254.5645032322972
 20
26.0012557223148
 30
0.0
 10
255.2133663668256
 20
26.05339090745893
 30
0.0
 10
256.0830132700236
 20
26.19091238513062
 30
0.0
 10
256.9768602868035
 20
26.43067435641255
 30
0.0
 10
257.8855698958312
 20
26.76527153095411
 30
0.0
 10
258.7345313240712
 20
27.15049028067313
 30
0.0
 10
259.27853453578
 20
27.46323720387647
 30
0.0
 10
259.5158787519797
 20
27.59968616549818
 30
0.0
  0
LINE
  5
171
330
1F
100
AcDbEntity
  8
0
  6
Continuous
 62
     7
370
    15
100
AcDbLine
 10
250.019335487
 20
27.5684937955
 30
0.0
 11
251.3717750012
 21
26.7877470826
 31
0.0
  0
LINE
  5
172
330
1F
100
AcDbEntity
  8
0
  6
Continuous
 62
     7
370
    15
100
AcDbLine
 10
246.1833789943
 20
29.7829443429
 30
0.0
 11
247.5269796737
 21
29.0073001807
 31
0.0
  0
SPLINE
  5
173
330
1F
100
AcDbEntity
  8
0
  6
Continuous
 62
     7
370
    15
100
AcDbSpline
210
0.0
220
0.0
230
1.0
 70
     8
 71
     3
 72
    11
 73
     7
 74
     0
 42
0.000000001
 43
0.00000001
 40
0.0
 40
0.0
 40
0.0
 40
0.0
 40
0.1373322651055702
 40
0.5554717035235396
 40
0.9729297066151872
 40
1.0
 40
1.0
 40
1.0
 40
1.0
 10
243.2771904195056
 20
33.73427658292241
 30
0.0
 10
243.3059233950452
 20
33.63832610242095
 30
0.0
 10
243.4221404752633
 20
33.25023247550031
 30
0.0
 10
243.6840106498091
 20
32.62328268368957
 30
0.0
 10
243.9397532036516
 20
32.08852320493763
 30
0.0
 10
244.1053827511583
 20
31.85079618787775
 30
0.0
 10
244.1154690392073
 20
31.83631940395124
 30
0.0
  0
SPLINE
  5
174
330
1F
100
AcDbEntity
  8
0
  6
Continuous
 62
     7
370
    15
100
AcDbSpline
210
0.0
220
0.0
230
1.0
 70
     8
 71
     3
 72
    25
 73
    21
 74
     0
 42
0.000000001
 43
0.00000001
 40
0.0
 40
0.0
 40
0.0
 40
0.0
 40
0.0278621394875249
 40
0.0838132205304127
 40
0.1406953397302148
 40
0.1988172328927401
 40
0.2580074521581634
 40
0.3178410283905493
 40
0.37791921220048
 40
0.4379549336987272
 40
0.4978810625695968
 40
0.5576986197329635
 40
0.6174394220592268
 40
0.6771479017860752
 40
0.7368735198971906
 40
0.7966518912696728
 40
0.8565350399347814
 40
0.916574548211374
 40
0.9768135626203781
 40
1.0
 40
1.0
 40
1.0
 40
1.0
 10
231.6295331065378
 20
63.59868166882525
 30
0.0
 10
231.5502420023319
 20
63.62657868426802
 30
0.0
 10
231.3117232480244
 20
63.71049681655975
 30
0.0
 10
230.8737979900193
 20
63.74668402774073
 30
0.0
 10
230.3287484426565
 20
63.71336752777708
 30
0.0
 10
229.7589724079378
 20
63.57900369503522
 30
0.0
 10
229.1749486175473
 20
63.35062150570207
 30
0.0
 10
228.5862983432806
 20
63.0294518190576
 30
0.0
 10
228.0046400705775
 20
62.622161643413
 30
0.0
 10
227.440649774606
 20
62.1368941871776
 30
0.0
 10
226.9039088725194
 20
61.58305678821885
 30
0.0
 10
226.4028657071374
 20
60.97044870142819
 30
0.0
 10
225.9453276419898
 20
60.30945117371768
 30
0.0
 10
225.5385006493188
 20
59.61095850676256
 30
0.0
 10
225.1889445485857
 20
58.88632187629822
 30
0.0
 10
224.9025804098454
 20
58.14720806834995
 30
0.0
 10
224.6841650237321
 20
57.40514336307359
 30
0.0
 10
224.5390618029294
 20
56.67223859287529
 30
0.0
 10
224.4816097857093
 20
56.10490191491832
 30
0.0
 10
224.4772784706378
 20
55.78774539753299
 30
0.0
 10
224.4760746681588
 20
55.69959808071023
 30
0.0
  0
SPLINE
  5
175
330
1F
100
AcDbEntity
  8
0
  6
Continuous
 62
     7
370
    15
100
AcDbSpline
210
0.0
220
0.0
230
1.0
 70
     8
 71
     3
 72
    13
 73
     9
 74
     0
 42
0.000000001
 43
0.00000001
 40
0.0
 40
0.0
 40
0.0
 40
0.0
 40
0.10532205496989
 40
0.3044624241894842
 40
0.5036187302229373
 40
0.7010535244007461
 40
0.8949160986850851
 40
1.0
 40
1.0
 40
1.0
 40
1.0
 10
224.4760746681588
 20
55.69959808071023
 30
0.0
 10
224.4783215304066
 20
55.5797036906601
 30
0.0
 10
224.4848167049165
 20
55.23311591612591
 30
0.0
 10
224.5577633946353
 20
54.69178420173704
 30
0.0
 10
224.7212709645771
 20
54.10094845067462
 30
0.0
 10
224.970100252395
 20
53.58183103100543
 30
0.0
 10
225.236706570867
 20
53.19256093436454
 30
0.0
 10
225.445447480574
 20
53.01487262456337
 30
0.0
 10
225.5188228535803
 20
52.95241267826519
 30
0.0
  0
LWPOLYLINE
  5
176
330
1F
100
AcDbEntity
  8
0
  6
Continuous
 62
     7
370
    15
100
AcDbPolyline
 90
       21
 70
   128
 43
0.0
 10
268.8192161485
 20
40.5169241706
 10
268.5801464826
 20
40.7068813653
 10
268.4544601213
 20
40.9301894406
 10
268.4544601213
 20
41.1649894461
 10
268.5801464826
 20
41.3882975213
 10
268.8192161485
 20
41.578254716
 10
269.1482673144
 20
41.7162666965
 10
269.5350901595
 20
41.7888238884
 10
269.9418197686
 20
41.7888238884
 10
270.3286426137
 20
41.7162666965
 10
270.6576937796
 20
41.578254716
 10
270.8967634455
 20
41.3882975213
 10
271.0224498068
 20
41.1649894461
 10
271.0224498068
 20
40.9301894406
 10
270.8967634455
 20
40.7068813653
 10
270.6576937796
 20
40.5169241706
 10
270.3286426137
 20
40.3789121902
 10
269.9418197686
 20
40.3063549982
 10
269.5350901595
 20
40.3063549982
 10
269.1482673144
 20
40.3789121902
 10
268.8192161485
 20
40.5169241706
  0
LWPOLYLINE
  5
177
330
1F
100
AcDbEntity
  8
0
  6
Continuous
 62
     7
370
    15
100
AcDbPolyline
 90
        7
 70
   128
 43
0.0
 10
268.6777947922
 20
40.2719751971
 10
268.4219364797
 20
40.4692844543
 10
268.2727346651
 20
40.7002142864
 10
268.2422767921
 20
40.9460561317
 10
268.3330303765
 20
41.186893346
 10
268.5376431026
 20
41.4032147304
 10
268.6776224472
 20
41.4964878559
  0
LWPOLYLINE
  5
178
330
1F
100
AcDbEntity
  8
0
  6
Continuous
 62
     7
370
    15
100
AcDbPolyline
 90
       12
 70
   128
 43
0.0
 10
270.7992874809
 20
41.4964878559
 10
271.0549734484
 20
41.2992781075
 10
271.204175263
 20
41.0683482754
 10
271.2346331359
 20
40.8225064302
 10
271.1438795515
 20
40.5816692159
 10
270.9392668254
 20
40.3653478314
 10
270.6373714638
 20
40.1910673488
 10
270.2626512334
 20
40.0729469363
 10
269.8454637388
 20
40.0205560072
 10
269.4196070297
 20
40.038138963
 10
269.0195814839
 20
40.1242713372
 10
268.6777947922
 20
40.2719751971
  0
LWPOLYLINE
  5
179
330
1F
100
AcDbEntity
  8
0
  6
Continuous
 62
     7
370
    15
100
AcDbPolyline
 90
       18
 70
   128
 43
0.0
 10
269.0667035219
 20
40.6597955902
 10
268.869400789
 20
40.8260697422
 10
268.789468638
 20
41.0222613573
 10
268.8377023488
 20
41.2218736708
 10
269.0075876916
 20
41.3979479336
 10
269.2761807094
 20
41.5267043409
 10
269.6072064268
 20
41.5907536264
 10
269.9559579865
 20
41.5814455792
 10
270.2753345577
 20
41.5000373027
 10
270.5222025649
 20
41.3575234356
 10
270.6632211157
 20
41.1731512655
 10
270.6793448734
 20
40.9718212756
 10
270.5683962351
 20
40.7807241965
 10
270.3453594294
 20
40.6256687478
 10
270.0403568126
 20
40.5275960269
 10
269.6945806783
 20
40.4997512983
 10
269.3547300094
 20
40.5458951469
 10
269.0667035219
 20
40.6597955902
  0
SPLINE
  5
17A
330
1F
100
AcDbEntity
  8
0
  6
Continuous
 62
     7
370
    15
100
AcDbSpline
210
0.0
220
0.0
230
1.0
 70
     8
 71
     3
 72
     9
 73
     5
 74
     0
 42
0.000000001
 43
0.00000001
 40
0.0
 40
0.0
 40
0.0
 40
0.0
 40
0.6282411327559126
 40
1.0
 40
1.0
 40
1.0
 40
1.0
 10
269.208269800463
 20
40.58126867157216
 30
0.0
 10
269.1410549587146
 20
40.62711144373596
 30
0.0
 10
269.034066036398
 20
40.70008147032861
 30
0.0
 10
268.9377463556825
 20
40.80909755968808
 30
0.0
 10
268.9019386602864
 20
40.84962525757974
 30
0.0
  0
SPLINE
  5
17B
330
1F
100
AcDbEntity
  8
0
  6
Continuous
 62
     7
370
    15
100
AcDbSpline
210
0.0
220
0.0
230
1.0
 70
     8
 71
     3
 72
    11
 73
     7
 74
     0
 42
0.000000001
 43
0.00000001
 40
0.0
 40
0.0
 40
0.0
 40
0.0
 40
0.2164499953511928
 40
0.4402998152333232
 40
0.7518914760010498
 40
0.9999999999999999
 40
0.9999999999999999
 40
0.9999999999999999
 40
0.9999999999999999
 10
270.5749712677621
 20
41.10841625909969
 30
0.0
 10
270.5596175848341
 20
41.05315681726322
 30
0.0
 10
270.5283853191768
 20
40.94074876666006
 30
0.0
 10
270.4704259080544
 20
40.77826812555188
 30
0.0
 10
270.4082525352089
 20
40.66698978443877
 30
0.0
 10
270.3684648248332
 20
40.63824701042527
 30
0.0
 10
270.3508273997201
 20
40.62550567599263
 30
0.0
  0
SPLINE
  5
17C
330
1F
100
AcDbEntity
  8
0
  6
Continuous
 62
     7
370
    15
100
AcDbSpline
210
0.0
220
0.0
230
1.0
 70
     8
 71
     3
 72
    11
 73
     7
 74
     0
 42
0.000000001
 43
0.00000001
 40
0.0
 40
0.0
 40
0.0
 40
0.0
 40
0.1858291127512952
 40
0.5244603149142151
 40
0.8816641415318794
 40
1.0
 40
1.0
 40
1.0
 40
1.0
 10
269.9625988320662
 20
41.46193134144676
 30
0.0
 10
269.9984116038598
 20
41.42206144892926
 30
0.0
 10
270.0994849894812
 20
41.30953776479958
 30
0.0
 10
270.2889387876719
 20
41.1606575955406
 30
0.0
 10
270.4611493151684
 20
41.11158548422152
 30
0.0
 10
270.5522910637717
 20
41.10904776005901
 30
0.0
 10
270.5749712677621
 20
41.10841625909969
 30
0.0
  0
SPLINE
  5
17D
330
1F
100
AcDbEntity
  8
0
  6
Continuous
 62
     7
370
    15
100
AcDbSpline
210
0.0
220
0.0
230
1.0
 70
     8
 71
     3
 72
    10
 73
     6
 74
     0
 42
0.000000001
 43
0.00000001
 40
0.0
 40
0.0
 40
0.0
 40
0.0
 40
0.4391165375904116
 40
0.7513669429073457
 40
1.0
 40
1.0
 40
1.0
 40
1.0
 10
269.1260825283285
 20
41.33253584068679
 30
0.0
 10
269.2458362860936
 20
41.30911633194663
 30
0.0
 10
269.4507454780074
 20
41.26904349665089
 30
0.0
 10
269.7486171795491
 20
41.34702020776984
 30
0.0
 10
269.8968769954571
 20
41.42663779798993
 30
0.0
 10
269.9625988320662
 20
41.46193134144676
 30
0.0
  0
SPLINE
  5
17E
330
1F
100
AcDbEntity
  8
0
  6
Continuous
 62
     7
370
    15
100
AcDbSpline
210
0.0
220
0.0
230
1.0
 70
     8
 71
     3
 72
    10
 73
     6
 74
     0
 42
0.000000001
 43
0.00000001
 40
0.0
 40
0.0
 40
0.0
 40
0.0
 40
0.4391165375904101
 40
0.7513669429073428
 40
0.9999999999999999
 40
0.9999999999999999
 40
0.9999999999999999
 40
0.9999999999999999
 10
268.9019386602864
 20
40.84962525757974
 30
0.0
 10
268.9340265829702
 20
40.87681415820175
 30
0.0
 10
268.9889318354652
 20
40.92333675389693
 30
0.0
 10
269.0687463173414
 20
41.12719521846029
 30
0.0
 10
269.108472415284
 20
41.26946799040886
 30
0.0
 10
269.1260825283285
 20
41.33253584068679
 30
0.0
  0
LINE
  5
17F
330
1F
100
AcDbEntity
  8
0
  6
Continuous
 62
     7
370
    15
100
AcDbLine
 10
269.1260825283
 20
40.6283100239
 30
0.0
 11
269.1260825283
 21
41.3325358407
 31
0.0
  0
LINE
  5
180
330
1F
100
AcDbEntity
  8
0
  6
Continuous
 62
     7
370
    15
100
AcDbLine
 10
269.9625988321
 20
40.5146495317
 30
0.0
 11
269.9625988321
 21
41.4619313414
 31
0.0
  0
LWPOLYLINE
  5
181
330
1F
100
AcDbEntity
  8
0
  6
Continuous
 62
     7
370
    15
100
AcDbPolyline
 90
       52
 70
   128
 43
0.0
 10
272.5845597583
 20
39.2820869965
 10
271.9024328806
 20
38.8397201709
 10
271.230646351
 20
38.3068924534
 10
270.5793837686
 20
37.6916809691
 10
269.9585176102
 20
37.003411697
 10
269.377459574
 20
36.2525180977
 10
268.8450179074
 20
35.4503829527
 10
268.3692638834
 20
34.6091658131
 10
267.957409448
 20
33.7416186734
 10
267.6156978946
 20
32.8608926637
 10
267.3493092222
 20
31.9803386927
 10
267.1622816113
 20
31.113305061
 10
267.05745021
 20
30.2729351146
 10
267.0364041554
 20
29.4719680053
 10
267.0994624843
 20
28.722545578
 10
267.2456692966
 20
28.0360283127
 10
267.4728082462
 20
27.4228231115
 10
267.7774361381
 20
26.8922255401
 10
268.1549351239
 20
26.4522789168
 10
268.5995827039
 20
26.109652384
 10
269.104638474
 20
25.8695398107
 10
269.6624463035
 20
25.7355810586
 10
270.2645503943
 20
25.7098068061
 10
270.9018234622
 20
25.7926077643
 10
271.5646050971
 20
25.9827287553
 10
272.242848205
 20
26.2772877386
 10
272.9262713116
 20
26.6718195002
 10
273.6045144195
 20
27.1603433409
 10
274.2672960544
 20
27.7354537371
 10
274.9045691223
 20
28.3884326015
 10
275.5066732131
 20
29.1093814402
 10
276.0644810426
 20
29.8873714036
 10
276.5695368127
 20
30.7106089569
 10
277.0141843927
 20
31.566614658
 10
277.3916833785
 20
32.442412333
 10
277.6963112704
 20
33.3247257818
 10
277.92345022
 20
34.2001800321
 10
278.0696570323
 20
35.0555040897
 10
278.1327153612
 20
35.8777321139
 10
278.1116693066
 20
36.6543999658
 10
278.0068379053
 20
37.3737341525
 10
277.8198102944
 20
38.0248303011
 10
277.553421622
 20
38.5978184576
 10
277.2117100686
 20
39.0840127056
 10
276.7998556332
 20
39.4760428359
 10
276.3241016092
 20
39.7679660714
 10
275.7916599426
 20
39.9553571534
 10
275.2106019064
 20
40.035375424
 10
274.589735748
 20
40.006807888
 10
273.9384731656
 20
39.8700875999
 10
273.266686636
 20
39.6272871001
 10
272.5845597583
 20
39.2820869965
  0
LWPOLYLINE
  5
182
330
1F
100
AcDbEntity
  8
0
  6
Continuous
 62
     7
370
    15
100
AcDbPolyline
 90
       28
 70
   128
 43
0.0
 10
272.4784937411
 20
39.4657987267
 10
271.7966353092
 20
39.0245422176
 10
271.1247199086
 20
38.4944641923
 10
270.472545579
 20
37.8832943819
 10
269.8496224905
 20
37.1999450185
 10
269.2650342646
 20
36.4543808747
 10
268.7273055139
 20
35.6574739544
 10
268.2442775345
 20
34.8208449551
 10
267.8229939621
 20
33.9566938115
 10
267.4695980597
 20
33.0776217932
 10
267.1892431353
 20
32.1964477496
 10
266.9860173952
 20
31.3260211827
 10
266.8628843282
 20
30.4790348717
 10
266.8216394916
 20
29.6678397843
 10
266.8628843282
 20
28.9042649715
 10
266.9860173952
 20
28.1994450736
 10
267.1892431353
 20
27.5636579518
 10
267.4695980597
 20
27.0061748139
 10
267.8229939621
 20
26.5351250195
 10
268.2442775345
 20
26.1573775353
 10
268.7273055139
 20
25.8784407701
 10
269.2650342646
 20
25.7023822503
 10
269.8496224905
 20
25.6317693053
 10
270.472545579
 20
25.667631631
 10
271.1247199086
 20
25.809446274
 10
271.7966353092
 20
26.0551452573
 10
272.4784937411
 20
26.4011457365
 10
272.479413139
 20
26.4016765799
  0
LWPOLYLINE
  5
183
330
1F
100
AcDbEntity
  8
0
  6
Continuous
 62
     7
370
    15
100
AcDbPolyline
 90
       14
 70
   128
 43
0.0
 10
278.1353479906
 20
36.1991046789
 10
278.0941031541
 20
36.9626794916
 10
277.970970087
 20
37.6674993895
 10
277.7677443469
 20
38.3032865113
 10
277.4873894226
 20
38.8607696492
 10
277.1339935202
 20
39.3318194436
 10
276.7127099477
 20
39.7095669279
 10
276.2296819683
 20
39.988503693
 10
275.6919532177
 20
40.1645622129
 10
275.1073649917
 20
40.2351751578
 10
274.4844419033
 20
40.1993128321
 10
273.8322675736
 20
40.0574981892
 10
273.160352173
 20
39.8117992059
 10
272.4784937411
 20
39.4657987267
  0
SPLINE
  5
184
330
1F
100
AcDbEntity
  8
0
  6
Continuous
 62
     7
370
    15
100
AcDbSpline
210
0.0
220
0.0
230
1.0
 70
    11
 71
     3
 72
    66
 73
    62
 74
     0
 42
0.000000001
 43
0.00000001
 40
0.0
 40
0.0
 40
0.0
 40
0.0
 40
0.0312499999999996
 40
0.0312499999999996
 40
0.0624999999999993
 40
0.0624999999999993
 40
0.0937499999999989
 40
0.0937499999999989
 40
0.1249999999999986
 40
0.1249999999999986
 40
0.1562499999999982
 40
0.1562499999999982
 40
0.1874999999999978
 40
0.1874999999999978
 40
0.2187499999999975
 40
0.2187499999999975
 40
0.2499999999999971
 40
0.2499999999999971
 40
0.2812499999999968
 40
0.2812499999999968
 40
0.3124999999999964
 40
0.3124999999999964
 40
0.343749999999996
 40
0.343749999999996
 40
0.3749999999999957
 40
0.3749999999999957
 40
0.4062499999999953
 40
0.4062499999999953
 40
0.4374999999999949
 40
0.4374999999999949
 40
0.4687499999999946
 40
0.4687499999999946
 40
0.4999999999999942
 40
0.4999999999999942
 40
0.5312499999999939
 40
0.5312499999999939
 40
0.5624999999999936
 40
0.5624999999999936
 40
0.6249999999999937
 40
0.6249999999999937
 40
0.6562499999999942
 40
0.6562499999999942
 40
0.6874999999999947
 40
0.6874999999999947
 40
0.7187499999999952
 40
0.7187499999999952
 40
0.7499999999999958
 40
0.7499999999999958
 40
0.7812499999999963
 40
0.7812499999999963
 40
0.8124999999999968
 40
0.8124999999999968
 40
0.8437499999999973
 40
0.8437499999999973
 40
0.8749999999999979
 40
0.8749999999999979
 40
0.9062499999999984
 40
0.9062499999999984
 40
0.9374999999999989
 40
0.9374999999999989
 40
1.0
 40
1.0
 40
1.0
 40
1.0
 10
269.7350812043807
 20
41.99225917559479
 30
0.0
 10
269.8520260622345
 20
41.97591430745497
 30
0.0
 10
269.9660053564922
 20
41.95366803417754
 30
0.0
 10
270.1886526821235
 20
41.89936404827203
 30
0.0
 10
270.298067282693
 20
41.86702401658102
 30
0.0
 10
270.5080453087215
 20
41.79431420384192
 30
0.0
 10
270.6073371943338
 20
41.75447520884816
 30
0.0
 10
270.7950101200105
 20
41.66860946880495
 30
0.0
 10
270.8841482516613
 20
41.62209372884723
 30
0.0
 10
271.0463759685419
 20
41.52540811386367
 30
0.0
 10
271.1195453500123
 20
41.4753513381508
 30
0.0
 10
271.2501026962305
 20
41.37159273143755
 30
0.0
 10
271.3079028169656
 20
41.3173293668568
 30
0.0
 10
271.4031683147785
 20
41.20794066767728
 30
0.0
 10
271.4410466008914
 20
41.15267964052301
 30
0.0
 10
271.4967780780926
 20
41.04006483617039
 30
0.0
 10
271.5145708472363
 20
40.98211885014787
 30
0.0
 10
271.5271359922733
 20
40.86749288983771
 30
0.0
 10
271.5223226458564
 20
40.81044169024406
 30
0.0
 10
271.489019714452
 20
40.69571968230743
 30
0.0
 10
271.4599547973285
 20
40.63767106506937
 30
0.0
 10
271.3789970953824
 20
40.52594064084077
 30
0.0
 10
271.3270754226801
 20
40.47153002142011
 30
0.0
 10
271.1983848348743
 20
40.36517009499637
 30
0.0
 10
271.1228137852104
 20
40.3144486663929
 30
0.0
 10
270.9540746406346
 20
40.22070319835104
 30
0.0
 10
270.8588598194841
 20
40.17667990971422
 30
0.0
 10
270.6569584918719
 20
40.09925320616704
 30
0.0
 10
270.550394749755
 20
40.06563529216297
 30
0.0
 10
270.3263619325318
 20
40.00895980586277
 30
0.0
 10
270.2114587159558
 20
39.98662489442546
 30
0.0
 10
269.979793553153
 20
39.95454226681946
 30
0.0
 10
269.8613589844429
 20
39.94469013329481
 30
0.0
 10
269.6293568752408
 20
39.93855837681613
 30
0.0
 10
269.5151999250313
 20
39.94207843629645
 30
0.0
 10
269.2903212442239
 20
39.96282057562912
 30
0.0
 10
269.1805035491982
 20
39.98010202979332
 30
0.0
 10
268.8676498706481
 20
40.0513574866042
 30
0.0
 10
268.6748956478557
 20
40.12673529424627
 30
0.0
 10
268.4325164013759
 20
40.27328401910535
 30
0.0
 10
268.3585204203852
 20
40.32803431953628
 30
0.0
 10
268.2264104915469
 20
40.44835866212483
 30
0.0
 10
268.1696973395631
 20
40.51255914738426
 30
0.0
 10
268.074610662377
 20
40.64833448031165
 30
0.0
 10
268.0360378296459
 20
40.72043186131385
 30
0.0
 10
267.9798170302793
 20
40.86948713571883
 30
0.0
 10
267.9624939519333
 20
40.9451443583718
 30
0.0
 10
267.9497775889219
 20
41.09777853981704
 30
0.0
 10
267.9545925550745
 20
41.17564402624365
 30
0.0
 10
267.9882621710018
 20
41.32736601503976
 30
0.0
 10
268.0166568396833
 20
41.4005230234899
 30
0.0
 10
268.0975715457392
 20
41.54029053423286
 30
0.0
 10
268.1511238388272
 20
41.60763656189011
 30
0.0
 10
268.279099431381
 20
41.72773783378241
 30
0.0
 10
268.353555869001
 20
41.78120825795759
 30
0.0
 10
268.5242960450169
 20
41.8742332580156
 30
0.0
 10
268.6188503684213
 20
41.91260614289208
 30
0.0
 10
268.8202901473714
 20
41.97202275280698
 30
0.0
 10
268.9292590278256
 20
41.99352278448103
 30
0.0
 10
269.2633241750888
 20
42.03226714450626
 30
0.0
 10
269.501191488673
 20
42.02494891187443
 30
0.0
 10
269.7350812043807
 20
41.9922591755948
 30
0.0
  0
LINE
  5
185
330
1F
100
AcDbEntity
  8
0
  6
Continuous
 62
     7
370
    15
100
AcDbLine
 10
275.6283231439
 20
32.8047136179
 30
0.0
 11
276.8272004454
 21
34.2961055835
 31
0.0
  0
SPLINE
  5
186
330
1F
100
AcDbEntity
  8
0
  6
Continuous
 62
     7
370
    15
100
AcDbSpline
210
0.0
220
0.0
230
1.0
 70
     8
 71
     3
 72
    22
 73
    18
 74
     0
 42
0.000000001
 43
0.00000001
 40
0.0
 40
0.0
 40
0.0
 40
0.0
 40
0.0416666666666667
 40
0.0833333333333334
 40
0.1250000000000032
 40
0.1666666666666681
 40
0.2083333333333337
 40
0.2499999999998967
 40
0.2968749999997768
 40
0.34375
 40
0.3906249999999999
 40
0.4374999999999998
 40
0.4847037825276522
 40
0.4847037825276522
 40
0.53125
 40
0.6249999999999848
 40
0.8414337678077999
 40
0.8414337678077999
 40
0.8414337678077999
 40
0.8414337678077999
 10
276.8272004454181
 20
34.2961055834884
 30
0.0
 10
276.8726797732312
 20
34.35268143492407
 30
0.0
 10
276.9619501831729
 20
34.47460204351712
 30
0.0
 10
277.0864428926895
 20
34.68150971585822
 30
0.0
 10
277.1960845407448
 20
34.91048208804283
 30
0.0
 10
277.2830901365199
 20
35.15388645717675
 30
0.0
 10
277.3397657431733
 20
35.40085532225037
 30
0.0
 10
277.3610351871511
 20
35.64890165776897
 30
0.0
 10
277.3378016545532
 20
35.88126451079782
 30
0.0
 10
277.2647165308019
 20
36.07939515811279
 30
0.0
 10
277.1498499684124
 20
36.22473304465685
 30
0.0
 10
277.0005463681747
 20
36.3153726753491
 30
0.0
 10
276.8896229885681
 20
36.34117627553096
 30
0.0
 10
276.7791412050356
 20
36.35158575697562
 30
0.0
 10
276.6309075355971
 20
36.36394549099987
 30
0.0
 10
276.3498121405378
 20
36.38984024807139
 30
0.0
 10
275.9328139705324
 20
36.42705813136902
 30
0.0
 10
275.6282171965576
 20
36.45419851993694
 30
0.0
  0
SPLINE
  5
187
330
1F
100
AcDbEntity
  8
0
  6
Continuous
 62
     7
370
    15
100
AcDbSpline
210
0.0
220
0.0
230
1.0
 70
     8
 71
     3
 72
    22
 73
    18
 74
     0
 42
0.000000001
 43
0.00000001
 40
0.0
 40
0.0
 40
0.0
 40
0.0
 40
0.0416666666666667
 40
0.0833333333333334
 40
0.1250000000000032
 40
0.1666666666666681
 40
0.2083333333333337
 40
0.2499999999998967
 40
0.2968749999997768
 40
0.34375
 40
0.3906249999999999
 40
0.4374999999999998
 40
0.4847037825276522
 40
0.4847037825276522
 40
0.53125
 40
0.6249999999999848
 40
0.8393173095866708
 40
0.8393173095866708
 40
0.8393173095866708
 40
0.8393173095866708
 10
268.3419190711821
 20
29.3976569125537
 30
0.0
 10
268.2972464143416
 20
29.40165132124783
 30
0.0
 10
268.2067949563165
 20
29.42060811210626
 30
0.0
 10
268.0827769373399
 20
29.48373711619144
 30
0.0
 10
267.9730080992495
 20
29.58613131196934
 30
0.0
 10
267.8860365730749
 20
29.72907810020146
 30
0.0
 10
267.8293518780545
 20
29.91061155979752
 30
0.0
 10
267.8080848131056
 20
30.13410033238516
 30
0.0
 10
267.8313181368485
 20
30.39328879413753
 30
0.0
 10
267.9044013949032
 20
30.67579912939024
 30
0.0
 10
268.0192756369672
 20
30.95376875365533
 30
0.0
 10
268.168550316745
 20
31.21675465687151
 30
0.0
 10
268.279546090242
 20
31.37071772155392
 30
0.0
 10
268.3900566109753
 20
31.50872250509652
 30
0.0
 10
268.538269236937
 20
31.69220301787541
 30
0.0
 10
268.8161663550025
 20
32.03866046708465
 30
0.0
 10
269.2381097787935
 20
32.56349144549063
 30
0.0
 10
269.5409041029233
 20
32.94007143657748
 30
0.0
  0
LINE
  5
188
330
1F
100
AcDbEntity
  8
0
  6
Continuous
 62
     7
370
    15
100
AcDbLine
 10
269.5407963727
 20
29.2904592159
 30
0.0
 11
268.3419190712
 21
29.3976569126
 31
0.0
  0
SPLINE
  5
189
330
1F
100
AcDbEntity
  8
0
  6
Continuous
 62
     7
370
    15
100
AcDbSpline
210
0.0
220
0.0
230
1.0
 70
     8
 71
     3
 72
    10
 73
     6
 74
     0
 42
0.000000001
 43
0.00000001
 40
0.0
 40
0.0
 40
0.0
 40
0.0
 40
0.4034260514806514
 40
0.8079404251132362
 40
0.9999999999999999
 40
0.9999999999999999
 40
0.9999999999999999
 40
0.9999999999999999
 10
270.1183649800337
 20
49.99233184779452
 30
0.0
 10
270.1366100518484
 20
50.0310893857673
 30
0.0
 10
270.1731494151941
 20
50.10870901789354
 30
0.0
 10
270.1870629111655
 20
50.21619120916402
 30
0.0
 10
270.1689551001174
 20
50.26952939218672
 30
0.0
 10
270.1631255152006
 20
50.28670095789454
 30
0.0
  0
SPLINE
  5
18A
330
1F
100
AcDbEntity
  8
0
  6
Continuous
 62
     7
370
    15
100
AcDbSpline
210
0.0
220
0.0
230
1.0
 70
     8
 71
     3
 72
    12
 73
     8
 74
     0
 42
0.000000001
 43
0.00000001
 40
0.0
 40
0.0
 40
0.0
 40
0.0
 40
0.2500000000000008
 40
0.2500000000000008
 40
0.5000000000000017
 40
0.5000000000000017
 40
1.0
 40
1.0
 40
1.0
 40
1.0
 10
248.5571743797373
 20
38.05609718156424
 30
0.0
 10
248.5909535460096
 20
38.03659688395072
 30
0.0
 10
248.6292365635912
 20
38.00970507245589
 30
0.0
 10
248.7033222209164
 20
37.95113285339507
 30
0.0
 10
248.7386122172363
 20
37.92002656466935
 30
0.0
 10
248.8341090169025
 20
37.82889603148361
 30
0.0
 10
248.8828687773344
 20
37.77269711460735
 30
0.0
 10
248.9164326223237
 20
37.72513094509364
 30
0.0
  0
ARC
  5
18B
330
1F
100
AcDbEntity
  8
0
  6
Continuous
 62
     7
370
    15
100
AcDbCircle
 10
264.4523675651
 20
49.4454594563
 30
0.0
 40
5.580224940478594
100
AcDbArc
 50
30.6950077339
 51
88.9953858498
  0
LINE
  5
18C
330
1F
100
AcDbEntity
  8
0
  6
Continuous
 62
     7
370
    15
100
AcDbLine
 10
247.2047348655
 20
38.8368438945
 30
0.0
 11
248.5571743797
 21
38.0560971816
 31
0.0
  0
LWPOLYLINE
  5
18D
330
1F
100
AcDbEntity
  8
0
  6
Continuous
 62
     7
370
    15
100
AcDbPolyline
 90
       25
 70
   128
 43
0.0
 10
247.2047348655
 20
38.8368438945
 10
247.531657425
 20
40.1072247675
 10
247.9400072832
 20
41.3870554946
 10
248.4265947694
 20
42.6663391619
 10
248.9876190896
 20
43.9350831286
 10
249.6186980143
 20
45.1833770809
 10
250.314902109
 20
46.4014704425
 10
251.0707932388
 20
47.5798485376
 10
251.8804670457
 20
48.7093069112
 10
252.7375990689
 20
49.7810232261
 10
253.6354941457
 20
50.7866261756
 10
254.5671387081
 20
51.7182608723
 10
255.5252555668
 20
52.568650204
 10
256.5023607541
 20
53.3311516759
 10
257.4908219824
 20
53.9998092961
 10
258.4829182603
 20
54.5694000982
 10
259.4709002029
 20
55.0354749392
 10
260.4470505627
 20
55.3943932515
 10
261.4037445101
 20
55.6433514805
 10
262.3335091922
 20
55.780404983
 10
263.2290821036
 20
55.8044832175
 10
264.083467815
 20
55.7153981059
 10
264.8899926155
 20
55.5138455029
 10
265.6423566414
 20
55.2013997604
 10
265.8930453676
 20
55.0655451761
  0
ARC
  5
18E
330
1F
100
AcDbEntity
  8
0
  6
Continuous
 62
     7
370
    15
100
AcDbCircle
 10
250.987079586
 20
32.856834875
 30
0.0
 40
0.6147219230287947
100
AcDbArc
 50
302.60547834
 51
357.3945215143
  0
LINE
  5
18F
330
1F
100
AcDbEntity
  8
0
  6
Continuous
 62
     7
370
    15
100
AcDbLine
 10
251.6011660266
 20
34.0520142382
 30
0.0
 11
251.6011660266
 21
32.8288905341
 31
0.0
  0
LINE
  5
190
330
1F
100
AcDbEntity
  8
0
  6
Continuous
 62
     7
370
    15
100
AcDbLine
 10
251.6011660266
 20
38.8549617258
 30
0.0
 11
251.6011660266
 21
37.6318380217
 31
0.0
  0
ARC
  5
191
330
1F
100
AcDbEntity
  8
0
  6
Continuous
 62
     7
370
    15
100
AcDbCircle
 10
251.4287362796
 20
38.8829326046
 30
0.0
 40
0.174683678971427
100
AcDbArc
 50
350.7859630095
 51
129.2032852357
  0
LINE
  5
192
330
1F
100
AcDbEntity
  8
0
  6
Continuous
 62
     7
370
    15
100
AcDbLine
 10
251.3183233141
 20
39.0182964282
 30
0.0
 11
248.9632703203
 21
37.6587532735
 31
0.0
  0
LINE
  5
193
330
1F
100
AcDbEntity
  8
0
  6
Continuous
 62
     7
370
    15
100
AcDbLine
 10
248.9164326223
 20
37.7251309451
 30
0.0
 11
248.9632703203
 21
37.6587532735
 31
0.0
  0
LINE
  5
194
330
1F
100
AcDbEntity
  8
0
  6
Continuous
 62
     7
370
    15
100
AcDbLine
 10
270.0135795221
 20
49.8108381114
 30
0.0
 11
270.11836498
 21
49.9923318478
 31
0.0
  0
LINE
  5
195
330
1F
100
AcDbEntity
  8
0
  6
Continuous
 62
     7
370
    15
100
AcDbLine
 10
268.5717287751
 20
48.9784753924
 30
0.0
 11
270.0135795221
 21
49.8108381114
 31
0.0
  0
ARC
  5
196
330
1F
100
AcDbEntity
  8
0
  6
Continuous
 62
     7
370
    15
100
AcDbCircle
 10
268.9029725031
 20
48.4606331044
 30
0.0
 40
0.6147219230288811
100
AcDbArc
 50
122.60547834
 51
177.3945215143
  0
LINE
  5
197
330
1F
100
AcDbEntity
  8
0
  6
Continuous
 62
     7
370
    15
100
AcDbLine
 10
268.2888860626
 20
48.1833434268
 30
0.0
 11
268.2888860626
 21
48.4885774453
 31
0.0
  0
LINE
  5
198
330
1F
100
AcDbEntity
  8
0
  6
Continuous
 62
     7
370
    15
100
AcDbLine
 10
248.9632703203
 20
30.9794494323
 30
0.0
 11
248.9164326223
 21
30.8589941058
 31
0.0
  0
LINE
  5
199
330
1F
100
AcDbEntity
  8
0
  6
Continuous
 62
     7
370
    15
100
AcDbLine
 10
248.9632703203
 20
30.9794494323
 30
0.0
 11
251.3183233141
 21
32.338992587
 31
0.0
  0
LWPOLYLINE
  5
19A
330
1F
100
AcDbEntity
  8
0
  6
Continuous
 62
     7
370
    15
100
AcDbPolyline
 90
        3
 70
   128
 43
0.0
 10
270.3621836235
 20
46.9864542214
 10
270.4337114789
 20
46.9440850629
 10
270.4952521409
 20
46.9058647909
  0
LINE
  5
19B
330
1F
100
AcDbEntity
  8
0
  6
Continuous
 62
     7
370
    15
100
AcDbLine
 10
259.250586707
 20
27.738518255
 30
0.0
 11
259.1962965589
 21
27.7704777791
 31
0.0
  0
ARC
  5
19C
330
1F
100
AcDbEntity
  8
0
  6
Continuous
 62
     7
370
    15
100
AcDbCircle
 10
263.3363988752
 20
46.4812014312
 30
0.0
 40
3.950266965342756
100
AcDbArc
 50
60.3817931709
 51
86.1518489454
  0
ARC
  5
19D
330
1F
100
AcDbEntity
  8
0
  6
Continuous
 62
     7
370
    15
100
AcDbCircle
 10
256.1552874441
 20
34.0540979983
 30
0.0
 40
3.922127739132654
100
AcDbArc
 50
214.0593169191
 51
239.710657042
  0
SPLINE
  5
19E
330
1F
100
AcDbEntity
  8
0
  6
Continuous
 62
     7
370
    15
100
AcDbSpline
210
0.0
220
0.0
230
1.0
 70
     8
 71
     3
 72
    13
 73
     9
 74
     0
 42
0.000000001
 43
0.00000001
 40
0.0
 40
0.0
 40
0.0
 40
0.0
 40
0.1775213400283769
 40
0.3601889950201431
 40
0.5377116282441582
 40
0.7203820356815914
 40
0.897935145466295
 40
1.0
 40
1.0
 40
1.0
 40
1.0
 10
268.2712083930622
 20
29.66154714658763
 30
0.0
 10
268.2299981361931
 20
29.66836630650251
 30
0.0
 10
268.146382943767
 20
29.68220231267636
 30
0.0
 10
268.0397848497424
 20
29.7436318437645
 30
0.0
 10
267.9489823986034
 20
29.83385296003737
 30
0.0
 10
267.8808977900607
 20
29.95262134212869
 30
0.0
 10
267.838113905356
 20
30.0727625954955
 30
0.0
 10
267.8292956688686
 20
30.15811141431703
 30
0.0
 10
267.8260768770198
 20
30.18926504494615
 30
0.0
  0
SPLINE
  5
19F
330
1F
100
AcDbEntity
  8
0
  6
Continuous
 62
     7
370
    15
100
AcDbSpline
210
0.0
220
0.0
230
1.0
 70
     8
 71
     3
 72
    12
 73
     8
 74
     0
 42
0.000000001
 43
0.00000001
 40
0.0
 40
0.0
 40
0.0
 40
0.0
 40
0.0211746307415968
 40
0.1879092066562115
 40
0.4525914840652771
 40
0.7230079731208977
 40
1.0
 40
1.0
 40
1.0
 40
1.0
 10
269.6921484732031
 20
33.15196069893691
 30
0.0
 10
269.6920519782056
 20
33.15135483132289
 30
0.0
 10
269.6911956563818
 20
33.14597820378791
 30
0.0
 10
269.6741815750819
 20
33.11757196249815
 30
0.0
 10
269.6407737177913
 20
33.06876653790876
 30
0.0
 10
269.5930558674692
 20
33.00555581074504
 30
0.0
 10
269.5584266811079
 20
32.96207366557607
 30
0.0
 10
269.5409041029233
 20
32.94007143657742
 30
0.0
  0
SPLINE
  5
1A0
330
1F
100
AcDbEntity
  8
0
  6
Continuous
 62
     7
370
    15
100
AcDbSpline
210
0.0
220
0.0
230
1.0
 70
     8
 71
     3
 72
    16
 73
    12
 74
     0
 42
0.000000001
 43
0.00000001
 40
0.0
 40
0.0
 40
0.0
 40
0.0
 40
0.2499999999999956
 40
0.2499999999999956
 40
0.4999999999999911
 40
0.4999999999999911
 40
0.6249999999999889
 40
0.6249999999999889
 40
0.7499999999999867
 40
0.7499999999999867
 40
1.0
 40
1.0
 40
1.0
 40
1.0
 10
275.6282171965587
 20
36.45419851993684
 30
0.0
 10
275.6022218969528
 20
36.45651477077245
 30
0.0
 10
275.5742343765497
 20
36.45774641955232
 30
0.0
 10
275.5115826132142
 20
36.45657714607508
 30
0.0
 10
275.4765480781889
 20
36.45426458180768
 30
0.0
 10
275.4177573189462
 20
36.44459721554841
 30
0.0
 10
275.3967593141053
 20
36.44019528834402
 30
0.0
 10
275.3552506172363
 20
36.42858509204758
 30
0.0
 10
275.3354482757311
 20
36.42150737403789
 30
0.0
 10
275.2845380637717
 20
36.39897550428114
 30
0.0
 10
275.2623766257943
 20
36.38318018821348
 30
0.0
 10
275.2461824394313
 20
36.36861675576497
 30
0.0
  0
SPLINE
  5
1A1
330
1F
100
AcDbEntity
  8
0
  6
Continuous
 62
     7
370
    15
100
AcDbSpline
210
0.0
220
0.0
230
1.0
 70
     8
 71
     3
 72
    10
 73
     6
 74
     0
 42
0.000000001
 43
0.00000001
 40
0.0
 40
0.0
 40
0.0
 40
0.0
 40
0.5
 40
0.5
 40
1.0
 40
1.0
 40
1.0
 40
1.0
 10
275.246182439436
 20
36.36861675576288
 30
0.0
 10
275.2199896818082
 20
36.37806465163451
 30
0.0
 10
275.1938574931668
 20
36.38823872710604
 30
0.0
 10
275.1432480042648
 20
36.41030144304912
 30
0.0
 10
275.1194839179838
 20
36.42194102736626
 30
0.0
 10
275.0994967477471
 20
36.43347937514326
 30
0.0
  0
LINE
  5
1A2
330
1F
100
AcDbEntity
  8
0
  6
Continuous
 62
     7
370
    15
100
AcDbLine
 10
274.5868895333
 20
36.9123329235
 30
0.0
 11
274.5356192839
 21
36.940611561
 31
0.0
  0
LINE
  5
1A3
330
1F
100
AcDbEntity
  8
0
  6
Continuous
 62
     7
370
    15
100
AcDbLine
 10
273.9809285369
 20
37.0792150584
 30
0.0
 11
275.0994967477
 21
36.4334793751
 31
0.0
  0
ARC
  5
1A4
330
1F
100
AcDbEntity
  8
0
  6
Continuous
 62
     7
370
    15
100
AcDbCircle
 10
266.9942826848
 20
36.5832599311
 30
0.0
 40
5.622478724098376
100
AcDbArc
 50
337.8104828992
 51
1.4968156806
  0
LINE
  5
1A5
330
1F
100
AcDbEntity
  8
0
  6
Continuous
 62
     7
370
    15
100
AcDbLine
 10
272.2003589449
 20
34.4598106201
 30
0.0
 11
275.0994967477
 21
32.7861739909
 31
0.0
  0
LINE
  5
1A6
330
1F
100
AcDbEntity
  8
0
  6
Continuous
 62
     7
370
    15
100
AcDbLine
 10
270.0872552365
 20
29.117893162
 30
0.0
 11
270.1385245604
 21
29.0896150116
 31
0.0
  0
LINE
  5
1A7
330
1F
100
AcDbEntity
  8
0
  6
Continuous
 62
     7
370
    15
100
AcDbLine
 10
267.8925389658
 20
30.5678075989
 30
0.0
 11
269.574648022
 21
29.5967467104
 31
0.0
  0
SPLINE
  5
1A8
330
1F
100
AcDbEntity
  8
0
  6
Continuous
 62
     7
370
    15
100
AcDbSpline
210
0.0
220
0.0
230
1.0
 70
     8
 71
     3
 72
     8
 73
     4
 74
     0
 42
0.000000001
 43
0.00000001
 40
0.0
 40
0.0
 40
0.0
 40
0.0
 40
1.0
 40
1.0
 40
1.0
 40
1.0
 10
246.2152526902213
 20
40.09724845439302
 30
0.0
 10
245.8327524177033
 20
40.03384365328782
 30
0.0
 10
245.4501052140715
 20
39.97071725756581
 30
0.0
 10
245.0673510240128
 20
39.90781961051773
 30
0.0
  0
SPLINE
  5
1A9
330
1F
100
AcDbEntity
  8
0
  6
Continuous
 62
     7
370
    15
100
AcDbSpline
210
0.0
220
0.0
230
1.0
 70
     8
 71
     3
 72
     8
 73
     4
 74
     0
 42
0.000000001
 43
0.00000001
 40
0.0
 40
0.0
 40
0.0
 40
0.0
 40
0.0011858378198547
 40
0.0011858378198547
 40
0.0011858378198547
 40
0.0011858378198547
 10
244.7123790522358
 20
40.27565027961477
 30
0.0
 10
244.8311183392419
 20
40.15289280909852
 30
0.0
 10
244.9494564285893
 20
40.03027618873117
 30
0.0
 10
245.0673510240128
 20
39.90781961051773
 30
0.0
  0
LWPOLYLINE
  5
1AA
330
1F
100
AcDbEntity
  8
0
  6
Continuous
 62
     7
370
    15
100
AcDbPolyline
 90
       27
 70
   128
 43
0.0
 10
244.7123790522
 20
40.2756502796
 10
245.0393016117
 20
41.5460311526
 10
245.4476514699
 20
42.8258618797
 10
245.9342389562
 20
44.105145547
 10
246.4952632763
 20
45.3738895137
 10
247.126342201
 20
46.6221834661
 10
247.8225462958
 20
47.8402768277
 10
248.5784374255
 20
49.0186549228
 10
249.3881112324
 20
50.1481132964
 10
250.2452432556
 20
51.2198296113
 10
251.1431383324
 20
52.2254325607
 10
252.0747828948
 20
53.1570672574
 10
253.0328997535
 20
54.0074565891
 10
254.0100049408
 20
54.7699580611
 10
254.9984661691
 20
55.4386156812
 10
255.990562447
 20
56.0082064834
 10
256.9785443896
 20
56.4742813243
 10
257.9546947494
 20
56.8331996367
 10
258.9113886969
 20
57.0821578656
 10
259.841153379
 20
57.2192113682
 10
260.7367262903
 20
57.2432896027
 10
261.5911120017
 20
57.1542044911
 10
262.3976368022
 20
56.952651888
 10
263.1500008281
 20
56.6402061456
 10
263.8423272723
 20
56.2193078154
 10
264.4692082886
 20
55.6932445859
 10
264.5484569891
 20
55.6144779607
  0
LINE
  5
1AB
330
1F
100
AcDbEntity
  8
0
  6
Continuous
 62
     7
370
    15
100
AcDbLine
 10
243.3687783728
 20
41.0512944418
 30
0.0
 11
244.7123790522
 21
40.2756502796
 31
0.0
  0
ARC
  5
1AC
330
1F
100
AcDbEntity
  8
0
  6
Continuous
 62
     7
370
    15
100
AcDbCircle
 10
259.2369459295
 20
52.2879089777
 30
0.0
 40
5.733597152670592
100
AcDbArc
 50
60.5369106287
 51
88.8650591316
  0
LINE
  5
1AD
330
1F
100
AcDbEntity
  8
0
  6
Continuous
 62
     7
370
    15
100
AcDbLine
 10
247.4257649817
 20
39.7278623211
 30
0.0
 11
246.7834191079
 21
40.098680701
 31
0.0
  0
SPLINE
  5
1AE
330
1F
100
AcDbEntity
  8
0
  6
Continuous
 62
     7
370
    15
100
AcDbSpline
210
0.0
220
0.0
230
1.0
 70
     8
 71
     3
 72
    12
 73
     8
 74
     0
 42
0.000000001
 43
0.00000001
 40
0.0
 40
0.0
 40
0.0
 40
0.0
 40
0.2500000000000015
 40
0.2500000000000015
 40
0.500000000000003
 40
0.500000000000003
 40
1.0
 40
1.0
 40
1.0
 40
1.0
 10
246.7834191078612
 20
40.0986807009871
 30
0.0
 10
246.7457798297425
 20
40.12040939373679
 30
0.0
 10
246.6993596117818
 20
40.13780766473961
 30
0.0
 10
246.5992916829031
 20
40.16006414721525
 30
0.0
 10
246.5455060440258
 20
40.16512466927937
 30
0.0
 10
246.3855871162767
 20
40.1620728073006
 30
0.0
 10
246.2806766133501
 20
40.13501688129173
 30
0.0
 10
246.2053817211583
 20
40.09155006524662
 30
0.0
  0
LWPOLYLINE
  5
1AF
330
1F
100
AcDbEntity
  8
0
  6
Continuous
 62
     7
370
    15
100
AcDbPolyline
 90
       21
 70
   128
 43
0.0
 10
246.2053817212
 20
40.0915500652
 10
246.5117384553
 20
41.2944255814
 10
246.8982219514
 20
42.5068243733
 10
247.3615803233
 20
43.7185452729
 10
247.8979148565
 20
44.9193928163
 10
248.5027128128
 20
46.0992630284
 10
249.1708853999
 20
47.2482284379
 10
249.8968105892
 20
48.3566216079
 10
250.6743804197
 20
49.4151164776
 10
251.4970523903
 20
50.4148068324
 10
252.3579045089
 20
51.3472812411
 10
253.2496935343
 20
52.20469383
 10
254.1649159211
 20
52.979830298
 10
255.0958709544
 20
53.6661686186
 10
256.0347255446
 20
54.257933916
 10
256.9735801349
 20
54.7501470554
 10
257.9045351682
 20
55.1386665373
 10
258.8197575549
 20
55.4202233446
 10
259.7115465803
 20
55.592448448
 10
260.572398699
 20
55.6538927393
 10
261.2826220897
 20
55.6176947823
  0
SPLINE
  5
1B0
330
1F
100
AcDbEntity
  8
0
  6
Continuous
 62
     7
370
    15
100
AcDbSpline
210
0.0
220
0.0
230
1.0
 70
     8
 71
     3
 72
    10
 73
     6
 74
     0
 42
0.000000001
 43
0.00000001
 40
0.0
 40
0.0
 40
0.0
 40
0.0
 40
0.5
 40
0.5
 40
1.0
 40
1.0
 40
1.0
 40
1.0
 10
243.2670034076047
 20
41.08177207248079
 30
0.0
 10
243.2743670418724
 20
41.08580832013651
 30
0.0
 10
243.2862309776803
 20
41.08602973788719
 30
0.0
 10
243.3203439925554
 20
41.07638907805423
 30
0.0
 10
243.3424923914852
 20
41.06646901581598
 30
0.0
 10
243.368778372781
 20
41.05129444181382
 30
0.0
  0
LINE
  5
1B1
330
1F
100
AcDbEntity
  8
0
  6
Continuous
 62
     7
370
    15
100
AcDbLine
 10
269.6400943647
 20
29.539148113
 30
0.0
 11
268.2712083931
 21
29.6615471466
 31
0.0
  0
SPLINE
  5
1B2
330
1F
100
AcDbEntity
  8
0
  6
Continuous
 62
     7
370
    15
100
AcDbSpline
210
0.0
220
0.0
230
1.0
 70
     8
 71
     3
 72
    16
 73
    12
 74
     0
 42
0.000000001
 43
0.00000001
 40
0.0
 40
0.0
 40
0.0
 40
0.0
 40
0.2499999999999941
 40
0.2499999999999941
 40
0.4999999999999882
 40
0.4999999999999882
 40
0.6249999999999876
 40
0.6249999999999876
 40
0.749999999999987
 40
0.749999999999987
 40
1.0
 40
1.0
 40
1.0
 40
1.0
 10
269.5407963726913
 20
29.29045921590821
 30
0.0
 10
269.5663538580538
 20
29.28817399159086
 30
0.0
 10
269.5913533952397
 20
29.28852857352151
 30
0.0
 10
269.6387518138175
 20
29.29898288620631
 30
0.0
 10
269.6610038288965
 20
29.30875674094712
 30
0.0
 10
269.6846032727446
 20
29.33906913623487
 30
0.0
 10
269.6906759243972
 20
29.35207455087011
 30
0.0
 10
269.695842774588
 20
29.38446184358962
 30
0.0
 10
269.6946884861416
 20
29.40367167933794
 30
0.0
 10
269.6814688905034
 20
29.46308160967545
 30
0.0
 10
269.6617587051924
 20
29.5027446517045
 30
0.0
 10
269.6400943646681
 20
29.539148112974
 30
0.0
  0
SPLINE
  5
1B3
330
1F
100
AcDbEntity
  8
0
  6
Continuous
 62
     7
370
    15
100
AcDbSpline
210
0.0
220
0.0
230
1.0
 70
     8
 71
     3
 72
     8
 73
     4
 74
     0
 42
0.000000001
 43
0.00000001
 40
0.0
 40
0.0
 40
0.0
 40
0.0
 40
1.0
 40
1.0
 40
1.0
 40
1.0
 10
269.5746480220221
 20
29.59674671035899
 30
0.0
 10
269.6146823217312
 20
29.57363540107499
 30
0.0
 10
269.6342457624223
 20
29.55382011670381
 30
0.0
 10
269.6400943646677
 20
29.53914811297523
 30
0.0
  0
SPLINE
  5
1B4
330
1F
100
AcDbEntity
  8
0
  6
Continuous
 62
     7
370
    15
100
AcDbSpline
210
0.0
220
0.0
230
1.0
 70
     8
 71
     3
 72
    14
 73
    10
 74
     0
 42
0.000000001
 43
0.00000001
 40
0.0
 40
0.0
 40
0.0
 40
0.0
 40
0.25
 40
0.25
 40
0.5
 40
0.5
 40
0.75
 40
0.75
 40
1.0
 40
1.0
 40
1.0
 40
1.0
 10
251.6011660265893
 20
37.63183802171303
 30
0.0
 10
251.6011660265893
 20
37.33342089487198
 30
0.0
 10
251.6176584886506
 20
37.02615845652421
 30
0.0
 10
251.649053777338
 20
36.41248614026229
 30
0.0
 10
251.6635028039691
 20
36.10631964640461
 30
0.0
 10
251.6636142372841
 20
35.50942562830528
 30
0.0
 10
251.6491943512376
 20
35.21869749109383
 30
0.0
 10
251.617717612329
 20
34.63970369493582
 30
0.0
 10
251.6011660265893
 20
34.35068059117874
 30
0.0
 10
251.6011660265893
 20
34.05201423816149
 30
0.0
  0
SPLINE
  5
1B5
330
1F
100
AcDbEntity
  8
0
  6
Continuous
 62
     7
370
    15
100
AcDbSpline
210
0.0
220
0.0
230
1.0
 70
     8
 71
     3
 72
     8
 73
     4
 74
     0
 42
0.000000001
 43
0.00000001
 40
0.0
 40
0.0
 40
0.0
 40
0.0
 40
1.0
 40
1.0
 40
1.0
 40
1.0
 10
275.0994967477475
 20
32.78617399085171
 30
0.0
 10
275.1395310474573
 20
32.76306268156728
 30
0.0
 10
275.1940279921081
 20
32.76341407977189
 30
0.0
 10
275.2461824394543
 20
32.77547387141782
 30
0.0
  0
SPLINE
  5
1B6
330
1F
100
AcDbEntity
  8
0
  6
Continuous
 62
     7
370
    15
100
AcDbSpline
210
0.0
220
0.0
230
1.0
 70
     8
 71
     3
 72
    16
 73
    12
 74
     0
 42
0.000000001
 43
0.00000001
 40
0.0
 40
0.0
 40
0.0
 40
0.0
 40
0.2500000000000001
 40
0.2500000000000001
 40
0.3750000000000012
 40
0.3750000000000012
 40
0.5000000000000023
 40
0.5000000000000023
 40
0.7500000000000012
 40
0.7500000000000012
 40
1.0
 40
1.0
 40
1.0
 40
1.0
 10
275.2461824394576
 20
32.77547387141637
 30
0.0
 10
275.2622505060885
 20
32.7361906548366
 30
0.0
 10
275.2845060732806
 20
32.69729981884171
 30
0.0
 10
275.335022485797
 20
32.6597568279093
 30
0.0
 10
275.3546356952044
 20
32.6513744417279
 30
0.0
 10
275.3959621931792
 20
32.64571448506555
 30
0.0
 10
275.4169560631833
 20
32.64831497268866
 30
0.0
 10
275.476032578175
 20
32.66572991211702
 30
0.0
 10
275.5111939943495
 20
32.68909598200616
 30
0.0
 10
275.5740848116359
 20
32.74198793409792
 30
0.0
 10
275.6025408034687
 20
32.77264063151863
 30
0.0
 10
275.6283231439117
 20
32.804713617922
 30
0.0
  0
LINE
  5
1B7
330
1F
100
AcDbEntity
  8
0
  6
Continuous
 62
     7
370
    15
100
AcDbLine
 10
248.9632703203
 20
37.6587532735
 30
0.0
 11
247.2376907061
 21
38.654909181
 31
0.0
  0
SPLINE
  5
1B8
330
1F
100
AcDbEntity
  8
0
  6
Continuous
 62
     7
370
    15
100
AcDbSpline
210
0.0
220
0.0
230
1.0
 70
     8
 71
     3
 72
     8
 73
     4
 74
     0
 42
0.000000001
 43
0.00000001
 40
0.0
 40
0.0
 40
0.0
 40
0.0
 40
0.0011858378198547
 40
0.0011858378198547
 40
0.0011858378198547
 40
0.0011858378198547
 10
247.2376907060645
 20
38.65490918101767
 30
0.0
 10
247.2260516228857
 20
38.71602575767086
 30
0.0
 10
247.2150845888789
 20
38.77665838715642
 30
0.0
 10
247.2047348655177
 20
38.83684389446218
 30
0.0
  0
SPLINE
  5
1B9
330
1F
100
AcDbEntity
  8
0
  6
Continuous
 62
     7
370
    15
100
AcDbSpline
210
0.0
220
0.0
230
1.0
 70
     8
 71
     3
 72
    22
 73
    18
 74
     0
 42
0.000000001
 43
0.00000001
 40
0.0
 40
0.0
 40
0.0
 40
0.0
 40
0.125
 40
0.125
 40
0.25
 40
0.25
 40
0.375
 40
0.375
 40
0.5
 40
0.5
 40
0.625
 40
0.625
 40
0.75
 40
0.75
 40
0.875
 40
0.875
 40
1.0
 40
1.0
 40
1.0
 40
1.0
 10
276.6150684110634
 20
34.47835500634161
 30
0.0
 10
276.6824977689916
 20
34.56223648656535
 30
0.0
 10
276.7434305232164
 20
34.6514291553375
 30
0.0
 10
276.8512277927818
 20
34.84095538347635
 30
0.0
 10
276.8978358225144
 20
34.94090367720874
 30
0.0
 10
276.9717087267575
 20
35.14040855810293
 30
0.0
 10
276.9998934394629
 20
35.24278094569455
 30
0.0
 10
277.0360157900352
 20
35.43932953066828
 30
0.0
 10
277.0444657792526
 20
35.5351703196732
 30
0.0
 10
277.042193270618
 20
35.71532195029704
 30
0.0
 10
277.0317401180625
 20
35.79768630718099
 30
0.0
 10
276.9927855332364
 20
35.94669958571213
 30
0.0
 10
276.9644473732429
 20
36.01164896234825
 30
0.0
 10
276.8917701977554
 20
36.11873901936798
 30
0.0
 10
276.8465585948132
 20
36.16166028293483
 30
0.0
 10
276.7424859474017
 20
36.2218819797349
 30
0.0
 10
276.6825048269072
 20
36.24018789291129
 30
0.0
 10
276.6150684069293
 20
36.24621772452782
 30
0.0
  0
LINE
  5
1BA
330
1F
100
AcDbEntity
  8
0
  6
Continuous
 62
     7
370
    15
100
AcDbLine
 10
276.6150684069
 20
36.2462177245
 30
0.0
 11
275.2461824394
 21
36.3686167558
 31
0.0
  0
SPLINE
  5
1BB
330
1F
100
AcDbEntity
  8
0
  6
Continuous
 62
     7
370
    15
100
AcDbSpline
210
0.0
220
0.0
230
1.0
 70
     8
 71
     3
 72
    12
 73
     8
 74
     0
 42
0.000000001
 43
0.00000001
 40
0.0
 40
0.0
 40
0.0
 40
0.0
 40
0.1628503295329019
 40
0.3259029173237739
 40
0.6517341605780991
 40
0.8300242165124612
 40
0.9999999999999999
 40
0.9999999999999999
 40
0.9999999999999999
 40
0.9999999999999999
 10
245.9885059509211
 20
37.29213393195786
 30
0.0
 10
245.986064614505
 20
37.44275533980527
 30
0.0
 10
245.9811789095608
 20
37.74418522557633
 30
0.0
 10
245.9473306039036
 20
38.35961166826515
 30
0.0
 10
245.9185358021518
 20
38.98719657138416
 30
0.0
 10
245.9340795610372
 20
39.59594733992182
 30
0.0
 10
245.9513914319209
 20
39.90442187966643
 30
0.0
 10
245.9598407211821
 20
40.05497698913707
 30
0.0
  0
LINE
  5
1BC
330
1F
100
AcDbEntity
  8
0
  6
Continuous
 62
     7
370
    15
100
AcDbLine
 10
245.9885059509
 20
35.7960287333
 30
0.0
 11
245.9885059509
 21
37.292133932
 31
0.0
  0
LINE
  5
1BD
330
1F
100
AcDbEntity
  8
0
  6
Continuous
 62
     7
370
    15
100
AcDbLine
 10
243.7041636352
 20
40.6947709394
 30
0.0
 11
243.2670034076
 21
41.0817720725
 31
0.0
  0
LINE
  5
1BE
330
1F
100
AcDbEntity
  8
0
  6
Continuous
 62
     7
370
    15
100
AcDbLine
 10
245.067351024
 20
39.9078196105
 30
0.0
 11
243.7041636352
 21
40.6947709394
 31
0.0
  0
LINE
  5
1BF
330
1F
100
AcDbEntity
  8
0
  6
Continuous
 62
     7
370
    15
100
AcDbLine
 10
244.9278457791
 20
39.7657876174
 30
0.0
 11
244.930153641
 21
39.9870219739
 31
0.0
  0
ARC
  5
1C0
330
1F
100
AcDbEntity
  8
0
  6
Continuous
 62
     7
370
    15
100
AcDbCircle
 10
251.5790635409
 20
39.4431708475
 30
0.0
 40
6.659037414975672
100
AcDbArc
 50
177.2230493701
 51
212.9079590882
  0
ARC
  5
1C1
330
1F
100
AcDbEntity
  8
0
  6
Continuous
 62
     7
370
    15
100
AcDbCircle
 10
271.9979650709
 20
37.5154477733
 30
0.0
 40
2.072199650650814
100
AcDbArc
 50
321.0658596266
 51
347.226892773
  0
LINE
  5
1C2
330
1F
100
AcDbEntity
  8
0
  6
Continuous
 62
     7
370
    15
100
AcDbLine
 10
275.2461824395
 20
32.7754738714
 30
0.0
 11
276.6150684111
 21
34.4783550063
 31
0.0
  0
LINE
  5
1C3
330
1F
100
AcDbEntity
  8
0
  6
Continuous
 62
     7
370
    15
100
AcDbLine
 10
272.2003589449
 20
34.4598106201
 30
0.0
 11
273.609864591
 21
36.213222244
 31
0.0
  0
LWPOLYLINE
  5
1C4
330
1F
100
AcDbEntity
  8
0
  6
Continuous
 62
     7
370
    15
100
AcDbPolyline
 90
        3
 70
   128
 43
0.0
 10
231.6462069386
 20
63.6065814978
 10
231.6564560456
 20
63.6032796537
 10
231.7208379314
 20
63.5812286222
  0
LINE
  5
1C5
330
1F
100
AcDbEntity
  8
0
  6
Continuous
 62
     7
370
    15
100
AcDbLine
 10
225.5560561823
 20
52.9023563371
 30
0.0
 11
225.516680043
 21
52.936434894
 31
0.0
  0
LINE
  5
1C6
330
1F
100
AcDbEntity
  8
0
  6
Continuous
 62
     7
370
    15
100
AcDbLine
 10
247.2376907061
 20
31.9756053398
 30
0.0
 11
248.9632703203
 21
30.9794494323
 31
0.0
  0
SPLINE
  5
1C7
330
1F
100
AcDbEntity
  8
0
  6
Continuous
 62
     7
370
    15
100
AcDbSpline
210
0.0
220
0.0
230
1.0
 70
     8
 71
     3
 72
    14
 73
    10
 74
     0
 42
0.000000001
 43
0.00000001
 40
0.0
 40
0.0
 40
0.0
 40
0.0
 40
0.25
 40
0.25
 40
0.5
 40
0.5
 40
0.75
 40
0.75
 40
1.0
 40
1.0
 40
1.0
 40
1.0
 10
248.9164326223237
 20
30.85899410576458
 30
0.0
 10
248.8996470577072
 20
30.81582565906113
 30
0.0
 10
248.8792440572143
 20
30.77579832040339
 30
0.0
 10
248.8306957747525
 20
30.70246645545204
 30
0.0
 10
248.8023540072299
 20
30.66916840158207
 30
0.0
 10
248.7391987973251
 20
30.61622594064958
 30
0.0
 10
248.7039734832205
 20
30.59615340878922
 30
0.0
 10
248.6292943370863
 20
30.57938127988348
 30
0.0
 10
248.5909664685243
 20
30.58357424094408
 30
0.0
 10
248.5571743797373
 20
30.60308199856652
 30
0.0
  0
LINE
  5
1C8
330
1F
100
AcDbEntity
  8
0
  6
Continuous
 62
     7
370
    15
100
AcDbLine
 10
248.5571743797
 20
30.6030819986
 30
0.0
 11
247.2047348655
 21
31.3838287115
 31
0.0
  0
SPLINE
  5
1C9
330
1F
100
AcDbEntity
  8
0
  6
Continuous
 62
     7
370
    15
100
AcDbSpline
210
0.0
220
0.0
230
1.0
 70
     8
 71
     3
 72
     8
 73
     4
 74
     0
 42
0.000000001
 43
0.00000001
 40
0.0
 40
0.0
 40
0.0
 40
0.0
 40
0.0011858378198546
 40
0.0011858378198546
 40
0.0011858378198546
 40
0.0011858378198546
 10
247.2047348655177
 20
31.38382871146445
 30
0.0
 10
247.2150845888789
 20
31.58110768143103
 30
0.0
 10
247.2260516228857
 20
31.77837056062045
 30
0.0
 10
247.2376907060645
 20
31.97560533979223
 30
0.0
  0
ARC
  5
1CA
330
1F
100
AcDbEntity
  8
0
  6
Continuous
 62
     7
370
    15
100
AcDbCircle
 10
254.1666341102
 20
31.6305416453
 30
0.0
 40
5.583455370749272
100
AcDbArc
 50
210.7375473081
 51
268.7956582687
  0
SPLINE
  5
1CB
330
1F
100
AcDbEntity
  8
0
  6
Continuous
 62
     7
370
    15
100
AcDbSpline
210
0.0
220
0.0
230
1.0
 70
     8
 71
     3
 72
     8
 73
     4
 74
     0
 42
0.000000001
 43
0.00000001
 40
0.0
 40
0.0
 40
0.0
 40
0.0
 40
1.0
 40
1.0
 40
1.0
 40
1.0
 10
247.5658266422876
 20
32.6382748663769
 30
0.0
 10
247.4559944047779
 20
32.41746215918291
 30
0.0
 10
247.3466444317914
 20
32.19656463046237
 30
0.0
 10
247.2376907060645
 20
31.97560533979223
 30
0.0
  0
LINE
  5
1CC
330
1F
100
AcDbEntity
  8
0
  6
Continuous
 62
     7
370
    15
100
AcDbLine
 10
247.5559556732
 20
32.6325764772
 30
0.0
 11
247.5658266423
 21
32.6382748664
 31
0.0
  0
SPLINE
  5
1CD
330
1F
100
AcDbEntity
  8
0
  6
Continuous
 62
     7
370
    15
100
AcDbSpline
210
0.0
220
0.0
230
1.0
 70
     8
 71
     3
 72
    12
 73
     8
 74
     0
 42
0.000000001
 43
0.00000001
 40
0.0
 40
0.0
 40
0.0
 40
0.0
 40
0.2500000000000022
 40
0.2500000000000022
 40
0.5000000000000043
 40
0.5000000000000043
 40
1.0
 40
1.0
 40
1.0
 40
1.0
 10
247.5683076349782
 20
32.96627035770007
 30
0.0
 10
247.6059469130969
 20
32.94454166495039
 30
0.0
 10
247.6360848679478
 20
32.91774384352934
 30
0.0
 10
247.6746384037493
 20
32.85997585781382
 30
0.0
 10
247.6834044348949
 20
32.82892606940328
 30
0.0
 10
247.678117882081
 20
32.73660683748382
 30
0.0
 10
247.6312505654164
 20
32.67604329327558
 30
0.0
 10
247.5559556732247
 20
32.63257647723049
 30
0.0
  0
LINE
  5
1CE
330
1F
100
AcDbEntity
  8
0
  6
Continuous
 62
     7
370
    15
100
AcDbLine
 10
246.7834191079
 20
33.4193768598
 30
0.0
 11
247.568307635
 21
32.9662703577
 31
0.0
  0
SPLINE
  5
1CF
330
1F
100
AcDbEntity
  8
0
  6
Continuous
 62
     7
370
    15
100
AcDbSpline
210
0.0
220
0.0
230
1.0
 70
     8
 71
     3
 72
    14
 73
    10
 74
     0
 42
0.000000001
 43
0.00000001
 40
0.0
 40
0.0
 40
0.0
 40
0.0
 40
0.25
 40
0.25
 40
0.5
 40
0.5
 40
0.75
 40
0.75
 40
1.0
 40
1.0
 40
1.0
 40
1.0
 10
246.2053817211583
 20
33.41224622402118
 30
0.0
 10
246.2432223134194
 20
33.43409113295153
 30
0.0
 10
246.2881313787923
 20
33.45185752891136
 30
0.0
 10
246.3857437466606
 20
33.47666810857479
 30
0.0
 10
246.4390419263657
 20
33.48379087894458
 30
0.0
 10
246.5454053614835
 20
33.48581711426029
 30
0.0
 10
246.5994347049726
 20
33.480754636123
 30
0.0
 10
246.6997914314
 20
33.45838149055447
 30
0.0
 10
246.745420739479
 20
33.44131285090801
 30
0.0
 10
246.7834191078612
 20
33.41937685976166
 30
0.0
  0
LINE
  5
1D0
330
1F
100
AcDbEntity
  8
0
  6
Continuous
 62
     7
370
    15
100
AcDbLine
 10
246.2152526902
 20
33.4179446132
 30
0.0
 11
246.2053817212
 21
33.412246224
 31
0.0
  0
SPLINE
  5
1D1
330
1F
100
AcDbEntity
  8
0
  6
Continuous
 62
     7
370
    15
100
AcDbSpline
210
0.0
220
0.0
230
1.0
 70
     8
 71
     3
 72
     8
 73
     4
 74
     0
 42
0.000000001
 43
0.00000001
 40
0.0
 40
0.0
 40
0.0
 40
0.0
 40
1.0
 40
1.0
 40
1.0
 40
1.0
 10
245.0673510240128
 20
33.22851576929229
 30
0.0
 10
245.4501052140715
 20
33.29141341634038
 30
0.0
 10
245.8327524177033
 20
33.35453981206239
 30
0.0
 10
246.2152526902213
 20
33.41794461316758
 30
0.0
  0
LINE
  5
1D2
330
1F
100
AcDbEntity
  8
0
  6
Continuous
 62
     7
370
    15
100
AcDbLine
 10
243.7041636352
 20
34.0154670981
 30
0.0
 11
245.067351024
 21
33.2285157693
 31
0.0
  0
LINE
  5
1D3
330
1F
100
AcDbEntity
  8
0
  6
Continuous
 62
     7
370
    15
100
AcDbLine
 10
243.7041636352
 20
34.0154670981
 30
0.0
 11
246.059216629
 21
35.3750102528
 31
0.0
  0
ARC
  5
1D4
330
1F
100
AcDbEntity
  8
0
  6
Continuous
 62
     7
370
    15
100
AcDbCircle
 10
253.3863395378
 20
32.9982006862
 30
0.0
 40
6.388930520589901
100
AcDbArc
 50
194.6363153028
 51
238.196622426
  0
ELLIPSE
  5
1D5
330
1F
100
AcDbEntity
  8
0
  6
Continuous
 62
     7
370
    15
100
AcDbEllipse
 10
245.9420593415
 20
35.76926004
 30
0.0
 11
-3.002985189937135E-5
 21
0.4267244807413632
 31
0.0
210
0.0
220
0.0
230
1.0
 40
0.7174342186
 41
3.534193645557632
 42
5.104989972352342
  0
ARC
  5
1D6
330
1F
100
AcDbEntity
  8
0
  6
Continuous
 62
     7
370
    15
100
AcDbCircle
 10
250.5394643423
 20
34.2118959318
 30
0.0
 40
5.990406384032594
100
AcDbArc
 50
193.4098001616
 51
253.8336005401
  0
SPLINE
  5
1D7
330
1F
100
AcDbEntity
  8
0
  6
Continuous
 62
     7
370
    15
100
AcDbSpline
210
0.0
220
0.0
230
1.0
 70
     8
 71
     3
 72
     8
 73
     4
 74
     0
 42
0.000000001
 43
0.00000001
 40
0.0
 40
0.0
 40
0.0
 40
0.0
 40
0.0011858378198546
 40
0.0011858378198546
 40
0.0011858378198546
 40
0.0011858378198546
 10
245.0673510240128
 20
33.22851576929229
 30
0.0
 10
244.9494564285893
 20
33.09262099168077
 30
0.0
 10
244.8311183392419
 20
32.95734210337313
 30
0.0
 10
244.7123790522358
 20
32.82263509661705
 30
0.0
  0
LINE
  5
1D8
330
1F
100
AcDbEntity
  8
0
  6
Continuous
 62
     7
370
    15
100
AcDbLine
 10
243.2670034076
 20
33.7630479129
 30
0.0
 11
243.7041636352
 21
34.0154670981
 31
0.0
  0
LINE
  5
1D9
330
1F
100
AcDbEntity
  8
0
  6
Continuous
 62
     7
370
    15
100
AcDbLine
 10
244.7123790522
 20
32.8226350966
 30
0.0
 11
243.3687783728
 21
33.5982792588
 31
0.0
  0
SPLINE
  5
1DA
330
1F
100
AcDbEntity
  8
0
  6
Continuous
 62
     7
370
    15
100
AcDbSpline
210
0.0
220
0.0
230
1.0
 70
     8
 71
     3
 72
    10
 73
     6
 74
     0
 42
0.000000001
 43
0.00000001
 40
0.0
 40
0.0
 40
0.0
 40
0.0
 40
0.5
 40
0.5
 40
1.0
 40
1.0
 40
1.0
 40
1.0
 10
243.368778372781
 20
33.59827925881608
 30
0.0
 10
243.3425439823071
 20
33.61342405007071
 30
0.0
 10
243.3203693615528
 20
33.63696857290218
 30
0.0
 10
243.2863049401768
 20
33.69421735308146
 30
0.0
 10
243.2743633071265
 20
33.72774354012211
 30
0.0
 10
243.2670034076047
 20
33.76304791287313
 30
0.0
  0
ARC
  5
1DB
330
1F
100
AcDbEntity
  8
0
  6
Continuous
 62
     7
370
    15
100
AcDbCircle
 10
252.8021808717
 20
35.2937784111
 30
0.0
 40
6.859877725093316
100
AcDbArc
 50
195.9191542404
 51
215.7602476364
  0
ARC
  5
1DC
330
1F
100
AcDbEntity
  8
0
  6
Continuous
 62
     7
370
    15
100
AcDbCircle
 10
249.0756375291
 20
34.7013810271
 30
0.0
 40
5.705802209071818
100
AcDbArc
 50
210.9313346779
 51
239.5425868227
  0
ELLIPSE
  5
1DD
330
1F
100
AcDbEntity
  8
0
  6
Continuous
 62
     7
370
    15
100
AcDbEllipse
 10
245.7056632384
 20
35.632747111
 30
0.0
 11
0.1300037894604884
 21
0.485271810495469
 31
0.0
210
0.0
220
0.0
230
1.0
 40
0.5176380889
 41
3.619174351347832
 42
5.189970678142604
  0
LWPOLYLINE
  5
1DE
330
1F
100
AcDbEntity
  8
0
  6
Continuous
 62
     7
370
     0
100
AcDbPolyline
 90
        8
 70
   128
 43
0.0
 10
260.9172978687
 20
33.0763436511
 10
260.9585427053
 20
32.3127688384
 10
261.0816757723
 20
31.6079489405
 10
261.2849015124
 20
30.9721618187
 10
261.5652564368
 20
30.4146786808
 10
261.9186523392
 20
29.9436288864
 10
262.3399359116
 20
29.5658814021
 10
262.5744771877
 20
29.4135851994
  0
LWPOLYLINE
  5
1DF
330
1F
100
AcDbEntity
  8
0
  6
Continuous
 62
     7
370
     0
100
AcDbPolyline
 90
       21
 70
   128
 43
0.0
 10
270.5738270488
 20
43.2703669975
 10
270.3253403454
 20
43.3970075598
 10
269.7876115947
 20
43.5730660797
 10
269.2030233688
 20
43.6436790247
 10
268.5801002804
 20
43.607816699
 10
267.9279259507
 20
43.466002056
 10
267.2560105501
 20
43.2203030727
 10
266.5741521182
 20
42.8743025935
 10
265.8922936863
 20
42.4330460845
 10
265.2203782857
 20
41.9029680591
 10
264.5682039561
 20
41.2917982488
 10
263.9452808676
 20
40.6084488854
 10
263.3606926417
 20
39.8628847415
 10
262.822963891
 20
39.0659778213
 10
262.3399359116
 20
38.229348822
 10
261.9186523392
 20
37.3651976784
 10
261.5652564368
 20
36.48612566
 10
261.2849015124
 20
35.6049516165
 10
261.0816757723
 20
34.7345250495
 10
260.9585427053
 20
33.8875387385
 10
260.9172978687
 20
33.0763436511
  0
LWPOLYLINE
  5
1E0
330
1F
100
AcDbEntity
  8
0
  6
Continuous
 62
     7
370
     0
100
AcDbPolyline
 90
       15
 70
   128
 43
0.0
 10
269.5407963727
 20
29.2904592159
 10
269.8232454986
 20
28.9295971463
 10
270.1727530492
 20
28.6644820664
 10
270.5808312454
 20
28.501552287
 10
271.0375699218
 20
28.4447645526
 10
271.5318771948
 20
28.4954979512
 10
272.0517488287
 20
28.652520424
 10
272.5845597583
 20
28.9120186855
 10
273.1173706879
 20
29.2676908291
 10
273.6372423218
 20
29.7108993685
 10
274.1315495948
 20
30.2308809993
 10
274.5882882712
 20
30.8150079847
 10
274.9963664674
 20
31.4490948205
 10
275.345874018
 20
32.117742729
 10
275.6283231439
 20
32.8047136179
  0
LWPOLYLINE
  5
1E1
330
1F
100
AcDbEntity
  8
0
  6
Continuous
 62
     7
370
     0
100
AcDbPolyline
 90
       15
 70
   128
 43
0.0
 10
275.6282171966
 20
36.4541985199
 10
275.3457572979
 20
36.8150017048
 10
274.9962500956
 20
37.0800669251
 10
274.5881823115
 20
37.2429578762
 10
274.1314626335
 20
37.2997192456
 10
273.6371811131
 20
37.2489727557
 10
273.1173398772
 20
37.0919506311
 10
272.5845616928
 20
36.8324656776
 10
272.0517834615
 20
36.4768186999
 10
271.5319420858
 20
36.0336455056
 10
271.0376603362
 20
35.513707211
 10
270.5809403452
 20
34.92962894
 10
270.1728721718
 20
34.2955932609
 10
269.8233645134
 20
33.6269958063
 10
269.5409041029
 20
32.9400714366
  0
LWPOLYLINE
  5
1E2
330
1F
100
AcDbEntity
  8
0
  6
Continuous
 62
     7
370
     0
100
AcDbPolyline
 90
       31
 70
   128
 43
0.0
 10
248.9164326223
 20
37.7251309451
 10
249.2126190775
 20
38.9402683695
 10
249.5857470381
 20
40.1664045386
 10
250.0330314217
 20
41.3943873902
 10
250.5511336315
 20
42.6150510786
 10
251.1361864758
 20
43.8192843892
 10
251.7838230336
 20
44.9980987461
 10
252.4892092496
 20
46.1426953045
 10
253.2470800167
 20
47.2445306259
 10
254.0517784751
 20
48.2953804485
 10
254.8972982365
 20
49.2874010735
 10
255.777328216
 20
50.2131879119
 10
256.6852997396
 20
51.0658307538
 10
257.6144355733
 20
51.8389653467
 10
258.5578005096
 20
52.5268208993
 10
259.5083531329
 20
53.1242631561
 10
260.4589983777
 20
53.6268327195
 10
261.402640487
 20
54.0307783359
 10
262.3322359764
 20
54.3330848952
 10
263.2408462074
 20
54.5314959367
 10
264.1216891786
 20
54.6245304909
 10
264.9681901478
 20
54.6114941341
 10
265.7740307062
 20
54.4924841716
 10
266.5331959406
 20
54.2683889114
 10
267.2400193292
 20
53.9408810336
 10
267.8892250376
 20
53.5124051058
 10
268.4759672981
 20
52.9861593355
 10
268.9958665797
 20
52.3660716992
 10
269.4450422771
 20
51.6567706228
 10
269.8201416764
 20
50.8635504347
 10
270.11836498
 20
49.9923318478
  0
LWPOLYLINE
  5
1E3
330
1F
100
AcDbEntity
  8
0
  6
Continuous
 62
     7
370
     0
100
AcDbPolyline
 90
       21
 70
   128
 43
0.0
 10
248.5571743797
 20
38.0560971816
 10
248.8840969392
 20
39.3264780546
 10
249.2924467974
 20
40.6063087817
 10
249.7790342837
 20
41.885592449
 10
250.3400586038
 20
43.1543364157
 10
250.9711375285
 20
44.402630368
 10
251.6673416233
 20
45.6207237296
 10
252.423232753
 20
46.7991018247
 10
253.2329065599
 20
47.9285601983
 10
254.0900385831
 20
49.0002765132
 10
254.9879336599
 20
50.0058794627
 10
255.9195782223
 20
50.9375141594
 10
256.877695081
 20
51.7879034911
 10
257.8548002683
 20
52.550404963
 10
258.8432614966
 20
53.2190625832
 10
259.8353577745
 20
53.7886533853
 10
260.8233397171
 20
54.2547282263
 10
261.7994900769
 20
54.6136465386
 10
262.7561840244
 20
54.8626047676
 10
263.6859487065
 20
54.9996582701
 10
264.5502052373
 20
55.0248266405
  0
LWPOLYLINE
  5
1E4
330
1F
100
AcDbEntity
  8
0
  6
Continuous
 62
     7
370
     0
100
AcDbPolyline
 90
       25
 70
   128
 43
0.0
 10
251.6011660266
 20
37.6318380217
 10
251.7993728285
 20
38.6651794613
 10
252.0773190897
 20
39.716579177
 10
252.4321344349
 20
40.7751792724
 10
252.8601546552
 20
41.8300474918
 10
253.3569595482
 20
42.8702901192
 10
253.9174185667
 20
43.8851644782
 10
254.5357438013
 20
44.8641898727
 10
255.2055497536
 20
45.7972558221
 10
255.9199192788
 20
46.6747264729
 10
256.6714750208
 20
47.4875401092
 10
257.4524555977
 20
48.2273027337
 10
258.2547957549
 20
48.8863747531
 10
259.0702096558
 20
49.4579498733
 10
259.8902764498
 20
49.9361253881
 10
260.7065272356
 20
50.3159631373
 10
261.5105325201
 20
50.5935405033
 10
262.2939892706
 20
50.7659909204
 10
263.048806661
 20
50.8315334781
 10
263.767189626
 20
50.7894913128
 10
264.4417193623
 20
50.6402985974
 10
265.0654299424
 20
50.3854960583
 10
265.6318802527
 20
50.0277150634
 10
266.1352205115
 20
49.5706504483
 10
266.3764256467
 20
49.2873833247
  0
ARC
  5
1E5
330
1F
100
AcDbEntity
  8
0
  6
Continuous
 62
     7
370
     0
100
AcDbCircle
 10
256.0684541589
 20
34.4520270677
 30
0.0
 40
4.48516148218769
100
AcDbArc
 50
185.1167699734
 51
259.6783343013
  0
LWPOLYLINE
  5
1E6
330
1F
100
AcDbEntity
  8
0
  6
Continuous
 62
     7
370
     0
100
AcDbPolyline
 90
       16
 70
   128
 43
0.0
 10
259.3921654434
 20
27.6228182211
 10
258.5578005096
 20
27.1889905695
 10
257.6144355733
 20
26.7876601507
 10
256.6852997396
 20
26.4880373443
 10
255.777328216
 20
26.2923585792
 10
254.8972982365
 20
26.2020844308
 10
254.0517784751
 20
26.2178887186
 10
253.2470800167
 20
26.3396534772
 10
252.4892092496
 20
26.5664698363
 10
251.7838230336
 20
26.8966448051
 10
251.1361864758
 20
27.3277139086
 10
250.5511336315
 20
27.8564595833
 10
250.0330314217
 20
28.4789351931
 10
249.5857470381
 20
29.1904944878
 10
249.2126190775
 20
29.9858262834
 10
248.9164326223
 20
30.8589941058
  0
LWPOLYLINE
  5
1E7
330
1F
100
AcDbEntity
  8
0
  6
Continuous
 62
     7
370
     0
100
AcDbPolyline
 90
       24
 70
   128
 43
0.0
 10
256.9486610593
 20
32.8263186669
 10
256.9903079745
 20
33.7833390879
 10
257.1148072522
 20
34.778299359
 10
257.3208391693
 20
35.8006526539
 10
257.6062197362
 20
36.8395617734
 10
257.9679238478
 20
37.8840140223
 10
258.4021173505
 20
38.9229379469
 10
258.9041976853
 20
39.9453206952
 10
259.4688426757
 20
40.9403247558
 10
260.0900669443
 20
41.897402838
 10
260.7612853593
 20
42.806409676
 10
261.4753828385
 20
43.6577095714
 10
262.2247897711
 20
44.4422785333
 10
263.0015622571
 20
45.1517999357
 10
263.7974663149
 20
45.7787526752
 10
264.6040651634
 20
46.3164908966
 10
265.4128086544
 20
46.7593144412
 10
266.2151239055
 20
47.1025292692
 10
267.0025061755
 20
47.3424972181
 10
267.7666090164
 20
47.4766745678
 10
268.4993327482
 20
47.5036390051
 10
269.1929103168
 20
47.4231047002
 10
269.8399896276
 20
47.2359253369
 10
270.3621836235
 20
46.9864542214
  0
LWPOLYLINE
  5
1E8
330
1F
100
AcDbEntity
  8
0
  6
Continuous
 62
     7
370
     0
100
AcDbPolyline
 90
        9
 70
   128
 43
0.0
 10
259.1962965589
 20
27.7704777791
 10
258.9041976853
 20
27.965131168
 10
258.4021173505
 20
28.4078243008
 10
257.9679238478
 20
28.9454390778
 10
257.6062197362
 20
29.5722766487
 10
257.3208391693
 20
30.2816923791
 10
257.1148072522
 20
31.066166286
 10
256.9903079745
 20
31.9173827507
 10
256.9486610593
 20
32.8263186669
  0
LWPOLYLINE
  5
1E9
330
1F
100
AcDbEntity
  8
0
  6
Continuous
 62
     7
370
     0
100
AcDbPolyline
 90
       16
 70
   128
 43
0.0
 10
257.6557678405
 20
32.8263186669
 10
257.6968764729
 20
31.9442546619
 10
257.8197519751
 20
31.1193177513
 10
258.0230480976
 20
30.3605461167
 10
258.3045374855
 20
29.6762530187
 10
258.661136082
 20
29.0739357158
 10
259.0889369184
 20
28.5601933224
 10
259.5832529192
 20
28.1406545076
 10
260.1386682549
 20
27.8199158265
 10
260.7490976787
 20
27.6014913593
 10
261.4078531982
 20
27.48777421
 10
262.10771735
 20
27.4800102876
 10
262.8410222761
 20
27.5782846552
 10
263.5997337342
 20
27.7815205983
 10
264.3755391229
 20
28.0874914214
 10
264.6471339701
 20
28.2170659075
  0
LWPOLYLINE
  5
1EA
330
1F
100
AcDbEntity
  8
0
  6
Continuous
 62
     7
370
     0
100
AcDbPolyline
 90
       31
 70
   128
 43
0.0
 10
272.6464838312
 20
42.0738477056
 10
272.6230006388
 20
42.3725137586
 10
272.5001251366
 20
43.1974506692
 10
272.2968290141
 20
43.9562223038
 10
272.0153396262
 20
44.6405154018
 10
271.6587410297
 20
45.2428327047
 10
271.2309401932
 20
45.7565750982
 10
270.7366241924
 20
46.1761139129
 10
270.1812088568
 20
46.496852594
 10
269.570779433
 20
46.7152770612
 10
268.9120239135
 20
46.8289942105
 10
268.2121597617
 20
46.8367581329
 10
267.4788548356
 20
46.7384837653
 10
266.7201433775
 20
46.5352478222
 10
265.9443379888
 20
46.2292769991
 10
265.1599385558
 20
45.8239235764
 10
264.3755391229
 20
45.323628691
 10
263.5997337342
 20
44.7338736784
 10
262.8410222761
 20
44.061120018
 10
262.10771735
 20
43.3127385395
 10
261.4078531982
 20
42.4969286671
 10
260.7490976787
 20
41.6226285845
 10
260.1386682549
 20
40.6994173064
 10
259.5832529192
 20
39.7374097286
 10
259.0889369184
 20
38.7471458075
 10
258.661136082
 20
37.7394750819
 10
258.3045374855
 20
36.7254378031
 10
258.0230480976
 20
35.7161439758
 10
257.8197519751
 20
34.7226516343
 10
257.6968764729
 20
33.7558456885
 10
257.6557678405
 20
32.8263186669
  0
LWPOLYLINE
  5
1EB
330
1F
100
AcDbEntity
  8
0
  6
Continuous
 62
     7
370
     0
100
AcDbPolyline
 90
       29
 70
   128
 43
0.0
 10
258.088870744
 20
33.0763436511
 10
258.1303216465
 20
33.9831086586
 10
258.25418838
 20
34.9271008688
 10
258.4590187203
 20
35.897252836
 10
258.742411219
 20
36.8821904156
 10
259.1010433581
 20
37.8703661149
 10
259.5307105037
 20
38.8501944773
 10
260.0263752013
 20
39.8101879111
 10
260.5822262357
 20
40.7390913712
 10
261.1917467615
 20
41.6260143136
 10
261.847790708
 20
42.4605583779
 10
262.5426665597
 20
43.2329392979
 10
263.2682275325
 20
43.9341016135
 10
264.0159670875
 20
44.5558248377
 10
264.777118662
 20
45.090819834
 10
265.5427584497
 20
45.5328142753
 10
266.3039100242
 20
45.876626181
 10
267.0516495792
 20
46.1182246707
 10
267.777210552
 20
46.254777223
 10
268.4720864037
 20
46.2846828842
 10
269.1281303502
 20
46.2075910377
 10
269.737650876
 20
46.024405515
 10
270.2935019103
 20
45.7372739987
 10
270.789166608
 20
45.3495628434
 10
271.2188337536
 20
44.8658176078
 10
271.5774658927
 20
44.2917097627
 10
271.8608583914
 20
43.6339701975
 10
272.0656887317
 20
42.9003103073
 10
272.1598572687
 20
42.3547712405
  0
LWPOLYLINE
  5
1EC
330
1F
100
AcDbEntity
  8
0
  6
Continuous
 62
     7
370
     0
100
AcDbPolyline
 90
       15
 70
   128
 43
0.0
 10
264.1605074076
 20
28.4979894424
 10
264.0159670875
 20
28.4401422395
 10
263.2682275325
 20
28.1985437498
 10
262.5426665597
 20
28.0619911975
 10
261.847790708
 20
28.0320855363
 10
261.1917467615
 20
28.1091773828
 10
260.5822262357
 20
28.2923629055
 10
260.0263752013
 20
28.5794944218
 10
259.5307105037
 20
28.9672055771
 10
259.1010433581
 20
29.4509508127
 10
258.742411219
 20
30.0250586578
 10
258.4590187203
 20
30.682798223
 10
258.25418838
 20
31.4164581132
 10
258.1303216465
 20
32.217436837
 10
258.088870744
 20
33.0763436511
  0
LWPOLYLINE
  5
1ED
330
1F
100
AcDbEntity
  8
0
  6
Continuous
 62
     7
370
     0
100
AcDbPolyline
 90
       22
 70
   128
 43
0.0
 10
251.8751699043
 20
35.7551827681
 10
251.9168168194
 20
36.712203189
 10
252.0413160972
 20
37.7071634602
 10
252.2473480143
 20
38.7295167551
 10
252.5327285812
 20
39.7684258746
 10
252.8944326928
 20
40.8128781234
 10
253.3286261955
 20
41.8518020481
 10
253.8307065303
 20
42.8741847964
 10
254.3953515207
 20
43.8691888569
 10
255.0165757892
 20
44.8262669391
 10
255.6877942042
 20
45.7352737772
 10
256.4018916835
 20
46.5865736726
 10
257.1512986161
 20
47.3711426345
 10
257.928071102
 20
48.0806640369
 10
258.7239751598
 20
48.7076167763
 10
259.5305740084
 20
49.2453549978
 10
260.3393174994
 20
49.6881785424
 10
261.1416327505
 20
50.0313933704
 10
261.9290150205
 20
50.2713613192
 10
262.6931178614
 20
50.4055386689
 10
263.4258415931
 20
50.4325031062
 10
263.6015108656
 20
50.4225622026
  0
ARC
  5
1EE
330
1F
100
AcDbEntity
  8
0
  6
Continuous
 62
     7
370
     0
100
AcDbCircle
 10
258.5546852574
 20
35.4365373993
 30
0.0
 40
6.68711150071746
100
AcDbArc
 50
177.2687832574
 51
212.3583730024
  0
LINE
  5
1EF
330
1F
100
AcDbEntity
  8
0
  6
Continuous
 62
     7
370
     0
100
AcDbLine
 10
268.2712083931
 20
29.6615471466
 30
0.0
 11
268.3419190712
 21
29.3976569126
 31
0.0
  0
LWPOLYLINE
  5
1F0
330
1F
100
AcDbEntity
  8
0
  6
Continuous
 62
     7
370
     0
100
AcDbPolyline
 90
        3
 70
   128
 43
0.0
 10
275.0994967477
 20
36.4334793751
 10
274.8090837847
 20
36.7557851748
 10
274.5868895333
 20
36.9123329235
  0
LWPOLYLINE
  5
1F1
330
1F
100
AcDbEntity
  8
0
  6
Continuous
 62
     7
370
     0
100
AcDbPolyline
 90
       13
 70
   128
 43
0.0
 10
270.1385245604
 20
29.0896150116
 10
270.2200182382
 20
29.0498041702
 10
270.6302518372
 20
28.9287017606
 10
271.0850505707
 20
28.9142956693
 10
271.5725396305
 20
29.00696204
 10
272.079990663
 20
29.2042813509
 10
272.5941541068
 20
29.5011015889
 10
273.1016051392
 20
29.8896727691
 10
273.5890941991
 20
30.3598492865
 10
274.0438929326
 20
30.8993548184
 10
274.4541265316
 20
31.4941028596
 10
274.8090837847
 20
32.1285645213
 10
275.0994967477
 20
32.7861739909
  0
LINE
  5
1F2
330
1F
100
AcDbEntity
  8
0
  6
Continuous
 62
     7
370
     0
100
AcDbLine
 10
267.9470061312
 20
29.8487051286
 30
0.0
 11
268.2712083931
 21
29.6615471466
 31
0.0
  0
LWPOLYLINE
  5
1F3
330
1F
100
AcDbEntity
  8
0
  6
Continuous
 62
     7
370
     0
100
AcDbPolyline
 90
       21
 70
   128
 43
0.0
 10
243.3687783728
 20
41.0512944418
 10
243.6957009323
 20
42.3216753148
 10
244.1040507904
 20
43.6015060419
 10
244.5906382767
 20
44.8807897092
 10
245.1516625969
 20
46.1495336759
 10
245.7827415216
 20
47.3978276283
 10
246.4789456163
 20
48.6159209899
 10
247.234836746
 20
49.794299085
 10
248.0445105529
 20
50.9237574586
 10
248.9016425762
 20
51.9954737735
 10
249.7995376529
 20
53.0010767229
 10
250.7311822153
 20
53.9327114196
 10
251.689299074
 20
54.7831007513
 10
252.6664042614
 20
55.5456022233
 10
253.6548654896
 20
56.2142598434
 10
254.6469617675
 20
56.7838506456
 10
255.6349437101
 20
57.2499254865
 10
256.6110940699
 20
57.6088437989
 10
257.5677880174
 20
57.8578020278
 10
258.4975526995
 20
57.9948555304
 10
259.3505122034
 20
58.0203813074
  0
LWPOLYLINE
  5
1F4
330
1F
100
AcDbEntity
  8
0
  6
Continuous
 62
     7
370
     0
100
AcDbPolyline
 90
       19
 70
   128
 43
0.0
 10
246.7834191079
 20
40.098680701
 10
247.0862933487
 20
41.2619432992
 10
247.4658325507
 20
42.4335193892
 10
247.9188846728
 20
43.6036791301
 10
248.4416871553
 20
44.7627044437
 10
249.0298981675
 20
45.9009697224
 10
249.6786326665
 20
47.0090217689
 10
250.3825029668
 20
48.077658304
 10
251.1356634849
 20
49.0980043914
 10
251.931859286
 20
50.0615861426
 10
252.7644780311
 20
50.9604010923
 10
253.6266048914
 20
51.786984658
 10
254.511079976
 20
52.5344721328
 10
255.4105577938
 20
53.196655696
 10
256.3175682571
 20
53.7680359689
 10
257.2245787204
 20
54.2438676864
 10
258.1240565382
 20
54.6201991062
 10
259.0085316228
 20
54.8939048274
 10
259.3001569825
 20
54.9622194813
  0
LINE
  5
1F5
330
1F
100
AcDbEntity
  8
0
  6
Continuous
 62
     7
370
     0
100
AcDbLine
 10
276.8272004454
 20
34.2961055835
 30
0.0
 11
276.6150684111
 21
34.4783550063
 31
0.0
  0
LINE
  5
1F6
330
1F
100
AcDbEntity
  8
0
  6
Continuous
 62
     7
370
     0
100
AcDbLine
 10
251.6011660266
 20
38.8549617258
 30
0.0
 11
251.3182773405
 21
39.0182698882
 31
0.0
  0
LINE
  5
1F7
330
1F
100
AcDbEntity
  8
0
  6
Continuous
 62
     7
370
     0
100
AcDbLine
 10
246.224902054
 20
35.9325416624
 30
0.0
 11
251.6011660266
 21
32.8288905341
 31
0.0
  0
LINE
  5
1F8
330
1F
100
AcDbEntity
  8
0
  6
Continuous
 62
     7
370
     0
100
AcDbLine
 10
245.9885059509
 20
35.7960287333
 30
0.0
 11
246.224902054
 21
35.9325416624
 31
0.0
  0
LINE
  5
1F9
330
1F
100
AcDbEntity
  8
0
  6
Continuous
 62
     7
370
     0
100
AcDbLine
 10
245.8382457599
 20
39.2402248954
 30
0.0
 11
245.8666634205
 21
40.0276354734
 31
0.0
  0
LWPOLYLINE
  5
1FA
330
1F
100
AcDbEntity
  8
0
  6
Continuous
 62
     7
370
     0
100
AcDbPolyline
 90
        3
 70
   128
 43
0.0
 10
245.957472736
 20
37.7343820807
 10
245.8798926751
 20
38.3312889792
 10
245.8382457599
 20
39.2402248954
  0
LINE
  5
1FB
330
1F
100
AcDbEntity
  8
0
  6
Continuous
 62
     7
370
     0
100
AcDbLine
 10
273.609864591
 20
36.213222244
 30
0.0
 11
276.6150684111
 21
34.4783550063
 31
0.0
  0
LWPOLYLINE
  5
1FC
330
1F
100
AcDbEntity
  8
0
  6
Continuous
 62
     7
370
     0
100
AcDbPolyline
 90
       17
 70
   128
 43
0.0
 10
224.5752017363
 20
55.5270857221
 10
224.6178556469
 20
56.2560909287
 10
224.7449871689
 20
57.0201540351
 10
224.9541218318
 20
57.8044034221
 10
225.2411890674
 20
58.5935745674
 10
225.6006014383
 20
59.3723071524
 10
226.0253633916
 20
60.125444033
 10
226.5072074191
 20
60.8383262567
 10
227.0367549748
 20
61.4970783817
 10
227.603699018
 20
62.0888785473
 10
228.1970046277
 20
62.6022080365
 10
228.8051237851
 20
63.0270754746
 10
229.4162201425
 20
63.3552113002
 10
230.0183994044
 20
63.5802287227
 10
230.5999408366
 20
63.697748034
 10
231.1495253964
 20
63.7054818543
 10
231.6462069386
 20
63.6065814978
  0
ARC
  5
1FD
330
1F
100
AcDbEntity
  8
0
  6
Continuous
 62
     7
370
     0
100
AcDbCircle
 10
227.9813109607
 20
55.2985143507
 30
0.0
 40
3.413769898573637
100
AcDbArc
 50
176.1608484908
 51
223.7828393387
  0
ARC
  5
1FE
330
1F
100
AcDbEntity
  8
0
  6
Continuous
 62
     7
370
     0
100
AcDbCircle
 10
255.9481960749
 20
32.7897917825
 30
0.0
 40
7.707717001644022
100
AcDbArc
 50
196.4813932095
 51
211.3755701311
  0
LINE
  5
1FF
330
1F
100
AcDbEntity
  8
0
  6
Continuous
 62
     7
370
     0
100
AcDbLine
 10
251.3183233141
 20
32.338992587
 30
0.0
 11
246.059216629
 21
35.3750102528
 31
0.0
  0
LINE
  5
200
330
1F
100
AcDbEntity
  8
0
  6
Continuous
 62
     7
370
     0
100
AcDbLine
 10
247.6479530087
 20
32.722855074
 30
0.0
 11
247.568307635
 21
32.9662703577
 31
0.0
  0
LWPOLYLINE
  5
201
330
1F
100
AcDbEntity
  8
0
  6
Continuous
 62
     7
370
     0
100
AcDbPolyline
 90
        3
 70
   128
 43
0.0
 10
247.3096900505
 20
32.1469942561
 10
247.0862933487
 20
32.6058054166
 10
246.7834191079
 20
33.4193768598
  0
ARC
  5
202
330
1F
100
AcDbEntity
  8
0
  6
Continuous
 62
     7
370
     0
100
AcDbCircle
 10
250.7582470884
 20
35.7843716462
 30
0.0
 40
7.706052674717496
100
AcDbArc
 50
196.4802672095
 51
211.4078826688
  0
OLE2FRAME
  5
203
330
1F
100
AcDbEntity
  8
0
100
AcDbOle2Frame
 70
     2
  3
Paintbrush-Bild
 10
13.8511154363
 20
38.264191557
 30
0.0
 11
51.6290888628
 21
31.9806341108
 31
0.0
 71
     2
 72
     0
 73
     1
 90
    12928
310
80552BED0767C5B32B40DDAF6807D121434000000000000000006FFBDDFB85D0
310
4940DDAF6807D121434000000000000000006FFBDDFB85D04940416F4BD60AFB
310
3F4000000000000000002BED0767C5B32B40416F4BD60AFB3F40000000000000
310
0000000000000100000000010000010000000100000000000100000000320000
310
D0CF11E0A1B11AE1000000000000000000000000000000003E000300FEFF0900
310
0600000000000000000000000100000001000000000000000010000002000000
310
01000000FEFFFFFF0000000000000000FFFFFFFFFFFFFFFFFFFFFFFFFFFFFFFF
310
FFFFFFFFFFFFFFFFFFFFFFFFFFFFFFFFFFFFFFFFFFFFFFFFFFFFFFFFFFFFFFFF
310
FFFFFFFFFFFFFFFFFFFFFFFFFFFFFFFFFFFFFFFFFFFFFFFFFFFFFFFFFFFFFFFF
310
FFFFFFFFFFFFFFFFFFFFFFFFFFFFFFFFFFFFFFFFFFFFFFFFFFFFFFFFFFFFFFFF
310
FFFFFFFFFFFFFFFFFFFFFFFFFFFFFFFFFFFFFFFFFFFFFFFFFFFFFFFFFFFFFFFF
310
FFFFFFFFFFFFFFFFFFFFFFFFFFFFFFFFFFFFFFFFFFFFFFFFFFFFFFFFFFFFFFFF
310
FFFFFFFFFFFFFFFFFFFFFFFFFFFFFFFFFFFFFFFFFFFFFFFFFFFFFFFFFFFFFFFF
310
FFFFFFFFFFFFFFFFFFFFFFFFFFFFFFFFFFFFFFFFFFFFFFFFFFFFFFFFFFFFFFFF
310
FFFFFFFFFFFFFFFFFFFFFFFFFFFFFFFFFFFFFFFFFFFFFFFFFFFFFFFFFFFFFFFF
310
FFFFFFFFFFFFFFFFFFFFFFFFFFFFFFFFFFFFFFFFFFFFFFFFFFFFFFFFFFFFFFFF
310
FFFFFFFFFFFFFFFFFFFFFFFFFFFFFFFFFFFFFFFFFFFFFFFFFFFFFFFFFFFFFFFF
310
FFFFFFFFFFFFFFFFFFFFFFFFFFFFFFFFFFFFFFFFFFFFFFFFFFFFFFFFFFFFFFFF
310
FFFFFFFFFFFFFFFFFFFFFFFFFFFFFFFFFFFFFFFFFFFFFFFFFFFFFFFFFFFFFFFF
310
FFFFFFFFFFFFFFFFFFFFFFFFFFFFFFFFFFFFFFFFFFFFFFFFFFFFFFFFFFFFFFFF
310
FDFFFFFFFEFFFFFFFEFFFFFFFEFFFFFF05000000060000000700000008000000
310
090000000A0000000B0000000C0000000D0000000E0000000F00000010000000
310
11000000120000001300000014000000150000001600000017000000FEFFFFFF
310
FFFFFFFFFFFFFFFFFFFFFFFFFFFFFFFFFFFFFFFFFFFFFFFFFFFFFFFFFFFFFFFF
310
FFFFFFFFFFFFFFFFFFFFFFFFFFFFFFFFFFFFFFFFFFFFFFFFFFFFFFFFFFFFFFFF
310
FFFFFFFFFFFFFFFFFFFFFFFFFFFFFFFFFFFFFFFFFFFFFFFFFFFFFFFFFFFFFFFF
310
FFFFFFFFFFFFFFFFFFFFFFFFFFFFFFFFFFFFFFFFFFFFFFFFFFFFFFFFFFFFFFFF
310
FFFFFFFFFFFFFFFFFFFFFFFFFFFFFFFFFFFFFFFFFFFFFFFFFFFFFFFFFFFFFFFF
310
FFFFFFFFFFFFFFFFFFFFFFFFFFFFFFFFFFFFFFFFFFFFFFFFFFFFFFFFFFFFFFFF
310
FFFFFFFFFFFFFFFFFFFFFFFFFFFFFFFFFFFFFFFFFFFFFFFFFFFFFFFFFFFFFFFF
310
FFFFFFFFFFFFFFFFFFFFFFFFFFFFFFFFFFFFFFFFFFFFFFFFFFFFFFFFFFFFFFFF
310
FFFFFFFFFFFFFFFFFFFFFFFFFFFFFFFFFFFFFFFFFFFFFFFFFFFFFFFFFFFFFFFF
310
FFFFFFFFFFFFFFFFFFFFFFFFFFFFFFFFFFFFFFFFFFFFFFFFFFFFFFFFFFFFFFFF
310
FFFFFFFFFFFFFFFFFFFFFFFFFFFFFFFFFFFFFFFFFFFFFFFFFFFFFFFFFFFFFFFF
310
FFFFFFFFFFFFFFFFFFFFFFFFFFFFFFFFFFFFFFFFFFFFFFFFFFFFFFFFFFFFFFFF
310
FFFFFFFFFFFFFFFFFFFFFFFFFFFFFFFFFFFFFFFFFFFFFFFFFFFFFFFFFFFFFFFF
310
52006F006F007400200045006E00740072007900000000000000000000000000
310
0000000000000000000000000000000000000000000000000000000000000000
310
16000500FFFFFFFFFFFFFFFF020000000A00030000000000C000000000000046
310
000000000000000000000000F0A13AEAF01AD20103000000C000000000000000
310
01004F006C006500000000000000000000000000000000000000000000000000
310
0000000000000000000000000000000000000000000000000000000000000000
310
0A000200FFFFFFFFFFFFFFFFFFFFFFFF00000000000000000000000000000000
310
0000000000000000000000000000000000000000000000001400000000000000
310
010043006F006D0070004F0062006A0000000000000000000000000000000000
310
0000000000000000000000000000000000000000000000000000000000000000
310
120002010100000003000000FFFFFFFF00000000000000000000000000000000
310
0000000000000000000000000000000000000000010000004D00000000000000
310
01004F006C006500310030004E00610074006900760065000000000000000000
310
0000000000000000000000000000000000000000000000000000000000000000
310
1A000200FFFFFFFFFFFFFFFFFFFFFFFF00000000000000000000000000000000
310
0000000000000000000000000000000000000000040000002426000000000000
310
FEFFFFFF02000000FEFFFFFFFFFFFFFFFFFFFFFFFFFFFFFFFFFFFFFFFFFFFFFF
310
FFFFFFFFFFFFFFFFFFFFFFFFFFFFFFFFFFFFFFFFFFFFFFFFFFFFFFFFFFFFFFFF
310
FFFFFFFFFFFFFFFFFFFFFFFFFFFFFFFFFFFFFFFFFFFFFFFFFFFFFFFFFFFFFFFF
310
FFFFFFFFFFFFFFFFFFFFFFFFFFFFFFFFFFFFFFFFFFFFFFFFFFFFFFFFFFFFFFFF
310
FFFFFFFFFFFFFFFFFFFFFFFFFFFFFFFFFFFFFFFFFFFFFFFFFFFFFFFFFFFFFFFF
310
FFFFFFFFFFFFFFFFFFFFFFFFFFFFFFFFFFFFFFFFFFFFFFFFFFFFFFFFFFFFFFFF
310
FFFFFFFFFFFFFFFFFFFFFFFFFFFFFFFFFFFFFFFFFFFFFFFFFFFFFFFFFFFFFFFF
310
FFFFFFFFFFFFFFFFFFFFFFFFFFFFFFFFFFFFFFFFFFFFFFFFFFFFFFFFFFFFFFFF
310
FFFFFFFFFFFFFFFFFFFFFFFFFFFFFFFFFFFFFFFFFFFFFFFFFFFFFFFFFFFFFFFF
310
FFFFFFFFFFFFFFFFFFFFFFFFFFFFFFFFFFFFFFFFFFFFFFFFFFFFFFFFFFFFFFFF
310
FFFFFFFFFFFFFFFFFFFFFFFFFFFFFFFFFFFFFFFFFFFFFFFFFFFFFFFFFFFFFFFF
310
FFFFFFFFFFFFFFFFFFFFFFFFFFFFFFFFFFFFFFFFFFFFFFFFFFFFFFFFFFFFFFFF
310
FFFFFFFFFFFFFFFFFFFFFFFFFFFFFFFFFFFFFFFFFFFFFFFFFFFFFFFFFFFFFFFF
310
FFFFFFFFFFFFFFFFFFFFFFFFFFFFFFFFFFFFFFFFFFFFFFFFFFFFFFFFFFFFFFFF
310
FFFFFFFFFFFFFFFFFFFFFFFFFFFFFFFFFFFFFFFFFFFFFFFFFFFFFFFFFFFFFFFF
310
FFFFFFFFFFFFFFFFFFFFFFFFFFFFFFFFFFFFFFFFFFFFFFFFFFFFFFFFFFFFFFFF
310
0100000200000000000000000000000000000000000000000000000000000000
310
0000000000000000000000000000000000000000000000000000000000000000
310
0100FEFF030A0000FFFFFFFF0A00030000000000C00000000000004607000000
310
5042727573680007000000504272757368000700000050427275736800F439B2
310
7100000000000000000000000000000000000000000000000000000000000000
310
0000000000000000000000000000000000000000000000000000000000000000
310
0000000000000000000000000000000000000000000000000000000000000000
310
0000000000000000000000000000000000000000000000000000000000000000
310
0000000000000000000000000000000000000000000000000000000000000000
310
0000000000000000000000000000000000000000000000000000000000000000
310
0000000000000000000000000000000000000000000000000000000000000000
310
0000000000000000000000000000000000000000000000000000000000000000
310
0000000000000000000000000000000000000000000000000000000000000000
310
0000000000000000000000000000000000000000000000000000000000000000
310
0000000000000000000000000000000000000000000000000000000000000000
310
0000000000000000000000000000000000000000000000000000000000000000
310
20260000424D0E260000000000003E00000028000000B40200006E0000000100
310
01000000000000000000130B0000130B00000200000002000000000000FFFFFF
310
FFFFFFFFFFFFFFFFFFFFFFFFFFFFFFFFFFFFFFFFFFFFFFFFFFFFFFFFFFFFFFFF
310
FFFFFFFFFFFFFFFFFFFFFFFFFFFFFFFFFFFFFFFFFFFFFFFFFFFFFFFFFFFFFFFF
310
FFFFFFFFFFFFFFFFFFFFFFFFFFFFFFFFFFFFFFFFFFFFFFFFF000FFFFFFFFFFFF
310
FFFFFFFFFFFFFFFFFFFFFFFFFFFFFFFFFFFFFFFFFFFFFFFFFFFFFFFFFFFFFFFF
310
FFFFFFFFFFFFFFFFFFFFFFFFFFFFFFFFFFFFFFFFFFFFFFFFFFFFFFFFFFFFFFFF
310
FFFFFFFFFFFFFFFFFFFFFFFFFFFFFFFFF000FFFFFFFFFFFFFFFFFFFFFFFFFFFF
310
FFFFFFFFFFFFFFFFFFFFFFFFFFFFFFFFFFFFFFFFFFFFFFFFFFFFFFFFFFFFFFFF
310
FFFFFFFFFFFFFFFFFFFFFFFFFFFFFFFFFFFFFFFFFFFFFFFFFFFFFFFFFFFFFFFF
310
FFFFFFFFFFFFFFFFF000FFFFFFFFFFFFFFFFFFFFFFFFFFFFFFFFFFFFFFFFFFFF
310
FFFFFFFFFFFFFFFFFFFFFFFFFFFFFFFFFFFFFFFFFFFFFFFFFFFFFFFFFFFFFFFF
310
FFFFFFFFFFFFFFFFFFFFFFFFFFFFFFFFFFFFFFFFFFFFFFFFFFFFFFFFFFFFFFFF
310
F000FFFFFFFFFFFFFFFFFFFFFFFFFFFFFFFFFFFFFFFFFFFFFFFFFFFFFFFFFFFF
310
FFFFFFFFFFFFFFFFFFFFFFFFFFFFFFFFFFFFFFFFFFFFFFFFFFFFFFFFFFFFFFFF
310
FFFFFFFFFFFFFFFFFFFFFFFFFFFFFFFFFFFFFFFFFFFFFFFFF000FFFFFFFFFFFF
310
FFFFFFFFFFFFFFFFFFFFFFFFFFFFFFFFFFFFFFFFFFFFFFFFFFFFFFFFFFFFFFFF
310
FFFFFFFFFFFFFFFFFFFFFFFFFFFFFFFFFFFFFFFFFFFFFFFFFFFFFFFFFFFFFFFF
310
FFFFFFFFFFFFFFFFFFFFFFFFFFFFFFFFF000FFFFFFFFFFFFFFFFFFFFFFFFFFFF
310
FFFFFFFFFFFFFFFFFFFFFFFFFFFFFFFFFFFFFFFFFFFFFFFFFFFFFFFFFFFFFFFF
310
FFFFFFFFFFFFFFFFFFFFFFFFFFFFFFFFFFFFFFFFFFFFFFFFFFFFFFFFFFFFFFFF
310
FFFFFFFFFFFFFFFFF000FFFFFFFFFFFFFFFFFFFFFFFFFFFFFFFFFFFFFFFFFFFF
310
FFFFFFFFFFFFFFFFFFFFFFFFFFFFFFFFFFFFFFFFFFFFFFFFFFFFFFFFFFFFFFFF
310
FFFFFFFFFFFFFFFFFFFFFFFFFFFFFFFFFFFFFFFFFFFFFFFFFFFFFFFFFFFFFFFF
310
F000FFFFFFFFFFFFFFFFFFFFFFFFFFFFFFFFFFFFFFFFFFFFFFFFFFFFFFFFFFFF
310
FFFFFFFFFFFFFFFFFFFFFFFFFFFFFFFFFFFFFFFFFFFFFFFFFFFFFFFFFFFFFFFF
310
FFFFFFFFFFFFFFFFFFFFFFFFFFFFFFFFFFFFFFFFFFFFFFFFF000FFFFFFFFFFFF
310
FFFFFFFFFFFFFFFFFFFFFFFFFFFFFFFFFFFFFFFFFFFFFFFFFFFFFFFFFFFFFFFF
310
FFFFFFFFFFFFFFFFFFFFFFFFFFFFFFFFFFFFFFFFFFFFFFFFFFFFFFFFFFFFFFFF
310
FFFFFFFFFFFFFFFFFFFFFFFFFFFFFFFFF000FFFFFFFFFFFFFFFFFFFFFFFFFFFF
310
FFFFFFFFFFFFFFFFFFFFFFFFFFFFFFFFFFFFFFFFFFFFFFFFFFFFFFFFFFFFFFFF
310
FFFFFFFFFFFFFFFFFFFFFFFFFFFFFFFFFFFFFFFFFFFFFFFFFFFFFFFFFFFFFFFF
310
FFFFFFFFFFFFFFFFF000FFFFFFFFFFFFFFFFFFFFFFFFFFFFFFFFFFFFFFFFFFFF
310
FFFFFFFFFFFFFFFFFFFFFFFFFFFFFFFFFFFFFFFFFFFFFFFFFFFFFFFFFFFFFFFF
310
FFFFFFFFFFFFFFFFFFFFFFFFFFFFFFFFFFFFFFFFFFFFFFFFFFFFFFFFFFFFFFFF
310
F000FFFFFFFFFFFFFFFFFFFFFFFFFFFFFFFFFFFFFFFFFFFFFFFFFFFFFFFFFFFF
310
FFFFFFFFFFFFFFFFFFFFFFFFFFFFFFFFFFFFFFFFFFFFFFFFFFFFFFFFFFFFFFFF
310
FFFFFFFFFFFFFFFFFFFFFFFFFFFFFFFFFFFFFFFFFFFFFFFFF000FFFFFFFFFFFF
310
FFFFFFFFFFFFFFFFFFFFFFFFFFFFFFFFFFFFFFFFFFFFFFFFFFFFFFFFFFFFFFFF
310
FFFFFFFFFFFFFFFFFFFFFFFFFFFFFFFFFFFFFFFFFFFFFFFFFFFFFFFFFFFFFFFF
310
FFFFFFFFFFFFFFFFFFFFFFFFFFFFFFFFF000FFFFFFFFFFFFFFFFFFFFFFFFFFFF
310
FFFFFFFFFFFFFFFFFFFFFFFFFFFFFFFFFFFFFFFFFFFFFFFFFFFFFFFFFFFFFFFF
310
FFFFFFFFFFFFFFFFFFFFFFFFFFFFFFFFFFFFFFFFFFFFFFFFFFFFFFFFFFFFFFFF
310
FFFFFFFFFFFFFFFFF000FFFFFFFFFFFFFFFFFFFFFFFFFFFFFFFFFFFFFFFFFFFF
310
FFFFFFFFFFFFFFFFFFFFFFFFFFFFFFFFFFFFFFFFFFFFFFFFFFFFFFFFFFFFFFFF
310
FFFFFFFFFFFFFFFFFFFFFFFFFFFFFFFFFFFFFFFFFFFFFFFFFFFFFFFFFFFFFFFF
310
F000FFFFFFFFFFFFFFFFFFFFFFFFFFFFFFFFFFFFFFFFFFFFFFFFFFFFFFFFFFFF
310
FFFFFFFFFFFFFFFFFFFFFFFFFFFFFFFFFFFFFFFFFFFFFFFFFFFFFFFFFFFFFFFF
310
FFFFFFFFFFFFFFFFFFFFFFFFFFFFFFFFFFFFFFFFFFFFFFFFF000FFFFFFFFFFFF
310
FFFFFFFFFFFFFFFFFFFFFFFFFFFFFFFFFFFFFFFFFFFFFFFFFFFFFFFFFFFFFFFF
310
FFFFFFFFFFFFFFFFFFFFFFFFFFFFFFFFFFFFFFFFFFFFFFFFFFFFFFFFFFFFFFFF
310
FFFFFFFFFFFFFFFFFFFFFFFFFFFFFFFFF000FFFFFFFFFFFFFFFFFFFFFFFFFFFF
310
FFFFFFFFFFFFFFFFFFFFFFFFFFFFFFFFFFFFFFFFFFFFFFFFFFFFFFFFFFFFFFFF
310
FFFFFFFFFFFFFFFFFFFFFFFFFFFFFFFFFFFFFFFFFFFFFFFFFFFFFFFFFFFFFFFF
310
FFFFFFFFFFFFFFFFF000FFFFF80003FFFFFFFFFFFFFFFFFFFFFFFFFFFFFFFFFF
310
FFFFF00007FFFFFFFFFF00007FFFFFF800000000000000007FFFFFFFFFFFFFFF
310
FFFFFFFC001FFFFFFFFFFFFFFC001FFFFFFFFFFFFFFFFFFFFFFFFFFE0007FFFF
310
F000FFFF8000007FFFFFFFF8000FFFFFC0007FFFFF80007FFFFF0000007FFFFF
310
FFF8000007FFFFF800000000000000007FFFFFF0001FFFFFFFFFFFC00001FFFF
310
FFFFFFFFC00001FFFFFFFF000000000003FFFFE000007FFFF000FFFE0000000F
310
FFFFFFF0000FFFFF80007FFFFF80007FFFFC0000001FFFFFFFC0000001FFFFF8
310
00000000000000007FFFFFF0001FFFFFFFFFFE0000003FFFFFFFFFFE0000003F
310
FFFFFF000000000003FFFF0000000FFFF000FFF800000003FFFFFFF00007FFFF
310
80007FFFFF80007FFFF000000007FFFFFF000000003FFFF80000000000000000
310
7FFFFFF0001FFFFFFFFFF80000000FFFFFFFFFF80000000FFFFFFF0000000000
310
03FFFC00000003FFF000FFE000000000FFFFFFF00007FFFF80003FFFFF80007F
310
FFC000000001FFFFFC000000001FFFF800000000000000007FFFFFF0001FFFFF
310
FFFFE000000003FFFFFFFFE000000003FFFFFF000000000003FFF000000000FF
310
F000FF80000000007FFFFFF00007FFFF80003FFFFF80007FFF8000000000FFFF
310
F80000000007FFF800000000000000007FFFFFF0001FFFFFFFFFC000000001FF
310
FFFFFFC000000001FFFFFF000000000003FFC0000000007FF000FF0000000000
310
3FFFFFE00007FFFF00003FFFFF80007FFE00000000003FFFF00000000003FFF8
310
00000000000000007FFFFFF0001FFFFFFFFF8000000000FFFFFFFF8000000000
310
FFFFFF000000000003FF80000000003FF000FE00000000001FFFFFE00003FFFF
310
00003FFFFF80007FFC00000000001FFFE00000000001FFF8000001FFFE000000
310
7FFFFFF0001FFFFFFFFE00000000003FFFFFFE00000000003FFFFF0000000000
310
03FF00000000001FF000FC00000000000FFFFFE00003FFFF00001FFFFF80007F
310
F800000000001FFFC00000000000FFF8000001FFFE0000007FFFFFF0001FFFFF
310
FFFC00000000001FFFFFFC00000000001FFFFF000000000003FE00000000000F
310
F000F8000000000007FFFFE00003FFFF00001FFFFF80007FF800000000000FFF
310
800000000000FFF8000001FFFE0000007FFFFFF0001FFFFFFFF800000000000F
310
FFFFF800000000000FFFFF000000000003FC000000000007F000F80000000000
310
03FFFFC00003FFFE00001FFFFF80007FF0000000000007FF0000000000007FF8
310
000001FFFE0000007FFFFFF0001FFFFFFFF0000000000007FFFFF00000000000
310
07FFFF000000000003F8000000000003F000F0000000000003FFFFC00001FFFE
310
00001FFFFF80007FE0000000000007FE0000000000003FF8000001FFFE000000
310
7FFFFFF0001FFFFFFFF0000000000007FFFFF0000000000007FFFF0000000000
310
03F800001F800003F000E00001FFF00001FFFFC00001FFFE00000FFFFF80007F
310
E00001FFE00003FE00001FFF00003FF8000001FFFE0000007FFFFFF0001FFFFF
310
FFE000003E000003FFFFE000003E000003FFFF000000000003F00001FFF80001
310
F000E00007FFFC0001FFFFC00001FFFE00000FFFFF80007FC0000FFFFC0003FC
310
0000FFFFC0001FF8000001FFFE0000007FFFFFF0001FFFFFFFC00003FFE00001
310
FFFFC00003FFE00001FFFF0001FFFFFFFFF00007FFFE0001F000E0000FFFFF00
310
00FFFF800001FFFC00000FFFFF80007FC0001FFFFE0001FC0001FFFFE0001FF8
310
000001FFFE0000007FFFFFF0001FFFFFFF80000FFFF80000FFFF80000FFFF800
310
00FFFF0003FFFFFFFFE0000FFFFF8000F000C0003FFFFF8000FFFF800000FFFC
310
000007FFFF80007F80003FFFFF0001FC0003FFFFF0001FF8000001FFFE000000
310
7FFFFFF0001FFFFFFF80003FFFFE0000FFFF80003FFFFE0000FFFF0003FFFFFF
310
FFE0003FFFFF8000F000C0003FFFFF8000FFFF800000FFFC000007FFFF80007F
310
80007FFFFF8001F80007FFFFF8000FF8000001FFFE0000007FFFFFF0001FFFFF
310
FF00007FFFFF00007FFF00007FFFFF00007FFF0003FFFFFFFFE0003FFFFFC000
310
F000C0007FFFFFC000FFFF000000FFFC000007FFFF80007F8000FFFFFF8000F8
310
000FFFFFF8000FF8000001FFFE0000007FFFFFF0001FFFFFFF0000FFFFFF8000
310
7FFF0000FFFFFF80007FFF0003FFFFFFFFC0007FFFFFC00070008000FFFFFFC0
310
00FFFF000000FFF8000007FFFF80007F8000FFFFFF8000F8000FFFFFF8000FF8
310
000001FFFE0000007FFFFFF0001FFFFFFE0001FFFFFFC0003FFE0001FFFFFFC0
310
003FFF0003FFFFFFFFC0007FFFFFE00070008000FFFFFFC0007FFF0000007FF8
310
000003FFFF80007F0001FFFFFF8000F8000FFFFFF8000FF8000001FFFE000000
310
7FFFFFF0001FFFFFFE0001FFFFFFC0003FFE0001FFFFFFC0003FFF0003FFFFFF
310
FFC000FFFFFFE00070008000FFFFFFC0007FFF0000007FF8000003FFFF80007F
310
0001FFFFFF8000F8001FFFFFF8000FF8000001FFFE0000007FFFFFF0001FFFFF
310
FE0003FFFFFFE0003FFE0003FFFFFFE0003FFF0003FFFFFFFFC000FFFFFFE000
310
70008000FFFFFFC0007FFE0000007FF8000003FFFF80007F0001FFFFFF8000F0
310
001FFFFFF8000FF8000001FFFE0000007FFFFFF0001FFFFFFC0003FFFFFFE000
310
1FFC0003FFFFFFE0001FFF0003FFFFFFFFC000FFFFFFC00070008000FFFFFF80
310
007FFE0000007FF0000003FFFF80007F0001FFFFFF0000F0001FFFFFF8000FF8
310
000001FFFE0000007FFFFFF0001FFFFFFC0007FFFFFFF0001FFC0007FFFFFFF0
310
001FFF0003FFFFFFFFC000FFFFFFC00070008001FFFFFF0000FFFE0000003FF0
310
000001FFFF80007F0001FFFFFF0000F8001FFFFFF0000FF8000001FFFE000000
310
7FFFFFF0001FFFFFFC0007FFFFFFF0001FFC0007FFFFFFF0001FFF0003FFFFFF
310
FFC001FFFFFF80007000FFFFFFFFFE0000FFFE0008003FF0008001FFFF80007F
310
FFFFFFFFFC0000FFFFFFFFFFE0000FF8000001FFFE0000007FFFFFF0001FFFFF
310
F8000FFFFFFFF8000FF8000FFFFFFFF8000FFF0003FFFFFFFFFFFFFFFFFF0000
310
7000FFFFFFFFFC0000FFFC0008003FF0008001FFFF80007FFFFFFFFFF80001FF
310
FFFFFFFF80000FF8000001FFFE0000007FFFFFF0001FFFFFF8000FFFFFFFF800
310
0FF8000FFFFFFFF8000FFF0003FFFFFFFFFFFFFFFFFE0000F000FFFFFFFFE000
310
00FFFC000C003FE000C001FFFF80007FFFFFFFFFC00001FFFFFFFFFE00001FF8
310
000001FFFE0000007FFFFFF0001FFFFFF8000FFFFFFFF8000FF8000FFFFFFFF8
310
000FFF0003FFFFFFFFFFFFFFFFF00000F000FFFFFFFE000001FFFC000C001FE0
310
00C000FFFF80007FFFFFFFFE000001FFFFFFFFE000001FF80FFFFFFFFFFFFFC0
310
7FFFFFF0001FFFFFF8000FFFFFFFF8000FF8000FFFFFFFF8000FFF0003FFFFFF
310
FFFFFFFFFF800000F000FFFFFFC0000001FFFC001C001FE001C000FFFF80007F
310
FFFFFF80000003FFFFFFF80000001FF80FFFFFFFFFFFFFC07FFFFFF0001FFFFF
310
F8001FFFFFFFFC000FF8001FFFFFFFFC000FFF0003FFFFFFFFFFFFFFF0000001
310
F000FFFFF800000001FFF8001C001FE001C000FFFF80007FFFFFF800000003FF
310
FFFF800000003FF80FFFFFFFFFFFFFC07FFFFFF0001FFFFFF8001FFFFFFFFC00
310
0FF8001FFFFFFFFC000FFF0003FFFFFFFFFFFFFE00000001F000FFFFC0000000
310
03FFF8001E001FC001E000FFFF80007FFFFF8000000007FFFFFC000000003FF8
310
0FFFFFFFFFFFFFC07FFFFFF0001FFFFFF8001FFFFFFFFC000FF8001FFFFFFFFC
310
000FFF0003FFFFFFFFFFFFE000000003F000FFFE0000000007FFF8001E000FC0
310
01E0007FFF80007FFFFE0000000007FFFFE0000000007FF80FFFFFFFFFFFFFC0
310
7FFFFFF0001FFFFFF0001FFFFFFFFC0007F0001FFFFFFFFC0007FF0003FFFFFF
310
FFFFFF0000000003F000FFF80000000007FFF8001E000FC003E0007FFF80007F
310
FFF0000000000FFFFF8000000000FFF80FFFFFFFFFFFFFC07FFFFFF0001FFFFF
310
F0001FFFFFFFFC0007F0001FFFFFFFFC0007FF0003FFFFFFFFFFFC0000000007
310
F000FFE0000000000FFFF0003E000FC003E0007FFF80007FFFC0000000001FFF
310
FE0000000001FFF80FFFFFFFFFFFFFC07FFFFFF0001FFFFFF0001FFFFFFFFC00
310
07F0001FFFFFFFFC0007FF0003FFFFFFFFFFF0000000000FF000FFC000000000
310
1FFFF0003F000F8003F0003FFF80007FFF80000000003FFFF80000000003FFF8
310
0FFFFFFFFFFFFFC07FFFFFF0001FFFFFF0001FFFFFFFFC0007F0001FFFFFFFFC
310
0007FF0003FFFFFFFFFFE0000000001FF000FF00000000007FFFF0003F000780
310
03F0003FFF80007FFF00000000007FFFF00000000007FFF80FFFFFFFFFFFFFC0
310
7FFFFFF0001FFFFFF0001FFFFFFFFC0007F0001FFFFFFFFC0007FF0003FFFFFF
310
FFFF80000000007FF000FE0000000000FFFFE0003F00078007F0003FFF80007F
310
FE0000000001FFFFE0000000001FFFF80FFFFFFFFFFFFFC07FFFFFF0001FFFFF
310
F0001FFFFFFFFC0007F0001FFFFFFFFC0007FF0003FFFFFFFFFF0000000000FF
310
F000FC0000000003FFFFE0007F00078007F0003FFF80007FFC0000000007FFFF
310
C0000000007FFFF80FFFFFFFFFFFFFC07FFFFFF0001FFFFFF8001FFFFFFFFC00
310
0FF8001FFFFFFFFC000FFF0003FFFFFFFFFE0000000003FFF000FC000000000F
310
FFFFE0007F80070007F8001FFF80007FF8000000001FFFFF8000000001FFFFF8
310
0FFFFFFFFFFFFFC07FFFFFF0001FFFFFF8001FFFFFFFFC000FF8001FFFFFFFFC
310
000FFF0003FFFFFFFFFC000000000FFFF000F8000000007FFFFFE0007F800700
310
07F8001FFF80007FF000000000FFFFFF800000000FFFFFF80FFFFFFFFFFFFFC0
310
7FFFFFF0001FFFFFF8000FFFFFFFF8000FF8000FFFFFFFF8000FFF0003FFFFFF
310
FFFC000000007FFFF000F800000007FFFFFFC0007F8003000FF8001FFF80007F
310
F000000007FFFFFF000000007FFFFFF80FFFFFFFFFFFFFC07FFFFFF0001FFFFF
310
F8000FFFFFFFF8000FF8000FFFFFFFF8000FFF0003FFFFFFFFF80000000FFFFF
310
F000F0000000FFFFFFFFC000FF8003000FF8001FFF80007FE0000000FFFFFFFF
310
0000000FFFFFFFF8000001FFFE0000007FFFFFF0001FFFFFF8000FFFFFFFF800
310
0FF8000FFFFFFFF8000FFF0003FFFFFFFFF8000000FFFFFFF000F000000FFFFF
310
FFFFC000FFC002000FF8000FFF80007FE000001FFFFFFFFE000001FFFFFFFFF8
310
000001FFFE0000007FFFFFF0001FFFFFF8000FFFFFFFF8000FF8000FFFFFFFF8
310
000FFF0003FFFFFFFFF000001FFFFFFFF000E00000FFFFFFFFFFC000FFC00200
310
0FFC000FFF80007FE00001FFFFFFFFFE00001FFFFFFFFFF8000001FFFE000000
310
7FFFFFF0001FFFFFFC000FFFFFFFF8001FFC000FFFFFFFF8001FFF0003FFFFFF
310
FFF00001FFFFFFFFF000E00007FFFFFFFFFF8000FFC000001FFC000FFF80007F
310
C0000FFFFFFFFFFE0000FFFFFFFFFFF8000001FFFE0000007FFFFFF0001FFFFF
310
FC0007FFFFFFF0001FFC0007FFFFFFF0001FFF0003FFFFFFFFF00007FFFFFFFF
310
F000E0001FFFFFFFFFFF8000FFC000001FFC000FFF80007FC0003FFFFFFFFFFE
310
0001FFFFFFFFFFF8000001FFFE0000007FFFFFF0001FFFFFFC0007FFFFFFF000
310
1FFC0007FFFFFFF0001FFF0003FFFFFFFFF0001FFFFFFFFFF000E0003FFFFF00
310
03FF8001FFE000001FFC0007FF80007FC0007FFFFF0007FC0003FFFFF0003FF8
310
000001FFFE0000007FFFFFF0001FFFFFFC0003FFFFFFE0001FFC0003FFFFFFE0
310
001FFF0003FFFFFFFFF0003FFFFFFFFFF000E0003FFFFF0001FF8001FFE00000
310
1FFE0007FF80007FC0007FFFFE0003FC0007FFFFE0003FF8000001FFFE000000
310
7FFFFFF0001FFFFFFE0003FFFFFFE0003FFE0003FFFFFFE0003FFF0003FFFFFF
310
FFF0003FFFFF8001F000E0003FFFFF0001FF0001FFE000001FFE0007FF80007F
310
C0007FFFFE0003FC0007FFFFE0003FF8000001FFFE0000007FFFFFF0001FFFFF
310
FE0001FFFFFFC0003FFE0001FFFFFFC0003FFF0003FFFFFFFFF0003FFFFF0001
310
F000E0003FFFFF0003FF0001FFE000003FFE0007FF80007FC0007FFFFE0003FC
310
0007FFFFE0003FF8000001FFFE0000007FFFFFF0001FFFFFFF0001FFFFFFC000
310
7FFF0001FFFFFFC0007FFF0003FFFFFFFFF0003FFFFF0001F000E0003FFFFE00
310
03FF0003FFF000003FFE0003FF80007FC0007FFFFC0003FE0007FFFFE0003FF8
310
000001FFFE0000007FFFFFF0001FFFFFFF0000FFFFFF80007FFF0000FFFFFF80
310
007FFF0003FFFFFFFFF0003FFFFF0001F000E0003FFFFE0003FF0003FFF00000
310
3FFF0003FF80007FC0007FFFFC0007FE0007FFFFC0003FF8000001FFFE000000
310
7FFFFFF0001FFFFFFF80007FFFFF0000FFFF80007FFFFF0000FFFF0003FFFFFF
310
FFF0003FFFFF0003F000E0003FFFFC0003FE0003FFF000003FFF0003FF80007F
310
E0003FFFF80007FE0003FFFFC0007FF8000001FFFE0000007FFFFFF0001FFFFF
310
FF80003FFFFE0000FFFF80003FFFFE0000FFFF0003FFFFFFFFF0001FFFFE0003
310
F000F0001FFFF80003FE0003FFF000007FFF0001FF80007FE0003FFFF00007FE
310
0001FFFF80007FF8000001FFFE0000007FFFFFF0001FFFFFFFC0000FFFF80001
310
FFFFC0000FFFF80001FFFF0003FFFFFFFFF0001FFFFC0003F000F0000FFFF000
310
07FE0007FFF800007FFF0001FF80007FE0001FFFE00007FF0000FFFE00007FF8
310
000001FFFE0000007FFFFFF0001FFFFFFFC00003FFE00001FFFFC00003FFE000
310
01FFFF0003FFFFFFFFF8000FFFF80003F000F00003FFC00007FC0007FFF80000
310
7FFF8001FF80007FF00007FF80000FFF00007FF80000FFF8000001FFFE000000
310
7F80000000000001FFE000003E000003FFFFE000003E000003FFFF0003FFFFFF
310
FFF80003FFE00007F000F800000000000FFC0007FFF800007FFF8001FF80007F
310
F000000000000FFF000000000000FFF8000001FFFE0000007F80000000000001
310
FFF0000000000007FFFFF0000000000007FFFF0003FFFFFFFFFC00007E000007
310
F000F800000000000FFC0007FFF80000FFFF8000FF80007FF800000000001FFF
310
800000000001FFF8000001FFFE0000007F80000000000001FFF800000000000F
310
FFFFF800000000000FFFFF0003FFFFFFFFFC00000000000FF000FC0000000000
310
1FFC0007FFFC0000FFFF8000FF80007FF800000000003FFFC00000000001FFF8
310
000001FFFE0000007F80000000000001FFF800000000000FFFFFF80000000000
310
0FFFFF0003FFFFFFFFFE00000000001FF000FE00000000003FF8000FFFFC0000
310
FFFF8000FF80007FFC00000000003FFFC00000000003FFF8000001FFFE000000
310
7F80000000000001FFFC00000000001FFFFFFC00000000001FFFFF0003FFFFFF
310
FFFF00000000001FF000FF00000000003FF8000FFFFC0000FFFFC000FF80007F
310
FE00000000007FFFE00000000007FFF8000001FFFE0000007F80000000000001
310
FFFE00000000003FFFFFFE00000000003FFFFF0003FFFFFFFFFF80000000003F
310
F000FF80000000007FF8000FFFFC0001FFFFC0007F80007FFF0000000000FFFF
310
F0000000000FFFF800000000000000007F80000000000001FFFF8000000000FF
310
FFFFFF8000000000FFFFFF0003FFFFFFFFFFC0000000007FF000FFC000000000
310
FFF8000FFFFE0001FFFFC0007F80007FFF8000000001FFFFF8000000001FFFF8
310
00000000000000007F80000000000001FFFFC000000001FFFFFFFFC000000001
310
FFFFFF0003FFFFFFFFFFE000000000FFF000FFE000000003FFF0001FFFFE0001
310
FFFFC0007F80007FFFC000000007FFFFFE000000003FFFF80000000000000000
310
7F80000000000001FFFFE000000003FFFFFFFFE000000003FFFFFF0003FFFFFF
310
FFFFF000000003FFF000FFF80000000FFFF0001FFFFE0001FFFFE0007F80007F
310
FFF00000000FFFFFFF00000000FFFFF800000000000000007F80000000000001
310
FFFFF80000000FFFFFFFFFF80000000FFFFFFF0003FFFFFFFFFFFC0000000FFF
310
F000FFFE0000003FFFF0001FFFFE0003FFFFE0003F80007FFFFC0000003FFFFF
310
FFC0000003FFFFF800000000000000007F80000000000001FFFFFE0000003FFF
310
FFFFFFFE0000003FFFFFFF0003FFFFFFFFFFFF0000003FFFF000FFFF800000FF
310
FFF0001FFFFF0003FFFFE0003F80007FFFFF000001FFFFFFFFF800001FFFFFF8
310
00000000000000007F80000000000001FFFFFFC00001FFFFFFFFFFFFC00001FF
310
FFFFFF0003FFFFFFFFFFFFC00000FFFFF000FFFFF8000FFFFFFFFFFFFFFFFFFF
310
FFFFFFFFFFFFFFFFFFFFF0001FFFFFFFFFFF0000FFFFFFF80000000000000000
310
7FFFFFFFFFFFFFFFFFFFFFFC001FFFFFFFFFFFFFFC001FFFFFFFFFFFFFFFFFFF
310
FFFFFFFC001FFFFFF000FFFFFFFFFFFFFFFFFFFFFFFFFFFFFFFFFFFFFFFFFFFF
310
FFFFFFFFFFFFFFFFFFFFFFFFFFFFFFFFFFFFFFFFFFFFFFFFFFFFFFFFFFFFFFFF
310
FFFFFFFFFFFFFFFFFFFFFFFFFFFFFFFFFFFFFFFFFFFFFFFFFFFFFFFFFFFFFFFF
310
F000FFFFFFFFFFFFFFFFFFFFFFFFFFFFFFFFFFFFFFFFFFFFFFFFFFFFFFFFFFFF
310
FFFFFFFFFFFFFFFFFFFFFFFFFFFFFFFFFFFFFFFFFFFFFFFFFFFFFFFFFFFFFFFF
310
FFFFFFFFFFFFFFFFFFFFFFFFFFFFFFFFFFFFFFFFFFFFFFFFF000FFFFFFFFFFFF
310
FFFFFFFFFFFFFFFFFFFFFFFFFFFFFFFFFFFFFFFFFFFFFFFFFFFFFFFFFFFFFFFF
310
FFFFFFFFFFFFFFFFFFFFFFFFFFFFFFFFFFFFFFFFFFFFFFFFFFFFFFFFFFFFFFFF
310
FFFFFFFFFFFFFFFFFFFFFFFFFFFFFFFFF000FFFFFFFFFFFFFFFFFFFFFFFFFFFF
310
FFFFFFFFFFFFFFFFFFFFFFFFFFFFFFFFFFFFFFFFFFFFFFFFFFFFFFFFFFFFFFFF
310
FFFFFFFFFFFFFFFFFFFFFFFFFFFFFFFFFFFFFFFFFFFFFFFFFFFFFFFFFFFFFFFF
310
FFFFFFFFFFFFFFFFF000FFFFFFFFFFFFFFFFFFFFFFFFFFFFFFFFFFFFFFFFFFFF
310
FFFFFFFFFFFFFFFFFFFFFFFFFFFFFFFFFFFFFFFFFFFFFFFFFFFFFFFFFFFFFFFF
310
FFFFFFFFFFFFFFFFFFFFFFFFFFFFFFFFFFFFFFFFFFFFFFFFFFFFFFFFFFFFFFFF
310
F000FFFFFFFFFFFFFFFFFFFFFFFFFFFFFFFFFFFFFFFFFFFFFFFFFFFFFFFFFFFF
310
FFFFFFFFFFFFFFFFFFFFFFFFFFFFFFFFFFFFFFFFFFFFFFFFFFFFFFFFFFFFFFFF
310
FFFFFFFFFFFFFFFFFFFFFFFFFFFFFFFFFFFFFFFFFFFFFFFFF000FFFFFFFFFFFF
310
FFFFFFFFFFFFFFFFFFFFFFFFFFFFFFFFFFFFFFFFFFFFFFFFFFFFFFFFFFFFFFFF
310
FFFFFFFFFFFFFFFFFFFFFFFFFFFFFFFFFFFFFFFFFFFFFFFFFFFFFFFFFFFFFFFF
310
FFFFFFFFFFFFFFFFFFFFFFFFFFFFFFFFF000FFFFFFFFFFFFFFFFFFFFFFFFFFFF
310
FFFFFFFFFFFFFFFFFFFFFFFFFFFFFFFFFFFFFFFFFFFFFFFFFFFFFFFFFFFFFFFF
310
FFFFFFFFFFFFFFFFFFFFFFFFFFFFFFFFFFFFFFFFFFFFFFFFFFFFFFFFFFFFFFFF
310
FFFFFFFFFFFFFFFFF000FFFFFFFFFFFFFFFFFFFFFFFFFFFFFFFFFFFFFFFFFFFF
310
FFFFFFFFFFFFFFFFFFFFFFFFFFFFFFFFFFFFFFFFFFFFFFFFFFFFFFFFFFFFFFFF
310
FFFFFFFFFFFFFFFFFFFFFFFFFFFFFFFFFFFFFFFFFFFFFFFFFFFFFFFFFFFFFFFF
310
F000FFFFFFFFFFFFFFFFFFFFFFFFFFFFFFFFFFFFFFFFFFFFFFFFFFFFFFFFFFFF
310
FFFFFFFFFFFFFFFFFFFFFFFFFFFFFFFFFFFFFFFFFFFFFFFFFFFFFFFFFFFFFFFF
310
FFFFFFFFFFFFFFFFFFFFFFFFFFFFFFFFFFFFFFFFFFFFFFFFF000FFFFFFFFFFFF
310
FFFFFFFFFFFFFFFFFFFFFFFFFFFFFFFFFFFFFFFFFFFFFFFFFFFFFFFFFFFFFFFF
310
FFFFFFFFFFFFFFFFFFFFFFFFFFFFFFFFFFFFFFFFFFFFFFFFFFFFFFFFFFFFFFFF
310
FFFFFFFFFFFFFFFFFFFFFFFFFFFFFFFFF000FFFFFFFFFFFFFFFFFFFFFFFFFFFF
310
FFFFFFFFFFFFFFFFFFFFFFFFFFFFFFFFFFFFFFFFFFFFFFFFFFFFFFFFFFFFFFFF
310
FFFFFFFFFFFFFFFFFFFFFFFFFFFFFFFFFFFFFFFFFFFFFFFFFFFFFFFFFFFFFFFF
310
FFFFFFFFFFFFFFFFF000FFFFFFFFFFFFFFFFFFFFFFFFFFFFFFFFFFFFFFFFFFFF
310
FFFFFFFFFFFFFFFFFFFFFFFFFFFFFFFFFFFFFFFFFFFFFFFFFFFFFFFFFFFFFFFF
310
FFFFFFFFFFFFFFFFFFFFFFFFFFFFFFFFFFFFFFFFFFFFFFFFFFFFFFFFFFFFFFFF
310
F000FFFFFFFFFFFFFFFFFFFFFFFFFFFFFFFFFFFFFFFFFFFFFFFFFFFFFFFFFFFF
310
FFFFFFFFFFFFFFFFFFFFFFFFFFFFFFFFFFFFFFFFFFFFFFFFFFFFFFFFFFFFFFFF
310
FFFFFFFFFFFFFFFFFFFFFFFFFFFFFFFFFFFFFFFFFFFFFFFFF000FFFFFFFFFFFF
310
FFFFFFFFFFFFFFFFFFFFFFFFFFFFFFFFFFFFFFFFFFFFFFFFFFFFFFFFFFFFFFFF
310
FFFFFFFFFFFFFFFFFFFFFFFFFFFFFFFFFFFFFFFFFFFFFFFFFFFFFFFFFFFFFFFF
310
FFFFFFFFFFFFFFFFFFFFFFFFFFFFFFFFF000FFFFFFFFFFFFFFFFFFFFFFFFFFFF
310
FFFFFFFFFFFFFFFFFFFFFFFFFFFFFFFFFFFFFFFFFFFFFFFFFFFFFFFFFFFFFFFF
310
FFFFFFFFFFFFFFFFFFFFFFFFFFFFFFFFFFFFFFFFFFFFFFFFFFFFFFFFFFFFFFFF
310
FFFFFFFFFFFFFFFFF000FFFFFFFFFFFFFFFFFFFFFFFFFFFFFFFFFFFFFFFFFFFF
310
FFFFFFFFFFFFFFFFFFFFFFFFFFFFFFFFFFFFFFFFFFFFFFFFFFFFFFFFFFFFFFFF
310
FFFFFFFFFFFFFFFFFFFFFFFFFFFFFFFFFFFFFFFFFFFFFFFFFFFFFFFFFFFFFFFF
310
F000FFFFFFFFFFFFFFFFFFFFFFFFFFFFFFFFFFFFFFFFFFFFFFFFFFFFFFFFFFFF
310
FFFFFFFFFFFFFFFFFFFFFFFFFFFFFFFFFFFFFFFFFFFFFFFFFFFFFFFFFFFFFFFF
310
FFFFFFFFFFFFFFFFFFFFFFFFFFFFFFFFFFFFFFFFFFFFFFFFF000FFFFFFFFFFFF
310
FFFFFFFFFFFFFFFFFFFFFFFFFFFFFFFFFFFFFFFFFFFFFFFFFFFFFFFFFFFFFFFF
310
FFFFFFFFFFFFFFFFFFFFFFFFFFFFFFFFFFFFFFFFFFFFFFFFFFFFFFFFFFFFFFFF
310
FFFFFFFFFFFFFFFFFFFFFFFFFFFFFFFFF000FFFFFFFFFFFFFFFFFFFFFFFFFFFF
310
FFFFFFFFFFFFFFFFFFFFFFFFFFFFFFFFFFFFFFFFFFFFFFFFFFFFFFFFFFFFFFFF
310
FFFFFFFFFFFFFFFFFFFFFFFFFFFFFFFFFFFFFFFFFFFFFFFFFFFFFFFFFFFFFFFF
310
FFFFFFFFFFFFFFFFF000FFFFFFFFFFFFFFFFFFFFFFFFFFFFFFFFFFFFFFFFFFFF
310
FFFFFFFFFFFFFFFFFFFFFFFFFFFFFFFFFFFFFFFFFFFFFFFFFFFFFFFFFFFFFFFF
310
FFFFFFFFFFFFFFFFFFFFFFFFFFFFFFFFFFFFFFFFFFFFFFFFFFFFFFFFFFFFFFFF
310
F000FFFFFFFFFFFFFFFFFFFFFFFFFFFFFFFFFFFFFFFFFFFFFFFFFFFFFFFFFFFF
310
FFFFFFFFFFFFFFFFFFFFFFFFFFFFFFFFFFFFFFFFFFFFFFFFFFFFFFFFFFFFFFFF
310
FFFFFFFFFFFFFFFFFFFFFFFFFFFFFFFFFFFFFFFFFFFFFFFFF000FFFFFFFFFFFF
310
FFFFFFFFFFFFFFFFFFFFFFFFFFFFFFFFFFFFFFFFFFFFFFFFFFFFFFFFFFFFFFFF
310
FFFFFFFFFFFFFFFFFFFFFFFFFFFFFFFFFFFFFFFFFFFFFFFFFFFFFFFFFFFFFFFF
310
FFFFFFFFFFFFFFFFFFFFFFFFFFFFFFFFF0000000000000000000000000000000
310
0000000000000000000000000000000000000000000000000000000000000000
310
0000000000000000000000000000000000000000000000000000000000000000
310
0000000000000000000000000000000000000000000000000000000000000000
310
0000000000000000000000000000000000000000000000000000000000000000
310
0000000000000000000000000000000000000000000000000000000000000000
310
0000000000000000000000000000000000000000000000000000000000000000
310
0000000000000000000000000000000000000000000000000000000000000000
310
0000000000000000000000000000000000000000000000000000000000000000
310
0000000000000000000000000000000000000000000000000000000000000000
310
0000000000000000000000000000000000000000000000000000000000000000
310
0000000000000000000000000000000000000000000000000000000000000000
310
0000000000000000000000000000000000000000000000000000000000000000
310
0000000000000000000000000000000000000000000000000000000000000000
310
0000000000000000000000000000000000000000000000000000000000000000
310
0000000000000000000000000000000000000000000000000000000000000000
  1
OLE
  0
ENDSEC
  0
SECTION
  2
OBJECTS
  0
DICTIONARY
  5
C
330
0
100
AcDbDictionary
281
     1
  3
ACAD_GROUP
350
D
  3
ACAD_LAYOUT
350
1A
  3
ACAD_MLINESTYLE
350
17
  3
ACAD_PLOTSETTINGS
350
19
  3
ACAD_PLOTSTYLENAME
350
E
  3
ACAD_SCALELIST
350
47
  0
DICTIONARY
  5
D
102
{ACAD_REACTORS
330
C
102
}
330
C
100
AcDbDictionary
281
     1
  0
DICTIONARY
  5
1A
102
{ACAD_REACTORS
330
C
102
}
330
C
100
AcDbDictionary
281
     1
  3
Layout1
350
1E
  3
Layout2
350
26
  3
Model
350
22
  0
DICTIONARY
  5
17
102
{ACAD_REACTORS
330
C
102
}
330
C
100
AcDbDictionary
281
     1
  3
Standard
350
18
  0
DICTIONARY
  5
19
102
{ACAD_REACTORS
330
C
102
}
330
C
100
AcDbDictionary
281
     1
  0
ACDBDICTIONARYWDFLT
  5
E
102
{ACAD_REACTORS
330
C
102
}
330
C
100
AcDbDictionary
281
     1
  3
Normal
350
F
100
AcDbDictionaryWithDefault
340
F
  0
DICTIONARY
  5
47
102
{ACAD_REACTORS
330
C
102
}
330
C
100
AcDbDictionary
281
     1
  3
A0
350
48
  3
A1
350
49
  3
A2
350
4A
  3
A3
350
4B
  3
A4
350
4C
  3
A5
350
4D
  3
A6
350
4E
  3
A7
350
4F
  3
A8
350
50
  3
A9
350
51
  3
B0
350
52
  3
B1
350
53
  3
B2
350
54
  3
B3
350
55
  3
B4
350
56
  3
B5
350
57
  3
B6
350
58
  3
B7
350
59
  3
B8
350
5A
  3
B9
350
5B
  3
C0
350
5C
  3
C1
350
5D
  3
C2
350
5E
  3
C3
350
5F
  3
C4
350
60
  3
C5
350
61
  3
C6
350
62
  3
C7
350
63
  3
C8
350
64
  3
C9
350
65
  3
D0
350
66
  3
D1
350
67
  3
D2
350
68
  0
LAYOUT
  5
1E
102
{ACAD_REACTORS
330
1A
102
}
330
1A
100
AcDbPlotSettings
  1

  2
none_device
  4

  6

 40
0.0
 41
0.0
 42
0.0
 43
0.0
 44
0.0
 45
0.0
 46
0.0
 47
0.0
 48
0.0
 49
0.0
140
0.0
141
0.0
142
1.0
143
1.0
 70
   688
 72
     1
 73
     0
 74
     5
  7

 75
    16
147
1.0
148
0.0
149
0.0
100
AcDbLayout
  1
Layout1
 70
     1
 71
     1
 10
0.0
 20
0.0
 11
420.0
 21
297.0
 12
0.0
 22
0.0
 32
0.0
 14
1.0000000000E+20
 24
1.0000000000E+20
 34
1.0000000000E+20
 15
-1.0000000000E+20
 25
-1.0000000000E+20
 35
-1.0000000000E+20
146
0.0
 13
0.0
 23
0.0
 33
0.0
 16
1.0
 26
0.0
 36
0.0
 17
0.0
 27
1.0
 37
0.0
 76
     0
330
1B
  0
LAYOUT
  5
26
102
{ACAD_REACTORS
330
1A
102
}
330
1A
100
AcDbPlotSettings
  1

  2
none_device
  4

  6

 40
0.0
 41
0.0
 42
0.0
 43
0.0
 44
0.0
 45
0.0
 46
0.0
 47
0.0
 48
0.0
 49
0.0
140
0.0
141
0.0
142
1.0
143
1.0
 70
   688
 72
     1
 73
     0
 74
     5
  7

 75
    16
147
1.0
148
0.0
149
0.0
100
AcDbLayout
  1
Layout2
 70
     1
 71
     2
 10
0.0
 20
0.0
 11
0.0
 21
0.0
 12
0.0
 22
0.0
 32
0.0
 14
0.0
 24
0.0
 34
0.0
 15
0.0
 25
0.0
 35
0.0
146
0.0
 13
0.0
 23
0.0
 33
0.0
 16
1.0
 26
0.0
 36
0.0
 17
0.0
 27
1.0
 37
0.0
 76
     0
330
23
  0
LAYOUT
  5
22
102
{ACAD_REACTORS
330
1A
102
}
330
1A
100
AcDbPlotSettings
  1

  2
none_device
  4
Letter_(8.50_x_11.00_Inches)
  6

 40
6.35
 41
6.35
 42
6.35000508
 43
6.35000508
 44
215.9
 45
279.4
 46
0.0
 47
0.0
 48
0.0
 49
0.0
140
0.0
141
0.0
142
1.0
143
1.0
 70
  1712
 72
     1
 73
     0
 74
     0
  7

 75
     0
147
1.0
148
0.0
149
0.0
100
AcDbLayout
  1
Model
 70
     1
 71
     0
 10
0.0
 20
0.0
 11
297.0
 21
210.0
 12
0.0
 22
0.0
 32
0.0
 14
0.0
 24
0.0
 34
0.0
 15
297.0
 25
210.0
 35
0.0
146
0.0
 13
0.0
 23
0.0
 33
0.0
 16
1.0
 26
0.0
 36
0.0
 17
0.0
 27
1.0
 37
0.0
 76
     0
330
1F
331
29
  0
MLINESTYLE
  5
18
102
{ACAD_REACTORS
330
17
102
}
330
17
100
AcDbMlineStyle
  2
Standard
 70
     0
  3

 62
   256
 51
90.0
 52
90.0
 71
     2
 49
0.5
 62
   256
  6
BYLAYER
 49
-0.5
 62
   256
  6
BYLAYER
  0
ACDBPLACEHOLDER
  5
F
102
{ACAD_REACTORS
330
E
102
}
330
E
  0
SCALE
  5
48
102
{ACAD_REACTORS
330
47
102
}
330
47
100
AcDbScale
 70
     0
300
1:1
140
1.0
141
1.0
290
     1
  0
SCALE
  5
49
102
{ACAD_REACTORS
330
47
102
}
330
47
100
AcDbScale
 70
     0
300
1:2
140
1.0
141
2.0
290
     0
  0
SCALE
  5
4A
102
{ACAD_REACTORS
330
47
102
}
330
47
100
AcDbScale
 70
     0
300
1:4
140
1.0
141
4.0
290
     0
  0
SCALE
  5
4B
102
{ACAD_REACTORS
330
47
102
}
330
47
100
AcDbScale
 70
     0
300
1:5
140
1.0
141
5.0
290
     0
  0
SCALE
  5
4C
102
{ACAD_REACTORS
330
47
102
}
330
47
100
AcDbScale
 70
     0
300
1:8
140
1.0
141
8.0
290
     0
  0
SCALE
  5
4D
102
{ACAD_REACTORS
330
47
102
}
330
47
100
AcDbScale
 70
     0
300
1:10
140
1.0
141
10.0
290
     0
  0
SCALE
  5
4E
102
{ACAD_REACTORS
330
47
102
}
330
47
100
AcDbScale
 70
     0
300
1:16
140
1.0
141
16.0
290
     0
  0
SCALE
  5
4F
102
{ACAD_REACTORS
330
47
102
}
330
47
100
AcDbScale
 70
     0
300
1:20
140
1.0
141
20.0
290
     0
  0
SCALE
  5
50
102
{ACAD_REACTORS
330
47
102
}
330
47
100
AcDbScale
 70
     0
300
1:30
140
1.0
141
30.0
290
     0
  0
SCALE
  5
51
102
{ACAD_REACTORS
330
47
102
}
330
47
100
AcDbScale
 70
     0
300
1:40
140
1.0
141
40.0
290
     0
  0
SCALE
  5
52
102
{ACAD_REACTORS
330
47
102
}
330
47
100
AcDbScale
 70
     0
300
1:50
140
1.0
141
50.0
290
     0
  0
SCALE
  5
53
102
{ACAD_REACTORS
330
47
102
}
330
47
100
AcDbScale
 70
     0
300
1:100
140
1.0
141
100.0
290
     0
  0
SCALE
  5
54
102
{ACAD_REACTORS
330
47
102
}
330
47
100
AcDbScale
 70
     0
300
2:1
140
2.0
141
1.0
290
     0
  0
SCALE
  5
55
102
{ACAD_REACTORS
330
47
102
}
330
47
100
AcDbScale
 70
     0
300
4:1
140
4.0
141
1.0
290
     0
  0
SCALE
  5
56
102
{ACAD_REACTORS
330
47
102
}
330
47
100
AcDbScale
 70
     0
300
8:1
140
8.0
141
1.0
290
     0
  0
SCALE
  5
57
102
{ACAD_REACTORS
330
47
102
}
330
47
100
AcDbScale
 70
     0
300
10:1
140
10.0
141
1.0
290
     0
  0
SCALE
  5
58
102
{ACAD_REACTORS
330
47
102
}
330
47
100
AcDbScale
 70
     0
300
100:1
140
100.0
141
1.0
290
     0
  0
SCALE
  5
59
102
{ACAD_REACTORS
330
47
102
}
330
47
100
AcDbScale
 70
     0
300
1/128" = 1'-0"
140
0.0078125
141
12.0
290
     0
  0
SCALE
  5
5A
102
{ACAD_REACTORS
330
47
102
}
330
47
100
AcDbScale
 70
     0
300
1/64" = 1'-0"
140
0.015625
141
12.0
290
     0
  0
SCALE
  5
5B
102
{ACAD_REACTORS
330
47
102
}
330
47
100
AcDbScale
 70
     0
300
1/32" = 1'-0"
140
0.03125
141
12.0
290
     0
  0
SCALE
  5
5C
102
{ACAD_REACTORS
330
47
102
}
330
47
100
AcDbScale
 70
     0
300
1/16" = 1'-0"
140
0.0625
141
12.0
290
     0
  0
SCALE
  5
5D
102
{ACAD_REACTORS
330
47
102
}
330
47
100
AcDbScale
 70
     0
300
3/32" = 1'-0"
140
0.09375
141
12.0
290
     0
  0
SCALE
  5
5E
102
{ACAD_REACTORS
330
47
102
}
330
47
100
AcDbScale
 70
     0
300
1/8" = 1'-0"
140
0.125
141
12.0
290
     0
  0
SCALE
  5
5F
102
{ACAD_REACTORS
330
47
102
}
330
47
100
AcDbScale
 70
     0
300
3/16" = 1'-0"
140
0.1875
141
12.0
290
     0
  0
SCALE
  5
60
102
{ACAD_REACTORS
330
47
102
}
330
47
100
AcDbScale
 70
     0
300
1/4" = 1'-0"
140
0.25
141
12.0
290
     0
  0
SCALE
  5
61
102
{ACAD_REACTORS
330
47
102
}
330
47
100
AcDbScale
 70
     0
300
3/8" = 1'-0"
140
0.375
141
12.0
290
     0
  0
SCALE
  5
62
102
{ACAD_REACTORS
330
47
102
}
330
47
100
AcDbScale
 70
     0
300
1/2" = 1'-0"
140
0.5
141
12.0
290
     0
  0
SCALE
  5
63
102
{ACAD_REACTORS
330
47
102
}
330
47
100
AcDbScale
 70
     0
300
3/4" = 1'-0"
140
0.75
141
12.0
290
     0
  0
SCALE
  5
64
102
{ACAD_REACTORS
330
47
102
}
330
47
100
AcDbScale
 70
     0
300
1" = 1'-0"
140
1.0
141
12.0
290
     0
  0
SCALE
  5
65
102
{ACAD_REACTORS
330
47
102
}
330
47
100
AcDbScale
 70
     0
300
1-1/2" = 1'-0"
140
1.5
141
12.0
290
     0
  0
SCALE
  5
66
102
{ACAD_REACTORS
330
47
102
}
330
47
100
AcDbScale
 70
     0
300
3" = 1'-0"
140
3.0
141
12.0
290
     0
  0
SCALE
  5
67
102
{ACAD_REACTORS
330
47
102
}
330
47
100
AcDbScale
 70
     0
300
6" = 1'-0"
140
6.0
141
12.0
290
     0
  0
SCALE
  5
68
102
{ACAD_REACTORS
330
47
102
}
330
47
100
AcDbScale
 70
     0
300
1'-0" = 1'-0"
140
12.0
141
12.0
290
     0
  0
ENDSEC
  0
EOF
