  0
SECTION
  2
HEADER
  9
$ACADVER
  1
AC1015
  9
$ACADMAINTVER
 70
     6
  9
$DWGCODEPAGE
  3
ANSI_1252
  9
$INSBASE
 10
0.0
 20
0.0
 30
0.0
  9
$EXTMIN
 10
0.0
 20
0.0
 30
0.0
  9
$EXTMAX
 10
297.0
 20
210.0
 30
0.0
  9
$LIMMIN
 10
0.0
 20
0.0
  9
$LIMMAX
 10
297.0
 20
210.0
  9
$ORTHOMODE
 70
     0
  9
$REGENMODE
 70
     1
  9
$FILLMODE
 70
     1
  9
$QTEXTMODE
 70
     0
  9
$MIRRTEXT
 70
     1
  9
$LTSCALE
 40
1.0
  9
$ATTMODE
 70
     1
  9
$TEXTSIZE
 40
2.0
  9
$TRACEWID
 40
1.0
  9
$TEXTSTYLE
  7
Standard
  9
$CLAYER
  8
0
  9
$CELTYPE
  6
ByLayer
  9
$CECOLOR
 62
   256
  9
$CELTSCALE
 40
1.0
  9
$DISPSILH
 70
     0
  9
$DIMSCALE
 40
1.0
  9
$DIMASZ
 40
3.0
  9
$DIMEXO
 40
0.0
  9
$DIMDLI
 40
3.75
  9
$DIMRND
 40
0.0
  9
$DIMDLE
 40
0.0
  9
$DIMEXE
 40
1.0
  9
$DIMTP
 40
0.0
  9
$DIMTM
 40
0.0
  9
$DIMTXT
 40
2.0
  9
$DIMCEN
 40
2.5
  9
$DIMTSZ
 40
0.0
  9
$DIMTOL
 70
     0
  9
$DIMLIM
 70
     0
  9
$DIMTIH
 70
     1
  9
$DIMTOH
 70
     1
  9
$DIMSE1
 70
     0
  9
$DIMSE2
 70
     0
  9
$DIMTAD
 70
     1
  9
$DIMZIN
 70
     0
  9
$DIMBLK
  1

  9
$DIMASO
 70
     1
  9
$DIMSHO
 70
     1
  9
$DIMPOST
  1

  9
$DIMAPOST
  1

  9
$DIMALT
 70
     0
  9
$DIMALTD
 70
     3
  9
$DIMALTF
 40
0.0393700787
  9
$DIMLFAC
 40
1.0
  9
$DIMTOFL
 70
     1
  9
$DIMTVP
 40
0.0
  9
$DIMTIX
 70
     0
  9
$DIMSOXD
 70
     0
  9
$DIMSAH
 70
     0
  9
$DIMBLK1
  1

  9
$DIMBLK2
  1

  9
$DIMSTYLE
  2
ISO-25
  9
$DIMCLRD
 70
     0
  9
$DIMCLRE
 70
     0
  9
$DIMCLRT
 70
     0
  9
$DIMTFAC
 40
1.0
  9
$DIMGAP
 40
1.524
  9
$DIMJUST
 70
     0
  9
$DIMSD1
 70
     0
  9
$DIMSD2
 70
     0
  9
$DIMTOLJ
 70
     0
  9
$DIMTZIN
 70
     0
  9
$DIMALTZ
 70
     0
  9
$DIMALTTZ
 70
     0
  9
$DIMUPT
 70
     0
  9
$DIMDEC
 70
     2
  9
$DIMTDEC
 70
     3
  9
$DIMALTU
 70
     2
  9
$DIMALTTD
 70
     3
  9
$DIMTXSTY
  7
Standard
  9
$DIMAUNIT
 70
     0
  9
$DIMADEC
 70
     2
  9
$DIMALTRND
 40
0.0
  9
$DIMAZIN
 70
     0
  9
$DIMDSEP
 70
    44
  9
$DIMATFIT
 70
     3
  9
$DIMFRAC
 70
     0
  9
$DIMLDRBLK
  1

  9
$DIMLUNIT
 70
     2
  9
$DIMLWD
 70
    -2
  9
$DIMLWE
 70
    -2
  9
$DIMTMOVE
 70
     0
  9
$LUNITS
 70
     2
  9
$LUPREC
 70
     2
  9
$SKETCHINC
 40
1.0
  9
$FILLETRAD
 40
10.0
  9
$AUNITS
 70
     0
  9
$AUPREC
 70
     2
  9
$MENU
  1
.
  9
$ELEVATION
 40
0.0
  9
$PELEVATION
 40
0.0
  9
$THICKNESS
 40
0.0
  9
$LIMCHECK
 70
     0
  9
$CHAMFERA
 40
0.0
  9
$CHAMFERB
 40
0.0
  9
$CHAMFERC
 40
0.0
  9
$CHAMFERD
 40
0.0
  9
$SKPOLY
 70
     0
  9
$TDCREATE
 40
2457662.597596898
  9
$TDUCREATE
 40
2457662.514263565
  9
$TDUPDATE
 40
2457662.597598241
  9
$TDUUPDATE
 40
2457662.514264907
  9
$TDINDWG
 40
0.0000000116
  9
$TDUSRTIMER
 40
0.0000000116
  9
$USRTIMER
 70
     1
  9
$ANGBASE
 50
0.0
  9
$ANGDIR
 70
     0
  9
$PDMODE
 70
     0
  9
$PDSIZE
 40
-1.0
  9
$PLINEWID
 40
0.0
  9
$SPLFRAME
 70
     0
  9
$SPLINETYPE
 70
     6
  9
$SPLINESEGS
 70
     8
  9
$HANDSEED
  5
22A
  9
$SURFTAB1
 70
     6
  9
$SURFTAB2
 70
     6
  9
$SURFTYPE
 70
     6
  9
$SURFU
 70
     6
  9
$SURFV
 70
     6
  9
$UCSBASE
  2

  9
$UCSNAME
  2

  9
$UCSORG
 10
0.0
 20
0.0
 30
0.0
  9
$UCSXDIR
 10
1.0
 20
0.0
 30
0.0
  9
$UCSYDIR
 10
0.0
 20
1.0
 30
0.0
  9
$UCSORTHOREF
  2

  9
$UCSORTHOVIEW
 70
     0
  9
$UCSORGTOP
 10
0.0
 20
0.0
 30
0.0
  9
$UCSORGBOTTOM
 10
0.0
 20
0.0
 30
0.0
  9
$UCSORGLEFT
 10
0.0
 20
0.0
 30
0.0
  9
$UCSORGRIGHT
 10
0.0
 20
0.0
 30
0.0
  9
$UCSORGFRONT
 10
0.0
 20
0.0
 30
0.0
  9
$UCSORGBACK
 10
0.0
 20
0.0
 30
0.0
  9
$PUCSBASE
  2

  9
$PUCSNAME
  2

  9
$PUCSORG
 10
0.0
 20
0.0
 30
0.0
  9
$PUCSXDIR
 10
1.0
 20
0.0
 30
0.0
  9
$PUCSYDIR
 10
0.0
 20
1.0
 30
0.0
  9
$PUCSORTHOREF
  2

  9
$PUCSORTHOVIEW
 70
     0
  9
$PUCSORGTOP
 10
0.0
 20
0.0
 30
0.0
  9
$PUCSORGBOTTOM
 10
0.0
 20
0.0
 30
0.0
  9
$PUCSORGLEFT
 10
0.0
 20
0.0
 30
0.0
  9
$PUCSORGRIGHT
 10
0.0
 20
0.0
 30
0.0
  9
$PUCSORGFRONT
 10
0.0
 20
0.0
 30
0.0
  9
$PUCSORGBACK
 10
0.0
 20
0.0
 30
0.0
  9
$USERI1
 70
     0
  9
$USERI2
 70
     0
  9
$USERI3
 70
     0
  9
$USERI4
 70
     0
  9
$USERI5
 70
     0
  9
$USERR1
 40
0.0
  9
$USERR2
 40
0.0
  9
$USERR3
 40
0.0
  9
$USERR4
 40
0.0
  9
$USERR5
 40
0.0
  9
$WORLDVIEW
 70
     1
  9
$SHADEDGE
 70
     3
  9
$SHADEDIF
 70
    70
  9
$TILEMODE
 70
     1
  9
$MAXACTVP
 70
    64
  9
$PINSBASE
 10
0.0
 20
0.0
 30
0.0
  9
$PLIMCHECK
 70
     0
  9
$PEXTMIN
 10
1.0000000000E+20
 20
1.0000000000E+20
 30
1.0000000000E+20
  9
$PEXTMAX
 10
-1.0000000000E+20
 20
-1.0000000000E+20
 30
-1.0000000000E+20
  9
$PLIMMIN
 10
0.0
 20
0.0
  9
$PLIMMAX
 10
420.0
 20
297.0
  9
$UNITMODE
 70
     0
  9
$VISRETAIN
 70
     1
  9
$PLINEGEN
 70
     0
  9
$PSLTSCALE
 70
     1
  9
$TREEDEPTH
 70
  3020
  9
$CMLSTYLE
  2
Standard
  9
$CMLJUST
 70
     0
  9
$CMLSCALE
 40
20.0
  9
$PROXYGRAPHICS
 70
     1
  9
$MEASUREMENT
 70
     1
  9
$CELWEIGHT
370
    -1
  9
$ENDCAPS
280
     0
  9
$JOINSTYLE
280
     0
  9
$LWDISPLAY
290
     1
  9
$INSUNITS
 70
     4
  9
$HYPERLINKBASE
  1

  9
$STYLESHEET
  1

  9
$XEDIT
290
     1
  9
$CEPSNTYPE
380
     0
  9
$PSTYLEMODE
290
     1
  9
$FINGERPRINTGUID
  2
{7C5946DA-CCF2-483E-975F-DF258F867A47}
  9
$VERSIONGUID
  2
{FAEB1C32-E019-11D5-929B-00C0DF256EC4}
  9
$EXTNAMES
290
     1
  9
$PSVPSCALE
 40
0.0
  9
$OLESTARTUP
290
     0
  0
ENDSEC
  0
SECTION
  2
CLASSES
  0
CLASS
  1
ACDBDICTIONARYWDFLT
  2
AcDbDictionaryWithDefault
  3
ObjectDBX Classes
 90
        0
280
     0
281
     0
  0
CLASS
  1
VISUALSTYLE
  2
AcDbVisualStyle
  3
ObjectDBX Classes
 90
     4095
280
     0
281
     0
  0
CLASS
  1
MATERIAL
  2
AcDbMaterial
  3
ObjectDBX Classes
 90
     1153
280
     0
281
     0
  0
CLASS
  1
SCALE
  2
AcDbScale
  3
ObjectDBX Classes
 90
     1153
280
     0
281
     0
  0
CLASS
  1
TABLESTYLE
  2
AcDbTableStyle
  3
ObjectDBX Classes
 90
     4095
280
     0
281
     0
  0
CLASS
  1
MLEADERSTYLE
  2
AcDbMLeaderStyle
  3
ACDB_MLEADERSTYLE_CLASS
 90
     4095
280
     0
281
     0
  0
CLASS
  1
SUN
  2
AcDbSun
  3
SCENEOE
 90
     1153
280
     0
281
     0
  0
CLASS
  1
ACDBPLACEHOLDER
  2
AcDbPlaceHolder
  3
ObjectDBX Classes
 90
        0
280
     0
281
     0
  0
CLASS
  1
LAYOUT
  2
AcDbLayout
  3
ObjectDBX Classes
 90
        0
280
     0
281
     0
  0
ENDSEC
  0
SECTION
  2
TABLES
  0
TABLE
  2
VPORT
  5
8
330
0
100
AcDbSymbolTable
 70
     1
  0
VPORT
  5
29
330
8
100
AcDbSymbolTableRecord
100
AcDbViewportTableRecord
  2
*Active
 70
     0
 10
0.0
 20
0.0
 11
1.0
 21
1.0
 12
148.5
 22
105.0
 13
0.0
 23
0.0
 14
10.0
 24
10.0
 15
10.0
 25
10.0
 16
0.0
 26
0.0
 36
1.0
 17
0.0
 27
0.0
 37
0.0
 40
210.0
 41
1.4142857143
 42
50.0
 43
0.0
 44
0.0
 50
0.0
 51
0.0
 71
     0
 72
  2000
 73
     1
 74
     3
 75
     0
 76
     0
 77
     0
 78
     0
281
     0
 65
     1
110
0.0
120
0.0
130
0.0
111
1.0
121
0.0
131
0.0
112
0.0
122
1.0
132
0.0
 79
     0
146
0.0
  0
ENDTAB
  0
TABLE
  2
LTYPE
  5
5
330
0
100
AcDbSymbolTable
 70
     6
  0
LTYPE
  5
14
330
5
100
AcDbSymbolTableRecord
100
AcDbLinetypeTableRecord
  2
ByBlock
 70
     0
  3

 72
    65
 73
     0
 40
0.0
  0
LTYPE
  5
15
330
5
100
AcDbSymbolTableRecord
100
AcDbLinetypeTableRecord
  2
ByLayer
 70
     0
  3

 72
    65
 73
     0
 40
0.0
  0
LTYPE
  5
16
330
5
100
AcDbSymbolTableRecord
100
AcDbLinetypeTableRecord
  2
Continuous
 70
     0
  3
Solid line
 72
    65
 73
     0
 40
0.0
  0
LTYPE
  5
6E
330
5
100
AcDbSymbolTableRecord
100
AcDbLinetypeTableRecord
  2
HIDDEN
 70
     0
  3
Hidden __ __ __ __ __ __ __ __ __ __ __ __ __ __
 72
    65
 73
     2
 40
1.905
 49
1.27
 74
     0
 49
-0.635
 74
     0
  0
LTYPE
  5
6F
330
5
100
AcDbSymbolTableRecord
100
AcDbLinetypeTableRecord
  2
PHANTOM
 70
     0
  3
Phantom ______  __  __  ______  __  __  ______
 72
    65
 73
     6
 40
12.7
 49
6.35
 74
     0
 49
-1.27
 74
     0
 49
1.27
 74
     0
 49
-1.27
 74
     0
 49
1.27
 74
     0
 49
-1.27
 74
     0
  0
LTYPE
  5
70
330
5
100
AcDbSymbolTableRecord
100
AcDbLinetypeTableRecord
  2
CENTER
 70
     0
  3
Center ____ _ ____ _ ____ _ ____ _ ____ _ ____
 72
    65
 73
     4
 40
10.16
 49
6.35
 74
     0
 49
-1.27
 74
     0
 49
1.27
 74
     0
 49
-1.27
 74
     0
  0
LTYPE
  5
71
330
5
100
AcDbSymbolTableRecord
100
AcDbLinetypeTableRecord
  2
CENTERX2
 70
     0
  3
Center (2x) ________  __  ________  __  _____
 72
    65
 73
     4
 40
20.32
 49
12.7
 74
     0
 49
-2.54
 74
     0
 49
2.54
 74
     0
 49
-2.54
 74
     0
  0
LTYPE
  5
72
330
5
100
AcDbSymbolTableRecord
100
AcDbLinetypeTableRecord
  2
DOT2
 70
     0
  3
Dot (.5x) ........................................
 72
    65
 73
     2
 40
0.635
 49
0.0
 74
     0
 49
-0.635
 74
     0
  0
ENDTAB
  0
TABLE
  2
LAYER
  5
2
330
0
100
AcDbSymbolTable
 70
     5
  0
LAYER
  5
10
330
2
100
AcDbSymbolTableRecord
100
AcDbLayerTableRecord
  2
0
 70
     0
 62
     7
  6
Continuous
370
    -3
390
F
  0
LAYER
  5
73
330
2
100
AcDbSymbolTableRecord
100
AcDbLayerTableRecord
  2
FORMAT
 70
     0
 62
     7
  6
Continuous
370
    -3
390
F
  0
LAYER
  5
74
330
2
100
AcDbSymbolTableRecord
100
AcDbLayerTableRecord
  2
VERMASSUNG
 70
     0
 62
     7
  6
Continuous
370
    -3
390
F
  0
LAYER
  5
75
330
2
100
AcDbSymbolTableRecord
100
AcDbLayerTableRecord
  2
KOPF_DÜNN
 70
     0
 62
     7
  6
Continuous
370
    -3
390
F
  0
LAYER
  5
76
330
2
100
AcDbSymbolTableRecord
100
AcDbLayerTableRecord
  2
KOPF_DICK
 70
     0
 62
     7
  6
Continuous
370
    15
390
F
  0
ENDTAB
  0
TABLE
  2
STYLE
  5
3
330
0
100
AcDbSymbolTable
 70
     2
  0
STYLE
  5
11
330
3
100
AcDbSymbolTableRecord
100
AcDbTextStyleTableRecord
  2
Standard
 70
     0
 40
0.0
 41
1.0
 50
0.0
 71
     0
 42
2.0
  3
txt
  4

  0
STYLE
  5
77
330
3
100
AcDbSymbolTableRecord
100
AcDbTextStyleTableRecord
  2
SLDTEXTSTYLE0
 70
     0
 40
0.0
 41
0.7
 50
0.0
 71
     0
 42
2.0
  3
TXT
  4

  0
ENDTAB
  0
TABLE
  2
VIEW
  5
6
330
0
100
AcDbSymbolTable
 70
     0
  0
ENDTAB
  0
TABLE
  2
UCS
  5
7
330
0
100
AcDbSymbolTable
 70
     0
  0
ENDTAB
  0
TABLE
  2
APPID
  5
9
330
0
100
AcDbSymbolTable
 70
     1
  0
APPID
  5
12
330
9
100
AcDbSymbolTableRecord
100
AcDbRegAppTableRecord
  2
ACAD
 70
     0
  0
ENDTAB
  0
TABLE
  2
DIMSTYLE
  5
A
330
0
100
AcDbSymbolTable
 70
     3
100
AcDbDimStyleTable
  0
DIMSTYLE
105
27
330
A
100
AcDbSymbolTableRecord
100
AcDbDimStyleTableRecord
  2
ISO-25
 70
     0
 41
2.5
 42
0.625
 43
3.75
 44
1.25
 73
     0
 74
     0
 77
     1
 78
     8
140
2.5
141
2.5
143
0.0393700787
147
0.625
171
     3
172
     1
178
     0
271
     2
272
     2
274
     3
278
    44
283
     0
284
     8
340
11
  0
DIMSTYLE
105
148
102
{ACAD_REACTORS
330
147
330
161
330
16C
330
178
330
182
102
}
330
A
100
AcDbSymbolTableRecord
100
AcDbDimStyleTableRecord
  2
SLDDIMSTYLE0
 70
     0
 41
3.0
 44
0.0
 45
0.000000001
 73
     0
 74
     0
 77
     1
 78
    12
 79
     3
140
2.0
147
0.5
173
     1
178
     0
271
     2
272
     3
276
     2
284
    12
340
77
  0
DIMSTYLE
105
155
102
{ACAD_REACTORS
330
154
102
}
330
A
100
AcDbSymbolTableRecord
100
AcDbDimStyleTableRecord
  2
SLDDIMSTYLE1
 70
     0
 41
3.0
 44
0.0
 45
0.000000001
 73
     0
 74
     0
 77
     1
 78
    12
 79
     3
140
2.0
147
0.5
173
     1
178
     0
271
     3
272
     3
276
     2
284
    12
340
77
  0
ENDTAB
  0
TABLE
  2
BLOCK_RECORD
  5
1
330
0
100
AcDbSymbolTable
 70
     7
  0
BLOCK_RECORD
  5
1F
330
1
100
AcDbSymbolTableRecord
100
AcDbBlockTableRecord
  2
*Model_Space
340
22
  0
BLOCK_RECORD
  5
1B
330
1
100
AcDbSymbolTableRecord
100
AcDbBlockTableRecord
  2
*Paper_Space
340
1E
  0
BLOCK_RECORD
  5
23
330
1
100
AcDbSymbolTableRecord
100
AcDbBlockTableRecord
  2
*Paper_Space0
340
26
  0
BLOCK_RECORD
  5
149
330
1
100
AcDbSymbolTableRecord
100
AcDbBlockTableRecord
  2
_D
340
0
  0
BLOCK_RECORD
  5
156
330
1
100
AcDbSymbolTableRecord
100
AcDbBlockTableRecord
  2
_D_1
340
0
  0
BLOCK_RECORD
  5
162
330
1
100
AcDbSymbolTableRecord
100
AcDbBlockTableRecord
  2
_D_2
340
0
  0
BLOCK_RECORD
  5
16D
330
1
100
AcDbSymbolTableRecord
100
AcDbBlockTableRecord
  2
_D_3
340
0
  0
BLOCK_RECORD
  5
179
330
1
100
AcDbSymbolTableRecord
100
AcDbBlockTableRecord
  2
_D_4
340
0
  0
BLOCK_RECORD
  5
183
330
1
100
AcDbSymbolTableRecord
100
AcDbBlockTableRecord
  2
_D_5
340
0
  0
ENDTAB
  0
ENDSEC
  0
SECTION
  2
BLOCKS
  0
BLOCK
  5
20
330
1F
100
AcDbEntity
  8
0
100
AcDbBlockBegin
  2
*Model_Space
 70
     0
 10
0.0
 20
0.0
 30
0.0
  3
*Model_Space
  1

  0
ENDBLK
  5
21
330
1F
100
AcDbEntity
  8
0
100
AcDbBlockEnd
  0
BLOCK
  5
1C
330
1B
100
AcDbEntity
 67
     1
  8
0
100
AcDbBlockBegin
  2
*Paper_Space
 70
     0
 10
0.0
 20
0.0
 30
0.0
  3
*Paper_Space
  1

  0
ENDBLK
  5
1D
330
1B
100
AcDbEntity
 67
     1
  8
0
100
AcDbBlockEnd
  0
BLOCK
  5
24
330
23
100
AcDbEntity
  8
0
100
AcDbBlockBegin
  2
*Paper_Space0
 70
     0
 10
0.0
 20
0.0
 30
0.0
  3
*Paper_Space0
  1

  0
ENDBLK
  5
25
330
23
100
AcDbEntity
  8
0
100
AcDbBlockEnd
  0
BLOCK
  5
14A
330
149
100
AcDbEntity
  8
0
100
AcDbBlockBegin
  2
_D
 70
     0
 10
0.0
 20
0.0
 30
0.0
  3
_D
  1

  0
ARC
  5
14C
330
149
100
AcDbEntity
  8
VERMASSUNG
100
AcDbCircle
 10
196.9771569817
 20
151.6603580757
 30
0.0
 40
4.247059938537386
100
AcDbArc
 50
153.4349488229
 51
206.5650511771
  0
ARC
  5
14D
330
149
100
AcDbEntity
  8
VERMASSUNG
100
AcDbCircle
 10
195.5527028107
 20
151.6603580757
 30
0.0
 40
4.247059938537361
100
AcDbArc
 50
333.4349488229
 51
26.5650511771
  0
SOLID
  5
14E
330
149
100
AcDbEntity
  8
VERMASSUNG
100
AcDbTrace
 10
176.2649298962
 20
149.7610151303
 30
0.0
 11
179.2649298962
 21
149.3110151303
 31
0.0
 12
179.2649298962
 22
150.2110151303
 32
0.0
 13
179.2649298962
 23
150.2110151303
 33
0.0
  0
SOLID
  5
14F
330
149
100
AcDbEntity
  8
VERMASSUNG
100
AcDbTrace
 10
216.2649298962
 20
149.7610151303
 30
0.0
 11
213.2649298962
 21
150.2110151303
 31
0.0
 12
213.2649298962
 22
149.3110151303
 32
0.0
 13
213.2649298962
 23
149.3110151303
 33
0.0
  0
LINE
  5
150
330
149
100
AcDbEntity
  8
VERMASSUNG
100
AcDbLine
 10
176.2649298962
 20
134.3238528941
 30
0.0
 11
176.2649298962
 21
150.7610151303
 31
0.0
  0
LINE
  5
151
330
149
100
AcDbEntity
  8
VERMASSUNG
100
AcDbLine
 10
216.2649298962
 20
143.4988528941
 30
0.0
 11
216.2649298962
 21
150.7610151303
 31
0.0
  0
LINE
  5
152
330
149
100
AcDbEntity
  8
VERMASSUNG
100
AcDbLine
 10
176.2649298962
 20
149.7610151303
 30
0.0
 11
216.2649298962
 21
149.7610151303
 31
0.0
  0
MTEXT
  5
153
330
149
100
AcDbEntity
  8
VERMASSUNG
100
AcDbMText
 10
194.7659710908
 20
152.3391507263
 30
0.0
 40
2.0
 41
0.0
 71
     1
 72
     1
  1
40
  7
SLDTEXTSTYLE0
 73
     1
 44
1.0
  0
ENDBLK
  5
14B
330
149
100
AcDbEntity
  8
0
100
AcDbBlockEnd
  0
BLOCK
  5
157
330
156
100
AcDbEntity
  8
0
100
AcDbBlockBegin
  2
_D_1
 70
     0
 10
0.0
 20
0.0
 30
0.0
  3
_D_1
  1

  0
SOLID
  5
159
330
156
100
AcDbEntity
  8
VERMASSUNG
100
AcDbTrace
 10
66.0487657973
 20
80.3488528941
 30
0.0
 11
66.4987657973
 21
83.3488528941
 31
0.0
 12
65.5987657973
 22
83.3488528941
 32
0.0
 13
65.5987657973
 23
83.3488528941
 33
0.0
  0
SOLID
  5
15A
330
156
100
AcDbEntity
  8
VERMASSUNG
100
AcDbTrace
 10
66.0487657973
 20
143.8488528941
 30
0.0
 11
65.5987657973
 21
140.8488528941
 31
0.0
 12
66.4987657973
 22
140.8488528941
 32
0.0
 13
66.4987657973
 23
140.8488528941
 33
0.0
  0
LINE
  5
15B
330
156
100
AcDbEntity
  8
VERMASSUNG
100
AcDbLine
 10
159.7149298962
 20
80.3488528941
 30
0.0
 11
65.0487657973
 21
80.3488528941
 31
0.0
  0
LINE
  5
15C
330
156
100
AcDbEntity
  8
VERMASSUNG
100
AcDbLine
 10
159.7149298962
 20
143.8488528941
 30
0.0
 11
65.0487657973
 21
143.8488528941
 31
0.0
  0
LINE
  5
15D
330
156
100
AcDbEntity
  8
VERMASSUNG
100
AcDbLine
 10
66.0487657973
 20
80.3488528941
 30
0.0
 11
66.0487657973
 21
143.8488528941
 31
0.0
  0
MTEXT
  5
15E
330
156
100
AcDbEntity
  8
VERMASSUNG
100
AcDbMText
 10
63.2706305411
 20
102.7951608241
 30
0.0
 40
2.0
 41
0.0
 71
     1
 72
     1
  1
CAT 40
  7
SLDTEXTSTYLE0
 11
3.391901413832837E-15
 21
1.0
 31
0.0
 73
     1
 44
1.0
  0
MTEXT
  5
15F
330
156
100
AcDbEntity
  8
VERMASSUNG
100
AcDbMText
 10
63.4706304924
 20
112.9951602608
 30
0.0
 40
2.0
 41
0.0
 71
     1
 72
     1
  1
%%c
  7
SLDTEXTSTYLE0
 11
3.391901413832837E-15
 21
1.0
 31
0.0
 73
     1
 44
1.0
  0
MTEXT
  5
160
330
156
100
AcDbEntity
  8
VERMASSUNG
100
AcDbMText
 10
63.4706302013
 20
116.6045532031
 30
0.0
 40
2.0
 41
0.0
 71
     1
 72
     1
  1
63.5
  7
SLDTEXTSTYLE0
 11
3.391901413832837E-15
 21
1.0
 31
0.0
 73
     1
 44
1.0
  0
ENDBLK
  5
158
330
156
100
AcDbEntity
  8
0
100
AcDbBlockEnd
  0
BLOCK
  5
163
330
162
100
AcDbEntity
  8
0
100
AcDbBlockBegin
  2
_D_2
 70
     0
 10
0.0
 20
0.0
 30
0.0
  3
_D_2
  1

  0
SOLID
  5
165
330
162
100
AcDbEntity
  8
VERMASSUNG
100
AcDbTrace
 10
225.4839810289
 20
130.0988528941
 30
0.0
 11
225.0339810289
 21
127.0988528941
 31
0.0
 12
225.9339810289
 22
127.0988528941
 32
0.0
 13
225.9339810289
 23
127.0988528941
 33
0.0
  0
SOLID
  5
166
330
162
100
AcDbEntity
  8
VERMASSUNG
100
AcDbTrace
 10
225.4839810289
 20
94.0988528941
 30
0.0
 11
225.9339810289
 21
97.0988528941
 31
0.0
 12
225.0339810289
 22
97.0988528941
 32
0.0
 13
225.0339810289
 23
97.0988528941
 33
0.0
  0
LINE
  5
167
330
162
100
AcDbEntity
  8
VERMASSUNG
100
AcDbLine
 10
199.6649298961
 20
130.0988528941
 30
0.0
 11
226.4839810289
 21
130.0988528941
 31
0.0
  0
LINE
  5
168
330
162
100
AcDbEntity
  8
VERMASSUNG
100
AcDbLine
 10
199.6649298961
 20
94.0988528941
 30
0.0
 11
226.4839810289
 21
94.0988528941
 31
0.0
  0
LINE
  5
169
330
162
100
AcDbEntity
  8
VERMASSUNG
100
AcDbLine
 10
225.4839810289
 20
130.0988528941
 30
0.0
 11
225.4839810289
 21
94.0988528941
 31
0.0
  0
MTEXT
  5
16A
330
162
100
AcDbEntity
  8
VERMASSUNG
100
AcDbMText
 10
222.9058454911
 20
108.894676787
 30
0.0
 40
2.0
 41
0.0
 71
     1
 72
     1
  1
%%c
  7
SLDTEXTSTYLE0
 11
-7.044195017643634E-15
 21
1.0
 31
0.0
 73
     1
 44
1.0
  0
MTEXT
  5
16B
330
162
100
AcDbEntity
  8
VERMASSUNG
100
AcDbMText
 10
222.9058454329
 20
112.5036489806
 30
0.0
 40
2.0
 41
0.0
 71
     1
 72
     1
  1
36
  7
SLDTEXTSTYLE0
 11
-7.044195017643634E-15
 21
1.0
 31
0.0
 73
     1
 44
1.0
  0
ENDBLK
  5
164
330
162
100
AcDbEntity
  8
0
100
AcDbBlockEnd
  0
BLOCK
  5
16E
330
16D
100
AcDbEntity
  8
0
100
AcDbBlockBegin
  2
_D_3
 70
     0
 10
0.0
 20
0.0
 30
0.0
  3
_D_3
  1

  0
ARC
  5
170
330
16D
100
AcDbEntity
  8
VERMASSUNG
100
AcDbCircle
 10
143.1516986912
 20
163.6603580757
 30
0.0
 40
4.247059938537246
100
AcDbArc
 50
153.4349488229
 51
206.5650511771
  0
ARC
  5
171
330
16D
100
AcDbEntity
  8
VERMASSUNG
100
AcDbCircle
 10
146.1281611011
 20
163.6603580757
 30
0.0
 40
4.247059938537221
100
AcDbArc
 50
333.4349488229
 51
26.5650511771
  0
SOLID
  5
172
330
16D
100
AcDbEntity
  8
VERMASSUNG
100
AcDbTrace
 10
73.0149298962
 20
161.7610151303
 30
0.0
 11
76.0149298962
 21
161.3110151303
 31
0.0
 12
76.0149298962
 22
162.2110151303
 32
0.0
 13
76.0149298962
 23
162.2110151303
 33
0.0
  0
SOLID
  5
173
330
16D
100
AcDbEntity
  8
VERMASSUNG
100
AcDbTrace
 10
216.2649298962
 20
161.7610151303
 30
0.0
 11
213.2649298962
 21
162.2110151303
 31
0.0
 12
213.2649298962
 22
161.3110151303
 32
0.0
 13
213.2649298962
 23
161.3110151303
 33
0.0
  0
LINE
  5
174
330
16D
100
AcDbEntity
  8
VERMASSUNG
100
AcDbLine
 10
73.0149298962
 20
123.5059834911
 30
0.0
 11
73.0149298962
 21
162.7610151303
 31
0.0
  0
LINE
  5
175
330
16D
100
AcDbEntity
  8
VERMASSUNG
100
AcDbLine
 10
216.2649298962
 20
143.4988528941
 30
0.0
 11
216.2649298962
 21
162.7610151303
 31
0.0
  0
LINE
  5
176
330
16D
100
AcDbEntity
  8
VERMASSUNG
100
AcDbLine
 10
73.0149298962
 20
161.7610151303
 30
0.0
 11
216.2649298962
 21
161.7610151303
 31
0.0
  0
MTEXT
  5
177
330
16D
100
AcDbEntity
  8
VERMASSUNG
100
AcDbMText
 10
140.9405128004
 20
164.3391507263
 30
0.0
 40
2.0
 41
0.0
 71
     1
 72
     1
  1
143.25
  7
SLDTEXTSTYLE0
 73
     1
 44
1.0
  0
ENDBLK
  5
16F
330
16D
100
AcDbEntity
  8
0
100
AcDbBlockEnd
  0
BLOCK
  5
17A
330
179
100
AcDbEntity
  8
0
100
AcDbBlockBegin
  2
_D_4
 70
     0
 10
0.0
 20
0.0
 30
0.0
  3
_D_4
  1

  0
SOLID
  5
17C
330
179
100
AcDbEntity
  8
VERMASSUNG
100
AcDbTrace
 10
141.2649298962
 20
155.7610151303
 30
0.0
 11
144.2649298962
 21
155.3110151303
 31
0.0
 12
144.2649298962
 22
156.2110151303
 32
0.0
 13
144.2649298962
 23
156.2110151303
 33
0.0
  0
SOLID
  5
17D
330
179
100
AcDbEntity
  8
VERMASSUNG
100
AcDbTrace
 10
216.2649298962
 20
155.7610151303
 30
0.0
 11
213.2649298962
 21
156.2110151303
 31
0.0
 12
213.2649298962
 22
155.3110151303
 32
0.0
 13
213.2649298962
 23
155.3110151303
 33
0.0
  0
LINE
  5
17E
330
179
100
AcDbEntity
  8
VERMASSUNG
100
AcDbLine
 10
141.2649298962
 20
134.3238528941
 30
0.0
 11
141.2649298962
 21
156.7610151303
 31
0.0
  0
LINE
  5
17F
330
179
100
AcDbEntity
  8
VERMASSUNG
100
AcDbLine
 10
216.2649298962
 20
143.4988528941
 30
0.0
 11
216.2649298962
 21
156.7610151303
 31
0.0
  0
LINE
  5
180
330
179
100
AcDbEntity
  8
VERMASSUNG
100
AcDbLine
 10
141.2649298962
 20
155.7610151303
 30
0.0
 11
216.2649298962
 21
155.7610151303
 31
0.0
  0
MTEXT
  5
181
330
179
100
AcDbEntity
  8
VERMASSUNG
100
AcDbMText
 10
177.3652398859
 20
158.3391507263
 30
0.0
 40
2.0
 41
0.0
 71
     1
 72
     1
  1
75
  7
SLDTEXTSTYLE0
 73
     1
 44
1.0
  0
ENDBLK
  5
17B
330
179
100
AcDbEntity
  8
0
100
AcDbBlockEnd
  0
BLOCK
  5
184
330
183
100
AcDbEntity
  8
0
100
AcDbBlockBegin
  2
_D_5
 70
     0
 10
0.0
 20
0.0
 30
0.0
  3
_D_5
  1

  0
SOLID
  5
186
330
183
100
AcDbEntity
  8
VERMASSUNG
100
AcDbTrace
 10
232.3614751309
 20
144.0988528941
 30
0.0
 11
231.9114751309
 21
141.0988528941
 31
0.0
 12
232.8114751309
 22
141.0988528941
 32
0.0
 13
232.8114751309
 23
141.0988528941
 33
0.0
  0
SOLID
  5
187
330
183
100
AcDbEntity
  8
VERMASSUNG
100
AcDbTrace
 10
232.3614751309
 20
80.0988528941
 30
0.0
 11
232.8114751309
 21
83.0988528941
 31
0.0
 12
231.9114751309
 22
83.0988528941
 32
0.0
 13
231.9114751309
 23
83.0988528941
 33
0.0
  0
LINE
  5
188
330
183
100
AcDbEntity
  8
VERMASSUNG
100
AcDbLine
 10
215.6649298962
 20
144.0988528941
 30
0.0
 11
233.3614751309
 21
144.0988528941
 31
0.0
  0
LINE
  5
189
330
183
100
AcDbEntity
  8
VERMASSUNG
100
AcDbLine
 10
215.6649298962
 20
80.0988528941
 30
0.0
 11
233.3614751309
 21
80.0988528941
 31
0.0
  0
LINE
  5
18A
330
183
100
AcDbEntity
  8
VERMASSUNG
100
AcDbLine
 10
232.3614751309
 20
144.0988528941
 30
0.0
 11
232.3614751309
 21
80.0988528941
 31
0.0
  0
MTEXT
  5
18B
330
183
100
AcDbEntity
  8
VERMASSUNG
100
AcDbMText
 10
229.5833398747
 20
105.8938533764
 30
0.0
 40
2.0
 41
0.0
 71
     1
 72
     1
  1
ST6
  7
SLDTEXTSTYLE0
 11
-7.044195017643634E-15
 21
1.0
 31
0.0
 73
     1
 44
1.0
  0
MTEXT
  5
18C
330
183
100
AcDbEntity
  8
VERMASSUNG
100
AcDbMText
 10
229.783339826
 20
111.6938533027
 30
0.0
 40
2.0
 41
0.0
 71
     1
 72
     1
  1
%%c
  7
SLDTEXTSTYLE0
 11
-7.044195017643634E-15
 21
1.0
 31
0.0
 73
     1
 44
1.0
  0
MTEXT
  5
18D
330
183
100
AcDbEntity
  8
VERMASSUNG
100
AcDbMText
 10
229.5833398747
 20
115.3038528513
 30
0.0
 40
2.0
 41
0.0
 71
     1
 72
     1
  1
64
  7
SLDTEXTSTYLE0
 11
-7.044195017643634E-15
 21
1.0
 31
0.0
 73
     1
 44
1.0
  0
ENDBLK
  5
185
330
183
100
AcDbEntity
  8
0
100
AcDbBlockEnd
  0
ENDSEC
  0
SECTION
  2
ENTITIES
  0
MTEXT
  5
78
330
1F
100
AcDbEntity
  8
KOPF_DÜNN
100
AcDbMText
 10
13.8892156294
 20
23.8442973028
 30
0.0
 40
3.0
 41
0.0
 71
     1
 72
     1
  1
104.340.064.075
  7
SLDTEXTSTYLE0
 73
     1
 44
1.0
  0
MTEXT
  5
79
330
1F
100
AcDbEntity
  8
VERMASSUNG
100
AcDbMText
 10
13.9329988022
 20
28.8834360957
 30
0.0
 40
3.0
 41
0.0
 71
     1
 72
     1
  1
Aufnahme_Master shank ST6+
  7
SLDTEXTSTYLE0
 73
     1
 44
1.0
  0
MTEXT
  5
7A
330
1F
100
AcDbEntity
  8
VERMASSUNG
100
AcDbMText
 10
98.8601118557
 20
13.8365368761
 30
0.0
 40
2.0
 41
0.0
 71
     1
 72
     1
  1
Datum: 07.05.2008
  7
SLDTEXTSTYLE0
 73
     1
 44
1.0
  0
MTEXT
  5
7B
330
1F
100
AcDbEntity
  8
VERMASSUNG
100
AcDbMText
 10
13.933048693
 20
18.0482802738
 30
0.0
 40
2.0
 41
0.0
 71
     1
 72
     1
  1
ANSI B5.50 CAT 40
  7
SLDTEXTSTYLE0
 73
     1
 44
1.0
  0
MTEXT
  5
7C
330
1F
100
AcDbEntity
  8
VERMASSUNG
100
AcDbMText
 10
13.9808475933
 20
13.9090974274
 30
0.0
 40
2.0
 41
0.0
 71
     1
 72
     1
  1
Gewicht: 1511g
  7
SLDTEXTSTYLE0
 73
     1
 44
1.0
  0
LINE
  5
7D
330
1F
100
AcDbEntity
  8
0
  6
Continuous
 62
     7
370
    15
100
AcDbLine
 10
215.6649301704
 20
144.098854414
 30
0.0
 11
182.4858779963
 21
144.098854414
 31
0.0
  0
LINE
  5
7E
330
1F
100
AcDbEntity
  8
0
  6
Continuous
 62
     7
370
    15
100
AcDbLine
 10
182.4858779963
 20
80.0988513742
 30
0.0
 11
215.6649301704
 21
80.0988513742
 31
0.0
  0
LINE
  5
7F
330
1F
100
AcDbEntity
  8
0
  6
Continuous
 62
     7
370
    15
100
AcDbLine
 10
215.6649301704
 20
80.0988513742
 30
0.0
 11
216.2649328764
 21
80.6988540802
 31
0.0
  0
LINE
  5
80
330
1F
100
AcDbEntity
  8
0
  6
Continuous
 62
     7
370
    15
100
AcDbLine
 10
216.2649328764
 20
143.498851708
 30
0.0
 11
215.6649301704
 21
144.098854414
 31
0.0
  0
ARC
  5
81
330
1F
100
AcDbEntity
  8
0
  6
Continuous
 62
     7
370
    15
100
AcDbCircle
 10
182.4858790467
 20
81.0988528941
 30
0.0
 40
1.000000000000014
100
AcDbArc
 50
210.0
 51
270.0
  0
ARC
  5
82
330
1F
100
AcDbEntity
  8
0
  6
Continuous
 62
     7
370
    15
100
AcDbCircle
 10
182.4858790467
 20
143.0988528941
 30
0.0
 40
1.000000000000008
100
AcDbArc
 50
90.0
 51
150.0
  0
LINE
  5
83
330
1F
100
AcDbEntity
  8
0
  6
Continuous
 62
     7
370
    15
100
AcDbLine
 10
181.61985231
 20
143.5988534007
 30
0.0
 11
176.5536065157
 21
134.823852009
 31
0.0
  0
LINE
  5
84
330
1F
100
AcDbEntity
  8
0
  6
Continuous
 62
     7
370
    15
100
AcDbLine
 10
176.5536065157
 20
89.3738537792
 30
0.0
 11
181.61985231
 21
80.5988523875
 31
0.0
  0
ARC
  5
85
330
1F
100
AcDbEntity
  8
0
  6
Continuous
 62
     7
370
    15
100
AcDbCircle
 10
143.8399298962
 20
89.2738528941
 30
0.0
 40
0.6000000000000085
100
AcDbArc
 50
45.0658081427
 51
90.0
  0
ARC
  5
86
330
1F
100
AcDbEntity
  8
0
  6
Continuous
 62
     7
370
    15
100
AcDbCircle
 10
143.8399298962
 20
134.9238528941
 30
0.0
 40
0.6000000000000227
100
AcDbArc
 50
270.0
 51
0.0
  0
ARC
  5
87
330
1F
100
AcDbEntity
  8
0
  6
Continuous
 62
     7
370
    15
100
AcDbCircle
 10
160.9149298962
 20
89.2738528941
 30
0.0
 40
0.6000000000000085
100
AcDbArc
 50
90.0
 51
134.8883139757
  0
ARC
  5
88
330
1F
100
AcDbEntity
  8
0
  6
Continuous
 62
     7
370
    15
100
AcDbCircle
 10
160.9149298962
 20
134.9238528941
 30
0.0
 40
0.6000000000000227
100
AcDbArc
 50
180.0
 51
270.0
  0
ARC
  5
89
330
1F
100
AcDbEntity
  8
0
  6
Continuous
 62
     7
370
    15
100
AcDbCircle
 10
175.687579627
 20
135.3238528941
 30
0.0
 40
1.0
100
AcDbArc
 50
270.0
 51
330.0
  0
ARC
  5
8A
330
1F
100
AcDbEntity
  8
0
  6
Continuous
 62
     7
370
    15
100
AcDbCircle
 10
175.687579627
 20
88.8738528941
 30
0.0
 40
1.000000000000014
100
AcDbArc
 50
30.0
 51
90.0
  0
LINE
  5
8B
330
1F
100
AcDbEntity
  8
0
  6
Continuous
 62
     7
370
    15
100
AcDbLine
 10
141.2649298962
 20
134.3238528583
 30
0.0
 11
73.8706211503
 21
124.4955163214
 31
0.0
  0
LINE
  5
8C
330
1F
100
AcDbEntity
  8
0
  6
Continuous
 62
     7
370
    15
100
AcDbLine
 10
73.8706211503
 20
99.7021894667
 30
0.0
 11
141.2649298962
 21
89.8738529299
 31
0.0
  0
LINE
  5
8D
330
1F
100
AcDbEntity
  8
0
  6
Continuous
 62
     7
370
    15
100
AcDbLine
 10
141.2649298962
 20
89.8738529299
 30
0.0
 11
143.8399299457
 21
89.8738529299
 31
0.0
  0
LINE
  5
8E
330
1F
100
AcDbEntity
  8
0
  6
Continuous
 62
     7
370
    15
100
AcDbLine
 10
143.8399299457
 20
134.3238528583
 30
0.0
 11
141.2649298962
 21
134.3238528583
 31
0.0
  0
LINE
  5
8F
330
1F
100
AcDbEntity
  8
0
  6
Continuous
 62
     7
370
    15
100
AcDbLine
 10
160.9149291124
 20
89.8738529299
 30
0.0
 11
175.6875808294
 21
89.8738529299
 31
0.0
  0
LINE
  5
90
330
1F
100
AcDbEntity
  8
0
  6
Continuous
 62
     7
370
    15
100
AcDbLine
 10
175.6875808294
 20
134.3238528583
 30
0.0
 11
160.9149291124
 21
134.3238528583
 31
0.0
  0
ARC
  5
91
330
1F
100
AcDbEntity
  8
0
  6
Continuous
 62
     7
370
    15
100
AcDbCircle
 10
74.0149298962
 20
100.6917222971
 30
0.0
 40
0.9999999999999938
100
AcDbArc
 50
180.0
 51
261.7028550302
  0
ARC
  5
92
330
1F
100
AcDbEntity
  8
0
  6
Continuous
 62
     7
370
    15
100
AcDbCircle
 10
74.0149298962
 20
123.5059834911
 30
0.0
 40
0.9999999999999938
100
AcDbArc
 50
98.2971449698
 51
180.0
  0
SPLINE
  5
93
330
1F
100
AcDbEntity
  8
0
  6
Continuous
 62
     7
370
    15
100
AcDbSpline
210
0.0
220
0.0
230
1.0
 70
    24
 71
     3
 72
    11
 73
     7
 74
     0
 42
0.000000001
 43
0.00000001
 40
0.0
 40
0.0
 40
0.0
 40
0.0
 40
0.1336649322271155
 40
0.4825468512296667
 40
0.8156357293397896
 40
1.0
 40
1.0
 40
1.0
 40
1.0
 10
201.9469807799529
 20
109.098852868016
 30
0.0
 10
201.801858859654
 20
109.098852868016
 30
0.0
 10
201.277950871838
 20
109.098852868016
 30
0.0
 10
200.2992268582162
 20
109.098852868016
 30
0.0
 10
199.2480873454968
 20
109.098852868016
 30
0.0
 10
198.6838950694492
 20
109.098852868016
 30
0.0
 10
198.4828780348968
 20
109.098852868016
 30
0.0
  0
SPLINE
  5
94
330
1F
100
AcDbEntity
  8
0
  6
Continuous
 62
     7
370
    15
100
AcDbSpline
210
0.0
220
0.0
230
1.0
 70
     8
 71
     3
 72
    11
 73
     7
 74
     0
 42
0.000000001
 43
0.00000001
 40
0.0
 40
0.0
 40
0.0
 40
0.0
 40
0.2164553846659782
 40
0.4403114526035947
 40
0.7519007267705059
 40
1.0
 40
1.0
 40
1.0
 40
1.0
 10
203.679032152481
 20
112.098852894093
 30
0.0
 10
203.5603850323837
 20
111.893349938853
 30
0.0
 10
203.3190342067719
 20
111.4753178123913
 30
0.0
 10
202.8711499716712
 20
110.6995630585585
 30
0.0
 10
202.3907178943077
 20
109.8674257053271
 30
0.0
 10
202.0832676275202
 20
109.3349078783689
 30
0.0
 10
201.9469807799529
 20
109.098852868016
 30
0.0
  0
SPLINE
  5
95
330
1F
100
AcDbEntity
  8
0
  6
Continuous
 62
     7
370
    15
100
AcDbSpline
210
0.0
220
0.0
230
1.0
 70
     8
 71
     3
 72
    11
 73
     7
 74
     0
 42
0.000000001
 43
0.00000001
 40
0.0
 40
0.0
 40
0.0
 40
0.0
 40
0.216455371865404
 40
0.4403114810022752
 40
0.7519007136802195
 40
0.9999999999999999
 40
0.9999999999999999
 40
0.9999999999999999
 40
0.9999999999999999
 10
201.9469807799529
 20
115.09885292017
 30
0.0
 10
202.0656279111535
 20
114.8933499915332
 30
0.0
 10
202.3069787891908
 20
114.4753178675041
 30
0.0
 10
202.7548628505954
 20
113.699563013419
 30
0.0
 10
203.2352951057869
 20
112.8674257615015
 30
0.0
 10
203.542745315921
 20
112.3349079306181
 30
0.0
 10
203.679032152481
 20
112.098852894093
 30
0.0
  0
SPLINE
  5
96
330
1F
100
AcDbEntity
  8
0
  6
Continuous
 62
     7
370
    15
100
AcDbSpline
210
0.0
220
0.0
230
1.0
 70
    24
 71
     3
 72
    11
 73
     7
 74
     0
 42
0.000000001
 43
0.00000001
 40
0.0
 40
0.0
 40
0.0
 40
0.0
 40
0.1843642706602104
 40
0.5174531487703331
 40
0.8663350677728844
 40
1.0
 40
1.0
 40
1.0
 40
1.0
 10
198.4828780348968
 20
115.09885292017
 30
0.0
 10
198.6838950694492
 20
115.09885292017
 30
0.0
 10
199.2480873454968
 20
115.09885292017
 30
0.0
 10
200.2992268582162
 20
115.09885292017
 30
0.0
 10
201.277950871838
 20
115.09885292017
 30
0.0
 10
201.801858859654
 20
115.09885292017
 30
0.0
 10
201.9469807799529
 20
115.09885292017
 30
0.0
  0
SPLINE
  5
97
330
1F
100
AcDbEntity
  8
0
  6
Continuous
 62
     7
370
    15
100
AcDbSpline
210
0.0
220
0.0
230
1.0
 70
     8
 71
     3
 72
    11
 73
     7
 74
     0
 42
0.000000001
 43
0.00000001
 40
0.0
 40
0.0
 40
0.0
 40
0.0
 40
0.2164553846659782
 40
0.4403114526035947
 40
0.7519007267705059
 40
1.0
 40
1.0
 40
1.0
 40
1.0
 10
196.7508266623687
 20
112.098852894093
 30
0.0
 10
196.869473782466
 20
112.3043558493329
 30
0.0
 10
197.1108246080778
 20
112.7223879757947
 30
0.0
 10
197.5587088431785
 20
113.4981427296275
 30
0.0
 10
198.039140920542
 20
114.3302800828589
 30
0.0
 10
198.3465911873295
 20
114.8627979098171
 30
0.0
 10
198.4828780348968
 20
115.09885292017
 30
0.0
  0
SPLINE
  5
98
330
1F
100
AcDbEntity
  8
0
  6
Continuous
 62
     7
370
    15
100
AcDbSpline
210
0.0
220
0.0
230
1.0
 70
     8
 71
     3
 72
    11
 73
     7
 74
     0
 42
0.000000001
 43
0.00000001
 40
0.0
 40
0.0
 40
0.0
 40
0.0
 40
0.2164553704043277
 40
0.4403109719174649
 40
0.7519007153548927
 40
1.0
 40
1.0
 40
1.0
 40
1.0
 10
198.4828780348968
 20
109.098852868016
 30
0.0
 10
198.3642305643949
 20
109.304355605033
 30
0.0
 10
198.1228792735739
 20
109.7223868587675
 30
0.0
 10
197.6750012632674
 20
110.4981450450841
 30
0.0
 10
197.194562909674
 20
111.3302789195528
 30
0.0
 10
196.887113166881
 20
111.8627976674008
 30
0.0
 10
196.7508266623687
 20
112.098852894093
 30
0.0
  0
CIRCLE
  5
99
330
1F
100
AcDbEntity
  8
0
  6
Continuous
 62
     7
370
    15
100
AcDbCircle
 10
200.2149298962
 20
112.0988528941
 30
0.0
 40
3.500000000000014
  0
CIRCLE
  5
9A
330
1F
100
AcDbEntity
  8
0
  6
Continuous
 62
     7
370
    15
100
AcDbCircle
 10
200.2149298962
 20
112.0988528941
 30
0.0
 40
5.500000000000014
  0
CIRCLE
  5
9B
330
1F
100
AcDbEntity
  8
0
  6
Continuous
 62
     7
370
    15
100
AcDbCircle
 10
200.2149298962
 20
112.0988528941
 30
0.0
 40
6.000000000000014
  0
ARC
  5
9C
330
1F
100
AcDbEntity
  8
0
  6
Continuous
 62
     7
370
    15
100
AcDbCircle
 10
200.2149298962
 20
112.0988528941
 30
0.0
 40
2.999999999999983
100
AcDbArc
 50
330.0
 51
30.0
  0
ARC
  5
9D
330
1F
100
AcDbEntity
  8
0
  6
Continuous
 62
     7
370
    15
100
AcDbCircle
 10
200.2149298962
 20
112.0988528941
 30
0.0
 40
3.000000000000032
100
AcDbArc
 50
150.0
 51
210.0
  0
ARC
  5
9E
330
1F
100
AcDbEntity
  8
0
  6
Continuous
 62
     7
370
    15
100
AcDbCircle
 10
200.2149298962
 20
112.0988528941
 30
0.0
 40
3.000000000000025
100
AcDbArc
 50
90.0
 51
150.0
  0
ARC
  5
9F
330
1F
100
AcDbEntity
  8
0
  6
Continuous
 62
     7
370
    15
100
AcDbCircle
 10
200.2149298962
 20
112.0988528941
 30
0.0
 40
3.000000000000032
100
AcDbArc
 50
210.0
 51
270.0
  0
ARC
  5
A0
330
1F
100
AcDbEntity
  8
0
  6
Continuous
 62
     7
370
    15
100
AcDbCircle
 10
200.2149298962
 20
112.0988528941
 30
0.0
 40
3.0
100
AcDbArc
 50
30.0
 51
90.0
  0
ARC
  5
A1
330
1F
100
AcDbEntity
  8
0
  6
Continuous
 62
     7
370
    15
100
AcDbCircle
 10
200.2149298962
 20
112.0988528941
 30
0.0
 40
3.000000000000014
100
AcDbArc
 50
270.0
 51
330.0
  0
SPLINE
  5
A2
330
1F
100
AcDbEntity
  8
0
  6
Continuous
 62
     7
370
    15
100
AcDbSpline
210
0.0
220
0.0
230
1.0
 70
    11
 71
     3
 72
    94
 73
    90
 74
     0
 42
0.000000001
 43
0.00000001
 40
0.0
 40
0.0
 40
0.0
 40
0.0
 40
0.0312500000000005
 40
0.0312500000000005
 40
0.062500000000001
 40
0.062500000000001
 40
0.0937500000000015
 40
0.0937500000000015
 40
0.1093750000000018
 40
0.1093750000000018
 40
0.1250000000000021
 40
0.1250000000000021
 40
0.1562500000000021
 40
0.1562500000000021
 40
0.1718750000000019
 40
0.1718750000000019
 40
0.1875000000000017
 40
0.1875000000000017
 40
0.2187500000000017
 40
0.2187500000000017
 40
0.2343750000000017
 40
0.2343750000000017
 40
0.2500000000000017
 40
0.2500000000000017
 40
0.2812500000000017
 40
0.2812500000000017
 40
0.3125000000000017
 40
0.3125000000000017
 40
0.3281250000000015
 40
0.3281250000000015
 40
0.3437500000000013
 40
0.3437500000000013
 40
0.3750000000000011
 40
0.3750000000000011
 40
0.3906250000000009
 40
0.3906250000000009
 40
0.4062500000000008
 40
0.4062500000000008
 40
0.4218750000000007
 40
0.4218750000000007
 40
0.4375000000000005
 40
0.4375000000000005
 40
0.4687500000000008
 40
0.4687500000000008
 40
0.4843750000000008
 40
0.4843750000000008
 40
0.500000000000001
 40
0.500000000000001
 40
0.5312500000000006
 40
0.5312500000000006
 40
0.5625
 40
0.5625
 40
0.578125
 40
0.578125
 40
0.5937499999999999
 40
0.5937499999999999
 40
0.6249999999999998
 40
0.6249999999999998
 40
0.6562499999999998
 40
0.6562499999999998
 40
0.6874999999999998
 40
0.6874999999999998
 40
0.7187499999999997
 40
0.7187499999999997
 40
0.7499999999999997
 40
0.7499999999999997
 40
0.7812499999999997
 40
0.7812499999999997
 40
0.8124999999999996
 40
0.8124999999999996
 40
0.8281249999999997
 40
0.8281249999999997
 40
0.8437499999999997
 40
0.8437499999999997
 40
0.8593749999999997
 40
0.8593749999999997
 40
0.8749999999999997
 40
0.8749999999999997
 40
0.9062499999999998
 40
0.9062499999999998
 40
0.9218749999999998
 40
0.9218749999999998
 40
0.9374999999999999
 40
0.9374999999999999
 40
0.9531249999999999
 40
0.9531249999999999
 40
0.9687499999999999
 40
0.9687499999999999
 40
1.0
 40
1.0
 40
1.0
 40
1.0
 10
195.3256758440342
 20
116.9413598791337
 30
0.0
 10
195.6759206918304
 20
117.2318001109137
 30
0.0
 10
196.0492669052759
 20
117.4850523643807
 30
0.0
 10
196.8392398865024
 20
117.9226625144703
 30
0.0
 10
197.2590281030251
 20
118.1074723484696
 30
0.0
 10
198.1138203757544
 20
118.3973066580928
 30
0.0
 10
198.5514419544907
 20
118.5043245774387
 30
0.0
 10
199.2231618191041
 20
118.6085330637066
 30
0.0
 10
199.4507447100851
 20
118.6338638426222
 30
0.0
 10
199.9044680281019
 20
118.6646272961976
 30
0.0
 10
200.13064706007
 20
118.6701905686406
 30
0.0
 10
200.8071869891446
 20
118.6581640292854
 30
0.0
 10
201.2555670788671
 20
118.6121041815144
 30
0.0
 10
201.9240712293623
 20
118.4844088919636
 30
0.0
 10
202.1469873336879
 20
118.4317162157531
 30
0.0
 10
202.5829958580146
 20
118.308304085287
 30
0.0
 10
202.7970087402611
 20
118.2374790536637
 30
0.0
 10
203.4272327809738
 20
117.9979079924889
 30
0.0
 10
203.8317452717381
 20
117.8023416407325
 30
0.0
 10
204.4137381470242
 20
117.4516236600071
 30
0.0
 10
204.6035865518975
 20
117.3248955632648
 30
0.0
 10
204.9664477108511
 20
117.0572137905121
 30
0.0
 10
205.1405597737391
 20
116.9156459236646
 30
0.0
 10
205.6408692309373
 20
116.4675570268254
 30
0.0
 10
205.9453112576179
 20
116.1379431561291
 30
0.0
 10
206.4898748657874
 20
115.4096987552321
 30
0.0
 10
206.7216603262679
 20
115.0213929859368
 30
0.0
 10
207.0028419040837
 20
114.4100058668363
 30
0.0
 10
207.0857147472929
 20
114.2009423497449
 30
0.0
 10
207.2286913661669
 20
113.7717304376261
 30
0.0
 10
207.289070055057
 20
113.5499414734162
 30
0.0
 10
207.4302564724555
 20
112.8824397410926
 30
0.0
 10
207.4727993489958
 20
112.4335412851922
 30
0.0
 10
207.459224842395
 20
111.7543369898443
 30
0.0
 10
207.4414658770195
 20
111.5254683553172
 30
0.0
 10
207.3798924943682
 20
111.0734921536427
 30
0.0
 10
207.3363900984872
 20
110.8511301139351
 30
0.0
 10
207.225007386257
 20
110.4133463237855
 30
0.0
 10
207.1571239172679
 20
110.1979254845211
 30
0.0
 10
206.9972194774977
 20
109.7739381095197
 30
0.0
 10
206.904540006907
 20
109.5642035986506
 30
0.0
 10
206.5956514782773
 20
108.9567814415844
 30
0.0
 10
206.3492026908379
 20
108.5793793435463
 30
0.0
 10
205.9227393678894
 20
108.0515285598734
 30
0.0
 10
205.7702135815619
 20
107.881256993857
 30
0.0
 10
205.4515412175499
 20
107.5591570037021
 30
0.0
 10
205.2851853316602
 20
107.4068766088997
 30
0.0
 10
204.7659813530847
 20
106.9750498609267
 30
0.0
 10
204.3913643505362
 20
106.7192948025416
 30
0.0
 10
203.5965782948623
 20
106.277683538108
 30
0.0
 10
203.1840357958431
 20
106.0956152994448
 30
0.0
 10
202.5436538401592
 20
105.8771453429096
 30
0.0
 10
202.32657218681
 20
105.8134966358331
 30
0.0
 10
201.8850619399635
 20
105.7047490678158
 30
0.0
 10
201.6604144591923
 20
105.6597315778854
 30
0.0
 10
200.9881787076244
 20
105.5549373685208
 30
0.0
 10
200.5380944101084
 20
105.5239847400247
 30
0.0
 10
199.634126889447
 20
105.5386415298696
 30
0.0
 10
199.1761539839733
 20
105.5854320856069
 30
0.0
 10
198.2873168937295
 20
105.7548438647838
 30
0.0
 10
197.8540723022199
 20
105.8767670753
 30
0.0
 10
197.0101571060881
 20
106.1963146496344
 30
0.0
 10
196.5965443116532
 20
106.3963774330957
 30
0.0
 10
195.8253059773996
 20
106.8610037115188
 30
0.0
 10
195.463964696446
 20
107.1262726986481
 30
0.0
 10
194.7921708768671
 20
107.7266643541165
 30
0.0
 10
194.4809309063631
 20
108.0645470312748
 30
0.0
 10
193.9430387477039
 20
108.7839766687078
 30
0.0
 10
193.7120371034921
 20
109.1686104740486
 30
0.0
 10
193.4274041145011
 20
109.7865429978064
 30
0.0
 10
193.3427778975514
 20
110.00035872919
 30
0.0
 10
193.1997789103164
 20
110.4306653820191
 30
0.0
 10
193.140709849088
 20
110.6484197099164
 30
0.0
 10
193.047376060396
 20
111.0891300577259
 30
0.0
 10
193.0131098187244
 20
111.3120857479743
 30
0.0
 10
192.9701151453706
 20
111.7633595252321
 30
0.0
 10
192.9614715290165
 20
111.9933185942657
 30
0.0
 10
192.975656917132
 20
112.6775084484114
 30
0.0
 10
193.0372058061003
 20
113.125352547459
 30
0.0
 10
193.2050407720509
 20
113.7851402545911
 30
0.0
 10
193.2742344003761
 20
114.0043522003878
 30
0.0
 10
193.4352234881875
 20
114.4300030347039
 30
0.0
 10
193.5269383577168
 20
114.6368704793182
 30
0.0
 10
193.7317643952475
 20
115.0392833958334
 30
0.0
 10
193.8448789514885
 20
115.234827008731
 30
0.0
 10
194.0921895922787
 20
115.6148054879254
 30
0.0
 10
194.2270170854507
 20
115.799898820313
 30
0.0
 10
194.655651248304
 20
116.3291643426225
 30
0.0
 10
194.9754309962379
 20
116.6509196473536
 30
0.0
 10
195.3256758440342
 20
116.9413598791337
 30
0.0
  0
LINE
  5
A3
330
1F
100
AcDbEntity
  8
0
  6
Continuous
 62
     7
370
    15
100
AcDbLine
 10
215.6649301704
 20
112.0988528941
 30
0.0
 11
215.6649301704
 21
80.0988513742
 31
0.0
  0
LINE
  5
A4
330
1F
100
AcDbEntity
  8
0
  6
Continuous
 62
     7
370
    15
100
AcDbLine
 10
215.6649301704
 20
144.098854414
 30
0.0
 11
215.6649301704
 21
112.0988528941
 31
0.0
  0
LINE
  5
A5
330
1F
100
AcDbEntity
  8
0
  6
Continuous
 62
     7
370
    15
100
AcDbLine
 10
216.2649328764
 20
112.0988528941
 30
0.0
 11
216.2649328764
 21
80.6988540802
 31
0.0
  0
LINE
  5
A6
330
1F
100
AcDbEntity
  8
0
  6
Continuous
 62
     7
370
    15
100
AcDbLine
 10
216.2649328764
 20
143.498851708
 30
0.0
 11
216.2649328764
 21
112.0988528941
 31
0.0
  0
LINE
  5
A7
330
1F
100
AcDbEntity
  8
0
  6
Continuous
 62
     7
370
    15
100
AcDbLine
 10
144.4399298578
 20
82.3322597657
 30
0.0
 11
144.4399298578
 21
141.8654460225
 31
0.0
  0
SPLINE
  5
A8
330
1F
100
AcDbEntity
  8
0
  6
Continuous
 62
     7
370
    15
100
AcDbSpline
210
0.0
220
0.0
230
1.0
 70
     8
 71
     3
 72
    10
 73
     6
 74
     0
 42
0.000000001
 43
0.00000001
 40
0.0
 40
0.0
 40
0.0
 40
0.0
 40
0.5
 40
0.5
 40
1.0
 40
1.0
 40
1.0
 40
1.0
 10
144.7289227323726
 20
142.4880298207821
 30
0.0
 10
144.652615033563
 20
142.4175130396713
 30
0.0
 10
144.5849525723118
 20
142.3318094872176
 30
0.0
 10
144.4776437233548
 20
142.1203098226541
 30
0.0
 10
144.4399298961829
 20
141.9961568624029
 30
0.0
 10
144.4399298961829
 20
141.8654465856795
 30
0.0
  0
SPLINE
  5
A9
330
1F
100
AcDbEntity
  8
0
  6
Continuous
 62
     7
370
    15
100
AcDbSpline
210
0.0
220
0.0
230
1.0
 70
     8
 71
     3
 72
     8
 73
     4
 74
     0
 42
0.000000001
 43
0.00000001
 40
0.0
 40
0.0
 40
0.0
 40
0.0
 40
1.0
 40
1.0
 40
1.0
 40
1.0
 10
145.0399298961829
 20
142.5580474711076
 30
0.0
 10
144.9285087459687
 20
142.5580474711076
 30
0.0
 10
144.8205143153723
 20
142.5327806905405
 30
0.0
 10
144.7289227323726
 20
142.4880298207821
 30
0.0
  0
SPLINE
  5
AA
330
1F
100
AcDbEntity
  8
0
  6
Continuous
 62
     7
370
    15
100
AcDbSpline
210
0.0
220
0.0
230
1.0
 70
     8
 71
     3
 72
    10
 73
     6
 74
     0
 42
0.000000001
 43
0.00000001
 40
0.0
 40
0.0
 40
0.0
 40
0.0
 40
0.5
 40
0.5
 40
1.0
 40
1.0
 40
1.0
 40
1.0
 10
144.6568455615427
 20
81.78436561515146
 30
0.0
 10
144.7055808824108
 20
81.75645779718292
 30
0.0
 10
144.762947091426
 20
81.73264786601302
 30
0.0
 10
144.8932854889616
 20
81.69879564505698
 30
0.0
 10
144.9655819136854
 20
81.68914435263592
 30
0.0
 10
145.0399298961829
 20
81.68914435263592
 30
0.0
  0
SPLINE
  5
AB
330
1F
100
AcDbEntity
  8
0
  6
Continuous
 62
     7
370
    15
100
AcDbSpline
210
0.0
220
0.0
230
1.0
 70
     8
 71
     3
 72
    10
 73
     6
 74
     0
 42
0.000000001
 43
0.00000001
 40
0.0
 40
0.0
 40
0.0
 40
0.0
 40
0.5
 40
0.5
 40
1.0
 40
1.0
 40
1.0
 40
1.0
 10
144.6568455615427
 20
81.78436561515146
 30
0.0
 10
144.5985200266372
 20
81.8520665243778
 30
0.0
 10
144.5459606243918
 20
81.9325468493816
 30
0.0
 10
144.46677322133
 20
82.1174199897771
 30
0.0
 10
144.4399298961829
 20
82.22303543456498
 30
0.0
 10
144.4399298961829
 20
82.33225920250645
 30
0.0
  0
SPLINE
  5
AC
330
1F
100
AcDbEntity
  8
0
  6
Continuous
 62
     7
370
    15
100
AcDbSpline
210
0.0
220
0.0
230
1.0
 70
     8
 71
     3
 72
    12
 73
     8
 74
     0
 42
0.000000001
 43
0.00000001
 40
0.0
 40
0.0
 40
0.0
 40
0.0
 40
0.4999999999999953
 40
0.4999999999999953
 40
0.7499999999999977
 40
0.7499999999999977
 40
1.0
 40
1.0
 40
1.0
 40
1.0
 10
160.3149298961829
 20
142.0734006883366
 30
0.0
 10
160.3149298961829
 20
142.1935708672067
 30
0.0
 10
160.2610177844949
 20
142.3114733591918
 30
0.0
 10
160.0998974286362
 20
142.4507922280448
 30
0.0
 10
160.0350993197941
 20
142.488931919037
 30
0.0
 10
159.883043892476
 20
142.5435120043722
 30
0.0
 10
159.8003116300247
 20
142.5580474711076
 30
0.0
 10
159.714929896183
 20
142.5580474711076
 30
0.0
  0
LINE
  5
AD
330
1F
100
AcDbEntity
  8
0
  6
Continuous
 62
     7
370
    15
100
AcDbLine
 10
160.3149301316
 20
82.1052796904
 30
0.0
 11
160.3149301316
 21
142.0734010402
 31
0.0
  0
SPLINE
  5
AE
330
1F
100
AcDbEntity
  8
0
  6
Continuous
 62
     7
370
    15
100
AcDbSpline
210
0.0
220
0.0
230
1.0
 70
     8
 71
     3
 72
    12
 73
     8
 74
     0
 42
0.000000001
 43
0.00000001
 40
0.0
 40
0.0
 40
0.0
 40
0.0
 40
0.2500000000000008
 40
0.2500000000000008
 40
0.5000000000000017
 40
0.5000000000000017
 40
1.0
 40
1.0
 40
1.0
 40
1.0
 10
159.714929896183
 20
81.68914435263594
 30
0.0
 10
159.8104718063189
 20
81.68914435263594
 30
0.0
 10
159.9026167481817
 20
81.70528013611809
 30
0.0
 10
160.0589430247916
 20
81.75849974224144
 30
0.0
 10
160.1226111674116
 20
81.7946467824448
 30
0.0
 10
160.271479012842
 20
81.91588467551672
 30
0.0
 10
160.3149298961829
 20
82.01034722117747
 30
0.0
 10
160.3149298961829
 20
82.10528011075583
 30
0.0
  0
SPLINE
  5
AF
330
1F
100
AcDbEntity
  8
0
  6
Continuous
 62
     7
370
    15
100
AcDbSpline
210
0.0
220
0.0
230
1.0
 70
     8
 71
     3
 72
     8
 73
     4
 74
     0
 42
0.000000001
 43
0.00000001
 40
0.0
 40
0.0
 40
0.0
 40
0.0
 40
1.0
 40
1.0
 40
1.0
 40
1.0
 10
155.3324159031394
 20
141.7770226569717
 30
0.0
 10
154.9792678813826
 20
141.1425438178059
 30
0.0
 10
154.626730450639
 20
140.5077313547656
 30
0.0
 10
154.274929896183
 20
139.8725162662086
 30
0.0
  0
SPLINE
  5
B0
330
1F
100
AcDbEntity
  8
0
  6
Continuous
 62
     7
370
    15
100
AcDbSpline
210
0.0
220
0.0
230
1.0
 70
     8
 71
     3
 72
     8
 73
     4
 74
     0
 42
0.000000001
 43
0.00000001
 40
0.0
 40
0.0
 40
0.0
 40
0.0
 40
0.0012371390485494
 40
0.0012371390485494
 40
0.0012371390485494
 40
0.0012371390485494
 10
155.8896532895856
 20
142.5580474711076
 30
0.0
 10
155.7032116232593
 20
142.2979546916185
 30
0.0
 10
155.5174419197405
 20
142.0376204083127
 30
0.0
 10
155.3324159031394
 20
141.7770226569717
 30
0.0
  0
LINE
  5
B1
330
1F
100
AcDbEntity
  8
0
  6
Continuous
 62
     7
370
    15
100
AcDbLine
 10
155.8896531295
 20
81.689144275
 30
0.0
 11
155.8896531295
 21
142.5580482695
 31
0.0
  0
SPLINE
  5
B2
330
1F
100
AcDbEntity
  8
0
  6
Continuous
 62
     7
370
    15
100
AcDbSpline
210
0.0
220
0.0
230
1.0
 70
     8
 71
     3
 72
     8
 73
     4
 74
     0
 42
0.000000001
 43
0.00000001
 40
0.0
 40
0.0
 40
0.0
 40
0.0
 40
0.0011858378198547
 40
0.0011858378198547
 40
0.0011858378198547
 40
0.0011858378198547
 10
155.4342537094969
 20
82.23775712604599
 30
0.0
 10
155.5845216959904
 20
82.05456884098257
 30
0.0
 10
155.7363672986593
 20
81.87170378185071
 30
0.0
 10
155.8896532895856
 20
81.68914435263594
 30
0.0
  0
SPLINE
  5
B3
330
1F
100
AcDbEntity
  8
0
  6
Continuous
 62
     7
370
    15
100
AcDbSpline
210
0.0
220
0.0
230
1.0
 70
     8
 71
     3
 72
     8
 73
     4
 74
     0
 42
0.000000001
 43
0.00000001
 40
0.0
 40
0.0
 40
0.0
 40
0.0
 40
1.0
 40
1.0
 40
1.0
 40
1.0
 10
155.4342537094969
 20
82.23775712604599
 30
0.0
 10
155.0470413794548
 20
82.9331371292762
 30
0.0
 10
154.6605407293173
 20
83.62892620909915
 30
0.0
 10
154.274929896183
 20
84.32518952197739
 30
0.0
  0
LINE
  5
B4
330
1F
100
AcDbEntity
  8
0
  6
Continuous
 62
     7
370
    15
100
AcDbLine
 10
148.8402066696
 20
142.5580482695
 30
0.0
 11
145.0399300027
 21
142.5580482695
 31
0.0
  0
LINE
  5
B5
330
1F
100
AcDbEntity
  8
0
  6
Continuous
 62
     7
370
    15
100
AcDbLine
 10
148.8402066696
 20
81.689144275
 30
0.0
 11
148.8402066696
 21
142.5580482695
 31
0.0
  0
LINE
  5
B6
330
1F
100
AcDbEntity
  8
0
  6
Continuous
 62
     7
370
    15
100
AcDbLine
 10
145.0399300027
 20
81.689144275
 30
0.0
 11
148.8402066696
 21
81.689144275
 31
0.0
  0
SPLINE
  5
B7
330
1F
100
AcDbEntity
  8
0
  6
Continuous
 62
     7
370
    15
100
AcDbSpline
210
0.0
220
0.0
230
1.0
 70
     8
 71
     3
 72
     8
 73
     4
 74
     0
 42
0.000000001
 43
0.00000001
 40
0.0
 40
0.0
 40
0.0
 40
0.0
 40
0.0012371390485494
 40
0.0012371390485494
 40
0.0012371390485494
 40
0.0012371390485494
 10
149.3974438892265
 20
141.7770226569717
 30
0.0
 10
149.2124178726254
 20
142.0376204083127
 30
0.0
 10
149.0266481691066
 20
142.2979546916185
 30
0.0
 10
148.8402065027803
 20
142.5580474711076
 30
0.0
  0
SPLINE
  5
B8
330
1F
100
AcDbEntity
  8
0
  6
Continuous
 62
     7
370
    15
100
AcDbSpline
210
0.0
220
0.0
230
1.0
 70
     8
 71
     3
 72
     8
 73
     4
 74
     0
 42
0.000000001
 43
0.00000001
 40
0.0
 40
0.0
 40
0.0
 40
0.0
 40
1.0
 40
1.0
 40
1.0
 40
1.0
 10
150.454929896183
 20
139.8725162662086
 30
0.0
 10
150.1031293417269
 20
140.5077313547656
 30
0.0
 10
149.7505919109832
 20
141.1425438178059
 30
0.0
 10
149.3974438892265
 20
141.7770226569717
 30
0.0
  0
SPLINE
  5
B9
330
1F
100
AcDbEntity
  8
0
  6
Continuous
 62
     7
370
    15
100
AcDbSpline
210
0.0
220
0.0
230
1.0
 70
     8
 71
     3
 72
     8
 73
     4
 74
     0
 42
0.000000001
 43
0.00000001
 40
0.0
 40
0.0
 40
0.0
 40
0.0
 40
1.0
 40
1.0
 40
1.0
 40
1.0
 10
150.454929896183
 20
84.32518952197739
 30
0.0
 10
150.0693190630486
 20
83.62892620909915
 30
0.0
 10
149.6828184129111
 20
82.9331371292762
 30
0.0
 10
149.295606082869
 20
82.23775712604599
 30
0.0
  0
SPLINE
  5
BA
330
1F
100
AcDbEntity
  8
0
  6
Continuous
 62
     7
370
    15
100
AcDbSpline
210
0.0
220
0.0
230
1.0
 70
     8
 71
     3
 72
     8
 73
     4
 74
     0
 42
0.000000001
 43
0.00000001
 40
0.0
 40
0.0
 40
0.0
 40
0.0
 40
0.0011858378198547
 40
0.0011858378198547
 40
0.0011858378198547
 40
0.0011858378198547
 10
148.8402065027803
 20
81.68914435263594
 30
0.0
 10
148.9934924937066
 20
81.87170378185071
 30
0.0
 10
149.1453380963756
 20
82.05456884098257
 30
0.0
 10
149.295606082869
 20
82.23775712604599
 30
0.0
  0
LINE
  5
BB
330
1F
100
AcDbEntity
  8
0
  6
Continuous
 62
     7
370
    15
100
AcDbLine
 10
159.7149292882
 20
142.5580482695
 30
0.0
 11
155.8896531295
 21
142.5580482695
 31
0.0
  0
LINE
  5
BC
330
1F
100
AcDbEntity
  8
0
  6
Continuous
 62
     7
370
    15
100
AcDbLine
 10
155.8896531295
 20
81.689144275
 30
0.0
 11
159.7149292882
 21
81.689144275
 31
0.0
  0
SPLINE
  5
BD
330
1F
100
AcDbEntity
  8
0
  6
Continuous
 62
     7
370
    15
100
AcDbSpline
210
0.0
220
0.0
230
1.0
 70
     8
 71
     3
 72
    12
 73
     8
 74
     0
 42
0.000000001
 43
0.00000001
 40
0.0
 40
0.0
 40
0.0
 40
0.0
 40
0.2500000000000015
 40
0.2500000000000015
 40
0.500000000000003
 40
0.500000000000003
 40
1.0
 40
1.0
 40
1.0
 40
1.0
 10
151.2549298961829
 20
85.13220682899991
 30
0.0
 10
151.1484699409962
 20
85.13220682899993
 30
0.0
 10
151.0402003346955
 20
85.1091802316839
 30
0.0
 10
150.8441599793088
 20
85.02218574271296
 30
0.0
 10
150.7556985592133
 20
84.95851840288613
 30
0.0
 10
150.537015357398
 20
84.72488257169547
 30
0.0
 10
150.4549298961829
 20
84.51023632076225
 30
0.0
 10
150.4549298961829
 20
84.29727020533227
 30
0.0
  0
LINE
  5
BE
330
1F
100
AcDbEntity
  8
0
  6
Continuous
 62
     7
370
    15
100
AcDbLine
 10
150.4549295585
 20
84.2972703043
 30
0.0
 11
150.4549295585
 21
139.9004354838
 31
0.0
  0
SPLINE
  5
BF
330
1F
100
AcDbEntity
  8
0
  6
Continuous
 62
     7
370
    15
100
AcDbSpline
210
0.0
220
0.0
230
1.0
 70
     8
 71
     3
 72
    12
 73
     8
 74
     0
 42
0.000000001
 43
0.00000001
 40
0.0
 40
0.0
 40
0.0
 40
0.0
 40
0.2500000000000015
 40
0.2500000000000015
 40
0.500000000000003
 40
0.500000000000003
 40
1.0
 40
1.0
 40
1.0
 40
1.0
 10
151.2549298961829
 20
139.0654989591861
 30
0.0
 10
151.1484371556866
 20
139.0654989591861
 30
0.0
 10
151.0413034526527
 20
139.0882175909124
 30
0.0
 10
150.845259099098
 20
139.1748527789849
 30
0.0
 10
150.7567898135145
 20
139.2381295835246
 30
0.0
 10
150.5359845145618
 20
139.4737092518355
 30
0.0
 10
150.4549298961829
 20
139.6874275313236
 30
0.0
 10
150.4549298961829
 20
139.9004355828537
 30
0.0
  0
SPLINE
  5
C0
330
1F
100
AcDbEntity
  8
0
  6
Continuous
 62
     7
370
    15
100
AcDbSpline
210
0.0
220
0.0
230
1.0
 70
     8
 71
     3
 72
    14
 73
    10
 74
     0
 42
0.000000001
 43
0.00000001
 40
0.0
 40
0.0
 40
0.0
 40
0.0
 40
0.25
 40
0.25
 40
0.5
 40
0.5
 40
0.75
 40
0.75
 40
1.0
 40
1.0
 40
1.0
 40
1.0
 10
154.274929896183
 20
84.29727020533227
 30
0.0
 10
154.274929896183
 20
84.40429956289991
 30
0.0
 10
154.2549422073714
 20
84.51133389273596
 30
0.0
 10
154.1776773188976
 20
84.7101584732517
 30
0.0
 10
154.11975135391
 20
84.80298252544172
 30
0.0
 10
153.9742945218842
 20
84.95836691838406
 30
0.0
 10
153.8854836595211
 20
85.02237411667772
 30
0.0
 10
153.6887490867083
 20
85.10949123104287
 30
0.0
 10
153.5824055120112
 20
85.13220682899991
 30
0.0
 10
153.4749298961829
 20
85.13220682899991
 30
0.0
  0
SPLINE
  5
C1
330
1F
100
AcDbEntity
  8
0
  6
Continuous
 62
     7
370
    15
100
AcDbSpline
210
0.0
220
0.0
230
1.0
 70
     8
 71
     3
 72
    12
 73
     8
 74
     0
 42
0.000000001
 43
0.00000001
 40
0.0
 40
0.0
 40
0.0
 40
0.0
 40
0.5
 40
0.5
 40
0.75
 40
0.75
 40
1.0
 40
1.0
 40
1.0
 40
1.0
 10
154.2749298961829
 20
139.9004355828537
 30
0.0
 10
154.2749298961829
 20
139.6872669716751
 30
0.0
 10
154.1924289673388
 20
139.4721869238076
 30
0.0
 10
153.9738491899412
 20
139.2389505581575
 30
0.0
 10
153.8848489887481
 20
139.1750414590319
 30
0.0
 10
153.6892715872995
 20
139.0884551041876
 30
0.0
 10
153.5828686562032
 20
139.0654989591861
 30
0.0
 10
153.4749298961829
 20
139.0654989591861
 30
0.0
  0
LINE
  5
C2
330
1F
100
AcDbEntity
  8
0
  6
Continuous
 62
     7
370
    15
100
AcDbLine
 10
154.2749297749
 20
84.2972703043
 30
0.0
 11
154.2749297749
 21
139.9004354838
 31
0.0
  0
LINE
  5
C3
330
1F
100
AcDbEntity
  8
0
  6
Continuous
 62
     7
370
    15
100
AcDbLine
 10
153.4749302026
 20
85.1322065804
 30
0.0
 11
151.2549300622
 21
85.1322065804
 31
0.0
  0
LINE
  5
C4
330
1F
100
AcDbEntity
  8
0
  6
Continuous
 62
     7
370
    15
100
AcDbLine
 10
153.4749302026
 20
139.0654992078
 30
0.0
 11
151.2549300622
 21
139.0654992078
 31
0.0
  0
SPLINE
  5
C5
330
1F
100
AcDbEntity
  8
0
  6
Continuous
 62
     7
370
    15
100
AcDbSpline
210
0.0
220
0.0
230
1.0
 70
    24
 71
     3
 72
    10
 73
     6
 74
     0
 42
0.000000001
 43
0.00000001
 40
0.0
 40
0.0
 40
0.0
 40
0.0
 40
0.4999999999999999
 40
0.4999999999999999
 40
1.0
 40
1.0
 40
1.0
 40
1.0
 10
144.2634567550664
 20
89.698852894093
 30
0.0
 10
144.2634600822632
 20
89.698852894093
 30
0.0
 10
144.3042819276991
 20
89.698852894093
 30
0.0
 10
144.3932175864535
 20
89.69885289409301
 30
0.0
 10
144.4399298961829
 20
89.698852894093
 30
0.0
 10
144.4399298961829
 20
89.698852894093
 30
0.0
  0
LINE
  5
C6
330
1F
100
AcDbEntity
  8
0
  6
Continuous
 62
     7
370
    15
100
AcDbLine
 10
141.2649298962
 20
89.8738529299
 30
0.0
 11
141.2649298962
 21
134.3238528583
 31
0.0
  0
LINE
  5
C7
330
1F
100
AcDbEntity
  8
0
  6
Continuous
 62
     7
370
    15
100
AcDbLine
 10
73.0149294193
 20
100.6917224962
 30
0.0
 11
73.0149294193
 21
123.5059832919
 31
0.0
  0
LINE
  5
C8
330
1F
100
AcDbEntity
  8
0
  6
HIDDEN
 62
     7
370
     0
100
AcDbLine
 10
175.7649290319
 20
126.693309075
 30
0.0
 11
172.9649300631
 21
126.693309075
 31
0.0
  0
LINE
  5
C9
330
1F
100
AcDbEntity
  8
0
  6
HIDDEN
 62
     7
370
     0
100
AcDbLine
 10
172.9649300631
 20
127.9580991481
 30
0.0
 11
175.7649290319
 21
127.9580991481
 31
0.0
  0
LINE
  5
CA
330
1F
100
AcDbEntity
  8
0
  6
HIDDEN
 62
     7
370
     0
100
AcDbLine
 10
175.7649290319
 20
97.5043967132
 30
0.0
 11
172.9649300631
 21
97.5043967132
 31
0.0
  0
LINE
  5
CB
330
1F
100
AcDbEntity
  8
0
  6
HIDDEN
 62
     7
370
     0
100
AcDbLine
 10
172.9649300631
 20
97.5043967132
 30
0.0
 11
172.9649300631
 21
96.2396066401
 31
0.0
  0
LINE
  5
CC
330
1F
100
AcDbEntity
  8
0
  6
HIDDEN
 62
     7
370
     0
100
AcDbLine
 10
172.9649300631
 20
96.2396066401
 30
0.0
 11
175.7649290319
 21
96.2396066401
 31
0.0
  0
LINE
  5
CD
330
1F
100
AcDbEntity
  8
0
  6
HIDDEN
 62
     7
370
     0
100
AcDbLine
 10
156.7649296429
 20
127.0988525588
 30
0.0
 11
156.7649296429
 21
97.0988532294
 31
0.0
  0
LINE
  5
CE
330
1F
100
AcDbEntity
  8
0
  6
HIDDEN
 62
     7
370
     0
100
AcDbLine
 10
155.764929479
 20
126.0988533262
 30
0.0
 11
155.764929479
 21
98.098852462
 31
0.0
  0
LINE
  5
CF
330
1F
100
AcDbEntity
  8
0
  6
HIDDEN
 62
     7
370
     0
100
AcDbLine
 10
165.9772987421
 20
127.0988525588
 30
0.0
 11
165.9772987421
 21
97.0988532294
 31
0.0
  0
LINE
  5
D0
330
1F
100
AcDbEntity
  8
0
  6
HIDDEN
 62
     7
370
     0
100
AcDbLine
 10
172.9649300631
 20
104.4055626493
 30
0.0
 11
175.7649290319
 21
104.4055626493
 31
0.0
  0
LINE
  5
D1
330
1F
100
AcDbEntity
  8
0
  6
HIDDEN
 62
     7
370
     0
100
AcDbLine
 10
175.7649290319
 20
121.0569346089
 30
0.0
 11
172.9649300631
 21
121.0569346089
 31
0.0
  0
LINE
  5
D2
330
1F
100
AcDbEntity
  8
0
  6
HIDDEN
 62
     7
370
     0
100
AcDbLine
 10
172.9649300631
 20
121.0569346089
 30
0.0
 11
172.9649300631
 21
119.7921431389
 31
0.0
  0
LINE
  5
D3
330
1F
100
AcDbEntity
  8
0
  6
HIDDEN
 62
     7
370
     0
100
AcDbLine
 10
172.9649300631
 20
119.7921431389
 30
0.0
 11
175.7649290319
 21
119.7921431389
 31
0.0
  0
LINE
  5
D4
330
1F
100
AcDbEntity
  8
0
  6
HIDDEN
 62
     7
370
     0
100
AcDbLine
 10
175.7649290319
 20
103.1407711793
 30
0.0
 11
172.9649300631
 21
103.1407711793
 31
0.0
  0
LINE
  5
D5
330
1F
100
AcDbEntity
  8
0
  6
HIDDEN
 62
     7
370
     0
100
AcDbLine
 10
172.9649300631
 20
104.4055626493
 30
0.0
 11
172.9649300631
 21
97.5043967132
 31
0.0
  0
LINE
  5
D6
330
1F
100
AcDbEntity
  8
0
  6
HIDDEN
 62
     7
370
     0
100
AcDbLine
 10
172.9649300631
 20
127.9580991481
 30
0.0
 11
172.9649300631
 21
121.0569346089
 31
0.0
  0
CIRCLE
  5
D7
330
1F
100
AcDbEntity
  8
0
  6
HIDDEN
 62
     7
370
     0
100
AcDbCircle
 10
200.2149298962
 20
112.0988528941
 30
0.0
 40
4.080384757729348
  0
CIRCLE
  5
D8
330
1F
100
AcDbEntity
  8
0
  6
HIDDEN
 62
     7
370
     0
100
AcDbCircle
 10
200.2149298962
 20
112.0988528941
 30
0.0
 40
3.780384757729337
  0
SPLINE
  5
D9
330
1F
100
AcDbEntity
  8
0
  6
HIDDEN
 62
     7
370
     0
100
AcDbSpline
210
0.0
220
0.0
230
1.0
 70
     8
 71
     3
 72
    18
 73
    14
 74
     0
 42
0.000000001
 43
0.00000001
 40
0.0
 40
0.0
 40
0.0
 40
0.0
 40
0.25
 40
0.25
 40
0.5
 40
0.5
 40
0.625
 40
0.625
 40
0.75
 40
0.75
 40
0.875
 40
0.875
 40
1.0
 40
1.0
 40
1.0
 40
1.0
 10
216.264929896183
 20
129.0965541382051
 30
0.0
 10
216.264929896183
 20
129.0012344731874
 30
0.0
 10
216.2596718330199
 20
128.9042050870197
 30
0.0
 10
216.232166843153
 20
128.7046209464949
 30
0.0
 10
216.2096833496794
 20
128.5996167767921
 30
0.0
 10
216.1513849975592
 20
128.4476080282077
 30
0.0
 10
216.1270582038517
 20
128.396556128034
 30
0.0
 10
216.0682148446686
 20
128.3040052369556
 30
0.0
 10
216.0330921242157
 20
128.2621832603224
 30
0.0
 10
215.9581134522236
 20
128.1977110037184
 30
0.0
 10
215.9181266345694
 20
128.1745531179636
 30
0.0
 10
215.839518790022
 20
128.1445662721663
 30
0.0
 10
215.801669447019
 20
128.1375283156804
 30
0.0
 10
215.7648903161686
 20
128.1352690087043
 30
0.0
  0
SPLINE
  5
DA
330
1F
100
AcDbEntity
  8
0
  6
HIDDEN
 62
     7
370
     0
100
AcDbSpline
210
0.0
220
0.0
230
1.0
 70
     8
 71
     3
 72
    10
 73
     6
 74
     0
 42
0.000000001
 43
0.00000001
 40
0.0
 40
0.0
 40
0.0
 40
0.0
 40
0.5
 40
0.5
 40
1.0
 40
1.0
 40
1.0
 40
1.0
 10
215.7648903161686
 20
128.1352690087045
 30
0.0
 10
215.7000688584358
 20
128.0744014043301
 30
0.0
 10
215.6252254621335
 20
128.0194295727098
 30
0.0
 10
215.4566148062823
 20
127.9396045644515
 30
0.0
 10
215.3623242542465
 20
127.9152977904244
 30
0.0
 10
215.264929896183
 20
127.9152977904244
 30
0.0
  0
SPLINE
  5
DB
330
1F
100
AcDbEntity
  8
0
  6
HIDDEN
 62
     7
370
     0
100
AcDbSpline
210
0.0
220
0.0
230
1.0
 70
     8
 71
     3
 72
    10
 73
     6
 74
     0
 42
0.000000001
 43
0.00000001
 40
0.0
 40
0.0
 40
0.0
 40
0.0
 40
0.5
 40
0.5
 40
1.0
 40
1.0
 40
1.0
 40
1.0
 10
215.7648800898781
 20
96.06244638188153
 30
0.0
 10
215.7000594037115
 20
96.12331165196345
 30
0.0
 10
215.6252171210539
 20
96.17828119421344
 30
0.0
 10
215.4566098473331
 20
96.25810254152232
 30
0.0
 10
215.3623216934282
 20
96.28240799776162
 30
0.0
 10
215.264929896183
 20
96.28240799776162
 30
0.0
  0
SPLINE
  5
DC
330
1F
100
AcDbEntity
  8
0
  6
HIDDEN
 62
     7
370
     0
100
AcDbSpline
210
0.0
220
0.0
230
1.0
 70
     8
 71
     3
 72
    18
 73
    14
 74
     0
 42
0.000000001
 43
0.00000001
 40
0.0
 40
0.0
 40
0.0
 40
0.0
 40
0.1250000000000028
 40
0.1250000000000028
 40
0.2500000000000057
 40
0.2500000000000057
 40
0.3750000000000085
 40
0.3750000000000085
 40
0.5000000000000113
 40
0.5000000000000113
 40
0.7500000000000057
 40
0.7500000000000057
 40
1.0
 40
1.0
 40
1.0
 40
1.0
 10
215.7648800898781
 20
96.06244638188146
 30
0.0
 10
215.8013669699744
 20
96.0602123455948
 30
0.0
 10
215.8396226620026
 20
96.05306885514281
 30
0.0
 10
215.9171696989919
 20
96.02360697440976
 30
0.0
 10
215.9571171141995
 20
96.00063389332792
 30
0.0
 10
216.0314620244348
 20
95.93720895746796
 30
0.0
 10
216.0666052694361
 20
95.89581895914482
 30
0.0
 10
216.1255882300068
 20
95.80391168390399
 30
0.0
 10
216.1500058525143
 20
95.7532351591663
 30
0.0
 10
216.2090821675736
 20
95.60058414280687
 30
0.0
 10
216.2315710361606
 20
95.49636494124677
 30
0.0
 10
216.2595752976309
 20
95.29522370048109
 30
0.0
 10
216.2649298961829
 20
95.19672944177448
 30
0.0
 10
216.2649298961829
 20
95.10115164998086
 30
0.0
  0
LINE
  5
DD
330
1F
100
AcDbEntity
  8
0
  6
HIDDEN
 62
     7
370
     0
100
AcDbLine
 10
175.7649290319
 20
112.0988528941
 30
0.0
 11
175.7649290319
 21
94.5988528196
 31
0.0
  0
LINE
  5
DE
330
1F
100
AcDbEntity
  8
0
  6
HIDDEN
 62
     7
370
     0
100
AcDbLine
 10
175.7649290319
 20
129.5988529686
 30
0.0
 11
175.7649290319
 21
112.0988528941
 31
0.0
  0
LINE
  5
DF
330
1F
100
AcDbEntity
  8
0
  6
HIDDEN
 62
     7
370
     0
100
AcDbLine
 10
180.6309553738
 20
112.0988528941
 30
0.0
 11
180.6309553738
 21
94.098853669
 31
0.0
  0
LINE
  5
E0
330
1F
100
AcDbEntity
  8
0
  6
HIDDEN
 62
     7
370
     0
100
AcDbLine
 10
180.6309553738
 20
130.0988521192
 30
0.0
 11
180.6309553738
 21
112.0988528941
 31
0.0
  0
LINE
  5
E1
330
1F
100
AcDbEntity
  8
0
  6
HIDDEN
 62
     7
370
     0
100
AcDbLine
 10
199.6649312731
 20
127.9152974252
 30
0.0
 11
215.2649308499
 21
127.9152974252
 31
0.0
  0
LINE
  5
E2
330
1F
100
AcDbEntity
  8
0
  6
HIDDEN
 62
     7
370
     0
100
AcDbLine
 10
199.6649312731
 20
96.282408363
 30
0.0
 11
215.2649308499
 21
96.282408363
 31
0.0
  0
LINE
  5
E3
330
1F
100
AcDbEntity
  8
0
  6
HIDDEN
 62
     7
370
     0
100
AcDbLine
 10
171.7649302389
 20
112.0988528941
 30
0.0
 11
171.7649302389
 21
95.4988531534
 31
0.0
  0
LINE
  5
E4
330
1F
100
AcDbEntity
  8
0
  6
HIDDEN
 62
     7
370
     0
100
AcDbLine
 10
171.7649302389
 20
128.6988526348
 30
0.0
 11
171.7649302389
 21
112.0988528941
 31
0.0
  0
LINE
  5
E5
330
1F
100
AcDbEntity
  8
0
  6
HIDDEN
 62
     7
370
     0
100
AcDbLine
 10
170.764930075
 20
112.0988528941
 30
0.0
 11
170.764930075
 21
98.098852462
 31
0.0
  0
LINE
  5
E6
330
1F
100
AcDbEntity
  8
0
  6
HIDDEN
 62
     7
370
     0
100
AcDbLine
 10
170.764930075
 20
126.0988533262
 30
0.0
 11
170.764930075
 21
112.0988528941
 31
0.0
  0
LINE
  5
E7
330
1F
100
AcDbEntity
  8
0
  6
HIDDEN
 62
     7
370
     0
100
AcDbLine
 10
135.4086901936
 20
112.0988528941
 30
0.0
 11
135.4086901936
 21
105.348852719
 31
0.0
  0
LINE
  5
E8
330
1F
100
AcDbEntity
  8
0
  6
HIDDEN
 62
     7
370
     0
100
AcDbLine
 10
135.4086901936
 20
118.8488530692
 30
0.0
 11
135.4086901936
 21
112.0988528941
 31
0.0
  0
LINE
  5
E9
330
1F
100
AcDbEntity
  8
0
  6
HIDDEN
 62
     7
370
     0
100
AcDbLine
 10
139.7649298831
 20
112.0988528941
 30
0.0
 11
139.7649298831
 21
98.098852462
 31
0.0
  0
LINE
  5
EA
330
1F
100
AcDbEntity
  8
0
  6
HIDDEN
 62
     7
370
     0
100
AcDbLine
 10
139.7649298831
 20
126.0988533262
 30
0.0
 11
139.7649298831
 21
112.0988528941
 31
0.0
  0
SPLINE
  5
EB
330
1F
100
AcDbEntity
  8
0
  6
HIDDEN
 62
     7
370
     0
100
AcDbSpline
210
0.0
220
0.0
230
1.0
 70
     8
 71
     3
 72
     9
 73
     5
 74
     0
 42
0.000000001
 43
0.00000001
 40
0.0
 40
0.0
 40
0.0
 40
0.0
 40
0.8533205365894019
 40
1.0
 40
1.0
 40
1.0
 40
1.0
 10
215.7649318631362
 20
134.9988531086697
 30
0.0
 10
215.7651160433995
 20
135.2326188415113
 30
0.0
 10
215.7653318828823
 20
135.5065671678646
 30
0.0
 10
215.763540581386
 20
135.7335243024054
 30
0.0
 10
215.7632778342437
 20
135.766814253117
 30
0.0
  0
SPLINE
  5
EC
330
1F
100
AcDbEntity
  8
0
  6
HIDDEN
 62
     7
370
     0
100
AcDbSpline
210
0.0
220
0.0
230
1.0
 70
     8
 71
     3
 72
    14
 73
    10
 74
     0
 42
0.000000001
 43
0.00000001
 40
0.0
 40
0.0
 40
0.0
 40
0.0
 40
0.0922334814700629
 40
0.2577617057713697
 40
0.4181801914090923
 40
0.5832388774505552
 40
0.7438427597790359
 40
0.9090745636138163
 40
1.0
 40
1.0
 40
1.0
 40
1.0
 10
215.6913946326446
 20
137.5808052484049
 30
0.0
 10
215.6892077173951
 20
137.5808381576903
 30
0.0
 10
215.6830960213375
 20
137.5809301281266
 30
0.0
 10
215.6836189028574
 20
137.4183487065859
 30
0.0
 10
215.6982365275123
 20
137.1101130285908
 30
0.0
 10
215.7149170611702
 20
136.6659063933429
 30
0.0
 10
215.7486537809199
 20
136.0976337512028
 30
0.0
 10
215.7857877541122
 20
135.5282412747805
 30
0.0
 10
215.7743765856986
 20
135.1375372126758
 30
0.0
 10
215.7703260834884
 20
134.9988531086697
 30
0.0
  0
SPLINE
  5
ED
330
1F
100
AcDbEntity
  8
0
  6
HIDDEN
 62
     7
370
     0
100
AcDbSpline
210
0.0
220
0.0
230
1.0
 70
     8
 71
     3
 72
    14
 73
    10
 74
     0
 42
0.000000001
 43
0.00000001
 40
0.0
 40
0.0
 40
0.0
 40
0.0
 40
0.25
 40
0.25
 40
0.5
 40
0.5
 40
0.75
 40
0.75
 40
1.0
 40
1.0
 40
1.0
 40
1.0
 10
215.7703266261664
 20
134.998852894093
 30
0.0
 10
215.7425086854468
 20
134.4270700998848
 30
0.0
 10
215.7596081287609
 20
133.8550951513959
 30
0.0
 10
215.7723042104099
 20
132.7111789069769
 30
0.0
 10
215.771200762362
 20
132.1391804534415
 30
0.0
 10
215.7664533338766
 20
130.9952084047978
 30
0.0
 10
215.763700505367
 20
130.4232229697079
 30
0.0
 10
215.7635415251567
 20
129.2792465998889
 30
0.0
 10
215.764688684167
 20
128.7072578251544
 30
0.0
 10
215.7648903161685
 20
128.1352690087044
 30
0.0
  0
SPLINE
  5
EE
330
1F
100
AcDbEntity
  8
0
  6
HIDDEN
 62
     7
370
     0
100
AcDbSpline
210
0.0
220
0.0
230
1.0
 70
     8
 71
     3
 72
    14
 73
    10
 74
     0
 42
0.000000001
 43
0.00000001
 40
0.0
 40
0.0
 40
0.0
 40
0.0
 40
0.25
 40
0.25
 40
0.5
 40
0.5
 40
0.75
 40
0.75
 40
1.0
 40
1.0
 40
1.0
 40
1.0
 10
215.7703156521494
 20
89.19885289409297
 30
0.0
 10
215.7425570284117
 20
89.7705606712824
 30
0.0
 10
215.7595652753517
 20
90.3425544651562
 30
0.0
 10
215.7723615428676
 20
91.48647606467154
 30
0.0
 10
215.7711500783985
 20
92.05848836947949
 30
0.0
 10
215.7663642868009
 20
93.2024714902677
 30
0.0
 10
215.7637678428306
 20
93.7744627289811
 30
0.0
 10
215.7634901624504
 20
94.91845402040661
 30
0.0
 10
215.7646311855185
 20
95.4904502391676
 30
0.0
 10
215.7648800898781
 20
96.06244638188147
 30
0.0
  0
SPLINE
  5
EF
330
1F
100
AcDbEntity
  8
0
  6
HIDDEN
 62
     7
370
     0
100
AcDbSpline
210
0.0
220
0.0
230
1.0
 70
     8
 71
     3
 72
     9
 73
     5
 74
     0
 42
0.000000001
 43
0.00000001
 40
0.0
 40
0.0
 40
0.0
 40
0.0
 40
0.9349922053947402
 40
0.9999999999999999
 40
0.9999999999999999
 40
0.9999999999999999
 40
0.9999999999999999
 10
215.7649318631362
 20
89.19885267951628
 30
0.0
 10
215.765337349155
 20
88.94800846222996
 30
0.0
 10
215.7657710276568
 20
88.67972364034696
 30
0.0
 10
215.7637308374737
 20
88.46099347586318
 30
0.0
 10
215.7635982092094
 20
88.44677431025644
 30
0.0
  0
SPLINE
  5
F0
330
1F
100
AcDbEntity
  8
0
  6
HIDDEN
 62
     7
370
     0
100
AcDbSpline
210
0.0
220
0.0
230
1.0
 70
     8
 71
     3
 72
    14
 73
    10
 74
     0
 42
0.000000001
 43
0.00000001
 40
0.0
 40
0.0
 40
0.0
 40
0.0
 40
0.1133565741485829
 40
0.2788682004971107
 40
0.4392492398182014
 40
0.6042651699693699
 40
0.7648715224204428
 40
0.9301056260402456
 40
1.0
 40
1.0
 40
1.0
 40
1.0
 10
215.691275423355
 20
86.61426303424975
 30
0.0
 10
215.6887969642474
 20
86.6179845421027
 30
0.0
 10
215.6826997137213
 20
86.62713981347436
 30
0.0
 10
215.6845278739201
 20
86.81095490058094
 30
0.0
 10
215.7007896394145
 20
87.13812565299358
 30
0.0
 10
215.7172842606955
 20
87.59831349491272
 30
0.0
 10
215.7552880751616
 20
88.18086138321209
 30
0.0
 10
215.7859070251882
 20
88.73205440499618
 30
0.0
 10
215.7738906305925
 20
89.09188832258884
 30
0.0
 10
215.7703186329078
 20
89.19885267951628
 30
0.0
  0
LINE
  5
F1
330
1F
100
AcDbEntity
  8
0
  6
HIDDEN
 62
     7
370
     0
100
AcDbLine
 10
144.4399298578
 20
136.8988536064
 30
0.0
 11
145.1085589304
 21
136.8988536064
 31
0.0
  0
ELLIPSE
  5
F2
330
1F
100
AcDbEntity
  8
0
  6
HIDDEN
 62
     7
370
     0
100
AcDbEllipse
 10
145.1085590463
 20
137.6988528941
 30
0.0
 11
0.0
 21
0.8000000000000114
 31
0.0
210
0.0
220
0.0
230
1.0
 40
0.4142135624
 41
3.141592653589793
 42
4.712388980384695
  0
LINE
  5
F3
330
1F
100
AcDbEntity
  8
0
  6
HIDDEN
 62
     7
370
     0
100
AcDbLine
 10
145.1085589304
 20
89.6988536928
 30
0.0
 11
144.4399298578
 21
89.6988536928
 31
0.0
  0
ELLIPSE
  5
F4
330
1F
100
AcDbEntity
  8
0
  6
HIDDEN
 62
     7
370
     0
100
AcDbEllipse
 10
145.1085590463
 20
88.8988528941
 30
0.0
 11
0.0
 21
0.7999999999999972
 31
0.0
210
0.0
220
0.0
230
1.0
 40
0.4142135624
 41
4.712388980384695
 42
6.283185307179586
  0
LINE
  5
F5
330
1F
100
AcDbEntity
  8
0
  6
HIDDEN
 62
     7
370
     0
100
AcDbLine
 10
145.4399297889
 20
82.2377566014
 30
0.0
 11
144.6568455956
 21
81.7843664203
 31
0.0
  0
LINE
  5
F6
330
1F
100
AcDbEntity
  8
0
  6
HIDDEN
 62
     7
370
     0
100
AcDbLine
 10
144.7289227452
 20
142.4880295757
 30
0.0
 11
145.4399297889
 21
141.777022532
 31
0.0
  0
LINE
  5
F7
330
1F
100
AcDbEntity
  8
0
  6
HIDDEN
 62
     7
370
     0
100
AcDbLine
 10
199.6649312731
 20
89.1988526795
 30
0.0
 11
199.6649312731
 21
96.282408363
 31
0.0
  0
LINE
  5
F8
330
1F
100
AcDbEntity
  8
0
  6
HIDDEN
 62
     7
370
     0
100
AcDbLine
 10
199.6649312731
 20
134.9988531087
 30
0.0
 11
199.6649312731
 21
127.9152974252
 31
0.0
  0
LINE
  5
F9
330
1F
100
AcDbEntity
  8
0
  6
HIDDEN
 62
     7
370
     0
100
AcDbLine
 10
160.3149301316
 20
89.6988536928
 30
0.0
 11
145.1085589304
 21
89.6988536928
 31
0.0
  0
LINE
  5
FA
330
1F
100
AcDbEntity
  8
0
  6
HIDDEN
 62
     7
370
     0
100
AcDbLine
 10
149.2956061791
 20
82.2377566014
 30
0.0
 11
145.4399297889
 21
82.2377566014
 31
0.0
  0
LINE
  5
FB
330
1F
100
AcDbEntity
  8
0
  6
HIDDEN
 62
     7
370
     0
100
AcDbLine
 10
160.3149301316
 20
82.2377566014
 30
0.0
 11
155.4342540856
 21
82.2377566014
 31
0.0
  0
LINE
  5
FC
330
1F
100
AcDbEntity
  8
0
  6
HIDDEN
 62
     7
370
     0
100
AcDbLine
 10
145.4399297889
 20
82.2377566014
 30
0.0
 11
145.4399297889
 21
88.8988531891
 31
0.0
  0
LINE
  5
FD
330
1F
100
AcDbEntity
  8
0
  6
HIDDEN
 62
     7
370
     0
100
AcDbLine
 10
145.1085589304
 20
136.8988536064
 30
0.0
 11
160.3149301316
 21
136.8988536064
 31
0.0
  0
LINE
  5
FE
330
1F
100
AcDbEntity
  8
0
  6
HIDDEN
 62
     7
370
     0
100
AcDbLine
 10
145.4399297889
 20
141.777022532
 30
0.0
 11
149.3974435087
 21
141.777022532
 31
0.0
  0
LINE
  5
FF
330
1F
100
AcDbEntity
  8
0
  6
HIDDEN
 62
     7
370
     0
100
AcDbLine
 10
155.3324158247
 20
141.777022532
 30
0.0
 11
160.3149301316
 21
141.777022532
 31
0.0
  0
LINE
  5
100
330
1F
100
AcDbEntity
  8
0
  6
HIDDEN
 62
     7
370
     0
100
AcDbLine
 10
145.4399297889
 20
141.777022532
 30
0.0
 11
145.4399297889
 21
137.6988522474
 31
0.0
  0
LINE
  5
101
330
1F
100
AcDbEntity
  8
0
  6
HIDDEN
 62
     7
370
     0
100
AcDbLine
 10
78.6407510694
 20
105.348852719
 30
0.0
 11
78.6407510694
 21
118.8488530692
 31
0.0
  0
LINE
  5
102
330
1F
100
AcDbEntity
  8
0
  6
HIDDEN
 62
     7
370
     0
100
AcDbLine
 10
147.6149298194
 20
136.4988524232
 30
0.0
 11
157.1149299796
 21
136.4988524232
 31
0.0
  0
LINE
  5
103
330
1F
100
AcDbEntity
  8
0
  6
HIDDEN
 62
     7
370
     0
100
AcDbLine
 10
199.6649312731
 20
137.5988524173
 30
0.0
 11
199.6649312731
 21
134.9988531087
 31
0.0
  0
LINE
  5
104
330
1F
100
AcDbEntity
  8
0
  6
HIDDEN
 62
     7
370
     0
100
AcDbLine
 10
199.6649312731
 20
86.5988533709
 30
0.0
 11
199.6649312731
 21
89.1988526795
 31
0.0
  0
LINE
  5
105
330
1F
100
AcDbEntity
  8
0
  6
HIDDEN
 62
     7
370
     0
100
AcDbLine
 10
175.7649290319
 20
128.8488533113
 30
0.0
 11
172.1649295594
 21
128.8488533113
 31
0.0
  0
LINE
  5
106
330
1F
100
AcDbEntity
  8
0
  6
HIDDEN
 62
     7
370
     0
100
AcDbLine
 10
172.1649295594
 20
95.3488524769
 30
0.0
 11
175.7649290319
 21
95.3488524769
 31
0.0
  0
ARC
  5
107
330
1F
100
AcDbEntity
  8
0
  6
HIDDEN
 62
     7
370
     0
100
AcDbCircle
 10
172.1649298962
 20
128.4488528941
 30
0.0
 40
0.4000000000000341
100
AcDbArc
 50
90.0
 51
180.0
  0
ARC
  5
108
330
1F
100
AcDbEntity
  8
0
  6
HIDDEN
 62
     7
370
     0
100
AcDbCircle
 10
172.1649298962
 20
95.7488528941
 30
0.0
 40
0.4000000000000341
100
AcDbArc
 50
180.0
 51
270.0
  0
LINE
  5
109
330
1F
100
AcDbEntity
  8
0
  6
HIDDEN
 62
     7
370
     0
100
AcDbLine
 10
156.7649296429
 20
127.0988525588
 30
0.0
 11
155.764929479
 21
126.0988533262
 31
0.0
  0
LINE
  5
10A
330
1F
100
AcDbEntity
  8
0
  6
HIDDEN
 62
     7
370
     0
100
AcDbLine
 10
155.764929479
 20
98.098852462
 30
0.0
 11
156.7649296429
 21
97.0988532294
 31
0.0
  0
LINE
  5
10B
330
1F
100
AcDbEntity
  8
0
  6
HIDDEN
 62
     7
370
     0
100
AcDbLine
 10
165.9772987421
 20
97.0988532294
 30
0.0
 11
167.541875964
 21
98.4116883714
 31
0.0
  0
LINE
  5
10C
330
1F
100
AcDbEntity
  8
0
  6
HIDDEN
 62
     7
370
     0
100
AcDbLine
 10
167.541875964
 20
125.7860174168
 30
0.0
 11
165.9772987421
 21
127.0988525588
 31
0.0
  0
LINE
  5
10D
330
1F
100
AcDbEntity
  8
0
  6
HIDDEN
 62
     7
370
     0
100
AcDbLine
 10
165.9772987421
 20
127.0988525588
 30
0.0
 11
156.7649296429
 21
127.0988525588
 31
0.0
  0
LINE
  5
10E
330
1F
100
AcDbEntity
  8
0
  6
HIDDEN
 62
     7
370
     0
100
AcDbLine
 10
156.7649296429
 20
97.0988532294
 30
0.0
 11
165.9772987421
 21
97.0988532294
 31
0.0
  0
ARC
  5
10F
330
1F
100
AcDbEntity
  8
0
  6
HIDDEN
 62
     7
370
     0
100
AcDbCircle
 10
170.9649298962
 20
126.3988528941
 30
0.0
 40
0.8000000000000114
100
AcDbArc
 50
270.0
 51
0.0
  0
ARC
  5
110
330
1F
100
AcDbEntity
  8
0
  6
HIDDEN
 62
     7
370
     0
100
AcDbCircle
 10
170.9649298962
 20
97.7988528941
 30
0.0
 40
0.8000000000000114
100
AcDbArc
 50
360.0
 51
90.0
  0
ARC
  5
111
330
1F
100
AcDbEntity
  8
0
  6
HIDDEN
 62
     7
370
     0
100
AcDbCircle
 10
168.0561060836
 20
126.3988528941
 30
0.0
 40
0.79999999999998
100
AcDbArc
 50
230.0
 51
270.0
  0
ARC
  5
112
330
1F
100
AcDbEntity
  8
0
  6
HIDDEN
 62
     7
370
     0
100
AcDbCircle
 10
168.0561060836
 20
97.7988528941
 30
0.0
 40
0.799999999999983
100
AcDbArc
 50
90.0
 51
130.0
  0
LINE
  5
113
330
1F
100
AcDbEntity
  8
0
  6
HIDDEN
 62
     7
370
     0
100
AcDbLine
 10
170.9649297353
 20
125.5988532443
 30
0.0
 11
168.0561057236
 21
125.5988532443
 31
0.0
  0
LINE
  5
114
330
1F
100
AcDbEntity
  8
0
  6
HIDDEN
 62
     7
370
     0
100
AcDbLine
 10
168.0561057236
 20
98.5988525439
 30
0.0
 11
170.9649297353
 21
98.5988525439
 31
0.0
  0
LINE
  5
115
330
1F
100
AcDbEntity
  8
0
  6
HIDDEN
 62
     7
370
     0
100
AcDbLine
 10
155.764929479
 20
101.848852611
 30
0.0
 11
156.7649296429
 21
102.8488527749
 31
0.0
  0
LINE
  5
116
330
1F
100
AcDbEntity
  8
0
  6
HIDDEN
 62
     7
370
     0
100
AcDbLine
 10
156.7649296429
 20
121.3488530133
 30
0.0
 11
155.764929479
 21
122.3488531772
 31
0.0
  0
LINE
  5
117
330
1F
100
AcDbEntity
  8
0
  6
HIDDEN
 62
     7
370
     0
100
AcDbLine
 10
175.7649290319
 20
121.3488530133
 30
0.0
 11
156.7649296429
 21
121.3488530133
 31
0.0
  0
LINE
  5
118
330
1F
100
AcDbEntity
  8
0
  6
HIDDEN
 62
     7
370
     0
100
AcDbLine
 10
156.7649296429
 20
102.8488527749
 30
0.0
 11
175.7649290319
 21
102.8488527749
 31
0.0
  0
ARC
  5
119
330
1F
100
AcDbEntity
  8
0
  6
HIDDEN
 62
     7
370
     0
100
AcDbCircle
 10
176.7649298962
 20
129.5988528941
 30
0.0
 40
1.000000000000028
100
AcDbArc
 50
0.0
 51
180.0
  0
ARC
  5
11A
330
1F
100
AcDbEntity
  8
0
  6
HIDDEN
 62
     7
370
     0
100
AcDbCircle
 10
176.7649298962
 20
129.5988528941
 30
0.0
 40
1.000000000000028
100
AcDbArc
 50
180.0
 51
0.0
  0
ARC
  5
11B
330
1F
100
AcDbEntity
  8
0
  6
HIDDEN
 62
     7
370
     0
100
AcDbCircle
 10
176.7649298962
 20
94.5988528941
 30
0.0
 40
1.000000000000028
100
AcDbArc
 50
180.0
 51
0.0
  0
ARC
  5
11C
330
1F
100
AcDbEntity
  8
0
  6
HIDDEN
 62
     7
370
     0
100
AcDbCircle
 10
176.7649298962
 20
94.5988528941
 30
0.0
 40
1.000000000000028
100
AcDbArc
 50
0.0
 51
180.0
  0
LINE
  5
11D
330
1F
100
AcDbEntity
  8
0
  6
HIDDEN
 62
     7
370
     0
100
AcDbLine
 10
175.7649290319
 20
129.5988529686
 30
0.0
 11
175.7649290319
 21
94.5988528196
 31
0.0
  0
LINE
  5
11E
330
1F
100
AcDbEntity
  8
0
  6
HIDDEN
 62
     7
370
     0
100
AcDbLine
 10
177.7649293597
 20
94.5988528196
 30
0.0
 11
177.7649293597
 21
129.5988529686
 31
0.0
  0
LINE
  5
11F
330
1F
100
AcDbEntity
  8
0
  6
HIDDEN
 62
     7
370
     0
100
AcDbLine
 10
178.6332759019
 20
130.5988531325
 30
0.0
 11
176.7649310585
 21
130.5988531325
 31
0.0
  0
LINE
  5
120
330
1F
100
AcDbEntity
  8
0
  6
HIDDEN
 62
     7
370
     0
100
AcDbLine
 10
176.7649310585
 20
93.5988526557
 30
0.0
 11
178.6332759019
 21
93.5988526557
 31
0.0
  0
ARC
  5
121
330
1F
100
AcDbEntity
  8
0
  6
HIDDEN
 62
     7
370
     0
100
AcDbCircle
 10
176.7649298962
 20
129.5988528941
 30
0.0
 40
1.0
100
AcDbArc
 50
90.0
 51
180.0
  0
ARC
  5
122
330
1F
100
AcDbEntity
  8
0
  6
HIDDEN
 62
     7
370
     0
100
AcDbCircle
 10
176.7649298962
 20
94.5988528941
 30
0.0
 40
0.9999999999999858
100
AcDbArc
 50
180.0
 51
270.0
  0
ARC
  5
123
330
1F
100
AcDbEntity
  8
0
  6
HIDDEN
 62
     7
370
     0
100
AcDbCircle
 10
178.6332773986
 20
129.5988528941
 30
0.0
 40
1.00000000000003
100
AcDbArc
 50
75.0
 51
90.0
  0
ARC
  5
124
330
1F
100
AcDbEntity
  8
0
  6
HIDDEN
 62
     7
370
     0
100
AcDbCircle
 10
178.6332773986
 20
94.5988528941
 30
0.0
 40
0.9999999999999893
100
AcDbArc
 50
270.0
 51
285.0
  0
LINE
  5
125
330
1F
100
AcDbEntity
  8
0
  6
HIDDEN
 62
     7
370
     0
100
AcDbLine
 10
178.8920978959
 20
93.632927886
 30
0.0
 11
180.6309553738
 21
94.098853669
 31
0.0
  0
LINE
  5
126
330
1F
100
AcDbEntity
  8
0
  6
HIDDEN
 62
     7
370
     0
100
AcDbLine
 10
180.6309553738
 20
130.0988521192
 30
0.0
 11
178.8920978959
 21
130.5647779022
 31
0.0
  0
LINE
  5
127
330
1F
100
AcDbEntity
  8
0
  6
HIDDEN
 62
     7
370
     0
100
AcDbLine
 10
199.6649312731
 20
130.0988521192
 30
0.0
 11
180.6309553738
 21
130.0988521192
 31
0.0
  0
LINE
  5
128
330
1F
100
AcDbEntity
  8
0
  6
HIDDEN
 62
     7
370
     0
100
AcDbLine
 10
180.6309553738
 20
94.098853669
 30
0.0
 11
199.6649312731
 21
94.098853669
 31
0.0
  0
ARC
  5
129
330
1F
100
AcDbEntity
  8
0
  6
HIDDEN
 62
     7
370
     0
100
AcDbCircle
 10
172.1649298962
 20
128.6988528941
 30
0.0
 40
0.4000000000000057
100
AcDbArc
 50
90.0
 51
180.0
  0
ARC
  5
12A
330
1F
100
AcDbEntity
  8
0
  6
HIDDEN
 62
     7
370
     0
100
AcDbCircle
 10
172.1649298962
 20
95.4988528941
 30
0.0
 40
0.4000000000000057
100
AcDbArc
 50
180.0
 51
270.0
  0
LINE
  5
12B
330
1F
100
AcDbEntity
  8
0
  6
HIDDEN
 62
     7
370
     0
100
AcDbLine
 10
175.7649290319
 20
129.098853818
 30
0.0
 11
172.1649295594
 21
129.098853818
 31
0.0
  0
LINE
  5
12C
330
1F
100
AcDbEntity
  8
0
  6
HIDDEN
 62
     7
370
     0
100
AcDbLine
 10
172.1649295594
 20
95.0988519702
 30
0.0
 11
175.7649290319
 21
95.0988519702
 31
0.0
  0
LINE
  5
12D
330
1F
100
AcDbEntity
  8
0
  6
HIDDEN
 62
     7
370
     0
100
AcDbLine
 10
171.7649302389
 20
127.0988525588
 30
0.0
 11
170.764930075
 21
126.0988533262
 31
0.0
  0
LINE
  5
12E
330
1F
100
AcDbEntity
  8
0
  6
HIDDEN
 62
     7
370
     0
100
AcDbLine
 10
170.764930075
 20
98.098852462
 30
0.0
 11
171.7649302389
 21
97.0988532294
 31
0.0
  0
LINE
  5
12F
330
1F
100
AcDbEntity
  8
0
  6
HIDDEN
 62
     7
370
     0
100
AcDbLine
 10
139.7649298831
 20
126.0988533262
 30
0.0
 11
135.4086901936
 21
118.8488530692
 31
0.0
  0
LINE
  5
130
330
1F
100
AcDbEntity
  8
0
  6
HIDDEN
 62
     7
370
     0
100
AcDbLine
 10
135.4086901936
 20
105.348852719
 30
0.0
 11
139.7649298831
 21
98.098852462
 31
0.0
  0
LINE
  5
131
330
1F
100
AcDbEntity
  8
0
  6
HIDDEN
 62
     7
370
     0
100
AcDbLine
 10
170.764930075
 20
126.0988533262
 30
0.0
 11
139.7649298831
 21
126.0988533262
 31
0.0
  0
LINE
  5
132
330
1F
100
AcDbEntity
  8
0
  6
HIDDEN
 62
     7
370
     0
100
AcDbLine
 10
139.7649298831
 20
98.098852462
 30
0.0
 11
170.764930075
 21
98.098852462
 31
0.0
  0
LINE
  5
133
330
1F
100
AcDbEntity
  8
0
  6
HIDDEN
 62
     7
370
     0
100
AcDbLine
 10
216.2649328764
 20
138.1729345534
 30
0.0
 11
215.6781698521
 21
137.586182705
 31
0.0
  0
LINE
  5
134
330
1F
100
AcDbEntity
  8
0
  6
HIDDEN
 62
     7
370
     0
100
AcDbLine
 10
215.6779686864
 20
86.611718661
 30
0.0
 11
216.2649328764
 21
86.0247712348
 31
0.0
  0
ARC
  5
135
330
1F
100
AcDbEntity
  8
0
  6
HIDDEN
 62
     7
370
     0
100
AcDbCircle
 10
73.8149298962
 20
103.0838528941
 30
0.0
 40
0.7999999999999972
100
AcDbArc
 50
90.0
 51
180.0
  0
ARC
  5
136
330
1F
100
AcDbEntity
  8
0
  6
HIDDEN
 62
     7
370
     0
100
AcDbCircle
 10
73.8149298962
 20
121.1138528941
 30
0.0
 40
0.7999999999999972
100
AcDbArc
 50
180.0
 51
270.0
  0
LINE
  5
137
330
1F
100
AcDbEntity
  8
0
  6
HIDDEN
 62
     7
370
     0
100
AcDbLine
 10
73.8149280604
 20
103.8838529725
 30
0.0
 11
77.5639931615
 21
103.8838529725
 31
0.0
  0
LINE
  5
138
330
1F
100
AcDbEntity
  8
0
  6
HIDDEN
 62
     7
370
     0
100
AcDbLine
 10
77.5639931615
 20
120.3138528157
 30
0.0
 11
73.8149280604
 21
120.3138528157
 31
0.0
  0
ARC
  5
139
330
1F
100
AcDbEntity
  8
0
  6
HIDDEN
 62
     7
370
     0
100
AcDbCircle
 10
77.5639897885
 20
104.2838528941
 30
0.0
 40
0.4000000000000173
100
AcDbArc
 50
270.0
 51
330.0
  0
ARC
  5
13A
330
1F
100
AcDbEntity
  8
0
  6
HIDDEN
 62
     7
370
     0
100
AcDbCircle
 10
77.5639897885
 20
119.9138528941
 30
0.0
 40
0.4000000000000173
100
AcDbArc
 50
30.0
 51
90.0
  0
LINE
  5
13B
330
1F
100
AcDbEntity
  8
0
  6
HIDDEN
 62
     7
370
     0
100
AcDbLine
 10
77.9104004558
 20
104.0838526327
 30
0.0
 11
78.6407510694
 21
105.348852719
 31
0.0
  0
LINE
  5
13C
330
1F
100
AcDbEntity
  8
0
  6
HIDDEN
 62
     7
370
     0
100
AcDbLine
 10
78.6407510694
 20
118.8488530692
 30
0.0
 11
77.9104004558
 21
120.1138531555
 31
0.0
  0
LINE
  5
13D
330
1F
100
AcDbEntity
  8
0
  6
HIDDEN
 62
     7
370
     0
100
AcDbLine
 10
78.6407510694
 20
105.348852719
 30
0.0
 11
135.4086901936
 21
105.348852719
 31
0.0
  0
LINE
  5
13E
330
1F
100
AcDbEntity
  8
0
  6
HIDDEN
 62
     7
370
     0
100
AcDbLine
 10
135.4086901936
 20
118.8488530692
 30
0.0
 11
78.6407510694
 21
118.8488530692
 31
0.0
  0
LINE
  5
13F
330
1F
100
AcDbEntity
  8
0
  6
HIDDEN
 62
     7
370
     0
100
AcDbLine
 10
147.6149298194
 20
136.4988524232
 30
0.0
 11
152.3649296667
 21
133.6447641019
 31
0.0
  0
LINE
  5
140
330
1F
100
AcDbEntity
  8
0
  6
HIDDEN
 62
     7
370
     0
100
AcDbLine
 10
152.3649296667
 20
133.6447641019
 30
0.0
 11
157.1149299796
 21
136.4988524232
 31
0.0
  0
LINE
  5
141
330
1F
100
AcDbEntity
  8
0
  6
HIDDEN
 62
     7
370
     0
100
AcDbLine
 10
147.6149298194
 20
136.8988536064
 30
0.0
 11
147.6149298194
 21
136.4988524232
 31
0.0
  0
LINE
  5
142
330
1F
100
AcDbEntity
  8
0
  6
HIDDEN
 62
     7
370
     0
100
AcDbLine
 10
157.1149299796
 20
136.4988524232
 30
0.0
 11
157.1149299796
 21
136.8988536064
 31
0.0
  0
LINE
  5
143
330
1F
100
AcDbEntity
  8
0
  6
HIDDEN
 62
     7
370
     0
100
AcDbLine
 10
215.6922067459
 20
137.5988524173
 30
0.0
 11
199.6649312731
 21
137.5988524173
 31
0.0
  0
LINE
  5
144
330
1F
100
AcDbEntity
  8
0
  6
HIDDEN
 62
     7
370
     0
100
AcDbLine
 10
199.6649312731
 20
86.5988533709
 30
0.0
 11
215.6919906791
 21
86.5988533709
 31
0.0
  0
LINE
  5
145
330
1F
100
AcDbEntity
  8
VERMASSUNG
100
AcDbLine
 10
176.2649298962
 20
134.3238528941
 30
0.0
 11
176.2649298962
 21
89.8738528941
 31
0.0
  0
LINE
  5
146
330
1F
100
AcDbEntity
  8
VERMASSUNG
100
AcDbLine
 10
181.9085287775
 20
144.0988528941
 30
0.0
 11
181.9085287775
 21
80.0988528941
 31
0.0
  0
DIMENSION
  5
147
330
1F
100
AcDbEntity
  8
VERMASSUNG
100
AcDbDimension
  2
_D
 10
216.2649298962
 20
149.7610151303
 30
0.0
 11
196.2649298962
 21
149.7610151303
 31
0.0
 70
   160
  1
(<>)
 71
     2
 42
-1.0
  3
SLDDIMSTYLE0
100
AcDbAlignedDimension
 13
176.2649298962
 23
134.3238528941
 33
0.0
 14
216.2649298962
 24
143.4988528941
 34
0.0
 50
0.0
100
AcDbRotatedDimension
  0
DIMENSION
  5
154
330
1F
100
AcDbEntity
  8
VERMASSUNG
100
AcDbDimension
  2
_D_1
 10
64.1494228519
 20
143.8488528941
 30
0.0
 11
64.1494228519
 21
112.0988528941
 31
0.0
 70
   160
  1
CAT 40 %%c<>
 71
     2
 42
-1.0
  3
SLDDIMSTYLE1
100
AcDbAlignedDimension
 13
159.7149298962
 23
80.3488528941
 33
0.0
 14
159.7149298962
 24
143.8488528941
 34
0.0
 50
90.0
100
AcDbRotatedDimension
  0
DIMENSION
  5
161
330
1F
100
AcDbEntity
  8
VERMASSUNG
100
AcDbDimension
  2
_D_2
 10
225.4839810289
 20
94.0988528941
 30
0.0
 11
225.4839810289
 21
112.0988528941
 31
0.0
 70
   160
  1
%%c<>
 71
     2
 42
-1.0
  3
SLDDIMSTYLE0
100
AcDbAlignedDimension
 13
199.6649298961
 23
130.0988528941
 33
0.0
 14
199.6649298961
 24
94.0988528941
 34
0.0
 50
90.0
100
AcDbRotatedDimension
  0
DIMENSION
  5
16C
330
1F
100
AcDbEntity
  8
VERMASSUNG
100
AcDbDimension
  2
_D_3
 10
216.2649298962
 20
161.7610151303
 30
0.0
 11
144.6399298962
 21
161.7610151303
 31
0.0
 70
   160
  1
(<>)
 71
     2
 42
-1.0
  3
SLDDIMSTYLE0
100
AcDbAlignedDimension
 13
73.0149298962
 23
123.5059834911
 33
0.0
 14
216.2649298962
 24
143.4988528941
 34
0.0
100
AcDbRotatedDimension
  0
DIMENSION
  5
178
330
1F
100
AcDbEntity
  8
VERMASSUNG
100
AcDbDimension
  2
_D_4
 10
216.2649298962
 20
155.7610151303
 30
0.0
 11
178.7649298962
 21
155.7610151303
 31
0.0
 70
   160
  1
<>
 71
     2
 42
-1.0
  3
SLDDIMSTYLE0
100
AcDbAlignedDimension
 13
141.2649298962
 23
134.3238528941
 33
0.0
 14
216.2649298962
 24
143.4988528941
 34
0.0
100
AcDbRotatedDimension
  0
DIMENSION
  5
182
330
1F
100
AcDbEntity
  8
VERMASSUNG
100
AcDbDimension
  2
_D_5
 10
232.3614751309
 20
80.0988528941
 30
0.0
 11
232.3614751309
 21
112.0988528941
 31
0.0
 70
   160
  1
ST6 %%c<>
 71
     2
 42
-1.0
  3
SLDDIMSTYLE0
100
AcDbAlignedDimension
 13
215.6649298962
 23
144.0988528941
 33
0.0
 14
215.6649298962
 24
80.0988528941
 34
0.0
 50
90.0
100
AcDbRotatedDimension
  0
LINE
  5
18E
330
1F
100
AcDbEntity
  8
VERMASSUNG
  6
CENTERX2
 62
     7
370
     0
100
AcDbLine
 10
218.3614751309
 20
112.0988528941
 30
0.0
 11
71.0149298962
 21
112.0988528941
 31
0.0
  0
LINE
  5
18F
330
1F
100
AcDbEntity
  8
0
  6
Continuous
 62
     7
370
    15
100
AcDbLine
 10
274.8164587942
 20
44.0462263369
 30
0.0
 11
274.639653094
 21
44.1483276503
 31
0.0
  0
LINE
  5
190
330
1F
100
AcDbEntity
  8
0
  6
Continuous
 62
     7
370
    15
100
AcDbLine
 10
270.7499337255
 20
44.1483277136
 30
0.0
 11
270.5731279454
 21
44.0462267343
 31
0.0
  0
LINE
  5
191
330
1F
100
AcDbEntity
  8
0
  6
Continuous
 62
     7
370
    15
100
AcDbLine
 10
275.6947943427
 20
42.5156100376
 30
0.0
 11
275.6947943427
 21
42.8218127021
 31
0.0
  0
LINE
  5
192
330
1F
100
AcDbEntity
  8
0
  6
Continuous
 62
     7
370
    15
100
AcDbLine
 10
269.6947936841
 20
42.8218132724
 30
0.0
 11
269.6947936841
 21
42.5156106078
 31
0.0
  0
LINE
  5
193
330
1F
100
AcDbEntity
  8
0
  6
Continuous
 62
     7
370
    15
100
AcDbLine
 10
278.1590323051
 20
13.7443283102
 30
0.0
 11
278.3711308187
 21
13.8668084651
 31
0.0
  0
LINE
  5
194
330
1F
100
AcDbEntity
  8
0
  6
Continuous
 62
     7
370
    15
100
AcDbLine
 10
289.4709025456
 20
33.0942605524
 30
0.0
 11
289.4709025456
 21
33.3391840905
 31
0.0
  0
LINE
  5
195
330
1F
100
AcDbEntity
  8
0
  6
Continuous
 62
     7
370
    15
100
AcDbLine
 10
286.1565435259
 20
40.6647006552
 30
0.0
 11
274.4259771331
 21
47.4366124895
 31
0.0
  0
LINE
  5
196
330
1F
100
AcDbEntity
  8
0
  6
Continuous
 62
     7
370
    15
100
AcDbLine
 10
258.4272770998
 20
19.7230489507
 30
0.0
 11
270.1578434926
 21
12.9511371163
 31
0.0
  0
SPLINE
  5
197
330
1F
100
AcDbEntity
  8
0
  6
Continuous
 62
     7
370
    15
100
AcDbSpline
210
0.0
220
0.0
230
1.0
 70
     8
 71
     3
 72
    25
 73
    21
 74
     0
 42
0.000000001
 43
0.00000001
 40
0.0
 40
0.0
 40
0.0
 40
0.0
 40
0.0077270784574027
 40
0.0668277696814864
 40
0.1259853031234657
 40
0.1851662340454427
 40
0.2443479126841212
 40
0.3034998200680558
 40
0.3625986981768356
 40
0.4216218278114973
 40
0.4805483172583653
 40
0.5393625206698596
 40
0.5980605527336331
 40
0.6566626709753157
 40
0.715229179041062
 40
0.7738523737278842
 40
0.8327503765491889
 40
0.8922737384311599
 40
0.9528600135171883
 40
1.0
 40
1.0
 40
1.0
 40
1.0
 10
272.5703271257752
 20
26.97488470307904
 30
0.0
 10
272.5846241414505
 20
27.01525346466504
 30
0.0
 10
272.7082721250904
 20
27.36438338698544
 30
0.0
 10
272.9882647417484
 20
28.02154219656181
 30
0.0
 10
273.4353043137988
 20
28.93182364149879
 30
0.0
 10
273.9455186907672
 20
29.81581831822428
 30
0.0
 10
274.5079467451571
 20
30.66175989415333
 30
0.0
 10
275.1162361729733
 20
31.45856815156629
 30
0.0
 10
275.7618461842399
 20
32.19586552045
 30
0.0
 10
276.4360313098684
 20
32.8641830599984
 30
0.0
 10
277.1294156123658
 20
33.45509012685874
 30
0.0
 10
277.832278725267
 20
33.96136409412475
 30
0.0
 10
278.5346741569997
 20
34.37719113345391
 30
0.0
 10
279.2266752498463
 20
34.69829507941131
 30
0.0
 10
279.8986353986239
 20
34.92214652322644
 30
0.0
 10
280.541566848862
 20
35.04764845803674
 30
0.0
 10
281.1488113105817
 20
35.07645974395073
 30
0.0
 10
281.7133898908427
 20
35.00600854841754
 30
0.0
 10
282.1981619588654
 20
34.86330020229045
 30
0.0
 10
282.4691623765619
 20
34.70015719199439
 30
0.0
 10
282.5877495793573
 20
34.62876736384923
 30
0.0
  0
SPLINE
  5
198
330
1F
100
AcDbEntity
  8
0
  6
Continuous
 62
     7
370
    15
100
AcDbSpline
210
0.0
220
0.0
230
1.0
 70
     8
 71
     3
 72
    15
 73
    11
 74
     0
 42
0.000000001
 43
0.00000001
 40
0.0
 40
0.0
 40
0.0
 40
0.0
 40
0.0971762770786042
 40
0.2321618192341746
 40
0.3671856275813315
 40
0.5021300577192027
 40
0.6368372053684285
 40
0.7710946415066029
 40
0.9046642867974091
 40
0.9999999999999999
 40
0.9999999999999999
 40
0.9999999999999999
 40
0.9999999999999999
 10
254.9817109894191
 20
27.71509343372396
 30
0.0
 10
254.9744266657238
 20
27.44128952905047
 30
0.0
 10
254.9570238397271
 20
26.78715032415997
 30
0.0
 10
255.0269461333095
 20
25.80546752430974
 30
0.0
 10
255.1770482373428
 20
24.77175346189561
 30
0.0
 10
255.4138829057871
 20
23.80207840982708
 30
0.0
 10
255.7315771537039
 20
22.90121978181321
 30
0.0
 10
256.1322545186688
 20
22.0813130757873
 30
0.0
 10
256.5563728355434
 20
21.40367924861473
 30
0.0
 10
256.8786462443364
 20
21.04113570037472
 30
0.0
 10
257.0128683764689
 20
20.89014164778484
 30
0.0
  0
SPLINE
  5
199
330
1F
100
AcDbEntity
  8
0
  6
Continuous
 62
     7
370
    15
100
AcDbSpline
210
0.0
220
0.0
230
1.0
 70
     8
 71
     3
 72
    16
 73
    12
 74
     0
 42
0.000000001
 43
0.00000001
 40
0.0
 40
0.0
 40
0.0
 40
0.0
 40
0.0876969357986416
 40
0.2131784066117413
 40
0.3394831861908196
 40
0.4665902869415249
 40
0.594348937480498
 40
0.7225582521702093
 40
0.8510294527756549
 40
0.9796168133822808
 40
1.0
 40
1.0
 40
1.0
 40
1.0
 10
272.707167406178
 20
48.07794551732121
 30
0.0
 10
272.5165946287434
 20
48.11752159540629
 30
0.0
 10
272.0533401185705
 20
48.21372524481878
 30
0.0
 10
271.2718545857058
 20
48.24459337234885
 30
0.0
 10
270.3753978534538
 20
48.18749532943728
 30
0.0
 10
269.4482476205354
 20
48.02078914382587
 30
0.0
 10
268.499113600623
 20
47.74939538626909
 30
0.0
 10
267.5344288013096
 20
47.37666387649691
 30
0.0
 10
266.5629071433462
 20
46.89513719452
 30
0.0
 10
265.8613447683464
 20
46.50195061137259
 30
0.0
 10
265.4889888439112
 20
46.24389181067897
 30
0.0
 10
265.4380405159538
 20
46.20858241032508
 30
0.0
  0
SPLINE
  5
19A
330
1F
100
AcDbEntity
  8
0
  6
Continuous
 62
     7
370
    15
100
AcDbSpline
210
0.0
220
0.0
230
1.0
 70
     8
 71
     3
 72
    11
 73
     7
 74
     0
 42
0.000000001
 43
0.00000001
 40
0.0
 40
0.0
 40
0.0
 40
0.0
 40
0.0997025584593488
 40
0.5257255178128474
 40
0.9477184433107337
 40
1.0
 40
1.0
 40
1.0
 40
1.0
 10
273.443788951027
 20
19.15031620155564
 30
0.0
 10
273.4055797509815
 20
19.17049651156659
 30
0.0
 10
273.2041049664866
 20
19.27690605705946
 30
0.0
 10
272.8988052639178
 20
19.5687948405844
 30
0.0
 10
272.6308539963366
 20
19.88477974152923
 30
0.0
 10
272.5122935620137
 20
20.08539957065083
 30
0.0
 10
272.4992240752483
 20
20.1075148590822
 30
0.0
  0
SPLINE
  5
19B
330
1F
100
AcDbEntity
  8
0
  6
Continuous
 62
     7
370
    15
100
AcDbSpline
210
0.0
220
0.0
230
1.0
 70
     8
 71
     3
 72
    10
 73
     6
 74
     0
 42
0.000000001
 43
0.00000001
 40
0.0
 40
0.0
 40
0.0
 40
0.0
 40
0.1256872425388812
 40
0.6352554011779455
 40
1.0
 40
1.0
 40
1.0
 40
1.0
 10
269.2323191142257
 20
47.97820464908823
 30
0.0
 10
269.2104012137655
 20
48.05420706770763
 30
0.0
 10
269.0996225510424
 20
48.43834268843803
 30
0.0
 10
268.8825494044919
 20
49.00718311608873
 30
0.0
 10
268.6402687470196
 20
49.45071838077398
 30
0.0
 10
268.5391944341288
 20
49.63575181509197
 30
0.0
  0
LINE
  5
19C
330
1F
100
AcDbEntity
  8
0
  6
Continuous
 62
     7
370
    15
100
AcDbLine
 10
266.3127357951
 20
51.9759530046
 30
0.0
 11
264.9602964392
 21
52.7566996261
 31
0.0
  0
LINE
  5
19D
330
1F
100
AcDbEntity
  8
0
  6
Continuous
 62
     7
370
    15
100
AcDbLine
 10
253.244346771
 20
28.3585369957
 30
0.0
 11
254.9768746386
 21
27.3583699469
 31
0.0
  0
LINE
  5
19E
330
1F
100
AcDbEntity
  8
0
  6
Continuous
 62
     7
370
    15
100
AcDbLine
 10
266.0888128817
 20
46.6061089119
 30
0.0
 11
264.3559432295
 21
47.6064732688
 31
0.0
  0
LINE
  5
19F
330
1F
100
AcDbEntity
  8
0
  6
Continuous
 62
     7
370
    15
100
AcDbLine
 10
262.4679407415
 20
54.1955059445
 30
0.0
 11
261.1243400407
 21
54.971150119
 31
0.0
  0
SPLINE
  5
1A0
330
1F
100
AcDbEntity
  8
0
  6
Continuous
 62
     7
370
    15
100
AcDbSpline
210
0.0
220
0.0
230
1.0
 70
     8
 71
     3
 72
    28
 73
    24
 74
     0
 42
0.000000001
 43
0.00000001
 40
0.0
 40
0.0
 40
0.0
 40
0.0
 40
0.0205655312851056
 40
0.0696616524654362
 40
0.1189334952703697
 40
0.168333171941708
 40
0.2178118855826996
 40
0.2673301011552004
 40
0.3168588274219122
 40
0.3663790244326629
 40
0.4158838544662509
 40
0.4653710258558055
 40
0.5148411025121292
 40
0.5642962118832096
 40
0.6137394081146961
 40
0.6631743144996161
 40
0.7126046192191081
 40
0.7620343290240532
 40
0.8114667141923854
 40
0.8609051685447445
 40
0.9103536621416908
 40
0.9598162455728017
 40
0.9999999999999999
 40
0.9999999999999999
 40
0.9999999999999999
 40
0.9999999999999999
 10
257.959843689783
 20
55.72652754553437
 30
0.0
 10
257.8384734139688
 20
55.7270810534516
 30
0.0
 10
257.4273557114309
 20
55.72895595158249
 30
0.0
 10
256.6934783766847
 20
55.62069371227631
 30
0.0
 10
255.7660846279936
 20
55.40540353861646
 30
0.0
 10
254.8177785976488
 20
55.08006979933994
 30
0.0
 10
253.8582047608321
 20
54.65523957358928
 30
0.0
 10
252.8939430434571
 20
54.13201626464275
 30
0.0
 10
251.932340381142
 20
53.51507295897294
 30
0.0
 10
250.980362225879
 20
52.80900213497554
 30
0.0
 10
250.0448521875052
 20
52.01917761159791
 30
0.0
 10
249.13244155135
 20
51.15144811114185
 30
0.0
 10
248.2495878391097
 20
50.21217663943143
 30
0.0
 10
247.4025338647981
 20
49.20820153060162
 30
0.0
 10
246.5972829364668
 20
48.14678743189883
 30
0.0
 10
245.8395481369467
 20
47.03558985951832
 30
0.0
 10
245.1347418831257
 20
45.88260169428391
 30
0.0
 10
244.4878505724583
 20
44.69609071677726
 30
0.0
 10
243.9037304786214
 20
43.48460909043485
 30
0.0
 10
243.3858348635094
 20
42.25666696647926
 30
0.0
 10
242.9407887818927
 20
41.02164854299016
 30
0.0
 10
242.5849776164219
 20
39.86346778596148
 30
0.0
 10
242.4148937369443
 20
39.12645029610989
 30
0.0
 10
242.3386540487625
 20
38.79608398636105
 30
0.0
  0
LINE
  5
1A1
330
1F
100
AcDbEntity
  8
0
  6
Continuous
 62
     7
370
    15
100
AcDbLine
 10
252.0856956611
 20
53.5975697174
 30
0.0
 11
230.7880886964
 21
61.2723838945
 31
0.0
  0
LINE
  5
1A2
330
1F
100
AcDbEntity
  8
0
  6
Continuous
 62
     7
370
    15
100
AcDbLine
 10
224.6233067018
 20
50.5935112493
 30
0.0
 11
245.0442653913
 21
33.3502228445
 31
0.0
  0
SPLINE
  5
1A3
330
1F
100
AcDbEntity
  8
0
  6
Continuous
 62
     7
370
    15
100
AcDbSpline
210
0.0
220
0.0
230
1.0
 70
     8
 71
     3
 72
    10
 73
     6
 74
     0
 42
0.000000001
 43
0.00000001
 40
0.0
 40
0.0
 40
0.0
 40
0.0
 40
0.1447652053742413
 40
0.6489962575960492
 40
0.9999999999999999
 40
0.9999999999999999
 40
0.9999999999999999
 40
0.9999999999999999
 10
253.6017385462032
 20
23.72146698912196
 30
0.0
 10
253.6845615703533
 20
23.72013395534353
 30
0.0
 10
254.0558651068435
 20
23.71415783745518
 30
0.0
 10
254.6535923442962
 20
23.78860685680336
 30
0.0
 10
255.1762553023943
 20
23.91299600364959
 30
0.0
 10
255.3907655812804
 20
23.96404754684197
 30
0.0
  0
LINE
  5
1A4
330
1F
100
AcDbEntity
  8
0
  6
Continuous
 62
     7
370
    15
100
AcDbLine
 10
249.0865868364
 20
25.2596486767
 30
0.0
 11
250.4390261923
 21
24.4789020552
 31
0.0
  0
LINE
  5
1A5
330
1F
100
AcDbEntity
  8
0
  6
Continuous
 62
     7
370
    15
100
AcDbLine
 10
245.250630438
 20
27.4740991696
 30
0.0
 11
246.5942311388
 21
26.6984549951
 31
0.0
  0
SPLINE
  5
1A6
330
1F
100
AcDbEntity
  8
0
  6
Continuous
 62
     7
370
    15
100
AcDbSpline
210
0.0
220
0.0
230
1.0
 70
     8
 71
     3
 72
    10
 73
     6
 74
     0
 42
0.000000001
 43
0.00000001
 40
0.0
 40
0.0
 40
0.0
 40
0.0
 40
0.1771763650671859
 40
0.7022542986619045
 40
1.0
 40
1.0
 40
1.0
 40
1.0
 10
242.3446069618424
 20
31.42564459173817
 30
0.0
 10
242.3757612804083
 20
31.3227174387868
 30
0.0
 10
242.4992441960134
 20
30.91475650346836
 30
0.0
 10
242.7141810610175
 20
30.36684963072828
 30
0.0
 10
242.9403620875052
 20
29.96715333648498
 30
0.0
 10
243.0222076076165
 20
29.82251984712073
 30
0.0
  0
SPLINE
  5
1A7
330
1F
100
AcDbEntity
  8
0
  6
Continuous
 62
     7
370
    15
100
AcDbSpline
210
0.0
220
0.0
230
1.0
 70
     8
 71
     3
 72
    25
 73
    21
 74
     0
 42
0.000000001
 43
0.00000001
 40
0.0
 40
0.0
 40
0.0
 40
0.0
 40
0.0127054121119517
 40
0.0699395792670329
 40
0.1277029871508172
 40
0.186671282583347
 40
0.2469365613859869
 40
0.3081277032324771
 40
0.3697556008264248
 40
0.4314348770829284
 40
0.4930123015173712
 40
0.5544705403207368
 40
0.615838555189362
 40
0.6771641167865096
 40
0.7385022115890109
 40
0.7998949722300507
 40
0.8613988272721371
 40
0.9230721685630178
 40
0.9816780932894061
 40
1.0
 40
1.0
 40
1.0
 40
1.0
 10
230.8614406764649
 20
61.2339815835776
 30
0.0
 10
230.8265975235538
 20
61.25116347168181
 30
0.0
 10
230.6347961531251
 20
61.34574474259487
 30
0.0
 10
230.2381295115773
 20
61.41582545264178
 30
0.0
 10
229.6847102696693
 20
61.43802906627322
 30
0.0
 10
229.0993925723238
 20
61.3467709891715
 30
0.0
 10
228.4946607477625
 20
61.15316980970375
 30
0.0
 10
227.8794098566696
 20
60.85593556280514
 30
0.0
 10
227.2668015157483
 20
60.46144077482526
 30
0.0
 10
226.6694769559787
 20
59.97813255704983
 30
0.0
 10
226.0989602367069
 20
59.41651687865498
 30
0.0
 10
225.565333573616
 20
58.78775788563935
 30
0.0
 10
225.0777414237557
 20
58.10364578855831
 30
0.0
 10
224.6445852189733
 20
57.37659587675992
 30
0.0
 10
224.2734953095676
 20
56.61958227663001
 30
0.0
 10
223.9713179575447
 20
55.84596804786197
 30
0.0
 10
223.743610667393
 20
55.06901847820365
 30
0.0
 10
223.5988770761454
 20
54.31609252104956
 30
0.0
 10
223.547430903342
 20
53.75937869787353
 30
0.0
 10
223.5441166503295
 20
53.46165978984036
 30
0.0
 10
223.5433272944699
 20
53.39075205778721
 30
0.0
  0
SPLINE
  5
1A8
330
1F
100
AcDbEntity
  8
0
  6
Continuous
 62
     7
370
    15
100
AcDbSpline
210
0.0
220
0.0
230
1.0
 70
     8
 71
     3
 72
    13
 73
     9
 74
     0
 42
0.000000001
 43
0.00000001
 40
0.0
 40
0.0
 40
0.0
 40
0.0
 40
0.1093043094363878
 40
0.3160463537654198
 40
0.5227761162988479
 40
0.7274784331289141
 40
0.9280589380592797
 40
1.0
 40
1.0
 40
1.0
 40
1.0
 10
223.5433272944699
 20
53.39075205778721
 30
0.0
 10
223.5457863786771
 20
53.26531935931059
 30
0.0
 10
223.5528966618971
 20
52.90263880992598
 30
0.0
 10
223.6329300436013
 20
52.33802015494815
 30
0.0
 10
223.8119310588533
 20
51.72484372912979
 30
0.0
 10
224.0854397340808
 20
51.1937756944553
 30
0.0
 10
224.3529715887447
 20
50.82370937202092
 30
0.0
 10
224.5513151682136
 20
50.66933491559004
 30
0.0
 10
224.6036745021919
 20
50.62858268280469
 30
0.0
  0
LWPOLYLINE
  5
1A9
330
1F
100
AcDbEntity
  8
0
  6
Continuous
 62
     7
370
    15
100
AcDbPolyline
 90
       30
 70
   128
 43
0.0
 10
270.7502497171
 20
41.9033878364
 10
270.377692979
 20
42.1709499071
 10
270.1134808065
 20
42.4784910937
 10
269.9699681531
 20
42.8116307186
 10
269.9538654228
 20
43.1547916156
 10
270.0659246734
 20
43.4919283443
 10
270.3009083357
 20
43.8072755544
 10
270.6478257445
 20
44.0860897617
 10
271.0904579259
 20
44.3153324719
 10
271.6081081535
 20
44.4842844275
 10
272.1765686295
 20
44.5850473959
 10
272.7692617325
 20
44.6129079863
 10
273.358472699
 20
44.5665641651
 10
273.9166507434
 20
44.448182947
 10
274.4176964298
 20
44.263299602
 10
274.8381810494
 20
44.020558998
 10
275.1584417804
 20
43.7313122404
 10
275.363506284
 20
43.4090829142
 10
275.4437848351
 20
43.0689386634
 10
275.3955236478
 20
42.726784218
 10
275.2209781547
 20
42.3986189704
 10
274.9283130728
 20
42.0997858549
 10
274.5312100245
 20
41.8442597355
 10
274.0482373204
 20
41.6439885784
 10
273.5019794255
 20
41.5083361579
 10
272.9179795216
 20
41.4436449692
 10
272.3235430044
 20
41.4529408775
 10
271.7464657204
 20
41.5357889688
 10
271.213731037
 20
41.6883154094
 10
270.7502497171
 20
41.9033878364
  0
ARC
  5
1AA
330
1F
100
AcDbEntity
  8
0
  6
Continuous
 62
     7
370
    15
100
AcDbCircle
 10
271.0463748709
 20
42.8217806139
 30
0.0
 40
1.312718916647306
100
AcDbArc
 50
111.1314560052
 51
248.8846889982
  0
LWPOLYLINE
  5
1AB
330
1F
100
AcDbEntity
  8
0
  6
Continuous
 62
     7
370
    15
100
AcDbPolyline
 90
       16
 70
   128
 43
0.0
 10
274.8164587942
 20
44.0462263369
 10
275.2108047945
 20
43.7650538125
 10
275.495534415
 20
43.4424578126
 10
275.6578592154
 20
43.0927360428
 10
275.6906812384
 20
42.7311750297
 10
275.5925714422
 20
42.3735738636
 10
275.3678132885
 20
42.0355637664
 10
275.0262317264
 20
41.7319163012
 10
274.5827550131
 20
41.475902644
 10
274.0567651837
 20
41.2787118055
 10
273.4712510802
 20
41.1489616853
 10
272.851800573
 20
41.0923241055
 10
272.2254906662
 20
41.111271856
 10
271.6196891525
 20
41.2049799686
 10
271.0608759419
 20
41.3693508799
 10
270.5734729929
 20
41.597201189
  0
LWPOLYLINE
  5
1AC
330
1F
100
AcDbEntity
  8
0
  6
Continuous
 62
     7
370
    15
100
AcDbPolyline
 90
       24
 70
   128
 43
0.0
 10
271.4573564496
 20
42.3115918642
 10
271.1693882718
 20
42.5308129875
 10
270.9945504672
 20
42.7867571687
 10
270.9458135638
 20
43.0604401609
 10
271.0267907483
 20
43.331564944
 10
271.2314747573
 20
43.5800243332
 10
271.5446867159
 20
43.7873903174
 10
271.9431971253
 20
43.9382835135
 10
272.3974500551
 20
44.0215129862
 10
272.8737560353
 20
44.0309057428
 10
273.336788804
 20
43.9657657163
 10
273.7522068291
 20
43.8309242452
 10
274.0892024931
 20
43.6363807894
 10
274.3227813977
 20
43.3965643077
 10
274.4356181424
 20
43.1292619404
 10
274.4193476478
 20
42.8542963509
 10
274.2751743509
 20
42.5920617163
 10
274.0137913473
 20
42.3620065538
 10
273.6545840061
 20
42.1811931388
 10
273.2241944037
 20
42.0630308153
 10
272.7545402993
 20
42.016284442
 10
272.2804560836
 20
42.0444196574
 10
271.8371010364
 20
42.1453506133
 10
271.4573564496
 20
42.3115918642
  0
SPLINE
  5
1AD
330
1F
100
AcDbEntity
  8
0
  6
Continuous
 62
     7
370
    15
100
AcDbSpline
210
0.0
220
0.0
230
1.0
 70
     8
 71
     3
 72
     9
 73
     5
 74
     0
 42
0.000000001
 43
0.00000001
 40
0.0
 40
0.0
 40
0.0
 40
0.0
 40
0.6311777331454482
 40
1.0
 40
1.0
 40
1.0
 40
1.0
 10
271.6343017612675
 20
42.21403052731835
 30
0.0
 10
271.4993338072066
 20
42.30696521617485
 30
0.0
 10
271.285498706611
 20
42.45420534201605
 30
0.0
 10
271.0928234597489
 20
42.67212668650614
 30
0.0
 10
271.0217605384344
 20
42.75250093077696
 30
0.0
  0
SPLINE
  5
1AE
330
1F
100
AcDbEntity
  8
0
  6
Continuous
 62
     7
370
    15
100
AcDbSpline
210
0.0
220
0.0
230
1.0
 70
     8
 71
     3
 72
    11
 73
     7
 74
     0
 42
0.000000001
 43
0.00000001
 40
0.0
 40
0.0
 40
0.0
 40
0.0
 40
0.216455371865404
 40
0.4403114810022752
 40
0.7519007136802195
 40
0.9999999999999999
 40
0.9999999999999999
 40
0.9999999999999999
 40
0.9999999999999999
 10
274.3678261713114
 20
43.27008271384299
 30
0.0
 10
274.3371180096351
 20
43.15956119521806
 30
0.0
 10
274.2746517560605
 20
42.93473936183516
 30
0.0
 10
274.1587319256318
 20
42.60977587330141
 30
0.0
 10
274.0343854315507
 20
42.38722888645927
 30
0.0
 10
273.954812011122
 20
42.32974357384912
 30
0.0
 10
273.919538625751
 20
42.30426142699719
 30
0.0
  0
SPLINE
  5
1AF
330
1F
100
AcDbEntity
  8
0
  6
Continuous
 62
     7
370
    15
100
AcDbSpline
210
0.0
220
0.0
230
1.0
 70
     8
 71
     3
 72
    11
 73
     7
 74
     0
 42
0.000000001
 43
0.00000001
 40
0.0
 40
0.0
 40
0.0
 40
0.0
 40
0.1843642706602104
 40
0.5174531487703331
 40
0.8663350677728844
 40
1.0
 40
1.0
 40
1.0
 40
1.0
 10
273.1430809004333
 20
43.97711310915577
 30
0.0
 10
273.2141511545664
 20
43.89797920588804
 30
0.0
 10
273.4136232467095
 20
43.67587495936708
 30
0.0
 10
273.785257185418
 20
43.38175252704839
 30
0.0
 10
274.1312883788891
 20
43.27742698785338
 30
0.0
 10
274.3165178243403
 20
43.27167578933133
 30
0.0
 10
274.3678261713114
 20
43.27008271384299
 30
0.0
  0
SPLINE
  5
1B0
330
1F
100
AcDbEntity
  8
0
  6
Continuous
 62
     7
370
    15
100
AcDbSpline
210
0.0
220
0.0
230
1.0
 70
     8
 71
     3
 72
    11
 73
     7
 74
     0
 42
0.000000001
 43
0.00000001
 40
0.0
 40
0.0
 40
0.0
 40
0.0
 40
0.2164553846659782
 40
0.4403114526035947
 40
0.7519007267705059
 40
1.0
 40
1.0
 40
1.0
 40
1.0
 10
271.4700480839948
 20
43.71832221762276
 30
0.0
 10
271.5846524421914
 20
43.69168783646487
 30
0.0
 10
271.8177795205964
 20
43.63750843559234
 30
0.0
 10
272.2504012339959
 20
43.62921114818456
 30
0.0
 10
272.7144646065719
 20
43.74634601625062
 30
0.0
 10
273.0114381741058
 20
43.9062366406412
 30
0.0
 10
273.1430809004333
 20
43.97711310915577
 30
0.0
  0
SPLINE
  5
1B1
330
1F
100
AcDbEntity
  8
0
  6
Continuous
 62
     7
370
    15
100
AcDbSpline
210
0.0
220
0.0
230
1.0
 70
     8
 71
     3
 72
    11
 73
     7
 74
     0
 42
0.000000001
 43
0.00000001
 40
0.0
 40
0.0
 40
0.0
 40
0.0
 40
0.2164553704043277
 40
0.4403109719174649
 40
0.7519007153548927
 40
1.0
 40
1.0
 40
1.0
 40
1.0
 10
271.0217605384345
 20
42.75250093077696
 30
0.0
 10
271.0524685124018
 20
42.77429881806723
 30
0.0
 10
271.1149343123397
 20
42.81863982434763
 30
0.0
 10
271.2308574602764
 20
42.99316994041371
 30
0.0
 10
271.3552006041384
 20
43.30641970433928
 30
0.0
 10
271.434774513993
 20
43.59181293631851
 30
0.0
 10
271.4700480839948
 20
43.71832221762276
 30
0.0
  0
LINE
  5
1B2
330
1F
100
AcDbEntity
  8
0
  6
Continuous
 62
     7
370
    15
100
AcDbLine
 10
271.470048084
 20
42.3043388107
 30
0.0
 11
271.470048084
 21
43.7183222176
 31
0.0
  0
LINE
  5
1B3
330
1F
100
AcDbEntity
  8
0
  6
Continuous
 62
     7
370
    15
100
AcDbLine
 10
273.1430809004
 20
42.0494035588
 30
0.0
 11
273.1430809004
 21
43.9771131092
 31
0.0
  0
LWPOLYLINE
  5
1B4
330
1F
100
AcDbEntity
  8
0
  6
Continuous
 62
     7
370
    15
100
AcDbPolyline
 90
       70
 70
   128
 43
0.0
 10
278.3693265004
 20
39.505147379
 10
277.3598061694
 20
38.8692499266
 10
276.358651
 20
38.1323935865
 10
275.3741570889
 20
37.300684715
 10
274.4144819094
 20
36.3810142892
 10
273.4875778803
 20
35.3810028269
 10
272.6011252768
 20
34.3089380827
 10
271.762470163
 20
33.1737027145
 10
270.9785618297
 20
31.9847039467
 10
270.255894843
 20
30.7517929668
 10
269.6004593236
 20
29.4851875524
 10
269.0176849711
 20
28.1953834833
 10
268.5124008923
 20
26.893066711
 10
268.0887947717
 20
25.5890297121
 10
267.750375993
 20
24.2940783351
 10
267.4999499559
 20
23.0189428284
 10
267.3395904169
 20
21.7741888687
 10
267.2706269775
 20
20.5701314163
 10
267.2936299372
 20
19.4167469067
 10
267.4084109522
 20
18.3235940195
 10
267.6140171087
 20
17.299730076
 10
267.9087447519
 20
16.3536388651
 10
268.2901526575
 20
15.493160608
 10
268.7550791533
 20
14.7254251311
 10
269.2996730709
 20
14.0567940677
 10
269.9194200877
 20
13.4928078138
 10
270.6091861908
 20
13.0381406559
 10
271.3632552139
 20
12.6965597032
 10
272.1753788865
 20
12.4708944638
 10
273.0388275426
 20
12.3630159277
 10
273.9464464251
 20
12.3738173597
 10
274.8907146266
 20
12.503210301
 10
275.8638074858
 20
12.750121047
 10
276.8576621131
 20
13.1125041387
 10
277.8640427097
 20
13.5873580175
 10
278.8746102911
 20
14.1707462645
 10
279.8809908877
 20
14.8578346898
 10
280.874845515
 20
15.642931726
 10
281.8479383742
 20
16.5195300808
 10
282.7922065757
 20
17.4803659987
 10
283.6998254582
 20
18.517479023
 10
284.5632741142
 20
19.6222741573
 10
285.3753977869
 20
20.7855974306
 10
286.1294668099
 20
21.9978079455
 10
286.819232913
 20
23.2488620944
 10
287.4389799299
 20
24.5283930232
 10
287.9835738475
 20
25.8257988399
 10
288.4485003432
 20
27.1303270229
 10
288.8299082488
 20
28.4311694744
 10
289.1246358921
 20
29.7175459791
 10
289.3302420485
 20
30.9787977378
 10
289.4450230636
 20
32.2044739641
 10
289.4680260232
 20
33.3844171257
 10
289.3990625838
 20
34.5088510857
 10
289.2387030448
 20
35.5684578627
 10
288.9882770077
 20
36.5544576214
 10
288.649858229
 20
37.4586789934
 10
288.2262521085
 20
38.2736307759
 10
287.7209680296
 20
38.9925589686
 10
287.1381936771
 20
39.6095060925
 10
286.4827581578
 20
40.1193617641
 10
285.760091171
 20
40.5178992013
 10
284.9761828378
 20
40.8018166727
 10
284.137527724
 20
40.9687614571
 10
283.2510751205
 20
41.0173498107
 10
282.3241710913
 20
40.9471806603
 10
281.3644959118
 20
40.7588337086
 10
280.3800020008
 20
40.4538701052
 10
279.3788468314
 20
40.034817291
 10
278.3693265004
 20
39.505147379
  0
LWPOLYLINE
  5
1B5
330
1F
100
AcDbEntity
  8
0
  6
Continuous
 62
     7
370
    15
100
AcDbPolyline
 90
       37
 70
   128
 43
0.0
 10
278.1571935093
 20
39.8725724964
 10
277.1430404823
 20
39.2345192813
 10
276.1370529133
 20
38.496415475
 10
275.1473303235
 20
37.6642022418
 10
274.1818411838
 20
36.7445808411
 10
273.2483592828
 20
35.7449546001
 10
272.3544009183
 20
34.6733736443
 10
271.5071623354
 20
33.5384637991
 10
270.7134667137
 20
32.3493640477
 10
269.979703252
 20
31.1156480183
 10
269.3117797531
 20
29.8472479426
 10
268.7150752086
 20
28.5543778535
 10
268.1943923836
 20
27.2474457559
 10
267.7539242308
 20
25.936974922
 10
267.3972170126
 20
24.6335164418
 10
267.1271433001
 20
23.3475651941
 10
266.9458762901
 20
22.0894742968
 10
266.8548772929
 20
20.869374072
 10
266.8548772929
 20
19.6970871599
 10
266.9458762901
 20
18.5820521408
 10
267.1271433001
 20
17.5332476785
 10
267.3972170126
 20
16.559116902
 10
267.7539242308
 20
15.6675038095
 10
268.1943923836
 20
14.8655866799
 10
268.7150752086
 20
14.1598221759
 10
269.3117797531
 20
13.5558924893
 10
269.979703252
 20
13.0586604707
 10
270.7134667137
 20
12.6721297013
 10
271.5071623354
 20
12.399411409
 10
272.3544009183
 20
12.2427024101
 10
273.2483592828
 20
12.2032638121
 10
274.1818411838
 20
12.281412833
 10
275.1473303235
 20
12.4765214653
 10
276.1370529133
 20
12.787017611
 10
277.1430404823
 20
13.2104023289
 10
278.1571935093
 20
13.743265275
 10
278.1590323051
 20
13.7443283102
  0
LWPOLYLINE
  5
1B6
330
1F
100
AcDbEntity
  8
0
  6
Continuous
 62
     7
370
    15
100
AcDbPolyline
 90
       19
 70
   128
 43
0.0
 10
289.4709025456
 20
33.3391840905
 10
289.4595097256
 20
33.9187506116
 10
289.3685107284
 20
35.0337856307
 10
289.1872437184
 20
36.0825900929
 10
288.9171700059
 20
37.0567208695
 10
288.5604627877
 20
37.948333962
 10
288.119994635
 20
38.7502510916
 10
287.59931181
 20
39.4560155956
 10
287.0026072655
 20
40.0599452821
 10
286.3346837666
 20
40.5571773008
 10
285.6009203049
 20
40.9437080702
 10
284.8072246832
 20
41.2164263625
 10
283.9599861002
 20
41.3731353613
 10
283.0660277357
 20
41.4125739593
 10
282.1325458347
 20
41.3344249385
 10
281.167056695
 20
41.1393163062
 10
280.1773341053
 20
40.8288201605
 10
279.1713465363
 20
40.4054354426
 10
278.1571935093
 20
39.8725724964
  0
SPLINE
  5
1B7
330
1F
100
AcDbEntity
  8
0
  6
Continuous
 62
     7
370
    15
100
AcDbSpline
210
0.0
220
0.0
230
1.0
 70
    11
 71
     3
 72
    94
 73
    90
 74
     0
 42
0.000000001
 43
0.00000001
 40
0.0
 40
0.0
 40
0.0
 40
0.0
 40
0.0312500000000005
 40
0.0312500000000005
 40
0.062500000000001
 40
0.062500000000001
 40
0.0937500000000015
 40
0.0937500000000015
 40
0.1093750000000018
 40
0.1093750000000018
 40
0.1250000000000021
 40
0.1250000000000021
 40
0.1562500000000021
 40
0.1562500000000021
 40
0.1718750000000019
 40
0.1718750000000019
 40
0.1875000000000017
 40
0.1875000000000017
 40
0.2187500000000017
 40
0.2187500000000017
 40
0.2343750000000017
 40
0.2343750000000017
 40
0.2500000000000017
 40
0.2500000000000017
 40
0.2812500000000017
 40
0.2812500000000017
 40
0.3125000000000017
 40
0.3125000000000017
 40
0.3281250000000015
 40
0.3281250000000015
 40
0.3437500000000013
 40
0.3437500000000013
 40
0.3750000000000011
 40
0.3750000000000011
 40
0.3906250000000009
 40
0.3906250000000009
 40
0.4062500000000008
 40
0.4062500000000008
 40
0.4218750000000007
 40
0.4218750000000007
 40
0.4375000000000005
 40
0.4375000000000005
 40
0.4687500000000008
 40
0.4687500000000008
 40
0.4843750000000008
 40
0.4843750000000008
 40
0.500000000000001
 40
0.500000000000001
 40
0.5312500000000006
 40
0.5312500000000006
 40
0.5625
 40
0.5625
 40
0.578125
 40
0.578125
 40
0.5937499999999999
 40
0.5937499999999999
 40
0.6249999999999998
 40
0.6249999999999998
 40
0.6562499999999998
 40
0.6562499999999998
 40
0.6874999999999998
 40
0.6874999999999998
 40
0.7187499999999997
 40
0.7187499999999997
 40
0.7499999999999997
 40
0.7499999999999997
 40
0.7812499999999997
 40
0.7812499999999997
 40
0.8124999999999996
 40
0.8124999999999996
 40
0.8281249999999997
 40
0.8281249999999997
 40
0.8437499999999997
 40
0.8437499999999997
 40
0.8593749999999997
 40
0.8593749999999997
 40
0.8749999999999997
 40
0.8749999999999997
 40
0.9062499999999998
 40
0.9062499999999998
 40
0.9218749999999998
 40
0.9218749999999998
 40
0.9374999999999999
 40
0.9374999999999999
 40
0.9531249999999999
 40
0.9531249999999999
 40
0.9687499999999999
 40
0.9687499999999999
 40
1.0
 40
1.0
 40
1.0
 40
1.0
 10
272.6782659435986
 20
44.86176208128144
 30
0.0
 10
272.9047823257853
 20
44.83140254125539
 30
0.0
 10
273.1263183383028
 20
44.78942406526237
 30
0.0
 10
273.5603345166147
 20
44.68572070002033
 30
0.0
 10
273.7740922073229
 20
44.62338781428738
 30
0.0
 10
274.1787788164768
 20
44.48489121662914
 30
0.0
 10
274.3713379576748
 20
44.40845625838559
 30
0.0
 10
274.6456700569863
 20
44.28383551337884
 30
0.0
 10
274.7350885425056
 20
44.24039575919374
 30
0.0
 10
274.9063804832996
 20
44.15144218441532
 30
0.0
 10
274.9883137607681
 20
44.10593618860661
 30
0.0
 10
275.223254722798
 20
43.96642798321817
 30
0.0
 10
275.3654964084442
 20
43.86948434407191
 30
0.0
 10
275.5567012148941
 20
43.71766899544686
 30
0.0
 10
275.6168842850626
 20
43.66579231636109
 30
0.0
 10
275.7274037999991
 20
43.56168291723392
 30
0.0
 10
275.7780283500787
 20
43.50924996987588
 30
0.0
 10
275.9161450355398
 20
43.35058312619817
 30
0.0
 10
275.9900186514374
 20
43.2430180340881
 30
0.0
 10
276.0717866745684
 20
43.07749012906724
 30
0.0
 10
276.0941030735235
 20
43.02157546735917
 30
0.0
 10
276.1277540682293
 20
42.91049575226155
 30
0.0
 10
276.1392601790836
 20
42.85502595462011
 30
0.0
 10
276.1577229352572
 20
42.68842769630793
 30
0.0
 10
276.1488233444579
 20
42.57712616942936
 30
0.0
 10
276.0838823774023
 20
42.35171601336596
 30
0.0
 10
276.0285440915241
 20
42.24087795931079
 30
0.0
 10
275.9117988028102
 20
42.07838123142853
 30
0.0
 10
275.8671836621979
 20
42.02472445491193
 30
0.0
 10
275.7659842037638
 20
41.91829365077352
 30
0.0
 10
275.7089170536478
 20
41.86514925511228
 30
0.0
 10
275.5228364895349
 20
41.71056509257853
 30
0.0
 10
275.3791680966656
 20
41.61350633149662
 30
0.0
 10
275.1342338023056
 20
41.47662640268944
 30
0.0
 10
275.0470377781461
 20
41.43219724541599
 30
0.0
 10
274.8654705813699
 20
41.34790420442046
 30
0.0
 10
274.7714733087294
 20
41.30815253705227
 30
0.0
 10
274.5773136298128
 20
41.23333310583272
 30
0.0
 10
274.4771504310601
 20
41.19826583711404
 30
0.0
 10
274.2707135002079
 20
41.13291129570175
 30
0.0
 10
274.1637940117
 20
41.10247501195524
 30
0.0
 10
273.8398292619354
 20
41.02025360452345
 30
0.0
 10
273.6192646661502
 20
40.97714770186819
 30
0.0
 10
273.2818636780632
 20
40.93018940393465
 30
0.0
 10
273.1677375796675
 20
40.91748230505184
 30
0.0
 10
272.9411903412533
 20
40.89861783306716
 30
0.0
 10
272.8285354038487
 20
40.89239433570146
 30
0.0
 10
272.492295265919
 20
40.88327545135924
 30
0.0
 10
272.2694250864407
 20
40.8899406558173
 30
0.0
 10
271.8322926217962
 20
40.92997573072159
 30
0.0
 10
271.6220659794055
 20
40.96285861514278
 30
0.0
 10
271.3184159738229
 20
41.03150724129917
 30
0.0
 10
271.2191628030519
 20
41.05762934982209
 30
0.0
 10
271.0246172869063
 20
41.11657294901389
 30
0.0
 10
270.9292763221906
 20
41.14946223792094
 30
0.0
 10
270.6545547449103
 20
41.25643954564524
 30
0.0
 10
270.4844825087181
 20
41.33930581849184
 30
0.0
 10
270.1700636845471
 20
41.528053731531
 30
0.0
 10
270.0246887706456
 20
41.63511170415602
 30
0.0
 10
269.7703335126393
 20
41.86528686061595
 30
0.0
 10
269.6602647828249
 20
41.98868890982902
 30
0.0
 10
269.4748728322211
 20
42.25132548607895
 30
0.0
 10
269.3993715017802
 20
42.39182705881524
 30
0.0
 10
269.2909677698445
 20
42.67698058720401
 30
0.0
 10
269.2570010846209
 20
42.82261066546639
 30
0.0
 10
269.2317566074038
 20
43.11844480999165
 30
0.0
 10
269.2411762266761
 20
43.26946051069196
 30
0.0
 10
269.3053594178163
 20
43.56003539905902
 30
0.0
 10
269.3596765892877
 20
43.70133796803354
 30
0.0
 10
269.4775157698876
 20
43.90546901398709
 30
0.0
 10
269.5231911607448
 20
43.97243615208934
 30
0.0
 10
269.6247697600591
 20
44.09980657775888
 30
0.0
 10
269.680873474127
 20
44.16065785764956
 30
0.0
 10
269.8036896344157
 20
44.27657892386497
 30
0.0
 10
269.8704014287292
 20
44.33164919626418
 30
0.0
 10
270.0147498902228
 20
44.43576162397139
 30
0.0
 10
270.0929967189083
 20
44.48511481706815
 30
0.0
 10
270.3399096537162
 20
44.6207944992024
 30
0.0
 10
270.5200072717736
 20
44.694960837148
 30
0.0
 10
270.8126160739739
 20
44.78301279920694
 30
0.0
 10
270.9145828425707
 20
44.80858221828556
 30
0.0
 10
271.1219913760962
 20
44.85107105911123
 30
0.0
 10
271.2275561656329
 20
44.86809960096117
 30
0.0
 10
271.4422475567361
 20
44.89431204459451
 30
0.0
 10
271.5513746989693
 20
44.90349437766535
 30
0.0
 10
271.7731548942222
 20
44.91436028913238
 30
0.0
 10
271.8862639868202
 20
44.91601209953839
 30
0.0
 10
272.2249326683577
 20
44.91017378761959
 30
0.0
 10
272.4517495614119
 20
44.89212162130748
 30
0.0
 10
272.6782659435986
 20
44.86176208128144
 30
0.0
  0
ARC
  5
1B8
330
1F
100
AcDbEntity
  8
0
  6
Continuous
 62
     7
370
    15
100
AcDbCircle
 10
271.6794691717
 20
42.6487225627
 30
0.0
 40
5.519709769004291
100
AcDbArc
 50
60.1598482374
 51
78.2113937417
  0
ARC
  5
1B9
330
1F
100
AcDbEntity
  8
0
  6
Continuous
 62
     7
370
    15
100
AcDbCircle
 10
261.1723538937
 20
24.4618512603
 30
0.0
 40
5.476467285896808
100
AcDbArc
 50
221.7301608718
 51
239.9172955692
  0
LINE
  5
1BA
330
1F
100
AcDbEntity
  8
0
  6
Continuous
 62
     7
370
    15
100
AcDbLine
 10
284.3792958764
 20
26.6896354291
 30
0.0
 11
286.5540877476
 21
29.395055666
 31
0.0
  0
SPLINE
  5
1BB
330
1F
100
AcDbEntity
  8
0
  6
Continuous
 62
     7
370
    15
100
AcDbSpline
210
0.0
220
0.0
230
1.0
 70
     8
 71
     3
 72
    20
 73
    16
 74
     0
 42
0.000000001
 43
0.00000001
 40
0.0
 40
0.0
 40
0.0
 40
0.0
 40
0.0469163091108927
 40
0.0977062414429347
 40
0.1516689633031509
 40
0.2078463383218534
 40
0.2651938476233422
 40
0.3192095203174491
 40
0.3728953068123794
 40
0.4259306594991003
 40
0.478153568599886
 40
0.5793596734499764
 40
0.6698058354121823
 40
0.8327057026615067
 40
0.9074992363786897
 40
0.9074992363786897
 40
0.9074992363786897
 40
0.9074992363786897
 10
286.5540864388911
 20
29.39505617610585
 30
0.0
 10
286.6544177832304
 20
29.51986741463169
 30
0.0
 10
286.8534704702624
 20
29.79536946026271
 30
0.0
 10
287.1194295936118
 20
30.25493878193619
 30
0.0
 10
287.345843797936
 20
30.76498084047237
 30
0.0
 10
287.5108708765461
 20
31.30151678465695
 30
0.0
 10
287.5938056208382
 20
31.82257349741211
 30
0.0
 10
287.5887679630462
 20
32.29632060593492
 30
0.0
 10
287.5000344893264
 20
32.69899786707315
 30
0.0
 10
287.3327635396643
 20
33.01902661289433
 30
0.0
 10
287.03018225382
 20
33.32633305022757
 30
0.0
 10
286.5291703765881
 20
33.44460299072959
 30
0.0
 10
285.8172318020553
 20
33.48349888289366
 30
0.0
 10
285.3165370037885
 20
33.5369556576375
 30
0.0
 10
284.6118230603477
 20
33.60019367569783
 30
0.0
 10
284.3789203538343
 20
33.62089193744498
 30
0.0
  0
SPLINE
  5
1BC
330
1F
100
AcDbEntity
  8
0
  6
Continuous
 62
     7
370
    15
100
AcDbSpline
210
0.0
220
0.0
230
1.0
 70
     8
 71
     3
 72
    20
 73
    16
 74
     0
 42
0.000000001
 43
0.00000001
 40
0.0
 40
0.0
 40
0.0
 40
0.0
 40
0.0469163091108927
 40
0.0977062414429347
 40
0.151668963303151
 40
0.2078463383218535
 40
0.2651938476233423
 40
0.319209520317449
 40
0.3728953068123794
 40
0.4259306594991003
 40
0.4781535685998861
 40
0.5793596734499766
 40
0.6698058354121822
 40
0.8327057026615067
 40
0.9074992363786888
 40
0.9074992363786888
 40
0.9074992363786888
 40
0.9074992363786888
 10
270.1845644544226
 20
19.94513228175807
 30
0.0
 10
270.0842331100833
 20
19.95410341583574
 30
0.0
 10
269.8851804230513
 20
19.99978412090433
 30
0.0
 10
269.6192212997018
 20
20.1522835749245
 30
0.0
 10
269.3928070953776
 20
20.40091335746466
 30
0.0
 10
269.2277800167677
 20
20.74691309236345
 30
0.0
 10
269.1448452724755
 20
21.17221538754898
 30
0.0
 10
269.1498829302674
 20
21.65177885195371
 30
0.0
 10
269.2386164039872
 20
22.15690560115018
 30
0.0
 10
269.4058873536494
 20
22.67006127462906
 30
0.0
 10
269.7084686394937
 20
23.32672062841224
 30
0.0
 10
270.2094805167255
 20
24.02344656958397
 30
0.0
 10
270.9214190912584
 20
24.88432924342299
 30
0.0
 10
271.4221138895251
 20
25.51587592725593
 30
0.0
 10
272.126827832966
 20
26.39275934548377
 30
0.0
 10
272.3597305394794
 20
26.68236134839421
 30
0.0
  0
LINE
  5
1BD
330
1F
100
AcDbEntity
  8
0
  6
Continuous
 62
     7
370
    15
100
AcDbLine
 10
272.3593571243
 20
19.7506724874
 30
0.0
 11
270.1845652531
 21
19.9451314773
 31
0.0
  0
SPLINE
  5
1BE
330
1F
100
AcDbEntity
  8
0
  6
Continuous
 62
     7
370
    15
100
AcDbSpline
210
0.0
220
0.0
230
1.0
 70
     8
 71
     3
 72
    18
 73
    14
 74
     0
 42
0.000000001
 43
0.00000001
 40
0.0
 40
0.0
 40
0.0
 40
0.0
 40
0.25
 40
0.25
 40
0.5
 40
0.5
 40
0.625
 40
0.625
 40
0.75
 40
0.75
 40
0.875
 40
0.875
 40
1.0
 40
1.0
 40
1.0
 40
1.0
 10
284.3789203538444
 20
33.62089193747808
 30
0.0
 10
284.3452197630871
 20
33.62388693766065
 30
0.0
 10
284.3090556885611
 20
33.62552427929772
 30
0.0
 10
284.2287675565443
 20
33.62441097178503
 30
0.0
 10
284.1836938609694
 20
33.62167309019044
 30
0.0
 10
284.1093390724495
 20
33.61080021837742
 30
0.0
 10
284.0826886796493
 20
33.60587487581596
 30
0.0
 10
284.029162729153
 20
33.5929944783902
 30
0.0
 10
284.0019586706101
 20
33.58488724379188
 30
0.0
 10
283.9526553219835
 20
33.56680920939807
 30
0.0
 10
283.9303302979953
 20
33.55681918266515
 30
0.0
 10
283.8919362770235
 20
33.53669999868089
 30
0.0
 10
283.8760662200946
 20
33.52678376866115
 30
0.0
 10
283.8622640480376
 20
33.51700896485622
 30
0.0
  0
SPLINE
  5
1BF
330
1F
100
AcDbEntity
  8
0
  6
Continuous
 62
     7
370
    15
100
AcDbSpline
210
0.0
220
0.0
230
1.0
 70
     8
 71
     3
 72
    10
 73
     6
 74
     0
 42
0.000000001
 43
0.00000001
 40
0.0
 40
0.0
 40
0.0
 40
0.0
 40
0.5
 40
0.5
 40
1.0
 40
1.0
 40
1.0
 40
1.0
 10
283.8622640480377
 20
33.51700896485622
 30
0.0
 10
283.8178262539691
 20
33.53216336346139
 30
0.0
 10
283.7719296399865
 20
33.54917687698372
 30
0.0
 10
283.6840943685963
 20
33.58611416182924
 30
0.0
 10
283.6421638818514
 20
33.606127464784
 30
0.0
 10
283.6077297763334
 20
33.62600585077621
 30
0.0
  0
LINE
  5
1C0
330
1F
100
AcDbEntity
  8
0
  6
Continuous
 62
     7
370
    15
100
AcDbLine
 10
282.6025645259
 20
34.63169654
 30
0.0
 11
282.5154068188
 21
34.6839994699
 31
0.0
  0
SPLINE
  5
1C1
330
1F
100
AcDbEntity
  8
0
  6
Continuous
 62
     7
370
    15
100
AcDbSpline
210
0.0
220
0.0
230
1.0
 70
     8
 71
     3
 72
    11
 73
     7
 74
     0
 42
0.000000001
 43
0.00000001
 40
0.0
 40
0.0
 40
0.0
 40
0.0
 40
0.1182061026864947
 40
0.3325212771198308
 40
0.7100385272460934
 40
1.0
 40
1.0
 40
1.0
 40
1.0
 10
272.5681460263647
 20
26.9756896031204
 30
0.0
 10
272.5654115199048
 20
26.96888317515425
 30
0.0
 10
272.5577191794952
 20
26.94973626083686
 30
0.0
 10
272.5138086042004
 20
26.88247459055964
 30
0.0
 10
272.4443144904518
 20
26.78858432648234
 30
0.0
 10
272.3853477556582
 20
26.71453074882052
 30
0.0
 10
272.3597318361118
 20
26.68236090773725
 30
0.0
  0
SPLINE
  5
1C2
330
1F
100
AcDbEntity
  8
0
  6
Continuous
 62
     7
370
    15
100
AcDbSpline
210
0.0
220
0.0
230
1.0
 70
     8
 71
     3
 72
    14
 73
    10
 74
     0
 42
0.000000001
 43
0.00000001
 40
0.0
 40
0.0
 40
0.0
 40
0.0
 40
0.1544296042425187
 40
0.313337529339807
 40
0.4677552883510131
 40
0.6266509010880691
 40
0.7810900443175887
 40
0.9400017587416801
 40
1.0
 40
1.0
 40
1.0
 40
1.0
 10
270.0961767263731
 20
20.27499463769116
 30
0.0
 10
270.0104143891982
 20
20.28921334868571
 30
0.0
 10
269.8364026835244
 20
20.31806310061819
 30
0.0
 10
269.6147897983365
 20
20.44556922271815
 30
0.0
 10
269.4269678875679
 20
20.63356385164758
 30
0.0
 10
269.2831480120245
 20
20.87864847705097
 30
0.0
 10
269.1895719580975
 20
21.17815418770324
 30
0.0
 10
269.1466396268964
 20
21.44317080461461
 30
0.0
 10
269.1550887072716
 20
21.61590575548004
 30
0.0
 10
269.1574044080865
 20
21.66324847784944
 30
0.0
  0
LINE
  5
1C3
330
1F
100
AcDbEntity
  8
0
  6
Continuous
 62
     7
370
    15
100
AcDbLine
 10
281.1247406006
 20
35.0594048994
 30
0.0
 11
283.6077299844
 21
33.6260056389
 31
0.0
  0
ARC
  5
1C4
330
1F
100
AcDbEntity
  8
0
  6
Continuous
 62
     7
370
    15
100
AcDbCircle
 10
267.9537333474
 20
33.7906464617
 30
0.0
 40
10.89807885117843
100
AcDbArc
 50
338.4827908683
 51
3.7810798931
  0
LINE
  5
1C5
330
1F
100
AcDbEntity
  8
0
  6
Continuous
 62
     7
370
    15
100
AcDbLine
 10
278.0922972407
 20
29.793441835
 30
0.0
 11
283.6077299844
 21
26.6094502852
 31
0.0
  0
LINE
  5
1C6
330
1F
100
AcDbEntity
  8
0
  6
Continuous
 62
     7
370
    15
100
AcDbLine
 10
273.4289898096
 20
19.1474170622
 30
0.0
 11
273.5161379678
 21
19.0951196466
 31
0.0
  0
LINE
  5
1C7
330
1F
100
AcDbEntity
  8
0
  6
Continuous
 62
     7
370
    15
100
AcDbLine
 10
269.227987867
 20
21.9980250972
 30
0.0
 11
272.4238148022
 21
20.1531134776
 31
0.0
  0
ARC
  5
1C8
330
1F
100
AcDbEntity
  8
0
  6
Continuous
 62
     7
370
    15
100
AcDbCircle
 10
279.4027285152
 20
26.107532567
 30
0.0
 40
24.46980433648033
100
AcDbArc
 50
124.9399509396
 51
176.0721550299
  0
LINE
  5
1C9
330
1F
100
AcDbEntity
  8
0
  6
Continuous
 62
     7
370
    15
100
AcDbLine
 10
272.5228072126
 20
20.0580175248
 30
0.0
 11
270.0961767264
 21
20.2749946377
 31
0.0
  0
SPLINE
  5
1CA
330
1F
100
AcDbEntity
  8
0
  6
Continuous
 62
     7
370
    15
100
AcDbSpline
210
0.0
220
0.0
230
1.0
 70
     8
 71
     3
 72
    18
 73
    14
 74
     0
 42
0.000000001
 43
0.00000001
 40
0.0
 40
0.0
 40
0.0
 40
0.0
 40
0.2499999999999947
 40
0.2499999999999947
 40
0.4999999999999893
 40
0.4999999999999893
 40
0.624999999999992
 40
0.624999999999992
 40
0.7499999999999947
 40
0.7499999999999947
 40
0.8749999999999973
 40
0.8749999999999973
 40
1.0
 40
1.0
 40
1.0
 40
1.0
 10
272.3593561259073
 20
19.75067313430213
 30
0.0
 10
272.3928788519903
 20
19.7476756974358
 30
0.0
 10
272.4259009600347
 20
19.74815155247572
 30
0.0
 10
272.4870053160091
 20
19.76060539796954
 30
0.0
 10
272.5160376465939
 20
19.77243882195397
 30
0.0
 10
272.5493385778762
 20
19.80758808191164
 30
0.0
 10
272.558611021619
 20
19.82244081741118
 30
0.0
 10
272.5702908078526
 20
19.85904791489147
 30
0.0
 10
272.5726187745205
 20
19.88146649028067
 30
0.0
 10
272.5688768753485
 20
19.92982985295683
 30
0.0
 10
272.5629137017563
 20
19.95611725588288
 30
0.0
 10
272.545937632996
 20
20.00770316513234
 30
0.0
 10
272.5349325366635
 20
20.03338231671815
 30
0.0
 10
272.5228063203489
 20
20.05801776630313
 30
0.0
  0
SPLINE
  5
1CB
330
1F
100
AcDbEntity
  8
0
  6
Continuous
 62
     7
370
    15
100
AcDbSpline
210
0.0
220
0.0
230
1.0
 70
     8
 71
     3
 72
    10
 73
     6
 74
     0
 42
0.000000001
 43
0.00000001
 40
0.0
 40
0.0
 40
0.0
 40
0.0
 40
0.5
 40
0.5
 40
1.0
 40
1.0
 40
1.0
 40
1.0
 10
272.4238143358741
 20
20.15311365497552
 30
0.0
 10
272.4582525770073
 20
20.13323288154346
 30
0.0
 10
272.483091844388
 20
20.11466887064008
 30
0.0
 10
272.5143705240226
 20
20.08286796633564
 30
0.0
 10
272.5214112911952
 20
20.06931815652488
 30
0.0
 10
272.5228063203489
 20
20.05801776630312
 30
0.0
  0
SPLINE
  5
1CC
330
1F
100
AcDbEntity
  8
0
  6
Continuous
 62
     7
370
    15
100
AcDbSpline
210
0.0
220
0.0
230
1.0
 70
     8
 71
     3
 72
    10
 73
     6
 74
     0
 42
0.000000001
 43
0.00000001
 40
0.0
 40
0.0
 40
0.0
 40
0.0
 40
0.5
 40
0.5
 40
1.0
 40
1.0
 40
1.0
 40
1.0
 10
283.6077297763334
 20
26.60945061175642
 30
0.0
 10
283.6421680174666
 20
26.58956983832436
 30
0.0
 10
283.6843257679689
 20
26.58100357491898
 30
0.0
 10
283.7719474588221
 20
26.58172879865294
 30
0.0
 10
283.8178723961689
 20
26.59062634247846
 30
0.0
 10
283.8622911823715
 20
26.60416303852876
 30
0.0
  0
SPLINE
  5
1CD
330
1F
100
AcDbEntity
  8
0
  6
Continuous
 62
     7
370
    15
100
AcDbSpline
210
0.0
220
0.0
230
1.0
 70
     8
 71
     3
 72
    16
 73
    12
 74
     0
 42
0.000000001
 43
0.00000001
 40
0.0
 40
0.0
 40
0.0
 40
0.0
 40
0.2500000000000157
 40
0.2500000000000157
 40
0.3750000000000106
 40
0.3750000000000106
 40
0.5000000000000056
 40
0.5000000000000056
 40
0.7500000000000028
 40
0.7500000000000028
 40
1.0
 40
1.0
 40
1.0
 40
1.0
 10
283.8622911823715
 20
26.60416303852877
 30
0.0
 10
283.8900158580494
 20
26.55631487043695
 30
0.0
 10
283.9275291256735
 20
26.51273411571491
 30
0.0
 10
284.0017501053007
 20
26.4790766080468
 30
0.0
 10
284.0285161102392
 20
26.4737924513771
 30
0.0
 10
284.0820439467424
 20
26.47458098506258
 30
0.0
 10
284.1086338488763
 20
26.48049158115715
 30
0.0
 10
284.1834175555285
 20
26.50792511720714
 30
0.0
 10
284.2283706464663
 20
26.53878334060357
 30
0.0
 10
284.3090338644282
 20
26.60816683250884
 30
0.0
 10
284.3457492868171
 20
26.64790575306616
 30
0.0
 10
284.3792947674877
 20
26.6896360121101
 30
0.0
  0
SPLINE
  5
1CE
330
1F
100
AcDbEntity
  8
0
  6
Continuous
 62
     7
370
    15
100
AcDbSpline
210
0.0
220
0.0
230
1.0
 70
     8
 71
     3
 72
    12
 73
     8
 74
     0
 42
0.000000001
 43
0.00000001
 40
0.0
 40
0.0
 40
0.0
 40
0.0
 40
0.2500000000000008
 40
0.2500000000000008
 40
0.5000000000000017
 40
0.5000000000000017
 40
1.0
 40
1.0
 40
1.0
 40
1.0
 10
247.6244256468621
 20
35.74725181446016
 30
0.0
 10
247.6582048131344
 20
35.72775151684665
 30
0.0
 10
247.696487830716
 20
35.70085970535181
 30
0.0
 10
247.7705734880412
 20
35.64228748629099
 30
0.0
 10
247.8058634843611
 20
35.61118119756527
 30
0.0
 10
247.9013602840272
 20
35.52005066437953
 30
0.0
 10
247.9501200444591
 20
35.46385174750327
 30
0.0
 10
247.9836838894484
 20
35.41628557798956
 30
0.0
  0
ARC
  5
1CF
330
1F
100
AcDbEntity
  8
0
  6
Continuous
 62
     7
370
    15
100
AcDbCircle
 10
263.4730956367
 20
47.0575713063
 30
0.0
 40
5.664744506667401
100
AcDbArc
 50
27.9822413793
 51
92.1814327427
  0
LINE
  5
1D0
330
1F
100
AcDbEntity
  8
0
  6
Continuous
 62
     7
370
    15
100
AcDbLine
 10
246.2719860486
 20
36.5279986654
 30
0.0
 11
247.6244254045
 21
35.7472520439
 31
0.0
  0
LWPOLYLINE
  5
1D1
330
1F
100
AcDbEntity
  8
0
  6
Continuous
 62
     7
370
    15
100
AcDbPolyline
 90
       24
 70
   128
 43
0.0
 10
246.2719860486
 20
36.5279986654
 10
246.6121078233
 20
37.8439842862
 10
247.0394617207
 20
39.169724164
 10
247.5504678928
 20
40.4941105535
 10
248.1408444831
 20
41.8060471817
 10
248.8056451639
 20
43.0945412614
 10
249.5392999657
 20
44.3487970234
 10
250.3356607171
 20
45.5583054476
 10
251.1880570206
 20
46.7129336116
 10
252.0893449855
 20
47.8030060558
 10
253.0319740697
 20
48.8193897592
 10
254.0080463489
 20
49.7535686586
 10
255.0093833589
 20
50.5977164571
 10
256.0275954073
 20
51.3447594508
 10
257.0541513303
 20
51.9884396123
 10
258.0804499426
 20
52.5233619212
 10
259.0978922347
 20
52.9450459297
 10
260.0979534794
 20
53.2499582621
 10
261.0722546031
 20
53.4355439314
 10
262.0126321237
 20
53.500248462
 10
262.9112075437
 20
53.4435290522
 10
263.7604507362
 20
53.2658607475
 10
264.5532474446
 20
52.9687328214
 10
264.9602964392
 20
52.7566996261
  0
ARC
  5
1D2
330
1F
100
AcDbEntity
  8
0
  6
Continuous
 62
     7
370
    15
100
AcDbCircle
 10
250.0543297289
 20
30.5479905397
 30
0.0
 40
0.6147234503142088
100
AcDbArc
 50
302.6055324315
 51
357.3944481669
  0
LINE
  5
1D3
330
1F
100
AcDbEntity
  8
0
  6
Continuous
 62
     7
370
    15
100
AcDbLine
 10
250.6684176593
 20
31.7431689144
 30
0.0
 11
250.6684176593
 21
30.5200453432
 31
0.0
  0
LINE
  5
1D4
330
1F
100
AcDbEntity
  8
0
  6
Continuous
 62
     7
370
    15
100
AcDbLine
 10
250.6684176593
 20
36.5461164124
 30
0.0
 11
250.6684176593
 21
35.3229928412
 31
0.0
  0
ARC
  5
1D5
330
1F
100
AcDbEntity
  8
0
  6
Continuous
 62
     7
370
    15
100
AcDbCircle
 10
250.4959876493
 20
36.5740868836
 30
0.0
 40
0.1746838734254913
100
AcDbArc
 50
350.7861087913
 51
129.2031972156
  0
LINE
  5
1D6
330
1F
100
AcDbEntity
  8
0
  6
Continuous
 62
     7
370
    15
100
AcDbLine
 10
250.3855747688
 20
36.7094510275
 30
0.0
 11
248.0305214851
 21
35.3499077055
 31
0.0
  0
LINE
  5
1D7
330
1F
100
AcDbEntity
  8
0
  6
Continuous
 62
     7
370
    15
100
AcDbLine
 10
247.9836838241
 20
35.4162853016
 30
0.0
 11
248.0305214851
 21
35.3499077055
 31
0.0
  0
LINE
  5
1D8
330
1F
100
AcDbEntity
  8
0
  6
Continuous
 62
     7
370
    15
100
AcDbLine
 10
248.0305214851
 20
28.6706039558
 30
0.0
 11
247.9836838241
 21
28.5501487474
 31
0.0
  0
LINE
  5
1D9
330
1F
100
AcDbEntity
  8
0
  6
Continuous
 62
     7
370
    15
100
AcDbLine
 10
248.0305214851
 20
28.6706039558
 30
0.0
 11
250.3855747688
 21
30.0301472778
 31
0.0
  0
ARC
  5
1DA
330
1F
100
AcDbEntity
  8
0
  6
Continuous
 62
     7
370
    15
100
AcDbCircle
 10
262.4020203635
 20
44.1701802665
 30
0.0
 40
3.952963971956267
100
AcDbArc
 50
60.376851816
 51
86.8041109246
  0
ARC
  5
1DB
330
1F
100
AcDbEntity
  8
0
  6
Continuous
 62
     7
370
    15
100
AcDbCircle
 10
255.2778875845
 20
31.8133301824
 30
0.0
 40
4.008850733393446
100
AcDbArc
 50
209.8954764797
 51
239.5183229612
  0
SPLINE
  5
1DC
330
1F
100
AcDbEntity
  8
0
  6
Continuous
 62
     7
370
    15
100
AcDbSpline
210
0.0
220
0.0
230
1.0
 70
     8
 71
     3
 72
     8
 73
     4
 74
     0
 42
0.000000001
 43
0.00000001
 40
0.0
 40
0.0
 40
0.0
 40
0.0
 40
1.0
 40
1.0
 40
1.0
 40
1.0
 10
245.282503957346
 20
37.78840308728894
 30
0.0
 10
244.9000036848281
 20
37.72499828618375
 30
0.0
 10
244.5173564811963
 20
37.66187189046174
 30
0.0
 10
244.1346022911376
 20
37.59897424341365
 30
0.0
  0
SPLINE
  5
1DD
330
1F
100
AcDbEntity
  8
0
  6
Continuous
 62
     7
370
    15
100
AcDbSpline
210
0.0
220
0.0
230
1.0
 70
     8
 71
     3
 72
     8
 73
     4
 74
     0
 42
0.000000001
 43
0.00000001
 40
0.0
 40
0.0
 40
0.0
 40
0.0
 40
0.0011858378198547
 40
0.0011858378198547
 40
0.0011858378198547
 40
0.0011858378198547
 10
243.7796303193605
 20
37.96680491251069
 30
0.0
 10
243.8983696063666
 20
37.84404744199444
 30
0.0
 10
244.016707695714
 20
37.7214308216271
 30
0.0
 10
244.1346022911376
 20
37.59897424341365
 30
0.0
  0
LWPOLYLINE
  5
1DE
330
1F
100
AcDbEntity
  8
0
  6
Continuous
 62
     7
370
    15
100
AcDbPolyline
 90
       26
 70
   128
 43
0.0
 10
243.7796303509
 20
37.9668049838
 10
244.1197521256
 20
39.2827906046
 10
244.547106023
 20
40.6085304825
 10
245.0581121951
 20
41.9329168719
 10
245.6484887854
 20
43.2448535001
 10
246.3132894662
 20
44.5333475798
 10
247.046944268
 20
45.7876033419
 10
247.8433050194
 20
46.997111766
 10
248.6957013229
 20
48.15173993
 10
249.5969892878
 20
49.2418123743
 10
250.539618372
 20
50.2581960776
 10
251.5156906512
 20
51.192374977
 10
252.5170276612
 20
52.0365227756
 10
253.5352397096
 20
52.7835657693
 10
254.5617956327
 20
53.4272459307
 10
255.5880942449
 20
53.9621682396
 10
256.605536537
 20
54.3838522481
 10
257.6055977817
 20
54.6887645805
 10
258.5798989055
 20
54.8743502498
 10
259.520276426
 20
54.9390547804
 10
260.418851846
 20
54.8823353707
 10
261.2680950385
 20
54.7046670659
 10
262.0608917469
 20
54.4075391399
 10
262.790599233
 20
53.993441591
 10
263.4511035694
 20
53.4658427039
 10
263.6157080863
 20
53.3056327087
  0
SPLINE
  5
1DF
330
1F
100
AcDbEntity
  8
0
  6
Continuous
 62
     7
370
    15
100
AcDbSpline
210
0.0
220
0.0
230
1.0
 70
     8
 71
     3
 72
    32
 73
    28
 74
     0
 42
0.000000001
 43
0.00000001
 40
0.0
 40
0.0
 40
0.0
 40
0.0
 40
0.1249999999999996
 40
0.1249999999999996
 40
0.1874999999999995
 40
0.1874999999999995
 40
0.2499999999999994
 40
0.2499999999999994
 40
0.3749999999999991
 40
0.3749999999999991
 40
0.4374999999999992
 40
0.4374999999999992
 40
0.4999999999999992
 40
0.4999999999999992
 40
0.6249999999999993
 40
0.6249999999999993
 40
0.6874999999999994
 40
0.6874999999999994
 40
0.7499999999999996
 40
0.7499999999999996
 40
0.8124999999999998
 40
0.8124999999999998
 40
0.8749999999999999
 40
0.8749999999999999
 40
0.9375
 40
0.9375
 40
1.0
 40
1.0
 40
1.0
 40
1.0
 10
286.2889213959462
 20
29.62286795467467
 30
0.0
 10
286.4291407830243
 20
29.7972995391591
 30
0.0
 10
286.5559772445915
 20
29.98307128178501
 30
0.0
 10
286.7248568762998
 20
30.27936674018068
 30
0.0
 10
286.7775743876698
 20
30.38146593201498
 30
0.0
 10
286.8730060741253
 20
30.58582276438028
 30
0.0
 10
286.9161175514295
 20
30.68877019533323
 30
0.0
 10
287.0317564797438
 20
30.99990883862481
 30
0.0
 10
287.0906803758658
 20
31.21272203998055
 30
0.0
 10
287.1474204346737
 20
31.51867879910199
 30
0.0
 10
287.1613254443236
 20
31.6190669825801
 30
0.0
 10
287.1792185704651
 20
31.81649117328106
 30
0.0
 10
287.183183911488
 20
31.91413039215022
 30
0.0
 10
287.1799720122502
 20
32.19410601545565
 30
0.0
 10
287.158364536959
 20
32.36545280974082
 30
0.0
 10
287.0972035583143
 20
32.59863522489827
 30
0.0
 10
287.0722016605214
 20
32.67138570310693
 30
0.0
 10
287.0137554850198
 20
32.80505790112973
 30
0.0
 10
286.9801513354633
 20
32.86641021458473
 30
0.0
 10
286.9036199281683
 20
32.97842046338523
 30
0.0
 10
286.8603729795155
 20
33.02936126787332
 30
0.0
 10
286.7673702016186
 20
33.11743306175507
 30
0.0
 10
286.7181635075892
 20
33.15436419191028
 30
0.0
 10
286.6126398276659
 20
33.21546881411155
 30
0.0
 10
286.556119501122
 20
33.23976151957689
 30
0.0
 10
286.431955701979
 20
33.27741888495088
 30
0.0
 10
286.3643177306098
 20
33.29068659356344
 30
0.0
 10
286.2908294281703
 20
33.29892091998077
 30
0.0
  0
SPLINE
  5
1E0
330
1F
100
AcDbEntity
  8
0
  6
Continuous
 62
     7
370
    15
100
AcDbSpline
210
0.0
220
0.0
230
1.0
 70
     8
 71
     3
 72
    14
 73
    10
 74
     0
 42
0.000000001
 43
0.00000001
 40
0.0
 40
0.0
 40
0.0
 40
0.0
 40
0.25
 40
0.25
 40
0.5
 40
0.5
 40
0.75
 40
0.75
 40
1.0
 40
1.0
 40
1.0
 40
1.0
 10
286.2908294281701
 20
33.29892091998065
 30
0.0
 10
286.0788385553342
 20
33.32267438803584
 30
0.0
 10
285.8826604391225
 20
33.33726620149275
 30
0.0
 10
285.4827137150677
 20
33.37083753065117
 30
0.0
 10
285.2800915946074
 20
33.38914533421477
 30
0.0
 10
284.873957928628
 20
33.42627868330531
 30
0.0
 10
284.6707572668287
 20
33.44492271721388
 30
0.0
 10
284.2662443345282
 20
33.48111969131163
 30
0.0
 10
284.0644213457971
 20
33.49896783543456
 30
0.0
 10
283.8622640480376
 20
33.51700896485624
 30
0.0
  0
LINE
  5
1E1
330
1F
100
AcDbEntity
  8
0
  6
Continuous
 62
     7
370
    15
100
AcDbLine
 10
242.4360296501
 20
38.7424491583
 30
0.0
 11
243.7796303509
 21
37.9668049838
 31
0.0
  0
ARC
  5
1E2
330
1F
100
AcDbEntity
  8
0
  6
Continuous
 62
     7
370
    15
100
AcDbCircle
 10
258.2672072211
 20
49.8706540107
 30
0.0
 40
5.846218307655856
100
AcDbArc
 50
60.7438625822
 51
92.0146524501
  0
LINE
  5
1E3
330
1F
100
AcDbEntity
  8
0
  6
Continuous
 62
     7
370
    15
100
AcDbLine
 10
246.4930163052
 20
37.4190167742
 30
0.0
 11
245.8506703458
 21
37.7898352035
 31
0.0
  0
SPLINE
  5
1E4
330
1F
100
AcDbEntity
  8
0
  6
Continuous
 62
     7
370
    15
100
AcDbSpline
210
0.0
220
0.0
230
1.0
 70
     8
 71
     3
 72
    12
 73
     8
 74
     0
 42
0.000000001
 43
0.00000001
 40
0.0
 40
0.0
 40
0.0
 40
0.0
 40
0.2500000000000015
 40
0.2500000000000015
 40
0.500000000000003
 40
0.500000000000003
 40
1.0
 40
1.0
 40
1.0
 40
1.0
 10
245.8506703749859
 20
37.78983533388303
 30
0.0
 10
245.8130310968672
 20
37.81156402663271
 30
0.0
 10
245.7666108789065
 20
37.82896229763553
 30
0.0
 10
245.6665429500278
 20
37.85121878011118
 30
0.0
 10
245.6127573111505
 20
37.85627930217529
 30
0.0
 10
245.4528383834014
 20
37.85322744019651
 30
0.0
 10
245.3479278804748
 20
37.82617151418764
 30
0.0
 10
245.2726329882831
 20
37.78270469814254
 30
0.0
  0
LWPOLYLINE
  5
1E5
330
1F
100
AcDbEntity
  8
0
  6
Continuous
 62
     7
370
    15
100
AcDbPolyline
 90
       21
 70
   128
 43
0.0
 10
245.2726329039
 20
37.7827047415
 10
245.5918926472
 20
39.0303765162
 10
245.9972037428
 20
40.2878847888
 10
246.4848980978
 20
41.543850717
 10
247.0505621469
 20
42.7869084564
 10
247.6890789993
 20
44.0058127618
 10
248.394669927
 20
45.189533281
 10
249.1609516579
 20
46.3273591129
 10
249.9809893892
 20
47.4089955715
 10
250.8473636292
 20
48.4246544846
 10
251.7522353933
 20
49.3651465837
 10
252.6874166684
 20
50.2219624871
 10
253.6444458161
 20
50.9873481684
 10
254.6146632642
 20
51.6543790711
 10
255.5892901205
 20
52.2170191791
 10
256.5595075687
 20
52.6701774982
 10
257.5165367163
 20
53.009754151
 10
258.4517179914
 20
53.2326755649
 10
259.3565897555
 20
53.3369261667
 10
260.2229639955
 20
53.3215616592
 10
260.3498730955
 20
53.3088490701
  0
SPLINE
  5
1E6
330
1F
100
AcDbEntity
  8
0
  6
Continuous
 62
     7
370
    15
100
AcDbSpline
210
0.0
220
0.0
230
1.0
 70
     8
 71
     3
 72
    10
 73
     6
 74
     0
 42
0.000000001
 43
0.00000001
 40
0.0
 40
0.0
 40
0.0
 40
0.0
 40
0.5
 40
0.5
 40
1.0
 40
1.0
 40
1.0
 40
1.0
 10
242.3342546747295
 20
38.77292670537671
 30
0.0
 10
242.3416183089972
 20
38.77696295303243
 30
0.0
 10
242.3534822448051
 20
38.77718437078311
 30
0.0
 10
242.3875952596802
 20
38.76754371095016
 30
0.0
 10
242.40974365861
 20
38.7576236487119
 30
0.0
 10
242.4360296399057
 20
38.74244907470974
 30
0.0
  0
SPLINE
  5
1E7
330
1F
100
AcDbEntity
  8
0
  6
Continuous
 62
     7
370
    15
100
AcDbSpline
210
0.0
220
0.0
230
1.0
 70
     8
 71
     3
 72
    14
 73
    10
 74
     0
 42
0.000000001
 43
0.00000001
 40
0.0
 40
0.0
 40
0.0
 40
0.0
 40
0.25
 40
0.25
 40
0.5
 40
0.5
 40
0.75
 40
0.75
 40
1.0
 40
1.0
 40
1.0
 40
1.0
 10
250.668417293714
 20
35.32299265460895
 30
0.0
 10
250.668417293714
 20
35.02457552776791
 30
0.0
 10
250.6849097557754
 20
34.71731308942014
 30
0.0
 10
250.7163050444627
 20
34.10364077315822
 30
0.0
 10
250.7307540710938
 20
33.79747427930053
 30
0.0
 10
250.7308655044089
 20
33.2005802612012
 30
0.0
 10
250.7164456183623
 20
32.90985212398974
 30
0.0
 10
250.6849688794537
 20
32.33085832783174
 30
0.0
 10
250.668417293714
 20
32.04183522407467
 30
0.0
 10
250.668417293714
 20
31.74316887105741
 30
0.0
  0
LINE
  5
1E8
330
1F
100
AcDbEntity
  8
0
  6
Continuous
 62
     7
370
    15
100
AcDbLine
 10
248.0305214851
 20
35.3499077055
 30
0.0
 11
246.3049419207
 21
36.3460635843
 31
0.0
  0
SPLINE
  5
1E9
330
1F
100
AcDbEntity
  8
0
  6
Continuous
 62
     7
370
    15
100
AcDbSpline
210
0.0
220
0.0
230
1.0
 70
     8
 71
     3
 72
     8
 73
     4
 74
     0
 42
0.000000001
 43
0.00000001
 40
0.0
 40
0.0
 40
0.0
 40
0.0
 40
0.0011858378198547
 40
0.0011858378198547
 40
0.0011858378198547
 40
0.0011858378198547
 10
246.3049419731892
 20
36.3460638139136
 30
0.0
 10
246.2933028900104
 20
36.40718039056679
 30
0.0
 10
246.2823358560036
 20
36.46781302005234
 30
0.0
 10
246.2719861326424
 20
36.52799852735809
 30
0.0
  0
ARC
  5
1EA
330
1F
100
AcDbEntity
  8
0
  6
Continuous
 62
     7
370
    15
100
AcDbCircle
 10
277.3360895204
 20
35.5675061468
 30
0.0
 40
4.207112173370023
100
AcDbArc
 50
320.8074228647
 51
350.2233370837
  0
LINE
  5
1EB
330
1F
100
AcDbEntity
  8
0
  6
Continuous
 62
     7
370
    15
100
AcDbLine
 10
283.862291681
 20
26.6041625697
 30
0.0
 11
286.2889221673
 21
29.6228676057
 31
0.0
  0
LINE
  5
1EC
330
1F
100
AcDbEntity
  8
0
  6
Continuous
 62
     7
370
    15
100
AcDbLine
 10
278.0922972407
 20
29.793441835
 30
0.0
 11
280.5967123701
 21
32.9089103762
 31
0.0
  0
SPLINE
  5
1ED
330
1F
100
AcDbEntity
  8
0
  6
Continuous
 62
     7
370
    15
100
AcDbSpline
210
0.0
220
0.0
230
1.0
 70
     8
 71
     3
 72
    11
 73
     7
 74
     0
 42
0.000000001
 43
0.00000001
 40
0.0
 40
0.0
 40
0.0
 40
0.0
 40
0.3263245128118325
 40
0.6526135693275902
 40
0.8311541359568004
 40
1.0
 40
1.0
 40
1.0
 40
1.0
 10
245.0557574868637
 20
34.98328866408608
 30
0.0
 10
245.0462158713709
 20
35.28712428675649
 30
0.0
 10
245.0271336771151
 20
35.89476251929756
 30
0.0
 10
244.9843955826307
 20
36.67914659737847
 30
0.0
 10
245.0026752853367
 20
37.2850075993934
 30
0.0
 10
245.0159513296149
 20
37.59478814792097
 30
0.0
 10
245.0224041008499
 20
37.74535581482341
 30
0.0
  0
LINE
  5
1EE
330
1F
100
AcDbEntity
  8
0
  6
Continuous
 62
     7
370
    15
100
AcDbLine
 10
245.0557574869
 20
33.4871834399
 30
0.0
 11
245.0557574869
 21
34.9832886641
 31
0.0
  0
LINE
  5
1EF
330
1F
100
AcDbEntity
  8
0
  6
Continuous
 62
     7
370
    15
100
AcDbLine
 10
242.7714146789
 20
38.3859254413
 30
0.0
 11
242.3342549714
 21
38.7729270444
 31
0.0
  0
LINE
  5
1F0
330
1F
100
AcDbEntity
  8
0
  6
Continuous
 62
     7
370
    15
100
AcDbLine
 10
244.1346021397
 20
37.5989740709
 30
0.0
 11
242.7714146789
 21
38.3859254413
 31
0.0
  0
LINE
  5
1F1
330
1F
100
AcDbEntity
  8
0
  6
Continuous
 62
     7
370
    15
100
AcDbLine
 10
243.9950970589
 20
37.4569422576
 30
0.0
 11
243.9966373945
 21
37.637499756
 31
0.0
  0
ARC
  5
1F2
330
1F
100
AcDbEntity
  8
0
  6
Continuous
 62
     7
370
    15
100
AcDbCircle
 10
250.8438685083
 20
37.1875024704
 30
0.0
 40
6.854069460203106
100
AcDbArc
 50
177.7470695885
 51
212.3839453865
  0
LINE
  5
1F3
330
1F
100
AcDbEntity
  8
0
  6
Continuous
 62
     7
370
    15
100
AcDbLine
 10
246.3049419207
 20
29.6667598346
 30
0.0
 11
248.0305214851
 21
28.6706039558
 31
0.0
  0
SPLINE
  5
1F4
330
1F
100
AcDbEntity
  8
0
  6
Continuous
 62
     7
370
    15
100
AcDbSpline
210
0.0
220
0.0
230
1.0
 70
     8
 71
     3
 72
    14
 73
    10
 74
     0
 42
0.000000001
 43
0.00000001
 40
0.0
 40
0.0
 40
0.0
 40
0.0
 40
0.25
 40
0.25
 40
0.5
 40
0.5
 40
0.75
 40
0.75
 40
1.0
 40
1.0
 40
1.0
 40
1.0
 10
247.9836838894484
 20
28.55014873866051
 30
0.0
 10
247.9668983248319
 20
28.50698029195705
 30
0.0
 10
247.946495324339
 20
28.46695295329932
 30
0.0
 10
247.8979470418772
 20
28.39362108834796
 30
0.0
 10
247.8696052743546
 20
28.36032303447799
 30
0.0
 10
247.8064500644498
 20
28.30738057354551
 30
0.0
 10
247.7712247503452
 20
28.28730804168514
 30
0.0
 10
247.6965456042111
 20
28.27053591277941
 30
0.0
 10
247.658217735649
 20
28.27472887384
 30
0.0
 10
247.6244256468621
 20
28.29423663146244
 30
0.0
  0
LINE
  5
1F5
330
1F
100
AcDbEntity
  8
0
  6
Continuous
 62
     7
370
    15
100
AcDbLine
 10
247.6244254045
 20
28.2942366185
 30
0.0
 11
246.2719860486
 21
29.07498324
 31
0.0
  0
SPLINE
  5
1F6
330
1F
100
AcDbEntity
  8
0
  6
Continuous
 62
     7
370
    15
100
AcDbSpline
210
0.0
220
0.0
230
1.0
 70
     8
 71
     3
 72
     8
 73
     4
 74
     0
 42
0.000000001
 43
0.00000001
 40
0.0
 40
0.0
 40
0.0
 40
0.0
 40
0.0011858378198546
 40
0.0011858378198546
 40
0.0011858378198546
 40
0.0011858378198546
 10
246.2719861326424
 20
29.07498334436037
 30
0.0
 10
246.2823358560036
 20
29.27226231432695
 30
0.0
 10
246.2933028900104
 20
29.46952519351638
 30
0.0
 10
246.3049419731892
 20
29.66675997268815
 30
0.0
  0
ARC
  5
1F7
330
1F
100
AcDbEntity
  8
0
  6
Continuous
 62
     7
370
    15
100
AcDbCircle
 10
253.2784276029
 20
29.3960636926
 30
0.0
 40
5.663652259868337
100
AcDbArc
 50
208.1476760283
 51
272.2481380291
  0
SPLINE
  5
1F8
330
1F
100
AcDbEntity
  8
0
  6
Continuous
 62
     7
370
    15
100
AcDbSpline
210
0.0
220
0.0
230
1.0
 70
     8
 71
     3
 72
     8
 73
     4
 74
     0
 42
0.000000001
 43
0.00000001
 40
0.0
 40
0.0
 40
0.0
 40
0.0
 40
1.0
 40
1.0
 40
1.0
 40
1.0
 10
246.6330779094123
 20
30.32942949927282
 30
0.0
 10
246.5232456719027
 20
30.10861679207884
 30
0.0
 10
246.4138956989161
 20
29.88771926335829
 30
0.0
 10
246.3049419731892
 20
29.66675997268815
 30
0.0
  0
LINE
  5
1F9
330
1F
100
AcDbEntity
  8
0
  6
Continuous
 62
     7
370
    15
100
AcDbLine
 10
246.6232069325
 20
30.3237312008
 30
0.0
 11
246.6330778561
 21
30.3294295638
 31
0.0
  0
SPLINE
  5
1FA
330
1F
100
AcDbEntity
  8
0
  6
Continuous
 62
     7
370
    15
100
AcDbSpline
210
0.0
220
0.0
230
1.0
 70
     8
 71
     3
 72
    12
 73
     8
 74
     0
 42
0.000000001
 43
0.00000001
 40
0.0
 40
0.0
 40
0.0
 40
0.0
 40
0.2500000000000022
 40
0.2500000000000022
 40
0.5000000000000043
 40
0.5000000000000043
 40
1.0
 40
1.0
 40
1.0
 40
1.0
 10
246.635558902103
 20
30.65742499059599
 30
0.0
 10
246.6731981802216
 20
30.63569629784631
 30
0.0
 10
246.7033361350726
 20
30.60889847642526
 30
0.0
 10
246.741889670874
 20
30.55113049070973
 30
0.0
 10
246.7506557020197
 20
30.52008070229921
 30
0.0
 10
246.7453691492057
 20
30.42776147037974
 30
0.0
 10
246.6985018325412
 20
30.36719792617151
 30
0.0
 10
246.6232069403494
 20
30.32373111012641
 30
0.0
  0
LINE
  5
1FB
330
1F
100
AcDbEntity
  8
0
  6
Continuous
 62
     7
370
    15
100
AcDbLine
 10
245.8506703458
 20
31.1105314538
 30
0.0
 11
246.6355589225
 21
30.6574249231
 31
0.0
  0
SPLINE
  5
1FC
330
1F
100
AcDbEntity
  8
0
  6
Continuous
 62
     7
370
    15
100
AcDbSpline
210
0.0
220
0.0
230
1.0
 70
     8
 71
     3
 72
    14
 73
    10
 74
     0
 42
0.000000001
 43
0.00000001
 40
0.0
 40
0.0
 40
0.0
 40
0.0
 40
0.25
 40
0.25
 40
0.5
 40
0.5
 40
0.75
 40
0.75
 40
1.0
 40
1.0
 40
1.0
 40
1.0
 10
245.2726329882831
 20
31.1034008569171
 30
0.0
 10
245.3104735805441
 20
31.12524576584745
 30
0.0
 10
245.355382645917
 20
31.14301216180728
 30
0.0
 10
245.4529950137853
 20
31.16782274147071
 30
0.0
 10
245.5062931934905
 20
31.1749455118405
 30
0.0
 10
245.6126566286082
 20
31.17697174715621
 30
0.0
 10
245.6666859720973
 20
31.17190926901892
 30
0.0
 10
245.7670426985247
 20
31.1495361234504
 30
0.0
 10
245.8126720066037
 20
31.13246748380393
 30
0.0
 10
245.8506703749859
 20
31.11053149265759
 30
0.0
  0
LINE
  5
1FD
330
1F
100
AcDbEntity
  8
0
  6
Continuous
 62
     7
370
    15
100
AcDbLine
 10
245.2825038275
 20
31.1090993547
 30
0.0
 11
245.2726329039
 21
31.1034009918
 31
0.0
  0
SPLINE
  5
1FE
330
1F
100
AcDbEntity
  8
0
  6
Continuous
 62
     7
370
    15
100
AcDbSpline
210
0.0
220
0.0
230
1.0
 70
     8
 71
     3
 72
     8
 73
     4
 74
     0
 42
0.000000001
 43
0.00000001
 40
0.0
 40
0.0
 40
0.0
 40
0.0
 40
1.0
 40
1.0
 40
1.0
 40
1.0
 10
244.1346022911376
 20
30.91967040218822
 30
0.0
 10
244.5173564811962
 20
30.9825680492363
 30
0.0
 10
244.9000036848281
 20
31.04569444495831
 30
0.0
 10
245.282503957346
 20
31.10909924606351
 30
0.0
  0
LINE
  5
1FF
330
1F
100
AcDbEntity
  8
0
  6
Continuous
 62
     7
370
    15
100
AcDbLine
 10
242.7714146789
 20
31.7066216916
 30
0.0
 11
244.1346021397
 21
30.9196703212
 31
0.0
  0
LINE
  5
200
330
1F
100
AcDbEntity
  8
0
  6
Continuous
 62
     7
370
    15
100
AcDbLine
 10
242.7714146789
 20
31.7066216916
 30
0.0
 11
245.1264679625
 21
33.0661650136
 31
0.0
  0
ARC
  5
201
330
1F
100
AcDbEntity
  8
0
  6
Continuous
 62
     7
370
    15
100
AcDbCircle
 10
252.4374601938
 20
30.6774562533
 30
0.0
 40
6.370321121755484
100
AcDbArc
 50
194.5694262752
 51
238.2635197493
  0
ELLIPSE
  5
202
330
1F
100
AcDbEntity
  8
0
  6
Continuous
 62
     7
370
    15
100
AcDbEllipse
 10
245.0093106086
 20
33.4604146729
 30
0.0
 11
-3.002985192779306E-5
 21
0.4267244807413632
 31
0.0
210
0.0
220
0.0
230
1.0
 40
0.7174342186
 41
3.534193645557461
 42
5.104989972352309
  0
ARC
  5
203
330
1F
100
AcDbEntity
  8
0
  6
Continuous
 62
     7
370
    15
100
AcDbCircle
 10
249.5949155959
 20
31.8918058398
 30
0.0
 40
5.976325907488609
100
AcDbArc
 50
193.3311724318
 51
253.9122413075
  0
SPLINE
  5
204
330
1F
100
AcDbEntity
  8
0
  6
Continuous
 62
     7
370
    15
100
AcDbSpline
210
0.0
220
0.0
230
1.0
 70
     8
 71
     3
 72
     8
 73
     4
 74
     0
 42
0.000000001
 43
0.00000001
 40
0.0
 40
0.0
 40
0.0
 40
0.0
 40
0.0011858378198546
 40
0.0011858378198546
 40
0.0011858378198546
 40
0.0011858378198546
 10
244.1346022911376
 20
30.91967040218821
 30
0.0
 10
244.016707695714
 20
30.7837756245767
 30
0.0
 10
243.8983696063666
 20
30.64849673626906
 30
0.0
 10
243.7796303193605
 20
30.51378972951297
 30
0.0
  0
LINE
  5
205
330
1F
100
AcDbEntity
  8
0
  6
Continuous
 62
     7
370
    15
100
AcDbLine
 10
242.3342549714
 20
31.4542025214
 30
0.0
 11
242.7714146789
 21
31.7066216916
 31
0.0
  0
LINE
  5
206
330
1F
100
AcDbEntity
  8
0
  6
Continuous
 62
     7
370
    15
100
AcDbLine
 10
243.7796303509
 20
30.5137895584
 30
0.0
 11
242.4360296501
 21
31.2894337329
 31
0.0
  0
SPLINE
  5
207
330
1F
100
AcDbEntity
  8
0
  6
Continuous
 62
     7
370
    15
100
AcDbSpline
210
0.0
220
0.0
230
1.0
 70
     8
 71
     3
 72
    10
 73
     6
 74
     0
 42
0.000000001
 43
0.00000001
 40
0.0
 40
0.0
 40
0.0
 40
0.0
 40
0.5
 40
0.5
 40
1.0
 40
1.0
 40
1.0
 40
1.0
 10
242.4360296399057
 20
31.289433891712
 30
0.0
 10
242.4097952494319
 20
31.30457868296664
 30
0.0
 10
242.3876206286776
 20
31.32812320579811
 30
0.0
 10
242.3535562073016
 20
31.38537198597739
 30
0.0
 10
242.3416145742513
 20
31.41889817301803
 30
0.0
 10
242.3342546747294
 20
31.45420254576905
 30
0.0
  0
ARC
  5
208
330
1F
100
AcDbEntity
  8
0
  6
Continuous
 62
     7
370
    15
100
AcDbCircle
 10
251.8530505403
 20
32.9769999365
 30
0.0
 40
6.841949230686438
100
AcDbArc
 50
195.8928939
 51
215.7865071415
  0
ARC
  5
209
330
1F
100
AcDbEntity
  8
0
  6
Continuous
 62
     7
370
    15
100
AcDbCircle
 10
248.2587741604
 20
32.517513292
 30
0.0
 40
5.872389178602652
100
AcDbArc
 50
208.2180744479
 51
239.1860418526
  0
ELLIPSE
  5
20A
330
1F
100
AcDbEntity
  8
0
  6
Continuous
 62
     7
370
    15
100
AcDbEllipse
 10
244.7729145056
 20
33.3239017439
 30
0.0
 11
0.13000378946046
 21
0.4852718104954689
 31
0.0
210
0.0
220
0.0
230
1.0
 40
0.5176380889
 41
3.619174351347691
 42
5.189970678142647
  0
LWPOLYLINE
  5
20B
330
1F
100
AcDbEntity
  8
0
  6
Continuous
 62
     7
370
     0
100
AcDbPolyline
 90
       33
 70
   128
 43
0.0
 10
272.8071535603
 20
48.0520108072
 10
272.2294197074
 20
48.1450471957
 10
271.3354613429
 20
48.1844857937
 10
270.4019794419
 20
48.1063367729
 10
269.4364903022
 20
47.9112281406
 10
268.4467677124
 20
47.6007319949
 10
267.4407801434
 20
47.177347277
 10
266.4266271165
 20
46.6444843308
 10
265.4124740895
 20
46.0064311157
 10
264.4064865205
 20
45.2683273094
 10
263.4167639307
 20
44.4361140762
 10
262.451274791
 20
43.5164926755
 10
261.51779289
 20
42.5168664345
 10
260.6238345255
 20
41.4452854786
 10
259.7765959426
 20
40.3103756335
 10
258.9829003208
 20
39.1212758821
 10
258.2491368591
 20
37.8875598527
 10
257.5812133603
 20
36.619159777
 10
256.9845088158
 20
35.3262896879
 10
256.4638259907
 20
34.0193575903
 10
256.023357838
 20
32.7088867564
 10
255.6666506198
 20
31.4054282762
 10
255.3965769073
 20
30.1194770284
 10
255.2153098973
 20
28.8613861312
 10
255.1243109001
 20
27.6412859063
 10
255.1243109001
 20
26.4689989942
 10
255.2153098973
 20
25.3539639752
 10
255.3965769073
 20
24.3051595129
 10
255.6666506198
 20
23.3310287364
 10
256.023357838
 20
22.4394156439
 10
256.4638259907
 20
21.6374985143
 10
256.9845088158
 20
20.9317340103
 10
257.0853326385
 20
20.8165870458
  0
LWPOLYLINE
  5
20C
330
1F
100
AcDbEntity
  8
0
  6
Continuous
 62
     7
370
     0
100
AcDbPolyline
 90
       20
 70
   128
 43
0.0
 10
272.3593571243
 20
19.7506724874
 10
272.7492734249
 20
19.1919169701
 10
273.2155107535
 20
18.7349241882
 10
273.7517368753
 20
18.3859003034
 10
274.3506702637
 20
18.1495844432
 10
275.0041772355
 20
18.0291865241
 10
275.7033830802
 20
18.0263407582
 10
276.4387925739
 20
18.1410870101
 10
277.2004187244
 20
18.3718660322
 10
277.9779188022
 20
18.7155436205
 10
278.7607341985
 20
19.1674533296
 10
279.5382342763
 20
19.7214582235
 10
280.2998604269
 20
20.3700340371
 10
281.0352699206
 20
21.1043735133
 10
281.7344757653
 20
21.914505164
 10
282.387982737
 20
22.7894261722
 10
282.9869161254
 20
23.7172558034
 10
283.5231422472
 20
24.6853931902
 10
283.9893795758
 20
25.6806921335
 10
284.3792958764
 20
26.6896354291
  0
LWPOLYLINE
  5
20D
330
1F
100
AcDbEntity
  8
0
  6
Continuous
 62
     7
370
     0
100
AcDbPolyline
 90
       20
 70
   128
 43
0.0
 10
284.3789211646
 20
33.6208912163
 10
283.988968644
 20
34.1794843783
 10
283.5227178153
 20
34.6363309624
 10
282.986499596
 20
34.9852286096
 10
282.3875938665
 20
35.2214402839
 10
281.734132005
 20
35.3417589204
 10
281.0349865818
 20
35.3445513532
 10
280.2996491987
 20
35.2297782883
 10
279.5381039668
 20
34.9989995912
 10
278.7606901584
 20
34.6553482308
 10
277.9779628424
 20
34.2034893694
 10
277.2005490339
 20
33.6495578521
 10
276.439003802
 20
33.00107514
 10
275.703666419
 20
32.2668457341
 10
275.0045209957
 20
31.4568371776
 10
274.3510591342
 20
30.5820475352
 10
273.7521534047
 20
29.6543540242
 10
273.2159351854
 20
28.6863519991
 10
272.7496843567
 20
27.6911836666
 10
272.3597318361
 20
26.6823609077
  0
ARC
  5
20E
330
1F
100
AcDbEntity
  8
0
  6
Continuous
 62
     7
370
     0
100
AcDbCircle
 10
280.8947332676
 20
31.9195919752
 30
0.0
 40
3.205027110131939
100
AcDbArc
 50
32.168965673
 51
57.8010912226
  0
LINE
  5
20F
330
1F
100
AcDbEntity
  8
0
  6
Continuous
 62
     7
370
     0
100
AcDbLine
 10
270.0961767264
 20
20.2749946377
 30
0.0
 11
270.1845652531
 21
19.9451314773
 31
0.0
  0
LWPOLYLINE
  5
210
330
1F
100
AcDbEntity
  8
0
  6
Continuous
 62
     7
370
     0
100
AcDbPolyline
 90
       17
 70
   128
 43
0.0
 10
273.5161379678
 20
19.0951196466
 10
273.8414820038
 20
18.9326858042
 10
274.4425289908
 20
18.7456585776
 10
275.0943168321
 20
18.6742758851
 10
275.7875896847
 20
18.7195515319
 10
276.5125029667
 20
18.8808419493
 10
277.2587628867
 20
19.1558571614
 10
278.0157723933
 20
19.5406925676
 10
278.7727818999
 20
20.0298817336
 10
279.5190418198
 20
20.6164798851
 10
280.2439551019
 20
21.2921565278
 10
280.9372279545
 20
22.0473166789
 10
281.5890157958
 20
22.8712375947
 10
282.1900627828
 20
23.7522189013
 10
282.7318348372
 20
24.6777510243
 10
283.2066378542
 20
25.6346910354
 10
283.6077299844
 20
26.6094502852
  0
LINE
  5
211
330
1F
100
AcDbEntity
  8
0
  6
Continuous
 62
     7
370
     0
100
AcDbLine
 10
269.422446182
 20
20.6639310022
 30
0.0
 11
270.0961767264
 21
20.2749946377
 31
0.0
  0
LWPOLYLINE
  5
212
330
1F
100
AcDbEntity
  8
0
  6
Continuous
 62
     7
370
     0
100
AcDbPolyline
 90
       29
 70
   128
 43
0.0
 10
247.9836838241
 20
35.4162853016
 10
248.3040005313
 20
36.718747568
 10
248.7124278595
 20
38.0330860807
 10
249.2054669618
 20
39.3480409941
 10
249.778893275
 20
40.6523453061
 10
250.4277933987
 20
41.9348237152
 10
251.1466092171
 20
43.1844895749
 10
251.9291800464
 20
44.3906350052
 10
252.7688025622
 20
45.5429263246
 10
253.658282824
 20
46.6314911185
 10
254.5899994964
 20
47.6470034047
 10
255.5559703615
 20
48.5807615753
 10
256.5479189963
 20
49.4247656718
 10
257.5573464725
 20
50.1717846321
 10
258.5756044827
 20
50.8154175175
 10
259.5939687912
 20
51.3501511236
 10
260.6037143444
 20
51.771403341
 10
261.5961899795
 20
52.0755647626
 10
262.5628921582
 20
52.2600298424
 10
263.4955386955
 20
52.3232174046
 10
264.3861388123
 20
52.2645867494
 10
265.2270619534
 20
52.0846408786
 10
266.0111033126
 20
51.7849194549
 10
266.731545736
 20
51.3679919523
 10
267.3822160273
 20
50.8374308443
 10
267.9575402658
 20
50.1977804196
 10
268.4525885873
 20
49.4545221772
 10
268.8631199653
 20
48.6140238707
 10
269.1170534104
 20
47.9125524946
  0
LWPOLYLINE
  5
213
330
1F
100
AcDbEntity
  8
0
  6
Continuous
 62
     7
370
     0
100
AcDbPolyline
 90
       20
 70
   128
 43
0.0
 10
247.6244254045
 20
35.7472520439
 10
247.9645471792
 20
37.0632376647
 10
248.3919010766
 20
38.3889775425
 10
248.9029072486
 20
39.713363932
 10
249.493283839
 20
41.0253005602
 10
250.1580845198
 20
42.3137946399
 10
250.8917393216
 20
43.5680504019
 10
251.688100073
 20
44.7775588261
 10
252.5404963765
 20
45.9321869901
 10
253.4417843414
 20
47.0222594343
 10
254.3844134256
 20
48.0386431377
 10
255.3604857048
 20
48.9728220371
 10
256.3618227148
 20
49.8169698356
 10
257.3800347632
 20
50.5640128294
 10
258.4065906862
 20
51.2076929908
 10
259.4328892984
 20
51.7426152997
 10
260.4503315906
 20
52.1642993082
 10
261.4503928353
 20
52.4692116406
 10
262.424693959
 20
52.6547973099
 10
263.2574728802
 20
52.7182105947
  0
LWPOLYLINE
  5
214
330
1F
100
AcDbEntity
  8
0
  6
Continuous
 62
     7
370
     0
100
AcDbPolyline
 90
       24
 70
   128
 43
0.0
 10
250.6684176593
 20
35.3229928412
 10
250.8797511774
 20
36.4133151987
 10
251.1796016384
 20
37.5230638302
 10
251.564524196
 20
38.6394940811
 10
252.0301000167
 20
39.7497866726
 10
252.5709823774
 20
40.841191045
 10
253.1809602157
 20
41.901174402
 10
253.8530285937
 20
42.9175650517
 10
254.5794703576
 20
43.8786915634
 10
255.3519433947
 20
44.7735160306
 10
256.1615771106
 20
45.5917639111
 10
256.9990741739
 20
46.3240382769
 10
257.8548176946
 20
46.9619311169
 10
258.7189806244
 20
47.4981169112
 10
259.5816396032
 20
47.9264381247
 10
260.4328885576
 20
48.2419761098
 10
261.2629521351
 20
48.4411082259
 10
262.0622988919
 20
48.5215473243
 10
262.8217488821
 20
48.4823696388
 10
263.5325821533
 20
48.3240249458
 10
264.1866353878
 20
48.0483322781
 10
264.7763975561
 20
47.6584568167
 10
265.2950975036
 20
47.158876042
 10
265.4436769984
 20
46.9785380977
  0
LWPOLYLINE
  5
215
330
1F
100
AcDbEntity
  8
0
  6
Continuous
 62
     7
370
     0
100
AcDbPolyline
 90
        9
 70
   128
 43
0.0
 10
254.3320802106
 20
27.730602395
 10
253.8530285937
 20
27.8254702243
 10
253.1809602157
 20
28.0659072414
 10
252.5709823774
 20
28.421625177
 10
252.0301000167
 20
28.8885400683
 10
251.564524196
 20
29.4612902593
 10
251.1796016384
 20
30.1332983848
 10
250.8797511774
 20
30.8968470431
 10
250.6684176593
 20
31.7431689144
  0
ARC
  5
216
330
1F
100
AcDbEntity
  8
0
  6
Continuous
 62
     7
370
     0
100
AcDbCircle
 10
253.776157805
 20
29.7914317714
 30
0.0
 40
5.923979943076454
100
AcDbArc
 50
192.0951221184
 51
285.3760030508
  0
LWPOLYLINE
  5
217
330
1F
100
AcDbEntity
  8
0
  6
Continuous
 62
     7
370
     0
100
AcDbPolyline
 90
       21
 70
   128
 43
0.0
 10
250.942420907
 20
33.4463375682
 10
250.9884834611
 20
34.4539803224
 10
251.1261298
 20
35.5029912689
 10
251.3537478066
 20
36.5810728284
 10
251.6686677416
 20
37.6755849323
 10
252.0671978044
 20
38.7736951158
 10
252.5446656218
 20
39.8625293705
 10
253.0954729068
 20
40.9293219511
 10
253.7131623013
 20
41.9615659401
 10
254.3904917914
 20
42.9471592501
 10
255.1195206473
 20
43.8745462521
 10
255.89170162
 20
44.7328542692
 10
256.6979812041
 20
45.5120210408
 10
257.5289067341
 20
46.2029113
 10
258.3747364022
 20
46.7974243933
 10
259.2255535983
 20
47.2885907059
 10
260.0713832664
 20
47.6706517604
 10
260.9023087964
 20
47.9391276974
 10
261.7085883805
 20
48.0908715187
 10
262.4807693532
 20
48.1241046755
 10
262.6223975814
 20
48.1169964575
  0
ARC
  5
218
330
1F
100
AcDbEntity
  8
0
  6
Continuous
 62
     7
370
     0
100
AcDbCircle
 10
258.0012708864
 20
33.200871011
 30
0.0
 40
7.063116653664714
100
AcDbArc
 50
178.0083819827
 51
208.6422595267
  0
LINE
  5
219
330
1F
100
AcDbEntity
  8
0
  6
Continuous
 62
     7
370
     0
100
AcDbLine
 10
286.5540877476
 20
29.395055666
 30
0.0
 11
286.2889221673
 21
29.6228676057
 31
0.0
  0
LWPOLYLINE
  5
21A
330
1F
100
AcDbEntity
  8
0
  6
Continuous
 62
     7
370
     0
100
AcDbPolyline
 90
       20
 70
   128
 43
0.0
 10
242.4360296501
 20
38.7424491583
 10
242.7761514249
 20
40.0584347791
 10
243.2035053223
 20
41.384174657
 10
243.7145114943
 20
42.7085610464
 10
244.3048880846
 20
44.0204976746
 10
244.9696887654
 20
45.3089917543
 10
245.7033435673
 20
46.5632475164
 10
246.4997043186
 20
47.7727559405
 10
247.3521006222
 20
48.9273841045
 10
248.253388587
 20
50.0174565488
 10
249.1960176712
 20
51.0338402521
 10
250.1720899505
 20
51.9680191515
 10
251.1734269605
 20
52.8121669501
 10
252.1916390088
 20
53.5592099438
 10
253.2181949319
 20
54.2028901052
 10
254.2444935441
 20
54.7378124141
 10
255.2619358363
 20
55.1594964226
 10
256.2619970809
 20
55.464408755
 10
257.2362982047
 20
55.6499944243
 10
258.0616829881
 20
55.7132585917
  0
LWPOLYLINE
  5
21B
330
1F
100
AcDbEntity
  8
0
  6
Continuous
 62
     7
370
     0
100
AcDbPolyline
 90
       18
 70
   128
 43
0.0
 10
245.8506703458
 20
37.7898352035
 10
246.1800545523
 20
39.0430479015
 10
246.5980867522
 20
40.3050344871
 10
247.1007406043
 20
41.5636420004
 10
247.6831764649
 20
42.8067483566
 10
248.339783535
 20
44.022382495
 10
249.0642397871
 20
45.1988369223
 10
249.8495672838
 20
46.3247806355
 10
250.6882026413
 20
47.3893712844
 10
251.572069799
 20
48.3823549747
 10
252.4926560814
 20
49.2941694943
 10
253.4410959977
 20
50.1160337544
 10
254.408255371
 20
50.8400313379
 10
255.3848195829
 20
51.4591903396
 10
256.3613837949
 20
51.9675483772
 10
257.3285431681
 20
52.3602092372
 10
258.2769830844
 20
52.6333903958
 10
258.3674081601
 20
52.6533739099
  0
LINE
  5
21C
330
1F
100
AcDbEntity
  8
0
  6
Continuous
 62
     7
370
     0
100
AcDbLine
 10
280.5967123701
 20
32.9089103762
 30
0.0
 11
286.2889221673
 21
29.6228676057
 31
0.0
  0
LINE
  5
21D
330
1F
100
AcDbEntity
  8
0
  6
Continuous
 62
     7
370
     0
100
AcDbLine
 10
250.6684176593
 20
36.5461164124
 30
0.0
 11
250.3855286707
 21
36.7094247494
 31
0.0
  0
LINE
  5
21E
330
1F
100
AcDbEntity
  8
0
  6
Continuous
 62
     7
370
     0
100
AcDbLine
 10
245.2921535625
 20
33.6236965432
 30
0.0
 11
250.6684176593
 21
30.5200453432
 31
0.0
  0
LINE
  5
21F
330
1F
100
AcDbEntity
  8
0
  6
Continuous
 62
     7
370
     0
100
AcDbLine
 10
245.0557574869
 20
33.4871834399
 30
0.0
 11
245.2921535625
 21
33.6236965432
 31
0.0
  0
LINE
  5
220
330
1F
100
AcDbEntity
  8
0
  6
Continuous
 62
     7
370
     0
100
AcDbLine
 10
244.9054970572
 20
36.9313795255
 30
0.0
 11
244.9338585935
 21
37.7179931674
 31
0.0
  0
LWPOLYLINE
  5
221
330
1F
100
AcDbEntity
  8
0
  6
Continuous
 62
     7
370
     0
100
AcDbPolyline
 90
        3
 70
   128
 43
0.0
 10
244.9902655648
 20
35.6510873317
 10
244.9515596114
 20
35.9769194643
 10
244.9054970572
 20
36.9313795255
  0
LWPOLYLINE
  5
222
330
1F
100
AcDbEntity
  8
0
  6
Continuous
 62
     7
370
     0
100
AcDbPolyline
 90
       17
 70
   128
 43
0.0
 10
223.6424524016
 20
53.2182407639
 10
223.6891590123
 20
53.9821192167
 10
223.8282837836
 20
54.7836435078
 10
224.0568616189
 20
55.6057304492
 10
224.3700202766
 20
56.4308586252
 10
224.7610857374
 20
57.2414419119
 10
225.2217231327
 20
58.0202043253
 10
225.7421145518
 20
58.7505475925
 10
226.3111687881
 20
59.4169056988
 10
226.9167575096
 20
60.0050766643
 10
227.5459736556
 20
60.5025241861
 10
228.1854065228
 20
60.8986467092
 10
228.8214277591
 20
61.185001083
 10
229.4404815755
 20
61.3554841656
 10
230.0293741358
 20
61.406462622
 10
230.5755539932
 20
61.3368496453
 10
230.7880886964
 20
61.2723838945
  0
ARC
  5
223
330
1F
100
AcDbEntity
  8
0
  6
Continuous
 62
     7
370
     0
100
AcDbCircle
 10
226.9988506503
 20
52.9768816323
 30
0.0
 40
3.36506514562054
100
AcDbArc
 50
175.8869312949
 51
225.0942276391
  0
LWPOLYLINE
  5
224
330
1F
100
AcDbEntity
  8
0
  6
Continuous
 62
     7
370
     0
100
AcDbPolyline
 90
        3
 70
   128
 43
0.0
 10
248.2845892734
 20
26.7242598714
 10
247.9645471792
 20
27.3709472401
 10
247.6244254045
 20
28.2942366185
  0
LINE
  5
225
330
1F
100
AcDbEntity
  8
0
  6
Continuous
 62
     7
370
     0
100
AcDbLine
 10
250.3855747688
 20
30.0301472778
 30
0.0
 11
245.1264679625
 21
33.0661650136
 31
0.0
  0
LINE
  5
226
330
1F
100
AcDbEntity
  8
0
  6
Continuous
 62
     7
370
     0
100
AcDbLine
 10
246.7155918366
 20
30.4128879091
 30
0.0
 11
246.6355589225
 21
30.6574249231
 31
0.0
  0
LWPOLYLINE
  5
227
330
1F
100
AcDbEntity
  8
0
  6
Continuous
 62
     7
370
     0
100
AcDbPolyline
 90
        3
 70
   128
 43
0.0
 10
246.3752366078
 20
29.8413316444
 10
246.1800545523
 20
30.2376176658
 10
245.8506703458
 20
31.1105314538
  0
LWPOLYLINE
  5
228
330
1F
100
AcDbEntity
  8
0
  6
Continuous
 62
     7
370
     0
100
AcDbPolyline
 90
        3
 70
   128
 43
0.0
 10
243.0842929612
 20
29.7408788212
 10
242.7761514249
 20
30.3661443545
 10
242.4360296501
 20
31.2894337329
  0
OLE2FRAME
  5
229
330
1F
100
AcDbEntity
  8
0
100
AcDbOle2Frame
 70
     2
  3
Paintbrush-Bild
 10
13.8511154363
 20
38.264191557
 30
0.0
 11
51.6290888628
 21
31.9806341108
 31
0.0
 71
     2
 72
     0
 73
     1
 90
    12928
310
80552BED0767C5B32B40DDAF6807D121434000000000000000006FFBDDFB85D0
310
4940DDAF6807D121434000000000000000006FFBDDFB85D04940416F4BD60AFB
310
3F4000000000000000002BED0767C5B32B40416F4BD60AFB3F40000000000000
310
0000000000000100000000010000010000000100000000000100000000320000
310
D0CF11E0A1B11AE1000000000000000000000000000000003E000300FEFF0900
310
0600000000000000000000000100000001000000000000000010000002000000
310
01000000FEFFFFFF0000000000000000FFFFFFFFFFFFFFFFFFFFFFFFFFFFFFFF
310
FFFFFFFFFFFFFFFFFFFFFFFFFFFFFFFFFFFFFFFFFFFFFFFFFFFFFFFFFFFFFFFF
310
FFFFFFFFFFFFFFFFFFFFFFFFFFFFFFFFFFFFFFFFFFFFFFFFFFFFFFFFFFFFFFFF
310
FFFFFFFFFFFFFFFFFFFFFFFFFFFFFFFFFFFFFFFFFFFFFFFFFFFFFFFFFFFFFFFF
310
FFFFFFFFFFFFFFFFFFFFFFFFFFFFFFFFFFFFFFFFFFFFFFFFFFFFFFFFFFFFFFFF
310
FFFFFFFFFFFFFFFFFFFFFFFFFFFFFFFFFFFFFFFFFFFFFFFFFFFFFFFFFFFFFFFF
310
FFFFFFFFFFFFFFFFFFFFFFFFFFFFFFFFFFFFFFFFFFFFFFFFFFFFFFFFFFFFFFFF
310
FFFFFFFFFFFFFFFFFFFFFFFFFFFFFFFFFFFFFFFFFFFFFFFFFFFFFFFFFFFFFFFF
310
FFFFFFFFFFFFFFFFFFFFFFFFFFFFFFFFFFFFFFFFFFFFFFFFFFFFFFFFFFFFFFFF
310
FFFFFFFFFFFFFFFFFFFFFFFFFFFFFFFFFFFFFFFFFFFFFFFFFFFFFFFFFFFFFFFF
310
FFFFFFFFFFFFFFFFFFFFFFFFFFFFFFFFFFFFFFFFFFFFFFFFFFFFFFFFFFFFFFFF
310
FFFFFFFFFFFFFFFFFFFFFFFFFFFFFFFFFFFFFFFFFFFFFFFFFFFFFFFFFFFFFFFF
310
FFFFFFFFFFFFFFFFFFFFFFFFFFFFFFFFFFFFFFFFFFFFFFFFFFFFFFFFFFFFFFFF
310
FFFFFFFFFFFFFFFFFFFFFFFFFFFFFFFFFFFFFFFFFFFFFFFFFFFFFFFFFFFFFFFF
310
FDFFFFFFFEFFFFFFFEFFFFFFFEFFFFFF05000000060000000700000008000000
310
090000000A0000000B0000000C0000000D0000000E0000000F00000010000000
310
11000000120000001300000014000000150000001600000017000000FEFFFFFF
310
FFFFFFFFFFFFFFFFFFFFFFFFFFFFFFFFFFFFFFFFFFFFFFFFFFFFFFFFFFFFFFFF
310
FFFFFFFFFFFFFFFFFFFFFFFFFFFFFFFFFFFFFFFFFFFFFFFFFFFFFFFFFFFFFFFF
310
FFFFFFFFFFFFFFFFFFFFFFFFFFFFFFFFFFFFFFFFFFFFFFFFFFFFFFFFFFFFFFFF
310
FFFFFFFFFFFFFFFFFFFFFFFFFFFFFFFFFFFFFFFFFFFFFFFFFFFFFFFFFFFFFFFF
310
FFFFFFFFFFFFFFFFFFFFFFFFFFFFFFFFFFFFFFFFFFFFFFFFFFFFFFFFFFFFFFFF
310
FFFFFFFFFFFFFFFFFFFFFFFFFFFFFFFFFFFFFFFFFFFFFFFFFFFFFFFFFFFFFFFF
310
FFFFFFFFFFFFFFFFFFFFFFFFFFFFFFFFFFFFFFFFFFFFFFFFFFFFFFFFFFFFFFFF
310
FFFFFFFFFFFFFFFFFFFFFFFFFFFFFFFFFFFFFFFFFFFFFFFFFFFFFFFFFFFFFFFF
310
FFFFFFFFFFFFFFFFFFFFFFFFFFFFFFFFFFFFFFFFFFFFFFFFFFFFFFFFFFFFFFFF
310
FFFFFFFFFFFFFFFFFFFFFFFFFFFFFFFFFFFFFFFFFFFFFFFFFFFFFFFFFFFFFFFF
310
FFFFFFFFFFFFFFFFFFFFFFFFFFFFFFFFFFFFFFFFFFFFFFFFFFFFFFFFFFFFFFFF
310
FFFFFFFFFFFFFFFFFFFFFFFFFFFFFFFFFFFFFFFFFFFFFFFFFFFFFFFFFFFFFFFF
310
FFFFFFFFFFFFFFFFFFFFFFFFFFFFFFFFFFFFFFFFFFFFFFFFFFFFFFFFFFFFFFFF
310
52006F006F007400200045006E00740072007900000000000000000000000000
310
0000000000000000000000000000000000000000000000000000000000000000
310
16000500FFFFFFFFFFFFFFFF020000000A00030000000000C000000000000046
310
0000000000000000000000006050190A151BD20103000000C000000000000000
310
01004F006C006500000000000000000000000000000000000000000000000000
310
0000000000000000000000000000000000000000000000000000000000000000
310
0A000200FFFFFFFFFFFFFFFFFFFFFFFF00000000000000000000000000000000
310
0000000000000000000000000000000000000000000000001400000000000000
310
010043006F006D0070004F0062006A0000000000000000000000000000000000
310
0000000000000000000000000000000000000000000000000000000000000000
310
120002010100000003000000FFFFFFFF00000000000000000000000000000000
310
0000000000000000000000000000000000000000010000004D00000000000000
310
01004F006C006500310030004E00610074006900760065000000000000000000
310
0000000000000000000000000000000000000000000000000000000000000000
310
1A000200FFFFFFFFFFFFFFFFFFFFFFFF00000000000000000000000000000000
310
0000000000000000000000000000000000000000040000002426000000000000
310
FEFFFFFF02000000FEFFFFFFFFFFFFFFFFFFFFFFFFFFFFFFFFFFFFFFFFFFFFFF
310
FFFFFFFFFFFFFFFFFFFFFFFFFFFFFFFFFFFFFFFFFFFFFFFFFFFFFFFFFFFFFFFF
310
FFFFFFFFFFFFFFFFFFFFFFFFFFFFFFFFFFFFFFFFFFFFFFFFFFFFFFFFFFFFFFFF
310
FFFFFFFFFFFFFFFFFFFFFFFFFFFFFFFFFFFFFFFFFFFFFFFFFFFFFFFFFFFFFFFF
310
FFFFFFFFFFFFFFFFFFFFFFFFFFFFFFFFFFFFFFFFFFFFFFFFFFFFFFFFFFFFFFFF
310
FFFFFFFFFFFFFFFFFFFFFFFFFFFFFFFFFFFFFFFFFFFFFFFFFFFFFFFFFFFFFFFF
310
FFFFFFFFFFFFFFFFFFFFFFFFFFFFFFFFFFFFFFFFFFFFFFFFFFFFFFFFFFFFFFFF
310
FFFFFFFFFFFFFFFFFFFFFFFFFFFFFFFFFFFFFFFFFFFFFFFFFFFFFFFFFFFFFFFF
310
FFFFFFFFFFFFFFFFFFFFFFFFFFFFFFFFFFFFFFFFFFFFFFFFFFFFFFFFFFFFFFFF
310
FFFFFFFFFFFFFFFFFFFFFFFFFFFFFFFFFFFFFFFFFFFFFFFFFFFFFFFFFFFFFFFF
310
FFFFFFFFFFFFFFFFFFFFFFFFFFFFFFFFFFFFFFFFFFFFFFFFFFFFFFFFFFFFFFFF
310
FFFFFFFFFFFFFFFFFFFFFFFFFFFFFFFFFFFFFFFFFFFFFFFFFFFFFFFFFFFFFFFF
310
FFFFFFFFFFFFFFFFFFFFFFFFFFFFFFFFFFFFFFFFFFFFFFFFFFFFFFFFFFFFFFFF
310
FFFFFFFFFFFFFFFFFFFFFFFFFFFFFFFFFFFFFFFFFFFFFFFFFFFFFFFFFFFFFFFF
310
FFFFFFFFFFFFFFFFFFFFFFFFFFFFFFFFFFFFFFFFFFFFFFFFFFFFFFFFFFFFFFFF
310
FFFFFFFFFFFFFFFFFFFFFFFFFFFFFFFFFFFFFFFFFFFFFFFFFFFFFFFFFFFFFFFF
310
0100000200000000000000000000000000000000000000000000000000000000
310
0000000000000000000000000000000000000000000000000000000000000000
310
0100FEFF030A0000FFFFFFFF0A00030000000000C00000000000004607000000
310
5042727573680007000000504272757368000700000050427275736800F439B2
310
7100000000000000000000000000000000000000000000000000000000000000
310
0000000000000000000000000000000000000000000000000000000000000000
310
0000000000000000000000000000000000000000000000000000000000000000
310
0000000000000000000000000000000000000000000000000000000000000000
310
0000000000000000000000000000000000000000000000000000000000000000
310
0000000000000000000000000000000000000000000000000000000000000000
310
0000000000000000000000000000000000000000000000000000000000000000
310
0000000000000000000000000000000000000000000000000000000000000000
310
0000000000000000000000000000000000000000000000000000000000000000
310
0000000000000000000000000000000000000000000000000000000000000000
310
0000000000000000000000000000000000000000000000000000000000000000
310
0000000000000000000000000000000000000000000000000000000000000000
310
20260000424D0E260000000000003E00000028000000B40200006E0000000100
310
01000000000000000000130B0000130B00000200000002000000000000FFFFFF
310
FFFFFFFFFFFFFFFFFFFFFFFFFFFFFFFFFFFFFFFFFFFFFFFFFFFFFFFFFFFFFFFF
310
FFFFFFFFFFFFFFFFFFFFFFFFFFFFFFFFFFFFFFFFFFFFFFFFFFFFFFFFFFFFFFFF
310
FFFFFFFFFFFFFFFFFFFFFFFFFFFFFFFFFFFFFFFFFFFFFFFFF000FFFFFFFFFFFF
310
FFFFFFFFFFFFFFFFFFFFFFFFFFFFFFFFFFFFFFFFFFFFFFFFFFFFFFFFFFFFFFFF
310
FFFFFFFFFFFFFFFFFFFFFFFFFFFFFFFFFFFFFFFFFFFFFFFFFFFFFFFFFFFFFFFF
310
FFFFFFFFFFFFFFFFFFFFFFFFFFFFFFFFF000FFFFFFFFFFFFFFFFFFFFFFFFFFFF
310
FFFFFFFFFFFFFFFFFFFFFFFFFFFFFFFFFFFFFFFFFFFFFFFFFFFFFFFFFFFFFFFF
310
FFFFFFFFFFFFFFFFFFFFFFFFFFFFFFFFFFFFFFFFFFFFFFFFFFFFFFFFFFFFFFFF
310
FFFFFFFFFFFFFFFFF000FFFFFFFFFFFFFFFFFFFFFFFFFFFFFFFFFFFFFFFFFFFF
310
FFFFFFFFFFFFFFFFFFFFFFFFFFFFFFFFFFFFFFFFFFFFFFFFFFFFFFFFFFFFFFFF
310
FFFFFFFFFFFFFFFFFFFFFFFFFFFFFFFFFFFFFFFFFFFFFFFFFFFFFFFFFFFFFFFF
310
F000FFFFFFFFFFFFFFFFFFFFFFFFFFFFFFFFFFFFFFFFFFFFFFFFFFFFFFFFFFFF
310
FFFFFFFFFFFFFFFFFFFFFFFFFFFFFFFFFFFFFFFFFFFFFFFFFFFFFFFFFFFFFFFF
310
FFFFFFFFFFFFFFFFFFFFFFFFFFFFFFFFFFFFFFFFFFFFFFFFF000FFFFFFFFFFFF
310
FFFFFFFFFFFFFFFFFFFFFFFFFFFFFFFFFFFFFFFFFFFFFFFFFFFFFFFFFFFFFFFF
310
FFFFFFFFFFFFFFFFFFFFFFFFFFFFFFFFFFFFFFFFFFFFFFFFFFFFFFFFFFFFFFFF
310
FFFFFFFFFFFFFFFFFFFFFFFFFFFFFFFFF000FFFFFFFFFFFFFFFFFFFFFFFFFFFF
310
FFFFFFFFFFFFFFFFFFFFFFFFFFFFFFFFFFFFFFFFFFFFFFFFFFFFFFFFFFFFFFFF
310
FFFFFFFFFFFFFFFFFFFFFFFFFFFFFFFFFFFFFFFFFFFFFFFFFFFFFFFFFFFFFFFF
310
FFFFFFFFFFFFFFFFF000FFFFFFFFFFFFFFFFFFFFFFFFFFFFFFFFFFFFFFFFFFFF
310
FFFFFFFFFFFFFFFFFFFFFFFFFFFFFFFFFFFFFFFFFFFFFFFFFFFFFFFFFFFFFFFF
310
FFFFFFFFFFFFFFFFFFFFFFFFFFFFFFFFFFFFFFFFFFFFFFFFFFFFFFFFFFFFFFFF
310
F000FFFFFFFFFFFFFFFFFFFFFFFFFFFFFFFFFFFFFFFFFFFFFFFFFFFFFFFFFFFF
310
FFFFFFFFFFFFFFFFFFFFFFFFFFFFFFFFFFFFFFFFFFFFFFFFFFFFFFFFFFFFFFFF
310
FFFFFFFFFFFFFFFFFFFFFFFFFFFFFFFFFFFFFFFFFFFFFFFFF000FFFFFFFFFFFF
310
FFFFFFFFFFFFFFFFFFFFFFFFFFFFFFFFFFFFFFFFFFFFFFFFFFFFFFFFFFFFFFFF
310
FFFFFFFFFFFFFFFFFFFFFFFFFFFFFFFFFFFFFFFFFFFFFFFFFFFFFFFFFFFFFFFF
310
FFFFFFFFFFFFFFFFFFFFFFFFFFFFFFFFF000FFFFFFFFFFFFFFFFFFFFFFFFFFFF
310
FFFFFFFFFFFFFFFFFFFFFFFFFFFFFFFFFFFFFFFFFFFFFFFFFFFFFFFFFFFFFFFF
310
FFFFFFFFFFFFFFFFFFFFFFFFFFFFFFFFFFFFFFFFFFFFFFFFFFFFFFFFFFFFFFFF
310
FFFFFFFFFFFFFFFFF000FFFFFFFFFFFFFFFFFFFFFFFFFFFFFFFFFFFFFFFFFFFF
310
FFFFFFFFFFFFFFFFFFFFFFFFFFFFFFFFFFFFFFFFFFFFFFFFFFFFFFFFFFFFFFFF
310
FFFFFFFFFFFFFFFFFFFFFFFFFFFFFFFFFFFFFFFFFFFFFFFFFFFFFFFFFFFFFFFF
310
F000FFFFFFFFFFFFFFFFFFFFFFFFFFFFFFFFFFFFFFFFFFFFFFFFFFFFFFFFFFFF
310
FFFFFFFFFFFFFFFFFFFFFFFFFFFFFFFFFFFFFFFFFFFFFFFFFFFFFFFFFFFFFFFF
310
FFFFFFFFFFFFFFFFFFFFFFFFFFFFFFFFFFFFFFFFFFFFFFFFF000FFFFFFFFFFFF
310
FFFFFFFFFFFFFFFFFFFFFFFFFFFFFFFFFFFFFFFFFFFFFFFFFFFFFFFFFFFFFFFF
310
FFFFFFFFFFFFFFFFFFFFFFFFFFFFFFFFFFFFFFFFFFFFFFFFFFFFFFFFFFFFFFFF
310
FFFFFFFFFFFFFFFFFFFFFFFFFFFFFFFFF000FFFFFFFFFFFFFFFFFFFFFFFFFFFF
310
FFFFFFFFFFFFFFFFFFFFFFFFFFFFFFFFFFFFFFFFFFFFFFFFFFFFFFFFFFFFFFFF
310
FFFFFFFFFFFFFFFFFFFFFFFFFFFFFFFFFFFFFFFFFFFFFFFFFFFFFFFFFFFFFFFF
310
FFFFFFFFFFFFFFFFF000FFFFFFFFFFFFFFFFFFFFFFFFFFFFFFFFFFFFFFFFFFFF
310
FFFFFFFFFFFFFFFFFFFFFFFFFFFFFFFFFFFFFFFFFFFFFFFFFFFFFFFFFFFFFFFF
310
FFFFFFFFFFFFFFFFFFFFFFFFFFFFFFFFFFFFFFFFFFFFFFFFFFFFFFFFFFFFFFFF
310
F000FFFFFFFFFFFFFFFFFFFFFFFFFFFFFFFFFFFFFFFFFFFFFFFFFFFFFFFFFFFF
310
FFFFFFFFFFFFFFFFFFFFFFFFFFFFFFFFFFFFFFFFFFFFFFFFFFFFFFFFFFFFFFFF
310
FFFFFFFFFFFFFFFFFFFFFFFFFFFFFFFFFFFFFFFFFFFFFFFFF000FFFFFFFFFFFF
310
FFFFFFFFFFFFFFFFFFFFFFFFFFFFFFFFFFFFFFFFFFFFFFFFFFFFFFFFFFFFFFFF
310
FFFFFFFFFFFFFFFFFFFFFFFFFFFFFFFFFFFFFFFFFFFFFFFFFFFFFFFFFFFFFFFF
310
FFFFFFFFFFFFFFFFFFFFFFFFFFFFFFFFF000FFFFFFFFFFFFFFFFFFFFFFFFFFFF
310
FFFFFFFFFFFFFFFFFFFFFFFFFFFFFFFFFFFFFFFFFFFFFFFFFFFFFFFFFFFFFFFF
310
FFFFFFFFFFFFFFFFFFFFFFFFFFFFFFFFFFFFFFFFFFFFFFFFFFFFFFFFFFFFFFFF
310
FFFFFFFFFFFFFFFFF000FFFFF80003FFFFFFFFFFFFFFFFFFFFFFFFFFFFFFFFFF
310
FFFFF00007FFFFFFFFFF00007FFFFFF800000000000000007FFFFFFFFFFFFFFF
310
FFFFFFFC001FFFFFFFFFFFFFFC001FFFFFFFFFFFFFFFFFFFFFFFFFFE0007FFFF
310
F000FFFF8000007FFFFFFFF8000FFFFFC0007FFFFF80007FFFFF0000007FFFFF
310
FFF8000007FFFFF800000000000000007FFFFFF0001FFFFFFFFFFFC00001FFFF
310
FFFFFFFFC00001FFFFFFFF000000000003FFFFE000007FFFF000FFFE0000000F
310
FFFFFFF0000FFFFF80007FFFFF80007FFFFC0000001FFFFFFFC0000001FFFFF8
310
00000000000000007FFFFFF0001FFFFFFFFFFE0000003FFFFFFFFFFE0000003F
310
FFFFFF000000000003FFFF0000000FFFF000FFF800000003FFFFFFF00007FFFF
310
80007FFFFF80007FFFF000000007FFFFFF000000003FFFF80000000000000000
310
7FFFFFF0001FFFFFFFFFF80000000FFFFFFFFFF80000000FFFFFFF0000000000
310
03FFFC00000003FFF000FFE000000000FFFFFFF00007FFFF80003FFFFF80007F
310
FFC000000001FFFFFC000000001FFFF800000000000000007FFFFFF0001FFFFF
310
FFFFE000000003FFFFFFFFE000000003FFFFFF000000000003FFF000000000FF
310
F000FF80000000007FFFFFF00007FFFF80003FFFFF80007FFF8000000000FFFF
310
F80000000007FFF800000000000000007FFFFFF0001FFFFFFFFFC000000001FF
310
FFFFFFC000000001FFFFFF000000000003FFC0000000007FF000FF0000000000
310
3FFFFFE00007FFFF00003FFFFF80007FFE00000000003FFFF00000000003FFF8
310
00000000000000007FFFFFF0001FFFFFFFFF8000000000FFFFFFFF8000000000
310
FFFFFF000000000003FF80000000003FF000FE00000000001FFFFFE00003FFFF
310
00003FFFFF80007FFC00000000001FFFE00000000001FFF8000001FFFE000000
310
7FFFFFF0001FFFFFFFFE00000000003FFFFFFE00000000003FFFFF0000000000
310
03FF00000000001FF000FC00000000000FFFFFE00003FFFF00001FFFFF80007F
310
F800000000001FFFC00000000000FFF8000001FFFE0000007FFFFFF0001FFFFF
310
FFFC00000000001FFFFFFC00000000001FFFFF000000000003FE00000000000F
310
F000F8000000000007FFFFE00003FFFF00001FFFFF80007FF800000000000FFF
310
800000000000FFF8000001FFFE0000007FFFFFF0001FFFFFFFF800000000000F
310
FFFFF800000000000FFFFF000000000003FC000000000007F000F80000000000
310
03FFFFC00003FFFE00001FFFFF80007FF0000000000007FF0000000000007FF8
310
000001FFFE0000007FFFFFF0001FFFFFFFF0000000000007FFFFF00000000000
310
07FFFF000000000003F8000000000003F000F0000000000003FFFFC00001FFFE
310
00001FFFFF80007FE0000000000007FE0000000000003FF8000001FFFE000000
310
7FFFFFF0001FFFFFFFF0000000000007FFFFF0000000000007FFFF0000000000
310
03F800001F800003F000E00001FFF00001FFFFC00001FFFE00000FFFFF80007F
310
E00001FFE00003FE00001FFF00003FF8000001FFFE0000007FFFFFF0001FFFFF
310
FFE000003E000003FFFFE000003E000003FFFF000000000003F00001FFF80001
310
F000E00007FFFC0001FFFFC00001FFFE00000FFFFF80007FC0000FFFFC0003FC
310
0000FFFFC0001FF8000001FFFE0000007FFFFFF0001FFFFFFFC00003FFE00001
310
FFFFC00003FFE00001FFFF0001FFFFFFFFF00007FFFE0001F000E0000FFFFF00
310
00FFFF800001FFFC00000FFFFF80007FC0001FFFFE0001FC0001FFFFE0001FF8
310
000001FFFE0000007FFFFFF0001FFFFFFF80000FFFF80000FFFF80000FFFF800
310
00FFFF0003FFFFFFFFE0000FFFFF8000F000C0003FFFFF8000FFFF800000FFFC
310
000007FFFF80007F80003FFFFF0001FC0003FFFFF0001FF8000001FFFE000000
310
7FFFFFF0001FFFFFFF80003FFFFE0000FFFF80003FFFFE0000FFFF0003FFFFFF
310
FFE0003FFFFF8000F000C0003FFFFF8000FFFF800000FFFC000007FFFF80007F
310
80007FFFFF8001F80007FFFFF8000FF8000001FFFE0000007FFFFFF0001FFFFF
310
FF00007FFFFF00007FFF00007FFFFF00007FFF0003FFFFFFFFE0003FFFFFC000
310
F000C0007FFFFFC000FFFF000000FFFC000007FFFF80007F8000FFFFFF8000F8
310
000FFFFFF8000FF8000001FFFE0000007FFFFFF0001FFFFFFF0000FFFFFF8000
310
7FFF0000FFFFFF80007FFF0003FFFFFFFFC0007FFFFFC00070008000FFFFFFC0
310
00FFFF000000FFF8000007FFFF80007F8000FFFFFF8000F8000FFFFFF8000FF8
310
000001FFFE0000007FFFFFF0001FFFFFFE0001FFFFFFC0003FFE0001FFFFFFC0
310
003FFF0003FFFFFFFFC0007FFFFFE00070008000FFFFFFC0007FFF0000007FF8
310
000003FFFF80007F0001FFFFFF8000F8000FFFFFF8000FF8000001FFFE000000
310
7FFFFFF0001FFFFFFE0001FFFFFFC0003FFE0001FFFFFFC0003FFF0003FFFFFF
310
FFC000FFFFFFE00070008000FFFFFFC0007FFF0000007FF8000003FFFF80007F
310
0001FFFFFF8000F8001FFFFFF8000FF8000001FFFE0000007FFFFFF0001FFFFF
310
FE0003FFFFFFE0003FFE0003FFFFFFE0003FFF0003FFFFFFFFC000FFFFFFE000
310
70008000FFFFFFC0007FFE0000007FF8000003FFFF80007F0001FFFFFF8000F0
310
001FFFFFF8000FF8000001FFFE0000007FFFFFF0001FFFFFFC0003FFFFFFE000
310
1FFC0003FFFFFFE0001FFF0003FFFFFFFFC000FFFFFFC00070008000FFFFFF80
310
007FFE0000007FF0000003FFFF80007F0001FFFFFF0000F0001FFFFFF8000FF8
310
000001FFFE0000007FFFFFF0001FFFFFFC0007FFFFFFF0001FFC0007FFFFFFF0
310
001FFF0003FFFFFFFFC000FFFFFFC00070008001FFFFFF0000FFFE0000003FF0
310
000001FFFF80007F0001FFFFFF0000F8001FFFFFF0000FF8000001FFFE000000
310
7FFFFFF0001FFFFFFC0007FFFFFFF0001FFC0007FFFFFFF0001FFF0003FFFFFF
310
FFC001FFFFFF80007000FFFFFFFFFE0000FFFE0008003FF0008001FFFF80007F
310
FFFFFFFFFC0000FFFFFFFFFFE0000FF8000001FFFE0000007FFFFFF0001FFFFF
310
F8000FFFFFFFF8000FF8000FFFFFFFF8000FFF0003FFFFFFFFFFFFFFFFFF0000
310
7000FFFFFFFFFC0000FFFC0008003FF0008001FFFF80007FFFFFFFFFF80001FF
310
FFFFFFFF80000FF8000001FFFE0000007FFFFFF0001FFFFFF8000FFFFFFFF800
310
0FF8000FFFFFFFF8000FFF0003FFFFFFFFFFFFFFFFFE0000F000FFFFFFFFE000
310
00FFFC000C003FE000C001FFFF80007FFFFFFFFFC00001FFFFFFFFFE00001FF8
310
000001FFFE0000007FFFFFF0001FFFFFF8000FFFFFFFF8000FF8000FFFFFFFF8
310
000FFF0003FFFFFFFFFFFFFFFFF00000F000FFFFFFFE000001FFFC000C001FE0
310
00C000FFFF80007FFFFFFFFE000001FFFFFFFFE000001FF80FFFFFFFFFFFFFC0
310
7FFFFFF0001FFFFFF8000FFFFFFFF8000FF8000FFFFFFFF8000FFF0003FFFFFF
310
FFFFFFFFFF800000F000FFFFFFC0000001FFFC001C001FE001C000FFFF80007F
310
FFFFFF80000003FFFFFFF80000001FF80FFFFFFFFFFFFFC07FFFFFF0001FFFFF
310
F8001FFFFFFFFC000FF8001FFFFFFFFC000FFF0003FFFFFFFFFFFFFFF0000001
310
F000FFFFF800000001FFF8001C001FE001C000FFFF80007FFFFFF800000003FF
310
FFFF800000003FF80FFFFFFFFFFFFFC07FFFFFF0001FFFFFF8001FFFFFFFFC00
310
0FF8001FFFFFFFFC000FFF0003FFFFFFFFFFFFFE00000001F000FFFFC0000000
310
03FFF8001E001FC001E000FFFF80007FFFFF8000000007FFFFFC000000003FF8
310
0FFFFFFFFFFFFFC07FFFFFF0001FFFFFF8001FFFFFFFFC000FF8001FFFFFFFFC
310
000FFF0003FFFFFFFFFFFFE000000003F000FFFE0000000007FFF8001E000FC0
310
01E0007FFF80007FFFFE0000000007FFFFE0000000007FF80FFFFFFFFFFFFFC0
310
7FFFFFF0001FFFFFF0001FFFFFFFFC0007F0001FFFFFFFFC0007FF0003FFFFFF
310
FFFFFF0000000003F000FFF80000000007FFF8001E000FC003E0007FFF80007F
310
FFF0000000000FFFFF8000000000FFF80FFFFFFFFFFFFFC07FFFFFF0001FFFFF
310
F0001FFFFFFFFC0007F0001FFFFFFFFC0007FF0003FFFFFFFFFFFC0000000007
310
F000FFE0000000000FFFF0003E000FC003E0007FFF80007FFFC0000000001FFF
310
FE0000000001FFF80FFFFFFFFFFFFFC07FFFFFF0001FFFFFF0001FFFFFFFFC00
310
07F0001FFFFFFFFC0007FF0003FFFFFFFFFFF0000000000FF000FFC000000000
310
1FFFF0003F000F8003F0003FFF80007FFF80000000003FFFF80000000003FFF8
310
0FFFFFFFFFFFFFC07FFFFFF0001FFFFFF0001FFFFFFFFC0007F0001FFFFFFFFC
310
0007FF0003FFFFFFFFFFE0000000001FF000FF00000000007FFFF0003F000780
310
03F0003FFF80007FFF00000000007FFFF00000000007FFF80FFFFFFFFFFFFFC0
310
7FFFFFF0001FFFFFF0001FFFFFFFFC0007F0001FFFFFFFFC0007FF0003FFFFFF
310
FFFF80000000007FF000FE0000000000FFFFE0003F00078007F0003FFF80007F
310
FE0000000001FFFFE0000000001FFFF80FFFFFFFFFFFFFC07FFFFFF0001FFFFF
310
F0001FFFFFFFFC0007F0001FFFFFFFFC0007FF0003FFFFFFFFFF0000000000FF
310
F000FC0000000003FFFFE0007F00078007F0003FFF80007FFC0000000007FFFF
310
C0000000007FFFF80FFFFFFFFFFFFFC07FFFFFF0001FFFFFF8001FFFFFFFFC00
310
0FF8001FFFFFFFFC000FFF0003FFFFFFFFFE0000000003FFF000FC000000000F
310
FFFFE0007F80070007F8001FFF80007FF8000000001FFFFF8000000001FFFFF8
310
0FFFFFFFFFFFFFC07FFFFFF0001FFFFFF8001FFFFFFFFC000FF8001FFFFFFFFC
310
000FFF0003FFFFFFFFFC000000000FFFF000F8000000007FFFFFE0007F800700
310
07F8001FFF80007FF000000000FFFFFF800000000FFFFFF80FFFFFFFFFFFFFC0
310
7FFFFFF0001FFFFFF8000FFFFFFFF8000FF8000FFFFFFFF8000FFF0003FFFFFF
310
FFFC000000007FFFF000F800000007FFFFFFC0007F8003000FF8001FFF80007F
310
F000000007FFFFFF000000007FFFFFF80FFFFFFFFFFFFFC07FFFFFF0001FFFFF
310
F8000FFFFFFFF8000FF8000FFFFFFFF8000FFF0003FFFFFFFFF80000000FFFFF
310
F000F0000000FFFFFFFFC000FF8003000FF8001FFF80007FE0000000FFFFFFFF
310
0000000FFFFFFFF8000001FFFE0000007FFFFFF0001FFFFFF8000FFFFFFFF800
310
0FF8000FFFFFFFF8000FFF0003FFFFFFFFF8000000FFFFFFF000F000000FFFFF
310
FFFFC000FFC002000FF8000FFF80007FE000001FFFFFFFFE000001FFFFFFFFF8
310
000001FFFE0000007FFFFFF0001FFFFFF8000FFFFFFFF8000FF8000FFFFFFFF8
310
000FFF0003FFFFFFFFF000001FFFFFFFF000E00000FFFFFFFFFFC000FFC00200
310
0FFC000FFF80007FE00001FFFFFFFFFE00001FFFFFFFFFF8000001FFFE000000
310
7FFFFFF0001FFFFFFC000FFFFFFFF8001FFC000FFFFFFFF8001FFF0003FFFFFF
310
FFF00001FFFFFFFFF000E00007FFFFFFFFFF8000FFC000001FFC000FFF80007F
310
C0000FFFFFFFFFFE0000FFFFFFFFFFF8000001FFFE0000007FFFFFF0001FFFFF
310
FC0007FFFFFFF0001FFC0007FFFFFFF0001FFF0003FFFFFFFFF00007FFFFFFFF
310
F000E0001FFFFFFFFFFF8000FFC000001FFC000FFF80007FC0003FFFFFFFFFFE
310
0001FFFFFFFFFFF8000001FFFE0000007FFFFFF0001FFFFFFC0007FFFFFFF000
310
1FFC0007FFFFFFF0001FFF0003FFFFFFFFF0001FFFFFFFFFF000E0003FFFFF00
310
03FF8001FFE000001FFC0007FF80007FC0007FFFFF0007FC0003FFFFF0003FF8
310
000001FFFE0000007FFFFFF0001FFFFFFC0003FFFFFFE0001FFC0003FFFFFFE0
310
001FFF0003FFFFFFFFF0003FFFFFFFFFF000E0003FFFFF0001FF8001FFE00000
310
1FFE0007FF80007FC0007FFFFE0003FC0007FFFFE0003FF8000001FFFE000000
310
7FFFFFF0001FFFFFFE0003FFFFFFE0003FFE0003FFFFFFE0003FFF0003FFFFFF
310
FFF0003FFFFF8001F000E0003FFFFF0001FF0001FFE000001FFE0007FF80007F
310
C0007FFFFE0003FC0007FFFFE0003FF8000001FFFE0000007FFFFFF0001FFFFF
310
FE0001FFFFFFC0003FFE0001FFFFFFC0003FFF0003FFFFFFFFF0003FFFFF0001
310
F000E0003FFFFF0003FF0001FFE000003FFE0007FF80007FC0007FFFFE0003FC
310
0007FFFFE0003FF8000001FFFE0000007FFFFFF0001FFFFFFF0001FFFFFFC000
310
7FFF0001FFFFFFC0007FFF0003FFFFFFFFF0003FFFFF0001F000E0003FFFFE00
310
03FF0003FFF000003FFE0003FF80007FC0007FFFFC0003FE0007FFFFE0003FF8
310
000001FFFE0000007FFFFFF0001FFFFFFF0000FFFFFF80007FFF0000FFFFFF80
310
007FFF0003FFFFFFFFF0003FFFFF0001F000E0003FFFFE0003FF0003FFF00000
310
3FFF0003FF80007FC0007FFFFC0007FE0007FFFFC0003FF8000001FFFE000000
310
7FFFFFF0001FFFFFFF80007FFFFF0000FFFF80007FFFFF0000FFFF0003FFFFFF
310
FFF0003FFFFF0003F000E0003FFFFC0003FE0003FFF000003FFF0003FF80007F
310
E0003FFFF80007FE0003FFFFC0007FF8000001FFFE0000007FFFFFF0001FFFFF
310
FF80003FFFFE0000FFFF80003FFFFE0000FFFF0003FFFFFFFFF0001FFFFE0003
310
F000F0001FFFF80003FE0003FFF000007FFF0001FF80007FE0003FFFF00007FE
310
0001FFFF80007FF8000001FFFE0000007FFFFFF0001FFFFFFFC0000FFFF80001
310
FFFFC0000FFFF80001FFFF0003FFFFFFFFF0001FFFFC0003F000F0000FFFF000
310
07FE0007FFF800007FFF0001FF80007FE0001FFFE00007FF0000FFFE00007FF8
310
000001FFFE0000007FFFFFF0001FFFFFFFC00003FFE00001FFFFC00003FFE000
310
01FFFF0003FFFFFFFFF8000FFFF80003F000F00003FFC00007FC0007FFF80000
310
7FFF8001FF80007FF00007FF80000FFF00007FF80000FFF8000001FFFE000000
310
7F80000000000001FFE000003E000003FFFFE000003E000003FFFF0003FFFFFF
310
FFF80003FFE00007F000F800000000000FFC0007FFF800007FFF8001FF80007F
310
F000000000000FFF000000000000FFF8000001FFFE0000007F80000000000001
310
FFF0000000000007FFFFF0000000000007FFFF0003FFFFFFFFFC00007E000007
310
F000F800000000000FFC0007FFF80000FFFF8000FF80007FF800000000001FFF
310
800000000001FFF8000001FFFE0000007F80000000000001FFF800000000000F
310
FFFFF800000000000FFFFF0003FFFFFFFFFC00000000000FF000FC0000000000
310
1FFC0007FFFC0000FFFF8000FF80007FF800000000003FFFC00000000001FFF8
310
000001FFFE0000007F80000000000001FFF800000000000FFFFFF80000000000
310
0FFFFF0003FFFFFFFFFE00000000001FF000FE00000000003FF8000FFFFC0000
310
FFFF8000FF80007FFC00000000003FFFC00000000003FFF8000001FFFE000000
310
7F80000000000001FFFC00000000001FFFFFFC00000000001FFFFF0003FFFFFF
310
FFFF00000000001FF000FF00000000003FF8000FFFFC0000FFFFC000FF80007F
310
FE00000000007FFFE00000000007FFF8000001FFFE0000007F80000000000001
310
FFFE00000000003FFFFFFE00000000003FFFFF0003FFFFFFFFFF80000000003F
310
F000FF80000000007FF8000FFFFC0001FFFFC0007F80007FFF0000000000FFFF
310
F0000000000FFFF800000000000000007F80000000000001FFFF8000000000FF
310
FFFFFF8000000000FFFFFF0003FFFFFFFFFFC0000000007FF000FFC000000000
310
FFF8000FFFFE0001FFFFC0007F80007FFF8000000001FFFFF8000000001FFFF8
310
00000000000000007F80000000000001FFFFC000000001FFFFFFFFC000000001
310
FFFFFF0003FFFFFFFFFFE000000000FFF000FFE000000003FFF0001FFFFE0001
310
FFFFC0007F80007FFFC000000007FFFFFE000000003FFFF80000000000000000
310
7F80000000000001FFFFE000000003FFFFFFFFE000000003FFFFFF0003FFFFFF
310
FFFFF000000003FFF000FFF80000000FFFF0001FFFFE0001FFFFE0007F80007F
310
FFF00000000FFFFFFF00000000FFFFF800000000000000007F80000000000001
310
FFFFF80000000FFFFFFFFFF80000000FFFFFFF0003FFFFFFFFFFFC0000000FFF
310
F000FFFE0000003FFFF0001FFFFE0003FFFFE0003F80007FFFFC0000003FFFFF
310
FFC0000003FFFFF800000000000000007F80000000000001FFFFFE0000003FFF
310
FFFFFFFE0000003FFFFFFF0003FFFFFFFFFFFF0000003FFFF000FFFF800000FF
310
FFF0001FFFFF0003FFFFE0003F80007FFFFF000001FFFFFFFFF800001FFFFFF8
310
00000000000000007F80000000000001FFFFFFC00001FFFFFFFFFFFFC00001FF
310
FFFFFF0003FFFFFFFFFFFFC00000FFFFF000FFFFF8000FFFFFFFFFFFFFFFFFFF
310
FFFFFFFFFFFFFFFFFFFFF0001FFFFFFFFFFF0000FFFFFFF80000000000000000
310
7FFFFFFFFFFFFFFFFFFFFFFC001FFFFFFFFFFFFFFC001FFFFFFFFFFFFFFFFFFF
310
FFFFFFFC001FFFFFF000FFFFFFFFFFFFFFFFFFFFFFFFFFFFFFFFFFFFFFFFFFFF
310
FFFFFFFFFFFFFFFFFFFFFFFFFFFFFFFFFFFFFFFFFFFFFFFFFFFFFFFFFFFFFFFF
310
FFFFFFFFFFFFFFFFFFFFFFFFFFFFFFFFFFFFFFFFFFFFFFFFFFFFFFFFFFFFFFFF
310
F000FFFFFFFFFFFFFFFFFFFFFFFFFFFFFFFFFFFFFFFFFFFFFFFFFFFFFFFFFFFF
310
FFFFFFFFFFFFFFFFFFFFFFFFFFFFFFFFFFFFFFFFFFFFFFFFFFFFFFFFFFFFFFFF
310
FFFFFFFFFFFFFFFFFFFFFFFFFFFFFFFFFFFFFFFFFFFFFFFFF000FFFFFFFFFFFF
310
FFFFFFFFFFFFFFFFFFFFFFFFFFFFFFFFFFFFFFFFFFFFFFFFFFFFFFFFFFFFFFFF
310
FFFFFFFFFFFFFFFFFFFFFFFFFFFFFFFFFFFFFFFFFFFFFFFFFFFFFFFFFFFFFFFF
310
FFFFFFFFFFFFFFFFFFFFFFFFFFFFFFFFF000FFFFFFFFFFFFFFFFFFFFFFFFFFFF
310
FFFFFFFFFFFFFFFFFFFFFFFFFFFFFFFFFFFFFFFFFFFFFFFFFFFFFFFFFFFFFFFF
310
FFFFFFFFFFFFFFFFFFFFFFFFFFFFFFFFFFFFFFFFFFFFFFFFFFFFFFFFFFFFFFFF
310
FFFFFFFFFFFFFFFFF000FFFFFFFFFFFFFFFFFFFFFFFFFFFFFFFFFFFFFFFFFFFF
310
FFFFFFFFFFFFFFFFFFFFFFFFFFFFFFFFFFFFFFFFFFFFFFFFFFFFFFFFFFFFFFFF
310
FFFFFFFFFFFFFFFFFFFFFFFFFFFFFFFFFFFFFFFFFFFFFFFFFFFFFFFFFFFFFFFF
310
F000FFFFFFFFFFFFFFFFFFFFFFFFFFFFFFFFFFFFFFFFFFFFFFFFFFFFFFFFFFFF
310
FFFFFFFFFFFFFFFFFFFFFFFFFFFFFFFFFFFFFFFFFFFFFFFFFFFFFFFFFFFFFFFF
310
FFFFFFFFFFFFFFFFFFFFFFFFFFFFFFFFFFFFFFFFFFFFFFFFF000FFFFFFFFFFFF
310
FFFFFFFFFFFFFFFFFFFFFFFFFFFFFFFFFFFFFFFFFFFFFFFFFFFFFFFFFFFFFFFF
310
FFFFFFFFFFFFFFFFFFFFFFFFFFFFFFFFFFFFFFFFFFFFFFFFFFFFFFFFFFFFFFFF
310
FFFFFFFFFFFFFFFFFFFFFFFFFFFFFFFFF000FFFFFFFFFFFFFFFFFFFFFFFFFFFF
310
FFFFFFFFFFFFFFFFFFFFFFFFFFFFFFFFFFFFFFFFFFFFFFFFFFFFFFFFFFFFFFFF
310
FFFFFFFFFFFFFFFFFFFFFFFFFFFFFFFFFFFFFFFFFFFFFFFFFFFFFFFFFFFFFFFF
310
FFFFFFFFFFFFFFFFF000FFFFFFFFFFFFFFFFFFFFFFFFFFFFFFFFFFFFFFFFFFFF
310
FFFFFFFFFFFFFFFFFFFFFFFFFFFFFFFFFFFFFFFFFFFFFFFFFFFFFFFFFFFFFFFF
310
FFFFFFFFFFFFFFFFFFFFFFFFFFFFFFFFFFFFFFFFFFFFFFFFFFFFFFFFFFFFFFFF
310
F000FFFFFFFFFFFFFFFFFFFFFFFFFFFFFFFFFFFFFFFFFFFFFFFFFFFFFFFFFFFF
310
FFFFFFFFFFFFFFFFFFFFFFFFFFFFFFFFFFFFFFFFFFFFFFFFFFFFFFFFFFFFFFFF
310
FFFFFFFFFFFFFFFFFFFFFFFFFFFFFFFFFFFFFFFFFFFFFFFFF000FFFFFFFFFFFF
310
FFFFFFFFFFFFFFFFFFFFFFFFFFFFFFFFFFFFFFFFFFFFFFFFFFFFFFFFFFFFFFFF
310
FFFFFFFFFFFFFFFFFFFFFFFFFFFFFFFFFFFFFFFFFFFFFFFFFFFFFFFFFFFFFFFF
310
FFFFFFFFFFFFFFFFFFFFFFFFFFFFFFFFF000FFFFFFFFFFFFFFFFFFFFFFFFFFFF
310
FFFFFFFFFFFFFFFFFFFFFFFFFFFFFFFFFFFFFFFFFFFFFFFFFFFFFFFFFFFFFFFF
310
FFFFFFFFFFFFFFFFFFFFFFFFFFFFFFFFFFFFFFFFFFFFFFFFFFFFFFFFFFFFFFFF
310
FFFFFFFFFFFFFFFFF000FFFFFFFFFFFFFFFFFFFFFFFFFFFFFFFFFFFFFFFFFFFF
310
FFFFFFFFFFFFFFFFFFFFFFFFFFFFFFFFFFFFFFFFFFFFFFFFFFFFFFFFFFFFFFFF
310
FFFFFFFFFFFFFFFFFFFFFFFFFFFFFFFFFFFFFFFFFFFFFFFFFFFFFFFFFFFFFFFF
310
F000FFFFFFFFFFFFFFFFFFFFFFFFFFFFFFFFFFFFFFFFFFFFFFFFFFFFFFFFFFFF
310
FFFFFFFFFFFFFFFFFFFFFFFFFFFFFFFFFFFFFFFFFFFFFFFFFFFFFFFFFFFFFFFF
310
FFFFFFFFFFFFFFFFFFFFFFFFFFFFFFFFFFFFFFFFFFFFFFFFF000FFFFFFFFFFFF
310
FFFFFFFFFFFFFFFFFFFFFFFFFFFFFFFFFFFFFFFFFFFFFFFFFFFFFFFFFFFFFFFF
310
FFFFFFFFFFFFFFFFFFFFFFFFFFFFFFFFFFFFFFFFFFFFFFFFFFFFFFFFFFFFFFFF
310
FFFFFFFFFFFFFFFFFFFFFFFFFFFFFFFFF000FFFFFFFFFFFFFFFFFFFFFFFFFFFF
310
FFFFFFFFFFFFFFFFFFFFFFFFFFFFFFFFFFFFFFFFFFFFFFFFFFFFFFFFFFFFFFFF
310
FFFFFFFFFFFFFFFFFFFFFFFFFFFFFFFFFFFFFFFFFFFFFFFFFFFFFFFFFFFFFFFF
310
FFFFFFFFFFFFFFFFF000FFFFFFFFFFFFFFFFFFFFFFFFFFFFFFFFFFFFFFFFFFFF
310
FFFFFFFFFFFFFFFFFFFFFFFFFFFFFFFFFFFFFFFFFFFFFFFFFFFFFFFFFFFFFFFF
310
FFFFFFFFFFFFFFFFFFFFFFFFFFFFFFFFFFFFFFFFFFFFFFFFFFFFFFFFFFFFFFFF
310
F000FFFFFFFFFFFFFFFFFFFFFFFFFFFFFFFFFFFFFFFFFFFFFFFFFFFFFFFFFFFF
310
FFFFFFFFFFFFFFFFFFFFFFFFFFFFFFFFFFFFFFFFFFFFFFFFFFFFFFFFFFFFFFFF
310
FFFFFFFFFFFFFFFFFFFFFFFFFFFFFFFFFFFFFFFFFFFFFFFFF000FFFFFFFFFFFF
310
FFFFFFFFFFFFFFFFFFFFFFFFFFFFFFFFFFFFFFFFFFFFFFFFFFFFFFFFFFFFFFFF
310
FFFFFFFFFFFFFFFFFFFFFFFFFFFFFFFFFFFFFFFFFFFFFFFFFFFFFFFFFFFFFFFF
310
FFFFFFFFFFFFFFFFFFFFFFFFFFFFFFFFF000FFFFFFFFFFFFFFFFFFFFFFFFFFFF
310
FFFFFFFFFFFFFFFFFFFFFFFFFFFFFFFFFFFFFFFFFFFFFFFFFFFFFFFFFFFFFFFF
310
FFFFFFFFFFFFFFFFFFFFFFFFFFFFFFFFFFFFFFFFFFFFFFFFFFFFFFFFFFFFFFFF
310
FFFFFFFFFFFFFFFFF000FFFFFFFFFFFFFFFFFFFFFFFFFFFFFFFFFFFFFFFFFFFF
310
FFFFFFFFFFFFFFFFFFFFFFFFFFFFFFFFFFFFFFFFFFFFFFFFFFFFFFFFFFFFFFFF
310
FFFFFFFFFFFFFFFFFFFFFFFFFFFFFFFFFFFFFFFFFFFFFFFFFFFFFFFFFFFFFFFF
310
F000FFFFFFFFFFFFFFFFFFFFFFFFFFFFFFFFFFFFFFFFFFFFFFFFFFFFFFFFFFFF
310
FFFFFFFFFFFFFFFFFFFFFFFFFFFFFFFFFFFFFFFFFFFFFFFFFFFFFFFFFFFFFFFF
310
FFFFFFFFFFFFFFFFFFFFFFFFFFFFFFFFFFFFFFFFFFFFFFFFF000FFFFFFFFFFFF
310
FFFFFFFFFFFFFFFFFFFFFFFFFFFFFFFFFFFFFFFFFFFFFFFFFFFFFFFFFFFFFFFF
310
FFFFFFFFFFFFFFFFFFFFFFFFFFFFFFFFFFFFFFFFFFFFFFFFFFFFFFFFFFFFFFFF
310
FFFFFFFFFFFFFFFFFFFFFFFFFFFFFFFFF0000000000000000000000000000000
310
0000000000000000000000000000000000000000000000000000000000000000
310
0000000000000000000000000000000000000000000000000000000000000000
310
0000000000000000000000000000000000000000000000000000000000000000
310
0000000000000000000000000000000000000000000000000000000000000000
310
0000000000000000000000000000000000000000000000000000000000000000
310
0000000000000000000000000000000000000000000000000000000000000000
310
0000000000000000000000000000000000000000000000000000000000000000
310
0000000000000000000000000000000000000000000000000000000000000000
310
0000000000000000000000000000000000000000000000000000000000000000
310
0000000000000000000000000000000000000000000000000000000000000000
310
0000000000000000000000000000000000000000000000000000000000000000
310
0000000000000000000000000000000000000000000000000000000000000000
310
0000000000000000000000000000000000000000000000000000000000000000
310
0000000000000000000000000000000000000000000000000000000000000000
310
0000000000000000000000000000000000000000000000000000000000000000
  1
OLE
  0
ENDSEC
  0
SECTION
  2
OBJECTS
  0
DICTIONARY
  5
C
330
0
100
AcDbDictionary
281
     1
  3
ACAD_GROUP
350
D
  3
ACAD_LAYOUT
350
1A
  3
ACAD_MLINESTYLE
350
17
  3
ACAD_PLOTSETTINGS
350
19
  3
ACAD_PLOTSTYLENAME
350
E
  3
ACAD_SCALELIST
350
47
  0
DICTIONARY
  5
D
102
{ACAD_REACTORS
330
C
102
}
330
C
100
AcDbDictionary
281
     1
  0
DICTIONARY
  5
1A
102
{ACAD_REACTORS
330
C
102
}
330
C
100
AcDbDictionary
281
     1
  3
Layout1
350
1E
  3
Layout2
350
26
  3
Model
350
22
  0
DICTIONARY
  5
17
102
{ACAD_REACTORS
330
C
102
}
330
C
100
AcDbDictionary
281
     1
  3
Standard
350
18
  0
DICTIONARY
  5
19
102
{ACAD_REACTORS
330
C
102
}
330
C
100
AcDbDictionary
281
     1
  0
ACDBDICTIONARYWDFLT
  5
E
102
{ACAD_REACTORS
330
C
102
}
330
C
100
AcDbDictionary
281
     1
  3
Normal
350
F
100
AcDbDictionaryWithDefault
340
F
  0
DICTIONARY
  5
47
102
{ACAD_REACTORS
330
C
102
}
330
C
100
AcDbDictionary
281
     1
  3
A0
350
48
  3
A1
350
49
  3
A2
350
4A
  3
A3
350
4B
  3
A4
350
4C
  3
A5
350
4D
  3
A6
350
4E
  3
A7
350
4F
  3
A8
350
50
  3
A9
350
51
  3
B0
350
52
  3
B1
350
53
  3
B2
350
54
  3
B3
350
55
  3
B4
350
56
  3
B5
350
57
  3
B6
350
58
  3
B7
350
59
  3
B8
350
5A
  3
B9
350
5B
  3
C0
350
5C
  3
C1
350
5D
  3
C2
350
5E
  3
C3
350
5F
  3
C4
350
60
  3
C5
350
61
  3
C6
350
62
  3
C7
350
63
  3
C8
350
64
  3
C9
350
65
  3
D0
350
66
  3
D1
350
67
  3
D2
350
68
  0
LAYOUT
  5
1E
102
{ACAD_REACTORS
330
1A
102
}
330
1A
100
AcDbPlotSettings
  1

  2
none_device
  4

  6

 40
0.0
 41
0.0
 42
0.0
 43
0.0
 44
0.0
 45
0.0
 46
0.0
 47
0.0
 48
0.0
 49
0.0
140
0.0
141
0.0
142
1.0
143
1.0
 70
   688
 72
     1
 73
     0
 74
     5
  7

 75
    16
147
1.0
148
0.0
149
0.0
100
AcDbLayout
  1
Layout1
 70
     1
 71
     1
 10
0.0
 20
0.0
 11
420.0
 21
297.0
 12
0.0
 22
0.0
 32
0.0
 14
1.0000000000E+20
 24
1.0000000000E+20
 34
1.0000000000E+20
 15
-1.0000000000E+20
 25
-1.0000000000E+20
 35
-1.0000000000E+20
146
0.0
 13
0.0
 23
0.0
 33
0.0
 16
1.0
 26
0.0
 36
0.0
 17
0.0
 27
1.0
 37
0.0
 76
     0
330
1B
  0
LAYOUT
  5
26
102
{ACAD_REACTORS
330
1A
102
}
330
1A
100
AcDbPlotSettings
  1

  2
none_device
  4

  6

 40
0.0
 41
0.0
 42
0.0
 43
0.0
 44
0.0
 45
0.0
 46
0.0
 47
0.0
 48
0.0
 49
0.0
140
0.0
141
0.0
142
1.0
143
1.0
 70
   688
 72
     1
 73
     0
 74
     5
  7

 75
    16
147
1.0
148
0.0
149
0.0
100
AcDbLayout
  1
Layout2
 70
     1
 71
     2
 10
0.0
 20
0.0
 11
0.0
 21
0.0
 12
0.0
 22
0.0
 32
0.0
 14
0.0
 24
0.0
 34
0.0
 15
0.0
 25
0.0
 35
0.0
146
0.0
 13
0.0
 23
0.0
 33
0.0
 16
1.0
 26
0.0
 36
0.0
 17
0.0
 27
1.0
 37
0.0
 76
     0
330
23
  0
LAYOUT
  5
22
102
{ACAD_REACTORS
330
1A
102
}
330
1A
100
AcDbPlotSettings
  1

  2
none_device
  4
Letter_(8.50_x_11.00_Inches)
  6

 40
6.35
 41
6.35
 42
6.35000508
 43
6.35000508
 44
215.9
 45
279.4
 46
0.0
 47
0.0
 48
0.0
 49
0.0
140
0.0
141
0.0
142
1.0
143
1.0
 70
  1712
 72
     1
 73
     0
 74
     0
  7

 75
     0
147
1.0
148
0.0
149
0.0
100
AcDbLayout
  1
Model
 70
     1
 71
     0
 10
0.0
 20
0.0
 11
297.0
 21
210.0
 12
0.0
 22
0.0
 32
0.0
 14
0.0
 24
0.0
 34
0.0
 15
297.0
 25
210.0
 35
0.0
146
0.0
 13
0.0
 23
0.0
 33
0.0
 16
1.0
 26
0.0
 36
0.0
 17
0.0
 27
1.0
 37
0.0
 76
     0
330
1F
331
29
  0
MLINESTYLE
  5
18
102
{ACAD_REACTORS
330
17
102
}
330
17
100
AcDbMlineStyle
  2
Standard
 70
     0
  3

 62
   256
 51
90.0
 52
90.0
 71
     2
 49
0.5
 62
   256
  6
BYLAYER
 49
-0.5
 62
   256
  6
BYLAYER
  0
ACDBPLACEHOLDER
  5
F
102
{ACAD_REACTORS
330
E
102
}
330
E
  0
SCALE
  5
48
102
{ACAD_REACTORS
330
47
102
}
330
47
100
AcDbScale
 70
     0
300
1:1
140
1.0
141
1.0
290
     1
  0
SCALE
  5
49
102
{ACAD_REACTORS
330
47
102
}
330
47
100
AcDbScale
 70
     0
300
1:2
140
1.0
141
2.0
290
     0
  0
SCALE
  5
4A
102
{ACAD_REACTORS
330
47
102
}
330
47
100
AcDbScale
 70
     0
300
1:4
140
1.0
141
4.0
290
     0
  0
SCALE
  5
4B
102
{ACAD_REACTORS
330
47
102
}
330
47
100
AcDbScale
 70
     0
300
1:5
140
1.0
141
5.0
290
     0
  0
SCALE
  5
4C
102
{ACAD_REACTORS
330
47
102
}
330
47
100
AcDbScale
 70
     0
300
1:8
140
1.0
141
8.0
290
     0
  0
SCALE
  5
4D
102
{ACAD_REACTORS
330
47
102
}
330
47
100
AcDbScale
 70
     0
300
1:10
140
1.0
141
10.0
290
     0
  0
SCALE
  5
4E
102
{ACAD_REACTORS
330
47
102
}
330
47
100
AcDbScale
 70
     0
300
1:16
140
1.0
141
16.0
290
     0
  0
SCALE
  5
4F
102
{ACAD_REACTORS
330
47
102
}
330
47
100
AcDbScale
 70
     0
300
1:20
140
1.0
141
20.0
290
     0
  0
SCALE
  5
50
102
{ACAD_REACTORS
330
47
102
}
330
47
100
AcDbScale
 70
     0
300
1:30
140
1.0
141
30.0
290
     0
  0
SCALE
  5
51
102
{ACAD_REACTORS
330
47
102
}
330
47
100
AcDbScale
 70
     0
300
1:40
140
1.0
141
40.0
290
     0
  0
SCALE
  5
52
102
{ACAD_REACTORS
330
47
102
}
330
47
100
AcDbScale
 70
     0
300
1:50
140
1.0
141
50.0
290
     0
  0
SCALE
  5
53
102
{ACAD_REACTORS
330
47
102
}
330
47
100
AcDbScale
 70
     0
300
1:100
140
1.0
141
100.0
290
     0
  0
SCALE
  5
54
102
{ACAD_REACTORS
330
47
102
}
330
47
100
AcDbScale
 70
     0
300
2:1
140
2.0
141
1.0
290
     0
  0
SCALE
  5
55
102
{ACAD_REACTORS
330
47
102
}
330
47
100
AcDbScale
 70
     0
300
4:1
140
4.0
141
1.0
290
     0
  0
SCALE
  5
56
102
{ACAD_REACTORS
330
47
102
}
330
47
100
AcDbScale
 70
     0
300
8:1
140
8.0
141
1.0
290
     0
  0
SCALE
  5
57
102
{ACAD_REACTORS
330
47
102
}
330
47
100
AcDbScale
 70
     0
300
10:1
140
10.0
141
1.0
290
     0
  0
SCALE
  5
58
102
{ACAD_REACTORS
330
47
102
}
330
47
100
AcDbScale
 70
     0
300
100:1
140
100.0
141
1.0
290
     0
  0
SCALE
  5
59
102
{ACAD_REACTORS
330
47
102
}
330
47
100
AcDbScale
 70
     0
300
1/128" = 1'-0"
140
0.0078125
141
12.0
290
     0
  0
SCALE
  5
5A
102
{ACAD_REACTORS
330
47
102
}
330
47
100
AcDbScale
 70
     0
300
1/64" = 1'-0"
140
0.015625
141
12.0
290
     0
  0
SCALE
  5
5B
102
{ACAD_REACTORS
330
47
102
}
330
47
100
AcDbScale
 70
     0
300
1/32" = 1'-0"
140
0.03125
141
12.0
290
     0
  0
SCALE
  5
5C
102
{ACAD_REACTORS
330
47
102
}
330
47
100
AcDbScale
 70
     0
300
1/16" = 1'-0"
140
0.0625
141
12.0
290
     0
  0
SCALE
  5
5D
102
{ACAD_REACTORS
330
47
102
}
330
47
100
AcDbScale
 70
     0
300
3/32" = 1'-0"
140
0.09375
141
12.0
290
     0
  0
SCALE
  5
5E
102
{ACAD_REACTORS
330
47
102
}
330
47
100
AcDbScale
 70
     0
300
1/8" = 1'-0"
140
0.125
141
12.0
290
     0
  0
SCALE
  5
5F
102
{ACAD_REACTORS
330
47
102
}
330
47
100
AcDbScale
 70
     0
300
3/16" = 1'-0"
140
0.1875
141
12.0
290
     0
  0
SCALE
  5
60
102
{ACAD_REACTORS
330
47
102
}
330
47
100
AcDbScale
 70
     0
300
1/4" = 1'-0"
140
0.25
141
12.0
290
     0
  0
SCALE
  5
61
102
{ACAD_REACTORS
330
47
102
}
330
47
100
AcDbScale
 70
     0
300
3/8" = 1'-0"
140
0.375
141
12.0
290
     0
  0
SCALE
  5
62
102
{ACAD_REACTORS
330
47
102
}
330
47
100
AcDbScale
 70
     0
300
1/2" = 1'-0"
140
0.5
141
12.0
290
     0
  0
SCALE
  5
63
102
{ACAD_REACTORS
330
47
102
}
330
47
100
AcDbScale
 70
     0
300
3/4" = 1'-0"
140
0.75
141
12.0
290
     0
  0
SCALE
  5
64
102
{ACAD_REACTORS
330
47
102
}
330
47
100
AcDbScale
 70
     0
300
1" = 1'-0"
140
1.0
141
12.0
290
     0
  0
SCALE
  5
65
102
{ACAD_REACTORS
330
47
102
}
330
47
100
AcDbScale
 70
     0
300
1-1/2" = 1'-0"
140
1.5
141
12.0
290
     0
  0
SCALE
  5
66
102
{ACAD_REACTORS
330
47
102
}
330
47
100
AcDbScale
 70
     0
300
3" = 1'-0"
140
3.0
141
12.0
290
     0
  0
SCALE
  5
67
102
{ACAD_REACTORS
330
47
102
}
330
47
100
AcDbScale
 70
     0
300
6" = 1'-0"
140
6.0
141
12.0
290
     0
  0
SCALE
  5
68
102
{ACAD_REACTORS
330
47
102
}
330
47
100
AcDbScale
 70
     0
300
1'-0" = 1'-0"
140
12.0
141
12.0
290
     0
  0
ENDSEC
  0
EOF
