  0
SECTION
  2
HEADER
  9
$ACADVER
  1
AC1015
  9
$ACADMAINTVER
 70
     6
  9
$DWGCODEPAGE
  3
ANSI_1252
  9
$INSBASE
 10
0.0
 20
0.0
 30
0.0
  9
$EXTMIN
 10
0.0
 20
0.0
 30
0.0
  9
$EXTMAX
 10
297.0
 20
210.0
 30
0.0
  9
$LIMMIN
 10
0.0
 20
0.0
  9
$LIMMAX
 10
297.0
 20
210.0
  9
$ORTHOMODE
 70
     0
  9
$REGENMODE
 70
     1
  9
$FILLMODE
 70
     1
  9
$QTEXTMODE
 70
     0
  9
$MIRRTEXT
 70
     1
  9
$LTSCALE
 40
1.0
  9
$ATTMODE
 70
     1
  9
$TEXTSIZE
 40
2.0
  9
$TRACEWID
 40
1.0
  9
$TEXTSTYLE
  7
Standard
  9
$CLAYER
  8
0
  9
$CELTYPE
  6
ByLayer
  9
$CECOLOR
 62
   256
  9
$CELTSCALE
 40
1.0
  9
$DISPSILH
 70
     0
  9
$DIMSCALE
 40
1.0
  9
$DIMASZ
 40
3.0
  9
$DIMEXO
 40
0.0
  9
$DIMDLI
 40
3.75
  9
$DIMRND
 40
0.0
  9
$DIMDLE
 40
0.0
  9
$DIMEXE
 40
1.0
  9
$DIMTP
 40
0.0
  9
$DIMTM
 40
0.0
  9
$DIMTXT
 40
2.0
  9
$DIMCEN
 40
2.5
  9
$DIMTSZ
 40
0.0
  9
$DIMTOL
 70
     0
  9
$DIMLIM
 70
     0
  9
$DIMTIH
 70
     1
  9
$DIMTOH
 70
     1
  9
$DIMSE1
 70
     0
  9
$DIMSE2
 70
     0
  9
$DIMTAD
 70
     1
  9
$DIMZIN
 70
     0
  9
$DIMBLK
  1

  9
$DIMASO
 70
     1
  9
$DIMSHO
 70
     1
  9
$DIMPOST
  1

  9
$DIMAPOST
  1

  9
$DIMALT
 70
     0
  9
$DIMALTD
 70
     3
  9
$DIMALTF
 40
0.0393700787
  9
$DIMLFAC
 40
1.0
  9
$DIMTOFL
 70
     1
  9
$DIMTVP
 40
0.0
  9
$DIMTIX
 70
     0
  9
$DIMSOXD
 70
     0
  9
$DIMSAH
 70
     0
  9
$DIMBLK1
  1

  9
$DIMBLK2
  1

  9
$DIMSTYLE
  2
ISO-25
  9
$DIMCLRD
 70
     0
  9
$DIMCLRE
 70
     0
  9
$DIMCLRT
 70
     0
  9
$DIMTFAC
 40
1.0
  9
$DIMGAP
 40
1.524
  9
$DIMJUST
 70
     0
  9
$DIMSD1
 70
     0
  9
$DIMSD2
 70
     0
  9
$DIMTOLJ
 70
     0
  9
$DIMTZIN
 70
     0
  9
$DIMALTZ
 70
     0
  9
$DIMALTTZ
 70
     0
  9
$DIMUPT
 70
     0
  9
$DIMDEC
 70
     2
  9
$DIMTDEC
 70
     3
  9
$DIMALTU
 70
     2
  9
$DIMALTTD
 70
     3
  9
$DIMTXSTY
  7
Standard
  9
$DIMAUNIT
 70
     0
  9
$DIMADEC
 70
     2
  9
$DIMALTRND
 40
0.0
  9
$DIMAZIN
 70
     0
  9
$DIMDSEP
 70
    44
  9
$DIMATFIT
 70
     3
  9
$DIMFRAC
 70
     0
  9
$DIMLDRBLK
  1

  9
$DIMLUNIT
 70
     2
  9
$DIMLWD
 70
    -2
  9
$DIMLWE
 70
    -2
  9
$DIMTMOVE
 70
     0
  9
$LUNITS
 70
     2
  9
$LUPREC
 70
     2
  9
$SKETCHINC
 40
1.0
  9
$FILLETRAD
 40
10.0
  9
$AUNITS
 70
     0
  9
$AUPREC
 70
     2
  9
$MENU
  1
.
  9
$ELEVATION
 40
0.0
  9
$PELEVATION
 40
0.0
  9
$THICKNESS
 40
0.0
  9
$LIMCHECK
 70
     0
  9
$CHAMFERA
 40
0.0
  9
$CHAMFERB
 40
0.0
  9
$CHAMFERC
 40
0.0
  9
$CHAMFERD
 40
0.0
  9
$SKPOLY
 70
     0
  9
$TDCREATE
 40
2457662.617948368
  9
$TDUCREATE
 40
2457662.534615035
  9
$TDUPDATE
 40
2457662.617949422
  9
$TDUUPDATE
 40
2457662.534616088
  9
$TDINDWG
 40
0.0000000116
  9
$TDUSRTIMER
 40
0.0000000116
  9
$USRTIMER
 70
     1
  9
$ANGBASE
 50
0.0
  9
$ANGDIR
 70
     0
  9
$PDMODE
 70
     0
  9
$PDSIZE
 40
-1.0
  9
$PLINEWID
 40
0.0
  9
$SPLFRAME
 70
     0
  9
$SPLINETYPE
 70
     6
  9
$SPLINESEGS
 70
     8
  9
$HANDSEED
  5
201
  9
$SURFTAB1
 70
     6
  9
$SURFTAB2
 70
     6
  9
$SURFTYPE
 70
     6
  9
$SURFU
 70
     6
  9
$SURFV
 70
     6
  9
$UCSBASE
  2

  9
$UCSNAME
  2

  9
$UCSORG
 10
0.0
 20
0.0
 30
0.0
  9
$UCSXDIR
 10
1.0
 20
0.0
 30
0.0
  9
$UCSYDIR
 10
0.0
 20
1.0
 30
0.0
  9
$UCSORTHOREF
  2

  9
$UCSORTHOVIEW
 70
     0
  9
$UCSORGTOP
 10
0.0
 20
0.0
 30
0.0
  9
$UCSORGBOTTOM
 10
0.0
 20
0.0
 30
0.0
  9
$UCSORGLEFT
 10
0.0
 20
0.0
 30
0.0
  9
$UCSORGRIGHT
 10
0.0
 20
0.0
 30
0.0
  9
$UCSORGFRONT
 10
0.0
 20
0.0
 30
0.0
  9
$UCSORGBACK
 10
0.0
 20
0.0
 30
0.0
  9
$PUCSBASE
  2

  9
$PUCSNAME
  2

  9
$PUCSORG
 10
0.0
 20
0.0
 30
0.0
  9
$PUCSXDIR
 10
1.0
 20
0.0
 30
0.0
  9
$PUCSYDIR
 10
0.0
 20
1.0
 30
0.0
  9
$PUCSORTHOREF
  2

  9
$PUCSORTHOVIEW
 70
     0
  9
$PUCSORGTOP
 10
0.0
 20
0.0
 30
0.0
  9
$PUCSORGBOTTOM
 10
0.0
 20
0.0
 30
0.0
  9
$PUCSORGLEFT
 10
0.0
 20
0.0
 30
0.0
  9
$PUCSORGRIGHT
 10
0.0
 20
0.0
 30
0.0
  9
$PUCSORGFRONT
 10
0.0
 20
0.0
 30
0.0
  9
$PUCSORGBACK
 10
0.0
 20
0.0
 30
0.0
  9
$USERI1
 70
     0
  9
$USERI2
 70
     0
  9
$USERI3
 70
     0
  9
$USERI4
 70
     0
  9
$USERI5
 70
     0
  9
$USERR1
 40
0.0
  9
$USERR2
 40
0.0
  9
$USERR3
 40
0.0
  9
$USERR4
 40
0.0
  9
$USERR5
 40
0.0
  9
$WORLDVIEW
 70
     1
  9
$SHADEDGE
 70
     3
  9
$SHADEDIF
 70
    70
  9
$TILEMODE
 70
     1
  9
$MAXACTVP
 70
    64
  9
$PINSBASE
 10
0.0
 20
0.0
 30
0.0
  9
$PLIMCHECK
 70
     0
  9
$PEXTMIN
 10
1.0000000000E+20
 20
1.0000000000E+20
 30
1.0000000000E+20
  9
$PEXTMAX
 10
-1.0000000000E+20
 20
-1.0000000000E+20
 30
-1.0000000000E+20
  9
$PLIMMIN
 10
0.0
 20
0.0
  9
$PLIMMAX
 10
420.0
 20
297.0
  9
$UNITMODE
 70
     0
  9
$VISRETAIN
 70
     1
  9
$PLINEGEN
 70
     0
  9
$PSLTSCALE
 70
     1
  9
$TREEDEPTH
 70
  3020
  9
$CMLSTYLE
  2
Standard
  9
$CMLJUST
 70
     0
  9
$CMLSCALE
 40
20.0
  9
$PROXYGRAPHICS
 70
     1
  9
$MEASUREMENT
 70
     1
  9
$CELWEIGHT
370
    -1
  9
$ENDCAPS
280
     0
  9
$JOINSTYLE
280
     0
  9
$LWDISPLAY
290
     1
  9
$INSUNITS
 70
     4
  9
$HYPERLINKBASE
  1

  9
$STYLESHEET
  1

  9
$XEDIT
290
     1
  9
$CEPSNTYPE
380
     0
  9
$PSTYLEMODE
290
     1
  9
$FINGERPRINTGUID
  2
{CDA53660-48BB-4A3E-A945-B0032D9CDB39}
  9
$VERSIONGUID
  2
{FAEB1C32-E019-11D5-929B-00C0DF256EC4}
  9
$EXTNAMES
290
     1
  9
$PSVPSCALE
 40
0.0
  9
$OLESTARTUP
290
     0
  0
ENDSEC
  0
SECTION
  2
CLASSES
  0
CLASS
  1
ACDBDICTIONARYWDFLT
  2
AcDbDictionaryWithDefault
  3
ObjectDBX Classes
 90
        0
280
     0
281
     0
  0
CLASS
  1
VISUALSTYLE
  2
AcDbVisualStyle
  3
ObjectDBX Classes
 90
     4095
280
     0
281
     0
  0
CLASS
  1
MATERIAL
  2
AcDbMaterial
  3
ObjectDBX Classes
 90
     1153
280
     0
281
     0
  0
CLASS
  1
SCALE
  2
AcDbScale
  3
ObjectDBX Classes
 90
     1153
280
     0
281
     0
  0
CLASS
  1
TABLESTYLE
  2
AcDbTableStyle
  3
ObjectDBX Classes
 90
     4095
280
     0
281
     0
  0
CLASS
  1
MLEADERSTYLE
  2
AcDbMLeaderStyle
  3
ACDB_MLEADERSTYLE_CLASS
 90
     4095
280
     0
281
     0
  0
CLASS
  1
SUN
  2
AcDbSun
  3
SCENEOE
 90
     1153
280
     0
281
     0
  0
CLASS
  1
ACDBPLACEHOLDER
  2
AcDbPlaceHolder
  3
ObjectDBX Classes
 90
        0
280
     0
281
     0
  0
CLASS
  1
LAYOUT
  2
AcDbLayout
  3
ObjectDBX Classes
 90
        0
280
     0
281
     0
  0
ENDSEC
  0
SECTION
  2
TABLES
  0
TABLE
  2
VPORT
  5
8
330
0
100
AcDbSymbolTable
 70
     1
  0
VPORT
  5
29
330
8
100
AcDbSymbolTableRecord
100
AcDbViewportTableRecord
  2
*Active
 70
     0
 10
0.0
 20
0.0
 11
1.0
 21
1.0
 12
148.5
 22
105.0
 13
0.0
 23
0.0
 14
10.0
 24
10.0
 15
10.0
 25
10.0
 16
0.0
 26
0.0
 36
1.0
 17
0.0
 27
0.0
 37
0.0
 40
210.0
 41
1.4142857143
 42
50.0
 43
0.0
 44
0.0
 50
0.0
 51
0.0
 71
     0
 72
  2000
 73
     1
 74
     3
 75
     0
 76
     0
 77
     0
 78
     0
281
     0
 65
     1
110
0.0
120
0.0
130
0.0
111
1.0
121
0.0
131
0.0
112
0.0
122
1.0
132
0.0
 79
     0
146
0.0
  0
ENDTAB
  0
TABLE
  2
LTYPE
  5
5
330
0
100
AcDbSymbolTable
 70
     6
  0
LTYPE
  5
14
330
5
100
AcDbSymbolTableRecord
100
AcDbLinetypeTableRecord
  2
ByBlock
 70
     0
  3

 72
    65
 73
     0
 40
0.0
  0
LTYPE
  5
15
330
5
100
AcDbSymbolTableRecord
100
AcDbLinetypeTableRecord
  2
ByLayer
 70
     0
  3

 72
    65
 73
     0
 40
0.0
  0
LTYPE
  5
16
330
5
100
AcDbSymbolTableRecord
100
AcDbLinetypeTableRecord
  2
Continuous
 70
     0
  3
Solid line
 72
    65
 73
     0
 40
0.0
  0
LTYPE
  5
6E
330
5
100
AcDbSymbolTableRecord
100
AcDbLinetypeTableRecord
  2
HIDDEN
 70
     0
  3
Hidden __ __ __ __ __ __ __ __ __ __ __ __ __ __
 72
    65
 73
     2
 40
1.905
 49
1.27
 74
     0
 49
-0.635
 74
     0
  0
LTYPE
  5
6F
330
5
100
AcDbSymbolTableRecord
100
AcDbLinetypeTableRecord
  2
PHANTOM
 70
     0
  3
Phantom ______  __  __  ______  __  __  ______
 72
    65
 73
     6
 40
12.7
 49
6.35
 74
     0
 49
-1.27
 74
     0
 49
1.27
 74
     0
 49
-1.27
 74
     0
 49
1.27
 74
     0
 49
-1.27
 74
     0
  0
LTYPE
  5
70
330
5
100
AcDbSymbolTableRecord
100
AcDbLinetypeTableRecord
  2
CENTER
 70
     0
  3
Center ____ _ ____ _ ____ _ ____ _ ____ _ ____
 72
    65
 73
     4
 40
10.16
 49
6.35
 74
     0
 49
-1.27
 74
     0
 49
1.27
 74
     0
 49
-1.27
 74
     0
  0
LTYPE
  5
71
330
5
100
AcDbSymbolTableRecord
100
AcDbLinetypeTableRecord
  2
CENTERX2
 70
     0
  3
Center (2x) ________  __  ________  __  _____
 72
    65
 73
     4
 40
20.32
 49
12.7
 74
     0
 49
-2.54
 74
     0
 49
2.54
 74
     0
 49
-2.54
 74
     0
  0
LTYPE
  5
72
330
5
100
AcDbSymbolTableRecord
100
AcDbLinetypeTableRecord
  2
DOT2
 70
     0
  3
Dot (.5x) ........................................
 72
    65
 73
     2
 40
0.635
 49
0.0
 74
     0
 49
-0.635
 74
     0
  0
ENDTAB
  0
TABLE
  2
LAYER
  5
2
330
0
100
AcDbSymbolTable
 70
     5
  0
LAYER
  5
10
330
2
100
AcDbSymbolTableRecord
100
AcDbLayerTableRecord
  2
0
 70
     0
 62
     7
  6
Continuous
370
    -3
390
F
  0
LAYER
  5
73
330
2
100
AcDbSymbolTableRecord
100
AcDbLayerTableRecord
  2
FORMAT
 70
     0
 62
     7
  6
Continuous
370
    -3
390
F
  0
LAYER
  5
74
330
2
100
AcDbSymbolTableRecord
100
AcDbLayerTableRecord
  2
VERMASSUNG
 70
     0
 62
     7
  6
Continuous
370
    -3
390
F
  0
LAYER
  5
75
330
2
100
AcDbSymbolTableRecord
100
AcDbLayerTableRecord
  2
KOPF_DÜNN
 70
     0
 62
     7
  6
Continuous
370
    -3
390
F
  0
LAYER
  5
76
330
2
100
AcDbSymbolTableRecord
100
AcDbLayerTableRecord
  2
KOPF_DICK
 70
     0
 62
     7
  6
Continuous
370
    15
390
F
  0
ENDTAB
  0
TABLE
  2
STYLE
  5
3
330
0
100
AcDbSymbolTable
 70
     2
  0
STYLE
  5
11
330
3
100
AcDbSymbolTableRecord
100
AcDbTextStyleTableRecord
  2
Standard
 70
     0
 40
0.0
 41
1.0
 50
0.0
 71
     0
 42
2.0
  3
txt
  4

  0
STYLE
  5
77
330
3
100
AcDbSymbolTableRecord
100
AcDbTextStyleTableRecord
  2
SLDTEXTSTYLE0
 70
     0
 40
0.0
 41
0.7
 50
0.0
 71
     0
 42
2.0
  3
TXT
  4

  0
ENDTAB
  0
TABLE
  2
VIEW
  5
6
330
0
100
AcDbSymbolTable
 70
     0
  0
ENDTAB
  0
TABLE
  2
UCS
  5
7
330
0
100
AcDbSymbolTable
 70
     0
  0
ENDTAB
  0
TABLE
  2
APPID
  5
9
330
0
100
AcDbSymbolTable
 70
     1
  0
APPID
  5
12
330
9
100
AcDbSymbolTableRecord
100
AcDbRegAppTableRecord
  2
ACAD
 70
     0
  0
ENDTAB
  0
TABLE
  2
DIMSTYLE
  5
A
330
0
100
AcDbSymbolTable
 70
     2
100
AcDbDimStyleTable
  0
DIMSTYLE
105
27
330
A
100
AcDbSymbolTableRecord
100
AcDbDimStyleTableRecord
  2
ISO-25
 70
     0
 41
2.5
 42
0.625
 43
3.75
 44
1.25
 73
     0
 74
     0
 77
     1
 78
     8
140
2.5
141
2.5
143
0.0393700787
147
0.625
171
     3
172
     1
178
     0
271
     2
272
     2
274
     3
278
    44
283
     0
284
     8
340
11
  0
DIMSTYLE
105
10D
102
{ACAD_REACTORS
330
10C
330
119
330
124
330
130
330
13A
330
146
102
}
330
A
100
AcDbSymbolTableRecord
100
AcDbDimStyleTableRecord
  2
SLDDIMSTYLE0
 70
     0
 41
3.0
 44
0.0
 45
0.000000001
 73
     0
 74
     0
 77
     1
 78
    12
 79
     3
140
2.0
147
0.5
173
     1
178
     0
271
     2
272
     3
276
     2
284
    12
340
77
  0
ENDTAB
  0
TABLE
  2
BLOCK_RECORD
  5
1
330
0
100
AcDbSymbolTable
 70
     7
  0
BLOCK_RECORD
  5
1F
330
1
100
AcDbSymbolTableRecord
100
AcDbBlockTableRecord
  2
*Model_Space
340
22
  0
BLOCK_RECORD
  5
1B
330
1
100
AcDbSymbolTableRecord
100
AcDbBlockTableRecord
  2
*Paper_Space
340
1E
  0
BLOCK_RECORD
  5
23
330
1
100
AcDbSymbolTableRecord
100
AcDbBlockTableRecord
  2
*Paper_Space0
340
26
  0
BLOCK_RECORD
  5
10E
330
1
100
AcDbSymbolTableRecord
100
AcDbBlockTableRecord
  2
_D
340
0
  0
BLOCK_RECORD
  5
11A
330
1
100
AcDbSymbolTableRecord
100
AcDbBlockTableRecord
  2
_D_1
340
0
  0
BLOCK_RECORD
  5
125
330
1
100
AcDbSymbolTableRecord
100
AcDbBlockTableRecord
  2
_D_2
340
0
  0
BLOCK_RECORD
  5
131
330
1
100
AcDbSymbolTableRecord
100
AcDbBlockTableRecord
  2
_D_3
340
0
  0
BLOCK_RECORD
  5
13B
330
1
100
AcDbSymbolTableRecord
100
AcDbBlockTableRecord
  2
_D_4
340
0
  0
BLOCK_RECORD
  5
147
330
1
100
AcDbSymbolTableRecord
100
AcDbBlockTableRecord
  2
_D_5
340
0
  0
ENDTAB
  0
ENDSEC
  0
SECTION
  2
BLOCKS
  0
BLOCK
  5
20
330
1F
100
AcDbEntity
  8
0
100
AcDbBlockBegin
  2
*Model_Space
 70
     0
 10
0.0
 20
0.0
 30
0.0
  3
*Model_Space
  1

  0
ENDBLK
  5
21
330
1F
100
AcDbEntity
  8
0
100
AcDbBlockEnd
  0
BLOCK
  5
1C
330
1B
100
AcDbEntity
 67
     1
  8
0
100
AcDbBlockBegin
  2
*Paper_Space
 70
     0
 10
0.0
 20
0.0
 30
0.0
  3
*Paper_Space
  1

  0
ENDBLK
  5
1D
330
1B
100
AcDbEntity
 67
     1
  8
0
100
AcDbBlockEnd
  0
BLOCK
  5
24
330
23
100
AcDbEntity
  8
0
100
AcDbBlockBegin
  2
*Paper_Space0
 70
     0
 10
0.0
 20
0.0
 30
0.0
  3
*Paper_Space0
  1

  0
ENDBLK
  5
25
330
23
100
AcDbEntity
  8
0
100
AcDbBlockEnd
  0
BLOCK
  5
10F
330
10E
100
AcDbEntity
  8
0
100
AcDbBlockBegin
  2
_D
 70
     0
 10
0.0
 20
0.0
 30
0.0
  3
_D
  1

  0
SOLID
  5
111
330
10E
100
AcDbEntity
  8
VERMASSUNG
100
AcDbTrace
 10
55.5450795917
 20
61.3703238739
 30
0.0
 11
55.9950795917
 21
64.3703238739
 31
0.0
 12
55.0950795917
 22
64.3703238739
 32
0.0
 13
55.0950795917
 23
64.3703238739
 33
0.0
  0
SOLID
  5
112
330
10E
100
AcDbEntity
  8
VERMASSUNG
100
AcDbTrace
 10
55.5450795917
 20
159.7953238739
 30
0.0
 11
55.0950795917
 21
156.7953238739
 31
0.0
 12
55.9950795917
 22
156.7953238739
 32
0.0
 13
55.9950795917
 23
156.7953238739
 33
0.0
  0
LINE
  5
113
330
10E
100
AcDbEntity
  8
VERMASSUNG
100
AcDbLine
 10
182.2323756532
 20
61.3703238739
 30
0.0
 11
54.5450795917
 21
61.3703238739
 31
0.0
  0
LINE
  5
114
330
10E
100
AcDbEntity
  8
VERMASSUNG
100
AcDbLine
 10
182.2323756532
 20
159.7953238739
 30
0.0
 11
54.5450795917
 21
159.7953238739
 31
0.0
  0
LINE
  5
115
330
10E
100
AcDbEntity
  8
VERMASSUNG
100
AcDbLine
 10
55.5450795917
 20
61.3703238739
 30
0.0
 11
55.5450795917
 21
159.7953238739
 31
0.0
  0
MTEXT
  5
116
330
10E
100
AcDbEntity
  8
VERMASSUNG
100
AcDbMText
 10
52.7669443355
 20
100.5787353054
 30
0.0
 40
2.0
 41
0.0
 71
     1
 72
     1
  1
CAT 50
  7
SLDTEXTSTYLE0
 11
3.391901413832837E-15
 21
1.0
 31
0.0
 73
     1
 44
1.0
  0
MTEXT
  5
117
330
10E
100
AcDbEntity
  8
VERMASSUNG
100
AcDbMText
 10
52.9669442868
 20
110.5787350819
 30
0.0
 40
2.0
 41
0.0
 71
     1
 72
     1
  1
%%c
  7
SLDTEXTSTYLE0
 11
3.391901413832837E-15
 21
1.0
 31
0.0
 73
     1
 44
1.0
  0
MTEXT
  5
118
330
10E
100
AcDbEntity
  8
VERMASSUNG
100
AcDbMText
 10
52.9669439958
 20
114.1873841211
 30
0.0
 40
2.0
 41
0.0
 71
     1
 72
     1
  1
98.43
  7
SLDTEXTSTYLE0
 11
3.391901413832837E-15
 21
1.0
 31
0.0
 73
     1
 44
1.0
  0
ENDBLK
  5
110
330
10E
100
AcDbEntity
  8
0
100
AcDbBlockEnd
  0
BLOCK
  5
11B
330
11A
100
AcDbEntity
  8
0
100
AcDbBlockBegin
  2
_D_1
 70
     0
 10
0.0
 20
0.0
 30
0.0
  3
_D_1
  1

  0
SOLID
  5
11D
330
11A
100
AcDbEntity
  8
VERMASSUNG
100
AcDbTrace
 10
237.8093968911
 20
117.5828238739
 30
0.0
 11
237.3593968911
 21
114.5828238739
 31
0.0
 12
238.2593968911
 22
114.5828238739
 32
0.0
 13
238.2593968911
 23
114.5828238739
 33
0.0
  0
SOLID
  5
11E
330
11A
100
AcDbEntity
  8
VERMASSUNG
100
AcDbTrace
 10
237.8093968911
 20
103.5828238739
 30
0.0
 11
238.2593968911
 21
106.5828238739
 31
0.0
 12
237.3593968911
 22
106.5828238739
 32
0.0
 13
237.3593968911
 23
106.5828238739
 33
0.0
  0
LINE
  5
11F
330
11A
100
AcDbEntity
  8
VERMASSUNG
100
AcDbLine
 10
222.8823756532
 20
117.5828238739
 30
0.0
 11
238.8093968911
 21
117.5828238739
 31
0.0
  0
LINE
  5
120
330
11A
100
AcDbEntity
  8
VERMASSUNG
100
AcDbLine
 10
222.8823756532
 20
103.5828238739
 30
0.0
 11
238.8093968911
 21
103.5828238739
 31
0.0
  0
LINE
  5
121
330
11A
100
AcDbEntity
  8
VERMASSUNG
100
AcDbLine
 10
237.8093968911
 20
117.5828238739
 30
0.0
 11
237.8093968911
 21
103.5828238739
 31
0.0
  0
MTEXT
  5
122
330
11A
100
AcDbEntity
  8
VERMASSUNG
100
AcDbMText
 10
235.2312613534
 20
107.4790195485
 30
0.0
 40
2.0
 41
0.0
 71
     1
 72
     1
  1
%%c
  7
SLDTEXTSTYLE0
 11
-7.044195017643634E-15
 21
1.0
 31
0.0
 73
     1
 44
1.0
  0
MTEXT
  5
123
330
11A
100
AcDbEntity
  8
VERMASSUNG
100
AcDbMText
 10
235.2312612952
 20
111.0879917421
 30
0.0
 40
2.0
 41
0.0
 71
     1
 72
     1
  1
14
  7
SLDTEXTSTYLE0
 11
-7.044195017643634E-15
 21
1.0
 31
0.0
 73
     1
 44
1.0
  0
ENDBLK
  5
11C
330
11A
100
AcDbEntity
  8
0
100
AcDbBlockEnd
  0
BLOCK
  5
126
330
125
100
AcDbEntity
  8
0
100
AcDbBlockBegin
  2
_D_2
 70
     0
 10
0.0
 20
0.0
 30
0.0
  3
_D_2
  1

  0
ARC
  5
128
330
125
100
AcDbEntity
  8
VERMASSUNG
100
AcDbCircle
 10
145.2938097417
 20
173.6699079478
 30
0.0
 40
4.247059938537221
100
AcDbArc
 50
153.4349488229
 51
206.5650511771
  0
ARC
  5
129
330
125
100
AcDbEntity
  8
VERMASSUNG
100
AcDbCircle
 10
146.6709415646
 20
173.6699079478
 30
0.0
 40
4.247059938537221
100
AcDbArc
 50
333.4349488229
 51
26.5650511771
  0
SOLID
  5
12A
330
125
100
AcDbEntity
  8
VERMASSUNG
100
AcDbTrace
 10
62.1823756532
 20
171.7705650024
 30
0.0
 11
65.1823756532
 21
171.3205650024
 31
0.0
 12
65.1823756532
 22
172.2205650024
 32
0.0
 13
65.1823756532
 23
172.2205650024
 33
0.0
  0
SOLID
  5
12B
330
125
100
AcDbEntity
  8
VERMASSUNG
100
AcDbTrace
 10
229.7823756532
 20
171.7705650024
 30
0.0
 11
226.7823756532
 21
172.2205650024
 31
0.0
 12
226.7823756532
 22
171.3205650024
 32
0.0
 13
226.7823756532
 23
171.3205650024
 33
0.0
  0
LINE
  5
12C
330
125
100
AcDbEntity
  8
VERMASSUNG
100
AcDbLine
 10
62.1823756532
 20
128.9616684013
 30
0.0
 11
62.1823756532
 21
172.7705650024
 31
0.0
  0
LINE
  5
12D
330
125
100
AcDbEntity
  8
VERMASSUNG
100
AcDbLine
 10
229.7823756532
 20
122.8828238739
 30
0.0
 11
229.7823756532
 21
172.7705650024
 31
0.0
  0
LINE
  5
12E
330
125
100
AcDbEntity
  8
VERMASSUNG
100
AcDbLine
 10
62.1823756532
 20
171.7705650024
 30
0.0
 11
229.7823756532
 21
171.7705650024
 31
0.0
  0
MTEXT
  5
12F
330
125
100
AcDbEntity
  8
VERMASSUNG
100
AcDbMText
 10
143.0826238509
 20
174.3487005984
 30
0.0
 40
2.0
 41
0.0
 71
     1
 72
     1
  1
167.6
  7
SLDTEXTSTYLE0
 73
     1
 44
1.0
  0
ENDBLK
  5
127
330
125
100
AcDbEntity
  8
0
100
AcDbBlockEnd
  0
BLOCK
  5
132
330
131
100
AcDbEntity
  8
0
100
AcDbBlockBegin
  2
_D_3
 70
     0
 10
0.0
 20
0.0
 30
0.0
  3
_D_3
  1

  0
SOLID
  5
134
330
131
100
AcDbEntity
  8
VERMASSUNG
100
AcDbTrace
 10
163.7823756532
 20
165.7705650024
 30
0.0
 11
166.7823756532
 21
165.3205650024
 31
0.0
 12
166.7823756532
 22
166.2205650024
 32
0.0
 13
166.7823756532
 23
166.2205650024
 33
0.0
  0
SOLID
  5
135
330
131
100
AcDbEntity
  8
VERMASSUNG
100
AcDbTrace
 10
229.7823756532
 20
165.7705650024
 30
0.0
 11
226.7823756532
 21
166.2205650024
 31
0.0
 12
226.7823756532
 22
165.3205650024
 32
0.0
 13
226.7823756532
 23
165.3205650024
 33
0.0
  0
LINE
  5
136
330
131
100
AcDbEntity
  8
VERMASSUNG
100
AcDbLine
 10
163.7823756532
 20
145.5078238739
 30
0.0
 11
163.7823756532
 21
166.7705650024
 31
0.0
  0
LINE
  5
137
330
131
100
AcDbEntity
  8
VERMASSUNG
100
AcDbLine
 10
229.7823756532
 20
122.8828238739
 30
0.0
 11
229.7823756532
 21
166.7705650024
 31
0.0
  0
LINE
  5
138
330
131
100
AcDbEntity
  8
VERMASSUNG
100
AcDbLine
 10
163.7823756532
 20
165.7705650024
 30
0.0
 11
229.7823756532
 21
165.7705650024
 31
0.0
  0
MTEXT
  5
139
330
131
100
AcDbEntity
  8
VERMASSUNG
100
AcDbMText
 10
195.3826856429
 20
168.3487005984
 30
0.0
 40
2.0
 41
0.0
 71
     1
 72
     1
  1
66
  7
SLDTEXTSTYLE0
 73
     1
 44
1.0
  0
ENDBLK
  5
133
330
131
100
AcDbEntity
  8
0
100
AcDbBlockEnd
  0
BLOCK
  5
13C
330
13B
100
AcDbEntity
  8
0
100
AcDbBlockBegin
  2
_D_4
 70
     0
 10
0.0
 20
0.0
 30
0.0
  3
_D_4
  1

  0
ARC
  5
13E
330
13B
100
AcDbEntity
  8
VERMASSUNG
100
AcDbCircle
 10
215.294615097
 20
161.6699079478
 30
0.0
 40
4.247059938537386
100
AcDbArc
 50
153.4349488229
 51
206.5650511771
  0
ARC
  5
13F
330
13B
100
AcDbEntity
  8
VERMASSUNG
100
AcDbCircle
 10
213.2701362093
 20
161.6699079478
 30
0.0
 40
4.247059938537361
100
AcDbArc
 50
333.4349488229
 51
26.5650511771
  0
SOLID
  5
140
330
13B
100
AcDbEntity
  8
VERMASSUNG
100
AcDbTrace
 10
198.7823756532
 20
159.7705650024
 30
0.0
 11
201.7823756532
 21
159.3205650024
 31
0.0
 12
201.7823756532
 22
160.2205650024
 32
0.0
 13
201.7823756532
 23
160.2205650024
 33
0.0
  0
SOLID
  5
141
330
13B
100
AcDbEntity
  8
VERMASSUNG
100
AcDbTrace
 10
229.7823756532
 20
159.7705650024
 30
0.0
 11
226.7823756532
 21
160.2205650024
 31
0.0
 12
226.7823756532
 22
159.3205650024
 32
0.0
 13
226.7823756532
 23
159.3205650024
 33
0.0
  0
LINE
  5
142
330
13B
100
AcDbEntity
  8
VERMASSUNG
100
AcDbLine
 10
198.7823756532
 20
144.5078238739
 30
0.0
 11
198.7823756532
 21
160.7705650024
 31
0.0
  0
LINE
  5
143
330
13B
100
AcDbEntity
  8
VERMASSUNG
100
AcDbLine
 10
229.7823756532
 20
122.8828238739
 30
0.0
 11
229.7823756532
 21
160.7705650024
 31
0.0
  0
LINE
  5
144
330
13B
100
AcDbEntity
  8
VERMASSUNG
100
AcDbLine
 10
198.7823756532
 20
159.7705650024
 30
0.0
 11
229.7823756532
 21
159.7705650024
 31
0.0
  0
MTEXT
  5
145
330
13B
100
AcDbEntity
  8
VERMASSUNG
100
AcDbMText
 10
213.0834292062
 20
162.3487005984
 30
0.0
 40
2.0
 41
0.0
 71
     1
 72
     1
  1
31
  7
SLDTEXTSTYLE0
 73
     1
 44
1.0
  0
ENDBLK
  5
13D
330
13B
100
AcDbEntity
  8
0
100
AcDbBlockEnd
  0
BLOCK
  5
148
330
147
100
AcDbEntity
  8
0
100
AcDbBlockBegin
  2
_D_5
 70
     0
 10
0.0
 20
0.0
 30
0.0
  3
_D_5
  1

  0
SOLID
  5
14A
330
147
100
AcDbEntity
  8
VERMASSUNG
100
AcDbTrace
 10
243.8093968911
 20
123.0828238739
 30
0.0
 11
243.3593968911
 21
120.0828238739
 31
0.0
 12
244.2593968911
 22
120.0828238739
 32
0.0
 13
244.2593968911
 23
120.0828238739
 33
0.0
  0
SOLID
  5
14B
330
147
100
AcDbEntity
  8
VERMASSUNG
100
AcDbTrace
 10
243.8093968911
 20
98.0828238739
 30
0.0
 11
244.2593968911
 21
101.0828238739
 31
0.0
 12
243.3593968911
 22
101.0828238739
 32
0.0
 13
243.3593968911
 23
101.0828238739
 33
0.0
  0
LINE
  5
14C
330
147
100
AcDbEntity
  8
VERMASSUNG
100
AcDbLine
 10
229.5823756532
 20
123.0828238739
 30
0.0
 11
244.8093968911
 21
123.0828238739
 31
0.0
  0
LINE
  5
14D
330
147
100
AcDbEntity
  8
VERMASSUNG
100
AcDbLine
 10
229.5823756532
 20
98.0828238739
 30
0.0
 11
244.8093968911
 21
98.0828238739
 31
0.0
  0
LINE
  5
14E
330
147
100
AcDbEntity
  8
VERMASSUNG
100
AcDbLine
 10
243.8093968911
 20
123.0828238739
 30
0.0
 11
243.8093968911
 21
98.0828238739
 31
0.0
  0
MTEXT
  5
14F
330
147
100
AcDbEntity
  8
VERMASSUNG
100
AcDbMText
 10
241.0312616349
 20
104.477824652
 30
0.0
 40
2.0
 41
0.0
 71
     1
 72
     1
  1
ST2
  7
SLDTEXTSTYLE0
 11
-7.044195017643634E-15
 21
1.0
 31
0.0
 73
     1
 44
1.0
  0
MTEXT
  5
150
330
147
100
AcDbEntity
  8
VERMASSUNG
100
AcDbMText
 10
241.2312615862
 20
110.2778245783
 30
0.0
 40
2.0
 41
0.0
 71
     1
 72
     1
  1
%%c
  7
SLDTEXTSTYLE0
 11
-7.044195017643634E-15
 21
1.0
 31
0.0
 73
     1
 44
1.0
  0
MTEXT
  5
151
330
147
100
AcDbEntity
  8
VERMASSUNG
100
AcDbMText
 10
241.0312616349
 20
113.8878241269
 30
0.0
 40
2.0
 41
0.0
 71
     1
 72
     1
  1
25
  7
SLDTEXTSTYLE0
 11
-7.044195017643634E-15
 21
1.0
 31
0.0
 73
     1
 44
1.0
  0
ENDBLK
  5
149
330
147
100
AcDbEntity
  8
0
100
AcDbBlockEnd
  0
ENDSEC
  0
SECTION
  2
ENTITIES
  0
MTEXT
  5
78
330
1F
100
AcDbEntity
  8
KOPF_DÜNN
100
AcDbMText
 10
13.8892156294
 20
23.8442973028
 30
0.0
 40
3.0
 41
0.0
 71
     1
 72
     1
  1
104.350.025.066
  7
SLDTEXTSTYLE0
 73
     1
 44
1.0
  0
MTEXT
  5
79
330
1F
100
AcDbEntity
  8
VERMASSUNG
100
AcDbMText
 10
13.9329988022
 20
28.8834360957
 30
0.0
 40
3.0
 41
0.0
 71
     1
 72
     1
  1
Aufnahme_Master shank ST2
  7
SLDTEXTSTYLE0
 73
     1
 44
1.0
  0
MTEXT
  5
7A
330
1F
100
AcDbEntity
  8
VERMASSUNG
100
AcDbMText
 10
98.8601118557
 20
13.8365368761
 30
0.0
 40
2.0
 41
0.0
 71
     1
 72
     1
  1
Datum: 07.05.2008
  7
SLDTEXTSTYLE0
 73
     1
 44
1.0
  0
MTEXT
  5
7B
330
1F
100
AcDbEntity
  8
VERMASSUNG
100
AcDbMText
 10
13.933048693
 20
18.0482802738
 30
0.0
 40
2.0
 41
0.0
 71
     1
 72
     1
  1
ANSI B5.50 CAT 50
  7
SLDTEXTSTYLE0
 73
     1
 44
1.0
  0
MTEXT
  5
7C
330
1F
100
AcDbEntity
  8
VERMASSUNG
100
AcDbMText
 10
13.9808475933
 20
13.9090974274
 30
0.0
 40
2.0
 41
0.0
 71
     1
 72
     1
  1
Gewicht: 3232g
  7
SLDTEXTSTYLE0
 73
     1
 44
1.0
  0
ARC
  5
7D
330
1F
100
AcDbEntity
  8
0
  6
Continuous
 62
     7
370
    15
100
AcDbCircle
 10
183.4323756532
 20
75.0578238739
 30
0.0
 40
0.5999999999999943
100
AcDbArc
 50
90.0
 51
134.8886287592
  0
ARC
  5
7E
330
1F
100
AcDbEntity
  8
0
  6
Continuous
 62
     7
370
    15
100
AcDbCircle
 10
183.4323756532
 20
146.1078238739
 30
0.0
 40
0.5999999999999943
100
AcDbArc
 50
180.0
 51
270.0
  0
ARC
  5
7F
330
1F
100
AcDbEntity
  8
0
  6
Continuous
 62
     7
370
    15
100
AcDbCircle
 10
166.3573756532
 20
75.0578238739
 30
0.0
 40
0.5999999999999943
100
AcDbArc
 50
45.0646658154
 51
90.0
  0
ARC
  5
80
330
1F
100
AcDbEntity
  8
0
  6
Continuous
 62
     7
370
    15
100
AcDbCircle
 10
166.3573756532
 20
146.1078238739
 30
0.0
 40
0.5999999999999943
100
AcDbArc
 50
270.0
 51
0.0
  0
LINE
  5
81
330
1F
100
AcDbEntity
  8
0
  6
Continuous
 62
     7
370
    15
100
AcDbLine
 10
163.7823756532
 20
145.5078238739
 30
0.0
 11
63.893761867
 21
130.9407343634
 31
0.0
  0
LINE
  5
82
330
1F
100
AcDbEntity
  8
0
  6
Continuous
 62
     7
370
    15
100
AcDbLine
 10
63.893761867
 20
90.2249133844
 30
0.0
 11
163.7823756532
 21
75.6578238739
 31
0.0
  0
LINE
  5
83
330
1F
100
AcDbEntity
  8
0
  6
Continuous
 62
     7
370
    15
100
AcDbLine
 10
163.7823756532
 20
75.6578238739
 30
0.0
 11
166.3573756532
 21
75.6578238739
 31
0.0
  0
LINE
  5
84
330
1F
100
AcDbEntity
  8
0
  6
Continuous
 62
     7
370
    15
100
AcDbLine
 10
166.3573756532
 20
145.5078238739
 30
0.0
 11
163.7823756532
 21
145.5078238739
 31
0.0
  0
ARC
  5
85
330
1F
100
AcDbEntity
  8
0
  6
Continuous
 62
     7
370
    15
100
AcDbCircle
 10
197.7823756532
 20
76.6578238739
 30
0.0
 40
1.0
100
AcDbArc
 50
270.0
 51
0.0
  0
ARC
  5
86
330
1F
100
AcDbEntity
  8
0
  6
Continuous
 62
     7
370
    15
100
AcDbCircle
 10
197.7823756532
 20
144.5078238739
 30
0.0
 40
1.0
100
AcDbArc
 50
0.0
 51
90.0
  0
LINE
  5
87
330
1F
100
AcDbEntity
  8
0
  6
Continuous
 62
     7
370
    15
100
AcDbLine
 10
183.4323756532
 20
75.6578238739
 30
0.0
 11
197.7823756532
 21
75.6578238739
 31
0.0
  0
LINE
  5
88
330
1F
100
AcDbEntity
  8
0
  6
Continuous
 62
     7
370
    15
100
AcDbLine
 10
197.7823756532
 20
145.5078238739
 30
0.0
 11
183.4323756532
 21
145.5078238739
 31
0.0
  0
ARC
  5
89
330
1F
100
AcDbEntity
  8
0
  6
Continuous
 62
     7
370
    15
100
AcDbCircle
 10
64.1823756532
 20
92.2039793465
 30
0.0
 40
2.000000000000007
100
AcDbArc
 50
180.0
 51
261.7028550302
  0
ARC
  5
8A
330
1F
100
AcDbEntity
  8
0
  6
Continuous
 62
     7
370
    15
100
AcDbCircle
 10
64.1823756532
 20
128.9616684013
 30
0.0
 40
1.999999999999993
100
AcDbArc
 50
98.2971449698
 51
180.0
  0
ARC
  5
8B
330
1F
100
AcDbEntity
  8
0
  6
Continuous
 62
     7
370
    15
100
AcDbCircle
 10
202.7823756532
 20
94.0828238739
 30
0.0
 40
4.000000000000014
100
AcDbArc
 50
90.0
 51
180.0
  0
ARC
  5
8C
330
1F
100
AcDbEntity
  8
0
  6
Continuous
 62
     7
370
    15
100
AcDbCircle
 10
202.7823756532
 20
127.0828238739
 30
0.0
 40
4.000000000000014
100
AcDbArc
 50
180.0
 51
270.0
  0
LINE
  5
8D
330
1F
100
AcDbEntity
  8
0
  6
Continuous
 62
     7
370
    15
100
AcDbLine
 10
229.5823756532
 20
123.0828238739
 30
0.0
 11
202.7823756532
 21
123.0828238739
 31
0.0
  0
LINE
  5
8E
330
1F
100
AcDbEntity
  8
0
  6
Continuous
 62
     7
370
    15
100
AcDbLine
 10
202.7823756532
 20
98.0828238739
 30
0.0
 11
229.5823756532
 21
98.0828238739
 31
0.0
  0
LINE
  5
8F
330
1F
100
AcDbEntity
  8
0
  6
Continuous
 62
     7
370
    15
100
AcDbLine
 10
229.5823756532
 20
98.0828238739
 30
0.0
 11
229.7823756532
 21
98.2828238739
 31
0.0
  0
LINE
  5
90
330
1F
100
AcDbEntity
  8
0
  6
Continuous
 62
     7
370
    15
100
AcDbLine
 10
229.7823756532
 20
122.8828238739
 30
0.0
 11
229.5823756532
 21
123.0828238739
 31
0.0
  0
SPLINE
  5
91
330
1F
100
AcDbEntity
  8
0
  6
Continuous
 62
     7
370
    15
100
AcDbSpline
210
0.0
220
0.0
230
1.0
 70
    24
 71
     3
 72
    11
 73
     7
 74
     0
 42
0.000000001
 43
0.00000001
 40
0.0
 40
0.0
 40
0.0
 40
0.0
 40
0.128556176630682
 40
0.4801535797842867
 40
0.8150691831754954
 40
1.0
 40
1.0
 40
1.0
 40
1.0
 10
223.9540634896626
 20
109.3328238738929
 30
0.0
 10
223.895934497671
 20
109.3328238738929
 30
0.0
 10
223.6788244036594
 20
109.3328238738929
 30
0.0
 10
223.2716943513648
 20
109.3328238738929
 30
0.0
 10
222.8308583843718
 20
109.3328238738929
 30
0.0
 10
222.5946993333679
 20
109.3328238738929
 30
0.0
 10
222.5106878166886
 20
109.3328238738929
 30
0.0
  0
SPLINE
  5
92
330
1F
100
AcDbEntity
  8
0
  6
Continuous
 62
     7
370
    15
100
AcDbSpline
210
0.0
220
0.0
230
1.0
 70
    24
 71
     3
 72
    10
 73
     6
 74
     0
 42
0.000000001
 43
0.00000001
 40
0.0
 40
0.0
 40
0.0
 40
0.0
 40
0.4391119879276939
 40
0.7513633230734775
 40
0.9999999999999999
 40
0.9999999999999999
 40
0.9999999999999999
 40
0.9999999999999999
 10
224.6757513261497
 20
110.5828238738929
 30
0.0
 10
224.5724373119214
 20
110.4038787521156
 30
0.0
 10
224.3956569843858
 20
110.0976862430454
 30
0.0
 10
224.1386738624857
 20
109.6525784192267
 30
0.0
 10
224.0107645517163
 20
109.431032994213
 30
0.0
 10
223.9540634896626
 20
109.3328238738929
 30
0.0
  0
SPLINE
  5
93
330
1F
100
AcDbEntity
  8
0
  6
Continuous
 62
     7
370
    15
100
AcDbSpline
210
0.0
220
0.0
230
1.0
 70
    24
 71
     3
 72
    10
 73
     6
 74
     0
 42
0.000000001
 43
0.00000001
 40
0.0
 40
0.0
 40
0.0
 40
0.0
 40
0.4391119879276942
 40
0.7513633230734779
 40
1.0
 40
1.0
 40
1.0
 40
1.0
 10
223.9540634896626
 20
111.8328238738929
 30
0.0
 10
224.0573775038909
 20
111.6538787521156
 30
0.0
 10
224.2341578314265
 20
111.3476862430454
 30
0.0
 10
224.4911409533266
 20
110.9025784192267
 30
0.0
 10
224.619050264096
 20
110.681032994213
 30
0.0
 10
224.6757513261497
 20
110.5828238738929
 30
0.0
  0
SPLINE
  5
94
330
1F
100
AcDbEntity
  8
0
  6
Continuous
 62
     7
370
    15
100
AcDbSpline
210
0.0
220
0.0
230
1.0
 70
    24
 71
     3
 72
    11
 73
     7
 74
     0
 42
0.000000001
 43
0.00000001
 40
0.0
 40
0.0
 40
0.0
 40
0.0
 40
0.1849308168245047
 40
0.5198464202157134
 40
0.871443823369318
 40
1.0
 40
1.0
 40
1.0
 40
1.0
 10
222.5106878166886
 20
111.8328238738929
 30
0.0
 10
222.5946993333679
 20
111.8328238738929
 30
0.0
 10
222.8308583843718
 20
111.8328238738929
 30
0.0
 10
223.2716943513648
 20
111.8328238738929
 30
0.0
 10
223.6788244036594
 20
111.8328238738929
 30
0.0
 10
223.895934497671
 20
111.8328238738929
 30
0.0
 10
223.9540634896626
 20
111.8328238738929
 30
0.0
  0
SPLINE
  5
95
330
1F
100
AcDbEntity
  8
0
  6
Continuous
 62
     7
370
    15
100
AcDbSpline
210
0.0
220
0.0
230
1.0
 70
    24
 71
     3
 72
    10
 73
     6
 74
     0
 42
0.000000001
 43
0.00000001
 40
0.0
 40
0.0
 40
0.0
 40
0.0
 40
0.4391119879276927
 40
0.7513633230734783
 40
1.0
 40
1.0
 40
1.0
 40
1.0
 10
222.5106878166886
 20
109.3328238738929
 30
0.0
 10
222.4073738024603
 20
109.5117689956703
 30
0.0
 10
222.2305934749247
 20
109.8179615047405
 30
0.0
 10
221.9736103530246
 20
110.2630693285591
 30
0.0
 10
221.8457010422552
 20
110.4846147535729
 30
0.0
 10
221.7889999802015
 20
110.5828238738929
 30
0.0
  0
CIRCLE
  5
96
330
1F
100
AcDbEntity
  8
0
  6
Continuous
 62
     7
370
    15
100
AcDbCircle
 10
223.2323756532
 20
110.5828238739
 30
0.0
 40
1.5
  0
SPLINE
  5
97
330
1F
100
AcDbEntity
  8
0
  6
Continuous
 62
     7
370
    15
100
AcDbSpline
210
0.0
220
0.0
230
1.0
 70
    24
 71
     3
 72
    10
 73
     6
 74
     0
 42
0.000000001
 43
0.00000001
 40
0.0
 40
0.0
 40
0.0
 40
0.0
 40
0.439111987927694
 40
0.7513633230734793
 40
0.9999999999999999
 40
0.9999999999999999
 40
0.9999999999999999
 40
0.9999999999999999
 10
221.7889999802015
 20
110.5828238738929
 30
0.0
 10
221.8923139944299
 20
110.7617689956703
 30
0.0
 10
222.0690943219654
 20
111.0679615047405
 30
0.0
 10
222.3260774438655
 20
111.5130693285591
 30
0.0
 10
222.4539867546349
 20
111.7346147535729
 30
0.0
 10
222.5106878166886
 20
111.8328238738929
 30
0.0
  0
CIRCLE
  5
98
330
1F
100
AcDbEntity
  8
0
  6
Continuous
 62
     7
370
    15
100
AcDbCircle
 10
223.2323756532
 20
110.5828238739
 30
0.0
 40
2.25
  0
CIRCLE
  5
99
330
1F
100
AcDbEntity
  8
0
  6
Continuous
 62
     7
370
    15
100
AcDbCircle
 10
223.2323756532
 20
110.5828238739
 30
0.0
 40
2.5
  0
ARC
  5
9A
330
1F
100
AcDbEntity
  8
0
  6
Continuous
 62
     7
370
    15
100
AcDbCircle
 10
223.2323756532
 20
110.5828238739
 30
0.0
 40
1.250000000000014
100
AcDbArc
 50
90.0
 51
150.0
  0
ARC
  5
9B
330
1F
100
AcDbEntity
  8
0
  6
Continuous
 62
     7
370
    15
100
AcDbCircle
 10
223.2323756532
 20
110.5828238739
 30
0.0
 40
1.250000000000004
100
AcDbArc
 50
210.0
 51
270.0
  0
ARC
  5
9C
330
1F
100
AcDbEntity
  8
0
  6
Continuous
 62
     7
370
    15
100
AcDbCircle
 10
223.2323756532
 20
110.5828238739
 30
0.0
 40
1.250000000000004
100
AcDbArc
 50
270.0
 51
330.0
  0
ARC
  5
9D
330
1F
100
AcDbEntity
  8
0
  6
Continuous
 62
     7
370
    15
100
AcDbCircle
 10
223.2323756532
 20
110.5828238739
 30
0.0
 40
1.250000000000014
100
AcDbArc
 50
30.0
 51
90.0
  0
ARC
  5
9E
330
1F
100
AcDbEntity
  8
0
  6
Continuous
 62
     7
370
    15
100
AcDbCircle
 10
223.2323756532
 20
110.5828238739
 30
0.0
 40
1.250000000000011
100
AcDbArc
 50
330.0
 51
30.0
  0
ARC
  5
9F
330
1F
100
AcDbEntity
  8
0
  6
Continuous
 62
     7
370
    15
100
AcDbCircle
 10
223.2323756532
 20
110.5828238739
 30
0.0
 40
1.250000000000011
100
AcDbArc
 50
150.0
 51
210.0
  0
LINE
  5
A0
330
1F
100
AcDbEntity
  8
0
  6
Continuous
 62
     7
370
    15
100
AcDbLine
 10
166.9573756532
 20
63.9850486453
 30
0.0
 11
166.9573756532
 21
157.1805991024
 31
0.0
  0
SPLINE
  5
A1
330
1F
100
AcDbEntity
  8
0
  6
Continuous
 62
     7
370
    15
100
AcDbSpline
210
0.0
220
0.0
230
1.0
 70
     8
 71
     3
 72
    10
 73
     6
 74
     0
 42
0.000000001
 43
0.00000001
 40
0.0
 40
0.0
 40
0.0
 40
0.0
 40
0.5
 40
0.5
 40
1.0
 40
1.0
 40
1.0
 40
1.0
 10
167.2460918318466
 20
157.7993458932354
 30
0.0
 10
167.1699424081502
 20
157.7293936846849
 30
0.0
 10
167.101310325054
 20
157.6426348799592
 30
0.0
 10
166.9952306451008
 20
157.4343071826365
 30
0.0
 10
166.9573756531755
 20
157.3094252717519
 30
0.0
 10
166.9573756531755
 20
157.1805991024379
 30
0.0
  0
SPLINE
  5
A2
330
1F
100
AcDbEntity
  8
0
  6
Continuous
 62
     7
370
    15
100
AcDbSpline
210
0.0
220
0.0
230
1.0
 70
     8
 71
     3
 72
     8
 73
     4
 74
     0
 42
0.000000001
 43
0.00000001
 40
0.0
 40
0.0
 40
0.0
 40
0.0
 40
1.0
 40
1.0
 40
1.0
 40
1.0
 10
167.5573756531756
 20
157.8696995886437
 30
0.0
 10
167.4457993449658
 20
157.8696995886437
 30
0.0
 10
167.3376911840439
 20
157.8442770865712
 30
0.0
 10
167.2460918318466
 20
157.7993458932354
 30
0.0
  0
SPLINE
  5
A3
330
1F
100
AcDbEntity
  8
0
  6
Continuous
 62
     7
370
    15
100
AcDbSpline
210
0.0
220
0.0
230
1.0
 70
     8
 71
     3
 72
    10
 73
     6
 74
     0
 42
0.000000001
 43
0.00000001
 40
0.0
 40
0.0
 40
0.0
 40
0.0
 40
0.5
 40
0.5
 40
1.0
 40
1.0
 40
1.0
 40
1.0
 10
167.1724978824404
 20
63.44229923771859
 30
0.0
 10
167.221169369812
 20
63.41412589222627
 30
0.0
 10
167.2786112591133
 20
63.3899889932913
 30
0.0
 10
167.4095036187476
 20
63.35558694524666
 30
0.0
 10
167.4823807777713
 20
63.34571174606182
 30
0.0
 10
167.5573756531756
 20
63.34571174606182
 30
0.0
  0
SPLINE
  5
A4
330
1F
100
AcDbEntity
  8
0
  6
Continuous
 62
     7
370
    15
100
AcDbSpline
210
0.0
220
0.0
230
1.0
 70
     8
 71
     3
 72
    10
 73
     6
 74
     0
 42
0.000000001
 43
0.00000001
 40
0.0
 40
0.0
 40
0.0
 40
0.0
 40
0.5
 40
0.5
 40
1.0
 40
1.0
 40
1.0
 40
1.0
 10
167.1724978824404
 20
63.44229923771857
 30
0.0
 10
167.1144457179734
 20
63.50962071012964
 30
0.0
 10
167.0621193477628
 20
63.58981728663243
 30
0.0
 10
166.98396047226
 20
63.77228309967472
 30
0.0
 10
166.9573756531762
 20
63.87786949576199
 30
0.0
 10
166.9573756531755
 20
63.98504864534382
 30
0.0
  0
LINE
  5
A5
330
1F
100
AcDbEntity
  8
0
  6
Continuous
 62
     7
370
    15
100
AcDbLine
 10
176.7923756532
 20
65.9838976959
 30
0.0
 11
176.7923756532
 21
155.1817500519
 31
0.0
  0
SPLINE
  5
A6
330
1F
100
AcDbEntity
  8
0
  6
Continuous
 62
     7
370
    15
100
AcDbSpline
210
0.0
220
0.0
230
1.0
 70
     8
 71
     3
 72
     8
 73
     4
 74
     0
 42
0.000000001
 43
0.00000001
 40
0.0
 40
0.0
 40
0.0
 40
0.0
 40
1.0
 40
1.0
 40
1.0
 40
1.0
 10
177.8516293081954
 20
157.08806207191
 30
0.0
 10
177.4981346941279
 20
156.4528482282334
 30
0.0
 10
177.1450336269794
 20
155.8174198896562
 30
0.0
 10
176.7923756531756
 20
155.1817500518872
 30
0.0
  0
SPLINE
  5
A7
330
1F
100
AcDbEntity
  8
0
  6
Continuous
 62
     7
370
    15
100
AcDbSpline
210
0.0
220
0.0
230
1.0
 70
     8
 71
     3
 72
     8
 73
     4
 74
     0
 42
0.000000001
 43
0.00000001
 40
0.0
 40
0.0
 40
0.0
 40
0.0
 40
0.0012377667921472
 40
0.0012377667921472
 40
0.0012377667921472
 40
0.0012377667921472
 10
178.4085424222512
 20
157.8696995886437
 30
0.0
 10
178.2224506228736
 20
157.6093157681464
 30
0.0
 10
178.036802966658
 20
157.348772967309
 30
0.0
 10
177.8516293081952
 20
157.0880620719089
 30
0.0
  0
LINE
  5
A8
330
1F
100
AcDbEntity
  8
0
  6
Continuous
 62
     7
370
    15
100
AcDbLine
 10
178.4085424223
 20
63.3457117461
 30
0.0
 11
178.4085424223
 21
157.8696995886
 31
0.0
  0
SPLINE
  5
A9
330
1F
100
AcDbEntity
  8
0
  6
Continuous
 62
     7
370
    15
100
AcDbSpline
210
0.0
220
0.0
230
1.0
 70
     8
 71
     3
 72
     8
 73
     4
 74
     0
 42
0.000000001
 43
0.00000001
 40
0.0
 40
0.0
 40
0.0
 40
0.0
 40
0.0011891741919631
 40
0.0011891741919631
 40
0.0011891741919631
 40
0.0011891741919631
 10
177.9543837782545
 20
63.89296643601403
 30
0.0
 10
178.1047684706009
 20
63.71034292330854
 30
0.0
 10
178.2561739959778
 20
63.52792710118169
 30
0.0
 10
178.4085424222512
 20
63.34571174606184
 30
0.0
  0
SPLINE
  5
AA
330
1F
100
AcDbEntity
  8
0
  6
Continuous
 62
     7
370
    15
100
AcDbSpline
210
0.0
220
0.0
230
1.0
 70
     8
 71
     3
 72
     8
 73
     4
 74
     0
 42
0.000000001
 43
0.00000001
 40
0.0
 40
0.0
 40
0.0
 40
0.0
 40
1.0
 40
1.0
 40
1.0
 40
1.0
 10
177.9543837782545
 20
63.89296643601403
 30
0.0
 10
177.5665615737007
 20
64.58967030023483
 30
0.0
 10
177.1792040434613
 20
65.28663531034951
 30
0.0
 10
176.7923756531756
 20
65.98389769589872
 30
0.0
  0
LINE
  5
AB
330
1F
100
AcDbEntity
  8
0
  6
Continuous
 62
     7
370
    15
100
AcDbLine
 10
182.2323756532
 20
157.8696995886
 30
0.0
 11
178.4085424223
 21
157.8696995886
 31
0.0
  0
LINE
  5
AC
330
1F
100
AcDbEntity
  8
0
  6
Continuous
 62
     7
370
    15
100
AcDbLine
 10
178.4085424223
 20
63.3457117461
 30
0.0
 11
182.2323756532
 21
63.3457117461
 31
0.0
  0
SPLINE
  5
AD
330
1F
100
AcDbEntity
  8
0
  6
Continuous
 62
     7
370
    15
100
AcDbSpline
210
0.0
220
0.0
230
1.0
 70
     8
 71
     3
 72
    12
 73
     8
 74
     0
 42
0.000000001
 43
0.00000001
 40
0.0
 40
0.0
 40
0.0
 40
0.0
 40
0.5000000000000014
 40
0.5000000000000014
 40
0.7500000000000007
 40
0.7500000000000007
 40
1.0
 40
1.0
 40
1.0
 40
1.0
 10
182.8323756531756
 20
157.3840782810124
 30
0.0
 10
182.8323756531756
 20
157.5043759073443
 30
0.0
 10
182.7784834616994
 20
157.6224130775259
 30
0.0
 10
182.6175285368384
 20
157.7620099470672
 30
0.0
 10
182.5528099086114
 20
157.8002624151463
 30
0.0
 10
182.4006232507107
 20
157.8550981170515
 30
0.0
 10
182.3178552131245
 20
157.8696995886437
 30
0.0
 10
182.2323756531756
 20
157.8696995886437
 30
0.0
  0
LINE
  5
AE
330
1F
100
AcDbEntity
  8
0
  6
Continuous
 62
     7
370
    15
100
AcDbLine
 10
182.8323756532
 20
63.7623651598
 30
0.0
 11
182.8323756532
 21
157.384078281
 31
0.0
  0
SPLINE
  5
AF
330
1F
100
AcDbEntity
  8
0
  6
Continuous
 62
     7
370
    15
100
AcDbSpline
210
0.0
220
0.0
230
1.0
 70
     8
 71
     3
 72
    12
 73
     8
 74
     0
 42
0.000000001
 43
0.00000001
 40
0.0
 40
0.0
 40
0.0
 40
0.0
 40
0.2499999999999988
 40
0.2499999999999988
 40
0.4999999999999976
 40
0.4999999999999976
 40
1.0
 40
1.0
 40
1.0
 40
1.0
 10
182.2323756531756
 20
63.34571174606184
 30
0.0
 10
182.3283564955756
 20
63.34571174606182
 30
0.0
 10
182.4207897135137
 20
63.36206819401237
 30
0.0
 10
182.5772216709495
 20
63.41570887309155
 30
0.0
 10
182.6406964467799
 20
63.4520154442719
 30
0.0
 10
182.7889647019048
 20
63.57330370033108
 30
0.0
 10
182.8323756531756
 20
63.66760609722413
 30
0.0
 10
182.8323756531756
 20
63.7623651598205
 30
0.0
  0
LINE
  5
B0
330
1F
100
AcDbEntity
  8
0
  6
Continuous
 62
     7
370
    15
100
AcDbLine
 10
171.3562088841
 20
157.8696995886
 30
0.0
 11
167.5573756532
 21
157.8696995886
 31
0.0
  0
LINE
  5
B1
330
1F
100
AcDbEntity
  8
0
  6
Continuous
 62
     7
370
    15
100
AcDbLine
 10
171.3562088841
 20
63.3457117461
 30
0.0
 11
171.3562088841
 21
157.8696995886
 31
0.0
  0
LINE
  5
B2
330
1F
100
AcDbEntity
  8
0
  6
Continuous
 62
     7
370
    15
100
AcDbLine
 10
167.5573756532
 20
63.3457117461
 30
0.0
 11
171.3562088841
 21
63.3457117461
 31
0.0
  0
SPLINE
  5
B3
330
1F
100
AcDbEntity
  8
0
  6
Continuous
 62
     7
370
    15
100
AcDbSpline
210
0.0
220
0.0
230
1.0
 70
     8
 71
     3
 72
     8
 73
     4
 74
     0
 42
0.000000001
 43
0.00000001
 40
0.0
 40
0.0
 40
0.0
 40
0.0
 40
0.0012377667921509
 40
0.0012377667921509
 40
0.0012377667921509
 40
0.0012377667921509
 10
171.9131219981577
 20
157.0880620719065
 30
0.0
 10
171.7279483396943
 20
157.3487729673074
 30
0.0
 10
171.5423006834782
 20
157.6093157681456
 30
0.0
 10
171.3562088840999
 20
157.8696995886437
 30
0.0
  0
SPLINE
  5
B4
330
1F
100
AcDbEntity
  8
0
  6
Continuous
 62
     7
370
    15
100
AcDbSpline
210
0.0
220
0.0
230
1.0
 70
     8
 71
     3
 72
     8
 73
     4
 74
     0
 42
0.000000001
 43
0.00000001
 40
0.0
 40
0.0
 40
0.0
 40
0.0
 40
1.0
 40
1.0
 40
1.0
 40
1.0
 10
172.9723756531756
 20
155.1817500518872
 30
0.0
 10
172.6197176793724
 20
155.8174198896551
 30
0.0
 10
172.2666166122245
 20
156.4528482282311
 30
0.0
 10
171.9131219981577
 20
157.0880620719065
 30
0.0
  0
LINE
  5
B5
330
1F
100
AcDbEntity
  8
0
  6
Continuous
 62
     7
370
    15
100
AcDbLine
 10
172.9723756532
 20
65.9838976959
 30
0.0
 11
172.9723756532
 21
155.1817500519
 31
0.0
  0
SPLINE
  5
B6
330
1F
100
AcDbEntity
  8
0
  6
Continuous
 62
     7
370
    15
100
AcDbSpline
210
0.0
220
0.0
230
1.0
 70
     8
 71
     3
 72
     8
 73
     4
 74
     0
 42
0.000000001
 43
0.00000001
 40
0.0
 40
0.0
 40
0.0
 40
0.0
 40
1.0
 40
1.0
 40
1.0
 40
1.0
 10
172.9723756531756
 20
65.98389769589872
 30
0.0
 10
172.5855472628898
 20
65.28663531034951
 30
0.0
 10
172.1981897326505
 20
64.58967030023483
 30
0.0
 10
171.8103675280967
 20
63.89296643601403
 30
0.0
  0
SPLINE
  5
B7
330
1F
100
AcDbEntity
  8
0
  6
Continuous
 62
     7
370
    15
100
AcDbSpline
210
0.0
220
0.0
230
1.0
 70
     8
 71
     3
 72
     8
 73
     4
 74
     0
 42
0.000000001
 43
0.00000001
 40
0.0
 40
0.0
 40
0.0
 40
0.0
 40
0.0011891741919631
 40
0.0011891741919631
 40
0.0011891741919631
 40
0.0011891741919631
 10
171.3562088840999
 20
63.34571174606184
 30
0.0
 10
171.5085773103733
 20
63.52792710118169
 30
0.0
 10
171.6599828357503
 20
63.71034292330854
 30
0.0
 10
171.8103675280967
 20
63.89296643601403
 30
0.0
  0
SPLINE
  5
B8
330
1F
100
AcDbEntity
  8
0
  6
Continuous
 62
     7
370
    15
100
AcDbSpline
210
0.0
220
0.0
230
1.0
 70
     8
 71
     3
 72
    12
 73
     8
 74
     0
 42
0.000000001
 43
0.00000001
 40
0.0
 40
0.0
 40
0.0
 40
0.0
 40
0.4999999999999928
 40
0.4999999999999928
 40
0.7499999999999963
 40
0.7499999999999963
 40
1.0
 40
1.0
 40
1.0
 40
1.0
 10
173.7723756531756
 20
66.93505760802316
 30
0.0
 10
173.5582006867013
 20
66.93505760802316
 30
0.0
 10
173.347700874082
 20
66.84110163540622
 30
0.0
 10
173.1269577787708
 20
66.60600992746052
 30
0.0
 10
173.0698106460506
 20
66.51437776275297
 30
0.0
 10
172.9922362224035
 20
66.31516838883243
 30
0.0
 10
172.9723756531756
 20
66.20820902847888
 30
0.0
 10
172.9723756531756
 20
66.10173238548691
 30
0.0
  0
SPLINE
  5
B9
330
1F
100
AcDbEntity
  8
0
  6
Continuous
 62
     7
370
    15
100
AcDbSpline
210
0.0
220
0.0
230
1.0
 70
     8
 71
     3
 72
    12
 73
     8
 74
     0
 42
0.000000001
 43
0.00000001
 40
0.0
 40
0.0
 40
0.0
 40
0.0
 40
0.25
 40
0.25
 40
0.5
 40
0.5
 40
1.0
 40
1.0
 40
1.0
 40
1.0
 10
173.7723756531756
 20
154.2305901397627
 30
0.0
 10
173.6645708259268
 20
154.2305901397627
 30
0.0
 10
173.5583577878675
 20
154.2533876796524
 30
0.0
 10
173.3626403748752
 20
154.3397483943096
 30
0.0
 10
173.273705546678
 20
154.403415883441
 30
0.0
 10
173.0549032796792
 20
154.636246986433
 30
0.0
 10
172.9723756531756
 20
154.850479887714
 30
0.0
 10
172.9723756531756
 20
155.0639153622996
 30
0.0
  0
SPLINE
  5
BA
330
1F
100
AcDbEntity
  8
0
  6
Continuous
 62
     7
370
    15
100
AcDbSpline
210
0.0
220
0.0
230
1.0
 70
     8
 71
     3
 72
    14
 73
    10
 74
     0
 42
0.000000001
 43
0.00000001
 40
0.0
 40
0.0
 40
0.0
 40
0.0
 40
0.25
 40
0.25
 40
0.5
 40
0.5
 40
0.75
 40
0.75
 40
1.0
 40
1.0
 40
1.0
 40
1.0
 10
176.7923756531756
 20
66.10173238548632
 30
0.0
 10
176.7923756531756
 20
66.2091358849841
 30
0.0
 10
176.7724627223187
 20
66.31538799918097
 30
0.0
 10
176.6948136780715
 20
66.514618506434
 30
0.0
 10
176.6370341700377
 20
66.60685632107969
 30
0.0
 10
176.4911191012131
 20
66.76218065147985
 30
0.0
 10
176.4024555332996
 20
66.82574299191893
 30
0.0
 10
176.2061014879715
 20
66.91239323133796
 30
0.0
 10
176.1003113979501
 20
66.93505760802316
 30
0.0
 10
175.9923756531756
 20
66.93505760802316
 30
0.0
  0
SPLINE
  5
BB
330
1F
100
AcDbEntity
  8
0
  6
Continuous
 62
     7
370
    15
100
AcDbSpline
210
0.0
220
0.0
230
1.0
 70
     8
 71
     3
 72
    14
 73
    10
 74
     0
 42
0.000000001
 43
0.00000001
 40
0.0
 40
0.0
 40
0.0
 40
0.0
 40
0.25
 40
0.25
 40
0.5
 40
0.5
 40
0.75
 40
0.75
 40
1.0
 40
1.0
 40
1.0
 40
1.0
 10
176.7923756531756
 20
155.0639153622996
 30
0.0
 10
176.7923756531756
 20
154.9565729901521
 30
0.0
 10
176.7723794611114
 20
154.8499439833043
 30
0.0
 10
176.6946813767667
 20
154.6507922041531
 30
0.0
 10
176.6366882318731
 20
154.5583093058376
 30
0.0
 10
176.4906417390503
 20
154.4030734707285
 30
0.0
 10
176.4013039998826
 20
154.3393395291161
 30
0.0
 10
176.2065489878222
 20
154.2535092627209
 30
0.0
 10
176.0990187166133
 20
154.2305901397624
 30
0.0
 10
175.9923756531735
 20
154.2305901397627
 30
0.0
  0
LINE
  5
BC
330
1F
100
AcDbEntity
  8
0
  6
Continuous
 62
     7
370
    15
100
AcDbLine
 10
175.9923756532
 20
66.935057608
 30
0.0
 11
173.7723756532
 21
66.935057608
 31
0.0
  0
LINE
  5
BD
330
1F
100
AcDbEntity
  8
0
  6
Continuous
 62
     7
370
    15
100
AcDbLine
 10
175.9923756532
 20
154.2305901397
 30
0.0
 11
173.7723756532
 21
154.2305901398
 31
0.0
  0
LINE
  5
BE
330
1F
100
AcDbEntity
  8
0
  6
Continuous
 62
     7
370
    15
100
AcDbLine
 10
163.7823756532
 20
75.6578238739
 30
0.0
 11
163.7823756532
 21
145.5078238739
 31
0.0
  0
LINE
  5
BF
330
1F
100
AcDbEntity
  8
0
  6
Continuous
 62
     7
370
    15
100
AcDbLine
 10
198.7823756532
 20
144.5078238628
 30
0.0
 11
198.7823756532
 21
76.6578238739
 31
0.0
  0
LINE
  5
C0
330
1F
100
AcDbEntity
  8
0
  6
Continuous
 62
     7
370
    15
100
AcDbLine
 10
62.1823756532
 20
92.2039793465
 30
0.0
 11
62.1823756532
 21
128.9616684002
 31
0.0
  0
SPLINE
  5
C1
330
1F
100
AcDbEntity
  8
0
  6
Continuous
 62
     7
370
    15
100
AcDbSpline
210
0.0
220
0.0
230
1.0
 70
    11
 71
     3
 72
    64
 73
    60
 74
     0
 42
0.000000001
 43
0.00000001
 40
0.0
 40
0.0
 40
0.0
 40
0.0
 40
0.0312499999999998
 40
0.0312499999999998
 40
0.0624999999999996
 40
0.0624999999999996
 40
0.0937499999999994
 40
0.0937499999999994
 40
0.1249999999999993
 40
0.1249999999999993
 40
0.1562499999999991
 40
0.1562499999999991
 40
0.1874999999999989
 40
0.1874999999999989
 40
0.2187499999999987
 40
0.2187499999999987
 40
0.2499999999999985
 40
0.2499999999999985
 40
0.2812499999999983
 40
0.2812499999999983
 40
0.3124999999999981
 40
0.3124999999999981
 40
0.3437499999999979
 40
0.3437499999999979
 40
0.3749999999999978
 40
0.3749999999999978
 40
0.4062499999999976
 40
0.4062499999999976
 40
0.4374999999999974
 40
0.4374999999999974
 40
0.4687499999999972
 40
0.4687499999999972
 40
0.499999999999997
 40
0.499999999999997
 40
0.5312499999999968
 40
0.5312499999999968
 40
0.5624999999999967
 40
0.5624999999999967
 40
0.6249999999999962
 40
0.6249999999999962
 40
0.6874999999999959
 40
0.6874999999999959
 40
0.7187499999999962
 40
0.7187499999999962
 40
0.7499999999999966
 40
0.7499999999999966
 40
0.781249999999997
 40
0.781249999999997
 40
0.8124999999999973
 40
0.8124999999999973
 40
0.8437499999999977
 40
0.8437499999999977
 40
0.8749999999999981
 40
0.8749999999999981
 40
0.9062499999999984
 40
0.9062499999999984
 40
0.9374999999999988
 40
0.9374999999999988
 40
1.0
 40
1.0
 40
1.0
 40
1.0
 10
221.2141729782826
 20
112.5800919152849
 30
0.0
 10
221.3592994969304
 20
112.6993071321183
 30
0.0
 10
221.5134471802411
 20
112.8028300699818
 30
0.0
 10
221.8383464456806
 20
112.9813487042911
 30
0.0
 10
222.0103857101506
 20
113.0567261066427
 30
0.0
 10
222.3657452740873
 20
113.1763984483835
 30
0.0
 10
222.5466845930869
 20
113.2201556802267
 30
0.0
 10
222.9148546769486
 20
113.2768441864401
 30
0.0
 10
223.1039162569963
 20
113.2896561290968
 30
0.0
 10
223.4782882730382
 20
113.2829989388293
 30
0.0
 10
223.663327804667
 20
113.2639236617111
 30
0.0
 10
224.0291571030393
 20
113.1945019659794
 30
0.0
 10
224.211685605001
 20
113.1433703244867
 30
0.0
 10
224.5604812830528
 20
113.0116263449959
 30
0.0
 10
224.7273640426409
 20
112.9312804949081
 30
0.0
 10
225.0458234489403
 20
112.7407875026716
 30
0.0
 10
225.1987515933203
 20
112.6291871619646
 30
0.0
 10
225.4760925603971
 20
112.3825348309899
 30
0.0
 10
225.6017294326842
 20
112.2471871812497
 30
0.0
 10
225.8253591783141
 20
111.9506931495361
 30
0.0
 10
225.9235918180378
 20
111.7879693640756
 30
0.0
 10
226.0796342302549
 20
111.4511155443012
 30
0.0
 10
226.139085200745
 20
111.2753367462574
 30
0.0
 10
226.2177526774159
 20
110.9077563616902
 30
0.0
 10
226.2356856827213
 20
110.719555642984
 30
0.0
 10
226.2280498307455
 20
110.3469485458522
 30
0.0
 10
226.2021088096727
 20
110.1581722901101
 30
0.0
 10
226.1089321476352
 20
109.7954543167511
 30
0.0
 10
226.0424268002284
 20
109.6212767017883
 30
0.0
 10
225.8709524473487
 20
109.2866988347476
 30
0.0
 10
225.7677299959512
 20
109.1301631916755
 30
0.0
 10
225.5326472982209
 20
108.8416632378424
 30
0.0
 10
225.3988121528212
 20
108.7078138711548
 30
0.0
 10
225.1114064096795
 20
108.470756906809
 30
0.0
 10
224.9574766257357
 20
108.3665913612921
 30
0.0
 10
224.6297782647101
 20
108.1857814033361
 30
0.0
 10
224.4570929784716
 20
108.1101089676633
 30
0.0
 10
223.9282166125709
 20
107.9312051729307
 30
0.0
 10
223.5499767745216
 20
107.8730705849868
 30
0.0
 10
222.805122768054
 20
107.8854357237567
 30
0.0
 10
222.4290092458935
 20
107.9562040677976
 30
0.0
 10
221.9077921554291
 20
108.1525021769564
 30
0.0
 10
221.7385657164647
 20
108.2336317675023
 30
0.0
 10
221.4170131852288
 20
108.426036185232
 30
0.0
 10
221.2673955671442
 20
108.5354163658898
 30
0.0
 10
220.9906900798733
 20
108.7811116057638
 30
0.0
 10
220.8623350298321
 20
108.9191300420005
 30
0.0
 10
220.6375192396186
 20
109.217681641213
 30
0.0
 10
220.5418979368471
 20
109.3763299603953
 30
0.0
 10
220.3855725089265
 20
109.7133052267365
 30
0.0
 10
220.3245955898772
 20
109.8942673344491
 30
0.0
 10
220.2468595487855
 20
110.2596033448751
 30
0.0
 10
220.2289627800226
 20
110.4450677019308
 30
0.0
 10
220.2368479616045
 20
110.8218308238579
 30
0.0
 10
220.2629866533207
 20
111.0091854004305
 30
0.0
 10
220.3560835385973
 20
111.3708499681403
 30
0.0
 10
220.4242838378962
 20
111.5487705073928
 30
0.0
 10
220.6806585526861
 20
112.0472579945704
 30
0.0
 10
220.923919940987
 20
112.3416614816181
 30
0.0
 10
221.2141729782826
 20
112.5800919152849
 30
0.0
  0
LINE
  5
C2
330
1F
100
AcDbEntity
  8
0
  6
Continuous
 62
     7
370
    15
100
AcDbLine
 10
229.5823756532
 20
110.5828238739
 30
0.0
 11
229.5823756532
 21
98.0828238739
 31
0.0
  0
LINE
  5
C3
330
1F
100
AcDbEntity
  8
0
  6
Continuous
 62
     7
370
    15
100
AcDbLine
 10
229.5823756532
 20
123.0828238739
 30
0.0
 11
229.5823756532
 21
110.5828238739
 31
0.0
  0
LINE
  5
C4
330
1F
100
AcDbEntity
  8
0
  6
Continuous
 62
     7
370
    15
100
AcDbLine
 10
229.7823756532
 20
110.5828238739
 30
0.0
 11
229.7823756532
 21
98.2828238739
 31
0.0
  0
LINE
  5
C5
330
1F
100
AcDbEntity
  8
0
  6
Continuous
 62
     7
370
    15
100
AcDbLine
 10
229.7823756532
 20
122.8828238739
 30
0.0
 11
229.7823756532
 21
110.5828238739
 31
0.0
  0
CIRCLE
  5
C6
330
1F
100
AcDbEntity
  8
0
  6
HIDDEN
 62
     7
370
     0
100
AcDbCircle
 10
223.2323756532
 20
110.5828238739
 30
0.0
 40
1.776794919243102
  0
CIRCLE
  5
C7
330
1F
100
AcDbEntity
  8
0
  6
HIDDEN
 62
     7
370
     0
100
AcDbCircle
 10
223.2323756532
 20
110.5828238739
 30
0.0
 40
1.676794919243108
  0
LINE
  5
C8
330
1F
100
AcDbEntity
  8
0
  6
HIDDEN
 62
     7
370
     0
100
AcDbLine
 10
166.9573756532
 20
148.0828238739
 30
0.0
 11
167.6260048033
 21
148.0828238739
 31
0.0
  0
ELLIPSE
  5
C9
330
1F
100
AcDbEntity
  8
0
  6
HIDDEN
 62
     7
370
     0
100
AcDbEllipse
 10
167.6260048033
 20
148.8828238739
 30
0.0
 11
0.0
 21
0.7999999999999829
 31
0.0
210
0.0
220
0.0
230
1.0
 40
0.4142135624
 41
3.141592653589793
 42
4.712388980384659
  0
LINE
  5
CA
330
1F
100
AcDbEntity
  8
0
  6
HIDDEN
 62
     7
370
     0
100
AcDbLine
 10
167.6260048033
 20
75.4828238739
 30
0.0
 11
166.9573756532
 21
75.4828238739
 31
0.0
  0
ELLIPSE
  5
CB
330
1F
100
AcDbEntity
  8
0
  6
HIDDEN
 62
     7
370
     0
100
AcDbEllipse
 10
167.6260048033
 20
74.6828238739
 30
0.0
 11
0.0
 21
0.7999999999999972
 31
0.0
210
0.0
220
0.0
230
1.0
 40
0.4142135624
 41
4.712388980384695
 42
6.283185307179586
  0
LINE
  5
CC
330
1F
100
AcDbEntity
  8
0
  6
HIDDEN
 62
     7
370
     0
100
AcDbLine
 10
167.9573756532
 20
63.892966436
 30
0.0
 11
167.1724978824
 21
63.4422992377
 31
0.0
  0
LINE
  5
CD
330
1F
100
AcDbEntity
  8
0
  6
HIDDEN
 62
     7
370
     0
100
AcDbLine
 10
167.2460918318
 20
157.7993458932
 30
0.0
 11
167.9573756532
 21
157.0880620719
 31
0.0
  0
LINE
  5
CE
330
1F
100
AcDbEntity
  8
0
  6
HIDDEN
 62
     7
370
     0
100
AcDbLine
 10
69.7303774617
 20
99.4578238739
 30
0.0
 11
69.7303774617
 21
121.7078238739
 31
0.0
  0
LINE
  5
CF
330
1F
100
AcDbEntity
  8
0
  6
HIDDEN
 62
     7
370
     0
100
AcDbLine
 10
182.8323756532
 20
75.4828238739
 30
0.0
 11
167.6260048033
 21
75.4828238739
 31
0.0
  0
LINE
  5
D0
330
1F
100
AcDbEntity
  8
0
  6
HIDDEN
 62
     7
370
     0
100
AcDbLine
 10
171.8103675281
 20
63.892966436
 30
0.0
 11
167.9573756532
 21
63.892966436
 31
0.0
  0
LINE
  5
D1
330
1F
100
AcDbEntity
  8
0
  6
HIDDEN
 62
     7
370
     0
100
AcDbLine
 10
182.8323756532
 20
63.892966436
 30
0.0
 11
177.9543837783
 21
63.892966436
 31
0.0
  0
LINE
  5
D2
330
1F
100
AcDbEntity
  8
0
  6
HIDDEN
 62
     7
370
     0
100
AcDbLine
 10
167.9573756532
 20
63.892966436
 30
0.0
 11
167.9573756532
 21
74.6828238739
 31
0.0
  0
LINE
  5
D3
330
1F
100
AcDbEntity
  8
0
  6
HIDDEN
 62
     7
370
     0
100
AcDbLine
 10
167.6260048033
 20
148.0828238739
 30
0.0
 11
182.8323756532
 21
148.0828238739
 31
0.0
  0
LINE
  5
D4
330
1F
100
AcDbEntity
  8
0
  6
HIDDEN
 62
     7
370
     0
100
AcDbLine
 10
167.9573756532
 20
157.0880620719
 30
0.0
 11
171.9131219982
 21
157.0880620719
 31
0.0
  0
LINE
  5
D5
330
1F
100
AcDbEntity
  8
0
  6
HIDDEN
 62
     7
370
     0
100
AcDbLine
 10
177.8516293082
 20
157.0880620719
 30
0.0
 11
182.8323756532
 21
157.0880620719
 31
0.0
  0
LINE
  5
D6
330
1F
100
AcDbEntity
  8
0
  6
HIDDEN
 62
     7
370
     0
100
AcDbLine
 10
167.9573756532
 20
157.0880620719
 30
0.0
 11
167.9573756532
 21
148.8828238739
 31
0.0
  0
LINE
  5
D7
330
1F
100
AcDbEntity
  8
0
  6
HIDDEN
 62
     7
370
     0
100
AcDbLine
 10
124.1823756532
 20
99.4578238739
 30
0.0
 11
124.1823756532
 21
121.7078238739
 31
0.0
  0
LINE
  5
D8
330
1F
100
AcDbEntity
  8
0
  6
HIDDEN
 62
     7
370
     0
100
AcDbLine
 10
129.3647984923
 20
108.0828238739
 30
0.0
 11
129.3647984923
 21
113.0828238739
 31
0.0
  0
SPLINE
  5
D9
330
1F
100
AcDbEntity
  8
0
  6
HIDDEN
 62
     7
370
     0
100
AcDbSpline
210
0.0
220
0.0
230
1.0
 70
     8
 71
     3
 72
    16
 73
    12
 74
     0
 42
0.000000001
 43
0.00000001
 40
0.0
 40
0.0
 40
0.0
 40
0.0
 40
0.25000000000001
 40
0.25000000000001
 40
0.5000000000000201
 40
0.5000000000000201
 40
0.6250000000000154
 40
0.6250000000000154
 40
0.7500000000000108
 40
0.7500000000000108
 40
1.0
 40
1.0
 40
1.0
 40
1.0
 10
229.7823756531756
 20
117.4236609892769
 30
0.0
 10
229.7823756531756
 20
117.3551900670934
 30
0.0
 10
229.7778304430003
 20
117.2852618254428
 30
0.0
 10
229.7521604778769
 20
117.1400925953563
 30
0.0
 10
229.7304335979948
 20
117.061741873286
 30
0.0
 10
229.6714741675366
 20
116.959570324425
 30
0.0
 10
229.6468240405538
 20
116.9283819951569
 30
0.0
 10
229.592507047757
 20
116.8821740780552
 30
0.0
 10
229.5637371160419
 20
116.8674370615801
 30
0.0
 10
229.4810347460302
 20
116.8422394128629
 30
0.0
 10
229.4297452694226
 20
116.8478162504393
 30
0.0
 10
229.3823756531681
 20
116.8603696036877
 30
0.0
  0
SPLINE
  5
DA
330
1F
100
AcDbEntity
  8
0
  6
HIDDEN
 62
     7
370
     0
100
AcDbSpline
210
0.0
220
0.0
230
1.0
 70
     8
 71
     3
 72
     8
 73
     4
 74
     0
 42
0.000000001
 43
0.00000001
 40
0.0
 40
0.0
 40
0.0
 40
0.0
 40
1.0
 40
1.0
 40
1.0
 40
1.0
 10
229.3823756531705
 20
116.8603696036969
 30
0.0
 10
229.3234803285423
 20
116.8274177470247
 30
0.0
 10
229.2538706992629
 20
116.8057517910683
 30
0.0
 10
229.1823756531758
 20
116.8057517910682
 30
0.0
  0
SPLINE
  5
DB
330
1F
100
AcDbEntity
  8
0
  6
HIDDEN
 62
     7
370
     0
100
AcDbSpline
210
0.0
220
0.0
230
1.0
 70
     8
 71
     3
 72
     8
 73
     4
 74
     0
 42
0.000000001
 43
0.00000001
 40
0.0
 40
0.0
 40
0.0
 40
0.0
 40
1.0
 40
1.0
 40
1.0
 40
1.0
 10
229.3823756531853
 20
104.3052781440806
 30
0.0
 10
229.3234803285539
 20
104.3382300007574
 30
0.0
 10
229.2538706992689
 20
104.3598959567176
 30
0.0
 10
229.1823756531758
 20
104.3598959567177
 30
0.0
  0
SPLINE
  5
DC
330
1F
100
AcDbEntity
  8
0
  6
HIDDEN
 62
     7
370
     0
100
AcDbSpline
210
0.0
220
0.0
230
1.0
 70
     8
 71
     3
 72
    16
 73
    12
 74
     0
 42
0.000000001
 43
0.00000001
 40
0.0
 40
0.0
 40
0.0
 40
0.0
 40
0.2499999999999764
 40
0.2499999999999764
 40
0.3749999999999803
 40
0.3749999999999803
 40
0.4999999999999842
 40
0.4999999999999842
 40
0.7499999999999921
 40
0.7499999999999921
 40
1.0
 40
1.0
 40
1.0
 40
1.0
 10
229.3823756531853
 20
104.3052781440804
 30
0.0
 10
229.4297576179529
 20
104.317834834762
 30
0.0
 10
229.480938836484
 20
104.3234595925247
 30
0.0
 10
229.563893898402
 20
104.2981589418664
 30
0.0
 10
229.5925762595641
 20
104.2834143851257
 30
0.0
 10
229.6466840644676
 20
104.2374028177499
 30
0.0
 10
229.6710798185854
 20
104.2066700022031
 30
0.0
 10
229.7303913813217
 20
104.1041880616978
 30
0.0
 10
229.7519189352214
 20
104.026530502888
 30
0.0
 10
229.7777491899689
 20
103.8812443823408
 30
0.0
 10
229.7823756531757
 20
103.8105121155282
 30
0.0
 10
229.7823756531757
 20
103.7419912423239
 30
0.0
  0
LINE
  5
DD
330
1F
100
AcDbEntity
  8
0
  6
HIDDEN
 62
     7
370
     0
100
AcDbLine
 10
213.2823756532
 20
110.5828238739
 30
0.0
 11
213.2823756532
 21
103.8828238739
 31
0.0
  0
LINE
  5
DE
330
1F
100
AcDbEntity
  8
0
  6
HIDDEN
 62
     7
370
     0
100
AcDbLine
 10
213.2823756532
 20
117.2828238739
 30
0.0
 11
213.2823756532
 21
110.5828238739
 31
0.0
  0
LINE
  5
DF
330
1F
100
AcDbEntity
  8
0
  6
HIDDEN
 62
     7
370
     0
100
AcDbLine
 10
216.648401057
 20
110.5828238739
 30
0.0
 11
216.648401057
 21
103.5828238739
 31
0.0
  0
LINE
  5
E0
330
1F
100
AcDbEntity
  8
0
  6
HIDDEN
 62
     7
370
     0
100
AcDbLine
 10
216.648401057
 20
117.5828238739
 30
0.0
 11
216.648401057
 21
110.5828238739
 31
0.0
  0
LINE
  5
E1
330
1F
100
AcDbEntity
  8
0
  6
HIDDEN
 62
     7
370
     0
100
AcDbLine
 10
222.8823756532
 20
116.8057517911
 30
0.0
 11
229.1823756532
 21
116.8057517911
 31
0.0
  0
LINE
  5
E2
330
1F
100
AcDbEntity
  8
0
  6
HIDDEN
 62
     7
370
     0
100
AcDbLine
 10
222.8823756532
 20
104.3598959567
 30
0.0
 11
229.1823756532
 21
104.3598959567
 31
0.0
  0
LINE
  5
E3
330
1F
100
AcDbEntity
  8
0
  6
HIDDEN
 62
     7
370
     0
100
AcDbLine
 10
170.1323756532
 20
147.6828238739
 30
0.0
 11
179.6323756532
 21
147.6828238739
 31
0.0
  0
SPLINE
  5
E4
330
1F
100
AcDbEntity
  8
0
  6
HIDDEN
 62
     7
370
     0
100
AcDbSpline
210
0.0
220
0.0
230
1.0
 70
    11
 71
     3
 72
    22
 73
    18
 74
     0
 42
0.000000001
 43
0.00000001
 40
0.0
 40
0.0
 40
0.0
 40
0.0
 40
0.125
 40
0.125
 40
0.2499999999999999
 40
0.2499999999999999
 40
0.375
 40
0.375
 40
0.5000000000000001
 40
0.5000000000000001
 40
0.6250000000000001
 40
0.6250000000000001
 40
0.75
 40
0.75
 40
0.875
 40
0.875
 40
1.0
 40
1.0
 40
1.0
 40
1.0
 10
229.3823756531756
 20
119.657823873893
 30
0.0
 10
229.3823756531756
 20
119.7951411221032
 30
0.0
 10
229.3825413222578
 20
119.9191269208253
 30
0.0
 10
229.3799231932733
 20
120.1412125054601
 30
0.0
 10
229.3777368140046
 20
120.2383177422493
 30
0.0
 10
229.3718551593087
 20
120.3946790366322
 30
0.0
 10
229.3679311877336
 20
120.4559961615882
 30
0.0
 10
229.3605034696577
 20
120.5370125149214
 30
0.0
 10
229.3569210396025
 20
120.5578136509361
 30
0.0
 10
229.3522964099892
 20
120.5578340892898
 30
0.0
 10
229.3513698204877
 20
120.5374752256713
 30
0.0
 10
229.3534242753287
 20
120.456086492906
 30
0.0
 10
229.3563695742755
 20
120.3954218674662
 30
0.0
 10
229.3646333768208
 20
120.239113667769
 30
0.0
 10
229.3699766178879
 20
120.1416929657972
 30
0.0
 10
229.3789254931673
 20
119.920772190044
 30
0.0
 10
229.3823756383699
 20
119.795155792963
 30
0.0
 10
229.3823756417716
 20
119.657823873893
 30
0.0
  0
LWPOLYLINE
  5
E5
330
1F
100
AcDbEntity
  8
0
  6
HIDDEN
 62
     7
370
     0
100
AcDbPolyline
 90
        4
 70
   128
 43
0.0
 10
229.3823756418
 20
119.6578238739
 10
229.3823756569
 20
119.1771637662
 10
229.3823756521
 20
117.2545233355
 10
229.3823756532
 20
116.8603696037
  0
LINE
  5
E6
330
1F
100
AcDbEntity
  8
0
  6
HIDDEN
 62
     7
370
     0
100
AcDbLine
 10
229.3823756578
 20
101.5078238739
 30
0.0
 11
229.3823756532
 21
104.3052781441
 31
0.0
  0
SPLINE
  5
E7
330
1F
100
AcDbEntity
  8
0
  6
HIDDEN
 62
     7
370
     0
100
AcDbSpline
210
0.0
220
0.0
230
1.0
 70
     8
 71
     3
 72
    11
 73
     7
 74
     0
 42
0.000000001
 43
0.00000001
 40
0.0
 40
0.0
 40
0.0
 40
0.0
 40
0.2797265398714198
 40
0.6044327312510029
 40
0.9296777910502428
 40
1.0
 40
1.0
 40
1.0
 40
1.0
 10
229.3552524846784
 20
100.6203140670613
 30
0.0
 10
229.3534814094992
 20
100.6320188511514
 30
0.0
 10
229.3496544726335
 20
100.6573105328756
 30
0.0
 10
229.3657477282235
 20
100.9381941248112
 30
0.0
 10
229.3812473454727
 20
101.2614498619768
 30
0.0
 10
229.3822053482425
 20
101.4706357304059
 30
0.0
 10
229.3823756577607
 20
101.5078238738929
 30
0.0
  0
LINE
  5
E8
330
1F
100
AcDbEntity
  8
0
  6
HIDDEN
 62
     7
370
     0
100
AcDbLine
 10
222.8823756532
 20
101.5078238739
 30
0.0
 11
222.8823756532
 21
104.3598959567
 31
0.0
  0
LINE
  5
E9
330
1F
100
AcDbEntity
  8
0
  6
HIDDEN
 62
     7
370
     0
100
AcDbLine
 10
222.8823756532
 20
119.6578238739
 30
0.0
 11
222.8823756532
 21
116.8057517911
 31
0.0
  0
LINE
  5
EA
330
1F
100
AcDbEntity
  8
0
  6
HIDDEN
 62
     7
370
     0
100
AcDbLine
 10
222.8823756532
 20
120.5578238739
 30
0.0
 11
222.8823756532
 21
119.6578238739
 31
0.0
  0
LINE
  5
EB
330
1F
100
AcDbEntity
  8
0
  6
HIDDEN
 62
     7
370
     0
100
AcDbLine
 10
222.8823756532
 20
100.6078238739
 30
0.0
 11
222.8823756532
 21
101.5078238739
 31
0.0
  0
ARC
  5
EC
330
1F
100
AcDbEntity
  8
0
  6
HIDDEN
 62
     7
370
     0
100
AcDbCircle
 10
63.3823756532
 20
96.1828238739
 30
0.0
 40
1.200000000000003
100
AcDbArc
 50
90.0
 51
180.0
  0
ARC
  5
ED
330
1F
100
AcDbEntity
  8
0
  6
HIDDEN
 62
     7
370
     0
100
AcDbCircle
 10
63.3823756532
 20
124.9828238739
 30
0.0
 40
1.200000000000003
100
AcDbArc
 50
180.0
 51
270.0
  0
LINE
  5
EE
330
1F
100
AcDbEntity
  8
0
  6
HIDDEN
 62
     7
370
     0
100
AcDbLine
 10
63.3823756532
 20
97.3828238739
 30
0.0
 11
68.3014355455
 21
97.3828238739
 31
0.0
  0
LINE
  5
EF
330
1F
100
AcDbEntity
  8
0
  6
HIDDEN
 62
     7
370
     0
100
AcDbLine
 10
68.3014355455
 20
123.7828238739
 30
0.0
 11
63.3823756532
 21
123.7828238739
 31
0.0
  0
ARC
  5
F0
330
1F
100
AcDbEntity
  8
0
  6
HIDDEN
 62
     7
370
     0
100
AcDbCircle
 10
68.3014355455
 20
97.7828238739
 30
0.0
 40
0.4000000000000057
100
AcDbArc
 50
270.0
 51
330.0
  0
ARC
  5
F1
330
1F
100
AcDbEntity
  8
0
  6
HIDDEN
 62
     7
370
     0
100
AcDbCircle
 10
68.3014355455
 20
123.3828238739
 30
0.0
 40
0.3999999999999915
100
AcDbArc
 50
30.0
 51
90.0
  0
LINE
  5
F2
330
1F
100
AcDbEntity
  8
0
  6
HIDDEN
 62
     7
370
     0
100
AcDbLine
 10
68.647845707
 20
97.5828238739
 30
0.0
 11
69.7303774617
 21
99.4578238739
 31
0.0
  0
LINE
  5
F3
330
1F
100
AcDbEntity
  8
0
  6
HIDDEN
 62
     7
370
     0
100
AcDbLine
 10
69.7303774617
 20
121.7078238739
 30
0.0
 11
68.647845707
 21
123.5828238739
 31
0.0
  0
LINE
  5
F4
330
1F
100
AcDbEntity
  8
0
  6
HIDDEN
 62
     7
370
     0
100
AcDbLine
 10
69.7303774617
 20
99.4578238739
 30
0.0
 11
124.1823756532
 21
99.4578238739
 31
0.0
  0
LINE
  5
F5
330
1F
100
AcDbEntity
  8
0
  6
HIDDEN
 62
     7
370
     0
100
AcDbLine
 10
124.1823756532
 20
121.7078238739
 30
0.0
 11
69.7303774617
 21
121.7078238739
 31
0.0
  0
LINE
  5
F6
330
1F
100
AcDbEntity
  8
0
  6
HIDDEN
 62
     7
370
     0
100
AcDbLine
 10
124.1823756532
 20
99.4578238739
 30
0.0
 11
129.3647984923
 21
108.0828238739
 31
0.0
  0
LINE
  5
F7
330
1F
100
AcDbEntity
  8
0
  6
HIDDEN
 62
     7
370
     0
100
AcDbLine
 10
129.3647984923
 20
113.0828238739
 30
0.0
 11
124.1823756532
 21
121.7078238739
 31
0.0
  0
ARC
  5
F8
330
1F
100
AcDbEntity
  8
0
  6
HIDDEN
 62
     7
370
     0
100
AcDbCircle
 10
214.6770536551
 20
117.2828238739
 30
0.0
 40
0.8000000000000046
100
AcDbArc
 50
75.0
 51
90.0
  0
ARC
  5
F9
330
1F
100
AcDbEntity
  8
0
  6
HIDDEN
 62
     7
370
     0
100
AcDbCircle
 10
214.6770536551
 20
103.8828238739
 30
0.0
 40
0.8000000000000046
100
AcDbArc
 50
270.0
 51
285.0
  0
LINE
  5
FA
330
1F
100
AcDbEntity
  8
0
  6
HIDDEN
 62
     7
370
     0
100
AcDbLine
 10
214.6770536551
 20
118.0828238739
 30
0.0
 11
214.0823756532
 21
118.0828238739
 31
0.0
  0
LINE
  5
FB
330
1F
100
AcDbEntity
  8
0
  6
HIDDEN
 62
     7
370
     0
100
AcDbLine
 10
214.0823756532
 20
103.0828238739
 30
0.0
 11
214.6770536551
 21
103.0828238739
 31
0.0
  0
ARC
  5
FC
330
1F
100
AcDbEntity
  8
0
  6
HIDDEN
 62
     7
370
     0
100
AcDbCircle
 10
214.0823756532
 20
117.2828238739
 30
0.0
 40
0.8000000000000114
100
AcDbArc
 50
90.0
 51
180.0
  0
ARC
  5
FD
330
1F
100
AcDbEntity
  8
0
  6
HIDDEN
 62
     7
370
     0
100
AcDbCircle
 10
214.0823756532
 20
103.8828238739
 30
0.0
 40
0.8000000000000114
100
AcDbArc
 50
180.0
 51
270.0
  0
LINE
  5
FE
330
1F
100
AcDbEntity
  8
0
  6
HIDDEN
 62
     7
370
     0
100
AcDbLine
 10
214.8841088912
 20
103.1100832129
 30
0.0
 11
216.648401057
 21
103.5828238739
 31
0.0
  0
LINE
  5
FF
330
1F
100
AcDbEntity
  8
0
  6
HIDDEN
 62
     7
370
     0
100
AcDbLine
 10
216.648401057
 20
117.5828238739
 30
0.0
 11
214.8841088912
 21
118.0555645349
 31
0.0
  0
LINE
  5
100
330
1F
100
AcDbEntity
  8
0
  6
HIDDEN
 62
     7
370
     0
100
AcDbLine
 10
222.8823756532
 20
117.5828238739
 30
0.0
 11
216.648401057
 21
117.5828238739
 31
0.0
  0
LINE
  5
101
330
1F
100
AcDbEntity
  8
0
  6
HIDDEN
 62
     7
370
     0
100
AcDbLine
 10
216.648401057
 20
103.5828238739
 30
0.0
 11
222.8823756532
 21
103.5828238739
 31
0.0
  0
LINE
  5
102
330
1F
100
AcDbEntity
  8
0
  6
HIDDEN
 62
     7
370
     0
100
AcDbLine
 10
170.1323756532
 20
148.0828238739
 30
0.0
 11
170.1323756532
 21
147.6828238739
 31
0.0
  0
LINE
  5
103
330
1F
100
AcDbEntity
  8
0
  6
HIDDEN
 62
     7
370
     0
100
AcDbLine
 10
179.6323756532
 20
147.6828238739
 30
0.0
 11
179.6323756532
 21
148.0828238739
 31
0.0
  0
LINE
  5
104
330
1F
100
AcDbEntity
  8
0
  6
HIDDEN
 62
     7
370
     0
100
AcDbLine
 10
170.1323756532
 20
147.6828238739
 30
0.0
 11
174.8823756532
 21
144.8287359335
 31
0.0
  0
LINE
  5
105
330
1F
100
AcDbEntity
  8
0
  6
HIDDEN
 62
     7
370
     0
100
AcDbLine
 10
174.8823756532
 20
144.8287359335
 30
0.0
 11
179.6323756532
 21
147.6828238739
 31
0.0
  0
LINE
  5
106
330
1F
100
AcDbEntity
  8
0
  6
HIDDEN
 62
     7
370
     0
100
AcDbLine
 10
229.7823756532
 20
120.9857722888
 30
0.0
 11
229.3483919229
 21
120.5517887067
 31
0.0
  0
LINE
  5
107
330
1F
100
AcDbEntity
  8
0
  6
HIDDEN
 62
     7
370
     0
100
AcDbLine
 10
229.3483913886
 20
100.6138599989
 30
0.0
 11
229.7823756532
 21
100.1798758264
 31
0.0
  0
LINE
  5
108
330
1F
100
AcDbEntity
  8
0
  6
HIDDEN
 62
     7
370
     0
100
AcDbLine
 10
129.3647984923
 20
108.0828238739
 30
0.0
 11
213.2823756532
 21
108.0828238739
 31
0.0
  0
LINE
  5
109
330
1F
100
AcDbEntity
  8
0
  6
HIDDEN
 62
     7
370
     0
100
AcDbLine
 10
213.2823756532
 20
113.0828238739
 30
0.0
 11
129.3647984923
 21
113.0828238739
 31
0.0
  0
LINE
  5
10A
330
1F
100
AcDbEntity
  8
0
  6
HIDDEN
 62
     7
370
     0
100
AcDbLine
 10
229.3549044833
 20
120.5578238739
 30
0.0
 11
222.8823756532
 21
120.5578238739
 31
0.0
  0
LINE
  5
10B
330
1F
100
AcDbEntity
  8
0
  6
HIDDEN
 62
     7
370
     0
100
AcDbLine
 10
222.8823756532
 20
100.6078238739
 30
0.0
 11
229.3553473975
 21
100.6078238739
 31
0.0
  0
DIMENSION
  5
10C
330
1F
100
AcDbEntity
  8
VERMASSUNG
100
AcDbDimension
  2
_D
 10
53.6457366463
 20
159.7953238739
 30
0.0
 11
53.6457366463
 21
110.5828238739
 31
0.0
 70
   160
  1
CAT 50 %%c<>
 71
     2
 42
-1.0
  3
SLDDIMSTYLE0
100
AcDbAlignedDimension
 13
182.2323756532
 23
61.3703238739
 33
0.0
 14
182.2323756532
 24
159.7953238739
 34
0.0
 50
90.0
100
AcDbRotatedDimension
  0
DIMENSION
  5
119
330
1F
100
AcDbEntity
  8
VERMASSUNG
100
AcDbDimension
  2
_D_1
 10
237.8093968911
 20
103.5828238739
 30
0.0
 11
237.8093968911
 21
110.5828238739
 31
0.0
 70
   160
  1
%%c<>
 71
     2
 42
-1.0
  3
SLDDIMSTYLE0
100
AcDbAlignedDimension
 13
222.8823756532
 23
117.5828238739
 33
0.0
 14
222.8823756532
 24
103.5828238739
 34
0.0
 50
90.0
100
AcDbRotatedDimension
  0
DIMENSION
  5
124
330
1F
100
AcDbEntity
  8
VERMASSUNG
100
AcDbDimension
  2
_D_2
 10
229.7823756532
 20
171.7705650024
 30
0.0
 11
145.9823756532
 21
171.7705650024
 31
0.0
 70
   160
  1
(<>)
 71
     2
 42
-1.0
  3
SLDDIMSTYLE0
100
AcDbAlignedDimension
 13
62.1823756532
 23
128.9616684013
 33
0.0
 14
229.7823756532
 24
122.8828238739
 34
0.0
100
AcDbRotatedDimension
  0
DIMENSION
  5
130
330
1F
100
AcDbEntity
  8
VERMASSUNG
100
AcDbDimension
  2
_D_3
 10
229.7823756532
 20
165.7705650024
 30
0.0
 11
196.7823756532
 21
165.7705650024
 31
0.0
 70
   160
  1
<>
 71
     2
 42
-1.0
  3
SLDDIMSTYLE0
100
AcDbAlignedDimension
 13
163.7823756532
 23
145.5078238739
 33
0.0
 14
229.7823756532
 24
122.8828238739
 34
0.0
100
AcDbRotatedDimension
  0
DIMENSION
  5
13A
330
1F
100
AcDbEntity
  8
VERMASSUNG
100
AcDbDimension
  2
_D_4
 10
229.7823756532
 20
159.7705650024
 30
0.0
 11
214.2823756532
 21
159.7705650024
 31
0.0
 70
   160
  1
(<>)
 71
     2
 42
-1.0
  3
SLDDIMSTYLE0
100
AcDbAlignedDimension
 13
198.7823756532
 23
144.5078238739
 33
0.0
 14
229.7823756532
 24
122.8828238739
 34
0.0
100
AcDbRotatedDimension
  0
DIMENSION
  5
146
330
1F
100
AcDbEntity
  8
VERMASSUNG
100
AcDbDimension
  2
_D_5
 10
243.8093968911
 20
98.0828238739
 30
0.0
 11
243.8093968911
 21
110.5828238739
 31
0.0
 70
   160
  1
ST2 %%c<>
 71
     2
 42
-1.0
  3
SLDDIMSTYLE0
100
AcDbAlignedDimension
 13
229.5823756532
 23
123.0828238739
 33
0.0
 14
229.5823756532
 24
98.0828238739
 34
0.0
 50
90.0
100
AcDbRotatedDimension
  0
LINE
  5
152
330
1F
100
AcDbEntity
  8
VERMASSUNG
  6
CENTERX2
 62
     7
370
     0
100
AcDbLine
 10
60.1823756532
 20
110.5828238739
 30
0.0
 11
231.8411972421
 21
110.5828238739
 31
0.0
  0
LINE
  5
153
330
1F
100
AcDbEntity
  8
0
  6
Continuous
 62
     7
370
    15
100
AcDbLine
 10
275.9488878406
 20
38.6053916766
 30
0.0
 11
275.8604851308
 21
38.6564420635
 31
0.0
  0
LINE
  5
154
330
1F
100
AcDbEntity
  8
0
  6
Continuous
 62
     7
370
    15
100
AcDbLine
 10
274.2692363555
 20
38.6564420635
 30
0.0
 11
274.1808336458
 21
38.6053916766
 31
0.0
  0
LINE
  5
155
330
1F
100
AcDbEntity
  8
0
  6
Continuous
 62
     7
370
    15
100
AcDbLine
 10
276.3148607432
 20
37.9931519293
 30
0.0
 11
276.3148607432
 21
38.0952195308
 31
0.0
  0
LINE
  5
156
330
1F
100
AcDbEntity
  8
0
  6
Continuous
 62
     7
370
    15
100
AcDbLine
 10
273.8148607432
 20
38.0952195308
 30
0.0
 11
273.8148607432
 21
37.9931519293
 31
0.0
  0
SPLINE
  5
157
330
1F
100
AcDbEntity
  8
0
  6
Continuous
 62
     7
370
    15
100
AcDbSpline
210
0.0
220
0.0
230
1.0
 70
     8
 71
     3
 72
     9
 73
     5
 74
     0
 42
0.000000001
 43
0.00000001
 40
0.0
 40
0.0
 40
0.0
 40
0.0
 40
0.9576060801208227
 40
1.0
 40
1.0
 40
1.0
 40
1.0
 10
277.3745152288704
 20
56.55208509696035
 30
0.0
 10
277.3448895093491
 20
56.66884075784066
 30
0.0
 10
277.3139522376082
 20
56.79076527701829
 30
0.0
 10
277.2721713048523
 20
56.90285285087376
 30
0.0
 10
277.2704000473366
 20
56.90760468249925
 30
0.0
  0
LINE
  5
158
330
1F
100
AcDbEntity
  8
0
  6
Continuous
 62
     7
370
    15
100
AcDbLine
 10
272.8712968863
 20
62.7723050241
 30
0.0
 11
271.5193676824
 21
63.5527571411
 31
0.0
  0
SPLINE
  5
159
330
1F
100
AcDbEntity
  8
0
  6
Continuous
 62
     7
370
    15
100
AcDbSpline
210
0.0
220
0.0
230
1.0
 70
     8
 71
     3
 72
    18
 73
    14
 74
     0
 42
0.000000001
 43
0.00000001
 40
0.0
 40
0.0
 40
0.0
 40
0.0
 40
0.0290197084460756
 40
0.1264384005373714
 40
0.2245112672353798
 40
0.3231577300394634
 40
0.4222153399656384
 40
0.5215150065661625
 40
0.6209229964665023
 40
0.7203403509543399
 40
0.8197184453723878
 40
0.9190414339940666
 40
1.0
 40
1.0
 40
1.0
 40
1.0
 10
259.9395391134122
 20
22.35648694379625
 30
0.0
 10
260.0391131128842
 20
22.34200409544252
 30
0.0
 10
260.4729554187687
 20
22.27890255930986
 30
0.0
 10
261.2906194234955
 20
22.30819243706043
 30
0.0
 10
262.3839051052964
 20
22.44716260648976
 30
0.0
 10
263.5138349032034
 20
22.73540366828332
 30
0.0
 10
264.6656378918367
 20
23.15760229998947
 30
0.0
 10
265.8299423637667
 20
23.71348825581391
 30
0.0
 10
266.9955736999167
 20
24.39702390501781
 30
0.0
 10
268.1525975951226
 20
25.20101961205757
 30
0.0
 10
269.2892682126849
 20
26.1211753421688
 30
0.0
 10
270.3336537120876
 20
27.07436260314566
 30
0.0
 10
270.9764748484383
 20
27.76197097564086
 30
0.0
 10
271.2651448541123
 20
28.07075346825842
 30
0.0
  0
SPLINE
  5
15A
330
1F
100
AcDbEntity
  8
0
  6
Continuous
 62
     7
370
    15
100
AcDbSpline
210
0.0
220
0.0
230
1.0
 70
     8
 71
     3
 72
    18
 73
    14
 74
     0
 42
0.000000001
 43
0.00000001
 40
0.0
 40
0.0
 40
0.0
 40
0.0
 40
0.0320455817083699
 40
0.1312324016708618
 40
0.2304881556011738
 40
0.3298233427002154
 40
0.4292426038530383
 40
0.5287395011366121
 40
0.6282882059710324
 40
0.7278062748979937
 40
0.8271737226893789
 40
0.9262215282062124
 40
1.0
 40
1.0
 40
1.0
 40
1.0
 10
277.5118256894057
 20
38.89798714445022
 30
0.0
 10
277.5648921090103
 20
39.05834581544802
 30
0.0
 10
277.7822086101164
 20
39.71504331950028
 30
0.0
 10
278.0622676599998
 20
40.86133605743088
 30
0.0
 10
278.3461149605766
 20
42.32106734397934
 30
0.0
 10
278.5162088748502
 20
43.74689245916072
 30
0.0
 10
278.5793754296949
 20
45.12712718732936
 30
0.0
 10
278.5320174555417
 20
46.45001136906959
 30
0.0
 10
278.3739878745531
 20
47.70364296729976
 30
0.0
 10
278.1067333460875
 20
48.87793607608015
 30
0.0
 10
277.7276380213443
 20
49.95684686213932
 30
0.0
 10
277.2950614987907
 20
50.86510877568521
 30
0.0
 10
276.9438505449037
 20
51.35987288829504
 30
0.0
 10
276.7939207549536
 20
51.57108463626988
 30
0.0
  0
LINE
  5
15B
330
1F
100
AcDbEntity
  8
0
  6
Continuous
 62
     7
370
    15
100
AcDbLine
 10
269.0259912484
 20
64.992152718
 30
0.0
 11
267.6829008793
 21
65.7675022843
 31
0.0
  0
LINE
  5
15C
330
1F
100
AcDbEntity
  8
0
  6
Continuous
 62
     7
370
    15
100
AcDbLine
 10
252.2628953632
 20
26.0937895113
 30
0.0
 11
257.3363865182
 21
23.1649254101
 31
0.0
  0
LINE
  5
15D
330
1F
100
AcDbEntity
  8
0
  6
Continuous
 62
     7
370
    15
100
AcDbLine
 10
274.7974673869
 20
53.4116819287
 30
0.0
 11
269.7239762319
 21
56.3405460299
 31
0.0
  0
SPLINE
  5
15E
330
1F
100
AcDbEntity
  8
0
  6
Continuous
 62
     7
370
    15
100
AcDbSpline
210
0.0
220
0.0
230
1.0
 70
     8
 71
     3
 72
    28
 73
    24
 74
     0
 42
0.000000001
 43
0.00000001
 40
0.0
 40
0.0
 40
0.0
 40
0.0
 40
0.0239534528998374
 40
0.0739191058448234
 40
0.1239332026334845
 40
0.1739730555098914
 40
0.2240222315896016
 40
0.2740679016615358
 40
0.3241051936511662
 40
0.3741319812361819
 40
0.4241479204625441
 40
0.4741537721254513
 40
0.5241509533077426
 40
0.5741412548431037
 40
0.6241266716330842
 40
0.6741093063326684
 40
0.7240913185339601
 40
0.7740746274445066
 40
0.8240609857760247
 40
0.8740526148326568
 40
0.9240517245961046
 40
0.9740604692170561
 40
1.0
 40
1.0
 40
1.0
 40
1.0
 10
260.1862045395136
 20
66.57905588486155
 30
0.0
 10
259.9754579454352
 20
66.5327671261886
 30
0.0
 10
259.3251049521004
 20
66.389922432103
 30
0.0
 10
258.2072212307752
 20
66.00371900143215
 30
0.0
 10
256.8436712588293
 20
65.43093920706427
 30
0.0
 10
255.4698906634738
 20
64.720852864767
 30
0.0
 10
254.0964195192106
 20
63.88753068876014
 30
0.0
 10
252.7312611295736
 20
62.93380510194496
 30
0.0
 10
251.3829344738513
 20
61.8664302034875
 30
0.0
 10
250.0596063354544
 20
60.69193018376006
 30
0.0
 10
248.7693195155904
 20
59.41767640031667
 30
0.0
 10
247.5198987086809
 20
58.05155541696296
 30
0.0
 10
246.3189276910189
 20
56.60200572669254
 30
0.0
 10
245.1737031942569
 20
55.07795069721217
 30
0.0
 10
244.091196179374
 20
53.48875452135438
 30
0.0
 10
243.078001823565
 20
51.84416444305058
 30
0.0
 10
242.1403320588941
 20
50.15426378263545
 30
0.0
 10
241.2838640598604
 20
48.42938593324068
 30
0.0
 10
240.5141285731497
 20
46.68014915092058
 30
0.0
 10
239.8348854998497
 20
44.91700343635257
 30
0.0
 10
239.2540413553442
 20
43.15159797470513
 30
0.0
 10
238.8405079592251
 20
41.67389595650967
 30
0.0
 10
238.6460746732
 20
40.79385735342534
 30
0.0
 10
238.5796675272674
 20
40.49328715201543
 30
0.0
  0
LINE
  5
15F
330
1F
100
AcDbEntity
  8
0
  6
Continuous
 62
     7
370
    15
100
AcDbLine
 10
277.310643053
 20
26.6948938275
 30
0.0
 11
277.3813422387
 21
26.7357208676
 31
0.0
  0
LINE
  5
160
330
1F
100
AcDbEntity
  8
0
  6
Continuous
 62
     7
370
    15
100
AcDbLine
 10
281.7293421558
 20
34.2674937187
 30
0.0
 11
281.7293421558
 21
34.3491345299
 31
0.0
  0
LINE
  5
161
330
1F
100
AcDbEntity
  8
0
  6
Continuous
 62
     7
370
    15
100
AcDbLine
 10
280.4346708129
 20
37.2106645703
 30
0.0
 11
270.959439945
 21
42.6805989195
 31
0.0
  0
LINE
  5
162
330
1F
100
AcDbEntity
  8
0
  6
Continuous
 62
     7
370
    15
100
AcDbLine
 10
264.709947866
 20
31.8549881398
 30
0.0
 11
274.1851787339
 21
26.3850537906
 31
0.0
  0
SPLINE
  5
163
330
1F
100
AcDbEntity
  8
0
  6
Continuous
 62
     7
370
    15
100
AcDbSpline
210
0.0
220
0.0
230
1.0
 70
     8
 71
     3
 72
    14
 73
    10
 74
     0
 42
0.000000001
 43
0.00000001
 40
0.0
 40
0.0
 40
0.0
 40
0.0
 40
0.0757955365063558
 40
0.2382614832066851
 40
0.3999047983354841
 40
0.5605751214975
 40
0.7207162771127057
 40
0.8815760874859203
 40
1.0
 40
1.0
 40
1.0
 40
1.0
 10
276.0765647618176
 20
33.60792409415568
 30
0.0
 10
276.1445806420768
 20
33.69568766506556
 30
0.0
 10
276.3583869591656
 20
33.97157038244363
 30
0.0
 10
276.7646671745532
 20
34.3468226079932
 30
0.0
 10
277.2639080676117
 20
34.7105186822527
 30
0.0
 10
277.7561468936642
 20
34.9488049698828
 30
0.0
 10
278.2097656406983
 20
35.05677884559528
 30
0.0
 10
278.5767556373704
 20
35.05546195913568
 30
0.0
 10
278.7583885970681
 20
34.97355427204213
 30
0.0
 10
278.8354059237728
 20
34.9388231796952
 30
0.0
  0
SPLINE
  5
164
330
1F
100
AcDbEntity
  8
0
  6
Continuous
 62
     7
370
    15
100
AcDbSpline
210
0.0
220
0.0
230
1.0
 70
     8
 71
     3
 72
    11
 73
     7
 74
     0
 42
0.000000001
 43
0.00000001
 40
0.0
 40
0.0
 40
0.0
 40
0.0
 40
0.0830097282134249
 40
0.444333462625258
 40
0.8064322411878537
 40
1.0
 40
1.0
 40
1.0
 40
1.0
 10
275.0894697638079
 20
31.8871066333381
 30
0.0
 10
275.1075396735029
 20
31.9378634711861
 30
0.0
 10
275.2042640661361
 20
32.20955405490816
 30
0.0
 10
275.444316406593
 20
32.69702680180875
 30
0.0
 10
275.7633969095725
 20
33.23216173340246
 30
0.0
 10
275.9956565604717
 20
33.51084434435361
 30
0.0
 10
276.0765647618176
 20
33.60792409415568
 30
0.0
  0
LINE
  5
165
330
1F
100
AcDbEntity
  8
0
  6
Continuous
 62
     7
370
    15
100
AcDbLine
 10
253.8231136319
 20
63.6755850116
 30
0.0
 11
223.2671722204
 21
74.6867351006
 31
0.0
  0
LINE
  5
166
330
1F
100
AcDbEntity
  8
0
  6
Continuous
 62
     7
370
    15
100
AcDbLine
 10
213.1433131477
 20
57.1497966541
 30
0.0
 11
242.7551514585
 21
32.145805182
 31
0.0
  0
SPLINE
  5
167
330
1F
100
AcDbEntity
  8
0
  6
Continuous
 62
     7
370
    15
100
AcDbSpline
210
0.0
220
0.0
230
1.0
 70
     8
 71
     3
 72
    10
 73
     6
 74
     0
 42
0.000000001
 43
0.00000001
 40
0.0
 40
0.0
 40
0.0
 40
0.0
 40
0.1498982200198419
 40
0.7091749831309856
 40
1.0
 40
1.0
 40
1.0
 40
1.0
 10
275.5016261673103
 20
28.82015422121812
 30
0.0
 10
275.4691253321798
 20
28.83107539136947
 30
0.0
 10
275.3153624709372
 20
28.88274392123477
 30
0.0
 10
275.152495966328
 20
29.04838081558277
 30
0.0
 10
275.0385432633523
 20
29.2362160938853
 30
0.0
 10
274.9995593469017
 20
29.30047569110931
 30
0.0
  0
SPLINE
  5
168
330
1F
100
AcDbEntity
  8
0
  6
Continuous
 62
     7
370
    15
100
AcDbSpline
210
0.0
220
0.0
230
1.0
 70
     8
 71
     3
 72
    13
 73
     9
 74
     0
 42
0.000000001
 43
0.00000001
 40
0.0
 40
0.0
 40
0.0
 40
0.0
 40
0.0783635880346378
 40
0.2801491641804856
 40
0.4821402573723588
 40
0.6842428981752614
 40
0.8863888801550392
 40
1.0
 40
1.0
 40
1.0
 40
1.0
 10
255.7598554503442
 20
19.33862784190289
 30
0.0
 10
255.930263481206
 20
19.37476958876599
 30
0.0
 10
256.5394707496947
 20
19.50397602800214
 30
0.0
 10
257.615321205816
 20
19.86911125040062
 30
0.0
 10
258.9775051880123
 20
20.42730245610834
 30
0.0
 10
260.3504492135934
 20
21.130002682573
 30
0.0
 10
261.5251195726952
 20
21.81781228630458
 30
0.0
 10
262.235113411336
 20
22.31779940321345
 30
0.0
 10
262.490573049852
 20
22.4976974828823
 30
0.0
  0
LINE
  5
169
330
1F
100
AcDbEntity
  8
0
  6
Continuous
 62
     7
370
    15
100
AcDbLine
 10
246.9151173675
 20
20.9323275012
 30
0.0
 11
248.2670465714
 21
20.1518753842
 31
0.0
  0
LINE
  5
16A
330
1F
100
AcDbEntity
  8
0
  6
Continuous
 62
     7
370
    15
100
AcDbLine
 10
243.0786505644
 20
23.1470726444
 30
0.0
 11
244.4217409335
 21
22.3717230781
 31
0.0
  0
LINE
  5
16B
330
1F
100
AcDbEntity
  8
0
  6
Continuous
 62
     7
370
    15
100
AcDbLine
 10
238.5888799971
 20
29.3204088273
 30
0.0
 11
238.6906865023
 21
28.9806373024
 31
0.0
  0
SPLINE
  5
16C
330
1F
100
AcDbEntity
  8
0
  6
Continuous
 62
     7
370
    15
100
AcDbSpline
210
0.0
220
0.0
230
1.0
 70
     8
 71
     3
 72
    26
 73
    22
 74
     0
 42
0.000000001
 43
0.00000001
 40
0.0
 40
0.0
 40
0.0
 40
0.0
 40
0.0359731572096652
 40
0.0874258285889945
 40
0.1397358403342531
 40
0.193262761521436
 40
0.2479554279137137
 40
0.3034652662579792
 40
0.359377490634878
 40
0.4153552659526354
 40
0.4712405860330341
 40
0.5270034435210772
 40
0.582660636585499
 40
0.638250307457294
 40
0.6938195841966823
 40
0.7494160843658895
 40
0.805078751505798
 40
0.8608611678297751
 40
0.9168148771610926
 40
0.9729818348271612
 40
1.0
 40
1.0
 40
1.0
 40
1.0
 10
223.2992607024649
 20
74.65841114101063
 30
0.0
 10
223.1262168734168
 20
74.72170125000446
 30
0.0
 10
222.7056671827525
 20
74.87551566746097
 30
0.0
 10
221.976521136733
 20
74.95955103320925
 30
0.0
 10
221.1349715960735
 20
74.93353503946648
 30
0.0
 10
220.2572358649718
 20
74.76347263122408
 30
0.0
 10
219.355646905208
 20
74.45563904655404
 30
0.0
 10
218.4428951778265
 20
74.01088117499395
 30
0.0
 10
217.5349333175977
 20
73.43679537256983
 30
0.0
 10
216.6472072563041
 20
72.74389946829204
 30
0.0
 10
215.7935836846264
 20
71.94478999420558
 30
0.0
 10
214.9861115674507
 20
71.05268458662079
 30
0.0
 10
214.2356605100984
 20
70.08127416230123
 30
0.0
 10
213.5523177698339
 20
69.04483107505435
 30
0.0
 10
212.9454562264961
 20
67.9581890609138
 30
0.0
 10
212.4236536034747
 20
66.83666398009176
 30
0.0
 10
211.9947678941704
 20
65.6958889718848
 30
0.0
 10
211.6650952903614
 20
64.55116373459923
 30
0.0
 10
211.4424265742306
 20
63.41869579825337
 30
0.0
 10
211.3453854878308
 20
62.50327889267766
 30
0.0
 10
211.3370111272573
 20
61.97632688056446
 30
0.0
 10
211.3342911714591
 20
61.80517516478223
 30
0.0
  0
SPLINE
  5
16D
330
1F
100
AcDbEntity
  8
0
  6
Continuous
 62
     7
370
    15
100
AcDbSpline
210
0.0
220
0.0
230
1.0
 70
     8
 71
     3
 72
    13
 73
     9
 74
     0
 42
0.000000001
 43
0.00000001
 40
0.0
 40
0.0
 40
0.0
 40
0.0
 40
0.1005591798538992
 40
0.2901741077863016
 40
0.479789061992826
 40
0.667664289753524
 40
0.851996683480094
 40
1.0
 40
1.0
 40
1.0
 40
1.0
 10
211.3342911714591
 20
61.80517516478223
 30
0.0
 10
211.3376106345218
 20
61.61821509363122
 30
0.0
 10
211.347189294908
 20
61.07872211132239
 30
0.0
 10
211.4545293592536
 20
60.23112161848245
 30
0.0
 10
211.6960606672668
 20
59.29819229052957
 30
0.0
 10
212.0624982703837
 20
58.46330804209561
 30
0.0
 10
212.5036923926617
 20
57.76938473972039
 30
0.0
 10
212.8713254008768
 20
57.41701385159254
 30
0.0
 10
213.0350481149892
 20
57.26008801280949
 30
0.0
  0
LWPOLYLINE
  5
16E
330
1F
100
AcDbEntity
  8
0
  6
Continuous
 62
     7
370
    15
100
AcDbPolyline
 90
       17
 70
   128
 43
0.0
 10
274.2693656143
 20
37.7380575693
 10
274.0254962691
 20
37.9487538837
 10
273.9398607432
 20
38.1972871322
 10
274.0254962691
 20
38.4458203808
 10
274.2693656143
 20
38.6565166951
 10
274.6343418818
 20
38.7972994715
 10
275.0648607432
 20
38.8467358083
 10
275.4953796046
 20
38.7972994715
 10
275.860355872
 20
38.6565166951
 10
276.1042252172
 20
38.4458203808
 10
276.1898607432
 20
38.1972871322
 10
276.1042252172
 20
37.9487538837
 10
275.860355872
 20
37.7380575693
 10
275.4953796046
 20
37.597274793
 10
275.0648607432
 20
37.5478384561
 10
274.6343418818
 20
37.597274793
 10
274.2693656143
 20
37.7380575693
  0
LWPOLYLINE
  5
16F
330
1F
100
AcDbEntity
  8
0
  6
Continuous
 62
     7
370
    15
100
AcDbPolyline
 90
        6
 70
   128
 43
0.0
 10
274.1809772667
 20
37.5849644609
 10
273.9213684076
 20
37.8037462398
 10
273.8161945247
 20
38.0618931018
 10
273.8796599337
 20
38.3245408827
 10
274.1031932794
 20
38.5562175443
 10
274.1808336458
 20
38.6053916766
  0
LWPOLYLINE
  5
170
330
1F
100
AcDbEntity
  8
0
  6
Continuous
 62
     7
370
    15
100
AcDbPolyline
 90
       10
 70
   128
 43
0.0
 10
275.9488878406
 20
38.6053916766
 10
276.0961075864
 20
38.5030274154
 10
276.2816583111
 20
38.2604324547
 10
276.3028737818
 20
37.9955245732
 10
276.1568887315
 20
37.7440810481
 10
275.8634192502
 20
37.5400607208
 10
275.4621000176
 20
37.4110176671
 10
275.0071314199
 20
37.3743798663
 10
274.5599594871
 20
37.4350954565
 10
274.1809772667
 20
37.5849644609
  0
LWPOLYLINE
  5
171
330
1F
100
AcDbEntity
  8
0
  6
Continuous
 62
     7
370
    15
100
AcDbPolyline
 90
       17
 70
   128
 43
0.0
 10
274.5345306573
 20
37.8911340903
 10
274.3719510938
 20
38.0315982999
 10
274.3148607432
 20
38.1972871322
 10
274.3719510938
 20
38.3629759646
 10
274.5345306573
 20
38.5034401742
 10
274.7778481689
 20
38.5972953584
 10
275.0648607432
 20
38.6302529163
 10
275.3518733174
 20
38.5972953584
 10
275.5951908291
 20
38.5034401742
 10
275.7577703925
 20
38.3629759646
 10
275.8148607432
 20
38.1972871322
 10
275.7577703925
 20
38.0315982999
 10
275.5951908291
 20
37.8911340903
 10
275.3518733174
 20
37.7972789061
 10
275.0648607432
 20
37.7643213482
 10
274.7778481689
 20
37.7972789061
 10
274.5345306573
 20
37.8911340903
  0
SPLINE
  5
172
330
1F
100
AcDbEntity
  8
0
  6
Continuous
 62
     7
370
    15
100
AcDbSpline
210
0.0
220
0.0
230
1.0
 70
     8
 71
     3
 72
     9
 73
     5
 74
     0
 42
0.000000001
 43
0.00000001
 40
0.0
 40
0.0
 40
0.0
 40
0.0
 40
0.6300416123972751
 40
1.0
 40
1.0
 40
1.0
 40
1.0
 10
274.6230068275681
 20
37.84222676581711
 30
0.0
 10
274.5668583848824
 20
37.88076214904159
 30
0.0
 10
274.4777397590951
 20
37.94192538408231
 30
0.0
 10
274.3974629151371
 20
38.03274137406908
 30
0.0
 10
274.3677638233846
 20
38.06633951129312
 30
0.0
  0
SPLINE
  5
173
330
1F
100
AcDbEntity
  8
0
  6
Continuous
 62
     7
370
    15
100
AcDbSpline
210
0.0
220
0.0
230
1.0
 70
     8
 71
     3
 72
    10
 73
     6
 74
     0
 42
0.000000001
 43
0.00000001
 40
0.0
 40
0.0
 40
0.0
 40
0.0
 40
0.4391119879276942
 40
0.7513633230734779
 40
1.0
 40
1.0
 40
1.0
 40
1.0
 10
275.7619576629476
 20
38.28199867922642
 30
0.0
 10
275.7352180284393
 20
38.18943641697726
 30
0.0
 10
275.6894639128736
 20
38.03105338288396
 30
0.0
 10
275.622951786656
 20
37.91433809083525
 30
0.0
 10
275.589846420983
 20
37.890250852322
 30
0.0
 10
275.5751711062459
 20
37.87957319330387
 30
0.0
  0
SPLINE
  5
174
330
1F
100
AcDbEntity
  8
0
  6
Continuous
 62
     7
370
    15
100
AcDbSpline
210
0.0
220
0.0
230
1.0
 70
     8
 71
     3
 72
    11
 73
     7
 74
     0
 42
0.000000001
 43
0.00000001
 40
0.0
 40
0.0
 40
0.0
 40
0.0
 40
0.1849308168245047
 40
0.5198464202157134
 40
0.871443823369318
 40
1.0
 40
1.0
 40
1.0
 40
1.0
 10
275.2516472998678
 20
38.57659458118231
 30
0.0
 10
275.2813498564386
 20
38.5435241477396
 30
0.0
 10
275.3648446896403
 20
38.45056210531001
 30
0.0
 10
275.5207037404662
 20
38.32751580345587
 30
0.0
 10
275.6646459508674
 20
38.2849169017677
 30
0.0
 10
275.7414059607372
 20
38.28261499189188
 30
0.0
 10
275.7619576629476
 20
38.28199867922642
 30
0.0
  0
SPLINE
  5
175
330
1F
100
AcDbEntity
  8
0
  6
Continuous
 62
     7
370
    15
100
AcDbSpline
210
0.0
220
0.0
230
1.0
 70
     8
 71
     3
 72
    10
 73
     6
 74
     0
 42
0.000000001
 43
0.00000001
 40
0.0
 40
0.0
 40
0.0
 40
0.0
 40
0.439111987927694
 40
0.7513633230734793
 40
0.9999999999999999
 40
0.9999999999999999
 40
0.9999999999999999
 40
0.9999999999999999
 10
274.5545503800863
 20
38.46876499721566
 30
0.0
 10
274.654344054647
 20
38.44924885946157
 30
0.0
 10
274.8251007385934
 20
38.41585484946042
 30
0.0
 10
275.0733273729571
 20
38.48083437641234
 30
0.0
 10
275.1968782796521
 20
38.54718287895832
 30
0.0
 10
275.2516472998678
 20
38.57659458118231
 30
0.0
  0
SPLINE
  5
176
330
1F
100
AcDbEntity
  8
0
  6
Continuous
 62
     7
370
    15
100
AcDbSpline
210
0.0
220
0.0
230
1.0
 70
     8
 71
     3
 72
    10
 73
     6
 74
     0
 42
0.000000001
 43
0.00000001
 40
0.0
 40
0.0
 40
0.0
 40
0.0
 40
0.4391119879276927
 40
0.7513633230734783
 40
1.0
 40
1.0
 40
1.0
 40
1.0
 10
274.3677638233846
 20
38.06633951129312
 30
0.0
 10
274.3945034578928
 20
38.08899657317951
 30
0.0
 10
274.4402575734585
 20
38.1277650098837
 30
0.0
 10
274.5067696996762
 20
38.29764608949601
 30
0.0
 10
274.5398750653492
 20
38.41620769148688
 30
0.0
 10
274.5545503800863
 20
38.46876499721566
 30
0.0
  0
LINE
  5
177
330
1F
100
AcDbEntity
  8
0
  6
Continuous
 62
     7
370
    15
100
AcDbLine
 10
274.5545503801
 20
37.8799976355
 30
0.0
 11
274.5545503801
 21
38.4687649972
 31
0.0
  0
LINE
  5
178
330
1F
100
AcDbEntity
  8
0
  6
Continuous
 62
     7
370
    15
100
AcDbLine
 10
275.2516472999
 20
37.7779636879
 30
0.0
 11
275.2516472999
 21
38.5765945812
 31
0.0
  0
SPLINE
  5
179
330
1F
100
AcDbEntity
  8
0
  6
Continuous
 62
     7
370
    15
100
AcDbSpline
210
0.0
220
0.0
230
1.0
 70
     8
 71
     3
 72
    10
 73
     6
 74
     0
 42
0.000000001
 43
0.00000001
 40
0.0
 40
0.0
 40
0.0
 40
0.0
 40
0.4070493260303821
 40
0.8151900576559562
 40
0.9999999999999999
 40
0.9999999999999999
 40
0.9999999999999999
 40
0.9999999999999999
 10
277.3280459428534
 20
56.25898929695028
 30
0.0
 10
277.3463269644006
 20
56.29786176096542
 30
0.0
 10
277.3829380236904
 20
56.37571091622816
 30
0.0
 10
277.3969915683356
 20
56.48266466657427
 30
0.0
 10
277.3791489106242
 20
56.53538885629669
 30
0.0
 10
277.3735877388646
 20
56.55182184961383
 30
0.0
  0
LWPOLYLINE
  5
17A
330
1F
100
AcDbEntity
  8
0
  6
Continuous
 62
     7
370
    15
100
AcDbPolyline
 90
       17
 70
   128
 43
0.0
 10
244.3258064662
 20
37.5690829895
 10
244.6723974518
 20
38.9591072253
 10
245.229871095
 20
40.8122749142
 10
245.8962874846
 20
42.6691368867
 10
246.6669781612
 20
44.5166852322
 10
247.5365441909
 20
46.3419772853
 10
248.4988939861
 20
48.132226293
 10
249.5472859796
 20
49.8748909898
 10
250.6743758511
 20
51.5577634538
 10
251.8722679765
 20
53.1690546265
 10
253.1325707393
 20
54.6974768992
 10
254.4464553168
 20
56.1323231864
 10
255.8047175284
 20
57.4635419323
 10
257.1978423139
 20
58.6818075248
 10
258.6160703899
 20
59.7785856249
 10
260.0494666163
 20
60.7461929521
 10
260.1980891704
 20
60.8385615956
  0
SPLINE
  5
17B
330
1F
100
AcDbEntity
  8
0
  6
Continuous
 62
     7
370
    15
100
AcDbSpline
210
0.0
220
0.0
230
1.0
 70
     8
 71
     3
 72
    12
 73
     8
 74
     0
 42
0.000000001
 43
0.00000001
 40
0.0
 40
0.0
 40
0.0
 40
0.0
 40
0.2499999999999988
 40
0.2499999999999988
 40
0.4999999999999976
 40
0.4999999999999976
 40
1.0
 40
1.0
 40
1.0
 40
1.0
 10
243.8683305742125
 20
37.45629446831153
 30
0.0
 10
243.9022649264751
 20
37.43670458373279
 30
0.0
 10
243.9407278817115
 20
37.40954707334831
 30
0.0
 10
244.0149997746222
 20
37.35042650112175
 30
0.0
 10
244.0502778081758
 20
37.31906599419459
 30
0.0
 10
244.1455804266615
 20
37.22731853047176
 30
0.0
 10
244.1942694478347
 20
37.17065280951961
 30
0.0
 10
244.2277718357051
 20
37.12261585061088
 30
0.0
  0
LWPOLYLINE
  5
17C
330
1F
100
AcDbEntity
  8
0
  6
Continuous
 62
     7
370
    15
100
AcDbPolyline
 90
       14
 70
   128
 43
0.0
 10
265.5117573151
 20
63.5796782334
 10
265.5899246113
 20
63.5978297831
 10
266.955656286
 20
63.8384973135
 10
268.2772925206
 20
63.9246670899
 10
269.5457080865
 20
63.8557441535
 10
270.7521452167
 20
63.6322043822
 10
271.8882740742
 20
63.2555912051
 10
272.9462502648
 20
62.7285049451
 10
273.918768999
 20
62.054584866
 10
274.7991155275
 20
61.2384840444
 10
275.5812115037
 20
60.2858372431
 10
276.2596569511
 20
59.2032220054
 10
276.8297675476
 20
57.9981132412
 10
277.1874387054
 20
57.0076252643
  0
LINE
  5
17D
330
1F
100
AcDbEntity
  8
0
  6
Continuous
 62
     7
370
    15
100
AcDbLine
 10
242.5164013704
 20
38.2367465853
 30
0.0
 11
243.8683305742
 21
37.4562944683
 31
0.0
  0
LWPOLYLINE
  5
17E
330
1F
100
AcDbEntity
  8
0
  6
Continuous
 62
     7
370
    15
100
AcDbPolyline
 90
       26
 70
   128
 43
0.0
 10
242.5164013704
 20
38.2367465853
 10
242.9792127257
 20
40.0855801834
 10
243.5541394498
 20
41.9493065123
 10
244.2372119649
 20
43.8150574858
 10
245.0237140015
 20
45.6699510389
 10
245.9082151614
 20
47.5011800712
 10
246.8846084122
 20
49.2961008742
 10
247.9461522533
 20
51.042320429
 10
249.0855172622
 20
52.7277819744
 10
250.2948367008
 20
54.3408482523
 10
251.5657608311
 20
55.8703818574
 10
252.8895145659
 20
57.305822135
 10
254.2569580563
 20
58.6372580972
 10
255.6586497979
 20
59.8554968534
 10
257.0849118193
 20
60.9521270821
 10
258.5258965038
 20
61.9195771073
 10
259.9716545824
 20
62.7511671765
 10
261.4122038279
 20
63.4411555818
 10
262.8375979778
 20
63.9847783028
 10
264.2379954074
 20
64.3782819001
 10
265.6037270822
 20
64.6189494305
 10
266.9253633168
 20
64.7051192069
 10
268.1937788826
 20
64.6361962705
 10
269.4002160128
 20
64.4126564992
 10
270.5363448703
 20
64.0360433221
 10
271.5193676824
 20
63.5527571411
  0
ARC
  5
17F
330
1F
100
AcDbEntity
  8
0
  6
Continuous
 62
     7
370
    15
100
AcDbCircle
 10
247.7574933128
 20
29.2839337554
 30
0.0
 40
0.614721923028755
100
AcDbArc
 50
302.60547834
 51
357.3945215143
  0
LINE
  5
180
330
1F
100
AcDbEntity
  8
0
  6
Continuous
 62
     7
370
    15
100
AcDbLine
 10
248.3715797534
 20
31.938876432
 30
0.0
 11
248.3715797534
 21
29.2559894145
 31
0.0
  0
LINE
  5
181
330
1F
100
AcDbEntity
  8
0
  6
Continuous
 62
     7
370
    15
100
AcDbLine
 10
248.3715797534
 20
39.0953061977
 30
0.0
 11
248.3715797534
 21
36.4124191802
 31
0.0
  0
ARC
  5
182
330
1F
100
AcDbEntity
  8
0
  6
Continuous
 62
     7
370
    15
100
AcDbCircle
 10
248.1991500064
 20
39.1232770765
 30
0.0
 40
0.1746836789714394
100
AcDbArc
 50
350.7859630096
 51
129.2032852357
  0
LINE
  5
183
330
1F
100
AcDbEntity
  8
0
  6
Continuous
 62
     7
370
    15
100
AcDbLine
 10
248.0887370409
 20
39.2586409001
 30
0.0
 11
244.2739463597
 21
37.0564091157
 31
0.0
  0
LINE
  5
184
330
1F
100
AcDbEntity
  8
0
  6
Continuous
 62
     7
370
    15
100
AcDbLine
 10
244.2277718357
 20
37.1226158506
 30
0.0
 11
244.2739463597
 21
37.0564091157
 31
0.0
  0
LINE
  5
185
330
1F
100
AcDbEntity
  8
0
  6
Continuous
 62
     7
370
    15
100
AcDbLine
 10
277.2233884085
 20
56.0777171305
 30
0.0
 11
277.3280459429
 21
56.258989297
 31
0.0
  0
LINE
  5
186
330
1F
100
AcDbEntity
  8
0
  6
Continuous
 62
     7
370
    15
100
AcDbLine
 10
274.3223986229
 20
54.4030113744
 30
0.0
 11
277.2233884085
 21
56.0777171305
 31
0.0
  0
ARC
  5
187
330
1F
100
AcDbEntity
  8
0
  6
Continuous
 62
     7
370
    15
100
AcDbCircle
 10
274.653642351
 20
53.8851690864
 30
0.0
 40
0.614721923029054
100
AcDbArc
 50
122.60547834
 51
177.3945215143
  0
LINE
  5
188
330
1F
100
AcDbEntity
  8
0
  6
Continuous
 62
     7
370
    15
100
AcDbLine
 10
274.0395559104
 20
53.849214911
 30
0.0
 11
274.0395559104
 21
53.9131134273
 31
0.0
  0
LINE
  5
189
330
1F
100
AcDbEntity
  8
0
  6
Continuous
 62
     7
370
    15
100
AcDbLine
 10
244.2739463597
 20
26.563859683
 30
0.0
 11
244.2277718357
 21
26.4443409774
 31
0.0
  0
LINE
  5
18A
330
1F
100
AcDbEntity
  8
0
  6
Continuous
 62
     7
370
    15
100
AcDbLine
 10
244.2739463597
 20
26.563859683
 30
0.0
 11
248.0887370409
 21
28.7660914674
 31
0.0
  0
LWPOLYLINE
  5
18B
330
1F
100
AcDbEntity
  8
0
  6
Continuous
 62
     7
370
    15
100
AcDbPolyline
 90
       22
 70
   128
 43
0.0
 10
241.5271657649
 20
39.4956184218
 10
241.9757768078
 20
41.2995212351
 10
242.5376684814
 20
43.1186017453
 10
243.2086858537
 20
44.9394086834
 10
243.9838670578
 20
46.7484780142
 10
244.857479983
 20
48.5324324969
 10
245.8230646611
 20
50.2780806034
 10
246.8734810347
 20
51.9725140639
 10
248.0009617547
 20
53.6032033173
 10
249.1971696165
 20
55.1580901619
 10
250.4532592098
 20
56.6256769201
 10
251.759942326
 20
57.9951114585
 10
253.1075566408
 20
59.2562674348
 10
254.4861371621
 20
60.3998191767
 10
255.8854899172
 20
61.4173106419
 10
257.2952673319
 20
62.301217946
 10
258.7050447467
 20
63.0450049985
 10
260.1043975018
 20
63.6431718341
 10
261.4829780231
 20
64.0912952823
 10
262.8305923379
 20
64.3860616752
 10
264.1372754541
 20
64.5252913499
 10
264.9988006513
 20
64.5305045734
  0
SPLINE
  5
18C
330
1F
100
AcDbEntity
  8
0
  6
Continuous
 62
     7
370
    15
100
AcDbSpline
210
0.0
220
0.0
230
1.0
 70
     8
 71
     3
 72
     8
 73
     4
 74
     0
 42
0.000000001
 43
0.00000001
 40
0.0
 40
0.0
 40
0.0
 40
0.0
 40
1.0
 40
1.0
 40
1.0
 40
1.0
 10
241.5271657648992
 20
39.49561842179911
 30
0.0
 10
241.1438817953918
 20
39.43225821381946
 30
0.0
 10
240.7605158847529
 20
39.36906669930666
 30
0.0
 10
240.3770780159509
 20
39.3060233261703
 30
0.0
  0
SPLINE
  5
18D
330
1F
100
AcDbEntity
  8
0
  6
Continuous
 62
     7
370
    15
100
AcDbSpline
210
0.0
220
0.0
230
1.0
 70
     8
 71
     3
 72
     8
 73
     4
 74
     0
 42
0.000000001
 43
0.00000001
 40
0.0
 40
0.0
 40
0.0
 40
0.0
 40
0.0011891741919631
 40
0.0011891741919631
 40
0.0011891741919631
 40
0.0011891741919631
 10
240.023024936348
 20
39.67614216226403
 30
0.0
 10
240.141318166697
 20
39.55267159047329
 30
0.0
 10
240.2593418359594
 20
39.4292959243874
 30
0.0
 10
240.3770780159509
 20
39.3060233261703
 30
0.0
  0
LWPOLYLINE
  5
18E
330
1F
100
AcDbEntity
  8
0
  6
Continuous
 62
     7
370
    15
100
AcDbPolyline
 90
       28
 70
   128
 43
0.0
 10
240.0230249363
 20
39.6761421623
 10
240.4858362917
 20
41.5249757604
 10
241.0607630158
 20
43.3887020892
 10
241.7438355309
 20
45.2544530628
 10
242.5303375675
 20
47.1093466158
 10
243.4148387274
 20
48.9405756482
 10
244.3912319782
 20
50.7354964512
 10
245.4527758193
 20
52.481716006
 10
246.5921408282
 20
54.1671775514
 10
247.8014602668
 20
55.7802438293
 10
249.0723843971
 20
57.3097774344
 10
250.3961381319
 20
58.7452177119
 10
251.7635816223
 20
60.0766536742
 10
253.1652733639
 20
61.2948924304
 10
254.5915353853
 20
62.3915226591
 10
256.0325200698
 20
63.3589726842
 10
257.4782781484
 20
64.1905627535
 10
258.9188273939
 20
64.8805511588
 10
260.3442215437
 20
65.4241738798
 10
261.7446189734
 20
65.817677477
 10
263.1103506482
 20
66.0583450075
 10
264.4319868828
 20
66.1445147838
 10
265.7004024486
 20
66.0755918474
 10
266.9068395788
 20
65.8520520762
 10
268.0429684363
 20
65.475438899
 10
269.1009446269
 20
64.9483526391
 10
270.0734633611
 20
64.27443256
 10
270.2093678538
 20
64.1627841185
  0
ARC
  5
18F
330
1F
100
AcDbEntity
  8
0
  6
Continuous
 62
     7
370
    15
100
AcDbCircle
 10
271.7569981291
 20
48.1449945721
 30
0.0
 40
6.074500104087168
100
AcDbArc
 50
35.4874774401
 51
84.5854404463
  0
ARC
  5
190
330
1F
100
AcDbEntity
  8
0
  6
Continuous
 62
     7
370
    15
100
AcDbCircle
 10
260.3765416192
 20
28.4307207336
 30
0.0
 40
6.073604340177511
100
AcDbArc
 50
215.6401360156
 51
264.6148747889
  0
LINE
  5
191
330
1F
100
AcDbEntity
  8
0
  6
Continuous
 62
     7
370
    15
100
AcDbLine
 10
238.6799345673
 20
40.4514917286
 30
0.0
 11
240.0230249363
 21
39.6761421623
 31
0.0
  0
ARC
  5
192
330
1F
100
AcDbEntity
  8
0
  6
Continuous
 62
     7
370
    15
100
AcDbCircle
 10
262.9938760498
 20
56.9738566132
 30
0.0
 40
9.965699074459447
100
AcDbArc
 50
61.9321777494
 51
105.5720145085
  0
ARC
  5
193
330
1F
100
AcDbEntity
  8
0
  6
Continuous
 62
     7
370
    15
100
AcDbCircle
 10
266.4719466769
 20
50.363574529
 30
0.0
 40
6.804401850917484
100
AcDbArc
 50
61.4496888473
 51
99.7563955407
  0
ARC
  5
194
330
1F
100
AcDbEntity
  8
0
  6
Continuous
 62
     7
370
    15
100
AcDbCircle
 10
255.7591237876
 20
31.8503859311
 30
0.0
 40
6.735132926382583
100
AcDbArc
 50
200.7385140174
 51
238.7278911386
  0
LINE
  5
195
330
1F
100
AcDbEntity
  8
0
  6
Continuous
 62
     7
370
    15
100
AcDbLine
 10
242.7399131375
 20
39.1837815997
 30
0.0
 11
242.1462942893
 21
39.5264704664
 31
0.0
  0
SPLINE
  5
196
330
1F
100
AcDbEntity
  8
0
  6
Continuous
 62
     7
370
    15
100
AcDbSpline
210
0.0
220
0.0
230
1.0
 70
     8
 71
     3
 72
    12
 73
     8
 74
     0
 42
0.000000001
 43
0.00000001
 40
0.0
 40
0.0
 40
0.0
 40
0.0
 40
0.4999999999999928
 40
0.4999999999999928
 40
0.7499999999999963
 40
0.7499999999999963
 40
1.0
 40
1.0
 40
1.0
 40
1.0
 10
242.1462942893018
 20
39.52647046640931
 30
0.0
 10
242.0705720037246
 20
39.57018401140405
 30
0.0
 10
241.9629306285686
 20
39.59397084549427
 30
0.0
 10
241.8017686883267
 20
39.59104226455722
 30
0.0
 10
241.749167263271
 20
39.58400379959449
 30
0.0
 10
241.6513094131797
 20
39.5591778595734
 30
0.0
 10
241.6064717970814
 20
39.54140081967215
 30
0.0
 10
241.5688266189326
 20
39.51966872090759
 30
0.0
  0
SPLINE
  5
197
330
1F
100
AcDbEntity
  8
0
  6
Continuous
 62
     7
370
    15
100
AcDbSpline
210
0.0
220
0.0
230
1.0
 70
     8
 71
     3
 72
    10
 73
     6
 74
     0
 42
0.000000001
 43
0.00000001
 40
0.0
 40
0.0
 40
0.0
 40
0.0
 40
0.5
 40
0.5
 40
1.0
 40
1.0
 40
1.0
 40
1.0
 10
238.578008561613
 20
40.48108220321121
 30
0.0
 10
238.5852557491753
 20
40.48543039015141
 30
0.0
 10
238.597030841443
 20
40.48594229258546
 30
0.0
 10
238.6311453182649
 20
40.47666659806338
 30
0.0
 10
238.6534198747799
 20
40.46679833471741
 30
0.0
 10
238.6799345672562
 20
40.45149172856112
 30
0.0
  0
LINE
  5
198
330
1F
100
AcDbEntity
  8
0
  6
Continuous
 62
     7
370
    15
100
AcDbLine
 10
241.5688266189
 20
39.5196687209
 30
0.0
 11
241.5271657649
 21
39.4956184218
 31
0.0
  0
LWPOLYLINE
  5
199
330
1F
100
AcDbEntity
  8
0
  6
Continuous
 62
     7
370
    15
100
AcDbPolyline
 90
       38
 70
   128
 43
0.0
 10
277.3806354516
 20
36.7787647679
 10
276.6457004512
 20
36.2822628662
 10
275.9319081927
 20
35.6555785063
 10
275.2597931797
 20
34.9167402565
 10
274.6486909375
 20
34.0870031478
 10
274.116181765
 20
33.1902372063
 10
273.6775849814
 20
32.2522407554
 10
273.3455182177
 20
31.2999982451
 10
273.1295344301
 20
30.3609039587
 10
273.035847079
 20
29.461973929
 10
273.0671513787
 20
28.6290687363
 10
273.2225467618
 20
27.8861495466
 10
273.4975627858
 20
27.2545887922
 10
273.8842877405
 20
26.7525553263
 10
274.3715962531
 20
26.3944917375
 10
274.9454693448
 20
26.1906988634
 10
275.5893977318
 20
26.147039454
 10
276.2848567667
 20
26.2647695109
 10
277.0118393592
 20
26.5405021548
 10
277.7494315439
 20
26.9663050595
 10
278.4764141364
 20
27.5299286508
 10
279.1718731713
 20
28.215158504
 10
279.8158015583
 20
29.002281804
 10
280.38967465
 20
29.8686544464
 10
280.8769831626
 20
30.7893524678
 10
281.2637081173
 20
31.7378890624
 10
281.5387241413
 20
32.6869765593
 10
281.6941195244
 20
33.6093114393
 10
281.7254238241
 20
34.4783598072
 10
281.631736473
 20
35.2691207237
 10
281.4157526854
 20
35.9588454369
 10
281.0836859217
 20
36.5276918227
 10
280.6450891381
 20
36.9592952062
 10
280.1125799656
 20
37.2412391439
 10
279.5014777234
 20
37.365412622
 10
278.8293627104
 20
37.3282433957
 10
278.1155704519
 20
37.1308007559
 10
277.3806354516
 20
36.7787647679
  0
LWPOLYLINE
  5
19A
330
1F
100
AcDbEntity
  8
0
  6
Continuous
 62
     7
370
    15
100
AcDbPolyline
 90
       21
 70
   128
 43
0.0
 10
277.3099247734
 20
36.9012392547
 10
276.5825125801
 20
36.4117096814
 10
275.8749422952
 20
35.7963262939
 10
275.2065145915
 20
35.0718751467
 10
274.5954624345
 20
34.2581173787
 10
274.0584537339
 20
33.3772501805
 10
273.6101366874
 20
32.4533013129
 10
273.2627402153
 20
31.5114736926
 10
273.0257403876
 20
30.5774579218
 10
272.905601942
 20
29.676731516
 10
272.905601942
 20
28.8338639436
 10
273.0257403876
 20
28.0718464346
 10
273.2627402153
 20
27.4114648404
 10
273.6101366874
 20
26.8707326492
 10
274.0584537339
 20
26.4643996258
 10
274.5954624345
 20
26.2035494758
 10
275.2065145915
 20
26.0952975112
 10
275.8749422952
 20
26.1425965635
 10
276.5825125801
 20
26.3441564378
 10
277.3099247734
 20
26.6944791062
 10
277.310643053
 20
26.6948938275
  0
LWPOLYLINE
  5
19B
330
1F
100
AcDbEntity
  8
0
  6
Continuous
 62
     7
370
    15
100
AcDbPolyline
 90
       11
 70
   128
 43
0.0
 10
281.7293421558
 20
34.3491345299
 10
281.7142476049
 20
34.7618544173
 10
281.5941091592
 20
35.5238719263
 10
281.3571093316
 20
36.1842535205
 10
281.0097128594
 20
36.7249857116
 10
280.5613958129
 20
37.1313187351
 10
280.0243871124
 20
37.3921688851
 10
279.4133349553
 20
37.5004208497
 10
278.7449072517
 20
37.4531217974
 10
278.0373369668
 20
37.2515619231
 10
277.3099247734
 20
36.9012392547
  0
SPLINE
  5
19C
330
1F
100
AcDbEntity
  8
0
  6
Continuous
 62
     7
370
    15
100
AcDbSpline
210
0.0
220
0.0
230
1.0
 70
    11
 71
     3
 72
    64
 73
    60
 74
     0
 42
0.000000001
 43
0.00000001
 40
0.0
 40
0.0
 40
0.0
 40
0.0
 40
0.0312499999999998
 40
0.0312499999999998
 40
0.0624999999999996
 40
0.0624999999999996
 40
0.0937499999999994
 40
0.0937499999999994
 40
0.1249999999999993
 40
0.1249999999999993
 40
0.1562499999999991
 40
0.1562499999999991
 40
0.1874999999999989
 40
0.1874999999999989
 40
0.2187499999999987
 40
0.2187499999999987
 40
0.2499999999999985
 40
0.2499999999999985
 40
0.2812499999999983
 40
0.2812499999999983
 40
0.3124999999999981
 40
0.3124999999999981
 40
0.3437499999999979
 40
0.3437499999999979
 40
0.3749999999999978
 40
0.3749999999999978
 40
0.4062499999999976
 40
0.4062499999999976
 40
0.4374999999999974
 40
0.4374999999999974
 40
0.4687499999999972
 40
0.4687499999999972
 40
0.499999999999997
 40
0.499999999999997
 40
0.5312499999999968
 40
0.5312499999999968
 40
0.5624999999999967
 40
0.5624999999999967
 40
0.6249999999999962
 40
0.6249999999999962
 40
0.6874999999999959
 40
0.6874999999999959
 40
0.7187499999999962
 40
0.7187499999999962
 40
0.7499999999999966
 40
0.7499999999999966
 40
0.781249999999997
 40
0.781249999999997
 40
0.8124999999999973
 40
0.8124999999999973
 40
0.8437499999999977
 40
0.8437499999999977
 40
0.8749999999999981
 40
0.8749999999999981
 40
0.9062499999999984
 40
0.9062499999999984
 40
0.9374999999999988
 40
0.9374999999999988
 40
1.0
 40
1.0
 40
1.0
 40
1.0
 10
275.057459232511
 20
38.95128676644706
 30
0.0
 10
275.1509181493657
 20
38.93812011303431
 30
0.0
 10
275.2420184711381
 20
38.92023844904448
 30
0.0
 10
275.4200035764796
 20
38.87666138411145
 30
0.0
 10
275.5074785779237
 20
38.85074232171524
 30
0.0
 10
275.675427718816
 20
38.79252452698839
 30
0.0
 10
275.754869946221
 20
38.76065453599334
 30
0.0
 10
275.9050801412648
 20
38.69202870275856
 30
0.0
 10
275.9764532096879
 20
38.65488456521299
 30
0.0
 10
276.1064600331118
 20
38.57771781759389
 30
0.0
 10
276.1651372580114
 20
38.53779505340368
 30
0.0
 10
276.2699331709226
 20
38.45509910579628
 30
0.0
 10
276.3163889764547
 20
38.41187736871275
 30
0.0
 10
276.393128340415
 20
38.32475315032699
 30
0.0
 10
276.4237237581802
 20
38.2807599751313
 30
0.0
 10
276.4689667177543
 20
38.19113427058328
 30
0.0
 10
276.4835783028686
 20
38.14501916769006
 30
0.0
 10
276.4944283742152
 20
38.05374984121639
 30
0.0
 10
276.4909950959213
 20
38.00832429100468
 30
0.0
 10
276.4652336805233
 20
37.91695721250065
 30
0.0
 10
276.4424326172848
 20
37.87067187604359
 30
0.0
 10
276.3785061310849
 20
37.78151636916633
 30
0.0
 10
276.3373780332331
 20
37.7380806166545
 30
0.0
 10
276.2352318950602
 20
37.65311319780236
 30
0.0
 10
276.1750331676787
 20
37.61247421067562
 30
0.0
 10
276.0405969837726
 20
37.53737954827152
 30
0.0
 10
275.9646829625357
 20
37.50207923986449
 30
0.0
 10
275.803499868438
 20
37.43987747584178
 30
0.0
 10
275.7184055910342
 20
37.41283696664082
 30
0.0
 10
275.539489112864
 20
37.36716083556376
 30
0.0
 10
275.4476507578303
 20
37.3490941611172
 30
0.0
 10
275.2625363361142
 20
37.32301977683589
 30
0.0
 10
275.1678955692565
 20
37.31491753440501
 30
0.0
 10
274.9824700007845
 20
37.30955839360244
 30
0.0
 10
274.8912195219574
 20
37.31214105754297
 30
0.0
 10
274.7114346816365
 20
37.32826129746073
 30
0.0
 10
274.6236269669748
 20
37.34184724385072
 30
0.0
 10
274.3733888913882
 20
37.39816677081222
 30
0.0
 10
274.2191072335102
 20
37.45804241762455
 30
0.0
 10
273.9601333107638
 20
37.61371073124904
 30
0.0
 10
273.8521774877383
 20
37.71151495567671
 30
0.0
 10
273.7373012802296
 20
37.87429138881019
 30
0.0
 10
273.7061543407707
 20
37.93192584071708
 30
0.0
 10
273.6604935873518
 20
38.05121956526782
 30
0.0
 10
273.6462675049208
 20
38.11179723372103
 30
0.0
 10
273.6353037268104
 20
38.23405087840889
 30
0.0
 10
273.6387202497645
 20
38.29642290463047
 30
0.0
 10
273.6647897950443
 20
38.4181202037031
 30
0.0
 10
273.6870732103953
 20
38.4768130138152
 30
0.0
 10
273.750942573279
 20
38.58896074637968
 30
0.0
 10
273.7933637435519
 20
38.64303328140686
 30
0.0
 10
273.8950456878446
 20
38.73950663536306
 30
0.0
 10
273.954289776839
 20
38.78244311441248
 30
0.0
 10
274.0902834887306
 20
38.85710886421617
 30
0.0
 10
274.1657647576029
 20
38.88793272299807
 30
0.0
 10
274.3265472112174
 20
38.93556694417027
 30
0.0
 10
274.4135640681829
 20
38.95277166739781
 30
0.0
 10
274.6804481591192
 20
38.98367897086057
 30
0.0
 10
274.8705413988015
 20
38.97762007327256
 30
0.0
 10
275.057459232511
 20
38.95128676644705
 30
0.0
  0
LINE
  5
19D
330
1F
100
AcDbEntity
  8
0
  6
Continuous
 62
     7
370
    15
100
AcDbLine
 10
279.799334849
 20
31.8017613443
 30
0.0
 11
280.6598431493
 21
32.8722254892
 31
0.0
  0
SPLINE
  5
19E
330
1F
100
AcDbEntity
  8
0
  6
Continuous
 62
     7
370
    15
100
AcDbSpline
210
0.0
220
0.0
230
1.0
 70
     8
 71
     3
 72
    22
 73
    18
 74
     0
 42
0.000000001
 43
0.00000001
 40
0.0
 40
0.0
 40
0.0
 40
0.0
 40
0.0416666666666663
 40
0.0833333333333332
 40
0.1250000000000031
 40
0.1666666666666682
 40
0.2083333333333338
 40
0.249999999999922
 40
0.2968749999997847
 40
0.34375
 40
0.3906249999999998
 40
0.4375
 40
0.486304925390498
 40
0.486304925390498
 40
0.53125
 40
0.624999999999982
 40
0.8289791339915068
 40
0.8289791339915068
 40
0.8289791339915068
 40
0.8289791339915068
 10
280.659843149303
 20
32.87222548918464
 30
0.0
 10
280.6942548278957
 20
32.91503329020819
 30
0.0
 10
280.7615164631972
 20
33.00686571755157
 30
0.0
 10
280.8555556934665
 20
33.16295738613096
 30
0.0
 10
280.9384014927583
 20
33.33559330358383
 30
0.0
 10
281.0043438878179
 20
33.51930771246399
 30
0.0
 10
281.0475810961174
 20
33.70607714676865
 30
0.0
 10
281.0642368940117
 20
33.89415706351951
 30
0.0
 10
281.0473165197125
 20
34.07090268777365
 30
0.0
 10
280.9926081671301
 20
34.22204548646091
 30
0.0
 10
280.906357411799
 20
34.33316919718282
 30
0.0
 10
280.7926294179649
 20
34.40356825554424
 30
0.0
 10
280.7087977618799
 20
34.42346280398917
 30
0.0
 10
280.627400224816
 20
34.43125819600957
 30
0.0
 10
280.5201153394352
 20
34.44003792648717
 30
0.0
 10
280.3326641358619
 20
34.45748105940022
 30
0.0
 10
280.0245083486886
 20
34.48500010277493
 30
0.0
 10
279.7992366081925
 20
34.50506478531101
 30
0.0
  0
SPLINE
  5
19F
330
1F
100
AcDbEntity
  8
0
  6
Continuous
 62
     7
370
    15
100
AcDbSpline
210
0.0
220
0.0
230
1.0
 70
     8
 71
     3
 72
    22
 73
    18
 74
     0
 42
0.000000001
 43
0.00000001
 40
0.0
 40
0.0
 40
0.0
 40
0.0
 40
0.0416666666666663
 40
0.0833333333333332
 40
0.1250000000000031
 40
0.1666666666666682
 40
0.2083333333333338
 40
0.249999999999922
 40
0.2968749999997847
 40
0.34375
 40
0.3906249999999998
 40
0.4375
 40
0.486304925390498
 40
0.486304925390498
 40
0.53125
 40
0.624999999999982
 40
0.8265829076569203
 40
0.8265829076569203
 40
0.8265829076569203
 40
0.8265829076569203
 10
274.101427753801
 20
29.0861328706087
 30
0.0
 10
274.0678200847929
 20
29.08913790265223
 30
0.0
 10
273.9993812979387
 20
29.10341695415249
 30
0.0
 10
273.9058151921495
 20
29.15089093329484
 30
0.0
 10
273.8228426222664
 20
29.22788646503187
 30
0.0
 10
273.7569341850919
 20
29.33546235785623
 30
0.0
 10
273.7136879158432
 20
29.47231202514221
 30
0.0
 10
273.6970344991068
 20
29.64116119503085
 30
0.0
 10
273.7139546234428
 20
29.83744335614106
 30
0.0
 10
273.7686612761407
 20
30.05174868158786
 30
0.0
 10
273.8549190905869
 20
30.26246425024326
 30
0.0
 10
273.9686201836594
 20
30.46413737261374
 30
0.0
 10
274.0525210172751
 20
30.58090794644539
 30
0.0
 10
274.1339421827317
 20
30.68271232918417
 30
0.0
 10
274.2412018686808
 20
30.8153292085807
 30
0.0
 10
274.4259914549176
 20
31.04588309353883
 30
0.0
 10
274.7380325035928
 20
31.4340297527315
 30
0.0
 10
274.9620358801797
 20
31.71261202630299
 30
0.0
  0
LINE
  5
1A0
330
1F
100
AcDbEntity
  8
0
  6
Continuous
 62
     7
370
    15
100
AcDbLine
 10
274.9619360541
 20
29.0091904616
 30
0.0
 11
274.1014277538
 21
29.0861328706
 31
0.0
  0
SPLINE
  5
1A1
330
1F
100
AcDbEntity
  8
0
  6
Continuous
 62
     7
370
    15
100
AcDbSpline
210
0.0
220
0.0
230
1.0
 70
     8
 71
     3
 72
    20
 73
    16
 74
     0
 42
0.000000001
 43
0.00000001
 40
0.0
 40
0.0
 40
0.0
 40
0.0
 40
0.25
 40
0.25
 40
0.5
 40
0.5
 40
0.53125
 40
0.53125
 40
0.5625
 40
0.5625
 40
0.625
 40
0.625
 40
0.75
 40
0.75
 40
1.0
 40
1.0
 40
1.0
 40
1.0
 10
248.3715797533739
 20
36.41241918019502
 30
0.0
 10
248.3715797533739
 20
36.04222238317423
 30
0.0
 10
248.3879392952399
 20
35.66261713279868
 30
0.0
 10
248.4191437583649
 20
34.90478064205427
 30
0.0
 10
248.4336020126843
 20
34.52647874438898
 30
0.0
 10
248.4340098507305
 20
34.1094328597492
 30
0.0
 10
248.4338560523305
 20
34.06210567137364
 30
0.0
 10
248.4331508325778
 20
33.96856270916
 30
0.0
 10
248.4326005681258
 20
33.92190906472081
 30
0.0
 10
248.4303957505413
 20
33.78227842666029
 30
0.0
 10
248.4281816284182
 20
33.68963049165415
 30
0.0
 10
248.4198768171699
 20
33.41271114861497
 30
0.0
 10
248.4121279192558
 20
33.22948437723881
 30
0.0
 10
248.3883978106107
 20
32.68006980237423
 30
0.0
 10
248.3715797533739
 20
32.31437519894349
 30
0.0
 10
248.3715797533739
 20
31.93887643204514
 30
0.0
  0
SPLINE
  5
1A2
330
1F
100
AcDbEntity
  8
0
  6
Continuous
 62
     7
370
    15
100
AcDbSpline
210
0.0
220
0.0
230
1.0
 70
     8
 71
     3
 72
    11
 73
     7
 74
     0
 42
0.000000001
 43
0.00000001
 40
0.0
 40
0.0
 40
0.0
 40
0.0
 40
0.3181896031275402
 40
0.636383594624107
 40
0.9546140303052124
 40
1.0
 40
1.0
 40
1.0
 40
1.0
 10
274.0307170756807
 20
29.35002310464192
 30
0.0
 10
273.9718414839592
 20
29.36449665634088
 30
0.0
 10
273.8540894885228
 20
29.39344395935336
 30
0.0
 10
273.7454586540061
 20
29.55429106302813
 30
0.0
 10
273.693785550603
 20
29.70658762973606
 30
0.0
 10
273.7058661680366
 20
29.80692208477392
 30
0.0
 10
273.707374049773
 20
29.81944565760607
 30
0.0
  0
SPLINE
  5
1A3
330
1F
100
AcDbEntity
  8
0
  6
Continuous
 62
     7
370
    15
100
AcDbSpline
210
0.0
220
0.0
230
1.0
 70
     8
 71
     3
 72
    12
 73
     8
 74
     0
 42
0.000000001
 43
0.00000001
 40
0.0
 40
0.0
 40
0.0
 40
0.0
 40
0.0286838040696305
 40
0.1722338594661326
 40
0.4147729873856673
 40
0.8648729835341644
 40
1.0
 40
1.0
 40
1.0
 40
1.0
 10
275.0863062632906
 20
31.88824189639476
 30
0.0
 10
275.0862667207707
 20
31.88762883693857
 30
0.0
 10
275.0860292850112
 20
31.88394767958703
 30
0.0
 10
275.0742623223093
 20
31.86337741302347
 30
0.0
 10
275.0429759039073
 20
31.81618646046887
 30
0.0
 10
275.0004491425713
 20
31.76065514530316
 30
0.0
 10
274.9692416003259
 20
31.72162415515926
 30
0.0
 10
274.9620358801798
 20
31.71261202630299
 30
0.0
  0
SPLINE
  5
1A4
330
1F
100
AcDbEntity
  8
0
  6
Continuous
 62
     7
370
    15
100
AcDbSpline
210
0.0
220
0.0
230
1.0
 70
     8
 71
     3
 72
    16
 73
    12
 74
     0
 42
0.000000001
 43
0.00000001
 40
0.0
 40
0.0
 40
0.0
 40
0.0
 40
0.25000000000001
 40
0.25000000000001
 40
0.5000000000000201
 40
0.5000000000000201
 40
0.6250000000000154
 40
0.6250000000000154
 40
0.7500000000000108
 40
0.7500000000000108
 40
1.0
 40
1.0
 40
1.0
 40
1.0
 10
279.7992366081924
 20
34.50506478531103
 30
0.0
 10
279.7750284814973
 20
34.50722097399168
 30
0.0
 10
279.7486981400951
 20
34.50820444618446
 30
0.0
 10
279.6882973633824
 20
34.50589715856517
 30
0.0
 10
279.6529145878897
 20
34.50254226161386
 30
0.0
 10
279.5959461838218
 20
34.48997383411327
 30
0.0
 10
279.5762043082888
 20
34.48435781065556
 30
0.0
 10
279.540663385555
 20
34.47127866299665
 30
0.0
 10
279.5252813565081
 20
34.46404657262757
 30
0.0
 10
279.4871329390414
 20
34.44272057525059
 30
0.0
 10
279.4709710805189
 20
34.42883216079878
 30
0.0
 10
279.4586616726853
 20
34.41577199155054
 30
0.0
  0
SPLINE
  5
1A5
330
1F
100
AcDbEntity
  8
0
  6
Continuous
 62
     7
370
    15
100
AcDbSpline
210
0.0
220
0.0
230
1.0
 70
     8
 71
     3
 72
     8
 73
     4
 74
     0
 42
0.000000001
 43
0.00000001
 40
0.0
 40
0.0
 40
0.0
 40
0.0
 40
1.0
 40
1.0
 40
1.0
 40
1.0
 10
279.4586616726895
 20
34.4157719915451
 30
0.0
 10
279.4261887903243
 20
34.42883435381074
 30
0.0
 10
279.3939179976857
 20
34.44372674619528
 30
0.0
 10
279.368640681731
 20
34.45831903009044
 30
0.0
  0
LINE
  5
1A6
330
1F
100
AcDbEntity
  8
0
  6
Continuous
 62
     7
370
    15
100
AcDbLine
 10
278.9183611993
 20
34.91067101
 30
0.0
 11
278.8271594136
 21
34.9580987485
 31
0.0
  0
LINE
  5
1A7
330
1F
100
AcDbEntity
  8
0
  6
Continuous
 62
     7
370
    15
100
AcDbLine
 10
244.2739463597
 20
37.0564091157
 30
0.0
 11
242.5493157931
 21
38.0520171497
 31
0.0
  0
SPLINE
  5
1A8
330
1F
100
AcDbEntity
  8
0
  6
Continuous
 62
     7
370
    15
100
AcDbSpline
210
0.0
220
0.0
230
1.0
 70
     8
 71
     3
 72
     8
 73
     4
 74
     0
 42
0.000000001
 43
0.00000001
 40
0.0
 40
0.0
 40
0.0
 40
0.0
 40
0.0011891741919631
 40
0.0011891741919631
 40
0.0011891741919631
 40
0.0011891741919631
 10
242.5493157930543
 20
38.05201714972046
 30
0.0
 10
242.5379176488077
 20
38.11390210657478
 30
0.0
 10
242.5269538532484
 20
38.17547342311439
 30
0.0
 10
242.516401370356
 20
38.23674658530751
 30
0.0
  0
LINE
  5
1A9
330
1F
100
AcDbEntity
  8
0
  6
Continuous
 62
     7
370
    15
100
AcDbLine
 10
278.3711958073
 20
35.0341316996
 30
0.0
 11
279.3686406817
 21
34.4583190301
 31
0.0
  0
ARC
  5
1AA
330
1F
100
AcDbEntity
  8
0
  6
Continuous
 62
     7
370
    15
100
AcDbCircle
 10
273.1363880405
 20
34.6287521271
 30
0.0
 40
4.277261961561412
100
AcDbArc
 50
339.4417080716
 51
1.7907514552
  0
LINE
  5
1AB
330
1F
100
AcDbEntity
  8
0
  6
Continuous
 62
     7
370
    15
100
AcDbLine
 10
277.141254321
 20
33.1267481447
 30
0.0
 11
279.3686406817
 21
31.8409053686
 31
0.0
  0
LINE
  5
1AC
330
1F
100
AcDbEntity
  8
0
  6
Continuous
 62
     7
370
    15
100
AcDbLine
 10
275.4186456351
 20
28.8483289733
 30
0.0
 11
275.5098841721
 21
28.8008841286
 31
0.0
  0
LINE
  5
1AD
330
1F
100
AcDbEntity
  8
0
  6
Continuous
 62
     7
370
    15
100
AcDbLine
 10
273.7643746396
 20
29.9957304591
 30
0.0
 11
274.9683661527
 21
29.3006809531
 31
0.0
  0
SPLINE
  5
1AE
330
1F
100
AcDbEntity
  8
0
  6
Continuous
 62
     7
370
    15
100
AcDbSpline
210
0.0
220
0.0
230
1.0
 70
     8
 71
     3
 72
    12
 73
     8
 74
     0
 42
0.000000001
 43
0.00000001
 40
0.0
 40
0.0
 40
0.0
 40
0.0
 40
0.0316027464897147
 40
0.42224646983488
 40
0.8128309791953661
 40
0.9907948645948642
 40
1.0
 40
1.0
 40
1.0
 40
1.0
 10
242.7589196777057
 20
35.17899612584152
 30
0.0
 10
242.7588501604
 20
35.20804088049027
 30
0.0
 10
242.7579213348959
 20
35.59610984537115
 30
0.0
 10
242.7224668354895
 20
36.36176460359329
 30
0.0
 10
242.6920271644262
 20
37.25913144207809
 30
0.0
 10
242.6979097464486
 20
37.78616350543284
 30
0.0
 10
242.7040609391754
 20
37.9542437060858
 30
0.0
 10
242.7043634601894
 20
37.96251003669587
 30
0.0
  0
LINE
  5
1AF
330
1F
100
AcDbEntity
  8
0
  6
Continuous
 62
     7
370
    15
100
AcDbLine
 10
275.0197665179
 20
29.2615871805
 30
0.0
 11
274.0307170757
 21
29.3500231046
 31
0.0
  0
SPLINE
  5
1B0
330
1F
100
AcDbEntity
  8
0
  6
Continuous
 62
     7
370
    15
100
AcDbSpline
210
0.0
220
0.0
230
1.0
 70
     8
 71
     3
 72
    16
 73
    12
 74
     0
 42
0.000000001
 43
0.00000001
 40
0.0
 40
0.0
 40
0.0
 40
0.0
 40
0.2499999999999989
 40
0.2499999999999989
 40
0.4999999999999978
 40
0.4999999999999978
 40
0.6249999999999983
 40
0.6249999999999983
 40
0.7499999999999989
 40
0.7499999999999989
 40
1.0
 40
1.0
 40
1.0
 40
1.0
 10
274.9619360541112
 20
29.00919046155527
 30
0.0
 10
274.9859888764948
 20
29.00703977678202
 30
0.0
 10
275.0094900566028
 20
29.00790833362514
 30
0.0
 10
275.051739573214
 20
29.02074192423193
 30
0.0
 10
275.0716973507857
 20
29.0330346731371
 30
0.0
 10
275.0868726531496
 20
29.0694963717121
 30
0.0
 10
275.0891840356021
 20
29.08510727235101
 30
0.0
 10
275.0863450518354
 20
29.12025419706543
 30
0.0
 10
275.0813710398728
 20
29.13932827604769
 30
0.0
 10
275.0610061428018
 20
29.19448167870506
 30
0.0
 10
275.0408723300004
 20
29.2293131245231
 30
0.0
 10
275.0197665179372
 20
29.26158718051095
 30
0.0
  0
SPLINE
  5
1B1
330
1F
100
AcDbEntity
  8
0
  6
Continuous
 62
     7
370
    15
100
AcDbSpline
210
0.0
220
0.0
230
1.0
 70
     8
 71
     3
 72
     8
 73
     4
 74
     0
 42
0.000000001
 43
0.00000001
 40
0.0
 40
0.0
 40
0.0
 40
0.0
 40
1.0
 40
1.0
 40
1.0
 40
1.0
 10
274.9683661526606
 20
29.30068095314692
 30
0.0
 10
274.9937180815299
 20
29.28604559613304
 30
0.0
 10
275.0105228807582
 20
29.2726513950383
 30
0.0
 10
275.0197665179377
 20
29.26158718051075
 30
0.0
  0
LWPOLYLINE
  5
1B2
330
1F
100
AcDbEntity
  8
0
  6
Continuous
 62
     7
370
    15
100
AcDbPolyline
 90
        3
 70
   128
 43
0.0
 10
241.6982595059
 20
38.0995092936
 10
241.7577177891
 20
39.531444936
 10
241.7600646877
 20
39.5600477565
  0
ARC
  5
1B3
330
1F
100
AcDbEntity
  8
0
  6
Continuous
 62
     7
370
    15
100
AcDbCircle
 10
253.2890459714
 20
37.7841591711
 30
0.0
 40
11.59507553178162
100
AcDbArc
 50
178.4415401862
 51
204.7483758801
  0
LINE
  5
1B4
330
1F
100
AcDbEntity
  8
0
  6
Continuous
 62
     7
370
    15
100
AcDbLine
 10
213.1433131477
 20
57.1497966541
 30
0.0
 11
213.046059974
 21
57.2350268536
 31
0.0
  0
SPLINE
  5
1B5
330
1F
100
AcDbEntity
  8
0
  6
Continuous
 62
     7
370
    15
100
AcDbSpline
210
0.0
220
0.0
230
1.0
 70
     8
 71
     3
 72
     8
 73
     4
 74
     0
 42
0.000000001
 43
0.00000001
 40
0.0
 40
0.0
 40
0.0
 40
0.0
 40
1.0
 40
1.0
 40
1.0
 40
1.0
 10
279.3686406817315
 20
31.8409053685825
 30
0.0
 10
279.3939926106006
 20
31.8262700115687
 30
0.0
 10
279.4259365944031
 20
31.82161547569973
 30
0.0
 10
279.4586616726924
 20
31.82410680858693
 30
0.0
  0
SPLINE
  5
1B6
330
1F
100
AcDbEntity
  8
0
  6
Continuous
 62
     7
370
    15
100
AcDbSpline
210
0.0
220
0.0
230
1.0
 70
     8
 71
     3
 72
    16
 73
    12
 74
     0
 42
0.000000001
 43
0.00000001
 40
0.0
 40
0.0
 40
0.0
 40
0.0
 40
0.2499999999999988
 40
0.2499999999999988
 40
0.3749999999999982
 40
0.3749999999999982
 40
0.4999999999999976
 40
0.4999999999999976
 40
0.7499999999999988
 40
0.7499999999999988
 40
1.0
 40
1.0
 40
1.0
 40
1.0
 10
279.4586616726922
 20
31.82410680858752
 30
0.0
 10
279.4708808911963
 20
31.78686109171758
 30
0.0
 10
279.4869495958122
 20
31.74975018396769
 30
0.0
 10
279.5252446839746
 20
31.70474321245967
 30
0.0
 10
279.540701779329
 20
31.69177537464662
 30
0.0
 10
279.5760096091115
 20
31.67549301690222
 30
0.0
 10
279.5955929709568
 20
31.67249639839002
 30
0.0
 10
279.6528937464274
 20
31.67753015835297
 30
0.0
 10
279.6879640437795
 20
31.69717370410329
 30
0.0
 10
279.7484848023307
 20
31.74365646407765
 30
0.0
 10
279.7753099063919
 20
31.77187454410264
 30
0.0
 10
279.7993348489931
 20
31.80176134429774
 30
0.0
  0
LINE
  5
1B7
330
1F
100
AcDbEntity
  8
0
  6
Continuous
 62
     7
370
    15
100
AcDbLine
 10
239.0148396746
 20
40.0924267815
 30
0.0
 11
238.5780085616
 21
40.4810822032
 31
0.0
  0
LINE
  5
1B8
330
1F
100
AcDbEntity
  8
0
  6
Continuous
 62
     7
370
    15
100
AcDbLine
 10
240.377078016
 20
39.3060233262
 30
0.0
 11
239.0148396746
 21
40.0924267815
 31
0.0
  0
LINE
  5
1B9
330
1F
100
AcDbEntity
  8
0
  6
Continuous
 62
     7
370
    15
100
AcDbLine
 10
242.7589196777
 20
32.2231276138
 30
0.0
 11
242.7589196777
 21
35.1789961258
 31
0.0
  0
SPLINE
  5
1BA
330
1F
100
AcDbEntity
  8
0
  6
Continuous
 62
     7
370
    15
100
AcDbSpline
210
0.0
220
0.0
230
1.0
 70
     8
 71
     3
 72
    22
 73
    18
 74
     0
 42
0.000000001
 43
0.00000001
 40
0.0
 40
0.0
 40
0.0
 40
0.0
 40
0.125
 40
0.125
 40
0.2499999999999999
 40
0.2499999999999999
 40
0.375
 40
0.375
 40
0.5000000000000001
 40
0.5000000000000001
 40
0.6250000000000001
 40
0.6250000000000001
 40
0.75
 40
0.75
 40
0.875
 40
0.875
 40
1.0
 40
1.0
 40
1.0
 40
1.0
 10
280.4477111149487
 20
33.05447491203746
 30
0.0
 10
280.4962600936404
 20
33.11486937998343
 30
0.0
 10
280.5401542660297
 20
33.17907488854033
 30
0.0
 10
280.6177477290997
 20
33.31554478097483
 30
0.0
 10
280.6513066130074
 20
33.38750706777639
 30
0.0
 10
280.7045091998339
 20
33.53114275112867
 30
0.0
 10
280.7248007438085
 20
33.60485168716028
 30
0.0
 10
280.7508182553129
 20
33.74636159316076
 30
0.0
 10
280.7569059871866
 20
33.8153645357733
 30
0.0
 10
280.7552781597558
 20
33.94506941326116
 30
0.0
 10
280.7477526156349
 20
34.00437133934549
 30
0.0
 10
280.7197037126845
 20
34.11166167410553
 30
0.0
 10
280.6992968491002
 20
34.15842741650825
 30
0.0
 10
280.6469552505287
 20
34.23554046214913
 30
0.0
 10
280.6144009520287
 20
34.26644496494989
 30
0.0
 10
280.5394575679057
 20
34.30981095662343
 30
0.0
 10
280.496265275338
 20
34.32299459636521
 30
0.0
 10
280.4477111109168
 20
34.32733606974075
 30
0.0
  0
LINE
  5
1BB
330
1F
100
AcDbEntity
  8
0
  6
Continuous
 62
     7
370
    15
100
AcDbLine
 10
280.4477111109
 20
34.3273360697
 30
0.0
 11
279.4586616727
 21
34.4157719915
 31
0.0
  0
ARC
  5
1BC
330
1F
100
AcDbEntity
  8
0
  6
Continuous
 62
     7
370
    15
100
AcDbCircle
 10
276.9897104101
 20
35.3183276508
 30
0.0
 40
1.491207826003783
100
AcDbArc
 50
321.0621655031
 51
347.3474134538
  0
LINE
  5
1BD
330
1F
100
AcDbEntity
  8
0
  6
Continuous
 62
     7
370
    15
100
AcDbLine
 10
279.4586616727
 20
31.8241068086
 30
0.0
 11
280.4477111149
 21
33.054474912
 31
0.0
  0
LINE
  5
1BE
330
1F
100
AcDbEntity
  8
0
  6
Continuous
 62
     7
370
    15
100
AcDbLine
 10
277.141254321
 20
33.1267481447
 30
0.0
 11
278.1496140761
 21
34.3811380937
 31
0.0
  0
LINE
  5
1BF
330
1F
100
AcDbEntity
  8
0
  6
Continuous
 62
     7
370
    15
100
AcDbLine
 10
242.5493157931
 20
27.559467717
 30
0.0
 11
244.2739463597
 21
26.563859683
 31
0.0
  0
SPLINE
  5
1C0
330
1F
100
AcDbEntity
  8
0
  6
Continuous
 62
     7
370
    15
100
AcDbSpline
210
0.0
220
0.0
230
1.0
 70
     8
 71
     3
 72
    14
 73
    10
 74
     0
 42
0.000000001
 43
0.00000001
 40
0.0
 40
0.0
 40
0.0
 40
0.0
 40
0.25
 40
0.25
 40
0.5
 40
0.5
 40
0.75
 40
0.75
 40
1.0
 40
1.0
 40
1.0
 40
1.0
 10
244.2277718357051
 20
26.44434097740333
 30
0.0
 10
244.2110165691273
 20
26.40097143942759
 30
0.0
 10
244.1906424783468
 20
26.36074408035497
 30
0.0
 10
244.1421919495891
 20
26.28697721204995
 30
0.0
 10
244.1138977923312
 20
26.25340904486264
 30
0.0
 10
244.0508368391177
 20
26.19985796615335
 30
0.0
 10
244.0156114226418
 20
26.17940007376066
 30
0.0
 10
243.9408341431385
 20
26.16196324093077
 30
0.0
 10
243.9022771226194
 20
26.1659082545809
 30
0.0
 10
243.8683305742125
 20
26.18550517984388
 30
0.0
  0
LINE
  5
1C1
330
1F
100
AcDbEntity
  8
0
  6
Continuous
 62
     7
370
    15
100
AcDbLine
 10
243.8683305742
 20
26.1855051798
 30
0.0
 11
242.5164013704
 21
26.9659572968
 31
0.0
  0
SPLINE
  5
1C2
330
1F
100
AcDbEntity
  8
0
  6
Continuous
 62
     7
370
    15
100
AcDbSpline
210
0.0
220
0.0
230
1.0
 70
     8
 71
     3
 72
     8
 73
     4
 74
     0
 42
0.000000001
 43
0.00000001
 40
0.0
 40
0.0
 40
0.0
 40
0.0
 40
0.0011891741919631
 40
0.0011891741919631
 40
0.0011891741919631
 40
0.0011891741919631
 10
242.516401370356
 20
26.96595729683986
 30
0.0
 10
242.5269538532484
 20
27.16380891563985
 30
0.0
 10
242.5379176488077
 20
27.36164746018032
 30
0.0
 10
242.5493157930543
 20
27.55946771698858
 30
0.0
  0
LWPOLYLINE
  5
1C3
330
1F
100
AcDbEntity
  8
0
  6
Continuous
 62
     7
370
    15
100
AcDbPolyline
 90
       14
 70
   128
 43
0.0
 10
255.6277763398
 20
19.3447821163
 10
255.6088872602
 20
19.3403518836
 10
254.2414437698
 20
19.0929711979
 10
252.917690035
 20
19.0000379456
 10
251.6467659047
 20
19.0621937839
 10
250.437446466
 20
19.279009558
 10
249.2980814571
 20
19.6489882649
 10
248.2365376161
 20
20.1695753892
 10
247.2601443652
 20
20.8371765404
 10
246.3756432054
 20
21.6471822709
 10
245.5891411688
 20
22.5939999015
 10
244.9060686536
 20
23.6710921361
 10
244.3311419295
 20
24.8710221986
 10
243.9678676696
 20
25.8635560164
  0
SPLINE
  5
1C4
330
1F
100
AcDbEntity
  8
0
  6
Continuous
 62
     7
370
    15
100
AcDbSpline
210
0.0
220
0.0
230
1.0
 70
     8
 71
     3
 72
     8
 73
     4
 74
     0
 42
0.000000001
 43
0.00000001
 40
0.0
 40
0.0
 40
0.0
 40
0.0
 40
1.0
 40
1.0
 40
1.0
 40
1.0
 10
242.8777397169655
 20
28.22339924227653
 30
0.0
 10
242.7679847253847
 20
28.00213411644057
 30
0.0
 10
242.6585219511217
 20
27.78082168699626
 30
0.0
 10
242.5493157930543
 20
27.55946771698858
 30
0.0
  0
LINE
  5
1C5
330
1F
100
AcDbEntity
  8
0
  6
Continuous
 62
     7
370
    15
100
AcDbLine
 10
242.919400571
 20
28.2474495414
 30
0.0
 11
242.877739717
 21
28.2233992423
 31
0.0
  0
SPLINE
  5
1C6
330
1F
100
AcDbEntity
  8
0
  6
Continuous
 62
     7
370
    15
100
AcDbSpline
210
0.0
220
0.0
230
1.0
 70
     8
 71
     3
 72
    12
 73
     8
 74
     0
 42
0.000000001
 43
0.00000001
 40
0.0
 40
0.0
 40
0.0
 40
0.0
 40
0.25
 40
0.25
 40
0.5
 40
0.5
 40
1.0
 40
1.0
 40
1.0
 40
1.0
 10
242.9311828164188
 20
28.58081453161582
 30
0.0
 10
242.968790613234
 20
28.5591040126358
 30
0.0
 10
242.9990280606395
 20
28.53221329025975
 30
0.0
 10
243.0375091774154
 20
28.47473411060695
 30
0.0
 10
243.0464067805908
 20
28.44360722892071
 30
0.0
 10
243.0413641824044
 20
28.35150378619106
 30
0.0
 10
242.9947759319814
 20
28.29096281107425
 30
0.0
 10
242.9194005709987
 20
28.24744954138489
 30
0.0
  0
LINE
  5
1C7
330
1F
100
AcDbEntity
  8
0
  6
Continuous
 62
     7
370
    15
100
AcDbLine
 10
242.1462942893
 20
29.0339210337
 30
0.0
 11
242.9311828164
 21
28.5808145316
 31
0.0
  0
SPLINE
  5
1C8
330
1F
100
AcDbEntity
  8
0
  6
Continuous
 62
     7
370
    15
100
AcDbSpline
210
0.0
220
0.0
230
1.0
 70
     8
 71
     3
 72
    12
 73
     8
 74
     0
 42
0.000000001
 43
0.00000001
 40
0.0
 40
0.0
 40
0.0
 40
0.0
 40
0.5000000000000073
 40
0.5000000000000073
 40
0.7500000000000037
 40
0.7500000000000037
 40
1.0
 40
1.0
 40
1.0
 40
1.0
 10
241.5688266189324
 20
29.02711928817558
 30
0.0
 10
241.6440319866462
 20
29.07053442283966
 30
0.0
 10
241.7482767856567
 20
29.09757872568258
 30
0.0
 10
241.9096687917522
 20
29.10042443645715
 30
0.0
 10
241.9630882275185
 20
29.0952403149781
 30
0.0
 10
242.0629122205346
 20
29.07284519076111
 30
0.0
 10
242.1086448971237
 20
29.05565556514932
 30
0.0
 10
242.1462942893018
 20
29.03392103367743
 30
0.0
  0
LINE
  5
1C9
330
1F
100
AcDbEntity
  8
0
  6
Continuous
 62
     7
370
    15
100
AcDbLine
 10
241.5271657649
 20
29.0030689891
 30
0.0
 11
241.5688266189
 21
29.0271192882
 31
0.0
  0
SPLINE
  5
1CA
330
1F
100
AcDbEntity
  8
0
  6
Continuous
 62
     7
370
    15
100
AcDbSpline
210
0.0
220
0.0
230
1.0
 70
     8
 71
     3
 72
     8
 73
     4
 74
     0
 42
0.000000001
 43
0.00000001
 40
0.0
 40
0.0
 40
0.0
 40
0.0
 40
1.0
 40
1.0
 40
1.0
 40
1.0
 10
240.3770780159509
 20
28.81347389343841
 30
0.0
 10
240.7605158847529
 20
28.87651726657477
 30
0.0
 10
241.1438817953918
 20
28.93970878108757
 30
0.0
 10
241.5271657648992
 20
29.00306898906722
 30
0.0
  0
LINE
  5
1CB
330
1F
100
AcDbEntity
  8
0
  6
Continuous
 62
     7
370
    15
100
AcDbLine
 10
239.0148396746
 20
29.5998773488
 30
0.0
 11
240.377078016
 21
28.8134738934
 31
0.0
  0
LINE
  5
1CC
330
1F
100
AcDbEntity
  8
0
  6
Continuous
 62
     7
370
    15
100
AcDbLine
 10
239.0148396746
 20
29.5998773488
 30
0.0
 11
242.8296303558
 21
31.8021091332
 31
0.0
  0
ARC
  5
1CD
330
1F
100
AcDbEntity
  8
0
  6
Continuous
 62
     7
370
    15
100
AcDbCircle
 10
252.2257165419
 20
29.4241499605
 30
0.0
 40
10.01566334660201
100
AcDbArc
 50
194.207532472
 51
237.9790441783
  0
ARC
  5
1CE
330
1F
100
AcDbEntity
  8
0
  6
Continuous
 62
     7
370
    15
100
AcDbCircle
 10
252.4932266712
 20
32.085319097
 30
0.0
 40
11.39099458029922
100
AcDbArc
 50
195.6991739239
 51
211.7569450809
  0
ARC
  5
1CF
330
1F
100
AcDbEntity
  8
0
  6
Continuous
 62
     7
370
    15
100
AcDbCircle
 10
249.2464334114
 20
30.5562785715
 30
0.0
 40
9.470889359196923
100
AcDbArc
 50
193.1269352432
 51
248.2162297357
  0
SPLINE
  5
1D0
330
1F
100
AcDbEntity
  8
0
  6
Continuous
 62
     7
370
    15
100
AcDbSpline
210
0.0
220
0.0
230
1.0
 70
     8
 71
     3
 72
     8
 73
     4
 74
     0
 42
0.000000001
 43
0.00000001
 40
0.0
 40
0.0
 40
0.0
 40
0.0
 40
0.0011891741919631
 40
0.0011891741919631
 40
0.0011891741919631
 40
0.0011891741919631
 10
240.3770780159509
 20
28.81347389343841
 30
0.0
 10
240.2593418359594
 20
28.67704127799294
 30
0.0
 10
240.141318166697
 20
28.54100708299874
 30
0.0
 10
240.023024936348
 20
28.40535287379637
 30
0.0
  0
ELLIPSE
  5
1D1
330
1F
100
AcDbEntity
  8
0
  6
Continuous
 62
     7
370
    15
100
AcDbEllipse
 10
242.7124730683
 20
32.1963589205
 30
0.0
 11
-3.002985189937135E-5
 21
0.4267244807413562
 31
0.0
210
0.0
220
0.0
230
1.0
 40
0.7174342186
 41
3.534193645557627
 42
5.104989972352318
  0
LINE
  5
1D2
330
1F
100
AcDbEntity
  8
0
  6
Continuous
 62
     7
370
    15
100
AcDbLine
 10
238.5780085616
 20
29.3476480383
 30
0.0
 11
239.0148396746
 21
29.5998773488
 31
0.0
  0
LINE
  5
1D3
330
1F
100
AcDbEntity
  8
0
  6
Continuous
 62
     7
370
    15
100
AcDbLine
 10
240.0230249363
 20
28.4053528738
 30
0.0
 11
238.6799345673
 21
29.1807024401
 31
0.0
  0
SPLINE
  5
1D4
330
1F
100
AcDbEntity
  8
0
  6
Continuous
 62
     7
370
    15
100
AcDbSpline
210
0.0
220
0.0
230
1.0
 70
     8
 71
     3
 72
    10
 73
     6
 74
     0
 42
0.000000001
 43
0.00000001
 40
0.0
 40
0.0
 40
0.0
 40
0.0
 40
0.5
 40
0.5
 40
1.0
 40
1.0
 40
1.0
 40
1.0
 10
238.6799345672562
 20
29.18070244009346
 30
0.0
 10
238.653474823832
 20
29.19597732483718
 30
0.0
 10
238.6311741647914
 20
29.21989853854564
 30
0.0
 10
238.5971027824455
 20
29.27796901686585
 30
0.0
 10
238.5852519740079
 20
29.31195008422568
 30
0.0
 10
238.578008561613
 20
29.34764803833211
 30
0.0
  0
ARC
  5
1D5
330
1F
100
AcDbEntity
  8
0
  6
Continuous
 62
     7
370
    15
100
AcDbCircle
 10
248.3288260985
 20
31.5740695951
 30
0.0
 40
9.928676686486154
100
AcDbArc
 50
195.7442657318
 51
238.0763275818
  0
ELLIPSE
  5
1D6
330
1F
100
AcDbEntity
  8
0
  6
Continuous
 62
     7
370
    15
100
AcDbEllipse
 10
242.4760769652
 20
32.0598459914
 30
0.0
 11
0.1300037894604884
 21
0.485271810495469
 31
0.0
210
0.0
220
0.0
230
1.0
 40
0.5176380889
 41
3.619174351347832
 42
5.189970678142604
  0
LINE
  5
1D7
330
1F
100
AcDbEntity
  8
0
  6
Continuous
 62
     7
370
     0
100
AcDbLine
 10
244.2277718357
 20
37.1226158506
 30
0.0
 11
244.3258064662
 21
37.5690829895
 31
0.0
  0
LWPOLYLINE
  5
1D8
330
1F
100
AcDbEntity
  8
0
  6
Continuous
 62
     7
370
     0
100
AcDbPolyline
 90
       17
 70
   128
 43
0.0
 10
260.1980891704
 20
60.8385615956
 10
261.4879895955
 20
61.5778511085
 10
262.9215620149
 20
62.2677340633
 10
264.3401412426
 20
62.8110089665
 10
265.7337896786
 20
63.2038700041
 10
267.0927443709
 20
63.4435650591
 10
268.4074854087
 20
63.5284149913
 10
269.6688026114
 20
63.4578253998
 10
270.8678600497
 20
63.2322907872
 10
271.9962579439
 20
62.8533910955
 10
273.0460915068
 20
62.3237806377
 10
274.0100063193
 20
61.6471695042
 10
274.8812498507
 20
60.8282975717
 10
275.6537187622
 20
59.8729012993
 10
276.3220016627
 20
58.7876735426
 10
276.8814170172
 20
57.5802166683
 10
277.3280459429
 20
56.258989297
  0
LWPOLYLINE
  5
1D9
330
1F
100
AcDbEntity
  8
0
  6
Continuous
 62
     7
370
     0
100
AcDbPolyline
 90
       20
 70
   128
 43
0.0
 10
243.8683305742
 20
37.4562944683
 10
244.3311419295
 20
39.3051280664
 10
244.9060686536
 20
41.1688543953
 10
245.5891411688
 20
43.0346053688
 10
246.3756432054
 20
44.8894989219
 10
247.2601443652
 20
46.7207279542
 10
248.2365376161
 20
48.5156487572
 10
249.2980814571
 20
50.261868312
 10
250.437446466
 20
51.9473298574
 10
251.6467659047
 20
53.5603961354
 10
252.917690035
 20
55.0899297404
 10
254.2414437698
 20
56.525370018
 10
255.6088872602
 20
57.8568059802
 10
257.0105790018
 20
59.0750447364
 10
258.4368410231
 20
60.1716749651
 10
259.8778257077
 20
61.1391249903
 10
261.3235837863
 20
61.9707150595
 10
262.7641330318
 20
62.6607034649
 10
264.1895271816
 20
63.2043261858
 10
265.5117573151
 20
63.5796782334
  0
LWPOLYLINE
  5
1DA
330
1F
100
AcDbEntity
  8
0
  6
Continuous
 62
     7
370
     0
100
AcDbPolyline
 90
       26
 70
   128
 43
0.0
 10
248.3715797534
 20
36.4124191802
 10
248.6204142437
 20
37.946423983
 10
248.9857733825
 20
39.5129421986
 10
249.4641563284
 20
41.0969635776
 10
250.0509792553
 20
42.6833101566
 10
250.7406192738
 20
44.2567816927
 10
251.5264683097
 20
45.8023013101
 10
252.4009964218
 20
47.3050599665
 10
253.3558239533
 20
48.7506583512
 10
254.3818018248
 20
50.1252448588
 10
255.4690992004
 20
51.4156483138
 10
256.6072976856
 20
52.609504176
 10
257.7854911555
 20
53.695373016
 10
258.9923902568
 20
54.6628501275
 10
260.2164305809
 20
55.502665224
 10
261.4458834736
 20
56.2067712659
 10
262.668968418
 20
56.7684215668
 10
263.873965914
 20
57.1822344393
 10
265.0493297743
 20
57.4442447624
 10
266.1837977586
 20
57.5519419746
 10
267.2664994873
 20
57.50429413
 10
268.2870606011
 20
57.3017577865
 10
269.2357021669
 20
56.9462736305
 10
270.1033343789
 20
56.4412478824
 10
270.881643656
 20
55.7915196574
 10
271.1373608474
 20
55.5246164589
  0
LWPOLYLINE
  5
1DB
330
1F
100
AcDbEntity
  8
0
  6
Continuous
 62
     7
370
     0
100
AcDbPolyline
 90
       10
 70
   128
 43
0.0
 10
253.6762799787
 20
25.2778599403
 10
253.3558239533
 20
25.3553231223
 10
252.4009964218
 20
25.6985011049
 10
251.5264683097
 20
26.1915510952
 10
250.7406192738
 20
26.8297487288
 10
250.0509792553
 20
27.6069788479
 10
249.4641563284
 20
28.5157940973
 10
248.9857733825
 20
29.5474862835
 10
248.6204142437
 20
30.6921698164
 10
248.3715797534
 20
31.938876432
  0
LWPOLYLINE
  5
1DC
330
1F
100
AcDbEntity
  8
0
  6
Continuous
 62
     7
370
     0
100
AcDbPolyline
 90
       18
 70
   128
 43
0.0
 10
262.2216224671
 20
22.3938760268
 10
261.4879895955
 20
21.9173289608
 10
260.0494666163
 20
21.0881038384
 10
258.6160703899
 20
20.4007471094
 10
257.1978423139
 20
19.8600739271
 10
255.8047175284
 20
19.4698718794
 10
254.4464553168
 20
19.2328744563
 10
253.1325707393
 20
19.1507419002
 10
251.8722679765
 20
19.2240495759
 10
250.6743758511
 20
19.4522839397
 10
249.5472859796
 20
19.8338461372
 10
248.4988939861
 20
20.3660632035
 10
247.5365441909
 20
21.0452067881
 10
246.6669781612
 20
21.8665192737
 10
245.8962874846
 20
22.8242471044
 10
245.229871095
 20
23.9116810911
 10
244.6723974518
 20
25.121203412
 10
244.2277718357
 20
26.4443409774
  0
LWPOLYLINE
  5
1DD
330
1F
100
AcDbEntity
  8
0
  6
Continuous
 62
     7
370
     0
100
AcDbPolyline
 90
       23
 70
   128
 43
0.0
 10
253.7190747861
 20
31.1600403431
 10
253.7785330693
 20
32.5919759855
 10
253.9563353031
 20
34.0787703775
 10
254.2507691548
 20
35.6061048763
 10
254.6589990655
 20
37.1592704156
 10
255.1770935579
 20
38.7233091624
 10
255.8000630989
 20
40.2831585685
 10
256.5219081513
 20
41.8237964314
 10
257.3356769526
 20
43.3303855663
 10
258.2335324643
 20
44.7884166963
 10
259.2068278471
 20
46.1838481845
 10
260.2461897345
 20
47.5032412629
 10
261.3416085032
 20
48.7338894548
 10
262.4825346716
 20
49.8639409455
 10
263.6579804972
 20
50.8825127214
 10
264.856625794
 20
51.7797953794
 10
266.0669269526
 20
52.547147597
 10
267.2772281111
 20
53.1771793529
 10
268.4758734079
 20
53.6638230969
 10
269.6513192335
 20
54.0023921837
 10
270.792245402
 20
54.1896260079
 10
271.8876641707
 20
54.2237214054
 10
272.3301958234
 20
54.1923903684
  0
ARC
  5
1DE
330
1F
100
AcDbEntity
  8
0
  6
Continuous
 62
     7
370
     0
100
AcDbCircle
 10
264.1979368364
 20
30.6673004805
 30
0.0
 40
10.4904405265962
100
AcDbArc
 50
177.3078055474
 51
213.4054787526
  0
LWPOLYLINE
  5
1DF
330
1F
100
AcDbEntity
  8
0
  6
Continuous
 62
     7
370
     0
100
AcDbPolyline
 90
       21
 70
   128
 43
0.0
 10
254.4261815673
 20
31.1600403431
 10
254.4857839322
 20
29.8153762763
 10
254.663998672
 20
28.552891511
 10
254.9590546085
 20
27.3851331878
 10
255.3680193431
 20
26.3237070137
 10
255.8868284007
 20
25.3791619188
 10
256.5103256238
 20
24.5608852167
 10
257.2323144168
 20
23.8770093088
 10
258.0456193307
 20
23.3343308612
 10
258.942157376
 20
22.9382432561
 10
259.9130183546
 20
22.69268299
 10
260.9485534141
 20
22.6000905512
 10
262.0384709418
 20
22.6613861649
 10
263.1719388477
 20
22.8759606478
 10
264.3376922183
 20
23.2416814624
 10
265.5241452731
 20
23.7549139107
 10
266.7195065086
 20
24.4105572583
 10
267.9118958876
 20
25.2020954268
 10
269.0894629089
 20
26.1216617545
 10
270.2405043824
 20
27.160117178
 10
271.1809153594
 20
28.1193781205
  0
LWPOLYLINE
  5
1E0
330
1F
100
AcDbEntity
  8
0
  6
Continuous
 62
     7
370
     0
100
AcDbPolyline
 90
       38
 70
   128
 43
0.0
 10
277.4304074384
 20
38.9449889003
 10
277.6914343944
 20
39.8536097777
 10
278.0438828511
 20
41.3765176032
 10
278.2808127117
 20
42.8667049136
 10
278.3998692607
 20
44.3093615578
 10
278.3998692607
 20
45.690149766
 10
278.2808127117
 20
46.9953466446
 10
278.0438828511
 20
48.2119805606
 10
277.6914343944
 20
49.3279600597
 10
277.2269701325
 20
50.3321940361
 10
276.6551061202
 20
51.2147019615
 10
275.9815257988
 20
51.9667130756
 10
275.2129235121
 20
52.580753554
 10
274.3569379751
 20
53.0507207867
 10
273.4220763565
 20
53.3719440281
 10
272.4176297311
 20
53.5412308174
 10
271.3535807408
 20
53.5568987063
 10
270.2405043824
 20
53.4187919804
 10
269.0894629089
 20
53.1282832064
 10
267.9118958876
 20
52.6882595909
 10
266.7195065086
 20
52.1030942864
 10
265.5241452731
 20
51.3786029285
 10
264.3376922183
 20
50.5219858379
 10
263.1719388477
 20
49.54175646
 10
262.0384709418
 20
48.4476567548
 10
260.9485534141
 20
47.2505603767
 10
259.9130183546
 20
45.9623646073
 10
258.942157376
 20
44.5958721149
 10
258.0456193307
 20
43.1646637159
 10
257.2323144168
 20
41.6829634023
 10
256.5103256238
 20
40.1654969775
 10
255.8868284007
 20
38.6273457046
 10
255.3680193431
 20
37.083796422
 10
254.9590546085
 20
35.5501896159
 10
254.663998672
 20
34.0417669598
 10
254.4857839322
 20
32.5735198356
 10
254.4261815673
 20
31.1600403431
 10
254.4261815673
 20
31.1600403431
  0
LWPOLYLINE
  5
1E1
330
1F
100
AcDbEntity
  8
0
  6
Continuous
 62
     7
370
     0
100
AcDbPolyline
 90
       20
 70
   128
 43
0.0
 10
238.6799345673
 20
40.4514917286
 10
239.1427459226
 20
42.3003253267
 10
239.7176726467
 20
44.1640516555
 10
240.4007451618
 20
46.0298026291
 10
241.1872471984
 20
47.8846961821
 10
242.0717483583
 20
49.7159252145
 10
243.0481416091
 20
51.5108460175
 10
244.1096854502
 20
53.2570655723
 10
245.2490504591
 20
54.9425271177
 10
246.4583698977
 20
56.5555933956
 10
247.729294028
 20
58.0851270007
 10
249.0530477628
 20
59.5205672782
 10
250.4204912532
 20
60.8520032405
 10
251.8221829948
 20
62.0702419967
 10
253.2484450162
 20
63.1668722254
 10
254.6894297007
 20
64.1343222505
 10
256.1351877793
 20
64.9659123198
 10
257.5757370248
 20
65.6559007251
 10
259.0011311747
 20
66.1995234461
 10
260.3185906864
 20
66.5737527724
  0
LWPOLYLINE
  5
1E2
330
1F
100
AcDbEntity
  8
0
  6
Continuous
 62
     7
370
     0
100
AcDbPolyline
 90
       21
 70
   128
 43
0.0
 10
248.6455836311
 20
34.0889044442
 10
248.7050419143
 20
35.5208400867
 10
248.8828441481
 20
37.0076344787
 10
249.1772779998
 20
38.5349689774
 10
249.5855079105
 20
40.0881345168
 10
250.1036024029
 20
41.6521732636
 10
250.7265719439
 20
43.2120226697
 10
251.4484169963
 20
44.7526605326
 10
252.2621857976
 20
46.2592496675
 10
253.1600413093
 20
47.7172807975
 10
254.1333366921
 20
49.1127122857
 10
255.1726985795
 20
50.432105364
 10
256.2681173482
 20
51.662753556
 10
257.4090435166
 20
52.7928050467
 10
258.5844893422
 20
53.8113768226
 10
259.783134639
 20
54.7086594805
 10
260.9934357976
 20
55.4760116981
 10
262.2037369561
 20
56.1060434541
 10
263.4023822529
 20
56.5926871981
 10
264.5778280785
 20
56.9312562849
 10
265.3188760479
 20
57.0695653337
  0
ARC
  5
1E3
330
1F
100
AcDbEntity
  8
0
  6
Continuous
 62
     7
370
     0
100
AcDbCircle
 10
260.7952823437
 20
33.8465505655
 30
0.0
 40
12.15211562686604
100
AcDbArc
 50
178.8572545325
 51
201.1322279226
  0
LWPOLYLINE
  5
1E4
330
1F
100
AcDbEntity
  8
0
  6
Continuous
 62
     7
370
     0
100
AcDbPolyline
 90
       22
 70
   128
 43
0.0
 10
260.5868493984
 20
34.7165181802
 10
260.6490162561
 20
35.7332430329
 10
260.8341918508
 20
36.8000744868
 10
261.138429486
 20
37.8942748815
 10
261.5552448648
 20
38.9925232354
 10
262.0757542911
 20
40.0714122914
 10
262.68886401
 20
41.1079474026
 10
263.3815066525
 20
42.0800366225
 10
264.1389197431
 20
42.9669615572
 10
264.9449603367
 20
43.7498189415
 10
265.7824490775
 20
44.4119235294
 10
266.633536347
 20
44.9391637112
 10
267.4800826977
 20
45.3203022776
 10
268.3040454639
 20
45.547215922
 10
269.0878633097
 20
45.6150683739
 10
269.8148305185
 20
45.5224134761
 10
270.4694530464
 20
45.2712260069
 10
271.0377787508
 20
44.8668595911
 10
271.5076947559
 20
44.3179325968
 10
271.869185618
 20
43.6361444499
 10
272.1145467869
 20
42.8360262811
 10
272.2380275875
 20
41.9424859847
  0
LWPOLYLINE
  5
1E5
330
1F
100
AcDbEntity
  8
0
  6
Continuous
 62
     7
370
     0
100
AcDbPolyline
 90
       12
 70
   128
 43
0.0
 10
265.9885355085
 20
31.1168752049
 10
265.7824490775
 20
31.0198245343
 10
264.9449603367
 20
30.7149852041
 10
264.1389197431
 20
30.5672079281
 10
263.3815066525
 20
30.5796423225
 10
262.68886401
 20
30.7520233697
 10
262.0757542911
 20
31.080677067
 10
261.5552448648
 20
31.5585987315
 10
261.138429486
 20
32.1756022926
 10
260.8341918508
 20
32.9185373905
 10
260.6490162561
 20
33.7715696536
 10
260.5868493984
 20
34.7165181802
  0
LWPOLYLINE
  5
1E6
330
1F
100
AcDbEntity
  8
0
  6
Continuous
 62
     7
370
     0
100
AcDbPolyline
 90
       19
 70
   128
 43
0.0
 10
242.1462942893
 20
39.5264704664
 10
242.6087337221
 20
41.3493895177
 10
243.1885656637
 20
43.1867335008
 10
243.8812429691
 20
45.0240936376
 10
244.6813335396
 20
46.8470610236
 10
245.582562923
 20
48.6413396246
 10
246.5778635182
 20
50.392858389
 10
247.6594300011
 20
52.0878815954
 10
248.8187805353
 20
53.7131165708
 10
250.0468232878
 20
55.2558179336
 10
251.3339277292
 20
56.7038875457
 10
252.6700001577
 20
58.0459693879
 10
254.044562856
 20
59.2715386159
 10
255.4468362592
 20
60.3709840981
 10
256.8658234901
 20
61.3356837877
 10
258.2903965987
 20
62.1580723382
 10
259.7093838296
 20
62.8317004327
 10
261.1116572328
 20
63.3512853598
 10
261.4267109697
 20
63.4473928531
  0
LWPOLYLINE
  5
1E7
330
1F
100
AcDbEntity
  8
0
  6
Continuous
 62
     7
370
     0
100
AcDbPolyline
 90
       22
 70
   128
 43
0.0
 10
241.5688266189
 20
39.5196687209
 10
242.0170075566
 20
41.3183613958
 10
242.5780409598
 20
43.1320760428
 10
243.2477827701
 20
44.9474157062
 10
244.0212859571
 20
46.7509714272
 10
244.8928370598
 20
48.5294212886
 10
245.8559983888
 20
50.2696288172
 10
246.9036555781
 20
51.9587400156
 10
248.0280701355
 20
53.5842783082
 10
249.2209366022
 20
55.134236699
 10
250.4734439013
 20
56.5971664609
 10
251.7763404204
 20
57.9622617016
 10
253.1200023487
 20
59.2194391808
 10
254.4945047623
 20
60.3594127901
 10
255.8896949353
 20
61.3737621442
 10
257.2952673319
 20
62.2549947782
 10
258.7008397286
 20
62.9966014903
 10
260.0960299016
 20
63.593104422
 10
261.4705323152
 20
64.0400975199
 10
262.8141942435
 20
64.3342790814
 10
264.1170907626
 20
64.473476142
 10
264.7447519896
 20
64.4846612518
  0
ARC
  5
1E8
330
1F
100
AcDbEntity
  8
0
  6
Continuous
 62
     7
370
     0
100
AcDbCircle
 10
266.4859213215
 20
34.3821557269
 30
0.0
 40
3.088795514086544
100
AcDbArc
 50
173.7855481268
 51
234.9022714798
  0
LWPOLYLINE
  5
1E9
330
1F
100
AcDbEntity
  8
0
  6
Continuous
 62
     7
370
     0
100
AcDbPolyline
 90
       16
 70
   128
 43
0.0
 10
270.959439945
 20
42.6805989195
 10
270.827883856
 20
42.7504040539
 10
270.2518861028
 20
42.9355876069
 10
269.6099536477
 20
42.9661685124
 10
268.9195967345
 20
42.8413126028
 10
268.1996465003
 20
42.5644256221
 10
267.4697413107
 20
42.1430603251
 10
266.7497910765
 20
41.5887104589
 10
266.0594341634
 20
40.9164972426
 10
265.4175017082
 20
40.1447569004
 10
264.8415039551
 20
39.2945404972
 10
264.3471526211
 20
38.3890397201
 10
263.9479323221
 20
37.4529542697
 10
263.654732747
 20
36.5118181171
 10
263.4755516159
 20
35.591303003
 10
263.4152765231
 20
34.7165181802
  0
LWPOLYLINE
  5
1EA
330
1F
100
AcDbEntity
  8
0
  6
Continuous
 62
     7
370
     0
100
AcDbPolyline
 90
       11
 70
   128
 43
0.0
 10
274.9619360541
 20
29.0091904616
 10
275.2823868079
 20
28.6074790781
 10
275.7076996043
 20
28.3631700425
 10
276.2166190174
 20
28.2884729395
 10
276.7837112982
 20
28.3871208304
 10
277.3806354516
 20
28.6541836897
 10
277.9775596049
 20
29.0763147879
 10
278.5446518857
 20
29.6324177077
 10
279.0535712988
 20
30.2947006579
 10
279.4788840952
 20
31.0300653958
 10
279.799334849
 20
31.8017613443
  0
LWPOLYLINE
  5
1EB
330
1F
100
AcDbEntity
  8
0
  6
Continuous
 62
     7
370
     0
100
AcDbPolyline
 90
       11
 70
   128
 43
0.0
 10
279.7992366082
 20
34.5050647853
 10
279.4787716184
 20
34.9066958939
 10
279.0534659807
 20
35.1509434645
 10
278.5445715658
 20
35.2256028205
 10
277.9775170475
 20
35.1269433482
 10
277.3806372709
 20
34.8598949103
 10
276.7837574034
 20
34.4378015078
 10
276.2167026169
 20
33.8817545011
 10
275.70780777
 20
33.2195387066
 10
275.2825015579
 20
32.4842440324
 10
274.9620358802
 20
31.7126120263
  0
LINE
  5
1EC
330
1F
100
AcDbEntity
  8
0
  6
Continuous
 62
     7
370
     0
100
AcDbLine
 10
274.0307170757
 20
29.3500231046
 30
0.0
 11
274.1014277538
 21
29.0861328706
 31
0.0
  0
LWPOLYLINE
  5
1ED
330
1F
100
AcDbEntity
  8
0
  6
Continuous
 62
     7
370
     0
100
AcDbPolyline
 90
        3
 70
   128
 43
0.0
 10
279.3686406817
 20
34.4583190301
 10
279.0307173983
 20
34.8368888501
 10
278.9183611993
 20
34.91067101
  0
LWPOLYLINE
  5
1EE
330
1F
100
AcDbEntity
  8
0
  6
Continuous
 62
     7
370
     0
100
AcDbPolyline
 90
        9
 70
   128
 43
0.0
 10
275.5098841721
 20
28.8008841286
 10
275.7539602406
 20
28.7178317539
 10
276.2849955823
 20
28.6998817949
 10
276.868099481
 20
28.869319117
 10
277.4689073534
 20
29.216158119
 10
278.0520112521
 20
29.7199582281
 10
278.5830465938
 20
30.3510285421
 10
279.0307173983
 20
31.0721776302
 10
279.3686406817
 20
31.8409053686
  0
LINE
  5
1EF
330
1F
100
AcDbEntity
  8
0
  6
Continuous
 62
     7
370
     0
100
AcDbLine
 10
273.8215680715
 20
29.4707622548
 30
0.0
 11
274.0307170757
 21
29.3500231046
 31
0.0
  0
LINE
  5
1F0
330
1F
100
AcDbEntity
  8
0
  6
Continuous
 62
     7
370
     0
100
AcDbLine
 10
242.6086594867
 20
37.5739465716
 30
0.0
 11
242.6144628514
 21
38.0144085534
 31
0.0
  0
LWPOLYLINE
  5
1F1
330
1F
100
AcDbEntity
  8
0
  6
Continuous
 62
     7
370
     0
100
AcDbPolyline
 90
        3
 70
   128
 43
0.0
 10
242.6553325376
 20
38.8394756394
 10
242.6681177699
 20
39.005882214
 10
242.6901794267
 20
39.25675935
  0
LWPOLYLINE
  5
1F2
330
1F
100
AcDbEntity
  8
0
  6
Continuous
 62
     7
370
     0
100
AcDbPolyline
 90
        3
 70
   128
 43
0.0
 10
242.6695696907
 20
36.1945785437
 10
242.6681177699
 20
36.2106600017
 10
242.6086594867
 20
37.5739465716
  0
LWPOLYLINE
  5
1F3
330
1F
100
AcDbEntity
  8
0
  6
Continuous
 62
     7
370
     0
100
AcDbPolyline
 90
       19
 70
   128
 43
0.0
 10
211.5325453077
 20
61.4601504475
 10
211.5941218443
 20
62.5805704985
 10
211.7777978625
 20
63.7529146076
 10
212.0804306147
 20
64.9571236421
 10
212.4968419706
 20
66.1725932516
 10
213.0199070164
 20
67.3785264141
 10
213.6406759643
 20
68.5542892788
 10
214.3485272853
 20
69.679764217
 10
215.1313494472
 20
70.7356940406
 10
215.9757481456
 20
71.7040114976
 10
216.8672754849
 20
72.5681484077
 10
217.7906771849
 20
73.3133191488
 10
218.7301535866
 20
73.9267736431
 10
219.6696299884
 20
74.3980155139
 10
220.5930316884
 20
74.7189816822
 10
221.4845590277
 20
74.884180328
 10
222.3289577261
 20
74.8907848565
 10
223.111779888
 20
74.7386822624
 10
223.2671722204
 20
74.6867351006
  0
ARC
  5
1F4
330
1F
100
AcDbEntity
  8
0
  6
Continuous
 62
     7
370
     0
100
AcDbCircle
 10
216.9743980314
 20
61.0258734224
 30
0.0
 40
5.459153560837518
100
AcDbArc
 50
175.4372854892
 51
223.9795749845
  0
LINE
  5
1F5
330
1F
100
AcDbEntity
  8
0
  6
Continuous
 62
     7
370
     0
100
AcDbLine
 10
248.3715797534
 20
39.0953061977
 30
0.0
 11
248.0886910673
 21
39.2586143601
 31
0.0
  0
LINE
  5
1F6
330
1F
100
AcDbEntity
  8
0
  6
Continuous
 62
     7
370
     0
100
AcDbLine
 10
242.9953157808
 20
32.3596405428
 30
0.0
 11
248.3715797534
 21
29.2559894145
 31
0.0
  0
LINE
  5
1F7
330
1F
100
AcDbEntity
  8
0
  6
Continuous
 62
     7
370
     0
100
AcDbLine
 10
242.7589196777
 20
32.2231276138
 30
0.0
 11
242.9953157808
 21
32.3596405428
 31
0.0
  0
LINE
  5
1F8
330
1F
100
AcDbEntity
  8
0
  6
Continuous
 62
     7
370
     0
100
AcDbLine
 10
280.6598431493
 20
32.8722254892
 30
0.0
 11
280.4477111149
 21
33.054474912
 31
0.0
  0
LINE
  5
1F9
330
1F
100
AcDbEntity
  8
0
  6
Continuous
 62
     7
370
     0
100
AcDbLine
 10
278.1496140761
 20
34.3811380937
 30
0.0
 11
280.4477111149
 21
33.054474912
 31
0.0
  0
LINE
  5
1FA
330
1F
100
AcDbEntity
  8
0
  6
Continuous
 62
     7
370
     0
100
AcDbLine
 10
243.9678676696
 20
25.8635560164
 30
0.0
 11
243.8683305742
 21
26.1855051798
 31
0.0
  0
LINE
  5
1FB
330
1F
100
AcDbEntity
  8
0
  6
Continuous
 62
     7
370
     0
100
AcDbLine
 10
248.0887370409
 20
28.7660914674
 30
0.0
 11
242.8296303558
 21
31.8021091332
 31
0.0
  0
LINE
  5
1FC
330
1F
100
AcDbEntity
  8
0
  6
Continuous
 62
     7
370
     0
100
AcDbLine
 10
242.9803636999
 20
28.4200175979
 30
0.0
 11
242.9311828164
 21
28.5808145316
 31
0.0
  0
LWPOLYLINE
  5
1FD
330
1F
100
AcDbEntity
  8
0
  6
Continuous
 62
     7
370
     0
100
AcDbPolyline
 90
        3
 70
   128
 43
0.0
 10
242.6125833439
 20
27.7358595255
 10
242.6087337221
 20
27.7449231867
 10
242.1462942893
 20
29.0339210337
  0
ARC
  5
1FE
330
1F
100
AcDbEntity
  8
0
  6
Continuous
 62
     7
370
     0
100
AcDbCircle
 10
252.5898958044
 20
32.1441759473
 30
0.0
 40
11.45338413780678
100
AcDbArc
 50
195.7923389603
 51
210.4893931685
  0
LINE
  5
1FF
330
1F
100
AcDbEntity
  8
0
  6
Continuous
 62
     7
370
     0
100
AcDbLine
 10
238.7726495533
 20
28.8799815152
 30
0.0
 11
238.6799345673
 21
29.1807024401
 31
0.0
  0
OLE2FRAME
  5
200
330
1F
100
AcDbEntity
  8
0
100
AcDbOle2Frame
 70
     2
  3
Paintbrush-Bild
 10
13.8511154363
 20
38.264191557
 30
0.0
 11
51.6290888628
 21
31.9806341108
 31
0.0
 71
     2
 72
     0
 73
     1
 90
    12928
310
80552BED0767C5B32B40DDAF6807D121434000000000000000006FFBDDFB85D0
310
4940DDAF6807D121434000000000000000006FFBDDFB85D04940416F4BD60AFB
310
3F4000000000000000002BED0767C5B32B40416F4BD60AFB3F40000000000000
310
0000000000000100000000010000010000000100000000000100000000320000
310
D0CF11E0A1B11AE1000000000000000000000000000000003E000300FEFF0900
310
0600000000000000000000000100000001000000000000000010000002000000
310
01000000FEFFFFFF0000000000000000FFFFFFFFFFFFFFFFFFFFFFFFFFFFFFFF
310
FFFFFFFFFFFFFFFFFFFFFFFFFFFFFFFFFFFFFFFFFFFFFFFFFFFFFFFFFFFFFFFF
310
FFFFFFFFFFFFFFFFFFFFFFFFFFFFFFFFFFFFFFFFFFFFFFFFFFFFFFFFFFFFFFFF
310
FFFFFFFFFFFFFFFFFFFFFFFFFFFFFFFFFFFFFFFFFFFFFFFFFFFFFFFFFFFFFFFF
310
FFFFFFFFFFFFFFFFFFFFFFFFFFFFFFFFFFFFFFFFFFFFFFFFFFFFFFFFFFFFFFFF
310
FFFFFFFFFFFFFFFFFFFFFFFFFFFFFFFFFFFFFFFFFFFFFFFFFFFFFFFFFFFFFFFF
310
FFFFFFFFFFFFFFFFFFFFFFFFFFFFFFFFFFFFFFFFFFFFFFFFFFFFFFFFFFFFFFFF
310
FFFFFFFFFFFFFFFFFFFFFFFFFFFFFFFFFFFFFFFFFFFFFFFFFFFFFFFFFFFFFFFF
310
FFFFFFFFFFFFFFFFFFFFFFFFFFFFFFFFFFFFFFFFFFFFFFFFFFFFFFFFFFFFFFFF
310
FFFFFFFFFFFFFFFFFFFFFFFFFFFFFFFFFFFFFFFFFFFFFFFFFFFFFFFFFFFFFFFF
310
FFFFFFFFFFFFFFFFFFFFFFFFFFFFFFFFFFFFFFFFFFFFFFFFFFFFFFFFFFFFFFFF
310
FFFFFFFFFFFFFFFFFFFFFFFFFFFFFFFFFFFFFFFFFFFFFFFFFFFFFFFFFFFFFFFF
310
FFFFFFFFFFFFFFFFFFFFFFFFFFFFFFFFFFFFFFFFFFFFFFFFFFFFFFFFFFFFFFFF
310
FFFFFFFFFFFFFFFFFFFFFFFFFFFFFFFFFFFFFFFFFFFFFFFFFFFFFFFFFFFFFFFF
310
FDFFFFFFFEFFFFFFFEFFFFFFFEFFFFFF05000000060000000700000008000000
310
090000000A0000000B0000000C0000000D0000000E0000000F00000010000000
310
11000000120000001300000014000000150000001600000017000000FEFFFFFF
310
FFFFFFFFFFFFFFFFFFFFFFFFFFFFFFFFFFFFFFFFFFFFFFFFFFFFFFFFFFFFFFFF
310
FFFFFFFFFFFFFFFFFFFFFFFFFFFFFFFFFFFFFFFFFFFFFFFFFFFFFFFFFFFFFFFF
310
FFFFFFFFFFFFFFFFFFFFFFFFFFFFFFFFFFFFFFFFFFFFFFFFFFFFFFFFFFFFFFFF
310
FFFFFFFFFFFFFFFFFFFFFFFFFFFFFFFFFFFFFFFFFFFFFFFFFFFFFFFFFFFFFFFF
310
FFFFFFFFFFFFFFFFFFFFFFFFFFFFFFFFFFFFFFFFFFFFFFFFFFFFFFFFFFFFFFFF
310
FFFFFFFFFFFFFFFFFFFFFFFFFFFFFFFFFFFFFFFFFFFFFFFFFFFFFFFFFFFFFFFF
310
FFFFFFFFFFFFFFFFFFFFFFFFFFFFFFFFFFFFFFFFFFFFFFFFFFFFFFFFFFFFFFFF
310
FFFFFFFFFFFFFFFFFFFFFFFFFFFFFFFFFFFFFFFFFFFFFFFFFFFFFFFFFFFFFFFF
310
FFFFFFFFFFFFFFFFFFFFFFFFFFFFFFFFFFFFFFFFFFFFFFFFFFFFFFFFFFFFFFFF
310
FFFFFFFFFFFFFFFFFFFFFFFFFFFFFFFFFFFFFFFFFFFFFFFFFFFFFFFFFFFFFFFF
310
FFFFFFFFFFFFFFFFFFFFFFFFFFFFFFFFFFFFFFFFFFFFFFFFFFFFFFFFFFFFFFFF
310
FFFFFFFFFFFFFFFFFFFFFFFFFFFFFFFFFFFFFFFFFFFFFFFFFFFFFFFFFFFFFFFF
310
FFFFFFFFFFFFFFFFFFFFFFFFFFFFFFFFFFFFFFFFFFFFFFFFFFFFFFFFFFFFFFFF
310
52006F006F007400200045006E00740072007900000000000000000000000000
310
0000000000000000000000000000000000000000000000000000000000000000
310
16000500FFFFFFFFFFFFFFFF020000000A00030000000000C000000000000046
310
000000000000000000000000C0022722191BD20103000000C000000000000000
310
01004F006C006500000000000000000000000000000000000000000000000000
310
0000000000000000000000000000000000000000000000000000000000000000
310
0A000200FFFFFFFFFFFFFFFFFFFFFFFF00000000000000000000000000000000
310
0000000000000000000000000000000000000000000000001400000000000000
310
010043006F006D0070004F0062006A0000000000000000000000000000000000
310
0000000000000000000000000000000000000000000000000000000000000000
310
120002010100000003000000FFFFFFFF00000000000000000000000000000000
310
0000000000000000000000000000000000000000010000004D00000000000000
310
01004F006C006500310030004E00610074006900760065000000000000000000
310
0000000000000000000000000000000000000000000000000000000000000000
310
1A000200FFFFFFFFFFFFFFFFFFFFFFFF00000000000000000000000000000000
310
0000000000000000000000000000000000000000040000002426000000000000
310
FEFFFFFF02000000FEFFFFFFFFFFFFFFFFFFFFFFFFFFFFFFFFFFFFFFFFFFFFFF
310
FFFFFFFFFFFFFFFFFFFFFFFFFFFFFFFFFFFFFFFFFFFFFFFFFFFFFFFFFFFFFFFF
310
FFFFFFFFFFFFFFFFFFFFFFFFFFFFFFFFFFFFFFFFFFFFFFFFFFFFFFFFFFFFFFFF
310
FFFFFFFFFFFFFFFFFFFFFFFFFFFFFFFFFFFFFFFFFFFFFFFFFFFFFFFFFFFFFFFF
310
FFFFFFFFFFFFFFFFFFFFFFFFFFFFFFFFFFFFFFFFFFFFFFFFFFFFFFFFFFFFFFFF
310
FFFFFFFFFFFFFFFFFFFFFFFFFFFFFFFFFFFFFFFFFFFFFFFFFFFFFFFFFFFFFFFF
310
FFFFFFFFFFFFFFFFFFFFFFFFFFFFFFFFFFFFFFFFFFFFFFFFFFFFFFFFFFFFFFFF
310
FFFFFFFFFFFFFFFFFFFFFFFFFFFFFFFFFFFFFFFFFFFFFFFFFFFFFFFFFFFFFFFF
310
FFFFFFFFFFFFFFFFFFFFFFFFFFFFFFFFFFFFFFFFFFFFFFFFFFFFFFFFFFFFFFFF
310
FFFFFFFFFFFFFFFFFFFFFFFFFFFFFFFFFFFFFFFFFFFFFFFFFFFFFFFFFFFFFFFF
310
FFFFFFFFFFFFFFFFFFFFFFFFFFFFFFFFFFFFFFFFFFFFFFFFFFFFFFFFFFFFFFFF
310
FFFFFFFFFFFFFFFFFFFFFFFFFFFFFFFFFFFFFFFFFFFFFFFFFFFFFFFFFFFFFFFF
310
FFFFFFFFFFFFFFFFFFFFFFFFFFFFFFFFFFFFFFFFFFFFFFFFFFFFFFFFFFFFFFFF
310
FFFFFFFFFFFFFFFFFFFFFFFFFFFFFFFFFFFFFFFFFFFFFFFFFFFFFFFFFFFFFFFF
310
FFFFFFFFFFFFFFFFFFFFFFFFFFFFFFFFFFFFFFFFFFFFFFFFFFFFFFFFFFFFFFFF
310
FFFFFFFFFFFFFFFFFFFFFFFFFFFFFFFFFFFFFFFFFFFFFFFFFFFFFFFFFFFFFFFF
310
0100000200000000000000000000000000000000000000000000000000000000
310
0000000000000000000000000000000000000000000000000000000000000000
310
0100FEFF030A0000FFFFFFFF0A00030000000000C00000000000004607000000
310
5042727573680007000000504272757368000700000050427275736800F439B2
310
7100000000000000000000000000000000000000000000000000000000000000
310
0000000000000000000000000000000000000000000000000000000000000000
310
0000000000000000000000000000000000000000000000000000000000000000
310
0000000000000000000000000000000000000000000000000000000000000000
310
0000000000000000000000000000000000000000000000000000000000000000
310
0000000000000000000000000000000000000000000000000000000000000000
310
0000000000000000000000000000000000000000000000000000000000000000
310
0000000000000000000000000000000000000000000000000000000000000000
310
0000000000000000000000000000000000000000000000000000000000000000
310
0000000000000000000000000000000000000000000000000000000000000000
310
0000000000000000000000000000000000000000000000000000000000000000
310
0000000000000000000000000000000000000000000000000000000000000000
310
20260000424D0E260000000000003E00000028000000B40200006E0000000100
310
01000000000000000000130B0000130B00000200000002000000000000FFFFFF
310
FFFFFFFFFFFFFFFFFFFFFFFFFFFFFFFFFFFFFFFFFFFFFFFFFFFFFFFFFFFFFFFF
310
FFFFFFFFFFFFFFFFFFFFFFFFFFFFFFFFFFFFFFFFFFFFFFFFFFFFFFFFFFFFFFFF
310
FFFFFFFFFFFFFFFFFFFFFFFFFFFFFFFFFFFFFFFFFFFFFFFFF000FFFFFFFFFFFF
310
FFFFFFFFFFFFFFFFFFFFFFFFFFFFFFFFFFFFFFFFFFFFFFFFFFFFFFFFFFFFFFFF
310
FFFFFFFFFFFFFFFFFFFFFFFFFFFFFFFFFFFFFFFFFFFFFFFFFFFFFFFFFFFFFFFF
310
FFFFFFFFFFFFFFFFFFFFFFFFFFFFFFFFF000FFFFFFFFFFFFFFFFFFFFFFFFFFFF
310
FFFFFFFFFFFFFFFFFFFFFFFFFFFFFFFFFFFFFFFFFFFFFFFFFFFFFFFFFFFFFFFF
310
FFFFFFFFFFFFFFFFFFFFFFFFFFFFFFFFFFFFFFFFFFFFFFFFFFFFFFFFFFFFFFFF
310
FFFFFFFFFFFFFFFFF000FFFFFFFFFFFFFFFFFFFFFFFFFFFFFFFFFFFFFFFFFFFF
310
FFFFFFFFFFFFFFFFFFFFFFFFFFFFFFFFFFFFFFFFFFFFFFFFFFFFFFFFFFFFFFFF
310
FFFFFFFFFFFFFFFFFFFFFFFFFFFFFFFFFFFFFFFFFFFFFFFFFFFFFFFFFFFFFFFF
310
F000FFFFFFFFFFFFFFFFFFFFFFFFFFFFFFFFFFFFFFFFFFFFFFFFFFFFFFFFFFFF
310
FFFFFFFFFFFFFFFFFFFFFFFFFFFFFFFFFFFFFFFFFFFFFFFFFFFFFFFFFFFFFFFF
310
FFFFFFFFFFFFFFFFFFFFFFFFFFFFFFFFFFFFFFFFFFFFFFFFF000FFFFFFFFFFFF
310
FFFFFFFFFFFFFFFFFFFFFFFFFFFFFFFFFFFFFFFFFFFFFFFFFFFFFFFFFFFFFFFF
310
FFFFFFFFFFFFFFFFFFFFFFFFFFFFFFFFFFFFFFFFFFFFFFFFFFFFFFFFFFFFFFFF
310
FFFFFFFFFFFFFFFFFFFFFFFFFFFFFFFFF000FFFFFFFFFFFFFFFFFFFFFFFFFFFF
310
FFFFFFFFFFFFFFFFFFFFFFFFFFFFFFFFFFFFFFFFFFFFFFFFFFFFFFFFFFFFFFFF
310
FFFFFFFFFFFFFFFFFFFFFFFFFFFFFFFFFFFFFFFFFFFFFFFFFFFFFFFFFFFFFFFF
310
FFFFFFFFFFFFFFFFF000FFFFFFFFFFFFFFFFFFFFFFFFFFFFFFFFFFFFFFFFFFFF
310
FFFFFFFFFFFFFFFFFFFFFFFFFFFFFFFFFFFFFFFFFFFFFFFFFFFFFFFFFFFFFFFF
310
FFFFFFFFFFFFFFFFFFFFFFFFFFFFFFFFFFFFFFFFFFFFFFFFFFFFFFFFFFFFFFFF
310
F000FFFFFFFFFFFFFFFFFFFFFFFFFFFFFFFFFFFFFFFFFFFFFFFFFFFFFFFFFFFF
310
FFFFFFFFFFFFFFFFFFFFFFFFFFFFFFFFFFFFFFFFFFFFFFFFFFFFFFFFFFFFFFFF
310
FFFFFFFFFFFFFFFFFFFFFFFFFFFFFFFFFFFFFFFFFFFFFFFFF000FFFFFFFFFFFF
310
FFFFFFFFFFFFFFFFFFFFFFFFFFFFFFFFFFFFFFFFFFFFFFFFFFFFFFFFFFFFFFFF
310
FFFFFFFFFFFFFFFFFFFFFFFFFFFFFFFFFFFFFFFFFFFFFFFFFFFFFFFFFFFFFFFF
310
FFFFFFFFFFFFFFFFFFFFFFFFFFFFFFFFF000FFFFFFFFFFFFFFFFFFFFFFFFFFFF
310
FFFFFFFFFFFFFFFFFFFFFFFFFFFFFFFFFFFFFFFFFFFFFFFFFFFFFFFFFFFFFFFF
310
FFFFFFFFFFFFFFFFFFFFFFFFFFFFFFFFFFFFFFFFFFFFFFFFFFFFFFFFFFFFFFFF
310
FFFFFFFFFFFFFFFFF000FFFFFFFFFFFFFFFFFFFFFFFFFFFFFFFFFFFFFFFFFFFF
310
FFFFFFFFFFFFFFFFFFFFFFFFFFFFFFFFFFFFFFFFFFFFFFFFFFFFFFFFFFFFFFFF
310
FFFFFFFFFFFFFFFFFFFFFFFFFFFFFFFFFFFFFFFFFFFFFFFFFFFFFFFFFFFFFFFF
310
F000FFFFFFFFFFFFFFFFFFFFFFFFFFFFFFFFFFFFFFFFFFFFFFFFFFFFFFFFFFFF
310
FFFFFFFFFFFFFFFFFFFFFFFFFFFFFFFFFFFFFFFFFFFFFFFFFFFFFFFFFFFFFFFF
310
FFFFFFFFFFFFFFFFFFFFFFFFFFFFFFFFFFFFFFFFFFFFFFFFF000FFFFFFFFFFFF
310
FFFFFFFFFFFFFFFFFFFFFFFFFFFFFFFFFFFFFFFFFFFFFFFFFFFFFFFFFFFFFFFF
310
FFFFFFFFFFFFFFFFFFFFFFFFFFFFFFFFFFFFFFFFFFFFFFFFFFFFFFFFFFFFFFFF
310
FFFFFFFFFFFFFFFFFFFFFFFFFFFFFFFFF000FFFFFFFFFFFFFFFFFFFFFFFFFFFF
310
FFFFFFFFFFFFFFFFFFFFFFFFFFFFFFFFFFFFFFFFFFFFFFFFFFFFFFFFFFFFFFFF
310
FFFFFFFFFFFFFFFFFFFFFFFFFFFFFFFFFFFFFFFFFFFFFFFFFFFFFFFFFFFFFFFF
310
FFFFFFFFFFFFFFFFF000FFFFFFFFFFFFFFFFFFFFFFFFFFFFFFFFFFFFFFFFFFFF
310
FFFFFFFFFFFFFFFFFFFFFFFFFFFFFFFFFFFFFFFFFFFFFFFFFFFFFFFFFFFFFFFF
310
FFFFFFFFFFFFFFFFFFFFFFFFFFFFFFFFFFFFFFFFFFFFFFFFFFFFFFFFFFFFFFFF
310
F000FFFFFFFFFFFFFFFFFFFFFFFFFFFFFFFFFFFFFFFFFFFFFFFFFFFFFFFFFFFF
310
FFFFFFFFFFFFFFFFFFFFFFFFFFFFFFFFFFFFFFFFFFFFFFFFFFFFFFFFFFFFFFFF
310
FFFFFFFFFFFFFFFFFFFFFFFFFFFFFFFFFFFFFFFFFFFFFFFFF000FFFFFFFFFFFF
310
FFFFFFFFFFFFFFFFFFFFFFFFFFFFFFFFFFFFFFFFFFFFFFFFFFFFFFFFFFFFFFFF
310
FFFFFFFFFFFFFFFFFFFFFFFFFFFFFFFFFFFFFFFFFFFFFFFFFFFFFFFFFFFFFFFF
310
FFFFFFFFFFFFFFFFFFFFFFFFFFFFFFFFF000FFFFFFFFFFFFFFFFFFFFFFFFFFFF
310
FFFFFFFFFFFFFFFFFFFFFFFFFFFFFFFFFFFFFFFFFFFFFFFFFFFFFFFFFFFFFFFF
310
FFFFFFFFFFFFFFFFFFFFFFFFFFFFFFFFFFFFFFFFFFFFFFFFFFFFFFFFFFFFFFFF
310
FFFFFFFFFFFFFFFFF000FFFFF80003FFFFFFFFFFFFFFFFFFFFFFFFFFFFFFFFFF
310
FFFFF00007FFFFFFFFFF00007FFFFFF800000000000000007FFFFFFFFFFFFFFF
310
FFFFFFFC001FFFFFFFFFFFFFFC001FFFFFFFFFFFFFFFFFFFFFFFFFFE0007FFFF
310
F000FFFF8000007FFFFFFFF8000FFFFFC0007FFFFF80007FFFFF0000007FFFFF
310
FFF8000007FFFFF800000000000000007FFFFFF0001FFFFFFFFFFFC00001FFFF
310
FFFFFFFFC00001FFFFFFFF000000000003FFFFE000007FFFF000FFFE0000000F
310
FFFFFFF0000FFFFF80007FFFFF80007FFFFC0000001FFFFFFFC0000001FFFFF8
310
00000000000000007FFFFFF0001FFFFFFFFFFE0000003FFFFFFFFFFE0000003F
310
FFFFFF000000000003FFFF0000000FFFF000FFF800000003FFFFFFF00007FFFF
310
80007FFFFF80007FFFF000000007FFFFFF000000003FFFF80000000000000000
310
7FFFFFF0001FFFFFFFFFF80000000FFFFFFFFFF80000000FFFFFFF0000000000
310
03FFFC00000003FFF000FFE000000000FFFFFFF00007FFFF80003FFFFF80007F
310
FFC000000001FFFFFC000000001FFFF800000000000000007FFFFFF0001FFFFF
310
FFFFE000000003FFFFFFFFE000000003FFFFFF000000000003FFF000000000FF
310
F000FF80000000007FFFFFF00007FFFF80003FFFFF80007FFF8000000000FFFF
310
F80000000007FFF800000000000000007FFFFFF0001FFFFFFFFFC000000001FF
310
FFFFFFC000000001FFFFFF000000000003FFC0000000007FF000FF0000000000
310
3FFFFFE00007FFFF00003FFFFF80007FFE00000000003FFFF00000000003FFF8
310
00000000000000007FFFFFF0001FFFFFFFFF8000000000FFFFFFFF8000000000
310
FFFFFF000000000003FF80000000003FF000FE00000000001FFFFFE00003FFFF
310
00003FFFFF80007FFC00000000001FFFE00000000001FFF8000001FFFE000000
310
7FFFFFF0001FFFFFFFFE00000000003FFFFFFE00000000003FFFFF0000000000
310
03FF00000000001FF000FC00000000000FFFFFE00003FFFF00001FFFFF80007F
310
F800000000001FFFC00000000000FFF8000001FFFE0000007FFFFFF0001FFFFF
310
FFFC00000000001FFFFFFC00000000001FFFFF000000000003FE00000000000F
310
F000F8000000000007FFFFE00003FFFF00001FFFFF80007FF800000000000FFF
310
800000000000FFF8000001FFFE0000007FFFFFF0001FFFFFFFF800000000000F
310
FFFFF800000000000FFFFF000000000003FC000000000007F000F80000000000
310
03FFFFC00003FFFE00001FFFFF80007FF0000000000007FF0000000000007FF8
310
000001FFFE0000007FFFFFF0001FFFFFFFF0000000000007FFFFF00000000000
310
07FFFF000000000003F8000000000003F000F0000000000003FFFFC00001FFFE
310
00001FFFFF80007FE0000000000007FE0000000000003FF8000001FFFE000000
310
7FFFFFF0001FFFFFFFF0000000000007FFFFF0000000000007FFFF0000000000
310
03F800001F800003F000E00001FFF00001FFFFC00001FFFE00000FFFFF80007F
310
E00001FFE00003FE00001FFF00003FF8000001FFFE0000007FFFFFF0001FFFFF
310
FFE000003E000003FFFFE000003E000003FFFF000000000003F00001FFF80001
310
F000E00007FFFC0001FFFFC00001FFFE00000FFFFF80007FC0000FFFFC0003FC
310
0000FFFFC0001FF8000001FFFE0000007FFFFFF0001FFFFFFFC00003FFE00001
310
FFFFC00003FFE00001FFFF0001FFFFFFFFF00007FFFE0001F000E0000FFFFF00
310
00FFFF800001FFFC00000FFFFF80007FC0001FFFFE0001FC0001FFFFE0001FF8
310
000001FFFE0000007FFFFFF0001FFFFFFF80000FFFF80000FFFF80000FFFF800
310
00FFFF0003FFFFFFFFE0000FFFFF8000F000C0003FFFFF8000FFFF800000FFFC
310
000007FFFF80007F80003FFFFF0001FC0003FFFFF0001FF8000001FFFE000000
310
7FFFFFF0001FFFFFFF80003FFFFE0000FFFF80003FFFFE0000FFFF0003FFFFFF
310
FFE0003FFFFF8000F000C0003FFFFF8000FFFF800000FFFC000007FFFF80007F
310
80007FFFFF8001F80007FFFFF8000FF8000001FFFE0000007FFFFFF0001FFFFF
310
FF00007FFFFF00007FFF00007FFFFF00007FFF0003FFFFFFFFE0003FFFFFC000
310
F000C0007FFFFFC000FFFF000000FFFC000007FFFF80007F8000FFFFFF8000F8
310
000FFFFFF8000FF8000001FFFE0000007FFFFFF0001FFFFFFF0000FFFFFF8000
310
7FFF0000FFFFFF80007FFF0003FFFFFFFFC0007FFFFFC00070008000FFFFFFC0
310
00FFFF000000FFF8000007FFFF80007F8000FFFFFF8000F8000FFFFFF8000FF8
310
000001FFFE0000007FFFFFF0001FFFFFFE0001FFFFFFC0003FFE0001FFFFFFC0
310
003FFF0003FFFFFFFFC0007FFFFFE00070008000FFFFFFC0007FFF0000007FF8
310
000003FFFF80007F0001FFFFFF8000F8000FFFFFF8000FF8000001FFFE000000
310
7FFFFFF0001FFFFFFE0001FFFFFFC0003FFE0001FFFFFFC0003FFF0003FFFFFF
310
FFC000FFFFFFE00070008000FFFFFFC0007FFF0000007FF8000003FFFF80007F
310
0001FFFFFF8000F8001FFFFFF8000FF8000001FFFE0000007FFFFFF0001FFFFF
310
FE0003FFFFFFE0003FFE0003FFFFFFE0003FFF0003FFFFFFFFC000FFFFFFE000
310
70008000FFFFFFC0007FFE0000007FF8000003FFFF80007F0001FFFFFF8000F0
310
001FFFFFF8000FF8000001FFFE0000007FFFFFF0001FFFFFFC0003FFFFFFE000
310
1FFC0003FFFFFFE0001FFF0003FFFFFFFFC000FFFFFFC00070008000FFFFFF80
310
007FFE0000007FF0000003FFFF80007F0001FFFFFF0000F0001FFFFFF8000FF8
310
000001FFFE0000007FFFFFF0001FFFFFFC0007FFFFFFF0001FFC0007FFFFFFF0
310
001FFF0003FFFFFFFFC000FFFFFFC00070008001FFFFFF0000FFFE0000003FF0
310
000001FFFF80007F0001FFFFFF0000F8001FFFFFF0000FF8000001FFFE000000
310
7FFFFFF0001FFFFFFC0007FFFFFFF0001FFC0007FFFFFFF0001FFF0003FFFFFF
310
FFC001FFFFFF80007000FFFFFFFFFE0000FFFE0008003FF0008001FFFF80007F
310
FFFFFFFFFC0000FFFFFFFFFFE0000FF8000001FFFE0000007FFFFFF0001FFFFF
310
F8000FFFFFFFF8000FF8000FFFFFFFF8000FFF0003FFFFFFFFFFFFFFFFFF0000
310
7000FFFFFFFFFC0000FFFC0008003FF0008001FFFF80007FFFFFFFFFF80001FF
310
FFFFFFFF80000FF8000001FFFE0000007FFFFFF0001FFFFFF8000FFFFFFFF800
310
0FF8000FFFFFFFF8000FFF0003FFFFFFFFFFFFFFFFFE0000F000FFFFFFFFE000
310
00FFFC000C003FE000C001FFFF80007FFFFFFFFFC00001FFFFFFFFFE00001FF8
310
000001FFFE0000007FFFFFF0001FFFFFF8000FFFFFFFF8000FF8000FFFFFFFF8
310
000FFF0003FFFFFFFFFFFFFFFFF00000F000FFFFFFFE000001FFFC000C001FE0
310
00C000FFFF80007FFFFFFFFE000001FFFFFFFFE000001FF80FFFFFFFFFFFFFC0
310
7FFFFFF0001FFFFFF8000FFFFFFFF8000FF8000FFFFFFFF8000FFF0003FFFFFF
310
FFFFFFFFFF800000F000FFFFFFC0000001FFFC001C001FE001C000FFFF80007F
310
FFFFFF80000003FFFFFFF80000001FF80FFFFFFFFFFFFFC07FFFFFF0001FFFFF
310
F8001FFFFFFFFC000FF8001FFFFFFFFC000FFF0003FFFFFFFFFFFFFFF0000001
310
F000FFFFF800000001FFF8001C001FE001C000FFFF80007FFFFFF800000003FF
310
FFFF800000003FF80FFFFFFFFFFFFFC07FFFFFF0001FFFFFF8001FFFFFFFFC00
310
0FF8001FFFFFFFFC000FFF0003FFFFFFFFFFFFFE00000001F000FFFFC0000000
310
03FFF8001E001FC001E000FFFF80007FFFFF8000000007FFFFFC000000003FF8
310
0FFFFFFFFFFFFFC07FFFFFF0001FFFFFF8001FFFFFFFFC000FF8001FFFFFFFFC
310
000FFF0003FFFFFFFFFFFFE000000003F000FFFE0000000007FFF8001E000FC0
310
01E0007FFF80007FFFFE0000000007FFFFE0000000007FF80FFFFFFFFFFFFFC0
310
7FFFFFF0001FFFFFF0001FFFFFFFFC0007F0001FFFFFFFFC0007FF0003FFFFFF
310
FFFFFF0000000003F000FFF80000000007FFF8001E000FC003E0007FFF80007F
310
FFF0000000000FFFFF8000000000FFF80FFFFFFFFFFFFFC07FFFFFF0001FFFFF
310
F0001FFFFFFFFC0007F0001FFFFFFFFC0007FF0003FFFFFFFFFFFC0000000007
310
F000FFE0000000000FFFF0003E000FC003E0007FFF80007FFFC0000000001FFF
310
FE0000000001FFF80FFFFFFFFFFFFFC07FFFFFF0001FFFFFF0001FFFFFFFFC00
310
07F0001FFFFFFFFC0007FF0003FFFFFFFFFFF0000000000FF000FFC000000000
310
1FFFF0003F000F8003F0003FFF80007FFF80000000003FFFF80000000003FFF8
310
0FFFFFFFFFFFFFC07FFFFFF0001FFFFFF0001FFFFFFFFC0007F0001FFFFFFFFC
310
0007FF0003FFFFFFFFFFE0000000001FF000FF00000000007FFFF0003F000780
310
03F0003FFF80007FFF00000000007FFFF00000000007FFF80FFFFFFFFFFFFFC0
310
7FFFFFF0001FFFFFF0001FFFFFFFFC0007F0001FFFFFFFFC0007FF0003FFFFFF
310
FFFF80000000007FF000FE0000000000FFFFE0003F00078007F0003FFF80007F
310
FE0000000001FFFFE0000000001FFFF80FFFFFFFFFFFFFC07FFFFFF0001FFFFF
310
F0001FFFFFFFFC0007F0001FFFFFFFFC0007FF0003FFFFFFFFFF0000000000FF
310
F000FC0000000003FFFFE0007F00078007F0003FFF80007FFC0000000007FFFF
310
C0000000007FFFF80FFFFFFFFFFFFFC07FFFFFF0001FFFFFF8001FFFFFFFFC00
310
0FF8001FFFFFFFFC000FFF0003FFFFFFFFFE0000000003FFF000FC000000000F
310
FFFFE0007F80070007F8001FFF80007FF8000000001FFFFF8000000001FFFFF8
310
0FFFFFFFFFFFFFC07FFFFFF0001FFFFFF8001FFFFFFFFC000FF8001FFFFFFFFC
310
000FFF0003FFFFFFFFFC000000000FFFF000F8000000007FFFFFE0007F800700
310
07F8001FFF80007FF000000000FFFFFF800000000FFFFFF80FFFFFFFFFFFFFC0
310
7FFFFFF0001FFFFFF8000FFFFFFFF8000FF8000FFFFFFFF8000FFF0003FFFFFF
310
FFFC000000007FFFF000F800000007FFFFFFC0007F8003000FF8001FFF80007F
310
F000000007FFFFFF000000007FFFFFF80FFFFFFFFFFFFFC07FFFFFF0001FFFFF
310
F8000FFFFFFFF8000FF8000FFFFFFFF8000FFF0003FFFFFFFFF80000000FFFFF
310
F000F0000000FFFFFFFFC000FF8003000FF8001FFF80007FE0000000FFFFFFFF
310
0000000FFFFFFFF8000001FFFE0000007FFFFFF0001FFFFFF8000FFFFFFFF800
310
0FF8000FFFFFFFF8000FFF0003FFFFFFFFF8000000FFFFFFF000F000000FFFFF
310
FFFFC000FFC002000FF8000FFF80007FE000001FFFFFFFFE000001FFFFFFFFF8
310
000001FFFE0000007FFFFFF0001FFFFFF8000FFFFFFFF8000FF8000FFFFFFFF8
310
000FFF0003FFFFFFFFF000001FFFFFFFF000E00000FFFFFFFFFFC000FFC00200
310
0FFC000FFF80007FE00001FFFFFFFFFE00001FFFFFFFFFF8000001FFFE000000
310
7FFFFFF0001FFFFFFC000FFFFFFFF8001FFC000FFFFFFFF8001FFF0003FFFFFF
310
FFF00001FFFFFFFFF000E00007FFFFFFFFFF8000FFC000001FFC000FFF80007F
310
C0000FFFFFFFFFFE0000FFFFFFFFFFF8000001FFFE0000007FFFFFF0001FFFFF
310
FC0007FFFFFFF0001FFC0007FFFFFFF0001FFF0003FFFFFFFFF00007FFFFFFFF
310
F000E0001FFFFFFFFFFF8000FFC000001FFC000FFF80007FC0003FFFFFFFFFFE
310
0001FFFFFFFFFFF8000001FFFE0000007FFFFFF0001FFFFFFC0007FFFFFFF000
310
1FFC0007FFFFFFF0001FFF0003FFFFFFFFF0001FFFFFFFFFF000E0003FFFFF00
310
03FF8001FFE000001FFC0007FF80007FC0007FFFFF0007FC0003FFFFF0003FF8
310
000001FFFE0000007FFFFFF0001FFFFFFC0003FFFFFFE0001FFC0003FFFFFFE0
310
001FFF0003FFFFFFFFF0003FFFFFFFFFF000E0003FFFFF0001FF8001FFE00000
310
1FFE0007FF80007FC0007FFFFE0003FC0007FFFFE0003FF8000001FFFE000000
310
7FFFFFF0001FFFFFFE0003FFFFFFE0003FFE0003FFFFFFE0003FFF0003FFFFFF
310
FFF0003FFFFF8001F000E0003FFFFF0001FF0001FFE000001FFE0007FF80007F
310
C0007FFFFE0003FC0007FFFFE0003FF8000001FFFE0000007FFFFFF0001FFFFF
310
FE0001FFFFFFC0003FFE0001FFFFFFC0003FFF0003FFFFFFFFF0003FFFFF0001
310
F000E0003FFFFF0003FF0001FFE000003FFE0007FF80007FC0007FFFFE0003FC
310
0007FFFFE0003FF8000001FFFE0000007FFFFFF0001FFFFFFF0001FFFFFFC000
310
7FFF0001FFFFFFC0007FFF0003FFFFFFFFF0003FFFFF0001F000E0003FFFFE00
310
03FF0003FFF000003FFE0003FF80007FC0007FFFFC0003FE0007FFFFE0003FF8
310
000001FFFE0000007FFFFFF0001FFFFFFF0000FFFFFF80007FFF0000FFFFFF80
310
007FFF0003FFFFFFFFF0003FFFFF0001F000E0003FFFFE0003FF0003FFF00000
310
3FFF0003FF80007FC0007FFFFC0007FE0007FFFFC0003FF8000001FFFE000000
310
7FFFFFF0001FFFFFFF80007FFFFF0000FFFF80007FFFFF0000FFFF0003FFFFFF
310
FFF0003FFFFF0003F000E0003FFFFC0003FE0003FFF000003FFF0003FF80007F
310
E0003FFFF80007FE0003FFFFC0007FF8000001FFFE0000007FFFFFF0001FFFFF
310
FF80003FFFFE0000FFFF80003FFFFE0000FFFF0003FFFFFFFFF0001FFFFE0003
310
F000F0001FFFF80003FE0003FFF000007FFF0001FF80007FE0003FFFF00007FE
310
0001FFFF80007FF8000001FFFE0000007FFFFFF0001FFFFFFFC0000FFFF80001
310
FFFFC0000FFFF80001FFFF0003FFFFFFFFF0001FFFFC0003F000F0000FFFF000
310
07FE0007FFF800007FFF0001FF80007FE0001FFFE00007FF0000FFFE00007FF8
310
000001FFFE0000007FFFFFF0001FFFFFFFC00003FFE00001FFFFC00003FFE000
310
01FFFF0003FFFFFFFFF8000FFFF80003F000F00003FFC00007FC0007FFF80000
310
7FFF8001FF80007FF00007FF80000FFF00007FF80000FFF8000001FFFE000000
310
7F80000000000001FFE000003E000003FFFFE000003E000003FFFF0003FFFFFF
310
FFF80003FFE00007F000F800000000000FFC0007FFF800007FFF8001FF80007F
310
F000000000000FFF000000000000FFF8000001FFFE0000007F80000000000001
310
FFF0000000000007FFFFF0000000000007FFFF0003FFFFFFFFFC00007E000007
310
F000F800000000000FFC0007FFF80000FFFF8000FF80007FF800000000001FFF
310
800000000001FFF8000001FFFE0000007F80000000000001FFF800000000000F
310
FFFFF800000000000FFFFF0003FFFFFFFFFC00000000000FF000FC0000000000
310
1FFC0007FFFC0000FFFF8000FF80007FF800000000003FFFC00000000001FFF8
310
000001FFFE0000007F80000000000001FFF800000000000FFFFFF80000000000
310
0FFFFF0003FFFFFFFFFE00000000001FF000FE00000000003FF8000FFFFC0000
310
FFFF8000FF80007FFC00000000003FFFC00000000003FFF8000001FFFE000000
310
7F80000000000001FFFC00000000001FFFFFFC00000000001FFFFF0003FFFFFF
310
FFFF00000000001FF000FF00000000003FF8000FFFFC0000FFFFC000FF80007F
310
FE00000000007FFFE00000000007FFF8000001FFFE0000007F80000000000001
310
FFFE00000000003FFFFFFE00000000003FFFFF0003FFFFFFFFFF80000000003F
310
F000FF80000000007FF8000FFFFC0001FFFFC0007F80007FFF0000000000FFFF
310
F0000000000FFFF800000000000000007F80000000000001FFFF8000000000FF
310
FFFFFF8000000000FFFFFF0003FFFFFFFFFFC0000000007FF000FFC000000000
310
FFF8000FFFFE0001FFFFC0007F80007FFF8000000001FFFFF8000000001FFFF8
310
00000000000000007F80000000000001FFFFC000000001FFFFFFFFC000000001
310
FFFFFF0003FFFFFFFFFFE000000000FFF000FFE000000003FFF0001FFFFE0001
310
FFFFC0007F80007FFFC000000007FFFFFE000000003FFFF80000000000000000
310
7F80000000000001FFFFE000000003FFFFFFFFE000000003FFFFFF0003FFFFFF
310
FFFFF000000003FFF000FFF80000000FFFF0001FFFFE0001FFFFE0007F80007F
310
FFF00000000FFFFFFF00000000FFFFF800000000000000007F80000000000001
310
FFFFF80000000FFFFFFFFFF80000000FFFFFFF0003FFFFFFFFFFFC0000000FFF
310
F000FFFE0000003FFFF0001FFFFE0003FFFFE0003F80007FFFFC0000003FFFFF
310
FFC0000003FFFFF800000000000000007F80000000000001FFFFFE0000003FFF
310
FFFFFFFE0000003FFFFFFF0003FFFFFFFFFFFF0000003FFFF000FFFF800000FF
310
FFF0001FFFFF0003FFFFE0003F80007FFFFF000001FFFFFFFFF800001FFFFFF8
310
00000000000000007F80000000000001FFFFFFC00001FFFFFFFFFFFFC00001FF
310
FFFFFF0003FFFFFFFFFFFFC00000FFFFF000FFFFF8000FFFFFFFFFFFFFFFFFFF
310
FFFFFFFFFFFFFFFFFFFFF0001FFFFFFFFFFF0000FFFFFFF80000000000000000
310
7FFFFFFFFFFFFFFFFFFFFFFC001FFFFFFFFFFFFFFC001FFFFFFFFFFFFFFFFFFF
310
FFFFFFFC001FFFFFF000FFFFFFFFFFFFFFFFFFFFFFFFFFFFFFFFFFFFFFFFFFFF
310
FFFFFFFFFFFFFFFFFFFFFFFFFFFFFFFFFFFFFFFFFFFFFFFFFFFFFFFFFFFFFFFF
310
FFFFFFFFFFFFFFFFFFFFFFFFFFFFFFFFFFFFFFFFFFFFFFFFFFFFFFFFFFFFFFFF
310
F000FFFFFFFFFFFFFFFFFFFFFFFFFFFFFFFFFFFFFFFFFFFFFFFFFFFFFFFFFFFF
310
FFFFFFFFFFFFFFFFFFFFFFFFFFFFFFFFFFFFFFFFFFFFFFFFFFFFFFFFFFFFFFFF
310
FFFFFFFFFFFFFFFFFFFFFFFFFFFFFFFFFFFFFFFFFFFFFFFFF000FFFFFFFFFFFF
310
FFFFFFFFFFFFFFFFFFFFFFFFFFFFFFFFFFFFFFFFFFFFFFFFFFFFFFFFFFFFFFFF
310
FFFFFFFFFFFFFFFFFFFFFFFFFFFFFFFFFFFFFFFFFFFFFFFFFFFFFFFFFFFFFFFF
310
FFFFFFFFFFFFFFFFFFFFFFFFFFFFFFFFF000FFFFFFFFFFFFFFFFFFFFFFFFFFFF
310
FFFFFFFFFFFFFFFFFFFFFFFFFFFFFFFFFFFFFFFFFFFFFFFFFFFFFFFFFFFFFFFF
310
FFFFFFFFFFFFFFFFFFFFFFFFFFFFFFFFFFFFFFFFFFFFFFFFFFFFFFFFFFFFFFFF
310
FFFFFFFFFFFFFFFFF000FFFFFFFFFFFFFFFFFFFFFFFFFFFFFFFFFFFFFFFFFFFF
310
FFFFFFFFFFFFFFFFFFFFFFFFFFFFFFFFFFFFFFFFFFFFFFFFFFFFFFFFFFFFFFFF
310
FFFFFFFFFFFFFFFFFFFFFFFFFFFFFFFFFFFFFFFFFFFFFFFFFFFFFFFFFFFFFFFF
310
F000FFFFFFFFFFFFFFFFFFFFFFFFFFFFFFFFFFFFFFFFFFFFFFFFFFFFFFFFFFFF
310
FFFFFFFFFFFFFFFFFFFFFFFFFFFFFFFFFFFFFFFFFFFFFFFFFFFFFFFFFFFFFFFF
310
FFFFFFFFFFFFFFFFFFFFFFFFFFFFFFFFFFFFFFFFFFFFFFFFF000FFFFFFFFFFFF
310
FFFFFFFFFFFFFFFFFFFFFFFFFFFFFFFFFFFFFFFFFFFFFFFFFFFFFFFFFFFFFFFF
310
FFFFFFFFFFFFFFFFFFFFFFFFFFFFFFFFFFFFFFFFFFFFFFFFFFFFFFFFFFFFFFFF
310
FFFFFFFFFFFFFFFFFFFFFFFFFFFFFFFFF000FFFFFFFFFFFFFFFFFFFFFFFFFFFF
310
FFFFFFFFFFFFFFFFFFFFFFFFFFFFFFFFFFFFFFFFFFFFFFFFFFFFFFFFFFFFFFFF
310
FFFFFFFFFFFFFFFFFFFFFFFFFFFFFFFFFFFFFFFFFFFFFFFFFFFFFFFFFFFFFFFF
310
FFFFFFFFFFFFFFFFF000FFFFFFFFFFFFFFFFFFFFFFFFFFFFFFFFFFFFFFFFFFFF
310
FFFFFFFFFFFFFFFFFFFFFFFFFFFFFFFFFFFFFFFFFFFFFFFFFFFFFFFFFFFFFFFF
310
FFFFFFFFFFFFFFFFFFFFFFFFFFFFFFFFFFFFFFFFFFFFFFFFFFFFFFFFFFFFFFFF
310
F000FFFFFFFFFFFFFFFFFFFFFFFFFFFFFFFFFFFFFFFFFFFFFFFFFFFFFFFFFFFF
310
FFFFFFFFFFFFFFFFFFFFFFFFFFFFFFFFFFFFFFFFFFFFFFFFFFFFFFFFFFFFFFFF
310
FFFFFFFFFFFFFFFFFFFFFFFFFFFFFFFFFFFFFFFFFFFFFFFFF000FFFFFFFFFFFF
310
FFFFFFFFFFFFFFFFFFFFFFFFFFFFFFFFFFFFFFFFFFFFFFFFFFFFFFFFFFFFFFFF
310
FFFFFFFFFFFFFFFFFFFFFFFFFFFFFFFFFFFFFFFFFFFFFFFFFFFFFFFFFFFFFFFF
310
FFFFFFFFFFFFFFFFFFFFFFFFFFFFFFFFF000FFFFFFFFFFFFFFFFFFFFFFFFFFFF
310
FFFFFFFFFFFFFFFFFFFFFFFFFFFFFFFFFFFFFFFFFFFFFFFFFFFFFFFFFFFFFFFF
310
FFFFFFFFFFFFFFFFFFFFFFFFFFFFFFFFFFFFFFFFFFFFFFFFFFFFFFFFFFFFFFFF
310
FFFFFFFFFFFFFFFFF000FFFFFFFFFFFFFFFFFFFFFFFFFFFFFFFFFFFFFFFFFFFF
310
FFFFFFFFFFFFFFFFFFFFFFFFFFFFFFFFFFFFFFFFFFFFFFFFFFFFFFFFFFFFFFFF
310
FFFFFFFFFFFFFFFFFFFFFFFFFFFFFFFFFFFFFFFFFFFFFFFFFFFFFFFFFFFFFFFF
310
F000FFFFFFFFFFFFFFFFFFFFFFFFFFFFFFFFFFFFFFFFFFFFFFFFFFFFFFFFFFFF
310
FFFFFFFFFFFFFFFFFFFFFFFFFFFFFFFFFFFFFFFFFFFFFFFFFFFFFFFFFFFFFFFF
310
FFFFFFFFFFFFFFFFFFFFFFFFFFFFFFFFFFFFFFFFFFFFFFFFF000FFFFFFFFFFFF
310
FFFFFFFFFFFFFFFFFFFFFFFFFFFFFFFFFFFFFFFFFFFFFFFFFFFFFFFFFFFFFFFF
310
FFFFFFFFFFFFFFFFFFFFFFFFFFFFFFFFFFFFFFFFFFFFFFFFFFFFFFFFFFFFFFFF
310
FFFFFFFFFFFFFFFFFFFFFFFFFFFFFFFFF000FFFFFFFFFFFFFFFFFFFFFFFFFFFF
310
FFFFFFFFFFFFFFFFFFFFFFFFFFFFFFFFFFFFFFFFFFFFFFFFFFFFFFFFFFFFFFFF
310
FFFFFFFFFFFFFFFFFFFFFFFFFFFFFFFFFFFFFFFFFFFFFFFFFFFFFFFFFFFFFFFF
310
FFFFFFFFFFFFFFFFF000FFFFFFFFFFFFFFFFFFFFFFFFFFFFFFFFFFFFFFFFFFFF
310
FFFFFFFFFFFFFFFFFFFFFFFFFFFFFFFFFFFFFFFFFFFFFFFFFFFFFFFFFFFFFFFF
310
FFFFFFFFFFFFFFFFFFFFFFFFFFFFFFFFFFFFFFFFFFFFFFFFFFFFFFFFFFFFFFFF
310
F000FFFFFFFFFFFFFFFFFFFFFFFFFFFFFFFFFFFFFFFFFFFFFFFFFFFFFFFFFFFF
310
FFFFFFFFFFFFFFFFFFFFFFFFFFFFFFFFFFFFFFFFFFFFFFFFFFFFFFFFFFFFFFFF
310
FFFFFFFFFFFFFFFFFFFFFFFFFFFFFFFFFFFFFFFFFFFFFFFFF000FFFFFFFFFFFF
310
FFFFFFFFFFFFFFFFFFFFFFFFFFFFFFFFFFFFFFFFFFFFFFFFFFFFFFFFFFFFFFFF
310
FFFFFFFFFFFFFFFFFFFFFFFFFFFFFFFFFFFFFFFFFFFFFFFFFFFFFFFFFFFFFFFF
310
FFFFFFFFFFFFFFFFFFFFFFFFFFFFFFFFF000FFFFFFFFFFFFFFFFFFFFFFFFFFFF
310
FFFFFFFFFFFFFFFFFFFFFFFFFFFFFFFFFFFFFFFFFFFFFFFFFFFFFFFFFFFFFFFF
310
FFFFFFFFFFFFFFFFFFFFFFFFFFFFFFFFFFFFFFFFFFFFFFFFFFFFFFFFFFFFFFFF
310
FFFFFFFFFFFFFFFFF000FFFFFFFFFFFFFFFFFFFFFFFFFFFFFFFFFFFFFFFFFFFF
310
FFFFFFFFFFFFFFFFFFFFFFFFFFFFFFFFFFFFFFFFFFFFFFFFFFFFFFFFFFFFFFFF
310
FFFFFFFFFFFFFFFFFFFFFFFFFFFFFFFFFFFFFFFFFFFFFFFFFFFFFFFFFFFFFFFF
310
F000FFFFFFFFFFFFFFFFFFFFFFFFFFFFFFFFFFFFFFFFFFFFFFFFFFFFFFFFFFFF
310
FFFFFFFFFFFFFFFFFFFFFFFFFFFFFFFFFFFFFFFFFFFFFFFFFFFFFFFFFFFFFFFF
310
FFFFFFFFFFFFFFFFFFFFFFFFFFFFFFFFFFFFFFFFFFFFFFFFF000FFFFFFFFFFFF
310
FFFFFFFFFFFFFFFFFFFFFFFFFFFFFFFFFFFFFFFFFFFFFFFFFFFFFFFFFFFFFFFF
310
FFFFFFFFFFFFFFFFFFFFFFFFFFFFFFFFFFFFFFFFFFFFFFFFFFFFFFFFFFFFFFFF
310
FFFFFFFFFFFFFFFFFFFFFFFFFFFFFFFFF0000000000000000000000000000000
310
0000000000000000000000000000000000000000000000000000000000000000
310
0000000000000000000000000000000000000000000000000000000000000000
310
0000000000000000000000000000000000000000000000000000000000000000
310
0000000000000000000000000000000000000000000000000000000000000000
310
0000000000000000000000000000000000000000000000000000000000000000
310
0000000000000000000000000000000000000000000000000000000000000000
310
0000000000000000000000000000000000000000000000000000000000000000
310
0000000000000000000000000000000000000000000000000000000000000000
310
0000000000000000000000000000000000000000000000000000000000000000
310
0000000000000000000000000000000000000000000000000000000000000000
310
0000000000000000000000000000000000000000000000000000000000000000
310
0000000000000000000000000000000000000000000000000000000000000000
310
0000000000000000000000000000000000000000000000000000000000000000
310
0000000000000000000000000000000000000000000000000000000000000000
310
0000000000000000000000000000000000000000000000000000000000000000
  1
OLE
  0
ENDSEC
  0
SECTION
  2
OBJECTS
  0
DICTIONARY
  5
C
330
0
100
AcDbDictionary
281
     1
  3
ACAD_GROUP
350
D
  3
ACAD_LAYOUT
350
1A
  3
ACAD_MLINESTYLE
350
17
  3
ACAD_PLOTSETTINGS
350
19
  3
ACAD_PLOTSTYLENAME
350
E
  3
ACAD_SCALELIST
350
47
  0
DICTIONARY
  5
D
102
{ACAD_REACTORS
330
C
102
}
330
C
100
AcDbDictionary
281
     1
  0
DICTIONARY
  5
1A
102
{ACAD_REACTORS
330
C
102
}
330
C
100
AcDbDictionary
281
     1
  3
Layout1
350
1E
  3
Layout2
350
26
  3
Model
350
22
  0
DICTIONARY
  5
17
102
{ACAD_REACTORS
330
C
102
}
330
C
100
AcDbDictionary
281
     1
  3
Standard
350
18
  0
DICTIONARY
  5
19
102
{ACAD_REACTORS
330
C
102
}
330
C
100
AcDbDictionary
281
     1
  0
ACDBDICTIONARYWDFLT
  5
E
102
{ACAD_REACTORS
330
C
102
}
330
C
100
AcDbDictionary
281
     1
  3
Normal
350
F
100
AcDbDictionaryWithDefault
340
F
  0
DICTIONARY
  5
47
102
{ACAD_REACTORS
330
C
102
}
330
C
100
AcDbDictionary
281
     1
  3
A0
350
48
  3
A1
350
49
  3
A2
350
4A
  3
A3
350
4B
  3
A4
350
4C
  3
A5
350
4D
  3
A6
350
4E
  3
A7
350
4F
  3
A8
350
50
  3
A9
350
51
  3
B0
350
52
  3
B1
350
53
  3
B2
350
54
  3
B3
350
55
  3
B4
350
56
  3
B5
350
57
  3
B6
350
58
  3
B7
350
59
  3
B8
350
5A
  3
B9
350
5B
  3
C0
350
5C
  3
C1
350
5D
  3
C2
350
5E
  3
C3
350
5F
  3
C4
350
60
  3
C5
350
61
  3
C6
350
62
  3
C7
350
63
  3
C8
350
64
  3
C9
350
65
  3
D0
350
66
  3
D1
350
67
  3
D2
350
68
  0
LAYOUT
  5
1E
102
{ACAD_REACTORS
330
1A
102
}
330
1A
100
AcDbPlotSettings
  1

  2
none_device
  4

  6

 40
0.0
 41
0.0
 42
0.0
 43
0.0
 44
0.0
 45
0.0
 46
0.0
 47
0.0
 48
0.0
 49
0.0
140
0.0
141
0.0
142
1.0
143
1.0
 70
   688
 72
     1
 73
     0
 74
     5
  7

 75
    16
147
1.0
148
0.0
149
0.0
100
AcDbLayout
  1
Layout1
 70
     1
 71
     1
 10
0.0
 20
0.0
 11
420.0
 21
297.0
 12
0.0
 22
0.0
 32
0.0
 14
1.0000000000E+20
 24
1.0000000000E+20
 34
1.0000000000E+20
 15
-1.0000000000E+20
 25
-1.0000000000E+20
 35
-1.0000000000E+20
146
0.0
 13
0.0
 23
0.0
 33
0.0
 16
1.0
 26
0.0
 36
0.0
 17
0.0
 27
1.0
 37
0.0
 76
     0
330
1B
  0
LAYOUT
  5
26
102
{ACAD_REACTORS
330
1A
102
}
330
1A
100
AcDbPlotSettings
  1

  2
none_device
  4

  6

 40
0.0
 41
0.0
 42
0.0
 43
0.0
 44
0.0
 45
0.0
 46
0.0
 47
0.0
 48
0.0
 49
0.0
140
0.0
141
0.0
142
1.0
143
1.0
 70
   688
 72
     1
 73
     0
 74
     5
  7

 75
    16
147
1.0
148
0.0
149
0.0
100
AcDbLayout
  1
Layout2
 70
     1
 71
     2
 10
0.0
 20
0.0
 11
0.0
 21
0.0
 12
0.0
 22
0.0
 32
0.0
 14
0.0
 24
0.0
 34
0.0
 15
0.0
 25
0.0
 35
0.0
146
0.0
 13
0.0
 23
0.0
 33
0.0
 16
1.0
 26
0.0
 36
0.0
 17
0.0
 27
1.0
 37
0.0
 76
     0
330
23
  0
LAYOUT
  5
22
102
{ACAD_REACTORS
330
1A
102
}
330
1A
100
AcDbPlotSettings
  1

  2
none_device
  4
Letter_(8.50_x_11.00_Inches)
  6

 40
6.35
 41
6.35
 42
6.35000508
 43
6.35000508
 44
215.9
 45
279.4
 46
0.0
 47
0.0
 48
0.0
 49
0.0
140
0.0
141
0.0
142
1.0
143
1.0
 70
  1712
 72
     1
 73
     0
 74
     0
  7

 75
     0
147
1.0
148
0.0
149
0.0
100
AcDbLayout
  1
Model
 70
     1
 71
     0
 10
0.0
 20
0.0
 11
297.0
 21
210.0
 12
0.0
 22
0.0
 32
0.0
 14
0.0
 24
0.0
 34
0.0
 15
297.0
 25
210.0
 35
0.0
146
0.0
 13
0.0
 23
0.0
 33
0.0
 16
1.0
 26
0.0
 36
0.0
 17
0.0
 27
1.0
 37
0.0
 76
     0
330
1F
331
29
  0
MLINESTYLE
  5
18
102
{ACAD_REACTORS
330
17
102
}
330
17
100
AcDbMlineStyle
  2
Standard
 70
     0
  3

 62
   256
 51
90.0
 52
90.0
 71
     2
 49
0.5
 62
   256
  6
BYLAYER
 49
-0.5
 62
   256
  6
BYLAYER
  0
ACDBPLACEHOLDER
  5
F
102
{ACAD_REACTORS
330
E
102
}
330
E
  0
SCALE
  5
48
102
{ACAD_REACTORS
330
47
102
}
330
47
100
AcDbScale
 70
     0
300
1:1
140
1.0
141
1.0
290
     1
  0
SCALE
  5
49
102
{ACAD_REACTORS
330
47
102
}
330
47
100
AcDbScale
 70
     0
300
1:2
140
1.0
141
2.0
290
     0
  0
SCALE
  5
4A
102
{ACAD_REACTORS
330
47
102
}
330
47
100
AcDbScale
 70
     0
300
1:4
140
1.0
141
4.0
290
     0
  0
SCALE
  5
4B
102
{ACAD_REACTORS
330
47
102
}
330
47
100
AcDbScale
 70
     0
300
1:5
140
1.0
141
5.0
290
     0
  0
SCALE
  5
4C
102
{ACAD_REACTORS
330
47
102
}
330
47
100
AcDbScale
 70
     0
300
1:8
140
1.0
141
8.0
290
     0
  0
SCALE
  5
4D
102
{ACAD_REACTORS
330
47
102
}
330
47
100
AcDbScale
 70
     0
300
1:10
140
1.0
141
10.0
290
     0
  0
SCALE
  5
4E
102
{ACAD_REACTORS
330
47
102
}
330
47
100
AcDbScale
 70
     0
300
1:16
140
1.0
141
16.0
290
     0
  0
SCALE
  5
4F
102
{ACAD_REACTORS
330
47
102
}
330
47
100
AcDbScale
 70
     0
300
1:20
140
1.0
141
20.0
290
     0
  0
SCALE
  5
50
102
{ACAD_REACTORS
330
47
102
}
330
47
100
AcDbScale
 70
     0
300
1:30
140
1.0
141
30.0
290
     0
  0
SCALE
  5
51
102
{ACAD_REACTORS
330
47
102
}
330
47
100
AcDbScale
 70
     0
300
1:40
140
1.0
141
40.0
290
     0
  0
SCALE
  5
52
102
{ACAD_REACTORS
330
47
102
}
330
47
100
AcDbScale
 70
     0
300
1:50
140
1.0
141
50.0
290
     0
  0
SCALE
  5
53
102
{ACAD_REACTORS
330
47
102
}
330
47
100
AcDbScale
 70
     0
300
1:100
140
1.0
141
100.0
290
     0
  0
SCALE
  5
54
102
{ACAD_REACTORS
330
47
102
}
330
47
100
AcDbScale
 70
     0
300
2:1
140
2.0
141
1.0
290
     0
  0
SCALE
  5
55
102
{ACAD_REACTORS
330
47
102
}
330
47
100
AcDbScale
 70
     0
300
4:1
140
4.0
141
1.0
290
     0
  0
SCALE
  5
56
102
{ACAD_REACTORS
330
47
102
}
330
47
100
AcDbScale
 70
     0
300
8:1
140
8.0
141
1.0
290
     0
  0
SCALE
  5
57
102
{ACAD_REACTORS
330
47
102
}
330
47
100
AcDbScale
 70
     0
300
10:1
140
10.0
141
1.0
290
     0
  0
SCALE
  5
58
102
{ACAD_REACTORS
330
47
102
}
330
47
100
AcDbScale
 70
     0
300
100:1
140
100.0
141
1.0
290
     0
  0
SCALE
  5
59
102
{ACAD_REACTORS
330
47
102
}
330
47
100
AcDbScale
 70
     0
300
1/128" = 1'-0"
140
0.0078125
141
12.0
290
     0
  0
SCALE
  5
5A
102
{ACAD_REACTORS
330
47
102
}
330
47
100
AcDbScale
 70
     0
300
1/64" = 1'-0"
140
0.015625
141
12.0
290
     0
  0
SCALE
  5
5B
102
{ACAD_REACTORS
330
47
102
}
330
47
100
AcDbScale
 70
     0
300
1/32" = 1'-0"
140
0.03125
141
12.0
290
     0
  0
SCALE
  5
5C
102
{ACAD_REACTORS
330
47
102
}
330
47
100
AcDbScale
 70
     0
300
1/16" = 1'-0"
140
0.0625
141
12.0
290
     0
  0
SCALE
  5
5D
102
{ACAD_REACTORS
330
47
102
}
330
47
100
AcDbScale
 70
     0
300
3/32" = 1'-0"
140
0.09375
141
12.0
290
     0
  0
SCALE
  5
5E
102
{ACAD_REACTORS
330
47
102
}
330
47
100
AcDbScale
 70
     0
300
1/8" = 1'-0"
140
0.125
141
12.0
290
     0
  0
SCALE
  5
5F
102
{ACAD_REACTORS
330
47
102
}
330
47
100
AcDbScale
 70
     0
300
3/16" = 1'-0"
140
0.1875
141
12.0
290
     0
  0
SCALE
  5
60
102
{ACAD_REACTORS
330
47
102
}
330
47
100
AcDbScale
 70
     0
300
1/4" = 1'-0"
140
0.25
141
12.0
290
     0
  0
SCALE
  5
61
102
{ACAD_REACTORS
330
47
102
}
330
47
100
AcDbScale
 70
     0
300
3/8" = 1'-0"
140
0.375
141
12.0
290
     0
  0
SCALE
  5
62
102
{ACAD_REACTORS
330
47
102
}
330
47
100
AcDbScale
 70
     0
300
1/2" = 1'-0"
140
0.5
141
12.0
290
     0
  0
SCALE
  5
63
102
{ACAD_REACTORS
330
47
102
}
330
47
100
AcDbScale
 70
     0
300
3/4" = 1'-0"
140
0.75
141
12.0
290
     0
  0
SCALE
  5
64
102
{ACAD_REACTORS
330
47
102
}
330
47
100
AcDbScale
 70
     0
300
1" = 1'-0"
140
1.0
141
12.0
290
     0
  0
SCALE
  5
65
102
{ACAD_REACTORS
330
47
102
}
330
47
100
AcDbScale
 70
     0
300
1-1/2" = 1'-0"
140
1.5
141
12.0
290
     0
  0
SCALE
  5
66
102
{ACAD_REACTORS
330
47
102
}
330
47
100
AcDbScale
 70
     0
300
3" = 1'-0"
140
3.0
141
12.0
290
     0
  0
SCALE
  5
67
102
{ACAD_REACTORS
330
47
102
}
330
47
100
AcDbScale
 70
     0
300
6" = 1'-0"
140
6.0
141
12.0
290
     0
  0
SCALE
  5
68
102
{ACAD_REACTORS
330
47
102
}
330
47
100
AcDbScale
 70
     0
300
1'-0" = 1'-0"
140
12.0
141
12.0
290
     0
  0
ENDSEC
  0
EOF
