  0
SECTION
  2
HEADER
  9
$ACADVER
  1
AC1015
  9
$ACADMAINTVER
 70
     6
  9
$DWGCODEPAGE
  3
ANSI_1252
  9
$INSBASE
 10
0.0
 20
0.0
 30
0.0
  9
$EXTMIN
 10
0.0
 20
0.0
 30
0.0
  9
$EXTMAX
 10
297.0
 20
210.0
 30
0.0
  9
$LIMMIN
 10
0.0
 20
0.0
  9
$LIMMAX
 10
297.0
 20
210.0
  9
$ORTHOMODE
 70
     0
  9
$REGENMODE
 70
     1
  9
$FILLMODE
 70
     1
  9
$QTEXTMODE
 70
     0
  9
$MIRRTEXT
 70
     1
  9
$LTSCALE
 40
1.0
  9
$ATTMODE
 70
     1
  9
$TEXTSIZE
 40
2.0
  9
$TRACEWID
 40
1.0
  9
$TEXTSTYLE
  7
Standard
  9
$CLAYER
  8
0
  9
$CELTYPE
  6
ByLayer
  9
$CECOLOR
 62
   256
  9
$CELTSCALE
 40
1.0
  9
$DISPSILH
 70
     0
  9
$DIMSCALE
 40
1.0
  9
$DIMASZ
 40
3.0
  9
$DIMEXO
 40
0.0
  9
$DIMDLI
 40
3.75
  9
$DIMRND
 40
0.0
  9
$DIMDLE
 40
0.0
  9
$DIMEXE
 40
1.0
  9
$DIMTP
 40
0.0
  9
$DIMTM
 40
0.0
  9
$DIMTXT
 40
2.0
  9
$DIMCEN
 40
2.5
  9
$DIMTSZ
 40
0.0
  9
$DIMTOL
 70
     0
  9
$DIMLIM
 70
     0
  9
$DIMTIH
 70
     1
  9
$DIMTOH
 70
     1
  9
$DIMSE1
 70
     0
  9
$DIMSE2
 70
     0
  9
$DIMTAD
 70
     1
  9
$DIMZIN
 70
     0
  9
$DIMBLK
  1

  9
$DIMASO
 70
     1
  9
$DIMSHO
 70
     1
  9
$DIMPOST
  1

  9
$DIMAPOST
  1

  9
$DIMALT
 70
     0
  9
$DIMALTD
 70
     3
  9
$DIMALTF
 40
0.0393700787
  9
$DIMLFAC
 40
1.0
  9
$DIMTOFL
 70
     1
  9
$DIMTVP
 40
0.0
  9
$DIMTIX
 70
     0
  9
$DIMSOXD
 70
     0
  9
$DIMSAH
 70
     0
  9
$DIMBLK1
  1

  9
$DIMBLK2
  1

  9
$DIMSTYLE
  2
ISO-25
  9
$DIMCLRD
 70
     0
  9
$DIMCLRE
 70
     0
  9
$DIMCLRT
 70
     0
  9
$DIMTFAC
 40
1.0
  9
$DIMGAP
 40
1.524
  9
$DIMJUST
 70
     0
  9
$DIMSD1
 70
     0
  9
$DIMSD2
 70
     0
  9
$DIMTOLJ
 70
     0
  9
$DIMTZIN
 70
     0
  9
$DIMALTZ
 70
     0
  9
$DIMALTTZ
 70
     0
  9
$DIMUPT
 70
     0
  9
$DIMDEC
 70
     2
  9
$DIMTDEC
 70
     3
  9
$DIMALTU
 70
     2
  9
$DIMALTTD
 70
     3
  9
$DIMTXSTY
  7
Standard
  9
$DIMAUNIT
 70
     0
  9
$DIMADEC
 70
     2
  9
$DIMALTRND
 40
0.0
  9
$DIMAZIN
 70
     0
  9
$DIMDSEP
 70
    44
  9
$DIMATFIT
 70
     3
  9
$DIMFRAC
 70
     0
  9
$DIMLDRBLK
  1

  9
$DIMLUNIT
 70
     2
  9
$DIMLWD
 70
    -2
  9
$DIMLWE
 70
    -2
  9
$DIMTMOVE
 70
     0
  9
$LUNITS
 70
     2
  9
$LUPREC
 70
     2
  9
$SKETCHINC
 40
1.0
  9
$FILLETRAD
 40
10.0
  9
$AUNITS
 70
     0
  9
$AUPREC
 70
     2
  9
$MENU
  1
.
  9
$ELEVATION
 40
0.0
  9
$PELEVATION
 40
0.0
  9
$THICKNESS
 40
0.0
  9
$LIMCHECK
 70
     0
  9
$CHAMFERA
 40
0.0
  9
$CHAMFERB
 40
0.0
  9
$CHAMFERC
 40
0.0
  9
$CHAMFERD
 40
0.0
  9
$SKPOLY
 70
     0
  9
$TDCREATE
 40
2457662.613580509
  9
$TDUCREATE
 40
2457662.530247176
  9
$TDUPDATE
 40
2457662.613581643
  9
$TDUUPDATE
 40
2457662.53024831
  9
$TDINDWG
 40
0.0000000116
  9
$TDUSRTIMER
 40
0.0000000116
  9
$USRTIMER
 70
     1
  9
$ANGBASE
 50
0.0
  9
$ANGDIR
 70
     0
  9
$PDMODE
 70
     0
  9
$PDSIZE
 40
-1.0
  9
$PLINEWID
 40
0.0
  9
$SPLFRAME
 70
     0
  9
$SPLINETYPE
 70
     6
  9
$SPLINESEGS
 70
     8
  9
$HANDSEED
  5
1FF
  9
$SURFTAB1
 70
     6
  9
$SURFTAB2
 70
     6
  9
$SURFTYPE
 70
     6
  9
$SURFU
 70
     6
  9
$SURFV
 70
     6
  9
$UCSBASE
  2

  9
$UCSNAME
  2

  9
$UCSORG
 10
0.0
 20
0.0
 30
0.0
  9
$UCSXDIR
 10
1.0
 20
0.0
 30
0.0
  9
$UCSYDIR
 10
0.0
 20
1.0
 30
0.0
  9
$UCSORTHOREF
  2

  9
$UCSORTHOVIEW
 70
     0
  9
$UCSORGTOP
 10
0.0
 20
0.0
 30
0.0
  9
$UCSORGBOTTOM
 10
0.0
 20
0.0
 30
0.0
  9
$UCSORGLEFT
 10
0.0
 20
0.0
 30
0.0
  9
$UCSORGRIGHT
 10
0.0
 20
0.0
 30
0.0
  9
$UCSORGFRONT
 10
0.0
 20
0.0
 30
0.0
  9
$UCSORGBACK
 10
0.0
 20
0.0
 30
0.0
  9
$PUCSBASE
  2

  9
$PUCSNAME
  2

  9
$PUCSORG
 10
0.0
 20
0.0
 30
0.0
  9
$PUCSXDIR
 10
1.0
 20
0.0
 30
0.0
  9
$PUCSYDIR
 10
0.0
 20
1.0
 30
0.0
  9
$PUCSORTHOREF
  2

  9
$PUCSORTHOVIEW
 70
     0
  9
$PUCSORGTOP
 10
0.0
 20
0.0
 30
0.0
  9
$PUCSORGBOTTOM
 10
0.0
 20
0.0
 30
0.0
  9
$PUCSORGLEFT
 10
0.0
 20
0.0
 30
0.0
  9
$PUCSORGRIGHT
 10
0.0
 20
0.0
 30
0.0
  9
$PUCSORGFRONT
 10
0.0
 20
0.0
 30
0.0
  9
$PUCSORGBACK
 10
0.0
 20
0.0
 30
0.0
  9
$USERI1
 70
     0
  9
$USERI2
 70
     0
  9
$USERI3
 70
     0
  9
$USERI4
 70
     0
  9
$USERI5
 70
     0
  9
$USERR1
 40
0.0
  9
$USERR2
 40
0.0
  9
$USERR3
 40
0.0
  9
$USERR4
 40
0.0
  9
$USERR5
 40
0.0
  9
$WORLDVIEW
 70
     1
  9
$SHADEDGE
 70
     3
  9
$SHADEDIF
 70
    70
  9
$TILEMODE
 70
     1
  9
$MAXACTVP
 70
    64
  9
$PINSBASE
 10
0.0
 20
0.0
 30
0.0
  9
$PLIMCHECK
 70
     0
  9
$PEXTMIN
 10
1.0000000000E+20
 20
1.0000000000E+20
 30
1.0000000000E+20
  9
$PEXTMAX
 10
-1.0000000000E+20
 20
-1.0000000000E+20
 30
-1.0000000000E+20
  9
$PLIMMIN
 10
0.0
 20
0.0
  9
$PLIMMAX
 10
420.0
 20
297.0
  9
$UNITMODE
 70
     0
  9
$VISRETAIN
 70
     1
  9
$PLINEGEN
 70
     0
  9
$PSLTSCALE
 70
     1
  9
$TREEDEPTH
 70
  3020
  9
$CMLSTYLE
  2
Standard
  9
$CMLJUST
 70
     0
  9
$CMLSCALE
 40
20.0
  9
$PROXYGRAPHICS
 70
     1
  9
$MEASUREMENT
 70
     1
  9
$CELWEIGHT
370
    -1
  9
$ENDCAPS
280
     0
  9
$JOINSTYLE
280
     0
  9
$LWDISPLAY
290
     1
  9
$INSUNITS
 70
     4
  9
$HYPERLINKBASE
  1

  9
$STYLESHEET
  1

  9
$XEDIT
290
     1
  9
$CEPSNTYPE
380
     0
  9
$PSTYLEMODE
290
     1
  9
$FINGERPRINTGUID
  2
{6244A044-25FB-482C-9CED-A34B815D6425}
  9
$VERSIONGUID
  2
{FAEB1C32-E019-11D5-929B-00C0DF256EC4}
  9
$EXTNAMES
290
     1
  9
$PSVPSCALE
 40
0.0
  9
$OLESTARTUP
290
     0
  0
ENDSEC
  0
SECTION
  2
CLASSES
  0
CLASS
  1
ACDBDICTIONARYWDFLT
  2
AcDbDictionaryWithDefault
  3
ObjectDBX Classes
 90
        0
280
     0
281
     0
  0
CLASS
  1
VISUALSTYLE
  2
AcDbVisualStyle
  3
ObjectDBX Classes
 90
     4095
280
     0
281
     0
  0
CLASS
  1
MATERIAL
  2
AcDbMaterial
  3
ObjectDBX Classes
 90
     1153
280
     0
281
     0
  0
CLASS
  1
SCALE
  2
AcDbScale
  3
ObjectDBX Classes
 90
     1153
280
     0
281
     0
  0
CLASS
  1
TABLESTYLE
  2
AcDbTableStyle
  3
ObjectDBX Classes
 90
     4095
280
     0
281
     0
  0
CLASS
  1
MLEADERSTYLE
  2
AcDbMLeaderStyle
  3
ACDB_MLEADERSTYLE_CLASS
 90
     4095
280
     0
281
     0
  0
CLASS
  1
SUN
  2
AcDbSun
  3
SCENEOE
 90
     1153
280
     0
281
     0
  0
CLASS
  1
ACDBPLACEHOLDER
  2
AcDbPlaceHolder
  3
ObjectDBX Classes
 90
        0
280
     0
281
     0
  0
CLASS
  1
LAYOUT
  2
AcDbLayout
  3
ObjectDBX Classes
 90
        0
280
     0
281
     0
  0
ENDSEC
  0
SECTION
  2
TABLES
  0
TABLE
  2
VPORT
  5
8
330
0
100
AcDbSymbolTable
 70
     1
  0
VPORT
  5
29
330
8
100
AcDbSymbolTableRecord
100
AcDbViewportTableRecord
  2
*Active
 70
     0
 10
0.0
 20
0.0
 11
1.0
 21
1.0
 12
148.5
 22
105.0
 13
0.0
 23
0.0
 14
10.0
 24
10.0
 15
10.0
 25
10.0
 16
0.0
 26
0.0
 36
1.0
 17
0.0
 27
0.0
 37
0.0
 40
210.0
 41
1.4142857143
 42
50.0
 43
0.0
 44
0.0
 50
0.0
 51
0.0
 71
     0
 72
  2000
 73
     1
 74
     3
 75
     0
 76
     0
 77
     0
 78
     0
281
     0
 65
     1
110
0.0
120
0.0
130
0.0
111
1.0
121
0.0
131
0.0
112
0.0
122
1.0
132
0.0
 79
     0
146
0.0
  0
ENDTAB
  0
TABLE
  2
LTYPE
  5
5
330
0
100
AcDbSymbolTable
 70
     6
  0
LTYPE
  5
14
330
5
100
AcDbSymbolTableRecord
100
AcDbLinetypeTableRecord
  2
ByBlock
 70
     0
  3

 72
    65
 73
     0
 40
0.0
  0
LTYPE
  5
15
330
5
100
AcDbSymbolTableRecord
100
AcDbLinetypeTableRecord
  2
ByLayer
 70
     0
  3

 72
    65
 73
     0
 40
0.0
  0
LTYPE
  5
16
330
5
100
AcDbSymbolTableRecord
100
AcDbLinetypeTableRecord
  2
Continuous
 70
     0
  3
Solid line
 72
    65
 73
     0
 40
0.0
  0
LTYPE
  5
6E
330
5
100
AcDbSymbolTableRecord
100
AcDbLinetypeTableRecord
  2
HIDDEN
 70
     0
  3
Hidden __ __ __ __ __ __ __ __ __ __ __ __ __ __
 72
    65
 73
     2
 40
1.905
 49
1.27
 74
     0
 49
-0.635
 74
     0
  0
LTYPE
  5
6F
330
5
100
AcDbSymbolTableRecord
100
AcDbLinetypeTableRecord
  2
PHANTOM
 70
     0
  3
Phantom ______  __  __  ______  __  __  ______
 72
    65
 73
     6
 40
12.7
 49
6.35
 74
     0
 49
-1.27
 74
     0
 49
1.27
 74
     0
 49
-1.27
 74
     0
 49
1.27
 74
     0
 49
-1.27
 74
     0
  0
LTYPE
  5
70
330
5
100
AcDbSymbolTableRecord
100
AcDbLinetypeTableRecord
  2
CENTER
 70
     0
  3
Center ____ _ ____ _ ____ _ ____ _ ____ _ ____
 72
    65
 73
     4
 40
10.16
 49
6.35
 74
     0
 49
-1.27
 74
     0
 49
1.27
 74
     0
 49
-1.27
 74
     0
  0
LTYPE
  5
71
330
5
100
AcDbSymbolTableRecord
100
AcDbLinetypeTableRecord
  2
CENTERX2
 70
     0
  3
Center (2x) ________  __  ________  __  _____
 72
    65
 73
     4
 40
20.32
 49
12.7
 74
     0
 49
-2.54
 74
     0
 49
2.54
 74
     0
 49
-2.54
 74
     0
  0
LTYPE
  5
72
330
5
100
AcDbSymbolTableRecord
100
AcDbLinetypeTableRecord
  2
DOT2
 70
     0
  3
Dot (.5x) ........................................
 72
    65
 73
     2
 40
0.635
 49
0.0
 74
     0
 49
-0.635
 74
     0
  0
ENDTAB
  0
TABLE
  2
LAYER
  5
2
330
0
100
AcDbSymbolTable
 70
     5
  0
LAYER
  5
10
330
2
100
AcDbSymbolTableRecord
100
AcDbLayerTableRecord
  2
0
 70
     0
 62
     7
  6
Continuous
370
    -3
390
F
  0
LAYER
  5
73
330
2
100
AcDbSymbolTableRecord
100
AcDbLayerTableRecord
  2
FORMAT
 70
     0
 62
     7
  6
Continuous
370
    -3
390
F
  0
LAYER
  5
74
330
2
100
AcDbSymbolTableRecord
100
AcDbLayerTableRecord
  2
VERMASSUNG
 70
     0
 62
     7
  6
Continuous
370
    -3
390
F
  0
LAYER
  5
75
330
2
100
AcDbSymbolTableRecord
100
AcDbLayerTableRecord
  2
KOPF_DÜNN
 70
     0
 62
     7
  6
Continuous
370
    -3
390
F
  0
LAYER
  5
76
330
2
100
AcDbSymbolTableRecord
100
AcDbLayerTableRecord
  2
KOPF_DICK
 70
     0
 62
     7
  6
Continuous
370
    15
390
F
  0
ENDTAB
  0
TABLE
  2
STYLE
  5
3
330
0
100
AcDbSymbolTable
 70
     2
  0
STYLE
  5
11
330
3
100
AcDbSymbolTableRecord
100
AcDbTextStyleTableRecord
  2
Standard
 70
     0
 40
0.0
 41
1.0
 50
0.0
 71
     0
 42
2.0
  3
txt
  4

  0
STYLE
  5
77
330
3
100
AcDbSymbolTableRecord
100
AcDbTextStyleTableRecord
  2
SLDTEXTSTYLE0
 70
     0
 40
0.0
 41
0.7
 50
0.0
 71
     0
 42
2.0
  3
TXT
  4

  0
ENDTAB
  0
TABLE
  2
VIEW
  5
6
330
0
100
AcDbSymbolTable
 70
     0
  0
ENDTAB
  0
TABLE
  2
UCS
  5
7
330
0
100
AcDbSymbolTable
 70
     0
  0
ENDTAB
  0
TABLE
  2
APPID
  5
9
330
0
100
AcDbSymbolTable
 70
     1
  0
APPID
  5
12
330
9
100
AcDbSymbolTableRecord
100
AcDbRegAppTableRecord
  2
ACAD
 70
     0
  0
ENDTAB
  0
TABLE
  2
DIMSTYLE
  5
A
330
0
100
AcDbSymbolTable
 70
     2
100
AcDbDimStyleTable
  0
DIMSTYLE
105
27
330
A
100
AcDbSymbolTableRecord
100
AcDbDimStyleTableRecord
  2
ISO-25
 70
     0
 41
2.5
 42
0.625
 43
3.75
 44
1.25
 73
     0
 74
     0
 77
     1
 78
     8
140
2.5
141
2.5
143
0.0393700787
147
0.625
171
     3
172
     1
178
     0
271
     2
272
     2
274
     3
278
    44
283
     0
284
     8
340
11
  0
DIMSTYLE
105
10A
102
{ACAD_REACTORS
330
109
330
116
330
121
330
12D
330
137
330
143
102
}
330
A
100
AcDbSymbolTableRecord
100
AcDbDimStyleTableRecord
  2
SLDDIMSTYLE0
 70
     0
 41
3.0
 44
0.0
 45
0.000000001
 73
     0
 74
     0
 77
     1
 78
    12
 79
     3
140
2.0
147
0.5
173
     1
178
     0
271
     2
272
     3
276
     2
284
    12
340
77
  0
ENDTAB
  0
TABLE
  2
BLOCK_RECORD
  5
1
330
0
100
AcDbSymbolTable
 70
     7
  0
BLOCK_RECORD
  5
1F
330
1
100
AcDbSymbolTableRecord
100
AcDbBlockTableRecord
  2
*Model_Space
340
22
  0
BLOCK_RECORD
  5
1B
330
1
100
AcDbSymbolTableRecord
100
AcDbBlockTableRecord
  2
*Paper_Space
340
1E
  0
BLOCK_RECORD
  5
23
330
1
100
AcDbSymbolTableRecord
100
AcDbBlockTableRecord
  2
*Paper_Space0
340
26
  0
BLOCK_RECORD
  5
10B
330
1
100
AcDbSymbolTableRecord
100
AcDbBlockTableRecord
  2
_D
340
0
  0
BLOCK_RECORD
  5
117
330
1
100
AcDbSymbolTableRecord
100
AcDbBlockTableRecord
  2
_D_1
340
0
  0
BLOCK_RECORD
  5
122
330
1
100
AcDbSymbolTableRecord
100
AcDbBlockTableRecord
  2
_D_2
340
0
  0
BLOCK_RECORD
  5
12E
330
1
100
AcDbSymbolTableRecord
100
AcDbBlockTableRecord
  2
_D_3
340
0
  0
BLOCK_RECORD
  5
138
330
1
100
AcDbSymbolTableRecord
100
AcDbBlockTableRecord
  2
_D_4
340
0
  0
BLOCK_RECORD
  5
144
330
1
100
AcDbSymbolTableRecord
100
AcDbBlockTableRecord
  2
_D_5
340
0
  0
ENDTAB
  0
ENDSEC
  0
SECTION
  2
BLOCKS
  0
BLOCK
  5
20
330
1F
100
AcDbEntity
  8
0
100
AcDbBlockBegin
  2
*Model_Space
 70
     0
 10
0.0
 20
0.0
 30
0.0
  3
*Model_Space
  1

  0
ENDBLK
  5
21
330
1F
100
AcDbEntity
  8
0
100
AcDbBlockEnd
  0
BLOCK
  5
1C
330
1B
100
AcDbEntity
 67
     1
  8
0
100
AcDbBlockBegin
  2
*Paper_Space
 70
     0
 10
0.0
 20
0.0
 30
0.0
  3
*Paper_Space
  1

  0
ENDBLK
  5
1D
330
1B
100
AcDbEntity
 67
     1
  8
0
100
AcDbBlockEnd
  0
BLOCK
  5
24
330
23
100
AcDbEntity
  8
0
100
AcDbBlockBegin
  2
*Paper_Space0
 70
     0
 10
0.0
 20
0.0
 30
0.0
  3
*Paper_Space0
  1

  0
ENDBLK
  5
25
330
23
100
AcDbEntity
  8
0
100
AcDbBlockEnd
  0
BLOCK
  5
10C
330
10B
100
AcDbEntity
  8
0
100
AcDbBlockBegin
  2
_D
 70
     0
 10
0.0
 20
0.0
 30
0.0
  3
_D
  1

  0
SOLID
  5
10E
330
10B
100
AcDbEntity
  8
VERMASSUNG
100
AcDbTrace
 10
58.4782486693
 20
65.3013370972
 30
0.0
 11
58.9282486693
 21
68.3013370972
 31
0.0
 12
58.0282486693
 22
68.3013370972
 32
0.0
 13
58.0282486693
 23
68.3013370972
 33
0.0
  0
SOLID
  5
10F
330
10B
100
AcDbEntity
  8
VERMASSUNG
100
AcDbTrace
 10
58.4782486693
 20
163.7263370972
 30
0.0
 11
58.0282486693
 21
160.7263370972
 31
0.0
 12
58.9282486693
 22
160.7263370972
 32
0.0
 13
58.9282486693
 23
160.7263370972
 33
0.0
  0
LINE
  5
110
330
10B
100
AcDbEntity
  8
VERMASSUNG
100
AcDbLine
 10
184.4156941595
 20
65.3013370972
 30
0.0
 11
57.4782486693
 21
65.3013370972
 31
0.0
  0
LINE
  5
111
330
10B
100
AcDbEntity
  8
VERMASSUNG
100
AcDbLine
 10
184.4156941595
 20
163.7263370972
 30
0.0
 11
57.4782486693
 21
163.7263370972
 31
0.0
  0
LINE
  5
112
330
10B
100
AcDbEntity
  8
VERMASSUNG
100
AcDbLine
 10
58.4782486693
 20
65.3013370972
 30
0.0
 11
58.4782486693
 21
163.7263370972
 31
0.0
  0
MTEXT
  5
113
330
10B
100
AcDbEntity
  8
VERMASSUNG
100
AcDbMText
 10
55.7001134131
 20
104.5097485287
 30
0.0
 40
2.0
 41
0.0
 71
     1
 72
     1
  1
CAT 50
  7
SLDTEXTSTYLE0
 11
3.391901413832837E-15
 21
1.0
 31
0.0
 73
     1
 44
1.0
  0
MTEXT
  5
114
330
10B
100
AcDbEntity
  8
VERMASSUNG
100
AcDbMText
 10
55.9001133644
 20
114.5097483052
 30
0.0
 40
2.0
 41
0.0
 71
     1
 72
     1
  1
%%c
  7
SLDTEXTSTYLE0
 11
3.391901413832837E-15
 21
1.0
 31
0.0
 73
     1
 44
1.0
  0
MTEXT
  5
115
330
10B
100
AcDbEntity
  8
VERMASSUNG
100
AcDbMText
 10
55.9001130734
 20
118.1183973444
 30
0.0
 40
2.0
 41
0.0
 71
     1
 72
     1
  1
98.43
  7
SLDTEXTSTYLE0
 11
3.391901413832837E-15
 21
1.0
 31
0.0
 73
     1
 44
1.0
  0
ENDBLK
  5
10D
330
10B
100
AcDbEntity
  8
0
100
AcDbBlockEnd
  0
BLOCK
  5
118
330
117
100
AcDbEntity
  8
0
100
AcDbBlockBegin
  2
_D_1
 70
     0
 10
0.0
 20
0.0
 30
0.0
  3
_D_1
  1

  0
SOLID
  5
11A
330
117
100
AcDbEntity
  8
VERMASSUNG
100
AcDbTrace
 10
242.0756175143
 20
128.5138370972
 30
0.0
 11
241.6256175143
 21
125.5138370972
 31
0.0
 12
242.5256175143
 22
125.5138370972
 32
0.0
 13
242.5256175143
 23
125.5138370972
 33
0.0
  0
SOLID
  5
11B
330
117
100
AcDbEntity
  8
VERMASSUNG
100
AcDbTrace
 10
242.0756175143
 20
100.5138370972
 30
0.0
 11
242.5256175143
 21
103.5138370972
 31
0.0
 12
241.6256175143
 22
103.5138370972
 32
0.0
 13
241.6256175143
 23
103.5138370972
 33
0.0
  0
LINE
  5
11C
330
117
100
AcDbEntity
  8
VERMASSUNG
100
AcDbLine
 10
221.3656941595
 20
128.5138370972
 30
0.0
 11
243.0756175143
 21
128.5138370972
 31
0.0
  0
LINE
  5
11D
330
117
100
AcDbEntity
  8
VERMASSUNG
100
AcDbLine
 10
221.3656941595
 20
100.5138370972
 30
0.0
 11
243.0756175143
 21
100.5138370972
 31
0.0
  0
LINE
  5
11E
330
117
100
AcDbEntity
  8
VERMASSUNG
100
AcDbLine
 10
242.0756175143
 20
128.5138370972
 30
0.0
 11
242.0756175143
 21
100.5138370972
 31
0.0
  0
MTEXT
  5
11F
330
117
100
AcDbEntity
  8
VERMASSUNG
100
AcDbMText
 10
239.4974819766
 20
111.3096609901
 30
0.0
 40
2.0
 41
0.0
 71
     1
 72
     1
  1
%%c
  7
SLDTEXTSTYLE0
 11
-7.044195017643634E-15
 21
1.0
 31
0.0
 73
     1
 44
1.0
  0
MTEXT
  5
120
330
117
100
AcDbEntity
  8
VERMASSUNG
100
AcDbMText
 10
239.4974819184
 20
114.9186331837
 30
0.0
 40
2.0
 41
0.0
 71
     1
 72
     1
  1
28
  7
SLDTEXTSTYLE0
 11
-7.044195017643634E-15
 21
1.0
 31
0.0
 73
     1
 44
1.0
  0
ENDBLK
  5
119
330
117
100
AcDbEntity
  8
0
100
AcDbBlockEnd
  0
BLOCK
  5
123
330
122
100
AcDbEntity
  8
0
100
AcDbBlockBegin
  2
_D_2
 70
     0
 10
0.0
 20
0.0
 30
0.0
  3
_D_2
  1

  0
ARC
  5
125
330
122
100
AcDbEntity
  8
VERMASSUNG
100
AcDbCircle
 10
218.677921245
 20
164.0881058395
 30
0.0
 40
4.247059938537361
100
AcDbArc
 50
153.4349488229
 51
206.5650511771
  0
ARC
  5
126
330
122
100
AcDbEntity
  8
VERMASSUNG
100
AcDbCircle
 10
217.253467074
 20
164.0881058395
 30
0.0
 40
4.247059938537411
100
AcDbArc
 50
333.4349488229
 51
26.5650511771
  0
SOLID
  5
127
330
122
100
AcDbEntity
  8
VERMASSUNG
100
AcDbTrace
 10
200.9656941595
 20
162.1887628941
 30
0.0
 11
203.9656941595
 21
161.7387628941
 31
0.0
 12
203.9656941595
 22
162.6387628941
 32
0.0
 13
203.9656941595
 23
162.6387628941
 33
0.0
  0
SOLID
  5
128
330
122
100
AcDbEntity
  8
VERMASSUNG
100
AcDbTrace
 10
234.9656941595
 20
162.1887628941
 30
0.0
 11
231.9656941595
 21
162.6387628941
 31
0.0
 12
231.9656941595
 22
161.7387628941
 32
0.0
 13
231.9656941595
 23
161.7387628941
 33
0.0
  0
LINE
  5
129
330
122
100
AcDbEntity
  8
VERMASSUNG
100
AcDbLine
 10
200.9656941595
 20
148.4388370972
 30
0.0
 11
200.9656941595
 21
163.1887628941
 31
0.0
  0
LINE
  5
12A
330
122
100
AcDbEntity
  8
VERMASSUNG
100
AcDbLine
 10
234.9656941595
 20
139.0138370972
 30
0.0
 11
234.9656941595
 21
163.1887628941
 31
0.0
  0
LINE
  5
12B
330
122
100
AcDbEntity
  8
VERMASSUNG
100
AcDbLine
 10
200.9656941595
 20
162.1887628941
 30
0.0
 11
234.9656941595
 21
162.1887628941
 31
0.0
  0
MTEXT
  5
12C
330
122
100
AcDbEntity
  8
VERMASSUNG
100
AcDbMText
 10
216.4667353541
 20
164.7668984901
 30
0.0
 40
2.0
 41
0.0
 71
     1
 72
     1
  1
34
  7
SLDTEXTSTYLE0
 73
     1
 44
1.0
  0
ENDBLK
  5
124
330
122
100
AcDbEntity
  8
0
100
AcDbBlockEnd
  0
BLOCK
  5
12F
330
12E
100
AcDbEntity
  8
0
100
AcDbBlockBegin
  2
_D_3
 70
     0
 10
0.0
 20
0.0
 30
0.0
  3
_D_3
  1

  0
SOLID
  5
131
330
12E
100
AcDbEntity
  8
VERMASSUNG
100
AcDbTrace
 10
165.9656941595
 20
168.1887628941
 30
0.0
 11
168.9656941595
 21
167.7387628941
 31
0.0
 12
168.9656941595
 22
168.6387628941
 32
0.0
 13
168.9656941595
 23
168.6387628941
 33
0.0
  0
SOLID
  5
132
330
12E
100
AcDbEntity
  8
VERMASSUNG
100
AcDbTrace
 10
234.9656941595
 20
168.1887628941
 30
0.0
 11
231.9656941595
 21
168.6387628941
 31
0.0
 12
231.9656941595
 22
167.7387628941
 32
0.0
 13
231.9656941595
 23
167.7387628941
 33
0.0
  0
LINE
  5
133
330
12E
100
AcDbEntity
  8
VERMASSUNG
100
AcDbLine
 10
165.9656941595
 20
149.4388370972
 30
0.0
 11
165.9656941595
 21
169.1887628941
 31
0.0
  0
LINE
  5
134
330
12E
100
AcDbEntity
  8
VERMASSUNG
100
AcDbLine
 10
234.9656941595
 20
139.0138370972
 30
0.0
 11
234.9656941595
 21
169.1887628941
 31
0.0
  0
LINE
  5
135
330
12E
100
AcDbEntity
  8
VERMASSUNG
100
AcDbLine
 10
165.9656941595
 20
168.1887628941
 30
0.0
 11
234.9656941595
 21
168.1887628941
 31
0.0
  0
MTEXT
  5
136
330
12E
100
AcDbEntity
  8
VERMASSUNG
100
AcDbMText
 10
199.0660041492
 20
170.7668984901
 30
0.0
 40
2.0
 41
0.0
 71
     1
 72
     1
  1
69
  7
SLDTEXTSTYLE0
 73
     1
 44
1.0
  0
ENDBLK
  5
130
330
12E
100
AcDbEntity
  8
0
100
AcDbBlockEnd
  0
BLOCK
  5
139
330
138
100
AcDbEntity
  8
0
100
AcDbBlockBegin
  2
_D_4
 70
     0
 10
0.0
 20
0.0
 30
0.0
  3
_D_4
  1

  0
ARC
  5
13B
330
138
100
AcDbEntity
  8
VERMASSUNG
100
AcDbCircle
 10
148.9771282481
 20
176.0881058395
 30
0.0
 40
4.247059938537221
100
AcDbArc
 50
153.4349488229
 51
206.5650511771
  0
ARC
  5
13C
330
138
100
AcDbEntity
  8
VERMASSUNG
100
AcDbCircle
 10
150.3542600709
 20
176.0881058395
 30
0.0
 40
4.247059938537221
100
AcDbArc
 50
333.4349488229
 51
26.5650511771
  0
SOLID
  5
13D
330
138
100
AcDbEntity
  8
VERMASSUNG
100
AcDbTrace
 10
234.9656941595
 20
174.1887628941
 30
0.0
 11
231.9656941595
 21
174.6387628941
 31
0.0
 12
231.9656941595
 22
173.7387628941
 32
0.0
 13
231.9656941595
 23
173.7387628941
 33
0.0
  0
SOLID
  5
13E
330
138
100
AcDbEntity
  8
VERMASSUNG
100
AcDbTrace
 10
64.3656941595
 20
174.1887628941
 30
0.0
 11
67.3656941595
 21
173.7387628941
 31
0.0
 12
67.3656941595
 22
174.6387628941
 32
0.0
 13
67.3656941595
 23
174.6387628941
 33
0.0
  0
LINE
  5
13F
330
138
100
AcDbEntity
  8
VERMASSUNG
100
AcDbLine
 10
234.9656941595
 20
139.0138370972
 30
0.0
 11
234.9656941595
 21
175.1887628941
 31
0.0
  0
LINE
  5
140
330
138
100
AcDbEntity
  8
VERMASSUNG
100
AcDbLine
 10
64.3656941595
 20
132.8926816246
 30
0.0
 11
64.3656941595
 21
175.1887628941
 31
0.0
  0
LINE
  5
141
330
138
100
AcDbEntity
  8
VERMASSUNG
100
AcDbLine
 10
234.9656941595
 20
174.1887628941
 30
0.0
 11
64.3656941595
 21
174.1887628941
 31
0.0
  0
MTEXT
  5
142
330
138
100
AcDbEntity
  8
VERMASSUNG
100
AcDbMText
 10
146.7659423572
 20
176.7668984901
 30
0.0
 40
2.0
 41
0.0
 71
     1
 72
     1
  1
170.6
  7
SLDTEXTSTYLE0
 73
     1
 44
1.0
  0
ENDBLK
  5
13A
330
138
100
AcDbEntity
  8
0
100
AcDbBlockEnd
  0
BLOCK
  5
145
330
144
100
AcDbEntity
  8
0
100
AcDbBlockBegin
  2
_D_5
 70
     0
 10
0.0
 20
0.0
 30
0.0
  3
_D_5
  1

  0
SOLID
  5
147
330
144
100
AcDbEntity
  8
VERMASSUNG
100
AcDbTrace
 10
248.0756175143
 20
139.5138370972
 30
0.0
 11
247.6256175143
 21
136.5138370972
 31
0.0
 12
248.5256175143
 22
136.5138370972
 32
0.0
 13
248.5256175143
 23
136.5138370972
 33
0.0
  0
SOLID
  5
148
330
144
100
AcDbEntity
  8
VERMASSUNG
100
AcDbTrace
 10
248.0756175143
 20
89.5138370972
 30
0.0
 11
248.5256175143
 21
92.5138370972
 31
0.0
 12
247.6256175143
 22
92.5138370972
 32
0.0
 13
247.6256175143
 23
92.5138370972
 33
0.0
  0
LINE
  5
149
330
144
100
AcDbEntity
  8
VERMASSUNG
100
AcDbLine
 10
234.4656941595
 20
139.5138370972
 30
0.0
 11
249.0756175143
 21
139.5138370972
 31
0.0
  0
LINE
  5
14A
330
144
100
AcDbEntity
  8
VERMASSUNG
100
AcDbLine
 10
234.4656941595
 20
89.5138370972
 30
0.0
 11
249.0756175143
 21
89.5138370972
 31
0.0
  0
LINE
  5
14B
330
144
100
AcDbEntity
  8
VERMASSUNG
100
AcDbLine
 10
248.0756175143
 20
139.5138370972
 30
0.0
 11
248.0756175143
 21
89.5138370972
 31
0.0
  0
MTEXT
  5
14C
330
144
100
AcDbEntity
  8
VERMASSUNG
100
AcDbMText
 10
245.2974822581
 20
108.4088378753
 30
0.0
 40
2.0
 41
0.0
 71
     1
 72
     1
  1
ST5
  7
SLDTEXTSTYLE0
 11
-7.044195017643634E-15
 21
1.0
 31
0.0
 73
     1
 44
1.0
  0
MTEXT
  5
14D
330
144
100
AcDbEntity
  8
VERMASSUNG
100
AcDbMText
 10
245.4974822094
 20
114.2088378016
 30
0.0
 40
2.0
 41
0.0
 71
     1
 72
     1
  1
%%c
  7
SLDTEXTSTYLE0
 11
-7.044195017643634E-15
 21
1.0
 31
0.0
 73
     1
 44
1.0
  0
MTEXT
  5
14E
330
144
100
AcDbEntity
  8
VERMASSUNG
100
AcDbMText
 10
245.2974822581
 20
117.8188373502
 30
0.0
 40
2.0
 41
0.0
 71
     1
 72
     1
  1
50
  7
SLDTEXTSTYLE0
 11
-7.044195017643634E-15
 21
1.0
 31
0.0
 73
     1
 44
1.0
  0
ENDBLK
  5
146
330
144
100
AcDbEntity
  8
0
100
AcDbBlockEnd
  0
ENDSEC
  0
SECTION
  2
ENTITIES
  0
MTEXT
  5
78
330
1F
100
AcDbEntity
  8
KOPF_DÜNN
100
AcDbMText
 10
13.8892156294
 20
23.8442973028
 30
0.0
 40
3.0
 41
0.0
 71
     1
 72
     1
  1
104.350.050.069
  7
SLDTEXTSTYLE0
 73
     1
 44
1.0
  0
MTEXT
  5
79
330
1F
100
AcDbEntity
  8
VERMASSUNG
100
AcDbMText
 10
13.9329988022
 20
28.8834360957
 30
0.0
 40
3.0
 41
0.0
 71
     1
 72
     1
  1
Aufnahme_Master shank ST5
  7
SLDTEXTSTYLE0
 73
     1
 44
1.0
  0
MTEXT
  5
7A
330
1F
100
AcDbEntity
  8
VERMASSUNG
100
AcDbMText
 10
98.8601118557
 20
13.8365368761
 30
0.0
 40
2.0
 41
0.0
 71
     1
 72
     1
  1
Datum: 07.05.2008
  7
SLDTEXTSTYLE0
 73
     1
 44
1.0
  0
MTEXT
  5
7B
330
1F
100
AcDbEntity
  8
VERMASSUNG
100
AcDbMText
 10
13.933048693
 20
18.0482802738
 30
0.0
 40
2.0
 41
0.0
 71
     1
 72
     1
  1
ANSI B5.50 CAT 50
  7
SLDTEXTSTYLE0
 73
     1
 44
1.0
  0
MTEXT
  5
7C
330
1F
100
AcDbEntity
  8
VERMASSUNG
100
AcDbMText
 10
13.9808475933
 20
13.9090974274
 30
0.0
 40
2.0
 41
0.0
 71
     1
 72
     1
  1
Gewicht: 3467g
  7
SLDTEXTSTYLE0
 73
     1
 44
1.0
  0
ARC
  5
7D
330
1F
100
AcDbEntity
  8
0
  6
Continuous
 62
     7
370
    15
100
AcDbCircle
 10
185.6156941595
 20
78.9888370972
 30
0.0
 40
0.6000000000000085
100
AcDbArc
 50
90.0
 51
134.8886178674
  0
ARC
  5
7E
330
1F
100
AcDbEntity
  8
0
  6
Continuous
 62
     7
370
    15
100
AcDbCircle
 10
185.6156941595
 20
150.0388370972
 30
0.0
 40
0.5999999999999943
100
AcDbArc
 50
180.0
 51
270.0
  0
ARC
  5
7F
330
1F
100
AcDbEntity
  8
0
  6
Continuous
 62
     7
370
    15
100
AcDbCircle
 10
168.5406941595
 20
78.9888370972
 30
0.0
 40
0.6000000000000085
100
AcDbArc
 50
45.0646428094
 51
90.0
  0
ARC
  5
80
330
1F
100
AcDbEntity
  8
0
  6
Continuous
 62
     7
370
    15
100
AcDbCircle
 10
168.5406941595
 20
150.0388370972
 30
0.0
 40
0.5999999999999943
100
AcDbArc
 50
270.0
 51
0.0
  0
LINE
  5
81
330
1F
100
AcDbEntity
  8
0
  6
Continuous
 62
     7
370
    15
100
AcDbLine
 10
165.9656941595
 20
149.4388370972
 30
0.0
 11
66.0770803734
 21
134.8717475867
 31
0.0
  0
LINE
  5
82
330
1F
100
AcDbEntity
  8
0
  6
Continuous
 62
     7
370
    15
100
AcDbLine
 10
66.0770803734
 20
94.1559266077
 30
0.0
 11
165.9656941595
 21
79.5888370972
 31
0.0
  0
LINE
  5
83
330
1F
100
AcDbEntity
  8
0
  6
Continuous
 62
     7
370
    15
100
AcDbLine
 10
165.9656941595
 20
79.5888370972
 30
0.0
 11
168.5406941595
 21
79.5888370972
 31
0.0
  0
LINE
  5
84
330
1F
100
AcDbEntity
  8
0
  6
Continuous
 62
     7
370
    15
100
AcDbLine
 10
168.5406941595
 20
149.4388370972
 30
0.0
 11
165.9656941595
 21
149.4388370972
 31
0.0
  0
ARC
  5
85
330
1F
100
AcDbEntity
  8
0
  6
Continuous
 62
     7
370
    15
100
AcDbCircle
 10
199.9656941595
 20
80.5888370972
 30
0.0
 40
1.000000000000028
100
AcDbArc
 50
270.0
 51
0.0
  0
ARC
  5
86
330
1F
100
AcDbEntity
  8
0
  6
Continuous
 62
     7
370
    15
100
AcDbCircle
 10
199.9656941595
 20
148.4388370972
 30
0.0
 40
1.000000000000028
100
AcDbArc
 50
0.0
 51
90.0
  0
LINE
  5
87
330
1F
100
AcDbEntity
  8
0
  6
Continuous
 62
     7
370
    15
100
AcDbLine
 10
185.6156941595
 20
79.5888370972
 30
0.0
 11
199.9656941595
 21
79.5888370972
 31
0.0
  0
LINE
  5
88
330
1F
100
AcDbEntity
  8
0
  6
Continuous
 62
     7
370
    15
100
AcDbLine
 10
199.9656941595
 20
149.4388370972
 30
0.0
 11
185.6156941595
 21
149.4388370972
 31
0.0
  0
ARC
  5
89
330
1F
100
AcDbEntity
  8
0
  6
Continuous
 62
     7
370
    15
100
AcDbCircle
 10
204.9656941595
 20
85.5138370972
 30
0.0
 40
4.0
100
AcDbArc
 50
90.0
 51
180.0
  0
ARC
  5
8A
330
1F
100
AcDbEntity
  8
0
  6
Continuous
 62
     7
370
    15
100
AcDbCircle
 10
204.9656941595
 20
143.5138370972
 30
0.0
 40
4.0
100
AcDbArc
 50
180.0
 51
270.0
  0
LINE
  5
8B
330
1F
100
AcDbEntity
  8
0
  6
Continuous
 62
     7
370
    15
100
AcDbLine
 10
234.4656941595
 20
89.5138370972
 30
0.0
 11
234.9656941595
 21
90.0138370972
 31
0.0
  0
LINE
  5
8C
330
1F
100
AcDbEntity
  8
0
  6
Continuous
 62
     7
370
    15
100
AcDbLine
 10
234.9656941595
 20
139.0138370972
 30
0.0
 11
234.4656941595
 21
139.5138370972
 31
0.0
  0
LINE
  5
8D
330
1F
100
AcDbEntity
  8
0
  6
Continuous
 62
     7
370
    15
100
AcDbLine
 10
234.4656941595
 20
139.5138370972
 30
0.0
 11
204.9656941595
 21
139.5138370972
 31
0.0
  0
LINE
  5
8E
330
1F
100
AcDbEntity
  8
0
  6
Continuous
 62
     7
370
    15
100
AcDbLine
 10
204.9656941595
 20
89.5138370972
 30
0.0
 11
234.4656941595
 21
89.5138370972
 31
0.0
  0
ARC
  5
8F
330
1F
100
AcDbEntity
  8
0
  6
Continuous
 62
     7
370
    15
100
AcDbCircle
 10
66.3656941595
 20
96.1349925698
 30
0.0
 40
2.000000000000006
100
AcDbArc
 50
180.0
 51
261.7028550302
  0
ARC
  5
90
330
1F
100
AcDbEntity
  8
0
  6
Continuous
 62
     7
370
    15
100
AcDbCircle
 10
66.3656941595
 20
132.8926816246
 30
0.0
 40
1.999999999999992
100
AcDbArc
 50
98.2971449698
 51
180.0
  0
SPLINE
  5
91
330
1F
100
AcDbEntity
  8
0
  6
Continuous
 62
     7
370
    15
100
AcDbSpline
210
0.0
220
0.0
230
1.0
 70
    24
 71
     3
 72
    11
 73
     7
 74
     0
 42
0.000000001
 43
0.00000001
 40
0.0
 40
0.0
 40
0.0
 40
0.0
 40
0.1285561766307338
 40
0.4801535797842219
 40
0.8150691831753865
 40
1.0
 40
1.0
 40
1.0
 40
1.0
 10
223.3590698324708
 20
112.0138370972047
 30
0.0
 10
223.2428118484874
 20
112.0138370972047
 30
0.0
 10
222.8085916604643
 20
112.0138370972047
 30
0.0
 10
221.9943315558752
 20
112.0138370972047
 30
0.0
 10
221.1126596218893
 20
112.0138370972047
 30
0.0
 10
220.6403415198814
 20
112.0138370972047
 30
0.0
 10
220.4723184865226
 20
112.0138370972047
 30
0.0
  0
SPLINE
  5
92
330
1F
100
AcDbEntity
  8
0
  6
Continuous
 62
     7
370
    15
100
AcDbSpline
210
0.0
220
0.0
230
1.0
 70
    24
 71
     3
 72
    10
 73
     6
 74
     0
 42
0.000000001
 43
0.00000001
 40
0.0
 40
0.0
 40
0.0
 40
0.0
 40
0.4391256427914784
 40
0.7513741901692076
 40
1.0
 40
1.0
 40
1.0
 40
1.0
 10
224.8024455054448
 20
114.5138370972047
 30
0.0
 10
224.5958104946942
 20
114.1559347599621
 30
0.0
 10
224.24224377316
 20
113.5435392343992
 30
0.0
 10
223.7282788741672
 20
112.6533259160368
 30
0.0
 10
223.4724668405583
 20
112.2102464766387
 30
0.0
 10
223.3590698324708
 20
112.0138370972047
 30
0.0
  0
SPLINE
  5
93
330
1F
100
AcDbEntity
  8
0
  6
Continuous
 62
     7
370
    15
100
AcDbSpline
210
0.0
220
0.0
230
1.0
 70
    24
 71
     3
 72
    10
 73
     6
 74
     0
 42
0.000000001
 43
0.00000001
 40
0.0
 40
0.0
 40
0.0
 40
0.0
 40
0.4391256427914776
 40
0.7513741901692056
 40
1.0
 40
1.0
 40
1.0
 40
1.0
 10
223.3590698324708
 20
117.0138370972047
 30
0.0
 10
223.5657048432215
 20
116.6559347599621
 30
0.0
 10
223.9192715647556
 20
116.0435392343993
 30
0.0
 10
224.4332364637484
 20
115.1533259160368
 30
0.0
 10
224.6890484973573
 20
114.7102464766387
 30
0.0
 10
224.8024455054448
 20
114.5138370972047
 30
0.0
  0
SPLINE
  5
94
330
1F
100
AcDbEntity
  8
0
  6
Continuous
 62
     7
370
    15
100
AcDbSpline
210
0.0
220
0.0
230
1.0
 70
    24
 71
     3
 72
    11
 73
     7
 74
     0
 42
0.000000001
 43
0.00000001
 40
0.0
 40
0.0
 40
0.0
 40
0.0
 40
0.1849308168246117
 40
0.5198464202157771
 40
0.871443823369266
 40
1.0
 40
1.0
 40
1.0
 40
1.0
 10
220.4723184865227
 20
117.0138370972047
 30
0.0
 10
220.6403415198814
 20
117.0138370972047
 30
0.0
 10
221.1126596218892
 20
117.0138370972047
 30
0.0
 10
221.9943315558751
 20
117.0138370972047
 30
0.0
 10
222.8085916604643
 20
117.0138370972047
 30
0.0
 10
223.2428118484874
 20
117.0138370972047
 30
0.0
 10
223.3590698324708
 20
117.0138370972047
 30
0.0
  0
SPLINE
  5
95
330
1F
100
AcDbEntity
  8
0
  6
Continuous
 62
     7
370
    15
100
AcDbSpline
210
0.0
220
0.0
230
1.0
 70
    24
 71
     3
 72
    10
 73
     6
 74
     0
 42
0.000000001
 43
0.00000001
 40
0.0
 40
0.0
 40
0.0
 40
0.0
 40
0.4391256427914792
 40
0.7513741901692086
 40
1.0
 40
1.0
 40
1.0
 40
1.0
 10
219.0289428135486
 20
114.5138370972047
 30
0.0
 10
219.2355778242992
 20
114.8717394344474
 30
0.0
 10
219.5891445458334
 20
115.4841349600102
 30
0.0
 10
220.1031094448262
 20
116.3743482783727
 30
0.0
 10
220.3589214784351
 20
116.8174277177708
 30
0.0
 10
220.4723184865227
 20
117.0138370972047
 30
0.0
  0
SPLINE
  5
96
330
1F
100
AcDbEntity
  8
0
  6
Continuous
 62
     7
370
    15
100
AcDbSpline
210
0.0
220
0.0
230
1.0
 70
    24
 71
     3
 72
    10
 73
     6
 74
     0
 42
0.000000001
 43
0.00000001
 40
0.0
 40
0.0
 40
0.0
 40
0.0
 40
0.4391256427914769
 40
0.7513741901692067
 40
1.0
 40
1.0
 40
1.0
 40
1.0
 10
220.4723184865227
 20
112.0138370972047
 30
0.0
 10
220.265683475772
 20
112.3717394344474
 30
0.0
 10
219.9121167542378
 20
112.9841349600102
 30
0.0
 10
219.398151855245
 20
113.8743482783727
 30
0.0
 10
219.1423398216361
 20
114.3174277177708
 30
0.0
 10
219.0289428135486
 20
114.5138370972047
 30
0.0
  0
CIRCLE
  5
97
330
1F
100
AcDbEntity
  8
0
  6
Continuous
 62
     7
370
    15
100
AcDbCircle
 10
221.9156941595
 20
114.5138370972
 30
0.0
 40
3.000000000000014
  0
CIRCLE
  5
98
330
1F
100
AcDbEntity
  8
0
  6
Continuous
 62
     7
370
    15
100
AcDbCircle
 10
221.9156941595
 20
114.5138370972
 30
0.0
 40
4.500000000000014
  0
CIRCLE
  5
99
330
1F
100
AcDbEntity
  8
0
  6
Continuous
 62
     7
370
    15
100
AcDbCircle
 10
221.9156941595
 20
114.5138370972
 30
0.0
 40
5.000000000000014
  0
ARC
  5
9A
330
1F
100
AcDbEntity
  8
0
  6
Continuous
 62
     7
370
    15
100
AcDbCircle
 10
221.9156941595
 20
114.5138370972
 30
0.0
 40
2.500000000000008
100
AcDbArc
 50
330.0
 51
30.0
  0
ARC
  5
9B
330
1F
100
AcDbEntity
  8
0
  6
Continuous
 62
     7
370
    15
100
AcDbCircle
 10
221.9156941595
 20
114.5138370972
 30
0.0
 40
2.500000000000014
100
AcDbArc
 50
210.0
 51
270.0
  0
ARC
  5
9C
330
1F
100
AcDbEntity
  8
0
  6
Continuous
 62
     7
370
    15
100
AcDbCircle
 10
221.9156941595
 20
114.5138370972
 30
0.0
 40
2.499999999999984
100
AcDbArc
 50
150.0
 51
210.0
  0
ARC
  5
9D
330
1F
100
AcDbEntity
  8
0
  6
Continuous
 62
     7
370
    15
100
AcDbCircle
 10
221.9156941595
 20
114.5138370972
 30
0.0
 40
2.5
100
AcDbArc
 50
90.0
 51
150.0
  0
ARC
  5
9E
330
1F
100
AcDbEntity
  8
0
  6
Continuous
 62
     7
370
    15
100
AcDbCircle
 10
221.9156941595
 20
114.5138370972
 30
0.0
 40
2.500000000000014
100
AcDbArc
 50
270.0
 51
330.0
  0
ARC
  5
9F
330
1F
100
AcDbEntity
  8
0
  6
Continuous
 62
     7
370
    15
100
AcDbCircle
 10
221.9156941595
 20
114.5138370972
 30
0.0
 40
2.500000000000008
100
AcDbArc
 50
30.0
 51
90.0
  0
LINE
  5
A0
330
1F
100
AcDbEntity
  8
0
  6
Continuous
 62
     7
370
    15
100
AcDbLine
 10
169.1406941595
 20
67.9160618687
 30
0.0
 11
169.1406941595
 21
161.1116123257
 31
0.0
  0
SPLINE
  5
A1
330
1F
100
AcDbEntity
  8
0
  6
Continuous
 62
     7
370
    15
100
AcDbSpline
210
0.0
220
0.0
230
1.0
 70
     8
 71
     3
 72
    10
 73
     6
 74
     0
 42
0.000000001
 43
0.00000001
 40
0.0
 40
0.0
 40
0.0
 40
0.0
 40
0.5
 40
0.5
 40
1.0
 40
1.0
 40
1.0
 40
1.0
 10
169.4294103381678
 20
161.7303591165472
 30
0.0
 10
169.3532609144713
 20
161.6604069079967
 30
0.0
 10
169.2846288313751
 20
161.573648103271
 30
0.0
 10
169.1785491514219
 20
161.3653204059483
 30
0.0
 10
169.1406941594966
 20
161.2404384950637
 30
0.0
 10
169.1406941594966
 20
161.1116123257497
 30
0.0
  0
SPLINE
  5
A2
330
1F
100
AcDbEntity
  8
0
  6
Continuous
 62
     7
370
    15
100
AcDbSpline
210
0.0
220
0.0
230
1.0
 70
     8
 71
     3
 72
     8
 73
     4
 74
     0
 42
0.000000001
 43
0.00000001
 40
0.0
 40
0.0
 40
0.0
 40
0.0
 40
1.0
 40
1.0
 40
1.0
 40
1.0
 10
169.7406941594967
 20
161.8007128119555
 30
0.0
 10
169.6291178512869
 20
161.8007128119555
 30
0.0
 10
169.521009690365
 20
161.775290309883
 30
0.0
 10
169.4294103381678
 20
161.7303591165472
 30
0.0
  0
SPLINE
  5
A3
330
1F
100
AcDbEntity
  8
0
  6
Continuous
 62
     7
370
    15
100
AcDbSpline
210
0.0
220
0.0
230
1.0
 70
     8
 71
     3
 72
    10
 73
     6
 74
     0
 42
0.000000001
 43
0.00000001
 40
0.0
 40
0.0
 40
0.0
 40
0.0
 40
0.5
 40
0.5
 40
1.0
 40
1.0
 40
1.0
 40
1.0
 10
169.3558163887616
 20
67.37331246103038
 30
0.0
 10
169.4044878761332
 20
67.34513911553806
 30
0.0
 10
169.4619297654345
 20
67.3210022166031
 30
0.0
 10
169.5928221250687
 20
67.28660016855846
 30
0.0
 10
169.6656992840924
 20
67.27672496937362
 30
0.0
 10
169.7406941594967
 20
67.27672496937362
 30
0.0
  0
SPLINE
  5
A4
330
1F
100
AcDbEntity
  8
0
  6
Continuous
 62
     7
370
    15
100
AcDbSpline
210
0.0
220
0.0
230
1.0
 70
     8
 71
     3
 72
    10
 73
     6
 74
     0
 42
0.000000001
 43
0.00000001
 40
0.0
 40
0.0
 40
0.0
 40
0.0
 40
0.5
 40
0.5
 40
1.0
 40
1.0
 40
1.0
 40
1.0
 10
169.3558163887616
 20
67.37331246103037
 30
0.0
 10
169.2977642242946
 20
67.44063393344143
 30
0.0
 10
169.2454378540839
 20
67.52083050994423
 30
0.0
 10
169.1672789785811
 20
67.70329632298652
 30
0.0
 10
169.1406941594973
 20
67.8088827190738
 30
0.0
 10
169.1406941594966
 20
67.91606186865562
 30
0.0
  0
LINE
  5
A5
330
1F
100
AcDbEntity
  8
0
  6
Continuous
 62
     7
370
    15
100
AcDbLine
 10
178.9756941595
 20
69.9149109192
 30
0.0
 11
178.9756941595
 21
159.1127632752
 31
0.0
  0
SPLINE
  5
A6
330
1F
100
AcDbEntity
  8
0
  6
Continuous
 62
     7
370
    15
100
AcDbSpline
210
0.0
220
0.0
230
1.0
 70
     8
 71
     3
 72
     8
 73
     4
 74
     0
 42
0.000000001
 43
0.00000001
 40
0.0
 40
0.0
 40
0.0
 40
0.0
 40
1.0
 40
1.0
 40
1.0
 40
1.0
 10
180.0349478145165
 20
161.0190752952218
 30
0.0
 10
179.6814532004491
 20
160.3838614515452
 30
0.0
 10
179.3283521333006
 20
159.748433112968
 30
0.0
 10
178.9756941594967
 20
159.112763275199
 30
0.0
  0
SPLINE
  5
A7
330
1F
100
AcDbEntity
  8
0
  6
Continuous
 62
     7
370
    15
100
AcDbSpline
210
0.0
220
0.0
230
1.0
 70
     8
 71
     3
 72
     8
 73
     4
 74
     0
 42
0.000000001
 43
0.00000001
 40
0.0
 40
0.0
 40
0.0
 40
0.0
 40
0.0012377667921472
 40
0.0012377667921472
 40
0.0012377667921472
 40
0.0012377667921472
 10
180.5918609285723
 20
161.8007128119555
 30
0.0
 10
180.4057691291947
 20
161.5403289914582
 30
0.0
 10
180.2201214729791
 20
161.2797861906208
 30
0.0
 10
180.0349478145163
 20
161.0190752952207
 30
0.0
  0
LINE
  5
A8
330
1F
100
AcDbEntity
  8
0
  6
Continuous
 62
     7
370
    15
100
AcDbLine
 10
180.5918609286
 20
67.2767249694
 30
0.0
 11
180.5918609286
 21
161.800712812
 31
0.0
  0
SPLINE
  5
A9
330
1F
100
AcDbEntity
  8
0
  6
Continuous
 62
     7
370
    15
100
AcDbSpline
210
0.0
220
0.0
230
1.0
 70
     8
 71
     3
 72
     8
 73
     4
 74
     0
 42
0.000000001
 43
0.00000001
 40
0.0
 40
0.0
 40
0.0
 40
0.0
 40
0.0011891741919631
 40
0.0011891741919631
 40
0.0011891741919631
 40
0.0011891741919631
 10
180.1377022845756
 20
67.82397965932583
 30
0.0
 10
180.288086976922
 20
67.64135614662034
 30
0.0
 10
180.4394925022989
 20
67.45894032449348
 30
0.0
 10
180.5918609285723
 20
67.27672496937363
 30
0.0
  0
SPLINE
  5
AA
330
1F
100
AcDbEntity
  8
0
  6
Continuous
 62
     7
370
    15
100
AcDbSpline
210
0.0
220
0.0
230
1.0
 70
     8
 71
     3
 72
     8
 73
     4
 74
     0
 42
0.000000001
 43
0.00000001
 40
0.0
 40
0.0
 40
0.0
 40
0.0
 40
1.0
 40
1.0
 40
1.0
 40
1.0
 10
180.1377022845756
 20
67.82397965932583
 30
0.0
 10
179.7498800800218
 20
68.52068352354662
 30
0.0
 10
179.3625225497825
 20
69.2176485336613
 30
0.0
 10
178.9756941594967
 20
69.91491091921051
 30
0.0
  0
LINE
  5
AB
330
1F
100
AcDbEntity
  8
0
  6
Continuous
 62
     7
370
    15
100
AcDbLine
 10
184.4156941595
 20
161.800712812
 30
0.0
 11
180.5918609286
 21
161.800712812
 31
0.0
  0
LINE
  5
AC
330
1F
100
AcDbEntity
  8
0
  6
Continuous
 62
     7
370
    15
100
AcDbLine
 10
180.5918609286
 20
67.2767249694
 30
0.0
 11
184.4156941595
 21
67.2767249694
 31
0.0
  0
SPLINE
  5
AD
330
1F
100
AcDbEntity
  8
0
  6
Continuous
 62
     7
370
    15
100
AcDbSpline
210
0.0
220
0.0
230
1.0
 70
     8
 71
     3
 72
    12
 73
     8
 74
     0
 42
0.000000001
 43
0.00000001
 40
0.0
 40
0.0
 40
0.0
 40
0.0
 40
0.5000000000000014
 40
0.5000000000000014
 40
0.7500000000000007
 40
0.7500000000000007
 40
1.0
 40
1.0
 40
1.0
 40
1.0
 10
185.0156941594967
 20
161.3150915043242
 30
0.0
 10
185.0156941594967
 20
161.4353891306561
 30
0.0
 10
184.9618019680206
 20
161.5534263008377
 30
0.0
 10
184.8008470431595
 20
161.693023170379
 30
0.0
 10
184.7361284149325
 20
161.7312756384581
 30
0.0
 10
184.5839417570319
 20
161.7861113403632
 30
0.0
 10
184.5011737194457
 20
161.8007128119555
 30
0.0
 10
184.4156941594967
 20
161.8007128119555
 30
0.0
  0
LINE
  5
AE
330
1F
100
AcDbEntity
  8
0
  6
Continuous
 62
     7
370
    15
100
AcDbLine
 10
185.0156941595
 20
67.6933783831
 30
0.0
 11
185.0156941595
 21
161.3150915043
 31
0.0
  0
SPLINE
  5
AF
330
1F
100
AcDbEntity
  8
0
  6
Continuous
 62
     7
370
    15
100
AcDbSpline
210
0.0
220
0.0
230
1.0
 70
     8
 71
     3
 72
    12
 73
     8
 74
     0
 42
0.000000001
 43
0.00000001
 40
0.0
 40
0.0
 40
0.0
 40
0.0
 40
0.2499999999999988
 40
0.2499999999999988
 40
0.4999999999999976
 40
0.4999999999999976
 40
1.0
 40
1.0
 40
1.0
 40
1.0
 10
184.4156941594967
 20
67.27672496937363
 30
0.0
 10
184.5116750018967
 20
67.27672496937362
 30
0.0
 10
184.6041082198348
 20
67.29308141732416
 30
0.0
 10
184.7605401772706
 20
67.34672209640334
 30
0.0
 10
184.824014953101
 20
67.38302866758369
 30
0.0
 10
184.972283208226
 20
67.50431692364288
 30
0.0
 10
185.0156941594967
 20
67.59861932053593
 30
0.0
 10
185.0156941594967
 20
67.6933783831323
 30
0.0
  0
LINE
  5
B0
330
1F
100
AcDbEntity
  8
0
  6
Continuous
 62
     7
370
    15
100
AcDbLine
 10
173.5395273904
 20
161.800712812
 30
0.0
 11
169.7406941595
 21
161.800712812
 31
0.0
  0
LINE
  5
B1
330
1F
100
AcDbEntity
  8
0
  6
Continuous
 62
     7
370
    15
100
AcDbLine
 10
173.5395273904
 20
67.2767249694
 30
0.0
 11
173.5395273904
 21
161.800712812
 31
0.0
  0
LINE
  5
B2
330
1F
100
AcDbEntity
  8
0
  6
Continuous
 62
     7
370
    15
100
AcDbLine
 10
169.7406941595
 20
67.2767249694
 30
0.0
 11
173.5395273904
 21
67.2767249694
 31
0.0
  0
SPLINE
  5
B3
330
1F
100
AcDbEntity
  8
0
  6
Continuous
 62
     7
370
    15
100
AcDbSpline
210
0.0
220
0.0
230
1.0
 70
     8
 71
     3
 72
     8
 73
     4
 74
     0
 42
0.000000001
 43
0.00000001
 40
0.0
 40
0.0
 40
0.0
 40
0.0
 40
0.0012377667921509
 40
0.0012377667921509
 40
0.0012377667921509
 40
0.0012377667921509
 10
174.0964405044788
 20
161.0190752952183
 30
0.0
 10
173.9112668460154
 20
161.2797861906192
 30
0.0
 10
173.7256191897993
 20
161.5403289914574
 30
0.0
 10
173.5395273904211
 20
161.8007128119555
 30
0.0
  0
SPLINE
  5
B4
330
1F
100
AcDbEntity
  8
0
  6
Continuous
 62
     7
370
    15
100
AcDbSpline
210
0.0
220
0.0
230
1.0
 70
     8
 71
     3
 72
     8
 73
     4
 74
     0
 42
0.000000001
 43
0.00000001
 40
0.0
 40
0.0
 40
0.0
 40
0.0
 40
1.0
 40
1.0
 40
1.0
 40
1.0
 10
175.1556941594967
 20
159.112763275199
 30
0.0
 10
174.8030361856935
 20
159.7484331129669
 30
0.0
 10
174.4499351185457
 20
160.3838614515429
 30
0.0
 10
174.0964405044788
 20
161.0190752952183
 30
0.0
  0
LINE
  5
B5
330
1F
100
AcDbEntity
  8
0
  6
Continuous
 62
     7
370
    15
100
AcDbLine
 10
175.1556941595
 20
69.9149109192
 30
0.0
 11
175.1556941595
 21
159.1127632752
 31
0.0
  0
SPLINE
  5
B6
330
1F
100
AcDbEntity
  8
0
  6
Continuous
 62
     7
370
    15
100
AcDbSpline
210
0.0
220
0.0
230
1.0
 70
     8
 71
     3
 72
     8
 73
     4
 74
     0
 42
0.000000001
 43
0.00000001
 40
0.0
 40
0.0
 40
0.0
 40
0.0
 40
1.0
 40
1.0
 40
1.0
 40
1.0
 10
175.1556941594967
 20
69.91491091921051
 30
0.0
 10
174.7688657692109
 20
69.2176485336613
 30
0.0
 10
174.3815082389716
 20
68.52068352354662
 30
0.0
 10
173.9936860344178
 20
67.82397965932583
 30
0.0
  0
SPLINE
  5
B7
330
1F
100
AcDbEntity
  8
0
  6
Continuous
 62
     7
370
    15
100
AcDbSpline
210
0.0
220
0.0
230
1.0
 70
     8
 71
     3
 72
     8
 73
     4
 74
     0
 42
0.000000001
 43
0.00000001
 40
0.0
 40
0.0
 40
0.0
 40
0.0
 40
0.0011891741919631
 40
0.0011891741919631
 40
0.0011891741919631
 40
0.0011891741919631
 10
173.5395273904211
 20
67.27672496937363
 30
0.0
 10
173.6918958166945
 20
67.45894032449348
 30
0.0
 10
173.8433013420714
 20
67.64135614662034
 30
0.0
 10
173.9936860344178
 20
67.82397965932583
 30
0.0
  0
SPLINE
  5
B8
330
1F
100
AcDbEntity
  8
0
  6
Continuous
 62
     7
370
    15
100
AcDbSpline
210
0.0
220
0.0
230
1.0
 70
     8
 71
     3
 72
    12
 73
     8
 74
     0
 42
0.000000001
 43
0.00000001
 40
0.0
 40
0.0
 40
0.0
 40
0.0
 40
0.4999999999999928
 40
0.4999999999999928
 40
0.7499999999999963
 40
0.7499999999999963
 40
1.0
 40
1.0
 40
1.0
 40
1.0
 10
175.9556941594967
 20
70.86607083133495
 30
0.0
 10
175.7415191930224
 20
70.86607083133495
 30
0.0
 10
175.5310193804031
 20
70.77211485871801
 30
0.0
 10
175.3102762850919
 20
70.53702315077231
 30
0.0
 10
175.2531291523717
 20
70.44539098606477
 30
0.0
 10
175.1755547287246
 20
70.24618161214423
 30
0.0
 10
175.1556941594968
 20
70.13922225179067
 30
0.0
 10
175.1556941594967
 20
70.03274560879872
 30
0.0
  0
SPLINE
  5
B9
330
1F
100
AcDbEntity
  8
0
  6
Continuous
 62
     7
370
    15
100
AcDbSpline
210
0.0
220
0.0
230
1.0
 70
     8
 71
     3
 72
    12
 73
     8
 74
     0
 42
0.000000001
 43
0.00000001
 40
0.0
 40
0.0
 40
0.0
 40
0.0
 40
0.25
 40
0.25
 40
0.5
 40
0.5
 40
1.0
 40
1.0
 40
1.0
 40
1.0
 10
175.9556941594967
 20
158.1616033630745
 30
0.0
 10
175.8478893322479
 20
158.1616033630745
 30
0.0
 10
175.7416762941886
 20
158.1844009029642
 30
0.0
 10
175.5459588811963
 20
158.2707616176214
 30
0.0
 10
175.4570240529991
 20
158.3344291067528
 30
0.0
 10
175.2382217860003
 20
158.5672602097448
 30
0.0
 10
175.1556941594967
 20
158.7814931110258
 30
0.0
 10
175.1556941594967
 20
158.9949285856114
 30
0.0
  0
SPLINE
  5
BA
330
1F
100
AcDbEntity
  8
0
  6
Continuous
 62
     7
370
    15
100
AcDbSpline
210
0.0
220
0.0
230
1.0
 70
     8
 71
     3
 72
    14
 73
    10
 74
     0
 42
0.000000001
 43
0.00000001
 40
0.0
 40
0.0
 40
0.0
 40
0.0
 40
0.25
 40
0.25
 40
0.5
 40
0.5
 40
0.75
 40
0.75
 40
1.0
 40
1.0
 40
1.0
 40
1.0
 10
178.9756941594967
 20
70.03274560879812
 30
0.0
 10
178.9756941594967
 20
70.14014910829589
 30
0.0
 10
178.9557812286399
 20
70.24640122249276
 30
0.0
 10
178.8781321843927
 20
70.4456317297458
 30
0.0
 10
178.8203526763588
 20
70.5378695443915
 30
0.0
 10
178.6744376075342
 20
70.69319387479165
 30
0.0
 10
178.5857740396207
 20
70.75675621523072
 30
0.0
 10
178.3894199942926
 20
70.84340645464977
 30
0.0
 10
178.2836299042713
 20
70.86607083133495
 30
0.0
 10
178.1756941594967
 20
70.86607083133495
 30
0.0
  0
SPLINE
  5
BB
330
1F
100
AcDbEntity
  8
0
  6
Continuous
 62
     7
370
    15
100
AcDbSpline
210
0.0
220
0.0
230
1.0
 70
     8
 71
     3
 72
    14
 73
    10
 74
     0
 42
0.000000001
 43
0.00000001
 40
0.0
 40
0.0
 40
0.0
 40
0.0
 40
0.25
 40
0.25
 40
0.5
 40
0.5
 40
0.75
 40
0.75
 40
1.0
 40
1.0
 40
1.0
 40
1.0
 10
178.9756941594967
 20
158.9949285856114
 30
0.0
 10
178.9756941594967
 20
158.8875862134639
 30
0.0
 10
178.9556979674325
 20
158.7809572066161
 30
0.0
 10
178.8779998830878
 20
158.5818054274649
 30
0.0
 10
178.8200067381943
 20
158.4893225291494
 30
0.0
 10
178.6739602453714
 20
158.3340866940403
 30
0.0
 10
178.5846225062038
 20
158.2703527524279
 30
0.0
 10
178.3898674941433
 20
158.1845224860327
 30
0.0
 10
178.2823372229344
 20
158.1616033630742
 30
0.0
 10
178.1756941594946
 20
158.1616033630745
 30
0.0
  0
LINE
  5
BC
330
1F
100
AcDbEntity
  8
0
  6
Continuous
 62
     7
370
    15
100
AcDbLine
 10
178.1756941595
 20
70.8660708313
 30
0.0
 11
175.9556941595
 21
70.8660708313
 31
0.0
  0
LINE
  5
BD
330
1F
100
AcDbEntity
  8
0
  6
Continuous
 62
     7
370
    15
100
AcDbLine
 10
178.1756941595
 20
158.1616033631
 30
0.0
 11
175.9556941595
 21
158.1616033631
 31
0.0
  0
LINE
  5
BE
330
1F
100
AcDbEntity
  8
0
  6
Continuous
 62
     7
370
    15
100
AcDbLine
 10
165.9656941595
 20
79.5888370972
 30
0.0
 11
165.9656941595
 21
149.4388370972
 31
0.0
  0
LINE
  5
BF
330
1F
100
AcDbEntity
  8
0
  6
Continuous
 62
     7
370
    15
100
AcDbLine
 10
200.9656941595
 20
148.4388370952
 30
0.0
 11
200.9656941595
 21
80.5888370972
 31
0.0
  0
LINE
  5
C0
330
1F
100
AcDbEntity
  8
0
  6
Continuous
 62
     7
370
    15
100
AcDbLine
 10
234.9656941595
 20
114.5138370972
 30
0.0
 11
234.9656941595
 21
90.0138370972
 31
0.0
  0
LINE
  5
C1
330
1F
100
AcDbEntity
  8
0
  6
Continuous
 62
     7
370
    15
100
AcDbLine
 10
234.9656941595
 20
139.0138370972
 30
0.0
 11
234.9656941595
 21
114.5138370972
 31
0.0
  0
LINE
  5
C2
330
1F
100
AcDbEntity
  8
0
  6
Continuous
 62
     7
370
    15
100
AcDbLine
 10
234.4656941595
 20
114.5138370972
 30
0.0
 11
234.4656941595
 21
89.5138370972
 31
0.0
  0
LINE
  5
C3
330
1F
100
AcDbEntity
  8
0
  6
Continuous
 62
     7
370
    15
100
AcDbLine
 10
234.4656941595
 20
139.5138370972
 30
0.0
 11
234.4656941595
 21
114.5138370972
 31
0.0
  0
SPLINE
  5
C4
330
1F
100
AcDbEntity
  8
0
  6
Continuous
 62
     7
370
    15
100
AcDbSpline
210
0.0
220
0.0
230
1.0
 70
    11
 71
     3
 72
    77
 73
    73
 74
     0
 42
0.000000001
 43
0.00000001
 40
0.0
 40
0.0
 40
0.0
 40
0.0
 40
0.03125
 40
0.03125
 40
0.0625
 40
0.0625
 40
0.0937499999999999
 40
0.0937499999999999
 40
0.1249999999999999
 40
0.1249999999999999
 40
0.1562499999999999
 40
0.1562499999999999
 40
0.1874999999999999
 40
0.1874999999999999
 40
0.2187499999999999
 40
0.2187499999999999
 40
0.2499999999999998
 40
0.2499999999999998
 40
0.2812499999999998
 40
0.2812499999999998
 40
0.3124999999999998
 40
0.3124999999999998
 40
0.3437499999999998
 40
0.3437499999999998
 40
0.3593749999999998
 40
0.3593749999999998
 40
0.3749999999999998
 40
0.3906249999999999
 40
0.3906249999999999
 40
0.4062499999999999
 40
0.4062499999999999
 40
0.4374999999999999
 40
0.4374999999999999
 40
0.4687499999999999
 40
0.4687499999999999
 40
0.4999999999999999
 40
0.4999999999999999
 40
0.5312499999999999
 40
0.5312499999999999
 40
0.5624999999999999
 40
0.5624999999999999
 40
0.5937499999999998
 40
0.5937499999999998
 40
0.6249999999999998
 40
0.6249999999999998
 40
0.6562499999999998
 40
0.6562499999999998
 40
0.6874999999999998
 40
0.6874999999999998
 40
0.7187499999999998
 40
0.7187499999999998
 40
0.7499999999999997
 40
0.7499999999999997
 40
0.7656249999999999
 40
0.7656249999999999
 40
0.7812500000000001
 40
0.7812500000000001
 40
0.8125000000000001
 40
0.8125000000000001
 40
0.8437500000000001
 40
0.8437500000000001
 40
0.8750000000000001
 40
0.8750000000000001
 40
0.8906250000000001
 40
0.8906250000000001
 40
0.9062500000000001
 40
0.9062500000000001
 40
0.9375
 40
0.9375
 40
0.96875
 40
0.96875
 40
1.0
 40
1.0
 40
1.0
 40
1.0
 10
217.8792888097107
 20
118.5083731799887
 30
0.0
 10
218.1695418470063
 20
118.7468036136555
 30
0.0
 10
218.4778372136276
 20
118.9538494893825
 30
0.0
 10
219.1276357445068
 20
119.310886758001
 30
0.0
 10
219.4717142734467
 20
119.4616415627043
 30
0.0
 10
220.1824334013202
 20
119.7009862461859
 30
0.0
 10
220.5443120393194
 20
119.7885007098723
 30
0.0
 10
221.2806522070428
 20
119.901877722299
 30
0.0
 10
221.6587753671381
 20
119.9275016076125
 30
0.0
 10
222.4075193992219
 20
119.9141872270774
 30
0.0
 10
222.7775984624795
 20
119.8760366728411
 30
0.0
 10
223.5092570592241
 20
119.7371932813776
 30
0.0
 10
223.8743140631476
 20
119.6349299983922
 30
0.0
 10
224.5719054192509
 20
119.3714420394108
 30
0.0
 10
224.9056709384273
 20
119.210750339235
 30
0.0
 10
225.5425897510262
 20
118.829764354762
 30
0.0
 10
225.8484460397862
 20
118.6065636733481
 30
0.0
 10
226.4031279739397
 20
118.1132590113987
 30
0.0
 10
226.654401718514
 20
117.8425637119183
 30
0.0
 10
227.1016612097737
 20
117.249575648491
 30
0.0
 10
227.2981264892211
 20
116.92412807757
 30
0.0
 10
227.6102113136553
 20
116.2504204380212
 30
0.0
 10
227.7291132546353
 20
115.8988628419336
 30
0.0
 10
227.8471144696417
 20
115.3474922650828
 30
0.0
 10
227.8760518975722
 20
115.1598660405889
 30
0.0
 10
227.9115779431981
 20
114.7872923293709
 30
0.0
 10
227.9254146420025
 20
114.4147018442709
 30
0.0
 10
227.8963062392465
 20
114.0420781351074
 30
0.0
 10
227.8452545829352
 20
113.6694374620213
 30
0.0
 10
227.8085721414719
 20
113.4831749429597
 30
0.0
 10
227.6688071484157
 20
112.9390979829212
 30
0.0
 10
227.5357964536023
 20
112.5907427529956
 30
0.0
 10
227.1928477478428
 20
111.921587018914
 30
0.0
 10
226.986402845048
 20
111.6085157327699
 30
0.0
 10
226.5162374495874
 20
111.0315158251036
 30
0.0
 10
226.2485671587879
 20
110.7638170917285
 30
0.0
 10
225.6737556725046
 20
110.2897031630369
 30
0.0
 10
225.3658961046169
 20
110.081372072003
 30
0.0
 10
224.7104993825656
 20
109.719752156091
 30
0.0
 10
224.3651288100887
 20
109.5684072847454
 30
0.0
 10
223.6599603222211
 20
109.3298688917686
 30
0.0
 10
223.2974061490089
 20
109.241104003197
 30
0.0
 10
222.5518756752873
 20
109.1256371344773
 30
0.0
 10
222.1784693989549
 20
109.1005130887774
 30
0.0
 10
221.4336153924872
 20
109.1128782275474
 30
0.0
 10
221.060343168906
 20
109.1505302613638
 30
0.0
 10
220.3201356238237
 20
109.2907241214192
 30
0.0
 10
219.961483284623
 20
109.3914628911199
 30
0.0
 10
219.2665271640038
 20
109.6531937033317
 30
0.0
 10
218.9280742860751
 20
109.8154528844236
 30
0.0
 10
218.2849692236031
 20
110.2002617198831
 30
0.0
 10
217.9857339874339
 20
110.4190220811985
 30
0.0
 10
217.5706757565275
 20
110.7875649410095
 30
0.0
 10
217.4379949660434
 20
110.9171935382729
 30
0.0
 10
217.1845699969205
 20
111.1908088175129
 30
0.0
 10
217.063205017703
 20
111.3357252330262
 30
0.0
 10
216.7259813323829
 20
111.7835526318451
 30
0.0
 10
216.5347387268397
 20
112.1008492702095
 30
0.0
 10
216.2220878709986
 20
112.7747998028919
 30
0.0
 10
216.1001340328998
 20
113.1367240183171
 30
0.0
 10
215.9446619507164
 20
113.8673960391691
 30
0.0
 10
215.9088684131907
 20
114.2383247532805
 30
0.0
 10
215.9206961855635
 20
114.8034694361711
 30
0.0
 10
215.9358254337234
 20
114.9928827949558
 30
0.0
 10
215.9872126225168
 20
115.3641835336515
 30
0.0
 10
216.0234646024252
 20
115.5473924341348
 30
0.0
 10
216.1631099303401
 20
116.0898892856996
 30
0.0
 10
216.299510528938
 20
116.4457303642045
 30
0.0
 10
216.6413434819912
 20
117.110380347108
 30
0.0
 10
216.8464730534715
 20
117.4217398721608
 30
0.0
 10
217.3225827528923
 20
118.0045088635707
 30
0.0
 10
217.5890357724151
 20
118.2699427463218
 30
0.0
 10
217.8792888097107
 20
118.5083731799887
 30
0.0
  0
LINE
  5
C5
330
1F
100
AcDbEntity
  8
0
  6
Continuous
 62
     7
370
    15
100
AcDbLine
 10
64.3656941595
 20
96.1349925698
 30
0.0
 11
64.3656941595
 21
132.8926816078
 31
0.0
  0
CIRCLE
  5
C6
330
1F
100
AcDbEntity
  8
0
  6
HIDDEN
 62
     7
370
     0
100
AcDbCircle
 10
221.9156941595
 20
114.5138370972
 30
0.0
 40
3.680384757729342
  0
CIRCLE
  5
C7
330
1F
100
AcDbEntity
  8
0
  6
HIDDEN
 62
     7
370
     0
100
AcDbCircle
 10
221.9156941595
 20
114.5138370972
 30
0.0
 40
3.380384757729345
  0
SPLINE
  5
C8
330
1F
100
AcDbEntity
  8
0
  6
HIDDEN
 62
     7
370
     0
100
AcDbSpline
210
0.0
220
0.0
230
1.0
 70
     8
 71
     3
 72
    16
 73
    12
 74
     0
 42
0.000000001
 43
0.00000001
 40
0.0
 40
0.0
 40
0.0
 40
0.0
 40
0.2500000000000062
 40
0.2500000000000062
 40
0.5000000000000123
 40
0.5000000000000123
 40
0.6250000000000154
 40
0.6250000000000154
 40
0.7500000000000184
 40
0.7500000000000184
 40
1.0
 40
1.0
 40
1.0
 40
1.0
 10
234.9656941594967
 20
127.5823135549068
 30
0.0
 10
234.9656941594967
 20
127.492793163005
 30
0.0
 10
234.9604666526197
 20
127.4014900548229
 30
0.0
 10
234.9311948169079
 20
127.2124677203127
 30
0.0
 10
234.9074512933111
 20
127.1126224688777
 30
0.0
 10
234.8391422324731
 20
126.9724351838269
 30
0.0
 10
234.8102713908154
 20
126.9279979548929
 30
0.0
 10
234.7438203472214
 20
126.8581096265769
 30
0.0
 10
234.706013330707
 20
126.8327095233763
 30
0.0
 10
234.5957911125028
 20
126.7878871418809
 30
0.0
 10
234.5277808633201
 20
126.7937295828452
 30
0.0
 10
234.4656941594798
 20
126.8099346373888
 30
0.0
  0
SPLINE
  5
C9
330
1F
100
AcDbEntity
  8
0
  6
HIDDEN
 62
     7
370
     0
100
AcDbSpline
210
0.0
220
0.0
230
1.0
 70
     8
 71
     3
 72
     8
 73
     4
 74
     0
 42
0.000000001
 43
0.00000001
 40
0.0
 40
0.0
 40
0.0
 40
0.0
 40
1.0
 40
1.0
 40
1.0
 40
1.0
 10
234.4656941594798
 20
126.8099346373888
 30
0.0
 10
234.3794507746724
 20
126.7512777932423
 30
0.0
 10
234.2760714662535
 20
126.7112049572727
 30
0.0
 10
234.1656941594967
 20
126.7112049572727
 30
0.0
  0
SPLINE
  5
CA
330
1F
100
AcDbEntity
  8
0
  6
HIDDEN
 62
     7
370
     0
100
AcDbSpline
210
0.0
220
0.0
230
1.0
 70
     8
 71
     3
 72
     8
 73
     4
 74
     0
 42
0.000000001
 43
0.00000001
 40
0.0
 40
0.0
 40
0.0
 40
0.0
 40
1.0
 40
1.0
 40
1.0
 40
1.0
 10
234.465694159513
 20
102.2177395569981
 30
0.0
 10
234.3794507746981
 20
102.2763964011572
 30
0.0
 10
234.2760714662676
 20
102.3164692371368
 30
0.0
 10
234.1656941594967
 20
102.3164692371368
 30
0.0
  0
SPLINE
  5
CB
330
1F
100
AcDbEntity
  8
0
  6
HIDDEN
 62
     7
370
     0
100
AcDbSpline
210
0.0
220
0.0
230
1.0
 70
     8
 71
     3
 72
    16
 73
    12
 74
     0
 42
0.000000001
 43
0.00000001
 40
0.0
 40
0.0
 40
0.0
 40
0.0
 40
0.2500000000000019
 40
0.2500000000000019
 40
0.3750000000000016
 40
0.3750000000000016
 40
0.5000000000000013
 40
0.5000000000000013
 40
0.7500000000000007
 40
0.7500000000000007
 40
1.0
 40
1.0
 40
1.0
 40
1.0
 10
234.465694159503
 20
102.2177395570011
 30
0.0
 10
234.5277673088875
 20
102.2339411513898
 30
0.0
 10
234.5958288662825
 20
102.2397689745012
 30
0.0
 10
234.7059755482546
 20
102.1949860282687
 30
0.0
 10
234.7434043151922
 20
102.1698894726896
 30
0.0
 10
234.8098147303254
 20
102.1002772289953
 30
0.0
 10
234.8388087464316
 20
102.0558311336371
 30
0.0
 10
234.9074074387537
 20
101.9153381987801
 30
0.0
 10
234.9309465095666
 20
101.8162991877244
 30
0.0
 10
234.9603470530851
 20
101.6274654009565
 30
0.0
 10
234.9656941594968
 20
101.5349552951625
 30
0.0
 10
234.9656941594968
 20
101.4453618192482
 30
0.0
  0
LINE
  5
CC
330
1F
100
AcDbEntity
  8
0
  6
HIDDEN
 62
     7
370
     0
100
AcDbLine
 10
204.4656941595
 20
114.5138370972
 30
0.0
 11
204.4656941595
 21
101.0138370972
 31
0.0
  0
LINE
  5
CD
330
1F
100
AcDbEntity
  8
0
  6
HIDDEN
 62
     7
370
     0
100
AcDbLine
 10
204.4656941595
 20
128.0138370972
 30
0.0
 11
204.4656941595
 21
114.5138370972
 31
0.0
  0
LINE
  5
CE
330
1F
100
AcDbEntity
  8
0
  6
HIDDEN
 62
     7
370
     0
100
AcDbLine
 10
209.3317195633
 20
114.5138370972
 30
0.0
 11
209.3317195633
 21
100.5138370972
 31
0.0
  0
LINE
  5
CF
330
1F
100
AcDbEntity
  8
0
  6
HIDDEN
 62
     7
370
     0
100
AcDbLine
 10
209.3317195633
 20
128.5138370972
 30
0.0
 11
209.3317195633
 21
114.5138370972
 31
0.0
  0
LINE
  5
D0
330
1F
100
AcDbEntity
  8
0
  6
HIDDEN
 62
     7
370
     0
100
AcDbLine
 10
221.3656941595
 20
126.7112049573
 30
0.0
 11
234.1656941595
 21
126.7112049573
 31
0.0
  0
LINE
  5
D1
330
1F
100
AcDbEntity
  8
0
  6
HIDDEN
 62
     7
370
     0
100
AcDbLine
 10
221.3656941595
 20
102.3164692371
 30
0.0
 11
234.1656941595
 21
102.3164692371
 31
0.0
  0
LINE
  5
D2
330
1F
100
AcDbEntity
  8
0
  6
HIDDEN
 62
     7
370
     0
100
AcDbLine
 10
169.1406941595
 20
152.0138370972
 30
0.0
 11
169.8093233096
 21
152.0138370972
 31
0.0
  0
ELLIPSE
  5
D3
330
1F
100
AcDbEntity
  8
0
  6
HIDDEN
 62
     7
370
     0
100
AcDbEllipse
 10
169.8093233096
 20
152.8138370972
 30
0.0
 11
0.0
 21
0.7999999999999829
 31
0.0
210
0.0
220
0.0
230
1.0
 40
0.4142135624
 41
3.141592653589793
 42
4.712388980384659
  0
LINE
  5
D4
330
1F
100
AcDbEntity
  8
0
  6
HIDDEN
 62
     7
370
     0
100
AcDbLine
 10
169.8093233096
 20
79.4138370972
 30
0.0
 11
169.1406941595
 21
79.4138370972
 31
0.0
  0
ELLIPSE
  5
D5
330
1F
100
AcDbEntity
  8
0
  6
HIDDEN
 62
     7
370
     0
100
AcDbEllipse
 10
169.8093233096
 20
78.6138370972
 30
0.0
 11
0.0
 21
0.7999999999999972
 31
0.0
210
0.0
220
0.0
230
1.0
 40
0.4142135624
 41
4.712388980384695
 42
6.283185307179586
  0
LINE
  5
D6
330
1F
100
AcDbEntity
  8
0
  6
HIDDEN
 62
     7
370
     0
100
AcDbLine
 10
170.1406941595
 20
67.8239796593
 30
0.0
 11
169.3558163888
 21
67.373312461
 31
0.0
  0
LINE
  5
D7
330
1F
100
AcDbEntity
  8
0
  6
HIDDEN
 62
     7
370
     0
100
AcDbLine
 10
169.4294103382
 20
161.7303591165
 30
0.0
 11
170.1406941595
 21
161.0190752952
 31
0.0
  0
LINE
  5
D8
330
1F
100
AcDbEntity
  8
0
  6
HIDDEN
 62
     7
370
     0
100
AcDbLine
 10
71.9136959681
 20
103.3888370972
 30
0.0
 11
71.9136959681
 21
125.6388370972
 31
0.0
  0
LINE
  5
D9
330
1F
100
AcDbEntity
  8
0
  6
HIDDEN
 62
     7
370
     0
100
AcDbLine
 10
185.0156941595
 20
79.4138370972
 30
0.0
 11
169.8093233096
 21
79.4138370972
 31
0.0
  0
LINE
  5
DA
330
1F
100
AcDbEntity
  8
0
  6
HIDDEN
 62
     7
370
     0
100
AcDbLine
 10
173.9936860344
 20
67.8239796593
 30
0.0
 11
170.1406941595
 21
67.8239796593
 31
0.0
  0
LINE
  5
DB
330
1F
100
AcDbEntity
  8
0
  6
HIDDEN
 62
     7
370
     0
100
AcDbLine
 10
185.0156941595
 20
67.8239796593
 30
0.0
 11
180.1377022846
 21
67.8239796593
 31
0.0
  0
LINE
  5
DC
330
1F
100
AcDbEntity
  8
0
  6
HIDDEN
 62
     7
370
     0
100
AcDbLine
 10
170.1406941595
 20
67.8239796593
 30
0.0
 11
170.1406941595
 21
78.6138370972
 31
0.0
  0
LINE
  5
DD
330
1F
100
AcDbEntity
  8
0
  6
HIDDEN
 62
     7
370
     0
100
AcDbLine
 10
170.1406941595
 20
161.0190752952
 30
0.0
 11
174.0964405045
 21
161.0190752952
 31
0.0
  0
LINE
  5
DE
330
1F
100
AcDbEntity
  8
0
  6
HIDDEN
 62
     7
370
     0
100
AcDbLine
 10
180.0349478145
 20
161.0190752952
 30
0.0
 11
185.0156941595
 21
161.0190752952
 31
0.0
  0
LINE
  5
DF
330
1F
100
AcDbEntity
  8
0
  6
HIDDEN
 62
     7
370
     0
100
AcDbLine
 10
170.1406941595
 20
161.0190752952
 30
0.0
 11
170.1406941595
 21
152.8138370972
 31
0.0
  0
LINE
  5
E0
330
1F
100
AcDbEntity
  8
0
  6
HIDDEN
 62
     7
370
     0
100
AcDbLine
 10
169.8093233096
 20
152.0138370972
 30
0.0
 11
185.0156941595
 21
152.0138370972
 31
0.0
  0
LINE
  5
E1
330
1F
100
AcDbEntity
  8
0
  6
HIDDEN
 62
     7
370
     0
100
AcDbLine
 10
126.3656941595
 20
103.3888370972
 30
0.0
 11
126.3656941595
 21
125.6388370972
 31
0.0
  0
LINE
  5
E2
330
1F
100
AcDbEntity
  8
0
  6
HIDDEN
 62
     7
370
     0
100
AcDbLine
 10
129.9858793891
 20
109.4138370972
 30
0.0
 11
129.9858793891
 21
119.6138370972
 31
0.0
  0
SPLINE
  5
E3
330
1F
100
AcDbEntity
  8
0
  6
HIDDEN
 62
     7
370
     0
100
AcDbSpline
210
0.0
220
0.0
230
1.0
 70
     8
 71
     3
 72
    18
 73
    14
 74
     0
 42
0.000000001
 43
0.00000001
 40
0.0
 40
0.0
 40
0.0
 40
0.0
 40
0.0747076438553751
 40
0.1574075740162946
 40
0.2407198373513227
 40
0.3208961147881639
 40
0.4839738614519982
 40
0.5670684052454196
 40
0.647275900519946
 40
0.728037426297172
 40
0.8105472764090748
 40
0.8936636775840658
 40
1.0
 40
1.0
 40
1.0
 40
1.0
 10
234.4059510567439
 20
94.615419075931
 30
0.0
 10
234.4047379513193
 20
94.61913872974257
 30
0.0
 10
234.4021819614358
 20
94.6269759690456
 30
0.0
 10
234.4009302390019
 20
94.67604328630485
 30
0.0
 10
234.4017691945932
 20
94.75360967923118
 30
0.0
 10
234.4062105299852
 20
94.89567355009545
 30
0.0
 10
234.4149871345002
 20
95.09349248077459
 30
0.0
 10
234.4273744524435
 20
95.3430931231357
 30
0.0
 10
234.4374610271913
 20
95.55423457819174
 30
0.0
 10
234.4472832079207
 20
95.78739013546546
 30
0.0
 10
234.4560375810681
 20
96.04524656826204
 30
0.0
 10
234.4636937808476
 20
96.35061671623573
 30
0.0
 10
234.4649750219008
 20
96.58325917330872
 30
0.0
 10
234.4656941588925
 20
96.71383709720473
 30
0.0
  0
LINE
  5
E4
330
1F
100
AcDbEntity
  8
0
  6
HIDDEN
 62
     7
370
     0
100
AcDbLine
 10
221.3656941595
 20
132.3138370972
 30
0.0
 11
221.3656941595
 21
126.7112049573
 31
0.0
  0
LINE
  5
E5
330
1F
100
AcDbEntity
  8
0
  6
HIDDEN
 62
     7
370
     0
100
AcDbLine
 10
221.3656941595
 20
96.7138370972
 30
0.0
 11
221.3656941595
 21
102.3164692371
 31
0.0
  0
LINE
  5
E6
330
1F
100
AcDbEntity
  8
0
  6
HIDDEN
 62
     7
370
     0
100
AcDbLine
 10
172.3156941595
 20
151.6138370972
 30
0.0
 11
181.8156941595
 21
151.6138370972
 31
0.0
  0
LINE
  5
E7
330
1F
100
AcDbEntity
  8
0
  6
HIDDEN
 62
     7
370
     0
100
AcDbLine
 10
221.3656941595
 20
134.4138370972
 30
0.0
 11
221.3656941595
 21
132.3138370972
 31
0.0
  0
LINE
  5
E8
330
1F
100
AcDbEntity
  8
0
  6
HIDDEN
 62
     7
370
     0
100
AcDbLine
 10
221.3656941595
 20
94.6138370972
 30
0.0
 11
221.3656941595
 21
96.7138370972
 31
0.0
  0
ARC
  5
E9
330
1F
100
AcDbEntity
  8
0
  6
HIDDEN
 62
     7
370
     0
100
AcDbCircle
 10
205.4656941595
 20
128.0138370972
 30
0.0
 40
1.0
100
AcDbArc
 50
90.0
 51
180.0
  0
ARC
  5
EA
330
1F
100
AcDbEntity
  8
0
  6
HIDDEN
 62
     7
370
     0
100
AcDbCircle
 10
205.4656941595
 20
101.0138370972
 30
0.0
 40
1.0
100
AcDbArc
 50
180.0
 51
270.0
  0
LINE
  5
EB
330
1F
100
AcDbEntity
  8
0
  6
HIDDEN
 62
     7
370
     0
100
AcDbLine
 10
207.3340416619
 20
129.0138370972
 30
0.0
 11
205.4656941595
 21
129.0138370972
 31
0.0
  0
LINE
  5
EC
330
1F
100
AcDbEntity
  8
0
  6
HIDDEN
 62
     7
370
     0
100
AcDbLine
 10
205.4656941595
 20
100.0138370972
 30
0.0
 11
207.3340416619
 21
100.0138370972
 31
0.0
  0
ARC
  5
ED
330
1F
100
AcDbEntity
  8
0
  6
HIDDEN
 62
     7
370
     0
100
AcDbCircle
 10
207.3340416619
 20
128.0138370972
 30
0.0
 40
1.0
100
AcDbArc
 50
75.0
 51
90.0
  0
ARC
  5
EE
330
1F
100
AcDbEntity
  8
0
  6
HIDDEN
 62
     7
370
     0
100
AcDbCircle
 10
207.3340416619
 20
101.0138370972
 30
0.0
 40
1.000000000000002
100
AcDbArc
 50
270.0
 51
285.0
  0
LINE
  5
EF
330
1F
100
AcDbEntity
  8
0
  6
HIDDEN
 62
     7
370
     0
100
AcDbLine
 10
207.592860707
 20
100.0479112709
 30
0.0
 11
209.3317195633
 21
100.5138370972
 31
0.0
  0
LINE
  5
F0
330
1F
100
AcDbEntity
  8
0
  6
HIDDEN
 62
     7
370
     0
100
AcDbLine
 10
209.3317195633
 20
128.5138370972
 30
0.0
 11
207.592860707
 21
128.9797629235
 31
0.0
  0
ARC
  5
F1
330
1F
100
AcDbEntity
  8
0
  6
HIDDEN
 62
     7
370
     0
100
AcDbCircle
 10
65.5656941595
 20
100.1138370972
 30
0.0
 40
1.200000000000003
100
AcDbArc
 50
90.0
 51
180.0
  0
ARC
  5
F2
330
1F
100
AcDbEntity
  8
0
  6
HIDDEN
 62
     7
370
     0
100
AcDbCircle
 10
65.5656941595
 20
128.9138370972
 30
0.0
 40
1.200000000000003
100
AcDbArc
 50
180.0
 51
270.0
  0
LINE
  5
F3
330
1F
100
AcDbEntity
  8
0
  6
HIDDEN
 62
     7
370
     0
100
AcDbLine
 10
221.3656941595
 20
128.5138370972
 30
0.0
 11
209.3317195633
 21
128.5138370972
 31
0.0
  0
LINE
  5
F4
330
1F
100
AcDbEntity
  8
0
  6
HIDDEN
 62
     7
370
     0
100
AcDbLine
 10
209.3317195633
 20
100.5138370972
 30
0.0
 11
221.3656941595
 21
100.5138370972
 31
0.0
  0
LINE
  5
F5
330
1F
100
AcDbEntity
  8
0
  6
HIDDEN
 62
     7
370
     0
100
AcDbLine
 10
65.5656941595
 20
101.3138370972
 30
0.0
 11
70.4847540518
 21
101.3138370972
 31
0.0
  0
LINE
  5
F6
330
1F
100
AcDbEntity
  8
0
  6
HIDDEN
 62
     7
370
     0
100
AcDbLine
 10
70.4847540518
 20
127.7138370972
 30
0.0
 11
65.5656941595
 21
127.7138370972
 31
0.0
  0
ARC
  5
F7
330
1F
100
AcDbEntity
  8
0
  6
HIDDEN
 62
     7
370
     0
100
AcDbCircle
 10
70.4847540518
 20
101.7138370972
 30
0.0
 40
0.400000000000005
100
AcDbArc
 50
270.0
 51
330.0
  0
ARC
  5
F8
330
1F
100
AcDbEntity
  8
0
  6
HIDDEN
 62
     7
370
     0
100
AcDbCircle
 10
70.4847540518
 20
127.3138370972
 30
0.0
 40
0.4000000000000199
100
AcDbArc
 50
30.0
 51
90.0
  0
LINE
  5
F9
330
1F
100
AcDbEntity
  8
0
  6
HIDDEN
 62
     7
370
     0
100
AcDbLine
 10
70.8311642133
 20
101.5138370972
 30
0.0
 11
71.9136959681
 21
103.3888370972
 31
0.0
  0
LINE
  5
FA
330
1F
100
AcDbEntity
  8
0
  6
HIDDEN
 62
     7
370
     0
100
AcDbLine
 10
71.9136959681
 20
125.6388370972
 30
0.0
 11
70.8311642133
 21
127.5138370972
 31
0.0
  0
LINE
  5
FB
330
1F
100
AcDbEntity
  8
0
  6
HIDDEN
 62
     7
370
     0
100
AcDbLine
 10
126.3656941595
 20
103.3888370972
 30
0.0
 11
129.9858793891
 21
109.4138370972
 31
0.0
  0
LINE
  5
FC
330
1F
100
AcDbEntity
  8
0
  6
HIDDEN
 62
     7
370
     0
100
AcDbLine
 10
129.9858793891
 20
119.6138370972
 30
0.0
 11
126.3656941595
 21
125.6388370972
 31
0.0
  0
LINE
  5
FD
330
1F
100
AcDbEntity
  8
0
  6
HIDDEN
 62
     7
370
     0
100
AcDbLine
 10
71.9136959681
 20
103.3888370972
 30
0.0
 11
126.3656941595
 21
103.3888370972
 31
0.0
  0
LINE
  5
FE
330
1F
100
AcDbEntity
  8
0
  6
HIDDEN
 62
     7
370
     0
100
AcDbLine
 10
126.3656941595
 20
125.6388370972
 30
0.0
 11
71.9136959681
 21
125.6388370972
 31
0.0
  0
LINE
  5
FF
330
1F
100
AcDbEntity
  8
0
  6
HIDDEN
 62
     7
370
     0
100
AcDbLine
 10
234.9656941595
 20
134.9730717653
 30
0.0
 11
234.3957435419
 21
134.4031443694
 31
0.0
  0
LINE
  5
100
330
1F
100
AcDbEntity
  8
0
  6
HIDDEN
 62
     7
370
     0
100
AcDbLine
 10
234.3960551241
 20
94.6242155622
 30
0.0
 11
234.9656941595
 21
94.0546009973
 31
0.0
  0
LINE
  5
101
330
1F
100
AcDbEntity
  8
0
  6
HIDDEN
 62
     7
370
     0
100
AcDbLine
 10
129.9858793891
 20
109.4138370972
 30
0.0
 11
204.4656941595
 21
109.4138370972
 31
0.0
  0
LINE
  5
102
330
1F
100
AcDbEntity
  8
0
  6
HIDDEN
 62
     7
370
     0
100
AcDbLine
 10
204.4656941595
 20
119.6138370972
 30
0.0
 11
129.9858793891
 21
119.6138370972
 31
0.0
  0
LINE
  5
103
330
1F
100
AcDbEntity
  8
0
  6
HIDDEN
 62
     7
370
     0
100
AcDbLine
 10
172.3156941595
 20
152.0138370972
 30
0.0
 11
172.3156941595
 21
151.6138370972
 31
0.0
  0
LINE
  5
104
330
1F
100
AcDbEntity
  8
0
  6
HIDDEN
 62
     7
370
     0
100
AcDbLine
 10
181.8156941595
 20
151.6138370972
 30
0.0
 11
181.8156941595
 21
152.0138370972
 31
0.0
  0
LINE
  5
105
330
1F
100
AcDbEntity
  8
0
  6
HIDDEN
 62
     7
370
     0
100
AcDbLine
 10
172.3156941595
 20
151.6138370972
 30
0.0
 11
177.0656941595
 21
148.7597491568
 31
0.0
  0
LINE
  5
106
330
1F
100
AcDbEntity
  8
0
  6
HIDDEN
 62
     7
370
     0
100
AcDbLine
 10
177.0656941595
 20
148.7597491568
 30
0.0
 11
181.8156941595
 21
151.6138370972
 31
0.0
  0
LINE
  5
107
330
1F
100
AcDbEntity
  8
0
  6
HIDDEN
 62
     7
370
     0
100
AcDbLine
 10
234.407231039
 20
134.4138370972
 30
0.0
 11
221.3656941595
 21
134.4138370972
 31
0.0
  0
LINE
  5
108
330
1F
100
AcDbEntity
  8
0
  6
HIDDEN
 62
     7
370
     0
100
AcDbLine
 10
221.3656941595
 20
94.6138370972
 30
0.0
 11
234.4068172142
 21
94.6138370972
 31
0.0
  0
DIMENSION
  5
109
330
1F
100
AcDbEntity
  8
VERMASSUNG
100
AcDbDimension
  2
_D
 10
56.5789057239
 20
163.7263370972
 30
0.0
 11
56.5789057239
 21
114.5138370972
 31
0.0
 70
   160
  1
CAT 50 %%c<>
 71
     2
 42
-1.0
  3
SLDDIMSTYLE0
100
AcDbAlignedDimension
 13
184.4156941595
 23
65.3013370972
 33
0.0
 14
184.4156941595
 24
163.7263370972
 34
0.0
 50
90.0
100
AcDbRotatedDimension
  0
DIMENSION
  5
116
330
1F
100
AcDbEntity
  8
VERMASSUNG
100
AcDbDimension
  2
_D_1
 10
242.0756175143
 20
100.5138370972
 30
0.0
 11
242.0756175143
 21
114.5138370972
 31
0.0
 70
   160
  1
%%c<>
 71
     2
 42
-1.0
  3
SLDDIMSTYLE0
100
AcDbAlignedDimension
 13
221.3656941595
 23
128.5138370972
 33
0.0
 14
221.3656941595
 24
100.5138370972
 34
0.0
 50
90.0
100
AcDbRotatedDimension
  0
DIMENSION
  5
121
330
1F
100
AcDbEntity
  8
VERMASSUNG
100
AcDbDimension
  2
_D_2
 10
234.9656941595
 20
162.1887628941
 30
0.0
 11
217.9656941595
 21
162.1887628941
 31
0.0
 70
   160
  1
(<>)
 71
     2
 42
-1.0
  3
SLDDIMSTYLE0
100
AcDbAlignedDimension
 13
200.9656941595
 23
148.4388370972
 33
0.0
 14
234.9656941595
 24
139.0138370972
 34
0.0
100
AcDbRotatedDimension
  0
DIMENSION
  5
12D
330
1F
100
AcDbEntity
  8
VERMASSUNG
100
AcDbDimension
  2
_D_3
 10
234.9656941595
 20
168.1887628941
 30
0.0
 11
200.4656941595
 21
168.1887628941
 31
0.0
 70
   160
  1
<>
 71
     2
 42
-1.0
  3
SLDDIMSTYLE0
100
AcDbAlignedDimension
 13
165.9656941595
 23
149.4388370972
 33
0.0
 14
234.9656941595
 24
139.0138370972
 34
0.0
100
AcDbRotatedDimension
  0
DIMENSION
  5
137
330
1F
100
AcDbEntity
  8
VERMASSUNG
100
AcDbDimension
  2
_D_4
 10
64.3656941595
 20
174.1887628941
 30
0.0
 11
149.6656941595
 21
174.1887628941
 31
0.0
 70
   160
  1
(<>)
 71
     2
 42
-1.0
  3
SLDDIMSTYLE0
100
AcDbAlignedDimension
 13
234.9656941595
 23
139.0138370972
 33
0.0
 14
64.3656941595
 24
132.8926816246
 34
0.0
100
AcDbRotatedDimension
  0
DIMENSION
  5
143
330
1F
100
AcDbEntity
  8
VERMASSUNG
100
AcDbDimension
  2
_D_5
 10
248.0756175143
 20
89.5138370972
 30
0.0
 11
248.0756175143
 21
114.5138370972
 31
0.0
 70
   160
  1
ST5 %%c<>
 71
     2
 42
-1.0
  3
SLDDIMSTYLE0
100
AcDbAlignedDimension
 13
234.4656941595
 23
139.5138370972
 33
0.0
 14
234.4656941595
 24
89.5138370972
 34
0.0
 50
90.0
100
AcDbRotatedDimension
  0
LINE
  5
14F
330
1F
100
AcDbEntity
  8
VERMASSUNG
  6
CENTERX2
 62
     7
370
     0
100
AcDbLine
 10
62.3656941595
 20
114.5138370972
 30
0.0
 11
237.0349016826
 21
114.5138370972
 31
0.0
  0
LINE
  5
150
330
1F
100
AcDbEntity
  8
0
  6
Continuous
 62
     7
370
    15
100
AcDbLine
 10
271.7543521587
 20
44.4766543631
 30
0.0
 11
271.5775467392
 21
44.5787551369
 31
0.0
  0
LINE
  5
151
330
1F
100
AcDbEntity
  8
0
  6
Continuous
 62
     7
370
    15
100
AcDbLine
 10
268.3950491886
 20
44.5787551369
 30
0.0
 11
268.2182437691
 21
44.4766543631
 31
0.0
  0
LINE
  5
152
330
1F
100
AcDbEntity
  8
0
  6
Continuous
 62
     7
370
    15
100
AcDbLine
 10
272.4862979639
 20
43.2521748684
 30
0.0
 11
272.4862979639
 21
43.4563100714
 31
0.0
  0
LINE
  5
153
330
1F
100
AcDbEntity
  8
0
  6
Continuous
 62
     7
370
    15
100
AcDbLine
 10
267.4862979639
 20
43.4563100714
 30
0.0
 11
267.4862979639
 21
43.2521748684
 31
0.0
  0
LINE
  5
154
330
1F
100
AcDbEntity
  8
0
  6
Continuous
 62
     7
370
    15
100
AcDbLine
 10
274.424829575
 20
20.6862739692
 30
0.0
 11
274.6015775392
 21
20.7883415693
 31
0.0
  0
LINE
  5
155
330
1F
100
AcDbEntity
  8
0
  6
Continuous
 62
     7
370
    15
100
AcDbLine
 10
283.2622277806
 20
35.7906533459
 30
0.0
 11
283.2622277806
 21
35.9947553738
 31
0.0
  0
LINE
  5
156
330
1F
100
AcDbEntity
  8
0
  6
Continuous
 62
     7
370
    15
100
AcDbLine
 10
280.6728850948
 20
41.7178154547
 30
0.0
 11
270.2430600723
 21
47.7388252794
 31
0.0
  0
LINE
  5
157
330
1F
100
AcDbEntity
  8
0
  6
Continuous
 62
     7
370
    15
100
AcDbLine
 10
257.7440759143
 20
26.0876037199
 30
0.0
 11
268.1739009368
 21
20.0665938952
 31
0.0
  0
LINE
  5
158
330
1F
100
AcDbEntity
  8
0
  6
Continuous
 62
     7
370
    15
100
AcDbLine
 10
273.5333585361
 20
56.1974720505
 30
0.0
 11
273.4424880955
 21
56.5111389659
 31
0.0
  0
LINE
  5
159
330
1F
100
AcDbEntity
  8
0
  6
Continuous
 62
     7
370
    15
100
AcDbLine
 10
269.0301709741
 20
62.4177259941
 30
0.0
 11
267.6782417702
 21
63.1981781111
 31
0.0
  0
SPLINE
  5
15A
330
1F
100
AcDbEntity
  8
0
  6
Continuous
 62
     7
370
    15
100
AcDbSpline
210
0.0
220
0.0
230
1.0
 70
     8
 71
     3
 72
    14
 73
    10
 74
     0
 42
0.000000001
 43
0.00000001
 40
0.0
 40
0.0
 40
0.0
 40
0.0
 40
0.0642183154444081
 40
0.2449677376021223
 40
0.4269341544732751
 40
0.6099551373355562
 40
0.7937229681188277
 40
0.9779238643284491
 40
1.0
 40
1.0
 40
1.0
 40
1.0
 10
256.0899677869307
 20
22.00434229158827
 30
0.0
 10
256.2094950880085
 20
21.98755357219371
 30
0.0
 10
256.6654449572022
 20
21.92351117900942
 30
0.0
 10
257.5082763841312
 20
21.95716785462286
 30
0.0
 10
258.6086928648155
 20
22.10614335583182
 30
0.0
 10
259.7452444121787
 20
22.40129573595125
 30
0.0
 10
260.902893686301
 20
22.8441676736821
 30
0.0
 10
261.7297957828927
 20
23.21872453472483
 30
0.0
 10
262.1657808896823
 20
23.48009883839141
 30
0.0
 10
262.2124407930195
 20
23.50807158230855
 30
0.0
  0
SPLINE
  5
15B
330
1F
100
AcDbEntity
  8
0
  6
Continuous
 62
     7
370
    15
100
AcDbSpline
210
0.0
220
0.0
230
1.0
 70
     8
 71
     3
 72
    13
 73
     9
 74
     0
 42
0.000000001
 43
0.00000001
 40
0.0
 40
0.0
 40
0.0
 40
0.0
 40
0.1582605685144076
 40
0.3450074434839254
 40
0.5316655113482662
 40
0.7179961301733269
 40
0.903666513420139
 40
1.0
 40
1.0
 40
1.0
 40
1.0
 10
274.7100416516187
 20
45.16009170354337
 30
0.0
 10
274.6981026445146
 20
45.53623371535544
 30
0.0
 10
274.6720756539798
 20
46.35622188486823
 30
0.0
 10
274.4966781733332
 20
47.53553993742192
 30
0.0
 10
274.2137591696375
 20
48.70304617378626
 30
0.0
 10
273.8136071086853
 20
49.76884969641171
 30
0.0
 10
273.4048615724143
 20
50.59601111969863
 30
0.0
 10
273.0911068945609
 20
51.02022646687187
 30
0.0
 10
272.9839272233496
 20
51.16513988057432
 30
0.0
  0
LINE
  5
15C
330
1F
100
AcDbEntity
  8
0
  6
Continuous
 62
     7
370
    15
100
AcDbLine
 10
265.1848653362
 20
64.637573688
 30
0.0
 11
263.8417749671
 21
65.4129232543
 31
0.0
  0
LINE
  5
15D
330
1F
100
AcDbEntity
  8
0
  6
Continuous
 62
     7
370
    15
100
AcDbLine
 10
248.421769451
 20
25.7392104813
 30
0.0
 11
253.495260606
 21
22.8103463801
 31
0.0
  0
LINE
  5
15E
330
1F
100
AcDbEntity
  8
0
  6
Continuous
 62
     7
370
    15
100
AcDbLine
 10
270.9563414747
 20
53.0571028987
 30
0.0
 11
265.8828503197
 21
55.9859669999
 31
0.0
  0
SPLINE
  5
15F
330
1F
100
AcDbEntity
  8
0
  6
Continuous
 62
     7
370
    15
100
AcDbSpline
210
0.0
220
0.0
230
1.0
 70
     8
 71
     3
 72
    28
 73
    24
 74
     0
 42
0.000000001
 43
0.00000001
 40
0.0
 40
0.0
 40
0.0
 40
0.0
 40
0.0222331314681577
 40
0.0726601087886345
 40
0.1231346888670876
 40
0.1736341621449157
 40
0.2241419911351883
 40
0.2746457985534732
 40
0.3251408736438578
 40
0.3756252262774008
 40
0.4260986222041331
 40
0.476561909379841
 40
0.5270165748990825
 40
0.5774644675755021
 40
0.6279076324922697
 40
0.6783482179148407
 40
0.7287884267203029
 40
0.779230129249356
 40
0.8296751978996857
 40
0.8801258942424208
 40
0.9305844642686844
 40
0.9810530884970061
 40
1.0
 40
1.0
 40
1.0
 40
1.0
 10
256.2186080669661
 20
66.19415273983067
 30
0.0
 10
256.0236614927209
 20
66.15010187844864
 30
0.0
 10
255.3865564896352
 20
66.00613923491206
 30
0.0
 10
254.2799813731952
 20
65.61622819967367
 30
0.0
 10
252.9097004117318
 20
65.03269739271732
 30
0.0
 10
251.5296176331941
 20
64.31044106248063
 30
0.0
 10
250.150486625921
 20
63.46437079054945
 30
0.0
 10
248.780385929749
 20
62.49725053479862
 30
0.0
 10
247.4279393312385
 20
61.41601823568548
 30
0.0
 10
246.101406704254
 20
60.22732575314802
 30
0.0
 10
244.8089205869253
 20
58.93869728847584
 30
0.0
 10
243.5583876291706
 20
57.55817399334995
 30
0.0
 10
242.3574655196418
 20
56.09435540772925
 30
0.0
 10
241.2135156056165
 20
54.55632936253317
 30
0.0
 10
240.1335632640848
 20
52.9536268258194
 30
0.0
 10
239.12424730197
 20
51.2961623943233
 30
0.0
 10
238.1918116336253
 20
49.59418680536695
 30
0.0
 10
237.3419548872236
 20
47.85819718909228
 30
0.0
 10
236.58020835403
 20
46.09897195162546
 30
0.0
 10
235.9103508980839
 20
44.32711142678378
 30
0.0
 10
235.3401787241319
 20
42.55441938856505
 30
0.0
 10
234.9598891520521
 20
41.15623473694922
 30
0.0
 10
234.7848174679865
 20
40.35620662538743
 30
0.0
 10
234.7370318005602
 20
40.13783963203394
 30
0.0
  0
SPLINE
  5
160
330
1F
100
AcDbEntity
  8
0
  6
Continuous
 62
     7
370
    15
100
AcDbSpline
210
0.0
220
0.0
230
1.0
 70
     8
 71
     3
 72
    19
 73
    15
 74
     0
 42
0.000000001
 43
0.00000001
 40
0.0
 40
0.0
 40
0.0
 40
0.0
 40
0.0023328556223083
 40
0.0994018866479332
 40
0.1963945947973634
 40
0.2932412493341808
 40
0.3898782015490258
 40
0.4862574804688592
 40
0.5823780374925822
 40
0.6783546299107756
 40
0.774411132212715
 40
0.8711668393944287
 40
0.9697196994484577
 40
1.0
 40
1.0
 40
1.0
 40
1.0
 10
271.1528937328868
 20
33.20482981286057
 30
0.0
 10
271.1569628102222
 20
33.21206092965186
 30
0.0
 10
271.3303442917801
 20
33.52017543307517
 30
0.0
 10
271.7399575510403
 20
34.08620340557206
 30
0.0
 10
272.3714818412728
 20
34.87495110399088
 30
0.0
 10
273.054380350129
 20
35.57118992226495
 30
0.0
 10
273.7613078179062
 20
36.16643098721455
 30
0.0
 10
274.4781845251341
 20
36.64645448623207
 30
0.0
 10
275.1869142047371
 20
37.00285803067874
 30
0.0
 10
275.8699949002547
 20
37.22931496561606
 30
0.0
 10
276.513458648907
 20
37.32758579380929
 30
0.0
 10
277.0989944623003
 20
37.28855158643035
 30
0.0
 10
277.5145742109921
 20
37.18896025530463
 30
0.0
 10
277.7109281218621
 20
37.06150600518421
 30
0.0
 10
277.7570781612438
 20
37.03154979684408
 30
0.0
  0
SPLINE
  5
161
330
1F
100
AcDbEntity
  8
0
  6
Continuous
 62
     7
370
    15
100
AcDbSpline
210
0.0
220
0.0
230
1.0
 70
     8
 71
     3
 72
    10
 73
     6
 74
     0
 42
0.000000001
 43
0.00000001
 40
0.0
 40
0.0
 40
0.0
 40
0.0
 40
0.092471318242125
 40
0.5514883166887848
 40
1.0
 40
1.0
 40
1.0
 40
1.0
 10
270.1574794058605
 20
31.20293731252724
 30
0.0
 10
270.1812611582471
 20
31.26618051822072
 30
0.0
 10
270.3230927968668
 20
31.64335573009103
 30
0.0
 10
270.6381684608752
 20
32.32484092287719
 30
0.0
 10
270.9826478433546
 20
32.91377262274403
 30
0.0
 10
271.1528937328868
 20
33.20482981286057
 30
0.0
  0
LINE
  5
162
330
1F
100
AcDbEntity
  8
0
  6
Continuous
 62
     7
370
    15
100
AcDbLine
 10
270.0765682823
 20
25.6046409099
 30
0.0
 11
270.0082801295
 21
25.7074148967
 31
0.0
  0
SPLINE
  5
163
330
1F
100
AcDbEntity
  8
0
  6
Continuous
 62
     7
370
    15
100
AcDbSpline
210
0.0
220
0.0
230
1.0
 70
     8
 71
     3
 72
     9
 73
     5
 74
     0
 42
0.000000001
 43
0.00000001
 40
0.0
 40
0.0
 40
0.0
 40
0.0
 40
0.4078201399585439
 40
1.0
 40
1.0
 40
1.0
 40
1.0
 10
270.8775713606317
 20
24.87532802764349
 30
0.0
 10
270.7638281406361
 20
24.93641439088584
 30
0.0
 10
270.4849227878812
 20
25.08620190076351
 30
0.0
 10
270.2709662855907
 20
25.34782705485954
 30
0.0
 10
270.1442655540094
 20
25.50275620199545
 30
0.0
  0
LINE
  5
164
330
1F
100
AcDbEntity
  8
0
  6
Continuous
 62
     7
370
    15
100
AcDbLine
 10
249.9789807819
 20
63.3220895627
 30
0.0
 11
219.4260463082
 21
74.3321560706
 31
0.0
  0
LINE
  5
165
330
1F
100
AcDbEntity
  8
0
  6
Continuous
 62
     7
370
    15
100
AcDbLine
 10
209.3021872355
 20
56.7952176241
 30
0.0
 11
238.9140255462
 21
31.791226152
 31
0.0
  0
SPLINE
  5
166
330
1F
100
AcDbEntity
  8
0
  6
Continuous
 62
     7
370
    15
100
AcDbSpline
210
0.0
220
0.0
230
1.0
 70
     8
 71
     3
 72
    13
 73
     9
 74
     0
 42
0.000000001
 43
0.00000001
 40
0.0
 40
0.0
 40
0.0
 40
0.0
 40
0.0742827701988472
 40
0.2808084980459027
 40
0.487539212726829
 40
0.6943794592843402
 40
0.9012602776885846
 40
1.0
 40
1.0
 40
1.0
 40
1.0
 10
252.0325698273942
 20
19.01097271716721
 30
0.0
 10
252.1913148024256
 20
19.04563124391776
 30
0.0
 10
252.791412751002
 20
19.17664963237116
 30
0.0
 10
253.8601901602762
 20
19.54664931414807
 30
0.0
 10
255.2291869019602
 20
20.11541312730514
 30
0.0
 10
256.6083990625215
 20
20.83098125167709
 30
0.0
 10
257.7492115044365
 20
21.50430278942184
 30
0.0
 10
258.4231699264234
 20
21.98290325700259
 30
0.0
 10
258.6409120561919
 20
22.13752924240388
 30
0.0
  0
LINE
  5
167
330
1F
100
AcDbEntity
  8
0
  6
Continuous
 62
     7
370
    15
100
AcDbLine
 10
243.0739914553
 20
20.5777484712
 30
0.0
 11
244.4259206592
 21
19.7972963542
 31
0.0
  0
LINE
  5
168
330
1F
100
AcDbEntity
  8
0
  6
Continuous
 62
     7
370
    15
100
AcDbLine
 10
239.2375246522
 20
22.7924936144
 30
0.0
 11
240.5806150213
 21
22.0171440481
 31
0.0
  0
LINE
  5
169
330
1F
100
AcDbEntity
  8
0
  6
Continuous
 62
     7
370
    15
100
AcDbLine
 10
234.7477764721
 20
28.9658592636
 30
0.0
 11
234.8393610826
 21
28.660322059
 31
0.0
  0
SPLINE
  5
16A
330
1F
100
AcDbEntity
  8
0
  6
Continuous
 62
     7
370
    15
100
AcDbSpline
210
0.0
220
0.0
230
1.0
 70
     8
 71
     3
 72
    26
 73
    22
 74
     0
 42
0.000000001
 43
0.00000001
 40
0.0
 40
0.0
 40
0.0
 40
0.0
 40
0.04058296757906
 40
0.0925031683904395
 40
0.1453682430933949
 40
0.1994823810203195
 40
0.2547357241129731
 40
0.3107478450986369
 40
0.3671067330028813
 40
0.4234883121642585
 40
0.4797663149265594
 40
0.5359211545836726
 40
0.5919751861904572
 40
0.6479694816383668
 40
0.7039529160476242
 40
0.7599709383549478
 40
0.8160667972993709
 40
0.8722948706544181
 40
0.9287064265161951
 40
0.9853402828820634
 40
1.0
 40
1.0
 40
1.0
 40
1.0
 10
219.4158224052155
 20
74.32247903844284
 30
0.0
 10
219.2191909668043
 20
74.38884440219016
 30
0.0
 10
218.7709972504928
 20
74.5401149174883
 30
0.0
 10
218.0108929683034
 20
74.60992374804772
 30
0.0
 10
217.1597741494695
 20
74.56194901940222
 30
0.0
 10
216.2737902594878
 20
74.36932173685095
 30
0.0
 10
215.3655661158971
 20
74.03770638335597
 30
0.0
 10
214.4485708223102
 20
73.56890041328562
 30
0.0
 10
213.5390688313797
 20
72.97121219771493
 30
0.0
 10
212.6524886908387
 20
72.25574725561304
 30
0.0
 10
211.8025731318705
 20
71.43546491609212
 30
0.0
 10
211.0012555227289
 20
70.52381971926253
 30
0.0
 10
210.259398246957
 20
69.53479519012531
 30
0.0
 10
209.5870847409218
 20
68.48296113900224
 30
0.0
 10
208.9936725282883
 20
67.38345999123095
 30
0.0
 10
208.4876935606875
 20
66.25187831905535
 30
0.0
 10
208.0768736920944
 20
65.1040558634686
 30
0.0
 10
207.767580828442
 20
63.95551396474315
 30
0.0
 10
207.5668617228384
 20
62.82236400045671
 30
0.0
 10
207.4979929004488
 20
61.99169630339305
 30
0.0
 10
207.4939886349785
 20
61.54288318218476
 30
0.0
 10
207.4931652592351
 20
61.45059613478033
 30
0.0
  0
SPLINE
  5
16B
330
1F
100
AcDbEntity
  8
0
  6
Continuous
 62
     7
370
    15
100
AcDbSpline
210
0.0
220
0.0
230
1.0
 70
     8
 71
     3
 72
    13
 73
     9
 74
     0
 42
0.000000001
 43
0.00000001
 40
0.0
 40
0.0
 40
0.0
 40
0.0
 40
0.1019224683278817
 40
0.2941141858353514
 40
0.4863034027529334
 40
0.6767085439220958
 40
0.8634859588225742
 40
1.0
 40
1.0
 40
1.0
 40
1.0
 10
207.4931652592351
 20
61.45059613478033
 30
0.0
 10
207.4965129169256
 20
61.26282871343451
 30
0.0
 10
207.5061731383884
 20
60.72099467858879
 30
0.0
 10
207.6144842572167
 20
59.86996409803614
 30
0.0
 10
207.8580363374996
 20
58.93354540489233
 30
0.0
 10
208.2280865637475
 20
58.0968043892333
 30
0.0
 10
208.6603441454124
 20
57.417960534205
 30
0.0
 10
209.0155367772304
 20
57.0793412540429
 30
0.0
 10
209.1655215066574
 20
56.93635483888575
 30
0.0
  0
LWPOLYLINE
  5
16C
330
1F
100
AcDbEntity
  8
0
  6
Continuous
 62
     7
370
    15
100
AcDbPolyline
 90
       23
 70
   128
 43
0.0
 10
268.3953077062
 20
42.7419861486
 10
268.0115202373
 20
43.0379500345
 10
267.7877175154
 20
43.3843447826
 10
267.742030706
 20
43.7531075505
 10
267.8781610826
 20
44.1143633719
 10
268.1850801718
 20
44.4388454486
 10
268.6379232142
 20
44.7002661725
 10
269.2000035598
 20
44.8774467913
 10
269.8257848017
 20
44.956033185
 10
270.4645698654
 20
44.9296587513
 10
271.064608184
 20
44.80046019
 10
271.5772882215
 20
44.5789044002
 10
271.9610756904
 20
44.2829405143
 10
272.1848784123
 20
43.9365457661
 10
272.2305652217
 20
43.5677829982
 10
272.0944348451
 20
43.2065271768
 10
271.7875157559
 20
42.8820451001
 10
271.3346727135
 20
42.6206243762
 10
270.772592368
 20
42.4434437574
 10
270.1468111261
 20
42.3648573638
 10
269.5080260624
 20
42.3912317975
 10
268.9079877437
 20
42.5204303587
 10
268.3953077062
 20
42.7419861486
  0
LWPOLYLINE
  5
16D
330
1F
100
AcDbEntity
  8
0
  6
Continuous
 62
     7
370
    15
100
AcDbPolyline
 90
        7
 70
   128
 43
0.0
 10
268.2185310109
 20
42.4357999316
 10
267.8212344544
 20
42.7347004313
 10
267.5714833981
 20
43.0827774354
 10
267.4862979639
 20
43.4563100714
 10
267.5714833981
 20
43.8298427074
 10
267.8212344544
 20
44.1779197115
 10
268.2182437691
 20
44.4766543631
  0
LWPOLYLINE
  5
16E
330
1F
100
AcDbEntity
  8
0
  6
Continuous
 62
     7
370
    15
100
AcDbPolyline
 90
       13
 70
   128
 43
0.0
 10
271.7543521587
 20
44.4766543631
 10
272.1513614733
 20
44.1779197115
 10
272.4011125296
 20
43.8298427074
 10
272.4862979639
 20
43.4563100714
 10
272.4011125296
 20
43.0827774354
 10
272.1513614733
 20
42.7347004313
 10
271.7540649168
 20
42.4357999316
 10
271.2362979639
 20
42.2064455115
 10
270.6333455766
 20
42.0622672956
 10
269.9862979639
 20
42.0130907912
 10
269.3392503511
 20
42.0622672956
 10
268.7362979639
 20
42.2064455115
 10
268.2185310109
 20
42.4357999316
  0
LWPOLYLINE
  5
16F
330
1F
100
AcDbEntity
  8
0
  6
Continuous
 62
     7
370
    15
100
AcDbPolyline
 90
       19
 70
   128
 43
0.0
 10
268.9256377921
 20
43.0481391905
 10
268.6268362833
 20
43.2944867803
 10
268.4920059167
 20
43.5849743654
 10
268.5374092244
 20
43.884564856
 10
268.7575698974
 20
44.1571232173
 10
269.1259333093
 20
44.3697748886
 10
269.5980693962
 20
44.4968709398
 10
270.117031578
 20
44.5230817114
 10
270.6202253565
 20
44.4452457976
 10
271.0469581356
 20
44.2727513582
 10
271.3457596444
 20
44.0264037685
 10
271.480590011
 20
43.7359161834
 10
271.4351867033
 20
43.4363256928
 10
271.2150260303
 20
43.1637673314
 10
270.8466626184
 20
42.9511156601
 10
270.3745265315
 20
42.8240196089
 10
269.8555643497
 20
42.7978088373
 10
269.3523705713
 20
42.8756447511
 10
268.9256377921
 20
43.0481391905
  0
SPLINE
  5
170
330
1F
100
AcDbEntity
  8
0
  6
Continuous
 62
     7
370
    15
100
AcDbSpline
210
0.0
220
0.0
230
1.0
 70
     8
 71
     3
 72
     9
 73
     5
 74
     0
 42
0.000000001
 43
0.00000001
 40
0.0
 40
0.0
 40
0.0
 40
0.0
 40
0.6300416123970569
 40
0.9999999999999999
 40
0.9999999999999999
 40
0.9999999999999999
 40
0.9999999999999999
 10
269.1025901326697
 20
42.95032454152226
 30
0.0
 10
268.9902932472983
 20
43.02739530797119
 30
0.0
 10
268.8120559957236
 20
43.1497217780526
 30
0.0
 10
268.6515023078077
 20
43.33135375802614
 30
0.0
 10
268.5921041243026
 20
43.39855003247428
 30
0.0
  0
SPLINE
  5
171
330
1F
100
AcDbEntity
  8
0
  6
Continuous
 62
     7
370
    15
100
AcDbSpline
210
0.0
220
0.0
230
1.0
 70
     8
 71
     3
 72
    10
 73
     6
 74
     0
 42
0.000000001
 43
0.00000001
 40
0.0
 40
0.0
 40
0.0
 40
0.0
 40
0.4391256427914776
 40
0.7513741901692056
 40
1.0
 40
1.0
 40
1.0
 40
1.0
 10
271.3804918034286
 20
43.82986836834086
 30
0.0
 10
271.3270107272614
 20
43.64473818968118
 30
0.0
 10
271.2355009260139
 20
43.32796771555892
 30
0.0
 10
271.1024770216404
 20
43.09454447974645
 30
0.0
 10
271.036267995376
 20
43.04637159515097
 30
0.0
 10
271.0069186900253
 20
43.02501739649576
 30
0.0
  0
SPLINE
  5
172
330
1F
100
AcDbEntity
  8
0
  6
Continuous
 62
     7
370
    15
100
AcDbSpline
210
0.0
220
0.0
230
1.0
 70
     8
 71
     3
 72
    11
 73
     7
 74
     0
 42
0.000000001
 43
0.00000001
 40
0.0
 40
0.0
 40
0.0
 40
0.0
 40
0.1849308168246117
 40
0.5198464202157771
 40
0.871443823369266
 40
1.0
 40
1.0
 40
1.0
 40
1.0
 10
270.359871077269
 20
44.41906017225265
 30
0.0
 10
270.4192761904108
 20
44.35291930536718
 30
0.0
 10
270.5862658568142
 20
44.16699522050797
 30
0.0
 10
270.8979839584658
 20
43.92090261679975
 30
0.0
 10
271.1858683792682
 20
43.83570481342343
 30
0.0
 10
271.3393883990078
 20
43.83110099367178
 30
0.0
 10
271.3804918034286
 20
43.82986836834086
 30
0.0
  0
SPLINE
  5
173
330
1F
100
AcDbEntity
  8
0
  6
Continuous
 62
     7
370
    15
100
AcDbSpline
210
0.0
220
0.0
230
1.0
 70
     8
 71
     3
 72
    10
 73
     6
 74
     0
 42
0.000000001
 43
0.00000001
 40
0.0
 40
0.0
 40
0.0
 40
0.0
 40
0.4391256427914792
 40
0.7513741901692086
 40
1.0
 40
1.0
 40
1.0
 40
1.0
 10
268.965677237706
 20
44.20340100431936
 30
0.0
 10
269.1652713312055
 20
44.1643680113423
 30
0.0
 10
269.5067905588518
 20
44.09757987457674
 30
0.0
 10
270.003242528595
 20
44.22754532594613
 30
0.0
 10
270.2503379785333
 20
44.36023926560389
 30
0.0
 10
270.359871077269
 20
44.41906017225265
 30
0.0
  0
SPLINE
  5
174
330
1F
100
AcDbEntity
  8
0
  6
Continuous
 62
     7
370
    15
100
AcDbSpline
210
0.0
220
0.0
230
1.0
 70
     8
 71
     3
 72
    10
 73
     6
 74
     0
 42
0.000000001
 43
0.00000001
 40
0.0
 40
0.0
 40
0.0
 40
0.0
 40
0.4391256427914769
 40
0.7513741901692067
 40
1.0
 40
1.0
 40
1.0
 40
1.0
 10
268.5921041243026
 20
43.39855003247428
 30
0.0
 10
268.6455852004699
 20
43.44386628897892
 30
0.0
 10
268.7370950017174
 20
43.52140552197889
 30
0.0
 10
268.8701189060909
 20
43.86117352971321
 30
0.0
 10
268.9363279323553
 20
44.09829097904105
 30
0.0
 10
268.965677237706
 20
44.20340100431936
 30
0.0
  0
LINE
  5
175
330
1F
100
AcDbEntity
  8
0
  6
Continuous
 62
     7
370
    15
100
AcDbLine
 10
268.9656772377
 20
43.0560600037
 30
0.0
 11
268.9656772377
 21
44.2034010043
 31
0.0
  0
LINE
  5
176
330
1F
100
AcDbEntity
  8
0
  6
Continuous
 62
     7
370
    15
100
AcDbLine
 10
270.3598710773
 20
42.8217983856
 30
0.0
 11
270.3598710773
 21
44.4190601723
 31
0.0
  0
LWPOLYLINE
  5
177
330
1F
100
AcDbEntity
  8
0
  6
Continuous
 62
     7
370
    15
100
AcDbPolyline
 90
       54
 70
   128
 43
0.0
 10
274.6001697111
 20
40.7927786066
 10
273.5756806365
 20
40.1311461885
 10
272.5655731428
 20
39.3383867111
 10
271.5840269251
 20
38.4256287797
 10
270.6448207406
 20
37.4056855147
 10
269.7611389854
 20
36.2928746839
 10
268.9453866143
 20
35.1028177121
 10
268.2090150024
 20
33.8522203905
 10
267.5623611931
 20
32.5586383641
 10
267.0145027883
 20
31.240230689
 10
266.5731305191
 20
29.9155049191
 10
266.2444402847
 20
28.6030573002
 10
266.0330461754
 20
27.3213117201
 10
265.9419157012
 20
26.0882610771
 10
265.9723281342
 20
24.9212146992
 10
266.1238565505
 20
23.8365553595
 10
266.3943738232
 20
22.8495092974
 10
266.7800824829
 20
21.9739324762
 10
267.2755680254
 20
21.2221160749
 10
267.8738749199
 20
20.604613948
 10
268.566604249
 20
20.1300944717
 10
269.3440316114
 20
19.8052188592
 10
270.1952436312
 20
19.6345476521
 10
271.1082911574
 20
19.6204766999
 10
272.0703570042
 20
19.7632035281
 10
273.0679358761
 20
20.0607245648
 10
274.0870239522
 20
20.5088632667
 10
275.11331547
 20
21.101328749
 10
276.1324035462
 20
21.8298040948
 10
277.129982418
 20
22.6840631072
 10
278.0920482648
 20
23.6521138622
 10
279.005095791
 20
24.7203670492
 10
279.8563078108
 20
25.8738267351
 10
280.6337351732
 20
27.0963008744
 10
281.3264645024
 20
28.3706286097
 10
281.9247713968
 20
29.6789211731
 10
282.4202569393
 20
31.0028130047
 10
282.805965599
 20
32.3237195654
 10
283.0764828717
 20
33.6230982223
 10
283.228011288
 20
34.8827085475
 10
283.258423721
 20
36.0848683731
 10
283.1672932468
 20
37.2127020103
 10
282.9558991375
 20
38.250377147
 10
282.6272089031
 20
39.1833270991
 10
282.1858366339
 20
39.9984552941
 10
281.6379782291
 20
40.684319119
 10
280.9913244198
 20
41.2312905492
 10
280.254952808
 20
41.6316913047
 10
279.4392004369
 20
41.8799006367
 10
278.5555186817
 20
41.9724342301
 10
277.6163124971
 20
41.9079931162
 10
276.6347662794
 20
41.687481907
 10
275.6246587857
 20
41.3139960964
 10
274.6001697111
 20
40.7927786066
  0
LWPOLYLINE
  5
178
330
1F
100
AcDbEntity
  8
0
  6
Continuous
 62
     7
370
    15
100
AcDbPolyline
 90
       28
 70
   128
 43
0.0
 10
274.4233930158
 20
41.0989648235
 10
273.3779960009
 20
40.4238297031
 10
272.3472740686
 20
39.6148914608
 10
271.3456962954
 20
38.6835058165
 10
270.3873226377
 20
37.6427473828
 10
269.485606561
 20
36.5072261269
 10
268.6532061823
 20
35.2928822781
 10
267.9018065784
 20
34.0167625622
 10
267.2419557525
 20
32.6967809026
 10
266.682916564
 20
31.3514669485
 10
266.2325366974
 20
29.9997059588
 10
265.897138499
 20
28.6604736946
 10
265.6814302243
 20
27.3525700414
 10
265.5884399445
 20
26.0943550995
 10
265.6194730394
 20
24.9034914486
 10
265.7740938723
 20
23.796696204
 10
266.0501319057
 20
22.7895063448
 10
266.4437121707
 20
21.8960606088
 10
266.9493096631
 20
21.1289010157
 10
267.5598269023
 20
20.4987968046
 10
268.2666935646
 20
20.0145932573
 10
269.0599867916
 20
19.6830875303
 10
269.9285704853
 20
19.5089332373
 10
270.8602516345
 20
19.4945751229
 10
271.8419514782
 20
19.6402147435
 10
272.8598891025
 20
19.943807638
 10
273.8997748945
 20
20.4010920278
 10
274.424829575
 20
20.6862739692
  0
LWPOLYLINE
  5
179
330
1F
100
AcDbEntity
  8
0
  6
Continuous
 62
     7
370
    15
100
AcDbPolyline
 90
       15
 70
   128
 43
0.0
 10
283.2622277806
 20
35.9947553738
 10
283.2583460871
 20
36.2949747894
 10
283.1653558073
 20
37.4458254395
 10
282.9496475326
 20
38.5046776199
 10
282.6142493342
 20
39.4566673669
 10
282.1638694677
 20
40.2884308312
 10
281.6048302791
 20
40.988291877
 10
280.9449794533
 20
41.5464259895
 10
280.1935798493
 20
41.954998189
 10
279.3611794707
 20
42.2082730175
 10
278.4594633939
 20
42.3026950516
 10
277.5010897363
 20
42.2369388129
 10
276.499511963
 20
42.0119273749
 10
275.4687900307
 20
41.630819405
 10
274.4233930158
 20
41.0989648235
  0
SPLINE
  5
17A
330
1F
100
AcDbEntity
  8
0
  6
Continuous
 62
     7
370
    15
100
AcDbSpline
210
0.0
220
0.0
230
1.0
 70
    11
 71
     3
 72
    77
 73
    73
 74
     0
 42
0.000000001
 43
0.00000001
 40
0.0
 40
0.0
 40
0.0
 40
0.0
 40
0.03125
 40
0.03125
 40
0.0625
 40
0.0625
 40
0.0937499999999999
 40
0.0937499999999999
 40
0.1249999999999999
 40
0.1249999999999999
 40
0.1562499999999999
 40
0.1562499999999999
 40
0.1874999999999999
 40
0.1874999999999999
 40
0.2187499999999999
 40
0.2187499999999999
 40
0.2499999999999998
 40
0.2499999999999998
 40
0.2812499999999998
 40
0.2812499999999998
 40
0.3124999999999998
 40
0.3124999999999998
 40
0.3437499999999998
 40
0.3437499999999998
 40
0.3593749999999998
 40
0.3593749999999998
 40
0.3749999999999998
 40
0.3906249999999999
 40
0.3906249999999999
 40
0.4062499999999999
 40
0.4062499999999999
 40
0.4374999999999999
 40
0.4374999999999999
 40
0.4687499999999999
 40
0.4687499999999999
 40
0.4999999999999999
 40
0.4999999999999999
 40
0.5312499999999999
 40
0.5312499999999999
 40
0.5624999999999999
 40
0.5624999999999999
 40
0.5937499999999998
 40
0.5937499999999998
 40
0.6249999999999998
 40
0.6249999999999998
 40
0.6562499999999998
 40
0.6562499999999998
 40
0.6874999999999998
 40
0.6874999999999998
 40
0.7187499999999998
 40
0.7187499999999998
 40
0.7499999999999997
 40
0.7499999999999997
 40
0.7656249999999999
 40
0.7656249999999999
 40
0.7812500000000001
 40
0.7812500000000001
 40
0.8125000000000001
 40
0.8125000000000001
 40
0.8437500000000001
 40
0.8437500000000001
 40
0.8750000000000001
 40
0.8750000000000001
 40
0.8906250000000001
 40
0.8906250000000001
 40
0.9062500000000001
 40
0.9062500000000001
 40
0.9375
 40
0.9375
 40
0.96875
 40
0.96875
 40
1.0
 40
1.0
 40
1.0
 40
1.0
 10
269.9714949425554
 20
45.16844454278215
 30
0.0
 10
270.1584127762648
 20
45.14211123595665
 30
0.0
 10
270.3406134198096
 20
45.10634790797698
 30
0.0
 10
270.6965836304927
 20
45.01919377811093
 30
0.0
 10
270.8715336333808
 20
44.96735565331852
 30
0.0
 10
271.2074319151654
 20
44.8509200638648
 30
0.0
 10
271.3663163699755
 20
44.78718008187469
 30
0.0
 10
271.6667367600629
 20
44.64992841540514
 30
0.0
 10
271.8094828969093
 20
44.57564014031401
 30
0.0
 10
272.0694965437571
 20
44.42130664507582
 30
0.0
 10
272.1868509935562
 20
44.3414611166954
 30
0.0
 10
272.3964428193786
 20
44.17606922148058
 30
0.0
 10
272.4893544304429
 20
44.08962574731352
 30
0.0
 10
272.6428331583634
 20
43.91537731054202
 30
0.0
 10
272.704023993894
 20
43.82739096015064
 30
0.0
 10
272.794509913042
 20
43.64813955105456
 30
0.0
 10
272.8237330832707
 20
43.55590934526813
 30
0.0
 10
272.8454332259639
 20
43.37337069232078
 30
0.0
 10
272.8385666693762
 20
43.28251959189735
 30
0.0
 10
272.78704383858
 20
43.09978543488931
 30
0.0
 10
272.7414417121031
 20
43.0072147619752
 30
0.0
 10
272.6135887397034
 20
42.82890374822065
 30
0.0
 10
272.5313325439994
 20
42.742032243197
 30
0.0
 10
272.3781133367401
 20
42.6145811149188
 30
0.0
 10
272.3220083746659
 20
42.57265510931595
 30
0.0
 10
272.2028440297043
 20
42.49215886526167
 30
0.0
 10
272.0760054121713
 20
42.41438533481275
 30
0.0
 10
271.933971661892
 20
42.34196954045345
 30
0.0
 10
271.7841738022652
 20
42.272326422857
 30
0.0
 10
271.7053508555559
 20
42.23892860760566
 30
0.0
 10
271.4635762144093
 20
42.14562596157159
 30
0.0
 10
271.2933876596018
 20
42.09154494316967
 30
0.0
 10
270.9355547032615
 20
42.00019268101554
 30
0.0
 10
270.751877993194
 20
41.96405933212242
 30
0.0
 10
270.3816491497619
 20
41.9119105635598
 30
0.0
 10
270.1923676160463
 20
41.89570607869804
 30
0.0
 10
269.8215164791025
 20
41.88498779709289
 30
0.0
 10
269.6390155214482
 20
41.89015312497397
 30
0.0
 10
269.2794458408065
 20
41.92239360480946
 30
0.0
 10
269.103830411483
 20
41.94956549758948
 30
0.0
 10
268.7701796440343
 20
42.02465820020479
 30
0.0
 10
268.6106142595012
 20
42.07269406994331
 30
0.0
 10
268.3062057297893
 20
42.19100325888685
 30
0.0
 10
268.1653039831805
 20
42.25979000194937
 30
0.0
 10
267.9063300604342
 20
42.41545831557386
 30
0.0
 10
267.7876704043913
 20
42.50276033756542
 30
0.0
 10
267.5755335316477
 20
42.69485187084089
 30
0.0
 10
267.484347314671
 20
42.79741854333042
 30
0.0
 10
267.3311790379927
 20
43.01445378750838
 30
0.0
 10
267.2688851590749
 20
43.12972269132209
 30
0.0
 10
267.1775636522372
 20
43.36831014042359
 30
0.0
 10
267.149111487375
 20
43.4894654773301
 30
0.0
 10
267.1326658202096
 20
43.67284594436187
 30
0.0
 10
267.1315867069476
 20
43.73424923333768
 30
0.0
 10
267.1387250595467
 20
43.85742922211763
 30
0.0
 10
267.1470517497024
 20
43.91956546868521
 30
0.0
 10
267.1861560676221
 20
44.10211141729414
 30
0.0
 10
267.230722898324
 20
44.21949703751842
 30
0.0
 10
267.3584616240915
 20
44.4437925026474
 30
0.0
 10
267.4433039646372
 20
44.55193757270175
 30
0.0
 10
267.6466678532225
 20
44.74488428061414
 30
0.0
 10
267.7651560312115
 20
44.830757238713
 30
0.0
 10
267.9691465990488
 20
44.94275586341853
 30
0.0
 10
268.0414633312548
 20
44.97713047403535
 30
0.0
 10
268.1909060811814
 20
45.03839357257769
 30
0.0
 10
268.2684972195465
 20
45.06555356647024
 30
0.0
 10
268.5096708999682
 20
45.13700489822854
 30
0.0
 10
268.6837046138992
 20
45.17141434468363
 30
0.0
 10
269.039550068481
 20
45.21262408263397
 30
0.0
 10
269.2221565397647
 20
45.22002105997408
 30
0.0
 10
269.5965266911349
 20
45.21109009941299
 30
0.0
 10
269.784577108846
 20
45.19477784960763
 30
0.0
 10
269.9714949425554
 20
45.16844454278214
 30
0.0
  0
LINE
  5
17B
330
1F
100
AcDbEntity
  8
0
  6
Continuous
 62
     7
370
    15
100
AcDbLine
 10
279.2206207791
 20
30.6215036415
 30
0.0
 11
280.9818084113
 21
32.8124043127
 31
0.0
  0
SPLINE
  5
17C
330
1F
100
AcDbEntity
  8
0
  6
Continuous
 62
     7
370
    15
100
AcDbSpline
210
0.0
220
0.0
230
1.0
 70
     8
 71
     3
 72
    22
 73
    18
 74
     0
 42
0.000000001
 43
0.00000001
 40
0.0
 40
0.0
 40
0.0
 40
0.0
 40
0.0500000000000111
 40
0.0999999999999997
 40
0.15
 40
0.2
 40
0.25
 40
0.2968749999999668
 40
0.34375
 40
0.3906249999999997
 40
0.4374999999999987
 40
0.5292946909502638
 40
0.5292946909502638
 40
0.53125
 40
0.6250000000000001
 40
0.8125
 40
0.896803037640094
 40
0.896803037640094
 40
0.896803037640094
 40
0.896803037640094
 10
280.9818084113159
 20
32.81240431272551
 30
0.0
 10
281.0630080933191
 20
32.91341594518668
 30
0.0
 10
281.2225974849423
 20
33.1334292975794
 30
0.0
 10
281.4417732220658
 20
33.50962536021733
 30
0.0
 10
281.6286340062703
 20
33.92691526819247
 30
0.0
 10
281.7659688470784
 20
34.36657324760444
 30
0.0
 10
281.8366421587837
 20
34.79373427101468
 30
0.0
 10
281.8361627384252
 20
35.18323905562335
 30
0.0
 10
281.7678405651891
 20
35.51541024490792
 30
0.0
 10
281.6361153528126
 20
35.78241031141013
 30
0.0
 10
281.3961374849691
 20
36.03562717382388
 30
0.0
 10
281.1515783172484
 20
36.11969933224278
 30
0.0
 10
280.9789984331375
 20
36.13619529719792
 30
0.0
 10
280.8148942769961
 20
36.15191833621931
 30
0.0
 10
280.40568025425
 20
36.18655001397965
 30
0.0
 10
280.0600474055305
 20
36.21846584518412
 30
0.0
 10
279.428947213272
 20
36.27492096319125
 30
0.0
 10
279.2205738726106
 20
36.29353775720174
 30
0.0
  0
SPLINE
  5
17D
330
1F
100
AcDbEntity
  8
0
  6
Continuous
 62
     7
370
    15
100
AcDbSpline
210
0.0
220
0.0
230
1.0
 70
     8
 71
     3
 72
    22
 73
    18
 74
     0
 42
0.000000001
 43
0.00000001
 40
0.0
 40
0.0
 40
0.0
 40
0.0
 40
0.0500000000000111
 40
0.0999999999999997
 40
0.15
 40
0.2
 40
0.25
 40
0.2968749999999668
 40
0.34375
 40
0.3906249999999997
 40
0.4374999999999987
 40
0.5292946909502638
 40
0.5292946909502638
 40
0.53125
 40
0.6250000000000001
 40
0.8125
 40
0.8955927989355099
 40
0.8955927989355099
 40
0.8955927989355099
 40
0.8955927989355099
 10
268.2185310108998
 20
25.44432110352623
 30
0.0
 10
268.1382750823602
 20
25.45149719291484
 30
0.0
 10
267.9773039400048
 20
25.48737610597213
 30
0.0
 10
267.7586835603947
 20
25.6104675877796
 30
0.0
 10
267.5716739722351
 20
25.81202594597662
 30
0.0
 10
267.434378989734
 20
26.09311687685929
 30
0.0
 10
267.3636952701987
 20
26.43868135393994
 30
0.0
 10
267.3641768406105
 20
26.82873880012418
 30
0.0
 10
267.4325001762396
 20
27.23979546508922
 30
0.0
 10
267.564218635731
 20
27.65887357697597
 30
0.0
 10
267.8042306096867
 20
28.18920549564544
 30
0.0
 10
268.0486366019143
 20
28.55544908785869
 30
0.0
 10
268.2213357158209
 20
28.77134986011609
 30
0.0
 10
268.3855664330218
 20
28.9767009593025
 30
0.0
 10
268.7958769561236
 20
29.48516513867639
 30
0.0
 10
269.1318099389187
 20
29.90407026850258
 30
0.0
 10
269.7724763506709
 20
30.70108155262595
 30
0.0
 10
269.9797659667019
 20
30.95893380950277
 30
0.0
  0
LINE
  5
17E
330
1F
100
AcDbEntity
  8
0
  6
Continuous
 62
     7
370
    15
100
AcDbLine
 10
269.9797186431
 20
25.2868443899
 30
0.0
 11
268.2185310109
 21
25.4443211035
 31
0.0
  0
SPLINE
  5
17F
330
1F
100
AcDbEntity
  8
0
  6
Continuous
 62
     7
370
    15
100
AcDbSpline
210
0.0
220
0.0
230
1.0
 70
     8
 71
     3
 72
    10
 73
     6
 74
     0
 42
0.000000001
 43
0.00000001
 40
0.0
 40
0.0
 40
0.0
 40
0.0
 40
0.4070843662757934
 40
0.815260232098832
 40
1.0
 40
1.0
 40
1.0
 40
1.0
 10
273.4869200306293
 20
55.90441026694838
 30
0.0
 10
273.5052008886396
 20
55.94328266415035
 30
0.0
 10
273.5418116204168
 20
56.02113168560757
 30
0.0
 10
273.5558659672569
 20
56.12807705173996
 30
0.0
 10
273.5380267343132
 20
56.18079392870278
 30
0.0
 10
273.5324684127474
 20
56.19721937451774
 30
0.0
  0
LWPOLYLINE
  5
180
330
1F
100
AcDbEntity
  8
0
  6
Continuous
 62
     7
370
    15
100
AcDbPolyline
 90
       17
 70
   128
 43
0.0
 10
240.4804638344
 20
37.1958940736
 10
240.8312715396
 20
38.6045281953
 10
241.3887451828
 20
40.4576958842
 10
242.0551615724
 20
42.3145578567
 10
242.825852249
 20
44.1621062022
 10
243.6954182786
 20
45.9873982553
 10
244.6577680738
 20
47.777647263
 10
245.7061600674
 20
49.5203119598
 10
246.8332499388
 20
51.2031844238
 10
248.0311420642
 20
52.8144755964
 10
249.2914448271
 20
54.3428978692
 10
250.6053294046
 20
55.7777441564
 10
251.9635916161
 20
57.1089629023
 10
253.3567164016
 20
58.3272284948
 10
254.7749444777
 20
59.4240065949
 10
256.2083407041
 20
60.3916139221
 10
256.5404355565
 20
60.5959599312
  0
SPLINE
  5
181
330
1F
100
AcDbEntity
  8
0
  6
Continuous
 62
     7
370
    15
100
AcDbSpline
210
0.0
220
0.0
230
1.0
 70
     8
 71
     3
 72
    12
 73
     8
 74
     0
 42
0.000000001
 43
0.00000001
 40
0.0
 40
0.0
 40
0.0
 40
0.0
 40
0.2499999999999988
 40
0.2499999999999988
 40
0.4999999999999976
 40
0.4999999999999976
 40
1.0
 40
1.0
 40
1.0
 40
1.0
 10
240.0272046619885
 20
37.10171543830964
 30
0.0
 10
240.061139014251
 20
37.0821255537309
 30
0.0
 10
240.0996019694875
 20
37.05496804334641
 30
0.0
 10
240.1738738623982
 20
36.99584747111985
 30
0.0
 10
240.2091518959518
 20
36.96448696419268
 30
0.0
 10
240.3044545144375
 20
36.87273950046986
 30
0.0
 10
240.3531435356107
 20
36.81607377951772
 30
0.0
 10
240.3866459234811
 20
36.76803682060898
 30
0.0
  0
LWPOLYLINE
  5
182
330
1F
100
AcDbEntity
  8
0
  6
Continuous
 62
     7
370
    15
100
AcDbPolyline
 90
       14
 70
   128
 43
0.0
 10
261.5491423454
 20
63.1959752235
 10
261.748798699
 20
63.2432507531
 10
263.1145303738
 20
63.4839182835
 10
264.4361666084
 20
63.5700880599
 10
265.7045821742
 20
63.5011651235
 10
266.9110193045
 20
63.2776253522
 10
268.047148162
 20
62.9010121751
 10
269.1051243526
 20
62.3739259151
 10
270.0776430867
 20
61.700005836
 10
270.9579896153
 20
60.8839050144
 10
271.7400855915
 20
59.9312582131
 10
272.4185310389
 20
58.8486429754
 10
272.9886416354
 20
57.6435342112
 10
273.359447967
 20
56.6115030558
  0
LINE
  5
183
330
1F
100
AcDbEntity
  8
0
  6
Continuous
 62
     7
370
    15
100
AcDbLine
 10
238.6752754581
 20
37.8821675553
 30
0.0
 11
240.027204662
 21
37.1017154383
 31
0.0
  0
LWPOLYLINE
  5
184
330
1F
100
AcDbEntity
  8
0
  6
Continuous
 62
     7
370
    15
100
AcDbPolyline
 90
       26
 70
   128
 43
0.0
 10
238.6752754581
 20
37.8821675553
 10
239.1380868135
 20
39.7310011534
 10
239.7130135376
 20
41.5947274823
 10
240.3960860527
 20
43.4604784558
 10
241.1825880893
 20
45.3153720089
 10
242.0670892492
 20
47.1466010412
 10
243.0434825
 20
48.9415218442
 10
244.1050263411
 20
50.687741399
 10
245.24439135
 20
52.3732029444
 10
246.4537107886
 20
53.9862692223
 10
247.7246349189
 20
55.5158028274
 10
249.0483886537
 20
56.951243105
 10
250.4158321441
 20
58.2826790672
 10
251.8175238857
 20
59.5009178234
 10
253.2437859071
 20
60.5975480521
 10
254.6847705916
 20
61.5649980773
 10
256.1305286702
 20
62.3965881465
 10
257.5710779157
 20
63.0865765518
 10
258.9964720655
 20
63.6301992728
 10
260.3968694952
 20
64.0237028701
 10
261.76260117
 20
64.2643704005
 10
263.0842374045
 20
64.3505401769
 10
264.3526529704
 20
64.2816172405
 10
265.5590901006
 20
64.0580774692
 10
266.6952189581
 20
63.6814642921
 10
267.6782417702
 20
63.1981781111
  0
ARC
  5
185
330
1F
100
AcDbEntity
  8
0
  6
Continuous
 62
     7
370
    15
100
AcDbCircle
 10
243.9163674006
 20
28.9293547254
 30
0.0
 40
0.6147219230286763
100
AcDbArc
 50
302.60547834
 51
357.3945215144
  0
LINE
  5
186
330
1F
100
AcDbEntity
  8
0
  6
Continuous
 62
     7
370
    15
100
AcDbLine
 10
244.5304538411
 20
31.584297402
 30
0.0
 11
244.5304538411
 21
28.9014103845
 31
0.0
  0
LINE
  5
187
330
1F
100
AcDbEntity
  8
0
  6
Continuous
 62
     7
370
    15
100
AcDbLine
 10
244.5304538411
 20
38.7407271677
 30
0.0
 11
244.5304538411
 21
36.0578401502
 31
0.0
  0
ARC
  5
188
330
1F
100
AcDbEntity
  8
0
  6
Continuous
 62
     7
370
    15
100
AcDbCircle
 10
244.3580240942
 20
38.7686980465
 30
0.0
 40
0.1746836789714145
100
AcDbArc
 50
350.7859630095
 51
129.2032852357
  0
LINE
  5
189
330
1F
100
AcDbEntity
  8
0
  6
Continuous
 62
     7
370
    15
100
AcDbLine
 10
244.2476111287
 20
38.9040618701
 30
0.0
 11
240.4328204475
 21
36.7018300857
 31
0.0
  0
LINE
  5
18A
330
1F
100
AcDbEntity
  8
0
  6
Continuous
 62
     7
370
    15
100
AcDbLine
 10
240.3866459235
 20
36.7680368206
 30
0.0
 11
240.4328204475
 21
36.7018300857
 31
0.0
  0
LINE
  5
18B
330
1F
100
AcDbEntity
  8
0
  6
Continuous
 62
     7
370
    15
100
AcDbLine
 10
273.3822624962
 20
55.7231381005
 30
0.0
 11
273.4869200306
 21
55.9044102669
 31
0.0
  0
LINE
  5
18C
330
1F
100
AcDbEntity
  8
0
  6
Continuous
 62
     7
370
    15
100
AcDbLine
 10
270.4812727107
 20
54.0484323444
 30
0.0
 11
273.3822624962
 21
55.7231381005
 31
0.0
  0
ARC
  5
18D
330
1F
100
AcDbEntity
  8
0
  6
Continuous
 62
     7
370
    15
100
AcDbCircle
 10
270.8125164388
 20
53.5305900564
 30
0.0
 40
0.6147219230288522
100
AcDbArc
 50
122.60547834
 51
177.3945215143
  0
LINE
  5
18E
330
1F
100
AcDbEntity
  8
0
  6
Continuous
 62
     7
370
    15
100
AcDbLine
 10
270.1984299982
 20
53.494635881
 30
0.0
 11
270.1984299982
 21
53.5585343973
 31
0.0
  0
LINE
  5
18F
330
1F
100
AcDbEntity
  8
0
  6
Continuous
 62
     7
370
    15
100
AcDbLine
 10
240.4328204475
 20
26.209280653
 30
0.0
 11
240.3866459235
 21
26.0897619474
 31
0.0
  0
LINE
  5
190
330
1F
100
AcDbEntity
  8
0
  6
Continuous
 62
     7
370
    15
100
AcDbLine
 10
240.4328204475
 20
26.209280653
 30
0.0
 11
244.2476111287
 21
28.4115124374
 31
0.0
  0
LWPOLYLINE
  5
191
330
1F
100
AcDbEntity
  8
0
  6
Continuous
 62
     7
370
    15
100
AcDbPolyline
 90
       22
 70
   128
 43
0.0
 10
237.6860398527
 20
39.1410393918
 10
238.1346508956
 20
40.9449422051
 10
238.6965425692
 20
42.7640227153
 10
239.3675599414
 20
44.5848296534
 10
240.1427411456
 20
46.3938989842
 10
241.0163540708
 20
48.1778534669
 10
241.9819387489
 20
49.9235015734
 10
243.0323551224
 20
51.6179350339
 10
244.1598358424
 20
53.2486242873
 10
245.3560437043
 20
54.8035111319
 10
246.6121332976
 20
56.2710978901
 10
247.9188164138
 20
57.6405324285
 10
249.2664307286
 20
58.9016884048
 10
250.6450112499
 20
60.0452401467
 10
252.044364005
 20
61.0627316119
 10
253.4541414197
 20
61.946638916
 10
254.8639188345
 20
62.6904259685
 10
256.2632715895
 20
63.2885928041
 10
257.6418521109
 20
63.7367162523
 10
258.9894664257
 20
64.0314826452
 10
260.2961495419
 20
64.1707123199
 10
261.157674739
 20
64.1759255434
  0
SPLINE
  5
192
330
1F
100
AcDbEntity
  8
0
  6
Continuous
 62
     7
370
    15
100
AcDbSpline
210
0.0
220
0.0
230
1.0
 70
     8
 71
     3
 72
     8
 73
     4
 74
     0
 42
0.000000001
 43
0.00000001
 40
0.0
 40
0.0
 40
0.0
 40
0.0
 40
1.0
 40
1.0
 40
1.0
 40
1.0
 10
237.6860398526752
 20
39.14103939179721
 30
0.0
 10
237.3027558831678
 20
39.07767918381756
 30
0.0
 10
236.919389972529
 20
39.01448766930475
 30
0.0
 10
236.5359521037269
 20
38.9514442961684
 30
0.0
  0
SPLINE
  5
193
330
1F
100
AcDbEntity
  8
0
  6
Continuous
 62
     7
370
    15
100
AcDbSpline
210
0.0
220
0.0
230
1.0
 70
     8
 71
     3
 72
     8
 73
     4
 74
     0
 42
0.000000001
 43
0.00000001
 40
0.0
 40
0.0
 40
0.0
 40
0.0
 40
0.0011891741919631
 40
0.0011891741919631
 40
0.0011891741919631
 40
0.0011891741919631
 10
236.181899024124
 20
39.32156313226213
 30
0.0
 10
236.300192254473
 20
39.19809256047138
 30
0.0
 10
236.4182159237354
 20
39.07471689438549
 30
0.0
 10
236.5359521037269
 20
38.9514442961684
 30
0.0
  0
LWPOLYLINE
  5
194
330
1F
100
AcDbEntity
  8
0
  6
Continuous
 62
     7
370
    15
100
AcDbPolyline
 90
       28
 70
   128
 43
0.0
 10
236.1818990241
 20
39.3215631323
 10
236.6447103794
 20
41.1703967304
 10
237.2196371036
 20
43.0341230592
 10
237.9027096187
 20
44.8998740328
 10
238.6892116553
 20
46.7547675858
 10
239.5737128152
 20
48.5859966182
 10
240.550106066
 20
50.3809174212
 10
241.611649907
 20
52.127136976
 10
242.751014916
 20
53.8125985214
 10
243.9603343546
 20
55.4256647993
 10
245.2312584849
 20
56.9551984044
 10
246.5550122197
 20
58.3906386819
 10
247.9224557101
 20
59.7220746442
 10
249.3241474517
 20
60.9403134004
 10
250.7504094731
 20
62.0369436291
 10
252.1913941576
 20
63.0043936542
 10
253.6371522362
 20
63.8359837235
 10
255.0777014817
 20
64.5259721288
 10
256.5030956315
 20
65.0695948498
 10
257.9034930612
 20
65.463098447
 10
259.2692247359
 20
65.7037659775
 10
260.5908609705
 20
65.7899357538
 10
261.8592765364
 20
65.7210128174
 10
263.0657136666
 20
65.4974730462
 10
264.2018425241
 20
65.120859869
 10
265.2598187147
 20
64.5937736091
 10
266.2323374489
 20
63.91985353
 10
266.3682419416
 20
63.8082050885
  0
ARC
  5
195
330
1F
100
AcDbEntity
  8
0
  6
Continuous
 62
     7
370
    15
100
AcDbCircle
 10
267.9124026336
 20
47.7827098494
 30
0.0
 40
6.082212226311797
100
AcDbArc
 50
34.9937060248
 51
84.1515479418
  0
ARC
  5
196
330
1F
100
AcDbEntity
  8
0
  6
Continuous
 62
     7
370
    15
100
AcDbCircle
 10
256.5379451474
 20
28.0817356041
 30
0.0
 40
6.079346638761539
100
AcDbArc
 50
215.1134796222
 51
264.5114143177
  0
LINE
  5
197
330
1F
100
AcDbEntity
  8
0
  6
Continuous
 62
     7
370
    15
100
AcDbLine
 10
234.838808655
 20
40.0969126986
 30
0.0
 11
236.1818990241
 21
39.3215631323
 31
0.0
  0
ARC
  5
198
330
1F
100
AcDbEntity
  8
0
  6
Continuous
 62
     7
370
    15
100
AcDbCircle
 10
259.1418940768
 20
56.5846919346
 30
0.0
 40
10.00132734283775
100
AcDbArc
 50
61.9705254356
 51
106.1954458357
  0
ARC
  5
199
330
1F
100
AcDbEntity
  8
0
  6
Continuous
 62
     7
370
    15
100
AcDbCircle
 10
262.6487010026
 20
50.1028341954
 30
0.0
 40
6.713491893272996
100
AcDbArc
 50
61.2009745714
 51
99.6022580436
  0
ARC
  5
19A
330
1F
100
AcDbEntity
  8
0
  6
Continuous
 62
     7
370
    15
100
AcDbCircle
 10
252.0387624447
 20
31.6035551293
 30
0.0
 40
6.890078117705261
100
AcDbArc
 50
199.8082816918
 51
238.3346684861
  0
LINE
  5
19B
330
1F
100
AcDbEntity
  8
0
  6
Continuous
 62
     7
370
    15
100
AcDbLine
 10
238.8987872253
 20
38.8292025697
 30
0.0
 11
238.3051683771
 21
39.1718914364
 31
0.0
  0
SPLINE
  5
19C
330
1F
100
AcDbEntity
  8
0
  6
Continuous
 62
     7
370
    15
100
AcDbSpline
210
0.0
220
0.0
230
1.0
 70
     8
 71
     3
 72
    12
 73
     8
 74
     0
 42
0.000000001
 43
0.00000001
 40
0.0
 40
0.0
 40
0.0
 40
0.0
 40
0.4999999999999928
 40
0.4999999999999928
 40
0.7499999999999963
 40
0.7499999999999963
 40
1.0
 40
1.0
 40
1.0
 40
1.0
 10
238.3051683770778
 20
39.17189143640741
 30
0.0
 10
238.2294460915006
 20
39.21560498140214
 30
0.0
 10
238.1218047163446
 20
39.23939181549238
 30
0.0
 10
237.9606427761027
 20
39.23646323455532
 30
0.0
 10
237.908041351047
 20
39.2294247695926
 30
0.0
 10
237.8101835009557
 20
39.20459882957149
 30
0.0
 10
237.7653458848574
 20
39.18682178967025
 30
0.0
 10
237.7277007067086
 20
39.1650896909057
 30
0.0
  0
SPLINE
  5
19D
330
1F
100
AcDbEntity
  8
0
  6
Continuous
 62
     7
370
    15
100
AcDbSpline
210
0.0
220
0.0
230
1.0
 70
     8
 71
     3
 72
    10
 73
     6
 74
     0
 42
0.000000001
 43
0.00000001
 40
0.0
 40
0.0
 40
0.0
 40
0.0
 40
0.5
 40
0.5
 40
1.0
 40
1.0
 40
1.0
 40
1.0
 10
234.736882649389
 20
40.1265031732093
 30
0.0
 10
234.7441298369513
 20
40.1308513601495
 30
0.0
 10
234.755904929219
 20
40.13136326258355
 30
0.0
 10
234.7900194060409
 20
40.12208756806149
 30
0.0
 10
234.8122939625559
 20
40.11221930471552
 30
0.0
 10
234.8388086550322
 20
40.09691269855922
 30
0.0
  0
LINE
  5
19E
330
1F
100
AcDbEntity
  8
0
  6
Continuous
 62
     7
370
    15
100
AcDbLine
 10
237.7277007067
 20
39.1650896909
 30
0.0
 11
237.6860398527
 21
39.1410393918
 31
0.0
  0
SPLINE
  5
19F
330
1F
100
AcDbEntity
  8
0
  6
Continuous
 62
     7
370
    15
100
AcDbSpline
210
0.0
220
0.0
230
1.0
 70
     8
 71
     3
 72
    14
 73
    10
 74
     0
 42
0.000000001
 43
0.00000001
 40
0.0
 40
0.0
 40
0.0
 40
0.0
 40
0.1382497790614735
 40
0.2796530602889806
 40
0.4347082022115111
 40
0.5942614193310133
 40
0.7493134370782718
 40
0.9088540791383491
 40
1.0
 40
1.0
 40
1.0
 40
1.0
 10
268.1301426632509
 20
25.77418389607148
 30
0.0
 10
268.0682707097969
 20
25.78388679887526
 30
0.0
 10
267.943115492574
 20
25.8035139294297
 30
0.0
 10
267.7730129227659
 20
25.89046451703193
 30
0.0
 10
267.620378243851
 20
26.02565802458075
 30
0.0
 10
267.4963100645784
 20
26.21373052860063
 30
0.0
 10
267.4111604199696
 20
26.4467864271234
 30
0.0
 10
267.367498786457
 20
26.67347121381791
 30
0.0
 10
267.3708625706718
 20
26.83064952424001
 30
0.0
 10
267.3720855927846
 20
26.88779722962929
 30
0.0
  0
SPLINE
  5
1A0
330
1F
100
AcDbEntity
  8
0
  6
Continuous
 62
     7
370
    15
100
AcDbSpline
210
0.0
220
0.0
230
1.0
 70
     8
 71
     3
 72
    13
 73
     9
 74
     0
 42
0.000000001
 43
0.00000001
 40
0.0
 40
0.0
 40
0.0
 40
0.0
 40
0.0046755481259701
 40
0.1377332407478431
 40
0.3619409782506249
 40
0.5714738780946104
 40
0.7859397952763039
 40
0.9999999999999999
 40
0.9999999999999999
 40
0.9999999999999999
 40
0.9999999999999999
 10
270.1546835690436
 20
31.20396398225151
 30
0.0
 10
270.1546762985994
 20
31.20382839724246
 30
0.0
 10
270.1544621243875
 20
31.19983430666974
 30
0.0
 10
270.1403048155581
 20
31.17500199039886
 30
0.0
 10
270.1126440861736
 20
31.13231879558828
 30
0.0
 10
270.0709820017915
 20
31.07547822209157
 30
0.0
 10
270.0269401150181
 20
31.01802601405177
 30
0.0
 10
269.9954807546264
 20
30.97861877458694
 30
0.0
 10
269.9797659667018
 20
30.95893380950261
 30
0.0
  0
SPLINE
  5
1A1
330
1F
100
AcDbEntity
  8
0
  6
Continuous
 62
     7
370
    15
100
AcDbSpline
210
0.0
220
0.0
230
1.0
 70
     8
 71
     3
 72
    16
 73
    12
 74
     0
 42
0.000000001
 43
0.00000001
 40
0.0
 40
0.0
 40
0.0
 40
0.0
 40
0.2500000000000062
 40
0.2500000000000062
 40
0.5000000000000123
 40
0.5000000000000123
 40
0.6250000000000154
 40
0.6250000000000154
 40
0.7500000000000184
 40
0.7500000000000184
 40
1.0
 40
1.0
 40
1.0
 40
1.0
 10
279.2205738726168
 20
36.29353775720119
 30
0.0
 10
279.1889236345327
 20
36.29636549879675
 30
0.0
 10
279.1547949082825
 20
36.29785061628861
 30
0.0
 10
279.0776162642538
 20
36.29598896118633
 30
0.0
 10
279.033921033802
 20
36.29278944265264
 30
0.0
 10
278.9602064437867
 20
36.27894452571594
 30
0.0
 10
278.9342881268711
 20
36.27262571218593
 30
0.0
 10
278.886084879661
 20
36.25706124107873
 30
0.0
 10
278.8637377881761
 20
36.24775338205714
 30
0.0
 10
278.8089212442592
 20
36.21969683612505
 30
0.0
 10
278.7869416048778
 20
36.20133022873957
 30
0.0
 10
278.7707199922029
 20
36.18422032680247
 30
0.0
  0
SPLINE
  5
1A2
330
1F
100
AcDbEntity
  8
0
  6
Continuous
 62
     7
370
    15
100
AcDbSpline
210
0.0
220
0.0
230
1.0
 70
     8
 71
     3
 72
     8
 73
     4
 74
     0
 42
0.000000001
 43
0.00000001
 40
0.0
 40
0.0
 40
0.0
 40
0.0
 40
1.0
 40
1.0
 40
1.0
 40
1.0
 10
278.7707199922029
 20
36.18422032680247
 30
0.0
 10
278.7194900249585
 20
36.20367709540137
 30
0.0
 10
278.668772032922
 20
36.22604384449461
 30
0.0
 10
278.6297477618737
 20
36.24857207664395
 30
0.0
  0
LINE
  5
1A3
330
1F
100
AcDbEntity
  8
0
  6
Continuous
 62
     7
370
    15
100
AcDbLine
 10
277.8170425629
 20
37.01577732
 30
0.0
 11
277.7584384541
 21
37.0484943955
 31
0.0
  0
LINE
  5
1A4
330
1F
100
AcDbEntity
  8
0
  6
Continuous
 62
     7
370
    15
100
AcDbLine
 10
276.8300965759
 20
37.2874885923
 30
0.0
 11
278.6297477619
 21
36.2485720766
 31
0.0
  0
ARC
  5
1A5
330
1F
100
AcDbEntity
  8
0
  6
Continuous
 62
     7
370
    15
100
AcDbCircle
 10
266.029358466
 20
36.5067702645
 30
0.0
 40
8.706999118408753
100
AcDbArc
 50
338.033697105
 51
1.6832124343
  0
LINE
  5
1A6
330
1F
100
AcDbEntity
  8
0
  6
Continuous
 62
     7
370
    15
100
AcDbLine
 10
274.1042643623
 20
33.2498194798
 30
0.0
 11
278.6297477619
 21
30.637313522
 31
0.0
  0
LINE
  5
1A7
330
1F
100
AcDbEntity
  8
0
  6
Continuous
 62
     7
370
    15
100
AcDbLine
 10
270.8176114344
 20
24.8910932467
 30
0.0
 11
270.8762077805
 21
24.8583803597
 31
0.0
  0
LINE
  5
1A8
330
1F
100
AcDbEntity
  8
0
  6
Continuous
 62
     7
370
    15
100
AcDbLine
 10
267.4344571652
 20
27.1421871528
 30
0.0
 11
270.0049062354
 21
25.65829849
 31
0.0
  0
SPLINE
  5
1A9
330
1F
100
AcDbEntity
  8
0
  6
Continuous
 62
     7
370
    15
100
AcDbSpline
210
0.0
220
0.0
230
1.0
 70
     8
 71
     3
 72
    20
 73
    16
 74
     0
 42
0.000000001
 43
0.00000001
 40
0.0
 40
0.0
 40
0.0
 40
0.0
 40
0.25
 40
0.25
 40
0.5
 40
0.5
 40
0.53125
 40
0.53125
 40
0.5625
 40
0.5625
 40
0.625
 40
0.625
 40
0.75
 40
0.75
 40
1.0
 40
1.0
 40
1.0
 40
1.0
 10
244.5304538411499
 20
36.05784015019311
 30
0.0
 10
244.5304538411499
 20
35.68764335317233
 30
0.0
 10
244.5468133830159
 20
35.30803810279679
 30
0.0
 10
244.5780178461409
 20
34.55020161205237
 30
0.0
 10
244.5924761004603
 20
34.17189971438708
 30
0.0
 10
244.5928839385065
 20
33.75485382974729
 30
0.0
 10
244.5927301401065
 20
33.70752664137174
 30
0.0
 10
244.5920249203538
 20
33.6139836791581
 30
0.0
 10
244.5914746559018
 20
33.56733003471891
 30
0.0
 10
244.5892698383173
 20
33.42769939665839
 30
0.0
 10
244.5870557161942
 20
33.33505146165224
 30
0.0
 10
244.5787509049459
 20
33.05813211861306
 30
0.0
 10
244.5710020070318
 20
32.87490534723691
 30
0.0
 10
244.5472718983867
 20
32.32549077237233
 30
0.0
 10
244.5304538411499
 20
31.95979616894158
 30
0.0
 10
244.5304538411499
 20
31.58429740204324
 30
0.0
  0
LINE
  5
1AA
330
1F
100
AcDbEntity
  8
0
  6
Continuous
 62
     7
370
    15
100
AcDbLine
 10
270.0760660394
 20
25.6001890231
 30
0.0
 11
268.1301426633
 21
25.7741838961
 31
0.0
  0
SPLINE
  5
1AB
330
1F
100
AcDbEntity
  8
0
  6
Continuous
 62
     7
370
    15
100
AcDbSpline
210
0.0
220
0.0
230
1.0
 70
     8
 71
     3
 72
    16
 73
    12
 74
     0
 42
0.000000001
 43
0.00000001
 40
0.0
 40
0.0
 40
0.0
 40
0.0
 40
0.2500000000000033
 40
0.2500000000000033
 40
0.5000000000000067
 40
0.5000000000000067
 40
0.6249999999999991
 40
0.6249999999999991
 40
0.7499999999999916
 40
0.7499999999999916
 40
1.0
 40
1.0
 40
1.0
 40
1.0
 10
269.9797186431491
 20
25.28684438985418
 30
0.0
 10
270.0109797017945
 20
25.28404918013817
 30
0.0
 10
270.0419098444246
 20
25.28465270085694
 30
0.0
 10
270.0985657563032
 20
25.29855694625692
 30
0.0
 10
270.1254069418875
 20
25.31146586888989
 30
0.0
 10
270.1507590324251
 20
25.35337594844788
 30
0.0
 10
270.1561936531824
 20
25.37151289736646
 30
0.0
 10
270.1573152545248
 20
25.41414215175336
 30
0.0
 10
270.1529524070125
 20
25.43868516329215
 30
0.0
 10
270.129708844695
 20
25.51196513074586
 30
0.0
 10
270.1035806773081
 20
25.55798918033783
 30
0.0
 10
270.0760660394094
 20
25.60018902310971
 30
0.0
  0
SPLINE
  5
1AC
330
1F
100
AcDbEntity
  8
0
  6
Continuous
 62
     7
370
    15
100
AcDbSpline
210
0.0
220
0.0
230
1.0
 70
     8
 71
     3
 72
     8
 73
     4
 74
     0
 42
0.000000001
 43
0.00000001
 40
0.0
 40
0.0
 40
0.0
 40
0.0
 40
1.0
 40
1.0
 40
1.0
 40
1.0
 10
270.0049062353928
 20
25.65829849003781
 30
0.0
 10
270.0438937260913
 20
25.63579149073247
 30
0.0
 10
270.0663113932148
 20
25.61593930341562
 30
0.0
 10
270.0760660394094
 20
25.60018902310973
 30
0.0
  0
LINE
  5
1AD
330
1F
100
AcDbEntity
  8
0
  6
Continuous
 62
     7
370
    15
100
AcDbLine
 10
240.4328204475
 20
36.7018300857
 30
0.0
 11
238.7081898808
 21
37.6974381197
 31
0.0
  0
SPLINE
  5
1AE
330
1F
100
AcDbEntity
  8
0
  6
Continuous
 62
     7
370
    15
100
AcDbSpline
210
0.0
220
0.0
230
1.0
 70
     8
 71
     3
 72
     8
 73
     4
 74
     0
 42
0.000000001
 43
0.00000001
 40
0.0
 40
0.0
 40
0.0
 40
0.0
 40
0.0011891741919631
 40
0.0011891741919631
 40
0.0011891741919631
 40
0.0011891741919631
 10
238.7081898808303
 20
37.69743811971856
 30
0.0
 10
238.6967917365837
 20
37.75932307657288
 30
0.0
 10
238.6858279410245
 20
37.82089439311249
 30
0.0
 10
238.675275458132
 20
37.88216755530561
 30
0.0
  0
SPLINE
  5
1AF
330
1F
100
AcDbEntity
  8
0
  6
Continuous
 62
     7
370
    15
100
AcDbSpline
210
0.0
220
0.0
230
1.0
 70
     8
 71
     3
 72
     8
 73
     4
 74
     0
 42
0.000000001
 43
0.00000001
 40
0.0
 40
0.0
 40
0.0
 40
0.0
 40
1.0
 40
1.0
 40
1.0
 40
1.0
 10
278.6297477618737
 20
30.63731352196034
 30
0.0
 10
278.6687352525723
 20
30.61480652265499
 30
0.0
 10
278.719483032691
 20
30.61130896145226
 30
0.0
 10
278.770719992213
 20
30.61950591089917
 30
0.0
  0
SPLINE
  5
1B0
330
1F
100
AcDbEntity
  8
0
  6
Continuous
 62
     7
370
    15
100
AcDbSpline
210
0.0
220
0.0
230
1.0
 70
     8
 71
     3
 72
    16
 73
    12
 74
     0
 42
0.000000001
 43
0.00000001
 40
0.0
 40
0.0
 40
0.0
 40
0.0
 40
0.2499999999999851
 40
0.2499999999999851
 40
0.3749999999999888
 40
0.3749999999999888
 40
0.4999999999999926
 40
0.4999999999999926
 40
0.7499999999999962
 40
0.7499999999999962
 40
1.0
 40
1.0
 40
1.0
 40
1.0
 10
278.7707199922131
 20
30.61950591089914
 30
0.0
 10
278.7868492148369
 20
30.57071684761735
 30
0.0
 10
278.809255523559
 20
30.52159080651994
 30
0.0
 10
278.8635813457914
 20
30.46735121611699
 30
0.0
 10
278.8856478414544
 20
30.45303083230626
 30
0.0
 10
278.9339940306833
 20
30.43869573758247
 30
0.0
 10
278.9600789960774
 20
30.43871506882192
 30
0.0
 10
279.0338166693217
 20
30.45418362128024
 30
0.0
 10
279.0772928273608
 20
30.4818842553043
 30
0.0
 10
279.1546004920754
 20
30.54525943507315
 30
0.0
 10
279.1892538945037
 20
30.58248353530749
 30
0.0
 10
279.2206207790666
 20
30.62150364150444
 30
0.0
  0
SPLINE
  5
1B1
330
1F
100
AcDbEntity
  8
0
  6
Continuous
 62
     7
370
    15
100
AcDbSpline
210
0.0
220
0.0
230
1.0
 70
     8
 71
     3
 72
    12
 73
     8
 74
     0
 42
0.000000001
 43
0.00000001
 40
0.0
 40
0.0
 40
0.0
 40
0.0
 40
0.0316027464897147
 40
0.42224646983488
 40
0.8128309791953661
 40
0.9907948645948642
 40
1.0
 40
1.0
 40
1.0
 40
1.0
 10
238.9177937654817
 20
34.82441709583961
 30
0.0
 10
238.917724248176
 20
34.85346185048837
 30
0.0
 10
238.9167954226719
 20
35.24153081536925
 30
0.0
 10
238.8813409232656
 20
36.00718557359139
 30
0.0
 10
238.8509012522022
 20
36.90455241207619
 30
0.0
 10
238.8567838342246
 20
37.43158447543094
 30
0.0
 10
238.8629350269514
 20
37.59966467608391
 30
0.0
 10
238.8632375479654
 20
37.60793100669397
 30
0.0
  0
LWPOLYLINE
  5
1B2
330
1F
100
AcDbEntity
  8
0
  6
Continuous
 62
     7
370
    15
100
AcDbPolyline
 90
        3
 70
   128
 43
0.0
 10
237.8571335937
 20
37.7449302636
 10
237.9184928449
 20
39.2000745901
 10
237.9189248322
 20
39.2053003468
  0
ARC
  5
1B3
330
1F
100
AcDbEntity
  8
0
  6
Continuous
 62
     7
370
    15
100
AcDbCircle
 10
249.4251756968
 20
37.4249134798
 30
0.0
 40
11.57246770745556
100
AcDbArc
 50
178.4153812963
 51
204.7745347699
  0
LINE
  5
1B4
330
1F
100
AcDbEntity
  8
0
  6
Continuous
 62
     7
370
    15
100
AcDbLine
 10
209.3021872355
 20
56.7952176241
 30
0.0
 11
209.1789885273
 21
56.9042743303
 31
0.0
  0
LINE
  5
1B5
330
1F
100
AcDbEntity
  8
0
  6
Continuous
 62
     7
370
    15
100
AcDbLine
 10
235.1737137624
 20
39.7378477515
 30
0.0
 11
234.7368826494
 21
40.1265031732
 31
0.0
  0
LINE
  5
1B6
330
1F
100
AcDbEntity
  8
0
  6
Continuous
 62
     7
370
    15
100
AcDbLine
 10
236.5359521037
 20
38.9514442962
 30
0.0
 11
235.1737137624
 21
39.7378477515
 31
0.0
  0
LINE
  5
1B7
330
1F
100
AcDbEntity
  8
0
  6
Continuous
 62
     7
370
    15
100
AcDbLine
 10
238.9177937655
 20
31.8685485838
 30
0.0
 11
238.9177937655
 21
34.8244170958
 31
0.0
  0
SPLINE
  5
1B8
330
1F
100
AcDbEntity
  8
0
  6
Continuous
 62
     7
370
    15
100
AcDbSpline
210
0.0
220
0.0
230
1.0
 70
     8
 71
     3
 72
    30
 73
    26
 74
     0
 42
0.000000001
 43
0.00000001
 40
0.0
 40
0.0
 40
0.0
 40
0.0
 40
0.1249999999999999
 40
0.1249999999999999
 40
0.1874999999999999
 40
0.1874999999999999
 40
0.2499999999999999
 40
0.2499999999999999
 40
0.3124999999999999
 40
0.3124999999999999
 40
0.3749999999999998
 40
0.3749999999999998
 40
0.4374999999999998
 40
0.4374999999999998
 40
0.4999999999999998
 40
0.4999999999999998
 40
0.6249999999999998
 40
0.6249999999999998
 40
0.6874999999999998
 40
0.6874999999999998
 40
0.7499999999999997
 40
0.7499999999999997
 40
0.8749999999999999
 40
0.8749999999999999
 40
1.0
 40
1.0
 40
1.0
 40
1.0
 10
280.7166433683715
 20
33.04021609129358
 30
0.0
 10
280.8299334587701
 20
33.18114788672076
 30
0.0
 10
280.9322316258969
 20
33.3309383084066
 30
0.0
 10
281.0681063158067
 20
33.5694048321624
 30
0.0
 10
281.1107576160197
 20
33.65182935024886
 30
0.0
 10
281.1882025398019
 20
33.81742766287275
 30
0.0
 10
281.223081093047
 20
33.90070263320332
 30
0.0
 10
281.2853427950704
 20
34.06816989171686
 30
0.0
 10
281.3127468288459
 20
34.15235077211155
 30
0.0
 10
281.3599085393689
 20
34.3216175936229
 30
0.0
 10
281.3794619769721
 20
34.40616175990699
 30
0.0
 10
281.4101389258395
 20
34.57118909675943
 30
0.0
 10
281.4213857093086
 20
34.65224939753294
 30
0.0
 10
281.4358551253454
 20
34.81137550485407
 30
0.0
 10
281.4391060086113
 20
34.88990774955895
 30
0.0
 10
281.4365883015241
 20
35.11699638185053
 30
0.0
 10
281.4190978965065
 20
35.25531149827894
 30
0.0
 10
281.3698915330666
 20
35.44300681755492
 30
0.0
 10
281.3495269387282
 20
35.50223714240163
 30
0.0
 10
281.302056472063
 20
35.61055444758075
 30
0.0
 10
281.2748354509786
 20
35.66014254439874
 30
0.0
 10
281.1828105575099
 20
35.79530511768751
 30
0.0
 10
281.1065718936316
 20
35.86759373258221
 30
0.0
 10
280.9308867202199
 20
35.96922009673624
 30
0.0
 10
280.8299436819485
 20
36.00009469540107
 30
0.0
 10
280.7166433688682
 20
36.01022545355011
 30
0.0
  0
LINE
  5
1B9
330
1F
100
AcDbEntity
  8
0
  6
Continuous
 62
     7
370
    15
100
AcDbLine
 10
280.7166433689
 20
36.0102254536
 30
0.0
 11
278.7707199922
 21
36.1842203268
 31
0.0
  0
ARC
  5
1BA
330
1F
100
AcDbEntity
  8
0
  6
Continuous
 62
     7
370
    15
100
AcDbCircle
 10
273.4864631558
 20
37.8447093383
 30
0.0
 40
3.360506813818292
100
AcDbArc
 50
320.6498369943
 51
350.7253969509
  0
LINE
  5
1BB
330
1F
100
AcDbEntity
  8
0
  6
Continuous
 62
     7
370
    15
100
AcDbLine
 10
238.7081898808
 20
27.204888687
 30
0.0
 11
240.4328204475
 21
26.209280653
 31
0.0
  0
SPLINE
  5
1BC
330
1F
100
AcDbEntity
  8
0
  6
Continuous
 62
     7
370
    15
100
AcDbSpline
210
0.0
220
0.0
230
1.0
 70
     8
 71
     3
 72
    14
 73
    10
 74
     0
 42
0.000000001
 43
0.00000001
 40
0.0
 40
0.0
 40
0.0
 40
0.0
 40
0.25
 40
0.25
 40
0.5
 40
0.5
 40
0.75
 40
0.75
 40
1.0
 40
1.0
 40
1.0
 40
1.0
 10
240.3866459234811
 20
26.08976194740143
 30
0.0
 10
240.3698906569033
 20
26.04639240942569
 30
0.0
 10
240.3495165661228
 20
26.00616505035306
 30
0.0
 10
240.3010660373651
 20
25.93239818204805
 30
0.0
 10
240.2727718801072
 20
25.89883001486074
 30
0.0
 10
240.2097109268936
 20
25.84527893615145
 30
0.0
 10
240.1744855104178
 20
25.82482104375876
 30
0.0
 10
240.0997082309145
 20
25.80738421092887
 30
0.0
 10
240.0611512103953
 20
25.811329224579
 30
0.0
 10
240.0272046619885
 20
25.83092614984198
 30
0.0
  0
LINE
  5
1BD
330
1F
100
AcDbEntity
  8
0
  6
Continuous
 62
     7
370
    15
100
AcDbLine
 10
240.027204662
 20
25.8309261498
 30
0.0
 11
238.6752754581
 21
26.6113782668
 31
0.0
  0
SPLINE
  5
1BE
330
1F
100
AcDbEntity
  8
0
  6
Continuous
 62
     7
370
    15
100
AcDbSpline
210
0.0
220
0.0
230
1.0
 70
     8
 71
     3
 72
     8
 73
     4
 74
     0
 42
0.000000001
 43
0.00000001
 40
0.0
 40
0.0
 40
0.0
 40
0.0
 40
0.0011891741919631
 40
0.0011891741919631
 40
0.0011891741919631
 40
0.0011891741919631
 10
238.675275458132
 20
26.61137826683796
 30
0.0
 10
238.6858279410245
 20
26.80922988563794
 30
0.0
 10
238.6967917365837
 20
27.00706843017842
 30
0.0
 10
238.7081898808303
 20
27.20488868698667
 30
0.0
  0
LWPOLYLINE
  5
1BF
330
1F
100
AcDbEntity
  8
0
  6
Continuous
 62
     7
370
    15
100
AcDbPolyline
 90
       14
 70
   128
 43
0.0
 10
251.8992946182
 20
19.0171794382
 10
251.767761348
 20
18.9857728536
 10
250.4003178576
 20
18.7383921679
 10
249.0765641228
 20
18.6454589156
 10
247.8056399924
 20
18.7076147539
 10
246.5963205538
 20
18.924430528
 10
245.4569555449
 20
19.2944092349
 10
244.3954117038
 20
19.8149963592
 10
243.419018453
 20
20.4825975104
 10
242.5345172931
 20
21.2926032409
 10
241.7480152566
 20
22.2394208715
 10
241.0649427414
 20
23.3165131061
 10
240.4900160173
 20
24.5164431686
 10
240.1035195176
 20
25.5817171304
  0
LINE
  5
1C0
330
1F
100
AcDbEntity
  8
0
  6
Continuous
 62
     7
370
    15
100
AcDbLine
 10
278.7707199922
 20
30.6195059109
 30
0.0
 11
280.7166433684
 21
33.0402160913
 31
0.0
  0
SPLINE
  5
1C1
330
1F
100
AcDbEntity
  8
0
  6
Continuous
 62
     7
370
    15
100
AcDbSpline
210
0.0
220
0.0
230
1.0
 70
     8
 71
     3
 72
     8
 73
     4
 74
     0
 42
0.000000001
 43
0.00000001
 40
0.0
 40
0.0
 40
0.0
 40
0.0
 40
1.0
 40
1.0
 40
1.0
 40
1.0
 10
239.0366138047415
 20
27.86882021227463
 30
0.0
 10
238.9268588131607
 20
27.64755508643867
 30
0.0
 10
238.8173960388977
 20
27.42624265699436
 30
0.0
 10
238.7081898808303
 20
27.20488868698667
 30
0.0
  0
LINE
  5
1C2
330
1F
100
AcDbEntity
  8
0
  6
Continuous
 62
     7
370
    15
100
AcDbLine
 10
239.0782746588
 20
27.8928705114
 30
0.0
 11
239.0366138047
 21
27.8688202123
 31
0.0
  0
SPLINE
  5
1C3
330
1F
100
AcDbEntity
  8
0
  6
Continuous
 62
     7
370
    15
100
AcDbSpline
210
0.0
220
0.0
230
1.0
 70
     8
 71
     3
 72
    12
 73
     8
 74
     0
 42
0.000000001
 43
0.00000001
 40
0.0
 40
0.0
 40
0.0
 40
0.0
 40
0.25
 40
0.25
 40
0.5
 40
0.5
 40
1.0
 40
1.0
 40
1.0
 40
1.0
 10
239.0900569041949
 20
28.22623550161392
 30
0.0
 10
239.12766470101
 20
28.2045249826339
 30
0.0
 10
239.1579021484155
 20
28.17763426025785
 30
0.0
 10
239.1963832651913
 20
28.12015508060505
 30
0.0
 10
239.2052808683668
 20
28.08902819891881
 30
0.0
 10
239.2002382701804
 20
27.99692475618916
 30
0.0
 10
239.1536500197574
 20
27.93638378107235
 30
0.0
 10
239.0782746587747
 20
27.89287051138299
 30
0.0
  0
LINE
  5
1C4
330
1F
100
AcDbEntity
  8
0
  6
Continuous
 62
     7
370
    15
100
AcDbLine
 10
238.3051683771
 20
28.6793420037
 30
0.0
 11
239.0900569042
 21
28.2262355016
 31
0.0
  0
SPLINE
  5
1C5
330
1F
100
AcDbEntity
  8
0
  6
Continuous
 62
     7
370
    15
100
AcDbSpline
210
0.0
220
0.0
230
1.0
 70
     8
 71
     3
 72
    12
 73
     8
 74
     0
 42
0.000000001
 43
0.00000001
 40
0.0
 40
0.0
 40
0.0
 40
0.0
 40
0.5000000000000073
 40
0.5000000000000073
 40
0.7500000000000037
 40
0.7500000000000037
 40
1.0
 40
1.0
 40
1.0
 40
1.0
 10
237.7277007067084
 20
28.67254025817368
 30
0.0
 10
237.8029060744222
 20
28.71595539283776
 30
0.0
 10
237.9071508734327
 20
28.74299969568068
 30
0.0
 10
238.0685428795282
 20
28.74584540645525
 30
0.0
 10
238.1219623152945
 20
28.7406612849762
 30
0.0
 10
238.2217863083106
 20
28.71826616075921
 30
0.0
 10
238.2675189848997
 20
28.70107653514741
 30
0.0
 10
238.3051683770778
 20
28.67934200367553
 30
0.0
  0
LINE
  5
1C6
330
1F
100
AcDbEntity
  8
0
  6
Continuous
 62
     7
370
    15
100
AcDbLine
 10
237.6860398527
 20
28.6484899591
 30
0.0
 11
237.7277007067
 21
28.6725402582
 31
0.0
  0
SPLINE
  5
1C7
330
1F
100
AcDbEntity
  8
0
  6
Continuous
 62
     7
370
    15
100
AcDbSpline
210
0.0
220
0.0
230
1.0
 70
     8
 71
     3
 72
     8
 73
     4
 74
     0
 42
0.000000001
 43
0.00000001
 40
0.0
 40
0.0
 40
0.0
 40
0.0
 40
1.0
 40
1.0
 40
1.0
 40
1.0
 10
236.5359521037269
 20
28.45889486343651
 30
0.0
 10
236.919389972529
 20
28.52193823657286
 30
0.0
 10
237.3027558831678
 20
28.58512975108567
 30
0.0
 10
237.6860398526752
 20
28.64848995906532
 30
0.0
  0
LINE
  5
1C8
330
1F
100
AcDbEntity
  8
0
  6
Continuous
 62
     7
370
    15
100
AcDbLine
 10
235.1737137624
 20
29.2452983188
 30
0.0
 11
236.5359521037
 21
28.4588948634
 31
0.0
  0
LINE
  5
1C9
330
1F
100
AcDbEntity
  8
0
  6
Continuous
 62
     7
370
    15
100
AcDbLine
 10
235.1737137624
 20
29.2452983188
 30
0.0
 11
238.9885044436
 21
31.4475301032
 31
0.0
  0
LINE
  5
1CA
330
1F
100
AcDbEntity
  8
0
  6
Continuous
 62
     7
370
    15
100
AcDbLine
 10
274.1042643623
 20
33.2498194798
 30
0.0
 11
276.0850939516
 21
35.7139526575
 31
0.0
  0
ARC
  5
1CB
330
1F
100
AcDbEntity
  8
0
  6
Continuous
 62
     7
370
    15
100
AcDbCircle
 10
248.3845906297
 20
29.0695709305
 30
0.0
 40
10.01566334660211
100
AcDbArc
 50
194.207532472
 51
237.9790441783
  0
ARC
  5
1CC
330
1F
100
AcDbEntity
  8
0
  6
Continuous
 62
     7
370
    15
100
AcDbCircle
 10
248.652100759
 20
31.730740067
 30
0.0
 40
11.39099458029781
100
AcDbArc
 50
195.6991739239
 51
211.7569450809
  0
ARC
  5
1CD
330
1F
100
AcDbEntity
  8
0
  6
Continuous
 62
     7
370
    15
100
AcDbCircle
 10
245.4053074991
 20
30.2016995415
 30
0.0
 40
9.470889359197066
100
AcDbArc
 50
193.1269352432
 51
248.2162297357
  0
SPLINE
  5
1CE
330
1F
100
AcDbEntity
  8
0
  6
Continuous
 62
     7
370
    15
100
AcDbSpline
210
0.0
220
0.0
230
1.0
 70
     8
 71
     3
 72
     8
 73
     4
 74
     0
 42
0.000000001
 43
0.00000001
 40
0.0
 40
0.0
 40
0.0
 40
0.0
 40
0.0011891741919631
 40
0.0011891741919631
 40
0.0011891741919631
 40
0.0011891741919631
 10
236.5359521037269
 20
28.45889486343651
 30
0.0
 10
236.4182159237354
 20
28.32246224799104
 30
0.0
 10
236.300192254473
 20
28.18642805299684
 30
0.0
 10
236.181899024124
 20
28.05077384379447
 30
0.0
  0
ELLIPSE
  5
1CF
330
1F
100
AcDbEntity
  8
0
  6
Continuous
 62
     7
370
    15
100
AcDbEllipse
 10
238.8713471561
 20
31.8417798905
 30
0.0
 11
-3.002985189937135E-5
 21
0.4267244807413703
 31
0.0
210
0.0
220
0.0
230
1.0
 40
0.7174342186
 41
3.534193645557642
 42
5.104989972352337
  0
LINE
  5
1D0
330
1F
100
AcDbEntity
  8
0
  6
Continuous
 62
     7
370
    15
100
AcDbLine
 10
234.7368826494
 20
28.9930690083
 30
0.0
 11
235.1737137624
 21
29.2452983188
 31
0.0
  0
LINE
  5
1D1
330
1F
100
AcDbEntity
  8
0
  6
Continuous
 62
     7
370
    15
100
AcDbLine
 10
236.1818990241
 20
28.0507738438
 30
0.0
 11
234.838808655
 21
28.8261234101
 31
0.0
  0
SPLINE
  5
1D2
330
1F
100
AcDbEntity
  8
0
  6
Continuous
 62
     7
370
    15
100
AcDbSpline
210
0.0
220
0.0
230
1.0
 70
     8
 71
     3
 72
    10
 73
     6
 74
     0
 42
0.000000001
 43
0.00000001
 40
0.0
 40
0.0
 40
0.0
 40
0.0
 40
0.5
 40
0.5
 40
1.0
 40
1.0
 40
1.0
 40
1.0
 10
234.8388086550322
 20
28.82612341009155
 30
0.0
 10
234.812348911608
 20
28.84139829483528
 30
0.0
 10
234.7900482525675
 20
28.86531950854373
 30
0.0
 10
234.7559768702215
 20
28.92338998686395
 30
0.0
 10
234.7441260617839
 20
28.95737105422378
 30
0.0
 10
234.736882649389
 20
28.99306900833021
 30
0.0
  0
ARC
  5
1D3
330
1F
100
AcDbEntity
  8
0
  6
Continuous
 62
     7
370
    15
100
AcDbCircle
 10
244.4944080753
 20
31.226684378
 30
0.0
 40
9.938329696720372
100
AcDbArc
 50
195.5710553846
 51
238.0654353267
  0
ELLIPSE
  5
1D4
330
1F
100
AcDbEntity
  8
0
  6
Continuous
 62
     7
370
    15
100
AcDbEllipse
 10
238.634951053
 20
31.7052669614
 30
0.0
 11
0.1300037894604884
 21
0.4852718104954725
 31
0.0
210
0.0
220
0.0
230
1.0
 40
0.5176380889
 41
3.619174351347829
 42
5.189970678142618
  0
LWPOLYLINE
  5
1D5
330
1F
100
AcDbEntity
  8
0
  6
Continuous
 62
     7
370
     0
100
AcDbPolyline
 90
        8
 70
   128
 43
0.0
 10
255.1547332285
 20
31.8106638008
 10
255.216772161
 20
30.6392922266
 10
255.4020180681
 20
29.5559927685
 10
255.7078705032
 20
28.5759725764
 10
256.1300359686
 20
27.7129889853
 10
256.6625881866
 20
26.9791563934
 10
257.2980512913
 20
26.3847762015
 10
257.7440759143
 20
26.0876037199
  0
LWPOLYLINE
  5
1D6
330
1F
100
AcDbEntity
  8
0
  6
Continuous
 62
     7
370
     0
100
AcDbPolyline
 90
       21
 70
   128
 43
0.0
 10
270.2430600723
 20
47.7388252794
 10
269.5628103301
 20
48.0540624827
 10
268.7119446247
 20
48.2678709403
 10
267.7948432543
 20
48.3222849112
 10
266.8243803118
 20
48.2165405425
 10
265.8141789695
 20
47.9521222534
 10
264.7784202399
 20
47.532741897
 10
263.7316439052
 20
46.9642866542
 10
262.6885444105
 20
46.2547363906
 10
261.6637645863
 20
45.4140516365
 10
260.6716900949
 20
44.4540337631
 10
259.7262474876
 20
43.3881593169
 10
258.8407087061
 20
42.2313908387
 10
258.0275047738
 20
40.9999668223
 10
257.2980512913
 20
39.7111737616
 10
256.6625881866
 20
38.383103486
 10
256.1300359686
 20
37.0343991911
 10
255.7078705032
 20
35.6839937288
 10
255.4020180681
 20
34.3508438316
 10
255.216772161
 20
33.0536640018
 10
255.1547332285
 20
31.8106638008
  0
LWPOLYLINE
  5
1D7
330
1F
100
AcDbEntity
  8
0
  6
Continuous
 62
     7
370
     0
100
AcDbPolyline
 90
       15
 70
   128
 43
0.0
 10
269.9797186431
 20
25.2868443899
 10
270.4130174598
 20
24.7491845322
 10
270.9462033526
 20
24.3556356852
 10
271.5665568461
 20
24.1155861972
 10
272.2592790285
 20
24.0347625954
 10
273.0078445889
 20
24.1150929763
 10
273.7943960383
 20
24.3546610094
 10
274.6001697111
 20
24.747751653
 10
275.4059433839
 20
25.2849874895
 10
276.1924948333
 20
25.9535524297
 10
276.9410603937
 20
26.7374974482
 10
277.6337825761
 20
27.6181210577
 10
278.2541360696
 20
28.5744154435
 10
278.7873219624
 20
29.5835676188
 10
279.2206207791
 20
30.6215036415
  0
LWPOLYLINE
  5
1D8
330
1F
100
AcDbEntity
  8
0
  6
Continuous
 62
     7
370
     0
100
AcDbPolyline
 90
       15
 70
   128
 43
0.0
 10
279.2205738726
 20
36.2935377572
 10
278.7872706267
 20
36.8311722504
 10
278.2540850635
 20
37.2246996518
 10
277.6337362004
 20
37.464732457
 10
276.9410223151
 20
37.5455447393
 10
276.1924679361
 20
37.4652087405
 10
275.4059296536
 20
37.2256408572
 10
274.6001701554
 20
36.8325559254
 10
273.7944106466
 20
36.2953308947
 10
273.0078723327
 20
35.626781143
 10
272.2593179019
 20
34.842854769
 10
271.5666039459
 20
33.9622521538
 10
270.9462549948
 20
33.0059798677
 10
270.4130693285
 20
31.9968495635
 10
269.9797659667
 20
30.9589338095
  0
LINE
  5
1D9
330
1F
100
AcDbEntity
  8
0
  6
Continuous
 62
     7
370
     0
100
AcDbLine
 10
240.3866459235
 20
36.7680368206
 30
0.0
 11
240.4804638344
 21
37.1958940736
 31
0.0
  0
LWPOLYLINE
  5
1DA
330
1F
100
AcDbEntity
  8
0
  6
Continuous
 62
     7
370
     0
100
AcDbPolyline
 90
       17
 70
   128
 43
0.0
 10
256.5404355565
 20
60.5959599312
 10
257.6468636832
 20
61.2232720784
 10
259.0804361027
 20
61.9131550333
 10
260.4990153304
 20
62.4564299365
 10
261.8926637663
 20
62.8492909741
 10
263.2516184587
 20
63.0889860291
 10
264.5663594964
 20
63.1738359613
 10
265.8276766992
 20
63.1032463698
 10
267.0267341375
 20
62.8777117572
 10
268.1551320317
 20
62.4988120655
 10
269.2049655945
 20
61.9692016077
 10
270.168880407
 20
61.2925904742
 10
271.0401239385
 20
60.4737185417
 10
271.81259285
 20
59.5183222693
 10
272.4808757505
 20
58.4330945126
 10
273.040291105
 20
57.2256376383
 10
273.4869200306
 20
55.9044102669
  0
LWPOLYLINE
  5
1DB
330
1F
100
AcDbEntity
  8
0
  6
Continuous
 62
     7
370
     0
100
AcDbPolyline
 90
       20
 70
   128
 43
0.0
 10
240.027204662
 20
37.1017154383
 10
240.4900160173
 20
38.9505490364
 10
241.0649427414
 20
40.8142753653
 10
241.7480152566
 20
42.6800263388
 10
242.5345172931
 20
44.5349198919
 10
243.419018453
 20
46.3661489242
 10
244.3954117038
 20
48.1610697272
 10
245.4569555449
 20
49.907289282
 10
246.5963205538
 20
51.5927508274
 10
247.8056399924
 20
53.2058171053
 10
249.0765641228
 20
54.7353507104
 10
250.4003178576
 20
56.170790988
 10
251.767761348
 20
57.5022269502
 10
253.1694530895
 20
58.7204657064
 10
254.5957151109
 20
59.8170959351
 10
256.0366997955
 20
60.7845459603
 10
257.482457874
 20
61.6161360295
 10
258.9230071196
 20
62.3061244348
 10
260.3484012694
 20
62.8497471558
 10
261.5491423454
 20
63.1959752235
  0
LWPOLYLINE
  5
1DC
330
1F
100
AcDbEntity
  8
0
  6
Continuous
 62
     7
370
     0
100
AcDbPolyline
 90
       26
 70
   128
 43
0.0
 10
244.5304538411
 20
36.0578401502
 10
244.7792883314
 20
37.591844953
 10
245.1446474702
 20
39.1583631686
 10
245.6230304162
 20
40.7423845476
 10
246.2098533431
 20
42.3287311266
 10
246.8994933616
 20
43.9022026627
 10
247.6853423975
 20
45.4477222801
 10
248.5598705096
 20
46.9504809365
 10
249.514698041
 20
48.3960793212
 10
250.5406759126
 20
49.7706658288
 10
251.6279732882
 20
51.0610692838
 10
252.7661717734
 20
52.254925146
 10
253.9443652433
 20
53.340793986
 10
255.1512643445
 20
54.3082710975
 10
256.3753046687
 20
55.148086194
 10
257.6047575614
 20
55.8521922359
 10
258.8278425058
 20
56.4138425368
 10
260.0328400018
 20
56.8276554093
 10
261.2082038621
 20
57.0896657324
 10
262.3426718463
 20
57.1973629446
 10
263.425373575
 20
57.1497151
 10
264.4459346889
 20
56.9471787565
 10
265.3945762547
 20
56.5916946005
 10
266.2622084666
 20
56.0866688524
 10
267.0405177438
 20
55.4369406274
 10
267.2962349352
 20
55.1700374289
  0
LWPOLYLINE
  5
1DD
330
1F
100
AcDbEntity
  8
0
  6
Continuous
 62
     7
370
     0
100
AcDbPolyline
 90
       10
 70
   128
 43
0.0
 10
249.8351540665
 20
24.9232809103
 10
249.514698041
 20
25.0007440923
 10
248.5598705096
 20
25.3439220749
 10
247.6853423975
 20
25.8369720652
 10
246.8994933616
 20
26.4751696988
 10
246.2098533431
 20
27.2523998179
 10
245.6230304162
 20
28.1612150673
 10
245.1446474702
 20
29.1929072535
 10
244.7792883314
 20
30.3375907864
 10
244.5304538411
 20
31.584297402
  0
LWPOLYLINE
  5
1DE
330
1F
100
AcDbEntity
  8
0
  6
Continuous
 62
     7
370
     0
100
AcDbPolyline
 90
       18
 70
   128
 43
0.0
 10
258.3924112883
 20
22.0473371256
 10
257.6468636832
 20
21.5627499308
 10
256.2083407041
 20
20.7335248084
 10
254.7749444777
 20
20.0461680794
 10
253.3567164016
 20
19.5054948971
 10
251.9635916161
 20
19.1152928494
 10
250.6053294046
 20
18.8782954263
 10
249.2914448271
 20
18.7961628702
 10
248.0311420642
 20
18.8694705459
 10
246.8332499388
 20
19.0977049097
 10
245.7061600674
 20
19.4792671072
 10
244.6577680738
 20
20.0114841735
 10
243.6954182786
 20
20.6906277581
 10
242.825852249
 20
21.5119402437
 10
242.0551615724
 20
22.4696680744
 10
241.3887451828
 20
23.5571020611
 10
240.8312715396
 20
24.766624382
 10
240.3866459235
 20
26.0897619474
  0
LWPOLYLINE
  5
1DF
330
1F
100
AcDbEntity
  8
0
  6
Continuous
 62
     7
370
     0
100
AcDbPolyline
 90
       23
 70
   128
 43
0.0
 10
249.8779488739
 20
30.8054613131
 10
249.939308125
 20
32.2606056396
 10
250.1227760627
 20
33.7721319715
 10
250.4265293002
 20
35.325018081
 10
250.8475490012
 20
36.9038306884
 10
251.381650883
 20
38.4928788445
 10
252.0235268009
 20
40.0763698748
 10
252.7667975038
 20
41.6385663343
 10
253.6040760334
 20
43.1639424125
 10
254.5270411397
 20
44.6373382366
 10
255.5265199807
 20
46.0441105372
 10
256.5925792866
 20
47.3702781789
 10
257.7146240811
 20
48.602661112
 10
258.881502979
 20
49.7290113612
 10
260.0816190135
 20
50.7381347517
 10
261.3030448924
 20
51.6200021619
 10
262.5336415363
 20
52.3658491973
 10
263.7611787232
 20
52.9682632948
 10
264.9734566368
 20
53.4212573927
 10
266.1584271146
 20
53.720329432
 10
267.3043133878
 20
53.8625071004
 10
268.3997271236
 20
53.8463773725
 10
268.5321653392
 20
53.8332635228
  0
ARC
  5
1E0
330
1F
100
AcDbEntity
  8
0
  6
Continuous
 62
     7
370
     0
100
AcDbCircle
 10
260.3637076757
 20
30.3101489983
 30
0.0
 40
10.4974507352773
100
AcDbArc
 50
177.2955485321
 51
213.0515471072
  0
LWPOLYLINE
  5
1E1
330
1F
100
AcDbEntity
  8
0
  6
Continuous
 62
     7
370
     0
100
AcDbPolyline
 90
       17
 70
   128
 43
0.0
 10
250.5850556551
 20
30.8054613131
 10
250.6465945232
 20
29.4397476637
 10
250.8305796556
 20
28.1590993493
 10
251.1351231159
 20
26.9766575546
 10
251.5570998759
 20
25.9045557325
 10
252.0921798832
 20
24.9537950984
 10
252.7348724928
 20
24.134131743
 10
253.4785828087
 20
23.4539765216
 10
254.3156793568
 20
22.9203087471
 10
255.2375723938
 20
22.538604573
 10
256.2348020494
 20
22.3127808008
 10
257.297135398
 20
22.2451546879
 10
258.4136714619
 20
22.3364201696
 10
259.5729530701
 20
22.5856407388
 10
260.7630844246
 20
22.9902590551
 10
261.9718531671
 20
23.546123187
 10
262.0634863121
 20
23.5940611738
  0
LWPOLYLINE
  5
1E2
330
1F
100
AcDbEntity
  8
0
  6
Continuous
 62
     7
370
     0
100
AcDbPolyline
 90
       32
 70
   128
 43
0.0
 10
274.56247047
 20
45.2452827333
 10
274.5121143387
 20
46.0194975592
 10
274.3281292062
 20
47.3001458736
 10
274.023585746
 20
48.4825876683
 10
273.6016089859
 20
49.5546894905
 10
273.0665289787
 20
50.5054501246
 10
272.4238363691
 20
51.3251134799
 10
271.6801260531
 20
52.0052687014
 10
270.843029505
 20
52.5389364759
 10
269.9211364681
 20
52.9206406499
 10
268.9239068125
 20
53.1464644221
 10
267.8615734639
 20
53.2140905351
 10
266.7450374
 20
53.1228250533
 10
265.5857557918
 20
52.8736044841
 10
264.3956244373
 20
52.4689861679
 10
263.1868556947
 20
51.913122036
 10
261.9718531671
 20
51.2117160066
 10
260.7630844246
 20
50.3719654549
 10
259.5729530701
 20
49.4024873577
 10
258.4136714619
 20
48.3132298723
 10
257.297135398
 20
47.1153702546
 10
256.2348020494
 20
45.821200165
 10
255.2375723938
 20
44.4439995402
 10
254.3156793568
 20
42.997900322
 10
253.4785828087
 20
41.4977414454
 10
252.7348724928
 20
39.9589165705
 10
252.0921798832
 20
38.3972161228
 10
251.5570998759
 20
36.8286652623
 10
251.1351231159
 20
35.2693594434
 10
250.8305796556
 20
33.7352992539
 10
250.6465945232
 20
32.2422262272
 10
250.5850556551
 20
30.8054613131
  0
LWPOLYLINE
  5
1E3
330
1F
100
AcDbEntity
  8
0
  6
Continuous
 62
     7
370
     0
100
AcDbPolyline
 90
       20
 70
   128
 43
0.0
 10
234.838808655
 20
40.0969126986
 10
235.3016200104
 20
41.9457462967
 10
235.8765467345
 20
43.8094726255
 10
236.5596192496
 20
45.6752235991
 10
237.3461212862
 20
47.5301171521
 10
238.2306224461
 20
49.3613461845
 10
239.2070156969
 20
51.1562669875
 10
240.268559538
 20
52.9024865423
 10
241.4079245469
 20
54.5879480877
 10
242.6172439855
 20
56.2010143656
 10
243.8881681158
 20
57.7305479707
 10
245.2119218506
 20
59.1659882482
 10
246.579365341
 20
60.4974242105
 10
247.9810570826
 20
61.7156629667
 10
249.407319104
 20
62.8122931954
 10
250.8483037885
 20
63.7797432205
 10
252.2940618671
 20
64.6113332898
 10
253.7346111126
 20
65.3013216951
 10
255.1600052624
 20
65.8449444161
 10
256.3523761007
 20
66.1891251859
  0
LWPOLYLINE
  5
1E4
330
1F
100
AcDbEntity
  8
0
  6
Continuous
 62
     7
370
     0
100
AcDbPolyline
 90
       21
 70
   128
 43
0.0
 10
244.8044577189
 20
33.7343254142
 10
244.86581697
 20
35.1894697408
 10
245.0492849077
 20
36.7009960727
 10
245.3530381452
 20
38.2538821822
 10
245.7740578462
 20
39.8326947895
 10
246.3081597279
 20
41.4217429456
 10
246.9500356459
 20
43.005233976
 10
247.6933063488
 20
44.5674304354
 10
248.5305848784
 20
46.0928065136
 10
249.4535499847
 20
47.5662023378
 10
250.4530288256
 20
48.9729746383
 10
251.5190881316
 20
50.2991422801
 10
252.6411329261
 20
51.5315252132
 10
253.808011824
 20
52.6578754624
 10
255.0081278585
 20
53.6669988529
 10
256.2295537373
 20
54.5488662631
 10
257.4601503813
 20
55.2947132984
 10
258.6876875681
 20
55.897127396
 10
259.8999654818
 20
56.3501214939
 10
261.0849359596
 20
56.6491935332
 10
261.5288394988
 20
56.7222664681
  0
ARC
  5
1E5
330
1F
100
AcDbEntity
  8
0
  6
Continuous
 62
     7
370
     0
100
AcDbCircle
 10
257.0345960353
 20
33.4974509566
 30
0.0
 40
12.23243200462172
100
AcDbArc
 50
178.8904287357
 51
200.2245912421
  0
LWPOLYLINE
  5
1E6
330
1F
100
AcDbEntity
  8
0
  6
Continuous
 62
     7
370
     0
100
AcDbPolyline
 90
       28
 70
   128
 43
0.0
 10
252.3263061037
 20
31.8106638008
 10
252.3864099123
 20
33.1254730616
 10
252.5660166759
 20
34.4942617664
 10
252.8630206694
 20
35.9009821189
 10
253.2739397925
 20
37.3291416092
 10
253.7939563942
 20
38.7619963732
 10
254.4169737553
 20
40.1827474987
 10
255.1356875669
 20
41.5747379778
 10
255.9416715667
 20
42.9216479948
 10
256.8254763292
 20
44.2076862614
 10
257.7767400516
 20
45.4177751546
 10
258.7843100365
 20
46.5377274886
 10
259.8363734471
 20
47.5544128462
 10
260.9205958018
 20
48.4559115212
 10
262.0242655848
 20
49.2316542659
 10
263.134443277
 20
49.8725462058
 10
264.2381130601
 20
50.371073469
 10
265.3223354148
 20
50.7213912791
 10
266.3743988254
 20
50.91939248
 10
267.3819688103
 20
50.9627556888
 10
268.3332325327
 20
50.8509725113
 10
269.2170372952
 20
50.5853535033
 10
270.023021295
 20
50.1690128047
 10
270.7417351066
 20
49.6068316295
 10
271.3647524677
 20
48.905401038
 10
271.8847690694
 20
48.0729446625
 10
272.2956881925
 20
47.119222293
 10
272.5033796952
 20
46.4339705357
  0
LWPOLYLINE
  5
1E7
330
1F
100
AcDbEntity
  8
0
  6
Continuous
 62
     7
370
     0
100
AcDbPolyline
 90
       14
 70
   128
 43
0.0
 10
260.0043955372
 20
24.7827489762
 10
259.8363734471
 20
24.7378539438
 10
258.7843100365
 20
24.5398527429
 10
257.7767400516
 20
24.4964895342
 10
256.8254763292
 20
24.6082727116
 10
255.9416715667
 20
24.8738917196
 10
255.1356875669
 20
25.2902324183
 10
254.4169737553
 20
25.8524135935
 10
253.7939563942
 20
26.553844185
 10
253.2739397925
 20
27.3863005604
 10
252.8630206694
 20
28.3400229299
 10
252.5660166759
 20
29.4038297707
 10
252.3864099123
 20
30.5652489202
 10
252.3263061037
 20
31.8106638008
  0
LWPOLYLINE
  5
1E8
330
1F
100
AcDbEntity
  8
0
  6
Continuous
 62
     7
370
     0
100
AcDbPolyline
 90
       19
 70
   128
 43
0.0
 10
238.3051683771
 20
39.1718914364
 10
238.7676078099
 20
40.9948104877
 10
239.3474397515
 20
42.8321544708
 10
240.0401170569
 20
44.6695146076
 10
240.8402076274
 20
46.4924819936
 10
241.7414370108
 20
48.2867605946
 10
242.736737606
 20
50.038279359
 10
243.8183040889
 20
51.7333025654
 10
244.9776546231
 20
53.3585375408
 10
246.2056973756
 20
54.9012389036
 10
247.492801817
 20
56.3493085157
 10
248.8288742455
 20
57.6913903579
 10
250.2034369438
 20
58.9169595859
 10
251.605710347
 20
60.0164050681
 10
253.0246975779
 20
60.9811047577
 10
254.4492706865
 20
61.8034933082
 10
255.8682579174
 20
62.4771214027
 10
257.2705313206
 20
62.9967063298
 10
257.5855850574
 20
63.0928138231
  0
LWPOLYLINE
  5
1E9
330
1F
100
AcDbEntity
  8
0
  6
Continuous
 62
     7
370
     0
100
AcDbPolyline
 90
       22
 70
   128
 43
0.0
 10
237.7277007067
 20
39.1650896909
 10
238.1758816443
 20
40.9637823658
 10
238.7369150476
 20
42.7774970128
 10
239.4066568579
 20
44.5928366762
 10
240.1801600449
 20
46.3963923972
 10
241.0517111475
 20
48.1748422586
 10
242.0148724765
 20
49.9150497872
 10
243.0625296659
 20
51.6041609856
 10
244.1869442233
 20
53.2296992782
 10
245.37981069
 20
54.779657669
 10
246.6323179891
 20
56.2425874309
 10
247.9352145082
 20
57.6076826716
 10
249.2788764364
 20
58.8648601508
 10
250.6533788501
 20
60.0048337601
 10
252.0485690231
 20
61.0191831142
 10
253.4541414197
 20
61.9004157482
 10
254.8597138164
 20
62.6420224603
 10
256.2549039894
 20
63.238525392
 10
257.629406403
 20
63.6855184899
 10
258.9730683312
 20
63.9797000514
 10
260.2759648504
 20
64.118897112
 10
260.9036260774
 20
64.1300822218
  0
LINE
  5
1EA
330
1F
100
AcDbEntity
  8
0
  6
Continuous
 62
     7
370
     0
100
AcDbLine
 10
268.1301426633
 20
25.7741838961
 30
0.0
 11
268.2185310109
 21
25.4443211035
 31
0.0
  0
LWPOLYLINE
  5
1EB
330
1F
100
AcDbEntity
  8
0
  6
Continuous
 62
     7
370
     0
100
AcDbPolyline
 90
        3
 70
   128
 43
0.0
 10
278.6297477619
 20
36.2485720766
 10
278.1791564048
 20
36.7581657099
 10
277.8170425629
 20
37.01577732
  0
LWPOLYLINE
  5
1EC
330
1F
100
AcDbEntity
  8
0
  6
Continuous
 62
     7
370
     0
100
AcDbPolyline
 90
       13
 70
   128
 43
0.0
 10
270.8762077805
 20
24.8583803597
 10
271.0081247445
 20
24.7924816137
 10
271.6481863859
 20
24.5990407566
 10
272.3587710503
 20
24.5734933065
 10
273.1211039387
 20
24.7165142686
 10
273.91504298
 20
25.024324797
 10
274.7196110173
 20
25.4887920385
 10
275.5135500586
 20
26.0976440154
 10
276.2758829469
 20
26.8347938713
 10
276.9864676114
 20
27.6807649117
 10
277.6265292528
 20
28.6132052099
 10
278.1791564048
 20
29.6074781814
 10
278.6297477619
 20
30.637313522
  0
LINE
  5
1ED
330
1F
100
AcDbEntity
  8
0
  6
Continuous
 62
     7
370
     0
100
AcDbLine
 10
267.5931514772
 20
26.0841823093
 30
0.0
 11
268.1301426633
 21
25.7741838961
 31
0.0
  0
LINE
  5
1EE
330
1F
100
AcDbEntity
  8
0
  6
Continuous
 62
     7
370
     0
100
AcDbLine
 10
238.7675335745
 20
37.2193675416
 30
0.0
 11
238.7723887162
 21
37.6219879138
 31
0.0
  0
LWPOLYLINE
  5
1EF
330
1F
100
AcDbEntity
  8
0
  6
Continuous
 62
     7
370
     0
100
AcDbPolyline
 90
        3
 70
   128
 43
0.0
 10
238.8142066254
 20
38.4848966094
 10
238.8288928256
 20
38.6745118681
 10
238.8479410307
 20
38.8903751011
  0
LWPOLYLINE
  5
1F0
330
1F
100
AcDbEntity
  8
0
  6
Continuous
 62
     7
370
     0
100
AcDbPolyline
 90
        3
 70
   128
 43
0.0
 10
238.8593312517
 20
35.536916528
 10
238.8288928256
 20
35.8350670985
 10
238.7675335745
 20
37.2193675416
  0
LWPOLYLINE
  5
1F1
330
1F
100
AcDbEntity
  8
0
  6
Continuous
 62
     7
370
     0
100
AcDbPolyline
 90
       19
 70
   128
 43
0.0
 10
207.6914193955
 20
61.1055714175
 10
207.7529959321
 20
62.2259914685
 10
207.9366719503
 20
63.3983355776
 10
208.2393047024
 20
64.6025446121
 10
208.6557160583
 20
65.8180142216
 10
209.1787811042
 20
67.0239473841
 10
209.799550052
 20
68.1997102488
 10
210.5074013731
 20
69.325185187
 10
211.2902235349
 20
70.3811150106
 10
212.1346222334
 20
71.3494324676
 10
213.0261495726
 20
72.2135693777
 10
213.9495512727
 20
72.9587401188
 10
214.8890276744
 20
73.5721946131
 10
215.8285040762
 20
74.0434364839
 10
216.7519057762
 20
74.3644026522
 10
217.6434331154
 20
74.529601298
 10
218.4878318139
 20
74.5362058265
 10
219.2706539758
 20
74.3841032324
 10
219.4260463082
 20
74.3321560706
  0
ARC
  5
1F2
330
1F
100
AcDbEntity
  8
0
  6
Continuous
 62
     7
370
     0
100
AcDbCircle
 10
213.1496802463
 20
60.674195303
 30
0.0
 40
5.475280528698279
100
AcDbArc
 50
175.4812046478
 51
223.514234169
  0
LINE
  5
1F3
330
1F
100
AcDbEntity
  8
0
  6
Continuous
 62
     7
370
     0
100
AcDbLine
 10
244.5304538411
 20
38.7407271677
 30
0.0
 11
244.247565155
 21
38.9040353301
 31
0.0
  0
LINE
  5
1F4
330
1F
100
AcDbEntity
  8
0
  6
Continuous
 62
     7
370
     0
100
AcDbLine
 10
239.1541898685
 20
32.0050615128
 30
0.0
 11
244.5304538411
 21
28.9014103845
 31
0.0
  0
LINE
  5
1F5
330
1F
100
AcDbEntity
  8
0
  6
Continuous
 62
     7
370
     0
100
AcDbLine
 10
238.9177937655
 20
31.8685485838
 30
0.0
 11
239.1541898685
 21
32.0050615128
 31
0.0
  0
LINE
  5
1F6
330
1F
100
AcDbEntity
  8
0
  6
Continuous
 62
     7
370
     0
100
AcDbLine
 10
280.9818084113
 20
32.8124043127
 30
0.0
 11
280.7166433684
 21
33.0402160913
 31
0.0
  0
LINE
  5
1F7
330
1F
100
AcDbEntity
  8
0
  6
Continuous
 62
     7
370
     0
100
AcDbLine
 10
276.0850939516
 20
35.7139526575
 30
0.0
 11
280.7166433684
 21
33.0402160913
 31
0.0
  0
LINE
  5
1F8
330
1F
100
AcDbEntity
  8
0
  6
Continuous
 62
     7
370
     0
100
AcDbLine
 10
240.1035195176
 20
25.5817171304
 30
0.0
 11
240.027204662
 21
25.8309261498
 31
0.0
  0
LINE
  5
1F9
330
1F
100
AcDbEntity
  8
0
  6
Continuous
 62
     7
370
     0
100
AcDbLine
 10
244.2476111287
 20
28.4115124374
 30
0.0
 11
238.9885044436
 21
31.4475301032
 31
0.0
  0
LINE
  5
1FA
330
1F
100
AcDbEntity
  8
0
  6
Continuous
 62
     7
370
     0
100
AcDbLine
 10
239.1391628702
 20
28.0656780513
 30
0.0
 11
239.0900569042
 21
28.2262355016
 31
0.0
  0
LWPOLYLINE
  5
1FB
330
1F
100
AcDbEntity
  8
0
  6
Continuous
 62
     7
370
     0
100
AcDbPolyline
 90
        3
 70
   128
 43
0.0
 10
238.7730149076
 20
27.3776196606
 10
238.7676078099
 20
27.3903441567
 10
238.3051683771
 20
28.6793420037
  0
ARC
  5
1FC
330
1F
100
AcDbEntity
  8
0
  6
Continuous
 62
     7
370
     0
100
AcDbCircle
 10
248.7487698922
 20
31.7895969173
 30
0.0
 40
11.45338413780821
100
AcDbArc
 50
195.7923389603
 51
210.4893931685
  0
LINE
  5
1FD
330
1F
100
AcDbEntity
  8
0
  6
Continuous
 62
     7
370
     0
100
AcDbLine
 10
234.9208320084
 20
28.5589065662
 30
0.0
 11
234.838808655
 21
28.8261234101
 31
0.0
  0
OLE2FRAME
  5
1FE
330
1F
100
AcDbEntity
  8
0
100
AcDbOle2Frame
 70
     2
  3
Paintbrush-Bild
 10
13.8511154363
 20
38.264191557
 30
0.0
 11
51.6290888628
 21
31.9806341108
 31
0.0
 71
     2
 72
     0
 73
     1
 90
    12928
310
80552BED0767C5B32B40DDAF6807D121434000000000000000006FFBDDFB85D0
310
4940DDAF6807D121434000000000000000006FFBDDFB85D04940416F4BD60AFB
310
3F4000000000000000002BED0767C5B32B40416F4BD60AFB3F40000000000000
310
0000000000000100000000010000010000000100000000000100000000320000
310
D0CF11E0A1B11AE1000000000000000000000000000000003E000300FEFF0900
310
0600000000000000000000000100000001000000000000000010000002000000
310
01000000FEFFFFFF0000000000000000FFFFFFFFFFFFFFFFFFFFFFFFFFFFFFFF
310
FFFFFFFFFFFFFFFFFFFFFFFFFFFFFFFFFFFFFFFFFFFFFFFFFFFFFFFFFFFFFFFF
310
FFFFFFFFFFFFFFFFFFFFFFFFFFFFFFFFFFFFFFFFFFFFFFFFFFFFFFFFFFFFFFFF
310
FFFFFFFFFFFFFFFFFFFFFFFFFFFFFFFFFFFFFFFFFFFFFFFFFFFFFFFFFFFFFFFF
310
FFFFFFFFFFFFFFFFFFFFFFFFFFFFFFFFFFFFFFFFFFFFFFFFFFFFFFFFFFFFFFFF
310
FFFFFFFFFFFFFFFFFFFFFFFFFFFFFFFFFFFFFFFFFFFFFFFFFFFFFFFFFFFFFFFF
310
FFFFFFFFFFFFFFFFFFFFFFFFFFFFFFFFFFFFFFFFFFFFFFFFFFFFFFFFFFFFFFFF
310
FFFFFFFFFFFFFFFFFFFFFFFFFFFFFFFFFFFFFFFFFFFFFFFFFFFFFFFFFFFFFFFF
310
FFFFFFFFFFFFFFFFFFFFFFFFFFFFFFFFFFFFFFFFFFFFFFFFFFFFFFFFFFFFFFFF
310
FFFFFFFFFFFFFFFFFFFFFFFFFFFFFFFFFFFFFFFFFFFFFFFFFFFFFFFFFFFFFFFF
310
FFFFFFFFFFFFFFFFFFFFFFFFFFFFFFFFFFFFFFFFFFFFFFFFFFFFFFFFFFFFFFFF
310
FFFFFFFFFFFFFFFFFFFFFFFFFFFFFFFFFFFFFFFFFFFFFFFFFFFFFFFFFFFFFFFF
310
FFFFFFFFFFFFFFFFFFFFFFFFFFFFFFFFFFFFFFFFFFFFFFFFFFFFFFFFFFFFFFFF
310
FFFFFFFFFFFFFFFFFFFFFFFFFFFFFFFFFFFFFFFFFFFFFFFFFFFFFFFFFFFFFFFF
310
FDFFFFFFFEFFFFFFFEFFFFFFFEFFFFFF05000000060000000700000008000000
310
090000000A0000000B0000000C0000000D0000000E0000000F00000010000000
310
11000000120000001300000014000000150000001600000017000000FEFFFFFF
310
FFFFFFFFFFFFFFFFFFFFFFFFFFFFFFFFFFFFFFFFFFFFFFFFFFFFFFFFFFFFFFFF
310
FFFFFFFFFFFFFFFFFFFFFFFFFFFFFFFFFFFFFFFFFFFFFFFFFFFFFFFFFFFFFFFF
310
FFFFFFFFFFFFFFFFFFFFFFFFFFFFFFFFFFFFFFFFFFFFFFFFFFFFFFFFFFFFFFFF
310
FFFFFFFFFFFFFFFFFFFFFFFFFFFFFFFFFFFFFFFFFFFFFFFFFFFFFFFFFFFFFFFF
310
FFFFFFFFFFFFFFFFFFFFFFFFFFFFFFFFFFFFFFFFFFFFFFFFFFFFFFFFFFFFFFFF
310
FFFFFFFFFFFFFFFFFFFFFFFFFFFFFFFFFFFFFFFFFFFFFFFFFFFFFFFFFFFFFFFF
310
FFFFFFFFFFFFFFFFFFFFFFFFFFFFFFFFFFFFFFFFFFFFFFFFFFFFFFFFFFFFFFFF
310
FFFFFFFFFFFFFFFFFFFFFFFFFFFFFFFFFFFFFFFFFFFFFFFFFFFFFFFFFFFFFFFF
310
FFFFFFFFFFFFFFFFFFFFFFFFFFFFFFFFFFFFFFFFFFFFFFFFFFFFFFFFFFFFFFFF
310
FFFFFFFFFFFFFFFFFFFFFFFFFFFFFFFFFFFFFFFFFFFFFFFFFFFFFFFFFFFFFFFF
310
FFFFFFFFFFFFFFFFFFFFFFFFFFFFFFFFFFFFFFFFFFFFFFFFFFFFFFFFFFFFFFFF
310
FFFFFFFFFFFFFFFFFFFFFFFFFFFFFFFFFFFFFFFFFFFFFFFFFFFFFFFFFFFFFFFF
310
FFFFFFFFFFFFFFFFFFFFFFFFFFFFFFFFFFFFFFFFFFFFFFFFFFFFFFFFFFFFFFFF
310
52006F006F007400200045006E00740072007900000000000000000000000000
310
0000000000000000000000000000000000000000000000000000000000000000
310
16000500FFFFFFFFFFFFFFFF020000000A00030000000000C000000000000046
310
000000000000000000000000C0003841181BD20103000000C000000000000000
310
01004F006C006500000000000000000000000000000000000000000000000000
310
0000000000000000000000000000000000000000000000000000000000000000
310
0A000200FFFFFFFFFFFFFFFFFFFFFFFF00000000000000000000000000000000
310
0000000000000000000000000000000000000000000000001400000000000000
310
010043006F006D0070004F0062006A0000000000000000000000000000000000
310
0000000000000000000000000000000000000000000000000000000000000000
310
120002010100000003000000FFFFFFFF00000000000000000000000000000000
310
0000000000000000000000000000000000000000010000004D00000000000000
310
01004F006C006500310030004E00610074006900760065000000000000000000
310
0000000000000000000000000000000000000000000000000000000000000000
310
1A000200FFFFFFFFFFFFFFFFFFFFFFFF00000000000000000000000000000000
310
0000000000000000000000000000000000000000040000002426000000000000
310
FEFFFFFF02000000FEFFFFFFFFFFFFFFFFFFFFFFFFFFFFFFFFFFFFFFFFFFFFFF
310
FFFFFFFFFFFFFFFFFFFFFFFFFFFFFFFFFFFFFFFFFFFFFFFFFFFFFFFFFFFFFFFF
310
FFFFFFFFFFFFFFFFFFFFFFFFFFFFFFFFFFFFFFFFFFFFFFFFFFFFFFFFFFFFFFFF
310
FFFFFFFFFFFFFFFFFFFFFFFFFFFFFFFFFFFFFFFFFFFFFFFFFFFFFFFFFFFFFFFF
310
FFFFFFFFFFFFFFFFFFFFFFFFFFFFFFFFFFFFFFFFFFFFFFFFFFFFFFFFFFFFFFFF
310
FFFFFFFFFFFFFFFFFFFFFFFFFFFFFFFFFFFFFFFFFFFFFFFFFFFFFFFFFFFFFFFF
310
FFFFFFFFFFFFFFFFFFFFFFFFFFFFFFFFFFFFFFFFFFFFFFFFFFFFFFFFFFFFFFFF
310
FFFFFFFFFFFFFFFFFFFFFFFFFFFFFFFFFFFFFFFFFFFFFFFFFFFFFFFFFFFFFFFF
310
FFFFFFFFFFFFFFFFFFFFFFFFFFFFFFFFFFFFFFFFFFFFFFFFFFFFFFFFFFFFFFFF
310
FFFFFFFFFFFFFFFFFFFFFFFFFFFFFFFFFFFFFFFFFFFFFFFFFFFFFFFFFFFFFFFF
310
FFFFFFFFFFFFFFFFFFFFFFFFFFFFFFFFFFFFFFFFFFFFFFFFFFFFFFFFFFFFFFFF
310
FFFFFFFFFFFFFFFFFFFFFFFFFFFFFFFFFFFFFFFFFFFFFFFFFFFFFFFFFFFFFFFF
310
FFFFFFFFFFFFFFFFFFFFFFFFFFFFFFFFFFFFFFFFFFFFFFFFFFFFFFFFFFFFFFFF
310
FFFFFFFFFFFFFFFFFFFFFFFFFFFFFFFFFFFFFFFFFFFFFFFFFFFFFFFFFFFFFFFF
310
FFFFFFFFFFFFFFFFFFFFFFFFFFFFFFFFFFFFFFFFFFFFFFFFFFFFFFFFFFFFFFFF
310
FFFFFFFFFFFFFFFFFFFFFFFFFFFFFFFFFFFFFFFFFFFFFFFFFFFFFFFFFFFFFFFF
310
0100000200000000000000000000000000000000000000000000000000000000
310
0000000000000000000000000000000000000000000000000000000000000000
310
0100FEFF030A0000FFFFFFFF0A00030000000000C00000000000004607000000
310
5042727573680007000000504272757368000700000050427275736800F439B2
310
7100000000000000000000000000000000000000000000000000000000000000
310
0000000000000000000000000000000000000000000000000000000000000000
310
0000000000000000000000000000000000000000000000000000000000000000
310
0000000000000000000000000000000000000000000000000000000000000000
310
0000000000000000000000000000000000000000000000000000000000000000
310
0000000000000000000000000000000000000000000000000000000000000000
310
0000000000000000000000000000000000000000000000000000000000000000
310
0000000000000000000000000000000000000000000000000000000000000000
310
0000000000000000000000000000000000000000000000000000000000000000
310
0000000000000000000000000000000000000000000000000000000000000000
310
0000000000000000000000000000000000000000000000000000000000000000
310
0000000000000000000000000000000000000000000000000000000000000000
310
20260000424D0E260000000000003E00000028000000B40200006E0000000100
310
01000000000000000000130B0000130B00000200000002000000000000FFFFFF
310
FFFFFFFFFFFFFFFFFFFFFFFFFFFFFFFFFFFFFFFFFFFFFFFFFFFFFFFFFFFFFFFF
310
FFFFFFFFFFFFFFFFFFFFFFFFFFFFFFFFFFFFFFFFFFFFFFFFFFFFFFFFFFFFFFFF
310
FFFFFFFFFFFFFFFFFFFFFFFFFFFFFFFFFFFFFFFFFFFFFFFFF000FFFFFFFFFFFF
310
FFFFFFFFFFFFFFFFFFFFFFFFFFFFFFFFFFFFFFFFFFFFFFFFFFFFFFFFFFFFFFFF
310
FFFFFFFFFFFFFFFFFFFFFFFFFFFFFFFFFFFFFFFFFFFFFFFFFFFFFFFFFFFFFFFF
310
FFFFFFFFFFFFFFFFFFFFFFFFFFFFFFFFF000FFFFFFFFFFFFFFFFFFFFFFFFFFFF
310
FFFFFFFFFFFFFFFFFFFFFFFFFFFFFFFFFFFFFFFFFFFFFFFFFFFFFFFFFFFFFFFF
310
FFFFFFFFFFFFFFFFFFFFFFFFFFFFFFFFFFFFFFFFFFFFFFFFFFFFFFFFFFFFFFFF
310
FFFFFFFFFFFFFFFFF000FFFFFFFFFFFFFFFFFFFFFFFFFFFFFFFFFFFFFFFFFFFF
310
FFFFFFFFFFFFFFFFFFFFFFFFFFFFFFFFFFFFFFFFFFFFFFFFFFFFFFFFFFFFFFFF
310
FFFFFFFFFFFFFFFFFFFFFFFFFFFFFFFFFFFFFFFFFFFFFFFFFFFFFFFFFFFFFFFF
310
F000FFFFFFFFFFFFFFFFFFFFFFFFFFFFFFFFFFFFFFFFFFFFFFFFFFFFFFFFFFFF
310
FFFFFFFFFFFFFFFFFFFFFFFFFFFFFFFFFFFFFFFFFFFFFFFFFFFFFFFFFFFFFFFF
310
FFFFFFFFFFFFFFFFFFFFFFFFFFFFFFFFFFFFFFFFFFFFFFFFF000FFFFFFFFFFFF
310
FFFFFFFFFFFFFFFFFFFFFFFFFFFFFFFFFFFFFFFFFFFFFFFFFFFFFFFFFFFFFFFF
310
FFFFFFFFFFFFFFFFFFFFFFFFFFFFFFFFFFFFFFFFFFFFFFFFFFFFFFFFFFFFFFFF
310
FFFFFFFFFFFFFFFFFFFFFFFFFFFFFFFFF000FFFFFFFFFFFFFFFFFFFFFFFFFFFF
310
FFFFFFFFFFFFFFFFFFFFFFFFFFFFFFFFFFFFFFFFFFFFFFFFFFFFFFFFFFFFFFFF
310
FFFFFFFFFFFFFFFFFFFFFFFFFFFFFFFFFFFFFFFFFFFFFFFFFFFFFFFFFFFFFFFF
310
FFFFFFFFFFFFFFFFF000FFFFFFFFFFFFFFFFFFFFFFFFFFFFFFFFFFFFFFFFFFFF
310
FFFFFFFFFFFFFFFFFFFFFFFFFFFFFFFFFFFFFFFFFFFFFFFFFFFFFFFFFFFFFFFF
310
FFFFFFFFFFFFFFFFFFFFFFFFFFFFFFFFFFFFFFFFFFFFFFFFFFFFFFFFFFFFFFFF
310
F000FFFFFFFFFFFFFFFFFFFFFFFFFFFFFFFFFFFFFFFFFFFFFFFFFFFFFFFFFFFF
310
FFFFFFFFFFFFFFFFFFFFFFFFFFFFFFFFFFFFFFFFFFFFFFFFFFFFFFFFFFFFFFFF
310
FFFFFFFFFFFFFFFFFFFFFFFFFFFFFFFFFFFFFFFFFFFFFFFFF000FFFFFFFFFFFF
310
FFFFFFFFFFFFFFFFFFFFFFFFFFFFFFFFFFFFFFFFFFFFFFFFFFFFFFFFFFFFFFFF
310
FFFFFFFFFFFFFFFFFFFFFFFFFFFFFFFFFFFFFFFFFFFFFFFFFFFFFFFFFFFFFFFF
310
FFFFFFFFFFFFFFFFFFFFFFFFFFFFFFFFF000FFFFFFFFFFFFFFFFFFFFFFFFFFFF
310
FFFFFFFFFFFFFFFFFFFFFFFFFFFFFFFFFFFFFFFFFFFFFFFFFFFFFFFFFFFFFFFF
310
FFFFFFFFFFFFFFFFFFFFFFFFFFFFFFFFFFFFFFFFFFFFFFFFFFFFFFFFFFFFFFFF
310
FFFFFFFFFFFFFFFFF000FFFFFFFFFFFFFFFFFFFFFFFFFFFFFFFFFFFFFFFFFFFF
310
FFFFFFFFFFFFFFFFFFFFFFFFFFFFFFFFFFFFFFFFFFFFFFFFFFFFFFFFFFFFFFFF
310
FFFFFFFFFFFFFFFFFFFFFFFFFFFFFFFFFFFFFFFFFFFFFFFFFFFFFFFFFFFFFFFF
310
F000FFFFFFFFFFFFFFFFFFFFFFFFFFFFFFFFFFFFFFFFFFFFFFFFFFFFFFFFFFFF
310
FFFFFFFFFFFFFFFFFFFFFFFFFFFFFFFFFFFFFFFFFFFFFFFFFFFFFFFFFFFFFFFF
310
FFFFFFFFFFFFFFFFFFFFFFFFFFFFFFFFFFFFFFFFFFFFFFFFF000FFFFFFFFFFFF
310
FFFFFFFFFFFFFFFFFFFFFFFFFFFFFFFFFFFFFFFFFFFFFFFFFFFFFFFFFFFFFFFF
310
FFFFFFFFFFFFFFFFFFFFFFFFFFFFFFFFFFFFFFFFFFFFFFFFFFFFFFFFFFFFFFFF
310
FFFFFFFFFFFFFFFFFFFFFFFFFFFFFFFFF000FFFFFFFFFFFFFFFFFFFFFFFFFFFF
310
FFFFFFFFFFFFFFFFFFFFFFFFFFFFFFFFFFFFFFFFFFFFFFFFFFFFFFFFFFFFFFFF
310
FFFFFFFFFFFFFFFFFFFFFFFFFFFFFFFFFFFFFFFFFFFFFFFFFFFFFFFFFFFFFFFF
310
FFFFFFFFFFFFFFFFF000FFFFFFFFFFFFFFFFFFFFFFFFFFFFFFFFFFFFFFFFFFFF
310
FFFFFFFFFFFFFFFFFFFFFFFFFFFFFFFFFFFFFFFFFFFFFFFFFFFFFFFFFFFFFFFF
310
FFFFFFFFFFFFFFFFFFFFFFFFFFFFFFFFFFFFFFFFFFFFFFFFFFFFFFFFFFFFFFFF
310
F000FFFFFFFFFFFFFFFFFFFFFFFFFFFFFFFFFFFFFFFFFFFFFFFFFFFFFFFFFFFF
310
FFFFFFFFFFFFFFFFFFFFFFFFFFFFFFFFFFFFFFFFFFFFFFFFFFFFFFFFFFFFFFFF
310
FFFFFFFFFFFFFFFFFFFFFFFFFFFFFFFFFFFFFFFFFFFFFFFFF000FFFFFFFFFFFF
310
FFFFFFFFFFFFFFFFFFFFFFFFFFFFFFFFFFFFFFFFFFFFFFFFFFFFFFFFFFFFFFFF
310
FFFFFFFFFFFFFFFFFFFFFFFFFFFFFFFFFFFFFFFFFFFFFFFFFFFFFFFFFFFFFFFF
310
FFFFFFFFFFFFFFFFFFFFFFFFFFFFFFFFF000FFFFFFFFFFFFFFFFFFFFFFFFFFFF
310
FFFFFFFFFFFFFFFFFFFFFFFFFFFFFFFFFFFFFFFFFFFFFFFFFFFFFFFFFFFFFFFF
310
FFFFFFFFFFFFFFFFFFFFFFFFFFFFFFFFFFFFFFFFFFFFFFFFFFFFFFFFFFFFFFFF
310
FFFFFFFFFFFFFFFFF000FFFFF80003FFFFFFFFFFFFFFFFFFFFFFFFFFFFFFFFFF
310
FFFFF00007FFFFFFFFFF00007FFFFFF800000000000000007FFFFFFFFFFFFFFF
310
FFFFFFFC001FFFFFFFFFFFFFFC001FFFFFFFFFFFFFFFFFFFFFFFFFFE0007FFFF
310
F000FFFF8000007FFFFFFFF8000FFFFFC0007FFFFF80007FFFFF0000007FFFFF
310
FFF8000007FFFFF800000000000000007FFFFFF0001FFFFFFFFFFFC00001FFFF
310
FFFFFFFFC00001FFFFFFFF000000000003FFFFE000007FFFF000FFFE0000000F
310
FFFFFFF0000FFFFF80007FFFFF80007FFFFC0000001FFFFFFFC0000001FFFFF8
310
00000000000000007FFFFFF0001FFFFFFFFFFE0000003FFFFFFFFFFE0000003F
310
FFFFFF000000000003FFFF0000000FFFF000FFF800000003FFFFFFF00007FFFF
310
80007FFFFF80007FFFF000000007FFFFFF000000003FFFF80000000000000000
310
7FFFFFF0001FFFFFFFFFF80000000FFFFFFFFFF80000000FFFFFFF0000000000
310
03FFFC00000003FFF000FFE000000000FFFFFFF00007FFFF80003FFFFF80007F
310
FFC000000001FFFFFC000000001FFFF800000000000000007FFFFFF0001FFFFF
310
FFFFE000000003FFFFFFFFE000000003FFFFFF000000000003FFF000000000FF
310
F000FF80000000007FFFFFF00007FFFF80003FFFFF80007FFF8000000000FFFF
310
F80000000007FFF800000000000000007FFFFFF0001FFFFFFFFFC000000001FF
310
FFFFFFC000000001FFFFFF000000000003FFC0000000007FF000FF0000000000
310
3FFFFFE00007FFFF00003FFFFF80007FFE00000000003FFFF00000000003FFF8
310
00000000000000007FFFFFF0001FFFFFFFFF8000000000FFFFFFFF8000000000
310
FFFFFF000000000003FF80000000003FF000FE00000000001FFFFFE00003FFFF
310
00003FFFFF80007FFC00000000001FFFE00000000001FFF8000001FFFE000000
310
7FFFFFF0001FFFFFFFFE00000000003FFFFFFE00000000003FFFFF0000000000
310
03FF00000000001FF000FC00000000000FFFFFE00003FFFF00001FFFFF80007F
310
F800000000001FFFC00000000000FFF8000001FFFE0000007FFFFFF0001FFFFF
310
FFFC00000000001FFFFFFC00000000001FFFFF000000000003FE00000000000F
310
F000F8000000000007FFFFE00003FFFF00001FFFFF80007FF800000000000FFF
310
800000000000FFF8000001FFFE0000007FFFFFF0001FFFFFFFF800000000000F
310
FFFFF800000000000FFFFF000000000003FC000000000007F000F80000000000
310
03FFFFC00003FFFE00001FFFFF80007FF0000000000007FF0000000000007FF8
310
000001FFFE0000007FFFFFF0001FFFFFFFF0000000000007FFFFF00000000000
310
07FFFF000000000003F8000000000003F000F0000000000003FFFFC00001FFFE
310
00001FFFFF80007FE0000000000007FE0000000000003FF8000001FFFE000000
310
7FFFFFF0001FFFFFFFF0000000000007FFFFF0000000000007FFFF0000000000
310
03F800001F800003F000E00001FFF00001FFFFC00001FFFE00000FFFFF80007F
310
E00001FFE00003FE00001FFF00003FF8000001FFFE0000007FFFFFF0001FFFFF
310
FFE000003E000003FFFFE000003E000003FFFF000000000003F00001FFF80001
310
F000E00007FFFC0001FFFFC00001FFFE00000FFFFF80007FC0000FFFFC0003FC
310
0000FFFFC0001FF8000001FFFE0000007FFFFFF0001FFFFFFFC00003FFE00001
310
FFFFC00003FFE00001FFFF0001FFFFFFFFF00007FFFE0001F000E0000FFFFF00
310
00FFFF800001FFFC00000FFFFF80007FC0001FFFFE0001FC0001FFFFE0001FF8
310
000001FFFE0000007FFFFFF0001FFFFFFF80000FFFF80000FFFF80000FFFF800
310
00FFFF0003FFFFFFFFE0000FFFFF8000F000C0003FFFFF8000FFFF800000FFFC
310
000007FFFF80007F80003FFFFF0001FC0003FFFFF0001FF8000001FFFE000000
310
7FFFFFF0001FFFFFFF80003FFFFE0000FFFF80003FFFFE0000FFFF0003FFFFFF
310
FFE0003FFFFF8000F000C0003FFFFF8000FFFF800000FFFC000007FFFF80007F
310
80007FFFFF8001F80007FFFFF8000FF8000001FFFE0000007FFFFFF0001FFFFF
310
FF00007FFFFF00007FFF00007FFFFF00007FFF0003FFFFFFFFE0003FFFFFC000
310
F000C0007FFFFFC000FFFF000000FFFC000007FFFF80007F8000FFFFFF8000F8
310
000FFFFFF8000FF8000001FFFE0000007FFFFFF0001FFFFFFF0000FFFFFF8000
310
7FFF0000FFFFFF80007FFF0003FFFFFFFFC0007FFFFFC00070008000FFFFFFC0
310
00FFFF000000FFF8000007FFFF80007F8000FFFFFF8000F8000FFFFFF8000FF8
310
000001FFFE0000007FFFFFF0001FFFFFFE0001FFFFFFC0003FFE0001FFFFFFC0
310
003FFF0003FFFFFFFFC0007FFFFFE00070008000FFFFFFC0007FFF0000007FF8
310
000003FFFF80007F0001FFFFFF8000F8000FFFFFF8000FF8000001FFFE000000
310
7FFFFFF0001FFFFFFE0001FFFFFFC0003FFE0001FFFFFFC0003FFF0003FFFFFF
310
FFC000FFFFFFE00070008000FFFFFFC0007FFF0000007FF8000003FFFF80007F
310
0001FFFFFF8000F8001FFFFFF8000FF8000001FFFE0000007FFFFFF0001FFFFF
310
FE0003FFFFFFE0003FFE0003FFFFFFE0003FFF0003FFFFFFFFC000FFFFFFE000
310
70008000FFFFFFC0007FFE0000007FF8000003FFFF80007F0001FFFFFF8000F0
310
001FFFFFF8000FF8000001FFFE0000007FFFFFF0001FFFFFFC0003FFFFFFE000
310
1FFC0003FFFFFFE0001FFF0003FFFFFFFFC000FFFFFFC00070008000FFFFFF80
310
007FFE0000007FF0000003FFFF80007F0001FFFFFF0000F0001FFFFFF8000FF8
310
000001FFFE0000007FFFFFF0001FFFFFFC0007FFFFFFF0001FFC0007FFFFFFF0
310
001FFF0003FFFFFFFFC000FFFFFFC00070008001FFFFFF0000FFFE0000003FF0
310
000001FFFF80007F0001FFFFFF0000F8001FFFFFF0000FF8000001FFFE000000
310
7FFFFFF0001FFFFFFC0007FFFFFFF0001FFC0007FFFFFFF0001FFF0003FFFFFF
310
FFC001FFFFFF80007000FFFFFFFFFE0000FFFE0008003FF0008001FFFF80007F
310
FFFFFFFFFC0000FFFFFFFFFFE0000FF8000001FFFE0000007FFFFFF0001FFFFF
310
F8000FFFFFFFF8000FF8000FFFFFFFF8000FFF0003FFFFFFFFFFFFFFFFFF0000
310
7000FFFFFFFFFC0000FFFC0008003FF0008001FFFF80007FFFFFFFFFF80001FF
310
FFFFFFFF80000FF8000001FFFE0000007FFFFFF0001FFFFFF8000FFFFFFFF800
310
0FF8000FFFFFFFF8000FFF0003FFFFFFFFFFFFFFFFFE0000F000FFFFFFFFE000
310
00FFFC000C003FE000C001FFFF80007FFFFFFFFFC00001FFFFFFFFFE00001FF8
310
000001FFFE0000007FFFFFF0001FFFFFF8000FFFFFFFF8000FF8000FFFFFFFF8
310
000FFF0003FFFFFFFFFFFFFFFFF00000F000FFFFFFFE000001FFFC000C001FE0
310
00C000FFFF80007FFFFFFFFE000001FFFFFFFFE000001FF80FFFFFFFFFFFFFC0
310
7FFFFFF0001FFFFFF8000FFFFFFFF8000FF8000FFFFFFFF8000FFF0003FFFFFF
310
FFFFFFFFFF800000F000FFFFFFC0000001FFFC001C001FE001C000FFFF80007F
310
FFFFFF80000003FFFFFFF80000001FF80FFFFFFFFFFFFFC07FFFFFF0001FFFFF
310
F8001FFFFFFFFC000FF8001FFFFFFFFC000FFF0003FFFFFFFFFFFFFFF0000001
310
F000FFFFF800000001FFF8001C001FE001C000FFFF80007FFFFFF800000003FF
310
FFFF800000003FF80FFFFFFFFFFFFFC07FFFFFF0001FFFFFF8001FFFFFFFFC00
310
0FF8001FFFFFFFFC000FFF0003FFFFFFFFFFFFFE00000001F000FFFFC0000000
310
03FFF8001E001FC001E000FFFF80007FFFFF8000000007FFFFFC000000003FF8
310
0FFFFFFFFFFFFFC07FFFFFF0001FFFFFF8001FFFFFFFFC000FF8001FFFFFFFFC
310
000FFF0003FFFFFFFFFFFFE000000003F000FFFE0000000007FFF8001E000FC0
310
01E0007FFF80007FFFFE0000000007FFFFE0000000007FF80FFFFFFFFFFFFFC0
310
7FFFFFF0001FFFFFF0001FFFFFFFFC0007F0001FFFFFFFFC0007FF0003FFFFFF
310
FFFFFF0000000003F000FFF80000000007FFF8001E000FC003E0007FFF80007F
310
FFF0000000000FFFFF8000000000FFF80FFFFFFFFFFFFFC07FFFFFF0001FFFFF
310
F0001FFFFFFFFC0007F0001FFFFFFFFC0007FF0003FFFFFFFFFFFC0000000007
310
F000FFE0000000000FFFF0003E000FC003E0007FFF80007FFFC0000000001FFF
310
FE0000000001FFF80FFFFFFFFFFFFFC07FFFFFF0001FFFFFF0001FFFFFFFFC00
310
07F0001FFFFFFFFC0007FF0003FFFFFFFFFFF0000000000FF000FFC000000000
310
1FFFF0003F000F8003F0003FFF80007FFF80000000003FFFF80000000003FFF8
310
0FFFFFFFFFFFFFC07FFFFFF0001FFFFFF0001FFFFFFFFC0007F0001FFFFFFFFC
310
0007FF0003FFFFFFFFFFE0000000001FF000FF00000000007FFFF0003F000780
310
03F0003FFF80007FFF00000000007FFFF00000000007FFF80FFFFFFFFFFFFFC0
310
7FFFFFF0001FFFFFF0001FFFFFFFFC0007F0001FFFFFFFFC0007FF0003FFFFFF
310
FFFF80000000007FF000FE0000000000FFFFE0003F00078007F0003FFF80007F
310
FE0000000001FFFFE0000000001FFFF80FFFFFFFFFFFFFC07FFFFFF0001FFFFF
310
F0001FFFFFFFFC0007F0001FFFFFFFFC0007FF0003FFFFFFFFFF0000000000FF
310
F000FC0000000003FFFFE0007F00078007F0003FFF80007FFC0000000007FFFF
310
C0000000007FFFF80FFFFFFFFFFFFFC07FFFFFF0001FFFFFF8001FFFFFFFFC00
310
0FF8001FFFFFFFFC000FFF0003FFFFFFFFFE0000000003FFF000FC000000000F
310
FFFFE0007F80070007F8001FFF80007FF8000000001FFFFF8000000001FFFFF8
310
0FFFFFFFFFFFFFC07FFFFFF0001FFFFFF8001FFFFFFFFC000FF8001FFFFFFFFC
310
000FFF0003FFFFFFFFFC000000000FFFF000F8000000007FFFFFE0007F800700
310
07F8001FFF80007FF000000000FFFFFF800000000FFFFFF80FFFFFFFFFFFFFC0
310
7FFFFFF0001FFFFFF8000FFFFFFFF8000FF8000FFFFFFFF8000FFF0003FFFFFF
310
FFFC000000007FFFF000F800000007FFFFFFC0007F8003000FF8001FFF80007F
310
F000000007FFFFFF000000007FFFFFF80FFFFFFFFFFFFFC07FFFFFF0001FFFFF
310
F8000FFFFFFFF8000FF8000FFFFFFFF8000FFF0003FFFFFFFFF80000000FFFFF
310
F000F0000000FFFFFFFFC000FF8003000FF8001FFF80007FE0000000FFFFFFFF
310
0000000FFFFFFFF8000001FFFE0000007FFFFFF0001FFFFFF8000FFFFFFFF800
310
0FF8000FFFFFFFF8000FFF0003FFFFFFFFF8000000FFFFFFF000F000000FFFFF
310
FFFFC000FFC002000FF8000FFF80007FE000001FFFFFFFFE000001FFFFFFFFF8
310
000001FFFE0000007FFFFFF0001FFFFFF8000FFFFFFFF8000FF8000FFFFFFFF8
310
000FFF0003FFFFFFFFF000001FFFFFFFF000E00000FFFFFFFFFFC000FFC00200
310
0FFC000FFF80007FE00001FFFFFFFFFE00001FFFFFFFFFF8000001FFFE000000
310
7FFFFFF0001FFFFFFC000FFFFFFFF8001FFC000FFFFFFFF8001FFF0003FFFFFF
310
FFF00001FFFFFFFFF000E00007FFFFFFFFFF8000FFC000001FFC000FFF80007F
310
C0000FFFFFFFFFFE0000FFFFFFFFFFF8000001FFFE0000007FFFFFF0001FFFFF
310
FC0007FFFFFFF0001FFC0007FFFFFFF0001FFF0003FFFFFFFFF00007FFFFFFFF
310
F000E0001FFFFFFFFFFF8000FFC000001FFC000FFF80007FC0003FFFFFFFFFFE
310
0001FFFFFFFFFFF8000001FFFE0000007FFFFFF0001FFFFFFC0007FFFFFFF000
310
1FFC0007FFFFFFF0001FFF0003FFFFFFFFF0001FFFFFFFFFF000E0003FFFFF00
310
03FF8001FFE000001FFC0007FF80007FC0007FFFFF0007FC0003FFFFF0003FF8
310
000001FFFE0000007FFFFFF0001FFFFFFC0003FFFFFFE0001FFC0003FFFFFFE0
310
001FFF0003FFFFFFFFF0003FFFFFFFFFF000E0003FFFFF0001FF8001FFE00000
310
1FFE0007FF80007FC0007FFFFE0003FC0007FFFFE0003FF8000001FFFE000000
310
7FFFFFF0001FFFFFFE0003FFFFFFE0003FFE0003FFFFFFE0003FFF0003FFFFFF
310
FFF0003FFFFF8001F000E0003FFFFF0001FF0001FFE000001FFE0007FF80007F
310
C0007FFFFE0003FC0007FFFFE0003FF8000001FFFE0000007FFFFFF0001FFFFF
310
FE0001FFFFFFC0003FFE0001FFFFFFC0003FFF0003FFFFFFFFF0003FFFFF0001
310
F000E0003FFFFF0003FF0001FFE000003FFE0007FF80007FC0007FFFFE0003FC
310
0007FFFFE0003FF8000001FFFE0000007FFFFFF0001FFFFFFF0001FFFFFFC000
310
7FFF0001FFFFFFC0007FFF0003FFFFFFFFF0003FFFFF0001F000E0003FFFFE00
310
03FF0003FFF000003FFE0003FF80007FC0007FFFFC0003FE0007FFFFE0003FF8
310
000001FFFE0000007FFFFFF0001FFFFFFF0000FFFFFF80007FFF0000FFFFFF80
310
007FFF0003FFFFFFFFF0003FFFFF0001F000E0003FFFFE0003FF0003FFF00000
310
3FFF0003FF80007FC0007FFFFC0007FE0007FFFFC0003FF8000001FFFE000000
310
7FFFFFF0001FFFFFFF80007FFFFF0000FFFF80007FFFFF0000FFFF0003FFFFFF
310
FFF0003FFFFF0003F000E0003FFFFC0003FE0003FFF000003FFF0003FF80007F
310
E0003FFFF80007FE0003FFFFC0007FF8000001FFFE0000007FFFFFF0001FFFFF
310
FF80003FFFFE0000FFFF80003FFFFE0000FFFF0003FFFFFFFFF0001FFFFE0003
310
F000F0001FFFF80003FE0003FFF000007FFF0001FF80007FE0003FFFF00007FE
310
0001FFFF80007FF8000001FFFE0000007FFFFFF0001FFFFFFFC0000FFFF80001
310
FFFFC0000FFFF80001FFFF0003FFFFFFFFF0001FFFFC0003F000F0000FFFF000
310
07FE0007FFF800007FFF0001FF80007FE0001FFFE00007FF0000FFFE00007FF8
310
000001FFFE0000007FFFFFF0001FFFFFFFC00003FFE00001FFFFC00003FFE000
310
01FFFF0003FFFFFFFFF8000FFFF80003F000F00003FFC00007FC0007FFF80000
310
7FFF8001FF80007FF00007FF80000FFF00007FF80000FFF8000001FFFE000000
310
7F80000000000001FFE000003E000003FFFFE000003E000003FFFF0003FFFFFF
310
FFF80003FFE00007F000F800000000000FFC0007FFF800007FFF8001FF80007F
310
F000000000000FFF000000000000FFF8000001FFFE0000007F80000000000001
310
FFF0000000000007FFFFF0000000000007FFFF0003FFFFFFFFFC00007E000007
310
F000F800000000000FFC0007FFF80000FFFF8000FF80007FF800000000001FFF
310
800000000001FFF8000001FFFE0000007F80000000000001FFF800000000000F
310
FFFFF800000000000FFFFF0003FFFFFFFFFC00000000000FF000FC0000000000
310
1FFC0007FFFC0000FFFF8000FF80007FF800000000003FFFC00000000001FFF8
310
000001FFFE0000007F80000000000001FFF800000000000FFFFFF80000000000
310
0FFFFF0003FFFFFFFFFE00000000001FF000FE00000000003FF8000FFFFC0000
310
FFFF8000FF80007FFC00000000003FFFC00000000003FFF8000001FFFE000000
310
7F80000000000001FFFC00000000001FFFFFFC00000000001FFFFF0003FFFFFF
310
FFFF00000000001FF000FF00000000003FF8000FFFFC0000FFFFC000FF80007F
310
FE00000000007FFFE00000000007FFF8000001FFFE0000007F80000000000001
310
FFFE00000000003FFFFFFE00000000003FFFFF0003FFFFFFFFFF80000000003F
310
F000FF80000000007FF8000FFFFC0001FFFFC0007F80007FFF0000000000FFFF
310
F0000000000FFFF800000000000000007F80000000000001FFFF8000000000FF
310
FFFFFF8000000000FFFFFF0003FFFFFFFFFFC0000000007FF000FFC000000000
310
FFF8000FFFFE0001FFFFC0007F80007FFF8000000001FFFFF8000000001FFFF8
310
00000000000000007F80000000000001FFFFC000000001FFFFFFFFC000000001
310
FFFFFF0003FFFFFFFFFFE000000000FFF000FFE000000003FFF0001FFFFE0001
310
FFFFC0007F80007FFFC000000007FFFFFE000000003FFFF80000000000000000
310
7F80000000000001FFFFE000000003FFFFFFFFE000000003FFFFFF0003FFFFFF
310
FFFFF000000003FFF000FFF80000000FFFF0001FFFFE0001FFFFE0007F80007F
310
FFF00000000FFFFFFF00000000FFFFF800000000000000007F80000000000001
310
FFFFF80000000FFFFFFFFFF80000000FFFFFFF0003FFFFFFFFFFFC0000000FFF
310
F000FFFE0000003FFFF0001FFFFE0003FFFFE0003F80007FFFFC0000003FFFFF
310
FFC0000003FFFFF800000000000000007F80000000000001FFFFFE0000003FFF
310
FFFFFFFE0000003FFFFFFF0003FFFFFFFFFFFF0000003FFFF000FFFF800000FF
310
FFF0001FFFFF0003FFFFE0003F80007FFFFF000001FFFFFFFFF800001FFFFFF8
310
00000000000000007F80000000000001FFFFFFC00001FFFFFFFFFFFFC00001FF
310
FFFFFF0003FFFFFFFFFFFFC00000FFFFF000FFFFF8000FFFFFFFFFFFFFFFFFFF
310
FFFFFFFFFFFFFFFFFFFFF0001FFFFFFFFFFF0000FFFFFFF80000000000000000
310
7FFFFFFFFFFFFFFFFFFFFFFC001FFFFFFFFFFFFFFC001FFFFFFFFFFFFFFFFFFF
310
FFFFFFFC001FFFFFF000FFFFFFFFFFFFFFFFFFFFFFFFFFFFFFFFFFFFFFFFFFFF
310
FFFFFFFFFFFFFFFFFFFFFFFFFFFFFFFFFFFFFFFFFFFFFFFFFFFFFFFFFFFFFFFF
310
FFFFFFFFFFFFFFFFFFFFFFFFFFFFFFFFFFFFFFFFFFFFFFFFFFFFFFFFFFFFFFFF
310
F000FFFFFFFFFFFFFFFFFFFFFFFFFFFFFFFFFFFFFFFFFFFFFFFFFFFFFFFFFFFF
310
FFFFFFFFFFFFFFFFFFFFFFFFFFFFFFFFFFFFFFFFFFFFFFFFFFFFFFFFFFFFFFFF
310
FFFFFFFFFFFFFFFFFFFFFFFFFFFFFFFFFFFFFFFFFFFFFFFFF000FFFFFFFFFFFF
310
FFFFFFFFFFFFFFFFFFFFFFFFFFFFFFFFFFFFFFFFFFFFFFFFFFFFFFFFFFFFFFFF
310
FFFFFFFFFFFFFFFFFFFFFFFFFFFFFFFFFFFFFFFFFFFFFFFFFFFFFFFFFFFFFFFF
310
FFFFFFFFFFFFFFFFFFFFFFFFFFFFFFFFF000FFFFFFFFFFFFFFFFFFFFFFFFFFFF
310
FFFFFFFFFFFFFFFFFFFFFFFFFFFFFFFFFFFFFFFFFFFFFFFFFFFFFFFFFFFFFFFF
310
FFFFFFFFFFFFFFFFFFFFFFFFFFFFFFFFFFFFFFFFFFFFFFFFFFFFFFFFFFFFFFFF
310
FFFFFFFFFFFFFFFFF000FFFFFFFFFFFFFFFFFFFFFFFFFFFFFFFFFFFFFFFFFFFF
310
FFFFFFFFFFFFFFFFFFFFFFFFFFFFFFFFFFFFFFFFFFFFFFFFFFFFFFFFFFFFFFFF
310
FFFFFFFFFFFFFFFFFFFFFFFFFFFFFFFFFFFFFFFFFFFFFFFFFFFFFFFFFFFFFFFF
310
F000FFFFFFFFFFFFFFFFFFFFFFFFFFFFFFFFFFFFFFFFFFFFFFFFFFFFFFFFFFFF
310
FFFFFFFFFFFFFFFFFFFFFFFFFFFFFFFFFFFFFFFFFFFFFFFFFFFFFFFFFFFFFFFF
310
FFFFFFFFFFFFFFFFFFFFFFFFFFFFFFFFFFFFFFFFFFFFFFFFF000FFFFFFFFFFFF
310
FFFFFFFFFFFFFFFFFFFFFFFFFFFFFFFFFFFFFFFFFFFFFFFFFFFFFFFFFFFFFFFF
310
FFFFFFFFFFFFFFFFFFFFFFFFFFFFFFFFFFFFFFFFFFFFFFFFFFFFFFFFFFFFFFFF
310
FFFFFFFFFFFFFFFFFFFFFFFFFFFFFFFFF000FFFFFFFFFFFFFFFFFFFFFFFFFFFF
310
FFFFFFFFFFFFFFFFFFFFFFFFFFFFFFFFFFFFFFFFFFFFFFFFFFFFFFFFFFFFFFFF
310
FFFFFFFFFFFFFFFFFFFFFFFFFFFFFFFFFFFFFFFFFFFFFFFFFFFFFFFFFFFFFFFF
310
FFFFFFFFFFFFFFFFF000FFFFFFFFFFFFFFFFFFFFFFFFFFFFFFFFFFFFFFFFFFFF
310
FFFFFFFFFFFFFFFFFFFFFFFFFFFFFFFFFFFFFFFFFFFFFFFFFFFFFFFFFFFFFFFF
310
FFFFFFFFFFFFFFFFFFFFFFFFFFFFFFFFFFFFFFFFFFFFFFFFFFFFFFFFFFFFFFFF
310
F000FFFFFFFFFFFFFFFFFFFFFFFFFFFFFFFFFFFFFFFFFFFFFFFFFFFFFFFFFFFF
310
FFFFFFFFFFFFFFFFFFFFFFFFFFFFFFFFFFFFFFFFFFFFFFFFFFFFFFFFFFFFFFFF
310
FFFFFFFFFFFFFFFFFFFFFFFFFFFFFFFFFFFFFFFFFFFFFFFFF000FFFFFFFFFFFF
310
FFFFFFFFFFFFFFFFFFFFFFFFFFFFFFFFFFFFFFFFFFFFFFFFFFFFFFFFFFFFFFFF
310
FFFFFFFFFFFFFFFFFFFFFFFFFFFFFFFFFFFFFFFFFFFFFFFFFFFFFFFFFFFFFFFF
310
FFFFFFFFFFFFFFFFFFFFFFFFFFFFFFFFF000FFFFFFFFFFFFFFFFFFFFFFFFFFFF
310
FFFFFFFFFFFFFFFFFFFFFFFFFFFFFFFFFFFFFFFFFFFFFFFFFFFFFFFFFFFFFFFF
310
FFFFFFFFFFFFFFFFFFFFFFFFFFFFFFFFFFFFFFFFFFFFFFFFFFFFFFFFFFFFFFFF
310
FFFFFFFFFFFFFFFFF000FFFFFFFFFFFFFFFFFFFFFFFFFFFFFFFFFFFFFFFFFFFF
310
FFFFFFFFFFFFFFFFFFFFFFFFFFFFFFFFFFFFFFFFFFFFFFFFFFFFFFFFFFFFFFFF
310
FFFFFFFFFFFFFFFFFFFFFFFFFFFFFFFFFFFFFFFFFFFFFFFFFFFFFFFFFFFFFFFF
310
F000FFFFFFFFFFFFFFFFFFFFFFFFFFFFFFFFFFFFFFFFFFFFFFFFFFFFFFFFFFFF
310
FFFFFFFFFFFFFFFFFFFFFFFFFFFFFFFFFFFFFFFFFFFFFFFFFFFFFFFFFFFFFFFF
310
FFFFFFFFFFFFFFFFFFFFFFFFFFFFFFFFFFFFFFFFFFFFFFFFF000FFFFFFFFFFFF
310
FFFFFFFFFFFFFFFFFFFFFFFFFFFFFFFFFFFFFFFFFFFFFFFFFFFFFFFFFFFFFFFF
310
FFFFFFFFFFFFFFFFFFFFFFFFFFFFFFFFFFFFFFFFFFFFFFFFFFFFFFFFFFFFFFFF
310
FFFFFFFFFFFFFFFFFFFFFFFFFFFFFFFFF000FFFFFFFFFFFFFFFFFFFFFFFFFFFF
310
FFFFFFFFFFFFFFFFFFFFFFFFFFFFFFFFFFFFFFFFFFFFFFFFFFFFFFFFFFFFFFFF
310
FFFFFFFFFFFFFFFFFFFFFFFFFFFFFFFFFFFFFFFFFFFFFFFFFFFFFFFFFFFFFFFF
310
FFFFFFFFFFFFFFFFF000FFFFFFFFFFFFFFFFFFFFFFFFFFFFFFFFFFFFFFFFFFFF
310
FFFFFFFFFFFFFFFFFFFFFFFFFFFFFFFFFFFFFFFFFFFFFFFFFFFFFFFFFFFFFFFF
310
FFFFFFFFFFFFFFFFFFFFFFFFFFFFFFFFFFFFFFFFFFFFFFFFFFFFFFFFFFFFFFFF
310
F000FFFFFFFFFFFFFFFFFFFFFFFFFFFFFFFFFFFFFFFFFFFFFFFFFFFFFFFFFFFF
310
FFFFFFFFFFFFFFFFFFFFFFFFFFFFFFFFFFFFFFFFFFFFFFFFFFFFFFFFFFFFFFFF
310
FFFFFFFFFFFFFFFFFFFFFFFFFFFFFFFFFFFFFFFFFFFFFFFFF000FFFFFFFFFFFF
310
FFFFFFFFFFFFFFFFFFFFFFFFFFFFFFFFFFFFFFFFFFFFFFFFFFFFFFFFFFFFFFFF
310
FFFFFFFFFFFFFFFFFFFFFFFFFFFFFFFFFFFFFFFFFFFFFFFFFFFFFFFFFFFFFFFF
310
FFFFFFFFFFFFFFFFFFFFFFFFFFFFFFFFF000FFFFFFFFFFFFFFFFFFFFFFFFFFFF
310
FFFFFFFFFFFFFFFFFFFFFFFFFFFFFFFFFFFFFFFFFFFFFFFFFFFFFFFFFFFFFFFF
310
FFFFFFFFFFFFFFFFFFFFFFFFFFFFFFFFFFFFFFFFFFFFFFFFFFFFFFFFFFFFFFFF
310
FFFFFFFFFFFFFFFFF000FFFFFFFFFFFFFFFFFFFFFFFFFFFFFFFFFFFFFFFFFFFF
310
FFFFFFFFFFFFFFFFFFFFFFFFFFFFFFFFFFFFFFFFFFFFFFFFFFFFFFFFFFFFFFFF
310
FFFFFFFFFFFFFFFFFFFFFFFFFFFFFFFFFFFFFFFFFFFFFFFFFFFFFFFFFFFFFFFF
310
F000FFFFFFFFFFFFFFFFFFFFFFFFFFFFFFFFFFFFFFFFFFFFFFFFFFFFFFFFFFFF
310
FFFFFFFFFFFFFFFFFFFFFFFFFFFFFFFFFFFFFFFFFFFFFFFFFFFFFFFFFFFFFFFF
310
FFFFFFFFFFFFFFFFFFFFFFFFFFFFFFFFFFFFFFFFFFFFFFFFF000FFFFFFFFFFFF
310
FFFFFFFFFFFFFFFFFFFFFFFFFFFFFFFFFFFFFFFFFFFFFFFFFFFFFFFFFFFFFFFF
310
FFFFFFFFFFFFFFFFFFFFFFFFFFFFFFFFFFFFFFFFFFFFFFFFFFFFFFFFFFFFFFFF
310
FFFFFFFFFFFFFFFFFFFFFFFFFFFFFFFFF0000000000000000000000000000000
310
0000000000000000000000000000000000000000000000000000000000000000
310
0000000000000000000000000000000000000000000000000000000000000000
310
0000000000000000000000000000000000000000000000000000000000000000
310
0000000000000000000000000000000000000000000000000000000000000000
310
0000000000000000000000000000000000000000000000000000000000000000
310
0000000000000000000000000000000000000000000000000000000000000000
310
0000000000000000000000000000000000000000000000000000000000000000
310
0000000000000000000000000000000000000000000000000000000000000000
310
0000000000000000000000000000000000000000000000000000000000000000
310
0000000000000000000000000000000000000000000000000000000000000000
310
0000000000000000000000000000000000000000000000000000000000000000
310
0000000000000000000000000000000000000000000000000000000000000000
310
0000000000000000000000000000000000000000000000000000000000000000
310
0000000000000000000000000000000000000000000000000000000000000000
310
0000000000000000000000000000000000000000000000000000000000000000
  1
OLE
  0
ENDSEC
  0
SECTION
  2
OBJECTS
  0
DICTIONARY
  5
C
330
0
100
AcDbDictionary
281
     1
  3
ACAD_GROUP
350
D
  3
ACAD_LAYOUT
350
1A
  3
ACAD_MLINESTYLE
350
17
  3
ACAD_PLOTSETTINGS
350
19
  3
ACAD_PLOTSTYLENAME
350
E
  3
ACAD_SCALELIST
350
47
  0
DICTIONARY
  5
D
102
{ACAD_REACTORS
330
C
102
}
330
C
100
AcDbDictionary
281
     1
  0
DICTIONARY
  5
1A
102
{ACAD_REACTORS
330
C
102
}
330
C
100
AcDbDictionary
281
     1
  3
Layout1
350
1E
  3
Layout2
350
26
  3
Model
350
22
  0
DICTIONARY
  5
17
102
{ACAD_REACTORS
330
C
102
}
330
C
100
AcDbDictionary
281
     1
  3
Standard
350
18
  0
DICTIONARY
  5
19
102
{ACAD_REACTORS
330
C
102
}
330
C
100
AcDbDictionary
281
     1
  0
ACDBDICTIONARYWDFLT
  5
E
102
{ACAD_REACTORS
330
C
102
}
330
C
100
AcDbDictionary
281
     1
  3
Normal
350
F
100
AcDbDictionaryWithDefault
340
F
  0
DICTIONARY
  5
47
102
{ACAD_REACTORS
330
C
102
}
330
C
100
AcDbDictionary
281
     1
  3
A0
350
48
  3
A1
350
49
  3
A2
350
4A
  3
A3
350
4B
  3
A4
350
4C
  3
A5
350
4D
  3
A6
350
4E
  3
A7
350
4F
  3
A8
350
50
  3
A9
350
51
  3
B0
350
52
  3
B1
350
53
  3
B2
350
54
  3
B3
350
55
  3
B4
350
56
  3
B5
350
57
  3
B6
350
58
  3
B7
350
59
  3
B8
350
5A
  3
B9
350
5B
  3
C0
350
5C
  3
C1
350
5D
  3
C2
350
5E
  3
C3
350
5F
  3
C4
350
60
  3
C5
350
61
  3
C6
350
62
  3
C7
350
63
  3
C8
350
64
  3
C9
350
65
  3
D0
350
66
  3
D1
350
67
  3
D2
350
68
  0
LAYOUT
  5
1E
102
{ACAD_REACTORS
330
1A
102
}
330
1A
100
AcDbPlotSettings
  1

  2
none_device
  4

  6

 40
0.0
 41
0.0
 42
0.0
 43
0.0
 44
0.0
 45
0.0
 46
0.0
 47
0.0
 48
0.0
 49
0.0
140
0.0
141
0.0
142
1.0
143
1.0
 70
   688
 72
     1
 73
     0
 74
     5
  7

 75
    16
147
1.0
148
0.0
149
0.0
100
AcDbLayout
  1
Layout1
 70
     1
 71
     1
 10
0.0
 20
0.0
 11
420.0
 21
297.0
 12
0.0
 22
0.0
 32
0.0
 14
1.0000000000E+20
 24
1.0000000000E+20
 34
1.0000000000E+20
 15
-1.0000000000E+20
 25
-1.0000000000E+20
 35
-1.0000000000E+20
146
0.0
 13
0.0
 23
0.0
 33
0.0
 16
1.0
 26
0.0
 36
0.0
 17
0.0
 27
1.0
 37
0.0
 76
     0
330
1B
  0
LAYOUT
  5
26
102
{ACAD_REACTORS
330
1A
102
}
330
1A
100
AcDbPlotSettings
  1

  2
none_device
  4

  6

 40
0.0
 41
0.0
 42
0.0
 43
0.0
 44
0.0
 45
0.0
 46
0.0
 47
0.0
 48
0.0
 49
0.0
140
0.0
141
0.0
142
1.0
143
1.0
 70
   688
 72
     1
 73
     0
 74
     5
  7

 75
    16
147
1.0
148
0.0
149
0.0
100
AcDbLayout
  1
Layout2
 70
     1
 71
     2
 10
0.0
 20
0.0
 11
0.0
 21
0.0
 12
0.0
 22
0.0
 32
0.0
 14
0.0
 24
0.0
 34
0.0
 15
0.0
 25
0.0
 35
0.0
146
0.0
 13
0.0
 23
0.0
 33
0.0
 16
1.0
 26
0.0
 36
0.0
 17
0.0
 27
1.0
 37
0.0
 76
     0
330
23
  0
LAYOUT
  5
22
102
{ACAD_REACTORS
330
1A
102
}
330
1A
100
AcDbPlotSettings
  1

  2
none_device
  4
Letter_(8.50_x_11.00_Inches)
  6

 40
6.35
 41
6.35
 42
6.35000508
 43
6.35000508
 44
215.9
 45
279.4
 46
0.0
 47
0.0
 48
0.0
 49
0.0
140
0.0
141
0.0
142
1.0
143
1.0
 70
  1712
 72
     1
 73
     0
 74
     0
  7

 75
     0
147
1.0
148
0.0
149
0.0
100
AcDbLayout
  1
Model
 70
     1
 71
     0
 10
0.0
 20
0.0
 11
297.0
 21
210.0
 12
0.0
 22
0.0
 32
0.0
 14
0.0
 24
0.0
 34
0.0
 15
297.0
 25
210.0
 35
0.0
146
0.0
 13
0.0
 23
0.0
 33
0.0
 16
1.0
 26
0.0
 36
0.0
 17
0.0
 27
1.0
 37
0.0
 76
     0
330
1F
331
29
  0
MLINESTYLE
  5
18
102
{ACAD_REACTORS
330
17
102
}
330
17
100
AcDbMlineStyle
  2
Standard
 70
     0
  3

 62
   256
 51
90.0
 52
90.0
 71
     2
 49
0.5
 62
   256
  6
BYLAYER
 49
-0.5
 62
   256
  6
BYLAYER
  0
ACDBPLACEHOLDER
  5
F
102
{ACAD_REACTORS
330
E
102
}
330
E
  0
SCALE
  5
48
102
{ACAD_REACTORS
330
47
102
}
330
47
100
AcDbScale
 70
     0
300
1:1
140
1.0
141
1.0
290
     1
  0
SCALE
  5
49
102
{ACAD_REACTORS
330
47
102
}
330
47
100
AcDbScale
 70
     0
300
1:2
140
1.0
141
2.0
290
     0
  0
SCALE
  5
4A
102
{ACAD_REACTORS
330
47
102
}
330
47
100
AcDbScale
 70
     0
300
1:4
140
1.0
141
4.0
290
     0
  0
SCALE
  5
4B
102
{ACAD_REACTORS
330
47
102
}
330
47
100
AcDbScale
 70
     0
300
1:5
140
1.0
141
5.0
290
     0
  0
SCALE
  5
4C
102
{ACAD_REACTORS
330
47
102
}
330
47
100
AcDbScale
 70
     0
300
1:8
140
1.0
141
8.0
290
     0
  0
SCALE
  5
4D
102
{ACAD_REACTORS
330
47
102
}
330
47
100
AcDbScale
 70
     0
300
1:10
140
1.0
141
10.0
290
     0
  0
SCALE
  5
4E
102
{ACAD_REACTORS
330
47
102
}
330
47
100
AcDbScale
 70
     0
300
1:16
140
1.0
141
16.0
290
     0
  0
SCALE
  5
4F
102
{ACAD_REACTORS
330
47
102
}
330
47
100
AcDbScale
 70
     0
300
1:20
140
1.0
141
20.0
290
     0
  0
SCALE
  5
50
102
{ACAD_REACTORS
330
47
102
}
330
47
100
AcDbScale
 70
     0
300
1:30
140
1.0
141
30.0
290
     0
  0
SCALE
  5
51
102
{ACAD_REACTORS
330
47
102
}
330
47
100
AcDbScale
 70
     0
300
1:40
140
1.0
141
40.0
290
     0
  0
SCALE
  5
52
102
{ACAD_REACTORS
330
47
102
}
330
47
100
AcDbScale
 70
     0
300
1:50
140
1.0
141
50.0
290
     0
  0
SCALE
  5
53
102
{ACAD_REACTORS
330
47
102
}
330
47
100
AcDbScale
 70
     0
300
1:100
140
1.0
141
100.0
290
     0
  0
SCALE
  5
54
102
{ACAD_REACTORS
330
47
102
}
330
47
100
AcDbScale
 70
     0
300
2:1
140
2.0
141
1.0
290
     0
  0
SCALE
  5
55
102
{ACAD_REACTORS
330
47
102
}
330
47
100
AcDbScale
 70
     0
300
4:1
140
4.0
141
1.0
290
     0
  0
SCALE
  5
56
102
{ACAD_REACTORS
330
47
102
}
330
47
100
AcDbScale
 70
     0
300
8:1
140
8.0
141
1.0
290
     0
  0
SCALE
  5
57
102
{ACAD_REACTORS
330
47
102
}
330
47
100
AcDbScale
 70
     0
300
10:1
140
10.0
141
1.0
290
     0
  0
SCALE
  5
58
102
{ACAD_REACTORS
330
47
102
}
330
47
100
AcDbScale
 70
     0
300
100:1
140
100.0
141
1.0
290
     0
  0
SCALE
  5
59
102
{ACAD_REACTORS
330
47
102
}
330
47
100
AcDbScale
 70
     0
300
1/128" = 1'-0"
140
0.0078125
141
12.0
290
     0
  0
SCALE
  5
5A
102
{ACAD_REACTORS
330
47
102
}
330
47
100
AcDbScale
 70
     0
300
1/64" = 1'-0"
140
0.015625
141
12.0
290
     0
  0
SCALE
  5
5B
102
{ACAD_REACTORS
330
47
102
}
330
47
100
AcDbScale
 70
     0
300
1/32" = 1'-0"
140
0.03125
141
12.0
290
     0
  0
SCALE
  5
5C
102
{ACAD_REACTORS
330
47
102
}
330
47
100
AcDbScale
 70
     0
300
1/16" = 1'-0"
140
0.0625
141
12.0
290
     0
  0
SCALE
  5
5D
102
{ACAD_REACTORS
330
47
102
}
330
47
100
AcDbScale
 70
     0
300
3/32" = 1'-0"
140
0.09375
141
12.0
290
     0
  0
SCALE
  5
5E
102
{ACAD_REACTORS
330
47
102
}
330
47
100
AcDbScale
 70
     0
300
1/8" = 1'-0"
140
0.125
141
12.0
290
     0
  0
SCALE
  5
5F
102
{ACAD_REACTORS
330
47
102
}
330
47
100
AcDbScale
 70
     0
300
3/16" = 1'-0"
140
0.1875
141
12.0
290
     0
  0
SCALE
  5
60
102
{ACAD_REACTORS
330
47
102
}
330
47
100
AcDbScale
 70
     0
300
1/4" = 1'-0"
140
0.25
141
12.0
290
     0
  0
SCALE
  5
61
102
{ACAD_REACTORS
330
47
102
}
330
47
100
AcDbScale
 70
     0
300
3/8" = 1'-0"
140
0.375
141
12.0
290
     0
  0
SCALE
  5
62
102
{ACAD_REACTORS
330
47
102
}
330
47
100
AcDbScale
 70
     0
300
1/2" = 1'-0"
140
0.5
141
12.0
290
     0
  0
SCALE
  5
63
102
{ACAD_REACTORS
330
47
102
}
330
47
100
AcDbScale
 70
     0
300
3/4" = 1'-0"
140
0.75
141
12.0
290
     0
  0
SCALE
  5
64
102
{ACAD_REACTORS
330
47
102
}
330
47
100
AcDbScale
 70
     0
300
1" = 1'-0"
140
1.0
141
12.0
290
     0
  0
SCALE
  5
65
102
{ACAD_REACTORS
330
47
102
}
330
47
100
AcDbScale
 70
     0
300
1-1/2" = 1'-0"
140
1.5
141
12.0
290
     0
  0
SCALE
  5
66
102
{ACAD_REACTORS
330
47
102
}
330
47
100
AcDbScale
 70
     0
300
3" = 1'-0"
140
3.0
141
12.0
290
     0
  0
SCALE
  5
67
102
{ACAD_REACTORS
330
47
102
}
330
47
100
AcDbScale
 70
     0
300
6" = 1'-0"
140
6.0
141
12.0
290
     0
  0
SCALE
  5
68
102
{ACAD_REACTORS
330
47
102
}
330
47
100
AcDbScale
 70
     0
300
1'-0" = 1'-0"
140
12.0
141
12.0
290
     0
  0
ENDSEC
  0
EOF
