  0
SECTION
  2
HEADER
  9
$ACADVER
  1
AC1015
  9
$ACADMAINTVER
 70
     6
  9
$DWGCODEPAGE
  3
ANSI_1252
  9
$INSBASE
 10
0.0
 20
0.0
 30
0.0
  9
$EXTMIN
 10
0.0
 20
0.0
 30
0.0
  9
$EXTMAX
 10
297.0
 20
210.0
 30
0.0
  9
$LIMMIN
 10
0.0
 20
0.0
  9
$LIMMAX
 10
297.0
 20
210.0
  9
$ORTHOMODE
 70
     0
  9
$REGENMODE
 70
     1
  9
$FILLMODE
 70
     1
  9
$QTEXTMODE
 70
     0
  9
$MIRRTEXT
 70
     1
  9
$LTSCALE
 40
1.0
  9
$ATTMODE
 70
     1
  9
$TEXTSIZE
 40
2.0
  9
$TRACEWID
 40
1.0
  9
$TEXTSTYLE
  7
Standard
  9
$CLAYER
  8
0
  9
$CELTYPE
  6
ByLayer
  9
$CECOLOR
 62
   256
  9
$CELTSCALE
 40
1.0
  9
$DISPSILH
 70
     0
  9
$DIMSCALE
 40
1.0
  9
$DIMASZ
 40
3.0
  9
$DIMEXO
 40
0.0
  9
$DIMDLI
 40
3.75
  9
$DIMRND
 40
0.0
  9
$DIMDLE
 40
0.0
  9
$DIMEXE
 40
1.0
  9
$DIMTP
 40
0.0
  9
$DIMTM
 40
0.0
  9
$DIMTXT
 40
2.0
  9
$DIMCEN
 40
2.5
  9
$DIMTSZ
 40
0.0
  9
$DIMTOL
 70
     0
  9
$DIMLIM
 70
     0
  9
$DIMTIH
 70
     1
  9
$DIMTOH
 70
     1
  9
$DIMSE1
 70
     0
  9
$DIMSE2
 70
     0
  9
$DIMTAD
 70
     1
  9
$DIMZIN
 70
     0
  9
$DIMBLK
  1

  9
$DIMASO
 70
     1
  9
$DIMSHO
 70
     1
  9
$DIMPOST
  1

  9
$DIMAPOST
  1

  9
$DIMALT
 70
     0
  9
$DIMALTD
 70
     3
  9
$DIMALTF
 40
0.0393700787
  9
$DIMLFAC
 40
1.0
  9
$DIMTOFL
 70
     1
  9
$DIMTVP
 40
0.0
  9
$DIMTIX
 70
     0
  9
$DIMSOXD
 70
     0
  9
$DIMSAH
 70
     0
  9
$DIMBLK1
  1

  9
$DIMBLK2
  1

  9
$DIMSTYLE
  2
ISO-25
  9
$DIMCLRD
 70
     0
  9
$DIMCLRE
 70
     0
  9
$DIMCLRT
 70
     0
  9
$DIMTFAC
 40
1.0
  9
$DIMGAP
 40
1.524
  9
$DIMJUST
 70
     0
  9
$DIMSD1
 70
     0
  9
$DIMSD2
 70
     0
  9
$DIMTOLJ
 70
     0
  9
$DIMTZIN
 70
     0
  9
$DIMALTZ
 70
     0
  9
$DIMALTTZ
 70
     0
  9
$DIMUPT
 70
     0
  9
$DIMDEC
 70
     2
  9
$DIMTDEC
 70
     3
  9
$DIMALTU
 70
     2
  9
$DIMALTTD
 70
     3
  9
$DIMTXSTY
  7
Standard
  9
$DIMAUNIT
 70
     0
  9
$DIMADEC
 70
     2
  9
$DIMALTRND
 40
0.0
  9
$DIMAZIN
 70
     0
  9
$DIMDSEP
 70
    44
  9
$DIMATFIT
 70
     3
  9
$DIMFRAC
 70
     0
  9
$DIMLDRBLK
  1

  9
$DIMLUNIT
 70
     2
  9
$DIMLWD
 70
    -2
  9
$DIMLWE
 70
    -2
  9
$DIMTMOVE
 70
     0
  9
$LUNITS
 70
     2
  9
$LUPREC
 70
     2
  9
$SKETCHINC
 40
1.0
  9
$FILLETRAD
 40
10.0
  9
$AUNITS
 70
     0
  9
$AUPREC
 70
     2
  9
$MENU
  1
.
  9
$ELEVATION
 40
0.0
  9
$PELEVATION
 40
0.0
  9
$THICKNESS
 40
0.0
  9
$LIMCHECK
 70
     0
  9
$CHAMFERA
 40
0.0
  9
$CHAMFERB
 40
0.0
  9
$CHAMFERC
 40
0.0
  9
$CHAMFERD
 40
0.0
  9
$SKPOLY
 70
     0
  9
$TDCREATE
 40
2457662.611158715
  9
$TDUCREATE
 40
2457662.527825382
  9
$TDUPDATE
 40
2457662.61115978
  9
$TDUUPDATE
 40
2457662.527826447
  9
$TDINDWG
 40
0.0000000116
  9
$TDUSRTIMER
 40
0.0000000116
  9
$USRTIMER
 70
     1
  9
$ANGBASE
 50
0.0
  9
$ANGDIR
 70
     0
  9
$PDMODE
 70
     0
  9
$PDSIZE
 40
-1.0
  9
$PLINEWID
 40
0.0
  9
$SPLFRAME
 70
     0
  9
$SPLINETYPE
 70
     6
  9
$SPLINESEGS
 70
     8
  9
$HANDSEED
  5
20A
  9
$SURFTAB1
 70
     6
  9
$SURFTAB2
 70
     6
  9
$SURFTYPE
 70
     6
  9
$SURFU
 70
     6
  9
$SURFV
 70
     6
  9
$UCSBASE
  2

  9
$UCSNAME
  2

  9
$UCSORG
 10
0.0
 20
0.0
 30
0.0
  9
$UCSXDIR
 10
1.0
 20
0.0
 30
0.0
  9
$UCSYDIR
 10
0.0
 20
1.0
 30
0.0
  9
$UCSORTHOREF
  2

  9
$UCSORTHOVIEW
 70
     0
  9
$UCSORGTOP
 10
0.0
 20
0.0
 30
0.0
  9
$UCSORGBOTTOM
 10
0.0
 20
0.0
 30
0.0
  9
$UCSORGLEFT
 10
0.0
 20
0.0
 30
0.0
  9
$UCSORGRIGHT
 10
0.0
 20
0.0
 30
0.0
  9
$UCSORGFRONT
 10
0.0
 20
0.0
 30
0.0
  9
$UCSORGBACK
 10
0.0
 20
0.0
 30
0.0
  9
$PUCSBASE
  2

  9
$PUCSNAME
  2

  9
$PUCSORG
 10
0.0
 20
0.0
 30
0.0
  9
$PUCSXDIR
 10
1.0
 20
0.0
 30
0.0
  9
$PUCSYDIR
 10
0.0
 20
1.0
 30
0.0
  9
$PUCSORTHOREF
  2

  9
$PUCSORTHOVIEW
 70
     0
  9
$PUCSORGTOP
 10
0.0
 20
0.0
 30
0.0
  9
$PUCSORGBOTTOM
 10
0.0
 20
0.0
 30
0.0
  9
$PUCSORGLEFT
 10
0.0
 20
0.0
 30
0.0
  9
$PUCSORGRIGHT
 10
0.0
 20
0.0
 30
0.0
  9
$PUCSORGFRONT
 10
0.0
 20
0.0
 30
0.0
  9
$PUCSORGBACK
 10
0.0
 20
0.0
 30
0.0
  9
$USERI1
 70
     0
  9
$USERI2
 70
     0
  9
$USERI3
 70
     0
  9
$USERI4
 70
     0
  9
$USERI5
 70
     0
  9
$USERR1
 40
0.0
  9
$USERR2
 40
0.0
  9
$USERR3
 40
0.0
  9
$USERR4
 40
0.0
  9
$USERR5
 40
0.0
  9
$WORLDVIEW
 70
     1
  9
$SHADEDGE
 70
     3
  9
$SHADEDIF
 70
    70
  9
$TILEMODE
 70
     1
  9
$MAXACTVP
 70
    64
  9
$PINSBASE
 10
0.0
 20
0.0
 30
0.0
  9
$PLIMCHECK
 70
     0
  9
$PEXTMIN
 10
1.0000000000E+20
 20
1.0000000000E+20
 30
1.0000000000E+20
  9
$PEXTMAX
 10
-1.0000000000E+20
 20
-1.0000000000E+20
 30
-1.0000000000E+20
  9
$PLIMMIN
 10
0.0
 20
0.0
  9
$PLIMMAX
 10
420.0
 20
297.0
  9
$UNITMODE
 70
     0
  9
$VISRETAIN
 70
     1
  9
$PLINEGEN
 70
     0
  9
$PSLTSCALE
 70
     1
  9
$TREEDEPTH
 70
  3020
  9
$CMLSTYLE
  2
Standard
  9
$CMLJUST
 70
     0
  9
$CMLSCALE
 40
20.0
  9
$PROXYGRAPHICS
 70
     1
  9
$MEASUREMENT
 70
     1
  9
$CELWEIGHT
370
    -1
  9
$ENDCAPS
280
     0
  9
$JOINSTYLE
280
     0
  9
$LWDISPLAY
290
     1
  9
$INSUNITS
 70
     4
  9
$HYPERLINKBASE
  1

  9
$STYLESHEET
  1

  9
$XEDIT
290
     1
  9
$CEPSNTYPE
380
     0
  9
$PSTYLEMODE
290
     1
  9
$FINGERPRINTGUID
  2
{0A1CF92F-149D-4367-ADBB-E801F2BC458B}
  9
$VERSIONGUID
  2
{FAEB1C32-E019-11D5-929B-00C0DF256EC4}
  9
$EXTNAMES
290
     1
  9
$PSVPSCALE
 40
0.0
  9
$OLESTARTUP
290
     0
  0
ENDSEC
  0
SECTION
  2
CLASSES
  0
CLASS
  1
ACDBDICTIONARYWDFLT
  2
AcDbDictionaryWithDefault
  3
ObjectDBX Classes
 90
        0
280
     0
281
     0
  0
CLASS
  1
VISUALSTYLE
  2
AcDbVisualStyle
  3
ObjectDBX Classes
 90
     4095
280
     0
281
     0
  0
CLASS
  1
MATERIAL
  2
AcDbMaterial
  3
ObjectDBX Classes
 90
     1153
280
     0
281
     0
  0
CLASS
  1
SCALE
  2
AcDbScale
  3
ObjectDBX Classes
 90
     1153
280
     0
281
     0
  0
CLASS
  1
TABLESTYLE
  2
AcDbTableStyle
  3
ObjectDBX Classes
 90
     4095
280
     0
281
     0
  0
CLASS
  1
MLEADERSTYLE
  2
AcDbMLeaderStyle
  3
ACDB_MLEADERSTYLE_CLASS
 90
     4095
280
     0
281
     0
  0
CLASS
  1
SUN
  2
AcDbSun
  3
SCENEOE
 90
     1153
280
     0
281
     0
  0
CLASS
  1
ACDBPLACEHOLDER
  2
AcDbPlaceHolder
  3
ObjectDBX Classes
 90
        0
280
     0
281
     0
  0
CLASS
  1
LAYOUT
  2
AcDbLayout
  3
ObjectDBX Classes
 90
        0
280
     0
281
     0
  0
ENDSEC
  0
SECTION
  2
TABLES
  0
TABLE
  2
VPORT
  5
8
330
0
100
AcDbSymbolTable
 70
     1
  0
VPORT
  5
29
330
8
100
AcDbSymbolTableRecord
100
AcDbViewportTableRecord
  2
*Active
 70
     0
 10
0.0
 20
0.0
 11
1.0
 21
1.0
 12
148.5
 22
105.0
 13
0.0
 23
0.0
 14
10.0
 24
10.0
 15
10.0
 25
10.0
 16
0.0
 26
0.0
 36
1.0
 17
0.0
 27
0.0
 37
0.0
 40
210.0
 41
1.4142857143
 42
50.0
 43
0.0
 44
0.0
 50
0.0
 51
0.0
 71
     0
 72
  2000
 73
     1
 74
     3
 75
     0
 76
     0
 77
     0
 78
     0
281
     0
 65
     1
110
0.0
120
0.0
130
0.0
111
1.0
121
0.0
131
0.0
112
0.0
122
1.0
132
0.0
 79
     0
146
0.0
  0
ENDTAB
  0
TABLE
  2
LTYPE
  5
5
330
0
100
AcDbSymbolTable
 70
     6
  0
LTYPE
  5
14
330
5
100
AcDbSymbolTableRecord
100
AcDbLinetypeTableRecord
  2
ByBlock
 70
     0
  3

 72
    65
 73
     0
 40
0.0
  0
LTYPE
  5
15
330
5
100
AcDbSymbolTableRecord
100
AcDbLinetypeTableRecord
  2
ByLayer
 70
     0
  3

 72
    65
 73
     0
 40
0.0
  0
LTYPE
  5
16
330
5
100
AcDbSymbolTableRecord
100
AcDbLinetypeTableRecord
  2
Continuous
 70
     0
  3
Solid line
 72
    65
 73
     0
 40
0.0
  0
LTYPE
  5
6E
330
5
100
AcDbSymbolTableRecord
100
AcDbLinetypeTableRecord
  2
HIDDEN
 70
     0
  3
Hidden __ __ __ __ __ __ __ __ __ __ __ __ __ __
 72
    65
 73
     2
 40
1.905
 49
1.27
 74
     0
 49
-0.635
 74
     0
  0
LTYPE
  5
6F
330
5
100
AcDbSymbolTableRecord
100
AcDbLinetypeTableRecord
  2
PHANTOM
 70
     0
  3
Phantom ______  __  __  ______  __  __  ______
 72
    65
 73
     6
 40
12.7
 49
6.35
 74
     0
 49
-1.27
 74
     0
 49
1.27
 74
     0
 49
-1.27
 74
     0
 49
1.27
 74
     0
 49
-1.27
 74
     0
  0
LTYPE
  5
70
330
5
100
AcDbSymbolTableRecord
100
AcDbLinetypeTableRecord
  2
CENTER
 70
     0
  3
Center ____ _ ____ _ ____ _ ____ _ ____ _ ____
 72
    65
 73
     4
 40
10.16
 49
6.35
 74
     0
 49
-1.27
 74
     0
 49
1.27
 74
     0
 49
-1.27
 74
     0
  0
LTYPE
  5
71
330
5
100
AcDbSymbolTableRecord
100
AcDbLinetypeTableRecord
  2
CENTERX2
 70
     0
  3
Center (2x) ________  __  ________  __  _____
 72
    65
 73
     4
 40
20.32
 49
12.7
 74
     0
 49
-2.54
 74
     0
 49
2.54
 74
     0
 49
-2.54
 74
     0
  0
LTYPE
  5
72
330
5
100
AcDbSymbolTableRecord
100
AcDbLinetypeTableRecord
  2
DOT2
 70
     0
  3
Dot (.5x) ........................................
 72
    65
 73
     2
 40
0.635
 49
0.0
 74
     0
 49
-0.635
 74
     0
  0
ENDTAB
  0
TABLE
  2
LAYER
  5
2
330
0
100
AcDbSymbolTable
 70
     5
  0
LAYER
  5
10
330
2
100
AcDbSymbolTableRecord
100
AcDbLayerTableRecord
  2
0
 70
     0
 62
     7
  6
Continuous
370
    -3
390
F
  0
LAYER
  5
73
330
2
100
AcDbSymbolTableRecord
100
AcDbLayerTableRecord
  2
FORMAT
 70
     0
 62
     7
  6
Continuous
370
    -3
390
F
  0
LAYER
  5
74
330
2
100
AcDbSymbolTableRecord
100
AcDbLayerTableRecord
  2
VERMASSUNG
 70
     0
 62
     7
  6
Continuous
370
    -3
390
F
  0
LAYER
  5
75
330
2
100
AcDbSymbolTableRecord
100
AcDbLayerTableRecord
  2
KOPF_DÜNN
 70
     0
 62
     7
  6
Continuous
370
    -3
390
F
  0
LAYER
  5
76
330
2
100
AcDbSymbolTableRecord
100
AcDbLayerTableRecord
  2
KOPF_DICK
 70
     0
 62
     7
  6
Continuous
370
    15
390
F
  0
ENDTAB
  0
TABLE
  2
STYLE
  5
3
330
0
100
AcDbSymbolTable
 70
     2
  0
STYLE
  5
11
330
3
100
AcDbSymbolTableRecord
100
AcDbTextStyleTableRecord
  2
Standard
 70
     0
 40
0.0
 41
1.0
 50
0.0
 71
     0
 42
2.0
  3
txt
  4

  0
STYLE
  5
77
330
3
100
AcDbSymbolTableRecord
100
AcDbTextStyleTableRecord
  2
SLDTEXTSTYLE0
 70
     0
 40
0.0
 41
0.7
 50
0.0
 71
     0
 42
2.0
  3
TXT
  4

  0
ENDTAB
  0
TABLE
  2
VIEW
  5
6
330
0
100
AcDbSymbolTable
 70
     0
  0
ENDTAB
  0
TABLE
  2
UCS
  5
7
330
0
100
AcDbSymbolTable
 70
     0
  0
ENDTAB
  0
TABLE
  2
APPID
  5
9
330
0
100
AcDbSymbolTable
 70
     1
  0
APPID
  5
12
330
9
100
AcDbSymbolTableRecord
100
AcDbRegAppTableRecord
  2
ACAD
 70
     0
  0
ENDTAB
  0
TABLE
  2
DIMSTYLE
  5
A
330
0
100
AcDbSymbolTable
 70
     3
100
AcDbDimStyleTable
  0
DIMSTYLE
105
27
330
A
100
AcDbSymbolTableRecord
100
AcDbDimStyleTableRecord
  2
ISO-25
 70
     0
 41
2.5
 42
0.625
 43
3.75
 44
1.25
 73
     0
 74
     0
 77
     1
 78
     8
140
2.5
141
2.5
143
0.0393700787
147
0.625
171
     3
172
     1
178
     0
271
     2
272
     2
274
     3
278
    44
283
     0
284
     8
340
11
  0
DIMSTYLE
105
11F
102
{ACAD_REACTORS
330
11E
102
}
330
A
100
AcDbSymbolTableRecord
100
AcDbDimStyleTableRecord
  2
SLDDIMSTYLE0
 70
     0
 41
3.0
 44
0.0
 45
0.000000001
 73
     0
 74
     0
 77
     1
 78
    12
 79
     3
140
2.0
147
0.5
173
     1
178
     0
271
     0
272
     3
276
     2
284
    12
340
77
  0
DIMSTYLE
105
12C
102
{ACAD_REACTORS
330
12B
330
138
330
143
330
14D
330
159
102
}
330
A
100
AcDbSymbolTableRecord
100
AcDbDimStyleTableRecord
  2
SLDDIMSTYLE1
 70
     0
 41
3.0
 44
0.0
 45
0.000000001
 73
     0
 74
     0
 77
     1
 78
    12
 79
     3
140
2.0
147
0.5
173
     1
178
     0
271
     2
272
     3
276
     2
284
    12
340
77
  0
ENDTAB
  0
TABLE
  2
BLOCK_RECORD
  5
1
330
0
100
AcDbSymbolTable
 70
     7
  0
BLOCK_RECORD
  5
1F
330
1
100
AcDbSymbolTableRecord
100
AcDbBlockTableRecord
  2
*Model_Space
340
22
  0
BLOCK_RECORD
  5
1B
330
1
100
AcDbSymbolTableRecord
100
AcDbBlockTableRecord
  2
*Paper_Space
340
1E
  0
BLOCK_RECORD
  5
23
330
1
100
AcDbSymbolTableRecord
100
AcDbBlockTableRecord
  2
*Paper_Space0
340
26
  0
BLOCK_RECORD
  5
120
330
1
100
AcDbSymbolTableRecord
100
AcDbBlockTableRecord
  2
_D
340
0
  0
BLOCK_RECORD
  5
12D
330
1
100
AcDbSymbolTableRecord
100
AcDbBlockTableRecord
  2
_D_1
340
0
  0
BLOCK_RECORD
  5
139
330
1
100
AcDbSymbolTableRecord
100
AcDbBlockTableRecord
  2
_D_2
340
0
  0
BLOCK_RECORD
  5
144
330
1
100
AcDbSymbolTableRecord
100
AcDbBlockTableRecord
  2
_D_3
340
0
  0
BLOCK_RECORD
  5
14E
330
1
100
AcDbSymbolTableRecord
100
AcDbBlockTableRecord
  2
_D_4
340
0
  0
BLOCK_RECORD
  5
15A
330
1
100
AcDbSymbolTableRecord
100
AcDbBlockTableRecord
  2
_D_5
340
0
  0
ENDTAB
  0
ENDSEC
  0
SECTION
  2
BLOCKS
  0
BLOCK
  5
20
330
1F
100
AcDbEntity
  8
0
100
AcDbBlockBegin
  2
*Model_Space
 70
     0
 10
0.0
 20
0.0
 30
0.0
  3
*Model_Space
  1

  0
ENDBLK
  5
21
330
1F
100
AcDbEntity
  8
0
100
AcDbBlockEnd
  0
BLOCK
  5
1C
330
1B
100
AcDbEntity
 67
     1
  8
0
100
AcDbBlockBegin
  2
*Paper_Space
 70
     0
 10
0.0
 20
0.0
 30
0.0
  3
*Paper_Space
  1

  0
ENDBLK
  5
1D
330
1B
100
AcDbEntity
 67
     1
  8
0
100
AcDbBlockEnd
  0
BLOCK
  5
24
330
23
100
AcDbEntity
  8
0
100
AcDbBlockBegin
  2
*Paper_Space0
 70
     0
 10
0.0
 20
0.0
 30
0.0
  3
*Paper_Space0
  1

  0
ENDBLK
  5
25
330
23
100
AcDbEntity
  8
0
100
AcDbBlockEnd
  0
BLOCK
  5
121
330
120
100
AcDbEntity
  8
0
100
AcDbBlockBegin
  2
_D
 70
     0
 10
0.0
 20
0.0
 30
0.0
  3
_D
  1

  0
ARC
  5
123
330
120
100
AcDbEntity
  8
VERMASSUNG
100
AcDbCircle
 10
213.5690085647
 20
181.7825940221
 30
0.0
 40
4.24654473733167
100
AcDbArc
 50
153.4349488229
 51
206.5650511771
  0
ARC
  5
124
330
120
100
AcDbEntity
  8
VERMASSUNG
100
AcDbCircle
 10
211.9457051201
 20
181.7825940221
 30
0.0
 40
4.246544737331645
100
AcDbArc
 50
333.4349488229
 51
26.5650511771
  0
SOLID
  5
125
330
120
100
AcDbEntity
  8
VERMASSUNG
100
AcDbTrace
 10
187.8073568424
 20
179.8834814817
 30
0.0
 11
190.8073568424
 21
179.4334814817
 31
0.0
 12
190.8073568424
 22
180.3334814817
 32
0.0
 13
190.8073568424
 23
180.3334814817
 33
0.0
  0
SOLID
  5
126
330
120
100
AcDbEntity
  8
VERMASSUNG
100
AcDbTrace
 10
237.7073568424
 20
179.8834814817
 30
0.0
 11
234.7073568424
 21
180.3334814817
 31
0.0
 12
234.7073568424
 22
179.4334814817
 32
0.0
 13
234.7073568424
 23
179.4334814817
 33
0.0
  0
LINE
  5
127
330
120
100
AcDbEntity
  8
VERMASSUNG
100
AcDbLine
 10
187.8073568424
 20
162.1945271522
 30
0.0
 11
187.8073568424
 21
180.8834814817
 31
0.0
  0
LINE
  5
128
330
120
100
AcDbEntity
  8
VERMASSUNG
100
AcDbLine
 10
237.7073568424
 20
171.5695271522
 30
0.0
 11
237.7073568424
 21
180.8834814817
 31
0.0
  0
LINE
  5
129
330
120
100
AcDbEntity
  8
VERMASSUNG
100
AcDbLine
 10
187.8073568424
 20
179.8834814817
 30
0.0
 11
237.7073568424
 21
179.8834814817
 31
0.0
  0
MTEXT
  5
12A
330
120
100
AcDbEntity
  8
VERMASSUNG
100
AcDbMText
 10
211.3582834838
 20
182.4616170777
 30
0.0
 40
2.0
 41
0.0
 71
     1
 72
     1
  1
50
  7
SLDTEXTSTYLE0
 73
     1
 44
1.0
  0
ENDBLK
  5
122
330
120
100
AcDbEntity
  8
0
100
AcDbBlockEnd
  0
BLOCK
  5
12E
330
12D
100
AcDbEntity
  8
0
100
AcDbBlockBegin
  2
_D_1
 70
     0
 10
0.0
 20
0.0
 30
0.0
  3
_D_1
  1

  0
SOLID
  5
130
330
12D
100
AcDbEntity
  8
VERMASSUNG
100
AcDbTrace
 10
42.6333685551
 20
78.0570271522
 30
0.0
 11
43.0833685551
 21
81.0570271522
 31
0.0
 12
42.1833685551
 22
81.0570271522
 32
0.0
 13
42.1833685551
 23
81.0570271522
 33
0.0
  0
SOLID
  5
131
330
12D
100
AcDbEntity
  8
VERMASSUNG
100
AcDbTrace
 10
42.6333685552
 20
176.4820271522
 30
0.0
 11
42.1833685552
 21
173.4820271522
 31
0.0
 12
43.0833685552
 22
173.4820271522
 32
0.0
 13
43.0833685552
 23
173.4820271522
 33
0.0
  0
LINE
  5
132
330
12D
100
AcDbEntity
  8
VERMASSUNG
100
AcDbLine
 10
171.1573568424
 20
78.0570271522
 30
0.0
 11
41.6333685551
 21
78.0570271522
 31
0.0
  0
LINE
  5
133
330
12D
100
AcDbEntity
  8
VERMASSUNG
100
AcDbLine
 10
171.1573568424
 20
176.4820271522
 30
0.0
 11
41.6333685552
 21
176.4820271522
 31
0.0
  0
LINE
  5
134
330
12D
100
AcDbEntity
  8
VERMASSUNG
100
AcDbLine
 10
42.6333685551
 20
78.0570271522
 30
0.0
 11
42.6333685552
 21
176.4820271522
 31
0.0
  0
MTEXT
  5
135
330
12D
100
AcDbEntity
  8
VERMASSUNG
100
AcDbMText
 10
39.8552332989
 20
117.2648572001
 30
0.0
 40
2.0
 41
0.0
 71
     1
 72
     1
  1
CAT 50
  7
SLDTEXTSTYLE0
 11
3.391901413832837E-15
 21
1.0
 31
0.0
 73
     1
 44
1.0
  0
MTEXT
  5
136
330
12D
100
AcDbEntity
  8
VERMASSUNG
100
AcDbMText
 10
40.0552332502
 20
127.2648569766
 30
0.0
 40
2.0
 41
0.0
 71
     1
 72
     1
  1
%%c
  7
SLDTEXTSTYLE0
 11
3.391901413832837E-15
 21
1.0
 31
0.0
 73
     1
 44
1.0
  0
MTEXT
  5
137
330
12D
100
AcDbEntity
  8
VERMASSUNG
100
AcDbMText
 10
40.0552329592
 20
130.8747319271
 30
0.0
 40
2.0
 41
0.0
 71
     1
 72
     1
  1
98.43
  7
SLDTEXTSTYLE0
 11
3.391901413832837E-15
 21
1.0
 31
0.0
 73
     1
 44
1.0
  0
ENDBLK
  5
12F
330
12D
100
AcDbEntity
  8
0
100
AcDbBlockEnd
  0
BLOCK
  5
13A
330
139
100
AcDbEntity
  8
0
100
AcDbBlockBegin
  2
_D_2
 70
     0
 10
0.0
 20
0.0
 30
0.0
  3
_D_2
  1

  0
SOLID
  5
13C
330
139
100
AcDbEntity
  8
VERMASSUNG
100
AcDbTrace
 10
248.9311868716
 20
150.2695271522
 30
0.0
 11
248.4811868716
 21
147.2695271522
 31
0.0
 12
249.3811868716
 22
147.2695271522
 32
0.0
 13
249.3811868716
 23
147.2695271522
 33
0.0
  0
SOLID
  5
13D
330
139
100
AcDbEntity
  8
VERMASSUNG
100
AcDbTrace
 10
248.9311868716
 20
104.2695271522
 30
0.0
 11
249.3811868716
 21
107.2695271522
 31
0.0
 12
248.4811868716
 22
107.2695271522
 32
0.0
 13
248.4811868716
 23
107.2695271522
 33
0.0
  0
LINE
  5
13E
330
139
100
AcDbEntity
  8
VERMASSUNG
100
AcDbLine
 10
215.7073568422
 20
150.2695271522
 30
0.0
 11
249.9311868716
 21
150.2695271522
 31
0.0
  0
LINE
  5
13F
330
139
100
AcDbEntity
  8
VERMASSUNG
100
AcDbLine
 10
215.7073568422
 20
104.2695271522
 30
0.0
 11
249.9311868716
 21
104.2695271522
 31
0.0
  0
LINE
  5
140
330
139
100
AcDbEntity
  8
VERMASSUNG
100
AcDbLine
 10
248.9311868716
 20
150.2695271522
 30
0.0
 11
248.9311868716
 21
104.2695271522
 31
0.0
  0
MTEXT
  5
141
330
139
100
AcDbEntity
  8
VERMASSUNG
100
AcDbMText
 10
246.3530513339
 20
123.9661595
 30
0.0
 40
2.0
 41
0.0
 71
     1
 72
     1
  1
%%c
  7
SLDTEXTSTYLE0
 11
-7.044195017643634E-15
 21
1.0
 31
0.0
 73
     1
 44
1.0
  0
MTEXT
  5
142
330
139
100
AcDbEntity
  8
VERMASSUNG
100
AcDbMText
 10
246.3530512757
 20
127.5752505898
 30
0.0
 40
2.0
 41
0.0
 71
     1
 72
     1
  1
46
  7
SLDTEXTSTYLE0
 11
-7.044195017643634E-15
 21
1.0
 31
0.0
 73
     1
 44
1.0
  0
ENDBLK
  5
13B
330
139
100
AcDbEntity
  8
0
100
AcDbBlockEnd
  0
BLOCK
  5
145
330
144
100
AcDbEntity
  8
0
100
AcDbBlockBegin
  2
_D_3
 70
     0
 10
0.0
 20
0.0
 30
0.0
  3
_D_3
  1

  0
SOLID
  5
147
330
144
100
AcDbEntity
  8
VERMASSUNG
100
AcDbTrace
 10
152.7073568424
 20
185.8834814817
 30
0.0
 11
155.7073568424
 21
185.4334814817
 31
0.0
 12
155.7073568424
 22
186.3334814817
 32
0.0
 13
155.7073568424
 23
186.3334814817
 33
0.0
  0
SOLID
  5
148
330
144
100
AcDbEntity
  8
VERMASSUNG
100
AcDbTrace
 10
237.7073568424
 20
185.8834814817
 30
0.0
 11
234.7073568424
 21
186.3334814817
 31
0.0
 12
234.7073568424
 22
185.4334814817
 32
0.0
 13
234.7073568424
 23
185.4334814817
 33
0.0
  0
LINE
  5
149
330
144
100
AcDbEntity
  8
VERMASSUNG
100
AcDbLine
 10
152.7073568424
 20
162.1945271522
 30
0.0
 11
152.7073568424
 21
186.8834814817
 31
0.0
  0
LINE
  5
14A
330
144
100
AcDbEntity
  8
VERMASSUNG
100
AcDbLine
 10
237.7073568424
 20
171.5695271522
 30
0.0
 11
237.7073568424
 21
186.8834814817
 31
0.0
  0
LINE
  5
14B
330
144
100
AcDbEntity
  8
VERMASSUNG
100
AcDbLine
 10
152.7073568424
 20
185.8834814817
 30
0.0
 11
237.7073568424
 21
185.8834814817
 31
0.0
  0
MTEXT
  5
14C
330
144
100
AcDbEntity
  8
VERMASSUNG
100
AcDbMText
 10
193.8082834838
 20
188.4616170777
 30
0.0
 40
2.0
 41
0.0
 71
     1
 72
     1
  1
85
  7
SLDTEXTSTYLE0
 73
     1
 44
1.0
  0
ENDBLK
  5
146
330
144
100
AcDbEntity
  8
0
100
AcDbBlockEnd
  0
BLOCK
  5
14F
330
14E
100
AcDbEntity
  8
0
100
AcDbBlockBegin
  2
_D_4
 70
     0
 10
0.0
 20
0.0
 30
0.0
  3
_D_4
  1

  0
ARC
  5
151
330
14E
100
AcDbEntity
  8
VERMASSUNG
100
AcDbCircle
 10
143.7188910191
 20
193.7825940221
 30
0.0
 40
4.246544737331645
100
AcDbArc
 50
153.4349488229
 51
206.5650511771
  0
ARC
  5
152
330
14E
100
AcDbEntity
  8
VERMASSUNG
100
AcDbCircle
 10
145.0958226657
 20
193.7825940221
 30
0.0
 40
4.246544737331645
100
AcDbArc
 50
333.4349488229
 51
26.5650511771
  0
SOLID
  5
153
330
14E
100
AcDbEntity
  8
VERMASSUNG
100
AcDbTrace
 10
51.1073568424
 20
191.8834814817
 30
0.0
 11
54.1073568424
 21
191.4334814817
 31
0.0
 12
54.1073568424
 22
192.3334814817
 32
0.0
 13
54.1073568424
 23
192.3334814817
 33
0.0
  0
SOLID
  5
154
330
14E
100
AcDbEntity
  8
VERMASSUNG
100
AcDbTrace
 10
237.7073568424
 20
191.8834814817
 30
0.0
 11
234.7073568424
 21
192.3334814817
 31
0.0
 12
234.7073568424
 22
191.4334814817
 32
0.0
 13
234.7073568424
 23
191.4334814817
 33
0.0
  0
LINE
  5
155
330
14E
100
AcDbEntity
  8
VERMASSUNG
100
AcDbLine
 10
51.1073568424
 20
145.6483716796
 30
0.0
 11
51.1073568424
 21
192.8834814817
 31
0.0
  0
LINE
  5
156
330
14E
100
AcDbEntity
  8
VERMASSUNG
100
AcDbLine
 10
237.7073568424
 20
171.5695271522
 30
0.0
 11
237.7073568424
 21
192.8834814817
 31
0.0
  0
LINE
  5
157
330
14E
100
AcDbEntity
  8
VERMASSUNG
100
AcDbLine
 10
51.1073568424
 20
191.8834814817
 30
0.0
 11
237.7073568424
 21
191.8834814817
 31
0.0
  0
MTEXT
  5
158
330
14E
100
AcDbEntity
  8
VERMASSUNG
100
AcDbMText
 10
141.5081659382
 20
194.4616170777
 30
0.0
 40
2.0
 41
0.0
 71
     1
 72
     1
  1
186.6
  7
SLDTEXTSTYLE0
 73
     1
 44
1.0
  0
ENDBLK
  5
150
330
14E
100
AcDbEntity
  8
0
100
AcDbBlockEnd
  0
BLOCK
  5
15B
330
15A
100
AcDbEntity
  8
0
100
AcDbBlockBegin
  2
_D_5
 70
     0
 10
0.0
 20
0.0
 30
0.0
  3
_D_5
  1

  0
SOLID
  5
15D
330
15A
100
AcDbEntity
  8
VERMASSUNG
100
AcDbTrace
 10
254.9311868716
 20
172.2695271522
 30
0.0
 11
254.4811868716
 21
169.2695271522
 31
0.0
 12
255.3811868716
 22
169.2695271522
 32
0.0
 13
255.3811868716
 23
169.2695271522
 33
0.0
  0
SOLID
  5
15E
330
15A
100
AcDbEntity
  8
VERMASSUNG
100
AcDbTrace
 10
254.9311868716
 20
82.2695271522
 30
0.0
 11
255.3811868716
 21
85.2695271522
 31
0.0
 12
254.4811868716
 22
85.2695271522
 32
0.0
 13
254.4811868716
 23
85.2695271522
 33
0.0
  0
LINE
  5
15F
330
15A
100
AcDbEntity
  8
VERMASSUNG
100
AcDbLine
 10
237.0073568424
 20
172.2695271522
 30
0.0
 11
255.9311868716
 21
172.2695271522
 31
0.0
  0
LINE
  5
160
330
15A
100
AcDbEntity
  8
VERMASSUNG
100
AcDbLine
 10
237.0073568424
 20
82.2695271522
 30
0.0
 11
255.9311868716
 21
82.2695271522
 31
0.0
  0
LINE
  5
161
330
15A
100
AcDbEntity
  8
VERMASSUNG
100
AcDbLine
 10
254.9311868716
 20
172.2695271522
 30
0.0
 11
254.9311868716
 21
82.2695271522
 31
0.0
  0
MTEXT
  5
162
330
15A
100
AcDbEntity
  8
VERMASSUNG
100
AcDbMText
 10
252.1530516154
 20
121.1645279303
 30
0.0
 40
2.0
 41
0.0
 71
     1
 72
     1
  1
ST7
  7
SLDTEXTSTYLE0
 11
-7.044195017643634E-15
 21
1.0
 31
0.0
 73
     1
 44
1.0
  0
MTEXT
  5
163
330
15A
100
AcDbEntity
  8
VERMASSUNG
100
AcDbMText
 10
252.3530515667
 20
126.9645278566
 30
0.0
 40
2.0
 41
0.0
 71
     1
 72
     1
  1
%%c
  7
SLDTEXTSTYLE0
 11
-7.044195017643634E-15
 21
1.0
 31
0.0
 73
     1
 44
1.0
  0
MTEXT
  5
164
330
15A
100
AcDbEntity
  8
VERMASSUNG
100
AcDbMText
 10
252.1530516154
 20
130.5745274052
 30
0.0
 40
2.0
 41
0.0
 71
     1
 72
     1
  1
90
  7
SLDTEXTSTYLE0
 11
-7.044195017643634E-15
 21
1.0
 31
0.0
 73
     1
 44
1.0
  0
ENDBLK
  5
15C
330
15A
100
AcDbEntity
  8
0
100
AcDbBlockEnd
  0
ENDSEC
  0
SECTION
  2
ENTITIES
  0
MTEXT
  5
78
330
1F
100
AcDbEntity
  8
KOPF_DÜNN
100
AcDbMText
 10
13.8892156294
 20
23.8442973028
 30
0.0
 40
3.0
 41
0.0
 71
     1
 72
     1
  1
104.350.090.085
  7
SLDTEXTSTYLE0
 73
     1
 44
1.0
  0
MTEXT
  5
79
330
1F
100
AcDbEntity
  8
VERMASSUNG
100
AcDbMText
 10
13.9329988022
 20
28.8834360957
 30
0.0
 40
3.0
 41
0.0
 71
     1
 72
     1
  1
Aufnahme_Master shank ST7+
  7
SLDTEXTSTYLE0
 73
     1
 44
1.0
  0
MTEXT
  5
7A
330
1F
100
AcDbEntity
  8
VERMASSUNG
100
AcDbMText
 10
98.8601118557
 20
13.8365368761
 30
0.0
 40
2.0
 41
0.0
 71
     1
 72
     1
  1
Datum: 07.05.2008
  7
SLDTEXTSTYLE0
 73
     1
 44
1.0
  0
MTEXT
  5
7B
330
1F
100
AcDbEntity
  8
VERMASSUNG
100
AcDbMText
 10
13.933048693
 20
18.0482802738
 30
0.0
 40
2.0
 41
0.0
 71
     1
 72
     1
  1
ANSI B5.50 CAT 50
  7
SLDTEXTSTYLE0
 73
     1
 44
1.0
  0
MTEXT
  5
7C
330
1F
100
AcDbEntity
  8
VERMASSUNG
100
AcDbMText
 10
13.9808475933
 20
13.9090974274
 30
0.0
 40
2.0
 41
0.0
 71
     1
 72
     1
  1
Gewicht: 4410g
  7
SLDTEXTSTYLE0
 73
     1
 44
1.0
  0
ARC
  5
7D
330
1F
100
AcDbEntity
  8
0
  6
Continuous
 62
     7
370
    15
100
AcDbCircle
 10
194.2015110736
 20
83.2695271522
 30
0.0
 40
1.0
100
AcDbArc
 50
210.0
 51
270.0
  0
ARC
  5
7E
330
1F
100
AcDbEntity
  8
0
  6
Continuous
 62
     7
370
    15
100
AcDbCircle
 10
194.2015110736
 20
171.2695271522
 30
0.0
 40
1.0
100
AcDbArc
 50
90.0
 51
150.0
  0
LINE
  5
7F
330
1F
100
AcDbEntity
  8
0
  6
Continuous
 62
     7
370
    15
100
AcDbLine
 10
237.0073568424
 20
172.2695271522
 30
0.0
 11
194.2015110736
 21
172.2695271522
 31
0.0
  0
LINE
  5
80
330
1F
100
AcDbEntity
  8
0
  6
Continuous
 62
     7
370
    15
100
AcDbLine
 10
194.2015110736
 20
82.2695271522
 30
0.0
 11
237.0073568424
 21
82.2695271522
 31
0.0
  0
LINE
  5
81
330
1F
100
AcDbEntity
  8
0
  6
Continuous
 62
     7
370
    15
100
AcDbLine
 10
237.0073568424
 20
82.2695271522
 30
0.0
 11
237.7073568424
 21
82.9695271522
 31
0.0
  0
LINE
  5
82
330
1F
100
AcDbEntity
  8
0
  6
Continuous
 62
     7
370
    15
100
AcDbLine
 10
237.7073568424
 20
171.5695271522
 30
0.0
 11
237.0073568424
 21
172.2695271522
 31
0.0
  0
LINE
  5
83
330
1F
100
AcDbEntity
  8
0
  6
Continuous
 62
     7
370
    15
100
AcDbLine
 10
193.3354856699
 20
171.7695271522
 30
0.0
 11
188.096031977
 21
162.6945271522
 31
0.0
  0
LINE
  5
84
330
1F
100
AcDbEntity
  8
0
  6
Continuous
 62
     7
370
    15
100
AcDbLine
 10
188.096031977
 20
91.8445271522
 30
0.0
 11
193.3354856699
 21
82.7695271522
 31
0.0
  0
ARC
  5
85
330
1F
100
AcDbEntity
  8
0
  6
Continuous
 62
     7
370
    15
100
AcDbCircle
 10
172.3573568424
 20
91.7445271522
 30
0.0
 40
0.6000000000000085
100
AcDbArc
 50
90.0
 51
134.8885589205
  0
ARC
  5
86
330
1F
100
AcDbEntity
  8
0
  6
Continuous
 62
     7
370
    15
100
AcDbCircle
 10
172.3573568424
 20
162.7945271522
 30
0.0
 40
0.5999999999999943
100
AcDbArc
 50
180.0
 51
270.0
  0
ARC
  5
87
330
1F
100
AcDbEntity
  8
0
  6
Continuous
 62
     7
370
    15
100
AcDbCircle
 10
155.2823568424
 20
91.7445271522
 30
0.0
 40
0.6000000000000085
100
AcDbArc
 50
45.0645284205
 51
90.0
  0
ARC
  5
88
330
1F
100
AcDbEntity
  8
0
  6
Continuous
 62
     7
370
    15
100
AcDbCircle
 10
155.2823568424
 20
162.7945271522
 30
0.0
 40
0.5999999999999943
100
AcDbArc
 50
270.0
 51
0.0
  0
ARC
  5
89
330
1F
100
AcDbEntity
  8
0
  6
Continuous
 62
     7
370
    15
100
AcDbCircle
 10
187.2300065732
 20
163.1945271522
 30
0.0
 40
1.000000000000008
100
AcDbArc
 50
270.0
 51
330.0
  0
ARC
  5
8A
330
1F
100
AcDbEntity
  8
0
  6
Continuous
 62
     7
370
    15
100
AcDbCircle
 10
187.2300065732
 20
91.3445271522
 30
0.0
 40
1.000000000000015
100
AcDbArc
 50
30.0
 51
90.0
  0
LINE
  5
8B
330
1F
100
AcDbEntity
  8
0
  6
Continuous
 62
     7
370
    15
100
AcDbLine
 10
172.3573568424
 20
92.3445271522
 30
0.0
 11
187.2300065732
 21
92.3445271522
 31
0.0
  0
LINE
  5
8C
330
1F
100
AcDbEntity
  8
0
  6
Continuous
 62
     7
370
    15
100
AcDbLine
 10
187.2300065732
 20
162.1945271522
 30
0.0
 11
172.3573568424
 21
162.1945271522
 31
0.0
  0
LINE
  5
8D
330
1F
100
AcDbEntity
  8
0
  6
Continuous
 62
     7
370
    15
100
AcDbLine
 10
152.7073568424
 20
92.3445271522
 30
0.0
 11
155.2823568424
 21
92.3445271522
 31
0.0
  0
LINE
  5
8E
330
1F
100
AcDbEntity
  8
0
  6
Continuous
 62
     7
370
    15
100
AcDbLine
 10
155.2823568424
 20
162.1945271522
 30
0.0
 11
152.7073568424
 21
162.1945271522
 31
0.0
  0
LINE
  5
8F
330
1F
100
AcDbEntity
  8
0
  6
Continuous
 62
     7
370
    15
100
AcDbLine
 10
152.7073568424
 20
162.1945271522
 30
0.0
 11
52.8187430562
 21
147.6274376417
 31
0.0
  0
LINE
  5
90
330
1F
100
AcDbEntity
  8
0
  6
Continuous
 62
     7
370
    15
100
AcDbLine
 10
52.8187430562
 20
106.9116166627
 30
0.0
 11
152.7073568424
 21
92.3445271522
 31
0.0
  0
ARC
  5
91
330
1F
100
AcDbEntity
  8
0
  6
Continuous
 62
     7
370
    15
100
AcDbCircle
 10
53.1073568424
 20
108.8906826248
 30
0.0
 40
1.999999999999992
100
AcDbArc
 50
180.0
 51
261.7028550302
  0
ARC
  5
92
330
1F
100
AcDbEntity
  8
0
  6
Continuous
 62
     7
370
    15
100
AcDbCircle
 10
53.1073568424
 20
145.6483716796
 30
0.0
 40
1.999999999999992
100
AcDbArc
 50
98.2971449698
 51
180.0
  0
SPLINE
  5
93
330
1F
100
AcDbEntity
  8
0
  6
Continuous
 62
     7
370
    15
100
AcDbSpline
210
0.0
220
0.0
230
1.0
 70
    24
 71
     3
 72
    12
 73
     8
 74
     0
 42
0.000000001
 43
0.00000001
 40
0.0
 40
0.0
 40
0.0
 40
0.0
 40
0.1345036054140239
 40
0.3093344499766864
 40
0.4837347430244789
 40
0.8160085028076289
 40
1.0
 40
1.0
 40
1.0
 40
1.0
 10
221.5441081883111
 20
122.2695271521861
 30
0.0
 10
221.3001321516068
 20
122.2695271521861
 30
0.0
 10
220.7390305150439
 20
122.2695271521861
 30
0.0
 10
219.8082057667454
 20
122.2695271521861
 30
0.0
 10
218.445364060377
 20
122.2695271521861
 30
0.0
 10
217.0445178116148
 20
122.2695271521861
 30
0.0
 10
216.1053242017616
 20
122.2695271521861
 30
0.0
 10
215.7706054964148
 20
122.2695271521861
 30
0.0
  0
SPLINE
  5
94
330
1F
100
AcDbEntity
  8
0
  6
Continuous
 62
     7
370
    15
100
AcDbSpline
210
0.0
220
0.0
230
1.0
 70
    24
 71
     3
 72
    11
 73
     7
 74
     0
 42
0.000000001
 43
0.00000001
 40
0.0
 40
0.0
 40
0.0
 40
0.0
 40
0.2164575325957953
 40
0.4403158827730663
 40
0.7519042103606943
 40
1.0
 40
1.0
 40
1.0
 40
1.0
 10
224.4308595342592
 20
127.2695271521861
 30
0.0
 10
224.2331122635114
 20
126.9270188321927
 30
0.0
 10
223.8308566199163
 20
126.2302916198547
 30
0.0
 10
223.0843810217593
 20
124.9373579572365
 30
0.0
 10
222.2836598154668
 20
123.5504681452401
 30
0.0
 10
221.7712488281792
 20
122.6629462809015
 30
0.0
 10
221.5441081883111
 20
122.2695271521861
 30
0.0
  0
SPLINE
  5
95
330
1F
100
AcDbEntity
  8
0
  6
Continuous
 62
     7
370
    15
100
AcDbSpline
210
0.0
220
0.0
230
1.0
 70
    24
 71
     3
 72
    11
 73
     7
 74
     0
 42
0.000000001
 43
0.00000001
 40
0.0
 40
0.0
 40
0.0
 40
0.0
 40
0.2164575325957951
 40
0.4403158827730659
 40
0.7519042103606929
 40
1.0
 40
1.0
 40
1.0
 40
1.0
 10
221.5441081883111
 20
132.2695271521861
 30
0.0
 10
221.741855459059
 20
131.9270188321927
 30
0.0
 10
222.1441111026541
 20
131.2302916198547
 30
0.0
 10
222.8905867008111
 20
129.9373579572365
 30
0.0
 10
223.6913079071035
 20
128.5504681452401
 30
0.0
 10
224.2037188943911
 20
127.6629462809015
 30
0.0
 10
224.4308595342593
 20
127.2695271521861
 30
0.0
  0
SPLINE
  5
96
330
1F
100
AcDbEntity
  8
0
  6
Continuous
 62
     7
370
    15
100
AcDbSpline
210
0.0
220
0.0
230
1.0
 70
    24
 71
     3
 72
    12
 73
     8
 74
     0
 42
0.000000001
 43
0.00000001
 40
0.0
 40
0.0
 40
0.0
 40
0.0
 40
0.1839914971923697
 40
0.5162652569755202
 40
0.690665550023313
 40
0.8654963945859758
 40
1.0
 40
1.0
 40
1.0
 40
1.0
 10
215.7706054964148
 20
132.2695271521861
 30
0.0
 10
216.1053242017617
 20
132.2695271521861
 30
0.0
 10
217.0445178116148
 20
132.2695271521861
 30
0.0
 10
218.445364060377
 20
132.2695271521861
 30
0.0
 10
219.8082057667454
 20
132.2695271521861
 30
0.0
 10
220.7390305150439
 20
132.2695271521861
 30
0.0
 10
221.3001321516068
 20
132.2695271521861
 30
0.0
 10
221.5441081883111
 20
132.2695271521861
 30
0.0
  0
SPLINE
  5
97
330
1F
100
AcDbEntity
  8
0
  6
Continuous
 62
     7
370
    15
100
AcDbSpline
210
0.0
220
0.0
230
1.0
 70
    24
 71
     3
 72
    11
 73
     7
 74
     0
 42
0.000000001
 43
0.00000001
 40
0.0
 40
0.0
 40
0.0
 40
0.0
 40
0.2164575325957946
 40
0.4403158827730654
 40
0.7519042103606929
 40
0.9999999999999999
 40
0.9999999999999999
 40
0.9999999999999999
 40
0.9999999999999999
 10
215.7706054964148
 20
122.2695271521861
 30
0.0
 10
215.572858225667
 20
122.6120354721796
 30
0.0
 10
215.1706025820719
 20
123.3087626845175
 30
0.0
 10
214.4241269839149
 20
124.6016963471358
 30
0.0
 10
213.6234057776224
 20
125.9885861591322
 30
0.0
 10
213.1109947903348
 20
126.8761080234708
 30
0.0
 10
212.8838541504667
 20
127.2695271521861
 30
0.0
  0
CIRCLE
  5
98
330
1F
100
AcDbEntity
  8
0
  6
Continuous
 62
     7
370
    15
100
AcDbCircle
 10
218.6573568424
 20
127.2695271522
 30
0.0
 40
5.799999999999997
  0
SPLINE
  5
99
330
1F
100
AcDbEntity
  8
0
  6
Continuous
 62
     7
370
    15
100
AcDbSpline
210
0.0
220
0.0
230
1.0
 70
    24
 71
     3
 72
    11
 73
     7
 74
     0
 42
0.000000001
 43
0.00000001
 40
0.0
 40
0.0
 40
0.0
 40
0.0
 40
0.2164575325957946
 40
0.4403158827730662
 40
0.7519042103606933
 40
1.0
 40
1.0
 40
1.0
 40
1.0
 10
212.8838541504667
 20
127.2695271521861
 30
0.0
 10
213.0816014212146
 20
127.6120354721796
 30
0.0
 10
213.4838570648097
 20
128.3087626845175
 30
0.0
 10
214.2303326629666
 20
129.6016963471358
 30
0.0
 10
215.0310538692591
 20
130.9885861591322
 30
0.0
 10
215.5434648565467
 20
131.8761080234708
 30
0.0
 10
215.7706054964148
 20
132.2695271521861
 30
0.0
  0
CIRCLE
  5
9A
330
1F
100
AcDbEntity
  8
0
  6
Continuous
 62
     7
370
    15
100
AcDbCircle
 10
218.6573568424
 20
127.2695271522
 30
0.0
 40
9.200000000000003
  0
CIRCLE
  5
9B
330
1F
100
AcDbEntity
  8
0
  6
Continuous
 62
     7
370
    15
100
AcDbCircle
 10
218.6573568424
 20
127.2695271522
 30
0.0
 40
9.999999999999986
  0
ARC
  5
9C
330
1F
100
AcDbEntity
  8
0
  6
Continuous
 62
     7
370
    15
100
AcDbCircle
 10
218.6573568424
 20
127.2695271522
 30
0.0
 40
4.999999999999999
100
AcDbArc
 50
330.0
 51
30.0
  0
ARC
  5
9D
330
1F
100
AcDbEntity
  8
0
  6
Continuous
 62
     7
370
    15
100
AcDbCircle
 10
218.6573568424
 20
127.2695271522
 30
0.0
 40
4.999999999999992
100
AcDbArc
 50
270.0
 51
330.0
  0
ARC
  5
9E
330
1F
100
AcDbEntity
  8
0
  6
Continuous
 62
     7
370
    15
100
AcDbCircle
 10
218.6573568424
 20
127.2695271522
 30
0.0
 40
5.000000000000014
100
AcDbArc
 50
30.0
 51
90.0
  0
ARC
  5
9F
330
1F
100
AcDbEntity
  8
0
  6
Continuous
 62
     7
370
    15
100
AcDbCircle
 10
218.6573568424
 20
127.2695271522
 30
0.0
 40
5.000000000000023
100
AcDbArc
 50
90.0
 51
150.0
  0
ARC
  5
A0
330
1F
100
AcDbEntity
  8
0
  6
Continuous
 62
     7
370
    15
100
AcDbCircle
 10
218.6573568424
 20
127.2695271522
 30
0.0
 40
5.000000000000023
100
AcDbArc
 50
150.0
 51
210.0
  0
ARC
  5
A1
330
1F
100
AcDbEntity
  8
0
  6
Continuous
 62
     7
370
    15
100
AcDbCircle
 10
218.6573568424
 20
127.2695271522
 30
0.0
 40
5.000000000000009
100
AcDbArc
 50
210.0
 51
270.0
  0
LINE
  5
A2
330
1F
100
AcDbEntity
  8
0
  6
Continuous
 62
     7
370
    15
100
AcDbLine
 10
165.7173568424
 20
82.6706009742
 30
0.0
 11
165.7173568424
 21
171.8684533302
 31
0.0
  0
SPLINE
  5
A3
330
1F
100
AcDbEntity
  8
0
  6
Continuous
 62
     7
370
    15
100
AcDbSpline
210
0.0
220
0.0
230
1.0
 70
     8
 71
     3
 72
     8
 73
     4
 74
     0
 42
0.000000001
 43
0.00000001
 40
0.0
 40
0.0
 40
0.0
 40
0.0
 40
1.0
 40
1.0
 40
1.0
 40
1.0
 10
166.7766104973828
 20
173.7747653502031
 30
0.0
 10
166.4231158833153
 20
173.1395515065265
 30
0.0
 10
166.0700148161668
 20
172.5041231679494
 30
0.0
 10
165.717356842363
 20
171.8684533301804
 30
0.0
  0
SPLINE
  5
A4
330
1F
100
AcDbEntity
  8
0
  6
Continuous
 62
     7
370
    15
100
AcDbSpline
210
0.0
220
0.0
230
1.0
 70
     8
 71
     3
 72
     8
 73
     4
 74
     0
 42
0.000000001
 43
0.00000001
 40
0.0
 40
0.0
 40
0.0
 40
0.0
 40
0.0012377667921472
 40
0.0012377667921472
 40
0.0012377667921472
 40
0.0012377667921472
 10
167.3335236114387
 20
174.5564028669368
 30
0.0
 10
167.147431812061
 20
174.2960190464395
 30
0.0
 10
166.9617841558454
 20
174.0354762456021
 30
0.0
 10
166.7766104973825
 20
173.774765350202
 30
0.0
  0
LINE
  5
A5
330
1F
100
AcDbEntity
  8
0
  6
Continuous
 62
     7
370
    15
100
AcDbLine
 10
167.3335236114
 20
80.0324150244
 30
0.0
 11
167.3335236114
 21
174.5564028669
 31
0.0
  0
SPLINE
  5
A6
330
1F
100
AcDbEntity
  8
0
  6
Continuous
 62
     7
370
    15
100
AcDbSpline
210
0.0
220
0.0
230
1.0
 70
     8
 71
     3
 72
     8
 73
     4
 74
     0
 42
0.000000001
 43
0.00000001
 40
0.0
 40
0.0
 40
0.0
 40
0.0
 40
0.001189174191963
 40
0.001189174191963
 40
0.001189174191963
 40
0.001189174191963
 10
166.8793649674419
 20
80.57966971430716
 30
0.0
 10
167.0297496597883
 20
80.3970462016017
 30
0.0
 10
167.1811551851653
 20
80.21463037947485
 30
0.0
 10
167.3335236114387
 20
80.03241502435502
 30
0.0
  0
SPLINE
  5
A7
330
1F
100
AcDbEntity
  8
0
  6
Continuous
 62
     7
370
    15
100
AcDbSpline
210
0.0
220
0.0
230
1.0
 70
     8
 71
     3
 72
     8
 73
     4
 74
     0
 42
0.000000001
 43
0.00000001
 40
0.0
 40
0.0
 40
0.0
 40
0.0
 40
1.0
 40
1.0
 40
1.0
 40
1.0
 10
166.8793649674419
 20
80.57966971430717
 30
0.0
 10
166.4915427628881
 20
81.276373578528
 30
0.0
 10
166.1041852326488
 20
81.97333858864268
 30
0.0
 10
165.717356842363
 20
82.6706009741919
 30
0.0
  0
LINE
  5
A8
330
1F
100
AcDbEntity
  8
0
  6
Continuous
 62
     7
370
    15
100
AcDbLine
 10
171.1573568424
 20
174.5564028669
 30
0.0
 11
167.3335236114
 21
174.5564028669
 31
0.0
  0
LINE
  5
A9
330
1F
100
AcDbEntity
  8
0
  6
Continuous
 62
     7
370
    15
100
AcDbLine
 10
167.3335236114
 20
80.0324150244
 30
0.0
 11
171.1573568424
 21
80.0324150244
 31
0.0
  0
LINE
  5
AA
330
1F
100
AcDbEntity
  8
0
  6
Continuous
 62
     7
370
    15
100
AcDbLine
 10
155.8823568424
 20
80.6717519236
 30
0.0
 11
155.8823568424
 21
173.8673023807
 31
0.0
  0
SPLINE
  5
AB
330
1F
100
AcDbEntity
  8
0
  6
Continuous
 62
     7
370
    15
100
AcDbSpline
210
0.0
220
0.0
230
1.0
 70
     8
 71
     3
 72
    10
 73
     6
 74
     0
 42
0.000000001
 43
0.00000001
 40
0.0
 40
0.0
 40
0.0
 40
0.0
 40
0.5
 40
0.5
 40
1.0
 40
1.0
 40
1.0
 40
1.0
 10
156.171073021034
 20
174.4860491715286
 30
0.0
 10
156.0949235973376
 20
174.4160969629781
 30
0.0
 10
156.0262915142414
 20
174.3293381582524
 30
0.0
 10
155.9202118342882
 20
174.1210104609297
 30
0.0
 10
155.882356842363
 20
173.9961285500451
 30
0.0
 10
155.882356842363
 20
173.8673023807311
 30
0.0
  0
SPLINE
  5
AC
330
1F
100
AcDbEntity
  8
0
  6
Continuous
 62
     7
370
    15
100
AcDbSpline
210
0.0
220
0.0
230
1.0
 70
     8
 71
     3
 72
     8
 73
     4
 74
     0
 42
0.000000001
 43
0.00000001
 40
0.0
 40
0.0
 40
0.0
 40
0.0
 40
1.0
 40
1.0
 40
1.0
 40
1.0
 10
156.482356842363
 20
174.5564028669368
 30
0.0
 10
156.3707805341532
 20
174.5564028669368
 30
0.0
 10
156.2626723732313
 20
174.5309803648643
 30
0.0
 10
156.171073021034
 20
174.4860491715286
 30
0.0
  0
SPLINE
  5
AD
330
1F
100
AcDbEntity
  8
0
  6
Continuous
 62
     7
370
    15
100
AcDbSpline
210
0.0
220
0.0
230
1.0
 70
     8
 71
     3
 72
    10
 73
     6
 74
     0
 42
0.000000001
 43
0.00000001
 40
0.0
 40
0.0
 40
0.0
 40
0.0
 40
0.5
 40
0.5
 40
1.0
 40
1.0
 40
1.0
 40
1.0
 10
156.0974790716278
 20
80.12900251601174
 30
0.0
 10
156.1461505589995
 20
80.10082917051945
 30
0.0
 10
156.2035924483008
 20
80.07669227158448
 30
0.0
 10
156.334484807935
 20
80.04229022353984
 30
0.0
 10
156.4073619669587
 20
80.03241502435499
 30
0.0
 10
156.482356842363
 20
80.032415024355
 30
0.0
  0
SPLINE
  5
AE
330
1F
100
AcDbEntity
  8
0
  6
Continuous
 62
     7
370
    15
100
AcDbSpline
210
0.0
220
0.0
230
1.0
 70
     8
 71
     3
 72
    10
 73
     6
 74
     0
 42
0.000000001
 43
0.00000001
 40
0.0
 40
0.0
 40
0.0
 40
0.0
 40
0.5
 40
0.5
 40
1.0
 40
1.0
 40
1.0
 40
1.0
 10
156.0974790716278
 20
80.12900251601174
 30
0.0
 10
156.0394269071608
 20
80.19632398842283
 30
0.0
 10
155.9871005369502
 20
80.2765205649256
 30
0.0
 10
155.9089416614474
 20
80.45898637796789
 30
0.0
 10
155.8823568423636
 20
80.56457277405518
 30
0.0
 10
155.882356842363
 20
80.67175192363702
 30
0.0
  0
LINE
  5
AF
330
1F
100
AcDbEntity
  8
0
  6
Continuous
 62
     7
370
    15
100
AcDbLine
 10
160.2811900733
 20
174.5564028669
 30
0.0
 11
156.4823568424
 21
174.5564028669
 31
0.0
  0
LINE
  5
B0
330
1F
100
AcDbEntity
  8
0
  6
Continuous
 62
     7
370
    15
100
AcDbLine
 10
160.2811900733
 20
80.0324150244
 30
0.0
 11
160.2811900733
 21
174.5564028669
 31
0.0
  0
LINE
  5
B1
330
1F
100
AcDbEntity
  8
0
  6
Continuous
 62
     7
370
    15
100
AcDbLine
 10
156.4823568424
 20
80.0324150244
 30
0.0
 11
160.2811900733
 21
80.0324150244
 31
0.0
  0
SPLINE
  5
B2
330
1F
100
AcDbEntity
  8
0
  6
Continuous
 62
     7
370
    15
100
AcDbSpline
210
0.0
220
0.0
230
1.0
 70
     8
 71
     3
 72
    12
 73
     8
 74
     0
 42
0.000000001
 43
0.00000001
 40
0.0
 40
0.0
 40
0.0
 40
0.0
 40
0.5
 40
0.5
 40
0.75
 40
0.75
 40
1.0
 40
1.0
 40
1.0
 40
1.0
 10
171.757356842363
 20
174.0707815593056
 30
0.0
 10
171.757356842363
 20
174.1910791856375
 30
0.0
 10
171.7034646508869
 20
174.309116355819
 30
0.0
 10
171.5425097260259
 20
174.4487132253604
 30
0.0
 10
171.4777910977988
 20
174.4869656934395
 30
0.0
 10
171.3256044398981
 20
174.5418013953446
 30
0.0
 10
171.242836402312
 20
174.5564028669368
 30
0.0
 10
171.157356842363
 20
174.5564028669368
 30
0.0
  0
LINE
  5
B3
330
1F
100
AcDbEntity
  8
0
  6
Continuous
 62
     7
370
    15
100
AcDbLine
 10
171.7573568424
 20
80.4490684381
 30
0.0
 11
171.7573568424
 21
174.0707815593
 31
0.0
  0
SPLINE
  5
B4
330
1F
100
AcDbEntity
  8
0
  6
Continuous
 62
     7
370
    15
100
AcDbSpline
210
0.0
220
0.0
230
1.0
 70
     8
 71
     3
 72
    12
 73
     8
 74
     0
 42
0.000000001
 43
0.00000001
 40
0.0
 40
0.0
 40
0.0
 40
0.0
 40
0.2500000000000001
 40
0.2500000000000001
 40
0.5000000000000002
 40
0.5000000000000002
 40
1.0
 40
1.0
 40
1.0
 40
1.0
 10
171.157356842363
 20
80.03241502435502
 30
0.0
 10
171.253337684763
 20
80.03241502435502
 30
0.0
 10
171.3457709027011
 20
80.04877147230555
 30
0.0
 10
171.5022028601369
 20
80.10241215138473
 30
0.0
 10
171.5656776359673
 20
80.13871872256506
 30
0.0
 10
171.7139458910923
 20
80.26000697862426
 30
0.0
 10
171.757356842363
 20
80.35430937551732
 30
0.0
 10
171.757356842363
 20
80.44906843811368
 30
0.0
  0
SPLINE
  5
B5
330
1F
100
AcDbEntity
  8
0
  6
Continuous
 62
     7
370
    15
100
AcDbSpline
210
0.0
220
0.0
230
1.0
 70
     8
 71
     3
 72
     8
 73
     4
 74
     0
 42
0.000000001
 43
0.00000001
 40
0.0
 40
0.0
 40
0.0
 40
0.0
 40
0.001237766792151
 40
0.001237766792151
 40
0.001237766792151
 40
0.001237766792151
 10
160.8381031873452
 20
173.7747653501996
 30
0.0
 10
160.6529295288817
 20
174.0354762456005
 30
0.0
 10
160.4672818726656
 20
174.2960190464388
 30
0.0
 10
160.2811900732874
 20
174.5564028669368
 30
0.0
  0
SPLINE
  5
B6
330
1F
100
AcDbEntity
  8
0
  6
Continuous
 62
     7
370
    15
100
AcDbSpline
210
0.0
220
0.0
230
1.0
 70
     8
 71
     3
 72
     8
 73
     4
 74
     0
 42
0.000000001
 43
0.00000001
 40
0.0
 40
0.0
 40
0.0
 40
0.0
 40
1.0
 40
1.0
 40
1.0
 40
1.0
 10
161.897356842363
 20
171.8684533301804
 30
0.0
 10
161.5446988685598
 20
172.5041231679482
 30
0.0
 10
161.191597801412
 20
173.1395515065242
 30
0.0
 10
160.8381031873452
 20
173.7747653501996
 30
0.0
  0
LINE
  5
B7
330
1F
100
AcDbEntity
  8
0
  6
Continuous
 62
     7
370
    15
100
AcDbLine
 10
161.8973568424
 20
82.6706009742
 30
0.0
 11
161.8973568424
 21
171.8684533302
 31
0.0
  0
SPLINE
  5
B8
330
1F
100
AcDbEntity
  8
0
  6
Continuous
 62
     7
370
    15
100
AcDbSpline
210
0.0
220
0.0
230
1.0
 70
     8
 71
     3
 72
     8
 73
     4
 74
     0
 42
0.000000001
 43
0.00000001
 40
0.0
 40
0.0
 40
0.0
 40
0.0
 40
1.0
 40
1.0
 40
1.0
 40
1.0
 10
161.897356842363
 20
82.6706009741919
 30
0.0
 10
161.5105284520772
 20
81.97333858864268
 30
0.0
 10
161.1231709218379
 20
81.27637357852798
 30
0.0
 10
160.7353487172841
 20
80.57966971430716
 30
0.0
  0
SPLINE
  5
B9
330
1F
100
AcDbEntity
  8
0
  6
Continuous
 62
     7
370
    15
100
AcDbSpline
210
0.0
220
0.0
230
1.0
 70
     8
 71
     3
 72
     8
 73
     4
 74
     0
 42
0.000000001
 43
0.00000001
 40
0.0
 40
0.0
 40
0.0
 40
0.0
 40
0.0011891741919631
 40
0.0011891741919631
 40
0.0011891741919631
 40
0.0011891741919631
 10
160.2811900732874
 20
80.03241502435502
 30
0.0
 10
160.4335584995607
 20
80.21463037947485
 30
0.0
 10
160.5849640249377
 20
80.3970462016017
 30
0.0
 10
160.7353487172841
 20
80.57966971430716
 30
0.0
  0
SPLINE
  5
BA
330
1F
100
AcDbEntity
  8
0
  6
Continuous
 62
     7
370
    15
100
AcDbSpline
210
0.0
220
0.0
230
1.0
 70
     8
 71
     3
 72
    12
 73
     8
 74
     0
 42
0.000000001
 43
0.00000001
 40
0.0
 40
0.0
 40
0.0
 40
0.0
 40
0.4999999999999928
 40
0.4999999999999928
 40
0.7499999999999963
 40
0.7499999999999963
 40
1.0
 40
1.0
 40
1.0
 40
1.0
 10
162.697356842363
 20
83.62176088631634
 30
0.0
 10
162.4831818758888
 20
83.62176088631634
 30
0.0
 10
162.2726820632694
 20
83.52780491369938
 30
0.0
 10
162.0519389679583
 20
83.29271320575371
 30
0.0
 10
161.994791835238
 20
83.20108104104615
 30
0.0
 10
161.9172174115909
 20
83.00187166712561
 30
0.0
 10
161.8973568423631
 20
82.89491230677206
 30
0.0
 10
161.897356842363
 20
82.7884356637801
 30
0.0
  0
SPLINE
  5
BB
330
1F
100
AcDbEntity
  8
0
  6
Continuous
 62
     7
370
    15
100
AcDbSpline
210
0.0
220
0.0
230
1.0
 70
     8
 71
     3
 72
    12
 73
     8
 74
     0
 42
0.000000001
 43
0.00000001
 40
0.0
 40
0.0
 40
0.0
 40
0.0
 40
0.25
 40
0.25
 40
0.5
 40
0.5
 40
1.0
 40
1.0
 40
1.0
 40
1.0
 10
162.697356842363
 20
170.9172934180559
 30
0.0
 10
162.5895520151142
 20
170.9172934180559
 30
0.0
 10
162.4833389770549
 20
170.9400909579456
 30
0.0
 10
162.2876215640626
 20
171.0264516726028
 30
0.0
 10
162.1986867358655
 20
171.0901191617342
 30
0.0
 10
161.9798844688666
 20
171.3229502647262
 30
0.0
 10
161.897356842363
 20
171.5371831660072
 30
0.0
 10
161.897356842363
 20
171.7506186405928
 30
0.0
  0
SPLINE
  5
BC
330
1F
100
AcDbEntity
  8
0
  6
Continuous
 62
     7
370
    15
100
AcDbSpline
210
0.0
220
0.0
230
1.0
 70
     8
 71
     3
 72
    14
 73
    10
 74
     0
 42
0.000000001
 43
0.00000001
 40
0.0
 40
0.0
 40
0.0
 40
0.0
 40
0.25
 40
0.25
 40
0.5
 40
0.5
 40
0.75
 40
0.75
 40
1.0
 40
1.0
 40
1.0
 40
1.0
 10
165.717356842363
 20
82.7884356637795
 30
0.0
 10
165.717356842363
 20
82.89583916327727
 30
0.0
 10
165.6974439115062
 20
83.00209127747415
 30
0.0
 10
165.619794867259
 20
83.20132178472718
 30
0.0
 10
165.5620153592251
 20
83.29355959937287
 30
0.0
 10
165.4161002904005
 20
83.44888392977303
 30
0.0
 10
165.3274367224871
 20
83.51244627021212
 30
0.0
 10
165.131082677159
 20
83.59909650963115
 30
0.0
 10
165.0252925871376
 20
83.62176088631634
 30
0.0
 10
164.917356842363
 20
83.62176088631634
 30
0.0
  0
SPLINE
  5
BD
330
1F
100
AcDbEntity
  8
0
  6
Continuous
 62
     7
370
    15
100
AcDbSpline
210
0.0
220
0.0
230
1.0
 70
     8
 71
     3
 72
    14
 73
    10
 74
     0
 42
0.000000001
 43
0.00000001
 40
0.0
 40
0.0
 40
0.0
 40
0.0
 40
0.25
 40
0.25
 40
0.5
 40
0.5
 40
0.75
 40
0.75
 40
1.0
 40
1.0
 40
1.0
 40
1.0
 10
165.717356842363
 20
171.7506186405928
 30
0.0
 10
165.717356842363
 20
171.6432762684453
 30
0.0
 10
165.6973606502988
 20
171.5366472615975
 30
0.0
 10
165.6196625659541
 20
171.3374954824463
 30
0.0
 10
165.5616694210606
 20
171.2450125841308
 30
0.0
 10
165.4156229282378
 20
171.0897767490216
 30
0.0
 10
165.3262851890701
 20
171.0260428074093
 30
0.0
 10
165.1315301770096
 20
170.9402125410141
 30
0.0
 10
165.0239999058007
 20
170.9172934180556
 30
0.0
 10
164.9173568423609
 20
170.9172934180559
 30
0.0
  0
LINE
  5
BE
330
1F
100
AcDbEntity
  8
0
  6
Continuous
 62
     7
370
    15
100
AcDbLine
 10
164.9173568424
 20
83.6217608863
 30
0.0
 11
162.6973568424
 21
83.6217608863
 31
0.0
  0
LINE
  5
BF
330
1F
100
AcDbEntity
  8
0
  6
Continuous
 62
     7
370
    15
100
AcDbLine
 10
164.9173568424
 20
170.917293418
 30
0.0
 11
162.6973568424
 21
170.9172934181
 31
0.0
  0
SPLINE
  5
C0
330
1F
100
AcDbEntity
  8
0
  6
Continuous
 62
     7
370
    15
100
AcDbSpline
210
0.0
220
0.0
230
1.0
 70
    11
 71
     3
 72
    99
 73
    95
 74
     0
 42
0.000000001
 43
0.00000001
 40
0.0
 40
0.0
 40
0.0
 40
0.0
 40
0.0312500000000009
 40
0.0312500000000009
 40
0.0468750000000012
 40
0.0468750000000012
 40
0.0625000000000015
 40
0.0625000000000015
 40
0.0937500000000021
 40
0.0937500000000021
 40
0.1093750000000021
 40
0.1093750000000021
 40
0.1250000000000021
 40
0.1250000000000021
 40
0.1562500000000022
 40
0.1562500000000022
 40
0.1718750000000022
 40
0.1718750000000022
 40
0.1875000000000022
 40
0.1875000000000022
 40
0.2187500000000027
 40
0.2187500000000027
 40
0.2343750000000027
 40
0.2343750000000027
 40
0.2500000000000027
 40
0.2500000000000027
 40
0.2812500000000023
 40
0.2812500000000023
 40
0.2968750000000019
 40
0.2968750000000019
 40
0.3125000000000016
 40
0.3125000000000016
 40
0.3437500000000008
 40
0.3437500000000008
 40
0.3593750000000003
 40
0.3593750000000003
 40
0.3749999999999999
 40
0.3906249999999995
 40
0.3906249999999995
 40
0.4062499999999991
 40
0.4062499999999991
 40
0.4374999999999981
 40
0.4374999999999981
 40
0.4531249999999978
 40
0.4531249999999978
 40
0.4687499999999974
 40
0.4687499999999974
 40
0.4843749999999971
 40
0.4843749999999971
 40
0.4999999999999968
 40
0.4999999999999968
 40
0.5312499999999966
 40
0.5312499999999966
 40
0.5468749999999962
 40
0.5468749999999962
 40
0.5624999999999959
 40
0.5624999999999959
 40
0.5937499999999958
 40
0.5937499999999958
 40
0.6249999999999957
 40
0.6249999999999957
 40
0.6562499999999956
 40
0.6562499999999956
 40
0.6874999999999954
 40
0.6874999999999954
 40
0.7031249999999953
 40
0.7031249999999953
 40
0.7187499999999952
 40
0.7187499999999952
 40
0.7499999999999953
 40
0.7499999999999953
 40
0.7656249999999957
 40
0.7656249999999957
 40
0.7812499999999959
 40
0.7812499999999959
 40
0.8124999999999964
 40
0.8124999999999964
 40
0.8281249999999967
 40
0.8281249999999967
 40
0.8437499999999969
 40
0.8437499999999969
 40
0.8749999999999976
 40
0.8749999999999976
 40
0.8906249999999979
 40
0.8906249999999979
 40
0.9062499999999982
 40
0.9062499999999982
 40
0.9218749999999986
 40
0.9218749999999986
 40
0.9374999999999989
 40
0.9374999999999989
 40
0.9687499999999994
 40
0.9687499999999994
 40
1.0
 40
1.0
 40
1.0
 40
1.0
 10
210.6009943654367
 20
135.1896995613125
 30
0.0
 10
211.1814889194526
 20
135.6601846244257
 30
0.0
 10
211.7973312151367
 20
136.0683581598798
 30
0.0
 10
212.7697966953576
 20
136.596039497716
 30
0.0
 10
213.1021385996403
 20
136.7577107377536
 30
0.0
 10
213.7832182381361
 20
137.0527577183452
 30
0.0
 10
214.1336646275376
 20
137.1866625302553
 30
0.0
 10
215.1962552296916
 20
137.5405053366977
 30
0.0
 10
215.917214896752
 20
137.7130238927369
 30
0.0
 10
217.0168302183156
 20
137.880881845439
 30
0.0
 10
217.3864174823332
 20
137.9215773677528
 30
0.0
 10
218.1318046716202
 20
137.9719402869448
 30
0.0
 10
218.5086238969618
 20
137.981452337757
 30
0.0
 10
219.62761376179
 20
137.9626242412301
 30
0.0
 10
220.3647926321916
 20
137.8880969707136
 30
0.0
 10
221.4575221443288
 20
137.6842931504027
 30
0.0
 10
221.8195795020848
 20
137.600928302843
 30
0.0
 10
222.5391908249557
 20
137.4022817577234
 30
0.0
 10
222.8967330293803
 20
137.2867780771234
 30
0.0
 10
223.9411491032845
 20
136.8985996518415
 30
0.0
 10
224.6073924634971
 20
136.5828564175457
 30
0.0
 10
225.5611085756371
 20
136.0215279208435
 30
0.0
 10
225.8713565552558
 20
135.8197026091858
 30
0.0
 10
226.4757509612797
 20
135.3848773889196
 30
0.0
 10
226.7687380886019
 20
135.1524345085557
 30
0.0
 10
227.6034321119994
 20
134.4225484693821
 30
0.0
 10
228.1077970257403
 20
133.8884505096106
 30
0.0
 10
228.7817237955521
 20
133.0108971235951
 30
0.0
 10
228.9924956366768
 20
132.7055529138622
 30
0.0
 10
229.3840358843582
 20
132.0669477662927
 30
0.0
 10
229.5611919651435
 20
131.7394423149847
 30
0.0
 10
230.0350762502159
 20
130.7362715963929
 30
0.0
 10
230.2759138091513
 20
130.0385306742544
 30
0.0
 10
230.5157083713237
 20
128.9447441610742
 30
0.0
 10
230.5751030271763
 20
128.5704594118486
 30
0.0
 10
230.6482763417557
 20
127.8272842177521
 30
0.0
 10
230.6773006386186
 20
127.0846723548465
 30
0.0
 10
230.6193569344437
 20
126.3431706519663
 30
0.0
 10
230.5171981412859
 20
125.6022328913636
 30
0.0
 10
230.4434116883484
 20
125.2309017819437
 30
0.0
 10
230.161841140136
 20
124.1470178866362
 30
0.0
 10
229.8937947347071
 20
123.4546462098139
 30
0.0
 10
229.3767188652664
 20
122.4590137091684
 30
0.0
 10
229.1855895819138
 20
122.1359294288497
 30
0.0
 10
228.7742993722124
 20
121.5174667639739
 30
0.0
 10
228.5532659144595
 20
121.2203578454919
 30
0.0
 10
228.0816587786904
 20
120.6492620209202
 30
0.0
 10
227.8310812277192
 20
120.3752784302506
 30
0.0
 10
227.3006294118692
 20
119.8500840025552
 30
0.0
 10
227.0223640204687
 20
119.600662367545
 30
0.0
 10
226.1600750038909
 20
118.8984460929435
 30
0.0
 10
225.5449773802988
 20
118.4873986006595
 30
0.0
 10
224.563911165756
 20
117.9524996454222
 30
0.0
 10
224.2261861632029
 20
117.7876923759097
 30
0.0
 10
223.5433739254136
 20
117.491006550707
 30
0.0
 10
223.1969167038153
 20
117.3582868753014
 30
0.0
 10
222.1427962562344
 20
117.0054786017733
 30
0.0
 10
221.4205061372215
 20
116.8303500499178
 30
0.0
 10
219.9359013009037
 20
116.6021226525022
 30
0.0
 10
219.1917029717038
 20
116.5520622514348
 30
0.0
 10
217.7081805079255
 20
116.5751480638886
 30
0.0
 10
216.9658669157952
 20
116.6483602653892
 30
0.0
 10
215.4897557506627
 20
116.9229174781406
 30
0.0
 10
214.7745070681455
 20
117.1205319157867
 30
0.0
 10
213.7349060966672
 20
117.5057813002477
 30
0.0
 10
213.393953033082
 20
117.6491000327027
 30
0.0
 10
212.7234958673608
 20
117.9665007211994
 30
0.0
 10
212.3926837833054
 20
118.1413616967218
 30
0.0
 10
211.4275286781895
 20
118.7094897432692
 30
0.0
 10
210.8284640344027
 20
119.1403175938866
 30
0.0
 10
209.9969005220084
 20
119.86639876157
 30
0.0
 10
209.7309639932874
 20
120.1218265262758
 30
0.0
 10
209.2227497918505
 20
120.6610681247666
 30
0.0
 10
208.9790317259439
 20
120.9468618230145
 30
0.0
 10
208.2990912739944
 20
121.8337095040677
 30
0.0
 10
207.9132602380363
 20
122.4622344333094
 30
0.0
 10
207.4396040529
 20
123.4637638882106
 30
0.0
 10
207.2993644583518
 20
123.807468537254
 30
0.0
 10
207.0566990804546
 20
124.5160972120018
 30
0.0
 10
206.955071741113
 20
124.8798841898517
 30
0.0
 10
206.717440850731
 20
125.9716103775118
 30
0.0
 10
206.6442404015439
 20
126.7100039485113
 30
0.0
 10
206.6667684302909
 20
127.8340509173047
 30
0.0
 10
206.696973982026
 20
128.2121247707577
 30
0.0
 10
206.8003152572437
 20
128.9524172639592
 30
0.0
 10
206.8733769223561
 20
129.3173593582357
 30
0.0
 10
207.0610084600838
 20
130.0371664364918
 30
0.0
 10
207.1755808780556
 20
130.3920307594729
 30
0.0
 10
207.4463265846774
 20
131.0916929563943
 30
0.0
 10
207.6018644452238
 20
131.4342098969722
 30
0.0
 10
208.1181544655563
 20
132.4240549811563
 30
0.0
 10
208.5307267331525
 20
133.0411973529546
 30
0.0
 10
209.4865055282609
 20
134.1947702975478
 30
0.0
 10
210.0204998114209
 20
134.7192144981992
 30
0.0
 10
210.6009943654367
 20
135.1896995613125
 30
0.0
  0
LINE
  5
C1
330
1F
100
AcDbEntity
  8
0
  6
Continuous
 62
     7
370
    15
100
AcDbLine
 10
237.0073568424
 20
127.2695271522
 30
0.0
 11
237.0073568424
 21
82.2695271522
 31
0.0
  0
LINE
  5
C2
330
1F
100
AcDbEntity
  8
0
  6
Continuous
 62
     7
370
    15
100
AcDbLine
 10
237.0073568424
 20
172.2695271522
 30
0.0
 11
237.0073568424
 21
127.2695271522
 31
0.0
  0
LINE
  5
C3
330
1F
100
AcDbEntity
  8
0
  6
Continuous
 62
     7
370
    15
100
AcDbLine
 10
237.7073568424
 20
127.2695271522
 30
0.0
 11
237.7073568424
 21
82.9695271522
 31
0.0
  0
LINE
  5
C4
330
1F
100
AcDbEntity
  8
0
  6
Continuous
 62
     7
370
    15
100
AcDbLine
 10
237.7073568424
 20
171.5695271522
 30
0.0
 11
237.7073568424
 21
127.2695271522
 31
0.0
  0
LINE
  5
C5
330
1F
100
AcDbEntity
  8
0
  6
Continuous
 62
     7
370
    15
100
AcDbLine
 10
152.7073568424
 20
92.3445271522
 30
0.0
 11
152.7073568424
 21
162.1945271522
 31
0.0
  0
LINE
  5
C6
330
1F
100
AcDbEntity
  8
0
  6
Continuous
 62
     7
370
    15
100
AcDbLine
 10
51.1073568424
 20
108.8906826248
 30
0.0
 11
51.1073568424
 21
145.6483716794
 31
0.0
  0
CIRCLE
  5
C7
330
1F
100
AcDbEntity
  8
0
  6
HIDDEN
 62
     7
370
     0
100
AcDbCircle
 10
218.6573568424
 20
127.2695271522
 30
0.0
 40
7.080384757729334
  0
CIRCLE
  5
C8
330
1F
100
AcDbEntity
  8
0
  6
HIDDEN
 62
     7
370
     0
100
AcDbCircle
 10
218.6573568424
 20
127.2695271522
 30
0.0
 40
6.780384757729323
  0
CIRCLE
  5
C9
330
1F
100
AcDbEntity
  8
0
  6
HIDDEN
 62
     7
370
     0
100
AcDbCircle
 10
218.6573568424
 20
127.2695271522
 30
0.0
 40
9.25
  0
SPLINE
  5
CA
330
1F
100
AcDbEntity
  8
0
  6
HIDDEN
 62
     7
370
     0
100
AcDbSpline
210
0.0
220
0.0
230
1.0
 70
     8
 71
     3
 72
    18
 73
    14
 74
     0
 42
0.000000001
 43
0.00000001
 40
0.0
 40
0.0
 40
0.0
 40
0.0
 40
0.2499999999999998
 40
0.2499999999999998
 40
0.4999999999999996
 40
0.4999999999999996
 40
0.6249999999999997
 40
0.6249999999999997
 40
0.7499999999999998
 40
0.7499999999999998
 40
0.8749999999999999
 40
0.8749999999999999
 40
1.0
 40
1.0
 40
1.0
 40
1.0
 10
237.707356842363
 20
148.6968933433787
 30
0.0
 10
237.707356842363
 20
148.6015035400158
 30
0.0
 10
237.7021587329318
 20
148.5044185496206
 30
0.0
 10
237.6747888861375
 20
148.3047125658196
 30
0.0
 10
237.652376910835
 20
148.199645576167
 30
0.0
 10
237.5941310574261
 20
148.0475360291329
 30
0.0
 10
237.5698115135177
 20
147.9964408059619
 30
0.0
 10
237.5109636209193
 20
147.9037567389599
 30
0.0
 10
237.4758316952757
 20
147.8618423211389
 30
0.0
 10
237.4008291949783
 20
147.7971313563342
 30
0.0
 10
237.3607940213538
 20
147.7738077749837
 30
0.0
 10
237.2821057366336
 20
147.7435548510583
 30
0.0
 10
237.2441617020208
 20
147.7364015021235
 30
0.0
 10
237.2073357591051
 20
147.7340910899439
 30
0.0
  0
SPLINE
  5
CB
330
1F
100
AcDbEntity
  8
0
  6
HIDDEN
 62
     7
370
     0
100
AcDbSpline
210
0.0
220
0.0
230
1.0
 70
     8
 71
     3
 72
    10
 73
     6
 74
     0
 42
0.000000001
 43
0.00000001
 40
0.0
 40
0.0
 40
0.0
 40
0.0
 40
0.5
 40
0.5
 40
1.0
 40
1.0
 40
1.0
 40
1.0
 10
237.2073357590951
 20
147.7340910899315
 30
0.0
 10
237.142551098256
 20
147.673313063898
 30
0.0
 10
237.0677137120452
 20
147.6185017272384
 30
0.0
 10
236.8991959169659
 20
147.5390025599232
 30
0.0
 10
236.8046394633351
 20
147.514776969905
 30
0.0
 10
236.707356842363
 20
147.514776969905
 30
0.0
  0
SPLINE
  5
CC
330
1F
100
AcDbEntity
  8
0
  6
HIDDEN
 62
     7
370
     0
100
AcDbSpline
210
0.0
220
0.0
230
1.0
 70
     8
 71
     3
 72
    10
 73
     6
 74
     0
 42
0.000000001
 43
0.00000001
 40
0.0
 40
0.0
 40
0.0
 40
0.0
 40
0.5
 40
0.5
 40
1.0
 40
1.0
 40
1.0
 40
1.0
 10
237.2073313776179
 20
106.8049673249202
 30
0.0
 10
237.1425470516593
 20
106.8657443434067
 30
0.0
 10
237.0677101288455
 20
106.920554707907
 30
0.0
 10
236.8991938016287
 20
107.0000523019762
 30
0.0
 10
236.8046383667785
 20
107.0242773344672
 30
0.0
 10
236.707356842363
 20
107.0242773344672
 30
0.0
  0
SPLINE
  5
CD
330
1F
100
AcDbEntity
  8
0
  6
HIDDEN
 62
     7
370
     0
100
AcDbSpline
210
0.0
220
0.0
230
1.0
 70
     8
 71
     3
 72
    18
 73
    14
 74
     0
 42
0.000000001
 43
0.00000001
 40
0.0
 40
0.0
 40
0.0
 40
0.0
 40
0.1249999999999999
 40
0.1249999999999999
 40
0.2499999999999998
 40
0.2499999999999998
 40
0.3749999999999997
 40
0.3749999999999997
 40
0.4999999999999996
 40
0.4999999999999996
 40
0.7499999999999998
 40
0.7499999999999998
 40
1.0
 40
1.0
 40
1.0
 40
1.0
 10
237.2073313776179
 20
106.8049673249202
 30
0.0
 10
237.2438651775086
 20
106.8026785374621
 30
0.0
 10
237.2821919277595
 20
106.7954213547449
 30
0.0
 10
237.359838885893
 20
106.7656864383202
 30
0.0
 10
237.3998243946744
 20
106.7425533365367
 30
0.0
 10
237.474201786984
 20
106.6788866075054
 30
0.0
 10
237.5093490561237
 20
106.6374109546716
 30
0.0
 10
237.5683333807577
 20
106.5453835236571
 30
0.0
 10
237.5927503193828
 20
106.4946572635609
 30
0.0
 10
237.651785871555
 20
106.3418791986304
 30
0.0
 10
237.6742010624694
 20
106.2375901403341
 30
0.0
 10
237.7020631662554
 20
106.0363524181974
 30
0.0
 10
237.707356842363
 20
105.9378113439851
 30
0.0
 10
237.707356842363
 20
105.8421609609935
 30
0.0
  0
LINE
  5
CE
330
1F
100
AcDbEntity
  8
0
  6
HIDDEN
 62
     7
370
     0
100
AcDbLine
 10
187.2073568424
 20
127.2695271522
 30
0.0
 11
187.2073568424
 21
104.7695271522
 31
0.0
  0
LINE
  5
CF
330
1F
100
AcDbEntity
  8
0
  6
HIDDEN
 62
     7
370
     0
100
AcDbLine
 10
187.2073568424
 20
149.7695271522
 30
0.0
 11
187.2073568424
 21
127.2695271522
 31
0.0
  0
LINE
  5
D0
330
1F
100
AcDbEntity
  8
0
  6
HIDDEN
 62
     7
370
     0
100
AcDbLine
 10
192.0733822461
 20
127.2695271522
 30
0.0
 11
192.0733822461
 21
104.2695271522
 31
0.0
  0
LINE
  5
D1
330
1F
100
AcDbEntity
  8
0
  6
HIDDEN
 62
     7
370
     0
100
AcDbLine
 10
192.0733822461
 20
150.2695271522
 30
0.0
 11
192.0733822461
 21
127.2695271522
 31
0.0
  0
LINE
  5
D2
330
1F
100
AcDbEntity
  8
0
  6
HIDDEN
 62
     7
370
     0
100
AcDbLine
 10
215.7073568422
 20
147.5147769699
 30
0.0
 11
236.7073568424
 21
147.5147769699
 31
0.0
  0
LINE
  5
D3
330
1F
100
AcDbEntity
  8
0
  6
HIDDEN
 62
     7
370
     0
100
AcDbLine
 10
215.7073568422
 20
107.0242773345
 30
0.0
 11
236.7073568424
 21
107.0242773345
 31
0.0
  0
LINE
  5
D4
330
1F
100
AcDbEntity
  8
0
  6
HIDDEN
 62
     7
370
     0
100
AcDbLine
 10
183.2073568424
 20
127.2695271522
 30
0.0
 11
183.2073568424
 21
105.6695271522
 31
0.0
  0
LINE
  5
D5
330
1F
100
AcDbEntity
  8
0
  6
HIDDEN
 62
     7
370
     0
100
AcDbLine
 10
183.2073568424
 20
148.8695271522
 30
0.0
 11
183.2073568424
 21
127.2695271522
 31
0.0
  0
LINE
  5
D6
330
1F
100
AcDbEntity
  8
0
  6
HIDDEN
 62
     7
370
     0
100
AcDbLine
 10
182.2073568424
 20
127.2695271522
 30
0.0
 11
182.2073568424
 21
108.2695271522
 31
0.0
  0
LINE
  5
D7
330
1F
100
AcDbEntity
  8
0
  6
HIDDEN
 62
     7
370
     0
100
AcDbLine
 10
182.2073568424
 20
146.2695271522
 30
0.0
 11
182.2073568424
 21
127.2695271522
 31
0.0
  0
LINE
  5
D8
330
1F
100
AcDbEntity
  8
0
  6
HIDDEN
 62
     7
370
     0
100
AcDbLine
 10
149.2073568424
 20
127.2695271522
 30
0.0
 11
149.2073568424
 21
108.2695271522
 31
0.0
  0
LINE
  5
D9
330
1F
100
AcDbEntity
  8
0
  6
HIDDEN
 62
     7
370
     0
100
AcDbLine
 10
149.2073568424
 20
146.2695271522
 30
0.0
 11
149.2073568424
 21
127.2695271522
 31
0.0
  0
LINE
  5
DA
330
1F
100
AcDbEntity
  8
0
  6
HIDDEN
 62
     7
370
     0
100
AcDbLine
 10
144.4755794675
 20
127.2695271522
 30
0.0
 11
144.4755794675
 21
116.1445271522
 31
0.0
  0
LINE
  5
DB
330
1F
100
AcDbEntity
  8
0
  6
HIDDEN
 62
     7
370
     0
100
AcDbLine
 10
144.4755794675
 20
138.3945271522
 30
0.0
 11
144.4755794675
 21
127.2695271522
 31
0.0
  0
LINE
  5
DC
330
1F
100
AcDbEntity
  8
0
  6
HIDDEN
 62
     7
370
     0
100
AcDbLine
 10
155.8823568424
 20
164.7695271522
 30
0.0
 11
156.5509859925
 21
164.7695271522
 31
0.0
  0
ELLIPSE
  5
DD
330
1F
100
AcDbEntity
  8
0
  6
HIDDEN
 62
     7
370
     0
100
AcDbEllipse
 10
156.5509859925
 20
165.5695271522
 30
0.0
 11
0.0
 21
0.8000000000000114
 31
0.0
210
0.0
220
0.0
230
1.0
 40
0.4142135624
 41
3.141592653589793
 42
4.712388980384695
  0
LINE
  5
DE
330
1F
100
AcDbEntity
  8
0
  6
HIDDEN
 62
     7
370
     0
100
AcDbLine
 10
156.5509859925
 20
92.1695271522
 30
0.0
 11
155.8823568424
 21
92.1695271522
 31
0.0
  0
ELLIPSE
  5
DF
330
1F
100
AcDbEntity
  8
0
  6
HIDDEN
 62
     7
370
     0
100
AcDbEllipse
 10
156.5509859925
 20
91.3695271522
 30
0.0
 11
0.0
 21
0.7999999999999829
 31
0.0
210
0.0
220
0.0
230
1.0
 40
0.4142135624
 41
4.712388980384695
 42
6.283185307179586
  0
LINE
  5
E0
330
1F
100
AcDbEntity
  8
0
  6
HIDDEN
 62
     7
370
     0
100
AcDbLine
 10
156.8823568424
 20
80.5796697143
 30
0.0
 11
156.0974790716
 21
80.129002516
 31
0.0
  0
LINE
  5
E1
330
1F
100
AcDbEntity
  8
0
  6
HIDDEN
 62
     7
370
     0
100
AcDbLine
 10
156.171073021
 20
174.4860491715
 30
0.0
 11
156.8823568424
 21
173.7747653502
 31
0.0
  0
LINE
  5
E2
330
1F
100
AcDbEntity
  8
0
  6
HIDDEN
 62
     7
370
     0
100
AcDbLine
 10
58.6553586509
 20
116.1445271522
 30
0.0
 11
58.6553586509
 21
138.3945271522
 31
0.0
  0
LINE
  5
E3
330
1F
100
AcDbEntity
  8
0
  6
HIDDEN
 62
     7
370
     0
100
AcDbLine
 10
171.7573568424
 20
92.1695271522
 30
0.0
 11
156.5509859925
 21
92.1695271522
 31
0.0
  0
LINE
  5
E4
330
1F
100
AcDbEntity
  8
0
  6
HIDDEN
 62
     7
370
     0
100
AcDbLine
 10
160.7353487173
 20
80.5796697143
 30
0.0
 11
156.8823568424
 21
80.5796697143
 31
0.0
  0
LINE
  5
E5
330
1F
100
AcDbEntity
  8
0
  6
HIDDEN
 62
     7
370
     0
100
AcDbLine
 10
171.7573568424
 20
80.5796697143
 30
0.0
 11
166.8793649674
 21
80.5796697143
 31
0.0
  0
LINE
  5
E6
330
1F
100
AcDbEntity
  8
0
  6
HIDDEN
 62
     7
370
     0
100
AcDbLine
 10
156.8823568424
 20
80.5796697143
 30
0.0
 11
156.8823568424
 21
91.3695271522
 31
0.0
  0
LINE
  5
E7
330
1F
100
AcDbEntity
  8
0
  6
HIDDEN
 62
     7
370
     0
100
AcDbLine
 10
156.5509859925
 20
164.7695271522
 30
0.0
 11
171.7573568424
 21
164.7695271522
 31
0.0
  0
LINE
  5
E8
330
1F
100
AcDbEntity
  8
0
  6
HIDDEN
 62
     7
370
     0
100
AcDbLine
 10
156.8823568424
 20
173.7747653502
 30
0.0
 11
160.8381031873
 21
173.7747653502
 31
0.0
  0
LINE
  5
E9
330
1F
100
AcDbEntity
  8
0
  6
HIDDEN
 62
     7
370
     0
100
AcDbLine
 10
166.7766104974
 20
173.7747653502
 30
0.0
 11
171.7573568424
 21
173.7747653502
 31
0.0
  0
LINE
  5
EA
330
1F
100
AcDbEntity
  8
0
  6
HIDDEN
 62
     7
370
     0
100
AcDbLine
 10
156.8823568424
 20
173.7747653502
 30
0.0
 11
156.8823568424
 21
165.5695271522
 31
0.0
  0
SPLINE
  5
EB
330
1F
100
AcDbEntity
  8
0
  6
HIDDEN
 62
     7
370
     0
100
AcDbSpline
210
0.0
220
0.0
230
1.0
 70
     8
 71
     3
 72
     9
 73
     5
 74
     0
 42
0.000000001
 43
0.00000001
 40
0.0
 40
0.0
 40
0.0
 40
0.0
 40
0.9810955148826006
 40
1.0
 40
1.0
 40
1.0
 40
1.0
 10
237.2073568422493
 20
156.6695271521862
 30
0.0
 10
237.2078492306372
 20
156.9839876225922
 30
0.0
 10
237.2083511067343
 20
157.3045073534807
 30
0.0
 10
237.2060031260542
 20
157.5659841703349
 30
0.0
 10
237.2059587386885
 20
157.5709272549277
 30
0.0
  0
SPLINE
  5
EC
330
1F
100
AcDbEntity
  8
0
  6
HIDDEN
 62
     7
370
     0
100
AcDbSpline
210
0.0
220
0.0
230
1.0
 70
     8
 71
     3
 72
    14
 73
    10
 74
     0
 42
0.000000001
 43
0.00000001
 40
0.0
 40
0.0
 40
0.0
 40
0.0
 40
0.1126686498716342
 40
0.2783094599283162
 40
0.4388058213827034
 40
0.6039397455811856
 40
0.7647058752920091
 40
0.9301067514159069
 40
0.9999999999999999
 40
0.9999999999999999
 40
0.9999999999999999
 40
0.9999999999999999
 10
237.1134959204938
 20
159.9000172393434
 30
0.0
 10
237.1103688743202
 20
159.8953693758393
 30
0.0
 10
237.102644573614
 20
159.8838884147812
 30
0.0
 10
237.1048737169894
 20
159.654368818507
 30
0.0
 10
237.1256496936273
 20
159.2454616428201
 30
0.0
 10
237.1477692838521
 20
158.6702522428607
 30
0.0
 10
237.1900450197279
 20
157.9418033022353
 30
0.0
 10
237.2344415366231
 20
157.2529793764444
 30
0.0
 10
237.2221801494866
 20
156.8031479206574
 30
0.0
 10
237.2185379498347
 20
156.6695271521862
 30
0.0
  0
SPLINE
  5
ED
330
1F
100
AcDbEntity
  8
0
  6
HIDDEN
 62
     7
370
     0
100
AcDbSpline
210
0.0
220
0.0
230
1.0
 70
     8
 71
     3
 72
    14
 73
    10
 74
     0
 42
0.000000001
 43
0.00000001
 40
0.0
 40
0.0
 40
0.0
 40
0.0
 40
0.2499999999999999
 40
0.2499999999999999
 40
0.4999999999999999
 40
0.4999999999999999
 40
0.7499999999999999
 40
0.7499999999999999
 40
1.0
 40
1.0
 40
1.0
 40
1.0
 10
237.2185379498347
 20
156.6695271521862
 30
0.0
 10
237.1864091874886
 20
155.9249772581783
 30
0.0
 10
237.2014363072771
 20
155.1803262355259
 30
0.0
 10
237.2132931979387
 20
153.6910632155377
 30
0.0
 10
237.2125419877521
 20
152.9464436103459
 30
0.0
 10
237.2086992531303
 20
151.4572011831667
 30
0.0
 10
237.2063734056243
 20
150.7125801995612
 30
0.0
 10
237.2062276284714
 20
149.2233359321628
 30
0.0
 10
237.207195244694
 20
148.4787135403758
 30
0.0
 10
237.2073357591086
 20
147.7340910899315
 30
0.0
  0
SPLINE
  5
EE
330
1F
100
AcDbEntity
  8
0
  6
HIDDEN
 62
     7
370
     0
100
AcDbSpline
210
0.0
220
0.0
230
1.0
 70
     8
 71
     3
 72
    14
 73
    10
 74
     0
 42
0.000000001
 43
0.00000001
 40
0.0
 40
0.0
 40
0.0
 40
0.0
 40
0.25
 40
0.25
 40
0.5
 40
0.5
 40
0.75
 40
0.75
 40
1.0
 40
1.0
 40
1.0
 40
1.0
 10
237.2185203244965
 20
97.86952715218611
 30
0.0
 10
237.1864411101896
 20
98.61404123008708
 30
0.0
 10
237.2014016516192
 20
99.35869686106358
 30
0.0
 10
237.213327397811
 20
100.8479539710506
 30
0.0
 10
237.2125145263651
 20
101.592577122471
 30
0.0
 10
237.2086401813817
 20
103.0818303519474
 30
0.0
 10
237.2064162216911
 20
103.8264571016145
 30
0.0
 10
237.2061950270486
 20
105.3157119603348
 30
0.0
 10
237.2071637661813
 20
106.0603397918905
 30
0.0
 10
237.2073313776179
 20
106.8049673249202
 30
0.0
  0
SPLINE
  5
EF
330
1F
100
AcDbEntity
  8
0
  6
HIDDEN
 62
     7
370
     0
100
AcDbSpline
210
0.0
220
0.0
230
1.0
 70
     8
 71
     3
 72
     9
 73
     5
 74
     0
 42
0.000000001
 43
0.00000001
 40
0.0
 40
0.0
 40
0.0
 40
0.0
 40
0.9853007880584577
 40
1.0
 40
1.0
 40
1.0
 40
1.0
 10
237.2073568422493
 20
97.86952715218611
 30
0.0
 10
237.2079104974792
 20
97.55496851657024
 30
0.0
 10
237.2084724124158
 20
97.23571713726737
 30
0.0
 10
237.206082088629
 20
96.9752639791851
 30
0.0
 10
237.206046952753
 20
96.97143552301361
 30
0.0
  0
SPLINE
  5
F0
330
1F
100
AcDbEntity
  8
0
  6
HIDDEN
 62
     7
370
     0
100
AcDbSpline
210
0.0
220
0.0
230
1.0
 70
     8
 71
     3
 72
    14
 73
    10
 74
     0
 42
0.000000001
 43
0.00000001
 40
0.0
 40
0.0
 40
0.0
 40
0.0
 40
0.1127050665208549
 40
0.2783434039997633
 40
0.4388367018443821
 40
0.6039675291409511
 40
0.7647303398356226
 40
0.9301278869748495
 40
1.0
 40
1.0
 40
1.0
 40
1.0
 10
237.1134952798945
 20
94.63902690060624
 30
0.0
 10
237.1103673040384
 20
94.64368018482935
 30
0.0
 10
237.1026422613735
 20
94.65517222339004
 30
0.0
 10
237.104885375156
 20
94.8847244624707
 30
0.0
 10
237.1256274620256
 20
95.2936562945127
 30
0.0
 10
237.1478226445138
 20
95.86888243090326
 30
0.0
 10
237.1899936278777
 20
96.59734982816028
 30
0.0
 10
237.2343785378318
 20
97.28614918435396
 30
0.0
 10
237.2221515771531
 20
97.73594383162438
 30
0.0
 10
237.2185203244965
 20
97.86952715218611
 30
0.0
  0
LINE
  5
F1
330
1F
100
AcDbEntity
  8
0
  6
HIDDEN
 62
     7
370
     0
100
AcDbLine
 10
215.7073568422
 20
156.6695271522
 30
0.0
 11
215.7073568422
 21
147.5147769699
 31
0.0
  0
LINE
  5
F2
330
1F
100
AcDbEntity
  8
0
  6
HIDDEN
 62
     7
370
     0
100
AcDbLine
 10
215.7073568422
 20
97.8695271522
 30
0.0
 11
215.7073568422
 21
107.0242773345
 31
0.0
  0
LINE
  5
F3
330
1F
100
AcDbEntity
  8
0
  6
HIDDEN
 62
     7
370
     0
100
AcDbLine
 10
215.7073568422
 20
94.6195271522
 30
0.0
 11
215.7073568422
 21
97.8695271522
 31
0.0
  0
LINE
  5
F4
330
1F
100
AcDbEntity
  8
0
  6
HIDDEN
 62
     7
370
     0
100
AcDbLine
 10
215.7073568422
 20
159.9195271522
 30
0.0
 11
215.7073568422
 21
156.6695271522
 31
0.0
  0
LINE
  5
F5
330
1F
100
AcDbEntity
  8
0
  6
HIDDEN
 62
     7
370
     0
100
AcDbLine
 10
159.0573568424
 20
164.3695271522
 30
0.0
 11
168.5573568424
 21
164.3695271522
 31
0.0
  0
LINE
  5
F6
330
1F
100
AcDbEntity
  8
0
  6
HIDDEN
 62
     7
370
     0
100
AcDbLine
 10
190.0757043448
 20
150.7695271522
 30
0.0
 11
188.2073568424
 21
150.7695271522
 31
0.0
  0
LINE
  5
F7
330
1F
100
AcDbEntity
  8
0
  6
HIDDEN
 62
     7
370
     0
100
AcDbLine
 10
188.2073568424
 20
103.7695271522
 30
0.0
 11
190.0757043448
 21
103.7695271522
 31
0.0
  0
ARC
  5
F8
330
1F
100
AcDbEntity
  8
0
  6
HIDDEN
 62
     7
370
     0
100
AcDbCircle
 10
188.2073568424
 20
149.7695271522
 30
0.0
 40
1.000000000000028
100
AcDbArc
 50
90.0
 51
180.0
  0
ARC
  5
F9
330
1F
100
AcDbEntity
  8
0
  6
HIDDEN
 62
     7
370
     0
100
AcDbCircle
 10
188.2073568424
 20
104.7695271522
 30
0.0
 40
1.0
100
AcDbArc
 50
180.0
 51
270.0
  0
ARC
  5
FA
330
1F
100
AcDbEntity
  8
0
  6
HIDDEN
 62
     7
370
     0
100
AcDbCircle
 10
190.0757043448
 20
149.7695271522
 30
0.0
 40
1.00000000000003
100
AcDbArc
 50
75.0
 51
90.0
  0
ARC
  5
FB
330
1F
100
AcDbEntity
  8
0
  6
HIDDEN
 62
     7
370
     0
100
AcDbCircle
 10
190.0757043448
 20
104.7695271522
 30
0.0
 40
1.000000000000017
100
AcDbArc
 50
270.0
 51
285.0
  0
LINE
  5
FC
330
1F
100
AcDbEntity
  8
0
  6
HIDDEN
 62
     7
370
     0
100
AcDbLine
 10
190.3345233899
 20
103.8036013259
 30
0.0
 11
192.0733822461
 21
104.2695271522
 31
0.0
  0
LINE
  5
FD
330
1F
100
AcDbEntity
  8
0
  6
HIDDEN
 62
     7
370
     0
100
AcDbLine
 10
192.0733822461
 20
150.2695271522
 30
0.0
 11
190.3345233899
 21
150.7354529785
 31
0.0
  0
LINE
  5
FE
330
1F
100
AcDbEntity
  8
0
  6
HIDDEN
 62
     7
370
     0
100
AcDbLine
 10
215.7073568422
 20
150.2695271522
 30
0.0
 11
192.0733822461
 21
150.2695271522
 31
0.0
  0
LINE
  5
FF
330
1F
100
AcDbEntity
  8
0
  6
HIDDEN
 62
     7
370
     0
100
AcDbLine
 10
192.0733822461
 20
104.2695271522
 30
0.0
 11
215.7073568422
 21
104.2695271522
 31
0.0
  0
ARC
  5
100
330
1F
100
AcDbEntity
  8
0
  6
HIDDEN
 62
     7
370
     0
100
AcDbCircle
 10
183.6073568424
 20
148.8695271522
 30
0.0
 40
0.4000000000000057
100
AcDbArc
 50
90.0
 51
180.0
  0
ARC
  5
101
330
1F
100
AcDbEntity
  8
0
  6
HIDDEN
 62
     7
370
     0
100
AcDbCircle
 10
183.6073568424
 20
105.6695271522
 30
0.0
 40
0.4000000000000057
100
AcDbArc
 50
180.0
 51
270.0
  0
LINE
  5
102
330
1F
100
AcDbEntity
  8
0
  6
HIDDEN
 62
     7
370
     0
100
AcDbLine
 10
187.2073568424
 20
149.2695271522
 30
0.0
 11
183.6073568424
 21
149.2695271522
 31
0.0
  0
LINE
  5
103
330
1F
100
AcDbEntity
  8
0
  6
HIDDEN
 62
     7
370
     0
100
AcDbLine
 10
183.6073568424
 20
105.2695271522
 30
0.0
 11
187.2073568424
 21
105.2695271522
 31
0.0
  0
LINE
  5
104
330
1F
100
AcDbEntity
  8
0
  6
HIDDEN
 62
     7
370
     0
100
AcDbLine
 10
183.2073568424
 20
147.2695271522
 30
0.0
 11
182.2073568424
 21
146.2695271522
 31
0.0
  0
LINE
  5
105
330
1F
100
AcDbEntity
  8
0
  6
HIDDEN
 62
     7
370
     0
100
AcDbLine
 10
182.2073568424
 20
108.2695271522
 30
0.0
 11
183.2073568424
 21
107.2695271522
 31
0.0
  0
LINE
  5
106
330
1F
100
AcDbEntity
  8
0
  6
HIDDEN
 62
     7
370
     0
100
AcDbLine
 10
182.2073568424
 20
146.2695271522
 30
0.0
 11
149.2073568424
 21
146.2695271522
 31
0.0
  0
LINE
  5
107
330
1F
100
AcDbEntity
  8
0
  6
HIDDEN
 62
     7
370
     0
100
AcDbLine
 10
149.2073568424
 20
108.2695271522
 30
0.0
 11
182.2073568424
 21
108.2695271522
 31
0.0
  0
LINE
  5
108
330
1F
100
AcDbEntity
  8
0
  6
HIDDEN
 62
     7
370
     0
100
AcDbLine
 10
149.2073568424
 20
146.2695271522
 30
0.0
 11
144.4755794675
 21
138.3945271522
 31
0.0
  0
LINE
  5
109
330
1F
100
AcDbEntity
  8
0
  6
HIDDEN
 62
     7
370
     0
100
AcDbLine
 10
144.4755794675
 20
116.1445271522
 30
0.0
 11
149.2073568424
 21
108.2695271522
 31
0.0
  0
ARC
  5
10A
330
1F
100
AcDbEntity
  8
0
  6
HIDDEN
 62
     7
370
     0
100
AcDbCircle
 10
52.3073568424
 20
112.8695271522
 30
0.0
 40
1.20000000000001
100
AcDbArc
 50
90.0
 51
180.0
  0
ARC
  5
10B
330
1F
100
AcDbEntity
  8
0
  6
HIDDEN
 62
     7
370
     0
100
AcDbCircle
 10
52.3073568424
 20
141.6695271522
 30
0.0
 40
1.20000000000001
100
AcDbArc
 50
180.0
 51
270.0
  0
LINE
  5
10C
330
1F
100
AcDbEntity
  8
0
  6
HIDDEN
 62
     7
370
     0
100
AcDbLine
 10
52.3073568424
 20
114.0695271522
 30
0.0
 11
57.2264167347
 21
114.0695271522
 31
0.0
  0
LINE
  5
10D
330
1F
100
AcDbEntity
  8
0
  6
HIDDEN
 62
     7
370
     0
100
AcDbLine
 10
57.2264167347
 20
140.4695271522
 30
0.0
 11
52.3073568424
 21
140.4695271522
 31
0.0
  0
ARC
  5
10E
330
1F
100
AcDbEntity
  8
0
  6
HIDDEN
 62
     7
370
     0
100
AcDbCircle
 10
57.2264167347
 20
114.4695271522
 30
0.0
 40
0.4000000000000057
100
AcDbArc
 50
270.0
 51
330.0
  0
ARC
  5
10F
330
1F
100
AcDbEntity
  8
0
  6
HIDDEN
 62
     7
370
     0
100
AcDbCircle
 10
57.2264167347
 20
140.0695271522
 30
0.0
 40
0.4000000000000341
100
AcDbArc
 50
30.0
 51
90.0
  0
LINE
  5
110
330
1F
100
AcDbEntity
  8
0
  6
HIDDEN
 62
     7
370
     0
100
AcDbLine
 10
57.5728268962
 20
114.2695271522
 30
0.0
 11
58.6553586509
 21
116.1445271522
 31
0.0
  0
LINE
  5
111
330
1F
100
AcDbEntity
  8
0
  6
HIDDEN
 62
     7
370
     0
100
AcDbLine
 10
58.6553586509
 20
138.3945271522
 30
0.0
 11
57.5728268962
 21
140.2695271522
 31
0.0
  0
LINE
  5
112
330
1F
100
AcDbEntity
  8
0
  6
HIDDEN
 62
     7
370
     0
100
AcDbLine
 10
237.7073568422
 20
160.5138914713
 30
0.0
 11
237.0975303625
 21
159.9040657671
 31
0.0
  0
LINE
  5
113
330
1F
100
AcDbEntity
  8
0
  6
HIDDEN
 62
     7
370
     0
100
AcDbLine
 10
237.0975367503
 20
94.6349780643
 30
0.0
 11
237.7073568422
 21
94.0251626347
 31
0.0
  0
LINE
  5
114
330
1F
100
AcDbEntity
  8
0
  6
HIDDEN
 62
     7
370
     0
100
AcDbLine
 10
58.6553586509
 20
116.1445271522
 30
0.0
 11
144.4755794675
 21
116.1445271522
 31
0.0
  0
LINE
  5
115
330
1F
100
AcDbEntity
  8
0
  6
HIDDEN
 62
     7
370
     0
100
AcDbLine
 10
144.4755794675
 20
138.3945271522
 30
0.0
 11
58.6553586509
 21
138.3945271522
 31
0.0
  0
LINE
  5
116
330
1F
100
AcDbEntity
  8
0
  6
HIDDEN
 62
     7
370
     0
100
AcDbLine
 10
215.7073568422
 20
94.6195271522
 30
0.0
 11
237.114463468
 21
94.6195271522
 31
0.0
  0
LINE
  5
117
330
1F
100
AcDbEntity
  8
0
  6
HIDDEN
 62
     7
370
     0
100
AcDbLine
 10
237.1144656343
 20
159.9195271522
 30
0.0
 11
215.7073568422
 21
159.9195271522
 31
0.0
  0
LINE
  5
118
330
1F
100
AcDbEntity
  8
0
  6
HIDDEN
 62
     7
370
     0
100
AcDbLine
 10
159.0573568424
 20
164.7695271522
 30
0.0
 11
159.0573568424
 21
164.3695271522
 31
0.0
  0
LINE
  5
119
330
1F
100
AcDbEntity
  8
0
  6
HIDDEN
 62
     7
370
     0
100
AcDbLine
 10
168.5573568424
 20
164.3695271522
 30
0.0
 11
168.5573568424
 21
164.7695271522
 31
0.0
  0
LINE
  5
11A
330
1F
100
AcDbEntity
  8
0
  6
HIDDEN
 62
     7
370
     0
100
AcDbLine
 10
159.0573568424
 20
164.3695271522
 30
0.0
 11
163.8073568424
 21
161.5154392118
 31
0.0
  0
LINE
  5
11B
330
1F
100
AcDbEntity
  8
0
  6
HIDDEN
 62
     7
370
     0
100
AcDbLine
 10
163.8073568424
 20
161.5154392118
 30
0.0
 11
168.5573568424
 21
164.3695271522
 31
0.0
  0
LINE
  5
11C
330
1F
100
AcDbEntity
  8
VERMASSUNG
100
AcDbLine
 10
187.8073568424
 20
162.1945271522
 30
0.0
 11
187.8073568424
 21
92.3445271522
 31
0.0
  0
LINE
  5
11D
330
1F
100
AcDbEntity
  8
VERMASSUNG
100
AcDbLine
 10
193.6241608044
 20
172.2695271522
 30
0.0
 11
193.6241608044
 21
82.2695271522
 31
0.0
  0
DIMENSION
  5
11E
330
1F
100
AcDbEntity
  8
VERMASSUNG
100
AcDbDimension
  2
_D
 10
237.7073568424
 20
179.8834814817
 30
0.0
 11
212.7573568424
 21
179.8834814817
 31
0.0
 70
   160
  1
(<>)
 71
     2
 42
-1.0
  3
SLDDIMSTYLE0
100
AcDbAlignedDimension
 13
187.8073568424
 23
162.1945271522
 33
0.0
 14
237.7073568424
 24
171.5695271522
 34
0.0
100
AcDbRotatedDimension
  0
DIMENSION
  5
12B
330
1F
100
AcDbEntity
  8
VERMASSUNG
100
AcDbDimension
  2
_D_1
 10
40.7342560147
 20
176.4820271522
 30
0.0
 11
40.7342560147
 21
127.2695271522
 31
0.0
 70
   160
  1
CAT 50 %%c<>
 71
     2
 42
-1.0
  3
SLDDIMSTYLE1
100
AcDbAlignedDimension
 13
171.1573568424
 23
78.0570271522
 33
0.0
 14
171.1573568424
 24
176.4820271522
 34
0.0
 50
90.0
100
AcDbRotatedDimension
  0
DIMENSION
  5
138
330
1F
100
AcDbEntity
  8
VERMASSUNG
100
AcDbDimension
  2
_D_2
 10
248.9311868716
 20
104.2695271522
 30
0.0
 11
248.9311868716
 21
127.2695271522
 31
0.0
 70
   160
  1
%%c<>
 71
     2
 42
-1.0
  3
SLDDIMSTYLE1
100
AcDbAlignedDimension
 13
215.7073568422
 23
150.2695271522
 33
0.0
 14
215.7073568422
 24
104.2695271522
 34
0.0
 50
90.0
100
AcDbRotatedDimension
  0
DIMENSION
  5
143
330
1F
100
AcDbEntity
  8
VERMASSUNG
100
AcDbDimension
  2
_D_3
 10
237.7073568424
 20
185.8834814817
 30
0.0
 11
195.2073568424
 21
185.8834814817
 31
0.0
 70
   160
  1
<>
 71
     2
 42
-1.0
  3
SLDDIMSTYLE1
100
AcDbAlignedDimension
 13
152.7073568424
 23
162.1945271522
 33
0.0
 14
237.7073568424
 24
171.5695271522
 34
0.0
100
AcDbRotatedDimension
  0
DIMENSION
  5
14D
330
1F
100
AcDbEntity
  8
VERMASSUNG
100
AcDbDimension
  2
_D_4
 10
237.7073568424
 20
191.8834814817
 30
0.0
 11
144.4073568424
 21
191.8834814817
 31
0.0
 70
   160
  1
(<>)
 71
     2
 42
-1.0
  3
SLDDIMSTYLE1
100
AcDbAlignedDimension
 13
51.1073568424
 23
145.6483716796
 33
0.0
 14
237.7073568424
 24
171.5695271522
 34
0.0
100
AcDbRotatedDimension
  0
DIMENSION
  5
159
330
1F
100
AcDbEntity
  8
VERMASSUNG
100
AcDbDimension
  2
_D_5
 10
254.9311868716
 20
82.2695271522
 30
0.0
 11
254.9311868716
 21
127.2695271522
 31
0.0
 70
   160
  1
ST7 %%c<>
 71
     2
 42
-1.0
  3
SLDDIMSTYLE1
100
AcDbAlignedDimension
 13
237.0073568424
 23
172.2695271522
 33
0.0
 14
237.0073568424
 24
82.2695271522
 34
0.0
 50
90.0
100
AcDbRotatedDimension
  0
LINE
  5
165
330
1F
100
AcDbEntity
  8
VERMASSUNG
  6
CENTERX2
 62
     7
370
     0
100
AcDbLine
 10
239.8035190474
 20
127.2695271522
 30
0.0
 11
49.1073568424
 21
127.2695271522
 31
0.0
  0
LINE
  5
166
330
1F
100
AcDbEntity
  8
0
  6
Continuous
 62
     7
370
    15
100
AcDbLine
 10
272.0039832752
 20
51.5894811751
 30
0.0
 11
271.721094604
 21
51.7528424131
 31
0.0
  0
LINE
  5
167
330
1F
100
AcDbEntity
  8
0
  6
Continuous
 62
     7
370
    15
100
AcDbLine
 10
265.2146551672
 20
51.7528424131
 30
0.0
 11
264.931766496
 21
51.5894811751
 31
0.0
  0
LINE
  5
168
330
1F
100
AcDbEntity
  8
0
  6
Continuous
 62
     7
370
    15
100
AcDbLine
 10
273.4678748856
 20
49.0588681046
 30
0.0
 11
273.4678748856
 21
49.5487925917
 31
0.0
  0
LINE
  5
169
330
1F
100
AcDbEntity
  8
0
  6
Continuous
 62
     7
370
    15
100
AcDbLine
 10
263.4678748856
 20
49.5487925917
 30
0.0
 11
263.4678748856
 21
49.0588681046
 31
0.0
  0
LINE
  5
16A
330
1F
100
AcDbEntity
  8
0
  6
Continuous
 62
     7
370
    15
100
AcDbLine
 10
274.9581654096
 20
9.3872931657
 30
0.0
 11
275.2056125593
 21
9.5301878059
 31
0.0
  0
LINE
  5
16B
330
1F
100
AcDbEntity
  8
0
  6
Continuous
 62
     7
370
    15
100
AcDbLine
 10
290.8654821797
 20
36.6568168549
 30
0.0
 11
290.8654821797
 21
36.9425596941
 31
0.0
  0
LINE
  5
16C
330
1F
100
AcDbEntity
  8
0
  6
Continuous
 62
     7
370
    15
100
AcDbLine
 10
286.2046653451
 20
47.2440678396
 30
0.0
 11
271.0705134364
 21
55.9808277694
 31
0.0
  0
LINE
  5
16D
330
1F
100
AcDbEntity
  8
0
  6
Continuous
 62
     7
370
    15
100
AcDbLine
 10
248.5723419521
 20
17.0086289623
 30
0.0
 11
263.7064938608
 21
8.2718690325
 31
0.0
  0
SPLINE
  5
16E
330
1F
100
AcDbEntity
  8
0
  6
Continuous
 62
     7
370
    15
100
AcDbSpline
210
0.0
220
0.0
230
1.0
 70
     8
 71
     3
 72
    12
 73
     8
 74
     0
 42
0.000000001
 43
0.00000001
 40
0.0
 40
0.0
 40
0.0
 40
0.0
 40
0.1580218552815186
 40
0.3911468599888921
 40
0.6239419945049869
 40
0.8561393036775042
 40
1.0
 40
1.0
 40
1.0
 40
1.0
 10
243.9802406658513
 20
24.71167212198281
 30
0.0
 10
244.0289715795611
 20
24.39073980087198
 30
0.0
 10
244.1495937798765
 20
23.59634544669981
 30
0.0
 10
244.471081992208
 20
22.42643282456268
 30
0.0
 10
244.9305220767358
 20
21.2075700628336
 30
0.0
 10
245.4160231036614
 20
20.22291205507292
 30
0.0
 10
245.7883525159325
 20
19.69457882408829
 30
0.0
 10
245.930786841829
 20
19.49246535917292
 30
0.0
  0
SPLINE
  5
16F
330
1F
100
AcDbEntity
  8
0
  6
Continuous
 62
     7
370
    15
100
AcDbSpline
210
0.0
220
0.0
230
1.0
 70
     8
 71
     3
 72
    14
 73
    10
 74
     0
 42
0.000000001
 43
0.00000001
 40
0.0
 40
0.0
 40
0.0
 40
0.0
 40
0.0574861661545632
 40
0.2436037420378655
 40
0.4306079023224521
 40
0.6183720286485596
 40
0.8066901645296908
 40
0.9953528868043268
 40
1.0
 40
1.0
 40
1.0
 40
1.0
 10
267.5482080320181
 20
57.03236968869845
 30
0.0
 10
267.4279876867234
 20
57.04645615546796
 30
0.0
 10
266.9185411895586
 20
57.10614905632902
 30
0.0
 10
265.9685249691469
 20
57.064253523475
 30
0.0
 10
264.7064360188739
 20
56.90302957056591
 30
0.0
 10
263.4055933918105
 20
56.59085966535507
 30
0.0
 10
262.0799361759905
 20
56.1233374777886
 30
0.0
 10
261.1754377946354
 20
55.75311280348799
 30
0.0
 10
260.7160362478994
 20
55.50385820426497
 30
0.0
 10
260.7049923660153
 20
55.49786619493801
 30
0.0
  0
SPLINE
  5
170
330
1F
100
AcDbEntity
  8
0
  6
Continuous
 62
     7
370
    15
100
AcDbSpline
210
0.0
220
0.0
230
1.0
 70
     8
 71
     3
 72
    25
 73
    21
 74
     0
 42
0.000000001
 43
0.00000001
 40
0.0
 40
0.0
 40
0.0
 40
0.0
 40
0.0123045191460572
 40
0.0733806826544848
 40
0.1345094658214235
 40
0.1956555800365007
 40
0.2567980923711168
 40
0.3179109572234973
 40
0.3789737655851219
 40
0.4399667315506856
 40
0.5008724871639687
 40
0.5616801185451491
 40
0.6223932955034679
 40
0.6830452642166096
 40
0.7436975516114085
 40
0.8044849412935635
 40
0.8656607886438521
 40
0.9275782047060598
 40
0.9905377996515812
 40
1.0
 40
1.0
 40
1.0
 40
1.0
 10
267.8398186216481
 20
27.94884363009546
 30
0.0
 10
267.8692104656419
 20
28.031297812195
 30
0.0
 10
268.0444951355377
 20
28.52303130444772
 30
0.0
 10
268.4318816571407
 20
29.42205133229883
 30
0.0
 10
269.0347432647712
 20
30.62469889475203
 30
0.0
 10
269.7227253838066
 20
31.78858222184637
 30
0.0
 10
270.4812294443739
 20
32.89717809745777
 30
0.0
 10
271.3007630726932
 20
33.93496461617712
 30
0.0
 10
272.1691626622494
 20
34.88749611624281
 30
0.0
 10
273.0738860126153
 20
35.74167740048954
 30
0.0
 10
274.0015981070109
 20
36.48596969455871
 30
0.0
 10
274.9385291477427
 20
37.1106355407463
 30
0.0
 10
275.8707386064219
 20
37.6080286351562
 30
0.0
 10
276.7843278783292
 20
37.97263866581566
 30
0.0
 10
277.6662550810399
 20
38.20174920730722
 30
0.0
 10
278.5041590737473
 20
38.29360235207716
 30
0.0
 10
279.2913207966735
 20
38.25331179270585
 30
0.0
 10
280.012253860718
 20
38.06599702523022
 30
0.0
 10
280.4999867745094
 20
37.87006158085737
 30
0.0
 10
280.7229396485662
 20
37.69601379027681
 30
0.0
 10
280.7520693429354
 20
37.6732737427816
 30
0.0
  0
LINE
  5
171
330
1F
100
AcDbEntity
  8
0
  6
Continuous
 62
     7
370
    15
100
AcDbLine
 10
263.9762139899
 20
62.5083017969
 30
0.0
 11
262.624284786
 21
63.2887539139
 31
0.0
  0
LINE
  5
172
330
1F
100
AcDbEntity
  8
0
  6
Continuous
 62
     7
370
    15
100
AcDbLine
 10
243.3678124668
 20
25.8297862841
 30
0.0
 11
243.8898751889
 21
25.5284058897
 31
0.0
  0
LINE
  5
173
330
1F
100
AcDbEntity
  8
0
  6
Continuous
 62
     7
370
    15
100
AcDbLine
 10
261.3388051839
 20
55.7821769584
 30
0.0
 11
260.8288933354
 21
56.0765428027
 31
0.0
  0
LINE
  5
174
330
1F
100
AcDbEntity
  8
0
  6
Continuous
 62
     7
370
    15
100
AcDbLine
 10
260.130908352
 20
64.7281494909
 30
0.0
 11
258.7878179829
 21
65.5034990572
 31
0.0
  0
SPLINE
  5
175
330
1F
100
AcDbEntity
  8
0
  6
Continuous
 62
     7
370
    15
100
AcDbSpline
210
0.0
220
0.0
230
1.0
 70
     8
 71
     3
 72
    10
 73
     6
 74
     0
 42
0.000000001
 43
0.00000001
 40
0.0
 40
0.0
 40
0.0
 40
0.0
 40
0.1306269132820681
 40
0.610168958623325
 40
1.0
 40
1.0
 40
1.0
 40
1.0
 10
230.7508242101135
 20
44.03376929023187
 30
0.0
 10
230.6926274742592
 20
43.87024801314362
 30
0.0
 10
230.4207857777869
 20
43.10642680014261
 30
0.0
 10
230.0598323319366
 20
41.85440621364771
 30
0.0
 10
229.8144522533434
 20
40.7806394027436
 30
0.0
 10
229.7044226549667
 20
40.29915723992358
 30
0.0
  0
SPLINE
  5
176
330
1F
100
AcDbEntity
  8
0
  6
Continuous
 62
     7
370
    15
100
AcDbSpline
210
0.0
220
0.0
230
1.0
 70
     8
 71
     3
 72
    19
 73
    15
 74
     0
 42
0.000000001
 43
0.00000001
 40
0.0
 40
0.0
 40
0.0
 40
0.0
 40
0.0373859560613711
 40
0.1313174646929458
 40
0.2253288395505402
 40
0.3193792202160729
 40
0.4134382705514126
 40
0.5074867519864803
 40
0.6015172693411844
 40
0.695527145030475
 40
0.789516682157049
 40
0.8834879826585872
 40
0.9774441876835136
 40
1.0
 40
1.0
 40
1.0
 40
1.0
 10
250.8245677984401
 20
66.19710518586074
 30
0.0
 10
250.644884785527
 20
66.1526362938696
 30
0.0
 10
250.0137515956895
 20
65.99644015047312
 30
0.0
 10
248.9052621090564
 20
65.58046602465603
 30
0.0
 10
247.5100090537189
 20
64.95542995675163
 30
0.0
 10
246.106887122661
 20
64.18768835062524
 30
0.0
 10
244.7071231554094
 20
63.2937003057751
 30
0.0
 10
243.3192003520494
 20
62.27638380211145
 30
0.0
 10
241.95198580122
 20
61.14339946769151
 30
0.0
 10
240.6145747703824
 20
59.90140707818757
 30
0.0
 10
239.3136435756333
 20
58.56042832241027
 30
0.0
 10
238.0640824788777
 20
57.12193383213079
 30
0.0
 10
237.1566688503812
 20
56.00178625122814
 30
0.0
 10
236.6889315850609
 20
55.34282757568602
 30
0.0
 10
236.5983813207129
 20
55.21525834678584
 30
0.0
  0
SPLINE
  5
177
330
1F
100
AcDbEntity
  8
0
  6
Continuous
 62
     7
370
    15
100
AcDbSpline
210
0.0
220
0.0
230
1.0
 70
     8
 71
     3
 72
    10
 73
     6
 74
     0
 42
0.000000001
 43
0.00000001
 40
0.0
 40
0.0
 40
0.0
 40
0.0
 40
0.3838499556542737
 40
0.8341159868933985
 40
1.0
 40
1.0
 40
1.0
 40
1.0
 10
268.9470649433418
 20
17.96508371005851
 30
0.0
 10
268.7742196037357
 20
18.08655974399454
 30
0.0
 10
268.3986221628562
 20
18.35053034093717
 30
0.0
 10
268.0179080204628
 20
18.78528831059041
 30
0.0
 10
267.8208752229587
 20
19.10697380610453
 30
0.0
 10
267.7678287427003
 20
19.19358011481742
 30
0.0
  0
LINE
  5
178
330
1F
100
AcDbEntity
  8
0
  6
Continuous
 62
     7
370
    15
100
AcDbLine
 10
244.9265784043
 20
63.4121051469
 30
0.0
 11
214.372089324
 21
74.4227318734
 31
0.0
  0
LINE
  5
179
330
1F
100
AcDbEntity
  8
0
  6
Continuous
 62
     7
370
    15
100
AcDbLine
 10
204.2482302512
 20
56.885793427
 30
0.0
 11
233.860068562
 21
31.8818019549
 31
0.0
  0
LINE
  5
17A
330
1F
100
AcDbEntity
  8
0
  6
Continuous
 62
     7
370
    15
100
AcDbLine
 10
238.0200344711
 20
20.668324274
 30
0.0
 11
239.3719636749
 21
19.887872157
 31
0.0
  0
LINE
  5
17B
330
1F
100
AcDbEntity
  8
0
  6
Continuous
 62
     7
370
    15
100
AcDbLine
 10
234.183567668
 20
22.8830694173
 30
0.0
 11
235.5266580371
 21
22.107719851
 31
0.0
  0
LINE
  5
17C
330
1F
100
AcDbEntity
  8
0
  6
Continuous
 62
     7
370
    15
100
AcDbLine
 10
229.6939027416
 20
29.0565446907
 30
0.0
 11
229.7413088563
 21
28.8986220134
 31
0.0
  0
SPLINE
  5
17D
330
1F
100
AcDbEntity
  8
0
  6
Continuous
 62
     7
370
    15
100
AcDbSpline
210
0.0
220
0.0
230
1.0
 70
     8
 71
     3
 72
    26
 73
    22
 74
     0
 42
0.000000001
 43
0.00000001
 40
0.0
 40
0.0
 40
0.0
 40
0.0
 40
0.0206098791860221
 40
0.0728944564701494
 40
0.1258584937597638
 40
0.1800156353427999
 40
0.2354401664158584
 40
0.2918299572325433
 40
0.3487416745558296
 40
0.4057939367786829
 40
0.4627674649539736
 40
0.519615804861231
 40
0.5763503967627234
 40
0.6330092593602912
 40
0.6896415292663793
 40
0.7462991841995963
 40
0.8030217103243683
 40
0.8598660618226273
 40
0.9168873030478779
 40
0.9741306240247116
 40
1.0
 40
1.0
 40
1.0
 40
1.0
 10
214.4234258300616
 20
74.38393202442695
 30
0.0
 10
214.3265534223333
 20
74.42553393330937
 30
0.0
 10
213.983928342168
 20
74.57267446279678
 30
0.0
 10
213.3318210807634
 20
74.67552019983121
 30
0.0
 10
212.4862825685167
 20
74.69393973497618
 30
0.0
 10
211.5993694676956
 20
74.55896938854211
 30
0.0
 10
210.6851022555622
 20
74.28163782056593
 30
0.0
 10
209.7552022053813
 20
73.86041032990084
 30
0.0
 10
208.8263398101016
 20
73.30249426419623
 30
0.0
 10
207.9151559616771
 20
72.61822926929342
 30
0.0
 10
207.036842393564
 20
71.82073568807532
 30
0.0
 10
206.2045969818384
 20
70.92403160662761
 30
0.0
 10
205.4301445684295
 20
69.94258907729126
 30
0.0
 10
204.7243278384262
 20
68.89150898723769
 30
0.0
 10
204.0972014670603
 20
67.78649697889162
 30
0.0
 10
203.5579738386844
 20
66.64380569092873
 30
0.0
 10
203.1150620098563
 20
65.48004447848928
 30
0.0
 10
202.7752436902022
 20
64.31150924325613
 30
0.0
 10
202.5467074085143
 20
63.15539057266224
 30
0.0
 10
202.4497834826655
 20
62.23233465728318
 30
0.0
 10
202.4417185412994
 20
61.70523514336806
 30
0.0
 10
202.4392082750215
 20
61.54117193760161
 30
0.0
  0
SPLINE
  5
17E
330
1F
100
AcDbEntity
  8
0
  6
Continuous
 62
     7
370
    15
100
AcDbSpline
210
0.0
220
0.0
230
1.0
 70
     8
 71
     3
 72
    13
 73
     9
 74
     0
 42
0.000000001
 43
0.00000001
 40
0.0
 40
0.0
 40
0.0
 40
0.0
 40
0.1013708190647097
 40
0.2925452625642218
 40
0.4837075732883072
 40
0.6730173308724617
 40
0.8585816115757523
 40
1.0
 40
1.0
 40
1.0
 40
1.0
 10
202.4392082750215
 20
61.54117193760161
 30
0.0
 10
202.4426650153902
 20
61.35040542455329
 30
0.0
 10
202.45264079568
 20
60.79987382026036
 30
0.0
 10
202.5644869666723
 20
59.93598328287926
 30
0.0
 10
202.8161126344953
 20
58.9871522664955
 30
0.0
 10
203.1979858338195
 20
58.1417939123804
 30
0.0
 10
203.6498405219908
 20
57.45173444423875
 30
0.0
 10
204.0225222193815
 20
57.10865005923679
 30
0.0
 10
204.1837052116815
 20
56.96026775827278
 30
0.0
  0
LWPOLYLINE
  5
17F
330
1F
100
AcDbEntity
  8
0
  6
Continuous
 62
     7
370
    15
100
AcDbPolyline
 90
       33
 70
   128
 43
0.0
 10
265.2151836921
 20
47.9976702593
 10
264.643114669
 20
48.4000791204
 10
264.218029036
 20
48.8591840781
 10
263.9562625957
 20
49.3573419865
 10
263.8678748856
 20
49.8754089165
 10
263.9562625957
 20
50.3934758465
 10
264.218029036
 20
50.8916337549
 10
264.643114669
 20
51.3507387126
 10
265.2151836921
 20
51.7531475737
 10
265.9122518137
 20
52.0833959912
 10
266.7075310967
 20
52.3287927037
 10
267.5704594043
 20
52.4799072531
 10
268.4678748856
 20
52.5309323921
 10
269.3652903669
 20
52.4799072531
 10
270.2282186745
 20
52.3287927037
 10
271.0234979575
 20
52.0833959912
 10
271.720566079
 20
51.7531475737
 10
272.2926351022
 20
51.3507387126
 10
272.7177207351
 20
50.8916337549
 10
272.9794871754
 20
50.3934758465
 10
273.0678748856
 20
49.8754089165
 10
272.9794871754
 20
49.3573419865
 10
272.7177207351
 20
48.8591840781
 10
272.2926351022
 20
48.4000791204
 10
271.720566079
 20
47.9976702593
 10
271.0234979575
 20
47.6674218418
 10
270.2282186745
 20
47.4220251293
 10
269.3652903669
 20
47.2709105799
 10
268.4678748856
 20
47.2198854409
 10
267.5704594043
 20
47.2709105799
 10
266.7075310967
 20
47.4220251293
 10
265.9122518137
 20
47.6674218418
 10
265.2151836921
 20
47.9976702593
  0
LWPOLYLINE
  5
180
330
1F
100
AcDbEntity
  8
0
  6
Continuous
 62
     7
370
    15
100
AcDbPolyline
 90
       10
 70
   128
 43
0.0
 10
264.9323409797
 20
47.5077723122
 10
264.327128492
 20
47.9309218352
 10
263.8715733677
 20
48.4125454227
 10
263.5821405557
 20
48.9352359434
 10
263.4692909121
 20
49.4801019999
 10
263.537103117
 20
50.0274507134
 10
263.7831262606
 20
50.5574994752
 10
264.1984684255
 20
51.0510909421
 10
264.7681180637
 20
51.4903854325
 10
264.931766496
 20
51.5894811751
  0
LWPOLYLINE
  5
181
330
1F
100
AcDbEntity
  8
0
  6
Continuous
 62
     7
370
    15
100
AcDbPolyline
 90
       18
 70
   128
 43
0.0
 10
272.0039832752
 20
51.5894811751
 10
272.3234734843
 20
51.3865596614
 10
272.8562698334
 20
50.9321153471
 10
273.2304581553
 20
50.4276741442
 10
273.432514309
 20
49.891467872
 10
273.4551354586
 20
49.3428764225
 10
273.297504017
 20
48.8017273198
 10
272.9653171951
 20
48.2875791025
 10
272.4705810902
 20
47.8190144267
 10
271.8311767541
 20
47.4129684407
 10
271.0702139255
 20
47.0841167044
 10
270.2151957836
 20
46.8443447763
 10
269.2970249119
 20
46.7023186386
 10
268.3488863979
 20
46.663171486
 10
267.4050484378
 20
46.7283181986
 10
266.4996237948
 20
46.8954042044
 10
265.6653368744
 20
47.1583905799
 10
264.9323409797
 20
47.5077723122
  0
LWPOLYLINE
  5
182
330
1F
100
AcDbEntity
  8
0
  6
Continuous
 62
     7
370
    15
100
AcDbPolyline
 90
       26
 70
   128
 43
0.0
 10
266.4172652201
 20
48.6916171543
 10
265.9717230073
 20
49.0232051892
 10
265.6830231971
 20
49.4083403183
 10
265.5693058605
 20
49.8228230853
 10
265.637716276
 20
50.2406100134
 10
265.8839559654
 20
50.6354500135
 10
266.2925527837
 20
50.9825338362
 10
266.8378330898
 20
51.2600529285
 10
267.4855349169
 20
51.4505697452
 10
268.194960777
 20
51.542113414
 10
268.9215348342
 20
51.5289319094
 10
269.6196037684
 20
51.411853474
 10
270.2453053412
 20
51.1982345764
 10
270.7593244215
 20
50.9014976776
 10
271.1293633001
 20
50.5402878482
 10
271.3321710733
 20
50.1373012303
 10
271.3550045829
 20
49.7178589551
 10
271.1964291156
 20
49.3083161235
 10
270.866408551
 20
48.9344058176
 10
270.385679295
 20
48.6196221972
 10
269.7844473348
 20
48.3837442749
 10
269.1004902856
 20
48.2415931279
 10
268.3767836843
 20
48.2021006357
 10
267.6588006781
 20
48.2677482568
 10
266.9916547799
 20
48.4344111096
 10
266.4172652201
 20
48.6916171543
  0
SPLINE
  5
183
330
1F
100
AcDbEntity
  8
0
  6
Continuous
 62
     7
370
    15
100
AcDbSpline
210
0.0
220
0.0
230
1.0
 70
     8
 71
     3
 72
     9
 73
     5
 74
     0
 42
0.000000001
 43
0.00000001
 40
0.0
 40
0.0
 40
0.0
 40
0.0
 40
0.6314238418395599
 40
1.0
 40
1.0
 40
1.0
 40
1.0
 10
266.7003743221956
 20
48.53561789700737
 30
0.0
 10
266.4753508997766
 20
48.69066626112325
 30
0.0
 10
266.1189762944664
 20
48.93621980826865
 30
0.0
 10
265.7978475904574
 20
49.29940946538555
 30
0.0
 10
265.6794872064587
 20
49.43327251388931
 30
0.0
  0
SPLINE
  5
184
330
1F
100
AcDbEntity
  8
0
  6
Continuous
 62
     7
370
    15
100
AcDbSpline
210
0.0
220
0.0
230
1.0
 70
     8
 71
     3
 72
    11
 73
     7
 74
     0
 42
0.000000001
 43
0.00000001
 40
0.0
 40
0.0
 40
0.0
 40
0.0
 40
0.2164575325957951
 40
0.4403158827730659
 40
0.7519042103606929
 40
1.0
 40
1.0
 40
1.0
 40
1.0
 10
271.2562625647108
 20
50.29590918562249
 30
0.0
 10
271.2050818049242
 20
50.11170470447111
 30
0.0
 10
271.1009703833618
 20
49.73699767646306
 30
0.0
 10
270.9077682818545
 20
49.1953923151594
 30
0.0
 10
270.7005263838485
 20
48.82448129214772
 30
0.0
 10
270.5679046614187
 20
48.72867575270265
 30
0.0
 10
270.5091163379041
 20
48.6862072419323
 30
0.0
  0
SPLINE
  5
185
330
1F
100
AcDbEntity
  8
0
  6
Continuous
 62
     7
370
    15
100
AcDbSpline
210
0.0
220
0.0
230
1.0
 70
     8
 71
     3
 72
    11
 73
     7
 74
     0
 42
0.000000001
 43
0.00000001
 40
0.0
 40
0.0
 40
0.0
 40
0.0
 40
0.1842415722604899
 40
0.5169669473866334
 40
0.8653135817995178
 40
1.0
 40
1.0
 40
1.0
 40
1.0
 10
269.2150211123915
 20
51.47429279344607
 30
0.0
 10
269.3333933765667
 20
51.34248801480429
 30
0.0
 10
269.6655363740192
 20
50.9726544683934
 30
0.0
 10
270.2841160714587
 20
50.48284197667088
 30
0.0
 10
270.861031317415
 20
50.30826372573914
 30
0.0
 10
271.1700870698878
 20
50.29860294684492
 30
0.0
 10
271.2562625647108
 20
50.29590918562249
 30
0.0
  0
SPLINE
  5
186
330
1F
100
AcDbEntity
  8
0
  6
Continuous
 62
     7
370
    15
100
AcDbSpline
210
0.0
220
0.0
230
1.0
 70
     8
 71
     3
 72
    11
 73
     7
 74
     0
 42
0.000000001
 43
0.00000001
 40
0.0
 40
0.0
 40
0.0
 40
0.0
 40
0.2164575325957947
 40
0.4403158827730664
 40
0.7519042103606937
 40
1.0
 40
1.0
 40
1.0
 40
1.0
 10
266.4266334332655
 20
51.04297445757949
 30
0.0
 10
266.617642629159
 20
50.99858326183281
 30
0.0
 10
267.006191744078
 20
50.90828310776495
 30
0.0
 10
267.7272318030325
 20
50.89445851156637
 30
0.0
 10
268.5006690958476
 20
51.08968153491375
 30
0.0
 10
268.995620102143
 20
51.35616602020171
 30
0.0
 10
269.2150211123915
 20
51.47429279344607
 30
0.0
  0
SPLINE
  5
187
330
1F
100
AcDbEntity
  8
0
  6
Continuous
 62
     7
370
    15
100
AcDbSpline
210
0.0
220
0.0
230
1.0
 70
     8
 71
     3
 72
    11
 73
     7
 74
     0
 42
0.000000001
 43
0.00000001
 40
0.0
 40
0.0
 40
0.0
 40
0.0
 40
0.2164575325957942
 40
0.4403158827730651
 40
0.7519042103606928
 40
1.0
 40
1.0
 40
1.0
 40
1.0
 10
265.6794872064587
 20
49.43327251388931
 30
0.0
 10
265.7306679662453
 20
49.46960255610731
 30
0.0
 10
265.8347793878077
 20
49.5435047872682
 30
0.0
 10
266.027981489315
 20
49.83439455787614
 30
0.0
 10
266.235223387321
 20
50.35647522528635
 30
0.0
 10
266.3678451097508
 20
50.83212795387864
 30
0.0
 10
266.4266334332655
 20
51.04297445757949
 30
0.0
  0
LINE
  5
188
330
1F
100
AcDbEntity
  8
0
  6
Continuous
 62
     7
370
    15
100
AcDbLine
 10
266.4266334333
 20
48.7476665796
 30
0.0
 11
266.4266334333
 21
51.0429744576
 31
0.0
  0
LINE
  5
189
330
1F
100
AcDbEntity
  8
0
  6
Continuous
 62
     7
370
    15
100
AcDbLine
 10
269.2150211124
 20
48.2577901835
 30
0.0
 11
269.2150211124
 21
51.4742927934
 31
0.0
  0
LWPOLYLINE
  5
18A
330
1F
100
AcDbEntity
  8
0
  6
Continuous
 62
     7
370
    15
100
AcDbPolyline
 90
       71
 70
   128
 43
0.0
 10
275.2030669764
 20
45.7014759998
 10
273.7990989018
 20
44.8181720377
 10
272.4064347526
 20
43.7963590308
 10
271.0362874417
 20
42.6442640165
 10
269.6996885896
 20
41.3711629866
 10
268.4073997044
 20
39.987306202
 10
267.1698255362
 20
38.5038356637
 10
265.9969303046
 20
36.9326954043
 10
264.8981574724
 20
35.2865353213
 10
263.8823537123
 20
33.5786093279
 10
262.957697679
 20
31.8226686398
 10
262.131634159
 20
30.032851059
 10
261.4108141303
 20
28.2235671443
 10
260.8010412117
 20
26.4093841858
 10
260.3072249364
 20
24.6049089182
 10
259.9333412225
 20
22.8246699151
 10
259.682400362
 20
21.0830006144
 10
259.556422783
 20
19.393923913
 10
259.556422783
 20
17.7710392636
 10
259.682400362
 20
16.2274131789
 10
259.9333412225
 20
14.7754740286
 10
260.3072249364
 20
13.4269119731
 10
260.8010412117
 20
12.192584841
 10
261.4108141303
 20
11.0824307087
 10
262.131634159
 20
10.1053878844
 10
262.957697679
 20
9.2693229425
 10
263.8823537123
 20
8.5809673864
 10
264.8981574724
 20
8.0458634501
 10
265.9969303046
 20
7.6683194759
 10
267.1698255362
 20
7.4513752261
 10
268.4073997044
 20
7.3967774079
 10
269.6996885896
 20
7.5049656111
 10
271.0362874418
 20
7.7750687678
 10
272.4064347526
 20
8.2049121663
 10
273.7990989018
 20
8.7910349601
 10
275.2030669764
 20
9.5287180332
 10
276.607035051
 20
10.4120219953
 10
277.9996992001
 20
11.4338350023
 10
279.369846511
 20
12.5859300165
 10
280.7064453631
 20
13.8590310464
 10
281.9987342484
 20
15.2428878311
 10
283.2363084166
 20
16.7263583693
 10
284.4092036482
 20
18.2974986287
 10
285.5079764804
 20
19.9436587117
 10
286.5237802405
 20
21.6515847051
 10
287.4484362738
 20
23.4075253932
 10
288.2744997937
 20
25.197342974
 10
288.9953198225
 20
27.0066268888
 10
289.605092741
 20
28.8208098472
 10
290.0989090164
 20
30.6252851148
 10
290.4727927302
 20
32.4055241179
 10
290.7237335908
 20
34.1471934186
 10
290.8497111698
 20
35.83627012
 10
290.8497111698
 20
37.4591547695
 10
290.7237335908
 20
39.0027808541
 10
290.4727927302
 20
40.4547200044
 10
290.0989090164
 20
41.8032820599
 10
289.605092741
 20
43.037609192
 10
288.9953198225
 20
44.1477633243
 10
288.2744997937
 20
45.1248061486
 10
287.4484362738
 20
45.9608710905
 10
286.5237802405
 20
46.6492266467
 10
285.5079764804
 20
47.1843305829
 10
284.4092036482
 20
47.5618745571
 10
283.2363084166
 20
47.778818807
 10
281.9987342484
 20
47.8334166251
 10
280.7064453631
 20
47.7252284219
 10
279.369846511
 20
47.4551252652
 10
277.9996992001
 20
47.0252818667
 10
276.607035051
 20
46.4391590729
 10
275.2030669764
 20
45.7014759998
  0
LWPOLYLINE
  5
18B
330
1F
100
AcDbEntity
  8
0
  6
Continuous
 62
     7
370
    15
100
AcDbPolyline
 90
       37
 70
   128
 43
0.0
 10
274.955579603
 20
46.1301367035
 10
273.5494607491
 20
45.2465080041
 10
272.1543466818
 20
44.2260077708
 10
270.7811560601
 20
43.0766228015
 10
269.4406359625
 20
41.807348592
 10
268.1432777764
 20
40.4281189339
 10
266.8992350885
 20
38.9497281693
 10
265.7182442196
 20
37.3837467105
 10
264.6095480246
 20
35.7424304856
 10
263.5818235543
 20
34.0386250194
 10
262.6431141462
 20
32.2856648998
 10
261.8007664741
 20
30.4972694165
 10
261.0613730508
 20
28.6874351889
 10
260.4307206322
 20
26.8703266238
 10
259.9137449285
 20
25.0601650594
 10
259.5144919757
 20
23.2711174642
 10
259.2360864693
 20
21.5171855613
 10
259.08070731
 20
19.8120962461
 10
259.0495705504
 20
18.1691941541
 10
259.1429198777
 20
16.6013372218
 10
259.360024707
 20
15.1207960555
 10
259.6991858986
 20
13.7391578972
 10
260.1577490563
 20
12.4672359387
 10
260.7321253016
 20
11.314984694
 10
261.4178193618
 20
10.2914220913
 10
262.209464751
 20
9.4045588958
 10
263.1008657707
 20
8.6613360144
 10
264.0850459994
 20
8.0675701738
 10
265.1543028924
 20
7.6279083969
 10
266.3002680646
 20
7.3457916331
 10
267.513972785
 20
7.2234278287
 10
268.7859181684
 20
7.2617746463
 10
270.1061495177
 20
7.4605319701
 10
271.4643342325
 20
7.8181442544
 10
272.849842676
 20
8.3318126985
 10
274.2518313659
 20
8.9975171501
 10
274.9581654096
 20
9.3872931657
  0
LWPOLYLINE
  5
18C
330
1F
100
AcDbEntity
  8
0
  6
Continuous
 62
     7
370
    15
100
AcDbPolyline
 90
       19
 70
   128
 43
0.0
 10
290.8654821797
 20
36.9425596941
 10
290.8304518959
 20
38.1408336573
 10
290.6750727366
 20
39.6665260138
 10
290.3966672302
 20
41.0990177611
 10
289.9974142774
 20
42.4270977089
 10
289.4804385738
 20
43.640371831
 10
288.8497861552
 20
44.7293446124
 10
288.1103927318
 20
45.6854933646
 10
287.2680450598
 20
46.5013349271
 10
286.3293356517
 20
47.1704842337
 10
285.3016111814
 20
47.6877042837
 10
284.1929149863
 20
48.048947129
 10
283.0119241175
 20
48.2513855544
 10
281.7678814296
 20
48.2934352049
 10
280.4705232434
 20
48.1747669849
 10
279.1300031459
 20
47.8963096342
 10
277.7568125242
 20
47.460242459
 10
276.3616984568
 20
46.8699782763
 10
274.955579603
 20
46.1301367035
  0
SPLINE
  5
18D
330
1F
100
AcDbEntity
  8
0
  6
Continuous
 62
     7
370
    15
100
AcDbSpline
210
0.0
220
0.0
230
1.0
 70
    11
 71
     3
 72
    99
 73
    95
 74
     0
 42
0.000000001
 43
0.00000001
 40
0.0
 40
0.0
 40
0.0
 40
0.0
 40
0.0312500000000009
 40
0.0312500000000009
 40
0.0468750000000012
 40
0.0468750000000012
 40
0.0625000000000015
 40
0.0625000000000015
 40
0.0937500000000021
 40
0.0937500000000021
 40
0.1093750000000021
 40
0.1093750000000021
 40
0.1250000000000021
 40
0.1250000000000021
 40
0.1562500000000022
 40
0.1562500000000022
 40
0.1718750000000022
 40
0.1718750000000022
 40
0.1875000000000022
 40
0.1875000000000022
 40
0.2187500000000027
 40
0.2187500000000027
 40
0.2343750000000027
 40
0.2343750000000027
 40
0.2500000000000027
 40
0.2500000000000027
 40
0.2812500000000023
 40
0.2812500000000023
 40
0.2968750000000019
 40
0.2968750000000019
 40
0.3125000000000016
 40
0.3125000000000016
 40
0.3437500000000008
 40
0.3437500000000008
 40
0.3593750000000003
 40
0.3593750000000003
 40
0.3749999999999999
 40
0.3906249999999995
 40
0.3906249999999995
 40
0.4062499999999991
 40
0.4062499999999991
 40
0.4374999999999981
 40
0.4374999999999981
 40
0.4531249999999978
 40
0.4531249999999978
 40
0.4687499999999974
 40
0.4687499999999974
 40
0.4843749999999971
 40
0.4843749999999971
 40
0.4999999999999968
 40
0.4999999999999968
 40
0.5312499999999966
 40
0.5312499999999966
 40
0.5468749999999962
 40
0.5468749999999962
 40
0.5624999999999959
 40
0.5624999999999959
 40
0.5937499999999958
 40
0.5937499999999958
 40
0.6249999999999957
 40
0.6249999999999957
 40
0.6562499999999956
 40
0.6562499999999956
 40
0.6874999999999954
 40
0.6874999999999954
 40
0.7031249999999953
 40
0.7031249999999953
 40
0.7187499999999952
 40
0.7187499999999952
 40
0.7499999999999953
 40
0.7499999999999953
 40
0.7656249999999957
 40
0.7656249999999957
 40
0.7812499999999959
 40
0.7812499999999959
 40
0.8124999999999964
 40
0.8124999999999964
 40
0.8281249999999967
 40
0.8281249999999967
 40
0.8437499999999969
 40
0.8437499999999969
 40
0.8749999999999976
 40
0.8749999999999976
 40
0.8906249999999979
 40
0.8906249999999979
 40
0.9062499999999982
 40
0.9062499999999982
 40
0.9218749999999986
 40
0.9218749999999986
 40
0.9374999999999989
 40
0.9374999999999989
 40
0.9687499999999994
 40
0.9687499999999994
 40
1.0
 40
1.0
 40
1.0
 40
1.0
 10
268.419724425349
 20
52.84945308325013
 30
0.0
 10
268.7913018324294
 20
52.79265607957327
 30
0.0
 10
269.1533461015495
 20
52.71738725431332
 30
0.0
 10
269.6837280954613
 20
52.58186265705296
 30
0.0
 10
269.8583881176334
 20
52.5328742144583
 30
0.0
 10
270.20350099346
 20
52.4276782104039
 30
0.0
 10
270.3747450029217
 20
52.37117954019818
 30
0.0
 10
270.8755298370806
 20
52.19347483044612
 30
0.0
 10
271.1914220922786
 20
52.06466737954758
 30
0.0
 10
271.6395415658816
 20
51.8579574138224
 30
0.0
 10
271.7845984360912
 20
51.78677783946997
 30
0.0
 10
272.065938585009
 20
51.63989985178056
 30
0.0
 10
272.2025273175853
 20
51.5639774211829
 30
0.0
 10
272.5914932409693
 20
51.33362927745301
 30
0.0
 10
272.8257759608907
 20
51.17546473437289
 30
0.0
 10
273.1400586532214
 20
50.93077097836593
 30
0.0
 10
273.2385913351343
 20
50.84794787513732
 30
0.0
 10
273.4227801986879
 20
50.67946643015456
 30
0.0
 10
273.5083537394403
 20
50.59378310458776
 30
0.0
 10
273.7403687851456
 20
50.33708326460991
 30
0.0
 10
273.8642892930669
 20
50.16476042213883
 30
0.0
 10
274.0030192649318
 20
49.90198711499389
 30
0.0
 10
274.0413524668065
 20
49.81367163119847
 30
0.0
 10
274.1013042273713
 20
49.63501629154095
 30
0.0
 10
274.1227098511644
 20
49.5449723088528
 30
0.0
 10
274.159765069348
 20
49.27697318740398
 30
0.0
 10
274.1492528501112
 20
49.09926465203296
 30
0.0
 10
274.0772599695373
 20
48.83108253032702
 30
0.0
 10
274.0438235879594
 20
48.74141888544955
 30
0.0
 10
273.9564729549074
 20
48.56100320524814
 30
0.0
 10
273.9033164251855
 20
48.47188554552945
 30
0.0
 10
273.7161854120197
 20
48.20821482558444
 30
0.0
 10
273.5546456787858
 20
48.03680375173862
 30
0.0
 10
273.2527139289676
 20
47.78488020099005
 30
0.0
 10
273.1413834687913
 20
47.70144353278359
 30
0.0
 10
272.9045020325842
 20
47.54109263917707
 30
0.0
 10
272.6522107291246
 20
47.38610298108835
 30
0.0
 10
272.3695640948661
 20
47.24159922863906
 30
0.0
 10
272.0714844496865
 20
47.10250189002601
 30
0.0
 10
271.9141116263025
 20
47.03549541041619
 30
0.0
 10
271.4313505780954
 20
46.84810783674298
 30
0.0
 10
271.0917915087284
 20
46.73929216646324
 30
0.0
 10
270.5569683355056
 20
46.6009601781318
 30
0.0
 10
270.3751663865805
 20
46.55929929739472
 30
0.0
 10
270.0110937663006
 20
46.48624878668303
 30
0.0
 10
269.8279027723727
 20
46.45461443055861
 30
0.0
 10
269.4592516053626
 20
46.40115596128993
 30
0.0
 10
269.273791235162
 20
46.3793323299061
 30
0.0
 10
268.9005639264894
 20
46.34586394013912
 30
0.0
 10
268.7139983891299
 20
46.334368900991
 30
0.0
 10
268.1608622388323
 20
46.31589572401315
 30
0.0
 10
267.7980651538736
 20
46.32452986497118
 30
0.0
 10
267.2620905280765
 20
46.37029973164324
 30
0.0
 10
267.0844185394052
 20
46.39117439886547
 30
0.0
 10
266.7381136781548
 20
46.44344692315538
 30
0.0
 10
266.5686990615251
 20
46.4748829363505
 30
0.0
 10
266.071274641854
 20
46.58509250892214
 30
0.0
 10
265.7539892279868
 20
46.67966154090112
 30
0.0
 10
265.1484115842329
 20
46.91361183626769
 30
0.0
 10
264.8675987171385
 20
47.05022361924039
 30
0.0
 10
264.3512563873161
 20
47.36003406733393
 30
0.0
 10
264.1146933220083
 20
47.53386343131029
 30
0.0
 10
263.6898798481632
 20
47.91803238393419
 30
0.0
 10
263.5068685058018
 20
48.12344849324023
 30
0.0
 10
263.2755202835718
 20
48.44970580202419
 30
0.0
 10
263.205645995703
 20
48.56149386818902
 30
0.0
 10
263.0808216811094
 20
48.79098736018243
 30
0.0
 10
263.0256846379208
 20
48.909183798021
 30
0.0
 10
262.8853143752067
 20
49.26914128008315
 30
0.0
 10
262.8258336865591
 20
49.51296035792871
 30
0.0
 10
262.7885400459388
 20
49.88198418757466
 30
0.0
 10
262.7848246367902
 20
50.00554527942587
 30
0.0
 10
262.79579447822
 20
50.25338329337441
 30
0.0
 10
262.8106704606956
 20
50.37846456823021
 30
0.0
 10
262.8838232130835
 20
50.74718422888179
 30
0.0
 10
262.9696284619302
 20
50.9840379566019
 30
0.0
 10
263.156259846259
 20
51.32290125868774
 30
0.0
 10
263.2281956061431
 20
51.43310635904437
 30
0.0
 10
263.3929385096366
 20
51.64729540186341
 30
0.0
 10
263.485625938708
 20
51.7508183063763
 30
0.0
 10
263.7875942269505
 20
52.04222779273653
 30
0.0
 10
264.0227755105665
 20
52.21423772880655
 30
0.0
 10
264.4281509885163
 20
52.43712393647882
 30
0.0
 10
264.57249955653
 20
52.50552463568983
 30
0.0
 10
264.8707691357736
 20
52.62670695978916
 30
0.0
 10
265.0256268499982
 20
52.68006618306022
 30
0.0
 10
265.3464548494345
 20
52.7729378326913
 30
0.0
 10
265.5124258008676
 20
52.81244903287456
 30
0.0
 10
265.8555168054237
 20
52.87788412955502
 30
0.0
 10
266.0316057690625
 20
52.90352841037082
 30
0.0
 10
266.5641049419559
 20
52.95961487046378
 30
0.0
 10
266.9281640440573
 20
52.97009488280114
 30
0.0
 10
267.6739325035826
 20
52.94335093361799
 30
0.0
 10
268.0481470182686
 20
52.90625008692699
 30
0.0
 10
268.419724425349
 20
52.84945308325013
 30
0.0
  0
ARC
  5
18E
330
1F
100
AcDbEntity
  8
0
  6
Continuous
 62
     7
370
    15
100
AcDbCircle
 10
267.1289536881
 20
49.0627152731
 30
0.0
 40
7.962171422462024
100
AcDbArc
 50
60.3278901979
 51
85.9583322819
  0
ARC
  5
18F
330
1F
100
AcDbEntity
  8
0
  6
Continuous
 62
     7
370
    15
100
AcDbCircle
 10
252.5598447431
 20
23.845447462
 30
0.0
 40
7.91468670930016
100
AcDbArc
 50
214.307266739
 51
239.7475731248
  0
LINE
  5
190
330
1F
100
AcDbEntity
  8
0
  6
Continuous
 62
     7
370
    15
100
AcDbLine
 10
282.7790445853
 20
27.5755827334
 30
0.0
 11
285.6859250074
 21
31.1917143433
 31
0.0
  0
SPLINE
  5
191
330
1F
100
AcDbEntity
  8
0
  6
Continuous
 62
     7
370
    15
100
AcDbSpline
210
0.0
220
0.0
230
1.0
 70
     8
 71
     3
 72
    20
 73
    16
 74
     0
 42
0.000000001
 43
0.00000001
 40
0.0
 40
0.0
 40
0.0
 40
0.0
 40
0.0470305088026578
 40
0.0979902205950306
 40
0.1521417717150741
 40
0.2084840042351694
 40
0.2659399655249134
 40
0.3199999852120203
 40
0.3736901181006495
 40
0.4267167692590146
 40
0.4789423374223438
 40
0.5800877796333367
 40
0.6698186120751216
 40
0.8327299676045724
 40
0.9208507232321748
 40
0.9208507232321748
 40
0.9208507232321748
 40
0.9208507232321748
 10
285.6859250074359
 20
31.191714343298
 30
0.0
 10
285.811242676536
 20
31.34760833228582
 30
0.0
 10
286.0597453201638
 20
31.69216610377509
 30
0.0
 10
286.3909610783198
 20
32.2677367188997
 30
0.0
 10
286.6711346788771
 20
32.90636226905322
 30
0.0
 10
286.8722073170781
 20
33.57658630898523
 30
0.0
 10
286.9681310590805
 20
34.22440989946139
 30
0.0
 10
286.95213058573
 20
34.8091003288161
 30
0.0
 10
286.8305325782759
 20
35.30111626131664
 30
0.0
 10
286.6110613319184
 20
35.68628896038291
 30
0.0
 10
286.2194767426388
 20
36.04892581085598
 30
0.0
 10
285.5910144829913
 20
36.16325896526473
 30
0.0
 10
284.6962080458078
 20
36.22376631867993
 30
0.0
 10
283.9968624167318
 20
36.29344686709231
 30
0.0
 10
283.1025273783565
 20
36.37331808249659
 30
0.0
 10
282.7787849447585
 20
36.4020932976694
 30
0.0
  0
SPLINE
  5
192
330
1F
100
AcDbEntity
  8
0
  6
Continuous
 62
     7
370
    15
100
AcDbSpline
210
0.0
220
0.0
230
1.0
 70
     8
 71
     3
 72
    20
 73
    16
 74
     0
 42
0.000000001
 43
0.00000001
 40
0.0
 40
0.0
 40
0.0
 40
0.0
 40
0.0470305088026579
 40
0.0979902205950306
 40
0.1521417717150741
 40
0.2084840042351694
 40
0.2659399655249133
 40
0.3199999852120202
 40
0.3736901181006493
 40
0.4267167692590144
 40
0.4789423374223436
 40
0.5800877796333365
 40
0.6698186120751214
 40
0.832729967604572
 40
0.9208507232321747
 40
0.9208507232321747
 40
0.9208507232321747
 40
0.9208507232321747
 10
264.720208945257
 20
19.08846408552766
 30
0.0
 10
264.5948912761568
 20
19.09966937355806
 30
0.0
 10
264.346388632529
 20
19.15731209987317
 30
0.0
 10
264.015172874373
 20
19.3504691405326
 30
0.0
 10
263.7349992738157
 20
19.66561313698117
 30
0.0
 10
263.5339266356148
 20
20.10368365037311
 30
0.0
 10
263.4380028936123
 20
20.64075604573874
 30
0.0
 10
263.4540033669629
 20
21.2439202283991
 30
0.0
 10
263.5756013744169
 20
21.87633023193422
 30
0.0
 10
263.7950726207745
 20
22.51489903835716
 30
0.0
 10
264.186657210054
 20
23.32964983209648
 30
0.0
 10
264.8151194697015
 20
24.16959006651331
 30
0.0
 10
265.709925906885
 20
25.26321894169062
 30
0.0
 10
266.409271535961
 20
26.14034676643565
 30
0.0
 10
267.3036065743363
 20
27.25279523812313
 30
0.0
 10
267.6273490079344
 20
27.6553555108896
 30
0.0
  0
LINE
  5
193
330
1F
100
AcDbEntity
  8
0
  6
Continuous
 62
     7
370
    15
100
AcDbLine
 10
267.6270893674
 20
18.828545172
 30
0.0
 11
264.7202089453
 21
19.0884640855
 31
0.0
  0
LWPOLYLINE
  5
194
330
1F
100
AcDbEntity
  8
0
  6
Continuous
 62
     7
370
    15
100
AcDbPolyline
 90
       22
 70
   128
 43
0.0
 10
243.9803475955
 20
24.8284347529
 10
243.9245041323
 20
25.2323904042
 10
243.7979578058
 20
26.7829854554
 10
243.7979578058
 20
28.4131968979
 10
243.9245041323
 20
30.1098992277
 10
244.1765779087
 20
31.8594315952
 10
244.5521495852
 20
33.6477077947
 10
245.0481952794
 20
35.4603296776
 10
245.6607211231
 20
37.2827030782
 10
246.3847954183
 20
39.1001553176
 10
247.2145883447
 20
40.898053339
 10
248.1434188974
 20
42.6619215245
 10
249.1638086789
 20
44.3775582448
 10
250.2675421108
 20
46.0311502017
 10
251.4457325805
 20
47.6093836451
 10
252.6888939909
 20
49.0995515673
 10
253.9870171376
 20
50.4896560124
 10
255.329650296
 20
51.7685046768
 10
256.7059833735
 20
52.9258010229
 10
258.1049349455
 20
53.9522271811
 10
259.5152414764
 20
54.8395189715
 10
260.6270493818
 20
55.4359316498
  0
SPLINE
  5
195
330
1F
100
AcDbEntity
  8
0
  6
Continuous
 62
     7
370
    15
100
AcDbSpline
210
0.0
220
0.0
230
1.0
 70
     8
 71
     3
 72
    18
 73
    14
 74
     0
 42
0.000000001
 43
0.00000001
 40
0.0
 40
0.0
 40
0.0
 40
0.0
 40
0.2499999999999998
 40
0.2499999999999998
 40
0.4999999999999996
 40
0.4999999999999996
 40
0.6249999999999997
 40
0.6249999999999997
 40
0.7499999999999998
 40
0.7499999999999998
 40
0.8749999999999999
 40
0.8749999999999999
 40
1.0
 40
1.0
 40
1.0
 40
1.0
 10
282.7787849447664
 20
36.4020932977027
 30
0.0
 10
282.7450595563595
 20
36.40509091311386
 30
0.0
 10
282.7088970196154
 20
36.4067487943715
 30
0.0
 10
282.6286135897867
 20
36.40568915981787
 30
0.0
 10
282.5835429694974
 20
36.40298368630199
 30
0.0
 10
282.5091711044413
 20
36.39215616821797
 30
0.0
 10
282.4825079578395
 20
36.38724571947652
 30
0.0
 10
282.4289333197395
 20
36.37439436030191
 30
0.0
 10
282.4016933237749
 20
36.36630217589614
 30
0.0
 10
282.3522971544764
 20
36.34825280017884
 30
0.0
 10
282.3298964518313
 20
36.33826802695771
 30
0.0
 10
282.2913799181393
 20
36.31815766716026
 30
0.0
 10
282.2754355852792
 20
36.30822871874749
 30
0.0
 10
282.2615987942398
 20
36.2984494335963
 30
0.0
  0
SPLINE
  5
196
330
1F
100
AcDbEntity
  8
0
  6
Continuous
 62
     7
370
    15
100
AcDbSpline
210
0.0
220
0.0
230
1.0
 70
     8
 71
     3
 72
    10
 73
     6
 74
     0
 42
0.000000001
 43
0.00000001
 40
0.0
 40
0.0
 40
0.0
 40
0.0
 40
0.5
 40
0.5
 40
1.0
 40
1.0
 40
1.0
 40
1.0
 10
282.2615987942319
 20
36.29844943360035
 30
0.0
 10
282.217205680556
 20
36.31359349004475
 30
0.0
 10
282.1713679349991
 20
36.33060070316788
 30
0.0
 10
282.0836806970199
 20
36.36750873413153
 30
0.0
 10
282.0416849027462
 20
36.38757374167092
 30
0.0
 10
282.0072903022557
 20
36.40742932189617
 30
0.0
  0
LINE
  5
197
330
1F
100
AcDbEntity
  8
0
  6
Continuous
 62
     7
370
    15
100
AcDbLine
 10
280.7718520256
 20
37.6728180072
 30
0.0
 11
280.5990462985
 21
37.7787609618
 31
0.0
  0
SPLINE
  5
198
330
1F
100
AcDbEntity
  8
0
  6
Continuous
 62
     7
370
    15
100
AcDbSpline
210
0.0
220
0.0
230
1.0
 70
     8
 71
     3
 72
    11
 73
     7
 74
     0
 42
0.000000001
 43
0.00000001
 40
0.0
 40
0.0
 40
0.0
 40
0.0
 40
0.1229900336001246
 40
0.3363880266546216
 40
0.7122339938856483
 40
0.9999999999999999
 40
0.9999999999999999
 40
0.9999999999999999
 40
0.9999999999999999
 10
267.8365117189087
 20
27.95008261880749
 30
0.0
 10
267.8336530663062
 20
27.94295244908897
 30
0.0
 10
267.8258344123901
 20
27.92345083866483
 30
0.0
 10
267.7815738110035
 20
27.85559751230617
 30
0.0
 10
267.7119062591843
 20
27.76153529132925
 30
0.0
 10
267.6529252805133
 20
27.68747201143267
 30
0.0
 10
267.6273490080068
 20
27.65535551096007
 30
0.0
  0
SPLINE
  5
199
330
1F
100
AcDbEntity
  8
0
  6
Continuous
 62
     7
370
    15
100
AcDbSpline
210
0.0
220
0.0
230
1.0
 70
     8
 71
     3
 72
    14
 73
    10
 74
     0
 42
0.000000001
 43
0.00000001
 40
0.0
 40
0.0
 40
0.0
 40
0.0
 40
0.1546983427629413
 40
0.3138836288401693
 40
0.468553551963457
 40
0.6277087565369092
 40
0.7823996548160038
 40
0.9415701565704361
 40
1.0
 40
1.0
 40
1.0
 40
1.0
 10
264.6318205976075
 20
19.41832687807146
 30
0.0
 10
264.5246075545888
 20
19.43610274442659
 30
0.0
 10
264.3070718111498
 20
19.47217005670461
 30
0.0
 10
264.0300003692298
 20
19.63160040576287
 30
0.0
 10
263.7951407191216
 20
19.86666791345697
 30
0.0
 10
263.6152150905483
 20
20.17310443352617
 30
0.0
 10
263.4981609213655
 20
20.54760967892672
 30
0.0
 10
263.4444147794925
 20
20.87738648723074
 30
0.0
 10
263.4547960024543
 20
21.09164039942501
 30
0.0
 10
263.4575835588424
 20
21.1491716617633
 30
0.0
  0
LINE
  5
19A
330
1F
100
AcDbEntity
  8
0
  6
Continuous
 62
     7
370
    15
100
AcDbLine
 10
278.8074479155
 20
38.2546590124
 30
0.0
 11
282.0072903023
 21
36.4074293219
 31
0.0
  0
ARC
  5
19B
330
1F
100
AcDbEntity
  8
0
  6
Continuous
 62
     7
370
    15
100
AcDbCircle
 10
261.4079858336
 20
36.9144200287
 30
0.0
 40
14.13934774962001
100
AcDbArc
 50
338.7131338433
 51
2.0414116062
  0
LINE
  5
19C
330
1F
100
AcDbEntity
  8
0
  6
Continuous
 62
     7
370
    15
100
AcDbLine
 10
274.5826690998
 20
31.7813044427
 30
0.0
 11
282.0072903023
 21
27.4951618556
 31
0.0
  0
LINE
  5
19D
330
1F
100
AcDbEntity
  8
0
  6
Continuous
 62
     7
370
    15
100
AcDbLine
 10
268.927279981
 20
17.9655119406
 30
0.0
 11
269.0999808731
 21
17.8596371271
 31
0.0
  0
LINE
  5
19E
330
1F
100
AcDbEntity
  8
0
  6
Continuous
 62
     7
370
    15
100
AcDbLine
 10
263.543699589
 20
21.6255797182
 30
0.0
 11
267.6917368693
 21
19.230968767
 31
0.0
  0
LWPOLYLINE
  5
19F
330
1F
100
AcDbEntity
  8
0
  6
Continuous
 62
     7
370
    15
100
AcDbPolyline
 90
       17
 70
   128
 43
0.0
 10
235.411063112
 20
37.2178801799
 10
235.7940984454
 20
38.7566794046
 10
236.3758742555
 20
40.672091505
 10
237.0736647868
 20
42.5905219722
 10
237.8822506862
 20
44.4976212767
 10
238.7955838706
 20
46.3791246441
 10
239.806832765
 20
48.2209587533
 10
240.9084334019
 20
50.0093470024
 10
242.0921459982
 20
51.7309125554
 10
243.3491165876
 20
53.3727783983
 10
244.6699432466
 20
54.9226636576
 10
246.0447464193
 20
56.3689754585
 10
247.4632428147
 20
57.7008956376
 10
248.9148223241
 20
58.9084616617
 10
250.3886273829
 20
59.9826411446
 10
251.8736341829
 20
60.9153994091
 10
252.1478687536
 20
61.0714170229
  0
SPLINE
  5
1A0
330
1F
100
AcDbEntity
  8
0
  6
Continuous
 62
     7
370
    15
100
AcDbSpline
210
0.0
220
0.0
230
1.0
 70
     8
 71
     3
 72
    12
 73
     8
 74
     0
 42
0.000000001
 43
0.00000001
 40
0.0
 40
0.0
 40
0.0
 40
0.0
 40
0.2500000000000001
 40
0.2500000000000001
 40
0.5000000000000002
 40
0.5000000000000002
 40
1.0
 40
1.0
 40
1.0
 40
1.0
 10
234.9732476777749
 20
37.1922912411309
 30
0.0
 10
235.0071820300374
 20
37.17270135655215
 30
0.0
 10
235.0456449852739
 20
37.14554384616767
 30
0.0
 10
235.1199168781846
 20
37.08642327394111
 30
0.0
 10
235.1551949117382
 20
37.05506276701394
 30
0.0
 10
235.2504975302239
 20
36.96331530329112
 30
0.0
 10
235.2991865513972
 20
36.90664958233897
 30
0.0
 10
235.3326889392675
 20
36.85861262343024
 30
0.0
  0
LWPOLYLINE
  5
1A1
330
1F
100
AcDbEntity
  8
0
  6
Continuous
 62
     7
370
    15
100
AcDbPolyline
 90
       13
 70
   128
 43
0.0
 10
256.1419586541
 20
63.1956252523
 10
257.5644322144
 20
63.5041232917
 10
258.9471339576
 20
63.6491657726
 10
260.2762175259
 20
63.6286949299
 10
261.54188468
 20
63.4428616781
 10
262.7348046979
 20
63.0930360129
 10
263.8461831621
 20
62.581796911
 10
264.8678267941
 20
61.9129133174
 10
265.7922038564
 20
61.0913163603
 10
266.6124996777
 20
60.1230629978
 10
267.3226668922
 20
59.0152913649
 10
267.9174700216
 20
57.77616815
 10
268.2263158327
 20
56.9460245435
  0
LINE
  5
1A2
330
1F
100
AcDbEntity
  8
0
  6
Continuous
 62
     7
370
    15
100
AcDbLine
 10
233.6213184739
 20
37.9727433581
 30
0.0
 11
234.9732476778
 21
37.1922912411
 31
0.0
  0
LWPOLYLINE
  5
1A3
330
1F
100
AcDbEntity
  8
0
  6
Continuous
 62
     7
370
    15
100
AcDbPolyline
 90
       26
 70
   128
 43
0.0
 10
233.6213184739
 20
37.9727433581
 10
234.1015076943
 20
39.8835324565
 10
234.7012784297
 20
41.8097663143
 10
235.416209064
 20
43.7372443949
 10
236.2410290023
 20
45.651756989
 10
237.1696575259
 20
47.5391899711
 10
238.1952486213
 20
49.3856288514
 10
239.3102414495
 20
51.177461356
 10
240.506416086
 20
52.9014777787
 10
241.7749541201
 20
54.5449683656
 10
243.1065036648
 20
56.0958170133
 10
244.4912483015
 20
57.5425905913
 10
245.9189794478
 20
58.8746232289
 10
247.3791716172
 20
60.082094946
 10
248.8610600147
 20
61.1561040475
 10
250.3537198969
 20
62.0887327483
 10
251.8461471113
 20
62.8731055447
 10
253.3273392204
 20
63.5034399017
 10
254.786376614
 20
63.9750888829
 10
256.2125030105
 20
64.2845754087
 10
257.5952047538
 20
64.4296178896
 10
258.924288322
 20
64.4091470469
 10
260.1899554761
 20
64.2233137951
 10
261.382875494
 20
63.8734881299
 10
262.4942539583
 20
63.362249028
 10
262.624284786
 20
63.2887539139
  0
ARC
  5
1A4
330
1F
100
AcDbEntity
  8
0
  6
Continuous
 62
     7
370
    15
100
AcDbCircle
 10
238.8624104164
 20
29.0199305282
 30
0.0
 40
0.6147219230288803
100
AcDbArc
 50
302.60547834
 51
357.3945215143
  0
LINE
  5
1A5
330
1F
100
AcDbEntity
  8
0
  6
Continuous
 62
     7
370
    15
100
AcDbLine
 10
239.4764968569
 20
31.6748732049
 30
0.0
 11
239.4764968569
 21
28.9919861873
 31
0.0
  0
ARC
  5
1A6
330
1F
100
AcDbEntity
  8
0
  6
Continuous
 62
     7
370
    15
100
AcDbCircle
 10
269.023367501
 20
31.1726285707
 30
0.0
 40
30.05133403986009
100
AcDbArc
 50
137.8865149099
 51
157.9306387885
  0
LINE
  5
1A7
330
1F
100
AcDbEntity
  8
0
  6
Continuous
 62
     7
370
    15
100
AcDbLine
 10
239.4764968569
 20
38.8313029706
 30
0.0
 11
239.4764968569
 21
36.148415953
 31
0.0
  0
ARC
  5
1A8
330
1F
100
AcDbEntity
  8
0
  6
Continuous
 62
     7
370
    15
100
AcDbCircle
 10
239.30406711
 20
38.8592738493
 30
0.0
 40
0.1746836789713901
100
AcDbArc
 50
350.7859630095
 51
129.2032852357
  0
LINE
  5
1A9
330
1F
100
AcDbEntity
  8
0
  6
Continuous
 62
     7
370
    15
100
AcDbLine
 10
239.1936541445
 20
38.9946376729
 30
0.0
 11
235.3788634633
 21
36.7924058885
 31
0.0
  0
LINE
  5
1AA
330
1F
100
AcDbEntity
  8
0
  6
Continuous
 62
     7
370
    15
100
AcDbLine
 10
235.3326889393
 20
36.8586126234
 30
0.0
 11
235.3788634633
 21
36.7924058885
 31
0.0
  0
LINE
  5
1AB
330
1F
100
AcDbEntity
  8
0
  6
Continuous
 62
     7
370
    15
100
AcDbLine
 10
235.3788634633
 20
26.2998564558
 30
0.0
 11
235.3326889393
 21
26.1803377502
 31
0.0
  0
LINE
  5
1AC
330
1F
100
AcDbEntity
  8
0
  6
Continuous
 62
     7
370
    15
100
AcDbLine
 10
235.3788634633
 20
26.2998564558
 30
0.0
 11
239.1936541445
 21
28.5020882402
 31
0.0
  0
LINE
  5
1AD
330
1F
100
AcDbEntity
  8
0
  6
Continuous
 62
     7
370
    15
100
AcDbLine
 10
267.7909673206
 20
19.1358515558
 30
0.0
 11
264.6318205976
 21
19.4183268781
 31
0.0
  0
SPLINE
  5
1AE
330
1F
100
AcDbEntity
  8
0
  6
Continuous
 62
     7
370
    15
100
AcDbSpline
210
0.0
220
0.0
230
1.0
 70
     8
 71
     3
 72
    18
 73
    14
 74
     0
 42
0.000000001
 43
0.00000001
 40
0.0
 40
0.0
 40
0.0
 40
0.0
 40
0.2500000000000037
 40
0.2500000000000037
 40
0.5000000000000073
 40
0.5000000000000073
 40
0.6250000000000054
 40
0.6250000000000054
 40
0.7500000000000037
 40
0.7500000000000037
 40
0.8750000000000018
 40
0.8750000000000018
 40
1.0
 40
1.0
 40
1.0
 40
1.0
 10
267.627089367396
 20
18.82854517191188
 30
0.0
 10
267.6606017377505
 20
18.82554866100371
 30
0.0
 10
267.6936620982857
 20
18.82597948592508
 30
0.0
 10
267.7547981953824
 20
18.83830709635725
 30
0.0
 10
267.7838343395276
 20
18.85003359066734
 30
0.0
 10
267.8172353021346
 20
18.88512655380529
 30
0.0
 10
267.826574073077
 20
18.90003404912337
 30
0.0
 10
267.8383049394312
 20
18.93669124839883
 30
0.0
 10
267.8406500529198
 20
18.95912964150211
 30
0.0
 10
267.8369557872335
 20
19.00753275259068
 30
0.0
 10
267.831020541558
 20
19.03384233374224
 30
0.0
 10
267.8140963014553
 20
19.08545619472439
 30
0.0
 10
267.8030950124748
 20
19.11118958457139
 30
0.0
 10
267.7909673206315
 20
19.13585155582866
 30
0.0
  0
SPLINE
  5
1AF
330
1F
100
AcDbEntity
  8
0
  6
Continuous
 62
     7
370
    15
100
AcDbSpline
210
0.0
220
0.0
230
1.0
 70
     8
 71
     3
 72
    10
 73
     6
 74
     0
 42
0.000000001
 43
0.00000001
 40
0.0
 40
0.0
 40
0.0
 40
0.0
 40
0.5
 40
0.5
 40
1.0
 40
1.0
 40
1.0
 40
1.0
 10
267.691736869331
 20
19.23096876702873
 30
0.0
 10
267.7261509052676
 20
19.2111019669592
 30
0.0
 10
267.7510414831639
 20
19.19253812651367
 30
0.0
 10
267.7824489641141
 20
19.16071644638655
 30
0.0
 10
267.7895519978402
 20
19.14715230104515
 30
0.0
 10
267.7909673206316
 20
19.13585155582863
 30
0.0
  0
LWPOLYLINE
  5
1B0
330
1F
100
AcDbEntity
  8
0
  6
Continuous
 62
     7
370
    15
100
AcDbPolyline
 90
       21
 70
   128
 43
0.0
 10
232.6320828685
 20
39.2316151946
 10
233.0982052403
 20
41.0980692728
 10
233.6854115868
 20
42.9802701643
 10
234.3890553666
 20
44.8633240856
 10
235.2035686735
 20
46.7323305034
 10
236.1225062949
 20
48.5725000414
 10
237.1385967127
 20
50.3692715087
 10
238.2437996423
 20
52.1084271215
 10
239.4293696553
 20
53.7762050082
 10
240.6859253817
 20
55.3594081063
 10
242.0035237442
 20
56.8455085904
 10
243.3717386375
 20
58.2227470043
 10
244.7797434296
 20
59.4802253133
 10
246.2163966326
 20
60.6079931397
 10
247.6703300646
 20
61.5971265
 10
249.1300388064
 20
62.4397984199
 10
250.5839722385
 20
63.1293408686
 10
252.0206254414
 20
63.6602975233
 10
253.4286302335
 20
64.0284669444
 10
254.7968451268
 20
64.2309358212
 10
256.1037177548
 20
64.2665013462
  0
SPLINE
  5
1B1
330
1F
100
AcDbEntity
  8
0
  6
Continuous
 62
     7
370
    15
100
AcDbSpline
210
0.0
220
0.0
230
1.0
 70
     8
 71
     3
 72
     8
 73
     4
 74
     0
 42
0.000000001
 43
0.00000001
 40
0.0
 40
0.0
 40
0.0
 40
0.0
 40
1.0
 40
1.0
 40
1.0
 40
1.0
 10
232.6320828684616
 20
39.23161519461848
 30
0.0
 10
232.2487988989542
 20
39.16825498663883
 30
0.0
 10
231.8654329883153
 20
39.10506347212603
 30
0.0
 10
231.4819951195133
 20
39.04202009898967
 30
0.0
  0
SPLINE
  5
1B2
330
1F
100
AcDbEntity
  8
0
  6
Continuous
 62
     7
370
    15
100
AcDbSpline
210
0.0
220
0.0
230
1.0
 70
     8
 71
     3
 72
     8
 73
     4
 74
     0
 42
0.000000001
 43
0.00000001
 40
0.0
 40
0.0
 40
0.0
 40
0.0
 40
0.0011891741919631
 40
0.0011891741919631
 40
0.0011891741919631
 40
0.0011891741919631
 10
231.1279420399103
 20
39.41213893508338
 30
0.0
 10
231.2462352702594
 20
39.28866836329264
 30
0.0
 10
231.3642589395218
 20
39.16529269720676
 30
0.0
 10
231.4819951195133
 20
39.04202009898967
 30
0.0
  0
LWPOLYLINE
  5
1B3
330
1F
100
AcDbEntity
  8
0
  6
Continuous
 62
     7
370
    15
100
AcDbPolyline
 90
       27
 70
   128
 43
0.0
 10
231.1279420399
 20
39.4121389351
 10
231.6081312603
 20
41.3229280334
 10
232.2079019957
 20
43.2491618913
 10
232.92283263
 20
45.1766399719
 10
233.7476525683
 20
47.0911525659
 10
234.6762810919
 20
48.978585548
 10
235.7018721873
 20
50.8250244284
 10
236.8168650154
 20
52.616856933
 10
238.013039652
 20
54.3408733557
 10
239.2815776861
 20
55.9843639425
 10
240.6131272308
 20
57.5352125902
 10
241.9978718675
 20
58.9819861682
 10
243.4256030138
 20
60.3140188059
 10
244.8857951832
 20
61.521490523
 10
246.3676835807
 20
62.5954996244
 10
247.8603434629
 20
63.5281283252
 10
249.3527706773
 20
64.3125011216
 10
250.8339627864
 20
64.9428354786
 10
252.29300018
 20
65.4144844599
 10
253.7191265765
 20
65.7239709857
 10
255.1018283198
 20
65.8690134666
 10
256.430911888
 20
65.8485426238
 10
257.6965790421
 20
65.6627093721
 10
258.88949906
 20
65.3128837069
 10
260.0008775242
 20
64.801644605
 10
261.0225211563
 20
64.1327610114
 10
261.3142849574
 20
63.8987808913
  0
ARC
  5
1B4
330
1F
100
AcDbEntity
  8
0
  6
Continuous
 62
     7
370
    15
100
AcDbCircle
 10
257.6258242561
 20
50.316697623
 30
0.0
 40
6.590559006733701
100
AcDbArc
 50
60.9214185167
 51
98.2465329379
  0
ARC
  5
1B5
330
1F
100
AcDbEntity
  8
0
  6
Continuous
 62
     7
370
    15
100
AcDbCircle
 10
247.2464792099
 20
31.9435396951
 30
0.0
 40
7.240306379892102
100
AcDbArc
 50
193.6914101772
 51
237.608279448
  0
LINE
  5
1B6
330
1F
100
AcDbEntity
  8
0
  6
Continuous
 62
     7
370
    15
100
AcDbLine
 10
229.7848516708
 20
40.1874885014
 30
0.0
 11
231.1279420399
 21
39.4121389351
 31
0.0
  0
ARC
  5
1B7
330
1F
100
AcDbEntity
  8
0
  6
Continuous
 62
     7
370
    15
100
AcDbCircle
 10
254.0791035811
 20
56.8166566849
 30
0.0
 40
9.880952470209333
100
AcDbArc
 50
61.5400344227
 51
108.3845712921
  0
LINE
  5
1B8
330
1F
100
AcDbEntity
  8
0
  6
Continuous
 62
     7
370
    15
100
AcDbLine
 10
233.8448302411
 20
38.9197783725
 30
0.0
 11
233.2512113929
 21
39.2624672392
 31
0.0
  0
SPLINE
  5
1B9
330
1F
100
AcDbEntity
  8
0
  6
Continuous
 62
     7
370
    15
100
AcDbSpline
210
0.0
220
0.0
230
1.0
 70
     8
 71
     3
 72
    12
 73
     8
 74
     0
 42
0.000000001
 43
0.00000001
 40
0.0
 40
0.0
 40
0.0
 40
0.0
 40
0.4999999999999928
 40
0.4999999999999928
 40
0.7499999999999963
 40
0.7499999999999963
 40
1.0
 40
1.0
 40
1.0
 40
1.0
 10
233.2512113928642
 20
39.26246723922869
 30
0.0
 10
233.175489107287
 20
39.30618078422342
 30
0.0
 10
233.067847732131
 20
39.32996761831365
 30
0.0
 10
232.9066857918891
 20
39.32703903737659
 30
0.0
 10
232.8540843668334
 20
39.32000057241387
 30
0.0
 10
232.7562265167421
 20
39.29517463239277
 30
0.0
 10
232.7113889006438
 20
39.27739759249152
 30
0.0
 10
232.673743722495
 20
39.25566549372697
 30
0.0
  0
ARC
  5
1BA
330
1F
100
AcDbEntity
  8
0
  6
Continuous
 62
     7
370
    15
100
AcDbCircle
 10
269.8880697693
 20
30.6922140599
 30
0.0
 40
41.29894610063455
100
AcDbArc
 50
143.7829654161
 51
160.9307146593
  0
SPLINE
  5
1BB
330
1F
100
AcDbEntity
  8
0
  6
Continuous
 62
     7
370
    15
100
AcDbSpline
210
0.0
220
0.0
230
1.0
 70
     8
 71
     3
 72
    10
 73
     6
 74
     0
 42
0.000000001
 43
0.00000001
 40
0.0
 40
0.0
 40
0.0
 40
0.0
 40
0.5
 40
0.5
 40
1.0
 40
1.0
 40
1.0
 40
1.0
 10
229.6829256651754
 20
40.21707897603056
 30
0.0
 10
229.6901728527376
 20
40.22142716297076
 30
0.0
 10
229.7019479450054
 20
40.2219390654048
 30
0.0
 10
229.7360624218273
 20
40.21266337088274
 30
0.0
 10
229.7583369783423
 20
40.20279510753677
 30
0.0
 10
229.7848516708186
 20
40.18748850138047
 30
0.0
  0
LINE
  5
1BC
330
1F
100
AcDbEntity
  8
0
  6
Continuous
 62
     7
370
    15
100
AcDbLine
 10
232.6737437225
 20
39.2556654937
 30
0.0
 11
232.6320828685
 21
39.2316151946
 31
0.0
  0
SPLINE
  5
1BD
330
1F
100
AcDbEntity
  8
0
  6
Continuous
 62
     7
370
    15
100
AcDbSpline
210
0.0
220
0.0
230
1.0
 70
     8
 71
     3
 72
    10
 73
     6
 74
     0
 42
0.000000001
 43
0.00000001
 40
0.0
 40
0.0
 40
0.0
 40
0.0
 40
0.5
 40
0.5
 40
1.0
 40
1.0
 40
1.0
 40
1.0
 10
282.0072903022557
 20
27.49516185556018
 30
0.0
 10
282.0417043381924
 20
27.47529505549066
 30
0.0
 10
282.0837912714852
 20
27.46665845970816
 30
0.0
 10
282.1713221178311
 20
27.46723610878487
 30
0.0
 10
282.2172207322769
 20
27.47606817547619
 30
0.0
 10
282.261613241468
 20
27.48957763186825
 30
0.0
  0
SPLINE
  5
1BE
330
1F
100
AcDbEntity
  8
0
  6
Continuous
 62
     7
370
    15
100
AcDbSpline
210
0.0
220
0.0
230
1.0
 70
     8
 71
     3
 72
    16
 73
    12
 74
     0
 42
0.000000001
 43
0.00000001
 40
0.0
 40
0.0
 40
0.0
 40
0.0
 40
0.2500000000000087
 40
0.2500000000000087
 40
0.3750000000000098
 40
0.3750000000000098
 40
0.500000000000011
 40
0.500000000000011
 40
0.7500000000000056
 40
0.7500000000000056
 40
1.0
 40
1.0
 40
1.0
 40
1.0
 10
282.261613241468
 20
27.48957763186831
 30
0.0
 10
282.2893816050689
 20
27.4417266386223
 30
0.0
 10
282.3270385900454
 20
27.39819119834602
 30
0.0
 10
282.4013421040162
 20
27.36460643994979
 30
0.0
 10
282.4281357009726
 20
27.35932866895551
 30
0.0
 10
282.4817040895741
 20
27.36013074253076
 30
0.0
 10
282.5083157702409
 20
27.36605097626398
 30
0.0
 10
282.5831465594172
 20
27.39354813133087
 30
0.0
 10
282.6281028087616
 20
27.42448803012178
 30
0.0
 10
282.7087638924352
 20
27.49401908794232
 30
0.0
 10
282.7454773450665
 20
27.53382540549516
 30
0.0
 10
282.7790445853785
 20
27.57558273332597
 30
0.0
  0
SPLINE
  5
1BF
330
1F
100
AcDbEntity
  8
0
  6
Continuous
 62
     7
370
    15
100
AcDbSpline
210
0.0
220
0.0
230
1.0
 70
     8
 71
     3
 72
    20
 73
    16
 74
     0
 42
0.000000001
 43
0.00000001
 40
0.0
 40
0.0
 40
0.0
 40
0.0
 40
0.25
 40
0.25
 40
0.5
 40
0.5
 40
0.53125
 40
0.53125
 40
0.5625
 40
0.5625
 40
0.625
 40
0.625
 40
0.75
 40
0.75
 40
1.0
 40
1.0
 40
1.0
 40
1.0
 10
239.4764968569363
 20
36.14841595301439
 30
0.0
 10
239.4764968569363
 20
35.7782191559936
 30
0.0
 10
239.4928563988023
 20
35.39861390561806
 30
0.0
 10
239.5240608619273
 20
34.64077741487364
 30
0.0
 10
239.5385191162467
 20
34.26247551720835
 30
0.0
 10
239.5389269542929
 20
33.84542963256857
 30
0.0
 10
239.5387731558929
 20
33.79810244419302
 30
0.0
 10
239.5380679361402
 20
33.70455948197937
 30
0.0
 10
239.5375176716882
 20
33.65790583754018
 30
0.0
 10
239.5353128541037
 20
33.51827519947967
 30
0.0
 10
239.5330987319806
 20
33.42562726447352
 30
0.0
 10
239.5247939207323
 20
33.14870792143434
 30
0.0
 10
239.5170450228182
 20
32.96548115005819
 30
0.0
 10
239.4933149141731
 20
32.4160665751936
 30
0.0
 10
239.4764968569363
 20
32.05037197176286
 30
0.0
 10
239.4764968569363
 20
31.67487320486451
 30
0.0
  0
LINE
  5
1C0
330
1F
100
AcDbEntity
  8
0
  6
Continuous
 62
     7
370
    15
100
AcDbLine
 10
235.3788634633
 20
36.7924058885
 30
0.0
 11
233.6542328966
 21
37.7880139225
 31
0.0
  0
SPLINE
  5
1C1
330
1F
100
AcDbEntity
  8
0
  6
Continuous
 62
     7
370
    15
100
AcDbSpline
210
0.0
220
0.0
230
1.0
 70
     8
 71
     3
 72
     8
 73
     4
 74
     0
 42
0.000000001
 43
0.00000001
 40
0.0
 40
0.0
 40
0.0
 40
0.0
 40
0.001189174191963
 40
0.001189174191963
 40
0.001189174191963
 40
0.001189174191963
 10
233.6542328966167
 20
37.78801392253983
 30
0.0
 10
233.64283475237
 20
37.84989887939414
 30
0.0
 10
233.6318709568108
 20
37.91147019593375
 30
0.0
 10
233.6213184739184
 20
37.97274335812686
 30
0.0
  0
SPLINE
  5
1C2
330
1F
100
AcDbEntity
  8
0
  6
Continuous
 62
     7
370
    15
100
AcDbSpline
210
0.0
220
0.0
230
1.0
 70
     8
 71
     3
 72
    34
 73
    30
 74
     0
 42
0.000000001
 43
0.00000001
 40
0.0
 40
0.0
 40
0.0
 40
0.0
 40
0.1249999999999986
 40
0.1249999999999986
 40
0.1874999999999981
 40
0.1874999999999981
 40
0.2499999999999982
 40
0.2499999999999982
 40
0.3124999999999982
 40
0.3124999999999982
 40
0.3749999999999982
 40
0.3749999999999982
 40
0.4374999999999982
 40
0.4374999999999982
 40
0.4999999999999982
 40
0.4999999999999982
 40
0.6249999999999982
 40
0.6249999999999982
 40
0.6874999999999982
 40
0.6874999999999982
 40
0.7499999999999981
 40
0.7499999999999981
 40
0.8124999999999989
 40
0.8124999999999989
 40
0.8749999999999993
 40
0.8749999999999993
 40
0.9374999999999997
 40
0.9374999999999997
 40
1.0
 40
1.0
 40
1.0
 40
1.0
 10
285.420759964492
 20
31.41952612186526
 30
0.0
 10
285.5960796728017
 20
31.63762217226925
 30
0.0
 10
285.7543621199194
 20
31.86960903105117
 30
0.0
 10
285.9649614357917
 20
32.2389655856657
 30
0.0
 10
286.0309622574273
 20
32.36664166857609
 30
0.0
 10
286.1505641554212
 20
32.62273828730263
 30
0.0
 10
286.2044759275223
 20
32.75157855140713
 30
0.0
 10
286.3007517144716
 20
33.0108079263796
 30
0.0
 10
286.3431102115832
 20
33.14120037567392
 30
0.0
 10
286.4160351006979
 20
33.40351042466818
 30
0.0
 10
286.4461591219143
 20
33.53407486906176
 30
0.0
 10
286.4934352853159
 20
33.7894175328221
 30
0.0
 10
286.5107709377152
 20
33.91490166625088
 30
0.0
 10
286.5330480589636
 20
34.16134425996493
 30
0.0
 10
286.5379879426604
 20
34.28313121356271
 30
0.0
 10
286.5339420294746
 20
34.63421152608259
 30
0.0
 10
286.5068076572995
 20
34.84832919817297
 30
0.0
 10
286.4306207544269
 20
35.13902023065817
 30
0.0
 10
286.3991917771703
 20
35.23052153567819
 30
0.0
 10
286.3261185883248
 20
35.39782163737439
 30
0.0
 10
286.284209638424
 20
35.4744326724288
 30
0.0
 10
286.1888815114112
 20
35.61412977405163
 30
0.0
 10
286.135099020027
 20
35.67751785561587
 30
0.0
 10
286.0179855867024
 20
35.78827037790555
 30
0.0
 10
285.9558091896424
 20
35.83479799557367
 30
0.0
 10
285.8239155581933
 20
35.91110603722449
 30
0.0
 10
285.7537411489268
 20
35.94115363101482
 30
0.0
 10
285.6000280828207
 20
35.98744968942118
 30
0.0
 10
285.5161396246165
 20
36.00366703693051
 30
0.0
 10
285.4247130829895
 20
36.01368709621123
 30
0.0
  0
SPLINE
  5
1C3
330
1F
100
AcDbEntity
  8
0
  6
Continuous
 62
     7
370
    15
100
AcDbSpline
210
0.0
220
0.0
230
1.0
 70
     8
 71
     3
 72
    14
 73
    10
 74
     0
 42
0.000000001
 43
0.00000001
 40
0.0
 40
0.0
 40
0.0
 40
0.0
 40
0.2499999999999999
 40
0.2499999999999999
 40
0.4999999999999999
 40
0.4999999999999999
 40
0.7499999999999999
 40
0.7499999999999999
 40
1.0
 40
1.0
 40
1.0
 40
1.0
 10
285.4247130829895
 20
36.01368709621121
 30
0.0
 10
285.1501157106341
 20
36.04378209816976
 30
0.0
 10
284.8921547059186
 20
36.06425568593453
 30
0.0
 10
284.3698127596119
 20
36.10891574357375
 30
0.0
 10
284.1062843805856
 20
36.13260872728399
 30
0.0
 10
283.5783990591864
 20
36.18047245928121
 30
0.0
 10
283.314313474454
 20
36.20448687323742
 30
0.0
 10
282.787734574287
 20
36.25159610689283
 30
0.0
 10
282.5248129069553
 20
36.2749383627399
 30
0.0
 10
282.2615987942366
 20
36.29844943359761
 30
0.0
  0
SPLINE
  5
1C4
330
1F
100
AcDbEntity
  8
0
  6
Continuous
 62
     7
370
    15
100
AcDbSpline
210
0.0
220
0.0
230
1.0
 70
     8
 71
     3
 72
    12
 73
     8
 74
     0
 42
0.000000001
 43
0.00000001
 40
0.0
 40
0.0
 40
0.0
 40
0.0
 40
0.0316027464897148
 40
0.4222464698348821
 40
0.8128309791953702
 40
0.9907948645948691
 40
0.9999999999999999
 40
0.9999999999999999
 40
0.9999999999999999
 40
0.9999999999999999
 10
233.8638367812681
 20
34.91499289866089
 30
0.0
 10
233.8637672639624
 20
34.94403765330965
 30
0.0
 10
233.8628384384582
 20
35.33210661819053
 30
0.0
 10
233.8273839390519
 20
36.09776137641266
 30
0.0
 10
233.7969442679887
 20
36.99512821489748
 30
0.0
 10
233.802826850011
 20
37.52216027825219
 30
0.0
 10
233.8089780427378
 20
37.69024047890518
 30
0.0
 10
233.8092805637518
 20
37.69850680951523
 30
0.0
  0
LINE
  5
1C5
330
1F
100
AcDbEntity
  8
0
  6
Continuous
 62
     7
370
    15
100
AcDbLine
 10
232.8031766095
 20
37.8355060664
 30
0.0
 11
232.8649162896
 21
39.2952533707
 31
0.0
  0
ARC
  5
1C6
330
1F
100
AcDbEntity
  8
0
  6
Continuous
 62
     7
370
    15
100
AcDbCircle
 10
244.3478080592
 20
37.5106859124
 30
0.0
 40
11.54920012126765
100
AcDbArc
 50
178.388349136
 51
204.8015669302
  0
LINE
  5
1C7
330
1F
100
AcDbEntity
  8
0
  6
Continuous
 62
     7
370
    15
100
AcDbLine
 10
214.372089324
 20
74.4227318734
 30
0.0
 11
214.4217882345
 21
74.4043957523
 31
0.0
  0
LINE
  5
1C8
330
1F
100
AcDbEntity
  8
0
  6
Continuous
 62
     7
370
    15
100
AcDbLine
 10
204.2482302512
 20
56.885793427
 30
0.0
 11
204.1866127301
 21
56.9390588389
 31
0.0
  0
LINE
  5
1C9
330
1F
100
AcDbEntity
  8
0
  6
Continuous
 62
     7
370
    15
100
AcDbLine
 10
230.1197567782
 20
39.8284235544
 30
0.0
 11
229.6829256652
 21
40.217078976
 31
0.0
  0
LINE
  5
1CA
330
1F
100
AcDbEntity
  8
0
  6
Continuous
 62
     7
370
    15
100
AcDbLine
 10
231.4819951195
 20
39.042020099
 30
0.0
 11
230.1197567782
 21
39.8284235544
 31
0.0
  0
LINE
  5
1CB
330
1F
100
AcDbEntity
  8
0
  6
Continuous
 62
     7
370
    15
100
AcDbLine
 10
233.8638367813
 20
31.9591243866
 30
0.0
 11
233.8638367813
 21
34.9149928987
 31
0.0
  0
ARC
  5
1CC
330
1F
100
AcDbEntity
  8
0
  6
Continuous
 62
     7
370
    15
100
AcDbCircle
 10
273.729592429
 20
39.139199751
 30
0.0
 40
5.274938375717761
100
AcDbArc
 50
320.8341298422
 51
349.6393525622
  0
LINE
  5
1CD
330
1F
100
AcDbEntity
  8
0
  6
Continuous
 62
     7
370
    15
100
AcDbLine
 10
282.2616132415
 20
27.4895776319
 30
0.0
 11
285.4207599645
 21
31.4195261219
 31
0.0
  0
LINE
  5
1CE
330
1F
100
AcDbEntity
  8
0
  6
Continuous
 62
     7
370
    15
100
AcDbLine
 10
274.5826690998
 20
31.7813044427
 30
0.0
 11
277.8193620667
 21
35.8077197229
 31
0.0
  0
LINE
  5
1CF
330
1F
100
AcDbEntity
  8
0
  6
Continuous
 62
     7
370
    15
100
AcDbLine
 10
233.6542328966
 20
27.2954644898
 30
0.0
 11
235.3788634633
 21
26.2998564558
 31
0.0
  0
SPLINE
  5
1D0
330
1F
100
AcDbEntity
  8
0
  6
Continuous
 62
     7
370
    15
100
AcDbSpline
210
0.0
220
0.0
230
1.0
 70
     8
 71
     3
 72
    14
 73
    10
 74
     0
 42
0.000000001
 43
0.00000001
 40
0.0
 40
0.0
 40
0.0
 40
0.0
 40
0.25
 40
0.25
 40
0.5
 40
0.5
 40
0.75
 40
0.75
 40
1.0
 40
1.0
 40
1.0
 40
1.0
 10
235.3326889392675
 20
26.18033775022272
 30
0.0
 10
235.3159336726897
 20
26.13696821224698
 30
0.0
 10
235.2955595819091
 20
26.09674085317435
 30
0.0
 10
235.2471090531515
 20
26.02297398486933
 30
0.0
 10
235.2188148958936
 20
25.98940581768203
 30
0.0
 10
235.15575394268
 20
25.93585473897274
 30
0.0
 10
235.1205285262042
 20
25.91539684658005
 30
0.0
 10
235.0457512467009
 20
25.89796001375016
 30
0.0
 10
235.0071942261818
 20
25.90190502740029
 30
0.0
 10
234.9732476777749
 20
25.92150195266327
 30
0.0
  0
LINE
  5
1D1
330
1F
100
AcDbEntity
  8
0
  6
Continuous
 62
     7
370
    15
100
AcDbLine
 10
234.9732476778
 20
25.9215019527
 30
0.0
 11
233.6213184739
 21
26.7019540697
 31
0.0
  0
SPLINE
  5
1D2
330
1F
100
AcDbEntity
  8
0
  6
Continuous
 62
     7
370
    15
100
AcDbSpline
210
0.0
220
0.0
230
1.0
 70
     8
 71
     3
 72
     8
 73
     4
 74
     0
 42
0.000000001
 43
0.00000001
 40
0.0
 40
0.0
 40
0.0
 40
0.0
 40
0.0011891741919631
 40
0.0011891741919631
 40
0.0011891741919631
 40
0.0011891741919631
 10
233.6213184739184
 20
26.70195406965924
 30
0.0
 10
233.6318709568108
 20
26.89980568845922
 30
0.0
 10
233.64283475237
 20
27.09764423299969
 30
0.0
 10
233.6542328966167
 20
27.29546448980794
 30
0.0
  0
LWPOLYLINE
  5
1D3
330
1F
100
AcDbEntity
  8
0
  6
Continuous
 62
     7
370
    15
100
AcDbPolyline
 90
       13
 70
   128
 43
0.0
 10
246.314172383
 20
18.9889660595
 10
245.8431775054
 20
18.9018085609
 10
244.4584328687
 20
18.7497900127
 10
243.1268833239
 20
18.7632642799
 10
241.8583452899
 20
18.942132028
 10
240.6621706533
 20
19.2850746123
 10
239.5471778252
 20
19.7895637994
 10
238.5215867298
 20
20.4518804058
 10
237.5929582061
 20
21.2671417163
 10
236.7681382679
 20
22.2293374803
 10
236.0532076336
 20
23.3313742205
 10
235.4534368982
 20
24.5651275272
 10
235.0036572422
 20
25.8202450395
  0
SPLINE
  5
1D4
330
1F
100
AcDbEntity
  8
0
  6
Continuous
 62
     7
370
    15
100
AcDbSpline
210
0.0
220
0.0
230
1.0
 70
     8
 71
     3
 72
     8
 73
     4
 74
     0
 42
0.000000001
 43
0.00000001
 40
0.0
 40
0.0
 40
0.0
 40
0.0
 40
1.0
 40
1.0
 40
1.0
 40
1.0
 10
233.9826568205279
 20
27.95939601509591
 30
0.0
 10
233.8729018289471
 20
27.73813088925993
 30
0.0
 10
233.7634390546841
 20
27.51681845981563
 30
0.0
 10
233.6542328966167
 20
27.29546448980794
 30
0.0
  0
LINE
  5
1D5
330
1F
100
AcDbEntity
  8
0
  6
Continuous
 62
     7
370
    15
100
AcDbLine
 10
234.0243176746
 20
27.9834463142
 30
0.0
 11
233.9826568205
 21
27.9593960151
 31
0.0
  0
SPLINE
  5
1D6
330
1F
100
AcDbEntity
  8
0
  6
Continuous
 62
     7
370
    15
100
AcDbSpline
210
0.0
220
0.0
230
1.0
 70
     8
 71
     3
 72
    12
 73
     8
 74
     0
 42
0.000000001
 43
0.00000001
 40
0.0
 40
0.0
 40
0.0
 40
0.0
 40
0.25
 40
0.25
 40
0.5
 40
0.5
 40
1.0
 40
1.0
 40
1.0
 40
1.0
 10
234.0360999199813
 20
28.31681130443519
 30
0.0
 10
234.0737077167964
 20
28.29510078545518
 30
0.0
 10
234.1039451642019
 20
28.26821006307913
 30
0.0
 10
234.1424262809778
 20
28.21073088342632
 30
0.0
 10
234.1513238841532
 20
28.17960400174008
 30
0.0
 10
234.1462812859668
 20
28.08750055901044
 30
0.0
 10
234.0996930355439
 20
28.02695958389362
 30
0.0
 10
234.0243176745611
 20
27.98344631420426
 30
0.0
  0
LINE
  5
1D7
330
1F
100
AcDbEntity
  8
0
  6
Continuous
 62
     7
370
    15
100
AcDbLine
 10
233.2512113929
 20
28.7699178065
 30
0.0
 11
234.03609992
 21
28.3168113044
 31
0.0
  0
SPLINE
  5
1D8
330
1F
100
AcDbEntity
  8
0
  6
Continuous
 62
     7
370
    15
100
AcDbSpline
210
0.0
220
0.0
230
1.0
 70
     8
 71
     3
 72
    12
 73
     8
 74
     0
 42
0.000000001
 43
0.00000001
 40
0.0
 40
0.0
 40
0.0
 40
0.0
 40
0.5000000000000073
 40
0.5000000000000073
 40
0.7500000000000037
 40
0.7500000000000037
 40
1.0
 40
1.0
 40
1.0
 40
1.0
 10
232.6737437224948
 20
28.76311606099496
 30
0.0
 10
232.7489490902086
 20
28.80653119565903
 30
0.0
 10
232.8531938892191
 20
28.83357549850195
 30
0.0
 10
233.0145858953146
 20
28.83642120927653
 30
0.0
 10
233.0680053310809
 20
28.83123708779747
 30
0.0
 10
233.167829324097
 20
28.80884196358049
 30
0.0
 10
233.2135620006861
 20
28.79165233796869
 30
0.0
 10
233.2512113928642
 20
28.7699178064968
 30
0.0
  0
LINE
  5
1D9
330
1F
100
AcDbEntity
  8
0
  6
Continuous
 62
     7
370
    15
100
AcDbLine
 10
232.6320828685
 20
28.7390657619
 30
0.0
 11
232.6737437225
 21
28.763116061
 31
0.0
  0
SPLINE
  5
1DA
330
1F
100
AcDbEntity
  8
0
  6
Continuous
 62
     7
370
    15
100
AcDbSpline
210
0.0
220
0.0
230
1.0
 70
     8
 71
     3
 72
     8
 73
     4
 74
     0
 42
0.000000001
 43
0.00000001
 40
0.0
 40
0.0
 40
0.0
 40
0.0
 40
1.0
 40
1.0
 40
1.0
 40
1.0
 10
231.4819951195133
 20
28.54947066625778
 30
0.0
 10
231.8654329883153
 20
28.61251403939414
 30
0.0
 10
232.2487988989542
 20
28.67570555390694
 30
0.0
 10
232.6320828684616
 20
28.7390657618866
 30
0.0
  0
LINE
  5
1DB
330
1F
100
AcDbEntity
  8
0
  6
Continuous
 62
     7
370
    15
100
AcDbLine
 10
230.1197567782
 20
29.3358741216
 30
0.0
 11
231.4819951195
 21
28.5494706663
 31
0.0
  0
LINE
  5
1DC
330
1F
100
AcDbEntity
  8
0
  6
Continuous
 62
     7
370
    15
100
AcDbLine
 10
230.1197567782
 20
29.3358741216
 30
0.0
 11
233.9345474594
 21
31.538105906
 31
0.0
  0
ARC
  5
1DD
330
1F
100
AcDbEntity
  8
0
  6
Continuous
 62
     7
370
    15
100
AcDbCircle
 10
243.3068346483
 20
29.1427964761
 30
0.0
 40
9.988339963080028
100
AcDbArc
 50
194.1445570664
 51
238.0420195839
  0
ARC
  5
1DE
330
1F
100
AcDbEntity
  8
0
  6
Continuous
 62
     7
370
    15
100
AcDbCircle
 10
243.573377884
 20
31.810429935
 30
0.0
 40
11.3642076055276
100
AcDbArc
 50
195.6801234515
 51
211.7759955533
  0
LWPOLYLINE
  5
1DF
330
1F
100
AcDbEntity
  8
0
  6
Continuous
 62
     7
370
    15
100
AcDbPolyline
 90
        9
 70
   128
 43
0.0
 10
236.8366578657
 20
21.4976928736
 10
236.8168650154
 20
21.5049223063
 10
235.7018721873
 20
22.0094114934
 10
234.6762810919
 20
22.6717280997
 10
233.7476525683
 20
23.4869894102
 10
232.92283263
 20
24.4491851743
 10
232.2079019957
 20
25.5512219145
 10
231.6081312603
 20
26.7849752211
 10
231.1279420399
 20
28.1413496466
  0
SPLINE
  5
1E0
330
1F
100
AcDbEntity
  8
0
  6
Continuous
 62
     7
370
    15
100
AcDbSpline
210
0.0
220
0.0
230
1.0
 70
     8
 71
     3
 72
     8
 73
     4
 74
     0
 42
0.000000001
 43
0.00000001
 40
0.0
 40
0.0
 40
0.0
 40
0.0
 40
0.0011891741919631
 40
0.0011891741919631
 40
0.0011891741919631
 40
0.0011891741919631
 10
231.4819951195133
 20
28.54947066625778
 30
0.0
 10
231.3642589395218
 20
28.41303805081231
 30
0.0
 10
231.2462352702594
 20
28.27700385581813
 30
0.0
 10
231.1279420399103
 20
28.14134964661576
 30
0.0
  0
ELLIPSE
  5
1E1
330
1F
100
AcDbEntity
  8
0
  6
Continuous
 62
     7
370
    15
100
AcDbEllipse
 10
233.8173901719
 20
31.9323556933
 30
0.0
 11
-3.002985195621477E-5
 21
0.4267244807413632
 31
0.0
210
0.0
220
0.0
230
1.0
 40
0.7174342186
 41
3.534193645557345
 42
5.104989972352323
  0
LINE
  5
1E2
330
1F
100
AcDbEntity
  8
0
  6
Continuous
 62
     7
370
    15
100
AcDbLine
 10
229.6829256652
 20
29.0836448112
 30
0.0
 11
230.1197567782
 21
29.3358741216
 31
0.0
  0
LINE
  5
1E3
330
1F
100
AcDbEntity
  8
0
  6
Continuous
 62
     7
370
    15
100
AcDbLine
 10
231.1279420399
 20
28.1413496466
 30
0.0
 11
229.7848516708
 21
28.9166992129
 31
0.0
  0
SPLINE
  5
1E4
330
1F
100
AcDbEntity
  8
0
  6
Continuous
 62
     7
370
    15
100
AcDbSpline
210
0.0
220
0.0
230
1.0
 70
     8
 71
     3
 72
    10
 73
     6
 74
     0
 42
0.000000001
 43
0.00000001
 40
0.0
 40
0.0
 40
0.0
 40
0.0
 40
0.5
 40
0.5
 40
1.0
 40
1.0
 40
1.0
 40
1.0
 10
229.7848516708186
 20
28.91669921291285
 30
0.0
 10
229.7583919273945
 20
28.93197409765656
 30
0.0
 10
229.7360912683539
 20
28.95589531136503
 30
0.0
 10
229.7020198860079
 20
29.01396578968524
 30
0.0
 10
229.6901690775703
 20
29.04794685704505
 30
0.0
 10
229.6829256651753
 20
29.08364481115148
 30
0.0
  0
ARC
  5
1E5
330
1F
100
AcDbEntity
  8
0
  6
Continuous
 62
     7
370
    15
100
AcDbCircle
 10
239.4461563682
 20
31.3312383449
 30
0.0
 40
9.953210439802623
100
AcDbArc
 50
194.7636699143
 51
238.0801256949
  0
ELLIPSE
  5
1E6
330
1F
100
AcDbEntity
  8
0
  6
Continuous
 62
     7
370
    15
100
AcDbEllipse
 10
233.5809940688
 20
31.7958427642
 30
0.0
 11
0.13000378946046
 21
0.4852718104954726
 31
0.0
210
0.0
220
0.0
230
1.0
 40
0.5176380889
 41
3.619174351347734
 42
5.189970678142564
  0
LWPOLYLINE
  5
1E7
330
1F
100
AcDbEntity
  8
0
  6
Continuous
 62
     7
370
     0
100
AcDbPolyline
 90
       32
 70
   128
 43
0.0
 10
267.6901428379
 20
57.0050852279
 10
267.2630345122
 20
57.0292689732
 10
265.9910891287
 20
56.9909221556
 10
264.6708577795
 20
56.7921648319
 10
263.3126730647
 20
56.4345525475
 10
261.9271646212
 20
55.9208841035
 10
260.5251759313
 20
55.2551796518
 10
259.1176794572
 20
54.4426492325
 10
257.7156907672
 20
53.4896519978
 10
256.3301823238
 20
52.403646443
 10
254.971997609
 20
51.1931320342
 10
253.6517662597
 20
49.8675826879
 10
252.3798208763
 20
48.4373726248
 10
251.1661161559
 20
46.9136951781
 10
250.0201509836
 20
45.3084751894
 10
248.9508940907
 20
43.6342756818
 10
247.966713862
 20
41.9041995362
 10
247.0753128422
 20
40.1317869443
 10
246.283667453
 20
38.3309094378
 10
245.5979733929
 20
36.5156613247
 10
245.0235971475
 20
34.7002493829
 10
244.5650339898
 20
32.8988816721
 10
244.2258727982
 20
31.1256563372
 10
244.008767969
 20
29.3944512705
 10
243.9154186416
 20
27.718815499
 10
243.9465554013
 20
26.1118631446
 10
244.1019345606
 20
24.5861707881
 10
244.380340067
 20
23.1536790408
 10
244.7795930198
 20
21.825599093
 10
245.2965687234
 20
20.6123249709
 10
245.927221142
 20
19.5233521895
 10
246.0221012757
 20
19.3844861239
  0
LWPOLYLINE
  5
1E8
330
1F
100
AcDbEntity
  8
0
  6
Continuous
 62
     7
370
     0
100
AcDbPolyline
 90
       19
 70
   128
 43
0.0
 10
267.6270893674
 20
18.828545172
 10
268.1514171096
 20
18.0942940291
 10
268.7816434198
 20
17.5030221069
 10
269.5083038372
 20
17.0636088663
 10
270.320485696
 20
16.7826532216
 10
271.2059920072
 20
16.6643744408
 10
272.1515246277
 20
16.7105487824
 10
273.1428839655
 20
16.9204828205
 10
274.1651822232
 20
17.2910238583
 10
275.2030669764
 20
17.8166072739
 10
276.2409517296
 20
18.4893400874
 10
277.2632499873
 20
19.2991194941
 10
278.254609325
 20
20.2337845839
 10
279.2001419455
 20
21.2792989687
 10
280.0856482568
 20
22.4199615745
 10
280.8978301156
 20
23.6386424333
 10
281.6244905329
 20
24.9170399335
 10
282.2547168431
 20
26.2359556651
 10
282.7790445853
 20
27.5755827334
  0
LWPOLYLINE
  5
1E9
330
1F
100
AcDbEntity
  8
0
  6
Continuous
 62
     7
370
     0
100
AcDbPolyline
 90
       19
 70
   128
 43
0.0
 10
282.7787849448
 20
36.4020932977
 10
282.2544318282
 20
37.1362271923
 10
281.6241974446
 20
37.7273945339
 10
280.897545212
 20
38.1667185234
 10
280.0853863315
 20
38.4476023982
 10
279.1999159474
 20
38.5658284868
 10
278.2544300283
 20
38.5196215403
 10
277.263125719
 20
38.3096753888
 10
276.2408881599
 20
37.9391425234
 10
275.2030669764
 20
37.4135867591
 10
274.1652457928
 20
36.7408996902
 10
273.1430082337
 20
35.9311821922
 10
272.1517039244
 20
34.9965927502
 10
271.2062180053
 20
33.9511648907
 10
270.3207476212
 20
32.8105964578
 10
269.5085887408
 20
31.592013899
 10
268.7819365082
 20
30.3137150998
 10
268.1517021245
 20
28.9948946275
 10
267.6273490079
 20
27.6553555109
  0
ARC
  5
1EA
330
1F
100
AcDbEntity
  8
0
  6
Continuous
 62
     7
370
     0
100
AcDbCircle
 10
278.5233672195
 20
34.2417597287
 30
0.0
 40
4.102175621987584
100
AcDbArc
 50
31.8658315154
 51
56.7618624451
  0
LINE
  5
1EB
330
1F
100
AcDbEntity
  8
0
  6
Continuous
 62
     7
370
     0
100
AcDbLine
 10
264.6318205976
 20
19.4183268781
 30
0.0
 11
264.7202089453
 21
19.0884640855
 31
0.0
  0
LWPOLYLINE
  5
1EC
330
1F
100
AcDbEntity
  8
0
  6
Continuous
 62
     7
370
     0
100
AcDbPolyline
 90
       16
 70
   128
 43
0.0
 10
269.0999808731
 20
17.8596371271
 10
269.6329777109
 20
17.6043346943
 10
270.4625458149
 20
17.3801533956
 10
271.3623641175
 20
17.3231365414
 10
272.3180234829
 20
17.4341971643
 10
273.3142205708
 20
17.711556808
 10
274.3350028951
 20
18.1507740062
 10
275.3640242765
 20
18.7448154051
 10
276.3848066008
 20
19.484168392
 10
277.3810036887
 20
20.3569934237
 10
278.3366630541
 20
21.3493136179
 10
279.2364813567
 20
22.4452385705
 10
280.0660494607
 20
23.6272188147
 10
280.8120831736
 20
24.8763268472
 10
281.4626359714
 20
26.1725602217
 10
282.0072903023
 20
27.4951618556
  0
LINE
  5
1ED
330
1F
100
AcDbEntity
  8
0
  6
Continuous
 62
     7
370
     0
100
AcDbLine
 10
263.7894894202
 20
19.9045943163
 30
0.0
 11
264.6318205976
 21
19.4183268781
 31
0.0
  0
LINE
  5
1EE
330
1F
100
AcDbEntity
  8
0
  6
Continuous
 62
     7
370
     0
100
AcDbLine
 10
235.3326889393
 20
36.8586126234
 30
0.0
 11
235.411063112
 21
37.2178801799
 31
0.0
  0
LWPOLYLINE
  5
1EF
330
1F
100
AcDbEntity
  8
0
  6
Continuous
 62
     7
370
     0
100
AcDbPolyline
 90
       16
 70
   128
 43
0.0
 10
252.1478687536
 20
61.0714170229
 10
253.3587351292
 20
61.6997595838
 10
254.8328219224
 20
62.3298547898
 10
256.2848686473
 20
62.8009720234
 10
257.7040142443
 20
63.1095874089
 10
259.079643749
 20
63.2533925565
 10
260.4014676895
 20
63.2313118282
 10
261.6595990504
 20
63.0435103842
 10
262.8446272258
 20
62.691392947
 10
263.9476884091
 20
62.1775932943
 10
264.9605318927
 20
61.5059545589
 10
265.8755817817
 20
60.6815004831
 10
266.6859936606
 20
59.7103978413
 10
267.385705788
 20
58.5999103139
 10
267.9694844379
 20
57.3583441564
 10
268.1219007106
 20
56.9601236955
  0
LWPOLYLINE
  5
1F0
330
1F
100
AcDbEntity
  8
0
  6
Continuous
 62
     7
370
     0
100
AcDbPolyline
 90
       20
 70
   128
 43
0.0
 10
234.9732476778
 20
37.1922912411
 10
235.4534368982
 20
39.1030803395
 10
236.0532076336
 20
41.0293141973
 10
236.7681382679
 20
42.9567922779
 10
237.5929582061
 20
44.871304872
 10
238.5215867298
 20
46.7587378541
 10
239.5471778252
 20
48.6051767344
 10
240.6621706533
 20
50.397009239
 10
241.8583452899
 20
52.1210256617
 10
243.1268833239
 20
53.7645162486
 10
244.4584328687
 20
55.3153648963
 10
245.8431775054
 20
56.7621384743
 10
247.2709086517
 20
58.0941711119
 10
248.731100821
 20
59.301642829
 10
250.2129892185
 20
60.3756519305
 10
251.7056491008
 20
61.3082806313
 10
253.1980763151
 20
62.0926534277
 10
254.6792684243
 20
62.7229877847
 10
256.1383058179
 20
63.1946367659
 10
256.1419586541
 20
63.1956252523
  0
ARC
  5
1F1
330
1F
100
AcDbEntity
  8
0
  6
Continuous
 62
     7
370
     0
100
AcDbCircle
 10
264.5883126481
 20
32.7847958208
 30
0.0
 40
25.3360855840982
100
AcDbArc
 50
157.5409136953
 51
172.3708853626
  0
LWPOLYLINE
  5
1F2
330
1F
100
AcDbEntity
  8
0
  6
Continuous
 62
     7
370
     0
100
AcDbPolyline
 90
       16
 70
   128
 43
0.0
 10
246.7307461045
 20
51.3250901784
 10
246.7604702977
 20
51.3576467553
 10
247.9255516997
 20
52.552982656
 10
249.1298584248
 20
53.6346501304
 10
250.361463367
 20
54.5919366563
 10
251.608169067
 20
55.4153615446
 10
252.8576285116
 20
56.0967698331
 10
254.0974674156
 20
56.629413051
 10
255.3154067727
 20
57.0080160538
 10
256.4993844635
 20
57.2288292668
 10
257.6376747149
 20
57.2896658196
 10
258.7190042293
 20
57.1899232047
 10
259.7326638316
 20
56.9305892441
 10
260.66861453
 20
56.5142323064
 10
261.5175869392
 20
55.9449758704
 10
261.5428679716
 20
55.9245807067
  0
LWPOLYLINE
  5
1F3
330
1F
100
AcDbEntity
  8
0
  6
Continuous
 62
     7
370
     0
100
AcDbPolyline
 90
        9
 70
   128
 43
0.0
 10
243.9206391602
 20
25.2633370984
 10
243.6133412714
 20
25.3866616916
 10
242.7149795226
 20
25.8716222022
 10
241.9074470981
 20
26.5071587708
 10
241.1987415656
 20
27.286977227
 10
240.59588174
 20
28.2033544741
 10
240.1048381708
 20
29.2472149766
 10
239.7304740116
 20
30.4082206418
 10
239.4764968569
 20
31.6748732049
  0
LWPOLYLINE
  5
1F4
330
1F
100
AcDbEntity
  8
0
  6
Continuous
 62
     7
370
     0
100
AcDbPolyline
 90
       13
 70
   128
 43
0.0
 10
246.2497467745
 20
19.0723365866
 10
246.0447464193
 20
19.0378532239
 10
244.6699432466
 20
18.8968510685
 10
243.3491165876
 20
18.9217423277
 10
242.0921459982
 20
19.1123408193
 10
240.9084334019
 20
19.4672208993
 10
239.806832765
 20
19.9837281258
 10
238.7955838706
 20
20.6579991138
 10
237.8822506862
 20
21.4849904324
 10
237.0736647868
 20
22.458516329
 10
236.3758742555
 20
23.5712949976
 10
235.7940984454
 20
24.8150030453
 10
235.3326889393
 20
26.1803377502
  0
LWPOLYLINE
  5
1F5
330
1F
100
AcDbEntity
  8
0
  6
Continuous
 62
     7
370
     0
100
AcDbPolyline
 90
       21
 70
   128
 43
0.0
 10
239.7505007346
 20
33.8249012171
 10
239.8138535709
 20
35.3040173446
 10
240.0032619939
 20
36.8411013669
 10
240.3167824169
 20
38.4203807219
 10
240.751197696
 20
40.0256498664
 10
241.3020501427
 20
41.6404365665
 10
241.9636872654
 20
43.2481709257
 10
242.729319772
 20
44.8323554137
 10
243.5910912368
 20
46.376734154
 10
244.5401587184
 20
47.8654597309
 10
245.5667835002
 20
49.2832558053
 10
246.6604310227
 20
50.6155738709
 10
247.8098789823
 20
51.8487425415
 10
249.0033324876
 20
52.9701078378
 10
250.2285450906
 20
53.9681630344
 10
251.4729444519
 20
54.8326667343
 10
252.7237613503
 20
55.5547479598
 10
253.9681607116
 20
56.1269971803
 10
255.1933733146
 20
56.5435423445
 10
256.3868268199
 20
56.8001091353
 10
256.6805223441
 20
56.8391106977
  0
ARC
  5
1F6
330
1F
100
AcDbEntity
  8
0
  6
Continuous
 62
     7
370
     0
100
AcDbCircle
 10
252.8627651082
 20
33.6806292645
 30
0.0
 40
13.11305804910684
100
AcDbArc
 50
179.3696099926
 51
195.2575728886
  0
LWPOLYLINE
  5
1F7
330
1F
100
AcDbEntity
  8
0
  6
Continuous
 62
     7
370
     0
100
AcDbPolyline
 90
       20
 70
   128
 43
0.0
 10
229.7848516708
 20
40.1874885014
 10
230.2650408912
 20
42.0982775997
 10
230.8648116266
 20
44.0245114576
 10
231.5797422609
 20
45.9519895382
 10
232.4045621992
 20
47.8665021322
 10
233.3331907228
 20
49.7539351143
 10
234.3587818182
 20
51.6003739947
 10
235.4737746464
 20
53.3922064993
 10
236.6699492829
 20
55.116222922
 10
237.938487317
 20
56.7597135088
 10
239.2700368617
 20
58.3105621565
 10
240.6547814984
 20
59.7573357345
 10
242.0825126447
 20
61.0893683722
 10
243.5427048141
 20
62.2968400893
 10
245.0245932116
 20
63.3708491907
 10
246.5172530938
 20
64.3034778915
 10
248.0096803082
 20
65.0878506879
 10
249.4908724173
 20
65.7181850449
 10
250.9499098109
 20
66.1898340262
 10
250.9627152943
 20
66.1932949825
  0
LWPOLYLINE
  5
1F8
330
1F
100
AcDbEntity
  8
0
  6
Continuous
 62
     7
370
     0
100
AcDbPolyline
 90
       19
 70
   128
 43
0.0
 10
233.2512113929
 20
39.2624672392
 10
233.7136508257
 20
41.0853862905
 10
234.2934827673
 20
42.9227302736
 10
234.9861600726
 20
44.7600904104
 10
235.7862506432
 20
46.5830577964
 10
236.6874800266
 20
48.3773363974
 10
237.6827806218
 20
50.1288551618
 10
238.7643471047
 20
51.8238783682
 10
239.9236976389
 20
53.4491133436
 10
241.1517403914
 20
54.9918147064
 10
242.4388448327
 20
56.4398843185
 10
243.7749172613
 20
57.7819661607
 10
245.1494799596
 20
59.0075353887
 10
246.5517533628
 20
60.1069808709
 10
247.9707405937
 20
61.0716805605
 10
249.3953137023
 20
61.894069111
 10
250.8143009332
 20
62.5676972055
 10
252.2165743364
 20
63.0872821326
 10
252.5316280732
 20
63.1833896259
  0
LWPOLYLINE
  5
1F9
330
1F
100
AcDbEntity
  8
0
  6
Continuous
 62
     7
370
     0
100
AcDbPolyline
 90
       21
 70
   128
 43
0.0
 10
232.6737437225
 20
39.2556654937
 10
233.1394134701
 20
41.1167266872
 10
233.7257093442
 20
42.9933700371
 10
234.4279970704
 20
44.8707619404
 10
235.2407255367
 20
46.7340628772
 10
236.1574706713
 20
48.5685447074
 10
237.1709862209
 20
50.3597070863
 10
238.273261027
 20
52.0933920806
 10
239.4555823488
 20
53.7558960769
 10
240.7086047319
 20
55.3340780996
 10
242.0224238773
 20
56.8154636817
 10
243.3866549287
 20
58.188343467
 10
244.7905145576
 20
59.4418657645
 10
246.2229061982
 20
60.5661223237
 10
247.6725077582
 20
61.5522266531
 10
249.1278611128
 20
62.3923842615
 10
250.5774626729
 20
63.0799542681
 10
252.0098543134
 20
63.6095018949
 10
253.4137139423
 20
63.9768414239
 10
254.7779449937
 20
64.1790692835
 10
255.8496690932
 20
64.2206580246
  0
LINE
  5
1FA
330
1F
100
AcDbEntity
  8
0
  6
Continuous
 62
     7
370
     0
100
AcDbLine
 10
285.6859250074
 20
31.1917143433
 30
0.0
 11
285.4207599645
 21
31.4195261219
 31
0.0
  0
LINE
  5
1FB
330
1F
100
AcDbEntity
  8
0
  6
Continuous
 62
     7
370
     0
100
AcDbLine
 10
233.7135765903
 20
37.3099433444
 30
0.0
 11
233.719379955
 21
37.7504053263
 31
0.0
  0
LWPOLYLINE
  5
1FC
330
1F
100
AcDbEntity
  8
0
  6
Continuous
 62
     7
370
     0
100
AcDbPolyline
 90
        3
 70
   128
 43
0.0
 10
233.7995884583
 20
35.6795354482
 10
233.7769294265
 20
35.9039728447
 10
233.7135765903
 20
37.3099433444
  0
LWPOLYLINE
  5
1FD
330
1F
100
AcDbEntity
  8
0
  6
Continuous
 62
     7
370
     0
100
AcDbPolyline
 90
       18
 70
   128
 43
0.0
 10
202.6374624112
 20
61.1961472203
 10
202.7016831564
 20
62.3410399127
 10
202.893199371
 20
63.539649662
 10
203.2085934438
 20
64.7705872486
 10
203.6422371601
 20
66.0118865624
 10
204.1863921374
 20
67.2413965875
 10
204.8313479173
 20
68.4371766885
 10
205.5655952486
 20
69.5778881412
 10
206.3760314704
 20
70.6431749226
 10
207.2481943289
 20
71.6140269649
 10
208.1665200574
 20
72.4731193904
 10
209.1146211115
 20
73.2051216744
 10
210.0755786054
 20
73.7969712188
 10
211.0322442298
 20
74.2381064545
 10
211.967546264
 20
74.5206553127
 10
212.8647942212
 20
74.6395757025
 10
213.7079766901
 20
74.5927454865
 10
214.372089324
 20
74.4227318734
  0
ARC
  5
1FE
330
1F
100
AcDbEntity
  8
0
  6
Continuous
 62
     7
370
     0
100
AcDbCircle
 10
208.0368228617
 20
60.750557896
 30
0.0
 40
5.417715673601557
100
AcDbArc
 50
175.2822811917
 51
224.7105133779
  0
LINE
  5
1FF
330
1F
100
AcDbEntity
  8
0
  6
Continuous
 62
     7
370
     0
100
AcDbLine
 10
239.4764968569
 20
38.8313029706
 30
0.0
 11
239.1936081708
 21
38.9946111329
 31
0.0
  0
LINE
  5
200
330
1F
100
AcDbEntity
  8
0
  6
Continuous
 62
     7
370
     0
100
AcDbLine
 10
234.1002328843
 20
32.0956373156
 30
0.0
 11
239.4764968569
 21
28.9919861873
 31
0.0
  0
LINE
  5
201
330
1F
100
AcDbEntity
  8
0
  6
Continuous
 62
     7
370
     0
100
AcDbLine
 10
233.8638367813
 20
31.9591243866
 30
0.0
 11
234.1002328843
 21
32.0956373156
 31
0.0
  0
LINE
  5
202
330
1F
100
AcDbEntity
  8
0
  6
Continuous
 62
     7
370
     0
100
AcDbLine
 10
277.8193620667
 20
35.8077197229
 30
0.0
 11
285.4207599645
 21
31.4195261219
 31
0.0
  0
LINE
  5
203
330
1F
100
AcDbEntity
  8
0
  6
Continuous
 62
     7
370
     0
100
AcDbLine
 10
235.0036572422
 20
25.8202450395
 30
0.0
 11
234.9732476778
 21
25.9215019527
 31
0.0
  0
LINE
  5
204
330
1F
100
AcDbEntity
  8
0
  6
Continuous
 62
     7
370
     0
100
AcDbLine
 10
239.1936541445
 20
28.5020882402
 30
0.0
 11
233.9345474594
 21
31.538105906
 31
0.0
  0
LINE
  5
205
330
1F
100
AcDbEntity
  8
0
  6
Continuous
 62
     7
370
     0
100
AcDbLine
 10
234.1123686332
 20
28.0704594926
 30
0.0
 11
234.03609992
 21
28.3168113044
 31
0.0
  0
LWPOLYLINE
  5
206
330
1F
100
AcDbEntity
  8
0
  6
Continuous
 62
     7
370
     0
100
AcDbPolyline
 90
        3
 70
   128
 43
0.0
 10
233.7251210456
 20
27.4539776189
 10
233.7136508257
 20
27.4809199595
 10
233.2512113929
 20
28.7699178065
  0
ARC
  5
207
330
1F
100
AcDbEntity
  8
0
  6
Continuous
 62
     7
370
     0
100
AcDbCircle
 10
243.6697183626
 20
31.869447828
 30
0.0
 40
11.4263185380195
100
AcDbArc
 50
195.7748360327
 51
210.5068960962
  0
LINE
  5
208
330
1F
100
AcDbEntity
  8
0
  6
Continuous
 62
     7
370
     0
100
AcDbLine
 10
229.8215495071
 20
28.794835217
 30
0.0
 11
229.7848516708
 21
28.9166992129
 31
0.0
  0
OLE2FRAME
  5
209
330
1F
100
AcDbEntity
  8
0
100
AcDbOle2Frame
 70
     2
  3
Paintbrush-Bild
 10
13.8511154363
 20
38.264191557
 30
0.0
 11
51.6290888628
 21
31.9806341108
 31
0.0
 71
     2
 72
     0
 73
     1
 90
    12928
310
80552BED0767C5B32B40DDAF6807D121434000000000000000006FFBDDFB85D0
310
4940DDAF6807D121434000000000000000006FFBDDFB85D04940416F4BD60AFB
310
3F4000000000000000002BED0767C5B32B40416F4BD60AFB3F40000000000000
310
0000000000000100000000010000010000000100000000000100000000320000
310
D0CF11E0A1B11AE1000000000000000000000000000000003E000300FEFF0900
310
0600000000000000000000000100000001000000000000000010000002000000
310
01000000FEFFFFFF0000000000000000FFFFFFFFFFFFFFFFFFFFFFFFFFFFFFFF
310
FFFFFFFFFFFFFFFFFFFFFFFFFFFFFFFFFFFFFFFFFFFFFFFFFFFFFFFFFFFFFFFF
310
FFFFFFFFFFFFFFFFFFFFFFFFFFFFFFFFFFFFFFFFFFFFFFFFFFFFFFFFFFFFFFFF
310
FFFFFFFFFFFFFFFFFFFFFFFFFFFFFFFFFFFFFFFFFFFFFFFFFFFFFFFFFFFFFFFF
310
FFFFFFFFFFFFFFFFFFFFFFFFFFFFFFFFFFFFFFFFFFFFFFFFFFFFFFFFFFFFFFFF
310
FFFFFFFFFFFFFFFFFFFFFFFFFFFFFFFFFFFFFFFFFFFFFFFFFFFFFFFFFFFFFFFF
310
FFFFFFFFFFFFFFFFFFFFFFFFFFFFFFFFFFFFFFFFFFFFFFFFFFFFFFFFFFFFFFFF
310
FFFFFFFFFFFFFFFFFFFFFFFFFFFFFFFFFFFFFFFFFFFFFFFFFFFFFFFFFFFFFFFF
310
FFFFFFFFFFFFFFFFFFFFFFFFFFFFFFFFFFFFFFFFFFFFFFFFFFFFFFFFFFFFFFFF
310
FFFFFFFFFFFFFFFFFFFFFFFFFFFFFFFFFFFFFFFFFFFFFFFFFFFFFFFFFFFFFFFF
310
FFFFFFFFFFFFFFFFFFFFFFFFFFFFFFFFFFFFFFFFFFFFFFFFFFFFFFFFFFFFFFFF
310
FFFFFFFFFFFFFFFFFFFFFFFFFFFFFFFFFFFFFFFFFFFFFFFFFFFFFFFFFFFFFFFF
310
FFFFFFFFFFFFFFFFFFFFFFFFFFFFFFFFFFFFFFFFFFFFFFFFFFFFFFFFFFFFFFFF
310
FFFFFFFFFFFFFFFFFFFFFFFFFFFFFFFFFFFFFFFFFFFFFFFFFFFFFFFFFFFFFFFF
310
FDFFFFFFFEFFFFFFFEFFFFFFFEFFFFFF05000000060000000700000008000000
310
090000000A0000000B0000000C0000000D0000000E0000000F00000010000000
310
11000000120000001300000014000000150000001600000017000000FEFFFFFF
310
FFFFFFFFFFFFFFFFFFFFFFFFFFFFFFFFFFFFFFFFFFFFFFFFFFFFFFFFFFFFFFFF
310
FFFFFFFFFFFFFFFFFFFFFFFFFFFFFFFFFFFFFFFFFFFFFFFFFFFFFFFFFFFFFFFF
310
FFFFFFFFFFFFFFFFFFFFFFFFFFFFFFFFFFFFFFFFFFFFFFFFFFFFFFFFFFFFFFFF
310
FFFFFFFFFFFFFFFFFFFFFFFFFFFFFFFFFFFFFFFFFFFFFFFFFFFFFFFFFFFFFFFF
310
FFFFFFFFFFFFFFFFFFFFFFFFFFFFFFFFFFFFFFFFFFFFFFFFFFFFFFFFFFFFFFFF
310
FFFFFFFFFFFFFFFFFFFFFFFFFFFFFFFFFFFFFFFFFFFFFFFFFFFFFFFFFFFFFFFF
310
FFFFFFFFFFFFFFFFFFFFFFFFFFFFFFFFFFFFFFFFFFFFFFFFFFFFFFFFFFFFFFFF
310
FFFFFFFFFFFFFFFFFFFFFFFFFFFFFFFFFFFFFFFFFFFFFFFFFFFFFFFFFFFFFFFF
310
FFFFFFFFFFFFFFFFFFFFFFFFFFFFFFFFFFFFFFFFFFFFFFFFFFFFFFFFFFFFFFFF
310
FFFFFFFFFFFFFFFFFFFFFFFFFFFFFFFFFFFFFFFFFFFFFFFFFFFFFFFFFFFFFFFF
310
FFFFFFFFFFFFFFFFFFFFFFFFFFFFFFFFFFFFFFFFFFFFFFFFFFFFFFFFFFFFFFFF
310
FFFFFFFFFFFFFFFFFFFFFFFFFFFFFFFFFFFFFFFFFFFFFFFFFFFFFFFFFFFFFFFF
310
FFFFFFFFFFFFFFFFFFFFFFFFFFFFFFFFFFFFFFFFFFFFFFFFFFFFFFFFFFFFFFFF
310
52006F006F007400200045006E00740072007900000000000000000000000000
310
0000000000000000000000000000000000000000000000000000000000000000
310
16000500FFFFFFFFFFFFFFFF020000000A00030000000000C000000000000046
310
000000000000000000000000B0237FC4171BD20103000000C000000000000000
310
01004F006C006500000000000000000000000000000000000000000000000000
310
0000000000000000000000000000000000000000000000000000000000000000
310
0A000200FFFFFFFFFFFFFFFFFFFFFFFF00000000000000000000000000000000
310
0000000000000000000000000000000000000000000000001400000000000000
310
010043006F006D0070004F0062006A0000000000000000000000000000000000
310
0000000000000000000000000000000000000000000000000000000000000000
310
120002010100000003000000FFFFFFFF00000000000000000000000000000000
310
0000000000000000000000000000000000000000010000004D00000000000000
310
01004F006C006500310030004E00610074006900760065000000000000000000
310
0000000000000000000000000000000000000000000000000000000000000000
310
1A000200FFFFFFFFFFFFFFFFFFFFFFFF00000000000000000000000000000000
310
0000000000000000000000000000000000000000040000002426000000000000
310
FEFFFFFF02000000FEFFFFFFFFFFFFFFFFFFFFFFFFFFFFFFFFFFFFFFFFFFFFFF
310
FFFFFFFFFFFFFFFFFFFFFFFFFFFFFFFFFFFFFFFFFFFFFFFFFFFFFFFFFFFFFFFF
310
FFFFFFFFFFFFFFFFFFFFFFFFFFFFFFFFFFFFFFFFFFFFFFFFFFFFFFFFFFFFFFFF
310
FFFFFFFFFFFFFFFFFFFFFFFFFFFFFFFFFFFFFFFFFFFFFFFFFFFFFFFFFFFFFFFF
310
FFFFFFFFFFFFFFFFFFFFFFFFFFFFFFFFFFFFFFFFFFFFFFFFFFFFFFFFFFFFFFFF
310
FFFFFFFFFFFFFFFFFFFFFFFFFFFFFFFFFFFFFFFFFFFFFFFFFFFFFFFFFFFFFFFF
310
FFFFFFFFFFFFFFFFFFFFFFFFFFFFFFFFFFFFFFFFFFFFFFFFFFFFFFFFFFFFFFFF
310
FFFFFFFFFFFFFFFFFFFFFFFFFFFFFFFFFFFFFFFFFFFFFFFFFFFFFFFFFFFFFFFF
310
FFFFFFFFFFFFFFFFFFFFFFFFFFFFFFFFFFFFFFFFFFFFFFFFFFFFFFFFFFFFFFFF
310
FFFFFFFFFFFFFFFFFFFFFFFFFFFFFFFFFFFFFFFFFFFFFFFFFFFFFFFFFFFFFFFF
310
FFFFFFFFFFFFFFFFFFFFFFFFFFFFFFFFFFFFFFFFFFFFFFFFFFFFFFFFFFFFFFFF
310
FFFFFFFFFFFFFFFFFFFFFFFFFFFFFFFFFFFFFFFFFFFFFFFFFFFFFFFFFFFFFFFF
310
FFFFFFFFFFFFFFFFFFFFFFFFFFFFFFFFFFFFFFFFFFFFFFFFFFFFFFFFFFFFFFFF
310
FFFFFFFFFFFFFFFFFFFFFFFFFFFFFFFFFFFFFFFFFFFFFFFFFFFFFFFFFFFFFFFF
310
FFFFFFFFFFFFFFFFFFFFFFFFFFFFFFFFFFFFFFFFFFFFFFFFFFFFFFFFFFFFFFFF
310
FFFFFFFFFFFFFFFFFFFFFFFFFFFFFFFFFFFFFFFFFFFFFFFFFFFFFFFFFFFFFFFF
310
0100000200000000000000000000000000000000000000000000000000000000
310
0000000000000000000000000000000000000000000000000000000000000000
310
0100FEFF030A0000FFFFFFFF0A00030000000000C00000000000004607000000
310
5042727573680007000000504272757368000700000050427275736800F439B2
310
7100000000000000000000000000000000000000000000000000000000000000
310
0000000000000000000000000000000000000000000000000000000000000000
310
0000000000000000000000000000000000000000000000000000000000000000
310
0000000000000000000000000000000000000000000000000000000000000000
310
0000000000000000000000000000000000000000000000000000000000000000
310
0000000000000000000000000000000000000000000000000000000000000000
310
0000000000000000000000000000000000000000000000000000000000000000
310
0000000000000000000000000000000000000000000000000000000000000000
310
0000000000000000000000000000000000000000000000000000000000000000
310
0000000000000000000000000000000000000000000000000000000000000000
310
0000000000000000000000000000000000000000000000000000000000000000
310
0000000000000000000000000000000000000000000000000000000000000000
310
20260000424D0E260000000000003E00000028000000B40200006E0000000100
310
01000000000000000000130B0000130B00000200000002000000000000FFFFFF
310
FFFFFFFFFFFFFFFFFFFFFFFFFFFFFFFFFFFFFFFFFFFFFFFFFFFFFFFFFFFFFFFF
310
FFFFFFFFFFFFFFFFFFFFFFFFFFFFFFFFFFFFFFFFFFFFFFFFFFFFFFFFFFFFFFFF
310
FFFFFFFFFFFFFFFFFFFFFFFFFFFFFFFFFFFFFFFFFFFFFFFFF000FFFFFFFFFFFF
310
FFFFFFFFFFFFFFFFFFFFFFFFFFFFFFFFFFFFFFFFFFFFFFFFFFFFFFFFFFFFFFFF
310
FFFFFFFFFFFFFFFFFFFFFFFFFFFFFFFFFFFFFFFFFFFFFFFFFFFFFFFFFFFFFFFF
310
FFFFFFFFFFFFFFFFFFFFFFFFFFFFFFFFF000FFFFFFFFFFFFFFFFFFFFFFFFFFFF
310
FFFFFFFFFFFFFFFFFFFFFFFFFFFFFFFFFFFFFFFFFFFFFFFFFFFFFFFFFFFFFFFF
310
FFFFFFFFFFFFFFFFFFFFFFFFFFFFFFFFFFFFFFFFFFFFFFFFFFFFFFFFFFFFFFFF
310
FFFFFFFFFFFFFFFFF000FFFFFFFFFFFFFFFFFFFFFFFFFFFFFFFFFFFFFFFFFFFF
310
FFFFFFFFFFFFFFFFFFFFFFFFFFFFFFFFFFFFFFFFFFFFFFFFFFFFFFFFFFFFFFFF
310
FFFFFFFFFFFFFFFFFFFFFFFFFFFFFFFFFFFFFFFFFFFFFFFFFFFFFFFFFFFFFFFF
310
F000FFFFFFFFFFFFFFFFFFFFFFFFFFFFFFFFFFFFFFFFFFFFFFFFFFFFFFFFFFFF
310
FFFFFFFFFFFFFFFFFFFFFFFFFFFFFFFFFFFFFFFFFFFFFFFFFFFFFFFFFFFFFFFF
310
FFFFFFFFFFFFFFFFFFFFFFFFFFFFFFFFFFFFFFFFFFFFFFFFF000FFFFFFFFFFFF
310
FFFFFFFFFFFFFFFFFFFFFFFFFFFFFFFFFFFFFFFFFFFFFFFFFFFFFFFFFFFFFFFF
310
FFFFFFFFFFFFFFFFFFFFFFFFFFFFFFFFFFFFFFFFFFFFFFFFFFFFFFFFFFFFFFFF
310
FFFFFFFFFFFFFFFFFFFFFFFFFFFFFFFFF000FFFFFFFFFFFFFFFFFFFFFFFFFFFF
310
FFFFFFFFFFFFFFFFFFFFFFFFFFFFFFFFFFFFFFFFFFFFFFFFFFFFFFFFFFFFFFFF
310
FFFFFFFFFFFFFFFFFFFFFFFFFFFFFFFFFFFFFFFFFFFFFFFFFFFFFFFFFFFFFFFF
310
FFFFFFFFFFFFFFFFF000FFFFFFFFFFFFFFFFFFFFFFFFFFFFFFFFFFFFFFFFFFFF
310
FFFFFFFFFFFFFFFFFFFFFFFFFFFFFFFFFFFFFFFFFFFFFFFFFFFFFFFFFFFFFFFF
310
FFFFFFFFFFFFFFFFFFFFFFFFFFFFFFFFFFFFFFFFFFFFFFFFFFFFFFFFFFFFFFFF
310
F000FFFFFFFFFFFFFFFFFFFFFFFFFFFFFFFFFFFFFFFFFFFFFFFFFFFFFFFFFFFF
310
FFFFFFFFFFFFFFFFFFFFFFFFFFFFFFFFFFFFFFFFFFFFFFFFFFFFFFFFFFFFFFFF
310
FFFFFFFFFFFFFFFFFFFFFFFFFFFFFFFFFFFFFFFFFFFFFFFFF000FFFFFFFFFFFF
310
FFFFFFFFFFFFFFFFFFFFFFFFFFFFFFFFFFFFFFFFFFFFFFFFFFFFFFFFFFFFFFFF
310
FFFFFFFFFFFFFFFFFFFFFFFFFFFFFFFFFFFFFFFFFFFFFFFFFFFFFFFFFFFFFFFF
310
FFFFFFFFFFFFFFFFFFFFFFFFFFFFFFFFF000FFFFFFFFFFFFFFFFFFFFFFFFFFFF
310
FFFFFFFFFFFFFFFFFFFFFFFFFFFFFFFFFFFFFFFFFFFFFFFFFFFFFFFFFFFFFFFF
310
FFFFFFFFFFFFFFFFFFFFFFFFFFFFFFFFFFFFFFFFFFFFFFFFFFFFFFFFFFFFFFFF
310
FFFFFFFFFFFFFFFFF000FFFFFFFFFFFFFFFFFFFFFFFFFFFFFFFFFFFFFFFFFFFF
310
FFFFFFFFFFFFFFFFFFFFFFFFFFFFFFFFFFFFFFFFFFFFFFFFFFFFFFFFFFFFFFFF
310
FFFFFFFFFFFFFFFFFFFFFFFFFFFFFFFFFFFFFFFFFFFFFFFFFFFFFFFFFFFFFFFF
310
F000FFFFFFFFFFFFFFFFFFFFFFFFFFFFFFFFFFFFFFFFFFFFFFFFFFFFFFFFFFFF
310
FFFFFFFFFFFFFFFFFFFFFFFFFFFFFFFFFFFFFFFFFFFFFFFFFFFFFFFFFFFFFFFF
310
FFFFFFFFFFFFFFFFFFFFFFFFFFFFFFFFFFFFFFFFFFFFFFFFF000FFFFFFFFFFFF
310
FFFFFFFFFFFFFFFFFFFFFFFFFFFFFFFFFFFFFFFFFFFFFFFFFFFFFFFFFFFFFFFF
310
FFFFFFFFFFFFFFFFFFFFFFFFFFFFFFFFFFFFFFFFFFFFFFFFFFFFFFFFFFFFFFFF
310
FFFFFFFFFFFFFFFFFFFFFFFFFFFFFFFFF000FFFFFFFFFFFFFFFFFFFFFFFFFFFF
310
FFFFFFFFFFFFFFFFFFFFFFFFFFFFFFFFFFFFFFFFFFFFFFFFFFFFFFFFFFFFFFFF
310
FFFFFFFFFFFFFFFFFFFFFFFFFFFFFFFFFFFFFFFFFFFFFFFFFFFFFFFFFFFFFFFF
310
FFFFFFFFFFFFFFFFF000FFFFFFFFFFFFFFFFFFFFFFFFFFFFFFFFFFFFFFFFFFFF
310
FFFFFFFFFFFFFFFFFFFFFFFFFFFFFFFFFFFFFFFFFFFFFFFFFFFFFFFFFFFFFFFF
310
FFFFFFFFFFFFFFFFFFFFFFFFFFFFFFFFFFFFFFFFFFFFFFFFFFFFFFFFFFFFFFFF
310
F000FFFFFFFFFFFFFFFFFFFFFFFFFFFFFFFFFFFFFFFFFFFFFFFFFFFFFFFFFFFF
310
FFFFFFFFFFFFFFFFFFFFFFFFFFFFFFFFFFFFFFFFFFFFFFFFFFFFFFFFFFFFFFFF
310
FFFFFFFFFFFFFFFFFFFFFFFFFFFFFFFFFFFFFFFFFFFFFFFFF000FFFFFFFFFFFF
310
FFFFFFFFFFFFFFFFFFFFFFFFFFFFFFFFFFFFFFFFFFFFFFFFFFFFFFFFFFFFFFFF
310
FFFFFFFFFFFFFFFFFFFFFFFFFFFFFFFFFFFFFFFFFFFFFFFFFFFFFFFFFFFFFFFF
310
FFFFFFFFFFFFFFFFFFFFFFFFFFFFFFFFF000FFFFFFFFFFFFFFFFFFFFFFFFFFFF
310
FFFFFFFFFFFFFFFFFFFFFFFFFFFFFFFFFFFFFFFFFFFFFFFFFFFFFFFFFFFFFFFF
310
FFFFFFFFFFFFFFFFFFFFFFFFFFFFFFFFFFFFFFFFFFFFFFFFFFFFFFFFFFFFFFFF
310
FFFFFFFFFFFFFFFFF000FFFFF80003FFFFFFFFFFFFFFFFFFFFFFFFFFFFFFFFFF
310
FFFFF00007FFFFFFFFFF00007FFFFFF800000000000000007FFFFFFFFFFFFFFF
310
FFFFFFFC001FFFFFFFFFFFFFFC001FFFFFFFFFFFFFFFFFFFFFFFFFFE0007FFFF
310
F000FFFF8000007FFFFFFFF8000FFFFFC0007FFFFF80007FFFFF0000007FFFFF
310
FFF8000007FFFFF800000000000000007FFFFFF0001FFFFFFFFFFFC00001FFFF
310
FFFFFFFFC00001FFFFFFFF000000000003FFFFE000007FFFF000FFFE0000000F
310
FFFFFFF0000FFFFF80007FFFFF80007FFFFC0000001FFFFFFFC0000001FFFFF8
310
00000000000000007FFFFFF0001FFFFFFFFFFE0000003FFFFFFFFFFE0000003F
310
FFFFFF000000000003FFFF0000000FFFF000FFF800000003FFFFFFF00007FFFF
310
80007FFFFF80007FFFF000000007FFFFFF000000003FFFF80000000000000000
310
7FFFFFF0001FFFFFFFFFF80000000FFFFFFFFFF80000000FFFFFFF0000000000
310
03FFFC00000003FFF000FFE000000000FFFFFFF00007FFFF80003FFFFF80007F
310
FFC000000001FFFFFC000000001FFFF800000000000000007FFFFFF0001FFFFF
310
FFFFE000000003FFFFFFFFE000000003FFFFFF000000000003FFF000000000FF
310
F000FF80000000007FFFFFF00007FFFF80003FFFFF80007FFF8000000000FFFF
310
F80000000007FFF800000000000000007FFFFFF0001FFFFFFFFFC000000001FF
310
FFFFFFC000000001FFFFFF000000000003FFC0000000007FF000FF0000000000
310
3FFFFFE00007FFFF00003FFFFF80007FFE00000000003FFFF00000000003FFF8
310
00000000000000007FFFFFF0001FFFFFFFFF8000000000FFFFFFFF8000000000
310
FFFFFF000000000003FF80000000003FF000FE00000000001FFFFFE00003FFFF
310
00003FFFFF80007FFC00000000001FFFE00000000001FFF8000001FFFE000000
310
7FFFFFF0001FFFFFFFFE00000000003FFFFFFE00000000003FFFFF0000000000
310
03FF00000000001FF000FC00000000000FFFFFE00003FFFF00001FFFFF80007F
310
F800000000001FFFC00000000000FFF8000001FFFE0000007FFFFFF0001FFFFF
310
FFFC00000000001FFFFFFC00000000001FFFFF000000000003FE00000000000F
310
F000F8000000000007FFFFE00003FFFF00001FFFFF80007FF800000000000FFF
310
800000000000FFF8000001FFFE0000007FFFFFF0001FFFFFFFF800000000000F
310
FFFFF800000000000FFFFF000000000003FC000000000007F000F80000000000
310
03FFFFC00003FFFE00001FFFFF80007FF0000000000007FF0000000000007FF8
310
000001FFFE0000007FFFFFF0001FFFFFFFF0000000000007FFFFF00000000000
310
07FFFF000000000003F8000000000003F000F0000000000003FFFFC00001FFFE
310
00001FFFFF80007FE0000000000007FE0000000000003FF8000001FFFE000000
310
7FFFFFF0001FFFFFFFF0000000000007FFFFF0000000000007FFFF0000000000
310
03F800001F800003F000E00001FFF00001FFFFC00001FFFE00000FFFFF80007F
310
E00001FFE00003FE00001FFF00003FF8000001FFFE0000007FFFFFF0001FFFFF
310
FFE000003E000003FFFFE000003E000003FFFF000000000003F00001FFF80001
310
F000E00007FFFC0001FFFFC00001FFFE00000FFFFF80007FC0000FFFFC0003FC
310
0000FFFFC0001FF8000001FFFE0000007FFFFFF0001FFFFFFFC00003FFE00001
310
FFFFC00003FFE00001FFFF0001FFFFFFFFF00007FFFE0001F000E0000FFFFF00
310
00FFFF800001FFFC00000FFFFF80007FC0001FFFFE0001FC0001FFFFE0001FF8
310
000001FFFE0000007FFFFFF0001FFFFFFF80000FFFF80000FFFF80000FFFF800
310
00FFFF0003FFFFFFFFE0000FFFFF8000F000C0003FFFFF8000FFFF800000FFFC
310
000007FFFF80007F80003FFFFF0001FC0003FFFFF0001FF8000001FFFE000000
310
7FFFFFF0001FFFFFFF80003FFFFE0000FFFF80003FFFFE0000FFFF0003FFFFFF
310
FFE0003FFFFF8000F000C0003FFFFF8000FFFF800000FFFC000007FFFF80007F
310
80007FFFFF8001F80007FFFFF8000FF8000001FFFE0000007FFFFFF0001FFFFF
310
FF00007FFFFF00007FFF00007FFFFF00007FFF0003FFFFFFFFE0003FFFFFC000
310
F000C0007FFFFFC000FFFF000000FFFC000007FFFF80007F8000FFFFFF8000F8
310
000FFFFFF8000FF8000001FFFE0000007FFFFFF0001FFFFFFF0000FFFFFF8000
310
7FFF0000FFFFFF80007FFF0003FFFFFFFFC0007FFFFFC00070008000FFFFFFC0
310
00FFFF000000FFF8000007FFFF80007F8000FFFFFF8000F8000FFFFFF8000FF8
310
000001FFFE0000007FFFFFF0001FFFFFFE0001FFFFFFC0003FFE0001FFFFFFC0
310
003FFF0003FFFFFFFFC0007FFFFFE00070008000FFFFFFC0007FFF0000007FF8
310
000003FFFF80007F0001FFFFFF8000F8000FFFFFF8000FF8000001FFFE000000
310
7FFFFFF0001FFFFFFE0001FFFFFFC0003FFE0001FFFFFFC0003FFF0003FFFFFF
310
FFC000FFFFFFE00070008000FFFFFFC0007FFF0000007FF8000003FFFF80007F
310
0001FFFFFF8000F8001FFFFFF8000FF8000001FFFE0000007FFFFFF0001FFFFF
310
FE0003FFFFFFE0003FFE0003FFFFFFE0003FFF0003FFFFFFFFC000FFFFFFE000
310
70008000FFFFFFC0007FFE0000007FF8000003FFFF80007F0001FFFFFF8000F0
310
001FFFFFF8000FF8000001FFFE0000007FFFFFF0001FFFFFFC0003FFFFFFE000
310
1FFC0003FFFFFFE0001FFF0003FFFFFFFFC000FFFFFFC00070008000FFFFFF80
310
007FFE0000007FF0000003FFFF80007F0001FFFFFF0000F0001FFFFFF8000FF8
310
000001FFFE0000007FFFFFF0001FFFFFFC0007FFFFFFF0001FFC0007FFFFFFF0
310
001FFF0003FFFFFFFFC000FFFFFFC00070008001FFFFFF0000FFFE0000003FF0
310
000001FFFF80007F0001FFFFFF0000F8001FFFFFF0000FF8000001FFFE000000
310
7FFFFFF0001FFFFFFC0007FFFFFFF0001FFC0007FFFFFFF0001FFF0003FFFFFF
310
FFC001FFFFFF80007000FFFFFFFFFE0000FFFE0008003FF0008001FFFF80007F
310
FFFFFFFFFC0000FFFFFFFFFFE0000FF8000001FFFE0000007FFFFFF0001FFFFF
310
F8000FFFFFFFF8000FF8000FFFFFFFF8000FFF0003FFFFFFFFFFFFFFFFFF0000
310
7000FFFFFFFFFC0000FFFC0008003FF0008001FFFF80007FFFFFFFFFF80001FF
310
FFFFFFFF80000FF8000001FFFE0000007FFFFFF0001FFFFFF8000FFFFFFFF800
310
0FF8000FFFFFFFF8000FFF0003FFFFFFFFFFFFFFFFFE0000F000FFFFFFFFE000
310
00FFFC000C003FE000C001FFFF80007FFFFFFFFFC00001FFFFFFFFFE00001FF8
310
000001FFFE0000007FFFFFF0001FFFFFF8000FFFFFFFF8000FF8000FFFFFFFF8
310
000FFF0003FFFFFFFFFFFFFFFFF00000F000FFFFFFFE000001FFFC000C001FE0
310
00C000FFFF80007FFFFFFFFE000001FFFFFFFFE000001FF80FFFFFFFFFFFFFC0
310
7FFFFFF0001FFFFFF8000FFFFFFFF8000FF8000FFFFFFFF8000FFF0003FFFFFF
310
FFFFFFFFFF800000F000FFFFFFC0000001FFFC001C001FE001C000FFFF80007F
310
FFFFFF80000003FFFFFFF80000001FF80FFFFFFFFFFFFFC07FFFFFF0001FFFFF
310
F8001FFFFFFFFC000FF8001FFFFFFFFC000FFF0003FFFFFFFFFFFFFFF0000001
310
F000FFFFF800000001FFF8001C001FE001C000FFFF80007FFFFFF800000003FF
310
FFFF800000003FF80FFFFFFFFFFFFFC07FFFFFF0001FFFFFF8001FFFFFFFFC00
310
0FF8001FFFFFFFFC000FFF0003FFFFFFFFFFFFFE00000001F000FFFFC0000000
310
03FFF8001E001FC001E000FFFF80007FFFFF8000000007FFFFFC000000003FF8
310
0FFFFFFFFFFFFFC07FFFFFF0001FFFFFF8001FFFFFFFFC000FF8001FFFFFFFFC
310
000FFF0003FFFFFFFFFFFFE000000003F000FFFE0000000007FFF8001E000FC0
310
01E0007FFF80007FFFFE0000000007FFFFE0000000007FF80FFFFFFFFFFFFFC0
310
7FFFFFF0001FFFFFF0001FFFFFFFFC0007F0001FFFFFFFFC0007FF0003FFFFFF
310
FFFFFF0000000003F000FFF80000000007FFF8001E000FC003E0007FFF80007F
310
FFF0000000000FFFFF8000000000FFF80FFFFFFFFFFFFFC07FFFFFF0001FFFFF
310
F0001FFFFFFFFC0007F0001FFFFFFFFC0007FF0003FFFFFFFFFFFC0000000007
310
F000FFE0000000000FFFF0003E000FC003E0007FFF80007FFFC0000000001FFF
310
FE0000000001FFF80FFFFFFFFFFFFFC07FFFFFF0001FFFFFF0001FFFFFFFFC00
310
07F0001FFFFFFFFC0007FF0003FFFFFFFFFFF0000000000FF000FFC000000000
310
1FFFF0003F000F8003F0003FFF80007FFF80000000003FFFF80000000003FFF8
310
0FFFFFFFFFFFFFC07FFFFFF0001FFFFFF0001FFFFFFFFC0007F0001FFFFFFFFC
310
0007FF0003FFFFFFFFFFE0000000001FF000FF00000000007FFFF0003F000780
310
03F0003FFF80007FFF00000000007FFFF00000000007FFF80FFFFFFFFFFFFFC0
310
7FFFFFF0001FFFFFF0001FFFFFFFFC0007F0001FFFFFFFFC0007FF0003FFFFFF
310
FFFF80000000007FF000FE0000000000FFFFE0003F00078007F0003FFF80007F
310
FE0000000001FFFFE0000000001FFFF80FFFFFFFFFFFFFC07FFFFFF0001FFFFF
310
F0001FFFFFFFFC0007F0001FFFFFFFFC0007FF0003FFFFFFFFFF0000000000FF
310
F000FC0000000003FFFFE0007F00078007F0003FFF80007FFC0000000007FFFF
310
C0000000007FFFF80FFFFFFFFFFFFFC07FFFFFF0001FFFFFF8001FFFFFFFFC00
310
0FF8001FFFFFFFFC000FFF0003FFFFFFFFFE0000000003FFF000FC000000000F
310
FFFFE0007F80070007F8001FFF80007FF8000000001FFFFF8000000001FFFFF8
310
0FFFFFFFFFFFFFC07FFFFFF0001FFFFFF8001FFFFFFFFC000FF8001FFFFFFFFC
310
000FFF0003FFFFFFFFFC000000000FFFF000F8000000007FFFFFE0007F800700
310
07F8001FFF80007FF000000000FFFFFF800000000FFFFFF80FFFFFFFFFFFFFC0
310
7FFFFFF0001FFFFFF8000FFFFFFFF8000FF8000FFFFFFFF8000FFF0003FFFFFF
310
FFFC000000007FFFF000F800000007FFFFFFC0007F8003000FF8001FFF80007F
310
F000000007FFFFFF000000007FFFFFF80FFFFFFFFFFFFFC07FFFFFF0001FFFFF
310
F8000FFFFFFFF8000FF8000FFFFFFFF8000FFF0003FFFFFFFFF80000000FFFFF
310
F000F0000000FFFFFFFFC000FF8003000FF8001FFF80007FE0000000FFFFFFFF
310
0000000FFFFFFFF8000001FFFE0000007FFFFFF0001FFFFFF8000FFFFFFFF800
310
0FF8000FFFFFFFF8000FFF0003FFFFFFFFF8000000FFFFFFF000F000000FFFFF
310
FFFFC000FFC002000FF8000FFF80007FE000001FFFFFFFFE000001FFFFFFFFF8
310
000001FFFE0000007FFFFFF0001FFFFFF8000FFFFFFFF8000FF8000FFFFFFFF8
310
000FFF0003FFFFFFFFF000001FFFFFFFF000E00000FFFFFFFFFFC000FFC00200
310
0FFC000FFF80007FE00001FFFFFFFFFE00001FFFFFFFFFF8000001FFFE000000
310
7FFFFFF0001FFFFFFC000FFFFFFFF8001FFC000FFFFFFFF8001FFF0003FFFFFF
310
FFF00001FFFFFFFFF000E00007FFFFFFFFFF8000FFC000001FFC000FFF80007F
310
C0000FFFFFFFFFFE0000FFFFFFFFFFF8000001FFFE0000007FFFFFF0001FFFFF
310
FC0007FFFFFFF0001FFC0007FFFFFFF0001FFF0003FFFFFFFFF00007FFFFFFFF
310
F000E0001FFFFFFFFFFF8000FFC000001FFC000FFF80007FC0003FFFFFFFFFFE
310
0001FFFFFFFFFFF8000001FFFE0000007FFFFFF0001FFFFFFC0007FFFFFFF000
310
1FFC0007FFFFFFF0001FFF0003FFFFFFFFF0001FFFFFFFFFF000E0003FFFFF00
310
03FF8001FFE000001FFC0007FF80007FC0007FFFFF0007FC0003FFFFF0003FF8
310
000001FFFE0000007FFFFFF0001FFFFFFC0003FFFFFFE0001FFC0003FFFFFFE0
310
001FFF0003FFFFFFFFF0003FFFFFFFFFF000E0003FFFFF0001FF8001FFE00000
310
1FFE0007FF80007FC0007FFFFE0003FC0007FFFFE0003FF8000001FFFE000000
310
7FFFFFF0001FFFFFFE0003FFFFFFE0003FFE0003FFFFFFE0003FFF0003FFFFFF
310
FFF0003FFFFF8001F000E0003FFFFF0001FF0001FFE000001FFE0007FF80007F
310
C0007FFFFE0003FC0007FFFFE0003FF8000001FFFE0000007FFFFFF0001FFFFF
310
FE0001FFFFFFC0003FFE0001FFFFFFC0003FFF0003FFFFFFFFF0003FFFFF0001
310
F000E0003FFFFF0003FF0001FFE000003FFE0007FF80007FC0007FFFFE0003FC
310
0007FFFFE0003FF8000001FFFE0000007FFFFFF0001FFFFFFF0001FFFFFFC000
310
7FFF0001FFFFFFC0007FFF0003FFFFFFFFF0003FFFFF0001F000E0003FFFFE00
310
03FF0003FFF000003FFE0003FF80007FC0007FFFFC0003FE0007FFFFE0003FF8
310
000001FFFE0000007FFFFFF0001FFFFFFF0000FFFFFF80007FFF0000FFFFFF80
310
007FFF0003FFFFFFFFF0003FFFFF0001F000E0003FFFFE0003FF0003FFF00000
310
3FFF0003FF80007FC0007FFFFC0007FE0007FFFFC0003FF8000001FFFE000000
310
7FFFFFF0001FFFFFFF80007FFFFF0000FFFF80007FFFFF0000FFFF0003FFFFFF
310
FFF0003FFFFF0003F000E0003FFFFC0003FE0003FFF000003FFF0003FF80007F
310
E0003FFFF80007FE0003FFFFC0007FF8000001FFFE0000007FFFFFF0001FFFFF
310
FF80003FFFFE0000FFFF80003FFFFE0000FFFF0003FFFFFFFFF0001FFFFE0003
310
F000F0001FFFF80003FE0003FFF000007FFF0001FF80007FE0003FFFF00007FE
310
0001FFFF80007FF8000001FFFE0000007FFFFFF0001FFFFFFFC0000FFFF80001
310
FFFFC0000FFFF80001FFFF0003FFFFFFFFF0001FFFFC0003F000F0000FFFF000
310
07FE0007FFF800007FFF0001FF80007FE0001FFFE00007FF0000FFFE00007FF8
310
000001FFFE0000007FFFFFF0001FFFFFFFC00003FFE00001FFFFC00003FFE000
310
01FFFF0003FFFFFFFFF8000FFFF80003F000F00003FFC00007FC0007FFF80000
310
7FFF8001FF80007FF00007FF80000FFF00007FF80000FFF8000001FFFE000000
310
7F80000000000001FFE000003E000003FFFFE000003E000003FFFF0003FFFFFF
310
FFF80003FFE00007F000F800000000000FFC0007FFF800007FFF8001FF80007F
310
F000000000000FFF000000000000FFF8000001FFFE0000007F80000000000001
310
FFF0000000000007FFFFF0000000000007FFFF0003FFFFFFFFFC00007E000007
310
F000F800000000000FFC0007FFF80000FFFF8000FF80007FF800000000001FFF
310
800000000001FFF8000001FFFE0000007F80000000000001FFF800000000000F
310
FFFFF800000000000FFFFF0003FFFFFFFFFC00000000000FF000FC0000000000
310
1FFC0007FFFC0000FFFF8000FF80007FF800000000003FFFC00000000001FFF8
310
000001FFFE0000007F80000000000001FFF800000000000FFFFFF80000000000
310
0FFFFF0003FFFFFFFFFE00000000001FF000FE00000000003FF8000FFFFC0000
310
FFFF8000FF80007FFC00000000003FFFC00000000003FFF8000001FFFE000000
310
7F80000000000001FFFC00000000001FFFFFFC00000000001FFFFF0003FFFFFF
310
FFFF00000000001FF000FF00000000003FF8000FFFFC0000FFFFC000FF80007F
310
FE00000000007FFFE00000000007FFF8000001FFFE0000007F80000000000001
310
FFFE00000000003FFFFFFE00000000003FFFFF0003FFFFFFFFFF80000000003F
310
F000FF80000000007FF8000FFFFC0001FFFFC0007F80007FFF0000000000FFFF
310
F0000000000FFFF800000000000000007F80000000000001FFFF8000000000FF
310
FFFFFF8000000000FFFFFF0003FFFFFFFFFFC0000000007FF000FFC000000000
310
FFF8000FFFFE0001FFFFC0007F80007FFF8000000001FFFFF8000000001FFFF8
310
00000000000000007F80000000000001FFFFC000000001FFFFFFFFC000000001
310
FFFFFF0003FFFFFFFFFFE000000000FFF000FFE000000003FFF0001FFFFE0001
310
FFFFC0007F80007FFFC000000007FFFFFE000000003FFFF80000000000000000
310
7F80000000000001FFFFE000000003FFFFFFFFE000000003FFFFFF0003FFFFFF
310
FFFFF000000003FFF000FFF80000000FFFF0001FFFFE0001FFFFE0007F80007F
310
FFF00000000FFFFFFF00000000FFFFF800000000000000007F80000000000001
310
FFFFF80000000FFFFFFFFFF80000000FFFFFFF0003FFFFFFFFFFFC0000000FFF
310
F000FFFE0000003FFFF0001FFFFE0003FFFFE0003F80007FFFFC0000003FFFFF
310
FFC0000003FFFFF800000000000000007F80000000000001FFFFFE0000003FFF
310
FFFFFFFE0000003FFFFFFF0003FFFFFFFFFFFF0000003FFFF000FFFF800000FF
310
FFF0001FFFFF0003FFFFE0003F80007FFFFF000001FFFFFFFFF800001FFFFFF8
310
00000000000000007F80000000000001FFFFFFC00001FFFFFFFFFFFFC00001FF
310
FFFFFF0003FFFFFFFFFFFFC00000FFFFF000FFFFF8000FFFFFFFFFFFFFFFFFFF
310
FFFFFFFFFFFFFFFFFFFFF0001FFFFFFFFFFF0000FFFFFFF80000000000000000
310
7FFFFFFFFFFFFFFFFFFFFFFC001FFFFFFFFFFFFFFC001FFFFFFFFFFFFFFFFFFF
310
FFFFFFFC001FFFFFF000FFFFFFFFFFFFFFFFFFFFFFFFFFFFFFFFFFFFFFFFFFFF
310
FFFFFFFFFFFFFFFFFFFFFFFFFFFFFFFFFFFFFFFFFFFFFFFFFFFFFFFFFFFFFFFF
310
FFFFFFFFFFFFFFFFFFFFFFFFFFFFFFFFFFFFFFFFFFFFFFFFFFFFFFFFFFFFFFFF
310
F000FFFFFFFFFFFFFFFFFFFFFFFFFFFFFFFFFFFFFFFFFFFFFFFFFFFFFFFFFFFF
310
FFFFFFFFFFFFFFFFFFFFFFFFFFFFFFFFFFFFFFFFFFFFFFFFFFFFFFFFFFFFFFFF
310
FFFFFFFFFFFFFFFFFFFFFFFFFFFFFFFFFFFFFFFFFFFFFFFFF000FFFFFFFFFFFF
310
FFFFFFFFFFFFFFFFFFFFFFFFFFFFFFFFFFFFFFFFFFFFFFFFFFFFFFFFFFFFFFFF
310
FFFFFFFFFFFFFFFFFFFFFFFFFFFFFFFFFFFFFFFFFFFFFFFFFFFFFFFFFFFFFFFF
310
FFFFFFFFFFFFFFFFFFFFFFFFFFFFFFFFF000FFFFFFFFFFFFFFFFFFFFFFFFFFFF
310
FFFFFFFFFFFFFFFFFFFFFFFFFFFFFFFFFFFFFFFFFFFFFFFFFFFFFFFFFFFFFFFF
310
FFFFFFFFFFFFFFFFFFFFFFFFFFFFFFFFFFFFFFFFFFFFFFFFFFFFFFFFFFFFFFFF
310
FFFFFFFFFFFFFFFFF000FFFFFFFFFFFFFFFFFFFFFFFFFFFFFFFFFFFFFFFFFFFF
310
FFFFFFFFFFFFFFFFFFFFFFFFFFFFFFFFFFFFFFFFFFFFFFFFFFFFFFFFFFFFFFFF
310
FFFFFFFFFFFFFFFFFFFFFFFFFFFFFFFFFFFFFFFFFFFFFFFFFFFFFFFFFFFFFFFF
310
F000FFFFFFFFFFFFFFFFFFFFFFFFFFFFFFFFFFFFFFFFFFFFFFFFFFFFFFFFFFFF
310
FFFFFFFFFFFFFFFFFFFFFFFFFFFFFFFFFFFFFFFFFFFFFFFFFFFFFFFFFFFFFFFF
310
FFFFFFFFFFFFFFFFFFFFFFFFFFFFFFFFFFFFFFFFFFFFFFFFF000FFFFFFFFFFFF
310
FFFFFFFFFFFFFFFFFFFFFFFFFFFFFFFFFFFFFFFFFFFFFFFFFFFFFFFFFFFFFFFF
310
FFFFFFFFFFFFFFFFFFFFFFFFFFFFFFFFFFFFFFFFFFFFFFFFFFFFFFFFFFFFFFFF
310
FFFFFFFFFFFFFFFFFFFFFFFFFFFFFFFFF000FFFFFFFFFFFFFFFFFFFFFFFFFFFF
310
FFFFFFFFFFFFFFFFFFFFFFFFFFFFFFFFFFFFFFFFFFFFFFFFFFFFFFFFFFFFFFFF
310
FFFFFFFFFFFFFFFFFFFFFFFFFFFFFFFFFFFFFFFFFFFFFFFFFFFFFFFFFFFFFFFF
310
FFFFFFFFFFFFFFFFF000FFFFFFFFFFFFFFFFFFFFFFFFFFFFFFFFFFFFFFFFFFFF
310
FFFFFFFFFFFFFFFFFFFFFFFFFFFFFFFFFFFFFFFFFFFFFFFFFFFFFFFFFFFFFFFF
310
FFFFFFFFFFFFFFFFFFFFFFFFFFFFFFFFFFFFFFFFFFFFFFFFFFFFFFFFFFFFFFFF
310
F000FFFFFFFFFFFFFFFFFFFFFFFFFFFFFFFFFFFFFFFFFFFFFFFFFFFFFFFFFFFF
310
FFFFFFFFFFFFFFFFFFFFFFFFFFFFFFFFFFFFFFFFFFFFFFFFFFFFFFFFFFFFFFFF
310
FFFFFFFFFFFFFFFFFFFFFFFFFFFFFFFFFFFFFFFFFFFFFFFFF000FFFFFFFFFFFF
310
FFFFFFFFFFFFFFFFFFFFFFFFFFFFFFFFFFFFFFFFFFFFFFFFFFFFFFFFFFFFFFFF
310
FFFFFFFFFFFFFFFFFFFFFFFFFFFFFFFFFFFFFFFFFFFFFFFFFFFFFFFFFFFFFFFF
310
FFFFFFFFFFFFFFFFFFFFFFFFFFFFFFFFF000FFFFFFFFFFFFFFFFFFFFFFFFFFFF
310
FFFFFFFFFFFFFFFFFFFFFFFFFFFFFFFFFFFFFFFFFFFFFFFFFFFFFFFFFFFFFFFF
310
FFFFFFFFFFFFFFFFFFFFFFFFFFFFFFFFFFFFFFFFFFFFFFFFFFFFFFFFFFFFFFFF
310
FFFFFFFFFFFFFFFFF000FFFFFFFFFFFFFFFFFFFFFFFFFFFFFFFFFFFFFFFFFFFF
310
FFFFFFFFFFFFFFFFFFFFFFFFFFFFFFFFFFFFFFFFFFFFFFFFFFFFFFFFFFFFFFFF
310
FFFFFFFFFFFFFFFFFFFFFFFFFFFFFFFFFFFFFFFFFFFFFFFFFFFFFFFFFFFFFFFF
310
F000FFFFFFFFFFFFFFFFFFFFFFFFFFFFFFFFFFFFFFFFFFFFFFFFFFFFFFFFFFFF
310
FFFFFFFFFFFFFFFFFFFFFFFFFFFFFFFFFFFFFFFFFFFFFFFFFFFFFFFFFFFFFFFF
310
FFFFFFFFFFFFFFFFFFFFFFFFFFFFFFFFFFFFFFFFFFFFFFFFF000FFFFFFFFFFFF
310
FFFFFFFFFFFFFFFFFFFFFFFFFFFFFFFFFFFFFFFFFFFFFFFFFFFFFFFFFFFFFFFF
310
FFFFFFFFFFFFFFFFFFFFFFFFFFFFFFFFFFFFFFFFFFFFFFFFFFFFFFFFFFFFFFFF
310
FFFFFFFFFFFFFFFFFFFFFFFFFFFFFFFFF000FFFFFFFFFFFFFFFFFFFFFFFFFFFF
310
FFFFFFFFFFFFFFFFFFFFFFFFFFFFFFFFFFFFFFFFFFFFFFFFFFFFFFFFFFFFFFFF
310
FFFFFFFFFFFFFFFFFFFFFFFFFFFFFFFFFFFFFFFFFFFFFFFFFFFFFFFFFFFFFFFF
310
FFFFFFFFFFFFFFFFF000FFFFFFFFFFFFFFFFFFFFFFFFFFFFFFFFFFFFFFFFFFFF
310
FFFFFFFFFFFFFFFFFFFFFFFFFFFFFFFFFFFFFFFFFFFFFFFFFFFFFFFFFFFFFFFF
310
FFFFFFFFFFFFFFFFFFFFFFFFFFFFFFFFFFFFFFFFFFFFFFFFFFFFFFFFFFFFFFFF
310
F000FFFFFFFFFFFFFFFFFFFFFFFFFFFFFFFFFFFFFFFFFFFFFFFFFFFFFFFFFFFF
310
FFFFFFFFFFFFFFFFFFFFFFFFFFFFFFFFFFFFFFFFFFFFFFFFFFFFFFFFFFFFFFFF
310
FFFFFFFFFFFFFFFFFFFFFFFFFFFFFFFFFFFFFFFFFFFFFFFFF000FFFFFFFFFFFF
310
FFFFFFFFFFFFFFFFFFFFFFFFFFFFFFFFFFFFFFFFFFFFFFFFFFFFFFFFFFFFFFFF
310
FFFFFFFFFFFFFFFFFFFFFFFFFFFFFFFFFFFFFFFFFFFFFFFFFFFFFFFFFFFFFFFF
310
FFFFFFFFFFFFFFFFFFFFFFFFFFFFFFFFF000FFFFFFFFFFFFFFFFFFFFFFFFFFFF
310
FFFFFFFFFFFFFFFFFFFFFFFFFFFFFFFFFFFFFFFFFFFFFFFFFFFFFFFFFFFFFFFF
310
FFFFFFFFFFFFFFFFFFFFFFFFFFFFFFFFFFFFFFFFFFFFFFFFFFFFFFFFFFFFFFFF
310
FFFFFFFFFFFFFFFFF000FFFFFFFFFFFFFFFFFFFFFFFFFFFFFFFFFFFFFFFFFFFF
310
FFFFFFFFFFFFFFFFFFFFFFFFFFFFFFFFFFFFFFFFFFFFFFFFFFFFFFFFFFFFFFFF
310
FFFFFFFFFFFFFFFFFFFFFFFFFFFFFFFFFFFFFFFFFFFFFFFFFFFFFFFFFFFFFFFF
310
F000FFFFFFFFFFFFFFFFFFFFFFFFFFFFFFFFFFFFFFFFFFFFFFFFFFFFFFFFFFFF
310
FFFFFFFFFFFFFFFFFFFFFFFFFFFFFFFFFFFFFFFFFFFFFFFFFFFFFFFFFFFFFFFF
310
FFFFFFFFFFFFFFFFFFFFFFFFFFFFFFFFFFFFFFFFFFFFFFFFF000FFFFFFFFFFFF
310
FFFFFFFFFFFFFFFFFFFFFFFFFFFFFFFFFFFFFFFFFFFFFFFFFFFFFFFFFFFFFFFF
310
FFFFFFFFFFFFFFFFFFFFFFFFFFFFFFFFFFFFFFFFFFFFFFFFFFFFFFFFFFFFFFFF
310
FFFFFFFFFFFFFFFFFFFFFFFFFFFFFFFFF0000000000000000000000000000000
310
0000000000000000000000000000000000000000000000000000000000000000
310
0000000000000000000000000000000000000000000000000000000000000000
310
0000000000000000000000000000000000000000000000000000000000000000
310
0000000000000000000000000000000000000000000000000000000000000000
310
0000000000000000000000000000000000000000000000000000000000000000
310
0000000000000000000000000000000000000000000000000000000000000000
310
0000000000000000000000000000000000000000000000000000000000000000
310
0000000000000000000000000000000000000000000000000000000000000000
310
0000000000000000000000000000000000000000000000000000000000000000
310
0000000000000000000000000000000000000000000000000000000000000000
310
0000000000000000000000000000000000000000000000000000000000000000
310
0000000000000000000000000000000000000000000000000000000000000000
310
0000000000000000000000000000000000000000000000000000000000000000
310
0000000000000000000000000000000000000000000000000000000000000000
310
0000000000000000000000000000000000000000000000000000000000000000
  1
OLE
  0
ENDSEC
  0
SECTION
  2
OBJECTS
  0
DICTIONARY
  5
C
330
0
100
AcDbDictionary
281
     1
  3
ACAD_GROUP
350
D
  3
ACAD_LAYOUT
350
1A
  3
ACAD_MLINESTYLE
350
17
  3
ACAD_PLOTSETTINGS
350
19
  3
ACAD_PLOTSTYLENAME
350
E
  3
ACAD_SCALELIST
350
47
  0
DICTIONARY
  5
D
102
{ACAD_REACTORS
330
C
102
}
330
C
100
AcDbDictionary
281
     1
  0
DICTIONARY
  5
1A
102
{ACAD_REACTORS
330
C
102
}
330
C
100
AcDbDictionary
281
     1
  3
Layout1
350
1E
  3
Layout2
350
26
  3
Model
350
22
  0
DICTIONARY
  5
17
102
{ACAD_REACTORS
330
C
102
}
330
C
100
AcDbDictionary
281
     1
  3
Standard
350
18
  0
DICTIONARY
  5
19
102
{ACAD_REACTORS
330
C
102
}
330
C
100
AcDbDictionary
281
     1
  0
ACDBDICTIONARYWDFLT
  5
E
102
{ACAD_REACTORS
330
C
102
}
330
C
100
AcDbDictionary
281
     1
  3
Normal
350
F
100
AcDbDictionaryWithDefault
340
F
  0
DICTIONARY
  5
47
102
{ACAD_REACTORS
330
C
102
}
330
C
100
AcDbDictionary
281
     1
  3
A0
350
48
  3
A1
350
49
  3
A2
350
4A
  3
A3
350
4B
  3
A4
350
4C
  3
A5
350
4D
  3
A6
350
4E
  3
A7
350
4F
  3
A8
350
50
  3
A9
350
51
  3
B0
350
52
  3
B1
350
53
  3
B2
350
54
  3
B3
350
55
  3
B4
350
56
  3
B5
350
57
  3
B6
350
58
  3
B7
350
59
  3
B8
350
5A
  3
B9
350
5B
  3
C0
350
5C
  3
C1
350
5D
  3
C2
350
5E
  3
C3
350
5F
  3
C4
350
60
  3
C5
350
61
  3
C6
350
62
  3
C7
350
63
  3
C8
350
64
  3
C9
350
65
  3
D0
350
66
  3
D1
350
67
  3
D2
350
68
  0
LAYOUT
  5
1E
102
{ACAD_REACTORS
330
1A
102
}
330
1A
100
AcDbPlotSettings
  1

  2
none_device
  4

  6

 40
0.0
 41
0.0
 42
0.0
 43
0.0
 44
0.0
 45
0.0
 46
0.0
 47
0.0
 48
0.0
 49
0.0
140
0.0
141
0.0
142
1.0
143
1.0
 70
   688
 72
     1
 73
     0
 74
     5
  7

 75
    16
147
1.0
148
0.0
149
0.0
100
AcDbLayout
  1
Layout1
 70
     1
 71
     1
 10
0.0
 20
0.0
 11
420.0
 21
297.0
 12
0.0
 22
0.0
 32
0.0
 14
1.0000000000E+20
 24
1.0000000000E+20
 34
1.0000000000E+20
 15
-1.0000000000E+20
 25
-1.0000000000E+20
 35
-1.0000000000E+20
146
0.0
 13
0.0
 23
0.0
 33
0.0
 16
1.0
 26
0.0
 36
0.0
 17
0.0
 27
1.0
 37
0.0
 76
     0
330
1B
  0
LAYOUT
  5
26
102
{ACAD_REACTORS
330
1A
102
}
330
1A
100
AcDbPlotSettings
  1

  2
none_device
  4

  6

 40
0.0
 41
0.0
 42
0.0
 43
0.0
 44
0.0
 45
0.0
 46
0.0
 47
0.0
 48
0.0
 49
0.0
140
0.0
141
0.0
142
1.0
143
1.0
 70
   688
 72
     1
 73
     0
 74
     5
  7

 75
    16
147
1.0
148
0.0
149
0.0
100
AcDbLayout
  1
Layout2
 70
     1
 71
     2
 10
0.0
 20
0.0
 11
0.0
 21
0.0
 12
0.0
 22
0.0
 32
0.0
 14
0.0
 24
0.0
 34
0.0
 15
0.0
 25
0.0
 35
0.0
146
0.0
 13
0.0
 23
0.0
 33
0.0
 16
1.0
 26
0.0
 36
0.0
 17
0.0
 27
1.0
 37
0.0
 76
     0
330
23
  0
LAYOUT
  5
22
102
{ACAD_REACTORS
330
1A
102
}
330
1A
100
AcDbPlotSettings
  1

  2
none_device
  4
Letter_(8.50_x_11.00_Inches)
  6

 40
6.35
 41
6.35
 42
6.35000508
 43
6.35000508
 44
215.9
 45
279.4
 46
0.0
 47
0.0
 48
0.0
 49
0.0
140
0.0
141
0.0
142
1.0
143
1.0
 70
  1712
 72
     1
 73
     0
 74
     0
  7

 75
     0
147
1.0
148
0.0
149
0.0
100
AcDbLayout
  1
Model
 70
     1
 71
     0
 10
0.0
 20
0.0
 11
297.0
 21
210.0
 12
0.0
 22
0.0
 32
0.0
 14
0.0
 24
0.0
 34
0.0
 15
297.0
 25
210.0
 35
0.0
146
0.0
 13
0.0
 23
0.0
 33
0.0
 16
1.0
 26
0.0
 36
0.0
 17
0.0
 27
1.0
 37
0.0
 76
     0
330
1F
331
29
  0
MLINESTYLE
  5
18
102
{ACAD_REACTORS
330
17
102
}
330
17
100
AcDbMlineStyle
  2
Standard
 70
     0
  3

 62
   256
 51
90.0
 52
90.0
 71
     2
 49
0.5
 62
   256
  6
BYLAYER
 49
-0.5
 62
   256
  6
BYLAYER
  0
ACDBPLACEHOLDER
  5
F
102
{ACAD_REACTORS
330
E
102
}
330
E
  0
SCALE
  5
48
102
{ACAD_REACTORS
330
47
102
}
330
47
100
AcDbScale
 70
     0
300
1:1
140
1.0
141
1.0
290
     1
  0
SCALE
  5
49
102
{ACAD_REACTORS
330
47
102
}
330
47
100
AcDbScale
 70
     0
300
1:2
140
1.0
141
2.0
290
     0
  0
SCALE
  5
4A
102
{ACAD_REACTORS
330
47
102
}
330
47
100
AcDbScale
 70
     0
300
1:4
140
1.0
141
4.0
290
     0
  0
SCALE
  5
4B
102
{ACAD_REACTORS
330
47
102
}
330
47
100
AcDbScale
 70
     0
300
1:5
140
1.0
141
5.0
290
     0
  0
SCALE
  5
4C
102
{ACAD_REACTORS
330
47
102
}
330
47
100
AcDbScale
 70
     0
300
1:8
140
1.0
141
8.0
290
     0
  0
SCALE
  5
4D
102
{ACAD_REACTORS
330
47
102
}
330
47
100
AcDbScale
 70
     0
300
1:10
140
1.0
141
10.0
290
     0
  0
SCALE
  5
4E
102
{ACAD_REACTORS
330
47
102
}
330
47
100
AcDbScale
 70
     0
300
1:16
140
1.0
141
16.0
290
     0
  0
SCALE
  5
4F
102
{ACAD_REACTORS
330
47
102
}
330
47
100
AcDbScale
 70
     0
300
1:20
140
1.0
141
20.0
290
     0
  0
SCALE
  5
50
102
{ACAD_REACTORS
330
47
102
}
330
47
100
AcDbScale
 70
     0
300
1:30
140
1.0
141
30.0
290
     0
  0
SCALE
  5
51
102
{ACAD_REACTORS
330
47
102
}
330
47
100
AcDbScale
 70
     0
300
1:40
140
1.0
141
40.0
290
     0
  0
SCALE
  5
52
102
{ACAD_REACTORS
330
47
102
}
330
47
100
AcDbScale
 70
     0
300
1:50
140
1.0
141
50.0
290
     0
  0
SCALE
  5
53
102
{ACAD_REACTORS
330
47
102
}
330
47
100
AcDbScale
 70
     0
300
1:100
140
1.0
141
100.0
290
     0
  0
SCALE
  5
54
102
{ACAD_REACTORS
330
47
102
}
330
47
100
AcDbScale
 70
     0
300
2:1
140
2.0
141
1.0
290
     0
  0
SCALE
  5
55
102
{ACAD_REACTORS
330
47
102
}
330
47
100
AcDbScale
 70
     0
300
4:1
140
4.0
141
1.0
290
     0
  0
SCALE
  5
56
102
{ACAD_REACTORS
330
47
102
}
330
47
100
AcDbScale
 70
     0
300
8:1
140
8.0
141
1.0
290
     0
  0
SCALE
  5
57
102
{ACAD_REACTORS
330
47
102
}
330
47
100
AcDbScale
 70
     0
300
10:1
140
10.0
141
1.0
290
     0
  0
SCALE
  5
58
102
{ACAD_REACTORS
330
47
102
}
330
47
100
AcDbScale
 70
     0
300
100:1
140
100.0
141
1.0
290
     0
  0
SCALE
  5
59
102
{ACAD_REACTORS
330
47
102
}
330
47
100
AcDbScale
 70
     0
300
1/128" = 1'-0"
140
0.0078125
141
12.0
290
     0
  0
SCALE
  5
5A
102
{ACAD_REACTORS
330
47
102
}
330
47
100
AcDbScale
 70
     0
300
1/64" = 1'-0"
140
0.015625
141
12.0
290
     0
  0
SCALE
  5
5B
102
{ACAD_REACTORS
330
47
102
}
330
47
100
AcDbScale
 70
     0
300
1/32" = 1'-0"
140
0.03125
141
12.0
290
     0
  0
SCALE
  5
5C
102
{ACAD_REACTORS
330
47
102
}
330
47
100
AcDbScale
 70
     0
300
1/16" = 1'-0"
140
0.0625
141
12.0
290
     0
  0
SCALE
  5
5D
102
{ACAD_REACTORS
330
47
102
}
330
47
100
AcDbScale
 70
     0
300
3/32" = 1'-0"
140
0.09375
141
12.0
290
     0
  0
SCALE
  5
5E
102
{ACAD_REACTORS
330
47
102
}
330
47
100
AcDbScale
 70
     0
300
1/8" = 1'-0"
140
0.125
141
12.0
290
     0
  0
SCALE
  5
5F
102
{ACAD_REACTORS
330
47
102
}
330
47
100
AcDbScale
 70
     0
300
3/16" = 1'-0"
140
0.1875
141
12.0
290
     0
  0
SCALE
  5
60
102
{ACAD_REACTORS
330
47
102
}
330
47
100
AcDbScale
 70
     0
300
1/4" = 1'-0"
140
0.25
141
12.0
290
     0
  0
SCALE
  5
61
102
{ACAD_REACTORS
330
47
102
}
330
47
100
AcDbScale
 70
     0
300
3/8" = 1'-0"
140
0.375
141
12.0
290
     0
  0
SCALE
  5
62
102
{ACAD_REACTORS
330
47
102
}
330
47
100
AcDbScale
 70
     0
300
1/2" = 1'-0"
140
0.5
141
12.0
290
     0
  0
SCALE
  5
63
102
{ACAD_REACTORS
330
47
102
}
330
47
100
AcDbScale
 70
     0
300
3/4" = 1'-0"
140
0.75
141
12.0
290
     0
  0
SCALE
  5
64
102
{ACAD_REACTORS
330
47
102
}
330
47
100
AcDbScale
 70
     0
300
1" = 1'-0"
140
1.0
141
12.0
290
     0
  0
SCALE
  5
65
102
{ACAD_REACTORS
330
47
102
}
330
47
100
AcDbScale
 70
     0
300
1-1/2" = 1'-0"
140
1.5
141
12.0
290
     0
  0
SCALE
  5
66
102
{ACAD_REACTORS
330
47
102
}
330
47
100
AcDbScale
 70
     0
300
3" = 1'-0"
140
3.0
141
12.0
290
     0
  0
SCALE
  5
67
102
{ACAD_REACTORS
330
47
102
}
330
47
100
AcDbScale
 70
     0
300
6" = 1'-0"
140
6.0
141
12.0
290
     0
  0
SCALE
  5
68
102
{ACAD_REACTORS
330
47
102
}
330
47
100
AcDbScale
 70
     0
300
1'-0" = 1'-0"
140
12.0
141
12.0
290
     0
  0
ENDSEC
  0
EOF
