  0
SECTION
  2
HEADER
  9
$ACADVER
  1
AC1015
  9
$ACADMAINTVER
 70
     6
  9
$DWGCODEPAGE
  3
ANSI_1252
  9
$INSBASE
 10
0.0
 20
0.0
 30
0.0
  9
$EXTMIN
 10
0.0
 20
0.0
 30
0.0
  9
$EXTMAX
 10
297.0
 20
210.0
 30
0.0
  9
$LIMMIN
 10
0.0
 20
0.0
  9
$LIMMAX
 10
297.0
 20
210.0
  9
$ORTHOMODE
 70
     0
  9
$REGENMODE
 70
     1
  9
$FILLMODE
 70
     1
  9
$QTEXTMODE
 70
     0
  9
$MIRRTEXT
 70
     1
  9
$LTSCALE
 40
1.0
  9
$ATTMODE
 70
     1
  9
$TEXTSIZE
 40
2.0
  9
$TRACEWID
 40
1.0
  9
$TEXTSTYLE
  7
Standard
  9
$CLAYER
  8
0
  9
$CELTYPE
  6
ByLayer
  9
$CECOLOR
 62
   256
  9
$CELTSCALE
 40
1.0
  9
$DISPSILH
 70
     0
  9
$DIMSCALE
 40
1.0
  9
$DIMASZ
 40
3.0
  9
$DIMEXO
 40
0.0
  9
$DIMDLI
 40
3.75
  9
$DIMRND
 40
0.0
  9
$DIMDLE
 40
0.0
  9
$DIMEXE
 40
1.0
  9
$DIMTP
 40
0.0
  9
$DIMTM
 40
0.0
  9
$DIMTXT
 40
2.0
  9
$DIMCEN
 40
2.5
  9
$DIMTSZ
 40
0.0
  9
$DIMTOL
 70
     0
  9
$DIMLIM
 70
     0
  9
$DIMTIH
 70
     1
  9
$DIMTOH
 70
     1
  9
$DIMSE1
 70
     0
  9
$DIMSE2
 70
     0
  9
$DIMTAD
 70
     1
  9
$DIMZIN
 70
     0
  9
$DIMBLK
  1

  9
$DIMASO
 70
     1
  9
$DIMSHO
 70
     1
  9
$DIMPOST
  1

  9
$DIMAPOST
  1

  9
$DIMALT
 70
     0
  9
$DIMALTD
 70
     3
  9
$DIMALTF
 40
0.0393700787
  9
$DIMLFAC
 40
1.0
  9
$DIMTOFL
 70
     1
  9
$DIMTVP
 40
0.0
  9
$DIMTIX
 70
     0
  9
$DIMSOXD
 70
     0
  9
$DIMSAH
 70
     0
  9
$DIMBLK1
  1

  9
$DIMBLK2
  1

  9
$DIMSTYLE
  2
ISO-25
  9
$DIMCLRD
 70
     0
  9
$DIMCLRE
 70
     0
  9
$DIMCLRT
 70
     0
  9
$DIMTFAC
 40
1.0
  9
$DIMGAP
 40
1.524
  9
$DIMJUST
 70
     0
  9
$DIMSD1
 70
     0
  9
$DIMSD2
 70
     0
  9
$DIMTOLJ
 70
     0
  9
$DIMTZIN
 70
     0
  9
$DIMALTZ
 70
     0
  9
$DIMALTTZ
 70
     0
  9
$DIMUPT
 70
     0
  9
$DIMDEC
 70
     2
  9
$DIMTDEC
 70
     3
  9
$DIMALTU
 70
     2
  9
$DIMALTTD
 70
     3
  9
$DIMTXSTY
  7
Standard
  9
$DIMAUNIT
 70
     0
  9
$DIMADEC
 70
     2
  9
$DIMALTRND
 40
0.0
  9
$DIMAZIN
 70
     0
  9
$DIMDSEP
 70
    44
  9
$DIMATFIT
 70
     3
  9
$DIMFRAC
 70
     0
  9
$DIMLDRBLK
  1

  9
$DIMLUNIT
 70
     2
  9
$DIMLWD
 70
    -2
  9
$DIMLWE
 70
    -2
  9
$DIMTMOVE
 70
     0
  9
$LUNITS
 70
     2
  9
$LUPREC
 70
     2
  9
$SKETCHINC
 40
1.0
  9
$FILLETRAD
 40
10.0
  9
$AUNITS
 70
     0
  9
$AUPREC
 70
     2
  9
$MENU
  1
.
  9
$ELEVATION
 40
0.0
  9
$PELEVATION
 40
0.0
  9
$THICKNESS
 40
0.0
  9
$LIMCHECK
 70
     0
  9
$CHAMFERA
 40
0.0
  9
$CHAMFERB
 40
0.0
  9
$CHAMFERC
 40
0.0
  9
$CHAMFERD
 40
0.0
  9
$SKPOLY
 70
     0
  9
$TDCREATE
 40
2457668.351013229
  9
$TDUCREATE
 40
2457668.267679896
  9
$TDUPDATE
 40
2457668.351014757
  9
$TDUUPDATE
 40
2457668.267681424
  9
$TDINDWG
 40
0.0000000116
  9
$TDUSRTIMER
 40
0.0000000116
  9
$USRTIMER
 70
     1
  9
$ANGBASE
 50
0.0
  9
$ANGDIR
 70
     0
  9
$PDMODE
 70
     0
  9
$PDSIZE
 40
-1.0
  9
$PLINEWID
 40
0.0
  9
$SPLFRAME
 70
     0
  9
$SPLINETYPE
 70
     6
  9
$SPLINESEGS
 70
     8
  9
$HANDSEED
  5
2C4
  9
$SURFTAB1
 70
     6
  9
$SURFTAB2
 70
     6
  9
$SURFTYPE
 70
     6
  9
$SURFU
 70
     6
  9
$SURFV
 70
     6
  9
$UCSBASE
  2

  9
$UCSNAME
  2

  9
$UCSORG
 10
0.0
 20
0.0
 30
0.0
  9
$UCSXDIR
 10
1.0
 20
0.0
 30
0.0
  9
$UCSYDIR
 10
0.0
 20
1.0
 30
0.0
  9
$UCSORTHOREF
  2

  9
$UCSORTHOVIEW
 70
     0
  9
$UCSORGTOP
 10
0.0
 20
0.0
 30
0.0
  9
$UCSORGBOTTOM
 10
0.0
 20
0.0
 30
0.0
  9
$UCSORGLEFT
 10
0.0
 20
0.0
 30
0.0
  9
$UCSORGRIGHT
 10
0.0
 20
0.0
 30
0.0
  9
$UCSORGFRONT
 10
0.0
 20
0.0
 30
0.0
  9
$UCSORGBACK
 10
0.0
 20
0.0
 30
0.0
  9
$PUCSBASE
  2

  9
$PUCSNAME
  2

  9
$PUCSORG
 10
0.0
 20
0.0
 30
0.0
  9
$PUCSXDIR
 10
1.0
 20
0.0
 30
0.0
  9
$PUCSYDIR
 10
0.0
 20
1.0
 30
0.0
  9
$PUCSORTHOREF
  2

  9
$PUCSORTHOVIEW
 70
     0
  9
$PUCSORGTOP
 10
0.0
 20
0.0
 30
0.0
  9
$PUCSORGBOTTOM
 10
0.0
 20
0.0
 30
0.0
  9
$PUCSORGLEFT
 10
0.0
 20
0.0
 30
0.0
  9
$PUCSORGRIGHT
 10
0.0
 20
0.0
 30
0.0
  9
$PUCSORGFRONT
 10
0.0
 20
0.0
 30
0.0
  9
$PUCSORGBACK
 10
0.0
 20
0.0
 30
0.0
  9
$USERI1
 70
     0
  9
$USERI2
 70
     0
  9
$USERI3
 70
     0
  9
$USERI4
 70
     0
  9
$USERI5
 70
     0
  9
$USERR1
 40
0.0
  9
$USERR2
 40
0.0
  9
$USERR3
 40
0.0
  9
$USERR4
 40
0.0
  9
$USERR5
 40
0.0
  9
$WORLDVIEW
 70
     1
  9
$SHADEDGE
 70
     3
  9
$SHADEDIF
 70
    70
  9
$TILEMODE
 70
     1
  9
$MAXACTVP
 70
    64
  9
$PINSBASE
 10
0.0
 20
0.0
 30
0.0
  9
$PLIMCHECK
 70
     0
  9
$PEXTMIN
 10
1.0000000000E+20
 20
1.0000000000E+20
 30
1.0000000000E+20
  9
$PEXTMAX
 10
-1.0000000000E+20
 20
-1.0000000000E+20
 30
-1.0000000000E+20
  9
$PLIMMIN
 10
0.0
 20
0.0
  9
$PLIMMAX
 10
420.0
 20
297.0
  9
$UNITMODE
 70
     0
  9
$VISRETAIN
 70
     1
  9
$PLINEGEN
 70
     0
  9
$PSLTSCALE
 70
     1
  9
$TREEDEPTH
 70
  3020
  9
$CMLSTYLE
  2
Standard
  9
$CMLJUST
 70
     0
  9
$CMLSCALE
 40
20.0
  9
$PROXYGRAPHICS
 70
     1
  9
$MEASUREMENT
 70
     1
  9
$CELWEIGHT
370
    -1
  9
$ENDCAPS
280
     0
  9
$JOINSTYLE
280
     0
  9
$LWDISPLAY
290
     1
  9
$INSUNITS
 70
     4
  9
$HYPERLINKBASE
  1

  9
$STYLESHEET
  1

  9
$XEDIT
290
     1
  9
$CEPSNTYPE
380
     0
  9
$PSTYLEMODE
290
     1
  9
$FINGERPRINTGUID
  2
{83B4AB61-D18E-437D-8A5E-D1BA495388CE}
  9
$VERSIONGUID
  2
{FAEB1C32-E019-11D5-929B-00C0DF256EC4}
  9
$EXTNAMES
290
     1
  9
$PSVPSCALE
 40
0.0
  9
$OLESTARTUP
290
     0
  0
ENDSEC
  0
SECTION
  2
CLASSES
  0
CLASS
  1
ACDBDICTIONARYWDFLT
  2
AcDbDictionaryWithDefault
  3
ObjectDBX Classes
 90
        0
280
     0
281
     0
  0
CLASS
  1
VISUALSTYLE
  2
AcDbVisualStyle
  3
ObjectDBX Classes
 90
     4095
280
     0
281
     0
  0
CLASS
  1
MATERIAL
  2
AcDbMaterial
  3
ObjectDBX Classes
 90
     1153
280
     0
281
     0
  0
CLASS
  1
SCALE
  2
AcDbScale
  3
ObjectDBX Classes
 90
     1153
280
     0
281
     0
  0
CLASS
  1
TABLESTYLE
  2
AcDbTableStyle
  3
ObjectDBX Classes
 90
     4095
280
     0
281
     0
  0
CLASS
  1
MLEADERSTYLE
  2
AcDbMLeaderStyle
  3
ACDB_MLEADERSTYLE_CLASS
 90
     4095
280
     0
281
     0
  0
CLASS
  1
SUN
  2
AcDbSun
  3
SCENEOE
 90
     1153
280
     0
281
     0
  0
CLASS
  1
ACDBPLACEHOLDER
  2
AcDbPlaceHolder
  3
ObjectDBX Classes
 90
        0
280
     0
281
     0
  0
CLASS
  1
LAYOUT
  2
AcDbLayout
  3
ObjectDBX Classes
 90
        0
280
     0
281
     0
  0
ENDSEC
  0
SECTION
  2
TABLES
  0
TABLE
  2
VPORT
  5
8
330
0
100
AcDbSymbolTable
 70
     1
  0
VPORT
  5
29
330
8
100
AcDbSymbolTableRecord
100
AcDbViewportTableRecord
  2
*Active
 70
     0
 10
0.0
 20
0.0
 11
1.0
 21
1.0
 12
148.5
 22
105.0
 13
0.0
 23
0.0
 14
10.0
 24
10.0
 15
10.0
 25
10.0
 16
0.0
 26
0.0
 36
1.0
 17
0.0
 27
0.0
 37
0.0
 40
210.0
 41
1.4142857143
 42
50.0
 43
0.0
 44
0.0
 50
0.0
 51
0.0
 71
     0
 72
  2000
 73
     1
 74
     3
 75
     0
 76
     0
 77
     0
 78
     0
281
     0
 65
     1
110
0.0
120
0.0
130
0.0
111
1.0
121
0.0
131
0.0
112
0.0
122
1.0
132
0.0
 79
     0
146
0.0
  0
ENDTAB
  0
TABLE
  2
LTYPE
  5
5
330
0
100
AcDbSymbolTable
 70
     6
  0
LTYPE
  5
14
330
5
100
AcDbSymbolTableRecord
100
AcDbLinetypeTableRecord
  2
ByBlock
 70
     0
  3

 72
    65
 73
     0
 40
0.0
  0
LTYPE
  5
15
330
5
100
AcDbSymbolTableRecord
100
AcDbLinetypeTableRecord
  2
ByLayer
 70
     0
  3

 72
    65
 73
     0
 40
0.0
  0
LTYPE
  5
16
330
5
100
AcDbSymbolTableRecord
100
AcDbLinetypeTableRecord
  2
Continuous
 70
     0
  3
Solid line
 72
    65
 73
     0
 40
0.0
  0
LTYPE
  5
6E
330
5
100
AcDbSymbolTableRecord
100
AcDbLinetypeTableRecord
  2
HIDDEN
 70
     0
  3
Hidden __ __ __ __ __ __ __ __ __ __ __ __ __ __
 72
    65
 73
     2
 40
1.905
 49
1.27
 74
     0
 49
-0.635
 74
     0
  0
LTYPE
  5
6F
330
5
100
AcDbSymbolTableRecord
100
AcDbLinetypeTableRecord
  2
PHANTOM
 70
     0
  3
Phantom ______  __  __  ______  __  __  ______
 72
    65
 73
     6
 40
12.7
 49
6.35
 74
     0
 49
-1.27
 74
     0
 49
1.27
 74
     0
 49
-1.27
 74
     0
 49
1.27
 74
     0
 49
-1.27
 74
     0
  0
LTYPE
  5
70
330
5
100
AcDbSymbolTableRecord
100
AcDbLinetypeTableRecord
  2
CENTER
 70
     0
  3
Center ____ _ ____ _ ____ _ ____ _ ____ _ ____
 72
    65
 73
     4
 40
10.16
 49
6.35
 74
     0
 49
-1.27
 74
     0
 49
1.27
 74
     0
 49
-1.27
 74
     0
  0
LTYPE
  5
71
330
5
100
AcDbSymbolTableRecord
100
AcDbLinetypeTableRecord
  2
CENTERX2
 70
     0
  3
Center (2x) ________  __  ________  __  _____
 72
    65
 73
     4
 40
20.32
 49
12.7
 74
     0
 49
-2.54
 74
     0
 49
2.54
 74
     0
 49
-2.54
 74
     0
  0
LTYPE
  5
72
330
5
100
AcDbSymbolTableRecord
100
AcDbLinetypeTableRecord
  2
DOT2
 70
     0
  3
Dot (.5x) ........................................
 72
    65
 73
     2
 40
0.635
 49
0.0
 74
     0
 49
-0.635
 74
     0
  0
ENDTAB
  0
TABLE
  2
LAYER
  5
2
330
0
100
AcDbSymbolTable
 70
     5
  0
LAYER
  5
10
330
2
100
AcDbSymbolTableRecord
100
AcDbLayerTableRecord
  2
0
 70
     0
 62
     7
  6
Continuous
370
    -3
390
F
  0
LAYER
  5
73
330
2
100
AcDbSymbolTableRecord
100
AcDbLayerTableRecord
  2
FORMAT
 70
     0
 62
     7
  6
Continuous
370
    -3
390
F
  0
LAYER
  5
74
330
2
100
AcDbSymbolTableRecord
100
AcDbLayerTableRecord
  2
VERMASSUNG
 70
     0
 62
     7
  6
Continuous
370
    -3
390
F
  0
LAYER
  5
75
330
2
100
AcDbSymbolTableRecord
100
AcDbLayerTableRecord
  2
KOPF_DÜNN
 70
     0
 62
     7
  6
Continuous
370
    -3
390
F
  0
LAYER
  5
76
330
2
100
AcDbSymbolTableRecord
100
AcDbLayerTableRecord
  2
KOPF_DICK
 70
     0
 62
     7
  6
Continuous
370
    15
390
F
  0
ENDTAB
  0
TABLE
  2
STYLE
  5
3
330
0
100
AcDbSymbolTable
 70
     2
  0
STYLE
  5
11
330
3
100
AcDbSymbolTableRecord
100
AcDbTextStyleTableRecord
  2
Standard
 70
     0
 40
0.0
 41
1.0
 50
0.0
 71
     0
 42
2.0
  3
txt
  4

  0
STYLE
  5
77
330
3
100
AcDbSymbolTableRecord
100
AcDbTextStyleTableRecord
  2
SLDTEXTSTYLE0
 70
     0
 40
0.0
 41
0.7
 50
0.0
 71
     0
 42
2.0
  3
TXT
  4

  0
ENDTAB
  0
TABLE
  2
VIEW
  5
6
330
0
100
AcDbSymbolTable
 70
     0
  0
ENDTAB
  0
TABLE
  2
UCS
  5
7
330
0
100
AcDbSymbolTable
 70
     0
  0
ENDTAB
  0
TABLE
  2
APPID
  5
9
330
0
100
AcDbSymbolTable
 70
     1
  0
APPID
  5
12
330
9
100
AcDbSymbolTableRecord
100
AcDbRegAppTableRecord
  2
ACAD
 70
     0
  0
ENDTAB
  0
TABLE
  2
DIMSTYLE
  5
A
330
0
100
AcDbSymbolTable
 70
     2
100
AcDbDimStyleTable
  0
DIMSTYLE
105
27
330
A
100
AcDbSymbolTableRecord
100
AcDbDimStyleTableRecord
  2
ISO-25
 70
     0
 41
2.5
 42
0.625
 43
3.75
 44
1.25
 73
     0
 74
     0
 77
     1
 78
     8
140
2.5
141
2.5
143
0.0393700787
147
0.625
171
     3
172
     1
178
     0
271
     2
272
     2
274
     3
278
    44
283
     0
284
     8
340
11
  0
DIMSTYLE
105
1D2
102
{ACAD_REACTORS
330
1D1
330
1DE
330
1E9
330
1F5
330
1FF
330
20B
102
}
330
A
100
AcDbSymbolTableRecord
100
AcDbDimStyleTableRecord
  2
SLDDIMSTYLE0
 70
     0
 41
3.0
 44
0.0
 45
0.000000001
 73
     0
 74
     0
 77
     1
 78
    12
 79
     3
140
2.0
147
0.5
173
     1
178
     0
271
     2
272
     3
276
     2
284
    12
340
77
  0
ENDTAB
  0
TABLE
  2
BLOCK_RECORD
  5
1
330
0
100
AcDbSymbolTable
 70
     7
  0
BLOCK_RECORD
  5
1F
330
1
100
AcDbSymbolTableRecord
100
AcDbBlockTableRecord
  2
*Model_Space
340
22
  0
BLOCK_RECORD
  5
1B
330
1
100
AcDbSymbolTableRecord
100
AcDbBlockTableRecord
  2
*Paper_Space
340
1E
  0
BLOCK_RECORD
  5
23
330
1
100
AcDbSymbolTableRecord
100
AcDbBlockTableRecord
  2
*Paper_Space0
340
26
  0
BLOCK_RECORD
  5
1D3
330
1
100
AcDbSymbolTableRecord
100
AcDbBlockTableRecord
  2
_D
340
0
  0
BLOCK_RECORD
  5
1DF
330
1
100
AcDbSymbolTableRecord
100
AcDbBlockTableRecord
  2
_D_1
340
0
  0
BLOCK_RECORD
  5
1EA
330
1
100
AcDbSymbolTableRecord
100
AcDbBlockTableRecord
  2
_D_2
340
0
  0
BLOCK_RECORD
  5
1F6
330
1
100
AcDbSymbolTableRecord
100
AcDbBlockTableRecord
  2
_D_3
340
0
  0
BLOCK_RECORD
  5
200
330
1
100
AcDbSymbolTableRecord
100
AcDbBlockTableRecord
  2
_D_4
340
0
  0
BLOCK_RECORD
  5
20C
330
1
100
AcDbSymbolTableRecord
100
AcDbBlockTableRecord
  2
_D_5
340
0
  0
ENDTAB
  0
ENDSEC
  0
SECTION
  2
BLOCKS
  0
BLOCK
  5
20
330
1F
100
AcDbEntity
  8
0
100
AcDbBlockBegin
  2
*Model_Space
 70
     0
 10
0.0
 20
0.0
 30
0.0
  3
*Model_Space
  1

  0
ENDBLK
  5
21
330
1F
100
AcDbEntity
  8
0
100
AcDbBlockEnd
  0
BLOCK
  5
1C
330
1B
100
AcDbEntity
 67
     1
  8
0
100
AcDbBlockBegin
  2
*Paper_Space
 70
     0
 10
0.0
 20
0.0
 30
0.0
  3
*Paper_Space
  1

  0
ENDBLK
  5
1D
330
1B
100
AcDbEntity
 67
     1
  8
0
100
AcDbBlockEnd
  0
BLOCK
  5
24
330
23
100
AcDbEntity
  8
0
100
AcDbBlockBegin
  2
*Paper_Space0
 70
     0
 10
0.0
 20
0.0
 30
0.0
  3
*Paper_Space0
  1

  0
ENDBLK
  5
25
330
23
100
AcDbEntity
  8
0
100
AcDbBlockEnd
  0
BLOCK
  5
1D4
330
1D3
100
AcDbEntity
  8
0
100
AcDbBlockBegin
  2
_D
 70
     0
 10
0.0
 20
0.0
 30
0.0
  3
_D
  1

  0
SOLID
  5
1D6
330
1D3
100
AcDbEntity
  8
VERMASSUNG
100
AcDbTrace
 10
93.0952638691
 20
77.2779436189
 30
0.0
 11
93.5452638691
 21
80.2779436189
 31
0.0
 12
92.6452638691
 22
80.2779436189
 32
0.0
 13
92.6452638691
 23
80.2779436189
 33
0.0
  0
SOLID
  5
1D7
330
1D3
100
AcDbEntity
  8
VERMASSUNG
100
AcDbTrace
 10
93.0952638691
 20
140.7779436189
 30
0.0
 11
92.6452638691
 21
137.7779436189
 31
0.0
 12
93.5452638691
 22
137.7779436189
 32
0.0
 13
93.5452638691
 23
137.7779436189
 33
0.0
  0
LINE
  5
1D8
330
1D3
100
AcDbEntity
  8
VERMASSUNG
100
AcDbLine
 10
185.4135051099
 20
77.2779436189
 30
0.0
 11
92.0952638691
 21
77.2779436189
 31
0.0
  0
LINE
  5
1D9
330
1D3
100
AcDbEntity
  8
VERMASSUNG
100
AcDbLine
 10
185.4135051099
 20
140.7779436189
 30
0.0
 11
92.0952638691
 21
140.7779436189
 31
0.0
  0
LINE
  5
1DA
330
1D3
100
AcDbEntity
  8
VERMASSUNG
100
AcDbLine
 10
93.0952638691
 20
77.2779436189
 30
0.0
 11
93.0952638691
 21
140.7779436189
 31
0.0
  0
MTEXT
  5
1DB
330
1D3
100
AcDbEntity
  8
VERMASSUNG
100
AcDbMText
 10
90.3171286129
 20
100.2250074706
 30
0.0
 40
2.0
 41
0.0
 71
     1
 72
     1
  1
ISO 40
  7
SLDTEXTSTYLE0
 11
3.391901413832837E-15
 21
1.0
 31
0.0
 73
     1
 44
1.0
  0
MTEXT
  5
1DC
330
1D3
100
AcDbEntity
  8
VERMASSUNG
100
AcDbMText
 10
90.5171285642
 20
109.4250076747
 30
0.0
 40
2.0
 41
0.0
 71
     1
 72
     1
  1
%%c
  7
SLDTEXTSTYLE0
 11
3.391901413832837E-15
 21
1.0
 31
0.0
 73
     1
 44
1.0
  0
MTEXT
  5
1DD
330
1D3
100
AcDbEntity
  8
VERMASSUNG
100
AcDbMText
 10
90.5171282731
 20
113.0328880061
 30
0.0
 40
2.0
 41
0.0
 71
     1
 72
     1
  1
63.5
  7
SLDTEXTSTYLE0
 11
3.391901413832837E-15
 21
1.0
 31
0.0
 73
     1
 44
1.0
  0
ENDBLK
  5
1D5
330
1D3
100
AcDbEntity
  8
0
100
AcDbBlockEnd
  0
BLOCK
  5
1E0
330
1DF
100
AcDbEntity
  8
0
100
AcDbBlockBegin
  2
_D_1
 70
     0
 10
0.0
 20
0.0
 30
0.0
  3
_D_1
  1

  0
SOLID
  5
1E2
330
1DF
100
AcDbEntity
  8
VERMASSUNG
100
AcDbTrace
 10
208.2647212108
 20
114.5279436189
 30
0.0
 11
207.8147212108
 21
111.5279436189
 31
0.0
 12
208.7147212108
 22
111.5279436189
 32
0.0
 13
208.7147212108
 23
111.5279436189
 33
0.0
  0
SOLID
  5
1E3
330
1DF
100
AcDbEntity
  8
VERMASSUNG
100
AcDbTrace
 10
208.2647212108
 20
103.5279436189
 30
0.0
 11
208.7147212108
 21
106.5279436189
 31
0.0
 12
207.8147212108
 22
106.5279436189
 32
0.0
 13
207.8147212108
 23
106.5279436189
 33
0.0
  0
LINE
  5
1E4
330
1DF
100
AcDbEntity
  8
VERMASSUNG
100
AcDbLine
 10
196.0635051099
 20
114.5279436189
 30
0.0
 11
209.2647212108
 21
114.5279436189
 31
0.0
  0
LINE
  5
1E5
330
1DF
100
AcDbEntity
  8
VERMASSUNG
100
AcDbLine
 10
196.0635051099
 20
103.5279436189
 30
0.0
 11
209.2647212108
 21
103.5279436189
 31
0.0
  0
LINE
  5
1E6
330
1DF
100
AcDbEntity
  8
VERMASSUNG
100
AcDbLine
 10
208.2647212108
 20
114.5279436189
 30
0.0
 11
208.2647212108
 21
103.5279436189
 31
0.0
  0
MTEXT
  5
1E7
330
1DF
100
AcDbEntity
  8
VERMASSUNG
100
AcDbMText
 10
205.686585673
 20
106.2241516518
 30
0.0
 40
2.0
 41
0.0
 71
     1
 72
     1
  1
%%c
  7
SLDTEXTSTYLE0
 11
-7.044195017643634E-15
 21
1.0
 31
0.0
 73
     1
 44
1.0
  0
MTEXT
  5
1E8
330
1DF
100
AcDbEntity
  8
VERMASSUNG
100
AcDbMText
 10
205.6865856148
 20
109.8331238455
 30
0.0
 40
2.0
 41
0.0
 71
     1
 72
     1
  1
11
  7
SLDTEXTSTYLE0
 11
-7.044195017643634E-15
 21
1.0
 31
0.0
 73
     1
 44
1.0
  0
ENDBLK
  5
1E1
330
1DF
100
AcDbEntity
  8
0
100
AcDbBlockEnd
  0
BLOCK
  5
1EB
330
1EA
100
AcDbEntity
  8
0
100
AcDbBlockBegin
  2
_D_2
 70
     0
 10
0.0
 20
0.0
 30
0.0
  3
_D_2
  1

  0
ARC
  5
1ED
330
1EA
100
AcDbEntity
  8
VERMASSUNG
100
AcDbCircle
 10
193.2999391984
 20
146.5615395822
 30
0.0
 40
4.247059938537361
100
AcDbArc
 50
153.4349488229
 51
206.5650511771
  0
ARC
  5
1EE
330
1EA
100
AcDbEntity
  8
VERMASSUNG
100
AcDbCircle
 10
194.6770710213
 20
146.5615395822
 30
0.0
 40
4.247059938537335
100
AcDbArc
 50
333.4349488229
 51
26.5650511771
  0
SOLID
  5
1EF
330
1EA
100
AcDbEntity
  8
VERMASSUNG
100
AcDbTrace
 10
186.0135051099
 20
144.6621966368
 30
0.0
 11
189.0135051099
 21
144.2121966368
 31
0.0
 12
189.0135051099
 22
145.1121966368
 32
0.0
 13
189.0135051099
 23
145.1121966368
 33
0.0
  0
SOLID
  5
1F0
330
1EA
100
AcDbEntity
  8
VERMASSUNG
100
AcDbTrace
 10
201.9635051099
 20
144.6621966368
 30
0.0
 11
198.9635051099
 21
145.1121966368
 31
0.0
 12
198.9635051099
 22
144.2121966368
 32
0.0
 13
198.9635051099
 23
144.2121966368
 33
0.0
  0
LINE
  5
1F1
330
1EA
100
AcDbEntity
  8
VERMASSUNG
100
AcDbLine
 10
186.0135051099
 20
139.0384947523
 30
0.0
 11
186.0135051099
 21
145.6621966368
 31
0.0
  0
LINE
  5
1F2
330
1EA
100
AcDbEntity
  8
VERMASSUNG
100
AcDbLine
 10
201.9635051099
 20
118.8279436189
 30
0.0
 11
201.9635051099
 21
145.6621966368
 31
0.0
  0
LINE
  5
1F3
330
1EA
100
AcDbEntity
  8
VERMASSUNG
100
AcDbLine
 10
186.0135051099
 20
144.6621966368
 30
0.0
 11
201.9635051099
 21
144.6621966368
 31
0.0
  0
MTEXT
  5
1F4
330
1EA
100
AcDbEntity
  8
VERMASSUNG
100
AcDbMText
 10
191.0887533076
 20
147.2403322327
 30
0.0
 40
2.0
 41
0.0
 71
     1
 72
     1
  1
15.95
  7
SLDTEXTSTYLE0
 73
     1
 44
1.0
  0
ENDBLK
  5
1EC
330
1EA
100
AcDbEntity
  8
0
100
AcDbBlockEnd
  0
BLOCK
  5
1F7
330
1F6
100
AcDbEntity
  8
0
100
AcDbBlockBegin
  2
_D_3
 70
     0
 10
0.0
 20
0.0
 30
0.0
  3
_D_3
  1

  0
SOLID
  5
1F9
330
1F6
100
AcDbEntity
  8
VERMASSUNG
100
AcDbTrace
 10
166.9635051099
 20
150.6621966368
 30
0.0
 11
169.9635051099
 21
150.2121966368
 31
0.0
 12
169.9635051099
 22
151.1121966368
 32
0.0
 13
169.9635051099
 23
151.1121966368
 33
0.0
  0
SOLID
  5
1FA
330
1F6
100
AcDbEntity
  8
VERMASSUNG
100
AcDbTrace
 10
201.9635051099
 20
150.6621966368
 30
0.0
 11
198.9635051099
 21
151.1121966368
 31
0.0
 12
198.9635051099
 22
150.2121966368
 32
0.0
 13
198.9635051099
 23
150.2121966368
 33
0.0
  0
LINE
  5
1FB
330
1F6
100
AcDbEntity
  8
VERMASSUNG
100
AcDbLine
 10
166.9635051099
 20
131.2529436189
 30
0.0
 11
166.9635051099
 21
151.6621966368
 31
0.0
  0
LINE
  5
1FC
330
1F6
100
AcDbEntity
  8
VERMASSUNG
100
AcDbLine
 10
201.9635051099
 20
118.8279436189
 30
0.0
 11
201.9635051099
 21
151.6621966368
 31
0.0
  0
LINE
  5
1FD
330
1F6
100
AcDbEntity
  8
VERMASSUNG
100
AcDbLine
 10
166.9635051099
 20
150.6621966368
 30
0.0
 11
201.9635051099
 21
150.6621966368
 31
0.0
  0
MTEXT
  5
1FE
330
1F6
100
AcDbEntity
  8
VERMASSUNG
100
AcDbMText
 10
183.0638150996
 20
153.2403322327
 30
0.0
 40
2.0
 41
0.0
 71
     1
 72
     1
  1
35
  7
SLDTEXTSTYLE0
 73
     1
 44
1.0
  0
ENDBLK
  5
1F8
330
1F6
100
AcDbEntity
  8
0
100
AcDbBlockEnd
  0
BLOCK
  5
201
330
200
100
AcDbEntity
  8
0
100
AcDbBlockBegin
  2
_D_4
 70
     0
 10
0.0
 20
0.0
 30
0.0
  3
_D_4
  1

  0
ARC
  5
203
330
200
100
AcDbEntity
  8
VERMASSUNG
100
AcDbCircle
 10
148.9506456866
 20
158.5615395822
 30
0.0
 40
4.247059938537297
100
AcDbArc
 50
153.4349488229
 51
206.5650511771
  0
ARC
  5
204
330
200
100
AcDbEntity
  8
VERMASSUNG
100
AcDbCircle
 10
151.7263645331
 20
158.5615395822
 30
0.0
 40
4.247059938537297
100
AcDbArc
 50
333.4349488229
 51
26.5650511771
  0
SOLID
  5
205
330
200
100
AcDbEntity
  8
VERMASSUNG
100
AcDbTrace
 10
98.7135051099
 20
156.6621966368
 30
0.0
 11
101.7135051099
 21
156.2121966368
 31
0.0
 12
101.7135051099
 22
157.1121966368
 32
0.0
 13
101.7135051099
 23
157.1121966368
 33
0.0
  0
SOLID
  5
206
330
200
100
AcDbEntity
  8
VERMASSUNG
100
AcDbTrace
 10
201.9635051099
 20
156.6621966368
 30
0.0
 11
198.9635051099
 21
157.1121966368
 31
0.0
 12
198.9635051099
 22
156.2121966368
 32
0.0
 13
198.9635051099
 23
156.2121966368
 33
0.0
  0
LINE
  5
207
330
200
100
AcDbEntity
  8
VERMASSUNG
100
AcDbLine
 10
98.7135051099
 20
120.4350742159
 30
0.0
 11
98.7135051099
 21
157.6621966368
 31
0.0
  0
LINE
  5
208
330
200
100
AcDbEntity
  8
VERMASSUNG
100
AcDbLine
 10
201.9635051099
 20
118.8279436189
 30
0.0
 11
201.9635051099
 21
157.6621966368
 31
0.0
  0
LINE
  5
209
330
200
100
AcDbEntity
  8
VERMASSUNG
100
AcDbLine
 10
98.7135051099
 20
156.6621966368
 30
0.0
 11
201.9635051099
 21
156.6621966368
 31
0.0
  0
MTEXT
  5
20A
330
200
100
AcDbEntity
  8
VERMASSUNG
100
AcDbMText
 10
146.7394597958
 20
159.2403322327
 30
0.0
 40
2.0
 41
0.0
 71
     1
 72
     1
  1
103.25
  7
SLDTEXTSTYLE0
 73
     1
 44
1.0
  0
ENDBLK
  5
202
330
200
100
AcDbEntity
  8
0
100
AcDbBlockEnd
  0
BLOCK
  5
20D
330
20C
100
AcDbEntity
  8
0
100
AcDbBlockBegin
  2
_D_5
 70
     0
 10
0.0
 20
0.0
 30
0.0
  3
_D_5
  1

  0
SOLID
  5
20F
330
20C
100
AcDbEntity
  8
VERMASSUNG
100
AcDbTrace
 10
214.2647212108
 20
119.0279436189
 30
0.0
 11
213.8147212108
 21
116.0279436189
 31
0.0
 12
214.7147212108
 22
116.0279436189
 32
0.0
 13
214.7147212108
 23
116.0279436189
 33
0.0
  0
SOLID
  5
210
330
20C
100
AcDbEntity
  8
VERMASSUNG
100
AcDbTrace
 10
214.2647212108
 20
99.0279436189
 30
0.0
 11
214.7147212108
 21
102.0279436189
 31
0.0
 12
213.8147212108
 22
102.0279436189
 32
0.0
 13
213.8147212108
 23
102.0279436189
 33
0.0
  0
LINE
  5
211
330
20C
100
AcDbEntity
  8
VERMASSUNG
100
AcDbLine
 10
201.7635051099
 20
119.0279436189
 30
0.0
 11
215.2647212108
 21
119.0279436189
 31
0.0
  0
LINE
  5
212
330
20C
100
AcDbEntity
  8
VERMASSUNG
100
AcDbLine
 10
201.7635051099
 20
99.0279436189
 30
0.0
 11
215.2647212108
 21
99.0279436189
 31
0.0
  0
LINE
  5
213
330
20C
100
AcDbEntity
  8
VERMASSUNG
100
AcDbLine
 10
214.2647212108
 20
119.0279436189
 30
0.0
 11
214.2647212108
 21
99.0279436189
 31
0.0
  0
MTEXT
  5
214
330
20C
100
AcDbEntity
  8
VERMASSUNG
100
AcDbMText
 10
211.4865859546
 20
103.1229440573
 30
0.0
 40
2.0
 41
0.0
 71
     1
 72
     1
  1
ST1
  7
SLDTEXTSTYLE0
 11
-7.044195017643634E-15
 21
1.0
 31
0.0
 73
     1
 44
1.0
  0
MTEXT
  5
215
330
20C
100
AcDbEntity
  8
VERMASSUNG
100
AcDbMText
 10
211.6865859059
 20
108.5229441974
 30
0.0
 40
2.0
 41
0.0
 71
     1
 72
     1
  1
%%c
  7
SLDTEXTSTYLE0
 11
-7.044195017643634E-15
 21
1.0
 31
0.0
 73
     1
 44
1.0
  0
MTEXT
  5
216
330
20C
100
AcDbEntity
  8
VERMASSUNG
100
AcDbMText
 10
211.4865859546
 20
112.1329442117
 30
0.0
 40
2.0
 41
0.0
 71
     1
 72
     1
  1
20
  7
SLDTEXTSTYLE0
 11
-7.044195017643634E-15
 21
1.0
 31
0.0
 73
     1
 44
1.0
  0
ENDBLK
  5
20E
330
20C
100
AcDbEntity
  8
0
100
AcDbBlockEnd
  0
ENDSEC
  0
SECTION
  2
ENTITIES
  0
MTEXT
  5
78
330
1F
100
AcDbEntity
  8
KOPF_DÜNN
100
AcDbMText
 10
13.8892156294
 20
23.8442973028
 30
0.0
 40
3.0
 41
0.0
 71
     1
 72
     1
  1
124.440.020.035
  7
SLDTEXTSTYLE0
 73
     1
 44
1.0
  0
MTEXT
  5
79
330
1F
100
AcDbEntity
  8
VERMASSUNG
100
AcDbMText
 10
13.9329988022
 20
28.8834360957
 30
0.0
 40
3.0
 41
0.0
 71
     1
 72
     1
  1
Aufnahme_Master shank ST1
  7
SLDTEXTSTYLE0
 73
     1
 44
1.0
  0
MTEXT
  5
7A
330
1F
100
AcDbEntity
  8
VERMASSUNG
100
AcDbMText
 10
98.8601118557
 20
13.8365368761
 30
0.0
 40
2.0
 41
0.0
 71
     1
 72
     1
  1
Datum: 14.05.2008
  7
SLDTEXTSTYLE0
 73
     1
 44
1.0
  0
MTEXT
  5
7B
330
1F
100
AcDbEntity
  8
VERMASSUNG
100
AcDbMText
 10
13.933048693
 20
18.0482802738
 30
0.0
 40
2.0
 41
0.0
 71
     1
 72
     1
  1
DIN 69871 B ISO 40
  7
SLDTEXTSTYLE0
 73
     1
 44
1.0
  0
MTEXT
  5
7C
330
1F
100
AcDbEntity
  8
VERMASSUNG
100
AcDbMText
 10
13.9808475933
 20
13.9090974274
 30
0.0
 40
2.0
 41
0.0
 71
     1
 72
     1
  1
Gewicht: 853g
  7
SLDTEXTSTYLE0
 73
     1
 44
1.0
  0
ARC
  5
7D
330
1F
100
AcDbEntity
  8
0
  6
Continuous
 62
     7
370
    15
100
AcDbCircle
 10
179.9635051099
 20
100.3064299641
 30
0.0
 40
1.50000000000003
100
AcDbArc
 50
191.5274417162
 51
336.6722113243
  0
ARC
  5
7E
330
1F
100
AcDbEntity
  8
0
  6
Continuous
 62
     7
370
    15
100
AcDbCircle
 10
169.5635051099
 20
86.2029436189
 30
0.0
 40
0.6000000000000227
100
AcDbArc
 50
0.0
 51
90.0
  0
ARC
  5
7F
330
1F
100
AcDbEntity
  8
0
  6
Continuous
 62
     7
370
    15
100
AcDbCircle
 10
169.5635051099
 20
131.8529436189
 30
0.0
 40
0.6000000000000227
100
AcDbArc
 50
270.0
 51
0.0
  0
LINE
  5
80
330
1F
100
AcDbEntity
  8
0
  6
Continuous
 62
     7
370
    15
100
AcDbLine
 10
166.9635051099
 20
86.8029436547
 30
0.0
 11
169.563505117
 21
86.8029436547
 31
0.0
  0
LINE
  5
81
330
1F
100
AcDbEntity
  8
0
  6
Continuous
 62
     7
370
    15
100
AcDbLine
 10
169.563505117
 20
131.2529435831
 30
0.0
 11
166.9635051099
 21
131.2529435831
 31
0.0
  0
LINE
  5
82
330
1F
100
AcDbEntity
  8
0
  6
Continuous
 62
     7
370
    15
100
AcDbLine
 10
166.9635051099
 20
131.2529435831
 30
0.0
 11
99.569196364
 21
121.4246070462
 31
0.0
  0
LINE
  5
83
330
1F
100
AcDbEntity
  8
0
  6
Continuous
 62
     7
370
    15
100
AcDbLine
 10
99.569196364
 20
96.6312801915
 30
0.0
 11
166.9635051099
 21
86.8029436547
 31
0.0
  0
ARC
  5
84
330
1F
100
AcDbEntity
  8
0
  6
Continuous
 62
     7
370
    15
100
AcDbCircle
 10
190.0135051099
 20
95.0279436189
 30
0.0
 40
4.000000000000014
100
AcDbArc
 50
90.0
 51
180.0
  0
ARC
  5
85
330
1F
100
AcDbEntity
  8
0
  6
Continuous
 62
     7
370
    15
100
AcDbCircle
 10
190.0135051099
 20
123.0279436189
 30
0.0
 40
4.0
100
AcDbArc
 50
180.0
 51
270.0
  0
ARC
  5
86
330
1F
100
AcDbEntity
  8
0
  6
Continuous
 62
     7
370
    15
100
AcDbCircle
 10
99.7135051099
 20
97.6208130219
 30
0.0
 40
1.0
100
AcDbArc
 50
180.0
 51
261.7028550302
  0
ARC
  5
87
330
1F
100
AcDbEntity
  8
0
  6
Continuous
 62
     7
370
    15
100
AcDbCircle
 10
99.7135051099
 20
120.4350742159
 30
0.0
 40
1.0
100
AcDbArc
 50
98.2971449698
 51
180.0
  0
LINE
  5
88
330
1F
100
AcDbEntity
  8
0
  6
Continuous
 62
     7
370
    15
100
AcDbLine
 10
201.7635055986
 20
99.0279438424
 30
0.0
 11
201.9635052589
 21
99.2279435027
 31
0.0
  0
LINE
  5
89
330
1F
100
AcDbEntity
  8
0
  6
Continuous
 62
     7
370
    15
100
AcDbLine
 10
201.9635052589
 20
118.8279437351
 30
0.0
 11
201.7635055986
 21
119.0279433954
 31
0.0
  0
LINE
  5
8A
330
1F
100
AcDbEntity
  8
0
  6
Continuous
 62
     7
370
    15
100
AcDbLine
 10
201.7635055986
 20
119.0279433954
 30
0.0
 11
190.013506001
 21
119.0279433954
 31
0.0
  0
LINE
  5
8B
330
1F
100
AcDbEntity
  8
0
  6
Continuous
 62
     7
370
    15
100
AcDbLine
 10
190.013506001
 20
99.0279438424
 30
0.0
 11
201.7635055986
 21
99.0279438424
 31
0.0
  0
ARC
  5
8C
330
1F
100
AcDbEntity
  8
0
  6
Continuous
 62
     7
370
    15
100
AcDbCircle
 10
179.8507923375
 20
99.7946836124
 30
0.0
 40
1.889954240935941
100
AcDbArc
 50
185.4597968384
 51
252.4043794375
  0
ARC
  5
8D
330
1F
100
AcDbEntity
  8
0
  6
Continuous
 62
     7
370
    15
100
AcDbCircle
 10
179.968937966
 20
99.9152524526
 30
0.0
 40
2.042018325355363
100
AcDbArc
 50
250.266662413
 51
332.0177325316
  0
ARC
  5
8E
330
1F
100
AcDbEntity
  8
0
  6
Continuous
 62
     7
370
    15
100
AcDbCircle
 10
179.8322527853
 20
99.7312159528
 30
0.0
 40
1.762004641978171
100
AcDbArc
 50
161.4309259517
 51
252.8834751722
  0
ARC
  5
8F
330
1F
100
AcDbEntity
  8
0
  6
Continuous
 62
     7
370
    15
100
AcDbCircle
 10
179.9703310219
 20
99.8638795948
 30
0.0
 40
1.931667061840274
100
AcDbArc
 50
250.1263571657
 51
335.4254782804
  0
ARC
  5
90
330
1F
100
AcDbEntity
  8
0
  6
Continuous
 62
     7
370
    15
100
AcDbCircle
 10
179.8849187596
 20
99.7336991309
 30
0.0
 40
1.402234377684141
100
AcDbArc
 50
87.3810097744
 51
251.9514731533
  0
ARC
  5
91
330
1F
100
AcDbEntity
  8
0
  6
Continuous
 62
     7
370
    15
100
AcDbCircle
 10
179.9753143302
 20
99.8045535689
 30
0.0
 40
1.49897564484451
100
AcDbArc
 50
249.504617996
 51
349.6008519217
  0
SPLINE
  5
92
330
1F
100
AcDbEntity
  8
0
  6
Continuous
 62
     7
370
    15
100
AcDbSpline
210
0.0
220
0.0
230
1.0
 70
     8
 71
     3
 72
    11
 73
     7
 74
     0
 42
0.000000001
 43
0.00000001
 40
0.0
 40
0.0
 40
0.0
 40
0.0
 40
0.1208914486062039
 40
0.4766710168820986
 40
0.8143668273948695
 40
1.0
 40
1.0
 40
1.0
 40
1.0
 10
195.7716779020704
 20
109.1998812639579
 30
0.0
 10
195.7989195431913
 20
109.2340510847188
 30
0.0
 10
195.9063324406655
 20
109.3687815672845
 30
0.0
 10
196.1089022826998
 20
109.6228729552363
 30
0.0
 10
196.3308871679104
 20
109.901310012478
 30
0.0
 10
196.449440595156
 20
110.0500159853628
 30
0.0
 10
196.4914933947004
 20
110.1027643758064
 30
0.0
  0
SPLINE
  5
93
330
1F
100
AcDbEntity
  8
0
  6
Continuous
 62
     7
370
    15
100
AcDbSpline
210
0.0
220
0.0
230
1.0
 70
     8
 71
     3
 72
    10
 73
     6
 74
     0
 42
0.000000001
 43
0.00000001
 40
0.0
 40
0.0
 40
0.0
 40
0.0
 40
0.4391049668774905
 40
0.7513581118568008
 40
1.0
 40
1.0
 40
1.0
 40
1.0
 10
196.1936881003059
 20
108.1250605507014
 30
0.0
 10
196.1332763142754
 20
108.2789252123603
 30
0.0
 10
196.029904936337
 20
108.5422049982568
 30
0.0
 10
195.8796305779235
 20
108.9249334502404
 30
0.0
 10
195.8048345826974
 20
109.1154335485446
 30
0.0
 10
195.7716779020704
 20
109.1998812639579
 30
0.0
  0
SPLINE
  5
94
330
1F
100
AcDbEntity
  8
0
  6
Continuous
 62
     7
370
    15
100
AcDbSpline
210
0.0
220
0.0
230
1.0
 70
     8
 71
     3
 72
    10
 73
     6
 74
     0
 42
0.000000001
 43
0.00000001
 40
0.0
 40
0.0
 40
0.0
 40
0.0
 40
0.4391049952129418
 40
0.7513581678845814
 40
1.0
 40
1.0
 40
1.0
 40
1.0
 10
197.3355175164617
 20
107.9531228619819
 30
0.0
 10
197.1720604938095
 20
107.9777364062293
 30
0.0
 10
196.8923670938102
 20
108.0198529562855
 30
0.0
 10
196.4857769432128
 20
108.0810774522426
 30
0.0
 10
196.283400515764
 20
108.1115515444593
 30
0.0
 10
196.1936881003059
 20
108.1250605507014
 30
0.0
  0
SPLINE
  5
95
330
1F
100
AcDbEntity
  8
0
  6
Continuous
 62
     7
370
    15
100
AcDbSpline
210
0.0
220
0.0
230
1.0
 70
     8
 71
     3
 72
    11
 73
     7
 74
     0
 42
0.000000001
 43
0.00000001
 40
0.0
 40
0.0
 40
0.0
 40
0.0
 40
0.185634064646153
 40
0.5233289442917786
 40
0.8791085175606504
 40
1.0
 40
1.0
 40
1.0
 40
1.0
 10
198.0553330090917
 20
108.8560059738304
 30
0.0
 10
198.0132794599503
 20
108.8032576853344
 30
0.0
 10
197.8947244979726
 20
108.6545527254746
 30
0.0
 10
197.6727424048676
 20
108.3761137505454
 30
0.0
 10
197.4701719747634
 20
108.1220232535188
 30
0.0
 10
197.3627591456502
 20
107.9872927059965
 30
0.0
 10
197.3355175164617
 20
107.9531228619819
 30
0.0
  0
SPLINE
  5
96
330
1F
100
AcDbEntity
  8
0
  6
Continuous
 62
     7
370
    15
100
AcDbSpline
210
0.0
220
0.0
230
1.0
 70
     8
 71
     3
 72
    10
 73
     6
 74
     0
 42
0.000000001
 43
0.00000001
 40
0.0
 40
0.0
 40
0.0
 40
0.0
 40
0.4391052713728844
 40
0.7513582468380454
 40
1.0
 40
1.0
 40
1.0
 40
1.0
 10
197.633320948211
 20
109.9308266870869
 30
0.0
 10
197.6937335222544
 20
109.7769620902024
 30
0.0
 10
197.7971061954593
 20
109.5136825504142
 30
0.0
 10
197.947380283893
 20
109.1309537707123
 30
0.0
 10
198.0221763133086
 20
108.9404536840728
 30
0.0
 10
198.0553330090917
 20
108.8560059738304
 30
0.0
  0
SPLINE
  5
97
330
1F
100
AcDbEntity
  8
0
  6
Continuous
 62
     7
370
    15
100
AcDbSpline
210
0.0
220
0.0
230
1.0
 70
     8
 71
     3
 72
    10
 73
     6
 74
     0
 42
0.000000001
 43
0.00000001
 40
0.0
 40
0.0
 40
0.0
 40
0.0
 40
0.4391056646966338
 40
0.7513577887915318
 40
1.0
 40
1.0
 40
1.0
 40
1.0
 10
196.4914933947004
 20
110.1027643758064
 30
0.0
 10
196.6549504262186
 20
110.0781508823506
 30
0.0
 10
196.9346432738361
 20
110.0360345046669
 30
0.0
 10
197.3412326513859
 20
109.9748096344446
 30
0.0
 10
197.5436085315158
 20
109.944335672362
 30
0.0
 10
197.633320948211
 20
109.9308266870869
 30
0.0
  0
CIRCLE
  5
98
330
1F
100
AcDbEntity
  8
0
  6
Continuous
 62
     7
370
    15
100
AcDbCircle
 10
196.9135051099
 20
109.0279436189
 30
0.0
 40
1.250000000000007
  0
CIRCLE
  5
99
330
1F
100
AcDbEntity
  8
0
  6
Continuous
 62
     7
370
    15
100
AcDbCircle
 10
196.9135051099
 20
109.0279436189
 30
0.0
 40
1.74999999999999
  0
CIRCLE
  5
9A
330
1F
100
AcDbEntity
  8
0
  6
Continuous
 62
     7
370
    15
100
AcDbCircle
 10
196.9135051099
 20
109.0279436189
 30
0.0
 40
2.000000000000004
  0
ARC
  5
9B
330
1F
100
AcDbEntity
  8
0
  6
Continuous
 62
     7
370
    15
100
AcDbCircle
 10
196.9135051099
 20
109.0279436189
 30
0.0
 40
1.000000000000007
100
AcDbArc
 50
21.4366771135
 51
81.4366771135
  0
ARC
  5
9C
330
1F
100
AcDbEntity
  8
0
  6
Continuous
 62
     7
370
    15
100
AcDbCircle
 10
196.9135051099
 20
109.0279436189
 30
0.0
 40
1.000000000000004
100
AcDbArc
 50
201.4366771135
 51
261.4366771135
  0
ARC
  5
9D
330
1F
100
AcDbEntity
  8
0
  6
Continuous
 62
     7
370
    15
100
AcDbCircle
 10
196.9135051099
 20
109.0279436189
 30
0.0
 40
1.000000000000004
100
AcDbArc
 50
261.4366771135
 51
321.4366771135
  0
ARC
  5
9E
330
1F
100
AcDbEntity
  8
0
  6
Continuous
 62
     7
370
    15
100
AcDbCircle
 10
196.9135051099
 20
109.0279436189
 30
0.0
 40
1.000000000000007
100
AcDbArc
 50
321.4366771135
 51
21.4366771135
  0
ARC
  5
9F
330
1F
100
AcDbEntity
  8
0
  6
Continuous
 62
     7
370
    15
100
AcDbCircle
 10
196.9135051099
 20
109.0279436189
 30
0.0
 40
1.000000000000002
100
AcDbArc
 50
141.4366771135
 51
201.4366771135
  0
ARC
  5
A0
330
1F
100
AcDbEntity
  8
0
  6
Continuous
 62
     7
370
    15
100
AcDbCircle
 10
196.9135051099
 20
109.0279436189
 30
0.0
 40
1.000000000000004
100
AcDbArc
 50
81.4366771135
 51
141.4366771135
  0
LINE
  5
A1
330
1F
100
AcDbEntity
  8
0
  6
Continuous
 62
     7
370
    15
100
AcDbLine
 10
181.5853421745
 20
99.2759233791
 30
0.0
 11
181.5853421745
 21
127.3779431808
 31
0.0
  0
LINE
  5
A2
330
1F
100
AcDbEntity
  8
0
  6
Continuous
 62
     7
370
    15
100
AcDbLine
 10
185.4135045019
 20
127.3779431808
 30
0.0
 11
181.5853421745
 21
127.3779431808
 31
0.0
  0
LINE
  5
A3
330
1F
100
AcDbEntity
  8
0
  6
Continuous
 62
     7
370
    15
100
AcDbLine
 10
181.5853421745
 20
78.5798514712
 30
0.0
 11
185.4135045019
 21
78.5798514712
 31
0.0
  0
LINE
  5
A4
330
1F
100
AcDbEntity
  8
0
  6
Continuous
 62
     7
370
    15
100
AcDbLine
 10
181.5853421745
 20
78.5798514712
 30
0.0
 11
181.5853421745
 21
97.0764440003
 31
0.0
  0
SPLINE
  5
A5
330
1F
100
AcDbEntity
  8
0
  6
Continuous
 62
     7
370
    15
100
AcDbSpline
210
0.0
220
0.0
230
1.0
 70
     8
 71
     3
 72
    12
 73
     8
 74
     0
 42
0.000000001
 43
0.00000001
 40
0.0
 40
0.0
 40
0.0
 40
0.0
 40
0.2499999999999997
 40
0.2499999999999997
 40
0.4999999999999993
 40
0.4999999999999993
 40
1.0
 40
1.0
 40
1.0
 40
1.0
 10
181.5853417519308
 20
97.07644382068713
 30
0.0
 10
181.7082892457263
 20
97.23440066938221
 30
0.0
 10
181.8018334488352
 20
97.40623403635975
 30
0.0
 10
181.9307728379974
 20
97.77790674600557
 30
0.0
 10
181.9633255953826
 20
97.97109519219683
 30
0.0
 10
181.9638619371164
 20
98.55939173047305
 30
0.0
 10
181.8312382801484
 20
98.95140996836177
 30
0.0
 10
181.5853417519308
 20
99.27592355107045
 30
0.0
  0
LINE
  5
A6
330
1F
100
AcDbEntity
  8
0
  6
Continuous
 62
     7
370
    15
100
AcDbLine
 10
170.7635051739
 20
78.5798514712
 30
0.0
 11
174.5416685176
 21
78.5798514712
 31
0.0
  0
LINE
  5
A7
330
1F
100
AcDbEntity
  8
0
  6
Continuous
 62
     7
370
    15
100
AcDbLine
 10
174.5416685176
 20
127.3779431808
 30
0.0
 11
170.7635051739
 21
127.3779431808
 31
0.0
  0
LINE
  5
A8
330
1F
100
AcDbEntity
  8
0
  6
Continuous
 62
     7
370
    15
100
AcDbLine
 10
174.5416685176
 20
78.5798514712
 30
0.0
 11
174.5416685176
 21
127.3779431808
 31
0.0
  0
SPLINE
  5
A9
330
1F
100
AcDbEntity
  8
0
  6
Continuous
 62
     7
370
    15
100
AcDbSpline
210
0.0
220
0.0
230
1.0
 70
     8
 71
     3
 72
     8
 73
     4
 74
     0
 42
0.000000001
 43
0.00000001
 40
0.0
 40
0.0
 40
0.0
 40
0.0
 40
1.0
 40
1.0
 40
1.0
 40
1.0
 10
176.1535051098741
 20
81.2111171593927
 30
0.0
 10
175.7693703612897
 20
80.51847573744851
 30
0.0
 10
175.3843840847968
 20
79.82628956312479
 30
0.0
 10
174.9987155061704
 20
79.13449527228062
 30
0.0
  0
SPLINE
  5
AA
330
1F
100
AcDbEntity
  8
0
  6
Continuous
 62
     7
370
    15
100
AcDbSpline
210
0.0
220
0.0
230
1.0
 70
     8
 71
     3
 72
     8
 73
     4
 74
     0
 42
0.000000001
 43
0.00000001
 40
0.0
 40
0.0
 40
0.0
 40
0.0
 40
0.0011901715795577
 40
0.0011901715795577
 40
0.0011901715795577
 40
0.0011901715795577
 10
174.5416684678174
 20
78.57985127025748
 30
0.0
 10
174.6955146573133
 20
78.76441650794105
 30
0.0
 10
174.8479099249859
 20
78.94929186846969
 30
0.0
 10
174.9987155061704
 20
79.13449527228062
 30
0.0
  0
SPLINE
  5
AB
330
1F
100
AcDbEntity
  8
0
  6
Continuous
 62
     7
370
    15
100
AcDbSpline
210
0.0
220
0.0
230
1.0
 70
    24
 71
     3
 72
     8
 73
     4
 74
     0
 42
0.000000001
 43
0.00000001
 40
0.0
 40
0.0
 40
0.0
 40
0.0
 40
1.0
 40
1.0
 40
1.0
 40
1.0
 10
176.1535051098741
 20
127.3779436188942
 30
0.0
 10
175.6287726215122
 20
127.3779436188942
 30
0.0
 10
175.0900971372934
 20
127.3779436188942
 30
0.0
 10
174.5416684678174
 20
127.3779436188942
 30
0.0
  0
LINE
  5
AC
330
1F
100
AcDbEntity
  8
0
  6
Continuous
 62
     7
370
    15
100
AcDbLine
 10
176.1535047722
 20
81.2111171412
 30
0.0
 11
176.1535047722
 21
127.3779431808
 31
0.0
  0
SPLINE
  5
AD
330
1F
100
AcDbEntity
  8
0
  6
Continuous
 62
     7
370
    15
100
AcDbSpline
210
0.0
220
0.0
230
1.0
 70
     8
 71
     3
 72
    12
 73
     8
 74
     0
 42
0.000000001
 43
0.00000001
 40
0.0
 40
0.0
 40
0.0
 40
0.0
 40
0.250000000000001
 40
0.250000000000001
 40
0.500000000000002
 40
0.500000000000002
 40
1.0
 40
1.0
 40
1.0
 40
1.0
 10
185.4135051098741
 20
78.57985127025748
 30
0.0
 10
185.5090470200101
 20
78.57985127025748
 30
0.0
 10
185.6011919618729
 20
78.59610493945368
 30
0.0
 10
185.7575182384827
 20
78.64971336036716
 30
0.0
 10
185.8211863811027
 20
78.68612448564885
 30
0.0
 10
185.9700542265331
 20
78.80824812533534
 30
0.0
 10
186.0135051098741
 20
78.90340080077237
 30
0.0
 10
186.0135051098741
 20
78.99902725639204
 30
0.0
  0
SPLINE
  5
AE
330
1F
100
AcDbEntity
  8
0
  6
Continuous
 62
     7
370
    15
100
AcDbSpline
210
0.0
220
0.0
230
1.0
 70
    24
 71
     3
 72
    12
 73
     8
 74
     0
 42
0.000000001
 43
0.00000001
 40
0.0
 40
0.0
 40
0.0
 40
0.0
 40
0.4999999999999971
 40
0.4999999999999971
 40
0.7499999999999986
 40
0.7499999999999986
 40
1.0
 40
1.0
 40
1.0
 40
1.0
 10
186.0135051098741
 20
127.3779436188942
 30
0.0
 10
186.0135051098741
 20
127.3779436188942
 30
0.0
 10
185.963334271618
 20
127.3779436188942
 30
0.0
 10
185.8080554093923
 20
127.3779436188942
 30
0.0
 10
185.7421262517078
 20
127.3779436188942
 30
0.0
 10
185.5894460763051
 20
127.3779436188942
 30
0.0
 10
185.5024291147791
 20
127.3779436188942
 30
0.0
 10
185.4135051098741
 20
127.3779436188942
 30
0.0
  0
LINE
  5
AF
330
1F
100
AcDbEntity
  8
0
  6
Continuous
 62
     7
370
    15
100
AcDbLine
 10
186.0135053453
 20
78.9990267235
 30
0.0
 11
186.0135053453
 21
127.3779431808
 31
0.0
  0
LINE
  5
B0
330
1F
100
AcDbEntity
  8
0
  6
Continuous
 62
     7
370
    15
100
AcDbLine
 10
179.9735049886
 20
101.0266608077
 30
0.0
 11
179.9735049886
 21
127.3779431808
 31
0.0
  0
SPLINE
  5
B1
330
1F
100
AcDbEntity
  8
0
  6
Continuous
 62
     7
370
    15
100
AcDbSpline
210
0.0
220
0.0
230
1.0
 70
    24
 71
     3
 72
     8
 73
     4
 74
     0
 42
0.000000001
 43
0.00000001
 40
0.0
 40
0.0
 40
0.0
 40
0.0
 40
1.0
 40
1.0
 40
1.0
 40
1.0
 10
181.5853417519308
 20
127.3779436188942
 30
0.0
 10
181.0369130824548
 20
127.3779436188942
 30
0.0
 10
180.498237598236
 20
127.3779436188942
 30
0.0
 10
179.9735051098741
 20
127.3779436188942
 30
0.0
  0
SPLINE
  5
B2
330
1F
100
AcDbEntity
  8
0
  6
Continuous
 62
     7
370
    15
100
AcDbSpline
210
0.0
220
0.0
230
1.0
 70
     8
 71
     3
 72
    12
 73
     8
 74
     0
 42
0.000000001
 43
0.00000001
 40
0.0
 40
0.0
 40
0.0
 40
0.0
 40
0.2499999999999994
 40
0.2499999999999994
 40
0.4999999999999989
 40
0.4999999999999989
 40
1.0
 40
1.0
 40
1.0
 40
1.0
 10
181.5853417519308
 20
99.27592355107045
 30
0.0
 10
181.4704457006702
 20
99.49566398612701
 30
0.0
 10
181.3436796841975
 20
99.69263233774875
 30
0.0
 10
181.083464750579
 20
100.0463499105877
 30
0.0
 10
180.9499572926167
 20
100.2031752044599
 30
0.0
 10
180.5415590240285
 20
100.6297177753676
 30
0.0
 10
180.257905889091
 20
100.8564099543228
 30
0.0
 10
179.9735051098742
 20
101.0266610987183
 30
0.0
  0
SPLINE
  5
B3
330
1F
100
AcDbEntity
  8
0
  6
Continuous
 62
     7
370
    15
100
AcDbSpline
210
0.0
220
0.0
230
1.0
 70
     8
 71
     3
 72
    10
 73
     6
 74
     0
 42
0.000000001
 43
0.00000001
 40
0.0
 40
0.0
 40
0.0
 40
0.0
 40
0.5
 40
0.5
 40
1.0
 40
1.0
 40
1.0
 40
1.0
 10
170.3796496512213
 20
78.67621376942593
 30
0.0
 10
170.4284196242027
 20
78.64798576221793
 30
0.0
 10
170.4858717475049
 20
78.62389115797633
 30
0.0
 10
170.6164686504937
 20
78.58962768488377
 30
0.0
 10
170.6889583303359
 20
78.57985127025746
 30
0.0
 10
170.7635051098741
 20
78.57985127025746
 30
0.0
  0
SPLINE
  5
B4
330
1F
100
AcDbEntity
  8
0
  6
Continuous
 62
     7
370
    15
100
AcDbSpline
210
0.0
220
0.0
230
1.0
 70
     8
 71
     3
 72
    10
 73
     6
 74
     0
 42
0.000000001
 43
0.00000001
 40
0.0
 40
0.0
 40
0.0
 40
0.0
 40
0.5
 40
0.5
 40
1.0
 40
1.0
 40
1.0
 40
1.0
 10
170.3796496512213
 20
78.67621376942593
 30
0.0
 10
170.3215269911452
 20
78.74351892928773
 30
0.0
 10
170.2691238251417
 20
78.82360431632138
 30
0.0
 10
170.1902208035953
 20
79.00762375801015
 30
0.0
 10
170.1635051098741
 20
79.1128351154306
 30
0.0
 10
170.1635051098741
 20
79.22156846189127
 30
0.0
  0
LINE
  5
B5
330
1F
100
AcDbEntity
  8
0
  6
Continuous
 62
     7
370
    15
100
AcDbLine
 10
170.163505029
 20
79.2215681154
 30
0.0
 11
170.163505029
 21
127.3779431808
 31
0.0
  0
SPLINE
  5
B6
330
1F
100
AcDbEntity
  8
0
  6
Continuous
 62
     7
370
    15
100
AcDbSpline
210
0.0
220
0.0
230
1.0
 70
    24
 71
     3
 72
    12
 73
     8
 74
     0
 42
0.000000001
 43
0.00000001
 40
0.0
 40
0.0
 40
0.0
 40
0.0
 40
0.25
 40
0.25
 40
0.5
 40
0.5
 40
1.0
 40
1.0
 40
1.0
 40
1.0
 10
170.7635051098741
 20
127.3779436188942
 30
0.0
 10
170.6760207402213
 20
127.3779436188942
 30
0.0
 10
170.5886878628006
 20
127.3779436188942
 30
0.0
 10
170.4348514493618
 20
127.3779436188942
 30
0.0
 10
170.3692292803883
 20
127.3779436188942
 30
0.0
 10
170.2138110750458
 20
127.3779436188942
 30
0.0
 10
170.1635051098741
 20
127.3779436188942
 30
0.0
 10
170.1635051098741
 20
127.3779436188942
 30
0.0
  0
SPLINE
  5
B7
330
1F
100
AcDbEntity
  8
0
  6
Continuous
 62
     7
370
    15
100
AcDbSpline
210
0.0
220
0.0
230
1.0
 70
     8
 71
     3
 72
    14
 73
    10
 74
     0
 42
0.000000001
 43
0.00000001
 40
0.0
 40
0.0
 40
0.0
 40
0.0
 40
0.25
 40
0.25
 40
0.5
 40
0.5
 40
0.75
 40
0.75
 40
1.0
 40
1.0
 40
1.0
 40
1.0
 10
179.9735051098741
 20
101.0809047485645
 30
0.0
 10
179.9735051098741
 20
101.117418081492
 30
0.0
 10
179.9523039092934
 20
101.153921816665
 30
0.0
 10
179.8695960179409
 20
101.2192589527729
 30
0.0
 10
179.8086897382109
 20
101.2472184598937
 30
0.0
 10
179.6571251834613
 20
101.2810937661165
 30
0.0
 10
179.5658639976486
 20
101.286521311979
 30
0.0
 10
179.3735241970883
 20
101.2655907677393
 30
0.0
 10
179.2712636452744
 20
101.2390190897799
 30
0.0
 10
179.1735051098739
 20
101.1985759055632
 30
0.0
  0
SPLINE
  5
B8
330
1F
100
AcDbEntity
  8
0
  6
Continuous
 62
     7
370
    15
100
AcDbSpline
210
0.0
220
0.0
230
1.0
 70
     8
 71
     3
 72
    12
 73
     8
 74
     0
 42
0.000000001
 43
0.00000001
 40
0.0
 40
0.0
 40
0.0
 40
0.0
 40
0.500000000000001
 40
0.500000000000001
 40
0.7500000000000004
 40
0.7500000000000004
 40
1.0
 40
1.0
 40
1.0
 40
1.0
 10
179.9735051098741
 20
97.26793760049722
 30
0.0
 10
180.2577116444394
 20
97.1004734382035
 30
0.0
 10
180.5364073785432
 20
96.98883633869188
 30
0.0
 10
180.9457534217324
 20
96.92152307305251
 30
0.0
 10
181.081892759052
 20
96.91637203303856
 30
0.0
 10
181.343212808048
 20
96.95413797065794
 30
0.0
 10
181.4686339904798
 20
96.9956877290022
 30
0.0
 10
181.5853417519312
 20
97.07644382068501
 30
0.0
  0
LINE
  5
B9
330
1F
100
AcDbEntity
  8
0
  6
Continuous
 62
     7
370
    15
100
AcDbLine
 10
179.9735049886
 20
97.3221809122
 30
0.0
 11
179.9735049886
 21
97.2679378915
 31
0.0
  0
SPLINE
  5
BA
330
1F
100
AcDbEntity
  8
0
  6
Continuous
 62
     7
370
    15
100
AcDbSpline
210
0.0
220
0.0
230
1.0
 70
     8
 71
     3
 72
    14
 73
    10
 74
     0
 42
0.000000001
 43
0.00000001
 40
0.0
 40
0.0
 40
0.0
 40
0.0
 40
0.25
 40
0.25
 40
0.5
 40
0.5
 40
0.75
 40
0.75
 40
1.0
 40
1.0
 40
1.0
 40
1.0
 10
179.1735051098739
 20
97.74546442878605
 30
0.0
 10
179.2711393947772
 20
97.70696103087619
 30
0.0
 10
179.3732946827802
 20
97.66932897214691
 30
0.0
 10
179.5654293893334
 20
97.59823425460876
 30
0.0
 10
179.6568574250527
 20
97.56402617492431
 30
0.0
 10
179.8084067019927
 20
97.49712388476333
 30
0.0
 10
179.8695328752353
 20
97.46387075163113
 30
0.0
 10
179.9522852342203
 20
97.39443363597518
 30
0.0
 10
179.9735051098741
 20
97.35865585830712
 30
0.0
 10
179.9735051098741
 20
97.32218125034552
 30
0.0
  0
SPLINE
  5
BB
330
1F
100
AcDbEntity
  8
0
  6
Continuous
 62
     7
370
    15
100
AcDbSpline
210
0.0
220
0.0
230
1.0
 70
     8
 71
     3
 72
    22
 73
    18
 74
     0
 42
0.000000001
 43
0.00000001
 40
0.0
 40
0.0
 40
0.0
 40
0.0
 40
0.125
 40
0.125
 40
0.25
 40
0.25
 40
0.375
 40
0.375
 40
0.5
 40
0.5
 40
0.625
 40
0.625
 40
0.75
 40
0.75
 40
0.875
 40
0.875
 40
1.0
 40
1.0
 40
1.0
 40
1.0
 10
179.1735051098741
 20
101.1985759055632
 30
0.0
 10
178.9934884153047
 20
101.1241021185867
 30
0.0
 10
178.8290565934343
 20
101.0266528566026
 30
0.0
 10
178.5306603596758
 20
100.7872834230383
 30
0.0
 10
178.4003566323109
 20
100.6473868109678
 30
0.0
 10
178.1871378486919
 20
100.3391352209076
 30
0.0
 10
178.1035099915804
 20
100.1689720027884
 30
0.0
 10
177.9923791146623
 20
99.81847726799785
 30
0.0
 10
177.9635431198085
 20
99.63335230684653
 30
0.0
 10
177.9634671771489
 20
99.2701454322293
 30
0.0
 10
177.9921258025762
 20
99.08677541852175
 30
0.0
 10
178.1032768956888
 20
98.74088430602845
 30
0.0
 10
178.1863440163328
 20
98.57536477876097
 30
0.0
 10
178.4000299744515
 20
98.27482504135723
 30
0.0
 10
178.5290369643758
 20
98.1409531200732
 30
0.0
 10
178.8286462438653
 20
97.9097063506691
 30
0.0
 10
178.9934889421246
 20
97.81645623401029
 30
0.0
 10
179.1735051098741
 20
97.74546442878598
 30
0.0
  0
SPLINE
  5
BC
330
1F
100
AcDbEntity
  8
0
  6
Continuous
 62
     7
370
    15
100
AcDbSpline
210
0.0
220
0.0
230
1.0
 70
     8
 71
     3
 72
     8
 73
     4
 74
     0
 42
0.000000001
 43
0.00000001
 40
0.0
 40
0.0
 40
0.0
 40
0.0
 40
0.0011901715795577
 40
0.0011901715795577
 40
0.0011901715795577
 40
0.0011901715795577
 10
181.1282947135778
 20
79.13449527228062
 30
0.0
 10
181.2791002947622
 20
78.94929186846969
 30
0.0
 10
181.4314955624349
 20
78.76441650794105
 30
0.0
 10
181.5853417519308
 20
78.57985127025748
 30
0.0
  0
SPLINE
  5
BD
330
1F
100
AcDbEntity
  8
0
  6
Continuous
 62
     7
370
    15
100
AcDbSpline
210
0.0
220
0.0
230
1.0
 70
     8
 71
     3
 72
     8
 73
     4
 74
     0
 42
0.000000001
 43
0.00000001
 40
0.0
 40
0.0
 40
0.0
 40
0.0
 40
1.0
 40
1.0
 40
1.0
 40
1.0
 10
181.1282947135778
 20
79.13449527228062
 30
0.0
 10
180.7426261349514
 20
79.82628956312479
 30
0.0
 10
180.3576398584585
 20
80.5184757374485
 30
0.0
 10
179.9735051098741
 20
81.2111171593927
 30
0.0
  0
LINE
  5
BE
330
1F
100
AcDbEntity
  8
0
  6
Continuous
 62
     7
370
    15
100
AcDbLine
 10
179.9735049886
 20
81.2111171412
 30
0.0
 11
179.9735049886
 21
97.2679378915
 31
0.0
  0
SPLINE
  5
BF
330
1F
100
AcDbEntity
  8
0
  6
Continuous
 62
     7
370
    15
100
AcDbSpline
210
0.0
220
0.0
230
1.0
 70
    24
 71
     3
 72
    14
 73
    10
 74
     0
 42
0.000000001
 43
0.00000001
 40
0.0
 40
0.0
 40
0.0
 40
0.0
 40
0.25
 40
0.25
 40
0.5
 40
0.5
 40
0.75
 40
0.75
 40
1.0
 40
1.0
 40
1.0
 40
1.0
 10
179.9735051098741
 20
127.3779436188942
 30
0.0
 10
179.9735051098741
 20
127.3779436188942
 30
0.0
 10
179.957564908492
 20
127.3779436188942
 30
0.0
 10
179.8916682751926
 20
127.3779436188942
 30
0.0
 10
179.8428252721216
 20
127.3779436188942
 30
0.0
 10
179.7075731312444
 20
127.3779436188942
 30
0.0
 10
179.6216880231059
 20
127.3779436188942
 30
0.0
 10
179.4158589658916
 20
127.3779436188942
 30
0.0
 10
179.294465759963
 20
127.3779436188942
 30
0.0
 10
179.1735051098741
 20
127.3779436188942
 30
0.0
  0
SPLINE
  5
C0
330
1F
100
AcDbEntity
  8
0
  6
Continuous
 62
     7
370
    15
100
AcDbSpline
210
0.0
220
0.0
230
1.0
 70
     8
 71
     3
 72
    12
 73
     8
 74
     0
 42
0.000000001
 43
0.00000001
 40
0.0
 40
0.0
 40
0.0
 40
0.0
 40
0.2500000000000015
 40
0.2500000000000015
 40
0.500000000000003
 40
0.500000000000003
 40
1.0
 40
1.0
 40
1.0
 40
1.0
 10
176.9535051098741
 20
82.21008576260742
 30
0.0
 10
176.8471032595166
 20
82.21008576260743
 30
0.0
 10
176.7397878481201
 20
82.18731499858892
 30
0.0
 10
176.5443162570928
 20
82.10107205193681
 30
0.0
 10
176.4541341411553
 20
82.03639573146629
 30
0.0
 10
176.2359126544345
 20
81.80346640740949
 30
0.0
 10
176.1535051098737
 20
81.58888116951847
 30
0.0
 10
176.1535051098741
 20
81.37586413108575
 30
0.0
  0
SPLINE
  5
C1
330
1F
100
AcDbEntity
  8
0
  6
Continuous
 62
     7
370
    15
100
AcDbSpline
210
0.0
220
0.0
230
1.0
 70
    24
 71
     3
 72
    14
 73
    10
 74
     0
 42
0.000000001
 43
0.00000001
 40
0.0
 40
0.0
 40
0.0
 40
0.0
 40
0.1249999999999993
 40
0.1249999999999993
 40
0.2499999999999985
 40
0.2499999999999985
 40
0.499999999999997
 40
0.499999999999997
 40
1.0
 40
1.0
 40
1.0
 40
1.0
 10
176.9535051098741
 20
127.3779436188942
 30
0.0
 10
176.8927668317304
 20
127.3779436188942
 30
0.0
 10
176.8306071926357
 20
127.3779436188942
 30
0.0
 10
176.7147061427696
 20
127.3779436188942
 30
0.0
 10
176.6600148993085
 20
127.3779436188942
 30
0.0
 10
176.5046858895045
 20
127.3779436188942
 30
0.0
 10
176.4190914244904
 20
127.3779436188942
 30
0.0
 10
176.2180271917771
 20
127.3779436188942
 30
0.0
 10
176.1535051098742
 20
127.3779436188942
 30
0.0
 10
176.1535051098741
 20
127.3779436188942
 30
0.0
  0
LINE
  5
C2
330
1F
100
AcDbEntity
  8
0
  6
Continuous
 62
     7
370
    15
100
AcDbLine
 10
179.1735054162
 20
82.2100853997
 30
0.0
 11
176.9535052759
 21
82.2100853997
 31
0.0
  0
LINE
  5
C3
330
1F
100
AcDbEntity
  8
0
  6
Continuous
 62
     7
370
    15
100
AcDbLine
 10
179.1735054162
 20
127.3779431808
 30
0.0
 11
176.9535052759
 21
127.3779431808
 31
0.0
  0
SPLINE
  5
C4
330
1F
100
AcDbEntity
  8
0
  6
Continuous
 62
     7
370
    15
100
AcDbSpline
210
0.0
220
0.0
230
1.0
 70
     8
 71
     3
 72
    12
 73
     8
 74
     0
 42
0.000000001
 43
0.00000001
 40
0.0
 40
0.0
 40
0.0
 40
0.0
 40
0.5
 40
0.5
 40
0.75
 40
0.75
 40
1.0
 40
1.0
 40
1.0
 40
1.0
 10
179.9735051098741
 20
81.3758641310871
 30
0.0
 10
179.9735051098741
 20
81.58868669001998
 30
0.0
 10
179.8915797520543
 20
81.80294319665796
 30
0.0
 10
179.672657948586
 20
82.03663282510784
 30
0.0
 10
179.5826106570949
 20
82.10111764995182
 30
0.0
 10
179.3871971890751
 20
82.1873172611074
 30
0.0
 10
179.2799142220913
 20
82.21008576260743
 30
0.0
 10
179.1735051098741
 20
82.21008576260743
 30
0.0
  0
LINE
  5
C5
330
1F
100
AcDbEntity
  8
0
  6
Continuous
 62
     7
370
    15
100
AcDbLine
 10
166.9635051099
 20
86.8029436547
 30
0.0
 11
166.9635051099
 21
131.2529435831
 31
0.0
  0
SPLINE
  5
C6
330
1F
100
AcDbEntity
  8
0
  6
Continuous
 62
     7
370
    15
100
AcDbSpline
210
0.0
220
0.0
230
1.0
 70
     8
 71
     3
 72
    12
 73
     8
 74
     0
 42
0.000000001
 43
0.00000001
 40
0.0
 40
0.0
 40
0.0
 40
0.0
 40
0.499999999999996
 40
0.499999999999996
 40
0.749999999999998
 40
0.749999999999998
 40
1.0
 40
1.0
 40
1.0
 40
1.0
 10
170.1635051098741
 20
134.1993559749777
 30
0.0
 10
170.1635051098741
 20
134.374116150312
 30
0.0
 10
170.2134253111923
 20
134.5518212540972
 30
0.0
 10
170.3687672091042
 20
134.7645779959425
 30
0.0
 10
170.4346179076284
 20
134.8263713686676
 30
0.0
 10
170.5870639754669
 20
134.9131779563486
 30
0.0
 10
170.6760740755865
 20
134.9381732589419
 30
0.0
 10
170.7635051098741
 20
134.9381732589419
 30
0.0
  0
LINE
  5
C7
330
1F
100
AcDbEntity
  8
0
  6
Continuous
 62
     7
370
    15
100
AcDbLine
 10
170.7635051739
 20
134.9381739724
 30
0.0
 11
174.5416685176
 21
134.9381739724
 31
0.0
  0
SPLINE
  5
C8
330
1F
100
AcDbEntity
  8
0
  6
Continuous
 62
     7
370
    15
100
AcDbSpline
210
0.0
220
0.0
230
1.0
 70
     8
 71
     3
 72
     8
 73
     4
 74
     0
 42
0.000000001
 43
0.00000001
 40
0.0
 40
0.0
 40
0.0
 40
0.0
 40
1.0
 40
1.0
 40
1.0
 40
1.0
 10
174.5416684678174
 20
134.9381732589418
 30
0.0
 10
175.0906132460142
 20
133.773077146628
 30
0.0
 10
175.629223620531
 20
132.6039188298035
 30
0.0
 10
176.1535051098741
 20
131.4300826747526
 30
0.0
  0
LINE
  5
C9
330
1F
100
AcDbEntity
  8
0
  6
Continuous
 62
     7
370
    15
100
AcDbLine
 10
176.1535047722
 20
131.4300829995
 30
0.0
 11
176.1535047722
 21
131.2251845825
 31
0.0
  0
SPLINE
  5
CA
330
1F
100
AcDbEntity
  8
0
  6
Continuous
 62
     7
370
    15
100
AcDbSpline
210
0.0
220
0.0
230
1.0
 70
     8
 71
     3
 72
    14
 73
    10
 74
     0
 42
0.000000001
 43
0.00000001
 40
0.0
 40
0.0
 40
0.0
 40
0.0
 40
0.25
 40
0.25
 40
0.5
 40
0.5
 40
0.75
 40
0.75
 40
1.0
 40
1.0
 40
1.0
 40
1.0
 10
176.1535051098741
 20
131.2251844384195
 30
0.0
 10
176.1535051098741
 20
131.1029817192396
 30
0.0
 10
176.1696287152958
 20
130.983413660165
 30
0.0
 10
176.2351980041496
 20
130.7498657011787
 30
0.0
 10
176.284619171778
 20
130.637447249462
 30
0.0
 10
176.4193648059695
 20
130.4354476932473
 30
0.0
 10
176.5050958187077
 20
130.3456047744288
 30
0.0
 10
176.7120908416493
 20
130.2149285613581
 30
0.0
 10
176.8322370180746
 20
130.1768797623507
 30
0.0
 10
176.9535051098741
 20
130.1768797623507
 30
0.0
  0
LINE
  5
CB
330
1F
100
AcDbEntity
  8
0
  6
Continuous
 62
     7
370
    15
100
AcDbLine
 10
176.9535052759
 20
130.1768804419
 30
0.0
 11
179.1735054162
 21
130.1768804419
 31
0.0
  0
SPLINE
  5
CC
330
1F
100
AcDbEntity
  8
0
  6
Continuous
 62
     7
370
    15
100
AcDbSpline
210
0.0
220
0.0
230
1.0
 70
     8
 71
     3
 72
    14
 73
    10
 74
     0
 42
0.000000001
 43
0.00000001
 40
0.0
 40
0.0
 40
0.0
 40
0.0
 40
0.25
 40
0.25
 40
0.5
 40
0.5
 40
0.75
 40
0.75
 40
1.0
 40
1.0
 40
1.0
 40
1.0
 10
179.1735051098741
 20
130.1768797623506
 30
0.0
 10
179.294420967455
 20
130.1768797623506
 30
0.0
 10
179.4159472180951
 20
130.215466954658
 30
0.0
 10
179.6218464490116
 20
130.3456728757737
 30
0.0
 10
179.7078252555279
 20
130.435749695939
 30
0.0
 10
179.8420415645743
 20
130.6368909749148
 30
0.0
 10
179.8918034532214
 20
130.7500301509344
 30
0.0
 10
179.957088835338
 20
130.9821764586865
 30
0.0
 10
179.9735051098741
 20
131.1045207432337
 30
0.0
 10
179.9735051098741
 20
131.2251844384195
 30
0.0
  0
LINE
  5
CD
330
1F
100
AcDbEntity
  8
0
  6
Continuous
 62
     7
370
    15
100
AcDbLine
 10
179.9735049886
 20
131.2251845825
 30
0.0
 11
179.9735049886
 21
131.4300829995
 31
0.0
  0
SPLINE
  5
CE
330
1F
100
AcDbEntity
  8
0
  6
Continuous
 62
     7
370
    15
100
AcDbSpline
210
0.0
220
0.0
230
1.0
 70
     8
 71
     3
 72
     8
 73
     4
 74
     0
 42
0.000000001
 43
0.00000001
 40
0.0
 40
0.0
 40
0.0
 40
0.0
 40
1.0
 40
1.0
 40
1.0
 40
1.0
 10
179.9735051098741
 20
131.4300826747527
 30
0.0
 10
180.49829622937
 20
132.6050598624574
 30
0.0
 10
181.0368124805529
 20
133.7739590301955
 30
0.0
 10
181.5853417519308
 20
134.9381732589418
 30
0.0
  0
LINE
  5
CF
330
1F
100
AcDbEntity
  8
0
  6
Continuous
 62
     7
370
    15
100
AcDbLine
 10
181.5853421745
 20
134.9381739724
 30
0.0
 11
185.4135045019
 21
134.9381739724
 31
0.0
  0
SPLINE
  5
D0
330
1F
100
AcDbEntity
  8
0
  6
Continuous
 62
     7
370
    15
100
AcDbSpline
210
0.0
220
0.0
230
1.0
 70
     8
 71
     3
 72
    12
 73
     8
 74
     0
 42
0.000000001
 43
0.00000001
 40
0.0
 40
0.0
 40
0.0
 40
0.0
 40
0.2500000000000034
 40
0.2500000000000034
 40
0.5000000000000069
 40
0.5000000000000069
 40
1.0
 40
1.0
 40
1.0
 40
1.0
 10
185.4135051098741
 20
134.9381732589417
 30
0.0
 10
185.5020360975265
 20
134.9381732589417
 30
0.0
 10
185.5890624285714
 20
134.9136235936114
 30
0.0
 10
185.7427301571059
 20
134.8262364163179
 30
0.0
 10
185.808037315213
 20
134.7647660800253
 30
0.0
 10
185.9632102738066
 20
134.5525209190936
 30
0.0
 10
186.0135051098741
 20
134.3742224954896
 30
0.0
 10
186.0135051098741
 20
134.1993559749778
 30
0.0
  0
LINE
  5
D1
330
1F
100
AcDbEntity
  8
0
  6
Continuous
 62
     7
370
    15
100
AcDbLine
 10
170.163505029
 20
134.1993557739
 30
0.0
 11
170.163505029
 21
127.3779431808
 31
0.0
  0
LINE
  5
D2
330
1F
100
AcDbEntity
  8
0
  6
Continuous
 62
     7
370
    15
100
AcDbLine
 10
186.0135053453
 20
134.1993557739
 30
0.0
 11
186.0135053453
 21
127.3779431808
 31
0.0
  0
SPLINE
  5
D3
330
1F
100
AcDbEntity
  8
0
  6
Continuous
 62
     7
370
    15
100
AcDbSpline
210
0.0
220
0.0
230
1.0
 70
     8
 71
     3
 72
     8
 73
     4
 74
     0
 42
0.000000001
 43
0.00000001
 40
0.0
 40
0.0
 40
0.0
 40
0.0
 40
1.0
 40
1.0
 40
1.0
 40
1.0
 10
181.0274597961701
 20
138.7404817751587
 30
0.0
 10
180.6755157732618
 20
138.1089203871448
 30
0.0
 10
180.3241573502017
 20
137.477038487446
 30
0.0
 10
179.9735051098741
 20
136.8447700783956
 30
0.0
  0
SPLINE
  5
D4
330
1F
100
AcDbEntity
  8
0
  6
Continuous
 62
     7
370
    15
100
AcDbSpline
210
0.0
220
0.0
230
1.0
 70
     8
 71
     3
 72
     8
 73
     4
 74
     0
 42
0.000000001
 43
0.00000001
 40
0.0
 40
0.0
 40
0.0
 40
0.0
 40
0.0012409313617635
 40
0.0012409313617635
 40
0.0012409313617635
 40
0.0012409313617635
 10
181.5853417519308
 20
139.5242796981098
 30
0.0
 10
181.3986688236986
 20
139.2632678204112
 30
0.0
 10
181.2126836357261
 20
139.0020093186358
 30
0.0
 10
181.0274597961701
 20
138.7404817751587
 30
0.0
  0
LINE
  5
D5
330
1F
100
AcDbEntity
  8
0
  6
Continuous
 62
     7
370
    15
100
AcDbLine
 10
181.5853421745
 20
134.9381739724
 30
0.0
 11
181.5853421745
 21
139.5242801386
 31
0.0
  0
LINE
  5
D6
330
1F
100
AcDbEntity
  8
0
  6
Continuous
 62
     7
370
    15
100
AcDbLine
 10
179.9735049886
 20
131.4300829995
 30
0.0
 11
179.9735049886
 21
136.8447700965
 31
0.0
  0
LINE
  5
D7
330
1F
100
AcDbEntity
  8
0
  6
Continuous
 62
     7
370
    15
100
AcDbLine
 10
179.1735054162
 20
135.845801838
 30
0.0
 11
176.9535052759
 21
135.845801838
 31
0.0
  0
LINE
  5
D8
330
1F
100
AcDbEntity
  8
0
  6
Continuous
 62
     7
370
    15
100
AcDbLine
 10
185.4135045019
 20
139.5242801386
 30
0.0
 11
181.5853421745
 21
139.5242801386
 31
0.0
  0
SPLINE
  5
D9
330
1F
100
AcDbEntity
  8
0
  6
Continuous
 62
     7
370
    15
100
AcDbSpline
210
0.0
220
0.0
230
1.0
 70
     8
 71
     3
 72
    12
 73
     8
 74
     0
 42
0.000000001
 43
0.00000001
 40
0.0
 40
0.0
 40
0.0
 40
0.0
 40
0.5
 40
0.5
 40
0.75
 40
0.75
 40
1.0
 40
1.0
 40
1.0
 40
1.0
 10
179.9735051098741
 20
136.6800231067012
 30
0.0
 10
179.9735051098741
 20
136.4668857050497
 30
0.0
 10
179.8908626947261
 20
136.2519061803121
 30
0.0
 10
179.6722792839158
 20
136.0189871114263
 30
0.0
 10
179.5831893309351
 20
135.9551202016058
 30
0.0
 10
179.3877840130375
 20
135.868734047224
 30
0.0
 10
179.2812599660942
 20
135.8458014751809
 30
0.0
 10
179.1735051098741
 20
135.8458014751809
 30
0.0
  0
SPLINE
  5
DA
330
1F
100
AcDbEntity
  8
0
  6
Continuous
 62
     7
370
    15
100
AcDbSpline
210
0.0
220
0.0
230
1.0
 70
     8
 71
     3
 72
     8
 73
     4
 74
     0
 42
0.000000001
 43
0.00000001
 40
0.0
 40
0.0
 40
0.0
 40
0.0
 40
0.0012409313617635
 40
0.0012409313617635
 40
0.0012409313617635
 40
0.0012409313617635
 10
175.0995504235781
 20
138.7404817751587
 30
0.0
 10
174.9143265840221
 20
139.0020093186358
 30
0.0
 10
174.7283413960496
 20
139.2632678204112
 30
0.0
 10
174.5416684678174
 20
139.5242796981098
 30
0.0
  0
SPLINE
  5
DB
330
1F
100
AcDbEntity
  8
0
  6
Continuous
 62
     7
370
    15
100
AcDbSpline
210
0.0
220
0.0
230
1.0
 70
     8
 71
     3
 72
     8
 73
     4
 74
     0
 42
0.000000001
 43
0.00000001
 40
0.0
 40
0.0
 40
0.0
 40
0.0
 40
1.0
 40
1.0
 40
1.0
 40
1.0
 10
176.1535051098741
 20
136.8447700783956
 30
0.0
 10
175.8028528695465
 20
137.477038487446
 30
0.0
 10
175.4514944464863
 20
138.1089203871448
 30
0.0
 10
175.0995504235781
 20
138.7404817751587
 30
0.0
  0
LINE
  5
DC
330
1F
100
AcDbEntity
  8
0
  6
Continuous
 62
     7
370
    15
100
AcDbLine
 10
174.5416685176
 20
134.9381739724
 30
0.0
 11
174.5416685176
 21
139.5242801386
 31
0.0
  0
LINE
  5
DD
330
1F
100
AcDbEntity
  8
0
  6
Continuous
 62
     7
370
    15
100
AcDbLine
 10
176.1535047722
 20
131.4300829995
 30
0.0
 11
176.1535047722
 21
136.8447700965
 31
0.0
  0
SPLINE
  5
DE
330
1F
100
AcDbEntity
  8
0
  6
Continuous
 62
     7
370
    15
100
AcDbSpline
210
0.0
220
0.0
230
1.0
 70
     8
 71
     3
 72
    12
 73
     8
 74
     0
 42
0.000000001
 43
0.00000001
 40
0.0
 40
0.0
 40
0.0
 40
0.0
 40
0.5000000000000042
 40
0.5000000000000042
 40
0.7500000000000021
 40
0.7500000000000021
 40
1.0
 40
1.0
 40
1.0
 40
1.0
 10
186.0135051098741
 20
139.0384947523354
 30
0.0
 10
186.0135051098741
 20
139.1588217853885
 30
0.0
 10
185.9597102982811
 20
139.2769193588703
 30
0.0
 10
185.7987867283148
 20
139.4165621013093
 30
0.0
 10
185.7340352672123
 20
139.4548380547037
 30
0.0
 10
185.5818150838946
 20
139.5096778843381
 30
0.0
 10
185.4990075683696
 20
139.5242796981098
 30
0.0
 10
185.4135051098741
 20
139.5242796981098
 30
0.0
  0
LINE
  5
DF
330
1F
100
AcDbEntity
  8
0
  6
Continuous
 62
     7
370
    15
100
AcDbLine
 10
186.0135053453
 20
134.1993557739
 30
0.0
 11
186.0135053453
 21
139.0384948331
 31
0.0
  0
SPLINE
  5
E0
330
1F
100
AcDbEntity
  8
0
  6
Continuous
 62
     7
370
    15
100
AcDbSpline
210
0.0
220
0.0
230
1.0
 70
     8
 71
     3
 72
    14
 73
    10
 74
     0
 42
0.000000001
 43
0.00000001
 40
0.0
 40
0.0
 40
0.0
 40
0.0
 40
0.25
 40
0.25
 40
0.5
 40
0.5
 40
0.75
 40
0.75
 40
1.0
 40
1.0
 40
1.0
 40
1.0
 10
176.9535051098741
 20
135.8458014751809
 30
0.0
 10
176.8461360653597
 20
135.8458014751809
 30
0.0
 10
176.7393305735969
 20
135.8687264705859
 30
0.0
 10
176.54418920508
 20
135.95491890446
 30
0.0
 10
176.4549794874901
 20
136.018762901124
 30
0.0
 10
176.3090526946738
 20
136.1741790090654
 30
0.0
 10
176.2510629508757
 20
136.2668335872731
 30
0.0
 10
176.1734691093531
 20
136.4660669273227
 30
0.0
 10
176.1535051098741
 20
136.5726720223779
 30
0.0
 10
176.1535051098741
 20
136.6800231067012
 30
0.0
  0
LINE
  5
E1
330
1F
100
AcDbEntity
  8
0
  6
Continuous
 62
     7
370
    15
100
AcDbLine
 10
174.5416685176
 20
139.5242801386
 30
0.0
 11
170.7635051739
 21
139.5242801386
 31
0.0
  0
SPLINE
  5
E2
330
1F
100
AcDbEntity
  8
0
  6
Continuous
 62
     7
370
    15
100
AcDbSpline
210
0.0
220
0.0
230
1.0
 70
     8
 71
     3
 72
    10
 73
     6
 74
     0
 42
0.000000001
 43
0.00000001
 40
0.0
 40
0.0
 40
0.0
 40
0.0
 40
0.5
 40
0.5
 40
1.0
 40
1.0
 40
1.0
 40
1.0
 10
170.4507467111817
 20
139.4532401738511
 30
0.0
 10
170.3749071171781
 20
139.3831909875225
 30
0.0
 10
170.3075835994521
 20
139.2979722139488
 30
0.0
 10
170.2009399611471
 20
139.087746087287
 30
0.0
 10
170.1635051098741
 20
138.9642368964197
 30
0.0
 10
170.1635051098741
 20
138.8343187758971
 30
0.0
  0
SPLINE
  5
E3
330
1F
100
AcDbEntity
  8
0
  6
Continuous
 62
     7
370
    15
100
AcDbSpline
210
0.0
220
0.0
230
1.0
 70
     8
 71
     3
 72
     8
 73
     4
 74
     0
 42
0.000000001
 43
0.00000001
 40
0.0
 40
0.0
 40
0.0
 40
0.0
 40
1.0
 40
1.0
 40
1.0
 40
1.0
 10
170.7635051098741
 20
139.5242796981098
 30
0.0
 10
170.6513268556944
 20
139.5242796981098
 30
0.0
 10
170.542657342966
 20
139.4985986328488
 30
0.0
 10
170.4507467111817
 20
139.4532401738511
 30
0.0
  0
LINE
  5
E4
330
1F
100
AcDbEntity
  8
0
  6
Continuous
 62
     7
370
    15
100
AcDbLine
 10
170.163505029
 20
134.1993557739
 30
0.0
 11
170.163505029
 21
138.8343191224
 31
0.0
  0
LINE
  5
E5
330
1F
100
AcDbEntity
  8
0
  6
Continuous
 62
     7
370
    15
100
AcDbLine
 10
98.713504633
 20
97.620813221
 30
0.0
 11
98.713504633
 21
120.4350740168
 31
0.0
  0
LINE
  5
E6
330
1F
100
AcDbEntity
  8
0
  6
Continuous
 62
     7
370
    15
100
AcDbLine
 10
201.9635052589
 20
109.0279436189
 30
0.0
 11
201.9635052589
 21
99.2279435027
 31
0.0
  0
LINE
  5
E7
330
1F
100
AcDbEntity
  8
0
  6
Continuous
 62
     7
370
    15
100
AcDbLine
 10
201.9635052589
 20
118.8279437351
 30
0.0
 11
201.9635052589
 21
109.0279436189
 31
0.0
  0
LINE
  5
E8
330
1F
100
AcDbEntity
  8
0
  6
Continuous
 62
     7
370
    15
100
AcDbLine
 10
201.7635055986
 20
109.0279436189
 30
0.0
 11
201.7635055986
 21
99.0279438424
 31
0.0
  0
LINE
  5
E9
330
1F
100
AcDbEntity
  8
0
  6
Continuous
 62
     7
370
    15
100
AcDbLine
 10
201.7635055986
 20
119.0279433954
 30
0.0
 11
201.7635055986
 21
109.0279436189
 31
0.0
  0
SPLINE
  5
EA
330
1F
100
AcDbEntity
  8
0
  6
Continuous
 62
     7
370
    15
100
AcDbSpline
210
0.0
220
0.0
230
1.0
 70
    11
 71
     3
 72
    60
 73
    56
 74
     0
 42
0.000000001
 43
0.00000001
 40
0.0
 40
0.0
 40
0.0
 40
0.0
 40
0.0624999999999995
 40
0.0624999999999995
 40
0.0937499999999996
 40
0.0937499999999996
 40
0.1249999999999997
 40
0.1249999999999997
 40
0.1562499999999998
 40
0.1562499999999998
 40
0.1874999999999999
 40
0.1874999999999999
 40
0.21875
 40
0.21875
 40
0.2500000000000001
 40
0.2500000000000001
 40
0.2812500000000002
 40
0.2812500000000002
 40
0.3125000000000003
 40
0.3125000000000003
 40
0.3437500000000004
 40
0.3437500000000004
 40
0.3750000000000005
 40
0.3750000000000005
 40
0.4062500000000006
 40
0.4062500000000006
 40
0.4375000000000007
 40
0.4375000000000007
 40
0.4687500000000008
 40
0.4687500000000008
 40
0.5000000000000009
 40
0.5000000000000009
 40
0.531250000000001
 40
0.531250000000001
 40
0.5625000000000006
 40
0.5625000000000006
 40
0.6250000000000001
 40
0.6250000000000001
 40
0.6874999999999998
 40
0.6874999999999998
 40
0.7499999999999994
 40
0.7499999999999994
 40
0.7812499999999996
 40
0.7812499999999996
 40
0.8124999999999997
 40
0.8124999999999997
 40
0.8437499999999998
 40
0.8437499999999998
 40
0.8749999999999998
 40
0.8749999999999998
 40
0.9062499999999999
 40
0.9062499999999999
 40
0.9375
 40
0.9375
 40
1.0
 40
1.0
 40
1.0
 40
1.0
 10
195.2396841784486
 20
110.6923753389051
 30
0.0
 10
195.482262638416
 20
110.8892034654185
 30
0.0
 10
195.7559945352037
 20
111.0360342360286
 30
0.0
 10
196.2001530240829
 20
111.1833782827802
 30
0.0
 10
196.3508349812487
 20
111.2191634725754
 30
0.0
 10
196.6572718341548
 20
111.2651990253499
 30
0.0
 10
196.814532045278
 20
111.2753529811507
 30
0.0
 10
197.1260683470858
 20
111.2689449943548
 30
0.0
 10
197.2799792304853
 20
111.252703355457
 30
0.0
 10
197.584129599345
 20
111.1943609780965
 30
0.0
 10
197.7358332662552
 20
111.151612572874
 30
0.0
 10
198.0259362545598
 20
111.0416242370454
 30
0.0
 10
198.1646766222973
 20
110.9746581435147
 30
0.0
 10
198.4293273604462
 20
110.8161006325709
 30
0.0
 10
198.5564371489096
 20
110.7232645576347
 30
0.0
 10
198.7871108771271
 20
110.5179440256426
 30
0.0
 10
198.89153509657
 20
110.4053425457035
 30
0.0
 10
199.077266225305
 20
110.1588138711072
 30
0.0
 10
199.1589201108455
 20
110.0233555657344
 30
0.0
 10
199.2884187410938
 20
109.7428741544193
 30
0.0
 10
199.3375856684921
 20
109.5966013777682
 30
0.0
 10
199.4022319407372
 20
109.2909338532941
 30
0.0
 10
199.4166997649011
 20
109.1339930448219
 30
0.0
 10
199.4091127331899
 20
108.8240133467866
 30
0.0
 10
199.3868038951026
 20
108.6671291151152
 30
0.0
 10
199.3076639750084
 20
108.3656764075592
 30
0.0
 10
199.2514823959248
 20
108.2211062866698
 30
0.0
 10
199.1071804401349
 20
107.9437185672048
 30
0.0
 10
199.0204784500543
 20
107.814021682022
 30
0.0
 10
198.8234441360586
 20
107.5752829056566
 30
0.0
 10
198.7114522446984
 20
107.4646579860472
 30
0.0
 10
198.4712432141101
 20
107.268906216614
 30
0.0
 10
198.3427183367808
 20
107.1829861230096
 30
0.0
 10
198.0693422622288
 20
107.0340224468978
 30
0.0
 10
197.9253915434999
 20
106.9717774350573
 30
0.0
 10
197.4847444172584
 20
106.8249064276255
 30
0.0
 10
197.169891722372
 20
106.777673261445
 30
0.0
 10
196.5502058052958
 20
106.7896699285968
 30
0.0
 10
196.2374110540397
 20
106.8491505212382
 30
0.0
 10
195.6596203828181
 20
107.0675773043793
 30
0.0
 10
195.3866241343116
 20
107.2296447356752
 30
0.0
 10
195.0416212865083
 20
107.5362529476927
 30
0.0
 10
194.9350337184891
 20
107.6509277735716
 30
0.0
 10
194.7480418208216
 20
107.8995378831197
 30
0.0
 10
194.6686135315181
 20
108.03158995487
 30
0.0
 10
194.5389921669876
 20
108.31195463082
 30
0.0
 10
194.4885265626977
 20
108.4625624114463
 30
0.0
 10
194.4245870751213
 20
108.7668434743419
 30
0.0
 10
194.4102184434791
 20
108.9211935023638
 30
0.0
 10
194.4180368548183
 20
109.2344906562876
 30
0.0
 10
194.4405524944042
 20
109.3904508516641
 30
0.0
 10
194.5196381074953
 20
109.6909454034738
 30
0.0
 10
194.5772552764595
 20
109.8386146906877
 30
0.0
 10
194.7931137899486
 20
110.2519977587368
 30
0.0
 10
194.9971057184811
 20
110.4955472123917
 30
0.0
 10
195.2396841784486
 20
110.6923753389051
 30
0.0
  0
LWPOLYLINE
  5
EB
330
1F
100
AcDbEntity
  8
0
  6
HIDDEN
 62
     7
370
     0
100
AcDbPolyline
 90
       25
 70
   128
 43
0.0
 10
176.1749307794
 20
117.2788776907
 10
176.079188956
 20
116.7672435272
 10
175.9132710454
 20
116.2777669247
 10
175.6884814409
 20
115.8438055295
 10
175.4201403988
 20
115.4949330243
 10
175.1265353692
 20
115.2549242119
 10
174.827673955
 20
115.1401349793
 10
174.5439241809
 20
115.1583889018
 10
174.2946221662
 20
115.3084412667
 10
174.0967575629
 20
115.5800661522
 10
173.9638154564
 20
115.9547535221
 10
173.9048543555
 20
116.4069688398
 10
173.9238933829
 20
116.9058941755
 10
174.0196342749
 20
117.417528339
 10
174.1855531168
 20
117.9070044759
 10
174.4103422557
 20
118.3409654054
 10
174.6786828321
 20
118.6898388419
 10
174.9722887931
 20
118.9298471886
 10
175.2711492759
 20
119.0446364212
 10
175.5548999813
 20
119.0263824987
 10
175.8042019961
 20
118.8763305995
 10
176.0020661336
 20
118.6047047827
 10
176.1350087059
 20
118.2300178784
 10
176.1939688754
 20
117.7778030264
 10
176.1749307794
 20
117.2788776907
  0
LWPOLYLINE
  5
EC
330
1F
100
AcDbEntity
  8
0
  6
HIDDEN
 62
     7
370
     0
100
AcDbPolyline
 90
       19
 70
   128
 43
0.0
 10
176.3672246766
 20
117.0618124756
 10
176.2774023396
 20
116.6374646577
 10
176.1135677976
 20
116.2502412203
 10
175.8954809216
 20
115.9468465935
 10
175.6494478491
 20
115.7638747695
 10
175.40514238
 20
115.7233948338
 10
175.1920324919
 20
115.830289245
 10
175.0358208251
 20
116.0716647732
 10
174.9553508294
 20
116.4184082749
 10
174.9603268859
 20
116.8286973129
 10
175.0501492229
 20
117.2530446652
 10
175.213983765
 20
117.6402681026
 10
175.4320706409
 20
117.9436622638
 10
175.6781037134
 20
118.1266345534
 10
175.9224091825
 20
118.1671144891
 10
176.1355190707
 20
118.0602200779
 10
176.2917307374
 20
117.8188445497
 10
176.3722007332
 20
117.4721010479
 10
176.3672246766
 20
117.0618124756
  0
LWPOLYLINE
  5
ED
330
1F
100
AcDbEntity
  8
0
  6
HIDDEN
 62
     7
370
     0
100
AcDbPolyline
 90
       25
 70
   128
 43
0.0
 10
172.8779799474
 20
118.0684483129
 10
172.7822390554
 20
117.5568141493
 10
172.6163202134
 20
117.0673370811
 10
172.3915310745
 20
116.6333761516
 10
172.1231900324
 20
116.2845036465
 10
171.8295850028
 20
116.0444943684
 10
171.5307235886
 20
115.9297056015
 10
171.2469733489
 20
115.9479590583
 10
170.9976713342
 20
116.0980114232
 10
170.7998071966
 20
116.3696367744
 10
170.6668648572
 20
116.7443241443
 10
170.6079039891
 20
117.1965394619
 10
170.6269427837
 20
117.6954638663
 10
170.7226836757
 20
118.2070989612
 10
170.8886022848
 20
118.696575098
 10
171.1133918894
 20
119.1305360276
 10
171.3817324658
 20
119.4794085327
 10
171.675337961
 20
119.7194178107
 10
171.9741989096
 20
119.8342070434
 10
172.2579491493
 20
119.8159531209
 10
172.507251164
 20
119.6659012216
 10
172.7051153016
 20
119.3942754048
 10
172.8380578739
 20
119.0195885006
 10
172.8970185091
 20
118.5673727173
 10
172.8779799474
 20
118.0684483129
  0
LINE
  5
EE
330
1F
100
AcDbEntity
  8
0
  6
HIDDEN
 62
     7
370
     0
100
AcDbLine
 10
173.4018554148
 20
118.3579816002
 30
0.0
 11
172.966077475
 21
117.3280198577
 31
0.0
  0
LINE
  5
EF
330
1F
100
AcDbEntity
  8
0
  6
HIDDEN
 62
     7
370
     0
100
AcDbLine
 10
173.1801177544
 20
116.4057306464
 30
0.0
 11
172.966077475
 21
117.3280198577
 31
0.0
  0
LINE
  5
F0
330
1F
100
AcDbEntity
  8
0
  6
HIDDEN
 62
     7
370
     0
100
AcDbLine
 10
172.966077475
 20
117.3280198577
 30
0.0
 11
170.9181973879
 21
117.8184571195
 31
0.0
  0
LINE
  5
F1
330
1F
100
AcDbEntity
  8
0
  6
HIDDEN
 62
     7
370
     0
100
AcDbLine
 10
174.0516736341
 20
118.4656527343
 30
0.0
 11
173.4018554148
 21
118.3579816002
 31
0.0
  0
LINE
  5
F2
330
1F
100
AcDbEntity
  8
0
  6
HIDDEN
 62
     7
370
     0
100
AcDbLine
 10
173.4018554148
 20
118.3579816002
 30
0.0
 11
171.3539753278
 21
118.8484179306
 31
0.0
  0
LINE
  5
F3
330
1F
100
AcDbEntity
  8
0
  6
HIDDEN
 62
     7
370
     0
100
AcDbLine
 10
173.8299359736
 20
116.5134017806
 30
0.0
 11
171.7820558866
 21
117.0038385767
 31
0.0
  0
LINE
  5
F4
330
1F
100
AcDbEntity
  8
0
  6
HIDDEN
 62
     7
370
     0
100
AcDbLine
 10
171.7820558866
 20
117.0038385767
 30
0.0
 11
171.1322376673
 21
116.8961674425
 31
0.0
  0
LINE
  5
F5
330
1F
100
AcDbEntity
  8
0
  6
HIDDEN
 62
     7
370
     0
100
AcDbLine
 10
173.1801177544
 20
116.4057306464
 30
0.0
 11
171.1322376673
 21
116.8961674425
 31
0.0
  0
LINE
  5
F6
330
1F
100
AcDbEntity
  8
0
  6
HIDDEN
 62
     7
370
     0
100
AcDbLine
 10
173.8299359736
 20
116.5134017806
 30
0.0
 11
173.1801177544
 21
116.4057306464
 31
0.0
  0
LINE
  5
F7
330
1F
100
AcDbEntity
  8
0
  6
HIDDEN
 62
     7
370
     0
100
AcDbLine
 10
172.003793547
 20
118.9560890648
 30
0.0
 11
171.3539753278
 21
118.8484179306
 31
0.0
  0
LWPOLYLINE
  5
F8
330
1F
100
AcDbEntity
  8
0
  6
HIDDEN
 62
     7
370
     0
100
AcDbPolyline
 90
       22
 70
   128
 43
0.0
 10
172.4740578962
 20
118.0762537274
 10
172.3811915313
 20
117.6063586476
 10
172.2160712984
 20
117.1648754257
 10
171.9933678565
 20
116.7910336967
 10
171.7328704131
 20
116.5180495459
 10
171.4577246626
 20
116.3701797354
 10
171.1923787539
 20
116.3605624329
 10
170.9604100493
 20
116.4900525923
 10
170.7824294158
 20
116.7471446547
 10
170.674251875
 20
117.1089942086
 10
170.6454891414
 20
117.5434496704
 10
170.6986967643
 20
118.0119077194
 10
170.8291473501
 20
118.4727447557
 10
171.0252496583
 20
118.8850114572
 10
171.2695788761
 20
119.2120779756
 10
171.5404256416
 20
119.4248814586
 10
171.8137241137
 20
119.5045141953
 10
172.0651900564
 20
119.4439009282
 10
172.2724801098
 20
119.2484265643
 10
172.4171750416
 20
118.9354602697
 10
172.4864184094
 20
118.5328104052
 10
172.4740578962
 20
118.0762537274
  0
LINE
  5
F9
330
1F
100
AcDbEntity
  8
0
  6
HIDDEN
 62
     7
370
     0
100
AcDbLine
 10
171.1322376673
 20
116.8961674425
 30
0.0
 11
170.9181973879
 21
117.8184571195
 31
0.0
  0
LINE
  5
FA
330
1F
100
AcDbEntity
  8
0
  6
HIDDEN
 62
     7
370
     0
100
AcDbLine
 10
171.3539753278
 20
118.8484179306
 30
0.0
 11
170.9181973879
 21
117.8184571195
 31
0.0
  0
LINE
  5
FB
330
1F
100
AcDbEntity
  8
0
  6
HIDDEN
 62
     7
370
     0
100
AcDbLine
 10
174.2657143791
 20
117.5433621261
 30
0.0
 11
172.2178342921
 21
118.0337993878
 31
0.0
  0
LINE
  5
FC
330
1F
100
AcDbEntity
  8
0
  6
HIDDEN
 62
     7
370
     0
100
AcDbLine
 10
172.003793547
 20
118.9560890648
 30
0.0
 11
172.2178342921
 21
118.0337993878
 31
0.0
  0
LINE
  5
FD
330
1F
100
AcDbEntity
  8
0
  6
HIDDEN
 62
     7
370
     0
100
AcDbLine
 10
174.0516736341
 20
118.4656527343
 30
0.0
 11
172.003793547
 21
118.9560890648
 31
0.0
  0
LINE
  5
FE
330
1F
100
AcDbEntity
  8
0
  6
HIDDEN
 62
     7
370
     0
100
AcDbLine
 10
174.0516736341
 20
118.4656527343
 30
0.0
 11
174.2657143791
 21
117.5433621261
 31
0.0
  0
LINE
  5
FF
330
1F
100
AcDbEntity
  8
0
  6
HIDDEN
 62
     7
370
     0
100
AcDbLine
 10
171.7820558866
 20
117.0038385767
 30
0.0
 11
172.2178342921
 21
118.0337993878
 31
0.0
  0
LINE
  5
100
330
1F
100
AcDbEntity
  8
0
  6
HIDDEN
 62
     7
370
     0
100
AcDbLine
 10
173.8299359736
 20
116.5134017806
 30
0.0
 11
174.2657143791
 21
117.5433621261
 31
0.0
  0
LWPOLYLINE
  5
101
330
1F
100
AcDbEntity
  8
0
  6
HIDDEN
 62
     7
370
     0
100
AcDbPolyline
 90
       22
 70
   128
 43
0.0
 10
172.4900771101
 20
99.7625431496
 10
172.4341493269
 20
100.2314286757
 10
172.301261237
 20
100.6912803727
 10
172.1032215451
 20
101.1012383255
 10
171.8576261942
 20
101.4248766455
 10
171.5862974693
 20
101.6334379542
 10
171.3133445178
 20
101.7083903293
 10
171.0630203766
 20
101.6430748145
 10
170.8575671242
 20
101.4432944807
 10
170.7152403128
 20
101.1268003362
 10
170.6486863718
 20
100.7217150632
 10
170.6638189667
 20
100.2640324163
 10
170.7592932676
 20
99.794418596
 10
170.9266258572
 20
99.3546005788
 10
171.1509493348
 20
98.983659454
 10
171.4123306033
 20
98.7145547274
 10
171.6875452717
 20
98.5711962435
 10
171.9521391374
 20
98.5663235638
 10
172.1826018934
 20
98.7003678906
 10
172.3584560846
 20
98.9614213336
 10
172.4640759808
 20
99.3262855786
 10
172.4900771101
 20
99.7625431496
  0
LWPOLYLINE
  5
102
330
1F
100
AcDbEntity
  8
0
  6
HIDDEN
 62
     7
370
     0
100
AcDbPolyline
 90
       25
 70
   128
 43
0.0
 10
172.8978795168
 20
99.7177614349
 10
172.8425282222
 20
100.2269629839
 10
172.7128909138
 20
100.73255007
 10
172.5178021175
 20
101.2000684145
 10
172.270556463
 20
101.5976570065
 10
171.9880029728
 20
101.8982213441
 10
171.689398138
 20
102.0812779184
 10
171.3950913568
 20
102.1343516636
 10
171.1251381953
 20
102.0538262542
 10
170.8979359997
 20
101.8451895083
 10
170.7289687061
 20
101.5226585309
 10
170.6297504884
 20
101.1082148629
 10
170.6070432142
 20
100.6301008615
 10
170.662394276
 20
100.1208993125
 10
170.7920315844
 20
99.6153122264
 10
170.9871203807
 20
99.1477938819
 10
171.2343665009
 20
98.7502048242
 10
171.5169195254
 20
98.4496409523
 10
171.8155243603
 20
98.2665839124
 10
172.1098316071
 20
98.2135106328
 10
172.3797843029
 20
98.2940355766
 10
172.6069864986
 20
98.5026732537
 10
172.775954025
 20
98.8252032998
 10
172.8751720098
 20
99.2396474335
 10
172.8978795168
 20
99.7177614349
  0
LWPOLYLINE
  5
103
330
1F
100
AcDbEntity
  8
0
  6
HIDDEN
 62
     7
370
     0
100
AcDbPolyline
 90
       25
 70
   128
 43
0.0
 10
176.1948303488
 20
100.5073320571
 10
176.1394790542
 20
101.0165336061
 10
176.0098417458
 20
101.5221206921
 10
175.8147529495
 20
101.9896390367
 10
175.5675063637
 20
102.3872276287
 10
175.2849533391
 20
102.6877915005
 10
174.98634897
 20
102.8708480749
 10
174.6920417232
 20
102.9239222857
 10
174.4220885617
 20
102.8433968763
 10
174.1948868317
 20
102.6347596648
 10
174.0259193053
 20
102.3122291531
 10
173.9267008548
 20
101.8977850194
 10
173.9039938134
 20
101.419671018
 10
173.9593446423
 20
100.9104699346
 10
174.0889819508
 20
100.4048828486
 10
174.2840712127
 20
99.937364504
 10
174.5313168672
 20
99.5397754464
 10
174.8138698918
 20
99.2392115745
 10
175.1124751923
 20
99.0561545345
 10
175.4067824391
 20
99.0030803236
 10
175.6767346692
 20
99.0836061987
 10
175.9039373306
 20
99.2922429445
 10
176.0729043913
 20
99.614773922
 10
176.1721228418
 20
100.0292180556
 10
176.1948303488
 20
100.5073320571
  0
LINE
  5
104
330
1F
100
AcDbEntity
  8
0
  6
HIDDEN
 62
     7
370
     0
100
AcDbLine
 10
171.2058303115
 20
101.2151167247
 30
0.0
 11
170.906708127
 21
100.3931286263
 31
0.0
  0
LINE
  5
105
330
1F
100
AcDbEntity
  8
0
  6
HIDDEN
 62
     7
370
     0
100
AcDbLine
 10
171.2688934227
 20
99.3077708858
 30
0.0
 11
170.906708127
 21
100.3931286263
 31
0.0
  0
LINE
  5
106
330
1F
100
AcDbEntity
  8
0
  6
HIDDEN
 62
     7
370
     0
100
AcDbLine
 10
171.9302009028
 20
99.0444012436
 30
0.0
 11
171.2688934227
 21
99.3077708858
 31
0.0
  0
LINE
  5
107
330
1F
100
AcDbEntity
  8
0
  6
HIDDEN
 62
     7
370
     0
100
AcDbLine
 10
171.9302009028
 20
99.0444012436
 30
0.0
 11
172.2293230874
 21
99.866389342
 31
0.0
  0
LINE
  5
108
330
1F
100
AcDbEntity
  8
0
  6
HIDDEN
 62
     7
370
     0
100
AcDbLine
 10
171.8671377917
 20
100.9517480138
 30
0.0
 11
172.2293230874
 21
99.866389342
 31
0.0
  0
LINE
  5
109
330
1F
100
AcDbEntity
  8
0
  6
HIDDEN
 62
     7
370
     0
100
AcDbLine
 10
171.8671377917
 20
100.9517480138
 30
0.0
 11
171.2058303115
 21
101.2151167247
 31
0.0
  0
LINE
  5
10A
330
1F
100
AcDbEntity
  8
0
  6
HIDDEN
 62
     7
370
     0
100
AcDbLine
 10
174.2772031744
 20
100.3568266037
 30
0.0
 11
172.2293230874
 21
99.866389342
 31
0.0
  0
LINE
  5
10B
330
1F
100
AcDbEntity
  8
0
  6
HIDDEN
 62
     7
370
     0
100
AcDbLine
 10
173.9150178787
 20
101.4421843442
 30
0.0
 11
171.8671377917
 21
100.9517480138
 31
0.0
  0
LINE
  5
10C
330
1F
100
AcDbEntity
  8
0
  6
HIDDEN
 62
     7
370
     0
100
AcDbLine
 10
173.3167735097
 20
99.7982072163
 30
0.0
 11
171.2688934227
 21
99.3077708858
 31
0.0
  0
LINE
  5
10D
330
1F
100
AcDbEntity
  8
0
  6
HIDDEN
 62
     7
370
     0
100
AcDbLine
 10
173.9780809899
 20
99.5348375741
 30
0.0
 11
173.3167735097
 21
99.7982072163
 31
0.0
  0
LINE
  5
10E
330
1F
100
AcDbEntity
  8
0
  6
HIDDEN
 62
     7
370
     0
100
AcDbLine
 10
173.9780809899
 20
99.5348375741
 30
0.0
 11
171.9302009028
 21
99.0444012436
 31
0.0
  0
LWPOLYLINE
  5
10F
330
1F
100
AcDbEntity
  8
0
  6
HIDDEN
 62
     7
370
     0
100
AcDbPolyline
 90
       19
 70
   128
 43
0.0
 10
176.3796624896
 20
100.8255267966
 10
176.3230082748
 20
101.2504399273
 10
176.1868414638
 20
101.6584905314
 10
175.9875849989
 20
102.0004614706
 10
175.7492725906
 20
102.2351053993
 10
175.5006476474
 20
102.3341217528
 10
175.2716987562
 20
102.2855672504
 10
175.0900396315
 20
102.0952980484
 10
174.9775824306
 20
101.7862637977
 10
174.9478890729
 20
101.3957383561
 10
175.0045432878
 20
100.9708252254
 10
175.1407100988
 20
100.5627746212
 10
175.3399665636
 20
100.2208041477
 10
175.5782789719
 20
99.9861592877
 10
175.8269039151
 20
99.8871429342
 10
176.0558528063
 20
99.935698368
 10
176.2375119311
 20
100.1259666386
 10
176.349969132
 20
100.4350008893
 10
176.3796624896
 20
100.8255267966
  0
LINE
  5
110
330
1F
100
AcDbEntity
  8
0
  6
HIDDEN
 62
     7
370
     0
100
AcDbLine
 10
173.3167735097
 20
99.7982072163
 30
0.0
 11
172.954588214
 21
100.8835649568
 31
0.0
  0
LINE
  5
111
330
1F
100
AcDbEntity
  8
0
  6
HIDDEN
 62
     7
370
     0
100
AcDbLine
 10
173.2537103986
 20
101.7055539864
 30
0.0
 11
172.954588214
 21
100.8835649568
 31
0.0
  0
LINE
  5
112
330
1F
100
AcDbEntity
  8
0
  6
HIDDEN
 62
     7
370
     0
100
AcDbLine
 10
173.9150178787
 20
101.4421843442
 30
0.0
 11
173.2537103986
 21
101.7055539864
 31
0.0
  0
LINE
  5
113
330
1F
100
AcDbEntity
  8
0
  6
HIDDEN
 62
     7
370
     0
100
AcDbLine
 10
173.9780809899
 20
99.5348375741
 30
0.0
 11
174.2772031744
 21
100.3568266037
 31
0.0
  0
LINE
  5
114
330
1F
100
AcDbEntity
  8
0
  6
HIDDEN
 62
     7
370
     0
100
AcDbLine
 10
173.9150178787
 20
101.4421843442
 30
0.0
 11
174.2772031744
 21
100.3568266037
 31
0.0
  0
LINE
  5
115
330
1F
100
AcDbEntity
  8
0
  6
HIDDEN
 62
     7
370
     0
100
AcDbLine
 10
172.954588214
 20
100.8835649568
 30
0.0
 11
170.906708127
 21
100.3931286263
 31
0.0
  0
LINE
  5
116
330
1F
100
AcDbEntity
  8
0
  6
HIDDEN
 62
     7
370
     0
100
AcDbLine
 10
173.2537103986
 20
101.7055539864
 30
0.0
 11
171.2058303115
 21
101.2151167247
 31
0.0
  0
LWPOLYLINE
  5
117
330
1F
100
AcDbEntity
  8
0
  6
HIDDEN
 62
     7
370
     0
100
AcDbPolyline
 90
       16
 70
   128
 43
0.0
 10
177.9694124294
 20
99.6148596036
 10
177.9711158183
 20
99.9229969907
 10
178.0841197056
 20
100.401985504
 10
178.3252009359
 20
100.8371692601
 10
178.6779300478
 20
101.1988902915
 10
179.1182686743
 20
101.4624992836
 10
179.6162086708
 20
101.6100310239
 10
180.1378163678
 20
101.6314314197
 10
180.6475450453
 20
101.5252420197
 10
181.1106582341
 20
101.2987001318
 10
181.4955943433
 20
100.9672433588
 10
181.7761208099
 20
100.5534604642
 10
181.9331203756
 20
100.0855491015
 10
181.9558949378
 20
99.5953986871
 10
181.8428901193
 20
99.1164101738
 10
181.7722297442
 20
98.957140975
  0
ARC
  5
118
330
1F
100
AcDbEntity
  8
0
  6
HIDDEN
 62
     7
370
     0
100
AcDbCircle
 10
179.9425789636
 20
99.6708631711
 30
0.0
 40
1.885935722488027
100
AcDbArc
 50
341.1182721944
 51
160.7601770337
  0
ARC
  5
119
330
1F
100
AcDbEntity
  8
0
  6
HIDDEN
 62
     7
370
     0
100
AcDbCircle
 10
180.0210388028
 20
99.6982342789
 30
0.0
 40
1.438040469250756
100
AcDbArc
 50
353.4413778278
 51
92.8717365831
  0
LWPOLYLINE
  5
11A
330
1F
100
AcDbEntity
  8
0
  6
HIDDEN
 62
     7
370
     0
100
AcDbPolyline
 90
       25
 70
   128
 43
0.0
 10
179.2794647795
 20
98.1299616846
 10
178.8163525221
 20
98.356503107
 10
178.4314164129
 20
98.6879598799
 10
178.1508899462
 20
99.1017437059
 10
177.9938894493
 20
99.5696541372
 10
177.9711158183
 20
100.0598045516
 10
178.0841197056
 20
100.538793065
 10
178.3252009359
 20
100.973976821
 10
178.6779300478
 20
101.335698318
 10
179.1182686743
 20
101.5993073101
 10
179.6162086708
 20
101.7468390505
 10
180.1378163678
 20
101.7682394463
 10
180.6475450453
 20
101.6620500463
 10
181.1106582341
 20
101.4355081584
 10
181.4955943433
 20
101.1040509197
 10
181.7761208099
 20
100.6902680251
 10
181.9331203756
 20
100.2223575938
 10
181.9558949378
 20
99.732206248
 10
181.8428901193
 20
99.2532177347
 10
181.6018088889
 20
98.81803491
 10
181.2490807084
 20
98.4563129473
 10
180.8087420818
 20
98.1927039552
 10
180.3108011541
 20
98.0451722148
 10
179.7891934571
 20
98.0237722847
 10
179.2794647795
 20
98.1299616846
  0
LWPOLYLINE
  5
11B
330
1F
100
AcDbEntity
  8
0
  6
HIDDEN
 62
     7
370
     0
100
AcDbPolyline
 90
       21
 70
   128
 43
0.0
 10
179.450475162
 20
99.4039411175
 10
179.0400124324
 20
99.617742047
 10
178.7199485284
 20
99.9402702305
 10
178.5216122103
 20
100.3399529013
 10
178.4644187597
 20
100.7776661295
 10
178.5539663565
 20
101.2105644199
 10
178.7814893928
 20
101.5962730612
 10
179.1247152892
 20
101.8970348391
 10
179.5500493777
 20
102.0834097157
 10
180.0158540887
 20
102.1371544789
 10
180.4765355942
 20
102.0530076216
 10
180.8869973925
 20
101.8392057608
 10
181.2070612964
 20
101.5166785087
 10
181.4053976146
 20
101.1169953722
 10
181.4625910652
 20
100.679282144
 10
181.3730443996
 20
100.2463838536
 10
181.1455213633
 20
99.860675678
 10
180.8022945357
 20
99.5599134344
 10
180.3769613785
 20
99.3735380921
 10
179.9111557362
 20
99.3197942603
 10
179.450475162
 20
99.4039411175
  0
LWPOLYLINE
  5
11C
330
1F
100
AcDbEntity
  8
0
  6
HIDDEN
 62
     7
370
     0
100
AcDbPolyline
 90
       25
 70
   128
 43
0.0
 10
179.2794647795
 20
98.3223477829
 10
178.8163525221
 20
98.5488901365
 10
178.4314164129
 20
98.8803469095
 10
178.1508899462
 20
99.2941298041
 10
177.9938894493
 20
99.7620402354
 10
177.9711158183
 20
100.2521915811
 10
178.0841197056
 20
100.7311800945
 10
178.3252009359
 20
101.1663629192
 10
178.6779300478
 20
101.5280848819
 10
179.1182686743
 20
101.7916934083
 10
179.6162086708
 20
101.9392251487
 10
180.1378163678
 20
101.9606255445
 10
180.6475450453
 20
101.8544366102
 10
181.1106582341
 20
101.6278942566
 10
181.4955943433
 20
101.2964374836
 10
181.7761208099
 20
100.8826550546
 10
181.9331203756
 20
100.414743692
 10
181.9558949378
 20
99.9245932776
 10
181.8428901193
 20
99.4456047642
 10
181.6018088889
 20
99.0104210082
 10
181.2490807084
 20
98.6486990455
 10
180.8087420818
 20
98.3850909847
 10
180.3108011541
 20
98.2375592443
 10
179.7891934571
 20
98.2161583829
 10
179.2794647795
 20
98.3223477829
  0
LWPOLYLINE
  5
11D
330
1F
100
AcDbEntity
  8
0
  6
HIDDEN
 62
     7
370
     0
100
AcDbPolyline
 90
       24
 70
   128
 43
0.0
 10
179.3341883627
 20
98.4155349883
 10
178.891037142
 20
98.6353336352
 10
178.5274255258
 20
98.9593314457
 10
178.2703218219
 20
99.3635002974
 10
178.1387939287
 20
99.8178637105
 10
178.1425965187
 20
100.2887236404
 10
178.2814474014
 20
100.7411592159
 10
178.5450489429
 20
101.1416148844
 10
178.9138508198
 20
101.4603903036
 10
179.3605010194
 20
101.6738438497
 10
179.8518723977
 20
101.7661449018
 10
180.351524165
 20
101.7304473075
 10
180.8223971334
 20
101.5693992826
 10
181.2295713631
 20
101.2949441078
 10
181.5428459254
 20
100.9274377006
 10
181.7389889789
 20
100.4941361475
 10
181.8034523335
 20
100.0271747339
 10
181.7314545793
 20
99.5611874837
 10
181.528336851
 20
99.1307320523
 10
181.2091623602
 20
98.7677360404
 10
180.7976034639
 20
98.4991193268
 10
180.3241833282
 20
98.3448047641
 10
179.8240128142
 20
98.3162373754
 10
179.3341883627
 20
98.4155349883
  0
LWPOLYLINE
  5
11E
330
1F
100
AcDbEntity
  8
0
  6
HIDDEN
 62
     7
370
     0
100
AcDbPolyline
 90
       25
 70
   128
 43
0.0
 10
179.2794647795
 20
98.5147338811
 10
178.8163525221
 20
98.7412762347
 10
178.4314164129
 20
99.0727330077
 10
178.1508899462
 20
99.4865159023
 10
177.9938894493
 20
99.9544263336
 10
177.9711158183
 20
100.4445776793
 10
178.0841197056
 20
100.9235661927
 10
178.3252009359
 20
101.3587494831
 10
178.6779300478
 20
101.7204709801
 10
179.1182686743
 20
101.9840799722
 10
179.6162086708
 20
102.1316117126
 10
180.1378163678
 20
102.1530121084
 10
180.6475450453
 20
102.0468227084
 10
181.1106582341
 20
101.8202808204
 10
181.4955943433
 20
101.4888240474
 10
181.7761208099
 20
101.0750411528
 10
181.9331203756
 20
100.6071307215
 10
181.9558949378
 20
100.1169793758
 10
181.8428901193
 20
99.6379908624
 10
181.6018088889
 20
99.2028071064
 10
181.2490807084
 20
98.841086075
 10
180.8087420818
 20
98.5774770829
 10
180.3108011541
 20
98.4299453425
 10
179.7891934571
 20
98.4085444811
 10
179.2794647795
 20
98.5147338811
  0
LWPOLYLINE
  5
11F
330
1F
100
AcDbEntity
  8
0
  6
HIDDEN
 62
     7
370
     0
100
AcDbPolyline
 90
       24
 70
   128
 43
0.0
 10
179.3341883627
 20
98.6079210866
 10
178.891037142
 20
98.8277197334
 10
178.5274255258
 20
99.1517184752
 10
178.2703218219
 20
99.5558863956
 10
178.1387939287
 20
100.0102498087
 10
178.1425965187
 20
100.4811097386
 10
178.2814474014
 20
100.9335453141
 10
178.5450489429
 20
101.3340009826
 10
178.9138508198
 20
101.6527764018
 10
179.3605010194
 20
101.8662304136
 10
179.8518723977
 20
101.958531
 10
180.351524165
 20
101.9228338714
 10
180.8223971334
 20
101.7617853808
 10
181.2295713631
 20
101.4873306717
 10
181.5428459254
 20
101.1198237988
 10
181.7389889789
 20
100.6865222457
 10
181.8034523335
 20
100.2195617634
 10
181.7314545793
 20
99.7535735819
 10
181.528336851
 20
99.3231190819
 10
181.2091623602
 20
98.9601221386
 10
180.7976034639
 20
98.691505425
 10
180.3241833282
 20
98.5371908623
 10
179.8240128142
 20
98.5086234736
 10
179.3341883627
 20
98.6079210866
  0
LWPOLYLINE
  5
120
330
1F
100
AcDbEntity
  8
0
  6
HIDDEN
 62
     7
370
     0
100
AcDbPolyline
 90
       25
 70
   128
 43
0.0
 10
179.2794647795
 20
98.7071199793
 10
178.8163525221
 20
98.9336623329
 10
178.4314164129
 20
99.2651191059
 10
178.1508899462
 20
99.6789020005
 10
177.9938894493
 20
100.1468133631
 10
177.9711158183
 20
100.6369637775
 10
178.0841197056
 20
101.1159522909
 10
178.3252009359
 20
101.5511360469
 10
178.6779300478
 20
101.912857544
 10
179.1182686743
 20
102.1764660704
 10
179.6162086708
 20
102.3239978108
 10
180.1378163678
 20
102.3453982066
 10
180.6475450453
 20
102.2392092723
 10
181.1106582341
 20
102.0126669186
 10
181.4955943433
 20
101.6812101457
 10
181.7761208099
 20
101.267427251
 10
181.9331203756
 20
100.7995168197
 10
181.9558949378
 20
100.309365474
 10
181.8428901193
 20
99.8303769606
 10
181.6018088889
 20
99.3951941359
 10
181.2490807084
 20
99.0334721732
 10
180.8087420818
 20
98.7698631811
 10
180.3108011541
 20
98.6223314407
 10
179.7891934571
 20
98.6009315106
 10
179.2794647795
 20
98.7071199793
  0
LWPOLYLINE
  5
121
330
1F
100
AcDbEntity
  8
0
  6
HIDDEN
 62
     7
370
     0
100
AcDbPolyline
 90
       24
 70
   128
 43
0.0
 10
179.3341883627
 20
98.8003071848
 10
178.891037142
 20
99.0201058316
 10
178.5274255258
 20
99.3441045734
 10
178.2703218219
 20
99.7482734251
 10
178.1387939287
 20
100.2026368383
 10
178.1425965187
 20
100.6734967682
 10
178.2814474014
 20
101.1259314123
 10
178.5450489429
 20
101.5263870808
 10
178.9138508198
 20
101.8451629657
 10
179.3605010194
 20
102.0586165118
 10
179.8518723977
 20
102.1509175639
 10
180.351524165
 20
102.1152199696
 10
180.8223971334
 20
101.9541719447
 10
181.2295713631
 20
101.6797167699
 10
181.5428459254
 20
101.3122103627
 10
181.7389889789
 20
100.8789083439
 10
181.8034523335
 20
100.4119478616
 10
181.7314545793
 20
99.9459596801
 10
181.528336851
 20
99.5155051801
 10
181.2091623602
 20
99.1525082368
 10
180.7976034639
 20
98.8838924545
 10
180.3241833282
 20
98.7295769605
 10
179.8240128142
 20
98.7010095719
 10
179.3341883627
 20
98.8003071848
  0
LWPOLYLINE
  5
122
330
1F
100
AcDbEntity
  8
0
  6
HIDDEN
 62
     7
370
     0
100
AcDbPolyline
 90
       25
 70
   128
 43
0.0
 10
179.2794647795
 20
98.8995070088
 10
178.8163525221
 20
99.1260484311
 10
178.4314164129
 20
99.4575052041
 10
178.1508899462
 20
99.87128903
 10
177.9938894493
 20
100.3391994613
 10
177.9711158183
 20
100.8293498757
 10
178.0841197056
 20
101.3083388548
 10
178.3252009359
 20
101.7435221452
 10
178.6779300478
 20
102.1052436422
 10
179.1182686743
 20
102.3688526343
 10
179.6162086708
 20
102.5163843746
 10
180.1378163678
 20
102.5377847704
 10
180.6475450453
 20
102.4315953705
 10
181.1106582341
 20
102.2050534825
 10
181.4955943433
 20
101.8735967095
 10
181.7761208099
 20
101.4598138149
 10
181.9331203756
 20
100.9919029179
 10
181.9558949378
 20
100.5017515722
 10
181.8428901193
 20
100.0227630588
 10
181.6018088889
 20
99.5875802341
 10
181.2490807084
 20
99.2258582714
 10
180.8087420818
 20
98.9622492793
 10
180.3108011541
 20
98.814717539
 10
179.7891934571
 20
98.7933176088
 10
179.2794647795
 20
98.8995070088
  0
LWPOLYLINE
  5
123
330
1F
100
AcDbEntity
  8
0
  6
HIDDEN
 62
     7
370
     0
100
AcDbPolyline
 90
       24
 70
   128
 43
0.0
 10
179.3341883627
 20
98.992693283
 10
178.891037142
 20
99.2124928612
 10
178.5274255258
 20
99.5364906716
 10
178.2703218219
 20
99.9406595233
 10
178.1387939287
 20
100.3950229365
 10
178.1425965187
 20
100.8658828664
 10
178.2814474014
 20
101.3183179761
 10
178.5450489429
 20
101.7187736447
 10
178.9138508198
 20
102.0375490639
 10
179.3605010194
 20
102.2510030757
 10
179.8518723977
 20
102.3433036621
 10
180.351524165
 20
102.3076065335
 10
180.8223971334
 20
102.1465580429
 10
181.2295713631
 20
101.8721033338
 10
181.5428459254
 20
101.5045969266
 10
181.7389889789
 20
101.0712953734
 10
181.8034523335
 20
100.6043339598
 10
181.7314545793
 20
100.1383457783
 10
181.528336851
 20
99.7078912783
 10
181.2091623602
 20
99.3448952663
 10
180.7976034639
 20
99.0762785527
 10
180.3241833282
 20
98.92196399
 10
179.8240128142
 20
98.8933956701
 10
179.3341883627
 20
98.992693283
  0
LWPOLYLINE
  5
124
330
1F
100
AcDbEntity
  8
0
  6
HIDDEN
 62
     7
370
     0
100
AcDbPolyline
 90
       25
 70
   128
 43
0.0
 10
179.2794647795
 20
99.2244258973
 10
178.8163525221
 20
99.4509682509
 10
178.4314164129
 20
99.7824250239
 10
178.1508899462
 20
100.1962079185
 10
177.9938894493
 20
100.6641183499
 10
177.9711158183
 20
101.1542696956
 10
178.0841197056
 20
101.6332577433
 10
178.3252009359
 20
102.0684414993
 10
178.6779300478
 20
102.4301629964
 10
179.1182686743
 20
102.6937715228
 10
179.6162086708
 20
102.8413032632
 10
180.1378163678
 20
102.8627036589
 10
180.6475450453
 20
102.7565147246
 10
181.1106582341
 20
102.529972371
 10
181.4955943433
 20
102.198515598
 10
181.7761208099
 20
101.7847327034
 10
181.9331203756
 20
101.3168222721
 10
181.9558949378
 20
100.826671392
 10
181.8428901193
 20
100.3476828787
 10
181.6018088889
 20
99.9124991226
 10
181.2490807084
 20
99.5507780913
 10
180.8087420818
 20
99.2871690992
 10
180.3108011541
 20
99.1396373588
 10
179.7891934571
 20
99.1182364973
 10
179.2794647795
 20
99.2244258973
  0
LWPOLYLINE
  5
125
330
1F
100
AcDbEntity
  8
0
  6
HIDDEN
 62
     7
370
     0
100
AcDbPolyline
 90
       21
 70
   128
 43
0.0
 10
179.4571834785
 20
99.7858634669
 10
179.0520888922
 20
99.9968694973
 10
178.7362103519
 20
100.3151797208
 10
178.5404677671
 20
100.709634878
 10
178.4840221685
 20
101.141625129
 10
178.5723981616
 20
101.5688628408
 10
178.7969456223
 20
101.9495269734
 10
179.1356844065
 20
102.246355776
 10
179.5554557053
 20
102.4302938472
 10
180.0151695666
 20
102.4833354618
 10
180.4698263464
 20
102.4002889621
 10
180.8749209327
 20
102.1892833973
 10
181.190799473
 20
101.8709731738
 10
181.3865420577
 20
101.4765170853
 10
181.4429876563
 20
101.0445273
 10
181.3546116632
 20
100.6172895882
 10
181.1300642026
 20
100.2366254556
 10
180.7913254184
 20
99.9397961873
 10
180.3715541196
 20
99.7558590475
 10
179.9118402583
 20
99.7028174329
 10
179.4571834785
 20
99.7858634669
  0
LWPOLYLINE
  5
126
330
1F
100
AcDbEntity
  8
0
  6
HIDDEN
 62
     7
370
     0
100
AcDbPolyline
 90
       21
 70
   128
 43
0.0
 10
179.8627902922
 20
115.5749275799
 10
180.3241237235
 20
115.6136095974
 10
180.7501572353
 20
115.7843610722
 10
181.0991880653
 20
116.0704675581
 10
181.3370497135
 20
116.4439227882
 10
181.4404600469
 20
116.8681700233
 10
181.3992955891
 20
117.3016820553
 10
181.2175852415
 20
117.7020222399
 10
180.9131172654
 20
118.0300042483
 10
180.5156949145
 20
118.2535207349
 10
180.0642195326
 20
118.3506949323
 10
179.6028861013
 20
118.3120124492
 10
179.1768525896
 20
118.1412609744
 10
178.8278217596
 20
117.8551540229
 10
178.5899601114
 20
117.4816992584
 10
178.4865507093
 20
117.0574520233
 10
178.5277151671
 20
116.6239399913
 10
178.7094245833
 20
116.2235993411
 10
179.0138925594
 20
115.8956177983
 10
179.4113158417
 20
115.672100846
 10
179.8627902922
 20
115.5749275799
  0
LWPOLYLINE
  5
127
330
1F
100
AcDbEntity
  8
0
  6
HIDDEN
 62
     7
370
     0
100
AcDbPolyline
 90
       25
 70
   128
 43
0.0
 10
179.8274400813
 20
115.1903858858
 10
180.3485150618
 20
115.2211837921
 10
180.8433518914
 20
115.3776627484
 10
181.2782292423
 20
115.649159577
 10
181.6235105676
 20
116.0171716924
 10
181.8556641397
 20
116.4566204402
 10
181.9588714448
 20
116.9375572804
 10
181.9260972721
 20
117.4272075745
 10
181.7595758644
 20
117.8922029662
 10
181.470654456
 20
118.3008533421
 10
181.0790240002
 20
118.625311226
 10
180.6113734079
 20
118.8434651572
 10
180.0995706749
 20
118.9404475021
 10
179.5784956944
 20
118.9096505272
 10
179.0836579335
 20
118.7531715709
 10
178.6487805826
 20
118.4816742766
 10
178.3035001886
 20
118.1136621612
 10
178.0713456852
 20
117.6742138791
 10
177.9681393114
 20
117.1932770389
 10
178.0009134841
 20
116.7036262791
 10
178.1674348918
 20
116.2386313531
 10
178.4563553688
 20
115.8299805115
 10
178.8479858247
 20
115.5055226277
 10
179.3156373483
 20
115.2873686965
 10
179.8274400813
 20
115.1903858858
  0
LWPOLYLINE
  5
128
330
1F
100
AcDbEntity
  8
0
  6
HIDDEN
 62
     7
370
     0
100
AcDbPolyline
 90
       25
 70
   128
 43
0.0
 10
179.8274400813
 20
115.51530524
 10
180.3485150618
 20
115.5461026806
 10
180.8433518914
 20
115.7025821026
 10
181.2782292423
 20
115.9740784656
 10
181.6235105676
 20
116.3420910466
 10
181.8556641397
 20
116.7815393287
 10
181.9588714448
 20
117.2624761689
 10
181.9260972721
 20
117.7521264631
 10
181.7595758644
 20
118.2171218547
 10
181.470654456
 20
118.6257731619
 10
181.0790240002
 20
118.9502310458
 10
180.6113734079
 20
119.1683840457
 10
180.0995706749
 20
119.265367322
 10
179.5784956944
 20
119.2345694157
 10
179.0836579335
 20
119.0780904594
 10
178.6487805826
 20
118.8065940964
 10
178.3035001886
 20
118.4385810497
 10
178.0713456852
 20
117.9991327676
 10
177.9681393114
 20
117.5181959274
 10
178.0009134841
 20
117.0285456333
 10
178.1674348918
 20
116.5635502416
 10
178.4563553688
 20
116.1548994
 10
178.8479858247
 20
115.8304415162
 10
179.3156373483
 20
115.6122880507
 10
179.8274400813
 20
115.51530524
  0
LWPOLYLINE
  5
129
330
1F
100
AcDbEntity
  8
0
  6
HIDDEN
 62
     7
370
     0
100
AcDbPolyline
 90
       21
 70
   128
 43
0.0
 10
179.861455707
 20
116.9246184158
 10
180.3289023397
 20
116.9638131264
 10
180.7605805975
 20
117.1368267837
 10
181.1142363754
 20
117.4267242181
 10
181.3552496192
 20
117.8051280308
 10
181.4600299281
 20
118.2349967289
 10
181.4183197153
 20
118.6742522272
 10
181.2342018989
 20
119.0798972252
 10
180.9256994334
 20
119.4122247848
 10
180.5230113846
 20
119.6387038085
 10
180.0655541179
 20
119.7371650937
 10
179.5981084165
 20
119.6979694518
 10
179.1664292273
 20
119.5249557945
 10
178.8127743808
 20
119.2350583601
 10
178.5717602057
 20
118.8566554788
 10
178.4669808281
 20
118.4267858493
 10
178.5086910409
 20
117.987530351
 10
178.692807926
 20
117.581885353
 10
179.0013103915
 20
117.2495577934
 10
179.4039993716
 20
117.0230797011
 10
179.861455707
 20
116.9246184158
  0
LWPOLYLINE
  5
12A
330
1F
100
AcDbEntity
  8
0
  6
HIDDEN
 62
     7
370
     0
100
AcDbPolyline
 90
       21
 70
   128
 43
0.0
 10
179.861455707
 20
115.9211397621
 10
180.3289023397
 20
115.9603349383
 10
180.7605805975
 20
116.1333485956
 10
181.1142363754
 20
116.4232460301
 10
181.3552496192
 20
116.801649377
 10
181.4600299281
 20
117.2315180752
 10
181.4183197153
 20
117.6707745048
 10
181.2342018989
 20
118.0764195028
 10
180.9256994334
 20
118.4087461311
 10
180.5230113846
 20
118.6352251548
 10
180.0655541179
 20
118.73368644
 10
179.5981084165
 20
118.6944917294
 10
179.1664292273
 20
118.5214771408
 10
178.8127743808
 20
118.2315806377
 10
178.5717602057
 20
117.853176825
 10
178.4669808281
 20
117.4233081269
 10
178.5086910409
 20
116.9840516973
 10
178.692807926
 20
116.578407165
 10
179.0013103915
 20
116.2460796054
 10
179.4039993716
 20
116.0196010473
 10
179.861455707
 20
115.9211397621
  0
LWPOLYLINE
  5
12B
330
1F
100
AcDbEntity
  8
0
  6
HIDDEN
 62
     7
370
     0
100
AcDbPolyline
 90
       25
 70
   128
 43
0.0
 10
179.8274400813
 20
115.7076918039
 10
180.3485150618
 20
115.7384892444
 10
180.8433518914
 20
115.8949682008
 10
181.2782292423
 20
116.1664650294
 10
181.6235105676
 20
116.5344771448
 10
181.8556641397
 20
116.9739254269
 10
181.9588714448
 20
117.4548631984
 10
181.9260972721
 20
117.9445134926
 10
181.7595758644
 20
118.4095079529
 10
181.470654456
 20
118.8181592602
 10
181.0790240002
 20
119.142617144
 10
180.6113734079
 20
119.3607710752
 10
180.0995706749
 20
119.4577534202
 10
179.5784956944
 20
119.426955514
 10
179.0836579335
 20
119.2704765576
 10
178.6487805826
 20
118.9989801946
 10
178.3035001886
 20
118.6309680793
 10
178.0713456852
 20
118.1915188658
 10
177.9681393114
 20
117.7105820256
 10
178.0009134841
 20
117.2209317315
 10
178.1674348918
 20
116.7559368055
 10
178.4563553688
 20
116.3472859639
 10
178.8479858247
 20
116.0228280801
 10
179.3156373483
 20
115.8046741489
 10
179.8274400813
 20
115.7076918039
  0
LWPOLYLINE
  5
12C
330
1F
100
AcDbEntity
  8
0
  6
HIDDEN
 62
     7
370
     0
100
AcDbPolyline
 90
       24
 70
   128
 43
0.0
 10
179.8383244482
 20
115.7134040709
 10
180.3382425738
 20
115.7456366795
 10
180.8103681711
 20
115.9034157622
 10
181.2196853739
 20
116.175040182
 10
181.535837723
 20
116.5403645004
 10
181.7353773099
 20
116.9722946811
 10
181.8035054189
 20
117.4387960213
 10
181.7351686937
 20
117.9052703533
 10
181.5354353917
 20
118.3371218371
 10
181.2191200611
 20
118.7023213583
 10
180.8096817863
 20
118.9737841937
 10
180.3374854085
 20
119.1313770118
 10
179.8375533131
 20
119.1634117144
 10
179.3469623831
 20
119.0675124976
 10
178.9020975289
 20
118.8507918718
 10
178.5359527153
 20
118.5293235335
 10
178.2756825146
 20
118.1269484091
 10
178.1405904499
 20
117.6735097992
 10
178.1406956893
 20
117.2026358995
 10
178.2759907824
 20
116.749250375
 10
178.5364407283
 20
116.3469781618
 10
178.9027289656
 20
116.0256541784
 10
179.3476906774
 20
115.8091095726
 10
179.8383244482
 20
115.7134040709
  0
LWPOLYLINE
  5
12D
330
1F
100
AcDbEntity
  8
0
  6
HIDDEN
 62
     7
370
     0
100
AcDbPolyline
 90
       25
 70
   128
 43
0.0
 10
179.8274400813
 20
115.9000779021
 10
180.3485150618
 20
115.9308753426
 10
180.8433518914
 20
116.0873547646
 10
181.2782292423
 20
116.3588511276
 10
181.6235105676
 20
116.7268637086
 10
181.8556641397
 20
117.1663124564
 10
181.9588714448
 20
117.6472492966
 10
181.9260972721
 20
118.1368995908
 10
181.7595758644
 20
118.6018940511
 10
181.470654456
 20
119.0105453584
 10
181.0790240002
 20
119.3350032422
 10
180.6113734079
 20
119.5531571734
 10
180.0995706749
 20
119.6501395184
 10
179.5784956944
 20
119.6193416122
 10
179.0836579335
 20
119.4628626558
 10
178.6487805826
 20
119.1913662928
 10
178.3035001886
 20
118.8233541775
 10
178.0713456852
 20
118.3839058954
 10
177.9681393114
 20
117.9029681239
 10
178.0009134841
 20
117.4133178297
 10
178.1674348918
 20
116.9483233693
 10
178.4563553688
 20
116.5396720621
 10
178.8479858247
 20
116.2152141783
 10
179.3156373483
 20
115.9970607127
 10
179.8274400813
 20
115.9000779021
  0
LWPOLYLINE
  5
12E
330
1F
100
AcDbEntity
  8
0
  6
HIDDEN
 62
     7
370
     0
100
AcDbPolyline
 90
       24
 70
   128
 43
0.0
 10
179.8383244482
 20
115.9057906348
 10
180.3382425738
 20
115.9380227777
 10
180.8103681711
 20
116.0958023261
 10
181.2196853739
 20
116.3674267459
 10
181.535837723
 20
116.7327510643
 10
181.7353773099
 20
117.1646807793
 10
181.8035054189
 20
117.6311821195
 10
181.7351686937
 20
118.0976564515
 10
181.5354353917
 20
118.5295079353
 10
181.2191200611
 20
118.8947074565
 10
180.8096817863
 20
119.1661702919
 10
180.3374854085
 20
119.32376311
 10
179.8375533131
 20
119.3557978126
 10
179.3469623831
 20
119.2598985958
 10
178.9020975289
 20
119.0431789014
 10
178.5359527153
 20
118.7217096317
 10
178.2756825146
 20
118.3193345073
 10
178.1405904499
 20
117.8658958974
 10
178.1406956893
 20
117.3950219977
 10
178.2759907824
 20
116.9416364732
 10
178.5364407283
 20
116.53936426
 10
178.9027289656
 20
116.2180402766
 10
179.3476906774
 20
116.0014956708
 10
179.8383244482
 20
115.9057906348
  0
LWPOLYLINE
  5
12F
330
1F
100
AcDbEntity
  8
0
  6
HIDDEN
 62
     7
370
     0
100
AcDbPolyline
 90
       25
 70
   128
 43
0.0
 10
179.8274400813
 20
116.0924644659
 10
180.3485150618
 20
116.1232619065
 10
180.8433518914
 20
116.2797408628
 10
181.2782292423
 20
116.5512376915
 10
181.6235105676
 20
116.9192502725
 10
181.8556641397
 20
117.3586985546
 10
181.9588714448
 20
117.8396353948
 10
181.9260972721
 20
118.329285689
 10
181.7595758644
 20
118.7942810807
 10
181.470654456
 20
119.2029314566
 10
181.0790240002
 20
119.5273893404
 10
180.6113734079
 20
119.7455432716
 10
180.0995706749
 20
119.8425256166
 10
179.5784956944
 20
119.8117286417
 10
179.0836579335
 20
119.6552496853
 10
178.6487805826
 20
119.383752391
 10
178.3035001886
 20
119.0157402757
 10
178.0713456852
 20
118.5762919936
 10
177.9681393114
 20
118.0953551534
 10
178.0009134841
 20
117.6057048592
 10
178.1674348918
 20
117.1407094675
 10
178.4563553688
 20
116.732058626
 10
178.8479858247
 20
116.4076007421
 10
179.3156373483
 20
116.1894468109
 10
179.8274400813
 20
116.0924644659
  0
LWPOLYLINE
  5
130
330
1F
100
AcDbEntity
  8
0
  6
HIDDEN
 62
     7
370
     0
100
AcDbPolyline
 90
       24
 70
   128
 43
0.0
 10
179.8383244482
 20
116.098176733
 10
180.3382425738
 20
116.1304093416
 10
180.8103681711
 20
116.2881884243
 10
181.2196853739
 20
116.5598128441
 10
181.535837723
 20
116.9251371625
 10
181.7353773099
 20
117.3570678088
 10
181.8035054189
 20
117.8235691491
 10
181.7351686937
 20
118.290043481
 10
181.5354353917
 20
118.7218940336
 10
181.2191200611
 20
119.0870935547
 10
180.8096817863
 20
119.3585563901
 10
180.3374854085
 20
119.5161492082
 10
179.8375533131
 20
119.5481839108
 10
179.3469623831
 20
119.4522856253
 10
178.9020975289
 20
119.2355649996
 10
178.5359527153
 20
118.9140966612
 10
178.2756825146
 20
118.5117215368
 10
178.1405904499
 20
118.0582819957
 10
178.1406956893
 20
117.5874080959
 10
178.2759907824
 20
117.1340225714
 10
178.5364407283
 20
116.7317508239
 10
178.9027289656
 20
116.4104268405
 10
179.3476906774
 20
116.1938822347
 10
179.8383244482
 20
116.098176733
  0
LWPOLYLINE
  5
131
330
1F
100
AcDbEntity
  8
0
  6
HIDDEN
 62
     7
370
     0
100
AcDbPolyline
 90
       25
 70
   128
 43
0.0
 10
179.8274400813
 20
116.2848505642
 10
180.3485150618
 20
116.3156480047
 10
180.8433518914
 20
116.4721274267
 10
181.2782292423
 20
116.7436237897
 10
181.6235105676
 20
117.1116363707
 10
181.8556641397
 20
117.5510846528
 10
181.9588714448
 20
118.032021493
 10
181.9260972721
 20
118.5216717872
 10
181.7595758644
 20
118.9866671789
 10
181.470654456
 20
119.3953184861
 10
181.0790240002
 20
119.7197763699
 10
180.6113734079
 20
119.9379293698
 10
180.0995706749
 20
120.0349126461
 10
179.5784956944
 20
120.0041147399
 10
179.0836579335
 20
119.8476357836
 10
178.6487805826
 20
119.5761384892
 10
178.3035001886
 20
119.2081263739
 10
178.0713456852
 20
118.7686780918
 10
177.9681393114
 20
118.2877412516
 10
178.0009134841
 20
117.7980909574
 10
178.1674348918
 20
117.3330955657
 10
178.4563553688
 20
116.9244451898
 10
178.8479858247
 20
116.5999868403
 10
179.3156373483
 20
116.3818333748
 10
179.8274400813
 20
116.2848505642
  0
LWPOLYLINE
  5
132
330
1F
100
AcDbEntity
  8
0
  6
HIDDEN
 62
     7
370
     0
100
AcDbPolyline
 90
       24
 70
   128
 43
0.0
 10
179.8383244482
 20
116.2905632968
 10
180.3382425738
 20
116.3227954398
 10
180.8103681711
 20
116.4805749881
 10
181.2196853739
 20
116.752199408
 10
181.535837723
 20
117.1175232607
 10
181.7353773099
 20
117.549453907
 10
181.8035054189
 20
118.0159552473
 10
181.7351686937
 20
118.4824295792
 10
181.5354353917
 20
118.9142810631
 10
181.2191200611
 20
119.2794805843
 10
180.8096817863
 20
119.5509434196
 10
180.3374854085
 20
119.7085353065
 10
179.8375533131
 20
119.7405709404
 10
179.3469623831
 20
119.6446717235
 10
178.9020975289
 20
119.4279510978
 10
178.5359527153
 20
119.1064827594
 10
178.2756825146
 20
118.704107635
 10
178.1405904499
 20
118.2506680939
 10
178.1406956893
 20
117.7797951254
 10
178.2759907824
 20
117.326409601
 10
178.5364407283
 20
116.9241369221
 10
178.9027289656
 20
116.6028129387
 10
179.3476906774
 20
116.3862683329
 10
179.8383244482
 20
116.2905632968
  0
LWPOLYLINE
  5
133
330
1F
100
AcDbEntity
  8
0
  6
HIDDEN
 62
     7
370
     0
100
AcDbPolyline
 90
       25
 70
   128
 43
0.0
 10
179.8274400813
 20
116.4216585907
 10
180.3485150618
 20
116.4524560313
 10
180.8433518914
 20
116.6089354533
 10
181.2782292423
 20
116.8804318163
 10
181.6235105676
 20
117.2484439316
 10
181.8556641397
 20
117.6878931451
 10
181.9588714448
 20
118.1688299853
 10
181.9260972721
 20
118.6584802794
 10
181.7595758644
 20
119.1234747398
 10
181.470654456
 20
119.532126047
 10
181.0790240002
 20
119.8565839309
 10
180.6113734079
 20
120.0747378621
 10
180.0995706749
 20
120.171720207
 10
179.5784956944
 20
120.1409232321
 10
179.0836579335
 20
119.9844433445
 10
178.6487805826
 20
119.7129469815
 10
178.3035001886
 20
119.3449348661
 10
178.0713456852
 20
118.905486584
 10
177.9681393114
 20
118.4245488125
 10
178.0009134841
 20
117.9348985183
 10
178.1674348918
 20
117.469904058
 10
178.4563553688
 20
117.0612527508
 10
178.8479858247
 20
116.7367948669
 10
179.3156373483
 20
116.5186414014
 10
179.8274400813
 20
116.4216585907
  0
LWPOLYLINE
  5
134
330
1F
100
AcDbEntity
  8
0
  6
HIDDEN
 62
     7
370
     0
100
AcDbPolyline
 90
       24
 70
   128
 43
0.0
 10
179.8342433927
 20
116.5496120679
 10
180.3504624573
 20
116.5828956741
 10
180.8379828167
 20
116.7458198483
 10
181.2606477347
 20
117.0263011459
 10
181.5871098247
 20
117.4035389426
 10
181.7931556312
 20
117.8495530489
 10
181.8635049445
 20
118.3312666121
 10
181.7929404956
 20
118.8129522356
 10
181.5866944549
 20
119.2588853168
 10
181.2600637955
 20
119.6359936598
 10
180.8372740802
 20
119.9163087162
 10
180.3496801463
 20
120.0790405723
 10
179.8334461805
 20
120.1121192876
 10
179.3268579227
 20
120.0130936208
 10
178.8674858567
 20
119.7893061194
 10
178.4894014877
 20
119.4573548141
 10
178.2206441444
 20
119.0418592173
 10
178.0811478552
 20
118.5736339989
 10
178.0812558887
 20
118.0874053839
 10
178.2209626568
 20
117.6192360449
 10
178.4899053332
 20
117.2038456875
 10
178.8681387139
 20
116.8720443252
 10
179.3276104313
 20
116.648437966
 10
179.8342433927
 20
116.5496120679
  0
CIRCLE
  5
135
330
1F
100
AcDbEntity
  8
0
  6
HIDDEN
 62
     7
370
     0
100
AcDbCircle
 10
196.9135051099
 20
109.0279436189
 30
0.0
 40
1.426794919243127
  0
CIRCLE
  5
136
330
1F
100
AcDbEntity
  8
0
  6
HIDDEN
 62
     7
370
     0
100
AcDbCircle
 10
196.9135051099
 20
109.0279436189
 30
0.0
 40
1.326794919243113
  0
SPLINE
  5
137
330
1F
100
AcDbEntity
  8
0
  6
HIDDEN
 62
     7
370
     0
100
AcDbSpline
210
0.0
220
0.0
230
1.0
 70
     8
 71
     3
 72
     9
 73
     5
 74
     0
 42
0.000000001
 43
0.00000001
 40
0.0
 40
0.0
 40
0.0
 40
0.0
 40
0.9333113421934416
 40
1.0
 40
1.0
 40
1.0
 40
1.0
 10
177.9876141977585
 20
101.2814045402413
 30
0.0
 10
177.9730383792098
 20
101.1804344521816
 30
0.0
 10
177.9574210627904
 20
101.0722496659319
 30
0.0
 10
177.9644509176735
 20
100.979767168957
 30
0.0
 10
177.9649197292603
 20
100.9735996353632
 30
0.0
  0
LWPOLYLINE
  5
138
330
1F
100
AcDbEntity
  8
0
  6
HIDDEN
 62
     7
370
     0
100
AcDbPolyline
 90
       23
 70
   128
 43
0.0
 10
177.9876141978
 20
100.699535616
 10
178.1429960561
 20
100.2123132798
 10
178.4317190928
 20
99.7820860225
 10
178.8326366973
 20
99.4403660747
 10
179.3163833377
 20
99.2121817994
 10
179.8475287092
 20
99.1142476428
 10
180.3871686739
 20
99.1537357199
 10
180.8957769704
 20
99.327753343
 10
181.3361025584
 20
99.6235562938
 10
181.6758928058
 20
100.0194773528
 10
181.8902609107
 20
100.4865179288
 10
181.9635047746
 20
100.9904705438
 10
181.8902609107
 20
101.4944226931
 10
181.6758928058
 20
101.9614632691
 10
181.3361025584
 20
102.3573843281
 10
180.8957769704
 20
102.6531868133
 10
180.3871686739
 20
102.827204902
 10
179.8475287092
 20
102.8666929792
 10
179.3163833377
 20
102.7687583569
 10
178.8326366973
 20
102.5405745472
 10
178.4317190928
 20
102.1988545994
 10
178.1429960561
 20
101.7686273421
 10
177.9876141978
 20
101.2814045402
  0
LWPOLYLINE
  5
139
330
1F
100
AcDbEntity
  8
0
  6
HIDDEN
 62
     7
370
     0
100
AcDbPolyline
 90
       25
 70
   128
 43
0.0
 10
170.4137167131
 20
100.1297589841
 10
170.5421211832
 20
99.5968003276
 10
170.7404388749
 20
99.1001613888
 10
170.9951544349
 20
98.6736882928
 10
171.2889094074
 20
98.3464438918
 10
171.6016852466
 20
98.1407296363
 10
171.9121663069
 20
98.0705637935
 10
172.1991943364
 20
98.1407296363
 10
172.4432083015
 20
98.3464438918
 10
172.6275794377
 20
98.6736882928
 10
172.7397432719
 20
99.1001613888
 10
172.7720555087
 20
99.5968003276
 10
172.7223145013
 20
100.1297589841
 10
172.5939097983
 20
100.6627176407
 10
172.3955925723
 20
101.1593565795
 10
172.1408767794
 20
101.5858296755
 10
171.8471218069
 20
101.9130740765
 10
171.5343459678
 20
102.118788332
 10
171.2238649075
 20
102.1889537092
 10
170.9368368779
 20
102.118788332
 10
170.6928229128
 20
101.9130740765
 10
170.5084517767
 20
101.5858296755
 10
170.3962881752
 20
101.1593565795
 10
170.3639757057
 20
100.6627176407
 10
170.4137167131
 20
100.1297589841
  0
LWPOLYLINE
  5
13A
330
1F
100
AcDbEntity
  8
0
  6
HIDDEN
 62
     7
370
     0
100
AcDbPolyline
 90
       22
 70
   128
 43
0.0
 10
170.7952325401
 20
100.161889613
 10
170.9152287972
 20
99.6849937814
 10
171.1051492189
 20
99.2504721957
 10
171.3481187058
 20
98.8969346958
 10
171.6225482692
 20
98.6557929295
 10
171.9040535559
 20
98.5484747666
 10
172.1676215698
 20
98.5845160189
 10
172.3898332735
 20
98.7607138681
 10
172.5509441626
 20
99.0614118505
 10
172.6366384124
 20
99.4598921838
 10
172.6393024606
 20
99.920748778
 10
172.5586992857
 20
100.4030313793
 10
172.4019907584
 20
100.8638870421
 10
172.1831010823
 20
101.2623678412
 10
171.9214795326
 20
101.5630658235
 10
171.6403723863
 20
101.7392636727
 10
171.3647572492
 20
101.7753044593
 10
171.1191237141
 20
101.6679867621
 10
170.9252977912
 20
101.4268454614
 10
170.8005012647
 20
101.0733070302
 10
170.7558229269
 20
100.6387854445
 10
170.7952325401
 20
100.161889613
  0
ELLIPSE
  5
13B
330
1F
100
AcDbEntity
  8
0
  6
HIDDEN
 62
     7
370
     0
100
AcDbEllipse
 10
179.9635051099
 20
102.1403535583
 30
0.0
 11
1.383467579512114
 21
-1.091267719176599
 31
0.0
210
0.0
220
0.0
230
1.0
 40
0.8239737799
 41
2.147131942757438
 42
5.288724596347245
  0
ELLIPSE
  5
13C
330
1F
100
AcDbEntity
  8
0
  6
HIDDEN
 62
     7
370
     0
100
AcDbEllipse
 10
179.9635051099
 20
102.1403535583
 30
0.0
 11
1.383467579512114
 21
1.753907414218489
 31
0.0
210
0.0
220
0.0
230
1.0
 40
0.5126701559
 41
0.9944607108323573
 42
4.136053364422164
  0
SPLINE
  5
13D
330
1F
100
AcDbEntity
  8
0
  6
HIDDEN
 62
     7
370
     0
100
AcDbSpline
210
0.0
220
0.0
230
1.0
 70
     8
 71
     3
 72
    14
 73
    10
 74
     0
 42
0.000000001
 43
0.00000001
 40
0.0
 40
0.0
 40
0.0
 40
0.0
 40
0.25
 40
0.25
 40
0.5
 40
0.5
 40
0.75
 40
0.75
 40
1.0
 40
1.0
 40
1.0
 40
1.0
 10
177.9876143472337
 20
100.6995360520564
 30
0.0
 10
178.0239781752639
 20
100.7450306874582
 30
0.0
 10
178.0564559024741
 20
100.7934224936745
 30
0.0
 10
178.1052095318898
 20
100.898907637604
 30
0.0
 10
178.1201133095643
 20
100.9554921458469
 30
0.0
 10
178.120123743222
 20
101.0643797397974
 30
0.0
 10
178.1052334474138
 20
101.11656440556
 30
0.0
 10
178.0563445165363
 20
101.2078418045035
 30
0.0
 10
178.0239723382658
 20
101.2465085098777
 30
0.0
 10
177.9876143472337
 20
101.2814044494255
 30
0.0
  0
LWPOLYLINE
  5
13E
330
1F
100
AcDbEntity
  8
0
  6
HIDDEN
 62
     7
370
     0
100
AcDbPolyline
 90
       22
 70
   128
 43
0.0
 10
179.9635053781
 20
99.4835468459
 10
180.4498513398
 20
99.5524311888
 10
180.8929830027
 20
99.7529626343
 10
181.2535268423
 20
100.0673240501
 10
181.4994472248
 20
100.4675813469
 10
181.6088915971
 20
100.9181719723
 10
181.5721360204
 20
101.3790569718
 10
181.3924466428
 20
101.8092865574
 10
181.0857900587
 20
102.1706318001
 10
180.6794130412
 20
102.4309858198
 10
180.2094248292
 20
102.5672150294
 10
179.7175849957
 20
102.5672150294
 10
179.2475967837
 20
102.4309858198
 10
178.8412197662
 20
102.1706318001
 10
178.534563182
 20
101.8092865574
 10
178.3548738045
 20
101.3790569718
 10
178.3181191591
 20
100.9181719723
 10
178.4275635314
 20
100.4675813469
 10
178.6734829825
 20
100.0673240501
 10
179.0340268222
 20
99.7529626343
 10
179.4771594164
 20
99.5524311888
 10
179.9635053781
 20
99.4835468459
  0
SPLINE
  5
13F
330
1F
100
AcDbEntity
  8
0
  6
HIDDEN
 62
     7
370
     0
100
AcDbSpline
210
0.0
220
0.0
230
1.0
 70
    11
 71
     3
 72
    56
 73
    52
 74
     0
 42
0.000000001
 43
0.00000001
 40
0.0
 40
0.0
 40
0.0
 40
0.0
 40
0.0625000000000001
 40
0.0625000000000001
 40
0.0937500000000001
 40
0.0937500000000001
 40
0.1250000000000002
 40
0.1250000000000002
 40
0.1562500000000002
 40
0.1562500000000002
 40
0.1875000000000003
 40
0.1875000000000003
 40
0.2187500000000003
 40
0.2187500000000003
 40
0.2500000000000004
 40
0.2500000000000004
 40
0.3125000000000006
 40
0.3125000000000006
 40
0.3750000000000008
 40
0.3750000000000008
 40
0.4062500000000007
 40
0.4062500000000007
 40
0.4375000000000007
 40
0.4375000000000007
 40
0.5000000000000006
 40
0.5000000000000006
 40
0.5312500000000006
 40
0.5312500000000006
 40
0.5625000000000006
 40
0.5625000000000006
 40
0.5937500000000006
 40
0.5937500000000006
 40
0.6250000000000007
 40
0.6250000000000007
 40
0.6562500000000007
 40
0.6562500000000007
 40
0.6875000000000008
 40
0.6875000000000008
 40
0.7187500000000008
 40
0.7187500000000008
 40
0.7500000000000007
 40
0.7500000000000007
 40
0.7812500000000008
 40
0.7812500000000008
 40
0.8125000000000007
 40
0.8125000000000007
 40
0.8750000000000004
 40
0.8750000000000004
 40
0.9375000000000002
 40
0.9375000000000002
 40
1.0
 40
1.0
 40
1.0
 40
1.0
 10
179.9635051098741
 20
107.0331535955084
 30
0.0
 10
179.7325372421219
 20
107.0331535955084
 30
0.0
 10
179.5116959328693
 20
107.0570249531715
 30
0.0
 10
179.2214241149854
 20
107.1287692878401
 30
0.0
 10
179.1293841204461
 20
107.1592277938147
 30
0.0
 10
178.9590663006983
 20
107.2329556040834
 30
0.0
 10
178.8803158706542
 20
107.2761922432301
 30
0.0
 10
178.7341113808622
 20
107.377907464487
 30
0.0
 10
178.6661229821612
 20
107.4371000772667
 30
0.0
 10
178.5464070473761
 20
107.5702452430397
 30
0.0
 10
178.4942699194855
 20
107.6441945318082
 30
0.0
 10
178.4069452943488
 20
107.8100588524195
 30
0.0
 10
178.3725119438296
 20
107.9012290603689
 30
0.0
 10
178.3260555149475
 20
108.0950526456074
 30
0.0
 10
178.3137154479779
 20
108.2001651114749
 30
0.0
 10
178.3130926962874
 20
108.5202770623875
 30
0.0
 10
178.3612748706087
 20
108.7465330068022
 30
0.0
 10
178.5345907113674
 20
109.1699220206259
 30
0.0
 10
178.657708087495
 20
109.3664979260385
 30
0.0
 10
178.8776963183184
 20
109.6206502960036
 30
0.0
 10
178.9566773340302
 20
109.6985028102047
 30
0.0
 10
179.1274094018301
 20
109.8402969256809
 30
0.0
 10
179.2192375166062
 20
109.9040700989304
 30
0.0
 10
179.5094941078372
 20
110.0647293220505
 30
0.0
 10
179.7327498195002
 20
110.1338975428464
 30
0.0
 10
180.0769909896585
 20
110.1342591012638
 30
0.0
 10
180.1895797882376
 20
110.1178853986537
 30
0.0
 10
180.4084826992632
 20
110.0564401946302
 30
0.0
 10
180.5106062953994
 20
110.0129050306142
 30
0.0
 10
180.7048716976549
 20
109.9059640882871
 30
0.0
 10
180.7969140347616
 20
109.8422251711432
 30
0.0
 10
180.9668645630157
 20
109.701675631001
 30
0.0
 10
181.0457690592584
 20
109.6243154078435
 30
0.0
 10
181.1927157802529
 20
109.4553888818644
 30
0.0
 10
181.2606067503754
 20
109.3636175937533
 30
0.0
 10
181.3800679476554
 20
109.1718767022354
 30
0.0
 10
181.4324056077459
 20
109.0711180776642
 30
0.0
 10
181.5203387675363
 20
108.8584867485427
 30
0.0
 10
181.5542872389654
 20
108.7505286904405
 30
0.0
 10
181.6009451700475
 20
108.5313293538673
 30
0.0
 10
181.6132546307898
 20
108.4197073791816
 30
0.0
 10
181.6137477885753
 20
108.2064397680459
 30
0.0
 10
181.6020459197701
 20
108.1017641153036
 30
0.0
 10
181.5561792853968
 20
107.9062091971266
 30
0.0
 10
181.522572262271
 20
107.8158779232857
 30
0.0
 10
181.3919058723366
 20
107.5646123188668
 30
0.0
 10
181.2690323513498
 20
107.4314695983162
 30
0.0
 10
180.9760620353538
 20
107.2264683886082
 30
0.0
 10
180.8042423453675
 20
107.1533564748269
 30
0.0
 10
180.4172673414473
 20
107.0573066305834
 30
0.0
 10
180.1944729776263
 20
107.0331535955084
 30
0.0
 10
179.9635051098741
 20
107.0331535955084
 30
0.0
  0
ELLIPSE
  5
140
330
1F
100
AcDbEntity
  8
0
  6
HIDDEN
 62
     7
370
     0
100
AcDbEllipse
 10
179.9635051099
 20
102.1403535583
 30
0.0
 11
1.383467579512114
 21
-1.091267719176599
 31
0.0
210
0.0
220
0.0
230
1.0
 40
0.8239737799
 41
5.288724596347241
 42
5.33112584365322
  0
SPLINE
  5
141
330
1F
100
AcDbEntity
  8
0
  6
HIDDEN
 62
     7
370
     0
100
AcDbSpline
210
0.0
220
0.0
230
1.0
 70
     8
 71
     3
 72
     8
 73
     4
 74
     0
 42
0.000000001
 43
0.00000001
 40
0.0
 40
0.0
 40
0.0
 40
0.0
 40
1.0
 40
1.0
 40
1.0
 40
1.0
 10
180.0334462060674
 20
100.578801692509
 30
0.0
 10
180.0164614799397
 20
100.5859174025683
 30
0.0
 10
179.9994573353729
 20
100.5937925321018
 30
0.0
 10
179.982458451268
 20
100.6024156515702
 30
0.0
  0
ELLIPSE
  5
142
330
1F
100
AcDbEntity
  8
0
  6
HIDDEN
 62
     7
370
     0
100
AcDbEllipse
 10
179.9635051099
 20
102.1403535583
 30
0.0
 11
1.383467579512114
 21
1.753907414218489
 31
0.0
210
0.0
220
0.0
230
1.0
 40
0.5126701559
 41
4.136053364422164
 42
4.147540490653185
  0
ELLIPSE
  5
143
330
1F
100
AcDbEntity
  8
0
  6
HIDDEN
 62
     7
370
     0
100
AcDbEllipse
 10
179.9635051099
 20
102.1403535583
 30
0.0
 11
1.383467579512114
 21
1.753907414218489
 31
0.0
210
0.0
220
0.0
230
1.0
 40
0.5126701559
 41
0.9829735846013181
 42
0.9944607108323573
  0
SPLINE
  5
144
330
1F
100
AcDbEntity
  8
0
  6
HIDDEN
 62
     7
370
     0
100
AcDbSpline
210
0.0
220
0.0
230
1.0
 70
     8
 71
     3
 72
     8
 73
     4
 74
     0
 42
0.000000001
 43
0.00000001
 40
0.0
 40
0.0
 40
0.0
 40
0.0
 40
1.0
 40
1.0
 40
1.0
 40
1.0
 10
179.9824584512679
 20
103.7031967085751
 30
0.0
 10
179.9994573353729
 20
103.6952134350508
 30
0.0
 10
180.0164614799397
 20
103.6864770325899
 30
0.0
 10
180.0334462060675
 20
103.677000180737
 30
0.0
  0
ELLIPSE
  5
145
330
1F
100
AcDbEntity
  8
0
  6
HIDDEN
 62
     7
370
     0
100
AcDbEllipse
 10
179.9635051099
 20
102.1403535583
 30
0.0
 11
1.383467579512114
 21
-1.091267719176599
 31
0.0
210
0.0
220
0.0
230
1.0
 40
0.8239737799
 41
2.104730695451558
 42
2.147131942757435
  0
LINE
  5
146
330
1F
100
AcDbEntity
  8
0
  6
HIDDEN
 62
     7
370
     0
100
AcDbLine
 10
170.163505029
 20
133.8279443312
 30
0.0
 11
170.500763476
 21
133.8279443312
 31
0.0
  0
ELLIPSE
  5
147
330
1F
100
AcDbEntity
  8
0
  6
HIDDEN
 62
     7
370
     0
100
AcDbEllipse
 10
170.5007634101
 20
135.4279436189
 30
0.0
 11
0.0
 21
1.600000000000023
 31
0.0
210
0.0
220
0.0
230
1.0
 40
0.4142135624
 41
3.141592653589793
 42
4.712388980384695
  0
LINE
  5
148
330
1F
100
AcDbEntity
  8
0
  6
HIDDEN
 62
     7
370
     0
100
AcDbLine
 10
170.500763476
 20
86.4279428947
 30
0.0
 11
170.163505029
 21
86.4279428947
 31
0.0
  0
ELLIPSE
  5
149
330
1F
100
AcDbEntity
  8
0
  6
HIDDEN
 62
     7
370
     0
100
AcDbEllipse
 10
170.5007634101
 20
84.8279436189
 30
0.0
 11
0.0
 21
1.599999999999994
 31
0.0
210
0.0
220
0.0
230
1.0
 40
0.4142135624
 41
4.712388980384695
 42
6.283185307179586
  0
LINE
  5
14A
330
1F
100
AcDbEntity
  8
0
  6
HIDDEN
 62
     7
370
     0
100
AcDbLine
 10
171.1635049601
 20
79.1344950426
 30
0.0
 11
170.3796496318
 21
78.6762135553
 31
0.0
  0
LINE
  5
14B
330
1F
100
AcDbEntity
  8
0
  6
HIDDEN
 62
     7
370
     0
100
AcDbLine
 10
170.4507467971
 20
139.4532407153
 30
0.0
 11
171.1635049601
 21
138.7404809225
 31
0.0
  0
LINE
  5
14C
330
1F
100
AcDbEntity
  8
0
  6
HIDDEN
 62
     7
370
     0
100
AcDbLine
 10
105.7135039178
 20
100.527943157
 30
0.0
 11
105.7135039178
 21
117.5279440808
 31
0.0
  0
LINE
  5
14D
330
1F
100
AcDbEntity
  8
0
  6
HIDDEN
 62
     7
370
     0
100
AcDbLine
 10
108.7094345299
 20
102.0279434028
 30
0.0
 11
108.7094345299
 21
116.027943835
 31
0.0
  0
LINE
  5
14E
330
1F
100
AcDbEntity
  8
0
  6
HIDDEN
 62
     7
370
     0
100
AcDbLine
 10
174.9987150711
 20
79.1344950426
 30
0.0
 11
171.1635049601
 21
79.1344950426
 31
0.0
  0
LINE
  5
14F
330
1F
100
AcDbEntity
  8
0
  6
HIDDEN
 62
     7
370
     0
100
AcDbLine
 10
186.0135053453
 20
79.1344950426
 30
0.0
 11
181.1282946897
 21
79.1344950426
 31
0.0
  0
LINE
  5
150
330
1F
100
AcDbEntity
  8
0
  6
HIDDEN
 62
     7
370
     0
100
AcDbLine
 10
171.1635049601
 20
79.1344950426
 30
0.0
 11
171.1635049601
 21
84.82794375
 31
0.0
  0
LINE
  5
151
330
1F
100
AcDbEntity
  8
0
  6
HIDDEN
 62
     7
370
     0
100
AcDbLine
 10
186.0135053453
 20
86.4279428947
 30
0.0
 11
170.500763476
 21
86.4279428947
 31
0.0
  0
LINE
  5
152
330
1F
100
AcDbEntity
  8
0
  6
HIDDEN
 62
     7
370
     0
100
AcDbLine
 10
171.1635049601
 20
138.7404809225
 30
0.0
 11
175.0995502976
 21
138.7404809225
 31
0.0
  0
LINE
  5
153
330
1F
100
AcDbEntity
  8
0
  6
HIDDEN
 62
     7
370
     0
100
AcDbLine
 10
181.0274594632
 20
138.7404809225
 30
0.0
 11
186.0135053453
 21
138.7404809225
 31
0.0
  0
LINE
  5
154
330
1F
100
AcDbEntity
  8
0
  6
HIDDEN
 62
     7
370
     0
100
AcDbLine
 10
171.1635049601
 20
138.7404809225
 30
0.0
 11
171.1635049601
 21
135.4279434758
 31
0.0
  0
LINE
  5
155
330
1F
100
AcDbEntity
  8
0
  6
HIDDEN
 62
     7
370
     0
100
AcDbLine
 10
170.500763476
 20
133.8279443312
 30
0.0
 11
186.0135053453
 21
133.8279443312
 31
0.0
  0
LINE
  5
156
330
1F
100
AcDbEntity
  8
0
  6
HIDDEN
 62
     7
370
     0
100
AcDbLine
 10
141.7135042307
 20
102.0279434028
 30
0.0
 11
141.7135042307
 21
116.027943835
 31
0.0
  0
LINE
  5
157
330
1F
100
AcDbEntity
  8
0
  6
HIDDEN
 62
     7
370
     0
100
AcDbLine
 10
144.6577222255
 20
106.9279436938
 30
0.0
 11
144.6577222255
 21
111.127943544
 31
0.0
  0
SPLINE
  5
158
330
1F
100
AcDbEntity
  8
0
  6
HIDDEN
 62
     7
370
     0
100
AcDbSpline
210
0.0
220
0.0
230
1.0
 70
     8
 71
     3
 72
    16
 73
    12
 74
     0
 42
0.000000001
 43
0.00000001
 40
0.0
 40
0.0
 40
0.0
 40
0.0
 40
0.2499999999999963
 40
0.2499999999999963
 40
0.4999999999999927
 40
0.4999999999999927
 40
0.6249999999999909
 40
0.6249999999999909
 40
0.749999999999989
 40
0.749999999999989
 40
1.0
 40
1.0
 40
1.0
 40
1.0
 10
201.9635051098741
 20
114.4965797003274
 30
0.0
 10
201.9635051098741
 20
114.4274457989883
 30
0.0
 10
201.9589713006542
 20
114.3568246515535
 30
0.0
 10
201.9338074536733
 20
114.2103011651972
 30
0.0
 10
201.9135203111363
 20
114.1328592900465
 30
0.0
 10
201.8549109343658
 20
114.0272108260925
 30
0.0
 10
201.8303826377796
 20
113.9951305460225
 30
0.0
 10
201.776036731938
 20
113.9480048226664
 30
0.0
 10
201.7464369071701
 20
113.932951474209
 30
0.0
 10
201.6624873489782
 20
113.9089460398382
 30
0.0
 10
201.6111289502471
 20
113.9165084745814
 30
0.0
 10
201.5635051099872
 20
113.9305478296513
 30
0.0
  0
SPLINE
  5
159
330
1F
100
AcDbEntity
  8
0
  6
HIDDEN
 62
     7
370
     0
100
AcDbSpline
210
0.0
220
0.0
230
1.0
 70
     8
 71
     3
 72
     8
 73
     4
 74
     0
 42
0.000000001
 43
0.00000001
 40
0.0
 40
0.0
 40
0.0
 40
0.0
 40
1.0
 40
1.0
 40
1.0
 40
1.0
 10
201.5635051099867
 20
113.9305478296515
 30
0.0
 10
201.5043388010946
 20
113.896698538823
 30
0.0
 10
201.4355558155703
 20
113.8745831626422
 30
0.0
 10
201.3635051098741
 20
113.8745831626422
 30
0.0
  0
SPLINE
  5
15A
330
1F
100
AcDbEntity
  8
0
  6
HIDDEN
 62
     7
370
     0
100
AcDbSpline
210
0.0
220
0.0
230
1.0
 70
     8
 71
     3
 72
     8
 73
     4
 74
     0
 42
0.000000001
 43
0.00000001
 40
0.0
 40
0.0
 40
0.0
 40
0.0
 40
1.0
 40
1.0
 40
1.0
 40
1.0
 10
201.5635051098093
 20
104.1253394082383
 30
0.0
 10
201.5043388009594
 20
104.1591886990098
 30
0.0
 10
201.4355558154982
 20
104.1813040751461
 30
0.0
 10
201.3635051098741
 20
104.1813040751461
 30
0.0
  0
SPLINE
  5
15B
330
1F
100
AcDbEntity
  8
0
  6
HIDDEN
 62
     7
370
     0
100
AcDbSpline
210
0.0
220
0.0
230
1.0
 70
     8
 71
     3
 72
    16
 73
    12
 74
     0
 42
0.000000001
 43
0.00000001
 40
0.0
 40
0.0
 40
0.0
 40
0.0
 40
0.2499999999999887
 40
0.2499999999999887
 40
0.3749999999999906
 40
0.3749999999999906
 40
0.4999999999999925
 40
0.4999999999999925
 40
0.7499999999999962
 40
0.7499999999999962
 40
1.0
 40
1.0
 40
1.0
 40
1.0
 10
201.5635051097969
 20
104.1253394082381
 30
0.0
 10
201.61080969766
 20
104.139284577029
 30
0.0
 10
201.6618078368137
 20
104.1468655644288
 30
0.0
 10
201.7454068430823
 20
104.123356731468
 30
0.0
 10
201.7745441849173
 20
104.1087924638775
 30
0.0
 10
201.8288678568572
 20
104.0624227772496
 30
0.0
 10
201.8533510037732
 20
104.0308983138607
 30
0.0
 10
201.912191560066
 20
103.9265232146388
 30
0.0
 10
201.9330729377213
 20
103.8487573894361
 30
0.0
 10
201.9588436482777
 20
103.7008698549661
 30
0.0
 10
201.963504802501
 20
103.6287592030426
 30
0.0
 10
201.9635051098597
 20
103.5593128529055
 30
0.0
  0
LINE
  5
15C
330
1F
100
AcDbEntity
  8
0
  6
HIDDEN
 62
     7
370
     0
100
AcDbLine
 10
188.46350584
 20
109.0279436189
 30
0.0
 11
188.46350584
 21
103.8279436047
 31
0.0
  0
LINE
  5
15D
330
1F
100
AcDbEntity
  8
0
  6
HIDDEN
 62
     7
370
     0
100
AcDbLine
 10
188.46350584
 20
114.2279436331
 30
0.0
 11
188.46350584
 21
109.0279436189
 31
0.0
  0
LINE
  5
15E
330
1F
100
AcDbEntity
  8
0
  6
HIDDEN
 62
     7
370
     0
100
AcDbLine
 10
191.8295310048
 20
109.0279436189
 30
0.0
 11
191.8295310048
 21
103.5279436487
 31
0.0
  0
LINE
  5
15F
330
1F
100
AcDbEntity
  8
0
  6
HIDDEN
 62
     7
370
     0
100
AcDbLine
 10
191.8295310048
 20
114.5279435891
 30
0.0
 11
191.8295310048
 21
109.0279436189
 31
0.0
  0
LINE
  5
160
330
1F
100
AcDbEntity
  8
0
  6
HIDDEN
 62
     7
370
     0
100
AcDbLine
 10
196.0635059682
 20
113.8745830844
 30
0.0
 11
201.3635062781
 21
113.8745830844
 31
0.0
  0
LINE
  5
161
330
1F
100
AcDbEntity
  8
0
  6
HIDDEN
 62
     7
370
     0
100
AcDbLine
 10
196.0635059682
 20
104.1813041534
 30
0.0
 11
201.3635062781
 21
104.1813041534
 31
0.0
  0
SPLINE
  5
162
330
1F
100
AcDbEntity
  8
0
  6
HIDDEN
 62
     7
370
     0
100
AcDbSpline
210
0.0
220
0.0
230
1.0
 70
    11
 71
     3
 72
    20
 73
    16
 74
     0
 42
0.000000001
 43
0.00000001
 40
0.0
 40
0.0
 40
0.0
 40
0.0
 40
0.1250000000000003
 40
0.1250000000000003
 40
0.2500000000000006
 40
0.2500000000000006
 40
0.500000000000001
 40
0.500000000000001
 40
0.6250000000000012
 40
0.6250000000000012
 40
0.7500000000000014
 40
0.7500000000000014
 40
0.8750000000000008
 40
0.8750000000000008
 40
1.0
 40
1.0
 40
1.0
 40
1.0
 10
201.5635051098741
 20
116.4279436188942
 30
0.0
 10
201.5635051098741
 20
116.5271183002047
 30
0.0
 10
201.5636715525311
 20
116.6166649178837
 30
0.0
 10
201.5617112132279
 20
116.777061594542
 30
0.0
 10
201.5597228463264
 20
116.8471914621326
 30
0.0
 10
201.5527191955138
 20
117.0165817374823
 30
0.0
 10
201.5449903725637
 20
117.0779271597545
 30
0.0
 10
201.5393087810473
 20
117.0779518433747
 30
0.0
 10
201.5383153382624
 20
117.0632494552823
 30
0.0
 10
201.5398988381191
 20
117.0044656194171
 30
0.0
 10
201.5422282531223
 20
116.9606502077739
 30
0.0
 10
201.5488980526301
 20
116.8477611323085
 30
0.0
 10
201.5534918471708
 20
116.7774139405864
 30
0.0
 10
201.560769267652
 20
116.6178692183216
 30
0.0
 10
201.5635050791018
 20
116.5271351849963
 30
0.0
 10
201.563504984924
 20
116.4279436188962
 30
0.0
  0
LINE
  5
163
330
1F
100
AcDbEntity
  8
0
  6
HIDDEN
 62
     7
370
     0
100
AcDbLine
 10
201.5635059384
 20
116.4279436211
 30
0.0
 11
201.5635059384
 21
113.9305476549
 31
0.0
  0
LINE
  5
164
330
1F
100
AcDbEntity
  8
0
  6
HIDDEN
 62
     7
370
     0
100
AcDbLine
 10
201.5635059384
 20
101.6279436167
 30
0.0
 11
201.5635059384
 21
104.1253395829
 31
0.0
  0
SPLINE
  5
165
330
1F
100
AcDbEntity
  8
0
  6
HIDDEN
 62
     7
370
     0
100
AcDbSpline
210
0.0
220
0.0
230
1.0
 70
     8
 71
     3
 72
    11
 73
     7
 74
     0
 42
0.000000001
 43
0.00000001
 40
0.0
 40
0.0
 40
0.0
 40
0.0
 40
0.2832654041333822
 40
0.6060534075726485
 40
0.9293812984650313
 40
1.0
 40
1.0
 40
1.0
 40
1.0
 10
201.5417129901327
 20
100.986072838605
 30
0.0
 10
201.5401311735939
 20
100.9945803906519
 30
0.0
 10
201.5367468375985
 20
101.0127825107586
 30
0.0
 10
201.5498843754405
 20
101.2161595517749
 30
0.0
 10
201.5626413227139
 20
101.4496025518747
 30
0.0
 10
201.5633745079073
 20
101.6008339410351
 30
0.0
 10
201.5635059383787
 20
101.627943616659
 30
0.0
  0
LINE
  5
166
330
1F
100
AcDbEntity
  8
0
  6
HIDDEN
 62
     7
370
     0
100
AcDbLine
 10
196.0635059682
 20
116.4279436211
 30
0.0
 11
196.0635059682
 21
113.8745830844
 31
0.0
  0
LINE
  5
167
330
1F
100
AcDbEntity
  8
0
  6
HIDDEN
 62
     7
370
     0
100
AcDbLine
 10
196.0635059682
 20
101.6279436167
 30
0.0
 11
196.0635059682
 21
104.1813041534
 31
0.0
  0
SPLINE
  5
168
330
1F
100
AcDbEntity
  8
0
  6
HIDDEN
 62
     7
370
     0
100
AcDbSpline
210
0.0
220
0.0
230
1.0
 70
    11
 71
     3
 72
    56
 73
    52
 74
     0
 42
0.000000001
 43
0.00000001
 40
0.0
 40
0.0
 40
0.0
 40
0.0
 40
0.0625000000000001
 40
0.0625000000000001
 40
0.09375
 40
0.09375
 40
0.1249999999999999
 40
0.1249999999999999
 40
0.1562499999999997
 40
0.1562499999999997
 40
0.1874999999999996
 40
0.1874999999999996
 40
0.2187499999999995
 40
0.2187499999999995
 40
0.2499999999999993
 40
0.2499999999999993
 40
0.3124999999999991
 40
0.3124999999999991
 40
0.3749999999999989
 40
0.3749999999999989
 40
0.4062499999999988
 40
0.4062499999999988
 40
0.4374999999999987
 40
0.4374999999999987
 40
0.4999999999999988
 40
0.4999999999999988
 40
0.5312499999999989
 40
0.5312499999999989
 40
0.5624999999999989
 40
0.5624999999999989
 40
0.593749999999999
 40
0.593749999999999
 40
0.624999999999999
 40
0.624999999999999
 40
0.6562499999999991
 40
0.6562499999999991
 40
0.6874999999999991
 40
0.6874999999999991
 40
0.7187499999999992
 40
0.7187499999999992
 40
0.7499999999999992
 40
0.7499999999999992
 40
0.7812499999999993
 40
0.7812499999999993
 40
0.8124999999999994
 40
0.8124999999999994
 40
0.8749999999999997
 40
0.8749999999999997
 40
0.9374999999999999
 40
0.9374999999999999
 40
1.0
 40
1.0
 40
1.0
 40
1.0
 10
179.9635051098741
 20
107.9217479936865
 30
0.0
 10
180.1944729776263
 20
107.9217479936864
 30
0.0
 10
180.4153142868789
 20
107.9903316555053
 30
0.0
 10
180.7055861047628
 20
108.1504139222815
 30
0.0
 10
180.7976260993021
 20
108.2141646642402
 30
0.0
 10
180.9679439190499
 20
108.3551914309462
 30
0.0
 10
181.046694349094
 20
108.4325678250667
 30
0.0
 10
181.192898838886
 20
108.6007770074113
 30
0.0
 10
181.260887237587
 20
108.6926424425004
 30
0.0
 10
181.380603172372
 20
108.8849475224505
 30
0.0
 10
181.4327403002627
 20
108.9855664886666
 30
0.0
 10
181.5200649253994
 20
109.1967503114693
 30
0.0
 10
181.5544982759186
 20
109.3061863936398
 30
0.0
 10
181.6009547048007
 20
109.5247670633345
 30
0.0
 10
181.6132947717703
 20
109.6365366651498
 30
0.0
 10
181.6139175234607
 20
109.9569833201125
 30
0.0
 10
181.5657353491395
 20
110.1569605941608
 30
0.0
 10
181.3924195083808
 20
110.4903352274221
 30
0.0
 10
181.2693021322532
 20
110.624208129864
 30
0.0
 10
181.0493139014297
 20
110.7781724054902
 30
0.0
 10
180.970332885718
 20
110.8217365697908
 30
0.0
 10
180.7996008179181
 20
110.8959614813874
 30
0.0
 10
180.707772703142
 20
110.9264612109504
 30
0.0
 10
180.417516111911
 20
110.9985467579934
 30
0.0
 10
180.194260400248
 20
111.0226447675866
 30
0.0
 10
179.8500192300896
 20
111.0227777143247
 30
0.0
 10
179.7374304315106
 20
111.016918210005
 30
0.0
 10
179.518527520485
 20
110.9929197389403
 30
0.0
 10
179.4164039243488
 20
110.9752520743916
 30
0.0
 10
179.2221385220933
 20
110.9273514724032
 30
0.0
 10
179.1300961849865
 20
110.8969026030023
 30
0.0
 10
178.9601456567325
 20
110.8234632688513
 30
0.0
 10
178.8812411604898
 20
110.7802791389075
 30
0.0
 10
178.7342944394952
 20
110.6781662648819
 30
0.0
 10
178.6664034693727
 20
110.6190256070879
 30
0.0
 10
178.5469422720928
 20
110.4863102628879
 30
0.0
 10
178.4946046120023
 20
110.4123165314985
 30
0.0
 10
178.4066714522119
 20
110.2453201307831
 30
0.0
 10
178.3727229807828
 20
110.1553738947313
 30
0.0
 10
178.3260650497006
 20
109.9610383573375
 30
0.0
 10
178.3137555889584
 20
109.8560573587252
 30
0.0
 10
178.3132624311729
 20
109.6430548000442
 30
0.0
 10
178.3249642999781
 20
109.5320642984482
 30
0.0
 10
178.3708309343513
 20
109.3120583596359
 30
0.0
 10
178.4044379574773
 20
109.2038876814791
 30
0.0
 10
178.5351043474116
 20
108.8847595273144
 30
0.0
 10
178.6579778683984
 20
108.6890538582549
 30
0.0
 10
178.9509481843944
 20
108.3506328631948
 30
0.0
 10
179.1227678743807
 20
108.20516652949
 30
0.0
 10
179.5097428783008
 20
107.9910675718631
 30
0.0
 10
179.7325372421219
 20
107.9217479936864
 30
0.0
 10
179.9635051098741
 20
107.9217479936864
 30
0.0
  0
LINE
  5
169
330
1F
100
AcDbEntity
  8
0
  6
HIDDEN
 62
     7
370
     0
100
AcDbLine
 10
196.0635059682
 20
117.0779439139
 30
0.0
 11
196.0635059682
 21
116.4279436211
 31
0.0
  0
LINE
  5
16A
330
1F
100
AcDbEntity
  8
0
  6
HIDDEN
 62
     7
370
     0
100
AcDbLine
 10
196.0635059682
 20
100.9779433239
 30
0.0
 11
196.0635059682
 21
101.6279436167
 31
0.0
  0
ELLIPSE
  5
16B
330
1F
100
AcDbEntity
  8
0
  6
HIDDEN
 62
     7
370
     0
100
AcDbEllipse
 10
179.9635051099
 20
115.9155336794
 30
0.0
 11
-1.383467579512114
 21
1.753907414218503
 31
0.0
210
0.0
220
0.0
230
1.0
 40
0.5126701559
 41
5.277237470120007
 42
5.28872459634724
  0
ELLIPSE
  5
16C
330
1F
100
AcDbEntity
  8
0
  6
HIDDEN
 62
     7
370
     0
100
AcDbEllipse
 10
179.9635051099
 20
115.9155336794
 30
0.0
 11
1.383467579512114
 21
1.091267719176585
 31
0.0
210
0.0
220
0.0
230
1.0
 40
0.8239737799
 41
0.994460710832362
 42
4.136053364422168
  0
ELLIPSE
  5
16D
330
1F
100
AcDbEntity
  8
0
  6
HIDDEN
 62
     7
370
     0
100
AcDbEllipse
 10
179.9635051099
 20
115.9155336794
 30
0.0
 11
-1.383467579512114
 21
1.753907414218503
 31
0.0
210
0.0
220
0.0
230
1.0
 40
0.5126701559
 41
2.147131942757434
 42
2.158619068982668
  0
SPLINE
  5
16E
330
1F
100
AcDbEntity
  8
0
  6
HIDDEN
 62
     7
370
     0
100
AcDbSpline
210
0.0
220
0.0
230
1.0
 70
     8
 71
     3
 72
     8
 73
     4
 74
     0
 42
0.000000001
 43
0.00000001
 40
0.0
 40
0.0
 40
0.0
 40
0.0
 40
1.0
 40
1.0
 40
1.0
 40
1.0
 10
179.9824584512939
 20
114.3526905292256
 30
0.0
 10
179.9994573353816
 20
114.3606738027425
 30
0.0
 10
180.016461479931
 20
114.3694102051945
 30
0.0
 10
180.0334462060415
 20
114.378887057037
 30
0.0
  0
ELLIPSE
  5
16F
330
1F
100
AcDbEntity
  8
0
  6
HIDDEN
 62
     7
370
     0
100
AcDbEllipse
 10
179.9635051099
 20
115.9155336794
 30
0.0
 11
1.383467579512114
 21
1.091267719176585
 31
0.0
210
0.0
220
0.0
230
1.0
 40
0.8239737799
 41
4.136053364422168
 42
4.17845461170372
  0
ELLIPSE
  5
170
330
1F
100
AcDbEntity
  8
0
  6
HIDDEN
 62
     7
370
     0
100
AcDbEllipse
 10
179.9635051099
 20
115.9155336794
 30
0.0
 11
-1.383467579512114
 21
1.753907414218503
 31
0.0
210
0.0
220
0.0
230
1.0
 40
0.5126701559
 41
5.288724596347244
 42
8.430317249937023
  0
ELLIPSE
  5
171
330
1F
100
AcDbEntity
  8
0
  6
HIDDEN
 62
     7
370
     0
100
AcDbEllipse
 10
179.9635051099
 20
115.9155336794
 30
0.0
 11
1.383467579512114
 21
1.091267719176585
 31
0.0
210
0.0
220
0.0
230
1.0
 40
0.8239737799
 41
0.9520594635405547
 42
0.994460710832362
  0
SPLINE
  5
172
330
1F
100
AcDbEntity
  8
0
  6
HIDDEN
 62
     7
370
     0
100
AcDbSpline
210
0.0
220
0.0
230
1.0
 70
     8
 71
     3
 72
     8
 73
     4
 74
     0
 42
0.000000001
 43
0.00000001
 40
0.0
 40
0.0
 40
0.0
 40
0.0
 40
1.0
 40
1.0
 40
1.0
 40
1.0
 10
180.0334462060503
 20
117.4770855452723
 30
0.0
 10
180.016461479934
 20
117.4699698352172
 30
0.0
 10
179.9994573353787
 20
117.462094705689
 30
0.0
 10
179.9824584512851
 20
117.453471586227
 30
0.0
  0
LWPOLYLINE
  5
173
330
1F
100
AcDbEntity
  8
0
  6
HIDDEN
 62
     7
370
     0
100
AcDbPolyline
 90
       22
 70
   128
 43
0.0
 10
179.9635053781
 20
115.4713542651
 10
180.4498513398
 20
115.540238608
 10
180.8929830027
 20
115.7407700534
 10
181.2535268423
 20
116.0551305379
 10
181.4994472248
 20
116.4553887661
 10
181.6088915971
 20
116.9059789258
 10
181.5721360204
 20
117.366864391
 10
181.3924466428
 20
117.7970935109
 10
181.0857900587
 20
118.1584392193
 10
180.6794130412
 20
118.418793239
 10
180.2094248292
 20
118.5550224486
 10
179.7175849957
 20
118.5550224486
 10
179.2475967837
 20
118.418793239
 10
178.8412197662
 20
118.1584392193
 10
178.534563182
 20
117.7970935109
 10
178.3548738045
 20
117.366864391
 10
178.3181191591
 20
116.9059789258
 10
178.4275635314
 20
116.4553887661
 10
178.6734829825
 20
116.0551305379
 10
179.0340268222
 20
115.7407700534
 10
179.4771594164
 20
115.540238608
 10
179.9635053781
 20
115.4713542651
  0
SPLINE
  5
174
330
1F
100
AcDbEntity
  8
0
  6
HIDDEN
 62
     7
370
     0
100
AcDbSpline
210
0.0
220
0.0
230
1.0
 70
     8
 71
     3
 72
    16
 73
    12
 74
     0
 42
0.000000001
 43
0.00000001
 40
0.0
 40
0.0
 40
0.0
 40
0.0
 40
0.249999999999996
 40
0.249999999999996
 40
0.499999999999992
 40
0.499999999999992
 40
0.6249999999999941
 40
0.6249999999999941
 40
0.7499999999999962
 40
0.7499999999999962
 40
1.0
 40
1.0
 40
1.0
 40
1.0
 10
201.9635051098741
 20
103.5594401644417
 30
0.0
 10
201.9635051098741
 20
103.6282445159992
 30
0.0
 10
201.9588833328447
 20
103.7002156378272
 30
0.0
 10
201.9334844543637
 20
103.8470615488007
 30
0.0
 10
201.9122546501997
 20
103.9261726435881
 30
0.0
 10
201.8539978471401
 20
104.0299848317349
 30
0.0
 10
201.8294293478223
 20
104.0619252036374
 30
0.0
 10
201.7745696843173
 20
104.1088745201414
 30
0.0
 10
201.7452454888691
 20
104.1234420836236
 30
0.0
 10
201.6617711941802
 20
104.1468442384082
 30
0.0
 10
201.6105585163154
 20
104.1392107232787
 30
0.0
 10
201.5635051098743
 20
104.1253394082013
 30
0.0
  0
LINE
  5
175
330
1F
100
AcDbEntity
  8
0
  6
HIDDEN
 62
     7
370
     0
100
AcDbLine
 10
176.1535047722
 20
131.2251845825
 30
0.0
 11
176.1535047722
 21
127.3779431808
 31
0.0
  0
LINE
  5
176
330
1F
100
AcDbEntity
  8
0
  6
HIDDEN
 62
     7
370
     0
100
AcDbLine
 10
179.9735049886
 20
131.2251845825
 30
0.0
 11
179.9735049886
 21
127.3779431808
 31
0.0
  0
SPLINE
  5
177
330
1F
100
AcDbEntity
  8
0
  6
HIDDEN
 62
     7
370
     0
100
AcDbSpline
210
0.0
220
0.0
230
1.0
 70
     8
 71
     3
 72
    14
 73
    10
 74
     0
 42
0.000000001
 43
0.00000001
 40
0.0
 40
0.0
 40
0.0
 40
0.0
 40
0.25
 40
0.25
 40
0.5
 40
0.5
 40
0.75
 40
0.75
 40
1.0
 40
1.0
 40
1.0
 40
1.0
 10
179.173505109874
 20
120.3104228090023
 30
0.0
 10
179.271187360988
 20
120.3489451230347
 30
0.0
 10
179.3733008700253
 20
120.3865604824934
 30
0.0
 10
179.5654730411942
 20
120.4576692080804
 30
0.0
 10
179.656891714521
 20
120.4918752585844
 30
0.0
 10
179.8084077035352
 20
120.5587647369414
 30
0.0
 10
179.8695549060741
 20
120.5920351995023
 30
0.0
 10
179.9522616077626
 20
120.6614335495961
 30
0.0
 10
179.9735051098741
 20
120.6972106551921
 30
0.0
 10
179.9735051098741
 20
120.7337059874428
 30
0.0
  0
LINE
  5
178
330
1F
100
AcDbEntity
  8
0
  6
HIDDEN
 62
     7
370
     0
100
AcDbLine
 10
179.9735049886
 20
101.0266608077
 30
0.0
 11
179.9735049886
 21
97.2679378915
 31
0.0
  0
SPLINE
  5
179
330
1F
100
AcDbEntity
  8
0
  6
HIDDEN
 62
     7
370
     0
100
AcDbSpline
210
0.0
220
0.0
230
1.0
 70
     8
 71
     3
 72
    14
 73
    10
 74
     0
 42
0.000000001
 43
0.00000001
 40
0.0
 40
0.0
 40
0.0
 40
0.0
 40
0.2499999999999995
 40
0.2499999999999995
 40
0.4999999999999997
 40
0.4999999999999997
 40
0.7499999999999998
 40
0.7499999999999998
 40
1.0
 40
1.0
 40
1.0
 40
1.0
 10
179.9735051098741
 20
116.9749824892238
 30
0.0
 10
179.9735051098741
 20
116.9384935583165
 30
0.0
 10
179.9523357337018
 20
116.9019947665828
 30
0.0
 10
179.8695901158495
 20
116.8366194188459
 30
0.0
 10
179.8087364910217
 20
116.8086825844995
 30
0.0
 10
179.6571316243306
 20
116.7747915552528
 30
0.0
 10
179.5659093138634
 20
116.7693661026663
 30
0.0
 10
179.3735787641601
 20
116.7902854264789
 30
0.0
 10
179.2713278796831
 20
116.8168415739194
 30
0.0
 10
179.173505109874
 20
116.8573113322251
 30
0.0
  0
LINE
  5
17A
330
1F
100
AcDbEntity
  8
0
  6
HIDDEN
 62
     7
370
     0
100
AcDbLine
 10
174.5416685176
 20
134.9381739724
 30
0.0
 11
174.5416685176
 21
127.3779431808
 31
0.0
  0
LINE
  5
17B
330
1F
100
AcDbEntity
  8
0
  6
HIDDEN
 62
     7
370
     0
100
AcDbLine
 10
181.5853421745
 20
99.2759233791
 30
0.0
 11
181.5853421745
 21
97.0764440003
 31
0.0
  0
LINE
  5
17C
330
1F
100
AcDbEntity
  8
0
  6
HIDDEN
 62
     7
370
     0
100
AcDbLine
 10
181.5853421745
 20
134.9381739724
 30
0.0
 11
181.5853421745
 21
127.3779431808
 31
0.0
  0
SPLINE
  5
17D
330
1F
100
AcDbEntity
  8
0
  6
HIDDEN
 62
     7
370
     0
100
AcDbSpline
210
0.0
220
0.0
230
1.0
 70
     8
 71
     3
 72
    10
 73
     6
 74
     0
 42
0.000000001
 43
0.00000001
 40
0.0
 40
0.0
 40
0.0
 40
0.0
 40
0.5
 40
0.5
 40
1.0
 40
1.0
 40
1.0
 40
1.0
 10
177.9876143472337
 20
116.7744827883631
 30
0.0
 10
177.9720082962525
 20
116.8797549889716
 30
0.0
 10
177.9635038332239
 20
116.9836934867624
 30
0.0
 10
177.9635063868136
 20
117.1832067587184
 30
0.0
 10
177.9720039744141
 20
117.2744192533888
 30
0.0
 10
177.9876143472337
 20
117.3563511857319
 30
0.0
  0
SPLINE
  5
17E
330
1F
100
AcDbEntity
  8
0
  6
HIDDEN
 62
     7
370
     0
100
AcDbSpline
210
0.0
220
0.0
230
1.0
 70
     8
 71
     3
 72
    14
 73
    10
 74
     0
 42
0.000000001
 43
0.00000001
 40
0.0
 40
0.0
 40
0.0
 40
0.0
 40
0.25
 40
0.25
 40
0.5
 40
0.5
 40
0.75
 40
0.75
 40
1.0
 40
1.0
 40
1.0
 40
1.0
 10
177.9876143472337
 20
117.3563511857319
 30
0.0
 10
178.0239781752639
 20
117.3108565503301
 30
0.0
 10
178.0564559024741
 20
117.2624647441138
 30
0.0
 10
178.1052095318897
 20
117.1569796001843
 30
0.0
 10
178.1201133095642
 20
117.1003950919414
 30
0.0
 10
178.1201237432219
 20
116.991507497991
 30
0.0
 10
178.1052334474137
 20
116.9393228322284
 30
0.0
 10
178.0563445165361
 20
116.8480454332849
 30
0.0
 10
178.0239723382658
 20
116.8093787279108
 30
0.0
 10
177.9876143472337
 20
116.7744827883631
 30
0.0
  0
LWPOLYLINE
  5
17F
330
1F
100
AcDbEntity
  8
0
  6
HIDDEN
 62
     7
370
     0
100
AcDbPolyline
 90
       22
 70
   128
 43
0.0
 10
170.7952325401
 20
117.0079894814
 10
170.9152287972
 20
116.6483187567
 10
171.1051492189
 20
116.3993324603
 10
171.3481187058
 20
116.2831536944
 10
171.6225482692
 20
116.3101057041
 10
171.9040535559
 20
116.4777931276
 10
172.1676215698
 20
116.7713166665
 10
172.3898332735
 20
117.1645950976
 10
172.5509441626
 20
117.6226847324
 10
172.6366384124
 20
118.1048807207
 10
172.6393024606
 20
118.5683394301
 10
172.5586992857
 20
118.971879639
 10
172.4019907584
 20
119.2796454284
 10
172.1831010823
 20
119.4642903733
 10
171.9214795326
 20
119.5094073641
 10
171.6403723863
 20
119.4109889197
 10
171.3647572492
 20
119.1777782965
 10
171.1191237141
 20
118.8304983529
 10
170.9252977912
 20
118.4000066
 10
170.8005012647
 20
117.9245533872
 10
170.7558229269
 20
117.446385369
 10
170.7952325401
 20
117.0079894814
  0
LWPOLYLINE
  5
180
330
1F
100
AcDbEntity
  8
0
  6
HIDDEN
 62
     7
370
     0
100
AcDbPolyline
 90
       23
 70
   128
 43
0.0
 10
177.9876141978
 20
116.7744826975
 10
178.1429960561
 20
116.2872598957
 10
178.4317190928
 20
115.8570326383
 10
178.8326366973
 20
115.5153126906
 10
179.3163833377
 20
115.2871288809
 10
179.8475287092
 20
115.1891942586
 10
180.3871686739
 20
115.2286823358
 10
180.8957769704
 20
115.4027004245
 10
181.3361025584
 20
115.6985029097
 10
181.6758928058
 20
116.0944239686
 10
181.8902609107
 20
116.5614645447
 10
181.9635047746
 20
117.065416694
 10
181.8902609107
 20
117.5693693089
 10
181.6758928058
 20
118.036409885
 10
181.3361025584
 20
118.4323309439
 10
180.8957769704
 20
118.7281338948
 10
180.3871686739
 20
118.9021515179
 10
179.8475287092
 20
118.941639595
 10
179.3163833377
 20
118.8437054384
 10
178.8326366973
 20
118.615521163
 10
178.4317190928
 20
118.2738012153
 10
178.1429960561
 20
117.843573958
 10
177.9876141978
 20
117.3563516217
  0
SPLINE
  5
181
330
1F
100
AcDbEntity
  8
0
  6
HIDDEN
 62
     7
370
     0
100
AcDbSpline
210
0.0
220
0.0
230
1.0
 70
     8
 71
     3
 72
    12
 73
     8
 74
     0
 42
0.000000001
 43
0.00000001
 40
0.0
 40
0.0
 40
0.0
 40
0.0
 40
0.2499999999999997
 40
0.2499999999999997
 40
0.4999999999999993
 40
0.4999999999999993
 40
1.0
 40
1.0
 40
1.0
 40
1.0
 10
181.5853417519308
 20
120.9794434171012
 30
0.0
 10
181.7082892457264
 20
120.8214865684061
 30
0.0
 10
181.8018334488353
 20
120.6496532014286
 30
0.0
 10
181.9307728379975
 20
120.2779804917827
 30
0.0
 10
181.9633255953826
 20
120.0847920455915
 30
0.0
 10
181.9638619371164
 20
119.4964955073153
 30
0.0
 10
181.8312382801484
 20
119.1044772694266
 30
0.0
 10
181.5853417519308
 20
118.7799636867179
 30
0.0
  0
SPLINE
  5
182
330
1F
100
AcDbEntity
  8
0
  6
HIDDEN
 62
     7
370
     0
100
AcDbSpline
210
0.0
220
0.0
230
1.0
 70
     8
 71
     3
 72
    12
 73
     8
 74
     0
 42
0.000000001
 43
0.00000001
 40
0.0
 40
0.0
 40
0.0
 40
0.0
 40
0.2500000000000003
 40
0.2500000000000003
 40
0.5000000000000007
 40
0.5000000000000007
 40
1.0
 40
1.0
 40
1.0
 40
1.0
 10
181.5853417519308
 20
118.7799636867179
 30
0.0
 10
181.4704457006702
 20
118.5602232516613
 30
0.0
 10
181.3436796841975
 20
118.3632549000396
 30
0.0
 10
181.083464750579
 20
118.0095373272007
 30
0.0
 10
180.9499572926167
 20
117.8527120333284
 30
0.0
 10
180.5415590240285
 20
117.4261694624207
 30
0.0
 10
180.257905889091
 20
117.1994772834655
 30
0.0
 10
179.9735051098742
 20
117.02922613907
 30
0.0
  0
SPLINE
  5
183
330
1F
100
AcDbEntity
  8
0
  6
HIDDEN
 62
     7
370
     0
100
AcDbSpline
210
0.0
220
0.0
230
1.0
 70
     8
 71
     3
 72
    12
 73
     8
 74
     0
 42
0.000000001
 43
0.00000001
 40
0.0
 40
0.0
 40
0.0
 40
0.0
 40
0.5000000000000013
 40
0.5000000000000013
 40
0.7500000000000007
 40
0.7500000000000007
 40
1.0
 40
1.0
 40
1.0
 40
1.0
 10
179.9735051098741
 20
120.7879496372911
 30
0.0
 10
180.2577116444394
 20
120.9554137995848
 30
0.0
 10
180.5364073785432
 20
121.0670508990964
 30
0.0
 10
180.9457534217324
 20
121.1343641647358
 30
0.0
 10
181.081892759052
 20
121.1395152047498
 30
0.0
 10
181.343212808048
 20
121.1017492671304
 30
0.0
 10
181.4686339904798
 20
121.0601995087861
 30
0.0
 10
181.5853417519312
 20
120.9794434171033
 30
0.0
  0
SPLINE
  5
184
330
1F
100
AcDbEntity
  8
0
  6
HIDDEN
 62
     7
370
     0
100
AcDbSpline
210
0.0
220
0.0
230
1.0
 70
     8
 71
     3
 72
    22
 73
    18
 74
     0
 42
0.000000001
 43
0.00000001
 40
0.0
 40
0.0
 40
0.0
 40
0.0
 40
0.125
 40
0.125
 40
0.25
 40
0.25
 40
0.375
 40
0.375
 40
0.5
 40
0.5
 40
0.625
 40
0.625
 40
0.75
 40
0.75
 40
0.875
 40
0.875
 40
1.0
 40
1.0
 40
1.0
 40
1.0
 10
179.1735051098741
 20
116.8573113322251
 30
0.0
 10
178.9934884153047
 20
116.9317851192017
 30
0.0
 10
178.8290565934344
 20
117.0292343811857
 30
0.0
 10
178.5306603596758
 20
117.26860381475
 30
0.0
 10
178.400356632311
 20
117.4085004268205
 30
0.0
 10
178.1871378486919
 20
117.7167520168807
 30
0.0
 10
178.1035099915805
 20
117.886915235
 30
0.0
 10
177.9923791146623
 20
118.2374099697905
 30
0.0
 10
177.9635431198085
 20
118.4225349309418
 30
0.0
 10
177.9634671771489
 20
118.785741805559
 30
0.0
 10
177.9921258025762
 20
118.9691118192666
 30
0.0
 10
178.1032768956888
 20
119.3150029317599
 30
0.0
 10
178.1863440163328
 20
119.4805224590274
 30
0.0
 10
178.4000299744515
 20
119.7810621964311
 30
0.0
 10
178.5290369643758
 20
119.9149341177151
 30
0.0
 10
178.8286462438654
 20
120.1461808871192
 30
0.0
 10
178.9934889421246
 20
120.239431003778
 30
0.0
 10
179.1735051098741
 20
120.3104228090023
 30
0.0
  0
LWPOLYLINE
  5
185
330
1F
100
AcDbEntity
  8
0
  6
HIDDEN
 62
     7
370
     0
100
AcDbPolyline
 90
       25
 70
   128
 43
0.0
 10
170.4137167131
 20
116.7984810176
 10
170.5421211832
 20
116.3909621987
 10
170.7404388749
 20
116.0880621041
 10
170.9951544349
 20
115.9104230332
 10
171.2889094074
 20
115.8701512481
 10
171.6016852466
 20
115.9699908908
 10
171.9121663069
 20
116.2031377184
 10
172.1991943364
 20
116.5537038337
 10
172.4432083015
 20
116.9977980185
 10
172.6275794377
 20
117.5051564801
 10
172.7397432719
 20
118.0412043336
 10
172.7720555087
 20
118.5694085884
 10
172.7223145013
 20
119.0537754896
 10
172.5939097983
 20
119.4612943086
 10
172.3955925723
 20
119.7641939375
 10
172.1408767794
 20
119.941833474
 10
171.8471218069
 20
119.9821047935
 10
171.5343459678
 20
119.8822651508
 10
171.2238649075
 20
119.6491187888
 10
170.9368368779
 20
119.2985522079
 10
170.6928229128
 20
118.8544584888
 10
170.5084517767
 20
118.3470990959
 10
170.3962881752
 20
117.8110521737
 10
170.3639757057
 20
117.2828479189
 10
170.4137167131
 20
116.7984810176
  0
LINE
  5
186
330
1F
100
AcDbEntity
  8
0
  6
HIDDEN
 62
     7
370
     0
100
AcDbLine
 10
175.3622698766
 20
115.4370615709
 30
0.0
 11
175.8593120781
 21
115.9106768186
 31
0.0
  0
LINE
  5
187
330
1F
100
AcDbEntity
  8
0
  6
HIDDEN
 62
     7
370
     0
100
AcDbLine
 10
176.3067520392
 20
117.7790211964
 30
0.0
 11
176.0781747458
 21
118.4264114577
 31
0.0
  0
LINE
  5
188
330
1F
100
AcDbEntity
  8
0
  6
HIDDEN
 62
     7
370
     0
100
AcDbLine
 10
171.2866625917
 20
115.9369545507
 30
0.0
 11
174.5836129581
 21
115.1473839286
 31
0.0
  0
LINE
  5
189
330
1F
100
AcDbEntity
  8
0
  6
HIDDEN
 62
     7
370
     0
100
AcDbLine
 10
175.5152107385
 20
119.0373870063
 30
0.0
 11
172.2182603722
 21
119.8269576284
 31
0.0
  0
LINE
  5
18A
330
1F
100
AcDbEntity
  8
0
  6
HIDDEN
 62
     7
370
     0
100
AcDbLine
 10
172.2182603722
 20
98.2289296094
 30
0.0
 11
175.5152107385
 21
99.0185002315
 31
0.0
  0
LINE
  5
18B
330
1F
100
AcDbEntity
  8
0
  6
HIDDEN
 62
     7
370
     0
100
AcDbLine
 10
174.5836129581
 20
102.9085033092
 30
0.0
 11
171.2866625917
 21
102.118932687
 31
0.0
  0
LINE
  5
18C
330
1F
100
AcDbEntity
  8
0
  6
HIDDEN
 62
     7
370
     0
100
AcDbLine
 10
176.0781747458
 20
99.6294757801
 30
0.0
 11
176.3067520392
 21
100.2768660414
 31
0.0
  0
LINE
  5
18D
330
1F
100
AcDbEntity
  8
0
  6
HIDDEN
 62
     7
370
     0
100
AcDbLine
 10
175.8593120781
 20
102.1452104191
 30
0.0
 11
175.3622698766
 21
102.6188256669
 31
0.0
  0
LINE
  5
18E
330
1F
100
AcDbEntity
  8
0
  6
HIDDEN
 62
     7
370
     0
100
AcDbLine
 10
177.9635050503
 20
99.8960053998
 30
0.0
 11
177.9635050503
 21
99.7591978389
 31
0.0
  0
LINE
  5
18F
330
1F
100
AcDbEntity
  8
0
  6
HIDDEN
 62
     7
370
     0
100
AcDbLine
 10
181.9635047746
 20
99.7591978389
 30
0.0
 11
181.9635047746
 21
99.8960053998
 31
0.0
  0
LINE
  5
190
330
1F
100
AcDbEntity
  8
0
  6
HIDDEN
 62
     7
370
     0
100
AcDbLine
 10
178.4635051322
 20
100.7284736711
 30
0.0
 11
178.4635051322
 21
99.7249959487
 31
0.0
  0
LINE
  5
191
330
1F
100
AcDbEntity
  8
0
  6
HIDDEN
 62
     7
370
     0
100
AcDbLine
 10
181.4635046926
 20
99.7249959487
 30
0.0
 11
181.4635046926
 21
100.7284736711
 31
0.0
  0
LINE
  5
192
330
1F
100
AcDbEntity
  8
0
  6
HIDDEN
 62
     7
370
     0
100
AcDbLine
 10
177.9635050503
 20
100.9904705438
 30
0.0
 11
177.9635050503
 21
100.665550724
 31
0.0
  0
LINE
  5
193
330
1F
100
AcDbEntity
  8
0
  6
HIDDEN
 62
     7
370
     0
100
AcDbLine
 10
181.9635047746
 20
100.665550724
 30
0.0
 11
181.9635047746
 21
100.9904705438
 31
0.0
  0
LINE
  5
194
330
1F
100
AcDbEntity
  8
0
  6
HIDDEN
 62
     7
370
     0
100
AcDbLine
 10
181.9635047746
 20
117.065416694
 30
0.0
 11
181.9635047746
 21
117.3903365138
 31
0.0
  0
LINE
  5
195
330
1F
100
AcDbEntity
  8
0
  6
HIDDEN
 62
     7
370
     0
100
AcDbLine
 10
177.9635050503
 20
117.3903365138
 30
0.0
 11
177.9635050503
 21
117.065416694
 31
0.0
  0
LINE
  5
196
330
1F
100
AcDbEntity
  8
0
  6
HIDDEN
 62
     7
370
     0
100
AcDbLine
 10
181.4635046926
 20
117.3274135667
 30
0.0
 11
181.4635046926
 21
118.3308912891
 31
0.0
  0
LINE
  5
197
330
1F
100
AcDbEntity
  8
0
  6
HIDDEN
 62
     7
370
     0
100
AcDbLine
 10
178.4635051322
 20
118.3308912891
 30
0.0
 11
178.4635051322
 21
117.3274135667
 31
0.0
  0
LINE
  5
198
330
1F
100
AcDbEntity
  8
0
  6
HIDDEN
 62
     7
370
     0
100
AcDbLine
 10
181.9635047746
 20
118.159881838
 30
0.0
 11
181.9635047746
 21
118.2966893989
 31
0.0
  0
LINE
  5
199
330
1F
100
AcDbEntity
  8
0
  6
HIDDEN
 62
     7
370
     0
100
AcDbLine
 10
177.9635050503
 20
118.2966893989
 30
0.0
 11
177.9635050503
 21
118.159881838
 31
0.0
  0
ARC
  5
19A
330
1F
100
AcDbEntity
  8
0
  6
HIDDEN
 62
     7
370
     0
100
AcDbCircle
 10
179.9635051099
 20
100.3064299641
 30
0.0
 40
1.50000000000003
100
AcDbArc
 50
71.1182787691
 51
191.5274417162
  0
ARC
  5
19B
330
1F
100
AcDbEntity
  8
0
  6
HIDDEN
 62
     7
370
     0
100
AcDbCircle
 10
179.9635051099
 20
100.3064299641
 30
0.0
 40
1.499999999999993
100
AcDbArc
 50
336.6722113243
 51
71.1182787691
  0
CIRCLE
  5
19C
330
1F
100
AcDbEntity
  8
0
  6
HIDDEN
 62
     7
370
     0
100
AcDbCircle
 10
179.9635051099
 20
117.7494572737
 30
0.0
 40
1.500000000000008
  0
LINE
  5
19D
330
1F
100
AcDbEntity
  8
0
  6
HIDDEN
 62
     7
370
     0
100
AcDbLine
 10
181.9635047746
 20
98.1691005158
 30
0.0
 11
181.9635047746
 21
100.9904705438
 31
0.0
  0
LINE
  5
19E
330
1F
100
AcDbEntity
  8
0
  6
HIDDEN
 62
     7
370
     0
100
AcDbLine
 10
177.9635050503
 20
100.9735158163
 30
0.0
 11
177.9635050503
 21
99.452059761
 31
0.0
  0
LINE
  5
19F
330
1F
100
AcDbEntity
  8
0
  6
HIDDEN
 62
     7
370
     0
100
AcDbLine
 10
170.163505029
 20
97.6340184438
 30
0.0
 11
172.0571043138
 21
98.0875073451
 31
0.0
  0
LINE
  5
1A0
330
1F
100
AcDbEntity
  8
0
  6
HIDDEN
 62
     7
370
     0
100
AcDbLine
 10
171.0789269005
 20
102.1720106232
 30
0.0
 11
170.163505029
 21
101.9527810144
 31
0.0
  0
LINE
  5
1A1
330
1F
100
AcDbEntity
  8
0
  6
HIDDEN
 62
     7
370
     0
100
AcDbLine
 10
172.086465655
 20
98.5572636577
 30
0.0
 11
179.2935258878
 21
100.2832465324
 31
0.0
  0
LINE
  5
1A2
330
1F
100
AcDbEntity
  8
0
  6
HIDDEN
 62
     7
370
     0
100
AcDbLine
 10
179.2935258878
 20
103.6765603799
 30
0.0
 11
171.3178977539
 21
101.7665160339
 31
0.0
  0
LINE
  5
1A3
330
1F
100
AcDbEntity
  8
0
  6
HIDDEN
 62
     7
370
     0
100
AcDbLine
 10
181.6135053692
 20
101.0340396765
 30
0.0
 11
181.6135053692
 21
108.3141727008
 31
0.0
  0
LINE
  5
1A4
330
1F
100
AcDbEntity
  8
0
  6
HIDDEN
 62
     7
370
     0
100
AcDbLine
 10
178.313505387
 20
101.0562796596
 30
0.0
 11
178.313505387
 21
101.0340396765
 31
0.0
  0
LINE
  5
1A5
330
1F
100
AcDbEntity
  8
0
  6
HIDDEN
 62
     7
370
     0
100
AcDbLine
 10
178.313505387
 20
108.3135831154
 30
0.0
 11
178.313505387
 21
102.4341267052
 31
0.0
  0
ARC
  5
1A6
330
1F
100
AcDbEntity
  8
0
  6
HIDDEN
 62
     7
370
     0
100
AcDbCircle
 10
99.5135051099
 20
99.7279436189
 30
0.0
 40
0.7999999999999972
100
AcDbArc
 50
90.0
 51
180.0
  0
ARC
  5
1A7
330
1F
100
AcDbEntity
  8
0
  6
HIDDEN
 62
     7
370
     0
100
AcDbCircle
 10
99.5135051099
 20
118.3279436189
 30
0.0
 40
0.7999999999999972
100
AcDbArc
 50
180.0
 51
270.0
  0
ARC
  5
1A8
330
1F
100
AcDbEntity
  8
0
  6
HIDDEN
 62
     7
370
     0
100
AcDbCircle
 10
107.4825650022
 20
100.7029436189
 30
0.0
 40
0.4000000000000121
100
AcDbArc
 50
270.0
 51
330.0
  0
ARC
  5
1A9
330
1F
100
AcDbEntity
  8
0
  6
HIDDEN
 62
     7
370
     0
100
AcDbCircle
 10
107.4825650022
 20
117.3529436189
 30
0.0
 40
0.400000000000005
100
AcDbArc
 50
30.0
 51
90.0
  0
LINE
  5
1AA
330
1F
100
AcDbEntity
  8
0
  6
HIDDEN
 62
     7
370
     0
100
AcDbLine
 10
106.6058785823
 20
100.3029440048
 30
0.0
 11
107.4825660494
 21
100.3029440048
 31
0.0
  0
LINE
  5
1AB
330
1F
100
AcDbEntity
  8
0
  6
HIDDEN
 62
     7
370
     0
100
AcDbLine
 10
107.4825660494
 20
117.752943233
 30
0.0
 11
106.6058785823
 21
117.752943233
 31
0.0
  0
ARC
  5
1AC
330
1F
100
AcDbEntity
  8
0
  6
HIDDEN
 62
     7
370
     0
100
AcDbCircle
 10
106.6058775406
 20
100.7029436189
 30
0.0
 40
0.4000000000000057
100
AcDbArc
 50
255.0
 51
270.0
  0
ARC
  5
1AD
330
1F
100
AcDbEntity
  8
0
  6
HIDDEN
 62
     7
370
     0
100
AcDbCircle
 10
106.6058775406
 20
117.3529436189
 30
0.0
 40
0.4000000000000023
100
AcDbArc
 50
90.0
 51
105.0
  0
LINE
  5
1AE
330
1F
100
AcDbEntity
  8
0
  6
HIDDEN
 62
     7
370
     0
100
AcDbLine
 10
106.5023490396
 20
117.7393142584
 30
0.0
 11
105.7135039178
 21
117.5279440808
 31
0.0
  0
LINE
  5
1AF
330
1F
100
AcDbEntity
  8
0
  6
HIDDEN
 62
     7
370
     0
100
AcDbLine
 10
105.7135039178
 20
100.527943157
 30
0.0
 11
106.5023490396
 21
100.3165729794
 31
0.0
  0
LINE
  5
1B0
330
1F
100
AcDbEntity
  8
0
  6
HIDDEN
 62
     7
370
     0
100
AcDbLine
 10
107.8289733437
 20
100.5029436651
 30
0.0
 11
108.7094345299
 21
102.0279434028
 31
0.0
  0
LINE
  5
1B1
330
1F
100
AcDbEntity
  8
0
  6
HIDDEN
 62
     7
370
     0
100
AcDbLine
 10
108.7094345299
 20
116.027943835
 30
0.0
 11
107.8289733437
 21
117.5529435727
 31
0.0
  0
LINE
  5
1B2
330
1F
100
AcDbEntity
  8
0
  6
HIDDEN
 62
     7
370
     0
100
AcDbLine
 10
99.5135032741
 20
100.527943157
 30
0.0
 11
105.7135039178
 21
100.527943157
 31
0.0
  0
LINE
  5
1B3
330
1F
100
AcDbEntity
  8
0
  6
HIDDEN
 62
     7
370
     0
100
AcDbLine
 10
105.7135039178
 20
117.5279440808
 30
0.0
 11
99.5135032741
 21
117.5279440808
 31
0.0
  0
LINE
  5
1B4
330
1F
100
AcDbEntity
  8
0
  6
HIDDEN
 62
     7
370
     0
100
AcDbLine
 10
141.7135042307
 20
102.0279434028
 30
0.0
 11
144.6577222255
 21
106.9279436938
 31
0.0
  0
LINE
  5
1B5
330
1F
100
AcDbEntity
  8
0
  6
HIDDEN
 62
     7
370
     0
100
AcDbLine
 10
144.6577222255
 20
111.127943544
 30
0.0
 11
141.7135042307
 21
116.027943835
 31
0.0
  0
LINE
  5
1B6
330
1F
100
AcDbEntity
  8
0
  6
HIDDEN
 62
     7
370
     0
100
AcDbLine
 10
108.7094345299
 20
102.0279434028
 30
0.0
 11
141.7135042307
 21
102.0279434028
 31
0.0
  0
LINE
  5
1B7
330
1F
100
AcDbEntity
  8
0
  6
HIDDEN
 62
     7
370
     0
100
AcDbLine
 10
141.7135042307
 20
116.027943835
 30
0.0
 11
108.7094345299
 21
116.027943835
 31
0.0
  0
LINE
  5
1B8
330
1F
100
AcDbEntity
  8
0
  6
HIDDEN
 62
     7
370
     0
100
AcDbLine
 10
189.8581837473
 20
115.027943671
 30
0.0
 11
189.263504481
 21
115.027943671
 31
0.0
  0
LINE
  5
1B9
330
1F
100
AcDbEntity
  8
0
  6
HIDDEN
 62
     7
370
     0
100
AcDbLine
 10
189.263504481
 20
103.0279435667
 30
0.0
 11
189.8581837473
 21
103.0279435667
 31
0.0
  0
ARC
  5
1BA
330
1F
100
AcDbEntity
  8
0
  6
HIDDEN
 62
     7
370
     0
100
AcDbCircle
 10
189.8581831118
 20
114.2279436189
 30
0.0
 40
0.7999999999999982
100
AcDbArc
 50
75.0
 51
90.0
  0
ARC
  5
1BB
330
1F
100
AcDbEntity
  8
0
  6
HIDDEN
 62
     7
370
     0
100
AcDbCircle
 10
189.8581831118
 20
103.8279436189
 30
0.0
 40
0.7999999999999982
100
AcDbArc
 50
270.0
 51
285.0
  0
ARC
  5
1BC
330
1F
100
AcDbEntity
  8
0
  6
HIDDEN
 62
     7
370
     0
100
AcDbCircle
 10
189.2635051099
 20
114.2279436189
 30
0.0
 40
0.7999999999999972
100
AcDbArc
 50
90.0
 51
180.0
  0
ARC
  5
1BD
330
1F
100
AcDbEntity
  8
0
  6
HIDDEN
 62
     7
370
     0
100
AcDbCircle
 10
189.2635051099
 20
103.8279436189
 30
0.0
 40
0.7999999999999972
100
AcDbArc
 50
180.0
 51
270.0
  0
LINE
  5
1BE
330
1F
100
AcDbEntity
  8
0
  6
HIDDEN
 62
     7
370
     0
100
AcDbLine
 10
190.0652391073
 20
103.0552029128
 30
0.0
 11
191.8295310048
 21
103.5279436487
 31
0.0
  0
LINE
  5
1BF
330
1F
100
AcDbEntity
  8
0
  6
HIDDEN
 62
     7
370
     0
100
AcDbLine
 10
191.8295310048
 20
114.5279435891
 30
0.0
 11
190.0652391073
 21
115.000684325
 31
0.0
  0
LINE
  5
1C0
330
1F
100
AcDbEntity
  8
0
  6
HIDDEN
 62
     7
370
     0
100
AcDbLine
 10
196.0635059682
 20
114.5279435891
 30
0.0
 11
191.8295310048
 21
114.5279435891
 31
0.0
  0
LINE
  5
1C1
330
1F
100
AcDbEntity
  8
0
  6
HIDDEN
 62
     7
370
     0
100
AcDbLine
 10
191.8295310048
 20
103.5279436487
 30
0.0
 11
196.0635059682
 21
103.5279436487
 31
0.0
  0
LINE
  5
1C2
330
1F
100
AcDbEntity
  8
0
  6
HIDDEN
 62
     7
370
     0
100
AcDbLine
 10
201.9635052589
 20
117.5002465475
 30
0.0
 11
201.5354247001
 21
117.0722730908
 31
0.0
  0
LINE
  5
1C3
330
1F
100
AcDbEntity
  8
0
  6
HIDDEN
 62
     7
370
     0
100
AcDbLine
 10
201.5354247001
 20
100.9836039025
 30
0.0
 11
201.9635052589
 21
100.5556351024
 31
0.0
  0
LINE
  5
1C4
330
1F
100
AcDbEntity
  8
0
  6
HIDDEN
 62
     7
370
     0
100
AcDbLine
 10
144.6577222255
 20
106.9279436938
 30
0.0
 11
188.46350584
 21
106.9279436938
 31
0.0
  0
LINE
  5
1C5
330
1F
100
AcDbEntity
  8
0
  6
HIDDEN
 62
     7
370
     0
100
AcDbLine
 10
188.46350584
 20
111.127943544
 30
0.0
 11
144.6577222255
 21
111.127943544
 31
0.0
  0
LINE
  5
1C6
330
1F
100
AcDbEntity
  8
0
  6
HIDDEN
 62
     7
370
     0
100
AcDbLine
 10
201.5417651442
 20
117.0779439139
 30
0.0
 11
196.0635059682
 21
117.0779439139
 31
0.0
  0
LINE
  5
1C7
330
1F
100
AcDbEntity
  8
0
  6
HIDDEN
 62
     7
370
     0
100
AcDbLine
 10
196.0635059682
 20
100.9779433239
 30
0.0
 11
201.5417651442
 21
100.9779433239
 31
0.0
  0
LINE
  5
1C8
330
1F
100
AcDbEntity
  8
0
  6
HIDDEN
 62
     7
370
     0
100
AcDbLine
 10
181.6135053692
 20
109.7423041224
 30
0.0
 11
181.6135053692
 21
117.0218475613
 31
0.0
  0
LINE
  5
1C9
330
1F
100
AcDbEntity
  8
0
  6
HIDDEN
 62
     7
370
     0
100
AcDbLine
 10
178.313505387
 20
115.6217605326
 30
0.0
 11
178.313505387
 21
109.741714537
 31
0.0
  0
LINE
  5
1CA
330
1F
100
AcDbEntity
  8
0
  6
HIDDEN
 62
     7
370
     0
100
AcDbLine
 10
178.313505387
 20
117.0218475613
 30
0.0
 11
178.313505387
 21
116.9996075782
 31
0.0
  0
LINE
  5
1CB
330
1F
100
AcDbEntity
  8
0
  6
HIDDEN
 62
     7
370
     0
100
AcDbLine
 10
171.3178977539
 20
116.2893712039
 30
0.0
 11
179.2935258878
 21
114.3793268579
 31
0.0
  0
LINE
  5
1CC
330
1F
100
AcDbEntity
  8
0
  6
HIDDEN
 62
     7
370
     0
100
AcDbLine
 10
179.2935258878
 20
117.7726407054
 30
0.0
 11
172.086465655
 21
119.49862358
 31
0.0
  0
LINE
  5
1CD
330
1F
100
AcDbEntity
  8
0
  6
HIDDEN
 62
     7
370
     0
100
AcDbLine
 10
181.9635047746
 20
117.065416694
 30
0.0
 11
181.9635047746
 21
119.8867867219
 31
0.0
  0
LINE
  5
1CE
330
1F
100
AcDbEntity
  8
0
  6
HIDDEN
 62
     7
370
     0
100
AcDbLine
 10
177.9635050503
 20
118.6038274768
 30
0.0
 11
177.9635050503
 21
117.0823714215
 31
0.0
  0
LINE
  5
1CF
330
1F
100
AcDbEntity
  8
0
  6
HIDDEN
 62
     7
370
     0
100
AcDbLine
 10
170.163505029
 20
116.1031062233
 30
0.0
 11
171.0789269005
 21
115.8838766146
 31
0.0
  0
LINE
  5
1D0
330
1F
100
AcDbEntity
  8
0
  6
HIDDEN
 62
     7
370
     0
100
AcDbLine
 10
172.0571043138
 20
119.9683798927
 30
0.0
 11
170.163505029
 21
120.421868794
 31
0.0
  0
DIMENSION
  5
1D1
330
1F
100
AcDbEntity
  8
VERMASSUNG
100
AcDbDimension
  2
_D
 10
91.1959209237
 20
140.7779436189
 30
0.0
 11
91.1959209237
 21
109.0279436189
 31
0.0
 70
   160
  1
ISO 40 %%c<>
 71
     2
 42
-1.0
  3
SLDDIMSTYLE0
100
AcDbAlignedDimension
 13
185.4135051099
 23
77.2779436189
 33
0.0
 14
185.4135051099
 24
140.7779436189
 34
0.0
 50
90.0
100
AcDbRotatedDimension
  0
DIMENSION
  5
1DE
330
1F
100
AcDbEntity
  8
VERMASSUNG
100
AcDbDimension
  2
_D_1
 10
208.2647212108
 20
103.5279436189
 30
0.0
 11
208.2647212108
 21
109.0279436189
 31
0.0
 70
   160
  1
%%c<>
 71
     2
 42
-1.0
  3
SLDDIMSTYLE0
100
AcDbAlignedDimension
 13
196.0635051099
 23
114.5279436189
 33
0.0
 14
196.0635051099
 24
103.5279436189
 34
0.0
 50
90.0
100
AcDbRotatedDimension
  0
DIMENSION
  5
1E9
330
1F
100
AcDbEntity
  8
VERMASSUNG
100
AcDbDimension
  2
_D_2
 10
201.9635051099
 20
144.6621966368
 30
0.0
 11
193.9885051099
 21
144.6621966368
 31
0.0
 70
   160
  1
(<>)
 71
     2
 42
-1.0
  3
SLDDIMSTYLE0
100
AcDbAlignedDimension
 13
186.0135051099
 23
139.0384947523
 33
0.0
 14
201.9635051099
 24
118.8279436189
 34
0.0
100
AcDbRotatedDimension
  0
DIMENSION
  5
1F5
330
1F
100
AcDbEntity
  8
VERMASSUNG
100
AcDbDimension
  2
_D_3
 10
201.9635051099
 20
150.6621966368
 30
0.0
 11
184.4635051099
 21
150.6621966368
 31
0.0
 70
   160
  1
<>
 71
     2
 42
-1.0
  3
SLDDIMSTYLE0
100
AcDbAlignedDimension
 13
166.9635051099
 23
131.2529436189
 33
0.0
 14
201.9635051099
 24
118.8279436189
 34
0.0
100
AcDbRotatedDimension
  0
DIMENSION
  5
1FF
330
1F
100
AcDbEntity
  8
VERMASSUNG
100
AcDbDimension
  2
_D_4
 10
201.9635051099
 20
156.6621966368
 30
0.0
 11
150.3385051099
 21
156.6621966368
 31
0.0
 70
   160
  1
(<>)
 71
     2
 42
-1.0
  3
SLDDIMSTYLE0
100
AcDbAlignedDimension
 13
98.7135051099
 23
120.4350742159
 33
0.0
 14
201.9635051099
 24
118.8279436189
 34
0.0
100
AcDbRotatedDimension
  0
DIMENSION
  5
20B
330
1F
100
AcDbEntity
  8
VERMASSUNG
100
AcDbDimension
  2
_D_5
 10
214.2647212108
 20
99.0279436189
 30
0.0
 11
214.2647212108
 21
109.0279436189
 31
0.0
 70
   160
  1
ST1 %%c<>
 71
     2
 42
-1.0
  3
SLDDIMSTYLE0
100
AcDbAlignedDimension
 13
201.7635051099
 23
119.0279436189
 33
0.0
 14
201.7635051099
 24
99.0279436189
 34
0.0
 50
90.0
100
AcDbRotatedDimension
  0
LINE
  5
217
330
1F
100
AcDbEntity
  8
VERMASSUNG
  6
CENTERX2
 62
     7
370
     0
100
AcDbLine
 10
96.7135051099
 20
109.0279436189
 30
0.0
 11
203.9635051099
 21
109.0279436189
 31
0.0
  0
LINE
  5
218
330
1F
100
AcDbEntity
  8
0
  6
Continuous
 62
     7
370
    15
100
AcDbLine
 10
259.8635813253
 20
45.0611439263
 30
0.0
 11
259.7751785164
 21
45.1121942265
 31
0.0
  0
LINE
  5
219
330
1F
100
AcDbEntity
  8
0
  6
Continuous
 62
     7
370
    15
100
AcDbLine
 10
258.537541093
 20
45.1121939464
 30
0.0
 11
258.449138203
 21
45.061143837
 31
0.0
  0
LINE
  5
21A
330
1F
100
AcDbEntity
  8
0
  6
Continuous
 62
     7
370
    15
100
AcDbLine
 10
260.1563599238
 20
44.5509382872
 30
0.0
 11
260.1563599238
 21
44.6530060956
 31
0.0
  0
LINE
  5
21B
330
1F
100
AcDbEntity
  8
0
  6
Continuous
 62
     7
370
    15
100
AcDbLine
 10
258.1563600885
 20
44.6530060005
 30
0.0
 11
258.1563600885
 21
44.5509381922
 31
0.0
  0
SPLINE
  5
21C
330
1F
100
AcDbEntity
  8
0
  6
Continuous
 62
     7
370
    15
100
AcDbSpline
210
0.0
220
0.0
230
1.0
 70
     8
 71
     3
 72
    33
 73
    29
 74
     0
 42
0.000000001
 43
0.00000001
 40
0.0
 40
0.0
 40
0.0
 40
0.0
 40
0.0086862488802125
 40
0.0491059190397335
 40
0.0896282084874049
 40
0.130306751048068
 40
0.171129335924599
 40
0.2120663635883691
 40
0.2530828659721874
 40
0.2941470980013888
 40
0.335234309828721
 40
0.3763257605568035
 40
0.4174099572412732
 40
0.4584823010525788
 40
0.4995410987156296
 40
0.540586499619925
 40
0.5816198319502224
 40
0.6226430349513151
 40
0.6636584901366431
 40
0.7046687225798391
 40
0.7456763749686914
 40
0.7866842230624546
 40
0.8276943340446516
 40
0.8687092222677952
 40
0.9097316900659104
 40
0.9507644505429372
 40
0.9918101799211946
 40
1.0
 40
1.0
 40
1.0
 40
1.0
 10
256.3491041298033
 20
60.35024424797043
 30
0.0
 10
256.2975357855921
 20
60.36344501387521
 30
0.0
 10
256.0060047725194
 20
60.43807282511133
 30
0.0
 10
255.4484810548576
 20
60.51360582863506
 30
0.0
 10
254.6666198445775
 20
60.54102228187284
 30
0.0
 10
253.8545363065193
 20
60.47712096632657
 30
0.0
 10
253.0186478911067
 20
60.32637097674262
 30
0.0
 10
252.1635933345777
 20
60.08832345102034
 30
0.0
 10
251.2949031040541
 20
59.76469616391843
 30
0.0
 10
250.4180284703944
 20
59.35747282887927
 30
0.0
 10
249.5384606607292
 20
58.86932219129385
 30
0.0
 10
248.6616096421926
 20
58.30341938637169
 30
0.0
 10
247.7927770195103
 20
57.66338761096531
 30
0.0
 10
246.9371358114393
 20
56.9532483031804
 30
0.0
 10
246.0997327613598
 20
56.17738811823479
 30
0.0
 10
245.2854940403309
 20
55.34055095062785
 30
0.0
 10
244.4992083610216
 20
54.44781258840417
 30
0.0
 10
243.7455056686023
 20
53.50455874390583
 30
0.0
 10
243.0288315370583
 20
52.51645923238316
 30
0.0
 10
242.353427829209
 20
51.48943333913218
 30
0.0
 10
241.7232980952072
 20
50.42962215442277
 30
0.0
 10
241.1422072501087
 20
49.34335810744771
 30
0.0
 10
240.613598931912
 20
48.2371121040169
 30
0.0
 10
240.1407841980491
 20
47.11750731303384
 30
0.0
 10
239.7261346901247
 20
45.99107010519421
 30
0.0
 10
239.3740015366693
 20
44.86495146379711
 30
0.0
 10
239.158326629971
 20
44.04327183413822
 30
0.0
 10
239.0611125596879
 20
43.59961638978874
 30
0.0
 10
239.0449420131311
 20
43.52581893436737
 30
0.0
  0
LINE
  5
21D
330
1F
100
AcDbEntity
  8
0
  6
Continuous
 62
     7
370
    15
100
AcDbLine
 10
260.8716686248
 20
35.6001023982
 30
0.0
 11
260.9423676903
 21
35.64092937
 31
0.0
  0
LINE
  5
21E
330
1F
100
AcDbEntity
  8
0
  6
Continuous
 62
     7
370
    15
100
AcDbLine
 10
264.406627828
 20
41.6418542046
 30
0.0
 11
264.406627828
 21
41.7234948771
 31
0.0
  0
LINE
  5
21F
330
1F
100
AcDbEntity
  8
0
  6
Continuous
 62
     7
370
    15
100
AcDbLine
 10
263.3708907578
 20
44.0127188273
 30
0.0
 11
259.2166385606
 21
46.4109175737
 31
0.0
  0
LINE
  5
220
330
1F
100
AcDbEntity
  8
0
  6
Continuous
 62
     7
370
    15
100
AcDbLine
 10
254.2170450471
 20
37.7504292054
 30
0.0
 11
258.3712972444
 21
35.3522304591
 31
0.0
  0
SPLINE
  5
221
330
1F
100
AcDbEntity
  8
0
  6
Continuous
 62
     7
370
    15
100
AcDbSpline
210
0.0
220
0.0
230
1.0
 70
     8
 71
     3
 72
    19
 73
    15
 74
     0
 42
0.000000001
 43
0.00000001
 40
0.0
 40
0.0
 40
0.0
 40
0.0
 40
0.0114419405814138
 40
0.1106319909274117
 40
0.2100378587284986
 40
0.309421197396222
 40
0.4085280880217581
 40
0.5071650509299589
 40
0.6051792819993262
 40
0.7025766400251674
 40
0.7997696711100948
 40
0.8977534802488644
 40
0.9993615633201876
 40
1.0
 40
1.0
 40
1.0
 40
1.0
 10
259.1371817083439
 20
39.80760748182525
 30
0.0
 10
259.1436735078119
 20
39.82553562992096
 30
0.0
 10
259.2064426416604
 20
39.99888268616179
 30
0.0
 10
259.3633486497813
 20
40.32655060454537
 30
0.0
 10
259.6247551252884
 20
40.77054431163404
 30
0.0
 10
259.9292117526018
 20
41.17848530774577
 30
0.0
 10
260.2614812897806
 20
41.53550218486973
 30
0.0
 10
260.609249762671
 20
41.82907380854361
 30
0.0
 10
260.9580152795827
 20
42.05002737510733
 30
0.0
 10
261.2926187517024
 20
42.19211199101492
 30
0.0
 10
261.6003657740972
 20
42.25749305304184
 30
0.0
 10
261.8651017270563
 20
42.23967205217742
 30
0.0
 10
262.023362931722
 20
42.2055883779045
 30
0.0
 10
262.0861132433956
 20
42.15584203756955
 30
0.0
 10
262.0865050621171
 20
42.15553141684199
 30
0.0
  0
LINE
  5
222
330
1F
100
AcDbEntity
  8
0
  6
Continuous
 62
     7
370
    15
100
AcDbLine
 10
248.8102313176
 20
58.3861102893
 30
0.0
 11
227.5027033799
 21
66.0644993888
 31
0.0
  0
LINE
  5
223
330
1F
100
AcDbEntity
  8
0
  6
Continuous
 62
     7
370
    15
100
AcDbLine
 10
221.3379213852
 20
55.3856267435
 30
0.0
 11
241.6341594828
 21
38.2476516559
 31
0.0
  0
SPLINE
  5
224
330
1F
100
AcDbEntity
  8
0
  6
Continuous
 62
     7
370
    15
100
AcDbSpline
210
0.0
220
0.0
230
1.0
 70
     8
 71
     3
 72
    23
 73
    19
 74
     0
 42
0.000000001
 43
0.00000001
 40
0.0
 40
0.0
 40
0.0
 40
0.0
 40
0.0088720199149254
 40
0.076126894736412
 40
0.1436399396192334
 40
0.2113830386234824
 40
0.2793036292758524
 40
0.3473439886122524
 40
0.4154536171006301
 40
0.4835942534924416
 40
0.5517362314584103
 40
0.6198640478270296
 40
0.6879712614518146
 40
0.7560558394160581
 40
0.8241185747578456
 40
0.8921618849475951
 40
0.9601892105114854
 40
1.0
 40
1.0
 40
1.0
 40
1.0
 10
249.6212571965673
 20
28.52781400647891
 30
0.0
 10
249.6545448311823
 20
28.52348828053884
 30
0.0
 10
249.9401713605028
 20
28.48637113174345
 30
0.0
 10
250.5086238174057
 20
28.50025661390134
 30
0.0
 10
251.3235237645968
 20
28.57541568778946
 30
0.0
 10
252.1646891147722
 20
28.74693616413041
 30
0.0
 10
253.0229280657165
 20
29.00292405105834
 30
0.0
 10
253.893887211929
 20
29.34479808566694
 30
0.0
 10
254.7717858296052
 20
29.76956130774307
 30
0.0
 10
255.6512266453296
 20
30.27466381337656
 30
0.0
 10
256.5268038699724
 20
30.85675930713008
 30
0.0
 10
257.3932332699533
 20
31.51217033794047
 30
0.0
 10
258.2454166454088
 20
32.23674162031712
 30
0.0
 10
259.0781639854489
 20
33.02617960235239
 30
0.0
 10
259.8871970092761
 20
33.8750430724
 30
0.0
 10
260.6654525351973
 20
34.78051169240397
 30
0.0
 10
261.3130836858868
 20
35.59746009936171
 30
0.0
 10
261.683720553988
 20
36.12737472206069
 30
0.0
 10
261.8205492283902
 20
36.32300424953252
 30
0.0
  0
SPLINE
  5
225
330
1F
100
AcDbEntity
  8
0
  6
Continuous
 62
     7
370
    15
100
AcDbSpline
210
0.0
220
0.0
230
1.0
 70
     8
 71
     3
 72
    13
 73
     9
 74
     0
 42
0.000000001
 43
0.00000001
 40
0.0
 40
0.0
 40
0.0
 40
0.0
 40
0.0885239295519749
 40
0.3133091517642703
 40
0.5381389615047725
 40
0.763028450788165
 40
0.9879920628234811
 40
1.0
 40
1.0
 40
1.0
 40
1.0
 10
264.281107927692
 20
40.59632195562826
 30
0.0
 10
264.3498069696001
 20
40.74164615781243
 30
0.0
 10
264.5929507009751
 20
41.25598620967843
 30
0.0
 10
264.9522334069312
 20
42.15319741740654
 30
0.0
 10
265.356931077536
 20
43.27952398321533
 30
0.0
 10
265.6942184425408
 20
44.40479055300897
 30
0.0
 10
265.888112020778
 20
45.17075449375123
 30
0.0
 10
265.9693500244104
 20
45.55939246562001
 30
0.0
 10
265.9734665558979
 20
45.57908571726195
 30
0.0
  0
LINE
  5
226
330
1F
100
AcDbEntity
  8
0
  6
Continuous
 62
     7
370
    15
100
AcDbLine
 10
245.8001811052
 20
30.0523532437
 30
0.0
 11
247.1536408758
 21
29.2710175494
 31
0.0
  0
LINE
  5
227
330
1F
100
AcDbEntity
  8
0
  6
Continuous
 62
     7
370
    15
100
AcDbLine
 10
259.0811415463
 20
37.6619244127
 30
0.0
 11
259.0472660169
 21
37.7103780782
 31
0.0
  0
SPLINE
  5
228
330
1F
100
AcDbEntity
  8
0
  6
Continuous
 62
     7
370
    15
100
AcDbSpline
210
0.0
220
0.0
230
1.0
 70
     8
 71
     3
 72
     9
 73
     5
 74
     0
 42
0.000000001
 43
0.00000001
 40
0.0
 40
0.0
 40
0.0
 40
0.0
 40
0.8420912856443142
 40
1.0
 40
1.0
 40
1.0
 40
1.0
 10
259.3728160126536
 20
37.3727032100198
 30
0.0
 10
259.3009316081605
 20
37.41490346797161
 30
0.0
 10
259.2155674609256
 20
37.46501710609043
 30
0.0
 10
259.1519262959543
 20
37.56004712760183
 30
0.0
 10
259.1418768014136
 20
37.57505319612389
 30
0.0
  0
LINE
  5
229
330
1F
100
AcDbEntity
  8
0
  6
Continuous
 62
     7
370
    15
100
AcDbLine
 10
241.9740839412
 20
32.2611121218
 30
0.0
 11
243.3098664016
 21
31.4899813214
 31
0.0
  0
SPLINE
  5
22A
330
1F
100
AcDbEntity
  8
0
  6
Continuous
 62
     7
370
    15
100
AcDbSpline
210
0.0
220
0.0
230
1.0
 70
     8
 71
     3
 72
    11
 73
     7
 74
     0
 42
0.000000001
 43
0.00000001
 40
0.0
 40
0.0
 40
0.0
 40
0.0
 40
0.1058969607699316
 40
0.4384059803170077
 40
0.7704196636191315
 40
1.0
 40
1.0
 40
1.0
 40
1.0
 10
239.0540117350492
 20
36.25815267229842
 30
0.0
 10
239.0802173762873
 20
36.16896442923839
 30
0.0
 10
239.1887068905595
 20
35.79973136676716
 30
0.0
 10
239.4289030074129
 20
35.19464512190328
 30
0.0
 10
239.7518773786304
 20
34.53520786115816
 30
0.0
 10
240.0015486249616
 20
34.17237421143897
 30
0.0
 10
240.1036145421693
 20
34.02404736244608
 30
0.0
  0
SPLINE
  5
22B
330
1F
100
AcDbEntity
  8
0
  6
Continuous
 62
     7
370
    15
100
AcDbSpline
210
0.0
220
0.0
230
1.0
 70
     8
 71
     3
 72
    13
 73
     9
 74
     0
 42
0.000000001
 43
0.00000001
 40
0.0
 40
0.0
 40
0.0
 40
0.0
 40
0.0902374916174188
 40
0.3212430293763897
 40
0.5519011237199583
 40
0.7818551584160041
 40
0.9978184752120518
 40
1.0
 40
1.0
 40
1.0
 40
1.0
 10
265.9612117011488
 20
52.72590142912602
 30
0.0
 10
265.928991581372
 20
52.83521997611224
 30
0.0
 10
265.8142888264698
 20
53.22439104648917
 30
0.0
 10
265.5681577218559
 20
53.84998781124925
 30
0.0
 10
265.2005015138398
 20
54.57524331071068
 30
0.0
 10
264.7757200214698
 20
55.21424340408031
 30
0.0
 10
264.4595887642719
 20
55.59636266203743
 30
0.0
 10
264.2938213055145
 20
55.76645880130243
 30
0.0
 10
264.292163572892
 20
55.76815982224542
 30
0.0
  0
SPLINE
  5
22C
330
1F
100
AcDbEntity
  8
0
  6
Continuous
 62
     7
370
    15
100
AcDbSpline
210
0.0
220
0.0
230
1.0
 70
     8
 71
     3
 72
    26
 73
    22
 74
     0
 42
0.000000001
 43
0.00000001
 40
0.0
 40
0.0
 40
0.0
 40
0.0
 40
0.0214272388098238
 40
0.0736160393837809
 40
0.1263641729033949
 40
0.1801416955347245
 40
0.235006592024029
 40
0.290685547044491
 40
0.3467977484156924
 40
0.4030267497231104
 40
0.4591911745276889
 40
0.5152521106084452
 40
0.5712175439615865
 40
0.6271170435437394
 40
0.6829892310205766
 40
0.7388764555070065
 40
0.794808927563586
 40
0.8508310568078719
 40
0.9069869371257073
 40
0.9633146325378655
 40
1.0
 40
1.0
 40
1.0
 40
1.0
 10
227.5847198300019
 20
66.0208873337247
 30
0.0
 10
227.5249319521743
 20
66.04807007525038
 30
0.0
 10
227.3195229954767
 20
66.14145988569085
 30
0.0
 10
226.9278039435131
 20
66.21019818196955
 30
0.0
 10
226.4213982902267
 20
66.22811097234012
 30
0.0
 10
225.8886063022042
 20
66.15325695202282
 30
0.0
 10
225.3382259964039
 20
65.99219473029349
 30
0.0
 10
224.7773404127028
 20
65.74419851832896
 30
0.0
 10
224.2158254536642
 20
65.41350781298311
 30
0.0
 10
223.6634825195412
 20
65.00606675282562
 30
0.0
 10
223.1293583066873
 20
64.52943764143834
 30
0.0
 10
222.6214817906989
 20
63.99181165134861
 30
0.0
 10
222.1470887391526
 20
63.4017911124611
 30
0.0
 10
221.7129018415964
 20
62.76844741088425
 30
0.0
 10
221.325168202353
 20
62.10127607617905
 30
0.0
 10
220.9895688416296
 20
61.41016101357878
 30
0.0
 10
220.7113163209077
 20
60.70526075602542
 30
0.0
 10
220.4944890127067
 20
59.9965632611524
 30
0.0
 10
220.3442812416202
 20
59.29480286568295
 30
0.0
 10
220.2686767756161
 20
58.6879223130674
 30
0.0
 10
220.260978329221
 20
58.32572293929933
 30
0.0
 10
220.2579419779155
 20
58.18286755199535
 30
0.0
  0
SPLINE
  5
22D
330
1F
100
AcDbEntity
  8
0
  6
Continuous
 62
     7
370
    15
100
AcDbSpline
210
0.0
220
0.0
230
1.0
 70
     8
 71
     3
 72
    13
 73
     9
 74
     0
 42
0.000000001
 43
0.00000001
 40
0.0
 40
0.0
 40
0.0
 40
0.0
 40
0.1025683861920498
 40
0.2964388985065833
 40
0.490347407452713
 40
0.6827808132749528
 40
0.8720996366966898
 40
1.0
 40
1.0
 40
1.0
 40
1.0
 10
220.2579419779155
 20
58.18286755199535
 30
0.0
 10
220.2599916077163
 20
58.06831806604511
 30
0.0
 10
220.2659153628132
 20
57.73725188961132
 30
0.0
 10
220.332373111917
 20
57.21859347384348
 30
0.0
 10
220.4814985159136
 20
56.64967244333867
 30
0.0
 10
220.7079935030461
 20
56.14392983633174
 30
0.0
 10
220.9659810040896
 20
55.74301060892789
 30
0.0
 10
221.1752615297756
 20
55.54779689668263
 30
0.0
 10
221.2596418459346
 20
55.46908821271012
 30
0.0
  0
ARC
  5
22E
330
1F
100
AcDbEntity
  8
0
  6
Continuous
 62
     7
370
    15
100
AcDbCircle
 10
249.9364427347
 20
52.293294441
 30
0.0
 40
1.06726378028832
100
AcDbArc
 50
125.8990457768
 51
149.151584247
  0
LWPOLYLINE
  5
22F
330
1F
100
AcDbEntity
  8
0
  6
Continuous
 62
     7
370
    15
100
AcDbPolyline
 90
        3
 70
   128
 43
0.0
 10
249.0781361138
 20
52.9047849881
 10
249.1033814175
 20
52.9409462647
 10
249.2849345651
 20
53.1302099431
  0
LWPOLYLINE
  5
230
330
1F
100
AcDbEntity
  8
0
  6
Continuous
 62
     7
370
    15
100
AcDbPolyline
 90
       18
 70
   128
 43
0.0
 10
259.0582676614
 20
45.2570163153
 10
259.3789855457
 20
45.2435773893
 10
259.6696369631
 20
45.1641630854
 10
259.890966981
 20
45.0294992723
 10
260.0130844288
 20
44.8577726011
 10
260.019496759
 20
44.6721757252
 10
259.9093374093
 20
44.497774798
 10
259.6974841453
 20
44.358123569
 10
259.412548884
 20
44.272082712
 10
259.0930140749
 20
44.251272344
 10
258.7820347056
 20
44.2985030059
 10
258.5216099048
 20
44.4073960924
 10
258.3469119175
 20
44.5632447643
 10
258.281533759
 20
44.7450013089
 10
258.3343061408
 20
44.928117958
 10
258.4981012653
 20
45.0878640816
 10
258.7507981903
 20
45.2026648025
 10
259.0582676614
 20
45.2570163153
  0
LWPOLYLINE
  5
231
330
1F
100
AcDbEntity
  8
0
  6
Continuous
 62
     7
370
    15
100
AcDbPolyline
 90
       16
 70
   128
 43
0.0
 10
259.8635813253
 20
45.0611439263
 10
259.9269334716
 20
45.0209410806
 10
260.0921295261
 20
44.8565649421
 10
260.1559198926
 20
44.6701303861
 10
260.1113922411
 20
44.4818402458
 10
259.9633731779
 20
44.3120979235
 10
259.7278999701
 20
44.1792992941
 10
259.4304930076
 20
44.0978332917
 10
259.1033790715
 20
44.076529119
 10
258.782006347
 20
44.1176951958
 10
258.5012002523
 20
44.2168707658
 10
258.2913914294
 20
44.3633080291
 10
258.1753153043
 20
44.5411386092
 10
258.1655504063
 20
44.7310918967
 10
258.2631548313
 20
44.9125834987
 10
258.449138203
 20
45.061143837
  0
LWPOLYLINE
  5
232
330
1F
100
AcDbEntity
  8
0
  6
Continuous
 62
     7
370
    15
100
AcDbPolyline
 90
       17
 70
   128
 43
0.0
 10
259.0862939574
 20
45.1136041332
 10
259.3292967985
 20
45.1017914543
 10
259.5459716065
 20
45.0371940724
 10
259.7033319279
 20
44.92964624
 10
259.7774204488
 20
44.7955214125
 10
259.7569574336
 20
44.6552391553
 10
259.645059583
 20
44.5301553888
 10
259.4587617097
 20
44.4393133306
 10
259.2264253963
 20
44.3965431992
 10
258.9834225552
 20
44.4083558782
 10
258.7667477473
 20
44.4729532601
 10
258.6093880843
 20
44.5805007123
 10
258.5352995634
 20
44.7146255398
 10
258.5557619201
 20
44.8549081772
 10
258.6676597707
 20
44.9799919437
 10
258.8539583026
 20
45.0708336217
 10
259.0862939574
 20
45.1136041332
  0
SPLINE
  5
233
330
1F
100
AcDbEntity
  8
0
  6
Continuous
 62
     7
370
    15
100
AcDbSpline
210
0.0
220
0.0
230
1.0
 70
     8
 71
     3
 72
    11
 73
     7
 74
     0
 42
0.000000001
 43
0.00000001
 40
0.0
 40
0.0
 40
0.0
 40
0.0
 40
0.1208914486062039
 40
0.4766710168820986
 40
0.8143668273948695
 40
1.0
 40
1.0
 40
1.0
 40
1.0
 10
258.8134521405079
 20
44.98430767429782
 30
0.0
 10
258.8351643710775
 20
44.9772410154934
 30
0.0
 10
258.9207749841003
 20
44.94937741159836
 30
0.0
 10
259.0822291103144
 20
44.92662137495884
 30
0.0
 10
259.2591549847957
 20
44.96450957047089
 30
0.0
 10
259.3536454518798
 20
45.00670481688003
 30
0.0
 10
259.3871627340323
 20
45.02167214663333
 30
0.0
  0
SPLINE
  5
234
330
1F
100
AcDbEntity
  8
0
  6
Continuous
 62
     7
370
    15
100
AcDbSpline
210
0.0
220
0.0
230
1.0
 70
     8
 71
     3
 72
    10
 73
     6
 74
     0
 42
0.000000001
 43
0.00000001
 40
0.0
 40
0.0
 40
0.0
 40
0.0
 40
0.4391049668774905
 40
0.7513581118568008
 40
1.0
 40
1.0
 40
1.0
 40
1.0
 10
258.5826487695073
 20
44.67880144975555
 30
0.0
 10
258.6156893505465
 20
44.69457398496617
 30
0.0
 10
258.6722255103643
 20
44.72156257122452
 30
0.0
 10
258.7544104433034
 20
44.85161471994391
 30
0.0
 10
258.7953180212522
 20
44.94355224258475
 30
0.0
 10
258.8134521405079
 20
44.98430767429782
 30
0.0
  0
SPLINE
  5
235
330
1F
100
AcDbEntity
  8
0
  6
Continuous
 62
     7
370
    15
100
AcDbSpline
210
0.0
220
0.0
230
1.0
 70
     8
 71
     3
 72
    10
 73
     6
 74
     0
 42
0.000000001
 43
0.00000001
 40
0.0
 40
0.0
 40
0.0
 40
0.0
 40
0.1063424191104572
 40
0.6038462523292278
 40
1.0
 40
1.0
 40
1.0
 40
1.0
 10
258.7984319699069
 20
44.45741700412058
 30
0.0
 10
258.7908793317682
 20
44.45982293995101
 30
0.0
 10
258.7479930379127
 20
44.47348461275006
 30
0.0
 10
258.6700829253838
 20
44.55823184598295
 30
0.0
 10
258.6095033704539
 20
44.64176959918017
 30
0.0
 10
258.5826487695073
 20
44.67880144975555
 30
0.0
  0
SPLINE
  5
236
330
1F
100
AcDbEntity
  8
0
  6
Continuous
 62
     7
370
    15
100
AcDbSpline
210
0.0
220
0.0
230
1.0
 70
     8
 71
     3
 72
    10
 73
     6
 74
     0
 42
0.000000001
 43
0.00000001
 40
0.0
 40
0.0
 40
0.0
 40
0.0
 40
0.5264584602001458
 40
0.9008293260800625
 40
1.0
 40
1.0
 40
1.0
 40
1.0
 10
259.7300705842313
 20
44.75352999643648
 30
0.0
 10
259.6971310316067
 20
44.68246992382135
 30
0.0
 10
259.6407677717573
 20
44.56087818930777
 30
0.0
 10
259.5714284583001
 20
44.48288471348749
 30
0.0
 10
259.5423433646238
 20
44.46961252391182
 30
0.0
 10
259.5362522657477
 20
44.46683301699641
 30
0.0
  0
SPLINE
  5
237
330
1F
100
AcDbEntity
  8
0
  6
Continuous
 62
     7
370
    15
100
AcDbSpline
210
0.0
220
0.0
230
1.0
 70
     8
 71
     3
 72
    10
 73
     6
 74
     0
 42
0.000000001
 43
0.00000001
 40
0.0
 40
0.0
 40
0.0
 40
0.0
 40
0.4391056646966338
 40
0.7513577887915318
 40
1.0
 40
1.0
 40
1.0
 40
1.0
 10
259.3871627340323
 20
45.02167214663333
 30
0.0
 10
259.4362513376762
 20
44.95532481841052
 30
0.0
 10
259.5202473041465
 20
44.84179728771889
 30
0.0
 10
259.6423520967027
 20
44.76758072582766
 30
0.0
 10
259.7031286026778
 20
44.75784555753124
 30
0.0
 10
259.7300705842313
 20
44.75352999643648
 30
0.0
  0
LINE
  5
238
330
1F
100
AcDbEntity
  8
0
  6
Continuous
 62
     7
370
    15
100
AcDbLine
 10
258.8134521405
 20
44.4534224462
 30
0.0
 11
258.8134521405
 21
44.9843076743
 31
0.0
  0
LINE
  5
239
330
1F
100
AcDbEntity
  8
0
  6
Continuous
 62
     7
370
    15
100
AcDbLine
 10
259.387162734
 20
44.4197718519
 30
0.0
 11
259.387162734
 21
45.0216721466
 31
0.0
  0
SPLINE
  5
23A
330
1F
100
AcDbEntity
  8
0
  6
Continuous
 62
     7
370
    15
100
AcDbSpline
210
0.0
220
0.0
230
1.0
 70
     8
 71
     3
 72
    12
 73
     8
 74
     0
 42
0.000000001
 43
0.00000001
 40
0.0
 40
0.0
 40
0.0
 40
0.0
 40
0.250000000000001
 40
0.250000000000001
 40
0.500000000000002
 40
0.500000000000002
 40
1.0
 40
1.0
 40
1.0
 40
1.0
 10
244.3254696051354
 20
40.47891866618654
 30
0.0
 10
244.3592487714077
 20
40.45941836857303
 30
0.0
 10
244.3975734678832
 20
40.43257861999586
 30
0.0
 10
244.4717965919958
 20
40.37417811667321
 30
0.0
 10
244.5071799564905
 20
40.34318845819232
 30
0.0
 10
244.6029899148755
 20
40.25244910517156
 30
0.0
 10
244.6519936730298
 20
40.19655497645402
 30
0.0
 10
244.6858027306445
 20
40.14929511268737
 30
0.0
  0
SPLINE
  5
23B
330
1F
100
AcDbEntity
  8
0
  6
Continuous
 62
     7
370
    15
100
AcDbSpline
210
0.0
220
0.0
230
1.0
 70
     8
 71
     3
 72
    12
 73
     8
 74
     0
 42
0.000000001
 43
0.00000001
 40
0.0
 40
0.0
 40
0.0
 40
0.0
 40
0.4999999999999971
 40
0.4999999999999971
 40
0.7499999999999986
 40
0.7499999999999986
 40
1.0
 40
1.0
 40
1.0
 40
1.0
 10
261.7903326438355
 20
56.91909663700891
 30
0.0
 10
261.7903326438355
 20
56.99049183829192
 30
0.0
 10
261.7725945738613
 20
57.07343861434935
 30
0.0
 10
261.7176952056338
 20
57.19186721194122
 30
0.0
 10
261.6943857283956
 20
57.23057195825089
 30
0.0
 10
261.6404051347055
 20
57.29716378711463
 30
0.0
 10
261.6096399929189
 20
57.32504551648884
 30
0.0
 10
261.5782006094796
 20
57.34319508622389
 30
0.0
  0
LWPOLYLINE
  5
23C
330
1F
100
AcDbEntity
  8
0
  6
Continuous
 62
     7
370
    15
100
AcDbPolyline
 90
       12
 70
   128
 43
0.0
 10
250.2891760856
 20
54.1464588048
 10
251.2020136041
 20
54.9651589826
 10
252.1328988641
 20
55.7043759768
 10
253.0752044794
 20
56.3588481249
 10
254.0222219396
 20
56.9239148466
 10
254.9672090659
 20
57.3955546863
 10
255.9034380853
 20
57.7704077423
 10
256.8242438277
 20
58.045808053
 10
257.7230704825
 20
58.2197930988
 10
258.5935191373
 20
58.2911244007
 10
259.4293932177
 20
58.2592955017
 10
260.224740469
 20
58.1245311065
  0
LINE
  5
23D
330
1F
100
AcDbEntity
  8
0
  6
Continuous
 62
     7
370
    15
100
AcDbLine
 10
261.5782002396
 20
57.3431954122
 30
0.0
 11
260.224740469
 21
58.1245311065
 31
0.0
  0
LINE
  5
23E
330
1F
100
AcDbEntity
  8
0
  6
Continuous
 62
     7
370
    15
100
AcDbLine
 10
242.9720096906
 20
41.2602545502
 30
0.0
 11
244.3254694612
 21
40.4789188558
 31
0.0
  0
ARC
  5
23F
330
1F
100
AcDbEntity
  8
0
  6
Continuous
 62
     7
370
    15
100
AcDbCircle
 10
268.5879570964
 20
35.2487410382
 30
0.0
 40
26.31188051429227
100
AcDbArc
 50
136.4697995832
 51
166.7929036469
  0
SPLINE
  5
240
330
1F
100
AcDbEntity
  8
0
  6
Continuous
 62
     7
370
    15
100
AcDbSpline
210
0.0
220
0.0
230
1.0
 70
     8
 71
     3
 72
    12
 73
     8
 74
     0
 42
0.000000001
 43
0.00000001
 40
0.0
 40
0.0
 40
0.0
 40
0.0
 40
0.2499999999999997
 40
0.2499999999999997
 40
0.4999999999999993
 40
0.4999999999999993
 40
1.0
 40
1.0
 40
1.0
 40
1.0
 10
249.5115424808163
 20
53.37070202932106
 30
0.0
 10
249.6108571635363
 20
53.40405011361688
 30
0.0
 10
249.7046823032277
 20
53.4479323151214
 30
0.0
 10
249.8816754081333
 20
53.55606258391713
 30
0.0
 10
249.9614869760543
 20
53.61846807409831
 30
0.0
 10
250.1696708372747
 20
53.82586565188807
 30
0.0
 10
250.2613806708607
 20
53.98727618968185
 30
0.0
 10
250.2891759970345
 20
54.14645919722094
 30
0.0
  0
LINE
  5
241
330
1F
100
AcDbEntity
  8
0
  6
Continuous
 62
     7
370
    15
100
AcDbLine
 10
265.8075963165
 20
52.2480476429
 30
0.0
 11
265.912960145
 21
52.4305427664
 31
0.0
  0
LINE
  5
242
330
1F
100
AcDbEntity
  8
0
  6
Continuous
 62
     7
370
    15
100
AcDbLine
 10
264.6364374708
 20
51.5719520323
 30
0.0
 11
265.8075963165
 21
52.2480476429
 31
0.0
  0
ARC
  5
243
330
1F
100
AcDbEntity
  8
0
  6
Continuous
 62
     7
370
    15
100
AcDbCircle
 10
265.2989252985
 20
50.5362676126
 30
0.0
 40
1.229443914554811
100
AcDbArc
 50
122.6054968531
 51
177.3945222572
  0
LINE
  5
244
330
1F
100
AcDbEntity
  8
0
  6
Continuous
 62
     7
370
    15
100
AcDbLine
 10
264.0707523482
 20
45.3254678661
 30
0.0
 11
264.0707523482
 21
50.5921562816
 31
0.0
  0
ARC
  5
245
330
1F
100
AcDbEntity
  8
0
  6
Continuous
 62
     7
370
    15
100
AcDbCircle
 10
264.4156117913
 20
45.2695260546
 30
0.0
 40
0.3493673163990118
100
AcDbArc
 50
170.7859529282
 51
309.2032375553
  0
LINE
  5
246
330
1F
100
AcDbEntity
  8
0
  6
Continuous
 62
     7
370
    15
100
AcDbLine
 10
265.8075963165
 20
45.6748938663
 30
0.0
 11
264.6364374708
 21
44.9987982557
 31
0.0
  0
LINE
  5
247
330
1F
100
AcDbEntity
  8
0
  6
Continuous
 62
     7
370
    15
100
AcDbLine
 10
265.912960145
 20
45.6140492297
 30
0.0
 11
265.8075963165
 21
45.6748938663
 31
0.0
  0
LINE
  5
248
330
1F
100
AcDbEntity
  8
0
  6
Continuous
 62
     7
370
    15
100
AcDbLine
 10
244.733697909
 20
33.5091912699
 30
0.0
 11
244.6858026255
 21
33.386942609
 31
0.0
  0
LINE
  5
249
330
1F
100
AcDbEntity
  8
0
  6
Continuous
 62
     7
370
    15
100
AcDbLine
 10
244.733697909
 20
33.5091912699
 30
0.0
 11
246.7466360037
 21
34.6712356971
 31
0.0
  0
ARC
  5
24A
330
1F
100
AcDbEntity
  8
0
  6
Continuous
 62
     7
370
    15
100
AcDbCircle
 10
246.084148176
 20
35.7069201168
 30
0.0
 40
1.229443914554875
100
AcDbArc
 50
302.6054968531
 51
357.3945222572
  0
LINE
  5
24B
330
1F
100
AcDbEntity
  8
0
  6
Continuous
 62
     7
370
    15
100
AcDbLine
 10
247.3123211262
 20
40.9177198633
 30
0.0
 11
247.3123211262
 21
35.6510314478
 31
0.0
  0
ARC
  5
24C
330
1F
100
AcDbEntity
  8
0
  6
Continuous
 62
     7
370
    15
100
AcDbCircle
 10
246.9674616831
 20
40.9736616749
 30
0.0
 40
0.3493673163990079
100
AcDbArc
 50
350.7859529282
 51
129.2032375553
  0
LINE
  5
24D
330
1F
100
AcDbEntity
  8
0
  6
Continuous
 62
     7
370
    15
100
AcDbLine
 10
246.7466360037
 20
41.2443894737
 30
0.0
 11
244.733697909
 21
40.0823450465
 31
0.0
  0
LINE
  5
24E
330
1F
100
AcDbEntity
  8
0
  6
Continuous
 62
     7
370
    15
100
AcDbLine
 10
244.6858026255
 20
40.1492949901
 30
0.0
 11
244.733697909
 21
40.0823450465
 31
0.0
  0
LINE
  5
24F
330
1F
100
AcDbEntity
  8
0
  6
Continuous
 62
     7
370
    15
100
AcDbLine
 10
261.7903325722
 20
54.134115529
 30
0.0
 11
261.7903325722
 21
56.9190964175
 31
0.0
  0
LINE
  5
250
330
1F
100
AcDbEntity
  8
0
  6
Continuous
 62
     7
370
    15
100
AcDbLine
 10
264.2020661231
 20
55.5263796727
 30
0.0
 11
261.7903325722
 21
54.134115529
 31
0.0
  0
SPLINE
  5
251
330
1F
100
AcDbEntity
  8
0
  6
Continuous
 62
     7
370
    15
100
AcDbSpline
210
0.0
220
0.0
230
1.0
 70
     8
 71
     3
 72
     8
 73
     4
 74
     0
 42
0.000000001
 43
0.00000001
 40
0.0
 40
0.0
 40
0.0
 40
0.0
 40
1.0
 40
1.0
 40
1.0
 40
1.0
 10
241.9818581848979
 20
42.51863375505623
 30
0.0
 10
241.6011603188975
 20
42.45566691738562
 30
0.0
 10
241.2203223466576
 20
42.39296679525059
 30
0.0
 10
240.8393816959179
 20
42.33048591657755
 30
0.0
  0
SPLINE
  5
252
330
1F
100
AcDbEntity
  8
0
  6
Continuous
 62
     7
370
    15
100
AcDbSpline
210
0.0
220
0.0
230
1.0
 70
     8
 71
     3
 72
     8
 73
     4
 74
     0
 42
0.000000001
 43
0.00000001
 40
0.0
 40
0.0
 40
0.0
 40
0.0
 40
0.0011901715795577
 40
0.0011901715795577
 40
0.0011901715795577
 40
0.0011901715795577
 10
240.48169489836
 20
42.69788257243317
 30
0.0
 10
240.6013414058549
 20
42.57526766267768
 30
0.0
 10
240.720584580003
 20
42.45279562218197
 30
0.0
 10
240.8393816959179
 20
42.33048591657755
 30
0.0
  0
LWPOLYLINE
  5
253
330
1F
100
AcDbEntity
  8
0
  6
Continuous
 62
     7
370
    15
100
AcDbPolyline
 90
       24
 70
   128
 43
0.0
 10
240.481694987
 20
42.6978826278
 10
240.7808658301
 20
43.8836249501
 10
241.1513912877
 20
45.0786047639
 10
241.5907445245
 20
46.2746739464
 10
242.0959311388
 20
47.4636802362
 10
242.6635056255
 20
48.637514
 10
243.2895990358
 20
49.788175151
 10
243.9699426841
 20
50.9078168733
 10
244.6998984414
 20
51.9888064556
 10
245.4744890284
 20
53.0237731984
 10
246.2884342352
 20
54.0056620223
 10
247.1361835194
 20
54.9277781428
 10
248.011958153
 20
55.7838342146
 10
248.9097866189
 20
56.56799358
 10
249.8235479107
 20
57.274910474
 10
250.7470121561
 20
57.8997664042
 10
251.6738833404
 20
58.4382993766
 10
252.597842235
 20
58.8868385645
 10
253.5125892856
 20
59.2423252643
 10
254.4118882815
 20
59.5023365846
 10
255.2896075969
 20
59.6651001292
 10
256.1397632028
 20
59.7295051382
 10
256.9565589195
 20
59.6951135583
 10
257.7344257654
 20
59.5621591842
  0
SPLINE
  5
254
330
1F
100
AcDbEntity
  8
0
  6
Continuous
 62
     7
370
    15
100
AcDbSpline
210
0.0
220
0.0
230
1.0
 70
     8
 71
     3
 72
     9
 73
     5
 74
     0
 42
0.000000001
 43
0.00000001
 40
0.0
 40
0.0
 40
0.0
 40
0.0
 40
0.0062255621956467
 40
1.0
 40
1.0
 40
1.0
 40
1.0
 10
258.1698129179788
 20
58.22365930265071
 30
0.0
 10
258.1689296534952
 20
58.22643592008173
 30
0.0
 10
258.0270525898897
 20
58.67243860124839
 30
0.0
 10
257.8802823139148
 20
59.11868796930275
 30
0.0
 10
257.7344257654215
 20
59.56215918416154
 30
0.0
  0
LWPOLYLINE
  5
255
330
1F
100
AcDbEntity
  8
0
  6
Continuous
 62
     7
370
    15
100
AcDbPolyline
 90
       23
 70
   128
 43
0.0
 10
241.9818580591
 20
42.5186339407
 10
242.262249847
 20
43.6425820501
 10
242.6130762627
 20
44.7758703999
 10
243.0317505435
 20
45.9101440268
 10
243.5151860912
 20
47.0370407904
 10
244.0598195214
 20
48.1482541087
 10
244.6616350299
 20
49.2355915114
 10
245.3161966607
 20
50.2910373756
 10
246.0186785997
 20
51.3068103373
 10
246.7639030407
 20
52.2754239349
 10
247.5463757469
 20
53.1897360365
 10
248.3603278684
 20
54.0430064401
 10
249.1997595709
 20
54.8289456351
 10
250.0584823468
 20
55.5417597601
 10
250.930165855
 20
56.1761928519
 10
251.8083840687
 20
56.727568696
 10
252.686662767
 20
57.1918228052
 10
253.5585273749
 20
57.5655323184
 10
254.4175504471
 20
57.8459426525
 10
255.2573995022
 20
58.0309859901
 10
256.0718830691
 20
58.1192987368
 10
256.8549965391
 20
58.1102289788
 10
257.0306362863
 20
58.0943009526
  0
LINE
  5
256
330
1F
100
AcDbEntity
  8
0
  6
Continuous
 62
     7
370
    15
100
AcDbLine
 10
239.1459125266
 20
43.4690134282
 30
0.0
 11
240.481694987
 21
42.6978826278
 31
0.0
  0
LINE
  5
257
330
1F
100
AcDbEntity
  8
0
  6
Continuous
 62
     7
370
    15
100
AcDbLine
 10
257.7344257654
 20
59.5621591842
 30
0.0
 11
256.3986433051
 21
60.3332899846
 31
0.0
  0
LINE
  5
258
330
1F
100
AcDbEntity
  8
0
  6
Continuous
 62
     7
370
    15
100
AcDbLine
 10
243.2084001687
 20
42.2183491474
 30
0.0
 11
242.6178895645
 21
42.559243663
 31
0.0
  0
SPLINE
  5
259
330
1F
100
AcDbEntity
  8
0
  6
Continuous
 62
     7
370
    15
100
AcDbSpline
210
0.0
220
0.0
230
1.0
 70
     8
 71
     3
 72
    14
 73
    10
 74
     0
 42
0.000000001
 43
0.00000001
 40
0.0
 40
0.0
 40
0.0
 40
0.0
 40
0.1129357008693544
 40
0.2870480258335931
 40
0.4611901646077193
 40
0.6349714544863754
 40
0.808516673936617
 40
0.9823164530865243
 40
0.9999999999999999
 40
0.9999999999999999
 40
0.9999999999999999
 40
0.9999999999999999
 10
250.0026249309517
 20
53.67100952719271
 30
0.0
 10
249.9330741942308
 20
53.67435947212709
 30
0.0
 10
249.7562974839674
 20
53.68287400803261
 30
0.0
 10
249.4614693829495
 20
53.5977302472828
 30
0.0
 10
249.1687929969544
 20
53.43428530975748
 30
0.0
 10
248.943363069692
 20
53.20363224649924
 30
0.0
 10
248.8238525712231
 20
52.94076952639041
 30
0.0
 10
248.7904221517108
 20
52.74351714583814
 30
0.0
 10
248.8233039853833
 20
52.65562564433518
 30
0.0
 10
248.826340633327
 20
52.64750883582722
 30
0.0
  0
SPLINE
  5
25A
330
1F
100
AcDbEntity
  8
0
  6
Continuous
 62
     7
370
    15
100
AcDbSpline
210
0.0
220
0.0
230
1.0
 70
     8
 71
     3
 72
    12
 73
     8
 74
     0
 42
0.000000001
 43
0.00000001
 40
0.0
 40
0.0
 40
0.0
 40
0.0
 40
0.2500000000000015
 40
0.2500000000000015
 40
0.500000000000003
 40
0.500000000000003
 40
1.0
 40
1.0
 40
1.0
 40
1.0
 10
242.6178896341353
 20
42.55924365047186
 30
0.0
 10
242.580270899176
 20
42.58096048390805
 30
0.0
 10
242.5342784907887
 20
42.59821621789071
 30
0.0
 10
242.4346773608127
 20
42.62051000571852
 30
0.0
 10
242.3799266355587
 20
42.62571579029796
 30
0.0
 10
242.2204207367394
 20
42.62271389087083
 30
0.0
 10
242.1154179315218
 20
42.59573615561164
 30
0.0
 10
242.0401050353299
 20
42.55225894607834
 30
0.0
  0
SPLINE
  5
25B
330
1F
100
AcDbEntity
  8
0
  6
Continuous
 62
     7
370
    15
100
AcDbSpline
210
0.0
220
0.0
230
1.0
 70
     8
 71
     3
 72
    10
 73
     6
 74
     0
 42
0.000000001
 43
0.00000001
 40
0.0
 40
0.0
 40
0.0
 40
0.0
 40
0.5
 40
0.5
 40
1.0
 40
1.0
 40
1.0
 40
1.0
 10
239.0442683223465
 20
43.49973542703099
 30
0.0
 10
239.0515310039952
 20
43.50373203251881
 30
0.0
 10
239.0633246679609
 20
43.50391381090398
 30
0.0
 10
239.0973836787282
 20
43.49419218139423
 30
0.0
 10
239.1195561662804
 20
43.48422852461854
 30
0.0
 10
239.1459124329439
 20
43.46901337573723
 30
0.0
  0
LINE
  5
25C
330
1F
100
AcDbEntity
  8
0
  6
Continuous
 62
     7
370
    15
100
AcDbLine
 10
242.0401050037
 20
42.5522591861
 30
0.0
 11
241.9818580591
 21
42.5186339407
 31
0.0
  0
LINE
  5
25D
330
1F
100
AcDbEntity
  8
0
  6
Continuous
 62
     7
370
    15
100
AcDbLine
 10
244.733697909
 20
40.0823450465
 30
0.0
 11
243.0065151179
 21
41.0794264483
 31
0.0
  0
SPLINE
  5
25E
330
1F
100
AcDbEntity
  8
0
  6
Continuous
 62
     7
370
    15
100
AcDbSpline
210
0.0
220
0.0
230
1.0
 70
     8
 71
     3
 72
     8
 73
     4
 74
     0
 42
0.000000001
 43
0.00000001
 40
0.0
 40
0.0
 40
0.0
 40
0.0
 40
0.0011901715795577
 40
0.0011901715795577
 40
0.0011901715795577
 40
0.0011901715795577
 10
243.0065152076068
 20
41.07942636983076
 30
0.0
 10
242.9943537407882
 20
41.14017662554159
 30
0.0
 10
242.9828702938321
 20
41.20044029967165
 30
0.0
 10
242.9720094701896
 20
41.26025457088839
 30
0.0
  0
LWPOLYLINE
  5
25F
330
1F
100
AcDbEntity
  8
0
  6
Continuous
 62
     7
370
    15
100
AcDbPolyline
 90
       43
 70
   128
 43
0.0
 10
260.9418045591
 20
43.6427043326
 10
260.4253994334
 20
43.2999013973
 10
259.9205299495
 20
42.8753795106
 10
259.4384740526
 20
42.378621561
 10
258.9900001389
 20
41.8207242819
 10
258.5851263168
 20
41.2141501497
 10
258.2328967074
 20
40.5724490041
 10
257.941179765
 20
39.9099554976
 10
257.7164916228
 20
39.2414684821
 10
257.5638515426
 20
38.5819208867
 10
257.486669797
 20
37.9460463123
 10
257.486669797
 20
37.3480486181
 10
257.5638515426
 20
36.8012861903
 10
257.7164916228
 20
36.3179730803
 10
257.941179765
 20
35.9089054719
 10
258.2328967074
 20
35.5832211779
 10
258.5851263168
 20
35.348195683
 10
258.9900001389
 20
35.2090789156
 10
259.4384740526
 20
35.1689785956
 10
259.9205299495
 20
35.2287905377
 10
260.4253994334
 20
35.3871785495
 10
260.9418045591
 20
35.6406042812
 10
261.4582096848
 20
35.9834072166
 10
261.9630791687
 20
36.4079291032
 10
262.4451350656
 20
36.9046870529
 10
262.8936089793
 20
37.462584332
 10
263.2984828013
 20
38.0691584642
 10
263.6507124108
 20
38.7108596098
 10
263.9424293532
 20
39.3733531163
 10
264.1671174954
 20
40.0418401318
 10
264.3197575756
 20
40.7013877272
 10
264.3969393212
 20
41.3372623016
 10
264.3969393212
 20
41.9352599958
 10
264.3197575756
 20
42.4820224235
 10
264.1671174954
 20
42.9653355336
 10
263.9424293532
 20
43.374403142
 10
263.6507124108
 20
43.700087436
 10
263.2984828013
 20
43.9351129309
 10
262.8936089793
 20
44.0742296983
 10
262.4451350656
 20
44.1143300183
 10
261.9630791687
 20
44.0545180762
 10
261.4582096848
 20
43.8961300644
 10
260.9418045591
 20
43.6427043326
  0
LWPOLYLINE
  5
260
330
1F
100
AcDbEntity
  8
0
  6
Continuous
 62
     7
370
    15
100
AcDbPolyline
 90
       23
 70
   128
 43
0.0
 10
260.8710940011
 20
43.7651786114
 10
260.3563161389
 20
43.4244960741
 10
259.8525098751
 20
43.0040583438
 10
259.3704129837
 20
42.512826967
 10
258.9203004467
 20
41.9612716269
 10
258.5117657757
 20
41.3611478943
 10
258.153515917
 20
40.7252459382
 10
257.8531866942
 20
40.0671191523
 10
257.6171788305
 20
39.4007942444
 10
257.4505226182
 20
38.7404729574
 10
257.3567699172
 20
38.1002287972
 10
257.3379187513
 20
37.4937073699
 10
257.3943711622
 20
36.9338357466
 10
257.5249239889
 20
36.4325466534
 10
257.7267945517
 20
36.0005241421
 10
257.9956805792
 20
35.6469760635
 10
258.3258509232
 20
35.3794375267
 10
258.7102685419
 20
35.2036106673
 10
259.1407406475
 20
35.12324334
 10
259.6080920688
 20
35.1400476374
 10
260.1023622376
 20
35.2536662685
 10
260.6130165823
 20
35.4616771019
 10
260.8716686248
 20
35.6001023982
  0
LWPOLYLINE
  5
261
330
1F
100
AcDbEntity
  8
0
  6
Continuous
 62
     7
370
    15
100
AcDbPolyline
 90
       12
 70
   128
 43
0.0
 10
264.406627828
 20
41.7234948771
 10
264.385418085
 20
42.1577810171
 10
264.291665384
 20
42.6897806127
 10
264.1250091717
 20
43.1576847327
 10
263.889001308
 20
43.5515207613
 10
263.5886720852
 20
43.8628948073
 10
263.2304222264
 20
44.0851702809
 10
262.8218875555
 20
44.2136099224
 10
262.3717750184
 20
44.2454763891
 10
261.8896781271
 20
44.1800905431
 10
261.3858718633
 20
44.0188459428
 10
260.8710940011
 20
43.7651786114
  0
SPLINE
  5
262
330
1F
100
AcDbEntity
  8
0
  6
Continuous
 62
     7
370
    15
100
AcDbSpline
210
0.0
220
0.0
230
1.0
 70
    11
 71
     3
 72
    60
 73
    56
 74
     0
 42
0.000000001
 43
0.00000001
 40
0.0
 40
0.0
 40
0.0
 40
0.0
 40
0.0624999999999995
 40
0.0624999999999995
 40
0.0937499999999996
 40
0.0937499999999996
 40
0.1249999999999997
 40
0.1249999999999997
 40
0.1562499999999998
 40
0.1562499999999998
 40
0.1874999999999999
 40
0.1874999999999999
 40
0.21875
 40
0.21875
 40
0.2500000000000001
 40
0.2500000000000001
 40
0.2812500000000002
 40
0.2812500000000002
 40
0.3125000000000003
 40
0.3125000000000003
 40
0.3437500000000004
 40
0.3437500000000004
 40
0.3750000000000005
 40
0.3750000000000005
 40
0.4062500000000006
 40
0.4062500000000006
 40
0.4375000000000007
 40
0.4375000000000007
 40
0.4687500000000008
 40
0.4687500000000008
 40
0.5000000000000009
 40
0.5000000000000009
 40
0.531250000000001
 40
0.531250000000001
 40
0.5625000000000006
 40
0.5625000000000006
 40
0.6250000000000001
 40
0.6250000000000001
 40
0.6874999999999998
 40
0.6874999999999998
 40
0.7499999999999994
 40
0.7499999999999994
 40
0.7812499999999996
 40
0.7812499999999996
 40
0.8124999999999997
 40
0.8124999999999997
 40
0.8437499999999998
 40
0.8437499999999998
 40
0.8749999999999998
 40
0.8749999999999998
 40
0.9062499999999999
 40
0.9062499999999999
 40
0.9375
 40
0.9375
 40
1.0
 40
1.0
 40
1.0
 40
1.0
 10
259.153040296385
 20
45.37946839813239
 30
0.0
 10
259.3083939848844
 20
45.35656622954099
 30
0.0
 10
259.4570853418998
 20
45.31822660747871
 30
0.0
 10
259.6662130689166
 20
45.2446845661603
 30
0.0
 10
259.7321391609589
 20
45.21793979191084
 30
0.0
 10
259.8567569750779
 20
45.1605237778405
 30
0.0
 10
259.9159468214272
 20
45.12953378843879
 30
0.0
 10
260.0238259717656
 20
45.06524320964319
 30
0.0
 10
260.0724993999397
 20
45.03205219778066
 30
0.0
 10
260.1594056487691
 20
44.96342726991239
 30
0.0
 10
260.1979271509617
 20
44.92761946892764
 30
0.0
 10
260.2616072970403
 20
44.85545478027238
 30
0.0
 10
260.2869833350434
 20
44.81906267609054
 30
0.0
 10
260.3244929552407
 20
44.74499020061862
 30
0.0
 10
260.3366105428665
 20
44.70689179353663
 30
0.0
 10
260.3455742513544
 20
44.63142778101125
 30
0.0
 10
260.3426831531801
 20
44.59388720539948
 30
0.0
 10
260.3211879747012
 20
44.51838546952253
 30
0.0
 10
260.3021652396405
 20
44.48007493098165
 30
0.0
 10
260.2487847654731
 20
44.40622593790508
 30
0.0
 10
260.2144526632234
 20
44.37024997717641
 30
0.0
 10
260.1292387822928
 20
44.29986194823521
 30
0.0
 10
260.0788669756226
 20
44.26607222913996
 30
0.0
 10
259.9665901815811
 20
44.20373389713343
 30
0.0
 10
259.9032358641971
 20
44.17443218194556
 30
0.0
 10
259.7686760502566
 20
44.12275368864431
 30
0.0
 10
259.6976996060637
 20
44.10029746620127
 30
0.0
 10
259.5486097915992
 20
44.06237813715535
 30
0.0
 10
259.4721012355294
 20
44.04737736988989
 30
0.0
 10
259.3180321819028
 20
44.0257527447954
 30
0.0
 10
259.2393252535815
 20
44.01904641079287
 30
0.0
 10
259.0851898345682
 20
44.01465723022798
 30
0.0
 10
259.0093720879988
 20
44.01684187373139
 30
0.0
 10
258.8600524371693
 20
44.0303399823747
 30
0.0
 10
258.7871512375006
 20
44.04169350364013
 30
0.0
 10
258.5794322093054
 20
44.08874148754157
 30
0.0
 10
258.4514155254393
 20
44.13874958999071
 30
0.0
 10
258.2365649307014
 20
44.26880527902074
 30
0.0
 10
258.147004851038
 20
44.35054632359432
 30
0.0
 10
258.0199505299503
 20
44.53192026751739
 30
0.0
 10
257.980731270511
 20
44.63400886943497
 30
0.0
 10
257.9671567168483
 20
44.78721459203815
 30
0.0
 10
257.9700159942853
 20
44.83926264742392
 30
0.0
 10
257.9918013220179
 20
44.94098589114567
 30
0.0
 10
258.0104066387279
 20
44.98999340166728
 30
0.0
 10
258.0637024475895
 20
45.08350863240837
 30
0.0
 10
258.0991080535746
 20
45.12856474628438
 30
0.0
 10
258.1840816324292
 20
45.20885734195545
 30
0.0
 10
258.2335725297392
 20
45.24447991027544
 30
0.0
 10
258.3471040266103
 20
45.30619048219948
 30
0.0
 10
258.4102047632002
 20
45.33157560234039
 30
0.0
 10
258.5444066175028
 20
45.37046670201418
 30
0.0
 10
258.6169863401275
 20
45.3843213387719
 30
0.0
 10
258.8394568347825
 20
45.40855656340368
 30
0.0
 10
258.9976866078857
 20
45.4023705667238
 30
0.0
 10
259.153040296385
 20
45.37946839813239
 30
0.0
  0
LINE
  5
263
330
1F
100
AcDbEntity
  8
0
  6
Continuous
 62
     7
370
    15
100
AcDbLine
 10
262.8752125385
 20
39.6542879247
 30
0.0
 11
263.6288103729
 21
40.5917564067
 31
0.0
  0
SPLINE
  5
264
330
1F
100
AcDbEntity
  8
0
  6
Continuous
 62
     7
370
    15
100
AcDbSpline
210
0.0
220
0.0
230
1.0
 70
     8
 71
     3
 72
    21
 73
    17
 74
     0
 42
0.000000001
 43
0.00000001
 40
0.0
 40
0.0
 40
0.0
 40
0.0
 40
0.041666666666667
 40
0.0833333333333334
 40
0.1250000000000024
 40
0.1666666666666667
 40
0.2083333333333333
 40
0.2499999999976954
 40
0.3339999999999608
 40
0.4179999999999996
 40
0.4330099753158393
 40
0.4330099753158393
 40
0.5019999999997413
 40
0.5859999999988206
 40
0.6699999999999805
 40
0.8156536847925858
 40
0.8156536847925858
 40
0.8156536847925858
 40
0.8156536847925858
 10
263.6288102749201
 20
40.59175642644734
 30
0.0
 10
263.6587867420151
 20
40.62904686653263
 30
0.0
 10
263.7169336903758
 20
40.7093598735921
 30
0.0
 10
263.7969998927953
 20
40.84730932303592
 30
0.0
 10
263.8648333605784
 20
40.99991627091158
 30
0.0
 10
263.9143673468525
 20
41.16081724649599
 30
0.0
 10
263.9397883168081
 20
41.32076336487908
 30
0.0
 10
263.9356640895173
 20
41.52034436544265
 30
0.0
 10
263.8598006004449
 20
41.71056588152366
 30
0.0
 10
263.7172431315257
 20
41.78144104352358
 30
0.0
 10
263.6433750232012
 20
41.79284990335411
 30
0.0
 10
263.5842475913213
 20
41.79910995627763
 30
0.0
 10
263.4960145208742
 20
41.80508259157428
 30
0.0
 10
263.3627880453184
 20
41.81788327796769
 30
0.0
 10
263.2305442287084
 20
41.82943607992166
 30
0.0
 10
263.0229091977318
 20
41.8479863190218
 30
0.0
 10
262.8752593349231
 20
41.86120358491499
 30
0.0
  0
SPLINE
  5
265
330
1F
100
AcDbEntity
  8
0
  6
Continuous
 62
     7
370
    15
100
AcDbSpline
210
0.0
220
0.0
230
1.0
 70
     8
 71
     3
 72
    21
 73
    17
 74
     0
 42
0.000000001
 43
0.00000001
 40
0.0
 40
0.0
 40
0.0
 40
0.0
 40
0.041666666666667
 40
0.0833333333333334
 40
0.1250000000000024
 40
0.1666666666666667
 40
0.2083333333333333
 40
0.2499999999976954
 40
0.3339999999999608
 40
0.4179999999999996
 40
0.4330099753158393
 40
0.4330099753158393
 40
0.5019999999997413
 40
0.5859999999988206
 40
0.6699999999999805
 40
0.8133971939531459
 40
0.8133971939531459
 40
0.8133971939531459
 40
0.8133971939531459
 10
258.2547987379032
 20
37.48940560152158
 30
0.0
 10
258.225725491373
 20
37.49200518786633
 30
0.0
 10
258.1662561359859
 20
37.50530139963693
 30
0.0
 10
258.086721441797
 20
37.55076085838063
 30
0.0
 10
258.0187455516313
 20
37.62506167231855
 30
0.0
 10
257.9692497466568
 20
37.72876856216562
 30
0.0
 10
257.9438184738854
 20
37.85936498257467
 30
0.0
 10
257.9479467572873
 20
38.06370831131314
 30
0.0
 10
258.0238030685223
 20
38.34151321333515
 30
0.0
 10
258.1663775573971
 20
38.57700238479132
 30
0.0
 10
258.2402297380049
 20
38.67367766297123
 30
0.0
 10
258.2993431417275
 20
38.7481873058108
 30
0.0
 10
258.387546350589
 20
38.85599463023427
 30
0.0
 10
258.5210709748148
 20
39.0229861780346
 30
0.0
 10
258.6509015502277
 20
39.1842243611864
 30
0.0
 10
258.8611883351637
 20
39.44580202813091
 30
0.0
 10
259.0083492698253
 20
39.6288829670712
 30
0.0
  0
LINE
  5
266
330
1F
100
AcDbEntity
  8
0
  6
Continuous
 62
     7
370
    15
100
AcDbLine
 10
259.0083965797
 20
37.4220225868
 30
0.0
 11
258.2547987453
 21
37.4894055295
 31
0.0
  0
ARC
  5
267
330
1F
100
AcDbEntity
  8
0
  6
Continuous
 62
     7
370
    15
100
AcDbCircle
 10
251.984546528
 20
41.5042115807
 30
0.0
 40
10.35670601003143
100
AcDbArc
 50
174.7071089899
 51
187.1554372142
  0
LINE
  5
268
330
1F
100
AcDbEntity
  8
0
  6
Continuous
 62
     7
370
    15
100
AcDbLine
 10
241.7084997735
 20
42.4734918501
 30
0.0
 11
241.7084997735
 21
40.2141641099
 31
0.0
  0
LINE
  5
269
330
1F
100
AcDbEntity
  8
0
  6
Continuous
 62
     7
370
    15
100
AcDbLine
 10
241.7084997735
 20
40.2141641099
 30
0.0
 11
241.7084997735
 21
38.7483562025
 31
0.0
  0
LINE
  5
26A
330
1F
100
AcDbEntity
  8
0
  6
Continuous
 62
     7
370
    15
100
AcDbLine
 10
239.4834299225
 20
43.1132602402
 30
0.0
 11
239.0442682398
 21
43.4997353595
 31
0.0
  0
LINE
  5
26B
330
1F
100
AcDbEntity
  8
0
  6
Continuous
 62
     7
370
    15
100
AcDbLine
 10
240.8393814609
 20
42.3304860789
 30
0.0
 11
239.4834299225
 21
43.1132602402
 31
0.0
  0
SPLINE
  5
26C
330
1F
100
AcDbEntity
  8
0
  6
Continuous
 62
     7
370
    15
100
AcDbSpline
210
0.0
220
0.0
230
1.0
 70
     8
 71
     3
 72
    11
 73
     7
 74
     0
 42
0.000000001
 43
0.00000001
 40
0.0
 40
0.0
 40
0.0
 40
0.0
 40
0.317637446439886
 40
0.6352804025560973
 40
0.9529670584377059
 40
1.0
 40
1.0
 40
1.0
 40
1.0
 10
258.1840883519145
 20
37.75329566816823
 30
0.0
 10
258.1415627315107
 20
37.76375500265885
 30
0.0
 10
258.056510753062
 20
37.78467385306563
 30
0.0
 10
257.9777259464416
 20
37.90095716041236
 30
0.0
 10
257.9400252033147
 20
38.01145296256414
 30
0.0
 10
257.9487503518195
 20
38.08430454916442
 30
0.0
 10
257.9498755159253
 20
38.09369923055611
 30
0.0
  0
ARC
  5
26D
330
1F
100
AcDbEntity
  8
0
  6
Continuous
 62
     7
370
    15
100
AcDbCircle
 10
257.6095352968
 20
40.7599603696
 30
0.0
 40
1.798893218956463
100
AcDbArc
 50
321.0412023942
 51
328.0508086732
  0
LINE
  5
26E
330
1F
100
AcDbEntity
  8
0
  6
Continuous
 62
     7
370
    15
100
AcDbLine
 10
240.7097117424
 20
42.2490577518
 30
0.0
 11
240.7108576098
 21
42.4046812062
 31
0.0
  0
ARC
  5
26F
330
1F
100
AcDbEntity
  8
0
  6
Continuous
 62
     7
370
    15
100
AcDbCircle
 10
247.4992549192
 20
41.9516772518
 30
0.0
 40
6.796052656624266
100
AcDbArc
 50
177.4920603826
 51
211.0972977524
  0
SPLINE
  5
270
330
1F
100
AcDbEntity
  8
0
  6
Continuous
 62
     7
370
    15
100
AcDbSpline
210
0.0
220
0.0
230
1.0
 70
     8
 71
     3
 72
    16
 73
    12
 74
     0
 42
0.000000001
 43
0.00000001
 40
0.0
 40
0.0
 40
0.0
 40
0.0
 40
0.2499999999999963
 40
0.2499999999999963
 40
0.4999999999999927
 40
0.4999999999999927
 40
0.6249999999999909
 40
0.6249999999999909
 40
0.749999999999989
 40
0.749999999999989
 40
1.0
 40
1.0
 40
1.0
 40
1.0
 10
262.8752593349232
 20
41.86120358491498
 30
0.0
 10
262.8508168096997
 20
41.86339162186153
 30
0.0
 10
262.8242455199546
 20
41.86441646270136
 30
0.0
 10
262.7635448811313
 20
41.86233530243523
 30
0.0
 10
262.7289924555685
 20
41.85937005019669
 30
0.0
 10
262.6709185390488
 20
41.84706001363342
 30
0.0
 10
262.6509043848354
 20
41.84152337654359
 30
0.0
 10
262.6150287462834
 20
41.82849538367568
 30
0.0
 10
262.5992414654889
 20
41.82106243837781
 30
0.0
 10
262.5610736118369
 20
41.79938735281666
 30
0.0
 10
262.5455894002747
 20
41.78541958296891
 30
0.0
 10
262.5337154916645
 20
41.77224463662183
 30
0.0
  0
SPLINE
  5
271
330
1F
100
AcDbEntity
  8
0
  6
Continuous
 62
     7
370
    15
100
AcDbSpline
210
0.0
220
0.0
230
1.0
 70
     8
 71
     3
 72
     8
 73
     4
 74
     0
 42
0.000000001
 43
0.00000001
 40
0.0
 40
0.0
 40
0.0
 40
0.0
 40
1.0
 40
1.0
 40
1.0
 40
1.0
 10
262.5337154916644
 20
41.7722446366218
 30
0.0
 10
262.5008295110051
 20
41.78539067791197
 30
0.0
 10
262.4686920870248
 20
41.80012855815162
 30
0.0
 10
262.4432183157313
 20
41.81483425329985
 30
0.0
  0
LINE
  5
272
330
1F
100
AcDbEntity
  8
0
  6
Continuous
 62
     7
370
    15
100
AcDbLine
 10
261.7072978476
 20
42.2396720376
 30
0.0
 11
262.4432187011
 21
41.8148339718
 31
0.0
  0
ARC
  5
273
330
1F
100
AcDbEntity
  8
0
  6
Continuous
 62
     7
370
    15
100
AcDbCircle
 10
257.2533931294
 20
42.0361641714
 30
0.0
 40
3.548237199157373
100
AcDbArc
 50
339.154994547
 51
358.3475606114
  0
LINE
  5
274
330
1F
100
AcDbEntity
  8
0
  6
Continuous
 62
     7
370
    15
100
AcDbLine
 10
260.5693856214
 20
40.7735553584
 30
0.0
 11
262.4432187011
 21
39.691814547
 31
0.0
  0
LINE
  5
275
330
1F
100
AcDbEntity
  8
0
  6
Continuous
 62
     7
370
    15
100
AcDbLine
 10
258.0355279549
 20
38.2794844787
 30
0.0
 11
259.0161270691
 21
37.7133966596
 31
0.0
  0
LINE
  5
276
330
1F
100
AcDbEntity
  8
0
  6
Continuous
 62
     7
370
    15
100
AcDbLine
 10
221.3379213852
 20
55.3856267435
 30
0.0
 11
221.2642621942
 21
55.4507745262
 31
0.0
  0
LINE
  5
277
330
1F
100
AcDbEntity
  8
0
  6
Continuous
 62
     7
370
    15
100
AcDbLine
 10
243.0065151179
 20
34.5062726717
 30
0.0
 11
244.733697909
 21
33.5091912699
 31
0.0
  0
SPLINE
  5
278
330
1F
100
AcDbEntity
  8
0
  6
Continuous
 62
     7
370
    15
100
AcDbSpline
210
0.0
220
0.0
230
1.0
 70
     8
 71
     3
 72
    14
 73
    10
 74
     0
 42
0.000000001
 43
0.00000001
 40
0.0
 40
0.0
 40
0.0
 40
0.0
 40
0.25
 40
0.25
 40
0.5
 40
0.5
 40
0.75
 40
0.75
 40
1.0
 40
1.0
 40
1.0
 40
1.0
 10
244.6858027306445
 20
33.38694280001342
 30
0.0
 10
244.6688945331065
 20
33.34378595046427
 30
0.0
 10
244.6483713422255
 20
33.30376997797526
 30
0.0
 10
244.5995879066631
 20
33.23046035099035
 30
0.0
 10
244.5711309282873
 20
33.19717319238427
 30
0.0
 10
244.5077683057791
 20
33.14425034605395
 30
0.0
 10
244.4724492450382
 20
33.12418667962869
 30
0.0
 10
244.397631167987
 20
33.10742768914666
 30
0.0
 10
244.3592616939224
 20
33.11162458475784
 30
0.0
 10
244.3254696051354
 20
33.13113234238028
 30
0.0
  0
LINE
  5
279
330
1F
100
AcDbEntity
  8
0
  6
Continuous
 62
     7
370
    15
100
AcDbLine
 10
244.3254694612
 20
33.131132483
 30
0.0
 11
242.9720096906
 21
33.9124681773
 31
0.0
  0
SPLINE
  5
27A
330
1F
100
AcDbEntity
  8
0
  6
Continuous
 62
     7
370
    15
100
AcDbSpline
210
0.0
220
0.0
230
1.0
 70
     8
 71
     3
 72
     8
 73
     4
 74
     0
 42
0.000000001
 43
0.00000001
 40
0.0
 40
0.0
 40
0.0
 40
0.0
 40
0.0011901715795577
 40
0.0011901715795577
 40
0.0011901715795577
 40
0.0011901715795577
 10
242.9720094701896
 20
33.91246824708212
 30
0.0
 10
242.9828702938321
 20
34.11042343544028
 30
0.0
 10
242.9943537407882
 20
34.30836234794185
 30
0.0
 10
243.0065152076068
 20
34.50627283415047
 30
0.0
  0
LINE
  5
27B
330
1F
100
AcDbEntity
  8
0
  6
Continuous
 62
     7
370
    15
100
AcDbLine
 10
259.0670511634
 20
37.6743454957
 30
0.0
 11
258.1840883519
 21
37.7532956682
 31
0.0
  0
SPLINE
  5
27C
330
1F
100
AcDbEntity
  8
0
  6
Continuous
 62
     7
370
    15
100
AcDbSpline
210
0.0
220
0.0
230
1.0
 70
     8
 71
     3
 72
    16
 73
    12
 74
     0
 42
0.000000001
 43
0.00000001
 40
0.0
 40
0.0
 40
0.0
 40
0.0
 40
0.249999999999996
 40
0.249999999999996
 40
0.499999999999992
 40
0.499999999999992
 40
0.6249999999999941
 40
0.6249999999999941
 40
0.7499999999999962
 40
0.7499999999999962
 40
1.0
 40
1.0
 40
1.0
 40
1.0
 10
259.008396568619
 20
37.42202259948449
 30
0.0
 10
259.0327225803997
 20
37.41984748746244
 30
0.0
 10
259.0565341696075
 20
37.42069442300466
 30
0.0
 10
259.0994721797227
 20
37.43320994045062
 30
0.0
 10
259.1199363062746
 20
37.44505041522802
 30
0.0
 10
259.1360425671319
 20
37.48112294010468
 30
0.0
 10
259.1386489176792
 20
37.49671001868336
 30
0.0
 10
259.1358521876763
 20
37.53228527279963
 30
0.0
 10
259.130634930411
 20
37.55163418331008
 30
0.0
 10
259.1093962216676
 20
37.6072839353485
 30
0.0
 10
259.088590950611
 20
37.64212106075052
 30
0.0
 10
259.0670508087471
 20
37.67434566042843
 30
0.0
  0
SPLINE
  5
27D
330
1F
100
AcDbEntity
  8
0
  6
Continuous
 62
     7
370
    15
100
AcDbSpline
210
0.0
220
0.0
230
1.0
 70
     8
 71
     3
 72
    10
 73
     6
 74
     0
 42
0.000000001
 43
0.00000001
 40
0.0
 40
0.0
 40
0.0
 40
0.0
 40
0.0138983785535752
 40
0.4829617503826673
 40
1.0
 40
1.0
 40
1.0
 40
1.0
 10
265.9734994831232
 20
45.57908077425316
 30
0.0
 10
265.9736269436621
 20
45.5790071363929
 30
0.0
 10
265.9780561340669
 20
45.57644825733024
 30
0.0
 10
265.9614644662167
 20
45.58603961379641
 30
0.0
 10
265.9296442805697
 20
45.60441470199027
 30
0.0
 10
265.9129601450489
 20
45.61404922974044
 30
0.0
  0
ARC
  5
27E
330
1F
100
AcDbEntity
  8
0
  6
Continuous
 62
     7
370
    15
100
AcDbCircle
 10
249.9170321668
 20
34.0568201396
 30
0.0
 40
5.52143822440997
100
AcDbArc
 50
214.3862826081
 51
266.058371456
  0
SPLINE
  5
27F
330
1F
100
AcDbEntity
  8
0
  6
Continuous
 62
     7
370
    15
100
AcDbSpline
210
0.0
220
0.0
230
1.0
 70
     8
 71
     3
 72
     8
 73
     4
 74
     0
 42
0.000000001
 43
0.00000001
 40
0.0
 40
0.0
 40
0.0
 40
0.0
 40
1.0
 40
1.0
 40
1.0
 40
1.0
 10
243.3324321369642
 20
35.16581047258525
 30
0.0
 10
243.2233585565772
 20
34.94603827252603
 30
0.0
 10
243.1147469911092
 20
34.72618519085636
 30
0.0
 10
243.0065152076068
 20
34.50627283415047
 30
0.0
  0
LINE
  5
280
330
1F
100
AcDbEntity
  8
0
  6
Continuous
 62
     7
370
    15
100
AcDbLine
 10
243.3906790323
 20
35.1994356186
 30
0.0
 11
243.3324320877
 21
35.1658103732
 31
0.0
  0
SPLINE
  5
281
330
1F
100
AcDbEntity
  8
0
  6
Continuous
 62
     7
370
    15
100
AcDbSpline
210
0.0
220
0.0
230
1.0
 70
     8
 71
     3
 72
    12
 73
     8
 74
     0
 42
0.000000001
 43
0.00000001
 40
0.0
 40
0.0
 40
0.0
 40
0.0
 40
0.2499999999999986
 40
0.2499999999999986
 40
0.4999999999999971
 40
0.4999999999999971
 40
1.0
 40
1.0
 40
1.0
 40
1.0
 10
243.4027781612523
 20
35.53298361272997
 30
0.0
 10
243.440815768805
 20
35.51102496929273
 30
0.0
 10
243.4702891727166
 20
35.48476803268806
 30
0.0
 10
243.5090828827595
 20
35.42690002338875
 30
0.0
 10
243.5179050857061
 20
35.39611788857962
 30
0.0
 10
243.5127958130193
 20
35.30313790519287
 30
0.0
 10
243.46617207125
 20
35.24301689326357
 30
0.0
 10
243.3906789873967
 20
35.19943566360763
 30
0.0
  0
LINE
  5
282
330
1F
100
AcDbEntity
  8
0
  6
Continuous
 62
     7
370
    15
100
AcDbLine
 10
242.6178895645
 20
35.9860898864
 30
0.0
 11
243.4027781413
 21
35.5329833557
 31
0.0
  0
SPLINE
  5
283
330
1F
100
AcDbEntity
  8
0
  6
Continuous
 62
     7
370
    15
100
AcDbSpline
210
0.0
220
0.0
230
1.0
 70
     8
 71
     3
 72
    12
 73
     8
 74
     0
 42
0.000000001
 43
0.00000001
 40
0.0
 40
0.0
 40
0.0
 40
0.0
 40
0.5
 40
0.5
 40
0.75
 40
0.75
 40
1.0
 40
1.0
 40
1.0
 40
1.0
 10
242.0401050353304
 20
35.97910541039833
 30
0.0
 10
242.1160358430817
 20
36.02293933268187
 30
0.0
 10
242.2199258025059
 20
36.04959667519108
 30
0.0
 10
242.3806278823382
 20
36.05255253796479
 30
0.0
 10
242.434412682761
 20
36.04739926632885
 30
0.0
 10
242.5341815682036
 20
36.02510076372549
 30
0.0
 10
242.579733794031
 20
36.00811701242807
 30
0.0
 10
242.6178896341353
 20
35.98609011479157
 30
0.0
  0
LINE
  5
284
330
1F
100
AcDbEntity
  8
0
  6
Continuous
 62
     7
370
    15
100
AcDbLine
 10
241.9818580591
 20
35.9454801641
 30
0.0
 11
242.0401050037
 21
35.9791054095
 31
0.0
  0
SPLINE
  5
285
330
1F
100
AcDbEntity
  8
0
  6
Continuous
 62
     7
370
    15
100
AcDbSpline
210
0.0
220
0.0
230
1.0
 70
     8
 71
     3
 72
     8
 73
     4
 74
     0
 42
0.000000001
 43
0.00000001
 40
0.0
 40
0.0
 40
0.0
 40
0.0
 40
1.0
 40
1.0
 40
1.0
 40
1.0
 10
240.8393816959179
 20
35.75733238089726
 30
0.0
 10
241.2203223466576
 20
35.8198132595703
 30
0.0
 10
241.6011603188975
 20
35.88251338170533
 30
0.0
 10
241.9818581848979
 20
35.94548021937594
 30
0.0
  0
LINE
  5
286
330
1F
100
AcDbEntity
  8
0
  6
Continuous
 62
     7
370
    15
100
AcDbLine
 10
239.4834299225
 20
36.5401064636
 30
0.0
 11
240.8393814609
 21
35.7573323024
 31
0.0
  0
LINE
  5
287
330
1F
100
AcDbEntity
  8
0
  6
Continuous
 62
     7
370
    15
100
AcDbLine
 10
239.4834299225
 20
36.5401064636
 30
0.0
 11
241.4963680172
 21
37.7021508909
 31
0.0
  0
SPLINE
  5
288
330
1F
100
AcDbEntity
  8
0
  6
Continuous
 62
     7
370
    15
100
AcDbSpline
210
0.0
220
0.0
230
1.0
 70
     8
 71
     3
 72
     8
 73
     4
 74
     0
 42
0.000000001
 43
0.00000001
 40
0.0
 40
0.0
 40
0.0
 40
0.0
 40
1.0
 40
1.0
 40
1.0
 40
1.0
 10
259.0161266283802
 20
37.71339685495781
 30
0.0
 10
259.0415526867651
 20
37.69871870388543
 30
0.0
 10
259.0581007831967
 20
37.68535044957455
 30
0.0
 10
259.0670508087474
 20
37.67434566042829
 30
0.0
  0
ARC
  5
289
330
1F
100
AcDbEntity
  8
0
  6
Continuous
 62
     7
370
    15
100
AcDbCircle
 10
249.2084624772
 20
35.5155906699
 30
0.0
 40
6.439203761766537
100
AcDbArc
 50
194.4161472332
 51
238.0417156746
  0
SPLINE
  5
28A
330
1F
100
AcDbEntity
  8
0
  6
Continuous
 62
     7
370
    15
100
AcDbSpline
210
0.0
220
0.0
230
1.0
 70
     8
 71
     3
 72
     8
 73
     4
 74
     0
 42
0.000000001
 43
0.00000001
 40
0.0
 40
0.0
 40
0.0
 40
0.0
 40
1.0
 40
1.0
 40
1.0
 40
1.0
 10
262.4432183157313
 20
39.69181477425611
 30
0.0
 10
262.4686443741161
 20
39.6771366231838
 30
0.0
 10
262.5008327883091
 20
39.67279733212979
 30
0.0
 10
262.5337154916019
 20
39.67560858376133
 30
0.0
  0
SPLINE
  5
28B
330
1F
100
AcDbEntity
  8
0
  6
Continuous
 62
     7
370
    15
100
AcDbSpline
210
0.0
220
0.0
230
1.0
 70
     8
 71
     3
 72
    16
 73
    12
 74
     0
 42
0.000000001
 43
0.00000001
 40
0.0
 40
0.0
 40
0.0
 40
0.0
 40
0.2499999999999832
 40
0.2499999999999832
 40
0.3749999999999825
 40
0.3749999999999825
 40
0.4999999999999817
 40
0.4999999999999817
 40
0.7499999999999908
 40
0.7499999999999908
 40
1.0
 40
1.0
 40
1.0
 40
1.0
 10
262.5337154916016
 20
39.67560858376171
 30
0.0
 10
262.5454276481827
 20
39.63778458096745
 30
0.0
 10
262.5608859133612
 20
39.59985077001267
 30
0.0
 10
262.5983007900676
 20
39.55402750955849
 30
0.0
 10
262.6137135990199
 20
39.54056975832001
 30
0.0
 10
262.6497511213477
 20
39.52394758732916
 30
0.0
 10
262.6697687319287
 20
39.52130387644013
 30
0.0
 10
262.7275028810114
 20
39.52755431451568
 30
0.0
 10
262.7627127186972
 20
39.54791661335055
 30
0.0
 10
262.8239740562144
 20
39.5956224088511
 30
0.0
 10
262.8506787467978
 20
39.62376820302098
 30
0.0
 10
262.8752124442044
 20
39.65428788935724
 30
0.0
  0
ELLIPSE
  5
28C
330
1F
100
AcDbEntity
  8
0
  6
Continuous
 62
     7
370
    15
100
AcDbEllipse
 10
241.2620534487
 20
38.4906505285
 30
0.0
 11
-6.005970379874270E-5
 21
0.8534489614827194
 31
0.0
210
0.0
220
0.0
230
1.0
 40
0.7174342186
 41
3.534193645557573
 42
5.104989972352374
  0
SPLINE
  5
28D
330
1F
100
AcDbEntity
  8
0
  6
Continuous
 62
     7
370
    15
100
AcDbSpline
210
0.0
220
0.0
230
1.0
 70
     8
 71
     3
 72
    20
 73
    16
 74
     0
 42
0.000000001
 43
0.00000001
 40
0.0
 40
0.0
 40
0.0
 40
0.0
 40
0.1250000000000003
 40
0.1250000000000003
 40
0.2500000000000006
 40
0.2500000000000006
 40
0.500000000000001
 40
0.500000000000001
 40
0.6250000000000012
 40
0.6250000000000012
 40
0.7500000000000014
 40
0.7500000000000014
 40
0.8750000000000008
 40
0.8750000000000008
 40
1.0
 40
1.0
 40
1.0
 40
1.0
 10
263.4166782405646
 20
40.77400584930181
 30
0.0
 10
263.4517417854029
 20
40.81762456573783
 30
0.0
 10
263.4834601420653
 20
40.86398643160152
 30
0.0
 10
263.5394758463304
 20
40.96256359220081
 30
0.0
 10
263.563567504939
 20
41.01461904371741
 30
0.0
 10
263.6209798466311
 20
41.17035311047984
 30
0.0
 10
263.6399361771136
 20
41.27706300628074
 30
0.0
 10
263.6379361581466
 20
41.4177136550402
 30
0.0
 10
263.6323868439218
 20
41.46060991864724
 30
0.0
 10
263.6121634711829
 20
41.53808168925897
 30
0.0
 10
263.5974959564086
 20
41.57181602509588
 30
0.0
 10
263.5599417712475
 20
41.62736466346777
 30
0.0
 10
263.536694434731
 20
41.64953068563933
 30
0.0
 10
263.4828598139089
 20
41.68068445548084
 30
0.0
 10
263.4517477441986
 20
41.69015872473916
 30
0.0
 10
263.4166781963888
 20
41.6932944870213
 30
0.0
  0
LWPOLYLINE
  5
28E
330
1F
100
AcDbEntity
  8
0
  6
Continuous
 62
     7
370
    15
100
AcDbPolyline
 90
        4
 70
   128
 43
0.0
 10
263.4166785343
 20
41.6932942907
 10
263.1543027131
 20
41.716754618
 10
262.8919270566
 20
41.7402150403
 10
262.5337157228
 20
41.7722444631
  0
ARC
  5
28F
330
1F
100
AcDbEntity
  8
0
  6
Continuous
 62
     7
370
    15
100
AcDbCircle
 10
248.6554867646
 20
37.8162941304
 30
0.0
 40
6.930892077924659
100
AcDbArc
 50
195.6597431986
 51
215.4054751945
  0
ARC
  5
290
330
1F
100
AcDbEntity
  8
0
  6
Continuous
 62
     7
370
    15
100
AcDbCircle
 10
246.3553726182
 20
36.7298513236
 30
0.0
 40
6.033557239683247
100
AcDbArc
 50
193.2193819823
 51
253.6140846436
  0
SPLINE
  5
291
330
1F
100
AcDbEntity
  8
0
  6
Continuous
 62
     7
370
    15
100
AcDbSpline
210
0.0
220
0.0
230
1.0
 70
     8
 71
     3
 72
     8
 73
     4
 74
     0
 42
0.000000001
 43
0.00000001
 40
0.0
 40
0.0
 40
0.0
 40
0.0
 40
0.0011901715795577
 40
0.0011901715795577
 40
0.0011901715795577
 40
0.0011901715795577
 10
240.8393816959179
 20
35.75733238089726
 30
0.0
 10
240.720584580003
 20
35.62098134458222
 30
0.0
 10
240.6013414058549
 20
35.48525079844632
 30
0.0
 10
240.48169489836
 20
35.3500962486269
 30
0.0
  0
LINE
  5
292
330
1F
100
AcDbEntity
  8
0
  6
Continuous
 62
     7
370
    15
100
AcDbLine
 10
239.0442682398
 20
36.2865319068
 30
0.0
 11
239.4834299225
 21
36.5401064636
 31
0.0
  0
LINE
  5
293
330
1F
100
AcDbEntity
  8
0
  6
Continuous
 62
     7
370
    15
100
AcDbLine
 10
240.481694987
 20
35.350096255
 30
0.0
 11
239.1459125266
 21
36.1212270553
 31
0.0
  0
SPLINE
  5
294
330
1F
100
AcDbEntity
  8
0
  6
Continuous
 62
     7
370
    15
100
AcDbSpline
210
0.0
220
0.0
230
1.0
 70
     8
 71
     3
 72
    10
 73
     6
 74
     0
 42
0.000000001
 43
0.00000001
 40
0.0
 40
0.0
 40
0.0
 40
0.0
 40
0.5
 40
0.5
 40
1.0
 40
1.0
 40
1.0
 40
1.0
 10
239.145912432944
 20
36.12122705193095
 30
0.0
 10
239.119608180567
 20
36.13641217360372
 30
0.0
 10
239.0974100664485
 20
36.16004182453759
 30
0.0
 10
239.0633981800167
 20
36.2174842173475
 30
0.0
 10
239.0515272996107
 20
36.25112249549811
 30
0.0
 10
239.0442683223465
 20
36.28653191874123
 30
0.0
  0
ARC
  5
295
330
1F
100
AcDbEntity
  8
0
  6
Continuous
 62
     7
370
    15
100
AcDbCircle
 10
244.8351102252
 20
37.1366414732
 30
0.0
 40
5.652986631382686
100
AcDbArc
 50
214.197630663
 51
239.5950152839
  0
LINE
  5
296
330
1F
100
AcDbEntity
  8
0
  6
Continuous
 62
     7
370
    15
100
AcDbLine
 10
262.5337157228
 20
39.6756083478
 30
0.0
 11
263.4166785343
 21
40.7740056828
 31
0.0
  0
LINE
  5
297
330
1F
100
AcDbEntity
  8
0
  6
Continuous
 62
     7
370
    15
100
AcDbLine
 10
260.5693856214
 20
40.7735553584
 30
0.0
 11
261.4721348965
 21
41.8965668305
 31
0.0
  0
ARC
  5
298
330
1F
100
AcDbEntity
  8
0
  6
Continuous
 62
     7
370
    15
100
AcDbCircle
 10
260.6158888343
 20
42.5849187722
 30
0.0
 40
1.098629016006801
100
AcDbArc
 50
321.2035590998
 51
341.8029385312
  0
ELLIPSE
  5
299
330
1F
100
AcDbEntity
  8
0
  6
Continuous
 62
     7
370
    15
100
AcDbEllipse
 10
241.1428146332
 20
38.4217930484
 30
0.0
 11
0.2600075789209199
 21
0.9705436209909377
 31
0.0
210
0.0
220
0.0
230
1.0
 40
0.5176380889
 41
3.619174351347694
 42
5.189970678142644
  0
SPLINE
  5
29A
330
1F
100
AcDbEntity
  8
0
  6
Continuous
 62
     7
370
    15
100
AcDbSpline
210
0.0
220
0.0
230
1.0
 70
     8
 71
     3
 72
    12
 73
     8
 74
     0
 42
0.000000001
 43
0.00000001
 40
0.0
 40
0.0
 40
0.0
 40
0.0
 40
0.499999999999996
 40
0.499999999999996
 40
0.749999999999998
 40
0.749999999999998
 40
1.0
 40
1.0
 40
1.0
 40
1.0
 10
258.5982448700604
 20
58.76139708378297
 30
0.0
 10
258.6600319225905
 20
58.79706598997458
 30
0.0
 10
258.7405096209947
 20
58.82314714771021
 30
0.0
 10
258.8706521431535
 20
58.83486563379178
 30
0.0
 10
258.9157811373329
 20
58.83403752536809
 30
0.0
 10
259.0003697249003
 20
58.82064037435399
 30
0.0
 10
259.0406767215753
 20
58.8075748243597
 30
0.0
 10
259.0715882601908
 20
58.78972997295534
 30
0.0
  0
LINE
  5
29B
330
1F
100
AcDbEntity
  8
0
  6
Continuous
 62
     7
370
    15
100
AcDbLine
 10
259.0715885351
 20
58.7897299266
 30
0.0
 11
260.2232518292
 21
58.1248888585
 31
0.0
  0
SPLINE
  5
29C
330
1F
100
AcDbEntity
  8
0
  6
Continuous
 62
     7
370
    15
100
AcDbSpline
210
0.0
220
0.0
230
1.0
 70
     8
 71
     3
 72
     9
 73
     5
 74
     0
 42
0.000000001
 43
0.00000001
 40
0.0
 40
0.0
 40
0.0
 40
0.0
 40
0.8664443272572582
 40
1.0
 40
1.0
 40
1.0
 40
1.0
 10
261.7903325721859
 20
56.34457471574449
 30
0.0
 10
262.1095092703118
 20
56.4138647069804
 30
0.0
 10
262.4778845808598
 20
56.49383521293922
 30
0.0
 10
262.8482246782239
 20
56.57070469343034
 30
0.0
 10
262.897685699071
 20
56.58097104861071
 30
0.0
  0
LINE
  5
29D
330
1F
100
AcDbEntity
  8
0
  6
Continuous
 62
     7
370
    15
100
AcDbLine
 10
262.8976856991
 20
56.5809710486
 30
0.0
 11
264.2511454697
 21
55.7996353542
 31
0.0
  0
SPLINE
  5
29E
330
1F
100
AcDbEntity
  8
0
  6
Continuous
 62
     7
370
    15
100
AcDbSpline
210
0.0
220
0.0
230
1.0
 70
     8
 71
     3
 72
    12
 73
     8
 74
     0
 42
0.000000001
 43
0.00000001
 40
0.0
 40
0.0
 40
0.0
 40
0.0
 40
0.2500000000000034
 40
0.2500000000000034
 40
0.5000000000000069
 40
0.5000000000000069
 40
1.0
 40
1.0
 40
1.0
 40
1.0
 10
264.2511454323822
 20
55.79963526340464
 30
0.0
 10
264.2824458632392
 20
55.78156590928787
 30
0.0
 10
264.3045347002356
 20
55.75879302215651
 30
0.0
 10
264.3279684138573
 20
55.70959322702835
 30
0.0
 10
264.3293249352189
 20
55.68371768332222
 30
0.0
 10
264.3091468645736
 20
55.60872690001946
 30
0.0
 10
264.263890762192
 20
55.5620705521435
 30
0.0
 10
264.2020661109638
 20
55.52637994068549
 30
0.0
  0
LINE
  5
29F
330
1F
100
AcDbEntity
  8
0
  6
Continuous
 62
     7
370
    15
100
AcDbLine
 10
258.5982447704
 20
58.7613968804
 30
0.0
 11
258.0903238794
 21
58.4681803913
 31
0.0
  0
SPLINE
  5
2A0
330
1F
100
AcDbEntity
  8
0
  6
Continuous
 62
     7
370
    15
100
AcDbSpline
210
0.0
220
0.0
230
1.0
 70
     8
 71
     3
 72
    10
 73
     6
 74
     0
 42
0.000000001
 43
0.00000001
 40
0.0
 40
0.0
 40
0.0
 40
0.0
 40
0.4051652216801043
 40
0.8114477819514507
 40
1.0
 40
1.0
 40
1.0
 40
1.0
 10
265.9129601450489
 20
52.43054276642887
 30
0.0
 10
265.9312800049016
 20
52.46946929503923
 30
0.0
 10
265.9679702459381
 20
52.54742970133711
 30
0.0
 10
265.9819842225748
 20
52.65499653726938
 30
0.0
 10
265.9638882196887
 20
52.70816421269293
 30
0.0
 10
265.9581521033647
 20
52.72501743562974
 30
0.0
  0
LINE
  5
2A1
330
1F
100
AcDbEntity
  8
0
  6
Continuous
 62
     7
370
    15
100
AcDbLine
 10
265.8075963165
 20
45.6748938663
 30
0.0
 11
264.0707516897
 21
46.6775529271
 31
0.0
  0
LWPOLYLINE
  5
2A2
330
1F
100
AcDbEntity
  8
0
  6
Continuous
 62
     7
370
     0
100
AcDbPolyline
 90
       24
 70
   128
 43
0.0
 10
244.3254694612
 20
40.4789188558
 10
244.6246403043
 20
41.6646611781
 10
244.9951657619
 20
42.8596409919
 10
245.4345189988
 20
44.0557101744
 10
245.939705613
 20
45.2447164642
 10
246.5072800997
 20
46.418550228
 10
247.13337351
 20
47.569211379
 10
247.8137171583
 20
48.6888531013
 10
248.5436729156
 20
49.7698426836
 10
249.3182635026
 20
50.8048094264
 10
250.1322087094
 20
51.7866982503
 10
250.9799579936
 20
52.7088143708
 10
251.8557326272
 20
53.5648704426
 10
252.7535610932
 20
54.349029808
 10
253.6673223849
 20
55.055946702
 10
254.5907866303
 20
55.6808026322
 10
255.5176578146
 20
56.2193356046
 10
256.4416167092
 20
56.6678747925
 10
257.3563637598
 20
57.0233614923
 10
258.2556627557
 20
57.2833728126
 10
259.1333820712
 20
57.4461363572
 10
259.983537677
 20
57.5105413662
 10
260.8003333937
 20
57.4761497863
 10
261.5782002396
 20
57.3431954122
  0
LWPOLYLINE
  5
2A3
330
1F
100
AcDbEntity
  8
0
  6
Continuous
 62
     7
370
     0
100
AcDbPolyline
 90
       24
 70
   128
 43
0.0
 10
244.6858026255
 20
40.1492949901
 10
244.9688391281
 20
41.3291923877
 10
245.3247192144
 20
42.5201419817
 10
245.7509344883
 20
43.7137484972
 10
246.2444806698
 20
44.9015988349
 10
246.8018786683
 20
46.0753191039
 10
247.4191989486
 20
47.2266350762
 10
248.0920898487
 20
48.3474315002
 10
248.815808531
 20
49.429808372
 10
249.5852539098
 20
50.4661356854
 10
250.3950012246
 20
51.4491083727
 10
251.2393428703
 20
52.3717964909
 10
252.1123269215
 20
53.2276963593
 10
253.0077996091
 20
54.0107748527
 10
253.919448784
 20
54.7155127435
 10
254.8408481631
 20
55.3369408908
 10
255.7655026454
 20
55.8706793289
 10
256.6868943277
 20
56.3129653525
 10
257.5985281915
 20
56.6606821722
 10
258.49397783
 20
56.9113784685
 10
259.3669315882
 20
57.0632866624
 10
260.2112356968
 20
57.115335649
 10
261.0209385599
 20
57.0671588733
 10
261.7903325722
 20
56.9190964175
  0
ARC
  5
2A4
330
1F
100
AcDbEntity
  8
0
  6
Continuous
 62
     7
370
     0
100
AcDbCircle
 10
242.3837661056
 20
50.7329258582
 30
0.0
 40
24.07957371062333
100
AcDbArc
 50
335.7899413486
 51
347.7263106959
  0
LWPOLYLINE
  5
2A5
330
1F
100
AcDbEntity
  8
0
  6
Continuous
 62
     7
370
     0
100
AcDbPolyline
 90
       24
 70
   128
 43
0.0
 10
261.5903398491
 20
36.0857091792
 10
261.0055128133
 20
35.3095177569
 10
260.1958142308
 20
34.3284332943
 10
259.3516843072
 20
33.407643842
 10
258.4790627847
 20
32.5536270358
 10
257.5840899324
 20
31.7723937587
 10
256.673063329
 20
31.0694396178
 10
255.7523934938
 20
30.4497124863
 10
254.8285588582
 20
29.9175720602
 10
253.9080600799
 20
29.4767634847
 10
252.9973743556
 20
29.1303879375
 10
252.102909735
 20
28.8808838595
 10
251.2309602572
 20
28.7300056184
 10
250.3876614168
 20
28.6788152902
 10
249.578947029
 20
28.7276737282
 10
248.8105085648
 20
28.8762368591
 10
248.087752016
 20
29.1234581591
 10
247.4157639805
 20
29.4675994931
 10
246.7992721491
 20
29.9062387235
 10
246.2426156718
 20
30.4362891044
 10
245.7497102541
 20
31.0540213386
 10
245.3240251085
 20
31.7550882948
 10
244.968555954
 20
32.5345573294
 10
244.6858026255
 20
33.386942609
  0
ARC
  5
2A6
330
1F
100
AcDbEntity
  8
0
  6
Continuous
 62
     7
370
     0
100
AcDbCircle
 10
259.1142024218
 20
50.693929419
 30
0.0
 40
7.017045852609623
100
AcDbArc
 50
14.3287351339
 51
43.52515955
  0
LWPOLYLINE
  5
2A7
330
1F
100
AcDbEntity
  8
0
  6
Continuous
 62
     7
370
     0
100
AcDbPolyline
 90
       27
 70
   128
 43
0.0
 10
250.3528803886
 20
40.0396531556
 10
250.3903970107
 20
40.7637141585
 10
250.5023782237
 20
41.5201149384
 10
250.6871259707
 20
42.2973889676
 10
250.9418401204
 20
43.0837536591
 10
251.2626592971
 20
43.8672887391
 10
251.6447204789
 20
44.6361166139
 10
252.0822317667
 20
45.378582022
 10
252.568560959
 20
46.083430735
 10
253.0963356498
 20
46.7399778004
 10
253.657555676
 20
47.338270175
 10
254.2437133009
 20
47.8692389964
 10
254.8459229482
 20
48.3248345531
 10
255.4550557711
 20
48.6981511182
 10
256.061877967
 20
48.983529231
 10
256.6571906777
 20
49.1766433028
 10
257.2319696414
 20
49.2745655072
 10
257.7775018202
 20
49.2758115729
 10
258.2855172124
 20
49.1803625037
 10
258.7483152923
 20
48.9896653276
 10
259.158880256
 20
48.7066106521
 10
259.5109881993
 20
48.3354895926
 10
259.7993016191
 20
47.8819277942
 10
260.0194504139
 20
47.3528010119
 10
260.168096751
 20
46.7561297806
 10
260.2429874203
 20
46.1009593526
 10
260.2521135301
 20
45.8131506508
  0
LWPOLYLINE
  5
2A8
330
1F
100
AcDbEntity
  8
0
  6
Continuous
 62
     7
370
     0
100
AcDbPolyline
 90
       14
 70
   128
 43
0.0
 10
255.2525199703
 20
37.1526621786
 10
254.8459229482
 20
36.9420282772
 10
254.2437133009
 20
36.7023273749
 10
253.657555676
 20
36.5565330079
 10
253.0963356498
 20
36.5068545327
 10
252.568560959
 20
36.5540459106
 10
252.0822317667
 20
36.6973908902
 10
251.6447204789
 20
36.9347165175
 10
251.2626592971
 20
37.2624259413
 10
250.9418401204
 20
37.6755510844
 10
250.6871259707
 20
38.1678290784
 10
250.5023782237
 20
38.7317978992
 10
250.3903970107
 20
39.3589079226
 10
250.3528803886
 20
40.0396531556
  0
LWPOLYLINE
  5
2A9
330
1F
100
AcDbEntity
  8
0
  6
Continuous
 62
     7
370
     0
100
AcDbPolyline
 90
       24
 70
   128
 43
0.0
 10
239.1459125266
 20
43.4690134282
 10
239.4450833697
 20
44.6547557505
 10
239.8156088273
 20
45.8497355643
 10
240.2549620642
 20
47.0458047468
 10
240.7601486784
 20
48.2348110366
 10
241.3277231651
 20
49.4086448004
 10
241.9538165754
 20
50.5593059514
 10
242.6341602237
 20
51.6789476736
 10
243.364115981
 20
52.759937256
 10
244.138706568
 20
53.7949039988
 10
244.9526517748
 20
54.7767928227
 10
245.800401059
 20
55.6989089431
 10
246.6761756926
 20
56.554965015
 10
247.5740041586
 20
57.3391243804
 10
248.4877654503
 20
58.0460412744
 10
249.4112296957
 20
58.6708972046
 10
250.33810088
 20
59.209430177
 10
251.2620597747
 20
59.6579693649
 10
252.1768068252
 20
60.0134560647
 10
253.0761058211
 20
60.273467385
 10
253.9538251366
 20
60.4362309296
 10
254.8039807424
 20
60.5006359385
 10
255.6207764591
 20
60.4662443587
 10
256.3986433051
 20
60.3332899846
  0
LWPOLYLINE
  5
2AA
330
1F
100
AcDbEntity
  8
0
  6
Continuous
 62
     7
370
     0
100
AcDbPolyline
 90
       19
 70
   128
 43
0.0
 10
242.6178895645
 20
42.559243663
 10
242.914388034
 20
43.7078528331
 10
243.2862773373
 20
44.8649854215
 10
243.7305051206
 20
46.0211435332
 10
244.2434243644
 20
47.1668373136
 10
244.8208256523
 20
48.292662133
 10
245.457970098
 20
49.3893791921
 10
246.1496268824
 20
50.4479847209
 10
246.8901200104
 20
51.4597905833
 10
247.6733711162
 20
52.4164923343
 10
248.4929511591
 20
53.3102363263
 10
249.3421329422
 20
54.1336872903
 10
250.2139467598
 20
54.8800863156
 10
251.101236538
 20
55.5433075947
 10
251.9967195463
 20
56.1179058212
 10
252.8930456767
 20
56.5991663812
 10
253.7828577627
 20
56.9831386533
 10
254.6588525148
 20
57.2666704259
 10
254.7279112785
 20
57.2848845417
  0
LWPOLYLINE
  5
2AB
330
1F
100
AcDbEntity
  8
0
  6
Continuous
 62
     7
370
     0
100
AcDbPolyline
 90
       22
 70
   128
 43
0.0
 10
242.0401050037
 20
42.5522591861
 10
242.3207483556
 20
43.6719741553
 10
242.6716017717
 20
44.80083927
 10
243.0900712451
 20
45.9305083134
 10
243.5730616167
 20
47.0526278909
 10
244.1170029167
 20
48.1589024479
 10
244.7178727552
 20
49.2411524426
 10
245.371228591
 20
50.2913744201
 10
246.0722393416
 20
51.301805268
 10
246.8157229202
 20
52.2649727839
 10
247.596181468
 20
53.1737563191
 10
248.4078444889
 20
54.0214367748
 10
249.2447109958
 20
54.801745268
 10
250.1005933047
 20
55.5089142682
 10
250.9691632144
 20
56.1377133826
 10
251.8439987995
 20
56.68349462
 10
252.7186317278
 20
57.1422227484
 10
253.5865952003
 20
57.5105044911
 10
254.4414717471
 20
57.7856191606
 10
255.2769404933
 20
57.9655307352
 10
256.0868244562
 20
58.0489090797
 10
256.8010235483
 20
58.0400425579
  0
ARC
  5
2AC
330
1F
100
AcDbEntity
  8
0
  6
Continuous
 62
     7
370
     0
100
AcDbCircle
 10
255.6504553214
 20
39.7778782646
 30
0.0
 40
2.482985038637007
100
AcDbArc
 50
173.948203114
 51
234.7396178643
  0
LWPOLYLINE
  5
2AD
330
1F
100
AcDbEntity
  8
0
  6
Continuous
 62
     7
370
     0
100
AcDbPolyline
 90
       18
 70
   128
 43
0.0
 10
259.2166385606
 20
46.4109175737
 10
259.1707646794
 20
46.4364456744
 10
258.7740237174
 20
46.588680519
 10
258.3334375206
 20
46.6448351816
 10
257.8583964398
 20
46.6037124778
 10
257.3590250617
 20
46.4661891031
 10
256.8459666591
 20
46.2351959522
 10
256.3301561991
 20
45.9156562813
 10
255.822587259
 20
45.5143808103
 10
255.3340777905
 20
45.0399218542
 10
254.8750395058
 20
44.5023915231
 10
254.4552560715
 20
43.9132466032
 10
254.0836744731
 20
43.2850433984
 10
253.768214367
 20
42.6311713963
 10
253.5155989986
 20
41.965566304
 10
253.3312124633
 20
41.3024145268
 10
253.2189846254
 20
40.6558498968
 10
253.181307977
 20
40.0396531556
  0
LWPOLYLINE
  5
2AE
330
1F
100
AcDbEntity
  8
0
  6
Continuous
 62
     7
370
     0
100
AcDbPolyline
 90
       12
 70
   128
 43
0.0
 10
259.0083965797
 20
37.4220225868
 10
259.2396113918
 20
37.1297385571
 10
259.5401398244
 20
36.9397403585
 10
259.8977444741
 20
36.859764948
 10
260.2978634814
 20
36.8930686871
 10
260.7242039405
 20
37.0382955713
 10
261.1594051777
 20
37.2895318979
 10
261.5857456368
 20
37.63654723
 10
261.985864644
 20
38.0652110635
 10
262.3434692938
 20
38.5580680141
 10
262.6439977263
 20
39.0950489552
 10
262.8752125385
 20
39.6542879247
  0
LWPOLYLINE
  5
2AF
330
1F
100
AcDbEntity
  8
0
  6
Continuous
 62
     7
370
     0
100
AcDbPolyline
 90
       12
 70
   128
 43
0.0
 10
262.8752594598
 20
41.8612036075
 10
262.6440509038
 20
42.1535218574
 10
262.343520331
 20
42.3435471477
 10
261.9859065439
 20
42.4235410478
 10
261.5857728841
 20
42.3902457703
 10
261.1594143356
 20
42.2450171886
 10
260.7241938771
 20
41.9937697659
 10
260.2978353698
 20
41.6467350792
 10
259.8977017511
 20
41.2180457004
 10
259.5400881287
 20
40.7251596153
 10
259.2395577205
 20
40.1881489213
 10
259.0083493292
 20
39.6288829548
  0
LINE
  5
2B0
330
1F
100
AcDbEntity
  8
0
  6
Continuous
 62
     7
370
     0
100
AcDbLine
 10
247.3123211262
 20
40.9177198633
 30
0.0
 11
246.7465438075
 21
41.2443361573
 31
0.0
  0
LWPOLYLINE
  5
2B1
330
1F
100
AcDbEntity
  8
0
  6
Continuous
 62
     7
370
     0
100
AcDbPolyline
 90
        3
 70
   128
 43
0.0
 10
241.6296565201
 20
41.5971543792
 10
241.6289505604
 20
41.7183924777
 10
241.6537757127
 20
42.4534304798
  0
LINE
  5
2B2
330
1F
100
AcDbEntity
  8
0
  6
Continuous
 62
     7
370
     0
100
AcDbLine
 10
241.8277386409
 20
38.8172135225
 30
0.0
 11
247.3123211262
 21
35.6510314478
 31
0.0
  0
LINE
  5
2B3
330
1F
100
AcDbEntity
  8
0
  6
Continuous
 62
     7
370
     0
100
AcDbLine
 10
241.7084997735
 20
38.7483562025
 30
0.0
 11
241.8277386409
 21
38.8172135225
 31
0.0
  0
LINE
  5
2B4
330
1F
100
AcDbEntity
  8
0
  6
Continuous
 62
     7
370
     0
100
AcDbLine
 10
258.1840883519
 20
37.7532956682
 30
0.0
 11
258.2547987453
 21
37.4894055295
 31
0.0
  0
LWPOLYLINE
  5
2B5
330
1F
100
AcDbEntity
  8
0
  6
Continuous
 62
     7
370
     0
100
AcDbPolyline
 90
        3
 70
   128
 43
0.0
 10
262.4432187011
 20
41.8148339718
 10
262.2067860762
 20
42.0772271663
 10
262.0809470288
 20
42.1589215766
  0
LWPOLYLINE
  5
2B6
330
1F
100
AcDbEntity
  8
0
  6
Continuous
 62
     7
370
     0
100
AcDbPolyline
 90
       10
 70
   128
 43
0.0
 10
259.3547846524
 20
37.3824809669
 10
259.557439624
 20
37.2957967959
 10
259.9166394332
 20
37.2549688197
 10
260.3135140386
 20
37.3304112051
 10
260.7296728851
 20
37.5186280952
 10
261.1458317316
 20
37.8108979819
 10
261.542706337
 20
38.1936772623
 10
261.9019061462
 20
38.6492285105
 10
262.2067860762
 20
39.1564420543
 10
262.4432187011
 20
39.691814547
  0
LWPOLYLINE
  5
2B7
330
1F
100
AcDbEntity
  8
0
  6
Continuous
 62
     7
370
     0
100
AcDbPolyline
 90
       19
 70
   128
 43
0.0
 10
220.3570670851
 20
58.0103562581
 10
220.3945632923
 20
58.6926203212
 10
220.5064101622
 20
59.406502778
 10
220.6906939646
 20
60.1397889204
 10
220.9442619176
 20
60.8799320244
 10
221.2627752007
 20
61.6142682235
 10
221.6407836996
 20
62.3302323303
 10
222.0718196839
 20
63.0155743699
 10
222.5485082785
 20
63.6585682211
 10
223.0626929156
 20
64.2482116069
 10
223.6055760169
 20
64.7744154835
 10
224.1678685239
 20
65.2281766756
 10
224.7399494719
 20
65.6017312133
 10
225.3120304198
 20
65.8886872788
 10
225.8743229269
 20
66.0841351965
 10
226.4172060281
 20
66.1847308068
 10
226.9313906653
 20
66.1887523665
 10
227.4080792598
 20
66.0961314516
 10
227.5027033799
 20
66.0644993888
  0
ARC
  5
2B8
330
1F
100
AcDbEntity
  8
0
  6
Continuous
 62
     7
370
     0
100
AcDbCircle
 10
223.6799387157
 20
57.747525068
 30
0.0
 40
3.333250081836825
100
AcDbArc
 50
175.4774569989
 51
223.5543520168
  0
LINE
  5
2B9
330
1F
100
AcDbEntity
  8
0
  6
Continuous
 62
     7
370
     0
100
AcDbLine
 10
258.0328378006
 20
37.8406107529
 30
0.0
 11
258.1840883519
 21
37.7532956682
 31
0.0
  0
ARC
  5
2BA
330
1F
100
AcDbEntity
  8
0
  6
Continuous
 62
     7
370
     0
100
AcDbCircle
 10
251.6451844794
 20
35.2456718475
 30
0.0
 40
7.619022553567234
100
AcDbArc
 50
196.1130933106
 51
214.4245655246
  0
LINE
  5
2BB
330
1F
100
AcDbEntity
  8
0
  6
Continuous
 62
     7
370
     0
100
AcDbLine
 10
246.7466360037
 20
34.6712356971
 30
0.0
 11
241.4963680172
 21
37.7021508909
 31
0.0
  0
LINE
  5
2BC
330
1F
100
AcDbEntity
  8
0
  6
Continuous
 62
     7
370
     0
100
AcDbLine
 10
263.6288103729
 20
40.5917564067
 30
0.0
 11
263.4166785343
 21
40.7740056828
 31
0.0
  0
LINE
  5
2BD
330
1F
100
AcDbEntity
  8
0
  6
Continuous
 62
     7
370
     0
100
AcDbLine
 10
243.4799048984
 20
35.2942181475
 30
0.0
 11
243.4027781413
 21
35.5329833557
 31
0.0
  0
LWPOLYLINE
  5
2BE
330
1F
100
AcDbEntity
  8
0
  6
Continuous
 62
     7
370
     0
100
AcDbPolyline
 90
        3
 70
   128
 43
0.0
 10
243.1202964624
 20
34.7492506128
 10
242.9055174395
 20
35.2002591012
 10
242.6178895645
 20
35.9860898864
  0
ARC
  5
2BF
330
1F
100
AcDbEntity
  8
0
  6
Continuous
 62
     7
370
     0
100
AcDbCircle
 10
248.7312674488
 20
37.8758642797
 30
0.0
 40
6.954807623376332
100
AcDbArc
 50
195.8265615164
 51
213.7808316833
  0
ARC
  5
2C0
330
1F
100
AcDbEntity
  8
0
  6
Continuous
 62
     7
370
     0
100
AcDbCircle
 10
246.4798424395
 20
38.241243486
 30
0.0
 40
7.634199213581112
100
AcDbArc
 50
196.1229759686
 51
214.1165762353
  0
LINE
  5
2C1
330
1F
100
AcDbEntity
  8
0
  6
Continuous
 62
     7
370
     0
100
AcDbLine
 10
261.4721348965
 20
41.8965668305
 30
0.0
 11
263.4166785343
 21
40.7740056828
 31
0.0
  0
LINE
  5
2C2
330
1F
100
AcDbEntity
  8
0
  6
Continuous
 62
     7
370
     0
100
AcDbLine
 10
264.0707516897
 20
45.3253617061
 30
0.0
 11
264.6364374708
 21
44.9987982557
 31
0.0
  0
OLE2FRAME
  5
2C3
330
1F
100
AcDbEntity
  8
0
100
AcDbOle2Frame
 70
     2
  3
Paintbrush-Bild
 10
13.8511154363
 20
38.264191557
 30
0.0
 11
51.6290888628
 21
31.9806341108
 31
0.0
 71
     2
 72
     0
 73
     1
 90
    12928
310
80552BED0767C5B32B40DDAF6807D121434000000000000000006FFBDDFB85D0
310
4940DDAF6807D121434000000000000000006FFBDDFB85D04940416F4BD60AFB
310
3F4000000000000000002BED0767C5B32B40416F4BD60AFB3F40000000000000
310
0000000000000100000000010000010000000100000000000100000000320000
310
D0CF11E0A1B11AE1000000000000000000000000000000003E000300FEFF0900
310
0600000000000000000000000100000001000000000000000010000002000000
310
01000000FEFFFFFF0000000000000000FFFFFFFFFFFFFFFFFFFFFFFFFFFFFFFF
310
FFFFFFFFFFFFFFFFFFFFFFFFFFFFFFFFFFFFFFFFFFFFFFFFFFFFFFFFFFFFFFFF
310
FFFFFFFFFFFFFFFFFFFFFFFFFFFFFFFFFFFFFFFFFFFFFFFFFFFFFFFFFFFFFFFF
310
FFFFFFFFFFFFFFFFFFFFFFFFFFFFFFFFFFFFFFFFFFFFFFFFFFFFFFFFFFFFFFFF
310
FFFFFFFFFFFFFFFFFFFFFFFFFFFFFFFFFFFFFFFFFFFFFFFFFFFFFFFFFFFFFFFF
310
FFFFFFFFFFFFFFFFFFFFFFFFFFFFFFFFFFFFFFFFFFFFFFFFFFFFFFFFFFFFFFFF
310
FFFFFFFFFFFFFFFFFFFFFFFFFFFFFFFFFFFFFFFFFFFFFFFFFFFFFFFFFFFFFFFF
310
FFFFFFFFFFFFFFFFFFFFFFFFFFFFFFFFFFFFFFFFFFFFFFFFFFFFFFFFFFFFFFFF
310
FFFFFFFFFFFFFFFFFFFFFFFFFFFFFFFFFFFFFFFFFFFFFFFFFFFFFFFFFFFFFFFF
310
FFFFFFFFFFFFFFFFFFFFFFFFFFFFFFFFFFFFFFFFFFFFFFFFFFFFFFFFFFFFFFFF
310
FFFFFFFFFFFFFFFFFFFFFFFFFFFFFFFFFFFFFFFFFFFFFFFFFFFFFFFFFFFFFFFF
310
FFFFFFFFFFFFFFFFFFFFFFFFFFFFFFFFFFFFFFFFFFFFFFFFFFFFFFFFFFFFFFFF
310
FFFFFFFFFFFFFFFFFFFFFFFFFFFFFFFFFFFFFFFFFFFFFFFFFFFFFFFFFFFFFFFF
310
FFFFFFFFFFFFFFFFFFFFFFFFFFFFFFFFFFFFFFFFFFFFFFFFFFFFFFFFFFFFFFFF
310
FDFFFFFFFEFFFFFFFEFFFFFFFEFFFFFF05000000060000000700000008000000
310
090000000A0000000B0000000C0000000D0000000E0000000F00000010000000
310
11000000120000001300000014000000150000001600000017000000FEFFFFFF
310
FFFFFFFFFFFFFFFFFFFFFFFFFFFFFFFFFFFFFFFFFFFFFFFFFFFFFFFFFFFFFFFF
310
FFFFFFFFFFFFFFFFFFFFFFFFFFFFFFFFFFFFFFFFFFFFFFFFFFFFFFFFFFFFFFFF
310
FFFFFFFFFFFFFFFFFFFFFFFFFFFFFFFFFFFFFFFFFFFFFFFFFFFFFFFFFFFFFFFF
310
FFFFFFFFFFFFFFFFFFFFFFFFFFFFFFFFFFFFFFFFFFFFFFFFFFFFFFFFFFFFFFFF
310
FFFFFFFFFFFFFFFFFFFFFFFFFFFFFFFFFFFFFFFFFFFFFFFFFFFFFFFFFFFFFFFF
310
FFFFFFFFFFFFFFFFFFFFFFFFFFFFFFFFFFFFFFFFFFFFFFFFFFFFFFFFFFFFFFFF
310
FFFFFFFFFFFFFFFFFFFFFFFFFFFFFFFFFFFFFFFFFFFFFFFFFFFFFFFFFFFFFFFF
310
FFFFFFFFFFFFFFFFFFFFFFFFFFFFFFFFFFFFFFFFFFFFFFFFFFFFFFFFFFFFFFFF
310
FFFFFFFFFFFFFFFFFFFFFFFFFFFFFFFFFFFFFFFFFFFFFFFFFFFFFFFFFFFFFFFF
310
FFFFFFFFFFFFFFFFFFFFFFFFFFFFFFFFFFFFFFFFFFFFFFFFFFFFFFFFFFFFFFFF
310
FFFFFFFFFFFFFFFFFFFFFFFFFFFFFFFFFFFFFFFFFFFFFFFFFFFFFFFFFFFFFFFF
310
FFFFFFFFFFFFFFFFFFFFFFFFFFFFFFFFFFFFFFFFFFFFFFFFFFFFFFFFFFFFFFFF
310
FFFFFFFFFFFFFFFFFFFFFFFFFFFFFFFFFFFFFFFFFFFFFFFFFFFFFFFFFFFFFFFF
310
52006F006F007400200045006E00740072007900000000000000000000000000
310
0000000000000000000000000000000000000000000000000000000000000000
310
16000500FFFFFFFFFFFFFFFF020000000A00030000000000C000000000000046
310
0000000000000000000000009056EB6D9A1FD20103000000C000000000000000
310
01004F006C006500000000000000000000000000000000000000000000000000
310
0000000000000000000000000000000000000000000000000000000000000000
310
0A000200FFFFFFFFFFFFFFFFFFFFFFFF00000000000000000000000000000000
310
0000000000000000000000000000000000000000000000001400000000000000
310
010043006F006D0070004F0062006A0000000000000000000000000000000000
310
0000000000000000000000000000000000000000000000000000000000000000
310
120002010100000003000000FFFFFFFF00000000000000000000000000000000
310
0000000000000000000000000000000000000000010000004D00000000000000
310
01004F006C006500310030004E00610074006900760065000000000000000000
310
0000000000000000000000000000000000000000000000000000000000000000
310
1A000200FFFFFFFFFFFFFFFFFFFFFFFF00000000000000000000000000000000
310
0000000000000000000000000000000000000000040000002426000000000000
310
FEFFFFFF02000000FEFFFFFFFFFFFFFFFFFFFFFFFFFFFFFFFFFFFFFFFFFFFFFF
310
FFFFFFFFFFFFFFFFFFFFFFFFFFFFFFFFFFFFFFFFFFFFFFFFFFFFFFFFFFFFFFFF
310
FFFFFFFFFFFFFFFFFFFFFFFFFFFFFFFFFFFFFFFFFFFFFFFFFFFFFFFFFFFFFFFF
310
FFFFFFFFFFFFFFFFFFFFFFFFFFFFFFFFFFFFFFFFFFFFFFFFFFFFFFFFFFFFFFFF
310
FFFFFFFFFFFFFFFFFFFFFFFFFFFFFFFFFFFFFFFFFFFFFFFFFFFFFFFFFFFFFFFF
310
FFFFFFFFFFFFFFFFFFFFFFFFFFFFFFFFFFFFFFFFFFFFFFFFFFFFFFFFFFFFFFFF
310
FFFFFFFFFFFFFFFFFFFFFFFFFFFFFFFFFFFFFFFFFFFFFFFFFFFFFFFFFFFFFFFF
310
FFFFFFFFFFFFFFFFFFFFFFFFFFFFFFFFFFFFFFFFFFFFFFFFFFFFFFFFFFFFFFFF
310
FFFFFFFFFFFFFFFFFFFFFFFFFFFFFFFFFFFFFFFFFFFFFFFFFFFFFFFFFFFFFFFF
310
FFFFFFFFFFFFFFFFFFFFFFFFFFFFFFFFFFFFFFFFFFFFFFFFFFFFFFFFFFFFFFFF
310
FFFFFFFFFFFFFFFFFFFFFFFFFFFFFFFFFFFFFFFFFFFFFFFFFFFFFFFFFFFFFFFF
310
FFFFFFFFFFFFFFFFFFFFFFFFFFFFFFFFFFFFFFFFFFFFFFFFFFFFFFFFFFFFFFFF
310
FFFFFFFFFFFFFFFFFFFFFFFFFFFFFFFFFFFFFFFFFFFFFFFFFFFFFFFFFFFFFFFF
310
FFFFFFFFFFFFFFFFFFFFFFFFFFFFFFFFFFFFFFFFFFFFFFFFFFFFFFFFFFFFFFFF
310
FFFFFFFFFFFFFFFFFFFFFFFFFFFFFFFFFFFFFFFFFFFFFFFFFFFFFFFFFFFFFFFF
310
FFFFFFFFFFFFFFFFFFFFFFFFFFFFFFFFFFFFFFFFFFFFFFFFFFFFFFFFFFFFFFFF
310
0100000200000000000000000000000000000000000000000000000000000000
310
0000000000000000000000000000000000000000000000000000000000000000
310
0100FEFF030A0000FFFFFFFF0A00030000000000C00000000000004607000000
310
5042727573680007000000504272757368000700000050427275736800F439B2
310
7100000000000000000000000000000000000000000000000000000000000000
310
0000000000000000000000000000000000000000000000000000000000000000
310
0000000000000000000000000000000000000000000000000000000000000000
310
0000000000000000000000000000000000000000000000000000000000000000
310
0000000000000000000000000000000000000000000000000000000000000000
310
0000000000000000000000000000000000000000000000000000000000000000
310
0000000000000000000000000000000000000000000000000000000000000000
310
0000000000000000000000000000000000000000000000000000000000000000
310
0000000000000000000000000000000000000000000000000000000000000000
310
0000000000000000000000000000000000000000000000000000000000000000
310
0000000000000000000000000000000000000000000000000000000000000000
310
0000000000000000000000000000000000000000000000000000000000000000
310
20260000424D0E260000000000003E00000028000000B40200006E0000000100
310
01000000000000000000130B0000130B00000200000002000000000000FFFFFF
310
FFFFFFFFFFFFFFFFFFFFFFFFFFFFFFFFFFFFFFFFFFFFFFFFFFFFFFFFFFFFFFFF
310
FFFFFFFFFFFFFFFFFFFFFFFFFFFFFFFFFFFFFFFFFFFFFFFFFFFFFFFFFFFFFFFF
310
FFFFFFFFFFFFFFFFFFFFFFFFFFFFFFFFFFFFFFFFFFFFFFFFF000FFFFFFFFFFFF
310
FFFFFFFFFFFFFFFFFFFFFFFFFFFFFFFFFFFFFFFFFFFFFFFFFFFFFFFFFFFFFFFF
310
FFFFFFFFFFFFFFFFFFFFFFFFFFFFFFFFFFFFFFFFFFFFFFFFFFFFFFFFFFFFFFFF
310
FFFFFFFFFFFFFFFFFFFFFFFFFFFFFFFFF000FFFFFFFFFFFFFFFFFFFFFFFFFFFF
310
FFFFFFFFFFFFFFFFFFFFFFFFFFFFFFFFFFFFFFFFFFFFFFFFFFFFFFFFFFFFFFFF
310
FFFFFFFFFFFFFFFFFFFFFFFFFFFFFFFFFFFFFFFFFFFFFFFFFFFFFFFFFFFFFFFF
310
FFFFFFFFFFFFFFFFF000FFFFFFFFFFFFFFFFFFFFFFFFFFFFFFFFFFFFFFFFFFFF
310
FFFFFFFFFFFFFFFFFFFFFFFFFFFFFFFFFFFFFFFFFFFFFFFFFFFFFFFFFFFFFFFF
310
FFFFFFFFFFFFFFFFFFFFFFFFFFFFFFFFFFFFFFFFFFFFFFFFFFFFFFFFFFFFFFFF
310
F000FFFFFFFFFFFFFFFFFFFFFFFFFFFFFFFFFFFFFFFFFFFFFFFFFFFFFFFFFFFF
310
FFFFFFFFFFFFFFFFFFFFFFFFFFFFFFFFFFFFFFFFFFFFFFFFFFFFFFFFFFFFFFFF
310
FFFFFFFFFFFFFFFFFFFFFFFFFFFFFFFFFFFFFFFFFFFFFFFFF000FFFFFFFFFFFF
310
FFFFFFFFFFFFFFFFFFFFFFFFFFFFFFFFFFFFFFFFFFFFFFFFFFFFFFFFFFFFFFFF
310
FFFFFFFFFFFFFFFFFFFFFFFFFFFFFFFFFFFFFFFFFFFFFFFFFFFFFFFFFFFFFFFF
310
FFFFFFFFFFFFFFFFFFFFFFFFFFFFFFFFF000FFFFFFFFFFFFFFFFFFFFFFFFFFFF
310
FFFFFFFFFFFFFFFFFFFFFFFFFFFFFFFFFFFFFFFFFFFFFFFFFFFFFFFFFFFFFFFF
310
FFFFFFFFFFFFFFFFFFFFFFFFFFFFFFFFFFFFFFFFFFFFFFFFFFFFFFFFFFFFFFFF
310
FFFFFFFFFFFFFFFFF000FFFFFFFFFFFFFFFFFFFFFFFFFFFFFFFFFFFFFFFFFFFF
310
FFFFFFFFFFFFFFFFFFFFFFFFFFFFFFFFFFFFFFFFFFFFFFFFFFFFFFFFFFFFFFFF
310
FFFFFFFFFFFFFFFFFFFFFFFFFFFFFFFFFFFFFFFFFFFFFFFFFFFFFFFFFFFFFFFF
310
F000FFFFFFFFFFFFFFFFFFFFFFFFFFFFFFFFFFFFFFFFFFFFFFFFFFFFFFFFFFFF
310
FFFFFFFFFFFFFFFFFFFFFFFFFFFFFFFFFFFFFFFFFFFFFFFFFFFFFFFFFFFFFFFF
310
FFFFFFFFFFFFFFFFFFFFFFFFFFFFFFFFFFFFFFFFFFFFFFFFF000FFFFFFFFFFFF
310
FFFFFFFFFFFFFFFFFFFFFFFFFFFFFFFFFFFFFFFFFFFFFFFFFFFFFFFFFFFFFFFF
310
FFFFFFFFFFFFFFFFFFFFFFFFFFFFFFFFFFFFFFFFFFFFFFFFFFFFFFFFFFFFFFFF
310
FFFFFFFFFFFFFFFFFFFFFFFFFFFFFFFFF000FFFFFFFFFFFFFFFFFFFFFFFFFFFF
310
FFFFFFFFFFFFFFFFFFFFFFFFFFFFFFFFFFFFFFFFFFFFFFFFFFFFFFFFFFFFFFFF
310
FFFFFFFFFFFFFFFFFFFFFFFFFFFFFFFFFFFFFFFFFFFFFFFFFFFFFFFFFFFFFFFF
310
FFFFFFFFFFFFFFFFF000FFFFFFFFFFFFFFFFFFFFFFFFFFFFFFFFFFFFFFFFFFFF
310
FFFFFFFFFFFFFFFFFFFFFFFFFFFFFFFFFFFFFFFFFFFFFFFFFFFFFFFFFFFFFFFF
310
FFFFFFFFFFFFFFFFFFFFFFFFFFFFFFFFFFFFFFFFFFFFFFFFFFFFFFFFFFFFFFFF
310
F000FFFFFFFFFFFFFFFFFFFFFFFFFFFFFFFFFFFFFFFFFFFFFFFFFFFFFFFFFFFF
310
FFFFFFFFFFFFFFFFFFFFFFFFFFFFFFFFFFFFFFFFFFFFFFFFFFFFFFFFFFFFFFFF
310
FFFFFFFFFFFFFFFFFFFFFFFFFFFFFFFFFFFFFFFFFFFFFFFFF000FFFFFFFFFFFF
310
FFFFFFFFFFFFFFFFFFFFFFFFFFFFFFFFFFFFFFFFFFFFFFFFFFFFFFFFFFFFFFFF
310
FFFFFFFFFFFFFFFFFFFFFFFFFFFFFFFFFFFFFFFFFFFFFFFFFFFFFFFFFFFFFFFF
310
FFFFFFFFFFFFFFFFFFFFFFFFFFFFFFFFF000FFFFFFFFFFFFFFFFFFFFFFFFFFFF
310
FFFFFFFFFFFFFFFFFFFFFFFFFFFFFFFFFFFFFFFFFFFFFFFFFFFFFFFFFFFFFFFF
310
FFFFFFFFFFFFFFFFFFFFFFFFFFFFFFFFFFFFFFFFFFFFFFFFFFFFFFFFFFFFFFFF
310
FFFFFFFFFFFFFFFFF000FFFFFFFFFFFFFFFFFFFFFFFFFFFFFFFFFFFFFFFFFFFF
310
FFFFFFFFFFFFFFFFFFFFFFFFFFFFFFFFFFFFFFFFFFFFFFFFFFFFFFFFFFFFFFFF
310
FFFFFFFFFFFFFFFFFFFFFFFFFFFFFFFFFFFFFFFFFFFFFFFFFFFFFFFFFFFFFFFF
310
F000FFFFFFFFFFFFFFFFFFFFFFFFFFFFFFFFFFFFFFFFFFFFFFFFFFFFFFFFFFFF
310
FFFFFFFFFFFFFFFFFFFFFFFFFFFFFFFFFFFFFFFFFFFFFFFFFFFFFFFFFFFFFFFF
310
FFFFFFFFFFFFFFFFFFFFFFFFFFFFFFFFFFFFFFFFFFFFFFFFF000FFFFFFFFFFFF
310
FFFFFFFFFFFFFFFFFFFFFFFFFFFFFFFFFFFFFFFFFFFFFFFFFFFFFFFFFFFFFFFF
310
FFFFFFFFFFFFFFFFFFFFFFFFFFFFFFFFFFFFFFFFFFFFFFFFFFFFFFFFFFFFFFFF
310
FFFFFFFFFFFFFFFFFFFFFFFFFFFFFFFFF000FFFFFFFFFFFFFFFFFFFFFFFFFFFF
310
FFFFFFFFFFFFFFFFFFFFFFFFFFFFFFFFFFFFFFFFFFFFFFFFFFFFFFFFFFFFFFFF
310
FFFFFFFFFFFFFFFFFFFFFFFFFFFFFFFFFFFFFFFFFFFFFFFFFFFFFFFFFFFFFFFF
310
FFFFFFFFFFFFFFFFF000FFFFF80003FFFFFFFFFFFFFFFFFFFFFFFFFFFFFFFFFF
310
FFFFF00007FFFFFFFFFF00007FFFFFF800000000000000007FFFFFFFFFFFFFFF
310
FFFFFFFC001FFFFFFFFFFFFFFC001FFFFFFFFFFFFFFFFFFFFFFFFFFE0007FFFF
310
F000FFFF8000007FFFFFFFF8000FFFFFC0007FFFFF80007FFFFF0000007FFFFF
310
FFF8000007FFFFF800000000000000007FFFFFF0001FFFFFFFFFFFC00001FFFF
310
FFFFFFFFC00001FFFFFFFF000000000003FFFFE000007FFFF000FFFE0000000F
310
FFFFFFF0000FFFFF80007FFFFF80007FFFFC0000001FFFFFFFC0000001FFFFF8
310
00000000000000007FFFFFF0001FFFFFFFFFFE0000003FFFFFFFFFFE0000003F
310
FFFFFF000000000003FFFF0000000FFFF000FFF800000003FFFFFFF00007FFFF
310
80007FFFFF80007FFFF000000007FFFFFF000000003FFFF80000000000000000
310
7FFFFFF0001FFFFFFFFFF80000000FFFFFFFFFF80000000FFFFFFF0000000000
310
03FFFC00000003FFF000FFE000000000FFFFFFF00007FFFF80003FFFFF80007F
310
FFC000000001FFFFFC000000001FFFF800000000000000007FFFFFF0001FFFFF
310
FFFFE000000003FFFFFFFFE000000003FFFFFF000000000003FFF000000000FF
310
F000FF80000000007FFFFFF00007FFFF80003FFFFF80007FFF8000000000FFFF
310
F80000000007FFF800000000000000007FFFFFF0001FFFFFFFFFC000000001FF
310
FFFFFFC000000001FFFFFF000000000003FFC0000000007FF000FF0000000000
310
3FFFFFE00007FFFF00003FFFFF80007FFE00000000003FFFF00000000003FFF8
310
00000000000000007FFFFFF0001FFFFFFFFF8000000000FFFFFFFF8000000000
310
FFFFFF000000000003FF80000000003FF000FE00000000001FFFFFE00003FFFF
310
00003FFFFF80007FFC00000000001FFFE00000000001FFF8000001FFFE000000
310
7FFFFFF0001FFFFFFFFE00000000003FFFFFFE00000000003FFFFF0000000000
310
03FF00000000001FF000FC00000000000FFFFFE00003FFFF00001FFFFF80007F
310
F800000000001FFFC00000000000FFF8000001FFFE0000007FFFFFF0001FFFFF
310
FFFC00000000001FFFFFFC00000000001FFFFF000000000003FE00000000000F
310
F000F8000000000007FFFFE00003FFFF00001FFFFF80007FF800000000000FFF
310
800000000000FFF8000001FFFE0000007FFFFFF0001FFFFFFFF800000000000F
310
FFFFF800000000000FFFFF000000000003FC000000000007F000F80000000000
310
03FFFFC00003FFFE00001FFFFF80007FF0000000000007FF0000000000007FF8
310
000001FFFE0000007FFFFFF0001FFFFFFFF0000000000007FFFFF00000000000
310
07FFFF000000000003F8000000000003F000F0000000000003FFFFC00001FFFE
310
00001FFFFF80007FE0000000000007FE0000000000003FF8000001FFFE000000
310
7FFFFFF0001FFFFFFFF0000000000007FFFFF0000000000007FFFF0000000000
310
03F800001F800003F000E00001FFF00001FFFFC00001FFFE00000FFFFF80007F
310
E00001FFE00003FE00001FFF00003FF8000001FFFE0000007FFFFFF0001FFFFF
310
FFE000003E000003FFFFE000003E000003FFFF000000000003F00001FFF80001
310
F000E00007FFFC0001FFFFC00001FFFE00000FFFFF80007FC0000FFFFC0003FC
310
0000FFFFC0001FF8000001FFFE0000007FFFFFF0001FFFFFFFC00003FFE00001
310
FFFFC00003FFE00001FFFF0001FFFFFFFFF00007FFFE0001F000E0000FFFFF00
310
00FFFF800001FFFC00000FFFFF80007FC0001FFFFE0001FC0001FFFFE0001FF8
310
000001FFFE0000007FFFFFF0001FFFFFFF80000FFFF80000FFFF80000FFFF800
310
00FFFF0003FFFFFFFFE0000FFFFF8000F000C0003FFFFF8000FFFF800000FFFC
310
000007FFFF80007F80003FFFFF0001FC0003FFFFF0001FF8000001FFFE000000
310
7FFFFFF0001FFFFFFF80003FFFFE0000FFFF80003FFFFE0000FFFF0003FFFFFF
310
FFE0003FFFFF8000F000C0003FFFFF8000FFFF800000FFFC000007FFFF80007F
310
80007FFFFF8001F80007FFFFF8000FF8000001FFFE0000007FFFFFF0001FFFFF
310
FF00007FFFFF00007FFF00007FFFFF00007FFF0003FFFFFFFFE0003FFFFFC000
310
F000C0007FFFFFC000FFFF000000FFFC000007FFFF80007F8000FFFFFF8000F8
310
000FFFFFF8000FF8000001FFFE0000007FFFFFF0001FFFFFFF0000FFFFFF8000
310
7FFF0000FFFFFF80007FFF0003FFFFFFFFC0007FFFFFC00070008000FFFFFFC0
310
00FFFF000000FFF8000007FFFF80007F8000FFFFFF8000F8000FFFFFF8000FF8
310
000001FFFE0000007FFFFFF0001FFFFFFE0001FFFFFFC0003FFE0001FFFFFFC0
310
003FFF0003FFFFFFFFC0007FFFFFE00070008000FFFFFFC0007FFF0000007FF8
310
000003FFFF80007F0001FFFFFF8000F8000FFFFFF8000FF8000001FFFE000000
310
7FFFFFF0001FFFFFFE0001FFFFFFC0003FFE0001FFFFFFC0003FFF0003FFFFFF
310
FFC000FFFFFFE00070008000FFFFFFC0007FFF0000007FF8000003FFFF80007F
310
0001FFFFFF8000F8001FFFFFF8000FF8000001FFFE0000007FFFFFF0001FFFFF
310
FE0003FFFFFFE0003FFE0003FFFFFFE0003FFF0003FFFFFFFFC000FFFFFFE000
310
70008000FFFFFFC0007FFE0000007FF8000003FFFF80007F0001FFFFFF8000F0
310
001FFFFFF8000FF8000001FFFE0000007FFFFFF0001FFFFFFC0003FFFFFFE000
310
1FFC0003FFFFFFE0001FFF0003FFFFFFFFC000FFFFFFC00070008000FFFFFF80
310
007FFE0000007FF0000003FFFF80007F0001FFFFFF0000F0001FFFFFF8000FF8
310
000001FFFE0000007FFFFFF0001FFFFFFC0007FFFFFFF0001FFC0007FFFFFFF0
310
001FFF0003FFFFFFFFC000FFFFFFC00070008001FFFFFF0000FFFE0000003FF0
310
000001FFFF80007F0001FFFFFF0000F8001FFFFFF0000FF8000001FFFE000000
310
7FFFFFF0001FFFFFFC0007FFFFFFF0001FFC0007FFFFFFF0001FFF0003FFFFFF
310
FFC001FFFFFF80007000FFFFFFFFFE0000FFFE0008003FF0008001FFFF80007F
310
FFFFFFFFFC0000FFFFFFFFFFE0000FF8000001FFFE0000007FFFFFF0001FFFFF
310
F8000FFFFFFFF8000FF8000FFFFFFFF8000FFF0003FFFFFFFFFFFFFFFFFF0000
310
7000FFFFFFFFFC0000FFFC0008003FF0008001FFFF80007FFFFFFFFFF80001FF
310
FFFFFFFF80000FF8000001FFFE0000007FFFFFF0001FFFFFF8000FFFFFFFF800
310
0FF8000FFFFFFFF8000FFF0003FFFFFFFFFFFFFFFFFE0000F000FFFFFFFFE000
310
00FFFC000C003FE000C001FFFF80007FFFFFFFFFC00001FFFFFFFFFE00001FF8
310
000001FFFE0000007FFFFFF0001FFFFFF8000FFFFFFFF8000FF8000FFFFFFFF8
310
000FFF0003FFFFFFFFFFFFFFFFF00000F000FFFFFFFE000001FFFC000C001FE0
310
00C000FFFF80007FFFFFFFFE000001FFFFFFFFE000001FF80FFFFFFFFFFFFFC0
310
7FFFFFF0001FFFFFF8000FFFFFFFF8000FF8000FFFFFFFF8000FFF0003FFFFFF
310
FFFFFFFFFF800000F000FFFFFFC0000001FFFC001C001FE001C000FFFF80007F
310
FFFFFF80000003FFFFFFF80000001FF80FFFFFFFFFFFFFC07FFFFFF0001FFFFF
310
F8001FFFFFFFFC000FF8001FFFFFFFFC000FFF0003FFFFFFFFFFFFFFF0000001
310
F000FFFFF800000001FFF8001C001FE001C000FFFF80007FFFFFF800000003FF
310
FFFF800000003FF80FFFFFFFFFFFFFC07FFFFFF0001FFFFFF8001FFFFFFFFC00
310
0FF8001FFFFFFFFC000FFF0003FFFFFFFFFFFFFE00000001F000FFFFC0000000
310
03FFF8001E001FC001E000FFFF80007FFFFF8000000007FFFFFC000000003FF8
310
0FFFFFFFFFFFFFC07FFFFFF0001FFFFFF8001FFFFFFFFC000FF8001FFFFFFFFC
310
000FFF0003FFFFFFFFFFFFE000000003F000FFFE0000000007FFF8001E000FC0
310
01E0007FFF80007FFFFE0000000007FFFFE0000000007FF80FFFFFFFFFFFFFC0
310
7FFFFFF0001FFFFFF0001FFFFFFFFC0007F0001FFFFFFFFC0007FF0003FFFFFF
310
FFFFFF0000000003F000FFF80000000007FFF8001E000FC003E0007FFF80007F
310
FFF0000000000FFFFF8000000000FFF80FFFFFFFFFFFFFC07FFFFFF0001FFFFF
310
F0001FFFFFFFFC0007F0001FFFFFFFFC0007FF0003FFFFFFFFFFFC0000000007
310
F000FFE0000000000FFFF0003E000FC003E0007FFF80007FFFC0000000001FFF
310
FE0000000001FFF80FFFFFFFFFFFFFC07FFFFFF0001FFFFFF0001FFFFFFFFC00
310
07F0001FFFFFFFFC0007FF0003FFFFFFFFFFF0000000000FF000FFC000000000
310
1FFFF0003F000F8003F0003FFF80007FFF80000000003FFFF80000000003FFF8
310
0FFFFFFFFFFFFFC07FFFFFF0001FFFFFF0001FFFFFFFFC0007F0001FFFFFFFFC
310
0007FF0003FFFFFFFFFFE0000000001FF000FF00000000007FFFF0003F000780
310
03F0003FFF80007FFF00000000007FFFF00000000007FFF80FFFFFFFFFFFFFC0
310
7FFFFFF0001FFFFFF0001FFFFFFFFC0007F0001FFFFFFFFC0007FF0003FFFFFF
310
FFFF80000000007FF000FE0000000000FFFFE0003F00078007F0003FFF80007F
310
FE0000000001FFFFE0000000001FFFF80FFFFFFFFFFFFFC07FFFFFF0001FFFFF
310
F0001FFFFFFFFC0007F0001FFFFFFFFC0007FF0003FFFFFFFFFF0000000000FF
310
F000FC0000000003FFFFE0007F00078007F0003FFF80007FFC0000000007FFFF
310
C0000000007FFFF80FFFFFFFFFFFFFC07FFFFFF0001FFFFFF8001FFFFFFFFC00
310
0FF8001FFFFFFFFC000FFF0003FFFFFFFFFE0000000003FFF000FC000000000F
310
FFFFE0007F80070007F8001FFF80007FF8000000001FFFFF8000000001FFFFF8
310
0FFFFFFFFFFFFFC07FFFFFF0001FFFFFF8001FFFFFFFFC000FF8001FFFFFFFFC
310
000FFF0003FFFFFFFFFC000000000FFFF000F8000000007FFFFFE0007F800700
310
07F8001FFF80007FF000000000FFFFFF800000000FFFFFF80FFFFFFFFFFFFFC0
310
7FFFFFF0001FFFFFF8000FFFFFFFF8000FF8000FFFFFFFF8000FFF0003FFFFFF
310
FFFC000000007FFFF000F800000007FFFFFFC0007F8003000FF8001FFF80007F
310
F000000007FFFFFF000000007FFFFFF80FFFFFFFFFFFFFC07FFFFFF0001FFFFF
310
F8000FFFFFFFF8000FF8000FFFFFFFF8000FFF0003FFFFFFFFF80000000FFFFF
310
F000F0000000FFFFFFFFC000FF8003000FF8001FFF80007FE0000000FFFFFFFF
310
0000000FFFFFFFF8000001FFFE0000007FFFFFF0001FFFFFF8000FFFFFFFF800
310
0FF8000FFFFFFFF8000FFF0003FFFFFFFFF8000000FFFFFFF000F000000FFFFF
310
FFFFC000FFC002000FF8000FFF80007FE000001FFFFFFFFE000001FFFFFFFFF8
310
000001FFFE0000007FFFFFF0001FFFFFF8000FFFFFFFF8000FF8000FFFFFFFF8
310
000FFF0003FFFFFFFFF000001FFFFFFFF000E00000FFFFFFFFFFC000FFC00200
310
0FFC000FFF80007FE00001FFFFFFFFFE00001FFFFFFFFFF8000001FFFE000000
310
7FFFFFF0001FFFFFFC000FFFFFFFF8001FFC000FFFFFFFF8001FFF0003FFFFFF
310
FFF00001FFFFFFFFF000E00007FFFFFFFFFF8000FFC000001FFC000FFF80007F
310
C0000FFFFFFFFFFE0000FFFFFFFFFFF8000001FFFE0000007FFFFFF0001FFFFF
310
FC0007FFFFFFF0001FFC0007FFFFFFF0001FFF0003FFFFFFFFF00007FFFFFFFF
310
F000E0001FFFFFFFFFFF8000FFC000001FFC000FFF80007FC0003FFFFFFFFFFE
310
0001FFFFFFFFFFF8000001FFFE0000007FFFFFF0001FFFFFFC0007FFFFFFF000
310
1FFC0007FFFFFFF0001FFF0003FFFFFFFFF0001FFFFFFFFFF000E0003FFFFF00
310
03FF8001FFE000001FFC0007FF80007FC0007FFFFF0007FC0003FFFFF0003FF8
310
000001FFFE0000007FFFFFF0001FFFFFFC0003FFFFFFE0001FFC0003FFFFFFE0
310
001FFF0003FFFFFFFFF0003FFFFFFFFFF000E0003FFFFF0001FF8001FFE00000
310
1FFE0007FF80007FC0007FFFFE0003FC0007FFFFE0003FF8000001FFFE000000
310
7FFFFFF0001FFFFFFE0003FFFFFFE0003FFE0003FFFFFFE0003FFF0003FFFFFF
310
FFF0003FFFFF8001F000E0003FFFFF0001FF0001FFE000001FFE0007FF80007F
310
C0007FFFFE0003FC0007FFFFE0003FF8000001FFFE0000007FFFFFF0001FFFFF
310
FE0001FFFFFFC0003FFE0001FFFFFFC0003FFF0003FFFFFFFFF0003FFFFF0001
310
F000E0003FFFFF0003FF0001FFE000003FFE0007FF80007FC0007FFFFE0003FC
310
0007FFFFE0003FF8000001FFFE0000007FFFFFF0001FFFFFFF0001FFFFFFC000
310
7FFF0001FFFFFFC0007FFF0003FFFFFFFFF0003FFFFF0001F000E0003FFFFE00
310
03FF0003FFF000003FFE0003FF80007FC0007FFFFC0003FE0007FFFFE0003FF8
310
000001FFFE0000007FFFFFF0001FFFFFFF0000FFFFFF80007FFF0000FFFFFF80
310
007FFF0003FFFFFFFFF0003FFFFF0001F000E0003FFFFE0003FF0003FFF00000
310
3FFF0003FF80007FC0007FFFFC0007FE0007FFFFC0003FF8000001FFFE000000
310
7FFFFFF0001FFFFFFF80007FFFFF0000FFFF80007FFFFF0000FFFF0003FFFFFF
310
FFF0003FFFFF0003F000E0003FFFFC0003FE0003FFF000003FFF0003FF80007F
310
E0003FFFF80007FE0003FFFFC0007FF8000001FFFE0000007FFFFFF0001FFFFF
310
FF80003FFFFE0000FFFF80003FFFFE0000FFFF0003FFFFFFFFF0001FFFFE0003
310
F000F0001FFFF80003FE0003FFF000007FFF0001FF80007FE0003FFFF00007FE
310
0001FFFF80007FF8000001FFFE0000007FFFFFF0001FFFFFFFC0000FFFF80001
310
FFFFC0000FFFF80001FFFF0003FFFFFFFFF0001FFFFC0003F000F0000FFFF000
310
07FE0007FFF800007FFF0001FF80007FE0001FFFE00007FF0000FFFE00007FF8
310
000001FFFE0000007FFFFFF0001FFFFFFFC00003FFE00001FFFFC00003FFE000
310
01FFFF0003FFFFFFFFF8000FFFF80003F000F00003FFC00007FC0007FFF80000
310
7FFF8001FF80007FF00007FF80000FFF00007FF80000FFF8000001FFFE000000
310
7F80000000000001FFE000003E000003FFFFE000003E000003FFFF0003FFFFFF
310
FFF80003FFE00007F000F800000000000FFC0007FFF800007FFF8001FF80007F
310
F000000000000FFF000000000000FFF8000001FFFE0000007F80000000000001
310
FFF0000000000007FFFFF0000000000007FFFF0003FFFFFFFFFC00007E000007
310
F000F800000000000FFC0007FFF80000FFFF8000FF80007FF800000000001FFF
310
800000000001FFF8000001FFFE0000007F80000000000001FFF800000000000F
310
FFFFF800000000000FFFFF0003FFFFFFFFFC00000000000FF000FC0000000000
310
1FFC0007FFFC0000FFFF8000FF80007FF800000000003FFFC00000000001FFF8
310
000001FFFE0000007F80000000000001FFF800000000000FFFFFF80000000000
310
0FFFFF0003FFFFFFFFFE00000000001FF000FE00000000003FF8000FFFFC0000
310
FFFF8000FF80007FFC00000000003FFFC00000000003FFF8000001FFFE000000
310
7F80000000000001FFFC00000000001FFFFFFC00000000001FFFFF0003FFFFFF
310
FFFF00000000001FF000FF00000000003FF8000FFFFC0000FFFFC000FF80007F
310
FE00000000007FFFE00000000007FFF8000001FFFE0000007F80000000000001
310
FFFE00000000003FFFFFFE00000000003FFFFF0003FFFFFFFFFF80000000003F
310
F000FF80000000007FF8000FFFFC0001FFFFC0007F80007FFF0000000000FFFF
310
F0000000000FFFF800000000000000007F80000000000001FFFF8000000000FF
310
FFFFFF8000000000FFFFFF0003FFFFFFFFFFC0000000007FF000FFC000000000
310
FFF8000FFFFE0001FFFFC0007F80007FFF8000000001FFFFF8000000001FFFF8
310
00000000000000007F80000000000001FFFFC000000001FFFFFFFFC000000001
310
FFFFFF0003FFFFFFFFFFE000000000FFF000FFE000000003FFF0001FFFFE0001
310
FFFFC0007F80007FFFC000000007FFFFFE000000003FFFF80000000000000000
310
7F80000000000001FFFFE000000003FFFFFFFFE000000003FFFFFF0003FFFFFF
310
FFFFF000000003FFF000FFF80000000FFFF0001FFFFE0001FFFFE0007F80007F
310
FFF00000000FFFFFFF00000000FFFFF800000000000000007F80000000000001
310
FFFFF80000000FFFFFFFFFF80000000FFFFFFF0003FFFFFFFFFFFC0000000FFF
310
F000FFFE0000003FFFF0001FFFFE0003FFFFE0003F80007FFFFC0000003FFFFF
310
FFC0000003FFFFF800000000000000007F80000000000001FFFFFE0000003FFF
310
FFFFFFFE0000003FFFFFFF0003FFFFFFFFFFFF0000003FFFF000FFFF800000FF
310
FFF0001FFFFF0003FFFFE0003F80007FFFFF000001FFFFFFFFF800001FFFFFF8
310
00000000000000007F80000000000001FFFFFFC00001FFFFFFFFFFFFC00001FF
310
FFFFFF0003FFFFFFFFFFFFC00000FFFFF000FFFFF8000FFFFFFFFFFFFFFFFFFF
310
FFFFFFFFFFFFFFFFFFFFF0001FFFFFFFFFFF0000FFFFFFF80000000000000000
310
7FFFFFFFFFFFFFFFFFFFFFFC001FFFFFFFFFFFFFFC001FFFFFFFFFFFFFFFFFFF
310
FFFFFFFC001FFFFFF000FFFFFFFFFFFFFFFFFFFFFFFFFFFFFFFFFFFFFFFFFFFF
310
FFFFFFFFFFFFFFFFFFFFFFFFFFFFFFFFFFFFFFFFFFFFFFFFFFFFFFFFFFFFFFFF
310
FFFFFFFFFFFFFFFFFFFFFFFFFFFFFFFFFFFFFFFFFFFFFFFFFFFFFFFFFFFFFFFF
310
F000FFFFFFFFFFFFFFFFFFFFFFFFFFFFFFFFFFFFFFFFFFFFFFFFFFFFFFFFFFFF
310
FFFFFFFFFFFFFFFFFFFFFFFFFFFFFFFFFFFFFFFFFFFFFFFFFFFFFFFFFFFFFFFF
310
FFFFFFFFFFFFFFFFFFFFFFFFFFFFFFFFFFFFFFFFFFFFFFFFF000FFFFFFFFFFFF
310
FFFFFFFFFFFFFFFFFFFFFFFFFFFFFFFFFFFFFFFFFFFFFFFFFFFFFFFFFFFFFFFF
310
FFFFFFFFFFFFFFFFFFFFFFFFFFFFFFFFFFFFFFFFFFFFFFFFFFFFFFFFFFFFFFFF
310
FFFFFFFFFFFFFFFFFFFFFFFFFFFFFFFFF000FFFFFFFFFFFFFFFFFFFFFFFFFFFF
310
FFFFFFFFFFFFFFFFFFFFFFFFFFFFFFFFFFFFFFFFFFFFFFFFFFFFFFFFFFFFFFFF
310
FFFFFFFFFFFFFFFFFFFFFFFFFFFFFFFFFFFFFFFFFFFFFFFFFFFFFFFFFFFFFFFF
310
FFFFFFFFFFFFFFFFF000FFFFFFFFFFFFFFFFFFFFFFFFFFFFFFFFFFFFFFFFFFFF
310
FFFFFFFFFFFFFFFFFFFFFFFFFFFFFFFFFFFFFFFFFFFFFFFFFFFFFFFFFFFFFFFF
310
FFFFFFFFFFFFFFFFFFFFFFFFFFFFFFFFFFFFFFFFFFFFFFFFFFFFFFFFFFFFFFFF
310
F000FFFFFFFFFFFFFFFFFFFFFFFFFFFFFFFFFFFFFFFFFFFFFFFFFFFFFFFFFFFF
310
FFFFFFFFFFFFFFFFFFFFFFFFFFFFFFFFFFFFFFFFFFFFFFFFFFFFFFFFFFFFFFFF
310
FFFFFFFFFFFFFFFFFFFFFFFFFFFFFFFFFFFFFFFFFFFFFFFFF000FFFFFFFFFFFF
310
FFFFFFFFFFFFFFFFFFFFFFFFFFFFFFFFFFFFFFFFFFFFFFFFFFFFFFFFFFFFFFFF
310
FFFFFFFFFFFFFFFFFFFFFFFFFFFFFFFFFFFFFFFFFFFFFFFFFFFFFFFFFFFFFFFF
310
FFFFFFFFFFFFFFFFFFFFFFFFFFFFFFFFF000FFFFFFFFFFFFFFFFFFFFFFFFFFFF
310
FFFFFFFFFFFFFFFFFFFFFFFFFFFFFFFFFFFFFFFFFFFFFFFFFFFFFFFFFFFFFFFF
310
FFFFFFFFFFFFFFFFFFFFFFFFFFFFFFFFFFFFFFFFFFFFFFFFFFFFFFFFFFFFFFFF
310
FFFFFFFFFFFFFFFFF000FFFFFFFFFFFFFFFFFFFFFFFFFFFFFFFFFFFFFFFFFFFF
310
FFFFFFFFFFFFFFFFFFFFFFFFFFFFFFFFFFFFFFFFFFFFFFFFFFFFFFFFFFFFFFFF
310
FFFFFFFFFFFFFFFFFFFFFFFFFFFFFFFFFFFFFFFFFFFFFFFFFFFFFFFFFFFFFFFF
310
F000FFFFFFFFFFFFFFFFFFFFFFFFFFFFFFFFFFFFFFFFFFFFFFFFFFFFFFFFFFFF
310
FFFFFFFFFFFFFFFFFFFFFFFFFFFFFFFFFFFFFFFFFFFFFFFFFFFFFFFFFFFFFFFF
310
FFFFFFFFFFFFFFFFFFFFFFFFFFFFFFFFFFFFFFFFFFFFFFFFF000FFFFFFFFFFFF
310
FFFFFFFFFFFFFFFFFFFFFFFFFFFFFFFFFFFFFFFFFFFFFFFFFFFFFFFFFFFFFFFF
310
FFFFFFFFFFFFFFFFFFFFFFFFFFFFFFFFFFFFFFFFFFFFFFFFFFFFFFFFFFFFFFFF
310
FFFFFFFFFFFFFFFFFFFFFFFFFFFFFFFFF000FFFFFFFFFFFFFFFFFFFFFFFFFFFF
310
FFFFFFFFFFFFFFFFFFFFFFFFFFFFFFFFFFFFFFFFFFFFFFFFFFFFFFFFFFFFFFFF
310
FFFFFFFFFFFFFFFFFFFFFFFFFFFFFFFFFFFFFFFFFFFFFFFFFFFFFFFFFFFFFFFF
310
FFFFFFFFFFFFFFFFF000FFFFFFFFFFFFFFFFFFFFFFFFFFFFFFFFFFFFFFFFFFFF
310
FFFFFFFFFFFFFFFFFFFFFFFFFFFFFFFFFFFFFFFFFFFFFFFFFFFFFFFFFFFFFFFF
310
FFFFFFFFFFFFFFFFFFFFFFFFFFFFFFFFFFFFFFFFFFFFFFFFFFFFFFFFFFFFFFFF
310
F000FFFFFFFFFFFFFFFFFFFFFFFFFFFFFFFFFFFFFFFFFFFFFFFFFFFFFFFFFFFF
310
FFFFFFFFFFFFFFFFFFFFFFFFFFFFFFFFFFFFFFFFFFFFFFFFFFFFFFFFFFFFFFFF
310
FFFFFFFFFFFFFFFFFFFFFFFFFFFFFFFFFFFFFFFFFFFFFFFFF000FFFFFFFFFFFF
310
FFFFFFFFFFFFFFFFFFFFFFFFFFFFFFFFFFFFFFFFFFFFFFFFFFFFFFFFFFFFFFFF
310
FFFFFFFFFFFFFFFFFFFFFFFFFFFFFFFFFFFFFFFFFFFFFFFFFFFFFFFFFFFFFFFF
310
FFFFFFFFFFFFFFFFFFFFFFFFFFFFFFFFF000FFFFFFFFFFFFFFFFFFFFFFFFFFFF
310
FFFFFFFFFFFFFFFFFFFFFFFFFFFFFFFFFFFFFFFFFFFFFFFFFFFFFFFFFFFFFFFF
310
FFFFFFFFFFFFFFFFFFFFFFFFFFFFFFFFFFFFFFFFFFFFFFFFFFFFFFFFFFFFFFFF
310
FFFFFFFFFFFFFFFFF000FFFFFFFFFFFFFFFFFFFFFFFFFFFFFFFFFFFFFFFFFFFF
310
FFFFFFFFFFFFFFFFFFFFFFFFFFFFFFFFFFFFFFFFFFFFFFFFFFFFFFFFFFFFFFFF
310
FFFFFFFFFFFFFFFFFFFFFFFFFFFFFFFFFFFFFFFFFFFFFFFFFFFFFFFFFFFFFFFF
310
F000FFFFFFFFFFFFFFFFFFFFFFFFFFFFFFFFFFFFFFFFFFFFFFFFFFFFFFFFFFFF
310
FFFFFFFFFFFFFFFFFFFFFFFFFFFFFFFFFFFFFFFFFFFFFFFFFFFFFFFFFFFFFFFF
310
FFFFFFFFFFFFFFFFFFFFFFFFFFFFFFFFFFFFFFFFFFFFFFFFF000FFFFFFFFFFFF
310
FFFFFFFFFFFFFFFFFFFFFFFFFFFFFFFFFFFFFFFFFFFFFFFFFFFFFFFFFFFFFFFF
310
FFFFFFFFFFFFFFFFFFFFFFFFFFFFFFFFFFFFFFFFFFFFFFFFFFFFFFFFFFFFFFFF
310
FFFFFFFFFFFFFFFFFFFFFFFFFFFFFFFFF000FFFFFFFFFFFFFFFFFFFFFFFFFFFF
310
FFFFFFFFFFFFFFFFFFFFFFFFFFFFFFFFFFFFFFFFFFFFFFFFFFFFFFFFFFFFFFFF
310
FFFFFFFFFFFFFFFFFFFFFFFFFFFFFFFFFFFFFFFFFFFFFFFFFFFFFFFFFFFFFFFF
310
FFFFFFFFFFFFFFFFF000FFFFFFFFFFFFFFFFFFFFFFFFFFFFFFFFFFFFFFFFFFFF
310
FFFFFFFFFFFFFFFFFFFFFFFFFFFFFFFFFFFFFFFFFFFFFFFFFFFFFFFFFFFFFFFF
310
FFFFFFFFFFFFFFFFFFFFFFFFFFFFFFFFFFFFFFFFFFFFFFFFFFFFFFFFFFFFFFFF
310
F000FFFFFFFFFFFFFFFFFFFFFFFFFFFFFFFFFFFFFFFFFFFFFFFFFFFFFFFFFFFF
310
FFFFFFFFFFFFFFFFFFFFFFFFFFFFFFFFFFFFFFFFFFFFFFFFFFFFFFFFFFFFFFFF
310
FFFFFFFFFFFFFFFFFFFFFFFFFFFFFFFFFFFFFFFFFFFFFFFFF000FFFFFFFFFFFF
310
FFFFFFFFFFFFFFFFFFFFFFFFFFFFFFFFFFFFFFFFFFFFFFFFFFFFFFFFFFFFFFFF
310
FFFFFFFFFFFFFFFFFFFFFFFFFFFFFFFFFFFFFFFFFFFFFFFFFFFFFFFFFFFFFFFF
310
FFFFFFFFFFFFFFFFFFFFFFFFFFFFFFFFF0000000000000000000000000000000
310
0000000000000000000000000000000000000000000000000000000000000000
310
0000000000000000000000000000000000000000000000000000000000000000
310
0000000000000000000000000000000000000000000000000000000000000000
310
0000000000000000000000000000000000000000000000000000000000000000
310
0000000000000000000000000000000000000000000000000000000000000000
310
0000000000000000000000000000000000000000000000000000000000000000
310
0000000000000000000000000000000000000000000000000000000000000000
310
0000000000000000000000000000000000000000000000000000000000000000
310
0000000000000000000000000000000000000000000000000000000000000000
310
0000000000000000000000000000000000000000000000000000000000000000
310
0000000000000000000000000000000000000000000000000000000000000000
310
0000000000000000000000000000000000000000000000000000000000000000
310
0000000000000000000000000000000000000000000000000000000000000000
310
0000000000000000000000000000000000000000000000000000000000000000
310
0000000000000000000000000000000000000000000000000000000000000000
  1
OLE
  0
ENDSEC
  0
SECTION
  2
OBJECTS
  0
DICTIONARY
  5
C
330
0
100
AcDbDictionary
281
     1
  3
ACAD_GROUP
350
D
  3
ACAD_LAYOUT
350
1A
  3
ACAD_MLINESTYLE
350
17
  3
ACAD_PLOTSETTINGS
350
19
  3
ACAD_PLOTSTYLENAME
350
E
  3
ACAD_SCALELIST
350
47
  0
DICTIONARY
  5
D
102
{ACAD_REACTORS
330
C
102
}
330
C
100
AcDbDictionary
281
     1
  0
DICTIONARY
  5
1A
102
{ACAD_REACTORS
330
C
102
}
330
C
100
AcDbDictionary
281
     1
  3
Layout1
350
1E
  3
Layout2
350
26
  3
Model
350
22
  0
DICTIONARY
  5
17
102
{ACAD_REACTORS
330
C
102
}
330
C
100
AcDbDictionary
281
     1
  3
Standard
350
18
  0
DICTIONARY
  5
19
102
{ACAD_REACTORS
330
C
102
}
330
C
100
AcDbDictionary
281
     1
  0
ACDBDICTIONARYWDFLT
  5
E
102
{ACAD_REACTORS
330
C
102
}
330
C
100
AcDbDictionary
281
     1
  3
Normal
350
F
100
AcDbDictionaryWithDefault
340
F
  0
DICTIONARY
  5
47
102
{ACAD_REACTORS
330
C
102
}
330
C
100
AcDbDictionary
281
     1
  3
A0
350
48
  3
A1
350
49
  3
A2
350
4A
  3
A3
350
4B
  3
A4
350
4C
  3
A5
350
4D
  3
A6
350
4E
  3
A7
350
4F
  3
A8
350
50
  3
A9
350
51
  3
B0
350
52
  3
B1
350
53
  3
B2
350
54
  3
B3
350
55
  3
B4
350
56
  3
B5
350
57
  3
B6
350
58
  3
B7
350
59
  3
B8
350
5A
  3
B9
350
5B
  3
C0
350
5C
  3
C1
350
5D
  3
C2
350
5E
  3
C3
350
5F
  3
C4
350
60
  3
C5
350
61
  3
C6
350
62
  3
C7
350
63
  3
C8
350
64
  3
C9
350
65
  3
D0
350
66
  3
D1
350
67
  3
D2
350
68
  0
LAYOUT
  5
1E
102
{ACAD_REACTORS
330
1A
102
}
330
1A
100
AcDbPlotSettings
  1

  2
none_device
  4

  6

 40
0.0
 41
0.0
 42
0.0
 43
0.0
 44
0.0
 45
0.0
 46
0.0
 47
0.0
 48
0.0
 49
0.0
140
0.0
141
0.0
142
1.0
143
1.0
 70
   688
 72
     1
 73
     0
 74
     5
  7

 75
    16
147
1.0
148
0.0
149
0.0
100
AcDbLayout
  1
Layout1
 70
     1
 71
     1
 10
0.0
 20
0.0
 11
420.0
 21
297.0
 12
0.0
 22
0.0
 32
0.0
 14
1.0000000000E+20
 24
1.0000000000E+20
 34
1.0000000000E+20
 15
-1.0000000000E+20
 25
-1.0000000000E+20
 35
-1.0000000000E+20
146
0.0
 13
0.0
 23
0.0
 33
0.0
 16
1.0
 26
0.0
 36
0.0
 17
0.0
 27
1.0
 37
0.0
 76
     0
330
1B
  0
LAYOUT
  5
26
102
{ACAD_REACTORS
330
1A
102
}
330
1A
100
AcDbPlotSettings
  1

  2
none_device
  4

  6

 40
0.0
 41
0.0
 42
0.0
 43
0.0
 44
0.0
 45
0.0
 46
0.0
 47
0.0
 48
0.0
 49
0.0
140
0.0
141
0.0
142
1.0
143
1.0
 70
   688
 72
     1
 73
     0
 74
     5
  7

 75
    16
147
1.0
148
0.0
149
0.0
100
AcDbLayout
  1
Layout2
 70
     1
 71
     2
 10
0.0
 20
0.0
 11
0.0
 21
0.0
 12
0.0
 22
0.0
 32
0.0
 14
0.0
 24
0.0
 34
0.0
 15
0.0
 25
0.0
 35
0.0
146
0.0
 13
0.0
 23
0.0
 33
0.0
 16
1.0
 26
0.0
 36
0.0
 17
0.0
 27
1.0
 37
0.0
 76
     0
330
23
  0
LAYOUT
  5
22
102
{ACAD_REACTORS
330
1A
102
}
330
1A
100
AcDbPlotSettings
  1

  2
none_device
  4
Letter_(8.50_x_11.00_Inches)
  6

 40
6.35
 41
6.35
 42
6.35000508
 43
6.35000508
 44
215.9
 45
279.4
 46
0.0
 47
0.0
 48
0.0
 49
0.0
140
0.0
141
0.0
142
1.0
143
1.0
 70
  1712
 72
     1
 73
     0
 74
     0
  7

 75
     0
147
1.0
148
0.0
149
0.0
100
AcDbLayout
  1
Model
 70
     1
 71
     0
 10
0.0
 20
0.0
 11
297.0
 21
210.0
 12
0.0
 22
0.0
 32
0.0
 14
0.0
 24
0.0
 34
0.0
 15
297.0
 25
210.0
 35
0.0
146
0.0
 13
0.0
 23
0.0
 33
0.0
 16
1.0
 26
0.0
 36
0.0
 17
0.0
 27
1.0
 37
0.0
 76
     0
330
1F
331
29
  0
MLINESTYLE
  5
18
102
{ACAD_REACTORS
330
17
102
}
330
17
100
AcDbMlineStyle
  2
Standard
 70
     0
  3

 62
   256
 51
90.0
 52
90.0
 71
     2
 49
0.5
 62
   256
  6
BYLAYER
 49
-0.5
 62
   256
  6
BYLAYER
  0
ACDBPLACEHOLDER
  5
F
102
{ACAD_REACTORS
330
E
102
}
330
E
  0
SCALE
  5
48
102
{ACAD_REACTORS
330
47
102
}
330
47
100
AcDbScale
 70
     0
300
1:1
140
1.0
141
1.0
290
     1
  0
SCALE
  5
49
102
{ACAD_REACTORS
330
47
102
}
330
47
100
AcDbScale
 70
     0
300
1:2
140
1.0
141
2.0
290
     0
  0
SCALE
  5
4A
102
{ACAD_REACTORS
330
47
102
}
330
47
100
AcDbScale
 70
     0
300
1:4
140
1.0
141
4.0
290
     0
  0
SCALE
  5
4B
102
{ACAD_REACTORS
330
47
102
}
330
47
100
AcDbScale
 70
     0
300
1:5
140
1.0
141
5.0
290
     0
  0
SCALE
  5
4C
102
{ACAD_REACTORS
330
47
102
}
330
47
100
AcDbScale
 70
     0
300
1:8
140
1.0
141
8.0
290
     0
  0
SCALE
  5
4D
102
{ACAD_REACTORS
330
47
102
}
330
47
100
AcDbScale
 70
     0
300
1:10
140
1.0
141
10.0
290
     0
  0
SCALE
  5
4E
102
{ACAD_REACTORS
330
47
102
}
330
47
100
AcDbScale
 70
     0
300
1:16
140
1.0
141
16.0
290
     0
  0
SCALE
  5
4F
102
{ACAD_REACTORS
330
47
102
}
330
47
100
AcDbScale
 70
     0
300
1:20
140
1.0
141
20.0
290
     0
  0
SCALE
  5
50
102
{ACAD_REACTORS
330
47
102
}
330
47
100
AcDbScale
 70
     0
300
1:30
140
1.0
141
30.0
290
     0
  0
SCALE
  5
51
102
{ACAD_REACTORS
330
47
102
}
330
47
100
AcDbScale
 70
     0
300
1:40
140
1.0
141
40.0
290
     0
  0
SCALE
  5
52
102
{ACAD_REACTORS
330
47
102
}
330
47
100
AcDbScale
 70
     0
300
1:50
140
1.0
141
50.0
290
     0
  0
SCALE
  5
53
102
{ACAD_REACTORS
330
47
102
}
330
47
100
AcDbScale
 70
     0
300
1:100
140
1.0
141
100.0
290
     0
  0
SCALE
  5
54
102
{ACAD_REACTORS
330
47
102
}
330
47
100
AcDbScale
 70
     0
300
2:1
140
2.0
141
1.0
290
     0
  0
SCALE
  5
55
102
{ACAD_REACTORS
330
47
102
}
330
47
100
AcDbScale
 70
     0
300
4:1
140
4.0
141
1.0
290
     0
  0
SCALE
  5
56
102
{ACAD_REACTORS
330
47
102
}
330
47
100
AcDbScale
 70
     0
300
8:1
140
8.0
141
1.0
290
     0
  0
SCALE
  5
57
102
{ACAD_REACTORS
330
47
102
}
330
47
100
AcDbScale
 70
     0
300
10:1
140
10.0
141
1.0
290
     0
  0
SCALE
  5
58
102
{ACAD_REACTORS
330
47
102
}
330
47
100
AcDbScale
 70
     0
300
100:1
140
100.0
141
1.0
290
     0
  0
SCALE
  5
59
102
{ACAD_REACTORS
330
47
102
}
330
47
100
AcDbScale
 70
     0
300
1/128" = 1'-0"
140
0.0078125
141
12.0
290
     0
  0
SCALE
  5
5A
102
{ACAD_REACTORS
330
47
102
}
330
47
100
AcDbScale
 70
     0
300
1/64" = 1'-0"
140
0.015625
141
12.0
290
     0
  0
SCALE
  5
5B
102
{ACAD_REACTORS
330
47
102
}
330
47
100
AcDbScale
 70
     0
300
1/32" = 1'-0"
140
0.03125
141
12.0
290
     0
  0
SCALE
  5
5C
102
{ACAD_REACTORS
330
47
102
}
330
47
100
AcDbScale
 70
     0
300
1/16" = 1'-0"
140
0.0625
141
12.0
290
     0
  0
SCALE
  5
5D
102
{ACAD_REACTORS
330
47
102
}
330
47
100
AcDbScale
 70
     0
300
3/32" = 1'-0"
140
0.09375
141
12.0
290
     0
  0
SCALE
  5
5E
102
{ACAD_REACTORS
330
47
102
}
330
47
100
AcDbScale
 70
     0
300
1/8" = 1'-0"
140
0.125
141
12.0
290
     0
  0
SCALE
  5
5F
102
{ACAD_REACTORS
330
47
102
}
330
47
100
AcDbScale
 70
     0
300
3/16" = 1'-0"
140
0.1875
141
12.0
290
     0
  0
SCALE
  5
60
102
{ACAD_REACTORS
330
47
102
}
330
47
100
AcDbScale
 70
     0
300
1/4" = 1'-0"
140
0.25
141
12.0
290
     0
  0
SCALE
  5
61
102
{ACAD_REACTORS
330
47
102
}
330
47
100
AcDbScale
 70
     0
300
3/8" = 1'-0"
140
0.375
141
12.0
290
     0
  0
SCALE
  5
62
102
{ACAD_REACTORS
330
47
102
}
330
47
100
AcDbScale
 70
     0
300
1/2" = 1'-0"
140
0.5
141
12.0
290
     0
  0
SCALE
  5
63
102
{ACAD_REACTORS
330
47
102
}
330
47
100
AcDbScale
 70
     0
300
3/4" = 1'-0"
140
0.75
141
12.0
290
     0
  0
SCALE
  5
64
102
{ACAD_REACTORS
330
47
102
}
330
47
100
AcDbScale
 70
     0
300
1" = 1'-0"
140
1.0
141
12.0
290
     0
  0
SCALE
  5
65
102
{ACAD_REACTORS
330
47
102
}
330
47
100
AcDbScale
 70
     0
300
1-1/2" = 1'-0"
140
1.5
141
12.0
290
     0
  0
SCALE
  5
66
102
{ACAD_REACTORS
330
47
102
}
330
47
100
AcDbScale
 70
     0
300
3" = 1'-0"
140
3.0
141
12.0
290
     0
  0
SCALE
  5
67
102
{ACAD_REACTORS
330
47
102
}
330
47
100
AcDbScale
 70
     0
300
6" = 1'-0"
140
6.0
141
12.0
290
     0
  0
SCALE
  5
68
102
{ACAD_REACTORS
330
47
102
}
330
47
100
AcDbScale
 70
     0
300
1'-0" = 1'-0"
140
12.0
141
12.0
290
     0
  0
ENDSEC
  0
EOF
