  0
SECTION
  2
HEADER
  9
$ACADVER
  1
AC1015
  9
$ACADMAINTVER
 70
     6
  9
$DWGCODEPAGE
  3
ANSI_1252
  9
$INSBASE
 10
0.0
 20
0.0
 30
0.0
  9
$EXTMIN
 10
0.0
 20
0.0
 30
0.0
  9
$EXTMAX
 10
297.0
 20
210.0
 30
0.0
  9
$LIMMIN
 10
0.0
 20
0.0
  9
$LIMMAX
 10
297.0
 20
210.0
  9
$ORTHOMODE
 70
     0
  9
$REGENMODE
 70
     1
  9
$FILLMODE
 70
     1
  9
$QTEXTMODE
 70
     0
  9
$MIRRTEXT
 70
     1
  9
$LTSCALE
 40
1.0
  9
$ATTMODE
 70
     1
  9
$TEXTSIZE
 40
2.0
  9
$TRACEWID
 40
1.0
  9
$TEXTSTYLE
  7
Standard
  9
$CLAYER
  8
0
  9
$CELTYPE
  6
ByLayer
  9
$CECOLOR
 62
   256
  9
$CELTSCALE
 40
1.0
  9
$DISPSILH
 70
     0
  9
$DIMSCALE
 40
1.0
  9
$DIMASZ
 40
3.0
  9
$DIMEXO
 40
0.0
  9
$DIMDLI
 40
3.75
  9
$DIMRND
 40
0.0
  9
$DIMDLE
 40
0.0
  9
$DIMEXE
 40
1.0
  9
$DIMTP
 40
0.0
  9
$DIMTM
 40
0.0
  9
$DIMTXT
 40
2.0
  9
$DIMCEN
 40
2.5
  9
$DIMTSZ
 40
0.0
  9
$DIMTOL
 70
     0
  9
$DIMLIM
 70
     0
  9
$DIMTIH
 70
     1
  9
$DIMTOH
 70
     1
  9
$DIMSE1
 70
     0
  9
$DIMSE2
 70
     0
  9
$DIMTAD
 70
     1
  9
$DIMZIN
 70
     0
  9
$DIMBLK
  1

  9
$DIMASO
 70
     1
  9
$DIMSHO
 70
     1
  9
$DIMPOST
  1

  9
$DIMAPOST
  1

  9
$DIMALT
 70
     0
  9
$DIMALTD
 70
     3
  9
$DIMALTF
 40
0.0393700787
  9
$DIMLFAC
 40
1.0
  9
$DIMTOFL
 70
     1
  9
$DIMTVP
 40
0.0
  9
$DIMTIX
 70
     0
  9
$DIMSOXD
 70
     0
  9
$DIMSAH
 70
     0
  9
$DIMBLK1
  1

  9
$DIMBLK2
  1

  9
$DIMSTYLE
  2
ISO-25
  9
$DIMCLRD
 70
     0
  9
$DIMCLRE
 70
     0
  9
$DIMCLRT
 70
     0
  9
$DIMTFAC
 40
1.0
  9
$DIMGAP
 40
1.524
  9
$DIMJUST
 70
     0
  9
$DIMSD1
 70
     0
  9
$DIMSD2
 70
     0
  9
$DIMTOLJ
 70
     0
  9
$DIMTZIN
 70
     0
  9
$DIMALTZ
 70
     0
  9
$DIMALTTZ
 70
     0
  9
$DIMUPT
 70
     0
  9
$DIMDEC
 70
     2
  9
$DIMTDEC
 70
     3
  9
$DIMALTU
 70
     2
  9
$DIMALTTD
 70
     3
  9
$DIMTXSTY
  7
Standard
  9
$DIMAUNIT
 70
     0
  9
$DIMADEC
 70
     2
  9
$DIMALTRND
 40
0.0
  9
$DIMAZIN
 70
     0
  9
$DIMDSEP
 70
    44
  9
$DIMATFIT
 70
     3
  9
$DIMFRAC
 70
     0
  9
$DIMLDRBLK
  1

  9
$DIMLUNIT
 70
     2
  9
$DIMLWD
 70
    -2
  9
$DIMLWE
 70
    -2
  9
$DIMTMOVE
 70
     0
  9
$LUNITS
 70
     2
  9
$LUPREC
 70
     2
  9
$SKETCHINC
 40
1.0
  9
$FILLETRAD
 40
10.0
  9
$AUNITS
 70
     0
  9
$AUPREC
 70
     2
  9
$MENU
  1
.
  9
$ELEVATION
 40
0.0
  9
$PELEVATION
 40
0.0
  9
$THICKNESS
 40
0.0
  9
$LIMCHECK
 70
     0
  9
$CHAMFERA
 40
0.0
  9
$CHAMFERB
 40
0.0
  9
$CHAMFERC
 40
0.0
  9
$CHAMFERD
 40
0.0
  9
$SKPOLY
 70
     0
  9
$TDCREATE
 40
2457668.44086059
  9
$TDUCREATE
 40
2457668.357527257
  9
$TDUPDATE
 40
2457668.440862026
  9
$TDUUPDATE
 40
2457668.357528692
  9
$TDINDWG
 40
0.0000000116
  9
$TDUSRTIMER
 40
0.0000000116
  9
$USRTIMER
 70
     1
  9
$ANGBASE
 50
0.0
  9
$ANGDIR
 70
     0
  9
$PDMODE
 70
     0
  9
$PDSIZE
 40
-1.0
  9
$PLINEWID
 40
0.0
  9
$SPLFRAME
 70
     0
  9
$SPLINETYPE
 70
     6
  9
$SPLINESEGS
 70
     8
  9
$HANDSEED
  5
2CD
  9
$SURFTAB1
 70
     6
  9
$SURFTAB2
 70
     6
  9
$SURFTYPE
 70
     6
  9
$SURFU
 70
     6
  9
$SURFV
 70
     6
  9
$UCSBASE
  2

  9
$UCSNAME
  2

  9
$UCSORG
 10
0.0
 20
0.0
 30
0.0
  9
$UCSXDIR
 10
1.0
 20
0.0
 30
0.0
  9
$UCSYDIR
 10
0.0
 20
1.0
 30
0.0
  9
$UCSORTHOREF
  2

  9
$UCSORTHOVIEW
 70
     0
  9
$UCSORGTOP
 10
0.0
 20
0.0
 30
0.0
  9
$UCSORGBOTTOM
 10
0.0
 20
0.0
 30
0.0
  9
$UCSORGLEFT
 10
0.0
 20
0.0
 30
0.0
  9
$UCSORGRIGHT
 10
0.0
 20
0.0
 30
0.0
  9
$UCSORGFRONT
 10
0.0
 20
0.0
 30
0.0
  9
$UCSORGBACK
 10
0.0
 20
0.0
 30
0.0
  9
$PUCSBASE
  2

  9
$PUCSNAME
  2

  9
$PUCSORG
 10
0.0
 20
0.0
 30
0.0
  9
$PUCSXDIR
 10
1.0
 20
0.0
 30
0.0
  9
$PUCSYDIR
 10
0.0
 20
1.0
 30
0.0
  9
$PUCSORTHOREF
  2

  9
$PUCSORTHOVIEW
 70
     0
  9
$PUCSORGTOP
 10
0.0
 20
0.0
 30
0.0
  9
$PUCSORGBOTTOM
 10
0.0
 20
0.0
 30
0.0
  9
$PUCSORGLEFT
 10
0.0
 20
0.0
 30
0.0
  9
$PUCSORGRIGHT
 10
0.0
 20
0.0
 30
0.0
  9
$PUCSORGFRONT
 10
0.0
 20
0.0
 30
0.0
  9
$PUCSORGBACK
 10
0.0
 20
0.0
 30
0.0
  9
$USERI1
 70
     0
  9
$USERI2
 70
     0
  9
$USERI3
 70
     0
  9
$USERI4
 70
     0
  9
$USERI5
 70
     0
  9
$USERR1
 40
0.0
  9
$USERR2
 40
0.0
  9
$USERR3
 40
0.0
  9
$USERR4
 40
0.0
  9
$USERR5
 40
0.0
  9
$WORLDVIEW
 70
     1
  9
$SHADEDGE
 70
     3
  9
$SHADEDIF
 70
    70
  9
$TILEMODE
 70
     1
  9
$MAXACTVP
 70
    64
  9
$PINSBASE
 10
0.0
 20
0.0
 30
0.0
  9
$PLIMCHECK
 70
     0
  9
$PEXTMIN
 10
1.0000000000E+20
 20
1.0000000000E+20
 30
1.0000000000E+20
  9
$PEXTMAX
 10
-1.0000000000E+20
 20
-1.0000000000E+20
 30
-1.0000000000E+20
  9
$PLIMMIN
 10
0.0
 20
0.0
  9
$PLIMMAX
 10
420.0
 20
297.0
  9
$UNITMODE
 70
     0
  9
$VISRETAIN
 70
     1
  9
$PLINEGEN
 70
     0
  9
$PSLTSCALE
 70
     1
  9
$TREEDEPTH
 70
  3020
  9
$CMLSTYLE
  2
Standard
  9
$CMLJUST
 70
     0
  9
$CMLSCALE
 40
20.0
  9
$PROXYGRAPHICS
 70
     1
  9
$MEASUREMENT
 70
     1
  9
$CELWEIGHT
370
    -1
  9
$ENDCAPS
280
     0
  9
$JOINSTYLE
280
     0
  9
$LWDISPLAY
290
     1
  9
$INSUNITS
 70
     4
  9
$HYPERLINKBASE
  1

  9
$STYLESHEET
  1

  9
$XEDIT
290
     1
  9
$CEPSNTYPE
380
     0
  9
$PSTYLEMODE
290
     1
  9
$FINGERPRINTGUID
  2
{265B711C-9542-43E6-99C2-D2FC9FE1EB85}
  9
$VERSIONGUID
  2
{FAEB1C32-E019-11D5-929B-00C0DF256EC4}
  9
$EXTNAMES
290
     1
  9
$PSVPSCALE
 40
0.0
  9
$OLESTARTUP
290
     0
  0
ENDSEC
  0
SECTION
  2
CLASSES
  0
CLASS
  1
ACDBDICTIONARYWDFLT
  2
AcDbDictionaryWithDefault
  3
ObjectDBX Classes
 90
        0
280
     0
281
     0
  0
CLASS
  1
VISUALSTYLE
  2
AcDbVisualStyle
  3
ObjectDBX Classes
 90
     4095
280
     0
281
     0
  0
CLASS
  1
MATERIAL
  2
AcDbMaterial
  3
ObjectDBX Classes
 90
     1153
280
     0
281
     0
  0
CLASS
  1
SCALE
  2
AcDbScale
  3
ObjectDBX Classes
 90
     1153
280
     0
281
     0
  0
CLASS
  1
TABLESTYLE
  2
AcDbTableStyle
  3
ObjectDBX Classes
 90
     4095
280
     0
281
     0
  0
CLASS
  1
MLEADERSTYLE
  2
AcDbMLeaderStyle
  3
ACDB_MLEADERSTYLE_CLASS
 90
     4095
280
     0
281
     0
  0
CLASS
  1
SUN
  2
AcDbSun
  3
SCENEOE
 90
     1153
280
     0
281
     0
  0
CLASS
  1
ACDBPLACEHOLDER
  2
AcDbPlaceHolder
  3
ObjectDBX Classes
 90
        0
280
     0
281
     0
  0
CLASS
  1
LAYOUT
  2
AcDbLayout
  3
ObjectDBX Classes
 90
        0
280
     0
281
     0
  0
ENDSEC
  0
SECTION
  2
TABLES
  0
TABLE
  2
VPORT
  5
8
330
0
100
AcDbSymbolTable
 70
     1
  0
VPORT
  5
29
330
8
100
AcDbSymbolTableRecord
100
AcDbViewportTableRecord
  2
*Active
 70
     0
 10
0.0
 20
0.0
 11
1.0
 21
1.0
 12
148.5
 22
105.0
 13
0.0
 23
0.0
 14
10.0
 24
10.0
 15
10.0
 25
10.0
 16
0.0
 26
0.0
 36
1.0
 17
0.0
 27
0.0
 37
0.0
 40
210.0
 41
1.4142857143
 42
50.0
 43
0.0
 44
0.0
 50
0.0
 51
0.0
 71
     0
 72
  2000
 73
     1
 74
     3
 75
     0
 76
     0
 77
     0
 78
     0
281
     0
 65
     1
110
0.0
120
0.0
130
0.0
111
1.0
121
0.0
131
0.0
112
0.0
122
1.0
132
0.0
 79
     0
146
0.0
  0
ENDTAB
  0
TABLE
  2
LTYPE
  5
5
330
0
100
AcDbSymbolTable
 70
     6
  0
LTYPE
  5
14
330
5
100
AcDbSymbolTableRecord
100
AcDbLinetypeTableRecord
  2
ByBlock
 70
     0
  3

 72
    65
 73
     0
 40
0.0
  0
LTYPE
  5
15
330
5
100
AcDbSymbolTableRecord
100
AcDbLinetypeTableRecord
  2
ByLayer
 70
     0
  3

 72
    65
 73
     0
 40
0.0
  0
LTYPE
  5
16
330
5
100
AcDbSymbolTableRecord
100
AcDbLinetypeTableRecord
  2
Continuous
 70
     0
  3
Solid line
 72
    65
 73
     0
 40
0.0
  0
LTYPE
  5
6E
330
5
100
AcDbSymbolTableRecord
100
AcDbLinetypeTableRecord
  2
HIDDEN
 70
     0
  3
Hidden __ __ __ __ __ __ __ __ __ __ __ __ __ __
 72
    65
 73
     2
 40
1.905
 49
1.27
 74
     0
 49
-0.635
 74
     0
  0
LTYPE
  5
6F
330
5
100
AcDbSymbolTableRecord
100
AcDbLinetypeTableRecord
  2
PHANTOM
 70
     0
  3
Phantom ______  __  __  ______  __  __  ______
 72
    65
 73
     6
 40
12.7
 49
6.35
 74
     0
 49
-1.27
 74
     0
 49
1.27
 74
     0
 49
-1.27
 74
     0
 49
1.27
 74
     0
 49
-1.27
 74
     0
  0
LTYPE
  5
70
330
5
100
AcDbSymbolTableRecord
100
AcDbLinetypeTableRecord
  2
CENTER
 70
     0
  3
Center ____ _ ____ _ ____ _ ____ _ ____ _ ____
 72
    65
 73
     4
 40
10.16
 49
6.35
 74
     0
 49
-1.27
 74
     0
 49
1.27
 74
     0
 49
-1.27
 74
     0
  0
LTYPE
  5
71
330
5
100
AcDbSymbolTableRecord
100
AcDbLinetypeTableRecord
  2
CENTERX2
 70
     0
  3
Center (2x) ________  __  ________  __  _____
 72
    65
 73
     4
 40
20.32
 49
12.7
 74
     0
 49
-2.54
 74
     0
 49
2.54
 74
     0
 49
-2.54
 74
     0
  0
LTYPE
  5
72
330
5
100
AcDbSymbolTableRecord
100
AcDbLinetypeTableRecord
  2
DOT2
 70
     0
  3
Dot (.5x) ........................................
 72
    65
 73
     2
 40
0.635
 49
0.0
 74
     0
 49
-0.635
 74
     0
  0
ENDTAB
  0
TABLE
  2
LAYER
  5
2
330
0
100
AcDbSymbolTable
 70
     5
  0
LAYER
  5
10
330
2
100
AcDbSymbolTableRecord
100
AcDbLayerTableRecord
  2
0
 70
     0
 62
     7
  6
Continuous
370
    -3
390
F
  0
LAYER
  5
73
330
2
100
AcDbSymbolTableRecord
100
AcDbLayerTableRecord
  2
FORMAT
 70
     0
 62
     7
  6
Continuous
370
    -3
390
F
  0
LAYER
  5
74
330
2
100
AcDbSymbolTableRecord
100
AcDbLayerTableRecord
  2
VERMASSUNG
 70
     0
 62
     7
  6
Continuous
370
    -3
390
F
  0
LAYER
  5
75
330
2
100
AcDbSymbolTableRecord
100
AcDbLayerTableRecord
  2
KOPF_DÜNN
 70
     0
 62
     7
  6
Continuous
370
    -3
390
F
  0
LAYER
  5
76
330
2
100
AcDbSymbolTableRecord
100
AcDbLayerTableRecord
  2
KOPF_DICK
 70
     0
 62
     7
  6
Continuous
370
    15
390
F
  0
ENDTAB
  0
TABLE
  2
STYLE
  5
3
330
0
100
AcDbSymbolTable
 70
     2
  0
STYLE
  5
11
330
3
100
AcDbSymbolTableRecord
100
AcDbTextStyleTableRecord
  2
Standard
 70
     0
 40
0.0
 41
1.0
 50
0.0
 71
     0
 42
2.0
  3
txt
  4

  0
STYLE
  5
77
330
3
100
AcDbSymbolTableRecord
100
AcDbTextStyleTableRecord
  2
SLDTEXTSTYLE0
 70
     0
 40
0.0
 41
0.7
 50
0.0
 71
     0
 42
2.0
  3
TXT
  4

  0
ENDTAB
  0
TABLE
  2
VIEW
  5
6
330
0
100
AcDbSymbolTable
 70
     0
  0
ENDTAB
  0
TABLE
  2
UCS
  5
7
330
0
100
AcDbSymbolTable
 70
     0
  0
ENDTAB
  0
TABLE
  2
APPID
  5
9
330
0
100
AcDbSymbolTable
 70
     1
  0
APPID
  5
12
330
9
100
AcDbSymbolTableRecord
100
AcDbRegAppTableRecord
  2
ACAD
 70
     0
  0
ENDTAB
  0
TABLE
  2
DIMSTYLE
  5
A
330
0
100
AcDbSymbolTable
 70
     2
100
AcDbDimStyleTable
  0
DIMSTYLE
105
27
330
A
100
AcDbSymbolTableRecord
100
AcDbDimStyleTableRecord
  2
ISO-25
 70
     0
 41
2.5
 42
0.625
 43
3.75
 44
1.25
 73
     0
 74
     0
 77
     1
 78
     8
140
2.5
141
2.5
143
0.0393700787
147
0.625
171
     3
172
     1
178
     0
271
     2
272
     2
274
     3
278
    44
283
     0
284
     8
340
11
  0
DIMSTYLE
105
1C7
102
{ACAD_REACTORS
330
1C6
330
1D3
330
1DE
330
1EA
330
1F4
330
200
102
}
330
A
100
AcDbSymbolTableRecord
100
AcDbDimStyleTableRecord
  2
SLDDIMSTYLE0
 70
     0
 41
3.0
 44
0.0
 45
0.000000001
 73
     0
 74
     0
 77
     1
 78
    12
 79
     3
140
2.0
147
0.5
173
     1
178
     0
271
     2
272
     3
276
     2
284
    12
340
77
  0
ENDTAB
  0
TABLE
  2
BLOCK_RECORD
  5
1
330
0
100
AcDbSymbolTable
 70
     7
  0
BLOCK_RECORD
  5
1F
330
1
100
AcDbSymbolTableRecord
100
AcDbBlockTableRecord
  2
*Model_Space
340
22
  0
BLOCK_RECORD
  5
1B
330
1
100
AcDbSymbolTableRecord
100
AcDbBlockTableRecord
  2
*Paper_Space
340
1E
  0
BLOCK_RECORD
  5
23
330
1
100
AcDbSymbolTableRecord
100
AcDbBlockTableRecord
  2
*Paper_Space0
340
26
  0
BLOCK_RECORD
  5
1C8
330
1
100
AcDbSymbolTableRecord
100
AcDbBlockTableRecord
  2
_D
340
0
  0
BLOCK_RECORD
  5
1D4
330
1
100
AcDbSymbolTableRecord
100
AcDbBlockTableRecord
  2
_D_1
340
0
  0
BLOCK_RECORD
  5
1DF
330
1
100
AcDbSymbolTableRecord
100
AcDbBlockTableRecord
  2
_D_2
340
0
  0
BLOCK_RECORD
  5
1EB
330
1
100
AcDbSymbolTableRecord
100
AcDbBlockTableRecord
  2
_D_3
340
0
  0
BLOCK_RECORD
  5
1F5
330
1
100
AcDbSymbolTableRecord
100
AcDbBlockTableRecord
  2
_D_4
340
0
  0
BLOCK_RECORD
  5
201
330
1
100
AcDbSymbolTableRecord
100
AcDbBlockTableRecord
  2
_D_5
340
0
  0
ENDTAB
  0
ENDSEC
  0
SECTION
  2
BLOCKS
  0
BLOCK
  5
20
330
1F
100
AcDbEntity
  8
0
100
AcDbBlockBegin
  2
*Model_Space
 70
     0
 10
0.0
 20
0.0
 30
0.0
  3
*Model_Space
  1

  0
ENDBLK
  5
21
330
1F
100
AcDbEntity
  8
0
100
AcDbBlockEnd
  0
BLOCK
  5
1C
330
1B
100
AcDbEntity
 67
     1
  8
0
100
AcDbBlockBegin
  2
*Paper_Space
 70
     0
 10
0.0
 20
0.0
 30
0.0
  3
*Paper_Space
  1

  0
ENDBLK
  5
1D
330
1B
100
AcDbEntity
 67
     1
  8
0
100
AcDbBlockEnd
  0
BLOCK
  5
24
330
23
100
AcDbEntity
  8
0
100
AcDbBlockBegin
  2
*Paper_Space0
 70
     0
 10
0.0
 20
0.0
 30
0.0
  3
*Paper_Space0
  1

  0
ENDBLK
  5
25
330
23
100
AcDbEntity
  8
0
100
AcDbBlockEnd
  0
BLOCK
  5
1C9
330
1C8
100
AcDbEntity
  8
0
100
AcDbBlockBegin
  2
_D
 70
     0
 10
0.0
 20
0.0
 30
0.0
  3
_D
  1

  0
SOLID
  5
1CB
330
1C8
100
AcDbEntity
  8
VERMASSUNG
100
AcDbTrace
 10
69.916350368
 20
59.6617069541
 30
0.0
 11
70.366350368
 21
62.6617069541
 31
0.0
 12
69.466350368
 22
62.6617069541
 32
0.0
 13
69.466350368
 23
62.6617069541
 33
0.0
  0
SOLID
  5
1CC
330
1C8
100
AcDbEntity
  8
VERMASSUNG
100
AcDbTrace
 10
69.916350368
 20
157.1117069541
 30
0.0
 11
69.466350368
 21
154.1117069541
 31
0.0
 12
70.366350368
 22
154.1117069541
 32
0.0
 13
70.366350368
 23
154.1117069541
 33
0.0
  0
LINE
  5
1CD
330
1C8
100
AcDbEntity
  8
VERMASSUNG
100
AcDbLine
 10
198.237500989
 20
59.6617069541
 30
0.0
 11
68.916350368
 21
59.6617069541
 31
0.0
  0
LINE
  5
1CE
330
1C8
100
AcDbEntity
  8
VERMASSUNG
100
AcDbLine
 10
198.237500989
 20
157.1117069541
 30
0.0
 11
68.916350368
 21
157.1117069541
 31
0.0
  0
LINE
  5
1CF
330
1C8
100
AcDbEntity
  8
VERMASSUNG
100
AcDbLine
 10
69.916350368
 20
59.6617069541
 30
0.0
 11
69.916350368
 21
157.1117069541
 31
0.0
  0
MTEXT
  5
1D0
330
1C8
100
AcDbEntity
  8
VERMASSUNG
100
AcDbMText
 10
67.1382151118
 20
98.8822713207
 30
0.0
 40
2.0
 41
0.0
 71
     1
 72
     1
  1
ISO 50
  7
SLDTEXTSTYLE0
 11
3.391901413832837E-15
 21
1.0
 31
0.0
 73
     1
 44
1.0
  0
MTEXT
  5
1D1
330
1C8
100
AcDbEntity
  8
VERMASSUNG
100
AcDbMText
 10
67.3382150631
 20
107.8822709333
 30
0.0
 40
2.0
 41
0.0
 71
     1
 72
     1
  1
%%c
  7
SLDTEXTSTYLE0
 11
3.391901413832837E-15
 21
1.0
 31
0.0
 73
     1
 44
1.0
  0
MTEXT
  5
1D2
330
1C8
100
AcDbEntity
  8
VERMASSUNG
100
AcDbMText
 10
67.338214772
 20
111.4916142661
 30
0.0
 40
2.0
 41
0.0
 71
     1
 72
     1
  1
97.45
  7
SLDTEXTSTYLE0
 11
3.391901413832837E-15
 21
1.0
 31
0.0
 73
     1
 44
1.0
  0
ENDBLK
  5
1CA
330
1C8
100
AcDbEntity
  8
0
100
AcDbBlockEnd
  0
BLOCK
  5
1D5
330
1D4
100
AcDbEntity
  8
0
100
AcDbBlockBegin
  2
_D_1
 70
     0
 10
0.0
 20
0.0
 30
0.0
  3
_D_1
  1

  0
SOLID
  5
1D7
330
1D4
100
AcDbEntity
  8
VERMASSUNG
100
AcDbTrace
 10
236.8660349957
 20
115.3867069541
 30
0.0
 11
236.4160349957
 21
112.3867069541
 31
0.0
 12
237.3160349957
 22
112.3867069541
 32
0.0
 13
237.3160349957
 23
112.3867069541
 33
0.0
  0
SOLID
  5
1D8
330
1D4
100
AcDbEntity
  8
VERMASSUNG
100
AcDbTrace
 10
236.8660349957
 20
101.3867069541
 30
0.0
 11
237.3160349957
 21
104.3867069541
 31
0.0
 12
236.4160349957
 22
104.3867069541
 32
0.0
 13
236.4160349957
 23
104.3867069541
 33
0.0
  0
LINE
  5
1D9
330
1D4
100
AcDbEntity
  8
VERMASSUNG
100
AcDbLine
 10
222.887500989
 20
115.3867069541
 30
0.0
 11
237.8660349957
 21
115.3867069541
 31
0.0
  0
LINE
  5
1DA
330
1D4
100
AcDbEntity
  8
VERMASSUNG
100
AcDbLine
 10
222.887500989
 20
101.3867069541
 30
0.0
 11
237.8660349957
 21
101.3867069541
 31
0.0
  0
LINE
  5
1DB
330
1D4
100
AcDbEntity
  8
VERMASSUNG
100
AcDbLine
 10
236.8660349957
 20
115.3867069541
 30
0.0
 11
236.8660349957
 21
101.3867069541
 31
0.0
  0
MTEXT
  5
1DC
330
1D4
100
AcDbEntity
  8
VERMASSUNG
100
AcDbMText
 10
234.2878994579
 20
105.2829026286
 30
0.0
 40
2.0
 41
0.0
 71
     1
 72
     1
  1
%%c
  7
SLDTEXTSTYLE0
 11
-7.044195017643634E-15
 21
1.0
 31
0.0
 73
     1
 44
1.0
  0
MTEXT
  5
1DD
330
1D4
100
AcDbEntity
  8
VERMASSUNG
100
AcDbMText
 10
234.2878993997
 20
108.8918748222
 30
0.0
 40
2.0
 41
0.0
 71
     1
 72
     1
  1
14
  7
SLDTEXTSTYLE0
 11
-7.044195017643634E-15
 21
1.0
 31
0.0
 73
     1
 44
1.0
  0
ENDBLK
  5
1D6
330
1D4
100
AcDbEntity
  8
0
100
AcDbBlockEnd
  0
BLOCK
  5
1E0
330
1DF
100
AcDbEntity
  8
0
100
AcDbBlockBegin
  2
_D_2
 70
     0
 10
0.0
 20
0.0
 30
0.0
  3
_D_2
  1

  0
ARC
  5
1E2
330
1DF
100
AcDbEntity
  8
VERMASSUNG
100
AcDbCircle
 10
213.4242945009
 20
163.2026116432
 30
0.0
 40
4.247059938537361
100
AcDbArc
 50
153.4349488229
 51
206.5650511771
  0
ARC
  5
1E3
330
1DF
100
AcDbEntity
  8
VERMASSUNG
100
AcDbCircle
 10
215.2007074772
 20
163.2026116432
 30
0.0
 40
4.247059938537335
100
AcDbArc
 50
333.4349488229
 51
26.5650511771
  0
SOLID
  5
1E4
330
1DF
100
AcDbEntity
  8
VERMASSUNG
100
AcDbTrace
 10
198.837500989
 20
161.3032686977
 30
0.0
 11
201.837500989
 21
160.8532686977
 31
0.0
 12
201.837500989
 22
161.7532686977
 32
0.0
 13
201.837500989
 23
161.7532686977
 33
0.0
  0
SOLID
  5
1E5
330
1DF
100
AcDbEntity
  8
VERMASSUNG
100
AcDbTrace
 10
229.787500989
 20
161.3032686977
 30
0.0
 11
226.787500989
 21
161.7532686977
 31
0.0
 12
226.787500989
 22
160.8532686977
 32
0.0
 13
226.787500989
 23
160.8532686977
 33
0.0
  0
LINE
  5
1E6
330
1DF
100
AcDbEntity
  8
VERMASSUNG
100
AcDbLine
 10
198.837500989
 20
154.6816939073
 30
0.0
 11
198.837500989
 21
162.3032686977
 31
0.0
  0
LINE
  5
1E7
330
1DF
100
AcDbEntity
  8
VERMASSUNG
100
AcDbLine
 10
229.787500989
 20
120.6867069541
 30
0.0
 11
229.787500989
 21
162.3032686977
 31
0.0
  0
LINE
  5
1E8
330
1DF
100
AcDbEntity
  8
VERMASSUNG
100
AcDbLine
 10
198.837500989
 20
161.3032686977
 30
0.0
 11
229.787500989
 21
161.3032686977
 31
0.0
  0
MTEXT
  5
1E9
330
1DF
100
AcDbEntity
  8
VERMASSUNG
100
AcDbMText
 10
211.21310861
 20
163.8814042937
 30
0.0
 40
2.0
 41
0.0
 71
     1
 72
     1
  1
30.95
  7
SLDTEXTSTYLE0
 73
     1
 44
1.0
  0
ENDBLK
  5
1E1
330
1DF
100
AcDbEntity
  8
0
100
AcDbBlockEnd
  0
BLOCK
  5
1EC
330
1EB
100
AcDbEntity
  8
0
100
AcDbBlockBegin
  2
_D_3
 70
     0
 10
0.0
 20
0.0
 30
0.0
  3
_D_3
  1

  0
SOLID
  5
1EE
330
1EB
100
AcDbEntity
  8
VERMASSUNG
100
AcDbTrace
 10
179.787500989
 20
167.3032686977
 30
0.0
 11
182.787500989
 21
166.8532686977
 31
0.0
 12
182.787500989
 22
167.7532686977
 32
0.0
 13
182.787500989
 23
167.7532686977
 33
0.0
  0
SOLID
  5
1EF
330
1EB
100
AcDbEntity
  8
VERMASSUNG
100
AcDbTrace
 10
229.787500989
 20
167.3032686977
 30
0.0
 11
226.787500989
 21
167.7532686977
 31
0.0
 12
226.787500989
 22
166.8532686977
 32
0.0
 13
226.787500989
 23
166.8532686977
 33
0.0
  0
LINE
  5
1F0
330
1EB
100
AcDbEntity
  8
VERMASSUNG
100
AcDbLine
 10
179.787500989
 20
143.3117069541
 30
0.0
 11
179.787500989
 21
168.3032686977
 31
0.0
  0
LINE
  5
1F1
330
1EB
100
AcDbEntity
  8
VERMASSUNG
100
AcDbLine
 10
229.787500989
 20
120.6867069541
 30
0.0
 11
229.787500989
 21
168.3032686977
 31
0.0
  0
LINE
  5
1F2
330
1EB
100
AcDbEntity
  8
VERMASSUNG
100
AcDbLine
 10
179.787500989
 20
167.3032686977
 30
0.0
 11
229.787500989
 21
167.3032686977
 31
0.0
  0
MTEXT
  5
1F3
330
1EB
100
AcDbEntity
  8
VERMASSUNG
100
AcDbMText
 10
203.3878109787
 20
169.8814042937
 30
0.0
 40
2.0
 41
0.0
 71
     1
 72
     1
  1
50
  7
SLDTEXTSTYLE0
 73
     1
 44
1.0
  0
ENDBLK
  5
1ED
330
1EB
100
AcDbEntity
  8
0
100
AcDbBlockEnd
  0
BLOCK
  5
1F6
330
1F5
100
AcDbEntity
  8
0
100
AcDbBlockBegin
  2
_D_4
 70
     0
 10
0.0
 20
0.0
 30
0.0
  3
_D_4
  1

  0
SOLID
  5
1F8
330
1F5
100
AcDbEntity
  8
VERMASSUNG
100
AcDbTrace
 10
242.8660349957
 20
120.8867069541
 30
0.0
 11
242.4160349957
 21
117.8867069541
 31
0.0
 12
243.3160349957
 22
117.8867069541
 32
0.0
 13
243.3160349957
 23
117.8867069541
 33
0.0
  0
SOLID
  5
1F9
330
1F5
100
AcDbEntity
  8
VERMASSUNG
100
AcDbTrace
 10
242.8660349957
 20
95.8867069541
 30
0.0
 11
243.3160349957
 21
98.8867069541
 31
0.0
 12
242.4160349957
 22
98.8867069541
 32
0.0
 13
242.4160349957
 23
98.8867069541
 33
0.0
  0
LINE
  5
1FA
330
1F5
100
AcDbEntity
  8
VERMASSUNG
100
AcDbLine
 10
229.587500989
 20
120.8867069541
 30
0.0
 11
243.8660349957
 21
120.8867069541
 31
0.0
  0
LINE
  5
1FB
330
1F5
100
AcDbEntity
  8
VERMASSUNG
100
AcDbLine
 10
229.587500989
 20
95.8867069541
 30
0.0
 11
243.8660349957
 21
95.8867069541
 31
0.0
  0
LINE
  5
1FC
330
1F5
100
AcDbEntity
  8
VERMASSUNG
100
AcDbLine
 10
242.8660349957
 20
120.8867069541
 30
0.0
 11
242.8660349957
 21
95.8867069541
 31
0.0
  0
MTEXT
  5
1FD
330
1F5
100
AcDbEntity
  8
VERMASSUNG
100
AcDbMText
 10
240.0878997394
 20
102.2817077322
 30
0.0
 40
2.0
 41
0.0
 71
     1
 72
     1
  1
ST2
  7
SLDTEXTSTYLE0
 11
-7.044195017643634E-15
 21
1.0
 31
0.0
 73
     1
 44
1.0
  0
MTEXT
  5
1FE
330
1F5
100
AcDbEntity
  8
VERMASSUNG
100
AcDbMText
 10
240.2878996907
 20
108.0817076584
 30
0.0
 40
2.0
 41
0.0
 71
     1
 72
     1
  1
%%c
  7
SLDTEXTSTYLE0
 11
-7.044195017643634E-15
 21
1.0
 31
0.0
 73
     1
 44
1.0
  0
MTEXT
  5
1FF
330
1F5
100
AcDbEntity
  8
VERMASSUNG
100
AcDbMText
 10
240.0878997394
 20
111.6917072071
 30
0.0
 40
2.0
 41
0.0
 71
     1
 72
     1
  1
25
  7
SLDTEXTSTYLE0
 11
-7.044195017643634E-15
 21
1.0
 31
0.0
 73
     1
 44
1.0
  0
ENDBLK
  5
1F7
330
1F5
100
AcDbEntity
  8
0
100
AcDbBlockEnd
  0
BLOCK
  5
202
330
201
100
AcDbEntity
  8
0
100
AcDbBlockBegin
  2
_D_5
 70
     0
 10
0.0
 20
0.0
 30
0.0
  3
_D_5
  1

  0
ARC
  5
204
330
201
100
AcDbEntity
  8
VERMASSUNG
100
AcDbCircle
 10
155.0875010122
 20
174.5433786516
 30
0.0
 40
4.248529228887608
100
AcDbArc
 50
153.4349488229
 51
206.5650511771
  0
ARC
  5
205
330
201
100
AcDbEntity
  8
VERMASSUNG
100
AcDbCircle
 10
152.8875010241
 20
174.5433786516
 30
0.0
 40
4.248529228887633
100
AcDbArc
 50
333.4349488229
 51
26.5650511771
  0
SOLID
  5
206
330
201
100
AcDbEntity
  8
VERMASSUNG
100
AcDbTrace
 10
229.787500989
 20
172.6433783867
 30
0.0
 11
226.787500989
 21
173.0933783867
 31
0.0
 12
226.787500989
 22
172.1933783867
 32
0.0
 13
226.787500989
 23
172.1933783867
 33
0.0
  0
SOLID
  5
207
330
201
100
AcDbEntity
  8
VERMASSUNG
100
AcDbTrace
 10
78.187500989
 20
172.6433783867
 30
0.0
 11
81.187500989
 21
172.1933783867
 31
0.0
 12
81.187500989
 22
173.0933783867
 32
0.0
 13
81.187500989
 23
173.0933783867
 33
0.0
  0
LINE
  5
208
330
201
100
AcDbEntity
  8
VERMASSUNG
100
AcDbLine
 10
229.787500989
 20
120.6867069541
 30
0.0
 11
229.787500989
 21
173.6433783867
 31
0.0
  0
LINE
  5
209
330
201
100
AcDbEntity
  8
VERMASSUNG
100
AcDbLine
 10
78.187500989
 20
126.7655514815
 30
0.0
 11
78.187500989
 21
173.6433783867
 31
0.0
  0
LINE
  5
20A
330
201
100
AcDbEntity
  8
VERMASSUNG
100
AcDbLine
 10
229.787500989
 20
172.6433783867
 30
0.0
 11
78.187500989
 21
172.6433783867
 31
0.0
  0
MTEXT
  5
20B
330
201
100
AcDbEntity
  8
VERMASSUNG
100
AcDbMText
 10
151.2875009481
 20
175.2215142155
 30
0.0
 40
2.0
 41
0.0
 71
     1
 72
     1
  1
151.6
  7
SLDTEXTSTYLE0
 73
     1
 44
1.0
  0
ENDBLK
  5
203
330
201
100
AcDbEntity
  8
0
100
AcDbBlockEnd
  0
ENDSEC
  0
SECTION
  2
ENTITIES
  0
MTEXT
  5
78
330
1F
100
AcDbEntity
  8
KOPF_DÜNN
100
AcDbMText
 10
13.8892156294
 20
23.8442973028
 30
0.0
 40
3.0
 41
0.0
 71
     1
 72
     1
  1
124.450.025.050
  7
SLDTEXTSTYLE0
 73
     1
 44
1.0
  0
MTEXT
  5
79
330
1F
100
AcDbEntity
  8
VERMASSUNG
100
AcDbMText
 10
13.9329988022
 20
28.8834360957
 30
0.0
 40
3.0
 41
0.0
 71
     1
 72
     1
  1
Aufnahme_Master shank ST2
  7
SLDTEXTSTYLE0
 73
     1
 44
1.0
  0
MTEXT
  5
7A
330
1F
100
AcDbEntity
  8
VERMASSUNG
100
AcDbMText
 10
98.8601118557
 20
13.8365368761
 30
0.0
 40
2.0
 41
0.0
 71
     1
 72
     1
  1
Datum: 14.05.2008
  7
SLDTEXTSTYLE0
 73
     1
 44
1.0
  0
MTEXT
  5
7B
330
1F
100
AcDbEntity
  8
VERMASSUNG
100
AcDbMText
 10
13.933048693
 20
18.0482802738
 30
0.0
 40
2.0
 41
0.0
 71
     1
 72
     1
  1
DIN 69871 B ISO 50
  7
SLDTEXTSTYLE0
 73
     1
 44
1.0
  0
MTEXT
  5
7C
330
1F
100
AcDbEntity
  8
VERMASSUNG
100
AcDbMText
 10
13.9808475933
 20
13.9090974274
 30
0.0
 40
2.0
 41
0.0
 71
     1
 72
     1
  1
Gewicht: 2748g
  7
SLDTEXTSTYLE0
 73
     1
 44
1.0
  0
ARC
  5
7D
330
1F
100
AcDbEntity
  8
0
  6
Continuous
 62
     7
370
    15
100
AcDbCircle
 10
182.387500989
 20
72.8617069541
 30
0.0
 40
0.6000000000000227
100
AcDbArc
 50
0.0
 51
90.0
  0
ARC
  5
7E
330
1F
100
AcDbEntity
  8
0
  6
Continuous
 62
     7
370
    15
100
AcDbCircle
 10
182.387500989
 20
143.9117069541
 30
0.0
 40
0.5999999999999943
100
AcDbArc
 50
270.0
 51
0.0
  0
LINE
  5
7F
330
1F
100
AcDbEntity
  8
0
  6
Continuous
 62
     7
370
    15
100
AcDbLine
 10
179.787500989
 20
143.3117058335
 30
0.0
 11
79.8988856788
 21
128.7446174977
 31
0.0
  0
LINE
  5
80
330
1F
100
AcDbEntity
  8
0
  6
Continuous
 62
     7
370
    15
100
AcDbLine
 10
79.8988856788
 20
88.0287964104
 30
0.0
 11
179.787500989
 21
73.4617080746
 31
0.0
  0
LINE
  5
81
330
1F
100
AcDbEntity
  8
0
  6
Continuous
 62
     7
370
    15
100
AcDbLine
 10
179.787500989
 20
73.4617080746
 30
0.0
 11
182.3875009961
 21
73.4617080746
 31
0.0
  0
LINE
  5
82
330
1F
100
AcDbEntity
  8
0
  6
Continuous
 62
     7
370
    15
100
AcDbLine
 10
182.3875009961
 20
143.3117058335
 30
0.0
 11
179.787500989
 21
143.3117058335
 31
0.0
  0
ARC
  5
83
330
1F
100
AcDbEntity
  8
0
  6
Continuous
 62
     7
370
    15
100
AcDbCircle
 10
80.187500989
 20
90.0078624267
 30
0.0
 40
2.0
100
AcDbArc
 50
180.0
 51
261.7028550302
  0
ARC
  5
84
330
1F
100
AcDbEntity
  8
0
  6
Continuous
 62
     7
370
    15
100
AcDbCircle
 10
80.187500989
 20
126.7655514815
 30
0.0
 40
2.000000000000008
100
AcDbArc
 50
98.2971449698
 51
180.0
  0
ARC
  5
85
330
1F
100
AcDbEntity
  8
0
  6
Continuous
 62
     7
370
    15
100
AcDbCircle
 10
202.837500989
 20
91.8867069541
 30
0.0
 40
4.0
100
AcDbArc
 50
90.0
 51
180.0
  0
ARC
  5
86
330
1F
100
AcDbEntity
  8
0
  6
Continuous
 62
     7
370
    15
100
AcDbCircle
 10
202.837500989
 20
124.8867069541
 30
0.0
 40
4.000000000000014
100
AcDbArc
 50
180.0
 51
270.0
  0
LINE
  5
87
330
1F
100
AcDbEntity
  8
0
  6
Continuous
 62
     7
370
    15
100
AcDbLine
 10
229.5875020738
 20
120.8867071403
 30
0.0
 11
202.8375018801
 21
120.8867071403
 31
0.0
  0
LINE
  5
88
330
1F
100
AcDbEntity
  8
0
  6
Continuous
 62
     7
370
    15
100
AcDbLine
 10
202.8375018801
 20
95.8867067678
 30
0.0
 11
229.5875020738
 21
95.8867067678
 31
0.0
  0
LINE
  5
89
330
1F
100
AcDbEntity
  8
0
  6
Continuous
 62
     7
370
    15
100
AcDbLine
 10
229.5875020738
 20
95.8867067678
 30
0.0
 11
229.7875017341
 21
96.0867073594
 31
0.0
  0
LINE
  5
8A
330
1F
100
AcDbEntity
  8
0
  6
Continuous
 62
     7
370
    15
100
AcDbLine
 10
229.7875017341
 20
120.6867065488
 30
0.0
 11
229.5875020738
 21
120.8867071403
 31
0.0
  0
ARC
  5
8B
330
1F
100
AcDbEntity
  8
0
  6
Continuous
 62
     7
370
    15
100
AcDbCircle
 10
193.987500989
 20
93.9209649921
 30
0.0
 40
2.000000000000005
100
AcDbArc
 50
192.2156859341
 51
340.5237441826
  0
SPLINE
  5
8C
330
1F
100
AcDbEntity
  8
0
  6
Continuous
 62
     7
370
    15
100
AcDbSpline
210
0.0
220
0.0
230
1.0
 70
     8
 71
     3
 72
    11
 73
     7
 74
     0
 42
0.000000001
 43
0.00000001
 40
0.0
 40
0.0
 40
0.0
 40
0.0
 40
0.1285562027199389
 40
0.4801534162450223
 40
0.8150693783443744
 40
1.0
 40
1.0
 40
1.0
 40
1.0
 10
222.7049760933654
 20
107.0451596027378
 30
0.0
 10
222.6689095043504
 20
107.090746711998
 30
0.0
 10
222.53420191684
 20
107.2610131463271
 30
0.0
 10
222.2815961280214
 20
107.5803021566261
 30
0.0
 10
222.0080747242869
 20
107.9260229669784
 30
0.0
 10
221.8615489480146
 20
108.1112289897363
 30
0.0
 10
221.8094237561958
 20
108.1771143220503
 30
0.0
  0
SPLINE
  5
8D
330
1F
100
AcDbEntity
  8
0
  6
Continuous
 62
     7
370
    15
100
AcDbSpline
210
0.0
220
0.0
230
1.0
 70
     8
 71
     3
 72
    10
 73
     6
 74
     0
 42
0.000000001
 43
0.00000001
 40
0.0
 40
0.0
 40
0.0
 40
0.0
 40
0.4391108199117827
 40
0.7513642622818993
 40
1.0
 40
1.0
 40
1.0
 40
1.0
 10
224.1330512281196
 20
107.2547522347558
 30
0.0
 10
223.9286142160358
 20
107.2247476597758
 30
0.0
 10
223.5788012353437
 20
107.173406712747
 30
0.0
 10
223.0702826474435
 20
107.0987744327635
 30
0.0
 10
222.8171755606933
 20
107.061626746025
 30
0.0
 10
222.7049760933654
 20
107.0451596027378
 30
0.0
  0
SPLINE
  5
8E
330
1F
100
AcDbEntity
  8
0
  6
Continuous
 62
     7
370
    15
100
AcDbSpline
210
0.0
220
0.0
230
1.0
 70
     8
 71
     3
 72
    10
 73
     6
 74
     0
 42
0.000000001
 43
0.00000001
 40
0.0
 40
0.0
 40
0.0
 40
0.0
 40
0.4391117421467813
 40
0.7513633555702174
 40
1.0
 40
1.0
 40
1.0
 40
1.0
 10
224.6655777509944
 20
108.5962995860863
 30
0.0
 10
224.5893440145506
 20
108.4042487813204
 30
0.0
 10
224.4589005977061
 20
108.07563097574
 30
0.0
 10
224.2692729361987
 20
107.5979251794409
 30
0.0
 10
224.1748902231892
 20
107.3601540194137
 30
0.0
 10
224.1330512281196
 20
107.2547522347558
 30
0.0
  0
SPLINE
  5
8F
330
1F
100
AcDbEntity
  8
0
  6
Continuous
 62
     7
370
    15
100
AcDbSpline
210
0.0
220
0.0
230
1.0
 70
     8
 71
     3
 72
    11
 73
     7
 74
     0
 42
0.000000001
 43
0.00000001
 40
0.0
 40
0.0
 40
0.0
 40
0.0
 40
0.1849320275643933
 40
0.5198465072537498
 40
0.8714437424042121
 40
1.0
 40
1.0
 40
1.0
 40
1.0
 10
223.7700254138248
 20
109.7282543053988
 30
0.0
 10
223.8221521082658
 20
109.6623691876223
 30
0.0
 10
223.9686809729342
 20
109.4771652031789
 30
0.0
 10
224.2421967784766
 20
109.1314405726278
 30
0.0
 10
224.4948037363061
 20
108.8121533126549
 30
0.0
 10
224.6295111885472
 20
108.6418867436112
 30
0.0
 10
224.6655777509944
 20
108.5962995860863
 30
0.0
  0
SPLINE
  5
90
330
1F
100
AcDbEntity
  8
0
  6
Continuous
 62
     7
370
    15
100
AcDbSpline
210
0.0
220
0.0
230
1.0
 70
     8
 71
     3
 72
    10
 73
     6
 74
     0
 42
0.000000001
 43
0.00000001
 40
0.0
 40
0.0
 40
0.0
 40
0.0
 40
0.4391132106048688
 40
0.751364240068781
 40
1.0
 40
1.0
 40
1.0
 40
1.0
 10
222.3419502790706
 20
109.5186616733808
 30
0.0
 10
222.5463885622464
 20
109.5486660945273
 30
0.0
 10
222.8962018030454
 20
109.6000064972958
 30
0.0
 10
223.4047199391159
 20
109.674639784461
 30
0.0
 10
223.6578259397189
 20
109.7117872073942
 30
0.0
 10
223.7700254138248
 20
109.7282543053988
 30
0.0
  0
SPLINE
  5
91
330
1F
100
AcDbEntity
  8
0
  6
Continuous
 62
     7
370
    15
100
AcDbSpline
210
0.0
220
0.0
230
1.0
 70
     8
 71
     3
 72
    10
 73
     6
 74
     0
 42
0.000000001
 43
0.00000001
 40
0.0
 40
0.0
 40
0.0
 40
0.0
 40
0.4391117421467813
 40
0.7513633555702174
 40
1.0
 40
1.0
 40
1.0
 40
1.0
 10
221.8094237561958
 20
108.1771143220503
 30
0.0
 10
221.8856574926397
 20
108.3691651268162
 30
0.0
 10
222.0161009094841
 20
108.6977829323966
 30
0.0
 10
222.2057285709916
 20
109.1754887286957
 30
0.0
 10
222.3001112840011
 20
109.413259888723
 30
0.0
 10
222.3419502790706
 20
109.5186616733808
 30
0.0
  0
CIRCLE
  5
92
330
1F
100
AcDbEntity
  8
0
  6
Continuous
 62
     7
370
    15
100
AcDbCircle
 10
223.237500989
 20
108.3867069541
 30
0.0
 40
1.499999999999982
  0
CIRCLE
  5
93
330
1F
100
AcDbEntity
  8
0
  6
Continuous
 62
     7
370
    15
100
AcDbCircle
 10
223.237500989
 20
108.3867069541
 30
0.0
 40
2.249999999999988
  0
CIRCLE
  5
94
330
1F
100
AcDbEntity
  8
0
  6
Continuous
 62
     7
370
    15
100
AcDbCircle
 10
223.237500989
 20
108.3867069541
 30
0.0
 40
2.499999999999993
  0
ARC
  5
95
330
1F
100
AcDbEntity
  8
0
  6
Continuous
 62
     7
370
    15
100
AcDbCircle
 10
223.237500989
 20
108.3867069541
 30
0.0
 40
1.250000000000014
100
AcDbArc
 50
338.3494422281
 51
38.3494422281
  0
ARC
  5
96
330
1F
100
AcDbEntity
  8
0
  6
Continuous
 62
     7
370
    15
100
AcDbCircle
 10
223.237500989
 20
108.3867069541
 30
0.0
 40
1.249999999999999
100
AcDbArc
 50
38.3494422281
 51
98.3494422281
  0
ARC
  5
97
330
1F
100
AcDbEntity
  8
0
  6
Continuous
 62
     7
370
    15
100
AcDbCircle
 10
223.237500989
 20
108.3867069541
 30
0.0
 40
1.250000000000014
100
AcDbArc
 50
278.3494422281
 51
338.3494422281
  0
ARC
  5
98
330
1F
100
AcDbEntity
  8
0
  6
Continuous
 62
     7
370
    15
100
AcDbCircle
 10
223.237500989
 20
108.3867069541
 30
0.0
 40
1.249999999999987
100
AcDbArc
 50
98.3494422281
 51
158.3494422281
  0
ARC
  5
99
330
1F
100
AcDbEntity
  8
0
  6
Continuous
 62
     7
370
    15
100
AcDbCircle
 10
223.237500989
 20
108.3867069541
 30
0.0
 40
1.250000000000004
100
AcDbArc
 50
218.3494422281
 51
278.3494422281
  0
ARC
  5
9A
330
1F
100
AcDbEntity
  8
0
  6
Continuous
 62
     7
370
    15
100
AcDbCircle
 10
223.237500989
 20
108.3867069541
 30
0.0
 40
1.249999999999987
100
AcDbArc
 50
158.3494422281
 51
218.3494422281
  0
SPLINE
  5
9B
330
1F
100
AcDbEntity
  8
0
  6
Continuous
 62
     7
370
    15
100
AcDbSpline
210
0.0
220
0.0
230
1.0
 70
     8
 71
     3
 72
     8
 73
     4
 74
     0
 42
0.000000001
 43
0.00000001
 40
0.0
 40
0.0
 40
0.0
 40
0.0
 40
1.0
 40
1.0
 40
1.0
 40
1.0
 10
188.9775009890335
 20
63.76696754523853
 30
0.0
 10
188.6877725430089
 20
63.24474753507499
 30
0.0
 10
188.3977473927912
 20
62.72269415281501
 30
0.0
 10
188.1074531585293
 20
62.20079188709189
 30
0.0
  0
SPLINE
  5
9C
330
1F
100
AcDbEntity
  8
0
  6
Continuous
 62
     7
370
    15
100
AcDbSpline
210
0.0
220
0.0
230
1.0
 70
     8
 71
     3
 72
     8
 73
     4
 74
     0
 42
0.000000001
 43
0.00000001
 40
0.0
 40
0.0
 40
0.0
 40
0.0
 40
0.0011862984959112
 40
0.0011862984959112
 40
0.0011862984959112
 40
0.0011862984959112
 10
187.6543394815716
 20
61.65744761272229
 30
0.0
 10
187.8063642434424
 20
61.83835946234027
 30
0.0
 10
187.9574216886582
 20
62.0194717927811
 30
0.0
 10
188.1074531585293
 20
62.2007918870919
 30
0.0
  0
LINE
  5
9D
330
1F
100
AcDbEntity
  8
0
  6
Continuous
 62
     7
370
    15
100
AcDbLine
 10
187.654339936
 20
61.6574477611
 30
0.0
 11
187.654339936
 21
138.2367074696
 31
0.0
  0
SPLINE
  5
9E
330
1F
100
AcDbEntity
  8
0
  6
Continuous
 62
     7
370
    15
100
AcDbSpline
210
0.0
220
0.0
230
1.0
 70
    24
 71
     3
 72
     8
 73
     4
 74
     0
 42
0.000000001
 43
0.00000001
 40
0.0
 40
0.0
 40
0.0
 40
0.0
 40
1.0
 40
1.0
 40
1.0
 40
1.0
 10
188.9775009890335
 20
138.2367069540683
 30
0.0
 10
188.5423008843298
 20
138.2367069540683
 30
0.0
 10
188.1009412015909
 20
138.2367069540683
 30
0.0
 10
187.6543394815716
 20
138.2367069540683
 30
0.0
  0
LINE
  5
9F
330
1F
100
AcDbEntity
  8
0
  6
Continuous
 62
     7
370
    15
100
AcDbLine
 10
188.9775006514
 20
63.7669678984
 30
0.0
 11
188.9775006514
 21
138.2367074696
 31
0.0
  0
SPLINE
  5
A0
330
1F
100
AcDbEntity
  8
0
  6
Continuous
 62
     7
370
    15
100
AcDbSpline
210
0.0
220
0.0
230
1.0
 70
     8
 71
     3
 72
    10
 73
     6
 74
     0
 42
0.000000001
 43
0.00000001
 40
0.0
 40
0.0
 40
0.0
 40
0.0
 40
0.5
 40
0.5
 40
1.0
 40
1.0
 40
1.0
 40
1.0
 10
183.2031610201875
 20
61.75325268687606
 30
0.0
 10
183.2518115887672
 20
61.72529569560864
 30
0.0
 10
183.3091968007266
 20
61.70135341058184
 30
0.0
 10
183.4399099088926
 20
61.66723494748614
 30
0.0
 10
183.5126494426312
 20
61.65744761272229
 30
0.0
 10
183.5875009890335
 20
61.65744761272229
 30
0.0
  0
SPLINE
  5
A1
330
1F
100
AcDbEntity
  8
0
  6
Continuous
 62
     7
370
    15
100
AcDbSpline
210
0.0
220
0.0
230
1.0
 70
     8
 71
     3
 72
    10
 73
     6
 74
     0
 42
0.000000001
 43
0.00000001
 40
0.0
 40
0.0
 40
0.0
 40
0.0
 40
0.5
 40
0.5
 40
1.0
 40
1.0
 40
1.0
 40
1.0
 10
183.2031610201875
 20
61.75325268687605
 30
0.0
 10
183.1449730136053
 20
61.82083641705488
 30
0.0
 10
183.092530547079
 20
61.90131265169663
 30
0.0
 10
183.0141782399004
 20
62.08434827467939
 30
0.0
 10
182.9875009890334
 20
62.190223977475
 30
0.0
 10
182.9875009890334
 20
62.29773728669562
 30
0.0
  0
LINE
  5
A2
330
1F
100
AcDbEntity
  8
0
  6
Continuous
 62
     7
370
    15
100
AcDbLine
 10
182.9875009082
 20
62.2977357565
 30
0.0
 11
182.9875009082
 21
138.2367074696
 31
0.0
  0
SPLINE
  5
A3
330
1F
100
AcDbEntity
  8
0
  6
Continuous
 62
     7
370
    15
100
AcDbSpline
210
0.0
220
0.0
230
1.0
 70
    24
 71
     3
 72
    14
 73
    10
 74
     0
 42
0.000000001
 43
0.00000001
 40
0.0
 40
0.0
 40
0.0
 40
0.0
 40
0.25
 40
0.25
 40
0.5
 40
0.5
 40
0.75
 40
0.75
 40
1.0
 40
1.0
 40
1.0
 40
1.0
 10
183.5875009890335
 20
138.2367069540683
 30
0.0
 10
183.4984790366898
 20
138.2367069540683
 30
0.0
 10
183.4087923374163
 20
138.2367069540683
 30
0.0
 10
183.255065511859
 20
138.2367069540683
 30
0.0
 10
183.1898606172322
 20
138.2367069540683
 30
0.0
 10
183.0872699230617
 20
138.2367069540683
 30
0.0
 10
183.0496324687458
 20
138.2367069540683
 30
0.0
 10
182.9995405533607
 20
138.2367069540683
 30
0.0
 10
182.9875009890335
 20
138.2367069540683
 30
0.0
 10
182.9875009890335
 20
138.2367069540683
 30
0.0
  0
LINE
  5
A4
330
1F
100
AcDbEntity
  8
0
  6
Continuous
 62
     7
370
    15
100
AcDbLine
 10
192.7975008677
 20
94.5894452019
 30
0.0
 11
192.7975008677
 21
138.2367074696
 31
0.0
  0
SPLINE
  5
A5
330
1F
100
AcDbEntity
  8
0
  6
Continuous
 62
     7
370
    15
100
AcDbSpline
210
0.0
220
0.0
230
1.0
 70
    24
 71
     3
 72
     8
 73
     4
 74
     0
 42
0.000000001
 43
0.00000001
 40
0.0
 40
0.0
 40
0.0
 40
0.0
 40
1.0
 40
1.0
 40
1.0
 40
1.0
 10
194.1206624964954
 20
138.2367069540683
 30
0.0
 10
193.674060776476
 20
138.2367069540683
 30
0.0
 10
193.2327010937371
 20
138.2367069540683
 30
0.0
 10
192.7975009890335
 20
138.2367069540683
 30
0.0
  0
LINE
  5
A6
330
1F
100
AcDbEntity
  8
0
  6
Continuous
 62
     7
370
    15
100
AcDbLine
 10
194.1206625145
 20
94.0895596726
 30
0.0
 11
194.1206625145
 21
138.2367074696
 31
0.0
  0
SPLINE
  5
A7
330
1F
100
AcDbEntity
  8
0
  6
Continuous
 62
     7
370
    15
100
AcDbSpline
210
0.0
220
0.0
230
1.0
 70
     8
 71
     3
 72
    10
 73
     6
 74
     0
 42
0.000000001
 43
0.00000001
 40
0.0
 40
0.0
 40
0.0
 40
0.0
 40
0.5
 40
0.5
 40
1.0
 40
1.0
 40
1.0
 40
1.0
 10
194.1206624964954
 20
94.08955988893719
 30
0.0
 10
193.8979354696219
 20
94.23304838923097
 30
0.0
 10
193.6762495823968
 20
94.34776913496384
 30
0.0
 10
193.2350287445448
 20
94.51752956432172
 30
0.0
 10
193.015470097146
 20
94.57294955870908
 30
0.0
 10
192.7975009890338
 20
94.58944488807875
 30
0.0
  0
SPLINE
  5
A8
330
1F
100
AcDbEntity
  8
0
  6
Continuous
 62
     7
370
    15
100
AcDbSpline
210
0.0
220
0.0
230
1.0
 70
     8
 71
     3
 72
    12
 73
     8
 74
     0
 42
0.000000001
 43
0.00000001
 40
0.0
 40
0.0
 40
0.0
 40
0.0
 40
0.2499999999999972
 40
0.2499999999999972
 40
0.4999999999999944
 40
0.4999999999999944
 40
1.0
 40
1.0
 40
1.0
 40
1.0
 10
198.2375009890335
 20
61.65744761272229
 30
0.0
 10
198.3334737422083
 20
61.65744761272229
 30
0.0
 10
198.4259017063628
 20
61.67372093683088
 30
0.0
 10
198.5823318064722
 20
61.7270946588273
 30
0.0
 10
198.6458102312451
 20
61.76322291636163
 30
0.0
 10
198.7940893920723
 20
61.88392411264092
 30
0.0
 10
198.8375009890335
 20
61.97777369900609
 30
0.0
 10
198.8375009890335
 20
62.0720779739533
 30
0.0
  0
SPLINE
  5
A9
330
1F
100
AcDbEntity
  8
0
  6
Continuous
 62
     7
370
    15
100
AcDbSpline
210
0.0
220
0.0
230
1.0
 70
    24
 71
     3
 72
    12
 73
     8
 74
     0
 42
0.000000001
 43
0.00000001
 40
0.0
 40
0.0
 40
0.0
 40
0.0
 40
0.4999999999999972
 40
0.4999999999999972
 40
0.7499999999999986
 40
0.7499999999999986
 40
1.0
 40
1.0
 40
1.0
 40
1.0
 10
198.8375009890335
 20
138.2367069540683
 30
0.0
 10
198.8375009890335
 20
138.2367069540683
 30
0.0
 10
198.7893703006481
 20
138.2367069540683
 30
0.0
 10
198.6354732448451
 20
138.2367069540683
 30
0.0
 10
198.5700086798383
 20
138.2367069540683
 30
0.0
 10
198.4164793592282
 20
138.2367069540683
 30
0.0
 10
198.3281306984923
 20
138.2367069540683
 30
0.0
 10
198.2375009890333
 20
138.2367069540683
 30
0.0
  0
LINE
  5
AA
330
1F
100
AcDbEntity
  8
0
  6
Continuous
 62
     7
370
    15
100
AcDbLine
 10
198.8375012245
 20
62.0720762966
 30
0.0
 11
198.8375012245
 21
138.2367074696
 31
0.0
  0
LINE
  5
AB
330
1F
100
AcDbEntity
  8
0
  6
Continuous
 62
     7
370
    15
100
AcDbLine
 10
183.5875010531
 20
61.6574477611
 30
0.0
 11
187.654339936
 21
61.6574477611
 31
0.0
  0
LINE
  5
AC
330
1F
100
AcDbEntity
  8
0
  6
Continuous
 62
     7
370
    15
100
AcDbLine
 10
187.654339936
 20
138.2367074696
 30
0.0
 11
183.5875010531
 21
138.2367074696
 31
0.0
  0
LINE
  5
AD
330
1F
100
AcDbEntity
  8
0
  6
Continuous
 62
     7
370
    15
100
AcDbLine
 10
198.2375003811
 20
138.2367074696
 30
0.0
 11
194.1206625145
 21
138.2367074696
 31
0.0
  0
LINE
  5
AE
330
1F
100
AcDbEntity
  8
0
  6
Continuous
 62
     7
370
    15
100
AcDbLine
 10
194.1206625145
 20
61.6574477611
 30
0.0
 11
198.2375003811
 21
61.6574477611
 31
0.0
  0
LINE
  5
AF
330
1F
100
AcDbEntity
  8
0
  6
Continuous
 62
     7
370
    15
100
AcDbLine
 10
194.1206625145
 20
61.6574477611
 30
0.0
 11
194.1206625145
 21
89.3977660893
 31
0.0
  0
SPLINE
  5
B0
330
1F
100
AcDbEntity
  8
0
  6
Continuous
 62
     7
370
    15
100
AcDbSpline
210
0.0
220
0.0
230
1.0
 70
     8
 71
     3
 72
    34
 73
    30
 74
     0
 42
0.000000001
 43
0.00000001
 40
0.0
 40
0.0
 40
0.0
 40
0.0
 40
0.062499999999999
 40
0.062499999999999
 40
0.124999999999998
 40
0.124999999999998
 40
0.1874999999999971
 40
0.1874999999999971
 40
0.2499999999999966
 40
0.2499999999999966
 40
0.3124999999999962
 40
0.3124999999999962
 40
0.3749999999999957
 40
0.3749999999999957
 40
0.4999999999999958
 40
0.4999999999999958
 40
0.6249999999999958
 40
0.6249999999999958
 40
0.6874999999999964
 40
0.6874999999999964
 40
0.7499999999999971
 40
0.7499999999999971
 40
0.8124999999999979
 40
0.8124999999999979
 40
0.8749999999999986
 40
0.8749999999999986
 40
0.9374999999999992
 40
0.9374999999999992
 40
1.0
 40
1.0
 40
1.0
 40
1.0
 10
194.1206624964954
 20
89.39776656606715
 30
0.0
 10
194.2800543242832
 20
89.4056066619899
 30
0.0
 10
194.4360568077268
 20
89.42726531008034
 30
0.0
 10
194.7415663238041
 20
89.49711353757314
 30
0.0
 10
194.8924606588162
 20
89.5459392399014
 30
0.0
 10
195.180360003507
 20
89.66886319330872
 30
0.0
 10
195.3163064064668
 20
89.74217070144303
 30
0.0
 10
195.5724890220588
 20
89.91218132521436
 30
0.0
 10
195.6936713098179
 20
90.01005511741583
 30
0.0
 10
195.9108173816907
 20
90.2226392928478
 30
0.0
 10
196.007779254651
 20
90.33768523137739
 30
0.0
 10
196.1783416904765
 20
90.58554635149753
 30
0.0
 10
196.2515817436885
 20
90.71857984856312
 30
0.0
 10
196.4264622004373
 20
91.12808786469326
 30
0.0
 10
196.4875001614133
 20
91.4260485144683
 30
0.0
 10
196.4875018166364
 20
92.01749007034277
 30
0.0
 10
196.4264672070501
 20
92.31766362031935
 30
0.0
 10
196.2515774396482
 20
92.73289490058711
 30
0.0
 10
196.1783337342237
 20
92.86825001883395
 30
0.0
 10
196.0077730184871
 20
93.12114935022059
 30
0.0
 10
195.9108093028936
 20
93.23891462782835
 30
0.0
 10
195.6936489743064
 20
93.45704492319699
 30
0.0
 10
195.5724677156196
 20
93.55774824834396
 30
0.0
 10
195.3162974886809
 20
93.73299194117719
 30
0.0
 10
195.1803541390182
 20
93.80873691026778
 30
0.0
 10
194.8924514358351
 20
93.93590528557006
 30
0.0
 10
194.7415612399183
 20
93.98650655789751
 30
0.0
 10
194.4360557362127
 20
94.05893565764536
 30
0.0
 10
194.2800543379492
 20
94.08142142904235
 30
0.0
 10
194.1206624964954
 20
94.08955988893719
 30
0.0
  0
SPLINE
  5
B1
330
1F
100
AcDbEntity
  8
0
  6
Continuous
 62
     7
370
    15
100
AcDbSpline
210
0.0
220
0.0
230
1.0
 70
     8
 71
     3
 72
    14
 73
    10
 74
     0
 42
0.000000001
 43
0.00000001
 40
0.0
 40
0.0
 40
0.0
 40
0.0
 40
0.25
 40
0.25
 40
0.5
 40
0.5
 40
0.75
 40
0.75
 40
1.0
 40
1.0
 40
1.0
 40
1.0
 10
192.7975009890335
 20
94.63505911009125
 30
0.0
 10
192.7975009890335
 20
94.67703549194478
 30
0.0
 10
192.7678580350623
 20
94.70488587958569
 30
0.0
 10
192.6612032013322
 20
94.7183847548757
 30
0.0
 10
192.584924806728
 20
94.70376925283801
 30
0.0
 10
192.4168732636615
 20
94.6316800486698
 30
0.0
 10
192.3257534570533
 20
94.57454243818708
 30
0.0
 10
192.1530763448006
 20
94.43231473759582
 30
0.0
 10
192.0721539052725
 20
94.34875091208374
 30
0.0
 10
191.9975009890335
 20
94.25538124018786
 30
0.0
  0
SPLINE
  5
B2
330
1F
100
AcDbEntity
  8
0
  6
Continuous
 62
     7
370
    15
100
AcDbSpline
210
0.0
220
0.0
230
1.0
 70
     8
 71
     3
 72
    10
 73
     6
 74
     0
 42
0.000000001
 43
0.00000001
 40
0.0
 40
0.0
 40
0.0
 40
0.0
 40
0.5
 40
0.5
 40
1.0
 40
1.0
 40
1.0
 40
1.0
 10
192.7975009890338
 20
90.45740368944723
 30
0.0
 10
193.0143918215545
 20
90.22036474999867
 30
0.0
 10
193.2335444582134
 20
90.01819451500519
 30
0.0
 10
193.6750289584823
 20
89.66744244348648
 30
0.0
 10
193.8982314237557
 20
89.51876635108964
 30
0.0
 10
194.1206624964954
 20
89.39776656606713
 30
0.0
  0
LINE
  5
B3
330
1F
100
AcDbEntity
  8
0
  6
Continuous
 62
     7
370
    15
100
AcDbLine
 10
192.7975008677
 20
90.5030187426
 30
0.0
 11
192.7975008677
 21
90.4574044256
 31
0.0
  0
SPLINE
  5
B4
330
1F
100
AcDbEntity
  8
0
  6
Continuous
 62
     7
370
    15
100
AcDbSpline
210
0.0
220
0.0
230
1.0
 70
     8
 71
     3
 72
    16
 73
    12
 74
     0
 42
0.000000001
 43
0.00000001
 40
0.0
 40
0.0
 40
0.0
 40
0.0
 40
0.2500000000000038
 40
0.2500000000000038
 40
0.5000000000000075
 40
0.5000000000000075
 40
0.6250000000000082
 40
0.6250000000000082
 40
0.7500000000000089
 40
0.7500000000000089
 40
1.0
 40
1.0
 40
1.0
 40
1.0
 10
191.9975009890335
 20
91.41141739713424
 30
0.0
 10
192.0715088792557
 20
91.32106981694857
 30
0.0
 10
192.1521268742446
 20
91.23311024414893
 30
0.0
 10
192.3258948597489
 20
91.05677532008734
 30
0.0
 10
192.4166459906904
 20
90.97116807942133
 30
0.0
 10
192.5427590881518
 20
90.84997238339635
 30
0.0
 10
192.5823358490151
 20
90.81144080440548
 30
0.0
 10
192.6548185057163
 20
90.73704481827616
 30
0.0
 10
192.6877464961851
 20
90.70102803035468
 30
0.0
 10
192.76753666618
 20
90.60227535453767
 30
0.0
 10
192.7975009890335
 20
90.54551135275557
 30
0.0
 10
192.7975009890335
 20
90.50301791146002
 30
0.0
  0
SPLINE
  5
B5
330
1F
100
AcDbEntity
  8
0
  6
Continuous
 62
     7
370
    15
100
AcDbSpline
210
0.0
220
0.0
230
1.0
 70
     8
 71
     3
 72
    16
 73
    12
 74
     0
 42
0.000000001
 43
0.00000001
 40
0.0
 40
0.0
 40
0.0
 40
0.0
 40
0.25
 40
0.25
 40
0.5
 40
0.5
 40
0.75
 40
0.75
 40
0.875
 40
0.875
 40
1.0
 40
1.0
 40
1.0
 40
1.0
 10
191.9975009890335
 20
94.25538124018786
 30
0.0
 10
191.8320868825533
 20
94.0484950041625
 30
0.0
 10
191.7058895515777
 20
93.82262630635373
 30
0.0
 10
191.5314832532468
 20
93.33375706074087
 30
0.0
 10
191.48765321415
 20
93.08199000739627
 30
0.0
 10
191.48734954118
 20
92.57021068281395
 30
0.0
 10
191.5312064012403
 20
92.31915597373124
 30
0.0
 10
191.6611281605075
 20
91.95830740558914
 30
0.0
 10
191.7152429719155
 20
91.84103463724058
 30
0.0
 10
191.8419199620589
 20
91.61854568590175
 30
0.0
 10
191.9147936824197
 20
91.51238507765848
 30
0.0
 10
191.9975009890335
 20
91.41141739713424
 30
0.0
  0
SPLINE
  5
B6
330
1F
100
AcDbEntity
  8
0
  6
Continuous
 62
     7
370
    15
100
AcDbSpline
210
0.0
220
0.0
230
1.0
 70
     8
 71
     3
 72
    14
 73
    10
 74
     0
 42
0.000000001
 43
0.00000001
 40
0.0
 40
0.0
 40
0.0
 40
0.0
 40
0.25
 40
0.25
 40
0.5
 40
0.5
 40
0.75
 40
0.75
 40
1.0
 40
1.0
 40
1.0
 40
1.0
 10
189.7775009890335
 20
64.73894068819853
 30
0.0
 10
189.6710559811242
 20
64.73894068819853
 30
0.0
 10
189.5641572298507
 20
64.71637113876541
 30
0.0
 10
189.3679389744082
 20
64.62992804752349
 30
0.0
 10
189.2782806609438
 20
64.56562412985635
 30
0.0
 10
189.1328269480627
 20
64.41065461581339
 30
0.0
 10
189.0747911653365
 20
64.31788912956965
 30
0.0
 10
188.9975060109519
 20
64.11942224792627
 30
0.0
 10
188.9775009890335
 20
64.0123978261325
 30
0.0
 10
188.9775009890335
 20
63.90561546566168
 30
0.0
  0
SPLINE
  5
B7
330
1F
100
AcDbEntity
  8
0
  6
Continuous
 62
     7
370
    15
100
AcDbSpline
210
0.0
220
0.0
230
1.0
 70
    24
 71
     3
 72
    14
 73
    10
 74
     0
 42
0.000000001
 43
0.00000001
 40
0.0
 40
0.0
 40
0.0
 40
0.0
 40
0.25
 40
0.25
 40
0.5
 40
0.5
 40
0.75
 40
0.75
 40
1.0
 40
1.0
 40
1.0
 40
1.0
 10
189.7775009890335
 20
138.2367069540683
 30
0.0
 10
189.6545196894872
 20
138.2367069540683
 30
0.0
 10
189.5343298010851
 20
138.2367069540683
 30
0.0
 10
189.329305971406
 20
138.2367069540683
 30
0.0
 10
189.2427114826039
 20
138.2367069540683
 30
0.0
 10
189.1076035958415
 20
138.2367069540683
 30
0.0
 10
189.0590805108133
 20
138.2367069540683
 30
0.0
 10
188.9933980020865
 20
138.2367069540683
 30
0.0
 10
188.9775009890335
 20
138.2367069540683
 30
0.0
 10
188.9775009890335
 20
138.2367069540683
 30
0.0
  0
SPLINE
  5
B8
330
1F
100
AcDbEntity
  8
0
  6
Continuous
 62
     7
370
    15
100
AcDbSpline
210
0.0
220
0.0
230
1.0
 70
    24
 71
     3
 72
    14
 73
    10
 74
     0
 42
0.000000001
 43
0.00000001
 40
0.0
 40
0.0
 40
0.0
 40
0.0
 40
0.25
 40
0.25
 40
0.5
 40
0.5
 40
0.75
 40
0.75
 40
1.0
 40
1.0
 40
1.0
 40
1.0
 10
192.7975009890335
 20
138.2367069540683
 30
0.0
 10
192.7975009890335
 20
138.2367069540683
 30
0.0
 10
192.7812199542577
 20
138.2367069540683
 30
0.0
 10
192.7165568917331
 20
138.2367069540683
 30
0.0
 10
192.6670770954444
 20
138.2367069540683
 30
0.0
 10
192.5331073383057
 20
138.2367069540683
 30
0.0
 10
192.4469926117062
 20
138.2367069540683
 30
0.0
 10
192.2415364959932
 20
138.2367069540683
 30
0.0
 10
192.1201159588003
 20
138.2367069540683
 30
0.0
 10
191.9975009890335
 20
138.2367069540683
 30
0.0
  0
LINE
  5
B9
330
1F
100
AcDbEntity
  8
0
  6
Continuous
 62
     7
370
    15
100
AcDbLine
 10
191.9975012954
 20
64.7389408408
 30
0.0
 11
189.777501155
 21
64.7389408408
 31
0.0
  0
LINE
  5
BA
330
1F
100
AcDbEntity
  8
0
  6
Continuous
 62
     7
370
    15
100
AcDbLine
 10
191.9975012954
 20
138.2367074696
 30
0.0
 11
189.777501155
 21
138.2367074696
 31
0.0
  0
SPLINE
  5
BB
330
1F
100
AcDbEntity
  8
0
  6
Continuous
 62
     7
370
    15
100
AcDbSpline
210
0.0
220
0.0
230
1.0
 70
     8
 71
     3
 72
     8
 73
     4
 74
     0
 42
0.000000001
 43
0.00000001
 40
0.0000000000000004
 40
0.0000000000000004
 40
0.0000000000000004
 40
0.0000000000000004
 40
0.0011862984959127
 40
0.0011862984959127
 40
0.0011862984959127
 40
0.0011862984959127
 10
193.6675488195336
 20
62.2007918870919
 30
0.0
 10
193.817580289405
 20
62.01947179278088
 30
0.0
 10
193.9686377346243
 20
61.8383594623405
 30
0.0
 10
194.1206624964954
 20
61.65744761272229
 30
0.0
  0
SPLINE
  5
BC
330
1F
100
AcDbEntity
  8
0
  6
Continuous
 62
     7
370
    15
100
AcDbSpline
210
0.0
220
0.0
230
1.0
 70
     8
 71
     3
 72
     8
 73
     4
 74
     0
 42
0.000000001
 43
0.00000001
 40
0.0
 40
0.0
 40
0.0
 40
0.0
 40
1.0
 40
1.0
 40
1.0
 40
1.0
 10
193.6675488195366
 20
62.20079188709358
 30
0.0
 10
193.3772545852752
 20
62.72269415281613
 30
0.0
 10
193.0872294350577
 20
63.24474753507555
 30
0.0
 10
192.7975009890335
 20
63.76696754523853
 30
0.0
  0
LINE
  5
BD
330
1F
100
AcDbEntity
  8
0
  6
Continuous
 62
     7
370
    15
100
AcDbLine
 10
192.7975008677
 20
63.7669678984
 30
0.0
 11
192.7975008677
 21
90.4574044256
 31
0.0
  0
SPLINE
  5
BE
330
1F
100
AcDbEntity
  8
0
  6
Continuous
 62
     7
370
    15
100
AcDbSpline
210
0.0
220
0.0
230
1.0
 70
     8
 71
     3
 72
    14
 73
    10
 74
     0
 42
0.000000001
 43
0.00000001
 40
0.0
 40
0.0
 40
0.0
 40
0.0
 40
0.25
 40
0.25
 40
0.5
 40
0.5
 40
0.75
 40
0.75
 40
1.0
 40
1.0
 40
1.0
 40
1.0
 10
192.7975009890335
 20
63.90561546566168
 30
0.0
 10
192.7975009890335
 20
64.01267945200247
 30
0.0
 10
192.7775171627935
 20
64.119418778377
 30
0.0
 10
192.70008208036
 20
64.3181686805678
 30
0.0
 10
192.6421431582006
 20
64.41072289706032
 30
0.0
 10
192.4965053524398
 20
64.56581984046589
 30
0.0
 10
192.4077163561044
 20
64.62955999737876
 30
0.0
 10
192.2111679958999
 20
64.71630855446637
 30
0.0
 10
192.1050287662005
 20
64.73894068819853
 30
0.0
 10
191.9975009890335
 20
64.73894068819853
 30
0.0
  0
LINE
  5
BF
330
1F
100
AcDbEntity
  8
0
  6
Continuous
 62
     7
370
    15
100
AcDbLine
 10
179.787500989
 20
73.4617080746
 30
0.0
 11
179.787500989
 21
143.3117058335
 31
0.0
  0
SPLINE
  5
C0
330
1F
100
AcDbEntity
  8
0
  6
Continuous
 62
     7
370
    15
100
AcDbSpline
210
0.0
220
0.0
230
1.0
 70
     8
 71
     3
 72
    12
 73
     8
 74
     0
 42
0.000000001
 43
0.00000001
 40
0.0
 40
0.0
 40
0.0
 40
0.0
 40
0.2500000000000007
 40
0.2500000000000007
 40
0.5000000000000014
 40
0.5000000000000014
 40
1.0
 40
1.0
 40
1.0
 40
1.0
 10
189.7775009890335
 20
152.0344732199381
 30
0.0
 10
189.6711560091575
 20
152.0344732199381
 30
0.0
 10
189.5638796617549
 20
152.0571884577977
 30
0.0
 10
189.3685038723588
 20
152.14321362468
 30
0.0
 10
189.2799501362819
 20
152.2061923516083
 30
0.0
 10
189.0586922121506
 20
152.4413838620454
 30
0.0
 10
188.9775009890335
 20
152.6545600765307
 30
0.0
 10
188.9775009890335
 20
152.8677984424748
 30
0.0
  0
SPLINE
  5
C1
330
1F
100
AcDbEntity
  8
0
  6
Continuous
 62
     7
370
    15
100
AcDbSpline
210
0.0
220
0.0
230
1.0
 70
     8
 71
     3
 72
    12
 73
     8
 74
     0
 42
0.000000001
 43
0.00000001
 40
0.0
 40
0.0
 40
0.0
 40
0.0
 40
0.499999999999994
 40
0.499999999999994
 40
0.749999999999997
 40
0.749999999999997
 40
1.0
 40
1.0
 40
1.0
 40
1.0
 10
188.9775009890335
 20
143.7797500557853
 30
0.0
 10
188.9775009890335
 20
143.5373269598046
 30
0.0
 10
189.0404221304753
 20
143.2915564392032
 30
0.0
 10
189.2424510274778
 20
142.9866102597863
 30
0.0
 10
189.3287447521249
 20
142.8960173931879
 30
0.0
 10
189.5342185466917
 20
142.7655838302511
 30
0.0
 10
189.6541691072914
 20
142.7265890156014
 30
0.0
 10
189.7775009890335
 20
142.7265890156014
 30
0.0
  0
LINE
  5
C2
330
1F
100
AcDbEntity
  8
0
  6
Continuous
 62
     7
370
    15
100
AcDbLine
 10
191.9975012954
 20
152.0344730673
 30
0.0
 11
189.777501155
 21
152.0344730673
 31
0.0
  0
LINE
  5
C3
330
1F
100
AcDbEntity
  8
0
  6
Continuous
 62
     7
370
    15
100
AcDbLine
 10
189.777501155
 20
142.7265893875
 30
0.0
 11
191.9975012954
 21
142.7265893875
 31
0.0
  0
SPLINE
  5
C4
330
1F
100
AcDbEntity
  8
0
  6
Continuous
 62
     7
370
    15
100
AcDbSpline
210
0.0
220
0.0
230
1.0
 70
     8
 71
     3
 72
    12
 73
     8
 74
     0
 42
0.000000001
 43
0.00000001
 40
0.0
 40
0.0
 40
0.0
 40
0.0
 40
0.4999999999999927
 40
0.4999999999999927
 40
0.7499999999999963
 40
0.7499999999999963
 40
1.0
 40
1.0
 40
1.0
 40
1.0
 10
198.8375009890335
 20
154.6816939072988
 30
0.0
 10
198.8375009890335
 20
154.8018865139639
 30
0.0
 10
198.7835325587644
 20
154.919793814479
 30
0.0
 10
198.6224459178315
 20
155.0591733589623
 30
0.0
 10
198.5576834983584
 20
155.0973386565262
 30
0.0
 10
198.4056294967939
 20
155.1519909188597
 30
0.0
 10
198.3228997236448
 20
155.1665516088439
 30
0.0
 10
198.2375009890335
 20
155.1665516088439
 30
0.0
  0
SPLINE
  5
C5
330
1F
100
AcDbEntity
  8
0
  6
Continuous
 62
     7
370
    15
100
AcDbSpline
210
0.0
220
0.0
230
1.0
 70
     8
 71
     3
 72
    12
 73
     8
 74
     0
 42
0.000000001
 43
0.00000001
 40
0.0
 40
0.0
 40
0.0
 40
0.0
 40
0.250000000000004
 40
0.250000000000004
 40
0.500000000000008
 40
0.500000000000008
 40
1.0
 40
1.0
 40
1.0
 40
1.0
 10
198.237500989034
 20
146.8977849057435
 30
0.0
 10
198.3270380472051
 20
146.8977849057434
 30
0.0
 10
198.4169372259937
 20
146.8709576069124
 30
0.0
 10
198.570362084993
 20
146.7792506416529
 30
0.0
 10
198.6354111423707
 20
146.714995700054
 30
0.0
 10
198.788730373635
 20
146.4955835539925
 30
0.0
 10
198.8375009890335
 20
146.3137682441956
 30
0.0
 10
198.8375009890335
 20
146.1357880687127
 30
0.0
  0
LINE
  5
C6
330
1F
100
AcDbEntity
  8
0
  6
Continuous
 62
     7
370
    15
100
AcDbLine
 10
198.8375012245
 20
146.1357888041
 30
0.0
 11
198.8375012245
 21
154.6816941558
 31
0.0
  0
LINE
  5
C7
330
1F
100
AcDbEntity
  8
0
  6
Continuous
 62
     7
370
    15
100
AcDbLine
 10
187.654339936
 20
155.166551864
 30
0.0
 11
183.5875010531
 21
155.166551864
 31
0.0
  0
LINE
  5
C8
330
1F
100
AcDbEntity
  8
0
  6
Continuous
 62
     7
370
    15
100
AcDbLine
 10
187.654339936
 20
146.8977857588
 30
0.0
 11
187.654339936
 21
155.166551864
 31
0.0
  0
LINE
  5
C9
330
1F
100
AcDbEntity
  8
0
  6
Continuous
 62
     7
370
    15
100
AcDbLine
 10
183.5875010531
 20
146.8977857588
 30
0.0
 11
187.654339936
 21
146.8977857588
 31
0.0
  0
SPLINE
  5
CA
330
1F
100
AcDbEntity
  8
0
  6
Continuous
 62
     7
370
    15
100
AcDbSpline
210
0.0
220
0.0
230
1.0
 70
     8
 71
     3
 72
     8
 73
     4
 74
     0
 42
0.000000001
 43
0.00000001
 40
0.0
 40
0.0
 40
0.0
 40
0.0
 40
1.0
 40
1.0
 40
1.0
 40
1.0
 10
193.5641720111999
 20
154.3867401987357
 30
0.0
 10
193.3083957004445
 20
153.9267618434709
 30
0.0
 10
193.0528323023385
 20
153.4666673831631
 30
0.0
 10
192.7975009890335
 20
153.0064463628981
 30
0.0
  0
SPLINE
  5
CB
330
1F
100
AcDbEntity
  8
0
  6
Continuous
 62
     7
370
    15
100
AcDbSpline
210
0.0
220
0.0
230
1.0
 70
     8
 71
     3
 72
     8
 73
     4
 74
     0
 42
0.000000001
 43
0.00000001
 40
0.0
 40
0.0
 40
0.0
 40
0.0
 40
0.0012352705496738
 40
0.0012352705496738
 40
0.0012352705496738
 40
0.0012352705496738
 10
194.1206624964954
 20
155.1665516088439
 30
0.0
 10
193.9347140711733
 20
154.9067758530922
 30
0.0
 10
193.7492072620022
 20
154.6468417744649
 30
0.0
 10
193.5641720112
 20
154.3867401987362
 30
0.0
  0
LINE
  5
CC
330
1F
100
AcDbEntity
  8
0
  6
Continuous
 62
     7
370
    15
100
AcDbLine
 10
194.1206625145
 20
146.8977857588
 30
0.0
 11
194.1206625145
 21
155.166551864
 31
0.0
  0
SPLINE
  5
CD
330
1F
100
AcDbEntity
  8
0
  6
Continuous
 62
     7
370
    15
100
AcDbSpline
210
0.0
220
0.0
230
1.0
 70
     8
 71
     3
 72
     8
 73
     4
 74
     0
 42
0.000000001
 43
0.00000001
 40
0.0
 40
0.0
 40
0.0
 40
0.0
 40
1.0
 40
1.0
 40
1.0
 40
1.0
 10
192.7975009890335
 20
143.9538426963779
 30
0.0
 10
193.2324474106718
 20
144.9373470147603
 30
0.0
 10
193.6738137685677
 20
145.9185490074872
 30
0.0
 10
194.1206624964954
 20
146.8977849057435
 30
0.0
  0
LINE
  5
CE
330
1F
100
AcDbEntity
  8
0
  6
Continuous
 62
     7
370
    15
100
AcDbLine
 10
192.7975008677
 20
143.9538415728
 30
0.0
 11
192.7975008677
 21
153.0064460097
 31
0.0
  0
SPLINE
  5
CF
330
1F
100
AcDbEntity
  8
0
  6
Continuous
 62
     7
370
    15
100
AcDbSpline
210
0.0
220
0.0
230
1.0
 70
     8
 71
     3
 72
     8
 73
     4
 74
     0
 42
0.000000001
 43
0.00000001
 40
0.0
 40
0.0
 40
0.0
 40
0.0
 40
0.0012352705496723
 40
0.0012352705496723
 40
0.0012352705496723
 40
0.0012352705496723
 10
188.2108299668661
 20
154.3867401987374
 30
0.0
 10
188.0257947160642
 20
154.6468417744657
 30
0.0
 10
187.8402879068934
 20
154.9067758530926
 30
0.0
 10
187.6543394815716
 20
155.1665516088439
 30
0.0
  0
SPLINE
  5
D0
330
1F
100
AcDbEntity
  8
0
  6
Continuous
 62
     7
370
    15
100
AcDbSpline
210
0.0
220
0.0
230
1.0
 70
     8
 71
     3
 72
     8
 73
     4
 74
     0
 42
0.000000001
 43
0.00000001
 40
0.0
 40
0.0
 40
0.0
 40
0.0
 40
1.0
 40
1.0
 40
1.0
 40
1.0
 10
188.9775009890335
 20
153.0064463628981
 30
0.0
 10
188.7221696757281
 20
153.4666673831637
 30
0.0
 10
188.4666062776218
 20
153.9267618434721
 30
0.0
 10
188.2108299668661
 20
154.3867401987374
 30
0.0
  0
SPLINE
  5
D1
330
1F
100
AcDbEntity
  8
0
  6
Continuous
 62
     7
370
    15
100
AcDbSpline
210
0.0
220
0.0
230
1.0
 70
     8
 71
     3
 72
     8
 73
     4
 74
     0
 42
0.000000001
 43
0.00000001
 40
0.0
 40
0.0
 40
0.0
 40
0.0
 40
1.0
 40
1.0
 40
1.0
 40
1.0
 10
187.6543394815716
 20
146.8977849057435
 30
0.0
 10
188.1011882094992
 20
145.9185490074872
 30
0.0
 10
188.5425545673951
 20
144.9373470147603
 30
0.0
 10
188.9775009890335
 20
143.9538426963779
 30
0.0
  0
LINE
  5
D2
330
1F
100
AcDbEntity
  8
0
  6
Continuous
 62
     7
370
    15
100
AcDbLine
 10
188.9775006514
 20
143.9538415728
 30
0.0
 11
188.9775006514
 21
153.0064460097
 31
0.0
  0
LINE
  5
D3
330
1F
100
AcDbEntity
  8
0
  6
Continuous
 62
     7
370
    15
100
AcDbLine
 10
198.2375003811
 20
155.166551864
 30
0.0
 11
194.1206625145
 21
155.166551864
 31
0.0
  0
LINE
  5
D4
330
1F
100
AcDbEntity
  8
0
  6
Continuous
 62
     7
370
    15
100
AcDbLine
 10
194.1206625145
 20
146.8977857588
 30
0.0
 11
198.2375003811
 21
146.8977857588
 31
0.0
  0
SPLINE
  5
D5
330
1F
100
AcDbEntity
  8
0
  6
Continuous
 62
     7
370
    15
100
AcDbSpline
210
0.0
220
0.0
230
1.0
 70
     8
 71
     3
 72
    10
 73
     6
 74
     0
 42
0.000000001
 43
0.00000001
 40
0.0
 40
0.0
 40
0.0
 40
0.0
 40
0.5
 40
0.5
 40
1.0
 40
1.0
 40
1.0
 40
1.0
 10
183.2773699079798
 20
155.0968712797911
 30
0.0
 10
183.200916818061
 20
155.0266085085705
 30
0.0
 10
183.1320550957919
 20
154.9395135935287
 30
0.0
 10
183.025542864719
 20
154.7303444652765
 30
0.0
 10
182.9875009890334
 20
154.6050269160369
 30
0.0
 10
182.9875009890334
 20
154.475676621441
 30
0.0
  0
SPLINE
  5
D6
330
1F
100
AcDbEntity
  8
0
  6
Continuous
 62
     7
370
    15
100
AcDbSpline
210
0.0
220
0.0
230
1.0
 70
     8
 71
     3
 72
     8
 73
     4
 74
     0
 42
0.000000001
 43
0.00000001
 40
0.0
 40
0.0
 40
0.0
 40
0.0
 40
1.0
 40
1.0
 40
1.0
 40
1.0
 10
183.5875009890335
 20
155.1665516088439
 30
0.0
 10
183.476422803696
 20
155.1665516088439
 30
0.0
 10
183.3687587997937
 20
155.1414024332893
 30
0.0
 10
183.2773699079798
 20
155.0968712797911
 30
0.0
  0
SPLINE
  5
D7
330
1F
100
AcDbEntity
  8
0
  6
Continuous
 62
     7
370
    15
100
AcDbSpline
210
0.0
220
0.0
230
1.0
 70
     8
 71
     3
 72
    12
 73
     8
 74
     0
 42
0.000000001
 43
0.00000001
 40
0.0
 40
0.0
 40
0.0
 40
0.0
 40
0.5000000000000003
 40
0.5000000000000003
 40
0.7500000000000001
 40
0.7500000000000001
 40
1.0
 40
1.0
 40
1.0
 40
1.0
 10
182.9875009890335
 20
146.1357880687127
 30
0.0
 10
182.9875009890335
 20
146.314148335952
 30
0.0
 10
183.0348131104094
 20
146.4929207476559
 30
0.0
 10
183.1891731882909
 20
146.7146826130077
 30
0.0
 10
183.2540587232098
 20
146.7789746516241
 30
0.0
 10
183.4092914224381
 20
146.8716191357837
 30
0.0
 10
183.4983668351063
 20
146.8977849057435
 30
0.0
 10
183.5875009890335
 20
146.8977849057435
 30
0.0
  0
LINE
  5
D8
330
1F
100
AcDbEntity
  8
0
  6
Continuous
 62
     7
370
    15
100
AcDbLine
 10
182.9875009082
 20
146.1357888041
 30
0.0
 11
182.9875009082
 21
154.4756781517
 31
0.0
  0
SPLINE
  5
D9
330
1F
100
AcDbEntity
  8
0
  6
Continuous
 62
     7
370
    15
100
AcDbSpline
210
0.0
220
0.0
230
1.0
 70
     8
 71
     3
 72
    14
 73
    10
 74
     0
 42
0.000000001
 43
0.00000001
 40
0.0
 40
0.0
 40
0.0
 40
0.0
 40
0.25
 40
0.25
 40
0.5
 40
0.5
 40
0.75
 40
0.75
 40
1.0
 40
1.0
 40
1.0
 40
1.0
 10
192.7975009890335
 20
152.8677984424749
 30
0.0
 10
192.7975009890335
 20
152.7604560703275
 30
0.0
 10
192.7775047969693
 20
152.6538270634797
 30
0.0
 10
192.6998067126246
 20
152.4546752843285
 30
0.0
 10
192.641813567731
 20
152.362192386013
 30
0.0
 10
192.4957670749082
 20
152.2069565509038
 30
0.0
 10
192.4064293357405
 20
152.1432226092915
 30
0.0
 10
192.2116743236801
 20
152.0573923428963
 30
0.0
 10
192.1041440524712
 20
152.0344732199378
 30
0.0
 10
191.9975009890314
 20
152.0344732199381
 30
0.0
  0
SPLINE
  5
DA
330
1F
100
AcDbEntity
  8
0
  6
Continuous
 62
     7
370
    15
100
AcDbSpline
210
0.0
220
0.0
230
1.0
 70
     8
 71
     3
 72
    14
 73
    10
 74
     0
 42
0.000000001
 43
0.00000001
 40
0.0
 40
0.0
 40
0.0
 40
0.0
 40
0.25
 40
0.25
 40
0.5
 40
0.5
 40
0.75
 40
0.75
 40
1.0
 40
1.0
 40
1.0
 40
1.0
 10
191.9975009890335
 20
142.7265890156014
 30
0.0
 10
192.1188275190192
 20
142.7265890156014
 30
0.0
 10
192.2405322275814
 20
142.7653705310346
 30
0.0
 10
192.4469721064675
 20
142.8965251527284
 30
0.0
 10
192.5329226449236
 20
142.9871772373156
 30
0.0
 10
192.6668344046719
 20
143.1892942722569
 30
0.0
 10
192.716398841491
 20
143.303029215796
 30
0.0
 10
192.781252869459
 20
143.5359888328625
 30
0.0
 10
192.7975009890335
 20
143.6586870991917
 30
0.0
 10
192.7975009890335
 20
143.7797500557853
 30
0.0
  0
LINE
  5
DB
330
1F
100
AcDbEntity
  8
0
  6
Continuous
 62
     7
370
    15
100
AcDbLine
 10
188.9775006514
 20
143.9538415728
 30
0.0
 11
188.9775006514
 21
143.7797513066
 31
0.0
  0
LINE
  5
DC
330
1F
100
AcDbEntity
  8
0
  6
Continuous
 62
     7
370
    15
100
AcDbLine
 10
192.7975008677
 20
143.7797513066
 30
0.0
 11
192.7975008677
 21
143.9538415728
 31
0.0
  0
LINE
  5
DD
330
1F
100
AcDbEntity
  8
0
  6
Continuous
 62
     7
370
    15
100
AcDbLine
 10
182.9875009082
 20
146.1357888041
 30
0.0
 11
182.9875009082
 21
138.2367074696
 31
0.0
  0
LINE
  5
DE
330
1F
100
AcDbEntity
  8
0
  6
Continuous
 62
     7
370
    15
100
AcDbLine
 10
198.8375012245
 20
146.1357888041
 30
0.0
 11
198.8375012245
 21
138.2367074696
 31
0.0
  0
LINE
  5
DF
330
1F
100
AcDbEntity
  8
0
  6
Continuous
 62
     7
370
    15
100
AcDbLine
 10
78.1875022169
 20
90.0078624694
 30
0.0
 11
78.1875022169
 21
126.7655514388
 31
0.0
  0
SPLINE
  5
E0
330
1F
100
AcDbEntity
  8
0
  6
Continuous
 62
     7
370
    15
100
AcDbSpline
210
0.0
220
0.0
230
1.0
 70
    11
 71
     3
 72
    64
 73
    60
 74
     0
 42
0.000000001
 43
0.00000001
 40
0.0
 40
0.0
 40
0.0
 40
0.0
 40
0.0312499999999998
 40
0.0312499999999998
 40
0.0624999999999996
 40
0.0624999999999996
 40
0.0937499999999994
 40
0.0937499999999994
 40
0.1249999999999993
 40
0.1249999999999993
 40
0.1562499999999991
 40
0.1562499999999991
 40
0.1874999999999989
 40
0.1874999999999989
 40
0.2187499999999987
 40
0.2187499999999987
 40
0.2499999999999985
 40
0.2499999999999985
 40
0.2812499999999983
 40
0.2812499999999983
 40
0.3124999999999981
 40
0.3124999999999981
 40
0.3437499999999979
 40
0.3437499999999979
 40
0.3749999999999978
 40
0.3749999999999978
 40
0.4062499999999976
 40
0.4062499999999976
 40
0.4374999999999974
 40
0.4374999999999974
 40
0.4687499999999972
 40
0.4687499999999972
 40
0.499999999999997
 40
0.499999999999997
 40
0.5312499999999968
 40
0.5312499999999968
 40
0.5624999999999967
 40
0.5624999999999967
 40
0.6249999999999962
 40
0.6249999999999962
 40
0.6874999999999959
 40
0.6874999999999959
 40
0.7187499999999962
 40
0.7187499999999962
 40
0.7499999999999966
 40
0.7499999999999966
 40
0.781249999999997
 40
0.781249999999997
 40
0.8124999999999973
 40
0.8124999999999973
 40
0.8437499999999977
 40
0.8437499999999977
 40
0.8749999999999981
 40
0.8749999999999981
 40
0.9062499999999984
 40
0.9062499999999984
 40
0.9374999999999988
 40
0.9374999999999988
 40
1.0
 40
1.0
 40
1.0
 40
1.0
 10
221.2192983141405
 20
110.3839749954603
 30
0.0
 10
221.3644248327883
 20
110.5031902122937
 30
0.0
 10
221.5185725160989
 20
110.6067131501572
 30
0.0
 10
221.8434717815385
 20
110.7852317844664
 30
0.0
 10
222.0155110460085
 20
110.8606091868181
 30
0.0
 10
222.3708706099452
 20
110.9802815285589
 30
0.0
 10
222.5518099289448
 20
111.0240387604021
 30
0.0
 10
222.9199800128065
 20
111.0807272666154
 30
0.0
 10
223.1090415928542
 20
111.0935392092722
 30
0.0
 10
223.4834136088961
 20
111.0868820190047
 30
0.0
 10
223.6684531405249
 20
111.0678067418865
 30
0.0
 10
224.0342824388972
 20
110.9983850461548
 30
0.0
 10
224.2168109408589
 20
110.947253404662
 30
0.0
 10
224.5656066189106
 20
110.8155094251713
 30
0.0
 10
224.7324893784988
 20
110.7351635750834
 30
0.0
 10
225.0509487847982
 20
110.5446705828469
 30
0.0
 10
225.2038769291782
 20
110.43307024214
 30
0.0
 10
225.481217896255
 20
110.1864179111653
 30
0.0
 10
225.6068547685422
 20
110.0510702614251
 30
0.0
 10
225.830484514172
 20
109.7545762297114
 30
0.0
 10
225.9287171538957
 20
109.5918524442509
 30
0.0
 10
226.0847595661128
 20
109.2549986244765
 30
0.0
 10
226.1442105366029
 20
109.0792198264328
 30
0.0
 10
226.2228780132739
 20
108.7116394418656
 30
0.0
 10
226.2408110185792
 20
108.5234387231593
 30
0.0
 10
226.2331751666034
 20
108.1508316260276
 30
0.0
 10
226.2072341455305
 20
107.9620553702855
 30
0.0
 10
226.1140574834931
 20
107.5993373969265
 30
0.0
 10
226.0475521360863
 20
107.4251597819637
 30
0.0
 10
225.8760777832065
 20
107.0905819149229
 30
0.0
 10
225.7728553318091
 20
106.9340462718509
 30
0.0
 10
225.5377726340788
 20
106.6455463180177
 30
0.0
 10
225.4039374886791
 20
106.5116969513302
 30
0.0
 10
225.1165317455374
 20
106.2746399869844
 30
0.0
 10
224.9626019615936
 20
106.1704744414675
 30
0.0
 10
224.634903600568
 20
105.9896644835114
 30
0.0
 10
224.4622183143294
 20
105.9139920478386
 30
0.0
 10
223.9333419484287
 20
105.735088253106
 30
0.0
 10
223.5551021103794
 20
105.6769536651622
 30
0.0
 10
222.8102481039119
 20
105.6893188039321
 30
0.0
 10
222.4341345817514
 20
105.7600871479729
 30
0.0
 10
221.9129174912871
 20
105.9563852571318
 30
0.0
 10
221.7436910523226
 20
106.0375148476777
 30
0.0
 10
221.4221385210867
 20
106.2299192654074
 30
0.0
 10
221.2725209030021
 20
106.3392994460652
 30
0.0
 10
220.9958154157312
 20
106.5849946859392
 30
0.0
 10
220.8674603656899
 20
106.7230131221758
 30
0.0
 10
220.6426445754765
 20
107.0215647213884
 30
0.0
 10
220.547023272705
 20
107.1802130405707
 30
0.0
 10
220.3906978447844
 20
107.5171883069119
 30
0.0
 10
220.329720925735
 20
107.6981504146245
 30
0.0
 10
220.2519848846433
 20
108.0634864250505
 30
0.0
 10
220.2340881158805
 20
108.2489507821062
 30
0.0
 10
220.2419732974624
 20
108.6257139040332
 30
0.0
 10
220.2681119891785
 20
108.8130684806059
 30
0.0
 10
220.3612088744551
 20
109.1747330483157
 30
0.0
 10
220.4294091737542
 20
109.3526535875682
 30
0.0
 10
220.685783888544
 20
109.8511410747458
 30
0.0
 10
220.9290452768449
 20
110.1455445617934
 30
0.0
 10
221.2192983141405
 20
110.3839749954602
 30
0.0
  0
LINE
  5
E1
330
1F
100
AcDbEntity
  8
0
  6
Continuous
 62
     7
370
    15
100
AcDbLine
 10
229.5875020738
 20
108.3867069541
 30
0.0
 11
229.5875020738
 21
95.8867067678
 31
0.0
  0
LINE
  5
E2
330
1F
100
AcDbEntity
  8
0
  6
Continuous
 62
     7
370
    15
100
AcDbLine
 10
229.5875020738
 20
120.8867071403
 30
0.0
 11
229.5875020738
 21
108.3867069541
 31
0.0
  0
LINE
  5
E3
330
1F
100
AcDbEntity
  8
0
  6
Continuous
 62
     7
370
    15
100
AcDbLine
 10
229.7875017341
 20
108.3867069541
 30
0.0
 11
229.7875017341
 21
96.0867073594
 31
0.0
  0
LINE
  5
E4
330
1F
100
AcDbEntity
  8
0
  6
Continuous
 62
     7
370
    15
100
AcDbLine
 10
229.7875017341
 20
120.6867065488
 30
0.0
 11
229.7875017341
 21
108.3867069541
 31
0.0
  0
LINE
  5
E5
330
1F
100
AcDbEntity
  8
0
  6
Continuous
 62
     7
370
    15
100
AcDbLine
 10
191.5591836389
 20
92.5894737451
 30
0.0
 11
191.4875006716
 21
93.1479990689
 31
0.0
  0
ARC
  5
E6
330
1F
100
AcDbEntity
  8
0
  6
Continuous
 62
     7
370
    15
100
AcDbCircle
 10
193.9904180541
 20
93.3175440497
 30
0.0
 40
2.537909996487154
100
AcDbArc
 50
196.6711327865
 51
339.3772693724
  0
ARC
  5
E7
330
1F
100
AcDbEntity
  8
0
  6
Continuous
 62
     7
370
    15
100
AcDbCircle
 10
193.8196188595
 20
93.094217305
 30
0.0
 40
1.82872200359251
100
AcDbArc
 50
123.9814697292
 51
193.9520215263
  0
ARC
  5
E8
330
1F
100
AcDbEntity
  8
0
  6
Continuous
 62
     7
370
    15
100
AcDbCircle
 10
193.978456442
 20
93.2095231507
 30
0.0
 40
2.012021717155881
100
AcDbArc
 50
196.0485716056
 51
356.8829337615
  0
CIRCLE
  5
E9
330
1F
100
AcDbEntity
  8
0
  6
HIDDEN
 62
     7
370
     0
100
AcDbCircle
 10
223.237500989
 20
108.3867069541
 30
0.0
 40
1.776794919243084
  0
CIRCLE
  5
EA
330
1F
100
AcDbEntity
  8
0
  6
HIDDEN
 62
     7
370
     0
100
AcDbCircle
 10
223.237500989
 20
108.3867069541
 30
0.0
 40
1.676794919243089
  0
LWPOLYLINE
  5
EB
330
1F
100
AcDbEntity
  8
0
  6
HIDDEN
 62
     7
370
     0
100
AcDbPolyline
 90
       22
 70
   128
 43
0.0
 10
193.9875010814
 20
92.5293904005
 10
194.7243886482
 20
92.6337599961
 10
195.3958014439
 20
92.9375956042
 10
195.9420789446
 20
93.4138991146
 10
196.3146862056
 20
94.0203502981
 10
196.4805100526
 20
94.7030628307
 10
196.424820688
 20
95.4013750164
 10
196.1525652971
 20
96.0532374887
 10
195.6879321899
 20
96.6007303653
 10
195.0722106214
 20
96.9952060117
 10
194.3601064797
 20
97.2016141025
 10
193.6148956831
 20
97.2016141025
 10
192.9027915414
 20
96.9952060117
 10
192.2870690416
 20
96.6007303653
 10
191.8224377971
 20
96.0532374887
 10
191.5501814749
 20
95.4013750164
 10
191.4944911789
 20
94.7030628307
 10
191.6603168886
 20
94.0203502981
 10
192.0329222869
 20
93.4138991146
 10
192.5792007189
 20
92.9375956042
 10
193.2506135147
 20
92.6337599961
 10
193.9875010814
 20
92.5293904005
  0
LWPOLYLINE
  5
EC
330
1F
100
AcDbEntity
  8
0
  6
HIDDEN
 62
     7
370
     0
100
AcDbPolyline
 90
       25
 70
   128
 43
0.0
 10
183.2592319645
 20
94.4818467109
 10
183.4426668886
 20
93.7204774676
 10
183.7259775441
 20
93.0109931363
 10
184.0898569155
 20
92.401745191
 10
184.5095071423
 20
91.9342547862
 10
184.9563296366
 20
91.6403759478
 10
185.3998743411
 20
91.5401395617
 10
185.8099137846
 20
91.6403759478
 10
186.158505496
 20
91.9342547862
 10
186.4218928333
 20
92.401745191
 10
186.5821268823
 20
93.0109931363
 10
186.62828742
 20
93.7204774676
 10
186.5572289046
 20
94.4818467109
 10
186.3737937476
 20
95.2432168855
 10
186.0904830921
 20
95.9527002854
 10
185.7266037207
 20
96.5619482307
 10
185.3069534938
 20
97.0294395669
 10
184.8601309996
 20
97.323317474
 10
184.4165862951
 20
97.42355386
 10
184.0065463859
 20
97.323317474
 10
183.6579551402
 20
97.0294395669
 10
183.3945675701
 20
96.5619482307
 10
183.2343339868
 20
95.9527002854
 10
183.188173449
 20
95.2432168855
 10
183.2592319645
 20
94.4818467109
  0
LWPOLYLINE
  5
ED
330
1F
100
AcDbEntity
  8
0
  6
HIDDEN
 62
     7
370
     0
100
AcDbPolyline
 90
       21
 70
   128
 43
0.0
 10
184.0222638514
 20
94.5461088998
 10
184.1851074662
 20
93.9097827507
 10
184.4450018782
 20
93.3357443867
 10
184.7765066143
 20
92.8801851554
 10
185.1471711363
 20
92.5876986442
 10
185.5207134451
 20
92.4869127778
 10
185.8605674881
 20
92.5876986442
 10
186.1334659572
 20
92.8801851554
 10
186.3126966584
 20
93.3357443867
 10
186.3807144057
 20
93.9097827507
 10
186.3308616396
 20
94.5461088998
 10
186.1680175591
 20
95.1824350489
 10
185.9081231471
 20
95.7564724816
 10
185.5766188766
 20
96.212031713
 10
185.2059538889
 20
96.5045191554
 10
184.8324120458
 20
96.6053031592
 10
184.4925580028
 20
96.5045191554
 10
184.219659068
 20
96.212031713
 10
184.0404283669
 20
95.7564724816
 10
183.9724106196
 20
95.1824350489
 10
184.0222638514
 20
94.5461088998
  0
ELLIPSE
  5
EE
330
1F
100
AcDbEntity
  8
0
  6
HIDDEN
 62
     7
370
     0
100
AcDbEllipse
 10
193.987500989
 20
96.6561968427
 30
0.0
 11
1.760776919379111
 21
2.232245799914438
 31
0.0
210
0.0
220
0.0
230
1.0
 40
0.5126701559
 41
1.100887047646286
 42
4.029627027608358
  0
ARC
  5
EF
330
1F
100
AcDbEntity
  8
0
  6
HIDDEN
 62
     7
370
     0
100
AcDbCircle
 10
193.2909015205
 20
97.8337367239
 30
0.0
 40
0.7945949542258096
100
AcDbArc
 50
53.4208190544
 51
99.1663888759
  0
ELLIPSE
  5
F0
330
1F
100
AcDbEntity
  8
0
  6
HIDDEN
 62
     7
370
     0
100
AcDbEllipse
 10
193.987500989
 20
96.6561968427
 30
0.0
 11
1.760776919379112
 21
-1.388886188042946
 31
0.0
210
0.0
220
0.0
230
1.0
 40
0.8239737799
 41
2.549926265248528
 42
4.88593027385603
  0
ARC
  5
F1
330
1F
100
AcDbEntity
  8
0
  6
HIDDEN
 62
     7
370
     0
100
AcDbCircle
 10
194.2335537509
 20
95.8167192787
 30
0.0
 40
1.353195702694776
100
AcDbArc
 50
217.8001040701
 51
249.7155767561
  0
LWPOLYLINE
  5
F2
330
1F
100
AcDbEntity
  8
0
  6
HIDDEN
 62
     7
370
     0
100
AcDbPolyline
 90
       21
 70
   128
 43
0.0
 10
193.9875010814
 20
92.9550606964
 10
194.6364364069
 20
93.051643504
 10
195.2218499448
 20
93.3319380714
 10
195.6864364858
 20
93.7685067041
 10
195.98472048
 20
94.3186156659
 10
196.0875012394
 20
94.9284158854
 10
195.98472048
 20
95.5382151736
 10
195.6864364858
 20
96.0883241354
 10
195.2218499448
 20
96.5248927681
 10
194.6364364069
 20
96.8051873354
 10
193.9875010814
 20
96.901770143
 10
193.338565756
 20
96.8051873354
 10
192.7531522181
 20
96.5248927681
 10
192.288565677
 20
96.0883241354
 10
191.9902826141
 20
95.5382151736
 10
191.8875009235
 20
94.9284158854
 10
191.9902826141
 20
94.3186156659
 10
192.288565677
 20
93.7685067041
 10
192.7531522181
 20
93.3319380714
 10
193.338565756
 20
93.051643504
 10
193.9875010814
 20
92.9550606964
  0
SPLINE
  5
F3
330
1F
100
AcDbEntity
  8
0
  6
HIDDEN
 62
     7
370
     0
100
AcDbSpline
210
0.0
220
0.0
230
1.0
 70
    11
 71
     3
 72
    66
 73
    62
 74
     0
 42
0.000000001
 43
0.00000001
 40
0.0
 40
0.0
 40
0.0
 40
0.0
 40
0.03125
 40
0.03125
 40
0.0625000000000001
 40
0.0625000000000001
 40
0.0937500000000001
 40
0.0937500000000001
 40
0.1250000000000002
 40
0.1250000000000002
 40
0.1562500000000002
 40
0.1562500000000002
 40
0.1875000000000002
 40
0.1875000000000002
 40
0.2187500000000003
 40
0.2187500000000003
 40
0.2500000000000003
 40
0.2500000000000003
 40
0.2812500000000004
 40
0.2812500000000004
 40
0.3125000000000005
 40
0.3125000000000005
 40
0.3437500000000006
 40
0.3437500000000006
 40
0.3750000000000007
 40
0.3750000000000007
 40
0.4062500000000008
 40
0.4062500000000008
 40
0.4375000000000009
 40
0.4375000000000009
 40
0.4687500000000009
 40
0.4687500000000009
 40
0.500000000000001
 40
0.500000000000001
 40
0.531250000000001
 40
0.531250000000001
 40
0.5625000000000011
 40
0.5625000000000011
 40
0.5937500000000011
 40
0.5937500000000011
 40
0.6250000000000012
 40
0.6250000000000012
 40
0.656250000000001
 40
0.656250000000001
 40
0.6875000000000008
 40
0.6875000000000008
 40
0.7187500000000007
 40
0.7187500000000007
 40
0.7500000000000004
 40
0.7500000000000004
 40
0.7812500000000002
 40
0.7812500000000002
 40
0.8125000000000001
 40
0.8125000000000001
 40
0.8749999999999998
 40
0.8749999999999998
 40
0.9374999999999998
 40
0.9374999999999998
 40
0.96875
 40
0.96875
 40
1.0
 40
1.0
 40
1.0
 40
1.0
 10
193.9875009890335
 20
105.9494137558358
 30
0.0
 10
193.8383656139062
 20
105.9494137558358
 30
0.0
 10
193.694637305988
 20
105.9556047448451
 30
0.0
 10
193.4156990382935
 20
105.9817777828305
 30
0.0
 10
193.2871418952124
 20
106.0012551306293
 30
0.0
 10
193.0431242444849
 20
106.0555773765293
 30
0.0
 10
192.9276677506512
 20
106.0907167344372
 30
0.0
 10
192.713831097179
 20
106.1772977202329
 30
0.0
 10
192.6143389919473
 20
106.2289053623792
 30
0.0
 10
192.4285353800114
 20
106.3525054976397
 30
0.0
 10
192.3418919264239
 20
106.4251564133384
 30
0.0
 10
192.1889306270947
 20
106.5900167551126
 30
0.0
 10
192.1217229781317
 20
106.6825697619656
 30
0.0
 10
192.0084580911906
 20
106.8930063987872
 30
0.0
 10
191.9642137465933
 20
107.0078926859388
 30
0.0
 10
191.9036919669853
 20
107.2565042691727
 30
0.0
 10
191.8877042151308
 20
107.391578110176
 30
0.0
 10
191.8873017394355
 20
107.6663052736067
 30
0.0
 10
191.9027761056774
 20
107.8100033840727
 30
0.0
 10
191.9627022098286
 20
108.0940016114474
 30
0.0
 10
192.0066846668524
 20
108.2342500476855
 30
0.0
 10
192.1194470841027
 20
108.5083683533907
 30
0.0
 10
192.1866270235997
 20
108.6386682265021
 30
0.0
 10
192.3402090854313
 20
108.8874778792894
 30
0.0
 10
192.4265127243111
 20
109.0053573314834
 30
0.0
 10
192.6116419845434
 20
109.2220292341761
 30
0.0
 10
192.7111546059764
 20
109.3220410807357
 30
0.0
 10
192.9260652391121
 20
109.505329460052
 30
0.0
 10
193.0412798701092
 20
109.588233221203
 30
0.0
 10
193.2847378349346
 20
109.7291455163983
 30
0.0
 10
193.4155892449651
 20
109.7886416890849
 30
0.0
 10
193.6921648756608
 20
109.8722922675791
 30
0.0
 10
193.8397303102431
 20
109.8960422803111
 30
0.0
 10
194.1337105508418
 20
109.8962028197076
 30
0.0
 10
194.2809054243773
 20
109.8726666955431
 30
0.0
 10
194.5570086474581
 20
109.7895753481393
 30
0.0
 10
194.6867025763284
 20
109.7309783940679
 30
0.0
 10
194.9322510654164
 20
109.5893085564441
 30
0.0
 10
195.0457109730261
 20
109.5077144934757
 30
0.0
 10
195.2594987155112
 20
109.3261032070922
 30
0.0
 10
195.3603253930546
 20
109.225310073396
 30
0.0
 10
195.5471187205875
 20
109.0072258642501
 30
0.0
 10
195.6318562098874
 20
108.8915473319251
 30
0.0
 10
195.7840993783867
 20
108.6462510402337
 30
0.0
 10
195.852129157899
 20
108.5154345532161
 30
0.0
 10
195.965500449875
 20
108.2422913287628
 30
0.0
 10
196.009801122725
 20
108.1029641082522
 30
0.0
 10
196.0710305507731
 20
107.81837689919
 30
0.0
 10
196.0870635442639
 20
107.6750965130469
 30
0.0
 10
196.0879204393091
 20
107.3997748492912
 30
0.0
 10
196.0725223385764
 20
107.2641473876117
 30
0.0
 10
196.0130398008831
 20
107.0146278939926
 30
0.0
 10
195.9687497220235
 20
106.8981855423018
 30
0.0
 10
195.8004216469145
 20
106.5822801718005
 30
0.0
 10
195.6421632984118
 20
106.4169312454219
 30
0.0
 10
195.2721354104572
 20
106.1692633427645
 30
0.0
 10
195.0562563206566
 20
106.0835766615012
 30
0.0
 10
194.6912321671871
 20
106.0018533916005
 30
0.0
 10
194.5598836508419
 20
105.9819010590354
 30
0.0
 10
194.2835924384666
 20
105.9558397630034
 30
0.0
 10
194.1366363641607
 20
105.9494137558358
 30
0.0
 10
193.9875009890335
 20
105.9494137558358
 30
0.0
  0
SPLINE
  5
F4
330
1F
100
AcDbEntity
  8
0
  6
HIDDEN
 62
     7
370
     0
100
AcDbSpline
210
0.0
220
0.0
230
1.0
 70
     8
 71
     3
 72
     8
 73
     4
 74
     0
 42
0.000000001
 43
0.00000001
 40
0.0
 40
0.0
 40
0.0
 40
0.0
 40
1.0
 40
1.0
 40
1.0
 40
1.0
 10
193.1643208128741
 20
98.61818491858969
 30
0.0
 10
193.3757482028753
 20
98.6106754088072
 30
0.0
 10
193.578216749408
 20
98.55655187917255
 30
0.0
 10
193.7644273485454
 20
98.47182359194738
 30
0.0
  0
SPLINE
  5
F5
330
1F
100
AcDbEntity
  8
0
  6
HIDDEN
 62
     7
370
     0
100
AcDbSpline
210
0.0
220
0.0
230
1.0
 70
     8
 71
     3
 72
     8
 73
     4
 74
     0
 42
0.000000001
 43
0.00000001
 40
0.0
 40
0.0
 40
0.0
 40
0.0
 40
1.0
 40
1.0
 40
1.0
 40
1.0
 10
193.7644273485455
 20
94.54744482401307
 30
0.0
 10
193.577902999261
 20
94.66976523991357
 30
0.0
 10
193.3753481007353
 20
94.81085040057836
 30
0.0
 10
193.1643208128739
 20
94.98733403636328
 30
0.0
  0
LINE
  5
F6
330
1F
100
AcDbEntity
  8
0
  6
HIDDEN
 62
     7
370
     0
100
AcDbLine
 10
183.1590738095
 20
73.086705452
 30
0.0
 11
182.9875009082
 21
73.086705452
 31
0.0
  0
ELLIPSE
  5
F7
330
1F
100
AcDbEntity
  8
0
  6
HIDDEN
 62
     7
370
     0
100
AcDbEllipse
 10
183.1590738643
 20
71.0867069541
 30
0.0
 11
0.0
 21
2.000000000000014
 31
0.0
210
0.0
220
0.0
230
1.0
 40
0.4142135624
 41
4.712388980384702
 42
6.283185307179586
  0
LINE
  5
F8
330
1F
100
AcDbEntity
  8
0
  6
HIDDEN
 62
     7
370
     0
100
AcDbLine
 10
182.9875009082
 20
145.8867084442
 30
0.0
 11
183.1590738095
 21
145.8867084442
 31
0.0
  0
ELLIPSE
  5
F9
330
1F
100
AcDbEntity
  8
0
  6
HIDDEN
 62
     7
370
     0
100
AcDbEllipse
 10
183.1590738643
 20
147.8867069541
 30
0.0
 11
0.0
 21
2.0
 31
0.0
210
0.0
220
0.0
230
1.0
 40
0.4142135624
 41
3.141592653589793
 42
4.712388980384695
  0
LINE
  5
FA
330
1F
100
AcDbEntity
  8
0
  6
HIDDEN
 62
     7
370
     0
100
AcDbLine
 10
183.9875008393
 20
62.200792527
 30
0.0
 11
183.2031609904
 21
61.7532510517
 31
0.0
  0
LINE
  5
FB
330
1F
100
AcDbEntity
  8
0
  6
HIDDEN
 62
     7
370
     0
100
AcDbLine
 10
183.2773699373
 20
155.0968703089
 30
0.0
 11
183.9875008393
 21
154.3867405711
 31
0.0
  0
LINE
  5
FC
330
1F
100
AcDbEntity
  8
0
  6
HIDDEN
 62
     7
370
     0
100
AcDbLine
 10
183.1590738095
 20
145.8867084442
 30
0.0
 11
198.8375012245
 21
145.8867084442
 31
0.0
  0
LINE
  5
FD
330
1F
100
AcDbEntity
  8
0
  6
HIDDEN
 62
     7
370
     0
100
AcDbLine
 10
188.1074535142
 20
62.200792527
 30
0.0
 11
183.9875008393
 21
62.200792527
 31
0.0
  0
LINE
  5
FE
330
1F
100
AcDbEntity
  8
0
  6
HIDDEN
 62
     7
370
     0
100
AcDbLine
 10
198.8375012245
 20
62.200792527
 30
0.0
 11
193.6675489362
 21
62.200792527
 31
0.0
  0
LINE
  5
FF
330
1F
100
AcDbEntity
  8
0
  6
HIDDEN
 62
     7
370
     0
100
AcDbLine
 10
183.9875008393
 20
62.200792527
 30
0.0
 11
183.9875008393
 21
71.0867051242
 31
0.0
  0
LINE
  5
100
330
1F
100
AcDbEntity
  8
0
  6
HIDDEN
 62
     7
370
     0
100
AcDbLine
 10
198.8375012245
 20
73.086705452
 30
0.0
 11
183.1590738095
 21
73.086705452
 31
0.0
  0
LINE
  5
101
330
1F
100
AcDbEntity
  8
0
  6
HIDDEN
 62
     7
370
     0
100
AcDbLine
 10
183.9875008393
 20
154.3867405711
 30
0.0
 11
188.21083032
 21
154.3867405711
 31
0.0
  0
LINE
  5
102
330
1F
100
AcDbEntity
  8
0
  6
HIDDEN
 62
     7
370
     0
100
AcDbLine
 10
193.5641721304
 20
154.3867405711
 30
0.0
 11
198.8375012245
 21
154.3867405711
 31
0.0
  0
LINE
  5
103
330
1F
100
AcDbEntity
  8
0
  6
HIDDEN
 62
     7
370
     0
100
AcDbLine
 10
183.9875008393
 20
154.3867405711
 30
0.0
 11
183.9875008393
 21
147.886708772
 31
0.0
  0
LINE
  5
104
330
1F
100
AcDbEntity
  8
0
  6
HIDDEN
 62
     7
370
     0
100
AcDbLine
 10
88.1875001307
 20
95.8867067678
 30
0.0
 11
88.1875001307
 21
120.8867071403
 31
0.0
  0
LINE
  5
105
330
1F
100
AcDbEntity
  8
0
  6
HIDDEN
 62
     7
370
     0
100
AcDbLine
 10
91.472103488
 20
97.8867070956
 30
0.0
 11
91.472103488
 21
118.8867068125
 31
0.0
  0
LINE
  5
106
330
1F
100
AcDbEntity
  8
0
  6
HIDDEN
 62
     7
370
     0
100
AcDbLine
 10
140.1875012036
 20
97.8867070956
 30
0.0
 11
140.1875012036
 21
118.8867068125
 31
0.0
  0
LINE
  5
107
330
1F
100
AcDbEntity
  8
0
  6
HIDDEN
 62
     7
370
     0
100
AcDbLine
 10
144.9943848367
 20
105.8867070099
 30
0.0
 11
144.9943848367
 21
110.8867068982
 31
0.0
  0
SPLINE
  5
108
330
1F
100
AcDbEntity
  8
0
  6
HIDDEN
 62
     7
370
     0
100
AcDbSpline
210
0.0
220
0.0
230
1.0
 70
     8
 71
     3
 72
    16
 73
    12
 74
     0
 42
0.000000001
 43
0.00000001
 40
0.0
 40
0.0
 40
0.0
 40
0.0
 40
0.2499999999999989
 40
0.2499999999999989
 40
0.4999999999999978
 40
0.4999999999999978
 40
0.6249999999999983
 40
0.6249999999999983
 40
0.7499999999999989
 40
0.7499999999999989
 40
1.0
 40
1.0
 40
1.0
 40
1.0
 10
229.7875009890335
 20
115.227544069446
 30
0.0
 10
229.7875009890334
 20
115.1590731472622
 30
0.0
 10
229.7829557788582
 20
115.0891449056113
 30
0.0
 10
229.7572858137345
 20
114.943975675524
 30
0.0
 10
229.7355589338522
 20
114.8656249534531
 30
0.0
 10
229.6765995033927
 20
114.7634534045924
 30
0.0
 10
229.6519493764092
 20
114.7322650753247
 30
0.0
 10
229.5976323836124
 20
114.6860571582251
 30
0.0
 10
229.5688624518973
 20
114.6713201417512
 30
0.0
 10
229.4861600818866
 20
114.6461224930367
 30
0.0
 10
229.4348706052798
 20
114.651699330614
 30
0.0
 10
229.3875009890259
 20
114.664252683863
 30
0.0
  0
SPLINE
  5
109
330
1F
100
AcDbEntity
  8
0
  6
HIDDEN
 62
     7
370
     0
100
AcDbSpline
210
0.0
220
0.0
230
1.0
 70
     8
 71
     3
 72
     8
 73
     4
 74
     0
 42
0.000000001
 43
0.00000001
 40
0.0
 40
0.0
 40
0.0
 40
0.0
 40
1.0
 40
1.0
 40
1.0
 40
1.0
 10
229.3875009890284
 20
114.6642526838723
 30
0.0
 10
229.3286056644002
 20
114.6313008272
 30
0.0
 10
229.2589960351207
 20
114.6096348712436
 30
0.0
 10
229.1875009890336
 20
114.6096348712436
 30
0.0
  0
SPLINE
  5
10A
330
1F
100
AcDbEntity
  8
0
  6
HIDDEN
 62
     7
370
     0
100
AcDbSpline
210
0.0
220
0.0
230
1.0
 70
     8
 71
     3
 72
     8
 73
     4
 74
     0
 42
0.000000001
 43
0.00000001
 40
0.0
 40
0.0
 40
0.0
 40
0.0
 40
1.0
 40
1.0
 40
1.0
 40
1.0
 10
229.3875009890432
 20
102.109161224256
 30
0.0
 10
229.3286056644118
 20
102.1421130809328
 30
0.0
 10
229.2589960351268
 20
102.163779036893
 30
0.0
 10
229.1875009890336
 20
102.163779036893
 30
0.0
  0
SPLINE
  5
10B
330
1F
100
AcDbEntity
  8
0
  6
HIDDEN
 62
     7
370
     0
100
AcDbSpline
210
0.0
220
0.0
230
1.0
 70
     8
 71
     3
 72
    16
 73
    12
 74
     0
 42
0.000000001
 43
0.00000001
 40
0.0
 40
0.0
 40
0.0
 40
0.0
 40
0.2500000000000067
 40
0.2500000000000067
 40
0.3750000000000101
 40
0.3750000000000101
 40
0.5000000000000134
 40
0.5000000000000134
 40
0.7500000000000067
 40
0.7500000000000067
 40
1.0
 40
1.0
 40
1.0
 40
1.0
 10
229.3875009890432
 20
102.1091612242558
 30
0.0
 10
229.4348829538101
 20
102.121717914938
 30
0.0
 10
229.4860641723403
 20
102.1273426727017
 30
0.0
 10
229.5690192342574
 20
102.1020420220461
 30
0.0
 10
229.5977015954192
 20
102.0872974653067
 30
0.0
 10
229.6518094003233
 20
102.0412858979326
 30
0.0
 10
229.6762051544414
 20
102.0105530823865
 30
0.0
 10
229.735516717179
 20
101.9080711418816
 30
0.0
 10
229.757044271079
 20
101.8304135830711
 30
0.0
 10
229.7828745258267
 20
101.6851274625231
 30
0.0
 10
229.7875009890335
 20
101.6143951957101
 30
0.0
 10
229.7875009890335
 20
101.5458743225056
 30
0.0
  0
LINE
  5
10C
330
1F
100
AcDbEntity
  8
0
  6
HIDDEN
 62
     7
370
     0
100
AcDbLine
 10
213.2875018235
 20
108.3867069541
 30
0.0
 11
213.2875018235
 21
101.6867071597
 31
0.0
  0
LINE
  5
10D
330
1F
100
AcDbEntity
  8
0
  6
HIDDEN
 62
     7
370
     0
100
AcDbLine
 10
213.2875018235
 20
115.0867067484
 30
0.0
 11
213.2875018235
 21
108.3867069541
 31
0.0
  0
LINE
  5
10E
330
1F
100
AcDbEntity
  8
0
  6
HIDDEN
 62
     7
370
     0
100
AcDbLine
 10
216.6535251256
 20
108.3867069541
 30
0.0
 11
216.6535251256
 21
101.386706738
 31
0.0
  0
LINE
  5
10F
330
1F
100
AcDbEntity
  8
0
  6
HIDDEN
 62
     7
370
     0
100
AcDbLine
 10
216.6535251256
 20
115.3867071701
 30
0.0
 11
216.6535251256
 21
108.3867069541
 31
0.0
  0
LINE
  5
110
330
1F
100
AcDbEntity
  8
0
  6
HIDDEN
 62
     7
370
     0
100
AcDbLine
 10
222.8875004168
 20
114.6096348969
 30
0.0
 11
229.1875027533
 21
114.6096348969
 31
0.0
  0
LINE
  5
111
330
1F
100
AcDbEntity
  8
0
  6
HIDDEN
 62
     7
370
     0
100
AcDbLine
 10
222.8875004168
 20
102.1637790112
 30
0.0
 11
229.1875027533
 21
102.1637790112
 31
0.0
  0
SPLINE
  5
112
330
1F
100
AcDbEntity
  8
0
  6
HIDDEN
 62
     7
370
     0
100
AcDbSpline
210
0.0
220
0.0
230
1.0
 70
    11
 71
     3
 72
    22
 73
    18
 74
     0
 42
0.000000001
 43
0.00000001
 40
0.0
 40
0.0
 40
0.0
 40
0.0
 40
0.1249999999999999
 40
0.1249999999999999
 40
0.2499999999999998
 40
0.2499999999999998
 40
0.3749999999999998
 40
0.3749999999999998
 40
0.4999999999999998
 40
0.4999999999999998
 40
0.6249999999999998
 40
0.6249999999999998
 40
0.7499999999999999
 40
0.7499999999999999
 40
0.875
 40
0.875
 40
1.0
 40
1.0
 40
1.0
 40
1.0
 10
229.3875009890335
 20
117.4617069540683
 30
0.0
 10
229.3875009890335
 20
117.5990242022786
 30
0.0
 10
229.3876666581157
 20
117.7230100010006
 30
0.0
 10
229.3850485291312
 20
117.9450955856354
 30
0.0
 10
229.3828621498626
 20
118.0422008224247
 30
0.0
 10
229.3769804951668
 20
118.1985621168075
 30
0.0
 10
229.3730565235917
 20
118.2598792417635
 30
0.0
 10
229.3656288055161
 20
118.3408955950968
 30
0.0
 10
229.362046375461
 20
118.3616967311115
 30
0.0
 10
229.3574217458477
 20
118.3617171694652
 30
0.0
 10
229.3564951563462
 20
118.3413583058467
 30
0.0
 10
229.3585496111872
 20
118.2599695730813
 30
0.0
 10
229.361494910134
 20
118.1993049476416
 30
0.0
 10
229.3697587126791
 20
118.0429967479443
 30
0.0
 10
229.375101953746
 20
117.9455760459726
 30
0.0
 10
229.3840508290253
 20
117.7246552702194
 30
0.0
 10
229.3875009742278
 20
117.5990388731384
 30
0.0
 10
229.3875009776295
 20
117.4617069540683
 30
0.0
  0
LINE
  5
113
330
1F
100
AcDbEntity
  8
0
  6
HIDDEN
 62
     7
370
     0
100
AcDbLine
 10
229.3875024136
 20
117.4617069049
 30
0.0
 11
229.3875024136
 21
114.664252775
 31
0.0
  0
LINE
  5
114
330
1F
100
AcDbEntity
  8
0
  6
HIDDEN
 62
     7
370
     0
100
AcDbLine
 10
229.3875024136
 20
99.3117070032
 30
0.0
 11
229.3875024136
 21
102.1091611331
 31
0.0
  0
SPLINE
  5
115
330
1F
100
AcDbEntity
  8
0
  6
HIDDEN
 62
     7
370
     0
100
AcDbSpline
210
0.0
220
0.0
230
1.0
 70
     8
 71
     3
 72
    11
 73
     7
 74
     0
 42
0.000000001
 43
0.00000001
 40
0.0
 40
0.0
 40
0.0
 40
0.0
 40
0.2797203183380387
 40
0.6044293331209099
 40
0.9296772413297845
 40
1.0
 40
1.0
 40
1.0
 40
1.0
 10
229.3603785749214
 20
98.42419943047202
 30
0.0
 10
229.3586068070083
 20
98.43590376563156
 30
0.0
 10
229.3547783096559
 20
98.46119489763491
 30
0.0
 10
229.3708765901336
 20
98.74207720793913
 30
0.0
 10
229.3863670730749
 20
99.06533310361962
 30
0.0
 10
229.3873310433262
 20
99.27451890112336
 30
0.0
 10
229.3875024135845
 20
99.31170700324213
 30
0.0
  0
LINE
  5
116
330
1F
100
AcDbEntity
  8
0
  6
HIDDEN
 62
     7
370
     0
100
AcDbLine
 10
222.8875004168
 20
117.4617069049
 30
0.0
 11
222.8875004168
 21
114.6096348969
 31
0.0
  0
LINE
  5
117
330
1F
100
AcDbEntity
  8
0
  6
HIDDEN
 62
     7
370
     0
100
AcDbLine
 10
222.8875004168
 20
99.3117070032
 30
0.0
 11
222.8875004168
 21
102.1637790112
 31
0.0
  0
SPLINE
  5
118
330
1F
100
AcDbEntity
  8
0
  6
HIDDEN
 62
     7
370
     0
100
AcDbSpline
210
0.0
220
0.0
230
1.0
 70
    11
 71
     3
 72
    66
 73
    62
 74
     0
 42
0.000000001
 43
0.00000001
 40
0.0
 40
0.0
 40
0.0
 40
0.0
 40
0.0312500000000001
 40
0.0312500000000001
 40
0.0625000000000002
 40
0.0625000000000002
 40
0.0937500000000004
 40
0.0937500000000004
 40
0.1250000000000005
 40
0.1250000000000005
 40
0.1562500000000006
 40
0.1562500000000006
 40
0.1875000000000007
 40
0.1875000000000007
 40
0.2187500000000009
 40
0.2187500000000009
 40
0.250000000000001
 40
0.250000000000001
 40
0.2812500000000011
 40
0.2812500000000011
 40
0.3125000000000012
 40
0.3125000000000012
 40
0.3437500000000014
 40
0.3437500000000014
 40
0.3750000000000015
 40
0.3750000000000015
 40
0.4062500000000014
 40
0.4062500000000014
 40
0.4375000000000013
 40
0.4375000000000013
 40
0.4687500000000012
 40
0.4687500000000012
 40
0.5000000000000011
 40
0.5000000000000011
 40
0.531250000000001
 40
0.531250000000001
 40
0.5625000000000009
 40
0.5625000000000009
 40
0.5937500000000008
 40
0.5937500000000008
 40
0.6250000000000007
 40
0.6250000000000007
 40
0.6562500000000007
 40
0.6562500000000007
 40
0.6875000000000006
 40
0.6875000000000006
 40
0.7187500000000004
 40
0.7187500000000004
 40
0.7500000000000003
 40
0.7500000000000003
 40
0.7812500000000002
 40
0.7812500000000002
 40
0.8125000000000001
 40
0.8125000000000001
 40
0.8749999999999999
 40
0.8749999999999999
 40
0.9374999999999998
 40
0.9374999999999998
 40
0.9687499999999999
 40
0.9687499999999999
 40
1.0
 40
1.0
 40
1.0
 40
1.0
 10
193.9875009890335
 20
106.877291145
 30
0.0
 10
194.1366363641607
 20
106.877291145
 30
0.0
 10
194.2803646720789
 20
106.9004996866533
 30
0.0
 10
194.5593029397734
 20
106.9846143363395
 30
0.0
 10
194.6878600828545
 20
107.0430683784078
 30
0.0
 10
194.9318777335821
 20
107.1839250315096
 30
0.0
 10
195.0473342274158
 20
107.2669231724032
 30
0.0
 10
195.2611708808879
 20
107.4488887903544
 30
0.0
 10
195.3606629861197
 20
107.5485169652842
 30
0.0
 10
195.5464665980556
 20
107.7654077272536
 30
0.0
 10
195.6331100516431
 20
107.8835889486545
 30
0.0
 10
195.7860713509723
 20
108.1306443140337
 30
0.0
 10
195.8532789999352
 20
108.2603263709192
 30
0.0
 10
195.9665438868763
 20
108.5340680517499
 30
0.0
 10
196.0107882314737
 20
108.674118939236
 30
0.0
 10
196.0713100110816
 20
108.9572741006046
 30
0.0
 10
196.0872977629362
 20
109.1015620543729
 30
0.0
 10
196.0877002386314
 20
109.3765204777948
 30
0.0
 10
196.0722258723896
 20
109.5112990857643
 30
0.0
 10
196.0122997682383
 20
109.7610875872377
 30
0.0
 10
195.9683173112145
 20
109.8763141055722
 30
0.0
 10
195.8555548939642
 20
110.0873861637473
 30
0.0
 10
195.7883749544672
 20
110.1805521505833
 30
0.0
 10
195.6347928926356
 20
110.3467966728032
 30
0.0
 10
195.5484892537558
 20
110.4193100205665
 30
0.0
 10
195.3633599935235
 20
110.5429609646236
 30
0.0
 10
195.2638473720905
 20
110.5948769964789
 30
0.0
 10
195.0489367389548
 20
110.6822007625223
 30
0.0
 10
194.9337221079577
 20
110.7173170972537
 30
0.0
 10
194.6902641431324
 20
110.771730559968
 30
0.0
 10
194.5594127331019
 20
110.7915792547899
 30
0.0
 10
194.2828371024062
 20
110.817623308692
 30
0.0
 10
194.1352716678238
 20
110.8239776814808
 30
0.0
 10
193.8412914272251
 20
110.8240225041106
 30
0.0
 10
193.6940965536896
 20
110.817726938742
 30
0.0
 10
193.4179933306088
 20
110.7918826867892
 30
0.0
 10
193.2882994017385
 20
110.7723963691219
 30
0.0
 10
193.0427509126505
 20
110.7177734458126
 30
0.0
 10
192.9292910050409
 20
110.6832358937031
 30
0.0
 10
192.7155032625557
 20
110.5969099468644
 30
0.0
 10
192.6146765850123
 20
110.5447498553425
 30
0.0
 10
192.4278832574794
 20
110.4204578416604
 30
0.0
 10
192.3431457681795
 20
110.3493209420452
 30
0.0
 10
192.1909025996802
 20
110.1858044172357
 30
0.0
 10
192.1228728201679
 20
110.0925545711751
 30
0.0
 10
192.0095015281919
 20
109.8827638401801
 30
0.0
 10
191.965200855342
 20
109.7686286110458
 30
0.0
 10
191.9039714272939
 20
109.5189856045398
 30
0.0
 10
191.8879384338031
 20
109.3849458769187
 30
0.0
 10
191.8870815387578
 20
109.1101165791572
 30
0.0
 10
191.9024796394905
 20
108.9656136422821
 30
0.0
 10
191.9619621771838
 20
108.6821350405353
 30
0.0
 10
192.0062522560434
 20
108.5404951972174
 30
0.0
 10
192.1745803311524
 20
108.1304650077595
 30
0.0
 10
192.3328386796552
 20
107.8779876492748
 30
0.0
 10
192.7028665676097
 20
107.4443223631729
 30
0.0
 10
192.9187456574103
 20
107.2562661168203
 30
0.0
 10
193.2837698108799
 20
107.0447475287204
 30
0.0
 10
193.4151183272251
 20
106.9849736971043
 30
0.0
 10
193.6914095396003
 20
106.9012913056962
 30
0.0
 10
193.8383656139062
 20
106.877291145
 30
0.0
 10
193.9875009890335
 20
106.877291145
 30
0.0
  0
LINE
  5
119
330
1F
100
AcDbEntity
  8
0
  6
HIDDEN
 62
     7
370
     0
100
AcDbLine
 10
222.8875004168
 20
98.4117066695
 30
0.0
 11
222.8875004168
 21
99.3117070032
 31
0.0
  0
LINE
  5
11A
330
1F
100
AcDbEntity
  8
0
  6
HIDDEN
 62
     7
370
     0
100
AcDbLine
 10
222.8875004168
 20
118.3617072387
 30
0.0
 11
222.8875004168
 21
117.4617069049
 31
0.0
  0
SPLINE
  5
11B
330
1F
100
AcDbEntity
  8
0
  6
HIDDEN
 62
     7
370
     0
100
AcDbSpline
210
0.0
220
0.0
230
1.0
 70
     8
 71
     3
 72
     8
 73
     4
 74
     0
 42
0.000000001
 43
0.00000001
 40
0.0
 40
0.0
 40
0.0
 40
0.0
 40
1.0
 40
1.0
 40
1.0
 40
1.0
 10
193.164320812874
 20
118.155228989547
 30
0.0
 10
193.3757482028752
 20
118.1627384993294
 30
0.0
 10
193.5782167494079
 20
118.2168620289641
 30
0.0
 10
193.7644273485453
 20
118.3015903161892
 30
0.0
  0
ELLIPSE
  5
11C
330
1F
100
AcDbEntity
  8
0
  6
HIDDEN
 62
     7
370
     0
100
AcDbEllipse
 10
193.987500989
 20
120.1172170654
 30
0.0
 11
-1.760776919379055
 21
2.232245799914466
 31
0.0
210
0.0
220
0.0
230
1.0
 40
0.5126701559
 41
5.395150933160679
 42
8.323890913123131
  0
SPLINE
  5
11D
330
1F
100
AcDbEntity
  8
0
  6
HIDDEN
 62
     7
370
     0
100
AcDbSpline
210
0.0
220
0.0
230
1.0
 70
     8
 71
     3
 72
     8
 73
     4
 74
     0
 42
0.000000001
 43
0.00000001
 40
0.0
 40
0.0
 40
0.0
 40
0.0
 40
1.0
 40
1.0
 40
1.0
 40
1.0
 10
193.7644273485463
 20
122.225969084124
 30
0.0
 10
193.5779029992614
 20
122.1036486682232
 30
0.0
 10
193.3753481007352
 20
121.9625635075581
 30
0.0
 10
193.1643208128732
 20
121.7860798717727
 30
0.0
  0
ELLIPSE
  5
11E
330
1F
100
AcDbEntity
  8
0
  6
HIDDEN
 62
     7
370
     0
100
AcDbEllipse
 10
193.987500989
 20
120.1172170654
 30
0.0
 11
1.760776919379112
 21
1.388886188042932
 31
0.0
210
0.0
220
0.0
230
1.0
 40
0.8239737799
 41
1.397255033324021
 42
3.733259041931066
  0
LWPOLYLINE
  5
11F
330
1F
100
AcDbEntity
  8
0
  6
HIDDEN
 62
     7
370
     0
100
AcDbPolyline
 90
       21
 70
   128
 43
0.0
 10
193.9875010814
 20
119.8716437651
 10
194.6364364069
 20
119.9682265727
 10
195.2218499448
 20
120.24852114
 10
195.6864364858
 20
120.6850897728
 10
195.98472048
 20
121.2351987345
 10
196.0875012394
 20
121.8449980227
 10
195.98472048
 20
122.4547982423
 10
195.6864364858
 20
123.004907204
 10
195.2218499448
 20
123.4414758368
 10
194.6364364069
 20
123.7217704041
 10
193.9875010814
 20
123.8183532117
 10
193.338565756
 20
123.7217704041
 10
192.7531522181
 20
123.4414758368
 10
192.288565677
 20
123.004907204
 10
191.9902826141
 20
122.4547982423
 10
191.8875009235
 20
121.8449980227
 10
191.9902826141
 20
121.2351987345
 10
192.288565677
 20
120.6850897728
 10
192.7531522181
 20
120.24852114
 10
193.338565756
 20
119.9682265727
 10
193.9875010814
 20
119.8716437651
  0
LINE
  5
120
330
1F
100
AcDbEntity
  8
0
  6
HIDDEN
 62
     7
370
     0
100
AcDbLine
 10
188.9775006514
 20
143.7797513066
 30
0.0
 11
188.9775006514
 21
138.2367074696
 31
0.0
  0
LINE
  5
121
330
1F
100
AcDbEntity
  8
0
  6
HIDDEN
 62
     7
370
     0
100
AcDbLine
 10
192.7975008677
 20
143.7797513066
 30
0.0
 11
192.7975008677
 21
138.2367074696
 31
0.0
  0
SPLINE
  5
122
330
1F
100
AcDbEntity
  8
0
  6
HIDDEN
 62
     7
370
     0
100
AcDbSpline
210
0.0
220
0.0
230
1.0
 70
     8
 71
     3
 72
    14
 73
    10
 74
     0
 42
0.000000001
 43
0.00000001
 40
0.0
 40
0.0
 40
0.0
 40
0.0
 40
0.25
 40
0.25
 40
0.5
 40
0.5
 40
0.75
 40
0.75
 40
1.0
 40
1.0
 40
1.0
 40
1.0
 10
191.9975009890333
 20
125.3619965110021
 30
0.0
 10
192.0719265411679
 20
125.4528539657838
 30
0.0
 10
192.1538048007813
 20
125.5420645489895
 30
0.0
 10
192.3267909469569
 20
125.7174888677814
 30
0.0
 10
192.4174627668179
 20
125.8030238234081
 30
0.0
 10
192.5848263161623
 20
125.9638754363466
 30
0.0
 10
192.6612771411288
 20
126.0396075252431
 30
0.0
 10
192.7675702259672
 20
126.1711985488185
 30
0.0
 10
192.7975009890335
 20
126.2281987237248
 30
0.0
 10
192.7975009890335
 20
126.2703959966769
 30
0.0
  0
LINE
  5
123
330
1F
100
AcDbEntity
  8
0
  6
HIDDEN
 62
     7
370
     0
100
AcDbLine
 10
192.7975008677
 20
94.5894452019
 30
0.0
 11
192.7975008677
 21
90.4574044256
 31
0.0
  0
SPLINE
  5
124
330
1F
100
AcDbEntity
  8
0
  6
HIDDEN
 62
     7
370
     0
100
AcDbSpline
210
0.0
220
0.0
230
1.0
 70
     8
 71
     3
 72
    14
 73
    10
 74
     0
 42
0.000000001
 43
0.00000001
 40
0.0
 40
0.0
 40
0.0
 40
0.0
 40
0.25
 40
0.25
 40
0.5
 40
0.5
 40
0.75
 40
0.75
 40
1.0
 40
1.0
 40
1.0
 40
1.0
 10
192.7975009890335
 20
122.1383547980454
 30
0.0
 10
192.7975009890335
 20
122.0958543803908
 30
0.0
 10
192.7677875302167
 20
122.0685824739082
 30
0.0
 10
192.6617061633246
 20
122.055029699941
 30
0.0
 10
192.58533923416
 20
122.069475257082
 30
0.0
 10
192.4165796896316
 20
122.1418514211019
 30
0.0
 10
192.3257828771596
 20
122.1989243562193
 30
0.0
 10
192.1542179369523
 20
122.3400822897362
 30
0.0
 10
192.0721566966578
 20
122.4246595048198
 30
0.0
 10
191.9975009890333
 20
122.518032667949
 30
0.0
  0
LINE
  5
125
330
1F
100
AcDbEntity
  8
0
  6
HIDDEN
 62
     7
370
     0
100
AcDbLine
 10
194.1206625145
 20
94.0895596726
 30
0.0
 11
194.1206625145
 21
89.3977660893
 31
0.0
  0
LINE
  5
126
330
1F
100
AcDbEntity
  8
0
  6
HIDDEN
 62
     7
370
     0
100
AcDbLine
 10
194.1206625145
 20
146.8977857588
 30
0.0
 11
194.1206625145
 21
138.2367074696
 31
0.0
  0
LINE
  5
127
330
1F
100
AcDbEntity
  8
0
  6
HIDDEN
 62
     7
370
     0
100
AcDbLine
 10
187.654339936
 20
146.8977857588
 30
0.0
 11
187.654339936
 21
138.2367074696
 31
0.0
  0
ARC
  5
128
330
1F
100
AcDbEntity
  8
0
  6
HIDDEN
 62
     7
370
     0
100
AcDbCircle
 10
194.2335537509
 20
120.9566946294
 30
0.0
 40
1.353195702694788
100
AcDbArc
 50
110.2844232439
 51
142.1998959299
  0
ARC
  5
129
330
1F
100
AcDbEntity
  8
0
  6
HIDDEN
 62
     7
370
     0
100
AcDbCircle
 10
193.2909015205
 20
118.9396771843
 30
0.0
 40
0.7945949542257535
100
AcDbArc
 50
260.8336111241
 51
306.5791809456
  0
LWPOLYLINE
  5
12A
330
1F
100
AcDbEntity
  8
0
  6
HIDDEN
 62
     7
370
     0
100
AcDbPolyline
 90
       21
 70
   128
 43
0.0
 10
184.0222638514
 20
121.0996587036
 10
184.1851074662
 20
120.6224164201
 10
184.4450018782
 20
120.3022714911
 10
184.7765066143
 20
120.1705629213
 10
185.1471711363
 20
120.2401820777
 10
185.5207134451
 20
120.5043154044
 10
185.8605674881
 20
120.9371065928
 10
186.1334659572
 20
121.4961916415
 10
186.3126966584
 20
122.1268423109
 10
186.3807144057
 20
122.7673277466
 10
186.3308616396
 20
123.3549522443
 10
186.1680175591
 20
123.8321945278
 10
185.9081231471
 20
124.1523385255
 10
185.5766188766
 20
124.2840480266
 10
185.2059538889
 20
124.2144279389
 10
184.8324120458
 20
123.9502955435
 10
184.4925580028
 20
123.5175043551
 10
184.219659068
 20
122.9584193064
 10
184.0404283669
 20
122.3277677057
 10
183.9724106196
 20
121.68728227
 10
184.0222638514
 20
121.0996587036
  0
LWPOLYLINE
  5
12B
330
1F
100
AcDbEntity
  8
0
  6
HIDDEN
 62
     7
370
     0
100
AcDbPolyline
 90
       25
 70
   128
 43
0.0
 10
183.2592319645
 20
120.6806427075
 10
183.4426668886
 20
120.0984729661
 10
183.7259775441
 20
119.6657581462
 10
184.0898569155
 20
119.4119885771
 10
184.5095071423
 20
119.3544570563
 10
184.9563296366
 20
119.4970853834
 10
185.3998743411
 20
119.8301524131
 10
185.8099137846
 20
120.330960883
 10
186.158505496
 20
120.9653815461
 10
186.4218928333
 20
121.6901796146
 10
186.5821268823
 20
122.4559605329
 10
186.62828742
 20
123.2105395032
 10
186.5572289046
 20
123.9024916871
 10
186.3737937476
 20
124.4846604971
 10
186.0904830921
 20
124.917375317
 10
185.7266037207
 20
125.1711458175
 10
185.3069534938
 20
125.2286773382
 10
184.8601309996
 20
125.0860490112
 10
184.4165862951
 20
124.7529819815
 10
184.0065463859
 20
124.2521725802
 10
183.6579551402
 20
123.6177528484
 10
183.3945675701
 20
122.89295478
 10
183.2343339868
 20
122.1271729304
 10
183.188173449
 20
121.3725948913
 10
183.2592319645
 20
120.6806427075
  0
LWPOLYLINE
  5
12C
330
1F
100
AcDbEntity
  8
0
  6
HIDDEN
 62
     7
370
     0
100
AcDbPolyline
 90
       22
 70
   128
 43
0.0
 10
193.9875010814
 20
119.5455607234
 10
194.7243886482
 20
119.649930319
 10
195.3958014439
 20
119.9537659271
 10
195.9420789446
 20
120.4300703688
 10
196.3146862056
 20
121.0365215523
 10
196.4805100526
 20
121.7192340849
 10
196.424820688
 20
122.4175453393
 10
196.1525652971
 20
123.0694087429
 10
195.6879321899
 20
123.6169006882
 10
195.0722106214
 20
124.0113772659
 10
194.3601064797
 20
124.2177844254
 10
193.6148956831
 20
124.2177844254
 10
192.9027915414
 20
124.0113772659
 10
192.2870690416
 20
123.6169006882
 10
191.8224377971
 20
123.0694087429
 10
191.5501814749
 20
122.4175453393
 10
191.4944911789
 20
121.7192340849
 10
191.6603168886
 20
121.0365215523
 10
192.0329222869
 20
120.4300703688
 10
192.5792007189
 20
119.9537659271
 10
193.2506135147
 20
119.649930319
 10
193.9875010814
 20
119.5455607234
  0
SPLINE
  5
12D
330
1F
100
AcDbEntity
  8
0
  6
HIDDEN
 62
     7
370
     0
100
AcDbSpline
210
0.0
220
0.0
230
1.0
 70
     8
 71
     3
 72
    34
 73
    30
 74
     0
 42
0.000000001
 43
0.00000001
 40
0.0
 40
0.0
 40
0.0
 40
0.0
 40
0.0624999999999983
 40
0.0624999999999983
 40
0.1249999999999966
 40
0.1249999999999966
 40
0.1874999999999949
 40
0.1874999999999949
 40
0.2499999999999937
 40
0.2499999999999937
 40
0.3124999999999935
 40
0.3124999999999935
 40
0.3749999999999933
 40
0.3749999999999933
 40
0.4999999999999938
 40
0.4999999999999938
 40
0.6249999999999942
 40
0.6249999999999942
 40
0.6874999999999952
 40
0.6874999999999952
 40
0.7499999999999961
 40
0.7499999999999961
 40
0.8124999999999971
 40
0.8124999999999971
 40
0.8749999999999981
 40
0.8749999999999981
 40
0.937499999999999
 40
0.937499999999999
 40
1.0
 40
1.0
 40
1.0
 40
1.0
 10
194.1206624964954
 20
127.3756473420695
 30
0.0
 10
194.2800543242832
 20
127.3678072461467
 30
0.0
 10
194.4360568077268
 20
127.3461485980563
 30
0.0
 10
194.7415663238041
 20
127.2763003705634
 30
0.0
 10
194.8924606588163
 20
127.2274746682352
 30
0.0
 10
195.1803600035071
 20
127.1045507148279
 30
0.0
 10
195.3163064064668
 20
127.0312432066936
 30
0.0
 10
195.5724890220588
 20
126.8612325829222
 30
0.0
 10
195.6936713098179
 20
126.7633587907208
 30
0.0
 10
195.9108173816907
 20
126.5507746152888
 30
0.0
 10
196.007779254651
 20
126.4357286767592
 30
0.0
 10
196.1783416904766
 20
126.1878675566391
 30
0.0
 10
196.2515817436885
 20
126.0548340595735
 30
0.0
 10
196.4264622004373
 20
125.6453260434434
 30
0.0
 10
196.4875001614133
 20
125.3473653936683
 30
0.0
 10
196.4875018166364
 20
124.7559238377938
 30
0.0
 10
196.4264672070501
 20
124.4557502878173
 30
0.0
 10
196.2515774396482
 20
124.0405190075495
 30
0.0
 10
196.1783337342238
 20
123.9051638893027
 30
0.0
 10
196.0077730184871
 20
123.652264557916
 30
0.0
 10
195.9108093028936
 20
123.5344992803083
 30
0.0
 10
195.6936489743065
 20
123.3163689849396
 30
0.0
 10
195.5724677156196
 20
123.2156656597926
 30
0.0
 10
195.3162974886809
 20
123.0404219669594
 30
0.0
 10
195.1803541390182
 20
122.9646769978688
 30
0.0
 10
194.8924514358351
 20
122.8375086225665
 30
0.0
 10
194.7415612399183
 20
122.7869073502391
 30
0.0
 10
194.4360557362127
 20
122.7144782504912
 30
0.0
 10
194.2800543379492
 20
122.6919924790943
 30
0.0
 10
194.1206624964954
 20
122.6838540191994
 30
0.0
  0
SPLINE
  5
12E
330
1F
100
AcDbEntity
  8
0
  6
HIDDEN
 62
     7
370
     0
100
AcDbSpline
210
0.0
220
0.0
230
1.0
 70
     8
 71
     3
 72
    10
 73
     6
 74
     0
 42
0.000000001
 43
0.00000001
 40
0.0
 40
0.0
 40
0.0
 40
0.0
 40
0.5
 40
0.5
 40
1.0
 40
1.0
 40
1.0
 40
1.0
 10
194.1206624964954
 20
122.6838540191994
 30
0.0
 10
193.897935469622
 20
122.5403655189057
 30
0.0
 10
193.6762495823968
 20
122.4256447731728
 30
0.0
 10
193.2350287445448
 20
122.2558843438149
 30
0.0
 10
193.015470097146
 20
122.2004643494275
 30
0.0
 10
192.7975009890338
 20
122.1839690200579
 30
0.0
  0
SPLINE
  5
12F
330
1F
100
AcDbEntity
  8
0
  6
HIDDEN
 62
     7
370
     0
100
AcDbSpline
210
0.0
220
0.0
230
1.0
 70
     8
 71
     3
 72
    10
 73
     6
 74
     0
 42
0.000000001
 43
0.00000001
 40
0.0
 40
0.0
 40
0.0
 40
0.0
 40
0.5
 40
0.5
 40
1.0
 40
1.0
 40
1.0
 40
1.0
 10
192.7975009890338
 20
126.3160102186894
 30
0.0
 10
193.0143918215545
 20
126.5530491581379
 30
0.0
 10
193.2335444582134
 20
126.7552193931314
 30
0.0
 10
193.6750289584823
 20
127.1059714646501
 30
0.0
 10
193.8982314237557
 20
127.254647557047
 30
0.0
 10
194.1206624964954
 20
127.3756473420695
 30
0.0
  0
SPLINE
  5
130
330
1F
100
AcDbEntity
  8
0
  6
HIDDEN
 62
     7
370
     0
100
AcDbSpline
210
0.0
220
0.0
230
1.0
 70
     8
 71
     3
 72
    16
 73
    12
 74
     0
 42
0.000000001
 43
0.00000001
 40
0.0
 40
0.0
 40
0.0
 40
0.0
 40
0.2500000000000002
 40
0.2500000000000002
 40
0.5000000000000003
 40
0.5000000000000003
 40
0.7500000000000004
 40
0.7500000000000004
 40
0.8750000000000002
 40
0.8750000000000002
 40
1.0
 40
1.0
 40
1.0
 40
1.0
 10
191.9975009890335
 20
122.5180326679488
 30
0.0
 10
191.8320868825533
 20
122.7249189039741
 30
0.0
 10
191.7058895515777
 20
122.950787601783
 30
0.0
 10
191.5314832532468
 20
123.4396568473958
 30
0.0
 10
191.48765321415
 20
123.6914239007404
 30
0.0
 10
191.48734954118
 20
124.2032032253226
 30
0.0
 10
191.5312064012403
 20
124.4542579344053
 30
0.0
 10
191.6611281605074
 20
124.8151065025473
 30
0.0
 10
191.7152429719154
 20
124.9323792708959
 30
0.0
 10
191.8419199620588
 20
125.1548682222347
 30
0.0
 10
191.9147936824197
 20
125.2610288304781
 30
0.0
 10
191.9975009890335
 20
125.3619965110024
 30
0.0
  0
ARC
  5
131
330
1F
100
AcDbEntity
  8
0
  6
HIDDEN
 62
     7
370
     0
100
AcDbCircle
 10
193.9697683873
 20
93.0765573495
 30
0.0
 40
2.483295578804251
100
AcDbArc
 50
344.7568421749
 51
178.3514351303
  0
LWPOLYLINE
  5
132
330
1F
100
AcDbEntity
  8
0
  6
HIDDEN
 62
     7
370
     0
100
AcDbPolyline
 90
       22
 70
   128
 43
0.0
 10
191.6951697733
 20
92.5728682635
 10
191.631628428
 20
93.2312201915
 10
191.7774167325
 20
93.8779240681
 10
192.1195809211
 20
94.4555154277
 10
192.6277179684
 20
94.9126737399
 10
193.256677356
 20
95.2087784393
 10
193.9505741413
 20
95.3175196631
 10
194.6477519761
 20
95.2292349396
 10
195.286263008
 20
94.9517678676
 10
195.809374791
 20
94.5097742809
 10
196.1706031527
 20
93.9425261898
 10
196.3378537859
 20
93.3004258407
 10
196.2962665077
 20
92.6405288486
 10
196.0495349433
 20
92.0214656947
 10
195.6195805635
 20
91.4982468097
 10
195.0446108769
 20
91.1173619537
 10
194.3757117208
 20
90.9126516638
 10
193.6723191704
 20
90.9023083953
 10
192.9969305586
 20
91.0872504322
 10
192.4095593806
 20
91.4510436563
 10
191.962395091
 20
91.9613637237
 10
191.6951697733
 20
92.5728682635
  0
ARC
  5
133
330
1F
100
AcDbEntity
  8
0
  6
HIDDEN
 62
     7
370
     0
100
AcDbCircle
 10
193.9856435617
 20
92.9961419641
 30
0.0
 40
2.004556221742782
100
AcDbArc
 50
2.9732287547
 51
126.35034177
  0
LWPOLYLINE
  5
134
330
1F
100
AcDbEntity
  8
0
  6
HIDDEN
 62
     7
370
     0
100
AcDbPolyline
 90
       22
 70
   128
 43
0.0
 10
191.5591836389
 20
92.7775841413
 10
191.4918732311
 20
93.4749920128
 10
191.6463107284
 20
94.1600589289
 10
192.0087721612
 20
94.7719145773
 10
192.5470533263
 20
95.2561920716
 10
193.2133233588
 20
95.569862446
 10
193.9483836706
 20
95.6850549413
 10
194.686918747
 20
95.5915324597
 10
195.3633085306
 20
95.2976061238
 10
195.9174510505
 20
94.8293920813
 10
196.3001091446
 20
94.228493443
 10
196.4772820886
 20
93.5483029319
 10
196.4332268055
 20
92.8492577953
 10
196.1718585755
 20
92.193471661
 10
195.7163989957
 20
91.6392155199
 10
195.1073214825
 20
91.2357349156
 10
194.3987414654
 20
91.0188801794
 10
193.6536219384
 20
91.0079241006
 10
192.9381678294
 20
91.2038371174
 10
192.3159521486
 20
91.5892109482
 10
191.8422609981
 20
92.1298045872
 10
191.5591836389
 20
92.7775841413
  0
LWPOLYLINE
  5
135
330
1F
100
AcDbEntity
  8
0
  6
HIDDEN
 62
     7
370
     0
100
AcDbPolyline
 90
       20
 70
   128
 43
0.0
 10
192.0448478724
 20
94.0710719882
 10
191.9957122247
 20
94.6880201085
 10
192.1624180343
 20
95.2865317671
 10
192.5269004371
 20
95.8017496599
 10
193.0496611114
 20
96.1778419299
 10
193.6740514304
 20
96.3740529699
 10
194.3324089463
 20
96.3691197543
 10
194.9533896934
 20
96.1635777934
 10
195.4697028216
 20
95.7797005979
 10
195.8253954019
 20
95.2590866221
 10
195.981922787
 20
94.6581525935
 10
195.9223255928
 20
94.0420193805
 10
195.6530578848
 20
93.4774544297
 10
195.203303587
 20
93.0256363211
 10
194.6217969473
 20
92.7355293391
 10
193.971554045
 20
92.6385674833
 10
193.3230406087
 20
92.7452597974
 10
192.7465305146
 20
93.0440448431
 10
192.3044996749
 20
93.5025433285
 10
192.0448478724
 20
94.0710719882
  0
LWPOLYLINE
  5
136
330
1F
100
AcDbEntity
  8
0
  6
HIDDEN
 62
     7
370
     0
100
AcDbPolyline
 90
       22
 70
   128
 43
0.0
 10
191.5591836389
 20
93.0135784878
 10
191.4918732311
 20
93.7109854279
 10
191.6463107284
 20
94.396052344
 10
192.0087721612
 20
95.0079079924
 10
192.5470533263
 20
95.492186418
 10
193.2133233588
 20
95.8058567925
 10
193.9483836706
 20
95.9210483564
 10
194.686918747
 20
95.8275258748
 10
195.3633085306
 20
95.5335995389
 10
195.9174510505
 20
95.0653854964
 10
196.3001091446
 20
94.4644877894
 10
196.4772820886
 20
93.7842972784
 10
196.4332268055
 20
93.0852521418
 10
196.1718585755
 20
92.4294669388
 10
195.7163989957
 20
91.875208935
 10
195.1073214825
 20
91.4717283307
 10
194.3987414654
 20
91.2548754571
 10
193.6536219384
 20
91.2439175157
 10
192.9381678294
 20
91.4398305325
 10
192.3159521486
 20
91.8252043633
 10
191.8422609981
 20
92.3657980023
 10
191.5591836389
 20
93.0135784878
  0
LWPOLYLINE
  5
137
330
1F
100
AcDbEntity
  8
0
  6
HIDDEN
 62
     7
370
     0
100
AcDbPolyline
 90
       22
 70
   128
 43
0.0
 10
191.753449146
 20
92.9967867417
 10
191.6915236454
 20
93.6384009404
 10
191.8336052861
 20
94.2686623169
 10
192.1670709219
 20
94.8315695135
 10
192.6622886624
 20
95.2771058513
 10
193.2752581726
 20
95.5656826703
 10
193.9515129145
 20
95.6716587974
 10
194.6309658181
 20
95.5856185613
 10
195.2532438975
 20
95.3152062578
 10
195.7630545314
 20
94.884449078
 10
196.1151000525
 20
94.3316225169
 10
196.2781001296
 20
93.7058473213
 10
196.2375689711
 20
93.0627262427
 10
195.9971089329
 20
92.4594033716
 10
195.5780882802
 20
91.9494856356
 10
195.0177357014
 20
91.5782846717
 10
194.3658424955
 20
91.3787786124
 10
193.6803322699
 20
91.3686979769
 10
193.0221144523
 20
91.5489386974
 10
192.4496761005
 20
91.9034820257
 10
192.0138804655
 20
92.4008287696
 10
191.753449146
 20
92.9967867417
  0
LWPOLYLINE
  5
138
330
1F
100
AcDbEntity
  8
0
  6
HIDDEN
 62
     7
370
     0
100
AcDbPolyline
 90
       22
 70
   128
 43
0.0
 10
191.5591836389
 20
93.2495719029
 10
191.4918732311
 20
93.9469797744
 10
191.6463107284
 20
94.6320466904
 10
192.0087721612
 20
95.2439023389
 10
192.5470533263
 20
95.7281798331
 10
193.2133233588
 20
96.0418502076
 10
193.9483836706
 20
96.1570427029
 10
194.686918747
 20
96.0635202212
 10
195.3633085306
 20
95.7695938854
 10
195.9174510505
 20
95.3013798429
 10
196.3001091446
 20
94.7004812045
 10
196.4772820886
 20
94.0202906935
 10
196.4332268055
 20
93.3212455569
 10
196.1718585755
 20
92.6654603539
 10
195.7163989957
 20
92.1112023501
 10
195.1073214825
 20
91.7077217458
 10
194.3987414654
 20
91.4908688722
 10
193.6536219384
 20
91.4799109308
 10
192.9381678294
 20
91.6758239476
 10
192.3159521486
 20
92.0611977784
 10
191.8422609981
 20
92.6017932801
 10
191.5591836389
 20
93.2495719029
  0
LWPOLYLINE
  5
139
330
1F
100
AcDbEntity
  8
0
  6
HIDDEN
 62
     7
370
     0
100
AcDbPolyline
 90
       22
 70
   128
 43
0.0
 10
191.753449146
 20
93.2327801569
 10
191.6915236454
 20
93.8743952869
 10
191.8336052861
 20
94.5046566634
 10
192.1670709219
 20
95.0675638599
 10
192.6622886624
 20
95.5130992664
 10
193.2752581726
 20
95.8016760854
 10
193.9515129145
 20
95.9076531438
 10
194.6309658181
 20
95.8216119765
 10
195.2532438975
 20
95.5511996729
 10
195.7630545314
 20
95.1204434244
 10
196.1151000525
 20
94.5676168634
 10
196.2781001296
 20
93.9418416677
 10
196.2375689711
 20
93.2987196578
 10
195.9971089329
 20
92.6953967868
 10
195.5780882802
 20
92.1854809133
 10
195.0177357014
 20
91.8142780868
 10
194.3658424955
 20
91.6147738902
 10
193.6803322699
 20
91.6046932547
 10
193.0221144523
 20
91.7849321125
 10
192.4496761005
 20
92.1394773035
 10
192.0138804655
 20
92.6368221847
 10
191.753449146
 20
93.2327801569
  0
LWPOLYLINE
  5
13A
330
1F
100
AcDbEntity
  8
0
  6
HIDDEN
 62
     7
370
     0
100
AcDbPolyline
 90
       22
 70
   128
 43
0.0
 10
191.5591836389
 20
93.4855662493
 10
191.4918732311
 20
94.1829731895
 10
191.6463107284
 20
94.8680401055
 10
192.0087721612
 20
95.479895754
 10
192.5470533263
 20
95.9641741796
 10
193.2133233588
 20
96.277844554
 10
193.9483836706
 20
96.393036118
 10
194.686918747
 20
96.2995136364
 10
195.3633085306
 20
96.0055873005
 10
195.9174510505
 20
95.537373258
 10
196.3001091446
 20
94.936475551
 10
196.4772820886
 20
94.2562850399
 10
196.4332268055
 20
93.5572399033
 10
196.1718585755
 20
92.901453769
 10
195.7163989957
 20
92.3471957652
 10
195.1073214825
 20
91.9437151609
 10
194.3987414654
 20
91.7268622873
 10
193.6536219384
 20
91.7159062086
 10
192.9381678294
 20
91.9118173627
 10
192.3159521486
 20
92.2971930562
 10
191.8422609981
 20
92.8377866952
 10
191.5591836389
 20
93.4855662493
  0
LWPOLYLINE
  5
13B
330
1F
100
AcDbEntity
  8
0
  6
HIDDEN
 62
     7
370
     0
100
AcDbPolyline
 90
       22
 70
   128
 43
0.0
 10
191.753449146
 20
93.4687745033
 10
191.6915236454
 20
94.110388702
 10
191.8336052861
 20
94.7406510098
 10
192.1670709219
 20
95.3035572751
 10
192.6622886624
 20
95.7490936129
 10
193.2752581726
 20
96.0376704319
 10
193.9515129145
 20
96.1436465589
 10
194.6309658181
 20
96.0576063229
 10
195.2532438975
 20
95.7871940194
 10
195.7630545314
 20
95.3564368395
 10
196.1151000525
 20
94.8036102785
 10
196.2781001296
 20
94.1778350828
 10
196.2375689711
 20
93.5347140042
 10
195.9971089329
 20
92.9313911332
 10
195.5780882802
 20
92.4214743285
 10
195.0177357014
 20
92.050271502
 10
194.3658424955
 20
91.8507673053
 10
193.6803322699
 20
91.8406866698
 10
193.0221144523
 20
92.0209255276
 10
192.4496761005
 20
92.3754707186
 10
192.0138804655
 20
92.8728174625
 10
191.753449146
 20
93.4687745033
  0
LWPOLYLINE
  5
13C
330
1F
100
AcDbEntity
  8
0
  6
HIDDEN
 62
     7
370
     0
100
AcDbPolyline
 90
       22
 70
   128
 43
0.0
 10
191.5591836389
 20
93.7215605958
 10
191.4918732311
 20
94.4189675359
 10
191.6463107284
 20
95.104034452
 10
192.0087721612
 20
95.7158901004
 10
192.5470533263
 20
96.2001675947
 10
193.2133233588
 20
96.5138379691
 10
193.9483836706
 20
96.6290304644
 10
194.686918747
 20
96.5355079828
 10
195.3633085306
 20
96.2415816469
 10
195.9174510505
 20
95.7733676044
 10
196.3001091446
 20
95.1724689661
 10
196.4772820886
 20
94.492278455
 10
196.4332268055
 20
93.7932333185
 10
196.1718585755
 20
93.1374481155
 10
195.7163989957
 20
92.583191043
 10
195.1073214825
 20
92.1797104387
 10
194.3987414654
 20
91.9628557025
 10
193.6536219384
 20
91.9518996237
 10
192.9381678294
 20
92.1478126405
 10
192.3159521486
 20
92.5331864713
 10
191.8422609981
 20
93.0737801103
 10
191.5591836389
 20
93.7215605958
  0
LWPOLYLINE
  5
13D
330
1F
100
AcDbEntity
  8
0
  6
HIDDEN
 62
     7
370
     0
100
AcDbPolyline
 90
       22
 70
   128
 43
0.0
 10
191.753449146
 20
93.7047679184
 10
191.6915236454
 20
94.3463830484
 10
191.8336052861
 20
94.9766444249
 10
192.1670709219
 20
95.5395516215
 10
192.6622886624
 20
95.985087028
 10
193.2752581726
 20
96.273663847
 10
193.9515129145
 20
96.3796409054
 10
194.6309658181
 20
96.293599738
 10
195.2532438975
 20
96.0231874345
 10
195.7630545314
 20
95.592431186
 10
196.1151000525
 20
95.0396046249
 10
196.2781001296
 20
94.4138294293
 10
196.2375689711
 20
93.7707083507
 10
195.9971089329
 20
93.1673845483
 10
195.5780882802
 20
92.6574677436
 10
195.0177357014
 20
92.2862649171
 10
194.3658424955
 20
92.0867607204
 10
193.6803322699
 20
92.0766800849
 10
193.0221144523
 20
92.2569189428
 10
192.4496761005
 20
92.6114641337
 10
192.0138804655
 20
93.1088108776
 10
191.753449146
 20
93.7047679184
  0
LWPOLYLINE
  5
13E
330
1F
100
AcDbEntity
  8
0
  6
HIDDEN
 62
     7
370
     0
100
AcDbPolyline
 90
       22
 70
   128
 43
0.0
 10
191.5591836389
 20
94.3200955374
 10
191.4918732311
 20
95.0175024776
 10
191.6463107284
 20
95.7025693936
 10
192.0087721612
 20
96.3144250421
 10
192.5470533263
 20
96.7987034677
 10
193.2133233588
 20
97.1123738421
 10
193.9483836706
 20
97.2275654061
 10
194.686918747
 20
97.1340429245
 10
195.3633085306
 20
96.8401165886
 10
195.9174510505
 20
96.3719025461
 10
196.3001091446
 20
95.7710048391
 10
196.4772820886
 20
95.0908133967
 10
196.4332268055
 20
94.3917691915
 10
196.1718585755
 20
93.7359830571
 10
195.7163989957
 20
93.1817259846
 10
195.1073214825
 20
92.778244449
 10
194.3987414654
 20
92.5613925068
 10
193.6536219384
 20
92.5504345654
 10
192.9381678294
 20
92.7463475822
 10
192.3159521486
 20
93.131721413
 10
191.8422609981
 20
93.6723159833
 10
191.5591836389
 20
94.3200955374
  0
LWPOLYLINE
  5
13F
330
1F
100
AcDbEntity
  8
0
  6
HIDDEN
 62
     7
370
     0
100
AcDbPolyline
 90
       20
 70
   128
 43
0.0
 10
192.0638999384
 20
94.5387887044
 10
192.0152467157
 20
95.1496860219
 10
192.1803180542
 20
95.7423284857
 10
192.5412251096
 20
96.2524930222
 10
193.0588588532
 20
96.6248963235
 10
193.6771257262
 20
96.8191832511
 10
194.3290263828
 20
96.8142984642
 10
194.9439172115
 20
96.6107728167
 10
195.4551648762
 20
96.2306600271
 10
195.8073705848
 20
95.7151515616
 10
195.9623631503
 20
95.1201118736
 10
195.903348964
 20
94.5100210814
 10
195.6367243495
 20
93.9509928433
 10
195.1913789328
 20
93.5036068989
 10
194.6155757125
 20
93.2163441761
 10
193.9717105072
 20
93.1203332005
 10
193.3295570727
 20
93.2259796394
 10
192.758701038
 20
93.5218347443
 10
192.3210055049
 20
93.9758368043
 10
192.0638999384
 20
94.5387887044
  0
LWPOLYLINE
  5
140
330
1F
100
AcDbEntity
  8
0
  6
HIDDEN
 62
     7
370
     0
100
AcDbPolyline
 90
       20
 70
   128
 43
0.0
 10
195.9111012932
 20
122.2346252037
 10
195.6539966579
 20
122.7975771038
 10
195.2163001936
 20
123.2515791638
 10
194.6454450901
 20
123.5474342687
 10
194.0032907244
 20
123.6530807076
 10
193.3594264503
 20
123.5570697321
 10
192.7836232301
 20
123.2698070092
 10
192.3382787447
 20
122.8224210648
 10
192.0716531988
 20
122.2633928267
 10
192.0126390125
 20
121.6533020346
 10
192.1676325094
 20
121.0582623465
 10
192.5198363553
 20
120.542753881
 10
193.0310849514
 20
120.1626410915
 10
193.6459757801
 20
119.959115444
 10
194.2978764366
 20
119.954230657
 10
194.9161433097
 20
120.1485175846
 10
195.4337761219
 20
120.5209208859
 10
195.7946841087
 20
121.0310854225
 10
195.9597554471
 20
121.6237278862
 10
195.9111012932
 20
122.2346252037
  0
LWPOLYLINE
  5
141
330
1F
100
AcDbEntity
  8
0
  6
HIDDEN
 62
     7
370
     0
100
AcDbPolyline
 90
       22
 70
   128
 43
0.0
 10
196.415818524
 20
122.4533183707
 10
196.1327411648
 20
123.1010979248
 10
195.6590500142
 20
123.6416924952
 10
195.0368343334
 20
124.027066326
 10
194.3213802244
 20
124.2229793428
 10
193.5762606974
 20
124.2120214014
 10
192.8676806803
 20
123.9951694591
 10
192.2586022358
 20
123.5916879235
 10
191.8031435873
 20
123.037430851
 10
191.5417753573
 20
122.3816447167
 10
191.4977200742
 20
121.6826005114
 10
191.6748930182
 20
121.0024090691
 10
192.0575511124
 20
120.401511362
 10
192.6116936322
 20
119.9332973195
 10
193.2880824845
 20
119.6393709837
 10
194.0266184922
 20
119.545848502
 10
194.7616778727
 20
119.661040066
 10
195.4279497679
 20
119.9747104405
 10
195.9662300016
 20
120.458988866
 10
196.3286914345
 20
121.0708445145
 10
196.4831289317
 20
121.7559114305
 10
196.415818524
 20
122.4533183707
  0
LWPOLYLINE
  5
142
330
1F
100
AcDbEntity
  8
0
  6
HIDDEN
 62
     7
370
     0
100
AcDbPolyline
 90
       22
 70
   128
 43
0.0
 10
196.415818524
 20
123.0518533124
 10
196.1327411648
 20
123.6996337978
 10
195.6590500142
 20
124.2402274368
 10
195.0368343334
 20
124.6256012676
 10
194.3213802244
 20
124.8215142844
 10
193.5762606974
 20
124.8105582057
 10
192.8676806803
 20
124.5937034695
 10
192.2586022358
 20
124.1902228652
 10
191.8031435873
 20
123.6359657927
 10
191.5417753573
 20
122.9801805897
 10
191.4977200742
 20
122.2811354531
 10
191.6748930182
 20
121.6009449421
 10
192.0575511124
 20
121.0000463037
 10
192.6116936322
 20
120.5318322612
 10
193.2880824845
 20
120.2379059253
 10
194.0266184922
 20
120.1443834437
 10
194.7616778727
 20
120.259575939
 10
195.4279497679
 20
120.5732463135
 10
195.9662300016
 20
121.0575238077
 10
196.3286914345
 20
121.6693794562
 10
196.4831289317
 20
122.3544463722
 10
196.415818524
 20
123.0518533124
  0
LWPOLYLINE
  5
143
330
1F
100
AcDbEntity
  8
0
  6
HIDDEN
 62
     7
370
     0
100
AcDbPolyline
 90
       20
 70
   128
 43
0.0
 10
195.9301542904
 20
124.1201184897
 10
195.6705034192
 20
124.688646218
 10
195.2284716483
 20
125.1471456347
 10
194.6519615542
 20
125.4459306805
 10
194.0034471865
 20
125.5526229946
 10
193.3532052155
 20
125.4556611387
 10
192.7716985758
 20
125.1655522941
 10
192.3219433468
 20
124.7137360482
 10
192.05267657
 20
124.1491701661
 10
191.9930784445
 20
123.5330378844
 10
192.1496067609
 20
122.9321038557
 10
192.5052993413
 20
122.4114898799
 10
193.0216115381
 20
122.0276117532
 10
193.6425932165
 20
121.8220697923
 10
194.3009507324
 20
121.8171365766
 10
194.9253410514
 20
122.0133476166
 10
195.4481017258
 20
122.3894398866
 10
195.8125841286
 20
122.9046577795
 10
195.9792890068
 20
123.5031703694
 10
195.9301542904
 20
124.1201184897
  0
LWPOLYLINE
  5
144
330
1F
100
AcDbEntity
  8
0
  6
HIDDEN
 62
     7
370
     0
100
AcDbPolyline
 90
       20
 70
   128
 43
0.0
 10
195.9301542904
 20
122.70234192
 10
195.6705034192
 20
123.2708705796
 10
195.2284716483
 20
123.729369065
 10
194.6519615542
 20
124.0281541107
 10
194.0034471865
 20
124.1348464249
 10
193.3532052155
 20
124.037884569
 10
192.7716985758
 20
123.747777587
 10
192.3219433468
 20
123.2959594784
 10
192.05267657
 20
122.7313945277
 10
191.9930784445
 20
122.1152613146
 10
192.1496067609
 20
121.514327286
 10
192.5052993413
 20
120.9937133102
 10
193.0216115381
 20
120.6098361148
 10
193.6425932165
 20
120.4042941539
 10
194.3009507324
 20
120.3993609382
 10
194.9253410514
 20
120.5955719782
 10
195.4481017258
 20
120.9716642482
 10
195.8125841286
 20
121.4868821411
 10
195.9792890068
 20
122.0853937997
 10
195.9301542904
 20
122.70234192
  0
LWPOLYLINE
  5
145
330
1F
100
AcDbEntity
  8
0
  6
HIDDEN
 62
     7
370
     0
100
AcDbPolyline
 90
       22
 70
   128
 43
0.0
 10
196.415818524
 20
123.2878476588
 10
196.1327411648
 20
123.9356272129
 10
195.6590500142
 20
124.476220852
 10
195.0368343334
 20
124.8615965454
 10
194.3213802244
 20
125.0575076996
 10
193.5762606974
 20
125.0465516208
 10
192.8676806803
 20
124.8296987472
 10
192.2586022358
 20
124.4262181429
 10
191.8031435873
 20
123.8719601391
 10
191.5417753573
 20
123.2161740048
 10
191.4977200742
 20
122.5171288682
 10
191.6748930182
 20
121.8369383572
 10
192.0575511124
 20
121.2360406501
 10
192.6116936322
 20
120.7678266077
 10
193.2880824845
 20
120.4739002718
 10
194.0266184922
 20
120.3803777902
 10
194.7616778727
 20
120.4955693541
 10
195.4279497679
 20
120.8092397286
 10
195.9662300016
 20
121.2935181542
 10
196.3286914345
 20
121.9053738026
 10
196.4831289317
 20
122.5904407187
 10
196.415818524
 20
123.2878476588
  0
LWPOLYLINE
  5
146
330
1F
100
AcDbEntity
  8
0
  6
HIDDEN
 62
     7
370
     0
100
AcDbPolyline
 90
       22
 70
   128
 43
0.0
 10
196.2215520855
 20
123.0686459897
 10
195.961120766
 20
123.6646030305
 10
195.525325131
 20
124.1619497745
 10
194.9528877105
 20
124.5164949654
 10
194.294669893
 20
124.6967338232
 10
193.6091596674
 20
124.6866531877
 10
192.9572664614
 20
124.4871489911
 10
192.3969138827
 20
124.1159461646
 10
191.9778922986
 20
123.6060293598
 10
191.7374331917
 20
123.0027055575
 10
191.6969020333
 20
122.3595844789
 10
191.859901179
 20
121.7338092832
 10
192.2119467001
 20
121.1809827222
 10
192.7217582654
 20
120.7502264736
 10
193.3440363448
 20
120.4798141701
 10
194.0234892483
 20
120.3937730028
 10
194.6997439902
 20
120.4997500612
 10
195.3127135005
 20
120.7883268802
 10
195.807931241
 20
121.2338622866
 10
196.1413968768
 20
121.7967694832
 10
196.2834775861
 20
122.4270308597
 10
196.2215520855
 20
123.0686459897
  0
LWPOLYLINE
  5
147
330
1F
100
AcDbEntity
  8
0
  6
HIDDEN
 62
     7
370
     0
100
AcDbPolyline
 90
       22
 70
   128
 43
0.0
 10
196.415818524
 20
123.5238420053
 10
196.1327411648
 20
124.1716206281
 10
195.6590500142
 20
124.7122161297
 10
195.0368343334
 20
125.0975899605
 10
194.3213802244
 20
125.2935029773
 10
193.5762606974
 20
125.2825450359
 10
192.8676806803
 20
125.0656921623
 10
192.2586022358
 20
124.6622115581
 10
191.8031435873
 20
124.1079535542
 10
191.5417753573
 20
123.4521683512
 10
191.4977200742
 20
122.7531232147
 10
191.6748930182
 20
122.0729327036
 10
192.0575511124
 20
121.4720340653
 10
192.6116936322
 20
121.0038200228
 10
193.2880824845
 20
120.7098936869
 10
194.0266184922
 20
120.6163712053
 10
194.7616778727
 20
120.7315637006
 10
195.4279497679
 20
121.045234075
 10
195.9662300016
 20
121.5295115693
 10
196.3286914345
 20
122.1413672177
 10
196.4831289317
 20
122.8264341338
 10
196.415818524
 20
123.5238420053
  0
LWPOLYLINE
  5
148
330
1F
100
AcDbEntity
  8
0
  6
HIDDEN
 62
     7
370
     0
100
AcDbPolyline
 90
       22
 70
   128
 43
0.0
 10
196.2215520855
 20
123.3046394048
 10
195.961120766
 20
123.9005964456
 10
195.525325131
 20
124.3979431896
 10
194.9528877105
 20
124.7524883805
 10
194.294669893
 20
124.9327272384
 10
193.6091596674
 20
124.9226466028
 10
192.9572664614
 20
124.7231424062
 10
192.3969138827
 20
124.3519395797
 10
191.9778922986
 20
123.8420227749
 10
191.7374331917
 20
123.2386999039
 10
191.6969020333
 20
122.5955788253
 10
191.859901179
 20
121.9698036296
 10
192.2119467001
 20
121.4169770686
 10
192.7217582654
 20
120.9862198888
 10
193.3440363448
 20
120.7158075852
 10
194.0234892483
 20
120.6297673492
 10
194.6997439902
 20
120.7357434763
 10
195.3127135005
 20
121.0243202953
 10
195.807931241
 20
121.4698566331
 10
196.1413968768
 20
122.0327628983
 10
196.2834775861
 20
122.6630252062
 10
196.2215520855
 20
123.3046394048
  0
LWPOLYLINE
  5
149
330
1F
100
AcDbEntity
  8
0
  6
HIDDEN
 62
     7
370
     0
100
AcDbPolyline
 90
       22
 70
   128
 43
0.0
 10
196.415818524
 20
123.7598354204
 10
196.1327411648
 20
124.4076159058
 10
195.6590500142
 20
124.9482095448
 10
195.0368343334
 20
125.3335833756
 10
194.3213802244
 20
125.5294963924
 10
193.5762606974
 20
125.518538451
 10
192.8676806803
 20
125.3016855775
 10
192.2586022358
 20
124.8982049732
 10
191.8031435873
 20
124.3439469693
 10
191.5417753573
 20
123.6881617664
 10
191.4977200742
 20
122.9891166298
 10
191.6748930182
 20
122.3089261187
 10
192.0575511124
 20
121.7080284117
 10
192.6116936322
 20
121.2398143692
 10
193.2880824845
 20
120.9458880333
 10
194.0266184922
 20
120.8523655517
 10
194.7616778727
 20
120.9675571157
 10
195.4279497679
 20
121.2812274901
 10
195.9662300016
 20
121.7655059157
 10
196.3286914345
 20
122.3773615642
 10
196.4831289317
 20
123.0624284802
 10
196.415818524
 20
123.7598354204
  0
LWPOLYLINE
  5
14A
330
1F
100
AcDbEntity
  8
0
  6
HIDDEN
 62
     7
370
     0
100
AcDbPolyline
 90
       22
 70
   128
 43
0.0
 10
196.2215520855
 20
123.5406337513
 10
195.961120766
 20
124.1365917234
 10
195.525325131
 20
124.6339366047
 10
194.9528877105
 20
124.9884817956
 10
194.294669893
 20
125.1687206535
 10
193.6091596674
 20
125.1586400179
 10
192.9572664614
 20
124.9591358213
 10
192.3969138827
 20
124.5879329948
 10
191.9778922986
 20
124.0780171214
 10
191.7374331917
 20
123.4746942504
 10
191.6969020333
 20
122.8315722404
 10
191.859901179
 20
122.2057970448
 10
192.2119467001
 20
121.6529704837
 10
192.7217582654
 20
121.2222142352
 10
193.3440363448
 20
120.9518019317
 10
194.0234892483
 20
120.8657607643
 10
194.6997439902
 20
120.9717378227
 10
195.3127135005
 20
121.2603146417
 10
195.807931241
 20
121.7058500482
 10
196.1413968768
 20
122.2687572448
 10
196.2834775861
 20
122.8990186213
 10
196.2215520855
 20
123.5406337513
  0
LWPOLYLINE
  5
14B
330
1F
100
AcDbEntity
  8
0
  6
HIDDEN
 62
     7
370
     0
100
AcDbPolyline
 90
       22
 70
   128
 43
0.0
 10
196.415818524
 20
123.9958297668
 10
196.1327411648
 20
124.6436093209
 10
195.6590500142
 20
125.18420296
 10
195.0368343334
 20
125.5695767908
 10
194.3213802244
 20
125.7654898076
 10
193.5762606974
 20
125.7545337288
 10
192.8676806803
 20
125.5376789926
 10
192.2586022358
 20
125.1341983883
 10
191.8031435873
 20
124.5799422471
 10
191.5417753573
 20
123.9241561128
 10
191.4977200742
 20
123.2251109762
 10
191.6748930182
 20
122.5449204652
 10
192.0575511124
 20
121.9440218268
 10
192.6116936322
 20
121.4758077843
 10
193.2880824845
 20
121.1818814485
 10
194.0266184922
 20
121.0883589668
 10
194.7616778727
 20
121.2035514621
 10
195.4279497679
 20
121.5172218366
 10
195.9662300016
 20
122.0014993308
 10
196.3286914345
 20
122.6133549793
 10
196.4831289317
 20
123.2984218953
 10
196.415818524
 20
123.9958297668
  0
LWPOLYLINE
  5
14C
330
1F
100
AcDbEntity
  8
0
  6
HIDDEN
 62
     7
370
     0
100
AcDbPolyline
 90
       22
 70
   128
 43
0.0
 10
196.2215520855
 20
123.7766271664
 10
195.961120766
 20
124.3725851385
 10
195.525325131
 20
124.8699318824
 10
194.9528877105
 20
125.2244752107
 10
194.294669893
 20
125.4047159312
 10
193.6091596674
 20
125.3946352957
 10
192.9572664614
 20
125.1951292364
 10
192.3969138827
 20
124.8239282726
 10
191.9778922986
 20
124.3140105365
 10
191.7374331917
 20
123.7106876655
 10
191.6969020333
 20
123.0675665869
 10
191.859901179
 20
122.4417913912
 10
192.2119467001
 20
121.8889648302
 10
192.7217582654
 20
121.4582076503
 10
193.3440363448
 20
121.1877953468
 10
194.0234892483
 20
121.1017551107
 10
194.6997439902
 20
121.2077312378
 10
195.3127135005
 20
121.4963080568
 10
195.807931241
 20
121.9418443946
 10
196.1413968768
 20
122.5047515912
 10
196.2834775861
 20
123.1350129677
 10
196.2215520855
 20
123.7766271664
  0
LWPOLYLINE
  5
14D
330
1F
100
AcDbEntity
  8
0
  6
HIDDEN
 62
     7
370
     0
100
AcDbPolyline
 90
       22
 70
   128
 43
0.0
 10
196.415818524
 20
124.1839401631
 10
196.1327411648
 20
124.8317197172
 10
195.6590500142
 20
125.3723133562
 10
195.0368343334
 20
125.7576890497
 10
194.3213802244
 20
125.9536020665
 10
193.5762606974
 20
125.9426441251
 10
192.8676806803
 20
125.7257912515
 10
192.2586022358
 20
125.3223106472
 10
191.8031435873
 20
124.7680526434
 10
191.5417753573
 20
124.1122674404
 10
191.4977200742
 20
123.4132223038
 10
191.6748930182
 20
122.7330317928
 10
192.0575511124
 20
122.1321331544
 10
192.6116936322
 20
121.6639191119
 10
193.2880824845
 20
121.369992776
 10
194.0266184922
 20
121.2764702944
 10
194.7616778727
 20
121.3916618584
 10
195.4279497679
 20
121.7053322328
 10
195.9662300016
 20
122.1896106584
 10
196.3286914345
 20
122.8014663069
 10
196.4831289317
 20
123.4865332229
 10
196.415818524
 20
124.1839401631
  0
LWPOLYLINE
  5
14E
330
1F
100
AcDbEntity
  8
0
  6
HIDDEN
 62
     7
370
     0
100
AcDbPolyline
 90
       22
 70
   128
 43
0.0
 10
196.2798323895
 20
124.2005456446
 10
196.0126080032
 20
124.8120501844
 10
195.5654427822
 20
125.3223702518
 10
194.9780716043
 20
125.6861634759
 10
194.3026829924
 20
125.8711055128
 10
193.5992895107
 20
125.8607622443
 10
192.9303903546
 20
125.6560519545
 10
192.355420668
 20
125.2751670985
 10
191.9254681509
 20
124.7519482134
 10
191.6787356551
 20
124.1328850595
 10
191.6371474456
 20
123.4729880674
 10
191.8043990101
 20
122.8308877183
 10
192.1656283032
 20
122.2636396272
 10
192.6887391548
 20
121.8216460405
 10
193.3272501867
 20
121.5441789685
 10
194.0244280215
 20
121.455894245
 10
194.7183248069
 20
121.5646354688
 10
195.3472841944
 20
121.8607401682
 10
195.8554212417
 20
122.3178984804
 10
196.1975854303
 20
122.89548984
 10
196.3433728035
 20
123.5421937166
 10
196.2798323895
 20
124.2005456446
  0
LWPOLYLINE
  5
14F
330
1F
100
AcDbEntity
  8
0
  6
HIDDEN
 62
     7
370
     0
100
AcDbPolyline
 90
       22
 70
   128
 43
0.0
 10
187.2591043304
 20
122.3507685794
 10
187.569334865
 20
122.9840260206
 10
187.9524516355
 20
123.4816735817
 10
188.374413405
 20
123.7994929982
 10
188.7977274548
 20
123.9092456384
 10
189.1847795289
 20
123.8011777608
 10
189.5011786785
 20
123.4848931639
 10
189.7188120003
 20
122.9884945063
 10
189.8183405813
 20
122.3560892252
 10
189.7909224447
 20
121.6438695995
 10
189.6389920678
 20
120.9151180668
 10
189.376050834
 20
120.2345894857
 10
189.02546097
 20
119.6627499743
 10
188.618375216
 20
119.2504106296
 10
188.1909633469
 20
119.0342096819
 10
187.7812037658
 20
119.033358453
 10
187.4255055975
 20
119.2479305176
 10
187.1554732736
 20
119.6588617025
 10
186.9951009232
 20
120.2296395062
 10
186.9586387131
 20
120.9095459638
 10
187.0493257831
 20
121.6381699054
 10
187.2591043304
 20
122.3507685794
  0
LWPOLYLINE
  5
150
330
1F
100
AcDbEntity
  8
0
  6
HIDDEN
 62
     7
370
     0
100
AcDbPolyline
 90
       19
 70
   128
 43
0.0
 10
188.2126249786
 20
121.9357544763
 10
188.4715382423
 20
122.4446431009
 10
188.7946727168
 20
122.8167604862
 10
189.1430544149
 20
123.0072234033
 10
189.4746629934
 20
122.9930607809
 10
189.7495018731
 20
122.775978802
 10
189.9344196956
 20
122.382162532
 10
190.0071150105
 20
121.859111285
 10
189.9588184844
 20
121.2699119209
 10
189.7953564714
 20
120.6856327338
 10
189.5364432078
 20
120.1767441092
 10
189.213307802
 20
119.804626724
 10
188.8649261038
 20
119.6141638069
 10
188.5333175253
 20
119.6283264293
 10
188.2584795769
 20
119.8454074768
 10
188.0735608231
 20
120.2392246781
 10
188.0008655082
 20
120.7622759251
 10
188.0491620343
 20
121.351474358
 10
188.2126249786
 20
121.9357544763
  0
LWPOLYLINE
  5
151
330
1F
100
AcDbEntity
  8
0
  6
HIDDEN
 62
     7
370
     0
100
AcDbPolyline
 90
       22
 70
   128
 43
0.0
 10
183.9881653379
 20
123.1341095848
 10
184.2983958725
 20
123.767367026
 10
184.6815131087
 20
124.2650155185
 10
185.1034748781
 20
124.582834935
 10
185.5267884623
 20
124.6925857125
 10
185.9138405364
 20
124.5845187662
 10
186.230239686
 20
124.2682341693
 10
186.4478725422
 20
123.7718355118
 10
186.5474015888
 20
123.1394302307
 10
186.5199829865
 20
122.427210605
 10
186.3680535409
 20
121.6984590722
 10
186.1051118415
 20
121.0179304911
 10
185.7545224432
 20
120.4460909797
 10
185.3474362235
 20
120.0337516351
 10
184.9200243544
 20
119.8175506873
 10
184.5102647733
 20
119.8166994585
 10
184.154566605
 20
120.0312715231
 10
183.8845342811
 20
120.4422036393
 10
183.7241623964
 20
121.0129805116
 10
183.6876997206
 20
121.6928869693
 10
183.7783867906
 20
122.4215109108
 10
183.9881653379
 20
123.1341095848
  0
LINE
  5
152
330
1F
100
AcDbEntity
  8
0
  6
HIDDEN
 62
     7
370
     0
100
AcDbLine
 10
185.7791289169
 20
121.015484838
 30
0.0
 11
185.8938273456
 21
122.4147588221
 31
0.0
  0
LINE
  5
153
330
1F
100
AcDbEntity
  8
0
  6
HIDDEN
 62
     7
370
     0
100
AcDbLine
 10
186.6612324904
 20
123.2984917445
 30
0.0
 11
185.8938273456
 21
122.4147588221
 31
0.0
  0
LINE
  5
154
330
1F
100
AcDbEntity
  8
0
  6
HIDDEN
 62
     7
370
     0
100
AcDbLine
 10
185.8938273456
 20
122.4147588221
 30
0.0
 11
184.2555229034
 21
122.807108259
 31
0.0
  0
LINE
  5
155
330
1F
100
AcDbEntity
  8
0
  6
HIDDEN
 62
     7
370
     0
100
AcDbLine
 10
185.0229285139
 20
123.6908411814
 30
0.0
 11
184.2555229034
 21
122.807108259
 31
0.0
  0
LINE
  5
156
330
1F
100
AcDbEntity
  8
0
  6
HIDDEN
 62
     7
370
     0
100
AcDbLine
 10
184.1408249404
 20
121.4078342749
 30
0.0
 11
184.2555229034
 21
122.807108259
 31
0.0
  0
LWPOLYLINE
  5
157
330
1F
100
AcDbEntity
  8
0
  6
HIDDEN
 62
     7
370
     0
100
AcDbPolyline
 90
       20
 70
   128
 43
0.0
 10
183.9789410535
 20
123.0255667327
 10
184.2647285614
 20
123.5951384736
 10
184.6202493127
 20
124.0234472064
 10
185.0069777522
 20
124.2640804706
 10
185.3830048296
 20
124.2909603028
 10
185.7075828541
 20
124.1011753885
 10
185.9455390315
 20
123.7152921243
 10
186.0710859712
 20
123.175125031
 10
186.0706198442
 20
122.5392114578
 10
185.9441909421
 20
121.8764608933
 10
185.7054994855
 20
121.2586941404
 10
185.3804115619
 20
120.7528546659
 10
185.0041553791
 20
120.4137591852
 10
184.6175042394
 20
120.2781530304
 10
184.2623578798
 20
120.3607315404
 10
183.9772018086
 20
120.6525456367
 10
183.7929368432
 20
121.1219731925
 10
183.729531471
 20
121.7181453688
 10
183.7938565243
 20
122.3764553873
 10
183.9789410535
 20
123.0255667327
  0
LINE
  5
158
330
1F
100
AcDbEntity
  8
0
  6
HIDDEN
 62
     7
370
     0
100
AcDbLine
 10
184.1408249404
 20
121.4078342749
 30
0.0
 11
184.7935321223
 21
120.8922922818
 31
0.0
  0
LINE
  5
159
330
1F
100
AcDbEntity
  8
0
  6
HIDDEN
 62
     7
370
     0
100
AcDbLine
 10
185.7791289169
 20
121.015484838
 30
0.0
 11
186.4318360988
 21
120.4999428449
 31
0.0
  0
LINE
  5
15A
330
1F
100
AcDbEntity
  8
0
  6
HIDDEN
 62
     7
370
     0
100
AcDbLine
 10
185.7791289169
 20
121.015484838
 30
0.0
 11
184.1408249404
 21
121.4078342749
 31
0.0
  0
LINE
  5
15B
330
1F
100
AcDbEntity
  8
0
  6
HIDDEN
 62
     7
370
     0
100
AcDbLine
 10
187.3139396723
 20
122.7829506828
 30
0.0
 11
185.6756356958
 21
123.1753001196
 31
0.0
  0
LINE
  5
15C
330
1F
100
AcDbEntity
  8
0
  6
HIDDEN
 62
     7
370
     0
100
AcDbLine
 10
185.0229285139
 20
123.6908411814
 30
0.0
 11
185.6756356958
 21
123.1753001196
 31
0.0
  0
LINE
  5
15D
330
1F
100
AcDbEntity
  8
0
  6
HIDDEN
 62
     7
370
     0
100
AcDbLine
 10
186.6612324904
 20
123.2984917445
 30
0.0
 11
185.0229285139
 21
123.6908411814
 31
0.0
  0
LINE
  5
15E
330
1F
100
AcDbEntity
  8
0
  6
HIDDEN
 62
     7
370
     0
100
AcDbLine
 10
186.6612324904
 20
123.2984917445
 30
0.0
 11
187.3139396723
 21
122.7829506828
 31
0.0
  0
LINE
  5
15F
330
1F
100
AcDbEntity
  8
0
  6
HIDDEN
 62
     7
370
     0
100
AcDbLine
 10
187.1992417093
 20
121.3836757673
 30
0.0
 11
185.5609377328
 21
121.7760252042
 31
0.0
  0
LINE
  5
160
330
1F
100
AcDbEntity
  8
0
  6
HIDDEN
 62
     7
370
     0
100
AcDbLine
 10
186.4318360988
 20
120.4999428449
 30
0.0
 11
184.7935321223
 21
120.8922922818
 31
0.0
  0
LINE
  5
161
330
1F
100
AcDbEntity
  8
0
  6
HIDDEN
 62
     7
370
     0
100
AcDbLine
 10
184.7935321223
 20
120.8922922818
 30
0.0
 11
185.5609377328
 21
121.7760252042
 31
0.0
  0
LINE
  5
162
330
1F
100
AcDbEntity
  8
0
  6
HIDDEN
 62
     7
370
     0
100
AcDbLine
 10
186.4318360988
 20
120.4999428449
 30
0.0
 11
187.1992417093
 21
121.3836757673
 31
0.0
  0
LINE
  5
163
330
1F
100
AcDbEntity
  8
0
  6
HIDDEN
 62
     7
370
     0
100
AcDbLine
 10
185.6756356958
 20
123.1753001196
 30
0.0
 11
185.5609377328
 21
121.7760252042
 31
0.0
  0
LINE
  5
164
330
1F
100
AcDbEntity
  8
0
  6
HIDDEN
 62
     7
370
     0
100
AcDbLine
 10
187.3139396723
 20
122.7829506828
 30
0.0
 11
187.1992417093
 21
121.3836757673
 31
0.0
  0
LWPOLYLINE
  5
165
330
1F
100
AcDbEntity
  8
0
  6
HIDDEN
 62
     7
370
     0
100
AcDbPolyline
 90
       20
 70
   128
 43
0.0
 10
185.8375195827
 20
92.8400144188
 10
186.0226041119
 20
93.3083141429
 10
186.0869291652
 20
93.9037850334
 10
186.023523793
 20
94.5618985428
 10
185.8392588276
 20
95.2113358511
 10
185.5541027564
 20
95.7817224993
 10
185.1989563968
 20
96.2112475393
 10
184.8123052571
 20
96.4533653317
 10
184.4360490743
 20
96.4818377255
 10
184.1109611507
 20
96.2935811116
 10
183.8722696941
 20
95.9089942483
 10
183.7458403263
 20
95.369753821
 10
183.7453741993
 20
94.7342947332
 10
183.8709216047
 20
94.0714799075
 10
184.1088777821
 20
93.453133872
 10
184.4334558066
 20
92.946265286
 10
184.809482884
 20
92.6058016924
 10
185.1962108578
 20
92.468634641
 10
185.5517320748
 20
92.5496317653
 10
185.8375195827
 20
92.8400144188
  0
LWPOLYLINE
  5
166
330
1F
100
AcDbEntity
  8
0
  6
HIDDEN
 62
     7
370
     0
100
AcDbPolyline
 90
       22
 70
   128
 43
0.0
 10
186.2492097955
 20
92.5348852037
 10
186.4589883428
 20
93.0425491391
 10
186.5496754128
 20
93.6825791581
 10
186.513212737
 20
94.3981068416
 10
186.3528408523
 20
95.1255526601
 10
186.0828085284
 20
95.8002818955
 10
185.7271103602
 20
96.3623397259
 10
185.3173507791
 20
96.7617867721
 10
184.8899389099
 20
96.9631293995
 10
184.4828526903
 20
96.9484769015
 10
184.132263292
 20
96.7191321982
 10
183.8693215925
 20
96.295473559
 10
183.7173916813
 20
95.715144111
 10
183.6899733118
 20
95.0297102539
 10
183.7895021256
 20
94.3000739647
 10
184.0071354475
 20
93.5910674019
 10
184.3235345971
 20
92.9656889497
 10
184.7105866711
 20
92.4795050381
 10
185.1339002553
 20
92.1757187901
 10
185.5558620248
 20
92.0813180713
 10
185.938979261
 20
92.2046959607
 10
186.2492097955
 20
92.5348852037
  0
LWPOLYLINE
  5
167
330
1F
100
AcDbEntity
  8
0
  6
HIDDEN
 62
     7
370
     0
100
AcDbPolyline
 90
       22
 70
   128
 43
0.0
 10
189.520148788
 20
93.3182262091
 10
189.7299273353
 20
93.8258901445
 10
189.8206139397
 20
94.4659201635
 10
189.7841517295
 20
95.181447847
 10
189.6237798448
 20
95.9088945968
 10
189.3537475209
 20
96.583622901
 10
188.9980493527
 20
97.1456807314
 10
188.5882897716
 20
97.5451277776
 10
188.1608779024
 20
97.746470405
 10
187.7537912171
 20
97.7318179069
 10
187.4032022845
 20
97.5024732037
 10
187.140260585
 20
97.0788145645
 10
186.9883306738
 20
96.4984851165
 10
186.9609120715
 20
95.8130512593
 10
187.0604411181
 20
95.0834149702
 10
187.27807444
 20
94.3744084073
 10
187.5944735896
 20
93.7490299551
 10
187.9815256636
 20
93.2628469749
 10
188.4048387821
 20
92.9590597956
 10
188.8268014829
 20
92.8646600081
 10
189.2099177878
 20
92.9880360348
 10
189.520148788
 20
93.3182262091
  0
LINE
  5
168
330
1F
100
AcDbEntity
  8
0
  6
HIDDEN
 62
     7
370
     0
100
AcDbLine
 10
185.0229285139
 20
95.7690714134
 30
0.0
 11
184.2555229034
 21
95.6350252239
 31
0.0
  0
LINE
  5
169
330
1F
100
AcDbEntity
  8
0
  6
HIDDEN
 62
     7
370
     0
100
AcDbLine
 10
184.1408249404
 20
94.3478005214
 30
0.0
 11
184.2555229034
 21
95.6350252239
 31
0.0
  0
LINE
  5
16A
330
1F
100
AcDbEntity
  8
0
  6
HIDDEN
 62
     7
370
     0
100
AcDbLine
 10
184.7935321223
 20
93.1946220083
 30
0.0
 11
184.1408249404
 21
94.3478005214
 31
0.0
  0
LINE
  5
16B
330
1F
100
AcDbEntity
  8
0
  6
HIDDEN
 62
     7
370
     0
100
AcDbLine
 10
184.7935321223
 20
93.1946220083
 30
0.0
 11
185.5609377328
 21
93.3286681978
 31
0.0
  0
LINE
  5
16C
330
1F
100
AcDbEntity
  8
0
  6
HIDDEN
 62
     7
370
     0
100
AcDbLine
 10
185.6756356958
 20
94.6158929004
 30
0.0
 11
185.5609377328
 21
93.3286681978
 31
0.0
  0
LINE
  5
16D
330
1F
100
AcDbEntity
  8
0
  6
HIDDEN
 62
     7
370
     0
100
AcDbLine
 10
185.6756356958
 20
94.6158929004
 30
0.0
 11
185.0229285139
 21
95.7690714134
 31
0.0
  0
LINE
  5
16E
330
1F
100
AcDbEntity
  8
0
  6
HIDDEN
 62
     7
370
     0
100
AcDbLine
 10
187.3139396723
 20
95.0082423372
 30
0.0
 11
185.6756356958
 21
94.6158929004
 31
0.0
  0
LINE
  5
16F
330
1F
100
AcDbEntity
  8
0
  6
HIDDEN
 62
     7
370
     0
100
AcDbLine
 10
186.6612324904
 20
96.1614208503
 30
0.0
 11
185.0229285139
 21
95.7690714134
 31
0.0
  0
LINE
  5
170
330
1F
100
AcDbEntity
  8
0
  6
HIDDEN
 62
     7
370
     0
100
AcDbLine
 10
186.4318360988
 20
93.5869714452
 30
0.0
 11
184.7935321223
 21
93.1946220083
 31
0.0
  0
LINE
  5
171
330
1F
100
AcDbEntity
  8
0
  6
HIDDEN
 62
     7
370
     0
100
AcDbLine
 10
186.4318360988
 20
93.5869714452
 30
0.0
 11
187.1992417093
 21
93.7210176347
 31
0.0
  0
LINE
  5
172
330
1F
100
AcDbEntity
  8
0
  6
HIDDEN
 62
     7
370
     0
100
AcDbLine
 10
187.1992417093
 20
93.7210176347
 30
0.0
 11
185.5609377328
 21
93.3286681978
 31
0.0
  0
LWPOLYLINE
  5
173
330
1F
100
AcDbEntity
  8
0
  6
HIDDEN
 62
     7
370
     0
100
AcDbPolyline
 90
       19
 70
   128
 43
0.0
 10
189.7953564714
 20
94.0645657687
 10
189.9588184844
 20
94.4891575931
 10
190.0071150105
 20
95.031174293
 10
189.9344196956
 20
95.6252426116
 10
189.7495018731
 20
96.1997084526
 10
189.4746629934
 20
96.6852823479
 10
189.1430544149
 20
97.023397146
 10
188.7946727168
 20
97.1732711626
 10
188.4715382423
 20
97.116828358
 10
188.2126249786
 20
96.8608748375
 10
188.0491620343
 20
96.4362839444
 10
188.0008655082
 20
95.8942663131
 10
188.0735608231
 20
95.3001979945
 10
188.2584795769
 20
94.7257321535
 10
188.5333175253
 20
94.2401582582
 10
188.8649261038
 20
93.9020434601
 10
189.213307802
 20
93.7521694435
 10
189.5364432078
 20
93.8086122481
 10
189.7953564714
 20
94.0645657687
  0
LINE
  5
174
330
1F
100
AcDbEntity
  8
0
  6
HIDDEN
 62
     7
370
     0
100
AcDbLine
 10
186.4318360988
 20
93.5869714452
 30
0.0
 11
185.7791289169
 21
94.7401499583
 31
0.0
  0
LINE
  5
175
330
1F
100
AcDbEntity
  8
0
  6
HIDDEN
 62
     7
370
     0
100
AcDbLine
 10
185.7791289169
 20
94.7401499583
 30
0.0
 11
185.8938273456
 21
96.0273746608
 31
0.0
  0
LINE
  5
176
330
1F
100
AcDbEntity
  8
0
  6
HIDDEN
 62
     7
370
     0
100
AcDbLine
 10
186.6612324904
 20
96.1614208503
 30
0.0
 11
185.8938273456
 21
96.0273746608
 31
0.0
  0
LINE
  5
177
330
1F
100
AcDbEntity
  8
0
  6
HIDDEN
 62
     7
370
     0
100
AcDbLine
 10
187.3139396723
 20
95.0082423372
 30
0.0
 11
186.6612324904
 21
96.1614208503
 31
0.0
  0
LINE
  5
178
330
1F
100
AcDbEntity
  8
0
  6
HIDDEN
 62
     7
370
     0
100
AcDbLine
 10
187.3139396723
 20
95.0082423372
 30
0.0
 11
187.1992417093
 21
93.7210176347
 31
0.0
  0
LINE
  5
179
330
1F
100
AcDbEntity
  8
0
  6
HIDDEN
 62
     7
370
     0
100
AcDbLine
 10
185.7791289169
 20
94.7401499583
 30
0.0
 11
184.1408249404
 21
94.3478005214
 31
0.0
  0
LINE
  5
17A
330
1F
100
AcDbEntity
  8
0
  6
HIDDEN
 62
     7
370
     0
100
AcDbLine
 10
185.8938273456
 20
96.0273746608
 30
0.0
 11
184.2555229034
 21
95.6350252239
 31
0.0
  0
LINE
  5
17B
330
1F
100
AcDbEntity
  8
0
  6
HIDDEN
 62
     7
370
     0
100
AcDbLine
 10
196.4875005599
 20
91.7223938016
 30
0.0
 11
196.4875005599
 21
94.8786217926
 31
0.0
  0
LINE
  5
17C
330
1F
100
AcDbEntity
  8
0
  6
HIDDEN
 62
     7
370
     0
100
AcDbLine
 10
191.4875006716
 20
94.8786217926
 30
0.0
 11
191.4875006716
 21
92.8249623833
 31
0.0
  0
LINE
  5
17D
330
1F
100
AcDbEntity
  8
0
  6
HIDDEN
 62
     7
370
     0
100
AcDbLine
 10
182.9875009082
 20
90.9370299636
 30
0.0
 11
185.6069287698
 21
91.5643446354
 31
0.0
  0
LINE
  5
17E
330
1F
100
AcDbEntity
  8
0
  6
HIDDEN
 62
     7
370
     0
100
AcDbLine
 10
184.2095318664
 20
97.3993497176
 30
0.0
 11
182.9875009082
 21
97.1066909118
 31
0.0
  0
LINE
  5
17F
330
1F
100
AcDbEntity
  8
0
  6
HIDDEN
 62
     7
370
     0
100
AcDbLine
 10
185.6656514521
 20
92.5038572608
 30
0.0
 11
193.1348007586
 21
94.2926066203
 31
0.0
  0
LINE
  5
180
330
1F
100
AcDbEntity
  8
0
  6
HIDDEN
 62
     7
370
     0
100
AcDbLine
 10
193.1348007586
 20
98.6113691909
 30
0.0
 11
184.6874735731
 21
96.5883605389
 31
0.0
  0
LINE
  5
181
330
1F
100
AcDbEntity
  8
0
  6
HIDDEN
 62
     7
370
     0
100
AcDbLine
 10
196.0875012394
 20
94.9284158854
 30
0.0
 11
196.0875012394
 21
107.5374308133
 31
0.0
  0
LINE
  5
182
330
1F
100
AcDbEntity
  8
0
  6
HIDDEN
 62
     7
370
     0
100
AcDbLine
 10
191.8875009235
 20
95.2764660327
 30
0.0
 11
191.8875009235
 21
94.9284158854
 31
0.0
  0
LINE
  5
183
330
1F
100
AcDbEntity
  8
0
  6
HIDDEN
 62
     7
370
     0
100
AcDbLine
 10
191.8875009235
 20
107.5374783689
 30
0.0
 11
191.8875009235
 21
97.0300905613
 31
0.0
  0
ARC
  5
184
330
1F
100
AcDbEntity
  8
0
  6
HIDDEN
 62
     7
370
     0
100
AcDbCircle
 10
79.387500989
 20
94.6867069541
 30
0.0
 40
1.200000000000017
100
AcDbArc
 50
90.0
 51
180.0
  0
ARC
  5
185
330
1F
100
AcDbEntity
  8
0
  6
HIDDEN
 62
     7
370
     0
100
AcDbCircle
 10
79.387500989
 20
122.0867069541
 30
0.0
 40
1.200000000000017
100
AcDbArc
 50
180.0
 51
270.0
  0
LINE
  5
186
330
1F
100
AcDbEntity
  8
0
  6
HIDDEN
 62
     7
370
     0
100
AcDbLine
 10
89.07987107
 20
95.6617066844
 30
0.0
 11
89.9565585371
 21
95.6617066844
 31
0.0
  0
LINE
  5
187
330
1F
100
AcDbEntity
  8
0
  6
HIDDEN
 62
     7
370
     0
100
AcDbLine
 10
89.9565585371
 20
121.1117072238
 30
0.0
 11
89.07987107
 21
121.1117072238
 31
0.0
  0
ARC
  5
188
330
1F
100
AcDbEntity
  8
0
  6
HIDDEN
 62
     7
370
     0
100
AcDbCircle
 10
89.0798734198
 20
96.0617069541
 30
0.0
 40
0.4000000000000199
100
AcDbArc
 50
255.0
 51
270.0
  0
ARC
  5
189
330
1F
100
AcDbEntity
  8
0
  6
HIDDEN
 62
     7
370
     0
100
AcDbCircle
 10
89.0798734198
 20
120.7117069541
 30
0.0
 40
0.400000000000006
100
AcDbArc
 50
90.0
 51
105.0
  0
ARC
  5
18A
330
1F
100
AcDbEntity
  8
0
  6
HIDDEN
 62
     7
370
     0
100
AcDbCircle
 10
89.9565608814
 20
96.0617069541
 30
0.0
 40
0.4000000000000057
100
AcDbArc
 50
270.0
 51
330.0
  0
ARC
  5
18B
330
1F
100
AcDbEntity
  8
0
  6
HIDDEN
 62
     7
370
     0
100
AcDbCircle
 10
89.9565608814
 20
120.7117069541
 30
0.0
 40
0.3999999999999915
100
AcDbArc
 50
30.0
 51
90.0
  0
LINE
  5
18C
330
1F
100
AcDbEntity
  8
0
  6
HIDDEN
 62
     7
370
     0
100
AcDbLine
 10
88.9763452526
 20
121.0980773179
 30
0.0
 11
88.1875001307
 21
120.8867071403
 31
0.0
  0
LINE
  5
18D
330
1F
100
AcDbEntity
  8
0
  6
HIDDEN
 62
     7
370
     0
100
AcDbLine
 10
88.1875001307
 20
95.8867067678
 30
0.0
 11
88.9763452526
 21
95.6753365902
 31
0.0
  0
LINE
  5
18E
330
1F
100
AcDbEntity
  8
0
  6
HIDDEN
 62
     7
370
     0
100
AcDbLine
 10
90.3029732819
 20
95.8617072759
 30
0.0
 11
91.472103488
 21
97.8867070956
 31
0.0
  0
LINE
  5
18F
330
1F
100
AcDbEntity
  8
0
  6
HIDDEN
 62
     7
370
     0
100
AcDbLine
 10
91.472103488
 20
118.8867068125
 30
0.0
 11
90.3029732819
 21
120.9117066322
 31
0.0
  0
LINE
  5
190
330
1F
100
AcDbEntity
  8
0
  6
HIDDEN
 62
     7
370
     0
100
AcDbLine
 10
79.3875001784
 20
95.8867067678
 30
0.0
 11
88.1875001307
 21
95.8867067678
 31
0.0
  0
LINE
  5
191
330
1F
100
AcDbEntity
  8
0
  6
HIDDEN
 62
     7
370
     0
100
AcDbLine
 10
88.1875001307
 20
120.8867071403
 30
0.0
 11
79.3875001784
 21
120.8867071403
 31
0.0
  0
LINE
  5
192
330
1F
100
AcDbEntity
  8
0
  6
HIDDEN
 62
     7
370
     0
100
AcDbLine
 10
140.1875012036
 20
97.8867070956
 30
0.0
 11
144.9943848367
 21
105.8867070099
 31
0.0
  0
LINE
  5
193
330
1F
100
AcDbEntity
  8
0
  6
HIDDEN
 62
     7
370
     0
100
AcDbLine
 10
144.9943848367
 20
110.8867068982
 30
0.0
 11
140.1875012036
 21
118.8867068125
 31
0.0
  0
LINE
  5
194
330
1F
100
AcDbEntity
  8
0
  6
HIDDEN
 62
     7
370
     0
100
AcDbLine
 10
91.472103488
 20
97.8867070956
 30
0.0
 11
140.1875012036
 21
97.8867070956
 31
0.0
  0
LINE
  5
195
330
1F
100
AcDbEntity
  8
0
  6
HIDDEN
 62
     7
370
     0
100
AcDbLine
 10
140.1875012036
 20
118.8867068125
 30
0.0
 11
91.472103488
 21
118.8867068125
 31
0.0
  0
LINE
  5
196
330
1F
100
AcDbEntity
  8
0
  6
HIDDEN
 62
     7
370
     0
100
AcDbLine
 10
214.6821797307
 20
115.8867067864
 30
0.0
 11
214.0875004645
 21
115.8867067864
 31
0.0
  0
LINE
  5
197
330
1F
100
AcDbEntity
  8
0
  6
HIDDEN
 62
     7
370
     0
100
AcDbLine
 10
214.0875004645
 20
100.8867071217
 30
0.0
 11
214.6821797307
 21
100.8867071217
 31
0.0
  0
ARC
  5
198
330
1F
100
AcDbEntity
  8
0
  6
HIDDEN
 62
     7
370
     0
100
AcDbCircle
 10
214.087500989
 20
115.0867069541
 30
0.0
 40
0.8000000000000398
100
AcDbArc
 50
90.0
 51
180.0
  0
ARC
  5
199
330
1F
100
AcDbEntity
  8
0
  6
HIDDEN
 62
     7
370
     0
100
AcDbCircle
 10
214.087500989
 20
101.6867069541
 30
0.0
 40
0.8000000000000398
100
AcDbArc
 50
180.0
 51
270.0
  0
ARC
  5
19A
330
1F
100
AcDbEntity
  8
0
  6
HIDDEN
 62
     7
370
     0
100
AcDbCircle
 10
214.682178991
 20
115.0867069541
 30
0.0
 40
0.7999999999999982
100
AcDbArc
 50
75.0
 51
90.0
  0
ARC
  5
19B
330
1F
100
AcDbEntity
  8
0
  6
HIDDEN
 62
     7
370
     0
100
AcDbCircle
 10
214.682178991
 20
101.6867069541
 30
0.0
 40
0.7999999999999982
100
AcDbArc
 50
270.0
 51
285.0
  0
LINE
  5
19C
330
1F
100
AcDbEntity
  8
0
  6
HIDDEN
 62
     7
370
     0
100
AcDbLine
 10
214.8892350908
 20
100.9139664678
 30
0.0
 11
216.6535251256
 21
101.386706738
 31
0.0
  0
LINE
  5
19D
330
1F
100
AcDbEntity
  8
0
  6
HIDDEN
 62
     7
370
     0
100
AcDbLine
 10
216.6535251256
 20
115.3867071701
 30
0.0
 11
214.8892350908
 21
115.8594474403
 31
0.0
  0
LINE
  5
19E
330
1F
100
AcDbEntity
  8
0
  6
HIDDEN
 62
     7
370
     0
100
AcDbLine
 10
222.8875004168
 20
115.3867071701
 30
0.0
 11
216.6535251256
 21
115.3867071701
 31
0.0
  0
LINE
  5
19F
330
1F
100
AcDbEntity
  8
0
  6
HIDDEN
 62
     7
370
     0
100
AcDbLine
 10
216.6535251256
 20
101.386706738
 30
0.0
 11
222.8875004168
 21
101.386706738
 31
0.0
  0
LINE
  5
1A0
330
1F
100
AcDbEntity
  8
0
  6
HIDDEN
 62
     7
370
     0
100
AcDbLine
 10
229.7875017341
 20
118.7896555497
 30
0.0
 11
229.3535165902
 21
118.3556713371
 31
0.0
  0
LINE
  5
1A1
330
1F
100
AcDbEntity
  8
0
  6
HIDDEN
 62
     7
370
     0
100
AcDbLine
 10
229.3535165902
 20
98.4177435024
 30
0.0
 11
229.7875017341
 21
97.9837592898
 31
0.0
  0
LINE
  5
1A2
330
1F
100
AcDbEntity
  8
0
  6
HIDDEN
 62
     7
370
     0
100
AcDbLine
 10
144.9943848367
 20
105.8867070099
 30
0.0
 11
213.2875018235
 21
105.8867070099
 31
0.0
  0
LINE
  5
1A3
330
1F
100
AcDbEntity
  8
0
  6
HIDDEN
 62
     7
370
     0
100
AcDbLine
 10
213.2875018235
 20
110.8867068982
 30
0.0
 11
144.9943848367
 21
110.8867068982
 31
0.0
  0
LINE
  5
1A4
330
1F
100
AcDbEntity
  8
0
  6
HIDDEN
 62
     7
370
     0
100
AcDbLine
 10
222.8875004168
 20
98.4117066695
 30
0.0
 11
229.3604717072
 21
98.4117066695
 31
0.0
  0
LINE
  5
1A5
330
1F
100
AcDbEntity
  8
0
  6
HIDDEN
 62
     7
370
     0
100
AcDbLine
 10
229.3604717072
 20
118.3617072387
 30
0.0
 11
222.8875004168
 21
118.3617072387
 31
0.0
  0
LINE
  5
1A6
330
1F
100
AcDbEntity
  8
0
  6
HIDDEN
 62
     7
370
     0
100
AcDbLine
 10
196.0875012394
 20
109.2359355392
 30
0.0
 11
196.0875012394
 21
121.8449980227
 31
0.0
  0
LINE
  5
1A7
330
1F
100
AcDbEntity
  8
0
  6
HIDDEN
 62
     7
370
     0
100
AcDbLine
 10
191.8875009235
 20
119.7433233468
 30
0.0
 11
191.8875009235
 21
109.2359830949
 31
0.0
  0
LINE
  5
1A8
330
1F
100
AcDbEntity
  8
0
  6
HIDDEN
 62
     7
370
     0
100
AcDbLine
 10
191.8875009235
 20
121.8449980227
 30
0.0
 11
191.8875009235
 21
121.4969478754
 31
0.0
  0
LINE
  5
1A9
330
1F
100
AcDbEntity
  8
0
  6
HIDDEN
 62
     7
370
     0
100
AcDbLine
 10
184.6874735731
 20
120.1850533692
 30
0.0
 11
193.1348007586
 21
118.1620447172
 31
0.0
  0
LINE
  5
1AA
330
1F
100
AcDbEntity
  8
0
  6
HIDDEN
 62
     7
370
     0
100
AcDbLine
 10
193.1348007586
 20
122.4808072878
 30
0.0
 11
185.6656514521
 21
124.2695566474
 31
0.0
  0
LINE
  5
1AB
330
1F
100
AcDbEntity
  8
0
  6
HIDDEN
 62
     7
370
     0
100
AcDbLine
 10
182.9875009082
 20
119.6667229964
 30
0.0
 11
184.2095318664
 21
119.3740641905
 31
0.0
  0
LINE
  5
1AC
330
1F
100
AcDbEntity
  8
0
  6
HIDDEN
 62
     7
370
     0
100
AcDbLine
 10
185.6069287698
 20
125.2090692727
 30
0.0
 11
182.9875009082
 21
125.8363839446
 31
0.0
  0
LINE
  5
1AD
330
1F
100
AcDbEntity
  8
0
  6
HIDDEN
 62
     7
370
     0
100
AcDbLine
 10
196.4875005599
 20
121.8947921155
 30
0.0
 11
196.4875005599
 21
125.0510201065
 31
0.0
  0
LINE
  5
1AE
330
1F
100
AcDbEntity
  8
0
  6
HIDDEN
 62
     7
370
     0
100
AcDbLine
 10
191.4875006716
 20
123.9484515248
 30
0.0
 11
191.4875006716
 21
121.8947921155
 31
0.0
  0
LINE
  5
1AF
330
1F
100
AcDbEntity
  8
0
  6
HIDDEN
 62
     7
370
     0
100
AcDbLine
 10
191.4875006716
 20
93.3361103965
 30
0.0
 11
191.4875006716
 21
93.1479990689
 31
0.0
  0
LINE
  5
1B0
330
1F
100
AcDbEntity
  8
0
  6
HIDDEN
 62
     7
370
     0
100
AcDbLine
 10
196.4875005599
 20
93.1479990689
 30
0.0
 11
196.4875005599
 21
93.3361103965
 31
0.0
  0
LINE
  5
1B1
330
1F
100
AcDbEntity
  8
0
  6
HIDDEN
 62
     7
370
     0
100
AcDbLine
 10
191.9875007536
 20
94.5178926198
 30
0.0
 11
191.9875007536
 21
93.1001169814
 31
0.0
  0
LINE
  5
1B2
330
1F
100
AcDbEntity
  8
0
  6
HIDDEN
 62
     7
370
     0
100
AcDbLine
 10
195.9875014092
 20
93.1001169814
 30
0.0
 11
195.9875014092
 21
94.5178926198
 31
0.0
  0
LINE
  5
1B3
330
1F
100
AcDbEntity
  8
0
  6
HIDDEN
 62
     7
370
     0
100
AcDbLine
 10
191.4875006716
 20
94.8786217926
 30
0.0
 11
191.4875006716
 21
94.2800859196
 31
0.0
  0
LINE
  5
1B4
330
1F
100
AcDbEntity
  8
0
  6
HIDDEN
 62
     7
370
     0
100
AcDbLine
 10
196.4875005599
 20
94.2800859196
 30
0.0
 11
196.4875005599
 21
94.8786217926
 31
0.0
  0
LINE
  5
1B5
330
1F
100
AcDbEntity
  8
0
  6
HIDDEN
 62
     7
370
     0
100
AcDbLine
 10
196.4875005599
 20
121.8947921155
 30
0.0
 11
196.4875005599
 21
122.4933279885
 31
0.0
  0
LINE
  5
1B6
330
1F
100
AcDbEntity
  8
0
  6
HIDDEN
 62
     7
370
     0
100
AcDbLine
 10
191.4875006716
 20
122.4933279885
 30
0.0
 11
191.4875006716
 21
121.8947921155
 31
0.0
  0
LINE
  5
1B7
330
1F
100
AcDbEntity
  8
0
  6
HIDDEN
 62
     7
370
     0
100
AcDbLine
 10
195.9875014092
 20
122.2555212883
 30
0.0
 11
195.9875014092
 21
123.6732969267
 31
0.0
  0
LINE
  5
1B8
330
1F
100
AcDbEntity
  8
0
  6
HIDDEN
 62
     7
370
     0
100
AcDbLine
 10
191.9875007536
 20
123.6732969267
 30
0.0
 11
191.9875007536
 21
122.2555212883
 31
0.0
  0
LINE
  5
1B9
330
1F
100
AcDbEntity
  8
0
  6
HIDDEN
 62
     7
370
     0
100
AcDbLine
 10
196.4875005599
 20
123.4373035116
 30
0.0
 11
196.4875005599
 21
123.6254148392
 31
0.0
  0
LINE
  5
1BA
330
1F
100
AcDbEntity
  8
0
  6
HIDDEN
 62
     7
370
     0
100
AcDbLine
 10
191.4875006716
 20
123.6254148392
 30
0.0
 11
191.4875006716
 21
123.4373035116
 31
0.0
  0
ARC
  5
1BB
330
1F
100
AcDbEntity
  8
0
  6
HIDDEN
 62
     7
370
     0
100
AcDbCircle
 10
193.987500989
 20
93.9209649921
 30
0.0
 40
2.0
100
AcDbArc
 50
102.9530577583
 51
192.2156859341
  0
ARC
  5
1BC
330
1F
100
AcDbEntity
  8
0
  6
HIDDEN
 62
     7
370
     0
100
AcDbCircle
 10
193.987500989
 20
93.9209649921
 30
0.0
 40
2.000000000000005
100
AcDbArc
 50
340.5237441826
 51
102.9530577583
  0
CIRCLE
  5
1BD
330
1F
100
AcDbEntity
  8
0
  6
HIDDEN
 62
     7
370
     0
100
AcDbCircle
 10
193.987500989
 20
122.852448916
 30
0.0
 40
1.999999999999992
  0
LINE
  5
1BE
330
1F
100
AcDbEntity
  8
0
  6
HIDDEN
 62
     7
370
     0
100
AcDbLine
 10
188.7806991528
 20
119.3886691911
 30
0.0
 11
189.2777413543
 21
119.8622849045
 31
0.0
  0
LINE
  5
1BF
330
1F
100
AcDbEntity
  8
0
  6
HIDDEN
 62
     7
370
     0
100
AcDbLine
 10
189.9041582312
 20
122.477966754
 30
0.0
 11
189.6755800064
 21
123.1253570153
 31
0.0
  0
LINE
  5
1C0
330
1F
100
AcDbEntity
  8
0
  6
HIDDEN
 62
     7
370
     0
100
AcDbLine
 10
184.5364391286
 20
119.8099138422
 30
0.0
 11
187.8073776554
 21
119.0265728368
 31
0.0
  0
LINE
  5
1C1
330
1F
100
AcDbEntity
  8
0
  6
HIDDEN
 62
     7
370
     0
100
AcDbLine
 10
188.971875463
 20
123.8890769167
 30
0.0
 11
185.7009360049
 21
124.6724169908
 31
0.0
  0
LINE
  5
1C2
330
1F
100
AcDbEntity
  8
0
  6
HIDDEN
 62
     7
370
     0
100
AcDbLine
 10
185.7009360049
 20
92.1009969173
 30
0.0
 11
188.971875463
 21
92.8843369914
 31
0.0
  0
LINE
  5
1C3
330
1F
100
AcDbEntity
  8
0
  6
HIDDEN
 62
     7
370
     0
100
AcDbLine
 10
187.8073776554
 20
97.7468410714
 30
0.0
 11
184.5364391286
 21
96.9635000659
 31
0.0
  0
LINE
  5
1C4
330
1F
100
AcDbEntity
  8
0
  6
HIDDEN
 62
     7
370
     0
100
AcDbLine
 10
189.6755800064
 20
93.6480568929
 30
0.0
 11
189.9041582312
 21
94.2954471542
 31
0.0
  0
LINE
  5
1C5
330
1F
100
AcDbEntity
  8
0
  6
HIDDEN
 62
     7
370
     0
100
AcDbLine
 10
189.2777413543
 20
96.9111290036
 30
0.0
 11
188.7806991528
 21
97.384744717
 31
0.0
  0
DIMENSION
  5
1C6
330
1F
100
AcDbEntity
  8
VERMASSUNG
100
AcDbDimension
  2
_D
 10
69.916350368
 20
157.1117069541
 30
0.0
 11
69.916350368
 21
108.3867069541
 31
0.0
 70
   160
  1
ISO 50 %%c<>
 71
     2
 42
-1.0
  3
SLDDIMSTYLE0
100
AcDbAlignedDimension
 13
198.237500989
 23
59.6617069541
 33
0.0
 14
198.237500989
 24
157.1117069541
 34
0.0
 50
90.0
100
AcDbRotatedDimension
  0
DIMENSION
  5
1D3
330
1F
100
AcDbEntity
  8
VERMASSUNG
100
AcDbDimension
  2
_D_1
 10
236.8660349957
 20
101.3867069541
 30
0.0
 11
236.8660349957
 21
108.3867069541
 31
0.0
 70
   160
  1
%%c<>
 71
     2
 42
-1.0
  3
SLDDIMSTYLE0
100
AcDbAlignedDimension
 13
222.887500989
 23
115.3867069541
 33
0.0
 14
222.887500989
 24
101.3867069541
 34
0.0
 50
90.0
100
AcDbRotatedDimension
  0
DIMENSION
  5
1DE
330
1F
100
AcDbEntity
  8
VERMASSUNG
100
AcDbDimension
  2
_D_2
 10
229.787500989
 20
161.3032686977
 30
0.0
 11
214.312500989
 21
161.3032686977
 31
0.0
 70
   160
  1
(<>)
 71
     2
 42
-1.0
  3
SLDDIMSTYLE0
100
AcDbAlignedDimension
 13
198.837500989
 23
154.6816939073
 33
0.0
 14
229.787500989
 24
120.6867069541
 34
0.0
100
AcDbRotatedDimension
  0
DIMENSION
  5
1EA
330
1F
100
AcDbEntity
  8
VERMASSUNG
100
AcDbDimension
  2
_D_3
 10
229.787500989
 20
167.3032686977
 30
0.0
 11
204.787500989
 21
167.3032686977
 31
0.0
 70
   160
  1
<>
 71
     2
 42
-1.0
  3
SLDDIMSTYLE0
100
AcDbAlignedDimension
 13
179.787500989
 23
143.3117069541
 33
0.0
 14
229.787500989
 24
120.6867069541
 34
0.0
100
AcDbRotatedDimension
  0
DIMENSION
  5
1F4
330
1F
100
AcDbEntity
  8
VERMASSUNG
100
AcDbDimension
  2
_D_4
 10
242.8660349957
 20
95.8867069541
 30
0.0
 11
242.8660349957
 21
108.3867069541
 31
0.0
 70
   160
  1
ST2 %%c<>
 71
     2
 42
-1.0
  3
SLDDIMSTYLE0
100
AcDbAlignedDimension
 13
229.587500989
 23
120.8867069541
 33
0.0
 14
229.587500989
 24
95.8867069541
 34
0.0
 50
90.0
100
AcDbRotatedDimension
  0
DIMENSION
  5
200
330
1F
100
AcDbEntity
  8
VERMASSUNG
100
AcDbDimension
  2
_D_5
 10
78.187500989
 20
172.6433783867
 30
0.0
 11
153.987500989
 21
172.6433783867
 31
0.0
 70
   160
  1
(<>)
 71
     2
 42
-1.0
  3
SLDDIMSTYLE0
100
AcDbAlignedDimension
 13
229.787500989
 23
120.6867069541
 33
0.0
 14
78.187500989
 24
126.7655514815
 34
0.0
100
AcDbRotatedDimension
  0
LINE
  5
20C
330
1F
100
AcDbEntity
  8
VERMASSUNG
  6
CENTERX2
 62
     7
370
     0
100
AcDbLine
 10
191.6914759186
 20
120.667080819
 30
0.0
 11
195.5937295658
 21
119.7325492821
 31
0.0
  0
LINE
  5
20D
330
1F
100
AcDbEntity
  8
VERMASSUNG
  6
CENTERX2
 62
     7
370
     0
100
AcDbLine
 10
76.187500989
 20
108.3867069541
 30
0.0
 11
231.6227130086
 21
108.3867069541
 31
0.0
  0
LINE
  5
20E
330
1F
100
AcDbEntity
  8
0
  6
Continuous
 62
     7
370
    15
100
AcDbLine
 10
273.3596951556
 20
41.2628753621
 30
0.0
 11
273.2712923055
 21
41.3139260189
 31
0.0
  0
LINE
  5
20F
330
1F
100
AcDbEntity
  8
0
  6
Continuous
 62
     7
370
    15
100
AcDbLine
 10
271.680043443
 20
41.3139260966
 30
0.0
 11
271.5916405529
 21
41.2628756069
 31
0.0
  0
LINE
  5
210
330
1F
100
AcDbEntity
  8
0
  6
Continuous
 62
     7
370
    15
100
AcDbLine
 10
273.7256676834
 20
40.6506359901
 30
0.0
 11
273.7256676834
 21
40.7527034183
 31
0.0
  0
LINE
  5
211
330
1F
100
AcDbEntity
  8
0
  6
Continuous
 62
     7
370
    15
100
AcDbLine
 10
271.2256672718
 20
40.7527037034
 30
0.0
 11
271.2256672718
 21
40.6506362753
 31
0.0
  0
SPLINE
  5
212
330
1F
100
AcDbEntity
  8
0
  6
Continuous
 62
     7
370
    15
100
AcDbSpline
210
0.0
220
0.0
230
1.0
 70
     8
 71
     3
 72
    30
 73
    26
 74
     0
 42
0.000000001
 43
0.00000001
 40
0.0
 40
0.0
 40
0.0
 40
0.0
 40
0.0043232897058982
 40
0.0516034125246611
 40
0.0989570688899579
 40
0.1463584672385656
 40
0.1937861860712113
 40
0.2412245245336419
 40
0.2886609960891174
 40
0.3360902101138696
 40
0.3835098081665794
 40
0.4309191543514022
 40
0.4783187827425989
 40
0.5257098090920226
 40
0.5730938217178322
 40
0.6204726475152624
 40
0.6678481564689662
 40
0.7152223287661698
 40
0.7625971391099867
 40
0.8099739685763091
 40
0.8573548102976275
 40
0.9047417576429605
 40
0.9521367496893675
 40
0.9970532886076411
 40
1.0
 40
1.0
 40
1.0
 40
1.0
 10
264.1117971884089
 20
65.93860295490023
 30
0.0
 10
264.0738470527932
 20
65.93400175560058
 30
0.0
 10
263.6208687337898
 20
65.87908117388616
 30
0.0
 10
262.7220118486471
 20
65.65039061971306
 30
0.0
 10
261.4215280725571
 20
65.24483036507849
 30
0.0
 10
260.1000952997393
 20
64.69832116844242
 30
0.0
 10
258.7701772795686
 20
64.0318468299395
 30
0.0
 10
257.4385897911432
 20
63.24484304982514
 30
0.0
 10
256.1135744487042
 20
62.34343774733771
 30
0.0
 10
254.8028473880034
 20
61.33280838987412
 30
0.0
 10
253.5140766496337
 20
60.21914221306049
 30
0.0
 10
252.2547489158361
 20
59.00907639623454
 30
0.0
 10
251.03218201184
 20
57.7098112143938
 30
0.0
 10
249.8534774588289
 20
56.32903816709257
 30
0.0
 10
248.7254917366154
 20
54.87490389706835
 30
0.0
 10
247.6547940484971
 20
53.3559695992567
 30
0.0
 10
246.6476332036242
 20
51.78116276357618
 30
0.0
 10
245.7098935009022
 20
50.15972797324797
 30
0.0
 10
244.8470893585003
 20
48.50118215921878
 30
0.0
 10
244.064246015628
 20
46.81523692187422
 30
0.0
 10
243.3661604527539
 20
45.11181177351029
 30
0.0
 10
242.7563065321316
 20
43.40069050355442
 30
0.0
 10
242.2498096384989
 20
41.7224123371502
 30
0.0
 10
241.9620618040866
 20
40.58508789301432
 30
0.0
 10
241.8388696499954
 20
40.01869402791622
 30
0.0
 10
241.8312852982943
 20
39.98382386669618
 30
0.0
  0
LINE
  5
213
330
1F
100
AcDbEntity
  8
0
  6
Continuous
 62
     7
370
    15
100
AcDbLine
 10
274.7214502542
 20
29.3523775755
 30
0.0
 11
274.7921493198
 21
29.3932049275
 31
0.0
  0
LINE
  5
214
330
1F
100
AcDbEntity
  8
0
  6
Continuous
 62
     7
370
    15
100
AcDbLine
 10
279.1401490936
 20
36.9249775967
 30
0.0
 11
279.1401494229
 21
37.0066184593
 31
0.0
  0
LINE
  5
215
330
1F
100
AcDbEntity
  8
0
  6
Continuous
 62
     7
370
    15
100
AcDbLine
 10
277.8454779205
 20
39.8681484921
 30
0.0
 11
268.3879246537
 21
45.3278777795
 31
0.0
  0
LINE
  5
216
330
1F
100
AcDbEntity
  8
0
  6
Continuous
 62
     7
370
    15
100
AcDbLine
 10
262.1384327619
 20
34.5022669389
 30
0.0
 11
271.5959860287
 21
29.0425376515
 31
0.0
  0
LINE
  5
217
330
1F
100
AcDbEntity
  8
0
  6
Continuous
 62
     7
370
    15
100
AcDbLine
 10
257.0974599336
 20
62.9929558283
 30
0.0
 11
226.3348327951
 21
74.0785867641
 31
0.0
  0
LINE
  5
218
330
1F
100
AcDbEntity
  8
0
  6
Continuous
 62
     7
370
    15
100
AcDbLine
 10
216.2109734147
 20
56.5416483637
 30
0.0
 11
245.6784845332
 21
31.6595259254
 31
0.0
  0
SPLINE
  5
219
330
1F
100
AcDbEntity
  8
0
  6
Continuous
 62
     7
370
    15
100
AcDbSpline
210
0.0
220
0.0
230
1.0
 70
     8
 71
     3
 72
    15
 73
    11
 74
     0
 42
0.000000001
 43
0.00000001
 40
0.0
 40
0.0
 40
0.0
 40
0.0
 40
0.0652305640245517
 40
0.2206512127497622
 40
0.3753355832722592
 40
0.5291173892600779
 40
0.682276745206025
 40
0.8357928298840787
 40
0.9927887347351865
 40
1.0
 40
1.0
 40
1.0
 40
1.0
 10
273.4716119958888
 20
36.24708272912752
 30
0.0
 10
273.5307209497947
 20
36.32462666129765
 30
0.0
 10
273.7306649876664
 20
36.58692950859916
 30
0.0
 10
274.1167794147761
 20
36.95302303886543
 30
0.0
 10
274.6022823788374
 20
37.32242746826947
 30
0.0
 10
275.083815891956
 20
37.5722329951504
 30
0.0
 10
275.5366423430214
 20
37.70576832679029
 30
0.0
 10
275.932767005491
 20
37.7081862405723
 30
0.0
 10
276.1758980880314
 20
37.66813593523989
 30
0.0
 10
276.2718922651281
 20
37.59664250262409
 30
0.0
 10
276.2761079121942
 20
37.59350282177507
 30
0.0
  0
SPLINE
  5
21A
330
1F
100
AcDbEntity
  8
0
  6
Continuous
 62
     7
370
    15
100
AcDbSpline
210
0.0
220
0.0
230
1.0
 70
     8
 71
     3
 72
    11
 73
     7
 74
     0
 42
0.000000001
 43
0.00000001
 40
0.0
 40
0.0
 40
0.0
 40
0.0
 40
0.0791234964185064
 40
0.4354268038352572
 40
0.7924801326432273
 40
1.0
 40
1.0
 40
1.0
 40
1.0
 10
272.5000979971182
 20
34.54459657009048
 30
0.0
 10
272.5170833708995
 20
34.59237103580104
 30
0.0
 10
272.6105560730965
 20
34.85528008116547
 30
0.0
 10
272.8416431515731
 20
35.32888915842102
 30
0.0
 10
273.1554375009195
 20
35.86051058219625
 30
0.0
 10
273.3866319690533
 20
36.1431815228544
 30
0.0
 10
273.4716119958888
 20
36.24708272912752
 30
0.0
  0
SPLINE
  5
21B
330
1F
100
AcDbEntity
  8
0
  6
Continuous
 62
     7
370
    15
100
AcDbSpline
210
0.0
220
0.0
230
1.0
 70
     8
 71
     3
 72
     9
 73
     5
 74
     0
 42
0.000000001
 43
0.00000001
 40
0.0
 40
0.0
 40
0.0
 40
0.0
 40
0.5345527579803174
 40
1.0
 40
1.0
 40
1.0
 40
1.0
 10
272.8825440981344
 20
31.48047416858607
 30
0.0
 10
272.7841864832146
 20
31.53919392357728
 30
0.0
 10
272.6001866563473
 20
31.64904230451741
 30
0.0
 10
272.4706558132333
 20
31.85984312221878
 30
0.0
 10
272.4103660395496
 20
31.95795978143338
 30
0.0
  0
SPLINE
  5
21C
330
1F
100
AcDbEntity
  8
0
  6
Continuous
 62
     7
370
    15
100
AcDbSpline
210
0.0
220
0.0
230
1.0
 70
     8
 71
     3
 72
    19
 73
    15
 74
     0
 42
0.000000001
 43
0.00000001
 40
0.0
 40
0.0
 40
0.0
 40
0.0
 40
0.072698530328019
 40
0.160526186213916
 40
0.2484538701639922
 40
0.3364394036798998
 40
0.424450948383082
 40
0.5124639623301234
 40
0.600465298890705
 40
0.6884495252316757
 40
0.7764148425933014
 40
0.8643616429440311
 40
0.9522919295751512
 40
1.0
 40
1.0
 40
1.0
 40
1.0
 10
257.9976316655034
 20
18.76560603565976
 30
0.0
 10
258.3470122448687
 20
18.82885608997211
 30
0.0
 10
259.118482200171
 20
18.96851902333228
 30
0.0
 10
260.3447256088938
 20
19.34121306598354
 30
0.0
 10
261.6611055293585
 20
19.85024422572852
 30
0.0
 10
262.9897936536348
 20
20.48761677638034
 30
0.0
 10
264.3216727584094
 20
21.24462969338527
 30
0.0
 10
265.6490730224471
 20
22.1178829490309
 30
0.0
 10
266.9641469368999
 20
23.10158591140654
 30
0.0
 10
268.2589934174226
 20
24.19020214801234
 30
0.0
 10
269.5269444608927
 20
25.37599770733644
 30
0.0
 10
270.7573973976907
 20
26.65632429519363
 30
0.0
 10
271.7726948616049
 20
27.80126225107613
 30
0.0
 10
272.3551448209431
 20
28.54505142798471
 30
0.0
 10
272.5600099069126
 20
28.80666434636113
 30
0.0
  0
SPLINE
  5
21D
330
1F
100
AcDbEntity
  8
0
  6
Continuous
 62
     7
370
    15
100
AcDbSpline
210
0.0
220
0.0
230
1.0
 70
     8
 71
     3
 72
    12
 73
     8
 74
     0
 42
0.000000001
 43
0.00000001
 40
0.0
 40
0.0
 40
0.0
 40
0.0
 40
0.0064289360926688
 40
0.3074512018721084
 40
0.6085217657035177
 40
0.9096526734823953
 40
1.0
 40
1.0
 40
1.0
 40
1.0
 10
278.5309921310325
 20
39.12292769844846
 30
0.0
 10
278.5361179272372
 20
39.13501851713671
 30
0.0
 10
278.7812490315094
 20
39.71323809868855
 30
0.0
 10
279.1872238896736
 20
40.86881282219459
 30
0.0
 10
279.7334054661844
 20
42.57702840093557
 30
0.0
 10
280.0805639050806
 20
43.88254108180791
 30
0.0
 10
280.2377656921201
 20
44.61145634141571
 30
0.0
 10
280.2740455154629
 20
44.77967909096856
 30
0.0
  0
LINE
  5
21E
330
1F
100
AcDbEntity
  8
0
  6
Continuous
 62
     7
370
    15
100
AcDbLine
 10
250.0010504993
 20
20.5950817267
 30
0.0
 11
251.4565724855
 21
19.7548267693
 31
0.0
  0
LINE
  5
21F
330
1F
100
AcDbEntity
  8
0
  6
Continuous
 62
     7
370
    15
100
AcDbLine
 10
246.2770155509
 20
22.7449213417
 30
0.0
 11
247.714860227
 21
21.9148712783
 31
0.0
  0
SPLINE
  5
220
330
1F
100
AcDbEntity
  8
0
  6
Continuous
 62
     7
370
    15
100
AcDbSpline
210
0.0
220
0.0
230
1.0
 70
     8
 71
     3
 72
     9
 73
     5
 74
     0
 42
0.000000001
 43
0.00000001
 40
0.0
 40
0.0
 40
0.0
 40
0.0
 40
0.5999323538505391
 40
1.0
 40
1.0
 40
1.0
 40
1.0
 10
241.8448940382337
 20
28.81018728768662
 30
0.0
 10
241.8831218810675
 20
28.67377367328498
 30
0.0
 10
241.9468421365071
 20
28.44639201345935
 30
0.0
 10
242.0306857535482
 20
28.23748919112577
 30
0.0
 10
242.0642288720625
 20
28.1539139307208
 30
0.0
  0
SPLINE
  5
221
330
1F
100
AcDbEntity
  8
0
  6
Continuous
 62
     7
370
    15
100
AcDbSpline
210
0.0
220
0.0
230
1.0
 70
     8
 71
     3
 72
     9
 73
     5
 74
     0
 42
0.000000001
 43
0.00000001
 40
0.0
 40
0.0
 40
0.0
 40
0.0
 40
0.5084169306165924
 40
1.0
 40
1.0
 40
1.0
 40
1.0
 10
280.2641739332882
 20
55.84203617938074
 30
0.0
 10
280.2118129171952
 20
56.02234883780736
 30
0.0
 10
280.108824576446
 20
56.37700393988656
 30
0.0
 10
279.9742695660628
 20
56.70247150755536
 30
0.0
 10
279.9081246010578
 20
56.86246585345474
 30
0.0
  0
SPLINE
  5
222
330
1F
100
AcDbEntity
  8
0
  6
Continuous
 62
     7
370
    15
100
AcDbSpline
210
0.0
220
0.0
230
1.0
 70
     8
 71
     3
 72
    33
 73
    29
 74
     0
 42
0.000000001
 43
0.00000001
 40
0.0
 40
0.0
 40
0.0
 40
0.0
 40
0.0275560868757516
 40
0.0659734047272235
 40
0.1050526450330072
 40
0.1450241223935383
 40
0.1858351592356092
 40
0.227233444030125
 40
0.2689245450062745
 40
0.3106689023564
 40
0.3523482680613007
 40
0.3939378841807025
 40
0.4354473740325254
 40
0.476902498083161
 40
0.518335940575807
 40
0.5597833859918323
 40
0.6012699148310187
 40
0.6428332117657873
 40
0.6845103132142156
 40
0.7263336102707753
 40
0.7621265123276032
 40
0.7844652162029532
 40
0.8265791511619469
 40
0.8686962707367336
 40
0.910453558929484
 40
0.9514717755788894
 40
0.9914734797804299
 40
1.0
 40
1.0
 40
1.0
 40
1.0
 10
226.3001574633231
 20
74.07593365846691
 30
0.0
 10
226.1256229625302
 20
74.13580025067535
 30
0.0
 10
225.7077611916775
 20
74.27912985096347
 30
0.0
 10
224.990014643895
 20
74.35275425651538
 30
0.0
 10
224.1680264973599
 20
74.32009295283709
 30
0.0
 10
223.3119170847511
 20
74.15074253950606
 30
0.0
 10
222.4332922554267
 20
73.85050413355478
 30
0.0
 10
221.5440920497654
 20
73.42028602033271
 30
0.0
 10
220.6590910491865
 20
72.86712056043586
 30
0.0
 10
219.7925904677923
 20
72.20067004295335
 30
0.0
 10
218.9574413806011
 20
71.43249049452324
 30
0.0
 10
218.1648689587156
 20
70.57471164019127
 30
0.0
 10
217.4249652346564
 20
69.6398988293975
 30
0.0
 10
216.7471455621612
 20
68.64113449238863
 30
0.0
 10
216.1401702517616
 20
67.59199726171542
 30
0.0
 10
215.6121380835314
 20
66.50657912274872
 30
0.0
 10
215.1703849208157
 20
65.39921604700959
 30
0.0
 10
214.8214100343713
 20
64.2843017873242
 30
0.0
 10
214.5708882212703
 20
63.17601130686035
 30
0.0
 10
214.4310675707523
 20
62.14195516952663
 30
0.0
 10
214.3935735320805
 20
61.30377230295429
 30
0.0
 10
214.4170418601179
 20
60.49078938576209
 30
0.0
 10
214.5147558813945
 20
59.66197247404396
 30
0.0
 10
214.7459764000351
 20
58.75137582956576
 30
0.0
 10
215.0891036818427
 20
57.9253244304165
 30
0.0
 10
215.5481670441449
 20
57.21575998393578
 30
0.0
 10
215.9417374987032
 20
56.74679454479721
 30
0.0
 10
216.2044203511163
 20
56.55813406296407
 30
0.0
 10
216.2505743301492
 20
56.52498598404355
 30
0.0
  0
LWPOLYLINE
  5
223
330
1F
100
AcDbEntity
  8
0
  6
Continuous
 62
     7
370
    15
100
AcDbPolyline
 90
       17
 70
   128
 43
0.0
 10
271.3582381258
 20
40.9299861291
 10
271.4931563412
 20
41.1711221677
 10
271.7776545657
 20
41.3640957604
 10
272.1684180221
 20
41.4795298678
 10
272.6059583271
 20
41.4998495793
 10
273.0236615428
 20
41.4219628683
 10
273.3579393936
 20
41.2577253966
 10
273.557898284
 20
41.0321424667
 10
273.5930968294
 20
40.7795566092
 10
273.458178614
 20
40.5384205706
 10
273.1736803895
 20
40.3454469779
 10
272.7829169331
 20
40.2300128705
 10
272.3453766281
 20
40.209693159
 10
271.9276734124
 20
40.28757987
 10
271.5933955616
 20
40.4518173417
 10
271.3934366712
 20
40.6774002715
 10
271.3582381258
 20
40.9299861291
  0
LWPOLYLINE
  5
224
330
1F
100
AcDbEntity
  8
0
  6
Continuous
 62
     7
370
    15
100
AcDbPolyline
 90
        3
 70
   128
 43
0.0
 10
271.234078655
 20
40.8362758991
 10
271.3702170504
 20
41.0895533565
 10
271.5916405529
 20
41.2628756069
  0
LWPOLYLINE
  5
225
330
1F
100
AcDbEntity
  8
0
  6
Continuous
 62
     7
370
    15
100
AcDbPolyline
 90
       13
 70
   128
 43
0.0
 10
273.3596951556
 20
41.2628753621
 10
273.6074981276
 20
41.0589709414
 10
273.7227167455
 20
40.8022573919
 10
273.6695155277
 20
40.5388507418
 10
273.4550771575
 20
40.3043268514
 10
273.1083658423
 20
40.1303577138
 10
272.6762037057
 20
40.0404406292
 10
272.2169587615
 20
40.0467181568
 10
271.7926530197
 20
40.148343445
 10
271.46059397
 20
40.3315898745
 10
271.2656248714
 20
40.5717108721
 10
271.234078655
 20
40.8362758991
 10
271.234078655
 20
40.8362758991
  0
LWPOLYLINE
  5
226
330
1F
100
AcDbEntity
  8
0
  6
Continuous
 62
     7
370
    15
100
AcDbPolyline
 90
       17
 70
   128
 43
0.0
 10
271.7307139042
 20
40.9049149147
 10
271.8206602694
 20
41.0656717728
 10
272.0103257541
 20
41.1943208356
 10
272.2708342672
 20
41.2712771497
 10
272.5625278518
 20
41.2848236518
 10
272.8409975129
 20
41.2328986551
 10
273.0638481101
 20
41.1234077755
 10
273.1971540233
 20
40.9730191477
 10
273.220621051
 20
40.8046278236
 10
273.1306746858
 20
40.6438709655
 10
272.9410092011
 20
40.5152219027
 10
272.680500688
 20
40.4382655885
 10
272.3888071034
 20
40.4247190865
 10
272.1103374423
 20
40.4766440832
 10
271.8874868451
 20
40.5861349628
 10
271.7541809319
 20
40.7365235906
 10
271.7307139042
 20
40.9049149147
  0
SPLINE
  5
227
330
1F
100
AcDbEntity
  8
0
  6
Continuous
 62
     7
370
    15
100
AcDbSpline
210
0.0
220
0.0
230
1.0
 70
     8
 71
     3
 72
    11
 73
     7
 74
     0
 42
0.000000001
 43
0.00000001
 40
0.0
 40
0.0
 40
0.0
 40
0.0
 40
0.1285562027199389
 40
0.4801534162450223
 40
0.8150693783443744
 40
1.0
 40
1.0
 40
1.0
 40
1.0
 10
271.8130829636942
 20
40.66653012533688
 30
0.0
 10
271.8164489759071
 20
40.67194785345133
 30
0.0
 10
271.8290209267654
 20
40.69218289934877
 30
0.0
 10
271.8525970058155
 20
40.768410985057
 30
0.0
 10
271.8781233508241
 20
40.92786969675043
 30
0.0
 10
271.891798883118
 20
41.04033863947704
 30
0.0
 10
271.8966638274451
 20
41.08034842725933
 30
0.0
  0
SPLINE
  5
228
330
1F
100
AcDbEntity
  8
0
  6
Continuous
 62
     7
370
    15
100
AcDbSpline
210
0.0
220
0.0
230
1.0
 70
     8
 71
     3
 72
     9
 73
     5
 74
     0
 42
0.000000001
 43
0.00000001
 40
0.0
 40
0.0
 40
0.0
 40
0.0
 40
0.3400314982450349
 40
1.0
 40
1.0
 40
1.0
 40
1.0
 10
272.0287655508407
 20
40.50874915708323
 30
0.0
 10
272.0029302164777
 20
40.52157995426746
 30
0.0
 10
271.9269509778005
 20
40.55931409728198
 30
0.0
 10
271.8583544869719
 20
40.62390329155979
 30
0.0
 10
271.8130829636942
 20
40.66653012533688
 30
0.0
  0
LINE
  5
229
330
1F
100
AcDbEntity
  8
0
  6
Continuous
 62
     7
370
    15
100
AcDbLine
 10
273.0546711277
 20
40.5829581672
 30
0.0
 11
272.9518119362
 21
40.5297661644
 31
0.0
  0
SPLINE
  5
22A
330
1F
100
AcDbEntity
  8
0
  6
Continuous
 62
     7
370
    15
100
AcDbSpline
210
0.0
220
0.0
230
1.0
 70
     8
 71
     3
 72
    11
 73
     7
 74
     0
 42
0.000000001
 43
0.00000001
 40
0.0
 40
0.0
 40
0.0
 40
0.0
 40
0.1849320275643933
 40
0.5198465072537498
 40
0.8714437424042121
 40
1.0
 40
1.0
 40
1.0
 40
1.0
 10
273.1382519915003
 20
40.99677646916857
 30
0.0
 10
273.1333876542808
 20
40.9567664306397
 30
0.0
 10
273.1197139345527
 20
40.84429765463454
 30
0.0
 10
273.0941842596401
 20
40.68483880839799
 30
0.0
 10
273.0706092127317
 20
40.60861097216021
 30
0.0
 10
273.0580371664195
 20
40.58837590303026
 30
0.0
 10
273.0546711277494
 20
40.5829581672461
 30
0.0
  0
SPLINE
  5
22B
330
1F
100
AcDbEntity
  8
0
  6
Continuous
 62
     7
370
    15
100
AcDbSpline
210
0.0
220
0.0
230
1.0
 70
     8
 71
     3
 72
    10
 73
     6
 74
     0
 42
0.000000001
 43
0.00000001
 40
0.0
 40
0.0
 40
0.0
 40
0.0
 40
0.4391132106048688
 40
0.751364240068781
 40
1.0
 40
1.0
 40
1.0
 40
1.0
 10
272.5592489998927
 20
41.24547121900552
 30
0.0
 10
272.6421370129057
 20
41.17491625540575
 30
0.0
 10
272.7839662437378
 20
41.05419003873103
 30
0.0
 10
272.9901414066521
 20
40.99221603585293
 30
0.0
 10
273.0927614886746
 20
40.99537578329021
 30
0.0
 10
273.1382519915003
 20
40.99677646916857
 30
0.0
  0
SPLINE
  5
22C
330
1F
100
AcDbEntity
  8
0
  6
Continuous
 62
     7
370
    15
100
AcDbSpline
210
0.0
220
0.0
230
1.0
 70
     8
 71
     3
 72
    10
 73
     6
 74
     0
 42
0.000000001
 43
0.00000001
 40
0.0
 40
0.0
 40
0.0
 40
0.0
 40
0.4391117421467813
 40
0.7513633555702174
 40
1.0
 40
1.0
 40
1.0
 40
1.0
 10
271.8966638274451
 20
41.08034842725933
 30
0.0
 10
271.9915167366336
 20
41.0690342847366
 30
0.0
 10
272.1538193883118
 20
41.04967467469811
 30
0.0
 10
272.3897573949756
 20
41.13505493444633
 30
0.0
 10
272.5071915229865
 20
41.21155807512844
 30
0.0
 10
272.5592489998927
 20
41.24547121900552
 30
0.0
  0
LINE
  5
22D
330
1F
100
AcDbEntity
  8
0
  6
Continuous
 62
     7
370
    15
100
AcDbLine
 10
271.8966638274
 20
40.5966841424
 30
0.0
 11
271.8966638274
 21
41.0803484273
 31
0.0
  0
LINE
  5
22E
330
1F
100
AcDbEntity
  8
0
  6
Continuous
 62
     7
370
    15
100
AcDbLine
 10
272.5592489999
 20
40.4245024781
 30
0.0
 11
272.5592489999
 21
41.245471219
 31
0.0
  0
SPLINE
  5
22F
330
1F
100
AcDbEntity
  8
0
  6
Continuous
 62
     7
370
    15
100
AcDbSpline
210
0.0
220
0.0
230
1.0
 70
     8
 71
     3
 72
    12
 73
     8
 74
     0
 42
0.000000001
 43
0.00000001
 40
0.0
 40
0.0
 40
0.0
 40
0.0
 40
0.2499999999999972
 40
0.2499999999999972
 40
0.4999999999999944
 40
0.4999999999999944
 40
1.0
 40
1.0
 40
1.0
 40
1.0
 10
247.1155447159601
 20
36.95145313715962
 30
0.0
 10
247.1494762082496
 20
36.93186490360815
 30
0.0
 10
247.1879079172769
 20
36.90467771467174
 30
0.0
 10
247.2620847699419
 20
36.84545378713591
 30
0.0
 10
247.2973010501973
 20
36.81402110811915
 30
0.0
 10
247.3923999674553
 20
36.72202839131716
 30
0.0
 10
247.4409291242172
 20
36.66517172579252
 30
0.0
 10
247.4742707203722
 20
36.61694291979018
 30
0.0
  0
ARC
  5
230
330
1F
100
AcDbEntity
  8
0
  6
Continuous
 62
     7
370
    15
100
AcDbCircle
 10
271.2611690739
 20
52.8865513297
 30
0.0
 40
10.21190446958571
100
AcDbArc
 50
73.330843126
 51
100.41602341
  0
SPLINE
  5
231
330
1F
100
AcDbEntity
  8
0
  6
Continuous
 62
     7
370
    15
100
AcDbSpline
210
0.0
220
0.0
230
1.0
 70
     8
 71
     3
 72
    12
 73
     8
 74
     0
 42
0.000000001
 43
0.00000001
 40
0.0
 40
0.0
 40
0.0
 40
0.0
 40
0.4999999999999972
 40
0.4999999999999972
 40
0.7499999999999986
 40
0.7499999999999986
 40
1.0
 40
1.0
 40
1.0
 40
1.0
 10
274.4025335395707
 20
62.2357588580015
 30
0.0
 10
274.4025335395707
 20
62.30844185519431
 30
0.0
 10
274.3855167715004
 20
62.3920247019346
 30
0.0
 10
274.331105945619
 20
62.51346887981028
 30
0.0
 10
274.307960726697
 20
62.55318375749164
 30
0.0
 10
274.2536799148398
 20
62.62191352935744
 30
0.0
 10
274.2224439462824
 20
62.6508231252631
 30
0.0
 10
274.1904015052146
 20
62.6693208327567
 30
0.0
  0
LWPOLYLINE
  5
232
330
1F
100
AcDbEntity
  8
0
  6
Continuous
 62
     7
370
    15
100
AcDbPolyline
 90
       16
 70
   128
 43
0.0
 10
247.6029761492
 20
37.1921152689
 10
247.9071315157
 20
38.3951599356
 10
248.4467665931
 20
40.1890245302
 10
249.0895626677
 20
41.986522062
 10
249.8312141756
 20
43.7756140472
 10
250.6667543739
 20
45.544316817
 10
251.5905856343
 20
47.2807836453
 10
252.5965215899
 20
48.9733861141
 10
253.6778240131
 20
50.6107855934
 10
254.8272508901
 20
52.1820149868
 10
256.0371031769
 20
53.6765505905
 10
257.2992774835
 20
55.0843820511
 10
258.6053207324
 20
56.3960819429
 10
259.9464848185
 20
57.6028631776
 10
261.3137868654
 20
58.6966426874
 10
262.3258136991
 20
59.4213125877
  0
LWPOLYLINE
  5
233
330
1F
100
AcDbEntity
  8
0
  6
Continuous
 62
     7
370
    15
100
AcDbPolyline
 90
       12
 70
   128
 43
0.0
 10
257.1265056976
 20
57.7934476602
 10
258.5768627193
 20
59.0660509709
 10
260.0544946789
 20
60.2072000081
 10
261.5482204372
 20
61.2082590299
 10
263.0467369423
 20
62.0616534846
 10
264.5387046749
 20
62.7609269418
 10
266.0128338363
 20
63.3007847635
 10
267.4579692585
 20
63.6771446435
 10
268.8631758102
 20
63.8871570126
 10
270.2178203024
 20
63.9292325507
 10
271.511651502
 20
63.8030549165
 10
272.7348794863
 20
63.5095763677
  0
LINE
  5
234
330
1F
100
AcDbEntity
  8
0
  6
Continuous
 62
     7
370
    15
100
AcDbLine
 10
274.1904014726
 20
62.6693214104
 30
0.0
 11
272.7348794863
 21
63.5095763677
 31
0.0
  0
LINE
  5
235
330
1F
100
AcDbEntity
  8
0
  6
Continuous
 62
     7
370
    15
100
AcDbLine
 10
245.6600225672
 20
37.7917082796
 30
0.0
 11
247.1155445535
 21
36.9514533223
 31
0.0
  0
ARC
  5
236
330
1F
100
AcDbEntity
  8
0
  6
Continuous
 62
     7
370
    15
100
AcDbCircle
 10
284.9927464389
 20
28.5606074147
 30
0.0
 40
40.40144044883868
100
AcDbArc
 50
136.9528122493
 51
166.7921386576
  0
SPLINE
  5
237
330
1F
100
AcDbEntity
  8
0
  6
Continuous
 62
     7
370
    15
100
AcDbSpline
210
0.0
220
0.0
230
1.0
 70
     8
 71
     3
 72
    34
 73
    30
 74
     0
 42
0.000000001
 43
0.00000001
 40
0.0
 40
0.0
 40
0.0
 40
0.0
 40
0.062499999999999
 40
0.062499999999999
 40
0.124999999999998
 40
0.124999999999998
 40
0.1874999999999971
 40
0.1874999999999971
 40
0.2499999999999966
 40
0.2499999999999966
 40
0.3124999999999962
 40
0.3124999999999962
 40
0.3749999999999957
 40
0.3749999999999957
 40
0.4999999999999958
 40
0.4999999999999958
 40
0.6249999999999958
 40
0.6249999999999958
 40
0.6874999999999964
 40
0.6874999999999964
 40
0.7499999999999971
 40
0.7499999999999971
 40
0.8124999999999979
 40
0.8124999999999979
 40
0.8749999999999986
 40
0.8749999999999986
 40
0.9374999999999992
 40
0.9374999999999992
 40
1.0
 40
1.0
 40
1.0
 40
1.0
 10
255.4677063304923
 20
56.13865002819196
 30
0.0
 10
255.5268317441356
 20
56.10907254433373
 30
0.0
 10
255.5896444395661
 20
56.0853965221382
 30
0.0
 10
255.7223534424907
 20
56.04931701171846
 30
0.0
 10
255.7929651388619
 20
56.03686912157922
 30
0.0
 10
255.9382131088392
 20
56.02415922785384
 30
0.0
 10
256.0121955386014
 20
56.0238170479565
 30
0.0
 10
256.1628776034262
 20
56.03482339277912
 30
0.0
 10
256.2403256232263
 20
56.0464100567646
 30
0.0
 10
256.3922582092014
 20
56.0805845995034
 30
0.0
 10
256.467214289786
 20
56.1030970018934
 30
0.0
 10
256.6151493566946
 20
56.15890907449145
 30
0.0
 10
256.688078069785
 20
56.19235392069774
 30
0.0
 10
256.8946905957949
 20
56.30471618001706
 30
0.0
 10
257.0216157718443
 20
56.39875358103779
 30
0.0
 10
257.2307225244712
 20
56.60735489621371
 30
0.0
 10
257.3152709076691
 20
56.72427899035741
 30
0.0
 10
257.4002444644431
 20
56.90280424033006
 30
0.0
 10
257.422204165041
 20
56.96402081925675
 30
0.0
 10
257.4513152617808
 20
57.08482680177058
 30
0.0
 10
257.4586697245606
 20
57.14442732821574
 30
0.0
 10
257.459012659605
 20
57.26216861834901
 30
0.0
 10
257.4517726167696
 20
57.32062000648611
 30
0.0
 10
257.4231607662476
 20
57.43138263087756
 30
0.0
 10
257.4018774246881
 20
57.48429507560019
 30
0.0
 10
257.3450492580811
 20
57.58521328290945
 30
0.0
 10
257.3095917691072
 20
57.63272829754055
 30
0.0
 10
257.2271868162206
 20
57.71898827542397
 30
0.0
 10
257.1799819136448
 20
57.75823382784405
 30
0.0
 10
257.1265057677559
 20
57.79344695595766
 30
0.0
  0
LINE
  5
238
330
1F
100
AcDbEntity
  8
0
  6
Continuous
 62
     7
370
    15
100
AcDbLine
 10
280.1124327663
 20
55.3664553018
 30
0.0
 11
280.2167146062
 21
55.5470771265
 31
0.0
  0
LINE
  5
239
330
1F
100
AcDbEntity
  8
0
  6
Continuous
 62
     7
370
    15
100
AcDbLine
 10
277.8143244848
 20
54.0397856298
 30
0.0
 11
280.1124327663
 21
55.3664553018
 31
0.0
  0
ARC
  5
23A
330
1F
100
AcDbEntity
  8
0
  6
Continuous
 62
     7
370
    15
100
AcDbCircle
 10
278.6424275824
 20
52.7451833468
 30
0.0
 40
1.536798559128002
100
AcDbArc
 50
122.6053519586
 51
177.394632491
  0
LINE
  5
23B
330
1F
100
AcDbEntity
  8
0
  6
Continuous
 62
     7
370
    15
100
AcDbLine
 10
277.1072175877
 20
43.9555729731
 30
0.0
 11
277.1072175877
 21
52.8150409415
 31
0.0
  0
ARC
  5
23C
330
1F
100
AcDbEntity
  8
0
  6
Continuous
 62
     7
370
    15
100
AcDbCircle
 10
277.5382910708
 20
43.8856444261
 30
0.0
 40
0.4367085406723248
100
AcDbArc
 50
170.7857695821
 51
309.2035248725
  0
LINE
  5
23D
330
1F
100
AcDbEntity
  8
0
  6
Continuous
 62
     7
370
    15
100
AcDbLine
 10
280.1124327663
 20
44.8739062024
 30
0.0
 11
277.8143244848
 21
43.5472365304
 31
0.0
  0
LINE
  5
23E
330
1F
100
AcDbEntity
  8
0
  6
Continuous
 62
     7
370
    15
100
AcDbLine
 10
280.2167146062
 20
44.8136856272
 30
0.0
 11
280.1124327663
 21
44.8739062024
 31
0.0
  0
LINE
  5
23F
330
1F
100
AcDbEntity
  8
0
  6
Continuous
 62
     7
370
    15
100
AcDbLine
 10
247.5197782703
 20
26.0585672576
 30
0.0
 11
247.4742702106
 21
25.9401986346
 31
0.0
  0
LINE
  5
240
330
1F
100
AcDbEntity
  8
0
  6
Continuous
 62
     7
370
    15
100
AcDbLine
 10
247.5197782703
 20
26.0585672576
 30
0.0
 11
250.6614227975
 21
27.8722000389
 31
0.0
  0
ARC
  5
241
330
1F
100
AcDbEntity
  8
0
  6
Continuous
 62
     7
370
    15
100
AcDbCircle
 10
249.8333196999
 20
29.1668023219
 30
0.0
 40
1.536798559128351
100
AcDbArc
 50
302.6053519586
 51
357.394632491
  0
LINE
  5
242
330
1F
100
AcDbEntity
  8
0
  6
Continuous
 62
     7
370
    15
100
AcDbLine
 10
251.3685296946
 20
37.9564126956
 30
0.0
 11
251.3685296946
 21
29.0969447272
 31
0.0
  0
ARC
  5
243
330
1F
100
AcDbEntity
  8
0
  6
Continuous
 62
     7
370
    15
100
AcDbCircle
 10
250.9374562115
 20
38.0263412426
 30
0.0
 40
0.4367085406723161
100
AcDbArc
 50
350.7857695821
 51
129.2035248725
  0
LINE
  5
244
330
1F
100
AcDbEntity
  8
0
  6
Continuous
 62
     7
370
    15
100
AcDbLine
 10
250.6614227975
 20
38.3647491383
 30
0.0
 11
247.5197782703
 21
36.551116357
 31
0.0
  0
LINE
  5
245
330
1F
100
AcDbEntity
  8
0
  6
Continuous
 62
     7
370
    15
100
AcDbLine
 10
247.4742702106
 20
36.6169424927
 30
0.0
 11
247.5197782703
 21
36.551116357
 31
0.0
  0
LINE
  5
246
330
1F
100
AcDbEntity
  8
0
  6
Continuous
 62
     7
370
    15
100
AcDbLine
 10
274.4025338051
 20
59.0107980724
 30
0.0
 11
274.4025338051
 21
62.2357592154
 31
0.0
  0
LINE
  5
247
330
1F
100
AcDbEntity
  8
0
  6
Continuous
 62
     7
370
    15
100
AcDbLine
 10
277.1952807935
 20
60.6230165918
 30
0.0
 11
274.4025338051
 21
59.0107980724
 31
0.0
  0
SPLINE
  5
248
330
1F
100
AcDbEntity
  8
0
  6
Continuous
 62
     7
370
    15
100
AcDbSpline
210
0.0
220
0.0
230
1.0
 70
     8
 71
     3
 72
     8
 73
     4
 74
     0
 42
0.000000001
 43
0.00000001
 40
0.0
 40
0.0
 40
0.0
 40
0.0
 40
1.0
 40
1.0
 40
1.0
 40
1.0
 10
244.5874682437316
 20
38.88322206469113
 30
0.0
 10
244.3004011140594
 20
38.83577006496777
 30
0.0
 10
244.0132879954738
 20
38.78841263226498
 30
0.0
 10
243.7261331690761
 20
38.7411409633529
 30
0.0
  0
SPLINE
  5
249
330
1F
100
AcDbEntity
  8
0
  6
Continuous
 62
     7
370
    15
100
AcDbSpline
210
0.0
220
0.0
230
1.0
 70
     8
 71
     3
 72
     8
 73
     4
 74
     0
 42
0.000000001
 43
0.00000001
 40
0.0
 40
0.0
 40
0.0
 40
0.0
 40
0.0011862984959112
 40
0.0011862984959112
 40
0.0011862984959112
 40
0.0011862984959112
 10
243.3738320818007
 20
39.11149786301507
 30
0.0
 10
243.4915429496453
 20
38.98794791190262
 30
0.0
 10
243.6089827000813
 20
38.86449286278734
 30
0.0
 10
243.7261331690761
 20
38.7411409633529
 30
0.0
  0
LWPOLYLINE
  5
24A
330
1F
100
AcDbEntity
  8
0
  6
Continuous
 62
     7
370
    15
100
AcDbPolyline
 90
       25
 70
   128
 43
0.0
 10
243.3738322949
 20
39.1114978313
 10
243.8225684739
 20
40.8949180125
 10
244.3765874805
 20
42.6922193101
 10
245.0322607344
 20
44.4916281978
 10
245.7852918913
 20
46.281357904
 10
246.6307497699
 20
48.049684835
 10
247.5630946938
 20
49.7850261398
 10
248.5762206383
 20
51.4760134712
 10
249.6634907919
 20
53.111569789
 10
250.8177829957
 20
54.6809827405
 10
252.0315358416
 20
56.1739723374
 10
253.2967987219
 20
57.5807578717
 10
254.6052838539
 20
58.8921229307
 10
255.9484196222
 20
60.0994796508
 10
257.3174083662
 20
61.1949172867
 10
258.7032822737
 20
62.1712618551
 10
260.0969632881
 20
63.0221183229
 10
261.4893220686
 20
63.7419107277
 10
262.8712380413
 20
64.3259259702
 10
264.2336592856
 20
64.7703392607
 10
265.5676607123
 20
65.0722370575
 10
266.864504753
 20
65.2296429772
 10
268.1156958542
 20
65.2415264389
 10
269.3130384296
 20
65.1078087434
 10
270.448689214
 20
64.8293659194
  0
LINE
  5
24B
330
1F
100
AcDbEntity
  8
0
  6
Continuous
 62
     7
370
    15
100
AcDbLine
 10
270.749549553
 20
63.8826906648
 30
0.0
 11
270.448689214
 21
64.8293659194
 31
0.0
  0
LWPOLYLINE
  5
24C
330
1F
100
AcDbEntity
  8
0
  6
Continuous
 62
     7
370
    15
100
AcDbPolyline
 90
       23
 70
   128
 43
0.0
 10
244.5874682492
 20
38.883222039
 10
245.0387174341
 20
40.697229703
 10
245.6044532645
 20
42.5265278982
 10
246.280449202
 20
44.3574507426
 10
247.0616555271
 20
46.1763187431
 10
247.9422349014
 20
47.9695429754
 10
248.9156084652
 20
49.7237269822
 10
249.9745052287
 20
51.4257652481
 10
251.111013438
 20
53.0629428154
 10
252.3166424789
 20
54.6230257736
 10
253.5823854381
 20
56.0943612542
 10
254.898784958
 20
57.465954992
 10
256.2560073227
 20
58.7275612426
 10
257.6439124284
 20
59.869755115
 10
259.0521310803
 20
60.8840015288
 10
260.4701426389
 20
61.7627243733
 10
261.887353284
 20
62.4993577724
 10
263.2931747516
 20
63.0883991426
 10
264.677104718
 20
63.5254479933
 10
266.0288035406
 20
63.8072380611
 10
267.3381724393
 20
63.9316657124
 10
268.5954300525
 20
63.8977991574
 10
268.7784994988
 20
63.879115277
  0
LINE
  5
24D
330
1F
100
AcDbEntity
  8
0
  6
Continuous
 62
     7
370
    15
100
AcDbLine
 10
241.9359876189
 20
39.9415478947
 30
0.0
 11
243.3738322949
 21
39.1114978313
 31
0.0
  0
ARC
  5
24E
330
1F
100
AcDbEntity
  8
0
  6
Continuous
 62
     7
370
    15
100
AcDbCircle
 10
266.0816275404
 20
55.8767348253
 30
0.0
 40
10.21181486552254
100
AcDbArc
 50
73.3307827921
 51
100.4146446051
  0
LINE
  5
24F
330
1F
100
AcDbEntity
  8
0
  6
Continuous
 62
     7
370
    15
100
AcDbLine
 10
270.448689214
 20
64.8293659194
 30
0.0
 11
269.010844538
 21
65.6594159827
 31
0.0
  0
LINE
  5
250
330
1F
100
AcDbEntity
  8
0
  6
Continuous
 62
     7
370
    15
100
AcDbLine
 10
245.8400590868
 20
38.5568800375
 30
0.0
 11
245.2139554691
 21
38.9183219625
 31
0.0
  0
SPLINE
  5
251
330
1F
100
AcDbEntity
  8
0
  6
Continuous
 62
     7
370
    15
100
AcDbSpline
210
0.0
220
0.0
230
1.0
 70
     8
 71
     3
 72
    11
 73
     7
 74
     0
 42
0.000000001
 43
0.00000001
 40
0.0
 40
0.0
 40
0.0
 40
0.0
 40
0.3165694752064712
 40
0.6331520400060429
 40
0.9494411625907934
 40
1.0
 40
1.0
 40
1.0
 40
1.0
 10
256.4344817746696
 20
56.90096871044484
 30
0.0
 10
256.3008915944658
 20
56.85379004752478
 30
0.0
 10
256.0337057103385
 20
56.75943077092961
 30
0.0
 10
255.7177555111398
 20
56.49961507173642
 30
0.0
 10
255.5370528201831
 20
56.27642368626394
 30
0.0
 10
255.5021178566331
 20
56.14767450876614
 30
0.0
 10
255.4973031340923
 20
56.12993034921899
 30
0.0
  0
SPLINE
  5
252
330
1F
100
AcDbEntity
  8
0
  6
Continuous
 62
     7
370
    15
100
AcDbSpline
210
0.0
220
0.0
230
1.0
 70
     8
 71
     3
 72
    14
 73
    10
 74
     0
 42
0.000000001
 43
0.00000001
 40
0.0
 40
0.0
 40
0.0
 40
0.0
 40
0.25
 40
0.25
 40
0.5
 40
0.5
 40
0.75
 40
0.75
 40
1.0
 40
1.0
 40
1.0
 40
1.0
 10
245.2139553564653
 20
38.91832213192317
 30
0.0
 10
245.1763213630073
 20
38.94004777390321
 30
0.0
 10
245.1305474063181
 20
38.95725953501471
 30
0.0
 10
245.0306115288082
 20
38.97966486864721
 30
0.0
 10
244.9761776599683
 20
38.98483975224703
 30
0.0
 10
244.8699620094763
 20
38.98289755793228
 30
0.0
 10
244.8166457095263
 20
38.97580915501404
 30
0.0
 10
244.7191526422255
 20
38.95107571872936
 30
0.0
 10
244.6742409516959
 20
38.93331488274331
 30
0.0
 10
244.6364876860959
 20
38.91152038642132
 30
0.0
  0
LINE
  5
253
330
1F
100
AcDbEntity
  8
0
  6
Continuous
 62
     7
370
    15
100
AcDbLine
 10
244.6364876682
 20
38.9115203472
 30
0.0
 11
244.5874682492
 21
38.883222039
 31
0.0
  0
SPLINE
  5
254
330
1F
100
AcDbEntity
  8
0
  6
Continuous
 62
     7
370
    15
100
AcDbSpline
210
0.0
220
0.0
230
1.0
 70
     8
 71
     3
 72
    10
 73
     6
 74
     0
 42
0.000000001
 43
0.00000001
 40
0.0
 40
0.0
 40
0.0
 40
0.0
 40
0.5
 40
0.5
 40
1.0
 40
1.0
 40
1.0
 40
1.0
 10
241.8339750534458
 20
39.97099607359979
 30
0.0
 10
241.841291337868
 20
39.97536407349298
 30
0.0
 10
241.8531151980764
 20
39.97589612608123
 30
0.0
 10
241.8872665623542
 20
39.96666607644293
 30
0.0
 10
241.909523525747
 20
39.95682519912663
 30
0.0
 10
241.9359875437686
 20
39.94154784671031
 30
0.0
  0
SPLINE
  5
255
330
1F
100
AcDbEntity
  8
0
  6
Continuous
 62
     7
370
    15
100
AcDbSpline
210
0.0
220
0.0
230
1.0
 70
     8
 71
     3
 72
    14
 73
    10
 74
     0
 42
0.000000001
 43
0.00000001
 40
0.0
 40
0.0
 40
0.0
 40
0.0
 40
0.25
 40
0.25
 40
0.5
 40
0.5
 40
0.75
 40
0.75
 40
1.0
 40
1.0
 40
1.0
 40
1.0
 10
256.8515606296953
 20
57.20742051958308
 30
0.0
 10
256.8664015218244
 20
57.16890250074749
 30
0.0
 10
256.8657677539205
 20
57.13098386259401
 30
0.0
 10
256.83283214896
 20
57.06504291282475
 30
0.0
 10
256.8006963036181
 20
57.03676935528279
 30
0.0
 10
256.7157937282136
 20
56.98885032909529
 30
0.0
 10
256.6633768157205
 20
56.96897323164754
 30
0.0
 10
256.5520411514254
 20
56.93311630563117
 30
0.0
 10
256.4938864747144
 20
56.91724428194775
 30
0.0
 10
256.4344815189831
 20
56.900968936393
 30
0.0
  0
LINE
  5
256
330
1F
100
AcDbEntity
  8
0
  6
Continuous
 62
     7
370
    15
100
AcDbLine
 10
256.8354336349
 20
57.2492763622
 30
0.0
 11
256.8515607314
 21
57.2074208725
 31
0.0
  0
SPLINE
  5
257
330
1F
100
AcDbEntity
  8
0
  6
Continuous
 62
     7
370
    15
100
AcDbSpline
210
0.0
220
0.0
230
1.0
 70
     8
 71
     3
 72
    10
 73
     6
 74
     0
 42
0.000000001
 43
0.00000001
 40
0.0
 40
0.0
 40
0.0
 40
0.0
 40
0.5
 40
0.5
 40
1.0
 40
1.0
 40
1.0
 40
1.0
 10
257.1265057677559
 20
57.79344695595766
 30
0.0
 10
257.0984907180181
 20
57.72142085326963
 30
0.0
 10
257.0606728295682
 20
57.64047436796619
 30
0.0
 10
256.9646970817333
 20
57.46007933162628
 30
0.0
 10
256.9066653044336
 20
57.36075312465147
 30
0.0
 10
256.8354335668436
 20
57.24927666308741
 30
0.0
  0
LINE
  5
258
330
1F
100
AcDbEntity
  8
0
  6
Continuous
 62
     7
370
    15
100
AcDbLine
 10
247.5197782703
 20
36.551116357
 30
0.0
 11
245.6919241095
 21
37.6063141034
 31
0.0
  0
SPLINE
  5
259
330
1F
100
AcDbEntity
  8
0
  6
Continuous
 62
     7
370
    15
100
AcDbSpline
210
0.0
220
0.0
230
1.0
 70
     8
 71
     3
 72
     8
 73
     4
 74
     0
 42
0.000000001
 43
0.00000001
 40
0.0000000000000004
 40
0.0000000000000004
 40
0.0000000000000004
 40
0.0000000000000004
 40
0.0011862984959127
 40
0.0011862984959127
 40
0.0011862984959127
 40
0.0011862984959127
 10
245.6919238420472
 20
37.60631416331437
 30
0.0
 10
245.6808616427895
 20
37.66842260823314
 30
0.0
 10
245.6702356362158
 20
37.73021539553476
 30
0.0
 10
245.6600225083984
 20
37.79170822225265
 30
0.0
  0
LWPOLYLINE
  5
25A
330
1F
100
AcDbEntity
  8
0
  6
Continuous
 62
     7
370
    15
100
AcDbPolyline
 90
       39
 70
   128
 43
0.0
 10
274.7914425326
 20
39.4362485632
 10
274.0756689429
 20
38.9545516958
 10
273.379419716
 20
38.3490141811
 10
272.7216868642
 20
37.6361542953
 10
272.1204115269
 20
36.8354167692
 10
271.5919949197
 20
35.9686433149
 10
271.1508511004
 20
35.0594777476
 10
270.8090128294
 20
34.1327194392
 10
270.5758050969
 20
33.2136478677
 10
270.4575887845
 20
32.3273330442
 10
270.4575887845
 20
31.4979513974
 10
270.5758050969
 20
30.748126223
 10
270.8090128294
 20
30.0983105681
 10
271.1508511004
 20
29.5662303264
 10
271.5919949197
 20
29.1663985715
 10
272.1204115269
 20
28.9097219455
 10
272.7216868642
 20
28.803202147
 10
273.379419716
 20
28.8497444476
 10
274.0756689429
 20
29.0480791793
 10
274.7914425326
 20
29.392796908
 10
275.5072161224
 20
29.8744937753
 10
276.2034653492
 20
30.48003129
 10
276.8611982011
 20
31.1928911759
 10
277.4624735384
 20
31.9936287019
 10
277.9908901455
 20
32.8604021562
 10
278.4320339649
 20
33.7695677235
 10
278.7738722359
 20
34.696326032
 10
279.0070799684
 20
35.6153976035
 10
279.1252962808
 20
36.501712427
 10
279.1252962808
 20
37.3310940738
 10
279.0070799684
 20
38.0809192482
 10
278.7738722359
 20
38.7307349031
 10
278.4320339649
 20
39.2628151448
 10
277.9908901455
 20
39.6626468997
 10
277.4624735384
 20
39.9193235257
 10
276.8611982011
 20
40.0258433241
 10
276.2034653492
 20
39.9793010236
 10
275.5072161224
 20
39.7809662918
 10
274.7914425326
 20
39.4362485632
  0
LWPOLYLINE
  5
25B
330
1F
100
AcDbEntity
  8
0
  6
Continuous
 62
     7
370
    15
100
AcDbPolyline
 90
       21
 70
   128
 43
0.0
 10
274.7207319746
 20
39.5587232222
 10
274.011807577
 20
39.0833822313
 10
273.3212438942
 20
38.4881779232
 10
272.6669262541
 20
37.7885250562
 10
272.0658012296
 20
37.0025443935
 10
271.5334374714
 20
36.1505928264
 10
271.0836229257
 20
35.2547350326
 10
270.7280075743
 20
34.3381733527
 10
270.4758014914
 20
33.4246462928
 10
270.3335371091
 20
32.5378138543
 10
270.3048986549
 20
31.7006443564
 10
270.3906279789
 20
30.9348200711
 10
270.5885047985
 20
30.2601756713
 10
270.8934043202
 20
29.6941837717
 10
271.2974292784
 20
29.2515034158
 10
271.7901160593
 20
28.9435997536
 10
272.3587043754
 20
28.778447436
 10
272.9884678542
 20
28.7603235474
 10
273.6630961593
 20
28.8896979682
 10
274.3651166232
 20
29.1632193621
 10
274.7214502542
 20
29.3523775755
  0
LWPOLYLINE
  5
25C
330
1F
100
AcDbEntity
  8
0
  6
Continuous
 62
     7
370
    15
100
AcDbPolyline
 90
       11
 70
   128
 43
0.0
 10
279.1401494229
 20
37.0066184593
 10
279.1079268401
 20
37.6031612271
 10
278.9656624579
 20
38.325738706
 10
278.7134563749
 20
38.9480748208
 10
278.3578410235
 20
39.4540517555
 10
277.9080264779
 20
39.8305647294
 10
277.3756627197
 20
40.0678621846
 10
276.7745376951
 20
40.1597986671
 10
276.1202200551
 20
40.1039924673
 10
275.4296563723
 20
39.9018889184
 10
274.7207319746
 20
39.5587232222
  0
SPLINE
  5
25D
330
1F
100
AcDbEntity
  8
0
  6
Continuous
 62
     7
370
    15
100
AcDbSpline
210
0.0
220
0.0
230
1.0
 70
    11
 71
     3
 72
    64
 73
    60
 74
     0
 42
0.000000001
 43
0.00000001
 40
0.0
 40
0.0
 40
0.0
 40
0.0
 40
0.0312499999999998
 40
0.0312499999999998
 40
0.0624999999999996
 40
0.0624999999999996
 40
0.0937499999999994
 40
0.0937499999999994
 40
0.1249999999999993
 40
0.1249999999999993
 40
0.1562499999999991
 40
0.1562499999999991
 40
0.1874999999999989
 40
0.1874999999999989
 40
0.2187499999999987
 40
0.2187499999999987
 40
0.2499999999999985
 40
0.2499999999999985
 40
0.2812499999999983
 40
0.2812499999999983
 40
0.3124999999999981
 40
0.3124999999999981
 40
0.3437499999999979
 40
0.3437499999999979
 40
0.3749999999999978
 40
0.3749999999999978
 40
0.4062499999999976
 40
0.4062499999999976
 40
0.4374999999999974
 40
0.4374999999999974
 40
0.4687499999999972
 40
0.4687499999999972
 40
0.499999999999997
 40
0.499999999999997
 40
0.5312499999999968
 40
0.5312499999999968
 40
0.5624999999999967
 40
0.5624999999999967
 40
0.6249999999999962
 40
0.6249999999999962
 40
0.6874999999999959
 40
0.6874999999999959
 40
0.7187499999999962
 40
0.7187499999999962
 40
0.7499999999999966
 40
0.7499999999999966
 40
0.781249999999997
 40
0.781249999999997
 40
0.8124999999999973
 40
0.8124999999999973
 40
0.8437499999999977
 40
0.8437499999999977
 40
0.8749999999999981
 40
0.8749999999999981
 40
0.9062499999999984
 40
0.9062499999999984
 40
0.9374999999999988
 40
0.9374999999999988
 40
1.0
 40
1.0
 40
1.0
 40
1.0
 10
272.4682660501822
 20
41.60877087925176
 30
0.0
 10
272.5617249670369
 20
41.59560422583901
 30
0.0
 10
272.6528252888093
 20
41.57772256184918
 30
0.0
 10
272.8308103941508
 20
41.53414549691615
 30
0.0
 10
272.9182853955949
 20
41.50822643451994
 30
0.0
 10
273.0862345364871
 20
41.45000863979309
 30
0.0
 10
273.1656767638922
 20
41.41813864879803
 30
0.0
 10
273.3158869589359
 20
41.34951281556324
 30
0.0
 10
273.3872600273591
 20
41.31236867801769
 30
0.0
 10
273.517266850783
 20
41.2352019303986
 30
0.0
 10
273.5759440756825
 20
41.19527916620838
 30
0.0
 10
273.6807399885937
 20
41.11258321860098
 30
0.0
 10
273.7271957941259
 20
41.06936148151744
 30
0.0
 10
273.8039351580862
 20
40.98223726313169
 30
0.0
 10
273.8345305758514
 20
40.93824408793601
 30
0.0
 10
273.8797735354254
 20
40.84861838338798
 30
0.0
 10
273.8943851205398
 20
40.80250328049475
 30
0.0
 10
273.9052351918864
 20
40.71123395402108
 30
0.0
 10
273.9018019135926
 20
40.66580840380936
 30
0.0
 10
273.8760404981945
 20
40.57444132530535
 30
0.0
 10
273.853239434956
 20
40.52815598884828
 30
0.0
 10
273.7893129487562
 20
40.43900048197102
 30
0.0
 10
273.7481848509042
 20
40.39556472945919
 30
0.0
 10
273.6460387127313
 20
40.31059731060706
 30
0.0
 10
273.5858399853499
 20
40.26995832348032
 30
0.0
 10
273.4514038014437
 20
40.19486366107621
 30
0.0
 10
273.3754897802069
 20
40.15956335266919
 30
0.0
 10
273.2143066861091
 20
40.09736158864648
 30
0.0
 10
273.1292124087054
 20
40.07032107944553
 30
0.0
 10
272.9502959305352
 20
40.02464494836846
 30
0.0
 10
272.8584575755015
 20
40.0065782739219
 30
0.0
 10
272.6733431537854
 20
39.98050388964059
 30
0.0
 10
272.5787023869276
 20
39.97240164720971
 30
0.0
 10
272.3932768184557
 20
39.96704250640713
 30
0.0
 10
272.3020263396286
 20
39.96962517034767
 30
0.0
 10
272.1222414993077
 20
39.98574541026542
 30
0.0
 10
272.034433784646
 20
39.99933135665542
 30
0.0
 10
271.7841957090594
 20
40.05565088361691
 30
0.0
 10
271.6299140511813
 20
40.11552653042926
 30
0.0
 10
271.370940128435
 20
40.27119484405374
 30
0.0
 10
271.2629843054095
 20
40.36899906848141
 30
0.0
 10
271.1481080979008
 20
40.53177550161487
 30
0.0
 10
271.1169611584419
 20
40.58940995352177
 30
0.0
 10
271.071300405023
 20
40.70870367807252
 30
0.0
 10
271.057074322592
 20
40.76928134652573
 30
0.0
 10
271.0461105444816
 20
40.89153499121358
 30
0.0
 10
271.0495270674357
 20
40.95390701743517
 30
0.0
 10
271.0755966127155
 20
41.0756043165078
 30
0.0
 10
271.0978800280665
 20
41.1342971266199
 30
0.0
 10
271.1617493909501
 20
41.24644485918439
 30
0.0
 10
271.204170561223
 20
41.30051739421156
 30
0.0
 10
271.3058525055157
 20
41.39699074816776
 30
0.0
 10
271.3650965945102
 20
41.43992722721718
 30
0.0
 10
271.5010903064017
 20
41.51459297702087
 30
0.0
 10
271.5765715752741
 20
41.54541683580276
 30
0.0
 10
271.7373540288885
 20
41.59305105697496
 30
0.0
 10
271.8243708858541
 20
41.61025578020251
 30
0.0
 10
272.0912549767904
 20
41.64116308366525
 30
0.0
 10
272.2813482164727
 20
41.63510418607726
 30
0.0
 10
272.4682660501821
 20
41.60877087925175
 30
0.0
  0
LINE
  5
25E
330
1F
100
AcDbEntity
  8
0
  6
Continuous
 62
     7
370
    15
100
AcDbLine
 10
277.2101420027
 20
34.4592453171
 30
0.0
 11
278.0706500929
 21
35.5297093925
 31
0.0
  0
SPLINE
  5
25F
330
1F
100
AcDbEntity
  8
0
  6
Continuous
 62
     7
370
    15
100
AcDbSpline
210
0.0
220
0.0
230
1.0
 70
     8
 71
     3
 72
    22
 73
    18
 74
     0
 42
0.000000001
 43
0.00000001
 40
0.0
 40
0.0
 40
0.0
 40
0.0
 40
0.0416666666666669
 40
0.0833333333333333
 40
0.1250000000000032
 40
0.166666666666668
 40
0.2083333333333338
 40
0.2499999999999221
 40
0.2968749999997848
 40
0.34375
 40
0.3906249999999997
 40
0.4374999999999997
 40
0.4863049253904977
 40
0.4863049253904977
 40
0.53125
 40
0.6249999999999818
 40
0.8289791339914696
 40
0.8289791339914696
 40
0.8289791339914696
 40
0.8289791339914696
 10
278.0706499669756
 20
35.52970960198734
 30
0.0
 10
278.1050616455684
 20
35.57251740301104
 30
0.0
 10
278.1723232808701
 20
35.66434983035472
 30
0.0
 10
278.2663625111397
 20
35.82044149893466
 30
0.0
 10
278.3492083104318
 20
35.99307741638815
 30
0.0
 10
278.4151507054917
 20
36.17679182526895
 30
0.0
 10
278.4583879137913
 20
36.36356125957428
 30
0.0
 10
278.4750437116857
 20
36.55164117632585
 30
0.0
 10
278.4581233373864
 20
36.72838680058067
 30
0.0
 10
278.4034149848038
 20
36.87952959926852
 30
0.0
 10
278.3171642294724
 20
36.99065330999084
 30
0.0
 10
278.2034362356378
 20
37.0610523683525
 30
0.0
 10
278.1196045795526
 20
37.08094691679749
 30
0.0
 10
278.0382070424886
 20
37.08874230881791
 30
0.0
 10
277.9309221571077
 20
37.09752203929551
 30
0.0
 10
277.7434709535349
 20
37.11496517220853
 30
0.0
 10
277.4353151663593
 20
37.14248421558346
 30
0.0
 10
277.2100434258615
 20
37.16254889811972
 30
0.0
  0
SPLINE
  5
260
330
1F
100
AcDbEntity
  8
0
  6
Continuous
 62
     7
370
    15
100
AcDbSpline
210
0.0
220
0.0
230
1.0
 70
     8
 71
     3
 72
    22
 73
    18
 74
     0
 42
0.000000001
 43
0.00000001
 40
0.0
 40
0.0
 40
0.0
 40
0.0
 40
0.0416666666666669
 40
0.0833333333333333
 40
0.1250000000000032
 40
0.166666666666668
 40
0.2083333333333338
 40
0.2499999999999221
 40
0.2968749999997848
 40
0.34375
 40
0.3906249999999997
 40
0.4374999999999997
 40
0.4863049253904977
 40
0.4863049253904977
 40
0.53125
 40
0.6249999999999818
 40
0.826582907656825
 40
0.826582907656825
 40
0.826582907656825
 40
0.826582907656825
 10
271.5122345714708
 20
31.74361698340975
 30
0.0
 10
271.4786269024625
 20
31.74662201545329
 30
0.0
 10
271.4101881156082
 20
31.7609010669536
 30
0.0
 10
271.3166220098186
 20
31.80837504609612
 30
0.0
 10
271.2336494399352
 20
31.88537057783342
 30
0.0
 10
271.1677410027604
 20
31.99294647065816
 30
0.0
 10
271.1244947335116
 20
32.12979613794463
 30
0.0
 10
271.1078413167753
 20
32.29864530783391
 30
0.0
 10
271.1247614411112
 20
32.49492746894487
 30
0.0
 10
271.1794680938093
 20
32.7092327943925
 30
0.0
 10
271.2657259082558
 20
32.91994836304868
 30
0.0
 10
271.3794270013288
 20
33.12162148541991
 30
0.0
 10
271.4633278349447
 20
33.23839205925186
 30
0.0
 10
271.5447490004014
 20
33.34019644199083
 30
0.0
 10
271.6520086863507
 20
33.47281332138751
 30
0.0
 10
271.8367982725867
 20
33.70336720634489
 30
0.0
 10
272.1488393212644
 20
34.09151386554055
 30
0.0
 10
272.3728426978531
 20
34.37009613911426
 30
0.0
  0
LINE
  5
261
330
1F
100
AcDbEntity
  8
0
  6
Continuous
 62
     7
370
    15
100
AcDbLine
 10
272.3727430625
 20
31.6666743505
 30
0.0
 11
271.5122349724
 21
31.7436169327
 31
0.0
  0
LINE
  5
262
330
1F
100
AcDbEntity
  8
0
  6
Continuous
 62
     7
370
    15
100
AcDbLine
 10
245.7647083419
 20
38.3914889986
 30
0.0
 11
245.7448150294
 21
38.1621432422
 31
0.0
  0
ARC
  5
263
330
1F
100
AcDbEntity
  8
0
  6
Continuous
 62
     7
370
    15
100
AcDbCircle
 10
261.7474915039
 20
36.7348430611
 30
0.0
 40
16.06296283248627
100
AcDbArc
 50
176.9225000953
 51
185.727139394
  0
LWPOLYLINE
  5
264
330
1F
100
AcDbEntity
  8
0
  6
Continuous
 62
     7
370
    15
100
AcDbPolyline
 90
        3
 70
   128
 43
0.0
 10
244.7659209693
 20
37.4913611878
 10
244.8235646871
 20
38.900815097
 10
244.8278847391
 20
38.9538213316
  0
ARC
  5
265
330
1F
100
AcDbEntity
  8
0
  6
Continuous
 62
     7
370
    15
100
AcDbCircle
 10
256.4623165513
 20
37.1890439455
 30
0.0
 40
11.70030193310882
100
AcDbArc
 50
178.5194031648
 51
203.8932285757
  0
LINE
  5
266
330
1F
100
AcDbEntity
  8
0
  6
Continuous
 62
     7
370
    15
100
AcDbLine
 10
242.2695102838
 20
39.5820315507
 30
0.0
 11
241.8339744648
 21
39.9709957204
 31
0.0
  0
LINE
  5
267
330
1F
100
AcDbEntity
  8
0
  6
Continuous
 62
     7
370
    15
100
AcDbLine
 10
243.7261335211
 20
38.7411408547
 30
0.0
 11
242.2695102838
 21
39.5820315507
 31
0.0
  0
LINE
  5
268
330
1F
100
AcDbEntity
  8
0
  6
Continuous
 62
     7
370
    15
100
AcDbLine
 10
245.7647083419
 20
38.3914889986
 30
0.0
 11
245.7647083419
 21
38.2463391614
 31
0.0
  0
LINE
  5
269
330
1F
100
AcDbEntity
  8
0
  6
Continuous
 62
     7
370
    15
100
AcDbLine
 10
245.7647083419
 20
37.564295964
 30
0.0
 11
245.7647083419
 21
35.1319028395
 31
0.0
  0
LINE
  5
26A
330
1F
100
AcDbEntity
  8
0
  6
Continuous
 62
     7
370
    15
100
AcDbLine
 10
245.7647083419
 20
38.6003786491
 30
0.0
 11
245.7647083419
 21
38.3914889986
 31
0.0
  0
LINE
  5
26B
330
1F
100
AcDbEntity
  8
0
  6
Continuous
 62
     7
370
    15
100
AcDbLine
 10
245.7647083419
 20
35.1319028395
 30
0.0
 11
245.7647083419
 21
32.2619137968
 31
0.0
  0
SPLINE
  5
26C
330
1F
100
AcDbEntity
  8
0
  6
Continuous
 62
     7
370
    15
100
AcDbSpline
210
0.0
220
0.0
230
1.0
 70
     8
 71
     3
 72
    11
 73
     7
 74
     0
 42
0.000000001
 43
0.00000001
 40
0.0
 40
0.0
 40
0.0
 40
0.0
 40
0.318189462775847
 40
0.6363836006975877
 40
0.9546140533285898
 40
1.0
 40
1.0
 40
1.0
 40
1.0
 10
271.4415244143923
 20
32.00750692876035
 30
0.0
 10
271.382648605448
 20
32.02198072675296
 30
0.0
 10
271.2648961224993
 20
32.05092853540116
 30
0.0
 10
271.1562664577034
 20
32.21177433319485
 30
0.0
 10
271.1045909139997
 20
32.36407282696344
 30
0.0
 10
271.1166726826452
 20
32.46440632728082
 30
0.0
 10
271.1181807073341
 20
32.47692977480271
 30
0.0
  0
SPLINE
  5
26D
330
1F
100
AcDbEntity
  8
0
  6
Continuous
 62
     7
370
    15
100
AcDbSpline
210
0.0
220
0.0
230
1.0
 70
     8
 71
     3
 72
    12
 73
     8
 74
     0
 42
0.000000001
 43
0.00000001
 40
0.0
 40
0.0
 40
0.0
 40
0.0
 40
0.0278239909192889
 40
0.1715018567851531
 40
0.4142566591912106
 40
0.8647533551470422
 40
1.0
 40
1.0
 40
1.0
 40
1.0
 10
272.497105570874
 20
34.54566516706588
 30
0.0
 10
272.4970659684502
 20
34.54506999851113
 30
0.0
 10
272.4968218665443
 20
34.5414014912673
 30
0.0
 10
272.4850614741298
 20
34.52085219182437
 30
0.0
 10
272.4537893310933
 20
34.47367612052673
 30
0.0
 10
272.4112539279291
 20
34.41813964284686
 30
0.0
 10
272.3800482972692
 20
34.37910822066745
 30
0.0
 10
272.3728429966653
 20
34.37009596474268
 30
0.0
  0
SPLINE
  5
26E
330
1F
100
AcDbEntity
  8
0
  6
Continuous
 62
     7
370
    15
100
AcDbSpline
210
0.0
220
0.0
230
1.0
 70
     8
 71
     3
 72
    16
 73
    12
 74
     0
 42
0.000000001
 43
0.00000001
 40
0.0
 40
0.0
 40
0.0
 40
0.0
 40
0.2499999999999989
 40
0.2499999999999989
 40
0.4999999999999978
 40
0.4999999999999978
 40
0.6249999999999983
 40
0.6249999999999983
 40
0.7499999999999989
 40
0.7499999999999989
 40
1.0
 40
1.0
 40
1.0
 40
1.0
 10
277.2100434258613
 20
37.16254889811974
 30
0.0
 10
277.1858352991662
 20
37.1647050868004
 30
0.0
 10
277.1595049577638
 20
37.16568855899316
 30
0.0
 10
277.0991041810508
 20
37.16338127137357
 30
0.0
 10
277.0637214055577
 20
37.160026374422
 30
0.0
 10
277.0067530014895
 20
37.14745794692051
 30
0.0
 10
276.9870111259564
 20
37.14184192346237
 30
0.0
 10
276.9514702032234
 20
37.12876277580287
 30
0.0
 10
276.9360881741769
 20
37.12153068543351
 30
0.0
 10
276.8979397567115
 20
37.10020468805589
 30
0.0
 10
276.8817778981896
 20
37.08631627360378
 30
0.0
 10
276.8694684903565
 20
37.07325610435523
 30
0.0
  0
SPLINE
  5
26F
330
1F
100
AcDbEntity
  8
0
  6
Continuous
 62
     7
370
    15
100
AcDbSpline
210
0.0
220
0.0
230
1.0
 70
     8
 71
     3
 72
     8
 73
     4
 74
     0
 42
0.000000001
 43
0.00000001
 40
0.0
 40
0.0
 40
0.0
 40
0.0
 40
1.0
 40
1.0
 40
1.0
 40
1.0
 10
276.8694684903606
 20
37.0732561043498
 30
0.0
 10
276.8369956079954
 20
37.08631846661543
 30
0.0
 10
276.8047248153569
 20
37.10121085899998
 30
0.0
 10
276.7794474994021
 20
37.11580314289515
 30
0.0
  0
LINE
  5
270
330
1F
100
AcDbEntity
  8
0
  6
Continuous
 62
     7
370
    15
100
AcDbLine
 10
276.3291686542
 20
37.5681548633
 30
0.0
 11
276.2660680719
 21
37.6020450145
 31
0.0
  0
LINE
  5
271
330
1F
100
AcDbEntity
  8
0
  6
Continuous
 62
     7
370
    15
100
AcDbLine
 10
275.7795642007
 20
37.6930234899
 30
0.0
 11
276.7794481323
 21
37.1158027827
 31
0.0
  0
ARC
  5
272
330
1F
100
AcDbEntity
  8
0
  6
Continuous
 62
     7
370
    15
100
AcDbCircle
 10
270.546126695
 20
37.2865112765
 30
0.0
 40
4.278358457028789
100
AcDbArc
 50
339.443283328
 51
1.7639108821
  0
LINE
  5
273
330
1F
100
AcDbEntity
  8
0
  6
Continuous
 62
     7
370
    15
100
AcDbLine
 10
274.5520609454
 20
35.7842323849
 30
0.0
 11
276.7794481323
 21
34.4983891318
 31
0.0
  0
LINE
  5
274
330
1F
100
AcDbEntity
  8
0
  6
Continuous
 62
     7
370
    15
100
AcDbLine
 10
272.8294530631
 20
31.5058126253
 30
0.0
 11
272.8925783408
 21
31.4719101143
 31
0.0
  0
LINE
  5
275
330
1F
100
AcDbEntity
  8
0
  6
Continuous
 62
     7
370
    15
100
AcDbLine
 10
271.1751816858
 20
32.6532144348
 30
0.0
 11
272.379173585
 21
31.9581647059
 31
0.0
  0
LINE
  5
276
330
1F
100
AcDbEntity
  8
0
  6
Continuous
 62
     7
370
    15
100
AcDbLine
 10
272.430573807
 20
31.9190710065
 30
0.0
 11
271.4415244144
 21
32.0075069288
 31
0.0
  0
SPLINE
  5
277
330
1F
100
AcDbEntity
  8
0
  6
Continuous
 62
     7
370
    15
100
AcDbSpline
210
0.0
220
0.0
230
1.0
 70
     8
 71
     3
 72
    16
 73
    12
 74
     0
 42
0.000000001
 43
0.00000001
 40
0.0
 40
0.0
 40
0.0
 40
0.0
 40
0.2500000000000017
 40
0.2500000000000017
 40
0.5000000000000033
 40
0.5000000000000033
 40
0.6249999999999986
 40
0.6249999999999986
 40
0.7499999999999939
 40
0.7499999999999939
 40
1.0
 40
1.0
 40
1.0
 40
1.0
 10
272.3727428717845
 20
31.66667457435599
 30
0.0
 10
272.3967956941682
 20
31.66452388958274
 30
0.0
 10
272.4202968742764
 20
31.66539244642588
 30
0.0
 10
272.4625463908877
 20
31.67822603703306
 30
0.0
 10
272.4825041684596
 20
31.69051878593865
 30
0.0
 10
272.4976794708228
 20
31.72698048451504
 30
0.0
 10
272.4999908532751
 20
31.74259138515447
 30
0.0
 10
272.4971518695075
 20
31.77773830986988
 30
0.0
 10
272.4921778575446
 20
31.79681238885221
 30
0.0
 10
272.471812960473
 20
31.8519657915097
 30
0.0
 10
272.4516791476716
 20
31.88679723732773
 30
0.0
 10
272.4305733356084
 20
31.91907129331566
 30
0.0
  0
SPLINE
  5
278
330
1F
100
AcDbEntity
  8
0
  6
Continuous
 62
     7
370
    15
100
AcDbSpline
210
0.0
220
0.0
230
1.0
 70
     8
 71
     3
 72
     8
 73
     4
 74
     0
 42
0.000000001
 43
0.00000001
 40
0.0
 40
0.0
 40
0.0
 40
0.0
 40
1.0
 40
1.0
 40
1.0
 40
1.0
 10
272.3791729703318
 20
31.95816506595161
 30
0.0
 10
272.4045248992011
 20
31.94352970893774
 30
0.0
 10
272.4213296984294
 20
31.93013550784299
 30
0.0
 10
272.4305733356089
 20
31.91907129331545
 30
0.0
  0
SPLINE
  5
279
330
1F
100
AcDbEntity
  8
0
  6
Continuous
 62
     7
370
    15
100
AcDbSpline
210
0.0
220
0.0
230
1.0
 70
     8
 71
     3
 72
     8
 73
     4
 74
     0
 42
0.000000001
 43
0.00000001
 40
0.0
 40
0.0
 40
0.0
 40
0.0
 40
1.0
 40
1.0
 40
1.0
 40
1.0
 10
276.7794474994026
 20
34.49838948138719
 30
0.0
 10
276.8047994282717
 20
34.48375412437339
 30
0.0
 10
276.8367434120743
 20
34.47909958850442
 30
0.0
 10
276.8694684903636
 20
34.48159092139162
 30
0.0
  0
SPLINE
  5
27A
330
1F
100
AcDbEntity
  8
0
  6
Continuous
 62
     7
370
    15
100
AcDbSpline
210
0.0
220
0.0
230
1.0
 70
     8
 71
     3
 72
    16
 73
    12
 74
     0
 42
0.000000001
 43
0.00000001
 40
0.0
 40
0.0
 40
0.0
 40
0.0
 40
0.2500000000000176
 40
0.2500000000000176
 40
0.3750000000000183
 40
0.3750000000000183
 40
0.500000000000019
 40
0.500000000000019
 40
0.7500000000000094
 40
0.7500000000000094
 40
1.0
 40
1.0
 40
1.0
 40
1.0
 10
276.8694684903634
 20
34.48159092139222
 30
0.0
 10
276.881687708867
 20
34.44434520452193
 30
0.0
 10
276.8977564134823
 20
34.4072342967717
 30
0.0
 10
276.9360515016434
 20
34.36222732526233
 30
0.0
 10
276.9515085969974
 20
34.34925948744866
 30
0.0
 10
276.9868164267793
 20
34.33297712970273
 30
0.0
 10
277.0063997886246
 20
34.32998051118975
 30
0.0
 10
277.0637005640955
 20
34.33501427115115
 30
0.0
 10
277.0987708614479
 20
34.35465781690135
 30
0.0
 10
277.1592916199994
 20
34.40114057687561
 30
0.0
 10
277.1861167240608
 20
34.42935865690074
 30
0.0
 10
277.2101416666621
 20
34.45924545709592
 30
0.0
  0
LINE
  5
27B
330
1F
100
AcDbEntity
  8
0
  6
Continuous
 62
     7
370
    15
100
AcDbLine
 10
245.6919241095
 20
27.1137650041
 30
0.0
 11
247.5197782703
 21
26.0585672576
 31
0.0
  0
SPLINE
  5
27C
330
1F
100
AcDbEntity
  8
0
  6
Continuous
 62
     7
370
    15
100
AcDbSpline
210
0.0
220
0.0
230
1.0
 70
     8
 71
     3
 72
    14
 73
    10
 74
     0
 42
0.000000001
 43
0.00000001
 40
0.0
 40
0.0
 40
0.0
 40
0.0
 40
0.25
 40
0.25
 40
0.5
 40
0.5
 40
0.75
 40
0.75
 40
1.0
 40
1.0
 40
1.0
 40
1.0
 10
247.4742707203722
 20
25.94019898825372
 30
0.0
 10
247.4575958773058
 20
25.89682637014714
 30
0.0
 10
247.4373006343899
 20
25.85659604070129
 30
0.0
 10
247.3890036553195
 20
25.78282415302915
 30
0.0
 10
247.3607848075144
 20
25.74925454635204
 30
0.0
 10
247.2978594590912
 20
25.69570314068941
 30
0.0
 10
247.2626962830742
 20
25.67524711132976
 30
0.0
 10
247.1880132938658
 20
25.65781481781788
 30
0.0
 10
247.1494884186574
 20
25.66176212680278
 30
0.0
 10
247.1155447159601
 20
25.6813574092726
 30
0.0
  0
LINE
  5
27D
330
1F
100
AcDbEntity
  8
0
  6
Continuous
 62
     7
370
    15
100
AcDbLine
 10
247.1155445535
 20
25.6813575329
 30
0.0
 11
245.6600225672
 21
26.5216124902
 31
0.0
  0
SPLINE
  5
27E
330
1F
100
AcDbEntity
  8
0
  6
Continuous
 62
     7
370
    15
100
AcDbSpline
210
0.0
220
0.0
230
1.0
 70
     8
 71
     3
 72
     8
 73
     4
 74
     0
 42
0.000000001
 43
0.00000001
 40
0.0
 40
0.0
 40
0.0
 40
0.0
 40
0.0011862984959112
 40
0.0011862984959112
 40
0.0011862984959112
 40
0.0011862984959112
 10
245.6600225083984
 20
26.52161249436562
 30
0.0
 10
245.6702356362157
 20
26.71901139625455
 30
0.0
 10
245.6808616427909
 20
26.91639723323134
 30
0.0
 10
245.6919238420486
 20
27.11376473058167
 30
0.0
  0
SPLINE
  5
27F
330
1F
100
AcDbEntity
  8
0
  6
Continuous
 62
     7
370
    15
100
AcDbSpline
210
0.0
220
0.0
230
1.0
 70
     8
 71
     3
 72
     9
 73
     5
 74
     0
 42
0.000000001
 43
0.00000001
 40
0.0
 40
0.0
 40
0.0
 40
0.0
 40
0.474020287952736
 40
0.9999999999999999
 40
0.9999999999999999
 40
0.9999999999999999
 40
0.9999999999999999
 10
280.2771716262423
 20
44.77876510423539
 30
0.0
 10
280.2742512500478
 20
44.7804541181122
 30
0.0
 10
280.2680903825308
 20
44.78401728601816
 30
0.0
 10
280.2344229779816
 20
44.8034594456797
 30
0.0
 10
280.2167146062314
 20
44.81368562722005
 30
0.0
  0
ARC
  5
280
330
1F
100
AcDbEntity
  8
0
  6
Continuous
 62
     7
370
    15
100
AcDbCircle
 10
256.0004121638
 20
27.6422513886
 30
0.0
 40
9.057829895276818
100
AcDbArc
 50
196.6225093925
 51
281.9290463228
  0
SPLINE
  5
281
330
1F
100
AcDbEntity
  8
0
  6
Continuous
 62
     7
370
    15
100
AcDbSpline
210
0.0
220
0.0
230
1.0
 70
     8
 71
     3
 72
     8
 73
     4
 74
     0
 42
0.000000001
 43
0.00000001
 40
0.0
 40
0.0
 40
0.0
 40
0.0
 40
1.0
 40
1.0
 40
1.0
 40
1.0
 10
245.9380421957979
 20
27.61100288516854
 30
0.0
 10
245.8558440150123
 20
27.44528255866507
 30
0.0
 10
245.7738096468603
 20
27.2795356833271
 30
0.0
 10
245.6919238420486
 20
27.11376473058167
 30
0.0
  0
LINE
  5
282
330
1F
100
AcDbEntity
  8
0
  6
Continuous
 62
     7
370
    15
100
AcDbLine
 10
245.9870616968
 20
27.6393014569
 30
0.0
 11
245.9380422778
 21
27.6110031487
 31
0.0
  0
SPLINE
  5
283
330
1F
100
AcDbEntity
  8
0
  6
Continuous
 62
     7
370
    15
100
AcDbSpline
210
0.0
220
0.0
230
1.0
 70
     8
 71
     3
 72
    12
 73
     8
 74
     0
 42
0.000000001
 43
0.00000001
 40
0.0
 40
0.0
 40
0.0
 40
0.0
 40
0.249999999999997
 40
0.249999999999997
 40
0.499999999999994
 40
0.499999999999994
 40
1.0
 40
1.0
 40
1.0
 40
1.0
 10
245.9988438835824
 20
27.97266619712967
 30
0.0
 10
246.0364426681571
 20
27.95096088080538
 30
0.0
 10
246.0666202274034
 20
27.92415901023221
 30
0.0
 10
246.1052099620844
 20
27.86653530540222
 30
0.0
 10
246.1140694472741
 20
27.83548717983084
 30
0.0
 10
246.1090220134358
 20
27.74329820342554
 30
0.0
 10
246.0623197263606
 20
27.68274677645069
 30
0.0
 10
245.9870616381622
 20
27.63930120689874
 30
0.0
  0
LINE
  5
284
330
1F
100
AcDbEntity
  8
0
  6
Continuous
 62
     7
370
    15
100
AcDbLine
 10
245.2139554691
 20
28.4257728631
 30
0.0
 11
245.9988440458
 21
27.9726663324
 31
0.0
  0
SPLINE
  5
285
330
1F
100
AcDbEntity
  8
0
  6
Continuous
 62
     7
370
    15
100
AcDbSpline
210
0.0
220
0.0
230
1.0
 70
     8
 71
     3
 72
    10
 73
     6
 74
     0
 42
0.000000001
 43
0.00000001
 40
0.0
 40
0.0
 40
0.0
 40
0.0
 40
0.5
 40
0.5
 40
1.0
 40
1.0
 40
1.0
 40
1.0
 10
244.6364876860959
 20
28.41897095368943
 30
0.0
 10
244.7126250764345
 20
28.46292413356215
 30
0.0
 10
244.8161328571188
 20
28.48941079974093
 30
0.0
 10
245.0306281492046
 20
28.49323887012827
 30
0.0
 10
245.1380583936229
 20
28.46958708322487
 30
0.0
 10
245.2139553564653
 20
28.42577269919128
 30
0.0
  0
LINE
  5
286
330
1F
100
AcDbEntity
  8
0
  6
Continuous
 62
     7
370
    15
100
AcDbLine
 10
244.5874682492
 20
28.3906729397
 30
0.0
 11
244.6364876682
 21
28.4189712479
 31
0.0
  0
SPLINE
  5
287
330
1F
100
AcDbEntity
  8
0
  6
Continuous
 62
     7
370
    15
100
AcDbSpline
210
0.0
220
0.0
230
1.0
 70
     8
 71
     3
 72
     8
 73
     4
 74
     0
 42
0.000000001
 43
0.00000001
 40
0.0
 40
0.0
 40
0.0
 40
0.0
 40
1.0
 40
1.0
 40
1.0
 40
1.0
 10
243.7261331690771
 20
28.24859153062117
 30
0.0
 10
244.0132879954745
 20
28.29586319953319
 30
0.0
 10
244.3004011140596
 20
28.34322063223593
 30
0.0
 10
244.5874682437316
 20
28.39067263195923
 30
0.0
  0
LINE
  5
288
330
1F
100
AcDbEntity
  8
0
  6
Continuous
 62
     7
370
    15
100
AcDbLine
 10
242.2695102838
 20
29.0894824514
 30
0.0
 11
243.7261335211
 21
28.2485917553
 31
0.0
  0
LINE
  5
289
330
1F
100
AcDbEntity
  8
0
  6
Continuous
 62
     7
370
    15
100
AcDbLine
 10
242.2695102838
 20
29.0894824514
 30
0.0
 11
245.411154811
 21
30.9031152327
 31
0.0
  0
ARC
  5
28A
330
1F
100
AcDbEntity
  8
0
  6
Continuous
 62
     7
370
    15
100
AcDbCircle
 10
255.238950396
 20
28.984815441
 30
0.0
 40
9.890562528246706
100
AcDbArc
 50
194.4210541018
 51
238.0225374632
  0
SPLINE
  5
28B
330
1F
100
AcDbEntity
  8
0
  6
Continuous
 62
     7
370
    15
100
AcDbSpline
210
0.0
220
0.0
230
1.0
 70
     8
 71
     3
 72
    22
 73
    18
 74
     0
 42
0.000000001
 43
0.00000001
 40
0.0
 40
0.0
 40
0.0
 40
0.0
 40
0.1249999999999999
 40
0.1249999999999999
 40
0.2499999999999998
 40
0.2499999999999998
 40
0.3749999999999998
 40
0.3749999999999998
 40
0.4999999999999998
 40
0.4999999999999998
 40
0.6249999999999998
 40
0.6249999999999998
 40
0.7499999999999999
 40
0.7499999999999999
 40
0.875
 40
0.875
 40
1.0
 40
1.0
 40
1.0
 40
1.0
 10
277.8585179326199
 20
35.71195902484216
 30
0.0
 10
277.9070669113116
 20
35.77235349278812
 30
0.0
 10
277.9509610837009
 20
35.83655900134502
 30
0.0
 10
278.0285545467709
 20
35.97302889377953
 30
0.0
 10
278.0621134306786
 20
36.04499118058108
 30
0.0
 10
278.1153160175052
 20
36.18862686393333
 30
0.0
 10
278.1356075614798
 20
36.26233579996492
 30
0.0
 10
278.1616250729843
 20
36.40384570596536
 30
0.0
 10
278.167712804858
 20
36.47284864857789
 30
0.0
 10
278.1660849774271
 20
36.60255352606573
 30
0.0
 10
278.1585594333063
 20
36.66185545215006
 30
0.0
 10
278.1305105303559
 20
36.7691457869101
 30
0.0
 10
278.1101036667715
 20
36.81591152931282
 30
0.0
 10
278.0577620682
 20
36.89302457495375
 30
0.0
 10
278.0252077697
 20
36.92392907775453
 30
0.0
 10
277.9502643855769
 20
36.96729506942808
 30
0.0
 10
277.9070720930092
 20
36.98047870916989
 30
0.0
 10
277.858517928588
 20
36.98482018254544
 30
0.0
  0
LWPOLYLINE
  5
28C
330
1F
100
AcDbEntity
  8
0
  6
Continuous
 62
     7
370
    15
100
AcDbPolyline
 90
        4
 70
   128
 43
0.0
 10
277.8585184189
 20
36.9848198874
 10
277.6885793622
 20
37.0000149578
 10
277.0088233003
 20
37.0607953819
 10
276.8694690262
 20
37.0732558096
  0
ELLIPSE
  5
28D
330
1F
100
AcDbEntity
  8
0
  6
Continuous
 62
     7
370
    15
100
AcDbEllipse
 10
245.1182622921
 20
31.888739877
 30
0.0
 11
-7.507462981948265E-5
 21
1.066811201853401
 31
0.0
210
0.0
220
0.0
230
1.0
 40
0.7174342186
 41
3.534193645557444
 42
5.104989972352373
  0
ARC
  5
28E
330
1F
100
AcDbEntity
  8
0
  6
Continuous
 62
     7
370
    15
100
AcDbCircle
 10
255.0976864829
 20
31.2788139618
 30
0.0
 40
10.89981861700349
100
AcDbArc
 50
195.3652578774
 51
215.9035762319
  0
ARC
  5
28F
330
1F
100
AcDbEntity
  8
0
  6
Continuous
 62
     7
370
    15
100
AcDbCircle
 10
252.4938627188
 20
30.011289275
 30
0.0
 40
9.374612820624348
100
AcDbArc
 50
193.3832905048
 51
247.5353305273
  0
SPLINE
  5
290
330
1F
100
AcDbEntity
  8
0
  6
Continuous
 62
     7
370
    15
100
AcDbSpline
210
0.0
220
0.0
230
1.0
 70
     8
 71
     3
 72
     8
 73
     4
 74
     0
 42
0.000000001
 43
0.00000001
 40
0.0000000000000004
 40
0.0000000000000004
 40
0.0000000000000004
 40
0.0000000000000004
 40
0.0011862984959127
 40
0.0011862984959127
 40
0.0011862984959127
 40
0.0011862984959127
 10
243.7261331690776
 20
28.24859153062021
 30
0.0
 10
243.6089827000825
 20
28.11246748778544
 30
0.0
 10
243.4915429496454
 20
27.97674391262251
 30
0.0
 10
243.3738320818007
 20
27.84140213512804
 30
0.0
  0
ARC
  5
291
330
1F
100
AcDbEntity
  8
0
  6
Continuous
 62
     7
370
    15
100
AcDbCircle
 10
274.4005184137
 20
37.975811064
 30
0.0
 40
1.491206230886367
100
AcDbArc
 50
321.0621554205
 51
347.347430182
  0
LINE
  5
292
330
1F
100
AcDbEntity
  8
0
  6
Continuous
 62
     7
370
    15
100
AcDbLine
 10
276.8694690262
 20
34.4815906718
 30
0.0
 11
277.8585184189
 21
35.7119587161
 31
0.0
  0
LINE
  5
293
330
1F
100
AcDbEntity
  8
0
  6
Continuous
 62
     7
370
    15
100
AcDbLine
 10
241.8339744648
 20
28.8380007438
 30
0.0
 11
242.2695102838
 21
29.0894824514
 31
0.0
  0
LINE
  5
294
330
1F
100
AcDbEntity
  8
0
  6
Continuous
 62
     7
370
    15
100
AcDbLine
 10
243.3738322949
 20
27.8414020419
 30
0.0
 11
241.9359876189
 21
28.6714521053
 31
0.0
  0
SPLINE
  5
295
330
1F
100
AcDbEntity
  8
0
  6
Continuous
 62
     7
370
    15
100
AcDbSpline
210
0.0
220
0.0
230
1.0
 70
     8
 71
     3
 72
    10
 73
     6
 74
     0
 42
0.000000001
 43
0.00000001
 40
0.0
 40
0.0
 40
0.0
 40
0.0
 40
0.5
 40
0.5
 40
1.0
 40
1.0
 40
1.0
 40
1.0
 10
241.9359875437686
 20
28.67145211882328
 30
0.0
 10
241.909578114488
 20
28.68669795783021
 30
0.0
 10
241.8872947102789
 20
28.71055538024246
 30
0.0
 10
241.8531875754574
 20
28.76848147197674
 30
0.0
 10
241.8412875454025
 20
28.80238000345759
 30
0.0
 10
241.8339750534458
 20
28.83800104591194
 30
0.0
  0
LINE
  5
296
330
1F
100
AcDbEntity
  8
0
  6
Continuous
 62
     7
370
    15
100
AcDbLine
 10
274.5520609454
 20
35.7842323849
 30
0.0
 11
275.5604206741
 21
37.0386223053
 31
0.0
  0
ARC
  5
297
330
1F
100
AcDbEntity
  8
0
  6
Continuous
 62
     7
370
    15
100
AcDbCircle
 10
251.393956398
 20
31.0035623303
 30
0.0
 40
9.715360755594709
100
AcDbArc
 50
197.6952619479
 51
238.2182118656
  0
ELLIPSE
  5
298
330
1F
100
AcDbEntity
  8
0
  6
Continuous
 62
     7
370
    15
100
AcDbEllipse
 10
245.0576021203
 20
31.8537101213
 30
0.0
 11
0.3250094736511925
 21
1.213179526238665
 31
0.0
210
0.0
220
0.0
230
1.0
 40
0.5176380889
 41
3.61917435134776
 42
5.189970678142634
  0
SPLINE
  5
299
330
1F
100
AcDbEntity
  8
0
  6
Continuous
 62
     7
370
    15
100
AcDbSpline
210
0.0
220
0.0
230
1.0
 70
     8
 71
     3
 72
    12
 73
     8
 74
     0
 42
0.000000001
 43
0.00000001
 40
0.0
 40
0.0
 40
0.0
 40
0.0
 40
0.5000000000000003
 40
0.5000000000000003
 40
0.7500000000000001
 40
0.7500000000000001
 40
1.0
 40
1.0
 40
1.0
 40
1.0
 10
271.591459209321
 20
63.85803342233276
 30
0.0
 10
271.6545190865506
 20
63.89443711458301
 30
0.0
 10
271.7344520397817
 20
63.9212684264346
 30
0.0
 10
271.8674312280884
 20
63.93502526794513
 30
0.0
 10
271.9131023972004
 20
63.93490413414619
 30
0.0
 10
272.0007402158379
 20
63.92212975252455
 30
0.0
 10
272.0414841266921
 20
63.9092897668698
 30
0.0
 10
272.0729978090307
 20
63.89109730529316
 30
0.0
  0
LINE
  5
29A
330
1F
100
AcDbEntity
  8
0
  6
Continuous
 62
     7
370
    15
100
AcDbLine
 10
272.0729981333
 20
63.8910976768
 30
0.0
 11
272.7326664475
 21
63.510279265
 31
0.0
  0
LINE
  5
29B
330
1F
100
AcDbEntity
  8
0
  6
Continuous
 62
     7
370
    15
100
AcDbLine
 10
274.4025334758
 20
61.4354830484
 30
0.0
 11
275.7970330816
 21
61.7412580618
 31
0.0
  0
LINE
  5
29C
330
1F
100
AcDbEntity
  8
0
  6
Continuous
 62
     7
370
    15
100
AcDbLine
 10
275.7970330816
 20
61.7412580618
 30
0.0
 11
277.2525550679
 21
60.9010031044
 31
0.0
  0
SPLINE
  5
29D
330
1F
100
AcDbEntity
  8
0
  6
Continuous
 62
     7
370
    15
100
AcDbSpline
210
0.0
220
0.0
230
1.0
 70
     8
 71
     3
 72
    12
 73
     8
 74
     0
 42
0.000000001
 43
0.00000001
 40
0.0
 40
0.0
 40
0.0
 40
0.0
 40
0.250000000000004
 40
0.250000000000004
 40
0.500000000000008
 40
0.500000000000008
 40
1.0
 40
1.0
 40
1.0
 40
1.0
 10
277.2525549812223
 20
60.90100259574237
 30
0.0
 10
277.2842111117224
 20
60.88272790059244
 30
0.0
 10
277.3065103887325
 20
60.85890378979416
 30
0.0
 10
277.3283309593245
 20
60.80887188734646
 30
0.0
 10
277.3286117216506
 20
60.78248067893256
 30
0.0
 10
277.3052443475298
 20
60.70640544893764
 30
0.0
 10
277.2582059447248
 20
60.65934239398724
 30
0.0
 10
277.1952804502245
 20
60.62301627923526
 30
0.0
  0
LINE
  5
29E
330
1F
100
AcDbEntity
  8
0
  6
Continuous
 62
     7
370
    15
100
AcDbLine
 10
271.5914594407
 20
63.8580337994
 30
0.0
 11
271.499668873
 21
63.8050442326
 31
0.0
  0
SPLINE
  5
29F
330
1F
100
AcDbEntity
  8
0
  6
Continuous
 62
     7
370
    15
100
AcDbSpline
210
0.0
220
0.0
230
1.0
 70
     8
 71
     3
 72
    10
 73
     6
 74
     0
 42
0.000000001
 43
0.00000001
 40
0.0
 40
0.0
 40
0.0
 40
0.0
 40
0.4037519766647956
 40
0.8085661658932497
 40
1.0
 40
1.0
 40
1.0
 40
1.0
 10
280.2167146062314
 20
55.54707712652378
 30
0.0
 10
280.234956038016
 20
55.58584122828002
 30
0.0
 10
280.2714868921316
 20
55.66347141449049
 30
0.0
 10
280.2854238971708
 20
55.77088466150543
 30
0.0
 10
280.2673623706037
 20
55.82417088317257
 30
0.0
 10
280.2615634628586
 20
55.84127917589569
 30
0.0
  0
ARC
  5
2A0
330
1F
100
AcDbEntity
  8
0
  6
Continuous
 62
     7
370
    15
100
AcDbCircle
 10
270.1516929565
 20
53.4163213108
 30
0.0
 40
10.31710735997858
100
AcDbArc
 50
20.1339148688
 51
46.5073948526
  0
LWPOLYLINE
  5
2A1
330
1F
100
AcDbEntity
  8
0
  6
Continuous
 62
     7
370
    15
100
AcDbPolyline
 90
        3
 70
   128
 43
0.0
 10
274.4025331466
 20
62.1164728348
 10
274.4409881946
 20
62.0690087374
 10
274.8266239559
 20
61.5550441255
  0
LINE
  5
2A2
330
1F
100
AcDbEntity
  8
0
  6
Continuous
 62
     7
370
    15
100
AcDbLine
 10
280.1124327663
 20
44.8739062024
 30
0.0
 11
278.2480293854
 21
45.9502033646
 31
0.0
  0
LINE
  5
2A3
330
1F
100
AcDbEntity
  8
0
  6
Continuous
 62
     7
370
    15
100
AcDbLine
 10
277.4399429198
 20
45.7966632967
 30
0.0
 11
277.4889623388
 21
45.8249616049
 31
0.0
  0
SPLINE
  5
2A4
330
1F
100
AcDbEntity
  8
0
  6
Continuous
 62
     7
370
    15
100
AcDbSpline
210
0.0
220
0.0
230
1.0
 70
     8
 71
     3
 72
    10
 73
     6
 74
     0
 42
0.000000001
 43
0.00000001
 40
0.0
 40
0.0
 40
0.0
 40
0.0
 40
0.348286225286859
 40
0.7262043038763673
 40
0.9999999999999999
 40
0.9999999999999999
 40
0.9999999999999999
 40
0.9999999999999999
 10
277.1072175876848
 20
45.72549078564757
 30
0.0
 10
277.1498652473609
 20
45.72557840902226
 30
0.0
 10
277.238788988119
 20
45.72576111068315
 30
0.0
 10
277.3547459428472
 20
45.75398428468311
 30
0.0
 10
277.4147388928884
 20
45.78403746175757
 30
0.0
 10
277.4399429198038
 20
45.79666329668249
 30
0.0
  0
SPLINE
  5
2A5
330
1F
100
AcDbEntity
  8
0
  6
Continuous
 62
     7
370
    15
100
AcDbSpline
210
0.0
220
0.0
230
1.0
 70
     8
 71
     3
 72
     8
 73
     4
 74
     0
 42
0.000000001
 43
0.00000001
 40
0.0
 40
0.0
 40
0.0
 40
0.0
 40
1.0
 40
1.0
 40
1.0
 40
1.0
 10
277.4889625065582
 20
45.82496148556053
 30
0.0
 10
277.7419484602391
 20
45.86677989025836
 30
0.0
 10
277.9949717225863
 20
45.90852509483373
 30
0.0
 10
278.248029211591
 20
45.95020314623084
 30
0.0
  0
ARC
  5
2A6
330
1F
100
AcDbEntity
  8
0
  6
Continuous
 62
     7
370
    15
100
AcDbCircle
 10
256.9704093161
 20
55.1277775281
 30
0.0
 40
1.550648160873937
100
AcDbArc
 50
79.651212421
 51
145.6276677747
  0
ARC
  5
2A7
330
1F
100
AcDbEntity
  8
0
  6
Continuous
 62
     7
370
    15
100
AcDbCircle
 10
256.938853854
 20
55.207931471
 30
0.0
 40
1.459878310769278
100
AcDbArc
 50
78.2868868116
 51
145.7082013433
  0
ARC
  5
2A8
330
1F
100
AcDbEntity
  8
0
  6
Continuous
 62
     7
370
    15
100
AcDbCircle
 10
256.9177829882
 20
55.2665228748
 30
0.0
 40
1.25967128910239
100
AcDbArc
 50
81.3134812707
 51
145.0891039639
  0
LWPOLYLINE
  5
2A9
330
1F
100
AcDbEntity
  8
0
  6
Continuous
 62
     7
370
     0
100
AcDbPolyline
 90
       22
 70
   128
 43
0.0
 10
247.1155445535
 20
36.9514533223
 10
247.5642807325
 20
38.7348735035
 10
248.1182997391
 20
40.532174801
 10
248.773972993
 20
42.3315836888
 10
249.5270041499
 20
44.121313395
 10
250.3724620285
 20
45.889640326
 10
251.3048069524
 20
47.6249816308
 10
252.3179328969
 20
49.3159689622
 10
253.4052030505
 20
50.95152528
 10
254.5594952542
 20
52.5209382315
 10
255.7732481002
 20
54.0139278283
 10
257.0385109805
 20
55.4207133627
 10
258.3469961124
 20
56.7320784217
 10
259.6901318808
 20
57.9394351418
 10
261.0591206248
 20
59.0348727777
 10
262.4449945323
 20
60.0112173461
 10
263.8386755467
 20
60.8620738139
 10
265.2310343272
 20
61.5818662186
 10
266.6129502999
 20
62.1658814612
 10
267.9753715441
 20
62.6102947517
 10
269.3093729709
 20
62.9121925485
 10
269.4149159235
 20
62.9301732959
  0
LINE
  5
2AA
330
1F
100
AcDbEntity
  8
0
  6
Continuous
 62
     7
370
     0
100
AcDbLine
 10
247.4742702106
 20
36.6169424927
 30
0.0
 11
247.6029761492
 21
37.1921152689
 31
0.0
  0
LWPOLYLINE
  5
2AB
330
1F
100
AcDbEntity
  8
0
  6
Continuous
 62
     7
370
     0
100
AcDbPolyline
 90
       11
 70
   128
 43
0.0
 10
262.3258136991
 20
59.4213125877
 10
262.6980690708
 20
59.6700957451
 10
264.0900597043
 20
60.5167018235
 10
265.4804355044
 20
61.2307912635
 10
266.8598840755
 20
61.8075782526
 10
268.2191660381
 20
62.2432043087
 10
269.5491773436
 20
62.5347468766
 10
270.8410098606
 20
62.6802573454
 10
272.0860106435
 20
62.6787572411
 10
273.2758418602
 20
62.5302606541
 10
274.4025338051
 20
62.2357592154
  0
ARC
  5
2AC
330
1F
100
AcDbEntity
  8
0
  6
Continuous
 62
     7
370
     0
100
AcDbCircle
 10
244.7862521713
 20
52.5772300785
 30
0.0
 40
36.27106685504207
100
AcDbArc
 50
338.4485220941
 51
347.6406497375
  0
LWPOLYLINE
  5
2AD
330
1F
100
AcDbEntity
  8
0
  6
Continuous
 62
     7
370
     0
100
AcDbPolyline
 90
       23
 70
   128
 43
0.0
 10
272.4663194383
 20
28.7644503928
 10
271.3832231398
 20
27.4641764488
 10
270.0839484113
 20
26.0495738858
 10
268.7411850499
 20
24.737378766
 10
267.3642978877
 20
23.5367433322
 10
265.9628911379
 20
22.4560424215
 10
264.5467394942
 20
21.5028123972
 10
263.1257207949
 20
20.6837061924
 10
261.7097467936
 20
20.0044335733
 10
260.308694176
 20
19.4697319624
 10
258.9323348373
 20
19.0833337926
 10
257.5902698623
 20
18.8479329584
 10
256.2918591442
 20
18.7651715615
 10
255.0461596456
 20
18.8356255634
 10
253.8618608614
 20
19.0588055511
 10
252.7472229151
 20
19.4331544623
 10
251.7100192663
 20
19.9560586171
 10
250.757486002
 20
20.6238739588
 10
249.8962678362
 20
21.4319420287
 10
249.1323693779
 20
22.3746241915
 10
248.471119569
 20
23.4453465059
 10
247.9171321726
 20
24.636641554
 10
247.4742702106
 20
25.9401986346
  0
ARC
  5
2AE
330
1F
100
AcDbEntity
  8
0
  6
Continuous
 62
     7
370
     0
100
AcDbCircle
 10
270.0365752035
 20
52.924605832
 30
0.0
 40
10.51249703684842
100
AcDbArc
 50
14.4456939373
 51
47.0804331381
  0
LWPOLYLINE
  5
2AF
330
1F
100
AcDbEntity
  8
0
  6
Continuous
 62
     7
370
     0
100
AcDbPolyline
 90
       23
 70
   128
 43
0.0
 10
258.0153340004
 20
37.3637971618
 10
258.0721064639
 20
38.3341055063
 10
258.2413188167
 20
39.3510759498
 10
258.519678007
 20
40.3949146174
 10
258.9017652012
 20
41.4453038752
 10
259.3801444442
 20
42.4817995662
 10
259.9455039164
 20
43.4842272934
 10
260.5868399979
 20
44.4330757524
 10
261.2916694834
 20
45.3098772274
 10
262.0462737385
 20
46.0975652717
 10
262.835965492
 20
46.7808085729
 10
263.6453741297
 20
47.3463083508
 10
264.4587453944
 20
47.7830580623
 10
265.2602480201
 20
48.082557301
 10
266.0342814784
 20
48.2389753864
 10
266.7657803702
 20
48.2492692902
 10
267.4405066338
 20
48.1132378752
 10
268.0453277394
 20
47.8335288796
 10
268.5684715453
 20
47.4155868013
 10
268.999755307
 20
46.8675457465
 10
269.330784887
 20
46.2000735158
 10
269.5551167566
 20
45.426161131
 10
269.6665121943
 20
44.5897649782
  0
LWPOLYLINE
  5
2B0
330
1F
100
AcDbEntity
  8
0
  6
Continuous
 62
     7
370
     0
100
AcDbPolyline
 90
       12
 70
   128
 43
0.0
 10
263.4170200967
 20
33.7641539238
 10
262.835965492
 20
33.5125683998
 10
262.0462737385
 20
33.2840530099
 10
261.2916694834
 20
33.2004935263
 10
260.5868399979
 20
33.263516199
 10
259.9455039164
 20
33.4718937797
 10
259.3801444442
 20
33.8215713544
 10
258.9017652012
 20
34.305742128
 10
258.519678007
 20
34.9149829014
 10
258.2413188167
 20
35.6374348889
 10
258.0721064639
 20
36.4590369084
 10
258.0153340004
 20
37.3637971618
  0
LWPOLYLINE
  5
2B1
330
1F
100
AcDbEntity
  8
0
  6
Continuous
 62
     7
370
     0
100
AcDbPolyline
 90
       22
 70
   128
 43
0.0
 10
241.9359876189
 20
39.9415478947
 10
242.3847237979
 20
41.7249680759
 10
242.9387428045
 20
43.5222693734
 10
243.5944160584
 20
45.3216782612
 10
244.3474472153
 20
47.1114079674
 10
245.1929050939
 20
48.8797348984
 10
246.1252500178
 20
50.6150762032
 10
247.1383759623
 20
52.3060635346
 10
248.2256461159
 20
53.9416198524
 10
249.3799383196
 20
55.5110328039
 10
250.5936911656
 20
57.0040224007
 10
251.8589540459
 20
58.4108079351
 10
253.1674391778
 20
59.7221729941
 10
254.5105749462
 20
60.9295297141
 10
255.8795636902
 20
62.0249673501
 10
257.2654375977
 20
63.0013119185
 10
258.6591186121
 20
63.8521683863
 10
260.0514773926
 20
64.571960791
 10
261.4333933653
 20
65.1559760336
 10
262.7958146095
 20
65.600389324
 10
264.1298160363
 20
65.9022871209
 10
264.2356322849
 20
65.9203130902
  0
LWPOLYLINE
  5
2B2
330
1F
100
AcDbEntity
  8
0
  6
Continuous
 62
     7
370
     0
100
AcDbPolyline
 90
       20
 70
   128
 43
0.0
 10
245.2139554691
 20
38.9183219625
 10
245.6668338931
 20
40.70759846
 10
246.2329095325
 20
42.511029478
 10
246.9079031652
 20
44.3149864023
 10
247.6867137054
 20
46.1058368933
 10
248.5634563994
 20
47.8700467845
 10
249.5315062894
 20
49.5942850227
 10
250.583546946
 20
51.2655210022
 10
251.7116277613
 20
52.8711260817
 10
252.9072245351
 20
54.3989640733
 10
254.1613020369
 20
55.837491998
 10
255.4643824941
 20
57.1758361259
 10
256.80661902
 20
58.4038845553
 10
258.177868218
 20
59.5123549823
 10
259.5677673965
 20
60.4928742569
 10
260.9658130998
 20
61.3380282811
 10
262.3614401338
 20
62.0414319643
 10
263.7441019081
 20
62.5977710405
 10
265.1033496264
 20
63.002838659
 10
265.2298319895
 20
63.0330854191
  0
LINE
  5
2B3
330
1F
100
AcDbEntity
  8
0
  6
Continuous
 62
     7
370
     0
100
AcDbLine
 10
256.4344817747
 20
56.9009687104
 30
0.0
 11
256.7933832632
 21
57.2382307444
 31
0.0
  0
LWPOLYLINE
  5
2B4
330
1F
100
AcDbEntity
  8
0
  6
Continuous
 62
     7
370
     0
100
AcDbPolyline
 90
       22
 70
   128
 43
0.0
 10
244.6364876682
 20
38.9115203472
 10
245.0879607582
 20
40.721987275
 10
245.6537334672
 20
42.5475835334
 10
246.3295753052
 20
44.3746493245
 10
247.1104260163
 20
46.1895127607
 10
247.9904456278
 20
47.9785932833
 10
248.9630460603
 20
49.7285020403
 10
250.0209510557
 20
51.4261472051
 10
251.1562435919
 20
53.0588237066
 10
252.3604297618
 20
54.6143155055
 10
253.6244973838
 20
56.0809819012
 10
254.9389881124
 20
57.4478478302
 10
256.2940655976
 20
58.7046857995
 10
257.6795899003
 20
59.8420923061
 10
259.0851935543
 20
60.8515530395
 10
260.5003583485
 20
61.725517626
 10
261.9144947019
 20
62.4574439294
 10
263.3170209775
 20
63.0418560057
 10
264.6974418895
 20
63.4743802414
 10
266.0454278381
 20
63.7517805053
 10
267.350892885
 20
63.8719818702
 10
268.475950981
 20
63.8454323461
  0
ARC
  5
2B5
330
1F
100
AcDbEntity
  8
0
  6
Continuous
 62
     7
370
     0
100
AcDbCircle
 10
263.9289291342
 20
37.0360054491
 30
0.0
 40
3.102532529643512
100
AcDbArc
 50
173.9352164617
 51
234.7526085595
  0
LWPOLYLINE
  5
2B6
330
1F
100
AcDbEntity
  8
0
  6
Continuous
 62
     7
370
     0
100
AcDbPolyline
 90
       16
 70
   128
 43
0.0
 10
268.3879246537
 20
45.3278777795
 10
268.0582187481
 20
45.4817182301
 10
267.4728874319
 20
45.6103667631
 10
266.8303256345
 20
45.5915104472
 10
266.1471757634
 20
45.4256372688
 10
265.4411307076
 20
45.1170431931
 10
264.7304768281
 20
44.6737208109
 10
264.0336196412
 20
44.1071520621
 10
263.368607403
 20
43.4320103929
 10
262.7526634806
 20
42.665782053
 10
262.2017406211
 20
41.828311821
 10
261.7301075081
 20
40.9412898016
 10
261.3499788252
 20
40.0276891929
 10
261.0712001421
 20
39.1111718246
 10
260.9009917407
 20
38.2154751535
 10
260.8437612595
 20
37.3637969717
  0
LWPOLYLINE
  5
2B7
330
1F
100
AcDbEntity
  8
0
  6
Continuous
 62
     7
370
     0
100
AcDbPolyline
 90
       11
 70
   128
 43
0.0
 10
272.3727430625
 20
31.6666743505
 10
272.6931939482
 20
31.2649631246
 10
273.1185066869
 20
31.0206539803
 10
273.627426096
 20
30.945956813
 10
274.1945183635
 20
31.044604745
 10
274.7914425326
 20
31.3116675981
 10
275.3883667017
 20
31.7337987207
 10
275.9554589693
 20
32.289901584
 10
276.4643783784
 20
32.952184594
 10
276.8896911171
 20
33.687549374
 10
277.2101420027
 20
34.4592453171
  0
LWPOLYLINE
  5
2B8
330
1F
100
AcDbEntity
  8
0
  6
Continuous
 62
     7
370
     0
100
AcDbPolyline
 90
       11
 70
   128
 43
0.0
 10
277.210043715
 20
37.1625487931
 10
276.8895786706
 20
37.5641797914
 10
276.4642730113
 20
37.8084274326
 10
275.9553786268
 20
37.8830867646
 10
275.3883241433
 20
37.7844273745
 10
274.791444352
 20
37.5173789234
 10
274.1945645028
 20
37.0952855535
 10
273.6275097312
 20
36.5392385569
 10
273.1186148528
 20
35.8770227505
 10
272.6933086996
 20
35.1417281227
 10
272.3728429967
 20
34.3700959647
  0
LWPOLYLINE
  5
2B9
330
1F
100
AcDbEntity
  8
0
  6
Continuous
 62
     7
370
     0
100
AcDbPolyline
 90
        3
 70
   128
 43
0.0
 10
245.6856115488
 20
36.8390169964
 10
245.6851597873
 20
36.9606959137
 10
245.6974245202
 20
37.6031393267
  0
LWPOLYLINE
  5
2BA
330
1F
100
AcDbEntity
  8
0
  6
Continuous
 62
     7
370
     0
100
AcDbPolyline
 90
       19
 70
   128
 43
0.0
 10
214.6002058169
 20
60.852002413
 10
214.6569611582
 20
61.9264778253
 10
214.8263322202
 20
63.0495364394
 10
215.1056472878
 20
64.2034666598
 10
215.4905020154
 20
65.3700707376
 10
215.9748265981
 20
66.530950223
 10
216.5509835662
 20
67.6677978787
 10
217.2098859931
 20
68.762684173
 10
217.9411427051
 20
69.7983430108
 10
218.7332216001
 20
70.7584413014
 10
219.5736309118
 20
71.6278368343
 10
220.4491167736
 20
72.3928189468
 10
221.3458725529
 20
73.0413244282
 10
222.2497556771
 20
73.5631250489
 10
223.1465114563
 20
73.9499917517
 10
224.0219973181
 20
74.1958240995
 10
224.8624066299
 20
74.2967445042
 10
225.6544855248
 20
74.2511610397
 10
226.3348327951
 20
74.0785867641
  0
ARC
  5
2BB
330
1F
100
AcDbEntity
  8
0
  6
Continuous
 62
     7
370
     0
100
AcDbCircle
 10
220.0209535861
 20
60.421574365
 30
0.0
 40
5.437809732037594
100
AcDbArc
 50
175.4600220549
 51
225.5211364412
  0
LINE
  5
2BC
330
1F
100
AcDbEntity
  8
0
  6
Continuous
 62
     7
370
     0
100
AcDbLine
 10
251.3685296946
 20
37.9564126956
 30
0.0
 11
250.6613082108
 21
38.3646829679
 31
0.0
  0
LINE
  5
2BD
330
1F
100
AcDbEntity
  8
0
  6
Continuous
 62
     7
370
     0
100
AcDbLine
 10
245.8253685229
 20
32.2969435578
 30
0.0
 11
251.3685296946
 21
29.0969447272
 31
0.0
  0
LINE
  5
2BE
330
1F
100
AcDbEntity
  8
0
  6
Continuous
 62
     7
370
     0
100
AcDbLine
 10
245.7647083419
 20
32.2619137968
 30
0.0
 11
245.8253685229
 21
32.2969435578
 31
0.0
  0
LINE
  5
2BF
330
1F
100
AcDbEntity
  8
0
  6
Continuous
 62
     7
370
     0
100
AcDbLine
 10
271.4415244144
 20
32.0075069288
 30
0.0
 11
271.5122349724
 21
31.7436169327
 31
0.0
  0
LWPOLYLINE
  5
2C0
330
1F
100
AcDbEntity
  8
0
  6
Continuous
 62
     7
370
     0
100
AcDbPolyline
 90
        3
 70
   128
 43
0.0
 10
276.7794481323
 20
37.1158027827
 10
276.4806396533
 20
37.4640675964
 10
276.3291686542
 20
37.5681548633
  0
LWPOLYLINE
  5
2C1
330
1F
100
AcDbEntity
  8
0
  6
Continuous
 62
     7
370
     0
100
AcDbPolyline
 90
       10
 70
   128
 43
0.0
 10
272.8925783408
 20
31.4719101143
 10
273.0676385688
 20
31.4014947863
 10
273.5295245646
 20
31.3429074006
 10
274.041570743
 20
31.4369370735
 10
274.5793108586
 20
31.6790908145
 10
275.1170509743
 20
32.0577985955
 10
275.6290971527
 20
32.5549648563
 10
276.0909831485
 20
33.1468344616
 10
276.4806396533
 20
33.8051273918
 10
276.7794481323
 20
34.4983891318
  0
LINE
  5
2C2
330
1F
100
AcDbEntity
  8
0
  6
Continuous
 62
     7
370
     0
100
AcDbLine
 10
271.2323746299
 20
32.1282465293
 30
0.0
 11
271.4415244144
 21
32.0075069288
 31
0.0
  0
LINE
  5
2C3
330
1F
100
AcDbEntity
  8
0
  6
Continuous
 62
     7
370
     0
100
AcDbLine
 10
247.3211065875
 20
25.0511247755
 30
0.0
 11
247.1155445535
 21
25.6813575329
 31
0.0
  0
LINE
  5
2C4
330
1F
100
AcDbEntity
  8
0
  6
Continuous
 62
     7
370
     0
100
AcDbLine
 10
250.6614227975
 20
27.8722000389
 30
0.0
 11
245.411154811
 21
30.9031152327
 31
0.0
  0
LINE
  5
2C5
330
1F
100
AcDbEntity
  8
0
  6
Continuous
 62
     7
370
     0
100
AcDbLine
 10
278.0706500929
 20
35.5297093925
 30
0.0
 11
277.8585184189
 21
35.7119587161
 31
0.0
  0
LINE
  5
2C6
330
1F
100
AcDbEntity
  8
0
  6
Continuous
 62
     7
370
     0
100
AcDbLine
 10
246.0755315538
 20
27.7250079322
 30
0.0
 11
245.9988440458
 21
27.9726663324
 31
0.0
  0
LWPOLYLINE
  5
2C7
330
1F
100
AcDbEntity
  8
0
  6
Continuous
 62
     7
370
     0
100
AcDbPolyline
 90
        3
 70
   128
 43
0.0
 10
245.6819488066
 20
27.123706213
 10
245.659065702
 20
27.177843432
 10
245.2139554691
 20
28.4257728631
  0
LINE
  5
2C8
330
1F
100
AcDbEntity
  8
0
  6
Continuous
 62
     7
370
     0
100
AcDbLine
 10
275.5604206741
 20
37.0386223053
 30
0.0
 11
277.8585184189
 21
35.7119587161
 31
0.0
  0
ARC
  5
2C9
330
1F
100
AcDbEntity
  8
0
  6
Continuous
 62
     7
370
     0
100
AcDbCircle
 10
255.4214158912
 20
31.4482754342
 30
0.0
 40
11.20229265050768
100
AcDbArc
 50
195.6891556714
 51
214.1128344446
  0
LINE
  5
2CA
330
1F
100
AcDbEntity
  8
0
  6
Continuous
 62
     7
370
     0
100
AcDbLine
 10
242.1382621987
 20
28.0505368477
 30
0.0
 11
241.9359876189
 21
28.6714521053
 31
0.0
  0
LINE
  5
2CB
330
1F
100
AcDbEntity
  8
0
  6
Continuous
 62
     7
370
     0
100
AcDbLine
 10
277.1072175877
 20
43.9554406533
 30
0.0
 11
277.8143244848
 21
43.5472365304
 31
0.0
  0
OLE2FRAME
  5
2CC
330
1F
100
AcDbEntity
  8
0
100
AcDbOle2Frame
 70
     2
  3
Paintbrush-Bild
 10
13.8511154363
 20
38.264191557
 30
0.0
 11
51.6290888628
 21
31.9806341108
 31
0.0
 71
     2
 72
     0
 73
     1
 90
    12928
310
80552BED0767C5B32B40DDAF6807D121434000000000000000006FFBDDFB85D0
310
4940DDAF6807D121434000000000000000006FFBDDFB85D04940416F4BD60AFB
310
3F4000000000000000002BED0767C5B32B40416F4BD60AFB3F40000000000000
310
0000000000000100000000010000010000000100000000000100000000320000
310
D0CF11E0A1B11AE1000000000000000000000000000000003E000300FEFF0900
310
0600000000000000000000000100000001000000000000000010000002000000
310
01000000FEFFFFFF0000000000000000FFFFFFFFFFFFFFFFFFFFFFFFFFFFFFFF
310
FFFFFFFFFFFFFFFFFFFFFFFFFFFFFFFFFFFFFFFFFFFFFFFFFFFFFFFFFFFFFFFF
310
FFFFFFFFFFFFFFFFFFFFFFFFFFFFFFFFFFFFFFFFFFFFFFFFFFFFFFFFFFFFFFFF
310
FFFFFFFFFFFFFFFFFFFFFFFFFFFFFFFFFFFFFFFFFFFFFFFFFFFFFFFFFFFFFFFF
310
FFFFFFFFFFFFFFFFFFFFFFFFFFFFFFFFFFFFFFFFFFFFFFFFFFFFFFFFFFFFFFFF
310
FFFFFFFFFFFFFFFFFFFFFFFFFFFFFFFFFFFFFFFFFFFFFFFFFFFFFFFFFFFFFFFF
310
FFFFFFFFFFFFFFFFFFFFFFFFFFFFFFFFFFFFFFFFFFFFFFFFFFFFFFFFFFFFFFFF
310
FFFFFFFFFFFFFFFFFFFFFFFFFFFFFFFFFFFFFFFFFFFFFFFFFFFFFFFFFFFFFFFF
310
FFFFFFFFFFFFFFFFFFFFFFFFFFFFFFFFFFFFFFFFFFFFFFFFFFFFFFFFFFFFFFFF
310
FFFFFFFFFFFFFFFFFFFFFFFFFFFFFFFFFFFFFFFFFFFFFFFFFFFFFFFFFFFFFFFF
310
FFFFFFFFFFFFFFFFFFFFFFFFFFFFFFFFFFFFFFFFFFFFFFFFFFFFFFFFFFFFFFFF
310
FFFFFFFFFFFFFFFFFFFFFFFFFFFFFFFFFFFFFFFFFFFFFFFFFFFFFFFFFFFFFFFF
310
FFFFFFFFFFFFFFFFFFFFFFFFFFFFFFFFFFFFFFFFFFFFFFFFFFFFFFFFFFFFFFFF
310
FFFFFFFFFFFFFFFFFFFFFFFFFFFFFFFFFFFFFFFFFFFFFFFFFFFFFFFFFFFFFFFF
310
FDFFFFFFFEFFFFFFFEFFFFFFFEFFFFFF05000000060000000700000008000000
310
090000000A0000000B0000000C0000000D0000000E0000000F00000010000000
310
11000000120000001300000014000000150000001600000017000000FEFFFFFF
310
FFFFFFFFFFFFFFFFFFFFFFFFFFFFFFFFFFFFFFFFFFFFFFFFFFFFFFFFFFFFFFFF
310
FFFFFFFFFFFFFFFFFFFFFFFFFFFFFFFFFFFFFFFFFFFFFFFFFFFFFFFFFFFFFFFF
310
FFFFFFFFFFFFFFFFFFFFFFFFFFFFFFFFFFFFFFFFFFFFFFFFFFFFFFFFFFFFFFFF
310
FFFFFFFFFFFFFFFFFFFFFFFFFFFFFFFFFFFFFFFFFFFFFFFFFFFFFFFFFFFFFFFF
310
FFFFFFFFFFFFFFFFFFFFFFFFFFFFFFFFFFFFFFFFFFFFFFFFFFFFFFFFFFFFFFFF
310
FFFFFFFFFFFFFFFFFFFFFFFFFFFFFFFFFFFFFFFFFFFFFFFFFFFFFFFFFFFFFFFF
310
FFFFFFFFFFFFFFFFFFFFFFFFFFFFFFFFFFFFFFFFFFFFFFFFFFFFFFFFFFFFFFFF
310
FFFFFFFFFFFFFFFFFFFFFFFFFFFFFFFFFFFFFFFFFFFFFFFFFFFFFFFFFFFFFFFF
310
FFFFFFFFFFFFFFFFFFFFFFFFFFFFFFFFFFFFFFFFFFFFFFFFFFFFFFFFFFFFFFFF
310
FFFFFFFFFFFFFFFFFFFFFFFFFFFFFFFFFFFFFFFFFFFFFFFFFFFFFFFFFFFFFFFF
310
FFFFFFFFFFFFFFFFFFFFFFFFFFFFFFFFFFFFFFFFFFFFFFFFFFFFFFFFFFFFFFFF
310
FFFFFFFFFFFFFFFFFFFFFFFFFFFFFFFFFFFFFFFFFFFFFFFFFFFFFFFFFFFFFFFF
310
FFFFFFFFFFFFFFFFFFFFFFFFFFFFFFFFFFFFFFFFFFFFFFFFFFFFFFFFFFFFFFFF
310
52006F006F007400200045006E00740072007900000000000000000000000000
310
0000000000000000000000000000000000000000000000000000000000000000
310
16000500FFFFFFFFFFFFFFFF020000000A00030000000000C000000000000046
310
000000000000000000000000D039E980AC1FD20103000000C000000000000000
310
01004F006C006500000000000000000000000000000000000000000000000000
310
0000000000000000000000000000000000000000000000000000000000000000
310
0A000200FFFFFFFFFFFFFFFFFFFFFFFF00000000000000000000000000000000
310
0000000000000000000000000000000000000000000000001400000000000000
310
010043006F006D0070004F0062006A0000000000000000000000000000000000
310
0000000000000000000000000000000000000000000000000000000000000000
310
120002010100000003000000FFFFFFFF00000000000000000000000000000000
310
0000000000000000000000000000000000000000010000004D00000000000000
310
01004F006C006500310030004E00610074006900760065000000000000000000
310
0000000000000000000000000000000000000000000000000000000000000000
310
1A000200FFFFFFFFFFFFFFFFFFFFFFFF00000000000000000000000000000000
310
0000000000000000000000000000000000000000040000002426000000000000
310
FEFFFFFF02000000FEFFFFFFFFFFFFFFFFFFFFFFFFFFFFFFFFFFFFFFFFFFFFFF
310
FFFFFFFFFFFFFFFFFFFFFFFFFFFFFFFFFFFFFFFFFFFFFFFFFFFFFFFFFFFFFFFF
310
FFFFFFFFFFFFFFFFFFFFFFFFFFFFFFFFFFFFFFFFFFFFFFFFFFFFFFFFFFFFFFFF
310
FFFFFFFFFFFFFFFFFFFFFFFFFFFFFFFFFFFFFFFFFFFFFFFFFFFFFFFFFFFFFFFF
310
FFFFFFFFFFFFFFFFFFFFFFFFFFFFFFFFFFFFFFFFFFFFFFFFFFFFFFFFFFFFFFFF
310
FFFFFFFFFFFFFFFFFFFFFFFFFFFFFFFFFFFFFFFFFFFFFFFFFFFFFFFFFFFFFFFF
310
FFFFFFFFFFFFFFFFFFFFFFFFFFFFFFFFFFFFFFFFFFFFFFFFFFFFFFFFFFFFFFFF
310
FFFFFFFFFFFFFFFFFFFFFFFFFFFFFFFFFFFFFFFFFFFFFFFFFFFFFFFFFFFFFFFF
310
FFFFFFFFFFFFFFFFFFFFFFFFFFFFFFFFFFFFFFFFFFFFFFFFFFFFFFFFFFFFFFFF
310
FFFFFFFFFFFFFFFFFFFFFFFFFFFFFFFFFFFFFFFFFFFFFFFFFFFFFFFFFFFFFFFF
310
FFFFFFFFFFFFFFFFFFFFFFFFFFFFFFFFFFFFFFFFFFFFFFFFFFFFFFFFFFFFFFFF
310
FFFFFFFFFFFFFFFFFFFFFFFFFFFFFFFFFFFFFFFFFFFFFFFFFFFFFFFFFFFFFFFF
310
FFFFFFFFFFFFFFFFFFFFFFFFFFFFFFFFFFFFFFFFFFFFFFFFFFFFFFFFFFFFFFFF
310
FFFFFFFFFFFFFFFFFFFFFFFFFFFFFFFFFFFFFFFFFFFFFFFFFFFFFFFFFFFFFFFF
310
FFFFFFFFFFFFFFFFFFFFFFFFFFFFFFFFFFFFFFFFFFFFFFFFFFFFFFFFFFFFFFFF
310
FFFFFFFFFFFFFFFFFFFFFFFFFFFFFFFFFFFFFFFFFFFFFFFFFFFFFFFFFFFFFFFF
310
0100000200000000000000000000000000000000000000000000000000000000
310
0000000000000000000000000000000000000000000000000000000000000000
310
0100FEFF030A0000FFFFFFFF0A00030000000000C00000000000004607000000
310
5042727573680007000000504272757368000700000050427275736800F439B2
310
7100000000000000000000000000000000000000000000000000000000000000
310
0000000000000000000000000000000000000000000000000000000000000000
310
0000000000000000000000000000000000000000000000000000000000000000
310
0000000000000000000000000000000000000000000000000000000000000000
310
0000000000000000000000000000000000000000000000000000000000000000
310
0000000000000000000000000000000000000000000000000000000000000000
310
0000000000000000000000000000000000000000000000000000000000000000
310
0000000000000000000000000000000000000000000000000000000000000000
310
0000000000000000000000000000000000000000000000000000000000000000
310
0000000000000000000000000000000000000000000000000000000000000000
310
0000000000000000000000000000000000000000000000000000000000000000
310
0000000000000000000000000000000000000000000000000000000000000000
310
20260000424D0E260000000000003E00000028000000B40200006E0000000100
310
01000000000000000000130B0000130B00000200000002000000000000FFFFFF
310
FFFFFFFFFFFFFFFFFFFFFFFFFFFFFFFFFFFFFFFFFFFFFFFFFFFFFFFFFFFFFFFF
310
FFFFFFFFFFFFFFFFFFFFFFFFFFFFFFFFFFFFFFFFFFFFFFFFFFFFFFFFFFFFFFFF
310
FFFFFFFFFFFFFFFFFFFFFFFFFFFFFFFFFFFFFFFFFFFFFFFFF000FFFFFFFFFFFF
310
FFFFFFFFFFFFFFFFFFFFFFFFFFFFFFFFFFFFFFFFFFFFFFFFFFFFFFFFFFFFFFFF
310
FFFFFFFFFFFFFFFFFFFFFFFFFFFFFFFFFFFFFFFFFFFFFFFFFFFFFFFFFFFFFFFF
310
FFFFFFFFFFFFFFFFFFFFFFFFFFFFFFFFF000FFFFFFFFFFFFFFFFFFFFFFFFFFFF
310
FFFFFFFFFFFFFFFFFFFFFFFFFFFFFFFFFFFFFFFFFFFFFFFFFFFFFFFFFFFFFFFF
310
FFFFFFFFFFFFFFFFFFFFFFFFFFFFFFFFFFFFFFFFFFFFFFFFFFFFFFFFFFFFFFFF
310
FFFFFFFFFFFFFFFFF000FFFFFFFFFFFFFFFFFFFFFFFFFFFFFFFFFFFFFFFFFFFF
310
FFFFFFFFFFFFFFFFFFFFFFFFFFFFFFFFFFFFFFFFFFFFFFFFFFFFFFFFFFFFFFFF
310
FFFFFFFFFFFFFFFFFFFFFFFFFFFFFFFFFFFFFFFFFFFFFFFFFFFFFFFFFFFFFFFF
310
F000FFFFFFFFFFFFFFFFFFFFFFFFFFFFFFFFFFFFFFFFFFFFFFFFFFFFFFFFFFFF
310
FFFFFFFFFFFFFFFFFFFFFFFFFFFFFFFFFFFFFFFFFFFFFFFFFFFFFFFFFFFFFFFF
310
FFFFFFFFFFFFFFFFFFFFFFFFFFFFFFFFFFFFFFFFFFFFFFFFF000FFFFFFFFFFFF
310
FFFFFFFFFFFFFFFFFFFFFFFFFFFFFFFFFFFFFFFFFFFFFFFFFFFFFFFFFFFFFFFF
310
FFFFFFFFFFFFFFFFFFFFFFFFFFFFFFFFFFFFFFFFFFFFFFFFFFFFFFFFFFFFFFFF
310
FFFFFFFFFFFFFFFFFFFFFFFFFFFFFFFFF000FFFFFFFFFFFFFFFFFFFFFFFFFFFF
310
FFFFFFFFFFFFFFFFFFFFFFFFFFFFFFFFFFFFFFFFFFFFFFFFFFFFFFFFFFFFFFFF
310
FFFFFFFFFFFFFFFFFFFFFFFFFFFFFFFFFFFFFFFFFFFFFFFFFFFFFFFFFFFFFFFF
310
FFFFFFFFFFFFFFFFF000FFFFFFFFFFFFFFFFFFFFFFFFFFFFFFFFFFFFFFFFFFFF
310
FFFFFFFFFFFFFFFFFFFFFFFFFFFFFFFFFFFFFFFFFFFFFFFFFFFFFFFFFFFFFFFF
310
FFFFFFFFFFFFFFFFFFFFFFFFFFFFFFFFFFFFFFFFFFFFFFFFFFFFFFFFFFFFFFFF
310
F000FFFFFFFFFFFFFFFFFFFFFFFFFFFFFFFFFFFFFFFFFFFFFFFFFFFFFFFFFFFF
310
FFFFFFFFFFFFFFFFFFFFFFFFFFFFFFFFFFFFFFFFFFFFFFFFFFFFFFFFFFFFFFFF
310
FFFFFFFFFFFFFFFFFFFFFFFFFFFFFFFFFFFFFFFFFFFFFFFFF000FFFFFFFFFFFF
310
FFFFFFFFFFFFFFFFFFFFFFFFFFFFFFFFFFFFFFFFFFFFFFFFFFFFFFFFFFFFFFFF
310
FFFFFFFFFFFFFFFFFFFFFFFFFFFFFFFFFFFFFFFFFFFFFFFFFFFFFFFFFFFFFFFF
310
FFFFFFFFFFFFFFFFFFFFFFFFFFFFFFFFF000FFFFFFFFFFFFFFFFFFFFFFFFFFFF
310
FFFFFFFFFFFFFFFFFFFFFFFFFFFFFFFFFFFFFFFFFFFFFFFFFFFFFFFFFFFFFFFF
310
FFFFFFFFFFFFFFFFFFFFFFFFFFFFFFFFFFFFFFFFFFFFFFFFFFFFFFFFFFFFFFFF
310
FFFFFFFFFFFFFFFFF000FFFFFFFFFFFFFFFFFFFFFFFFFFFFFFFFFFFFFFFFFFFF
310
FFFFFFFFFFFFFFFFFFFFFFFFFFFFFFFFFFFFFFFFFFFFFFFFFFFFFFFFFFFFFFFF
310
FFFFFFFFFFFFFFFFFFFFFFFFFFFFFFFFFFFFFFFFFFFFFFFFFFFFFFFFFFFFFFFF
310
F000FFFFFFFFFFFFFFFFFFFFFFFFFFFFFFFFFFFFFFFFFFFFFFFFFFFFFFFFFFFF
310
FFFFFFFFFFFFFFFFFFFFFFFFFFFFFFFFFFFFFFFFFFFFFFFFFFFFFFFFFFFFFFFF
310
FFFFFFFFFFFFFFFFFFFFFFFFFFFFFFFFFFFFFFFFFFFFFFFFF000FFFFFFFFFFFF
310
FFFFFFFFFFFFFFFFFFFFFFFFFFFFFFFFFFFFFFFFFFFFFFFFFFFFFFFFFFFFFFFF
310
FFFFFFFFFFFFFFFFFFFFFFFFFFFFFFFFFFFFFFFFFFFFFFFFFFFFFFFFFFFFFFFF
310
FFFFFFFFFFFFFFFFFFFFFFFFFFFFFFFFF000FFFFFFFFFFFFFFFFFFFFFFFFFFFF
310
FFFFFFFFFFFFFFFFFFFFFFFFFFFFFFFFFFFFFFFFFFFFFFFFFFFFFFFFFFFFFFFF
310
FFFFFFFFFFFFFFFFFFFFFFFFFFFFFFFFFFFFFFFFFFFFFFFFFFFFFFFFFFFFFFFF
310
FFFFFFFFFFFFFFFFF000FFFFFFFFFFFFFFFFFFFFFFFFFFFFFFFFFFFFFFFFFFFF
310
FFFFFFFFFFFFFFFFFFFFFFFFFFFFFFFFFFFFFFFFFFFFFFFFFFFFFFFFFFFFFFFF
310
FFFFFFFFFFFFFFFFFFFFFFFFFFFFFFFFFFFFFFFFFFFFFFFFFFFFFFFFFFFFFFFF
310
F000FFFFFFFFFFFFFFFFFFFFFFFFFFFFFFFFFFFFFFFFFFFFFFFFFFFFFFFFFFFF
310
FFFFFFFFFFFFFFFFFFFFFFFFFFFFFFFFFFFFFFFFFFFFFFFFFFFFFFFFFFFFFFFF
310
FFFFFFFFFFFFFFFFFFFFFFFFFFFFFFFFFFFFFFFFFFFFFFFFF000FFFFFFFFFFFF
310
FFFFFFFFFFFFFFFFFFFFFFFFFFFFFFFFFFFFFFFFFFFFFFFFFFFFFFFFFFFFFFFF
310
FFFFFFFFFFFFFFFFFFFFFFFFFFFFFFFFFFFFFFFFFFFFFFFFFFFFFFFFFFFFFFFF
310
FFFFFFFFFFFFFFFFFFFFFFFFFFFFFFFFF000FFFFFFFFFFFFFFFFFFFFFFFFFFFF
310
FFFFFFFFFFFFFFFFFFFFFFFFFFFFFFFFFFFFFFFFFFFFFFFFFFFFFFFFFFFFFFFF
310
FFFFFFFFFFFFFFFFFFFFFFFFFFFFFFFFFFFFFFFFFFFFFFFFFFFFFFFFFFFFFFFF
310
FFFFFFFFFFFFFFFFF000FFFFF80003FFFFFFFFFFFFFFFFFFFFFFFFFFFFFFFFFF
310
FFFFF00007FFFFFFFFFF00007FFFFFF800000000000000007FFFFFFFFFFFFFFF
310
FFFFFFFC001FFFFFFFFFFFFFFC001FFFFFFFFFFFFFFFFFFFFFFFFFFE0007FFFF
310
F000FFFF8000007FFFFFFFF8000FFFFFC0007FFFFF80007FFFFF0000007FFFFF
310
FFF8000007FFFFF800000000000000007FFFFFF0001FFFFFFFFFFFC00001FFFF
310
FFFFFFFFC00001FFFFFFFF000000000003FFFFE000007FFFF000FFFE0000000F
310
FFFFFFF0000FFFFF80007FFFFF80007FFFFC0000001FFFFFFFC0000001FFFFF8
310
00000000000000007FFFFFF0001FFFFFFFFFFE0000003FFFFFFFFFFE0000003F
310
FFFFFF000000000003FFFF0000000FFFF000FFF800000003FFFFFFF00007FFFF
310
80007FFFFF80007FFFF000000007FFFFFF000000003FFFF80000000000000000
310
7FFFFFF0001FFFFFFFFFF80000000FFFFFFFFFF80000000FFFFFFF0000000000
310
03FFFC00000003FFF000FFE000000000FFFFFFF00007FFFF80003FFFFF80007F
310
FFC000000001FFFFFC000000001FFFF800000000000000007FFFFFF0001FFFFF
310
FFFFE000000003FFFFFFFFE000000003FFFFFF000000000003FFF000000000FF
310
F000FF80000000007FFFFFF00007FFFF80003FFFFF80007FFF8000000000FFFF
310
F80000000007FFF800000000000000007FFFFFF0001FFFFFFFFFC000000001FF
310
FFFFFFC000000001FFFFFF000000000003FFC0000000007FF000FF0000000000
310
3FFFFFE00007FFFF00003FFFFF80007FFE00000000003FFFF00000000003FFF8
310
00000000000000007FFFFFF0001FFFFFFFFF8000000000FFFFFFFF8000000000
310
FFFFFF000000000003FF80000000003FF000FE00000000001FFFFFE00003FFFF
310
00003FFFFF80007FFC00000000001FFFE00000000001FFF8000001FFFE000000
310
7FFFFFF0001FFFFFFFFE00000000003FFFFFFE00000000003FFFFF0000000000
310
03FF00000000001FF000FC00000000000FFFFFE00003FFFF00001FFFFF80007F
310
F800000000001FFFC00000000000FFF8000001FFFE0000007FFFFFF0001FFFFF
310
FFFC00000000001FFFFFFC00000000001FFFFF000000000003FE00000000000F
310
F000F8000000000007FFFFE00003FFFF00001FFFFF80007FF800000000000FFF
310
800000000000FFF8000001FFFE0000007FFFFFF0001FFFFFFFF800000000000F
310
FFFFF800000000000FFFFF000000000003FC000000000007F000F80000000000
310
03FFFFC00003FFFE00001FFFFF80007FF0000000000007FF0000000000007FF8
310
000001FFFE0000007FFFFFF0001FFFFFFFF0000000000007FFFFF00000000000
310
07FFFF000000000003F8000000000003F000F0000000000003FFFFC00001FFFE
310
00001FFFFF80007FE0000000000007FE0000000000003FF8000001FFFE000000
310
7FFFFFF0001FFFFFFFF0000000000007FFFFF0000000000007FFFF0000000000
310
03F800001F800003F000E00001FFF00001FFFFC00001FFFE00000FFFFF80007F
310
E00001FFE00003FE00001FFF00003FF8000001FFFE0000007FFFFFF0001FFFFF
310
FFE000003E000003FFFFE000003E000003FFFF000000000003F00001FFF80001
310
F000E00007FFFC0001FFFFC00001FFFE00000FFFFF80007FC0000FFFFC0003FC
310
0000FFFFC0001FF8000001FFFE0000007FFFFFF0001FFFFFFFC00003FFE00001
310
FFFFC00003FFE00001FFFF0001FFFFFFFFF00007FFFE0001F000E0000FFFFF00
310
00FFFF800001FFFC00000FFFFF80007FC0001FFFFE0001FC0001FFFFE0001FF8
310
000001FFFE0000007FFFFFF0001FFFFFFF80000FFFF80000FFFF80000FFFF800
310
00FFFF0003FFFFFFFFE0000FFFFF8000F000C0003FFFFF8000FFFF800000FFFC
310
000007FFFF80007F80003FFFFF0001FC0003FFFFF0001FF8000001FFFE000000
310
7FFFFFF0001FFFFFFF80003FFFFE0000FFFF80003FFFFE0000FFFF0003FFFFFF
310
FFE0003FFFFF8000F000C0003FFFFF8000FFFF800000FFFC000007FFFF80007F
310
80007FFFFF8001F80007FFFFF8000FF8000001FFFE0000007FFFFFF0001FFFFF
310
FF00007FFFFF00007FFF00007FFFFF00007FFF0003FFFFFFFFE0003FFFFFC000
310
F000C0007FFFFFC000FFFF000000FFFC000007FFFF80007F8000FFFFFF8000F8
310
000FFFFFF8000FF8000001FFFE0000007FFFFFF0001FFFFFFF0000FFFFFF8000
310
7FFF0000FFFFFF80007FFF0003FFFFFFFFC0007FFFFFC00070008000FFFFFFC0
310
00FFFF000000FFF8000007FFFF80007F8000FFFFFF8000F8000FFFFFF8000FF8
310
000001FFFE0000007FFFFFF0001FFFFFFE0001FFFFFFC0003FFE0001FFFFFFC0
310
003FFF0003FFFFFFFFC0007FFFFFE00070008000FFFFFFC0007FFF0000007FF8
310
000003FFFF80007F0001FFFFFF8000F8000FFFFFF8000FF8000001FFFE000000
310
7FFFFFF0001FFFFFFE0001FFFFFFC0003FFE0001FFFFFFC0003FFF0003FFFFFF
310
FFC000FFFFFFE00070008000FFFFFFC0007FFF0000007FF8000003FFFF80007F
310
0001FFFFFF8000F8001FFFFFF8000FF8000001FFFE0000007FFFFFF0001FFFFF
310
FE0003FFFFFFE0003FFE0003FFFFFFE0003FFF0003FFFFFFFFC000FFFFFFE000
310
70008000FFFFFFC0007FFE0000007FF8000003FFFF80007F0001FFFFFF8000F0
310
001FFFFFF8000FF8000001FFFE0000007FFFFFF0001FFFFFFC0003FFFFFFE000
310
1FFC0003FFFFFFE0001FFF0003FFFFFFFFC000FFFFFFC00070008000FFFFFF80
310
007FFE0000007FF0000003FFFF80007F0001FFFFFF0000F0001FFFFFF8000FF8
310
000001FFFE0000007FFFFFF0001FFFFFFC0007FFFFFFF0001FFC0007FFFFFFF0
310
001FFF0003FFFFFFFFC000FFFFFFC00070008001FFFFFF0000FFFE0000003FF0
310
000001FFFF80007F0001FFFFFF0000F8001FFFFFF0000FF8000001FFFE000000
310
7FFFFFF0001FFFFFFC0007FFFFFFF0001FFC0007FFFFFFF0001FFF0003FFFFFF
310
FFC001FFFFFF80007000FFFFFFFFFE0000FFFE0008003FF0008001FFFF80007F
310
FFFFFFFFFC0000FFFFFFFFFFE0000FF8000001FFFE0000007FFFFFF0001FFFFF
310
F8000FFFFFFFF8000FF8000FFFFFFFF8000FFF0003FFFFFFFFFFFFFFFFFF0000
310
7000FFFFFFFFFC0000FFFC0008003FF0008001FFFF80007FFFFFFFFFF80001FF
310
FFFFFFFF80000FF8000001FFFE0000007FFFFFF0001FFFFFF8000FFFFFFFF800
310
0FF8000FFFFFFFF8000FFF0003FFFFFFFFFFFFFFFFFE0000F000FFFFFFFFE000
310
00FFFC000C003FE000C001FFFF80007FFFFFFFFFC00001FFFFFFFFFE00001FF8
310
000001FFFE0000007FFFFFF0001FFFFFF8000FFFFFFFF8000FF8000FFFFFFFF8
310
000FFF0003FFFFFFFFFFFFFFFFF00000F000FFFFFFFE000001FFFC000C001FE0
310
00C000FFFF80007FFFFFFFFE000001FFFFFFFFE000001FF80FFFFFFFFFFFFFC0
310
7FFFFFF0001FFFFFF8000FFFFFFFF8000FF8000FFFFFFFF8000FFF0003FFFFFF
310
FFFFFFFFFF800000F000FFFFFFC0000001FFFC001C001FE001C000FFFF80007F
310
FFFFFF80000003FFFFFFF80000001FF80FFFFFFFFFFFFFC07FFFFFF0001FFFFF
310
F8001FFFFFFFFC000FF8001FFFFFFFFC000FFF0003FFFFFFFFFFFFFFF0000001
310
F000FFFFF800000001FFF8001C001FE001C000FFFF80007FFFFFF800000003FF
310
FFFF800000003FF80FFFFFFFFFFFFFC07FFFFFF0001FFFFFF8001FFFFFFFFC00
310
0FF8001FFFFFFFFC000FFF0003FFFFFFFFFFFFFE00000001F000FFFFC0000000
310
03FFF8001E001FC001E000FFFF80007FFFFF8000000007FFFFFC000000003FF8
310
0FFFFFFFFFFFFFC07FFFFFF0001FFFFFF8001FFFFFFFFC000FF8001FFFFFFFFC
310
000FFF0003FFFFFFFFFFFFE000000003F000FFFE0000000007FFF8001E000FC0
310
01E0007FFF80007FFFFE0000000007FFFFE0000000007FF80FFFFFFFFFFFFFC0
310
7FFFFFF0001FFFFFF0001FFFFFFFFC0007F0001FFFFFFFFC0007FF0003FFFFFF
310
FFFFFF0000000003F000FFF80000000007FFF8001E000FC003E0007FFF80007F
310
FFF0000000000FFFFF8000000000FFF80FFFFFFFFFFFFFC07FFFFFF0001FFFFF
310
F0001FFFFFFFFC0007F0001FFFFFFFFC0007FF0003FFFFFFFFFFFC0000000007
310
F000FFE0000000000FFFF0003E000FC003E0007FFF80007FFFC0000000001FFF
310
FE0000000001FFF80FFFFFFFFFFFFFC07FFFFFF0001FFFFFF0001FFFFFFFFC00
310
07F0001FFFFFFFFC0007FF0003FFFFFFFFFFF0000000000FF000FFC000000000
310
1FFFF0003F000F8003F0003FFF80007FFF80000000003FFFF80000000003FFF8
310
0FFFFFFFFFFFFFC07FFFFFF0001FFFFFF0001FFFFFFFFC0007F0001FFFFFFFFC
310
0007FF0003FFFFFFFFFFE0000000001FF000FF00000000007FFFF0003F000780
310
03F0003FFF80007FFF00000000007FFFF00000000007FFF80FFFFFFFFFFFFFC0
310
7FFFFFF0001FFFFFF0001FFFFFFFFC0007F0001FFFFFFFFC0007FF0003FFFFFF
310
FFFF80000000007FF000FE0000000000FFFFE0003F00078007F0003FFF80007F
310
FE0000000001FFFFE0000000001FFFF80FFFFFFFFFFFFFC07FFFFFF0001FFFFF
310
F0001FFFFFFFFC0007F0001FFFFFFFFC0007FF0003FFFFFFFFFF0000000000FF
310
F000FC0000000003FFFFE0007F00078007F0003FFF80007FFC0000000007FFFF
310
C0000000007FFFF80FFFFFFFFFFFFFC07FFFFFF0001FFFFFF8001FFFFFFFFC00
310
0FF8001FFFFFFFFC000FFF0003FFFFFFFFFE0000000003FFF000FC000000000F
310
FFFFE0007F80070007F8001FFF80007FF8000000001FFFFF8000000001FFFFF8
310
0FFFFFFFFFFFFFC07FFFFFF0001FFFFFF8001FFFFFFFFC000FF8001FFFFFFFFC
310
000FFF0003FFFFFFFFFC000000000FFFF000F8000000007FFFFFE0007F800700
310
07F8001FFF80007FF000000000FFFFFF800000000FFFFFF80FFFFFFFFFFFFFC0
310
7FFFFFF0001FFFFFF8000FFFFFFFF8000FF8000FFFFFFFF8000FFF0003FFFFFF
310
FFFC000000007FFFF000F800000007FFFFFFC0007F8003000FF8001FFF80007F
310
F000000007FFFFFF000000007FFFFFF80FFFFFFFFFFFFFC07FFFFFF0001FFFFF
310
F8000FFFFFFFF8000FF8000FFFFFFFF8000FFF0003FFFFFFFFF80000000FFFFF
310
F000F0000000FFFFFFFFC000FF8003000FF8001FFF80007FE0000000FFFFFFFF
310
0000000FFFFFFFF8000001FFFE0000007FFFFFF0001FFFFFF8000FFFFFFFF800
310
0FF8000FFFFFFFF8000FFF0003FFFFFFFFF8000000FFFFFFF000F000000FFFFF
310
FFFFC000FFC002000FF8000FFF80007FE000001FFFFFFFFE000001FFFFFFFFF8
310
000001FFFE0000007FFFFFF0001FFFFFF8000FFFFFFFF8000FF8000FFFFFFFF8
310
000FFF0003FFFFFFFFF000001FFFFFFFF000E00000FFFFFFFFFFC000FFC00200
310
0FFC000FFF80007FE00001FFFFFFFFFE00001FFFFFFFFFF8000001FFFE000000
310
7FFFFFF0001FFFFFFC000FFFFFFFF8001FFC000FFFFFFFF8001FFF0003FFFFFF
310
FFF00001FFFFFFFFF000E00007FFFFFFFFFF8000FFC000001FFC000FFF80007F
310
C0000FFFFFFFFFFE0000FFFFFFFFFFF8000001FFFE0000007FFFFFF0001FFFFF
310
FC0007FFFFFFF0001FFC0007FFFFFFF0001FFF0003FFFFFFFFF00007FFFFFFFF
310
F000E0001FFFFFFFFFFF8000FFC000001FFC000FFF80007FC0003FFFFFFFFFFE
310
0001FFFFFFFFFFF8000001FFFE0000007FFFFFF0001FFFFFFC0007FFFFFFF000
310
1FFC0007FFFFFFF0001FFF0003FFFFFFFFF0001FFFFFFFFFF000E0003FFFFF00
310
03FF8001FFE000001FFC0007FF80007FC0007FFFFF0007FC0003FFFFF0003FF8
310
000001FFFE0000007FFFFFF0001FFFFFFC0003FFFFFFE0001FFC0003FFFFFFE0
310
001FFF0003FFFFFFFFF0003FFFFFFFFFF000E0003FFFFF0001FF8001FFE00000
310
1FFE0007FF80007FC0007FFFFE0003FC0007FFFFE0003FF8000001FFFE000000
310
7FFFFFF0001FFFFFFE0003FFFFFFE0003FFE0003FFFFFFE0003FFF0003FFFFFF
310
FFF0003FFFFF8001F000E0003FFFFF0001FF0001FFE000001FFE0007FF80007F
310
C0007FFFFE0003FC0007FFFFE0003FF8000001FFFE0000007FFFFFF0001FFFFF
310
FE0001FFFFFFC0003FFE0001FFFFFFC0003FFF0003FFFFFFFFF0003FFFFF0001
310
F000E0003FFFFF0003FF0001FFE000003FFE0007FF80007FC0007FFFFE0003FC
310
0007FFFFE0003FF8000001FFFE0000007FFFFFF0001FFFFFFF0001FFFFFFC000
310
7FFF0001FFFFFFC0007FFF0003FFFFFFFFF0003FFFFF0001F000E0003FFFFE00
310
03FF0003FFF000003FFE0003FF80007FC0007FFFFC0003FE0007FFFFE0003FF8
310
000001FFFE0000007FFFFFF0001FFFFFFF0000FFFFFF80007FFF0000FFFFFF80
310
007FFF0003FFFFFFFFF0003FFFFF0001F000E0003FFFFE0003FF0003FFF00000
310
3FFF0003FF80007FC0007FFFFC0007FE0007FFFFC0003FF8000001FFFE000000
310
7FFFFFF0001FFFFFFF80007FFFFF0000FFFF80007FFFFF0000FFFF0003FFFFFF
310
FFF0003FFFFF0003F000E0003FFFFC0003FE0003FFF000003FFF0003FF80007F
310
E0003FFFF80007FE0003FFFFC0007FF8000001FFFE0000007FFFFFF0001FFFFF
310
FF80003FFFFE0000FFFF80003FFFFE0000FFFF0003FFFFFFFFF0001FFFFE0003
310
F000F0001FFFF80003FE0003FFF000007FFF0001FF80007FE0003FFFF00007FE
310
0001FFFF80007FF8000001FFFE0000007FFFFFF0001FFFFFFFC0000FFFF80001
310
FFFFC0000FFFF80001FFFF0003FFFFFFFFF0001FFFFC0003F000F0000FFFF000
310
07FE0007FFF800007FFF0001FF80007FE0001FFFE00007FF0000FFFE00007FF8
310
000001FFFE0000007FFFFFF0001FFFFFFFC00003FFE00001FFFFC00003FFE000
310
01FFFF0003FFFFFFFFF8000FFFF80003F000F00003FFC00007FC0007FFF80000
310
7FFF8001FF80007FF00007FF80000FFF00007FF80000FFF8000001FFFE000000
310
7F80000000000001FFE000003E000003FFFFE000003E000003FFFF0003FFFFFF
310
FFF80003FFE00007F000F800000000000FFC0007FFF800007FFF8001FF80007F
310
F000000000000FFF000000000000FFF8000001FFFE0000007F80000000000001
310
FFF0000000000007FFFFF0000000000007FFFF0003FFFFFFFFFC00007E000007
310
F000F800000000000FFC0007FFF80000FFFF8000FF80007FF800000000001FFF
310
800000000001FFF8000001FFFE0000007F80000000000001FFF800000000000F
310
FFFFF800000000000FFFFF0003FFFFFFFFFC00000000000FF000FC0000000000
310
1FFC0007FFFC0000FFFF8000FF80007FF800000000003FFFC00000000001FFF8
310
000001FFFE0000007F80000000000001FFF800000000000FFFFFF80000000000
310
0FFFFF0003FFFFFFFFFE00000000001FF000FE00000000003FF8000FFFFC0000
310
FFFF8000FF80007FFC00000000003FFFC00000000003FFF8000001FFFE000000
310
7F80000000000001FFFC00000000001FFFFFFC00000000001FFFFF0003FFFFFF
310
FFFF00000000001FF000FF00000000003FF8000FFFFC0000FFFFC000FF80007F
310
FE00000000007FFFE00000000007FFF8000001FFFE0000007F80000000000001
310
FFFE00000000003FFFFFFE00000000003FFFFF0003FFFFFFFFFF80000000003F
310
F000FF80000000007FF8000FFFFC0001FFFFC0007F80007FFF0000000000FFFF
310
F0000000000FFFF800000000000000007F80000000000001FFFF8000000000FF
310
FFFFFF8000000000FFFFFF0003FFFFFFFFFFC0000000007FF000FFC000000000
310
FFF8000FFFFE0001FFFFC0007F80007FFF8000000001FFFFF8000000001FFFF8
310
00000000000000007F80000000000001FFFFC000000001FFFFFFFFC000000001
310
FFFFFF0003FFFFFFFFFFE000000000FFF000FFE000000003FFF0001FFFFE0001
310
FFFFC0007F80007FFFC000000007FFFFFE000000003FFFF80000000000000000
310
7F80000000000001FFFFE000000003FFFFFFFFE000000003FFFFFF0003FFFFFF
310
FFFFF000000003FFF000FFF80000000FFFF0001FFFFE0001FFFFE0007F80007F
310
FFF00000000FFFFFFF00000000FFFFF800000000000000007F80000000000001
310
FFFFF80000000FFFFFFFFFF80000000FFFFFFF0003FFFFFFFFFFFC0000000FFF
310
F000FFFE0000003FFFF0001FFFFE0003FFFFE0003F80007FFFFC0000003FFFFF
310
FFC0000003FFFFF800000000000000007F80000000000001FFFFFE0000003FFF
310
FFFFFFFE0000003FFFFFFF0003FFFFFFFFFFFF0000003FFFF000FFFF800000FF
310
FFF0001FFFFF0003FFFFE0003F80007FFFFF000001FFFFFFFFF800001FFFFFF8
310
00000000000000007F80000000000001FFFFFFC00001FFFFFFFFFFFFC00001FF
310
FFFFFF0003FFFFFFFFFFFFC00000FFFFF000FFFFF8000FFFFFFFFFFFFFFFFFFF
310
FFFFFFFFFFFFFFFFFFFFF0001FFFFFFFFFFF0000FFFFFFF80000000000000000
310
7FFFFFFFFFFFFFFFFFFFFFFC001FFFFFFFFFFFFFFC001FFFFFFFFFFFFFFFFFFF
310
FFFFFFFC001FFFFFF000FFFFFFFFFFFFFFFFFFFFFFFFFFFFFFFFFFFFFFFFFFFF
310
FFFFFFFFFFFFFFFFFFFFFFFFFFFFFFFFFFFFFFFFFFFFFFFFFFFFFFFFFFFFFFFF
310
FFFFFFFFFFFFFFFFFFFFFFFFFFFFFFFFFFFFFFFFFFFFFFFFFFFFFFFFFFFFFFFF
310
F000FFFFFFFFFFFFFFFFFFFFFFFFFFFFFFFFFFFFFFFFFFFFFFFFFFFFFFFFFFFF
310
FFFFFFFFFFFFFFFFFFFFFFFFFFFFFFFFFFFFFFFFFFFFFFFFFFFFFFFFFFFFFFFF
310
FFFFFFFFFFFFFFFFFFFFFFFFFFFFFFFFFFFFFFFFFFFFFFFFF000FFFFFFFFFFFF
310
FFFFFFFFFFFFFFFFFFFFFFFFFFFFFFFFFFFFFFFFFFFFFFFFFFFFFFFFFFFFFFFF
310
FFFFFFFFFFFFFFFFFFFFFFFFFFFFFFFFFFFFFFFFFFFFFFFFFFFFFFFFFFFFFFFF
310
FFFFFFFFFFFFFFFFFFFFFFFFFFFFFFFFF000FFFFFFFFFFFFFFFFFFFFFFFFFFFF
310
FFFFFFFFFFFFFFFFFFFFFFFFFFFFFFFFFFFFFFFFFFFFFFFFFFFFFFFFFFFFFFFF
310
FFFFFFFFFFFFFFFFFFFFFFFFFFFFFFFFFFFFFFFFFFFFFFFFFFFFFFFFFFFFFFFF
310
FFFFFFFFFFFFFFFFF000FFFFFFFFFFFFFFFFFFFFFFFFFFFFFFFFFFFFFFFFFFFF
310
FFFFFFFFFFFFFFFFFFFFFFFFFFFFFFFFFFFFFFFFFFFFFFFFFFFFFFFFFFFFFFFF
310
FFFFFFFFFFFFFFFFFFFFFFFFFFFFFFFFFFFFFFFFFFFFFFFFFFFFFFFFFFFFFFFF
310
F000FFFFFFFFFFFFFFFFFFFFFFFFFFFFFFFFFFFFFFFFFFFFFFFFFFFFFFFFFFFF
310
FFFFFFFFFFFFFFFFFFFFFFFFFFFFFFFFFFFFFFFFFFFFFFFFFFFFFFFFFFFFFFFF
310
FFFFFFFFFFFFFFFFFFFFFFFFFFFFFFFFFFFFFFFFFFFFFFFFF000FFFFFFFFFFFF
310
FFFFFFFFFFFFFFFFFFFFFFFFFFFFFFFFFFFFFFFFFFFFFFFFFFFFFFFFFFFFFFFF
310
FFFFFFFFFFFFFFFFFFFFFFFFFFFFFFFFFFFFFFFFFFFFFFFFFFFFFFFFFFFFFFFF
310
FFFFFFFFFFFFFFFFFFFFFFFFFFFFFFFFF000FFFFFFFFFFFFFFFFFFFFFFFFFFFF
310
FFFFFFFFFFFFFFFFFFFFFFFFFFFFFFFFFFFFFFFFFFFFFFFFFFFFFFFFFFFFFFFF
310
FFFFFFFFFFFFFFFFFFFFFFFFFFFFFFFFFFFFFFFFFFFFFFFFFFFFFFFFFFFFFFFF
310
FFFFFFFFFFFFFFFFF000FFFFFFFFFFFFFFFFFFFFFFFFFFFFFFFFFFFFFFFFFFFF
310
FFFFFFFFFFFFFFFFFFFFFFFFFFFFFFFFFFFFFFFFFFFFFFFFFFFFFFFFFFFFFFFF
310
FFFFFFFFFFFFFFFFFFFFFFFFFFFFFFFFFFFFFFFFFFFFFFFFFFFFFFFFFFFFFFFF
310
F000FFFFFFFFFFFFFFFFFFFFFFFFFFFFFFFFFFFFFFFFFFFFFFFFFFFFFFFFFFFF
310
FFFFFFFFFFFFFFFFFFFFFFFFFFFFFFFFFFFFFFFFFFFFFFFFFFFFFFFFFFFFFFFF
310
FFFFFFFFFFFFFFFFFFFFFFFFFFFFFFFFFFFFFFFFFFFFFFFFF000FFFFFFFFFFFF
310
FFFFFFFFFFFFFFFFFFFFFFFFFFFFFFFFFFFFFFFFFFFFFFFFFFFFFFFFFFFFFFFF
310
FFFFFFFFFFFFFFFFFFFFFFFFFFFFFFFFFFFFFFFFFFFFFFFFFFFFFFFFFFFFFFFF
310
FFFFFFFFFFFFFFFFFFFFFFFFFFFFFFFFF000FFFFFFFFFFFFFFFFFFFFFFFFFFFF
310
FFFFFFFFFFFFFFFFFFFFFFFFFFFFFFFFFFFFFFFFFFFFFFFFFFFFFFFFFFFFFFFF
310
FFFFFFFFFFFFFFFFFFFFFFFFFFFFFFFFFFFFFFFFFFFFFFFFFFFFFFFFFFFFFFFF
310
FFFFFFFFFFFFFFFFF000FFFFFFFFFFFFFFFFFFFFFFFFFFFFFFFFFFFFFFFFFFFF
310
FFFFFFFFFFFFFFFFFFFFFFFFFFFFFFFFFFFFFFFFFFFFFFFFFFFFFFFFFFFFFFFF
310
FFFFFFFFFFFFFFFFFFFFFFFFFFFFFFFFFFFFFFFFFFFFFFFFFFFFFFFFFFFFFFFF
310
F000FFFFFFFFFFFFFFFFFFFFFFFFFFFFFFFFFFFFFFFFFFFFFFFFFFFFFFFFFFFF
310
FFFFFFFFFFFFFFFFFFFFFFFFFFFFFFFFFFFFFFFFFFFFFFFFFFFFFFFFFFFFFFFF
310
FFFFFFFFFFFFFFFFFFFFFFFFFFFFFFFFFFFFFFFFFFFFFFFFF000FFFFFFFFFFFF
310
FFFFFFFFFFFFFFFFFFFFFFFFFFFFFFFFFFFFFFFFFFFFFFFFFFFFFFFFFFFFFFFF
310
FFFFFFFFFFFFFFFFFFFFFFFFFFFFFFFFFFFFFFFFFFFFFFFFFFFFFFFFFFFFFFFF
310
FFFFFFFFFFFFFFFFFFFFFFFFFFFFFFFFF000FFFFFFFFFFFFFFFFFFFFFFFFFFFF
310
FFFFFFFFFFFFFFFFFFFFFFFFFFFFFFFFFFFFFFFFFFFFFFFFFFFFFFFFFFFFFFFF
310
FFFFFFFFFFFFFFFFFFFFFFFFFFFFFFFFFFFFFFFFFFFFFFFFFFFFFFFFFFFFFFFF
310
FFFFFFFFFFFFFFFFF000FFFFFFFFFFFFFFFFFFFFFFFFFFFFFFFFFFFFFFFFFFFF
310
FFFFFFFFFFFFFFFFFFFFFFFFFFFFFFFFFFFFFFFFFFFFFFFFFFFFFFFFFFFFFFFF
310
FFFFFFFFFFFFFFFFFFFFFFFFFFFFFFFFFFFFFFFFFFFFFFFFFFFFFFFFFFFFFFFF
310
F000FFFFFFFFFFFFFFFFFFFFFFFFFFFFFFFFFFFFFFFFFFFFFFFFFFFFFFFFFFFF
310
FFFFFFFFFFFFFFFFFFFFFFFFFFFFFFFFFFFFFFFFFFFFFFFFFFFFFFFFFFFFFFFF
310
FFFFFFFFFFFFFFFFFFFFFFFFFFFFFFFFFFFFFFFFFFFFFFFFF000FFFFFFFFFFFF
310
FFFFFFFFFFFFFFFFFFFFFFFFFFFFFFFFFFFFFFFFFFFFFFFFFFFFFFFFFFFFFFFF
310
FFFFFFFFFFFFFFFFFFFFFFFFFFFFFFFFFFFFFFFFFFFFFFFFFFFFFFFFFFFFFFFF
310
FFFFFFFFFFFFFFFFFFFFFFFFFFFFFFFFF000FFFFFFFFFFFFFFFFFFFFFFFFFFFF
310
FFFFFFFFFFFFFFFFFFFFFFFFFFFFFFFFFFFFFFFFFFFFFFFFFFFFFFFFFFFFFFFF
310
FFFFFFFFFFFFFFFFFFFFFFFFFFFFFFFFFFFFFFFFFFFFFFFFFFFFFFFFFFFFFFFF
310
FFFFFFFFFFFFFFFFF000FFFFFFFFFFFFFFFFFFFFFFFFFFFFFFFFFFFFFFFFFFFF
310
FFFFFFFFFFFFFFFFFFFFFFFFFFFFFFFFFFFFFFFFFFFFFFFFFFFFFFFFFFFFFFFF
310
FFFFFFFFFFFFFFFFFFFFFFFFFFFFFFFFFFFFFFFFFFFFFFFFFFFFFFFFFFFFFFFF
310
F000FFFFFFFFFFFFFFFFFFFFFFFFFFFFFFFFFFFFFFFFFFFFFFFFFFFFFFFFFFFF
310
FFFFFFFFFFFFFFFFFFFFFFFFFFFFFFFFFFFFFFFFFFFFFFFFFFFFFFFFFFFFFFFF
310
FFFFFFFFFFFFFFFFFFFFFFFFFFFFFFFFFFFFFFFFFFFFFFFFF000FFFFFFFFFFFF
310
FFFFFFFFFFFFFFFFFFFFFFFFFFFFFFFFFFFFFFFFFFFFFFFFFFFFFFFFFFFFFFFF
310
FFFFFFFFFFFFFFFFFFFFFFFFFFFFFFFFFFFFFFFFFFFFFFFFFFFFFFFFFFFFFFFF
310
FFFFFFFFFFFFFFFFFFFFFFFFFFFFFFFFF0000000000000000000000000000000
310
0000000000000000000000000000000000000000000000000000000000000000
310
0000000000000000000000000000000000000000000000000000000000000000
310
0000000000000000000000000000000000000000000000000000000000000000
310
0000000000000000000000000000000000000000000000000000000000000000
310
0000000000000000000000000000000000000000000000000000000000000000
310
0000000000000000000000000000000000000000000000000000000000000000
310
0000000000000000000000000000000000000000000000000000000000000000
310
0000000000000000000000000000000000000000000000000000000000000000
310
0000000000000000000000000000000000000000000000000000000000000000
310
0000000000000000000000000000000000000000000000000000000000000000
310
0000000000000000000000000000000000000000000000000000000000000000
310
0000000000000000000000000000000000000000000000000000000000000000
310
0000000000000000000000000000000000000000000000000000000000000000
310
0000000000000000000000000000000000000000000000000000000000000000
310
0000000000000000000000000000000000000000000000000000000000000000
  1
OLE
  0
ENDSEC
  0
SECTION
  2
OBJECTS
  0
DICTIONARY
  5
C
330
0
100
AcDbDictionary
281
     1
  3
ACAD_GROUP
350
D
  3
ACAD_LAYOUT
350
1A
  3
ACAD_MLINESTYLE
350
17
  3
ACAD_PLOTSETTINGS
350
19
  3
ACAD_PLOTSTYLENAME
350
E
  3
ACAD_SCALELIST
350
47
  0
DICTIONARY
  5
D
102
{ACAD_REACTORS
330
C
102
}
330
C
100
AcDbDictionary
281
     1
  0
DICTIONARY
  5
1A
102
{ACAD_REACTORS
330
C
102
}
330
C
100
AcDbDictionary
281
     1
  3
Layout1
350
1E
  3
Layout2
350
26
  3
Model
350
22
  0
DICTIONARY
  5
17
102
{ACAD_REACTORS
330
C
102
}
330
C
100
AcDbDictionary
281
     1
  3
Standard
350
18
  0
DICTIONARY
  5
19
102
{ACAD_REACTORS
330
C
102
}
330
C
100
AcDbDictionary
281
     1
  0
ACDBDICTIONARYWDFLT
  5
E
102
{ACAD_REACTORS
330
C
102
}
330
C
100
AcDbDictionary
281
     1
  3
Normal
350
F
100
AcDbDictionaryWithDefault
340
F
  0
DICTIONARY
  5
47
102
{ACAD_REACTORS
330
C
102
}
330
C
100
AcDbDictionary
281
     1
  3
A0
350
48
  3
A1
350
49
  3
A2
350
4A
  3
A3
350
4B
  3
A4
350
4C
  3
A5
350
4D
  3
A6
350
4E
  3
A7
350
4F
  3
A8
350
50
  3
A9
350
51
  3
B0
350
52
  3
B1
350
53
  3
B2
350
54
  3
B3
350
55
  3
B4
350
56
  3
B5
350
57
  3
B6
350
58
  3
B7
350
59
  3
B8
350
5A
  3
B9
350
5B
  3
C0
350
5C
  3
C1
350
5D
  3
C2
350
5E
  3
C3
350
5F
  3
C4
350
60
  3
C5
350
61
  3
C6
350
62
  3
C7
350
63
  3
C8
350
64
  3
C9
350
65
  3
D0
350
66
  3
D1
350
67
  3
D2
350
68
  0
LAYOUT
  5
1E
102
{ACAD_REACTORS
330
1A
102
}
330
1A
100
AcDbPlotSettings
  1

  2
none_device
  4

  6

 40
0.0
 41
0.0
 42
0.0
 43
0.0
 44
0.0
 45
0.0
 46
0.0
 47
0.0
 48
0.0
 49
0.0
140
0.0
141
0.0
142
1.0
143
1.0
 70
   688
 72
     1
 73
     0
 74
     5
  7

 75
    16
147
1.0
148
0.0
149
0.0
100
AcDbLayout
  1
Layout1
 70
     1
 71
     1
 10
0.0
 20
0.0
 11
420.0
 21
297.0
 12
0.0
 22
0.0
 32
0.0
 14
1.0000000000E+20
 24
1.0000000000E+20
 34
1.0000000000E+20
 15
-1.0000000000E+20
 25
-1.0000000000E+20
 35
-1.0000000000E+20
146
0.0
 13
0.0
 23
0.0
 33
0.0
 16
1.0
 26
0.0
 36
0.0
 17
0.0
 27
1.0
 37
0.0
 76
     0
330
1B
  0
LAYOUT
  5
26
102
{ACAD_REACTORS
330
1A
102
}
330
1A
100
AcDbPlotSettings
  1

  2
none_device
  4

  6

 40
0.0
 41
0.0
 42
0.0
 43
0.0
 44
0.0
 45
0.0
 46
0.0
 47
0.0
 48
0.0
 49
0.0
140
0.0
141
0.0
142
1.0
143
1.0
 70
   688
 72
     1
 73
     0
 74
     5
  7

 75
    16
147
1.0
148
0.0
149
0.0
100
AcDbLayout
  1
Layout2
 70
     1
 71
     2
 10
0.0
 20
0.0
 11
0.0
 21
0.0
 12
0.0
 22
0.0
 32
0.0
 14
0.0
 24
0.0
 34
0.0
 15
0.0
 25
0.0
 35
0.0
146
0.0
 13
0.0
 23
0.0
 33
0.0
 16
1.0
 26
0.0
 36
0.0
 17
0.0
 27
1.0
 37
0.0
 76
     0
330
23
  0
LAYOUT
  5
22
102
{ACAD_REACTORS
330
1A
102
}
330
1A
100
AcDbPlotSettings
  1

  2
none_device
  4
Letter_(8.50_x_11.00_Inches)
  6

 40
6.35
 41
6.35
 42
6.35000508
 43
6.35000508
 44
215.9
 45
279.4
 46
0.0
 47
0.0
 48
0.0
 49
0.0
140
0.0
141
0.0
142
1.0
143
1.0
 70
  1712
 72
     1
 73
     0
 74
     0
  7

 75
     0
147
1.0
148
0.0
149
0.0
100
AcDbLayout
  1
Model
 70
     1
 71
     0
 10
0.0
 20
0.0
 11
297.0
 21
210.0
 12
0.0
 22
0.0
 32
0.0
 14
0.0
 24
0.0
 34
0.0
 15
297.0
 25
210.0
 35
0.0
146
0.0
 13
0.0
 23
0.0
 33
0.0
 16
1.0
 26
0.0
 36
0.0
 17
0.0
 27
1.0
 37
0.0
 76
     0
330
1F
331
29
  0
MLINESTYLE
  5
18
102
{ACAD_REACTORS
330
17
102
}
330
17
100
AcDbMlineStyle
  2
Standard
 70
     0
  3

 62
   256
 51
90.0
 52
90.0
 71
     2
 49
0.5
 62
   256
  6
BYLAYER
 49
-0.5
 62
   256
  6
BYLAYER
  0
ACDBPLACEHOLDER
  5
F
102
{ACAD_REACTORS
330
E
102
}
330
E
  0
SCALE
  5
48
102
{ACAD_REACTORS
330
47
102
}
330
47
100
AcDbScale
 70
     0
300
1:1
140
1.0
141
1.0
290
     1
  0
SCALE
  5
49
102
{ACAD_REACTORS
330
47
102
}
330
47
100
AcDbScale
 70
     0
300
1:2
140
1.0
141
2.0
290
     0
  0
SCALE
  5
4A
102
{ACAD_REACTORS
330
47
102
}
330
47
100
AcDbScale
 70
     0
300
1:4
140
1.0
141
4.0
290
     0
  0
SCALE
  5
4B
102
{ACAD_REACTORS
330
47
102
}
330
47
100
AcDbScale
 70
     0
300
1:5
140
1.0
141
5.0
290
     0
  0
SCALE
  5
4C
102
{ACAD_REACTORS
330
47
102
}
330
47
100
AcDbScale
 70
     0
300
1:8
140
1.0
141
8.0
290
     0
  0
SCALE
  5
4D
102
{ACAD_REACTORS
330
47
102
}
330
47
100
AcDbScale
 70
     0
300
1:10
140
1.0
141
10.0
290
     0
  0
SCALE
  5
4E
102
{ACAD_REACTORS
330
47
102
}
330
47
100
AcDbScale
 70
     0
300
1:16
140
1.0
141
16.0
290
     0
  0
SCALE
  5
4F
102
{ACAD_REACTORS
330
47
102
}
330
47
100
AcDbScale
 70
     0
300
1:20
140
1.0
141
20.0
290
     0
  0
SCALE
  5
50
102
{ACAD_REACTORS
330
47
102
}
330
47
100
AcDbScale
 70
     0
300
1:30
140
1.0
141
30.0
290
     0
  0
SCALE
  5
51
102
{ACAD_REACTORS
330
47
102
}
330
47
100
AcDbScale
 70
     0
300
1:40
140
1.0
141
40.0
290
     0
  0
SCALE
  5
52
102
{ACAD_REACTORS
330
47
102
}
330
47
100
AcDbScale
 70
     0
300
1:50
140
1.0
141
50.0
290
     0
  0
SCALE
  5
53
102
{ACAD_REACTORS
330
47
102
}
330
47
100
AcDbScale
 70
     0
300
1:100
140
1.0
141
100.0
290
     0
  0
SCALE
  5
54
102
{ACAD_REACTORS
330
47
102
}
330
47
100
AcDbScale
 70
     0
300
2:1
140
2.0
141
1.0
290
     0
  0
SCALE
  5
55
102
{ACAD_REACTORS
330
47
102
}
330
47
100
AcDbScale
 70
     0
300
4:1
140
4.0
141
1.0
290
     0
  0
SCALE
  5
56
102
{ACAD_REACTORS
330
47
102
}
330
47
100
AcDbScale
 70
     0
300
8:1
140
8.0
141
1.0
290
     0
  0
SCALE
  5
57
102
{ACAD_REACTORS
330
47
102
}
330
47
100
AcDbScale
 70
     0
300
10:1
140
10.0
141
1.0
290
     0
  0
SCALE
  5
58
102
{ACAD_REACTORS
330
47
102
}
330
47
100
AcDbScale
 70
     0
300
100:1
140
100.0
141
1.0
290
     0
  0
SCALE
  5
59
102
{ACAD_REACTORS
330
47
102
}
330
47
100
AcDbScale
 70
     0
300
1/128" = 1'-0"
140
0.0078125
141
12.0
290
     0
  0
SCALE
  5
5A
102
{ACAD_REACTORS
330
47
102
}
330
47
100
AcDbScale
 70
     0
300
1/64" = 1'-0"
140
0.015625
141
12.0
290
     0
  0
SCALE
  5
5B
102
{ACAD_REACTORS
330
47
102
}
330
47
100
AcDbScale
 70
     0
300
1/32" = 1'-0"
140
0.03125
141
12.0
290
     0
  0
SCALE
  5
5C
102
{ACAD_REACTORS
330
47
102
}
330
47
100
AcDbScale
 70
     0
300
1/16" = 1'-0"
140
0.0625
141
12.0
290
     0
  0
SCALE
  5
5D
102
{ACAD_REACTORS
330
47
102
}
330
47
100
AcDbScale
 70
     0
300
3/32" = 1'-0"
140
0.09375
141
12.0
290
     0
  0
SCALE
  5
5E
102
{ACAD_REACTORS
330
47
102
}
330
47
100
AcDbScale
 70
     0
300
1/8" = 1'-0"
140
0.125
141
12.0
290
     0
  0
SCALE
  5
5F
102
{ACAD_REACTORS
330
47
102
}
330
47
100
AcDbScale
 70
     0
300
3/16" = 1'-0"
140
0.1875
141
12.0
290
     0
  0
SCALE
  5
60
102
{ACAD_REACTORS
330
47
102
}
330
47
100
AcDbScale
 70
     0
300
1/4" = 1'-0"
140
0.25
141
12.0
290
     0
  0
SCALE
  5
61
102
{ACAD_REACTORS
330
47
102
}
330
47
100
AcDbScale
 70
     0
300
3/8" = 1'-0"
140
0.375
141
12.0
290
     0
  0
SCALE
  5
62
102
{ACAD_REACTORS
330
47
102
}
330
47
100
AcDbScale
 70
     0
300
1/2" = 1'-0"
140
0.5
141
12.0
290
     0
  0
SCALE
  5
63
102
{ACAD_REACTORS
330
47
102
}
330
47
100
AcDbScale
 70
     0
300
3/4" = 1'-0"
140
0.75
141
12.0
290
     0
  0
SCALE
  5
64
102
{ACAD_REACTORS
330
47
102
}
330
47
100
AcDbScale
 70
     0
300
1" = 1'-0"
140
1.0
141
12.0
290
     0
  0
SCALE
  5
65
102
{ACAD_REACTORS
330
47
102
}
330
47
100
AcDbScale
 70
     0
300
1-1/2" = 1'-0"
140
1.5
141
12.0
290
     0
  0
SCALE
  5
66
102
{ACAD_REACTORS
330
47
102
}
330
47
100
AcDbScale
 70
     0
300
3" = 1'-0"
140
3.0
141
12.0
290
     0
  0
SCALE
  5
67
102
{ACAD_REACTORS
330
47
102
}
330
47
100
AcDbScale
 70
     0
300
6" = 1'-0"
140
6.0
141
12.0
290
     0
  0
SCALE
  5
68
102
{ACAD_REACTORS
330
47
102
}
330
47
100
AcDbScale
 70
     0
300
1'-0" = 1'-0"
140
12.0
141
12.0
290
     0
  0
ENDSEC
  0
EOF
