  0
SECTION
  2
HEADER
  9
$ACADVER
  1
AC1015
  9
$ACADMAINTVER
 70
     6
  9
$DWGCODEPAGE
  3
ANSI_1252
  9
$INSBASE
 10
0.0
 20
0.0
 30
0.0
  9
$EXTMIN
 10
0.0
 20
0.0
 30
0.0
  9
$EXTMAX
 10
297.0
 20
210.0
 30
0.0
  9
$LIMMIN
 10
0.0
 20
0.0
  9
$LIMMAX
 10
297.0
 20
210.0
  9
$ORTHOMODE
 70
     0
  9
$REGENMODE
 70
     1
  9
$FILLMODE
 70
     1
  9
$QTEXTMODE
 70
     0
  9
$MIRRTEXT
 70
     1
  9
$LTSCALE
 40
1.0
  9
$ATTMODE
 70
     1
  9
$TEXTSIZE
 40
2.0
  9
$TRACEWID
 40
1.0
  9
$TEXTSTYLE
  7
Standard
  9
$CLAYER
  8
0
  9
$CELTYPE
  6
ByLayer
  9
$CECOLOR
 62
   256
  9
$CELTSCALE
 40
1.0
  9
$DISPSILH
 70
     0
  9
$DIMSCALE
 40
1.0
  9
$DIMASZ
 40
3.0
  9
$DIMEXO
 40
0.0
  9
$DIMDLI
 40
3.75
  9
$DIMRND
 40
0.0
  9
$DIMDLE
 40
0.0
  9
$DIMEXE
 40
1.0
  9
$DIMTP
 40
0.0
  9
$DIMTM
 40
0.0
  9
$DIMTXT
 40
2.0
  9
$DIMCEN
 40
2.5
  9
$DIMTSZ
 40
0.0
  9
$DIMTOL
 70
     0
  9
$DIMLIM
 70
     0
  9
$DIMTIH
 70
     1
  9
$DIMTOH
 70
     1
  9
$DIMSE1
 70
     0
  9
$DIMSE2
 70
     0
  9
$DIMTAD
 70
     1
  9
$DIMZIN
 70
     0
  9
$DIMBLK
  1

  9
$DIMASO
 70
     1
  9
$DIMSHO
 70
     1
  9
$DIMPOST
  1

  9
$DIMAPOST
  1

  9
$DIMALT
 70
     0
  9
$DIMALTD
 70
     3
  9
$DIMALTF
 40
0.0393700787
  9
$DIMLFAC
 40
1.0
  9
$DIMTOFL
 70
     1
  9
$DIMTVP
 40
0.0
  9
$DIMTIX
 70
     0
  9
$DIMSOXD
 70
     0
  9
$DIMSAH
 70
     0
  9
$DIMBLK1
  1

  9
$DIMBLK2
  1

  9
$DIMSTYLE
  2
ISO-25
  9
$DIMCLRD
 70
     0
  9
$DIMCLRE
 70
     0
  9
$DIMCLRT
 70
     0
  9
$DIMTFAC
 40
1.0
  9
$DIMGAP
 40
1.524
  9
$DIMJUST
 70
     0
  9
$DIMSD1
 70
     0
  9
$DIMSD2
 70
     0
  9
$DIMTOLJ
 70
     0
  9
$DIMTZIN
 70
     0
  9
$DIMALTZ
 70
     0
  9
$DIMALTTZ
 70
     0
  9
$DIMUPT
 70
     0
  9
$DIMDEC
 70
     2
  9
$DIMTDEC
 70
     3
  9
$DIMALTU
 70
     2
  9
$DIMALTTD
 70
     3
  9
$DIMTXSTY
  7
Standard
  9
$DIMAUNIT
 70
     0
  9
$DIMADEC
 70
     2
  9
$DIMALTRND
 40
0.0
  9
$DIMAZIN
 70
     0
  9
$DIMDSEP
 70
    44
  9
$DIMATFIT
 70
     3
  9
$DIMFRAC
 70
     0
  9
$DIMLDRBLK
  1

  9
$DIMLUNIT
 70
     2
  9
$DIMLWD
 70
    -2
  9
$DIMLWE
 70
    -2
  9
$DIMTMOVE
 70
     0
  9
$LUNITS
 70
     2
  9
$LUPREC
 70
     2
  9
$SKETCHINC
 40
1.0
  9
$FILLETRAD
 40
10.0
  9
$AUNITS
 70
     0
  9
$AUPREC
 70
     2
  9
$MENU
  1
.
  9
$ELEVATION
 40
0.0
  9
$PELEVATION
 40
0.0
  9
$THICKNESS
 40
0.0
  9
$LIMCHECK
 70
     0
  9
$CHAMFERA
 40
0.0
  9
$CHAMFERB
 40
0.0
  9
$CHAMFERC
 40
0.0
  9
$CHAMFERD
 40
0.0
  9
$SKPOLY
 70
     0
  9
$TDCREATE
 40
2457669.441844572
  9
$TDUCREATE
 40
2457669.358511238
  9
$TDUPDATE
 40
2457669.441845787
  9
$TDUUPDATE
 40
2457669.358512454
  9
$TDINDWG
 40
0.0000000116
  9
$TDUSRTIMER
 40
0.0000000116
  9
$USRTIMER
 70
     1
  9
$ANGBASE
 50
0.0
  9
$ANGDIR
 70
     0
  9
$PDMODE
 70
     0
  9
$PDSIZE
 40
-1.0
  9
$PLINEWID
 40
0.0
  9
$SPLFRAME
 70
     0
  9
$SPLINETYPE
 70
     6
  9
$SPLINESEGS
 70
     8
  9
$HANDSEED
  5
201
  9
$SURFTAB1
 70
     6
  9
$SURFTAB2
 70
     6
  9
$SURFTYPE
 70
     6
  9
$SURFU
 70
     6
  9
$SURFV
 70
     6
  9
$UCSBASE
  2

  9
$UCSNAME
  2

  9
$UCSORG
 10
0.0
 20
0.0
 30
0.0
  9
$UCSXDIR
 10
1.0
 20
0.0
 30
0.0
  9
$UCSYDIR
 10
0.0
 20
1.0
 30
0.0
  9
$UCSORTHOREF
  2

  9
$UCSORTHOVIEW
 70
     0
  9
$UCSORGTOP
 10
0.0
 20
0.0
 30
0.0
  9
$UCSORGBOTTOM
 10
0.0
 20
0.0
 30
0.0
  9
$UCSORGLEFT
 10
0.0
 20
0.0
 30
0.0
  9
$UCSORGRIGHT
 10
0.0
 20
0.0
 30
0.0
  9
$UCSORGFRONT
 10
0.0
 20
0.0
 30
0.0
  9
$UCSORGBACK
 10
0.0
 20
0.0
 30
0.0
  9
$PUCSBASE
  2

  9
$PUCSNAME
  2

  9
$PUCSORG
 10
0.0
 20
0.0
 30
0.0
  9
$PUCSXDIR
 10
1.0
 20
0.0
 30
0.0
  9
$PUCSYDIR
 10
0.0
 20
1.0
 30
0.0
  9
$PUCSORTHOREF
  2

  9
$PUCSORTHOVIEW
 70
     0
  9
$PUCSORGTOP
 10
0.0
 20
0.0
 30
0.0
  9
$PUCSORGBOTTOM
 10
0.0
 20
0.0
 30
0.0
  9
$PUCSORGLEFT
 10
0.0
 20
0.0
 30
0.0
  9
$PUCSORGRIGHT
 10
0.0
 20
0.0
 30
0.0
  9
$PUCSORGFRONT
 10
0.0
 20
0.0
 30
0.0
  9
$PUCSORGBACK
 10
0.0
 20
0.0
 30
0.0
  9
$USERI1
 70
     0
  9
$USERI2
 70
     0
  9
$USERI3
 70
     0
  9
$USERI4
 70
     0
  9
$USERI5
 70
     0
  9
$USERR1
 40
0.0
  9
$USERR2
 40
0.0
  9
$USERR3
 40
0.0
  9
$USERR4
 40
0.0
  9
$USERR5
 40
0.0
  9
$WORLDVIEW
 70
     1
  9
$SHADEDGE
 70
     3
  9
$SHADEDIF
 70
    70
  9
$TILEMODE
 70
     1
  9
$MAXACTVP
 70
    64
  9
$PINSBASE
 10
0.0
 20
0.0
 30
0.0
  9
$PLIMCHECK
 70
     0
  9
$PEXTMIN
 10
1.0000000000E+20
 20
1.0000000000E+20
 30
1.0000000000E+20
  9
$PEXTMAX
 10
-1.0000000000E+20
 20
-1.0000000000E+20
 30
-1.0000000000E+20
  9
$PLIMMIN
 10
0.0
 20
0.0
  9
$PLIMMAX
 10
420.0
 20
297.0
  9
$UNITMODE
 70
     0
  9
$VISRETAIN
 70
     1
  9
$PLINEGEN
 70
     0
  9
$PSLTSCALE
 70
     1
  9
$TREEDEPTH
 70
  3020
  9
$CMLSTYLE
  2
Standard
  9
$CMLJUST
 70
     0
  9
$CMLSCALE
 40
20.0
  9
$PROXYGRAPHICS
 70
     1
  9
$MEASUREMENT
 70
     1
  9
$CELWEIGHT
370
    -1
  9
$ENDCAPS
280
     0
  9
$JOINSTYLE
280
     0
  9
$LWDISPLAY
290
     1
  9
$INSUNITS
 70
     4
  9
$HYPERLINKBASE
  1

  9
$STYLESHEET
  1

  9
$XEDIT
290
     1
  9
$CEPSNTYPE
380
     0
  9
$PSTYLEMODE
290
     1
  9
$FINGERPRINTGUID
  2
{FDD54ED6-FC54-44D3-8004-3339D037F105}
  9
$VERSIONGUID
  2
{FAEB1C32-E019-11D5-929B-00C0DF256EC4}
  9
$EXTNAMES
290
     1
  9
$PSVPSCALE
 40
0.0
  9
$OLESTARTUP
290
     0
  0
ENDSEC
  0
SECTION
  2
CLASSES
  0
CLASS
  1
ACDBDICTIONARYWDFLT
  2
AcDbDictionaryWithDefault
  3
ObjectDBX Classes
 90
        0
280
     0
281
     0
  0
CLASS
  1
VISUALSTYLE
  2
AcDbVisualStyle
  3
ObjectDBX Classes
 90
     4095
280
     0
281
     0
  0
CLASS
  1
MATERIAL
  2
AcDbMaterial
  3
ObjectDBX Classes
 90
     1153
280
     0
281
     0
  0
CLASS
  1
SCALE
  2
AcDbScale
  3
ObjectDBX Classes
 90
     1153
280
     0
281
     0
  0
CLASS
  1
TABLESTYLE
  2
AcDbTableStyle
  3
ObjectDBX Classes
 90
     4095
280
     0
281
     0
  0
CLASS
  1
MLEADERSTYLE
  2
AcDbMLeaderStyle
  3
ACDB_MLEADERSTYLE_CLASS
 90
     4095
280
     0
281
     0
  0
CLASS
  1
SUN
  2
AcDbSun
  3
SCENEOE
 90
     1153
280
     0
281
     0
  0
CLASS
  1
ACDBPLACEHOLDER
  2
AcDbPlaceHolder
  3
ObjectDBX Classes
 90
        0
280
     0
281
     0
  0
CLASS
  1
LAYOUT
  2
AcDbLayout
  3
ObjectDBX Classes
 90
        0
280
     0
281
     0
  0
ENDSEC
  0
SECTION
  2
TABLES
  0
TABLE
  2
VPORT
  5
8
330
0
100
AcDbSymbolTable
 70
     1
  0
VPORT
  5
29
330
8
100
AcDbSymbolTableRecord
100
AcDbViewportTableRecord
  2
*Active
 70
     0
 10
0.0
 20
0.0
 11
1.0
 21
1.0
 12
148.5
 22
105.0
 13
0.0
 23
0.0
 14
10.0
 24
10.0
 15
10.0
 25
10.0
 16
0.0
 26
0.0
 36
1.0
 17
0.0
 27
0.0
 37
0.0
 40
210.0
 41
1.4142857143
 42
50.0
 43
0.0
 44
0.0
 50
0.0
 51
0.0
 71
     0
 72
  2000
 73
     1
 74
     3
 75
     0
 76
     0
 77
     0
 78
     0
281
     0
 65
     1
110
0.0
120
0.0
130
0.0
111
1.0
121
0.0
131
0.0
112
0.0
122
1.0
132
0.0
 79
     0
146
0.0
  0
ENDTAB
  0
TABLE
  2
LTYPE
  5
5
330
0
100
AcDbSymbolTable
 70
     6
  0
LTYPE
  5
14
330
5
100
AcDbSymbolTableRecord
100
AcDbLinetypeTableRecord
  2
ByBlock
 70
     0
  3

 72
    65
 73
     0
 40
0.0
  0
LTYPE
  5
15
330
5
100
AcDbSymbolTableRecord
100
AcDbLinetypeTableRecord
  2
ByLayer
 70
     0
  3

 72
    65
 73
     0
 40
0.0
  0
LTYPE
  5
16
330
5
100
AcDbSymbolTableRecord
100
AcDbLinetypeTableRecord
  2
Continuous
 70
     0
  3
Solid line
 72
    65
 73
     0
 40
0.0
  0
LTYPE
  5
6E
330
5
100
AcDbSymbolTableRecord
100
AcDbLinetypeTableRecord
  2
HIDDEN
 70
     0
  3
Hidden __ __ __ __ __ __ __ __ __ __ __ __ __ __
 72
    65
 73
     2
 40
1.905
 49
1.27
 74
     0
 49
-0.635
 74
     0
  0
LTYPE
  5
6F
330
5
100
AcDbSymbolTableRecord
100
AcDbLinetypeTableRecord
  2
PHANTOM
 70
     0
  3
Phantom ______  __  __  ______  __  __  ______
 72
    65
 73
     6
 40
12.7
 49
6.35
 74
     0
 49
-1.27
 74
     0
 49
1.27
 74
     0
 49
-1.27
 74
     0
 49
1.27
 74
     0
 49
-1.27
 74
     0
  0
LTYPE
  5
70
330
5
100
AcDbSymbolTableRecord
100
AcDbLinetypeTableRecord
  2
CENTER
 70
     0
  3
Center ____ _ ____ _ ____ _ ____ _ ____ _ ____
 72
    65
 73
     4
 40
10.16
 49
6.35
 74
     0
 49
-1.27
 74
     0
 49
1.27
 74
     0
 49
-1.27
 74
     0
  0
LTYPE
  5
71
330
5
100
AcDbSymbolTableRecord
100
AcDbLinetypeTableRecord
  2
CENTERX2
 70
     0
  3
Center (2x) ________  __  ________  __  _____
 72
    65
 73
     4
 40
20.32
 49
12.7
 74
     0
 49
-2.54
 74
     0
 49
2.54
 74
     0
 49
-2.54
 74
     0
  0
LTYPE
  5
72
330
5
100
AcDbSymbolTableRecord
100
AcDbLinetypeTableRecord
  2
DOT2
 70
     0
  3
Dot (.5x) ........................................
 72
    65
 73
     2
 40
0.635
 49
0.0
 74
     0
 49
-0.635
 74
     0
  0
ENDTAB
  0
TABLE
  2
LAYER
  5
2
330
0
100
AcDbSymbolTable
 70
     5
  0
LAYER
  5
10
330
2
100
AcDbSymbolTableRecord
100
AcDbLayerTableRecord
  2
0
 70
     0
 62
     7
  6
Continuous
370
    -3
390
F
  0
LAYER
  5
73
330
2
100
AcDbSymbolTableRecord
100
AcDbLayerTableRecord
  2
FORMAT
 70
     0
 62
     7
  6
Continuous
370
    -3
390
F
  0
LAYER
  5
74
330
2
100
AcDbSymbolTableRecord
100
AcDbLayerTableRecord
  2
VERMASSUNG
 70
     0
 62
     7
  6
Continuous
370
    -3
390
F
  0
LAYER
  5
75
330
2
100
AcDbSymbolTableRecord
100
AcDbLayerTableRecord
  2
KOPF_DÜNN
 70
     0
 62
     7
  6
Continuous
370
    -3
390
F
  0
LAYER
  5
76
330
2
100
AcDbSymbolTableRecord
100
AcDbLayerTableRecord
  2
KOPF_DICK
 70
     0
 62
     7
  6
Continuous
370
    15
390
F
  0
ENDTAB
  0
TABLE
  2
STYLE
  5
3
330
0
100
AcDbSymbolTable
 70
     3
  0
STYLE
  5
11
330
3
100
AcDbSymbolTableRecord
100
AcDbTextStyleTableRecord
  2
Standard
 70
     0
 40
0.0
 41
1.0
 50
0.0
 71
     0
 42
2.0
  3
txt
  4

  0
STYLE
  5
77
330
3
100
AcDbSymbolTableRecord
100
AcDbTextStyleTableRecord
  2
SLDTEXTSTYLE0
 70
     0
 40
0.0
 41
0.7
 50
0.0
 71
     0
 42
2.0
  3
TXT
  4

  0
STYLE
  5
7B
330
3
100
AcDbSymbolTableRecord
100
AcDbTextStyleTableRecord
  2
SLDTEXTSTYLE1
 70
     0
 40
0.0
 41
0.6538461538
 50
0.0
 71
     0
 42
2.0
  3
TXT
  4

  0
ENDTAB
  0
TABLE
  2
VIEW
  5
6
330
0
100
AcDbSymbolTable
 70
     0
  0
ENDTAB
  0
TABLE
  2
UCS
  5
7
330
0
100
AcDbSymbolTable
 70
     0
  0
ENDTAB
  0
TABLE
  2
APPID
  5
9
330
0
100
AcDbSymbolTable
 70
     1
  0
APPID
  5
12
330
9
100
AcDbSymbolTableRecord
100
AcDbRegAppTableRecord
  2
ACAD
 70
     0
  0
ENDTAB
  0
TABLE
  2
DIMSTYLE
  5
A
330
0
100
AcDbSymbolTable
 70
     2
100
AcDbDimStyleTable
  0
DIMSTYLE
105
27
330
A
100
AcDbSymbolTableRecord
100
AcDbDimStyleTableRecord
  2
ISO-25
 70
     0
 41
2.5
 42
0.625
 43
3.75
 44
1.25
 73
     0
 74
     0
 77
     1
 78
     8
140
2.5
141
2.5
143
0.0393700787
147
0.625
171
     3
172
     1
178
     0
271
     2
272
     2
274
     3
278
    44
283
     0
284
     8
340
11
  0
DIMSTYLE
105
128
102
{ACAD_REACTORS
330
127
330
134
330
13F
330
14B
330
155
330
161
102
}
330
A
100
AcDbSymbolTableRecord
100
AcDbDimStyleTableRecord
  2
SLDDIMSTYLE0
 70
     0
 41
3.0
 44
0.0
 45
0.000000001
 73
     0
 74
     0
 77
     1
 78
    12
 79
     3
140
2.0
147
0.5
173
     1
178
     0
271
     2
272
     3
276
     2
284
    12
340
77
  0
ENDTAB
  0
TABLE
  2
BLOCK_RECORD
  5
1
330
0
100
AcDbSymbolTable
 70
     7
  0
BLOCK_RECORD
  5
1F
330
1
100
AcDbSymbolTableRecord
100
AcDbBlockTableRecord
  2
*Model_Space
340
22
  0
BLOCK_RECORD
  5
1B
330
1
100
AcDbSymbolTableRecord
100
AcDbBlockTableRecord
  2
*Paper_Space
340
1E
  0
BLOCK_RECORD
  5
23
330
1
100
AcDbSymbolTableRecord
100
AcDbBlockTableRecord
  2
*Paper_Space0
340
26
  0
BLOCK_RECORD
  5
129
330
1
100
AcDbSymbolTableRecord
100
AcDbBlockTableRecord
  2
_D
340
0
  0
BLOCK_RECORD
  5
135
330
1
100
AcDbSymbolTableRecord
100
AcDbBlockTableRecord
  2
_D_1
340
0
  0
BLOCK_RECORD
  5
140
330
1
100
AcDbSymbolTableRecord
100
AcDbBlockTableRecord
  2
_D_2
340
0
  0
BLOCK_RECORD
  5
14C
330
1
100
AcDbSymbolTableRecord
100
AcDbBlockTableRecord
  2
_D_3
340
0
  0
BLOCK_RECORD
  5
156
330
1
100
AcDbSymbolTableRecord
100
AcDbBlockTableRecord
  2
_D_4
340
0
  0
BLOCK_RECORD
  5
162
330
1
100
AcDbSymbolTableRecord
100
AcDbBlockTableRecord
  2
_D_5
340
0
  0
ENDTAB
  0
ENDSEC
  0
SECTION
  2
BLOCKS
  0
BLOCK
  5
20
330
1F
100
AcDbEntity
  8
0
100
AcDbBlockBegin
  2
*Model_Space
 70
     0
 10
0.0
 20
0.0
 30
0.0
  3
*Model_Space
  1

  0
ENDBLK
  5
21
330
1F
100
AcDbEntity
  8
0
100
AcDbBlockEnd
  0
BLOCK
  5
1C
330
1B
100
AcDbEntity
 67
     1
  8
0
100
AcDbBlockBegin
  2
*Paper_Space
 70
     0
 10
0.0
 20
0.0
 30
0.0
  3
*Paper_Space
  1

  0
ENDBLK
  5
1D
330
1B
100
AcDbEntity
 67
     1
  8
0
100
AcDbBlockEnd
  0
BLOCK
  5
24
330
23
100
AcDbEntity
  8
0
100
AcDbBlockBegin
  2
*Paper_Space0
 70
     0
 10
0.0
 20
0.0
 30
0.0
  3
*Paper_Space0
  1

  0
ENDBLK
  5
25
330
23
100
AcDbEntity
  8
0
100
AcDbBlockEnd
  0
BLOCK
  5
12A
330
129
100
AcDbEntity
  8
0
100
AcDbBlockBegin
  2
_D
 70
     0
 10
0.0
 20
0.0
 30
0.0
  3
_D
  1

  0
ARC
  5
12C
330
129
100
AcDbEntity
  8
VERMASSUNG
100
AcDbCircle
 10
185.2903257907
 20
144.1310418718
 30
0.0
 40
4.247059938537221
100
AcDbArc
 50
153.4349488229
 51
206.5650511771
  0
ARC
  5
12D
330
129
100
AcDbEntity
  8
VERMASSUNG
100
AcDbCircle
 10
183.2658469029
 20
144.1310418718
 30
0.0
 40
4.247059938537221
100
AcDbArc
 50
333.4349488229
 51
26.5650511771
  0
SOLID
  5
12E
330
129
100
AcDbEntity
  8
VERMASSUNG
100
AcDbTrace
 10
176.2780863468
 20
142.2316989263
 30
0.0
 11
179.2780863468
 21
141.7816989263
 31
0.0
 12
179.2780863468
 22
142.6816989263
 32
0.0
 13
179.2780863468
 23
142.6816989263
 33
0.0
  0
SOLID
  5
12F
330
129
100
AcDbEntity
  8
VERMASSUNG
100
AcDbTrace
 10
192.2780863468
 20
142.2316989263
 30
0.0
 11
189.2780863468
 21
142.6816989263
 31
0.0
 12
189.2780863468
 22
141.7816989263
 32
0.0
 13
189.2780863468
 23
141.7816989263
 33
0.0
  0
LINE
  5
130
330
129
100
AcDbEntity
  8
VERMASSUNG
100
AcDbLine
 10
176.2780863468
 20
133.9487337905
 30
0.0
 11
176.2780863468
 21
143.2316989263
 31
0.0
  0
LINE
  5
131
330
129
100
AcDbEntity
  8
VERMASSUNG
100
AcDbLine
 10
192.2780863468
 20
135.4487337905
 30
0.0
 11
192.2780863468
 21
143.2316989263
 31
0.0
  0
LINE
  5
132
330
129
100
AcDbEntity
  8
VERMASSUNG
100
AcDbLine
 10
176.2780863468
 20
142.2316989263
 30
0.0
 11
192.2780863468
 21
142.2316989263
 31
0.0
  0
MTEXT
  5
133
330
129
100
AcDbEntity
  8
VERMASSUNG
100
AcDbMText
 10
183.0791398998
 20
144.8098345223
 30
0.0
 40
2.0
 41
0.0
 71
     1
 72
     1
  1
16
  7
SLDTEXTSTYLE0
 73
     1
 44
1.0
  0
ENDBLK
  5
12B
330
129
100
AcDbEntity
  8
0
100
AcDbBlockEnd
  0
BLOCK
  5
136
330
135
100
AcDbEntity
  8
0
100
AcDbBlockBegin
  2
_D_1
 70
     0
 10
0.0
 20
0.0
 30
0.0
  3
_D_1
  1

  0
SOLID
  5
138
330
135
100
AcDbEntity
  8
VERMASSUNG
100
AcDbTrace
 10
198.8804192878
 20
124.9487337905
 30
0.0
 11
198.4304192878
 21
121.9487337905
 31
0.0
 12
199.3304192878
 22
121.9487337905
 32
0.0
 13
199.3304192878
 23
121.9487337905
 33
0.0
  0
SOLID
  5
139
330
135
100
AcDbEntity
  8
VERMASSUNG
100
AcDbTrace
 10
198.8804192878
 20
96.9487337905
 30
0.0
 11
199.3304192878
 21
99.9487337905
 31
0.0
 12
198.4304192878
 22
99.9487337905
 32
0.0
 13
198.4304192878
 23
99.9487337905
 33
0.0
  0
LINE
  5
13A
330
135
100
AcDbEntity
  8
VERMASSUNG
100
AcDbLine
 10
178.6780863468
 20
124.9487337905
 30
0.0
 11
199.8804192878
 21
124.9487337905
 31
0.0
  0
LINE
  5
13B
330
135
100
AcDbEntity
  8
VERMASSUNG
100
AcDbLine
 10
178.6780863468
 20
96.9487337905
 30
0.0
 11
199.8804192878
 21
96.9487337905
 31
0.0
  0
LINE
  5
13C
330
135
100
AcDbEntity
  8
VERMASSUNG
100
AcDbLine
 10
198.8804192878
 20
124.9487337905
 30
0.0
 11
198.8804192878
 21
96.9487337905
 31
0.0
  0
MTEXT
  5
13D
330
135
100
AcDbEntity
  8
VERMASSUNG
100
AcDbMText
 10
196.3022837501
 20
107.7445576834
 30
0.0
 40
2.0
 41
0.0
 71
     1
 72
     1
  1
%%c
  7
SLDTEXTSTYLE0
 11
-7.044195017643634E-15
 21
1.0
 31
0.0
 73
     1
 44
1.0
  0
MTEXT
  5
13E
330
135
100
AcDbEntity
  8
VERMASSUNG
100
AcDbMText
 10
196.3022836919
 20
111.3535298771
 30
0.0
 40
2.0
 41
0.0
 71
     1
 72
     1
  1
28
  7
SLDTEXTSTYLE0
 11
-7.044195017643634E-15
 21
1.0
 31
0.0
 73
     1
 44
1.0
  0
ENDBLK
  5
137
330
135
100
AcDbEntity
  8
0
100
AcDbBlockEnd
  0
BLOCK
  5
141
330
140
100
AcDbEntity
  8
0
100
AcDbBlockBegin
  2
_D_2
 70
     0
 10
0.0
 20
0.0
 30
0.0
  3
_D_2
  1

  0
ARC
  5
143
330
140
100
AcDbEntity
  8
VERMASSUNG
100
AcDbCircle
 10
148.7899045754
 20
156.1569940193
 30
0.0
 40
4.24705993853726
100
AcDbArc
 50
153.4349488229
 51
206.5650511771
  0
ARC
  5
144
330
140
100
AcDbEntity
  8
VERMASSUNG
100
AcDbCircle
 10
149.3662681182
 20
156.1569940193
 30
0.0
 40
4.24705993853726
100
AcDbArc
 50
333.4349488229
 51
26.5650511771
  0
SOLID
  5
145
330
140
100
AcDbEntity
  8
VERMASSUNG
100
AcDbTrace
 10
105.8780863468
 20
154.2576510739
 30
0.0
 11
108.8780863468
 21
153.8076510739
 31
0.0
 12
108.8780863468
 22
154.7076510739
 32
0.0
 13
108.8780863468
 23
154.7076510739
 33
0.0
  0
SOLID
  5
146
330
140
100
AcDbEntity
  8
VERMASSUNG
100
AcDbTrace
 10
192.2780863468
 20
154.2576510739
 30
0.0
 11
189.2780863468
 21
154.7076510739
 31
0.0
 12
189.2780863468
 22
153.8076510739
 32
0.0
 13
189.2780863468
 23
153.8076510739
 33
0.0
  0
LINE
  5
147
330
140
100
AcDbEntity
  8
VERMASSUNG
100
AcDbLine
 10
105.8780863468
 20
119.3330282557
 30
0.0
 11
105.8780863468
 21
155.2576510739
 31
0.0
  0
LINE
  5
148
330
140
100
AcDbEntity
  8
VERMASSUNG
100
AcDbLine
 10
192.2780863468
 20
135.4487337905
 30
0.0
 11
192.2780863468
 21
155.2576510739
 31
0.0
  0
LINE
  5
149
330
140
100
AcDbEntity
  8
VERMASSUNG
100
AcDbLine
 10
105.8780863468
 20
154.2576510739
 30
0.0
 11
192.2780863468
 21
154.2576510739
 31
0.0
  0
MTEXT
  5
14A
330
140
100
AcDbEntity
  8
VERMASSUNG
100
AcDbMText
 10
146.5787186846
 20
156.8357866699
 30
0.0
 40
2.0
 41
0.0
 71
     1
 72
     1
  1
86.4
  7
SLDTEXTSTYLE0
 73
     1
 44
1.0
  0
ENDBLK
  5
142
330
140
100
AcDbEntity
  8
0
100
AcDbBlockEnd
  0
BLOCK
  5
14D
330
14C
100
AcDbEntity
  8
0
100
AcDbBlockBegin
  2
_D_3
 70
     0
 10
0.0
 20
0.0
 30
0.0
  3
_D_3
  1

  0
SOLID
  5
14F
330
14C
100
AcDbEntity
  8
VERMASSUNG
100
AcDbTrace
 10
154.2780863468
 20
148.2576510739
 30
0.0
 11
157.2780863468
 21
147.8076510739
 31
0.0
 12
157.2780863468
 22
148.7076510739
 32
0.0
 13
157.2780863468
 23
148.7076510739
 33
0.0
  0
SOLID
  5
150
330
14C
100
AcDbEntity
  8
VERMASSUNG
100
AcDbTrace
 10
192.2780863468
 20
148.2576510739
 30
0.0
 11
189.2780863468
 21
148.7076510739
 31
0.0
 12
189.2780863468
 22
147.8076510739
 32
0.0
 13
189.2780863468
 23
147.8076510739
 33
0.0
  0
LINE
  5
151
330
14C
100
AcDbEntity
  8
VERMASSUNG
100
AcDbLine
 10
154.2780863468
 20
126.8237337905
 30
0.0
 11
154.2780863468
 21
149.2576510739
 31
0.0
  0
LINE
  5
152
330
14C
100
AcDbEntity
  8
VERMASSUNG
100
AcDbLine
 10
192.2780863468
 20
135.4487337905
 30
0.0
 11
192.2780863468
 21
149.2576510739
 31
0.0
  0
LINE
  5
153
330
14C
100
AcDbEntity
  8
VERMASSUNG
100
AcDbLine
 10
154.2780863468
 20
148.2576510739
 30
0.0
 11
192.2780863468
 21
148.2576510739
 31
0.0
  0
MTEXT
  5
154
330
14C
100
AcDbEntity
  8
VERMASSUNG
100
AcDbMText
 10
171.8783963365
 20
150.8357866699
 30
0.0
 40
2.0
 41
0.0
 71
     1
 72
     1
  1
38
  7
SLDTEXTSTYLE0
 73
     1
 44
1.0
  0
ENDBLK
  5
14E
330
14C
100
AcDbEntity
  8
0
100
AcDbBlockEnd
  0
BLOCK
  5
157
330
156
100
AcDbEntity
  8
0
100
AcDbBlockBegin
  2
_D_4
 70
     0
 10
0.0
 20
0.0
 30
0.0
  3
_D_4
  1

  0
SOLID
  5
159
330
156
100
AcDbEntity
  8
VERMASSUNG
100
AcDbTrace
 10
102.0931707612
 20
133.9487337905
 30
0.0
 11
101.6431707612
 21
130.9487337905
 31
0.0
 12
102.5431707612
 22
130.9487337905
 32
0.0
 13
102.5431707612
 23
130.9487337905
 33
0.0
  0
SOLID
  5
15A
330
156
100
AcDbEntity
  8
VERMASSUNG
100
AcDbTrace
 10
102.0931707612
 20
87.9487337905
 30
0.0
 11
102.5431707612
 21
90.9487337905
 31
0.0
 12
101.6431707612
 22
90.9487337905
 32
0.0
 13
101.6431707612
 23
90.9487337905
 33
0.0
  0
LINE
  5
15B
330
156
100
AcDbEntity
  8
VERMASSUNG
100
AcDbLine
 10
174.2780849047
 20
133.9487337905
 30
0.0
 11
101.0931707612
 21
133.9487337905
 31
0.0
  0
LINE
  5
15C
330
156
100
AcDbEntity
  8
VERMASSUNG
100
AcDbLine
 10
174.2780849359
 20
87.9487337905
 30
0.0
 11
101.0931707612
 21
87.9487337905
 31
0.0
  0
LINE
  5
15D
330
156
100
AcDbEntity
  8
VERMASSUNG
100
AcDbLine
 10
102.0931707612
 20
133.9487337905
 30
0.0
 11
102.0931707612
 21
87.9487337905
 31
0.0
  0
MTEXT
  5
15E
330
156
100
AcDbEntity
  8
VERMASSUNG
100
AcDbMText
 10
99.315035505
 20
100.2453517102
 30
0.0
 40
2.0
 41
0.0
 71
     1
 72
     1
  1
MAS BT 30
  7
SLDTEXTSTYLE0
 11
-7.044195017643634E-15
 21
1.0
 31
0.0
 73
     1
 44
1.0
  0
MTEXT
  5
15F
330
156
100
AcDbEntity
  8
VERMASSUNG
100
AcDbMText
 10
99.5150354563
 20
115.0453517147
 30
0.0
 40
2.0
 41
0.0
 71
     1
 72
     1
  1
%%c
  7
SLDTEXTSTYLE0
 11
-7.044195017643634E-15
 21
1.0
 31
0.0
 73
     1
 44
1.0
  0
MTEXT
  5
160
330
156
100
AcDbEntity
  8
VERMASSUNG
100
AcDbMText
 10
99.5150351653
 20
118.6541982602
 30
0.0
 40
2.0
 41
0.0
 71
     1
 72
     1
  1
46
  7
SLDTEXTSTYLE0
 11
-7.044195017643634E-15
 21
1.0
 31
0.0
 73
     1
 44
1.0
  0
ENDBLK
  5
158
330
156
100
AcDbEntity
  8
0
100
AcDbBlockEnd
  0
BLOCK
  5
163
330
162
100
AcDbEntity
  8
0
100
AcDbBlockBegin
  2
_D_5
 70
     0
 10
0.0
 20
0.0
 30
0.0
  3
_D_5
  1

  0
SOLID
  5
165
330
162
100
AcDbEntity
  8
VERMASSUNG
100
AcDbTrace
 10
204.8804192878
 20
135.9487337905
 30
0.0
 11
204.4304192878
 21
132.9487337905
 31
0.0
 12
205.3304192878
 22
132.9487337905
 32
0.0
 13
205.3304192878
 23
132.9487337905
 33
0.0
  0
SOLID
  5
166
330
162
100
AcDbEntity
  8
VERMASSUNG
100
AcDbTrace
 10
204.8804192878
 20
85.9487337905
 30
0.0
 11
205.3304192878
 21
88.9487337905
 31
0.0
 12
204.4304192878
 22
88.9487337905
 32
0.0
 13
204.4304192878
 23
88.9487337905
 33
0.0
  0
LINE
  5
167
330
162
100
AcDbEntity
  8
VERMASSUNG
100
AcDbLine
 10
191.7780863468
 20
135.9487337905
 30
0.0
 11
205.8804192878
 21
135.9487337905
 31
0.0
  0
LINE
  5
168
330
162
100
AcDbEntity
  8
VERMASSUNG
100
AcDbLine
 10
191.7780863468
 20
85.9487337905
 30
0.0
 11
205.8804192878
 21
85.9487337905
 31
0.0
  0
LINE
  5
169
330
162
100
AcDbEntity
  8
VERMASSUNG
100
AcDbLine
 10
204.8804192878
 20
135.9487337905
 30
0.0
 11
204.8804192878
 21
85.9487337905
 31
0.0
  0
MTEXT
  5
16A
330
162
100
AcDbEntity
  8
VERMASSUNG
100
AcDbMText
 10
202.1022840316
 20
104.8448058812
 30
0.0
 40
2.0
 41
0.0
 71
     1
 72
     1
  1
ST5
  7
SLDTEXTSTYLE0
 11
-7.044195017643634E-15
 21
1.0
 31
0.0
 73
     1
 44
1.0
  0
MTEXT
  5
16B
330
162
100
AcDbEntity
  8
VERMASSUNG
100
AcDbMText
 10
202.3022839829
 20
110.6448058074
 30
0.0
 40
2.0
 41
0.0
 71
     1
 72
     1
  1
%%c
  7
SLDTEXTSTYLE0
 11
-7.044195017643634E-15
 21
1.0
 31
0.0
 73
     1
 44
1.0
  0
MTEXT
  5
16C
330
162
100
AcDbEntity
  8
VERMASSUNG
100
AcDbMText
 10
202.3022836919
 20
114.2532816793
 30
0.0
 40
2.0
 41
0.0
 71
     1
 72
     1
  1
50
  7
SLDTEXTSTYLE0
 11
-7.044195017643634E-15
 21
1.0
 31
0.0
 73
     1
 44
1.0
  0
ENDBLK
  5
164
330
162
100
AcDbEntity
  8
0
100
AcDbBlockEnd
  0
ENDSEC
  0
SECTION
  2
ENTITIES
  0
MTEXT
  5
78
330
1F
100
AcDbEntity
  8
KOPF_DÜNN
100
AcDbMText
 10
13.8892156294
 20
23.8442973028
 30
0.0
 40
3.0
 41
0.0
 71
     1
 72
     1
  1
134.530.050.038
  7
SLDTEXTSTYLE0
 73
     1
 44
1.0
  0
MTEXT
  5
79
330
1F
100
AcDbEntity
  8
VERMASSUNG
100
AcDbMText
 10
13.9329988022
 20
28.8834360957
 30
0.0
 40
3.0
 41
0.0
 71
     1
 72
     1
  1
Aufnahme_Master shank ST5
  7
SLDTEXTSTYLE0
 73
     1
 44
1.0
  0
MTEXT
  5
7A
330
1F
100
AcDbEntity
  8
VERMASSUNG
100
AcDbMText
 10
98.8601118557
 20
13.8365368761
 30
0.0
 40
2.0
 41
0.0
 71
     1
 72
     1
  1
Datum: 05.06.2008
  7
SLDTEXTSTYLE0
 73
     1
 44
1.0
  0
MTEXT
  5
7C
330
1F
100
AcDbEntity
  8
VERMASSUNG
100
AcDbMText
 10
13.933048693
 20
18.0482802738
 30
0.0
 40
2.0
 41
0.0
 71
     1
 72
     1
  1
MAS BT 30 A/D
  7
SLDTEXTSTYLE1
 73
     1
 44
1.0
  0
MTEXT
  5
7D
330
1F
100
AcDbEntity
  8
VERMASSUNG
100
AcDbMText
 10
13.9808475933
 20
13.9090974274
 30
0.0
 40
2.0
 41
0.0
 71
     1
 72
     1
  1
Gewicht: 464g
  7
SLDTEXTSTYLE0
 73
     1
 44
1.0
  0
LINE
  5
7E
330
1F
100
AcDbEntity
  8
0
  6
Continuous
 62
     7
370
    15
100
AcDbLine
 10
191.7780863468
 20
135.9487337905
 30
0.0
 11
178.0101371544
 21
135.9487337905
 31
0.0
  0
LINE
  5
7F
330
1F
100
AcDbEntity
  8
0
  6
Continuous
 62
     7
370
    15
100
AcDbLine
 10
178.0101371544
 20
85.9487337905
 30
0.0
 11
191.7780863468
 21
85.9487337905
 31
0.0
  0
LINE
  5
80
330
1F
100
AcDbEntity
  8
0
  6
Continuous
 62
     7
370
    15
100
AcDbLine
 10
191.7780863468
 20
85.9487337905
 30
0.0
 11
192.2780863468
 21
86.4487337905
 31
0.0
  0
LINE
  5
81
330
1F
100
AcDbEntity
  8
0
  6
Continuous
 62
     7
370
    15
100
AcDbLine
 10
192.2780863468
 20
135.4487337905
 30
0.0
 11
191.7780863468
 21
135.9487337905
 31
0.0
  0
ARC
  5
82
330
1F
100
AcDbEntity
  8
0
  6
Continuous
 62
     7
370
    15
100
AcDbCircle
 10
178.0101371544
 20
134.9487337905
 30
0.0
 40
1.000000000000008
100
AcDbArc
 50
90.0
 51
150.0
  0
ARC
  5
83
330
1F
100
AcDbEntity
  8
0
  6
Continuous
 62
     7
370
    15
100
AcDbCircle
 10
178.0101371544
 20
86.9487337905
 30
0.0
 40
1.000000000000008
100
AcDbArc
 50
210.0
 51
270.0
  0
LINE
  5
84
330
1F
100
AcDbEntity
  8
0
  6
Continuous
 62
     7
370
    15
100
AcDbLine
 10
177.1441117506
 20
135.4487337905
 30
0.0
 11
176.5667614814
 21
134.4487337905
 31
0.0
  0
LINE
  5
85
330
1F
100
AcDbEntity
  8
0
  6
Continuous
 62
     7
370
    15
100
AcDbLine
 10
176.5667614814
 20
87.4487337905
 30
0.0
 11
177.1441117506
 21
86.4487337905
 31
0.0
  0
ARC
  5
86
330
1F
100
AcDbEntity
  8
0
  6
Continuous
 62
     7
370
    15
100
AcDbCircle
 10
175.7007360776
 20
134.9487337905
 30
0.0
 40
1.000000000000008
100
AcDbArc
 50
270.0
 51
330.0
  0
ARC
  5
87
330
1F
100
AcDbEntity
  8
0
  6
Continuous
 62
     7
370
    15
100
AcDbCircle
 10
175.7007360776
 20
86.9487337905
 30
0.0
 40
1.000000000000008
100
AcDbArc
 50
30.0
 51
90.0
  0
LINE
  5
88
330
1F
100
AcDbEntity
  8
0
  6
Continuous
 62
     7
370
    15
100
AcDbLine
 10
174.278045115
 20
87.9487337905
 30
0.0
 11
175.7007360776
 21
87.9487337905
 31
0.0
  0
LINE
  5
89
330
1F
100
AcDbEntity
  8
0
  6
Continuous
 62
     7
370
    15
100
AcDbLine
 10
175.7007360776
 20
133.9487337905
 30
0.0
 11
174.2779845649
 21
133.9487337905
 31
0.0
  0
ARC
  5
8A
330
1F
100
AcDbEntity
  8
0
  6
Continuous
 62
     7
370
    15
100
AcDbCircle
 10
155.2780863468
 20
94.0737337905
 30
0.0
 40
1.000000000000012
100
AcDbArc
 50
42.4519692725
 51
90.0
  0
ARC
  5
8B
330
1F
100
AcDbEntity
  8
0
  6
Continuous
 62
     7
370
    15
100
AcDbCircle
 10
155.2780863468
 20
127.8237337905
 30
0.0
 40
1.000000000000014
100
AcDbArc
 50
270.0
 51
317.5135189642
  0
LINE
  5
8C
330
1F
100
AcDbEntity
  8
0
  6
Continuous
 62
     7
370
    15
100
AcDbLine
 10
154.2780863468
 20
95.0737337905
 30
0.0
 11
155.2780863468
 21
95.0737337905
 31
0.0
  0
LINE
  5
8D
330
1F
100
AcDbEntity
  8
0
  6
Continuous
 62
     7
370
    15
100
AcDbLine
 10
155.2780863468
 20
126.8237337905
 30
0.0
 11
154.2780863468
 21
126.8237337905
 31
0.0
  0
LINE
  5
8E
330
1F
100
AcDbEntity
  8
0
  6
Continuous
 62
     7
370
    15
100
AcDbLine
 10
154.2780863468
 20
126.8237337905
 30
0.0
 11
106.3059329002
 21
119.8277947463
 31
0.0
  0
LINE
  5
8F
330
1F
100
AcDbEntity
  8
0
  6
Continuous
 62
     7
370
    15
100
AcDbLine
 10
106.3059329002
 20
102.0696728348
 30
0.0
 11
154.2780863468
 21
95.0737337905
 31
0.0
  0
ARC
  5
90
330
1F
100
AcDbEntity
  8
0
  6
Continuous
 62
     7
370
    15
100
AcDbCircle
 10
106.3780863468
 20
102.5644393254
 30
0.0
 40
0.5000000000000029
100
AcDbArc
 50
180.0
 51
261.7028550302
  0
ARC
  5
91
330
1F
100
AcDbEntity
  8
0
  6
Continuous
 62
     7
370
    15
100
AcDbCircle
 10
106.3780863468
 20
119.3330282557
 30
0.0
 40
0.5000000000000029
100
AcDbArc
 50
98.2971449698
 51
180.0
  0
SPLINE
  5
92
330
1F
100
AcDbEntity
  8
0
  6
Continuous
 62
     7
370
    15
100
AcDbSpline
210
0.0
220
0.0
230
1.0
 70
    24
 71
     3
 72
    12
 73
     8
 74
     0
 42
0.000000001
 43
0.00000001
 40
0.0
 40
0.0
 40
0.0
 40
0.0
 40
0.1283789717131168
 40
0.3048489961049069
 40
0.4808701485597128
 40
0.815324096249343
 40
1.0
 40
1.0
 40
1.0
 40
1.0
 10
176.4288795137186
 20
111.6542651073888
 30
0.0
 10
176.5099303557037
 20
111.7377671775256
 30
0.0
 10
176.7023938680913
 20
111.9360513818171
 30
0.0
 10
177.0241029953966
 20
112.267489988178
 30
0.0
 10
177.5022334926354
 20
112.7600806305101
 30
0.0
 10
177.9936114245741
 20
113.2663193509417
 30
0.0
 10
178.3224939073414
 20
113.6051482572209
 30
0.0
 10
178.4394909738062
 20
113.7256836768473
 30
0.0
  0
SPLINE
  5
93
330
1F
100
AcDbEntity
  8
0
  6
Continuous
 62
     7
370
    15
100
AcDbSpline
210
0.0
220
0.0
230
1.0
 70
    24
 71
     3
 72
    11
 73
     7
 74
     0
 42
0.000000001
 43
0.00000001
 40
0.0
 40
0.0
 40
0.0
 40
0.0
 40
0.2164543009645086
 40
0.440308993722539
 40
0.7518987489759491
 40
1.0
 40
1.0
 40
1.0
 40
1.0
 10
177.2174748866967
 20
108.8773152210835
 30
0.0
 10
177.1634556135535
 20
109.0675380141068
 30
0.0
 10
177.0535701934288
 20
109.4544871585958
 30
0.0
 10
176.8496517323663
 20
110.1725630777135
 30
0.0
 10
176.6309115426871
 20
110.9428320466603
 30
0.0
 10
176.4909306149528
 20
111.4357591353506
 30
0.0
 10
176.4288795137186
 20
111.6542651073888
 30
0.0
  0
SPLINE
  5
94
330
1F
100
AcDbEntity
  8
0
  6
Continuous
 62
     7
370
    15
100
AcDbSpline
210
0.0
220
0.0
230
1.0
 70
    24
 71
     3
 72
    15
 73
    11
 74
     0
 42
0.000000001
 43
0.00000001
 40
0.0
 40
0.0
 40
0.0
 40
0.0
 40
0.1077864249424408
 40
0.2161691032193861
 40
0.3273133803425824
 40
0.4399575567902552
 40
0.5934881890594572
 40
0.752149959695385
 40
0.8755072857156201
 40
1.0
 40
1.0
 40
1.0
 40
1.0
 10
180.0166817197624
 20
108.1717839042368
 30
0.0
 10
179.9219158867504
 20
108.195669335698
 30
0.0
 10
179.7318599947491
 20
108.2435723281365
 30
0.0
 10
179.4322202935332
 20
108.3190955765372
 30
0.0
 10
179.1189298396937
 20
108.3980594543907
 30
0.0
 10
178.7539246158864
 20
108.4900578780751
 30
0.0
 10
178.3375231045595
 20
108.5950105750866
 30
0.0
 10
177.9202140249144
 20
108.7001920218508
 30
0.0
 10
177.5453198155143
 20
108.7946829333876
 30
0.0
 10
177.3270897631777
 20
108.8496871347141
 30
0.0
 10
177.2174748866967
 20
108.8773152210835
 30
0.0
  0
SPLINE
  5
95
330
1F
100
AcDbEntity
  8
0
  6
Continuous
 62
     7
370
    15
100
AcDbSpline
210
0.0
220
0.0
230
1.0
 70
    24
 71
     3
 72
    12
 73
     8
 74
     0
 42
0.000000001
 43
0.00000001
 40
0.0
 40
0.0
 40
0.0
 40
0.0
 40
0.1846759037506612
 40
0.5191298514402868
 40
0.6951510038950962
 40
0.8716210282868901
 40
1.0
 40
1.0
 40
1.0
 40
1.0
 10
182.02729317985
 20
110.2432024736953
 30
0.0
 10
181.9102961133852
 20
110.1226670540689
 30
0.0
 10
181.581413630618
 20
109.7838381477897
 30
0.0
 10
181.0900356986793
 20
109.2775994273581
 30
0.0
 10
180.6119052014405
 20
108.785008785026
 30
0.0
 10
180.2901960741351
 20
108.4535701786651
 30
0.0
 10
180.0977325617475
 20
108.2552859743736
 30
0.0
 10
180.0166817197624
 20
108.1717839042368
 30
0.0
  0
SPLINE
  5
96
330
1F
100
AcDbEntity
  8
0
  6
Continuous
 62
     7
370
    15
100
AcDbSpline
210
0.0
220
0.0
230
1.0
 70
    24
 71
     3
 72
    15
 73
    11
 74
     0
 42
0.000000001
 43
0.00000001
 40
0.0
 40
0.0
 40
0.0
 40
0.0
 40
0.1077864249424413
 40
0.2161691032193866
 40
0.3273133803425835
 40
0.4399575567902569
 40
0.5934881890594588
 40
0.7521499596953869
 40
0.8755072857156174
 40
1.0
 40
1.0
 40
1.0
 40
1.0
 10
181.2386978068719
 20
113.0201523600006
 30
0.0
 10
181.2653953329522
 20
112.9261400254707
 30
0.0
 10
181.3189380705838
 20
112.7375952986395
 30
0.0
 10
181.4033528695004
 20
112.4403380812037
 30
0.0
 10
181.4916133722177
 20
112.1295386504888
 30
0.0
 10
181.5944430121025
 20
111.7674356423155
 30
0.0
 10
181.7117520659583
 20
111.3543450068264
 30
0.0
 10
181.8293168008762
 20
110.9403540192418
 30
0.0
 10
181.9349323757587
 20
110.5684406544013
 30
0.0
 10
181.9964123662633
 20
110.3519457845453
 30
0.0
 10
182.02729317985
 20
110.2432024736953
 30
0.0
  0
SPLINE
  5
97
330
1F
100
AcDbEntity
  8
0
  6
Continuous
 62
     7
370
    15
100
AcDbSpline
210
0.0
220
0.0
230
1.0
 70
    24
 71
     3
 72
    11
 73
     7
 74
     0
 42
0.000000001
 43
0.00000001
 40
0.0
 40
0.0
 40
0.0
 40
0.0
 40
0.216454300964504
 40
0.4403089937225356
 40
0.7518987489759466
 40
0.9999999999999999
 40
0.9999999999999999
 40
0.9999999999999999
 40
0.9999999999999999
 10
178.4394909738062
 20
113.7256836768473
 30
0.0
 10
178.6312383815147
 20
113.6773543431716
 30
0.0
 10
179.0212888806772
 20
113.5790433362606
 30
0.0
 10
179.7451200990103
 20
113.3966039442826
 30
0.0
 10
180.5215626887047
 20
113.2009040209
 30
0.0
 10
181.0184405335911
 20
113.0756675160181
 30
0.0
 10
181.2386978068719
 20
113.0201523600006
 30
0.0
  0
CIRCLE
  5
98
330
1F
100
AcDbEntity
  8
0
  6
Continuous
 62
     7
370
    15
100
AcDbCircle
 10
179.2280863468
 20
110.9487337905
 30
0.0
 40
2.999999999999998
  0
CIRCLE
  5
99
330
1F
100
AcDbEntity
  8
0
  6
Continuous
 62
     7
370
    15
100
AcDbCircle
 10
179.2280863468
 20
110.9487337905
 30
0.0
 40
4.500000000000007
  0
CIRCLE
  5
9A
330
1F
100
AcDbEntity
  8
0
  6
Continuous
 62
     7
370
    15
100
AcDbCircle
 10
179.2280863468
 20
110.9487337905
 30
0.0
 40
5.000000000000013
  0
ARC
  5
9B
330
1F
100
AcDbEntity
  8
0
  6
Continuous
 62
     7
370
    15
100
AcDbCircle
 10
179.2280863468
 20
110.9487337905
 30
0.0
 40
2.500000000000012
100
AcDbArc
 50
255.8534315137
 51
315.8534315137
  0
ARC
  5
9C
330
1F
100
AcDbEntity
  8
0
  6
Continuous
 62
     7
370
    15
100
AcDbCircle
 10
179.2280863468
 20
110.9487337905
 30
0.0
 40
2.500000000000004
100
AcDbArc
 50
135.8534315137
 51
195.8534315137
  0
ARC
  5
9D
330
1F
100
AcDbEntity
  8
0
  6
Continuous
 62
     7
370
    15
100
AcDbCircle
 10
179.2280863468
 20
110.9487337905
 30
0.0
 40
2.500000000000032
100
AcDbArc
 50
15.8534315137
 51
75.8534315137
  0
ARC
  5
9E
330
1F
100
AcDbEntity
  8
0
  6
Continuous
 62
     7
370
    15
100
AcDbCircle
 10
179.2280863468
 20
110.9487337905
 30
0.0
 40
2.500000000000004
100
AcDbArc
 50
195.8534315137
 51
255.8534315137
  0
ARC
  5
9F
330
1F
100
AcDbEntity
  8
0
  6
Continuous
 62
     7
370
    15
100
AcDbCircle
 10
179.2280863468
 20
110.9487337905
 30
0.0
 40
2.500000000000032
100
AcDbArc
 50
315.8534315137
 51
15.8534315137
  0
ARC
  5
A0
330
1F
100
AcDbEntity
  8
0
  6
Continuous
 62
     7
370
    15
100
AcDbCircle
 10
179.2280863468
 20
110.9487337905
 30
0.0
 40
2.500000000000005
100
AcDbArc
 50
75.8534315137
 51
135.8534315137
  0
SPLINE
  5
A1
330
1F
100
AcDbEntity
  8
0
  6
Continuous
 62
     7
370
    15
100
AcDbSpline
210
0.0
220
0.0
230
1.0
 70
     8
 71
     3
 72
    54
 73
    50
 74
     0
 42
0.000000001
 43
0.00000001
 40
0.0
 40
0.0
 40
0.0
 40
0.0
 40
0.062500000000001
 40
0.062500000000001
 40
0.0937500000000015
 40
0.0937500000000015
 40
0.125000000000002
 40
0.125000000000002
 40
0.187500000000003
 40
0.187500000000003
 40
0.250000000000004
 40
0.250000000000004
 40
0.2812500000000042
 40
0.2812500000000042
 40
0.3125000000000043
 40
0.3125000000000043
 40
0.3750000000000043
 40
0.3750000000000043
 40
0.4062500000000044
 40
0.4062500000000044
 40
0.4375000000000044
 40
0.4375000000000044
 40
0.4687500000000045
 40
0.4687500000000045
 40
0.5000000000000046
 40
0.5000000000000046
 40
0.5625000000000047
 40
0.5625000000000047
 40
0.5937500000000046
 40
0.5937500000000046
 40
0.6250000000000046
 40
0.6250000000000046
 40
0.6562500000000044
 40
0.6562500000000044
 40
0.6875000000000044
 40
0.6875000000000044
 40
0.7187500000000041
 40
0.7187500000000041
 40
0.7500000000000039
 40
0.7500000000000039
 40
0.8125000000000032
 40
0.8125000000000032
 40
0.8437500000000027
 40
0.8437500000000027
 40
0.8750000000000022
 40
0.8750000000000022
 40
0.9375000000000011
 40
0.9375000000000011
 40
1.0
 40
1.0
 40
1.0
 40
1.0
 10
178.0101371543532
 20
117.66906639873
 30
0.0
 10
178.5315083964041
 20
117.7426777671559
 30
0.0
 10
179.0571190399866
 20
117.7689533258771
 30
0.0
 10
179.8520121608226
 20
117.7362396359439
 30
0.0
 10
180.1186847828681
 20
117.7130073434158
 30
0.0
 10
180.6430509585955
 20
117.6430235392464
 30
0.0
 10
180.9021052409394
 20
117.5962824544463
 30
0.0
 10
181.6700291097977
 20
117.4212019967799
 30
0.0
 10
182.1699561610726
 20
117.2583411034049
 30
0.0
 10
183.1431061086427
 20
116.8336708494742
 30
0.0
 10
183.6003540208032
 20
116.578889754527
 30
0.0
 10
184.2424660256721
 20
116.1320828012441
 30
0.0
 10
184.4491492524967
 20
115.9722838353049
 30
0.0
 10
184.847010490596
 20
115.6295320893346
 30
0.0
 10
185.0392039629707
 20
115.4453314500089
 30
0.0
 10
185.5772951465076
 20
114.869090862528
 30
0.0
 10
185.8888491117029
 20
114.4515400242451
 30
0.0
 10
186.2802506207256
 20
113.7705206837493
 30
0.0
 10
186.3983188195772
 20
113.5334217525248
 30
0.0
 10
186.6046385952634
 20
113.0425869730148
 30
0.0
 10
186.6911405533004
 20
112.7932826379328
 30
0.0
 10
186.831118522777
 20
112.2869313551061
 30
0.0
 10
186.8845961851532
 20
112.0298848633386
 30
0.0
 10
186.9574877256189
 20
111.5077827779765
 30
0.0
 10
186.9768940412332
 20
111.2409674069874
 30
0.0
 10
186.9803096134575
 20
110.4399441124861
 30
0.0
 10
186.9112048514515
 20
109.9166641274948
 30
0.0
 10
186.7049838966926
 20
109.147112077207
 30
0.0
 10
186.6186031893443
 20
108.8930948409215
 30
0.0
 10
186.4170433030889
 20
108.4043420012371
 30
0.0
 10
186.3014321442764
 20
108.1676809846766
 30
0.0
 10
186.0419181527929
 20
107.7089809130364
 30
0.0
 10
185.8972590808644
 20
107.4859524812153
 30
0.0
 10
185.5833716676139
 20
107.0590295844663
 30
0.0
 10
185.4153140589617
 20
106.8564355960015
 30
0.0
 10
185.0584357475961
 20
106.4713557692606
 30
0.0
 10
184.8696081028635
 20
106.2888771523949
 30
0.0
 10
184.4717207908961
 20
105.9433127204478
 30
0.0
 10
184.2617058899425
 20
105.7796822446773
 30
0.0
 10
183.6137512602538
 20
105.326185865816
 30
0.0
 10
183.1554222426848
 20
105.0703571599773
 30
0.0
 10
182.430049798824
 20
104.7520628221929
 30
0.0
 10
182.1806480425078
 20
104.6566376320885
 30
0.0
 10
181.6775597585691
 20
104.4909401877132
 30
0.0
 10
181.4234039900234
 20
104.4203201980961
 30
0.0
 10
180.653313402593
 20
104.2439103181194
 30
0.0
 10
180.1298081076406
 20
104.1732081614864
 30
0.0
 10
179.061993128428
 20
104.1281762801534
 30
0.0
 10
178.5334578603735
 20
104.1545145729886
 30
0.0
 10
178.0101371543532
 20
104.228401182354
 30
0.0
  0
LINE
  5
A2
330
1F
100
AcDbEntity
  8
0
  6
Continuous
 62
     7
370
    15
100
AcDbLine
 10
191.7780863468
 20
110.9487337905
 30
0.0
 11
191.7780863468
 21
85.9487337905
 31
0.0
  0
LINE
  5
A3
330
1F
100
AcDbEntity
  8
0
  6
Continuous
 62
     7
370
    15
100
AcDbLine
 10
191.7780863468
 20
135.9487337905
 30
0.0
 11
191.7780863468
 21
110.9487337905
 31
0.0
  0
SPLINE
  5
A4
330
1F
100
AcDbEntity
  8
0
  6
Continuous
 62
     7
370
    15
100
AcDbSpline
210
0.0
220
0.0
230
1.0
 70
     8
 71
     3
 72
    12
 73
     8
 74
     0
 42
0.000000001
 43
0.00000001
 40
0.0
 40
0.0
 40
0.0
 40
0.0
 40
0.2500000000000021
 40
0.2500000000000021
 40
0.5000000000000041
 40
0.5000000000000041
 40
1.0
 40
1.0
 40
1.0
 40
1.0
 10
177.1441117505688
 20
117.0755617916217
 30
0.0
 10
177.184463069728
 20
117.1462481594998
 30
0.0
 10
177.2327885033548
 20
117.2135617724172
 30
0.0
 10
177.3462380200939
 20
117.340657580551
 30
0.0
 10
177.4123910315886
 20
117.4012263544834
 30
0.0
 10
177.6347887207586
 20
117.5621741188079
 30
0.0
 10
177.8157903668088
 20
117.6416269624388
 30
0.0
 10
178.0101371543532
 20
117.66906639873
 30
0.0
  0
SPLINE
  5
A5
330
1F
100
AcDbEntity
  8
0
  6
Continuous
 62
     7
370
    15
100
AcDbSpline
210
0.0
220
0.0
230
1.0
 70
     8
 71
     3
 72
    10
 73
     6
 74
     0
 42
0.000000001
 43
0.00000001
 40
0.0
 40
0.0
 40
0.0
 40
0.0
 40
0.5
 40
0.5
 40
1.0
 40
1.0
 40
1.0
 40
1.0
 10
178.0101371543532
 20
104.228401182354
 30
0.0
 10
177.816606331567
 20
104.2557254142043
 30
0.0
 10
177.636447048584
 20
104.3344749225639
 30
0.0
 10
177.3399621027185
 20
104.5482802960119
 30
0.0
 10
177.2246264455869
 20
104.6808622877794
 30
0.0
 10
177.1441117505676
 20
104.821905789462
 30
0.0
  0
SPLINE
  5
A6
330
1F
100
AcDbEntity
  8
0
  6
Continuous
 62
     7
370
    15
100
AcDbSpline
210
0.0
220
0.0
230
1.0
 70
     8
 71
     3
 72
     8
 73
     4
 74
     0
 42
0.000000001
 43
0.00000001
 40
0.0
 40
0.0
 40
0.0
 40
0.0
 40
1.0
 40
1.0
 40
1.0
 40
1.0
 10
177.1441117505688
 20
104.8219057894623
 30
0.0
 10
176.9444101431835
 20
105.1717377548013
 30
0.0
 10
176.7510339677755
 20
105.5315495658059
 30
0.0
 10
176.5667614813791
 20
105.9053979088045
 30
0.0
  0
SPLINE
  5
A7
330
1F
100
AcDbEntity
  8
0
  6
Continuous
 62
     7
370
    15
100
AcDbSpline
210
0.0
220
0.0
230
1.0
 70
     8
 71
     3
 72
    12
 73
     8
 74
     0
 42
0.000000001
 43
0.00000001
 40
0.0
 40
0.0
 40
0.0
 40
0.0
 40
0.2499999999999989
 40
0.2499999999999989
 40
0.4999999999999978
 40
0.4999999999999978
 40
1.0
 40
1.0
 40
1.0
 40
1.0
 10
175.7007360775946
 20
106.8774453450409
 30
0.0
 10
175.7948429596812
 20
106.8115842063189
 30
0.0
 10
175.8833932101645
 20
106.7397994882514
 30
0.0
 10
176.052314300715
 20
106.5876022285233
 30
0.0
 10
176.1330281189643
 20
106.5064907309894
 30
0.0
 10
176.3543400917296
 20
106.2588752587801
 30
0.0
 10
176.4788980113832
 20
106.0836535633094
 30
0.0
 10
176.5667614813837
 20
105.9053979088051
 30
0.0
  0
SPLINE
  5
A8
330
1F
100
AcDbEntity
  8
0
  6
Continuous
 62
     7
370
    15
100
AcDbSpline
210
0.0
220
0.0
230
1.0
 70
     8
 71
     3
 72
    24
 73
    20
 74
     0
 42
0.000000001
 43
0.00000001
 40
0.0
 40
0.0
 40
0.0
 40
0.0
 40
0.1250000000000001
 40
0.1250000000000001
 40
0.2500000000000002
 40
0.2500000000000002
 40
0.3750000000000002
 40
0.3750000000000002
 40
0.5000000000000003
 40
0.5000000000000003
 40
0.6250000000000004
 40
0.6250000000000004
 40
0.6875000000000004
 40
0.6875000000000004
 40
0.7500000000000004
 40
0.7500000000000004
 40
0.8750000000000002
 40
0.8750000000000002
 40
1.0
 40
1.0
 40
1.0
 40
1.0
 10
175.7007360775947
 20
115.0200222360432
 30
0.0
 10
175.3720619905861
 20
114.789998148975
 30
0.0
 10
175.0679340585657
 20
114.526079302767
 30
0.0
 10
174.5222397269384
 20
113.932483427804
 30
0.0
 10
174.2874161265023
 20
113.610778353781
 30
0.0
 10
173.8967340983524
 20
112.9149866967689
 30
0.0
 10
173.7402341987066
 20
112.5350666000013
 30
0.0
 10
173.5329038676852
 20
111.7611797421394
 30
0.0
 10
173.4786859146911
 20
111.3622690445524
 30
0.0
 10
173.4774966076523
 20
110.5486465617739
 30
0.0
 10
173.5301448233265
 20
110.1504996730667
 30
0.0
 10
173.6852833780946
 20
109.5656387266786
 30
0.0
 10
173.7503399747256
 20
109.3718785036003
 30
0.0
 10
173.9023868181073
 20
108.9986290595545
 30
0.0
 10
173.9895624627027
 20
108.8179641920204
 30
0.0
 10
174.2830238562039
 20
108.2929533005443
 30
0.0
 10
174.5240206770266
 20
107.9630609327742
 30
0.0
 10
175.0659805869462
 20
107.3734991689266
 30
0.0
 10
175.3695568874997
 20
107.1092226401447
 30
0.0
 10
175.7007360775946
 20
106.8774453450409
 30
0.0
  0
SPLINE
  5
A9
330
1F
100
AcDbEntity
  8
0
  6
Continuous
 62
     7
370
    15
100
AcDbSpline
210
0.0
220
0.0
230
1.0
 70
     8
 71
     3
 72
    14
 73
    10
 74
     0
 42
0.000000001
 43
0.00000001
 40
0.0
 40
0.0
 40
0.0
 40
0.0
 40
0.25
 40
0.25
 40
0.5
 40
0.5
 40
0.75
 40
0.75
 40
1.0
 40
1.0
 40
1.0
 40
1.0
 10
176.5667614813791
 20
115.9920696722796
 30
0.0
 10
176.5227955183104
 20
115.902872403805
 30
0.0
 10
176.4701006934827
 20
115.8153323652099
 30
0.0
 10
176.3493198216851
 20
115.642229571067
 30
0.0
 10
176.280641759957
 20
115.5561516944395
 30
0.0
 10
176.1333658450132
 20
115.3913378219089
 30
0.0
 10
176.0543792155774
 20
115.3118467875192
 30
0.0
 10
175.8849402027715
 20
115.1589435233593
 30
0.0
 10
175.7948229806385
 20
115.0858693923384
 30
0.0
 10
175.7007360775951
 20
115.0200222360426
 30
0.0
  0
SPLINE
  5
AA
330
1F
100
AcDbEntity
  8
0
  6
Continuous
 62
     7
370
    15
100
AcDbSpline
210
0.0
220
0.0
230
1.0
 70
     8
 71
     3
 72
     8
 73
     4
 74
     0
 42
0.000000001
 43
0.00000001
 40
0.0
 40
0.0
 40
0.0
 40
0.0
 40
1.0
 40
1.0
 40
1.0
 40
1.0
 10
176.5667614813791
 20
115.9920696722796
 30
0.0
 10
176.7510339677755
 20
116.3659180152782
 30
0.0
 10
176.9444101431835
 20
116.7257298262827
 30
0.0
 10
177.1441117505688
 20
117.0755617916217
 30
0.0
  0
LINE
  5
AB
330
1F
100
AcDbEntity
  8
0
  6
Continuous
 62
     7
370
    15
100
AcDbLine
 10
192.2780863468
 20
110.9487337905
 30
0.0
 11
192.2780863468
 21
86.4487337905
 31
0.0
  0
LINE
  5
AC
330
1F
100
AcDbEntity
  8
0
  6
Continuous
 62
     7
370
    15
100
AcDbLine
 10
192.2780863468
 20
135.4487337905
 30
0.0
 11
192.2780863468
 21
110.9487337905
 31
0.0
  0
SPLINE
  5
AD
330
1F
100
AcDbEntity
  8
0
  6
Continuous
 62
     7
370
    15
100
AcDbSpline
210
0.0
220
0.0
230
1.0
 70
     8
 71
     3
 72
    12
 73
     8
 74
     0
 42
0.000000001
 43
0.00000001
 40
0.0
 40
0.0
 40
0.0
 40
0.0
 40
0.0001599767577976
 40
0.2512944248697292
 40
0.5029658357238095
 40
0.7514776885320058
 40
0.9999999999999999
 40
0.9999999999999999
 40
0.9999999999999999
 40
0.9999999999999999
 10
174.2779845649359
 20
133.9486911931023
 30
0.0
 10
174.2780174592412
 20
133.9487053914589
 30
0.0
 10
174.329688437281
 20
133.9710084302972
 30
0.0
 10
174.1492350857804
 20
133.8924818798017
 30
0.0
 10
173.7068896317907
 20
133.7086873644924
 30
0.0
 10
172.9627789553843
 20
133.4082432844035
 30
0.0
 10
172.2563221714498
 20
133.1651233719188
 30
0.0
 10
171.9030863468032
 20
133.0435608577955
 30
0.0
  0
SPLINE
  5
AE
330
1F
100
AcDbEntity
  8
0
  6
Continuous
 62
     7
370
    15
100
AcDbSpline
210
0.0
220
0.0
230
1.0
 70
     8
 71
     3
 72
    16
 73
    12
 74
     0
 42
0.000000001
 43
0.00000001
 40
0.0
 40
0.0
 40
0.0
 40
0.0
 40
0.2483169671324914
 40
0.49669444619821
 40
0.5811467853484369
 40
0.6649723970262438
 40
0.7484612154093763
 40
0.8319066852961164
 40
0.9156027073820199
 40
0.999840559865917
 40
0.9999999999999999
 40
0.9999999999999999
 40
0.9999999999999999
 40
0.9999999999999999
 10
171.9030863468032
 20
88.8539067232886
 30
0.0
 10
172.2568800602136
 20
88.73213255112591
 30
0.0
 10
172.964553702414
 20
88.48855453186262
 30
0.0
 10
173.5352798264752
 20
88.25783905536352
 30
0.0
 10
173.8488509451658
 20
88.12980853746231
 30
0.0
 10
174.0047503030911
 20
88.06494194768871
 30
0.0
 10
174.1259801994389
 20
88.01381097722893
 30
0.0
 10
174.2140771516466
 20
87.97614269286458
 30
0.0
 10
174.2625232842863
 20
87.95522989931852
 30
0.0
 10
174.284787314683
 20
87.94572129484355
 30
0.0
 10
174.2780578281074
 20
87.94874521537038
 30
0.0
 10
174.278045115019
 20
87.94875092804527
 30
0.0
  0
LINE
  5
AF
330
1F
100
AcDbEntity
  8
0
  6
Continuous
 62
     7
370
    15
100
AcDbLine
 10
171.9030863468
 20
88.8539067233
 30
0.0
 11
171.9030863468
 21
133.0435630396
 31
0.0
  0
SPLINE
  5
B0
330
1F
100
AcDbEntity
  8
0
  6
Continuous
 62
     7
370
    15
100
AcDbSpline
210
0.0
220
0.0
230
1.0
 70
     8
 71
     3
 72
    10
 73
     6
 74
     0
 42
0.000000001
 43
0.00000001
 40
0.0
 40
0.0
 40
0.0
 40
0.0
 40
0.5
 40
0.5
 40
1.0
 40
1.0
 40
1.0
 40
1.0
 10
171.2255059550274
 20
132.1043032449763
 30
0.0
 10
171.0003222136631
 20
131.6380683932526
 30
0.0
 10
170.7701419663784
 20
131.1604636971341
 30
0.0
 10
170.302360256475
 20
130.1870805623321
 30
0.0
 10
170.0643182107235
 20
129.6903820519714
 30
0.0
 10
169.8246253777017
 20
129.1884067882343
 30
0.0
  0
SPLINE
  5
B1
330
1F
100
AcDbEntity
  8
0
  6
Continuous
 62
     7
370
    15
100
AcDbSpline
210
0.0
220
0.0
230
1.0
 70
     8
 71
     3
 72
     9
 73
     5
 74
     0
 42
0.000000001
 43
0.00000001
 40
0.0
 40
0.0
 40
0.0
 40
0.0
 40
0.508485917530151
 40
1.0
 40
1.0
 40
1.0
 40
1.0
 10
171.9030955903213
 20
133.043578419824
 30
0.0
 10
171.7872750549117
 20
132.883932073428
 30
0.0
 10
171.5594997490148
 20
132.5699679283216
 30
0.0
 10
171.3355725021688
 20
132.2577562973126
 30
0.0
 10
171.2255091068953
 20
132.1042998839608
 30
0.0
  0
SPLINE
  5
B2
330
1F
100
AcDbEntity
  8
0
  6
Continuous
 62
     7
370
    15
100
AcDbSpline
210
0.0
220
0.0
230
1.0
 70
     8
 71
     3
 72
     9
 73
     5
 74
     0
 42
0.000000001
 43
0.00000001
 40
0.0
 40
0.0
 40
0.0
 40
0.0
 40
0.4915140812198079
 40
1.0
 40
1.0
 40
1.0
 40
1.0
 10
171.2255091068954
 20
89.79316769712328
 30
0.0
 10
171.3355725018943
 20
89.6397112841456
 30
0.0
 10
171.5594997487513
 20
89.32749965310374
 30
0.0
 10
171.7872750546341
 20
89.01353550803128
 30
0.0
 10
171.9030955903214
 20
88.85388916126008
 30
0.0
  0
SPLINE
  5
B3
330
1F
100
AcDbEntity
  8
0
  6
Continuous
 62
     7
370
    15
100
AcDbSpline
210
0.0
220
0.0
230
1.0
 70
     8
 71
     3
 72
    10
 73
     6
 74
     0
 42
0.000000001
 43
0.00000001
 40
0.0
 40
0.0
 40
0.0
 40
0.0
 40
0.5
 40
0.5
 40
1.0
 40
1.0
 40
1.0
 40
1.0
 10
171.2255060359602
 20
89.7931641685393
 30
0.0
 10
171.000604464652
 20
90.25881479704574
 30
0.0
 10
170.7704169746382
 20
90.73643167104824
 30
0.0
 10
170.3021045395085
 20
91.71091908938557
 30
0.0
 10
170.0639672185363
 20
92.20782059237482
 30
0.0
 10
169.8246253777017
 20
92.70906079284966
 30
0.0
  0
SPLINE
  5
B4
330
1F
100
AcDbEntity
  8
0
  6
Continuous
 62
     7
370
    15
100
AcDbSpline
210
0.0
220
0.0
230
1.0
 70
     8
 71
     3
 72
     8
 73
     4
 74
     0
 42
0.000000001
 43
0.00000001
 40
0.0
 40
0.0
 40
0.0
 40
0.0
 40
0.001149633737632
 40
0.001149633737632
 40
0.001149633737632
 40
0.001149633737632
 10
164.392316351327
 20
131.4939768850165
 30
0.0
 10
164.2131131001973
 20
131.7334941638832
 30
0.0
 10
164.0333465464694
 20
131.97280104032
 30
0.0
 10
163.8530863467843
 20
132.2119214277573
 30
0.0
  0
SPLINE
  5
B5
330
1F
100
AcDbEntity
  8
0
  6
Continuous
 62
     7
370
    15
100
AcDbSpline
210
0.0
220
0.0
230
1.0
 70
     8
 71
     3
 72
     8
 73
     4
 74
     0
 42
0.000000001
 43
0.00000001
 40
0.0
 40
0.0
 40
0.0
 40
0.0
 40
1.0
 40
1.0
 40
1.0
 40
1.0
 10
165.2280863467843
 20
129.9307558488283
 30
0.0
 10
164.9507746669101
 20
130.4524811649627
 30
0.0
 10
164.6720979244416
 20
130.9735106249634
 30
0.0
 10
164.392316351327
 20
131.4939768850165
 30
0.0
  0
SPLINE
  5
B6
330
1F
100
AcDbEntity
  8
0
  6
Continuous
 62
     7
370
    15
100
AcDbSpline
210
0.0
220
0.0
230
1.0
 70
     8
 71
     3
 72
     8
 73
     4
 74
     0
 42
0.000000001
 43
0.00000001
 40
0.0
 40
0.0
 40
0.0
 40
0.0
 40
1.0
 40
1.0
 40
1.0
 40
1.0
 10
165.8591021458147
 20
128.748733790542
 30
0.0
 10
165.6480815100253
 20
129.1421818297277
 30
0.0
 10
165.4377941081176
 20
129.536218380637
 30
0.0
 10
165.2280863467843
 20
129.9307558488283
 30
0.0
  0
SPLINE
  5
B7
330
1F
100
AcDbEntity
  8
0
  6
Continuous
 62
     7
370
    15
100
AcDbSpline
210
0.0
220
0.0
230
1.0
 70
     8
 71
     3
 72
     8
 73
     4
 74
     0
 42
0.000000001
 43
0.00000001
 40
0.0
 40
0.0
 40
0.0
 40
0.0
 40
1.0
 40
1.0
 40
1.0
 40
1.0
 10
165.931547315867
 20
128.6137375362258
 30
0.0
 10
165.9073891041523
 20
128.6587284518548
 30
0.0
 10
165.8832408038265
 20
128.7037272553859
 30
0.0
 10
165.8591021458147
 20
128.748733790542
 30
0.0
  0
SPLINE
  5
B8
330
1F
100
AcDbEntity
  8
0
  6
Continuous
 62
     7
370
    15
100
AcDbSpline
210
0.0
220
0.0
230
1.0
 70
     8
 71
     3
 72
     8
 73
     4
 74
     0
 42
0.000000001
 43
0.00000001
 40
0.0
 40
0.0
 40
0.0
 40
0.0
 40
1.0
 40
1.0
 40
1.0
 40
1.0
 10
165.931547315867
 20
93.28373004485823
 30
0.0
 10
165.9073891041523
 20
93.23873912922932
 30
0.0
 10
165.8832408038265
 20
93.19374032569812
 30
0.0
 10
165.8591021458147
 20
93.14873379054204
 30
0.0
  0
SPLINE
  5
B9
330
1F
100
AcDbEntity
  8
0
  6
Continuous
 62
     7
370
    15
100
AcDbSpline
210
0.0
220
0.0
230
1.0
 70
     8
 71
     3
 72
     8
 73
     4
 74
     0
 42
0.000000001
 43
0.00000001
 40
0.0
 40
0.0
 40
0.0
 40
0.0
 40
1.0
 40
1.0
 40
1.0
 40
1.0
 10
165.8591021458147
 20
93.14873379054204
 30
0.0
 10
165.6480815100253
 20
92.75528575135634
 30
0.0
 10
165.4377941081176
 20
92.36124920044702
 30
0.0
 10
165.2280863467843
 20
91.96671173225573
 30
0.0
  0
SPLINE
  5
BA
330
1F
100
AcDbEntity
  8
0
  6
Continuous
 62
     7
370
    15
100
AcDbSpline
210
0.0
220
0.0
230
1.0
 70
     8
 71
     3
 72
     8
 73
     4
 74
     0
 42
0.000000001
 43
0.00000001
 40
0.0
 40
0.0
 40
0.0
 40
0.0
 40
1.0
 40
1.0
 40
1.0
 40
1.0
 10
165.2280863467843
 20
91.96671173225573
 30
0.0
 10
164.9507593317747
 20
91.44495756508856
 30
0.0
 10
164.6720792890829
 20
90.92392228952231
 30
0.0
 10
164.392316351327
 20
90.40349069606754
 30
0.0
  0
SPLINE
  5
BB
330
1F
100
AcDbEntity
  8
0
  6
Continuous
 62
     7
370
    15
100
AcDbSpline
210
0.0
220
0.0
230
1.0
 70
     8
 71
     3
 72
     8
 73
     4
 74
     0
 42
0.000000001
 43
0.00000001
 40
0.0
 40
0.0
 40
0.0
 40
0.0
 40
0.0011496337376319
 40
0.0011496337376319
 40
0.0011496337376319
 40
0.0011496337376319
 10
163.8530863467843
 20
89.6855461533268
 30
0.0
 10
164.0333465464694
 20
89.92466654076411
 30
0.0
 10
164.2131131001973
 20
90.1639734172009
 30
0.0
 10
164.392316351327
 20
90.40349069606754
 30
0.0
  0
LINE
  5
BC
330
1F
100
AcDbEntity
  8
0
  6
Continuous
 62
     7
370
    15
100
AcDbLine
 10
163.8530863468
 20
89.6855461533
 30
0.0
 11
163.8530863468
 21
132.2119214278
 31
0.0
  0
LINE
  5
BD
330
1F
100
AcDbEntity
  8
0
  6
Continuous
 62
     7
370
    15
100
AcDbLine
 10
156.2780863468
 20
90.8963648532
 30
0.0
 11
156.2780863468
 21
131.0011027279
 31
0.0
  0
SPLINE
  5
BE
330
1F
100
AcDbEntity
  8
0
  6
Continuous
 62
     7
370
    15
100
AcDbSpline
210
0.0
220
0.0
230
1.0
 70
     8
 71
     3
 72
    12
 73
     8
 74
     0
 42
0.000000001
 43
0.00000001
 40
0.0
 40
0.0
 40
0.0
 40
0.0
 40
0.2499999999999987
 40
0.2499999999999987
 40
0.4999999999999974
 40
0.4999999999999974
 40
1.0
 40
1.0
 40
1.0
 40
1.0
 10
156.7007644851204
 20
132.0712987466804
 30
0.0
 10
156.6438022096392
 20
132.0045276370045
 30
0.0
 10
156.5906033493287
 20
131.9322083666583
 30
0.0
 10
156.4925752615373
 20
131.7752310151832
 30
0.0
 10
156.4473476272754
 20
131.6896260844693
 30
0.0
 10
156.3319555778171
 20
131.4188281530837
 30
0.0
 10
156.2780863467843
 20
131.2144165515911
 30
0.0
 10
156.2780863467843
 20
131.001102727902
 30
0.0
  0
SPLINE
  5
BF
330
1F
100
AcDbEntity
  8
0
  6
Continuous
 62
     7
370
    15
100
AcDbSpline
210
0.0
220
0.0
230
1.0
 70
     8
 71
     3
 72
     8
 73
     4
 74
     0
 42
0.000000001
 43
0.00000001
 40
0.0
 40
0.0
 40
0.0
 40
0.0
 40
1.0
 40
1.0
 40
1.0
 40
1.0
 10
157.2780863467843
 20
132.2119214277573
 30
0.0
 10
157.0689184719345
 20
132.2119214277573
 30
0.0
 10
156.866624395531
 20
132.1612398892607
 30
0.0
 10
156.7007644851204
 20
132.0712987466804
 30
0.0
  0
SPLINE
  5
C0
330
1F
100
AcDbEntity
  8
0
  6
Continuous
 62
     7
370
    15
100
AcDbSpline
210
0.0
220
0.0
230
1.0
 70
     8
 71
     3
 72
     8
 73
     4
 74
     0
 42
0.000000001
 43
0.00000001
 40
0.0
 40
0.0
 40
0.0
 40
0.0
 40
1.0
 40
1.0
 40
1.0
 40
1.0
 10
156.7007644851204
 20
89.82616883440365
 30
0.0
 10
156.8666132966456
 20
89.73623371043531
 30
0.0
 10
157.0689244799588
 20
89.6855461533268
 30
0.0
 10
157.2780863467843
 20
89.6855461533268
 30
0.0
  0
SPLINE
  5
C1
330
1F
100
AcDbEntity
  8
0
  6
Continuous
 62
     7
370
    15
100
AcDbSpline
210
0.0
220
0.0
230
1.0
 70
     8
 71
     3
 72
    12
 73
     8
 74
     0
 42
0.000000001
 43
0.00000001
 40
0.0
 40
0.0
 40
0.0
 40
0.0
 40
0.2500000000000018
 40
0.2500000000000018
 40
0.5000000000000036
 40
0.5000000000000036
 40
1.0
 40
1.0
 40
1.0
 40
1.0
 10
156.7007644851204
 20
89.82616883440365
 30
0.0
 10
156.6438022096392
 20
89.89293994407957
 30
0.0
 10
156.5906033493287
 20
89.96525921442574
 30
0.0
 10
156.4925752615373
 20
90.12223656590082
 30
0.0
 10
156.4473476272754
 20
90.20784149661476
 30
0.0
 10
156.3319555778171
 20
90.47863942800035
 30
0.0
 10
156.2780863467843
 20
90.68305102949299
 30
0.0
 10
156.2780863467843
 20
90.89636485318205
 30
0.0
  0
LINE
  5
C2
330
1F
100
AcDbEntity
  8
0
  6
Continuous
 62
     7
370
    15
100
AcDbLine
 10
163.8530863468
 20
132.2119214278
 30
0.0
 11
157.2780863468
 21
132.2119214278
 31
0.0
  0
LINE
  5
C3
330
1F
100
AcDbEntity
  8
0
  6
Continuous
 62
     7
370
    15
100
AcDbLine
 10
157.2780863468
 20
89.6855461533
 30
0.0
 11
163.8530863468
 21
89.6855461533
 31
0.0
  0
SPLINE
  5
C4
330
1F
100
AcDbEntity
  8
0
  6
Continuous
 62
     7
370
    15
100
AcDbSpline
210
0.0
220
0.0
230
1.0
 70
     8
 71
     3
 72
    10
 73
     6
 74
     0
 42
0.000000001
 43
0.00000001
 40
0.0
 40
0.0
 40
0.0
 40
0.0
 40
0.5
 40
0.5
 40
1.0
 40
1.0
 40
1.0
 40
1.0
 10
166.6243676388945
 20
128.2156704455106
 30
0.0
 10
166.4837855383242
 20
128.2043023516237
 30
0.0
 10
166.3421672876662
 20
128.2368508751012
 30
0.0
 10
166.0986748942148
 20
128.3797293850184
 30
0.0
 10
165.9991647127946
 20
128.4878106407895
 30
0.0
 10
165.931547315862
 20
128.6137375362225
 30
0.0
  0
SPLINE
  5
C5
330
1F
100
AcDbEntity
  8
0
  6
Continuous
 62
     7
370
    15
100
AcDbSpline
210
0.0
220
0.0
230
1.0
 70
     8
 71
     3
 72
    10
 73
     6
 74
     0
 42
0.000000001
 43
0.00000001
 40
0.0
 40
0.0
 40
0.0
 40
0.0
 40
0.5
 40
0.5
 40
1.0
 40
1.0
 40
1.0
 40
1.0
 10
166.6243676388945
 20
93.68179713557345
 30
0.0
 10
166.4837855383242
 20
93.6931652294603
 30
0.0
 10
166.3421672876663
 20
93.66061670598286
 30
0.0
 10
166.0986748942148
 20
93.5177381960657
 30
0.0
 10
165.9991647127946
 20
93.40965694029457
 30
0.0
 10
165.931547315862
 20
93.28373004486153
 30
0.0
  0
SPLINE
  5
C6
330
1F
100
AcDbEntity
  8
0
  6
Continuous
 62
     7
370
    15
100
AcDbSpline
210
0.0
220
0.0
230
1.0
 70
     8
 71
     3
 72
     8
 73
     4
 74
     0
 42
0.000000001
 43
0.00000001
 40
0.0
 40
0.0
 40
0.0
 40
0.0
 40
1.0
 40
1.0
 40
1.0
 40
1.0
 10
169.4620444106645
 20
93.14873379054224
 30
0.0
 10
169.362832652096
 20
93.220508464299
 30
0.0
 10
169.2511707340434
 20
93.27476544712968
 30
0.0
 10
169.131805054675
 20
93.30116965975526
 30
0.0
  0
SPLINE
  5
C7
330
1F
100
AcDbEntity
  8
0
  6
Continuous
 62
     7
370
    15
100
AcDbSpline
210
0.0
220
0.0
230
1.0
 70
     8
 71
     3
 72
     8
 73
     4
 74
     0
 42
0.000000001
 43
0.00000001
 40
0.0
 40
0.0
 40
0.0
 40
0.0
 40
1.0
 40
1.0
 40
1.0
 40
1.0
 10
169.4620444106645
 20
128.7487337905418
 30
0.0
 10
169.362832652096
 20
128.6769591167851
 30
0.0
 10
169.2511707340434
 20
128.6227021339544
 30
0.0
 10
169.131805054675
 20
128.5962979213288
 30
0.0
  0
SPLINE
  5
C8
330
1F
100
AcDbEntity
  8
0
  6
Continuous
 62
     7
370
    15
100
AcDbSpline
210
0.0
220
0.0
230
1.0
 70
     8
 71
     3
 72
    10
 73
     6
 74
     0
 42
0.000000001
 43
0.00000001
 40
0.0
 40
0.0
 40
0.0
 40
0.0
 40
0.5
 40
0.5
 40
1.0
 40
1.0
 40
1.0
 40
1.0
 10
169.8246253777017
 20
129.1884067882343
 30
0.0
 10
169.7812871953942
 20
129.0976460624362
 30
0.0
 10
169.7285372001789
 20
129.016143621754
 30
0.0
 10
169.6064795491526
 20
128.8685657141179
 30
0.0
 10
169.5369991335956
 20
128.8029597297101
 30
0.0
 10
169.4620444106645
 20
128.7487337905418
 30
0.0
  0
SPLINE
  5
C9
330
1F
100
AcDbEntity
  8
0
  6
Continuous
 62
     7
370
    15
100
AcDbSpline
210
0.0
220
0.0
230
1.0
 70
     8
 71
     3
 72
    10
 73
     6
 74
     0
 42
0.000000001
 43
0.00000001
 40
0.0
 40
0.0
 40
0.0
 40
0.0
 40
0.5
 40
0.5
 40
1.0
 40
1.0
 40
1.0
 40
1.0
 10
169.8246253777017
 20
92.70906079284971
 30
0.0
 10
169.7812871953942
 20
92.79982151864782
 30
0.0
 10
169.7285372001789
 20
92.88132395933
 30
0.0
 10
169.6064795491526
 20
93.02890186696612
 30
0.0
 10
169.5369991335956
 20
93.094507851374
 30
0.0
 10
169.4620444106645
 20
93.14873379054224
 30
0.0
  0
SPLINE
  5
CA
330
1F
100
AcDbEntity
  8
0
  6
Continuous
 62
     7
370
    15
100
AcDbSpline
210
0.0
220
0.0
230
1.0
 70
     8
 71
     3
 72
     8
 73
     4
 74
     0
 42
0.000000001
 43
0.00000001
 40
0.0
 40
0.0
 40
0.0
 40
0.0
 40
1.0
 40
1.0
 40
1.0
 40
1.0
 10
169.1318050546741
 20
128.5962979213315
 30
0.0
 10
168.351375768404
 20
128.4236635349415
 30
0.0
 10
167.5175657031546
 20
128.2878984134586
 30
0.0
 10
166.6243676388945
 20
128.2156704455106
 30
0.0
  0
SPLINE
  5
CB
330
1F
100
AcDbEntity
  8
0
  6
Continuous
 62
     7
370
    15
100
AcDbSpline
210
0.0
220
0.0
230
1.0
 70
     8
 71
     3
 72
     8
 73
     4
 74
     0
 42
0.000000001
 43
0.00000001
 40
0.0
 40
0.0
 40
0.0
 40
0.0
 40
1.0
 40
1.0
 40
1.0
 40
1.0
 10
169.1318050546741
 20
93.3011696597525
 30
0.0
 10
168.351375768404
 20
93.47380404614256
 30
0.0
 10
167.5175657031546
 20
93.60956916762545
 30
0.0
 10
166.6243676388945
 20
93.68179713557346
 30
0.0
  0
SPLINE
  5
CC
330
1F
100
AcDbEntity
  8
0
  6
Continuous
 62
     7
370
    15
100
AcDbSpline
210
0.0
220
0.0
230
1.0
 70
    24
 71
     3
 72
    10
 73
     6
 74
     0
 42
0.000000001
 43
0.00000001
 40
0.0
 40
0.0
 40
0.0
 40
0.0
 40
0.0861942361391783
 40
0.5427916980716158
 40
0.9999999999999999
 40
0.9999999999999999
 40
0.9999999999999999
 40
0.9999999999999999
 10
156.1594301389395
 20
127.148733790542
 30
0.0
 10
156.1536721957632
 20
127.148733790542
 30
0.0
 10
156.1174126511114
 20
127.148733790542
 30
0.0
 10
156.0391600874928
 20
127.148733790542
 30
0.0
 10
156.023659532952
 20
127.148733790542
 30
0.0
 10
156.0159040749533
 20
127.148733790542
 30
0.0
  0
SPLINE
  5
CD
330
1F
100
AcDbEntity
  8
0
  6
Continuous
 62
     7
370
    15
100
AcDbSpline
210
0.0
220
0.0
230
1.0
 70
    24
 71
     3
 72
    10
 73
     6
 74
     0
 42
0.000000001
 43
0.00000001
 40
0.0
 40
0.0
 40
0.0
 40
0.0
 40
0.3862113823250352
 40
0.7731979974658199
 40
1.0
 40
1.0
 40
1.0
 40
1.0
 10
156.0159040749533
 20
94.74873379054202
 30
0.0
 10
156.0214926529839
 20
94.74873379054202
 30
0.0
 10
156.0326810268632
 20
94.74873379054203
 30
0.0
 10
156.1005589061038
 20
94.74873379054202
 30
0.0
 10
156.1434589798534
 20
94.74873379054202
 30
0.0
 10
156.1593110539308
 20
94.74873379054202
 30
0.0
  0
LINE
  5
CE
330
1F
100
AcDbEntity
  8
0
  6
Continuous
 62
     7
370
    15
100
AcDbLine
 10
154.2780863468
 20
95.0737337905
 30
0.0
 11
154.2780863468
 21
126.8237337905
 31
0.0
  0
LINE
  5
CF
330
1F
100
AcDbEntity
  8
0
  6
Continuous
 62
     7
370
    15
100
AcDbLine
 10
105.8780863468
 20
102.5644393254
 30
0.0
 11
105.8780863468
 21
119.3330282557
 31
0.0
  0
CIRCLE
  5
D0
330
1F
100
AcDbEntity
  8
0
  6
HIDDEN
 62
     7
370
     0
100
AcDbCircle
 10
179.2280863468
 20
110.9487337905
 30
0.0
 40
3.680384757729341
  0
CIRCLE
  5
D1
330
1F
100
AcDbEntity
  8
0
  6
HIDDEN
 62
     7
370
     0
100
AcDbCircle
 10
179.2280863468
 20
110.9487337905
 30
0.0
 40
3.380384757729331
  0
LINE
  5
D2
330
1F
100
AcDbEntity
  8
0
  6
HIDDEN
 62
     7
370
     0
100
AcDbLine
 10
172.2721349539
 20
88.7241971144
 30
0.0
 11
171.9032656675
 21
88.8539616005
 31
0.0
  0
SPLINE
  5
D3
330
1F
100
AcDbEntity
  8
0
  6
HIDDEN
 62
     7
370
     0
100
AcDbSpline
210
0.0
220
0.0
230
1.0
 70
     8
 71
     3
 72
    16
 73
    12
 74
     0
 42
0.000000001
 43
0.00000001
 40
0.0
 40
0.0
 40
0.0
 40
0.0
 40
0.2500000000000001
 40
0.2500000000000001
 40
0.5000000000000001
 40
0.5000000000000001
 40
0.6250000000000001
 40
0.6250000000000001
 40
0.7500000000000002
 40
0.7500000000000002
 40
1.0
 40
1.0
 40
1.0
 40
1.0
 10
192.2780863467843
 20
124.0172102482424
 30
0.0
 10
192.2780863467843
 20
123.9276898563395
 30
0.0
 10
192.2728588399084
 20
123.8363867481694
 30
0.0
 10
192.2435870041976
 20
123.6473644136573
 30
0.0
 10
192.2198434806014
 20
123.5475191622213
 30
0.0
 10
192.1515344197637
 20
123.4073318771679
 30
0.0
 10
192.1226635781061
 20
123.362894648233
 30
0.0
 10
192.0562125345118
 20
123.2930063199153
 30
0.0
 10
192.018405517997
 20
123.267606216714
 30
0.0
 10
191.9081832997916
 20
123.2227838352175
 30
0.0
 10
191.8401730506082
 20
123.2286262761821
 30
0.0
 10
191.7780863467673
 20
123.2448313307261
 30
0.0
  0
SPLINE
  5
D4
330
1F
100
AcDbEntity
  8
0
  6
HIDDEN
 62
     7
370
     0
100
AcDbSpline
210
0.0
220
0.0
230
1.0
 70
     8
 71
     3
 72
     8
 73
     4
 74
     0
 42
0.000000001
 43
0.00000001
 40
0.0
 40
0.0
 40
0.0
 40
0.0
 40
1.0
 40
1.0
 40
1.0
 40
1.0
 10
191.7780863467673
 20
123.2448313307261
 30
0.0
 10
191.69184296196
 20
123.1861744865795
 30
0.0
 10
191.5884636535411
 20
123.14610165061
 30
0.0
 10
191.4780863467843
 20
123.14610165061
 30
0.0
  0
SPLINE
  5
D5
330
1F
100
AcDbEntity
  8
0
  6
HIDDEN
 62
     7
370
     0
100
AcDbSpline
210
0.0
220
0.0
230
1.0
 70
     8
 71
     3
 72
     8
 73
     4
 74
     0
 42
0.000000001
 43
0.00000001
 40
0.0
 40
0.0
 40
0.0
 40
0.0
 40
1.0
 40
1.0
 40
1.0
 40
1.0
 10
191.7780863468005
 20
98.65263625033533
 30
0.0
 10
191.6918429619857
 20
98.71129309449447
 30
0.0
 10
191.5884636535552
 20
98.75136593047407
 30
0.0
 10
191.4780863467843
 20
98.75136593047407
 30
0.0
  0
SPLINE
  5
D6
330
1F
100
AcDbEntity
  8
0
  6
HIDDEN
 62
     7
370
     0
100
AcDbSpline
210
0.0
220
0.0
230
1.0
 70
     8
 71
     3
 72
    16
 73
    12
 74
     0
 42
0.000000001
 43
0.00000001
 40
0.0
 40
0.0
 40
0.0
 40
0.0
 40
0.2499999999999903
 40
0.2499999999999903
 40
0.374999999999992
 40
0.374999999999992
 40
0.4999999999999936
 40
0.4999999999999936
 40
0.7499999999999968
 40
0.7499999999999968
 40
1.0
 40
1.0
 40
1.0
 40
1.0
 10
191.7780863467905
 20
98.65263625033838
 30
0.0
 10
191.8401594961749
 20
98.66883784472725
 30
0.0
 10
191.9082210535696
 20
98.67466566783895
 30
0.0
 10
192.0183677355415
 20
98.62988272160733
 30
0.0
 10
192.055796502479
 20
98.60478616602855
 30
0.0
 10
192.1222069176124
 20
98.53517392233469
 30
0.0
 10
192.1512009337187
 20
98.4907278269766
 30
0.0
 10
192.2197996260412
 20
98.35023489211952
 30
0.0
 10
192.2433386968542
 20
98.25119588106377
 30
0.0
 10
192.2727392403727
 20
98.06236209429561
 30
0.0
 10
192.2780863467843
 20
97.96985198850157
 30
0.0
 10
192.2780863467844
 20
97.88025851258725
 30
0.0
  0
LINE
  5
D7
330
1F
100
AcDbEntity
  8
0
  6
HIDDEN
 62
     7
370
     0
100
AcDbLine
 10
161.7780863468
 20
110.9487337905
 30
0.0
 11
161.7780863468
 21
97.4487337905
 31
0.0
  0
LINE
  5
D8
330
1F
100
AcDbEntity
  8
0
  6
HIDDEN
 62
     7
370
     0
100
AcDbLine
 10
161.7780863468
 20
124.4487337905
 30
0.0
 11
161.7780863468
 21
110.9487337905
 31
0.0
  0
LINE
  5
D9
330
1F
100
AcDbEntity
  8
0
  6
HIDDEN
 62
     7
370
     0
100
AcDbLine
 10
166.6441117506
 20
110.9487337905
 30
0.0
 11
166.6441117506
 21
96.9487337905
 31
0.0
  0
LINE
  5
DA
330
1F
100
AcDbEntity
  8
0
  6
HIDDEN
 62
     7
370
     0
100
AcDbLine
 10
166.6441117506
 20
124.9487337905
 30
0.0
 11
166.6441117506
 21
110.9487337905
 31
0.0
  0
LINE
  5
DB
330
1F
100
AcDbEntity
  8
0
  6
HIDDEN
 62
     7
370
     0
100
AcDbLine
 10
178.6780863468
 20
123.1461016506
 30
0.0
 11
191.4780863468
 21
123.1461016506
 31
0.0
  0
LINE
  5
DC
330
1F
100
AcDbEntity
  8
0
  6
HIDDEN
 62
     7
370
     0
100
AcDbLine
 10
178.6780863468
 20
98.7513659305
 30
0.0
 11
191.4780863468
 21
98.7513659305
 31
0.0
  0
LINE
  5
DD
330
1F
100
AcDbEntity
  8
0
  6
HIDDEN
 62
     7
370
     0
100
AcDbLine
 10
156.2780863468
 20
127.1487337905
 30
0.0
 11
156.615344647
 21
127.1487337905
 31
0.0
  0
ELLIPSE
  5
DE
330
1F
100
AcDbEntity
  8
0
  6
HIDDEN
 62
     7
370
     0
100
AcDbEllipse
 10
156.615344647
 20
128.7487337905
 30
0.0
 11
0.0
 21
1.599999999999994
 31
0.0
210
0.0
220
0.0
230
1.0
 40
0.4142135624
 41
3.141592653589793
 42
4.712388980384695
  0
ELLIPSE
  5
DF
330
1F
100
AcDbEntity
  8
0
  6
HIDDEN
 62
     7
370
     0
100
AcDbEllipse
 10
156.615344647
 20
93.1487337905
 30
0.0
 11
0.0
 21
1.59999999999998
 31
0.0
210
0.0
220
0.0
230
1.0
 40
0.4142135624
 41
4.712388980384695
 42
6.283185307179586
  0
LINE
  5
E0
330
1F
100
AcDbEntity
  8
0
  6
HIDDEN
 62
     7
370
     0
100
AcDbLine
 10
156.615344647
 20
94.7487337905
 30
0.0
 11
156.2780863468
 21
94.7487337905
 31
0.0
  0
LINE
  5
E1
330
1F
100
AcDbEntity
  8
0
  6
HIDDEN
 62
     7
370
     0
100
AcDbLine
 10
156.7007644851
 20
132.0712987467
 30
0.0
 11
157.2780863468
 21
131.493976885
 31
0.0
  0
LINE
  5
E2
330
1F
100
AcDbEntity
  8
0
  6
HIDDEN
 62
     7
370
     0
100
AcDbLine
 10
157.2780863468
 20
90.4034906961
 30
0.0
 11
156.7007644851
 21
89.8261688344
 31
0.0
  0
LINE
  5
E3
330
1F
100
AcDbEntity
  8
0
  6
HIDDEN
 62
     7
370
     0
100
AcDbLine
 10
191.7194988049
 20
130.8424763121
 30
0.0
 11
191.7187769512
 21
130.8397729454
 31
0.0
  0
SPLINE
  5
E4
330
1F
100
AcDbEntity
  8
0
  6
HIDDEN
 62
     7
370
     0
100
AcDbSpline
210
0.0
220
0.0
230
1.0
 70
     8
 71
     3
 72
    19
 73
    15
 74
     0
 42
0.000000001
 43
0.00000001
 40
0.0
 40
0.0
 40
0.0
 40
0.0
 40
0.0746968170522732
 40
0.1573847621486721
 40
0.2406849516784449
 40
0.320849609784335
 40
0.4015715962589261
 40
0.4840486451503992
 40
0.5671311466909802
 40
0.6473270181104012
 40
0.7280768397411405
 40
0.8105747323353644
 40
0.893679088089899
 40
1.0
 40
1.0
 40
1.0
 40
1.0
 10
191.7183432440317
 20
91.05031576926814
 30
0.0
 10
191.7171302033844
 20
91.05403513801768
 30
0.0
 10
191.7145743499853
 20
91.06187177670041
 30
0.0
 10
191.7133215169511
 20
91.11094398132754
 30
0.0
 10
191.7141647538724
 20
91.18849153360254
 30
0.0
 10
191.7174707376304
 20
91.29480188932074
 30
0.0
 10
191.7229793237341
 20
91.42798440836162
 30
0.0
 10
191.7304222646563
 20
91.59000333069416
 30
0.0
 10
191.7397706948308
 20
91.77799408015034
 30
0.0
 10
191.7498521368097
 20
91.9891301384316
 30
0.0
 10
191.7596756914536
 20
92.22228714028795
 30
0.0
 10
191.768429688639
 20
92.48014317778505
 30
0.0
 10
191.7760859947527
 20
92.78551343756152
 30
0.0
 10
191.7773672187573
 20
93.01815587670818
 30
0.0
 10
191.7780863461801
 20
93.14873379054202
 30
0.0
  0
LINE
  5
E5
330
1F
100
AcDbEntity
  8
0
  6
HIDDEN
 62
     7
370
     0
100
AcDbLine
 10
157.2780863468
 20
131.493976885
 30
0.0
 11
164.3923163513
 21
131.493976885
 31
0.0
  0
LINE
  5
E6
330
1F
100
AcDbEntity
  8
0
  6
HIDDEN
 62
     7
370
     0
100
AcDbLine
 10
157.2780863468
 20
131.493976885
 30
0.0
 11
157.2780863468
 21
128.7487337905
 31
0.0
  0
LINE
  5
E7
330
1F
100
AcDbEntity
  8
0
  6
HIDDEN
 62
     7
370
     0
100
AcDbLine
 10
165.2280863468
 20
127.1487337905
 30
0.0
 11
165.7336828566
 21
127.1487337905
 31
0.0
  0
SPLINE
  5
E8
330
1F
100
AcDbEntity
  8
0
  6
HIDDEN
 62
     7
370
     0
100
AcDbSpline
210
0.0
220
0.0
230
1.0
 70
    24
 71
     3
 72
    12
 73
     8
 74
     0
 42
0.000000001
 43
0.00000001
 40
0.0
 40
0.0
 40
0.0
 40
0.0
 40
0.4999999999999907
 40
0.4999999999999907
 40
0.7499999999999953
 40
0.7499999999999953
 40
1.0
 40
1.0
 40
1.0
 40
1.0
 10
166.0434469808226
 20
127.148733790542
 30
0.0
 10
166.0897281248845
 20
127.148733790542
 30
0.0
 10
166.1359013148509
 20
127.148733790542
 30
0.0
 10
166.2051165734398
 20
127.148733790542
 30
0.0
 10
166.2281797370241
 20
127.148733790542
 30
0.0
 10
166.2743756776777
 20
127.148733790542
 30
0.0
 10
166.297355169548
 20
127.148733790542
 30
0.0
 10
166.320995679353
 20
127.148733790542
 30
0.0
  0
LINE
  5
E9
330
1F
100
AcDbEntity
  8
0
  6
HIDDEN
 62
     7
370
     0
100
AcDbLine
 10
165.2280863468
 20
94.7487337905
 30
0.0
 11
156.615344647
 21
94.7487337905
 31
0.0
  0
LINE
  5
EA
330
1F
100
AcDbEntity
  8
0
  6
HIDDEN
 62
     7
370
     0
100
AcDbLine
 10
164.3923163513
 20
90.4034906961
 30
0.0
 11
157.2780863468
 21
90.4034906961
 31
0.0
  0
LINE
  5
EB
330
1F
100
AcDbEntity
  8
0
  6
HIDDEN
 62
     7
370
     0
100
AcDbLine
 10
157.2780863468
 20
90.4034906961
 30
0.0
 11
157.2780863468
 21
93.1487337905
 31
0.0
  0
SPLINE
  5
EC
330
1F
100
AcDbEntity
  8
0
  6
HIDDEN
 62
     7
370
     0
100
AcDbSpline
210
0.0
220
0.0
230
1.0
 70
    24
 71
     3
 72
    12
 73
     8
 74
     0
 42
0.000000001
 43
0.00000001
 40
0.0
 40
0.0
 40
0.0
 40
0.0
 40
0.2499999999999953
 40
0.2499999999999953
 40
0.4999999999999907
 40
0.4999999999999907
 40
1.0
 40
1.0
 40
1.0
 40
1.0
 10
166.320995679353
 20
94.74873379054202
 30
0.0
 10
166.297355169548
 20
94.74873379054203
 30
0.0
 10
166.2743756776777
 20
94.74873379054203
 30
0.0
 10
166.2281797370241
 20
94.74873379054202
 30
0.0
 10
166.2051165734398
 20
94.74873379054202
 30
0.0
 10
166.1359013148509
 20
94.74873379054202
 30
0.0
 10
166.0897281248845
 20
94.74873379054202
 30
0.0
 10
166.0434469808226
 20
94.74873379054202
 30
0.0
  0
LINE
  5
ED
330
1F
100
AcDbEntity
  8
0
  6
HIDDEN
 62
     7
370
     0
100
AcDbLine
 10
156.615344647
 20
127.1487337905
 30
0.0
 11
165.2280863468
 21
127.1487337905
 31
0.0
  0
LINE
  5
EE
330
1F
100
AcDbEntity
  8
0
  6
HIDDEN
 62
     7
370
     0
100
AcDbLine
 10
165.7336828566
 20
94.7487337905
 30
0.0
 11
165.2280863468
 21
94.7487337905
 31
0.0
  0
SPLINE
  5
EF
330
1F
100
AcDbEntity
  8
0
  6
HIDDEN
 62
     7
370
     0
100
AcDbSpline
210
0.0
220
0.0
230
1.0
 70
    24
 71
     3
 72
     8
 73
     4
 74
     0
 42
0.000000001
 43
0.00000001
 40
0.0
 40
0.0
 40
0.0
 40
0.0
 40
1.0
 40
1.0
 40
1.0
 40
1.0
 10
166.0434469808226
 20
94.74873379054202
 30
0.0
 10
165.9401596462579
 20
94.74873379054202
 30
0.0
 10
165.8369050467722
 20
94.74873379054202
 30
0.0
 10
165.7336828565665
 20
94.74873379054202
 30
0.0
  0
SPLINE
  5
F0
330
1F
100
AcDbEntity
  8
0
  6
HIDDEN
 62
     7
370
     0
100
AcDbSpline
210
0.0
220
0.0
230
1.0
 70
    24
 71
     3
 72
     8
 73
     4
 74
     0
 42
0.000000001
 43
0.00000001
 40
0.0
 40
0.0
 40
0.0
 40
0.0
 40
1.0
 40
1.0
 40
1.0
 40
1.0
 10
165.7336828565665
 20
127.148733790542
 30
0.0
 10
165.8369050467722
 20
127.148733790542
 30
0.0
 10
165.9401596462579
 20
127.148733790542
 30
0.0
 10
166.0434469808225
 20
127.148733790542
 30
0.0
  0
SPLINE
  5
F1
330
1F
100
AcDbEntity
  8
0
  6
HIDDEN
 62
     7
370
     0
100
AcDbSpline
210
0.0
220
0.0
230
1.0
 70
    24
 71
     3
 72
    11
 73
     7
 74
     0
 42
0.000000001
 43
0.00000001
 40
0.0
 40
0.0
 40
0.0
 40
0.0
 40
0.0000172284261762
 40
0.0000172284261762
 40
0.0000172284261762
 40
0.0003364215432166
 40
0.0003364215432166
 40
0.0003364215432166
 40
0.0003364215432166
 10
168.6205123731229
 20
94.74873379054202
 30
0.0
 10
168.6156280520683
 20
94.74873379054202
 30
0.0
 10
168.6107462096068
 20
94.74873379054202
 30
0.0
 10
168.6058664500412
 20
94.74873379054202
 30
0.0
 10
168.5154597365055
 20
94.74873379054202
 30
0.0
 10
168.4258601754143
 20
94.74873379054202
 30
0.0
 10
168.3337824337058
 20
94.74873379054202
 30
0.0
  0
SPLINE
  5
F2
330
1F
100
AcDbEntity
  8
0
  6
HIDDEN
 62
     7
370
     0
100
AcDbSpline
210
0.0
220
0.0
230
1.0
 70
    24
 71
     3
 72
     8
 73
     4
 74
     0
 42
0.000000001
 43
0.00000001
 40
0.0000000000000044
 40
0.0000000000000044
 40
0.0000000000000044
 40
0.0000000000000044
 40
0.0003364172281863
 40
0.0003364172281863
 40
0.0003364172281863
 40
0.0003364172281863
 10
168.3337824337058
 20
127.148733790542
 30
0.0
 10
168.430830083663
 20
127.148733790542
 30
0.0
 10
168.5251368737035
 20
127.148733790542
 30
0.0
 10
168.6205123731229
 20
127.148733790542
 30
0.0
  0
SPLINE
  5
F3
330
1F
100
AcDbEntity
  8
0
  6
HIDDEN
 62
     7
370
     0
100
AcDbSpline
210
0.0
220
0.0
230
1.0
 70
     8
 71
     3
 72
    18
 73
    14
 74
     0
 42
0.000000001
 43
0.00000001
 40
0.0
 40
0.0
 40
0.0
 40
0.0
 40
0.1460838096918961
 40
0.278130599249695
 40
0.3961757258599856
 40
0.5002703092959755
 40
0.5869262499628183
 40
0.6721524275985051
 40
0.7559997285044003
 40
0.8385215906750008
 40
0.919774068126477
 40
0.999815882648149
 40
1.0
 40
1.0
 40
1.0
 40
1.0
 10
171.2255038601009
 20
132.1043058026863
 30
0.0
 10
171.4074490804723
 20
132.170706517105
 30
0.0
 10
171.7538566206319
 20
132.2971275799925
 30
0.0
 10
172.1706212909126
 20
132.4631545465833
 30
0.0
 10
172.494266049682
 20
132.5994481452564
 30
0.0
 10
172.7328358428154
 20
132.7036476665756
 30
0.0
 10
172.9118481222849
 20
132.7816636849851
 30
0.0
 10
173.0479870826013
 20
132.8422207149301
 30
0.0
 10
173.151968228106
 20
132.8892330449457
 30
0.0
 10
173.2261008574223
 20
132.9235321135767
 30
0.0
 10
173.2659183700557
 20
132.942432964383
 30
0.0
 10
173.283658018176
 20
132.9513080937068
 30
0.0
 10
173.2780606562969
 20
132.9487209323324
 30
0.0
 10
173.2780478104325
 20
132.9487149948345
 30
0.0
  0
SPLINE
  5
F4
330
1F
100
AcDbEntity
  8
0
  6
HIDDEN
 62
     7
370
     0
100
AcDbSpline
210
0.0
220
0.0
230
1.0
 70
     8
 71
     3
 72
    14
 73
    10
 74
     0
 42
0.000000001
 43
0.00000001
 40
0.0
 40
0.0
 40
0.0
 40
0.0
 40
0.0001837459954022
 40
0.1206873855958305
 40
0.2440221049689162
 40
0.3703795474100068
 40
0.4999379337759421
 40
0.7219783401061239
 40
1.0
 40
1.0
 40
1.0
 40
1.0
 10
173.2779887419372
 20
88.94878007264278
 30
0.0
 10
173.2780212888011
 20
88.94876496780799
 30
0.0
 10
173.2993986031731
 20
88.93884386440656
 30
0.0
 10
173.2463190737504
 20
88.96455062458153
 30
0.0
 10
173.1605738600175
 20
89.00438326179938
 30
0.0
 10
172.988778410422
 20
89.0821116170546
 30
0.0
 10
172.692157703567
 20
89.21137475766781
 30
0.0
 10
172.1657882852747
 20
89.44340932543697
 30
0.0
 10
171.5614824031343
 20
89.66818967801824
 30
0.0
 10
171.2255038601008
 20
89.7931617783978
 30
0.0
  0
LINE
  5
F5
330
1F
100
AcDbEntity
  8
0
  6
HIDDEN
 62
     7
370
     0
100
AcDbLine
 10
178.6780863468
 20
128.7487337905
 30
0.0
 11
178.6780863468
 21
123.1461016506
 31
0.0
  0
LINE
  5
F6
330
1F
100
AcDbEntity
  8
0
  6
HIDDEN
 62
     7
370
     0
100
AcDbLine
 10
178.6780863468
 20
93.1487337905
 30
0.0
 11
178.6780863468
 21
98.7513659305
 31
0.0
  0
LINE
  5
F7
330
1F
100
AcDbEntity
  8
0
  6
HIDDEN
 62
     7
370
     0
100
AcDbLine
 10
171.6780863468
 20
94.7487337905
 30
0.0
 11
168.6205123731
 21
94.7487337905
 31
0.0
  0
LINE
  5
F8
330
1F
100
AcDbEntity
  8
0
  6
HIDDEN
 62
     7
370
     0
100
AcDbLine
 10
168.6205123731
 20
127.1487337905
 30
0.0
 11
171.6780863468
 21
127.1487337905
 31
0.0
  0
SPLINE
  5
F9
330
1F
100
AcDbEntity
  8
0
  6
HIDDEN
 62
     7
370
     0
100
AcDbSpline
210
0.0
220
0.0
230
1.0
 70
    24
 71
     3
 72
    10
 73
     6
 74
     0
 42
0.000000001
 43
0.00000001
 40
0.0
 40
0.0
 40
0.0
 40
0.0
 40
0.5
 40
0.5
 40
1.0
 40
1.0
 40
1.0
 40
1.0
 10
168.3337824337019
 20
94.74873379054202
 30
0.0
 10
168.0196003361369
 20
94.74873379054202
 30
0.0
 10
167.6957851029851
 20
94.74873379054202
 30
0.0
 10
167.0255045777433
 20
94.74873379054203
 30
0.0
 10
166.677165482814
 20
94.74873379054202
 30
0.0
 10
166.320995679353
 20
94.74873379054202
 30
0.0
  0
SPLINE
  5
FA
330
1F
100
AcDbEntity
  8
0
  6
HIDDEN
 62
     7
370
     0
100
AcDbSpline
210
0.0
220
0.0
230
1.0
 70
    24
 71
     3
 72
    10
 73
     6
 74
     0
 42
0.000000001
 43
0.00000001
 40
0.0
 40
0.0
 40
0.0
 40
0.0
 40
0.5
 40
0.5
 40
1.0
 40
1.0
 40
1.0
 40
1.0
 10
166.320995679353
 20
127.148733790542
 30
0.0
 10
166.677165482814
 20
127.148733790542
 30
0.0
 10
167.0255045777433
 20
127.148733790542
 30
0.0
 10
167.6957851029851
 20
127.148733790542
 30
0.0
 10
168.0196003361369
 20
127.148733790542
 30
0.0
 10
168.3337824337019
 20
127.148733790542
 30
0.0
  0
LINE
  5
FB
330
1F
100
AcDbEntity
  8
0
  6
HIDDEN
 62
     7
370
     0
100
AcDbLine
 10
110.8780863468
 20
104.6987337905
 30
0.0
 11
110.8780863468
 21
117.1987337905
 31
0.0
  0
SPLINE
  5
FC
330
1F
100
AcDbEntity
  8
0
  6
HIDDEN
 62
     7
370
     0
100
AcDbSpline
210
0.0
220
0.0
230
1.0
 70
     8
 71
     3
 72
     9
 73
     5
 74
     0
 42
0.000000001
 43
0.00000001
 40
0.0
 40
0.0
 40
0.0
 40
0.0
 40
0.4915031085425535
 40
1.0
 40
1.0
 40
1.0
 40
1.0
 10
171.2255041711608
 20
132.1042433045259
 30
0.0
 10
171.3355684086225
 20
132.2576928422504
 30
0.0
 10
171.5595023686497
 20
132.5698974551155
 30
0.0
 10
171.7872889204414
 20
132.8838628136772
 30
0.0
 10
171.9031176739432
 20
133.0435132225311
 30
0.0
  0
SPLINE
  5
FD
330
1F
100
AcDbEntity
  8
0
  6
HIDDEN
 62
     7
370
     0
100
AcDbSpline
210
0.0
220
0.0
230
1.0
 70
     8
 71
     3
 72
     9
 73
     5
 74
     0
 42
0.000000001
 43
0.00000001
 40
0.0
 40
0.0
 40
0.0
 40
0.0
 40
0.508496892362369
 40
1.0
 40
1.0
 40
1.0
 40
1.0
 10
171.9031176739432
 20
88.85395435855294
 30
0.0
 10
171.7872889202385
 20
89.01360476768356
 30
0.0
 10
171.5595023684532
 20
89.32757012623067
 30
0.0
 10
171.3355684084218
 20
89.63977473910941
 30
0.0
 10
171.2255041711608
 20
89.79322427655812
 30
0.0
  0
LINE
  5
FE
330
1F
100
AcDbEntity
  8
0
  6
HIDDEN
 62
     7
370
     0
100
AcDbLine
 10
113.7008104804
 20
105.8487337905
 30
0.0
 11
113.7008104804
 21
116.0487337905
 31
0.0
  0
LINE
  5
FF
330
1F
100
AcDbEntity
  8
0
  6
HIDDEN
 62
     7
370
     0
100
AcDbLine
 10
178.6780863468
 20
130.8487337905
 30
0.0
 11
178.6780863468
 21
128.7487337905
 31
0.0
  0
LINE
  5
100
330
1F
100
AcDbEntity
  8
0
  6
HIDDEN
 62
     7
370
     0
100
AcDbLine
 10
178.6780863468
 20
91.0487337905
 30
0.0
 11
178.6780863468
 21
93.1487337905
 31
0.0
  0
ARC
  5
101
330
1F
100
AcDbEntity
  8
0
  6
HIDDEN
 62
     7
370
     0
100
AcDbCircle
 10
162.7780863468
 20
124.4487337905
 30
0.0
 40
1.0
100
AcDbArc
 50
90.0
 51
180.0
  0
ARC
  5
102
330
1F
100
AcDbEntity
  8
0
  6
HIDDEN
 62
     7
370
     0
100
AcDbCircle
 10
162.7780863468
 20
97.4487337905
 30
0.0
 40
1.0
100
AcDbArc
 50
180.0
 51
270.0
  0
LINE
  5
103
330
1F
100
AcDbEntity
  8
0
  6
HIDDEN
 62
     7
370
     0
100
AcDbLine
 10
164.6464338492
 20
125.4487337905
 30
0.0
 11
162.7780863468
 21
125.4487337905
 31
0.0
  0
LINE
  5
104
330
1F
100
AcDbEntity
  8
0
  6
HIDDEN
 62
     7
370
     0
100
AcDbLine
 10
162.7780863468
 20
96.4487337905
 30
0.0
 11
164.6464338492
 21
96.4487337905
 31
0.0
  0
ARC
  5
105
330
1F
100
AcDbEntity
  8
0
  6
HIDDEN
 62
     7
370
     0
100
AcDbCircle
 10
164.6464338492
 20
124.4487337905
 30
0.0
 40
1.000000000000003
100
AcDbArc
 50
75.0
 51
90.0
  0
ARC
  5
106
330
1F
100
AcDbEntity
  8
0
  6
HIDDEN
 62
     7
370
     0
100
AcDbCircle
 10
164.6464338492
 20
97.4487337905
 30
0.0
 40
1.000000000000003
100
AcDbArc
 50
270.0
 51
285.0
  0
LINE
  5
107
330
1F
100
AcDbEntity
  8
0
  6
HIDDEN
 62
     7
370
     0
100
AcDbLine
 10
164.9052528943
 20
96.4828079643
 30
0.0
 11
166.6441117506
 21
96.9487337905
 31
0.0
  0
LINE
  5
108
330
1F
100
AcDbEntity
  8
0
  6
HIDDEN
 62
     7
370
     0
100
AcDbLine
 10
166.6441117506
 20
124.9487337905
 30
0.0
 11
164.9052528943
 21
125.4146596168
 31
0.0
  0
LINE
  5
109
330
1F
100
AcDbEntity
  8
0
  6
HIDDEN
 62
     7
370
     0
100
AcDbLine
 10
178.6780863468
 20
124.9487337905
 30
0.0
 11
166.6441117506
 21
124.9487337905
 31
0.0
  0
LINE
  5
10A
330
1F
100
AcDbEntity
  8
0
  6
HIDDEN
 62
     7
370
     0
100
AcDbLine
 10
166.6441117506
 20
96.9487337905
 30
0.0
 11
178.6780863468
 21
96.9487337905
 31
0.0
  0
LINE
  5
10B
330
1F
100
AcDbEntity
  8
0
  6
HIDDEN
 62
     7
370
     0
100
AcDbLine
 10
192.2780863468
 20
131.4079684586
 30
0.0
 11
191.7081357292
 21
130.8380410627
 31
0.0
  0
LINE
  5
10C
330
1F
100
AcDbEntity
  8
0
  6
HIDDEN
 62
     7
370
     0
100
AcDbLine
 10
191.7084473114
 20
91.0591122555
 30
0.0
 11
192.2780863468
 21
90.4894976906
 31
0.0
  0
ARC
  5
10D
330
1F
100
AcDbEntity
  8
0
  6
HIDDEN
 62
     7
370
     0
100
AcDbCircle
 10
106.6780863468
 20
103.8987337905
 30
0.0
 40
0.7999999999999972
100
AcDbArc
 50
90.0
 51
180.0
  0
ARC
  5
10E
330
1F
100
AcDbEntity
  8
0
  6
HIDDEN
 62
     7
370
     0
100
AcDbCircle
 10
106.6780863468
 20
117.9987337905
 30
0.0
 40
0.7999999999999972
100
AcDbArc
 50
180.0
 51
270.0
  0
LINE
  5
10F
330
1F
100
AcDbEntity
  8
0
  6
HIDDEN
 62
     7
370
     0
100
AcDbLine
 10
173.2780863468
 20
128.7487337905
 30
0.0
 11
173.2780863468
 21
132.9487149948
 31
0.0
  0
LINE
  5
110
330
1F
100
AcDbEntity
  8
0
  6
HIDDEN
 62
     7
370
     0
100
AcDbLine
 10
173.2780863468
 20
88.9487800726
 30
0.0
 11
173.2780863468
 21
93.1487337905
 31
0.0
  0
ARC
  5
111
330
1F
100
AcDbEntity
  8
0
  6
HIDDEN
 62
     7
370
     0
100
AcDbCircle
 10
171.6780863468
 20
93.1487337905
 30
0.0
 40
1.600000000000023
100
AcDbArc
 50
0.0
 51
90.0
  0
ARC
  5
112
330
1F
100
AcDbEntity
  8
0
  6
HIDDEN
 62
     7
370
     0
100
AcDbCircle
 10
171.6780863468
 20
128.7487337905
 30
0.0
 40
1.600000000000023
100
AcDbArc
 50
270.0
 51
0.0
  0
ARC
  5
113
330
1F
100
AcDbEntity
  8
0
  6
HIDDEN
 62
     7
370
     0
100
AcDbCircle
 10
111.9570613179
 20
104.8237337905
 30
0.0
 40
0.3999999999999915
100
AcDbArc
 50
255.0
 51
270.0
  0
ARC
  5
114
330
1F
100
AcDbEntity
  8
0
  6
HIDDEN
 62
     7
370
     0
100
AcDbCircle
 10
111.9570613179
 20
117.0737337905
 30
0.0
 40
0.3999999999999915
100
AcDbArc
 50
90.0
 51
105.0
  0
LINE
  5
115
330
1F
100
AcDbEntity
  8
0
  6
HIDDEN
 62
     7
370
     0
100
AcDbLine
 10
111.9570613179
 20
104.4237337905
 30
0.0
 11
112.6471462391
 21
104.4237337905
 31
0.0
  0
LINE
  5
116
330
1F
100
AcDbEntity
  8
0
  6
HIDDEN
 62
     7
370
     0
100
AcDbLine
 10
112.6471462391
 20
117.4737337905
 30
0.0
 11
111.9570613179
 21
117.4737337905
 31
0.0
  0
ARC
  5
117
330
1F
100
AcDbEntity
  8
0
  6
HIDDEN
 62
     7
370
     0
100
AcDbCircle
 10
112.6471462391
 20
104.8237337905
 30
0.0
 40
0.3999999999999979
100
AcDbArc
 50
270.0
 51
330.0
  0
ARC
  5
118
330
1F
100
AcDbEntity
  8
0
  6
HIDDEN
 62
     7
370
     0
100
AcDbCircle
 10
112.6471462391
 20
117.0737337905
 30
0.0
 40
0.3999999999999979
100
AcDbArc
 50
30.0
 51
90.0
  0
LINE
  5
119
330
1F
100
AcDbEntity
  8
0
  6
HIDDEN
 62
     7
370
     0
100
AcDbLine
 10
111.8535336999
 20
117.4601041211
 30
0.0
 11
110.8780863468
 21
117.1987337905
 31
0.0
  0
LINE
  5
11A
330
1F
100
AcDbEntity
  8
0
  6
HIDDEN
 62
     7
370
     0
100
AcDbLine
 10
110.8780863468
 20
104.6987337905
 30
0.0
 11
111.8535336999
 21
104.43736346
 31
0.0
  0
LINE
  5
11B
330
1F
100
AcDbEntity
  8
0
  6
HIDDEN
 62
     7
370
     0
100
AcDbLine
 10
173.2780952183
 20
132.9487398786
 30
0.0
 11
174.2780956886
 21
133.9487399075
 31
0.0
  0
LINE
  5
11C
330
1F
100
AcDbEntity
  8
0
  6
HIDDEN
 62
     7
370
     0
100
AcDbLine
 10
174.2780956884
 20
87.9487276738
 30
0.0
 11
173.278095218
 21
88.9487277027
 31
0.0
  0
LINE
  5
11D
330
1F
100
AcDbEntity
  8
0
  6
HIDDEN
 62
     7
370
     0
100
AcDbLine
 10
112.9935564006
 20
104.6237337905
 30
0.0
 11
113.7008104804
 21
105.8487337905
 31
0.0
  0
LINE
  5
11E
330
1F
100
AcDbEntity
  8
0
  6
HIDDEN
 62
     7
370
     0
100
AcDbLine
 10
113.7008104804
 20
116.0487337905
 30
0.0
 11
112.9935564006
 21
117.2737337905
 31
0.0
  0
LINE
  5
11F
330
1F
100
AcDbEntity
  8
0
  6
HIDDEN
 62
     7
370
     0
100
AcDbLine
 10
106.6780863468
 20
104.6987337905
 30
0.0
 11
110.8780863468
 21
104.6987337905
 31
0.0
  0
LINE
  5
120
330
1F
100
AcDbEntity
  8
0
  6
HIDDEN
 62
     7
370
     0
100
AcDbLine
 10
110.8780863468
 20
117.1987337905
 30
0.0
 11
106.6780863468
 21
117.1987337905
 31
0.0
  0
LINE
  5
121
330
1F
100
AcDbEntity
  8
0
  6
HIDDEN
 62
     7
370
     0
100
AcDbLine
 10
113.7008104804
 20
105.8487337905
 30
0.0
 11
161.7780863468
 21
105.8487337905
 31
0.0
  0
LINE
  5
122
330
1F
100
AcDbEntity
  8
0
  6
HIDDEN
 62
     7
370
     0
100
AcDbLine
 10
161.7780863468
 20
116.0487337905
 30
0.0
 11
113.7008104804
 21
116.0487337905
 31
0.0
  0
LINE
  5
123
330
1F
100
AcDbEntity
  8
0
  6
HIDDEN
 62
     7
370
     0
100
AcDbLine
 10
191.7194988049
 20
130.8487337905
 30
0.0
 11
178.6780863468
 21
130.8487337905
 31
0.0
  0
LINE
  5
124
330
1F
100
AcDbEntity
  8
0
  6
HIDDEN
 62
     7
370
     0
100
AcDbLine
 10
178.6780863468
 20
91.0487337905
 30
0.0
 11
191.7192094015
 21
91.0487337905
 31
0.0
  0
LINE
  5
125
330
1F
100
AcDbEntity
  8
VERMASSUNG
100
AcDbLine
 10
176.2780863468
 20
133.9487337905
 30
0.0
 11
176.2780863468
 21
114.9857500154
 31
0.0
  0
LINE
  5
126
330
1F
100
AcDbEntity
  8
VERMASSUNG
100
AcDbLine
 10
176.2780863468
 20
87.9487337905
 30
0.0
 11
176.2780863468
 21
106.9117175657
 31
0.0
  0
DIMENSION
  5
127
330
1F
100
AcDbEntity
  8
VERMASSUNG
100
AcDbDimension
  2
_D
 10
192.2780863468
 20
142.2316989263
 30
0.0
 11
184.2780863468
 21
142.2316989263
 31
0.0
 70
   160
  1
(<>)
 71
     2
 42
-1.0
  3
SLDDIMSTYLE0
100
AcDbAlignedDimension
 13
176.2780863468
 23
133.9487337905
 33
0.0
 14
192.2780863468
 24
135.4487337905
 34
0.0
100
AcDbRotatedDimension
  0
DIMENSION
  5
134
330
1F
100
AcDbEntity
  8
VERMASSUNG
100
AcDbDimension
  2
_D_1
 10
198.8804192878
 20
96.9487337905
 30
0.0
 11
198.8804192878
 21
110.9487337905
 31
0.0
 70
   160
  1
%%c<>
 71
     2
 42
-1.0
  3
SLDDIMSTYLE0
100
AcDbAlignedDimension
 13
178.6780863468
 23
124.9487337905
 33
0.0
 14
178.6780863468
 24
96.9487337905
 34
0.0
 50
90.0
100
AcDbRotatedDimension
  0
DIMENSION
  5
13F
330
1F
100
AcDbEntity
  8
VERMASSUNG
100
AcDbDimension
  2
_D_2
 10
192.2780863468
 20
154.2576510739
 30
0.0
 11
149.0780863468
 21
154.2576510739
 31
0.0
 70
   160
  1
(<>)
 71
     2
 42
-1.0
  3
SLDDIMSTYLE0
100
AcDbAlignedDimension
 13
105.8780863468
 23
119.3330282557
 33
0.0
 14
192.2780863468
 24
135.4487337905
 34
0.0
100
AcDbRotatedDimension
  0
DIMENSION
  5
14B
330
1F
100
AcDbEntity
  8
VERMASSUNG
100
AcDbDimension
  2
_D_3
 10
192.2780863468
 20
148.2576510739
 30
0.0
 11
173.2780863468
 21
148.2576510739
 31
0.0
 70
   160
  1
<>
 71
     2
 42
-1.0
  3
SLDDIMSTYLE0
100
AcDbAlignedDimension
 13
154.2780863468
 23
126.8237337905
 33
0.0
 14
192.2780863468
 24
135.4487337905
 34
0.0
100
AcDbRotatedDimension
  0
DIMENSION
  5
155
330
1F
100
AcDbEntity
  8
VERMASSUNG
100
AcDbDimension
  2
_D_4
 10
102.0931707612
 20
87.9487337905
 30
0.0
 11
102.0931707612
 21
110.9487337905
 31
0.0
 70
   160
  1
MAS BT 30 %%c<>
 71
     2
 42
-1.0
  3
SLDDIMSTYLE0
100
AcDbAlignedDimension
 13
174.2780849047
 23
133.9487337905
 33
0.0
 14
174.2780849359
 24
87.9487337905
 34
0.0
 50
90.0
100
AcDbRotatedDimension
  0
DIMENSION
  5
161
330
1F
100
AcDbEntity
  8
VERMASSUNG
100
AcDbDimension
  2
_D_5
 10
204.8804192878
 20
85.9487337905
 30
0.0
 11
204.8804192878
 21
110.9487337905
 31
0.0
 70
   160
  1
ST5 %%c<>
 71
     2
 42
-1.0
  3
SLDDIMSTYLE0
100
AcDbAlignedDimension
 13
191.7780863468
 23
135.9487337905
 33
0.0
 14
191.7780863468
 24
85.9487337905
 34
0.0
 50
90.0
100
AcDbRotatedDimension
  0
LINE
  5
16D
330
1F
100
AcDbEntity
  8
VERMASSUNG
  6
CENTERX2
370
     0
100
AcDbLine
 10
105.0823985272
 20
110.9487337905
 30
0.0
 11
194.23501121
 21
110.9487337905
 31
0.0
  0
LINE
  5
16E
330
1F
100
AcDbEntity
  8
0
  6
Continuous
 62
     7
370
    15
100
AcDbLine
 10
264.9032666168
 20
61.8341188519
 30
0.0
 11
264.5496557778
 21
62.0383203995
 31
0.0
  0
LINE
  5
16F
330
1F
100
AcDbEntity
  8
0
  6
Continuous
 62
     7
370
    15
100
AcDbLine
 10
258.1846606766
 20
62.0383203995
 30
0.0
 11
257.8310498377
 21
61.8341188519
 31
0.0
  0
LINE
  5
170
330
1F
100
AcDbEntity
  8
0
  6
Continuous
 62
     7
370
    15
100
AcDbLine
 10
266.3671582272
 20
57.9562134419
 30
0.0
 11
266.3671582272
 21
59.7934302686
 31
0.0
  0
LINE
  5
171
330
1F
100
AcDbEntity
  8
0
  6
Continuous
 62
     7
370
    15
100
AcDbLine
 10
256.3671582272
 20
59.7934302686
 30
0.0
 11
256.3671582272
 21
57.9562134419
 31
0.0
  0
LINE
  5
172
330
1F
100
AcDbEntity
  8
0
  6
Continuous
 62
     7
370
    15
100
AcDbLine
 10
270.2442214496
 20
14.2533580642
 30
0.0
 11
270.5977173778
 21
14.4574932645
 31
0.0
  0
LINE
  5
173
330
1F
100
AcDbEntity
  8
0
  6
Continuous
 62
     7
370
    15
100
AcDbLine
 10
287.9190178608
 20
44.4621168176
 30
0.0
 11
287.9190178608
 21
44.8703208735
 31
0.0
  0
LINE
  5
174
330
1F
100
AcDbEntity
  8
0
  6
Continuous
 62
     7
370
    15
100
AcDbLine
 10
282.7403324891
 20
56.3164410352
 30
0.0
 11
273.0049222521
 21
61.9365737372
 31
0.0
  0
LINE
  5
175
330
1F
100
AcDbEntity
  8
0
  6
Continuous
 62
     7
370
    15
100
AcDbLine
 10
248.0069539362
 20
18.6341306181
 30
0.0
 11
257.7423641732
 21
13.0139979162
 31
0.0
  0
SPLINE
  5
176
330
1F
100
AcDbEntity
  8
0
  6
Continuous
 62
     7
370
    15
100
AcDbSpline
210
0.0
220
0.0
230
1.0
 70
     8
 71
     3
 72
    15
 73
    11
 74
     0
 42
0.000000001
 43
0.00000001
 40
0.0
 40
0.0
 40
0.0
 40
0.0
 40
0.0848820570503738
 40
0.2260678968173494
 40
0.3673054173716622
 40
0.5090881923646643
 40
0.6517968194079666
 40
0.7956023588003799
 40
0.9404694411185893
 40
1.0
 40
1.0
 40
1.0
 40
1.0
 10
273.2597569144543
 20
61.76149966111519
 30
0.0
 10
273.0585367527294
 20
61.88933460953774
 30
0.0
 10
272.5226235062892
 20
62.22979970821568
 30
0.0
 10
271.5652564891267
 20
62.62966988022394
 30
0.0
 10
270.4076073767724
 20
62.97214824332794
 30
0.0
 10
269.1867323393021
 20
63.16542958557705
 30
0.0
 10
267.9134220649385
 20
63.21874849760212
 30
0.0
 10
266.5914977381725
 20
63.11861216032327
 30
0.0
 10
265.5036556632023
 20
62.94713169764687
 30
0.0
 10
264.8522399138865
 20
62.76073357076495
 30
0.0
 10
264.6625158867728
 20
62.70644534805063
 30
0.0
  0
SPLINE
  5
177
330
1F
100
AcDbEntity
  8
0
  6
Continuous
 62
     7
370
    15
100
AcDbSpline
210
0.0
220
0.0
230
1.0
 70
     8
 71
     3
 72
    20
 73
    16
 74
     0
 42
0.000000001
 43
0.00000001
 40
0.0
 40
0.0
 40
0.0
 40
0.0
 40
0.0446411747449286
 40
0.129028358114556
 40
0.2134911869324156
 40
0.2980080020759193
 40
0.3825202996951462
 40
0.4669377753861242
 40
0.5511384294465321
 40
0.6349690334872126
 40
0.718269493972973
 40
0.8009180701139521
 40
0.8828854054076287
 40
0.9642715165071957
 40
1.0
 40
1.0
 40
1.0
 40
1.0
 10
242.7319889147461
 20
33.52493870008848
 30
0.0
 10
242.6936787234156
 20
33.21734572861828
 30
0.0
 10
242.5829490861543
 20
32.32829618404089
 30
0.0
 10
242.5235441214851
 20
30.90667887795042
 30
0.0
 10
242.5469447199161
 20
29.26922704334513
 30
0.0
 10
242.6917047799855
 20
27.70031115096742
 30
0.0
 10
242.9508687486939
 20
26.20761246464386
 30
0.0
 10
243.3256632269573
 20
24.802184423564
 30
0.0
 10
243.8138291344103
 20
23.49414122029287
 30
0.0
 10
244.4122549929202
 20
22.29328843060713
 30
0.0
 10
245.1166281374719
 20
21.20967310523616
 30
0.0
 10
245.9191953598576
 20
20.24858478331597
 30
0.0
 10
246.8183382044011
 20
19.42678267530336
 30
0.0
 10
247.6059595960129
 20
18.84330847864971
 30
0.0
 10
248.1186837115152
 20
18.58585840275258
 30
0.0
 10
248.2751019202008
 20
18.50731737360992
 30
0.0
  0
SPLINE
  5
178
330
1F
100
AcDbEntity
  8
0
  6
Continuous
 62
     7
370
    15
100
AcDbSpline
210
0.0
220
0.0
230
1.0
 70
     8
 71
     3
 72
    26
 73
    22
 74
     0
 42
0.000000001
 43
0.00000001
 40
0.0
 40
0.0
 40
0.0
 40
0.0
 40
0.0042506552460256
 40
0.0605238146323906
 40
0.1168446696199482
 40
0.173184847970733
 40
0.2295247066607362
 40
0.2858381628493942
 40
0.3421053634630662
 40
0.3983067520688359
 40
0.4544240442711744
 40
0.5104423723502839
 40
0.5663545021082554
 40
0.6221685298859065
 40
0.677921018919547
 40
0.7336733306529715
 40
0.789550616901223
 40
0.8457846423150879
 40
0.9027143379123204
 40
0.960714808518805
 40
1.0
 40
1.0
 40
1.0
 40
1.0
 10
261.7049108358481
 20
35.28632397005063
 30
0.0
 10
261.7175481971113
 20
35.3203089873243
 30
0.0
 10
261.8974878220093
 20
35.80421153097892
 30
0.0
 10
262.3068525280389
 20
36.7348552837801
 30
0.0
 10
262.9673711297667
 20
38.05818132886135
 30
0.0
 10
263.7140783412699
 20
39.34428712767685
 30
0.0
 10
264.5317673282811
 20
40.57839544046693
 30
0.0
 10
265.41262542704
 20
41.74624140468242
 30
0.0
 10
266.3457158813083
 20
42.83447757549004
 30
0.0
 10
267.3199652675502
 20
43.83081016818042
 30
0.0
 10
268.323492118676
 20
44.72415933917191
 30
0.0
 10
269.3439523502566
 20
45.50485103700812
 30
0.0
 10
270.3686651728852
 20
46.16482293571037
 30
0.0
 10
271.3848887605022
 20
46.69784736512634
 30
0.0
 10
272.3800103748172
 20
47.09960079151518
 30
0.0
 10
273.3421313168119
 20
47.36799963719948
 30
0.0
 10
274.2604550140348
 20
47.50245835421228
 30
0.0
 10
275.1278036216618
 20
47.50590588823169
 30
0.0
 10
275.9355258602201
 20
47.37338253846634
 30
0.0
 10
276.6076683961851
 20
47.15600054073437
 30
0.0
 10
276.97795205939
 20
46.92618057143807
 30
0.0
 10
277.1274773265176
 20
46.83337633588823
 30
0.0
  0
LINE
  5
179
330
1F
100
AcDbEntity
  8
0
  6
Continuous
 62
     7
370
    15
100
AcDbLine
 10
261.9944568918
 20
65.9834415718
 30
0.0
 11
257.3452298055
 21
68.6673832394
 31
0.0
  0
SPLINE
  5
17A
330
1F
100
AcDbEntity
  8
0
  6
Continuous
 62
     7
370
    15
100
AcDbSpline
210
0.0
220
0.0
230
1.0
 70
     8
 71
     3
 72
    32
 73
    28
 74
     0
 42
0.000000001
 43
0.00000001
 40
0.0
 40
0.0
 40
0.0
 40
0.0
 40
0.0110855497984738
 40
0.0525389905762485
 40
0.0940241937080389
 40
0.1357112604774758
 40
0.177718149066372
 40
0.2200882130246097
 40
0.2627956374480658
 40
0.3057698024669745
 40
0.3489249613639267
 40
0.3921828894744472
 40
0.4354838336785634
 40
0.4787806648846374
 40
0.5220529078360695
 40
0.5652924962284543
 40
0.6084981200808338
 40
0.6516725616262083
 40
0.6948209591789901
 40
0.7379497455499763
 40
0.7810660360647922
 40
0.8241772986829952
 40
0.8672911894653605
 40
0.910412949133769
 40
0.9535503564826203
 40
0.9967112268715481
 40
1.0
 40
1.0
 40
1.0
 40
1.0
 10
257.1438821373982
 20
68.76239801446113
 30
0.0
 10
257.0565160216602
 20
68.81498002490548
 30
0.0
 10
256.6424519819972
 20
69.0641878496357
 30
0.0
 10
255.8253818658251
 20
69.37258719359055
 30
0.0
 10
254.7021225818678
 20
69.67888587414508
 30
0.0
 10
253.5150350423904
 20
69.83152944828694
 30
0.0
 10
252.2779091965601
 20
69.84304633730717
 30
0.0
 10
250.9954971351084
 20
69.70884748622875
 30
0.0
 10
249.6765144781476
 20
69.42979143456647
 30
0.0
 10
248.3301435545935
 20
69.00682996190625
 30
0.0
 10
246.9664763091942
 20
68.44285845681298
 30
0.0
 10
245.5957244125335
 20
67.74218471948066
 30
0.0
 10
244.2279802886454
 20
66.9104210726682
 30
0.0
 10
242.8729169895608
 20
65.95413675515327
 30
0.0
 10
241.5397585277436
 20
64.88064029329469
 30
0.0
 10
240.237257167881
 20
63.69777407921445
 30
0.0
 10
238.9738528671317
 20
62.41393065801388
 30
0.0
 10
237.7577033297607
 20
61.03803500550359
 30
0.0
 10
236.5966750555941
 20
59.57951396734989
 30
0.0
 10
235.4983022112783
 20
58.04825707352104
 30
0.0
 10
234.4697936474047
 20
56.45457333930871
 30
0.0
 10
233.517820669218
 20
54.80911838829476
 30
0.0
 10
232.6491258760391
 20
53.12292304571355
 30
0.0
 10
231.8680941772818
 20
51.40706863849775
 30
0.0
 10
231.1855509102114
 20
49.67344822189297
 30
0.0
 10
230.7705760222166
 20
48.46830637825035
 30
0.0
 10
230.5870467939151
 20
47.84569993630188
 30
0.0
 10
230.5740523778417
 20
47.80161754554865
 30
0.0
  0
SPLINE
  5
17B
330
1F
100
AcDbEntity
  8
0
  6
Continuous
 62
     7
370
    15
100
AcDbSpline
210
0.0
220
0.0
230
1.0
 70
     8
 71
     3
 72
    11
 73
     7
 74
     0
 42
0.000000001
 43
0.00000001
 40
0.0
 40
0.0
 40
0.0
 40
0.0
 40
0.13934340949474
 40
0.5586822794762135
 40
0.9734784665025105
 40
1.0
 40
1.0
 40
1.0
 40
1.0
 10
262.9309612494479
 20
22.74197600578998
 30
0.0
 10
262.8526610877609
 20
22.784818168159
 30
0.0
 10
262.5387250862429
 20
22.95658916914716
 30
0.0
 10
262.0729588823668
 20
23.39676643836786
 30
0.0
 10
261.6951060369999
 20
23.8450380612028
 30
0.0
 10
261.5263667153393
 20
24.11335817401078
 30
0.0
 10
261.51622611739
 20
24.12948320259889
 30
0.0
  0
LINE
  5
17C
330
1F
100
AcDbEntity
  8
0
  6
Continuous
 62
     7
370
    15
100
AcDbLine
 10
243.8537481914
 20
66.6241039311
 30
0.0
 11
213.761031792
 21
77.4683260874
 31
0.0
  0
LINE
  5
17D
330
1F
100
AcDbEntity
  8
0
  6
Continuous
 62
     7
370
    15
100
AcDbLine
 10
204.9300310015
 20
62.1709265313
 30
0.0
 11
233.6839277438
 21
37.8913738271
 31
0.0
  0
LINE
  5
17E
330
1F
100
AcDbEntity
  8
0
  6
Continuous
 62
     7
370
    15
100
AcDbLine
 10
234.3470989549
 20
28.8291355699
 30
0.0
 11
238.9963260412
 21
26.1451939023
 31
0.0
  0
SPLINE
  5
17F
330
1F
100
AcDbEntity
  8
0
  6
Continuous
 62
     7
370
    15
100
AcDbSpline
210
0.0
220
0.0
230
1.0
 70
     8
 71
     3
 72
    13
 73
     9
 74
     0
 42
0.000000001
 43
0.00000001
 40
0.0
 40
0.0
 40
0.0
 40
0.0
 40
0.0708079033010319
 40
0.2699831690016737
 40
0.4679023154149892
 40
0.6639967550302505
 40
0.8583773182886665
 40
1.0
 40
1.0
 40
1.0
 40
1.0
 10
230.5405687634626
 20
33.22577406014393
 30
0.0
 10
230.6035045283618
 20
33.08482708784039
 30
0.0
 10
230.8434720525915
 20
32.54741094543712
 30
0.0
 10
231.3407553734101
 20
31.69116647453926
 30
0.0
 10
232.0671754549997
 20
30.70699147124333
 30
0.0
 10
232.8955263712563
 20
29.85859679813531
 30
0.0
 10
233.7206395484644
 20
29.19083331104394
 30
0.0
 10
234.3029903960801
 20
28.86954236162394
 30
0.0
 10
234.5484466229795
 20
28.73412079487527
 30
0.0
  0
SPLINE
  5
180
330
1F
100
AcDbEntity
  8
0
  6
Continuous
 62
     7
370
    15
100
AcDbSpline
210
0.0
220
0.0
230
1.0
 70
     8
 71
     3
 72
    25
 73
    21
 74
     0
 42
0.000000001
 43
0.00000001
 40
0.0
 40
0.0
 40
0.0
 40
0.0
 40
0.0102426259156684
 40
0.0678123166397629
 40
0.1259806206986117
 40
0.1851156266491597
 40
0.2451274930978889
 40
0.305678981253626
 40
0.3664446240141632
 40
0.4271952652295683
 40
0.4878668422802336
 40
0.5484566468775446
 40
0.608986413798196
 40
0.6694877715655216
 40
0.7299961807846449
 40
0.7905387404628006
 40
0.8511512630101892
 40
0.9118711977372886
 40
0.972730961308506
 40
1.0
 40
1.0
 40
1.0
 40
1.0
 10
213.6583451899591
 20
77.491594564553
 30
0.0
 10
213.6189225010635
 20
77.50821644398886
 30
0.0
 10
213.3579206950625
 20
77.61826323870089
 30
0.0
 10
212.8134487293351
 20
77.68419245340289
 30
0.0
 10
212.0393527919546
 20
77.67987102543752
 30
0.0
 10
211.2213684258762
 20
77.51916405700105
 30
0.0
 10
210.3786838097296
 20
77.21948385256523
 30
0.0
 10
209.5242847573001
 20
76.78034624186114
 30
0.0
 10
208.6754385252592
 20
76.21135219488303
 30
0.0
 10
207.8480865776737
 20
75.52369784296576
 30
0.0
 10
207.0570085557238
 20
74.73093368197519
 30
0.0
 10
206.3155444128409
 20
73.8476053498852
 30
0.0
 10
205.6360742451936
 20
72.88939909428674
 30
0.0
 10
205.0300187923233
 20
71.8729885960634
 30
0.0
 10
204.5077021752896
 20
70.81586534481737
 30
0.0
 10
204.0783771023234
 20
69.73614760246542
 30
0.0
 10
203.7493312792799
 20
68.6518171170423
 30
0.0
 10
203.5287194066932
 20
67.58198199105173
 30
0.0
 10
203.4358665544216
 20
66.73304634311742
 30
0.0
 10
203.4282075993916
 20
66.2521446667379
 30
0.0
 10
203.4258377459988
 20
66.10334284391378
 30
0.0
  0
SPLINE
  5
181
330
1F
100
AcDbEntity
  8
0
  6
Continuous
 62
     7
370
    15
100
AcDbSpline
210
0.0
220
0.0
230
1.0
 70
     8
 71
     3
 72
    13
 73
     9
 74
     0
 42
0.000000001
 43
0.00000001
 40
0.0
 40
0.0
 40
0.0
 40
0.0
 40
0.1068143298576216
 40
0.3093367756614452
 40
0.5119288012593254
 40
0.7132879662405682
 40
0.9119537513193463
 40
1.0
 40
1.0
 40
1.0
 40
1.0
 10
203.4258377459988
 20
66.10334284391378
 30
0.0
 10
203.4291044150904
 20
65.93056780320786
 30
0.0
 10
203.4385647645144
 20
65.4302072796903
 30
0.0
 10
203.5448138518125
 20
64.6520858538677
 30
0.0
 10
203.781978704802
 20
63.80736497000073
 30
0.0
 10
204.1427489509364
 20
63.07245538523853
 30
0.0
 10
204.5104328371958
 20
62.54389562631678
 30
0.0
 10
204.7905738187169
 20
62.31416584086409
 30
0.0
 10
204.8766021663981
 20
62.24361824105079
 30
0.0
  0
LWPOLYLINE
  5
182
330
1F
100
AcDbEntity
  8
0
  6
Continuous
 62
     7
370
    15
100
AcDbPolyline
 90
       32
 70
   128
 43
0.0
 10
261.3001323514
 20
62.7992072022
 10
262.2072472291
 20
62.7538249778
 10
263.0799687643
 20
62.6039584846
 10
263.8825676348
 20
62.3557432743
 10
264.5821853487
 20
62.019341307
 10
265.1501794745
 20
61.6085249186
 10
265.5632962659
 20
61.1401129803
 10
265.804622673
 20
60.633282332
 10
265.8642787643
 20
60.1087826799
 10
265.7398222124
 20
59.5880871014
 10
265.4363482832
 20
59.0925129348
 10
264.966281235
 20
58.6423490445
 10
264.348865668
 20
58.2560251931
 10
263.6093786481
 20
57.9493575246
 10
262.7780948606
 20
57.7349010493
 10
261.8890471616
 20
57.6214356405
 10
260.9786332683
 20
57.6136065853
 10
260.0841256325
 20
57.7117344062
 10
259.2421455018
 20
57.9118017387
 10
258.4871636418
 20
58.2056178027
 10
257.8500890986
 20
58.5811537341
 10
257.3570037786
 20
59.0230350475
 10
257.028094653
 20
59.5131710702
 10
256.8768273
 20
60.0314955758
 10
256.9093946226
 20
60.5567882982
 10
257.1244633111
 20
61.0675436915
 10
257.5132284278
 20
61.54285137
 10
258.0597738834
 20
61.9632521814
 10
258.7417240427
 20
62.3115348672
 10
259.5311597859
 20
62.5734406932
 10
260.395761521
 20
62.7382472042
 10
261.3001323514
 20
62.7992072022
  0
LWPOLYLINE
  5
183
330
1F
100
AcDbEntity
  8
0
  6
Continuous
 62
     7
370
    15
100
AcDbPolyline
 90
       26
 70
   128
 43
0.0
 10
264.9032666168
 20
61.8341188519
 10
265.3963874861
 20
61.502563792
 10
265.8838763873
 20
61.031474484
 10
266.208119326
 20
60.5156390324
 10
266.3573973176
 20
59.9737010743
 10
266.3263150665
 20
59.4252476597
 10
266.1159959663
 20
58.8901013238
 10
265.7340414973
 20
58.3876036496
 10
265.194256489
 20
57.9359162122
 10
264.5161501781
 20
57.5513641726
 10
263.7242310936
 20
57.2478462433
 10
262.8471212543
 20
57.0363323531
 10
261.9165216953
 20
56.9244671651
 10
260.9660667091
 20
56.9162937788
 10
260.0301082155
 20
57.0121076014
 10
259.1424741929
 20
57.2084456719
 10
258.3352460477
 20
57.4982118209
 10
257.6375991082
 20
57.8709331447
 10
257.0747481526
 20
58.3131385236
 10
256.6670360808
 20
58.808845503
 10
256.4291986694
 20
59.3401379411
 10
256.3698319822
 20
59.887813545
 10
256.4910816859
 20
60.4320778914
 10
256.7885655003
 20
60.9532598487
 10
257.2515315852
 20
61.4325225431
 10
257.8310498377
 20
61.8341188519
  0
LWPOLYLINE
  5
184
330
1F
100
AcDbEntity
  8
0
  6
Continuous
 62
     7
370
    15
100
AcDbPolyline
 90
       27
 70
   128
 43
0.0
 10
261.32247431
 20
61.933371693
 10
262.0416400935
 20
61.8892257419
 10
262.7216074426
 20
61.7470069679
 10
263.3228591265
 20
61.514980609
 10
263.8104525828
 20
61.2066311939
 10
264.1560506522
 20
60.8398788698
 10
264.3395684311
 20
60.4360379487
 10
264.3503405331
 20
60.018578197
 10
264.187740923
 20
59.611760858
 10
263.861219299
 20
59.2392286769
 10
263.3897519111
 20
58.9226318698
 10
262.8007387301
 20
58.6803698924
 10
262.1284110611
 20
58.5265221303
 10
261.4118421444
 20
58.4700296561
 10
260.6926763609
 20
58.5141756072
 10
260.0127090119
 20
58.6563943812
 10
259.411457328
 20
58.8884207401
 10
258.9238638716
 20
59.1967701552
 10
258.5782658023
 20
59.5635224793
 10
258.3947480234
 20
59.9673634004
 10
258.3839759213
 20
60.3848231521
 10
258.5465755314
 20
60.7916404911
 10
258.8730971554
 20
61.1641726722
 10
259.3445645434
 20
61.4807694793
 10
259.9335777244
 20
61.7230314567
 10
260.6059053934
 20
61.8768792188
 10
261.32247431
 20
61.933371693
  0
SPLINE
  5
185
330
1F
100
AcDbEntity
  8
0
  6
Continuous
 62
     7
370
    15
100
AcDbSpline
210
0.0
220
0.0
230
1.0
 70
     8
 71
     3
 72
    11
 73
     7
 74
     0
 42
0.000000001
 43
0.00000001
 40
0.0
 40
0.0
 40
0.0
 40
0.0
 40
0.1285561766307379
 40
0.4801535797842227
 40
0.8150691831753867
 40
1.0
 40
1.0
 40
1.0
 40
1.0
 10
259.8867060721109
 20
61.53987685433469
 30
0.0
 10
260.0029511594462
 20
61.49588476776049
 30
0.0
 10
260.437123178864
 20
61.33157560421517
 30
0.0
 10
261.2512929565298
 20
61.17658834279302
 30
0.0
 10
262.1328670855113
 20
61.31645253994176
 30
0.0
 10
262.6051327926631
 20
61.49955976821406
 30
0.0
 10
262.7731371870101
 20
61.56469856300816
 30
0.0
  0
SPLINE
  5
186
330
1F
100
AcDbEntity
  8
0
  6
Continuous
 62
     7
370
    15
100
AcDbSpline
210
0.0
220
0.0
230
1.0
 70
     8
 71
     3
 72
    11
 73
     7
 74
     0
 42
0.000000001
 43
0.00000001
 40
0.0
 40
0.0
 40
0.0
 40
0.0
 40
0.2164543009645066
 40
0.4403089937225376
 40
0.7518987489759484
 40
1.0
 40
1.0
 40
1.0
 40
1.0
 10
258.4807271123344
 20
60.08440681795972
 30
0.0
 10
258.5770375448631
 20
60.11017124140794
 30
0.0
 10
258.7729511831819
 20
60.16258095242675
 30
0.0
 10
259.1365154083704
 20
60.41358263074932
 30
0.0
 10
259.52650514821
 20
60.89288028133212
 30
0.0
 10
259.7760757720157
 20
61.34116158104594
 30
0.0
 10
259.8867060721109
 20
61.53987685433469
 30
0.0
  0
SPLINE
  5
187
330
1F
100
AcDbEntity
  8
0
  6
Continuous
 62
     7
370
    15
100
AcDbSpline
210
0.0
220
0.0
230
1.0
 70
     8
 71
     3
 72
    11
 73
     7
 74
     0
 42
0.000000001
 43
0.00000001
 40
0.0
 40
0.0
 40
0.0
 40
0.0
 40
0.2711676931743565
 40
0.5556313205166322
 40
0.7767978452460191
 40
1.0
 40
1.0
 40
1.0
 40
1.0
 10
259.3103939013267
 20
58.97232470214927
 30
0.0
 10
259.2322412955704
 20
59.04557098467143
 30
0.0
 10
259.0721040940113
 20
59.19565497220068
 30
0.0
 10
258.8523607212848
 20
59.48512728552465
 30
0.0
 10
258.6541260814457
 20
59.78550117544943
 30
0.0
 10
258.5387030177407
 20
59.9844677851938
 30
0.0
 10
258.4807271123344
 20
60.08440681795972
 30
0.0
  0
SPLINE
  5
188
330
1F
100
AcDbEntity
  8
0
  6
Continuous
 62
     7
370
    15
100
AcDbSpline
210
0.0
220
0.0
230
1.0
 70
     8
 71
     3
 72
    13
 73
     9
 74
     0
 42
0.000000001
 43
0.00000001
 40
0.0
 40
0.0
 40
0.0
 40
0.0
 40
0.1670415085281369
 40
0.3350070578760122
 40
0.5072523821350022
 40
0.6818221683652905
 40
0.9197555485031074
 40
1.0
 40
1.0
 40
1.0
 40
1.0
 10
264.2535893421328
 20
60.13405023530664
 30
0.0
 10
264.2059895314781
 20
60.04658318112663
 30
0.0
 10
264.1105265973643
 20
59.87116522220062
 30
0.0
 10
263.9600403230307
 20
59.62239429353907
 30
0.0
 10
263.8026187173112
 20
59.38857026949512
 30
0.0
 10
263.6195528474054
 20
59.15831067353844
 30
0.0
 10
263.4619872299216
 20
58.99108030997772
 30
0.0
 10
263.3637911461737
 20
58.92595522352565
 30
0.0
 10
263.3390260931246
 20
58.90953067623968
 30
0.0
  0
SPLINE
  5
189
330
1F
100
AcDbEntity
  8
0
  6
Continuous
 62
     7
370
    15
100
AcDbSpline
210
0.0
220
0.0
230
1.0
 70
     8
 71
     3
 72
    11
 73
     7
 74
     0
 42
0.000000001
 43
0.00000001
 40
0.0
 40
0.0
 40
0.0
 40
0.0
 40
0.216454300964504
 40
0.4403089937225356
 40
0.7518987489759466
 40
0.9999999999999999
 40
0.9999999999999999
 40
0.9999999999999999
 40
0.9999999999999999
 10
262.7731371870101
 20
61.56469856300816
 30
0.0
 10
262.8745490797035
 20
61.39276208486001
 30
0.0
 10
263.0808400530144
 20
61.04301076395638
 30
0.0
 10
263.463661884709
 20
60.54770725787964
 30
0.0
 10
263.8743089621825
 20
60.22645484181589
 30
0.0
 10
264.1370990738689
 20
60.16243092139036
 30
0.0
 10
264.2535893421328
 20
60.13405023530664
 30
0.0
  0
LINE
  5
18A
330
1F
100
AcDbEntity
  8
0
  6
Continuous
 62
     7
370
    15
100
AcDbLine
 10
259.8867060721
 20
58.6954043206
 30
0.0
 11
259.8867060721
 21
61.5398768543
 31
0.0
  0
LINE
  5
18B
330
1F
100
AcDbEntity
  8
0
  6
Continuous
 62
     7
370
    15
100
AcDbLine
 10
262.773137187
 20
58.6718094709
 30
0.0
 11
262.773137187
 21
61.564698563
 31
0.0
  0
LWPOLYLINE
  5
18C
330
1F
100
AcDbEntity
  8
0
  6
Continuous
 62
     7
370
    15
100
AcDbPolyline
 90
       75
 70
   128
 43
0.0
 10
270.5949017217
 20
54.466367339
 10
269.1257140368
 20
53.5461541998
 10
267.6671118829
 20
52.4884329335
 10
266.2296045218
 20
51.300824446
 10
264.8235492271
 20
49.9918854837
 10
263.4590766593
 20
48.5710469818
 10
262.1460178747
 20
47.0485461144
 10
260.8938334917
 20
45.4353525349
 10
259.7115455277
 20
43.7430893401
 10
258.6076723944
 20
41.9839493252
 10
257.5901675231
 20
40.1706071342
 10
256.6663620598
 20
38.3161279392
 10
255.8429120438
 20
36.4338733052
 10
255.1257504516
 20
34.5374049201
 10
254.5200444487
 20
32.6403868821
 10
254.0301581608
 20
30.7564872494
 10
253.6596212298
 20
28.8992795622
 10
253.4111033829
 20
27.0821450445
 10
253.2863951968
 20
25.318176192
 10
253.2863951968
 20
23.6200824407
 10
253.4111033829
 20
22.0000985951
 10
253.6596212298
 20
20.4698966759
 10
254.0301581608
 20
19.040501823
 10
254.5200444487
 20
17.722212859
 10
255.1257504516
 20
16.5245280861
 10
255.8429120438
 20
15.4560768506
 10
256.6663620598
 20
14.5245573681
 10
257.5901675231
 20
13.7366812578
 10
258.6076723944
 20
13.0981251851
 10
259.7115455277
 20
12.6134899613
 10
260.8938334917
 20
12.2862673941
 10
262.1460178747
 20
12.1188151297
 10
263.4590766593
 20
12.1123396655
 10
264.8235492271
 20
12.2668876573
 10
266.2296045218
 20
12.5813455833
 10
267.6671118829
 20
13.053447767
 10
269.1257140368
 20
13.6797927013
 10
270.5949017217
 20
14.4558675566
 10
272.0640894066
 20
15.3760806957
 10
273.5226915606
 20
16.4338019621
 10
274.9601989217
 20
17.6214104495
 10
276.3662542164
 20
18.9303494118
 10
277.7307267841
 20
20.3511879137
 10
279.0437855688
 20
21.8736887812
 10
280.2959699517
 20
23.4868823607
 10
281.4782579158
 20
25.1791455554
 10
282.582131049
 20
26.9382855703
 10
283.5996359203
 20
28.7516277613
 10
284.5234413837
 20
30.6061069563
 10
285.3468913996
 20
32.4883615903
 10
286.0640529919
 20
34.3848299754
 10
286.6697589948
 20
36.2818480135
 10
287.1596452827
 20
38.1657476461
 10
287.5301822136
 20
40.0229553333
 10
287.7787000605
 20
41.8400898511
 10
287.9034082467
 20
43.6040587036
 10
287.9034082467
 20
45.3021524548
 10
287.7787000605
 20
46.9221363004
 10
287.5301822136
 20
48.4523382196
 10
287.1596452827
 20
49.8817330726
 10
286.6697589948
 20
51.2000220366
 10
286.0640529919
 20
52.3977068095
 10
285.3468913996
 20
53.466158045
 10
284.5234413837
 20
54.3976775275
 10
283.5996359203
 20
55.1855536378
 10
282.582131049
 20
55.8241097104
 10
281.4782579158
 20
56.3087449343
 10
280.2959699517
 20
56.6359675014
 10
279.0437855688
 20
56.8034197659
 10
277.7307267841
 20
56.8098952301
 10
276.3662542164
 20
56.6553472383
 10
274.9601989217
 20
56.3408893122
 10
273.5226915606
 20
55.8687871286
 10
272.0640894066
 20
55.2424421943
 10
270.5949017217
 20
54.466367339
  0
LWPOLYLINE
  5
18D
330
1F
100
AcDbEntity
  8
0
  6
Continuous
 62
     7
370
    15
100
AcDbPolyline
 90
       39
 70
   128
 43
0.0
 10
270.2413483311
 20
55.0787397729
 10
268.7621190697
 20
54.153205808
 10
267.2932655388
 20
53.0909776211
 10
265.8450906905
 20
51.8995059798
 10
264.4277524308
 20
50.5871482014
 10
263.0511923692
 20
49.1631095329
 10
261.7250660857
 20
47.6373785824
 10
260.4586754031
 20
46.0206572562
 10
259.2609031423
 20
44.3242856928
 10
258.140150815
 20
42.56016272
 10
257.1042796937
 20
40.7406623928
 10
256.1605556698
 20
38.8785471988
 10
255.3155982894
 20
36.9868785381
 10
254.5753343215
 20
35.0789251071
 10
253.9449561858
 20
33.1680698284
 10
253.428885532
 20
31.2677159787
 10
253.0307422251
 20
29.391193175
 10
252.7533189542
 20
27.5516638764
 10
252.5985616442
 20
25.7620310593
 10
252.5675558065
 20
24.034847712
 10
252.6605189248
 20
22.3822287846
 10
252.8767989295
 20
20.8157662117
 10
253.2148787719
 20
19.3464476026
 10
253.6723870648
 20
17.9845791716
 10
254.2461147161
 20
16.7397134474
 10
254.9320374387
 20
15.6205822685
 10
255.7253439775
 20
14.635035536
 10
256.6204698571
 20
13.7899861522
 10
257.6111364126
 20
13.0913615314
 10
258.6903948299
 20
12.5440620232
 10
259.8506748867
 20
12.1519265406
 10
261.083838052
 20
11.917705632
 10
262.3812345722
 20
11.8430421891
 10
263.733764143
 20
11.9284599221
 10
265.1319397412
 20
12.173359687
 10
266.5659541695
 20
12.576023688
 10
268.0257488471
 20
13.1336275263
 10
269.5010843632
 20
13.8422600118
 10
270.2442214496
 20
14.2533580642
  0
LWPOLYLINE
  5
18E
330
1F
100
AcDbEntity
  8
0
  6
Continuous
 62
     7
370
    15
100
AcDbPolyline
 90
       20
 70
   128
 43
0.0
 10
287.9190178608
 20
44.8703208735
 10
287.8841350181
 20
46.1319589819
 10
287.7293777081
 20
47.7429128123
 10
287.4519544372
 20
49.2621360202
 10
287.0538111302
 20
50.6789723464
 10
286.5377404765
 20
51.9834837021
 10
285.9073623408
 20
53.1665198774
 10
285.1670983728
 20
54.2197827235
 10
284.3221409924
 20
55.1358843584
 10
283.3784169686
 20
55.9083989873
 10
282.3425458472
 20
56.5319079751
 10
281.22179352
 20
57.0020378543
 10
280.0240212592
 20
57.3154910016
 10
278.7576305766
 20
57.4700687683
 10
277.431504293
 20
57.4646869025
 10
276.0549442315
 20
57.299383154
 10
274.6376059718
 20
56.97531701
 10
273.1894311234
 20
56.4947615616
 10
271.7205775925
 20
55.8610875599
 10
270.2413483311
 20
55.0787397729
  0
SPLINE
  5
18F
330
1F
100
AcDbEntity
  8
0
  6
Continuous
 62
     7
370
    15
100
AcDbSpline
210
0.0
220
0.0
230
1.0
 70
     8
 71
     3
 72
    54
 73
    50
 74
     0
 42
0.000000001
 43
0.00000001
 40
0.0
 40
0.0
 40
0.0
 40
0.0
 40
0.062500000000001
 40
0.062500000000001
 40
0.0937500000000015
 40
0.0937500000000015
 40
0.125000000000002
 40
0.125000000000002
 40
0.187500000000003
 40
0.187500000000003
 40
0.250000000000004
 40
0.250000000000004
 40
0.2812500000000042
 40
0.2812500000000042
 40
0.3125000000000043
 40
0.3125000000000043
 40
0.3750000000000043
 40
0.3750000000000043
 40
0.4062500000000044
 40
0.4062500000000044
 40
0.4375000000000044
 40
0.4375000000000044
 40
0.4687500000000045
 40
0.4687500000000045
 40
0.5000000000000046
 40
0.5000000000000046
 40
0.5625000000000047
 40
0.5625000000000047
 40
0.5937500000000046
 40
0.5937500000000046
 40
0.6250000000000046
 40
0.6250000000000046
 40
0.6562500000000044
 40
0.6562500000000044
 40
0.6875000000000044
 40
0.6875000000000044
 40
0.7187500000000041
 40
0.7187500000000041
 40
0.7500000000000039
 40
0.7500000000000039
 40
0.8125000000000032
 40
0.8125000000000032
 40
0.8437500000000027
 40
0.8437500000000027
 40
0.8750000000000022
 40
0.8750000000000022
 40
0.9375000000000011
 40
0.9375000000000011
 40
1.0
 40
1.0
 40
1.0
 40
1.0
 10
265.2579308532037
 20
62.69076477824909
 30
0.0
 10
265.6786470917598
 20
62.49121245839935
 30
0.0
 10
266.0688895678521
 20
62.28122021156037
 30
0.0
 10
266.6078318119244
 20
61.95093619881778
 30
0.0
 10
266.7799701197404
 20
61.8379575646081
 30
0.0
 10
267.1012669759207
 20
61.61131264322648
 30
0.0
 10
267.2513950776393
 20
61.49709261296216
 30
0.0
 10
267.6705986738749
 20
61.15121528220102
 30
0.0
 10
267.9089404398345
 20
60.91638858839312
 30
0.0
 10
268.29677415055
 20
60.43299782243044
 30
0.0
 10
268.4399398099668
 20
60.19233322931571
 30
0.0
 10
268.5780413363432
 20
59.82748133232514
 30
0.0
 10
268.6111935151462
 20
59.70521218515178
 30
0.0
 10
268.6501618107384
 20
59.45826317363311
 30
0.0
 10
268.6558135971882
 20
59.33282569884877
 30
0.0
 10
268.6288378949611
 20
58.96019436792745
 30
0.0
 10
268.5538867872164
 20
58.71469420946739
 30
0.0
 10
268.3490960546292
 20
58.34525257437328
 30
0.0
 10
268.2649286165987
 20
58.22146746163732
 30
0.0
 10
268.0637461280456
 20
57.9745533393916
 30
0.0
 10
267.9486274632437
 20
57.85361872547877
 30
0.0
 10
267.6895624089281
 20
57.61615652957873
 30
0.0
 10
267.5456175092273
 20
57.49962985300792
 30
0.0
 10
267.2279776867505
 20
57.27074349744256
 30
0.0
 10
267.0530330659681
 20
57.15766650821971
 30
0.0
 10
266.4890392368193
 20
56.82995127753121
 30
0.0
 10
266.070159965146
 20
56.63104109128543
 30
0.0
 10
265.3801842563786
 20
56.36217673852607
 30
0.0
 10
265.1394865621332
 20
56.2776031084043
 30
0.0
 10
264.6513617524819
 20
56.1234971851958
 30
0.0
 10
264.4022677084523
 20
56.05327240037828
 30
0.0
 10
263.894413674074
 20
55.92653171429958
 30
0.0
 10
263.634419346815
 20
55.86979512005561
 30
0.0
 10
263.1105873530415
 20
55.77182866959009
 30
0.0
 10
262.8484970952625
 20
55.7308411247873
 30
0.0
 10
262.3238534644508
 20
55.66462787014584
 30
0.0
 10
262.0613002889777
 20
55.63940531867201
 30
0.0
 10
261.5356005193707
 20
55.6051706295159
 30
0.0
 10
261.2713933397301
 20
55.59621792652833
 30
0.0
 10
260.4925498624397
 20
55.59494650081118
 30
0.0
 10
259.9875640933813
 20
55.62743343442097
 30
0.0
 10
259.2495802347809
 20
55.72831966976695
 30
0.0
 10
259.005750762631
 20
55.77099643324396
 30
0.0
 10
258.5328478389794
 20
55.87304032948351
 30
0.0
 10
258.3031966980174
 20
55.93239013990683
 30
0.0
 10
257.6339197991177
 20
56.13538821064112
 30
0.0
 10
257.21375168067
 20
56.30381834850493
 30
0.0
 10
256.4268501191561
 20
56.71093238965967
 30
0.0
 10
256.0717432324872
 20
56.94361062778667
 30
0.0
 10
255.7539453350461
 20
57.20423072277775
 30
0.0
  0
LINE
  5
190
330
1F
100
AcDbEntity
  8
0
  6
Continuous
 62
     7
370
    15
100
AcDbLine
 10
279.8358038576
 20
34.1238174088
 30
0.0
 11
283.3581791221
 21
38.5056187513
 31
0.0
  0
SPLINE
  5
191
330
1F
100
AcDbEntity
  8
0
  6
Continuous
 62
     7
370
    15
100
AcDbSpline
210
0.0
220
0.0
230
1.0
 70
     8
 71
     3
 72
    22
 73
    18
 74
     0
 42
0.000000001
 43
0.00000001
 40
0.0
 40
0.0
 40
0.0
 40
0.0
 40
0.050000000000011
 40
0.0999999999999998
 40
0.1499999999999999
 40
0.2
 40
0.2500000000000001
 40
0.2968749999999668
 40
0.34375
 40
0.3906249999999996
 40
0.4374999999999986
 40
0.5292946909502638
 40
0.5292946909502638
 40
0.53125
 40
0.6250000000000003
 40
0.8125
 40
0.8968030376395019
 40
0.8968030376395019
 40
0.8968030376395019
 40
0.8968030376395019
 10
283.3581791221348
 20
38.50561875126809
 30
0.0
 10
283.5205784861414
 20
38.70764201619051
 30
0.0
 10
283.8397572693877
 20
39.14766872097615
 30
0.0
 10
284.2781087436349
 20
39.90006084625229
 30
0.0
 10
284.6518303120441
 20
40.73464066220293
 30
0.0
 10
284.9264999936605
 20
41.61395662102722
 30
0.0
 10
285.0678466170712
 20
42.46827866784804
 30
0.0
 10
285.0668877763541
 20
43.24728823706573
 30
0.0
 10
284.9302434298819
 20
43.91163061563513
 30
0.0
 10
284.6667930051287
 20
44.4456307486398
 30
0.0
 10
284.1868372694414
 20
44.9520644734675
 30
0.0
 10
283.697718934
 20
45.12020879030537
 30
0.0
 10
283.352559165778
 20
45.15320072021565
 30
0.0
 10
283.0243508534953
 20
45.18464679825846
 30
0.0
 10
282.2059228080029
 20
45.25391015377912
 30
0.0
 10
281.5146571105661
 20
45.3177418161879
 30
0.0
 10
280.2524567260516
 20
45.43065205220191
 30
0.0
 10
279.8357100447314
 20
45.46788564022265
 30
0.0
  0
SPLINE
  5
192
330
1F
100
AcDbEntity
  8
0
  6
Continuous
 62
     7
370
    15
100
AcDbSpline
210
0.0
220
0.0
230
1.0
 70
     8
 71
     3
 72
    22
 73
    18
 74
     0
 42
0.000000001
 43
0.00000001
 40
0.0
 40
0.0
 40
0.0
 40
0.0
 40
0.050000000000011
 40
0.0999999999999998
 40
0.1499999999999999
 40
0.2
 40
0.2500000000000001
 40
0.2968749999999668
 40
0.34375
 40
0.3906249999999996
 40
0.4374999999999986
 40
0.5292946909502638
 40
0.5292946909502638
 40
0.53125
 40
0.6250000000000003
 40
0.8125
 40
0.8955927989355225
 40
0.8955927989355225
 40
0.8955927989355225
 40
0.8955927989355225
 10
257.8316243213013
 20
23.76945233286872
 30
0.0
 10
257.6711124642219
 20
23.78380451164593
 30
0.0
 10
257.3491701795111
 20
23.85556233776058
 30
0.0
 10
256.9119294202906
 20
24.10174530137559
 30
0.0
 10
256.5379102439713
 20
24.5048620177698
 30
0.0
 10
256.263320278969
 20
25.06704387953537
 30
0.0
 10
256.1219528398983
 20
25.75817283369695
 30
0.0
 10
256.1229159807219
 20
26.53828772606576
 30
0.0
 10
256.2595626519802
 20
27.36040105599619
 30
0.0
 10
256.5229995709632
 20
28.19855727977008
 30
0.0
 10
257.0030235188748
 20
29.25922111710948
 30
0.0
 10
257.49183550333
 20
29.99170830153628
 30
0.0
 10
257.8372337311436
 20
30.4235098460512
 30
0.0
 10
258.1656951655453
 20
30.83421204442413
 30
0.0
 10
258.9863162117489
 20
31.85114040317194
 30
0.0
 10
259.6581821773379
 20
32.68895066282285
 30
0.0
 10
260.9395150008447
 20
34.28297323107232
 30
0.0
 10
261.3540942329075
 20
34.79867774482696
 30
0.0
  0
LINE
  5
193
330
1F
100
AcDbEntity
  8
0
  6
Continuous
 62
     7
370
    15
100
AcDbLine
 10
261.3539995858
 20
23.4544989055
 30
0.0
 11
257.8316243213
 21
23.7694523329
 31
0.0
  0
SPLINE
  5
194
330
1F
100
AcDbEntity
  8
0
  6
Continuous
 62
     7
370
    15
100
AcDbSpline
210
0.0
220
0.0
230
1.0
 70
     8
 71
     3
 72
    12
 73
     8
 74
     0
 42
0.000000001
 43
0.00000001
 40
0.0
 40
0.0
 40
0.0
 40
0.0
 40
0.2500000000000021
 40
0.2500000000000021
 40
0.5000000000000041
 40
0.5000000000000041
 40
1.0
 40
1.0
 40
1.0
 40
1.0
 10
264.2258872851561
 20
62.50947775756435
 30
0.0
 10
264.3044027866275
 20
62.56589434060283
 30
0.0
 10
264.3861719406088
 20
62.61366920399039
 30
0.0
 10
264.5562631710092
 20
62.69133453922834
 30
0.0
 10
264.6458690048088
 20
62.72151830767154
 30
0.0
 10
264.9169351745119
 20
62.77642850587451
 30
0.0
 10
265.1011043103558
 20
62.76515007068921
 30
0.0
 10
265.2579308532037
 20
62.69076477824909
 30
0.0
  0
ARC
  5
195
330
1F
100
AcDbEntity
  8
0
  6
Continuous
 62
     7
370
    15
100
AcDbCircle
 10
281.7634846018
 20
28.0805420762
 30
0.0
 40
39.40180732684097
100
AcDbArc
 50
131.6824007398
 51
172.1120481879
  0
SPLINE
  5
196
330
1F
100
AcDbEntity
  8
0
  6
Continuous
 62
     7
370
    15
100
AcDbSpline
210
0.0
220
0.0
230
1.0
 70
     8
 71
     3
 72
    10
 73
     6
 74
     0
 42
0.000000001
 43
0.00000001
 40
0.0
 40
0.0
 40
0.0
 40
0.0
 40
0.5
 40
0.5
 40
1.0
 40
1.0
 40
1.0
 40
1.0
 10
255.7539453350461
 20
57.20423072277775
 30
0.0
 10
255.6364195275174
 20
57.30061143318726
 30
0.0
 10
255.5647119882026
 20
57.3764869690952
 30
0.0
 10
255.5062487018805
 20
57.47866507304499
 30
0.0
 10
255.5184437020522
 20
57.50490701485997
 30
0.0
 10
255.561244031701
 20
57.50748567774114
 30
0.0
  0
SPLINE
  5
197
330
1F
100
AcDbEntity
  8
0
  6
Continuous
 62
     7
370
    15
100
AcDbSpline
210
0.0
220
0.0
230
1.0
 70
     8
 71
     3
 72
    12
 73
     8
 74
     0
 42
0.000000001
 43
0.00000001
 40
0.0
 40
0.0
 40
0.0
 40
0.0
 40
0.2499999999999989
 40
0.2499999999999989
 40
0.4999999999999978
 40
0.4999999999999978
 40
1.0
 40
1.0
 40
1.0
 40
1.0
 10
255.9941092642891
 20
58.05001178523062
 30
0.0
 10
256.0140820209619
 20
57.97504001824322
 30
0.0
 10
256.0259370426233
 20
57.90952614127058
 30
0.0
 10
256.0377625768052
 20
57.79382918903551
 30
0.0
 10
256.0374813750863
 20
57.7435826824849
 30
0.0
 10
256.0188819922605
 20
57.61996390677367
 30
0.0
 10
255.9830572928198
 20
57.57082679812731
 30
0.0
 10
255.9191403661908
 20
57.55744245835486
 30
0.0
  0
SPLINE
  5
198
330
1F
100
AcDbEntity
  8
0
  6
Continuous
 62
     7
370
    15
100
AcDbSpline
210
0.0
220
0.0
230
1.0
 70
     8
 71
     3
 72
    14
 73
    10
 74
     0
 42
0.000000001
 43
0.00000001
 40
0.0
 40
0.0
 40
0.0
 40
0.0
 40
0.1567603356183493
 40
0.2738161888114868
 40
0.4517341324231389
 40
0.6386380524463706
 40
0.7649075589550755
 40
0.9566750142236893
 40
1.0
 40
1.0
 40
1.0
 40
1.0
 10
256.4102527671167
 20
60.14794765682328
 30
0.0
 10
256.3388394238911
 20
60.04855726399943
 30
0.0
 10
256.2141004113394
 20
59.87495021946136
 30
0.0
 10
256.0679002369223
 20
59.56811197837743
 30
0.0
 10
255.9570180121679
 20
59.23004626899051
 30
0.0
 10
255.9065827855901
 20
58.87591153409387
 30
0.0
 10
255.9071636444138
 20
58.50991883098248
 30
0.0
 10
255.9436714939917
 20
58.24841570930617
 30
0.0
 10
255.9862605613338
 20
58.08088574052388
 30
0.0
 10
255.9941092642892
 20
58.05001178523064
 30
0.0
  0
ARC
  5
199
330
1F
100
AcDbEntity
  8
0
  6
Continuous
 62
     7
370
    15
100
AcDbCircle
 10
250.0767110706
 20
31.0229829408
 30
0.0
 40
9.8306600399522
100
AcDbArc
 50
194.6172529868
 51
230.1146600979
  0
SPLINE
  5
19A
330
1F
100
AcDbEntity
  8
0
  6
Continuous
 62
     7
370
    15
100
AcDbSpline
210
0.0
220
0.0
230
1.0
 70
     8
 71
     3
 72
    29
 73
    25
 74
     0
 42
0.000000001
 43
0.00000001
 40
0.0
 40
0.0
 40
0.0
 40
0.0
 40
0.0227703431571265
 40
0.0454410032925382
 40
0.0680340978349477
 40
0.0905719725559399
 40
0.1130771376994992
 40
0.1355722016901013
 40
0.1580798033765097
 40
0.1806225438188749
 40
0.2032229186426993
 40
0.225903251963444
 40
0.2486856328315067
 40
0.3744034299808383
 40
0.4999236975978615
 40
0.5000033831470054
 40
0.624915478592043
 40
0.7509968892327287
 40
0.792674979712388
 40
0.834097798945035
 40
0.8754030632534209
 40
0.916729664750902
 40
0.9582162817860728
 40
0.9999999999999999
 40
0.9999999999999999
 40
0.9999999999999999
 40
0.9999999999999999
 10
240.5641990066565
 20
38.97591131489741
 30
0.0
 10
240.5963231540016
 20
38.87430980754235
 30
0.0
 10
240.6604308169914
 20
38.67155157950909
 30
0.0
 10
240.7503199461272
 20
38.36553738138433
 30
0.0
 10
240.8354413365616
 20
38.0592117714721
 30
0.0
 10
240.9154841088483
 20
37.75243939970093
 30
0.0
 10
240.9906889431401
 20
37.44533953726445
 30
0.0
 10
241.0611528433687
 20
37.13796876184536
 30
0.0
 10
241.1270147277955
 20
36.83040636574385
 30
0.0
 10
241.1884054925833
 20
36.52272960869094
 30
0.0
 10
241.245462455772
 20
36.21502832216959
 30
0.0
 10
241.2983212340865
 20
35.90737188338638
 30
0.0
 10
241.4205365373669
 20
35.1376015895683
 30
0.0
 10
241.5616596573252
 20
33.92744609056077
 30
0.0
 10
241.6028779295876
 20
32.9016264259591
 30
0.0
 10
241.60416315369
 20
31.94181509651518
 30
0.0
 10
241.5634362845724
 20
31.03862026768724
 30
0.0
 10
241.4117938373573
 20
30.17125217933236
 30
0.0
 10
241.2572344774092
 20
29.64731095546836
 30
0.0
 10
241.1505525499631
 20
29.3647871914178
 30
0.0
 10
241.0290043808513
 20
29.11278088298843
 30
0.0
 10
240.8913831482019
 20
28.89152831775658
 30
0.0
 10
240.7383555201672
 20
28.69788195727276
 30
0.0
 10
240.6224993679444
 20
28.59410877161427
 30
0.0
 10
240.5643646095897
 20
28.54203705201874
 30
0.0
  0
LWPOLYLINE
  5
19B
330
1F
100
AcDbEntity
  8
0
  6
Continuous
 62
     7
370
    15
100
AcDbPolyline
 90
       24
 70
   128
 43
0.0
 10
240.5641990066
 20
38.9759113149
 10
241.027094735
 20
40.8246149192
 10
241.6097772353
 20
42.6887548579
 10
242.3076425941
 20
44.5536021172
 10
243.1151768111
 20
46.4044220947
 10
244.0259993661
 20
48.226591021
 10
245.032913633
 20
50.0057115052
 10
246.1279637424
 20
51.7277262926
 10
247.3024974426
 20
53.3790293342
 10
248.5472344629
 20
54.9465732913
 10
249.8523398397
 20
56.4179726256
 10
251.2075016244
 20
57.7816014605
 10
252.6020123611
 20
59.0266854398
 10
254.0248536882
 20
60.1433868584
 10
255.4647833974
 20
61.1228823922
 10
256.9104242612
 20
61.9574328139
 10
258.3503539266
 20
62.6404441417
 10
259.7731951663
 20
63.1665197404
 10
261.1677057729
 20
63.5315029613
 10
262.5228673857
 20
63.7325099852
 10
263.8279725502
 20
63.7679526076
 10
265.0727093194
 20
63.637550788
 10
266.2472427317
 20
63.3423348621
 10
266.690100894
 20
63.1806582322
  0
SPLINE
  5
19C
330
1F
100
AcDbEntity
  8
0
  6
Continuous
 62
     7
370
    15
100
AcDbSpline
210
0.0
220
0.0
230
1.0
 70
     8
 71
     3
 72
    13
 73
     9
 74
     0
 42
0.000000001
 43
0.00000001
 40
0.0
 40
0.0
 40
0.0
 40
0.0
 40
0.2790867859756884
 40
0.4342638188075093
 40
0.5939424628330394
 40
0.7491163690336345
 40
0.9087824281143193
 40
1.0
 40
1.0
 40
1.0
 40
1.0
 10
257.6548476260041
 20
24.42917791796102
 30
0.0
 10
257.4099357274474
 20
24.48443982471147
 30
0.0
 10
257.0288486187659
 20
24.57042829806802
 30
0.0
 10
256.6360982184145
 20
24.93415683009316
 30
0.0
 10
256.386977676825
 20
25.3077377422886
 30
0.0
 10
256.216939835378
 20
25.77453069020883
 30
0.0
 10
256.1295524190701
 20
26.22773313523041
 30
0.0
 10
256.1362854534921
 20
26.54210399664902
 30
0.0
 10
256.1387334850717
 20
26.65640458509219
 30
0.0
  0
SPLINE
  5
19D
330
1F
100
AcDbEntity
  8
0
  6
Continuous
 62
     7
370
    15
100
AcDbSpline
210
0.0
220
0.0
230
1.0
 70
     8
 71
     3
 72
    12
 73
     8
 74
     0
 42
0.000000001
 43
0.00000001
 40
0.0
 40
0.0
 40
0.0
 40
0.0
 40
0.1311302939237506
 40
0.3570549383488797
 40
0.5681923701782456
 40
0.7843005947214353
 40
1.0
 40
1.0
 40
1.0
 40
1.0
 10
261.7033787694924
 20
35.28691755220327
 30
0.0
 10
261.696975595307
 20
35.27304575666442
 30
0.0
 10
261.6795403795718
 20
35.23527421697889
 30
0.0
 10
261.6184444218225
 20
35.14396714638595
 30
0.0
 10
261.5369001148878
 20
35.03216019381296
 30
0.0
 10
261.4483483803253
 20
34.91676301480677
 30
0.0
 10
261.3854924454996
 20
34.83801464948734
 30
0.0
 10
261.3540942329072
 20
34.79867774482663
 30
0.0
  0
SPLINE
  5
19E
330
1F
100
AcDbEntity
  8
0
  6
Continuous
 62
     7
370
    15
100
AcDbSpline
210
0.0
220
0.0
230
1.0
 70
     8
 71
     3
 72
    16
 73
    12
 74
     0
 42
0.000000001
 43
0.00000001
 40
0.0
 40
0.0
 40
0.0
 40
0.0
 40
0.2500000000000001
 40
0.2500000000000001
 40
0.5000000000000001
 40
0.5000000000000001
 40
0.6250000000000001
 40
0.6250000000000001
 40
0.7500000000000002
 40
0.7500000000000002
 40
1.0
 40
1.0
 40
1.0
 40
1.0
 10
279.8357100447348
 20
45.46788564022235
 30
0.0
 10
279.7724095685658
 20
45.47354112341353
 30
0.0
 10
279.7041521160745
 20
45.47651135839702
 30
0.0
 10
279.5497948280164
 20
45.47278804819302
 30
0.0
 10
279.4624043671127
 20
45.46638901112598
 30
0.0
 10
279.3149751870804
 20
45.43869917725269
 30
0.0
 10
279.2631385532488
 20
45.42606155019264
 30
0.0
 10
279.1667320588272
 20
45.39493260797793
 30
0.0
 10
279.1220378758566
 20
45.37631688993446
 30
0.0
 10
279.012404788021
 20
45.32020379806932
 30
0.0
 10
278.9684455092581
 20
45.28347058329772
 30
0.0
 10
278.9360022839081
 20
45.24925077942301
 30
0.0
  0
SPLINE
  5
19F
330
1F
100
AcDbEntity
  8
0
  6
Continuous
 62
     7
370
    15
100
AcDbSpline
210
0.0
220
0.0
230
1.0
 70
     8
 71
     3
 72
     8
 73
     4
 74
     0
 42
0.000000001
 43
0.00000001
 40
0.0
 40
0.0
 40
0.0
 40
0.0
 40
1.0
 40
1.0
 40
1.0
 40
1.0
 10
278.9360022839081
 20
45.24925077942301
 30
0.0
 10
278.8335423494194
 20
45.28816431662081
 30
0.0
 10
278.7321063653465
 20
45.33289781480729
 30
0.0
 10
278.6540578232497
 20
45.37795427910596
 30
0.0
  0
LINE
  5
1A0
330
1F
100
AcDbEntity
  8
0
  6
Continuous
 62
     7
370
    15
100
AcDbLine
 10
277.1498772404
 20
46.8399133313
 30
0.0
 11
277.0286474252
 21
46.9123647658
 31
0.0
  0
LINE
  5
1A1
330
1F
100
AcDbEntity
  8
0
  6
Continuous
 62
     7
370
    15
100
AcDbLine
 10
275.0071171185
 20
47.4832883346
 30
0.0
 11
278.6540578232
 21
45.3779542791
 31
0.0
  0
ARC
  5
1A2
330
1F
100
AcDbEntity
  8
0
  6
Continuous
 62
     7
370
    15
100
AcDbCircle
 10
253.7419214403
 20
45.8428861987
 30
0.0
 40
17.12716538157263
100
AcDbArc
 50
337.8321697843
 51
1.8727477318
  0
LINE
  5
1A3
330
1F
100
AcDbEntity
  8
0
  6
Continuous
 62
     7
370
    15
100
AcDbLine
 10
269.6030910241
 20
39.3804490854
 30
0.0
 11
278.6540578232
 21
34.1554371697
 31
0.0
  0
LINE
  5
1A4
330
1F
100
AcDbEntity
  8
0
  6
Continuous
 62
     7
370
    15
100
AcDbLine
 10
262.9085644036
 20
22.7354424573
 30
0.0
 11
263.0297851683
 21
22.6629966192
 31
0.0
  0
LINE
  5
1A5
330
1F
100
AcDbEntity
  8
0
  6
Continuous
 62
     7
370
    15
100
AcDbLine
 10
256.2604694572
 20
27.1669204353
 30
0.0
 11
261.4043747703
 21
24.1974071059
 31
0.0
  0
LINE
  5
1A6
330
1F
100
AcDbEntity
  8
0
  6
Continuous
 62
     7
370
    15
100
AcDbLine
 10
263.9110050475
 20
62.2856979413
 30
0.0
 11
264.2258872852
 21
62.5094777576
 31
0.0
  0
SPLINE
  5
1A7
330
1F
100
AcDbEntity
  8
0
  6
Continuous
 62
     7
370
    15
100
AcDbSpline
210
0.0
220
0.0
230
1.0
 70
     8
 71
     3
 72
     8
 73
     4
 74
     0
 42
0.000000001
 43
0.00000001
 40
0.0
 40
0.0
 40
0.0
 40
0.0
 40
1.0
 40
1.0
 40
1.0
 40
1.0
 10
255.561244031702
 20
57.50748567774038
 30
0.0
 10
255.6674022258731
 20
57.51388156761055
 30
0.0
 10
255.7850899924344
 20
57.52937202626033
 30
0.0
 10
255.9191403661871
 20
57.5574424583594
 30
0.0
  0
SPLINE
  5
1A8
330
1F
100
AcDbEntity
  8
0
  6
Continuous
 62
     7
370
    15
100
AcDbSpline
210
0.0
220
0.0
230
1.0
 70
     8
 71
     3
 72
     8
 73
     4
 74
     0
 42
0.000000001
 43
0.00000001
 40
0.0
 40
0.0
 40
0.0
 40
0.0
 40
1.0
 40
1.0
 40
1.0
 40
1.0
 10
239.4740413739015
 20
44.55296321014475
 30
0.0
 10
239.4251455570437
 20
44.54618963537069
 30
0.0
 10
239.3762511710071
 20
44.53931826270219
 30
0.0
 10
239.3273581360316
 20
44.5323497038268
 30
0.0
  0
SPLINE
  5
1A9
330
1F
100
AcDbEntity
  8
0
  6
Continuous
 62
     7
370
    15
100
AcDbSpline
210
0.0
220
0.0
230
1.0
 70
     8
 71
     3
 72
     8
 73
     4
 74
     0
 42
0.000000001
 43
0.00000001
 40
0.0
 40
0.0
 40
0.0
 40
0.0
 40
1.0
 40
1.0
 40
1.0
 40
1.0
 10
239.3273581360316
 20
44.5323497038268
 30
0.0
 10
238.8999342369419
 20
44.47143042141666
 30
0.0
 10
238.4726126718715
 20
44.40310053825427
 30
0.0
 10
238.045346772575
 20
44.32765230226192
 30
0.0
  0
SPLINE
  5
1AA
330
1F
100
AcDbEntity
  8
0
  6
Continuous
 62
     7
370
    15
100
AcDbSpline
210
0.0
220
0.0
230
1.0
 70
     8
 71
     3
 72
     8
 73
     4
 74
     0
 42
0.000000001
 43
0.00000001
 40
0.0
 40
0.0
 40
0.0
 40
0.0
 40
1.0
 40
1.0
 40
1.0
 40
1.0
 10
238.045346772575
 20
44.32765230226192
 30
0.0
 10
237.4803110499393
 20
44.22787614737634
 30
0.0
 10
236.9148269253803
 20
44.12894575834562
 30
0.0
 10
236.3490039460928
 20
44.03070383695862
 30
0.0
  0
SPLINE
  5
1AB
330
1F
100
AcDbEntity
  8
0
  6
Continuous
 62
     7
370
    15
100
AcDbSpline
210
0.0
220
0.0
230
1.0
 70
     8
 71
     3
 72
     8
 73
     4
 74
     0
 42
0.000000001
 43
0.00000001
 40
0.0
 40
0.0
 40
0.0
 40
0.0
 40
0.0011496337376319
 40
0.0011496337376319
 40
0.0011496337376319
 40
0.0011496337376319
 10
235.4600472985736
 20
44.54398285743435
 30
0.0
 10
235.7565941556258
 20
44.37275826951002
 30
0.0
 10
236.0529238199103
 20
44.20165903955452
 30
0.0
 10
236.3490039460928
 20
44.03070383695862
 30
0.0
  0
LWPOLYLINE
  5
1AC
330
1F
100
AcDbEntity
  8
0
  6
Continuous
 62
     7
370
    15
100
AcDbPolyline
 90
       27
 70
   128
 43
0.0
 10
235.4600472986
 20
44.5439828574
 10
236.0584971296
 20
46.3773999019
 10
236.7671168311
 20
48.2084277744
 10
237.5804988316
 20
50.0230936567
 10
238.4924361043
 20
51.8075495907
 10
239.4959695338
 20
53.5481781547
 10
240.5834410225
 20
55.2316963794
 10
241.7465519301
 20
56.8452571122
 10
242.9764264016
 20
58.3765470554
 10
244.2636791008
 20
59.8138807309
 10
245.59848683
 20
61.1462896531
 10
246.9706634931
 20
62.3636060315
 10
248.3697378266
 20
63.456540362
 10
249.7850333072
 20
64.4167523167
 10
251.2057496258
 20
65.2369143898
 10
252.6210451064
 20
65.9107678149
 10
254.0201194398
 20
66.4331703264
 10
255.392296103
 20
66.8001354009
 10
256.7271038322
 20
67.0088626788
 10
258.0143565313
 20
67.0577593345
 10
259.2442310029
 20
66.946452231
 10
260.4073419105
 20
66.6757907676
 10
261.4948133992
 20
66.2478403983
 10
262.4983468287
 20
65.6658668694
 10
263.4102841014
 20
64.9343112987
 10
264.2236661019
 20
64.0587562847
 10
264.482897689
 20
63.7208609012
  0
LINE
  5
1AD
330
1F
100
AcDbEntity
  8
0
  6
Continuous
 62
     7
370
    15
100
AcDbLine
 10
230.8108202123
 20
47.2279245251
 30
0.0
 11
235.4600472986
 21
44.5439828574
 31
0.0
  0
LINE
  5
1AE
330
1F
100
AcDbEntity
  8
0
  6
Continuous
 62
     7
370
    15
100
AcDbLine
 10
257.166859628
 20
68.7672085652
 30
0.0
 11
257.3452298055
 21
68.6673832394
 31
0.0
  0
LINE
  5
1AF
330
1F
100
AcDbEntity
  8
0
  6
Continuous
 62
     7
370
    15
100
AcDbLine
 10
261.5466943783
 20
24.081188172
 30
0.0
 11
257.654847626
 21
24.429177918
 31
0.0
  0
SPLINE
  5
1B0
330
1F
100
AcDbEntity
  8
0
  6
Continuous
 62
     7
370
    15
100
AcDbSpline
210
0.0
220
0.0
230
1.0
 70
     8
 71
     3
 72
    16
 73
    12
 74
     0
 42
0.000000001
 43
0.00000001
 40
0.0
 40
0.0
 40
0.0
 40
0.0
 40
0.2499999999999975
 40
0.2499999999999975
 40
0.499999999999995
 40
0.499999999999995
 40
0.6249999999999957
 40
0.6249999999999957
 40
0.7499999999999962
 40
0.7499999999999962
 40
1.0
 40
1.0
 40
1.0
 40
1.0
 10
261.3539995858017
 20
23.45449890552446
 30
0.0
 10
261.4165217030926
 20
23.44890848609242
 30
0.0
 10
261.4783819883529
 20
23.45011552752998
 30
0.0
 10
261.5916938121102
 20
23.47792401833015
 30
0.0
 10
261.6453761832788
 20
23.50374186359628
 30
0.0
 10
261.6960803643536
 20
23.58756202271285
 30
0.0
 10
261.706949605868
 20
23.62383592055031
 30
0.0
 10
261.7091928085525
 20
23.70909442932455
 30
0.0
 10
261.7004671135277
 20
23.75818045240227
 30
0.0
 10
261.6539799888922
 20
23.90474038731005
 30
0.0
 10
261.6017236541185
 20
23.99678848649377
 30
0.0
 10
261.5466943783211
 20
24.08118817203749
 30
0.0
  0
SPLINE
  5
1B1
330
1F
100
AcDbEntity
  8
0
  6
Continuous
 62
     7
370
    15
100
AcDbSpline
210
0.0
220
0.0
230
1.0
 70
     8
 71
     3
 72
    11
 73
     7
 74
     0
 42
0.000000001
 43
0.00000001
 40
0.0
 40
0.0
 40
0.0
 40
0.0
 40
0.1574687079823585
 40
0.4333755542634189
 40
0.7155406828854389
 40
1.0
 40
1.0
 40
1.0
 40
1.0
 10
241.6101619966496
 20
42.67776470449995
 30
0.0
 10
241.5483358531926
 20
42.77946359708635
 30
0.0
 10
241.3781817982572
 20
43.05935294467371
 30
0.0
 10
241.0656693983856
 20
43.48261109083594
 30
0.0
 10
240.6758374036834
 20
43.94928393881287
 30
0.0
 10
240.389276058847
 20
44.22149842908217
 30
0.0
 10
240.2454152616701
 20
44.35815675470389
 30
0.0
  0
SPLINE
  5
1B2
330
1F
100
AcDbEntity
  8
0
  6
Continuous
 62
     7
370
    15
100
AcDbSpline
210
0.0
220
0.0
230
1.0
 70
     8
 71
     3
 72
     8
 73
     4
 74
     0
 42
0.000000001
 43
0.00000001
 40
0.0
 40
0.0
 40
0.0
 40
0.0
 40
1.0
 40
1.0
 40
1.0
 40
1.0
 10
261.4043747702878
 20
24.19740710589367
 30
0.0
 10
261.482349751685
 20
24.15239310728299
 30
0.0
 10
261.527185085932
 20
24.1126887326493
 30
0.0
 10
261.5466943783211
 20
24.08118817203752
 30
0.0
  0
SPLINE
  5
1B3
330
1F
100
AcDbEntity
  8
0
  6
Continuous
 62
     7
370
    15
100
AcDbSpline
210
0.0
220
0.0
230
1.0
 70
     8
 71
     3
 72
    12
 73
     8
 74
     0
 42
0.000000001
 43
0.00000001
 40
0.0
 40
0.0
 40
0.0
 40
0.0
 40
0.2024429117043421
 40
0.3784745147421158
 40
0.5281955025071113
 40
0.798312157616389
 40
1.0
 40
1.0
 40
1.0
 40
1.0
 10
240.7492420388442
 20
30.03451983377827
 30
0.0
 10
240.8551756076394
 20
30.13630074561677
 30
0.0
 10
241.0532223345272
 20
30.32658392665667
 30
0.0
 10
241.2564594735833
 20
30.73434113396929
 30
0.0
 10
241.4353659623343
 20
31.29546508268303
 30
0.0
 10
241.5670097004258
 20
32.01493335997704
 30
0.0
 10
241.5854141362146
 20
32.71021601268737
 30
0.0
 10
241.593281697809
 20
33.00743670222522
 30
0.0
  0
SPLINE
  5
1B4
330
1F
100
AcDbEntity
  8
0
  6
Continuous
 62
     7
370
    15
100
AcDbSpline
210
0.0
220
0.0
230
1.0
 70
     8
 71
     3
 72
     9
 73
     5
 74
     0
 42
0.000000001
 43
0.00000001
 40
0.0
 40
0.0
 40
0.0
 40
0.0
 40
0.508496892362369
 40
1.0
 40
1.0
 40
1.0
 40
1.0
 10
240.5642548415081
 20
28.54195546403769
 30
0.0
 10
240.5952414312225
 20
28.79463185588975
 30
0.0
 10
240.6561790498784
 20
29.29154028472634
 30
0.0
 10
240.7185958270865
 20
29.78957261506801
 30
0.0
 10
240.7492738670531
 20
30.03435705313495
 30
0.0
  0
SPLINE
  5
1B5
330
1F
100
AcDbEntity
  8
0
  6
Continuous
 62
     7
370
    15
100
AcDbSpline
210
0.0
220
0.0
230
1.0
 70
     8
 71
     3
 72
    10
 73
     6
 74
     0
 42
0.000000001
 43
0.00000001
 40
0.0
 40
0.0
 40
0.0
 40
0.0
 40
0.5
 40
0.5
 40
1.0
 40
1.0
 40
1.0
 40
1.0
 10
240.2454152616701
 20
44.35815675470389
 30
0.0
 10
240.1540471613199
 20
44.44040050915011
 30
0.0
 10
240.0308926542714
 20
44.50185667032944
 30
0.0
 10
239.7576871684463
 20
44.56762503373664
 30
0.0
 10
239.6108978554921
 20
44.57192204284537
 30
0.0
 10
239.4740413739003
 20
44.5529632101486
 30
0.0
  0
SPLINE
  5
1B6
330
1F
100
AcDbEntity
  8
0
  6
Continuous
 62
     7
370
    15
100
AcDbSpline
210
0.0
220
0.0
230
1.0
 70
     8
 71
     3
 72
     8
 73
     4
 74
     0
 42
0.000000001
 43
0.00000001
 40
0.0
 40
0.0
 40
0.0
 40
0.0
 40
1.0
 40
1.0
 40
1.0
 40
1.0
 10
230.5020272603403
 20
47.40616824114167
 30
0.0
 10
230.5557063435967
 20
47.37519190037838
 30
0.0
 10
230.6629204378741
 20
47.31330524743166
 30
0.0
 10
230.810820212272
 20
47.22792452505151
 30
0.0
  0
LINE
  5
1B7
330
1F
100
AcDbEntity
  8
0
  6
Continuous
 62
     7
370
    15
100
AcDbLine
 10
230.5020272603
 20
47.4061682411
 30
0.0
 11
230.5789874387
 21
47.8003627864
 31
0.0
  0
SPLINE
  5
1B8
330
1F
100
AcDbEntity
  8
0
  6
Continuous
 62
     7
370
    15
100
AcDbSpline
210
0.0
220
0.0
230
1.0
 70
     8
 71
     3
 72
     8
 73
     4
 74
     0
 42
0.000000001
 43
0.00000001
 40
0.0
 40
0.0
 40
0.0
 40
0.0
 40
1.0
 40
1.0
 40
1.0
 40
1.0
 10
278.6540578232497
 20
34.15543716973875
 30
0.0
 10
278.7320328046469
 20
34.11042317112804
 30
0.0
 10
278.8335283648843
 20
34.10342804872258
 30
0.0
 10
278.9360022839282
 20
34.11982194761641
 30
0.0
  0
SPLINE
  5
1B9
330
1F
100
AcDbEntity
  8
0
  6
Continuous
 62
     7
370
    15
100
AcDbSpline
210
0.0
220
0.0
230
1.0
 70
     8
 71
     3
 72
    16
 73
    12
 74
     0
 42
0.000000001
 43
0.00000001
 40
0.0
 40
0.0
 40
0.0
 40
0.0
 40
0.2500000000000008
 40
0.2500000000000008
 40
0.3750000000000018
 40
0.3750000000000018
 40
0.5000000000000029
 40
0.5000000000000029
 40
0.7500000000000014
 40
0.7500000000000014
 40
1.0
 40
1.0
 40
1.0
 40
1.0
 10
278.9360022839284
 20
34.11982194761635
 30
0.0
 10
278.9682607291758
 20
34.02224382105265
 30
0.0
 10
279.0130733466197
 20
33.92399173885769
 30
0.0
 10
279.1217249910839
 20
33.81551255805088
 30
0.0
 10
279.1658579824096
 20
33.78687179042903
 30
0.0
 10
279.2625503608671
 20
33.75820160098063
 30
0.0
 10
279.3147202916553
 20
33.75824026345919
 30
0.0
 10
279.462195638144
 20
33.78917736837517
 30
0.0
 10
279.5491479542225
 20
33.84457863642328
 30
0.0
 10
279.7037632836519
 20
33.97132899596095
 30
0.0
 10
279.7730700885085
 20
34.04577719642965
 30
0.0
 10
279.8358038576344
 20
34.12381740882358
 30
0.0
  0
SPLINE
  5
1BA
330
1F
100
AcDbEntity
  8
0
  6
Continuous
 62
     7
370
    15
100
AcDbSpline
210
0.0
220
0.0
230
1.0
 70
     8
 71
     3
 72
    15
 73
    11
 74
     0
 42
0.000000001
 43
0.00000001
 40
0.0
 40
0.0
 40
0.0
 40
0.0
 40
0.1399493580072397
 40
0.2802320306539428
 40
0.4202251584356592
 40
0.5604055702229525
 40
0.6788441088018897
 40
0.7975203862097633
 40
0.959100994964034
 40
1.0
 40
1.0
 40
1.0
 40
1.0
 10
233.6839277437803
 20
38.6854024186554
 30
0.0
 10
233.6766370609139
 20
39.01132045336103
 30
0.0
 10
233.6620383311048
 20
39.6639327553594
 30
0.0
 10
233.5864543703278
 20
40.67002069594911
 30
0.0
 10
233.5185990349656
 20
41.67257391317944
 30
0.0
 10
233.4900184031186
 20
42.60551909278983
 30
0.0
 10
233.5130058824889
 20
43.45965330126187
 30
0.0
 10
233.568877179174
 20
44.34173161694043
 30
0.0
 10
233.6366861805665
 20
45.03729387139616
 30
0.0
 10
233.6513440951059
 20
45.49405832316849
 30
0.0
 10
233.6543048579666
 20
45.58632050830205
 30
0.0
  0
LINE
  5
1BB
330
1F
100
AcDbEntity
  8
0
  6
Continuous
 62
     7
370
    15
100
AcDbLine
 10
233.6839277438
 20
37.0014843519
 30
0.0
 11
233.6839277438
 21
38.6854024187
 31
0.0
  0
LINE
  5
1BC
330
1F
100
AcDbEntity
  8
0
  6
Continuous
 62
     7
370
    15
100
AcDbLine
 10
236.3490039461
 20
44.030703837
 30
0.0
 11
231.318483667
 21
46.9347613795
 31
0.0
  0
LINE
  5
1BD
330
1F
100
AcDbEntity
  8
0
  6
Continuous
 62
     7
370
    15
100
AcDbLine
 10
231.318483667
 20
46.9347613795
 30
0.0
 11
230.5020272603
 21
47.4061682411
 31
0.0
  0
SPLINE
  5
1BE
330
1F
100
AcDbEntity
  8
0
  6
Continuous
 62
     7
370
    15
100
AcDbSpline
210
0.0
220
0.0
230
1.0
 70
     8
 71
     3
 72
    30
 73
    26
 74
     0
 42
0.000000001
 43
0.00000001
 40
0.0
 40
0.0
 40
0.0
 40
0.0
 40
0.1249999999999998
 40
0.1249999999999998
 40
0.1874999999999998
 40
0.1874999999999998
 40
0.2499999999999997
 40
0.2499999999999997
 40
0.3124999999999997
 40
0.3124999999999997
 40
0.3749999999999997
 40
0.3749999999999997
 40
0.4374999999999998
 40
0.4374999999999998
 40
0.4999999999999999
 40
0.4999999999999999
 40
0.625
 40
0.625
 40
0.6875000000000002
 40
0.6875000000000002
 40
0.7500000000000003
 40
0.7500000000000003
 40
0.8750000000000001
 40
0.8750000000000001
 40
1.0
 40
1.0
 40
1.0
 40
1.0
 10
282.8278490362453
 20
38.96124230840521
 30
0.0
 10
283.0544292170426
 20
39.24310589925958
 30
0.0
 10
283.2590255512961
 20
39.54268674263128
 30
0.0
 10
283.5307749311157
 20
40.01961979014282
 30
0.0
 10
283.6160775315416
 20
40.1844688263157
 30
0.0
 10
283.7709673791061
 20
40.51566545156351
 30
0.0
 10
283.8407244855963
 20
40.68221539222465
 30
0.0
 10
283.9652478896431
 20
41.01714990925173
 30
0.0
 10
284.020055957194
 20
41.1855116700411
 30
0.0
 10
284.1143793782401
 20
41.52404531306375
 30
0.0
 10
284.1534862534466
 20
41.69313364563199
 30
0.0
 10
284.2148401511815
 20
42.02318831933687
 30
0.0
 10
284.2373337181195
 20
42.18530892088388
 30
0.0
 10
284.2662725501932
 20
42.50356113552607
 30
0.0
 10
284.272774316725
 20
42.66062562493585
 30
0.0
 10
284.2677389025507
 20
43.11480288951906
 30
0.0
 10
284.2327580925154
 20
43.39143312237587
 30
0.0
 10
284.1343453656357
 20
43.76682376092781
 30
0.0
 10
284.0936161769589
 20
43.88528441062122
 30
0.0
 10
283.9986752436284
 20
44.10191902097947
 30
0.0
 10
283.9442332014597
 20
44.20109521461547
 30
0.0
 10
283.7601834145223
 20
44.47142036119302
 30
0.0
 10
283.6077060867655
 20
44.61599759098242
 30
0.0
 10
283.2563357399422
 20
44.81925031929055
 30
0.0
 10
283.0544496633984
 20
44.88099951662073
 30
0.0
 10
282.8278490372388
 20
44.90126103291828
 30
0.0
  0
LINE
  5
1BF
330
1F
100
AcDbEntity
  8
0
  6
Continuous
 62
     7
370
    15
100
AcDbLine
 10
282.8278490372
 20
44.9012610329
 30
0.0
 11
278.9360022839
 21
45.2492507794
 31
0.0
  0
LWPOLYLINE
  5
1C0
330
1F
100
AcDbEntity
  8
0
  6
Continuous
 62
     7
370
    15
100
AcDbPolyline
 90
        3
 70
   128
 43
0.0
 10
232.4995238853
 20
43.4926321848
 10
232.5610173636
 20
44.8830907449
 10
232.7126960672
 20
46.1298996928
  0
ARC
  5
1C1
330
1F
100
AcDbEntity
  8
0
  6
Continuous
 62
     7
370
    15
100
AcDbCircle
 10
242.6795424684
 20
43.1583027839
 30
0.0
 40
10.18550708120638
100
AcDbArc
 50
178.1189836767
 51
207.971879973
  0
LINE
  5
1C2
330
1F
100
AcDbEntity
  8
0
  6
Continuous
 62
     7
370
    15
100
AcDbLine
 10
213.6716215859
 20
77.4989974625
 30
0.0
 11
213.761031792
 21
77.4683260874
 31
0.0
  0
LINE
  5
1C3
330
1F
100
AcDbEntity
  8
0
  6
Continuous
 62
     7
370
    15
100
AcDbLine
 10
204.9300310015
 20
62.1709265313
 30
0.0
 11
204.8701496237
 21
62.2228308329
 31
0.0
  0
SPLINE
  5
1C4
330
1F
100
AcDbEntity
  8
0
  6
Continuous
 62
     7
370
    15
100
AcDbSpline
210
0.0
220
0.0
230
1.0
 70
     8
 71
     3
 72
     9
 73
     5
 74
     0
 42
0.000000001
 43
0.00000001
 40
0.0
 40
0.0
 40
0.0
 40
0.0
 40
0.6934988305722032
 40
1.0
 40
1.0
 40
1.0
 40
1.0
 10
240.2454152616701
 20
31.41111504093162
 30
0.0
 10
240.5237432652403
 20
31.28869763018544
 30
0.0
 10
240.9250820870241
 20
31.11217619229754
 30
0.0
 10
241.2465778953319
 20
31.05696754353576
 30
0.0
 10
241.3451167365443
 20
31.04004602812774
 30
0.0
  0
SPLINE
  5
1C5
330
1F
100
AcDbEntity
  8
0
  6
Continuous
 62
     7
370
    15
100
AcDbSpline
210
0.0
220
0.0
230
1.0
 70
     8
 71
     3
 72
     8
 73
     4
 74
     0
 42
0.000000001
 43
0.00000001
 40
0.0
 40
0.0
 40
0.0
 40
0.0
 40
1.0
 40
1.0
 40
1.0
 40
1.0
 10
238.045346772575
 20
31.18134523090134
 30
0.0
 10
238.4726126718715
 20
31.2567934668937
 30
0.0
 10
238.8999342369419
 20
31.33847787951673
 30
0.0
 10
239.3273581360316
 20
31.42649380905803
 30
0.0
  0
SPLINE
  5
1C6
330
1F
100
AcDbEntity
  8
0
  6
Continuous
 62
     7
370
    15
100
AcDbSpline
210
0.0
220
0.0
230
1.0
 70
     8
 71
     3
 72
     8
 73
     4
 74
     0
 42
0.000000001
 43
0.00000001
 40
0.0
 40
0.0
 40
0.0
 40
0.0
 40
1.0
 40
1.0
 40
1.0
 40
1.0
 10
239.3273581360316
 20
31.42649380905803
 30
0.0
 10
239.3762511710071
 20
31.43656195435975
 30
0.0
 10
239.4251455570437
 20
31.44671310164379
 30
0.0
 10
239.4740413739015
 20
31.45694751533652
 30
0.0
  0
ARC
  5
1C7
330
1F
100
AcDbEntity
  8
0
  6
Continuous
 62
     7
370
    15
100
AcDbCircle
 10
243.0824988468
 20
33.2895534578
 30
0.0
 40
8.215348164977064
100
AcDbArc
 50
201.9008660444
 51
263.8340109944
  0
SPLINE
  5
1C8
330
1F
100
AcDbEntity
  8
0
  6
Continuous
 62
     7
370
    15
100
AcDbSpline
210
0.0
220
0.0
230
1.0
 70
     8
 71
     3
 72
     8
 73
     4
 74
     0
 42
0.000000001
 43
0.00000001
 40
0.0000000000000008
 40
0.0000000000000008
 40
0.0000000000000008
 40
0.0000000000000008
 40
0.0011496337376355
 40
0.0011496337376355
 40
0.0011496337376355
 40
0.0011496337376355
 10
236.3490039460982
 20
30.88439676559494
 30
0.0
 10
236.0529238199148
 20
30.66420070149727
 30
0.0
 10
235.7565941556267
 20
30.44449226910616
 30
0.0
 10
235.4600472985736
 20
30.22521374643681
 30
0.0
  0
SPLINE
  5
1C9
330
1F
100
AcDbEntity
  8
0
  6
Continuous
 62
     7
370
    15
100
AcDbSpline
210
0.0
220
0.0
230
1.0
 70
     8
 71
     3
 72
     8
 73
     4
 74
     0
 42
0.000000001
 43
0.00000001
 40
0.0
 40
0.0
 40
0.0
 40
0.0
 40
1.0
 40
1.0
 40
1.0
 40
1.0
 10
236.3490039460963
 20
30.88439676559865
 30
0.0
 10
236.9148269253826
 20
30.98263868698545
 30
0.0
 10
237.4803110499404
 20
31.08156907601595
 30
0.0
 10
238.045346772575
 20
31.18134523090134
 30
0.0
  0
SPLINE
  5
1CA
330
1F
100
AcDbEntity
  8
0
  6
Continuous
 62
     7
370
    15
100
AcDbSpline
210
0.0
220
0.0
230
1.0
 70
     8
 71
     3
 72
    10
 73
     6
 74
     0
 42
0.000000001
 43
0.00000001
 40
0.0
 40
0.0
 40
0.0
 40
0.0
 40
0.5
 40
0.5
 40
1.0
 40
1.0
 40
1.0
 40
1.0
 10
239.4740413739015
 20
31.45694751533652
 30
0.0
 10
239.6110055583152
 20
31.48561557355617
 30
0.0
 10
239.7571499026849
 20
31.49679862778877
 30
0.0
 10
240.0289073619915
 20
31.4807528744004
 30
0.0
 10
240.1538846421024
 20
31.45299902587002
 30
0.0
 10
240.2454152616703
 20
31.41111504093172
 30
0.0
  0
ARC
  5
1CB
330
1F
100
AcDbEntity
  8
0
  6
Continuous
 62
     7
370
    15
100
AcDbCircle
 10
268.4227646974
 20
48.545256309
 30
0.0
 40
6.662454012116865
100
AcDbArc
 50
320.5144984608
 51
350.8607354844
  0
LINE
  5
1CC
330
1F
100
AcDbEntity
  8
0
  6
Continuous
 62
     7
370
    15
100
AcDbLine
 10
231.318483667
 20
33.7884543081
 30
0.0
 11
236.3490039461
 21
30.8843967656
 31
0.0
  0
LINE
  5
1CD
330
1F
100
AcDbEntity
  8
0
  6
Continuous
 62
     7
370
    15
100
AcDbLine
 10
231.318483667
 20
33.7884543081
 30
0.0
 11
233.2596636751
 21
34.9090736738
 31
0.0
  0
LINE
  5
1CE
330
1F
100
AcDbEntity
  8
0
  6
Continuous
 62
     7
370
    15
100
AcDbLine
 10
230.5020272603
 20
33.3170474465
 30
0.0
 11
231.318483667
 21
33.7884543081
 31
0.0
  0
LINE
  5
1CF
330
1F
100
AcDbEntity
  8
0
  6
Continuous
 62
     7
370
    15
100
AcDbLine
 10
235.4600472986
 20
30.2252137464
 30
0.0
 11
230.8108202123
 21
32.9091554141
 31
0.0
  0
SPLINE
  5
1D0
330
1F
100
AcDbEntity
  8
0
  6
Continuous
 62
     7
370
    15
100
AcDbSpline
210
0.0
220
0.0
230
1.0
 70
     8
 71
     3
 72
     8
 73
     4
 74
     0
 42
0.000000001
 43
0.00000001
 40
0.0
 40
0.0
 40
0.0
 40
0.0
 40
1.0
 40
1.0
 40
1.0
 40
1.0
 10
230.810820212272
 20
32.90915541405398
 30
0.0
 10
230.6629161895593
 20
32.99453858893403
 30
0.0
 10
230.5557099358925
 20
33.13918780557453
 30
0.0
 10
230.5020272603403
 20
33.3170474464962
 30
0.0
  0
ELLIPSE
  5
1D1
330
1F
100
AcDbEntity
  8
0
  6
Continuous
 62
     7
370
    15
100
AcDbEllipse
 10
232.791034525
 20
36.4860728227
 30
0.0
 11
-0.0001201194076827505
 21
1.706897922965446
 31
0.0
210
0.0
220
0.0
230
1.0
 40
0.7174342186
 41
3.534193645557491
 42
5.104989972352374
  0
LINE
  5
1D2
330
1F
100
AcDbEntity
  8
0
  6
Continuous
 62
     7
370
    15
100
AcDbLine
 10
278.9360022839
 20
34.1198219476
 30
0.0
 11
282.8278490362
 21
38.9612423084
 31
0.0
  0
LINE
  5
1D3
330
1F
100
AcDbEntity
  8
0
  6
Continuous
 62
     7
370
    15
100
AcDbLine
 10
269.6030910241
 20
39.3804490854
 30
0.0
 11
273.5647502027
 21
44.3087154408
 31
0.0
  0
ELLIPSE
  5
1D4
330
1F
100
AcDbEntity
  8
0
  6
Continuous
 62
     7
370
    15
100
AcDbEllipse
 10
232.5525568939
 20
36.3483578624
 30
0.0
 11
0.5200151578418684
 21
1.941087241981869
 31
0.0
210
0.0
220
0.0
230
1.0
 40
0.5176380889
 41
3.619174351347729
 42
5.189970678142624
  0
LWPOLYLINE
  5
1D5
330
1F
100
AcDbEntity
  8
0
  6
Continuous
 62
     7
370
     0
100
AcDbPolyline
 90
       26
 70
   128
 43
0.0
 10
255.753945335
 20
57.2042307228
 10
254.3355694189
 20
55.8528771723
 10
252.9611160308
 20
54.390709327
 10
251.6403689407
 20
52.8281353345
 10
250.3827296211
 20
51.1762780634
 10
249.1971503245
 20
49.4468959273
 10
248.0920703586
 20
47.6522991852
 10
247.0753560128
 20
45.8052623128
 10
246.1542445636
 20
43.9189330706
 10
245.3352927577
 20
42.0067389137
 10
244.6243301386
 20
40.0822914117
 10
244.0264175507
 20
38.159289357
 10
243.5458111146
 20
36.2514212526
 10
243.1859319304
 20
34.3722678741
 10
242.9493417257
 20
32.5352055966
 10
242.8377246203
 20
30.7533111784
 10
242.8518751381
 20
29.0392686764
 10
242.9916925515
 20
27.4052791575
 10
243.2561815984
 20
25.8629738471
 10
243.6434595666
 20
24.4233313355
 10
244.150769696
 20
23.0965994282
 10
244.7745008013
 20
21.8922221994
 10
245.5102129782
 20
20.8187727661
 10
246.3526692076
 20
19.8838922621
 10
247.2958726343
 20
19.0942354463
 10
248.0069539362
 20
18.6341306181
  0
ARC
  5
1D6
330
1F
100
AcDbEntity
  8
0
  6
Continuous
 62
     7
370
     0
100
AcDbCircle
 10
268.210639546
 20
52.8554171273
 30
0.0
 40
10.26900930174799
100
AcDbArc
 50
62.1687484684
 51
106.7104905067
  0
LWPOLYLINE
  5
1D7
330
1F
100
AcDbEntity
  8
0
  6
Continuous
 62
     7
370
     0
100
AcDbPolyline
 90
       20
 70
   128
 43
0.0
 10
261.3539995858
 20
23.4544989055
 10
261.9722437275
 20
22.6351437453
 10
262.7022709561
 20
21.9690990663
 10
263.5346172876
 20
21.4649993905
 10
264.4584922856
 20
21.1293798045
 10
265.4619189474
 20
20.9665912398
 10
266.531888972
 20
20.9787440675
 10
267.6545313985
 20
21.1656807398
 10
268.8152924273
 20
21.5249778326
 10
269.9991240941
 20
22.0519774619
 10
271.1906793494
 20
22.7398476691
 10
272.3745110161
 20
23.5796709885
 10
273.535272045
 20
24.560560053
 10
274.6579144714
 20
25.6697987364
 10
275.727884496
 20
26.8930070037
 10
276.7313111578
 20
28.2143273321
 10
277.6551861559
 20
29.6166302858
 10
278.4875324874
 20
31.0817365804
 10
279.2175597159
 20
32.5906527565
 10
279.8358038576
 20
34.1238174088
  0
LWPOLYLINE
  5
1D8
330
1F
100
AcDbEntity
  8
0
  6
Continuous
 62
     7
370
     0
100
AcDbPolyline
 90
       20
 70
   128
 43
0.0
 10
279.8357100447
 20
45.4678856402
 10
279.2174584245
 20
46.2872027406
 10
278.4874289891
 20
46.9532133425
 10
277.655085416
 20
47.4572836714
 10
276.7312177236
 20
47.7928792526
 10
275.7278023959
 20
47.9556496199
 10
274.6578471263
 20
47.9434847128
 10
273.5352221931
 20
47.75654223
 10
272.3744806538
 20
47.3972455854
 10
271.1906696871
 20
46.8702524919
 10
269.9991355307
 20
46.1823945818
 10
268.8153245411
 20
45.3425888452
 10
267.654582956
 20
44.3617220359
 10
266.531957955
 20
43.2525095412
 10
265.4620025963
 20
42.0293305475
 10
264.4585871596
 20
40.7080416365
 10
263.5347193394
 20
39.3057712299
 10
262.7023756215
 20
37.8406975466
 10
261.9723460261
 20
36.3318129505
 10
261.3540942329
 20
34.7986777448
  0
ARC
  5
1D9
330
1F
100
AcDbEntity
  8
0
  6
Continuous
 62
     7
370
     0
100
AcDbCircle
 10
278.9418806584
 20
29.7070610777
 30
0.0
 40
36.46811027133872
100
AcDbArc
 50
128.9952411411
 51
174.0802324285
  0
LINE
  5
1DA
330
1F
100
AcDbEntity
  8
0
  6
Continuous
 62
     7
370
     0
100
AcDbLine
 10
257.654847626
 20
24.429177918
 30
0.0
 11
257.8316243213
 21
23.7694523329
 31
0.0
  0
ARC
  5
1DB
330
1F
100
AcDbEntity
  8
0
  6
Continuous
 62
     7
370
     0
100
AcDbCircle
 10
274.5342542151
 20
42.6439605749
 30
0.0
 40
4.944441661540739
100
AcDbArc
 50
33.569140529
 51
58.0619034819
  0
LWPOLYLINE
  5
1DC
330
1F
100
AcDbEntity
  8
0
  6
Continuous
 62
     7
370
     0
100
AcDbPolyline
 90
       17
 70
   128
 43
0.0
 10
263.0297851683
 20
22.6629966192
 10
263.6128827379
 20
22.3782998353
 10
264.5410796582
 20
22.1054073411
 10
265.5449920615
 20
22.0074821475
 10
266.6107697621
 20
22.085875251
 10
267.7237090673
 20
22.339505124
 10
268.8684556334
 20
22.7648726354
 10
270.0292162968
 20
23.3561093261
 10
271.1899769602
 20
24.1050583707
 10
272.3347235262
 20
25.0013871113
 10
273.4476628315
 20
26.0327296088
 10
274.513440532
 20
27.184857246
 10
275.5173529354
 20
28.4418750285
 10
276.4455498557
 20
29.7864408757
 10
277.2852256937
 20
31.2000048753
 10
278.0247961057
 20
32.6630652023
 10
278.6540578232
 20
34.1554371697
  0
LINE
  5
1DD
330
1F
100
AcDbEntity
  8
0
  6
Continuous
 62
     7
370
     0
100
AcDbLine
 10
256.580865254
 20
25.0491747443
 30
0.0
 11
257.654847626
 21
24.429177918
 31
0.0
  0
LWPOLYLINE
  5
1DE
330
1F
100
AcDbEntity
  8
0
  6
Continuous
 62
     7
370
     0
100
AcDbPolyline
 90
       19
 70
   128
 43
0.0
 10
239.4740413739
 20
44.5529632101
 10
240.0708959293
 20
46.2415604474
 10
240.7758917938
 20
47.9208322691
 10
241.5826191842
 20
49.5755108289
 10
242.4837433799
 20
51.1905518814
 10
243.4710714098
 20
52.7512715631
 10
244.5356265422
 20
54.2434798973
 10
245.667729901
 20
55.6536098087
 10
246.8570884654
 20
56.9688404745
 10
248.0928886534
 20
58.1772138906
 10
249.3638946383
 20
59.2677435929
 10
250.6585505043
 20
60.2305145461
 10
251.9650853122
 20
61.05677329
 10
253.2716201201
 20
61.7390075261
 10
254.5662759861
 20
62.2710144186
 10
255.8372819709
 20
62.6479569904
 10
257.0730821589
 20
62.8664081006
 10
258.2624407233
 20
62.9243816037
 10
258.9525915214
 20
62.8815014546
  0
LWPOLYLINE
  5
1DF
330
1F
100
AcDbEntity
  8
0
  6
Continuous
 62
     7
370
     0
100
AcDbPolyline
 90
       24
 70
   128
 43
0.0
 10
230.8108202123
 20
47.2279245251
 10
231.4092700433
 20
49.0613415695
 10
232.1178897448
 20
50.892369442
 10
232.9312717453
 20
52.7070353243
 10
233.8432090179
 20
54.4914912583
 10
234.8467424475
 20
56.2321198223
 10
235.9342139362
 20
57.915638047
 10
237.0973248437
 20
59.5291987798
 10
238.3271993153
 20
61.0604887231
 10
239.6144520145
 20
62.4978223985
 10
240.9492597437
 20
63.8302313207
 10
242.3214364068
 20
65.0475476991
 10
243.7205107403
 20
66.1404820296
 10
245.1358062209
 20
67.1006939843
 10
246.5565225395
 20
67.9208560574
 10
247.9718180201
 20
68.5947094825
 10
249.3708923535
 20
69.117111994
 10
250.7430690167
 20
69.4840770685
 10
252.0778767459
 20
69.6928043465
 10
253.365129445
 20
69.7417010021
 10
254.5950039166
 20
69.6303938986
 10
255.7581148242
 20
69.3597324352
 10
256.8455863129
 20
68.9317820659
 10
257.166859628
 20
68.7672085652
  0
LWPOLYLINE
  5
1E0
330
1F
100
AcDbEntity
  8
0
  6
Continuous
 62
     7
370
     0
100
AcDbPolyline
 90
       17
 70
   128
 43
0.0
 10
240.2454152617
 20
44.3581567547
 10
240.8603812659
 20
46.0771814645
 10
241.5892653185
 20
47.7849651671
 10
242.4249060656
 20
49.4647287279
 10
243.3590932585
 20
51.099968313
 10
244.382648421
 20
52.6746175405
 10
245.4855150277
 20
54.1732053347
 10
246.6568573113
 20
55.5810079304
 10
247.8851667243
 20
56.8841935355
 10
249.1583750119
 20
58.0699582296
 10
250.4639727836
 20
59.1266517637
 10
251.7891324194
 20
60.0438920252
 10
253.120834102
 20
60.8126670427
 10
254.4459937378
 20
61.4254235298
 10
255.7515915096
 20
61.8761410968
 10
257.0247997972
 20
62.1603914014
 10
257.4176695374
 20
62.2150235229
  0
LINE
  5
1E1
330
1F
100
AcDbEntity
  8
0
  6
Continuous
 62
     7
370
     0
100
AcDbLine
 10
241.0713460656
 20
43.4648140179
 30
0.0
 11
240.7853370357
 21
43.7108614607
 31
0.0
  0
LINE
  5
1E2
330
1F
100
AcDbEntity
  8
0
  6
Continuous
 62
     7
370
     0
100
AcDbLine
 10
240.800587815
 20
43.8061691701
 30
0.0
 11
240.7853370357
 21
43.7108614607
 31
0.0
  0
LINE
  5
1E3
330
1F
100
AcDbEntity
  8
0
  6
Continuous
 62
     7
370
     0
100
AcDbLine
 10
240.0125334354
 20
44.1568196911
 30
0.0
 11
239.3552388177
 21
44.5362677971
 31
0.0
  0
ARC
  5
1E4
330
1F
100
AcDbEntity
  8
0
  6
Continuous
 62
     7
370
     0
100
AcDbCircle
 10
236.7893527792
 20
38.5815904
 30
0.0
 40
6.439881613035604
100
AcDbArc
 50
56.2191255253
 51
59.9667101493
  0
SPLINE
  5
1E5
330
1F
100
AcDbEntity
  8
0
  6
Continuous
 62
     7
370
     0
100
AcDbSpline
210
0.0
220
0.0
230
1.0
 70
     8
 71
     3
 72
     8
 73
     4
 74
     0
 42
0.000000001
 43
0.00000001
 40
0.0
 40
0.0
 40
0.0
 40
0.0
 40
1.0
 40
1.0
 40
1.0
 40
1.0
 10
240.5890804688409
 20
43.80670948759109
 30
0.0
 10
240.5160452941595
 20
43.84293766057189
 30
0.0
 10
240.4430332666745
 20
43.88546457750691
 30
0.0
 10
240.3700441560111
 20
43.93422754953316
 30
0.0
  0
SPLINE
  5
1E6
330
1F
100
AcDbEntity
  8
0
  6
Continuous
 62
     7
370
     0
100
AcDbSpline
210
0.0
220
0.0
230
1.0
 70
     8
 71
     3
 72
    12
 73
     8
 74
     0
 42
0.000000001
 43
0.00000001
 40
0.0
 40
0.0
 40
0.0
 40
0.0
 40
0.2499999999999953
 40
0.2499999999999953
 40
0.4999999999999907
 40
0.4999999999999907
 40
1.0
 40
1.0
 40
1.0
 40
1.0
 10
240.7853370356812
 20
43.71086146071286
 30
0.0
 10
240.7686206708875
 20
43.72447441907106
 30
0.0
 10
240.7523717163577
 20
43.73081644439353
 30
0.0
 10
240.7197062534582
 20
43.74610692635641
 30
0.0
 10
240.7033981340922
 20
43.75336930708425
 30
0.0
 10
240.6544555553824
 20
43.77543988516287
 30
0.0
 10
240.6218061796481
 20
43.79047631340868
 30
0.0
 10
240.5890804688409
 20
43.80670948759109
 30
0.0
  0
SPLINE
  5
1E7
330
1F
100
AcDbEntity
  8
0
  6
Continuous
 62
     7
370
     0
100
AcDbSpline
210
0.0
220
0.0
230
1.0
 70
     8
 71
     3
 72
    10
 73
     6
 74
     0
 42
0.000000001
 43
0.00000001
 40
0.0
 40
0.0
 40
0.0
 40
0.0
 40
0.0381110146236208
 40
0.9108191192089296
 40
1.0
 40
1.0
 40
1.0
 40
1.0
 10
240.7853370356812
 20
33.17714140350854
 30
0.0
 10
240.7958903218504
 20
33.17359474592658
 30
0.0
 10
241.0481044103048
 20
33.08883280592479
 30
0.0
 10
241.326887536023
 20
33.00837796649116
 30
0.0
 10
241.5706787607918
 20
33.00751656635128
 30
0.0
 10
241.593281697809
 20
33.00743670222522
 30
0.0
  0
SPLINE
  5
1E8
330
1F
100
AcDbEntity
  8
0
  6
Continuous
 62
     7
370
     0
100
AcDbSpline
210
0.0
220
0.0
230
1.0
 70
     8
 71
     3
 72
    12
 73
     8
 74
     0
 42
0.000000001
 43
0.00000001
 40
0.0
 40
0.0
 40
0.0
 40
0.0
 40
0.5000000000000093
 40
0.5000000000000093
 40
0.7500000000000047
 40
0.7500000000000047
 40
1.0
 40
1.0
 40
1.0
 40
1.0
 10
240.5890804688409
 20
33.30788638553705
 30
0.0
 10
240.6218065032495
 20
33.28633504517906
 30
0.0
 10
240.6544556879916
 20
33.26367542720751
 30
0.0
 10
240.7033984008501
 20
33.2292380110862
 30
0.0
 10
240.719706573039
 20
33.21767140054911
 30
0.0
 10
240.7523720768575
 20
33.19524712604658
 30
0.0
 10
240.7686211743827
 20
33.18282857782107
 30
0.0
 10
240.7853370356812
 20
33.17714140350918
 30
0.0
  0
SPLINE
  5
1E9
330
1F
100
AcDbEntity
  8
0
  6
Continuous
 62
     7
370
     0
100
AcDbSpline
210
0.0
220
0.0
230
1.0
 70
     8
 71
     3
 72
    11
 73
     7
 74
     0
 42
0.000000001
 43
0.00000001
 40
0.0
 40
0.0
 40
0.0
 40
0.0
 40
0.000121716006687
 40
0.000121716006687
 40
0.000121716006687
 40
0.0003100832903278
 40
0.0003100832903278
 40
0.0003100832903278
 40
0.0003100832903278
 10
240.3700441560111
 20
33.4332622673893
 30
0.0
 10
240.3986446186894
 20
33.41934843263819
 30
0.0
 10
240.4273226815821
 20
33.40442929894149
 30
0.0
 10
240.456005542311
 20
33.3885415773404
 30
0.0
 10
240.5003685554771
 20
33.36396846347876
 30
0.0
 10
240.5448177955502
 20
33.33703504208772
 30
0.0
 10
240.5890804688409
 20
33.30788638553709
 30
0.0
  0
ARC
  5
1EA
330
1F
100
AcDbEntity
  8
0
  6
Continuous
 62
     7
370
     0
100
AcDbCircle
 10
242.8784946624
 20
38.5798834244
 30
0.0
 40
5.725384989424373
100
AcDbArc
 50
239.9622210953
 51
244.0155097316
  0
LINE
  5
1EB
330
1F
100
AcDbEntity
  8
0
  6
Continuous
 62
     7
370
     0
100
AcDbLine
 10
233.9224053749
 20
37.1391993121
 30
0.0
 11
240.0125334354
 21
33.6234432177
 31
0.0
  0
LINE
  5
1EC
330
1F
100
AcDbEntity
  8
0
  6
Continuous
 62
     7
370
     0
100
AcDbLine
 10
233.6839277438
 20
37.0014843519
 30
0.0
 11
233.9224053749
 21
37.1391993121
 31
0.0
  0
LWPOLYLINE
  5
1ED
330
1F
100
AcDbEntity
  8
0
  6
Continuous
 62
     7
370
     0
100
AcDbPolyline
 90
        3
 70
   128
 43
0.0
 10
240.5473365648
 20
44.0748536404
 10
240.5549416555
 20
44.0446770387
 10
240.5890804688
 20
43.8067094876
  0
LWPOLYLINE
  5
1EE
330
1F
100
AcDbEntity
  8
0
  6
Continuous
 62
     7
370
     0
100
AcDbPolyline
 90
        3
 70
   128
 43
0.0
 10
240.3444390042
 20
44.2799048802
 10
240.3656067344
 20
44.165784408
 10
240.370044156
 20
43.9342275495
  0
LWPOLYLINE
  5
1EF
330
1F
100
AcDbEntity
  8
0
  6
Continuous
 62
     7
370
     0
100
AcDbPolyline
 90
        3
 70
   128
 43
0.0
 10
239.9595835597
 20
44.5212559731
 10
239.9907944618
 20
44.3991487846
 10
240.0125334354
 20
44.1568196911
  0
LINE
  5
1F0
330
1F
100
AcDbEntity
  8
0
  6
Continuous
 62
     7
370
     0
100
AcDbLine
 10
283.3581791221
 20
38.5056187513
 30
0.0
 11
282.8278490362
 21
38.9612423084
 31
0.0
  0
LWPOLYLINE
  5
1F1
330
1F
100
AcDbEntity
  8
0
  6
Continuous
 62
     7
370
     0
100
AcDbPolyline
 90
        3
 70
   128
 43
0.0
 10
233.2066306665
 20
43.0844281289
 10
233.2681241448
 20
44.474886689
 10
233.4198028484
 20
45.7216956369
  0
ARC
  5
1F2
330
1F
100
AcDbEntity
  8
0
  6
Continuous
 62
     7
370
     0
100
AcDbCircle
 10
245.1799998278
 20
42.9551107257
 30
0.0
 40
11.97406748201628
100
AcDbArc
 50
179.3812056368
 51
194.5126472159
  0
LWPOLYLINE
  5
1F3
330
1F
100
AcDbEntity
  8
0
  6
Continuous
 62
     7
370
     0
100
AcDbPolyline
 90
       17
 70
   128
 43
0.0
 10
203.5249648141
 20
65.9308304853
 10
203.5888703234
 20
66.9995213855
 10
203.7792859195
 20
68.1202405514
 10
204.0923352899
 20
69.2701733726
 10
204.5216456521
 20
70.425910533
 10
205.0584774854
 20
71.5639245569
 10
205.6919024415
 20
72.6610487606
 10
206.4090258151
 20
73.694948859
 10
207.1952490424
 20
74.6445776277
 10
208.0345668855
 20
75.4906033635
 10
208.9098932538
 20
76.2158034221
 10
209.8034090265
 20
76.8054148216
 10
210.6969247992
 20
77.2474347743
 10
211.5722511674
 20
77.5328650286
 10
212.4115690106
 20
77.6558950476
 10
213.1977922378
 20
77.614020295
 10
213.6716215859
 20
77.4989974625
  0
ARC
  5
1F4
330
1F
100
AcDbEntity
  8
0
  6
Continuous
 62
     7
370
     0
100
AcDbCircle
 10
208.3891291721
 20
65.597445397
 30
0.0
 40
4.875575916563927
100
AcDbArc
 50
176.0791349454
 51
223.8002926635
  0
ARC
  5
1F5
330
1F
100
AcDbEntity
  8
0
  6
Continuous
 62
     7
370
     0
100
AcDbCircle
 10
238.5948516362
 20
32.8812842374
 30
0.0
 40
2.210375024260681
100
AcDbArc
 50
318.3083095737
 51
7.6920861831
  0
LWPOLYLINE
  5
1F6
330
1F
100
AcDbEntity
  8
0
  6
Continuous
 62
     7
370
     0
100
AcDbPolyline
 90
        3
 70
   128
 43
0.0
 10
240.9619829138
 20
30.2636941058
 10
240.8603812659
 20
30.4021149663
 10
240.2454152617
 20
31.4111150409
  0
LWPOLYLINE
  5
1F7
330
1F
100
AcDbEntity
  8
0
  6
Continuous
 62
     7
370
     0
100
AcDbPolyline
 90
        3
 70
   128
 43
0.0
 10
240.6856047316
 20
29.6888396415
 10
240.0708959293
 20
30.4574638795
 10
239.4740413739
 20
31.4569475153
  0
ARC
  5
1F8
330
1F
100
AcDbEntity
  8
0
  6
Continuous
 62
     7
370
     0
100
AcDbCircle
 10
237.9615616695
 20
33.6294219864
 30
0.0
 40
2.647119223531034
100
AcDbArc
 50
304.8456886156
 51
353.0232693864
  0
LINE
  5
1F9
330
1F
100
AcDbEntity
  8
0
  6
Continuous
 62
     7
370
     0
100
AcDbLine
 10
273.5647502027
 20
44.3087154408
 30
0.0
 11
282.8278490362
 21
38.9612423084
 31
0.0
  0
LINE
  5
1FA
330
1F
100
AcDbEntity
  8
0
  6
Continuous
 62
     7
370
     0
100
AcDbLine
 10
238.8811625855
 20
31.6638514293
 30
0.0
 11
233.2596636751
 21
34.9090736738
 31
0.0
  0
LINE
  5
1FB
330
1F
100
AcDbEntity
  8
0
  6
Continuous
 62
     7
370
     0
100
AcDbLine
 10
238.0453467726
 20
31.1813452309
 30
0.0
 11
238.8811625855
 21
31.6638514293
 31
0.0
  0
ARC
  5
1FC
330
1F
100
AcDbEntity
  8
0
  6
Continuous
 62
     7
370
     0
100
AcDbCircle
 10
238.0649285997
 20
33.3566988128
 30
0.0
 40
2.306386717507916
100
AcDbArc
 50
303.1862550559
 51
1.9023561302
  0
ARC
  5
1FD
330
1F
100
AcDbEntity
  8
0
  6
Continuous
 62
     7
370
     0
100
AcDbCircle
 10
242.4580599308
 20
37.8497961833
 30
0.0
 40
7.145635529430558
100
AcDbArc
 50
239.9622210953
 51
244.0155097316
  0
ARC
  5
1FE
330
1F
100
AcDbEntity
  8
0
  6
Continuous
 62
     7
370
     0
100
AcDbCircle
 10
237.5561876732
 20
33.7352205814
 30
0.0
 40
2.458887692115377
100
AcDbArc
 50
302.60547834
 51
357.3945215143
  0
ARC
  5
1FF
330
1F
100
AcDbEntity
  8
0
  6
Continuous
 62
     7
370
     0
100
AcDbCircle
 10
238.8375067637
 20
36.2936209108
 30
0.0
 40
8.711044925473772
100
AcDbArc
 50
202.8627999871
 51
238.9701612235
  0
OLE2FRAME
  5
200
330
1F
100
AcDbEntity
  8
0
100
AcDbOle2Frame
 70
     2
  3
Paintbrush-Bild
 10
13.8511154363
 20
38.264191557
 30
0.0
 11
51.6290888628
 21
31.9806341108
 31
0.0
 71
     2
 72
     0
 73
     1
 90
    12928
310
80552BED0767C5B32B40DDAF6807D121434000000000000000006FFBDDFB85D0
310
4940DDAF6807D121434000000000000000006FFBDDFB85D04940416F4BD60AFB
310
3F4000000000000000002BED0767C5B32B40416F4BD60AFB3F40000000000000
310
0000000000000100000000010000010000000100000000000100000000320000
310
D0CF11E0A1B11AE1000000000000000000000000000000003E000300FEFF0900
310
0600000000000000000000000100000001000000000000000010000002000000
310
01000000FEFFFFFF0000000000000000FFFFFFFFFFFFFFFFFFFFFFFFFFFFFFFF
310
FFFFFFFFFFFFFFFFFFFFFFFFFFFFFFFFFFFFFFFFFFFFFFFFFFFFFFFFFFFFFFFF
310
FFFFFFFFFFFFFFFFFFFFFFFFFFFFFFFFFFFFFFFFFFFFFFFFFFFFFFFFFFFFFFFF
310
FFFFFFFFFFFFFFFFFFFFFFFFFFFFFFFFFFFFFFFFFFFFFFFFFFFFFFFFFFFFFFFF
310
FFFFFFFFFFFFFFFFFFFFFFFFFFFFFFFFFFFFFFFFFFFFFFFFFFFFFFFFFFFFFFFF
310
FFFFFFFFFFFFFFFFFFFFFFFFFFFFFFFFFFFFFFFFFFFFFFFFFFFFFFFFFFFFFFFF
310
FFFFFFFFFFFFFFFFFFFFFFFFFFFFFFFFFFFFFFFFFFFFFFFFFFFFFFFFFFFFFFFF
310
FFFFFFFFFFFFFFFFFFFFFFFFFFFFFFFFFFFFFFFFFFFFFFFFFFFFFFFFFFFFFFFF
310
FFFFFFFFFFFFFFFFFFFFFFFFFFFFFFFFFFFFFFFFFFFFFFFFFFFFFFFFFFFFFFFF
310
FFFFFFFFFFFFFFFFFFFFFFFFFFFFFFFFFFFFFFFFFFFFFFFFFFFFFFFFFFFFFFFF
310
FFFFFFFFFFFFFFFFFFFFFFFFFFFFFFFFFFFFFFFFFFFFFFFFFFFFFFFFFFFFFFFF
310
FFFFFFFFFFFFFFFFFFFFFFFFFFFFFFFFFFFFFFFFFFFFFFFFFFFFFFFFFFFFFFFF
310
FFFFFFFFFFFFFFFFFFFFFFFFFFFFFFFFFFFFFFFFFFFFFFFFFFFFFFFFFFFFFFFF
310
FFFFFFFFFFFFFFFFFFFFFFFFFFFFFFFFFFFFFFFFFFFFFFFFFFFFFFFFFFFFFFFF
310
FDFFFFFFFEFFFFFFFEFFFFFFFEFFFFFF05000000060000000700000008000000
310
090000000A0000000B0000000C0000000D0000000E0000000F00000010000000
310
11000000120000001300000014000000150000001600000017000000FEFFFFFF
310
FFFFFFFFFFFFFFFFFFFFFFFFFFFFFFFFFFFFFFFFFFFFFFFFFFFFFFFFFFFFFFFF
310
FFFFFFFFFFFFFFFFFFFFFFFFFFFFFFFFFFFFFFFFFFFFFFFFFFFFFFFFFFFFFFFF
310
FFFFFFFFFFFFFFFFFFFFFFFFFFFFFFFFFFFFFFFFFFFFFFFFFFFFFFFFFFFFFFFF
310
FFFFFFFFFFFFFFFFFFFFFFFFFFFFFFFFFFFFFFFFFFFFFFFFFFFFFFFFFFFFFFFF
310
FFFFFFFFFFFFFFFFFFFFFFFFFFFFFFFFFFFFFFFFFFFFFFFFFFFFFFFFFFFFFFFF
310
FFFFFFFFFFFFFFFFFFFFFFFFFFFFFFFFFFFFFFFFFFFFFFFFFFFFFFFFFFFFFFFF
310
FFFFFFFFFFFFFFFFFFFFFFFFFFFFFFFFFFFFFFFFFFFFFFFFFFFFFFFFFFFFFFFF
310
FFFFFFFFFFFFFFFFFFFFFFFFFFFFFFFFFFFFFFFFFFFFFFFFFFFFFFFFFFFFFFFF
310
FFFFFFFFFFFFFFFFFFFFFFFFFFFFFFFFFFFFFFFFFFFFFFFFFFFFFFFFFFFFFFFF
310
FFFFFFFFFFFFFFFFFFFFFFFFFFFFFFFFFFFFFFFFFFFFFFFFFFFFFFFFFFFFFFFF
310
FFFFFFFFFFFFFFFFFFFFFFFFFFFFFFFFFFFFFFFFFFFFFFFFFFFFFFFFFFFFFFFF
310
FFFFFFFFFFFFFFFFFFFFFFFFFFFFFFFFFFFFFFFFFFFFFFFFFFFFFFFFFFFFFFFF
310
FFFFFFFFFFFFFFFFFFFFFFFFFFFFFFFFFFFFFFFFFFFFFFFFFFFFFFFFFFFFFFFF
310
52006F006F007400200045006E00740072007900000000000000000000000000
310
0000000000000000000000000000000000000000000000000000000000000000
310
16000500FFFFFFFFFFFFFFFF020000000A00030000000000C000000000000046
310
000000000000000000000000207DFCDD7520D20103000000C000000000000000
310
01004F006C006500000000000000000000000000000000000000000000000000
310
0000000000000000000000000000000000000000000000000000000000000000
310
0A000200FFFFFFFFFFFFFFFFFFFFFFFF00000000000000000000000000000000
310
0000000000000000000000000000000000000000000000001400000000000000
310
010043006F006D0070004F0062006A0000000000000000000000000000000000
310
0000000000000000000000000000000000000000000000000000000000000000
310
120002010100000003000000FFFFFFFF00000000000000000000000000000000
310
0000000000000000000000000000000000000000010000004D00000000000000
310
01004F006C006500310030004E00610074006900760065000000000000000000
310
0000000000000000000000000000000000000000000000000000000000000000
310
1A000200FFFFFFFFFFFFFFFFFFFFFFFF00000000000000000000000000000000
310
0000000000000000000000000000000000000000040000002426000000000000
310
FEFFFFFF02000000FEFFFFFFFFFFFFFFFFFFFFFFFFFFFFFFFFFFFFFFFFFFFFFF
310
FFFFFFFFFFFFFFFFFFFFFFFFFFFFFFFFFFFFFFFFFFFFFFFFFFFFFFFFFFFFFFFF
310
FFFFFFFFFFFFFFFFFFFFFFFFFFFFFFFFFFFFFFFFFFFFFFFFFFFFFFFFFFFFFFFF
310
FFFFFFFFFFFFFFFFFFFFFFFFFFFFFFFFFFFFFFFFFFFFFFFFFFFFFFFFFFFFFFFF
310
FFFFFFFFFFFFFFFFFFFFFFFFFFFFFFFFFFFFFFFFFFFFFFFFFFFFFFFFFFFFFFFF
310
FFFFFFFFFFFFFFFFFFFFFFFFFFFFFFFFFFFFFFFFFFFFFFFFFFFFFFFFFFFFFFFF
310
FFFFFFFFFFFFFFFFFFFFFFFFFFFFFFFFFFFFFFFFFFFFFFFFFFFFFFFFFFFFFFFF
310
FFFFFFFFFFFFFFFFFFFFFFFFFFFFFFFFFFFFFFFFFFFFFFFFFFFFFFFFFFFFFFFF
310
FFFFFFFFFFFFFFFFFFFFFFFFFFFFFFFFFFFFFFFFFFFFFFFFFFFFFFFFFFFFFFFF
310
FFFFFFFFFFFFFFFFFFFFFFFFFFFFFFFFFFFFFFFFFFFFFFFFFFFFFFFFFFFFFFFF
310
FFFFFFFFFFFFFFFFFFFFFFFFFFFFFFFFFFFFFFFFFFFFFFFFFFFFFFFFFFFFFFFF
310
FFFFFFFFFFFFFFFFFFFFFFFFFFFFFFFFFFFFFFFFFFFFFFFFFFFFFFFFFFFFFFFF
310
FFFFFFFFFFFFFFFFFFFFFFFFFFFFFFFFFFFFFFFFFFFFFFFFFFFFFFFFFFFFFFFF
310
FFFFFFFFFFFFFFFFFFFFFFFFFFFFFFFFFFFFFFFFFFFFFFFFFFFFFFFFFFFFFFFF
310
FFFFFFFFFFFFFFFFFFFFFFFFFFFFFFFFFFFFFFFFFFFFFFFFFFFFFFFFFFFFFFFF
310
FFFFFFFFFFFFFFFFFFFFFFFFFFFFFFFFFFFFFFFFFFFFFFFFFFFFFFFFFFFFFFFF
310
0100000200000000000000000000000000000000000000000000000000000000
310
0000000000000000000000000000000000000000000000000000000000000000
310
0100FEFF030A0000FFFFFFFF0A00030000000000C00000000000004607000000
310
5042727573680007000000504272757368000700000050427275736800F439B2
310
7100000000000000000000000000000000000000000000000000000000000000
310
0000000000000000000000000000000000000000000000000000000000000000
310
0000000000000000000000000000000000000000000000000000000000000000
310
0000000000000000000000000000000000000000000000000000000000000000
310
0000000000000000000000000000000000000000000000000000000000000000
310
0000000000000000000000000000000000000000000000000000000000000000
310
0000000000000000000000000000000000000000000000000000000000000000
310
0000000000000000000000000000000000000000000000000000000000000000
310
0000000000000000000000000000000000000000000000000000000000000000
310
0000000000000000000000000000000000000000000000000000000000000000
310
0000000000000000000000000000000000000000000000000000000000000000
310
0000000000000000000000000000000000000000000000000000000000000000
310
20260000424D0E260000000000003E00000028000000B40200006E0000000100
310
01000000000000000000130B0000130B00000200000002000000000000FFFFFF
310
FFFFFFFFFFFFFFFFFFFFFFFFFFFFFFFFFFFFFFFFFFFFFFFFFFFFFFFFFFFFFFFF
310
FFFFFFFFFFFFFFFFFFFFFFFFFFFFFFFFFFFFFFFFFFFFFFFFFFFFFFFFFFFFFFFF
310
FFFFFFFFFFFFFFFFFFFFFFFFFFFFFFFFFFFFFFFFFFFFFFFFF000FFFFFFFFFFFF
310
FFFFFFFFFFFFFFFFFFFFFFFFFFFFFFFFFFFFFFFFFFFFFFFFFFFFFFFFFFFFFFFF
310
FFFFFFFFFFFFFFFFFFFFFFFFFFFFFFFFFFFFFFFFFFFFFFFFFFFFFFFFFFFFFFFF
310
FFFFFFFFFFFFFFFFFFFFFFFFFFFFFFFFF000FFFFFFFFFFFFFFFFFFFFFFFFFFFF
310
FFFFFFFFFFFFFFFFFFFFFFFFFFFFFFFFFFFFFFFFFFFFFFFFFFFFFFFFFFFFFFFF
310
FFFFFFFFFFFFFFFFFFFFFFFFFFFFFFFFFFFFFFFFFFFFFFFFFFFFFFFFFFFFFFFF
310
FFFFFFFFFFFFFFFFF000FFFFFFFFFFFFFFFFFFFFFFFFFFFFFFFFFFFFFFFFFFFF
310
FFFFFFFFFFFFFFFFFFFFFFFFFFFFFFFFFFFFFFFFFFFFFFFFFFFFFFFFFFFFFFFF
310
FFFFFFFFFFFFFFFFFFFFFFFFFFFFFFFFFFFFFFFFFFFFFFFFFFFFFFFFFFFFFFFF
310
F000FFFFFFFFFFFFFFFFFFFFFFFFFFFFFFFFFFFFFFFFFFFFFFFFFFFFFFFFFFFF
310
FFFFFFFFFFFFFFFFFFFFFFFFFFFFFFFFFFFFFFFFFFFFFFFFFFFFFFFFFFFFFFFF
310
FFFFFFFFFFFFFFFFFFFFFFFFFFFFFFFFFFFFFFFFFFFFFFFFF000FFFFFFFFFFFF
310
FFFFFFFFFFFFFFFFFFFFFFFFFFFFFFFFFFFFFFFFFFFFFFFFFFFFFFFFFFFFFFFF
310
FFFFFFFFFFFFFFFFFFFFFFFFFFFFFFFFFFFFFFFFFFFFFFFFFFFFFFFFFFFFFFFF
310
FFFFFFFFFFFFFFFFFFFFFFFFFFFFFFFFF000FFFFFFFFFFFFFFFFFFFFFFFFFFFF
310
FFFFFFFFFFFFFFFFFFFFFFFFFFFFFFFFFFFFFFFFFFFFFFFFFFFFFFFFFFFFFFFF
310
FFFFFFFFFFFFFFFFFFFFFFFFFFFFFFFFFFFFFFFFFFFFFFFFFFFFFFFFFFFFFFFF
310
FFFFFFFFFFFFFFFFF000FFFFFFFFFFFFFFFFFFFFFFFFFFFFFFFFFFFFFFFFFFFF
310
FFFFFFFFFFFFFFFFFFFFFFFFFFFFFFFFFFFFFFFFFFFFFFFFFFFFFFFFFFFFFFFF
310
FFFFFFFFFFFFFFFFFFFFFFFFFFFFFFFFFFFFFFFFFFFFFFFFFFFFFFFFFFFFFFFF
310
F000FFFFFFFFFFFFFFFFFFFFFFFFFFFFFFFFFFFFFFFFFFFFFFFFFFFFFFFFFFFF
310
FFFFFFFFFFFFFFFFFFFFFFFFFFFFFFFFFFFFFFFFFFFFFFFFFFFFFFFFFFFFFFFF
310
FFFFFFFFFFFFFFFFFFFFFFFFFFFFFFFFFFFFFFFFFFFFFFFFF000FFFFFFFFFFFF
310
FFFFFFFFFFFFFFFFFFFFFFFFFFFFFFFFFFFFFFFFFFFFFFFFFFFFFFFFFFFFFFFF
310
FFFFFFFFFFFFFFFFFFFFFFFFFFFFFFFFFFFFFFFFFFFFFFFFFFFFFFFFFFFFFFFF
310
FFFFFFFFFFFFFFFFFFFFFFFFFFFFFFFFF000FFFFFFFFFFFFFFFFFFFFFFFFFFFF
310
FFFFFFFFFFFFFFFFFFFFFFFFFFFFFFFFFFFFFFFFFFFFFFFFFFFFFFFFFFFFFFFF
310
FFFFFFFFFFFFFFFFFFFFFFFFFFFFFFFFFFFFFFFFFFFFFFFFFFFFFFFFFFFFFFFF
310
FFFFFFFFFFFFFFFFF000FFFFFFFFFFFFFFFFFFFFFFFFFFFFFFFFFFFFFFFFFFFF
310
FFFFFFFFFFFFFFFFFFFFFFFFFFFFFFFFFFFFFFFFFFFFFFFFFFFFFFFFFFFFFFFF
310
FFFFFFFFFFFFFFFFFFFFFFFFFFFFFFFFFFFFFFFFFFFFFFFFFFFFFFFFFFFFFFFF
310
F000FFFFFFFFFFFFFFFFFFFFFFFFFFFFFFFFFFFFFFFFFFFFFFFFFFFFFFFFFFFF
310
FFFFFFFFFFFFFFFFFFFFFFFFFFFFFFFFFFFFFFFFFFFFFFFFFFFFFFFFFFFFFFFF
310
FFFFFFFFFFFFFFFFFFFFFFFFFFFFFFFFFFFFFFFFFFFFFFFFF000FFFFFFFFFFFF
310
FFFFFFFFFFFFFFFFFFFFFFFFFFFFFFFFFFFFFFFFFFFFFFFFFFFFFFFFFFFFFFFF
310
FFFFFFFFFFFFFFFFFFFFFFFFFFFFFFFFFFFFFFFFFFFFFFFFFFFFFFFFFFFFFFFF
310
FFFFFFFFFFFFFFFFFFFFFFFFFFFFFFFFF000FFFFFFFFFFFFFFFFFFFFFFFFFFFF
310
FFFFFFFFFFFFFFFFFFFFFFFFFFFFFFFFFFFFFFFFFFFFFFFFFFFFFFFFFFFFFFFF
310
FFFFFFFFFFFFFFFFFFFFFFFFFFFFFFFFFFFFFFFFFFFFFFFFFFFFFFFFFFFFFFFF
310
FFFFFFFFFFFFFFFFF000FFFFFFFFFFFFFFFFFFFFFFFFFFFFFFFFFFFFFFFFFFFF
310
FFFFFFFFFFFFFFFFFFFFFFFFFFFFFFFFFFFFFFFFFFFFFFFFFFFFFFFFFFFFFFFF
310
FFFFFFFFFFFFFFFFFFFFFFFFFFFFFFFFFFFFFFFFFFFFFFFFFFFFFFFFFFFFFFFF
310
F000FFFFFFFFFFFFFFFFFFFFFFFFFFFFFFFFFFFFFFFFFFFFFFFFFFFFFFFFFFFF
310
FFFFFFFFFFFFFFFFFFFFFFFFFFFFFFFFFFFFFFFFFFFFFFFFFFFFFFFFFFFFFFFF
310
FFFFFFFFFFFFFFFFFFFFFFFFFFFFFFFFFFFFFFFFFFFFFFFFF000FFFFFFFFFFFF
310
FFFFFFFFFFFFFFFFFFFFFFFFFFFFFFFFFFFFFFFFFFFFFFFFFFFFFFFFFFFFFFFF
310
FFFFFFFFFFFFFFFFFFFFFFFFFFFFFFFFFFFFFFFFFFFFFFFFFFFFFFFFFFFFFFFF
310
FFFFFFFFFFFFFFFFFFFFFFFFFFFFFFFFF000FFFFFFFFFFFFFFFFFFFFFFFFFFFF
310
FFFFFFFFFFFFFFFFFFFFFFFFFFFFFFFFFFFFFFFFFFFFFFFFFFFFFFFFFFFFFFFF
310
FFFFFFFFFFFFFFFFFFFFFFFFFFFFFFFFFFFFFFFFFFFFFFFFFFFFFFFFFFFFFFFF
310
FFFFFFFFFFFFFFFFF000FFFFF80003FFFFFFFFFFFFFFFFFFFFFFFFFFFFFFFFFF
310
FFFFF00007FFFFFFFFFF00007FFFFFF800000000000000007FFFFFFFFFFFFFFF
310
FFFFFFFC001FFFFFFFFFFFFFFC001FFFFFFFFFFFFFFFFFFFFFFFFFFE0007FFFF
310
F000FFFF8000007FFFFFFFF8000FFFFFC0007FFFFF80007FFFFF0000007FFFFF
310
FFF8000007FFFFF800000000000000007FFFFFF0001FFFFFFFFFFFC00001FFFF
310
FFFFFFFFC00001FFFFFFFF000000000003FFFFE000007FFFF000FFFE0000000F
310
FFFFFFF0000FFFFF80007FFFFF80007FFFFC0000001FFFFFFFC0000001FFFFF8
310
00000000000000007FFFFFF0001FFFFFFFFFFE0000003FFFFFFFFFFE0000003F
310
FFFFFF000000000003FFFF0000000FFFF000FFF800000003FFFFFFF00007FFFF
310
80007FFFFF80007FFFF000000007FFFFFF000000003FFFF80000000000000000
310
7FFFFFF0001FFFFFFFFFF80000000FFFFFFFFFF80000000FFFFFFF0000000000
310
03FFFC00000003FFF000FFE000000000FFFFFFF00007FFFF80003FFFFF80007F
310
FFC000000001FFFFFC000000001FFFF800000000000000007FFFFFF0001FFFFF
310
FFFFE000000003FFFFFFFFE000000003FFFFFF000000000003FFF000000000FF
310
F000FF80000000007FFFFFF00007FFFF80003FFFFF80007FFF8000000000FFFF
310
F80000000007FFF800000000000000007FFFFFF0001FFFFFFFFFC000000001FF
310
FFFFFFC000000001FFFFFF000000000003FFC0000000007FF000FF0000000000
310
3FFFFFE00007FFFF00003FFFFF80007FFE00000000003FFFF00000000003FFF8
310
00000000000000007FFFFFF0001FFFFFFFFF8000000000FFFFFFFF8000000000
310
FFFFFF000000000003FF80000000003FF000FE00000000001FFFFFE00003FFFF
310
00003FFFFF80007FFC00000000001FFFE00000000001FFF8000001FFFE000000
310
7FFFFFF0001FFFFFFFFE00000000003FFFFFFE00000000003FFFFF0000000000
310
03FF00000000001FF000FC00000000000FFFFFE00003FFFF00001FFFFF80007F
310
F800000000001FFFC00000000000FFF8000001FFFE0000007FFFFFF0001FFFFF
310
FFFC00000000001FFFFFFC00000000001FFFFF000000000003FE00000000000F
310
F000F8000000000007FFFFE00003FFFF00001FFFFF80007FF800000000000FFF
310
800000000000FFF8000001FFFE0000007FFFFFF0001FFFFFFFF800000000000F
310
FFFFF800000000000FFFFF000000000003FC000000000007F000F80000000000
310
03FFFFC00003FFFE00001FFFFF80007FF0000000000007FF0000000000007FF8
310
000001FFFE0000007FFFFFF0001FFFFFFFF0000000000007FFFFF00000000000
310
07FFFF000000000003F8000000000003F000F0000000000003FFFFC00001FFFE
310
00001FFFFF80007FE0000000000007FE0000000000003FF8000001FFFE000000
310
7FFFFFF0001FFFFFFFF0000000000007FFFFF0000000000007FFFF0000000000
310
03F800001F800003F000E00001FFF00001FFFFC00001FFFE00000FFFFF80007F
310
E00001FFE00003FE00001FFF00003FF8000001FFFE0000007FFFFFF0001FFFFF
310
FFE000003E000003FFFFE000003E000003FFFF000000000003F00001FFF80001
310
F000E00007FFFC0001FFFFC00001FFFE00000FFFFF80007FC0000FFFFC0003FC
310
0000FFFFC0001FF8000001FFFE0000007FFFFFF0001FFFFFFFC00003FFE00001
310
FFFFC00003FFE00001FFFF0001FFFFFFFFF00007FFFE0001F000E0000FFFFF00
310
00FFFF800001FFFC00000FFFFF80007FC0001FFFFE0001FC0001FFFFE0001FF8
310
000001FFFE0000007FFFFFF0001FFFFFFF80000FFFF80000FFFF80000FFFF800
310
00FFFF0003FFFFFFFFE0000FFFFF8000F000C0003FFFFF8000FFFF800000FFFC
310
000007FFFF80007F80003FFFFF0001FC0003FFFFF0001FF8000001FFFE000000
310
7FFFFFF0001FFFFFFF80003FFFFE0000FFFF80003FFFFE0000FFFF0003FFFFFF
310
FFE0003FFFFF8000F000C0003FFFFF8000FFFF800000FFFC000007FFFF80007F
310
80007FFFFF8001F80007FFFFF8000FF8000001FFFE0000007FFFFFF0001FFFFF
310
FF00007FFFFF00007FFF00007FFFFF00007FFF0003FFFFFFFFE0003FFFFFC000
310
F000C0007FFFFFC000FFFF000000FFFC000007FFFF80007F8000FFFFFF8000F8
310
000FFFFFF8000FF8000001FFFE0000007FFFFFF0001FFFFFFF0000FFFFFF8000
310
7FFF0000FFFFFF80007FFF0003FFFFFFFFC0007FFFFFC00070008000FFFFFFC0
310
00FFFF000000FFF8000007FFFF80007F8000FFFFFF8000F8000FFFFFF8000FF8
310
000001FFFE0000007FFFFFF0001FFFFFFE0001FFFFFFC0003FFE0001FFFFFFC0
310
003FFF0003FFFFFFFFC0007FFFFFE00070008000FFFFFFC0007FFF0000007FF8
310
000003FFFF80007F0001FFFFFF8000F8000FFFFFF8000FF8000001FFFE000000
310
7FFFFFF0001FFFFFFE0001FFFFFFC0003FFE0001FFFFFFC0003FFF0003FFFFFF
310
FFC000FFFFFFE00070008000FFFFFFC0007FFF0000007FF8000003FFFF80007F
310
0001FFFFFF8000F8001FFFFFF8000FF8000001FFFE0000007FFFFFF0001FFFFF
310
FE0003FFFFFFE0003FFE0003FFFFFFE0003FFF0003FFFFFFFFC000FFFFFFE000
310
70008000FFFFFFC0007FFE0000007FF8000003FFFF80007F0001FFFFFF8000F0
310
001FFFFFF8000FF8000001FFFE0000007FFFFFF0001FFFFFFC0003FFFFFFE000
310
1FFC0003FFFFFFE0001FFF0003FFFFFFFFC000FFFFFFC00070008000FFFFFF80
310
007FFE0000007FF0000003FFFF80007F0001FFFFFF0000F0001FFFFFF8000FF8
310
000001FFFE0000007FFFFFF0001FFFFFFC0007FFFFFFF0001FFC0007FFFFFFF0
310
001FFF0003FFFFFFFFC000FFFFFFC00070008001FFFFFF0000FFFE0000003FF0
310
000001FFFF80007F0001FFFFFF0000F8001FFFFFF0000FF8000001FFFE000000
310
7FFFFFF0001FFFFFFC0007FFFFFFF0001FFC0007FFFFFFF0001FFF0003FFFFFF
310
FFC001FFFFFF80007000FFFFFFFFFE0000FFFE0008003FF0008001FFFF80007F
310
FFFFFFFFFC0000FFFFFFFFFFE0000FF8000001FFFE0000007FFFFFF0001FFFFF
310
F8000FFFFFFFF8000FF8000FFFFFFFF8000FFF0003FFFFFFFFFFFFFFFFFF0000
310
7000FFFFFFFFFC0000FFFC0008003FF0008001FFFF80007FFFFFFFFFF80001FF
310
FFFFFFFF80000FF8000001FFFE0000007FFFFFF0001FFFFFF8000FFFFFFFF800
310
0FF8000FFFFFFFF8000FFF0003FFFFFFFFFFFFFFFFFE0000F000FFFFFFFFE000
310
00FFFC000C003FE000C001FFFF80007FFFFFFFFFC00001FFFFFFFFFE00001FF8
310
000001FFFE0000007FFFFFF0001FFFFFF8000FFFFFFFF8000FF8000FFFFFFFF8
310
000FFF0003FFFFFFFFFFFFFFFFF00000F000FFFFFFFE000001FFFC000C001FE0
310
00C000FFFF80007FFFFFFFFE000001FFFFFFFFE000001FF80FFFFFFFFFFFFFC0
310
7FFFFFF0001FFFFFF8000FFFFFFFF8000FF8000FFFFFFFF8000FFF0003FFFFFF
310
FFFFFFFFFF800000F000FFFFFFC0000001FFFC001C001FE001C000FFFF80007F
310
FFFFFF80000003FFFFFFF80000001FF80FFFFFFFFFFFFFC07FFFFFF0001FFFFF
310
F8001FFFFFFFFC000FF8001FFFFFFFFC000FFF0003FFFFFFFFFFFFFFF0000001
310
F000FFFFF800000001FFF8001C001FE001C000FFFF80007FFFFFF800000003FF
310
FFFF800000003FF80FFFFFFFFFFFFFC07FFFFFF0001FFFFFF8001FFFFFFFFC00
310
0FF8001FFFFFFFFC000FFF0003FFFFFFFFFFFFFE00000001F000FFFFC0000000
310
03FFF8001E001FC001E000FFFF80007FFFFF8000000007FFFFFC000000003FF8
310
0FFFFFFFFFFFFFC07FFFFFF0001FFFFFF8001FFFFFFFFC000FF8001FFFFFFFFC
310
000FFF0003FFFFFFFFFFFFE000000003F000FFFE0000000007FFF8001E000FC0
310
01E0007FFF80007FFFFE0000000007FFFFE0000000007FF80FFFFFFFFFFFFFC0
310
7FFFFFF0001FFFFFF0001FFFFFFFFC0007F0001FFFFFFFFC0007FF0003FFFFFF
310
FFFFFF0000000003F000FFF80000000007FFF8001E000FC003E0007FFF80007F
310
FFF0000000000FFFFF8000000000FFF80FFFFFFFFFFFFFC07FFFFFF0001FFFFF
310
F0001FFFFFFFFC0007F0001FFFFFFFFC0007FF0003FFFFFFFFFFFC0000000007
310
F000FFE0000000000FFFF0003E000FC003E0007FFF80007FFFC0000000001FFF
310
FE0000000001FFF80FFFFFFFFFFFFFC07FFFFFF0001FFFFFF0001FFFFFFFFC00
310
07F0001FFFFFFFFC0007FF0003FFFFFFFFFFF0000000000FF000FFC000000000
310
1FFFF0003F000F8003F0003FFF80007FFF80000000003FFFF80000000003FFF8
310
0FFFFFFFFFFFFFC07FFFFFF0001FFFFFF0001FFFFFFFFC0007F0001FFFFFFFFC
310
0007FF0003FFFFFFFFFFE0000000001FF000FF00000000007FFFF0003F000780
310
03F0003FFF80007FFF00000000007FFFF00000000007FFF80FFFFFFFFFFFFFC0
310
7FFFFFF0001FFFFFF0001FFFFFFFFC0007F0001FFFFFFFFC0007FF0003FFFFFF
310
FFFF80000000007FF000FE0000000000FFFFE0003F00078007F0003FFF80007F
310
FE0000000001FFFFE0000000001FFFF80FFFFFFFFFFFFFC07FFFFFF0001FFFFF
310
F0001FFFFFFFFC0007F0001FFFFFFFFC0007FF0003FFFFFFFFFF0000000000FF
310
F000FC0000000003FFFFE0007F00078007F0003FFF80007FFC0000000007FFFF
310
C0000000007FFFF80FFFFFFFFFFFFFC07FFFFFF0001FFFFFF8001FFFFFFFFC00
310
0FF8001FFFFFFFFC000FFF0003FFFFFFFFFE0000000003FFF000FC000000000F
310
FFFFE0007F80070007F8001FFF80007FF8000000001FFFFF8000000001FFFFF8
310
0FFFFFFFFFFFFFC07FFFFFF0001FFFFFF8001FFFFFFFFC000FF8001FFFFFFFFC
310
000FFF0003FFFFFFFFFC000000000FFFF000F8000000007FFFFFE0007F800700
310
07F8001FFF80007FF000000000FFFFFF800000000FFFFFF80FFFFFFFFFFFFFC0
310
7FFFFFF0001FFFFFF8000FFFFFFFF8000FF8000FFFFFFFF8000FFF0003FFFFFF
310
FFFC000000007FFFF000F800000007FFFFFFC0007F8003000FF8001FFF80007F
310
F000000007FFFFFF000000007FFFFFF80FFFFFFFFFFFFFC07FFFFFF0001FFFFF
310
F8000FFFFFFFF8000FF8000FFFFFFFF8000FFF0003FFFFFFFFF80000000FFFFF
310
F000F0000000FFFFFFFFC000FF8003000FF8001FFF80007FE0000000FFFFFFFF
310
0000000FFFFFFFF8000001FFFE0000007FFFFFF0001FFFFFF8000FFFFFFFF800
310
0FF8000FFFFFFFF8000FFF0003FFFFFFFFF8000000FFFFFFF000F000000FFFFF
310
FFFFC000FFC002000FF8000FFF80007FE000001FFFFFFFFE000001FFFFFFFFF8
310
000001FFFE0000007FFFFFF0001FFFFFF8000FFFFFFFF8000FF8000FFFFFFFF8
310
000FFF0003FFFFFFFFF000001FFFFFFFF000E00000FFFFFFFFFFC000FFC00200
310
0FFC000FFF80007FE00001FFFFFFFFFE00001FFFFFFFFFF8000001FFFE000000
310
7FFFFFF0001FFFFFFC000FFFFFFFF8001FFC000FFFFFFFF8001FFF0003FFFFFF
310
FFF00001FFFFFFFFF000E00007FFFFFFFFFF8000FFC000001FFC000FFF80007F
310
C0000FFFFFFFFFFE0000FFFFFFFFFFF8000001FFFE0000007FFFFFF0001FFFFF
310
FC0007FFFFFFF0001FFC0007FFFFFFF0001FFF0003FFFFFFFFF00007FFFFFFFF
310
F000E0001FFFFFFFFFFF8000FFC000001FFC000FFF80007FC0003FFFFFFFFFFE
310
0001FFFFFFFFFFF8000001FFFE0000007FFFFFF0001FFFFFFC0007FFFFFFF000
310
1FFC0007FFFFFFF0001FFF0003FFFFFFFFF0001FFFFFFFFFF000E0003FFFFF00
310
03FF8001FFE000001FFC0007FF80007FC0007FFFFF0007FC0003FFFFF0003FF8
310
000001FFFE0000007FFFFFF0001FFFFFFC0003FFFFFFE0001FFC0003FFFFFFE0
310
001FFF0003FFFFFFFFF0003FFFFFFFFFF000E0003FFFFF0001FF8001FFE00000
310
1FFE0007FF80007FC0007FFFFE0003FC0007FFFFE0003FF8000001FFFE000000
310
7FFFFFF0001FFFFFFE0003FFFFFFE0003FFE0003FFFFFFE0003FFF0003FFFFFF
310
FFF0003FFFFF8001F000E0003FFFFF0001FF0001FFE000001FFE0007FF80007F
310
C0007FFFFE0003FC0007FFFFE0003FF8000001FFFE0000007FFFFFF0001FFFFF
310
FE0001FFFFFFC0003FFE0001FFFFFFC0003FFF0003FFFFFFFFF0003FFFFF0001
310
F000E0003FFFFF0003FF0001FFE000003FFE0007FF80007FC0007FFFFE0003FC
310
0007FFFFE0003FF8000001FFFE0000007FFFFFF0001FFFFFFF0001FFFFFFC000
310
7FFF0001FFFFFFC0007FFF0003FFFFFFFFF0003FFFFF0001F000E0003FFFFE00
310
03FF0003FFF000003FFE0003FF80007FC0007FFFFC0003FE0007FFFFE0003FF8
310
000001FFFE0000007FFFFFF0001FFFFFFF0000FFFFFF80007FFF0000FFFFFF80
310
007FFF0003FFFFFFFFF0003FFFFF0001F000E0003FFFFE0003FF0003FFF00000
310
3FFF0003FF80007FC0007FFFFC0007FE0007FFFFC0003FF8000001FFFE000000
310
7FFFFFF0001FFFFFFF80007FFFFF0000FFFF80007FFFFF0000FFFF0003FFFFFF
310
FFF0003FFFFF0003F000E0003FFFFC0003FE0003FFF000003FFF0003FF80007F
310
E0003FFFF80007FE0003FFFFC0007FF8000001FFFE0000007FFFFFF0001FFFFF
310
FF80003FFFFE0000FFFF80003FFFFE0000FFFF0003FFFFFFFFF0001FFFFE0003
310
F000F0001FFFF80003FE0003FFF000007FFF0001FF80007FE0003FFFF00007FE
310
0001FFFF80007FF8000001FFFE0000007FFFFFF0001FFFFFFFC0000FFFF80001
310
FFFFC0000FFFF80001FFFF0003FFFFFFFFF0001FFFFC0003F000F0000FFFF000
310
07FE0007FFF800007FFF0001FF80007FE0001FFFE00007FF0000FFFE00007FF8
310
000001FFFE0000007FFFFFF0001FFFFFFFC00003FFE00001FFFFC00003FFE000
310
01FFFF0003FFFFFFFFF8000FFFF80003F000F00003FFC00007FC0007FFF80000
310
7FFF8001FF80007FF00007FF80000FFF00007FF80000FFF8000001FFFE000000
310
7F80000000000001FFE000003E000003FFFFE000003E000003FFFF0003FFFFFF
310
FFF80003FFE00007F000F800000000000FFC0007FFF800007FFF8001FF80007F
310
F000000000000FFF000000000000FFF8000001FFFE0000007F80000000000001
310
FFF0000000000007FFFFF0000000000007FFFF0003FFFFFFFFFC00007E000007
310
F000F800000000000FFC0007FFF80000FFFF8000FF80007FF800000000001FFF
310
800000000001FFF8000001FFFE0000007F80000000000001FFF800000000000F
310
FFFFF800000000000FFFFF0003FFFFFFFFFC00000000000FF000FC0000000000
310
1FFC0007FFFC0000FFFF8000FF80007FF800000000003FFFC00000000001FFF8
310
000001FFFE0000007F80000000000001FFF800000000000FFFFFF80000000000
310
0FFFFF0003FFFFFFFFFE00000000001FF000FE00000000003FF8000FFFFC0000
310
FFFF8000FF80007FFC00000000003FFFC00000000003FFF8000001FFFE000000
310
7F80000000000001FFFC00000000001FFFFFFC00000000001FFFFF0003FFFFFF
310
FFFF00000000001FF000FF00000000003FF8000FFFFC0000FFFFC000FF80007F
310
FE00000000007FFFE00000000007FFF8000001FFFE0000007F80000000000001
310
FFFE00000000003FFFFFFE00000000003FFFFF0003FFFFFFFFFF80000000003F
310
F000FF80000000007FF8000FFFFC0001FFFFC0007F80007FFF0000000000FFFF
310
F0000000000FFFF800000000000000007F80000000000001FFFF8000000000FF
310
FFFFFF8000000000FFFFFF0003FFFFFFFFFFC0000000007FF000FFC000000000
310
FFF8000FFFFE0001FFFFC0007F80007FFF8000000001FFFFF8000000001FFFF8
310
00000000000000007F80000000000001FFFFC000000001FFFFFFFFC000000001
310
FFFFFF0003FFFFFFFFFFE000000000FFF000FFE000000003FFF0001FFFFE0001
310
FFFFC0007F80007FFFC000000007FFFFFE000000003FFFF80000000000000000
310
7F80000000000001FFFFE000000003FFFFFFFFE000000003FFFFFF0003FFFFFF
310
FFFFF000000003FFF000FFF80000000FFFF0001FFFFE0001FFFFE0007F80007F
310
FFF00000000FFFFFFF00000000FFFFF800000000000000007F80000000000001
310
FFFFF80000000FFFFFFFFFF80000000FFFFFFF0003FFFFFFFFFFFC0000000FFF
310
F000FFFE0000003FFFF0001FFFFE0003FFFFE0003F80007FFFFC0000003FFFFF
310
FFC0000003FFFFF800000000000000007F80000000000001FFFFFE0000003FFF
310
FFFFFFFE0000003FFFFFFF0003FFFFFFFFFFFF0000003FFFF000FFFF800000FF
310
FFF0001FFFFF0003FFFFE0003F80007FFFFF000001FFFFFFFFF800001FFFFFF8
310
00000000000000007F80000000000001FFFFFFC00001FFFFFFFFFFFFC00001FF
310
FFFFFF0003FFFFFFFFFFFFC00000FFFFF000FFFFF8000FFFFFFFFFFFFFFFFFFF
310
FFFFFFFFFFFFFFFFFFFFF0001FFFFFFFFFFF0000FFFFFFF80000000000000000
310
7FFFFFFFFFFFFFFFFFFFFFFC001FFFFFFFFFFFFFFC001FFFFFFFFFFFFFFFFFFF
310
FFFFFFFC001FFFFFF000FFFFFFFFFFFFFFFFFFFFFFFFFFFFFFFFFFFFFFFFFFFF
310
FFFFFFFFFFFFFFFFFFFFFFFFFFFFFFFFFFFFFFFFFFFFFFFFFFFFFFFFFFFFFFFF
310
FFFFFFFFFFFFFFFFFFFFFFFFFFFFFFFFFFFFFFFFFFFFFFFFFFFFFFFFFFFFFFFF
310
F000FFFFFFFFFFFFFFFFFFFFFFFFFFFFFFFFFFFFFFFFFFFFFFFFFFFFFFFFFFFF
310
FFFFFFFFFFFFFFFFFFFFFFFFFFFFFFFFFFFFFFFFFFFFFFFFFFFFFFFFFFFFFFFF
310
FFFFFFFFFFFFFFFFFFFFFFFFFFFFFFFFFFFFFFFFFFFFFFFFF000FFFFFFFFFFFF
310
FFFFFFFFFFFFFFFFFFFFFFFFFFFFFFFFFFFFFFFFFFFFFFFFFFFFFFFFFFFFFFFF
310
FFFFFFFFFFFFFFFFFFFFFFFFFFFFFFFFFFFFFFFFFFFFFFFFFFFFFFFFFFFFFFFF
310
FFFFFFFFFFFFFFFFFFFFFFFFFFFFFFFFF000FFFFFFFFFFFFFFFFFFFFFFFFFFFF
310
FFFFFFFFFFFFFFFFFFFFFFFFFFFFFFFFFFFFFFFFFFFFFFFFFFFFFFFFFFFFFFFF
310
FFFFFFFFFFFFFFFFFFFFFFFFFFFFFFFFFFFFFFFFFFFFFFFFFFFFFFFFFFFFFFFF
310
FFFFFFFFFFFFFFFFF000FFFFFFFFFFFFFFFFFFFFFFFFFFFFFFFFFFFFFFFFFFFF
310
FFFFFFFFFFFFFFFFFFFFFFFFFFFFFFFFFFFFFFFFFFFFFFFFFFFFFFFFFFFFFFFF
310
FFFFFFFFFFFFFFFFFFFFFFFFFFFFFFFFFFFFFFFFFFFFFFFFFFFFFFFFFFFFFFFF
310
F000FFFFFFFFFFFFFFFFFFFFFFFFFFFFFFFFFFFFFFFFFFFFFFFFFFFFFFFFFFFF
310
FFFFFFFFFFFFFFFFFFFFFFFFFFFFFFFFFFFFFFFFFFFFFFFFFFFFFFFFFFFFFFFF
310
FFFFFFFFFFFFFFFFFFFFFFFFFFFFFFFFFFFFFFFFFFFFFFFFF000FFFFFFFFFFFF
310
FFFFFFFFFFFFFFFFFFFFFFFFFFFFFFFFFFFFFFFFFFFFFFFFFFFFFFFFFFFFFFFF
310
FFFFFFFFFFFFFFFFFFFFFFFFFFFFFFFFFFFFFFFFFFFFFFFFFFFFFFFFFFFFFFFF
310
FFFFFFFFFFFFFFFFFFFFFFFFFFFFFFFFF000FFFFFFFFFFFFFFFFFFFFFFFFFFFF
310
FFFFFFFFFFFFFFFFFFFFFFFFFFFFFFFFFFFFFFFFFFFFFFFFFFFFFFFFFFFFFFFF
310
FFFFFFFFFFFFFFFFFFFFFFFFFFFFFFFFFFFFFFFFFFFFFFFFFFFFFFFFFFFFFFFF
310
FFFFFFFFFFFFFFFFF000FFFFFFFFFFFFFFFFFFFFFFFFFFFFFFFFFFFFFFFFFFFF
310
FFFFFFFFFFFFFFFFFFFFFFFFFFFFFFFFFFFFFFFFFFFFFFFFFFFFFFFFFFFFFFFF
310
FFFFFFFFFFFFFFFFFFFFFFFFFFFFFFFFFFFFFFFFFFFFFFFFFFFFFFFFFFFFFFFF
310
F000FFFFFFFFFFFFFFFFFFFFFFFFFFFFFFFFFFFFFFFFFFFFFFFFFFFFFFFFFFFF
310
FFFFFFFFFFFFFFFFFFFFFFFFFFFFFFFFFFFFFFFFFFFFFFFFFFFFFFFFFFFFFFFF
310
FFFFFFFFFFFFFFFFFFFFFFFFFFFFFFFFFFFFFFFFFFFFFFFFF000FFFFFFFFFFFF
310
FFFFFFFFFFFFFFFFFFFFFFFFFFFFFFFFFFFFFFFFFFFFFFFFFFFFFFFFFFFFFFFF
310
FFFFFFFFFFFFFFFFFFFFFFFFFFFFFFFFFFFFFFFFFFFFFFFFFFFFFFFFFFFFFFFF
310
FFFFFFFFFFFFFFFFFFFFFFFFFFFFFFFFF000FFFFFFFFFFFFFFFFFFFFFFFFFFFF
310
FFFFFFFFFFFFFFFFFFFFFFFFFFFFFFFFFFFFFFFFFFFFFFFFFFFFFFFFFFFFFFFF
310
FFFFFFFFFFFFFFFFFFFFFFFFFFFFFFFFFFFFFFFFFFFFFFFFFFFFFFFFFFFFFFFF
310
FFFFFFFFFFFFFFFFF000FFFFFFFFFFFFFFFFFFFFFFFFFFFFFFFFFFFFFFFFFFFF
310
FFFFFFFFFFFFFFFFFFFFFFFFFFFFFFFFFFFFFFFFFFFFFFFFFFFFFFFFFFFFFFFF
310
FFFFFFFFFFFFFFFFFFFFFFFFFFFFFFFFFFFFFFFFFFFFFFFFFFFFFFFFFFFFFFFF
310
F000FFFFFFFFFFFFFFFFFFFFFFFFFFFFFFFFFFFFFFFFFFFFFFFFFFFFFFFFFFFF
310
FFFFFFFFFFFFFFFFFFFFFFFFFFFFFFFFFFFFFFFFFFFFFFFFFFFFFFFFFFFFFFFF
310
FFFFFFFFFFFFFFFFFFFFFFFFFFFFFFFFFFFFFFFFFFFFFFFFF000FFFFFFFFFFFF
310
FFFFFFFFFFFFFFFFFFFFFFFFFFFFFFFFFFFFFFFFFFFFFFFFFFFFFFFFFFFFFFFF
310
FFFFFFFFFFFFFFFFFFFFFFFFFFFFFFFFFFFFFFFFFFFFFFFFFFFFFFFFFFFFFFFF
310
FFFFFFFFFFFFFFFFFFFFFFFFFFFFFFFFF000FFFFFFFFFFFFFFFFFFFFFFFFFFFF
310
FFFFFFFFFFFFFFFFFFFFFFFFFFFFFFFFFFFFFFFFFFFFFFFFFFFFFFFFFFFFFFFF
310
FFFFFFFFFFFFFFFFFFFFFFFFFFFFFFFFFFFFFFFFFFFFFFFFFFFFFFFFFFFFFFFF
310
FFFFFFFFFFFFFFFFF000FFFFFFFFFFFFFFFFFFFFFFFFFFFFFFFFFFFFFFFFFFFF
310
FFFFFFFFFFFFFFFFFFFFFFFFFFFFFFFFFFFFFFFFFFFFFFFFFFFFFFFFFFFFFFFF
310
FFFFFFFFFFFFFFFFFFFFFFFFFFFFFFFFFFFFFFFFFFFFFFFFFFFFFFFFFFFFFFFF
310
F000FFFFFFFFFFFFFFFFFFFFFFFFFFFFFFFFFFFFFFFFFFFFFFFFFFFFFFFFFFFF
310
FFFFFFFFFFFFFFFFFFFFFFFFFFFFFFFFFFFFFFFFFFFFFFFFFFFFFFFFFFFFFFFF
310
FFFFFFFFFFFFFFFFFFFFFFFFFFFFFFFFFFFFFFFFFFFFFFFFF000FFFFFFFFFFFF
310
FFFFFFFFFFFFFFFFFFFFFFFFFFFFFFFFFFFFFFFFFFFFFFFFFFFFFFFFFFFFFFFF
310
FFFFFFFFFFFFFFFFFFFFFFFFFFFFFFFFFFFFFFFFFFFFFFFFFFFFFFFFFFFFFFFF
310
FFFFFFFFFFFFFFFFFFFFFFFFFFFFFFFFF000FFFFFFFFFFFFFFFFFFFFFFFFFFFF
310
FFFFFFFFFFFFFFFFFFFFFFFFFFFFFFFFFFFFFFFFFFFFFFFFFFFFFFFFFFFFFFFF
310
FFFFFFFFFFFFFFFFFFFFFFFFFFFFFFFFFFFFFFFFFFFFFFFFFFFFFFFFFFFFFFFF
310
FFFFFFFFFFFFFFFFF000FFFFFFFFFFFFFFFFFFFFFFFFFFFFFFFFFFFFFFFFFFFF
310
FFFFFFFFFFFFFFFFFFFFFFFFFFFFFFFFFFFFFFFFFFFFFFFFFFFFFFFFFFFFFFFF
310
FFFFFFFFFFFFFFFFFFFFFFFFFFFFFFFFFFFFFFFFFFFFFFFFFFFFFFFFFFFFFFFF
310
F000FFFFFFFFFFFFFFFFFFFFFFFFFFFFFFFFFFFFFFFFFFFFFFFFFFFFFFFFFFFF
310
FFFFFFFFFFFFFFFFFFFFFFFFFFFFFFFFFFFFFFFFFFFFFFFFFFFFFFFFFFFFFFFF
310
FFFFFFFFFFFFFFFFFFFFFFFFFFFFFFFFFFFFFFFFFFFFFFFFF000FFFFFFFFFFFF
310
FFFFFFFFFFFFFFFFFFFFFFFFFFFFFFFFFFFFFFFFFFFFFFFFFFFFFFFFFFFFFFFF
310
FFFFFFFFFFFFFFFFFFFFFFFFFFFFFFFFFFFFFFFFFFFFFFFFFFFFFFFFFFFFFFFF
310
FFFFFFFFFFFFFFFFFFFFFFFFFFFFFFFFF0000000000000000000000000000000
310
0000000000000000000000000000000000000000000000000000000000000000
310
0000000000000000000000000000000000000000000000000000000000000000
310
0000000000000000000000000000000000000000000000000000000000000000
310
0000000000000000000000000000000000000000000000000000000000000000
310
0000000000000000000000000000000000000000000000000000000000000000
310
0000000000000000000000000000000000000000000000000000000000000000
310
0000000000000000000000000000000000000000000000000000000000000000
310
0000000000000000000000000000000000000000000000000000000000000000
310
0000000000000000000000000000000000000000000000000000000000000000
310
0000000000000000000000000000000000000000000000000000000000000000
310
0000000000000000000000000000000000000000000000000000000000000000
310
0000000000000000000000000000000000000000000000000000000000000000
310
0000000000000000000000000000000000000000000000000000000000000000
310
0000000000000000000000000000000000000000000000000000000000000000
310
0000000000000000000000000000000000000000000000000000000000000000
  1
OLE
  0
ENDSEC
  0
SECTION
  2
OBJECTS
  0
DICTIONARY
  5
C
330
0
100
AcDbDictionary
281
     1
  3
ACAD_GROUP
350
D
  3
ACAD_LAYOUT
350
1A
  3
ACAD_MLINESTYLE
350
17
  3
ACAD_PLOTSETTINGS
350
19
  3
ACAD_PLOTSTYLENAME
350
E
  3
ACAD_SCALELIST
350
47
  0
DICTIONARY
  5
D
102
{ACAD_REACTORS
330
C
102
}
330
C
100
AcDbDictionary
281
     1
  0
DICTIONARY
  5
1A
102
{ACAD_REACTORS
330
C
102
}
330
C
100
AcDbDictionary
281
     1
  3
Layout1
350
1E
  3
Layout2
350
26
  3
Model
350
22
  0
DICTIONARY
  5
17
102
{ACAD_REACTORS
330
C
102
}
330
C
100
AcDbDictionary
281
     1
  3
Standard
350
18
  0
DICTIONARY
  5
19
102
{ACAD_REACTORS
330
C
102
}
330
C
100
AcDbDictionary
281
     1
  0
ACDBDICTIONARYWDFLT
  5
E
102
{ACAD_REACTORS
330
C
102
}
330
C
100
AcDbDictionary
281
     1
  3
Normal
350
F
100
AcDbDictionaryWithDefault
340
F
  0
DICTIONARY
  5
47
102
{ACAD_REACTORS
330
C
102
}
330
C
100
AcDbDictionary
281
     1
  3
A0
350
48
  3
A1
350
49
  3
A2
350
4A
  3
A3
350
4B
  3
A4
350
4C
  3
A5
350
4D
  3
A6
350
4E
  3
A7
350
4F
  3
A8
350
50
  3
A9
350
51
  3
B0
350
52
  3
B1
350
53
  3
B2
350
54
  3
B3
350
55
  3
B4
350
56
  3
B5
350
57
  3
B6
350
58
  3
B7
350
59
  3
B8
350
5A
  3
B9
350
5B
  3
C0
350
5C
  3
C1
350
5D
  3
C2
350
5E
  3
C3
350
5F
  3
C4
350
60
  3
C5
350
61
  3
C6
350
62
  3
C7
350
63
  3
C8
350
64
  3
C9
350
65
  3
D0
350
66
  3
D1
350
67
  3
D2
350
68
  0
LAYOUT
  5
1E
102
{ACAD_REACTORS
330
1A
102
}
330
1A
100
AcDbPlotSettings
  1

  2
none_device
  4

  6

 40
0.0
 41
0.0
 42
0.0
 43
0.0
 44
0.0
 45
0.0
 46
0.0
 47
0.0
 48
0.0
 49
0.0
140
0.0
141
0.0
142
1.0
143
1.0
 70
   688
 72
     1
 73
     0
 74
     5
  7

 75
    16
147
1.0
148
0.0
149
0.0
100
AcDbLayout
  1
Layout1
 70
     1
 71
     1
 10
0.0
 20
0.0
 11
420.0
 21
297.0
 12
0.0
 22
0.0
 32
0.0
 14
1.0000000000E+20
 24
1.0000000000E+20
 34
1.0000000000E+20
 15
-1.0000000000E+20
 25
-1.0000000000E+20
 35
-1.0000000000E+20
146
0.0
 13
0.0
 23
0.0
 33
0.0
 16
1.0
 26
0.0
 36
0.0
 17
0.0
 27
1.0
 37
0.0
 76
     0
330
1B
  0
LAYOUT
  5
26
102
{ACAD_REACTORS
330
1A
102
}
330
1A
100
AcDbPlotSettings
  1

  2
none_device
  4

  6

 40
0.0
 41
0.0
 42
0.0
 43
0.0
 44
0.0
 45
0.0
 46
0.0
 47
0.0
 48
0.0
 49
0.0
140
0.0
141
0.0
142
1.0
143
1.0
 70
   688
 72
     1
 73
     0
 74
     5
  7

 75
    16
147
1.0
148
0.0
149
0.0
100
AcDbLayout
  1
Layout2
 70
     1
 71
     2
 10
0.0
 20
0.0
 11
0.0
 21
0.0
 12
0.0
 22
0.0
 32
0.0
 14
0.0
 24
0.0
 34
0.0
 15
0.0
 25
0.0
 35
0.0
146
0.0
 13
0.0
 23
0.0
 33
0.0
 16
1.0
 26
0.0
 36
0.0
 17
0.0
 27
1.0
 37
0.0
 76
     0
330
23
  0
LAYOUT
  5
22
102
{ACAD_REACTORS
330
1A
102
}
330
1A
100
AcDbPlotSettings
  1

  2
none_device
  4
Letter_(8.50_x_11.00_Inches)
  6

 40
6.35
 41
6.35
 42
6.35000508
 43
6.35000508
 44
215.9
 45
279.4
 46
0.0
 47
0.0
 48
0.0
 49
0.0
140
0.0
141
0.0
142
1.0
143
1.0
 70
  1712
 72
     1
 73
     0
 74
     0
  7

 75
     0
147
1.0
148
0.0
149
0.0
100
AcDbLayout
  1
Model
 70
     1
 71
     0
 10
0.0
 20
0.0
 11
297.0
 21
210.0
 12
0.0
 22
0.0
 32
0.0
 14
0.0
 24
0.0
 34
0.0
 15
297.0
 25
210.0
 35
0.0
146
0.0
 13
0.0
 23
0.0
 33
0.0
 16
1.0
 26
0.0
 36
0.0
 17
0.0
 27
1.0
 37
0.0
 76
     0
330
1F
331
29
  0
MLINESTYLE
  5
18
102
{ACAD_REACTORS
330
17
102
}
330
17
100
AcDbMlineStyle
  2
Standard
 70
     0
  3

 62
   256
 51
90.0
 52
90.0
 71
     2
 49
0.5
 62
   256
  6
BYLAYER
 49
-0.5
 62
   256
  6
BYLAYER
  0
ACDBPLACEHOLDER
  5
F
102
{ACAD_REACTORS
330
E
102
}
330
E
  0
SCALE
  5
48
102
{ACAD_REACTORS
330
47
102
}
330
47
100
AcDbScale
 70
     0
300
1:1
140
1.0
141
1.0
290
     1
  0
SCALE
  5
49
102
{ACAD_REACTORS
330
47
102
}
330
47
100
AcDbScale
 70
     0
300
1:2
140
1.0
141
2.0
290
     0
  0
SCALE
  5
4A
102
{ACAD_REACTORS
330
47
102
}
330
47
100
AcDbScale
 70
     0
300
1:4
140
1.0
141
4.0
290
     0
  0
SCALE
  5
4B
102
{ACAD_REACTORS
330
47
102
}
330
47
100
AcDbScale
 70
     0
300
1:5
140
1.0
141
5.0
290
     0
  0
SCALE
  5
4C
102
{ACAD_REACTORS
330
47
102
}
330
47
100
AcDbScale
 70
     0
300
1:8
140
1.0
141
8.0
290
     0
  0
SCALE
  5
4D
102
{ACAD_REACTORS
330
47
102
}
330
47
100
AcDbScale
 70
     0
300
1:10
140
1.0
141
10.0
290
     0
  0
SCALE
  5
4E
102
{ACAD_REACTORS
330
47
102
}
330
47
100
AcDbScale
 70
     0
300
1:16
140
1.0
141
16.0
290
     0
  0
SCALE
  5
4F
102
{ACAD_REACTORS
330
47
102
}
330
47
100
AcDbScale
 70
     0
300
1:20
140
1.0
141
20.0
290
     0
  0
SCALE
  5
50
102
{ACAD_REACTORS
330
47
102
}
330
47
100
AcDbScale
 70
     0
300
1:30
140
1.0
141
30.0
290
     0
  0
SCALE
  5
51
102
{ACAD_REACTORS
330
47
102
}
330
47
100
AcDbScale
 70
     0
300
1:40
140
1.0
141
40.0
290
     0
  0
SCALE
  5
52
102
{ACAD_REACTORS
330
47
102
}
330
47
100
AcDbScale
 70
     0
300
1:50
140
1.0
141
50.0
290
     0
  0
SCALE
  5
53
102
{ACAD_REACTORS
330
47
102
}
330
47
100
AcDbScale
 70
     0
300
1:100
140
1.0
141
100.0
290
     0
  0
SCALE
  5
54
102
{ACAD_REACTORS
330
47
102
}
330
47
100
AcDbScale
 70
     0
300
2:1
140
2.0
141
1.0
290
     0
  0
SCALE
  5
55
102
{ACAD_REACTORS
330
47
102
}
330
47
100
AcDbScale
 70
     0
300
4:1
140
4.0
141
1.0
290
     0
  0
SCALE
  5
56
102
{ACAD_REACTORS
330
47
102
}
330
47
100
AcDbScale
 70
     0
300
8:1
140
8.0
141
1.0
290
     0
  0
SCALE
  5
57
102
{ACAD_REACTORS
330
47
102
}
330
47
100
AcDbScale
 70
     0
300
10:1
140
10.0
141
1.0
290
     0
  0
SCALE
  5
58
102
{ACAD_REACTORS
330
47
102
}
330
47
100
AcDbScale
 70
     0
300
100:1
140
100.0
141
1.0
290
     0
  0
SCALE
  5
59
102
{ACAD_REACTORS
330
47
102
}
330
47
100
AcDbScale
 70
     0
300
1/128" = 1'-0"
140
0.0078125
141
12.0
290
     0
  0
SCALE
  5
5A
102
{ACAD_REACTORS
330
47
102
}
330
47
100
AcDbScale
 70
     0
300
1/64" = 1'-0"
140
0.015625
141
12.0
290
     0
  0
SCALE
  5
5B
102
{ACAD_REACTORS
330
47
102
}
330
47
100
AcDbScale
 70
     0
300
1/32" = 1'-0"
140
0.03125
141
12.0
290
     0
  0
SCALE
  5
5C
102
{ACAD_REACTORS
330
47
102
}
330
47
100
AcDbScale
 70
     0
300
1/16" = 1'-0"
140
0.0625
141
12.0
290
     0
  0
SCALE
  5
5D
102
{ACAD_REACTORS
330
47
102
}
330
47
100
AcDbScale
 70
     0
300
3/32" = 1'-0"
140
0.09375
141
12.0
290
     0
  0
SCALE
  5
5E
102
{ACAD_REACTORS
330
47
102
}
330
47
100
AcDbScale
 70
     0
300
1/8" = 1'-0"
140
0.125
141
12.0
290
     0
  0
SCALE
  5
5F
102
{ACAD_REACTORS
330
47
102
}
330
47
100
AcDbScale
 70
     0
300
3/16" = 1'-0"
140
0.1875
141
12.0
290
     0
  0
SCALE
  5
60
102
{ACAD_REACTORS
330
47
102
}
330
47
100
AcDbScale
 70
     0
300
1/4" = 1'-0"
140
0.25
141
12.0
290
     0
  0
SCALE
  5
61
102
{ACAD_REACTORS
330
47
102
}
330
47
100
AcDbScale
 70
     0
300
3/8" = 1'-0"
140
0.375
141
12.0
290
     0
  0
SCALE
  5
62
102
{ACAD_REACTORS
330
47
102
}
330
47
100
AcDbScale
 70
     0
300
1/2" = 1'-0"
140
0.5
141
12.0
290
     0
  0
SCALE
  5
63
102
{ACAD_REACTORS
330
47
102
}
330
47
100
AcDbScale
 70
     0
300
3/4" = 1'-0"
140
0.75
141
12.0
290
     0
  0
SCALE
  5
64
102
{ACAD_REACTORS
330
47
102
}
330
47
100
AcDbScale
 70
     0
300
1" = 1'-0"
140
1.0
141
12.0
290
     0
  0
SCALE
  5
65
102
{ACAD_REACTORS
330
47
102
}
330
47
100
AcDbScale
 70
     0
300
1-1/2" = 1'-0"
140
1.5
141
12.0
290
     0
  0
SCALE
  5
66
102
{ACAD_REACTORS
330
47
102
}
330
47
100
AcDbScale
 70
     0
300
3" = 1'-0"
140
3.0
141
12.0
290
     0
  0
SCALE
  5
67
102
{ACAD_REACTORS
330
47
102
}
330
47
100
AcDbScale
 70
     0
300
6" = 1'-0"
140
6.0
141
12.0
290
     0
  0
SCALE
  5
68
102
{ACAD_REACTORS
330
47
102
}
330
47
100
AcDbScale
 70
     0
300
1'-0" = 1'-0"
140
12.0
141
12.0
290
     0
  0
ENDSEC
  0
EOF
