  0
SECTION
  2
HEADER
  9
$ACADVER
  1
AC1015
  9
$ACADMAINTVER
 70
     6
  9
$DWGCODEPAGE
  3
ANSI_1252
  9
$INSBASE
 10
0.0
 20
0.0
 30
0.0
  9
$EXTMIN
 10
0.0
 20
0.0
 30
0.0
  9
$EXTMAX
 10
297.0
 20
210.0
 30
0.0
  9
$LIMMIN
 10
0.0
 20
0.0
  9
$LIMMAX
 10
297.0
 20
210.0
  9
$ORTHOMODE
 70
     0
  9
$REGENMODE
 70
     1
  9
$FILLMODE
 70
     1
  9
$QTEXTMODE
 70
     0
  9
$MIRRTEXT
 70
     1
  9
$LTSCALE
 40
1.0
  9
$ATTMODE
 70
     1
  9
$TEXTSIZE
 40
2.0
  9
$TRACEWID
 40
1.0
  9
$TEXTSTYLE
  7
Standard
  9
$CLAYER
  8
0
  9
$CELTYPE
  6
ByLayer
  9
$CECOLOR
 62
   256
  9
$CELTSCALE
 40
1.0
  9
$DISPSILH
 70
     0
  9
$DIMSCALE
 40
1.0
  9
$DIMASZ
 40
3.0
  9
$DIMEXO
 40
0.0
  9
$DIMDLI
 40
3.75
  9
$DIMRND
 40
0.0
  9
$DIMDLE
 40
0.0
  9
$DIMEXE
 40
1.0
  9
$DIMTP
 40
0.0
  9
$DIMTM
 40
0.0
  9
$DIMTXT
 40
2.0
  9
$DIMCEN
 40
2.5
  9
$DIMTSZ
 40
0.0
  9
$DIMTOL
 70
     0
  9
$DIMLIM
 70
     0
  9
$DIMTIH
 70
     1
  9
$DIMTOH
 70
     1
  9
$DIMSE1
 70
     0
  9
$DIMSE2
 70
     0
  9
$DIMTAD
 70
     1
  9
$DIMZIN
 70
     0
  9
$DIMBLK
  1

  9
$DIMASO
 70
     1
  9
$DIMSHO
 70
     1
  9
$DIMPOST
  1

  9
$DIMAPOST
  1

  9
$DIMALT
 70
     0
  9
$DIMALTD
 70
     3
  9
$DIMALTF
 40
0.0393700787
  9
$DIMLFAC
 40
1.0
  9
$DIMTOFL
 70
     1
  9
$DIMTVP
 40
0.0
  9
$DIMTIX
 70
     0
  9
$DIMSOXD
 70
     0
  9
$DIMSAH
 70
     0
  9
$DIMBLK1
  1

  9
$DIMBLK2
  1

  9
$DIMSTYLE
  2
ISO-25
  9
$DIMCLRD
 70
     0
  9
$DIMCLRE
 70
     0
  9
$DIMCLRT
 70
     0
  9
$DIMTFAC
 40
1.0
  9
$DIMGAP
 40
1.524
  9
$DIMJUST
 70
     0
  9
$DIMSD1
 70
     0
  9
$DIMSD2
 70
     0
  9
$DIMTOLJ
 70
     0
  9
$DIMTZIN
 70
     0
  9
$DIMALTZ
 70
     0
  9
$DIMALTTZ
 70
     0
  9
$DIMUPT
 70
     0
  9
$DIMDEC
 70
     2
  9
$DIMTDEC
 70
     3
  9
$DIMALTU
 70
     2
  9
$DIMALTTD
 70
     3
  9
$DIMTXSTY
  7
Standard
  9
$DIMAUNIT
 70
     0
  9
$DIMADEC
 70
     2
  9
$DIMALTRND
 40
0.0
  9
$DIMAZIN
 70
     0
  9
$DIMDSEP
 70
    44
  9
$DIMATFIT
 70
     3
  9
$DIMFRAC
 70
     0
  9
$DIMLDRBLK
  1

  9
$DIMLUNIT
 70
     2
  9
$DIMLWD
 70
    -2
  9
$DIMLWE
 70
    -2
  9
$DIMTMOVE
 70
     0
  9
$LUNITS
 70
     2
  9
$LUPREC
 70
     2
  9
$SKETCHINC
 40
1.0
  9
$FILLETRAD
 40
10.0
  9
$AUNITS
 70
     0
  9
$AUPREC
 70
     2
  9
$MENU
  1
.
  9
$ELEVATION
 40
0.0
  9
$PELEVATION
 40
0.0
  9
$THICKNESS
 40
0.0
  9
$LIMCHECK
 70
     0
  9
$CHAMFERA
 40
0.0
  9
$CHAMFERB
 40
0.0
  9
$CHAMFERC
 40
0.0
  9
$CHAMFERD
 40
0.0
  9
$SKPOLY
 70
     0
  9
$TDCREATE
 40
2457669.508953438
  9
$TDUCREATE
 40
2457669.425620104
  9
$TDUPDATE
 40
2457669.508954583
  9
$TDUUPDATE
 40
2457669.42562125
  9
$TDINDWG
 40
0.0000000116
  9
$TDUSRTIMER
 40
0.0000000116
  9
$USRTIMER
 70
     1
  9
$ANGBASE
 50
0.0
  9
$ANGDIR
 70
     0
  9
$PDMODE
 70
     0
  9
$PDSIZE
 40
-1.0
  9
$PLINEWID
 40
0.0
  9
$SPLFRAME
 70
     0
  9
$SPLINETYPE
 70
     6
  9
$SPLINESEGS
 70
     8
  9
$HANDSEED
  5
1E5
  9
$SURFTAB1
 70
     6
  9
$SURFTAB2
 70
     6
  9
$SURFTYPE
 70
     6
  9
$SURFU
 70
     6
  9
$SURFV
 70
     6
  9
$UCSBASE
  2

  9
$UCSNAME
  2

  9
$UCSORG
 10
0.0
 20
0.0
 30
0.0
  9
$UCSXDIR
 10
1.0
 20
0.0
 30
0.0
  9
$UCSYDIR
 10
0.0
 20
1.0
 30
0.0
  9
$UCSORTHOREF
  2

  9
$UCSORTHOVIEW
 70
     0
  9
$UCSORGTOP
 10
0.0
 20
0.0
 30
0.0
  9
$UCSORGBOTTOM
 10
0.0
 20
0.0
 30
0.0
  9
$UCSORGLEFT
 10
0.0
 20
0.0
 30
0.0
  9
$UCSORGRIGHT
 10
0.0
 20
0.0
 30
0.0
  9
$UCSORGFRONT
 10
0.0
 20
0.0
 30
0.0
  9
$UCSORGBACK
 10
0.0
 20
0.0
 30
0.0
  9
$PUCSBASE
  2

  9
$PUCSNAME
  2

  9
$PUCSORG
 10
0.0
 20
0.0
 30
0.0
  9
$PUCSXDIR
 10
1.0
 20
0.0
 30
0.0
  9
$PUCSYDIR
 10
0.0
 20
1.0
 30
0.0
  9
$PUCSORTHOREF
  2

  9
$PUCSORTHOVIEW
 70
     0
  9
$PUCSORGTOP
 10
0.0
 20
0.0
 30
0.0
  9
$PUCSORGBOTTOM
 10
0.0
 20
0.0
 30
0.0
  9
$PUCSORGLEFT
 10
0.0
 20
0.0
 30
0.0
  9
$PUCSORGRIGHT
 10
0.0
 20
0.0
 30
0.0
  9
$PUCSORGFRONT
 10
0.0
 20
0.0
 30
0.0
  9
$PUCSORGBACK
 10
0.0
 20
0.0
 30
0.0
  9
$USERI1
 70
     0
  9
$USERI2
 70
     0
  9
$USERI3
 70
     0
  9
$USERI4
 70
     0
  9
$USERI5
 70
     0
  9
$USERR1
 40
0.0
  9
$USERR2
 40
0.0
  9
$USERR3
 40
0.0
  9
$USERR4
 40
0.0
  9
$USERR5
 40
0.0
  9
$WORLDVIEW
 70
     1
  9
$SHADEDGE
 70
     3
  9
$SHADEDIF
 70
    70
  9
$TILEMODE
 70
     1
  9
$MAXACTVP
 70
    64
  9
$PINSBASE
 10
0.0
 20
0.0
 30
0.0
  9
$PLIMCHECK
 70
     0
  9
$PEXTMIN
 10
1.0000000000E+20
 20
1.0000000000E+20
 30
1.0000000000E+20
  9
$PEXTMAX
 10
-1.0000000000E+20
 20
-1.0000000000E+20
 30
-1.0000000000E+20
  9
$PLIMMIN
 10
0.0
 20
0.0
  9
$PLIMMAX
 10
420.0
 20
297.0
  9
$UNITMODE
 70
     0
  9
$VISRETAIN
 70
     1
  9
$PLINEGEN
 70
     0
  9
$PSLTSCALE
 70
     1
  9
$TREEDEPTH
 70
  3020
  9
$CMLSTYLE
  2
Standard
  9
$CMLJUST
 70
     0
  9
$CMLSCALE
 40
20.0
  9
$PROXYGRAPHICS
 70
     1
  9
$MEASUREMENT
 70
     1
  9
$CELWEIGHT
370
    -1
  9
$ENDCAPS
280
     0
  9
$JOINSTYLE
280
     0
  9
$LWDISPLAY
290
     1
  9
$INSUNITS
 70
     4
  9
$HYPERLINKBASE
  1

  9
$STYLESHEET
  1

  9
$XEDIT
290
     1
  9
$CEPSNTYPE
380
     0
  9
$PSTYLEMODE
290
     1
  9
$FINGERPRINTGUID
  2
{42D7B1FF-A5CA-4B27-A4AD-BCB1B942F6E6}
  9
$VERSIONGUID
  2
{FAEB1C32-E019-11D5-929B-00C0DF256EC4}
  9
$EXTNAMES
290
     1
  9
$PSVPSCALE
 40
0.0
  9
$OLESTARTUP
290
     0
  0
ENDSEC
  0
SECTION
  2
CLASSES
  0
CLASS
  1
ACDBDICTIONARYWDFLT
  2
AcDbDictionaryWithDefault
  3
ObjectDBX Classes
 90
        0
280
     0
281
     0
  0
CLASS
  1
VISUALSTYLE
  2
AcDbVisualStyle
  3
ObjectDBX Classes
 90
     4095
280
     0
281
     0
  0
CLASS
  1
MATERIAL
  2
AcDbMaterial
  3
ObjectDBX Classes
 90
     1153
280
     0
281
     0
  0
CLASS
  1
SCALE
  2
AcDbScale
  3
ObjectDBX Classes
 90
     1153
280
     0
281
     0
  0
CLASS
  1
TABLESTYLE
  2
AcDbTableStyle
  3
ObjectDBX Classes
 90
     4095
280
     0
281
     0
  0
CLASS
  1
MLEADERSTYLE
  2
AcDbMLeaderStyle
  3
ACDB_MLEADERSTYLE_CLASS
 90
     4095
280
     0
281
     0
  0
CLASS
  1
SUN
  2
AcDbSun
  3
SCENEOE
 90
     1153
280
     0
281
     0
  0
CLASS
  1
ACDBPLACEHOLDER
  2
AcDbPlaceHolder
  3
ObjectDBX Classes
 90
        0
280
     0
281
     0
  0
CLASS
  1
LAYOUT
  2
AcDbLayout
  3
ObjectDBX Classes
 90
        0
280
     0
281
     0
  0
ENDSEC
  0
SECTION
  2
TABLES
  0
TABLE
  2
VPORT
  5
8
330
0
100
AcDbSymbolTable
 70
     1
  0
VPORT
  5
29
330
8
100
AcDbSymbolTableRecord
100
AcDbViewportTableRecord
  2
*Active
 70
     0
 10
0.0
 20
0.0
 11
1.0
 21
1.0
 12
148.5
 22
105.0
 13
0.0
 23
0.0
 14
10.0
 24
10.0
 15
10.0
 25
10.0
 16
0.0
 26
0.0
 36
1.0
 17
0.0
 27
0.0
 37
0.0
 40
210.0
 41
1.4142857143
 42
50.0
 43
0.0
 44
0.0
 50
0.0
 51
0.0
 71
     0
 72
  2000
 73
     1
 74
     3
 75
     0
 76
     0
 77
     0
 78
     0
281
     0
 65
     1
110
0.0
120
0.0
130
0.0
111
1.0
121
0.0
131
0.0
112
0.0
122
1.0
132
0.0
 79
     0
146
0.0
  0
ENDTAB
  0
TABLE
  2
LTYPE
  5
5
330
0
100
AcDbSymbolTable
 70
     6
  0
LTYPE
  5
14
330
5
100
AcDbSymbolTableRecord
100
AcDbLinetypeTableRecord
  2
ByBlock
 70
     0
  3

 72
    65
 73
     0
 40
0.0
  0
LTYPE
  5
15
330
5
100
AcDbSymbolTableRecord
100
AcDbLinetypeTableRecord
  2
ByLayer
 70
     0
  3

 72
    65
 73
     0
 40
0.0
  0
LTYPE
  5
16
330
5
100
AcDbSymbolTableRecord
100
AcDbLinetypeTableRecord
  2
Continuous
 70
     0
  3
Solid line
 72
    65
 73
     0
 40
0.0
  0
LTYPE
  5
6E
330
5
100
AcDbSymbolTableRecord
100
AcDbLinetypeTableRecord
  2
HIDDEN
 70
     0
  3
Hidden __ __ __ __ __ __ __ __ __ __ __ __ __ __
 72
    65
 73
     2
 40
1.905
 49
1.27
 74
     0
 49
-0.635
 74
     0
  0
LTYPE
  5
6F
330
5
100
AcDbSymbolTableRecord
100
AcDbLinetypeTableRecord
  2
PHANTOM
 70
     0
  3
Phantom ______  __  __  ______  __  __  ______
 72
    65
 73
     6
 40
12.7
 49
6.35
 74
     0
 49
-1.27
 74
     0
 49
1.27
 74
     0
 49
-1.27
 74
     0
 49
1.27
 74
     0
 49
-1.27
 74
     0
  0
LTYPE
  5
70
330
5
100
AcDbSymbolTableRecord
100
AcDbLinetypeTableRecord
  2
CENTER
 70
     0
  3
Center ____ _ ____ _ ____ _ ____ _ ____ _ ____
 72
    65
 73
     4
 40
10.16
 49
6.35
 74
     0
 49
-1.27
 74
     0
 49
1.27
 74
     0
 49
-1.27
 74
     0
  0
LTYPE
  5
71
330
5
100
AcDbSymbolTableRecord
100
AcDbLinetypeTableRecord
  2
CENTERX2
 70
     0
  3
Center (2x) ________  __  ________  __  _____
 72
    65
 73
     4
 40
20.32
 49
12.7
 74
     0
 49
-2.54
 74
     0
 49
2.54
 74
     0
 49
-2.54
 74
     0
  0
LTYPE
  5
72
330
5
100
AcDbSymbolTableRecord
100
AcDbLinetypeTableRecord
  2
DOT2
 70
     0
  3
Dot (.5x) ........................................
 72
    65
 73
     2
 40
0.635
 49
0.0
 74
     0
 49
-0.635
 74
     0
  0
ENDTAB
  0
TABLE
  2
LAYER
  5
2
330
0
100
AcDbSymbolTable
 70
     5
  0
LAYER
  5
10
330
2
100
AcDbSymbolTableRecord
100
AcDbLayerTableRecord
  2
0
 70
     0
 62
     7
  6
Continuous
370
    -3
390
F
  0
LAYER
  5
73
330
2
100
AcDbSymbolTableRecord
100
AcDbLayerTableRecord
  2
FORMAT
 70
     0
 62
     7
  6
Continuous
370
    -3
390
F
  0
LAYER
  5
74
330
2
100
AcDbSymbolTableRecord
100
AcDbLayerTableRecord
  2
VERMASSUNG
 70
     0
 62
     7
  6
Continuous
370
    -3
390
F
  0
LAYER
  5
75
330
2
100
AcDbSymbolTableRecord
100
AcDbLayerTableRecord
  2
KOPF_DÜNN
 70
     0
 62
     7
  6
Continuous
370
    -3
390
F
  0
LAYER
  5
76
330
2
100
AcDbSymbolTableRecord
100
AcDbLayerTableRecord
  2
KOPF_DICK
 70
     0
 62
     7
  6
Continuous
370
    15
390
F
  0
ENDTAB
  0
TABLE
  2
STYLE
  5
3
330
0
100
AcDbSymbolTable
 70
     3
  0
STYLE
  5
11
330
3
100
AcDbSymbolTableRecord
100
AcDbTextStyleTableRecord
  2
Standard
 70
     0
 40
0.0
 41
1.0
 50
0.0
 71
     0
 42
2.0
  3
txt
  4

  0
STYLE
  5
77
330
3
100
AcDbSymbolTableRecord
100
AcDbTextStyleTableRecord
  2
SLDTEXTSTYLE0
 70
     0
 40
0.0
 41
0.7
 50
0.0
 71
     0
 42
2.0
  3
TXT
  4

  0
STYLE
  5
7B
330
3
100
AcDbSymbolTableRecord
100
AcDbTextStyleTableRecord
  2
SLDTEXTSTYLE1
 70
     0
 40
0.0
 41
0.6538461538
 50
0.0
 71
     0
 42
2.0
  3
TXT
  4

  0
ENDTAB
  0
TABLE
  2
VIEW
  5
6
330
0
100
AcDbSymbolTable
 70
     0
  0
ENDTAB
  0
TABLE
  2
UCS
  5
7
330
0
100
AcDbSymbolTable
 70
     0
  0
ENDTAB
  0
TABLE
  2
APPID
  5
9
330
0
100
AcDbSymbolTable
 70
     1
  0
APPID
  5
12
330
9
100
AcDbSymbolTableRecord
100
AcDbRegAppTableRecord
  2
ACAD
 70
     0
  0
ENDTAB
  0
TABLE
  2
DIMSTYLE
  5
A
330
0
100
AcDbSymbolTable
 70
     2
100
AcDbDimStyleTable
  0
DIMSTYLE
105
27
330
A
100
AcDbSymbolTableRecord
100
AcDbDimStyleTableRecord
  2
ISO-25
 70
     0
 41
2.5
 42
0.625
 43
3.75
 44
1.25
 73
     0
 74
     0
 77
     1
 78
     8
140
2.5
141
2.5
143
0.0393700787
147
0.625
171
     3
172
     1
178
     0
271
     2
272
     2
274
     3
278
    44
283
     0
284
     8
340
11
  0
DIMSTYLE
105
11C
102
{ACAD_REACTORS
330
11B
330
127
330
133
330
13F
330
149
330
155
102
}
330
A
100
AcDbSymbolTableRecord
100
AcDbDimStyleTableRecord
  2
SLDDIMSTYLE0
 70
     0
 41
3.0
 44
0.0
 45
0.000000001
 73
     0
 74
     0
 77
     1
 78
    12
 79
     3
140
2.0
147
0.5
173
     1
178
     0
271
     2
272
     3
276
     2
284
    12
340
77
  0
ENDTAB
  0
TABLE
  2
BLOCK_RECORD
  5
1
330
0
100
AcDbSymbolTable
 70
     7
  0
BLOCK_RECORD
  5
1F
330
1
100
AcDbSymbolTableRecord
100
AcDbBlockTableRecord
  2
*Model_Space
340
22
  0
BLOCK_RECORD
  5
1B
330
1
100
AcDbSymbolTableRecord
100
AcDbBlockTableRecord
  2
*Paper_Space
340
1E
  0
BLOCK_RECORD
  5
23
330
1
100
AcDbSymbolTableRecord
100
AcDbBlockTableRecord
  2
*Paper_Space0
340
26
  0
BLOCK_RECORD
  5
11D
330
1
100
AcDbSymbolTableRecord
100
AcDbBlockTableRecord
  2
_D
340
0
  0
BLOCK_RECORD
  5
128
330
1
100
AcDbSymbolTableRecord
100
AcDbBlockTableRecord
  2
_D_1
340
0
  0
BLOCK_RECORD
  5
134
330
1
100
AcDbSymbolTableRecord
100
AcDbBlockTableRecord
  2
_D_2
340
0
  0
BLOCK_RECORD
  5
140
330
1
100
AcDbSymbolTableRecord
100
AcDbBlockTableRecord
  2
_D_3
340
0
  0
BLOCK_RECORD
  5
14A
330
1
100
AcDbSymbolTableRecord
100
AcDbBlockTableRecord
  2
_D_4
340
0
  0
BLOCK_RECORD
  5
156
330
1
100
AcDbSymbolTableRecord
100
AcDbBlockTableRecord
  2
_D_5
340
0
  0
ENDTAB
  0
ENDSEC
  0
SECTION
  2
BLOCKS
  0
BLOCK
  5
20
330
1F
100
AcDbEntity
  8
0
100
AcDbBlockBegin
  2
*Model_Space
 70
     0
 10
0.0
 20
0.0
 30
0.0
  3
*Model_Space
  1

  0
ENDBLK
  5
21
330
1F
100
AcDbEntity
  8
0
100
AcDbBlockEnd
  0
BLOCK
  5
1C
330
1B
100
AcDbEntity
 67
     1
  8
0
100
AcDbBlockBegin
  2
*Paper_Space
 70
     0
 10
0.0
 20
0.0
 30
0.0
  3
*Paper_Space
  1

  0
ENDBLK
  5
1D
330
1B
100
AcDbEntity
 67
     1
  8
0
100
AcDbBlockEnd
  0
BLOCK
  5
24
330
23
100
AcDbEntity
  8
0
100
AcDbBlockBegin
  2
*Paper_Space0
 70
     0
 10
0.0
 20
0.0
 30
0.0
  3
*Paper_Space0
  1

  0
ENDBLK
  5
25
330
23
100
AcDbEntity
  8
0
100
AcDbBlockEnd
  0
BLOCK
  5
11E
330
11D
100
AcDbEntity
  8
0
100
AcDbBlockBegin
  2
_D
 70
     0
 10
0.0
 20
0.0
 30
0.0
  3
_D
  1

  0
SOLID
  5
120
330
11D
100
AcDbEntity
  8
VERMASSUNG
100
AcDbTrace
 10
212.8097093679
 20
118.113503568
 30
0.0
 11
212.3597093679
 21
115.113503568
 31
0.0
 12
213.2597093679
 22
115.113503568
 32
0.0
 13
213.2597093679
 23
115.113503568
 33
0.0
  0
SOLID
  5
121
330
11D
100
AcDbEntity
  8
VERMASSUNG
100
AcDbTrace
 10
212.8097093679
 20
100.113503568
 30
0.0
 11
213.2597093679
 21
103.113503568
 31
0.0
 12
212.3597093679
 22
103.113503568
 32
0.0
 13
212.3597093679
 23
103.113503568
 33
0.0
  0
LINE
  5
122
330
11D
100
AcDbEntity
  8
VERMASSUNG
100
AcDbLine
 10
195.8733176827
 20
118.113503568
 30
0.0
 11
213.8097093679
 21
118.113503568
 31
0.0
  0
LINE
  5
123
330
11D
100
AcDbEntity
  8
VERMASSUNG
100
AcDbLine
 10
195.8733176827
 20
100.113503568
 30
0.0
 11
213.8097093679
 21
100.113503568
 31
0.0
  0
LINE
  5
124
330
11D
100
AcDbEntity
  8
VERMASSUNG
100
AcDbLine
 10
212.8097093679
 20
118.113503568
 30
0.0
 11
212.8097093679
 21
100.113503568
 31
0.0
  0
MTEXT
  5
125
330
11D
100
AcDbEntity
  8
VERMASSUNG
100
AcDbMText
 10
210.2315738302
 20
106.1100710242
 30
0.0
 40
2.0
 41
0.0
 71
     1
 72
     1
  1
%%c
  7
SLDTEXTSTYLE0
 11
-7.044195017643634E-15
 21
1.0
 31
0.0
 73
     1
 44
1.0
  0
MTEXT
  5
126
330
11D
100
AcDbEntity
  8
VERMASSUNG
100
AcDbMText
 10
210.2315737719
 20
109.7190432178
 30
0.0
 40
2.0
 41
0.0
 71
     1
 72
     1
  1
18
  7
SLDTEXTSTYLE0
 11
-7.044195017643634E-15
 21
1.0
 31
0.0
 73
     1
 44
1.0
  0
ENDBLK
  5
11F
330
11D
100
AcDbEntity
  8
0
100
AcDbBlockEnd
  0
BLOCK
  5
129
330
128
100
AcDbEntity
  8
0
100
AcDbBlockBegin
  2
_D_1
 70
     0
 10
0.0
 20
0.0
 30
0.0
  3
_D_1
  1

  0
SOLID
  5
12B
330
128
100
AcDbEntity
  8
VERMASSUNG
100
AcDbTrace
 10
218.9097093679
 20
125.113503568
 30
0.0
 11
218.4597093679
 21
122.113503568
 31
0.0
 12
219.3597093679
 22
122.113503568
 32
0.0
 13
219.3597093679
 23
122.113503568
 33
0.0
  0
SOLID
  5
12C
330
128
100
AcDbEntity
  8
VERMASSUNG
100
AcDbTrace
 10
218.9097093679
 20
93.113503568
 30
0.0
 11
219.3597093679
 21
96.113503568
 31
0.0
 12
218.4597093679
 22
96.113503568
 32
0.0
 13
218.4597093679
 23
96.113503568
 33
0.0
  0
LINE
  5
12D
330
128
100
AcDbEntity
  8
VERMASSUNG
100
AcDbLine
 10
204.4733176827
 20
125.113503568
 30
0.0
 11
219.9097093679
 21
125.113503568
 31
0.0
  0
LINE
  5
12E
330
128
100
AcDbEntity
  8
VERMASSUNG
100
AcDbLine
 10
204.4733176827
 20
93.113503568
 30
0.0
 11
219.9097093679
 21
93.113503568
 31
0.0
  0
LINE
  5
12F
330
128
100
AcDbEntity
  8
VERMASSUNG
100
AcDbLine
 10
218.9097093679
 20
125.113503568
 30
0.0
 11
218.9097093679
 21
93.113503568
 31
0.0
  0
MTEXT
  5
130
330
128
100
AcDbEntity
  8
VERMASSUNG
100
AcDbMText
 10
216.1315741117
 20
103.0095756586
 30
0.0
 40
2.0
 41
0.0
 71
     1
 72
     1
  1
ST3
  7
SLDTEXTSTYLE0
 11
-7.044195017643634E-15
 21
1.0
 31
0.0
 73
     1
 44
1.0
  0
MTEXT
  5
131
330
128
100
AcDbEntity
  8
VERMASSUNG
100
AcDbMText
 10
216.331574063
 20
108.8095755849
 30
0.0
 40
2.0
 41
0.0
 71
     1
 72
     1
  1
%%c
  7
SLDTEXTSTYLE0
 11
-7.044195017643634E-15
 21
1.0
 31
0.0
 73
     1
 44
1.0
  0
MTEXT
  5
132
330
128
100
AcDbEntity
  8
VERMASSUNG
100
AcDbMText
 10
216.3315737719
 20
112.4180514568
 30
0.0
 40
2.0
 41
0.0
 71
     1
 72
     1
  1
32
  7
SLDTEXTSTYLE0
 11
-7.044195017643634E-15
 21
1.0
 31
0.0
 73
     1
 44
1.0
  0
ENDBLK
  5
12A
330
128
100
AcDbEntity
  8
0
100
AcDbBlockEnd
  0
BLOCK
  5
135
330
134
100
AcDbEntity
  8
0
100
AcDbBlockBegin
  2
_D_2
 70
     0
 10
0.0
 20
0.0
 30
0.0
  3
_D_2
  1

  0
ARC
  5
137
330
134
100
AcDbEntity
  8
VERMASSUNG
100
AcDbCircle
 10
197.2855571266
 20
146.7864625191
 30
0.0
 40
4.247059938537386
100
AcDbArc
 50
153.4349488229
 51
206.5650511771
  0
ARC
  5
138
330
134
100
AcDbEntity
  8
VERMASSUNG
100
AcDbCircle
 10
195.2610782388
 20
146.7864625191
 30
0.0
 40
4.247059938537386
100
AcDbArc
 50
333.4349488229
 51
26.5650511771
  0
SOLID
  5
139
330
134
100
AcDbEntity
  8
VERMASSUNG
100
AcDbTrace
 10
187.7733176827
 20
144.8871195737
 30
0.0
 11
190.7733176827
 21
144.4371195737
 31
0.0
 12
190.7733176827
 22
145.3371195737
 32
0.0
 13
190.7733176827
 23
145.3371195737
 33
0.0
  0
SOLID
  5
13A
330
134
100
AcDbEntity
  8
VERMASSUNG
100
AcDbTrace
 10
204.7733176827
 20
144.8871195737
 30
0.0
 11
201.7733176827
 21
145.3371195737
 31
0.0
 12
201.7733176827
 22
144.4371195737
 32
0.0
 13
201.7733176827
 23
144.4371195737
 33
0.0
  0
LINE
  5
13B
330
134
100
AcDbEntity
  8
VERMASSUNG
100
AcDbLine
 10
187.7733176827
 20
139.613503568
 30
0.0
 11
187.7733176827
 21
145.8871195737
 31
0.0
  0
LINE
  5
13C
330
134
100
AcDbEntity
  8
VERMASSUNG
100
AcDbLine
 10
204.7733176827
 20
124.813503568
 30
0.0
 11
204.7733176827
 21
145.8871195737
 31
0.0
  0
LINE
  5
13D
330
134
100
AcDbEntity
  8
VERMASSUNG
100
AcDbLine
 10
187.7733176827
 20
144.8871195737
 30
0.0
 11
204.7733176827
 21
144.8871195737
 31
0.0
  0
MTEXT
  5
13E
330
134
100
AcDbEntity
  8
VERMASSUNG
100
AcDbMText
 10
195.0743712357
 20
147.4652551696
 30
0.0
 40
2.0
 41
0.0
 71
     1
 72
     1
  1
17
  7
SLDTEXTSTYLE0
 73
     1
 44
1.0
  0
ENDBLK
  5
136
330
134
100
AcDbEntity
  8
0
100
AcDbBlockEnd
  0
BLOCK
  5
141
330
140
100
AcDbEntity
  8
0
100
AcDbBlockBegin
  2
_D_3
 70
     0
 10
0.0
 20
0.0
 30
0.0
  3
_D_3
  1

  0
SOLID
  5
143
330
140
100
AcDbEntity
  8
VERMASSUNG
100
AcDbTrace
 10
160.7733176827
 20
150.8871195737
 30
0.0
 11
163.7733176827
 21
150.4371195737
 31
0.0
 12
163.7733176827
 22
151.3371195737
 32
0.0
 13
163.7733176827
 23
151.3371195737
 33
0.0
  0
SOLID
  5
144
330
140
100
AcDbEntity
  8
VERMASSUNG
100
AcDbTrace
 10
204.7733176827
 20
150.8871195737
 30
0.0
 11
201.7733176827
 21
151.3371195737
 31
0.0
 12
201.7733176827
 22
150.4371195737
 32
0.0
 13
201.7733176827
 23
150.4371195737
 33
0.0
  0
LINE
  5
145
330
140
100
AcDbEntity
  8
VERMASSUNG
100
AcDbLine
 10
160.7733176827
 20
131.338503568
 30
0.0
 11
160.7733176827
 21
151.8871195737
 31
0.0
  0
LINE
  5
146
330
140
100
AcDbEntity
  8
VERMASSUNG
100
AcDbLine
 10
204.7733176827
 20
124.813503568
 30
0.0
 11
204.7733176827
 21
151.8871195737
 31
0.0
  0
LINE
  5
147
330
140
100
AcDbEntity
  8
VERMASSUNG
100
AcDbLine
 10
160.7733176827
 20
150.8871195737
 30
0.0
 11
204.7733176827
 21
150.8871195737
 31
0.0
  0
MTEXT
  5
148
330
140
100
AcDbEntity
  8
VERMASSUNG
100
AcDbMText
 10
181.1739870957
 20
153.4652551696
 30
0.0
 40
2.0
 41
0.0
 71
     1
 72
     1
  1
44
  7
SLDTEXTSTYLE0
 73
     1
 44
1.0
  0
ENDBLK
  5
142
330
140
100
AcDbEntity
  8
0
100
AcDbBlockEnd
  0
BLOCK
  5
14B
330
14A
100
AcDbEntity
  8
0
100
AcDbBlockBegin
  2
_D_4
 70
     0
 10
0.0
 20
0.0
 30
0.0
  3
_D_4
  1

  0
ARC
  5
14D
330
14A
100
AcDbEntity
  8
VERMASSUNG
100
AcDbCircle
 10
149.2854829762
 20
158.7864625191
 30
0.0
 40
4.247059938537233
100
AcDbArc
 50
153.4349488229
 51
206.5650511771
  0
ARC
  5
14E
330
14A
100
AcDbEntity
  8
VERMASSUNG
100
AcDbCircle
 10
150.8611523892
 20
158.7864625191
 30
0.0
 40
4.247059938537233
100
AcDbArc
 50
333.4349488229
 51
26.5650511771
  0
SOLID
  5
14F
330
14A
100
AcDbEntity
  8
VERMASSUNG
100
AcDbTrace
 10
95.3733176827
 20
156.8871195737
 30
0.0
 11
98.3733176827
 21
156.4371195737
 31
0.0
 12
98.3733176827
 22
157.3371195737
 32
0.0
 13
98.3733176827
 23
157.3371195737
 33
0.0
  0
SOLID
  5
150
330
14A
100
AcDbEntity
  8
VERMASSUNG
100
AcDbTrace
 10
204.7733176827
 20
156.8871195737
 30
0.0
 11
201.7733176827
 21
157.3371195737
 31
0.0
 12
201.7733176827
 22
156.4371195737
 32
0.0
 13
201.7733176827
 23
156.4371195737
 33
0.0
  0
LINE
  5
151
330
14A
100
AcDbEntity
  8
VERMASSUNG
100
AcDbLine
 10
95.3733176827
 20
120.936259165
 30
0.0
 11
95.3733176827
 21
157.8871195737
 31
0.0
  0
LINE
  5
152
330
14A
100
AcDbEntity
  8
VERMASSUNG
100
AcDbLine
 10
204.7733176827
 20
124.813503568
 30
0.0
 11
204.7733176827
 21
157.8871195737
 31
0.0
  0
LINE
  5
153
330
14A
100
AcDbEntity
  8
VERMASSUNG
100
AcDbLine
 10
95.3733176827
 20
156.8871195737
 30
0.0
 11
204.7733176827
 21
156.8871195737
 31
0.0
  0
MTEXT
  5
154
330
14A
100
AcDbEntity
  8
VERMASSUNG
100
AcDbMText
 10
147.0742970854
 20
159.4652551696
 30
0.0
 40
2.0
 41
0.0
 71
     1
 72
     1
  1
109.4
  7
SLDTEXTSTYLE0
 73
     1
 44
1.0
  0
ENDBLK
  5
14C
330
14A
100
AcDbEntity
  8
0
100
AcDbBlockEnd
  0
BLOCK
  5
157
330
156
100
AcDbEntity
  8
0
100
AcDbBlockBegin
  2
_D_5
 70
     0
 10
0.0
 20
0.0
 30
0.0
  3
_D_5
  1

  0
SOLID
  5
159
330
156
100
AcDbEntity
  8
VERMASSUNG
100
AcDbTrace
 10
88.3937711694
 20
140.613503568
 30
0.0
 11
87.9437711694
 21
137.613503568
 31
0.0
 12
88.8437711694
 22
137.613503568
 32
0.0
 13
88.8437711694
 23
137.613503568
 33
0.0
  0
SOLID
  5
15A
330
156
100
AcDbEntity
  8
VERMASSUNG
100
AcDbTrace
 10
88.3937711694
 20
77.613503568
 30
0.0
 11
88.8437711694
 21
80.613503568
 31
0.0
 12
87.9437711694
 22
80.613503568
 32
0.0
 13
87.9437711694
 23
80.613503568
 33
0.0
  0
LINE
  5
15B
330
156
100
AcDbEntity
  8
VERMASSUNG
100
AcDbLine
 10
184.7733135386
 20
140.613503568
 30
0.0
 11
87.3937711694
 21
140.613503568
 31
0.0
  0
LINE
  5
15C
330
156
100
AcDbEntity
  8
VERMASSUNG
100
AcDbLine
 10
184.7733184566
 20
77.613503568
 30
0.0
 11
87.3937711694
 21
77.613503568
 31
0.0
  0
LINE
  5
15D
330
156
100
AcDbEntity
  8
VERMASSUNG
100
AcDbLine
 10
88.3937711694
 20
140.613503568
 30
0.0
 11
88.3937711694
 21
77.613503568
 31
0.0
  0
MTEXT
  5
15E
330
156
100
AcDbEntity
  8
VERMASSUNG
100
AcDbMText
 10
85.6156359132
 20
98.4090185011
 30
0.0
 40
2.0
 41
0.0
 71
     1
 72
     1
  1
MAS BT 40
  7
SLDTEXTSTYLE0
 11
-7.044195017643634E-15
 21
1.0
 31
0.0
 73
     1
 44
1.0
  0
MTEXT
  5
15F
330
156
100
AcDbEntity
  8
VERMASSUNG
100
AcDbMText
 10
85.8156358645
 20
113.4090181658
 30
0.0
 40
2.0
 41
0.0
 71
     1
 72
     1
  1
%%c
  7
SLDTEXTSTYLE0
 11
-7.044195017643634E-15
 21
1.0
 31
0.0
 73
     1
 44
1.0
  0
MTEXT
  5
160
330
156
100
AcDbEntity
  8
VERMASSUNG
100
AcDbMText
 10
85.8156355735
 20
117.0186086143
 30
0.0
 40
2.0
 41
0.0
 71
     1
 72
     1
  1
63
  7
SLDTEXTSTYLE0
 11
-7.044195017643634E-15
 21
1.0
 31
0.0
 73
     1
 44
1.0
  0
ENDBLK
  5
158
330
156
100
AcDbEntity
  8
0
100
AcDbBlockEnd
  0
ENDSEC
  0
SECTION
  2
ENTITIES
  0
MTEXT
  5
78
330
1F
100
AcDbEntity
  8
KOPF_DÜNN
100
AcDbMText
 10
13.8892156294
 20
23.8442973028
 30
0.0
 40
3.0
 41
0.0
 71
     1
 72
     1
  1
134.540.032.044
  7
SLDTEXTSTYLE0
 73
     1
 44
1.0
  0
MTEXT
  5
79
330
1F
100
AcDbEntity
  8
VERMASSUNG
100
AcDbMText
 10
13.9329988022
 20
28.8834360957
 30
0.0
 40
3.0
 41
0.0
 71
     1
 72
     1
  1
Aufnahme_Master shank ST3
  7
SLDTEXTSTYLE0
 73
     1
 44
1.0
  0
MTEXT
  5
7A
330
1F
100
AcDbEntity
  8
VERMASSUNG
100
AcDbMText
 10
98.8601118557
 20
13.8365368761
 30
0.0
 40
2.0
 41
0.0
 71
     1
 72
     1
  1
Datum: 05.06.2008
  7
SLDTEXTSTYLE0
 73
     1
 44
1.0
  0
MTEXT
  5
7C
330
1F
100
AcDbEntity
  8
VERMASSUNG
100
AcDbMText
 10
13.933048693
 20
18.0482802738
 30
0.0
 40
2.0
 41
0.0
 71
     1
 72
     1
  1
MAS BT 40 A/D
  7
SLDTEXTSTYLE1
 73
     1
 44
1.0
  0
MTEXT
  5
7D
330
1F
100
AcDbEntity
  8
VERMASSUNG
100
AcDbMText
 10
13.9808475933
 20
13.9090974274
 30
0.0
 40
2.0
 41
0.0
 71
     1
 72
     1
  1
Gewicht: 1048g
  7
SLDTEXTSTYLE0
 73
     1
 44
1.0
  0
LINE
  5
7E
330
1F
100
AcDbEntity
  8
0
  6
Continuous
 62
     7
370
    15
100
AcDbLine
 10
184.7734726128
 20
77.613503568
 30
0.0
 11
186.7733176827
 21
77.613503568
 31
0.0
  0
LINE
  5
7F
330
1F
100
AcDbEntity
  8
0
  6
Continuous
 62
     7
370
    15
100
AcDbLine
 10
186.7733176827
 20
140.613503568
 30
0.0
 11
184.7728175127
 21
140.613503568
 31
0.0
  0
ARC
  5
80
330
1F
100
AcDbEntity
  8
0
  6
Continuous
 62
     7
370
    15
100
AcDbCircle
 10
186.7733176827
 20
78.613503568
 30
0.0
 40
1.0
100
AcDbArc
 50
270.0
 51
0.0
  0
ARC
  5
81
330
1F
100
AcDbEntity
  8
0
  6
Continuous
 62
     7
370
    15
100
AcDbCircle
 10
186.7733176827
 20
139.613503568
 30
0.0
 40
1.0
100
AcDbArc
 50
0.0
 51
90.0
  0
ARC
  5
82
330
1F
100
AcDbEntity
  8
0
  6
Continuous
 62
     7
370
    15
100
AcDbCircle
 10
161.7733176827
 20
85.888503568
 30
0.0
 40
1.000000000000026
100
AcDbArc
 50
46.4343679776
 51
90.0
  0
ARC
  5
83
330
1F
100
AcDbEntity
  8
0
  6
Continuous
 62
     7
370
    15
100
AcDbCircle
 10
161.7733176827
 20
132.338503568
 30
0.0
 40
1.000000000000006
100
AcDbArc
 50
270.0
 51
313.5376004142
  0
LINE
  5
84
330
1F
100
AcDbEntity
  8
0
  6
Continuous
 62
     7
370
    15
100
AcDbLine
 10
160.7733176827
 20
86.888503568
 30
0.0
 11
161.7733176827
 21
86.888503568
 31
0.0
  0
LINE
  5
85
330
1F
100
AcDbEntity
  8
0
  6
Continuous
 62
     7
370
    15
100
AcDbLine
 10
161.7733176827
 20
131.338503568
 30
0.0
 11
160.7733176827
 21
131.338503568
 31
0.0
  0
LINE
  5
86
330
1F
100
AcDbEntity
  8
0
  6
Continuous
 62
     7
370
    15
100
AcDbLine
 10
160.7733176827
 20
131.338503568
 30
0.0
 11
96.2290107896
 21
121.9257921461
 31
0.0
  0
LINE
  5
87
330
1F
100
AcDbEntity
  8
0
  6
Continuous
 62
     7
370
    15
100
AcDbLine
 10
96.2290107896
 20
96.3012149899
 30
0.0
 11
160.7733176827
 21
86.888503568
 31
0.0
  0
ARC
  5
88
330
1F
100
AcDbEntity
  8
0
  6
Continuous
 62
     7
370
    15
100
AcDbCircle
 10
191.7733176827
 20
89.113503568
 30
0.0
 40
4.0
100
AcDbArc
 50
90.0
 51
180.0
  0
ARC
  5
89
330
1F
100
AcDbEntity
  8
0
  6
Continuous
 62
     7
370
    15
100
AcDbCircle
 10
191.7733176827
 20
129.113503568
 30
0.0
 40
4.000000000000014
100
AcDbArc
 50
180.0
 51
270.0
  0
LINE
  5
8A
330
1F
100
AcDbEntity
  8
0
  6
Continuous
 62
     7
370
    15
100
AcDbLine
 10
204.4733176827
 20
125.113503568
 30
0.0
 11
191.7733176827
 21
125.113503568
 31
0.0
  0
LINE
  5
8B
330
1F
100
AcDbEntity
  8
0
  6
Continuous
 62
     7
370
    15
100
AcDbLine
 10
191.7733176827
 20
93.113503568
 30
0.0
 11
204.4733176827
 21
93.113503568
 31
0.0
  0
LINE
  5
8C
330
1F
100
AcDbEntity
  8
0
  6
Continuous
 62
     7
370
    15
100
AcDbLine
 10
204.4733176827
 20
93.113503568
 30
0.0
 11
204.7733176827
 21
93.413503568
 31
0.0
  0
LINE
  5
8D
330
1F
100
AcDbEntity
  8
0
  6
Continuous
 62
     7
370
    15
100
AcDbLine
 10
204.7733176827
 20
124.813503568
 30
0.0
 11
204.4733176827
 21
125.113503568
 31
0.0
  0
ARC
  5
8E
330
1F
100
AcDbEntity
  8
0
  6
Continuous
 62
     7
370
    15
100
AcDbCircle
 10
96.3733176827
 20
97.290747971
 30
0.0
 40
1.0
100
AcDbArc
 50
180.0
 51
261.7028550302
  0
ARC
  5
8F
330
1F
100
AcDbEntity
  8
0
  6
Continuous
 62
     7
370
    15
100
AcDbCircle
 10
96.3733176827
 20
120.936259165
 30
0.0
 40
1.000000000000008
100
AcDbArc
 50
98.2971449698
 51
180.0
  0
SPLINE
  5
90
330
1F
100
AcDbEntity
  8
0
  6
Continuous
 62
     7
370
    15
100
AcDbSpline
210
0.0
220
0.0
230
1.0
 70
    24
 71
     3
 72
    11
 73
     7
 74
     0
 42
0.000000001
 43
0.00000001
 40
0.0
 40
0.0
 40
0.0
 40
0.0
 40
0.1183358584681214
 40
0.4755396850857864
 40
0.8141708872487067
 40
1.0
 40
1.0
 40
1.0
 40
1.0
 10
195.0404279142154
 20
109.5232376612585
 30
0.0
 10
195.0847342654694
 20
109.56962818252
 30
0.0
 10
195.2627819730313
 20
109.7560512512097
 30
0.0
 10
195.5991995874468
 20
110.1082939444709
 30
0.0
 10
195.9693023666198
 20
110.4958063520652
 30
0.0
 10
196.1667517779071
 20
110.7025437802926
 30
0.0
 10
196.2367129320103
 20
110.775795905892
 30
0.0
  0
SPLINE
  5
91
330
1F
100
AcDbEntity
  8
0
  6
Continuous
 62
     7
370
    15
100
AcDbSpline
210
0.0
220
0.0
230
1.0
 70
    24
 71
     3
 72
    10
 73
     6
 74
     0
 42
0.000000001
 43
0.00000001
 40
0.0
 40
0.0
 40
0.0
 40
0.0
 40
0.4391165375904124
 40
0.7513669429073413
 40
1.0
 40
1.0
 40
1.0
 40
1.0
 10
197.2099224333598
 20
107.4512112301042
 30
0.0
 10
196.9690037892423
 20
107.5098678242831
 30
0.0
 10
196.5567708405283
 20
107.6102344059916
 30
0.0
 10
195.9575174409218
 20
107.7561349592668
 30
0.0
 10
195.6592507769583
 20
107.828754107234
 30
0.0
 10
195.5270326648901
 20
107.8609453233646
 30
0.0
  0
SPLINE
  5
92
330
1F
100
AcDbEntity
  8
0
  6
Continuous
 62
     7
370
    15
100
AcDbSpline
210
0.0
220
0.0
230
1.0
 70
    24
 71
     3
 72
    11
 73
     7
 74
     0
 42
0.000000001
 43
0.00000001
 40
0.0
 40
0.0
 40
0.0
 40
0.0
 40
0.1858291127512996
 40
0.5244603149142202
 40
0.8816641415318804
 40
1.0
 40
1.0
 40
1.0
 40
1.0
 10
198.4062074511548
 20
108.7037694747376
 30
0.0
 10
198.3362462970515
 20
108.6305173491383
 30
0.0
 10
198.1387968857642
 20
108.4237799209108
 30
0.0
 10
197.7686941065913
 20
108.0362675133165
 30
0.0
 10
197.4322764921758
 20
107.6840248200554
 30
0.0
 10
197.2542287846138
 20
107.4976017513657
 30
0.0
 10
197.2099224333598
 20
107.4512112301042
 30
0.0
  0
SPLINE
  5
93
330
1F
100
AcDbEntity
  8
0
  6
Continuous
 62
     7
370
    15
100
AcDbSpline
210
0.0
220
0.0
230
1.0
 70
    24
 71
     3
 72
    10
 73
     6
 74
     0
 42
0.000000001
 43
0.00000001
 40
0.0
 40
0.0
 40
0.0
 40
0.0
 40
0.439116537590417
 40
0.7513669429073503
 40
1.0
 40
1.0
 40
1.0
 40
1.0
 10
197.91960270048
 20
110.3660618126315
 30
0.0
 10
197.9892639218804
 20
110.128091849491
 30
0.0
 10
198.1084603867869
 20
109.7209043527735
 30
0.0
 10
198.2817335010275
 20
109.1289854087725
 30
0.0
 10
198.3679768060686
 20
108.8343693266944
 30
0.0
 10
198.4062074511548
 20
108.7037694747376
 30
0.0
  0
SPLINE
  5
94
330
1F
100
AcDbEntity
  8
0
  6
Continuous
 62
     7
370
    15
100
AcDbSpline
210
0.0
220
0.0
230
1.0
 70
    24
 71
     3
 72
    10
 73
     6
 74
     0
 42
0.000000001
 43
0.00000001
 40
0.0
 40
0.0
 40
0.0
 40
0.0
 40
0.4391165375904109
 40
0.7513669429073434
 40
1.0
 40
1.0
 40
1.0
 40
1.0
 10
196.2367129320103
 20
110.775795905892
 30
0.0
 10
196.4776315761279
 20
110.717139311713
 30
0.0
 10
196.8898645248419
 20
110.6167727300046
 30
0.0
 10
197.4891179244483
 20
110.4708721767293
 30
0.0
 10
197.7873845884118
 20
110.3982530287622
 30
0.0
 10
197.9196027004801
 20
110.3660618126315
 30
0.0
  0
CIRCLE
  5
95
330
1F
100
AcDbEntity
  8
0
  6
Continuous
 62
     7
370
    15
100
AcDbCircle
 10
196.7233176827
 20
109.113503568
 30
0.0
 40
1.89999999999998
  0
SPLINE
  5
96
330
1F
100
AcDbEntity
  8
0
  6
Continuous
 62
     7
370
    15
100
AcDbSpline
210
0.0
220
0.0
230
1.0
 70
    24
 71
     3
 72
    10
 73
     6
 74
     0
 42
0.000000001
 43
0.00000001
 40
0.0
 40
0.0
 40
0.0
 40
0.0
 40
0.4391165375904209
 40
0.7513669429073427
 40
1.0
 40
1.0
 40
1.0
 40
1.0
 10
195.5270326648901
 20
107.8609453233646
 30
0.0
 10
195.4573714434898
 20
108.0989152865052
 30
0.0
 10
195.3381749785833
 20
108.5061027832227
 30
0.0
 10
195.1649018643426
 20
109.0980217272237
 30
0.0
 10
195.0786585593016
 20
109.3926378093017
 30
0.0
 10
195.0404279142154
 20
109.5232376612585
 30
0.0
  0
CIRCLE
  5
97
330
1F
100
AcDbEntity
  8
0
  6
Continuous
 62
     7
370
    15
100
AcDbCircle
 10
196.7233176827
 20
109.113503568
 30
0.0
 40
2.599999999999992
  0
CIRCLE
  5
98
330
1F
100
AcDbEntity
  8
0
  6
Continuous
 62
     7
370
    15
100
AcDbCircle
 10
196.7233176827
 20
109.113503568
 30
0.0
 40
2.999999999999981
  0
ARC
  5
99
330
1F
100
AcDbEntity
  8
0
  6
Continuous
 62
     7
370
    15
100
AcDbCircle
 10
196.7233176827
 20
109.113503568
 30
0.0
 40
1.500000000000021
100
AcDbArc
 50
196.3163974607
 51
256.3163974607
  0
ARC
  5
9A
330
1F
100
AcDbEntity
  8
0
  6
Continuous
 62
     7
370
    15
100
AcDbCircle
 10
196.7233176827
 20
109.113503568
 30
0.0
 40
1.499999999999994
100
AcDbArc
 50
316.3163974607
 51
16.3163974607
  0
ARC
  5
9B
330
1F
100
AcDbEntity
  8
0
  6
Continuous
 62
     7
370
    15
100
AcDbCircle
 10
196.7233176827
 20
109.113503568
 30
0.0
 40
1.500000000000001
100
AcDbArc
 50
76.3163974607
 51
136.3163974607
  0
ARC
  5
9C
330
1F
100
AcDbEntity
  8
0
  6
Continuous
 62
     7
370
    15
100
AcDbCircle
 10
196.7233176827
 20
109.113503568
 30
0.0
 40
1.499999999999994
100
AcDbArc
 50
16.3163974607
 51
76.3163974607
  0
ARC
  5
9D
330
1F
100
AcDbEntity
  8
0
  6
Continuous
 62
     7
370
    15
100
AcDbCircle
 10
196.7233176827
 20
109.113503568
 30
0.0
 40
1.50000000000001
100
AcDbArc
 50
256.3163974607
 51
316.3163974607
  0
ARC
  5
9E
330
1F
100
AcDbEntity
  8
0
  6
Continuous
 62
     7
370
    15
100
AcDbCircle
 10
196.7233176827
 20
109.113503568
 30
0.0
 40
1.500000000000021
100
AcDbArc
 50
136.3163974607
 51
196.3163974607
  0
SPLINE
  5
9F
330
1F
100
AcDbEntity
  8
0
  6
Continuous
 62
     7
370
    15
100
AcDbSpline
210
0.0
220
0.0
230
1.0
 70
     8
 71
     3
 72
    10
 73
     6
 74
     0
 42
0.000000001
 43
0.00000001
 40
0.0
 40
0.0
 40
0.0
 40
0.0
 40
0.5
 40
0.5
 40
1.0
 40
1.0
 40
1.0
 40
1.0
 10
181.7499260867306
 20
139.0179642893522
 30
0.0
 10
181.4338222555911
 20
138.398101731075
 30
0.0
 10
181.1040432112463
 20
137.7522009957762
 30
0.0
 10
180.4318199388575
 20
136.4377823554757
 30
0.0
 10
180.0896867729269
 20
135.7698601284634
 30
0.0
 10
179.7425064444128
 20
135.0935223959819
 30
0.0
  0
SPLINE
  5
A0
330
1F
100
AcDbEntity
  8
0
  6
Continuous
 62
     7
370
    15
100
AcDbSpline
210
0.0
220
0.0
230
1.0
 70
     8
 71
     3
 72
     9
 73
     5
 74
     0
 42
0.000000001
 43
0.00000001
 40
0.0
 40
0.0
 40
0.0
 40
0.0
 40
0.5067595796178751
 40
1.0
 40
1.0
 40
1.0
 40
1.0
 10
182.3989482256696
 20
139.9756386753471
 30
0.0
 10
182.2885478778876
 20
139.8135637370127
 30
0.0
 10
182.0706924051499
 20
139.4937376402736
 30
0.0
 10
181.8560993029413
 20
139.1753896606364
 30
0.0
 10
181.7502533109969
 20
139.0183675693324
 30
0.0
  0
LINE
  5
A1
330
1F
100
AcDbEntity
  8
0
  6
Continuous
 62
     7
370
    15
100
AcDbLine
 10
182.3983176827
 20
78.2524055485
 30
0.0
 11
182.3983176827
 21
139.9745853225
 31
0.0
  0
SPLINE
  5
A2
330
1F
100
AcDbEntity
  8
0
  6
Continuous
 62
     7
370
    15
100
AcDbSpline
210
0.0
220
0.0
230
1.0
 70
     8
 71
     3
 72
     9
 73
     5
 74
     0
 42
0.000000001
 43
0.00000001
 40
0.0
 40
0.0
 40
0.0
 40
0.0
 40
0.4932426502230348
 40
1.0
 40
1.0
 40
1.0
 40
1.0
 10
181.7502393959741
 20
79.20863746629331
 30
0.0
 10
181.8560855009852
 20
79.05161422663315
 30
0.0
 10
182.0706778622973
 20
78.7332653579999
 30
0.0
 10
182.2885321502575
 20
78.41343931129637
 30
0.0
 10
182.3989314118617
 20
78.25136511147926
 30
0.0
  0
SPLINE
  5
A3
330
1F
100
AcDbEntity
  8
0
  6
Continuous
 62
     7
370
    15
100
AcDbSpline
210
0.0
220
0.0
230
1.0
 70
     8
 71
     3
 72
    10
 73
     6
 74
     0
 42
0.000000001
 43
0.00000001
 40
0.0
 40
0.0
 40
0.0
 40
0.0
 40
0.5
 40
0.5
 40
1.0
 40
1.0
 40
1.0
 40
1.0
 10
181.7499201670628
 20
79.20905445479305
 30
0.0
 10
181.4337410643886
 20
79.82906460680678
 30
0.0
 10
181.1032988372216
 20
80.47626267267448
 30
0.0
 10
180.4315873165389
 20
81.78967859726824
 30
0.0
 10
180.0896134415069
 20
82.45728986357103
 30
0.0
 10
179.7425064444128
 20
83.13348474001421
 30
0.0
  0
SPLINE
  5
A4
330
1F
100
AcDbEntity
  8
0
  6
Continuous
 62
     7
370
    15
100
AcDbSpline
210
0.0
220
0.0
230
1.0
 70
     8
 71
     3
 72
    11
 73
     7
 74
     0
 42
0.000000001
 43
0.00000001
 40
0.0
 40
0.0
 40
0.0
 40
0.0
 40
0.2488814606695658
 40
0.5011921284368381
 40
0.7520447562540515
 40
1.0
 40
1.0
 40
1.0
 40
1.0
 10
184.772817512668
 20
140.6133538225916
 30
0.0
 10
184.7430391831685
 20
140.6042217964473
 30
0.0
 10
184.6830722241874
 20
140.5858319187605
 30
0.0
 10
184.1911501624406
 20
140.4417946702754
 30
0.0
 10
183.4630807398213
 20
140.2323915921642
 30
0.0
 10
182.7523372686437
 20
140.0601873228153
 30
0.0
 10
182.399029751494
 20
139.9745853224966
 30
0.0
  0
SPLINE
  5
A5
330
1F
100
AcDbEntity
  8
0
  6
Continuous
 62
     7
370
    15
100
AcDbSpline
210
0.0
220
0.0
230
1.0
 70
     8
 71
     3
 72
    24
 73
    20
 74
     0
 42
0.000000001
 43
0.00000001
 40
0.0
 40
0.0
 40
0.0
 40
0.0
 40
0.0452304145230468
 40
0.0903354254807773
 40
0.1353632524017138
 40
0.1803623629163211
 40
0.2253813173811786
 40
0.2704686120121845
 40
0.3156725230495646
 40
0.3610409544388638
 40
0.4066212913821985
 40
0.4524602619010737
 40
0.4986038082699224
 40
0.5832834063274132
 40
0.6671222514847349
 40
0.7504134308293638
 40
0.8334558303783486
 40
0.9165510206949746
 40
0.9999999999999999
 40
0.9999999999999999
 40
0.9999999999999999
 40
0.9999999999999999
 10
182.3989363761027
 20
78.2524055484626
 30
0.0
 10
182.4666401180054
 20
78.2366465074451
 30
0.0
 10
182.6018598898319
 20
78.20517211813215
 30
0.0
 10
182.7945216066699
 20
78.1587113147934
 30
0.0
 10
182.9792584783186
 20
78.11308033516134
 30
0.0
 10
183.1553764196097
 20
78.06845503772824
 30
0.0
 10
183.3230602122222
 20
78.02496775112883
 30
0.0
 10
183.4822596965114
 20
77.98276670333237
 30
0.0
 10
183.6329878350037
 20
77.94200011101385
 30
0.0
 10
183.7752407884059
 20
77.90282035842911
 30
0.0
 10
183.909019543632
 20
77.86538306653772
 30
0.0
 10
184.0343234540338
 20
77.82984648289838
 30
0.0
 10
184.1833720038145
 20
77.78714446742364
 30
0.0
 10
184.3441375811819
 20
77.74063577639217
 30
0.0
 10
184.5000636659819
 20
77.69497588619694
 30
0.0
 10
184.6216886839084
 20
77.65894561748692
 30
0.0
 10
184.7081644131297
 20
77.63306409253775
 30
0.0
 10
184.7625833204768
 20
77.61662801601207
 30
0.0
 10
184.7697318620586
 20
77.61454665742394
 30
0.0
 10
184.7733137256559
 20
77.6135037674198
 30
0.0
  0
LINE
  5
A6
330
1F
100
AcDbEntity
  8
0
  6
Continuous
 62
     7
370
    15
100
AcDbLine
 10
162.7733176827
 20
79.9870980225
 30
0.0
 11
162.7733176827
 21
138.2399091135
 31
0.0
  0
SPLINE
  5
A7
330
1F
100
AcDbEntity
  8
0
  6
Continuous
 62
     7
370
    15
100
AcDbSpline
210
0.0
220
0.0
230
1.0
 70
     8
 71
     3
 72
    12
 73
     8
 74
     0
 42
0.000000001
 43
0.00000001
 40
0.0
 40
0.0
 40
0.0
 40
0.0
 40
0.2500000000000001
 40
0.2500000000000001
 40
0.5000000000000002
 40
0.5000000000000002
 40
1.0
 40
1.0
 40
1.0
 40
1.0
 10
163.1603505056506
 20
139.180493467819
 30
0.0
 10
163.1084897544625
 20
139.1236808955046
 30
0.0
 10
163.0597579574436
 20
139.0616887092528
 30
0.0
 10
162.9695849475261
 20
138.9256356361289
 30
0.0
 10
162.9278076992412
 20
138.8507295335301
 30
0.0
 10
162.8217188293953
 20
138.6126028982327
 30
0.0
 10
162.7733176826851
 20
138.4291961666639
 30
0.0
 10
162.773317682685
 20
138.239909113482
 30
0.0
  0
SPLINE
  5
A8
330
1F
100
AcDbEntity
  8
0
  6
Continuous
 62
     7
370
    15
100
AcDbSpline
210
0.0
220
0.0
230
1.0
 70
     8
 71
     3
 72
     8
 73
     4
 74
     0
 42
0.000000001
 43
0.00000001
 40
0.0
 40
0.0
 40
0.0
 40
0.0
 40
1.0
 40
1.0
 40
1.0
 40
1.0
 10
163.773317682685
 20
139.3498936709999
 30
0.0
 10
163.5469733690852
 20
139.3498936709999
 30
0.0
 10
163.3295212486801
 20
139.286525201979
 30
0.0
 10
163.1603505056506
 20
139.180493467819
 30
0.0
  0
SPLINE
  5
A9
330
1F
100
AcDbEntity
  8
0
  6
Continuous
 62
     7
370
    15
100
AcDbSpline
210
0.0
220
0.0
230
1.0
 70
     8
 71
     3
 72
     8
 73
     4
 74
     0
 42
0.000000001
 43
0.00000001
 40
0.0
 40
0.0
 40
0.0
 40
0.0
 40
1.0
 40
1.0
 40
1.0
 40
1.0
 10
163.1603505056506
 20
79.04651366817711
 30
0.0
 10
163.3299440113026
 20
78.94021695761992
 30
0.0
 10
163.5463127036358
 20
78.87711346499623
 30
0.0
 10
163.773317682685
 20
78.87711346499623
 30
0.0
  0
SPLINE
  5
AA
330
1F
100
AcDbEntity
  8
0
  6
Continuous
 62
     7
370
    15
100
AcDbSpline
210
0.0
220
0.0
230
1.0
 70
     8
 71
     3
 72
    12
 73
     8
 74
     0
 42
0.000000001
 43
0.00000001
 40
0.0
 40
0.0
 40
0.0
 40
0.0
 40
0.2499999999999976
 40
0.2499999999999976
 40
0.4999999999999952
 40
0.4999999999999952
 40
1.0
 40
1.0
 40
1.0
 40
1.0
 10
163.1603505056506
 20
79.04651366817711
 30
0.0
 10
163.1084897544625
 20
79.10332624049148
 30
0.0
 10
163.0597579574436
 20
79.16531842674333
 30
0.0
 10
162.9695849475261
 20
79.30137149986732
 30
0.0
 10
162.9278076992412
 20
79.37627760246605
 30
0.0
 10
162.8217188293953
 20
79.61440423776345
 30
0.0
 10
162.7733176826851
 20
79.79781096933222
 30
0.0
 10
162.773317682685
 20
79.98709802251409
 30
0.0
  0
LINE
  5
AB
330
1F
100
AcDbEntity
  8
0
  6
Continuous
 62
     7
370
    15
100
AcDbLine
 10
187.7733176827
 20
78.613503568
 30
0.0
 11
187.7733176827
 21
139.6135035653
 31
0.0
  0
LINE
  5
AC
330
1F
100
AcDbEntity
  8
0
  6
Continuous
 62
     7
370
    15
100
AcDbLine
 10
172.3483176827
 20
139.349893671
 30
0.0
 11
163.7733176827
 21
139.349893671
 31
0.0
  0
LINE
  5
AD
330
1F
100
AcDbEntity
  8
0
  6
Continuous
 62
     7
370
    15
100
AcDbLine
 10
172.3483176827
 20
78.877113465
 30
0.0
 11
172.3483176827
 21
139.349893671
 31
0.0
  0
LINE
  5
AE
330
1F
100
AcDbEntity
  8
0
  6
Continuous
 62
     7
370
    15
100
AcDbLine
 10
163.7733176827
 20
78.877113465
 30
0.0
 11
172.3483176827
 21
78.877113465
 31
0.0
  0
SPLINE
  5
AF
330
1F
100
AcDbEntity
  8
0
  6
Continuous
 62
     7
370
    15
100
AcDbSpline
210
0.0
220
0.0
230
1.0
 70
     8
 71
     3
 72
     8
 73
     4
 74
     0
 42
0.000000001
 43
0.00000001
 40
0.0
 40
0.0
 40
0.0
 40
0.0
 40
0.0012389803509652
 40
0.0012389803509652
 40
0.0012389803509652
 40
0.0012389803509652
 10
172.9058792262188
 20
138.5675262907846
 30
0.0
 10
172.720759253086
 20
138.8285762721636
 30
0.0
 10
172.534880805327
 20
139.0893578852826
 30
0.0
 10
172.348317682685
 20
139.3498936709999
 30
0.0
  0
SPLINE
  5
B0
330
1F
100
AcDbEntity
  8
0
  6
Continuous
 62
     7
370
    15
100
AcDbSpline
210
0.0
220
0.0
230
1.0
 70
     8
 71
     3
 72
     8
 73
     4
 74
     0
 42
0.000000001
 43
0.00000001
 40
0.0
 40
0.0
 40
0.0
 40
0.0
 40
1.0
 40
1.0
 40
1.0
 40
1.0
 10
175.0041289209574
 20
134.7807492324631
 30
0.0
 10
174.3078355549158
 20
136.0446876005779
 30
0.0
 10
173.6080403897247
 20
137.3067430460862
 30
0.0
 10
172.9058792262188
 20
138.5675262907846
 30
0.0
  0
SPLINE
  5
B1
330
1F
100
AcDbEntity
  8
0
  6
Continuous
 62
     7
370
    15
100
AcDbSpline
210
0.0
220
0.0
230
1.0
 70
     8
 71
     3
 72
     8
 73
     4
 74
     0
 42
0.000000001
 43
0.00000001
 40
0.0
 40
0.0
 40
0.0
 40
0.0
 40
1.0
 40
1.0
 40
1.0
 40
1.0
 10
175.0041289209573
 20
83.44625790353302
 30
0.0
 10
174.3078107802993
 20
82.18227456358623
 30
0.0
 10
173.6080135881889
 20
80.92021596573426
 30
0.0
 10
172.9058792262188
 20
79.65948084521158
 30
0.0
  0
SPLINE
  5
B2
330
1F
100
AcDbEntity
  8
0
  6
Continuous
 62
     7
370
    15
100
AcDbSpline
210
0.0
220
0.0
230
1.0
 70
     8
 71
     3
 72
     8
 73
     4
 74
     0
 42
0.000000001
 43
0.00000001
 40
0.0
 40
0.0
 40
0.0
 40
0.0
 40
0.0012389803509652
 40
0.0012389803509652
 40
0.0012389803509652
 40
0.0012389803509652
 10
172.348317682685
 20
78.87711346499623
 30
0.0
 10
172.534880805327
 20
79.13764925071358
 30
0.0
 10
172.720759253086
 20
79.39843086383259
 30
0.0
 10
172.9058792262188
 20
79.65948084521158
 30
0.0
  0
SPLINE
  5
B3
330
1F
100
AcDbEntity
  8
0
  6
Continuous
 62
     7
370
    15
100
AcDbSpline
210
0.0
220
0.0
230
1.0
 70
     8
 71
     3
 72
    12
 73
     8
 74
     0
 42
0.000000001
 43
0.00000001
 40
0.0
 40
0.0
 40
0.0
 40
0.0
 40
0.2499999999999968
 40
0.2499999999999968
 40
0.4999999999999936
 40
0.4999999999999936
 40
1.0
 40
1.0
 40
1.0
 40
1.0
 10
179.7425064444128
 20
135.0935223959819
 30
0.0
 10
179.7066022940762
 20
135.0235779618338
 30
0.0
 10
179.6640707419467
 20
134.960326598776
 30
0.0
 10
179.5672764651067
 20
134.84526794386
 30
0.0
 10
179.5121867868424
 20
134.7929394101481
 30
0.0
 10
179.3340535532885
 20
134.659154507063
 30
0.0
 10
179.1966764612859
 20
134.5986067399048
 30
0.0
 10
179.049686121386
 20
134.5794067915209
 30
0.0
  0
SPLINE
  5
B4
330
1F
100
AcDbEntity
  8
0
  6
Continuous
 62
     7
370
    15
100
AcDbSpline
210
0.0
220
0.0
230
1.0
 70
     8
 71
     3
 72
    12
 73
     8
 74
     0
 42
0.000000001
 43
0.00000001
 40
0.0
 40
0.0
 40
0.0
 40
0.0
 40
0.2500000000000022
 40
0.2500000000000022
 40
0.5000000000000044
 40
0.5000000000000044
 40
1.0
 40
1.0
 40
1.0
 40
1.0
 10
179.7425064444128
 20
83.1334847400142
 30
0.0
 10
179.7066022940762
 20
83.20342917416235
 30
0.0
 10
179.6640707419467
 20
83.2666805372202
 30
0.0
 10
179.5672764651067
 20
83.38173919213612
 30
0.0
 10
179.5121867868424
 20
83.43406772584811
 30
0.0
 10
179.3340535532885
 20
83.56785262893318
 30
0.0
 10
179.1966764612859
 20
83.62840039609135
 30
0.0
 10
179.049686121386
 20
83.64760034447522
 30
0.0
  0
SPLINE
  5
B5
330
1F
100
AcDbEntity
  8
0
  6
Continuous
 62
     7
370
    15
100
AcDbSpline
210
0.0
220
0.0
230
1.0
 70
     8
 71
     3
 72
    10
 73
     6
 74
     0
 42
0.000000001
 43
0.00000001
 40
0.0
 40
0.0
 40
0.0
 40
0.0
 40
0.5
 40
0.5
 40
1.0
 40
1.0
 40
1.0
 40
1.0
 10
175.6969492439849
 20
134.3612262375776
 30
0.0
 10
175.5549319315379
 20
134.3612262375776
 30
0.0
 10
175.4144848846756
 20
134.4017160897871
 30
0.0
 10
175.1728949654143
 20
134.5496519197262
 30
0.0
 10
175.072217523161
 20
134.6571521957057
 30
0.0
 10
175.0041289209575
 20
134.7807492324628
 30
0.0
  0
SPLINE
  5
B6
330
1F
100
AcDbEntity
  8
0
  6
Continuous
 62
     7
370
    15
100
AcDbSpline
210
0.0
220
0.0
230
1.0
 70
     8
 71
     3
 72
    10
 73
     6
 74
     0
 42
0.000000001
 43
0.00000001
 40
0.0
 40
0.0
 40
0.0
 40
0.0
 40
0.5
 40
0.5
 40
1.0
 40
1.0
 40
1.0
 40
1.0
 10
175.6969492439849
 20
83.86578089841855
 30
0.0
 10
175.5560918794742
 20
83.86578089841855
 30
0.0
 10
175.4132577480001
 20
83.82467699259985
 30
0.0
 10
175.1729960572267
 20
83.6772790992989
 30
0.0
 10
175.0722897881472
 20
83.56998611845925
 30
0.0
 10
175.0041289209573
 20
83.44625790353304
 30
0.0
  0
LINE
  5
B7
330
1F
100
AcDbEntity
  8
0
  6
Continuous
 62
     7
370
    15
100
AcDbLine
 10
175.7233176827
 20
83.8657808984
 30
0.0
 11
175.696949244
 21
83.8657808984
 31
0.0
  0
LINE
  5
B8
330
1F
100
AcDbEntity
  8
0
  6
Continuous
 62
     7
370
    15
100
AcDbLine
 10
175.7233176827
 20
134.3612262376
 30
0.0
 11
175.696949244
 21
134.3612262376
 31
0.0
  0
SPLINE
  5
B9
330
1F
100
AcDbEntity
  8
0
  6
Continuous
 62
     7
370
    15
100
AcDbSpline
210
0.0
220
0.0
230
1.0
 70
     8
 71
     3
 72
    10
 73
     6
 74
     0
 42
0.000000001
 43
0.00000001
 40
0.0
 40
0.0
 40
0.0
 40
0.0
 40
0.5
 40
0.5
 40
1.0
 40
1.0
 40
1.0
 40
1.0
 10
179.0496861213852
 20
134.5794067915239
 30
0.0
 10
178.5277713969893
 20
134.5112340410157
 30
0.0
 10
177.98892021688
 20
134.4566107760577
 30
0.0
 10
176.8775575748478
 20
134.3815149231663
 30
0.0
 10
176.3007167976518
 20
134.3612262375776
 30
0.0
 10
175.7233176826851
 20
134.3612262375776
 30
0.0
  0
SPLINE
  5
BA
330
1F
100
AcDbEntity
  8
0
  6
Continuous
 62
     7
370
    15
100
AcDbSpline
210
0.0
220
0.0
230
1.0
 70
     8
 71
     3
 72
    10
 73
     6
 74
     0
 42
0.000000001
 43
0.00000001
 40
0.0
 40
0.0
 40
0.0
 40
0.0
 40
0.5
 40
0.5
 40
1.0
 40
1.0
 40
1.0
 40
1.0
 10
179.0496861213852
 20
83.6476003444723
 30
0.0
 10
178.5277713969893
 20
83.71577309498052
 30
0.0
 10
177.98892021688
 20
83.77039635993843
 30
0.0
 10
176.8775575748478
 20
83.84549221282978
 30
0.0
 10
176.3007167976518
 20
83.86578089841856
 30
0.0
 10
175.7233176826851
 20
83.86578089841856
 30
0.0
  0
SPLINE
  5
BB
330
1F
100
AcDbEntity
  8
0
  6
Continuous
 62
     7
370
    15
100
AcDbSpline
210
0.0
220
0.0
230
1.0
 70
    24
 71
     3
 72
    10
 73
     6
 74
     0
 42
0.000000001
 43
0.00000001
 40
0.0
 40
0.0
 40
0.0
 40
0.0
 40
0.2913693711348858
 40
0.9999941871608022
 40
1.0
 40
1.0
 40
1.0
 40
1.0
 10
162.6222745503183
 20
131.6135035679981
 30
0.0
 10
162.6001904581672
 20
131.6135035680018
 30
0.0
 10
162.5243967544786
 20
131.6135035680148
 30
0.0
 10
162.4326581744054
 20
131.6135035678947
 30
0.0
 10
162.4620670308534
 20
131.6135035679981
 30
0.0
 10
162.4620672720919
 20
131.6135035679981
 30
0.0
  0
SPLINE
  5
BC
330
1F
100
AcDbEntity
  8
0
  6
Continuous
 62
     7
370
    15
100
AcDbSpline
210
0.0
220
0.0
230
1.0
 70
    24
 71
     3
 72
     9
 73
     5
 74
     0
 42
0.000000001
 43
0.00000001
 40
0.0
 40
0.0
 40
0.0
 40
0.0
 40
0.6761959773746896
 40
0.9999999999999999
 40
0.9999999999999999
 40
0.9999999999999999
 40
0.9999999999999999
 10
162.4620673745655
 20
86.61350356799808
 30
0.0
 10
162.4812340720533
 20
86.61350356799808
 30
0.0
 10
162.509578957455
 20
86.6135035679981
 30
0.0
 10
162.5930445964655
 20
86.61350356799808
 30
0.0
 10
162.620071106128
 20
86.61350356799808
 30
0.0
  0
LINE
  5
BD
330
1F
100
AcDbEntity
  8
0
  6
Continuous
 62
     7
370
    15
100
AcDbLine
 10
160.7733176827
 20
86.888503568
 30
0.0
 11
160.7733176827
 21
131.338503568
 31
0.0
  0
SPLINE
  5
BE
330
1F
100
AcDbEntity
  8
0
  6
Continuous
 62
     7
370
    15
100
AcDbSpline
210
0.0
220
0.0
230
1.0
 70
    11
 71
     3
 72
    66
 73
    62
 74
     0
 42
0.000000001
 43
0.00000001
 40
0.0
 40
0.0
 40
0.0
 40
0.0
 40
0.0312499999999998
 40
0.0312499999999998
 40
0.0624999999999996
 40
0.0624999999999996
 40
0.0937499999999995
 40
0.0937499999999995
 40
0.1249999999999993
 40
0.1249999999999993
 40
0.1562499999999991
 40
0.1562499999999991
 40
0.1874999999999989
 40
0.1874999999999989
 40
0.2187499999999987
 40
0.2187499999999987
 40
0.2499999999999986
 40
0.2499999999999986
 40
0.2812499999999984
 40
0.2812499999999984
 40
0.3124999999999982
 40
0.3124999999999982
 40
0.3437499999999979
 40
0.3437499999999979
 40
0.3749999999999977
 40
0.3749999999999977
 40
0.4062499999999975
 40
0.4062499999999975
 40
0.4374999999999973
 40
0.4374999999999973
 40
0.468749999999997
 40
0.468749999999997
 40
0.4999999999999968
 40
0.4999999999999968
 40
0.5312499999999966
 40
0.5312499999999966
 40
0.5624999999999964
 40
0.5624999999999964
 40
0.6249999999999968
 40
0.6249999999999968
 40
0.6562499999999971
 40
0.6562499999999971
 40
0.6874999999999973
 40
0.6874999999999973
 40
0.7187499999999977
 40
0.7187499999999977
 40
0.7499999999999979
 40
0.7499999999999979
 40
0.7812499999999981
 40
0.7812499999999981
 40
0.8124999999999984
 40
0.8124999999999984
 40
0.8437499999999987
 40
0.8437499999999987
 40
0.8749999999999989
 40
0.8749999999999989
 40
0.9062499999999992
 40
0.9062499999999992
 40
0.9374999999999994
 40
0.9374999999999994
 40
1.0
 40
1.0
 40
1.0
 40
1.0
 10
194.2066580910697
 20
111.620620726325
 30
0.0
 10
194.3884429960144
 20
111.7696058294336
 30
0.0
 10
194.5814972982556
 20
111.8989336547307
 30
0.0
 10
194.9883620128197
 20
112.121810675234
 30
0.0
 10
195.2038028758323
 20
112.2158410363157
 30
0.0
 10
195.6486817522758
 20
112.3648697042918
 30
0.0
 10
195.8751743683113
 20
112.4192169507893
 30
0.0
 10
196.3359846334489
 20
112.4892258792164
 30
0.0
 10
196.5726021290274
 20
112.504729093048
 30
0.0
 10
197.0409375120261
 20
112.4952429848601
 30
0.0
 10
197.2723824838789
 20
112.4707522762592
 30
0.0
 10
197.7298779350015
 20
112.3825287645149
 30
0.0
 10
197.9580884438612
 20
112.3178016849559
 30
0.0
 10
198.3938784003324
 20
112.1514632465512
 30
0.0
 10
198.6023226086435
 20
112.0501550101208
 30
0.0
 10
198.9999423943265
 20
111.8101676462559
 30
0.0
 10
199.190747303411
 20
111.6696882880414
 30
0.0
 10
199.5364025629455
 20
111.3595726255561
 30
0.0
 10
199.6928786809159
 20
111.1894823080196
 30
0.0
 10
199.9711287152499
 20
110.8170373591673
 30
0.0
 10
200.0930738145469
 20
110.6128842599
 30
0.0
 10
200.2864135830528
 20
110.1905615312527
 30
0.0
 10
200.3598756397008
 20
109.9702428071714
 30
0.0
 10
200.4564858911084
 20
109.5096406065143
 30
0.0
 10
200.4780013624757
 20
109.2743779284319
 30
0.0
 10
200.4669171244216
 20
108.8081957929615
 30
0.0
 10
200.4337692531986
 20
108.5720354813644
 30
0.0
 10
200.3161168187602
 20
108.1186247242623
 30
0.0
 10
200.2324763742335
 20
107.9008573900711
 30
0.0
 10
200.0171580820531
 20
107.4825151851843
 30
0.0
 10
199.8877659453308
 20
107.2869119474222
 30
0.0
 10
199.5931362039009
 20
106.926293658522
 30
0.0
 10
199.4254558609144
 20
106.7589904548614
 30
0.0
 10
199.0654609977981
 20
106.4627842593119
 30
0.0
 10
198.8726871881303
 20
106.3326734545287
 30
0.0
 10
198.4623369100072
 20
106.1069707720793
 30
0.0
 10
198.246106157991
 20
106.0125901767078
 30
0.0
 10
197.5839929790573
 20
105.7898195251534
 30
0.0
 10
197.1105894261099
 20
105.7180318059456
 30
0.0
 10
196.411694928235
 20
105.7313742686014
 30
0.0
 10
196.1782042249503
 20
105.7555727321299
 30
0.0
 10
195.7154655445217
 20
105.8446481063838
 30
0.0
 10
195.491315773388
 20
105.9083888601168
 30
0.0
 10
195.0571146674592
 20
106.0736442290905
 30
0.0
 10
194.845663363943
 20
106.1759950862318
 30
0.0
 10
194.4443409980594
 20
106.4183010182119
 30
0.0
 10
194.2577020322522
 20
106.5559429193413
 30
0.0
 10
193.9127491538265
 20
106.8649284916974
 30
0.0
 10
193.7528274370157
 20
107.0384689893788
 30
0.0
 10
193.4732940924345
 20
107.4132343889288
 30
0.0
 10
193.3545446666344
 20
107.6122960658256
 30
0.0
 10
193.1607682097076
 20
108.0349338721519
 30
0.0
 10
193.0854601988838
 20
108.2617106413382
 30
0.0
 10
192.9900547789445
 20
108.7190856985623
 30
0.0
 10
192.9685023433375
 20
108.9512327419454
 30
0.0
 10
192.9799108857648
 20
109.4227503446455
 30
0.0
 10
193.0132510004055
 20
109.6568502430838
 30
0.0
 10
193.1307978242164
 20
110.1090611540582
 30
0.0
 10
193.2165646240831
 20
110.3315048914214
 30
0.0
 10
193.5383361734874
 20
110.9546122659686
 30
0.0
 10
193.8430882811804
 20
111.3226505201078
 30
0.0
 10
194.2066580910697
 20
111.620620726325
 30
0.0
  0
LINE
  5
BF
330
1F
100
AcDbEntity
  8
0
  6
Continuous
 62
     7
370
    15
100
AcDbLine
 10
204.4733176827
 20
109.113503568
 30
0.0
 11
204.4733176827
 21
93.113503568
 31
0.0
  0
LINE
  5
C0
330
1F
100
AcDbEntity
  8
0
  6
Continuous
 62
     7
370
    15
100
AcDbLine
 10
204.4733176827
 20
125.113503568
 30
0.0
 11
204.4733176827
 21
109.113503568
 31
0.0
  0
LINE
  5
C1
330
1F
100
AcDbEntity
  8
0
  6
Continuous
 62
     7
370
    15
100
AcDbLine
 10
204.7733176827
 20
109.113503568
 30
0.0
 11
204.7733176827
 21
93.413503568
 31
0.0
  0
LINE
  5
C2
330
1F
100
AcDbEntity
  8
0
  6
Continuous
 62
     7
370
    15
100
AcDbLine
 10
204.7733176827
 20
124.813503568
 30
0.0
 11
204.7733176827
 21
109.113503568
 31
0.0
  0
LINE
  5
C3
330
1F
100
AcDbEntity
  8
0
  6
Continuous
 62
     7
370
    15
100
AcDbLine
 10
95.3733176827
 20
97.290747971
 30
0.0
 11
95.3733176827
 21
120.9362591479
 31
0.0
  0
CIRCLE
  5
C4
330
1F
100
AcDbEntity
  8
0
  6
HIDDEN
 62
     7
370
     0
100
AcDbCircle
 10
196.7233176827
 20
109.113503568
 30
0.0
 40
2.153589838486205
  0
CIRCLE
  5
C5
330
1F
100
AcDbEntity
  8
0
  6
HIDDEN
 62
     7
370
     0
100
AcDbCircle
 10
196.7233176827
 20
109.113503568
 30
0.0
 40
1.95358983848621
  0
SPLINE
  5
C6
330
1F
100
AcDbEntity
  8
0
  6
HIDDEN
 62
     7
370
     0
100
AcDbSpline
210
0.0
220
0.0
230
1.0
 70
     8
 71
     3
 72
    17
 73
    13
 74
     0
 42
0.000000001
 43
0.00000001
 40
0.0
 40
0.0
 40
0.0
 40
0.0
 40
0.0004909084072919
 40
0.0005116394852635
 40
0.2498351754845136
 40
0.5021944977214489
 40
0.5865777378672907
 40
0.6700037584518806
 40
0.7527614182929998
 40
0.8351466077306873
 40
0.9174592349446918
 40
1.0
 40
1.0
 40
1.0
 40
1.0
 10
184.7733137256559
 20
77.6135037674198
 30
0.0
 10
184.7733153970225
 20
77.61350367087607
 30
0.0
 10
184.773317138971
 20
77.61350357025532
 30
0.0
 10
184.7739361610821
 20
77.61350245901555
 30
0.0
 10
184.6697918651979
 20
77.64571907770085
 30
0.0
 10
184.3013070618513
 20
77.75408024563038
 30
0.0
 10
183.9346945073006
 20
77.85891092244384
 30
0.0
 10
183.685162973663
 20
77.928603627423
 30
0.0
 10
183.4073771806259
 20
78.0037453362814
 30
0.0
 10
183.1007174057248
 20
78.08341032988201
 30
0.0
 10
182.7675305726169
 20
78.16655951131698
 30
0.0
 10
182.5225331305294
 20
78.22387199354674
 30
0.0
 10
182.3998648855626
 20
78.25256789155249
 30
0.0
  0
CIRCLE
  5
C7
330
1F
100
AcDbEntity
  8
0
  6
HIDDEN
 62
     7
370
     0
100
AcDbCircle
 10
196.7233176827
 20
109.113503568
 30
0.0
 40
2.624999999999986
  0
SPLINE
  5
C8
330
1F
100
AcDbEntity
  8
0
  6
HIDDEN
 62
     7
370
     0
100
AcDbSpline
210
0.0
220
0.0
230
1.0
 70
     8
 71
     3
 72
    16
 73
    12
 74
     0
 42
0.000000001
 43
0.00000001
 40
0.0
 40
0.0
 40
0.0
 40
0.0
 40
0.2499999999999963
 40
0.2499999999999963
 40
0.4999999999999927
 40
0.4999999999999927
 40
0.6249999999999948
 40
0.6249999999999948
 40
0.749999999999997
 40
0.749999999999997
 40
1.0
 40
1.0
 40
1.0
 40
1.0
 10
204.773317682685
 20
117.7222668248029
 30
0.0
 10
204.773317682685
 20
117.6487410142816
 30
0.0
 10
204.7691045327033
 20
117.5737935024008
 30
0.0
 10
204.746556340465
 20
117.4191357478078
 30
0.0
 10
204.728407965413
 20
117.3381914936914
 30
0.0
 10
204.678595585805
 20
117.2217184951729
 30
0.0
 10
204.6576290393832
 20
117.1832937151372
 30
0.0
 10
204.6064457092223
 20
117.1170727211612
 30
0.0
 10
204.5768758677097
 20
117.090633082827
 30
0.0
 10
204.4863367863674
 20
117.0371763397375
 30
0.0
 10
204.4268772989614
 20
117.0339538148453
 30
0.0
 10
204.3733176826451
 20
117.0417093551896
 30
0.0
  0
SPLINE
  5
C9
330
1F
100
AcDbEntity
  8
0
  6
HIDDEN
 62
     7
370
     0
100
AcDbSpline
210
0.0
220
0.0
230
1.0
 70
     8
 71
     3
 72
    10
 73
     6
 74
     0
 42
0.000000001
 43
0.00000001
 40
0.0
 40
0.0
 40
0.0
 40
0.0
 40
0.5
 40
0.5
 40
1.0
 40
1.0
 40
1.0
 40
1.0
 10
204.3733176826556
 20
117.0417093551992
 30
0.0
 10
204.3321216207448
 20
117.0088211109624
 30
0.0
 10
204.2866841563973
 20
116.9803455841263
 30
0.0
 10
204.185011225129
 20
116.9388732642119
 30
0.0
 10
204.1298499371304
 20
116.9268195659774
 30
0.0
 10
204.0733176826852
 20
116.9268195659774
 30
0.0
  0
SPLINE
  5
CA
330
1F
100
AcDbEntity
  8
0
  6
HIDDEN
 62
     7
370
     0
100
AcDbSpline
210
0.0
220
0.0
230
1.0
 70
     8
 71
     3
 72
    10
 73
     6
 74
     0
 42
0.000000001
 43
0.00000001
 40
0.0
 40
0.0
 40
0.0
 40
0.0
 40
0.5
 40
0.5
 40
1.0
 40
1.0
 40
1.0
 40
1.0
 10
204.3733176827177
 20
101.1852977807474
 30
0.0
 10
204.3321216208006
 20
101.2181860249973
 30
0.0
 10
204.2866841564467
 20
101.2466615518445
 30
0.0
 10
204.1850112251562
 20
101.2881338717782
 30
0.0
 10
204.1298499371446
 20
101.3001875700187
 30
0.0
 10
204.0733176826852
 20
101.3001875700187
 30
0.0
  0
SPLINE
  5
CB
330
1F
100
AcDbEntity
  8
0
  6
HIDDEN
 62
     7
370
     0
100
AcDbSpline
210
0.0
220
0.0
230
1.0
 70
     8
 71
     3
 72
    16
 73
    12
 74
     0
 42
0.000000001
 43
0.00000001
 40
0.0
 40
0.0
 40
0.0
 40
0.0
 40
0.2499999999999883
 40
0.2499999999999883
 40
0.3749999999999915
 40
0.3749999999999915
 40
0.4999999999999946
 40
0.4999999999999946
 40
0.7499999999999972
 40
0.7499999999999972
 40
1.0
 40
1.0
 40
1.0
 40
1.0
 10
204.3733176826993
 20
101.1852977807554
 30
0.0
 10
204.4265723093419
 20
101.193009313025
 30
0.0
 10
204.4861091138808
 20
101.1897738717735
 30
0.0
 10
204.5762039278488
 20
101.1368733118043
 30
0.0
 10
204.6058531844512
 20
101.1104794769326
 30
0.0
 10
204.6566370056633
 20
101.0452292089339
 30
0.0
 10
204.6776333399485
 20
101.0072773974489
 30
0.0
 10
204.7284392178962
 20
100.8892780372734
 30
0.0
 10
204.7464299549713
 20
100.8085503384085
 30
0.0
 10
204.7690951015439
 20
100.6534785226054
 30
0.0
 10
204.7733176826851
 20
100.5783860001322
 30
0.0
 10
204.7733176826851
 20
100.5047453539444
 30
0.0
  0
LINE
  5
CC
330
1F
100
AcDbEntity
  8
0
  6
HIDDEN
 62
     7
370
     0
100
AcDbLine
 10
184.2733176827
 20
109.113503568
 30
0.0
 11
184.2733176827
 21
100.413503568
 31
0.0
  0
LINE
  5
CD
330
1F
100
AcDbEntity
  8
0
  6
HIDDEN
 62
     7
370
     0
100
AcDbLine
 10
184.2733176827
 20
117.813503568
 30
0.0
 11
184.2733176827
 21
109.113503568
 31
0.0
  0
LINE
  5
CE
330
1F
100
AcDbEntity
  8
0
  6
HIDDEN
 62
     7
370
     0
100
AcDbLine
 10
187.6393430865
 20
109.113503568
 30
0.0
 11
187.6393430865
 21
100.113503568
 31
0.0
  0
LINE
  5
CF
330
1F
100
AcDbEntity
  8
0
  6
HIDDEN
 62
     7
370
     0
100
AcDbLine
 10
187.6393430865
 20
118.113503568
 30
0.0
 11
187.6393430865
 21
109.113503568
 31
0.0
  0
LINE
  5
D0
330
1F
100
AcDbEntity
  8
0
  6
HIDDEN
 62
     7
370
     0
100
AcDbLine
 10
162.7733176827
 20
131.613503568
 30
0.0
 11
163.1105759829
 21
131.613503568
 31
0.0
  0
ELLIPSE
  5
D1
330
1F
100
AcDbEntity
  8
0
  6
HIDDEN
 62
     7
370
     0
100
AcDbEllipse
 10
163.1105759829
 20
133.213503568
 30
0.0
 11
0.0
 21
1.599999999999994
 31
0.0
210
0.0
220
0.0
230
1.0
 40
0.4142135624
 41
3.141592653589793
 42
4.712388980384695
  0
ELLIPSE
  5
D2
330
1F
100
AcDbEntity
  8
0
  6
HIDDEN
 62
     7
370
     0
100
AcDbEllipse
 10
163.1105759829
 20
85.013503568
 30
0.0
 11
0.0
 21
1.599999999999994
 31
0.0
210
0.0
220
0.0
230
1.0
 40
0.4142135624
 41
4.712388980384695
 42
6.283185307179586
  0
LINE
  5
D3
330
1F
100
AcDbEntity
  8
0
  6
HIDDEN
 62
     7
370
     0
100
AcDbLine
 10
163.1105759829
 20
86.613503568
 30
0.0
 11
162.7733176827
 21
86.613503568
 31
0.0
  0
LINE
  5
D4
330
1F
100
AcDbEntity
  8
0
  6
HIDDEN
 62
     7
370
     0
100
AcDbLine
 10
195.8733176827
 20
116.926819566
 30
0.0
 11
204.0733176827
 21
116.926819566
 31
0.0
  0
LINE
  5
D5
330
1F
100
AcDbEntity
  8
0
  6
HIDDEN
 62
     7
370
     0
100
AcDbLine
 10
195.8733176827
 20
101.30018757
 30
0.0
 11
204.0733176827
 21
101.30018757
 31
0.0
  0
LINE
  5
D6
330
1F
100
AcDbEntity
  8
0
  6
HIDDEN
 62
     7
370
     0
100
AcDbLine
 10
163.7733176827
 20
79.6594808452
 30
0.0
 11
163.1603505057
 21
79.0465136682
 31
0.0
  0
LINE
  5
D7
330
1F
100
AcDbEntity
  8
0
  6
HIDDEN
 62
     7
370
     0
100
AcDbLine
 10
163.1603505057
 20
139.1804934678
 30
0.0
 11
163.7733176827
 21
138.5675262908
 31
0.0
  0
LINE
  5
D8
330
1F
100
AcDbEntity
  8
0
  6
HIDDEN
 62
     7
370
     0
100
AcDbLine
 10
102.3733176827
 20
100.613503568
 30
0.0
 11
102.3733176827
 21
117.613503568
 31
0.0
  0
LINE
  5
D9
330
1F
100
AcDbEntity
  8
0
  6
HIDDEN
 62
     7
370
     0
100
AcDbLine
 10
105.369246897
 20
102.113503568
 30
0.0
 11
105.369246897
 21
116.113503568
 31
0.0
  0
LINE
  5
DA
330
1F
100
AcDbEntity
  8
0
  6
HIDDEN
 62
     7
370
     0
100
AcDbLine
 10
163.7733176827
 20
138.5675262908
 30
0.0
 11
172.9058792262
 21
138.5675262908
 31
0.0
  0
LINE
  5
DB
330
1F
100
AcDbEntity
  8
0
  6
HIDDEN
 62
     7
370
     0
100
AcDbLine
 10
163.7733176827
 20
138.5675262908
 30
0.0
 11
163.7733176827
 21
133.213503568
 31
0.0
  0
LINE
  5
DC
330
1F
100
AcDbEntity
  8
0
  6
HIDDEN
 62
     7
370
     0
100
AcDbLine
 10
172.9058792262
 20
79.6594808452
 30
0.0
 11
163.7733176827
 21
79.6594808452
 31
0.0
  0
LINE
  5
DD
330
1F
100
AcDbEntity
  8
0
  6
HIDDEN
 62
     7
370
     0
100
AcDbLine
 10
163.7733176827
 20
79.6594808452
 30
0.0
 11
163.7733176827
 21
85.013503568
 31
0.0
  0
LINE
  5
DE
330
1F
100
AcDbEntity
  8
0
  6
HIDDEN
 62
     7
370
     0
100
AcDbLine
 10
163.1105759829
 20
131.613503568
 30
0.0
 11
175.7233176827
 21
131.613503568
 31
0.0
  0
LINE
  5
DF
330
1F
100
AcDbEntity
  8
0
  6
HIDDEN
 62
     7
370
     0
100
AcDbLine
 10
175.7233176827
 20
86.613503568
 30
0.0
 11
163.1105759829
 21
86.613503568
 31
0.0
  0
LINE
  5
E0
330
1F
100
AcDbEntity
  8
0
  6
HIDDEN
 62
     7
370
     0
100
AcDbLine
 10
182.1733176827
 20
86.613503568
 30
0.0
 11
175.7233176827
 21
86.613503568
 31
0.0
  0
SPLINE
  5
E1
330
1F
100
AcDbEntity
  8
0
  6
HIDDEN
 62
     7
370
     0
100
AcDbSpline
210
0.0
220
0.0
230
1.0
 70
     8
 71
     3
 72
    13
 73
     9
 74
     0
 42
0.000000001
 43
0.00000001
 40
0.0
 40
0.0
 40
0.0
 40
0.0
 40
0.1850454653144679
 40
0.3520092965859432
 40
0.5010298177386109
 40
0.6766227814582007
 40
0.8430962614808595
 40
1.0
 40
1.0
 40
1.0
 40
1.0
 10
181.7495813132975
 20
139.0183643437091
 30
0.0
 10
181.9763714289176
 20
139.077201015249
 30
0.0
 10
182.4077909664696
 20
139.1891251595507
 30
0.0
 10
182.8952464374212
 20
139.329391231179
 30
0.0
 10
183.2843556139654
 20
139.4486859904343
 30
0.0
 10
183.5652555343906
 20
139.5393538000587
 30
0.0
 10
183.7421403094557
 20
139.6012695604079
 30
0.0
 10
183.7630026892789
 20
139.6094588165656
 30
0.0
 10
183.7731251877141
 20
139.6134322718158
 30
0.0
  0
LINE
  5
E2
330
1F
100
AcDbEntity
  8
0
  6
HIDDEN
 62
     7
370
     0
100
AcDbLine
 10
182.4998118565
 20
139.218077423
 30
0.0
 11
181.7495592953
 21
139.0185517699
 31
0.0
  0
LINE
  5
E3
330
1F
100
AcDbEntity
  8
0
  6
HIDDEN
 62
     7
370
     0
100
AcDbLine
 10
175.7233176827
 20
131.613503568
 30
0.0
 11
182.1733176827
 21
131.613503568
 31
0.0
  0
LINE
  5
E4
330
1F
100
AcDbEntity
  8
0
  6
HIDDEN
 62
     7
370
     0
100
AcDbLine
 10
181.7495594489
 20
79.2084556746
 30
0.0
 11
181.8435021785
 21
79.1834720032
 31
0.0
  0
SPLINE
  5
E5
330
1F
100
AcDbEntity
  8
0
  6
HIDDEN
 62
     7
370
     0
100
AcDbSpline
210
0.0
220
0.0
230
1.0
 70
     8
 71
     3
 72
    13
 73
     9
 74
     0
 42
0.000000001
 43
0.00000001
 40
0.0
 40
0.0
 40
0.0
 40
0.0
 40
0.0000730266253407
 40
0.1576811714019511
 40
0.3241446478108668
 40
0.4996852929261713
 40
0.7294244053126598
 40
1.0
 40
1.0
 40
1.0
 40
1.0
 10
183.7732963756329
 20
78.61351186904993
 30
0.0
 10
183.7733034773407
 20
78.61350895891502
 30
0.0
 10
183.7886376872406
 20
78.60722531263697
 30
0.0
 10
183.7291766151504
 20
78.63093700567829
 30
0.0
 10
183.5684262130509
 20
78.68641193623868
 30
0.0
 10
183.2337415768
 20
78.79435900421902
 30
0.0
 10
182.6758673182661
 20
78.96563122190804
 30
0.0
 10
182.0747009127274
 20
79.12336164989107
 30
0.0
 10
181.749583630775
 20
79.20866396810872
 30
0.0
  0
LINE
  5
E6
330
1F
100
AcDbEntity
  8
0
  6
HIDDEN
 62
     7
370
     0
100
AcDbLine
 10
138.3733176827
 20
102.113503568
 30
0.0
 11
138.3733176827
 21
116.113503568
 31
0.0
  0
LINE
  5
E7
330
1F
100
AcDbEntity
  8
0
  6
HIDDEN
 62
     7
370
     0
100
AcDbLine
 10
140.5364159112
 20
105.713503568
 30
0.0
 11
140.5364159112
 21
112.513503568
 31
0.0
  0
SPLINE
  5
E8
330
1F
100
AcDbEntity
  8
0
  6
HIDDEN
 62
     7
370
     0
100
AcDbSpline
210
0.0
220
0.0
230
1.0
 70
     8
 71
     3
 72
     9
 73
     5
 74
     0
 42
0.000000001
 43
0.00000001
 40
0.0
 40
0.0
 40
0.0
 40
0.0
 40
0.4932365035776448
 40
1.0
 40
1.0
 40
1.0
 40
1.0
 10
181.7503772213825
 20
139.0183350791704
 30
0.0
 10
181.8562251768912
 20
139.1753564674533
 30
0.0
 10
182.0708239641685
 20
139.4937055497778
 30
0.0
 10
182.2886838460527
 20
139.8135316574554
 30
0.0
 10
182.3990872815266
 20
139.9756078540292
 30
0.0
  0
SPLINE
  5
E9
330
1F
100
AcDbEntity
  8
0
  6
HIDDEN
 62
     7
370
     0
100
AcDbSpline
210
0.0
220
0.0
230
1.0
 70
     8
 71
     3
 72
     9
 73
     5
 74
     0
 42
0.000000001
 43
0.00000001
 40
0.0
 40
0.0
 40
0.0
 40
0.0
 40
0.5067661695379747
 40
1.0
 40
1.0
 40
1.0
 40
1.0
 10
182.3990909668125
 20
78.25141341752094
 30
0.0
 10
182.2886861363385
 20
78.41349083210108
 30
0.0
 10
182.0708246508832
 20
78.73331765623159
 30
0.0
 10
181.8562249329975
 20
79.05166617249607
 30
0.0
 10
181.7503770921287
 20
79.20868643059511
 30
0.0
  0
SPLINE
  5
EA
330
1F
100
AcDbEntity
  8
0
  6
HIDDEN
 62
     7
370
     0
100
AcDbSpline
210
0.0
220
0.0
230
1.0
 70
     8
 71
     3
 72
    14
 73
    10
 74
     0
 42
0.000000001
 43
0.00000001
 40
0.0
 40
0.0
 40
0.0
 40
0.0
 40
0.25
 40
0.25
 40
0.5
 40
0.5
 40
0.75
 40
0.75
 40
1.0
 40
1.0
 40
1.0
 40
1.0
 10
204.3733176826851
 20
120.9135035679981
 30
0.0
 10
204.3733176826851
 20
121.0977678687356
 30
0.0
 10
204.3734697522014
 20
121.2647287180184
 30
0.0
 10
204.3702413029301
 20
121.5651318477017
 30
0.0
 10
204.367394102418
 20
121.6978683047324
 30
0.0
 10
204.35974418206
 20
121.9140272367061
 30
0.0
 10
204.3546166473388
 20
122.0005112694605
 30
0.0
 10
204.344578626622
 20
122.1201676184688
 30
0.0
 10
204.339642031707
 20
122.1543067895377
 30
0.0
 10
204.3360391274417
 20
122.1619075214594
 30
0.0
  0
SPLINE
  5
EB
330
1F
100
AcDbEntity
  8
0
  6
HIDDEN
 62
     7
370
     0
100
AcDbSpline
210
0.0
220
0.0
230
1.0
 70
     8
 71
     3
 72
    11
 73
     7
 74
     0
 42
0.000000001
 43
0.00000001
 40
0.0
 40
0.0
 40
0.0
 40
0.0
 40
0.2787459910571579
 40
0.6039006911839792
 40
0.9296023041786441
 40
0.9999999999999999
 40
0.9999999999999999
 40
0.9999999999999999
 40
0.9999999999999999
 10
204.335506032746
 20
122.1456852560112
 30
0.0
 10
204.3330500549033
 20
122.1294607228536
 30
0.0
 10
204.3277292009206
 20
122.0943104171904
 30
0.0
 10
204.350186554586
 20
121.7045645898298
 30
0.0
 10
204.3716918632708
 20
121.2556553839114
 30
0.0
 10
204.3730723251134
 20
120.9651366958038
 30
0.0
 10
204.3733176709918
 20
120.9135035679982
 30
0.0
  0
LINE
  5
EC
330
1F
100
AcDbEntity
  8
0
  6
HIDDEN
 62
     7
370
     0
100
AcDbLine
 10
204.373317671
 20
120.913503568
 30
0.0
 11
204.3733176827
 21
117.0417093552
 31
0.0
  0
LINE
  5
ED
330
1F
100
AcDbEntity
  8
0
  6
HIDDEN
 62
     7
370
     0
100
AcDbLine
 10
204.3733176874
 20
97.313503568
 30
0.0
 11
204.3733176827
 21
101.1852977807
 31
0.0
  0
SPLINE
  5
EE
330
1F
100
AcDbEntity
  8
0
  6
HIDDEN
 62
     7
370
     0
100
AcDbSpline
210
0.0
220
0.0
230
1.0
 70
     8
 71
     3
 72
    14
 73
    10
 74
     0
 42
0.000000001
 43
0.00000001
 40
0.0
 40
0.0
 40
0.0
 40
0.0
 40
0.1120447440477741
 40
0.2777995672052458
 40
0.4383129393945968
 40
0.6034689606421377
 40
0.7642534932053554
 40
0.9296888757743104
 40
1.0
 40
1.0
 40
1.0
 40
1.0
 10
204.3346181639893
 20
96.07108675807082
 30
0.0
 10
204.333315992887
 20
96.07285495512974
 30
0.0
 10
204.3300874383332
 20
96.07723895709142
 30
0.0
 10
204.3313595366495
 20
96.16535385554522
 30
0.0
 10
204.338631991075
 20
96.32250159149805
 30
0.0
 10
204.3507563055828
 20
96.54346579385675
 30
0.0
 10
204.3643095002469
 20
96.82348976013078
 30
0.0
 10
204.3723155407027
 20
97.08858475800828
 30
0.0
 10
204.3730874625753
 20
97.26183259891566
 30
0.0
 10
204.373317687385
 20
97.31350356799805
 30
0.0
  0
LINE
  5
EF
330
1F
100
AcDbEntity
  8
0
  6
HIDDEN
 62
     7
370
     0
100
AcDbLine
 10
195.8733176827
 20
97.313503568
 30
0.0
 11
195.8733176827
 21
101.30018757
 31
0.0
  0
LINE
  5
F0
330
1F
100
AcDbEntity
  8
0
  6
HIDDEN
 62
     7
370
     0
100
AcDbLine
 10
195.8733176827
 20
120.913503568
 30
0.0
 11
195.8733176827
 21
116.926819566
 31
0.0
  0
LINE
  5
F1
330
1F
100
AcDbEntity
  8
0
  6
HIDDEN
 62
     7
370
     0
100
AcDbLine
 10
195.8733176827
 20
122.163503568
 30
0.0
 11
195.8733176827
 21
120.913503568
 31
0.0
  0
LINE
  5
F2
330
1F
100
AcDbEntity
  8
0
  6
HIDDEN
 62
     7
370
     0
100
AcDbLine
 10
195.8733176827
 20
96.063503568
 30
0.0
 11
195.8733176827
 21
97.313503568
 31
0.0
  0
LINE
  5
F3
330
1F
100
AcDbEntity
  8
0
  6
HIDDEN
 62
     7
370
     0
100
AcDbLine
 10
185.6679956846
 20
118.613503568
 30
0.0
 11
185.0733176827
 21
118.613503568
 31
0.0
  0
LINE
  5
F4
330
1F
100
AcDbEntity
  8
0
  6
HIDDEN
 62
     7
370
     0
100
AcDbLine
 10
185.0733176827
 20
99.613503568
 30
0.0
 11
185.6679956846
 21
99.613503568
 31
0.0
  0
ARC
  5
F5
330
1F
100
AcDbEntity
  8
0
  6
HIDDEN
 62
     7
370
     0
100
AcDbCircle
 10
185.6679956846
 20
117.813503568
 30
0.0
 40
0.8000000000000114
100
AcDbArc
 50
75.0
 51
90.0
  0
ARC
  5
F6
330
1F
100
AcDbEntity
  8
0
  6
HIDDEN
 62
     7
370
     0
100
AcDbCircle
 10
185.6679956846
 20
100.413503568
 30
0.0
 40
0.8000000000000114
100
AcDbArc
 50
270.0
 51
285.0
  0
ARC
  5
F7
330
1F
100
AcDbEntity
  8
0
  6
HIDDEN
 62
     7
370
     0
100
AcDbCircle
 10
185.0733176827
 20
117.813503568
 30
0.0
 40
0.8000000000000114
100
AcDbArc
 50
90.0
 51
180.0
  0
ARC
  5
F8
330
1F
100
AcDbEntity
  8
0
  6
HIDDEN
 62
     7
370
     0
100
AcDbCircle
 10
185.0733176827
 20
100.413503568
 30
0.0
 40
0.8000000000000114
100
AcDbArc
 50
180.0
 51
270.0
  0
LINE
  5
F9
330
1F
100
AcDbEntity
  8
0
  6
HIDDEN
 62
     7
370
     0
100
AcDbLine
 10
185.8750509207
 20
99.640762907
 30
0.0
 11
187.6393430865
 21
100.113503568
 31
0.0
  0
LINE
  5
FA
330
1F
100
AcDbEntity
  8
0
  6
HIDDEN
 62
     7
370
     0
100
AcDbLine
 10
187.6393430865
 20
118.113503568
 30
0.0
 11
185.8750509207
 21
118.586244229
 31
0.0
  0
ARC
  5
FB
330
1F
100
AcDbEntity
  8
0
  6
HIDDEN
 62
     7
370
     0
100
AcDbCircle
 10
96.1733176827
 20
99.813503568
 30
0.0
 40
0.7999999999999972
100
AcDbArc
 50
90.0
 51
180.0
  0
ARC
  5
FC
330
1F
100
AcDbEntity
  8
0
  6
HIDDEN
 62
     7
370
     0
100
AcDbCircle
 10
96.1733176827
 20
118.413503568
 30
0.0
 40
0.7999999999999972
100
AcDbArc
 50
180.0
 51
270.0
  0
LINE
  5
FD
330
1F
100
AcDbEntity
  8
0
  6
HIDDEN
 62
     7
370
     0
100
AcDbLine
 10
195.8733176827
 20
118.113503568
 30
0.0
 11
187.6393430865
 21
118.113503568
 31
0.0
  0
LINE
  5
FE
330
1F
100
AcDbEntity
  8
0
  6
HIDDEN
 62
     7
370
     0
100
AcDbLine
 10
187.6393430865
 20
100.113503568
 30
0.0
 11
195.8733176827
 21
100.113503568
 31
0.0
  0
LINE
  5
FF
330
1F
100
AcDbEntity
  8
0
  6
HIDDEN
 62
     7
370
     0
100
AcDbLine
 10
103.2656901134
 20
100.388503568
 30
0.0
 11
104.142377575
 21
100.388503568
 31
0.0
  0
LINE
  5
100
330
1F
100
AcDbEntity
  8
0
  6
HIDDEN
 62
     7
370
     0
100
AcDbLine
 10
104.142377575
 20
117.838503568
 30
0.0
 11
103.2656901134
 21
117.838503568
 31
0.0
  0
ARC
  5
101
330
1F
100
AcDbEntity
  8
0
  6
HIDDEN
 62
     7
370
     0
100
AcDbCircle
 10
104.142377575
 20
100.788503568
 30
0.0
 40
0.3999999999999915
100
AcDbArc
 50
270.0
 51
330.0
  0
ARC
  5
102
330
1F
100
AcDbEntity
  8
0
  6
HIDDEN
 62
     7
370
     0
100
AcDbCircle
 10
104.142377575
 20
117.438503568
 30
0.0
 40
0.3999999999999915
100
AcDbArc
 50
30.0
 51
90.0
  0
ARC
  5
103
330
1F
100
AcDbEntity
  8
0
  6
HIDDEN
 62
     7
370
     0
100
AcDbCircle
 10
103.2656901134
 20
100.788503568
 30
0.0
 40
0.3999999999999915
100
AcDbArc
 50
255.0
 51
270.0
  0
ARC
  5
104
330
1F
100
AcDbEntity
  8
0
  6
HIDDEN
 62
     7
370
     0
100
AcDbCircle
 10
103.2656901134
 20
117.438503568
 30
0.0
 40
0.3999999999999915
100
AcDbArc
 50
90.0
 51
105.0
  0
LINE
  5
105
330
1F
100
AcDbEntity
  8
0
  6
HIDDEN
 62
     7
370
     0
100
AcDbLine
 10
103.1621624954
 20
117.8248738985
 30
0.0
 11
102.3733176827
 21
117.613503568
 31
0.0
  0
LINE
  5
106
330
1F
100
AcDbEntity
  8
0
  6
HIDDEN
 62
     7
370
     0
100
AcDbLine
 10
102.3733176827
 20
100.613503568
 30
0.0
 11
103.1621624954
 21
100.4021332375
 31
0.0
  0
LINE
  5
107
330
1F
100
AcDbEntity
  8
0
  6
HIDDEN
 62
     7
370
     0
100
AcDbLine
 10
104.4887877365
 20
100.588503568
 30
0.0
 11
105.369246897
 21
102.113503568
 31
0.0
  0
LINE
  5
108
330
1F
100
AcDbEntity
  8
0
  6
HIDDEN
 62
     7
370
     0
100
AcDbLine
 10
105.369246897
 20
116.113503568
 30
0.0
 11
104.4887877365
 21
117.638503568
 31
0.0
  0
LINE
  5
109
330
1F
100
AcDbEntity
  8
0
  6
HIDDEN
 62
     7
370
     0
100
AcDbLine
 10
96.1733176827
 20
100.613503568
 30
0.0
 11
102.3733176827
 21
100.613503568
 31
0.0
  0
LINE
  5
10A
330
1F
100
AcDbEntity
  8
0
  6
HIDDEN
 62
     7
370
     0
100
AcDbLine
 10
102.3733176827
 20
117.613503568
 30
0.0
 11
96.1733176827
 21
117.613503568
 31
0.0
  0
ARC
  5
10B
330
1F
100
AcDbEntity
  8
0
  6
HIDDEN
 62
     7
370
     0
100
AcDbCircle
 10
182.1733176827
 20
85.013503568
 30
0.0
 40
1.599999999999994
100
AcDbArc
 50
0.0
 51
90.0
  0
LINE
  5
10C
330
1F
100
AcDbEntity
  8
0
  6
HIDDEN
 62
     7
370
     0
100
AcDbLine
 10
183.7733176827
 20
133.213503568
 30
0.0
 11
183.7733176827
 21
139.6134322718
 31
0.0
  0
ARC
  5
10D
330
1F
100
AcDbEntity
  8
0
  6
HIDDEN
 62
     7
370
     0
100
AcDbCircle
 10
182.1733176827
 20
133.213503568
 30
0.0
 40
1.599999999999994
100
AcDbArc
 50
270.0
 51
0.0
  0
LINE
  5
10E
330
1F
100
AcDbEntity
  8
0
  6
HIDDEN
 62
     7
370
     0
100
AcDbLine
 10
183.7733176827
 20
78.613511869
 30
0.0
 11
183.7733176827
 21
85.013503568
 31
0.0
  0
LINE
  5
10F
330
1F
100
AcDbEntity
  8
0
  6
HIDDEN
 62
     7
370
     0
100
AcDbLine
 10
138.3733176827
 20
102.113503568
 30
0.0
 11
140.5364159112
 21
105.713503568
 31
0.0
  0
LINE
  5
110
330
1F
100
AcDbEntity
  8
0
  6
HIDDEN
 62
     7
370
     0
100
AcDbLine
 10
140.5364159112
 20
112.513503568
 30
0.0
 11
138.3733176827
 21
116.113503568
 31
0.0
  0
LINE
  5
111
330
1F
100
AcDbEntity
  8
0
  6
HIDDEN
 62
     7
370
     0
100
AcDbLine
 10
105.369246897
 20
102.113503568
 30
0.0
 11
138.3733176827
 21
102.113503568
 31
0.0
  0
LINE
  5
112
330
1F
100
AcDbEntity
  8
0
  6
HIDDEN
 62
     7
370
     0
100
AcDbLine
 10
138.3733176827
 20
116.113503568
 30
0.0
 11
105.369246897
 21
116.113503568
 31
0.0
  0
LINE
  5
113
330
1F
100
AcDbEntity
  8
0
  6
HIDDEN
 62
     7
370
     0
100
AcDbLine
 10
183.7733167727
 20
139.6135033561
 30
0.0
 11
184.773316142
 21
140.6135031028
 31
0.0
  0
LINE
  5
114
330
1F
100
AcDbEntity
  8
0
  6
HIDDEN
 62
     7
370
     0
100
AcDbLine
 10
184.7733240441
 20
77.6135024303
 30
0.0
 11
183.7733237952
 21
78.6135022348
 31
0.0
  0
LINE
  5
115
330
1F
100
AcDbEntity
  8
0
  6
HIDDEN
 62
     7
370
     0
100
AcDbLine
 10
204.7733176827
 20
122.6024526147
 30
0.0
 11
204.3268949044
 21
122.1560300827
 31
0.0
  0
LINE
  5
116
330
1F
100
AcDbEntity
  8
0
  6
HIDDEN
 62
     7
370
     0
100
AcDbLine
 10
204.3268946311
 20
96.0709777932
 30
0.0
 11
204.7733176827
 21
95.624555024
 31
0.0
  0
LINE
  5
117
330
1F
100
AcDbEntity
  8
0
  6
HIDDEN
 62
     7
370
     0
100
AcDbLine
 10
140.5364159112
 20
105.713503568
 30
0.0
 11
184.2733176827
 21
105.713503568
 31
0.0
  0
LINE
  5
118
330
1F
100
AcDbEntity
  8
0
  6
HIDDEN
 62
     7
370
     0
100
AcDbLine
 10
184.2733176827
 20
112.513503568
 30
0.0
 11
140.5364159112
 21
112.513503568
 31
0.0
  0
LINE
  5
119
330
1F
100
AcDbEntity
  8
0
  6
HIDDEN
 62
     7
370
     0
100
AcDbLine
 10
204.3356542571
 20
122.163503568
 30
0.0
 11
195.8733176827
 21
122.163503568
 31
0.0
  0
LINE
  5
11A
330
1F
100
AcDbEntity
  8
0
  6
HIDDEN
 62
     7
370
     0
100
AcDbLine
 10
195.8733176827
 20
96.063503568
 30
0.0
 11
204.3350353121
 21
96.063503568
 31
0.0
  0
DIMENSION
  5
11B
330
1F
100
AcDbEntity
  8
VERMASSUNG
100
AcDbDimension
  2
_D
 10
212.8097093679
 20
100.113503568
 30
0.0
 11
212.8097093679
 21
109.113503568
 31
0.0
 70
   160
  1
%%c<>
 71
     2
 42
-1.0
  3
SLDDIMSTYLE0
100
AcDbAlignedDimension
 13
195.8733176827
 23
118.113503568
 33
0.0
 14
195.8733176827
 24
100.113503568
 34
0.0
 50
90.0
100
AcDbRotatedDimension
  0
DIMENSION
  5
127
330
1F
100
AcDbEntity
  8
VERMASSUNG
100
AcDbDimension
  2
_D_1
 10
218.9097093679
 20
93.113503568
 30
0.0
 11
218.9097093679
 21
109.113503568
 31
0.0
 70
   160
  1
ST3 %%c<>
 71
     2
 42
-1.0
  3
SLDDIMSTYLE0
100
AcDbAlignedDimension
 13
204.4733176827
 23
125.113503568
 33
0.0
 14
204.4733176827
 24
93.113503568
 34
0.0
 50
90.0
100
AcDbRotatedDimension
  0
DIMENSION
  5
133
330
1F
100
AcDbEntity
  8
VERMASSUNG
100
AcDbDimension
  2
_D_2
 10
204.7733176827
 20
144.8871195737
 30
0.0
 11
196.2733176827
 21
144.8871195737
 31
0.0
 70
   160
  1
(<>)
 71
     2
 42
-1.0
  3
SLDDIMSTYLE0
100
AcDbAlignedDimension
 13
187.7733176827
 23
139.613503568
 33
0.0
 14
204.7733176827
 24
124.813503568
 34
0.0
100
AcDbRotatedDimension
  0
DIMENSION
  5
13F
330
1F
100
AcDbEntity
  8
VERMASSUNG
100
AcDbDimension
  2
_D_3
 10
204.7733176827
 20
150.8871195737
 30
0.0
 11
182.7733176827
 21
150.8871195737
 31
0.0
 70
   160
  1
<>
 71
     2
 42
-1.0
  3
SLDDIMSTYLE0
100
AcDbAlignedDimension
 13
160.7733176827
 23
131.338503568
 33
0.0
 14
204.7733176827
 24
124.813503568
 34
0.0
100
AcDbRotatedDimension
  0
DIMENSION
  5
149
330
1F
100
AcDbEntity
  8
VERMASSUNG
100
AcDbDimension
  2
_D_4
 10
204.7733176827
 20
156.8871195737
 30
0.0
 11
150.0733176827
 21
156.8871195737
 31
0.0
 70
   160
  1
(<>)
 71
     2
 42
-1.0
  3
SLDDIMSTYLE0
100
AcDbAlignedDimension
 13
95.3733176827
 23
120.936259165
 33
0.0
 14
204.7733176827
 24
124.813503568
 34
0.0
100
AcDbRotatedDimension
  0
DIMENSION
  5
155
330
1F
100
AcDbEntity
  8
VERMASSUNG
100
AcDbDimension
  2
_D_5
 10
88.3937711694
 20
77.613503568
 30
0.0
 11
88.3937711694
 21
109.113503568
 31
0.0
 70
   160
  1
MAS BT 40 %%c<>
 71
     2
 42
-1.0
  3
SLDDIMSTYLE0
100
AcDbAlignedDimension
 13
184.7733135386
 23
140.613503568
 33
0.0
 14
184.7733184566
 24
77.613503568
 34
0.0
 50
90.0
100
AcDbRotatedDimension
  0
LINE
  5
161
330
1F
100
AcDbEntity
  8
VERMASSUNG
  6
CENTERX2
370
     0
100
AcDbLine
 10
94.2290107896
 20
109.113503568
 30
0.0
 11
207.693201593
 21
109.113503568
 31
0.0
  0
LINE
  5
162
330
1F
100
AcDbEntity
  8
0
  6
Continuous
 62
     7
370
    15
100
AcDbLine
 10
268.6318530799
 20
41.4647056743
 30
0.0
 11
268.4904087443
 21
41.5463862934
 31
0.0
  0
LINE
  5
163
330
1F
100
AcDbEntity
  8
0
  6
Continuous
 62
     7
370
    15
100
AcDbLine
 10
266.6516323818
 20
41.5463862934
 30
0.0
 11
266.5101880462
 21
41.4647056743
 31
0.0
  0
LINE
  5
164
330
1F
100
AcDbEntity
  8
0
  6
Continuous
 62
     7
370
    15
100
AcDbLine
 10
269.071020563
 20
40.7096044572
 30
0.0
 11
269.071020563
 21
40.8524990993
 31
0.0
  0
LINE
  5
165
330
1F
100
AcDbEntity
  8
0
  6
Continuous
 62
     7
370
    15
100
AcDbLine
 10
266.071020563
 20
40.8524990993
 30
0.0
 11
266.071020563
 21
40.7096044572
 31
0.0
  0
SPLINE
  5
166
330
1F
100
AcDbEntity
  8
0
  6
Continuous
 62
     7
370
    15
100
AcDbSpline
210
0.0
220
0.0
230
1.0
 70
     8
 71
     3
 72
    19
 73
    15
 74
     0
 42
0.000000001
 43
0.00000001
 40
0.0
 40
0.0
 40
0.0
 40
0.0
 40
0.047725063420474
 40
0.1358566801254746
 40
0.2245002129548359
 40
0.3137036354738267
 40
0.4034153405095117
 40
0.4935243875943839
 40
0.5839032627594752
 40
0.6744378476348648
 40
0.7650409202695154
 40
0.8556442088150967
 40
0.9462139704870316
 40
1.0
 40
1.0
 40
1.0
 40
1.0
 10
257.6138200871852
 20
22.30320502087997
 30
0.0
 10
257.7463185134745
 20
22.26709112330217
 30
0.0
 10
258.1234955149784
 20
22.16428739964687
 30
0.0
 10
258.7858641743221
 20
22.09414983343813
 30
0.0
 10
259.5926535932173
 20
22.08593635784078
 30
0.0
 10
260.4299034739802
 20
22.17354618594634
 30
0.0
 10
261.2902006458689
 20
22.35124965508227
 30
0.0
 10
262.1685426882082
 20
22.61976129059141
 30
0.0
 10
263.0588329655469
 20
22.97691219857961
 30
0.0
 10
263.9550151507789
 20
23.42061628316263
 30
0.0
 10
264.8513996170292
 20
23.94664501667253
 30
0.0
 10
265.7411001496503
 20
24.55515331891825
 30
0.0
 10
266.503390004064
 20
25.13662066413534
 30
0.0
 10
266.9597216832461
 20
25.54194821157899
 30
0.0
 10
267.1297479008487
 20
25.692970621212
 30
0.0
  0
SPLINE
  5
167
330
1F
100
AcDbEntity
  8
0
  6
Continuous
 62
     7
370
    15
100
AcDbSpline
210
0.0
220
0.0
230
1.0
 70
     8
 71
     3
 72
    19
 73
    15
 74
     0
 42
0.000000001
 43
0.00000001
 40
0.0
 40
0.0
 40
0.0
 40
0.0
 40
0.0271970852803812
 40
0.1176512244355508
 40
0.2081753193659311
 40
0.2987690850885605
 40
0.3894233014231511
 40
0.4801147002221183
 40
0.5707797608434896
 40
0.6613361616839609
 40
0.7516697651085169
 40
0.8416422620472218
 40
0.9311169512298568
 40
1.0
 40
1.0
 40
1.0
 40
1.0
 10
274.9586103588659
 20
39.23614356585617
 30
0.0
 10
274.9835377326569
 20
39.34930685211339
 30
0.0
 10
275.0913704661372
 20
39.83883722097671
 30
0.0
 10
275.21241943687
 20
40.68711150906933
 30
0.0
 10
275.3185902965209
 20
41.77222433357675
 30
0.0
 10
275.3481445543723
 20
42.82435185860141
 30
0.0
 10
275.3068416314998
 20
43.83850534491388
 30
0.0
 10
275.1926624639307
 20
44.80778106469722
 30
0.0
 10
275.0062944196229
 20
45.72594028832435
 30
0.0
 10
274.7481676662704
 20
46.58637314868617
 30
0.0
 10
274.4203983748146
 20
47.38377818080023
 30
0.0
 10
274.0226825348905
 20
48.10898656799171
 30
0.0
 10
273.6013723732775
 20
48.71939723719898
 30
0.0
 10
273.2847991073207
 20
49.05035389186088
 30
0.0
 10
273.1470948688026
 20
49.19431467128726
 30
0.0
  0
LINE
  5
168
330
1F
100
AcDbEntity
  8
0
  6
Continuous
 62
     7
370
    15
100
AcDbLine
 10
254.6320082233
 20
23.7669727346
 30
0.0
 11
256.1788043071
 21
22.8740263623
 31
0.0
  0
LINE
  5
169
330
1F
100
AcDbEntity
  8
0
  6
Continuous
 62
     7
370
    15
100
AcDbLine
 10
271.9275243461
 20
50.1545655273
 30
0.0
 11
270.3807282623
 21
51.0475118996
 31
0.0
  0
LINE
  5
16A
330
1F
100
AcDbEntity
  8
0
  6
Continuous
 62
     7
370
    15
100
AcDbLine
 10
270.311978738
 20
26.3698943983
 30
0.0
 11
270.4180275165
 21
26.4311349584
 31
0.0
  0
LINE
  5
16B
330
1F
100
AcDbEntity
  8
0
  6
Continuous
 62
     7
370
    15
100
AcDbLine
 10
275.9679135896
 20
36.0448612805
 30
0.0
 11
275.9679135896
 21
36.1673224973
 31
0.0
  0
LINE
  5
16C
330
1F
100
AcDbEntity
  8
0
  6
Continuous
 62
     7
370
    15
100
AcDbLine
 10
274.3107342707
 20
39.830080949
 30
0.0
 11
269.8206062101
 21
42.422176704
 31
0.0
  0
LINE
  5
16D
330
1F
100
AcDbEntity
  8
0
  6
Continuous
 62
     7
370
    15
100
AcDbLine
 10
261.8212563491
 20
28.565394906
 30
0.0
 11
266.3113844096
 21
25.9732991509
 31
0.0
  0
LINE
  5
16E
330
1F
100
AcDbEntity
  8
0
  6
Continuous
 62
     7
370
    15
100
AcDbLine
 10
266.8275166868
 20
53.0987372805
 30
0.0
 11
263.7957963625
 21
54.8489121703
 31
0.0
  0
SPLINE
  5
16F
330
1F
100
AcDbEntity
  8
0
  6
Continuous
 62
     7
370
    15
100
AcDbSpline
210
0.0
220
0.0
230
1.0
 70
     8
 71
     3
 72
    33
 73
    29
 74
     0
 42
0.000000001
 43
0.00000001
 40
0.0
 40
0.0
 40
0.0
 40
0.0
 40
0.0006383653070086
 40
0.0411706760615895
 40
0.0818917969591762
 40
0.1228613453155763
 40
0.1640861039960591
 40
0.205531806479393
 40
0.2471430696062303
 40
0.2888618388264566
 40
0.3306388731970472
 40
0.3724378571054578
 40
0.4142297911836257
 40
0.4560037274251132
 40
0.4977549463653997
 40
0.5394827674960314
 40
0.5811889972756148
 40
0.6228769054689531
 40
0.6645505861889479
 40
0.7062145793558097
 40
0.7478736595505806
 40
0.7895327266535924
 40
0.8311956866729362
 40
0.8728669668269294
 40
0.9145515956103031
 40
0.9562545470890398
 40
0.9979806038129262
 40
1.0
 40
1.0
 40
1.0
 40
1.0
 10
262.4898540092811
 20
55.39658862985071
 30
0.0
 10
262.4861290491093
 20
55.39789608788214
 30
0.0
 10
262.2458917948348
 20
55.48221917136643
 30
0.0
 10
261.731736572063
 20
55.5675700640636
 30
0.0
 10
260.9500032175619
 20
55.64440331097192
 30
0.0
 10
260.1315845184781
 20
55.61923865582983
 30
0.0
 10
259.2873376087243
 20
55.50560427031269
 30
0.0
 10
258.4208383017893
 20
55.30003539823211
 30
0.0
 10
257.5382947336983
 20
55.00463314400167
 30
0.0
 10
256.6455767453479
 20
54.62105600434582
 30
0.0
 10
255.7487296566403
 20
54.15206869887744
 30
0.0
 10
254.8536776957677
 20
53.60099807561122
 30
0.0
 10
253.9661640337712
 20
52.97171590883421
 30
0.0
 10
253.0917329180295
 20
52.26852021258331
 30
0.0
 10
252.2357135971768
 20
51.49605526073239
 30
0.0
 10
251.4032882267558
 20
50.65932387704362
 30
0.0
 10
250.5994863488868
 20
49.76366755021912
 30
0.0
 10
249.8291703224258
 20
48.81474494729247
 30
0.0
 10
249.0970141090368
 20
47.81850701605971
 30
0.0
 10
248.4074808717326
 20
46.78116830379366
 30
0.0
 10
247.7647908549476
 20
45.70917204625625
 30
0.0
 10
247.1729263992528
 20
44.60916885905257
 30
0.0
 10
246.6355107095909
 20
43.48795080670466
 30
0.0
 10
246.1561308479868
 20
42.35248973994239
 30
0.0
 10
245.7370174707302
 20
41.20956312976922
 30
0.0
 10
245.3838866891811
 20
40.06691187080816
 30
0.0
 10
245.1817891955712
 20
39.29000276680364
 30
0.0
 10
245.0968743180743
 20
38.89638558077235
 30
0.0
 10
245.0929544414144
 20
38.87821525696164
 30
0.0
  0
SPLINE
  5
170
330
1F
100
AcDbEntity
  8
0
  6
Continuous
 62
     7
370
    15
100
AcDbSpline
210
0.0
220
0.0
230
1.0
 70
     8
 71
     3
 72
    21
 73
    17
 74
     0
 42
0.000000001
 43
0.00000001
 40
0.0
 40
0.0
 40
0.0
 40
0.0
 40
0.0099309513488899
 40
0.0898407284043805
 40
0.1698641523628643
 40
0.2499042899248675
 40
0.3298682901569529
 40
0.409677187449566
 40
0.4892600004035121
 40
0.568560836674519
 40
0.6475695252066905
 40
0.7263898616536303
 40
0.8052551698709416
 40
0.8847723878021758
 40
0.9661356177603417
 40
1.0
 40
1.0
 40
1.0
 40
1.0
 10
267.5263533526281
 20
33.11951384087958
 30
0.0
 10
267.5356805309882
 20
33.14469116004025
 30
0.0
 10
267.620059204127
 20
33.37245873367934
 30
0.0
 10
267.8190353594718
 20
33.80075148686042
 30
0.0
 10
268.1424675878936
 20
34.38714359576011
 30
0.0
 10
268.5148882354097
 20
34.94193936241651
 30
0.0
 10
268.9239373472618
 20
35.45245848237278
 30
0.0
 10
269.3607966143546
 20
35.90718629699831
 30
0.0
 10
269.8145211150482
 20
36.2961714010795
 30
0.0
 10
270.273811512764
 20
36.61129361129303
 30
0.0
 10
270.7270523512445
 20
36.84685486504849
 30
0.0
 10
271.1624368682799
 20
36.99923446991424
 30
0.0
 10
271.5703849539106
 20
37.06973859875199
 30
0.0
 10
271.9399339322554
 20
37.05484675253186
 30
0.0
 10
272.2109213049097
 20
36.99503555299304
 30
0.0
 10
272.3432092760613
 20
36.9127939691674
 30
0.0
 10
272.382087547817
 20
36.88862389068061
 30
0.0
  0
SPLINE
  5
171
330
1F
100
AcDbEntity
  8
0
  6
Continuous
 62
     7
370
    15
100
AcDbSpline
210
0.0
220
0.0
230
1.0
 70
     8
 71
     3
 72
    10
 73
     6
 74
     0
 42
0.000000001
 43
0.00000001
 40
0.0
 40
0.0
 40
0.0
 40
0.0
 40
0.3145982941608877
 40
0.8565323479907794
 40
1.0
 40
1.0
 40
1.0
 40
1.0
 10
267.9571929495164
 20
29.07803981207926
 30
0.0
 10
267.8964168771084
 20
29.10979845122274
 30
0.0
 10
267.730946583825
 20
29.19626523206498
 30
0.0
 10
267.5722623164228
 20
29.35993766418156
 30
0.0
 10
267.4804850555866
 20
29.50196168380694
 30
0.0
 10
267.4612743241165
 20
29.53169002041739
 30
0.0
  0
LINE
  5
172
330
1F
100
AcDbEntity
  8
0
  6
Continuous
 62
     7
370
    15
100
AcDbLine
 10
254.7833665315
 20
53.5372230519
 30
0.0
 11
234.896298685
 21
60.7037340077
 31
0.0
  0
LINE
  5
173
330
1F
100
AcDbEntity
  8
0
  6
Continuous
 62
     7
370
    15
100
AcDbLine
 10
228.5248292737
 20
49.6668293967
 30
0.0
 11
247.55270336
 21
33.5998498193
 31
0.0
  0
LINE
  5
174
330
1F
100
AcDbEntity
  8
0
  6
Continuous
 62
     7
370
    15
100
AcDbLine
 10
248.0470763235
 20
27.5683730053
 30
0.0
 11
251.0787966478
 21
25.8181981155
 31
0.0
  0
SPLINE
  5
175
330
1F
100
AcDbEntity
  8
0
  6
Continuous
 62
     7
370
    15
100
AcDbSpline
210
0.0
220
0.0
230
1.0
 70
     8
 71
     3
 72
    13
 73
     9
 74
     0
 42
0.000000001
 43
0.00000001
 40
0.0
 40
0.0
 40
0.0
 40
0.0
 40
0.074758039700506
 40
0.3013538295633111
 40
0.5273441696005408
 40
0.7521649770653246
 40
0.9755470205001489
 40
0.9999999999999999
 40
0.9999999999999999
 40
0.9999999999999999
 40
0.9999999999999999
 10
245.0837671740498
 20
31.63501987771066
 30
0.0
 10
245.1113775932778
 20
31.54011805410917
 30
0.0
 10
245.2226767338588
 20
31.15756350760923
 30
0.0
 10
245.4687656056854
 20
30.53115819505355
 30
0.0
 10
245.8453920701025
 20
29.7833993324247
 30
0.0
 10
246.2959978794245
 20
29.11918570011472
 30
0.0
 10
246.641137567765
 20
28.68405868599558
 30
0.0
 10
246.8521110826757
 20
28.49589988018262
 30
0.0
 10
246.8729270713687
 20
28.47733493578219
 30
0.0
  0
SPLINE
  5
176
330
1F
100
AcDbEntity
  8
0
  6
Continuous
 62
     7
370
    15
100
AcDbSpline
210
0.0
220
0.0
230
1.0
 70
     8
 71
     3
 72
    26
 73
    22
 74
     0
 42
0.000000001
 43
0.00000001
 40
0.0
 40
0.0
 40
0.0
 40
0.0
 40
0.0228271131529748
 40
0.0751939704703164
 40
0.1281392377130531
 40
0.182107247429935
 40
0.2371310480696701
 40
0.2929277491073176
 40
0.3491248494615742
 40
0.4054188040541026
 40
0.4616454604853124
 40
0.5177709014850129
 40
0.5738047363974224
 40
0.6297764390751778
 40
0.6857237658136464
 40
0.7416876826086943
 40
0.7976971711791468
 40
0.8537958196439208
 40
0.9100261907742031
 40
0.9664246541936518
 40
1.0
 40
1.0
 40
1.0
 40
1.0
 10
234.9740789063966
 20
60.66122974093059
 30
0.0
 10
234.90830006279
 20
60.69060416571062
 30
0.0
 10
234.6916203455355
 20
60.78736539936686
 30
0.0
 10
234.2818495834236
 20
60.85646933651884
 30
0.0
 10
233.7572364479739
 20
60.87064987648613
 30
0.0
 10
233.2055061924909
 20
60.78890208199761
 30
0.0
 10
232.6357877944279
 20
60.61779925151608
 30
0.0
 10
232.0556172980667
 20
60.35682456623989
 30
0.0
 10
231.4752529713145
 20
60.01051077951603
 30
0.0
 10
230.9047848516215
 20
59.58510784279153
 30
0.0
 10
230.353522730751
 20
59.08846560820543
 30
0.0
 10
229.8297350354294
 20
58.52907314541132
 30
0.0
 10
229.3409181773982
 20
57.91586810958076
 30
0.0
 10
228.8940419208749
 20
57.25828773705285
 30
0.0
 10
228.4955655280924
 20
56.56622280227254
 30
0.0
 10
228.151374717575
 20
55.84995613224491
 30
0.0
 10
227.8668333475833
 20
55.12005774586152
 30
0.0
 10
227.6461487862834
 20
54.38692108893451
 30
0.0
 10
227.4945777307297
 20
53.66167981108796
 30
0.0
 10
227.4216791118528
 20
53.04846925742085
 30
0.0
 10
227.4146030495042
 20
52.68697060512338
 30
0.0
 10
227.4119624895196
 20
52.55207087859345
 30
0.0
  0
SPLINE
  5
177
330
1F
100
AcDbEntity
  8
0
  6
Continuous
 62
     7
370
    15
100
AcDbSpline
210
0.0
220
0.0
230
1.0
 70
     8
 71
     3
 72
    13
 73
     9
 74
     0
 42
0.000000001
 43
0.00000001
 40
0.0
 40
0.0
 40
0.0
 40
0.0
 40
0.1021084882127055
 40
0.2951720742528524
 40
0.4882789934689488
 40
0.6799678763046708
 40
0.8686452454007262
 40
1.0
 40
1.0
 40
1.0
 40
1.0
 10
227.4119624895196
 20
52.55207087859345
 30
0.0
 10
227.4140808098227
 20
52.43372556746395
 30
0.0
 10
227.420204384941
 20
52.09161658538376
 30
0.0
 10
227.4888615159138
 20
51.55584333641299
 30
0.0
 10
227.6429323836211
 20
50.96842915048778
 30
0.0
 10
227.876747389893
 20
50.44643780238411
 30
0.0
 10
228.1454267433883
 20
50.03010446960456
 30
0.0
 10
228.3642236307165
 20
49.82671385560116
 30
0.0
 10
228.4540271514076
 20
49.74323372278909
 30
0.0
  0
LWPOLYLINE
  5
178
330
1F
100
AcDbEntity
  8
0
  6
Continuous
 62
     7
370
    15
100
AcDbPolyline
 90
       22
 70
   128
 43
0.0
 10
267.5411550798
 20
41.7660832189
 10
267.9255625151
 20
41.7378324303
 10
268.2784673421
 20
41.6454265369
 10
268.5685124182
 20
41.4970762078
 10
268.7699259655
 20
41.3059630209
 10
268.8648115066
 20
41.0890682214
 10
268.8447380445
 20
40.8656638642
 10
268.7114891947
 20
40.6556004067
 10
268.476904702
 20
40.4775429091
 10
268.1618284282
 20
40.3473125613
 10
267.7942562829
 20
40.2764809012
 10
267.4068486642
 20
40.2713416328
 10
267.0340284391
 20
40.3323514026
 10
266.7089223209
 20
40.4540892247
 10
266.4604174147
 20
40.6257381595
 10
266.310594472
 20
40.8320464458
 10
266.2727659188
 20
41.054682687
 10
266.3502929881
 20
41.2738646761
 10
266.5362870594
 20
41.4701171314
 10
266.8142217434
 20
41.6260021611
 10
267.1594013237
 20
41.7276686962
 10
267.5411550798
 20
41.7660832189
  0
LWPOLYLINE
  5
179
330
1F
100
AcDbEntity
  8
0
  6
Continuous
 62
     7
370
    15
100
AcDbPolyline
 90
       20
 70
   128
 43
0.0
 10
268.6318530799
 20
41.4647056743
 10
268.6434642818
 20
41.4579262592
 10
268.8866429679
 20
41.2684418817
 10
269.0322479587
 20
41.0481089309
 10
269.0694803983
 20
40.8132684937
 10
268.995578927
 20
40.5813376111
 10
268.8160244787
 20
40.3695175355
 10
268.5441337854
 20
40.1935179931
 10
268.2000717362
 20
40.0663920646
 10
267.8093558392
 20
39.9975680988
 10
267.400963705
 20
39.9921504542
 10
267.0051839101
 20
40.0505409327
 10
266.6513696312
 20
40.1684089798
 10
266.3657616547
 20
40.3370128615
 10
266.1695422178
 20
40.5438479993
 10
266.0772640185
 20
40.7735743772
 10
266.0957709085
 20
41.0091542407
 10
266.2236903166
 20
41.233115709
 10
266.4515350455
 20
41.4288485846
 10
266.5101880462
 20
41.4647056743
  0
LWPOLYLINE
  5
17A
330
1F
100
AcDbEntity
  8
0
  6
Continuous
 62
     7
370
    15
100
AcDbPolyline
 90
       19
 70
   128
 43
0.0
 10
267.5491957868
 20
41.5640858458
 10
267.8753453639
 20
41.535329773
 10
268.1647888787
 20
41.443911618
 10
268.3826151715
 20
41.3008577595
 10
268.5025511766
 20
41.123422604
 10
268.5101308419
 20
40.9330074501
 10
268.4044399477
 20
40.7525791754
 10
268.1982263758
 20
40.6039000927
 10
267.9163625262
 20
40.5049030937
 10
267.5928453393
 20
40.4675286776
 10
267.2666957622
 20
40.4962847504
 10
266.9772522474
 20
40.5877029054
 10
266.7594259546
 20
40.7307567639
 10
266.6394899494
 20
40.9081919194
 10
266.6319102842
 20
41.0986070733
 10
266.7376011784
 20
41.279035348
 10
266.9438147503
 20
41.4277144307
 10
267.2256785998
 20
41.5267114297
 10
267.5491957868
 20
41.5640858458
  0
SPLINE
  5
17B
330
1F
100
AcDbEntity
  8
0
  6
Continuous
 62
     7
370
    15
100
AcDbSpline
210
0.0
220
0.0
230
1.0
 70
     8
 71
     3
 72
    11
 73
     7
 74
     0
 42
0.000000001
 43
0.00000001
 40
0.0
 40
0.0
 40
0.0
 40
0.0
 40
0.1183358584681214
 40
0.4755396850857864
 40
0.8141708872487067
 40
1.0
 40
1.0
 40
1.0
 40
1.0
 10
267.120892057317
 20
41.37434735066139
 30
0.0
 10
267.152958244111
 20
41.36231123187461
 30
0.0
 10
267.281818122827
 20
41.31394337270147
 30
0.0
 10
267.525296309573
 20
41.26683039329002
 30
0.0
 10
267.7931537276195
 20
41.30989455331235
 30
0.0
 10
267.9360553551631
 20
41.36596551699707
 30
0.0
 10
267.98668889578
 20
41.38583283037873
 30
0.0
  0
SPLINE
  5
17C
330
1F
100
AcDbEntity
  8
0
  6
Continuous
 62
     7
370
    15
100
AcDbSpline
210
0.0
220
0.0
230
1.0
 70
     8
 71
     3
 72
    10
 73
     6
 74
     0
 42
0.000000001
 43
0.00000001
 40
0.0
 40
0.0
 40
0.0
 40
0.0
 40
0.4391165375904227
 40
0.7513669429073423
 40
1.0
 40
1.0
 40
1.0
 40
1.0
 10
266.7052237245772
 20
40.93575309701648
 30
0.0
 10
266.7647298508859
 20
40.95659777343184
 30
0.0
 10
266.8665500566432
 20
40.99226484459258
 30
0.0
 10
267.0145637092127
 20
41.18034288694064
 30
0.0
 10
267.0882346110414
 20
41.31476126224633
 30
0.0
 10
267.120892057317
 20
41.37434735066139
 30
0.0
  0
SPLINE
  5
17D
330
1F
100
AcDbEntity
  8
0
  6
Continuous
 62
     7
370
    15
100
AcDbSpline
210
0.0
220
0.0
230
1.0
 70
     8
 71
     3
 72
     9
 73
     5
 74
     0
 42
0.000000001
 43
0.00000001
 40
0.0
 40
0.0
 40
0.0
 40
0.0
 40
0.539265234525422
 40
0.9999999999999999
 40
0.9999999999999999
 40
0.9999999999999999
 40
0.9999999999999999
 10
266.9486803356949
 20
40.61334170272706
 30
0.0
 10
266.9027590832522
 20
40.65979352059063
 30
0.0
 10
266.8176038581373
 20
40.74593261298816
 30
0.0
 10
266.7406698820204
 20
40.87588124467329
 30
0.0
 10
266.7052237245772
 20
40.93575309701648
 30
0.0
  0
SPLINE
  5
17E
330
1F
100
AcDbEntity
  8
0
  6
Continuous
 62
     7
370
    15
100
AcDbSpline
210
0.0
220
0.0
230
1.0
 70
     8
 71
     3
 72
     9
 73
     5
 74
     0
 42
0.000000001
 43
0.00000001
 40
0.0
 40
0.0
 40
0.0
 40
0.0
 40
0.589296285773579
 40
1.0
 40
1.0
 40
1.0
 40
1.0
 10
268.4368174015033
 20
40.95872405645117
 30
0.0
 10
268.3769200472963
 20
40.85182817980273
 30
0.0
 10
268.2752778756875
 20
40.67043237054845
 30
0.0
 10
268.1677777707544
 20
40.59214742063796
 30
0.0
 10
268.1236270783787
 20
40.55999550094169
 30
0.0
  0
SPLINE
  5
17F
330
1F
100
AcDbEntity
  8
0
  6
Continuous
 62
     7
370
    15
100
AcDbSpline
210
0.0
220
0.0
230
1.0
 70
     8
 71
     3
 72
    10
 73
     6
 74
     0
 42
0.000000001
 43
0.00000001
 40
0.0
 40
0.0
 40
0.0
 40
0.0
 40
0.4391165375904109
 40
0.7513669429073436
 40
1.0
 40
1.0
 40
1.0
 40
1.0
 10
267.98668889578
 20
41.38583283037873
 30
0.0
 10
268.0511282615123
 20
41.28274544450526
 30
0.0
 10
268.1613896729791
 20
41.10635387792686
 30
0.0
 10
268.3216741089346
 20
40.98616723648987
 30
0.0
 10
268.4014525532941
 20
40.96715289216357
 30
0.0
 10
268.4368174015033
 20
40.95872405645117
 30
0.0
  0
LINE
  5
180
330
1F
100
AcDbEntity
  8
0
  6
Continuous
 62
     7
370
    15
100
AcDbLine
 10
267.1208920573
 20
40.532853617
 30
0.0
 11
267.1208920573
 21
41.3743473507
 31
0.0
  0
LINE
  5
181
330
1F
100
AcDbEntity
  8
0
  6
Continuous
 62
     7
370
    15
100
AcDbLine
 10
267.9866888958
 20
40.5226670814
 30
0.0
 11
267.9866888958
 21
41.3858328304
 31
0.0
  0
ARC
  5
182
330
1F
100
AcDbEntity
  8
0
  6
Continuous
 62
     7
370
    15
100
AcDbCircle
 10
269.2520433358
 20
45.5199420763
 30
0.0
 40
5.350164802895206
100
AcDbArc
 50
44.283467161
 51
75.6300818381
  0
ARC
  5
183
330
1F
100
AcDbEntity
  8
0
  6
Continuous
 62
     7
370
    15
100
AcDbCircle
 10
258.8516523155
 20
27.5041167133
 30
0.0
 40
5.345122629213711
100
AcDbArc
 50
224.2265513917
 51
255.658963121
  0
ARC
  5
184
330
1F
100
AcDbEntity
  8
0
  6
Continuous
 62
     7
370
    15
100
AcDbCircle
 10
258.4138345191
 20
29.5273178542
 30
0.0
 40
6.890847990550827
100
AcDbArc
 50
188.312493873
 51
236.7139908619
  0
SPLINE
  5
185
330
1F
100
AcDbEntity
  8
0
  6
Continuous
 62
     7
370
    15
100
AcDbSpline
210
0.0
220
0.0
230
1.0
 70
     8
 71
     3
 72
    29
 73
    25
 74
     0
 42
0.000000001
 43
0.00000001
 40
0.0
 40
0.0
 40
0.0
 40
0.0
 40
0.0226170105016674
 40
0.0451713142211041
 40
0.0676870228449807
 40
0.090188372120831
 40
0.1126996441629423
 40
0.1352450890127045
 40
0.1578488467149011
 40
0.1805348711521328
 40
0.2033268568146046
 40
0.2262481695760157
 40
0.2493217824052029
 40
0.3751991801868492
 40
0.499961424646005
 40
0.4999717960761217
 40
0.6247044141102638
 40
0.7509557879397657
 40
0.7931713871186022
 40
0.8349081045046313
 40
0.8763104515914815
 40
0.9175264576320521
 40
0.9587061619408423
 40
1.0
 40
1.0
 40
1.0
 40
1.0
 10
251.595541141709
 20
33.68534771062217
 30
0.0
 10
251.6139063668312
 20
33.63650782082374
 30
0.0
 10
251.6505858985789
 20
33.53896345224121
 30
0.0
 10
251.7022757272419
 20
33.39150084284369
 30
0.0
 10
251.7514570870631
 20
33.2435635533264
 30
0.0
 10
251.797946756961
 20
33.09507168809744
 30
0.0
 10
251.8418568534196
 20
32.94607972196627
 30
0.0
 10
251.8832220448749
 20
32.7966079333881
 30
0.0
 10
251.9220993315802
 20
32.64668783007815
 30
0.0
 10
251.9585411766036
 20
32.49634902009453
 30
0.0
 10
251.9926031576923
 20
32.34562656846595
 30
0.0
 10
252.0243402107918
 20
32.1945448717257
 30
0.0
 10
252.0974984826663
 20
31.81882366477419
 30
0.0
 10
252.1831750227057
 20
31.23005324305771
 30
0.0
 10
252.2089073845225
 20
30.72856963905129
 30
0.0
 10
252.2093445407577
 20
30.25811681380756
 30
0.0
 10
252.1839134840382
 20
29.81167428391992
 30
0.0
 10
252.0919461680001
 20
29.37564761243017
 30
0.0
 10
251.999392273955
 20
29.1074547298076
 30
0.0
 10
251.9358096500662
 20
28.96120361897312
 30
0.0
 10
251.8641641460306
 20
28.83028328712725
 30
0.0
 10
251.783909371718
 20
28.71483695467665
 30
0.0
 10
251.6955077121239
 20
28.6133149502317
 30
0.0
 10
251.6291510582121
 20
28.55831607326912
 30
0.0
 10
251.5959268163267
 20
28.5307785787767
 30
0.0
  0
LWPOLYLINE
  5
186
330
1F
100
AcDbEntity
  8
0
  6
Continuous
 62
     7
370
    15
100
AcDbPolyline
 90
       27
 70
   128
 43
0.0
 10
251.5953224006
 20
33.6854739872
 10
251.8259604151
 20
34.8859703236
 10
252.1347465124
 20
36.1049146983
 10
252.5194213181
 20
37.3333881479
 10
252.9771701831
 20
38.5624019853
 10
253.5046437787
 20
39.7829635694
 10
254.0979826035
 20
40.9861421035
 10
254.7528452229
 20
42.1631339826
 10
255.4644400354
 20
43.3053272077
 10
256.2275603325
 20
44.4043644003
 10
257.0366223959
 20
45.4522039529
 10
257.8857063534
 20
46.4411788686
 10
258.7685994945
 20
47.3640528607
 10
259.678841728
 20
48.2140733001
 10
260.6097728509
 20
48.9850206238
 10
261.5545812804
 20
49.6712538437
 10
262.506353894
 20
50.2677518209
 10
263.4581266126
 20
50.7701500055
 10
264.4029353564
 20
51.1747723716
 10
265.3338670004
 20
51.4786583148
 10
266.2441099581
 20
51.6795843149
 10
267.1270040212
 20
51.776080205
 10
267.9760890918
 20
51.7674399288
 10
268.7851524511
 20
51.6537267068
 10
269.5482742176
 20
51.4357725738
 10
270.2598706622
 20
51.1151722908
 10
270.3807282623
 20
51.0475118996
  0
LWPOLYLINE
  5
187
330
1F
100
AcDbEntity
  8
0
  6
Continuous
 62
     7
370
    15
100
AcDbPolyline
 90
       54
 70
   128
 43
0.0
 10
270.4171253573
 20
39.2503048149
 10
269.760616032
 20
38.8263199592
 10
269.1133226585
 20
38.3183067431
 10
268.4843318169
 20
37.7333965584
 10
267.8824731599
 20
37.0798002621
 10
267.3161954637
 20
36.3666929134
 10
266.7934480259
 20
35.6040849764
 10
266.3215690746
 20
34.8026817948
 10
265.907182756
 20
33.9737333125
 10
265.5561061456
 20
33.1288761494
 10
265.2732675894
 20
32.2799702478
 10
265.0626375208
 20
31.4389323859
 10
264.9271727242
 20
30.6175688917
 10
264.8687748285
 20
29.8274099082
 10
264.8882636121
 20
29.0795475355
 10
264.9853654952
 20
28.3844801218
 10
265.1587173802
 20
27.7519648903
 10
265.4058857866
 20
27.190880968
 10
265.7234010118
 20
26.7091047436
 10
266.106805838
 20
26.313399299
 10
266.550718102
 20
26.0093194713
 10
267.0489062485
 20
25.8011338747
 10
267.5943768082
 20
25.6917649787
 10
268.1794725699
 20
25.6827480829
 10
268.7959800717
 20
25.7742097646
 10
269.4352448998
 20
25.9648661024
 10
270.0882931771
 20
26.2520406991
 10
270.7459575375
 20
26.6317022531
 10
271.3990058149
 20
27.0985211481
 10
272.0382706429
 20
27.6459442704
 10
272.6547781448
 20
28.2662869991
 10
273.2398739065
 20
28.9508410822
 10
273.7853444661
 20
29.6899968809
 10
274.2835326126
 20
30.4733782681
 10
274.7274448766
 20
31.2899882863
 10
275.1108497028
 20
32.1283635208
 10
275.428364928
 20
32.976735021
 10
275.6755333345
 20
33.8231935109
 10
275.8488852194
 20
34.6558565686
 10
275.9459871025
 20
35.4630354301
 10
275.9654758861
 20
36.2333990734
 10
275.9070779904
 20
36.9561332817
 10
275.7716131938
 20
37.621092451
 10
275.5609831253
 20
38.2189420121
 10
275.2781445691
 20
38.7412894677
 10
274.9270679587
 20
39.1808022045
 10
274.51268164
 20
39.5313104271
 10
274.0408026888
 20
39.7878937684
 10
273.518055251
 20
39.9469503607
 10
272.9517775548
 20
40.0062473981
 10
272.3499188978
 20
39.9649524802
 10
271.7209280562
 20
39.8236452972
 10
271.0736346827
 20
39.584309492
 10
270.4171253573
 20
39.2503048149
  0
LWPOLYLINE
  5
188
330
1F
100
AcDbEntity
  8
0
  6
Continuous
 62
     7
370
    15
100
AcDbPolyline
 90
       28
 70
   128
 43
0.0
 10
270.3110593401
 20
39.434016545
 10
269.6420052506
 20
39.001930068
 10
268.9823432139
 20
38.4842095929
 10
268.3413334391
 20
37.8881227805
 10
267.7279742981
 20
37.222037383
 10
267.150876009
 20
36.4953037792
 10
266.6181397667
 20
35.718123716
 10
266.1372440202
 20
34.9014070978
 10
265.7149394916
 20
34.0566188357
 10
265.3571544109
 20
33.195617905
 10
265.0689112964
 20
32.3304908716
 10
264.8542564494
 20
31.4733822225
 10
264.7162031536
 20
30.6363238845
 10
264.6566893745
 20
29.8310663217
 10
264.6765505552
 20
29.0689135851
 10
264.7755078883
 20
28.3605646286
 10
264.9521722297
 20
27.7159631187
 10
265.2040635993
 20
27.1441578476
 10
265.5276459944
 20
26.6531757081
 10
265.9183770275
 20
26.2499090129
 10
266.3707716914
 20
25.9400187427
 10
266.8784793567
 20
25.7278550774
 10
267.4343729206
 20
25.6163963299
 10
268.0306488561
 20
25.6072071366
 10
268.6589367561
 20
25.7004164938
 10
269.3104168356
 20
25.8947159463
 10
269.9759437425
 20
26.1873779558
 10
270.311978738
 20
26.3698943983
  0
LWPOLYLINE
  5
189
330
1F
100
AcDbEntity
  8
0
  6
Continuous
 62
     7
370
    15
100
AcDbPolyline
 90
       15
 70
   128
 43
0.0
 10
275.9679135896
 20
36.1673224973
 10
275.9654293058
 20
36.3594629232
 10
275.9059155267
 20
37.0960073393
 10
275.7678622309
 20
37.7736727347
 10
275.5532073839
 20
38.3829461728
 10
275.2649642693
 20
38.9152747899
 10
274.9071791886
 20
39.3631858593
 10
274.4848746601
 20
39.7203916912
 10
274.0039789136
 20
39.9818778989
 10
273.4712426712
 20
40.1439737892
 10
272.8941443821
 20
40.204403891
 10
272.2807852412
 20
40.1623198983
 10
271.6397754664
 20
40.018312578
 10
270.9801134297
 20
39.7744034772
 10
270.3110593401
 20
39.434016545
  0
SPLINE
  5
18A
330
1F
100
AcDbEntity
  8
0
  6
Continuous
 62
     7
370
    15
100
AcDbSpline
210
0.0
220
0.0
230
1.0
 70
     8
 71
     3
 72
     8
 73
     4
 74
     0
 42
0.000000001
 43
0.00000001
 40
0.0
 40
0.0
 40
0.0
 40
0.0
 40
1.0
 40
1.0
 40
1.0
 40
1.0
 10
250.8173860035339
 20
36.96425111412652
 30
0.0
 10
250.1243147684811
 20
36.8483894957518
 30
0.0
 10
249.4306940020849
 20
36.73363080259875
 30
0.0
 10
248.7367148412575
 20
36.6196192549606
 30
0.0
  0
SPLINE
  5
18B
330
1F
100
AcDbEntity
  8
0
  6
Continuous
 62
     7
370
    15
100
AcDbSpline
210
0.0
220
0.0
230
1.0
 70
     8
 71
     3
 72
     8
 73
     4
 74
     0
 42
0.000000001
 43
0.00000001
 40
0.0
 40
0.0
 40
0.0
 40
0.0
 40
0.0012389803509652
 40
0.0012389803509652
 40
0.0012389803509652
 40
0.0012389803509652
 10
248.262978427112
 20
36.89315337571459
 30
0.0
 10
248.421051762093
 20
36.80188229526409
 30
0.0
 10
248.578969941059
 20
36.71070076816384
 30
0.0
 10
248.7367148412575
 20
36.6196192549606
 30
0.0
  0
LWPOLYLINE
  5
18C
330
1F
100
AcDbEntity
  8
0
  6
Continuous
 62
     7
370
    15
100
AcDbPolyline
 90
       28
 70
   128
 43
0.0
 10
248.2629784271
 20
36.8931533757
 10
248.5697939048
 20
38.1145537628
 10
248.952952827
 20
39.3458352473
 10
249.4096380262
 20
40.5779448594
 10
249.9364917345
 20
41.8018235404
 10
250.5296402719
 20
43.0084727497
 10
251.1847225269
 20
44.1890206254
 10
251.8969220216
 20
45.3347872157
 10
252.6610023251
 20
46.437348297
 10
253.4713455538
 20
47.4885973134
 10
254.3219936773
 20
48.4808049799
 10
255.2066923239
 20
49.4066761115
 10
256.1189367666
 20
50.2594032614
 10
257.0520197483
 20
51.032716772
 10
257.999080797
 20
51.7209308729
 10
258.9531566673
 20
52.3189854852
 10
259.9072325377
 20
52.8224834257
 10
260.8542935864
 20
53.2277227368
 10
261.787376568
 20
53.5317239055
 10
262.6996210107
 20
53.7322517699
 10
263.5843196574
 20
53.8278319535
 10
264.4349677808
 20
53.817761705
 10
265.2453110096
 20
53.7021150656
 10
266.0093913131
 20
53.4817423249
 10
266.7215908078
 20
53.1582637683
 10
267.3766730627
 20
52.7340577649
 10
267.9698216001
 20
52.2122432798
 10
268.4011536854
 20
51.7215342394
  0
SPLINE
  5
18D
330
1F
100
AcDbEntity
  8
0
  6
Continuous
 62
     7
370
    15
100
AcDbSpline
210
0.0
220
0.0
230
1.0
 70
    11
 71
     3
 72
    66
 73
    62
 74
     0
 42
0.000000001
 43
0.00000001
 40
0.0
 40
0.0
 40
0.0
 40
0.0
 40
0.0312499999999998
 40
0.0312499999999998
 40
0.0624999999999996
 40
0.0624999999999996
 40
0.0937499999999995
 40
0.0937499999999995
 40
0.1249999999999993
 40
0.1249999999999993
 40
0.1562499999999991
 40
0.1562499999999991
 40
0.1874999999999989
 40
0.1874999999999989
 40
0.2187499999999987
 40
0.2187499999999987
 40
0.2499999999999986
 40
0.2499999999999986
 40
0.2812499999999984
 40
0.2812499999999984
 40
0.3124999999999982
 40
0.3124999999999982
 40
0.3437499999999979
 40
0.3437499999999979
 40
0.3749999999999977
 40
0.3749999999999977
 40
0.4062499999999975
 40
0.4062499999999975
 40
0.4374999999999973
 40
0.4374999999999973
 40
0.468749999999997
 40
0.468749999999997
 40
0.4999999999999968
 40
0.4999999999999968
 40
0.5312499999999966
 40
0.5312499999999966
 40
0.5624999999999964
 40
0.5624999999999964
 40
0.6249999999999968
 40
0.6249999999999968
 40
0.6562499999999971
 40
0.6562499999999971
 40
0.6874999999999973
 40
0.6874999999999973
 40
0.7187499999999977
 40
0.7187499999999977
 40
0.7499999999999979
 40
0.7499999999999979
 40
0.7812499999999981
 40
0.7812499999999981
 40
0.8124999999999984
 40
0.8124999999999984
 40
0.8437499999999987
 40
0.8437499999999987
 40
0.8749999999999989
 40
0.8749999999999989
 40
0.9062499999999992
 40
0.9062499999999992
 40
0.9374999999999994
 40
0.9374999999999994
 40
1.0
 40
1.0
 40
1.0
 40
1.0
 10
267.5676468033966
 20
41.9604769939889
 30
0.0
 10
267.6845916612504
 20
41.94413212584909
 30
0.0
 10
267.7985709555082
 20
41.92188585257165
 30
0.0
 10
268.0212182811395
 20
41.86758186666615
 30
0.0
 10
268.130632881709
 20
41.83524183497514
 30
0.0
 10
268.3406109077375
 20
41.76253202223604
 30
0.0
 10
268.4399027933498
 20
41.72269302724227
 30
0.0
 10
268.6275757190266
 20
41.63682728719905
 30
0.0
 10
268.7167138506773
 20
41.59031154724135
 30
0.0
 10
268.8789415675579
 20
41.49362593225778
 30
0.0
 10
268.9521109490284
 20
41.44356915654492
 30
0.0
 10
269.0826682952465
 20
41.33981054983167
 30
0.0
 10
269.1404684159816
 20
41.28554718525093
 30
0.0
 10
269.2357339137945
 20
41.1761584860714
 30
0.0
 10
269.2736121999074
 20
41.12089745891713
 30
0.0
 10
269.3293436771086
 20
41.0082826545645
 30
0.0
 10
269.3471364462522
 20
40.95033666854199
 30
0.0
 10
269.3597015912893
 20
40.83571070823182
 30
0.0
 10
269.3548882448725
 20
40.77865950863817
 30
0.0
 10
269.3215853134679
 20
40.66393750070155
 30
0.0
 10
269.2925203963445
 20
40.60588888346349
 30
0.0
 10
269.2115626943984
 20
40.49415845923487
 30
0.0
 10
269.1596410216961
 20
40.43974783981422
 30
0.0
 10
269.0309504338903
 20
40.33338791339049
 30
0.0
 10
268.9553793842264
 20
40.28266648478702
 30
0.0
 10
268.7866402396506
 20
40.18892101674516
 30
0.0
 10
268.6914254185
 20
40.14489772810834
 30
0.0
 10
268.4895240908879
 20
40.06747102456116
 30
0.0
 10
268.382960348771
 20
40.03385311055708
 30
0.0
 10
268.1589275315479
 20
39.97717762425687
 30
0.0
 10
268.0440243149718
 20
39.95484271281958
 30
0.0
 10
267.812359152169
 20
39.92276008521358
 30
0.0
 10
267.6939245834589
 20
39.91290795168891
 30
0.0
 10
267.4619224742568
 20
39.90677619521023
 30
0.0
 10
267.3477655240472
 20
39.91029625469056
 30
0.0
 10
267.1228868432399
 20
39.93103839402323
 30
0.0
 10
267.0130691482142
 20
39.94831984818743
 30
0.0
 10
266.700215469664
 20
40.01957530499831
 30
0.0
 10
266.5074612468717
 20
40.09495311264038
 30
0.0
 10
266.2650820003919
 20
40.24150183749946
 30
0.0
 10
266.1910860194012
 20
40.29625213793039
 30
0.0
 10
266.0589760905629
 20
40.41657648051894
 30
0.0
 10
266.0022629385791
 20
40.48077696577838
 30
0.0
 10
265.907176261393
 20
40.61655229870576
 30
0.0
 10
265.8686034286619
 20
40.68864967970796
 30
0.0
 10
265.8123826292953
 20
40.83770495411295
 30
0.0
 10
265.7950595509494
 20
40.91336217676592
 30
0.0
 10
265.7823431879379
 20
41.06599635821114
 30
0.0
 10
265.7871581540905
 20
41.14386184463777
 30
0.0
 10
265.8208277700178
 20
41.29558383343387
 30
0.0
 10
265.8492224386993
 20
41.36874084188401
 30
0.0
 10
265.9301371447552
 20
41.50850835262698
 30
0.0
 10
265.9836894378432
 20
41.57585438028422
 30
0.0
 10
266.1116650303971
 20
41.69595565217651
 30
0.0
 10
266.186121468017
 20
41.7494260763517
 30
0.0
 10
266.356861644033
 20
41.84245107640971
 30
0.0
 10
266.4514159674373
 20
41.88082396128619
 30
0.0
 10
266.6528557463874
 20
41.9402405712011
 30
0.0
 10
266.7618246268416
 20
41.96174060287514
 30
0.0
 10
267.0958897741048
 20
42.00048496290037
 30
0.0
 10
267.333757087689
 20
41.99316673026854
 30
0.0
 10
267.5676468033966
 20
41.96047699398891
 30
0.0
  0
LINE
  5
18E
330
1F
100
AcDbEntity
  8
0
  6
Continuous
 62
     7
370
    15
100
AcDbLine
 10
273.4608887429
 20
32.7729314363
 30
0.0
 11
274.6597660444
 21
34.2643234019
 31
0.0
  0
SPLINE
  5
18F
330
1F
100
AcDbEntity
  8
0
  6
Continuous
 62
     7
370
    15
100
AcDbSpline
210
0.0
220
0.0
230
1.0
 70
     8
 71
     3
 72
    22
 73
    18
 74
     0
 42
0.000000001
 43
0.00000001
 40
0.0
 40
0.0
 40
0.0
 40
0.0
 40
0.0416666666666667
 40
0.0833333333333335
 40
0.1250000000000036
 40
0.166666666666668
 40
0.2083333333333337
 40
0.2499999999998967
 40
0.2968749999997767
 40
0.34375
 40
0.3906250000000001
 40
0.4374999999999999
 40
0.4847037825276523
 40
0.4847037825276523
 40
0.53125
 40
0.624999999999985
 40
0.8414337678077748
 40
0.8414337678077748
 40
0.8414337678077748
 40
0.8414337678077748
 10
274.6597660444344
 20
34.26432340188211
 30
0.0
 10
274.7052453722475
 20
34.32089925331781
 30
0.0
 10
274.7945157821892
 20
34.44281986191093
 30
0.0
 10
274.9190084917059
 20
34.64972753425214
 30
0.0
 10
275.0286501397612
 20
34.87869990643688
 30
0.0
 10
275.1156557355364
 20
35.12210427557091
 30
0.0
 10
275.1723313421899
 20
35.3690731406447
 30
0.0
 10
275.1936007861676
 20
35.61711947616343
 30
0.0
 10
275.1703672535698
 20
35.84948232919241
 30
0.0
 10
275.0972821298184
 20
36.04761297650752
 30
0.0
 10
274.9824155674288
 20
36.19295086305165
 30
0.0
 10
274.833111967191
 20
36.28359049374395
 30
0.0
 10
274.7221885875844
 20
36.30939409392582
 30
0.0
 10
274.6117068040519
 20
36.31980357537049
 30
0.0
 10
274.4634731346134
 20
36.33216330939474
 30
0.0
 10
274.1823777395542
 20
36.35805806646626
 30
0.0
 10
273.7653795695483
 20
36.39527594976392
 30
0.0
 10
273.4607827955731
 20
36.42241633833187
 30
0.0
  0
SPLINE
  5
190
330
1F
100
AcDbEntity
  8
0
  6
Continuous
 62
     7
370
    15
100
AcDbSpline
210
0.0
220
0.0
230
1.0
 70
     8
 71
     3
 72
    22
 73
    18
 74
     0
 42
0.000000001
 43
0.00000001
 40
0.0
 40
0.0
 40
0.0
 40
0.0
 40
0.0416666666666667
 40
0.0833333333333335
 40
0.1250000000000036
 40
0.166666666666668
 40
0.2083333333333337
 40
0.2499999999998967
 40
0.2968749999997767
 40
0.34375
 40
0.3906250000000001
 40
0.4374999999999999
 40
0.4847037825276523
 40
0.4847037825276523
 40
0.53125
 40
0.624999999999985
 40
0.8393173095866369
 40
0.8393173095866369
 40
0.8393173095866369
 40
0.8393173095866369
 10
266.1744846701979
 20
29.36587473094707
 30
0.0
 10
266.1298120133573
 20
29.3698691396412
 30
0.0
 10
266.0393605553321
 20
29.38882593049964
 30
0.0
 10
265.9153425363555
 20
29.45195493458485
 30
0.0
 10
265.805573698265
 20
29.55434913036281
 30
0.0
 10
265.7186021720904
 20
29.69729591859501
 30
0.0
 10
265.6619174770699
 20
29.87882937819116
 30
0.0
 10
265.6406504121209
 20
30.10231815077894
 30
0.0
 10
265.6638837358639
 20
30.36150661253145
 30
0.0
 10
265.7369669939187
 20
30.64401694778434
 30
0.0
 10
265.8518412359826
 20
30.9219865720496
 30
0.0
 10
266.0011159157607
 20
31.18497247526592
 30
0.0
 10
266.1121116892577
 20
31.33893553994839
 30
0.0
 10
266.222622209991
 20
31.47694032349104
 30
0.0
 10
266.3708348359527
 20
31.66042083626996
 30
0.0
 10
266.648731954018
 20
32.00687828547902
 30
0.0
 10
267.0706753778096
 20
32.53170926388564
 30
0.0
 10
267.3734697019398
 20
32.90828925497295
 30
0.0
  0
LINE
  5
191
330
1F
100
AcDbEntity
  8
0
  6
Continuous
 62
     7
370
    15
100
AcDbLine
 10
267.3733619717
 20
29.2586770343
 30
0.0
 11
266.1744846702
 21
29.3658747309
 31
0.0
  0
LINE
  5
192
330
1F
100
AcDbEntity
  8
0
  6
Continuous
 62
     7
370
    15
100
AcDbLine
 10
245.2312581028
 20
38.6433282654
 30
0.0
 11
248.2629784271
 21
36.8931533757
 31
0.0
  0
ARC
  5
193
330
1F
100
AcDbEntity
  8
0
  6
Continuous
 62
     7
370
    15
100
AcDbCircle
 10
261.129315054
 20
50.2211852787
 30
0.0
 40
5.3409717047893
100
AcDbArc
 50
60.0495925374
 51
74.3981352585
  0
LINE
  5
194
330
1F
100
AcDbEntity
  8
0
  6
Continuous
 62
     7
370
    15
100
AcDbLine
 10
251.219981406
 20
36.9030887234
 30
0.0
 11
251.2106587551
 21
36.9084705752
 31
0.0
  0
SPLINE
  5
195
330
1F
100
AcDbEntity
  8
0
  6
Continuous
 62
     7
370
    15
100
AcDbSpline
210
0.0
220
0.0
230
1.0
 70
     8
 71
     3
 72
    10
 73
     6
 74
     0
 42
0.000000001
 43
0.00000001
 40
0.0
 40
0.0
 40
0.0
 40
0.0
 40
0.2406249056622674
 40
0.7130401023711931
 40
1.0
 40
1.0
 40
1.0
 40
1.0
 10
252.1367736883334
 20
36.10116910095542
 30
0.0
 10
252.071047597166
 20
36.18202075217635
 30
0.0
 10
251.8762824765503
 20
36.42160721353942
 30
0.0
 10
251.5635421893799
 20
36.68718925901915
 30
0.0
 10
251.3142037802679
 20
36.84387777406865
 30
0.0
 10
251.219981405993
 20
36.90308872340513
 30
0.0
  0
SPLINE
  5
196
330
1F
100
AcDbEntity
  8
0
  6
Continuous
 62
     7
370
    15
100
AcDbSpline
210
0.0
220
0.0
230
1.0
 70
     8
 71
     3
 72
    10
 73
     6
 74
     0
 42
0.000000001
 43
0.00000001
 40
0.0
 40
0.0
 40
0.0
 40
0.0
 40
0.5
 40
0.5
 40
1.0
 40
1.0
 40
1.0
 40
1.0
 10
251.2106587550859
 20
36.90847057521786
 30
0.0
 10
251.1608581562731
 20
36.93721984896698
 30
0.0
 10
251.0958262395291
 20
36.95798319432765
 30
0.0
 10
250.9587678791837
 20
36.97693688371543
 30
0.0
 10
250.885229039134
 20
36.97559252248762
 30
0.0
 10
250.8173860035339
 20
36.96425111412653
 30
0.0
  0
SPLINE
  5
197
330
1F
100
AcDbEntity
  8
0
  6
Continuous
 62
     7
370
    15
100
AcDbSpline
210
0.0
220
0.0
230
1.0
 70
     8
 71
     3
 72
     8
 73
     4
 74
     0
 42
0.000000001
 43
0.00000001
 40
0.0
 40
0.0
 40
0.0
 40
0.0
 40
1.0
 40
1.0
 40
1.0
 40
1.0
 10
245.0744334952136
 20
38.73384994462338
 30
0.0
 10
245.096812291733
 20
38.72093799317154
 30
0.0
 10
245.1509997227503
 20
38.68966044201451
 30
0.0
 10
245.2312581027747
 20
38.64332826543453
 30
0.0
  0
LINE
  5
198
330
1F
100
AcDbEntity
  8
0
  6
Continuous
 62
     7
370
    15
100
AcDbLine
 10
245.0744334952
 20
38.7338499446
 30
0.0
 11
245.0971164366
 21
38.8774335178
 31
0.0
  0
SPLINE
  5
199
330
1F
100
AcDbEntity
  8
0
  6
Continuous
 62
     7
370
    15
100
AcDbSpline
210
0.0
220
0.0
230
1.0
 70
     8
 71
     3
 72
    13
 73
     9
 74
     0
 42
0.000000001
 43
0.00000001
 40
0.0
 40
0.0
 40
0.0
 40
0.0
 40
0.177521340028006
 40
0.3601889950193973
 40
0.5377116282430467
 40
0.720382035680102
 40
0.8979351454644366
 40
1.0
 40
1.0
 40
1.0
 40
1.0
 10
266.1037739920781
 20
29.62976496498174
 30
0.0
 10
266.062563735209
 20
29.63658412489663
 30
0.0
 10
265.978948542783
 20
29.65042013107048
 30
0.0
 10
265.8723504487585
 20
29.71184966215863
 30
0.0
 10
265.7815479976194
 20
29.80207077843146
 30
0.0
 10
265.7134633890767
 20
29.92083916052279
 30
0.0
 10
265.6706795043719
 20
30.04098041389019
 30
0.0
 10
265.6618612678844
 20
30.12632923271235
 30
0.0
 10
265.6586424760355
 20
30.15748286334211
 30
0.0
  0
SPLINE
  5
19A
330
1F
100
AcDbEntity
  8
0
  6
Continuous
 62
     7
370
    15
100
AcDbSpline
210
0.0
220
0.0
230
1.0
 70
     8
 71
     3
 72
    12
 73
     8
 74
     0
 42
0.000000001
 43
0.00000001
 40
0.0
 40
0.0
 40
0.0
 40
0.0
 40
0.0204496210286459
 40
0.1873076961800115
 40
0.452186022062746
 40
0.7228028068900471
 40
1.0
 40
1.0
 40
1.0
 40
1.0
 10
267.5247011981825
 20
33.12011213592414
 30
0.0
 10
267.524607296546
 20
33.11952664014352
 30
0.0
 10
267.5237472072963
 20
33.11416380893806
 30
0.0
 10
267.5067376370931
 20
33.08577992195342
 30
0.0
 10
267.4733424002341
 20
33.03698754381605
 30
0.0
 10
267.4256206666737
 20
32.97377280232983
 30
0.0
 10
267.3909920113939
 20
32.93029120616973
 30
0.0
 10
267.3734697019398
 20
32.9082892549729
 30
0.0
  0
SPLINE
  5
19B
330
1F
100
AcDbEntity
  8
0
  6
Continuous
 62
     7
370
    15
100
AcDbSpline
210
0.0
220
0.0
230
1.0
 70
     8
 71
     3
 72
    16
 73
    12
 74
     0
 42
0.000000001
 43
0.00000001
 40
0.0
 40
0.0
 40
0.0
 40
0.0
 40
0.2499999999999963
 40
0.2499999999999963
 40
0.4999999999999927
 40
0.4999999999999927
 40
0.6249999999999948
 40
0.6249999999999948
 40
0.749999999999997
 40
0.749999999999997
 40
1.0
 40
1.0
 40
1.0
 40
1.0
 10
273.4607827955742
 20
36.42241633833176
 30
0.0
 10
273.4347874959683
 20
36.42473258916738
 30
0.0
 10
273.4067999755652
 20
36.42596423794726
 30
0.0
 10
273.3441482122298
 20
36.42479496446999
 30
0.0
 10
273.3091136772044
 20
36.42248240020255
 30
0.0
 10
273.2503229179617
 20
36.41281503394315
 30
0.0
 10
273.2293249131208
 20
36.40841310673873
 30
0.0
 10
273.1878162162519
 20
36.39680291044215
 30
0.0
 10
273.1680138747467
 20
36.3897251924324
 30
0.0
 10
273.1171036627876
 20
36.3671933226755
 30
0.0
 10
273.0949422248103
 20
36.35139800660779
 30
0.0
 10
273.0787480384474
 20
36.33683457415922
 30
0.0
  0
SPLINE
  5
19C
330
1F
100
AcDbEntity
  8
0
  6
Continuous
 62
     7
370
    15
100
AcDbSpline
210
0.0
220
0.0
230
1.0
 70
     8
 71
     3
 72
    10
 73
     6
 74
     0
 42
0.000000001
 43
0.00000001
 40
0.0
 40
0.0
 40
0.0
 40
0.0
 40
0.5
 40
0.5
 40
1.0
 40
1.0
 40
1.0
 40
1.0
 10
273.0787480384545
 20
36.33683457415609
 30
0.0
 10
273.0525552808263
 20
36.34628247002783
 30
0.0
 10
273.0264230921845
 20
36.35645654549946
 30
0.0
 10
272.9758136032816
 20
36.37851926144288
 30
0.0
 10
272.9520495170001
 20
36.39015884576019
 30
0.0
 10
272.9320623467631
 20
36.40169719353737
 30
0.0
  0
LINE
  5
19D
330
1F
100
AcDbEntity
  8
0
  6
Continuous
 62
     7
370
    15
100
AcDbLine
 10
272.4194551323
 20
36.8805507419
 30
0.0
 11
272.3820763762
 21
36.9014237637
 31
0.0
  0
SPLINE
  5
19E
330
1F
100
AcDbEntity
  8
0
  6
Continuous
 62
     7
370
    15
100
AcDbSpline
210
0.0
220
0.0
230
1.0
 70
     8
 71
     3
 72
    11
 73
     7
 74
     0
 42
0.000000001
 43
0.00000001
 40
0.0
 40
0.0
 40
0.0
 40
0.0
 40
0.3105157409986103
 40
0.5915933465014823
 40
0.843575212177643
 40
0.9999999999999999
 40
0.9999999999999999
 40
0.9999999999999999
 40
0.9999999999999999
 10
251.7039664909927
 20
29.25690731753721
 30
0.0
 10
251.7949658494452
 20
29.34837674912497
 30
0.0
 10
251.9683374628238
 20
29.52264394395886
 30
0.0
 10
252.1186269477955
 20
29.9411710663702
 30
0.0
 10
252.1927058806288
 20
30.35230626580201
 30
0.0
 10
252.2002470242949
 20
30.64704402346134
 30
0.0
 10
252.2031353753729
 20
30.75993222156037
 30
0.0
  0
SPLINE
  5
19F
330
1F
100
AcDbEntity
  8
0
  6
Continuous
 62
     7
370
    15
100
AcDbSpline
210
0.0
220
0.0
230
1.0
 70
     8
 71
     3
 72
     9
 73
     5
 74
     0
 42
0.000000001
 43
0.00000001
 40
0.0
 40
0.0
 40
0.0
 40
0.0
 40
0.5067661695379747
 40
1.0
 40
1.0
 40
1.0
 40
1.0
 10
251.5952450265202
 20
28.53027655099305
 30
0.0
 10
251.6135140438317
 20
28.65273090482305
 30
0.0
 10
251.6495642350433
 20
28.89436967471497
 30
0.0
 10
251.6862449744801
 20
29.13652007284414
 30
0.0
 10
251.7043371560968
 20
29.25595684126129
 30
0.0
  0
SPLINE
  5
1A0
330
1F
100
AcDbEntity
  8
0
  6
Continuous
 62
     7
370
    15
100
AcDbSpline
210
0.0
220
0.0
230
1.0
 70
     8
 71
     3
 72
    10
 73
     6
 74
     0
 42
0.000000001
 43
0.00000001
 40
0.0
 40
0.0
 40
0.0
 40
0.0
 40
0.4807908150150776
 40
0.9757817590329644
 40
0.9999999999999999
 40
0.9999999999999999
 40
0.9999999999999999
 40
0.9999999999999999
 10
251.219981405993
 20
30.32993518772485
 30
0.0
 10
251.3697723528932
 20
30.24976481236281
 30
0.0
 10
251.6737783136747
 20
30.08705623422443
 30
0.0
 10
251.9633937578732
 20
29.97555480350296
 30
0.0
 10
252.097732188552
 20
29.94732318602368
 30
0.0
 10
252.1039983344126
 20
29.94600633698715
 30
0.0
  0
LINE
  5
1A1
330
1F
100
AcDbEntity
  8
0
  6
Continuous
 62
     7
370
    15
100
AcDbLine
 10
271.8114544826
 20
37.0486103436
 30
0.0
 11
272.9320623468
 21
36.4016971935
 31
0.0
  0
ARC
  5
1A2
330
1F
100
AcDbEntity
  8
0
  6
Continuous
 62
     7
370
    15
100
AcDbCircle
 10
264.8238912222
 20
36.552301143
 30
0.0
 40
5.625527768098883
100
AcDbArc
 50
337.8140922952
 51
1.4394633718
  0
LINE
  5
1A3
330
1F
100
AcDbEntity
  8
0
  6
Continuous
 62
     7
370
    15
100
AcDbLine
 10
270.0329245439
 20
34.4280284385
 30
0.0
 11
272.9320623468
 21
32.7543918092
 31
0.0
  0
LINE
  5
1A4
330
1F
100
AcDbEntity
  8
0
  6
Continuous
 62
     7
370
    15
100
AcDbLine
 10
267.9198208355
 20
29.0861109804
 30
0.0
 11
267.9572020106
 21
29.0652366527
 31
0.0
  0
LINE
  5
1A5
330
1F
100
AcDbEntity
  8
0
  6
Continuous
 62
     7
370
    15
100
AcDbLine
 10
265.7251045648
 20
30.5360254173
 30
0.0
 11
267.407213621
 21
29.5649645288
 31
0.0
  0
LINE
  5
1A6
330
1F
100
AcDbEntity
  8
0
  6
Continuous
 62
     7
370
    15
100
AcDbLine
 10
267.4726599637
 20
29.5073659314
 30
0.0
 11
266.1037739921
 21
29.629764965
 31
0.0
  0
SPLINE
  5
1A7
330
1F
100
AcDbEntity
  8
0
  6
Continuous
 62
     7
370
    15
100
AcDbSpline
210
0.0
220
0.0
230
1.0
 70
     8
 71
     3
 72
    16
 73
    12
 74
     0
 42
0.000000001
 43
0.00000001
 40
0.0
 40
0.0
 40
0.0
 40
0.0
 40
0.2499999999999937
 40
0.2499999999999937
 40
0.4999999999999875
 40
0.4999999999999875
 40
0.6249999999999867
 40
0.6249999999999867
 40
0.7499999999999858
 40
0.7499999999999858
 40
1.0
 40
1.0
 40
1.0
 40
1.0
 10
267.3733619717077
 20
29.25867703430152
 30
0.0
 10
267.3989194570703
 20
29.25639180998417
 30
0.0
 10
267.4239189942563
 20
29.25674639191482
 30
0.0
 10
267.4713174128341
 20
29.26720070459968
 30
0.0
 10
267.493569427913
 20
29.27697455934054
 30
0.0
 10
267.5171688717611
 20
29.30728695462851
 30
0.0
 10
267.5232415234137
 20
29.32029236926384
 30
0.0
 10
267.5284083736043
 20
29.35267966198358
 30
0.0
 10
267.5272540851578
 20
29.37188949773198
 30
0.0
 10
267.5140344895195
 20
29.43129942806956
 30
0.0
 10
267.4943243042084
 20
29.47096247009864
 30
0.0
 10
267.4726599636841
 20
29.50736593136811
 30
0.0
  0
SPLINE
  5
1A8
330
1F
100
AcDbEntity
  8
0
  6
Continuous
 62
     7
370
    15
100
AcDbSpline
210
0.0
220
0.0
230
1.0
 70
     8
 71
     3
 72
     8
 73
     4
 74
     0
 42
0.000000001
 43
0.00000001
 40
0.0
 40
0.0
 40
0.0
 40
0.0
 40
1.0
 40
1.0
 40
1.0
 40
1.0
 10
267.4072136210381
 20
29.5649645287531
 30
0.0
 10
267.4472479207472
 20
29.54185321946911
 30
0.0
 10
267.4668113614383
 20
29.52203793509793
 30
0.0
 10
267.4726599636837
 20
29.50736593136934
 30
0.0
  0
LINE
  5
1A9
330
1F
100
AcDbEntity
  8
0
  6
Continuous
 62
     7
370
    15
100
AcDbLine
 10
245.5078667427
 20
38.4835935864
 30
0.0
 11
245.0744334952
 21
38.7338499446
 31
0.0
  0
LINE
  5
1AA
330
1F
100
AcDbEntity
  8
0
  6
Continuous
 62
     7
370
    15
100
AcDbLine
 10
248.7367148413
 20
36.619619255
 30
0.0
 11
245.5078667427
 21
38.4835935864
 31
0.0
  0
SPLINE
  5
1AB
330
1F
100
AcDbEntity
  8
0
  6
Continuous
 62
     7
370
    15
100
AcDbSpline
210
0.0
220
0.0
230
1.0
 70
     8
 71
     3
 72
    11
 73
     7
 74
     0
 42
0.000000001
 43
0.00000001
 40
0.0
 40
0.0
 40
0.0
 40
0.0
 40
0.2167156669282938
 40
0.5258858099586968
 40
0.8350936695325893
 40
1.0
 40
1.0
 40
1.0
 40
1.0
 10
247.61293166405
 20
34.46976764063864
 30
0.0
 10
247.6082129914582
 20
34.67615990775121
 30
0.0
 10
247.596762582759
 20
35.17699478553426
 30
0.0
 10
247.5316051833345
 20
35.99577126310464
 30
0.0
 10
247.4908578961677
 20
36.75549401752824
 30
0.0
 10
247.5121257948559
 20
37.18835893916081
 30
0.0
 10
247.5195231923671
 20
37.33891795492931
 30
0.0
  0
LINE
  5
1AC
330
1F
100
AcDbEntity
  8
0
  6
Continuous
 62
     7
370
    15
100
AcDbLine
 10
247.612931664
 20
34.0494122852
 30
0.0
 11
247.612931664
 21
34.4697676406
 31
0.0
  0
SPLINE
  5
1AD
330
1F
100
AcDbEntity
  8
0
  6
Continuous
 62
     7
370
    15
100
AcDbSpline
210
0.0
220
0.0
230
1.0
 70
     8
 71
     3
 72
     8
 73
     4
 74
     0
 42
0.000000001
 43
0.00000001
 40
0.0
 40
0.0
 40
0.0
 40
0.0
 40
1.0
 40
1.0
 40
1.0
 40
1.0
 10
272.9320623467635
 20
32.75439180924583
 30
0.0
 10
272.9720966464733
 20
32.73128049996141
 30
0.0
 10
273.0265935911241
 20
32.73163189816601
 30
0.0
 10
273.0787480384703
 20
32.74369168981195
 30
0.0
  0
SPLINE
  5
1AE
330
1F
100
AcDbEntity
  8
0
  6
Continuous
 62
     7
370
    15
100
AcDbSpline
210
0.0
220
0.0
230
1.0
 70
     8
 71
     3
 72
    16
 73
    12
 74
     0
 42
0.000000001
 43
0.00000001
 40
0.0
 40
0.0
 40
0.0
 40
0.0
 40
0.2499999999999983
 40
0.2499999999999983
 40
0.3749999999999975
 40
0.3749999999999975
 40
0.4999999999999967
 40
0.4999999999999967
 40
0.7499999999999983
 40
0.7499999999999983
 40
1.0
 40
1.0
 40
1.0
 40
1.0
 10
273.0787480384736
 20
32.74369168981049
 30
0.0
 10
273.0948161051043
 20
32.70440847323067
 30
0.0
 10
273.1170716722963
 20
32.66551763723566
 30
0.0
 10
273.1675880848123
 20
32.62797464630283
 30
0.0
 10
273.1872012942197
 20
32.61959226012124
 30
0.0
 10
273.2285277921945
 20
32.6139323034586
 30
0.0
 10
273.2495216621986
 20
32.61653279108158
 30
0.0
 10
273.3085981771904
 20
32.63394773050975
 30
0.0
 10
273.3437595933649
 20
32.65731380039885
 30
0.0
 10
273.4066504106513
 20
32.71020575249062
 30
0.0
 10
273.4351064024842
 20
32.74085844991132
 30
0.0
 10
273.4608887429272
 20
32.77293143631471
 30
0.0
  0
LINE
  5
1AF
330
1F
100
AcDbEntity
  8
0
  6
Continuous
 62
     7
370
    15
100
AcDbLine
 10
247.0030520653
 20
37.2847811003
 30
0.0
 11
247.00823996
 21
37.6174465646
 31
0.0
  0
ARC
  5
1B0
330
1F
100
AcDbEntity
  8
0
  6
Continuous
 62
     7
370
    15
100
AcDbCircle
 10
254.5842057316
 20
37.1158137405
 30
0.0
 40
7.583036389278374
100
AcDbArc
 50
178.7232135802
 51
203.1724163449
  0
LWPOLYLINE
  5
1B1
330
1F
100
AcDbEntity
  8
0
  6
Continuous
 62
     7
370
    15
100
AcDbPolyline
 90
        3
 70
   128
 43
0.0
 10
228.5248292737
 20
49.6668293967
 10
228.4859113425
 20
49.7004749377
 10
228.4574677769
 20
49.7260865815
  0
SPLINE
  5
1B2
330
1F
100
AcDbEntity
  8
0
  6
Continuous
 62
     7
370
    15
100
AcDbSpline
210
0.0
220
0.0
230
1.0
 70
     8
 71
     3
 72
    22
 73
    18
 74
     0
 42
0.000000001
 43
0.00000001
 40
0.0
 40
0.0
 40
0.0
 40
0.0
 40
0.125
 40
0.125
 40
0.25
 40
0.25
 40
0.375
 40
0.375
 40
0.5
 40
0.5
 40
0.625
 40
0.625
 40
0.75
 40
0.75
 40
0.875
 40
0.875
 40
1.0
 40
1.0
 40
1.0
 40
1.0
 10
274.4476340100794
 20
34.44657282473572
 30
0.0
 10
274.5150633680076
 20
34.53045430495946
 30
0.0
 10
274.5759961222324
 20
34.61964697373161
 30
0.0
 10
274.6837933917978
 20
34.80917320187046
 30
0.0
 10
274.7304014215303
 20
34.90912149560285
 30
0.0
 10
274.8042743257735
 20
35.10862637649703
 30
0.0
 10
274.832459038479
 20
35.21099876408865
 30
0.0
 10
274.8685813890513
 20
35.40754734906238
 30
0.0
 10
274.8770313782686
 20
35.50338813806729
 30
0.0
 10
274.874758869634
 20
35.68353976869111
 30
0.0
 10
274.8643057170785
 20
35.76590412557506
 30
0.0
 10
274.8253511322525
 20
35.91491740410621
 30
0.0
 10
274.7970129722589
 20
35.97986678074235
 30
0.0
 10
274.7243357967714
 20
36.08695683776207
 30
0.0
 10
274.6791241938292
 20
36.12987810132893
 30
0.0
 10
274.5750515464177
 20
36.190099798129
 30
0.0
 10
274.5150704259233
 20
36.20840571130541
 30
0.0
 10
274.4476340059453
 20
36.21443554292194
 30
0.0
  0
LINE
  5
1B3
330
1F
100
AcDbEntity
  8
0
  6
Continuous
 62
     7
370
    15
100
AcDbLine
 10
274.4476340059
 20
36.2144355429
 30
0.0
 11
273.0787480385
 21
36.3368345742
 31
0.0
  0
LINE
  5
1B4
330
1F
100
AcDbEntity
  8
0
  6
Continuous
 62
     7
370
    15
100
AcDbLine
 10
251.2106587551
 20
30.3353170395
 30
0.0
 11
251.219981406
 21
30.3299351877
 31
0.0
  0
ARC
  5
1B5
330
1F
100
AcDbEntity
  8
0
  6
Continuous
 62
     7
370
    15
100
AcDbCircle
 10
254.0378745212
 20
30.9822180255
 30
0.0
 40
5.919642220385708
100
AcDbArc
 50
192.6964501328
 51
260.4756565155
  0
SPLINE
  5
1B6
330
1F
100
AcDbEntity
  8
0
  6
Continuous
 62
     7
370
    15
100
AcDbSpline
210
0.0
220
0.0
230
1.0
 70
     8
 71
     3
 72
     8
 73
     4
 74
     0
 42
0.000000001
 43
0.00000001
 40
0.0
 40
0.0
 40
0.0
 40
0.0
 40
0.0012389803509652
 40
0.0012389803509652
 40
0.0012389803509652
 40
0.0012389803509652
 10
248.7367148412575
 20
30.04646571928031
 30
0.0
 10
248.578969941059
 20
29.92438926874559
 30
0.0
 10
248.421051762093
 20
29.80263196574477
 30
0.0
 10
248.262978427112
 20
29.68116494420034
 30
0.0
  0
SPLINE
  5
1B7
330
1F
100
AcDbEntity
  8
0
  6
Continuous
 62
     7
370
    15
100
AcDbSpline
210
0.0
220
0.0
230
1.0
 70
     8
 71
     3
 72
     8
 73
     4
 74
     0
 42
0.000000001
 43
0.00000001
 40
0.0
 40
0.0
 40
0.0
 40
0.0
 40
1.0
 40
1.0
 40
1.0
 40
1.0
 10
248.7367148412575
 20
30.04646571928031
 30
0.0
 10
249.4306954241991
 20
30.16047750055291
 30
0.0
 10
250.124328484961
 20
30.27523825307328
 30
0.0
 10
250.8173860035339
 20
30.39109757844624
 30
0.0
  0
SPLINE
  5
1B8
330
1F
100
AcDbEntity
  8
0
  6
Continuous
 62
     7
370
    15
100
AcDbSpline
210
0.0
220
0.0
230
1.0
 70
     8
 71
     3
 72
    12
 73
     8
 74
     0
 42
0.000000001
 43
0.00000001
 40
0.0
 40
0.0
 40
0.0
 40
0.0
 40
0.2499999999999984
 40
0.2499999999999984
 40
0.4999999999999968
 40
0.4999999999999968
 40
1.0
 40
1.0
 40
1.0
 40
1.0
 10
250.8173860035339
 20
30.39109757844624
 30
0.0
 10
250.8511745194581
 20
30.39674604853048
 30
0.0
 10
250.8867462955269
 20
30.40000651204593
 30
0.0
 10
250.9573285419194
 20
30.40114410159405
 30
0.0
 10
250.9923515003684
 20
30.39912748513603
 30
0.0
 10
251.0965567956333
 20
30.38475174779643
 30
0.0
 10
251.1602672275729
 20
30.36440744916402
 30
0.0
 10
251.2106587550859
 20
30.33531703953757
 30
0.0
  0
LINE
  5
1B9
330
1F
100
AcDbEntity
  8
0
  6
Continuous
 62
     7
370
    15
100
AcDbLine
 10
245.5078667427
 20
31.9104400507
 30
0.0
 11
248.7367148413
 21
30.0464657193
 31
0.0
  0
LINE
  5
1BA
330
1F
100
AcDbEntity
  8
0
  6
Continuous
 62
     7
370
    15
100
AcDbLine
 10
245.5078667427
 20
31.9104400507
 30
0.0
 11
247.4007996297
 21
33.0032069462
 31
0.0
  0
LINE
  5
1BB
330
1F
100
AcDbEntity
  8
0
  6
Continuous
 62
     7
370
    15
100
AcDbLine
 10
245.0744334952
 20
31.6601836925
 30
0.0
 11
245.5078667427
 21
31.9104400507
 31
0.0
  0
LINE
  5
1BC
330
1F
100
AcDbEntity
  8
0
  6
Continuous
 62
     7
370
    15
100
AcDbLine
 10
248.2629784271
 20
29.6811649442
 30
0.0
 11
245.2312581028
 21
31.4313398339
 31
0.0
  0
SPLINE
  5
1BD
330
1F
100
AcDbEntity
  8
0
  6
Continuous
 62
     7
370
    15
100
AcDbSpline
210
0.0
220
0.0
230
1.0
 70
     8
 71
     3
 72
     8
 73
     4
 74
     0
 42
0.000000001
 43
0.00000001
 40
0.0
 40
0.0
 40
0.0
 40
0.0
 40
1.0
 40
1.0
 40
1.0
 40
1.0
 10
245.2312581027747
 20
31.43133983392027
 30
0.0
 10
245.1512333032599
 20
31.47753716734223
 30
0.0
 10
245.0967565058781
 20
31.56072468970693
 30
0.0
 10
245.0744334952136
 20
31.66018369254805
 30
0.0
  0
ARC
  5
1BE
330
1F
100
AcDbEntity
  8
0
  6
Continuous
 62
     7
370
    15
100
AcDbCircle
 10
269.83053067
 20
37.4836655917
 30
0.0
 40
2.072199650649666
100
AcDbArc
 50
321.0658596266
 51
347.226892773
  0
LINE
  5
1BF
330
1F
100
AcDbEntity
  8
0
  6
Continuous
 62
     7
370
    15
100
AcDbLine
 10
273.0787480385
 20
32.7436916898
 30
0.0
 11
274.4476340101
 21
34.4465728247
 31
0.0
  0
LINE
  5
1C0
330
1F
100
AcDbEntity
  8
0
  6
Continuous
 62
     7
370
    15
100
AcDbLine
 10
270.0329245439
 20
34.4280284385
 30
0.0
 11
271.44243019
 21
36.1814400624
 31
0.0
  0
LWPOLYLINE
  5
1C1
330
1F
100
AcDbEntity
  8
0
  6
Continuous
 62
     7
370
    15
100
AcDbPolyline
 90
        3
 70
   128
 43
0.0
 10
248.0470763235
 20
27.5683730053
 10
247.4979199476
 20
27.9330525209
 10
246.9381242328
 20
28.4212792758
  0
ELLIPSE
  5
1C2
330
1F
100
AcDbEntity
  8
0
  6
Continuous
 62
     7
370
    15
100
AcDbEllipse
 10
247.1664850546
 20
33.7917065206
 30
0.0
 11
-6.005970385558612E-5
 21
0.8534489614827194
 31
0.0
210
0.0
220
0.0
230
1.0
 40
0.7174342186
 41
3.534193645557484
 42
5.104989972352346
  0
ELLIPSE
  5
1C3
330
1F
100
AcDbEntity
  8
0
  6
Continuous
 62
     7
370
    15
100
AcDbEllipse
 10
247.0472462391
 20
33.7228490405
 30
0.0
 11
0.2600075789209484
 21
0.9705436209909308
 31
0.0
210
0.0
220
0.0
230
1.0
 40
0.5176380889
 41
3.619174351347761
 42
5.189970678142612
  0
LWPOLYLINE
  5
1C4
330
1F
100
AcDbEntity
  8
0
  6
Continuous
 62
     7
370
     0
100
AcDbPolyline
 90
       41
 70
   128
 43
0.0
 10
253.6233393041
 20
30.0850820642
 10
253.6621865484
 20
31.1635324519
 10
253.778448386
 20
32.2790646534
 10
253.9712871476
 20
33.4236412337
 10
254.2393134257
 20
34.5890154922
 10
254.5805960846
 20
35.7667908806
 10
254.992676175
 20
36.9484815004
 10
255.4725846505
 20
38.1255732435
 10
256.0168637595
 20
39.289585137
 10
256.6215919585
 20
40.4321304485
 10
257.2824121669
 20
41.5449771128
 10
257.9945631602
 20
42.6201070442
 10
258.7529138739
 20
43.6497739069
 10
259.5520003739
 20
44.6265589277
 10
260.3860652236
 20
45.5434243479
 10
261.2490989666
 20
46.3937641313
 10
262.1348834251
 20
47.1714515603
 10
263.0370365017
 20
47.870883379
 10
263.9490581629
 20
48.4870201653
 10
264.8643772716
 20
49.0154226394
 10
265.7763989328
 20
49.4522836494
 10
266.6785520094
 20
49.7944556018
 10
267.5643364679
 20
50.0394731397
 10
268.4273702109
 20
50.1855709062
 10
269.2614350606
 20
50.2316962636
 10
270.0605215606
 20
50.1775168775
 10
270.8188722743
 20
50.0234231118
 10
271.5310232675
 20
49.7705252154
 10
272.191843476
 20
49.4206453236
 10
272.796571675
 20
48.976304329
 10
273.3408507839
 20
48.4407037186
 10
273.8207592594
 20
47.8177025071
 10
274.2328393499
 20
47.1117894326
 10
274.5741220088
 20
46.3280506148
 10
274.8421482868
 20
45.47213291
 10
275.0349870485
 20
44.5502032248
 10
275.151248886
 20
43.5689040837
 10
275.1900961303
 20
42.5353057695
 10
275.151248886
 20
41.4568553817
 10
275.0349870485
 20
40.3413231802
 10
274.8798924326
 20
39.3909688402
  0
LWPOLYLINE
  5
1C5
330
1F
100
AcDbEntity
  8
0
  6
Continuous
 62
     7
370
     0
100
AcDbPolyline
 90
       23
 70
   128
 43
0.0
 10
266.9762713796
 20
25.7000121689
 10
266.6785520094
 20
25.4489362734
 10
265.7763989328
 20
24.7495044546
 10
264.8643772716
 20
24.1333676683
 10
263.9490581629
 20
23.6049651942
 10
263.0370365017
 20
23.1681041842
 10
262.1348834251
 20
22.8259322318
 10
261.2490989666
 20
22.5809146939
 10
260.3860652236
 20
22.4348169274
 10
259.5520003739
 20
22.3886915701
 10
258.7529138739
 20
22.4428709561
 10
257.9945631602
 20
22.5969647219
 10
257.2824121669
 20
22.8498626182
 10
256.6215919585
 20
23.19974251
 10
256.0168637595
 20
23.6440835047
 10
255.4725846505
 20
24.179684115
 10
254.992676175
 20
24.8026853265
 10
254.5805960846
 20
25.5085984011
 10
254.2393134257
 20
26.2923372188
 10
253.9712871476
 20
27.1482549237
 10
253.778448386
 20
28.0701846089
 10
253.6621865484
 20
29.05148375
 10
253.6233393041
 20
30.0850820642
  0
LWPOLYLINE
  5
1C6
330
1F
100
AcDbEntity
  8
0
  6
Continuous
 62
     7
370
     0
100
AcDbPolyline
 90
       28
 70
   128
 43
0.0
 10
252.9162325229
 20
30.0850820642
 10
252.9552913103
 20
31.1837706147
 10
253.0721937031
 20
32.3198489705
 10
253.2661197149
 20
33.4853483581
 10
253.5357090943
 20
34.6720936367
 10
253.8790708653
 20
35.8717606409
 10
254.2937965919
 20
37.0759345686
 10
254.776977271
 20
38.2761690049
 10
255.3252237374
 20
39.4640451676
 10
255.934690436
 20
40.6312309588
 10
256.6011023959
 20
41.769539409
 10
257.3197852158
 20
42.8709861021
 10
258.0856978524
 20
43.927845181
 10
258.8934679786
 20
44.9327035387
 10
259.7374296675
 20
45.8785128158
 10
260.6116631341
 20
46.7586388396
 10
261.5100362589
 20
47.5669081587
 10
262.4262475999
 20
48.2976513443
 10
263.3538705927
 20
48.9457427581
 10
264.2863986287
 20
49.5066365045
 10
265.2172906936
 20
49.9763983169
 10
266.1400172485
 20
50.3517331536
 10
267.0481060295
 20
50.6300083105
 10
267.9351874463
 20
50.8092718873
 10
268.7950392602
 20
50.8882664788
 10
269.6216302285
 20
50.8664379946
 10
270.4091624094
 20
50.743939546
 10
270.5798543014
 20
50.7027194647
  0
ARC
  5
1C7
330
1F
100
AcDbEntity
  8
0
  6
Continuous
 62
     7
370
     0
100
AcDbCircle
 10
261.7038350991
 20
29.5114259103
 30
0.0
 40
8.806306854669655
100
AcDbArc
 50
176.2650215301
 51
220.6394299263
  0
LWPOLYLINE
  5
1C8
330
1F
100
AcDbEntity
  8
0
  6
Continuous
 62
     7
370
     0
100
AcDbPolyline
 90
       30
 70
   128
 43
0.0
 10
257.3356499054
 20
32.2281533577
 10
257.3757089172
 20
33.1192086237
 10
257.4954320683
 20
34.0464190281
 10
257.6934628473
 20
34.9992789066
 10
257.9675574865
 20
35.966991976
 10
258.3146103841
 20
36.9385936605
 10
258.730689292
 20
37.9030753247
 10
259.2110798701
 20
38.8495090062
 10
259.750339101
 20
39.767171233
 10
260.3423569622
 20
40.6456645255
 10
260.9804256548
 20
41.4750352037
 10
261.6573156056
 20
42.2458861663
 10
262.3653573809
 20
42.9494833639
 10
263.0965285844
 20
43.5778547592
 10
263.8425447544
 20
44.1238806531
 10
264.5949532295
 20
44.5813743541
 10
265.345228921
 20
44.9451522757
 10
266.0848709056
 20
45.2110926688
 10
266.805498744
 20
45.3761823224
 10
267.4989474348
 20
45.4385507048
 10
268.1573599274
 20
45.3974911573
 10
268.773276145
 20
45.2534689009
 10
269.3397175109
 20
45.0081157655
 10
269.8502660179
 20
44.6642116999
 10
270.2991369476
 20
44.2256532748
 10
270.681244413
 20
43.6974095323
 10
270.9922589836
 20
43.0854656851
 10
271.2286567403
 20
42.3967553015
 10
271.387759202
 20
41.6390817453
 10
271.4066364301
 20
41.5065809471
  0
LWPOLYLINE
  5
1C9
330
1F
100
AcDbEntity
  8
0
  6
Continuous
 62
     7
370
     0
100
AcDbPolyline
 90
       15
 70
   128
 43
0.0
 10
263.407286569
 20
27.649799149
 10
263.0965285844
 20
27.5298209007
 10
262.3653573809
 20
27.3139999935
 10
261.6573156056
 20
27.2001095581
 10
260.9804256548
 20
27.1894400187
 10
260.3423569622
 20
27.2821122654
 10
259.750339101
 20
27.4770762846
 10
259.2110798701
 20
27.7721230562
 10
258.730689292
 20
28.1639095823
 10
258.3146103841
 20
28.647996765
 10
257.9675574865
 20
29.218899703
 10
257.6934628473
 20
29.870149838
 10
257.4954320683
 20
30.5943682458
 10
257.3757089172
 20
31.3833492423
 10
257.3356499054
 20
32.2281533577
  0
LWPOLYLINE
  5
1CA
330
1F
100
AcDbEntity
  8
0
  6
Continuous
 62
     7
370
     0
100
AcDbPolyline
 90
       21
 70
   128
 43
0.0
 10
250.8173860035
 20
36.9642511141
 10
251.1117133297
 20
38.0676996201
 10
251.4778921095
 20
39.178093261
 10
251.9129258468
 20
40.2863455186
 10
252.4132545952
 20
41.3833873976
 10
252.974784089
 20
42.4602416391
 10
253.5929192477
 20
43.5080961826
 10
254.2626017784
 20
44.5183762765
 10
254.978351568
 20
45.4828146467
 10
255.7343115281
 20
46.3935191488
 10
256.5242955246
 20
47.2430373505
 10
257.3418389993
 20
48.0244175166
 10
258.1802518708
 20
48.7312654953
 10
259.0326732805
 20
49.3577970432
 10
259.8921277354
 20
49.8988851583
 10
260.7515821903
 20
50.350102035
 10
261.6040035999
 20
50.7077552977
 10
262.4424164715
 20
50.9689182158
 10
263.2599599462
 20
51.1314536539
 10
264.0499439427
 20
51.1940315599
 10
264.4366331235
 20
51.1874391972
  0
LWPOLYLINE
  5
1CB
330
1F
100
AcDbEntity
  8
0
  6
Continuous
 62
     7
370
     0
100
AcDbPolyline
 90
        8
 70
   128
 43
0.0
 10
260.1640770301
 20
32.2281533577
 10
260.203781947
 20
31.4784755502
 10
260.3223393275
 20
30.7851638971
 10
260.518084886
 20
30.1579509741
 10
260.7882707838
 20
29.6056414758
 10
261.1291042033
 20
29.135988617
 10
261.5358005903
 20
28.7555852942
 10
261.8212563491
 20
28.565394906
  0
LWPOLYLINE
  5
1CC
330
1F
100
AcDbEntity
  8
0
  6
Continuous
 62
     7
370
     0
100
AcDbPolyline
 90
       21
 70
   128
 43
0.0
 10
269.8206062101
 20
42.422176704
 10
269.3852463751
 20
42.6239285141
 10
268.8406923237
 20
42.760765927
 10
268.2537474467
 20
42.7955908684
 10
267.6326511634
 20
42.7279144724
 10
266.9861223043
 20
42.5586867674
 10
266.3232367174
 20
42.2902833393
 10
265.6532998632
 20
41.9264719839
 10
264.9857161866
 20
41.4723598152
 10
264.3298570991
 20
40.9343215726
 10
263.6949294246
 20
40.3199101336
 10
263.089846156
 20
39.637750488
 10
262.5231013358
 20
38.897418662
 10
262.0026508191
 20
38.1093072915
 10
261.5358005903
 20
37.2844797326
 10
261.1291042033
 20
36.4345147563
 10
260.7882707838
 20
35.5713440075
 10
260.518084886
 20
34.7070845117
 10
260.3223393275
 20
33.8538685774
 10
260.203781947
 20
33.0236734864
 10
260.1640770301
 20
32.2281533577
  0
LWPOLYLINE
  5
1CD
330
1F
100
AcDbEntity
  8
0
  6
Continuous
 62
     7
370
     0
100
AcDbPolyline
 90
       15
 70
   128
 43
0.0
 10
267.3733619717
 20
29.2586770343
 10
267.6558110976
 20
28.8978149647
 10
268.0053186483
 20
28.6326998848
 10
268.4133968445
 20
28.4697701054
 10
268.8701355208
 20
28.412982371
 10
269.3644427938
 20
28.4637157696
 10
269.8843144277
 20
28.6207382424
 10
270.4171253573
 20
28.8802365039
 10
270.9499362869
 20
29.2359086475
 10
271.4698079209
 20
29.6791171869
 10
271.9641151938
 20
30.1990988177
 10
272.4208538702
 20
30.7832258031
 10
272.8289320664
 20
31.4173126389
 10
273.178439617
 20
32.0859605474
 10
273.4608887429
 20
32.7729314363
  0
LWPOLYLINE
  5
1CE
330
1F
100
AcDbEntity
  8
0
  6
Continuous
 62
     7
370
     0
100
AcDbPolyline
 90
       15
 70
   128
 43
0.0
 10
273.4607827956
 20
36.4224163383
 10
273.1783228969
 20
36.7832195232
 10
272.8288156946
 20
37.0482847435
 10
272.4207479105
 20
37.2111756946
 10
271.9640282325
 20
37.267937064
 10
271.4697467121
 20
37.2171905741
 10
270.9499054762
 20
37.0601684495
 10
270.4171272918
 20
36.800683496
 10
269.8843490605
 20
36.4450365183
 10
269.3645076848
 20
36.001863324
 10
268.8702259352
 20
35.4819250294
 10
268.4135059442
 20
34.8978467583
 10
268.0054377708
 20
34.2638110792
 10
267.6559301124
 20
33.5952136247
 10
267.3734697019
 20
32.908289255
  0
LWPOLYLINE
  5
1CF
330
1F
100
AcDbEntity
  8
0
  6
Continuous
 62
     7
370
     0
100
AcDbPolyline
 90
       24
 70
   128
 43
0.0
 10
245.2312581028
 20
38.6433282654
 10
245.5380735805
 20
39.8647286525
 10
245.9212325026
 20
41.096010137
 10
246.3779177018
 20
42.3281197491
 10
246.9047714102
 20
43.5519984302
 10
247.4979199476
 20
44.7586476394
 10
248.1530022025
 20
45.9391955151
 10
248.8652016972
 20
47.0849621054
 10
249.6292820007
 20
48.1875231867
 10
250.4396252295
 20
49.2387722031
 10
251.290273353
 20
50.2309798696
 10
252.1749719996
 20
51.1568510013
 10
253.0872164423
 20
52.0095781511
 10
254.0202994239
 20
52.7828916617
 10
254.9673604726
 20
53.4711057626
 10
255.921436343
 20
54.069160375
 10
256.8755122134
 20
54.5726583154
 10
257.8225732621
 20
54.9778976265
 10
258.7556562437
 20
55.2818987952
 10
259.6679006864
 20
55.4824266597
 10
260.552599333
 20
55.5780068432
 10
261.4032474565
 20
55.5679365947
 10
262.2135906853
 20
55.4522899554
 10
262.5657756292
 20
55.365362547
  0
LWPOLYLINE
  5
1D0
330
1F
100
AcDbEntity
  8
0
  6
Continuous
 62
     7
370
     0
100
AcDbPolyline
 90
       19
 70
   128
 43
0.0
 10
251.2106587551
 20
36.9084705752
 10
251.5153436485
 20
38.0323135047
 10
251.8953345203
 20
39.1626434276
 10
252.3473123642
 20
40.2895875491
 10
252.8673294087
 20
41.4033026477
 10
253.4508435979
 20
42.4940610496
 10
254.0927582644
 20
43.5523355951
 10
254.7874666454
 20
44.5688828526
 10
255.5289008547
 20
45.5348238548
 10
256.3105848825
 20
46.4417216516
 10
257.1256911595
 20
47.2816550019
 10
257.9671001918
 20
48.0472875614
 10
258.8274627457
 20
48.7319319612
 10
259.6992640394
 20
49.3296082185
 10
260.57488938
 20
49.835095968
 10
261.4466906737
 20
50.2439800592
 10
262.3070532276
 20
50.55268912
 10
263.1484622598
 20
50.7585267508
 10
263.5715678505
 20
50.8237269489
  0
LINE
  5
1D1
330
1F
100
AcDbEntity
  8
0
  6
Continuous
 62
     7
370
     0
100
AcDbLine
 10
266.1037739921
 20
29.629764965
 30
0.0
 11
266.1744846702
 21
29.3658747309
 31
0.0
  0
LWPOLYLINE
  5
1D2
330
1F
100
AcDbEntity
  8
0
  6
Continuous
 62
     7
370
     0
100
AcDbPolyline
 90
        3
 70
   128
 43
0.0
 10
272.9320623468
 20
36.4016971935
 10
272.6416493838
 20
36.7240029932
 10
272.4194551323
 20
36.8805507419
  0
LINE
  5
1D3
330
1F
100
AcDbEntity
  8
0
  6
Continuous
 62
     7
370
     0
100
AcDbLine
 10
251.219981406
 20
30.3299351877
 30
0.0
 11
251.6257626473
 21
30.5641877121
 31
0.0
  0
LWPOLYLINE
  5
1D4
330
1F
100
AcDbEntity
  8
0
  6
Continuous
 62
     7
370
     0
100
AcDbPolyline
 90
        3
 70
   128
 43
0.0
 10
252.1755054425
 20
30.3087207033
 10
252.1199835583
 20
30.3288105392
 10
251.6257626473
 20
30.5641877121
  0
LWPOLYLINE
  5
1D5
330
1F
100
AcDbEntity
  8
0
  6
Continuous
 62
     7
370
     0
100
AcDbPolyline
 90
       13
 70
   128
 43
0.0
 10
267.9572020106
 20
29.0652366527
 10
268.0525838372
 20
29.0180219886
 10
268.4628174362
 20
28.896919579
 10
268.9176161697
 20
28.8825134877
 10
269.4051052296
 20
28.9751798584
 10
269.912556262
 20
29.1724991693
 10
270.4267197058
 20
29.4693194073
 10
270.9341707382
 20
29.8578905875
 10
271.4216597981
 20
30.3280671049
 10
271.8764585316
 20
30.8675726368
 10
272.2866921306
 20
31.462320678
 10
272.6416493838
 20
32.0967823397
 10
272.9320623468
 20
32.7543918092
  0
LINE
  5
1D6
330
1F
100
AcDbEntity
  8
0
  6
Continuous
 62
     7
370
     0
100
AcDbLine
 10
265.7795717302
 20
29.816922947
 30
0.0
 11
266.1037739921
 21
29.629764965
 31
0.0
  0
ARC
  5
1D7
330
1F
100
AcDbEntity
  8
0
  6
Continuous
 62
     7
370
     0
100
AcDbCircle
 10
250.9382645733
 20
31.6205083184
 30
0.0
 40
1.260343931248321
100
AcDbArc
 50
303.0577786044
 51
346.2438194889
  0
LINE
  5
1D8
330
1F
100
AcDbEntity
  8
0
  6
Continuous
 62
     7
370
     0
100
AcDbLine
 10
247.7321704796
 20
34.1182697654
 30
0.0
 11
252.1197599867
 21
31.5853682573
 31
0.0
  0
LINE
  5
1D9
330
1F
100
AcDbEntity
  8
0
  6
Continuous
 62
     7
370
     0
100
AcDbLine
 10
247.612931664
 20
34.0494122852
 30
0.0
 11
247.7321704796
 21
34.1182697654
 31
0.0
  0
LINE
  5
1DA
330
1F
100
AcDbEntity
  8
0
  6
Continuous
 62
     7
370
     0
100
AcDbLine
 10
247.3566054559
 20
37.0806790724
 30
0.0
 11
247.3617933506
 21
37.4133445366
 31
0.0
  0
ARC
  5
1DB
330
1F
100
AcDbEntity
  8
0
  6
Continuous
 62
     7
370
     0
100
AcDbCircle
 10
255.9694280542
 20
37.0076093913
 30
0.0
 40
8.613132547961538
100
AcDbArc
 50
179.5139242857
 51
192.0586001107
  0
LWPOLYLINE
  5
1DC
330
1F
100
AcDbEntity
  8
0
  6
Continuous
 62
     7
370
     0
100
AcDbPolyline
 90
       18
 70
   128
 43
0.0
 10
227.5110895576
 20
52.37955852
 10
227.5515070022
 20
53.1000988511
 10
227.6720380857
 20
53.8544461112
 10
227.8705319282
 20
54.6291389556
 10
228.1434464022
 20
55.410352972
 10
228.4859113425
 20
56.1841473779
 10
228.8918154541
 20
56.9367137937
 10
229.3539153686
 20
57.6546226539
 10
229.863964902
 20
58.3250628579
 10
230.4128622084
 20
58.9360703844
 10
230.9908122023
 20
59.4767417895
 10
231.5875013523
 20
59.9374287794
 10
232.1922817264
 20
60.3099103836
 10
232.7943610046
 20
60.5875396592
 10
233.3829950678
 20
60.7653623051
 10
233.9476797273
 20
60.8402050721
 10
234.478338172
 20
60.8107323891
 10
234.896298685
 20
60.7037340077
  0
ARC
  5
1DD
330
1F
100
AcDbEntity
  8
0
  6
Continuous
 62
     7
370
     0
100
AcDbCircle
 10
231.073060913
 20
52.1544570543
 30
0.0
 40
3.569076996450004
100
AcDbArc
 50
176.3839586932
 51
222.8742618103
  0
LINE
  5
1DE
330
1F
100
AcDbEntity
  8
0
  6
Continuous
 62
     7
370
     0
100
AcDbLine
 10
274.6597660444
 20
34.2643234019
 30
0.0
 11
274.4476340101
 21
34.4465728247
 31
0.0
  0
LWPOLYLINE
  5
1DF
330
1F
100
AcDbEntity
  8
0
  6
Continuous
 62
     7
370
     0
100
AcDbPolyline
 90
        3
 70
   128
 43
0.0
 10
251.6756216193
 20
29.2446276621
 10
251.5153436485
 20
29.5632558001
 10
251.2106587551
 20
30.3353170395
  0
ARC
  5
1E0
330
1F
100
AcDbEntity
  8
0
  6
Continuous
 62
     7
370
     0
100
AcDbCircle
 10
256.8616980892
 20
32.2694441952
 30
0.0
 40
6.329446626772757
100
AcDbArc
 50
197.2632946531
 51
213.9657276469
  0
LINE
  5
1E1
330
1F
100
AcDbEntity
  8
0
  6
Continuous
 62
     7
370
     0
100
AcDbLine
 10
251.6257626473
 20
30.5641877121
 30
0.0
 11
247.4007996297
 21
33.0032069462
 31
0.0
  0
LINE
  5
1E2
330
1F
100
AcDbEntity
  8
0
  6
Continuous
 62
     7
370
     0
100
AcDbLine
 10
271.44243019
 20
36.1814400624
 30
0.0
 11
274.4476340101
 21
34.4465728247
 31
0.0
  0
ARC
  5
1E3
330
1F
100
AcDbEntity
  8
0
  6
Continuous
 62
     7
370
     0
100
AcDbCircle
 10
251.9313705331
 20
33.2416910195
 30
0.0
 40
6.940380248550003
100
AcDbArc
 50
195.120102167
 51
223.991031993
  0
OLE2FRAME
  5
1E4
330
1F
100
AcDbEntity
  8
0
100
AcDbOle2Frame
 70
     2
  3
Paintbrush-Bild
 10
13.8511154363
 20
38.264191557
 30
0.0
 11
51.6290888628
 21
31.9806341108
 31
0.0
 71
     2
 72
     0
 73
     1
 90
    12928
310
80552BED0767C5B32B40DDAF6807D121434000000000000000006FFBDDFB85D0
310
4940DDAF6807D121434000000000000000006FFBDDFB85D04940416F4BD60AFB
310
3F4000000000000000002BED0767C5B32B40416F4BD60AFB3F40000000000000
310
0000000000000100000000010000010000000100000000000100000000320000
310
D0CF11E0A1B11AE1000000000000000000000000000000003E000300FEFF0900
310
0600000000000000000000000100000001000000000000000010000002000000
310
01000000FEFFFFFF0000000000000000FFFFFFFFFFFFFFFFFFFFFFFFFFFFFFFF
310
FFFFFFFFFFFFFFFFFFFFFFFFFFFFFFFFFFFFFFFFFFFFFFFFFFFFFFFFFFFFFFFF
310
FFFFFFFFFFFFFFFFFFFFFFFFFFFFFFFFFFFFFFFFFFFFFFFFFFFFFFFFFFFFFFFF
310
FFFFFFFFFFFFFFFFFFFFFFFFFFFFFFFFFFFFFFFFFFFFFFFFFFFFFFFFFFFFFFFF
310
FFFFFFFFFFFFFFFFFFFFFFFFFFFFFFFFFFFFFFFFFFFFFFFFFFFFFFFFFFFFFFFF
310
FFFFFFFFFFFFFFFFFFFFFFFFFFFFFFFFFFFFFFFFFFFFFFFFFFFFFFFFFFFFFFFF
310
FFFFFFFFFFFFFFFFFFFFFFFFFFFFFFFFFFFFFFFFFFFFFFFFFFFFFFFFFFFFFFFF
310
FFFFFFFFFFFFFFFFFFFFFFFFFFFFFFFFFFFFFFFFFFFFFFFFFFFFFFFFFFFFFFFF
310
FFFFFFFFFFFFFFFFFFFFFFFFFFFFFFFFFFFFFFFFFFFFFFFFFFFFFFFFFFFFFFFF
310
FFFFFFFFFFFFFFFFFFFFFFFFFFFFFFFFFFFFFFFFFFFFFFFFFFFFFFFFFFFFFFFF
310
FFFFFFFFFFFFFFFFFFFFFFFFFFFFFFFFFFFFFFFFFFFFFFFFFFFFFFFFFFFFFFFF
310
FFFFFFFFFFFFFFFFFFFFFFFFFFFFFFFFFFFFFFFFFFFFFFFFFFFFFFFFFFFFFFFF
310
FFFFFFFFFFFFFFFFFFFFFFFFFFFFFFFFFFFFFFFFFFFFFFFFFFFFFFFFFFFFFFFF
310
FFFFFFFFFFFFFFFFFFFFFFFFFFFFFFFFFFFFFFFFFFFFFFFFFFFFFFFFFFFFFFFF
310
FDFFFFFFFEFFFFFFFEFFFFFFFEFFFFFF05000000060000000700000008000000
310
090000000A0000000B0000000C0000000D0000000E0000000F00000010000000
310
11000000120000001300000014000000150000001600000017000000FEFFFFFF
310
FFFFFFFFFFFFFFFFFFFFFFFFFFFFFFFFFFFFFFFFFFFFFFFFFFFFFFFFFFFFFFFF
310
FFFFFFFFFFFFFFFFFFFFFFFFFFFFFFFFFFFFFFFFFFFFFFFFFFFFFFFFFFFFFFFF
310
FFFFFFFFFFFFFFFFFFFFFFFFFFFFFFFFFFFFFFFFFFFFFFFFFFFFFFFFFFFFFFFF
310
FFFFFFFFFFFFFFFFFFFFFFFFFFFFFFFFFFFFFFFFFFFFFFFFFFFFFFFFFFFFFFFF
310
FFFFFFFFFFFFFFFFFFFFFFFFFFFFFFFFFFFFFFFFFFFFFFFFFFFFFFFFFFFFFFFF
310
FFFFFFFFFFFFFFFFFFFFFFFFFFFFFFFFFFFFFFFFFFFFFFFFFFFFFFFFFFFFFFFF
310
FFFFFFFFFFFFFFFFFFFFFFFFFFFFFFFFFFFFFFFFFFFFFFFFFFFFFFFFFFFFFFFF
310
FFFFFFFFFFFFFFFFFFFFFFFFFFFFFFFFFFFFFFFFFFFFFFFFFFFFFFFFFFFFFFFF
310
FFFFFFFFFFFFFFFFFFFFFFFFFFFFFFFFFFFFFFFFFFFFFFFFFFFFFFFFFFFFFFFF
310
FFFFFFFFFFFFFFFFFFFFFFFFFFFFFFFFFFFFFFFFFFFFFFFFFFFFFFFFFFFFFFFF
310
FFFFFFFFFFFFFFFFFFFFFFFFFFFFFFFFFFFFFFFFFFFFFFFFFFFFFFFFFFFFFFFF
310
FFFFFFFFFFFFFFFFFFFFFFFFFFFFFFFFFFFFFFFFFFFFFFFFFFFFFFFFFFFFFFFF
310
FFFFFFFFFFFFFFFFFFFFFFFFFFFFFFFFFFFFFFFFFFFFFFFFFFFFFFFFFFFFFFFF
310
52006F006F007400200045006E00740072007900000000000000000000000000
310
0000000000000000000000000000000000000000000000000000000000000000
310
16000500FFFFFFFFFFFFFFFF020000000A00030000000000C000000000000046
310
000000000000000000000000A098FB5D8320D20103000000C000000000000000
310
01004F006C006500000000000000000000000000000000000000000000000000
310
0000000000000000000000000000000000000000000000000000000000000000
310
0A000200FFFFFFFFFFFFFFFFFFFFFFFF00000000000000000000000000000000
310
0000000000000000000000000000000000000000000000001400000000000000
310
010043006F006D0070004F0062006A0000000000000000000000000000000000
310
0000000000000000000000000000000000000000000000000000000000000000
310
120002010100000003000000FFFFFFFF00000000000000000000000000000000
310
0000000000000000000000000000000000000000010000004D00000000000000
310
01004F006C006500310030004E00610074006900760065000000000000000000
310
0000000000000000000000000000000000000000000000000000000000000000
310
1A000200FFFFFFFFFFFFFFFFFFFFFFFF00000000000000000000000000000000
310
0000000000000000000000000000000000000000040000002426000000000000
310
FEFFFFFF02000000FEFFFFFFFFFFFFFFFFFFFFFFFFFFFFFFFFFFFFFFFFFFFFFF
310
FFFFFFFFFFFFFFFFFFFFFFFFFFFFFFFFFFFFFFFFFFFFFFFFFFFFFFFFFFFFFFFF
310
FFFFFFFFFFFFFFFFFFFFFFFFFFFFFFFFFFFFFFFFFFFFFFFFFFFFFFFFFFFFFFFF
310
FFFFFFFFFFFFFFFFFFFFFFFFFFFFFFFFFFFFFFFFFFFFFFFFFFFFFFFFFFFFFFFF
310
FFFFFFFFFFFFFFFFFFFFFFFFFFFFFFFFFFFFFFFFFFFFFFFFFFFFFFFFFFFFFFFF
310
FFFFFFFFFFFFFFFFFFFFFFFFFFFFFFFFFFFFFFFFFFFFFFFFFFFFFFFFFFFFFFFF
310
FFFFFFFFFFFFFFFFFFFFFFFFFFFFFFFFFFFFFFFFFFFFFFFFFFFFFFFFFFFFFFFF
310
FFFFFFFFFFFFFFFFFFFFFFFFFFFFFFFFFFFFFFFFFFFFFFFFFFFFFFFFFFFFFFFF
310
FFFFFFFFFFFFFFFFFFFFFFFFFFFFFFFFFFFFFFFFFFFFFFFFFFFFFFFFFFFFFFFF
310
FFFFFFFFFFFFFFFFFFFFFFFFFFFFFFFFFFFFFFFFFFFFFFFFFFFFFFFFFFFFFFFF
310
FFFFFFFFFFFFFFFFFFFFFFFFFFFFFFFFFFFFFFFFFFFFFFFFFFFFFFFFFFFFFFFF
310
FFFFFFFFFFFFFFFFFFFFFFFFFFFFFFFFFFFFFFFFFFFFFFFFFFFFFFFFFFFFFFFF
310
FFFFFFFFFFFFFFFFFFFFFFFFFFFFFFFFFFFFFFFFFFFFFFFFFFFFFFFFFFFFFFFF
310
FFFFFFFFFFFFFFFFFFFFFFFFFFFFFFFFFFFFFFFFFFFFFFFFFFFFFFFFFFFFFFFF
310
FFFFFFFFFFFFFFFFFFFFFFFFFFFFFFFFFFFFFFFFFFFFFFFFFFFFFFFFFFFFFFFF
310
FFFFFFFFFFFFFFFFFFFFFFFFFFFFFFFFFFFFFFFFFFFFFFFFFFFFFFFFFFFFFFFF
310
0100000200000000000000000000000000000000000000000000000000000000
310
0000000000000000000000000000000000000000000000000000000000000000
310
0100FEFF030A0000FFFFFFFF0A00030000000000C00000000000004607000000
310
5042727573680007000000504272757368000700000050427275736800F439B2
310
7100000000000000000000000000000000000000000000000000000000000000
310
0000000000000000000000000000000000000000000000000000000000000000
310
0000000000000000000000000000000000000000000000000000000000000000
310
0000000000000000000000000000000000000000000000000000000000000000
310
0000000000000000000000000000000000000000000000000000000000000000
310
0000000000000000000000000000000000000000000000000000000000000000
310
0000000000000000000000000000000000000000000000000000000000000000
310
0000000000000000000000000000000000000000000000000000000000000000
310
0000000000000000000000000000000000000000000000000000000000000000
310
0000000000000000000000000000000000000000000000000000000000000000
310
0000000000000000000000000000000000000000000000000000000000000000
310
0000000000000000000000000000000000000000000000000000000000000000
310
20260000424D0E260000000000003E00000028000000B40200006E0000000100
310
01000000000000000000130B0000130B00000200000002000000000000FFFFFF
310
FFFFFFFFFFFFFFFFFFFFFFFFFFFFFFFFFFFFFFFFFFFFFFFFFFFFFFFFFFFFFFFF
310
FFFFFFFFFFFFFFFFFFFFFFFFFFFFFFFFFFFFFFFFFFFFFFFFFFFFFFFFFFFFFFFF
310
FFFFFFFFFFFFFFFFFFFFFFFFFFFFFFFFFFFFFFFFFFFFFFFFF000FFFFFFFFFFFF
310
FFFFFFFFFFFFFFFFFFFFFFFFFFFFFFFFFFFFFFFFFFFFFFFFFFFFFFFFFFFFFFFF
310
FFFFFFFFFFFFFFFFFFFFFFFFFFFFFFFFFFFFFFFFFFFFFFFFFFFFFFFFFFFFFFFF
310
FFFFFFFFFFFFFFFFFFFFFFFFFFFFFFFFF000FFFFFFFFFFFFFFFFFFFFFFFFFFFF
310
FFFFFFFFFFFFFFFFFFFFFFFFFFFFFFFFFFFFFFFFFFFFFFFFFFFFFFFFFFFFFFFF
310
FFFFFFFFFFFFFFFFFFFFFFFFFFFFFFFFFFFFFFFFFFFFFFFFFFFFFFFFFFFFFFFF
310
FFFFFFFFFFFFFFFFF000FFFFFFFFFFFFFFFFFFFFFFFFFFFFFFFFFFFFFFFFFFFF
310
FFFFFFFFFFFFFFFFFFFFFFFFFFFFFFFFFFFFFFFFFFFFFFFFFFFFFFFFFFFFFFFF
310
FFFFFFFFFFFFFFFFFFFFFFFFFFFFFFFFFFFFFFFFFFFFFFFFFFFFFFFFFFFFFFFF
310
F000FFFFFFFFFFFFFFFFFFFFFFFFFFFFFFFFFFFFFFFFFFFFFFFFFFFFFFFFFFFF
310
FFFFFFFFFFFFFFFFFFFFFFFFFFFFFFFFFFFFFFFFFFFFFFFFFFFFFFFFFFFFFFFF
310
FFFFFFFFFFFFFFFFFFFFFFFFFFFFFFFFFFFFFFFFFFFFFFFFF000FFFFFFFFFFFF
310
FFFFFFFFFFFFFFFFFFFFFFFFFFFFFFFFFFFFFFFFFFFFFFFFFFFFFFFFFFFFFFFF
310
FFFFFFFFFFFFFFFFFFFFFFFFFFFFFFFFFFFFFFFFFFFFFFFFFFFFFFFFFFFFFFFF
310
FFFFFFFFFFFFFFFFFFFFFFFFFFFFFFFFF000FFFFFFFFFFFFFFFFFFFFFFFFFFFF
310
FFFFFFFFFFFFFFFFFFFFFFFFFFFFFFFFFFFFFFFFFFFFFFFFFFFFFFFFFFFFFFFF
310
FFFFFFFFFFFFFFFFFFFFFFFFFFFFFFFFFFFFFFFFFFFFFFFFFFFFFFFFFFFFFFFF
310
FFFFFFFFFFFFFFFFF000FFFFFFFFFFFFFFFFFFFFFFFFFFFFFFFFFFFFFFFFFFFF
310
FFFFFFFFFFFFFFFFFFFFFFFFFFFFFFFFFFFFFFFFFFFFFFFFFFFFFFFFFFFFFFFF
310
FFFFFFFFFFFFFFFFFFFFFFFFFFFFFFFFFFFFFFFFFFFFFFFFFFFFFFFFFFFFFFFF
310
F000FFFFFFFFFFFFFFFFFFFFFFFFFFFFFFFFFFFFFFFFFFFFFFFFFFFFFFFFFFFF
310
FFFFFFFFFFFFFFFFFFFFFFFFFFFFFFFFFFFFFFFFFFFFFFFFFFFFFFFFFFFFFFFF
310
FFFFFFFFFFFFFFFFFFFFFFFFFFFFFFFFFFFFFFFFFFFFFFFFF000FFFFFFFFFFFF
310
FFFFFFFFFFFFFFFFFFFFFFFFFFFFFFFFFFFFFFFFFFFFFFFFFFFFFFFFFFFFFFFF
310
FFFFFFFFFFFFFFFFFFFFFFFFFFFFFFFFFFFFFFFFFFFFFFFFFFFFFFFFFFFFFFFF
310
FFFFFFFFFFFFFFFFFFFFFFFFFFFFFFFFF000FFFFFFFFFFFFFFFFFFFFFFFFFFFF
310
FFFFFFFFFFFFFFFFFFFFFFFFFFFFFFFFFFFFFFFFFFFFFFFFFFFFFFFFFFFFFFFF
310
FFFFFFFFFFFFFFFFFFFFFFFFFFFFFFFFFFFFFFFFFFFFFFFFFFFFFFFFFFFFFFFF
310
FFFFFFFFFFFFFFFFF000FFFFFFFFFFFFFFFFFFFFFFFFFFFFFFFFFFFFFFFFFFFF
310
FFFFFFFFFFFFFFFFFFFFFFFFFFFFFFFFFFFFFFFFFFFFFFFFFFFFFFFFFFFFFFFF
310
FFFFFFFFFFFFFFFFFFFFFFFFFFFFFFFFFFFFFFFFFFFFFFFFFFFFFFFFFFFFFFFF
310
F000FFFFFFFFFFFFFFFFFFFFFFFFFFFFFFFFFFFFFFFFFFFFFFFFFFFFFFFFFFFF
310
FFFFFFFFFFFFFFFFFFFFFFFFFFFFFFFFFFFFFFFFFFFFFFFFFFFFFFFFFFFFFFFF
310
FFFFFFFFFFFFFFFFFFFFFFFFFFFFFFFFFFFFFFFFFFFFFFFFF000FFFFFFFFFFFF
310
FFFFFFFFFFFFFFFFFFFFFFFFFFFFFFFFFFFFFFFFFFFFFFFFFFFFFFFFFFFFFFFF
310
FFFFFFFFFFFFFFFFFFFFFFFFFFFFFFFFFFFFFFFFFFFFFFFFFFFFFFFFFFFFFFFF
310
FFFFFFFFFFFFFFFFFFFFFFFFFFFFFFFFF000FFFFFFFFFFFFFFFFFFFFFFFFFFFF
310
FFFFFFFFFFFFFFFFFFFFFFFFFFFFFFFFFFFFFFFFFFFFFFFFFFFFFFFFFFFFFFFF
310
FFFFFFFFFFFFFFFFFFFFFFFFFFFFFFFFFFFFFFFFFFFFFFFFFFFFFFFFFFFFFFFF
310
FFFFFFFFFFFFFFFFF000FFFFFFFFFFFFFFFFFFFFFFFFFFFFFFFFFFFFFFFFFFFF
310
FFFFFFFFFFFFFFFFFFFFFFFFFFFFFFFFFFFFFFFFFFFFFFFFFFFFFFFFFFFFFFFF
310
FFFFFFFFFFFFFFFFFFFFFFFFFFFFFFFFFFFFFFFFFFFFFFFFFFFFFFFFFFFFFFFF
310
F000FFFFFFFFFFFFFFFFFFFFFFFFFFFFFFFFFFFFFFFFFFFFFFFFFFFFFFFFFFFF
310
FFFFFFFFFFFFFFFFFFFFFFFFFFFFFFFFFFFFFFFFFFFFFFFFFFFFFFFFFFFFFFFF
310
FFFFFFFFFFFFFFFFFFFFFFFFFFFFFFFFFFFFFFFFFFFFFFFFF000FFFFFFFFFFFF
310
FFFFFFFFFFFFFFFFFFFFFFFFFFFFFFFFFFFFFFFFFFFFFFFFFFFFFFFFFFFFFFFF
310
FFFFFFFFFFFFFFFFFFFFFFFFFFFFFFFFFFFFFFFFFFFFFFFFFFFFFFFFFFFFFFFF
310
FFFFFFFFFFFFFFFFFFFFFFFFFFFFFFFFF000FFFFFFFFFFFFFFFFFFFFFFFFFFFF
310
FFFFFFFFFFFFFFFFFFFFFFFFFFFFFFFFFFFFFFFFFFFFFFFFFFFFFFFFFFFFFFFF
310
FFFFFFFFFFFFFFFFFFFFFFFFFFFFFFFFFFFFFFFFFFFFFFFFFFFFFFFFFFFFFFFF
310
FFFFFFFFFFFFFFFFF000FFFFF80003FFFFFFFFFFFFFFFFFFFFFFFFFFFFFFFFFF
310
FFFFF00007FFFFFFFFFF00007FFFFFF800000000000000007FFFFFFFFFFFFFFF
310
FFFFFFFC001FFFFFFFFFFFFFFC001FFFFFFFFFFFFFFFFFFFFFFFFFFE0007FFFF
310
F000FFFF8000007FFFFFFFF8000FFFFFC0007FFFFF80007FFFFF0000007FFFFF
310
FFF8000007FFFFF800000000000000007FFFFFF0001FFFFFFFFFFFC00001FFFF
310
FFFFFFFFC00001FFFFFFFF000000000003FFFFE000007FFFF000FFFE0000000F
310
FFFFFFF0000FFFFF80007FFFFF80007FFFFC0000001FFFFFFFC0000001FFFFF8
310
00000000000000007FFFFFF0001FFFFFFFFFFE0000003FFFFFFFFFFE0000003F
310
FFFFFF000000000003FFFF0000000FFFF000FFF800000003FFFFFFF00007FFFF
310
80007FFFFF80007FFFF000000007FFFFFF000000003FFFF80000000000000000
310
7FFFFFF0001FFFFFFFFFF80000000FFFFFFFFFF80000000FFFFFFF0000000000
310
03FFFC00000003FFF000FFE000000000FFFFFFF00007FFFF80003FFFFF80007F
310
FFC000000001FFFFFC000000001FFFF800000000000000007FFFFFF0001FFFFF
310
FFFFE000000003FFFFFFFFE000000003FFFFFF000000000003FFF000000000FF
310
F000FF80000000007FFFFFF00007FFFF80003FFFFF80007FFF8000000000FFFF
310
F80000000007FFF800000000000000007FFFFFF0001FFFFFFFFFC000000001FF
310
FFFFFFC000000001FFFFFF000000000003FFC0000000007FF000FF0000000000
310
3FFFFFE00007FFFF00003FFFFF80007FFE00000000003FFFF00000000003FFF8
310
00000000000000007FFFFFF0001FFFFFFFFF8000000000FFFFFFFF8000000000
310
FFFFFF000000000003FF80000000003FF000FE00000000001FFFFFE00003FFFF
310
00003FFFFF80007FFC00000000001FFFE00000000001FFF8000001FFFE000000
310
7FFFFFF0001FFFFFFFFE00000000003FFFFFFE00000000003FFFFF0000000000
310
03FF00000000001FF000FC00000000000FFFFFE00003FFFF00001FFFFF80007F
310
F800000000001FFFC00000000000FFF8000001FFFE0000007FFFFFF0001FFFFF
310
FFFC00000000001FFFFFFC00000000001FFFFF000000000003FE00000000000F
310
F000F8000000000007FFFFE00003FFFF00001FFFFF80007FF800000000000FFF
310
800000000000FFF8000001FFFE0000007FFFFFF0001FFFFFFFF800000000000F
310
FFFFF800000000000FFFFF000000000003FC000000000007F000F80000000000
310
03FFFFC00003FFFE00001FFFFF80007FF0000000000007FF0000000000007FF8
310
000001FFFE0000007FFFFFF0001FFFFFFFF0000000000007FFFFF00000000000
310
07FFFF000000000003F8000000000003F000F0000000000003FFFFC00001FFFE
310
00001FFFFF80007FE0000000000007FE0000000000003FF8000001FFFE000000
310
7FFFFFF0001FFFFFFFF0000000000007FFFFF0000000000007FFFF0000000000
310
03F800001F800003F000E00001FFF00001FFFFC00001FFFE00000FFFFF80007F
310
E00001FFE00003FE00001FFF00003FF8000001FFFE0000007FFFFFF0001FFFFF
310
FFE000003E000003FFFFE000003E000003FFFF000000000003F00001FFF80001
310
F000E00007FFFC0001FFFFC00001FFFE00000FFFFF80007FC0000FFFFC0003FC
310
0000FFFFC0001FF8000001FFFE0000007FFFFFF0001FFFFFFFC00003FFE00001
310
FFFFC00003FFE00001FFFF0001FFFFFFFFF00007FFFE0001F000E0000FFFFF00
310
00FFFF800001FFFC00000FFFFF80007FC0001FFFFE0001FC0001FFFFE0001FF8
310
000001FFFE0000007FFFFFF0001FFFFFFF80000FFFF80000FFFF80000FFFF800
310
00FFFF0003FFFFFFFFE0000FFFFF8000F000C0003FFFFF8000FFFF800000FFFC
310
000007FFFF80007F80003FFFFF0001FC0003FFFFF0001FF8000001FFFE000000
310
7FFFFFF0001FFFFFFF80003FFFFE0000FFFF80003FFFFE0000FFFF0003FFFFFF
310
FFE0003FFFFF8000F000C0003FFFFF8000FFFF800000FFFC000007FFFF80007F
310
80007FFFFF8001F80007FFFFF8000FF8000001FFFE0000007FFFFFF0001FFFFF
310
FF00007FFFFF00007FFF00007FFFFF00007FFF0003FFFFFFFFE0003FFFFFC000
310
F000C0007FFFFFC000FFFF000000FFFC000007FFFF80007F8000FFFFFF8000F8
310
000FFFFFF8000FF8000001FFFE0000007FFFFFF0001FFFFFFF0000FFFFFF8000
310
7FFF0000FFFFFF80007FFF0003FFFFFFFFC0007FFFFFC00070008000FFFFFFC0
310
00FFFF000000FFF8000007FFFF80007F8000FFFFFF8000F8000FFFFFF8000FF8
310
000001FFFE0000007FFFFFF0001FFFFFFE0001FFFFFFC0003FFE0001FFFFFFC0
310
003FFF0003FFFFFFFFC0007FFFFFE00070008000FFFFFFC0007FFF0000007FF8
310
000003FFFF80007F0001FFFFFF8000F8000FFFFFF8000FF8000001FFFE000000
310
7FFFFFF0001FFFFFFE0001FFFFFFC0003FFE0001FFFFFFC0003FFF0003FFFFFF
310
FFC000FFFFFFE00070008000FFFFFFC0007FFF0000007FF8000003FFFF80007F
310
0001FFFFFF8000F8001FFFFFF8000FF8000001FFFE0000007FFFFFF0001FFFFF
310
FE0003FFFFFFE0003FFE0003FFFFFFE0003FFF0003FFFFFFFFC000FFFFFFE000
310
70008000FFFFFFC0007FFE0000007FF8000003FFFF80007F0001FFFFFF8000F0
310
001FFFFFF8000FF8000001FFFE0000007FFFFFF0001FFFFFFC0003FFFFFFE000
310
1FFC0003FFFFFFE0001FFF0003FFFFFFFFC000FFFFFFC00070008000FFFFFF80
310
007FFE0000007FF0000003FFFF80007F0001FFFFFF0000F0001FFFFFF8000FF8
310
000001FFFE0000007FFFFFF0001FFFFFFC0007FFFFFFF0001FFC0007FFFFFFF0
310
001FFF0003FFFFFFFFC000FFFFFFC00070008001FFFFFF0000FFFE0000003FF0
310
000001FFFF80007F0001FFFFFF0000F8001FFFFFF0000FF8000001FFFE000000
310
7FFFFFF0001FFFFFFC0007FFFFFFF0001FFC0007FFFFFFF0001FFF0003FFFFFF
310
FFC001FFFFFF80007000FFFFFFFFFE0000FFFE0008003FF0008001FFFF80007F
310
FFFFFFFFFC0000FFFFFFFFFFE0000FF8000001FFFE0000007FFFFFF0001FFFFF
310
F8000FFFFFFFF8000FF8000FFFFFFFF8000FFF0003FFFFFFFFFFFFFFFFFF0000
310
7000FFFFFFFFFC0000FFFC0008003FF0008001FFFF80007FFFFFFFFFF80001FF
310
FFFFFFFF80000FF8000001FFFE0000007FFFFFF0001FFFFFF8000FFFFFFFF800
310
0FF8000FFFFFFFF8000FFF0003FFFFFFFFFFFFFFFFFE0000F000FFFFFFFFE000
310
00FFFC000C003FE000C001FFFF80007FFFFFFFFFC00001FFFFFFFFFE00001FF8
310
000001FFFE0000007FFFFFF0001FFFFFF8000FFFFFFFF8000FF8000FFFFFFFF8
310
000FFF0003FFFFFFFFFFFFFFFFF00000F000FFFFFFFE000001FFFC000C001FE0
310
00C000FFFF80007FFFFFFFFE000001FFFFFFFFE000001FF80FFFFFFFFFFFFFC0
310
7FFFFFF0001FFFFFF8000FFFFFFFF8000FF8000FFFFFFFF8000FFF0003FFFFFF
310
FFFFFFFFFF800000F000FFFFFFC0000001FFFC001C001FE001C000FFFF80007F
310
FFFFFF80000003FFFFFFF80000001FF80FFFFFFFFFFFFFC07FFFFFF0001FFFFF
310
F8001FFFFFFFFC000FF8001FFFFFFFFC000FFF0003FFFFFFFFFFFFFFF0000001
310
F000FFFFF800000001FFF8001C001FE001C000FFFF80007FFFFFF800000003FF
310
FFFF800000003FF80FFFFFFFFFFFFFC07FFFFFF0001FFFFFF8001FFFFFFFFC00
310
0FF8001FFFFFFFFC000FFF0003FFFFFFFFFFFFFE00000001F000FFFFC0000000
310
03FFF8001E001FC001E000FFFF80007FFFFF8000000007FFFFFC000000003FF8
310
0FFFFFFFFFFFFFC07FFFFFF0001FFFFFF8001FFFFFFFFC000FF8001FFFFFFFFC
310
000FFF0003FFFFFFFFFFFFE000000003F000FFFE0000000007FFF8001E000FC0
310
01E0007FFF80007FFFFE0000000007FFFFE0000000007FF80FFFFFFFFFFFFFC0
310
7FFFFFF0001FFFFFF0001FFFFFFFFC0007F0001FFFFFFFFC0007FF0003FFFFFF
310
FFFFFF0000000003F000FFF80000000007FFF8001E000FC003E0007FFF80007F
310
FFF0000000000FFFFF8000000000FFF80FFFFFFFFFFFFFC07FFFFFF0001FFFFF
310
F0001FFFFFFFFC0007F0001FFFFFFFFC0007FF0003FFFFFFFFFFFC0000000007
310
F000FFE0000000000FFFF0003E000FC003E0007FFF80007FFFC0000000001FFF
310
FE0000000001FFF80FFFFFFFFFFFFFC07FFFFFF0001FFFFFF0001FFFFFFFFC00
310
07F0001FFFFFFFFC0007FF0003FFFFFFFFFFF0000000000FF000FFC000000000
310
1FFFF0003F000F8003F0003FFF80007FFF80000000003FFFF80000000003FFF8
310
0FFFFFFFFFFFFFC07FFFFFF0001FFFFFF0001FFFFFFFFC0007F0001FFFFFFFFC
310
0007FF0003FFFFFFFFFFE0000000001FF000FF00000000007FFFF0003F000780
310
03F0003FFF80007FFF00000000007FFFF00000000007FFF80FFFFFFFFFFFFFC0
310
7FFFFFF0001FFFFFF0001FFFFFFFFC0007F0001FFFFFFFFC0007FF0003FFFFFF
310
FFFF80000000007FF000FE0000000000FFFFE0003F00078007F0003FFF80007F
310
FE0000000001FFFFE0000000001FFFF80FFFFFFFFFFFFFC07FFFFFF0001FFFFF
310
F0001FFFFFFFFC0007F0001FFFFFFFFC0007FF0003FFFFFFFFFF0000000000FF
310
F000FC0000000003FFFFE0007F00078007F0003FFF80007FFC0000000007FFFF
310
C0000000007FFFF80FFFFFFFFFFFFFC07FFFFFF0001FFFFFF8001FFFFFFFFC00
310
0FF8001FFFFFFFFC000FFF0003FFFFFFFFFE0000000003FFF000FC000000000F
310
FFFFE0007F80070007F8001FFF80007FF8000000001FFFFF8000000001FFFFF8
310
0FFFFFFFFFFFFFC07FFFFFF0001FFFFFF8001FFFFFFFFC000FF8001FFFFFFFFC
310
000FFF0003FFFFFFFFFC000000000FFFF000F8000000007FFFFFE0007F800700
310
07F8001FFF80007FF000000000FFFFFF800000000FFFFFF80FFFFFFFFFFFFFC0
310
7FFFFFF0001FFFFFF8000FFFFFFFF8000FF8000FFFFFFFF8000FFF0003FFFFFF
310
FFFC000000007FFFF000F800000007FFFFFFC0007F8003000FF8001FFF80007F
310
F000000007FFFFFF000000007FFFFFF80FFFFFFFFFFFFFC07FFFFFF0001FFFFF
310
F8000FFFFFFFF8000FF8000FFFFFFFF8000FFF0003FFFFFFFFF80000000FFFFF
310
F000F0000000FFFFFFFFC000FF8003000FF8001FFF80007FE0000000FFFFFFFF
310
0000000FFFFFFFF8000001FFFE0000007FFFFFF0001FFFFFF8000FFFFFFFF800
310
0FF8000FFFFFFFF8000FFF0003FFFFFFFFF8000000FFFFFFF000F000000FFFFF
310
FFFFC000FFC002000FF8000FFF80007FE000001FFFFFFFFE000001FFFFFFFFF8
310
000001FFFE0000007FFFFFF0001FFFFFF8000FFFFFFFF8000FF8000FFFFFFFF8
310
000FFF0003FFFFFFFFF000001FFFFFFFF000E00000FFFFFFFFFFC000FFC00200
310
0FFC000FFF80007FE00001FFFFFFFFFE00001FFFFFFFFFF8000001FFFE000000
310
7FFFFFF0001FFFFFFC000FFFFFFFF8001FFC000FFFFFFFF8001FFF0003FFFFFF
310
FFF00001FFFFFFFFF000E00007FFFFFFFFFF8000FFC000001FFC000FFF80007F
310
C0000FFFFFFFFFFE0000FFFFFFFFFFF8000001FFFE0000007FFFFFF0001FFFFF
310
FC0007FFFFFFF0001FFC0007FFFFFFF0001FFF0003FFFFFFFFF00007FFFFFFFF
310
F000E0001FFFFFFFFFFF8000FFC000001FFC000FFF80007FC0003FFFFFFFFFFE
310
0001FFFFFFFFFFF8000001FFFE0000007FFFFFF0001FFFFFFC0007FFFFFFF000
310
1FFC0007FFFFFFF0001FFF0003FFFFFFFFF0001FFFFFFFFFF000E0003FFFFF00
310
03FF8001FFE000001FFC0007FF80007FC0007FFFFF0007FC0003FFFFF0003FF8
310
000001FFFE0000007FFFFFF0001FFFFFFC0003FFFFFFE0001FFC0003FFFFFFE0
310
001FFF0003FFFFFFFFF0003FFFFFFFFFF000E0003FFFFF0001FF8001FFE00000
310
1FFE0007FF80007FC0007FFFFE0003FC0007FFFFE0003FF8000001FFFE000000
310
7FFFFFF0001FFFFFFE0003FFFFFFE0003FFE0003FFFFFFE0003FFF0003FFFFFF
310
FFF0003FFFFF8001F000E0003FFFFF0001FF0001FFE000001FFE0007FF80007F
310
C0007FFFFE0003FC0007FFFFE0003FF8000001FFFE0000007FFFFFF0001FFFFF
310
FE0001FFFFFFC0003FFE0001FFFFFFC0003FFF0003FFFFFFFFF0003FFFFF0001
310
F000E0003FFFFF0003FF0001FFE000003FFE0007FF80007FC0007FFFFE0003FC
310
0007FFFFE0003FF8000001FFFE0000007FFFFFF0001FFFFFFF0001FFFFFFC000
310
7FFF0001FFFFFFC0007FFF0003FFFFFFFFF0003FFFFF0001F000E0003FFFFE00
310
03FF0003FFF000003FFE0003FF80007FC0007FFFFC0003FE0007FFFFE0003FF8
310
000001FFFE0000007FFFFFF0001FFFFFFF0000FFFFFF80007FFF0000FFFFFF80
310
007FFF0003FFFFFFFFF0003FFFFF0001F000E0003FFFFE0003FF0003FFF00000
310
3FFF0003FF80007FC0007FFFFC0007FE0007FFFFC0003FF8000001FFFE000000
310
7FFFFFF0001FFFFFFF80007FFFFF0000FFFF80007FFFFF0000FFFF0003FFFFFF
310
FFF0003FFFFF0003F000E0003FFFFC0003FE0003FFF000003FFF0003FF80007F
310
E0003FFFF80007FE0003FFFFC0007FF8000001FFFE0000007FFFFFF0001FFFFF
310
FF80003FFFFE0000FFFF80003FFFFE0000FFFF0003FFFFFFFFF0001FFFFE0003
310
F000F0001FFFF80003FE0003FFF000007FFF0001FF80007FE0003FFFF00007FE
310
0001FFFF80007FF8000001FFFE0000007FFFFFF0001FFFFFFFC0000FFFF80001
310
FFFFC0000FFFF80001FFFF0003FFFFFFFFF0001FFFFC0003F000F0000FFFF000
310
07FE0007FFF800007FFF0001FF80007FE0001FFFE00007FF0000FFFE00007FF8
310
000001FFFE0000007FFFFFF0001FFFFFFFC00003FFE00001FFFFC00003FFE000
310
01FFFF0003FFFFFFFFF8000FFFF80003F000F00003FFC00007FC0007FFF80000
310
7FFF8001FF80007FF00007FF80000FFF00007FF80000FFF8000001FFFE000000
310
7F80000000000001FFE000003E000003FFFFE000003E000003FFFF0003FFFFFF
310
FFF80003FFE00007F000F800000000000FFC0007FFF800007FFF8001FF80007F
310
F000000000000FFF000000000000FFF8000001FFFE0000007F80000000000001
310
FFF0000000000007FFFFF0000000000007FFFF0003FFFFFFFFFC00007E000007
310
F000F800000000000FFC0007FFF80000FFFF8000FF80007FF800000000001FFF
310
800000000001FFF8000001FFFE0000007F80000000000001FFF800000000000F
310
FFFFF800000000000FFFFF0003FFFFFFFFFC00000000000FF000FC0000000000
310
1FFC0007FFFC0000FFFF8000FF80007FF800000000003FFFC00000000001FFF8
310
000001FFFE0000007F80000000000001FFF800000000000FFFFFF80000000000
310
0FFFFF0003FFFFFFFFFE00000000001FF000FE00000000003FF8000FFFFC0000
310
FFFF8000FF80007FFC00000000003FFFC00000000003FFF8000001FFFE000000
310
7F80000000000001FFFC00000000001FFFFFFC00000000001FFFFF0003FFFFFF
310
FFFF00000000001FF000FF00000000003FF8000FFFFC0000FFFFC000FF80007F
310
FE00000000007FFFE00000000007FFF8000001FFFE0000007F80000000000001
310
FFFE00000000003FFFFFFE00000000003FFFFF0003FFFFFFFFFF80000000003F
310
F000FF80000000007FF8000FFFFC0001FFFFC0007F80007FFF0000000000FFFF
310
F0000000000FFFF800000000000000007F80000000000001FFFF8000000000FF
310
FFFFFF8000000000FFFFFF0003FFFFFFFFFFC0000000007FF000FFC000000000
310
FFF8000FFFFE0001FFFFC0007F80007FFF8000000001FFFFF8000000001FFFF8
310
00000000000000007F80000000000001FFFFC000000001FFFFFFFFC000000001
310
FFFFFF0003FFFFFFFFFFE000000000FFF000FFE000000003FFF0001FFFFE0001
310
FFFFC0007F80007FFFC000000007FFFFFE000000003FFFF80000000000000000
310
7F80000000000001FFFFE000000003FFFFFFFFE000000003FFFFFF0003FFFFFF
310
FFFFF000000003FFF000FFF80000000FFFF0001FFFFE0001FFFFE0007F80007F
310
FFF00000000FFFFFFF00000000FFFFF800000000000000007F80000000000001
310
FFFFF80000000FFFFFFFFFF80000000FFFFFFF0003FFFFFFFFFFFC0000000FFF
310
F000FFFE0000003FFFF0001FFFFE0003FFFFE0003F80007FFFFC0000003FFFFF
310
FFC0000003FFFFF800000000000000007F80000000000001FFFFFE0000003FFF
310
FFFFFFFE0000003FFFFFFF0003FFFFFFFFFFFF0000003FFFF000FFFF800000FF
310
FFF0001FFFFF0003FFFFE0003F80007FFFFF000001FFFFFFFFF800001FFFFFF8
310
00000000000000007F80000000000001FFFFFFC00001FFFFFFFFFFFFC00001FF
310
FFFFFF0003FFFFFFFFFFFFC00000FFFFF000FFFFF8000FFFFFFFFFFFFFFFFFFF
310
FFFFFFFFFFFFFFFFFFFFF0001FFFFFFFFFFF0000FFFFFFF80000000000000000
310
7FFFFFFFFFFFFFFFFFFFFFFC001FFFFFFFFFFFFFFC001FFFFFFFFFFFFFFFFFFF
310
FFFFFFFC001FFFFFF000FFFFFFFFFFFFFFFFFFFFFFFFFFFFFFFFFFFFFFFFFFFF
310
FFFFFFFFFFFFFFFFFFFFFFFFFFFFFFFFFFFFFFFFFFFFFFFFFFFFFFFFFFFFFFFF
310
FFFFFFFFFFFFFFFFFFFFFFFFFFFFFFFFFFFFFFFFFFFFFFFFFFFFFFFFFFFFFFFF
310
F000FFFFFFFFFFFFFFFFFFFFFFFFFFFFFFFFFFFFFFFFFFFFFFFFFFFFFFFFFFFF
310
FFFFFFFFFFFFFFFFFFFFFFFFFFFFFFFFFFFFFFFFFFFFFFFFFFFFFFFFFFFFFFFF
310
FFFFFFFFFFFFFFFFFFFFFFFFFFFFFFFFFFFFFFFFFFFFFFFFF000FFFFFFFFFFFF
310
FFFFFFFFFFFFFFFFFFFFFFFFFFFFFFFFFFFFFFFFFFFFFFFFFFFFFFFFFFFFFFFF
310
FFFFFFFFFFFFFFFFFFFFFFFFFFFFFFFFFFFFFFFFFFFFFFFFFFFFFFFFFFFFFFFF
310
FFFFFFFFFFFFFFFFFFFFFFFFFFFFFFFFF000FFFFFFFFFFFFFFFFFFFFFFFFFFFF
310
FFFFFFFFFFFFFFFFFFFFFFFFFFFFFFFFFFFFFFFFFFFFFFFFFFFFFFFFFFFFFFFF
310
FFFFFFFFFFFFFFFFFFFFFFFFFFFFFFFFFFFFFFFFFFFFFFFFFFFFFFFFFFFFFFFF
310
FFFFFFFFFFFFFFFFF000FFFFFFFFFFFFFFFFFFFFFFFFFFFFFFFFFFFFFFFFFFFF
310
FFFFFFFFFFFFFFFFFFFFFFFFFFFFFFFFFFFFFFFFFFFFFFFFFFFFFFFFFFFFFFFF
310
FFFFFFFFFFFFFFFFFFFFFFFFFFFFFFFFFFFFFFFFFFFFFFFFFFFFFFFFFFFFFFFF
310
F000FFFFFFFFFFFFFFFFFFFFFFFFFFFFFFFFFFFFFFFFFFFFFFFFFFFFFFFFFFFF
310
FFFFFFFFFFFFFFFFFFFFFFFFFFFFFFFFFFFFFFFFFFFFFFFFFFFFFFFFFFFFFFFF
310
FFFFFFFFFFFFFFFFFFFFFFFFFFFFFFFFFFFFFFFFFFFFFFFFF000FFFFFFFFFFFF
310
FFFFFFFFFFFFFFFFFFFFFFFFFFFFFFFFFFFFFFFFFFFFFFFFFFFFFFFFFFFFFFFF
310
FFFFFFFFFFFFFFFFFFFFFFFFFFFFFFFFFFFFFFFFFFFFFFFFFFFFFFFFFFFFFFFF
310
FFFFFFFFFFFFFFFFFFFFFFFFFFFFFFFFF000FFFFFFFFFFFFFFFFFFFFFFFFFFFF
310
FFFFFFFFFFFFFFFFFFFFFFFFFFFFFFFFFFFFFFFFFFFFFFFFFFFFFFFFFFFFFFFF
310
FFFFFFFFFFFFFFFFFFFFFFFFFFFFFFFFFFFFFFFFFFFFFFFFFFFFFFFFFFFFFFFF
310
FFFFFFFFFFFFFFFFF000FFFFFFFFFFFFFFFFFFFFFFFFFFFFFFFFFFFFFFFFFFFF
310
FFFFFFFFFFFFFFFFFFFFFFFFFFFFFFFFFFFFFFFFFFFFFFFFFFFFFFFFFFFFFFFF
310
FFFFFFFFFFFFFFFFFFFFFFFFFFFFFFFFFFFFFFFFFFFFFFFFFFFFFFFFFFFFFFFF
310
F000FFFFFFFFFFFFFFFFFFFFFFFFFFFFFFFFFFFFFFFFFFFFFFFFFFFFFFFFFFFF
310
FFFFFFFFFFFFFFFFFFFFFFFFFFFFFFFFFFFFFFFFFFFFFFFFFFFFFFFFFFFFFFFF
310
FFFFFFFFFFFFFFFFFFFFFFFFFFFFFFFFFFFFFFFFFFFFFFFFF000FFFFFFFFFFFF
310
FFFFFFFFFFFFFFFFFFFFFFFFFFFFFFFFFFFFFFFFFFFFFFFFFFFFFFFFFFFFFFFF
310
FFFFFFFFFFFFFFFFFFFFFFFFFFFFFFFFFFFFFFFFFFFFFFFFFFFFFFFFFFFFFFFF
310
FFFFFFFFFFFFFFFFFFFFFFFFFFFFFFFFF000FFFFFFFFFFFFFFFFFFFFFFFFFFFF
310
FFFFFFFFFFFFFFFFFFFFFFFFFFFFFFFFFFFFFFFFFFFFFFFFFFFFFFFFFFFFFFFF
310
FFFFFFFFFFFFFFFFFFFFFFFFFFFFFFFFFFFFFFFFFFFFFFFFFFFFFFFFFFFFFFFF
310
FFFFFFFFFFFFFFFFF000FFFFFFFFFFFFFFFFFFFFFFFFFFFFFFFFFFFFFFFFFFFF
310
FFFFFFFFFFFFFFFFFFFFFFFFFFFFFFFFFFFFFFFFFFFFFFFFFFFFFFFFFFFFFFFF
310
FFFFFFFFFFFFFFFFFFFFFFFFFFFFFFFFFFFFFFFFFFFFFFFFFFFFFFFFFFFFFFFF
310
F000FFFFFFFFFFFFFFFFFFFFFFFFFFFFFFFFFFFFFFFFFFFFFFFFFFFFFFFFFFFF
310
FFFFFFFFFFFFFFFFFFFFFFFFFFFFFFFFFFFFFFFFFFFFFFFFFFFFFFFFFFFFFFFF
310
FFFFFFFFFFFFFFFFFFFFFFFFFFFFFFFFFFFFFFFFFFFFFFFFF000FFFFFFFFFFFF
310
FFFFFFFFFFFFFFFFFFFFFFFFFFFFFFFFFFFFFFFFFFFFFFFFFFFFFFFFFFFFFFFF
310
FFFFFFFFFFFFFFFFFFFFFFFFFFFFFFFFFFFFFFFFFFFFFFFFFFFFFFFFFFFFFFFF
310
FFFFFFFFFFFFFFFFFFFFFFFFFFFFFFFFF000FFFFFFFFFFFFFFFFFFFFFFFFFFFF
310
FFFFFFFFFFFFFFFFFFFFFFFFFFFFFFFFFFFFFFFFFFFFFFFFFFFFFFFFFFFFFFFF
310
FFFFFFFFFFFFFFFFFFFFFFFFFFFFFFFFFFFFFFFFFFFFFFFFFFFFFFFFFFFFFFFF
310
FFFFFFFFFFFFFFFFF000FFFFFFFFFFFFFFFFFFFFFFFFFFFFFFFFFFFFFFFFFFFF
310
FFFFFFFFFFFFFFFFFFFFFFFFFFFFFFFFFFFFFFFFFFFFFFFFFFFFFFFFFFFFFFFF
310
FFFFFFFFFFFFFFFFFFFFFFFFFFFFFFFFFFFFFFFFFFFFFFFFFFFFFFFFFFFFFFFF
310
F000FFFFFFFFFFFFFFFFFFFFFFFFFFFFFFFFFFFFFFFFFFFFFFFFFFFFFFFFFFFF
310
FFFFFFFFFFFFFFFFFFFFFFFFFFFFFFFFFFFFFFFFFFFFFFFFFFFFFFFFFFFFFFFF
310
FFFFFFFFFFFFFFFFFFFFFFFFFFFFFFFFFFFFFFFFFFFFFFFFF000FFFFFFFFFFFF
310
FFFFFFFFFFFFFFFFFFFFFFFFFFFFFFFFFFFFFFFFFFFFFFFFFFFFFFFFFFFFFFFF
310
FFFFFFFFFFFFFFFFFFFFFFFFFFFFFFFFFFFFFFFFFFFFFFFFFFFFFFFFFFFFFFFF
310
FFFFFFFFFFFFFFFFFFFFFFFFFFFFFFFFF000FFFFFFFFFFFFFFFFFFFFFFFFFFFF
310
FFFFFFFFFFFFFFFFFFFFFFFFFFFFFFFFFFFFFFFFFFFFFFFFFFFFFFFFFFFFFFFF
310
FFFFFFFFFFFFFFFFFFFFFFFFFFFFFFFFFFFFFFFFFFFFFFFFFFFFFFFFFFFFFFFF
310
FFFFFFFFFFFFFFFFF000FFFFFFFFFFFFFFFFFFFFFFFFFFFFFFFFFFFFFFFFFFFF
310
FFFFFFFFFFFFFFFFFFFFFFFFFFFFFFFFFFFFFFFFFFFFFFFFFFFFFFFFFFFFFFFF
310
FFFFFFFFFFFFFFFFFFFFFFFFFFFFFFFFFFFFFFFFFFFFFFFFFFFFFFFFFFFFFFFF
310
F000FFFFFFFFFFFFFFFFFFFFFFFFFFFFFFFFFFFFFFFFFFFFFFFFFFFFFFFFFFFF
310
FFFFFFFFFFFFFFFFFFFFFFFFFFFFFFFFFFFFFFFFFFFFFFFFFFFFFFFFFFFFFFFF
310
FFFFFFFFFFFFFFFFFFFFFFFFFFFFFFFFFFFFFFFFFFFFFFFFF000FFFFFFFFFFFF
310
FFFFFFFFFFFFFFFFFFFFFFFFFFFFFFFFFFFFFFFFFFFFFFFFFFFFFFFFFFFFFFFF
310
FFFFFFFFFFFFFFFFFFFFFFFFFFFFFFFFFFFFFFFFFFFFFFFFFFFFFFFFFFFFFFFF
310
FFFFFFFFFFFFFFFFFFFFFFFFFFFFFFFFF0000000000000000000000000000000
310
0000000000000000000000000000000000000000000000000000000000000000
310
0000000000000000000000000000000000000000000000000000000000000000
310
0000000000000000000000000000000000000000000000000000000000000000
310
0000000000000000000000000000000000000000000000000000000000000000
310
0000000000000000000000000000000000000000000000000000000000000000
310
0000000000000000000000000000000000000000000000000000000000000000
310
0000000000000000000000000000000000000000000000000000000000000000
310
0000000000000000000000000000000000000000000000000000000000000000
310
0000000000000000000000000000000000000000000000000000000000000000
310
0000000000000000000000000000000000000000000000000000000000000000
310
0000000000000000000000000000000000000000000000000000000000000000
310
0000000000000000000000000000000000000000000000000000000000000000
310
0000000000000000000000000000000000000000000000000000000000000000
310
0000000000000000000000000000000000000000000000000000000000000000
310
0000000000000000000000000000000000000000000000000000000000000000
  1
OLE
  0
ENDSEC
  0
SECTION
  2
OBJECTS
  0
DICTIONARY
  5
C
330
0
100
AcDbDictionary
281
     1
  3
ACAD_GROUP
350
D
  3
ACAD_LAYOUT
350
1A
  3
ACAD_MLINESTYLE
350
17
  3
ACAD_PLOTSETTINGS
350
19
  3
ACAD_PLOTSTYLENAME
350
E
  3
ACAD_SCALELIST
350
47
  0
DICTIONARY
  5
D
102
{ACAD_REACTORS
330
C
102
}
330
C
100
AcDbDictionary
281
     1
  0
DICTIONARY
  5
1A
102
{ACAD_REACTORS
330
C
102
}
330
C
100
AcDbDictionary
281
     1
  3
Layout1
350
1E
  3
Layout2
350
26
  3
Model
350
22
  0
DICTIONARY
  5
17
102
{ACAD_REACTORS
330
C
102
}
330
C
100
AcDbDictionary
281
     1
  3
Standard
350
18
  0
DICTIONARY
  5
19
102
{ACAD_REACTORS
330
C
102
}
330
C
100
AcDbDictionary
281
     1
  0
ACDBDICTIONARYWDFLT
  5
E
102
{ACAD_REACTORS
330
C
102
}
330
C
100
AcDbDictionary
281
     1
  3
Normal
350
F
100
AcDbDictionaryWithDefault
340
F
  0
DICTIONARY
  5
47
102
{ACAD_REACTORS
330
C
102
}
330
C
100
AcDbDictionary
281
     1
  3
A0
350
48
  3
A1
350
49
  3
A2
350
4A
  3
A3
350
4B
  3
A4
350
4C
  3
A5
350
4D
  3
A6
350
4E
  3
A7
350
4F
  3
A8
350
50
  3
A9
350
51
  3
B0
350
52
  3
B1
350
53
  3
B2
350
54
  3
B3
350
55
  3
B4
350
56
  3
B5
350
57
  3
B6
350
58
  3
B7
350
59
  3
B8
350
5A
  3
B9
350
5B
  3
C0
350
5C
  3
C1
350
5D
  3
C2
350
5E
  3
C3
350
5F
  3
C4
350
60
  3
C5
350
61
  3
C6
350
62
  3
C7
350
63
  3
C8
350
64
  3
C9
350
65
  3
D0
350
66
  3
D1
350
67
  3
D2
350
68
  0
LAYOUT
  5
1E
102
{ACAD_REACTORS
330
1A
102
}
330
1A
100
AcDbPlotSettings
  1

  2
none_device
  4

  6

 40
0.0
 41
0.0
 42
0.0
 43
0.0
 44
0.0
 45
0.0
 46
0.0
 47
0.0
 48
0.0
 49
0.0
140
0.0
141
0.0
142
1.0
143
1.0
 70
   688
 72
     1
 73
     0
 74
     5
  7

 75
    16
147
1.0
148
0.0
149
0.0
100
AcDbLayout
  1
Layout1
 70
     1
 71
     1
 10
0.0
 20
0.0
 11
420.0
 21
297.0
 12
0.0
 22
0.0
 32
0.0
 14
1.0000000000E+20
 24
1.0000000000E+20
 34
1.0000000000E+20
 15
-1.0000000000E+20
 25
-1.0000000000E+20
 35
-1.0000000000E+20
146
0.0
 13
0.0
 23
0.0
 33
0.0
 16
1.0
 26
0.0
 36
0.0
 17
0.0
 27
1.0
 37
0.0
 76
     0
330
1B
  0
LAYOUT
  5
26
102
{ACAD_REACTORS
330
1A
102
}
330
1A
100
AcDbPlotSettings
  1

  2
none_device
  4

  6

 40
0.0
 41
0.0
 42
0.0
 43
0.0
 44
0.0
 45
0.0
 46
0.0
 47
0.0
 48
0.0
 49
0.0
140
0.0
141
0.0
142
1.0
143
1.0
 70
   688
 72
     1
 73
     0
 74
     5
  7

 75
    16
147
1.0
148
0.0
149
0.0
100
AcDbLayout
  1
Layout2
 70
     1
 71
     2
 10
0.0
 20
0.0
 11
0.0
 21
0.0
 12
0.0
 22
0.0
 32
0.0
 14
0.0
 24
0.0
 34
0.0
 15
0.0
 25
0.0
 35
0.0
146
0.0
 13
0.0
 23
0.0
 33
0.0
 16
1.0
 26
0.0
 36
0.0
 17
0.0
 27
1.0
 37
0.0
 76
     0
330
23
  0
LAYOUT
  5
22
102
{ACAD_REACTORS
330
1A
102
}
330
1A
100
AcDbPlotSettings
  1

  2
none_device
  4
Letter_(8.50_x_11.00_Inches)
  6

 40
6.35
 41
6.35
 42
6.35000508
 43
6.35000508
 44
215.9
 45
279.4
 46
0.0
 47
0.0
 48
0.0
 49
0.0
140
0.0
141
0.0
142
1.0
143
1.0
 70
  1712
 72
     1
 73
     0
 74
     0
  7

 75
     0
147
1.0
148
0.0
149
0.0
100
AcDbLayout
  1
Model
 70
     1
 71
     0
 10
0.0
 20
0.0
 11
297.0
 21
210.0
 12
0.0
 22
0.0
 32
0.0
 14
0.0
 24
0.0
 34
0.0
 15
297.0
 25
210.0
 35
0.0
146
0.0
 13
0.0
 23
0.0
 33
0.0
 16
1.0
 26
0.0
 36
0.0
 17
0.0
 27
1.0
 37
0.0
 76
     0
330
1F
331
29
  0
MLINESTYLE
  5
18
102
{ACAD_REACTORS
330
17
102
}
330
17
100
AcDbMlineStyle
  2
Standard
 70
     0
  3

 62
   256
 51
90.0
 52
90.0
 71
     2
 49
0.5
 62
   256
  6
BYLAYER
 49
-0.5
 62
   256
  6
BYLAYER
  0
ACDBPLACEHOLDER
  5
F
102
{ACAD_REACTORS
330
E
102
}
330
E
  0
SCALE
  5
48
102
{ACAD_REACTORS
330
47
102
}
330
47
100
AcDbScale
 70
     0
300
1:1
140
1.0
141
1.0
290
     1
  0
SCALE
  5
49
102
{ACAD_REACTORS
330
47
102
}
330
47
100
AcDbScale
 70
     0
300
1:2
140
1.0
141
2.0
290
     0
  0
SCALE
  5
4A
102
{ACAD_REACTORS
330
47
102
}
330
47
100
AcDbScale
 70
     0
300
1:4
140
1.0
141
4.0
290
     0
  0
SCALE
  5
4B
102
{ACAD_REACTORS
330
47
102
}
330
47
100
AcDbScale
 70
     0
300
1:5
140
1.0
141
5.0
290
     0
  0
SCALE
  5
4C
102
{ACAD_REACTORS
330
47
102
}
330
47
100
AcDbScale
 70
     0
300
1:8
140
1.0
141
8.0
290
     0
  0
SCALE
  5
4D
102
{ACAD_REACTORS
330
47
102
}
330
47
100
AcDbScale
 70
     0
300
1:10
140
1.0
141
10.0
290
     0
  0
SCALE
  5
4E
102
{ACAD_REACTORS
330
47
102
}
330
47
100
AcDbScale
 70
     0
300
1:16
140
1.0
141
16.0
290
     0
  0
SCALE
  5
4F
102
{ACAD_REACTORS
330
47
102
}
330
47
100
AcDbScale
 70
     0
300
1:20
140
1.0
141
20.0
290
     0
  0
SCALE
  5
50
102
{ACAD_REACTORS
330
47
102
}
330
47
100
AcDbScale
 70
     0
300
1:30
140
1.0
141
30.0
290
     0
  0
SCALE
  5
51
102
{ACAD_REACTORS
330
47
102
}
330
47
100
AcDbScale
 70
     0
300
1:40
140
1.0
141
40.0
290
     0
  0
SCALE
  5
52
102
{ACAD_REACTORS
330
47
102
}
330
47
100
AcDbScale
 70
     0
300
1:50
140
1.0
141
50.0
290
     0
  0
SCALE
  5
53
102
{ACAD_REACTORS
330
47
102
}
330
47
100
AcDbScale
 70
     0
300
1:100
140
1.0
141
100.0
290
     0
  0
SCALE
  5
54
102
{ACAD_REACTORS
330
47
102
}
330
47
100
AcDbScale
 70
     0
300
2:1
140
2.0
141
1.0
290
     0
  0
SCALE
  5
55
102
{ACAD_REACTORS
330
47
102
}
330
47
100
AcDbScale
 70
     0
300
4:1
140
4.0
141
1.0
290
     0
  0
SCALE
  5
56
102
{ACAD_REACTORS
330
47
102
}
330
47
100
AcDbScale
 70
     0
300
8:1
140
8.0
141
1.0
290
     0
  0
SCALE
  5
57
102
{ACAD_REACTORS
330
47
102
}
330
47
100
AcDbScale
 70
     0
300
10:1
140
10.0
141
1.0
290
     0
  0
SCALE
  5
58
102
{ACAD_REACTORS
330
47
102
}
330
47
100
AcDbScale
 70
     0
300
100:1
140
100.0
141
1.0
290
     0
  0
SCALE
  5
59
102
{ACAD_REACTORS
330
47
102
}
330
47
100
AcDbScale
 70
     0
300
1/128" = 1'-0"
140
0.0078125
141
12.0
290
     0
  0
SCALE
  5
5A
102
{ACAD_REACTORS
330
47
102
}
330
47
100
AcDbScale
 70
     0
300
1/64" = 1'-0"
140
0.015625
141
12.0
290
     0
  0
SCALE
  5
5B
102
{ACAD_REACTORS
330
47
102
}
330
47
100
AcDbScale
 70
     0
300
1/32" = 1'-0"
140
0.03125
141
12.0
290
     0
  0
SCALE
  5
5C
102
{ACAD_REACTORS
330
47
102
}
330
47
100
AcDbScale
 70
     0
300
1/16" = 1'-0"
140
0.0625
141
12.0
290
     0
  0
SCALE
  5
5D
102
{ACAD_REACTORS
330
47
102
}
330
47
100
AcDbScale
 70
     0
300
3/32" = 1'-0"
140
0.09375
141
12.0
290
     0
  0
SCALE
  5
5E
102
{ACAD_REACTORS
330
47
102
}
330
47
100
AcDbScale
 70
     0
300
1/8" = 1'-0"
140
0.125
141
12.0
290
     0
  0
SCALE
  5
5F
102
{ACAD_REACTORS
330
47
102
}
330
47
100
AcDbScale
 70
     0
300
3/16" = 1'-0"
140
0.1875
141
12.0
290
     0
  0
SCALE
  5
60
102
{ACAD_REACTORS
330
47
102
}
330
47
100
AcDbScale
 70
     0
300
1/4" = 1'-0"
140
0.25
141
12.0
290
     0
  0
SCALE
  5
61
102
{ACAD_REACTORS
330
47
102
}
330
47
100
AcDbScale
 70
     0
300
3/8" = 1'-0"
140
0.375
141
12.0
290
     0
  0
SCALE
  5
62
102
{ACAD_REACTORS
330
47
102
}
330
47
100
AcDbScale
 70
     0
300
1/2" = 1'-0"
140
0.5
141
12.0
290
     0
  0
SCALE
  5
63
102
{ACAD_REACTORS
330
47
102
}
330
47
100
AcDbScale
 70
     0
300
3/4" = 1'-0"
140
0.75
141
12.0
290
     0
  0
SCALE
  5
64
102
{ACAD_REACTORS
330
47
102
}
330
47
100
AcDbScale
 70
     0
300
1" = 1'-0"
140
1.0
141
12.0
290
     0
  0
SCALE
  5
65
102
{ACAD_REACTORS
330
47
102
}
330
47
100
AcDbScale
 70
     0
300
1-1/2" = 1'-0"
140
1.5
141
12.0
290
     0
  0
SCALE
  5
66
102
{ACAD_REACTORS
330
47
102
}
330
47
100
AcDbScale
 70
     0
300
3" = 1'-0"
140
3.0
141
12.0
290
     0
  0
SCALE
  5
67
102
{ACAD_REACTORS
330
47
102
}
330
47
100
AcDbScale
 70
     0
300
6" = 1'-0"
140
6.0
141
12.0
290
     0
  0
SCALE
  5
68
102
{ACAD_REACTORS
330
47
102
}
330
47
100
AcDbScale
 70
     0
300
1'-0" = 1'-0"
140
12.0
141
12.0
290
     0
  0
ENDSEC
  0
EOF
