  0
SECTION
  2
HEADER
  9
$ACADVER
  1
AC1015
  9
$ACADMAINTVER
 70
     6
  9
$DWGCODEPAGE
  3
ANSI_1252
  9
$INSBASE
 10
0.0
 20
0.0
 30
0.0
  9
$EXTMIN
 10
0.0
 20
0.0
 30
0.0
  9
$EXTMAX
 10
297.0
 20
210.0
 30
0.0
  9
$LIMMIN
 10
0.0
 20
0.0
  9
$LIMMAX
 10
297.0
 20
210.0
  9
$ORTHOMODE
 70
     0
  9
$REGENMODE
 70
     1
  9
$FILLMODE
 70
     1
  9
$QTEXTMODE
 70
     0
  9
$MIRRTEXT
 70
     1
  9
$LTSCALE
 40
1.0
  9
$ATTMODE
 70
     1
  9
$TEXTSIZE
 40
2.0
  9
$TRACEWID
 40
1.0
  9
$TEXTSTYLE
  7
Standard
  9
$CLAYER
  8
0
  9
$CELTYPE
  6
ByLayer
  9
$CECOLOR
 62
   256
  9
$CELTSCALE
 40
1.0
  9
$DISPSILH
 70
     0
  9
$DIMSCALE
 40
1.0
  9
$DIMASZ
 40
3.0
  9
$DIMEXO
 40
0.0
  9
$DIMDLI
 40
3.75
  9
$DIMRND
 40
0.0
  9
$DIMDLE
 40
0.0
  9
$DIMEXE
 40
1.0
  9
$DIMTP
 40
0.0
  9
$DIMTM
 40
0.0
  9
$DIMTXT
 40
2.0
  9
$DIMCEN
 40
2.5
  9
$DIMTSZ
 40
0.0
  9
$DIMTOL
 70
     0
  9
$DIMLIM
 70
     0
  9
$DIMTIH
 70
     1
  9
$DIMTOH
 70
     1
  9
$DIMSE1
 70
     0
  9
$DIMSE2
 70
     0
  9
$DIMTAD
 70
     1
  9
$DIMZIN
 70
     0
  9
$DIMBLK
  1

  9
$DIMASO
 70
     1
  9
$DIMSHO
 70
     1
  9
$DIMPOST
  1

  9
$DIMAPOST
  1

  9
$DIMALT
 70
     0
  9
$DIMALTD
 70
     3
  9
$DIMALTF
 40
0.0393700787
  9
$DIMLFAC
 40
1.0
  9
$DIMTOFL
 70
     1
  9
$DIMTVP
 40
0.0
  9
$DIMTIX
 70
     0
  9
$DIMSOXD
 70
     0
  9
$DIMSAH
 70
     0
  9
$DIMBLK1
  1

  9
$DIMBLK2
  1

  9
$DIMSTYLE
  2
ISO-25
  9
$DIMCLRD
 70
     0
  9
$DIMCLRE
 70
     0
  9
$DIMCLRT
 70
     0
  9
$DIMTFAC
 40
1.0
  9
$DIMGAP
 40
1.524
  9
$DIMJUST
 70
     0
  9
$DIMSD1
 70
     0
  9
$DIMSD2
 70
     0
  9
$DIMTOLJ
 70
     0
  9
$DIMTZIN
 70
     0
  9
$DIMALTZ
 70
     0
  9
$DIMALTTZ
 70
     0
  9
$DIMUPT
 70
     0
  9
$DIMDEC
 70
     2
  9
$DIMTDEC
 70
     3
  9
$DIMALTU
 70
     2
  9
$DIMALTTD
 70
     3
  9
$DIMTXSTY
  7
Standard
  9
$DIMAUNIT
 70
     0
  9
$DIMADEC
 70
     2
  9
$DIMALTRND
 40
0.0
  9
$DIMAZIN
 70
     0
  9
$DIMDSEP
 70
    44
  9
$DIMATFIT
 70
     3
  9
$DIMFRAC
 70
     0
  9
$DIMLDRBLK
  1

  9
$DIMLUNIT
 70
     2
  9
$DIMLWD
 70
    -2
  9
$DIMLWE
 70
    -2
  9
$DIMTMOVE
 70
     0
  9
$LUNITS
 70
     2
  9
$LUPREC
 70
     2
  9
$SKETCHINC
 40
1.0
  9
$FILLETRAD
 40
10.0
  9
$AUNITS
 70
     0
  9
$AUPREC
 70
     2
  9
$MENU
  1
.
  9
$ELEVATION
 40
0.0
  9
$PELEVATION
 40
0.0
  9
$THICKNESS
 40
0.0
  9
$LIMCHECK
 70
     0
  9
$CHAMFERA
 40
0.0
  9
$CHAMFERB
 40
0.0
  9
$CHAMFERC
 40
0.0
  9
$CHAMFERD
 40
0.0
  9
$SKPOLY
 70
     0
  9
$TDCREATE
 40
2457669.506802268
  9
$TDUCREATE
 40
2457669.423468935
  9
$TDUPDATE
 40
2457669.506803414
  9
$TDUUPDATE
 40
2457669.423470081
  9
$TDINDWG
 40
0.0000000116
  9
$TDUSRTIMER
 40
0.0000000116
  9
$USRTIMER
 70
     1
  9
$ANGBASE
 50
0.0
  9
$ANGDIR
 70
     0
  9
$PDMODE
 70
     0
  9
$PDSIZE
 40
-1.0
  9
$PLINEWID
 40
0.0
  9
$SPLFRAME
 70
     0
  9
$SPLINETYPE
 70
     6
  9
$SPLINESEGS
 70
     8
  9
$HANDSEED
  5
1E5
  9
$SURFTAB1
 70
     6
  9
$SURFTAB2
 70
     6
  9
$SURFTYPE
 70
     6
  9
$SURFU
 70
     6
  9
$SURFV
 70
     6
  9
$UCSBASE
  2

  9
$UCSNAME
  2

  9
$UCSORG
 10
0.0
 20
0.0
 30
0.0
  9
$UCSXDIR
 10
1.0
 20
0.0
 30
0.0
  9
$UCSYDIR
 10
0.0
 20
1.0
 30
0.0
  9
$UCSORTHOREF
  2

  9
$UCSORTHOVIEW
 70
     0
  9
$UCSORGTOP
 10
0.0
 20
0.0
 30
0.0
  9
$UCSORGBOTTOM
 10
0.0
 20
0.0
 30
0.0
  9
$UCSORGLEFT
 10
0.0
 20
0.0
 30
0.0
  9
$UCSORGRIGHT
 10
0.0
 20
0.0
 30
0.0
  9
$UCSORGFRONT
 10
0.0
 20
0.0
 30
0.0
  9
$UCSORGBACK
 10
0.0
 20
0.0
 30
0.0
  9
$PUCSBASE
  2

  9
$PUCSNAME
  2

  9
$PUCSORG
 10
0.0
 20
0.0
 30
0.0
  9
$PUCSXDIR
 10
1.0
 20
0.0
 30
0.0
  9
$PUCSYDIR
 10
0.0
 20
1.0
 30
0.0
  9
$PUCSORTHOREF
  2

  9
$PUCSORTHOVIEW
 70
     0
  9
$PUCSORGTOP
 10
0.0
 20
0.0
 30
0.0
  9
$PUCSORGBOTTOM
 10
0.0
 20
0.0
 30
0.0
  9
$PUCSORGLEFT
 10
0.0
 20
0.0
 30
0.0
  9
$PUCSORGRIGHT
 10
0.0
 20
0.0
 30
0.0
  9
$PUCSORGFRONT
 10
0.0
 20
0.0
 30
0.0
  9
$PUCSORGBACK
 10
0.0
 20
0.0
 30
0.0
  9
$USERI1
 70
     0
  9
$USERI2
 70
     0
  9
$USERI3
 70
     0
  9
$USERI4
 70
     0
  9
$USERI5
 70
     0
  9
$USERR1
 40
0.0
  9
$USERR2
 40
0.0
  9
$USERR3
 40
0.0
  9
$USERR4
 40
0.0
  9
$USERR5
 40
0.0
  9
$WORLDVIEW
 70
     1
  9
$SHADEDGE
 70
     3
  9
$SHADEDIF
 70
    70
  9
$TILEMODE
 70
     1
  9
$MAXACTVP
 70
    64
  9
$PINSBASE
 10
0.0
 20
0.0
 30
0.0
  9
$PLIMCHECK
 70
     0
  9
$PEXTMIN
 10
1.0000000000E+20
 20
1.0000000000E+20
 30
1.0000000000E+20
  9
$PEXTMAX
 10
-1.0000000000E+20
 20
-1.0000000000E+20
 30
-1.0000000000E+20
  9
$PLIMMIN
 10
0.0
 20
0.0
  9
$PLIMMAX
 10
420.0
 20
297.0
  9
$UNITMODE
 70
     0
  9
$VISRETAIN
 70
     1
  9
$PLINEGEN
 70
     0
  9
$PSLTSCALE
 70
     1
  9
$TREEDEPTH
 70
  3020
  9
$CMLSTYLE
  2
Standard
  9
$CMLJUST
 70
     0
  9
$CMLSCALE
 40
20.0
  9
$PROXYGRAPHICS
 70
     1
  9
$MEASUREMENT
 70
     1
  9
$CELWEIGHT
370
    -1
  9
$ENDCAPS
280
     0
  9
$JOINSTYLE
280
     0
  9
$LWDISPLAY
290
     1
  9
$INSUNITS
 70
     4
  9
$HYPERLINKBASE
  1

  9
$STYLESHEET
  1

  9
$XEDIT
290
     1
  9
$CEPSNTYPE
380
     0
  9
$PSTYLEMODE
290
     1
  9
$FINGERPRINTGUID
  2
{32E249D5-DF35-40D4-BB31-380607E40EF2}
  9
$VERSIONGUID
  2
{FAEB1C32-E019-11D5-929B-00C0DF256EC4}
  9
$EXTNAMES
290
     1
  9
$PSVPSCALE
 40
0.0
  9
$OLESTARTUP
290
     0
  0
ENDSEC
  0
SECTION
  2
CLASSES
  0
CLASS
  1
ACDBDICTIONARYWDFLT
  2
AcDbDictionaryWithDefault
  3
ObjectDBX Classes
 90
        0
280
     0
281
     0
  0
CLASS
  1
VISUALSTYLE
  2
AcDbVisualStyle
  3
ObjectDBX Classes
 90
     4095
280
     0
281
     0
  0
CLASS
  1
MATERIAL
  2
AcDbMaterial
  3
ObjectDBX Classes
 90
     1153
280
     0
281
     0
  0
CLASS
  1
SCALE
  2
AcDbScale
  3
ObjectDBX Classes
 90
     1153
280
     0
281
     0
  0
CLASS
  1
TABLESTYLE
  2
AcDbTableStyle
  3
ObjectDBX Classes
 90
     4095
280
     0
281
     0
  0
CLASS
  1
MLEADERSTYLE
  2
AcDbMLeaderStyle
  3
ACDB_MLEADERSTYLE_CLASS
 90
     4095
280
     0
281
     0
  0
CLASS
  1
SUN
  2
AcDbSun
  3
SCENEOE
 90
     1153
280
     0
281
     0
  0
CLASS
  1
ACDBPLACEHOLDER
  2
AcDbPlaceHolder
  3
ObjectDBX Classes
 90
        0
280
     0
281
     0
  0
CLASS
  1
LAYOUT
  2
AcDbLayout
  3
ObjectDBX Classes
 90
        0
280
     0
281
     0
  0
ENDSEC
  0
SECTION
  2
TABLES
  0
TABLE
  2
VPORT
  5
8
330
0
100
AcDbSymbolTable
 70
     1
  0
VPORT
  5
29
330
8
100
AcDbSymbolTableRecord
100
AcDbViewportTableRecord
  2
*Active
 70
     0
 10
0.0
 20
0.0
 11
1.0
 21
1.0
 12
148.5
 22
105.0
 13
0.0
 23
0.0
 14
10.0
 24
10.0
 15
10.0
 25
10.0
 16
0.0
 26
0.0
 36
1.0
 17
0.0
 27
0.0
 37
0.0
 40
210.0
 41
1.4142857143
 42
50.0
 43
0.0
 44
0.0
 50
0.0
 51
0.0
 71
     0
 72
  2000
 73
     1
 74
     3
 75
     0
 76
     0
 77
     0
 78
     0
281
     0
 65
     1
110
0.0
120
0.0
130
0.0
111
1.0
121
0.0
131
0.0
112
0.0
122
1.0
132
0.0
 79
     0
146
0.0
  0
ENDTAB
  0
TABLE
  2
LTYPE
  5
5
330
0
100
AcDbSymbolTable
 70
     6
  0
LTYPE
  5
14
330
5
100
AcDbSymbolTableRecord
100
AcDbLinetypeTableRecord
  2
ByBlock
 70
     0
  3

 72
    65
 73
     0
 40
0.0
  0
LTYPE
  5
15
330
5
100
AcDbSymbolTableRecord
100
AcDbLinetypeTableRecord
  2
ByLayer
 70
     0
  3

 72
    65
 73
     0
 40
0.0
  0
LTYPE
  5
16
330
5
100
AcDbSymbolTableRecord
100
AcDbLinetypeTableRecord
  2
Continuous
 70
     0
  3
Solid line
 72
    65
 73
     0
 40
0.0
  0
LTYPE
  5
6E
330
5
100
AcDbSymbolTableRecord
100
AcDbLinetypeTableRecord
  2
HIDDEN
 70
     0
  3
Hidden __ __ __ __ __ __ __ __ __ __ __ __ __ __
 72
    65
 73
     2
 40
1.905
 49
1.27
 74
     0
 49
-0.635
 74
     0
  0
LTYPE
  5
6F
330
5
100
AcDbSymbolTableRecord
100
AcDbLinetypeTableRecord
  2
PHANTOM
 70
     0
  3
Phantom ______  __  __  ______  __  __  ______
 72
    65
 73
     6
 40
12.7
 49
6.35
 74
     0
 49
-1.27
 74
     0
 49
1.27
 74
     0
 49
-1.27
 74
     0
 49
1.27
 74
     0
 49
-1.27
 74
     0
  0
LTYPE
  5
70
330
5
100
AcDbSymbolTableRecord
100
AcDbLinetypeTableRecord
  2
CENTER
 70
     0
  3
Center ____ _ ____ _ ____ _ ____ _ ____ _ ____
 72
    65
 73
     4
 40
10.16
 49
6.35
 74
     0
 49
-1.27
 74
     0
 49
1.27
 74
     0
 49
-1.27
 74
     0
  0
LTYPE
  5
71
330
5
100
AcDbSymbolTableRecord
100
AcDbLinetypeTableRecord
  2
CENTERX2
 70
     0
  3
Center (2x) ________  __  ________  __  _____
 72
    65
 73
     4
 40
20.32
 49
12.7
 74
     0
 49
-2.54
 74
     0
 49
2.54
 74
     0
 49
-2.54
 74
     0
  0
LTYPE
  5
72
330
5
100
AcDbSymbolTableRecord
100
AcDbLinetypeTableRecord
  2
DOT2
 70
     0
  3
Dot (.5x) ........................................
 72
    65
 73
     2
 40
0.635
 49
0.0
 74
     0
 49
-0.635
 74
     0
  0
ENDTAB
  0
TABLE
  2
LAYER
  5
2
330
0
100
AcDbSymbolTable
 70
     5
  0
LAYER
  5
10
330
2
100
AcDbSymbolTableRecord
100
AcDbLayerTableRecord
  2
0
 70
     0
 62
     7
  6
Continuous
370
    -3
390
F
  0
LAYER
  5
73
330
2
100
AcDbSymbolTableRecord
100
AcDbLayerTableRecord
  2
FORMAT
 70
     0
 62
     7
  6
Continuous
370
    -3
390
F
  0
LAYER
  5
74
330
2
100
AcDbSymbolTableRecord
100
AcDbLayerTableRecord
  2
VERMASSUNG
 70
     0
 62
     7
  6
Continuous
370
    -3
390
F
  0
LAYER
  5
75
330
2
100
AcDbSymbolTableRecord
100
AcDbLayerTableRecord
  2
KOPF_DÜNN
 70
     0
 62
     7
  6
Continuous
370
    -3
390
F
  0
LAYER
  5
76
330
2
100
AcDbSymbolTableRecord
100
AcDbLayerTableRecord
  2
KOPF_DICK
 70
     0
 62
     7
  6
Continuous
370
    15
390
F
  0
ENDTAB
  0
TABLE
  2
STYLE
  5
3
330
0
100
AcDbSymbolTable
 70
     3
  0
STYLE
  5
11
330
3
100
AcDbSymbolTableRecord
100
AcDbTextStyleTableRecord
  2
Standard
 70
     0
 40
0.0
 41
1.0
 50
0.0
 71
     0
 42
2.0
  3
txt
  4

  0
STYLE
  5
77
330
3
100
AcDbSymbolTableRecord
100
AcDbTextStyleTableRecord
  2
SLDTEXTSTYLE0
 70
     0
 40
0.0
 41
0.7
 50
0.0
 71
     0
 42
2.0
  3
TXT
  4

  0
STYLE
  5
7B
330
3
100
AcDbSymbolTableRecord
100
AcDbTextStyleTableRecord
  2
SLDTEXTSTYLE1
 70
     0
 40
0.0
 41
0.6538461538
 50
0.0
 71
     0
 42
2.0
  3
TXT
  4

  0
ENDTAB
  0
TABLE
  2
VIEW
  5
6
330
0
100
AcDbSymbolTable
 70
     0
  0
ENDTAB
  0
TABLE
  2
UCS
  5
7
330
0
100
AcDbSymbolTable
 70
     0
  0
ENDTAB
  0
TABLE
  2
APPID
  5
9
330
0
100
AcDbSymbolTable
 70
     1
  0
APPID
  5
12
330
9
100
AcDbSymbolTableRecord
100
AcDbRegAppTableRecord
  2
ACAD
 70
     0
  0
ENDTAB
  0
TABLE
  2
DIMSTYLE
  5
A
330
0
100
AcDbSymbolTable
 70
     2
100
AcDbDimStyleTable
  0
DIMSTYLE
105
27
330
A
100
AcDbSymbolTableRecord
100
AcDbDimStyleTableRecord
  2
ISO-25
 70
     0
 41
2.5
 42
0.625
 43
3.75
 44
1.25
 73
     0
 74
     0
 77
     1
 78
     8
140
2.5
141
2.5
143
0.0393700787
147
0.625
171
     3
172
     1
178
     0
271
     2
272
     2
274
     3
278
    44
283
     0
284
     8
340
11
  0
DIMSTYLE
105
11D
102
{ACAD_REACTORS
330
11C
330
128
330
134
330
140
330
14C
330
156
102
}
330
A
100
AcDbSymbolTableRecord
100
AcDbDimStyleTableRecord
  2
SLDDIMSTYLE0
 70
     0
 41
3.0
 44
0.0
 45
0.000000001
 73
     0
 74
     0
 77
     1
 78
    12
 79
     3
140
2.0
147
0.5
173
     1
178
     0
271
     2
272
     3
276
     2
284
    12
340
77
  0
ENDTAB
  0
TABLE
  2
BLOCK_RECORD
  5
1
330
0
100
AcDbSymbolTable
 70
     7
  0
BLOCK_RECORD
  5
1F
330
1
100
AcDbSymbolTableRecord
100
AcDbBlockTableRecord
  2
*Model_Space
340
22
  0
BLOCK_RECORD
  5
1B
330
1
100
AcDbSymbolTableRecord
100
AcDbBlockTableRecord
  2
*Paper_Space
340
1E
  0
BLOCK_RECORD
  5
23
330
1
100
AcDbSymbolTableRecord
100
AcDbBlockTableRecord
  2
*Paper_Space0
340
26
  0
BLOCK_RECORD
  5
11E
330
1
100
AcDbSymbolTableRecord
100
AcDbBlockTableRecord
  2
_D
340
0
  0
BLOCK_RECORD
  5
129
330
1
100
AcDbSymbolTableRecord
100
AcDbBlockTableRecord
  2
_D_1
340
0
  0
BLOCK_RECORD
  5
135
330
1
100
AcDbSymbolTableRecord
100
AcDbBlockTableRecord
  2
_D_2
340
0
  0
BLOCK_RECORD
  5
141
330
1
100
AcDbSymbolTableRecord
100
AcDbBlockTableRecord
  2
_D_3
340
0
  0
BLOCK_RECORD
  5
14D
330
1
100
AcDbSymbolTableRecord
100
AcDbBlockTableRecord
  2
_D_4
340
0
  0
BLOCK_RECORD
  5
157
330
1
100
AcDbSymbolTableRecord
100
AcDbBlockTableRecord
  2
_D_5
340
0
  0
ENDTAB
  0
ENDSEC
  0
SECTION
  2
BLOCKS
  0
BLOCK
  5
20
330
1F
100
AcDbEntity
  8
0
100
AcDbBlockBegin
  2
*Model_Space
 70
     0
 10
0.0
 20
0.0
 30
0.0
  3
*Model_Space
  1

  0
ENDBLK
  5
21
330
1F
100
AcDbEntity
  8
0
100
AcDbBlockEnd
  0
BLOCK
  5
1C
330
1B
100
AcDbEntity
 67
     1
  8
0
100
AcDbBlockBegin
  2
*Paper_Space
 70
     0
 10
0.0
 20
0.0
 30
0.0
  3
*Paper_Space
  1

  0
ENDBLK
  5
1D
330
1B
100
AcDbEntity
 67
     1
  8
0
100
AcDbBlockEnd
  0
BLOCK
  5
24
330
23
100
AcDbEntity
  8
0
100
AcDbBlockBegin
  2
*Paper_Space0
 70
     0
 10
0.0
 20
0.0
 30
0.0
  3
*Paper_Space0
  1

  0
ENDBLK
  5
25
330
23
100
AcDbEntity
  8
0
100
AcDbBlockEnd
  0
BLOCK
  5
11F
330
11E
100
AcDbEntity
  8
0
100
AcDbBlockBegin
  2
_D
 70
     0
 10
0.0
 20
0.0
 30
0.0
  3
_D
  1

  0
SOLID
  5
121
330
11E
100
AcDbEntity
  8
VERMASSUNG
100
AcDbTrace
 10
211.9609599793
 20
118.9382168343
 30
0.0
 11
211.5109599793
 21
115.9382168343
 31
0.0
 12
212.4109599793
 22
115.9382168343
 32
0.0
 13
212.4109599793
 23
115.9382168343
 33
0.0
  0
SOLID
  5
122
330
11E
100
AcDbEntity
  8
VERMASSUNG
100
AcDbTrace
 10
211.9609599793
 20
96.9382168343
 30
0.0
 11
212.4109599793
 21
99.9382168343
 31
0.0
 12
211.5109599793
 22
99.9382168343
 32
0.0
 13
211.5109599793
 23
99.9382168343
 33
0.0
  0
LINE
  5
123
330
11E
100
AcDbEntity
  8
VERMASSUNG
100
AcDbLine
 10
194.6999001987
 20
118.9382168343
 30
0.0
 11
212.9609599793
 21
118.9382168343
 31
0.0
  0
LINE
  5
124
330
11E
100
AcDbEntity
  8
VERMASSUNG
100
AcDbLine
 10
194.6999001987
 20
96.9382168343
 30
0.0
 11
212.9609599793
 21
96.9382168343
 31
0.0
  0
LINE
  5
125
330
11E
100
AcDbEntity
  8
VERMASSUNG
100
AcDbLine
 10
211.9609599793
 20
118.9382168343
 30
0.0
 11
211.9609599793
 21
96.9382168343
 31
0.0
  0
MTEXT
  5
126
330
11E
100
AcDbEntity
  8
VERMASSUNG
100
AcDbMText
 10
209.3828244415
 20
104.7340407272
 30
0.0
 40
2.0
 41
0.0
 71
     1
 72
     1
  1
%%c
  7
SLDTEXTSTYLE0
 11
-7.044195017643634E-15
 21
1.0
 31
0.0
 73
     1
 44
1.0
  0
MTEXT
  5
127
330
11E
100
AcDbEntity
  8
VERMASSUNG
100
AcDbMText
 10
209.3828243833
 20
108.3430129208
 30
0.0
 40
2.0
 41
0.0
 71
     1
 72
     1
  1
22
  7
SLDTEXTSTYLE0
 11
-7.044195017643634E-15
 21
1.0
 31
0.0
 73
     1
 44
1.0
  0
ENDBLK
  5
120
330
11E
100
AcDbEntity
  8
0
100
AcDbBlockEnd
  0
BLOCK
  5
12A
330
129
100
AcDbEntity
  8
0
100
AcDbBlockBegin
  2
_D_1
 70
     0
 10
0.0
 20
0.0
 30
0.0
  3
_D_1
  1

  0
SOLID
  5
12C
330
129
100
AcDbEntity
  8
VERMASSUNG
100
AcDbTrace
 10
218.0609599793
 20
127.4382168343
 30
0.0
 11
217.6109599793
 21
124.4382168343
 31
0.0
 12
218.5109599793
 22
124.4382168343
 32
0.0
 13
218.5109599793
 23
124.4382168343
 33
0.0
  0
SOLID
  5
12D
330
129
100
AcDbEntity
  8
VERMASSUNG
100
AcDbTrace
 10
218.0609599793
 20
88.4382168343
 30
0.0
 11
218.5109599793
 21
91.4382168343
 31
0.0
 12
217.6109599793
 22
91.4382168343
 32
0.0
 13
217.6109599793
 23
91.4382168343
 33
0.0
  0
LINE
  5
12E
330
129
100
AcDbEntity
  8
VERMASSUNG
100
AcDbLine
 10
204.8999001987
 20
127.4382168343
 30
0.0
 11
219.0609599793
 21
127.4382168343
 31
0.0
  0
LINE
  5
12F
330
129
100
AcDbEntity
  8
VERMASSUNG
100
AcDbLine
 10
204.8999001987
 20
88.4382168343
 30
0.0
 11
219.0609599793
 21
88.4382168343
 31
0.0
  0
LINE
  5
130
330
129
100
AcDbEntity
  8
VERMASSUNG
100
AcDbLine
 10
218.0609599793
 20
127.4382168343
 30
0.0
 11
218.0609599793
 21
88.4382168343
 31
0.0
  0
MTEXT
  5
131
330
129
100
AcDbEntity
  8
VERMASSUNG
100
AcDbMText
 10
215.282824723
 20
101.7339171432
 30
0.0
 40
2.0
 41
0.0
 71
     1
 72
     1
  1
ST4
  7
SLDTEXTSTYLE0
 11
-7.044195017643634E-15
 21
1.0
 31
0.0
 73
     1
 44
1.0
  0
MTEXT
  5
132
330
129
100
AcDbEntity
  8
VERMASSUNG
100
AcDbMText
 10
215.4828246743
 20
107.7339171954
 30
0.0
 40
2.0
 41
0.0
 71
     1
 72
     1
  1
%%c
  7
SLDTEXTSTYLE0
 11
-7.044195017643634E-15
 21
1.0
 31
0.0
 73
     1
 44
1.0
  0
MTEXT
  5
133
330
129
100
AcDbEntity
  8
VERMASSUNG
100
AcDbMText
 10
215.4828243833
 20
111.3431365047
 30
0.0
 40
2.0
 41
0.0
 71
     1
 72
     1
  1
39
  7
SLDTEXTSTYLE0
 11
-7.044195017643634E-15
 21
1.0
 31
0.0
 73
     1
 44
1.0
  0
ENDBLK
  5
12B
330
129
100
AcDbEntity
  8
0
100
AcDbBlockEnd
  0
BLOCK
  5
136
330
135
100
AcDbEntity
  8
0
100
AcDbBlockBegin
  2
_D_2
 70
     0
 10
0.0
 20
0.0
 30
0.0
  3
_D_2
  1

  0
SOLID
  5
138
330
135
100
AcDbEntity
  8
VERMASSUNG
100
AcDbTrace
 10
86.2923486014
 20
139.4382168343
 30
0.0
 11
85.8423486014
 21
136.4382168343
 31
0.0
 12
86.7423486014
 22
136.4382168343
 32
0.0
 13
86.7423486014
 23
136.4382168343
 33
0.0
  0
SOLID
  5
139
330
135
100
AcDbEntity
  8
VERMASSUNG
100
AcDbTrace
 10
86.2923486014
 20
76.4382168343
 30
0.0
 11
86.7423486014
 21
79.4382168343
 31
0.0
 12
85.8423486014
 22
79.4382168343
 32
0.0
 13
85.8423486014
 23
79.4382168343
 33
0.0
  0
LINE
  5
13A
330
135
100
AcDbEntity
  8
VERMASSUNG
100
AcDbLine
 10
181.2998960546
 20
139.4382168343
 30
0.0
 11
85.2923486014
 21
139.4382168343
 31
0.0
  0
LINE
  5
13B
330
135
100
AcDbEntity
  8
VERMASSUNG
100
AcDbLine
 10
181.2999009726
 20
76.4382168343
 30
0.0
 11
85.2923486014
 21
76.4382168343
 31
0.0
  0
LINE
  5
13C
330
135
100
AcDbEntity
  8
VERMASSUNG
100
AcDbLine
 10
86.2923486014
 20
139.4382168343
 30
0.0
 11
86.2923486014
 21
76.4382168343
 31
0.0
  0
MTEXT
  5
13D
330
135
100
AcDbEntity
  8
VERMASSUNG
100
AcDbMText
 10
83.5142133452
 20
97.2337317673
 30
0.0
 40
2.0
 41
0.0
 71
     1
 72
     1
  1
MAS BT 40
  7
SLDTEXTSTYLE0
 11
-7.044195017643634E-15
 21
1.0
 31
0.0
 73
     1
 44
1.0
  0
MTEXT
  5
13E
330
135
100
AcDbEntity
  8
VERMASSUNG
100
AcDbMText
 10
83.7142132965
 20
112.2337314321
 30
0.0
 40
2.0
 41
0.0
 71
     1
 72
     1
  1
%%c
  7
SLDTEXTSTYLE0
 11
-7.044195017643634E-15
 21
1.0
 31
0.0
 73
     1
 44
1.0
  0
MTEXT
  5
13F
330
135
100
AcDbEntity
  8
VERMASSUNG
100
AcDbMText
 10
83.7142130055
 20
115.8433218806
 30
0.0
 40
2.0
 41
0.0
 71
     1
 72
     1
  1
63
  7
SLDTEXTSTYLE0
 11
-7.044195017643634E-15
 21
1.0
 31
0.0
 73
     1
 44
1.0
  0
ENDBLK
  5
137
330
135
100
AcDbEntity
  8
0
100
AcDbBlockEnd
  0
BLOCK
  5
142
330
141
100
AcDbEntity
  8
0
100
AcDbBlockBegin
  2
_D_3
 70
     0
 10
0.0
 20
0.0
 30
0.0
  3
_D_3
  1

  0
ARC
  5
144
330
141
100
AcDbEntity
  8
VERMASSUNG
100
AcDbCircle
 10
148.0117060689
 20
158.5456270354
 30
0.0
 40
4.24705993853726
100
AcDbArc
 50
153.4349488229
 51
206.5650511771
  0
ARC
  5
145
330
141
100
AcDbEntity
  8
VERMASSUNG
100
AcDbCircle
 10
149.1880943284
 20
158.5456270354
 30
0.0
 40
4.24705993853726
100
AcDbArc
 50
333.4349488229
 51
26.5650511771
  0
SOLID
  5
146
330
141
100
AcDbEntity
  8
VERMASSUNG
100
AcDbTrace
 10
91.8999001987
 20
156.64628409
 30
0.0
 11
94.8999001987
 21
156.19628409
 31
0.0
 12
94.8999001987
 22
157.09628409
 32
0.0
 13
94.8999001987
 23
157.09628409
 33
0.0
  0
SOLID
  5
147
330
141
100
AcDbEntity
  8
VERMASSUNG
100
AcDbTrace
 10
205.2999001987
 20
156.64628409
 30
0.0
 11
202.2999001987
 21
157.09628409
 31
0.0
 12
202.2999001987
 22
156.19628409
 32
0.0
 13
202.2999001987
 23
156.19628409
 33
0.0
  0
LINE
  5
148
330
141
100
AcDbEntity
  8
VERMASSUNG
100
AcDbLine
 10
91.8999001987
 20
119.7609724313
 30
0.0
 11
91.8999001987
 21
157.64628409
 31
0.0
  0
LINE
  5
149
330
141
100
AcDbEntity
  8
VERMASSUNG
100
AcDbLine
 10
205.2999001987
 20
127.0382168343
 30
0.0
 11
205.2999001987
 21
157.64628409
 31
0.0
  0
LINE
  5
14A
330
141
100
AcDbEntity
  8
VERMASSUNG
100
AcDbLine
 10
91.8999001987
 20
156.64628409
 30
0.0
 11
205.2999001987
 21
156.64628409
 31
0.0
  0
MTEXT
  5
14B
330
141
100
AcDbEntity
  8
VERMASSUNG
100
AcDbMText
 10
145.8005201781
 20
159.2244196859
 30
0.0
 40
2.0
 41
0.0
 71
     1
 72
     1
  1
113.4
  7
SLDTEXTSTYLE0
 73
     1
 44
1.0
  0
ENDBLK
  5
143
330
141
100
AcDbEntity
  8
0
100
AcDbBlockEnd
  0
BLOCK
  5
14E
330
14D
100
AcDbEntity
  8
0
100
AcDbBlockBegin
  2
_D_4
 70
     0
 10
0.0
 20
0.0
 30
0.0
  3
_D_4
  1

  0
SOLID
  5
150
330
14D
100
AcDbEntity
  8
VERMASSUNG
100
AcDbTrace
 10
157.2999001987
 20
150.64628409
 30
0.0
 11
160.2999001987
 21
150.19628409
 31
0.0
 12
160.2999001987
 22
151.09628409
 32
0.0
 13
160.2999001987
 23
151.09628409
 33
0.0
  0
SOLID
  5
151
330
14D
100
AcDbEntity
  8
VERMASSUNG
100
AcDbTrace
 10
205.2999001987
 20
150.64628409
 30
0.0
 11
202.2999001987
 21
151.09628409
 31
0.0
 12
202.2999001987
 22
150.19628409
 32
0.0
 13
202.2999001987
 23
150.19628409
 33
0.0
  0
LINE
  5
152
330
14D
100
AcDbEntity
  8
VERMASSUNG
100
AcDbLine
 10
157.2999001987
 20
130.1632168343
 30
0.0
 11
157.2999001987
 21
151.64628409
 31
0.0
  0
LINE
  5
153
330
14D
100
AcDbEntity
  8
VERMASSUNG
100
AcDbLine
 10
205.2999001987
 20
127.0382168343
 30
0.0
 11
205.2999001987
 21
151.64628409
 31
0.0
  0
LINE
  5
154
330
14D
100
AcDbEntity
  8
VERMASSUNG
100
AcDbLine
 10
157.2999001987
 20
150.64628409
 30
0.0
 11
205.2999001987
 21
150.64628409
 31
0.0
  0
MTEXT
  5
155
330
14D
100
AcDbEntity
  8
VERMASSUNG
100
AcDbMText
 10
179.8009413933
 20
153.2244196859
 30
0.0
 40
2.0
 41
0.0
 71
     1
 72
     1
  1
48
  7
SLDTEXTSTYLE0
 73
     1
 44
1.0
  0
ENDBLK
  5
14F
330
14D
100
AcDbEntity
  8
0
100
AcDbBlockEnd
  0
BLOCK
  5
158
330
157
100
AcDbEntity
  8
0
100
AcDbBlockBegin
  2
_D_5
 70
     0
 10
0.0
 20
0.0
 30
0.0
  3
_D_5
  1

  0
ARC
  5
15A
330
157
100
AcDbEntity
  8
VERMASSUNG
100
AcDbCircle
 10
195.8121396425
 20
146.5456270354
 30
0.0
 40
4.247059938537284
100
AcDbArc
 50
153.4349488229
 51
206.5650511771
  0
ARC
  5
15B
330
157
100
AcDbEntity
  8
VERMASSUNG
100
AcDbCircle
 10
193.7876607548
 20
146.5456270354
 30
0.0
 40
4.24705993853726
100
AcDbArc
 50
333.4349488229
 51
26.5650511771
  0
SOLID
  5
15C
330
157
100
AcDbEntity
  8
VERMASSUNG
100
AcDbTrace
 10
184.2999001987
 20
144.64628409
 30
0.0
 11
187.2999001987
 21
144.19628409
 31
0.0
 12
187.2999001987
 22
145.09628409
 32
0.0
 13
187.2999001987
 23
145.09628409
 33
0.0
  0
SOLID
  5
15D
330
157
100
AcDbEntity
  8
VERMASSUNG
100
AcDbTrace
 10
205.2999001987
 20
144.64628409
 30
0.0
 11
202.2999001987
 21
145.09628409
 31
0.0
 12
202.2999001987
 22
144.19628409
 32
0.0
 13
202.2999001987
 23
144.19628409
 33
0.0
  0
LINE
  5
15E
330
157
100
AcDbEntity
  8
VERMASSUNG
100
AcDbLine
 10
184.2999001987
 20
138.4382168343
 30
0.0
 11
184.2999001987
 21
145.64628409
 31
0.0
  0
LINE
  5
15F
330
157
100
AcDbEntity
  8
VERMASSUNG
100
AcDbLine
 10
205.2999001987
 20
127.0382168343
 30
0.0
 11
205.2999001987
 21
145.64628409
 31
0.0
  0
LINE
  5
160
330
157
100
AcDbEntity
  8
VERMASSUNG
100
AcDbLine
 10
184.2999001987
 20
144.64628409
 30
0.0
 11
205.2999001987
 21
144.64628409
 31
0.0
  0
MTEXT
  5
161
330
157
100
AcDbEntity
  8
VERMASSUNG
100
AcDbMText
 10
193.6009537517
 20
147.2244196859
 30
0.0
 40
2.0
 41
0.0
 71
     1
 72
     1
  1
21
  7
SLDTEXTSTYLE0
 73
     1
 44
1.0
  0
ENDBLK
  5
159
330
157
100
AcDbEntity
  8
0
100
AcDbBlockEnd
  0
ENDSEC
  0
SECTION
  2
ENTITIES
  0
MTEXT
  5
78
330
1F
100
AcDbEntity
  8
KOPF_DÜNN
100
AcDbMText
 10
13.8892156294
 20
23.8442973028
 30
0.0
 40
3.0
 41
0.0
 71
     1
 72
     1
  1
134.540.039.048
  7
SLDTEXTSTYLE0
 73
     1
 44
1.0
  0
MTEXT
  5
79
330
1F
100
AcDbEntity
  8
VERMASSUNG
100
AcDbMText
 10
13.9329988022
 20
28.8834360957
 30
0.0
 40
3.0
 41
0.0
 71
     1
 72
     1
  1
Aufnahme_Master shank ST4
  7
SLDTEXTSTYLE0
 73
     1
 44
1.0
  0
MTEXT
  5
7A
330
1F
100
AcDbEntity
  8
VERMASSUNG
100
AcDbMText
 10
98.8601118557
 20
13.8365368761
 30
0.0
 40
2.0
 41
0.0
 71
     1
 72
     1
  1
Datum: 05.06.2008
  7
SLDTEXTSTYLE0
 73
     1
 44
1.0
  0
MTEXT
  5
7C
330
1F
100
AcDbEntity
  8
VERMASSUNG
100
AcDbMText
 10
13.933048693
 20
18.0482802738
 30
0.0
 40
2.0
 41
0.0
 71
     1
 72
     1
  1
MAS BT 40 A/D
  7
SLDTEXTSTYLE1
 73
     1
 44
1.0
  0
MTEXT
  5
7D
330
1F
100
AcDbEntity
  8
VERMASSUNG
100
AcDbMText
 10
13.9808475933
 20
13.9090974274
 30
0.0
 40
2.0
 41
0.0
 71
     1
 72
     1
  1
Gewicht: 1097g
  7
SLDTEXTSTYLE0
 73
     1
 44
1.0
  0
LINE
  5
7E
330
1F
100
AcDbEntity
  8
0
  6
Continuous
 62
     7
370
    15
100
AcDbLine
 10
181.300055164
 20
76.4382168343
 30
0.0
 11
183.2999001987
 21
76.4382168343
 31
0.0
  0
LINE
  5
7F
330
1F
100
AcDbEntity
  8
0
  6
Continuous
 62
     7
370
    15
100
AcDbLine
 10
183.2999001987
 20
139.4382168343
 30
0.0
 11
181.2994000286
 21
139.4382168343
 31
0.0
  0
ARC
  5
80
330
1F
100
AcDbEntity
  8
0
  6
Continuous
 62
     7
370
    15
100
AcDbCircle
 10
183.2999001987
 20
77.4382168343
 30
0.0
 40
1.000000000000014
100
AcDbArc
 50
270.0
 51
0.0
  0
ARC
  5
81
330
1F
100
AcDbEntity
  8
0
  6
Continuous
 62
     7
370
    15
100
AcDbCircle
 10
183.2999001987
 20
138.4382168343
 30
0.0
 40
1.0
100
AcDbArc
 50
0.0
 51
90.0
  0
ARC
  5
82
330
1F
100
AcDbEntity
  8
0
  6
Continuous
 62
     7
370
    15
100
AcDbCircle
 10
188.2999001987
 20
84.4382168343
 30
0.0
 40
4.0
100
AcDbArc
 50
90.0
 51
180.0
  0
ARC
  5
83
330
1F
100
AcDbEntity
  8
0
  6
Continuous
 62
     7
370
    15
100
AcDbCircle
 10
188.2999001987
 20
131.4382168343
 30
0.0
 40
4.0
100
AcDbArc
 50
180.0
 51
270.0
  0
ARC
  5
84
330
1F
100
AcDbEntity
  8
0
  6
Continuous
 62
     7
370
    15
100
AcDbCircle
 10
158.2999001987
 20
84.7132168343
 30
0.0
 40
1.000000000000011
100
AcDbArc
 50
46.4339520928
 51
90.0
  0
ARC
  5
85
330
1F
100
AcDbEntity
  8
0
  6
Continuous
 62
     7
370
    15
100
AcDbCircle
 10
158.2999001987
 20
131.1632168343
 30
0.0
 40
1.000000000000012
100
AcDbArc
 50
270.0
 51
313.5375848355
  0
LINE
  5
86
330
1F
100
AcDbEntity
  8
0
  6
Continuous
 62
     7
370
    15
100
AcDbLine
 10
157.2999001987
 20
85.7132168343
 30
0.0
 11
158.2999001987
 21
85.7132168343
 31
0.0
  0
LINE
  5
87
330
1F
100
AcDbEntity
  8
0
  6
Continuous
 62
     7
370
    15
100
AcDbLine
 10
158.2999001987
 20
130.1632168343
 30
0.0
 11
157.2999001987
 21
130.1632168343
 31
0.0
  0
LINE
  5
88
330
1F
100
AcDbEntity
  8
0
  6
Continuous
 62
     7
370
    15
100
AcDbLine
 10
157.2999001987
 20
130.1632168343
 30
0.0
 11
92.7555933056
 21
120.7505054124
 31
0.0
  0
LINE
  5
89
330
1F
100
AcDbEntity
  8
0
  6
Continuous
 62
     7
370
    15
100
AcDbLine
 10
92.7555933056
 20
95.1259282562
 30
0.0
 11
157.2999001987
 21
85.7132168343
 31
0.0
  0
LINE
  5
8A
330
1F
100
AcDbEntity
  8
0
  6
Continuous
 62
     7
370
    15
100
AcDbLine
 10
204.8999001987
 20
127.4382168343
 30
0.0
 11
188.2999001987
 21
127.4382168343
 31
0.0
  0
LINE
  5
8B
330
1F
100
AcDbEntity
  8
0
  6
Continuous
 62
     7
370
    15
100
AcDbLine
 10
188.2999001987
 20
88.4382168343
 30
0.0
 11
204.8999001987
 21
88.4382168343
 31
0.0
  0
LINE
  5
8C
330
1F
100
AcDbEntity
  8
0
  6
Continuous
 62
     7
370
    15
100
AcDbLine
 10
204.8999001987
 20
88.4382168343
 30
0.0
 11
205.2999001987
 21
88.8382168343
 31
0.0
  0
LINE
  5
8D
330
1F
100
AcDbEntity
  8
0
  6
Continuous
 62
     7
370
    15
100
AcDbLine
 10
205.2999001987
 20
127.0382168343
 30
0.0
 11
204.8999001987
 21
127.4382168343
 31
0.0
  0
ARC
  5
8E
330
1F
100
AcDbEntity
  8
0
  6
Continuous
 62
     7
370
    15
100
AcDbCircle
 10
92.8999001987
 20
96.1154612373
 30
0.0
 40
1.000000000000008
100
AcDbArc
 50
180.0
 51
261.7028550302
  0
ARC
  5
8F
330
1F
100
AcDbEntity
  8
0
  6
Continuous
 62
     7
370
    15
100
AcDbCircle
 10
92.8999001987
 20
119.7609724313
 30
0.0
 40
1.000000000000008
100
AcDbArc
 50
98.2971449698
 51
180.0
  0
SPLINE
  5
90
330
1F
100
AcDbEntity
  8
0
  6
Continuous
 62
     7
370
    15
100
AcDbSpline
210
0.0
220
0.0
230
1.0
 70
    24
 71
     3
 72
    11
 73
     7
 74
     0
 42
0.000000001
 43
0.00000001
 40
0.0
 40
0.0
 40
0.0
 40
0.0
 40
0.1285561766307357
 40
0.4801535797842165
 40
0.8150691831753923
 40
1.0
 40
1.0
 40
1.0
 40
1.0
 10
195.4338472114438
 20
105.6361532318139
 30
0.0
 10
195.3498531852671
 20
105.6760930818907
 30
0.0
 10
195.0361379410352
 20
105.8252672600049
 30
0.0
 10
194.4478515954775
 20
106.105002254424
 30
0.0
 10
193.8108615758238
 20
106.4078962463352
 30
0.0
 10
193.4696213644897
 20
106.5701587726269
 30
0.0
 10
193.348228144182
 20
106.6278822470229
 30
0.0
  0
SPLINE
  5
91
330
1F
100
AcDbEntity
  8
0
  6
Continuous
 62
     7
370
    15
100
AcDbSpline
210
0.0
220
0.0
230
1.0
 70
    24
 71
     3
 72
    11
 73
     7
 74
     0
 42
0.000000001
 43
0.00000001
 40
0.0
 40
0.0
 40
0.0
 40
0.0
 40
0.2164526859271179
 40
0.4403055508634007
 40
0.7518960204221885
 40
1.0
 40
1.0
 40
1.0
 40
1.0
 10
197.3355192659158
 20
106.9464878190754
 30
0.0
 10
197.2052545391285
 20
106.8567297682021
 30
0.0
 10
196.9402715381531
 20
106.674144978991
 30
0.0
 10
196.4485310282828
 20
106.3353144237829
 30
0.0
 10
195.9210447254369
 20
105.9718534656748
 30
0.0
 10
195.5834831079316
 20
105.7392588594129
 30
0.0
 10
195.4338472114438
 20
105.6361532318139
 30
0.0
  0
SPLINE
  5
92
330
1F
100
AcDbEntity
  8
0
  6
Continuous
 62
     7
370
    15
100
AcDbSpline
210
0.0
220
0.0
230
1.0
 70
    24
 71
     3
 72
    11
 73
     7
 74
     0
 42
0.000000001
 43
0.00000001
 40
0.0
 40
0.0
 40
0.0
 40
0.0
 40
0.2164526859271225
 40
0.4403055508633967
 40
0.7518960204221938
 40
1.0
 40
1.0
 40
1.0
 40
1.0
 10
197.151572253126
 20
109.2485514215458
 30
0.0
 10
197.1641726419828
 20
109.0908598334943
 30
0.0
 10
197.1898042072965
 20
108.770085428473
 30
0.0
 10
197.23736982075
 20
108.1748103772514
 30
0.0
 10
197.2883930923325
 20
107.5362633597844
 30
0.0
 10
197.3210451213858
 20
107.1276291205513
 30
0.0
 10
197.3355192659158
 20
106.9464878190754
 30
0.0
  0
SPLINE
  5
93
330
1F
100
AcDbEntity
  8
0
  6
Continuous
 62
     7
370
    15
100
AcDbSpline
210
0.0
220
0.0
230
1.0
 70
    24
 71
     3
 72
    11
 73
     7
 74
     0
 42
0.000000001
 43
0.00000001
 40
0.0
 40
0.0
 40
0.0
 40
0.0
 40
0.1849308168246161
 40
0.5198464202157843
 40
0.8714438233692638
 40
1.0
 40
1.0
 40
1.0
 40
1.0
 10
195.0659531858642
 20
110.2402804367547
 30
0.0
 10
195.1873464061719
 20
110.1825569623588
 30
0.0
 10
195.528586617506
 20
110.020294436067
 30
0.0
 10
196.1655766371597
 20
109.7174004441558
 30
0.0
 10
196.7538629827174
 20
109.4376654497368
 30
0.0
 10
197.0675782269493
 20
109.2884912716225
 30
0.0
 10
197.151572253126
 20
109.2485514215458
 30
0.0
  0
SPLINE
  5
94
330
1F
100
AcDbEntity
  8
0
  6
Continuous
 62
     7
370
    15
100
AcDbSpline
210
0.0
220
0.0
230
1.0
 70
    24
 71
     3
 72
    11
 73
     7
 74
     0
 42
0.000000001
 43
0.00000001
 40
0.0
 40
0.0
 40
0.0
 40
0.0
 40
0.2164526859271156
 40
0.4403055508634058
 40
0.7518960204221911
 40
1.0
 40
1.0
 40
1.0
 40
1.0
 10
193.1642811313922
 20
108.9299458494933
 30
0.0
 10
193.2945458581795
 20
109.0197039003665
 30
0.0
 10
193.5595288591549
 20
109.2022886895776
 30
0.0
 10
194.0512693690252
 20
109.5411192447858
 30
0.0
 10
194.5787556718711
 20
109.9045802028939
 30
0.0
 10
194.9163172893764
 20
110.1371748091557
 30
0.0
 10
195.0659531858642
 20
110.2402804367547
 30
0.0
  0
SPLINE
  5
95
330
1F
100
AcDbEntity
  8
0
  6
Continuous
 62
     7
370
    15
100
AcDbSpline
210
0.0
220
0.0
230
1.0
 70
    24
 71
     3
 72
    11
 73
     7
 74
     0
 42
0.000000001
 43
0.00000001
 40
0.0
 40
0.0
 40
0.0
 40
0.0
 40
0.2164526859271233
 40
0.4403055508633988
 40
0.7518960204221949
 40
1.0
 40
1.0
 40
1.0
 40
1.0
 10
193.348228144182
 20
106.6278822470229
 30
0.0
 10
193.3356277553252
 20
106.7855738350743
 30
0.0
 10
193.3099961900115
 20
107.1063482400956
 30
0.0
 10
193.262430576558
 20
107.7016232913172
 30
0.0
 10
193.2114073049756
 20
108.3401703087842
 30
0.0
 10
193.1787552759222
 20
108.7488045480173
 30
0.0
 10
193.1642811313922
 20
108.9299458494933
 30
0.0
  0
CIRCLE
  5
96
330
1F
100
AcDbEntity
  8
0
  6
Continuous
 62
     7
370
    15
100
AcDbCircle
 10
195.2499001987
 20
107.9382168343
 30
0.0
 40
2.399999999999994
  0
CIRCLE
  5
97
330
1F
100
AcDbEntity
  8
0
  6
Continuous
 62
     7
370
    15
100
AcDbCircle
 10
195.2499001987
 20
107.9382168343
 30
0.0
 40
3.620000000000007
  0
CIRCLE
  5
98
330
1F
100
AcDbEntity
  8
0
  6
Continuous
 62
     7
370
    15
100
AcDbCircle
 10
195.2499001987
 20
107.9382168343
 30
0.0
 40
4.000000000000006
  0
ARC
  5
99
330
1F
100
AcDbEntity
  8
0
  6
Continuous
 62
     7
370
    15
100
AcDbCircle
 10
195.2499001987
 20
107.9382168343
 30
0.0
 40
1.999999999999998
100
AcDbArc
 50
304.5685280832
 51
4.5685280832
  0
ARC
  5
9A
330
1F
100
AcDbEntity
  8
0
  6
Continuous
 62
     7
370
    15
100
AcDbCircle
 10
195.2499001987
 20
107.9382168343
 30
0.0
 40
2.000000000000003
100
AcDbArc
 50
184.5685280832
 51
244.5685280832
  0
ARC
  5
9B
330
1F
100
AcDbEntity
  8
0
  6
Continuous
 62
     7
370
    15
100
AcDbCircle
 10
195.2499001987
 20
107.9382168343
 30
0.0
 40
2.0
100
AcDbArc
 50
64.5685280832
 51
124.5685280832
  0
ARC
  5
9C
330
1F
100
AcDbEntity
  8
0
  6
Continuous
 62
     7
370
    15
100
AcDbCircle
 10
195.2499001987
 20
107.9382168343
 30
0.0
 40
2.0
100
AcDbArc
 50
124.5685280832
 51
184.5685280832
  0
ARC
  5
9D
330
1F
100
AcDbEntity
  8
0
  6
Continuous
 62
     7
370
    15
100
AcDbCircle
 10
195.2499001987
 20
107.9382168343
 30
0.0
 40
2.000000000000003
100
AcDbArc
 50
244.5685280832
 51
304.5685280832
  0
ARC
  5
9E
330
1F
100
AcDbEntity
  8
0
  6
Continuous
 62
     7
370
    15
100
AcDbCircle
 10
195.2499001987
 20
107.9382168343
 30
0.0
 40
1.999999999999998
100
AcDbArc
 50
4.5685280832
 51
64.5685280832
  0
SPLINE
  5
9F
330
1F
100
AcDbEntity
  8
0
  6
Continuous
 62
     7
370
    15
100
AcDbSpline
210
0.0
220
0.0
230
1.0
 70
     8
 71
     3
 72
    10
 73
     6
 74
     0
 42
0.000000001
 43
0.00000001
 40
0.0
 40
0.0
 40
0.0
 40
0.0
 40
0.5
 40
0.5
 40
1.0
 40
1.0
 40
1.0
 40
1.0
 10
178.2765086026995
 20
137.8426775556385
 30
0.0
 10
177.9604047715601
 20
137.2228149973613
 30
0.0
 10
177.6306257272153
 20
136.5769142620625
 30
0.0
 10
176.9584024548265
 20
135.2624956217619
 30
0.0
 10
176.6162692888959
 20
134.5945733947496
 30
0.0
 10
176.2690889603817
 20
133.9182356622682
 30
0.0
  0
SPLINE
  5
A0
330
1F
100
AcDbEntity
  8
0
  6
Continuous
 62
     7
370
    15
100
AcDbSpline
210
0.0
220
0.0
230
1.0
 70
     8
 71
     3
 72
     9
 73
     5
 74
     0
 42
0.000000001
 43
0.00000001
 40
0.0
 40
0.0
 40
0.0
 40
0.0
 40
0.5067595796178751
 40
1.0
 40
1.0
 40
1.0
 40
1.0
 10
178.9255307416386
 20
138.8003519416333
 30
0.0
 10
178.8151303938565
 20
138.638277003299
 30
0.0
 10
178.5972749211188
 20
138.3184509065599
 30
0.0
 10
178.3826818189103
 20
138.0001029269227
 30
0.0
 10
178.2768358269659
 20
137.8430808356186
 30
0.0
  0
LINE
  5
A1
330
1F
100
AcDbEntity
  8
0
  6
Continuous
 62
     7
370
    15
100
AcDbLine
 10
178.9249001987
 20
77.0771188147
 30
0.0
 11
178.9249001987
 21
138.7992985888
 31
0.0
  0
SPLINE
  5
A2
330
1F
100
AcDbEntity
  8
0
  6
Continuous
 62
     7
370
    15
100
AcDbSpline
210
0.0
220
0.0
230
1.0
 70
     8
 71
     3
 72
     9
 73
     5
 74
     0
 42
0.000000001
 43
0.00000001
 40
0.0
 40
0.0
 40
0.0
 40
0.0
 40
0.4932426502230348
 40
1.0
 40
1.0
 40
1.0
 40
1.0
 10
178.276821911943
 20
78.03335073257955
 30
0.0
 10
178.3826680169542
 20
77.8763274929194
 30
0.0
 10
178.5972603782663
 20
77.55797862428615
 30
0.0
 10
178.8151146662264
 20
77.23815257758262
 30
0.0
 10
178.9255139278307
 20
77.07607837776551
 30
0.0
  0
SPLINE
  5
A3
330
1F
100
AcDbEntity
  8
0
  6
Continuous
 62
     7
370
    15
100
AcDbSpline
210
0.0
220
0.0
230
1.0
 70
     8
 71
     3
 72
    10
 73
     6
 74
     0
 42
0.000000001
 43
0.00000001
 40
0.0
 40
0.0
 40
0.0
 40
0.0
 40
0.5
 40
0.5
 40
1.0
 40
1.0
 40
1.0
 40
1.0
 10
178.2765026830317
 20
78.0337677210793
 30
0.0
 10
177.9603235803576
 20
78.65377787309302
 30
0.0
 10
177.6298813531906
 20
79.30097593896072
 30
0.0
 10
176.9581698325079
 20
80.61439186355449
 30
0.0
 10
176.6161959574759
 20
81.28200312985729
 30
0.0
 10
176.2690889603817
 20
81.95819800630045
 30
0.0
  0
SPLINE
  5
A4
330
1F
100
AcDbEntity
  8
0
  6
Continuous
 62
     7
370
    15
100
AcDbSpline
210
0.0
220
0.0
230
1.0
 70
     8
 71
     3
 72
    11
 73
     7
 74
     0
 42
0.000000001
 43
0.00000001
 40
0.0
 40
0.0
 40
0.0
 40
0.0
 40
0.2488814606695658
 40
0.5011921284368381
 40
0.7520447562540515
 40
1.0
 40
1.0
 40
1.0
 40
1.0
 10
181.2994000286369
 20
139.4380670888779
 30
0.0
 10
181.2696216991375
 20
139.4289350627336
 30
0.0
 10
181.2096547401564
 20
139.4105451850468
 30
0.0
 10
180.7177326784096
 20
139.2665079365617
 30
0.0
 10
179.9896632557902
 20
139.0571048584504
 30
0.0
 10
179.2789197846126
 20
138.8849005891016
 30
0.0
 10
178.9256122674629
 20
138.7992985887829
 30
0.0
  0
SPLINE
  5
A5
330
1F
100
AcDbEntity
  8
0
  6
Continuous
 62
     7
370
    15
100
AcDbSpline
210
0.0
220
0.0
230
1.0
 70
     8
 71
     3
 72
    24
 73
    20
 74
     0
 42
0.000000001
 43
0.00000001
 40
0.0
 40
0.0
 40
0.0
 40
0.0
 40
0.0452304145230468
 40
0.0903354254807773
 40
0.1353632524017138
 40
0.1803623629163211
 40
0.2253813173811786
 40
0.2704686120121845
 40
0.3156725230495646
 40
0.3610409544388638
 40
0.4066212913821985
 40
0.4524602619010737
 40
0.4986038082699224
 40
0.5832834063274132
 40
0.6671222514847349
 40
0.7504134308293638
 40
0.8334558303783486
 40
0.9165510206949746
 40
0.9999999999999999
 40
0.9999999999999999
 40
0.9999999999999999
 40
0.9999999999999999
 10
178.9255188920717
 20
77.07711881474886
 30
0.0
 10
178.9932226339744
 20
77.06135977373135
 30
0.0
 10
179.1284424058009
 20
77.0298853844184
 30
0.0
 10
179.3211041226388
 20
76.98342458107963
 30
0.0
 10
179.5058409942876
 20
76.9377936014476
 30
0.0
 10
179.6819589355787
 20
76.8931683040145
 30
0.0
 10
179.8496427281911
 20
76.84968101741507
 30
0.0
 10
180.0088422124803
 20
76.80747996961863
 30
0.0
 10
180.1595703509726
 20
76.76671337730009
 30
0.0
 10
180.3018233043749
 20
76.72753362471536
 30
0.0
 10
180.435602059601
 20
76.69009633282396
 30
0.0
 10
180.5609059700027
 20
76.65455974918461
 30
0.0
 10
180.7099545197835
 20
76.6118577337099
 30
0.0
 10
180.8707200971508
 20
76.5653490426784
 30
0.0
 10
181.0266461819509
 20
76.5196891524832
 30
0.0
 10
181.1482711998774
 20
76.48365888377316
 30
0.0
 10
181.2347469290986
 20
76.457777358824
 30
0.0
 10
181.2891658364458
 20
76.44134128229832
 30
0.0
 10
181.2963143780275
 20
76.43925992371018
 30
0.0
 10
181.2998962416249
 20
76.43821703370604
 30
0.0
  0
LINE
  5
A6
330
1F
100
AcDbEntity
  8
0
  6
Continuous
 62
     7
370
    15
100
AcDbLine
 10
159.2999001987
 20
78.8118112888
 30
0.0
 11
159.2999001987
 21
137.0646223798
 31
0.0
  0
SPLINE
  5
A7
330
1F
100
AcDbEntity
  8
0
  6
Continuous
 62
     7
370
    15
100
AcDbSpline
210
0.0
220
0.0
230
1.0
 70
     8
 71
     3
 72
    12
 73
     8
 74
     0
 42
0.000000001
 43
0.00000001
 40
0.0
 40
0.0
 40
0.0
 40
0.0
 40
0.2500000000000001
 40
0.2500000000000001
 40
0.5000000000000002
 40
0.5000000000000002
 40
1.0
 40
1.0
 40
1.0
 40
1.0
 10
159.6869330216196
 20
138.0052067341053
 30
0.0
 10
159.6350722704315
 20
137.9483941617909
 30
0.0
 10
159.5863404734125
 20
137.8864019755391
 30
0.0
 10
159.4961674634951
 20
137.7503489024151
 30
0.0
 10
159.4543902152102
 20
137.6754427998164
 30
0.0
 10
159.3483013453642
 20
137.437316164519
 30
0.0
 10
159.299900198654
 20
137.2539094329502
 30
0.0
 10
159.299900198654
 20
137.0646223797683
 30
0.0
  0
SPLINE
  5
A8
330
1F
100
AcDbEntity
  8
0
  6
Continuous
 62
     7
370
    15
100
AcDbSpline
210
0.0
220
0.0
230
1.0
 70
     8
 71
     3
 72
     8
 73
     4
 74
     0
 42
0.000000001
 43
0.00000001
 40
0.0
 40
0.0
 40
0.0
 40
0.0
 40
1.0
 40
1.0
 40
1.0
 40
1.0
 10
160.299900198654
 20
138.1746069372862
 30
0.0
 10
160.0735558850542
 20
138.1746069372862
 30
0.0
 10
159.856103764649
 20
138.1112384682653
 30
0.0
 10
159.6869330216196
 20
138.0052067341053
 30
0.0
  0
SPLINE
  5
A9
330
1F
100
AcDbEntity
  8
0
  6
Continuous
 62
     7
370
    15
100
AcDbSpline
210
0.0
220
0.0
230
1.0
 70
     8
 71
     3
 72
     8
 73
     4
 74
     0
 42
0.000000001
 43
0.00000001
 40
0.0
 40
0.0
 40
0.0
 40
0.0
 40
1.0
 40
1.0
 40
1.0
 40
1.0
 10
159.6869330216196
 20
77.87122693446335
 30
0.0
 10
159.8565265272715
 20
77.76493022390616
 30
0.0
 10
160.0728952196047
 20
77.70182673128248
 30
0.0
 10
160.299900198654
 20
77.70182673128248
 30
0.0
  0
SPLINE
  5
AA
330
1F
100
AcDbEntity
  8
0
  6
Continuous
 62
     7
370
    15
100
AcDbSpline
210
0.0
220
0.0
230
1.0
 70
     8
 71
     3
 72
    12
 73
     8
 74
     0
 42
0.000000001
 43
0.00000001
 40
0.0
 40
0.0
 40
0.0
 40
0.0
 40
0.2499999999999976
 40
0.2499999999999976
 40
0.4999999999999952
 40
0.4999999999999952
 40
1.0
 40
1.0
 40
1.0
 40
1.0
 10
159.6869330216196
 20
77.87122693446335
 30
0.0
 10
159.6350722704315
 20
77.92803950677774
 30
0.0
 10
159.5863404734125
 20
77.99003169302956
 30
0.0
 10
159.4961674634951
 20
78.12608476615355
 30
0.0
 10
159.4543902152102
 20
78.20099086875229
 30
0.0
 10
159.3483013453642
 20
78.43911750404969
 30
0.0
 10
159.299900198654
 20
78.62252423561847
 30
0.0
 10
159.299900198654
 20
78.81181128880034
 30
0.0
  0
LINE
  5
AB
330
1F
100
AcDbEntity
  8
0
  6
Continuous
 62
     7
370
    15
100
AcDbLine
 10
184.2999001987
 20
77.4382168343
 30
0.0
 11
184.2999001987
 21
138.4382168281
 31
0.0
  0
LINE
  5
AC
330
1F
100
AcDbEntity
  8
0
  6
Continuous
 62
     7
370
    15
100
AcDbLine
 10
168.8749001987
 20
138.1746069373
 30
0.0
 11
160.2999001987
 21
138.1746069373
 31
0.0
  0
LINE
  5
AD
330
1F
100
AcDbEntity
  8
0
  6
Continuous
 62
     7
370
    15
100
AcDbLine
 10
168.8749001987
 20
77.7018267313
 30
0.0
 11
168.8749001987
 21
138.1746069373
 31
0.0
  0
LINE
  5
AE
330
1F
100
AcDbEntity
  8
0
  6
Continuous
 62
     7
370
    15
100
AcDbLine
 10
160.2999001987
 20
77.7018267313
 30
0.0
 11
168.8749001987
 21
77.7018267313
 31
0.0
  0
SPLINE
  5
AF
330
1F
100
AcDbEntity
  8
0
  6
Continuous
 62
     7
370
    15
100
AcDbSpline
210
0.0
220
0.0
230
1.0
 70
     8
 71
     3
 72
     8
 73
     4
 74
     0
 42
0.000000001
 43
0.00000001
 40
0.0
 40
0.0
 40
0.0
 40
0.0
 40
0.0012389803509652
 40
0.0012389803509652
 40
0.0012389803509652
 40
0.0012389803509652
 10
169.4324617421878
 20
137.3922395570708
 30
0.0
 10
169.2473417690549
 20
137.6532895384498
 30
0.0
 10
169.061463321296
 20
137.9140711515688
 30
0.0
 10
168.874900198654
 20
138.1746069372862
 30
0.0
  0
SPLINE
  5
B0
330
1F
100
AcDbEntity
  8
0
  6
Continuous
 62
     7
370
    15
100
AcDbSpline
210
0.0
220
0.0
230
1.0
 70
     8
 71
     3
 72
     8
 73
     4
 74
     0
 42
0.000000001
 43
0.00000001
 40
0.0
 40
0.0
 40
0.0
 40
0.0
 40
1.0
 40
1.0
 40
1.0
 40
1.0
 10
171.5307114369263
 20
133.6054624987493
 30
0.0
 10
170.8344180708848
 20
134.8694008668642
 30
0.0
 10
170.1346229056936
 20
136.1314563123724
 30
0.0
 10
169.4324617421878
 20
137.3922395570708
 30
0.0
  0
SPLINE
  5
B1
330
1F
100
AcDbEntity
  8
0
  6
Continuous
 62
     7
370
    15
100
AcDbSpline
210
0.0
220
0.0
230
1.0
 70
     8
 71
     3
 72
     8
 73
     4
 74
     0
 42
0.000000001
 43
0.00000001
 40
0.0
 40
0.0
 40
0.0
 40
0.0
 40
1.0
 40
1.0
 40
1.0
 40
1.0
 10
171.5307114369263
 20
82.27097116981926
 30
0.0
 10
170.8343932962683
 20
81.00698782987249
 30
0.0
 10
170.1345961041579
 20
79.74492923202051
 30
0.0
 10
169.4324617421878
 20
78.48419411149781
 30
0.0
  0
SPLINE
  5
B2
330
1F
100
AcDbEntity
  8
0
  6
Continuous
 62
     7
370
    15
100
AcDbSpline
210
0.0
220
0.0
230
1.0
 70
     8
 71
     3
 72
     8
 73
     4
 74
     0
 42
0.000000001
 43
0.00000001
 40
0.0
 40
0.0
 40
0.0
 40
0.0
 40
0.0012389803509652
 40
0.0012389803509652
 40
0.0012389803509652
 40
0.0012389803509652
 10
168.874900198654
 20
77.70182673128248
 30
0.0
 10
169.061463321296
 20
77.96236251699983
 30
0.0
 10
169.2473417690549
 20
78.22314413011883
 30
0.0
 10
169.4324617421878
 20
78.48419411149781
 30
0.0
  0
SPLINE
  5
B3
330
1F
100
AcDbEntity
  8
0
  6
Continuous
 62
     7
370
    15
100
AcDbSpline
210
0.0
220
0.0
230
1.0
 70
     8
 71
     3
 72
    12
 73
     8
 74
     0
 42
0.000000001
 43
0.00000001
 40
0.0
 40
0.0
 40
0.0
 40
0.0
 40
0.2499999999999968
 40
0.2499999999999968
 40
0.4999999999999936
 40
0.4999999999999936
 40
1.0
 40
1.0
 40
1.0
 40
1.0
 10
176.2690889603817
 20
133.9182356622682
 30
0.0
 10
176.2331848100452
 20
133.84829122812
 30
0.0
 10
176.1906532579157
 20
133.7850398650622
 30
0.0
 10
176.0938589810757
 20
133.6699812101463
 30
0.0
 10
176.0387693028114
 20
133.6176526764343
 30
0.0
 10
175.8606360692575
 20
133.4838677733492
 30
0.0
 10
175.7232589772549
 20
133.4233200061911
 30
0.0
 10
175.576268637355
 20
133.4041200578072
 30
0.0
  0
SPLINE
  5
B4
330
1F
100
AcDbEntity
  8
0
  6
Continuous
 62
     7
370
    15
100
AcDbSpline
210
0.0
220
0.0
230
1.0
 70
     8
 71
     3
 72
    12
 73
     8
 74
     0
 42
0.000000001
 43
0.00000001
 40
0.0
 40
0.0
 40
0.0
 40
0.0
 40
0.2500000000000022
 40
0.2500000000000022
 40
0.5000000000000044
 40
0.5000000000000044
 40
1.0
 40
1.0
 40
1.0
 40
1.0
 10
176.2690889603817
 20
81.95819800630045
 30
0.0
 10
176.2331848100452
 20
82.02814244044859
 30
0.0
 10
176.1906532579157
 20
82.09139380350643
 30
0.0
 10
176.0938589810757
 20
82.20645245842236
 30
0.0
 10
176.0387693028114
 20
82.25878099213435
 30
0.0
 10
175.8606360692575
 20
82.39256589521943
 30
0.0
 10
175.7232589772549
 20
82.45311366237759
 30
0.0
 10
175.576268637355
 20
82.47231361076147
 30
0.0
  0
SPLINE
  5
B5
330
1F
100
AcDbEntity
  8
0
  6
Continuous
 62
     7
370
    15
100
AcDbSpline
210
0.0
220
0.0
230
1.0
 70
     8
 71
     3
 72
    10
 73
     6
 74
     0
 42
0.000000001
 43
0.00000001
 40
0.0
 40
0.0
 40
0.0
 40
0.0
 40
0.5
 40
0.5
 40
1.0
 40
1.0
 40
1.0
 40
1.0
 10
172.2235317599538
 20
133.1859395038638
 30
0.0
 10
172.0815144475069
 20
133.1859395038638
 30
0.0
 10
171.9410674006446
 20
133.2264293560733
 30
0.0
 10
171.6994774813833
 20
133.3743651860125
 30
0.0
 10
171.59880003913
 20
133.481865461992
 30
0.0
 10
171.5307114369264
 20
133.6054624987491
 30
0.0
  0
SPLINE
  5
B6
330
1F
100
AcDbEntity
  8
0
  6
Continuous
 62
     7
370
    15
100
AcDbSpline
210
0.0
220
0.0
230
1.0
 70
     8
 71
     3
 72
    10
 73
     6
 74
     0
 42
0.000000001
 43
0.00000001
 40
0.0
 40
0.0
 40
0.0
 40
0.0
 40
0.5
 40
0.5
 40
1.0
 40
1.0
 40
1.0
 40
1.0
 10
172.2235317599538
 20
82.69049416470479
 30
0.0
 10
172.0826743954432
 20
82.69049416470479
 30
0.0
 10
171.939840263969
 20
82.6493902588861
 30
0.0
 10
171.6995785731957
 20
82.50199236558514
 30
0.0
 10
171.5988723041162
 20
82.39469938474551
 30
0.0
 10
171.5307114369263
 20
82.27097116981928
 30
0.0
  0
LINE
  5
B7
330
1F
100
AcDbEntity
  8
0
  6
Continuous
 62
     7
370
    15
100
AcDbLine
 10
172.2499001987
 20
82.6904941647
 30
0.0
 11
172.22353176
 21
82.6904941647
 31
0.0
  0
LINE
  5
B8
330
1F
100
AcDbEntity
  8
0
  6
Continuous
 62
     7
370
    15
100
AcDbLine
 10
172.2499001987
 20
133.1859395039
 30
0.0
 11
172.22353176
 21
133.1859395039
 31
0.0
  0
SPLINE
  5
B9
330
1F
100
AcDbEntity
  8
0
  6
Continuous
 62
     7
370
    15
100
AcDbSpline
210
0.0
220
0.0
230
1.0
 70
     8
 71
     3
 72
    10
 73
     6
 74
     0
 42
0.000000001
 43
0.00000001
 40
0.0
 40
0.0
 40
0.0
 40
0.0
 40
0.5
 40
0.5
 40
1.0
 40
1.0
 40
1.0
 40
1.0
 10
175.5762686373542
 20
133.4041200578101
 30
0.0
 10
175.0543539129583
 20
133.3359473073019
 30
0.0
 10
174.5155027328489
 20
133.281324042344
 30
0.0
 10
173.4041400908168
 20
133.2062281894526
 30
0.0
 10
172.8272993136207
 20
133.1859395038638
 30
0.0
 10
172.249900198654
 20
133.1859395038638
 30
0.0
  0
SPLINE
  5
BA
330
1F
100
AcDbEntity
  8
0
  6
Continuous
 62
     7
370
    15
100
AcDbSpline
210
0.0
220
0.0
230
1.0
 70
     8
 71
     3
 72
    10
 73
     6
 74
     0
 42
0.000000001
 43
0.00000001
 40
0.0
 40
0.0
 40
0.0
 40
0.0
 40
0.5
 40
0.5
 40
1.0
 40
1.0
 40
1.0
 40
1.0
 10
175.5762686373542
 20
82.47231361075855
 30
0.0
 10
175.0543539129583
 20
82.54048636126676
 30
0.0
 10
174.5155027328489
 20
82.59510962622468
 30
0.0
 10
173.4041400908168
 20
82.67020547911604
 30
0.0
 10
172.8272993136207
 20
82.6904941647048
 30
0.0
 10
172.249900198654
 20
82.6904941647048
 30
0.0
  0
SPLINE
  5
BB
330
1F
100
AcDbEntity
  8
0
  6
Continuous
 62
     7
370
    15
100
AcDbSpline
210
0.0
220
0.0
230
1.0
 70
     8
 71
     3
 72
    10
 73
     6
 74
     0
 42
0.000000001
 43
0.00000001
 40
0.0
 40
0.0
 40
0.0
 40
0.0
 40
0.2806291598784411
 40
0.9999940004803342
 40
1.0
 40
1.0
 40
1.0
 40
1.0
 10
159.1453928928609
 20
130.4382168342843
 30
0.0
 10
159.1244259746431
 20
130.438216834298
 30
0.0
 10
159.0497124543678
 20
130.4382168343467
 30
0.0
 10
158.9592406898645
 20
130.4382168338749
 30
0.0
 10
158.9886495548824
 20
130.4382168342843
 30
0.0
 10
158.988649800151
 20
130.4382168342843
 30
0.0
  0
SPLINE
  5
BC
330
1F
100
AcDbEntity
  8
0
  6
Continuous
 62
     7
370
    15
100
AcDbSpline
210
0.0
220
0.0
230
1.0
 70
    24
 71
     3
 72
     9
 73
     5
 74
     0
 42
0.000000001
 43
0.00000001
 40
0.0
 40
0.0
 40
0.0
 40
0.0
 40
0.6863472607341549
 40
0.9999999999999999
 40
0.9999999999999999
 40
0.9999999999999999
 40
0.9999999999999999
 10
158.9886499016783
 20
85.43821683428432
 30
0.0
 10
159.0076904755947
 20
85.43821683428432
 30
0.0
 10
159.0354323709963
 20
85.43821683428432
 30
0.0
 10
159.117479760089
 20
85.43821683428432
 30
0.0
 10
159.1432141484276
 20
85.43821683428432
 30
0.0
  0
LINE
  5
BD
330
1F
100
AcDbEntity
  8
0
  6
Continuous
 62
     7
370
    15
100
AcDbLine
 10
157.2999001987
 20
85.7132168343
 30
0.0
 11
157.2999001987
 21
130.1632168343
 31
0.0
  0
SPLINE
  5
BE
330
1F
100
AcDbEntity
  8
0
  6
Continuous
 62
     7
370
    15
100
AcDbSpline
210
0.0
220
0.0
230
1.0
 70
    11
 71
     3
 72
    77
 73
    73
 74
     0
 42
0.000000001
 43
0.00000001
 40
0.0
 40
0.0
 40
0.0
 40
0.0
 40
0.0312499999999997
 40
0.0312499999999997
 40
0.0624999999999995
 40
0.0624999999999995
 40
0.0937499999999993
 40
0.0937499999999993
 40
0.124999999999999
 40
0.124999999999999
 40
0.1562499999999988
 40
0.1562499999999988
 40
0.1874999999999986
 40
0.1874999999999986
 40
0.2187499999999983
 40
0.2187499999999983
 40
0.2499999999999981
 40
0.2499999999999981
 40
0.2812499999999979
 40
0.2812499999999979
 40
0.3124999999999977
 40
0.3124999999999977
 40
0.3437499999999974
 40
0.3437499999999974
 40
0.3593749999999973
 40
0.3593749999999973
 40
0.3749999999999971
 40
0.390624999999997
 40
0.390624999999997
 40
0.4062499999999969
 40
0.4062499999999969
 40
0.4374999999999968
 40
0.4374999999999968
 40
0.4687499999999968
 40
0.4687499999999968
 40
0.4999999999999968
 40
0.4999999999999968
 40
0.5312499999999968
 40
0.5312499999999968
 40
0.5624999999999967
 40
0.5624999999999967
 40
0.5937499999999967
 40
0.5937499999999967
 40
0.6249999999999967
 40
0.6249999999999967
 40
0.6562499999999966
 40
0.6562499999999966
 40
0.6874999999999966
 40
0.6874999999999966
 40
0.7187499999999966
 40
0.7187499999999966
 40
0.7499999999999964
 40
0.7499999999999964
 40
0.7656249999999967
 40
0.7656249999999967
 40
0.7812499999999969
 40
0.7812499999999969
 40
0.8124999999999974
 40
0.8124999999999974
 40
0.843749999999998
 40
0.843749999999998
 40
0.8749999999999984
 40
0.8749999999999984
 40
0.8906249999999988
 40
0.8906249999999988
 40
0.9062499999999991
 40
0.9062499999999991
 40
0.9374999999999994
 40
0.9374999999999994
 40
0.9687499999999997
 40
0.9687499999999997
 40
1.0
 40
1.0
 40
1.0
 40
1.0
 10
192.053227348941
 20
111.0951421175938
 30
0.0
 10
192.2829032307259
 20
111.2836883641692
 30
0.0
 10
192.526839095855
 20
111.4474159120299
 30
0.0
 10
193.0409482498305
 20
111.7297830047794
 30
0.0
 10
193.3131404526485
 20
111.8490207583189
 30
0.0
 10
193.8754364877269
 20
112.0384222081884
 30
0.0
 10
194.1617349576373
 20
112.1077168582584
 30
0.0
 10
194.7442718311087
 20
112.1976147440519
 30
0.0
 10
195.0433983453493
 20
112.2180345183197
 30
0.0
 10
195.6358543598299
 20
112.2078808199303
 30
0.0
 10
195.9286873143719
 20
112.1779255807131
 30
0.0
 10
196.5076347222594
 20
112.068630403793
 30
0.0
 10
196.7965126254442
 20
111.9880554456681
 30
0.0
 10
197.3487382269642
 20
111.7802646560473
 30
0.0
 10
197.6129695121744
 20
111.6534984846119
 30
0.0
 10
198.117248957082
 20
111.352893893583
 30
0.0
 10
198.3594849935557
 20
111.1767388312905
 30
0.0
 10
198.7990230062313
 20
110.7871908150646
 30
0.0
 10
198.998173922552
 20
110.5734047224372
 30
0.0
 10
199.352762996433
 20
110.1050356820752
 30
0.0
 10
199.5086823950227
 20
109.8478159081824
 30
0.0
 10
199.7565042494207
 20
109.3151723261988
 30
0.0
 10
199.8509839767753
 20
109.0372161995368
 30
0.0
 10
199.9449044706214
 20
108.6012721597056
 30
0.0
 10
199.9680010717307
 20
108.4527808873658
 30
0.0
 10
199.9964436764804
 20
108.1579601495271
 30
0.0
 10
200.0076760880192
 20
107.8631461756416
 30
0.0
 10
199.9848540862921
 20
107.5683455907271
 30
0.0
 10
199.9446425732539
 20
107.2735518377468
 30
0.0
 10
199.9156801800036
 20
107.1261265015802
 30
0.0
 10
199.8052191825507
 20
106.6955504738856
 30
0.0
 10
199.6999965048434
 20
106.4199326897909
 30
0.0
 10
199.42865538565
 20
105.8905935571259
 30
0.0
 10
199.2652405487366
 20
105.6428939418827
 30
0.0
 10
198.8931488851842
 20
105.1865087561792
 30
0.0
 10
198.681328646298
 20
104.9748005409653
 30
0.0
 10
198.2264762516585
 20
104.5998413574355
 30
0.0
 10
197.982878673755
 20
104.4350802514507
 30
0.0
 10
197.4643247742858
 20
104.1490588961458
 30
0.0
 10
197.1910876829348
 20
104.0293368255167
 30
0.0
 10
196.6331921073708
 20
103.8405627722365
 30
0.0
 10
196.3463589601669
 20
103.7702721574273
 30
0.0
 10
195.7565413615956
 20
103.6787040529992
 30
0.0
 10
195.4610878336794
 20
103.6586739413887
 30
0.0
 10
194.8717420710246
 20
103.6680715821326
 30
0.0
 10
194.5764381382426
 20
103.6976157303147
 30
0.0
 10
193.9906228138182
 20
103.8079823367446
 30
0.0
 10
193.7067596003608
 20
103.8873757357345
 30
0.0
 10
193.1566767511837
 20
104.093757456067
 30
0.0
 10
192.8888118047953
 20
104.2217094712148
 30
0.0
 10
192.3794867182991
 20
104.525411645607
 30
0.0
 10
192.1424618930544
 20
104.6981008770982
 30
0.0
 10
191.8136246147441
 20
104.9890787096354
 30
0.0
 10
191.7084934317192
 20
105.0914327171428
 30
0.0
 10
191.5076607038109
 20
105.3074934664145
 30
0.0
 10
191.411448764435
 20
105.421952274307
 30
0.0
 10
191.1439711405706
 20
105.7758356787392
 30
0.0
 10
190.9922324996314
 20
106.0266011523221
 30
0.0
 10
190.744033993912
 20
106.5592995263916
 30
0.0
 10
190.6471004787877
 20
106.8454743264347
 30
0.0
 10
190.5233080808302
 20
107.4235161551233
 30
0.0
 10
190.4946798604392
 20
107.7169540932118
 30
0.0
 10
190.5036680147711
 20
108.1640183234145
 30
0.0
 10
190.5155377878208
 20
108.3139490814577
 30
0.0
 10
190.5560443240344
 20
108.6077990203461
 30
0.0
 10
190.5846727496501
 20
108.7527790478937
 30
0.0
 10
190.6950438021059
 20
109.1820432938972
 30
0.0
 10
190.8029516357031
 20
109.463583082583
 30
0.0
 10
191.0734814774947
 20
109.9894374328942
 30
0.0
 10
191.2358442616826
 20
110.2357336203314
 30
0.0
 10
191.6126703065533
 20
110.6966765771705
 30
0.0
 10
191.8235514671561
 20
110.9065958710184
 30
0.0
 10
192.053227348941
 20
111.0951421175938
 30
0.0
  0
LINE
  5
BF
330
1F
100
AcDbEntity
  8
0
  6
Continuous
 62
     7
370
    15
100
AcDbLine
 10
204.8999001987
 20
107.9382168343
 30
0.0
 11
204.8999001987
 21
88.4382168343
 31
0.0
  0
LINE
  5
C0
330
1F
100
AcDbEntity
  8
0
  6
Continuous
 62
     7
370
    15
100
AcDbLine
 10
204.8999001987
 20
127.4382168343
 30
0.0
 11
204.8999001987
 21
107.9382168343
 31
0.0
  0
LINE
  5
C1
330
1F
100
AcDbEntity
  8
0
  6
Continuous
 62
     7
370
    15
100
AcDbLine
 10
205.2999001987
 20
107.9382168343
 30
0.0
 11
205.2999001987
 21
88.8382168343
 31
0.0
  0
LINE
  5
C2
330
1F
100
AcDbEntity
  8
0
  6
Continuous
 62
     7
370
    15
100
AcDbLine
 10
205.2999001987
 20
127.0382168343
 30
0.0
 11
205.2999001987
 21
107.9382168343
 31
0.0
  0
LINE
  5
C3
330
1F
100
AcDbEntity
  8
0
  6
Continuous
 62
     7
370
    15
100
AcDbLine
 10
91.8999001987
 20
96.1154612373
 30
0.0
 11
91.8999001987
 21
119.7609723868
 31
0.0
  0
CIRCLE
  5
C4
330
1F
100
AcDbEntity
  8
0
  6
HIDDEN
 62
     7
370
     0
100
AcDbCircle
 10
195.2499001987
 20
107.9382168343
 30
0.0
 40
2.953589838486217
  0
CIRCLE
  5
C5
330
1F
100
AcDbEntity
  8
0
  6
HIDDEN
 62
     7
370
     0
100
AcDbCircle
 10
195.2499001987
 20
107.9382168343
 30
0.0
 40
2.753589838486222
  0
SPLINE
  5
C6
330
1F
100
AcDbEntity
  8
0
  6
HIDDEN
 62
     7
370
     0
100
AcDbSpline
210
0.0
220
0.0
230
1.0
 70
     8
 71
     3
 72
    17
 73
    13
 74
     0
 42
0.000000001
 43
0.00000001
 40
0.0
 40
0.0
 40
0.0
 40
0.0
 40
0.0004909084072919
 40
0.0005116394852635
 40
0.2498351754845136
 40
0.5021944977214489
 40
0.5865777378672907
 40
0.6700037584518806
 40
0.7527614182929998
 40
0.8351466077306873
 40
0.9174592349446918
 40
1.0
 40
1.0
 40
1.0
 40
1.0
 10
181.2998962416249
 20
76.43821703370604
 30
0.0
 10
181.2998979129915
 20
76.43821693716232
 30
0.0
 10
181.29989965494
 20
76.43821683654156
 30
0.0
 10
181.300518677051
 20
76.43821572530179
 30
0.0
 10
181.1963743811669
 20
76.4704323439871
 30
0.0
 10
180.8278895778203
 20
76.57879351191663
 30
0.0
 10
180.4612770232696
 20
76.6836241887301
 30
0.0
 10
180.211745489632
 20
76.75331689370925
 30
0.0
 10
179.9339596965949
 20
76.82845860256764
 30
0.0
 10
179.6272999216938
 20
76.90812359616827
 30
0.0
 10
179.2941130885859
 20
76.99127277760321
 30
0.0
 10
179.0491156464984
 20
77.04858525983298
 30
0.0
 10
178.9264474015316
 20
77.07728115783874
 30
0.0
  0
CIRCLE
  5
C7
330
1F
100
AcDbEntity
  8
0
  6
HIDDEN
 62
     7
370
     0
100
AcDbCircle
 10
195.2499001987
 20
107.9382168343
 30
0.0
 40
3.624999999999986
  0
SPLINE
  5
C8
330
1F
100
AcDbEntity
  8
0
  6
HIDDEN
 62
     7
370
     0
100
AcDbSpline
210
0.0
220
0.0
230
1.0
 70
     8
 71
     3
 72
    16
 73
    12
 74
     0
 42
0.000000001
 43
0.00000001
 40
0.0
 40
0.0
 40
0.0
 40
0.0
 40
0.2500000000000019
 40
0.2500000000000019
 40
0.5000000000000038
 40
0.5000000000000038
 40
0.6250000000000028
 40
0.6250000000000028
 40
0.7500000000000019
 40
0.7500000000000019
 40
1.0
 40
1.0
 40
1.0
 40
1.0
 10
205.2999001986541
 20
118.4023219493021
 30
0.0
 10
205.2999001986541
 20
118.3132562807965
 30
0.0
 10
205.2945804584668
 20
118.2223939073472
 30
0.0
 10
205.2651433338461
 20
118.0343207909259
 30
0.0
 10
205.2417527877828
 20
117.936219599024
 30
0.0
 10
205.1736253576877
 20
117.7961912504999
 30
0.0
 10
205.1446638110962
 20
117.751491084049
 30
0.0
 10
205.0781222681404
 20
117.681420656573
 30
0.0
 10
205.0406761333437
 20
117.6562182650357
 30
0.0
 10
204.9303068494334
 20
117.6110786183899
 30
0.0
 10
204.8622755116284
 20
117.6166769540182
 30
0.0
 10
204.7999001986277
 20
117.6324119052207
 30
0.0
  0
SPLINE
  5
C9
330
1F
100
AcDbEntity
  8
0
  6
HIDDEN
 62
     7
370
     0
100
AcDbSpline
210
0.0
220
0.0
230
1.0
 70
     8
 71
     3
 72
     8
 73
     4
 74
     0
 42
0.000000001
 43
0.00000001
 40
0.0
 40
0.0
 40
0.0
 40
0.0
 40
1.0
 40
1.0
 40
1.0
 40
1.0
 10
204.7999001986285
 20
117.6324119052198
 30
0.0
 10
204.7148608015693
 20
117.5749678139271
 30
0.0
 10
204.6098415506253
 20
117.5342105695142
 30
0.0
 10
204.4999001986544
 20
117.5342105695141
 30
0.0
  0
SPLINE
  5
CA
330
1F
100
AcDbEntity
  8
0
  6
HIDDEN
 62
     7
370
     0
100
AcDbSpline
210
0.0
220
0.0
230
1.0
 70
     8
 71
     3
 72
     8
 73
     4
 74
     0
 42
0.000000001
 43
0.00000001
 40
0.0
 40
0.0
 40
0.0
 40
0.0
 40
1.0
 40
1.0
 40
1.0
 40
1.0
 10
204.7999001986722
 20
98.24402176331935
 30
0.0
 10
204.7148608016039
 20
98.30146585462762
 30
0.0
 10
204.6098415506441
 20
98.34222309905448
 30
0.0
 10
204.4999001986544
 20
98.34222309905455
 30
0.0
  0
SPLINE
  5
CB
330
1F
100
AcDbEntity
  8
0
  6
HIDDEN
 62
     7
370
     0
100
AcDbSpline
210
0.0
220
0.0
230
1.0
 70
     8
 71
     3
 72
    16
 73
    12
 74
     0
 42
0.000000001
 43
0.00000001
 40
0.0
 40
0.0
 40
0.0
 40
0.0
 40
0.2500000000000008
 40
0.2500000000000008
 40
0.3750000000000007
 40
0.3750000000000007
 40
0.5000000000000006
 40
0.5000000000000006
 40
0.7500000000000002
 40
0.7500000000000002
 40
1.0
 40
1.0
 40
1.0
 40
1.0
 10
204.7999001986713
 20
98.24402176331843
 30
0.0
 10
204.8619732820275
 20
98.25968053624756
 30
0.0
 10
204.9297825659097
 20
98.2652814251511
 30
0.0
 10
205.0396383378445
 20
98.22078408607709
 30
0.0
 10
205.0769452556326
 20
98.19590395877212
 30
0.0
 10
205.1432529377961
 20
98.12676837886511
 30
0.0
 10
205.1722191589452
 20
98.08264387956378
 30
0.0
 10
205.2410311090649
 20
97.9426442828029
 30
0.0
 10
205.2647417831754
 20
97.84393692917972
 30
0.0
 10
205.2944427916211
 20
97.65564889191505
 30
0.0
 10
205.2999001986541
 20
97.56341251417678
 30
0.0
 10
205.2999001986541
 20
97.47411189547043
 30
0.0
  0
LINE
  5
CC
330
1F
100
AcDbEntity
  8
0
  6
HIDDEN
 62
     7
370
     0
100
AcDbLine
 10
180.7999001987
 20
107.9382168343
 30
0.0
 11
180.7999001987
 21
97.4382168343
 31
0.0
  0
LINE
  5
CD
330
1F
100
AcDbEntity
  8
0
  6
HIDDEN
 62
     7
370
     0
100
AcDbLine
 10
180.7999001987
 20
118.4382168343
 30
0.0
 11
180.7999001987
 21
107.9382168343
 31
0.0
  0
LINE
  5
CE
330
1F
100
AcDbEntity
  8
0
  6
HIDDEN
 62
     7
370
     0
100
AcDbLine
 10
184.6659256024
 20
107.9382168343
 30
0.0
 11
184.6659256024
 21
96.9382168343
 31
0.0
  0
LINE
  5
CF
330
1F
100
AcDbEntity
  8
0
  6
HIDDEN
 62
     7
370
     0
100
AcDbLine
 10
184.6659256024
 20
118.9382168343
 30
0.0
 11
184.6659256024
 21
107.9382168343
 31
0.0
  0
LINE
  5
D0
330
1F
100
AcDbEntity
  8
0
  6
HIDDEN
 62
     7
370
     0
100
AcDbLine
 10
194.6999001987
 20
117.5342105695
 30
0.0
 11
204.4999001987
 21
117.5342105695
 31
0.0
  0
LINE
  5
D1
330
1F
100
AcDbEntity
  8
0
  6
HIDDEN
 62
     7
370
     0
100
AcDbLine
 10
194.6999001987
 20
98.3422230991
 30
0.0
 11
204.4999001987
 21
98.3422230991
 31
0.0
  0
LINE
  5
D2
330
1F
100
AcDbEntity
  8
0
  6
HIDDEN
 62
     7
370
     0
100
AcDbLine
 10
159.2999001987
 20
130.4382168343
 30
0.0
 11
159.6371584989
 21
130.4382168343
 31
0.0
  0
ELLIPSE
  5
D3
330
1F
100
AcDbEntity
  8
0
  6
HIDDEN
 62
     7
370
     0
100
AcDbEllipse
 10
159.6371584989
 20
132.0382168343
 30
0.0
 11
0.0
 21
1.600000000000023
 31
0.0
210
0.0
220
0.0
230
1.0
 40
0.4142135624
 41
3.141592653589793
 42
4.712388980384695
  0
ELLIPSE
  5
D4
330
1F
100
AcDbEntity
  8
0
  6
HIDDEN
 62
     7
370
     0
100
AcDbEllipse
 10
159.6371584989
 20
83.8382168343
 30
0.0
 11
0.0
 21
1.599999999999994
 31
0.0
210
0.0
220
0.0
230
1.0
 40
0.4142135624
 41
4.712388980384695
 42
6.283185307179586
  0
LINE
  5
D5
330
1F
100
AcDbEntity
  8
0
  6
HIDDEN
 62
     7
370
     0
100
AcDbLine
 10
159.6371584989
 20
85.4382168343
 30
0.0
 11
159.2999001987
 21
85.4382168343
 31
0.0
  0
LINE
  5
D6
330
1F
100
AcDbEntity
  8
0
  6
HIDDEN
 62
     7
370
     0
100
AcDbLine
 10
160.2999001987
 20
78.4841941115
 30
0.0
 11
159.6869330216
 21
77.8712269345
 31
0.0
  0
LINE
  5
D7
330
1F
100
AcDbEntity
  8
0
  6
HIDDEN
 62
     7
370
     0
100
AcDbLine
 10
159.6869330216
 20
138.0052067341
 30
0.0
 11
160.2999001987
 21
137.3922395571
 31
0.0
  0
LINE
  5
D8
330
1F
100
AcDbEntity
  8
0
  6
HIDDEN
 62
     7
370
     0
100
AcDbLine
 10
98.8999001987
 20
99.4382168343
 30
0.0
 11
98.8999001987
 21
116.4382168343
 31
0.0
  0
LINE
  5
D9
330
1F
100
AcDbEntity
  8
0
  6
HIDDEN
 62
     7
370
     0
100
AcDbLine
 10
101.895829413
 20
100.9382168343
 30
0.0
 11
101.895829413
 21
114.9382168343
 31
0.0
  0
LINE
  5
DA
330
1F
100
AcDbEntity
  8
0
  6
HIDDEN
 62
     7
370
     0
100
AcDbLine
 10
160.2999001987
 20
137.3922395571
 30
0.0
 11
169.4324617422
 21
137.3922395571
 31
0.0
  0
LINE
  5
DB
330
1F
100
AcDbEntity
  8
0
  6
HIDDEN
 62
     7
370
     0
100
AcDbLine
 10
160.2999001987
 20
137.3922395571
 30
0.0
 11
160.2999001987
 21
132.0382168343
 31
0.0
  0
LINE
  5
DC
330
1F
100
AcDbEntity
  8
0
  6
HIDDEN
 62
     7
370
     0
100
AcDbLine
 10
169.4324617422
 20
78.4841941115
 30
0.0
 11
160.2999001987
 21
78.4841941115
 31
0.0
  0
LINE
  5
DD
330
1F
100
AcDbEntity
  8
0
  6
HIDDEN
 62
     7
370
     0
100
AcDbLine
 10
160.2999001987
 20
78.4841941115
 30
0.0
 11
160.2999001987
 21
83.8382168343
 31
0.0
  0
LINE
  5
DE
330
1F
100
AcDbEntity
  8
0
  6
HIDDEN
 62
     7
370
     0
100
AcDbLine
 10
159.6371584989
 20
130.4382168343
 30
0.0
 11
172.2499001987
 21
130.4382168343
 31
0.0
  0
LINE
  5
DF
330
1F
100
AcDbEntity
  8
0
  6
HIDDEN
 62
     7
370
     0
100
AcDbLine
 10
172.2499001987
 20
85.4382168343
 30
0.0
 11
159.6371584989
 21
85.4382168343
 31
0.0
  0
SPLINE
  5
E0
330
1F
100
AcDbEntity
  8
0
  6
HIDDEN
 62
     7
370
     0
100
AcDbSpline
210
0.0
220
0.0
230
1.0
 70
     8
 71
     3
 72
    13
 73
     9
 74
     0
 42
0.000000001
 43
0.00000001
 40
0.0
 40
0.0
 40
0.0
 40
0.0
 40
0.1850454653144679
 40
0.3520092965859432
 40
0.5010298177386109
 40
0.6766227814582007
 40
0.8430962614808595
 40
1.0
 40
1.0
 40
1.0
 40
1.0
 10
178.2761638292665
 20
137.8430776099954
 30
0.0
 10
178.5029539448865
 20
137.9019142815353
 30
0.0
 10
178.9343734824386
 20
138.0138384258369
 30
0.0
 10
179.4218289533902
 20
138.1541044974652
 30
0.0
 10
179.8109381299344
 20
138.2733992567205
 30
0.0
 10
180.0918380503595
 20
138.3640670663449
 30
0.0
 10
180.2687228254247
 20
138.4259828266941
 30
0.0
 10
180.2895852052479
 20
138.4341720828518
 30
0.0
 10
180.2997077036831
 20
138.4381455381021
 30
0.0
  0
LINE
  5
E1
330
1F
100
AcDbEntity
  8
0
  6
HIDDEN
 62
     7
370
     0
100
AcDbLine
 10
179.0263943724
 20
138.0427906893
 30
0.0
 11
178.2761418112
 21
137.8432650362
 31
0.0
  0
LINE
  5
E2
330
1F
100
AcDbEntity
  8
0
  6
HIDDEN
 62
     7
370
     0
100
AcDbLine
 10
178.6999001987
 20
85.4382168343
 30
0.0
 11
172.2499001987
 21
85.4382168343
 31
0.0
  0
LINE
  5
E3
330
1F
100
AcDbEntity
  8
0
  6
HIDDEN
 62
     7
370
     0
100
AcDbLine
 10
172.2499001987
 20
130.4382168343
 30
0.0
 11
178.6999001987
 21
130.4382168343
 31
0.0
  0
LINE
  5
E4
330
1F
100
AcDbEntity
  8
0
  6
HIDDEN
 62
     7
370
     0
100
AcDbLine
 10
178.2761419649
 20
78.0331689409
 30
0.0
 11
178.3700846945
 21
78.0081852695
 31
0.0
  0
SPLINE
  5
E5
330
1F
100
AcDbEntity
  8
0
  6
HIDDEN
 62
     7
370
     0
100
AcDbSpline
210
0.0
220
0.0
230
1.0
 70
     8
 71
     3
 72
    13
 73
     9
 74
     0
 42
0.000000001
 43
0.00000001
 40
0.0
 40
0.0
 40
0.0
 40
0.0
 40
0.0000730266253407
 40
0.1576811714019511
 40
0.3241446478108668
 40
0.4996852929261713
 40
0.7294244053126598
 40
1.0
 40
1.0
 40
1.0
 40
1.0
 10
180.2998788916018
 20
77.43822513533617
 30
0.0
 10
180.2998859933096
 20
77.43822222520126
 30
0.0
 10
180.3152202032096
 20
77.43193857892322
 30
0.0
 10
180.2557591311194
 20
77.45565027196453
 30
0.0
 10
180.0950087290198
 20
77.51112520252492
 30
0.0
 10
179.760324092769
 20
77.61907227050527
 30
0.0
 10
179.202449834235
 20
77.7903444881943
 30
0.0
 10
178.6012834286963
 20
77.9480749161773
 30
0.0
 10
178.2761661467439
 20
78.03337723439496
 30
0.0
  0
LINE
  5
E6
330
1F
100
AcDbEntity
  8
0
  6
HIDDEN
 62
     7
370
     0
100
AcDbLine
 10
134.8999001987
 20
100.9382168343
 30
0.0
 11
134.8999001987
 21
114.9382168343
 31
0.0
  0
LINE
  5
E7
330
1F
100
AcDbEntity
  8
0
  6
HIDDEN
 62
     7
370
     0
100
AcDbLine
 10
136.552266901
 20
103.6882168343
 30
0.0
 11
136.552266901
 21
112.1882168343
 31
0.0
  0
SPLINE
  5
E8
330
1F
100
AcDbEntity
  8
0
  6
HIDDEN
 62
     7
370
     0
100
AcDbSpline
210
0.0
220
0.0
230
1.0
 70
     8
 71
     3
 72
    11
 73
     7
 74
     0
 42
0.000000001
 43
0.00000001
 40
0.0
 40
0.0
 40
0.0
 40
0.0
 40
0.2775449731928298
 40
0.6034564432589462
 40
0.9297509907268705
 40
1.0
 40
1.0
 40
1.0
 40
1.0
 10
204.7545305080547
 20
123.6246815013373
 30
0.0
 10
204.7516529978631
 20
123.6039578260448
 30
0.0
 10
204.7453965269002
 20
123.5588990550666
 30
0.0
 10
204.7721649920615
 20
123.0603659571437
 30
0.0
 10
204.7980520681665
 20
122.4856967027696
 30
0.0
 10
204.799622079607
 20
122.1140544880423
 30
0.0
 10
204.7999002123527
 20
122.0482168342843
 30
0.0
  0
LINE
  5
E9
330
1F
100
AcDbEntity
  8
0
  6
HIDDEN
 62
     7
370
     0
100
AcDbLine
 10
204.7999002124
 20
122.0482168343
 30
0.0
 11
204.7999001986
 21
117.6324119052
 31
0.0
  0
LINE
  5
EA
330
1F
100
AcDbEntity
  8
0
  6
HIDDEN
 62
     7
370
     0
100
AcDbLine
 10
204.7999001928
 20
93.8282168343
 30
0.0
 11
204.7999001987
 21
98.2440217633
 31
0.0
  0
SPLINE
  5
EB
330
1F
100
AcDbEntity
  8
0
  6
HIDDEN
 62
     7
370
     0
100
AcDbSpline
210
0.0
220
0.0
230
1.0
 70
     8
 71
     3
 72
    10
 73
     6
 74
     0
 42
0.000000001
 43
0.00000001
 40
0.0
 40
0.0
 40
0.0
 40
0.0
 40
0.5257397071509793
 40
0.9739649727099022
 40
1.0
 40
1.0
 40
1.0
 40
1.0
 10
204.799900198654
 20
93.82821683428432
 30
0.0
 10
204.799504161526
 20
93.49572022938072
 30
0.0
 10
204.7987704785164
 20
92.87974992636524
 30
0.0
 10
204.7796102211931
 20
92.43015729861182
 30
0.0
 10
204.7723813775398
 20
92.37831985934156
 30
0.0
 10
204.7719845424165
 20
92.37547418753137
 30
0.0
  0
SPLINE
  5
EC
330
1F
100
AcDbEntity
  8
0
  6
HIDDEN
 62
     7
370
     0
100
AcDbSpline
210
0.0
220
0.0
230
1.0
 70
     8
 71
     3
 72
    11
 73
     7
 74
     0
 42
0.000000001
 43
0.00000001
 40
0.0
 40
0.0
 40
0.0
 40
0.0
 40
0.0070070275258528
 40
0.3341928103752574
 40
0.6604331475371121
 40
1.0
 40
1.0
 40
1.0
 40
1.0
 10
204.7530223777707
 20
92.23242439685711
 30
0.0
 10
204.7528741140984
 20
92.23129012099307
 30
0.0
 10
204.7458028341371
 20
92.17719202628118
 30
0.0
 10
204.7480932785465
 20
92.40580196114634
 30
0.0
 10
204.7818628226194
 20
92.91982545610286
 30
0.0
 10
204.7938080392465
 20
93.52140604727316
 30
0.0
 10
204.7999001927637
 20
93.82821683428432
 30
0.0
  0
SPLINE
  5
ED
330
1F
100
AcDbEntity
  8
0
  6
HIDDEN
 62
     7
370
     0
100
AcDbSpline
210
0.0
220
0.0
230
1.0
 70
     8
 71
     3
 72
     9
 73
     5
 74
     0
 42
0.000000001
 43
0.00000001
 40
0.0
 40
0.0
 40
0.0
 40
0.0
 40
0.4932365035776448
 40
1.0
 40
1.0
 40
1.0
 40
1.0
 10
178.2769597373515
 20
137.8430483454566
 30
0.0
 10
178.3828076928602
 20
138.0000697337395
 30
0.0
 10
178.5974064801375
 20
138.3184188160641
 30
0.0
 10
178.8152663620217
 20
138.6382449237416
 30
0.0
 10
178.9256697974955
 20
138.8003211203155
 30
0.0
  0
SPLINE
  5
EE
330
1F
100
AcDbEntity
  8
0
  6
HIDDEN
 62
     7
370
     0
100
AcDbSpline
210
0.0
220
0.0
230
1.0
 70
     8
 71
     3
 72
     9
 73
     5
 74
     0
 42
0.000000001
 43
0.00000001
 40
0.0
 40
0.0
 40
0.0
 40
0.0
 40
0.5067661695379747
 40
1.0
 40
1.0
 40
1.0
 40
1.0
 10
178.9256734827815
 20
77.07612668380719
 30
0.0
 10
178.8152686523075
 20
77.23820409838731
 30
0.0
 10
178.5974071668522
 20
77.55803092251784
 30
0.0
 10
178.3828074489665
 20
77.87637943878231
 30
0.0
 10
178.2769596080977
 20
78.03339969688135
 30
0.0
  0
LINE
  5
EF
330
1F
100
AcDbEntity
  8
0
  6
HIDDEN
 62
     7
370
     0
100
AcDbLine
 10
194.6999001987
 20
93.8282168343
 30
0.0
 11
194.6999001987
 21
98.3422230991
 31
0.0
  0
LINE
  5
F0
330
1F
100
AcDbEntity
  8
0
  6
HIDDEN
 62
     7
370
     0
100
AcDbLine
 10
194.6999001987
 20
122.0482168343
 30
0.0
 11
194.6999001987
 21
117.5342105695
 31
0.0
  0
LINE
  5
F1
330
1F
100
AcDbEntity
  8
0
  6
HIDDEN
 62
     7
370
     0
100
AcDbLine
 10
194.6999001987
 20
123.6482168343
 30
0.0
 11
194.6999001987
 21
122.0482168343
 31
0.0
  0
LINE
  5
F2
330
1F
100
AcDbEntity
  8
0
  6
HIDDEN
 62
     7
370
     0
100
AcDbLine
 10
194.6999001987
 20
92.2282168343
 30
0.0
 11
194.6999001987
 21
93.8282168343
 31
0.0
  0
SPLINE
  5
F3
330
1F
100
AcDbEntity
  8
0
  6
HIDDEN
 62
     7
370
     0
100
AcDbSpline
210
0.0
220
0.0
230
1.0
 70
     8
 71
     3
 72
    16
 73
    12
 74
     0
 42
0.000000001
 43
0.00000001
 40
0.0
 40
0.0
 40
0.0
 40
0.0
 40
0.2500000000000019
 40
0.2500000000000019
 40
0.5000000000000038
 40
0.5000000000000038
 40
0.6250000000000028
 40
0.6250000000000028
 40
0.7500000000000019
 40
0.7500000000000019
 40
1.0
 40
1.0
 40
1.0
 40
1.0
 10
205.299900198654
 20
97.47405288885436
 30
0.0
 10
205.299900198654
 20
97.56187202706707
 30
0.0
 10
205.2946355156507
 20
97.6538951023426
 30
0.0
 10
205.264894259065
 20
97.84338459348643
 30
0.0
 10
205.2411434402403
 20
97.94227933088212
 30
0.0
 10
205.1723286785872
 20
98.08243246347769
 30
0.0
 10
205.1434304173221
 20
98.12652115245169
 30
0.0
 10
205.0770278600496
 20
98.19583493519875
 30
0.0
 10
205.0396496852658
 20
98.22077002616041
 30
0.0
 10
204.9297018447078
 20
98.26530540931098
 30
0.0
 10
204.8617631630384
 20
98.25962734830797
 30
0.0
 10
204.799900198654
 20
98.24402176333011
 30
0.0
  0
LINE
  5
F4
330
1F
100
AcDbEntity
  8
0
  6
HIDDEN
 62
     7
370
     0
100
AcDbLine
 10
182.6682477011
 20
119.4382168343
 30
0.0
 11
181.7999001987
 21
119.4382168343
 31
0.0
  0
LINE
  5
F5
330
1F
100
AcDbEntity
  8
0
  6
HIDDEN
 62
     7
370
     0
100
AcDbLine
 10
181.7999001987
 20
96.4382168343
 30
0.0
 11
182.6682477011
 21
96.4382168343
 31
0.0
  0
ARC
  5
F6
330
1F
100
AcDbEntity
  8
0
  6
HIDDEN
 62
     7
370
     0
100
AcDbCircle
 10
182.6682477011
 20
118.4382168343
 30
0.0
 40
1.000000000000009
100
AcDbArc
 50
75.0
 51
90.0
  0
ARC
  5
F7
330
1F
100
AcDbEntity
  8
0
  6
HIDDEN
 62
     7
370
     0
100
AcDbCircle
 10
182.6682477011
 20
97.4382168343
 30
0.0
 40
1.000000000000009
100
AcDbArc
 50
270.0
 51
285.0
  0
ARC
  5
F8
330
1F
100
AcDbEntity
  8
0
  6
HIDDEN
 62
     7
370
     0
100
AcDbCircle
 10
181.7999001987
 20
118.4382168343
 30
0.0
 40
1.0
100
AcDbArc
 50
90.0
 51
180.0
  0
ARC
  5
F9
330
1F
100
AcDbEntity
  8
0
  6
HIDDEN
 62
     7
370
     0
100
AcDbCircle
 10
181.7999001987
 20
97.4382168343
 30
0.0
 40
1.0
100
AcDbArc
 50
180.0
 51
270.0
  0
LINE
  5
FA
330
1F
100
AcDbEntity
  8
0
  6
HIDDEN
 62
     7
370
     0
100
AcDbLine
 10
182.9270667462
 20
96.472291008
 30
0.0
 11
184.6659256024
 21
96.9382168343
 31
0.0
  0
LINE
  5
FB
330
1F
100
AcDbEntity
  8
0
  6
HIDDEN
 62
     7
370
     0
100
AcDbLine
 10
184.6659256024
 20
118.9382168343
 30
0.0
 11
182.9270667462
 21
119.4041426606
 31
0.0
  0
LINE
  5
FC
330
1F
100
AcDbEntity
  8
0
  6
HIDDEN
 62
     7
370
     0
100
AcDbLine
 10
194.6999001987
 20
118.9382168343
 30
0.0
 11
184.6659256024
 21
118.9382168343
 31
0.0
  0
LINE
  5
FD
330
1F
100
AcDbEntity
  8
0
  6
HIDDEN
 62
     7
370
     0
100
AcDbLine
 10
184.6659256024
 20
96.9382168343
 30
0.0
 11
194.6999001987
 21
96.9382168343
 31
0.0
  0
ARC
  5
FE
330
1F
100
AcDbEntity
  8
0
  6
HIDDEN
 62
     7
370
     0
100
AcDbCircle
 10
92.6999001987
 20
98.6382168343
 30
0.0
 40
0.7999999999999972
100
AcDbArc
 50
90.0
 51
180.0
  0
ARC
  5
FF
330
1F
100
AcDbEntity
  8
0
  6
HIDDEN
 62
     7
370
     0
100
AcDbCircle
 10
92.6999001987
 20
117.2382168343
 30
0.0
 40
0.7999999999999972
100
AcDbArc
 50
180.0
 51
270.0
  0
LINE
  5
100
330
1F
100
AcDbEntity
  8
0
  6
HIDDEN
 62
     7
370
     0
100
AcDbLine
 10
99.7922726294
 20
99.2132168343
 30
0.0
 11
100.668960091
 21
99.2132168343
 31
0.0
  0
LINE
  5
101
330
1F
100
AcDbEntity
  8
0
  6
HIDDEN
 62
     7
370
     0
100
AcDbLine
 10
100.668960091
 20
116.6632168343
 30
0.0
 11
99.7922726294
 21
116.6632168343
 31
0.0
  0
ARC
  5
102
330
1F
100
AcDbEntity
  8
0
  6
HIDDEN
 62
     7
370
     0
100
AcDbCircle
 10
100.668960091
 20
99.6132168343
 30
0.0
 40
0.4000000000000057
100
AcDbArc
 50
270.0
 51
330.0
  0
ARC
  5
103
330
1F
100
AcDbEntity
  8
0
  6
HIDDEN
 62
     7
370
     0
100
AcDbCircle
 10
100.668960091
 20
116.2632168343
 30
0.0
 40
0.4000000000000057
100
AcDbArc
 50
30.0
 51
90.0
  0
ARC
  5
104
330
1F
100
AcDbEntity
  8
0
  6
HIDDEN
 62
     7
370
     0
100
AcDbCircle
 10
99.7922726294
 20
99.6132168343
 30
0.0
 40
0.4000000000000057
100
AcDbArc
 50
255.0
 51
270.0
  0
ARC
  5
105
330
1F
100
AcDbEntity
  8
0
  6
HIDDEN
 62
     7
370
     0
100
AcDbCircle
 10
99.7922726294
 20
116.2632168343
 30
0.0
 40
0.4000000000000057
100
AcDbArc
 50
90.0
 51
105.0
  0
LINE
  5
106
330
1F
100
AcDbEntity
  8
0
  6
HIDDEN
 62
     7
370
     0
100
AcDbLine
 10
99.6887450114
 20
116.6495871648
 30
0.0
 11
98.8999001987
 21
116.4382168343
 31
0.0
  0
LINE
  5
107
330
1F
100
AcDbEntity
  8
0
  6
HIDDEN
 62
     7
370
     0
100
AcDbLine
 10
98.8999001987
 20
99.4382168343
 30
0.0
 11
99.6887450114
 21
99.2268465038
 31
0.0
  0
LINE
  5
108
330
1F
100
AcDbEntity
  8
0
  6
HIDDEN
 62
     7
370
     0
100
AcDbLine
 10
101.0153702525
 20
99.4132168343
 30
0.0
 11
101.895829413
 21
100.9382168343
 31
0.0
  0
LINE
  5
109
330
1F
100
AcDbEntity
  8
0
  6
HIDDEN
 62
     7
370
     0
100
AcDbLine
 10
101.895829413
 20
114.9382168343
 30
0.0
 11
101.0153702525
 21
116.4632168343
 31
0.0
  0
LINE
  5
10A
330
1F
100
AcDbEntity
  8
0
  6
HIDDEN
 62
     7
370
     0
100
AcDbLine
 10
92.6999001987
 20
99.4382168343
 30
0.0
 11
98.8999001987
 21
99.4382168343
 31
0.0
  0
LINE
  5
10B
330
1F
100
AcDbEntity
  8
0
  6
HIDDEN
 62
     7
370
     0
100
AcDbLine
 10
98.8999001987
 20
116.4382168343
 30
0.0
 11
92.6999001987
 21
116.4382168343
 31
0.0
  0
LINE
  5
10C
330
1F
100
AcDbEntity
  8
0
  6
HIDDEN
 62
     7
370
     0
100
AcDbLine
 10
180.2999001987
 20
132.0382168343
 30
0.0
 11
180.2999001987
 21
138.4381455381
 31
0.0
  0
ARC
  5
10D
330
1F
100
AcDbEntity
  8
0
  6
HIDDEN
 62
     7
370
     0
100
AcDbCircle
 10
178.6999001987
 20
83.8382168343
 30
0.0
 40
1.599999999999994
100
AcDbArc
 50
0.0
 51
90.0
  0
ARC
  5
10E
330
1F
100
AcDbEntity
  8
0
  6
HIDDEN
 62
     7
370
     0
100
AcDbCircle
 10
178.6999001987
 20
132.0382168343
 30
0.0
 40
1.599999999999994
100
AcDbArc
 50
270.0
 51
0.0
  0
LINE
  5
10F
330
1F
100
AcDbEntity
  8
0
  6
HIDDEN
 62
     7
370
     0
100
AcDbLine
 10
180.2999001987
 20
77.4382251353
 30
0.0
 11
180.2999001987
 21
83.8382168343
 31
0.0
  0
LINE
  5
110
330
1F
100
AcDbEntity
  8
0
  6
HIDDEN
 62
     7
370
     0
100
AcDbLine
 10
134.8999001987
 20
100.9382168343
 30
0.0
 11
136.552266901
 21
103.6882168343
 31
0.0
  0
LINE
  5
111
330
1F
100
AcDbEntity
  8
0
  6
HIDDEN
 62
     7
370
     0
100
AcDbLine
 10
136.552266901
 20
112.1882168343
 30
0.0
 11
134.8999001987
 21
114.9382168343
 31
0.0
  0
LINE
  5
112
330
1F
100
AcDbEntity
  8
0
  6
HIDDEN
 62
     7
370
     0
100
AcDbLine
 10
101.895829413
 20
100.9382168343
 30
0.0
 11
134.8999001987
 21
100.9382168343
 31
0.0
  0
LINE
  5
113
330
1F
100
AcDbEntity
  8
0
  6
HIDDEN
 62
     7
370
     0
100
AcDbLine
 10
134.8999001987
 20
114.9382168343
 30
0.0
 11
101.895829413
 21
114.9382168343
 31
0.0
  0
LINE
  5
114
330
1F
100
AcDbEntity
  8
0
  6
HIDDEN
 62
     7
370
     0
100
AcDbLine
 10
205.2999001987
 20
124.1948204666
 30
0.0
 11
204.7442929397
 21
123.6392222794
 31
0.0
  0
LINE
  5
115
330
1F
100
AcDbEntity
  8
0
  6
HIDDEN
 62
     7
370
     0
100
AcDbLine
 10
204.7447188708
 20
92.2367828902
 30
0.0
 11
205.2999001987
 21
91.6816123933
 31
0.0
  0
LINE
  5
116
330
1F
100
AcDbEntity
  8
0
  6
HIDDEN
 62
     7
370
     0
100
AcDbLine
 10
180.2998992887
 20
138.4382166224
 30
0.0
 11
181.299898658
 21
139.4382163691
 31
0.0
  0
LINE
  5
117
330
1F
100
AcDbEntity
  8
0
  6
HIDDEN
 62
     7
370
     0
100
AcDbLine
 10
181.2999065601
 20
76.4382156966
 30
0.0
 11
180.2999063111
 21
77.4382155011
 31
0.0
  0
LINE
  5
118
330
1F
100
AcDbEntity
  8
0
  6
HIDDEN
 62
     7
370
     0
100
AcDbLine
 10
136.552266901
 20
103.6882168343
 30
0.0
 11
180.7999001987
 21
103.6882168343
 31
0.0
  0
LINE
  5
119
330
1F
100
AcDbEntity
  8
0
  6
HIDDEN
 62
     7
370
     0
100
AcDbLine
 10
180.7999001987
 20
112.1882168343
 30
0.0
 11
136.552266901
 21
112.1882168343
 31
0.0
  0
LINE
  5
11A
330
1F
100
AcDbEntity
  8
0
  6
HIDDEN
 62
     7
370
     0
100
AcDbLine
 10
204.7547267151
 20
123.6482168343
 30
0.0
 11
194.6999001987
 21
123.6482168343
 31
0.0
  0
LINE
  5
11B
330
1F
100
AcDbEntity
  8
0
  6
HIDDEN
 62
     7
370
     0
100
AcDbLine
 10
194.6999001987
 20
92.2282168343
 30
0.0
 11
204.7540022494
 21
92.2282168343
 31
0.0
  0
DIMENSION
  5
11C
330
1F
100
AcDbEntity
  8
VERMASSUNG
100
AcDbDimension
  2
_D
 10
211.9609599793
 20
96.9382168343
 30
0.0
 11
211.9609599793
 21
107.9382168343
 31
0.0
 70
   160
  1
%%c<>
 71
     2
 42
-1.0
  3
SLDDIMSTYLE0
100
AcDbAlignedDimension
 13
194.6999001987
 23
118.9382168343
 33
0.0
 14
194.6999001987
 24
96.9382168343
 34
0.0
 50
90.0
100
AcDbRotatedDimension
  0
DIMENSION
  5
128
330
1F
100
AcDbEntity
  8
VERMASSUNG
100
AcDbDimension
  2
_D_1
 10
218.0609599793
 20
88.4382168343
 30
0.0
 11
218.0609599793
 21
107.9382168343
 31
0.0
 70
   160
  1
ST4 %%c<>
 71
     2
 42
-1.0
  3
SLDDIMSTYLE0
100
AcDbAlignedDimension
 13
204.8999001987
 23
127.4382168343
 33
0.0
 14
204.8999001987
 24
88.4382168343
 34
0.0
 50
90.0
100
AcDbRotatedDimension
  0
DIMENSION
  5
134
330
1F
100
AcDbEntity
  8
VERMASSUNG
100
AcDbDimension
  2
_D_2
 10
86.2923486014
 20
76.4382168343
 30
0.0
 11
86.2923486014
 21
107.9382168343
 31
0.0
 70
   160
  1
MAS BT 40 %%c<>
 71
     2
 42
-1.0
  3
SLDDIMSTYLE0
100
AcDbAlignedDimension
 13
181.2998960546
 23
139.4382168343
 33
0.0
 14
181.2999009726
 24
76.4382168343
 34
0.0
 50
90.0
100
AcDbRotatedDimension
  0
DIMENSION
  5
140
330
1F
100
AcDbEntity
  8
VERMASSUNG
100
AcDbDimension
  2
_D_3
 10
205.2999001987
 20
156.64628409
 30
0.0
 11
148.5999001987
 21
156.64628409
 31
0.0
 70
   160
  1
(<>)
 71
     2
 42
-1.0
  3
SLDDIMSTYLE0
100
AcDbAlignedDimension
 13
91.8999001987
 23
119.7609724313
 33
0.0
 14
205.2999001987
 24
127.0382168343
 34
0.0
100
AcDbRotatedDimension
  0
DIMENSION
  5
14C
330
1F
100
AcDbEntity
  8
VERMASSUNG
100
AcDbDimension
  2
_D_4
 10
205.2999001987
 20
150.64628409
 30
0.0
 11
181.2999001987
 21
150.64628409
 31
0.0
 70
   160
  1
<>
 71
     2
 42
-1.0
  3
SLDDIMSTYLE0
100
AcDbAlignedDimension
 13
157.2999001987
 23
130.1632168343
 33
0.0
 14
205.2999001987
 24
127.0382168343
 34
0.0
100
AcDbRotatedDimension
  0
DIMENSION
  5
156
330
1F
100
AcDbEntity
  8
VERMASSUNG
100
AcDbDimension
  2
_D_5
 10
205.2999001987
 20
144.64628409
 30
0.0
 11
194.7999001987
 21
144.64628409
 31
0.0
 70
   160
  1
(<>)
 71
     2
 42
-1.0
  3
SLDDIMSTYLE0
100
AcDbAlignedDimension
 13
184.2999001987
 23
138.4382168343
 33
0.0
 14
205.2999001987
 24
127.0382168343
 34
0.0
100
AcDbRotatedDimension
  0
LINE
  5
162
330
1F
100
AcDbEntity
  8
VERMASSUNG
  6
CENTERX2
370
     0
100
AcDbLine
 10
90.7555933056
 20
107.9382168343
 30
0.0
 11
205.9856322466
 21
107.9382168343
 31
0.0
  0
LINE
  5
163
330
1F
100
AcDbEntity
  8
0
  6
Continuous
 62
     7
370
    15
100
AcDbLine
 10
266.7794906954
 20
41.5617051051
 30
0.0
 11
266.6451185766
 21
41.6393016932
 31
0.0
  0
LINE
  5
164
330
1F
100
AcDbEntity
  8
0
  6
Continuous
 62
     7
370
    15
100
AcDbLine
 10
264.0849761025
 20
41.6393016932
 30
0.0
 11
263.9506039837
 21
41.5617051051
 31
0.0
  0
LINE
  5
165
330
1F
100
AcDbEntity
  8
0
  6
Continuous
 62
     7
370
    15
100
AcDbLine
 10
267.3650473396
 20
40.5943696216
 30
0.0
 11
267.3650473396
 21
40.7454296718
 31
0.0
  0
LINE
  5
166
330
1F
100
AcDbEntity
  8
0
  6
Continuous
 62
     7
370
    15
100
AcDbLine
 10
263.3650473396
 20
40.7454296718
 30
0.0
 11
263.3650473396
 21
40.5943696216
 31
0.0
  0
SPLINE
  5
167
330
1F
100
AcDbEntity
  8
0
  6
Continuous
 62
     7
370
    15
100
AcDbSpline
210
0.0
220
0.0
230
1.0
 70
     8
 71
     3
 72
    17
 73
    13
 74
     0
 42
0.000000001
 43
0.00000001
 40
0.0
 40
0.0
 40
0.0
 40
0.0
 40
0.0692487903674033
 40
0.1760844558011543
 40
0.2835588629650851
 40
0.3917154771391602
 40
0.5004788522769993
 40
0.6097068576374453
 40
0.7192429407204163
 40
0.8289507841836439
 40
0.9387285169560219
 40
1.0
 40
1.0
 40
1.0
 40
1.0
 10
254.699110864328
 20
21.16680786856532
 30
0.0
 10
254.8599376889582
 20
21.12491258605953
 30
0.0
 10
255.2688849607154
 20
21.01838208954793
 30
0.0
 10
255.9679220913368
 20
20.95208485247102
 30
0.0
 10
256.7859198385691
 20
20.95584238028753
 30
0.0
 10
257.6339438761253
 20
21.05637435538261
 30
0.0
 10
258.5047653330813
 20
21.24867173300645
 30
0.0
 10
259.3930361751433
 20
21.53337949697976
 30
0.0
 10
260.2926434040731
 20
21.90704858838328
 30
0.0
 10
261.196852204841
 20
22.37179850149019
 30
0.0
 10
261.9684732936077
 20
22.82795993851387
 30
0.0
 10
262.4331001005297
 20
23.15913943419049
 30
0.0
 10
262.5995339154188
 20
23.27777113183971
 30
0.0
  0
SPLINE
  5
168
330
1F
100
AcDbEntity
  8
0
  6
Continuous
 62
     7
370
    15
100
AcDbSpline
210
0.0
220
0.0
230
1.0
 70
     8
 71
     3
 72
    17
 73
    13
 74
     0
 42
0.000000001
 43
0.00000001
 40
0.0
 40
0.0
 40
0.0
 40
0.0
 40
0.084461037580122
 40
0.1948937135108907
 40
0.3053933956604033
 40
0.4159164941338525
 40
0.5263749620703911
 40
0.6366524828263777
 40
0.7465940452567225
 40
0.856023701861625
 40
0.9647866340286403
 40
0.9999999999999999
 40
0.9999999999999999
 40
0.9999999999999999
 40
0.9999999999999999
 10
272.3509531060299
 20
40.16444724911882
 30
0.0
 10
272.3744822689118
 20
40.44226421195867
 30
0.0
 10
272.42877577585
 20
41.08332642378401
 30
0.0
 10
272.427718988307
 20
42.04773743215259
 30
0.0
 10
272.3616886487733
 20
43.05633748308447
 30
0.0
 10
272.219498691756
 20
44.01598623384005
 30
0.0
 10
272.0046123402589
 20
44.92153490297119
 30
0.0
 10
271.7168188626098
 20
45.76564290354285
 30
0.0
 10
271.3595894397368
 20
46.54412285149008
 30
0.0
 10
270.9298784127495
 20
47.2436441510701
 30
0.0
 10
270.5586831607863
 20
47.74281063770127
 30
0.0
 10
270.3112866252696
 20
47.9797451099965
 30
0.0
 10
270.250778994098
 20
48.03769395568876
 30
0.0
  0
LINE
  5
169
330
1F
100
AcDbEntity
  8
0
  6
Continuous
 62
     7
370
    15
100
AcDbLine
 10
251.7189282186
 20
22.6309955341
 30
0.0
 11
253.2657243025
 21
21.7380491618
 31
0.0
  0
LINE
  5
16A
330
1F
100
AcDbEntity
  8
0
  6
Continuous
 62
     7
370
    15
100
AcDbLine
 10
269.0144443415
 20
49.0185883267
 30
0.0
 11
267.4676482576
 21
49.9115346991
 31
0.0
  0
LINE
  5
16B
330
1F
100
AcDbEntity
  8
0
  6
Continuous
 62
     7
370
    15
100
AcDbLine
 10
268.777958075
 20
23.0090889899
 30
0.0
 11
268.9193564463
 21
23.09074307
 31
0.0
  0
LINE
  5
16C
330
1F
100
AcDbEntity
  8
0
  6
Continuous
 62
     7
370
    15
100
AcDbLine
 10
275.6711286754
 20
34.7864228632
 30
0.0
 11
275.6711286754
 21
34.9497044855
 31
0.0
  0
LINE
  5
16D
330
1F
100
AcDbEntity
  8
0
  6
Continuous
 62
     7
370
    15
100
AcDbLine
 10
273.6514413804
 20
39.4136913486
 30
0.0
 11
267.7824550965
 21
42.8017850127
 31
0.0
  0
LINE
  5
16E
330
1F
100
AcDbEntity
  8
0
  6
Continuous
 62
     7
370
    15
100
AcDbLine
 10
258.0332474533
 20
25.9138321963
 30
0.0
 11
263.9022337372
 21
22.5257385322
 31
0.0
  0
LINE
  5
16F
330
1F
100
AcDbEntity
  8
0
  6
Continuous
 62
     7
370
    15
100
AcDbLine
 10
263.9144366822
 20
51.96276008
 30
0.0
 11
260.8827163578
 21
53.7129349697
 31
0.0
  0
SPLINE
  5
170
330
1F
100
AcDbEntity
  8
0
  6
Continuous
 62
     7
370
    15
100
AcDbSpline
210
0.0
220
0.0
230
1.0
 70
     8
 71
     3
 72
    22
 73
    18
 74
     0
 42
0.000000001
 43
0.00000001
 40
0.0
 40
0.0
 40
0.0
 40
0.0
 40
0.0076987950275408
 40
0.0799934235939336
 40
0.1523791877793486
 40
0.2247867440614874
 40
0.2971539513576197
 40
0.3694215915775577
 40
0.4415381074375666
 40
0.5134575138964136
 40
0.5851513781351245
 40
0.6566354301577015
 40
0.7280225833304738
 40
0.7994965672957526
 40
0.8715600094444848
 40
0.9450871822508099
 40
1.0
 40
1.0
 40
1.0
 40
1.0
 10
265.3935276479152
 20
31.22152749132973
 30
0.0
 10
265.4024329224731
 20
31.24559387656717
 30
0.0
 10
265.4949621296255
 20
31.49565281978975
 30
0.0
 10
265.711244977092
 20
31.96973848340046
 30
0.0
 10
266.0627677120586
 20
32.62771548373095
 30
0.0
 10
266.4659845617303
 20
33.25620147245623
 30
0.0
 10
266.909220487824
 20
33.84325140510934
 30
0.0
 10
267.384789627406
 20
34.37779959617233
 30
0.0
 10
267.88286373959
 20
34.84997494572515
 30
0.0
 10
268.3933252599689
 20
35.25133651472623
 30
0.0
 10
268.9055104818366
 20
35.57513298588804
 30
0.0
 10
269.4087296918689
 20
35.81672240010935
 30
0.0
 10
269.892303796326
 20
35.97336848865158
 30
0.0
 10
270.3473937055382
 20
36.0459413323634
 30
0.0
 10
270.7652759303633
 20
36.03301800389103
 30
0.0
 10
271.1140420457139
 20
35.9573014087192
 30
0.0
 10
271.3025016851306
 20
35.85054244545345
 30
0.0
 10
271.3830751092457
 20
35.80489906392135
 30
0.0
  0
SPLINE
  5
171
330
1F
100
AcDbEntity
  8
0
  6
Continuous
 62
     7
370
    15
100
AcDbSpline
210
0.0
220
0.0
230
1.0
 70
     8
 71
     3
 72
    32
 73
    28
 74
     0
 42
0.000000001
 43
0.00000001
 40
0.0
 40
0.0
 40
0.0
 40
0.0
 40
0.0011677272918041
 40
0.0421831646591013
 40
0.0833975494341777
 40
0.124867925838684
 40
0.1665969501707556
 40
0.208546377213449
 40
0.2506581579206035
 40
0.2928731453873454
 40
0.335142196618081
 40
0.3774287215212751
 40
0.4197059492259635
 40
0.4619637476968312
 40
0.5041980554816631
 40
0.5464086977549006
 40
0.5885978640358984
 40
0.6307691179564385
 40
0.6729267874492544
 40
0.7150756089177445
 40
0.7572205324709982
 40
0.7993666231919164
 40
0.8415175214854707
 40
0.8836781881485603
 40
0.9258537968483639
 40
0.9680494376427975
 40
0.9999999999999999
 40
0.9999999999999999
 40
0.9999999999999999
 40
0.9999999999999999
 10
259.5306720919326
 20
54.27273690828505
 30
0.0
 10
259.5238511544579
 20
54.27506562206004
 30
0.0
 10
259.2774505345137
 20
54.35918844534541
 30
0.0
 10
258.7536002670374
 20
54.44118283916683
 30
0.0
 10
257.9618490574377
 20
54.51042057218845
 30
0.0
 10
257.133351767337
 20
54.47604190894117
 30
0.0
 10
256.2790484824735
 20
54.35156456934578
 30
0.0
 10
255.4027344706127
 20
54.13362454578782
 30
0.0
 10
254.5107999203745
 20
53.82444465873431
 30
0.0
 10
253.6092877310095
 20
53.42583461367271
 30
0.0
 10
252.7044017327628
 20
52.94072538971407
 30
0.0
 10
251.8022012665756
 20
52.37261451694545
 30
0.0
 10
250.9085553451593
 20
51.72554871335746
 30
0.0
 10
250.0291219404274
 20
51.0040004597119
 30
0.0
 10
249.169349103544
 20
50.21280264408678
 30
0.0
 10
248.3345317951841
 20
49.3571558280051
 30
0.0
 10
247.529804550148
 20
48.44260754810445
 30
0.0
 10
246.760124299479
 20
47.47502916613134
 30
0.0
 10
246.0302497138057
 20
46.46058949920778
 30
0.0
 10
245.3447086531413
 20
45.40572206274338
 30
0.0
 10
244.7077972919977
 20
44.31709473627848
 30
0.0
 10
244.1234652885665
 20
43.20156403426346
 30
0.0
 10
243.5956407583015
 20
42.06619628979971
 30
0.0
 10
243.1268714306788
 20
40.91794683764399
 30
0.0
 10
242.7232905531517
 20
39.76462297701183
 30
0.0
 10
242.4041614691428
 20
38.7046194226314
 30
0.0
 10
242.2532218832243
 20
38.0373994476498
 30
0.0
 10
242.1881800544175
 20
37.74988569090323
 30
0.0
  0
SPLINE
  5
172
330
1F
100
AcDbEntity
  8
0
  6
Continuous
 62
     7
370
    15
100
AcDbSpline
210
0.0
220
0.0
230
1.0
 70
     8
 71
     3
 72
    10
 73
     6
 74
     0
 42
0.000000001
 43
0.00000001
 40
0.0
 40
0.0
 40
0.0
 40
0.0
 40
0.1393255789001405
 40
0.6570900152416571
 40
1.0
 40
1.0
 40
1.0
 40
1.0
 10
265.8877599330548
 20
26.29780905704455
 30
0.0
 10
265.8556444857387
 20
26.3133125291653
 30
0.0
 10
265.7041809861216
 20
26.38643030705319
 30
0.0
 10
265.5112963142228
 20
26.56402999301671
 30
0.0
 10
265.3732017270241
 20
26.76640991390109
 30
0.0
 10
265.3181820684512
 20
26.84704214123877
 30
0.0
  0
LINE
  5
173
330
1F
100
AcDbEntity
  8
0
  6
Continuous
 62
     7
370
    15
100
AcDbLine
 10
251.8701107332
 20
52.4013092004
 30
0.0
 11
231.9832186804
 21
59.5677568071
 31
0.0
  0
LINE
  5
174
330
1F
100
AcDbEntity
  8
0
  6
Continuous
 62
     7
370
    15
100
AcDbLine
 10
225.611749269
 20
48.5308521961
 30
0.0
 11
244.6396233554
 21
32.4638726188
 31
0.0
  0
LINE
  5
175
330
1F
100
AcDbEntity
  8
0
  6
Continuous
 62
     7
370
    15
100
AcDbLine
 10
245.1339963188
 20
26.4323958047
 30
0.0
 11
248.1657166432
 21
24.682220915
 31
0.0
  0
SPLINE
  5
176
330
1F
100
AcDbEntity
  8
0
  6
Continuous
 62
     7
370
    15
100
AcDbSpline
210
0.0
220
0.0
230
1.0
 70
     8
 71
     3
 72
    13
 73
     9
 74
     0
 42
0.000000001
 43
0.00000001
 40
0.0
 40
0.0
 40
0.0
 40
0.0
 40
0.0768598206447126
 40
0.30858358862395
 40
0.5396808252011257
 40
0.7695661605074764
 40
0.9979623823424886
 40
1.0
 40
1.0
 40
1.0
 40
1.0
 10
242.1707188678448
 20
30.49907701270516
 30
0.0
 10
242.1987332231407
 20
30.40282908924988
 30
0.0
 10
242.3112077282551
 20
30.01640443501179
 30
0.0
 10
242.560247682141
 20
29.38451754067055
 30
0.0
 10
242.9411711218582
 20
28.63100825322849
 30
0.0
 10
243.3985346913442
 20
27.96432180332693
 30
0.0
 10
243.7291892448255
 20
27.54469683301548
 30
0.0
 10
243.9227765784029
 20
27.37224989154258
 30
0.0
 10
243.9244883798034
 20
27.37072502464932
 30
0.0
  0
SPLINE
  5
177
330
1F
100
AcDbEntity
  8
0
  6
Continuous
 62
     7
370
    15
100
AcDbSpline
210
0.0
220
0.0
230
1.0
 70
     8
 71
     3
 72
    26
 73
    22
 74
     0
 42
0.000000001
 43
0.00000001
 40
0.0
 40
0.0
 40
0.0
 40
0.0
 40
0.0242826816015191
 40
0.0779643449001397
 40
0.1324146345192564
 40
0.187974154040984
 40
0.2445587776400983
 40
0.3018194337634244
 40
0.359383984719266
 40
0.4169690279903653
 40
0.4744657707983815
 40
0.5318583632469336
 40
0.5891661671843709
 40
0.6464239183283997
 40
0.7036726161345859
 40
0.7609500413864685
 40
0.8182924854859206
 40
0.8757452955411219
 40
0.9333511621642444
 40
0.9880622474647982
 40
1.0
 40
1.0
 40
1.0
 40
1.0
 10
231.936364508452
 20
59.57115620601009
 30
0.0
 10
231.8655908637717
 20
59.59814748593902
 30
0.0
 10
231.6383581003462
 20
59.68480832069388
 30
0.0
 10
231.2146762906547
 20
59.73319180293932
 30
0.0
 10
230.6772688062383
 20
59.71984424936483
 30
0.0
 10
230.1141867124215
 20
59.60884781158705
 30
0.0
 10
229.5351764342268
 20
59.40710794886715
 30
0.0
 10
228.9487027516251
 20
59.11493435559128
 30
0.0
 10
228.3654885002984
 20
58.73783995662338
 30
0.0
 10
227.7956645083939
 20
58.28283184136989
 30
0.0
 10
227.2484442250739
 20
57.75829052144343
 30
0.0
 10
226.7319902698261
 20
57.17308249666333
 30
0.0
 10
226.2538033148209
 20
56.53658130034103
 30
0.0
 10
225.8208476821372
 20
55.8586600447295
 30
0.0
 10
225.4395499645798
 20
55.14964911519709
 30
0.0
 10
225.1157156925145
 20
54.42022272192494
 30
0.0
 10
224.8545198074713
 20
53.68125581236234
 30
0.0
 10
224.6601847635006
 20
52.94346552848545
 30
0.0
 10
224.5392832878792
 20
52.23080888102132
 30
0.0
 10
224.5011401846411
 20
51.72554627342576
 30
0.0
 10
224.4992254423624
 20
51.46310129714563
 30
0.0
 10
224.498882484852
 20
51.41609367806816
 30
0.0
  0
SPLINE
  5
178
330
1F
100
AcDbEntity
  8
0
  6
Continuous
 62
     7
370
    15
100
AcDbSpline
210
0.0
220
0.0
230
1.0
 70
     8
 71
     3
 72
    13
 73
     9
 74
     0
 42
0.000000001
 43
0.00000001
 40
0.0
 40
0.0
 40
0.0
 40
0.0
 40
0.0983792428661427
 40
0.2844027857449465
 40
0.4704644832401774
 40
0.655125934029196
 40
0.8368227539026578
 40
1.0
 40
1.0
 40
1.0
 40
1.0
 10
224.4988824848521
 20
51.41609367806815
 30
0.0
 10
224.5010396409644
 20
51.29671422486448
 30
0.0
 10
224.5072757248147
 20
50.95160230833928
 30
0.0
 10
224.5771127869789
 20
50.41136393893346
 30
0.0
 10
224.734139404044
 20
49.81992774668502
 30
0.0
 10
224.9713756457353
 20
49.29432502413326
 30
0.0
 10
225.2676217776711
 20
48.84842796894158
 30
0.0
 10
225.5175831425593
 20
48.62267569789405
 30
0.0
 10
225.6358524216319
 20
48.51586095731314
 30
0.0
  0
LWPOLYLINE
  5
179
330
1F
100
AcDbEntity
  8
0
  6
Continuous
 62
     7
370
    15
100
AcDbPolyline
 90
       26
 70
   128
 43
0.0
 10
263.6595900972
 20
40.5506029243
 10
263.562406742
 20
40.8064428792
 10
263.5784899252
 20
41.0681973398
 10
263.7068290812
 20
41.3194193106
 10
263.9393601889
 20
41.5443235912
 10
264.2614724636
 20
41.7287786186
 10
264.6529264064
 20
41.8611944049
 10
265.0891255264
 20
41.9332507794
 10
265.5426618288
 20
41.940420175
 10
265.9850379595
 20
41.8822521123
 10
266.3884577994
 20
41.7624015045
 10
266.7275729963
 20
41.5883990062
 10
266.9810756952
 20
41.3711778341
 10
267.1330373892
 20
41.1243867935
 10
267.1739097661
 20
40.8635326731
 10
267.1011246642
 20
40.6050058966
 10
266.9192554392
 20
40.3650506521
 10
266.6397296033
 20
40.1587442102
 10
266.2801107928
 20
39.9990495634
 10
265.8629951802
 20
39.8960009135
 10
265.4145916734
 20
39.8560731864
 10
264.9630751139
 20
39.8817751879
 10
264.5368159477
 20
39.9714919668
 10
264.1625976059
 20
40.1195862878
 10
263.8639336032
 20
40.3167528402
 10
263.6595900972
 20
40.5506029243
  0
ARC
  5
17A
330
1F
100
AcDbEntity
  8
0
  6
Continuous
 62
     7
370
    15
100
AcDbCircle
 10
264.2781180094
 20
40.7404158482
 30
0.0
 40
0.8841840762151633
100
AcDbArc
 50
111.7411425973
 51
205.5748154556
  0
LWPOLYLINE
  5
17B
330
1F
100
AcDbEntity
  8
0
  6
Continuous
 62
     7
370
    15
100
AcDbPolyline
 90
       17
 70
   128
 43
0.0
 10
266.7794906954
 20
41.5617051051
 10
267.0344608921
 20
41.3812481811
 10
267.2495304803
 20
41.1321363036
 10
267.3550807582
 20
40.8605504424
 10
267.3449775273
 20
40.5822741804
 10
267.2198079506
 20
40.3134799226
 10
266.986846429
 20
40.0697890141
 10
266.6596318393
 20
39.8653638847
 10
266.2571807041
 20
39.71208498
 10
265.8028820206
 20
39.6188603128
 10
265.3231379768
 20
39.5911077617
 10
264.8458295529
 20
39.6304402043
 10
264.3986961794
 20
39.7345717819
 10
264.0077236229
 20
39.8974507458
 10
263.695633787
 20
40.1096111626
 10
263.4805641988
 20
40.35872304
 10
263.4805641988
 20
40.35872304
  0
LWPOLYLINE
  5
17C
330
1F
100
AcDbEntity
  8
0
  6
Continuous
 62
     7
370
    15
100
AcDbPolyline
 90
       21
 70
   128
 43
0.0
 10
264.2343574551
 20
40.668548447
 10
264.165496978
 20
40.8816102149
 10
264.2140568481
 20
41.0965281362
 10
264.3752836869
 20
41.2922645473
 10
264.6333954881
 20
41.4496594045
 10
264.9631264702
 20
41.5533058025
 10
265.3322002674
 20
41.5930581098
 10
265.7044893649
 20
41.5650250935
 10
266.0435515119
 20
41.4719508206
 10
266.3161969431
 20
41.3229460495
 10
266.495737224
 20
41.1325964052
 10
266.5645977011
 20
40.9195346372
 10
266.516037831
 20
40.7046167159
 10
266.3548109922
 20
40.5088803048
 10
266.096699191
 20
40.3514854476
 10
265.7669682089
 20
40.2478390496
 10
265.3978944117
 20
40.2080867423
 10
265.0256053143
 20
40.2361197586
 10
264.6865431673
 20
40.3291940315
 10
264.4138977361
 20
40.4781988027
 10
264.2343574551
 20
40.668548447
  0
SPLINE
  5
17D
330
1F
100
AcDbEntity
  8
0
  6
Continuous
 62
     7
370
    15
100
AcDbSpline
210
0.0
220
0.0
230
1.0
 70
     8
 71
     3
 72
    11
 73
     7
 74
     0
 42
0.000000001
 43
0.00000001
 40
0.0
 40
0.0
 40
0.0
 40
0.0
 40
0.0390145289298312
 40
0.426738885951666
 40
0.7960673730700357
 40
1.0
 40
1.0
 40
1.0
 40
1.0
 10
264.5819964709473
 20
40.37407645656316
 30
0.0
 10
264.5776840285366
 20
40.37625119223416
 30
0.0
 10
264.5305147579964
 20
40.40003833776527
 30
0.0
 10
264.4331092049843
 20
40.50459389071182
 30
0.0
 10
264.3152486347992
 20
40.74767569585018
 30
0.0
 10
264.2519495842971
 20
40.92219354489612
 30
0.0
 10
264.2294315007663
 20
40.98427674316291
 30
0.0
  0
SPLINE
  5
17E
330
1F
100
AcDbEntity
  8
0
  6
Continuous
 62
     7
370
    15
100
AcDbSpline
210
0.0
220
0.0
230
1.0
 70
     8
 71
     3
 72
    10
 73
     6
 74
     0
 42
0.000000001
 43
0.00000001
 40
0.0
 40
0.0
 40
0.0
 40
0.0
 40
0.3814729535271639
 40
0.7759878710805925
 40
1.0
 40
1.0
 40
1.0
 40
1.0
 10
266.5006631783522
 20
40.74289039063522
 30
0.0
 10
266.4494281897485
 20
40.67938090837393
 30
0.0
 10
266.3452065683626
 20
40.55019065392025
 30
0.0
 10
266.1982381614939
 20
40.40234518702833
 30
0.0
 10
266.1075337919942
 20
40.35943219310285
 30
0.0
 10
266.07468336285
 20
40.34389038101497
 30
0.0
  0
SPLINE
  5
17F
330
1F
100
AcDbEntity
  8
0
  6
Continuous
 62
     7
370
    15
100
AcDbSpline
210
0.0
220
0.0
230
1.0
 70
     8
 71
     3
 72
    11
 73
     7
 74
     0
 42
0.000000001
 43
0.00000001
 40
0.0
 40
0.0
 40
0.0
 40
0.0
 40
0.1849308168246166
 40
0.5198464202157874
 40
0.8714438233692638
 40
1.0
 40
1.0
 40
1.0
 40
1.0
 10
266.1139146415127
 20
41.37098337499302
 30
0.0
 10
266.136425296058
 20
41.30894767433634
 30
0.0
 10
266.1997034634453
 20
41.13456334258628
 30
0.0
 10
266.3178242468373
 20
40.8898178505907
 30
0.0
 10
266.4269136232045
 20
40.77744840299562
 30
0.0
 10
266.4850876750223
 20
40.75018885413805
 30
0.0
 10
266.5006631783522
 20
40.74289039063522
 30
0.0
  0
SPLINE
  5
180
330
1F
100
AcDbEntity
  8
0
  6
Continuous
 62
     7
370
    15
100
AcDbSpline
210
0.0
220
0.0
230
1.0
 70
     8
 71
     3
 72
    11
 73
     7
 74
     0
 42
0.000000001
 43
0.00000001
 40
0.0
 40
0.0
 40
0.0
 40
0.0
 40
0.2164526859271119
 40
0.4403055508634054
 40
0.751896020422191
 40
1.0
 40
1.0
 40
1.0
 40
1.0
 10
264.9782988027197
 20
41.49167655125686
 30
0.0
 10
265.0560886017694
 20
41.45383479319971
 30
0.0
 10
265.2143277115102
 20
41.37685752652535
 30
0.0
 10
265.5079789276973
 20
41.29550375362015
 30
0.0
 10
265.8229763526473
 20
41.29225694469164
 30
0.0
 10
266.0245570187281
 20
41.34680365396186
 30
0.0
 10
266.1139146415127
 20
41.37098337499302
 30
0.0
  0
SPLINE
  5
181
330
1F
100
AcDbEntity
  8
0
  6
Continuous
 62
     7
370
    15
100
AcDbSpline
210
0.0
220
0.0
230
1.0
 70
     8
 71
     3
 72
    11
 73
     7
 74
     0
 42
0.000000001
 43
0.00000001
 40
0.0
 40
0.0
 40
0.0
 40
0.0
 40
0.2164526859271247
 40
0.4403055508633994
 40
0.751896020422197
 40
0.9999999999999999
 40
0.9999999999999999
 40
0.9999999999999999
 40
0.9999999999999999
 10
264.2294315007663
 20
40.98427674316291
 30
0.0
 10
264.2807289861868
 20
40.98945941763711
 30
0.0
 10
264.3850777378747
 20
41.0000019541251
 30
0.0
 10
264.5787222666576
 20
41.08106249637361
 30
0.0
 10
264.7864432790691
 20
41.2520362873552
 30
0.0
 10
264.9193730642809
 20
41.4180743987549
 30
0.0
 10
264.9782988027197
 20
41.49167655125686
 30
0.0
  0
LINE
  5
182
330
1F
100
AcDbEntity
  8
0
  6
Continuous
 62
     7
370
    15
100
AcDbLine
 10
266.1139146415
 20
40.3592754501
 30
0.0
 11
266.1139146415
 21
41.370983375
 31
0.0
  0
LINE
  5
183
330
1F
100
AcDbEntity
  8
0
  6
Continuous
 62
     7
370
    15
100
AcDbLine
 10
264.9782988027
 20
40.244791481
 30
0.0
 11
264.9782988027
 21
41.4916765513
 31
0.0
  0
ARC
  5
184
330
1F
100
AcDbEntity
  8
0
  6
Continuous
 62
     7
370
    15
100
AcDbCircle
 10
266.3404171855
 20
44.3864255536
 30
0.0
 40
5.347450669438862
100
AcDbArc
 50
44.0278587448
 51
75.8160592654
  0
ARC
  5
185
330
1F
100
AcDbEntity
  8
0
  6
Continuous
 62
     7
370
    15
100
AcDbCircle
 10
255.9381560967
 20
26.3671445403
 30
0.0
 40
5.344051591925203
100
AcDbArc
 50
224.6811485621
 51
255.6381462256
  0
ARC
  5
186
330
1F
100
AcDbEntity
  8
0
  6
Continuous
 62
     7
370
    15
100
AcDbCircle
 10
255.5007545144
 20
28.3913406537
 30
0.0
 40
6.89084799055089
100
AcDbArc
 50
188.312493873
 51
236.7139908619
  0
SPLINE
  5
187
330
1F
100
AcDbEntity
  8
0
  6
Continuous
 62
     7
370
    15
100
AcDbSpline
210
0.0
220
0.0
230
1.0
 70
     8
 71
     3
 72
    29
 73
    25
 74
     0
 42
0.000000001
 43
0.00000001
 40
0.0
 40
0.0
 40
0.0
 40
0.0
 40
0.0226170105016674
 40
0.0451713142211041
 40
0.0676870228449807
 40
0.090188372120831
 40
0.1126996441629423
 40
0.1352450890127045
 40
0.1578488467149011
 40
0.1805348711521328
 40
0.2033268568146046
 40
0.2262481695760157
 40
0.2493217824052029
 40
0.3751991801868492
 40
0.499961424646005
 40
0.4999717960761217
 40
0.6247044141102638
 40
0.7509557879397657
 40
0.7931713871186022
 40
0.8349081045046313
 40
0.8763104515914815
 40
0.9175264576320521
 40
0.9587061619408423
 40
1.0
 40
1.0
 40
1.0
 40
1.0
 10
248.6824611370415
 20
32.54937051009687
 30
0.0
 10
248.7008263621636
 20
32.50053062029843
 30
0.0
 10
248.7375058939114
 20
32.40298625171592
 30
0.0
 10
248.7891957225744
 20
32.25552364231839
 30
0.0
 10
248.8383770823955
 20
32.1075863528011
 30
0.0
 10
248.8848667522935
 20
31.95909448757214
 30
0.0
 10
248.928776848752
 20
31.81010252144097
 30
0.0
 10
248.9701420402074
 20
31.66063073286279
 30
0.0
 10
249.0090193269126
 20
31.51071062955284
 30
0.0
 10
249.0454611719361
 20
31.36037181956922
 30
0.0
 10
249.0795231530247
 20
31.20964936794064
 30
0.0
 10
249.1112602061243
 20
31.0585676712004
 30
0.0
 10
249.1844184779988
 20
30.68284646424888
 30
0.0
 10
249.2700950180381
 20
30.09407604253241
 30
0.0
 10
249.295827379855
 20
29.59259243852599
 30
0.0
 10
249.2962645360901
 20
29.12213961328226
 30
0.0
 10
249.2708334793707
 20
28.67569708339462
 30
0.0
 10
249.1788661633326
 20
28.23967041190487
 30
0.0
 10
249.0863122692874
 20
27.9714775292823
 30
0.0
 10
249.0227296453987
 20
27.82522641844782
 30
0.0
 10
248.9510841413631
 20
27.69430608660195
 30
0.0
 10
248.8708293670504
 20
27.57885975415134
 30
0.0
 10
248.7824277074564
 20
27.4773377497064
 30
0.0
 10
248.7160710535446
 20
27.42233887274382
 30
0.0
 10
248.6828468116591
 20
27.3948013782514
 30
0.0
  0
LWPOLYLINE
  5
188
330
1F
100
AcDbEntity
  8
0
  6
Continuous
 62
     7
370
    15
100
AcDbPolyline
 90
       27
 70
   128
 43
0.0
 10
248.6822423959
 20
32.5494967867
 10
248.9128804104
 20
33.7499931231
 10
249.2216665078
 20
34.9689374978
 10
249.6063413134
 20
36.1974109474
 10
250.0640901784
 20
37.4264247848
 10
250.5915637741
 20
38.6469863688
 10
251.1849025989
 20
39.850164903
 10
251.8397652183
 20
41.027156782
 10
252.5513600308
 20
42.1693500071
 10
253.3144803278
 20
43.2683871998
 10
254.1235423912
 20
44.3162267524
 10
254.9726263488
 20
45.3052016681
 10
255.8555194898
 20
46.2280756602
 10
256.7657617233
 20
47.0780960995
 10
257.6966928463
 20
47.8490434233
 10
258.6415012758
 20
48.5352766432
 10
259.5932738894
 20
49.1317746204
 10
260.545046608
 20
49.634172805
 10
261.4898553517
 20
50.0387951711
 10
262.4207869957
 20
50.3426811143
 10
263.3310299535
 20
50.5436071144
 10
264.2139240165
 20
50.6401030045
 10
265.0630090871
 20
50.6314627283
 10
265.8720724465
 20
50.5177495063
 10
266.6351942129
 20
50.2997953733
 10
267.3467906575
 20
49.9791950903
 10
267.4676482576
 20
49.9115346991
  0
LWPOLYLINE
  5
189
330
1F
100
AcDbEntity
  8
0
  6
Continuous
 62
     7
370
    15
100
AcDbPolyline
 90
       59
 70
   128
 43
0.0
 10
268.918258915
 20
38.6860388827
 10
268.188145265
 20
38.2188412407
 10
267.46659153
 20
37.6656970568
 10
266.7620572677
 20
37.0330914409
 10
266.0828024984
 20
36.3284411155
 10
265.4367908631
 20
35.5600074614
 10
264.8315962575
 20
34.7367996605
 10
264.2743140351
 20
33.8684690717
 10
263.7714778205
 20
32.9651960772
 10
263.3289829084
 20
32.037570727
 10
262.9520171472
 20
31.0964685802
 10
262.6450001157
 20
30.1529231989
 10
262.411531308
 20
29.2179967902
 10
262.2543479323
 20
28.3026505113
 10
262.1752928199
 20
27.4176159605
 10
262.1752928199
 20
26.5732693586
 10
262.2543479323
 20
25.7795098976
 10
262.411531308
 20
25.0456436814
 10
262.6450001157
 20
24.3802746204
 10
262.9520171472
 20
23.7912035585
 10
263.3289829084
 20
23.2853368153
 10
263.7714778205
 20
22.8686052159
 10
264.2743140351
 20
22.5458945572
 10
264.8315962575
 20
22.3209883267
 10
265.4367908631
 20
22.1965233443
 10
266.0828024984
 20
22.173958848
 10
266.7620572677
 20
22.253559386
 10
267.46659153
 20
22.4343917148
 10
268.188145265
 20
22.7143357406
 10
268.918258915
 20
23.0901093757
 10
269.6483725651
 20
23.5573070178
 10
270.3699263001
 20
24.1104512017
 10
271.0744605623
 20
24.7430568175
 10
271.7537153316
 20
25.447707143
 10
272.399726967
 20
26.2161407971
 10
273.0049215725
 20
27.039348598
 10
273.5622037949
 20
27.9076791868
 10
274.0650400096
 20
28.8109521813
 10
274.5075349216
 20
29.7385775315
 10
274.8845006828
 20
30.6796796783
 10
275.1915177143
 20
31.6232250595
 10
275.4249865221
 20
32.5581514683
 10
275.5821698978
 20
33.4734977471
 10
275.6612250101
 20
34.358532298
 10
275.6612250101
 20
35.2028788999
 10
275.5821698978
 20
35.9966383609
 10
275.4249865221
 20
36.7305045771
 10
275.1915177143
 20
37.3958736381
 10
274.8845006828
 20
37.9849447
 10
274.5075349216
 20
38.4908114431
 10
274.0650400096
 20
38.9075430425
 10
273.5622037949
 20
39.2302537012
 10
273.0049215725
 20
39.4551599317
 10
272.399726967
 20
39.5796249142
 10
271.7537153316
 20
39.6021894104
 10
271.0744605623
 20
39.5225888724
 10
270.3699263001
 20
39.3417565436
 10
269.6483725651
 20
39.0618125178
 10
268.918258915
 20
38.6860388827
  0
LWPOLYLINE
  5
18A
330
1F
100
AcDbEntity
  8
0
  6
Continuous
 62
     7
370
    15
100
AcDbPolyline
 90
       31
 70
   128
 43
0.0
 10
268.7768375588
 20
38.9309878563
 10
268.0314335705
 20
38.4540059704
 10
267.2947687625
 20
37.8892776151
 10
266.5754798561
 20
37.2434237141
 10
265.881999856
 20
36.5240163138
 10
265.2224591811
 20
35.7394898083
 10
264.604590343
 20
34.8990420535
 10
264.0356372887
 20
34.0125265309
 10
263.5222704727
 20
33.0903368245
 10
263.0705086515
 20
32.1432847653
 10
262.6856483194
 20
31.182473673
 10
262.3722016119
 20
30.2191681791
 10
262.133843405
 20
29.2646621597
 10
261.9733682308
 20
28.3301463253
 10
261.8926575141
 20
27.4265770194
 10
261.8926575141
 20
26.5645477662
 10
261.9733682308
 20
25.7541650704
 10
262.133843405
 20
25.0049299282
 10
262.3722016119
 20
24.3256264366
 10
262.6856483194
 20
23.724218808
 10
263.0705086515
 20
23.2077579969
 10
263.5222704727
 20
22.7822990342
 10
264.0356372887
 20
22.4528300371
 10
264.604590343
 20
22.2232137284
 10
265.2224591811
 20
22.0961421495
 10
265.881999856
 20
22.0731050983
 10
266.5754798561
 20
22.1543726633
 10
267.2947687625
 20
22.3389920566
 10
268.0314335705
 20
22.6247987845
 10
268.7768375588
 20
23.0084420245
 10
268.777958075
 20
23.0090889899
  0
LWPOLYLINE
  5
18B
330
1F
100
AcDbEntity
  8
0
  6
Continuous
 62
     7
370
    15
100
AcDbPolyline
 90
       16
 70
   128
 43
0.0
 10
275.6711286754
 20
34.9497044855
 10
275.6610176035
 20
35.3748821146
 10
275.5803068867
 20
36.1852648104
 10
275.4198317126
 20
36.9344999526
 10
275.1814735057
 20
37.6138034442
 10
274.8680267982
 20
38.2152110728
 10
274.4831664661
 20
38.7316718839
 10
274.0314046448
 20
39.1571308467
 10
273.5180378288
 20
39.4865998437
 10
272.9490847746
 20
39.7162161524
 10
272.3312159364
 20
39.8432877313
 10
271.6716752616
 20
39.8663247825
 10
270.9781952615
 20
39.7850572175
 10
270.2589063551
 20
39.6004378242
 10
269.522241547
 20
39.3146310963
 10
268.7768375588
 20
38.9309878563
  0
SPLINE
  5
18C
330
1F
100
AcDbEntity
  8
0
  6
Continuous
 62
     7
370
    15
100
AcDbSpline
210
0.0
220
0.0
230
1.0
 70
    11
 71
     3
 72
    77
 73
    73
 74
     0
 42
0.000000001
 43
0.00000001
 40
0.0
 40
0.0
 40
0.0
 40
0.0
 40
0.0312499999999997
 40
0.0312499999999997
 40
0.0624999999999995
 40
0.0624999999999995
 40
0.0937499999999993
 40
0.0937499999999993
 40
0.124999999999999
 40
0.124999999999999
 40
0.1562499999999988
 40
0.1562499999999988
 40
0.1874999999999986
 40
0.1874999999999986
 40
0.2187499999999983
 40
0.2187499999999983
 40
0.2499999999999981
 40
0.2499999999999981
 40
0.2812499999999979
 40
0.2812499999999979
 40
0.3124999999999977
 40
0.3124999999999977
 40
0.3437499999999974
 40
0.3437499999999974
 40
0.3593749999999973
 40
0.3593749999999973
 40
0.3749999999999971
 40
0.390624999999997
 40
0.390624999999997
 40
0.4062499999999969
 40
0.4062499999999969
 40
0.4374999999999968
 40
0.4374999999999968
 40
0.4687499999999968
 40
0.4687499999999968
 40
0.4999999999999968
 40
0.4999999999999968
 40
0.5312499999999968
 40
0.5312499999999968
 40
0.5624999999999967
 40
0.5624999999999967
 40
0.5937499999999967
 40
0.5937499999999967
 40
0.6249999999999967
 40
0.6249999999999967
 40
0.6562499999999966
 40
0.6562499999999966
 40
0.6874999999999966
 40
0.6874999999999966
 40
0.7187499999999966
 40
0.7187499999999966
 40
0.7499999999999964
 40
0.7499999999999964
 40
0.7656249999999967
 40
0.7656249999999967
 40
0.7812499999999969
 40
0.7812499999999969
 40
0.8124999999999974
 40
0.8124999999999974
 40
0.843749999999998
 40
0.843749999999998
 40
0.8749999999999984
 40
0.8749999999999984
 40
0.8906249999999988
 40
0.8906249999999988
 40
0.9062499999999991
 40
0.9062499999999991
 40
0.9374999999999994
 40
0.9374999999999994
 40
0.9687499999999997
 40
0.9687499999999997
 40
1.0
 40
1.0
 40
1.0
 40
1.0
 10
265.3509944526895
 20
42.09233135230465
 30
0.0
 10
265.4988583041924
 20
42.07130789177889
 30
0.0
 10
265.6429890860758
 20
42.04283445243126
 30
0.0
 10
265.9245859636324
 20
41.97356634659452
 30
0.0
 10
266.0629773518824
 20
41.9324200291767
 30
0.0
 10
266.3287425463861
 20
41.84008162219758
 30
0.0
 10
266.4544636996268
 20
41.78957463571092
 30
0.0
 10
266.6922052887177
 20
41.68090162279205
 30
0.0
 10
266.8051819624714
 20
41.6221237968301
 30
0.0
 10
267.0110569206757
 20
41.50006134410497
 30
0.0
 10
267.1039982282402
 20
41.43694720009074
 30
0.0
 10
267.2700453668984
 20
41.30628067839539
 30
0.0
 10
267.3436915793949
 20
41.23801853135301
 30
0.0
 10
267.4654676749802
 20
41.10042713665609
 30
0.0
 10
267.5140689320436
 20
41.03097557868962
 30
0.0
 10
267.586078867211
 20
40.88951879820887
 30
0.0
 10
267.6094420196865
 20
40.81674025484406
 30
0.0
 10
267.627116152427
 20
40.67265481018025
 30
0.0
 10
267.6219418362218
 20
40.60094739629938
 30
0.0
 10
267.5817145432909
 20
40.45670526631194
 30
0.0
 10
267.5458994521342
 20
40.38358480958155
 30
0.0
 10
267.4451997646316
 20
40.24268136152669
 30
0.0
 10
267.3803310615626
 20
40.17402312949677
 30
0.0
 10
267.2594074772168
 20
40.07326131618488
 30
0.0
 10
267.215073766041
 20
40.04007738664688
 30
0.0
 10
267.1208948739075
 20
39.97636539386488
 30
0.0
 10
267.0206336510301
 20
39.91480194762065
 30
0.0
 10
266.9083371085939
 20
39.85746263323453
 30
0.0
 10
266.7898948609265
 20
39.80230813757351
 30
0.0
 10
266.7275323811321
 20
39.77583747949789
 30
0.0
 10
266.5362469064547
 20
39.70187616553881
 30
0.0
 10
266.4015994699095
 20
39.6589871205861
 30
0.0
 10
266.1185162520839
 20
39.58648606449371
 30
0.0
 10
265.973165343602
 20
39.55776592246647
 30
0.0
 10
265.6802545445195
 20
39.51624398362925
 30
0.0
 10
265.5305146235597
 20
39.50328447646016
 30
0.0
 10
265.2371319265444
 20
39.49452534837476
 30
0.0
 10
265.0927553292775
 20
39.4984718869706
 30
0.0
 10
264.8082950199646
 20
39.52370561159292
 30
0.0
 10
264.6693629758819
 20
39.54506987433168
 30
0.0
 10
264.405375396951
 20
39.60424165572836
 30
0.0
 10
264.2791130800298
 20
39.64213888981045
 30
0.0
 10
264.0382068544326
 20
39.73555876533186
 30
0.0
 10
263.9266665440013
 20
39.78991486933804
 30
0.0
 10
263.7216239191314
 20
39.91298169166989
 30
0.0
 10
263.6276636462028
 20
39.98201506142459
 30
0.0
 10
263.4595671399027
 20
40.13400939647645
 30
0.0
 10
263.3872761437237
 20
40.21518970264954
 30
0.0
 10
263.2657594442699
 20
40.38700413018751
 30
0.0
 10
263.216292753042
 20
40.47825056269274
 30
0.0
 10
263.143594075284
 20
40.667245763451
 30
0.0
 10
263.1208480079766
 20
40.76323119005779
 30
0.0
 10
263.1074626725575
 20
40.90852496035522
 30
0.0
 10
263.106480792737
 20
40.95717700134681
 30
0.0
 10
263.1118647113221
 20
41.05477900548615
 30
0.0
 10
263.1183159535539
 20
41.10402231500094
 30
0.0
 10
263.1488650102405
 20
41.24874889968659
 30
0.0
 10
263.1838762826814
 20
41.34181093964352
 30
0.0
 10
263.2844621757599
 20
41.51960902312494
 30
0.0
 10
263.3513690736831
 20
41.60534941660421
 30
0.0
 10
263.5119705000932
 20
41.75833046198041
 30
0.0
 10
263.6055948736471
 20
41.82637977207029
 30
0.0
 10
263.7668337404875
 20
41.91507330825797
 30
0.0
 10
263.8240388668552
 20
41.94230127158836
 30
0.0
 10
263.9422517322944
 20
41.99079246391633
 30
0.0
 10
264.0036315895459
 20
42.01227466025726
 30
0.0
 10
264.194421479
 20
42.06874414559848
 30
0.0
 10
264.3321120063166
 20
42.09587122046332
 30
0.0
 10
264.6136763376495
 20
42.12821142850165
 30
0.0
 10
264.7581591026639
 20
42.13389490641821
 30
0.0
 10
265.0543551737523
 20
42.12645875298178
 30
0.0
 10
265.2031306011866
 20
42.11335481283044
 30
0.0
 10
265.3509944526895
 20
42.09233135230466
 30
0.0
  0
LINE
  5
18D
330
1F
100
AcDbEntity
  8
0
  6
Continuous
 62
     7
370
    15
100
AcDbLine
 10
272.6178995577
 20
30.797305694
 30
0.0
 11
273.9952856039
 21
32.510760841
 31
0.0
  0
SPLINE
  5
18E
330
1F
100
AcDbEntity
  8
0
  6
Continuous
 62
     7
370
    15
100
AcDbSpline
210
0.0
220
0.0
230
1.0
 70
     8
 71
     3
 72
    22
 73
    18
 74
     0
 42
0.000000001
 43
0.00000001
 40
0.0
 40
0.0
 40
0.0
 40
0.0
 40
0.0500000000000153
 40
0.1
 40
0.15
 40
0.2
 40
0.2500000000000001
 40
0.2968749999999255
 40
0.34375
 40
0.3906249999999999
 40
0.4374999999999989
 40
0.515352885058417
 40
0.515352885058417
 40
0.53125
 40
0.6249999999995608
 40
0.8125
 40
0.8824198414282379
 40
0.8824198414282379
 40
0.8824198414282379
 40
0.8824198414282379
 10
273.9952856039396
 20
32.51076084098223
 30
0.0
 10
274.0610237928738
 20
32.59253852305519
 30
0.0
 10
274.1897785061507
 20
32.77054141410739
 30
0.0
 10
274.3660835957344
 20
33.07590638295459
 30
0.0
 10
274.5147916537594
 20
33.41447740263504
 30
0.0
 10
274.6214792474528
 20
33.77026406806877
 30
0.0
 10
274.6720267404276
 20
34.11387426480171
 30
0.0
 10
274.6630978649994
 20
34.42398356332915
 30
0.0
 10
274.5980691803836
 20
34.68430236745994
 30
0.0
 10
274.4818709218873
 20
34.88844732903727
 30
0.0
 10
274.290023417706
 20
35.06127267787194
 30
0.0
 10
274.1147943065147
 20
35.11550827145892
 30
0.0
 10
273.97784722607
 20
35.12859409598411
 30
0.0
 10
273.8299065857331
 20
35.14245271156993
 30
0.0
 10
273.4932286733183
 20
35.17168631897173
 30
0.0
 10
273.2652850138106
 20
35.19247940786063
 30
0.0
 10
272.7650685459886
 20
35.23723185540904
 30
0.0
 10
272.6178787579606
 20
35.2503908073122
 30
0.0
  0
SPLINE
  5
18F
330
1F
100
AcDbEntity
  8
0
  6
Continuous
 62
     7
370
    15
100
AcDbSpline
210
0.0
220
0.0
230
1.0
 70
     8
 71
     3
 72
    22
 73
    18
 74
     0
 42
0.000000001
 43
0.00000001
 40
0.0
 40
0.0
 40
0.0
 40
0.0
 40
0.0500000000000153
 40
0.1
 40
0.15
 40
0.2
 40
0.2500000000000001
 40
0.2968749999999255
 40
0.34375
 40
0.3906249999999999
 40
0.4374999999999989
 40
0.515352885058417
 40
0.515352885058417
 40
0.53125
 40
0.6249999999995608
 40
0.8125
 40
0.8812161579343126
 40
0.8812161579343126
 40
0.8812161579343126
 40
0.8812161579343126
 10
263.8412322261038
 20
26.64895059809693
 30
0.0
 10
263.7764633846141
 20
26.65474190852824
 30
0.0
 10
263.6462894484023
 20
26.68421467265149
 30
0.0
 10
263.470554777358
 20
26.78597111007051
 30
0.0
 10
263.3216938795775
 20
26.9528611407831
 30
0.0
 10
263.2150472263672
 20
27.18546521949725
 30
0.0
 10
263.1644890387609
 20
27.47071567038244
 30
0.0
 10
263.173420138504
 20
27.79113316003378
 30
0.0
 10
263.23844995832
 20
28.1265348501507
 30
0.0
 10
263.3546415000553
 20
28.46483085598857
 30
0.0
 10
263.5465204044755
 20
28.85919775595182
 30
0.0
 10
263.7216284427821
 20
29.11559794854736
 30
0.0
 10
263.8586338006085
 20
29.28687199494814
 30
0.0
 10
264.0066782513679
 20
29.47166836814408
 30
0.0
 10
264.3445014861331
 20
29.89104680181249
 30
0.0
 10
264.5634826917684
 20
30.16386741426633
 30
0.0
 10
265.0720180646236
 20
30.79650730610923
 30
0.0
 10
265.2186391343852
 20
30.97890083188001
 30
0.0
  0
LINE
  5
190
330
1F
100
AcDbEntity
  8
0
  6
Continuous
 62
     7
370
    15
100
AcDbLine
 10
265.2186182724
 20
26.5257915297
 30
0.0
 11
263.8412322261
 21
26.6489505981
 31
0.0
  0
SPLINE
  5
191
330
1F
100
AcDbEntity
  8
0
  6
Continuous
 62
     7
370
    15
100
AcDbSpline
210
0.0
220
0.0
230
1.0
 70
     8
 71
     3
 72
     8
 73
     4
 74
     0
 42
0.000000001
 43
0.00000001
 40
0.0
 40
0.0
 40
0.0
 40
0.0
 40
1.0
 40
1.0
 40
1.0
 40
1.0
 10
247.9043059988664
 20
35.82827391360122
 30
0.0
 10
247.2112347638136
 20
35.7124122952265
 30
0.0
 10
246.5176139974173
 20
35.59765360207345
 30
0.0
 10
245.8236348365899
 20
35.48364205443529
 30
0.0
  0
SPLINE
  5
192
330
1F
100
AcDbEntity
  8
0
  6
Continuous
 62
     7
370
    15
100
AcDbSpline
210
0.0
220
0.0
230
1.0
 70
     8
 71
     3
 72
     8
 73
     4
 74
     0
 42
0.000000001
 43
0.00000001
 40
0.0
 40
0.0
 40
0.0
 40
0.0
 40
0.0012389803509652
 40
0.0012389803509652
 40
0.0012389803509652
 40
0.0012389803509652
 10
245.3498984224445
 20
35.75717617518929
 30
0.0
 10
245.5079717574255
 20
35.66590509473878
 30
0.0
 10
245.6658899363914
 20
35.57472356763854
 30
0.0
 10
245.8236348365899
 20
35.48364205443529
 30
0.0
  0
LWPOLYLINE
  5
193
330
1F
100
AcDbEntity
  8
0
  6
Continuous
 62
     7
370
    15
100
AcDbPolyline
 90
       28
 70
   128
 43
0.0
 10
245.3498984224
 20
35.7571761752
 10
245.6567139001
 20
36.9785765623
 10
246.0398728223
 20
38.2098580468
 10
246.4965580215
 20
39.4419676588
 10
247.0234117299
 20
40.6658463399
 10
247.6165602673
 20
41.8724955491
 10
248.2716425222
 20
43.0530434249
 10
248.9838420169
 20
44.1988100152
 10
249.7479223204
 20
45.3013710965
 10
250.5582655492
 20
46.3526201129
 10
251.4089136726
 20
47.3448277794
 10
252.2936123193
 20
48.270698911
 10
253.2058567619
 20
49.1234260609
 10
254.1389397436
 20
49.8967395715
 10
255.0860007923
 20
50.5849536724
 10
256.0400766627
 20
51.1830082847
 10
256.994152533
 20
51.6865062251
 10
257.9412135817
 20
52.0917455362
 10
258.8742965634
 20
52.3957467049
 10
259.786541006
 20
52.5962745694
 10
260.6712396527
 20
52.691854753
 10
261.5218877761
 20
52.6817845045
 10
262.3322310049
 20
52.5661378651
 10
263.0963113084
 20
52.3457651243
 10
263.8085108031
 20
52.0222865678
 10
264.463593058
 20
51.5980805643
 10
265.0567415954
 20
51.0762660793
 10
265.4880736808
 20
50.5855570388
  0
LINE
  5
194
330
1F
100
AcDbEntity
  8
0
  6
Continuous
 62
     7
370
    15
100
AcDbLine
 10
242.3181780981
 20
37.5073510649
 30
0.0
 11
245.3498984224
 21
35.7571761752
 31
0.0
  0
ARC
  5
195
330
1F
100
AcDbEntity
  8
0
  6
Continuous
 62
     7
370
    15
100
AcDbCircle
 10
258.2142060897
 20
49.0812178713
 30
0.0
 40
5.34544201453996
100
AcDbArc
 50
60.0521018067
 51
74.8717882147
  0
SPLINE
  5
196
330
1F
100
AcDbEntity
  8
0
  6
Continuous
 62
     7
370
    15
100
AcDbSpline
210
0.0
220
0.0
230
1.0
 70
     8
 71
     3
 72
    10
 73
     6
 74
     0
 42
0.000000001
 43
0.00000001
 40
0.0
 40
0.0
 40
0.0
 40
0.0
 40
0.4207743280342903
 40
0.7795101860230144
 40
1.0
 40
1.0
 40
1.0
 40
1.0
 10
263.7528438784539
 20
26.97881339063975
 30
0.0
 10
263.6331295624695
 20
27.01353570665446
 30
0.0
 10
263.4113514678823
 20
27.07786092141319
 30
0.0
 10
263.2261489334675
 20
27.35373997731613
 30
0.0
 10
263.2033943347659
 20
27.58095232835813
 30
0.0
 10
263.1947324997029
 20
27.66744367609917
 30
0.0
  0
SPLINE
  5
197
330
1F
100
AcDbEntity
  8
0
  6
Continuous
 62
     7
370
    15
100
AcDbSpline
210
0.0
220
0.0
230
1.0
 70
     8
 71
     3
 72
    18
 73
    14
 74
     0
 42
0.000000001
 43
0.00000001
 40
0.0
 40
0.0
 40
0.0
 40
0.0
 40
0.0004520123815651
 40
0.0670587323584512
 40
0.1350864753312196
 40
0.2478168851950718
 40
0.3635637493581506
 40
0.469621295635794
 40
0.576511887994686
 40
0.6852486991553466
 40
0.7943885408547647
 40
0.8970995795496813
 40
0.9999999999999999
 40
0.9999999999999999
 40
0.9999999999999999
 40
0.9999999999999999
 10
265.3923180356609
 20
31.22196765970437
 30
0.0
 10
265.3923137086602
 20
31.22195075417435
 30
0.0
 10
265.3916717722942
 20
31.21944271798073
 30
0.0
 10
265.3878356528908
 20
31.2117380402231
 30
0.0
 10
265.3798411670437
 20
31.19681767048315
 30
0.0
 10
265.3663720049061
 20
31.17529545910739
 30
0.0
 10
265.3482762712406
 20
31.1486822609855
 30
0.0
 10
265.3284781391369
 20
31.12102335362622
 30
0.0
 10
265.3078004213488
 20
31.09309259133849
 30
0.0
 10
265.2859372304007
 20
31.06430865439283
 30
0.0
 10
265.2636067306598
 20
31.03551329142796
 30
0.0
 10
265.2411577596389
 20
31.00701122885758
 30
0.0
 10
265.2261499505298
 20
30.98827671611232
 30
0.0
 10
265.2186391343827
 20
30.97890083187692
 30
0.0
  0
LINE
  5
198
330
1F
100
AcDbEntity
  8
0
  6
Continuous
 62
     7
370
    15
100
AcDbLine
 10
248.3069014013
 20
35.7671115229
 30
0.0
 11
248.2975787504
 21
35.7724933747
 31
0.0
  0
SPLINE
  5
199
330
1F
100
AcDbEntity
  8
0
  6
Continuous
 62
     7
370
    15
100
AcDbSpline
210
0.0
220
0.0
230
1.0
 70
     8
 71
     3
 72
    10
 73
     6
 74
     0
 42
0.000000001
 43
0.00000001
 40
0.0
 40
0.0
 40
0.0
 40
0.0
 40
0.2398639368755726
 40
0.7127525402339082
 40
1.0
 40
1.0
 40
1.0
 40
1.0
 10
249.2228599677235
 20
34.96617723381694
 30
0.0
 10
249.1574045493894
 20
35.04668757593265
 30
0.0
 10
248.9629046329062
 20
35.28592300083871
 30
0.0
 10
248.6504594746426
 20
35.55120723800674
 30
0.0
 10
248.4011230323572
 20
35.70789925151313
 30
0.0
 10
248.3069014013255
 20
35.76711152287983
 30
0.0
  0
SPLINE
  5
19A
330
1F
100
AcDbEntity
  8
0
  6
Continuous
 62
     7
370
    15
100
AcDbSpline
210
0.0
220
0.0
230
1.0
 70
     8
 71
     3
 72
    16
 73
    12
 74
     0
 42
0.000000001
 43
0.00000001
 40
0.0
 40
0.0
 40
0.0
 40
0.0
 40
0.2500000000000019
 40
0.2500000000000019
 40
0.5000000000000038
 40
0.5000000000000038
 40
0.6250000000000028
 40
0.6250000000000028
 40
0.7500000000000019
 40
0.7500000000000019
 40
1.0
 40
1.0
 40
1.0
 40
1.0
 10
272.6178787579606
 20
35.25039080731219
 30
0.0
 10
272.586389288875
 20
35.25320600539561
 30
0.0
 10
272.5523837764844
 20
35.25465510307314
 30
0.0
 10
272.4754822932752
 20
35.2527265356599
 30
0.0
 10
272.4325284773886
 20
35.24957120918319
 30
0.0
 10
272.3589342960862
 20
35.23577812854736
 30
0.0
 10
272.3328909476831
 20
35.22944622818677
 30
0.0
 10
272.2845913223413
 20
35.21386805778712
 30
0.0
 10
272.2624417234402
 20
35.20465231106157
 30
0.0
 10
272.2074610137746
 20
35.17657016531077
 30
0.0
 10
272.1853876141701
 20
35.15820590057869
 30
0.0
 10
272.1688977561179
 20
35.14103374061064
 30
0.0
  0
SPLINE
  5
19B
330
1F
100
AcDbEntity
  8
0
  6
Continuous
 62
     7
370
    15
100
AcDbSpline
210
0.0
220
0.0
230
1.0
 70
     8
 71
     3
 72
     8
 73
     4
 74
     0
 42
0.000000001
 43
0.00000001
 40
0.0
 40
0.0
 40
0.0
 40
0.0
 40
1.0
 40
1.0
 40
1.0
 40
1.0
 10
272.1688977561179
 20
35.14103374061048
 30
0.0
 10
272.1185222357075
 20
35.1602064341114
 30
0.0
 10
272.0669824615052
 20
35.18292953500441
 30
0.0
 10
272.0281123237494
 20
35.20536878789787
 30
0.0
  0
LINE
  5
19C
330
1F
100
AcDbEntity
  8
0
  6
Continuous
 62
     7
370
    15
100
AcDbLine
 10
270.6078708763
 20
36.0252567237
 30
0.0
 11
272.0281123238
 21
35.2053687879
 31
0.0
  0
ARC
  5
19D
330
1F
100
AcDbEntity
  8
0
  6
Continuous
 62
     7
370
    15
100
AcDbCircle
 10
262.2692717139
 20
35.3484436905
 30
0.0
 40
6.784886396811399
100
AcDbArc
 50
338.071802806
 51
2.447460801
  0
LINE
  5
19E
330
1F
100
AcDbEntity
  8
0
  6
Continuous
 62
     7
370
    15
100
AcDbLine
 10
268.5632890959
 20
32.8146661525
 30
0.0
 11
272.0281123238
 21
30.8144662785
 31
0.0
  0
LINE
  5
19F
330
1F
100
AcDbEntity
  8
0
  6
Continuous
 62
     7
370
    15
100
AcDbLine
 10
263.2387032418
 20
28.0542370116
 30
0.0
 11
265.2427200813
 21
26.8973427153
 31
0.0
  0
SPLINE
  5
1A0
330
1F
100
AcDbEntity
  8
0
  6
Continuous
 62
     7
370
    15
100
AcDbSpline
210
0.0
220
0.0
230
1.0
 70
     8
 71
     3
 72
    10
 73
     6
 74
     0
 42
0.000000001
 43
0.00000001
 40
0.0
 40
0.0
 40
0.0
 40
0.0
 40
0.5
 40
0.5
 40
1.0
 40
1.0
 40
1.0
 40
1.0
 10
248.2975787504184
 20
35.77249337469256
 30
0.0
 10
248.2477781516056
 20
35.80124264844168
 30
0.0
 10
248.1827462348616
 20
35.82200599380234
 30
0.0
 10
248.0456878745162
 20
35.84095968319013
 30
0.0
 10
247.9721490344664
 20
35.83961532196232
 30
0.0
 10
247.9043059988664
 20
35.82827391360122
 30
0.0
  0
SPLINE
  5
1A1
330
1F
100
AcDbEntity
  8
0
  6
Continuous
 62
     7
370
    15
100
AcDbSpline
210
0.0
220
0.0
230
1.0
 70
     8
 71
     3
 72
     8
 73
     4
 74
     0
 42
0.000000001
 43
0.00000001
 40
0.0
 40
0.0
 40
0.0
 40
0.0
 40
1.0
 40
1.0
 40
1.0
 40
1.0
 10
242.161353490546
 20
37.59787274409808
 30
0.0
 10
242.1837322870655
 20
37.58496079264624
 30
0.0
 10
242.2379197180827
 20
37.55368324148922
 30
0.0
 10
242.3181780981072
 20
37.50735106490922
 30
0.0
  0
LINE
  5
1A2
330
1F
100
AcDbEntity
  8
0
  6
Continuous
 62
     7
370
    15
100
AcDbLine
 10
242.1613534905
 20
37.5978727441
 30
0.0
 11
242.1854540126
 21
37.7504296378
 31
0.0
  0
SPLINE
  5
1A3
330
1F
100
AcDbEntity
  8
0
  6
Continuous
 62
     7
370
    15
100
AcDbSpline
210
0.0
220
0.0
230
1.0
 70
     8
 71
     3
 72
    11
 73
     7
 74
     0
 42
0.000000001
 43
0.00000001
 40
0.0
 40
0.0
 40
0.0
 40
0.0
 40
0.3105157409986115
 40
0.5915933465014845
 40
0.8435752121776463
 40
1.0
 40
1.0
 40
1.0
 40
1.0
 10
248.7908864863252
 20
28.1209301170119
 30
0.0
 10
248.8818858447777
 20
28.21239954859967
 30
0.0
 10
249.0552574581562
 20
28.38666674343355
 30
0.0
 10
249.205546943128
 20
28.8051938658449
 30
0.0
 10
249.2796258759613
 20
29.2163290652767
 30
0.0
 10
249.2871670196274
 20
29.51106682293604
 30
0.0
 10
249.2900553707054
 20
29.62395502103506
 30
0.0
  0
SPLINE
  5
1A4
330
1F
100
AcDbEntity
  8
0
  6
Continuous
 62
     7
370
    15
100
AcDbSpline
210
0.0
220
0.0
230
1.0
 70
     8
 71
     3
 72
     9
 73
     5
 74
     0
 42
0.000000001
 43
0.00000001
 40
0.0
 40
0.0
 40
0.0
 40
0.0
 40
0.5067661695379747
 40
1.0
 40
1.0
 40
1.0
 40
1.0
 10
248.6821650218527
 20
27.39429935046775
 30
0.0
 10
248.7004340391642
 20
27.51675370429775
 30
0.0
 10
248.7364842303758
 20
27.75839247418967
 30
0.0
 10
248.7731649698126
 20
28.00054287231884
 30
0.0
 10
248.7912571514292
 20
28.11997964073599
 30
0.0
  0
SPLINE
  5
1A5
330
1F
100
AcDbEntity
  8
0
  6
Continuous
 62
     7
370
    15
100
AcDbSpline
210
0.0
220
0.0
230
1.0
 70
     8
 71
     3
 72
    10
 73
     6
 74
     0
 42
0.000000001
 43
0.00000001
 40
0.0
 40
0.0
 40
0.0
 40
0.0
 40
0.4807908150150776
 40
0.9757817590329644
 40
0.9999999999999999
 40
0.9999999999999999
 40
0.9999999999999999
 40
0.9999999999999999
 10
248.3069014013255
 20
29.19395798719954
 30
0.0
 10
248.4566923482257
 20
29.11378761183751
 30
0.0
 10
248.7606983090071
 20
28.95107903369913
 30
0.0
 10
249.0503137532057
 20
28.83957760297765
 30
0.0
 10
249.1846521838844
 20
28.81134598549838
 30
0.0
 10
249.1909183297451
 20
28.81002913646185
 30
0.0
  0
LINE
  5
1A6
330
1F
100
AcDbEntity
  8
0
  6
Continuous
 62
     7
370
    15
100
AcDbLine
 10
265.3140666833
 20
26.8392165458
 30
0.0
 11
263.7528438785
 21
26.9788133906
 31
0.0
  0
SPLINE
  5
1A7
330
1F
100
AcDbEntity
  8
0
  6
Continuous
 62
     7
370
    15
100
AcDbSpline
210
0.0
220
0.0
230
1.0
 70
     8
 71
     3
 72
    16
 73
    12
 74
     0
 42
0.000000001
 43
0.00000001
 40
0.0
 40
0.0
 40
0.0
 40
0.0
 40
0.2500000000000019
 40
0.2500000000000019
 40
0.5000000000000038
 40
0.5000000000000038
 40
0.6250000000000028
 40
0.6250000000000028
 40
0.7500000000000019
 40
0.7500000000000019
 40
1.0
 40
1.0
 40
1.0
 40
1.0
 10
265.218618272391
 20
26.52579152971873
 30
0.0
 10
265.2496670264651
 20
26.52301530323061
 30
0.0
 10
265.2803407502153
 20
26.52366263996538
 30
0.0
 10
265.3368202801847
 20
26.53776348161351
 30
0.0
 10
265.3633876673779
 20
26.55068156237222
 30
0.0
 10
265.388609590304
 20
26.59273748072913
 30
0.0
 10
265.393980217525
 20
26.61086540766814
 30
0.0
 10
265.3950094911623
 20
26.65353124899394
 30
0.0
 10
265.3906101966876
 20
26.67799313230661
 30
0.0
 10
265.3674834005842
 20
26.75085852923041
 30
0.0
 10
265.3414559516079
 20
26.79693278909139
 30
0.0
 10
265.3140666833165
 20
26.8392165458075
 30
0.0
  0
SPLINE
  5
1A8
330
1F
100
AcDbEntity
  8
0
  6
Continuous
 62
     7
370
    15
100
AcDbSpline
210
0.0
220
0.0
230
1.0
 70
     8
 71
     3
 72
     8
 73
     4
 74
     0
 42
0.000000001
 43
0.00000001
 40
0.0
 40
0.0
 40
0.0
 40
0.0
 40
1.0
 40
1.0
 40
1.0
 40
1.0
 10
265.2427200813437
 20
26.89734271528772
 30
0.0
 10
265.2816761637238
 20
26.8748538476187
 30
0.0
 10
265.3041581375154
 20
26.85499960594782
 30
0.0
 10
265.3140666833165
 20
26.83921654580755
 30
0.0
  0
SPLINE
  5
1A9
330
1F
100
AcDbEntity
  8
0
  6
Continuous
 62
     7
370
    15
100
AcDbSpline
210
0.0
220
0.0
230
1.0
 70
     8
 71
     3
 72
     8
 73
     4
 74
     0
 42
0.000000001
 43
0.00000001
 40
0.0
 40
0.0
 40
0.0
 40
0.0
 40
1.0
 40
1.0
 40
1.0
 40
1.0
 10
272.0281123237504
 20
30.81446627850966
 30
0.0
 10
272.0670684061305
 20
30.79197741084061
 30
0.0
 10
272.1177367295981
 20
30.78839480248618
 30
0.0
 10
272.1688977561334
 20
30.79642629256681
 30
0.0
  0
SPLINE
  5
1AA
330
1F
100
AcDbEntity
  8
0
  6
Continuous
 62
     7
370
    15
100
AcDbSpline
210
0.0
220
0.0
230
1.0
 70
     8
 71
     3
 72
    16
 73
    12
 74
     0
 42
0.000000001
 43
0.00000001
 40
0.0
 40
0.0
 40
0.0
 40
0.0
 40
0.2500000000000009
 40
0.2500000000000009
 40
0.3750000000000008
 40
0.3750000000000008
 40
0.5000000000000007
 40
0.5000000000000007
 40
0.7500000000000003
 40
0.7500000000000003
 40
1.0
 40
1.0
 40
1.0
 40
1.0
 10
272.1688977561335
 20
30.79642629256674
 30
0.0
 10
272.1852134632799
 20
30.74788754152726
 30
0.0
 10
272.2075882803093
 20
30.69905548819381
 30
0.0
 10
272.2617229176524
 20
30.64485469284242
 30
0.0
 10
272.2836567073343
 20
30.63052665439706
 30
0.0
 10
272.3317717271062
 20
30.61603854023144
 30
0.0
 10
272.3577400408089
 20
30.61592196398771
 30
0.0
 10
272.431387654413
 20
30.63101289682941
 30
0.0
 10
272.4748081464205
 20
30.65844964649567
 30
0.0
 10
272.5520117935454
 20
30.72135760282734
 30
0.0
 10
272.5866347209197
 20
30.75841253429842
 30
0.0
 10
272.6178995576523
 20
30.79730569396459
 30
0.0
  0
LINE
  5
1AB
330
1F
100
AcDbEntity
  8
0
  6
Continuous
 62
     7
370
    15
100
AcDbLine
 10
242.5947867381
 20
37.3476163859
 30
0.0
 11
242.1613534905
 21
37.5978727441
 31
0.0
  0
LINE
  5
1AC
330
1F
100
AcDbEntity
  8
0
  6
Continuous
 62
     7
370
    15
100
AcDbLine
 10
245.8236348366
 20
35.4836420544
 30
0.0
 11
242.5947867381
 21
37.3476163859
 31
0.0
  0
SPLINE
  5
1AD
330
1F
100
AcDbEntity
  8
0
  6
Continuous
 62
     7
370
    15
100
AcDbSpline
210
0.0
220
0.0
230
1.0
 70
     8
 71
     3
 72
    21
 73
    17
 74
     0
 42
0.000000001
 43
0.00000001
 40
0.0
 40
0.0
 40
0.0
 40
0.0
 40
0.0714607807545104
 40
0.1072069388256058
 40
0.1429197039617949
 40
0.2145350329074704
 40
0.3675357602998746
 40
0.4185275359960666
 40
0.5205482919731323
 40
0.5970228236551979
 40
0.6734988339823347
 40
0.7499765883407407
 40
0.8266690775129063
 40
0.8983372030473118
 40
0.9700045874384766
 40
1.0
 40
1.0
 40
1.0
 40
1.0
 10
244.6998516593824
 20
33.33379044011335
 30
0.0
 10
244.6993581713096
 20
33.40192978599091
 30
0.0
 10
244.6986178303132
 20
33.50415383963242
 30
0.0
 10
244.6945930433024
 20
33.6421081575815
 30
0.0
 10
244.689494577207
 20
33.78077501487502
 30
0.0
 10
244.6772162941953
 20
34.03465437786154
 30
0.0
 10
244.6595973191338
 20
34.30574229465347
 30
0.0
 10
244.6390343776583
 20
34.6072019425737
 30
0.0
 10
244.6237652850613
 20
34.83320461752062
 30
0.0
 10
244.6089081917431
 20
35.08327578479084
 30
0.0
 10
244.5982782418306
 20
35.30692207450737
 30
0.0
 10
244.5914084223478
 20
35.52881169834901
 30
0.0
 10
244.5890306957766
 20
35.74367871624017
 30
0.0
 10
244.5913114489553
 20
35.95127649459036
 30
0.0
 10
244.5957543189483
 20
36.1132331341681
 30
0.0
 10
244.6003507579869
 20
36.20696483392444
 30
0.0
 10
244.6017069284781
 20
36.23462019152386
 30
0.0
  0
LINE
  5
1AE
330
1F
100
AcDbEntity
  8
0
  6
Continuous
 62
     7
370
    15
100
AcDbLine
 10
244.6998516594
 20
32.9134350847
 30
0.0
 11
244.6998516594
 21
33.3337904401
 31
0.0
  0
SPLINE
  5
1AF
330
1F
100
AcDbEntity
  8
0
  6
Continuous
 62
     7
370
    15
100
AcDbSpline
210
0.0
220
0.0
230
1.0
 70
     8
 71
     3
 72
    26
 73
    22
 74
     0
 42
0.000000001
 43
0.00000001
 40
0.0
 40
0.0
 40
0.0
 40
0.0
 40
0.1249999999999994
 40
0.1249999999999994
 40
0.1874999999999994
 40
0.1874999999999994
 40
0.2499999999999994
 40
0.2499999999999994
 40
0.3749999999999993
 40
0.3749999999999993
 40
0.4999999999999994
 40
0.4999999999999994
 40
0.6249999999999996
 40
0.6249999999999996
 40
0.6874999999999996
 40
0.6874999999999996
 40
0.7499999999999996
 40
0.7499999999999996
 40
0.8749999999999998
 40
0.8749999999999998
 40
1.0
 40
1.0
 40
1.0
 40
1.0
 10
273.7301205609961
 20
32.73857261954895
 30
0.0
 10
273.8164280901067
 20
32.84593836525228
 30
0.0
 10
273.8944260936614
 20
32.96009862403397
 30
0.0
 10
273.9980119030806
 20
33.14198068554855
 30
0.0
 10
274.0304842052043
 20
33.20484491833957
 30
0.0
 10
274.0893612503197
 20
33.33091843136251
 30
0.0
 10
274.1159006283842
 20
33.39434543105552
 30
0.0
 10
274.1869740440347
 20
33.58578086961133
 30
0.0
 10
274.2232249279612
 20
33.7167201590972
 30
0.0
 10
274.2697657810015
 20
33.96813209157128
 30
0.0
 10
274.2807332301903
 20
34.09071935205807
 30
0.0
 10
274.2780974539538
 20
34.32116102073716
 30
0.0
 10
274.2647595014229
 20
34.42656323787602
 30
0.0
 10
274.2272714720179
 20
34.56966776558747
 30
0.0
 10
274.2117721187423
 20
34.61473258988275
 30
0.0
 10
274.1757096247164
 20
34.69715294755508
 30
0.0
 10
274.1550282818658
 20
34.73490094030691
 30
0.0
 10
274.0849454951409
 20
34.8378897356918
 30
0.0
 10
274.0269964053427
 20
34.89287566961539
 30
0.0
 10
273.8933911267034
 20
34.97018504802694
 30
0.0
 10
273.8164364795133
 20
34.99371894602898
 30
0.0
 10
273.7301205658393
 20
35.00143689297647
 30
0.0
  0
LINE
  5
1B0
330
1F
100
AcDbEntity
  8
0
  6
Continuous
 62
     7
370
    15
100
AcDbLine
 10
273.7301205658
 20
35.001436893
 30
0.0
 11
272.1688977561
 21
35.1410337406
 31
0.0
  0
LINE
  5
1B1
330
1F
100
AcDbEntity
  8
0
  6
Continuous
 62
     7
370
    15
100
AcDbLine
 10
244.0899720606
 20
36.1488038998
 30
0.0
 11
244.0951599553
 21
36.481469364
 31
0.0
  0
ARC
  5
1B2
330
1F
100
AcDbEntity
  8
0
  6
Continuous
 62
     7
370
    15
100
AcDbCircle
 10
251.6576713099
 20
35.9772339813
 30
0.0
 40
7.569643859872294
100
AcDbArc
 50
178.7012501156
 51
203.1943798095
  0
LINE
  5
1B3
330
1F
100
AcDbEntity
  8
0
  6
Continuous
 62
     7
370
    15
100
AcDbLine
 10
231.9466308542
 20
59.5805799383
 30
0.0
 11
231.9832186804
 21
59.5677568071
 31
0.0
  0
LINE
  5
1B4
330
1F
100
AcDbEntity
  8
0
  6
Continuous
 62
     7
370
    15
100
AcDbLine
 10
248.2975787504
 20
29.199339839
 30
0.0
 11
248.3069014013
 21
29.1939579872
 31
0.0
  0
ARC
  5
1B5
330
1F
100
AcDbEntity
  8
0
  6
Continuous
 62
     7
370
    15
100
AcDbCircle
 10
251.1247945165
 20
29.846240825
 30
0.0
 40
5.919642220385763
100
AcDbArc
 50
192.6964501328
 51
260.4756565155
  0
SPLINE
  5
1B6
330
1F
100
AcDbEntity
  8
0
  6
Continuous
 62
     7
370
    15
100
AcDbSpline
210
0.0
220
0.0
230
1.0
 70
     8
 71
     3
 72
     8
 73
     4
 74
     0
 42
0.000000001
 43
0.00000001
 40
0.0
 40
0.0
 40
0.0
 40
0.0
 40
0.0012389803509652
 40
0.0012389803509652
 40
0.0012389803509652
 40
0.0012389803509652
 10
245.8236348365899
 20
28.910488518755
 30
0.0
 10
245.6658899363914
 20
28.78841206822028
 30
0.0
 10
245.5079717574255
 20
28.66665476521947
 30
0.0
 10
245.3498984224445
 20
28.54518774367504
 30
0.0
  0
SPLINE
  5
1B7
330
1F
100
AcDbEntity
  8
0
  6
Continuous
 62
     7
370
    15
100
AcDbSpline
210
0.0
220
0.0
230
1.0
 70
     8
 71
     3
 72
     8
 73
     4
 74
     0
 42
0.000000001
 43
0.00000001
 40
0.0
 40
0.0
 40
0.0
 40
0.0
 40
1.0
 40
1.0
 40
1.0
 40
1.0
 10
245.8236348365899
 20
28.910488518755
 30
0.0
 10
246.5176154195316
 20
29.02450030002761
 30
0.0
 10
247.2112484802935
 20
29.13926105254798
 30
0.0
 10
247.9043059988664
 20
29.25512037792093
 30
0.0
  0
SPLINE
  5
1B8
330
1F
100
AcDbEntity
  8
0
  6
Continuous
 62
     7
370
    15
100
AcDbSpline
210
0.0
220
0.0
230
1.0
 70
     8
 71
     3
 72
    12
 73
     8
 74
     0
 42
0.000000001
 43
0.00000001
 40
0.0
 40
0.0
 40
0.0
 40
0.0
 40
0.2500000000000016
 40
0.2500000000000016
 40
0.5000000000000032
 40
0.5000000000000032
 40
1.0
 40
1.0
 40
1.0
 40
1.0
 10
247.9043059988664
 20
29.25512037792093
 30
0.0
 10
247.9380945147905
 20
29.26076884800517
 30
0.0
 10
247.9736662908594
 20
29.26402931152063
 30
0.0
 10
248.0442485372519
 20
29.26516690106874
 30
0.0
 10
248.0792714957008
 20
29.26315028461072
 30
0.0
 10
248.1834767909658
 20
29.24877454727113
 30
0.0
 10
248.2471872229054
 20
29.22843024863873
 30
0.0
 10
248.2975787504184
 20
29.19933983901227
 30
0.0
  0
LINE
  5
1B9
330
1F
100
AcDbEntity
  8
0
  6
Continuous
 62
     7
370
    15
100
AcDbLine
 10
242.5947867381
 20
30.7744628502
 30
0.0
 11
245.8236348366
 21
28.9104885188
 31
0.0
  0
LINE
  5
1BA
330
1F
100
AcDbEntity
  8
0
  6
Continuous
 62
     7
370
    15
100
AcDbLine
 10
242.5947867381
 20
30.7744628502
 30
0.0
 11
244.487719625
 21
31.8672297457
 31
0.0
  0
ARC
  5
1BB
330
1F
100
AcDbEntity
  8
0
  6
Continuous
 62
     7
370
    15
100
AcDbCircle
 10
268.1671369417
 20
36.4303116709
 30
0.0
 40
2.574168997250031
100
AcDbArc
 50
320.7034755418
 51
349.7435996042
  0
LINE
  5
1BC
330
1F
100
AcDbEntity
  8
0
  6
Continuous
 62
     7
370
    15
100
AcDbLine
 10
272.1688977561
 20
30.7964262926
 30
0.0
 11
273.730120561
 21
32.7385726195
 31
0.0
  0
LINE
  5
1BD
330
1F
100
AcDbEntity
  8
0
  6
Continuous
 62
     7
370
    15
100
AcDbLine
 10
268.5632890959
 20
32.8146661525
 30
0.0
 11
270.159231316
 21
34.8000031019
 31
0.0
  0
LINE
  5
1BE
330
1F
100
AcDbEntity
  8
0
  6
Continuous
 62
     7
370
    15
100
AcDbLine
 10
242.1613534905
 20
30.524206492
 30
0.0
 11
242.5947867381
 21
30.7744628502
 31
0.0
  0
LINE
  5
1BF
330
1F
100
AcDbEntity
  8
0
  6
Continuous
 62
     7
370
    15
100
AcDbLine
 10
245.3498984224
 20
28.5451877437
 30
0.0
 11
242.3181780981
 21
30.2953626334
 31
0.0
  0
SPLINE
  5
1C0
330
1F
100
AcDbEntity
  8
0
  6
Continuous
 62
     7
370
    15
100
AcDbSpline
210
0.0
220
0.0
230
1.0
 70
     8
 71
     3
 72
     8
 73
     4
 74
     0
 42
0.000000001
 43
0.00000001
 40
0.0
 40
0.0
 40
0.0
 40
0.0
 40
1.0
 40
1.0
 40
1.0
 40
1.0
 10
242.3181780981072
 20
30.29536263339497
 30
0.0
 10
242.2381532985924
 20
30.34155996681693
 30
0.0
 10
242.1836765012105
 20
30.42474748918163
 30
0.0
 10
242.161353490546
 20
30.52420649202275
 30
0.0
  0
LWPOLYLINE
  5
1C1
330
1F
100
AcDbEntity
  8
0
  6
Continuous
 62
     7
370
    15
100
AcDbPolyline
 90
        3
 70
   128
 43
0.0
 10
245.1339963188
 20
26.4323958047
 10
244.5848399429
 20
26.7970753204
 10
243.9941201568
 20
27.3164248366
  0
ELLIPSE
  5
1C2
330
1F
100
AcDbEntity
  8
0
  6
Continuous
 62
     7
370
    15
100
AcDbEllipse
 10
244.25340505
 20
32.6557293201
 30
0.0
 11
-6.005970385558612E-5
 21
0.8534489614827194
 31
0.0
210
0.0
220
0.0
230
1.0
 40
0.7174342186
 41
3.534193645557466
 42
5.104989972352337
  0
ELLIPSE
  5
1C3
330
1F
100
AcDbEntity
  8
0
  6
Continuous
 62
     7
370
    15
100
AcDbEllipse
 10
244.1341662344
 20
32.58687184
 30
0.0
 11
0.2600075789209484
 21
0.9705436209909308
 31
0.0
210
0.0
220
0.0
230
1.0
 40
0.5176380889
 41
3.619174351347786
 42
5.189970678142588
  0
LWPOLYLINE
  5
1C4
330
1F
100
AcDbEntity
  8
0
  6
Continuous
 62
     7
370
     0
100
AcDbPolyline
 90
       39
 70
   128
 43
0.0
 10
250.7102592995
 20
28.9491048636
 10
250.75017748
 20
30.0426040787
 10
250.8696364812
 20
31.1740959583
 10
251.0677518706
 20
32.3352033325
 10
251.343056871
 20
33.5173297685
 10
251.6935132206
 20
34.7117232158
 10
252.1165262632
 20
35.9095408031
 10
252.6089641582
 20
37.1019143082
 10
253.1671810677
 20
38.2800158148
 10
253.7870441491
 20
39.4351230714
 10
254.4639641529
 20
40.5586840681
 10
255.1929294002
 20
41.6423803525
 10
255.9685428875
 20
42.6781886163
 10
256.7850622438
 20
43.6584400975
 10
257.6364422455
 20
44.5758773572
 10
258.5163795729
 20
45.4237080109
 10
259.418359478
 20
46.195655017
 10
260.335704017
 20
46.8860031499
 10
261.2616214919
 20
47.4896413138
 10
262.1892567338
 20
48.0021003827
 10
263.1117418558
 20
48.419586289
 10
264.0222471009
 20
48.7390081131
 10
264.9140314068
 20
48.9580009676
 10
265.7804923144
 20
49.0749435061
 10
266.6152148504
 20
49.0889699269
 10
267.4120190211
 20
48.9999763832
 10
268.1650055673
 20
48.8086217521
 10
268.86859964
 20
48.5163227565
 10
269.5175920749
 20
48.1252434757
 10
270.107177959
 20
47.6382793239
 10
270.6329922047
 20
47.0590356134
 10
271.0911418673
 20
46.3918008619
 10
271.4782349671
 20
45.6415150421
 10
271.7914056021
 20
44.8137330076
 10
272.0283351665
 20
43.9145833671
 10
272.1872695167
 20
42.9507231099
 10
272.2670319584
 20
41.9292883202
 10
272.2670319584
 20
40.8578413436
 10
272.2317376674
 20
40.2332688569
  0
LWPOLYLINE
  5
1C5
330
1F
100
AcDbEntity
  8
0
  6
Continuous
 62
     7
370
     0
100
AcDbPolyline
 90
       21
 70
   128
 43
0.0
 10
262.4825300242
 20
23.3453160405
 10
262.1892567338
 20
23.1494776765
 10
261.2616214919
 20
22.5909118925
 10
260.335704017
 20
22.1255084949
 10
259.418359478
 20
21.7567131677
 10
258.5163795729
 20
21.4872563423
 10
257.6364422455
 20
21.3191329829
 10
256.7850622438
 20
21.253587816
 10
255.9685428875
 20
21.2911061151
 10
255.1929294002
 20
21.4314101079
 10
254.4639641529
 20
21.6734610325
 10
253.7870441491
 20
22.0154668287
 10
253.1671810677
 20
22.4548954053
 10
252.6089641582
 20
22.9884933868
 10
252.1165262632
 20
23.6123102003
 10
251.6935132206
 20
24.3217273246
 10
251.343056871
 20
25.1114924834
 10
251.0677518706
 20
25.9757585317
 10
250.8696364812
 20
26.9081267462
 10
250.75017748
 20
27.9016941988
 10
250.7102592995
 20
28.9491048636
  0
LWPOLYLINE
  5
1C6
330
1F
100
AcDbEntity
  8
0
  6
Continuous
 62
     7
370
     0
100
AcDbPolyline
 90
       27
 70
   128
 43
0.0
 10
250.0031525183
 20
28.9491048636
 10
250.0432734427
 20
30.0629142805
 10
250.1633471438
 20
31.2150213083
 10
250.3625084878
 20
32.3971249895
 10
250.6393225126
 20
33.6007082401
 10
250.9917947669
 20
34.8170992151
 10
251.41738568
 20
36.0375337896
 10
251.9130288596
 20
37.2532187046
 10
252.4751531853
 20
38.4553949225
 10
253.0997085383
 20
39.635400736
 10
253.7821949832
 20
40.7847341761
 10
254.5176951893
 20
41.8951142692
 10
255.3009098608
 20
42.9585407012
 10
256.1261959182
 20
43.9673514604
 10
256.9876071564
 20
44.9142780419
 10
257.8789370877
 20
45.7924978182
 10
258.7937636596
 20
46.5956831957
 10
259.7254955256
 20
47.3180472052
 10
260.6674195363
 20
47.9543851976
 10
261.6127491076
 20
48.500112343
 10
262.5546731183
 20
48.9512966648
 10
263.4864049844
 20
49.3046873697
 10
264.4012315562
 20
49.5577382695
 10
265.2925614876
 20
49.7086261268
 10
266.1539727258
 20
49.7562637909
 10
266.9792587831
 20
49.7003080315
 10
267.6507332536
 20
49.5708542072
  0
LWPOLYLINE
  5
1C7
330
1F
100
AcDbEntity
  8
0
  6
Continuous
 62
     7
370
     0
100
AcDbPolyline
 90
        9
 70
   128
 43
0.0
 10
252.1383704649
 20
22.6094169598
 10
251.9130288596
 20
22.8500873096
 10
251.41738568
 20
23.4935147903
 10
250.9917947669
 20
24.2225725558
 10
250.6393225126
 20
25.0320077283
 10
250.3625084878
 20
25.9159883087
 10
250.1633471438
 20
26.8681451967
 10
250.0432734427
 20
27.8816180801
 10
250.0031525183
 20
28.9491048636
  0
LWPOLYLINE
  5
1C8
330
1F
100
AcDbEntity
  8
0
  6
Continuous
 62
     7
370
     0
100
AcDbPolyline
 90
       32
 70
   128
 43
0.0
 10
253.1851330336
 20
30.3778190593
 10
253.2251407546
 20
31.3413262203
 10
253.3447786213
 20
32.3417462121
 10
253.5428944557
 20
33.3694444432
 10
253.8175802939
 20
34.4145236178
 10
254.1661907613
 20
35.4669190523
 10
254.5853685483
 20
36.5164956033
 10
255.0710767439
 20
37.5531452748
 10
255.6186377126
 20
38.5668845639
 10
256.2227781428
 20
39.547950607
 10
256.877679832
 20
40.4868952017
 10
257.577035719
 20
41.3746757985
 10
258.3141106242
 20
42.2027425848
 10
259.0818061134
 20
42.9631208248
 10
259.8727288593
 20
43.6484876604
 10
260.6792618435
 20
44.2522426342
 10
261.4936377126
 20
44.768571256
 10
262.3080135816
 20
45.1925009987
 10
263.1145465659
 20
45.5199491872
 10
263.9054693118
 20
45.7477623164
 10
264.6731648009
 20
45.8737464215
 10
265.4102397061
 20
45.8966882065
 10
266.1095955931
 20
45.8163667296
 10
266.7644972823
 20
45.6335555305
 10
267.3686377126
 20
45.3500151809
 10
267.9161986812
 20
44.9684763295
 10
268.4019068768
 20
44.4926134038
 10
268.8210846639
 20
43.9270092242
 10
269.1696951312
 20
43.2771108679
 10
269.4443809695
 20
42.5491772115
 10
269.6424968038
 20
41.7502186539
 10
269.6472272275
 20
41.7252749756
  0
LWPOLYLINE
  5
1C9
330
1F
100
AcDbEntity
  8
0
  6
Continuous
 62
     7
370
     0
100
AcDbPolyline
 90
       16
 70
   128
 43
0.0
 10
259.8980195843
 20
24.8373221592
 10
259.8727288593
 20
24.8284842454
 10
259.0818061134
 20
24.6006711161
 10
258.3141106242
 20
24.4746870111
 10
257.577035719
 20
24.4517452261
 10
256.877679832
 20
24.532066703
 10
256.2227781428
 20
24.7148779021
 10
255.6186377126
 20
24.9984182517
 10
255.0710767439
 20
25.3799571031
 10
254.5853685483
 20
25.8558200287
 10
254.1661907613
 20
26.4214242084
 10
253.8175802939
 20
27.0713225647
 10
253.5428944557
 20
27.7992562211
 10
253.3447786213
 20
28.5982147787
 10
253.2251407546
 20
29.4605038298
 10
253.1851330336
 20
30.3778190593
  0
LWPOLYLINE
  5
1CA
330
1F
100
AcDbEntity
  8
0
  6
Continuous
 62
     7
370
     0
100
AcDbPolyline
 90
        9
 70
   128
 43
0.0
 10
256.0135601584
 20
30.3778190593
 10
256.0539747883
 20
29.5403849155
 10
256.1747448534
 20
28.7594306598
 10
256.3744544353
 20
28.0441122669
 10
256.6507621215
 20
27.4028161908
 10
257.0004284571
 20
26.8430610418
 10
257.4193539241
 20
26.3714094372
 10
257.9026270043
 20
25.9933910608
 10
258.0332474533
 20
25.9138321963
  0
LWPOLYLINE
  5
1CB
330
1F
100
AcDbEntity
  8
0
  6
Continuous
 62
     7
370
     0
100
AcDbPolyline
 90
       23
 70
   128
 43
0.0
 10
267.7824550965
 20
42.8017850127
 10
267.3711207871
 20
43.0021793766
 10
266.7768382744
 20
43.1807852613
 10
266.1371954266
 20
43.2559498116
 10
265.4596914712
 20
43.2267917919
 10
264.7522695227
 20
43.0936530534
 10
264.0232234566
 20
42.8580945259
 10
263.2811006715
 20
42.5228779179
 10
262.5346018784
 20
42.0919333376
 10
261.7924790933
 20
41.5703132162
 10
261.0634330272
 20
40.9641330726
 10
260.3560110787
 20
40.2804998149
 10
259.6785071233
 20
39.5274284179
 10
259.0388642755
 20
38.7137479553
 10
258.4445817628
 20
37.8489980864
 10
257.9026270043
 20
36.9433172128
 10
257.4193539241
 20
36.0073236148
 10
257.0004284571
 20
35.0519909615
 10
256.6507621215
 20
34.0885196547
 10
256.3744544353
 20
33.1282055146
 10
256.1747448534
 20
32.1823073466
 10
256.0539747883
 20
31.2619149416
 10
256.0135601584
 20
30.3778190593
  0
LWPOLYLINE
  5
1CC
330
1F
100
AcDbEntity
  8
0
  6
Continuous
 62
     7
370
     0
100
AcDbPolyline
 90
       16
 70
   128
 43
0.0
 10
265.2186182724
 20
26.5257915297
 10
265.5369736372
 20
26.1141483757
 10
265.926669214
 20
25.8032281265
 10
266.3794829916
 20
25.5995907482
 10
266.8858612567
 20
25.5075326939
 10
267.4351201627
 20
25.5289962549
 10
268.0156711438
 20
25.6635285812
 10
268.6152654169
 20
25.9082912361
 10
269.2212524131
 20
26.2581200827
 10
269.8208466863
 20
26.7056342401
 10
270.4013976674
 20
27.241391809
 10
270.9506565733
 20
27.8540890823
 10
271.4570348384
 20
28.5307990368
 10
271.9098486161
 20
29.2572440746
 10
272.2995441929
 20
30.0180972596
 10
272.6178995577
 20
30.797305694
  0
LWPOLYLINE
  5
1CD
330
1F
100
AcDbEntity
  8
0
  6
Continuous
 62
     7
370
     0
100
AcDbPolyline
 90
       16
 70
   128
 43
0.0
 10
272.617878758
 20
35.2503908073
 10
272.2995213511
 20
35.6620231923
 10
271.9098256254
 20
35.9729341731
 10
271.4570134325
 20
36.176564109
 10
270.9506382634
 20
36.268616789
 10
270.4013836879
 20
36.2471500733
 10
269.8208379512
 20
36.1126168698
 10
269.2212494835
 20
35.8678555775
 10
268.615268481
 20
35.5180302023
 10
268.0156800105
 20
35.0705214059
 10
267.4351342682
 20
34.5347707877
 10
266.8858796844
 20
33.9220816846
 10
266.3795045045
 20
33.2453806917
 10
265.9266922986
 20
32.5189449354
 10
265.5369965579
 20
31.7581008526
 10
265.2186391344
 20
30.9789008319
  0
LWPOLYLINE
  5
1CE
330
1F
100
AcDbEntity
  8
0
  6
Continuous
 62
     7
370
     0
100
AcDbPolyline
 90
       20
 70
   128
 43
0.0
 10
247.9043059989
 20
35.8282739136
 10
248.2109309206
 20
36.9727801921
 10
248.5947159889
 20
38.1243938906
 10
249.0522838639
 20
39.2729807142
 10
249.5796079106
 20
40.4084330048
 10
250.1720476343
 20
41.520758689
 10
250.8243895168
 20
42.6001692097
 10
251.5308928961
 20
43.6371656658
 10
252.2853404845
 20
44.6226224035
 10
253.0810930814
 20
45.5478673227
 10
253.9111479988
 20
46.4047581923
 10
254.7682006853
 20
47.1857543024
 10
255.644709007
 20
47.8839828233
 10
256.5329596188
 20
48.4932992866
 10
257.4251358426
 20
49.0083416576
 10
258.3133864545
 20
49.4245775212
 10
259.1898947762
 20
49.7383439677
 10
260.0469474627
 20
49.9468798266
 10
260.87700238
 20
50.0483499653
 10
261.5235531188
 20
50.0514619967
  0
LWPOLYLINE
  5
1CF
330
1F
100
AcDbEntity
  8
0
  6
Continuous
 62
     7
370
     0
100
AcDbPolyline
 90
       24
 70
   128
 43
0.0
 10
242.3181780981
 20
37.5073510649
 10
242.6249935758
 20
38.728751452
 10
243.008152498
 20
39.9600329365
 10
243.4648376971
 20
41.1921425486
 10
243.9916914055
 20
42.4160212296
 10
244.5848399429
 20
43.6226704388
 10
245.2399221979
 20
44.8032183146
 10
245.9521216926
 20
45.9489849049
 10
246.7162019961
 20
47.0515459862
 10
247.5265452248
 20
48.1027950026
 10
248.3771933483
 20
49.0950026691
 10
249.2618919949
 20
50.0208738007
 10
250.1741364376
 20
50.8736009506
 10
251.1072194193
 20
51.6469144612
 10
252.0542804679
 20
52.3351285621
 10
253.0083563383
 20
52.9331831744
 10
253.9624322087
 20
53.4366811149
 10
254.9094932574
 20
53.8419204259
 10
255.842576239
 20
54.1459215947
 10
256.7548206817
 20
54.3464494591
 10
257.6395193284
 20
54.4420296427
 10
258.4901674518
 20
54.4319593942
 10
259.3005106806
 20
54.3163127548
 10
259.6092588234
 20
54.2414095539
  0
LINE
  5
1D0
330
1F
100
AcDbEntity
  8
0
  6
Continuous
 62
     7
370
     0
100
AcDbLine
 10
263.7528438785
 20
26.9788133906
 30
0.0
 11
263.8412322261
 21
26.6489505981
 31
0.0
  0
LWPOLYLINE
  5
1D1
330
1F
100
AcDbEntity
  8
0
  6
Continuous
 62
     7
370
     0
100
AcDbPolyline
 90
       19
 70
   128
 43
0.0
 10
248.2975787504
 20
35.7724933747
 10
248.6022636439
 20
36.8963363042
 10
248.9822545156
 20
38.0266662271
 10
249.4342323596
 20
39.1536103486
 10
249.954249404
 20
40.2673254471
 10
250.5377635933
 20
41.358083849
 10
251.1796782597
 20
42.4163583945
 10
251.8743866407
 20
43.4329056521
 10
252.61582085
 20
44.3988466543
 10
253.3975048779
 20
45.3057444511
 10
254.2126111548
 20
46.1456778014
 10
255.0540201871
 20
46.9113103609
 10
255.914382741
 20
47.5959547607
 10
256.7861840347
 20
48.193631018
 10
257.6618093753
 20
48.6991187675
 10
258.533610669
 20
49.1080028587
 10
259.3939732229
 20
49.4167119195
 10
260.2353822552
 20
49.6225495503
 10
260.6584878459
 20
49.6877497483
  0
LWPOLYLINE
  5
1D2
330
1F
100
AcDbEntity
  8
0
  6
Continuous
 62
     7
370
     0
100
AcDbPolyline
 90
        3
 70
   128
 43
0.0
 10
272.0281123238
 20
35.2053687879
 10
271.7024839621
 20
35.5832680596
 10
271.3888084675
 20
35.8125316708
  0
LWPOLYLINE
  5
1D3
330
1F
100
AcDbEntity
  8
0
  6
Continuous
 62
     7
370
     0
100
AcDbPolyline
 90
       14
 70
   128
 43
0.0
 10
265.8856396878
 20
26.2880870085
 10
265.9641743077
 20
26.2452682997
 10
266.4211382124
 20
26.0810924663
 10
266.9287813972
 20
26.0306735172
 10
267.4754851804
 20
26.095165416
 10
268.048736881
 20
26.2730921045
 10
268.6354162025
 20
26.5603812862
 10
269.2220955241
 20
26.950457631
 10
269.7953472247
 20
27.4343932679
 10
270.3420510079
 20
28.0011121215
 10
270.8496941927
 20
28.637643416
 10
271.3066580973
 20
29.3294185434
 10
271.7024839621
 20
30.060604503
 10
272.0281123238
 20
30.8144662785
  0
LINE
  5
1D4
330
1F
100
AcDbEntity
  8
0
  6
Continuous
 62
     7
370
     0
100
AcDbLine
 10
263.3704677161
 20
27.1995544506
 30
0.0
 11
263.7528438785
 21
26.9788133906
 31
0.0
  0
LINE
  5
1D5
330
1F
100
AcDbEntity
  8
0
  6
Continuous
 62
     7
370
     0
100
AcDbLine
 10
248.3069014013
 20
29.1939579872
 30
0.0
 11
248.7126826426
 21
29.4282105116
 31
0.0
  0
LWPOLYLINE
  5
1D6
330
1F
100
AcDbEntity
  8
0
  6
Continuous
 62
     7
370
     0
100
AcDbPolyline
 90
        3
 70
   128
 43
0.0
 10
249.2666785408
 20
29.1712589859
 10
249.2069035536
 20
29.1928333386
 10
248.7126826426
 20
29.4282105116
  0
ARC
  5
1D7
330
1F
100
AcDbEntity
  8
0
  6
Continuous
 62
     7
370
     0
100
AcDbCircle
 10
248.0251845686
 20
30.4845311179
 30
0.0
 40
1.260343931249827
100
AcDbArc
 50
303.0577786045
 51
346.2438194889
  0
LINE
  5
1D8
330
1F
100
AcDbEntity
  8
0
  6
Continuous
 62
     7
370
     0
100
AcDbLine
 10
244.8190904749
 20
32.9822925648
 30
0.0
 11
249.206679982
 21
30.4493910567
 31
0.0
  0
LINE
  5
1D9
330
1F
100
AcDbEntity
  8
0
  6
Continuous
 62
     7
370
     0
100
AcDbLine
 10
244.6998516594
 20
32.9134350847
 30
0.0
 11
244.8190904749
 21
32.9822925648
 31
0.0
  0
LINE
  5
1DA
330
1F
100
AcDbEntity
  8
0
  6
Continuous
 62
     7
370
     0
100
AcDbLine
 10
244.4435254512
 20
35.9447018718
 30
0.0
 11
244.4487133459
 21
36.2773673361
 31
0.0
  0
ARC
  5
1DB
330
1F
100
AcDbEntity
  8
0
  6
Continuous
 62
     7
370
     0
100
AcDbCircle
 10
252.9633933265
 20
35.8649012951
 30
0.0
 40
8.520241589605334
100
AcDbArc
 50
179.4633599235
 51
193.0618364398
  0
LINE
  5
1DC
330
1F
100
AcDbEntity
  8
0
  6
Continuous
 62
     7
370
     0
100
AcDbLine
 10
273.9952856039
 20
32.510760841
 30
0.0
 11
273.730120561
 21
32.7385726195
 31
0.0
  0
LWPOLYLINE
  5
1DD
330
1F
100
AcDbEntity
  8
0
  6
Continuous
 62
     7
370
     0
100
AcDbPolyline
 90
       18
 70
   128
 43
0.0
 10
224.598009553
 20
51.2435813194
 10
224.6384269976
 20
51.9641216506
 10
224.7589580811
 20
52.7184689107
 10
224.9574519235
 20
53.4931617551
 10
225.2303663975
 20
54.2743757715
 10
225.5728313378
 20
55.0481701774
 10
225.9787354494
 20
55.8007365932
 10
226.4408353639
 20
56.5186454534
 10
226.9508848974
 20
57.1890856574
 10
227.4997822037
 20
57.8000931838
 10
228.0777321976
 20
58.340764589
 10
228.6744213476
 20
58.8014515788
 10
229.2792017217
 20
59.1739331831
 10
229.8812809999
 20
59.4515624587
 10
230.4699150632
 20
59.6293851046
 10
231.0345997227
 20
59.7042278716
 10
231.5652581673
 20
59.6747551886
 10
231.9466308542
 20
59.5805799383
  0
ARC
  5
1DE
330
1F
100
AcDbEntity
  8
0
  6
Continuous
 62
     7
370
     0
100
AcDbCircle
 10
227.972807017
 20
50.9589537373
 30
0.0
 40
3.38677882124232
100
AcDbArc
 50
175.1791309351
 51
225.8020354417
  0
LWPOLYLINE
  5
1DF
330
1F
100
AcDbEntity
  8
0
  6
Continuous
 62
     7
370
     0
100
AcDbPolyline
 90
        3
 70
   128
 43
0.0
 10
248.7815327599
 20
28.0737672248
 10
248.6022636439
 20
28.4272785996
 10
248.2975787504
 20
29.199339839
  0
ARC
  5
1E0
330
1F
100
AcDbEntity
  8
0
  6
Continuous
 62
     7
370
     0
100
AcDbCircle
 10
253.9376350146
 20
31.1279821978
 30
0.0
 40
6.317330956014247
100
AcDbArc
 50
197.2453518436
 51
213.8836653418
  0
LINE
  5
1E1
330
1F
100
AcDbEntity
  8
0
  6
Continuous
 62
     7
370
     0
100
AcDbLine
 10
248.7126826426
 20
29.4282105116
 30
0.0
 11
244.487719625
 21
31.8672297457
 31
0.0
  0
LINE
  5
1E2
330
1F
100
AcDbEntity
  8
0
  6
Continuous
 62
     7
370
     0
100
AcDbLine
 10
270.159231316
 20
34.8000031019
 30
0.0
 11
273.730120561
 21
32.7385726195
 31
0.0
  0
ARC
  5
1E3
330
1F
100
AcDbEntity
  8
0
  6
Continuous
 62
     7
370
     0
100
AcDbCircle
 10
249.0319984194
 20
32.1116300848
 30
0.0
 40
6.955157134221695
100
AcDbArc
 50
195.1376969791
 51
223.5862707559
  0
OLE2FRAME
  5
1E4
330
1F
100
AcDbEntity
  8
0
100
AcDbOle2Frame
 70
     2
  3
Paintbrush-Bild
 10
13.8511154363
 20
38.264191557
 30
0.0
 11
51.6290888628
 21
31.9806341108
 31
0.0
 71
     2
 72
     0
 73
     1
 90
    12928
310
80552BED0767C5B32B40DDAF6807D121434000000000000000006FFBDDFB85D0
310
4940DDAF6807D121434000000000000000006FFBDDFB85D04940416F4BD60AFB
310
3F4000000000000000002BED0767C5B32B40416F4BD60AFB3F40000000000000
310
0000000000000100000000010000010000000100000000000100000000320000
310
D0CF11E0A1B11AE1000000000000000000000000000000003E000300FEFF0900
310
0600000000000000000000000100000001000000000000000010000002000000
310
01000000FEFFFFFF0000000000000000FFFFFFFFFFFFFFFFFFFFFFFFFFFFFFFF
310
FFFFFFFFFFFFFFFFFFFFFFFFFFFFFFFFFFFFFFFFFFFFFFFFFFFFFFFFFFFFFFFF
310
FFFFFFFFFFFFFFFFFFFFFFFFFFFFFFFFFFFFFFFFFFFFFFFFFFFFFFFFFFFFFFFF
310
FFFFFFFFFFFFFFFFFFFFFFFFFFFFFFFFFFFFFFFFFFFFFFFFFFFFFFFFFFFFFFFF
310
FFFFFFFFFFFFFFFFFFFFFFFFFFFFFFFFFFFFFFFFFFFFFFFFFFFFFFFFFFFFFFFF
310
FFFFFFFFFFFFFFFFFFFFFFFFFFFFFFFFFFFFFFFFFFFFFFFFFFFFFFFFFFFFFFFF
310
FFFFFFFFFFFFFFFFFFFFFFFFFFFFFFFFFFFFFFFFFFFFFFFFFFFFFFFFFFFFFFFF
310
FFFFFFFFFFFFFFFFFFFFFFFFFFFFFFFFFFFFFFFFFFFFFFFFFFFFFFFFFFFFFFFF
310
FFFFFFFFFFFFFFFFFFFFFFFFFFFFFFFFFFFFFFFFFFFFFFFFFFFFFFFFFFFFFFFF
310
FFFFFFFFFFFFFFFFFFFFFFFFFFFFFFFFFFFFFFFFFFFFFFFFFFFFFFFFFFFFFFFF
310
FFFFFFFFFFFFFFFFFFFFFFFFFFFFFFFFFFFFFFFFFFFFFFFFFFFFFFFFFFFFFFFF
310
FFFFFFFFFFFFFFFFFFFFFFFFFFFFFFFFFFFFFFFFFFFFFFFFFFFFFFFFFFFFFFFF
310
FFFFFFFFFFFFFFFFFFFFFFFFFFFFFFFFFFFFFFFFFFFFFFFFFFFFFFFFFFFFFFFF
310
FFFFFFFFFFFFFFFFFFFFFFFFFFFFFFFFFFFFFFFFFFFFFFFFFFFFFFFFFFFFFFFF
310
FDFFFFFFFEFFFFFFFEFFFFFFFEFFFFFF05000000060000000700000008000000
310
090000000A0000000B0000000C0000000D0000000E0000000F00000010000000
310
11000000120000001300000014000000150000001600000017000000FEFFFFFF
310
FFFFFFFFFFFFFFFFFFFFFFFFFFFFFFFFFFFFFFFFFFFFFFFFFFFFFFFFFFFFFFFF
310
FFFFFFFFFFFFFFFFFFFFFFFFFFFFFFFFFFFFFFFFFFFFFFFFFFFFFFFFFFFFFFFF
310
FFFFFFFFFFFFFFFFFFFFFFFFFFFFFFFFFFFFFFFFFFFFFFFFFFFFFFFFFFFFFFFF
310
FFFFFFFFFFFFFFFFFFFFFFFFFFFFFFFFFFFFFFFFFFFFFFFFFFFFFFFFFFFFFFFF
310
FFFFFFFFFFFFFFFFFFFFFFFFFFFFFFFFFFFFFFFFFFFFFFFFFFFFFFFFFFFFFFFF
310
FFFFFFFFFFFFFFFFFFFFFFFFFFFFFFFFFFFFFFFFFFFFFFFFFFFFFFFFFFFFFFFF
310
FFFFFFFFFFFFFFFFFFFFFFFFFFFFFFFFFFFFFFFFFFFFFFFFFFFFFFFFFFFFFFFF
310
FFFFFFFFFFFFFFFFFFFFFFFFFFFFFFFFFFFFFFFFFFFFFFFFFFFFFFFFFFFFFFFF
310
FFFFFFFFFFFFFFFFFFFFFFFFFFFFFFFFFFFFFFFFFFFFFFFFFFFFFFFFFFFFFFFF
310
FFFFFFFFFFFFFFFFFFFFFFFFFFFFFFFFFFFFFFFFFFFFFFFFFFFFFFFFFFFFFFFF
310
FFFFFFFFFFFFFFFFFFFFFFFFFFFFFFFFFFFFFFFFFFFFFFFFFFFFFFFFFFFFFFFF
310
FFFFFFFFFFFFFFFFFFFFFFFFFFFFFFFFFFFFFFFFFFFFFFFFFFFFFFFFFFFFFFFF
310
FFFFFFFFFFFFFFFFFFFFFFFFFFFFFFFFFFFFFFFFFFFFFFFFFFFFFFFFFFFFFFFF
310
52006F006F007400200045006E00740072007900000000000000000000000000
310
0000000000000000000000000000000000000000000000000000000000000000
310
16000500FFFFFFFFFFFFFFFF020000000A00030000000000C000000000000046
310
000000000000000000000000507533EF8220D20103000000C000000000000000
310
01004F006C006500000000000000000000000000000000000000000000000000
310
0000000000000000000000000000000000000000000000000000000000000000
310
0A000200FFFFFFFFFFFFFFFFFFFFFFFF00000000000000000000000000000000
310
0000000000000000000000000000000000000000000000001400000000000000
310
010043006F006D0070004F0062006A0000000000000000000000000000000000
310
0000000000000000000000000000000000000000000000000000000000000000
310
120002010100000003000000FFFFFFFF00000000000000000000000000000000
310
0000000000000000000000000000000000000000010000004D00000000000000
310
01004F006C006500310030004E00610074006900760065000000000000000000
310
0000000000000000000000000000000000000000000000000000000000000000
310
1A000200FFFFFFFFFFFFFFFFFFFFFFFF00000000000000000000000000000000
310
0000000000000000000000000000000000000000040000002426000000000000
310
FEFFFFFF02000000FEFFFFFFFFFFFFFFFFFFFFFFFFFFFFFFFFFFFFFFFFFFFFFF
310
FFFFFFFFFFFFFFFFFFFFFFFFFFFFFFFFFFFFFFFFFFFFFFFFFFFFFFFFFFFFFFFF
310
FFFFFFFFFFFFFFFFFFFFFFFFFFFFFFFFFFFFFFFFFFFFFFFFFFFFFFFFFFFFFFFF
310
FFFFFFFFFFFFFFFFFFFFFFFFFFFFFFFFFFFFFFFFFFFFFFFFFFFFFFFFFFFFFFFF
310
FFFFFFFFFFFFFFFFFFFFFFFFFFFFFFFFFFFFFFFFFFFFFFFFFFFFFFFFFFFFFFFF
310
FFFFFFFFFFFFFFFFFFFFFFFFFFFFFFFFFFFFFFFFFFFFFFFFFFFFFFFFFFFFFFFF
310
FFFFFFFFFFFFFFFFFFFFFFFFFFFFFFFFFFFFFFFFFFFFFFFFFFFFFFFFFFFFFFFF
310
FFFFFFFFFFFFFFFFFFFFFFFFFFFFFFFFFFFFFFFFFFFFFFFFFFFFFFFFFFFFFFFF
310
FFFFFFFFFFFFFFFFFFFFFFFFFFFFFFFFFFFFFFFFFFFFFFFFFFFFFFFFFFFFFFFF
310
FFFFFFFFFFFFFFFFFFFFFFFFFFFFFFFFFFFFFFFFFFFFFFFFFFFFFFFFFFFFFFFF
310
FFFFFFFFFFFFFFFFFFFFFFFFFFFFFFFFFFFFFFFFFFFFFFFFFFFFFFFFFFFFFFFF
310
FFFFFFFFFFFFFFFFFFFFFFFFFFFFFFFFFFFFFFFFFFFFFFFFFFFFFFFFFFFFFFFF
310
FFFFFFFFFFFFFFFFFFFFFFFFFFFFFFFFFFFFFFFFFFFFFFFFFFFFFFFFFFFFFFFF
310
FFFFFFFFFFFFFFFFFFFFFFFFFFFFFFFFFFFFFFFFFFFFFFFFFFFFFFFFFFFFFFFF
310
FFFFFFFFFFFFFFFFFFFFFFFFFFFFFFFFFFFFFFFFFFFFFFFFFFFFFFFFFFFFFFFF
310
FFFFFFFFFFFFFFFFFFFFFFFFFFFFFFFFFFFFFFFFFFFFFFFFFFFFFFFFFFFFFFFF
310
0100000200000000000000000000000000000000000000000000000000000000
310
0000000000000000000000000000000000000000000000000000000000000000
310
0100FEFF030A0000FFFFFFFF0A00030000000000C00000000000004607000000
310
5042727573680007000000504272757368000700000050427275736800F439B2
310
7100000000000000000000000000000000000000000000000000000000000000
310
0000000000000000000000000000000000000000000000000000000000000000
310
0000000000000000000000000000000000000000000000000000000000000000
310
0000000000000000000000000000000000000000000000000000000000000000
310
0000000000000000000000000000000000000000000000000000000000000000
310
0000000000000000000000000000000000000000000000000000000000000000
310
0000000000000000000000000000000000000000000000000000000000000000
310
0000000000000000000000000000000000000000000000000000000000000000
310
0000000000000000000000000000000000000000000000000000000000000000
310
0000000000000000000000000000000000000000000000000000000000000000
310
0000000000000000000000000000000000000000000000000000000000000000
310
0000000000000000000000000000000000000000000000000000000000000000
310
20260000424D0E260000000000003E00000028000000B40200006E0000000100
310
01000000000000000000130B0000130B00000200000002000000000000FFFFFF
310
FFFFFFFFFFFFFFFFFFFFFFFFFFFFFFFFFFFFFFFFFFFFFFFFFFFFFFFFFFFFFFFF
310
FFFFFFFFFFFFFFFFFFFFFFFFFFFFFFFFFFFFFFFFFFFFFFFFFFFFFFFFFFFFFFFF
310
FFFFFFFFFFFFFFFFFFFFFFFFFFFFFFFFFFFFFFFFFFFFFFFFF000FFFFFFFFFFFF
310
FFFFFFFFFFFFFFFFFFFFFFFFFFFFFFFFFFFFFFFFFFFFFFFFFFFFFFFFFFFFFFFF
310
FFFFFFFFFFFFFFFFFFFFFFFFFFFFFFFFFFFFFFFFFFFFFFFFFFFFFFFFFFFFFFFF
310
FFFFFFFFFFFFFFFFFFFFFFFFFFFFFFFFF000FFFFFFFFFFFFFFFFFFFFFFFFFFFF
310
FFFFFFFFFFFFFFFFFFFFFFFFFFFFFFFFFFFFFFFFFFFFFFFFFFFFFFFFFFFFFFFF
310
FFFFFFFFFFFFFFFFFFFFFFFFFFFFFFFFFFFFFFFFFFFFFFFFFFFFFFFFFFFFFFFF
310
FFFFFFFFFFFFFFFFF000FFFFFFFFFFFFFFFFFFFFFFFFFFFFFFFFFFFFFFFFFFFF
310
FFFFFFFFFFFFFFFFFFFFFFFFFFFFFFFFFFFFFFFFFFFFFFFFFFFFFFFFFFFFFFFF
310
FFFFFFFFFFFFFFFFFFFFFFFFFFFFFFFFFFFFFFFFFFFFFFFFFFFFFFFFFFFFFFFF
310
F000FFFFFFFFFFFFFFFFFFFFFFFFFFFFFFFFFFFFFFFFFFFFFFFFFFFFFFFFFFFF
310
FFFFFFFFFFFFFFFFFFFFFFFFFFFFFFFFFFFFFFFFFFFFFFFFFFFFFFFFFFFFFFFF
310
FFFFFFFFFFFFFFFFFFFFFFFFFFFFFFFFFFFFFFFFFFFFFFFFF000FFFFFFFFFFFF
310
FFFFFFFFFFFFFFFFFFFFFFFFFFFFFFFFFFFFFFFFFFFFFFFFFFFFFFFFFFFFFFFF
310
FFFFFFFFFFFFFFFFFFFFFFFFFFFFFFFFFFFFFFFFFFFFFFFFFFFFFFFFFFFFFFFF
310
FFFFFFFFFFFFFFFFFFFFFFFFFFFFFFFFF000FFFFFFFFFFFFFFFFFFFFFFFFFFFF
310
FFFFFFFFFFFFFFFFFFFFFFFFFFFFFFFFFFFFFFFFFFFFFFFFFFFFFFFFFFFFFFFF
310
FFFFFFFFFFFFFFFFFFFFFFFFFFFFFFFFFFFFFFFFFFFFFFFFFFFFFFFFFFFFFFFF
310
FFFFFFFFFFFFFFFFF000FFFFFFFFFFFFFFFFFFFFFFFFFFFFFFFFFFFFFFFFFFFF
310
FFFFFFFFFFFFFFFFFFFFFFFFFFFFFFFFFFFFFFFFFFFFFFFFFFFFFFFFFFFFFFFF
310
FFFFFFFFFFFFFFFFFFFFFFFFFFFFFFFFFFFFFFFFFFFFFFFFFFFFFFFFFFFFFFFF
310
F000FFFFFFFFFFFFFFFFFFFFFFFFFFFFFFFFFFFFFFFFFFFFFFFFFFFFFFFFFFFF
310
FFFFFFFFFFFFFFFFFFFFFFFFFFFFFFFFFFFFFFFFFFFFFFFFFFFFFFFFFFFFFFFF
310
FFFFFFFFFFFFFFFFFFFFFFFFFFFFFFFFFFFFFFFFFFFFFFFFF000FFFFFFFFFFFF
310
FFFFFFFFFFFFFFFFFFFFFFFFFFFFFFFFFFFFFFFFFFFFFFFFFFFFFFFFFFFFFFFF
310
FFFFFFFFFFFFFFFFFFFFFFFFFFFFFFFFFFFFFFFFFFFFFFFFFFFFFFFFFFFFFFFF
310
FFFFFFFFFFFFFFFFFFFFFFFFFFFFFFFFF000FFFFFFFFFFFFFFFFFFFFFFFFFFFF
310
FFFFFFFFFFFFFFFFFFFFFFFFFFFFFFFFFFFFFFFFFFFFFFFFFFFFFFFFFFFFFFFF
310
FFFFFFFFFFFFFFFFFFFFFFFFFFFFFFFFFFFFFFFFFFFFFFFFFFFFFFFFFFFFFFFF
310
FFFFFFFFFFFFFFFFF000FFFFFFFFFFFFFFFFFFFFFFFFFFFFFFFFFFFFFFFFFFFF
310
FFFFFFFFFFFFFFFFFFFFFFFFFFFFFFFFFFFFFFFFFFFFFFFFFFFFFFFFFFFFFFFF
310
FFFFFFFFFFFFFFFFFFFFFFFFFFFFFFFFFFFFFFFFFFFFFFFFFFFFFFFFFFFFFFFF
310
F000FFFFFFFFFFFFFFFFFFFFFFFFFFFFFFFFFFFFFFFFFFFFFFFFFFFFFFFFFFFF
310
FFFFFFFFFFFFFFFFFFFFFFFFFFFFFFFFFFFFFFFFFFFFFFFFFFFFFFFFFFFFFFFF
310
FFFFFFFFFFFFFFFFFFFFFFFFFFFFFFFFFFFFFFFFFFFFFFFFF000FFFFFFFFFFFF
310
FFFFFFFFFFFFFFFFFFFFFFFFFFFFFFFFFFFFFFFFFFFFFFFFFFFFFFFFFFFFFFFF
310
FFFFFFFFFFFFFFFFFFFFFFFFFFFFFFFFFFFFFFFFFFFFFFFFFFFFFFFFFFFFFFFF
310
FFFFFFFFFFFFFFFFFFFFFFFFFFFFFFFFF000FFFFFFFFFFFFFFFFFFFFFFFFFFFF
310
FFFFFFFFFFFFFFFFFFFFFFFFFFFFFFFFFFFFFFFFFFFFFFFFFFFFFFFFFFFFFFFF
310
FFFFFFFFFFFFFFFFFFFFFFFFFFFFFFFFFFFFFFFFFFFFFFFFFFFFFFFFFFFFFFFF
310
FFFFFFFFFFFFFFFFF000FFFFFFFFFFFFFFFFFFFFFFFFFFFFFFFFFFFFFFFFFFFF
310
FFFFFFFFFFFFFFFFFFFFFFFFFFFFFFFFFFFFFFFFFFFFFFFFFFFFFFFFFFFFFFFF
310
FFFFFFFFFFFFFFFFFFFFFFFFFFFFFFFFFFFFFFFFFFFFFFFFFFFFFFFFFFFFFFFF
310
F000FFFFFFFFFFFFFFFFFFFFFFFFFFFFFFFFFFFFFFFFFFFFFFFFFFFFFFFFFFFF
310
FFFFFFFFFFFFFFFFFFFFFFFFFFFFFFFFFFFFFFFFFFFFFFFFFFFFFFFFFFFFFFFF
310
FFFFFFFFFFFFFFFFFFFFFFFFFFFFFFFFFFFFFFFFFFFFFFFFF000FFFFFFFFFFFF
310
FFFFFFFFFFFFFFFFFFFFFFFFFFFFFFFFFFFFFFFFFFFFFFFFFFFFFFFFFFFFFFFF
310
FFFFFFFFFFFFFFFFFFFFFFFFFFFFFFFFFFFFFFFFFFFFFFFFFFFFFFFFFFFFFFFF
310
FFFFFFFFFFFFFFFFFFFFFFFFFFFFFFFFF000FFFFFFFFFFFFFFFFFFFFFFFFFFFF
310
FFFFFFFFFFFFFFFFFFFFFFFFFFFFFFFFFFFFFFFFFFFFFFFFFFFFFFFFFFFFFFFF
310
FFFFFFFFFFFFFFFFFFFFFFFFFFFFFFFFFFFFFFFFFFFFFFFFFFFFFFFFFFFFFFFF
310
FFFFFFFFFFFFFFFFF000FFFFF80003FFFFFFFFFFFFFFFFFFFFFFFFFFFFFFFFFF
310
FFFFF00007FFFFFFFFFF00007FFFFFF800000000000000007FFFFFFFFFFFFFFF
310
FFFFFFFC001FFFFFFFFFFFFFFC001FFFFFFFFFFFFFFFFFFFFFFFFFFE0007FFFF
310
F000FFFF8000007FFFFFFFF8000FFFFFC0007FFFFF80007FFFFF0000007FFFFF
310
FFF8000007FFFFF800000000000000007FFFFFF0001FFFFFFFFFFFC00001FFFF
310
FFFFFFFFC00001FFFFFFFF000000000003FFFFE000007FFFF000FFFE0000000F
310
FFFFFFF0000FFFFF80007FFFFF80007FFFFC0000001FFFFFFFC0000001FFFFF8
310
00000000000000007FFFFFF0001FFFFFFFFFFE0000003FFFFFFFFFFE0000003F
310
FFFFFF000000000003FFFF0000000FFFF000FFF800000003FFFFFFF00007FFFF
310
80007FFFFF80007FFFF000000007FFFFFF000000003FFFF80000000000000000
310
7FFFFFF0001FFFFFFFFFF80000000FFFFFFFFFF80000000FFFFFFF0000000000
310
03FFFC00000003FFF000FFE000000000FFFFFFF00007FFFF80003FFFFF80007F
310
FFC000000001FFFFFC000000001FFFF800000000000000007FFFFFF0001FFFFF
310
FFFFE000000003FFFFFFFFE000000003FFFFFF000000000003FFF000000000FF
310
F000FF80000000007FFFFFF00007FFFF80003FFFFF80007FFF8000000000FFFF
310
F80000000007FFF800000000000000007FFFFFF0001FFFFFFFFFC000000001FF
310
FFFFFFC000000001FFFFFF000000000003FFC0000000007FF000FF0000000000
310
3FFFFFE00007FFFF00003FFFFF80007FFE00000000003FFFF00000000003FFF8
310
00000000000000007FFFFFF0001FFFFFFFFF8000000000FFFFFFFF8000000000
310
FFFFFF000000000003FF80000000003FF000FE00000000001FFFFFE00003FFFF
310
00003FFFFF80007FFC00000000001FFFE00000000001FFF8000001FFFE000000
310
7FFFFFF0001FFFFFFFFE00000000003FFFFFFE00000000003FFFFF0000000000
310
03FF00000000001FF000FC00000000000FFFFFE00003FFFF00001FFFFF80007F
310
F800000000001FFFC00000000000FFF8000001FFFE0000007FFFFFF0001FFFFF
310
FFFC00000000001FFFFFFC00000000001FFFFF000000000003FE00000000000F
310
F000F8000000000007FFFFE00003FFFF00001FFFFF80007FF800000000000FFF
310
800000000000FFF8000001FFFE0000007FFFFFF0001FFFFFFFF800000000000F
310
FFFFF800000000000FFFFF000000000003FC000000000007F000F80000000000
310
03FFFFC00003FFFE00001FFFFF80007FF0000000000007FF0000000000007FF8
310
000001FFFE0000007FFFFFF0001FFFFFFFF0000000000007FFFFF00000000000
310
07FFFF000000000003F8000000000003F000F0000000000003FFFFC00001FFFE
310
00001FFFFF80007FE0000000000007FE0000000000003FF8000001FFFE000000
310
7FFFFFF0001FFFFFFFF0000000000007FFFFF0000000000007FFFF0000000000
310
03F800001F800003F000E00001FFF00001FFFFC00001FFFE00000FFFFF80007F
310
E00001FFE00003FE00001FFF00003FF8000001FFFE0000007FFFFFF0001FFFFF
310
FFE000003E000003FFFFE000003E000003FFFF000000000003F00001FFF80001
310
F000E00007FFFC0001FFFFC00001FFFE00000FFFFF80007FC0000FFFFC0003FC
310
0000FFFFC0001FF8000001FFFE0000007FFFFFF0001FFFFFFFC00003FFE00001
310
FFFFC00003FFE00001FFFF0001FFFFFFFFF00007FFFE0001F000E0000FFFFF00
310
00FFFF800001FFFC00000FFFFF80007FC0001FFFFE0001FC0001FFFFE0001FF8
310
000001FFFE0000007FFFFFF0001FFFFFFF80000FFFF80000FFFF80000FFFF800
310
00FFFF0003FFFFFFFFE0000FFFFF8000F000C0003FFFFF8000FFFF800000FFFC
310
000007FFFF80007F80003FFFFF0001FC0003FFFFF0001FF8000001FFFE000000
310
7FFFFFF0001FFFFFFF80003FFFFE0000FFFF80003FFFFE0000FFFF0003FFFFFF
310
FFE0003FFFFF8000F000C0003FFFFF8000FFFF800000FFFC000007FFFF80007F
310
80007FFFFF8001F80007FFFFF8000FF8000001FFFE0000007FFFFFF0001FFFFF
310
FF00007FFFFF00007FFF00007FFFFF00007FFF0003FFFFFFFFE0003FFFFFC000
310
F000C0007FFFFFC000FFFF000000FFFC000007FFFF80007F8000FFFFFF8000F8
310
000FFFFFF8000FF8000001FFFE0000007FFFFFF0001FFFFFFF0000FFFFFF8000
310
7FFF0000FFFFFF80007FFF0003FFFFFFFFC0007FFFFFC00070008000FFFFFFC0
310
00FFFF000000FFF8000007FFFF80007F8000FFFFFF8000F8000FFFFFF8000FF8
310
000001FFFE0000007FFFFFF0001FFFFFFE0001FFFFFFC0003FFE0001FFFFFFC0
310
003FFF0003FFFFFFFFC0007FFFFFE00070008000FFFFFFC0007FFF0000007FF8
310
000003FFFF80007F0001FFFFFF8000F8000FFFFFF8000FF8000001FFFE000000
310
7FFFFFF0001FFFFFFE0001FFFFFFC0003FFE0001FFFFFFC0003FFF0003FFFFFF
310
FFC000FFFFFFE00070008000FFFFFFC0007FFF0000007FF8000003FFFF80007F
310
0001FFFFFF8000F8001FFFFFF8000FF8000001FFFE0000007FFFFFF0001FFFFF
310
FE0003FFFFFFE0003FFE0003FFFFFFE0003FFF0003FFFFFFFFC000FFFFFFE000
310
70008000FFFFFFC0007FFE0000007FF8000003FFFF80007F0001FFFFFF8000F0
310
001FFFFFF8000FF8000001FFFE0000007FFFFFF0001FFFFFFC0003FFFFFFE000
310
1FFC0003FFFFFFE0001FFF0003FFFFFFFFC000FFFFFFC00070008000FFFFFF80
310
007FFE0000007FF0000003FFFF80007F0001FFFFFF0000F0001FFFFFF8000FF8
310
000001FFFE0000007FFFFFF0001FFFFFFC0007FFFFFFF0001FFC0007FFFFFFF0
310
001FFF0003FFFFFFFFC000FFFFFFC00070008001FFFFFF0000FFFE0000003FF0
310
000001FFFF80007F0001FFFFFF0000F8001FFFFFF0000FF8000001FFFE000000
310
7FFFFFF0001FFFFFFC0007FFFFFFF0001FFC0007FFFFFFF0001FFF0003FFFFFF
310
FFC001FFFFFF80007000FFFFFFFFFE0000FFFE0008003FF0008001FFFF80007F
310
FFFFFFFFFC0000FFFFFFFFFFE0000FF8000001FFFE0000007FFFFFF0001FFFFF
310
F8000FFFFFFFF8000FF8000FFFFFFFF8000FFF0003FFFFFFFFFFFFFFFFFF0000
310
7000FFFFFFFFFC0000FFFC0008003FF0008001FFFF80007FFFFFFFFFF80001FF
310
FFFFFFFF80000FF8000001FFFE0000007FFFFFF0001FFFFFF8000FFFFFFFF800
310
0FF8000FFFFFFFF8000FFF0003FFFFFFFFFFFFFFFFFE0000F000FFFFFFFFE000
310
00FFFC000C003FE000C001FFFF80007FFFFFFFFFC00001FFFFFFFFFE00001FF8
310
000001FFFE0000007FFFFFF0001FFFFFF8000FFFFFFFF8000FF8000FFFFFFFF8
310
000FFF0003FFFFFFFFFFFFFFFFF00000F000FFFFFFFE000001FFFC000C001FE0
310
00C000FFFF80007FFFFFFFFE000001FFFFFFFFE000001FF80FFFFFFFFFFFFFC0
310
7FFFFFF0001FFFFFF8000FFFFFFFF8000FF8000FFFFFFFF8000FFF0003FFFFFF
310
FFFFFFFFFF800000F000FFFFFFC0000001FFFC001C001FE001C000FFFF80007F
310
FFFFFF80000003FFFFFFF80000001FF80FFFFFFFFFFFFFC07FFFFFF0001FFFFF
310
F8001FFFFFFFFC000FF8001FFFFFFFFC000FFF0003FFFFFFFFFFFFFFF0000001
310
F000FFFFF800000001FFF8001C001FE001C000FFFF80007FFFFFF800000003FF
310
FFFF800000003FF80FFFFFFFFFFFFFC07FFFFFF0001FFFFFF8001FFFFFFFFC00
310
0FF8001FFFFFFFFC000FFF0003FFFFFFFFFFFFFE00000001F000FFFFC0000000
310
03FFF8001E001FC001E000FFFF80007FFFFF8000000007FFFFFC000000003FF8
310
0FFFFFFFFFFFFFC07FFFFFF0001FFFFFF8001FFFFFFFFC000FF8001FFFFFFFFC
310
000FFF0003FFFFFFFFFFFFE000000003F000FFFE0000000007FFF8001E000FC0
310
01E0007FFF80007FFFFE0000000007FFFFE0000000007FF80FFFFFFFFFFFFFC0
310
7FFFFFF0001FFFFFF0001FFFFFFFFC0007F0001FFFFFFFFC0007FF0003FFFFFF
310
FFFFFF0000000003F000FFF80000000007FFF8001E000FC003E0007FFF80007F
310
FFF0000000000FFFFF8000000000FFF80FFFFFFFFFFFFFC07FFFFFF0001FFFFF
310
F0001FFFFFFFFC0007F0001FFFFFFFFC0007FF0003FFFFFFFFFFFC0000000007
310
F000FFE0000000000FFFF0003E000FC003E0007FFF80007FFFC0000000001FFF
310
FE0000000001FFF80FFFFFFFFFFFFFC07FFFFFF0001FFFFFF0001FFFFFFFFC00
310
07F0001FFFFFFFFC0007FF0003FFFFFFFFFFF0000000000FF000FFC000000000
310
1FFFF0003F000F8003F0003FFF80007FFF80000000003FFFF80000000003FFF8
310
0FFFFFFFFFFFFFC07FFFFFF0001FFFFFF0001FFFFFFFFC0007F0001FFFFFFFFC
310
0007FF0003FFFFFFFFFFE0000000001FF000FF00000000007FFFF0003F000780
310
03F0003FFF80007FFF00000000007FFFF00000000007FFF80FFFFFFFFFFFFFC0
310
7FFFFFF0001FFFFFF0001FFFFFFFFC0007F0001FFFFFFFFC0007FF0003FFFFFF
310
FFFF80000000007FF000FE0000000000FFFFE0003F00078007F0003FFF80007F
310
FE0000000001FFFFE0000000001FFFF80FFFFFFFFFFFFFC07FFFFFF0001FFFFF
310
F0001FFFFFFFFC0007F0001FFFFFFFFC0007FF0003FFFFFFFFFF0000000000FF
310
F000FC0000000003FFFFE0007F00078007F0003FFF80007FFC0000000007FFFF
310
C0000000007FFFF80FFFFFFFFFFFFFC07FFFFFF0001FFFFFF8001FFFFFFFFC00
310
0FF8001FFFFFFFFC000FFF0003FFFFFFFFFE0000000003FFF000FC000000000F
310
FFFFE0007F80070007F8001FFF80007FF8000000001FFFFF8000000001FFFFF8
310
0FFFFFFFFFFFFFC07FFFFFF0001FFFFFF8001FFFFFFFFC000FF8001FFFFFFFFC
310
000FFF0003FFFFFFFFFC000000000FFFF000F8000000007FFFFFE0007F800700
310
07F8001FFF80007FF000000000FFFFFF800000000FFFFFF80FFFFFFFFFFFFFC0
310
7FFFFFF0001FFFFFF8000FFFFFFFF8000FF8000FFFFFFFF8000FFF0003FFFFFF
310
FFFC000000007FFFF000F800000007FFFFFFC0007F8003000FF8001FFF80007F
310
F000000007FFFFFF000000007FFFFFF80FFFFFFFFFFFFFC07FFFFFF0001FFFFF
310
F8000FFFFFFFF8000FF8000FFFFFFFF8000FFF0003FFFFFFFFF80000000FFFFF
310
F000F0000000FFFFFFFFC000FF8003000FF8001FFF80007FE0000000FFFFFFFF
310
0000000FFFFFFFF8000001FFFE0000007FFFFFF0001FFFFFF8000FFFFFFFF800
310
0FF8000FFFFFFFF8000FFF0003FFFFFFFFF8000000FFFFFFF000F000000FFFFF
310
FFFFC000FFC002000FF8000FFF80007FE000001FFFFFFFFE000001FFFFFFFFF8
310
000001FFFE0000007FFFFFF0001FFFFFF8000FFFFFFFF8000FF8000FFFFFFFF8
310
000FFF0003FFFFFFFFF000001FFFFFFFF000E00000FFFFFFFFFFC000FFC00200
310
0FFC000FFF80007FE00001FFFFFFFFFE00001FFFFFFFFFF8000001FFFE000000
310
7FFFFFF0001FFFFFFC000FFFFFFFF8001FFC000FFFFFFFF8001FFF0003FFFFFF
310
FFF00001FFFFFFFFF000E00007FFFFFFFFFF8000FFC000001FFC000FFF80007F
310
C0000FFFFFFFFFFE0000FFFFFFFFFFF8000001FFFE0000007FFFFFF0001FFFFF
310
FC0007FFFFFFF0001FFC0007FFFFFFF0001FFF0003FFFFFFFFF00007FFFFFFFF
310
F000E0001FFFFFFFFFFF8000FFC000001FFC000FFF80007FC0003FFFFFFFFFFE
310
0001FFFFFFFFFFF8000001FFFE0000007FFFFFF0001FFFFFFC0007FFFFFFF000
310
1FFC0007FFFFFFF0001FFF0003FFFFFFFFF0001FFFFFFFFFF000E0003FFFFF00
310
03FF8001FFE000001FFC0007FF80007FC0007FFFFF0007FC0003FFFFF0003FF8
310
000001FFFE0000007FFFFFF0001FFFFFFC0003FFFFFFE0001FFC0003FFFFFFE0
310
001FFF0003FFFFFFFFF0003FFFFFFFFFF000E0003FFFFF0001FF8001FFE00000
310
1FFE0007FF80007FC0007FFFFE0003FC0007FFFFE0003FF8000001FFFE000000
310
7FFFFFF0001FFFFFFE0003FFFFFFE0003FFE0003FFFFFFE0003FFF0003FFFFFF
310
FFF0003FFFFF8001F000E0003FFFFF0001FF0001FFE000001FFE0007FF80007F
310
C0007FFFFE0003FC0007FFFFE0003FF8000001FFFE0000007FFFFFF0001FFFFF
310
FE0001FFFFFFC0003FFE0001FFFFFFC0003FFF0003FFFFFFFFF0003FFFFF0001
310
F000E0003FFFFF0003FF0001FFE000003FFE0007FF80007FC0007FFFFE0003FC
310
0007FFFFE0003FF8000001FFFE0000007FFFFFF0001FFFFFFF0001FFFFFFC000
310
7FFF0001FFFFFFC0007FFF0003FFFFFFFFF0003FFFFF0001F000E0003FFFFE00
310
03FF0003FFF000003FFE0003FF80007FC0007FFFFC0003FE0007FFFFE0003FF8
310
000001FFFE0000007FFFFFF0001FFFFFFF0000FFFFFF80007FFF0000FFFFFF80
310
007FFF0003FFFFFFFFF0003FFFFF0001F000E0003FFFFE0003FF0003FFF00000
310
3FFF0003FF80007FC0007FFFFC0007FE0007FFFFC0003FF8000001FFFE000000
310
7FFFFFF0001FFFFFFF80007FFFFF0000FFFF80007FFFFF0000FFFF0003FFFFFF
310
FFF0003FFFFF0003F000E0003FFFFC0003FE0003FFF000003FFF0003FF80007F
310
E0003FFFF80007FE0003FFFFC0007FF8000001FFFE0000007FFFFFF0001FFFFF
310
FF80003FFFFE0000FFFF80003FFFFE0000FFFF0003FFFFFFFFF0001FFFFE0003
310
F000F0001FFFF80003FE0003FFF000007FFF0001FF80007FE0003FFFF00007FE
310
0001FFFF80007FF8000001FFFE0000007FFFFFF0001FFFFFFFC0000FFFF80001
310
FFFFC0000FFFF80001FFFF0003FFFFFFFFF0001FFFFC0003F000F0000FFFF000
310
07FE0007FFF800007FFF0001FF80007FE0001FFFE00007FF0000FFFE00007FF8
310
000001FFFE0000007FFFFFF0001FFFFFFFC00003FFE00001FFFFC00003FFE000
310
01FFFF0003FFFFFFFFF8000FFFF80003F000F00003FFC00007FC0007FFF80000
310
7FFF8001FF80007FF00007FF80000FFF00007FF80000FFF8000001FFFE000000
310
7F80000000000001FFE000003E000003FFFFE000003E000003FFFF0003FFFFFF
310
FFF80003FFE00007F000F800000000000FFC0007FFF800007FFF8001FF80007F
310
F000000000000FFF000000000000FFF8000001FFFE0000007F80000000000001
310
FFF0000000000007FFFFF0000000000007FFFF0003FFFFFFFFFC00007E000007
310
F000F800000000000FFC0007FFF80000FFFF8000FF80007FF800000000001FFF
310
800000000001FFF8000001FFFE0000007F80000000000001FFF800000000000F
310
FFFFF800000000000FFFFF0003FFFFFFFFFC00000000000FF000FC0000000000
310
1FFC0007FFFC0000FFFF8000FF80007FF800000000003FFFC00000000001FFF8
310
000001FFFE0000007F80000000000001FFF800000000000FFFFFF80000000000
310
0FFFFF0003FFFFFFFFFE00000000001FF000FE00000000003FF8000FFFFC0000
310
FFFF8000FF80007FFC00000000003FFFC00000000003FFF8000001FFFE000000
310
7F80000000000001FFFC00000000001FFFFFFC00000000001FFFFF0003FFFFFF
310
FFFF00000000001FF000FF00000000003FF8000FFFFC0000FFFFC000FF80007F
310
FE00000000007FFFE00000000007FFF8000001FFFE0000007F80000000000001
310
FFFE00000000003FFFFFFE00000000003FFFFF0003FFFFFFFFFF80000000003F
310
F000FF80000000007FF8000FFFFC0001FFFFC0007F80007FFF0000000000FFFF
310
F0000000000FFFF800000000000000007F80000000000001FFFF8000000000FF
310
FFFFFF8000000000FFFFFF0003FFFFFFFFFFC0000000007FF000FFC000000000
310
FFF8000FFFFE0001FFFFC0007F80007FFF8000000001FFFFF8000000001FFFF8
310
00000000000000007F80000000000001FFFFC000000001FFFFFFFFC000000001
310
FFFFFF0003FFFFFFFFFFE000000000FFF000FFE000000003FFF0001FFFFE0001
310
FFFFC0007F80007FFFC000000007FFFFFE000000003FFFF80000000000000000
310
7F80000000000001FFFFE000000003FFFFFFFFE000000003FFFFFF0003FFFFFF
310
FFFFF000000003FFF000FFF80000000FFFF0001FFFFE0001FFFFE0007F80007F
310
FFF00000000FFFFFFF00000000FFFFF800000000000000007F80000000000001
310
FFFFF80000000FFFFFFFFFF80000000FFFFFFF0003FFFFFFFFFFFC0000000FFF
310
F000FFFE0000003FFFF0001FFFFE0003FFFFE0003F80007FFFFC0000003FFFFF
310
FFC0000003FFFFF800000000000000007F80000000000001FFFFFE0000003FFF
310
FFFFFFFE0000003FFFFFFF0003FFFFFFFFFFFF0000003FFFF000FFFF800000FF
310
FFF0001FFFFF0003FFFFE0003F80007FFFFF000001FFFFFFFFF800001FFFFFF8
310
00000000000000007F80000000000001FFFFFFC00001FFFFFFFFFFFFC00001FF
310
FFFFFF0003FFFFFFFFFFFFC00000FFFFF000FFFFF8000FFFFFFFFFFFFFFFFFFF
310
FFFFFFFFFFFFFFFFFFFFF0001FFFFFFFFFFF0000FFFFFFF80000000000000000
310
7FFFFFFFFFFFFFFFFFFFFFFC001FFFFFFFFFFFFFFC001FFFFFFFFFFFFFFFFFFF
310
FFFFFFFC001FFFFFF000FFFFFFFFFFFFFFFFFFFFFFFFFFFFFFFFFFFFFFFFFFFF
310
FFFFFFFFFFFFFFFFFFFFFFFFFFFFFFFFFFFFFFFFFFFFFFFFFFFFFFFFFFFFFFFF
310
FFFFFFFFFFFFFFFFFFFFFFFFFFFFFFFFFFFFFFFFFFFFFFFFFFFFFFFFFFFFFFFF
310
F000FFFFFFFFFFFFFFFFFFFFFFFFFFFFFFFFFFFFFFFFFFFFFFFFFFFFFFFFFFFF
310
FFFFFFFFFFFFFFFFFFFFFFFFFFFFFFFFFFFFFFFFFFFFFFFFFFFFFFFFFFFFFFFF
310
FFFFFFFFFFFFFFFFFFFFFFFFFFFFFFFFFFFFFFFFFFFFFFFFF000FFFFFFFFFFFF
310
FFFFFFFFFFFFFFFFFFFFFFFFFFFFFFFFFFFFFFFFFFFFFFFFFFFFFFFFFFFFFFFF
310
FFFFFFFFFFFFFFFFFFFFFFFFFFFFFFFFFFFFFFFFFFFFFFFFFFFFFFFFFFFFFFFF
310
FFFFFFFFFFFFFFFFFFFFFFFFFFFFFFFFF000FFFFFFFFFFFFFFFFFFFFFFFFFFFF
310
FFFFFFFFFFFFFFFFFFFFFFFFFFFFFFFFFFFFFFFFFFFFFFFFFFFFFFFFFFFFFFFF
310
FFFFFFFFFFFFFFFFFFFFFFFFFFFFFFFFFFFFFFFFFFFFFFFFFFFFFFFFFFFFFFFF
310
FFFFFFFFFFFFFFFFF000FFFFFFFFFFFFFFFFFFFFFFFFFFFFFFFFFFFFFFFFFFFF
310
FFFFFFFFFFFFFFFFFFFFFFFFFFFFFFFFFFFFFFFFFFFFFFFFFFFFFFFFFFFFFFFF
310
FFFFFFFFFFFFFFFFFFFFFFFFFFFFFFFFFFFFFFFFFFFFFFFFFFFFFFFFFFFFFFFF
310
F000FFFFFFFFFFFFFFFFFFFFFFFFFFFFFFFFFFFFFFFFFFFFFFFFFFFFFFFFFFFF
310
FFFFFFFFFFFFFFFFFFFFFFFFFFFFFFFFFFFFFFFFFFFFFFFFFFFFFFFFFFFFFFFF
310
FFFFFFFFFFFFFFFFFFFFFFFFFFFFFFFFFFFFFFFFFFFFFFFFF000FFFFFFFFFFFF
310
FFFFFFFFFFFFFFFFFFFFFFFFFFFFFFFFFFFFFFFFFFFFFFFFFFFFFFFFFFFFFFFF
310
FFFFFFFFFFFFFFFFFFFFFFFFFFFFFFFFFFFFFFFFFFFFFFFFFFFFFFFFFFFFFFFF
310
FFFFFFFFFFFFFFFFFFFFFFFFFFFFFFFFF000FFFFFFFFFFFFFFFFFFFFFFFFFFFF
310
FFFFFFFFFFFFFFFFFFFFFFFFFFFFFFFFFFFFFFFFFFFFFFFFFFFFFFFFFFFFFFFF
310
FFFFFFFFFFFFFFFFFFFFFFFFFFFFFFFFFFFFFFFFFFFFFFFFFFFFFFFFFFFFFFFF
310
FFFFFFFFFFFFFFFFF000FFFFFFFFFFFFFFFFFFFFFFFFFFFFFFFFFFFFFFFFFFFF
310
FFFFFFFFFFFFFFFFFFFFFFFFFFFFFFFFFFFFFFFFFFFFFFFFFFFFFFFFFFFFFFFF
310
FFFFFFFFFFFFFFFFFFFFFFFFFFFFFFFFFFFFFFFFFFFFFFFFFFFFFFFFFFFFFFFF
310
F000FFFFFFFFFFFFFFFFFFFFFFFFFFFFFFFFFFFFFFFFFFFFFFFFFFFFFFFFFFFF
310
FFFFFFFFFFFFFFFFFFFFFFFFFFFFFFFFFFFFFFFFFFFFFFFFFFFFFFFFFFFFFFFF
310
FFFFFFFFFFFFFFFFFFFFFFFFFFFFFFFFFFFFFFFFFFFFFFFFF000FFFFFFFFFFFF
310
FFFFFFFFFFFFFFFFFFFFFFFFFFFFFFFFFFFFFFFFFFFFFFFFFFFFFFFFFFFFFFFF
310
FFFFFFFFFFFFFFFFFFFFFFFFFFFFFFFFFFFFFFFFFFFFFFFFFFFFFFFFFFFFFFFF
310
FFFFFFFFFFFFFFFFFFFFFFFFFFFFFFFFF000FFFFFFFFFFFFFFFFFFFFFFFFFFFF
310
FFFFFFFFFFFFFFFFFFFFFFFFFFFFFFFFFFFFFFFFFFFFFFFFFFFFFFFFFFFFFFFF
310
FFFFFFFFFFFFFFFFFFFFFFFFFFFFFFFFFFFFFFFFFFFFFFFFFFFFFFFFFFFFFFFF
310
FFFFFFFFFFFFFFFFF000FFFFFFFFFFFFFFFFFFFFFFFFFFFFFFFFFFFFFFFFFFFF
310
FFFFFFFFFFFFFFFFFFFFFFFFFFFFFFFFFFFFFFFFFFFFFFFFFFFFFFFFFFFFFFFF
310
FFFFFFFFFFFFFFFFFFFFFFFFFFFFFFFFFFFFFFFFFFFFFFFFFFFFFFFFFFFFFFFF
310
F000FFFFFFFFFFFFFFFFFFFFFFFFFFFFFFFFFFFFFFFFFFFFFFFFFFFFFFFFFFFF
310
FFFFFFFFFFFFFFFFFFFFFFFFFFFFFFFFFFFFFFFFFFFFFFFFFFFFFFFFFFFFFFFF
310
FFFFFFFFFFFFFFFFFFFFFFFFFFFFFFFFFFFFFFFFFFFFFFFFF000FFFFFFFFFFFF
310
FFFFFFFFFFFFFFFFFFFFFFFFFFFFFFFFFFFFFFFFFFFFFFFFFFFFFFFFFFFFFFFF
310
FFFFFFFFFFFFFFFFFFFFFFFFFFFFFFFFFFFFFFFFFFFFFFFFFFFFFFFFFFFFFFFF
310
FFFFFFFFFFFFFFFFFFFFFFFFFFFFFFFFF000FFFFFFFFFFFFFFFFFFFFFFFFFFFF
310
FFFFFFFFFFFFFFFFFFFFFFFFFFFFFFFFFFFFFFFFFFFFFFFFFFFFFFFFFFFFFFFF
310
FFFFFFFFFFFFFFFFFFFFFFFFFFFFFFFFFFFFFFFFFFFFFFFFFFFFFFFFFFFFFFFF
310
FFFFFFFFFFFFFFFFF000FFFFFFFFFFFFFFFFFFFFFFFFFFFFFFFFFFFFFFFFFFFF
310
FFFFFFFFFFFFFFFFFFFFFFFFFFFFFFFFFFFFFFFFFFFFFFFFFFFFFFFFFFFFFFFF
310
FFFFFFFFFFFFFFFFFFFFFFFFFFFFFFFFFFFFFFFFFFFFFFFFFFFFFFFFFFFFFFFF
310
F000FFFFFFFFFFFFFFFFFFFFFFFFFFFFFFFFFFFFFFFFFFFFFFFFFFFFFFFFFFFF
310
FFFFFFFFFFFFFFFFFFFFFFFFFFFFFFFFFFFFFFFFFFFFFFFFFFFFFFFFFFFFFFFF
310
FFFFFFFFFFFFFFFFFFFFFFFFFFFFFFFFFFFFFFFFFFFFFFFFF000FFFFFFFFFFFF
310
FFFFFFFFFFFFFFFFFFFFFFFFFFFFFFFFFFFFFFFFFFFFFFFFFFFFFFFFFFFFFFFF
310
FFFFFFFFFFFFFFFFFFFFFFFFFFFFFFFFFFFFFFFFFFFFFFFFFFFFFFFFFFFFFFFF
310
FFFFFFFFFFFFFFFFFFFFFFFFFFFFFFFFF000FFFFFFFFFFFFFFFFFFFFFFFFFFFF
310
FFFFFFFFFFFFFFFFFFFFFFFFFFFFFFFFFFFFFFFFFFFFFFFFFFFFFFFFFFFFFFFF
310
FFFFFFFFFFFFFFFFFFFFFFFFFFFFFFFFFFFFFFFFFFFFFFFFFFFFFFFFFFFFFFFF
310
FFFFFFFFFFFFFFFFF000FFFFFFFFFFFFFFFFFFFFFFFFFFFFFFFFFFFFFFFFFFFF
310
FFFFFFFFFFFFFFFFFFFFFFFFFFFFFFFFFFFFFFFFFFFFFFFFFFFFFFFFFFFFFFFF
310
FFFFFFFFFFFFFFFFFFFFFFFFFFFFFFFFFFFFFFFFFFFFFFFFFFFFFFFFFFFFFFFF
310
F000FFFFFFFFFFFFFFFFFFFFFFFFFFFFFFFFFFFFFFFFFFFFFFFFFFFFFFFFFFFF
310
FFFFFFFFFFFFFFFFFFFFFFFFFFFFFFFFFFFFFFFFFFFFFFFFFFFFFFFFFFFFFFFF
310
FFFFFFFFFFFFFFFFFFFFFFFFFFFFFFFFFFFFFFFFFFFFFFFFF000FFFFFFFFFFFF
310
FFFFFFFFFFFFFFFFFFFFFFFFFFFFFFFFFFFFFFFFFFFFFFFFFFFFFFFFFFFFFFFF
310
FFFFFFFFFFFFFFFFFFFFFFFFFFFFFFFFFFFFFFFFFFFFFFFFFFFFFFFFFFFFFFFF
310
FFFFFFFFFFFFFFFFFFFFFFFFFFFFFFFFF0000000000000000000000000000000
310
0000000000000000000000000000000000000000000000000000000000000000
310
0000000000000000000000000000000000000000000000000000000000000000
310
0000000000000000000000000000000000000000000000000000000000000000
310
0000000000000000000000000000000000000000000000000000000000000000
310
0000000000000000000000000000000000000000000000000000000000000000
310
0000000000000000000000000000000000000000000000000000000000000000
310
0000000000000000000000000000000000000000000000000000000000000000
310
0000000000000000000000000000000000000000000000000000000000000000
310
0000000000000000000000000000000000000000000000000000000000000000
310
0000000000000000000000000000000000000000000000000000000000000000
310
0000000000000000000000000000000000000000000000000000000000000000
310
0000000000000000000000000000000000000000000000000000000000000000
310
0000000000000000000000000000000000000000000000000000000000000000
310
0000000000000000000000000000000000000000000000000000000000000000
310
0000000000000000000000000000000000000000000000000000000000000000
  1
OLE
  0
ENDSEC
  0
SECTION
  2
OBJECTS
  0
DICTIONARY
  5
C
330
0
100
AcDbDictionary
281
     1
  3
ACAD_GROUP
350
D
  3
ACAD_LAYOUT
350
1A
  3
ACAD_MLINESTYLE
350
17
  3
ACAD_PLOTSETTINGS
350
19
  3
ACAD_PLOTSTYLENAME
350
E
  3
ACAD_SCALELIST
350
47
  0
DICTIONARY
  5
D
102
{ACAD_REACTORS
330
C
102
}
330
C
100
AcDbDictionary
281
     1
  0
DICTIONARY
  5
1A
102
{ACAD_REACTORS
330
C
102
}
330
C
100
AcDbDictionary
281
     1
  3
Layout1
350
1E
  3
Layout2
350
26
  3
Model
350
22
  0
DICTIONARY
  5
17
102
{ACAD_REACTORS
330
C
102
}
330
C
100
AcDbDictionary
281
     1
  3
Standard
350
18
  0
DICTIONARY
  5
19
102
{ACAD_REACTORS
330
C
102
}
330
C
100
AcDbDictionary
281
     1
  0
ACDBDICTIONARYWDFLT
  5
E
102
{ACAD_REACTORS
330
C
102
}
330
C
100
AcDbDictionary
281
     1
  3
Normal
350
F
100
AcDbDictionaryWithDefault
340
F
  0
DICTIONARY
  5
47
102
{ACAD_REACTORS
330
C
102
}
330
C
100
AcDbDictionary
281
     1
  3
A0
350
48
  3
A1
350
49
  3
A2
350
4A
  3
A3
350
4B
  3
A4
350
4C
  3
A5
350
4D
  3
A6
350
4E
  3
A7
350
4F
  3
A8
350
50
  3
A9
350
51
  3
B0
350
52
  3
B1
350
53
  3
B2
350
54
  3
B3
350
55
  3
B4
350
56
  3
B5
350
57
  3
B6
350
58
  3
B7
350
59
  3
B8
350
5A
  3
B9
350
5B
  3
C0
350
5C
  3
C1
350
5D
  3
C2
350
5E
  3
C3
350
5F
  3
C4
350
60
  3
C5
350
61
  3
C6
350
62
  3
C7
350
63
  3
C8
350
64
  3
C9
350
65
  3
D0
350
66
  3
D1
350
67
  3
D2
350
68
  0
LAYOUT
  5
1E
102
{ACAD_REACTORS
330
1A
102
}
330
1A
100
AcDbPlotSettings
  1

  2
none_device
  4

  6

 40
0.0
 41
0.0
 42
0.0
 43
0.0
 44
0.0
 45
0.0
 46
0.0
 47
0.0
 48
0.0
 49
0.0
140
0.0
141
0.0
142
1.0
143
1.0
 70
   688
 72
     1
 73
     0
 74
     5
  7

 75
    16
147
1.0
148
0.0
149
0.0
100
AcDbLayout
  1
Layout1
 70
     1
 71
     1
 10
0.0
 20
0.0
 11
420.0
 21
297.0
 12
0.0
 22
0.0
 32
0.0
 14
1.0000000000E+20
 24
1.0000000000E+20
 34
1.0000000000E+20
 15
-1.0000000000E+20
 25
-1.0000000000E+20
 35
-1.0000000000E+20
146
0.0
 13
0.0
 23
0.0
 33
0.0
 16
1.0
 26
0.0
 36
0.0
 17
0.0
 27
1.0
 37
0.0
 76
     0
330
1B
  0
LAYOUT
  5
26
102
{ACAD_REACTORS
330
1A
102
}
330
1A
100
AcDbPlotSettings
  1

  2
none_device
  4

  6

 40
0.0
 41
0.0
 42
0.0
 43
0.0
 44
0.0
 45
0.0
 46
0.0
 47
0.0
 48
0.0
 49
0.0
140
0.0
141
0.0
142
1.0
143
1.0
 70
   688
 72
     1
 73
     0
 74
     5
  7

 75
    16
147
1.0
148
0.0
149
0.0
100
AcDbLayout
  1
Layout2
 70
     1
 71
     2
 10
0.0
 20
0.0
 11
0.0
 21
0.0
 12
0.0
 22
0.0
 32
0.0
 14
0.0
 24
0.0
 34
0.0
 15
0.0
 25
0.0
 35
0.0
146
0.0
 13
0.0
 23
0.0
 33
0.0
 16
1.0
 26
0.0
 36
0.0
 17
0.0
 27
1.0
 37
0.0
 76
     0
330
23
  0
LAYOUT
  5
22
102
{ACAD_REACTORS
330
1A
102
}
330
1A
100
AcDbPlotSettings
  1

  2
none_device
  4
Letter_(8.50_x_11.00_Inches)
  6

 40
6.35
 41
6.35
 42
6.35000508
 43
6.35000508
 44
215.9
 45
279.4
 46
0.0
 47
0.0
 48
0.0
 49
0.0
140
0.0
141
0.0
142
1.0
143
1.0
 70
  1712
 72
     1
 73
     0
 74
     0
  7

 75
     0
147
1.0
148
0.0
149
0.0
100
AcDbLayout
  1
Model
 70
     1
 71
     0
 10
0.0
 20
0.0
 11
297.0
 21
210.0
 12
0.0
 22
0.0
 32
0.0
 14
0.0
 24
0.0
 34
0.0
 15
297.0
 25
210.0
 35
0.0
146
0.0
 13
0.0
 23
0.0
 33
0.0
 16
1.0
 26
0.0
 36
0.0
 17
0.0
 27
1.0
 37
0.0
 76
     0
330
1F
331
29
  0
MLINESTYLE
  5
18
102
{ACAD_REACTORS
330
17
102
}
330
17
100
AcDbMlineStyle
  2
Standard
 70
     0
  3

 62
   256
 51
90.0
 52
90.0
 71
     2
 49
0.5
 62
   256
  6
BYLAYER
 49
-0.5
 62
   256
  6
BYLAYER
  0
ACDBPLACEHOLDER
  5
F
102
{ACAD_REACTORS
330
E
102
}
330
E
  0
SCALE
  5
48
102
{ACAD_REACTORS
330
47
102
}
330
47
100
AcDbScale
 70
     0
300
1:1
140
1.0
141
1.0
290
     1
  0
SCALE
  5
49
102
{ACAD_REACTORS
330
47
102
}
330
47
100
AcDbScale
 70
     0
300
1:2
140
1.0
141
2.0
290
     0
  0
SCALE
  5
4A
102
{ACAD_REACTORS
330
47
102
}
330
47
100
AcDbScale
 70
     0
300
1:4
140
1.0
141
4.0
290
     0
  0
SCALE
  5
4B
102
{ACAD_REACTORS
330
47
102
}
330
47
100
AcDbScale
 70
     0
300
1:5
140
1.0
141
5.0
290
     0
  0
SCALE
  5
4C
102
{ACAD_REACTORS
330
47
102
}
330
47
100
AcDbScale
 70
     0
300
1:8
140
1.0
141
8.0
290
     0
  0
SCALE
  5
4D
102
{ACAD_REACTORS
330
47
102
}
330
47
100
AcDbScale
 70
     0
300
1:10
140
1.0
141
10.0
290
     0
  0
SCALE
  5
4E
102
{ACAD_REACTORS
330
47
102
}
330
47
100
AcDbScale
 70
     0
300
1:16
140
1.0
141
16.0
290
     0
  0
SCALE
  5
4F
102
{ACAD_REACTORS
330
47
102
}
330
47
100
AcDbScale
 70
     0
300
1:20
140
1.0
141
20.0
290
     0
  0
SCALE
  5
50
102
{ACAD_REACTORS
330
47
102
}
330
47
100
AcDbScale
 70
     0
300
1:30
140
1.0
141
30.0
290
     0
  0
SCALE
  5
51
102
{ACAD_REACTORS
330
47
102
}
330
47
100
AcDbScale
 70
     0
300
1:40
140
1.0
141
40.0
290
     0
  0
SCALE
  5
52
102
{ACAD_REACTORS
330
47
102
}
330
47
100
AcDbScale
 70
     0
300
1:50
140
1.0
141
50.0
290
     0
  0
SCALE
  5
53
102
{ACAD_REACTORS
330
47
102
}
330
47
100
AcDbScale
 70
     0
300
1:100
140
1.0
141
100.0
290
     0
  0
SCALE
  5
54
102
{ACAD_REACTORS
330
47
102
}
330
47
100
AcDbScale
 70
     0
300
2:1
140
2.0
141
1.0
290
     0
  0
SCALE
  5
55
102
{ACAD_REACTORS
330
47
102
}
330
47
100
AcDbScale
 70
     0
300
4:1
140
4.0
141
1.0
290
     0
  0
SCALE
  5
56
102
{ACAD_REACTORS
330
47
102
}
330
47
100
AcDbScale
 70
     0
300
8:1
140
8.0
141
1.0
290
     0
  0
SCALE
  5
57
102
{ACAD_REACTORS
330
47
102
}
330
47
100
AcDbScale
 70
     0
300
10:1
140
10.0
141
1.0
290
     0
  0
SCALE
  5
58
102
{ACAD_REACTORS
330
47
102
}
330
47
100
AcDbScale
 70
     0
300
100:1
140
100.0
141
1.0
290
     0
  0
SCALE
  5
59
102
{ACAD_REACTORS
330
47
102
}
330
47
100
AcDbScale
 70
     0
300
1/128" = 1'-0"
140
0.0078125
141
12.0
290
     0
  0
SCALE
  5
5A
102
{ACAD_REACTORS
330
47
102
}
330
47
100
AcDbScale
 70
     0
300
1/64" = 1'-0"
140
0.015625
141
12.0
290
     0
  0
SCALE
  5
5B
102
{ACAD_REACTORS
330
47
102
}
330
47
100
AcDbScale
 70
     0
300
1/32" = 1'-0"
140
0.03125
141
12.0
290
     0
  0
SCALE
  5
5C
102
{ACAD_REACTORS
330
47
102
}
330
47
100
AcDbScale
 70
     0
300
1/16" = 1'-0"
140
0.0625
141
12.0
290
     0
  0
SCALE
  5
5D
102
{ACAD_REACTORS
330
47
102
}
330
47
100
AcDbScale
 70
     0
300
3/32" = 1'-0"
140
0.09375
141
12.0
290
     0
  0
SCALE
  5
5E
102
{ACAD_REACTORS
330
47
102
}
330
47
100
AcDbScale
 70
     0
300
1/8" = 1'-0"
140
0.125
141
12.0
290
     0
  0
SCALE
  5
5F
102
{ACAD_REACTORS
330
47
102
}
330
47
100
AcDbScale
 70
     0
300
3/16" = 1'-0"
140
0.1875
141
12.0
290
     0
  0
SCALE
  5
60
102
{ACAD_REACTORS
330
47
102
}
330
47
100
AcDbScale
 70
     0
300
1/4" = 1'-0"
140
0.25
141
12.0
290
     0
  0
SCALE
  5
61
102
{ACAD_REACTORS
330
47
102
}
330
47
100
AcDbScale
 70
     0
300
3/8" = 1'-0"
140
0.375
141
12.0
290
     0
  0
SCALE
  5
62
102
{ACAD_REACTORS
330
47
102
}
330
47
100
AcDbScale
 70
     0
300
1/2" = 1'-0"
140
0.5
141
12.0
290
     0
  0
SCALE
  5
63
102
{ACAD_REACTORS
330
47
102
}
330
47
100
AcDbScale
 70
     0
300
3/4" = 1'-0"
140
0.75
141
12.0
290
     0
  0
SCALE
  5
64
102
{ACAD_REACTORS
330
47
102
}
330
47
100
AcDbScale
 70
     0
300
1" = 1'-0"
140
1.0
141
12.0
290
     0
  0
SCALE
  5
65
102
{ACAD_REACTORS
330
47
102
}
330
47
100
AcDbScale
 70
     0
300
1-1/2" = 1'-0"
140
1.5
141
12.0
290
     0
  0
SCALE
  5
66
102
{ACAD_REACTORS
330
47
102
}
330
47
100
AcDbScale
 70
     0
300
3" = 1'-0"
140
3.0
141
12.0
290
     0
  0
SCALE
  5
67
102
{ACAD_REACTORS
330
47
102
}
330
47
100
AcDbScale
 70
     0
300
6" = 1'-0"
140
6.0
141
12.0
290
     0
  0
SCALE
  5
68
102
{ACAD_REACTORS
330
47
102
}
330
47
100
AcDbScale
 70
     0
300
1'-0" = 1'-0"
140
12.0
141
12.0
290
     0
  0
ENDSEC
  0
EOF
