  0
SECTION
  2
HEADER
  9
$ACADVER
  1
AC1015
  9
$ACADMAINTVER
 70
     6
  9
$DWGCODEPAGE
  3
ANSI_1252
  9
$INSBASE
 10
0.0
 20
0.0
 30
0.0
  9
$EXTMIN
 10
0.0
 20
0.0
 30
0.0
  9
$EXTMAX
 10
297.0
 20
210.0
 30
0.0
  9
$LIMMIN
 10
0.0
 20
0.0
  9
$LIMMAX
 10
297.0
 20
210.0
  9
$ORTHOMODE
 70
     0
  9
$REGENMODE
 70
     1
  9
$FILLMODE
 70
     1
  9
$QTEXTMODE
 70
     0
  9
$MIRRTEXT
 70
     1
  9
$LTSCALE
 40
1.0
  9
$ATTMODE
 70
     1
  9
$TEXTSIZE
 40
2.0
  9
$TRACEWID
 40
1.0
  9
$TEXTSTYLE
  7
Standard
  9
$CLAYER
  8
0
  9
$CELTYPE
  6
ByLayer
  9
$CECOLOR
 62
   256
  9
$CELTSCALE
 40
1.0
  9
$DISPSILH
 70
     0
  9
$DIMSCALE
 40
1.0
  9
$DIMASZ
 40
3.0
  9
$DIMEXO
 40
0.0
  9
$DIMDLI
 40
3.75
  9
$DIMRND
 40
0.0
  9
$DIMDLE
 40
0.0
  9
$DIMEXE
 40
1.0
  9
$DIMTP
 40
0.0
  9
$DIMTM
 40
0.0
  9
$DIMTXT
 40
2.0
  9
$DIMCEN
 40
2.5
  9
$DIMTSZ
 40
0.0
  9
$DIMTOL
 70
     0
  9
$DIMLIM
 70
     0
  9
$DIMTIH
 70
     1
  9
$DIMTOH
 70
     1
  9
$DIMSE1
 70
     0
  9
$DIMSE2
 70
     0
  9
$DIMTAD
 70
     1
  9
$DIMZIN
 70
     0
  9
$DIMBLK
  1

  9
$DIMASO
 70
     1
  9
$DIMSHO
 70
     1
  9
$DIMPOST
  1

  9
$DIMAPOST
  1

  9
$DIMALT
 70
     0
  9
$DIMALTD
 70
     3
  9
$DIMALTF
 40
0.0393700787
  9
$DIMLFAC
 40
1.0
  9
$DIMTOFL
 70
     1
  9
$DIMTVP
 40
0.0
  9
$DIMTIX
 70
     0
  9
$DIMSOXD
 70
     0
  9
$DIMSAH
 70
     0
  9
$DIMBLK1
  1

  9
$DIMBLK2
  1

  9
$DIMSTYLE
  2
ISO-25
  9
$DIMCLRD
 70
     0
  9
$DIMCLRE
 70
     0
  9
$DIMCLRT
 70
     0
  9
$DIMTFAC
 40
1.0
  9
$DIMGAP
 40
1.524
  9
$DIMJUST
 70
     0
  9
$DIMSD1
 70
     0
  9
$DIMSD2
 70
     0
  9
$DIMTOLJ
 70
     0
  9
$DIMTZIN
 70
     0
  9
$DIMALTZ
 70
     0
  9
$DIMALTTZ
 70
     0
  9
$DIMUPT
 70
     0
  9
$DIMDEC
 70
     2
  9
$DIMTDEC
 70
     3
  9
$DIMALTU
 70
     2
  9
$DIMALTTD
 70
     3
  9
$DIMTXSTY
  7
Standard
  9
$DIMAUNIT
 70
     0
  9
$DIMADEC
 70
     2
  9
$DIMALTRND
 40
0.0
  9
$DIMAZIN
 70
     0
  9
$DIMDSEP
 70
    44
  9
$DIMATFIT
 70
     3
  9
$DIMFRAC
 70
     0
  9
$DIMLDRBLK
  1

  9
$DIMLUNIT
 70
     2
  9
$DIMLWD
 70
    -2
  9
$DIMLWE
 70
    -2
  9
$DIMTMOVE
 70
     0
  9
$LUNITS
 70
     2
  9
$LUPREC
 70
     2
  9
$SKETCHINC
 40
1.0
  9
$FILLETRAD
 40
10.0
  9
$AUNITS
 70
     0
  9
$AUPREC
 70
     2
  9
$MENU
  1
.
  9
$ELEVATION
 40
0.0
  9
$PELEVATION
 40
0.0
  9
$THICKNESS
 40
0.0
  9
$LIMCHECK
 70
     0
  9
$CHAMFERA
 40
0.0
  9
$CHAMFERB
 40
0.0
  9
$CHAMFERC
 40
0.0
  9
$CHAMFERD
 40
0.0
  9
$SKPOLY
 70
     0
  9
$TDCREATE
 40
2457669.505635231
  9
$TDUCREATE
 40
2457669.422301898
  9
$TDUPDATE
 40
2457669.505636736
  9
$TDUUPDATE
 40
2457669.422303403
  9
$TDINDWG
 40
0.0000000116
  9
$TDUSRTIMER
 40
0.0000000116
  9
$USRTIMER
 70
     1
  9
$ANGBASE
 50
0.0
  9
$ANGDIR
 70
     0
  9
$PDMODE
 70
     0
  9
$PDSIZE
 40
-1.0
  9
$PLINEWID
 40
0.0
  9
$SPLFRAME
 70
     0
  9
$SPLINETYPE
 70
     6
  9
$SPLINESEGS
 70
     8
  9
$HANDSEED
  5
22A
  9
$SURFTAB1
 70
     6
  9
$SURFTAB2
 70
     6
  9
$SURFTYPE
 70
     6
  9
$SURFU
 70
     6
  9
$SURFV
 70
     6
  9
$UCSBASE
  2

  9
$UCSNAME
  2

  9
$UCSORG
 10
0.0
 20
0.0
 30
0.0
  9
$UCSXDIR
 10
1.0
 20
0.0
 30
0.0
  9
$UCSYDIR
 10
0.0
 20
1.0
 30
0.0
  9
$UCSORTHOREF
  2

  9
$UCSORTHOVIEW
 70
     0
  9
$UCSORGTOP
 10
0.0
 20
0.0
 30
0.0
  9
$UCSORGBOTTOM
 10
0.0
 20
0.0
 30
0.0
  9
$UCSORGLEFT
 10
0.0
 20
0.0
 30
0.0
  9
$UCSORGRIGHT
 10
0.0
 20
0.0
 30
0.0
  9
$UCSORGFRONT
 10
0.0
 20
0.0
 30
0.0
  9
$UCSORGBACK
 10
0.0
 20
0.0
 30
0.0
  9
$PUCSBASE
  2

  9
$PUCSNAME
  2

  9
$PUCSORG
 10
0.0
 20
0.0
 30
0.0
  9
$PUCSXDIR
 10
1.0
 20
0.0
 30
0.0
  9
$PUCSYDIR
 10
0.0
 20
1.0
 30
0.0
  9
$PUCSORTHOREF
  2

  9
$PUCSORTHOVIEW
 70
     0
  9
$PUCSORGTOP
 10
0.0
 20
0.0
 30
0.0
  9
$PUCSORGBOTTOM
 10
0.0
 20
0.0
 30
0.0
  9
$PUCSORGLEFT
 10
0.0
 20
0.0
 30
0.0
  9
$PUCSORGRIGHT
 10
0.0
 20
0.0
 30
0.0
  9
$PUCSORGFRONT
 10
0.0
 20
0.0
 30
0.0
  9
$PUCSORGBACK
 10
0.0
 20
0.0
 30
0.0
  9
$USERI1
 70
     0
  9
$USERI2
 70
     0
  9
$USERI3
 70
     0
  9
$USERI4
 70
     0
  9
$USERI5
 70
     0
  9
$USERR1
 40
0.0
  9
$USERR2
 40
0.0
  9
$USERR3
 40
0.0
  9
$USERR4
 40
0.0
  9
$USERR5
 40
0.0
  9
$WORLDVIEW
 70
     1
  9
$SHADEDGE
 70
     3
  9
$SHADEDIF
 70
    70
  9
$TILEMODE
 70
     1
  9
$MAXACTVP
 70
    64
  9
$PINSBASE
 10
0.0
 20
0.0
 30
0.0
  9
$PLIMCHECK
 70
     0
  9
$PEXTMIN
 10
1.0000000000E+20
 20
1.0000000000E+20
 30
1.0000000000E+20
  9
$PEXTMAX
 10
-1.0000000000E+20
 20
-1.0000000000E+20
 30
-1.0000000000E+20
  9
$PLIMMIN
 10
0.0
 20
0.0
  9
$PLIMMAX
 10
420.0
 20
297.0
  9
$UNITMODE
 70
     0
  9
$VISRETAIN
 70
     1
  9
$PLINEGEN
 70
     0
  9
$PSLTSCALE
 70
     1
  9
$TREEDEPTH
 70
  3020
  9
$CMLSTYLE
  2
Standard
  9
$CMLJUST
 70
     0
  9
$CMLSCALE
 40
20.0
  9
$PROXYGRAPHICS
 70
     1
  9
$MEASUREMENT
 70
     1
  9
$CELWEIGHT
370
    -1
  9
$ENDCAPS
280
     0
  9
$JOINSTYLE
280
     0
  9
$LWDISPLAY
290
     1
  9
$INSUNITS
 70
     4
  9
$HYPERLINKBASE
  1

  9
$STYLESHEET
  1

  9
$XEDIT
290
     1
  9
$CEPSNTYPE
380
     0
  9
$PSTYLEMODE
290
     1
  9
$FINGERPRINTGUID
  2
{6677DD70-428D-40BE-8AAA-009B1E8B50A0}
  9
$VERSIONGUID
  2
{FAEB1C32-E019-11D5-929B-00C0DF256EC4}
  9
$EXTNAMES
290
     1
  9
$PSVPSCALE
 40
0.0
  9
$OLESTARTUP
290
     0
  0
ENDSEC
  0
SECTION
  2
CLASSES
  0
CLASS
  1
ACDBDICTIONARYWDFLT
  2
AcDbDictionaryWithDefault
  3
ObjectDBX Classes
 90
        0
280
     0
281
     0
  0
CLASS
  1
VISUALSTYLE
  2
AcDbVisualStyle
  3
ObjectDBX Classes
 90
     4095
280
     0
281
     0
  0
CLASS
  1
MATERIAL
  2
AcDbMaterial
  3
ObjectDBX Classes
 90
     1153
280
     0
281
     0
  0
CLASS
  1
SCALE
  2
AcDbScale
  3
ObjectDBX Classes
 90
     1153
280
     0
281
     0
  0
CLASS
  1
TABLESTYLE
  2
AcDbTableStyle
  3
ObjectDBX Classes
 90
     4095
280
     0
281
     0
  0
CLASS
  1
MLEADERSTYLE
  2
AcDbMLeaderStyle
  3
ACDB_MLEADERSTYLE_CLASS
 90
     4095
280
     0
281
     0
  0
CLASS
  1
SUN
  2
AcDbSun
  3
SCENEOE
 90
     1153
280
     0
281
     0
  0
CLASS
  1
ACDBPLACEHOLDER
  2
AcDbPlaceHolder
  3
ObjectDBX Classes
 90
        0
280
     0
281
     0
  0
CLASS
  1
LAYOUT
  2
AcDbLayout
  3
ObjectDBX Classes
 90
        0
280
     0
281
     0
  0
ENDSEC
  0
SECTION
  2
TABLES
  0
TABLE
  2
VPORT
  5
8
330
0
100
AcDbSymbolTable
 70
     1
  0
VPORT
  5
29
330
8
100
AcDbSymbolTableRecord
100
AcDbViewportTableRecord
  2
*Active
 70
     0
 10
0.0
 20
0.0
 11
1.0
 21
1.0
 12
148.5
 22
105.0
 13
0.0
 23
0.0
 14
10.0
 24
10.0
 15
10.0
 25
10.0
 16
0.0
 26
0.0
 36
1.0
 17
0.0
 27
0.0
 37
0.0
 40
210.0
 41
1.4142857143
 42
50.0
 43
0.0
 44
0.0
 50
0.0
 51
0.0
 71
     0
 72
  2000
 73
     1
 74
     3
 75
     0
 76
     0
 77
     0
 78
     0
281
     0
 65
     1
110
0.0
120
0.0
130
0.0
111
1.0
121
0.0
131
0.0
112
0.0
122
1.0
132
0.0
 79
     0
146
0.0
  0
ENDTAB
  0
TABLE
  2
LTYPE
  5
5
330
0
100
AcDbSymbolTable
 70
     6
  0
LTYPE
  5
14
330
5
100
AcDbSymbolTableRecord
100
AcDbLinetypeTableRecord
  2
ByBlock
 70
     0
  3

 72
    65
 73
     0
 40
0.0
  0
LTYPE
  5
15
330
5
100
AcDbSymbolTableRecord
100
AcDbLinetypeTableRecord
  2
ByLayer
 70
     0
  3

 72
    65
 73
     0
 40
0.0
  0
LTYPE
  5
16
330
5
100
AcDbSymbolTableRecord
100
AcDbLinetypeTableRecord
  2
Continuous
 70
     0
  3
Solid line
 72
    65
 73
     0
 40
0.0
  0
LTYPE
  5
6E
330
5
100
AcDbSymbolTableRecord
100
AcDbLinetypeTableRecord
  2
HIDDEN
 70
     0
  3
Hidden __ __ __ __ __ __ __ __ __ __ __ __ __ __
 72
    65
 73
     2
 40
1.905
 49
1.27
 74
     0
 49
-0.635
 74
     0
  0
LTYPE
  5
6F
330
5
100
AcDbSymbolTableRecord
100
AcDbLinetypeTableRecord
  2
PHANTOM
 70
     0
  3
Phantom ______  __  __  ______  __  __  ______
 72
    65
 73
     6
 40
12.7
 49
6.35
 74
     0
 49
-1.27
 74
     0
 49
1.27
 74
     0
 49
-1.27
 74
     0
 49
1.27
 74
     0
 49
-1.27
 74
     0
  0
LTYPE
  5
70
330
5
100
AcDbSymbolTableRecord
100
AcDbLinetypeTableRecord
  2
CENTER
 70
     0
  3
Center ____ _ ____ _ ____ _ ____ _ ____ _ ____
 72
    65
 73
     4
 40
10.16
 49
6.35
 74
     0
 49
-1.27
 74
     0
 49
1.27
 74
     0
 49
-1.27
 74
     0
  0
LTYPE
  5
71
330
5
100
AcDbSymbolTableRecord
100
AcDbLinetypeTableRecord
  2
CENTERX2
 70
     0
  3
Center (2x) ________  __  ________  __  _____
 72
    65
 73
     4
 40
20.32
 49
12.7
 74
     0
 49
-2.54
 74
     0
 49
2.54
 74
     0
 49
-2.54
 74
     0
  0
LTYPE
  5
72
330
5
100
AcDbSymbolTableRecord
100
AcDbLinetypeTableRecord
  2
DOT2
 70
     0
  3
Dot (.5x) ........................................
 72
    65
 73
     2
 40
0.635
 49
0.0
 74
     0
 49
-0.635
 74
     0
  0
ENDTAB
  0
TABLE
  2
LAYER
  5
2
330
0
100
AcDbSymbolTable
 70
     5
  0
LAYER
  5
10
330
2
100
AcDbSymbolTableRecord
100
AcDbLayerTableRecord
  2
0
 70
     0
 62
     7
  6
Continuous
370
    -3
390
F
  0
LAYER
  5
73
330
2
100
AcDbSymbolTableRecord
100
AcDbLayerTableRecord
  2
FORMAT
 70
     0
 62
     7
  6
Continuous
370
    -3
390
F
  0
LAYER
  5
74
330
2
100
AcDbSymbolTableRecord
100
AcDbLayerTableRecord
  2
VERMASSUNG
 70
     0
 62
     7
  6
Continuous
370
    -3
390
F
  0
LAYER
  5
75
330
2
100
AcDbSymbolTableRecord
100
AcDbLayerTableRecord
  2
KOPF_DÜNN
 70
     0
 62
     7
  6
Continuous
370
    -3
390
F
  0
LAYER
  5
76
330
2
100
AcDbSymbolTableRecord
100
AcDbLayerTableRecord
  2
KOPF_DICK
 70
     0
 62
     7
  6
Continuous
370
    15
390
F
  0
ENDTAB
  0
TABLE
  2
STYLE
  5
3
330
0
100
AcDbSymbolTable
 70
     3
  0
STYLE
  5
11
330
3
100
AcDbSymbolTableRecord
100
AcDbTextStyleTableRecord
  2
Standard
 70
     0
 40
0.0
 41
1.0
 50
0.0
 71
     0
 42
2.0
  3
txt
  4

  0
STYLE
  5
77
330
3
100
AcDbSymbolTableRecord
100
AcDbTextStyleTableRecord
  2
SLDTEXTSTYLE0
 70
     0
 40
0.0
 41
0.7
 50
0.0
 71
     0
 42
2.0
  3
TXT
  4

  0
STYLE
  5
7B
330
3
100
AcDbSymbolTableRecord
100
AcDbTextStyleTableRecord
  2
SLDTEXTSTYLE1
 70
     0
 40
0.0
 41
0.6538461538
 50
0.0
 71
     0
 42
2.0
  3
TXT
  4

  0
ENDTAB
  0
TABLE
  2
VIEW
  5
6
330
0
100
AcDbSymbolTable
 70
     0
  0
ENDTAB
  0
TABLE
  2
UCS
  5
7
330
0
100
AcDbSymbolTable
 70
     0
  0
ENDTAB
  0
TABLE
  2
APPID
  5
9
330
0
100
AcDbSymbolTable
 70
     1
  0
APPID
  5
12
330
9
100
AcDbSymbolTableRecord
100
AcDbRegAppTableRecord
  2
ACAD
 70
     0
  0
ENDTAB
  0
TABLE
  2
DIMSTYLE
  5
A
330
0
100
AcDbSymbolTable
 70
     2
100
AcDbDimStyleTable
  0
DIMSTYLE
105
27
330
A
100
AcDbSymbolTableRecord
100
AcDbDimStyleTableRecord
  2
ISO-25
 70
     0
 41
2.5
 42
0.625
 43
3.75
 44
1.25
 73
     0
 74
     0
 77
     1
 78
     8
140
2.5
141
2.5
143
0.0393700787
147
0.625
171
     3
172
     1
178
     0
271
     2
272
     2
274
     3
278
    44
283
     0
284
     8
340
11
  0
DIMSTYLE
105
15F
102
{ACAD_REACTORS
330
15E
330
16B
330
176
330
182
330
18E
330
19A
102
}
330
A
100
AcDbSymbolTableRecord
100
AcDbDimStyleTableRecord
  2
SLDDIMSTYLE0
 70
     0
 41
3.0
 44
0.0
 45
0.000000001
 73
     0
 74
     0
 77
     1
 78
    12
 79
     3
140
2.0
147
0.5
173
     1
178
     0
271
     2
272
     3
276
     2
284
    12
340
77
  0
ENDTAB
  0
TABLE
  2
BLOCK_RECORD
  5
1
330
0
100
AcDbSymbolTable
 70
     7
  0
BLOCK_RECORD
  5
1F
330
1
100
AcDbSymbolTableRecord
100
AcDbBlockTableRecord
  2
*Model_Space
340
22
  0
BLOCK_RECORD
  5
1B
330
1
100
AcDbSymbolTableRecord
100
AcDbBlockTableRecord
  2
*Paper_Space
340
1E
  0
BLOCK_RECORD
  5
23
330
1
100
AcDbSymbolTableRecord
100
AcDbBlockTableRecord
  2
*Paper_Space0
340
26
  0
BLOCK_RECORD
  5
160
330
1
100
AcDbSymbolTableRecord
100
AcDbBlockTableRecord
  2
_D
340
0
  0
BLOCK_RECORD
  5
16C
330
1
100
AcDbSymbolTableRecord
100
AcDbBlockTableRecord
  2
_D_1
340
0
  0
BLOCK_RECORD
  5
177
330
1
100
AcDbSymbolTableRecord
100
AcDbBlockTableRecord
  2
_D_2
340
0
  0
BLOCK_RECORD
  5
183
330
1
100
AcDbSymbolTableRecord
100
AcDbBlockTableRecord
  2
_D_3
340
0
  0
BLOCK_RECORD
  5
18F
330
1
100
AcDbSymbolTableRecord
100
AcDbBlockTableRecord
  2
_D_4
340
0
  0
BLOCK_RECORD
  5
19B
330
1
100
AcDbSymbolTableRecord
100
AcDbBlockTableRecord
  2
_D_5
340
0
  0
ENDTAB
  0
ENDSEC
  0
SECTION
  2
BLOCKS
  0
BLOCK
  5
20
330
1F
100
AcDbEntity
  8
0
100
AcDbBlockBegin
  2
*Model_Space
 70
     0
 10
0.0
 20
0.0
 30
0.0
  3
*Model_Space
  1

  0
ENDBLK
  5
21
330
1F
100
AcDbEntity
  8
0
100
AcDbBlockEnd
  0
BLOCK
  5
1C
330
1B
100
AcDbEntity
 67
     1
  8
0
100
AcDbBlockBegin
  2
*Paper_Space
 70
     0
 10
0.0
 20
0.0
 30
0.0
  3
*Paper_Space
  1

  0
ENDBLK
  5
1D
330
1B
100
AcDbEntity
 67
     1
  8
0
100
AcDbBlockEnd
  0
BLOCK
  5
24
330
23
100
AcDbEntity
  8
0
100
AcDbBlockBegin
  2
*Paper_Space0
 70
     0
 10
0.0
 20
0.0
 30
0.0
  3
*Paper_Space0
  1

  0
ENDBLK
  5
25
330
23
100
AcDbEntity
  8
0
100
AcDbBlockEnd
  0
BLOCK
  5
161
330
160
100
AcDbEntity
  8
0
100
AcDbBlockBegin
  2
_D
 70
     0
 10
0.0
 20
0.0
 30
0.0
  3
_D
  1

  0
ARC
  5
163
330
160
100
AcDbEntity
  8
VERMASSUNG
100
AcDbCircle
 10
196.3866534172
 20
144.3225594431
 30
0.0
 40
4.247059938537221
100
AcDbArc
 50
153.4349488229
 51
206.5650511771
  0
ARC
  5
164
330
160
100
AcDbEntity
  8
VERMASSUNG
100
AcDbCircle
 10
194.3621745295
 20
144.3225594431
 30
0.0
 40
4.247059938537221
100
AcDbArc
 50
333.4349488229
 51
26.5650511771
  0
SOLID
  5
165
330
160
100
AcDbEntity
  8
VERMASSUNG
100
AcDbTrace
 10
185.8744139734
 20
142.4232164976
 30
0.0
 11
188.8744139734
 21
141.9732164976
 31
0.0
 12
188.8744139734
 22
142.8732164976
 32
0.0
 13
188.8744139734
 23
142.8732164976
 33
0.0
  0
SOLID
  5
166
330
160
100
AcDbEntity
  8
VERMASSUNG
100
AcDbTrace
 10
204.8744139734
 20
142.4232164976
 30
0.0
 11
201.8744139734
 21
142.8732164976
 31
0.0
 12
201.8744139734
 22
141.9732164976
 32
0.0
 13
201.8744139734
 23
141.9732164976
 33
0.0
  0
LINE
  5
167
330
160
100
AcDbEntity
  8
VERMASSUNG
100
AcDbLine
 10
185.8744139734
 20
136.4561783166
 30
0.0
 11
185.8744139734
 21
143.4232164976
 31
0.0
  0
LINE
  5
168
330
160
100
AcDbEntity
  8
VERMASSUNG
100
AcDbLine
 10
204.8744139734
 20
136.1061783166
 30
0.0
 11
204.8744139734
 21
143.4232164976
 31
0.0
  0
LINE
  5
169
330
160
100
AcDbEntity
  8
VERMASSUNG
100
AcDbLine
 10
185.8744139734
 20
142.4232164976
 30
0.0
 11
204.8744139734
 21
142.4232164976
 31
0.0
  0
MTEXT
  5
16A
330
160
100
AcDbEntity
  8
VERMASSUNG
100
AcDbMText
 10
194.1754675264
 20
145.0013520936
 30
0.0
 40
2.0
 41
0.0
 71
     1
 72
     1
  1
19
  7
SLDTEXTSTYLE0
 73
     1
 44
1.0
  0
ENDBLK
  5
162
330
160
100
AcDbEntity
  8
0
100
AcDbBlockEnd
  0
BLOCK
  5
16D
330
16C
100
AcDbEntity
  8
0
100
AcDbBlockBegin
  2
_D_1
 70
     0
 10
0.0
 20
0.0
 30
0.0
  3
_D_1
  1

  0
SOLID
  5
16F
330
16C
100
AcDbEntity
  8
VERMASSUNG
100
AcDbTrace
 10
212.2945174321
 20
122.7061783166
 30
0.0
 11
211.8445174321
 21
119.7061783166
 31
0.0
 12
212.7445174321
 22
119.7061783166
 32
0.0
 13
212.7445174321
 23
119.7061783166
 33
0.0
  0
SOLID
  5
170
330
16C
100
AcDbEntity
  8
VERMASSUNG
100
AcDbTrace
 10
212.2945174321
 20
86.7061783166
 30
0.0
 11
212.7445174321
 21
89.7061783166
 31
0.0
 12
211.8445174321
 22
89.7061783166
 32
0.0
 13
211.8445174321
 23
89.7061783166
 33
0.0
  0
LINE
  5
171
330
16C
100
AcDbEntity
  8
VERMASSUNG
100
AcDbLine
 10
188.2744139732
 20
122.7061783166
 30
0.0
 11
213.2945174321
 21
122.7061783166
 31
0.0
  0
LINE
  5
172
330
16C
100
AcDbEntity
  8
VERMASSUNG
100
AcDbLine
 10
188.2744139732
 20
86.7061783166
 30
0.0
 11
213.2945174321
 21
86.7061783166
 31
0.0
  0
LINE
  5
173
330
16C
100
AcDbEntity
  8
VERMASSUNG
100
AcDbLine
 10
212.2945174321
 20
122.7061783166
 30
0.0
 11
212.2945174321
 21
86.7061783166
 31
0.0
  0
MTEXT
  5
174
330
16C
100
AcDbEntity
  8
VERMASSUNG
100
AcDbMText
 10
209.7163818943
 20
101.5020022095
 30
0.0
 40
2.0
 41
0.0
 71
     1
 72
     1
  1
%%c
  7
SLDTEXTSTYLE0
 11
-7.044195017643634E-15
 21
1.0
 31
0.0
 73
     1
 44
1.0
  0
MTEXT
  5
175
330
16C
100
AcDbEntity
  8
VERMASSUNG
100
AcDbMText
 10
209.7163818361
 20
105.1109744031
 30
0.0
 40
2.0
 41
0.0
 71
     1
 72
     1
  1
36
  7
SLDTEXTSTYLE0
 11
-7.044195017643634E-15
 21
1.0
 31
0.0
 73
     1
 44
1.0
  0
ENDBLK
  5
16E
330
16C
100
AcDbEntity
  8
0
100
AcDbBlockEnd
  0
BLOCK
  5
178
330
177
100
AcDbEntity
  8
0
100
AcDbBlockBegin
  2
_D_2
 70
     0
 10
0.0
 20
0.0
 30
0.0
  3
_D_2
  1

  0
SOLID
  5
17A
330
177
100
AcDbEntity
  8
VERMASSUNG
100
AcDbTrace
 10
218.2945174321
 20
136.7061783166
 30
0.0
 11
217.8445174321
 21
133.7061783166
 31
0.0
 12
218.7445174321
 22
133.7061783166
 32
0.0
 13
218.7445174321
 23
133.7061783166
 33
0.0
  0
SOLID
  5
17B
330
177
100
AcDbEntity
  8
VERMASSUNG
100
AcDbTrace
 10
218.2945174321
 20
72.7061783166
 30
0.0
 11
218.7445174321
 21
75.7061783166
 31
0.0
 12
217.8445174321
 22
75.7061783166
 32
0.0
 13
217.8445174321
 23
75.7061783166
 33
0.0
  0
LINE
  5
17C
330
177
100
AcDbEntity
  8
VERMASSUNG
100
AcDbLine
 10
204.2744139734
 20
136.7061783166
 30
0.0
 11
219.2945174321
 21
136.7061783166
 31
0.0
  0
LINE
  5
17D
330
177
100
AcDbEntity
  8
VERMASSUNG
100
AcDbLine
 10
204.2744139734
 20
72.7061783166
 30
0.0
 11
219.2945174321
 21
72.7061783166
 31
0.0
  0
LINE
  5
17E
330
177
100
AcDbEntity
  8
VERMASSUNG
100
AcDbLine
 10
218.2945174321
 20
136.7061783166
 30
0.0
 11
218.2945174321
 21
72.7061783166
 31
0.0
  0
MTEXT
  5
17F
330
177
100
AcDbEntity
  8
VERMASSUNG
100
AcDbMText
 10
215.5163821759
 20
98.5029816121
 30
0.0
 40
2.0
 41
0.0
 71
     1
 72
     1
  1
ST6
  7
SLDTEXTSTYLE0
 11
-7.044195017643634E-15
 21
1.0
 31
0.0
 73
     1
 44
1.0
  0
MTEXT
  5
180
330
177
100
AcDbEntity
  8
VERMASSUNG
100
AcDbMText
 10
215.7163821272
 20
104.3029815384
 30
0.0
 40
2.0
 41
0.0
 71
     1
 72
     1
  1
%%c
  7
SLDTEXTSTYLE0
 11
-7.044195017643634E-15
 21
1.0
 31
0.0
 73
     1
 44
1.0
  0
MTEXT
  5
181
330
177
100
AcDbEntity
  8
VERMASSUNG
100
AcDbMText
 10
215.7163818361
 20
107.9114574103
 30
0.0
 40
2.0
 41
0.0
 71
     1
 72
     1
  1
64
  7
SLDTEXTSTYLE0
 11
-7.044195017643634E-15
 21
1.0
 31
0.0
 73
     1
 44
1.0
  0
ENDBLK
  5
179
330
177
100
AcDbEntity
  8
0
100
AcDbBlockEnd
  0
BLOCK
  5
184
330
183
100
AcDbEntity
  8
0
100
AcDbBlockBegin
  2
_D_3
 70
     0
 10
0.0
 20
0.0
 30
0.0
  3
_D_3
  1

  0
SOLID
  5
186
330
183
100
AcDbEntity
  8
VERMASSUNG
100
AcDbTrace
 10
86.8606489037
 20
136.2061783166
 30
0.0
 11
86.4106489037
 21
133.2061783166
 31
0.0
 12
87.3106489037
 22
133.2061783166
 32
0.0
 13
87.3106489037
 23
133.2061783166
 33
0.0
  0
SOLID
  5
187
330
183
100
AcDbEntity
  8
VERMASSUNG
100
AcDbTrace
 10
86.8606489037
 20
73.2061783166
 30
0.0
 11
87.3106489037
 21
76.2061783166
 31
0.0
 12
86.4106489037
 22
76.2061783166
 32
0.0
 13
86.4106489037
 23
76.2061783166
 33
0.0
  0
LINE
  5
188
330
183
100
AcDbEntity
  8
VERMASSUNG
100
AcDbLine
 10
182.8744098293
 20
136.2061783166
 30
0.0
 11
85.8606489037
 21
136.2061783166
 31
0.0
  0
LINE
  5
189
330
183
100
AcDbEntity
  8
VERMASSUNG
100
AcDbLine
 10
182.8744147473
 20
73.2061783166
 30
0.0
 11
85.8606489037
 21
73.2061783166
 31
0.0
  0
LINE
  5
18A
330
183
100
AcDbEntity
  8
VERMASSUNG
100
AcDbLine
 10
86.8606489037
 20
136.2061783166
 30
0.0
 11
86.8606489037
 21
73.2061783166
 31
0.0
  0
MTEXT
  5
18B
330
183
100
AcDbEntity
  8
VERMASSUNG
100
AcDbMText
 10
84.0825136475
 20
94.0016932496
 30
0.0
 40
2.0
 41
0.0
 71
     1
 72
     1
  1
MAS BT 40
  7
SLDTEXTSTYLE0
 11
-7.044195017643634E-15
 21
1.0
 31
0.0
 73
     1
 44
1.0
  0
MTEXT
  5
18C
330
183
100
AcDbEntity
  8
VERMASSUNG
100
AcDbMText
 10
84.2825135988
 20
109.0016929144
 30
0.0
 40
2.0
 41
0.0
 71
     1
 72
     1
  1
%%c
  7
SLDTEXTSTYLE0
 11
-7.044195017643634E-15
 21
1.0
 31
0.0
 73
     1
 44
1.0
  0
MTEXT
  5
18D
330
183
100
AcDbEntity
  8
VERMASSUNG
100
AcDbMText
 10
84.2825133077
 20
112.6112833629
 30
0.0
 40
2.0
 41
0.0
 71
     1
 72
     1
  1
63
  7
SLDTEXTSTYLE0
 11
-7.044195017643634E-15
 21
1.0
 31
0.0
 73
     1
 44
1.0
  0
ENDBLK
  5
185
330
183
100
AcDbEntity
  8
0
100
AcDbBlockEnd
  0
BLOCK
  5
190
330
18F
100
AcDbEntity
  8
0
100
AcDbBlockBegin
  2
_D_4
 70
     0
 10
0.0
 20
0.0
 30
0.0
  3
_D_4
  1

  0
ARC
  5
192
330
18F
100
AcDbEntity
  8
VERMASSUNG
100
AcDbCircle
 10
148.7858604203
 20
156.3225594431
 30
0.0
 40
4.247059938537361
100
AcDbArc
 50
153.4349488229
 51
206.5650511771
  0
ARC
  5
193
330
18F
100
AcDbEntity
  8
VERMASSUNG
100
AcDbCircle
 10
149.5629675264
 20
156.3225594431
 30
0.0
 40
4.247059938537386
100
AcDbArc
 50
333.4349488229
 51
26.5650511771
  0
SOLID
  5
194
330
18F
100
AcDbEntity
  8
VERMASSUNG
100
AcDbTrace
 10
93.4744139734
 20
154.4232164976
 30
0.0
 11
96.4744139734
 21
153.9732164976
 31
0.0
 12
96.4744139734
 22
154.8732164976
 32
0.0
 13
96.4744139734
 23
154.8732164976
 33
0.0
  0
SOLID
  5
195
330
18F
100
AcDbEntity
  8
VERMASSUNG
100
AcDbTrace
 10
204.8744139734
 20
154.4232164976
 30
0.0
 11
201.8744139734
 21
154.8732164976
 31
0.0
 12
201.8744139734
 22
153.9732164976
 32
0.0
 13
201.8744139734
 23
153.9732164976
 33
0.0
  0
LINE
  5
196
330
18F
100
AcDbEntity
  8
VERMASSUNG
100
AcDbLine
 10
93.4744139734
 20
116.5289339136
 30
0.0
 11
93.4744139734
 21
155.4232164976
 31
0.0
  0
LINE
  5
197
330
18F
100
AcDbEntity
  8
VERMASSUNG
100
AcDbLine
 10
204.8744139734
 20
136.1061783166
 30
0.0
 11
204.8744139734
 21
155.4232164976
 31
0.0
  0
LINE
  5
198
330
18F
100
AcDbEntity
  8
VERMASSUNG
100
AcDbLine
 10
93.4744139734
 20
154.4232164976
 30
0.0
 11
204.8744139734
 21
154.4232164976
 31
0.0
  0
MTEXT
  5
199
330
18F
100
AcDbEntity
  8
VERMASSUNG
100
AcDbMText
 10
146.5746745295
 20
157.0013520936
 30
0.0
 40
2.0
 41
0.0
 71
     1
 72
     1
  1
111.4
  7
SLDTEXTSTYLE0
 73
     1
 44
1.0
  0
ENDBLK
  5
191
330
18F
100
AcDbEntity
  8
0
100
AcDbBlockEnd
  0
BLOCK
  5
19C
330
19B
100
AcDbEntity
  8
0
100
AcDbBlockBegin
  2
_D_5
 70
     0
 10
0.0
 20
0.0
 30
0.0
  3
_D_5
  1

  0
SOLID
  5
19E
330
19B
100
AcDbEntity
  8
VERMASSUNG
100
AcDbTrace
 10
158.8744139734
 20
148.4232164976
 30
0.0
 11
161.8744139734
 21
147.9732164976
 31
0.0
 12
161.8744139734
 22
148.8732164976
 32
0.0
 13
161.8744139734
 23
148.8732164976
 33
0.0
  0
SOLID
  5
19F
330
19B
100
AcDbEntity
  8
VERMASSUNG
100
AcDbTrace
 10
204.8744139732
 20
148.4232164976
 30
0.0
 11
201.8744139732
 21
148.8732164976
 31
0.0
 12
201.8744139732
 22
147.9732164976
 32
0.0
 13
201.8744139732
 23
147.9732164976
 33
0.0
  0
LINE
  5
1A0
330
19B
100
AcDbEntity
  8
VERMASSUNG
100
AcDbLine
 10
158.8744139734
 20
126.9311783166
 30
0.0
 11
158.8744139734
 21
149.4232164976
 31
0.0
  0
LINE
  5
1A1
330
19B
100
AcDbEntity
  8
VERMASSUNG
100
AcDbLine
 10
204.8744139732
 20
130.7802626308
 30
0.0
 11
204.8744139732
 21
149.4232164976
 31
0.0
  0
LINE
  5
1A2
330
19B
100
AcDbEntity
  8
VERMASSUNG
100
AcDbLine
 10
158.8744139734
 20
148.4232164976
 30
0.0
 11
204.8744139732
 21
148.4232164976
 31
0.0
  0
MTEXT
  5
1A3
330
19B
100
AcDbEntity
  8
VERMASSUNG
100
AcDbMText
 10
180.375455168
 20
151.0013520936
 30
0.0
 40
2.0
 41
0.0
 71
     1
 72
     1
  1
46
  7
SLDTEXTSTYLE0
 73
     1
 44
1.0
  0
ENDBLK
  5
19D
330
19B
100
AcDbEntity
  8
0
100
AcDbBlockEnd
  0
ENDSEC
  0
SECTION
  2
ENTITIES
  0
MTEXT
  5
78
330
1F
100
AcDbEntity
  8
KOPF_DÜNN
100
AcDbMText
 10
13.8892156294
 20
23.8442973028
 30
0.0
 40
3.0
 41
0.0
 71
     1
 72
     1
  1
134.540.064.046
  7
SLDTEXTSTYLE0
 73
     1
 44
1.0
  0
MTEXT
  5
79
330
1F
100
AcDbEntity
  8
VERMASSUNG
100
AcDbMText
 10
13.9329988022
 20
28.8834360957
 30
0.0
 40
3.0
 41
0.0
 71
     1
 72
     1
  1
Aufnahme_Master shank ST6+
  7
SLDTEXTSTYLE0
 73
     1
 44
1.0
  0
MTEXT
  5
7A
330
1F
100
AcDbEntity
  8
VERMASSUNG
100
AcDbMText
 10
98.8601118557
 20
13.8365368761
 30
0.0
 40
2.0
 41
0.0
 71
     1
 72
     1
  1
Datum: 05.06.2008
  7
SLDTEXTSTYLE0
 73
     1
 44
1.0
  0
MTEXT
  5
7C
330
1F
100
AcDbEntity
  8
VERMASSUNG
100
AcDbMText
 10
13.933048693
 20
18.0482802738
 30
0.0
 40
2.0
 41
0.0
 71
     1
 72
     1
  1
MAS BT 40 A/D
  7
SLDTEXTSTYLE1
 73
     1
 44
1.0
  0
MTEXT
  5
7D
330
1F
100
AcDbEntity
  8
VERMASSUNG
100
AcDbMText
 10
13.9808475933
 20
13.9090974274
 30
0.0
 40
2.0
 41
0.0
 71
     1
 72
     1
  1
Gewicht: 1017g
  7
SLDTEXTSTYLE0
 73
     1
 44
1.0
  0
LINE
  5
7E
330
1F
100
AcDbEntity
  8
0
  6
Continuous
 62
     7
370
    15
100
AcDbLine
 10
204.2744139734
 20
136.7061783166
 30
0.0
 11
186.5358518011
 21
136.7061783166
 31
0.0
  0
LINE
  5
7F
330
1F
100
AcDbEntity
  8
0
  6
Continuous
 62
     7
370
    15
100
AcDbLine
 10
186.5358518011
 20
72.7061783166
 30
0.0
 11
204.2744139734
 21
72.7061783166
 31
0.0
  0
LINE
  5
80
330
1F
100
AcDbEntity
  8
0
  6
Continuous
 62
     7
370
    15
100
AcDbLine
 10
204.2744139734
 20
72.7061783166
 30
0.0
 11
204.8744139734
 21
73.3061783166
 31
0.0
  0
LINE
  5
81
330
1F
100
AcDbEntity
  8
0
  6
Continuous
 62
     7
370
    15
100
AcDbLine
 10
204.8744139734
 20
136.1061783166
 30
0.0
 11
204.2744139734
 21
136.7061783166
 31
0.0
  0
LINE
  5
82
330
1F
100
AcDbEntity
  8
0
  6
Continuous
 62
     7
370
    15
100
AcDbLine
 10
182.8745689316
 20
73.2061783166
 30
0.0
 11
185.2129761456
 21
73.2061783166
 31
0.0
  0
LINE
  5
83
330
1F
100
AcDbEntity
  8
0
  6
Continuous
 62
     7
370
    15
100
AcDbLine
 10
185.2129761456
 20
136.2061783166
 30
0.0
 11
182.8739138033
 21
136.2061783166
 31
0.0
  0
ARC
  5
84
330
1F
100
AcDbEntity
  8
0
  6
Continuous
 62
     7
370
    15
100
AcDbCircle
 10
186.5358518011
 20
135.7061783166
 30
0.0
 40
1.0
100
AcDbArc
 50
90.0
 51
131.4096221093
  0
ARC
  5
85
330
1F
100
AcDbEntity
  8
0
  6
Continuous
 62
     7
370
    15
100
AcDbCircle
 10
186.5358518011
 20
73.7061783166
 30
0.0
 40
1.000000000000014
100
AcDbArc
 50
228.5903778907
 51
270.0
  0
ARC
  5
86
330
1F
100
AcDbEntity
  8
0
  6
Continuous
 62
     7
370
    15
100
AcDbCircle
 10
185.2129761456
 20
137.2061783166
 30
0.0
 40
1.000000000000004
100
AcDbArc
 50
270.0
 51
311.4096221093
  0
ARC
  5
87
330
1F
100
AcDbEntity
  8
0
  6
Continuous
 62
     7
370
    15
100
AcDbCircle
 10
185.2129761456
 20
72.2061783166
 30
0.0
 40
1.0
100
AcDbArc
 50
48.5903778907
 51
90.0
  0
ARC
  5
88
330
1F
100
AcDbEntity
  8
0
  6
Continuous
 62
     7
370
    15
100
AcDbCircle
 10
159.8744139734
 20
81.4811783166
 30
0.0
 40
1.000000000000019
100
AcDbArc
 50
46.4340346358
 51
90.0
  0
ARC
  5
89
330
1F
100
AcDbEntity
  8
0
  6
Continuous
 62
     7
370
    15
100
AcDbCircle
 10
159.8744139734
 20
127.9311783166
 30
0.0
 40
1.0
100
AcDbArc
 50
270.0
 51
313.5375879762
  0
LINE
  5
8A
330
1F
100
AcDbEntity
  8
0
  6
Continuous
 62
     7
370
    15
100
AcDbLine
 10
158.8744139734
 20
126.9311783166
 30
0.0
 11
94.3301070803
 21
117.5184668947
 31
0.0
  0
LINE
  5
8B
330
1F
100
AcDbEntity
  8
0
  6
Continuous
 62
     7
370
    15
100
AcDbLine
 10
94.3301070803
 20
91.8938897385
 30
0.0
 11
158.8744139734
 21
82.4811783166
 31
0.0
  0
LINE
  5
8C
330
1F
100
AcDbEntity
  8
0
  6
Continuous
 62
     7
370
    15
100
AcDbLine
 10
158.8744139734
 20
82.4811783166
 30
0.0
 11
159.8744139734
 21
82.4811783166
 31
0.0
  0
LINE
  5
8D
330
1F
100
AcDbEntity
  8
0
  6
Continuous
 62
     7
370
    15
100
AcDbLine
 10
159.8744139734
 20
126.9311783166
 30
0.0
 11
158.8744139734
 21
126.9311783166
 31
0.0
  0
ARC
  5
8E
330
1F
100
AcDbEntity
  8
0
  6
Continuous
 62
     7
370
    15
100
AcDbCircle
 10
94.4744139734
 20
92.8834227195
 30
0.0
 40
1.00000000000001
100
AcDbArc
 50
180.0
 51
261.7028550302
  0
ARC
  5
8F
330
1F
100
AcDbEntity
  8
0
  6
Continuous
 62
     7
370
    15
100
AcDbCircle
 10
94.4744139734
 20
116.5289339136
 30
0.0
 40
1.00000000000001
100
AcDbArc
 50
98.2971449698
 51
180.0
  0
SPLINE
  5
90
330
1F
100
AcDbEntity
  8
0
  6
Continuous
 62
     7
370
    15
100
AcDbSpline
210
0.0
220
0.0
230
1.0
 70
    24
 71
     3
 72
    11
 73
     7
 74
     0
 42
0.000000001
 43
0.00000001
 40
0.0
 40
0.0
 40
0.0
 40
0.0
 40
0.1336647920874041
 40
0.4825473608259764
 40
0.8156356561503828
 40
1.0
 40
1.0
 40
1.0
 40
1.0
 10
190.5564647809323
 20
101.7061783165715
 30
0.0
 10
190.4113431027044
 20
101.7061783165715
 30
0.0
 10
189.8874348862332
 20
101.7061783165715
 30
0.0
 10
188.9087109318635
 20
101.7061783165715
 30
0.0
 10
187.857571783147
 20
101.7061783165715
 30
0.0
 10
187.2933802230314
 20
101.7061783165715
 30
0.0
 10
187.0923631657946
 20
101.7061783165715
 30
0.0
  0
SPLINE
  5
91
330
1F
100
AcDbEntity
  8
0
  6
Continuous
 62
     7
370
    15
100
AcDbSpline
210
0.0
220
0.0
230
1.0
 70
    24
 71
     3
 72
    11
 73
     7
 74
     0
 42
0.000000001
 43
0.00000001
 40
0.0
 40
0.0
 40
0.0
 40
0.0
 40
0.2164553779443433
 40
0.4403112895790528
 40
0.7519005688038674
 40
1.0
 40
1.0
 40
1.0
 40
1.0
 10
192.2885155885012
 20
104.7061783165715
 30
0.0
 10
192.1698684299811
 20
104.5006754098411
 30
0.0
 10
191.928517608075
 20
104.0826435238511
 30
0.0
 10
191.4806349434226
 20
103.3068879928438
 30
0.0
 10
191.0002004448397
 20
102.4747510315894
 30
0.0
 10
190.692751215636
 20
101.9422333458606
 30
0.0
 10
190.5564647809323
 20
101.7061783165715
 30
0.0
  0
SPLINE
  5
92
330
1F
100
AcDbEntity
  8
0
  6
Continuous
 62
     7
370
    15
100
AcDbSpline
210
0.0
220
0.0
230
1.0
 70
    24
 71
     3
 72
    11
 73
     7
 74
     0
 42
0.000000001
 43
0.00000001
 40
0.0
 40
0.0
 40
0.0
 40
0.0
 40
0.2164553779443431
 40
0.4403112895790522
 40
0.7519005688038667
 40
1.0
 40
1.0
 40
1.0
 40
1.0
 10
190.5564647809323
 20
107.7061783165716
 30
0.0
 10
190.6751119394524
 20
107.5006754098411
 30
0.0
 10
190.9164627613586
 20
107.0826435238511
 30
0.0
 10
191.364345426011
 20
106.3068879928438
 30
0.0
 10
191.8447799245939
 20
105.4747510315894
 30
0.0
 10
192.1522291537976
 20
104.9422333458606
 30
0.0
 10
192.2885155885012
 20
104.7061783165715
 30
0.0
  0
SPLINE
  5
93
330
1F
100
AcDbEntity
  8
0
  6
Continuous
 62
     7
370
    15
100
AcDbSpline
210
0.0
220
0.0
230
1.0
 70
    24
 71
     3
 72
    11
 73
     7
 74
     0
 42
0.000000001
 43
0.00000001
 40
0.0
 40
0.0
 40
0.0
 40
0.0
 40
0.184364343849618
 40
0.5174526391740235
 40
0.8663352079125959
 40
1.0
 40
1.0
 40
1.0
 40
1.0
 10
187.0923631657946
 20
107.7061783165716
 30
0.0
 10
187.2933802230314
 20
107.7061783165716
 30
0.0
 10
187.857571783147
 20
107.7061783165716
 30
0.0
 10
188.9087109318635
 20
107.7061783165716
 30
0.0
 10
189.8874348862332
 20
107.7061783165716
 30
0.0
 10
190.4113431027044
 20
107.7061783165716
 30
0.0
 10
190.5564647809323
 20
107.7061783165716
 30
0.0
  0
SPLINE
  5
94
330
1F
100
AcDbEntity
  8
0
  6
Continuous
 62
     7
370
    15
100
AcDbSpline
210
0.0
220
0.0
230
1.0
 70
    24
 71
     3
 72
    11
 73
     7
 74
     0
 42
0.000000001
 43
0.00000001
 40
0.0
 40
0.0
 40
0.0
 40
0.0
 40
0.2164553779443429
 40
0.4403112895790532
 40
0.7519005688038677
 40
1.0
 40
1.0
 40
1.0
 40
1.0
 10
185.3603123582257
 20
104.7061783165715
 30
0.0
 10
185.4789595167458
 20
104.911681223302
 30
0.0
 10
185.720310338652
 20
105.329713109292
 30
0.0
 10
186.1681930033044
 20
106.1054686402993
 30
0.0
 10
186.6486275018873
 20
106.9376056015537
 30
0.0
 10
186.956076731091
 20
107.4701232872825
 30
0.0
 10
187.0923631657946
 20
107.7061783165716
 30
0.0
  0
SPLINE
  5
95
330
1F
100
AcDbEntity
  8
0
  6
Continuous
 62
     7
370
    15
100
AcDbSpline
210
0.0
220
0.0
230
1.0
 70
    24
 71
     3
 72
    11
 73
     7
 74
     0
 42
0.000000001
 43
0.00000001
 40
0.0
 40
0.0
 40
0.0
 40
0.0
 40
0.2164553779443424
 40
0.440311289579052
 40
0.7519005688038668
 40
1.0
 40
1.0
 40
1.0
 40
1.0
 10
187.0923631657946
 20
101.7061783165715
 30
0.0
 10
186.9737160072745
 20
101.911681223302
 30
0.0
 10
186.7323651853683
 20
102.329713109292
 30
0.0
 10
186.284482520716
 20
103.1054686402993
 30
0.0
 10
185.8040480221331
 20
103.9376056015537
 30
0.0
 10
185.4965987929293
 20
104.4701232872825
 30
0.0
 10
185.3603123582257
 20
104.7061783165715
 30
0.0
  0
CIRCLE
  5
96
330
1F
100
AcDbEntity
  8
0
  6
Continuous
 62
     7
370
    15
100
AcDbCircle
 10
188.8244139734
 20
104.7061783166
 30
0.0
 40
3.5
  0
CIRCLE
  5
97
330
1F
100
AcDbEntity
  8
0
  6
Continuous
 62
     7
370
    15
100
AcDbCircle
 10
188.8244139734
 20
104.7061783166
 30
0.0
 40
5.5
  0
CIRCLE
  5
98
330
1F
100
AcDbEntity
  8
0
  6
Continuous
 62
     7
370
    15
100
AcDbCircle
 10
188.8244139734
 20
104.7061783166
 30
0.0
 40
6.0
  0
ARC
  5
99
330
1F
100
AcDbEntity
  8
0
  6
Continuous
 62
     7
370
    15
100
AcDbCircle
 10
188.8244139734
 20
104.7061783166
 30
0.0
 40
3.000000000000025
100
AcDbArc
 50
210.0
 51
270.0
  0
ARC
  5
9A
330
1F
100
AcDbEntity
  8
0
  6
Continuous
 62
     7
370
    15
100
AcDbCircle
 10
188.8244139734
 20
104.7061783166
 30
0.0
 40
3.0
100
AcDbArc
 50
270.0
 51
330.0
  0
ARC
  5
9B
330
1F
100
AcDbEntity
  8
0
  6
Continuous
 62
     7
370
    15
100
AcDbCircle
 10
188.8244139734
 20
104.7061783166
 30
0.0
 40
3.000000000000014
100
AcDbArc
 50
30.0
 51
90.0
  0
ARC
  5
9C
330
1F
100
AcDbEntity
  8
0
  6
Continuous
 62
     7
370
    15
100
AcDbCircle
 10
188.8244139734
 20
104.7061783166
 30
0.0
 40
3.000000000000025
100
AcDbArc
 50
150.0
 51
210.0
  0
ARC
  5
9D
330
1F
100
AcDbEntity
  8
0
  6
Continuous
 62
     7
370
    15
100
AcDbCircle
 10
188.8244139734
 20
104.7061783166
 30
0.0
 40
3.0
100
AcDbArc
 50
330.0
 51
30.0
  0
ARC
  5
9E
330
1F
100
AcDbEntity
  8
0
  6
Continuous
 62
     7
370
    15
100
AcDbCircle
 10
188.8244139734
 20
104.7061783166
 30
0.0
 40
3.000000000000025
100
AcDbArc
 50
90.0
 51
150.0
  0
SPLINE
  5
9F
330
1F
100
AcDbEntity
  8
0
  6
Continuous
 62
     7
370
    15
100
AcDbSpline
210
0.0
220
0.0
230
1.0
 70
     8
 71
     3
 72
    56
 73
    52
 74
     0
 42
0.000000001
 43
0.00000001
 40
0.0
 40
0.0
 40
0.0
 40
0.0
 40
0.0624999999999998
 40
0.0624999999999998
 40
0.1249999999999996
 40
0.1249999999999996
 40
0.1874999999999994
 40
0.1874999999999994
 40
0.2499999999999992
 40
0.2499999999999992
 40
0.2812499999999991
 40
0.2812499999999991
 40
0.3124999999999989
 40
0.3124999999999989
 40
0.3437499999999988
 40
0.3437499999999988
 40
0.3749999999999988
 40
0.3749999999999988
 40
0.4374999999999988
 40
0.4374999999999988
 40
0.4687499999999988
 40
0.4687499999999988
 40
0.4999999999999988
 40
0.4999999999999988
 40
0.5312499999999988
 40
0.5312499999999988
 40
0.5624999999999988
 40
0.5624999999999988
 40
0.5937499999999988
 40
0.5937499999999988
 40
0.6249999999999988
 40
0.6249999999999988
 40
0.6562499999999988
 40
0.6562499999999988
 40
0.6874999999999988
 40
0.6874999999999988
 40
0.7499999999999982
 40
0.7499999999999982
 40
0.7812499999999984
 40
0.7812499999999984
 40
0.8124999999999986
 40
0.8124999999999986
 40
0.8437499999999987
 40
0.8437499999999987
 40
0.8749999999999988
 40
0.8749999999999988
 40
0.9374999999999993
 40
0.9374999999999993
 40
0.9687499999999997
 40
0.9687499999999997
 40
1.0
 40
1.0
 40
1.0
 40
1.0
 10
186.5358518011298
 20
111.1555201377355
 30
0.0
 10
187.074693608796
 20
111.3124630944345
 30
0.0
 10
187.6293676770684
 20
111.4135396777589
 30
0.0
 10
188.7642145291849
 20
111.5002529401516
 30
0.0
 10
189.3266454547538
 20
111.4847679775507
 30
0.0
 10
190.441856122296
 20
111.3399459270435
 30
0.0
 10
191.000407095163
 20
111.2077945416221
 30
0.0
 10
192.0605373639498
 20
110.83515088391
 30
0.0
 10
192.5663019078035
 20
110.5954744055213
 30
0.0
 10
193.2865795368528
 20
110.1506541495467
 30
0.0
 10
193.5200056121485
 20
109.9878131233528
 30
0.0
 10
193.9611490574601
 20
109.6410772146846
 30
0.0
 10
194.1705226598159
 20
109.4562387892537
 30
0.0
 10
194.5665391379445
 20
109.0631129537293
 30
0.0
 10
194.7531888178572
 20
108.8548330046872
 30
0.0
 10
195.1023532694948
 20
108.4132065836301
 30
0.0
 10
195.2654228229368
 20
108.1784869808037
 30
0.0
 10
195.7016370248504
 20
107.4558984375816
 30
0.0
 10
195.9279218740423
 20
106.9443599970866
 30
0.0
 10
196.1627735689867
 20
106.1283155467753
 30
0.0
 10
196.2230395773221
 20
105.8477034874222
 30
0.0
 10
196.3029526513248
 20
105.2890329089762
 30
0.0
 10
196.3234121303359
 20
105.0085856598584
 30
0.0
 10
196.3253442855031
 20
104.4454659152205
 30
0.0
 10
196.3066562681425
 20
104.1616387109423
 30
0.0
 10
196.2291869847772
 20
103.5966626411501
 30
0.0
 10
196.1712011701261
 20
103.3200309129193
 30
0.0
 10
196.0187743038104
 20
102.7778326843597
 30
0.0
 10
195.9243251387895
 20
102.5122686984751
 30
0.0
 10
195.6992299400893
 20
101.9920880044179
 30
0.0
 10
195.5685514429624
 20
101.7381871615575
 30
0.0
 10
195.2792357699636
 20
101.25475387714
 30
0.0
 10
195.1198474603864
 20
101.0233609959333
 30
0.0
 10
194.77270599932
 20
100.580335367023
 30
0.0
 10
194.5837301999713
 20
100.367550759827
 30
0.0
 10
193.983596098805
 20
99.76820842556731
 30
0.0
 10
193.5424486514265
 20
99.42141095271232
 30
0.0
 10
192.8228543994713
 20
98.97451699160014
 30
0.0
 10
192.5725446016907
 20
98.83779203824638
 30
0.0
 10
192.0637485413072
 20
98.59466277183851
 30
0.0
 10
191.8039715039146
 20
98.48736141934869
 30
0.0
 10
191.2739396198516
 20
98.30038105462232
 30
0.0
 10
191.003683823027
 20
98.2207048861371
 30
0.0
 10
190.4525617300826
 20
98.08919844894966
 30
0.0
 10
190.1713672571263
 20
98.03753260314524
 30
0.0
 10
189.3309853914276
 20
97.92766585399586
 30
0.0
 10
188.7686730161182
 20
97.91228566575478
 30
0.0
 10
187.922108419693
 20
97.97619259125842
 30
0.0
 10
187.6382084392516
 20
98.01245830220415
 30
0.0
 10
187.0809143922889
 20
98.11340498170108
 30
0.0
 10
186.8063527092238
 20
98.17805045523392
 30
0.0
 10
186.5358518011297
 20
98.2568364954076
 30
0.0
  0
LINE
  5
A0
330
1F
100
AcDbEntity
  8
0
  6
Continuous
 62
     7
370
    15
100
AcDbLine
 10
204.2744139734
 20
104.7061783166
 30
0.0
 11
204.2744139734
 21
72.7061783166
 31
0.0
  0
LINE
  5
A1
330
1F
100
AcDbEntity
  8
0
  6
Continuous
 62
     7
370
    15
100
AcDbLine
 10
204.2744139734
 20
136.7061783166
 30
0.0
 11
204.2744139734
 21
104.7061783166
 31
0.0
  0
SPLINE
  5
A2
330
1F
100
AcDbEntity
  8
0
  6
Continuous
 62
     7
370
    15
100
AcDbSpline
210
0.0
220
0.0
230
1.0
 70
     8
 71
     3
 72
    10
 73
     6
 74
     0
 42
0.000000001
 43
0.00000001
 40
0.0
 40
0.0
 40
0.0
 40
0.0
 40
0.5
 40
0.5
 40
1.0
 40
1.0
 40
1.0
 40
1.0
 10
186.5358518011297
 20
98.25683649540761
 30
0.0
 10
186.4001187805344
 20
98.29637006773038
 30
0.0
 10
186.2747683799423
 20
98.36109073501181
 30
0.0
 10
186.0522788819434
 20
98.51993402226881
 30
0.0
 10
185.9564055173733
 20
98.61275694401795
 30
0.0
 10
185.8744139733487
 20
98.71359009511768
 30
0.0
  0
SPLINE
  5
A3
330
1F
100
AcDbEntity
  8
0
  6
Continuous
 62
     7
370
    15
100
AcDbSpline
210
0.0
220
0.0
230
1.0
 70
     8
 71
     3
 72
    10
 73
     6
 74
     0
 42
0.000000001
 43
0.00000001
 40
0.0
 40
0.0
 40
0.0
 40
0.0
 40
0.5
 40
0.5
 40
1.0
 40
1.0
 40
1.0
 40
1.0
 10
185.8744139733487
 20
98.7135900951177
 30
0.0
 10
185.7874227170344
 20
98.82057188935231
 30
0.0
 10
185.6885505157236
 20
98.92134558064124
 30
0.0
 10
185.4656390438899
 20
99.11063299780201
 30
0.0
 10
185.3438789040903
 20
99.19724443161826
 30
0.0
 10
185.2129761455973
 20
99.26908064669156
 30
0.0
  0
SPLINE
  5
A4
330
1F
100
AcDbEntity
  8
0
  6
Continuous
 62
     7
370
    15
100
AcDbSpline
210
0.0
220
0.0
230
1.0
 70
     8
 71
     3
 72
    32
 73
    28
 74
     0
 42
0.000000001
 43
0.00000001
 40
0.0
 40
0.0
 40
0.0
 40
0.0
 40
0.1250000000000001
 40
0.1250000000000001
 40
0.1874999999999998
 40
0.1874999999999998
 40
0.2499999999999996
 40
0.2499999999999996
 40
0.3124999999999994
 40
0.3124999999999994
 40
0.3749999999999994
 40
0.3749999999999994
 40
0.4374999999999993
 40
0.4374999999999993
 40
0.4999999999999992
 40
0.4999999999999992
 40
0.6249999999999991
 40
0.6249999999999991
 40
0.749999999999999
 40
0.749999999999999
 40
0.8124999999999992
 40
0.8124999999999992
 40
0.8749999999999994
 40
0.8749999999999994
 40
0.9374999999999998
 40
0.9374999999999998
 40
1.0
 40
1.0
 40
1.0
 40
1.0
 10
185.212976145597
 20
110.1432759864514
 30
0.0
 10
184.7222906386929
 20
109.8739998458022
 30
0.0
 10
184.2690428338129
 20
109.5520304857886
 30
0.0
 10
183.6488475546815
 20
108.9839142101526
 30
0.0
 10
183.4524660372177
 20
108.7799506910118
 30
0.0
 10
183.0924147641776
 20
108.3542801428226
 30
0.0
 10
182.9271145816384
 20
108.1311960240042
 30
0.0
 10
182.6267013809543
 20
107.6638910732335
 30
0.0
 10
182.4915749290043
 20
107.41967996421
 30
0.0
 10
182.2539347241596
 20
106.9083068276305
 30
0.0
 10
182.1530649211112
 20
106.64396398647
 30
0.0
 10
181.9915543980811
 20
106.1093527099295
 30
0.0
 10
181.9301026751794
 20
105.8374027812544
 30
0.0
 10
181.8467864539814
 20
105.2839563140098
 30
0.0
 10
181.82499342981
 20
104.9998989578579
 30
0.0
 10
181.823289847782
 20
104.1533118449988
 30
0.0
 10
181.9041717620002
 20
103.5996009466165
 30
0.0
 10
182.2280157969909
 20
102.5132209361437
 30
0.0
 10
182.463716004425
 20
102.0053090587193
 30
0.0
 10
182.9176523268866
 20
101.294308038193
 30
0.0
 10
183.0859700558835
 20
101.0663468302602
 30
0.0
 10
183.4465180052754
 20
100.6388088974042
 30
0.0
 10
183.6397651745385
 20
100.4375467030625
 30
0.0
 10
184.0513200580989
 20
100.0590190715861
 30
0.0
 10
184.2708506347859
 20
99.88094021233702
 30
0.0
 10
184.728654793796
 20
99.5535824774693
 30
0.0
 10
184.9664775130884
 20
99.40435303502043
 30
0.0
 10
185.2129761455973
 20
99.26908064669156
 30
0.0
  0
SPLINE
  5
A5
330
1F
100
AcDbEntity
  8
0
  6
Continuous
 62
     7
370
    15
100
AcDbSpline
210
0.0
220
0.0
230
1.0
 70
     8
 71
     3
 72
    10
 73
     6
 74
     0
 42
0.000000001
 43
0.00000001
 40
0.0
 40
0.0
 40
0.0
 40
0.0
 40
0.5
 40
0.5
 40
1.0
 40
1.0
 40
1.0
 40
1.0
 10
185.212976145597
 20
110.1432759864514
 30
0.0
 10
185.3441202459169
 20
110.2152446439848
 30
0.0
 10
185.4638107823251
 20
110.3003625452312
 30
0.0
 10
185.6867352171812
 20
110.489281282654
 30
0.0
 10
185.7873526350303
 20
110.5916985569768
 30
0.0
 10
185.8744139733612
 20
110.6987665380343
 30
0.0
  0
SPLINE
  5
A6
330
1F
100
AcDbEntity
  8
0
  6
Continuous
 62
     7
370
    15
100
AcDbSpline
210
0.0
220
0.0
230
1.0
 70
     8
 71
     3
 72
    10
 73
     6
 74
     0
 42
0.000000001
 43
0.00000001
 40
0.0
 40
0.0
 40
0.0
 40
0.0
 40
0.5
 40
0.5
 40
1.0
 40
1.0
 40
1.0
 40
1.0
 10
185.8744139733578
 20
110.6987665380366
 30
0.0
 10
185.9565381264689
 20
110.7997627717085
 30
0.0
 10
186.0512080858943
 20
110.8914664992168
 30
0.0
 10
186.273278331584
 20
111.0503915339517
 30
0.0
 10
186.3996493277486
 20
111.1158498326886
 30
0.0
 10
186.5358518011298
 20
111.1555201377355
 30
0.0
  0
LINE
  5
A7
330
1F
100
AcDbEntity
  8
0
  6
Continuous
 62
     7
370
    15
100
AcDbLine
 10
204.8744139734
 20
104.7061783166
 30
0.0
 11
204.8744139734
 21
73.3061783166
 31
0.0
  0
LINE
  5
A8
330
1F
100
AcDbEntity
  8
0
  6
Continuous
 62
     7
370
    15
100
AcDbLine
 10
204.8744139734
 20
136.1061783166
 30
0.0
 11
204.8744139734
 21
104.7061783166
 31
0.0
  0
SPLINE
  5
A9
330
1F
100
AcDbEntity
  8
0
  6
Continuous
 62
     7
370
    15
100
AcDbSpline
210
0.0
220
0.0
230
1.0
 70
     8
 71
     3
 72
    10
 73
     6
 74
     0
 42
0.000000001
 43
0.00000001
 40
0.0
 40
0.0
 40
0.0
 40
0.0
 40
0.5
 40
0.5
 40
1.0
 40
1.0
 40
1.0
 40
1.0
 10
179.851022377409
 20
134.6106390379257
 30
0.0
 10
179.5349185462695
 20
133.9907764796485
 30
0.0
 10
179.2051395019247
 20
133.3448757443497
 30
0.0
 10
178.5329162295359
 20
132.0304571040492
 30
0.0
 10
178.1907830636053
 20
131.3625348770369
 30
0.0
 10
177.8436027350912
 20
130.6861971445554
 30
0.0
  0
SPLINE
  5
AA
330
1F
100
AcDbEntity
  8
0
  6
Continuous
 62
     7
370
    15
100
AcDbSpline
210
0.0
220
0.0
230
1.0
 70
     8
 71
     3
 72
     9
 73
     5
 74
     0
 42
0.000000001
 43
0.00000001
 40
0.0
 40
0.0
 40
0.0
 40
0.0
 40
0.5067595796178751
 40
1.0
 40
1.0
 40
1.0
 40
1.0
 10
180.500044516348
 20
135.5683134239205
 30
0.0
 10
180.389644168566
 20
135.4062384855862
 30
0.0
 10
180.1717886958283
 20
135.0864123888471
 30
0.0
 10
179.9571955936197
 20
134.7680644092099
 30
0.0
 10
179.8513496016753
 20
134.6110423179058
 30
0.0
  0
LINE
  5
AB
330
1F
100
AcDbEntity
  8
0
  6
Continuous
 62
     7
370
    15
100
AcDbLine
 10
180.4994139734
 20
73.845080297
 30
0.0
 11
180.4994139734
 21
135.5672600711
 31
0.0
  0
SPLINE
  5
AC
330
1F
100
AcDbEntity
  8
0
  6
Continuous
 62
     7
370
    15
100
AcDbSpline
210
0.0
220
0.0
230
1.0
 70
     8
 71
     3
 72
     9
 73
     5
 74
     0
 42
0.000000001
 43
0.00000001
 40
0.0
 40
0.0
 40
0.0
 40
0.0
 40
0.4932426502230348
 40
1.0
 40
1.0
 40
1.0
 40
1.0
 10
179.8513356866524
 20
74.80131221486677
 30
0.0
 10
179.9571817916637
 20
74.6442889752066
 30
0.0
 10
180.1717741529757
 20
74.32594010657337
 30
0.0
 10
180.3896284409359
 20
74.00611405986984
 30
0.0
 10
180.5000277025401
 20
73.84403986005272
 30
0.0
  0
SPLINE
  5
AD
330
1F
100
AcDbEntity
  8
0
  6
Continuous
 62
     7
370
    15
100
AcDbSpline
210
0.0
220
0.0
230
1.0
 70
     8
 71
     3
 72
    10
 73
     6
 74
     0
 42
0.000000001
 43
0.00000001
 40
0.0
 40
0.0
 40
0.0
 40
0.0
 40
0.5
 40
0.5
 40
1.0
 40
1.0
 40
1.0
 40
1.0
 10
179.8510164577411
 20
74.80172920336652
 30
0.0
 10
179.534837355067
 20
75.42173935538024
 30
0.0
 10
179.2043951279
 20
76.06893742124794
 30
0.0
 10
178.5326836072173
 20
77.38235334584171
 30
0.0
 10
178.1907097321854
 20
78.0499646121445
 30
0.0
 10
177.8436027350912
 20
78.72615948858767
 30
0.0
  0
SPLINE
  5
AE
330
1F
100
AcDbEntity
  8
0
  6
Continuous
 62
     7
370
    15
100
AcDbSpline
210
0.0
220
0.0
230
1.0
 70
     8
 71
     3
 72
    11
 73
     7
 74
     0
 42
0.000000001
 43
0.00000001
 40
0.0
 40
0.0
 40
0.0
 40
0.0
 40
0.2488814606695658
 40
0.5011921284368381
 40
0.7520447562540515
 40
1.0
 40
1.0
 40
1.0
 40
1.0
 10
182.8739138033464
 20
136.2060285711651
 30
0.0
 10
182.8441354738469
 20
136.1968965450208
 30
0.0
 10
182.7841685148659
 20
136.178506667334
 30
0.0
 10
182.292246453119
 20
136.0344694188489
 30
0.0
 10
181.5641770304997
 20
135.8250663407377
 30
0.0
 10
180.853433559322
 20
135.6528620713888
 30
0.0
 10
180.5001260421724
 20
135.5672600710701
 30
0.0
  0
SPLINE
  5
AF
330
1F
100
AcDbEntity
  8
0
  6
Continuous
 62
     7
370
    15
100
AcDbSpline
210
0.0
220
0.0
230
1.0
 70
     8
 71
     3
 72
    24
 73
    20
 74
     0
 42
0.000000001
 43
0.00000001
 40
0.0
 40
0.0
 40
0.0
 40
0.0
 40
0.0452304145230468
 40
0.0903354254807773
 40
0.1353632524017138
 40
0.1803623629163211
 40
0.2253813173811786
 40
0.2704686120121845
 40
0.3156725230495646
 40
0.3610409544388638
 40
0.4066212913821985
 40
0.4524602619010737
 40
0.4986038082699224
 40
0.5832834063274132
 40
0.6671222514847349
 40
0.7504134308293638
 40
0.8334558303783486
 40
0.9165510206949746
 40
0.9999999999999999
 40
0.9999999999999999
 40
0.9999999999999999
 40
0.9999999999999999
 10
180.5000326667811
 20
73.84508029703608
 30
0.0
 10
180.5677364086839
 20
73.82932125601857
 30
0.0
 10
180.7029561805103
 20
73.79784686670563
 30
0.0
 10
180.8956178973483
 20
73.75138606336685
 30
0.0
 10
181.080354768997
 20
73.70575508373481
 30
0.0
 10
181.2564727102881
 20
73.66112978630171
 30
0.0
 10
181.4241565029006
 20
73.61764249970228
 30
0.0
 10
181.5833559871898
 20
73.57544145190583
 30
0.0
 10
181.734084125682
 20
73.53467485958731
 30
0.0
 10
181.8763370790843
 20
73.49549510700258
 30
0.0
 10
182.0101158343105
 20
73.45805781511118
 30
0.0
 10
182.1354197447122
 20
73.42252123147183
 30
0.0
 10
182.2844682944929
 20
73.3798192159971
 30
0.0
 10
182.4452338718603
 20
73.33331052496563
 30
0.0
 10
182.6011599566603
 20
73.28765063477042
 30
0.0
 10
182.7227849745868
 20
73.25162036606038
 30
0.0
 10
182.8092607038081
 20
73.22573884111122
 30
0.0
 10
182.8636796111552
 20
73.20930276458554
 30
0.0
 10
182.870828152737
 20
73.2072214059974
 30
0.0
 10
182.8744100163343
 20
73.20617851599326
 30
0.0
  0
LINE
  5
B0
330
1F
100
AcDbEntity
  8
0
  6
Continuous
 62
     7
370
    15
100
AcDbLine
 10
170.4494139734
 20
134.9425684196
 30
0.0
 11
161.8744139734
 21
134.9425684196
 31
0.0
  0
LINE
  5
B1
330
1F
100
AcDbEntity
  8
0
  6
Continuous
 62
     7
370
    15
100
AcDbLine
 10
170.4494139734
 20
74.4697882136
 30
0.0
 11
170.4494139734
 21
134.9425684196
 31
0.0
  0
LINE
  5
B2
330
1F
100
AcDbEntity
  8
0
  6
Continuous
 62
     7
370
    15
100
AcDbLine
 10
161.8744139734
 20
74.4697882136
 30
0.0
 11
170.4494139734
 21
74.4697882136
 31
0.0
  0
SPLINE
  5
B3
330
1F
100
AcDbEntity
  8
0
  6
Continuous
 62
     7
370
    15
100
AcDbSpline
210
0.0
220
0.0
230
1.0
 70
     8
 71
     3
 72
     8
 73
     4
 74
     0
 42
0.000000001
 43
0.00000001
 40
0.0
 40
0.0
 40
0.0
 40
0.0
 40
0.0012389803509652
 40
0.0012389803509652
 40
0.0012389803509652
 40
0.0012389803509652
 10
171.0069755168972
 20
134.160201039358
 30
0.0
 10
170.8218555437644
 20
134.421251020737
 30
0.0
 10
170.6359770960055
 20
134.682032633856
 30
0.0
 10
170.4494139733634
 20
134.9425684195734
 30
0.0
  0
SPLINE
  5
B4
330
1F
100
AcDbEntity
  8
0
  6
Continuous
 62
     7
370
    15
100
AcDbSpline
210
0.0
220
0.0
230
1.0
 70
     8
 71
     3
 72
     8
 73
     4
 74
     0
 42
0.000000001
 43
0.00000001
 40
0.0
 40
0.0
 40
0.0
 40
0.0
 40
1.0
 40
1.0
 40
1.0
 40
1.0
 10
173.1052252116357
 20
130.3734239810366
 30
0.0
 10
172.4089318455942
 20
131.6373623491514
 30
0.0
 10
171.7091366804031
 20
132.8994177946596
 30
0.0
 10
171.0069755168972
 20
134.160201039358
 30
0.0
  0
SPLINE
  5
B5
330
1F
100
AcDbEntity
  8
0
  6
Continuous
 62
     7
370
    15
100
AcDbSpline
210
0.0
220
0.0
230
1.0
 70
     8
 71
     3
 72
     8
 73
     4
 74
     0
 42
0.000000001
 43
0.00000001
 40
0.0
 40
0.0
 40
0.0
 40
0.0
 40
1.0
 40
1.0
 40
1.0
 40
1.0
 10
173.1052252116357
 20
79.03893265210648
 30
0.0
 10
172.4089070709778
 20
77.77494931215969
 30
0.0
 10
171.7091098788673
 20
76.51289071430773
 30
0.0
 10
171.0069755168972
 20
75.25215559378503
 30
0.0
  0
SPLINE
  5
B6
330
1F
100
AcDbEntity
  8
0
  6
Continuous
 62
     7
370
    15
100
AcDbSpline
210
0.0
220
0.0
230
1.0
 70
     8
 71
     3
 72
     8
 73
     4
 74
     0
 42
0.000000001
 43
0.00000001
 40
0.0
 40
0.0
 40
0.0
 40
0.0
 40
0.0012389803509652
 40
0.0012389803509652
 40
0.0012389803509652
 40
0.0012389803509652
 10
170.4494139733634
 20
74.4697882135697
 30
0.0
 10
170.6359770960054
 20
74.73032399928704
 30
0.0
 10
170.8218555437644
 20
74.99110561240605
 30
0.0
 10
171.0069755168972
 20
75.25215559378503
 30
0.0
  0
LINE
  5
B7
330
1F
100
AcDbEntity
  8
0
  6
Continuous
 62
     7
370
    15
100
AcDbLine
 10
160.8744139734
 20
75.5797727711
 30
0.0
 11
160.8744139734
 21
133.8325838621
 31
0.0
  0
SPLINE
  5
B8
330
1F
100
AcDbEntity
  8
0
  6
Continuous
 62
     7
370
    15
100
AcDbSpline
210
0.0
220
0.0
230
1.0
 70
     8
 71
     3
 72
    12
 73
     8
 74
     0
 42
0.000000001
 43
0.00000001
 40
0.0
 40
0.0
 40
0.0
 40
0.0
 40
0.2500000000000001
 40
0.2500000000000001
 40
0.5000000000000002
 40
0.5000000000000002
 40
1.0
 40
1.0
 40
1.0
 40
1.0
 10
161.261446796329
 20
134.7731682163925
 30
0.0
 10
161.2095860451409
 20
134.7163556440781
 30
0.0
 10
161.160854248122
 20
134.6543634578263
 30
0.0
 10
161.0706812382046
 20
134.5183103847023
 30
0.0
 10
161.0289039899196
 20
134.4434042821036
 30
0.0
 10
160.9228151200737
 20
134.2052776468062
 30
0.0
 10
160.8744139733635
 20
134.0218709152374
 30
0.0
 10
160.8744139733635
 20
133.8325838620555
 30
0.0
  0
SPLINE
  5
B9
330
1F
100
AcDbEntity
  8
0
  6
Continuous
 62
     7
370
    15
100
AcDbSpline
210
0.0
220
0.0
230
1.0
 70
     8
 71
     3
 72
     8
 73
     4
 74
     0
 42
0.000000001
 43
0.00000001
 40
0.0
 40
0.0
 40
0.0
 40
0.0
 40
1.0
 40
1.0
 40
1.0
 40
1.0
 10
161.8744139733635
 20
134.9425684195734
 30
0.0
 10
161.6480696597636
 20
134.9425684195734
 30
0.0
 10
161.4306175393585
 20
134.8791999505525
 30
0.0
 10
161.261446796329
 20
134.7731682163925
 30
0.0
  0
SPLINE
  5
BA
330
1F
100
AcDbEntity
  8
0
  6
Continuous
 62
     7
370
    15
100
AcDbSpline
210
0.0
220
0.0
230
1.0
 70
     8
 71
     3
 72
     8
 73
     4
 74
     0
 42
0.000000001
 43
0.00000001
 40
0.0
 40
0.0
 40
0.0
 40
0.0
 40
1.0
 40
1.0
 40
1.0
 40
1.0
 10
161.261446796329
 20
74.63918841675057
 30
0.0
 10
161.431040301981
 20
74.53289170619338
 30
0.0
 10
161.6474089943142
 20
74.4697882135697
 30
0.0
 10
161.8744139733635
 20
74.4697882135697
 30
0.0
  0
SPLINE
  5
BB
330
1F
100
AcDbEntity
  8
0
  6
Continuous
 62
     7
370
    15
100
AcDbSpline
210
0.0
220
0.0
230
1.0
 70
     8
 71
     3
 72
    12
 73
     8
 74
     0
 42
0.000000001
 43
0.00000001
 40
0.0
 40
0.0
 40
0.0
 40
0.0
 40
0.2499999999999976
 40
0.2499999999999976
 40
0.4999999999999952
 40
0.4999999999999952
 40
1.0
 40
1.0
 40
1.0
 40
1.0
 10
161.261446796329
 20
74.63918841675057
 30
0.0
 10
161.2095860451409
 20
74.69600098906496
 30
0.0
 10
161.160854248122
 20
74.75799317531678
 30
0.0
 10
161.0706812382046
 20
74.89404624844077
 30
0.0
 10
161.0289039899196
 20
74.9689523510395
 30
0.0
 10
160.9228151200737
 20
75.20707898633691
 30
0.0
 10
160.8744139733635
 20
75.39048571790569
 30
0.0
 10
160.8744139733635
 20
75.57977277108756
 30
0.0
  0
SPLINE
  5
BC
330
1F
100
AcDbEntity
  8
0
  6
Continuous
 62
     7
370
    15
100
AcDbSpline
210
0.0
220
0.0
230
1.0
 70
     8
 71
     3
 72
    12
 73
     8
 74
     0
 42
0.000000001
 43
0.00000001
 40
0.0
 40
0.0
 40
0.0
 40
0.0
 40
0.2499999999999968
 40
0.2499999999999968
 40
0.4999999999999936
 40
0.4999999999999936
 40
1.0
 40
1.0
 40
1.0
 40
1.0
 10
177.8436027350912
 20
130.6861971445554
 30
0.0
 10
177.8076985847547
 20
130.6162527104073
 30
0.0
 10
177.7651670326251
 20
130.5530013473494
 30
0.0
 10
177.6683727557852
 20
130.4379426924335
 30
0.0
 10
177.6132830775208
 20
130.3856141587215
 30
0.0
 10
177.4351498439669
 20
130.2518292556364
 30
0.0
 10
177.2977727519643
 20
130.1912814884783
 30
0.0
 10
177.1507824120644
 20
130.1720815400944
 30
0.0
  0
SPLINE
  5
BD
330
1F
100
AcDbEntity
  8
0
  6
Continuous
 62
     7
370
    15
100
AcDbSpline
210
0.0
220
0.0
230
1.0
 70
     8
 71
     3
 72
    12
 73
     8
 74
     0
 42
0.000000001
 43
0.00000001
 40
0.0
 40
0.0
 40
0.0
 40
0.0
 40
0.2500000000000022
 40
0.2500000000000022
 40
0.5000000000000044
 40
0.5000000000000044
 40
1.0
 40
1.0
 40
1.0
 40
1.0
 10
177.8436027350912
 20
78.72615948858765
 30
0.0
 10
177.8076985847547
 20
78.79610392273581
 30
0.0
 10
177.7651670326251
 20
78.85935528579365
 30
0.0
 10
177.6683727557852
 20
78.97441394070958
 30
0.0
 10
177.6132830775208
 20
79.02674247442157
 30
0.0
 10
177.4351498439669
 20
79.16052737750664
 30
0.0
 10
177.2977727519643
 20
79.22107514466481
 30
0.0
 10
177.1507824120644
 20
79.2402750930487
 30
0.0
  0
SPLINE
  5
BE
330
1F
100
AcDbEntity
  8
0
  6
Continuous
 62
     7
370
    15
100
AcDbSpline
210
0.0
220
0.0
230
1.0
 70
     8
 71
     3
 72
    10
 73
     6
 74
     0
 42
0.000000001
 43
0.00000001
 40
0.0
 40
0.0
 40
0.0
 40
0.0
 40
0.5
 40
0.5
 40
1.0
 40
1.0
 40
1.0
 40
1.0
 10
173.7980455346633
 20
129.9539009861511
 30
0.0
 10
173.6560282222163
 20
129.9539009861511
 30
0.0
 10
173.515581175354
 20
129.9943908383606
 30
0.0
 10
173.2739912560928
 20
130.1423266682997
 30
0.0
 10
173.1733138138395
 20
130.2498269442792
 30
0.0
 10
173.1052252116359
 20
130.3734239810363
 30
0.0
  0
SPLINE
  5
BF
330
1F
100
AcDbEntity
  8
0
  6
Continuous
 62
     7
370
    15
100
AcDbSpline
210
0.0
220
0.0
230
1.0
 70
     8
 71
     3
 72
    10
 73
     6
 74
     0
 42
0.000000001
 43
0.00000001
 40
0.0
 40
0.0
 40
0.0
 40
0.0
 40
0.5
 40
0.5
 40
1.0
 40
1.0
 40
1.0
 40
1.0
 10
173.7980455346633
 20
79.45845564699201
 30
0.0
 10
173.6571881701526
 20
79.45845564699201
 30
0.0
 10
173.5143540386784
 20
79.41735174117332
 30
0.0
 10
173.2740923479051
 20
79.26995384787236
 30
0.0
 10
173.1733860788256
 20
79.16266086703271
 30
0.0
 10
173.1052252116357
 20
79.0389326521065
 30
0.0
  0
LINE
  5
C0
330
1F
100
AcDbEntity
  8
0
  6
Continuous
 62
     7
370
    15
100
AcDbLine
 10
173.8244139734
 20
79.458455647
 30
0.0
 11
173.7980455347
 21
79.458455647
 31
0.0
  0
LINE
  5
C1
330
1F
100
AcDbEntity
  8
0
  6
Continuous
 62
     7
370
    15
100
AcDbLine
 10
173.8244139734
 20
129.9539009862
 30
0.0
 11
173.7980455347
 21
129.9539009862
 31
0.0
  0
SPLINE
  5
C2
330
1F
100
AcDbEntity
  8
0
  6
Continuous
 62
     7
370
    15
100
AcDbSpline
210
0.0
220
0.0
230
1.0
 70
     8
 71
     3
 72
    10
 73
     6
 74
     0
 42
0.000000001
 43
0.00000001
 40
0.0
 40
0.0
 40
0.0
 40
0.0
 40
0.5
 40
0.5
 40
1.0
 40
1.0
 40
1.0
 40
1.0
 10
177.1507824120637
 20
130.1720815400973
 30
0.0
 10
176.6288676876677
 20
130.1039087895891
 30
0.0
 10
176.0900165075583
 20
130.0492855246312
 30
0.0
 10
174.9786538655262
 20
129.9741896717399
 30
0.0
 10
174.4018130883302
 20
129.9539009861511
 30
0.0
 10
173.8244139733634
 20
129.9539009861511
 30
0.0
  0
SPLINE
  5
C3
330
1F
100
AcDbEntity
  8
0
  6
Continuous
 62
     7
370
    15
100
AcDbSpline
210
0.0
220
0.0
230
1.0
 70
     8
 71
     3
 72
    10
 73
     6
 74
     0
 42
0.000000001
 43
0.00000001
 40
0.0
 40
0.0
 40
0.0
 40
0.0
 40
0.5
 40
0.5
 40
1.0
 40
1.0
 40
1.0
 40
1.0
 10
177.1507824120637
 20
79.24027509304577
 30
0.0
 10
176.6288676876677
 20
79.30844784355398
 30
0.0
 10
176.0900165075583
 20
79.3630711085119
 30
0.0
 10
174.9786538655262
 20
79.43816696140325
 30
0.0
 10
174.4018130883302
 20
79.45845564699202
 30
0.0
 10
173.8244139733634
 20
79.45845564699202
 30
0.0
  0
SPLINE
  5
C4
330
1F
100
AcDbEntity
  8
0
  6
Continuous
 62
     7
370
    15
100
AcDbSpline
210
0.0
220
0.0
230
1.0
 70
    24
 71
     3
 72
    10
 73
     6
 74
     0
 42
0.000000001
 43
0.00000001
 40
0.0
 40
0.0
 40
0.0
 40
0.0
 40
0.2819318327666944
 40
0.9999940311656386
 40
1.0
 40
1.0
 40
1.0
 40
1.0
 10
160.7203213118869
 20
127.2061783165716
 30
0.0
 10
160.699220619631
 20
127.2061783165687
 30
0.0
 10
160.6243778248241
 20
127.2061783165587
 30
0.0
 10
160.533754464652
 20
127.2061783166555
 30
0.0
 10
160.5631633279683
 20
127.2061783165716
 30
0.0
 10
160.5631635724251
 20
127.2061783165716
 30
0.0
  0
SPLINE
  5
C5
330
1F
100
AcDbEntity
  8
0
  6
Continuous
 62
     7
370
    15
100
AcDbSpline
210
0.0
220
0.0
230
1.0
 70
    24
 71
     3
 72
     9
 73
     5
 74
     0
 42
0.000000001
 43
0.00000001
 40
0.0
 40
0.0
 40
0.0
 40
0.0
 40
0.6842861662181933
 40
1.0
 40
1.0
 40
1.0
 40
1.0
 10
160.5631636741436
 20
82.20617831657154
 30
0.0
 10
160.5822298559089
 20
82.20617831657155
 30
0.0
 10
160.6100927336149
 20
82.20617831657155
 30
0.0
 10
160.6924246765882
 20
82.20617831657154
 30
0.0
 10
160.718418009947
 20
82.20617831657154
 30
0.0
  0
LINE
  5
C6
330
1F
100
AcDbEntity
  8
0
  6
Continuous
 62
     7
370
    15
100
AcDbLine
 10
158.8744139734
 20
82.4811783166
 30
0.0
 11
158.8744139734
 21
126.9311783166
 31
0.0
  0
LINE
  5
C7
330
1F
100
AcDbEntity
  8
0
  6
Continuous
 62
     7
370
    15
100
AcDbLine
 10
93.4744139734
 20
92.8834227195
 30
0.0
 11
93.4744139734
 21
116.5289338711
 31
0.0
  0
LINE
  5
C8
330
1F
100
AcDbEntity
  8
0
  6
HIDDEN
 62
     7
370
     0
100
AcDbLine
 10
204.2744139734
 20
72.7061783166
 30
0.0
 11
204.2744139734
 21
136.7061783166
 31
0.0
  0
CIRCLE
  5
C9
330
1F
100
AcDbEntity
  8
0
  6
HIDDEN
 62
     7
370
     0
100
AcDbCircle
 10
188.8244139734
 20
104.7061783166
 30
0.0
 40
5.5
  0
LINE
  5
CA
330
1F
100
AcDbEntity
  8
0
  6
HIDDEN
 62
     7
370
     0
100
AcDbLine
 10
204.8744139734
 20
73.3061783166
 30
0.0
 11
204.8744139734
 21
136.1061783166
 31
0.0
  0
SPLINE
  5
CB
330
1F
100
AcDbEntity
  8
0
  6
HIDDEN
 62
     7
370
     0
100
AcDbSpline
210
0.0
220
0.0
230
1.0
 70
     8
 71
     3
 72
    12
 73
     8
 74
     0
 42
0.000000001
 43
0.00000001
 40
0.0
 40
0.0
 40
0.0
 40
0.0
 40
0.2471365091261242
 40
0.4974781639268134
 40
0.7497011086519244
 40
0.9992017940243719
 40
1.0
 40
1.0
 40
1.0
 40
1.0
 10
180.5009052241458
 20
135.5671237257997
 30
0.0
 10
180.8527312250991
 20
135.652171069976
 30
0.0
 10
181.5609461043773
 20
135.8233687484464
 30
0.0
 10
182.3016217188685
 20
136.0366094401447
 30
0.0
 10
182.7465897919501
 20
136.1663970518055
 30
0.0
 10
182.9263323725746
 20
136.2217263847552
 30
0.0
 10
182.874080435361
 20
136.2060784725329
 30
0.0
 10
182.8739138033464
 20
136.2060285711651
 30
0.0
  0
LINE
  5
CC
330
1F
100
AcDbEntity
  8
0
  6
HIDDEN
 62
     7
370
     0
100
AcDbLine
 10
180.4994139734
 20
135.5671237258
 30
0.0
 11
180.4994139734
 21
73.8452426401
 31
0.0
  0
SPLINE
  5
CD
330
1F
100
AcDbEntity
  8
0
  6
HIDDEN
 62
     7
370
     0
100
AcDbSpline
210
0.0
220
0.0
230
1.0
 70
     8
 71
     3
 72
    17
 73
    13
 74
     0
 42
0.000000001
 43
0.00000001
 40
0.0
 40
0.0
 40
0.0
 40
0.0
 40
0.0004909084072919
 40
0.0005116394852635
 40
0.2498351754845136
 40
0.5021944977214489
 40
0.5865777378672907
 40
0.6700037584518806
 40
0.7527614182929998
 40
0.8351466077306873
 40
0.9174592349446918
 40
1.0
 40
1.0
 40
1.0
 40
1.0
 10
182.8744100163343
 20
73.20617851599326
 30
0.0
 10
182.8744116877009
 20
73.20617841944954
 30
0.0
 10
182.8744134296495
 20
73.20617831882878
 30
0.0
 10
182.8750324517605
 20
73.20617720758901
 30
0.0
 10
182.7708881558763
 20
73.23839382627432
 30
0.0
 10
182.4024033525297
 20
73.34675499420385
 30
0.0
 10
182.035790797979
 20
73.45158567101731
 30
0.0
 10
181.7862592643414
 20
73.52127837599646
 30
0.0
 10
181.5084734713043
 20
73.59642008485486
 30
0.0
 10
181.2018136964032
 20
73.67608507845549
 30
0.0
 10
180.8686268632953
 20
73.75923425989043
 30
0.0
 10
180.6236294212078
 20
73.8165467421202
 30
0.0
 10
180.500961176241
 20
73.84524264012596
 30
0.0
  0
SPLINE
  5
CE
330
1F
100
AcDbEntity
  8
0
  6
HIDDEN
 62
     7
370
     0
100
AcDbSpline
210
0.0
220
0.0
230
1.0
 70
    24
 71
     3
 72
     9
 73
     5
 74
     0
 42
0.000000001
 43
0.00000001
 40
0.0
 40
0.0
 40
0.0
 40
0.0
 40
0.5357857843879515
 40
1.0
 40
1.0
 40
1.0
 40
1.0
 10
160.8744139733635
 20
127.2061783165716
 30
0.0
 10
160.8617775263334
 20
127.2061783165716
 30
0.0
 10
160.8381926396152
 20
127.2061783165716
 30
0.0
 10
160.7576912167554
 20
127.2061783165716
 30
0.0
 10
160.7203213118869
 20
127.2061783165716
 30
0.0
  0
SPLINE
  5
CF
330
1F
100
AcDbEntity
  8
0
  6
HIDDEN
 62
     7
370
     0
100
AcDbSpline
210
0.0
220
0.0
230
1.0
 70
    24
 71
     3
 72
    12
 73
     8
 74
     0
 42
0.000000001
 43
0.00000001
 40
0.0
 40
0.0
 40
0.0
 40
0.0
 40
0.25
 40
0.25
 40
0.5
 40
0.5
 40
1.0
 40
1.0
 40
1.0
 40
1.0
 10
160.5631628390687
 20
127.2061783165716
 30
0.0
 10
160.5631632386797
 20
127.2061783165716
 30
0.0
 10
160.5802776562069
 20
127.2061783165716
 30
0.0
 10
160.6369573917277
 20
127.2061783165716
 30
0.0
 10
160.675868260303
 20
127.2061783165716
 30
0.0
 10
160.7933927571016
 20
127.2061783165716
 30
0.0
 10
160.8744139733635
 20
127.2061783165716
 30
0.0
 10
160.8744139733635
 20
127.2061783165716
 30
0.0
  0
SPLINE
  5
D0
330
1F
100
AcDbEntity
  8
0
  6
HIDDEN
 62
     7
370
     0
100
AcDbSpline
210
0.0
220
0.0
230
1.0
 70
    24
 71
     3
 72
    16
 73
    12
 74
     0
 42
0.000000001
 43
0.00000001
 40
0.0
 40
0.0
 40
0.0
 40
0.0
 40
0.4999999999999999
 40
0.4999999999999999
 40
0.75
 40
0.75
 40
0.875
 40
0.875
 40
0.9375
 40
0.9375
 40
1.0
 40
1.0
 40
1.0
 40
1.0
 10
160.8744139733635
 20
82.20617831657154
 30
0.0
 10
160.8744139733635
 20
82.20617831657154
 30
0.0
 10
160.7936138958187
 20
82.20617831657154
 30
0.0
 10
160.676041964641
 20
82.20617831657155
 30
0.0
 10
160.6371002310573
 20
82.20617831657154
 30
0.0
 10
160.5945250341541
 20
82.20617831657154
 30
0.0
 10
160.582990799603
 20
82.20617831657155
 30
0.0
 10
160.5712212811293
 20
82.20617831657154
 30
0.0
 10
160.5682140089939
 20
82.20617831657154
 30
0.0
 10
160.5641844930663
 20
82.20617831657154
 30
0.0
 10
160.5631627234653
 20
82.20617831657154
 30
0.0
 10
160.5631628390708
 20
82.20617831657154
 30
0.0
  0
SPLINE
  5
D1
330
1F
100
AcDbEntity
  8
0
  6
HIDDEN
 62
     7
370
     0
100
AcDbSpline
210
0.0
220
0.0
230
1.0
 70
    24
 71
     3
 72
     9
 73
     5
 74
     0
 42
0.000000001
 43
0.00000001
 40
0.0
 40
0.0
 40
0.0
 40
0.0
 40
0.3373577898114119
 40
1.0
 40
1.0
 40
1.0
 40
1.0
 10
160.718418009947
 20
82.20617831657154
 30
0.0
 10
160.7454461923087
 20
82.20617831657154
 30
0.0
 10
160.825563454094
 20
82.20617831657154
 30
0.0
 10
160.8549447118115
 20
82.20617831657154
 30
0.0
 10
160.8744139733635
 20
82.20617831657154
 30
0.0
  0
LINE
  5
D2
330
1F
100
AcDbEntity
  8
0
  6
HIDDEN
 62
     7
370
     0
100
AcDbLine
 10
160.8744139734
 20
127.2061783166
 30
0.0
 11
160.8744139734
 21
82.2061783166
 31
0.0
  0
LINE
  5
D3
330
1F
100
AcDbEntity
  8
0
  6
HIDDEN
 62
     7
370
     0
100
AcDbLine
 10
160.8744139734
 20
82.2061783166
 30
0.0
 11
160.8744139734
 21
127.2061783166
 31
0.0
  0
LINE
  5
D4
330
1F
100
AcDbEntity
  8
0
  6
HIDDEN
 62
     7
370
     0
100
AcDbLine
 10
158.8744139734
 20
126.9311783166
 30
0.0
 11
158.8744139734
 21
82.4811783166
 31
0.0
  0
SPLINE
  5
D5
330
1F
100
AcDbEntity
  8
0
  6
HIDDEN
 62
     7
370
     0
100
AcDbSpline
210
0.0
220
0.0
230
1.0
 70
     8
 71
     3
 72
    18
 73
    14
 74
     0
 42
0.000000001
 43
0.00000001
 40
0.0
 40
0.0
 40
0.0
 40
0.0
 40
0.25
 40
0.25
 40
0.5
 40
0.5
 40
0.625
 40
0.625
 40
0.75
 40
0.75
 40
0.875
 40
0.875
 40
1.0
 40
1.0
 40
1.0
 40
1.0
 10
204.8744139733635
 20
121.7038795606842
 30
0.0
 10
204.8744139733635
 20
121.6085598956664
 30
0.0
 10
204.8691559102004
 20
121.5115305094987
 30
0.0
 10
204.8416509203335
 20
121.3119463689738
 30
0.0
 10
204.81916742686
 20
121.2069421992711
 30
0.0
 10
204.7608690747398
 20
121.0549334506867
 30
0.0
 10
204.7365422810323
 20
121.003881550513
 30
0.0
 10
204.6776989218492
 20
120.9113306594346
 30
0.0
 10
204.6425762013964
 20
120.8695086828014
 30
0.0
 10
204.5675975294043
 20
120.8050364261972
 30
0.0
 10
204.52761071175
 20
120.7818785404423
 30
0.0
 10
204.4490028672026
 20
120.7518916946449
 30
0.0
 10
204.4111535241995
 20
120.7448537381589
 30
0.0
 10
204.3743743933491
 20
120.7425944311829
 30
0.0
  0
SPLINE
  5
D6
330
1F
100
AcDbEntity
  8
0
  6
HIDDEN
 62
     7
370
     0
100
AcDbSpline
210
0.0
220
0.0
230
1.0
 70
     8
 71
     3
 72
    10
 73
     6
 74
     0
 42
0.000000001
 43
0.00000001
 40
0.0
 40
0.0
 40
0.0
 40
0.0
 40
0.5
 40
0.5
 40
1.0
 40
1.0
 40
1.0
 40
1.0
 10
204.3743743933491
 20
120.7425944311831
 30
0.0
 10
204.3095529356163
 20
120.6817268268086
 30
0.0
 10
204.234709539314
 20
120.6267549951883
 30
0.0
 10
204.0660988834628
 20
120.54692998693
 30
0.0
 10
203.971808331427
 20
120.5226232129029
 30
0.0
 10
203.8744139733635
 20
120.5226232129029
 30
0.0
  0
SPLINE
  5
D7
330
1F
100
AcDbEntity
  8
0
  6
HIDDEN
 62
     7
370
     0
100
AcDbSpline
210
0.0
220
0.0
230
1.0
 70
     8
 71
     3
 72
    10
 73
     6
 74
     0
 42
0.000000001
 43
0.00000001
 40
0.0
 40
0.0
 40
0.0
 40
0.0
 40
0.5
 40
0.5
 40
1.0
 40
1.0
 40
1.0
 40
1.0
 10
204.3743641670586
 20
88.66977180436005
 30
0.0
 10
204.309543480892
 20
88.73063707444199
 30
0.0
 10
204.2347011982344
 20
88.785606616692
 30
0.0
 10
204.0660939245136
 20
88.86542796400087
 30
0.0
 10
203.9718057706088
 20
88.88973342024018
 30
0.0
 10
203.8744139733635
 20
88.88973342024018
 30
0.0
  0
SPLINE
  5
D8
330
1F
100
AcDbEntity
  8
0
  6
HIDDEN
 62
     7
370
     0
100
AcDbSpline
210
0.0
220
0.0
230
1.0
 70
     8
 71
     3
 72
    18
 73
    14
 74
     0
 42
0.000000001
 43
0.00000001
 40
0.0
 40
0.0
 40
0.0
 40
0.0
 40
0.1250000000000014
 40
0.1250000000000014
 40
0.2500000000000028
 40
0.2500000000000028
 40
0.3750000000000042
 40
0.3750000000000042
 40
0.5000000000000057
 40
0.5000000000000057
 40
0.7500000000000028
 40
0.7500000000000028
 40
1.0
 40
1.0
 40
1.0
 40
1.0
 10
204.3743641670586
 20
88.66977180436002
 30
0.0
 10
204.4108510471549
 20
88.66753776807336
 30
0.0
 10
204.4491067391832
 20
88.6603942776213
 30
0.0
 10
204.5266537761726
 20
88.63093239688808
 30
0.0
 10
204.5666011913802
 20
88.60795931580614
 30
0.0
 10
204.6409461016155
 20
88.54453437994606
 30
0.0
 10
204.6760893466167
 20
88.50314438162285
 30
0.0
 10
204.7350723071874
 20
88.41123710638199
 30
0.0
 10
204.759489929695
 20
88.3605605816443
 30
0.0
 10
204.8185662447542
 20
88.20790956528485
 30
0.0
 10
204.8410551133412
 20
88.10369036372475
 30
0.0
 10
204.8690593748114
 20
87.90254912295912
 30
0.0
 10
204.8744139733635
 20
87.8040548642525
 30
0.0
 10
204.8744139733635
 20
87.70847707245888
 30
0.0
  0
LINE
  5
D9
330
1F
100
AcDbEntity
  8
0
  6
HIDDEN
 62
     7
370
     0
100
AcDbLine
 10
204.8744139732
 20
121.7038795608
 30
0.0
 11
204.8744139732
 21
87.7084770724
 31
0.0
  0
LINE
  5
DA
330
1F
100
AcDbEntity
  8
0
  6
HIDDEN
 62
     7
370
     0
100
AcDbLine
 10
164.3744139734
 20
122.2061783166
 30
0.0
 11
164.3744139734
 21
87.2061783166
 31
0.0
  0
LINE
  5
DB
330
1F
100
AcDbEntity
  8
0
  6
HIDDEN
 62
     7
370
     0
100
AcDbLine
 10
169.2404393771
 20
122.7061783166
 30
0.0
 11
169.2404393771
 21
86.7061783166
 31
0.0
  0
LINE
  5
DC
330
1F
100
AcDbEntity
  8
0
  6
HIDDEN
 62
     7
370
     0
100
AcDbLine
 10
188.2744139732
 20
120.5226232129
 30
0.0
 11
203.8744139734
 21
120.5226232129
 31
0.0
  0
LINE
  5
DD
330
1F
100
AcDbEntity
  8
0
  6
HIDDEN
 62
     7
370
     0
100
AcDbLine
 10
188.2744139732
 20
120.5226232129
 30
0.0
 11
188.2744139732
 21
122.6877584114
 31
0.0
  0
LINE
  5
DE
330
1F
100
AcDbEntity
  8
0
  6
HIDDEN
 62
     7
370
     0
100
AcDbLine
 10
188.2744139732
 20
88.8897334202
 30
0.0
 11
203.8744139734
 21
88.8897334202
 31
0.0
  0
LINE
  5
DF
330
1F
100
AcDbEntity
  8
0
  6
HIDDEN
 62
     7
370
     0
100
AcDbLine
 10
188.2744139732
 20
88.8897334202
 30
0.0
 11
188.2744139732
 21
86.7245982218
 31
0.0
  0
SPLINE
  5
E0
330
1F
100
AcDbEntity
  8
0
  6
HIDDEN
 62
     7
370
     0
100
AcDbSpline
210
0.0
220
0.0
230
1.0
 70
    11
 71
     3
 72
    88
 73
    84
 74
     0
 42
0.000000001
 43
0.00000001
 40
0.0
 40
0.0
 40
0.0
 40
0.0
 40
0.0312499999999993
 40
0.0312499999999993
 40
0.0468749999999989
 40
0.0468749999999989
 40
0.0624999999999985
 40
0.0624999999999985
 40
0.093749999999998
 40
0.093749999999998
 40
0.1093749999999978
 40
0.1093749999999978
 40
0.1249999999999976
 40
0.1249999999999976
 40
0.1562499999999969
 40
0.1562499999999969
 40
0.1874999999999962
 40
0.1874999999999962
 40
0.2031249999999958
 40
0.2031249999999958
 40
0.2187499999999955
 40
0.2187499999999955
 40
0.2499999999999948
 40
0.2499999999999948
 40
0.281249999999994
 40
0.281249999999994
 40
0.3124999999999933
 40
0.3124999999999933
 40
0.3437499999999925
 40
0.3437499999999925
 40
0.3593749999999925
 40
0.3593749999999925
 40
0.3749999999999923
 40
0.3749999999999923
 40
0.4062499999999921
 40
0.4062499999999921
 40
0.437499999999992
 40
0.437499999999992
 40
0.4687499999999917
 40
0.4687499999999917
 40
0.4843749999999917
 40
0.4843749999999917
 40
0.4999999999999916
 40
0.4999999999999916
 40
0.5312499999999913
 40
0.5312499999999913
 40
0.5624999999999911
 40
0.5624999999999911
 40
0.593749999999991
 40
0.593749999999991
 40
0.6249999999999908
 40
0.6249999999999908
 40
0.640624999999991
 40
0.640624999999991
 40
0.6562499999999911
 40
0.6562499999999911
 40
0.6874999999999918
 40
0.6874999999999918
 40
0.7187499999999926
 40
0.7187499999999926
 40
0.7343749999999928
 40
0.7343749999999928
 40
0.7499999999999931
 40
0.7499999999999931
 40
0.7812499999999938
 40
0.7812499999999938
 40
0.7968749999999942
 40
0.7968749999999942
 40
0.8124999999999946
 40
0.8124999999999946
 40
0.8437499999999954
 40
0.8437499999999954
 40
0.8749999999999962
 40
0.8749999999999962
 40
0.8906249999999968
 40
0.8906249999999968
 40
0.9062499999999972
 40
0.9062499999999972
 40
0.9374999999999981
 40
0.9374999999999981
 40
0.9687499999999991
 40
0.9687499999999991
 40
1.0
 40
1.0
 40
1.0
 40
1.0
 10
183.3244139733635
 20
104.7061783165715
 30
0.0
 10
183.3244139733635
 20
104.3404713413556
 30
0.0
 10
183.3605222490705
 20
103.9812972525266
 30
0.0
 10
183.4663336775965
 20
103.4518390972748
 30
0.0
 10
183.5102781566685
 20
103.2769146248773
 30
0.0
 10
183.6158762980726
 20
102.9302364639896
 30
0.0
 10
183.6776511450474
 20
102.7585455025222
 30
0.0
 10
183.8853307834466
 20
102.2597069800808
 30
0.0
 10
184.0544591744932
 20
101.9446150049207
 30
0.0
 10
184.3538196438351
 20
101.4974462433581
 30
0.0
 10
184.4619187901445
 20
101.3519357278519
 30
0.0
 10
184.690230430308
 20
101.0742595399579
 30
0.0
 10
184.8103883347617
 20
100.9419578705634
 30
0.0
 10
185.1885281331388
 20
100.5640334940371
 30
0.0
 10
185.4639861492908
 20
100.3371933268975
 30
0.0
 10
186.0643246913668
 20
99.93518133939725
 30
0.0
 10
186.3807357442444
 20
99.76588601320563
 30
0.0
 10
186.8762946109199
 20
99.5596412495512
 30
0.0
 10
187.0451651982006
 20
99.49879157045494
 30
0.0
 10
187.3905411077642
 20
99.39330606769828
 30
0.0
 10
187.5680610782468
 20
99.34852681827246
 30
0.0
 10
188.1012571387412
 20
99.24188944337702
 30
0.0
 10
188.459564124097
 20
99.20642353896993
 30
0.0
 10
189.1818326800827
 20
99.20593560425887
 30
0.0
 10
189.5487603760811
 20
99.2421725171932
 30
0.0
 10
190.2559858304467
 20
99.3835249270695
 30
0.0
 10
190.5999313838677
 20
99.48807638387986
 30
0.0
 10
191.2685581618859
 20
99.76581304255826
 30
0.0
 10
191.5866447739582
 20
99.9367393572517
 30
0.0
 10
192.0317128642434
 20
100.2345901680309
 30
0.0
 10
192.1752150016339
 20
100.3410556955711
 30
0.0
 10
192.4524651393097
 20
100.5686177110089
 30
0.0
 10
192.5867564546134
 20
100.6903403249089
 30
0.0
 10
192.9672614246925
 20
101.0708629408424
 30
0.0
 10
193.1934168629945
 20
101.3461598150493
 30
0.0
 10
193.5917649104545
 20
101.9402651540167
 30
0.0
 10
193.7646783110561
 20
102.2622876202654
 30
0.0
 10
194.0403852678855
 20
102.9250390978434
 30
0.0
 10
194.1454351142599
 20
103.2681136044284
 30
0.0
 10
194.2524406013004
 20
103.8009982510862
 30
0.0
 10
194.2796071774252
 20
103.9824710674931
 30
0.0
 10
194.3154306544069
 20
104.3433823897567
 30
0.0
 10
194.3243376025733
 20
104.5236932154445
 30
0.0
 10
194.3245652514727
 20
105.0641990911205
 30
0.0
 10
194.2892694249357
 20
105.4258399765188
 30
0.0
 10
194.1467198654019
 20
106.1399209723329
 30
0.0
 10
194.0415541843323
 20
106.4839340699757
 30
0.0
 10
193.7660874153991
 20
107.1472500262821
 30
0.0
 10
193.5934654435361
 20
107.4692153026487
 30
0.0
 10
193.1949409067602
 20
108.0642610487329
 30
0.0
 10
192.9686986679277
 20
108.3398712565266
 30
0.0
 10
192.5881590825598
 20
108.7207054065126
 30
0.0
 10
192.4539040241438
 20
108.8424727744132
 30
0.0
 10
192.1768798873851
 20
109.0700186168127
 30
0.0
 10
192.0335392645863
 20
109.1764474954959
 30
0.0
 10
191.5891289879616
 20
109.4741461809015
 30
0.0
 10
191.2730094969804
 20
109.6444017881566
 30
0.0
 10
190.6030062608919
 20
109.9232925158522
 30
0.0
 10
190.2591870147336
 20
110.0278989141027
 30
0.0
 10
189.7303905982529
 20
110.1340257080115
 30
0.0
 10
189.5519323972401
 20
110.1608740827774
 30
0.0
 10
189.1904747410182
 20
110.1969877717728
 30
0.0
 10
189.0071067779405
 20
110.2061313070375
 30
0.0
 10
188.4632906289675
 20
110.2062717851275
 30
0.0
 10
188.104774125195
 20
110.1708655569866
 30
0.0
 10
187.572954647576
 20
110.0649581770021
 30
0.0
 10
187.3956955271569
 20
110.0204645210804
 30
0.0
 10
187.0487970851923
 20
109.9148306305973
 30
0.0
 10
186.879329307692
 20
109.8538789965976
 30
0.0
 10
186.3823992403491
 20
109.6473594137209
 30
0.0
 10
186.0659722530501
 20
109.4781496157044
 30
0.0
 10
185.4650415932042
 20
109.0759984519474
 30
0.0
 10
185.1893863932946
 20
108.8490869857055
 30
0.0
 10
184.8110450432196
 20
108.4711018573247
 30
0.0
 10
184.6908359831438
 20
108.338787517474
 30
0.0
 10
184.4624473276906
 20
108.0611095512986
 30
0.0
 10
184.3542915044098
 20
107.9155654199977
 30
0.0
 10
184.0549305617918
 20
107.4685450292068
 30
0.0
 10
183.8859683523839
 20
107.1538254295351
 30
0.0
 10
183.6093907325338
 20
106.4902058215661
 30
0.0
 10
183.5020862809655
 20
106.1389876610113
 30
0.0
 10
183.3605412471108
 20
105.4315813177316
 30
0.0
 10
183.3244139733635
 20
105.0718852917875
 30
0.0
 10
183.3244139733635
 20
104.7061783165715
 30
0.0
  0
LINE
  5
E1
330
1F
100
AcDbEntity
  8
0
  6
HIDDEN
 62
     7
370
     0
100
AcDbLine
 10
164.3744139734
 20
121.7061783166
 30
0.0
 11
164.3744139734
 21
87.7061783166
 31
0.0
  0
LINE
  5
E2
330
1F
100
AcDbEntity
  8
0
  6
HIDDEN
 62
     7
370
     0
100
AcDbLine
 10
160.3744139734
 20
121.3061783166
 30
0.0
 11
160.3744139734
 21
88.1061783166
 31
0.0
  0
LINE
  5
E3
330
1F
100
AcDbEntity
  8
0
  6
HIDDEN
 62
     7
370
     0
100
AcDbLine
 10
159.3744139734
 20
118.7061783166
 30
0.0
 11
159.3744139734
 21
90.7061783166
 31
0.0
  0
LINE
  5
E4
330
1F
100
AcDbEntity
  8
0
  6
HIDDEN
 62
     7
370
     0
100
AcDbLine
 10
160.3744139734
 20
119.7061783166
 30
0.0
 11
160.3744139734
 21
89.7061783166
 31
0.0
  0
LINE
  5
E5
330
1F
100
AcDbEntity
  8
0
  6
HIDDEN
 62
     7
370
     0
100
AcDbLine
 10
128.3744139734
 20
118.7061783166
 30
0.0
 11
128.3744139734
 21
90.7061783166
 31
0.0
  0
LINE
  5
E6
330
1F
100
AcDbEntity
  8
0
  6
HIDDEN
 62
     7
370
     0
100
AcDbLine
 10
124.1683896402
 20
111.7061783166
 30
0.0
 11
124.1683896402
 21
97.7061783166
 31
0.0
  0
LINE
  5
E7
330
1F
100
AcDbEntity
  8
0
  6
HIDDEN
 62
     7
370
     0
100
AcDbLine
 10
93.4744139734
 20
92.8834227195
 30
0.0
 11
93.4744139734
 21
116.5289339136
 31
0.0
  0
SPLINE
  5
E8
330
1F
100
AcDbEntity
  8
0
  6
HIDDEN
 62
     7
370
     0
100
AcDbSpline
210
0.0
220
0.0
230
1.0
 70
     8
 71
     3
 72
    32
 73
    28
 74
     0
 42
0.000000001
 43
0.00000001
 40
0.0
 40
0.0
 40
0.0
 40
0.0
 40
0.1249999999999999
 40
0.1249999999999999
 40
0.1874999999999999
 40
0.1874999999999999
 40
0.2499999999999998
 40
0.2499999999999998
 40
0.3749999999999996
 40
0.3749999999999996
 40
0.4374999999999997
 40
0.4374999999999997
 40
0.4999999999999997
 40
0.4999999999999997
 40
0.6249999999999998
 40
0.6249999999999998
 40
0.6874999999999997
 40
0.6874999999999997
 40
0.7499999999999998
 40
0.7499999999999998
 40
0.8124999999999999
 40
0.8124999999999999
 40
0.8749999999999999
 40
0.8749999999999999
 40
0.9375
 40
0.9375
 40
1.0
 40
1.0
 40
1.0
 40
1.0
 10
204.3744139732498
 20
127.6061783165716
 30
0.0
 10
204.3744139732498
 20
128.0027786343985
 30
0.0
 10
204.3744831849529
 20
128.3614571109989
 30
0.0
 10
204.3698274406776
 20
128.8437765864153
 30
0.0
 10
204.3673251608793
 20
128.9953865053214
 30
0.0
 10
204.3614864658292
 20
129.2711467709026
 30
0.0
 10
204.3580765773358
 20
129.3964943311911
 30
0.0
 10
204.3463251283745
 20
129.7353220616729
 30
0.0
 10
204.3359357905425
 20
129.912373345592
 30
0.0
 10
204.3211797047342
 20
130.0876145527924
 30
0.0
 10
204.3163787391626
 20
130.1317448248276
 30
0.0
 10
204.3076288691091
 20
130.1911040982062
 30
0.0
 10
204.3037373721027
 20
130.2062112733208
 30
0.0
 10
204.2947517842302
 20
130.206112238267
 30
0.0
 10
204.2922013630114
 20
130.1475474902749
 30
0.0
 10
204.2961928215361
 20
129.9705666607754
 30
0.0
 10
204.2990158165817
 20
129.8970276198424
 30
0.0
 10
204.3066850169685
 20
129.724047671329
 30
0.0
 10
204.3113704706828
 20
129.6243153295054
 30
0.0
 10
204.3209605391878
 20
129.398261752712
 30
0.0
 10
204.3260287611809
 20
129.2708726880869
 30
0.0
 10
204.3399641731801
 20
128.9938856964074
 30
0.0
 10
204.3498291203597
 20
128.8448432011159
 30
0.0
 10
204.3700977086088
 20
128.5261085742688
 30
0.0
 10
204.3799377465725
 20
128.3564049116088
 30
0.0
 10
204.389659652482
 20
127.9954947482919
 30
0.0
 10
204.3894540111626
 20
127.8043913167276
 30
0.0
 10
204.3798107033471
 20
127.6061783165718
 30
0.0
  0
SPLINE
  5
E9
330
1F
100
AcDbEntity
  8
0
  6
HIDDEN
 62
     7
370
     0
100
AcDbSpline
210
0.0
220
0.0
230
1.0
 70
     8
 71
     3
 72
    14
 73
    10
 74
     0
 42
0.000000001
 43
0.00000001
 40
0.0
 40
0.0
 40
0.0
 40
0.0
 40
0.25
 40
0.25
 40
0.5
 40
0.5
 40
0.75
 40
0.75
 40
1.0
 40
1.0
 40
1.0
 40
1.0
 10
204.3798107033469
 20
127.6061783165716
 30
0.0
 10
204.3519927626273
 20
127.0343955223633
 30
0.0
 10
204.3690922059414
 20
126.4624205738745
 30
0.0
 10
204.3817882875904
 20
125.3185043294554
 30
0.0
 10
204.3806848395425
 20
124.74650587592
 30
0.0
 10
204.3759374110571
 20
123.6025338272763
 30
0.0
 10
204.3731845825475
 20
123.0305483921864
 30
0.0
 10
204.3730256023372
 20
121.8865720223674
 30
0.0
 10
204.3741727613475
 20
121.3145832476329
 30
0.0
 10
204.374374393349
 20
120.742594431183
 30
0.0
  0
SPLINE
  5
EA
330
1F
100
AcDbEntity
  8
0
  6
HIDDEN
 62
     7
370
     0
100
AcDbSpline
210
0.0
220
0.0
230
1.0
 70
    24
 71
     3
 72
    20
 73
    16
 74
     0
 42
0.000000001
 43
0.00000001
 40
0.0
 40
0.0
 40
0.0
 40
0.0
 40
0.0469163091108926
 40
0.0977062414429345
 40
0.151668963303151
 40
0.2078463383218537
 40
0.2651938476233424
 40
0.3192095203174492
 40
0.3728953068123797
 40
0.4259306594991006
 40
0.4781535685998868
 40
0.5793596734499773
 40
0.669805835412183
 40
0.8327057026615072
 40
0.9074992363786808
 40
0.9074992363786808
 40
0.9074992363786808
 40
0.9074992363786808
 10
204.8744139732498
 20
127.856178316571
 30
0.0
 10
204.8744139732498
 20
128.1399582123625
 30
0.0
 10
204.8744139732498
 20
128.7029642316174
 30
0.0
 10
204.8744139732498
 20
129.4552102301725
 30
0.0
 10
204.8744139732498
 20
130.095606307111
 30
0.0
 10
204.8744139732497
 20
130.5623733725689
 30
0.0
 10
204.8744139732498
 20
130.7969482529087
 30
0.0
 10
204.8744139732498
 20
130.7826996049648
 30
0.0
 10
204.8744139732498
 20
130.5317234410228
 30
0.0
 10
204.8744139732498
 20
130.0586097498163
 30
0.0
 10
204.8744139732498
 20
129.2027806334938
 30
0.0
 10
204.8744139732498
 20
127.7857050501114
 30
0.0
 10
204.8744139732498
 20
125.7720386747497
 30
0.0
 10
204.8744139732498
 20
124.3558599261122
 30
0.0
 10
204.8744139732498
 20
122.3626278932982
 30
0.0
 10
204.8744139732498
 20
121.7038795607694
 30
0.0
  0
SPLINE
  5
EB
330
1F
100
AcDbEntity
  8
0
  6
HIDDEN
 62
     7
370
     0
100
AcDbSpline
210
0.0
220
0.0
230
1.0
 70
     8
 71
     3
 72
    14
 73
    10
 74
     0
 42
0.000000001
 43
0.00000001
 40
0.0
 40
0.0
 40
0.0
 40
0.0
 40
0.25
 40
0.25
 40
0.5
 40
0.5
 40
0.75
 40
0.75
 40
1.0
 40
1.0
 40
1.0
 40
1.0
 10
204.3797997293299
 20
81.80617831657153
 30
0.0
 10
204.3520411055921
 20
82.37788609376092
 30
0.0
 10
204.3690493525322
 20
82.94987988763474
 30
0.0
 10
204.3818456200481
 20
84.09380148715007
 30
0.0
 10
204.3806341555791
 20
84.66581379195804
 30
0.0
 10
204.3758483639814
 20
85.80979691274626
 30
0.0
 10
204.3732519200111
 20
86.38178815145965
 30
0.0
 10
204.372974239631
 20
87.52577944288518
 30
0.0
 10
204.3741152626991
 20
88.09777566164614
 30
0.0
 10
204.3743641670586
 20
88.66977180436002
 30
0.0
  0
SPLINE
  5
EC
330
1F
100
AcDbEntity
  8
0
  6
HIDDEN
 62
     7
370
     0
100
AcDbSpline
210
0.0
220
0.0
230
1.0
 70
     8
 71
     3
 72
    34
 73
    30
 74
     0
 42
0.000000001
 43
0.00000001
 40
0.0
 40
0.0
 40
0.0
 40
0.0
 40
0.1249999999999999
 40
0.1249999999999999
 40
0.1874999999999999
 40
0.1874999999999999
 40
0.2499999999999999
 40
0.2499999999999999
 40
0.3124999999999999
 40
0.3124999999999999
 40
0.375
 40
0.375
 40
0.4375000000000001
 40
0.4375000000000001
 40
0.5000000000000001
 40
0.5000000000000001
 40
0.6250000000000002
 40
0.6250000000000002
 40
0.6875000000000002
 40
0.6875000000000002
 40
0.7500000000000001
 40
0.7500000000000001
 40
0.8125000000000001
 40
0.8125000000000001
 40
0.8750000000000001
 40
0.8750000000000001
 40
0.9375
 40
0.9375
 40
1.0
 40
1.0
 40
1.0
 40
1.0
 10
204.3744139732498
 20
81.80617831657153
 30
0.0
 10
204.3744139732498
 20
81.40948150056765
 30
0.0
 10
204.3741733989785
 20
81.05130192938829
 30
0.0
 10
204.3695853191813
 20
80.57011329134326
 30
0.0
 10
204.3673511746471
 20
80.41829803484661
 30
0.0
 10
204.3616731042415
 20
80.14174066536974
 30
0.0
 10
204.3582106184086
 20
80.0162575827063
 30
0.0
 10
204.3502432964046
 20
79.79040055579773
 30
0.0
 10
204.3457576602687
 20
79.69002492541225
 30
0.0
 10
204.336126012735
 20
79.5152058474766
 30
0.0
 10
204.3310305785001
 20
79.44181681579303
 30
0.0
 10
204.3212069020717
 20
79.32479369598536
 30
0.0
 10
204.3164027765899
 20
79.28068508534106
 30
0.0
 10
204.3076505640568
 20
79.22136125392798
 30
0.0
 10
204.3037570671586
 20
79.20618827912654
 30
0.0
 10
204.2947365191022
 20
79.20615840636832
 30
0.0
 10
204.2922162768465
 20
79.264986729338
 30
0.0
 10
204.2961820872791
 20
79.441345966568
 30
0.0
 10
204.2990068265292
 20
79.51521336267614
 30
0.0
 10
204.3066836409485
 20
79.68849609034308
 30
0.0
 10
204.311373612184
 20
79.78830141662071
 30
0.0
 10
204.3209755470342
 20
80.01412012777794
 30
0.0
 10
204.3260222392102
 20
80.14075815664938
 30
0.0
 10
204.3399801768243
 20
80.4186519245846
 30
0.0
 10
204.3498347909433
 20
80.568020398004
 30
0.0
 10
204.3700635198556
 20
80.88697954285188
 30
0.0
 10
204.3798743736215
 20
81.05658281571046
 30
0.0
 10
204.3895911802562
 20
81.41666189181687
 30
0.0
 10
204.3894285371467
 20
81.60786645623116
 30
0.0
 10
204.3797997293299
 20
81.80617831657153
 30
0.0
  0
SPLINE
  5
ED
330
1F
100
AcDbEntity
  8
0
  6
HIDDEN
 62
     7
370
     0
100
AcDbSpline
210
0.0
220
0.0
230
1.0
 70
    24
 71
     3
 72
    20
 73
    16
 74
     0
 42
0.000000001
 43
0.00000001
 40
0.0
 40
0.0
 40
0.0
 40
0.0
 40
0.0469163091108926
 40
0.0977062414429344
 40
0.151668963303151
 40
0.2078463383218538
 40
0.2651938476233425
 40
0.3192095203174494
 40
0.3728953068123799
 40
0.4259306594991008
 40
0.4781535685998869
 40
0.5793596734499776
 40
0.6698058354121833
 40
0.8327057026615075
 40
0.9074992363786817
 40
0.9074992363786817
 40
0.9074992363786817
 40
0.9074992363786817
 10
204.8744139732498
 20
81.55617831657204
 30
0.0
 10
204.8744139732498
 20
81.27239842078063
 30
0.0
 10
204.8744139732498
 20
80.70939240152563
 30
0.0
 10
204.8744139732498
 20
79.95714640297058
 30
0.0
 10
204.8744139732498
 20
79.31675032603214
 30
0.0
 10
204.8744139732498
 20
78.84998326057418
 30
0.0
 10
204.8744139732498
 20
78.61540838023443
 30
0.0
 10
204.8744139732498
 20
78.62965702817829
 30
0.0
 10
204.8744139732498
 20
78.88063319212031
 30
0.0
 10
204.8744139732498
 20
79.35374688332676
 30
0.0
 10
204.8744139732498
 20
80.20957599964935
 30
0.0
 10
204.8744139732498
 20
81.62665158303167
 30
0.0
 10
204.8744139732498
 20
83.64031795839335
 30
0.0
 10
204.8744139732498
 20
85.05649670703085
 30
0.0
 10
204.8744139732498
 20
87.04972873984488
 30
0.0
 10
204.8744139732498
 20
87.70847707237373
 30
0.0
  0
LINE
  5
EE
330
1F
100
AcDbEntity
  8
0
  6
HIDDEN
 62
     7
370
     0
100
AcDbLine
 10
93.4744139734
 20
95.4061783166
 30
0.0
 11
93.4744139734
 21
114.0061783166
 31
0.0
  0
LINE
  5
EF
330
1F
100
AcDbEntity
  8
0
  6
HIDDEN
 62
     7
370
     0
100
AcDbLine
 10
160.8744139734
 20
133.8325838621
 30
0.0
 11
160.8744139734
 21
128.8061783166
 31
0.0
  0
LINE
  5
F0
330
1F
100
AcDbEntity
  8
0
  6
HIDDEN
 62
     7
370
     0
100
AcDbLine
 10
160.8744139734
 20
75.5797727711
 30
0.0
 11
160.8744139734
 21
80.6061783166
 31
0.0
  0
LINE
  5
F1
330
1F
100
AcDbEntity
  8
0
  6
HIDDEN
 62
     7
370
     0
100
AcDbLine
 10
160.8744139734
 20
127.2061783166
 30
0.0
 11
161.2116722736
 21
127.2061783166
 31
0.0
  0
ELLIPSE
  5
F2
330
1F
100
AcDbEntity
  8
0
  6
HIDDEN
 62
     7
370
     0
100
AcDbEllipse
 10
161.2116722736
 20
128.8061783166
 30
0.0
 11
0.0
 21
1.599999999999994
 31
0.0
210
0.0
220
0.0
230
1.0
 40
0.4142135624
 41
3.141592653589793
 42
4.712388980384695
  0
LINE
  5
F3
330
1F
100
AcDbEntity
  8
0
  6
HIDDEN
 62
     7
370
     0
100
AcDbLine
 10
160.8744139734
 20
128.8061783166
 30
0.0
 11
160.8744139734
 21
127.2061783166
 31
0.0
  0
ELLIPSE
  5
F4
330
1F
100
AcDbEntity
  8
0
  6
HIDDEN
 62
     7
370
     0
100
AcDbEllipse
 10
161.2116722736
 20
80.6061783166
 30
0.0
 11
0.0
 21
1.599999999999994
 31
0.0
210
0.0
220
0.0
230
1.0
 40
0.4142135624
 41
4.712388980384695
 42
6.283185307179586
  0
LINE
  5
F5
330
1F
100
AcDbEntity
  8
0
  6
HIDDEN
 62
     7
370
     0
100
AcDbLine
 10
161.2116722736
 20
82.2061783166
 30
0.0
 11
160.8744139734
 21
82.2061783166
 31
0.0
  0
LINE
  5
F6
330
1F
100
AcDbEntity
  8
0
  6
HIDDEN
 62
     7
370
     0
100
AcDbLine
 10
160.8744139734
 20
82.2061783166
 30
0.0
 11
160.8744139734
 21
80.6061783166
 31
0.0
  0
LINE
  5
F7
330
1F
100
AcDbEntity
  8
0
  6
HIDDEN
 62
     7
370
     0
100
AcDbLine
 10
161.8744139734
 20
75.2521555938
 30
0.0
 11
161.2614467963
 21
74.6391884168
 31
0.0
  0
LINE
  5
F8
330
1F
100
AcDbEntity
  8
0
  6
HIDDEN
 62
     7
370
     0
100
AcDbLine
 10
161.2614467963
 20
134.7731682164
 30
0.0
 11
161.8744139734
 21
134.1602010394
 31
0.0
  0
LINE
  5
F9
330
1F
100
AcDbEntity
  8
0
  6
HIDDEN
 62
     7
370
     0
100
AcDbLine
 10
100.4744139734
 20
113.2061783166
 30
0.0
 11
100.4744139734
 21
96.2061783166
 31
0.0
  0
LINE
  5
FA
330
1F
100
AcDbEntity
  8
0
  6
HIDDEN
 62
     7
370
     0
100
AcDbLine
 10
188.2744139732
 20
81.8061783166
 30
0.0
 11
188.2744139732
 21
88.8897334202
 31
0.0
  0
LINE
  5
FB
330
1F
100
AcDbEntity
  8
0
  6
HIDDEN
 62
     7
370
     0
100
AcDbLine
 10
188.2744139732
 20
127.6061783166
 30
0.0
 11
188.2744139732
 21
120.5226232129
 31
0.0
  0
LINE
  5
FC
330
1F
100
AcDbEntity
  8
0
  6
HIDDEN
 62
     7
370
     0
100
AcDbLine
 10
103.4703431877
 20
111.7061783166
 30
0.0
 11
103.4703431877
 21
97.7061783166
 31
0.0
  0
LINE
  5
FD
330
1F
100
AcDbEntity
  8
0
  6
HIDDEN
 62
     7
370
     0
100
AcDbLine
 10
161.8744139734
 20
134.1602010394
 30
0.0
 11
171.0069755169
 21
134.1602010394
 31
0.0
  0
LINE
  5
FE
330
1F
100
AcDbEntity
  8
0
  6
HIDDEN
 62
     7
370
     0
100
AcDbLine
 10
161.8744139734
 20
134.1602010394
 30
0.0
 11
161.8744139734
 21
128.8061783166
 31
0.0
  0
LINE
  5
FF
330
1F
100
AcDbEntity
  8
0
  6
HIDDEN
 62
     7
370
     0
100
AcDbLine
 10
171.0069755169
 20
75.2521555938
 30
0.0
 11
161.8744139734
 21
75.2521555938
 31
0.0
  0
LINE
  5
100
330
1F
100
AcDbEntity
  8
0
  6
HIDDEN
 62
     7
370
     0
100
AcDbLine
 10
161.8744139734
 20
75.2521555938
 30
0.0
 11
161.8744139734
 21
80.6061783166
 31
0.0
  0
LINE
  5
101
330
1F
100
AcDbEntity
  8
0
  6
HIDDEN
 62
     7
370
     0
100
AcDbLine
 10
161.2116722736
 20
127.2061783166
 30
0.0
 11
173.8244139734
 21
127.2061783166
 31
0.0
  0
LINE
  5
102
330
1F
100
AcDbEntity
  8
0
  6
HIDDEN
 62
     7
370
     0
100
AcDbLine
 10
173.8244139734
 20
82.2061783166
 30
0.0
 11
161.2116722736
 21
82.2061783166
 31
0.0
  0
SPLINE
  5
103
330
1F
100
AcDbEntity
  8
0
  6
HIDDEN
 62
     7
370
     0
100
AcDbSpline
210
0.0
220
0.0
230
1.0
 70
     8
 71
     3
 72
    12
 73
     8
 74
     0
 42
0.000000001
 43
0.00000001
 40
0.0
 40
0.0
 40
0.0
 40
0.0
 40
0.2500000000000008
 40
0.2500000000000008
 40
0.5000000000000016
 40
0.5000000000000016
 40
1.0
 40
1.0
 40
1.0
 40
1.0
 10
177.1507824120637
 20
79.24027509304577
 30
0.0
 10
177.2242306896266
 20
79.23068124395986
 30
0.0
 10
177.294366614705
 20
79.21090710463699
 30
0.0
 10
177.4290406733619
 20
79.15398468759152
 30
0.0
 10
177.4937978150239
 20
79.11636769375939
 30
0.0
 10
177.6713409109662
 20
78.98336178922573
 30
0.0
 10
177.7719371586129
 20
78.86577031763362
 30
0.0
 10
177.8436027350912
 20
78.72615948858765
 30
0.0
  0
SPLINE
  5
104
330
1F
100
AcDbEntity
  8
0
  6
HIDDEN
 62
     7
370
     0
100
AcDbSpline
210
0.0
220
0.0
230
1.0
 70
     8
 71
     3
 72
    10
 73
     6
 74
     0
 42
0.000000001
 43
0.00000001
 40
0.0
 40
0.0
 40
0.0
 40
0.0
 40
0.5000000000000001
 40
0.5000000000000001
 40
1.0
 40
1.0
 40
1.0
 40
1.0
 10
173.8244139733634
 20
79.45845564699202
 30
0.0
 10
174.4019063598501
 20
79.45845564699202
 30
0.0
 10
174.9682872609694
 20
79.43864221875099
 30
0.0
 10
176.0799699274345
 20
79.36397109189375
 30
0.0
 10
176.6287319428335
 20
79.30846557460903
 30
0.0
 10
177.1507824120637
 20
79.24027509304577
 30
0.0
  0
SPLINE
  5
105
330
1F
100
AcDbEntity
  8
0
  6
HIDDEN
 62
     7
370
     0
100
AcDbSpline
210
0.0
220
0.0
230
1.0
 70
     8
 71
     3
 72
    39
 73
    35
 74
     0
 42
0.000000001
 43
0.00000001
 40
0.0
 40
0.0
 40
0.0
 40
0.0
 40
0.0252381889189893
 40
0.0500887965717223
 40
0.074552363871375
 40
0.0986294579203599
 40
0.1223206736781458
 40
0.1456266357604085
 40
0.1685480003817198
 40
0.1910854574552872
 40
0.213239732864698
 40
0.2350115909242335
 40
0.2564018370461517
 40
0.2774113206353336
 40
0.2980409382339879
 40
0.3182916369416414
 40
0.338164418138491
 40
0.3576603415434194
 40
0.3767805296415371
 40
0.3955261725201775
 40
0.4138985331567546
 40
0.4318989532069928
 40
0.4495288593476792
 40
0.4667897702344583
 40
0.4836833041422557
 40
0.5002111873638225
 40
0.6199100345047983
 40
0.7496715000669804
 40
0.7857114175230763
 40
0.8240187416112491
 40
0.8645978653762493
 40
0.9074524626055437
 40
0.9525856307551542
 40
0.9999999999999999
 40
0.9999999999999999
 40
0.9999999999999999
 40
0.9999999999999999
 10
179.850655739562
 20
74.80113042317937
 30
0.0
 10
179.9144755161306
 20
74.78483458610079
 30
0.0
 10
180.0411349930074
 20
74.7524931660799
 30
0.0
 10
180.219724033143
 20
74.70602109183778
 30
0.0
 10
180.3881981644839
 20
74.66152904769858
 30
0.0
 10
180.5460242624294
 20
74.61913107729646
 30
0.0
 10
180.6935591294257
 20
74.57879731989637
 30
0.0
 10
180.8309531191875
 20
74.54053556756708
 30
0.0
 10
180.9584346289106
 20
74.5043437627701
 30
0.0
 10
181.076233396857
 20
74.47022242248312
 30
0.0
 10
181.1845983357674
 20
74.43817138983138
 30
0.0
 10
181.283790728976
 20
74.40819068306085
 30
0.0
 10
181.3740839465825
 20
74.3802802737128
 30
0.0
 10
181.4557615427028
 20
74.35444014457823
 30
0.0
 10
181.5291158621627
 20
74.33067027446832
 30
0.0
 10
181.5944466026127
 20
74.30897064258076
 30
0.0
 10
181.6520594776089
 20
74.28934122602789
 30
0.0
 10
181.7022649437969
 20
74.27178200548352
 30
0.0
 10
181.7453769998312
 20
74.25629294583634
 30
0.0
 10
181.7817120619911
 20
74.24287406640018
 30
0.0
 10
181.811587887705
 20
74.23152518707326
 30
0.0
 10
181.8353226498671
 20
74.22224684806
 30
0.0
 10
181.8532337839968
 20
74.21503698211639
 30
0.0
 10
181.865637969698
 20
74.20990295272978
 30
0.0
 10
181.8728473160442
 20
74.20681803399353
 30
0.0
 10
181.8800493040046
 20
74.2039172564162
 30
0.0
 10
181.7887373785448
 20
74.23948329180786
 30
0.0
 10
181.4900931401111
 20
74.33797051431799
 30
0.0
 10
181.1886682639121
 20
74.43131770221432
 30
0.0
 10
180.9971794163238
 20
74.489076245468
 30
0.0
 10
180.7707522446925
 20
74.55500982802076
 30
0.0
 10
180.5056142493891
 20
74.62922872198706
 30
0.0
 10
180.2010008648505
 20
74.7114287588987
 30
0.0
 10
179.969356831216
 20
74.77088025809516
 30
0.0
 10
179.8506799214534
 20
74.80133871668218
 30
0.0
  0
SPLINE
  5
106
330
1F
100
AcDbEntity
  8
0
  6
HIDDEN
 62
     7
370
     0
100
AcDbSpline
210
0.0
220
0.0
230
1.0
 70
     8
 71
     3
 72
    10
 73
     6
 74
     0
 42
0.000000001
 43
0.00000001
 40
0.0
 40
0.0
 40
0.0
 40
0.0
 40
0.5
 40
0.5
 40
1.0
 40
1.0
 40
1.0
 40
1.0
 10
177.8436027350912
 20
78.72615948858767
 30
0.0
 10
178.1915574984895
 20
78.04831308902313
 30
0.0
 10
178.5336381322704
 20
77.38048742886907
 30
0.0
 10
179.2039057227139
 20
76.06989387627047
 30
0.0
 10
179.532175442153
 20
75.42695931810931
 30
0.0
 10
179.8510741756584
 20
74.80161602163793
 30
0.0
  0
LINE
  5
107
330
1F
100
AcDbEntity
  8
0
  6
HIDDEN
 62
     7
370
     0
100
AcDbLine
 10
173.8244139734
 20
127.2061783166
 30
0.0
 11
180.2744139734
 21
127.2061783166
 31
0.0
  0
SPLINE
  5
108
330
1F
100
AcDbEntity
  8
0
  6
HIDDEN
 62
     7
370
     0
100
AcDbSpline
210
0.0
220
0.0
230
1.0
 70
     8
 71
     3
 72
    10
 73
     6
 74
     0
 42
0.000000001
 43
0.00000001
 40
0.0
 40
0.0
 40
0.0
 40
0.0
 40
0.5000000000000001
 40
0.5000000000000001
 40
1.0
 40
1.0
 40
1.0
 40
1.0
 10
173.8244139733634
 20
129.9539009861511
 30
0.0
 10
174.4019063598501
 20
129.9539009861511
 30
0.0
 10
174.9682872609694
 20
129.9737144143921
 30
0.0
 10
176.0799699274345
 20
130.0483855412493
 30
0.0
 10
176.6287319428335
 20
130.103891058534
 30
0.0
 10
177.1507824120637
 20
130.1720815400973
 30
0.0
  0
SPLINE
  5
109
330
1F
100
AcDbEntity
  8
0
  6
HIDDEN
 62
     7
370
     0
100
AcDbSpline
210
0.0
220
0.0
230
1.0
 70
     8
 71
     3
 72
    12
 73
     8
 74
     0
 42
0.000000001
 43
0.00000001
 40
0.0
 40
0.0
 40
0.0
 40
0.0
 40
0.2500000000000015
 40
0.2500000000000015
 40
0.500000000000003
 40
0.500000000000003
 40
1.0
 40
1.0
 40
1.0
 40
1.0
 10
177.1507824120637
 20
130.1720815400973
 30
0.0
 10
177.2242306896266
 20
130.1816753891832
 30
0.0
 10
177.294366614705
 20
130.2014495285061
 30
0.0
 10
177.4290406733619
 20
130.2583719455516
 30
0.0
 10
177.4937978150239
 20
130.2959889393837
 30
0.0
 10
177.6713409109662
 20
130.4289948439174
 30
0.0
 10
177.7719371586129
 20
130.5465863155095
 30
0.0
 10
177.8436027350912
 20
130.6861971445554
 30
0.0
  0
SPLINE
  5
10A
330
1F
100
AcDbEntity
  8
0
  6
HIDDEN
 62
     7
370
     0
100
AcDbSpline
210
0.0
220
0.0
230
1.0
 70
     8
 71
     3
 72
    10
 73
     6
 74
     0
 42
0.000000001
 43
0.00000001
 40
0.0
 40
0.0
 40
0.0
 40
0.0
 40
0.5
 40
0.5
 40
1.0
 40
1.0
 40
1.0
 40
1.0
 10
177.8436027350912
 20
130.6861971445554
 30
0.0
 10
178.1917605909793
 20
131.3644391861041
 30
0.0
 10
178.5339504088809
 20
132.0324791365851
 30
0.0
 10
179.2042280458746
 20
133.3430936764342
 30
0.0
 10
179.5323988388926
 20
133.9858353839767
 30
0.0
 10
179.851074218466
 20
134.6107406954486
 30
0.0
  0
SPLINE
  5
10B
330
1F
100
AcDbEntity
  8
0
  6
HIDDEN
 62
     7
370
     0
100
AcDbSpline
210
0.0
220
0.0
230
1.0
 70
     8
 71
     3
 72
    33
 73
    29
 74
     0
 42
0.000000001
 43
0.00000001
 40
0.0
 40
0.0
 40
0.0
 40
0.0
 40
0.0239762613843417
 40
0.0473863621505663
 40
0.0702306060104737
 40
0.0925093201706681
 40
0.1142228577575035
 40
0.1353716005620609
 40
0.1559559621568321
 40
0.1759763914456875
 40
0.1954333767208417
 40
0.2143274503154512
 40
0.2326591939589074
 40
0.2504292449647815
 40
0.3802000038791493
 40
0.499870767206691
 40
0.5332981986522217
 40
0.5681928386612858
 40
0.6045672022905008
 40
0.6424323312657183
 40
0.681798006747015
 40
0.7226729265381984
 40
0.765064853316798
 40
0.8089807391614986
 40
0.8544268306191575
 40
0.9014087577303977
 40
0.9499316097779209
 40
1.0
 40
1.0
 40
1.0
 40
1.0
 10
179.850677603976
 20
134.6110390922826
 30
0.0
 10
179.9113397516391
 20
134.6265252832307
 30
0.0
 10
180.0312316085021
 20
134.657131983785
 30
0.0
 10
180.200046465127
 20
134.7012937274436
 30
0.0
 10
180.3583718879525
 20
134.7434687318121
 30
0.0
 10
180.5059307111771
 20
134.7835768709978
 30
0.0
 10
180.6432348016118
 20
134.82163889946
 30
0.0
 10
180.7706127665194
 20
134.8576495184421
 30
0.0
 10
180.888457334282
 20
134.8916102181448
 30
0.0
 10
180.9971581258641
 20
134.9235205239203
 30
0.0
 10
181.0971160251404
 20
134.9533812762756
 30
0.0
 10
181.1887357251409
 20
134.9811901274863
 30
0.0
 10
181.2724277121577
 20
135.0069557709416
 30
0.0
 10
181.5094166162016
 20
135.0806712959023
 30
0.0
 10
181.7888605531447
 20
135.1728610081337
 30
0.0
 10
181.8858542460962
 20
135.2108980131545
 30
0.0
 10
181.8678920707238
 20
135.2033836305027
 30
0.0
 10
181.8375294818495
 20
135.1908366907748
 30
0.0
 10
181.7838487210367
 20
135.1700983470733
 30
0.0
 10
181.7043168006541
 20
135.141068654856
 30
0.0
 10
181.5963998608283
 20
135.1037752169242
 30
0.0
 10
181.4576018451065
 20
135.0582088123764
 30
0.0
 10
181.2855161073711
 20
135.0043728599854
 30
0.0
 10
181.0777998876097
 20
134.9422588898342
 30
0.0
 10
180.8324884532396
 20
134.871894746078
 30
0.0
 10
180.5469929397472
 20
134.7931689394684
 30
0.0
 10
180.2222845930585
 20
134.7065156426949
 30
0.0
 10
179.9758198005625
 20
134.6433197839795
 30
0.0
 10
179.8506555859465
 20
134.611226518475
 30
0.0
  0
LINE
  5
10C
330
1F
100
AcDbEntity
  8
0
  6
HIDDEN
 62
     7
370
     0
100
AcDbLine
 10
173.8244139734
 20
82.2061783166
 30
0.0
 11
180.2744139734
 21
82.2061783166
 31
0.0
  0
SPLINE
  5
10D
330
1F
100
AcDbEntity
  8
0
  6
HIDDEN
 62
     7
370
     0
100
AcDbSpline
210
0.0
220
0.0
230
1.0
 70
     8
 71
     3
 72
     9
 73
     5
 74
     0
 42
0.000000001
 43
0.00000001
 40
0.0
 40
0.0
 40
0.0
 40
0.0
 40
0.4932365035776448
 40
1.0
 40
1.0
 40
1.0
 40
1.0
 10
179.8514735120609
 20
134.6110098277439
 30
0.0
 10
179.9573214675696
 20
134.7680312160267
 30
0.0
 10
180.1719202548469
 20
135.0863802983513
 30
0.0
 10
180.3897801367312
 20
135.4062064060288
 30
0.0
 10
180.500183572205
 20
135.5682826026027
 30
0.0
  0
SPLINE
  5
10E
330
1F
100
AcDbEntity
  8
0
  6
HIDDEN
 62
     7
370
     0
100
AcDbSpline
210
0.0
220
0.0
230
1.0
 70
     8
 71
     3
 72
     9
 73
     5
 74
     0
 42
0.000000001
 43
0.00000001
 40
0.0
 40
0.0
 40
0.0
 40
0.0
 40
0.5067661695379747
 40
1.0
 40
1.0
 40
1.0
 40
1.0
 10
180.5001872574909
 20
73.84408816609441
 30
0.0
 10
180.3897824270169
 20
74.00616558067453
 30
0.0
 10
180.1719209415616
 20
74.32599240480506
 30
0.0
 10
179.9573212236759
 20
74.64434092106953
 30
0.0
 10
179.8514733828071
 20
74.80136117916857
 30
0.0
  0
LINE
  5
10F
330
1F
100
AcDbEntity
  8
0
  6
HIDDEN
 62
     7
370
     0
100
AcDbLine
 10
188.2744139732
 20
81.8061783166
 30
0.0
 11
188.2744139732
 21
79.2061783166
 31
0.0
  0
LINE
  5
110
330
1F
100
AcDbEntity
  8
0
  6
HIDDEN
 62
     7
370
     0
100
AcDbLine
 10
188.2744139732
 20
127.6061783166
 30
0.0
 11
188.2744139732
 21
130.2061783166
 31
0.0
  0
LINE
  5
111
330
1F
100
AcDbEntity
  8
0
  6
HIDDEN
 62
     7
370
     0
100
AcDbLine
 10
204.3744139732
 20
120.7426315988
 30
0.0
 11
204.3744139732
 21
127.6061783166
 31
0.0
  0
SPLINE
  5
112
330
1F
100
AcDbEntity
  8
0
  6
HIDDEN
 62
     7
370
     0
100
AcDbSpline
210
0.0
220
0.0
230
1.0
 70
     8
 71
     3
 72
    16
 73
    12
 74
     0
 42
0.000000001
 43
0.00000001
 40
0.0
 40
0.0
 40
0.0
 40
0.0
 40
0.2499999999999933
 40
0.2499999999999933
 40
0.3749999999999961
 40
0.3749999999999961
 40
0.499999999999999
 40
0.499999999999999
 40
0.7499999999999994
 40
0.7499999999999994
 40
1.0
 40
1.0
 40
1.0
 40
1.0
 10
204.3744139732497
 20
120.7426315987682
 30
0.0
 10
204.4482360599346
 20
120.7472267367957
 30
0.0
 10
204.5291496497672
 20
120.7724166906493
 30
0.0
 10
204.6421077325312
 20
120.8693872398886
 30
0.0
 10
204.6766985264742
 20
120.9105021403346
 30
0.0
 10
204.7356931350263
 20
121.0029071164771
 30
0.0
 10
204.7600505208402
 20
121.0537573311031
 30
0.0
 10
204.8188632114912
 20
121.2064649048361
 30
0.0
 10
204.8413341969614
 20
121.3111404611157
 30
0.0
 10
204.8690930244138
 20
121.5115316673158
 30
0.0
 10
204.874413973364
 20
121.6100576149468
 30
0.0
 10
204.8744139733635
 20
121.7049385623889
 30
0.0
  0
LINE
  5
113
330
1F
100
AcDbEntity
  8
0
  6
HIDDEN
 62
     7
370
     0
100
AcDbLine
 10
204.8744139732
 20
121.7049385623
 30
0.0
 11
204.8744139732
 21
127.8561783166
 31
0.0
  0
SPLINE
  5
114
330
1F
100
AcDbEntity
  8
0
  6
HIDDEN
 62
     7
370
     0
100
AcDbSpline
210
0.0
220
0.0
230
1.0
 70
     8
 71
     3
 72
    10
 73
     6
 74
     0
 42
0.000000001
 43
0.00000001
 40
0.0
 40
0.0
 40
0.0
 40
0.0
 40
0.5
 40
0.5
 40
1.0
 40
1.0
 40
1.0
 40
1.0
 10
203.8744139733635
 20
120.5226232129029
 30
0.0
 10
203.9718200287132
 20
120.5226232129029
 30
0.0
 10
204.0665681200419
 20
120.5471152466131
 30
0.0
 10
204.2347186365569
 20
120.6267962972234
 30
0.0
 10
204.3096234542288
 20
120.6817868180455
 30
0.0
 10
204.3744139732498
 20
120.7426315987682
 30
0.0
  0
SPLINE
  5
115
330
1F
100
AcDbEntity
  8
0
  6
HIDDEN
 62
     7
370
     0
100
AcDbSpline
210
0.0
220
0.0
230
1.0
 70
     8
 71
     3
 72
    10
 73
     6
 74
     0
 42
0.000000001
 43
0.00000001
 40
0.0
 40
0.0
 40
0.0
 40
0.0
 40
0.5
 40
0.5
 40
1.0
 40
1.0
 40
1.0
 40
1.0
 10
203.8744139733635
 20
88.88973342024016
 30
0.0
 10
203.9718200287133
 20
88.88973342024016
 30
0.0
 10
204.0665681200419
 20
88.86524138652996
 30
0.0
 10
204.2347186365569
 20
88.78556033591973
 30
0.0
 10
204.3096234542288
 20
88.73056981509755
 30
0.0
 10
204.3744139732498
 20
88.66972503437485
 30
0.0
  0
LINE
  5
116
330
1F
100
AcDbEntity
  8
0
  6
HIDDEN
 62
     7
370
     0
100
AcDbLine
 10
204.3744139732
 20
88.6697250344
 30
0.0
 11
204.3744139732
 21
81.8061783166
 31
0.0
  0
SPLINE
  5
117
330
1F
100
AcDbEntity
  8
0
  6
HIDDEN
 62
     7
370
     0
100
AcDbSpline
210
0.0
220
0.0
230
1.0
 70
     8
 71
     3
 72
    18
 73
    14
 74
     0
 42
0.000000001
 43
0.00000001
 40
0.0
 40
0.0
 40
0.0
 40
0.0
 40
0.2500000000000062
 40
0.2500000000000062
 40
0.5000000000000124
 40
0.5000000000000124
 40
0.6250000000000093
 40
0.6250000000000093
 40
0.7500000000000062
 40
0.7500000000000062
 40
0.8750000000000031
 40
0.8750000000000031
 40
1.0
 40
1.0
 40
1.0
 40
1.0
 10
204.8744139733648
 20
87.70741807075558
 30
0.0
 10
204.8744139733652
 20
87.80223465850376
 30
0.0
 10
204.8690895014075
 20
87.90095975657033
 30
0.0
 10
204.8412638069591
 20
88.10161466889696
 30
0.0
 10
204.8188551656091
 20
88.20613914156772
 30
0.0
 10
204.7596445195309
 20
88.3595390449641
 30
0.0
 10
204.7352907892725
 20
88.41011920661705
 30
0.0
 10
204.676818463684
 20
88.50162695640034
 30
0.0
 10
204.6416793736529
 20
88.54335053050058
 30
0.0
 10
204.5670911503096
 20
88.60735506472776
 30
0.0
 10
204.5270951229198
 20
88.63048469017983
 30
0.0
 10
204.4493400228138
 20
88.66022421693272
 30
0.0
 10
204.4109887287999
 20
88.6674483979694
 30
0.0
 10
204.3744139732498
 20
88.66972503437484
 30
0.0
  0
LINE
  5
118
330
1F
100
AcDbEntity
  8
0
  6
HIDDEN
 62
     7
370
     0
100
AcDbLine
 10
204.8744139732
 20
87.7074180708
 30
0.0
 11
204.8744139732
 21
81.5561783166
 31
0.0
  0
ELLIPSE
  5
119
330
1F
100
AcDbEntity
  8
0
  6
HIDDEN
 62
     7
370
     0
100
AcDbEllipse
 10
161.2116722736
 20
80.6061783166
 30
0.0
 11
0.0
 21
1.599999999999994
 31
0.0
210
0.0
220
0.0
230
1.0
 40
0.4142135624
 41
4.712388980384695
 42
6.283185307179586
  0
ELLIPSE
  5
11A
330
1F
100
AcDbEntity
  8
0
  6
HIDDEN
 62
     7
370
     0
100
AcDbEllipse
 10
161.2116722736
 20
128.8061783166
 30
0.0
 11
0.0
 21
1.599999999999994
 31
0.0
210
0.0
220
0.0
230
1.0
 40
0.4142135624
 41
3.141592653589793
 42
4.712388980384695
  0
LINE
  5
11B
330
1F
100
AcDbEntity
  8
0
  6
HIDDEN
 62
     7
370
     0
100
AcDbLine
 10
160.8744139734
 20
127.2061783166
 30
0.0
 11
160.8744139734
 21
128.8061783166
 31
0.0
  0
LINE
  5
11C
330
1F
100
AcDbEntity
  8
0
  6
HIDDEN
 62
     7
370
     0
100
AcDbLine
 10
160.8744139734
 20
80.6061783166
 30
0.0
 11
160.8744139734
 21
82.2061783166
 31
0.0
  0
SPLINE
  5
11D
330
1F
100
AcDbEntity
  8
0
  6
HIDDEN
 62
     7
370
     0
100
AcDbSpline
210
0.0
220
0.0
230
1.0
 70
     8
 71
     3
 72
     8
 73
     4
 74
     0
 42
0.000000001
 43
0.00000001
 40
0.0
 40
0.0
 40
0.0
 40
0.0
 40
1.0
 40
1.0
 40
1.0
 40
1.0
 10
161.261446796329
 20
134.7731682163925
 30
0.0
 10
161.431040301981
 20
134.8794649269497
 30
0.0
 10
161.6474089943142
 20
134.9425684195734
 30
0.0
 10
161.8744139733635
 20
134.9425684195734
 30
0.0
  0
LINE
  5
11E
330
1F
100
AcDbEntity
  8
0
  6
HIDDEN
 62
     7
370
     0
100
AcDbLine
 10
161.8744139734
 20
134.9425684196
 30
0.0
 11
170.4494139734
 21
134.9425684196
 31
0.0
  0
SPLINE
  5
11F
330
1F
100
AcDbEntity
  8
0
  6
HIDDEN
 62
     7
370
     0
100
AcDbSpline
210
0.0
220
0.0
230
1.0
 70
     8
 71
     3
 72
     8
 73
     4
 74
     0
 42
0.000000001
 43
0.00000001
 40
0.0
 40
0.0
 40
0.0
 40
0.0
 40
0.0012389803509652
 40
0.0012389803509652
 40
0.0012389803509652
 40
0.0012389803509652
 10
170.4494139733634
 20
134.9425684195734
 30
0.0
 10
170.6359770960055
 20
134.682032633856
 30
0.0
 10
170.8218555437644
 20
134.421251020737
 30
0.0
 10
171.0069755168972
 20
134.160201039358
 30
0.0
  0
SPLINE
  5
120
330
1F
100
AcDbEntity
  8
0
  6
HIDDEN
 62
     7
370
     0
100
AcDbSpline
210
0.0
220
0.0
230
1.0
 70
     8
 71
     3
 72
    12
 73
     8
 74
     0
 42
0.000000001
 43
0.00000001
 40
0.0
 40
0.0
 40
0.0
 40
0.0
 40
0.2499999999999996
 40
0.2499999999999996
 40
0.4999999999999991
 40
0.4999999999999991
 40
1.0
 40
1.0
 40
1.0
 40
1.0
 10
160.8744139733635
 20
133.8325838620607
 30
0.0
 10
160.8744139733639
 20
133.9265512701332
 30
0.0
 10
160.886713150788
 20
134.0209795597827
 30
0.0
 10
160.9282669935407
 20
134.1984891714966
 30
0.0
 10
160.9579115910956
 20
134.2839351932625
 30
0.0
 10
161.0637812350317
 20
134.5219275732399
 30
0.0
 10
161.1572353438993
 20
134.6590063397996
 30
0.0
 10
161.261446796329
 20
134.7731682163926
 30
0.0
  0
SPLINE
  5
121
330
1F
100
AcDbEntity
  8
0
  6
HIDDEN
 62
     7
370
     0
100
AcDbSpline
210
0.0
220
0.0
230
1.0
 70
     8
 71
     3
 72
    10
 73
     6
 74
     0
 42
0.000000001
 43
0.00000001
 40
0.0
 40
0.0
 40
0.0
 40
0.0
 40
0.5
 40
0.5
 40
1.0
 40
1.0
 40
1.0
 40
1.0
 10
173.1052252116357
 20
130.3734239810366
 30
0.0
 10
173.1733003471169
 20
130.2498513895894
 30
0.0
 10
173.2731231639656
 20
130.1430747181299
 30
0.0
 10
173.5146956306573
 20
129.9947181805076
 30
0.0
 10
173.6568324775785
 20
129.9539009861511
 30
0.0
 10
173.7980455346633
 20
129.9539009861511
 30
0.0
  0
SPLINE
  5
122
330
1F
100
AcDbEntity
  8
0
  6
HIDDEN
 62
     7
370
     0
100
AcDbSpline
210
0.0
220
0.0
230
1.0
 70
     8
 71
     3
 72
     8
 73
     4
 74
     0
 42
0.000000001
 43
0.00000001
 40
0.0
 40
0.0
 40
0.0
 40
0.0
 40
1.0
 40
1.0
 40
1.0
 40
1.0
 10
171.0069755168972
 20
134.160201039358
 30
0.0
 10
171.7091366804031
 20
132.8994177946596
 30
0.0
 10
172.4089318455942
 20
131.6373623491514
 30
0.0
 10
173.1052252116357
 20
130.3734239810366
 30
0.0
  0
LINE
  5
123
330
1F
100
AcDbEntity
  8
0
  6
HIDDEN
 62
     7
370
     0
100
AcDbLine
 10
173.7980455347
 20
129.9539009862
 30
0.0
 11
173.8244139734
 21
129.9539009862
 31
0.0
  0
SPLINE
  5
124
330
1F
100
AcDbEntity
  8
0
  6
HIDDEN
 62
     7
370
     0
100
AcDbSpline
210
0.0
220
0.0
230
1.0
 70
     8
 71
     3
 72
     8
 73
     4
 74
     0
 42
0.000000001
 43
0.00000001
 40
0.0
 40
0.0
 40
0.0
 40
0.0
 40
0.0012389803509652
 40
0.0012389803509652
 40
0.0012389803509652
 40
0.0012389803509652
 10
171.0069755168972
 20
75.25215559378503
 30
0.0
 10
170.8218555437644
 20
74.99110561240605
 30
0.0
 10
170.6359770960054
 20
74.73032399928704
 30
0.0
 10
170.4494139733634
 20
74.4697882135697
 30
0.0
  0
LINE
  5
125
330
1F
100
AcDbEntity
  8
0
  6
HIDDEN
 62
     7
370
     0
100
AcDbLine
 10
170.4494139734
 20
74.4697882136
 30
0.0
 11
161.8744139734
 21
74.4697882136
 31
0.0
  0
SPLINE
  5
126
330
1F
100
AcDbEntity
  8
0
  6
HIDDEN
 62
     7
370
     0
100
AcDbSpline
210
0.0
220
0.0
230
1.0
 70
     8
 71
     3
 72
     8
 73
     4
 74
     0
 42
0.000000001
 43
0.00000001
 40
0.0
 40
0.0
 40
0.0
 40
0.0
 40
1.0
 40
1.0
 40
1.0
 40
1.0
 10
161.8744139733635
 20
74.4697882135697
 30
0.0
 10
161.6480696597636
 20
74.4697882135697
 30
0.0
 10
161.4306175393585
 20
74.53315668259059
 30
0.0
 10
161.261446796329
 20
74.63918841675057
 30
0.0
  0
SPLINE
  5
127
330
1F
100
AcDbEntity
  8
0
  6
HIDDEN
 62
     7
370
     0
100
AcDbSpline
210
0.0
220
0.0
230
1.0
 70
     8
 71
     3
 72
     8
 73
     4
 74
     0
 42
0.000000001
 43
0.00000001
 40
0.0
 40
0.0
 40
0.0
 40
0.0
 40
1.0
 40
1.0
 40
1.0
 40
1.0
 10
171.0069755168972
 20
75.25215559378503
 30
0.0
 10
171.7091113176933
 20
76.51289329782814
 30
0.0
 10
172.4089208517167
 20
77.77497432748456
 30
0.0
 10
173.1052252116357
 20
79.03893265210648
 30
0.0
  0
SPLINE
  5
128
330
1F
100
AcDbEntity
  8
0
  6
HIDDEN
 62
     7
370
     0
100
AcDbSpline
210
0.0
220
0.0
230
1.0
 70
     8
 71
     3
 72
    12
 73
     8
 74
     0
 42
0.000000001
 43
0.00000001
 40
0.0
 40
0.0
 40
0.0
 40
0.0
 40
0.2499999999999984
 40
0.2499999999999984
 40
0.4999999999999968
 40
0.4999999999999968
 40
1.0
 40
1.0
 40
1.0
 40
1.0
 10
173.1052252116357
 20
79.03893265210648
 30
0.0
 10
173.1391720202666
 20
79.10055419842035
 30
0.0
 10
173.1814907710384
 20
79.1588476239571
 30
0.0
 10
173.2785223252625
 20
79.26145280995506
 30
0.0
 10
173.3329924847072
 20
79.30604253617608
 30
0.0
 10
173.5155780635396
 20
79.41819404101332
 30
0.0
 10
173.6555167713882
 20
79.45845564699202
 30
0.0
 10
173.7980455346633
 20
79.45845564699202
 30
0.0
  0
LINE
  5
129
330
1F
100
AcDbEntity
  8
0
  6
HIDDEN
 62
     7
370
     0
100
AcDbLine
 10
173.7980455347
 20
79.458455647
 30
0.0
 11
173.8244139734
 21
79.458455647
 31
0.0
  0
SPLINE
  5
12A
330
1F
100
AcDbEntity
  8
0
  6
HIDDEN
 62
     7
370
     0
100
AcDbSpline
210
0.0
220
0.0
230
1.0
 70
     8
 71
     3
 72
    12
 73
     8
 74
     0
 42
0.000000001
 43
0.00000001
 40
0.0
 40
0.0
 40
0.0
 40
0.0
 40
0.249999999999998
 40
0.249999999999998
 40
0.499999999999996
 40
0.499999999999996
 40
1.0
 40
1.0
 40
1.0
 40
1.0
 10
160.8744139733635
 20
75.5797727710824
 30
0.0
 10
160.8744139733639
 20
75.48580536300986
 30
0.0
 10
160.886713150788
 20
75.39137707336042
 30
0.0
 10
160.9282669935407
 20
75.21386746164643
 30
0.0
 10
160.9579115910956
 20
75.12842143988061
 30
0.0
 10
161.0637812350317
 20
74.8904290599032
 30
0.0
 10
161.1572353438993
 20
74.75335029334346
 30
0.0
 10
161.261446796329
 20
74.6391884167505
 30
0.0
  0
LINE
  5
12B
330
1F
100
AcDbEntity
  8
0
  6
HIDDEN
 62
     7
370
     0
100
AcDbLine
 10
204.8744139732
 20
87.7074180708
 30
0.0
 11
204.8744139732
 21
121.7049385623
 31
0.0
  0
LINE
  5
12C
330
1F
100
AcDbEntity
  8
0
  6
HIDDEN
 62
     7
370
     0
100
AcDbLine
 10
160.8744139734
 20
133.8325838621
 30
0.0
 11
160.8744139734
 21
75.5797727711
 31
0.0
  0
LINE
  5
12D
330
1F
100
AcDbEntity
  8
0
  6
HIDDEN
 62
     7
370
     0
100
AcDbLine
 10
170.4494139734
 20
134.9425684196
 30
0.0
 11
170.4494139734
 21
74.4697882136
 31
0.0
  0
LINE
  5
12E
330
1F
100
AcDbEntity
  8
0
  6
HIDDEN
 62
     7
370
     0
100
AcDbLine
 10
167.2427614758
 20
123.2061783166
 30
0.0
 11
165.3744139734
 21
123.2061783166
 31
0.0
  0
LINE
  5
12F
330
1F
100
AcDbEntity
  8
0
  6
HIDDEN
 62
     7
370
     0
100
AcDbLine
 10
165.3744139734
 20
86.2061783166
 30
0.0
 11
167.2427614758
 21
86.2061783166
 31
0.0
  0
ARC
  5
130
330
1F
100
AcDbEntity
  8
0
  6
HIDDEN
 62
     7
370
     0
100
AcDbCircle
 10
165.3744139734
 20
122.2061783166
 30
0.0
 40
1.000000000000014
100
AcDbArc
 50
90.0
 51
180.0
  0
ARC
  5
131
330
1F
100
AcDbEntity
  8
0
  6
HIDDEN
 62
     7
370
     0
100
AcDbCircle
 10
165.3744139734
 20
87.2061783166
 30
0.0
 40
1.0
100
AcDbArc
 50
180.0
 51
270.0
  0
ARC
  5
132
330
1F
100
AcDbEntity
  8
0
  6
HIDDEN
 62
     7
370
     0
100
AcDbCircle
 10
167.2427614758
 20
122.2061783166
 30
0.0
 40
1.000000000000014
100
AcDbArc
 50
75.0
 51
90.0
  0
ARC
  5
133
330
1F
100
AcDbEntity
  8
0
  6
HIDDEN
 62
     7
370
     0
100
AcDbCircle
 10
167.2427614758
 20
87.2061783166
 30
0.0
 40
1.0
100
AcDbArc
 50
270.0
 51
285.0
  0
LINE
  5
134
330
1F
100
AcDbEntity
  8
0
  6
HIDDEN
 62
     7
370
     0
100
AcDbLine
 10
167.5015805209
 20
86.2402524903
 30
0.0
 11
169.2404393771
 21
86.7061783166
 31
0.0
  0
LINE
  5
135
330
1F
100
AcDbEntity
  8
0
  6
HIDDEN
 62
     7
370
     0
100
AcDbLine
 10
169.2404393771
 20
122.7061783166
 30
0.0
 11
167.5015805209
 21
123.1721041429
 31
0.0
  0
LINE
  5
136
330
1F
100
AcDbEntity
  8
0
  6
HIDDEN
 62
     7
370
     0
100
AcDbLine
 10
188.2744139732
 20
122.7061783166
 30
0.0
 11
169.2404393771
 21
122.7061783166
 31
0.0
  0
LINE
  5
137
330
1F
100
AcDbEntity
  8
0
  6
HIDDEN
 62
     7
370
     0
100
AcDbLine
 10
169.2404393771
 20
86.7061783166
 30
0.0
 11
188.2744139732
 21
86.7061783166
 31
0.0
  0
LINE
  5
138
330
1F
100
AcDbEntity
  8
0
  6
HIDDEN
 62
     7
370
     0
100
AcDbLine
 10
164.3744139734
 20
121.7061783166
 30
0.0
 11
160.7744139734
 21
121.7061783166
 31
0.0
  0
LINE
  5
139
330
1F
100
AcDbEntity
  8
0
  6
HIDDEN
 62
     7
370
     0
100
AcDbLine
 10
160.7744139734
 20
87.7061783166
 30
0.0
 11
164.3744139734
 21
87.7061783166
 31
0.0
  0
ARC
  5
13A
330
1F
100
AcDbEntity
  8
0
  6
HIDDEN
 62
     7
370
     0
100
AcDbCircle
 10
160.7744139734
 20
121.3061783166
 30
0.0
 40
0.4000000000000057
100
AcDbArc
 50
90.0
 51
180.0
  0
ARC
  5
13B
330
1F
100
AcDbEntity
  8
0
  6
HIDDEN
 62
     7
370
     0
100
AcDbCircle
 10
160.7744139734
 20
88.1061783166
 30
0.0
 40
0.4000000000000057
100
AcDbArc
 50
180.0
 51
270.0
  0
LINE
  5
13C
330
1F
100
AcDbEntity
  8
0
  6
HIDDEN
 62
     7
370
     0
100
AcDbLine
 10
160.3744139734
 20
119.7061783166
 30
0.0
 11
159.3744139734
 21
118.7061783166
 31
0.0
  0
LINE
  5
13D
330
1F
100
AcDbEntity
  8
0
  6
HIDDEN
 62
     7
370
     0
100
AcDbLine
 10
159.3744139734
 20
90.7061783166
 30
0.0
 11
160.3744139734
 21
89.7061783166
 31
0.0
  0
LINE
  5
13E
330
1F
100
AcDbEntity
  8
0
  6
HIDDEN
 62
     7
370
     0
100
AcDbLine
 10
159.3744139734
 20
118.7061783166
 30
0.0
 11
128.3744139734
 21
118.7061783166
 31
0.0
  0
LINE
  5
13F
330
1F
100
AcDbEntity
  8
0
  6
HIDDEN
 62
     7
370
     0
100
AcDbLine
 10
128.3744139734
 20
90.7061783166
 30
0.0
 11
159.3744139734
 21
90.7061783166
 31
0.0
  0
LINE
  5
140
330
1F
100
AcDbEntity
  8
0
  6
HIDDEN
 62
     7
370
     0
100
AcDbLine
 10
128.3744139734
 20
118.7061783166
 30
0.0
 11
124.1683896402
 21
111.7061783166
 31
0.0
  0
LINE
  5
141
330
1F
100
AcDbEntity
  8
0
  6
HIDDEN
 62
     7
370
     0
100
AcDbLine
 10
124.1683896402
 20
97.7061783166
 30
0.0
 11
128.3744139734
 21
90.7061783166
 31
0.0
  0
LINE
  5
142
330
1F
100
AcDbEntity
  8
0
  6
HIDDEN
 62
     7
370
     0
100
AcDbLine
 10
204.8744139732
 20
130.7802598423
 30
0.0
 11
204.2876555039
 21
130.1935088527
 31
0.0
  0
LINE
  5
143
330
1F
100
AcDbEntity
  8
0
  6
HIDDEN
 62
     7
370
     0
100
AcDbLine
 10
204.2874544074
 20
79.2190440802
 30
0.0
 11
204.8744139732
 21
78.6320965565
 31
0.0
  0
ARC
  5
144
330
1F
100
AcDbEntity
  8
0
  6
HIDDEN
 62
     7
370
     0
100
AcDbCircle
 10
94.2744139734
 20
95.4061783166
 30
0.0
 40
0.7999999999999972
100
AcDbArc
 50
90.0
 51
180.0
  0
ARC
  5
145
330
1F
100
AcDbEntity
  8
0
  6
HIDDEN
 62
     7
370
     0
100
AcDbCircle
 10
94.2744139734
 20
114.0061783166
 30
0.0
 40
0.7999999999999972
100
AcDbArc
 50
180.0
 51
270.0
  0
ARC
  5
146
330
1F
100
AcDbEntity
  8
0
  6
HIDDEN
 62
     7
370
     0
100
AcDbCircle
 10
102.2434738657
 20
96.3811783166
 30
0.0
 40
0.4000000000000244
100
AcDbArc
 50
270.0
 51
330.0
  0
ARC
  5
147
330
1F
100
AcDbEntity
  8
0
  6
HIDDEN
 62
     7
370
     0
100
AcDbCircle
 10
102.2434738657
 20
113.0311783166
 30
0.0
 40
0.4000000000000173
100
AcDbArc
 50
30.0
 51
90.0
  0
LINE
  5
148
330
1F
100
AcDbEntity
  8
0
  6
HIDDEN
 62
     7
370
     0
100
AcDbLine
 10
101.3667864041
 20
95.9811783166
 30
0.0
 11
102.2434738657
 21
95.9811783166
 31
0.0
  0
LINE
  5
149
330
1F
100
AcDbEntity
  8
0
  6
HIDDEN
 62
     7
370
     0
100
AcDbLine
 10
102.2434738657
 20
113.4311783166
 30
0.0
 11
101.3667864041
 21
113.4311783166
 31
0.0
  0
ARC
  5
14A
330
1F
100
AcDbEntity
  8
0
  6
HIDDEN
 62
     7
370
     0
100
AcDbCircle
 10
101.3667864041
 20
96.3811783166
 30
0.0
 40
0.4000000000000057
100
AcDbArc
 50
255.0
 51
270.0
  0
ARC
  5
14B
330
1F
100
AcDbEntity
  8
0
  6
HIDDEN
 62
     7
370
     0
100
AcDbCircle
 10
101.3667864041
 20
113.0311783166
 30
0.0
 40
0.4000000000000057
100
AcDbArc
 50
90.0
 51
105.0
  0
LINE
  5
14C
330
1F
100
AcDbEntity
  8
0
  6
HIDDEN
 62
     7
370
     0
100
AcDbLine
 10
101.2632587861
 20
113.4175486471
 30
0.0
 11
100.4744139734
 21
113.2061783166
 31
0.0
  0
LINE
  5
14D
330
1F
100
AcDbEntity
  8
0
  6
HIDDEN
 62
     7
370
     0
100
AcDbLine
 10
100.4744139734
 20
96.2061783166
 30
0.0
 11
101.2632587861
 21
95.9948079861
 31
0.0
  0
LINE
  5
14E
330
1F
100
AcDbEntity
  8
0
  6
HIDDEN
 62
     7
370
     0
100
AcDbLine
 10
102.5898840272
 20
96.1811783166
 30
0.0
 11
103.4703431877
 21
97.7061783166
 31
0.0
  0
LINE
  5
14F
330
1F
100
AcDbEntity
  8
0
  6
HIDDEN
 62
     7
370
     0
100
AcDbLine
 10
103.4703431877
 20
111.7061783166
 30
0.0
 11
102.5898840272
 21
113.2311783166
 31
0.0
  0
LINE
  5
150
330
1F
100
AcDbEntity
  8
0
  6
HIDDEN
 62
     7
370
     0
100
AcDbLine
 10
94.2744139734
 20
96.2061783166
 30
0.0
 11
100.4744139734
 21
96.2061783166
 31
0.0
  0
LINE
  5
151
330
1F
100
AcDbEntity
  8
0
  6
HIDDEN
 62
     7
370
     0
100
AcDbLine
 10
100.4744139734
 20
113.2061783166
 30
0.0
 11
94.2744139734
 21
113.2061783166
 31
0.0
  0
LINE
  5
152
330
1F
100
AcDbEntity
  8
0
  6
HIDDEN
 62
     7
370
     0
100
AcDbLine
 10
181.8744139734
 20
74.2061866176
 30
0.0
 11
181.8744139734
 21
80.6061783166
 31
0.0
  0
ARC
  5
153
330
1F
100
AcDbEntity
  8
0
  6
HIDDEN
 62
     7
370
     0
100
AcDbCircle
 10
180.2744139734
 20
128.8061783166
 30
0.0
 40
1.599999999999994
100
AcDbArc
 50
270.0
 51
0.0
  0
LINE
  5
154
330
1F
100
AcDbEntity
  8
0
  6
HIDDEN
 62
     7
370
     0
100
AcDbLine
 10
181.8744139734
 20
128.8061783166
 30
0.0
 11
181.8744139734
 21
135.2061070204
 31
0.0
  0
ARC
  5
155
330
1F
100
AcDbEntity
  8
0
  6
HIDDEN
 62
     7
370
     0
100
AcDbCircle
 10
180.2744139734
 20
80.6061783166
 30
0.0
 40
1.599999999999994
100
AcDbArc
 50
0.0
 51
90.0
  0
LINE
  5
156
330
1F
100
AcDbEntity
  8
0
  6
HIDDEN
 62
     7
370
     0
100
AcDbLine
 10
103.4703431877
 20
97.7061783166
 30
0.0
 11
124.1683896402
 21
97.7061783166
 31
0.0
  0
LINE
  5
157
330
1F
100
AcDbEntity
  8
0
  6
HIDDEN
 62
     7
370
     0
100
AcDbLine
 10
124.1683896402
 20
111.7061783166
 30
0.0
 11
103.4703431877
 21
111.7061783166
 31
0.0
  0
LINE
  5
158
330
1F
100
AcDbEntity
  8
0
  6
HIDDEN
 62
     7
370
     0
100
AcDbLine
 10
181.8744130634
 20
135.2061781046
 30
0.0
 11
182.8744124327
 21
136.2061778514
 31
0.0
  0
LINE
  5
159
330
1F
100
AcDbEntity
  8
0
  6
HIDDEN
 62
     7
370
     0
100
AcDbLine
 10
182.8744203348
 20
73.2061771789
 30
0.0
 11
181.8744200858
 21
74.2061769834
 31
0.0
  0
LINE
  5
15A
330
1F
100
AcDbEntity
  8
0
  6
HIDDEN
 62
     7
370
     0
100
AcDbLine
 10
188.2744139732
 20
79.2061783166
 30
0.0
 11
204.3014757079
 21
79.2061783166
 31
0.0
  0
LINE
  5
15B
330
1F
100
AcDbEntity
  8
0
  6
HIDDEN
 62
     7
370
     0
100
AcDbLine
 10
204.301691759
 20
130.2061783166
 30
0.0
 11
188.2744139732
 21
130.2061783166
 31
0.0
  0
LINE
  5
15C
330
1F
100
AcDbEntity
  8
VERMASSUNG
100
AcDbLine
 10
185.8744139734
 20
136.4561783166
 30
0.0
 11
185.8744139734
 21
109.930879265
 31
0.0
  0
LINE
  5
15D
330
1F
100
AcDbEntity
  8
VERMASSUNG
100
AcDbLine
 10
185.8744139734
 20
72.9561783166
 30
0.0
 11
185.8744139734
 21
99.4814773682
 31
0.0
  0
DIMENSION
  5
15E
330
1F
100
AcDbEntity
  8
VERMASSUNG
100
AcDbDimension
  2
_D
 10
204.8744139734
 20
142.4232164976
 30
0.0
 11
195.3744139734
 21
142.4232164976
 31
0.0
 70
   160
  1
(<>)
 71
     2
 42
-1.0
  3
SLDDIMSTYLE0
100
AcDbAlignedDimension
 13
185.8744139734
 23
136.4561783166
 33
0.0
 14
204.8744139734
 24
136.1061783166
 34
0.0
100
AcDbRotatedDimension
  0
DIMENSION
  5
16B
330
1F
100
AcDbEntity
  8
VERMASSUNG
100
AcDbDimension
  2
_D_1
 10
212.2945174321
 20
86.7061783166
 30
0.0
 11
212.2945174321
 21
104.7061783166
 31
0.0
 70
   160
  1
%%c<>
 71
     2
 42
-1.0
  3
SLDDIMSTYLE0
100
AcDbAlignedDimension
 13
188.2744139732
 23
122.7061783166
 33
0.0
 14
188.2744139732
 24
86.7061783166
 34
0.0
 50
90.0
100
AcDbRotatedDimension
  0
DIMENSION
  5
176
330
1F
100
AcDbEntity
  8
VERMASSUNG
100
AcDbDimension
  2
_D_2
 10
218.2945174321
 20
72.7061783166
 30
0.0
 11
218.2945174321
 21
104.7061783166
 31
0.0
 70
   160
  1
ST6 %%c<>
 71
     2
 42
-1.0
  3
SLDDIMSTYLE0
100
AcDbAlignedDimension
 13
204.2744139734
 23
136.7061783166
 33
0.0
 14
204.2744139734
 24
72.7061783166
 34
0.0
 50
90.0
100
AcDbRotatedDimension
  0
DIMENSION
  5
182
330
1F
100
AcDbEntity
  8
VERMASSUNG
100
AcDbDimension
  2
_D_3
 10
86.8606489037
 20
73.2061783166
 30
0.0
 11
86.8606489037
 21
104.7061783166
 31
0.0
 70
   160
  1
MAS BT 40 %%c<>
 71
     2
 42
-1.0
  3
SLDDIMSTYLE0
100
AcDbAlignedDimension
 13
182.8744098293
 23
136.2061783166
 33
0.0
 14
182.8744147473
 24
73.2061783166
 34
0.0
 50
90.0
100
AcDbRotatedDimension
  0
DIMENSION
  5
18E
330
1F
100
AcDbEntity
  8
VERMASSUNG
100
AcDbDimension
  2
_D_4
 10
204.8744139734
 20
154.4232164976
 30
0.0
 11
149.1744139734
 21
154.4232164976
 31
0.0
 70
   160
  1
(<>)
 71
     2
 42
-1.0
  3
SLDDIMSTYLE0
100
AcDbAlignedDimension
 13
93.4744139734
 23
116.5289339136
 33
0.0
 14
204.8744139734
 24
136.1061783166
 34
0.0
100
AcDbRotatedDimension
  0
DIMENSION
  5
19A
330
1F
100
AcDbEntity
  8
VERMASSUNG
100
AcDbDimension
  2
_D_5
 10
204.8744139732
 20
148.4232164976
 30
0.0
 11
181.8744139733
 21
148.4232164976
 31
0.0
 70
   160
  1
<>
 71
     2
 42
-1.0
  3
SLDDIMSTYLE0
100
AcDbAlignedDimension
 13
158.8744139734
 23
126.9311783166
 33
0.0
 14
204.8744139732
 24
130.7802626308
 34
0.0
100
AcDbRotatedDimension
  0
LINE
  5
1A4
330
1F
100
AcDbEntity
  8
VERMASSUNG
  6
CENTERX2
370
     0
100
AcDbLine
 10
92.3301070803
 20
104.7061783166
 30
0.0
 11
206.8097821773
 21
104.7061783166
 31
0.0
  0
LINE
  5
1A5
330
1F
100
AcDbEntity
  8
0
  6
Continuous
 62
     7
370
    15
100
AcDbLine
 10
271.4972382759
 20
46.8256920991
 30
0.0
 11
271.3204328564
 21
46.9277928729
 31
0.0
  0
LINE
  5
1A6
330
1F
100
AcDbEntity
  8
0
  6
Continuous
 62
     7
370
    15
100
AcDbLine
 10
267.4307136279
 20
46.9277928729
 30
0.0
 11
267.2539082084
 21
46.8256920991
 31
0.0
  0
LINE
  5
1A7
330
1F
100
AcDbEntity
  8
0
  6
Continuous
 62
     7
370
    15
100
AcDbLine
 10
272.3755732422
 20
45.1930085432
 30
0.0
 11
272.3755732422
 21
45.6012789491
 31
0.0
  0
LINE
  5
1A8
330
1F
100
AcDbEntity
  8
0
  6
Continuous
 62
     7
370
    15
100
AcDbLine
 10
266.3755732422
 20
45.6012789491
 30
0.0
 11
266.3755732422
 21
45.1930085432
 31
0.0
  0
LINE
  5
1A9
330
1F
100
AcDbEntity
  8
0
  6
Continuous
 62
     7
370
    15
100
AcDbLine
 10
274.8398119226
 20
16.5237935266
 30
0.0
 11
275.0519094796
 21
16.6462746468
 31
0.0
  0
LINE
  5
1AA
330
1F
100
AcDbEntity
  8
0
  6
Continuous
 62
     7
370
    15
100
AcDbLine
 10
286.1516816258
 20
35.873727291
 30
0.0
 11
286.1516816258
 21
36.1186497246
 31
0.0
  0
LINE
  5
1AB
330
1F
100
AcDbEntity
  8
0
  6
Continuous
 62
     7
370
    15
100
AcDbLine
 10
282.8373229879
 20
43.4441666281
 30
0.0
 11
276.5657941877
 21
47.0646431405
 31
0.0
  0
LINE
  5
1AC
330
1F
100
AcDbEntity
  8
0
  6
Continuous
 62
     7
370
    15
100
AcDbLine
 10
260.5670944655
 20
19.3510795443
 30
0.0
 11
266.8386232657
 21
15.7306030319
 31
0.0
  0
SPLINE
  5
1AD
330
1F
100
AcDbEntity
  8
0
  6
Continuous
 62
     7
370
    15
100
AcDbSpline
210
0.0
220
0.0
230
1.0
 70
     8
 71
     3
 72
    14
 73
    10
 74
     0
 42
0.000000001
 43
0.00000001
 40
0.0
 40
0.0
 40
0.0
 40
0.0
 40
0.0948989992537836
 40
0.2716624508836133
 40
0.4494352465602535
 40
0.6283162925927764
 40
0.8082057304451018
 40
0.9888847493603192
 40
0.9999999999999999
 40
0.9999999999999999
 40
0.9999999999999999
 40
0.9999999999999999
 10
275.1218252492779
 20
47.64070927767413
 30
0.0
 10
274.9885077843896
 20
47.67742697372492
 30
0.0
 10
274.6068667814083
 20
47.78253682080857
 30
0.0
 10
273.9355860429184
 20
47.85522987524181
 30
0.0
 10
273.1163217506836
 20
47.86515739258716
 30
0.0
 10
272.2660504576292
 20
47.77877385054518
 30
0.0
 10
271.3918386599946
 20
47.59630033672733
 30
0.0
 10
270.7804368805228
 20
47.41923565011728
 30
0.0
 10
270.4621159996361
 20
47.29939410076415
 30
0.0
 10
270.4436680221073
 20
47.29244880015011
 30
0.0
  0
SPLINE
  5
1AE
330
1F
100
AcDbEntity
  8
0
  6
Continuous
 62
     7
370
    15
100
AcDbSpline
210
0.0
220
0.0
230
1.0
 70
     8
 71
     3
 72
    11
 73
     7
 74
     0
 42
0.000000001
 43
0.00000001
 40
0.0
 40
0.0
 40
0.0
 40
0.0
 40
0.1854471938517183
 40
0.4695368392960783
 40
0.7521375236791649
 40
1.0
 40
1.0
 40
1.0
 40
1.0
 10
257.7844231044937
 20
22.82523355102087
 30
0.0
 10
257.8517335517179
 20
22.64512179305377
 30
0.0
 10
258.0221579943035
 20
22.18909383275176
 30
0.0
 10
258.3771347684946
 20
21.53510190902504
 30
0.0
 10
258.8113545245803
 20
20.87919707172306
 30
0.0
 10
259.1476576886365
 20
20.51564067626713
 30
0.0
 10
259.3047976018529
 20
20.34576650754935
 30
0.0
  0
LINE
  5
1AF
330
1F
100
AcDbEntity
  8
0
  6
Continuous
 62
     7
370
    15
100
AcDbLine
 10
258.557881246
 20
20.7996409622
 30
0.0
 11
259.2643849236
 21
20.3917850705
 31
0.0
  0
LINE
  5
1B0
330
1F
100
AcDbEntity
  8
0
  6
Continuous
 62
     7
370
    15
100
AcDbLine
 10
275.0252159539
 20
47.665332709
 30
0.0
 11
274.306601285
 21
48.0801801272
 31
0.0
  0
SPLINE
  5
1B1
330
1F
100
AcDbEntity
  8
0
  6
Continuous
 62
     7
370
    15
100
AcDbSpline
210
0.0
220
0.0
230
1.0
 70
     8
 71
     3
 72
    26
 73
    22
 74
     0
 42
0.000000001
 43
0.00000001
 40
0.0
 40
0.0
 40
0.0
 40
0.0
 40
0.0057422910823554
 40
0.0612690000924432
 40
0.116845710344623
 40
0.172445495791427
 40
0.2280497943529478
 40
0.2836347739210614
 40
0.3391800090595725
 40
0.3946665859149525
 40
0.4500765061930657
 40
0.5053944116489871
 40
0.5606110538817635
 40
0.6157297360319284
 40
0.6707774928168929
 40
0.7258095852783256
 40
0.7809231365985825
 40
0.8363160351483158
 40
0.8922899458248909
 40
0.9492082607691338
 40
1.0
 40
1.0
 40
1.0
 40
1.0
 10
269.2509144030122
 20
29.75510812890237
 30
0.0
 10
269.2614874323581
 20
29.78501300260787
 30
0.0
 10
269.3742993617226
 20
30.10409151735897
 30
0.0
 10
269.6302375716286
 20
30.71187856516637
 30
0.0
 10
270.0412395965653
 20
31.56661143684714
 30
0.0
 10
270.508711687403
 20
32.39994025498634
 30
0.0
 10
271.02328583182
 20
33.20213351706564
 30
0.0
 10
271.5800417268489
 20
33.96396493831005
 30
0.0
 10
272.1721131577233
 20
34.67670783506513
 30
0.0
 10
272.792504797828
 20
35.33229234923925
 30
0.0
 10
273.4336949552862
 20
35.92339746478945
 30
0.0
 10
274.0878413865224
 20
36.44357011764099
 30
0.0
 10
274.7468559328715
 20
36.88735378237083
 30
0.0
 10
275.4025645732413
 20
37.25042815189742
 30
0.0
 10
276.046852683383
 20
37.52968592737743
 30
0.0
 10
276.6719299318556
 20
37.72338528343844
 30
0.0
 10
277.2706410730381
 20
37.83089279457673
 30
0.0
 10
277.8376910829997
 20
37.85350731241976
 30
0.0
 10
278.3677669007521
 20
37.78950724315832
 30
0.0
 10
278.8432503893299
 20
37.65478532856694
 30
0.0
 10
279.1178256105246
 20
37.4999372287379
 30
0.0
 10
279.2473042663565
 20
37.42691707878861
 30
0.0
  0
LINE
  5
1B2
330
1F
100
AcDbEntity
  8
0
  6
Continuous
 62
     7
370
    15
100
AcDbLine
 10
270.7533897095
 20
50.1314055081
 30
0.0
 11
267.7216693852
 21
51.8815803978
 31
0.0
  0
SPLINE
  5
1B3
330
1F
100
AcDbEntity
  8
0
  6
Continuous
 62
     7
370
    15
100
AcDbSpline
210
0.0
220
0.0
230
1.0
 70
     8
 71
     3
 72
    32
 73
    28
 74
     0
 42
0.000000001
 43
0.00000001
 40
0.0
 40
0.0
 40
0.0
 40
0.0
 40
0.0011806956226025
 40
0.0421815201410285
 40
0.0833809984927275
 40
0.1248362505434937
 40
0.1665500523014599
 40
0.2084842728030915
 40
0.2505809386735815
 40
0.292780933382592
 40
0.3350351105477502
 40
0.3773068872836224
 40
0.4195694297292958
 40
0.4618125828181178
 40
0.5040322665587854
 40
0.5462282918699216
 40
0.5884028374392447
 40
0.6305594585427491
 40
0.6727024764129251
 40
0.7148366217726542
 40
0.756966839614644
 40
0.7990981901787846
 40
0.8412343215792178
 40
0.8833801790376932
 40
0.9255409319977792
 40
0.9677216672281888
 40
1.0
 40
1.0
 40
1.0
 40
1.0
 10
266.3714375620148
 20
52.44087309264251
 30
0.0
 10
266.3645410562089
 20
52.44322978571569
 30
0.0
 10
266.1181565579612
 20
52.52742497915084
 30
0.0
 10
265.5944185519203
 20
52.60957170361593
 30
0.0
 10
264.8029490581927
 20
52.67901780011172
 30
0.0
 10
263.9747409182957
 20
52.64490738254182
 30
0.0
 10
263.1207242949928
 20
52.52074126738453
 30
0.0
 10
262.2446901581688
 20
52.30315712228899
 30
0.0
 10
261.3530229232692
 20
51.99437296195686
 30
0.0
 10
260.4517606821611
 20
51.5961944450804
 30
0.0
 10
259.5471026923717
 20
51.11154765435189
 30
0.0
 10
258.6451044329702
 20
50.54392521740734
 30
0.0
 10
257.7516313010861
 20
49.89736879350881
 30
0.0
 10
256.8723379969206
 20
49.17634581989736
 30
0.0
 10
256.012669161669
 20
48.38568372884674
 30
0.0
 10
255.1779165233209
 20
47.53057736382201
 30
0.0
 10
254.3732116188481
 20
46.61656830692173
 30
0.0
 10
253.6035086737775
 20
45.64952177507951
 30
0.0
 10
252.8735639956746
 20
44.63560030757834
 30
0.0
 10
252.1879034675453
 20
43.58123107683727
 30
0.0
 10
251.5508216983003
 20
42.49307561186482
 30
0.0
 10
250.96626718856
 20
41.37798406772254
 30
0.0
 10
250.4381673461679
 20
40.24301653098571
 30
0.0
 10
249.9690699477187
 20
39.09512273847726
 30
0.0
 10
249.5651076891676
 20
37.94210314172985
 30
0.0
 10
249.2446509622025
 20
36.87924092229418
 30
0.0
 10
249.0929773324844
 20
36.20911657962341
 30
0.0
 10
249.0272261483224
 20
35.91861473597189
 30
0.0
  0
SPLINE
  5
1B4
330
1F
100
AcDbEntity
  8
0
  6
Continuous
 62
     7
370
    15
100
AcDbSpline
210
0.0
220
0.0
230
1.0
 70
     8
 71
     3
 72
    11
 73
     7
 74
     0
 42
0.000000001
 43
0.00000001
 40
0.0
 40
0.0
 40
0.0
 40
0.0
 40
0.048097154228222
 40
0.4390692590881389
 40
0.8281079860874815
 40
1.0
 40
1.0
 40
1.0
 40
1.0
 10
270.1459925050893
 20
21.91098402104777
 30
0.0
 10
270.1269843425865
 20
21.92053118207526
 30
0.0
 10
269.9534626454994
 20
22.00768529724074
 30
0.0
 10
269.6750076958959
 20
22.25637277571988
 30
0.0
 10
269.3739981106754
 20
22.57647920392528
 30
0.0
 10
269.2289540990733
 20
22.81549439097126
 30
0.0
 10
269.1845067093301
 20
22.88873837433759
 30
0.0
  0
LINE
  5
1B5
330
1F
100
AcDbEntity
  8
0
  6
Continuous
 62
     7
370
    15
100
AcDbLine
 10
258.7089023324
 20
50.5700128008
 30
0.0
 11
238.8221717077
 21
57.7364022352
 31
0.0
  0
LINE
  5
1B6
330
1F
100
AcDbEntity
  8
0
  6
Continuous
 62
     7
370
    15
100
AcDbLine
 10
232.4507022963
 20
46.6994976242
 30
0.0
 11
251.4785763827
 21
30.6325180469
 31
0.0
  0
LINE
  5
1B7
330
1F
100
AcDbEntity
  8
0
  6
Continuous
 62
     7
370
    15
100
AcDbLine
 10
251.9729493462
 20
24.6010412328
 30
0.0
 11
255.0046696705
 21
22.8508663431
 31
0.0
  0
SPLINE
  5
1B8
330
1F
100
AcDbEntity
  8
0
  6
Continuous
 62
     7
370
    15
100
AcDbSpline
210
0.0
220
0.0
230
1.0
 70
     8
 71
     3
 72
    13
 73
     9
 74
     0
 42
0.000000001
 43
0.00000001
 40
0.0
 40
0.0
 40
0.0
 40
0.0
 40
0.0767977175135377
 40
0.3083692272398922
 40
0.5393148283820178
 40
0.7690497794811562
 40
0.9972971027505044
 40
1.0
 40
1.0
 40
1.0
 40
1.0
 10
249.009670989921
 20
28.66772146007723
 30
0.0
 10
249.0376738078351
 20
28.57151198287645
 30
0.0
 10
249.1501147448877
 20
28.18519786966956
 30
0.0
 10
249.399070022192
 20
27.55346705280508
 30
0.0
 10
249.7798715371362
 20
26.80012319673175
 30
0.0
 10
250.2370376887593
 20
26.13350124059706
 30
0.0
 10
250.5681262460128
 20
25.713429564107
 30
0.0
 10
250.7622275656679
 20
25.5405262098368
 30
0.0
 10
250.7644992063784
 20
25.53850265688398
 30
0.0
  0
SPLINE
  5
1B9
330
1F
100
AcDbEntity
  8
0
  6
Continuous
 62
     7
370
    15
100
AcDbSpline
210
0.0
220
0.0
230
1.0
 70
     8
 71
     3
 72
    26
 73
    22
 74
     0
 42
0.000000001
 43
0.00000001
 40
0.0
 40
0.0
 40
0.0
 40
0.0
 40
0.0242745573549796
 40
0.0779154049992336
 40
0.1323196565231449
 40
0.1878311034503599
 40
0.2443689124080591
 40
0.3015856402064304
 40
0.3591089233988434
 40
0.4166546839017808
 40
0.4741126449399318
 40
0.5314664821971609
 40
0.588735303442113
 40
0.64595370488798
 40
0.7031625961814617
 40
0.7603998535020704
 40
0.8177015534350836
 40
0.8751129953402784
 40
0.9326768806042064
 40
0.9873489164415341
 40
1.0
 40
1.0
 40
1.0
 40
1.0
 10
238.779226685518
 20
57.73846967706949
 30
0.0
 10
238.7084949530748
 20
57.76557522520768
 30
0.0
 10
238.4814633537329
 20
57.85257741972887
 30
0.0
 10
238.0580699928429
 20
57.90158964664645
 30
0.0
 10
237.521021978193
 20
57.88903117076181
 30
0.0
 10
236.958257409663
 20
57.77887886571369
 30
0.0
 10
236.3795008354662
 20
57.57801854491866
 30
0.0
 10
235.7931924503654
 20
57.28673678281549
 30
0.0
 10
235.2100435964459
 20
56.91051820330635
 30
0.0
 10
234.6401850038175
 20
56.45634938555734
 30
0.0
 10
234.0928329526873
 20
55.93259621021072
 30
0.0
 10
233.5761527130553
 20
55.34811431849892
 30
0.0
 10
233.0976448370008
 20
54.712264666507
 30
0.0
 10
232.6642739403023
 20
54.03490785014053
 30
0.0
 10
232.2824678655476
 20
53.32636174920813
 30
0.0
 10
231.9580344949393
 20
52.59728948968671
 30
0.0
 10
231.6961552504175
 20
51.85855787297481
 30
0.0
 10
231.5010491826447
 20
51.12087396357063
 30
0.0
 10
231.3793396398476
 20
50.40819766472885
 30
0.0
 10
231.3402663966532
 20
49.89985777491658
 30
0.0
 10
231.3382200527224
 20
49.6345875880754
 30
0.0
 10
231.3378355121918
 20
49.58473910616581
 30
0.0
  0
SPLINE
  5
1BA
330
1F
100
AcDbEntity
  8
0
  6
Continuous
 62
     7
370
    15
100
AcDbSpline
210
0.0
220
0.0
230
1.0
 70
     8
 71
     3
 72
    13
 73
     9
 74
     0
 42
0.000000001
 43
0.00000001
 40
0.0
 40
0.0
 40
0.0
 40
0.0
 40
0.098413097380024
 40
0.2845003371568837
 40
0.4706258489415632
 40
0.6553516108485968
 40
0.8371135310737022
 40
1.0
 40
1.0
 40
1.0
 40
1.0
 10
231.3378355121918
 20
49.58473910616581
 30
0.0
 10
231.3399915795479
 20
49.46538921311099
 30
0.0
 10
231.3462245089657
 20
49.12036313713433
 30
0.0
 10
231.4160268045367
 20
48.58025118215058
 30
0.0
 10
231.5729724770245
 20
47.98893384702639
 30
0.0
 10
231.8100965201477
 20
47.46341805703046
 30
0.0
 10
232.1059804771772
 20
47.01782891411488
 30
0.0
 10
232.3555645710366
 20
46.79227641813581
 30
0.0
 10
232.473522098269
 20
46.68567661734171
 30
0.0
  0
LWPOLYLINE
  5
1BB
330
1F
100
AcDbEntity
  8
0
  6
Continuous
 62
     7
370
    15
100
AcDbPolyline
 90
       32
 70
   128
 43
0.0
 10
267.4310295939
 20
44.6828529983
 10
267.079400758
 20
44.9318017901
 10
266.8217774933
 20
45.2165163745
 10
266.6687069267
 20
45.5253405032
 10
266.6264557851
 20
45.84563088
 10
266.6967538352
 20
46.1642747792
 10
266.8767230665
 20
46.4682268822
 10
267.1589955177
 20
46.7450433541
 10
267.5320149213
 20
46.9833912961
 10
267.9805098192
 20
47.1735127154
 10
268.4861187775
 20
47.3076240188
 10
269.0281421061
 20
47.3802346737
 10
269.5843893063
 20
47.3883719915
 10
270.1320875522
 20
47.3317028293
 10
270.6488140134
 20
47.2125472293
 10
271.1134138479
 20
47.0357834359
 10
271.5068662837
 20
46.8086481793
 10
271.813063332
 20
46.5404404039
 10
272.0194692497
 20
46.2421405673
 10
272.1176337541
 20
45.9259611
 10
272.103537979
 20
45.6048464265
 10
271.9777590071
 20
45.2919430192
 10
271.7454462442
 20
45.0000611804
 10
271.4161106021
 20
44.7411505869
 10
271.0032351208
 20
44.5258110689
 10
270.5237229709
 20
44.3628586514
 10
269.9972054363
 20
44.2589646255
 10
269.4452382065
 20
44.2183824251
 10
268.8904188849
 20
44.2427734899
 10
268.3554618398
 20
44.3311392471
 10
267.8622682752
 20
44.4798619921
 10
267.4310295939
 20
44.6828529983
  0
ARC
  5
1BC
330
1F
100
AcDbEntity
  8
0
  6
Continuous
 62
     7
370
    15
100
AcDbCircle
 10
267.7189765307
 20
45.6012448724
 30
0.0
 40
1.309793707143901
100
AcDbArc
 50
110.7977285262
 51
249.2183997617
  0
LWPOLYLINE
  5
1BD
330
1F
100
AcDbEntity
  8
0
  6
Continuous
 62
     7
370
    15
100
AcDbPolyline
 90
       17
 70
   128
 43
0.0
 10
271.4972382759
 20
46.8256920991
 10
271.8699820791
 20
46.5634505553
 10
272.1472118397
 20
46.2640342785
 10
272.3179290834
 20
45.9391486861
 10
272.3755732422
 20
45.6012789491
 10
272.3179290834
 20
45.2634092122
 10
272.1472118397
 20
44.9385236198
 10
271.8699820791
 20
44.639107343
 10
271.4968935857
 20
44.3766667814
 10
271.0422839412
 20
44.1612873787
 10
270.5236235392
 20
44.0012460444
 10
269.9608442082
 20
43.9026930774
 10
269.3755732422
 20
43.8694158129
 10
268.7903022761
 20
43.9026930774
 10
268.2275229451
 20
44.0012460444
 10
267.7088625431
 20
44.1612873787
 10
267.2542528986
 20
44.3766667814
  0
LWPOLYLINE
  5
1BE
330
1F
100
AcDbEntity
  8
0
  6
Continuous
 62
     7
370
    15
100
AcDbPolyline
 90
       25
 70
   128
 43
0.0
 10
268.1381363751
 20
45.0910570543
 10
267.8600287855
 20
45.300287404
 10
267.6852030461
 20
45.5439413069
 10
267.6255732422
 20
45.8054141521
 10
267.6852030461
 20
46.0668869973
 10
267.8600287855
 20
46.3105409002
 10
268.1381363751
 20
46.5197712499
 10
268.5005732422
 20
46.680319344
 10
268.9226399132
 20
46.7812440951
 10
269.3755732422
 20
46.8156676482
 10
269.8285065711
 20
46.7812440951
 10
270.2505732422
 20
46.680319344
 10
270.6130101092
 20
46.5197712499
 10
270.8911176988
 20
46.3105409002
 10
271.0659434382
 20
46.0668869973
 10
271.1255732422
 20
45.8054141521
 10
271.0659434382
 20
45.5439413069
 10
270.8911176988
 20
45.300287404
 10
270.6130101092
 20
45.0910570543
 10
270.2505732422
 20
44.9305089602
 10
269.8285065711
 20
44.8295842091
 10
269.3755732422
 20
44.7951606559
 10
268.9226399132
 20
44.8295842091
 10
268.5005732422
 20
44.9305089602
 10
268.1381363751
 20
45.0910570543
  0
SPLINE
  5
1BF
330
1F
100
AcDbEntity
  8
0
  6
Continuous
 62
     7
370
    15
100
AcDbSpline
210
0.0
220
0.0
230
1.0
 70
     8
 71
     3
 72
     9
 73
     5
 74
     0
 42
0.000000001
 43
0.00000001
 40
0.0
 40
0.0
 40
0.0
 40
0.0
 40
0.6311775999676854
 40
1.0
 40
1.0
 40
1.0
 40
1.0
 10
268.3150815885484
 20
44.99349597197909
 30
0.0
 10
268.1801137443959
 20
45.08643090315487
 30
0.0
 10
267.9662787728135
 20
45.23367144397974
 30
0.0
 10
267.7736035666435
 20
45.45159267205923
 30
0.0
 10
267.7025406346772
 20
45.5319669024175
 30
0.0
  0
SPLINE
  5
1C0
330
1F
100
AcDbEntity
  8
0
  6
Continuous
 62
     7
370
    15
100
AcDbSpline
210
0.0
220
0.0
230
1.0
 70
     8
 71
     3
 72
    11
 73
     7
 74
     0
 42
0.000000001
 43
0.00000001
 40
0.0
 40
0.0
 40
0.0
 40
0.0
 40
0.2164553779443431
 40
0.4403112895790522
 40
0.7519005688038667
 40
1.0
 40
1.0
 40
1.0
 40
1.0
 10
271.0486058496284
 20
46.04954890545743
 30
0.0
 10
271.0178977053561
 20
45.93902730449473
 30
0.0
 10
270.9554315160956
 20
45.71420540767523
 30
0.0
 10
270.8395109525123
 20
45.38924274442834
 30
0.0
 10
270.7151653543548
 20
45.16669325209587
 30
0.0
 10
270.6355916384348
 20
45.10920929249614
 30
0.0
 10
270.6003181135444
 20
45.08372773924332
 30
0.0
  0
SPLINE
  5
1C1
330
1F
100
AcDbEntity
  8
0
  6
Continuous
 62
     7
370
    15
100
AcDbSpline
210
0.0
220
0.0
230
1.0
 70
     8
 71
     3
 72
    11
 73
     7
 74
     0
 42
0.000000001
 43
0.00000001
 40
0.0
 40
0.0
 40
0.0
 40
0.0
 40
0.1843643438496174
 40
0.5174526391740231
 40
0.8663352079125957
 40
0.9999999999999999
 40
0.9999999999999999
 40
0.9999999999999999
 40
0.9999999999999999
 10
269.8238609782368
 20
46.75657907015156
 30
0.0
 10
269.89493124039
 20
46.67744515758842
 30
0.0
 10
270.094403079413
 20
46.45534119188144
 30
0.0
 10
270.466036889427
 20
46.16121873413195
 30
0.0
 10
270.8120680619493
 20
46.05689294335152
 30
0.0
 10
270.9972975882424
 20
46.05114192710356
 30
0.0
 10
271.0486058496284
 20
46.04954890545743
 30
0.0
  0
SPLINE
  5
1C2
330
1F
100
AcDbEntity
  8
0
  6
Continuous
 62
     7
370
    15
100
AcDbSpline
210
0.0
220
0.0
230
1.0
 70
     8
 71
     3
 72
    11
 73
     7
 74
     0
 42
0.000000001
 43
0.00000001
 40
0.0
 40
0.0
 40
0.0
 40
0.0
 40
0.2164553779443429
 40
0.4403112895790532
 40
0.7519005688038677
 40
1.0
 40
1.0
 40
1.0
 40
1.0
 10
268.1508283707612
 20
46.49778806863161
 30
0.0
 10
268.2654327253916
 20
46.47115358769786
 30
0.0
 10
268.4985597174668
 20
46.41697400223974
 30
0.0
 10
268.9311811504018
 20
46.40867789314568
 30
0.0
 10
269.3952452404232
 20
46.52581008347104
 30
0.0
 10
269.6922183911838
 20
46.68570200303031
 30
0.0
 10
269.8238609782368
 20
46.75657907015156
 30
0.0
  0
SPLINE
  5
1C3
330
1F
100
AcDbEntity
  8
0
  6
Continuous
 62
     7
370
    15
100
AcDbSpline
210
0.0
220
0.0
230
1.0
 70
     8
 71
     3
 72
    11
 73
     7
 74
     0
 42
0.000000001
 43
0.00000001
 40
0.0
 40
0.0
 40
0.0
 40
0.0
 40
0.2164553779443424
 40
0.440311289579052
 40
0.7519005688038668
 40
1.0
 40
1.0
 40
1.0
 40
1.0
 10
267.7025406346772
 20
45.5319669024175
 30
0.0
 10
267.7332487789495
 20
45.55376467281403
 30
0.0
 10
267.7957149682099
 20
45.59810547175554
 30
0.0
 10
267.9116355317933
 20
45.77263688294496
 30
0.0
 10
268.0359811299508
 20
46.08588438419159
 30
0.0
 10
268.1155548458708
 20
46.37127832609864
 30
0.0
 10
268.1508283707612
 20
46.49778806863161
 30
0.0
  0
LINE
  5
1C4
330
1F
100
AcDbEntity
  8
0
  6
Continuous
 62
     7
370
    15
100
AcDbLine
 10
268.1508283708
 20
45.083804512
 30
0.0
 11
268.1508283708
 21
46.4977880686
 31
0.0
  0
LINE
  5
1C5
330
1F
100
AcDbEntity
  8
0
  6
Continuous
 62
     7
370
    15
100
AcDbLine
 10
269.8238609782
 20
44.8288695581
 30
0.0
 11
269.8238609782
 21
46.7565790702
 31
0.0
  0
LWPOLYLINE
  5
1C6
330
1F
100
AcDbEntity
  8
0
  6
Continuous
 62
     7
370
    15
100
AcDbPolyline
 90
       75
 70
   128
 43
0.0
 10
275.0501051612
 20
42.2846143598
 10
274.108625706
 20
41.6949267564
 10
273.1739296318
 20
41.0171217
 10
272.2527514453
 20
40.2560827917
 10
271.3517282564
 20
39.4172933342
 10
270.4773519579
 20
38.5067968249
 10
269.635922451
 20
37.5311534118
 10
268.8335022546
 20
36.4973926282
 10
268.0758728246
 20
35.4129627443
 10
267.3684928984
 20
34.285677102
 10
266.7164591645
 20
33.1236578205
 10
266.1244695411
 20
31.9352772751
 10
265.5967893268
 20
30.729097775
 10
265.1372204697
 20
29.513809871
 10
264.749074174
 20
28.2981697405
 10
264.4351470425
 20
27.0909360984
 10
264.1977009276
 20
25.9008070907
 10
264.0384466338
 20
24.7363576242
 10
263.9585315921
 20
23.605977584
 10
263.9585315921
 20
22.5178113842
 10
264.0384466338
 20
21.4796992873
 10
264.1977009276
 20
20.4991209145
 10
264.4351470425
 20
19.5831413557
 10
264.749074174
 20
18.7383602645
 10
265.1372204697
 20
17.970864308
 10
265.5967893268
 20
17.2861833122
 10
266.1244695411
 20
16.6892504193
 10
266.7164591645
 20
16.1843665445
 10
267.3684928984
 20
15.7751693878
 10
268.0758728246
 20
15.4646072239
 10
268.8335022546
 20
15.2549176605
 10
269.635922451
 20
15.1476115155
 10
270.4773519579
 20
15.1434619323
 10
271.3517282564
 20
15.2424988087
 10
272.2527514453
 20
15.4440085817
 10
273.1739296318
 20
15.7465393688
 10
274.108625706
 20
16.1479114287
 10
275.0501051612
 20
16.6452328666
 10
275.9915846164
 20
17.2349204701
 10
276.9262806906
 20
17.9127255265
 10
277.8474588771
 20
18.6737644348
 10
278.7484820659
 20
19.5125538922
 10
279.6228583644
 20
20.4230504016
 10
280.4642878713
 20
21.3986938146
 10
281.2667080677
 20
22.4324545982
 10
282.0243374978
 20
23.5168844822
 10
282.731717424
 20
24.6441701244
 10
283.3837511578
 20
25.806189406
 10
283.9757407813
 20
26.9945699514
 10
284.5034209956
 20
28.2007494515
 10
284.9629898527
 20
29.4160373554
 10
285.3511361484
 20
30.631677486
 10
285.6650632798
 20
31.8389111281
 10
285.9025093948
 20
33.0290401358
 10
286.0617636885
 20
34.1934896023
 10
286.1416787302
 20
35.3238696425
 10
286.1416787302
 20
36.4120358422
 10
286.0617636885
 20
37.4501479392
 10
285.9025093948
 20
38.4307263119
 10
285.6650632798
 20
39.3467058708
 10
285.3511361484
 20
40.191486962
 10
284.9629898527
 20
40.9589829185
 10
284.5034209956
 20
41.6436639143
 10
283.9757407813
 20
42.2405968072
 10
283.3837511578
 20
42.7454806819
 10
282.731717424
 20
43.1546778387
 10
282.0243374978
 20
43.4652400025
 10
281.2667080677
 20
43.674929566
 10
280.4642878713
 20
43.7822357109
 10
279.6228583644
 20
43.7863852941
 10
278.7484820659
 20
43.6873484178
 10
277.8474588771
 20
43.4858386448
 10
276.9262806906
 20
43.1833078577
 10
275.9915846164
 20
42.7819357977
 10
275.0501051612
 20
42.2846143598
  0
LWPOLYLINE
  5
1C7
330
1F
100
AcDbEntity
  8
0
  6
Continuous
 62
     7
370
    15
100
AcDbPolyline
 90
       39
 70
   128
 43
0.0
 10
274.8379731268
 20
42.6520378202
 10
273.8912663995
 20
42.0596960827
 10
272.9512001397
 20
41.3798700431
 10
272.0243682368
 20
40.6173281926
 10
271.1172717506
 20
39.7774192144
 10
270.2362733112
 20
38.8660344666
 10
269.3875524897
 20
37.8895666583
 10
268.5770624529
 20
36.8548650095
 10
267.810488206
 20
35.769187209
 10
267.0932067165
 20
34.6401485064
 10
266.4302491988
 20
33.475668297
 10
265.8262658236
 20
32.2839145728
 10
265.2854931001
 20
31.0732466299
 10
264.8117241606
 20
29.8521564341
 10
264.4082821538
 20
28.6292090557
 10
264.0779969354
 20
27.4129825919
 10
263.823185219
 20
26.2120079976
 10
263.6456343256
 20
25.0347092465
 10
263.5465896472
 20
23.8893442435
 10
263.5267459111
 20
22.7839469012
 10
263.5862423068
 20
21.7262707877
 10
263.7246615098
 20
20.723734741
 10
263.9410326089
 20
19.7833708312
 10
264.2338379164
 20
18.9117750354
 10
264.6010236132
 20
18.1150609719
 10
265.0400141557
 20
17.3988170174
 10
265.5477303405
 20
16.7680671086
 10
266.1206109034
 20
16.227235503
 10
266.754637499
 20
15.7801157456
 10
267.445362886
 20
15.4298440604
 10
268.1879421224
 20
15.1788773515
 10
268.9771665482
 20
15.0289759701
 10
269.8075003211
 20
14.9811913666
 10
270.6731192464
 20
15.0358587157
 10
271.5679516293
 20
15.1925945652
 10
272.4857208634
 20
15.4502995258
 10
273.419989457
 20
15.8071659824
 10
274.3642041873
 20
16.2606907731
 10
274.8398119226
 20
16.5237935266
  0
LWPOLYLINE
  5
1C8
330
1F
100
AcDbEntity
  8
0
  6
Continuous
 62
     7
370
    15
100
AcDbPolyline
 90
       20
 70
   128
 43
0.0
 10
286.1516816258
 20
36.1186497246
 10
286.1293566065
 20
36.926098114
 10
286.0303119281
 20
37.9571085654
 10
285.8527610347
 20
38.9294114185
 10
285.5979493182
 20
39.8361866672
 10
285.2676640998
 20
40.6710739349
 10
284.864222093
 20
41.4282170871
 10
284.3904531535
 20
42.1023053086
 10
283.8496804301
 20
42.6886103549
 10
283.2456970548
 20
43.1830197174
 10
282.5827395371
 20
43.5820654696
 10
281.8654580477
 20
43.8829485923
 10
281.0988838008
 20
44.0835586066
 10
280.2883937639
 20
44.1824883772
 10
279.4396729424
 20
44.1790439831
 10
278.5586745031
 20
44.0732495841
 10
277.6515780168
 20
43.865847252
 10
276.7247461139
 20
43.558291765
 10
275.7846798541
 20
43.1527404039
 10
274.8379731268
 20
42.6520378202
  0
SPLINE
  5
1C9
330
1F
100
AcDbEntity
  8
0
  6
Continuous
 62
     7
370
    15
100
AcDbSpline
210
0.0
220
0.0
230
1.0
 70
     8
 71
     3
 72
    56
 73
    52
 74
     0
 42
0.000000001
 43
0.00000001
 40
0.0
 40
0.0
 40
0.0
 40
0.0
 40
0.0624999999999998
 40
0.0624999999999998
 40
0.1249999999999996
 40
0.1249999999999996
 40
0.1874999999999994
 40
0.1874999999999994
 40
0.2499999999999992
 40
0.2499999999999992
 40
0.2812499999999991
 40
0.2812499999999991
 40
0.3124999999999989
 40
0.3124999999999989
 40
0.3437499999999988
 40
0.3437499999999988
 40
0.3749999999999988
 40
0.3749999999999988
 40
0.4374999999999988
 40
0.4374999999999988
 40
0.4687499999999988
 40
0.4687499999999988
 40
0.4999999999999988
 40
0.4999999999999988
 40
0.5312499999999988
 40
0.5312499999999988
 40
0.5624999999999988
 40
0.5624999999999988
 40
0.5937499999999988
 40
0.5937499999999988
 40
0.6249999999999988
 40
0.6249999999999988
 40
0.6562499999999988
 40
0.6562499999999988
 40
0.6874999999999988
 40
0.6874999999999988
 40
0.7499999999999982
 40
0.7499999999999982
 40
0.7812499999999984
 40
0.7812499999999984
 40
0.8124999999999986
 40
0.8124999999999986
 40
0.8437499999999987
 40
0.8437499999999987
 40
0.8749999999999988
 40
0.8749999999999988
 40
0.9374999999999993
 40
0.9374999999999993
 40
0.9687499999999997
 40
0.9687499999999997
 40
1.0
 40
1.0
 40
1.0
 40
1.0
 10
270.8466309945436
 20
47.32074992586251
 30
0.0
 10
271.092628057108
 20
47.22961921852748
 30
0.0
 10
271.3244709233639
 20
47.12810798053156
 30
0.0
 10
271.7563576436621
 20
46.90654133822544
 30
0.0
 10
271.9497322433407
 20
46.78998243006356
 30
0.0
 10
272.2928164290865
 20
46.54547963979577
 30
0.0
 10
272.4435714489755
 20
46.41601979356427
 30
0.0
 10
272.6866346713085
 20
46.15421525122948
 30
0.0
 10
272.78071100905
 20
46.0211314469163
 30
0.0
 10
272.8780998972645
 20
45.81556882990316
 30
0.0
 10
272.9030554806997
 20
45.74604476692183
 30
0.0
 10
272.9364335853775
 20
45.60812856225194
 30
0.0
 10
272.9451080803681
 20
45.53927722343634
 30
0.0
 10
272.9461300768618
 20
45.40128534386672
 30
0.0
 10
272.9384826218716
 20
45.33214624120286
 30
0.0
 10
272.9057923790825
 20
45.1930441470034
 30
0.0
 10
272.8804602611864
 20
45.12273094286592
 30
0.0
 10
272.7792116418378
 20
44.91616107566712
 30
0.0
 10
272.6783592674537
 20
44.7822934345344
 30
0.0
 10
272.4728765982056
 20
44.58546677211387
 30
0.0
 10
272.3949725047644
 20
44.52051040834927
 30
0.0
 10
272.2257061657965
 20
44.39632191355124
 30
0.0
 10
272.1337866081624
 20
44.33649771042671
 30
0.0
 10
271.9353768331463
 20
44.22131925119727
 30
0.0
 10
271.8284215508298
 20
44.16574942490222
 30
0.0
 10
271.6012828179501
 20
44.0602849128256
 30
0.0
 10
271.4829776511122
 20
44.01121219590716
 30
0.0
 10
271.2373905936278
 20
43.92017948184342
 30
0.0
 10
271.110106723467
 20
43.87822068345429
 30
0.0
 10
270.8466119046552
 20
43.80165857277376
 30
0.0
 10
270.7106425750505
 20
43.76721134713267
 30
0.0
 10
270.4374345610786
 20
43.70769417790523
 30
0.0
 10
270.2992725460969
 20
43.68234203302551
 30
0.0
 10
270.0199062923004
 20
43.64053723622515
 30
0.0
 10
269.8778625383604
 20
43.62402807679199
 30
0.0
 10
269.4537835776788
 20
43.58913154709222
 30
0.0
 10
269.1752029795295
 20
43.58501853549721
 30
0.0
 10
268.7627871167125
 20
43.60835075349704
 30
0.0
 10
268.6259496681715
 20
43.6211966517012
 30
0.0
 10
268.3601039194115
 20
43.65650490916089
 30
0.0
 10
268.230322110055
 20
43.67898385986408
 30
0.0
 10
267.9768199983986
 20
43.73364104870768
 30
0.0
 10
267.8531003655863
 20
43.76581953371169
 30
0.0
 10
267.6117547342425
 20
43.84023432132542
 30
0.0
 10
267.4940708399507
 20
43.88258501114786
 30
0.0
 10
267.1581072202646
 20
44.02207226335158
 30
0.0
 10
266.9538620557008
 20
44.13231537544994
 30
0.0
 10
266.6771507824727
 20
44.32377590356452
 30
0.0
 10
266.5895988468654
 20
44.39231282646558
 30
0.0
 10
266.4282556878096
 20
44.53540764176145
 30
0.0
 10
266.354039100189
 20
44.61019364779915
 30
0.0
 10
266.2862576586085
 20
44.68810243650469
 30
0.0
  0
ARC
  5
1CA
330
1F
100
AcDbEntity
  8
0
  6
Continuous
 62
     7
370
    15
100
AcDbCircle
 10
263.313371789
 20
24.0882208909
 30
0.0
 40
5.475632134838365
100
AcDbArc
 50
223.9791566328
 51
239.8977138854
  0
LWPOLYLINE
  5
1CB
330
1F
100
AcDbEntity
  8
0
  6
Continuous
 62
     7
370
    15
100
AcDbPolyline
 90
        3
 70
   128
 43
0.0
 10
276.5657941877
 20
47.0646431405
 10
275.9127678087
 20
47.3845674589
 10
275.2083748348
 20
47.6184823745
  0
LINE
  5
1CC
330
1F
100
AcDbEntity
  8
0
  6
Continuous
 62
     7
370
    15
100
AcDbLine
 10
281.0600744819
 20
29.4691019005
 30
0.0
 11
283.2348661534
 21
32.1745220644
 31
0.0
  0
SPLINE
  5
1CD
330
1F
100
AcDbEntity
  8
0
  6
Continuous
 62
     7
370
    15
100
AcDbSpline
210
0.0
220
0.0
230
1.0
 70
     8
 71
     3
 72
    20
 73
    16
 74
     0
 42
0.000000001
 43
0.00000001
 40
0.0
 40
0.0
 40
0.0
 40
0.0
 40
0.0469163091108926
 40
0.0977062414429345
 40
0.151668963303151
 40
0.2078463383218537
 40
0.2651938476233424
 40
0.3192095203174492
 40
0.3728953068123797
 40
0.4259306594991006
 40
0.4781535685998868
 40
0.5793596734499773
 40
0.669805835412183
 40
0.8327057026615072
 40
0.9074992363786808
 40
0.9074992363786808
 40
0.9074992363786808
 40
0.9074992363786808
 10
283.2348661533688
 20
32.17452206442312
 30
0.0
 10
283.335197497708
 20
32.29933330294896
 30
0.0
 10
283.53425018474
 20
32.57483534857992
 30
0.0
 10
283.8002093080894
 20
33.03440467025334
 30
0.0
 10
284.0266235124137
 20
33.54444672878945
 30
0.0
 10
284.1916505910236
 20
34.08098267297399
 30
0.0
 10
284.2745853353157
 20
34.60203938572907
 30
0.0
 10
284.2695476775237
 20
35.07578649425179
 30
0.0
 10
284.180814203804
 20
35.47846375538997
 30
0.0
 10
284.0135432541418
 20
35.79849250121113
 30
0.0
 10
283.7109619682976
 20
36.10579893854432
 30
0.0
 10
283.2099500910658
 20
36.22406887904631
 30
0.0
 10
282.498011516533
 20
36.2629647712104
 30
0.0
 10
281.9973167182661
 20
36.3164215459542
 30
0.0
 10
281.2926027748255
 20
36.37965956401458
 30
0.0
 10
281.0597000683123
 20
36.40035782576174
 30
0.0
  0
SPLINE
  5
1CE
330
1F
100
AcDbEntity
  8
0
  6
Continuous
 62
     7
370
    15
100
AcDbSpline
210
0.0
220
0.0
230
1.0
 70
     8
 71
     3
 72
    20
 73
    16
 74
     0
 42
0.000000001
 43
0.00000001
 40
0.0
 40
0.0
 40
0.0
 40
0.0
 40
0.0469163091108926
 40
0.0977062414429344
 40
0.151668963303151
 40
0.2078463383218538
 40
0.2651938476233425
 40
0.3192095203174494
 40
0.3728953068123799
 40
0.4259306594991008
 40
0.4781535685998869
 40
0.5793596734499776
 40
0.6698058354121833
 40
0.8327057026615075
 40
0.9074992363786817
 40
0.9074992363786817
 40
0.9074992363786817
 40
0.9074992363786817
 10
266.8653441689005
 20
22.72459817007549
 30
0.0
 10
266.7650128245613
 20
22.73356930415316
 30
0.0
 10
266.5659601375293
 20
22.77925000922173
 30
0.0
 10
266.3000010141799
 20
22.93174946324189
 30
0.0
 10
266.0735868098557
 20
23.18037924578202
 30
0.0
 10
265.9085597312457
 20
23.52637898068076
 30
0.0
 10
265.8256249869536
 20
23.95168127586625
 30
0.0
 10
265.8306626447455
 20
24.43124474027091
 30
0.0
 10
265.9193961184653
 20
24.93637148946729
 30
0.0
 10
266.0866670681274
 20
25.44952716294611
 30
0.0
 10
266.3892483539718
 20
26.10618651672921
 30
0.0
 10
266.8902602312035
 20
26.80291245790082
 30
0.0
 10
267.6021988057364
 20
27.66379513173985
 30
0.0
 10
268.1028936040033
 20
28.29534181557295
 30
0.0
 10
268.8076075474438
 20
29.17222523380045
 30
0.0
 10
269.040510253957
 20
29.46182723671073
 30
0.0
  0
LINE
  5
1CF
330
1F
100
AcDbEntity
  8
0
  6
Continuous
 62
     7
370
    15
100
AcDbLine
 10
269.0401358404
 20
22.5301390227
 30
0.0
 11
266.8653441689
 21
22.7245981701
 31
0.0
  0
SPLINE
  5
1D0
330
1F
100
AcDbEntity
  8
0
  6
Continuous
 62
     7
370
    15
100
AcDbSpline
210
0.0
220
0.0
230
1.0
 70
     8
 71
     3
 72
    10
 73
     6
 74
     0
 42
0.000000001
 43
0.00000001
 40
0.0
 40
0.0
 40
0.0
 40
0.0
 40
0.5
 40
0.5
 40
1.0
 40
1.0
 40
1.0
 40
1.0
 10
270.4512906240289
 20
47.29556429191635
 30
0.0
 10
270.5160334576628
 20
47.32160197137929
 30
0.0
 10
270.5819265065956
 20
47.33877095377458
 30
0.0
 10
270.7166286797897
 20
47.35014046878632
 30
0.0
 10
270.7844505774173
 20
47.34378493829735
 30
0.0
 10
270.8466309945436
 20
47.32074992586251
 30
0.0
  0
LWPOLYLINE
  5
1D1
330
1F
100
AcDbEntity
  8
0
  6
Continuous
 62
     7
370
    15
100
AcDbPolyline
 90
       22
 70
   128
 43
0.0
 10
266.2138908558
 20
44.8493654745
 10
265.2928548305
 20
44.0663327772
 10
264.3934255795
 20
43.2070764811
 10
263.5219963441
 20
42.2777042738
 10
262.6847613383
 20
41.2848222342
 10
261.8876717197
 20
40.2354878762
 10
261.1363932885
 20
39.1371599828
 10
260.4362662135
 20
37.9976455885
 10
259.7922670744
 20
36.8250444858
 10
259.2089734873
 20
35.6276916513
 10
258.6905315666
 20
34.4140979995
 10
258.240626454
 20
33.1928898864
 10
257.8624561242
 20
31.9727477925
 10
257.558708653
 20
30.7623446207
 10
257.3315431107
 20
29.570284049
 10
257.1825742146
 20
28.4050393738
 10
257.112860852
 20
27.2748932814
 10
257.122898553
 20
26.1878789733
 10
257.2126159686
 20
25.151723066
 10
257.3813753775
 20
24.1737906685
 10
257.6279772195
 20
23.261033031
 10
257.7601600313
 20
22.883219993
  0
SPLINE
  5
1D2
330
1F
100
AcDbEntity
  8
0
  6
Continuous
 62
     7
370
    15
100
AcDbSpline
210
0.0
220
0.0
230
1.0
 70
     8
 71
     3
 72
    10
 73
     6
 74
     0
 42
0.000000001
 43
0.00000001
 40
0.0
 40
0.0
 40
0.0
 40
0.0
 40
0.5
 40
0.5
 40
1.0
 40
1.0
 40
1.0
 40
1.0
 10
266.2862576586085
 20
44.68810243650468
 30
0.0
 10
266.2522460174986
 20
44.72719581809971
 30
0.0
 10
266.2308101697158
 20
44.76002730978534
 30
0.0
 10
266.2083078361096
 20
44.81367359192268
 30
0.0
 10
266.2072293417074
 20
44.83420060866329
 30
0.0
 10
266.2138908557731
 20
44.8493654745094
 30
0.0
  0
SPLINE
  5
1D3
330
1F
100
AcDbEntity
  8
0
  6
Continuous
 62
     7
370
    15
100
AcDbSpline
210
0.0
220
0.0
230
1.0
 70
     8
 71
     3
 72
    10
 73
     6
 74
     0
 42
0.000000001
 43
0.00000001
 40
0.0
 40
0.0
 40
0.0
 40
0.0
 40
0.5
 40
0.5
 40
1.0
 40
1.0
 40
1.0
 40
1.0
 10
266.2138908557731
 20
44.84936547450939
 30
0.0
 10
266.2209585782346
 20
44.86545506944945
 30
0.0
 10
266.2216308564635
 20
44.88855202410052
 30
0.0
 10
266.2097429579284
 20
44.95067153316796
 30
0.0
 10
266.1973160137531
 20
44.98911440530421
 30
0.0
 10
266.1764328370564
 20
45.03563327982782
 30
0.0
  0
SPLINE
  5
1D4
330
1F
100
AcDbEntity
  8
0
  6
Continuous
 62
     7
370
    15
100
AcDbSpline
210
0.0
220
0.0
230
1.0
 70
     8
 71
     3
 72
    29
 73
    25
 74
     0
 42
0.000000001
 43
0.00000001
 40
0.0
 40
0.0
 40
0.0
 40
0.0
 40
0.0076628773784606
 40
0.0485194894134251
 40
0.0966504129371736
 40
0.1451652055719263
 40
0.1949668212486553
 40
0.2452483476114001
 40
0.2886748958661063
 40
0.3324537975341987
 40
0.3773901385543641
 40
0.422744211083047
 40
0.4622107920391095
 40
0.5425426883246228
 40
0.5835001583586178
 40
0.6223894970009869
 40
0.7013609787522894
 40
0.7415018908822542
 40
0.7829535101409659
 40
0.8246560121862411
 40
0.8671111758872744
 40
0.9098114150598854
 40
0.9547712717269758
 40
1.0
 40
1.0
 40
1.0
 40
1.0
 10
269.3524622841459
 20
47.37742447465722
 30
0.0
 10
269.3372369427581
 20
47.37997176151195
 30
0.0
 10
269.24083375714
 20
47.39610056685192
 30
0.0
 10
269.0457538244264
 20
47.41185926703091
 30
0.0
 10
268.7696438298624
 20
47.42877664802653
 30
0.0
 10
268.4772269627095
 20
47.42830555458573
 30
0.0
 10
268.1853682422723
 20
47.41077095241261
 30
0.0
 10
267.9108524179891
 20
47.3754189457707
 30
0.0
 10
267.6571979317416
 20
47.32470530760634
 30
0.0
 10
267.4237987958538
 20
47.26065573370281
 30
0.0
 10
267.1999368039779
 20
47.17996174083358
 30
0.0
 10
266.9981404894459
 20
47.08673381576047
 30
0.0
 10
266.7615842317797
 20
46.95096356673339
 30
0.0
 10
266.5612511448485
 20
46.79618696308443
 30
0.0
 10
266.3966578679853
 20
46.62380475096118
 30
0.0
 10
266.2567346985576
 20
46.44247885053964
 30
0.0
 10
266.1524774025556
 20
46.24873693091637
 30
0.0
 10
266.0832455908026
 20
46.04386732630493
 30
0.0
 10
266.0490811614601
 20
45.88341516495089
 30
0.0
 10
266.0338200160298
 20
45.71813044597973
 30
0.0
 10
266.0378754662815
 20
45.55062211213964
 30
0.0
 10
266.062217336884
 20
45.37966336400002
 30
0.0
 10
266.1059531892528
 20
45.20683419307719
 30
0.0
 10
266.1528929752496
 20
45.09281355760561
 30
0.0
 10
266.1764328370564
 20
45.03563327982781
 30
0.0
  0
ARC
  5
1D5
330
1F
100
AcDbEntity
  8
0
  6
Continuous
 62
     7
370
    15
100
AcDbCircle
 10
262.3397075418
 20
26.5599860818
 30
0.0
 40
6.890847990551109
100
AcDbArc
 50
188.312493873
 51
236.7139908619
  0
SPLINE
  5
1D6
330
1F
100
AcDbEntity
  8
0
  6
Continuous
 62
     7
370
    15
100
AcDbSpline
210
0.0
220
0.0
230
1.0
 70
     8
 71
     3
 72
    29
 73
    25
 74
     0
 42
0.000000001
 43
0.00000001
 40
0.0
 40
0.0
 40
0.0
 40
0.0
 40
0.0226170105016674
 40
0.0451713142211041
 40
0.0676870228449807
 40
0.090188372120831
 40
0.1126996441629423
 40
0.1352450890127045
 40
0.1578488467149011
 40
0.1805348711521328
 40
0.2033268568146046
 40
0.2262481695760157
 40
0.2493217824052029
 40
0.3751991801868492
 40
0.499961424646005
 40
0.4999717960761217
 40
0.6247044141102638
 40
0.7509557879397657
 40
0.7931713871186022
 40
0.8349081045046313
 40
0.8763104515914815
 40
0.9175264576320521
 40
0.9587061619408423
 40
1.0
 40
1.0
 40
1.0
 40
1.0
 10
255.5214141643812
 20
30.71801593819453
 30
0.0
 10
255.5397793895033
 20
30.66917604839609
 30
0.0
 10
255.5764589212511
 20
30.57163167981357
 30
0.0
 10
255.6281487499141
 20
30.42416907041605
 30
0.0
 10
255.6773301097353
 20
30.27623178089876
 30
0.0
 10
255.7238197796333
 20
30.1277399156698
 30
0.0
 10
255.7677298760917
 20
29.97874794953863
 30
0.0
 10
255.8090950675472
 20
29.82927616096045
 30
0.0
 10
255.8479723542523
 20
29.67935605765051
 30
0.0
 10
255.8844141992758
 20
29.52901724766688
 30
0.0
 10
255.9184761803645
 20
29.3782947960383
 30
0.0
 10
255.9502132334641
 20
29.22721309929806
 30
0.0
 10
256.0233715053386
 20
28.85149189234654
 30
0.0
 10
256.1090480453778
 20
28.26272147063007
 30
0.0
 10
256.1347804071947
 20
27.76123786662365
 30
0.0
 10
256.1352175634298
 20
27.29078504137992
 30
0.0
 10
256.1097865067104
 20
26.84434251149228
 30
0.0
 10
256.0178191906723
 20
26.40831584000253
 30
0.0
 10
255.9252652966271
 20
26.14012295737996
 30
0.0
 10
255.8616826727384
 20
25.99387184654548
 30
0.0
 10
255.7900371687028
 20
25.86295151469961
 30
0.0
 10
255.7097823943902
 20
25.747505182249
 30
0.0
 10
255.6213807347961
 20
25.64598317780406
 30
0.0
 10
255.5550240808843
 20
25.59098430084148
 30
0.0
 10
255.5217998389988
 20
25.56344680634906
 30
0.0
  0
LWPOLYLINE
  5
1D7
330
1F
100
AcDbEntity
  8
0
  6
Continuous
 62
     7
370
    15
100
AcDbPolyline
 90
       27
 70
   128
 43
0.0
 10
255.5211954232
 20
30.7181422148
 10
255.7518334378
 20
31.9186385512
 10
256.0606195351
 20
33.1375829259
 10
256.4452943408
 20
34.3660563755
 10
256.9030432057
 20
35.5950702129
 10
257.4305168014
 20
36.8156317969
 10
258.0238556262
 20
38.0188103311
 10
258.6787182456
 20
39.1958022101
 10
259.3903130581
 20
40.3379954352
 10
260.1534333552
 20
41.4370326279
 10
260.9624954186
 20
42.4848721805
 10
261.8115793761
 20
43.4738470962
 10
262.6944725171
 20
44.3967210883
 10
263.6047147507
 20
45.2467415276
 10
264.5356458736
 20
46.0176888514
 10
265.4804543031
 20
46.7039220713
 10
266.4322269167
 20
47.3004200485
 10
267.3839996353
 20
47.8028182331
 10
268.328808379
 20
48.2074405991
 10
269.2597400231
 20
48.5113265424
 10
270.1699829808
 20
48.7122525425
 10
271.0528770439
 20
48.8087484326
 10
271.9019621144
 20
48.8001081564
 10
272.7110254738
 20
48.6863949344
 10
273.4741472403
 20
48.4684408014
 10
274.1857436848
 20
48.1478405184
 10
274.306601285
 20
48.0801801272
  0
SPLINE
  5
1D8
330
1F
100
AcDbEntity
  8
0
  6
Continuous
 62
     7
370
    15
100
AcDbSpline
210
0.0
220
0.0
230
1.0
 70
     8
 71
     3
 72
    18
 73
    14
 74
     0
 42
0.000000001
 43
0.00000001
 40
0.0
 40
0.0
 40
0.0
 40
0.0
 40
0.25
 40
0.25
 40
0.5
 40
0.5
 40
0.625
 40
0.625
 40
0.75
 40
0.75
 40
0.875
 40
0.875
 40
1.0
 40
1.0
 40
1.0
 40
1.0
 10
281.0597000683224
 20
36.40035782579486
 30
0.0
 10
281.0259994775651
 20
36.40335282597743
 30
0.0
 10
280.9898354030391
 20
36.40499016761451
 30
0.0
 10
280.9095472710222
 20
36.40387686010184
 30
0.0
 10
280.8644735754474
 20
36.40113897850727
 30
0.0
 10
280.7901187869275
 20
36.3902661066943
 30
0.0
 10
280.7634683941273
 20
36.38534076413286
 30
0.0
 10
280.709942443631
 20
36.37246036670714
 30
0.0
 10
280.682738385088
 20
36.36435313210883
 30
0.0
 10
280.6334350364615
 20
36.34627509771507
 30
0.0
 10
280.6111100124732
 20
36.33628507098217
 30
0.0
 10
280.5727159915013
 20
36.31616588699794
 30
0.0
 10
280.5568459345724
 20
36.30624965697822
 30
0.0
 10
280.5430437625154
 20
36.29647485317329
 30
0.0
  0
SPLINE
  5
1D9
330
1F
100
AcDbEntity
  8
0
  6
Continuous
 62
     7
370
    15
100
AcDbSpline
210
0.0
220
0.0
230
1.0
 70
     8
 71
     3
 72
    10
 73
     6
 74
     0
 42
0.000000001
 43
0.00000001
 40
0.0
 40
0.0
 40
0.0
 40
0.0
 40
0.5
 40
0.5
 40
1.0
 40
1.0
 40
1.0
 40
1.0
 10
280.5430437625154
 20
36.2964748531733
 30
0.0
 10
280.4986059684469
 20
36.31162925177846
 30
0.0
 10
280.4527093544643
 20
36.32864276530081
 30
0.0
 10
280.364874083074
 20
36.36558005014631
 30
0.0
 10
280.3229435963293
 20
36.38559335310106
 30
0.0
 10
280.2885094908112
 20
36.40547173909327
 30
0.0
  0
LINE
  5
1DA
330
1F
100
AcDbEntity
  8
0
  6
Continuous
 62
     7
370
    15
100
AcDbLine
 10
279.2570109228
 20
37.4273897148
 30
0.0
 11
279.1961860674
 21
37.4634654026
 31
0.0
  0
SPLINE
  5
1DB
330
1F
100
AcDbEntity
  8
0
  6
Continuous
 62
     7
370
    15
100
AcDbSpline
210
0.0
220
0.0
230
1.0
 70
     8
 71
     3
 72
    17
 73
    13
 74
     0
 42
0.000000001
 43
0.00000001
 40
0.0
 40
0.0
 40
0.0
 40
0.0
 40
0.0428261586838444
 40
0.1173387536314834
 40
0.2232282936724646
 40
0.3320348073896208
 40
0.4562421438463197
 40
0.5189033740729334
 40
0.58037945402529
 40
0.7102704678545543
 40
0.8548090618234071
 40
1.0
 40
1.0
 40
1.0
 40
1.0
 10
269.2494939164969
 20
29.75561710308616
 30
0.0
 10
269.2487247332081
 20
29.75338573782683
 30
0.0
 10
269.2466172593838
 20
29.74727205342288
 30
0.0
 10
269.2382983541515
 20
29.73127151052069
 30
0.0
 10
269.2240110168158
 20
29.70730160106579
 30
0.0
 10
269.2028520799789
 20
29.67538690113149
 30
0.0
 10
269.1817711915936
 20
29.64551675614428
 30
0.0
 10
269.1628582740688
 20
29.61960204364854
 30
0.0
 10
269.1428284503135
 20
29.5926489569311
 30
0.0
 10
269.1151588110249
 20
29.55629372420512
 30
0.0
 10
269.0791840520913
 20
29.51015804949231
 30
0.0
 10
269.0534208558182
 20
29.47796167169135
 30
0.0
 10
269.0405102539557
 20
29.46182723670919
 30
0.0
  0
SPLINE
  5
1DC
330
1F
100
AcDbEntity
  8
0
  6
Continuous
 62
     7
370
    15
100
AcDbSpline
210
0.0
220
0.0
230
1.0
 70
     8
 71
     3
 72
    14
 73
    10
 74
     0
 42
0.000000001
 43
0.00000001
 40
0.0
 40
0.0
 40
0.0
 40
0.0
 40
0.1544296596797008
 40
0.3133374685112463
 40
0.4677552653498016
 40
0.6266509538787677
 40
0.7810900577424048
 40
0.9400017621027962
 40
1.0
 40
1.0
 40
1.0
 40
1.0
 10
266.776955821252
 20
23.05446096262174
 30
0.0
 10
266.6911933104888
 20
23.06867961361636
 30
0.0
 10
266.5171813488522
 20
23.09752922785201
 30
0.0
 10
266.2955683744499
 20
23.2250362220328
 30
0.0
 10
266.1077466158582
 20
23.41303051029239
 30
0.0
 10
265.9639274912723
 20
23.65811406994709
 30
0.0
 10
265.8703527306012
 20
23.95761916827748
 30
0.0
 10
265.8274198069905
 20
24.22263686322481
 30
0.0
 10
265.8358685383263
 20
24.39537171812012
 30
0.0
 10
265.8381841434897
 20
24.44271441443746
 30
0.0
  0
LINE
  5
1DD
330
1F
100
AcDbEntity
  8
0
  6
Continuous
 62
     7
370
    15
100
AcDbLine
 10
277.8064751948
 20
37.8383196392
 30
0.0
 11
280.2885094908
 21
36.4054717391
 31
0.0
  0
ARC
  5
1DE
330
1F
100
AcDbEntity
  8
0
  6
Continuous
 62
     7
370
    15
100
AcDbCircle
 10
264.6368758208
 20
36.5694791168
 30
0.0
 40
10.89564802057095
100
AcDbArc
 50
338.4813328718
 51
3.8042505975
  0
LINE
  5
1DF
330
1F
100
AcDbEntity
  8
0
  6
Continuous
 62
     7
370
    15
100
AcDbLine
 10
274.7730765975
 20
32.5729081362
 30
0.0
 11
280.2885094908
 21
29.3889165001
 31
0.0
  0
LINE
  5
1E0
330
1F
100
AcDbEntity
  8
0
  6
Continuous
 62
     7
370
    15
100
AcDbLine
 10
270.1363249498
 20
21.9105200579
 30
0.0
 11
270.1969174737
 21
21.8745858798
 31
0.0
  0
LINE
  5
1E1
330
1F
100
AcDbEntity
  8
0
  6
Continuous
 62
     7
370
    15
100
AcDbLine
 10
265.9087673826
 20
24.7774910085
 30
0.0
 11
269.1045940504
 21
22.9325795433
 31
0.0
  0
SPLINE
  5
1E2
330
1F
100
AcDbEntity
  8
0
  6
Continuous
 62
     7
370
    15
100
AcDbSpline
210
0.0
220
0.0
230
1.0
 70
     8
 71
     3
 72
     8
 73
     4
 74
     0
 42
0.000000001
 43
0.00000001
 40
0.0
 40
0.0
 40
0.0
 40
0.0
 40
1.0
 40
1.0
 40
1.0
 40
1.0
 10
254.7432590262061
 20
33.99691934169888
 30
0.0
 10
254.0501877911533
 20
33.88105772332416
 30
0.0
 10
253.3565670247571
 20
33.7662990301711
 30
0.0
 10
252.6625878639296
 20
33.65228748253295
 30
0.0
  0
SPLINE
  5
1E3
330
1F
100
AcDbEntity
  8
0
  6
Continuous
 62
     7
370
    15
100
AcDbSpline
210
0.0
220
0.0
230
1.0
 70
     8
 71
     3
 72
     8
 73
     4
 74
     0
 42
0.000000001
 43
0.00000001
 40
0.0
 40
0.0
 40
0.0
 40
0.0
 40
0.0012389803509652
 40
0.0012389803509652
 40
0.0012389803509652
 40
0.0012389803509652
 10
252.1888514497842
 20
33.92582160328695
 30
0.0
 10
252.3469247847652
 20
33.83455052283644
 30
0.0
 10
252.5048429637312
 20
33.7433689957362
 30
0.0
 10
252.6625878639296
 20
33.65228748253295
 30
0.0
  0
LWPOLYLINE
  5
1E4
330
1F
100
AcDbEntity
  8
0
  6
Continuous
 62
     7
370
    15
100
AcDbPolyline
 90
       28
 70
   128
 43
0.0
 10
252.1888514498
 20
33.9258216033
 10
252.4956669275
 20
35.1472219904
 10
252.8788258496
 20
36.3785034749
 10
253.3355110488
 20
37.6106130869
 10
253.8623647572
 20
38.834491768
 10
254.4555132946
 20
40.0411409772
 10
255.1105955495
 20
41.221688853
 10
255.8227950443
 20
42.3674554433
 10
256.5868753477
 20
43.4700165246
 10
257.3972185765
 20
44.521265541
 10
258.2478667
 20
45.5134732075
 10
259.1325653466
 20
46.4393443391
 10
260.0448097893
 20
47.292071489
 10
260.9778927709
 20
48.0653849996
 10
261.9249538196
 20
48.7535991005
 10
262.87902969
 20
49.3516537128
 10
263.8331055604
 20
49.8551516532
 10
264.7801666091
 20
50.2603909643
 10
265.7132495907
 20
50.564392133
 10
266.6254940334
 20
50.7649199975
 10
267.51019268
 20
50.8605001811
 10
268.3608408035
 20
50.8504299326
 10
269.1711840323
 20
50.7347832932
 10
269.9352643358
 20
50.5144105524
 10
270.6474638305
 20
50.1909319959
 10
271.3025460854
 20
49.7667259924
 10
271.8956946228
 20
49.2449115074
 10
272.3270267081
 20
48.7542024669
  0
LINE
  5
1E5
330
1F
100
AcDbEntity
  8
0
  6
Continuous
 62
     7
370
    15
100
AcDbLine
 10
249.1571311254
 20
35.675996493
 30
0.0
 11
252.1888514498
 21
33.9258216033
 31
0.0
  0
ARC
  5
1E6
330
1F
100
AcDbEntity
  8
0
  6
Continuous
 62
     7
370
    15
100
AcDbCircle
 10
265.0532404396
 20
47.2500232071
 30
0.0
 40
5.345262860549217
100
AcDbArc
 50
60.0520014391
 51
74.8530580591
  0
LINE
  5
1E7
330
1F
100
AcDbEntity
  8
0
  6
Continuous
 62
     7
370
    15
100
AcDbLine
 10
255.1458544287
 20
33.935756951
 30
0.0
 11
255.1365317778
 21
33.9411388028
 31
0.0
  0
SPLINE
  5
1E8
330
1F
100
AcDbEntity
  8
0
  6
Continuous
 62
     7
370
    15
100
AcDbSpline
210
0.0
220
0.0
230
1.0
 70
     8
 71
     3
 72
    13
 73
     9
 74
     0
 42
0.000000001
 43
0.00000001
 40
0.0
 40
0.0
 40
0.0
 40
0.0
 40
0.0073035384185877
 40
0.2384233942647629
 40
0.4744921142142526
 40
0.7123117227822154
 40
0.8559561319932646
 40
1.0
 40
1.0
 40
1.0
 40
1.0
 10
256.0655097328812
 20
33.14559333621442
 30
0.0
 10
256.0635480289053
 20
33.14808216750631
 30
0.0
 10
255.9995083684483
 20
33.2293298546349
 30
0.0
 10
255.8617087581403
 20
33.37427039290692
 30
0.0
 10
255.6514601892421
 20
33.57676869560711
 30
0.0
 10
255.4576237026633
 20
33.73184371457477
 30
0.0
 10
255.2882990652808
 20
33.8503649356844
 30
0.0
 10
255.1933799063529
 20
33.90726660964952
 30
0.0
 10
255.1458544286652
 20
33.93575695097749
 30
0.0
  0
SPLINE
  5
1E9
330
1F
100
AcDbEntity
  8
0
  6
Continuous
 62
     7
370
    15
100
AcDbSpline
210
0.0
220
0.0
230
1.0
 70
     8
 71
     3
 72
    10
 73
     6
 74
     0
 42
0.000000001
 43
0.00000001
 40
0.0
 40
0.0
 40
0.0
 40
0.0
 40
0.5
 40
0.5
 40
1.0
 40
1.0
 40
1.0
 40
1.0
 10
255.1365317777581
 20
33.94113880279022
 30
0.0
 10
255.0867311789453
 20
33.96988807653933
 30
0.0
 10
255.0216992622014
 20
33.9906514219
 30
0.0
 10
254.8846409018559
 20
34.00960511128778
 30
0.0
 10
254.8111020618061
 20
34.00826075005997
 30
0.0
 10
254.7432590262061
 20
33.99691934169888
 30
0.0
  0
SPLINE
  5
1EA
330
1F
100
AcDbEntity
  8
0
  6
Continuous
 62
     7
370
    15
100
AcDbSpline
210
0.0
220
0.0
230
1.0
 70
     8
 71
     3
 72
     8
 73
     4
 74
     0
 42
0.000000001
 43
0.00000001
 40
0.0
 40
0.0
 40
0.0
 40
0.0
 40
1.0
 40
1.0
 40
1.0
 40
1.0
 10
249.0003065178857
 20
35.76651817219574
 30
0.0
 10
249.0226853144052
 20
35.7536062207439
 30
0.0
 10
249.0768727454224
 20
35.72232866958688
 30
0.0
 10
249.1571311254469
 20
35.67599649300688
 30
0.0
  0
LINE
  5
1EB
330
1F
100
AcDbEntity
  8
0
  6
Continuous
 62
     7
370
    15
100
AcDbLine
 10
249.0003065179
 20
35.7665181722
 30
0.0
 11
249.0244227469
 21
35.9191744909
 31
0.0
  0
LINE
  5
1EC
330
1F
100
AcDbEntity
  8
0
  6
Continuous
 62
     7
370
    15
100
AcDbLine
 10
269.2035860348
 20
22.8374836546
 30
0.0
 11
266.7769558213
 21
23.0544609626
 31
0.0
  0
SPLINE
  5
1ED
330
1F
100
AcDbEntity
  8
0
  6
Continuous
 62
     7
370
    15
100
AcDbSpline
210
0.0
220
0.0
230
1.0
 70
     8
 71
     3
 72
    18
 73
    14
 74
     0
 42
0.000000001
 43
0.00000001
 40
0.0
 40
0.0
 40
0.0
 40
0.0
 40
0.2500000000000062
 40
0.2500000000000062
 40
0.5000000000000124
 40
0.5000000000000124
 40
0.6250000000000093
 40
0.6250000000000093
 40
0.7500000000000062
 40
0.7500000000000062
 40
0.8750000000000031
 40
0.8750000000000031
 40
1.0
 40
1.0
 40
1.0
 40
1.0
 10
269.0401358403849
 20
22.53013902261959
 30
0.0
 10
269.0736585664679
 20
22.52714158575327
 30
0.0
 10
269.1066806745122
 20
22.52761744079318
 30
0.0
 10
269.1677850304866
 20
22.54007128628697
 30
0.0
 10
269.1968173610715
 20
22.55190471027138
 30
0.0
 10
269.2301182923538
 20
22.58705397022897
 30
0.0
 10
269.2393907360965
 20
22.60190670572847
 30
0.0
 10
269.2510705223303
 20
22.63851380320868
 30
0.0
 10
269.2533984889982
 20
22.66093237859784
 30
0.0
 10
269.2496565898263
 20
22.70929574127392
 30
0.0
 10
269.2436934162341
 20
22.73558314419997
 30
0.0
 10
269.2267173474738
 20
22.78716905344939
 30
0.0
 10
269.2157122511413
 20
22.81284820503523
 30
0.0
 10
269.2035860348267
 20
22.8374836546202
 30
0.0
  0
SPLINE
  5
1EE
330
1F
100
AcDbEntity
  8
0
  6
Continuous
 62
     7
370
    15
100
AcDbSpline
210
0.0
220
0.0
230
1.0
 70
     8
 71
     3
 72
    10
 73
     6
 74
     0
 42
0.000000001
 43
0.00000001
 40
0.0
 40
0.0
 40
0.0
 40
0.0
 40
0.5
 40
0.5
 40
1.0
 40
1.0
 40
1.0
 40
1.0
 10
269.1045940503519
 20
22.93257954329259
 30
0.0
 10
269.1390322914852
 20
22.91269876986054
 30
0.0
 10
269.1638715588658
 20
22.89413475895714
 30
0.0
 10
269.1951502385005
 20
22.86233385465271
 30
0.0
 10
269.2021910056729
 20
22.84878404484195
 30
0.0
 10
269.2035860348267
 20
22.83748365462019
 30
0.0
  0
SPLINE
  5
1EF
330
1F
100
AcDbEntity
  8
0
  6
Continuous
 62
     7
370
    15
100
AcDbSpline
210
0.0
220
0.0
230
1.0
 70
     8
 71
     3
 72
    11
 73
     7
 74
     0
 42
0.000000001
 43
0.00000001
 40
0.0
 40
0.0
 40
0.0
 40
0.0
 40
0.3105157409986105
 40
0.5915933465014827
 40
0.8435752121776435
 40
1.0
 40
1.0
 40
1.0
 40
1.0
 10
255.6298395136649
 20
26.28957554510956
 30
0.0
 10
255.7208388721174
 20
26.38104497669732
 30
0.0
 10
255.894210485496
 20
26.55531217153122
 30
0.0
 10
256.0444999704677
 20
26.97383929394255
 30
0.0
 10
256.118578903301
 20
27.38497449337437
 30
0.0
 10
256.1261200469671
 20
27.6797122510337
 30
0.0
 10
256.1290083980451
 20
27.79260044913272
 30
0.0
  0
SPLINE
  5
1F0
330
1F
100
AcDbEntity
  8
0
  6
Continuous
 62
     7
370
    15
100
AcDbSpline
210
0.0
220
0.0
230
1.0
 70
     8
 71
     3
 72
     9
 73
     5
 74
     0
 42
0.000000001
 43
0.00000001
 40
0.0
 40
0.0
 40
0.0
 40
0.0
 40
0.5067661695379747
 40
1.0
 40
1.0
 40
1.0
 40
1.0
 10
255.5211180491925
 20
25.56294477856541
 30
0.0
 10
255.5393870665039
 20
25.68539913239541
 30
0.0
 10
255.5754372577155
 20
25.92703790228732
 30
0.0
 10
255.6121179971523
 20
26.1691883004165
 30
0.0
 10
255.6302101787689
 20
26.28862506883366
 30
0.0
  0
SPLINE
  5
1F1
330
1F
100
AcDbEntity
  8
0
  6
Continuous
 62
     7
370
    15
100
AcDbSpline
210
0.0
220
0.0
230
1.0
 70
     8
 71
     3
 72
    10
 73
     6
 74
     0
 42
0.000000001
 43
0.00000001
 40
0.0
 40
0.0
 40
0.0
 40
0.0
 40
0.4807908150150776
 40
0.9757817590329644
 40
0.9999999999999999
 40
0.9999999999999999
 40
0.9999999999999999
 40
0.9999999999999999
 10
255.1458544286652
 20
27.3626034152972
 30
0.0
 10
255.2956453755654
 20
27.28243303993517
 30
0.0
 10
255.5996513363468
 20
27.11972446179679
 30
0.0
 10
255.8892667805454
 20
27.00822303107531
 30
0.0
 10
256.0236052112242
 20
26.97999141359604
 30
0.0
 10
256.0298713570847
 20
26.97867456455951
 30
0.0
  0
SPLINE
  5
1F2
330
1F
100
AcDbEntity
  8
0
  6
Continuous
 62
     7
370
    15
100
AcDbSpline
210
0.0
220
0.0
230
1.0
 70
     8
 71
     3
 72
    10
 73
     6
 74
     0
 42
0.000000001
 43
0.00000001
 40
0.0
 40
0.0
 40
0.0
 40
0.0
 40
0.5
 40
0.5
 40
1.0
 40
1.0
 40
1.0
 40
1.0
 10
280.2885094908112
 20
29.38891650007349
 30
0.0
 10
280.3229477319445
 20
29.36903572664144
 30
0.0
 10
280.3651054824467
 20
29.36046946323606
 30
0.0
 10
280.4527271732999
 20
29.36119468697001
 30
0.0
 10
280.4986521106467
 20
29.37009223079553
 30
0.0
 10
280.5430708968493
 20
29.38362892684582
 30
0.0
  0
SPLINE
  5
1F3
330
1F
100
AcDbEntity
  8
0
  6
Continuous
 62
     7
370
    15
100
AcDbSpline
210
0.0
220
0.0
230
1.0
 70
     8
 71
     3
 72
    16
 73
    12
 74
     0
 42
0.000000001
 43
0.00000001
 40
0.0
 40
0.0
 40
0.0
 40
0.0
 40
0.2499999999999933
 40
0.2499999999999933
 40
0.3749999999999961
 40
0.3749999999999961
 40
0.499999999999999
 40
0.499999999999999
 40
0.7499999999999994
 40
0.7499999999999994
 40
1.0
 40
1.0
 40
1.0
 40
1.0
 10
280.5430708968493
 20
29.38362892684583
 30
0.0
 10
280.5707955725272
 20
29.33578075875405
 30
0.0
 10
280.6083088401514
 20
29.29220000403208
 30
0.0
 10
280.6825298197788
 20
29.25854249636415
 30
0.0
 10
280.7092958247173
 20
29.25325833969451
 30
0.0
 10
280.7628236612205
 20
29.2540468733801
 30
0.0
 10
280.7894135633543
 20
29.2599574694747
 30
0.0
 10
280.8641972700066
 20
29.28739100552477
 30
0.0
 10
280.9091503609444
 20
29.3182492289212
 30
0.0
 10
280.9898135789062
 20
29.38763272082649
 30
0.0
 10
281.0265290012951
 20
29.42737164138381
 30
0.0
 10
281.0600744819657
 20
29.46910190042775
 30
0.0
  0
LINE
  5
1F4
330
1F
100
AcDbEntity
  8
0
  6
Continuous
 62
     7
370
    15
100
AcDbLine
 10
249.4337397654
 20
35.516261814
 30
0.0
 11
249.0003065179
 21
35.7665181722
 31
0.0
  0
LINE
  5
1F5
330
1F
100
AcDbEntity
  8
0
  6
Continuous
 62
     7
370
    15
100
AcDbLine
 10
252.6625878639
 20
33.6522874825
 30
0.0
 11
249.4337397654
 21
35.516261814
 31
0.0
  0
SPLINE
  5
1F6
330
1F
100
AcDbEntity
  8
0
  6
Continuous
 62
     7
370
    15
100
AcDbSpline
210
0.0
220
0.0
230
1.0
 70
     8
 71
     3
 72
    11
 73
     7
 74
     0
 42
0.000000001
 43
0.00000001
 40
0.0
 40
0.0
 40
0.0
 40
0.0
 40
0.216559978624787
 40
0.5255080141548619
 40
0.834493739132902
 40
1.0
 40
1.0
 40
1.0
 40
1.0
 10
251.5388046867221
 20
31.502435868211
 30
0.0
 10
251.5340864353145
 20
31.70882788785281
 30
0.0
 10
251.5226370486677
 20
32.20966216511926
 30
0.0
 10
251.4574694570852
 20
33.02844463118886
 30
0.0
 10
251.4167195745076
 20
33.78884422665197
 30
0.0
 10
251.4380340822406
 20
34.22235707877886
 30
0.0
 10
251.4454687377929
 20
34.37356951931261
 30
0.0
  0
LINE
  5
1F7
330
1F
100
AcDbEntity
  8
0
  6
Continuous
 62
     7
370
    15
100
AcDbLine
 10
251.5388046867
 20
31.0820805128
 30
0.0
 11
251.5388046867
 21
31.5024358682
 31
0.0
  0
LINE
  5
1F8
330
1F
100
AcDbEntity
  8
0
  6
Continuous
 62
     7
370
    15
100
AcDbLine
 10
250.9289250879
 20
34.3174493279
 30
0.0
 11
250.9341129827
 21
34.6501147921
 31
0.0
  0
ARC
  5
1F9
330
1F
100
AcDbEntity
  8
0
  6
Continuous
 62
     7
370
    15
100
AcDbCircle
 10
258.4966243373
 20
34.1458794094
 30
0.0
 40
7.569643859872945
100
AcDbArc
 50
178.7012501156
 51
203.1943798095
  0
LINE
  5
1FA
330
1F
100
AcDbEntity
  8
0
  6
Continuous
 62
     7
370
    15
100
AcDbLine
 10
238.7890015581
 20
57.7480579525
 30
0.0
 11
238.8221717077
 21
57.7364022352
 31
0.0
  0
SPLINE
  5
1FB
330
1F
100
AcDbEntity
  8
0
  6
Continuous
 62
     7
370
    15
100
AcDbSpline
210
0.0
220
0.0
230
1.0
 70
     8
 71
     3
 72
    32
 73
    28
 74
     0
 42
0.000000001
 43
0.00000001
 40
0.0
 40
0.0
 40
0.0
 40
0.0
 40
0.1249999999999999
 40
0.1249999999999999
 40
0.1874999999999999
 40
0.1874999999999999
 40
0.2499999999999998
 40
0.2499999999999998
 40
0.3749999999999996
 40
0.3749999999999996
 40
0.4374999999999997
 40
0.4374999999999997
 40
0.4999999999999997
 40
0.4999999999999997
 40
0.6249999999999998
 40
0.6249999999999998
 40
0.6874999999999997
 40
0.6874999999999997
 40
0.7499999999999998
 40
0.7499999999999998
 40
0.8124999999999999
 40
0.8124999999999999
 40
0.8749999999999999
 40
0.8749999999999999
 40
0.9375
 40
0.9375
 40
1.0
 40
1.0
 40
1.0
 40
1.0
 10
282.969701110424
 20
32.40233384299174
 30
0.0
 10
283.1099204975021
 20
32.57676542747618
 30
0.0
 10
283.2367569590693
 20
32.76253717010208
 30
0.0
 10
283.4056365907776
 20
33.05883262849775
 30
0.0
 10
283.4583541021476
 20
33.16093182033207
 30
0.0
 10
283.5537857886031
 20
33.36528865269735
 30
0.0
 10
283.5968972659073
 20
33.46823608365031
 30
0.0
 10
283.7125361942216
 20
33.7793747269419
 30
0.0
 10
283.7714600903436
 20
33.99218792829765
 30
0.0
 10
283.8282001491515
 20
34.29814468741908
 30
0.0
 10
283.8421051588014
 20
34.3985328708972
 30
0.0
 10
283.8599982849428
 20
34.59595706159816
 30
0.0
 10
283.8639636259658
 20
34.69359628046732
 30
0.0
 10
283.8607517267279
 20
34.97357190377274
 30
0.0
 10
283.8391442514367
 20
35.14491869805793
 30
0.0
 10
283.777983272792
 20
35.37810111321539
 30
0.0
 10
283.7529813749991
 20
35.45085159142404
 30
0.0
 10
283.6945351994975
 20
35.58452378944683
 30
0.0
 10
283.6609310499411
 20
35.64587610290181
 30
0.0
 10
283.584399642646
 20
35.75788635170233
 30
0.0
 10
283.5411526939933
 20
35.80882715619043
 30
0.0
 10
283.4481499160963
 20
35.89689895007217
 30
0.0
 10
283.3989432220669
 20
35.93383008022737
 30
0.0
 10
283.2934195421437
 20
35.99493470242863
 30
0.0
 10
283.2368992155997
 20
36.01922740789397
 30
0.0
 10
283.1127354164568
 20
36.05688477326795
 30
0.0
 10
283.0450974450875
 20
36.07015248188051
 30
0.0
 10
282.971609142648
 20
36.07838680829785
 30
0.0
  0
SPLINE
  5
1FC
330
1F
100
AcDbEntity
  8
0
  6
Continuous
 62
     7
370
    15
100
AcDbSpline
210
0.0
220
0.0
230
1.0
 70
     8
 71
     3
 72
    14
 73
    10
 74
     0
 42
0.000000001
 43
0.00000001
 40
0.0
 40
0.0
 40
0.0
 40
0.0
 40
0.25
 40
0.25
 40
0.5
 40
0.5
 40
0.75
 40
0.75
 40
1.0
 40
1.0
 40
1.0
 40
1.0
 10
282.9716091426479
 20
36.07838680829771
 30
0.0
 10
282.759618269812
 20
36.10214027635292
 30
0.0
 10
282.5634401536003
 20
36.11673208980982
 30
0.0
 10
282.1634934295455
 20
36.15030341896826
 30
0.0
 10
281.9608713090852
 20
36.16861122253186
 30
0.0
 10
281.5547376431057
 20
36.20574457162238
 30
0.0
 10
281.3515369813064
 20
36.22438860553097
 30
0.0
 10
280.9470240490059
 20
36.2605855796287
 30
0.0
 10
280.7452010602749
 20
36.27843372375164
 30
0.0
 10
280.5430437625154
 20
36.29647485317332
 30
0.0
  0
LINE
  5
1FD
330
1F
100
AcDbEntity
  8
0
  6
Continuous
 62
     7
370
    15
100
AcDbLine
 10
255.1365317778
 20
27.3679852671
 30
0.0
 11
255.1458544287
 21
27.3626034153
 31
0.0
  0
ARC
  5
1FE
330
1F
100
AcDbEntity
  8
0
  6
Continuous
 62
     7
370
    15
100
AcDbCircle
 10
257.9637475438
 20
28.0148862531
 30
0.0
 40
5.91964222038553
100
AcDbArc
 50
192.6964501328
 51
260.4756565155
  0
SPLINE
  5
1FF
330
1F
100
AcDbEntity
  8
0
  6
Continuous
 62
     7
370
    15
100
AcDbSpline
210
0.0
220
0.0
230
1.0
 70
     8
 71
     3
 72
     8
 73
     4
 74
     0
 42
0.000000001
 43
0.00000001
 40
0.0
 40
0.0
 40
0.0
 40
0.0
 40
0.0012389803509652
 40
0.0012389803509652
 40
0.0012389803509652
 40
0.0012389803509652
 10
252.6625878639296
 20
27.07913394685266
 30
0.0
 10
252.5048429637312
 20
26.95705749631794
 30
0.0
 10
252.3469247847652
 20
26.83530019331713
 30
0.0
 10
252.1888514497842
 20
26.71383317177269
 30
0.0
  0
SPLINE
  5
200
330
1F
100
AcDbEntity
  8
0
  6
Continuous
 62
     7
370
    15
100
AcDbSpline
210
0.0
220
0.0
230
1.0
 70
     8
 71
     3
 72
     8
 73
     4
 74
     0
 42
0.000000001
 43
0.00000001
 40
0.0
 40
0.0
 40
0.0
 40
0.0
 40
1.0
 40
1.0
 40
1.0
 40
1.0
 10
252.6625878639296
 20
27.07913394685266
 30
0.0
 10
253.3565684468713
 20
27.19314572812527
 30
0.0
 10
254.0502015076332
 20
27.30790648064564
 30
0.0
 10
254.7432590262061
 20
27.42376580601859
 30
0.0
  0
SPLINE
  5
201
330
1F
100
AcDbEntity
  8
0
  6
Continuous
 62
     7
370
    15
100
AcDbSpline
210
0.0
220
0.0
230
1.0
 70
     8
 71
     3
 72
    12
 73
     8
 74
     0
 42
0.000000001
 43
0.00000001
 40
0.0
 40
0.0
 40
0.0
 40
0.0
 40
0.2499999999999984
 40
0.2499999999999984
 40
0.4999999999999968
 40
0.4999999999999968
 40
1.0
 40
1.0
 40
1.0
 40
1.0
 10
254.7432590262061
 20
27.42376580601859
 30
0.0
 10
254.7770475421303
 20
27.42941427610284
 30
0.0
 10
254.8126193181992
 20
27.43267473961829
 30
0.0
 10
254.8832015645916
 20
27.4338123291664
 30
0.0
 10
254.9182245230405
 20
27.43179571270838
 30
0.0
 10
255.0224298183055
 20
27.41741997536879
 30
0.0
 10
255.0861402502451
 20
27.39707567673638
 30
0.0
 10
255.1365317777581
 20
27.36798526710994
 30
0.0
  0
LINE
  5
202
330
1F
100
AcDbEntity
  8
0
  6
Continuous
 62
     7
370
    15
100
AcDbLine
 10
249.4337397654
 20
28.9431082783
 30
0.0
 11
252.6625878639
 21
27.0791339469
 31
0.0
  0
LINE
  5
203
330
1F
100
AcDbEntity
  8
0
  6
Continuous
 62
     7
370
    15
100
AcDbLine
 10
249.4337397654
 20
28.9431082783
 30
0.0
 11
251.3266726524
 21
30.0358751738
 31
0.0
  0
LINE
  5
204
330
1F
100
AcDbEntity
  8
0
  6
Continuous
 62
     7
370
    15
100
AcDbLine
 10
249.0003065179
 20
28.6928519201
 30
0.0
 11
249.4337397654
 21
28.9431082783
 31
0.0
  0
LINE
  5
205
330
1F
100
AcDbEntity
  8
0
  6
Continuous
 62
     7
370
    15
100
AcDbLine
 10
252.1888514498
 20
26.7138331718
 30
0.0
 11
249.1571311254
 21
28.4640080615
 31
0.0
  0
SPLINE
  5
206
330
1F
100
AcDbEntity
  8
0
  6
Continuous
 62
     7
370
    15
100
AcDbSpline
210
0.0
220
0.0
230
1.0
 70
     8
 71
     3
 72
     8
 73
     4
 74
     0
 42
0.000000001
 43
0.00000001
 40
0.0
 40
0.0
 40
0.0
 40
0.0
 40
1.0
 40
1.0
 40
1.0
 40
1.0
 10
249.1571311254469
 20
28.46400806149263
 30
0.0
 10
249.0771063259321
 20
28.51020539491459
 30
0.0
 10
249.0226295285502
 20
28.59339291727929
 30
0.0
 10
249.0003065178857
 20
28.69285192012041
 30
0.0
  0
LWPOLYLINE
  5
207
330
1F
100
AcDbEntity
  8
0
  6
Continuous
 62
     7
370
    15
100
AcDbPolyline
 90
        3
 70
   128
 43
0.0
 10
251.9729493462
 20
24.6010412328
 10
251.4237929703
 20
24.9657207485
 10
250.83399067
 20
25.4841398833
  0
ELLIPSE
  5
208
330
1F
100
AcDbEntity
  8
0
  6
Continuous
 62
     7
370
    15
100
AcDbEllipse
 10
251.0923580773
 20
30.8243747482
 30
0.0
 11
-6.005970382716441E-5
 21
0.853448961482723
 31
0.0
210
0.0
220
0.0
230
1.0
 40
0.7174342186
 41
3.534193645557539
 42
5.104989972352383
  0
ARC
  5
209
330
1F
100
AcDbEntity
  8
0
  6
Continuous
 62
     7
370
    15
100
AcDbCircle
 10
274.0867090956
 20
38.3151670291
 30
0.0
 40
4.132931285713588
100
AcDbArc
 50
320.5373067048
 51
350.4934488753
  0
LINE
  5
20A
330
1F
100
AcDbEntity
  8
0
  6
Continuous
 62
     7
370
    15
100
AcDbLine
 10
280.5430708968
 20
29.3836289268
 30
0.0
 11
282.9697011104
 21
32.402333843
 31
0.0
  0
LINE
  5
20B
330
1F
100
AcDbEntity
  8
0
  6
Continuous
 62
     7
370
    15
100
AcDbLine
 10
274.7730765975
 20
32.5729081362
 30
0.0
 11
277.2774915219
 21
35.6883764931
 31
0.0
  0
ELLIPSE
  5
20C
330
1F
100
AcDbEntity
  8
0
  6
Continuous
 62
     7
370
    15
100
AcDbEllipse
 10
250.9731192618
 20
30.7555172681
 30
0.0
 11
0.2600075789209199
 21
0.9705436209909308
 31
0.0
210
0.0
220
0.0
230
1.0
 40
0.5176380889
 41
3.619174351347738
 42
5.189970678142579
  0
LWPOLYLINE
  5
20D
330
1F
100
AcDbEntity
  8
0
  6
Continuous
 62
     7
370
     0
100
AcDbPolyline
 90
       25
 70
   128
 43
0.0
 10
266.2862576586
 20
44.6881024365
 10
265.364956742
 20
43.8903501479
 10
264.4662116907
 20
43.0173351036
 10
263.5963545523
 20
42.0752080723
 10
262.7615138468
 20
41.0706067467
 10
261.9675713881
 20
40.0106089778
 10
261.2201208444
 20
38.9026829084
 10
260.5244283283
 20
37.7546343571
 10
259.8853952943
 20
36.5745518226
 10
259.3075240069
 20
35.370749497
 10
258.7948858192
 20
34.1517086886
 10
258.351092489
 20
32.9260180672
 10
257.9792707325
 20
31.7023131537
 10
257.6820401946
 20
30.4892154785
 10
257.4614949933
 20
29.2952718398
 10
257.3191889648
 20
28.1288940869
 10
257.2561247167
 20
26.9982998559
 10
257.2727465639
 20
25.9114546723
 10
257.3689373983
 20
24.8760158306
 10
257.5440195139
 20
23.8992784455
 10
257.7967593813
 20
22.9881240544
 10
258.1253763389
 20
22.1489721344
 10
258.5275551381
 20
21.3877348736
 10
259.0004622551
 20
20.7097755181
 10
259.3731481949
 20
20.2859603391
  0
ARC
  5
20E
330
1F
100
AcDbEntity
  8
0
  6
Continuous
 62
     7
370
     0
100
AcDbCircle
 10
273.5162292861
 20
40.3098347773
 30
0.0
 40
7.501978822824229
100
AcDbArc
 50
76.9641958756
 51
110.8457042216
  0
LWPOLYLINE
  5
20F
330
1F
100
AcDbEntity
  8
0
  6
Continuous
 62
     7
370
     0
100
AcDbPolyline
 90
       21
 70
   128
 43
0.0
 10
269.0401358404
 20
22.5301390227
 10
269.4086955599
 20
21.9969621205
 10
269.846404027
 20
21.5553226569
 10
270.3478960948
 20
21.2106339626
 10
270.907024798
 20
20.9671210086
 10
271.5169366988
 20
20.827768619
 10
272.1701558919
 20
20.7942848852
 10
272.8586756392
 20
20.8670802292
 10
273.5740565112
 20
21.0452623728
 10
274.3075298323
 20
21.3266472745
 10
275.0501051612
 20
21.7077859004
 10
275.79268049
 20
22.1840064998
 10
276.5261538111
 20
22.7494718689
 10
277.2415346832
 20
23.3972508991
 10
277.9300544305
 20
24.1194035344
 10
278.5832736236
 20
24.9070780951
 10
279.1931855244
 20
25.7506197763
 10
279.7523142275
 20
26.6396889899
 10
280.2538062953
 20
27.563388101
 10
280.6915147625
 20
28.5103950038
 10
281.0600744819
 20
29.4691019005
  0
LWPOLYLINE
  5
210
330
1F
100
AcDbEntity
  8
0
  6
Continuous
 62
     7
370
     0
100
AcDbPolyline
 90
       21
 70
   128
 43
0.0
 10
281.0597000683
 20
36.4003578258
 10
280.6911052691
 20
36.9333801129
 10
280.253382299
 20
37.3748794915
 10
279.7518952759
 20
37.7194455657
 10
279.1927897198
 20
37.9628558179
 10
278.582917243
 20
38.1021273539
 10
277.9297515855
 20
38.1355534576
 10
277.2412970278
 20
38.0627245056
 10
276.5259903016
 20
37.8845329871
 10
275.7925972009
 20
37.6031625672
 10
275.0501051612
 20
37.2220613262
 10
274.3076131214
 20
36.7458995054
 10
273.5742200207
 20
36.1805122751
 10
272.8589132945
 20
35.5328282266
 10
272.1704587368
 20
34.8107844657
 10
271.5172930793
 20
34.0232293459
 10
270.9074206025
 20
33.1798140363
 10
270.3483150465
 20
32.2908742496
 10
269.8468280233
 20
31.3673035829
 10
269.4091050533
 20
30.4204200205
 10
269.040510254
 20
29.4618272367
  0
LWPOLYLINE
  5
211
330
1F
100
AcDbEntity
  8
0
  6
Continuous
 62
     7
370
     0
100
AcDbPolyline
 90
       23
 70
   128
 43
0.0
 10
266.1764328371
 20
45.0356332798
 10
265.2541816479
 20
44.2696849966
 10
264.3523751353
 20
43.4261726401
 10
263.4774948541
 20
42.5111587874
 10
262.6358288323
 20
41.5312199187
 10
261.8334263769
 20
40.4933991494
 10
261.0760545958
 20
39.4051556098
 10
260.369156948
 20
38.2743108338
 10
259.7178141196
 20
37.1089925432
 10
259.1267075077
 20
35.9175762312
 10
258.6000855733
 20
34.7086249655
 10
258.1417333067
 20
33.4908278428
 10
257.7549450238
 20
32.2729375374
 10
257.4425006883
 20
31.0637073936
 10
257.2066459316
 20
29.8718285124
 10
257.049075913
 20
28.7058672861
 10
256.9709231355
 20
27.5742038289
 10
256.9727493067
 20
26.4849717467
 10
257.0545413014
 20
25.4459996783
 10
257.2157112558
 20
24.4647550288
 10
257.455100793
 20
23.5482902986
 10
257.7709893483
 20
22.7031923958
 10
257.9613386535
 20
22.3006690094
  0
ARC
  5
212
330
1F
100
AcDbEntity
  8
0
  6
Continuous
 62
     7
370
     0
100
AcDbCircle
 10
273.2720180233
 20
38.911576725
 30
0.0
 40
8.95244751678927
100
AcDbArc
 50
93.6868138864
 51
110.0751198928
  0
ARC
  5
213
330
1F
100
AcDbEntity
  8
0
  6
Continuous
 62
     7
370
     0
100
AcDbCircle
 10
277.5736003817
 20
34.696653539
 30
0.0
 40
3.207926294626221
100
AcDbArc
 50
32.1871336433
 51
58.3475104582
  0
LINE
  5
214
330
1F
100
AcDbEntity
  8
0
  6
Continuous
 62
     7
370
     0
100
AcDbLine
 10
266.7769558213
 20
23.0544609626
 30
0.0
 11
266.8653441689
 21
22.7245981701
 31
0.0
  0
LWPOLYLINE
  5
215
330
1F
100
AcDbEntity
  8
0
  6
Continuous
 62
     7
370
     0
100
AcDbPolyline
 90
       18
 70
   128
 43
0.0
 10
270.1969174737
 20
21.8745858798
 10
270.4325696307
 20
21.7521016089
 10
270.992257737
 20
21.55495315
 10
271.5991617318
 20
21.461228755
 10
272.2455458601
 20
21.4721230592
 10
272.9231711429
 20
21.587497201
 10
273.6234003932
 20
21.8058805918
 10
274.3373083081
 20
22.1244896604
 10
275.055795233
 20
22.5392633335
 10
275.769703148
 20
23.0449147986
 10
276.4699323983
 20
23.6349988915
 10
277.1475576811
 20
24.3019942479
 10
277.7939418094
 20
25.0373991728
 10
278.4008458042
 20
25.8318400051
 10
278.9605339104
 20
26.6751905966
 10
279.4658721989
 20
27.556701383
 10
279.9104194973
 20
28.4651363999
 10
280.2885094908
 20
29.3889165001
  0
LWPOLYLINE
  5
216
330
1F
100
AcDbEntity
  8
0
  6
Continuous
 62
     7
370
     0
100
AcDbPolyline
 90
       20
 70
   128
 43
0.0
 10
254.7432590262
 20
33.9969193417
 10
255.0498839479
 20
35.1414256202
 10
255.4336690163
 20
36.2930393187
 10
255.8912368912
 20
37.4416261423
 10
256.418560938
 20
38.5770784329
 10
257.0110006616
 20
39.6894041171
 10
257.6633425441
 20
40.7688146378
 10
258.3698459234
 20
41.8058110939
 10
259.1242935119
 20
42.7912678316
 10
259.9200461088
 20
43.7165127508
 10
260.7501010261
 20
44.5734036204
 10
261.6071537126
 20
45.3543997305
 10
262.4836620343
 20
46.0526282514
 10
263.3719126462
 20
46.6619447147
 10
264.26408887
 20
47.1769870857
 10
265.1523394818
 20
47.5932229493
 10
266.0288478035
 20
47.9069893958
 10
266.88590049
 20
48.1155252547
 10
267.7159554074
 20
48.2169953934
 10
268.3625061462
 20
48.2201074248
  0
LINE
  5
217
330
1F
100
AcDbEntity
  8
0
  6
Continuous
 62
     7
370
     0
100
AcDbLine
 10
266.1032248077
 20
23.443397598
 30
0.0
 11
266.7769558213
 21
23.0544609626
 31
0.0
  0
LWPOLYLINE
  5
218
330
1F
100
AcDbEntity
  8
0
  6
Continuous
 62
     7
370
     0
100
AcDbPolyline
 90
       24
 70
   128
 43
0.0
 10
249.1571311254
 20
35.675996493
 10
249.4639466031
 20
36.8973968801
 10
249.8471055253
 20
38.1286783646
 10
250.3037907245
 20
39.3607879767
 10
250.8306444329
 20
40.5846666577
 10
251.4237929703
 20
41.7913158669
 10
252.0788752252
 20
42.9718637427
 10
252.7910747199
 20
44.117630333
 10
253.5551550234
 20
45.2201914143
 10
254.3654982522
 20
46.2714404307
 10
255.2161463756
 20
47.2636480972
 10
256.1008450223
 20
48.1895192288
 10
257.0130894649
 20
49.0422463787
 10
257.9461724466
 20
49.8155598893
 10
258.8932334953
 20
50.5037739902
 10
259.8473093657
 20
51.1018286025
 10
260.801385236
 20
51.605326543
 10
261.7484462847
 20
52.010565854
 10
262.6815292664
 20
52.3145670228
 10
263.5937737091
 20
52.5150948872
 10
264.4784723557
 20
52.6106750708
 10
265.3291204791
 20
52.6006048223
 10
266.1394637079
 20
52.4849581829
 10
266.4499331682
 20
52.4095856372
  0
LWPOLYLINE
  5
219
330
1F
100
AcDbEntity
  8
0
  6
Continuous
 62
     7
370
     0
100
AcDbPolyline
 90
       19
 70
   128
 43
0.0
 10
255.1365317778
 20
33.9411388028
 10
255.4412166712
 20
35.0649817323
 10
255.821207543
 20
36.1953116552
 10
256.2731853869
 20
37.3222557767
 10
256.7932024314
 20
38.4359708752
 10
257.3767166206
 20
39.5267292771
 10
258.0186312871
 20
40.5850038226
 10
258.713339668
 20
41.6015510802
 10
259.4547738774
 20
42.5674920824
 10
260.2364579052
 20
43.4743898792
 10
261.0515641822
 20
44.3143232295
 10
261.8929732144
 20
45.079955789
 10
262.7533357684
 20
45.7646001888
 10
263.6251370621
 20
46.3622764461
 10
264.5007624026
 20
46.8677641956
 10
265.3725636963
 20
47.2766482868
 10
266.2329262503
 20
47.5853573476
 10
267.0743352825
 20
47.7911949784
 10
267.4974408732
 20
47.8563951764
  0
LINE
  5
21A
330
1F
100
AcDbEntity
  8
0
  6
Continuous
 62
     7
370
     0
100
AcDbLine
 10
255.1458544287
 20
27.3626034153
 30
0.0
 11
255.55163567
 21
27.5968559397
 31
0.0
  0
LWPOLYLINE
  5
21B
330
1F
100
AcDbEntity
  8
0
  6
Continuous
 62
     7
370
     0
100
AcDbPolyline
 90
        3
 70
   128
 43
0.0
 10
256.1055276014
 20
27.3399406102
 10
256.0458565809
 20
27.3614787667
 10
255.55163567
 20
27.5968559397
  0
ARC
  5
21C
330
1F
100
AcDbEntity
  8
0
  6
Continuous
 62
     7
370
     0
100
AcDbCircle
 10
254.864137596
 20
28.653176546
 30
0.0
 40
1.260343931249945
100
AcDbArc
 50
303.0577786045
 51
346.2438194889
  0
LINE
  5
21D
330
1F
100
AcDbEntity
  8
0
  6
Continuous
 62
     7
370
     0
100
AcDbLine
 10
251.6580435023
 20
31.1509379929
 30
0.0
 11
256.0456330093
 21
28.6180364848
 31
0.0
  0
LINE
  5
21E
330
1F
100
AcDbEntity
  8
0
  6
Continuous
 62
     7
370
     0
100
AcDbLine
 10
251.5388046867
 20
31.0820805128
 30
0.0
 11
251.6580435023
 21
31.1509379929
 31
0.0
  0
LINE
  5
21F
330
1F
100
AcDbEntity
  8
0
  6
Continuous
 62
     7
370
     0
100
AcDbLine
 10
251.2824784785
 20
34.1133472999
 30
0.0
 11
251.2876663732
 21
34.4460127642
 31
0.0
  0
ARC
  5
220
330
1F
100
AcDbEntity
  8
0
  6
Continuous
 62
     7
370
     0
100
AcDbCircle
 10
259.8078066998
 20
34.0339200009
 30
0.0
 40
8.525698210507201
100
AcDbArc
 50
179.4662120647
 51
192.9947586378
  0
LWPOLYLINE
  5
221
330
1F
100
AcDbEntity
  8
0
  6
Continuous
 62
     7
370
     0
100
AcDbPolyline
 90
       18
 70
   128
 43
0.0
 10
231.4369625803
 20
49.4122267475
 10
231.4773800249
 20
50.1327670787
 10
231.5979111084
 20
50.8871143388
 10
231.7964049508
 20
51.6618071832
 10
232.0693194248
 20
52.4430211996
 10
232.4117843651
 20
53.2168156055
 10
232.8176884768
 20
53.9693820213
 10
233.2797883913
 20
54.6872908815
 10
233.7898379247
 20
55.3577310855
 10
234.3387352311
 20
55.9687386119
 10
234.9166852249
 20
56.5094100171
 10
235.5133743749
 20
56.9700970069
 10
236.1181547491
 20
57.3425786112
 10
236.7202340273
 20
57.6202078868
 10
237.3088680905
 20
57.7980305327
 10
237.87355275
 20
57.8728732997
 10
238.4042111946
 20
57.8434006167
 10
238.7890015581
 20
57.7480579525
  0
ARC
  5
222
330
1F
100
AcDbEntity
  8
0
  6
Continuous
 62
     7
370
     0
100
AcDbCircle
 10
234.8117600444
 20
49.1275991654
 30
0.0
 40
3.386778821242728
100
AcDbArc
 50
175.1791309351
 51
225.8020354417
  0
LINE
  5
223
330
1F
100
AcDbEntity
  8
0
  6
Continuous
 62
     7
370
     0
100
AcDbLine
 10
283.2348661534
 20
32.1745220644
 30
0.0
 11
282.9697011104
 21
32.402333843
 31
0.0
  0
LWPOLYLINE
  5
224
330
1F
100
AcDbEntity
  8
0
  6
Continuous
 62
     7
370
     0
100
AcDbPolyline
 90
        3
 70
   128
 43
0.0
 10
255.6207349902
 20
26.2419585718
 10
255.4412166712
 20
26.5959240277
 10
255.1365317778
 20
27.3679852671
  0
ARC
  5
225
330
1F
100
AcDbEntity
  8
0
  6
Continuous
 62
     7
370
     0
100
AcDbCircle
 10
260.7764932221
 20
29.2965875886
 30
0.0
 40
6.317228529305581
100
AcDbArc
 50
197.2452599966
 51
213.8862286327
  0
LINE
  5
226
330
1F
100
AcDbEntity
  8
0
  6
Continuous
 62
     7
370
     0
100
AcDbLine
 10
255.55163567
 20
27.5968559397
 30
0.0
 11
251.3266726524
 21
30.0358751738
 31
0.0
  0
ARC
  5
227
330
1F
100
AcDbEntity
  8
0
  6
Continuous
 62
     7
370
     0
100
AcDbCircle
 10
255.8705419802
 20
30.2800987739
 30
0.0
 40
6.954715722506847
100
AcDbArc
 50
195.137172371
 51
223.598305035
  0
LINE
  5
228
330
1F
100
AcDbEntity
  8
0
  6
Continuous
 62
     7
370
     0
100
AcDbLine
 10
277.2774915219
 20
35.6883764931
 30
0.0
 11
282.9697011104
 21
32.402333843
 31
0.0
  0
OLE2FRAME
  5
229
330
1F
100
AcDbEntity
  8
0
100
AcDbOle2Frame
 70
     2
  3
Paintbrush-Bild
 10
13.8511154363
 20
38.264191557
 30
0.0
 11
51.6290888628
 21
31.9806341108
 31
0.0
 71
     2
 72
     0
 73
     1
 90
    12928
310
80552BED0767C5B32B40DDAF6807D121434000000000000000006FFBDDFB85D0
310
4940DDAF6807D121434000000000000000006FFBDDFB85D04940416F4BD60AFB
310
3F4000000000000000002BED0767C5B32B40416F4BD60AFB3F40000000000000
310
0000000000000100000000010000010000000100000000000100000000320000
310
D0CF11E0A1B11AE1000000000000000000000000000000003E000300FEFF0900
310
0600000000000000000000000100000001000000000000000010000002000000
310
01000000FEFFFFFF0000000000000000FFFFFFFFFFFFFFFFFFFFFFFFFFFFFFFF
310
FFFFFFFFFFFFFFFFFFFFFFFFFFFFFFFFFFFFFFFFFFFFFFFFFFFFFFFFFFFFFFFF
310
FFFFFFFFFFFFFFFFFFFFFFFFFFFFFFFFFFFFFFFFFFFFFFFFFFFFFFFFFFFFFFFF
310
FFFFFFFFFFFFFFFFFFFFFFFFFFFFFFFFFFFFFFFFFFFFFFFFFFFFFFFFFFFFFFFF
310
FFFFFFFFFFFFFFFFFFFFFFFFFFFFFFFFFFFFFFFFFFFFFFFFFFFFFFFFFFFFFFFF
310
FFFFFFFFFFFFFFFFFFFFFFFFFFFFFFFFFFFFFFFFFFFFFFFFFFFFFFFFFFFFFFFF
310
FFFFFFFFFFFFFFFFFFFFFFFFFFFFFFFFFFFFFFFFFFFFFFFFFFFFFFFFFFFFFFFF
310
FFFFFFFFFFFFFFFFFFFFFFFFFFFFFFFFFFFFFFFFFFFFFFFFFFFFFFFFFFFFFFFF
310
FFFFFFFFFFFFFFFFFFFFFFFFFFFFFFFFFFFFFFFFFFFFFFFFFFFFFFFFFFFFFFFF
310
FFFFFFFFFFFFFFFFFFFFFFFFFFFFFFFFFFFFFFFFFFFFFFFFFFFFFFFFFFFFFFFF
310
FFFFFFFFFFFFFFFFFFFFFFFFFFFFFFFFFFFFFFFFFFFFFFFFFFFFFFFFFFFFFFFF
310
FFFFFFFFFFFFFFFFFFFFFFFFFFFFFFFFFFFFFFFFFFFFFFFFFFFFFFFFFFFFFFFF
310
FFFFFFFFFFFFFFFFFFFFFFFFFFFFFFFFFFFFFFFFFFFFFFFFFFFFFFFFFFFFFFFF
310
FFFFFFFFFFFFFFFFFFFFFFFFFFFFFFFFFFFFFFFFFFFFFFFFFFFFFFFFFFFFFFFF
310
FDFFFFFFFEFFFFFFFEFFFFFFFEFFFFFF05000000060000000700000008000000
310
090000000A0000000B0000000C0000000D0000000E0000000F00000010000000
310
11000000120000001300000014000000150000001600000017000000FEFFFFFF
310
FFFFFFFFFFFFFFFFFFFFFFFFFFFFFFFFFFFFFFFFFFFFFFFFFFFFFFFFFFFFFFFF
310
FFFFFFFFFFFFFFFFFFFFFFFFFFFFFFFFFFFFFFFFFFFFFFFFFFFFFFFFFFFFFFFF
310
FFFFFFFFFFFFFFFFFFFFFFFFFFFFFFFFFFFFFFFFFFFFFFFFFFFFFFFFFFFFFFFF
310
FFFFFFFFFFFFFFFFFFFFFFFFFFFFFFFFFFFFFFFFFFFFFFFFFFFFFFFFFFFFFFFF
310
FFFFFFFFFFFFFFFFFFFFFFFFFFFFFFFFFFFFFFFFFFFFFFFFFFFFFFFFFFFFFFFF
310
FFFFFFFFFFFFFFFFFFFFFFFFFFFFFFFFFFFFFFFFFFFFFFFFFFFFFFFFFFFFFFFF
310
FFFFFFFFFFFFFFFFFFFFFFFFFFFFFFFFFFFFFFFFFFFFFFFFFFFFFFFFFFFFFFFF
310
FFFFFFFFFFFFFFFFFFFFFFFFFFFFFFFFFFFFFFFFFFFFFFFFFFFFFFFFFFFFFFFF
310
FFFFFFFFFFFFFFFFFFFFFFFFFFFFFFFFFFFFFFFFFFFFFFFFFFFFFFFFFFFFFFFF
310
FFFFFFFFFFFFFFFFFFFFFFFFFFFFFFFFFFFFFFFFFFFFFFFFFFFFFFFFFFFFFFFF
310
FFFFFFFFFFFFFFFFFFFFFFFFFFFFFFFFFFFFFFFFFFFFFFFFFFFFFFFFFFFFFFFF
310
FFFFFFFFFFFFFFFFFFFFFFFFFFFFFFFFFFFFFFFFFFFFFFFFFFFFFFFFFFFFFFFF
310
FFFFFFFFFFFFFFFFFFFFFFFFFFFFFFFFFFFFFFFFFFFFFFFFFFFFFFFFFFFFFFFF
310
52006F006F007400200045006E00740072007900000000000000000000000000
310
0000000000000000000000000000000000000000000000000000000000000000
310
16000500FFFFFFFFFFFFFFFF020000000A00030000000000C000000000000046
310
00000000000000000000000050991EB38220D20103000000C000000000000000
310
01004F006C006500000000000000000000000000000000000000000000000000
310
0000000000000000000000000000000000000000000000000000000000000000
310
0A000200FFFFFFFFFFFFFFFFFFFFFFFF00000000000000000000000000000000
310
0000000000000000000000000000000000000000000000001400000000000000
310
010043006F006D0070004F0062006A0000000000000000000000000000000000
310
0000000000000000000000000000000000000000000000000000000000000000
310
120002010100000003000000FFFFFFFF00000000000000000000000000000000
310
0000000000000000000000000000000000000000010000004D00000000000000
310
01004F006C006500310030004E00610074006900760065000000000000000000
310
0000000000000000000000000000000000000000000000000000000000000000
310
1A000200FFFFFFFFFFFFFFFFFFFFFFFF00000000000000000000000000000000
310
0000000000000000000000000000000000000000040000002426000000000000
310
FEFFFFFF02000000FEFFFFFFFFFFFFFFFFFFFFFFFFFFFFFFFFFFFFFFFFFFFFFF
310
FFFFFFFFFFFFFFFFFFFFFFFFFFFFFFFFFFFFFFFFFFFFFFFFFFFFFFFFFFFFFFFF
310
FFFFFFFFFFFFFFFFFFFFFFFFFFFFFFFFFFFFFFFFFFFFFFFFFFFFFFFFFFFFFFFF
310
FFFFFFFFFFFFFFFFFFFFFFFFFFFFFFFFFFFFFFFFFFFFFFFFFFFFFFFFFFFFFFFF
310
FFFFFFFFFFFFFFFFFFFFFFFFFFFFFFFFFFFFFFFFFFFFFFFFFFFFFFFFFFFFFFFF
310
FFFFFFFFFFFFFFFFFFFFFFFFFFFFFFFFFFFFFFFFFFFFFFFFFFFFFFFFFFFFFFFF
310
FFFFFFFFFFFFFFFFFFFFFFFFFFFFFFFFFFFFFFFFFFFFFFFFFFFFFFFFFFFFFFFF
310
FFFFFFFFFFFFFFFFFFFFFFFFFFFFFFFFFFFFFFFFFFFFFFFFFFFFFFFFFFFFFFFF
310
FFFFFFFFFFFFFFFFFFFFFFFFFFFFFFFFFFFFFFFFFFFFFFFFFFFFFFFFFFFFFFFF
310
FFFFFFFFFFFFFFFFFFFFFFFFFFFFFFFFFFFFFFFFFFFFFFFFFFFFFFFFFFFFFFFF
310
FFFFFFFFFFFFFFFFFFFFFFFFFFFFFFFFFFFFFFFFFFFFFFFFFFFFFFFFFFFFFFFF
310
FFFFFFFFFFFFFFFFFFFFFFFFFFFFFFFFFFFFFFFFFFFFFFFFFFFFFFFFFFFFFFFF
310
FFFFFFFFFFFFFFFFFFFFFFFFFFFFFFFFFFFFFFFFFFFFFFFFFFFFFFFFFFFFFFFF
310
FFFFFFFFFFFFFFFFFFFFFFFFFFFFFFFFFFFFFFFFFFFFFFFFFFFFFFFFFFFFFFFF
310
FFFFFFFFFFFFFFFFFFFFFFFFFFFFFFFFFFFFFFFFFFFFFFFFFFFFFFFFFFFFFFFF
310
FFFFFFFFFFFFFFFFFFFFFFFFFFFFFFFFFFFFFFFFFFFFFFFFFFFFFFFFFFFFFFFF
310
0100000200000000000000000000000000000000000000000000000000000000
310
0000000000000000000000000000000000000000000000000000000000000000
310
0100FEFF030A0000FFFFFFFF0A00030000000000C00000000000004607000000
310
5042727573680007000000504272757368000700000050427275736800F439B2
310
7100000000000000000000000000000000000000000000000000000000000000
310
0000000000000000000000000000000000000000000000000000000000000000
310
0000000000000000000000000000000000000000000000000000000000000000
310
0000000000000000000000000000000000000000000000000000000000000000
310
0000000000000000000000000000000000000000000000000000000000000000
310
0000000000000000000000000000000000000000000000000000000000000000
310
0000000000000000000000000000000000000000000000000000000000000000
310
0000000000000000000000000000000000000000000000000000000000000000
310
0000000000000000000000000000000000000000000000000000000000000000
310
0000000000000000000000000000000000000000000000000000000000000000
310
0000000000000000000000000000000000000000000000000000000000000000
310
0000000000000000000000000000000000000000000000000000000000000000
310
20260000424D0E260000000000003E00000028000000B40200006E0000000100
310
01000000000000000000130B0000130B00000200000002000000000000FFFFFF
310
FFFFFFFFFFFFFFFFFFFFFFFFFFFFFFFFFFFFFFFFFFFFFFFFFFFFFFFFFFFFFFFF
310
FFFFFFFFFFFFFFFFFFFFFFFFFFFFFFFFFFFFFFFFFFFFFFFFFFFFFFFFFFFFFFFF
310
FFFFFFFFFFFFFFFFFFFFFFFFFFFFFFFFFFFFFFFFFFFFFFFFF000FFFFFFFFFFFF
310
FFFFFFFFFFFFFFFFFFFFFFFFFFFFFFFFFFFFFFFFFFFFFFFFFFFFFFFFFFFFFFFF
310
FFFFFFFFFFFFFFFFFFFFFFFFFFFFFFFFFFFFFFFFFFFFFFFFFFFFFFFFFFFFFFFF
310
FFFFFFFFFFFFFFFFFFFFFFFFFFFFFFFFF000FFFFFFFFFFFFFFFFFFFFFFFFFFFF
310
FFFFFFFFFFFFFFFFFFFFFFFFFFFFFFFFFFFFFFFFFFFFFFFFFFFFFFFFFFFFFFFF
310
FFFFFFFFFFFFFFFFFFFFFFFFFFFFFFFFFFFFFFFFFFFFFFFFFFFFFFFFFFFFFFFF
310
FFFFFFFFFFFFFFFFF000FFFFFFFFFFFFFFFFFFFFFFFFFFFFFFFFFFFFFFFFFFFF
310
FFFFFFFFFFFFFFFFFFFFFFFFFFFFFFFFFFFFFFFFFFFFFFFFFFFFFFFFFFFFFFFF
310
FFFFFFFFFFFFFFFFFFFFFFFFFFFFFFFFFFFFFFFFFFFFFFFFFFFFFFFFFFFFFFFF
310
F000FFFFFFFFFFFFFFFFFFFFFFFFFFFFFFFFFFFFFFFFFFFFFFFFFFFFFFFFFFFF
310
FFFFFFFFFFFFFFFFFFFFFFFFFFFFFFFFFFFFFFFFFFFFFFFFFFFFFFFFFFFFFFFF
310
FFFFFFFFFFFFFFFFFFFFFFFFFFFFFFFFFFFFFFFFFFFFFFFFF000FFFFFFFFFFFF
310
FFFFFFFFFFFFFFFFFFFFFFFFFFFFFFFFFFFFFFFFFFFFFFFFFFFFFFFFFFFFFFFF
310
FFFFFFFFFFFFFFFFFFFFFFFFFFFFFFFFFFFFFFFFFFFFFFFFFFFFFFFFFFFFFFFF
310
FFFFFFFFFFFFFFFFFFFFFFFFFFFFFFFFF000FFFFFFFFFFFFFFFFFFFFFFFFFFFF
310
FFFFFFFFFFFFFFFFFFFFFFFFFFFFFFFFFFFFFFFFFFFFFFFFFFFFFFFFFFFFFFFF
310
FFFFFFFFFFFFFFFFFFFFFFFFFFFFFFFFFFFFFFFFFFFFFFFFFFFFFFFFFFFFFFFF
310
FFFFFFFFFFFFFFFFF000FFFFFFFFFFFFFFFFFFFFFFFFFFFFFFFFFFFFFFFFFFFF
310
FFFFFFFFFFFFFFFFFFFFFFFFFFFFFFFFFFFFFFFFFFFFFFFFFFFFFFFFFFFFFFFF
310
FFFFFFFFFFFFFFFFFFFFFFFFFFFFFFFFFFFFFFFFFFFFFFFFFFFFFFFFFFFFFFFF
310
F000FFFFFFFFFFFFFFFFFFFFFFFFFFFFFFFFFFFFFFFFFFFFFFFFFFFFFFFFFFFF
310
FFFFFFFFFFFFFFFFFFFFFFFFFFFFFFFFFFFFFFFFFFFFFFFFFFFFFFFFFFFFFFFF
310
FFFFFFFFFFFFFFFFFFFFFFFFFFFFFFFFFFFFFFFFFFFFFFFFF000FFFFFFFFFFFF
310
FFFFFFFFFFFFFFFFFFFFFFFFFFFFFFFFFFFFFFFFFFFFFFFFFFFFFFFFFFFFFFFF
310
FFFFFFFFFFFFFFFFFFFFFFFFFFFFFFFFFFFFFFFFFFFFFFFFFFFFFFFFFFFFFFFF
310
FFFFFFFFFFFFFFFFFFFFFFFFFFFFFFFFF000FFFFFFFFFFFFFFFFFFFFFFFFFFFF
310
FFFFFFFFFFFFFFFFFFFFFFFFFFFFFFFFFFFFFFFFFFFFFFFFFFFFFFFFFFFFFFFF
310
FFFFFFFFFFFFFFFFFFFFFFFFFFFFFFFFFFFFFFFFFFFFFFFFFFFFFFFFFFFFFFFF
310
FFFFFFFFFFFFFFFFF000FFFFFFFFFFFFFFFFFFFFFFFFFFFFFFFFFFFFFFFFFFFF
310
FFFFFFFFFFFFFFFFFFFFFFFFFFFFFFFFFFFFFFFFFFFFFFFFFFFFFFFFFFFFFFFF
310
FFFFFFFFFFFFFFFFFFFFFFFFFFFFFFFFFFFFFFFFFFFFFFFFFFFFFFFFFFFFFFFF
310
F000FFFFFFFFFFFFFFFFFFFFFFFFFFFFFFFFFFFFFFFFFFFFFFFFFFFFFFFFFFFF
310
FFFFFFFFFFFFFFFFFFFFFFFFFFFFFFFFFFFFFFFFFFFFFFFFFFFFFFFFFFFFFFFF
310
FFFFFFFFFFFFFFFFFFFFFFFFFFFFFFFFFFFFFFFFFFFFFFFFF000FFFFFFFFFFFF
310
FFFFFFFFFFFFFFFFFFFFFFFFFFFFFFFFFFFFFFFFFFFFFFFFFFFFFFFFFFFFFFFF
310
FFFFFFFFFFFFFFFFFFFFFFFFFFFFFFFFFFFFFFFFFFFFFFFFFFFFFFFFFFFFFFFF
310
FFFFFFFFFFFFFFFFFFFFFFFFFFFFFFFFF000FFFFFFFFFFFFFFFFFFFFFFFFFFFF
310
FFFFFFFFFFFFFFFFFFFFFFFFFFFFFFFFFFFFFFFFFFFFFFFFFFFFFFFFFFFFFFFF
310
FFFFFFFFFFFFFFFFFFFFFFFFFFFFFFFFFFFFFFFFFFFFFFFFFFFFFFFFFFFFFFFF
310
FFFFFFFFFFFFFFFFF000FFFFFFFFFFFFFFFFFFFFFFFFFFFFFFFFFFFFFFFFFFFF
310
FFFFFFFFFFFFFFFFFFFFFFFFFFFFFFFFFFFFFFFFFFFFFFFFFFFFFFFFFFFFFFFF
310
FFFFFFFFFFFFFFFFFFFFFFFFFFFFFFFFFFFFFFFFFFFFFFFFFFFFFFFFFFFFFFFF
310
F000FFFFFFFFFFFFFFFFFFFFFFFFFFFFFFFFFFFFFFFFFFFFFFFFFFFFFFFFFFFF
310
FFFFFFFFFFFFFFFFFFFFFFFFFFFFFFFFFFFFFFFFFFFFFFFFFFFFFFFFFFFFFFFF
310
FFFFFFFFFFFFFFFFFFFFFFFFFFFFFFFFFFFFFFFFFFFFFFFFF000FFFFFFFFFFFF
310
FFFFFFFFFFFFFFFFFFFFFFFFFFFFFFFFFFFFFFFFFFFFFFFFFFFFFFFFFFFFFFFF
310
FFFFFFFFFFFFFFFFFFFFFFFFFFFFFFFFFFFFFFFFFFFFFFFFFFFFFFFFFFFFFFFF
310
FFFFFFFFFFFFFFFFFFFFFFFFFFFFFFFFF000FFFFFFFFFFFFFFFFFFFFFFFFFFFF
310
FFFFFFFFFFFFFFFFFFFFFFFFFFFFFFFFFFFFFFFFFFFFFFFFFFFFFFFFFFFFFFFF
310
FFFFFFFFFFFFFFFFFFFFFFFFFFFFFFFFFFFFFFFFFFFFFFFFFFFFFFFFFFFFFFFF
310
FFFFFFFFFFFFFFFFF000FFFFF80003FFFFFFFFFFFFFFFFFFFFFFFFFFFFFFFFFF
310
FFFFF00007FFFFFFFFFF00007FFFFFF800000000000000007FFFFFFFFFFFFFFF
310
FFFFFFFC001FFFFFFFFFFFFFFC001FFFFFFFFFFFFFFFFFFFFFFFFFFE0007FFFF
310
F000FFFF8000007FFFFFFFF8000FFFFFC0007FFFFF80007FFFFF0000007FFFFF
310
FFF8000007FFFFF800000000000000007FFFFFF0001FFFFFFFFFFFC00001FFFF
310
FFFFFFFFC00001FFFFFFFF000000000003FFFFE000007FFFF000FFFE0000000F
310
FFFFFFF0000FFFFF80007FFFFF80007FFFFC0000001FFFFFFFC0000001FFFFF8
310
00000000000000007FFFFFF0001FFFFFFFFFFE0000003FFFFFFFFFFE0000003F
310
FFFFFF000000000003FFFF0000000FFFF000FFF800000003FFFFFFF00007FFFF
310
80007FFFFF80007FFFF000000007FFFFFF000000003FFFF80000000000000000
310
7FFFFFF0001FFFFFFFFFF80000000FFFFFFFFFF80000000FFFFFFF0000000000
310
03FFFC00000003FFF000FFE000000000FFFFFFF00007FFFF80003FFFFF80007F
310
FFC000000001FFFFFC000000001FFFF800000000000000007FFFFFF0001FFFFF
310
FFFFE000000003FFFFFFFFE000000003FFFFFF000000000003FFF000000000FF
310
F000FF80000000007FFFFFF00007FFFF80003FFFFF80007FFF8000000000FFFF
310
F80000000007FFF800000000000000007FFFFFF0001FFFFFFFFFC000000001FF
310
FFFFFFC000000001FFFFFF000000000003FFC0000000007FF000FF0000000000
310
3FFFFFE00007FFFF00003FFFFF80007FFE00000000003FFFF00000000003FFF8
310
00000000000000007FFFFFF0001FFFFFFFFF8000000000FFFFFFFF8000000000
310
FFFFFF000000000003FF80000000003FF000FE00000000001FFFFFE00003FFFF
310
00003FFFFF80007FFC00000000001FFFE00000000001FFF8000001FFFE000000
310
7FFFFFF0001FFFFFFFFE00000000003FFFFFFE00000000003FFFFF0000000000
310
03FF00000000001FF000FC00000000000FFFFFE00003FFFF00001FFFFF80007F
310
F800000000001FFFC00000000000FFF8000001FFFE0000007FFFFFF0001FFFFF
310
FFFC00000000001FFFFFFC00000000001FFFFF000000000003FE00000000000F
310
F000F8000000000007FFFFE00003FFFF00001FFFFF80007FF800000000000FFF
310
800000000000FFF8000001FFFE0000007FFFFFF0001FFFFFFFF800000000000F
310
FFFFF800000000000FFFFF000000000003FC000000000007F000F80000000000
310
03FFFFC00003FFFE00001FFFFF80007FF0000000000007FF0000000000007FF8
310
000001FFFE0000007FFFFFF0001FFFFFFFF0000000000007FFFFF00000000000
310
07FFFF000000000003F8000000000003F000F0000000000003FFFFC00001FFFE
310
00001FFFFF80007FE0000000000007FE0000000000003FF8000001FFFE000000
310
7FFFFFF0001FFFFFFFF0000000000007FFFFF0000000000007FFFF0000000000
310
03F800001F800003F000E00001FFF00001FFFFC00001FFFE00000FFFFF80007F
310
E00001FFE00003FE00001FFF00003FF8000001FFFE0000007FFFFFF0001FFFFF
310
FFE000003E000003FFFFE000003E000003FFFF000000000003F00001FFF80001
310
F000E00007FFFC0001FFFFC00001FFFE00000FFFFF80007FC0000FFFFC0003FC
310
0000FFFFC0001FF8000001FFFE0000007FFFFFF0001FFFFFFFC00003FFE00001
310
FFFFC00003FFE00001FFFF0001FFFFFFFFF00007FFFE0001F000E0000FFFFF00
310
00FFFF800001FFFC00000FFFFF80007FC0001FFFFE0001FC0001FFFFE0001FF8
310
000001FFFE0000007FFFFFF0001FFFFFFF80000FFFF80000FFFF80000FFFF800
310
00FFFF0003FFFFFFFFE0000FFFFF8000F000C0003FFFFF8000FFFF800000FFFC
310
000007FFFF80007F80003FFFFF0001FC0003FFFFF0001FF8000001FFFE000000
310
7FFFFFF0001FFFFFFF80003FFFFE0000FFFF80003FFFFE0000FFFF0003FFFFFF
310
FFE0003FFFFF8000F000C0003FFFFF8000FFFF800000FFFC000007FFFF80007F
310
80007FFFFF8001F80007FFFFF8000FF8000001FFFE0000007FFFFFF0001FFFFF
310
FF00007FFFFF00007FFF00007FFFFF00007FFF0003FFFFFFFFE0003FFFFFC000
310
F000C0007FFFFFC000FFFF000000FFFC000007FFFF80007F8000FFFFFF8000F8
310
000FFFFFF8000FF8000001FFFE0000007FFFFFF0001FFFFFFF0000FFFFFF8000
310
7FFF0000FFFFFF80007FFF0003FFFFFFFFC0007FFFFFC00070008000FFFFFFC0
310
00FFFF000000FFF8000007FFFF80007F8000FFFFFF8000F8000FFFFFF8000FF8
310
000001FFFE0000007FFFFFF0001FFFFFFE0001FFFFFFC0003FFE0001FFFFFFC0
310
003FFF0003FFFFFFFFC0007FFFFFE00070008000FFFFFFC0007FFF0000007FF8
310
000003FFFF80007F0001FFFFFF8000F8000FFFFFF8000FF8000001FFFE000000
310
7FFFFFF0001FFFFFFE0001FFFFFFC0003FFE0001FFFFFFC0003FFF0003FFFFFF
310
FFC000FFFFFFE00070008000FFFFFFC0007FFF0000007FF8000003FFFF80007F
310
0001FFFFFF8000F8001FFFFFF8000FF8000001FFFE0000007FFFFFF0001FFFFF
310
FE0003FFFFFFE0003FFE0003FFFFFFE0003FFF0003FFFFFFFFC000FFFFFFE000
310
70008000FFFFFFC0007FFE0000007FF8000003FFFF80007F0001FFFFFF8000F0
310
001FFFFFF8000FF8000001FFFE0000007FFFFFF0001FFFFFFC0003FFFFFFE000
310
1FFC0003FFFFFFE0001FFF0003FFFFFFFFC000FFFFFFC00070008000FFFFFF80
310
007FFE0000007FF0000003FFFF80007F0001FFFFFF0000F0001FFFFFF8000FF8
310
000001FFFE0000007FFFFFF0001FFFFFFC0007FFFFFFF0001FFC0007FFFFFFF0
310
001FFF0003FFFFFFFFC000FFFFFFC00070008001FFFFFF0000FFFE0000003FF0
310
000001FFFF80007F0001FFFFFF0000F8001FFFFFF0000FF8000001FFFE000000
310
7FFFFFF0001FFFFFFC0007FFFFFFF0001FFC0007FFFFFFF0001FFF0003FFFFFF
310
FFC001FFFFFF80007000FFFFFFFFFE0000FFFE0008003FF0008001FFFF80007F
310
FFFFFFFFFC0000FFFFFFFFFFE0000FF8000001FFFE0000007FFFFFF0001FFFFF
310
F8000FFFFFFFF8000FF8000FFFFFFFF8000FFF0003FFFFFFFFFFFFFFFFFF0000
310
7000FFFFFFFFFC0000FFFC0008003FF0008001FFFF80007FFFFFFFFFF80001FF
310
FFFFFFFF80000FF8000001FFFE0000007FFFFFF0001FFFFFF8000FFFFFFFF800
310
0FF8000FFFFFFFF8000FFF0003FFFFFFFFFFFFFFFFFE0000F000FFFFFFFFE000
310
00FFFC000C003FE000C001FFFF80007FFFFFFFFFC00001FFFFFFFFFE00001FF8
310
000001FFFE0000007FFFFFF0001FFFFFF8000FFFFFFFF8000FF8000FFFFFFFF8
310
000FFF0003FFFFFFFFFFFFFFFFF00000F000FFFFFFFE000001FFFC000C001FE0
310
00C000FFFF80007FFFFFFFFE000001FFFFFFFFE000001FF80FFFFFFFFFFFFFC0
310
7FFFFFF0001FFFFFF8000FFFFFFFF8000FF8000FFFFFFFF8000FFF0003FFFFFF
310
FFFFFFFFFF800000F000FFFFFFC0000001FFFC001C001FE001C000FFFF80007F
310
FFFFFF80000003FFFFFFF80000001FF80FFFFFFFFFFFFFC07FFFFFF0001FFFFF
310
F8001FFFFFFFFC000FF8001FFFFFFFFC000FFF0003FFFFFFFFFFFFFFF0000001
310
F000FFFFF800000001FFF8001C001FE001C000FFFF80007FFFFFF800000003FF
310
FFFF800000003FF80FFFFFFFFFFFFFC07FFFFFF0001FFFFFF8001FFFFFFFFC00
310
0FF8001FFFFFFFFC000FFF0003FFFFFFFFFFFFFE00000001F000FFFFC0000000
310
03FFF8001E001FC001E000FFFF80007FFFFF8000000007FFFFFC000000003FF8
310
0FFFFFFFFFFFFFC07FFFFFF0001FFFFFF8001FFFFFFFFC000FF8001FFFFFFFFC
310
000FFF0003FFFFFFFFFFFFE000000003F000FFFE0000000007FFF8001E000FC0
310
01E0007FFF80007FFFFE0000000007FFFFE0000000007FF80FFFFFFFFFFFFFC0
310
7FFFFFF0001FFFFFF0001FFFFFFFFC0007F0001FFFFFFFFC0007FF0003FFFFFF
310
FFFFFF0000000003F000FFF80000000007FFF8001E000FC003E0007FFF80007F
310
FFF0000000000FFFFF8000000000FFF80FFFFFFFFFFFFFC07FFFFFF0001FFFFF
310
F0001FFFFFFFFC0007F0001FFFFFFFFC0007FF0003FFFFFFFFFFFC0000000007
310
F000FFE0000000000FFFF0003E000FC003E0007FFF80007FFFC0000000001FFF
310
FE0000000001FFF80FFFFFFFFFFFFFC07FFFFFF0001FFFFFF0001FFFFFFFFC00
310
07F0001FFFFFFFFC0007FF0003FFFFFFFFFFF0000000000FF000FFC000000000
310
1FFFF0003F000F8003F0003FFF80007FFF80000000003FFFF80000000003FFF8
310
0FFFFFFFFFFFFFC07FFFFFF0001FFFFFF0001FFFFFFFFC0007F0001FFFFFFFFC
310
0007FF0003FFFFFFFFFFE0000000001FF000FF00000000007FFFF0003F000780
310
03F0003FFF80007FFF00000000007FFFF00000000007FFF80FFFFFFFFFFFFFC0
310
7FFFFFF0001FFFFFF0001FFFFFFFFC0007F0001FFFFFFFFC0007FF0003FFFFFF
310
FFFF80000000007FF000FE0000000000FFFFE0003F00078007F0003FFF80007F
310
FE0000000001FFFFE0000000001FFFF80FFFFFFFFFFFFFC07FFFFFF0001FFFFF
310
F0001FFFFFFFFC0007F0001FFFFFFFFC0007FF0003FFFFFFFFFF0000000000FF
310
F000FC0000000003FFFFE0007F00078007F0003FFF80007FFC0000000007FFFF
310
C0000000007FFFF80FFFFFFFFFFFFFC07FFFFFF0001FFFFFF8001FFFFFFFFC00
310
0FF8001FFFFFFFFC000FFF0003FFFFFFFFFE0000000003FFF000FC000000000F
310
FFFFE0007F80070007F8001FFF80007FF8000000001FFFFF8000000001FFFFF8
310
0FFFFFFFFFFFFFC07FFFFFF0001FFFFFF8001FFFFFFFFC000FF8001FFFFFFFFC
310
000FFF0003FFFFFFFFFC000000000FFFF000F8000000007FFFFFE0007F800700
310
07F8001FFF80007FF000000000FFFFFF800000000FFFFFF80FFFFFFFFFFFFFC0
310
7FFFFFF0001FFFFFF8000FFFFFFFF8000FF8000FFFFFFFF8000FFF0003FFFFFF
310
FFFC000000007FFFF000F800000007FFFFFFC0007F8003000FF8001FFF80007F
310
F000000007FFFFFF000000007FFFFFF80FFFFFFFFFFFFFC07FFFFFF0001FFFFF
310
F8000FFFFFFFF8000FF8000FFFFFFFF8000FFF0003FFFFFFFFF80000000FFFFF
310
F000F0000000FFFFFFFFC000FF8003000FF8001FFF80007FE0000000FFFFFFFF
310
0000000FFFFFFFF8000001FFFE0000007FFFFFF0001FFFFFF8000FFFFFFFF800
310
0FF8000FFFFFFFF8000FFF0003FFFFFFFFF8000000FFFFFFF000F000000FFFFF
310
FFFFC000FFC002000FF8000FFF80007FE000001FFFFFFFFE000001FFFFFFFFF8
310
000001FFFE0000007FFFFFF0001FFFFFF8000FFFFFFFF8000FF8000FFFFFFFF8
310
000FFF0003FFFFFFFFF000001FFFFFFFF000E00000FFFFFFFFFFC000FFC00200
310
0FFC000FFF80007FE00001FFFFFFFFFE00001FFFFFFFFFF8000001FFFE000000
310
7FFFFFF0001FFFFFFC000FFFFFFFF8001FFC000FFFFFFFF8001FFF0003FFFFFF
310
FFF00001FFFFFFFFF000E00007FFFFFFFFFF8000FFC000001FFC000FFF80007F
310
C0000FFFFFFFFFFE0000FFFFFFFFFFF8000001FFFE0000007FFFFFF0001FFFFF
310
FC0007FFFFFFF0001FFC0007FFFFFFF0001FFF0003FFFFFFFFF00007FFFFFFFF
310
F000E0001FFFFFFFFFFF8000FFC000001FFC000FFF80007FC0003FFFFFFFFFFE
310
0001FFFFFFFFFFF8000001FFFE0000007FFFFFF0001FFFFFFC0007FFFFFFF000
310
1FFC0007FFFFFFF0001FFF0003FFFFFFFFF0001FFFFFFFFFF000E0003FFFFF00
310
03FF8001FFE000001FFC0007FF80007FC0007FFFFF0007FC0003FFFFF0003FF8
310
000001FFFE0000007FFFFFF0001FFFFFFC0003FFFFFFE0001FFC0003FFFFFFE0
310
001FFF0003FFFFFFFFF0003FFFFFFFFFF000E0003FFFFF0001FF8001FFE00000
310
1FFE0007FF80007FC0007FFFFE0003FC0007FFFFE0003FF8000001FFFE000000
310
7FFFFFF0001FFFFFFE0003FFFFFFE0003FFE0003FFFFFFE0003FFF0003FFFFFF
310
FFF0003FFFFF8001F000E0003FFFFF0001FF0001FFE000001FFE0007FF80007F
310
C0007FFFFE0003FC0007FFFFE0003FF8000001FFFE0000007FFFFFF0001FFFFF
310
FE0001FFFFFFC0003FFE0001FFFFFFC0003FFF0003FFFFFFFFF0003FFFFF0001
310
F000E0003FFFFF0003FF0001FFE000003FFE0007FF80007FC0007FFFFE0003FC
310
0007FFFFE0003FF8000001FFFE0000007FFFFFF0001FFFFFFF0001FFFFFFC000
310
7FFF0001FFFFFFC0007FFF0003FFFFFFFFF0003FFFFF0001F000E0003FFFFE00
310
03FF0003FFF000003FFE0003FF80007FC0007FFFFC0003FE0007FFFFE0003FF8
310
000001FFFE0000007FFFFFF0001FFFFFFF0000FFFFFF80007FFF0000FFFFFF80
310
007FFF0003FFFFFFFFF0003FFFFF0001F000E0003FFFFE0003FF0003FFF00000
310
3FFF0003FF80007FC0007FFFFC0007FE0007FFFFC0003FF8000001FFFE000000
310
7FFFFFF0001FFFFFFF80007FFFFF0000FFFF80007FFFFF0000FFFF0003FFFFFF
310
FFF0003FFFFF0003F000E0003FFFFC0003FE0003FFF000003FFF0003FF80007F
310
E0003FFFF80007FE0003FFFFC0007FF8000001FFFE0000007FFFFFF0001FFFFF
310
FF80003FFFFE0000FFFF80003FFFFE0000FFFF0003FFFFFFFFF0001FFFFE0003
310
F000F0001FFFF80003FE0003FFF000007FFF0001FF80007FE0003FFFF00007FE
310
0001FFFF80007FF8000001FFFE0000007FFFFFF0001FFFFFFFC0000FFFF80001
310
FFFFC0000FFFF80001FFFF0003FFFFFFFFF0001FFFFC0003F000F0000FFFF000
310
07FE0007FFF800007FFF0001FF80007FE0001FFFE00007FF0000FFFE00007FF8
310
000001FFFE0000007FFFFFF0001FFFFFFFC00003FFE00001FFFFC00003FFE000
310
01FFFF0003FFFFFFFFF8000FFFF80003F000F00003FFC00007FC0007FFF80000
310
7FFF8001FF80007FF00007FF80000FFF00007FF80000FFF8000001FFFE000000
310
7F80000000000001FFE000003E000003FFFFE000003E000003FFFF0003FFFFFF
310
FFF80003FFE00007F000F800000000000FFC0007FFF800007FFF8001FF80007F
310
F000000000000FFF000000000000FFF8000001FFFE0000007F80000000000001
310
FFF0000000000007FFFFF0000000000007FFFF0003FFFFFFFFFC00007E000007
310
F000F800000000000FFC0007FFF80000FFFF8000FF80007FF800000000001FFF
310
800000000001FFF8000001FFFE0000007F80000000000001FFF800000000000F
310
FFFFF800000000000FFFFF0003FFFFFFFFFC00000000000FF000FC0000000000
310
1FFC0007FFFC0000FFFF8000FF80007FF800000000003FFFC00000000001FFF8
310
000001FFFE0000007F80000000000001FFF800000000000FFFFFF80000000000
310
0FFFFF0003FFFFFFFFFE00000000001FF000FE00000000003FF8000FFFFC0000
310
FFFF8000FF80007FFC00000000003FFFC00000000003FFF8000001FFFE000000
310
7F80000000000001FFFC00000000001FFFFFFC00000000001FFFFF0003FFFFFF
310
FFFF00000000001FF000FF00000000003FF8000FFFFC0000FFFFC000FF80007F
310
FE00000000007FFFE00000000007FFF8000001FFFE0000007F80000000000001
310
FFFE00000000003FFFFFFE00000000003FFFFF0003FFFFFFFFFF80000000003F
310
F000FF80000000007FF8000FFFFC0001FFFFC0007F80007FFF0000000000FFFF
310
F0000000000FFFF800000000000000007F80000000000001FFFF8000000000FF
310
FFFFFF8000000000FFFFFF0003FFFFFFFFFFC0000000007FF000FFC000000000
310
FFF8000FFFFE0001FFFFC0007F80007FFF8000000001FFFFF8000000001FFFF8
310
00000000000000007F80000000000001FFFFC000000001FFFFFFFFC000000001
310
FFFFFF0003FFFFFFFFFFE000000000FFF000FFE000000003FFF0001FFFFE0001
310
FFFFC0007F80007FFFC000000007FFFFFE000000003FFFF80000000000000000
310
7F80000000000001FFFFE000000003FFFFFFFFE000000003FFFFFF0003FFFFFF
310
FFFFF000000003FFF000FFF80000000FFFF0001FFFFE0001FFFFE0007F80007F
310
FFF00000000FFFFFFF00000000FFFFF800000000000000007F80000000000001
310
FFFFF80000000FFFFFFFFFF80000000FFFFFFF0003FFFFFFFFFFFC0000000FFF
310
F000FFFE0000003FFFF0001FFFFE0003FFFFE0003F80007FFFFC0000003FFFFF
310
FFC0000003FFFFF800000000000000007F80000000000001FFFFFE0000003FFF
310
FFFFFFFE0000003FFFFFFF0003FFFFFFFFFFFF0000003FFFF000FFFF800000FF
310
FFF0001FFFFF0003FFFFE0003F80007FFFFF000001FFFFFFFFF800001FFFFFF8
310
00000000000000007F80000000000001FFFFFFC00001FFFFFFFFFFFFC00001FF
310
FFFFFF0003FFFFFFFFFFFFC00000FFFFF000FFFFF8000FFFFFFFFFFFFFFFFFFF
310
FFFFFFFFFFFFFFFFFFFFF0001FFFFFFFFFFF0000FFFFFFF80000000000000000
310
7FFFFFFFFFFFFFFFFFFFFFFC001FFFFFFFFFFFFFFC001FFFFFFFFFFFFFFFFFFF
310
FFFFFFFC001FFFFFF000FFFFFFFFFFFFFFFFFFFFFFFFFFFFFFFFFFFFFFFFFFFF
310
FFFFFFFFFFFFFFFFFFFFFFFFFFFFFFFFFFFFFFFFFFFFFFFFFFFFFFFFFFFFFFFF
310
FFFFFFFFFFFFFFFFFFFFFFFFFFFFFFFFFFFFFFFFFFFFFFFFFFFFFFFFFFFFFFFF
310
F000FFFFFFFFFFFFFFFFFFFFFFFFFFFFFFFFFFFFFFFFFFFFFFFFFFFFFFFFFFFF
310
FFFFFFFFFFFFFFFFFFFFFFFFFFFFFFFFFFFFFFFFFFFFFFFFFFFFFFFFFFFFFFFF
310
FFFFFFFFFFFFFFFFFFFFFFFFFFFFFFFFFFFFFFFFFFFFFFFFF000FFFFFFFFFFFF
310
FFFFFFFFFFFFFFFFFFFFFFFFFFFFFFFFFFFFFFFFFFFFFFFFFFFFFFFFFFFFFFFF
310
FFFFFFFFFFFFFFFFFFFFFFFFFFFFFFFFFFFFFFFFFFFFFFFFFFFFFFFFFFFFFFFF
310
FFFFFFFFFFFFFFFFFFFFFFFFFFFFFFFFF000FFFFFFFFFFFFFFFFFFFFFFFFFFFF
310
FFFFFFFFFFFFFFFFFFFFFFFFFFFFFFFFFFFFFFFFFFFFFFFFFFFFFFFFFFFFFFFF
310
FFFFFFFFFFFFFFFFFFFFFFFFFFFFFFFFFFFFFFFFFFFFFFFFFFFFFFFFFFFFFFFF
310
FFFFFFFFFFFFFFFFF000FFFFFFFFFFFFFFFFFFFFFFFFFFFFFFFFFFFFFFFFFFFF
310
FFFFFFFFFFFFFFFFFFFFFFFFFFFFFFFFFFFFFFFFFFFFFFFFFFFFFFFFFFFFFFFF
310
FFFFFFFFFFFFFFFFFFFFFFFFFFFFFFFFFFFFFFFFFFFFFFFFFFFFFFFFFFFFFFFF
310
F000FFFFFFFFFFFFFFFFFFFFFFFFFFFFFFFFFFFFFFFFFFFFFFFFFFFFFFFFFFFF
310
FFFFFFFFFFFFFFFFFFFFFFFFFFFFFFFFFFFFFFFFFFFFFFFFFFFFFFFFFFFFFFFF
310
FFFFFFFFFFFFFFFFFFFFFFFFFFFFFFFFFFFFFFFFFFFFFFFFF000FFFFFFFFFFFF
310
FFFFFFFFFFFFFFFFFFFFFFFFFFFFFFFFFFFFFFFFFFFFFFFFFFFFFFFFFFFFFFFF
310
FFFFFFFFFFFFFFFFFFFFFFFFFFFFFFFFFFFFFFFFFFFFFFFFFFFFFFFFFFFFFFFF
310
FFFFFFFFFFFFFFFFFFFFFFFFFFFFFFFFF000FFFFFFFFFFFFFFFFFFFFFFFFFFFF
310
FFFFFFFFFFFFFFFFFFFFFFFFFFFFFFFFFFFFFFFFFFFFFFFFFFFFFFFFFFFFFFFF
310
FFFFFFFFFFFFFFFFFFFFFFFFFFFFFFFFFFFFFFFFFFFFFFFFFFFFFFFFFFFFFFFF
310
FFFFFFFFFFFFFFFFF000FFFFFFFFFFFFFFFFFFFFFFFFFFFFFFFFFFFFFFFFFFFF
310
FFFFFFFFFFFFFFFFFFFFFFFFFFFFFFFFFFFFFFFFFFFFFFFFFFFFFFFFFFFFFFFF
310
FFFFFFFFFFFFFFFFFFFFFFFFFFFFFFFFFFFFFFFFFFFFFFFFFFFFFFFFFFFFFFFF
310
F000FFFFFFFFFFFFFFFFFFFFFFFFFFFFFFFFFFFFFFFFFFFFFFFFFFFFFFFFFFFF
310
FFFFFFFFFFFFFFFFFFFFFFFFFFFFFFFFFFFFFFFFFFFFFFFFFFFFFFFFFFFFFFFF
310
FFFFFFFFFFFFFFFFFFFFFFFFFFFFFFFFFFFFFFFFFFFFFFFFF000FFFFFFFFFFFF
310
FFFFFFFFFFFFFFFFFFFFFFFFFFFFFFFFFFFFFFFFFFFFFFFFFFFFFFFFFFFFFFFF
310
FFFFFFFFFFFFFFFFFFFFFFFFFFFFFFFFFFFFFFFFFFFFFFFFFFFFFFFFFFFFFFFF
310
FFFFFFFFFFFFFFFFFFFFFFFFFFFFFFFFF000FFFFFFFFFFFFFFFFFFFFFFFFFFFF
310
FFFFFFFFFFFFFFFFFFFFFFFFFFFFFFFFFFFFFFFFFFFFFFFFFFFFFFFFFFFFFFFF
310
FFFFFFFFFFFFFFFFFFFFFFFFFFFFFFFFFFFFFFFFFFFFFFFFFFFFFFFFFFFFFFFF
310
FFFFFFFFFFFFFFFFF000FFFFFFFFFFFFFFFFFFFFFFFFFFFFFFFFFFFFFFFFFFFF
310
FFFFFFFFFFFFFFFFFFFFFFFFFFFFFFFFFFFFFFFFFFFFFFFFFFFFFFFFFFFFFFFF
310
FFFFFFFFFFFFFFFFFFFFFFFFFFFFFFFFFFFFFFFFFFFFFFFFFFFFFFFFFFFFFFFF
310
F000FFFFFFFFFFFFFFFFFFFFFFFFFFFFFFFFFFFFFFFFFFFFFFFFFFFFFFFFFFFF
310
FFFFFFFFFFFFFFFFFFFFFFFFFFFFFFFFFFFFFFFFFFFFFFFFFFFFFFFFFFFFFFFF
310
FFFFFFFFFFFFFFFFFFFFFFFFFFFFFFFFFFFFFFFFFFFFFFFFF000FFFFFFFFFFFF
310
FFFFFFFFFFFFFFFFFFFFFFFFFFFFFFFFFFFFFFFFFFFFFFFFFFFFFFFFFFFFFFFF
310
FFFFFFFFFFFFFFFFFFFFFFFFFFFFFFFFFFFFFFFFFFFFFFFFFFFFFFFFFFFFFFFF
310
FFFFFFFFFFFFFFFFFFFFFFFFFFFFFFFFF000FFFFFFFFFFFFFFFFFFFFFFFFFFFF
310
FFFFFFFFFFFFFFFFFFFFFFFFFFFFFFFFFFFFFFFFFFFFFFFFFFFFFFFFFFFFFFFF
310
FFFFFFFFFFFFFFFFFFFFFFFFFFFFFFFFFFFFFFFFFFFFFFFFFFFFFFFFFFFFFFFF
310
FFFFFFFFFFFFFFFFF000FFFFFFFFFFFFFFFFFFFFFFFFFFFFFFFFFFFFFFFFFFFF
310
FFFFFFFFFFFFFFFFFFFFFFFFFFFFFFFFFFFFFFFFFFFFFFFFFFFFFFFFFFFFFFFF
310
FFFFFFFFFFFFFFFFFFFFFFFFFFFFFFFFFFFFFFFFFFFFFFFFFFFFFFFFFFFFFFFF
310
F000FFFFFFFFFFFFFFFFFFFFFFFFFFFFFFFFFFFFFFFFFFFFFFFFFFFFFFFFFFFF
310
FFFFFFFFFFFFFFFFFFFFFFFFFFFFFFFFFFFFFFFFFFFFFFFFFFFFFFFFFFFFFFFF
310
FFFFFFFFFFFFFFFFFFFFFFFFFFFFFFFFFFFFFFFFFFFFFFFFF000FFFFFFFFFFFF
310
FFFFFFFFFFFFFFFFFFFFFFFFFFFFFFFFFFFFFFFFFFFFFFFFFFFFFFFFFFFFFFFF
310
FFFFFFFFFFFFFFFFFFFFFFFFFFFFFFFFFFFFFFFFFFFFFFFFFFFFFFFFFFFFFFFF
310
FFFFFFFFFFFFFFFFFFFFFFFFFFFFFFFFF000FFFFFFFFFFFFFFFFFFFFFFFFFFFF
310
FFFFFFFFFFFFFFFFFFFFFFFFFFFFFFFFFFFFFFFFFFFFFFFFFFFFFFFFFFFFFFFF
310
FFFFFFFFFFFFFFFFFFFFFFFFFFFFFFFFFFFFFFFFFFFFFFFFFFFFFFFFFFFFFFFF
310
FFFFFFFFFFFFFFFFF000FFFFFFFFFFFFFFFFFFFFFFFFFFFFFFFFFFFFFFFFFFFF
310
FFFFFFFFFFFFFFFFFFFFFFFFFFFFFFFFFFFFFFFFFFFFFFFFFFFFFFFFFFFFFFFF
310
FFFFFFFFFFFFFFFFFFFFFFFFFFFFFFFFFFFFFFFFFFFFFFFFFFFFFFFFFFFFFFFF
310
F000FFFFFFFFFFFFFFFFFFFFFFFFFFFFFFFFFFFFFFFFFFFFFFFFFFFFFFFFFFFF
310
FFFFFFFFFFFFFFFFFFFFFFFFFFFFFFFFFFFFFFFFFFFFFFFFFFFFFFFFFFFFFFFF
310
FFFFFFFFFFFFFFFFFFFFFFFFFFFFFFFFFFFFFFFFFFFFFFFFF000FFFFFFFFFFFF
310
FFFFFFFFFFFFFFFFFFFFFFFFFFFFFFFFFFFFFFFFFFFFFFFFFFFFFFFFFFFFFFFF
310
FFFFFFFFFFFFFFFFFFFFFFFFFFFFFFFFFFFFFFFFFFFFFFFFFFFFFFFFFFFFFFFF
310
FFFFFFFFFFFFFFFFFFFFFFFFFFFFFFFFF0000000000000000000000000000000
310
0000000000000000000000000000000000000000000000000000000000000000
310
0000000000000000000000000000000000000000000000000000000000000000
310
0000000000000000000000000000000000000000000000000000000000000000
310
0000000000000000000000000000000000000000000000000000000000000000
310
0000000000000000000000000000000000000000000000000000000000000000
310
0000000000000000000000000000000000000000000000000000000000000000
310
0000000000000000000000000000000000000000000000000000000000000000
310
0000000000000000000000000000000000000000000000000000000000000000
310
0000000000000000000000000000000000000000000000000000000000000000
310
0000000000000000000000000000000000000000000000000000000000000000
310
0000000000000000000000000000000000000000000000000000000000000000
310
0000000000000000000000000000000000000000000000000000000000000000
310
0000000000000000000000000000000000000000000000000000000000000000
310
0000000000000000000000000000000000000000000000000000000000000000
310
0000000000000000000000000000000000000000000000000000000000000000
  1
OLE
  0
ENDSEC
  0
SECTION
  2
OBJECTS
  0
DICTIONARY
  5
C
330
0
100
AcDbDictionary
281
     1
  3
ACAD_GROUP
350
D
  3
ACAD_LAYOUT
350
1A
  3
ACAD_MLINESTYLE
350
17
  3
ACAD_PLOTSETTINGS
350
19
  3
ACAD_PLOTSTYLENAME
350
E
  3
ACAD_SCALELIST
350
47
  0
DICTIONARY
  5
D
102
{ACAD_REACTORS
330
C
102
}
330
C
100
AcDbDictionary
281
     1
  0
DICTIONARY
  5
1A
102
{ACAD_REACTORS
330
C
102
}
330
C
100
AcDbDictionary
281
     1
  3
Layout1
350
1E
  3
Layout2
350
26
  3
Model
350
22
  0
DICTIONARY
  5
17
102
{ACAD_REACTORS
330
C
102
}
330
C
100
AcDbDictionary
281
     1
  3
Standard
350
18
  0
DICTIONARY
  5
19
102
{ACAD_REACTORS
330
C
102
}
330
C
100
AcDbDictionary
281
     1
  0
ACDBDICTIONARYWDFLT
  5
E
102
{ACAD_REACTORS
330
C
102
}
330
C
100
AcDbDictionary
281
     1
  3
Normal
350
F
100
AcDbDictionaryWithDefault
340
F
  0
DICTIONARY
  5
47
102
{ACAD_REACTORS
330
C
102
}
330
C
100
AcDbDictionary
281
     1
  3
A0
350
48
  3
A1
350
49
  3
A2
350
4A
  3
A3
350
4B
  3
A4
350
4C
  3
A5
350
4D
  3
A6
350
4E
  3
A7
350
4F
  3
A8
350
50
  3
A9
350
51
  3
B0
350
52
  3
B1
350
53
  3
B2
350
54
  3
B3
350
55
  3
B4
350
56
  3
B5
350
57
  3
B6
350
58
  3
B7
350
59
  3
B8
350
5A
  3
B9
350
5B
  3
C0
350
5C
  3
C1
350
5D
  3
C2
350
5E
  3
C3
350
5F
  3
C4
350
60
  3
C5
350
61
  3
C6
350
62
  3
C7
350
63
  3
C8
350
64
  3
C9
350
65
  3
D0
350
66
  3
D1
350
67
  3
D2
350
68
  0
LAYOUT
  5
1E
102
{ACAD_REACTORS
330
1A
102
}
330
1A
100
AcDbPlotSettings
  1

  2
none_device
  4

  6

 40
0.0
 41
0.0
 42
0.0
 43
0.0
 44
0.0
 45
0.0
 46
0.0
 47
0.0
 48
0.0
 49
0.0
140
0.0
141
0.0
142
1.0
143
1.0
 70
   688
 72
     1
 73
     0
 74
     5
  7

 75
    16
147
1.0
148
0.0
149
0.0
100
AcDbLayout
  1
Layout1
 70
     1
 71
     1
 10
0.0
 20
0.0
 11
420.0
 21
297.0
 12
0.0
 22
0.0
 32
0.0
 14
1.0000000000E+20
 24
1.0000000000E+20
 34
1.0000000000E+20
 15
-1.0000000000E+20
 25
-1.0000000000E+20
 35
-1.0000000000E+20
146
0.0
 13
0.0
 23
0.0
 33
0.0
 16
1.0
 26
0.0
 36
0.0
 17
0.0
 27
1.0
 37
0.0
 76
     0
330
1B
  0
LAYOUT
  5
26
102
{ACAD_REACTORS
330
1A
102
}
330
1A
100
AcDbPlotSettings
  1

  2
none_device
  4

  6

 40
0.0
 41
0.0
 42
0.0
 43
0.0
 44
0.0
 45
0.0
 46
0.0
 47
0.0
 48
0.0
 49
0.0
140
0.0
141
0.0
142
1.0
143
1.0
 70
   688
 72
     1
 73
     0
 74
     5
  7

 75
    16
147
1.0
148
0.0
149
0.0
100
AcDbLayout
  1
Layout2
 70
     1
 71
     2
 10
0.0
 20
0.0
 11
0.0
 21
0.0
 12
0.0
 22
0.0
 32
0.0
 14
0.0
 24
0.0
 34
0.0
 15
0.0
 25
0.0
 35
0.0
146
0.0
 13
0.0
 23
0.0
 33
0.0
 16
1.0
 26
0.0
 36
0.0
 17
0.0
 27
1.0
 37
0.0
 76
     0
330
23
  0
LAYOUT
  5
22
102
{ACAD_REACTORS
330
1A
102
}
330
1A
100
AcDbPlotSettings
  1

  2
none_device
  4
Letter_(8.50_x_11.00_Inches)
  6

 40
6.35
 41
6.35
 42
6.35000508
 43
6.35000508
 44
215.9
 45
279.4
 46
0.0
 47
0.0
 48
0.0
 49
0.0
140
0.0
141
0.0
142
1.0
143
1.0
 70
  1712
 72
     1
 73
     0
 74
     0
  7

 75
     0
147
1.0
148
0.0
149
0.0
100
AcDbLayout
  1
Model
 70
     1
 71
     0
 10
0.0
 20
0.0
 11
297.0
 21
210.0
 12
0.0
 22
0.0
 32
0.0
 14
0.0
 24
0.0
 34
0.0
 15
297.0
 25
210.0
 35
0.0
146
0.0
 13
0.0
 23
0.0
 33
0.0
 16
1.0
 26
0.0
 36
0.0
 17
0.0
 27
1.0
 37
0.0
 76
     0
330
1F
331
29
  0
MLINESTYLE
  5
18
102
{ACAD_REACTORS
330
17
102
}
330
17
100
AcDbMlineStyle
  2
Standard
 70
     0
  3

 62
   256
 51
90.0
 52
90.0
 71
     2
 49
0.5
 62
   256
  6
BYLAYER
 49
-0.5
 62
   256
  6
BYLAYER
  0
ACDBPLACEHOLDER
  5
F
102
{ACAD_REACTORS
330
E
102
}
330
E
  0
SCALE
  5
48
102
{ACAD_REACTORS
330
47
102
}
330
47
100
AcDbScale
 70
     0
300
1:1
140
1.0
141
1.0
290
     1
  0
SCALE
  5
49
102
{ACAD_REACTORS
330
47
102
}
330
47
100
AcDbScale
 70
     0
300
1:2
140
1.0
141
2.0
290
     0
  0
SCALE
  5
4A
102
{ACAD_REACTORS
330
47
102
}
330
47
100
AcDbScale
 70
     0
300
1:4
140
1.0
141
4.0
290
     0
  0
SCALE
  5
4B
102
{ACAD_REACTORS
330
47
102
}
330
47
100
AcDbScale
 70
     0
300
1:5
140
1.0
141
5.0
290
     0
  0
SCALE
  5
4C
102
{ACAD_REACTORS
330
47
102
}
330
47
100
AcDbScale
 70
     0
300
1:8
140
1.0
141
8.0
290
     0
  0
SCALE
  5
4D
102
{ACAD_REACTORS
330
47
102
}
330
47
100
AcDbScale
 70
     0
300
1:10
140
1.0
141
10.0
290
     0
  0
SCALE
  5
4E
102
{ACAD_REACTORS
330
47
102
}
330
47
100
AcDbScale
 70
     0
300
1:16
140
1.0
141
16.0
290
     0
  0
SCALE
  5
4F
102
{ACAD_REACTORS
330
47
102
}
330
47
100
AcDbScale
 70
     0
300
1:20
140
1.0
141
20.0
290
     0
  0
SCALE
  5
50
102
{ACAD_REACTORS
330
47
102
}
330
47
100
AcDbScale
 70
     0
300
1:30
140
1.0
141
30.0
290
     0
  0
SCALE
  5
51
102
{ACAD_REACTORS
330
47
102
}
330
47
100
AcDbScale
 70
     0
300
1:40
140
1.0
141
40.0
290
     0
  0
SCALE
  5
52
102
{ACAD_REACTORS
330
47
102
}
330
47
100
AcDbScale
 70
     0
300
1:50
140
1.0
141
50.0
290
     0
  0
SCALE
  5
53
102
{ACAD_REACTORS
330
47
102
}
330
47
100
AcDbScale
 70
     0
300
1:100
140
1.0
141
100.0
290
     0
  0
SCALE
  5
54
102
{ACAD_REACTORS
330
47
102
}
330
47
100
AcDbScale
 70
     0
300
2:1
140
2.0
141
1.0
290
     0
  0
SCALE
  5
55
102
{ACAD_REACTORS
330
47
102
}
330
47
100
AcDbScale
 70
     0
300
4:1
140
4.0
141
1.0
290
     0
  0
SCALE
  5
56
102
{ACAD_REACTORS
330
47
102
}
330
47
100
AcDbScale
 70
     0
300
8:1
140
8.0
141
1.0
290
     0
  0
SCALE
  5
57
102
{ACAD_REACTORS
330
47
102
}
330
47
100
AcDbScale
 70
     0
300
10:1
140
10.0
141
1.0
290
     0
  0
SCALE
  5
58
102
{ACAD_REACTORS
330
47
102
}
330
47
100
AcDbScale
 70
     0
300
100:1
140
100.0
141
1.0
290
     0
  0
SCALE
  5
59
102
{ACAD_REACTORS
330
47
102
}
330
47
100
AcDbScale
 70
     0
300
1/128" = 1'-0"
140
0.0078125
141
12.0
290
     0
  0
SCALE
  5
5A
102
{ACAD_REACTORS
330
47
102
}
330
47
100
AcDbScale
 70
     0
300
1/64" = 1'-0"
140
0.015625
141
12.0
290
     0
  0
SCALE
  5
5B
102
{ACAD_REACTORS
330
47
102
}
330
47
100
AcDbScale
 70
     0
300
1/32" = 1'-0"
140
0.03125
141
12.0
290
     0
  0
SCALE
  5
5C
102
{ACAD_REACTORS
330
47
102
}
330
47
100
AcDbScale
 70
     0
300
1/16" = 1'-0"
140
0.0625
141
12.0
290
     0
  0
SCALE
  5
5D
102
{ACAD_REACTORS
330
47
102
}
330
47
100
AcDbScale
 70
     0
300
3/32" = 1'-0"
140
0.09375
141
12.0
290
     0
  0
SCALE
  5
5E
102
{ACAD_REACTORS
330
47
102
}
330
47
100
AcDbScale
 70
     0
300
1/8" = 1'-0"
140
0.125
141
12.0
290
     0
  0
SCALE
  5
5F
102
{ACAD_REACTORS
330
47
102
}
330
47
100
AcDbScale
 70
     0
300
3/16" = 1'-0"
140
0.1875
141
12.0
290
     0
  0
SCALE
  5
60
102
{ACAD_REACTORS
330
47
102
}
330
47
100
AcDbScale
 70
     0
300
1/4" = 1'-0"
140
0.25
141
12.0
290
     0
  0
SCALE
  5
61
102
{ACAD_REACTORS
330
47
102
}
330
47
100
AcDbScale
 70
     0
300
3/8" = 1'-0"
140
0.375
141
12.0
290
     0
  0
SCALE
  5
62
102
{ACAD_REACTORS
330
47
102
}
330
47
100
AcDbScale
 70
     0
300
1/2" = 1'-0"
140
0.5
141
12.0
290
     0
  0
SCALE
  5
63
102
{ACAD_REACTORS
330
47
102
}
330
47
100
AcDbScale
 70
     0
300
3/4" = 1'-0"
140
0.75
141
12.0
290
     0
  0
SCALE
  5
64
102
{ACAD_REACTORS
330
47
102
}
330
47
100
AcDbScale
 70
     0
300
1" = 1'-0"
140
1.0
141
12.0
290
     0
  0
SCALE
  5
65
102
{ACAD_REACTORS
330
47
102
}
330
47
100
AcDbScale
 70
     0
300
1-1/2" = 1'-0"
140
1.5
141
12.0
290
     0
  0
SCALE
  5
66
102
{ACAD_REACTORS
330
47
102
}
330
47
100
AcDbScale
 70
     0
300
3" = 1'-0"
140
3.0
141
12.0
290
     0
  0
SCALE
  5
67
102
{ACAD_REACTORS
330
47
102
}
330
47
100
AcDbScale
 70
     0
300
6" = 1'-0"
140
6.0
141
12.0
290
     0
  0
SCALE
  5
68
102
{ACAD_REACTORS
330
47
102
}
330
47
100
AcDbScale
 70
     0
300
1'-0" = 1'-0"
140
12.0
141
12.0
290
     0
  0
ENDSEC
  0
EOF
