  0
SECTION
  2
HEADER
  9
$ACADVER
  1
AC1015
  9
$ACADMAINTVER
 70
     6
  9
$DWGCODEPAGE
  3
ANSI_1252
  9
$INSBASE
 10
0.0
 20
0.0
 30
0.0
  9
$EXTMIN
 10
0.0
 20
0.0
 30
0.0
  9
$EXTMAX
 10
297.0
 20
210.0
 30
0.0
  9
$LIMMIN
 10
0.0
 20
0.0
  9
$LIMMAX
 10
297.0
 20
210.0
  9
$ORTHOMODE
 70
     0
  9
$REGENMODE
 70
     1
  9
$FILLMODE
 70
     1
  9
$QTEXTMODE
 70
     0
  9
$MIRRTEXT
 70
     1
  9
$LTSCALE
 40
1.0
  9
$ATTMODE
 70
     1
  9
$TEXTSIZE
 40
2.0
  9
$TRACEWID
 40
1.0
  9
$TEXTSTYLE
  7
Standard
  9
$CLAYER
  8
0
  9
$CELTYPE
  6
ByLayer
  9
$CECOLOR
 62
   256
  9
$CELTSCALE
 40
1.0
  9
$DISPSILH
 70
     0
  9
$DIMSCALE
 40
1.0
  9
$DIMASZ
 40
3.0
  9
$DIMEXO
 40
0.0
  9
$DIMDLI
 40
3.75
  9
$DIMRND
 40
0.0
  9
$DIMDLE
 40
0.0
  9
$DIMEXE
 40
1.0
  9
$DIMTP
 40
0.0
  9
$DIMTM
 40
0.0
  9
$DIMTXT
 40
2.0
  9
$DIMCEN
 40
2.5
  9
$DIMTSZ
 40
0.0
  9
$DIMTOL
 70
     0
  9
$DIMLIM
 70
     0
  9
$DIMTIH
 70
     1
  9
$DIMTOH
 70
     1
  9
$DIMSE1
 70
     0
  9
$DIMSE2
 70
     0
  9
$DIMTAD
 70
     1
  9
$DIMZIN
 70
     0
  9
$DIMBLK
  1

  9
$DIMASO
 70
     1
  9
$DIMSHO
 70
     1
  9
$DIMPOST
  1

  9
$DIMAPOST
  1

  9
$DIMALT
 70
     0
  9
$DIMALTD
 70
     3
  9
$DIMALTF
 40
0.0393700787
  9
$DIMLFAC
 40
1.0
  9
$DIMTOFL
 70
     1
  9
$DIMTVP
 40
0.0
  9
$DIMTIX
 70
     0
  9
$DIMSOXD
 70
     0
  9
$DIMSAH
 70
     0
  9
$DIMBLK1
  1

  9
$DIMBLK2
  1

  9
$DIMSTYLE
  2
ISO-25
  9
$DIMCLRD
 70
     0
  9
$DIMCLRE
 70
     0
  9
$DIMCLRT
 70
     0
  9
$DIMTFAC
 40
1.0
  9
$DIMGAP
 40
1.524
  9
$DIMJUST
 70
     0
  9
$DIMSD1
 70
     0
  9
$DIMSD2
 70
     0
  9
$DIMTOLJ
 70
     0
  9
$DIMTZIN
 70
     0
  9
$DIMALTZ
 70
     0
  9
$DIMALTTZ
 70
     0
  9
$DIMUPT
 70
     0
  9
$DIMDEC
 70
     2
  9
$DIMTDEC
 70
     3
  9
$DIMALTU
 70
     2
  9
$DIMALTTD
 70
     3
  9
$DIMTXSTY
  7
Standard
  9
$DIMAUNIT
 70
     0
  9
$DIMADEC
 70
     2
  9
$DIMALTRND
 40
0.0
  9
$DIMAZIN
 70
     0
  9
$DIMDSEP
 70
    44
  9
$DIMATFIT
 70
     3
  9
$DIMFRAC
 70
     0
  9
$DIMLDRBLK
  1

  9
$DIMLUNIT
 70
     2
  9
$DIMLWD
 70
    -2
  9
$DIMLWE
 70
    -2
  9
$DIMTMOVE
 70
     0
  9
$LUNITS
 70
     2
  9
$LUPREC
 70
     2
  9
$SKETCHINC
 40
1.0
  9
$FILLETRAD
 40
10.0
  9
$AUNITS
 70
     0
  9
$AUPREC
 70
     2
  9
$MENU
  1
.
  9
$ELEVATION
 40
0.0
  9
$PELEVATION
 40
0.0
  9
$THICKNESS
 40
0.0
  9
$LIMCHECK
 70
     0
  9
$CHAMFERA
 40
0.0
  9
$CHAMFERB
 40
0.0
  9
$CHAMFERC
 40
0.0
  9
$CHAMFERD
 40
0.0
  9
$SKPOLY
 70
     0
  9
$TDCREATE
 40
2457672.413138727
  9
$TDUCREATE
 40
2457672.329805394
  9
$TDUPDATE
 40
2457672.41314
  9
$TDUUPDATE
 40
2457672.329806667
  9
$TDINDWG
 40
0.0000000116
  9
$TDUSRTIMER
 40
0.0000000116
  9
$USRTIMER
 70
     1
  9
$ANGBASE
 50
0.0
  9
$ANGDIR
 70
     0
  9
$PDMODE
 70
     0
  9
$PDSIZE
 40
-1.0
  9
$PLINEWID
 40
0.0
  9
$SPLFRAME
 70
     0
  9
$SPLINETYPE
 70
     6
  9
$SPLINESEGS
 70
     8
  9
$HANDSEED
  5
254
  9
$SURFTAB1
 70
     6
  9
$SURFTAB2
 70
     6
  9
$SURFTYPE
 70
     6
  9
$SURFU
 70
     6
  9
$SURFV
 70
     6
  9
$UCSBASE
  2

  9
$UCSNAME
  2

  9
$UCSORG
 10
0.0
 20
0.0
 30
0.0
  9
$UCSXDIR
 10
1.0
 20
0.0
 30
0.0
  9
$UCSYDIR
 10
0.0
 20
1.0
 30
0.0
  9
$UCSORTHOREF
  2

  9
$UCSORTHOVIEW
 70
     0
  9
$UCSORGTOP
 10
0.0
 20
0.0
 30
0.0
  9
$UCSORGBOTTOM
 10
0.0
 20
0.0
 30
0.0
  9
$UCSORGLEFT
 10
0.0
 20
0.0
 30
0.0
  9
$UCSORGRIGHT
 10
0.0
 20
0.0
 30
0.0
  9
$UCSORGFRONT
 10
0.0
 20
0.0
 30
0.0
  9
$UCSORGBACK
 10
0.0
 20
0.0
 30
0.0
  9
$PUCSBASE
  2

  9
$PUCSNAME
  2

  9
$PUCSORG
 10
0.0
 20
0.0
 30
0.0
  9
$PUCSXDIR
 10
1.0
 20
0.0
 30
0.0
  9
$PUCSYDIR
 10
0.0
 20
1.0
 30
0.0
  9
$PUCSORTHOREF
  2

  9
$PUCSORTHOVIEW
 70
     0
  9
$PUCSORGTOP
 10
0.0
 20
0.0
 30
0.0
  9
$PUCSORGBOTTOM
 10
0.0
 20
0.0
 30
0.0
  9
$PUCSORGLEFT
 10
0.0
 20
0.0
 30
0.0
  9
$PUCSORGRIGHT
 10
0.0
 20
0.0
 30
0.0
  9
$PUCSORGFRONT
 10
0.0
 20
0.0
 30
0.0
  9
$PUCSORGBACK
 10
0.0
 20
0.0
 30
0.0
  9
$USERI1
 70
     0
  9
$USERI2
 70
     0
  9
$USERI3
 70
     0
  9
$USERI4
 70
     0
  9
$USERI5
 70
     0
  9
$USERR1
 40
0.0
  9
$USERR2
 40
0.0
  9
$USERR3
 40
0.0
  9
$USERR4
 40
0.0
  9
$USERR5
 40
0.0
  9
$WORLDVIEW
 70
     1
  9
$SHADEDGE
 70
     3
  9
$SHADEDIF
 70
    70
  9
$TILEMODE
 70
     1
  9
$MAXACTVP
 70
    64
  9
$PINSBASE
 10
0.0
 20
0.0
 30
0.0
  9
$PLIMCHECK
 70
     0
  9
$PEXTMIN
 10
1.0000000000E+20
 20
1.0000000000E+20
 30
1.0000000000E+20
  9
$PEXTMAX
 10
-1.0000000000E+20
 20
-1.0000000000E+20
 30
-1.0000000000E+20
  9
$PLIMMIN
 10
0.0
 20
0.0
  9
$PLIMMAX
 10
420.0
 20
297.0
  9
$UNITMODE
 70
     0
  9
$VISRETAIN
 70
     1
  9
$PLINEGEN
 70
     0
  9
$PSLTSCALE
 70
     1
  9
$TREEDEPTH
 70
  3020
  9
$CMLSTYLE
  2
Standard
  9
$CMLJUST
 70
     0
  9
$CMLSCALE
 40
20.0
  9
$PROXYGRAPHICS
 70
     1
  9
$MEASUREMENT
 70
     1
  9
$CELWEIGHT
370
    -1
  9
$ENDCAPS
280
     0
  9
$JOINSTYLE
280
     0
  9
$LWDISPLAY
290
     1
  9
$INSUNITS
 70
     4
  9
$HYPERLINKBASE
  1

  9
$STYLESHEET
  1

  9
$XEDIT
290
     1
  9
$CEPSNTYPE
380
     0
  9
$PSTYLEMODE
290
     1
  9
$FINGERPRINTGUID
  2
{EF7840BE-F717-41C5-9697-8FFE74FB6812}
  9
$VERSIONGUID
  2
{FAEB1C32-E019-11D5-929B-00C0DF256EC4}
  9
$EXTNAMES
290
     1
  9
$PSVPSCALE
 40
0.0
  9
$OLESTARTUP
290
     0
  0
ENDSEC
  0
SECTION
  2
CLASSES
  0
CLASS
  1
ACDBDICTIONARYWDFLT
  2
AcDbDictionaryWithDefault
  3
ObjectDBX Classes
 90
        0
280
     0
281
     0
  0
CLASS
  1
VISUALSTYLE
  2
AcDbVisualStyle
  3
ObjectDBX Classes
 90
     4095
280
     0
281
     0
  0
CLASS
  1
MATERIAL
  2
AcDbMaterial
  3
ObjectDBX Classes
 90
     1153
280
     0
281
     0
  0
CLASS
  1
SCALE
  2
AcDbScale
  3
ObjectDBX Classes
 90
     1153
280
     0
281
     0
  0
CLASS
  1
TABLESTYLE
  2
AcDbTableStyle
  3
ObjectDBX Classes
 90
     4095
280
     0
281
     0
  0
CLASS
  1
MLEADERSTYLE
  2
AcDbMLeaderStyle
  3
ACDB_MLEADERSTYLE_CLASS
 90
     4095
280
     0
281
     0
  0
CLASS
  1
SUN
  2
AcDbSun
  3
SCENEOE
 90
     1153
280
     0
281
     0
  0
CLASS
  1
ACDBPLACEHOLDER
  2
AcDbPlaceHolder
  3
ObjectDBX Classes
 90
        0
280
     0
281
     0
  0
CLASS
  1
LAYOUT
  2
AcDbLayout
  3
ObjectDBX Classes
 90
        0
280
     0
281
     0
  0
ENDSEC
  0
SECTION
  2
TABLES
  0
TABLE
  2
VPORT
  5
8
330
0
100
AcDbSymbolTable
 70
     1
  0
VPORT
  5
29
330
8
100
AcDbSymbolTableRecord
100
AcDbViewportTableRecord
  2
*Active
 70
     0
 10
0.0
 20
0.0
 11
1.0
 21
1.0
 12
148.5
 22
105.0
 13
0.0
 23
0.0
 14
10.0
 24
10.0
 15
10.0
 25
10.0
 16
0.0
 26
0.0
 36
1.0
 17
0.0
 27
0.0
 37
0.0
 40
210.0
 41
1.4142857143
 42
50.0
 43
0.0
 44
0.0
 50
0.0
 51
0.0
 71
     0
 72
  2000
 73
     1
 74
     3
 75
     0
 76
     0
 77
     0
 78
     0
281
     0
 65
     1
110
0.0
120
0.0
130
0.0
111
1.0
121
0.0
131
0.0
112
0.0
122
1.0
132
0.0
 79
     0
146
0.0
  0
ENDTAB
  0
TABLE
  2
LTYPE
  5
5
330
0
100
AcDbSymbolTable
 70
     6
  0
LTYPE
  5
14
330
5
100
AcDbSymbolTableRecord
100
AcDbLinetypeTableRecord
  2
ByBlock
 70
     0
  3

 72
    65
 73
     0
 40
0.0
  0
LTYPE
  5
15
330
5
100
AcDbSymbolTableRecord
100
AcDbLinetypeTableRecord
  2
ByLayer
 70
     0
  3

 72
    65
 73
     0
 40
0.0
  0
LTYPE
  5
16
330
5
100
AcDbSymbolTableRecord
100
AcDbLinetypeTableRecord
  2
Continuous
 70
     0
  3
Solid line
 72
    65
 73
     0
 40
0.0
  0
LTYPE
  5
6E
330
5
100
AcDbSymbolTableRecord
100
AcDbLinetypeTableRecord
  2
HIDDEN
 70
     0
  3
Hidden __ __ __ __ __ __ __ __ __ __ __ __ __ __
 72
    65
 73
     2
 40
1.905
 49
1.27
 74
     0
 49
-0.635
 74
     0
  0
LTYPE
  5
6F
330
5
100
AcDbSymbolTableRecord
100
AcDbLinetypeTableRecord
  2
PHANTOM
 70
     0
  3
Phantom ______  __  __  ______  __  __  ______
 72
    65
 73
     6
 40
12.7
 49
6.35
 74
     0
 49
-1.27
 74
     0
 49
1.27
 74
     0
 49
-1.27
 74
     0
 49
1.27
 74
     0
 49
-1.27
 74
     0
  0
LTYPE
  5
70
330
5
100
AcDbSymbolTableRecord
100
AcDbLinetypeTableRecord
  2
CENTER
 70
     0
  3
Center ____ _ ____ _ ____ _ ____ _ ____ _ ____
 72
    65
 73
     4
 40
10.16
 49
6.35
 74
     0
 49
-1.27
 74
     0
 49
1.27
 74
     0
 49
-1.27
 74
     0
  0
LTYPE
  5
71
330
5
100
AcDbSymbolTableRecord
100
AcDbLinetypeTableRecord
  2
CENTERX2
 70
     0
  3
Center (2x) ________  __  ________  __  _____
 72
    65
 73
     4
 40
20.32
 49
12.7
 74
     0
 49
-2.54
 74
     0
 49
2.54
 74
     0
 49
-2.54
 74
     0
  0
LTYPE
  5
72
330
5
100
AcDbSymbolTableRecord
100
AcDbLinetypeTableRecord
  2
DOT2
 70
     0
  3
Dot (.5x) ........................................
 72
    65
 73
     2
 40
0.635
 49
0.0
 74
     0
 49
-0.635
 74
     0
  0
ENDTAB
  0
TABLE
  2
LAYER
  5
2
330
0
100
AcDbSymbolTable
 70
     5
  0
LAYER
  5
10
330
2
100
AcDbSymbolTableRecord
100
AcDbLayerTableRecord
  2
0
 70
     0
 62
     7
  6
Continuous
370
    -3
390
F
  0
LAYER
  5
73
330
2
100
AcDbSymbolTableRecord
100
AcDbLayerTableRecord
  2
FORMAT
 70
     0
 62
     7
  6
Continuous
370
    -3
390
F
  0
LAYER
  5
74
330
2
100
AcDbSymbolTableRecord
100
AcDbLayerTableRecord
  2
VERMASSUNG
 70
     0
 62
     7
  6
Continuous
370
    -3
390
F
  0
LAYER
  5
75
330
2
100
AcDbSymbolTableRecord
100
AcDbLayerTableRecord
  2
KOPF_DÜNN
 70
     0
 62
     7
  6
Continuous
370
    -3
390
F
  0
LAYER
  5
76
330
2
100
AcDbSymbolTableRecord
100
AcDbLayerTableRecord
  2
KOPF_DICK
 70
     0
 62
     7
  6
Continuous
370
    15
390
F
  0
ENDTAB
  0
TABLE
  2
STYLE
  5
3
330
0
100
AcDbSymbolTable
 70
     3
  0
STYLE
  5
11
330
3
100
AcDbSymbolTableRecord
100
AcDbTextStyleTableRecord
  2
Standard
 70
     0
 40
0.0
 41
1.0
 50
0.0
 71
     0
 42
2.0
  3
txt
  4

  0
STYLE
  5
77
330
3
100
AcDbSymbolTableRecord
100
AcDbTextStyleTableRecord
  2
SLDTEXTSTYLE0
 70
     0
 40
0.0
 41
0.7
 50
0.0
 71
     0
 42
2.0
  3
TXT
  4

  0
STYLE
  5
7B
330
3
100
AcDbSymbolTableRecord
100
AcDbTextStyleTableRecord
  2
SLDTEXTSTYLE1
 70
     0
 40
0.0
 41
0.6454545455
 50
0.0
 71
     0
 42
2.0
  3
TXT
  4

  0
ENDTAB
  0
TABLE
  2
VIEW
  5
6
330
0
100
AcDbSymbolTable
 70
     0
  0
ENDTAB
  0
TABLE
  2
UCS
  5
7
330
0
100
AcDbSymbolTable
 70
     0
  0
ENDTAB
  0
TABLE
  2
APPID
  5
9
330
0
100
AcDbSymbolTable
 70
     1
  0
APPID
  5
12
330
9
100
AcDbSymbolTableRecord
100
AcDbRegAppTableRecord
  2
ACAD
 70
     0
  0
ENDTAB
  0
TABLE
  2
DIMSTYLE
  5
A
330
0
100
AcDbSymbolTable
 70
     2
100
AcDbDimStyleTable
  0
DIMSTYLE
105
27
330
A
100
AcDbSymbolTableRecord
100
AcDbDimStyleTableRecord
  2
ISO-25
 70
     0
 41
2.5
 42
0.625
 43
3.75
 44
1.25
 73
     0
 74
     0
 77
     1
 78
     8
140
2.5
141
2.5
143
0.0393700787
147
0.625
171
     3
172
     1
178
     0
271
     2
272
     2
274
     3
278
    44
283
     0
284
     8
340
11
  0
DIMSTYLE
105
186
102
{ACAD_REACTORS
330
185
330
191
330
19D
330
1A9
330
1B3
330
1BF
102
}
330
A
100
AcDbSymbolTableRecord
100
AcDbDimStyleTableRecord
  2
SLDDIMSTYLE0
 70
     0
 41
3.0
 44
0.0
 45
0.000000001
 73
     0
 74
     0
 77
     1
 78
    12
 79
     3
140
2.0
147
0.5
173
     1
178
     0
271
     2
272
     3
276
     2
284
    12
340
77
  0
ENDTAB
  0
TABLE
  2
BLOCK_RECORD
  5
1
330
0
100
AcDbSymbolTable
 70
     7
  0
BLOCK_RECORD
  5
1F
330
1
100
AcDbSymbolTableRecord
100
AcDbBlockTableRecord
  2
*Model_Space
340
22
  0
BLOCK_RECORD
  5
1B
330
1
100
AcDbSymbolTableRecord
100
AcDbBlockTableRecord
  2
*Paper_Space
340
1E
  0
BLOCK_RECORD
  5
23
330
1
100
AcDbSymbolTableRecord
100
AcDbBlockTableRecord
  2
*Paper_Space0
340
26
  0
BLOCK_RECORD
  5
187
330
1
100
AcDbSymbolTableRecord
100
AcDbBlockTableRecord
  2
_D
340
0
  0
BLOCK_RECORD
  5
192
330
1
100
AcDbSymbolTableRecord
100
AcDbBlockTableRecord
  2
_D_1
340
0
  0
BLOCK_RECORD
  5
19E
330
1
100
AcDbSymbolTableRecord
100
AcDbBlockTableRecord
  2
_D_2
340
0
  0
BLOCK_RECORD
  5
1AA
330
1
100
AcDbSymbolTableRecord
100
AcDbBlockTableRecord
  2
_D_3
340
0
  0
BLOCK_RECORD
  5
1B4
330
1
100
AcDbSymbolTableRecord
100
AcDbBlockTableRecord
  2
_D_4
340
0
  0
BLOCK_RECORD
  5
1C0
330
1
100
AcDbSymbolTableRecord
100
AcDbBlockTableRecord
  2
_D_5
340
0
  0
ENDTAB
  0
ENDSEC
  0
SECTION
  2
BLOCKS
  0
BLOCK
  5
20
330
1F
100
AcDbEntity
  8
0
100
AcDbBlockBegin
  2
*Model_Space
 70
     0
 10
0.0
 20
0.0
 30
0.0
  3
*Model_Space
  1

  0
ENDBLK
  5
21
330
1F
100
AcDbEntity
  8
0
100
AcDbBlockEnd
  0
BLOCK
  5
1C
330
1B
100
AcDbEntity
 67
     1
  8
0
100
AcDbBlockBegin
  2
*Paper_Space
 70
     0
 10
0.0
 20
0.0
 30
0.0
  3
*Paper_Space
  1

  0
ENDBLK
  5
1D
330
1B
100
AcDbEntity
 67
     1
  8
0
100
AcDbBlockEnd
  0
BLOCK
  5
24
330
23
100
AcDbEntity
  8
0
100
AcDbBlockBegin
  2
*Paper_Space0
 70
     0
 10
0.0
 20
0.0
 30
0.0
  3
*Paper_Space0
  1

  0
ENDBLK
  5
25
330
23
100
AcDbEntity
  8
0
100
AcDbBlockEnd
  0
BLOCK
  5
188
330
187
100
AcDbEntity
  8
0
100
AcDbBlockBegin
  2
_D
 70
     0
 10
0.0
 20
0.0
 30
0.0
  3
_D
  1

  0
SOLID
  5
18A
330
187
100
AcDbEntity
  8
VERMASSUNG
100
AcDbTrace
 10
208.7284818115
 20
117.0367551408
 30
0.0
 11
208.2784818115
 21
114.0367551408
 31
0.0
 12
209.1784818115
 22
114.0367551408
 32
0.0
 13
209.1784818115
 23
114.0367551408
 33
0.0
  0
SOLID
  5
18B
330
187
100
AcDbEntity
  8
VERMASSUNG
100
AcDbTrace
 10
208.7284818115
 20
103.0367551408
 30
0.0
 11
209.1784818115
 21
106.0367551408
 31
0.0
 12
208.2784818115
 22
106.0367551408
 32
0.0
 13
208.2784818115
 23
106.0367551408
 33
0.0
  0
LINE
  5
18C
330
187
100
AcDbEntity
  8
VERMASSUNG
100
AcDbLine
 10
195.6688246372
 20
117.0367551408
 30
0.0
 11
209.7284818115
 21
117.0367551408
 31
0.0
  0
LINE
  5
18D
330
187
100
AcDbEntity
  8
VERMASSUNG
100
AcDbLine
 10
195.6688246372
 20
103.0367551408
 30
0.0
 11
209.7284818115
 21
103.0367551408
 31
0.0
  0
LINE
  5
18E
330
187
100
AcDbEntity
  8
VERMASSUNG
100
AcDbLine
 10
208.7284818115
 20
117.0367551408
 30
0.0
 11
208.7284818115
 21
103.0367551408
 31
0.0
  0
MTEXT
  5
18F
330
187
100
AcDbEntity
  8
VERMASSUNG
100
AcDbMText
 10
206.1503462738
 20
106.9329508154
 30
0.0
 40
2.0
 41
0.0
 71
     1
 72
     1
  1
%%c
  7
SLDTEXTSTYLE0
 11
-7.044195017643634E-15
 21
1.0
 31
0.0
 73
     1
 44
1.0
  0
MTEXT
  5
190
330
187
100
AcDbEntity
  8
VERMASSUNG
100
AcDbMText
 10
206.1503462156
 20
110.541923009
 30
0.0
 40
2.0
 41
0.0
 71
     1
 72
     1
  1
14
  7
SLDTEXTSTYLE0
 11
-7.044195017643634E-15
 21
1.0
 31
0.0
 73
     1
 44
1.0
  0
ENDBLK
  5
189
330
187
100
AcDbEntity
  8
0
100
AcDbBlockEnd
  0
BLOCK
  5
193
330
192
100
AcDbEntity
  8
0
100
AcDbBlockBegin
  2
_D_1
 70
     0
 10
0.0
 20
0.0
 30
0.0
  3
_D_1
  1

  0
SOLID
  5
195
330
192
100
AcDbEntity
  8
VERMASSUNG
100
AcDbTrace
 10
214.9284818115
 20
122.5367551408
 30
0.0
 11
214.4784818115
 21
119.5367551408
 31
0.0
 12
215.3784818115
 22
119.5367551408
 32
0.0
 13
215.3784818115
 23
119.5367551408
 33
0.0
  0
SOLID
  5
196
330
192
100
AcDbEntity
  8
VERMASSUNG
100
AcDbTrace
 10
214.9284818115
 20
97.5367551408
 30
0.0
 11
215.3784818115
 21
100.5367551408
 31
0.0
 12
214.4784818115
 22
100.5367551408
 32
0.0
 13
214.4784818115
 23
100.5367551408
 33
0.0
  0
LINE
  5
197
330
192
100
AcDbEntity
  8
VERMASSUNG
100
AcDbLine
 10
202.3688246372
 20
122.5367551408
 30
0.0
 11
215.9284818115
 21
122.5367551408
 31
0.0
  0
LINE
  5
198
330
192
100
AcDbEntity
  8
VERMASSUNG
100
AcDbLine
 10
202.3688246372
 20
97.5367551408
 30
0.0
 11
215.9284818115
 21
97.5367551408
 31
0.0
  0
LINE
  5
199
330
192
100
AcDbEntity
  8
VERMASSUNG
100
AcDbLine
 10
214.9284818115
 20
122.5367551408
 30
0.0
 11
214.9284818115
 21
97.5367551408
 31
0.0
  0
MTEXT
  5
19A
330
192
100
AcDbEntity
  8
VERMASSUNG
100
AcDbMText
 10
212.1503465553
 20
103.9328272314
 30
0.0
 40
2.0
 41
0.0
 71
     1
 72
     1
  1
ST2
  7
SLDTEXTSTYLE0
 11
-7.044195017643634E-15
 21
1.0
 31
0.0
 73
     1
 44
1.0
  0
MTEXT
  5
19B
330
192
100
AcDbEntity
  8
VERMASSUNG
100
AcDbMText
 10
212.3503465066
 20
109.7328271577
 30
0.0
 40
2.0
 41
0.0
 71
     1
 72
     1
  1
%%c
  7
SLDTEXTSTYLE0
 11
-7.044195017643634E-15
 21
1.0
 31
0.0
 73
     1
 44
1.0
  0
MTEXT
  5
19C
330
192
100
AcDbEntity
  8
VERMASSUNG
100
AcDbMText
 10
212.3503462156
 20
113.3413030296
 30
0.0
 40
2.0
 41
0.0
 71
     1
 72
     1
  1
25
  7
SLDTEXTSTYLE0
 11
-7.044195017643634E-15
 21
1.0
 31
0.0
 73
     1
 44
1.0
  0
ENDBLK
  5
194
330
192
100
AcDbEntity
  8
0
100
AcDbBlockEnd
  0
BLOCK
  5
19F
330
19E
100
AcDbEntity
  8
0
100
AcDbBlockBegin
  2
_D_2
 70
     0
 10
0.0
 20
0.0
 30
0.0
  3
_D_2
  1

  0
ARC
  5
1A1
330
19E
100
AcDbEntity
  8
VERMASSUNG
100
AcDbCircle
 10
196.0810640811
 20
147.0717130429
 30
0.0
 40
4.247059938537323
100
AcDbArc
 50
153.4349488229
 51
206.5650511771
  0
ARC
  5
1A2
330
19E
100
AcDbEntity
  8
VERMASSUNG
100
AcDbCircle
 10
194.0565851934
 20
147.0717130429
 30
0.0
 40
4.247059938537297
100
AcDbArc
 50
333.4349488229
 51
26.5650511771
  0
SOLID
  5
1A3
330
19E
100
AcDbEntity
  8
VERMASSUNG
100
AcDbTrace
 10
187.5688246372
 20
145.1723700975
 30
0.0
 11
190.5688246372
 21
144.7223700975
 31
0.0
 12
190.5688246372
 22
145.6223700975
 32
0.0
 13
190.5688246372
 23
145.6223700975
 33
0.0
  0
SOLID
  5
1A4
330
19E
100
AcDbEntity
  8
VERMASSUNG
100
AcDbTrace
 10
202.5688246372
 20
145.1723700975
 30
0.0
 11
199.5688246372
 21
145.6223700975
 31
0.0
 12
199.5688246372
 22
144.7223700975
 32
0.0
 13
199.5688246372
 23
144.7223700975
 33
0.0
  0
LINE
  5
1A5
330
19E
100
AcDbEntity
  8
VERMASSUNG
100
AcDbLine
 10
187.5688246372
 20
140.5367551408
 30
0.0
 11
187.5688246372
 21
146.1723700975
 31
0.0
  0
LINE
  5
1A6
330
19E
100
AcDbEntity
  8
VERMASSUNG
100
AcDbLine
 10
202.5688246372
 20
122.3367551408
 30
0.0
 11
202.5688246372
 21
146.1723700975
 31
0.0
  0
LINE
  5
1A7
330
19E
100
AcDbEntity
  8
VERMASSUNG
100
AcDbLine
 10
187.5688246372
 20
145.1723700975
 30
0.0
 11
202.5688246372
 21
145.1723700975
 31
0.0
  0
MTEXT
  5
1A8
330
19E
100
AcDbEntity
  8
VERMASSUNG
100
AcDbMText
 10
193.8698781903
 20
147.7505056934
 30
0.0
 40
2.0
 41
0.0
 71
     1
 72
     1
  1
15
  7
SLDTEXTSTYLE0
 73
     1
 44
1.0
  0
ENDBLK
  5
1A0
330
19E
100
AcDbEntity
  8
0
100
AcDbBlockEnd
  0
BLOCK
  5
1AB
330
1AA
100
AcDbEntity
  8
0
100
AcDbBlockBegin
  2
_D_3
 70
     0
 10
0.0
 20
0.0
 30
0.0
  3
_D_3
  1

  0
SOLID
  5
1AD
330
1AA
100
AcDbEntity
  8
VERMASSUNG
100
AcDbTrace
 10
160.5688246372
 20
151.1723700975
 30
0.0
 11
163.5688246372
 21
150.7223700975
 31
0.0
 12
163.5688246372
 22
151.6223700975
 32
0.0
 13
163.5688246372
 23
151.6223700975
 33
0.0
  0
SOLID
  5
1AE
330
1AA
100
AcDbEntity
  8
VERMASSUNG
100
AcDbTrace
 10
202.5688246372
 20
151.1723700975
 30
0.0
 11
199.5688246372
 21
151.6223700975
 31
0.0
 12
199.5688246372
 22
150.7223700975
 32
0.0
 13
199.5688246372
 23
150.7223700975
 33
0.0
  0
LINE
  5
1AF
330
1AA
100
AcDbEntity
  8
VERMASSUNG
100
AcDbLine
 10
160.5688246372
 20
132.2617551408
 30
0.0
 11
160.5688246372
 21
152.1723700975
 31
0.0
  0
LINE
  5
1B0
330
1AA
100
AcDbEntity
  8
VERMASSUNG
100
AcDbLine
 10
202.5688246372
 20
122.3367551408
 30
0.0
 11
202.5688246372
 21
152.1723700975
 31
0.0
  0
LINE
  5
1B1
330
1AA
100
AcDbEntity
  8
VERMASSUNG
100
AcDbLine
 10
160.5688246372
 20
151.1723700975
 30
0.0
 11
202.5688246372
 21
151.1723700975
 31
0.0
  0
MTEXT
  5
1B2
330
1AA
100
AcDbEntity
  8
VERMASSUNG
100
AcDbMText
 10
180.0698658319
 20
153.7505056934
 30
0.0
 40
2.0
 41
0.0
 71
     1
 72
     1
  1
42
  7
SLDTEXTSTYLE0
 73
     1
 44
1.0
  0
ENDBLK
  5
1AC
330
1AA
100
AcDbEntity
  8
0
100
AcDbBlockEnd
  0
BLOCK
  5
1B5
330
1B4
100
AcDbEntity
  8
0
100
AcDbBlockBegin
  2
_D_4
 70
     0
 10
0.0
 20
0.0
 30
0.0
  3
_D_4
  1

  0
ARC
  5
1B7
330
1B4
100
AcDbEntity
  8
VERMASSUNG
100
AcDbCircle
 10
148.0809899307
 20
159.0717130429
 30
0.0
 40
4.247059938537323
100
AcDbArc
 50
153.4349488229
 51
206.5650511771
  0
ARC
  5
1B8
330
1B4
100
AcDbEntity
  8
VERMASSUNG
100
AcDbCircle
 10
149.6566593437
 20
159.0717130429
 30
0.0
 40
4.247059938537297
100
AcDbArc
 50
333.4349488229
 51
26.5650511771
  0
SOLID
  5
1B9
330
1B4
100
AcDbEntity
  8
VERMASSUNG
100
AcDbTrace
 10
95.1688246372
 20
157.1723700975
 30
0.0
 11
98.1688246372
 21
156.7223700975
 31
0.0
 12
98.1688246372
 22
157.6223700975
 32
0.0
 13
98.1688246372
 23
157.6223700975
 33
0.0
  0
SOLID
  5
1BA
330
1B4
100
AcDbEntity
  8
VERMASSUNG
100
AcDbTrace
 10
202.5688246372
 20
157.1723700975
 30
0.0
 11
199.5688246372
 21
157.6223700975
 31
0.0
 12
199.5688246372
 22
156.7223700975
 32
0.0
 13
199.5688246372
 23
156.7223700975
 33
0.0
  0
LINE
  5
1BB
330
1B4
100
AcDbEntity
  8
VERMASSUNG
100
AcDbLine
 10
95.1688246372
 20
121.8595107378
 30
0.0
 11
95.1688246372
 21
158.1723700975
 31
0.0
  0
LINE
  5
1BC
330
1B4
100
AcDbEntity
  8
VERMASSUNG
100
AcDbLine
 10
202.5688246372
 20
122.3367551408
 30
0.0
 11
202.5688246372
 21
158.1723700975
 31
0.0
  0
LINE
  5
1BD
330
1B4
100
AcDbEntity
  8
VERMASSUNG
100
AcDbLine
 10
95.1688246372
 20
157.1723700975
 30
0.0
 11
202.5688246372
 21
157.1723700975
 31
0.0
  0
MTEXT
  5
1BE
330
1B4
100
AcDbEntity
  8
VERMASSUNG
100
AcDbMText
 10
145.8698040399
 20
159.7505056934
 30
0.0
 40
2.0
 41
0.0
 71
     1
 72
     1
  1
107.4
  7
SLDTEXTSTYLE0
 73
     1
 44
1.0
  0
ENDBLK
  5
1B6
330
1B4
100
AcDbEntity
  8
0
100
AcDbBlockEnd
  0
BLOCK
  5
1C1
330
1C0
100
AcDbEntity
  8
0
100
AcDbBlockBegin
  2
_D_5
 70
     0
 10
0.0
 20
0.0
 30
0.0
  3
_D_5
  1

  0
SOLID
  5
1C3
330
1C0
100
AcDbEntity
  8
VERMASSUNG
100
AcDbTrace
 10
89.2425869104
 20
141.5367551408
 30
0.0
 11
88.7925869104
 21
138.5367551408
 31
0.0
 12
89.6925869104
 22
138.5367551408
 32
0.0
 13
89.6925869104
 23
138.5367551408
 33
0.0
  0
SOLID
  5
1C4
330
1C0
100
AcDbEntity
  8
VERMASSUNG
100
AcDbTrace
 10
89.2425869104
 20
78.5367551408
 30
0.0
 11
89.6925869104
 21
81.5367551408
 31
0.0
 12
88.7925869104
 22
81.5367551408
 32
0.0
 13
88.7925869104
 23
81.5367551408
 33
0.0
  0
LINE
  5
1C5
330
1C0
100
AcDbEntity
  8
VERMASSUNG
100
AcDbLine
 10
184.5688204932
 20
141.5367551408
 30
0.0
 11
88.2425869104
 21
141.5367551408
 31
0.0
  0
LINE
  5
1C6
330
1C0
100
AcDbEntity
  8
VERMASSUNG
100
AcDbLine
 10
184.5688254033
 20
78.5367551408
 30
0.0
 11
88.2425869104
 21
78.5367551408
 31
0.0
  0
LINE
  5
1C7
330
1C0
100
AcDbEntity
  8
VERMASSUNG
100
AcDbLine
 10
89.2425869104
 20
141.5367551408
 30
0.0
 11
89.2425869104
 21
78.5367551408
 31
0.0
  0
MTEXT
  5
1C8
330
1C0
100
AcDbEntity
  8
VERMASSUNG
100
AcDbMText
 10
86.4644516542
 20
99.3322700739
 30
0.0
 40
2.0
 41
0.0
 71
     1
 72
     1
  1
MAS BT 40
  7
SLDTEXTSTYLE0
 11
-7.044195017643634E-15
 21
1.0
 31
0.0
 73
     1
 44
1.0
  0
MTEXT
  5
1C9
330
1C0
100
AcDbEntity
  8
VERMASSUNG
100
AcDbMText
 10
86.6644516055
 20
114.3322697386
 30
0.0
 40
2.0
 41
0.0
 71
     1
 72
     1
  1
%%c
  7
SLDTEXTSTYLE0
 11
-7.044195017643634E-15
 21
1.0
 31
0.0
 73
     1
 44
1.0
  0
MTEXT
  5
1CA
330
1C0
100
AcDbEntity
  8
VERMASSUNG
100
AcDbMText
 10
86.6644513144
 20
117.9418601872
 30
0.0
 40
2.0
 41
0.0
 71
     1
 72
     1
  1
63
  7
SLDTEXTSTYLE0
 11
-7.044195017643634E-15
 21
1.0
 31
0.0
 73
     1
 44
1.0
  0
ENDBLK
  5
1C2
330
1C0
100
AcDbEntity
  8
0
100
AcDbBlockEnd
  0
ENDSEC
  0
SECTION
  2
ENTITIES
  0
MTEXT
  5
78
330
1F
100
AcDbEntity
  8
KOPF_DÜNN
100
AcDbMText
 10
13.8892156294
 20
23.8442973028
 30
0.0
 40
3.0
 41
0.0
 71
     1
 72
     1
  1
134.640.025.042
  7
SLDTEXTSTYLE0
 73
     1
 44
1.0
  0
MTEXT
  5
79
330
1F
100
AcDbEntity
  8
VERMASSUNG
100
AcDbMText
 10
13.9329988022
 20
28.8834360957
 30
0.0
 40
3.0
 41
0.0
 71
     1
 72
     1
  1
Aufnahme_Master shank ST2
  7
SLDTEXTSTYLE0
 73
     1
 44
1.0
  0
MTEXT
  5
7A
330
1F
100
AcDbEntity
  8
VERMASSUNG
100
AcDbMText
 10
98.8601118557
 20
13.8365368761
 30
0.0
 40
2.0
 41
0.0
 71
     1
 72
     1
  1
Datum: 06.06.2008
  7
SLDTEXTSTYLE0
 73
     1
 44
1.0
  0
MTEXT
  5
7C
330
1F
100
AcDbEntity
  8
VERMASSUNG
100
AcDbMText
 10
13.933048693
 20
18.0482802738
 30
0.0
 40
2.0
 41
0.0
 71
     1
 72
     1
  1
MAS BT 40 B
  7
SLDTEXTSTYLE1
 73
     1
 44
1.0
  0
MTEXT
  5
7D
330
1F
100
AcDbEntity
  8
VERMASSUNG
100
AcDbMText
 10
13.9808475933
 20
13.9090974274
 30
0.0
 40
2.0
 41
0.0
 71
     1
 72
     1
  1
Gewicht: 1021g
  7
SLDTEXTSTYLE0
 73
     1
 44
1.0
  0
LINE
  5
7E
330
1F
100
AcDbEntity
  8
0
  6
Continuous
 62
     7
370
    15
100
AcDbLine
 10
184.5688270786
 20
78.5367551408
 30
0.0
 11
186.5688246372
 21
78.5367551408
 31
0.0
  0
LINE
  5
7F
330
1F
100
AcDbEntity
  8
0
  6
Continuous
 62
     7
370
    15
100
AcDbLine
 10
186.5688246372
 20
141.5367551408
 30
0.0
 11
184.5683244672
 21
141.5367551408
 31
0.0
  0
ARC
  5
80
330
1F
100
AcDbEntity
  8
0
  6
Continuous
 62
     7
370
    15
100
AcDbCircle
 10
186.5688246372
 20
79.5367551408
 30
0.0
 40
1.0
100
AcDbArc
 50
270.0
 51
0.0
  0
ARC
  5
81
330
1F
100
AcDbEntity
  8
0
  6
Continuous
 62
     7
370
    15
100
AcDbCircle
 10
186.5688246372
 20
140.5367551408
 30
0.0
 40
1.0
100
AcDbArc
 50
0.0
 51
90.0
  0
ARC
  5
82
330
1F
100
AcDbEntity
  8
0
  6
Continuous
 62
     7
370
    15
100
AcDbCircle
 10
161.5688246372
 20
86.8117551408
 30
0.0
 40
1.0
100
AcDbArc
 50
46.4345794674
 51
90.0
  0
ARC
  5
83
330
1F
100
AcDbEntity
  8
0
  6
Continuous
 62
     7
370
    15
100
AcDbCircle
 10
161.5688246372
 20
133.2617551408
 30
0.0
 40
1.000000000000007
100
AcDbArc
 50
270.0
 51
313.5376081075
  0
LINE
  5
84
330
1F
100
AcDbEntity
  8
0
  6
Continuous
 62
     7
370
    15
100
AcDbLine
 10
160.5688246372
 20
132.2617551408
 30
0.0
 11
96.0245177442
 21
122.8490437189
 31
0.0
  0
LINE
  5
85
330
1F
100
AcDbEntity
  8
0
  6
Continuous
 62
     7
370
    15
100
AcDbLine
 10
96.0245177442
 20
97.2244665627
 30
0.0
 11
160.5688246372
 21
87.8117551408
 31
0.0
  0
LINE
  5
86
330
1F
100
AcDbEntity
  8
0
  6
Continuous
 62
     7
370
    15
100
AcDbLine
 10
160.5688246372
 20
87.8117551408
 30
0.0
 11
161.5688246372
 21
87.8117551408
 31
0.0
  0
LINE
  5
87
330
1F
100
AcDbEntity
  8
0
  6
Continuous
 62
     7
370
    15
100
AcDbLine
 10
161.5688246372
 20
132.2617551408
 30
0.0
 11
160.5688246372
 21
132.2617551408
 31
0.0
  0
ARC
  5
88
330
1F
100
AcDbEntity
  8
0
  6
Continuous
 62
     7
370
    15
100
AcDbCircle
 10
191.5688246372
 20
93.5367551408
 30
0.0
 40
4.0
100
AcDbArc
 50
90.0
 51
180.0
  0
ARC
  5
89
330
1F
100
AcDbEntity
  8
0
  6
Continuous
 62
     7
370
    15
100
AcDbCircle
 10
191.5688246372
 20
126.5367551408
 30
0.0
 40
4.000000000000014
100
AcDbArc
 50
180.0
 51
270.0
  0
ARC
  5
8A
330
1F
100
AcDbEntity
  8
0
  6
Continuous
 62
     7
370
    15
100
AcDbCircle
 10
96.1688246372
 20
98.2139995438
 30
0.0
 40
1.0
100
AcDbArc
 50
180.0
 51
261.7028550302
  0
ARC
  5
8B
330
1F
100
AcDbEntity
  8
0
  6
Continuous
 62
     7
370
    15
100
AcDbCircle
 10
96.1688246372
 20
121.8595107378
 30
0.0
 40
1.00000000000001
100
AcDbArc
 50
98.2971449698
 51
180.0
  0
LINE
  5
8C
330
1F
100
AcDbEntity
  8
0
  6
Continuous
 62
     7
370
    15
100
AcDbLine
 10
202.3688246372
 20
122.5367551408
 30
0.0
 11
191.5688246372
 21
122.5367551408
 31
0.0
  0
LINE
  5
8D
330
1F
100
AcDbEntity
  8
0
  6
Continuous
 62
     7
370
    15
100
AcDbLine
 10
191.5688246372
 20
97.5367551408
 30
0.0
 11
202.3688246372
 21
97.5367551408
 31
0.0
  0
LINE
  5
8E
330
1F
100
AcDbEntity
  8
0
  6
Continuous
 62
     7
370
    15
100
AcDbLine
 10
202.3688246372
 20
97.5367551408
 30
0.0
 11
202.5688246372
 21
97.7367551408
 31
0.0
  0
LINE
  5
8F
330
1F
100
AcDbEntity
  8
0
  6
Continuous
 62
     7
370
    15
100
AcDbLine
 10
202.5688246372
 20
122.3367551408
 30
0.0
 11
202.3688246372
 21
122.5367551408
 31
0.0
  0
SPLINE
  5
90
330
1F
100
AcDbEntity
  8
0
  6
Continuous
 62
     7
370
    15
100
AcDbSpline
210
0.0
220
0.0
230
1.0
 70
    24
 71
     3
 72
    11
 73
     7
 74
     0
 42
0.000000001
 43
0.00000001
 40
0.0
 40
0.0
 40
0.0
 40
0.0
 40
0.1285561766306795
 40
0.4801535797842798
 40
0.8150691831754941
 40
1.0
 40
1.0
 40
1.0
 40
1.0
 10
197.0558021355514
 20
111.0407526514296
 30
0.0
 10
197.0699378835843
 20
110.9843686081414
 30
0.0
 10
197.1227344912524
 20
110.7737758467738
 30
0.0
 10
197.221739955456
 20
110.3788672528698
 30
0.0
 10
197.3289419890664
 20
109.9512645473306
 30
0.0
 10
197.3863709023552
 20
109.7221946512518
 30
0.0
 10
197.4068007359192
 20
109.6407050394273
 30
0.0
  0
SPLINE
  5
91
330
1F
100
AcDbEntity
  8
0
  6
Continuous
 62
     7
370
    15
100
AcDbSpline
210
0.0
220
0.0
230
1.0
 70
    24
 71
     3
 72
    10
 73
     6
 74
     0
 42
0.000000001
 43
0.00000001
 40
0.0
 40
0.0
 40
0.0
 40
0.0
 40
0.4391119879276799
 40
0.7513633230734706
 40
1.0
 40
1.0
 40
1.0
 40
1.0
 10
195.6678260368659
 20
111.4368027528195
 30
0.0
 10
195.8665232784685
 20
111.380105765921
 30
0.0
 10
196.2065135858174
 20
111.2830917065113
 30
0.0
 10
196.7007528024559
 20
111.1420637075091
 30
0.0
 10
196.9467526062097
 20
111.0718692370777
 30
0.0
 10
197.0558021355514
 20
111.0407526514296
 30
0.0
  0
SPLINE
  5
92
330
1F
100
AcDbEntity
  8
0
  6
Continuous
 62
     7
370
    15
100
AcDbSpline
210
0.0
220
0.0
230
1.0
 70
    24
 71
     3
 72
    10
 73
     6
 74
     0
 42
0.000000001
 43
0.00000001
 40
0.0
 40
0.0
 40
0.0
 40
0.0
 40
0.4391119879276867
 40
0.7513633230734746
 40
1.0
 40
1.0
 40
1.0
 40
1.0
 10
194.6308485385481
 20
110.4328052422071
 30
0.0
 10
194.7792981903215
 20
110.5765336076476
 30
0.0
 10
195.033309983969
 20
110.8224668211474
 30
0.0
 10
195.4025634220691
 20
111.1799765388018
 30
0.0
 10
195.5863535185447
 20
111.3579213829629
 30
0.0
 10
195.6678260368659
 20
111.4368027528195
 30
0.0
  0
SPLINE
  5
93
330
1F
100
AcDbEntity
  8
0
  6
Continuous
 62
     7
370
    15
100
AcDbSpline
210
0.0
220
0.0
230
1.0
 70
    24
 71
     3
 72
    11
 73
     7
 74
     0
 42
0.000000001
 43
0.00000001
 40
0.0
 40
0.0
 40
0.0
 40
0.0
 40
0.1849308168245034
 40
0.5198464202157098
 40
0.8714438233693199
 40
1.0
 40
1.0
 40
1.0
 40
1.0
 10
194.9818471389158
 20
109.0327576302049
 30
0.0
 10
194.9614173053518
 20
109.1142472420294
 30
0.0
 10
194.9039883920629
 20
109.343317138108
 30
0.0
 10
194.7967863584528
 20
109.7709198436473
 30
0.0
 10
194.697780894249
 20
110.1658284375513
 30
0.0
 10
194.6449842865809
 20
110.3764211989189
 30
0.0
 10
194.6308485385481
 20
110.4328052422071
 30
0.0
  0
SPLINE
  5
94
330
1F
100
AcDbEntity
  8
0
  6
Continuous
 62
     7
370
    15
100
AcDbSpline
210
0.0
220
0.0
230
1.0
 70
    24
 71
     3
 72
    10
 73
     6
 74
     0
 42
0.000000001
 43
0.00000001
 40
0.0
 40
0.0
 40
0.0
 40
0.0
 40
0.4391119879276886
 40
0.7513633230734791
 40
1.0
 40
1.0
 40
1.0
 40
1.0
 10
197.4068007359192
 20
109.6407050394273
 30
0.0
 10
197.2583510841457
 20
109.4969766739868
 30
0.0
 10
197.0043392904983
 20
109.2510434604871
 30
0.0
 10
196.6350858523981
 20
108.8935337428327
 30
0.0
 10
196.4512957559226
 20
108.7155888986716
 30
0.0
 10
196.3698232376014
 20
108.636707528815
 30
0.0
  0
CIRCLE
  5
95
330
1F
100
AcDbEntity
  8
0
  6
Continuous
 62
     7
370
    15
100
AcDbCircle
 10
196.0188246372
 20
110.0367551408
 30
0.0
 40
1.499999999999992
  0
SPLINE
  5
96
330
1F
100
AcDbEntity
  8
0
  6
Continuous
 62
     7
370
    15
100
AcDbSpline
210
0.0
220
0.0
230
1.0
 70
    24
 71
     3
 72
    10
 73
     6
 74
     0
 42
0.000000001
 43
0.00000001
 40
0.0
 40
0.0
 40
0.0
 40
0.0
 40
0.439111987927703
 40
0.7513633230734876
 40
1.0
 40
1.0
 40
1.0
 40
1.0
 10
196.3698232376014
 20
108.636707528815
 30
0.0
 10
196.1711259959987
 20
108.6934045157135
 30
0.0
 10
195.8311356886499
 20
108.7904185751231
 30
0.0
 10
195.3368964720113
 20
108.9314465741254
 30
0.0
 10
195.0908966682576
 20
109.0016410445567
 30
0.0
 10
194.9818471389158
 20
109.0327576302049
 30
0.0
  0
CIRCLE
  5
97
330
1F
100
AcDbEntity
  8
0
  6
Continuous
 62
     7
370
    15
100
AcDbCircle
 10
196.0188246372
 20
110.0367551408
 30
0.0
 40
2.250000000000001
  0
CIRCLE
  5
98
330
1F
100
AcDbEntity
  8
0
  6
Continuous
 62
     7
370
    15
100
AcDbCircle
 10
196.0188246372
 20
110.0367551408
 30
0.0
 40
2.500000000000004
  0
ARC
  5
99
330
1F
100
AcDbEntity
  8
0
  6
Continuous
 62
     7
370
    15
100
AcDbCircle
 10
196.0188246372
 20
110.0367551408
 30
0.0
 40
1.250000000000007
100
AcDbArc
 50
254.0742416468
 51
314.0742416468
  0
ARC
  5
9A
330
1F
100
AcDbEntity
  8
0
  6
Continuous
 62
     7
370
    15
100
AcDbCircle
 10
196.0188246372
 20
110.0367551408
 30
0.0
 40
1.250000000000005
100
AcDbArc
 50
74.0742416468
 51
134.0742416468
  0
ARC
  5
9B
330
1F
100
AcDbEntity
  8
0
  6
Continuous
 62
     7
370
    15
100
AcDbCircle
 10
196.0188246372
 20
110.0367551408
 30
0.0
 40
1.249999999999986
100
AcDbArc
 50
14.0742416468
 51
74.0742416468
  0
ARC
  5
9C
330
1F
100
AcDbEntity
  8
0
  6
Continuous
 62
     7
370
    15
100
AcDbCircle
 10
196.0188246372
 20
110.0367551408
 30
0.0
 40
1.249999999999996
100
AcDbArc
 50
314.0742416468
 51
14.0742416468
  0
ARC
  5
9D
330
1F
100
AcDbEntity
  8
0
  6
Continuous
 62
     7
370
    15
100
AcDbCircle
 10
196.0188246372
 20
110.0367551408
 30
0.0
 40
1.250000000000047
100
AcDbArc
 50
134.0742416468
 51
194.0742416468
  0
ARC
  5
9E
330
1F
100
AcDbEntity
  8
0
  6
Continuous
 62
     7
370
    15
100
AcDbCircle
 10
196.0188246372
 20
110.0367551408
 30
0.0
 40
1.250000000000047
100
AcDbArc
 50
194.0742416468
 51
254.0742416468
  0
SPLINE
  5
9F
330
1F
100
AcDbEntity
  8
0
  6
Continuous
 62
     7
370
    15
100
AcDbSpline
210
0.0
220
0.0
230
1.0
 70
     8
 71
     3
 72
    11
 73
     7
 74
     0
 42
0.000000001
 43
0.00000001
 40
0.0
 40
0.0
 40
0.0
 40
0.0
 40
0.2488814606695658
 40
0.5011921284368381
 40
0.7520447562540515
 40
1.0
 40
1.0
 40
1.0
 40
1.0
 10
184.5683244672165
 20
141.5366053954108
 30
0.0
 10
184.5385461377171
 20
141.5274733692665
 30
0.0
 10
184.478579178736
 20
141.5090834915797
 30
0.0
 10
183.9866571169892
 20
141.3650462430946
 30
0.0
 10
183.2585876943699
 20
141.1556431649834
 30
0.0
 10
182.5478442231922
 20
140.9834388956344
 30
0.0
 10
182.1945367060425
 20
140.8978368953158
 30
0.0
  0
SPLINE
  5
A0
330
1F
100
AcDbEntity
  8
0
  6
Continuous
 62
     7
370
    15
100
AcDbSpline
210
0.0
220
0.0
230
1.0
 70
     8
 71
     3
 72
    24
 73
    20
 74
     0
 42
0.000000001
 43
0.00000001
 40
0.0
 40
0.0
 40
0.0
 40
0.0
 40
0.0452114671023834
 40
0.090297583172113
 40
0.1353065475381242
 40
0.180286807527363
 40
0.2252869031540456
 40
0.2703553103185765
 40
0.3155402850378377
 40
0.3608897111899876
 40
0.4064509541270623
 40
0.4522707222957853
 40
0.4983949387249645
 40
0.5831092862634725
 40
0.6669820720809938
 40
0.7503070032562216
 40
0.8333835976755697
 40
0.9165140575167225
 40
1.0
 40
1.0
 40
1.0
 40
1.0
 10
182.1944433306513
 20
79.17565712128176
 30
0.0
 10
182.262147072554
 20
79.15989808026426
 30
0.0
 10
182.3973668443805
 20
79.12842369095131
 30
0.0
 10
182.5900285612184
 20
79.08196288761255
 30
0.0
 10
182.7747654328671
 20
79.03633190798051
 30
0.0
 10
182.9508833741584
 20
78.99170661054728
 30
0.0
 10
183.1185671667701
 20
78.94821932394835
 30
0.0
 10
183.2777666510622
 20
78.90601827615018
 30
0.0
 10
183.4284947895438
 20
78.86525168383803
 30
0.0
 10
183.5707477429858
 20
78.82607193122942
 30
0.0
 10
183.7045264980626
 20
78.78863463942776
 30
0.0
 10
183.8298304090265
 20
78.75309805545058
 30
0.0
 10
183.9789382271589
 20
78.7103790606002
 30
0.0
 10
184.1397972488075
 20
78.66384305848135
 30
0.0
 10
184.2958109114527
 20
78.61815679604337
 30
0.0
 10
184.4174660143372
 20
78.58211671856586
 30
0.0
 10
184.5039129871988
 20
78.55624304084971
 30
0.0
 10
184.5582491803137
 20
78.53983148052745
 30
0.0
 10
184.5652944908309
 20
78.53778204925227
 30
0.0
 10
184.568824661813
 20
78.5367551473436
 30
0.0
  0
LINE
  5
A1
330
1F
100
AcDbEntity
  8
0
  6
Continuous
 62
     7
370
    15
100
AcDbLine
 10
182.1938246372
 20
79.1756571213
 30
0.0
 11
182.1938246372
 21
140.8978368953
 31
0.0
  0
SPLINE
  5
A2
330
1F
100
AcDbEntity
  8
0
  6
Continuous
 62
     7
370
    15
100
AcDbSpline
210
0.0
220
0.0
230
1.0
 70
     8
 71
     3
 72
    10
 73
     6
 74
     0
 42
0.000000001
 43
0.00000001
 40
0.0
 40
0.0
 40
0.0
 40
0.0
 40
0.5
 40
0.5
 40
1.0
 40
1.0
 40
1.0
 40
1.0
 10
181.5454330412791
 20
139.9412158621714
 30
0.0
 10
181.2293292101397
 20
139.3213533038942
 30
0.0
 10
180.8995501657949
 20
138.6754525685954
 30
0.0
 10
180.2273268934061
 20
137.3610339282948
 30
0.0
 10
179.8851937274755
 20
136.6931117012826
 30
0.0
 10
179.5380133989613
 20
136.0167739688011
 30
0.0
  0
SPLINE
  5
A3
330
1F
100
AcDbEntity
  8
0
  6
Continuous
 62
     7
370
    15
100
AcDbSpline
210
0.0
220
0.0
230
1.0
 70
     8
 71
     3
 72
     9
 73
     5
 74
     0
 42
0.000000001
 43
0.00000001
 40
0.0
 40
0.0
 40
0.0
 40
0.0
 40
0.5067595796178751
 40
1.0
 40
1.0
 40
1.0
 40
1.0
 10
182.1944551802182
 20
140.8988902481662
 30
0.0
 10
182.0840548324362
 20
140.7368153098319
 30
0.0
 10
181.8661993596984
 20
140.4169892130928
 30
0.0
 10
181.6516062574899
 20
140.0986412334556
 30
0.0
 10
181.5457602655455
 20
139.9416191421515
 30
0.0
  0
SPLINE
  5
A4
330
1F
100
AcDbEntity
  8
0
  6
Continuous
 62
     7
370
    15
100
AcDbSpline
210
0.0
220
0.0
230
1.0
 70
     8
 71
     3
 72
     9
 73
     5
 74
     0
 42
0.000000001
 43
0.00000001
 40
0.0
 40
0.0
 40
0.0
 40
0.0
 40
0.4932426502230348
 40
1.0
 40
1.0
 40
1.0
 40
1.0
 10
181.5457463505226
 20
80.13188903911247
 30
0.0
 10
181.6515924555338
 20
79.97486579945229
 30
0.0
 10
181.8661848168459
 20
79.65651693081905
 30
0.0
 10
182.084039104806
 20
79.33669088411553
 30
0.0
 10
182.1944383664103
 20
79.17461668429841
 30
0.0
  0
SPLINE
  5
A5
330
1F
100
AcDbEntity
  8
0
  6
Continuous
 62
     7
370
    15
100
AcDbSpline
210
0.0
220
0.0
230
1.0
 70
     8
 71
     3
 72
    10
 73
     6
 74
     0
 42
0.000000001
 43
0.00000001
 40
0.0
 40
0.0
 40
0.0
 40
0.0
 40
0.5
 40
0.5
 40
1.0
 40
1.0
 40
1.0
 40
1.0
 10
181.5454271216113
 20
80.1323060276122
 30
0.0
 10
181.2292480189372
 20
80.75231617962594
 30
0.0
 10
180.8988057917702
 20
81.39951424549363
 30
0.0
 10
180.2270942710875
 20
82.71293017008739
 30
0.0
 10
179.8851203960555
 20
83.3805414363902
 30
0.0
 10
179.5380133989613
 20
84.05673631283337
 30
0.0
  0
LINE
  5
A6
330
1F
100
AcDbEntity
  8
0
  6
Continuous
 62
     7
370
    15
100
AcDbLine
 10
162.5688246372
 20
80.9103495953
 30
0.0
 11
162.5688246372
 21
139.1631606863
 31
0.0
  0
SPLINE
  5
A7
330
1F
100
AcDbEntity
  8
0
  6
Continuous
 62
     7
370
    15
100
AcDbSpline
210
0.0
220
0.0
230
1.0
 70
     8
 71
     3
 72
    12
 73
     8
 74
     0
 42
0.000000001
 43
0.00000001
 40
0.0
 40
0.0
 40
0.0
 40
0.0
 40
0.2500000000000001
 40
0.2500000000000001
 40
0.5000000000000002
 40
0.5000000000000002
 40
1.0
 40
1.0
 40
1.0
 40
1.0
 10
162.9558574601992
 20
140.1037450406382
 30
0.0
 10
162.9039967090111
 20
140.0469324683238
 30
0.0
 10
162.8552649119922
 20
139.984940282072
 30
0.0
 10
162.7650919020747
 20
139.848887208948
 30
0.0
 10
162.7233146537897
 20
139.7739811063493
 30
0.0
 10
162.6172257839438
 20
139.5358544710519
 30
0.0
 10
162.5688246372336
 20
139.3524477394831
 30
0.0
 10
162.5688246372336
 20
139.1631606863012
 30
0.0
  0
SPLINE
  5
A8
330
1F
100
AcDbEntity
  8
0
  6
Continuous
 62
     7
370
    15
100
AcDbSpline
210
0.0
220
0.0
230
1.0
 70
     8
 71
     3
 72
     8
 73
     4
 74
     0
 42
0.000000001
 43
0.00000001
 40
0.0
 40
0.0
 40
0.0
 40
0.0
 40
1.0
 40
1.0
 40
1.0
 40
1.0
 10
163.5688246372336
 20
140.2731452438191
 30
0.0
 10
163.3424803236338
 20
140.2731452438191
 30
0.0
 10
163.1250282032286
 20
140.2097767747982
 30
0.0
 10
162.9558574601992
 20
140.1037450406382
 30
0.0
  0
SPLINE
  5
A9
330
1F
100
AcDbEntity
  8
0
  6
Continuous
 62
     7
370
    15
100
AcDbSpline
210
0.0
220
0.0
230
1.0
 70
     8
 71
     3
 72
     8
 73
     4
 74
     0
 42
0.000000001
 43
0.00000001
 40
0.0
 40
0.0
 40
0.0
 40
0.0
 40
1.0
 40
1.0
 40
1.0
 40
1.0
 10
162.9558574601992
 20
79.96976524099627
 30
0.0
 10
163.1254509658511
 20
79.86346853043908
 30
0.0
 10
163.3418196581843
 20
79.80036503781538
 30
0.0
 10
163.5688246372336
 20
79.80036503781538
 30
0.0
  0
SPLINE
  5
AA
330
1F
100
AcDbEntity
  8
0
  6
Continuous
 62
     7
370
    15
100
AcDbSpline
210
0.0
220
0.0
230
1.0
 70
     8
 71
     3
 72
    12
 73
     8
 74
     0
 42
0.000000001
 43
0.00000001
 40
0.0
 40
0.0
 40
0.0
 40
0.0
 40
0.2499999999999976
 40
0.2499999999999976
 40
0.4999999999999952
 40
0.4999999999999952
 40
1.0
 40
1.0
 40
1.0
 40
1.0
 10
162.9558574601992
 20
79.96976524099627
 30
0.0
 10
162.9039967090111
 20
80.02657781331064
 30
0.0
 10
162.8552649119922
 20
80.08856999956245
 30
0.0
 10
162.7650919020747
 20
80.22462307268647
 30
0.0
 10
162.7233146537897
 20
80.2995291752852
 30
0.0
 10
162.6172257839438
 20
80.5376558105826
 30
0.0
 10
162.5688246372336
 20
80.72106254215137
 30
0.0
 10
162.5688246372336
 20
80.91034959533324
 30
0.0
  0
LINE
  5
AB
330
1F
100
AcDbEntity
  8
0
  6
Continuous
 62
     7
370
    15
100
AcDbLine
 10
187.5688246372
 20
79.5367551408
 30
0.0
 11
187.5688246372
 21
140.5367551348
 31
0.0
  0
LINE
  5
AC
330
1F
100
AcDbEntity
  8
0
  6
Continuous
 62
     7
370
    15
100
AcDbLine
 10
172.1438246372
 20
140.2731452438
 30
0.0
 11
163.5688246372
 21
140.2731452438
 31
0.0
  0
LINE
  5
AD
330
1F
100
AcDbEntity
  8
0
  6
Continuous
 62
     7
370
    15
100
AcDbLine
 10
172.1438246372
 20
79.8003650378
 30
0.0
 11
172.1438246372
 21
140.2731452438
 31
0.0
  0
LINE
  5
AE
330
1F
100
AcDbEntity
  8
0
  6
Continuous
 62
     7
370
    15
100
AcDbLine
 10
163.5688246372
 20
79.8003650378
 30
0.0
 11
172.1438246372
 21
79.8003650378
 31
0.0
  0
SPLINE
  5
AF
330
1F
100
AcDbEntity
  8
0
  6
Continuous
 62
     7
370
    15
100
AcDbSpline
210
0.0
220
0.0
230
1.0
 70
     8
 71
     3
 72
     8
 73
     4
 74
     0
 42
0.000000001
 43
0.00000001
 40
0.0
 40
0.0
 40
0.0
 40
0.0
 40
0.0012389803509652
 40
0.0012389803509652
 40
0.0012389803509652
 40
0.0012389803509652
 10
172.7013861807674
 20
139.4907778636037
 30
0.0
 10
172.5162662076345
 20
139.7518278449827
 30
0.0
 10
172.3303877598756
 20
140.0126094581017
 30
0.0
 10
172.1438246372336
 20
140.2731452438191
 30
0.0
  0
SPLINE
  5
B0
330
1F
100
AcDbEntity
  8
0
  6
Continuous
 62
     7
370
    15
100
AcDbSpline
210
0.0
220
0.0
230
1.0
 70
     8
 71
     3
 72
     8
 73
     4
 74
     0
 42
0.000000001
 43
0.00000001
 40
0.0
 40
0.0
 40
0.0
 40
0.0
 40
1.0
 40
1.0
 40
1.0
 40
1.0
 10
174.7996358755059
 20
135.7040008052822
 30
0.0
 10
174.1033425094643
 20
136.9679391733971
 30
0.0
 10
173.4035473442733
 20
138.2299946189053
 30
0.0
 10
172.7013861807674
 20
139.4907778636037
 30
0.0
  0
SPLINE
  5
B1
330
1F
100
AcDbEntity
  8
0
  6
Continuous
 62
     7
370
    15
100
AcDbSpline
210
0.0
220
0.0
230
1.0
 70
     8
 71
     3
 72
     8
 73
     4
 74
     0
 42
0.000000001
 43
0.00000001
 40
0.0
 40
0.0
 40
0.0
 40
0.0
 40
1.0
 40
1.0
 40
1.0
 40
1.0
 10
174.7996358755059
 20
84.36950947635218
 30
0.0
 10
174.1033177348479
 20
83.10552613640539
 30
0.0
 10
173.4035205427375
 20
81.84346753855341
 30
0.0
 10
172.7013861807674
 20
80.58273241803072
 30
0.0
  0
SPLINE
  5
B2
330
1F
100
AcDbEntity
  8
0
  6
Continuous
 62
     7
370
    15
100
AcDbSpline
210
0.0
220
0.0
230
1.0
 70
     8
 71
     3
 72
     8
 73
     4
 74
     0
 42
0.000000001
 43
0.00000001
 40
0.0
 40
0.0
 40
0.0
 40
0.0
 40
0.0012389803509652
 40
0.0012389803509652
 40
0.0012389803509652
 40
0.0012389803509652
 10
172.1438246372336
 20
79.80036503781538
 30
0.0
 10
172.3303877598756
 20
80.06090082353273
 30
0.0
 10
172.5162662076345
 20
80.32168243665171
 30
0.0
 10
172.7013861807674
 20
80.58273241803072
 30
0.0
  0
SPLINE
  5
B3
330
1F
100
AcDbEntity
  8
0
  6
Continuous
 62
     7
370
    15
100
AcDbSpline
210
0.0
220
0.0
230
1.0
 70
     8
 71
     3
 72
    10
 73
     6
 74
     0
 42
0.000000001
 43
0.00000001
 40
0.0
 40
0.0
 40
0.0
 40
0.0
 40
0.5
 40
0.5
 40
1.0
 40
1.0
 40
1.0
 40
1.0
 10
175.4924561985334
 20
135.2844778103968
 30
0.0
 10
175.3504388860865
 20
135.2844778103968
 30
0.0
 10
175.2099918392242
 20
135.3249676626063
 30
0.0
 10
174.9684019199629
 20
135.4729034925454
 30
0.0
 10
174.8677244777096
 20
135.5804037685249
 30
0.0
 10
174.799635875506
 20
135.704000805282
 30
0.0
  0
SPLINE
  5
B4
330
1F
100
AcDbEntity
  8
0
  6
Continuous
 62
     7
370
    15
100
AcDbSpline
210
0.0
220
0.0
230
1.0
 70
     8
 71
     3
 72
    10
 73
     6
 74
     0
 42
0.000000001
 43
0.00000001
 40
0.0
 40
0.0
 40
0.0
 40
0.0
 40
0.5
 40
0.5
 40
1.0
 40
1.0
 40
1.0
 40
1.0
 10
175.4924561985334
 20
84.7890324712377
 30
0.0
 10
175.3515988340228
 20
84.7890324712377
 30
0.0
 10
175.2087647025486
 20
84.747928565419
 30
0.0
 10
174.9685030117753
 20
84.60053067211805
 30
0.0
 10
174.8677967426958
 20
84.4932376912784
 30
0.0
 10
174.7996358755059
 20
84.36950947635219
 30
0.0
  0
SPLINE
  5
B5
330
1F
100
AcDbEntity
  8
0
  6
Continuous
 62
     7
370
    15
100
AcDbSpline
210
0.0
220
0.0
230
1.0
 70
     8
 71
     3
 72
    12
 73
     8
 74
     0
 42
0.000000001
 43
0.00000001
 40
0.0
 40
0.0
 40
0.0
 40
0.0
 40
0.2499999999999968
 40
0.2499999999999968
 40
0.4999999999999936
 40
0.4999999999999936
 40
1.0
 40
1.0
 40
1.0
 40
1.0
 10
179.5380133989614
 20
136.0167739688011
 30
0.0
 10
179.5021092486248
 20
135.946829534653
 30
0.0
 10
179.4595776964953
 20
135.8835781715951
 30
0.0
 10
179.3627834196553
 20
135.7685195166792
 30
0.0
 10
179.307693741391
 20
135.7161909829672
 30
0.0
 10
179.1295605078371
 20
135.5824060798821
 30
0.0
 10
178.9921834158345
 20
135.521858312724
 30
0.0
 10
178.8451930759346
 20
135.5026583643401
 30
0.0
  0
SPLINE
  5
B6
330
1F
100
AcDbEntity
  8
0
  6
Continuous
 62
     7
370
    15
100
AcDbSpline
210
0.0
220
0.0
230
1.0
 70
     8
 71
     3
 72
    12
 73
     8
 74
     0
 42
0.000000001
 43
0.00000001
 40
0.0
 40
0.0
 40
0.0
 40
0.0
 40
0.2500000000000022
 40
0.2500000000000022
 40
0.5000000000000044
 40
0.5000000000000044
 40
1.0
 40
1.0
 40
1.0
 40
1.0
 10
179.5380133989614
 20
84.05673631283335
 30
0.0
 10
179.5021092486248
 20
84.1266807469815
 30
0.0
 10
179.4595776964953
 20
84.18993211003935
 30
0.0
 10
179.3627834196553
 20
84.30499076495528
 30
0.0
 10
179.307693741391
 20
84.35731929866726
 30
0.0
 10
179.1295605078371
 20
84.49110420175235
 30
0.0
 10
178.9921834158345
 20
84.55165196891049
 30
0.0
 10
178.8451930759346
 20
84.57085191729438
 30
0.0
  0
LINE
  5
B7
330
1F
100
AcDbEntity
  8
0
  6
Continuous
 62
     7
370
    15
100
AcDbLine
 10
175.5188246372
 20
84.7890324712
 30
0.0
 11
175.4924561985
 21
84.7890324712
 31
0.0
  0
LINE
  5
B8
330
1F
100
AcDbEntity
  8
0
  6
Continuous
 62
     7
370
    15
100
AcDbLine
 10
175.5188246372
 20
135.2844778104
 30
0.0
 11
175.4924561985
 21
135.2844778104
 31
0.0
  0
SPLINE
  5
B9
330
1F
100
AcDbEntity
  8
0
  6
Continuous
 62
     7
370
    15
100
AcDbSpline
210
0.0
220
0.0
230
1.0
 70
     8
 71
     3
 72
    10
 73
     6
 74
     0
 42
0.000000001
 43
0.00000001
 40
0.0
 40
0.0
 40
0.0
 40
0.0
 40
0.5
 40
0.5
 40
1.0
 40
1.0
 40
1.0
 40
1.0
 10
178.8451930759338
 20
135.502658364343
 30
0.0
 10
178.3232783515379
 20
135.4344856138348
 30
0.0
 10
177.7844271714285
 20
135.3798623488769
 30
0.0
 10
176.6730645293964
 20
135.3047664959855
 30
0.0
 10
176.0962237522004
 20
135.2844778103968
 30
0.0
 10
175.5188246372336
 20
135.2844778103968
 30
0.0
  0
SPLINE
  5
BA
330
1F
100
AcDbEntity
  8
0
  6
Continuous
 62
     7
370
    15
100
AcDbSpline
210
0.0
220
0.0
230
1.0
 70
     8
 71
     3
 72
    10
 73
     6
 74
     0
 42
0.000000001
 43
0.00000001
 40
0.0
 40
0.0
 40
0.0
 40
0.0
 40
0.5
 40
0.5
 40
1.0
 40
1.0
 40
1.0
 40
1.0
 10
178.8451930759338
 20
84.57085191729145
 30
0.0
 10
178.3232783515379
 20
84.63902466779966
 30
0.0
 10
177.7844271714285
 20
84.6936479327576
 30
0.0
 10
176.6730645293964
 20
84.76874378564894
 30
0.0
 10
176.0962237522004
 20
84.7890324712377
 30
0.0
 10
175.5188246372336
 20
84.7890324712377
 30
0.0
  0
SPLINE
  5
BB
330
1F
100
AcDbEntity
  8
0
  6
Continuous
 62
     7
370
    15
100
AcDbSpline
210
0.0
220
0.0
230
1.0
 70
     8
 71
     3
 72
    10
 73
     6
 74
     0
 42
0.000000001
 43
0.00000001
 40
0.0
 40
0.0
 40
0.0
 40
0.0
 40
0.2999517731092972
 40
0.9999943050113873
 40
1.0
 40
1.0
 40
1.0
 40
1.0
 10
162.4206261028404
 20
132.5367551408172
 30
0.0
 10
162.3976253875411
 20
132.5367551408277
 30
0.0
 10
162.3209444462283
 20
132.5367551408627
 30
0.0
 10
162.2281651292551
 20
132.536755140548
 30
0.0
 10
162.2575739814153
 20
132.5367551408172
 30
0.0
 10
162.2575742206604
 20
132.5367551408172
 30
0.0
  0
SPLINE
  5
BC
330
1F
100
AcDbEntity
  8
0
  6
Continuous
 62
     7
370
    15
100
AcDbSpline
210
0.0
220
0.0
230
1.0
 70
    24
 71
     3
 72
     9
 73
     5
 74
     0
 42
0.000000001
 43
0.00000001
 40
0.0
 40
0.0
 40
0.0
 40
0.0
 40
0.6712481822973848
 40
1.0
 40
1.0
 40
1.0
 40
1.0
 10
162.2575743235994
 20
87.53675514081723
 30
0.0
 10
162.2768024944876
 20
87.53675514081722
 30
0.0
 10
162.3054478918166
 20
87.53675514081723
 30
0.0
 10
162.3896203435619
 20
87.53675514081722
 30
0.0
 10
162.4172921900737
 20
87.53675514081723
 30
0.0
  0
LINE
  5
BD
330
1F
100
AcDbEntity
  8
0
  6
Continuous
 62
     7
370
    15
100
AcDbLine
 10
160.5688246372
 20
87.8117551408
 30
0.0
 11
160.5688246372
 21
132.2617551408
 31
0.0
  0
LINE
  5
BE
330
1F
100
AcDbEntity
  8
0
  6
Continuous
 62
     7
370
    15
100
AcDbLine
 10
95.1688246372
 20
98.2139995438
 30
0.0
 11
95.1688246372
 21
121.8595107348
 31
0.0
  0
SPLINE
  5
BF
330
1F
100
AcDbEntity
  8
0
  6
Continuous
 62
     7
370
    15
100
AcDbSpline
210
0.0
220
0.0
230
1.0
 70
    11
 71
     3
 72
    64
 73
    60
 74
     0
 42
0.000000001
 43
0.00000001
 40
0.0
 40
0.0
 40
0.0
 40
0.0
 40
0.03125
 40
0.03125
 40
0.0625
 40
0.0625
 40
0.09375
 40
0.09375
 40
0.1249999999999999
 40
0.1249999999999999
 40
0.1562499999999999
 40
0.1562499999999999
 40
0.1874999999999999
 40
0.1874999999999999
 40
0.2187499999999999
 40
0.2187499999999999
 40
0.2499999999999999
 40
0.2499999999999999
 40
0.2812499999999999
 40
0.2812499999999999
 40
0.3124999999999999
 40
0.3124999999999999
 40
0.3437499999999998
 40
0.3437499999999998
 40
0.3749999999999998
 40
0.3749999999999998
 40
0.4062499999999998
 40
0.4062499999999998
 40
0.4374999999999998
 40
0.4374999999999998
 40
0.4687499999999998
 40
0.4687499999999998
 40
0.4999999999999998
 40
0.4999999999999998
 40
0.5312499999999998
 40
0.5312499999999998
 40
0.5624999999999998
 40
0.5624999999999998
 40
0.6249999999999998
 40
0.6249999999999998
 40
0.6874999999999997
 40
0.6874999999999997
 40
0.7187499999999997
 40
0.7187499999999997
 40
0.7499999999999997
 40
0.7499999999999997
 40
0.7812499999999997
 40
0.7812499999999997
 40
0.8124999999999997
 40
0.8124999999999997
 40
0.8437499999999997
 40
0.8437499999999997
 40
0.8749999999999996
 40
0.8749999999999996
 40
0.9062499999999996
 40
0.9062499999999996
 40
0.9374999999999996
 40
0.9374999999999996
 40
1.0
 40
1.0
 40
1.0
 40
1.0
 10
194.0006219623406
 20
112.0340231822092
 30
0.0
 10
194.1457484809884
 20
112.1532383990426
 30
0.0
 10
194.2998961642991
 20
112.2567613369061
 30
0.0
 10
194.6247954297386
 20
112.4352799712154
 30
0.0
 10
194.7968346942087
 20
112.510657373567
 30
0.0
 10
195.1521942581454
 20
112.6303297153078
 30
0.0
 10
195.333133577145
 20
112.674086947151
 30
0.0
 10
195.7013036610067
 20
112.7307754533644
 30
0.0
 10
195.8903652410543
 20
112.7435873960211
 30
0.0
 10
196.2647372570962
 20
112.7369302057536
 30
0.0
 10
196.449776788725
 20
112.7178549286354
 30
0.0
 10
196.8156060870973
 20
112.6484332329037
 30
0.0
 10
196.9981345890591
 20
112.597301591411
 30
0.0
 10
197.3469302671108
 20
112.4655576119202
 30
0.0
 10
197.5138130266989
 20
112.3852117618324
 30
0.0
 10
197.8322724329984
 20
112.1947187695959
 30
0.0
 10
197.9852005773784
 20
112.0831184288889
 30
0.0
 10
198.2625415444551
 20
111.8364660979142
 30
0.0
 10
198.3881784167423
 20
111.701118448174
 30
0.0
 10
198.6118081623721
 20
111.4046244164604
 30
0.0
 10
198.7100408020958
 20
111.2419006309999
 30
0.0
 10
198.8660832143129
 20
110.9050468112254
 30
0.0
 10
198.925534184803
 20
110.7292680131817
 30
0.0
 10
199.004201661474
 20
110.3616876286145
 30
0.0
 10
199.0221346667794
 20
110.1734869099083
 30
0.0
 10
199.0144988148036
 20
109.8008798127765
 30
0.0
 10
198.9885577937307
 20
109.6121035570344
 30
0.0
 10
198.8953811316933
 20
109.2493855836754
 30
0.0
 10
198.8288757842864
 20
109.0752079687126
 30
0.0
 10
198.6574014314067
 20
108.7406301016718
 30
0.0
 10
198.5541789800093
 20
108.5840944585998
 30
0.0
 10
198.319096282279
 20
108.2955945047667
 30
0.0
 10
198.1852611368793
 20
108.1617451380791
 30
0.0
 10
197.8978553937376
 20
107.9246881737333
 30
0.0
 10
197.7439256097937
 20
107.8205226282164
 30
0.0
 10
197.4162272487681
 20
107.6397126702604
 30
0.0
 10
197.2435419625296
 20
107.5640402345875
 30
0.0
 10
196.7146655966289
 20
107.3851364398549
 30
0.0
 10
196.3364257585796
 20
107.3270018519111
 30
0.0
 10
195.591571752112
 20
107.339366990681
 30
0.0
 10
195.2154582299516
 20
107.4101353347218
 30
0.0
 10
194.6942411394872
 20
107.6064334438807
 30
0.0
 10
194.5250147005227
 20
107.6875630344266
 30
0.0
 10
194.2034621692868
 20
107.8799674521563
 30
0.0
 10
194.0538445512022
 20
107.9893476328141
 30
0.0
 10
193.7771390639313
 20
108.2350428726881
 30
0.0
 10
193.6487840138901
 20
108.3730613089248
 30
0.0
 10
193.4239682236766
 20
108.6716129081373
 30
0.0
 10
193.3283469209051
 20
108.8302612273196
 30
0.0
 10
193.1720214929846
 20
109.1672364936608
 30
0.0
 10
193.1110445739352
 20
109.3481986013734
 30
0.0
 10
193.0333085328435
 20
109.7135346117994
 30
0.0
 10
193.0154117640806
 20
109.8989989688551
 30
0.0
 10
193.0232969456625
 20
110.2757620907822
 30
0.0
 10
193.0494356373787
 20
110.4631166673548
 30
0.0
 10
193.1425325226553
 20
110.8247812350647
 30
0.0
 10
193.2107328219543
 20
111.0027017743171
 30
0.0
 10
193.4671075367442
 20
111.5011892614947
 30
0.0
 10
193.7103689250451
 20
111.7955927485424
 30
0.0
 10
194.0006219623406
 20
112.0340231822092
 30
0.0
  0
LINE
  5
C0
330
1F
100
AcDbEntity
  8
0
  6
Continuous
 62
     7
370
    15
100
AcDbLine
 10
202.3688246372
 20
110.0367551408
 30
0.0
 11
202.3688246372
 21
97.5367551408
 31
0.0
  0
LINE
  5
C1
330
1F
100
AcDbEntity
  8
0
  6
Continuous
 62
     7
370
    15
100
AcDbLine
 10
202.3688246372
 20
122.5367551408
 30
0.0
 11
202.3688246372
 21
110.0367551408
 31
0.0
  0
LINE
  5
C2
330
1F
100
AcDbEntity
  8
0
  6
Continuous
 62
     7
370
    15
100
AcDbLine
 10
202.5688246372
 20
110.0367551408
 30
0.0
 11
202.5688246372
 21
97.7367551408
 31
0.0
  0
LINE
  5
C3
330
1F
100
AcDbEntity
  8
0
  6
Continuous
 62
     7
370
    15
100
AcDbLine
 10
202.5688246372
 20
122.3367551408
 30
0.0
 11
202.5688246372
 21
110.0367551408
 31
0.0
  0
CIRCLE
  5
C4
330
1F
100
AcDbEntity
  8
0
  6
HIDDEN
 62
     7
370
     0
100
AcDbCircle
 10
196.0188246372
 20
110.0367551408
 30
0.0
 40
1.776794919243099
  0
CIRCLE
  5
C5
330
1F
100
AcDbEntity
  8
0
  6
HIDDEN
 62
     7
370
     0
100
AcDbCircle
 10
196.0188246372
 20
110.0367551408
 30
0.0
 40
1.676794919243089
  0
SPLINE
  5
C6
330
1F
100
AcDbEntity
  8
0
  6
HIDDEN
 62
     7
370
     0
100
AcDbSpline
210
0.0
220
0.0
230
1.0
 70
     8
 71
     3
 72
    17
 73
    13
 74
     0
 42
0.000000001
 43
0.00000001
 40
0.0
 40
0.0
 40
0.0
 40
0.0
 40
0.0000718569080537
 40
0.0000925966776814
 40
0.249520663393495
 40
0.5019857891225842
 40
0.5864044075592201
 40
0.6698654051133
 40
0.7526577617087773
 40
0.8350774917398814
 40
0.9174246291250594
 40
1.0
 40
1.0
 40
1.0
 40
1.0
 10
184.568824661813
 20
78.5367551473436
 30
0.0
 10
184.5688248681147
 20
78.53675514467183
 30
0.0
 10
184.5688251339605
 20
78.53675514122894
 30
0.0
 10
184.5694385532957
 20
78.53675399112895
 30
0.0
 10
184.4653010458321
 20
78.56897067038143
 30
0.0
 10
184.0968138375813
 20
78.6773318168541
 30
0.0
 10
183.7302014875356
 20
78.78216249549219
 30
0.0
 10
183.4806699214224
 20
78.85185520018157
 30
0.0
 10
183.2028841369778
 20
78.92699690911662
 30
0.0
 10
182.8962243597939
 20
79.00666190269689
 30
0.0
 10
182.5630375272857
 20
79.08981108413718
 30
0.0
 10
182.3180400851181
 20
79.14712356636625
 30
0.0
 10
182.1953718401112
 20
79.17581946437163
 30
0.0
  0
LWPOLYLINE
  5
C7
330
1F
100
AcDbEntity
  8
0
  6
HIDDEN
 62
     7
370
     0
100
AcDbPolyline
 90
       25
 70
   128
 43
0.0
 10
162.8173956155
 20
101.0490430483
 10
162.9332167602
 20
100.5135294941
 10
163.1093906181
 20
100.0145103036
 10
163.333911232
 20
99.58599281
 10
163.5914778931
 20
99.2571797724
 10
163.8645378591
 20
99.0504792558
 10
164.1344825446
 20
98.9799775589
 10
164.3829156654
 20
99.0504792558
 10
164.5929069148
 20
99.2571797724
 10
164.7501457362
 20
99.58599281
 10
164.8439165638
 20
100.0145103036
 10
164.8678290707
 20
100.5135294941
 10
164.8202536589
 20
101.0490430483
 10
164.7044325143
 20
101.5845566025
 10
164.5282586564
 20
102.083575793
 10
164.3037380425
 20
102.5120932865
 10
164.0461713814
 20
102.8409063242
 10
163.7731114153
 20
103.0476068408
 10
163.5031667298
 20
103.1181085377
 10
163.2547336091
 20
103.0476068408
 10
163.0447423597
 20
102.8409063242
 10
162.8875035383
 20
102.5120932865
 10
162.7937327107
 20
102.083575793
 10
162.7698202038
 20
101.5845566025
 10
162.8173956155
 20
101.0490430483
  0
LWPOLYLINE
  5
C8
330
1F
100
AcDbEntity
  8
0
  6
HIDDEN
 62
     7
370
     0
100
AcDbPolyline
 90
       22
 70
   128
 43
0.0
 10
163.1738309099
 20
101.0770522074
 10
163.2818921466
 20
100.5978703966
 10
163.4502655966
 20
100.1612659926
 10
163.6639905398
 20
99.8060332126
 10
163.9040765772
 20
99.5637360481
 10
164.1491910107
 20
99.4559036654
 10
164.3775543472
 20
99.4921174449
 10
164.5688755021
 20
99.6691596335
 10
164.7061547513
 20
99.9712992557
 10
164.7771942309
 20
100.3716898802
 10
164.7756817715
 20
100.8347550429
 10
164.7017517617
 20
101.319349372
 10
164.5619732074
 20
101.7824145346
 10
164.3687660464
 20
102.1828051591
 10
164.139297583
 20
102.4849447813
 10
163.8939570971
 20
102.6619869699
 10
163.6545441675
 20
102.6982007495
 10
163.4423316836
 20
102.5903683668
 10
163.276175656
 20
102.3480712023
 10
163.1708397769
 20
101.9928384223
 10
163.1356836013
 20
101.5562340182
 10
163.1738309099
 20
101.0770522074
  0
SPLINE
  5
C9
330
1F
100
AcDbEntity
  8
0
  6
HIDDEN
 62
     7
370
     0
100
AcDbSpline
210
0.0
220
0.0
230
1.0
 70
     8
 71
     3
 72
    12
 73
     8
 74
     0
 42
0.000000001
 43
0.00000001
 40
0.0
 40
0.0
 40
0.0
 40
0.0
 40
0.5000000000000004
 40
0.5000000000000004
 40
0.7500000000000002
 40
0.7500000000000002
 40
1.0
 40
1.0
 40
1.0
 40
1.0
 10
175.1599062499123
 20
103.2581858176109
 30
0.0
 10
175.2330066103876
 20
103.0634508498496
 30
0.0
 10
175.2689103597199
 20
102.8558726748208
 30
0.0
 10
175.2689624777701
 20
102.5601110247492
 30
0.0
 10
175.2599256676798
 20
102.4624150321754
 30
0.0
 10
175.223873194564
 20
102.2785471233467
 30
0.0
 10
175.1969255534613
 20
102.1912574167397
 30
0.0
 10
175.1599062499123
 20
102.1084583010198
 30
0.0
  0
SPLINE
  5
CA
330
1F
100
AcDbEntity
  8
0
  6
HIDDEN
 62
     7
370
     0
100
AcDbSpline
210
0.0
220
0.0
230
1.0
 70
     8
 71
     3
 72
    50
 73
    46
 74
     0
 42
0.000000001
 43
0.00000001
 40
0.0
 40
0.0
 40
0.0
 40
0.0
 40
0.0624999999999989
 40
0.0624999999999989
 40
0.1249999999999978
 40
0.1249999999999978
 40
0.1874999999999967
 40
0.1874999999999967
 40
0.2499999999999956
 40
0.2499999999999956
 40
0.2812499999999955
 40
0.2812499999999955
 40
0.3124999999999954
 40
0.3124999999999954
 40
0.3749999999999958
 40
0.3749999999999958
 40
0.4062499999999961
 40
0.4062499999999961
 40
0.4374999999999963
 40
0.4374999999999963
 40
0.4687499999999966
 40
0.4687499999999966
 40
0.4999999999999968
 40
0.4999999999999968
 40
0.531249999999997
 40
0.531249999999997
 40
0.5624999999999972
 40
0.5624999999999972
 40
0.5937499999999974
 40
0.5937499999999974
 40
0.6249999999999977
 40
0.6249999999999977
 40
0.6874999999999981
 40
0.6874999999999981
 40
0.7187499999999979
 40
0.7187499999999979
 40
0.7499999999999977
 40
0.7499999999999977
 40
0.8124999999999983
 40
0.8124999999999983
 40
0.8749999999999989
 40
0.8749999999999989
 40
0.9374999999999994
 40
0.9374999999999994
 40
1.0
 40
1.0
 40
1.0
 40
1.0
 10
175.1599062499123
 20
102.1084583010198
 30
0.0
 10
175.2150925452568
 20
101.9776334350815
 30
0.0
 10
175.2842491735378
 20
101.8917165081944
 30
0.0
 10
175.4317876218441
 20
101.768419001088
 30
0.0
 10
175.5080725430672
 20
101.7343941509163
 30
0.0
 10
175.6528646702286
 20
101.7050417283169
 30
0.0
 10
175.722719663308
 20
101.71004891881
 30
0.0
 10
175.8313459370019
 20
101.7606714376093
 30
0.0
 10
175.8712491667039
 20
101.8064748405308
 30
0.0
 10
175.8689941432012
 20
101.9201861910559
 30
0.0
 10
175.8571027159337
 20
101.9667629261485
 30
0.0
 10
175.8097684268854
 20
102.0747334136935
 30
0.0
 10
175.7741784000514
 20
102.1370845542961
 30
0.0
 10
175.6429746501853
 20
102.3477587561956
 30
0.0
 10
175.5287350543302
 20
102.5149322679497
 30
0.0
 10
175.3753980445027
 20
102.7896712553782
 30
0.0
 10
175.3259636831544
 20
102.8869669942453
 30
0.0
 10
175.2381983482842
 20
103.0861868058332
 30
0.0
 10
175.1997182241873
 20
103.1880188382208
 30
0.0
 10
175.1358825662539
 20
103.3969623447484
 30
0.0
 10
175.1107288912649
 20
103.5041606908186
 30
0.0
 10
175.0774164990703
 20
103.7145006573514
 30
0.0
 10
175.0688078451163
 20
103.818874734897
 30
0.0
 10
175.0688414782135
 20
104.0260571450855
 30
0.0
 10
175.0775410854224
 20
104.1257496634483
 30
0.0
 10
175.1110260216559
 20
104.3156324062867
 30
0.0
 10
175.1362399700362
 20
104.4070881870659
 30
0.0
 10
175.2002400030264
 20
104.5749309227646
 30
0.0
 10
175.2388071551777
 20
104.6514683281801
 30
0.0
 10
175.3267567165352
 20
104.7897114507902
 30
0.0
 10
175.376192717291
 20
104.8510665967433
 30
0.0
 10
175.5294735084022
 20
105.0042091821841
 30
0.0
 10
175.6437870123279
 20
105.0690151336947
 30
0.0
 10
175.7742335788506
 20
105.0898674953407
 30
0.0
 10
175.8102584886431
 20
105.0838982401829
 30
0.0
 10
175.857386781688
 20
105.0489451703481
 30
0.0
 10
175.8691234874468
 20
105.0194867999982
 30
0.0
 10
175.8710257162829
 20
104.9087758594197
 30
0.0
 10
175.8309023228349
 20
104.8054359548767
 30
0.0
 10
175.7226300453934
 20
104.5750061398704
 30
0.0
 10
175.6532575694868
 20
104.4448936319565
 30
0.0
 10
175.5077519615742
 20
104.1582082066377
 30
0.0
 10
175.431852713863
 20
104.0031787830902
 30
0.0
 10
175.285425990819
 20
103.6572532910149
 30
0.0
 10
175.2148954090838
 20
103.4672003332847
 30
0.0
 10
175.1599062499123
 20
103.2581858176109
 30
0.0
  0
SPLINE
  5
CB
330
1F
100
AcDbEntity
  8
0
  6
HIDDEN
 62
     7
370
     0
100
AcDbSpline
210
0.0
220
0.0
230
1.0
 70
    11
 71
     3
 72
    66
 73
    62
 74
     0
 42
0.000000001
 43
0.00000001
 40
0.0
 40
0.0
 40
0.0
 40
0.0
 40
0.03125
 40
0.03125
 40
0.0625
 40
0.0625
 40
0.09375
 40
0.09375
 40
0.125
 40
0.125
 40
0.15625
 40
0.15625
 40
0.1875000000000001
 40
0.1875000000000001
 40
0.2187500000000001
 40
0.2187500000000001
 40
0.2500000000000002
 40
0.2500000000000002
 40
0.2812500000000002
 40
0.2812500000000002
 40
0.3125000000000003
 40
0.3125000000000003
 40
0.3437500000000003
 40
0.3437500000000003
 40
0.3750000000000002
 40
0.3750000000000002
 40
0.4062500000000002
 40
0.4062500000000002
 40
0.4375000000000003
 40
0.4375000000000003
 40
0.4687500000000003
 40
0.4687500000000003
 40
0.5000000000000003
 40
0.5000000000000003
 40
0.5312500000000003
 40
0.5312500000000003
 40
0.5625000000000003
 40
0.5625000000000003
 40
0.5937500000000003
 40
0.5937500000000003
 40
0.6250000000000003
 40
0.6250000000000003
 40
0.6562500000000003
 40
0.6562500000000003
 40
0.6875000000000003
 40
0.6875000000000003
 40
0.7187500000000003
 40
0.7187500000000003
 40
0.7500000000000002
 40
0.7500000000000002
 40
0.7812500000000002
 40
0.7812500000000002
 40
0.8125000000000002
 40
0.8125000000000002
 40
0.8750000000000003
 40
0.8750000000000003
 40
0.9375000000000004
 40
0.9375000000000004
 40
0.9687500000000002
 40
0.9687500000000002
 40
1.0
 40
1.0
 40
1.0
 40
1.0
 10
177.1688246372336
 20
107.5994619425847
 30
0.0
 10
177.0196892621063
 20
107.5994619425847
 30
0.0
 10
176.8759609541882
 20
107.605652931594
 30
0.0
 10
176.5970226864937
 20
107.6318259695794
 30
0.0
 10
176.4684655434126
 20
107.6513033173782
 30
0.0
 10
176.224447892685
 20
107.7056255632782
 30
0.0
 10
176.1089913988513
 20
107.7407649211861
 30
0.0
 10
175.8951547453792
 20
107.8273459069818
 30
0.0
 10
175.7956626401474
 20
107.8789535491281
 30
0.0
 10
175.6098590282115
 20
108.0025536843886
 30
0.0
 10
175.523215574624
 20
108.0752046000873
 30
0.0
 10
175.3702542752949
 20
108.2400649418616
 30
0.0
 10
175.3030466263319
 20
108.3326179487145
 30
0.0
 10
175.1897817393908
 20
108.5430545855361
 30
0.0
 10
175.1455373947934
 20
108.6579408726878
 30
0.0
 10
175.0850156151855
 20
108.9065524559216
 30
0.0
 10
175.0690278633309
 20
109.0416262969249
 30
0.0
 10
175.0686253876357
 20
109.3163534603557
 30
0.0
 10
175.0840997538775
 20
109.4600515708217
 30
0.0
 10
175.1440258580287
 20
109.7440497981964
 30
0.0
 10
175.1880083150525
 20
109.8842982344344
 30
0.0
 10
175.3007707323029
 20
110.1584165401396
 30
0.0
 10
175.3679506717999
 20
110.2887164132511
 30
0.0
 10
175.5215327336315
 20
110.5375260660383
 30
0.0
 10
175.6078363725113
 20
110.6554055182323
 30
0.0
 10
175.7929656327435
 20
110.872077420925
 30
0.0
 10
175.8924782541766
 20
110.9720892674846
 30
0.0
 10
176.1073888873123
 20
111.1553776468009
 30
0.0
 10
176.2226035183093
 20
111.238281407952
 30
0.0
 10
176.4660614831347
 20
111.3791937031473
 30
0.0
 10
176.5969128931652
 20
111.4386898758339
 30
0.0
 10
176.8734885238609
 20
111.522340454328
 30
0.0
 10
177.0210539584432
 20
111.5460904670601
 30
0.0
 10
177.315034199042
 20
111.5462510064566
 30
0.0
 10
177.4622290725775
 20
111.522714882292
 30
0.0
 10
177.7383322956583
 20
111.4396235348883
 30
0.0
 10
177.8680262245286
 20
111.3810265808168
 30
0.0
 10
178.1135747136165
 20
111.239356743193
 30
0.0
 10
178.2270346212262
 20
111.1577626802246
 30
0.0
 10
178.4408223637114
 20
110.9761513938411
 30
0.0
 10
178.5416490412548
 20
110.8753582601449
 30
0.0
 10
178.7284423687877
 20
110.657274050999
 30
0.0
 10
178.8131798580876
 20
110.5415955186741
 30
0.0
 10
178.9654230265869
 20
110.2962992269826
 30
0.0
 10
179.0334528060992
 20
110.165482739965
 30
0.0
 10
179.1468240980752
 20
109.8923395155117
 30
0.0
 10
179.1911247709251
 20
109.7530122950011
 30
0.0
 10
179.2523541989733
 20
109.468425085939
 30
0.0
 10
179.268387192464
 20
109.3251446997958
 30
0.0
 10
179.2692440875093
 20
109.0498230360402
 30
0.0
 10
179.2538459867766
 20
108.9141955743606
 30
0.0
 10
179.1943634490833
 20
108.6646760807415
 30
0.0
 10
179.1500733702237
 20
108.5482337290507
 30
0.0
 10
178.9817452951146
 20
108.2323283585494
 30
0.0
 10
178.8234869466119
 20
108.0669794321709
 30
0.0
 10
178.4534590586574
 20
107.8193115295135
 30
0.0
 10
178.2375799688568
 20
107.7336248482501
 30
0.0
 10
177.8725558153872
 20
107.6519015783494
 30
0.0
 10
177.741207299042
 20
107.6319492457843
 30
0.0
 10
177.4649160866668
 20
107.6058879497524
 30
0.0
 10
177.3179600123609
 20
107.5994619425847
 30
0.0
 10
177.1688246372336
 20
107.5994619425847
 30
0.0
  0
LWPOLYLINE
  5
CC
330
1F
100
AcDbEntity
  8
0
  6
HIDDEN
 62
     7
370
     0
100
AcDbPolyline
 90
       23
 70
   128
 43
0.0
 10
175.1599062499
 20
102.108458301
 10
175.3832879947
 20
101.6446072002
 10
175.7255274232
 20
101.2499001534
 10
176.163842709
 20
100.9506115952
 10
176.6690565515
 20
100.7666642444
 10
177.2075384186
 20
100.7103029105
 10
177.7434432284
 20
100.7852793944
 10
178.2410974455
 20
100.9866027419
 10
178.667373759
 20
101.3008714769
 10
178.9938962656
 20
101.7071656961
 10
179.198929366
 20
102.1784396427
 10
179.2688246372
 20
102.6833220593
 10
179.198929366
 20
103.1882044759
 10
178.9938962656
 20
103.6594784225
 10
178.667373759
 20
104.0657726417
 10
178.2410974455
 20
104.3800413768
 10
177.7434432284
 20
104.5813647243
 10
177.2075384186
 20
104.6563412081
 10
176.6690565515
 20
104.5999798743
 10
176.163842709
 20
104.4160325235
 10
175.7255274232
 20
104.1167439652
 10
175.3832879947
 20
103.7220369185
 10
175.1599062499
 20
103.2581858176
  0
LINE
  5
CD
330
1F
100
AcDbEntity
  8
0
  6
HIDDEN
 62
     7
370
     0
100
AcDbLine
 10
162.5688246372
 20
132.5367551408
 30
0.0
 11
162.9060829374
 21
132.5367551408
 31
0.0
  0
ELLIPSE
  5
CE
330
1F
100
AcDbEntity
  8
0
  6
HIDDEN
 62
     7
370
     0
100
AcDbEllipse
 10
162.9060829374
 20
134.1367551408
 30
0.0
 11
0.0
 21
1.599999999999994
 31
0.0
210
0.0
220
0.0
230
1.0
 40
0.4142135624
 41
3.141592653589793
 42
4.712388980384695
  0
ELLIPSE
  5
CF
330
1F
100
AcDbEntity
  8
0
  6
HIDDEN
 62
     7
370
     0
100
AcDbEllipse
 10
162.9060829374
 20
85.9367551408
 30
0.0
 11
0.0
 21
1.599999999999994
 31
0.0
210
0.0
220
0.0
230
1.0
 40
0.4142135624
 41
4.712388980384695
 42
6.283185307179586
  0
LINE
  5
D0
330
1F
100
AcDbEntity
  8
0
  6
HIDDEN
 62
     7
370
     0
100
AcDbLine
 10
162.9060829374
 20
87.5367551408
 30
0.0
 11
162.5688246372
 21
87.5367551408
 31
0.0
  0
LINE
  5
D1
330
1F
100
AcDbEntity
  8
0
  6
HIDDEN
 62
     7
370
     0
100
AcDbLine
 10
163.5688246372
 20
80.582732418
 30
0.0
 11
162.9558574602
 21
79.969765241
 31
0.0
  0
LINE
  5
D2
330
1F
100
AcDbEntity
  8
0
  6
HIDDEN
 62
     7
370
     0
100
AcDbLine
 10
162.9558574602
 20
140.1037450406
 30
0.0
 11
163.5688246372
 21
139.4907778636
 31
0.0
  0
LINE
  5
D3
330
1F
100
AcDbEntity
  8
0
  6
HIDDEN
 62
     7
370
     0
100
AcDbLine
 10
102.1688246372
 20
101.5367551408
 30
0.0
 11
102.1688246372
 21
118.5367551408
 31
0.0
  0
LINE
  5
D4
330
1F
100
AcDbEntity
  8
0
  6
HIDDEN
 62
     7
370
     0
100
AcDbLine
 10
105.1647538516
 20
103.0367551408
 30
0.0
 11
105.1647538516
 21
117.0367551408
 31
0.0
  0
LINE
  5
D5
330
1F
100
AcDbEntity
  8
0
  6
HIDDEN
 62
     7
370
     0
100
AcDbLine
 10
163.5688246372
 20
139.4907778636
 30
0.0
 11
172.7013861808
 21
139.4907778636
 31
0.0
  0
LINE
  5
D6
330
1F
100
AcDbEntity
  8
0
  6
HIDDEN
 62
     7
370
     0
100
AcDbLine
 10
163.5688246372
 20
139.4907778636
 30
0.0
 11
163.5688246372
 21
134.1367551408
 31
0.0
  0
LINE
  5
D7
330
1F
100
AcDbEntity
  8
0
  6
HIDDEN
 62
     7
370
     0
100
AcDbLine
 10
172.7013861808
 20
80.582732418
 30
0.0
 11
163.5688246372
 21
80.582732418
 31
0.0
  0
LINE
  5
D8
330
1F
100
AcDbEntity
  8
0
  6
HIDDEN
 62
     7
370
     0
100
AcDbLine
 10
163.5688246372
 20
80.582732418
 30
0.0
 11
163.5688246372
 21
85.9367551408
 31
0.0
  0
LINE
  5
D9
330
1F
100
AcDbEntity
  8
0
  6
HIDDEN
 62
     7
370
     0
100
AcDbLine
 10
175.5188246372
 20
87.5367551408
 30
0.0
 11
162.9060829374
 21
87.5367551408
 31
0.0
  0
LINE
  5
DA
330
1F
100
AcDbEntity
  8
0
  6
HIDDEN
 62
     7
370
     0
100
AcDbLine
 10
162.9060829374
 20
132.5367551408
 30
0.0
 11
175.5188246372
 21
132.5367551408
 31
0.0
  0
LINE
  5
DB
330
1F
100
AcDbEntity
  8
0
  6
HIDDEN
 62
     7
370
     0
100
AcDbLine
 10
181.5450664034
 20
80.1317072474
 30
0.0
 11
181.6390091331
 21
80.106723576
 31
0.0
  0
SPLINE
  5
DC
330
1F
100
AcDbEntity
  8
0
  6
HIDDEN
 62
     7
370
     0
100
AcDbSpline
210
0.0
220
0.0
230
1.0
 70
     8
 71
     3
 72
    13
 73
     9
 74
     0
 42
0.000000001
 43
0.00000001
 40
0.0
 40
0.0
 40
0.0
 40
0.0
 40
0.0000730266253407
 40
0.1576811714019511
 40
0.3241446478108668
 40
0.4996852929261713
 40
0.7294244053126598
 40
1.0
 40
1.0
 40
1.0
 40
1.0
 10
183.5688033301815
 20
79.53676344186908
 30
0.0
 10
183.5688104318892
 20
79.53676053173417
 30
0.0
 10
183.5841446417892
 20
79.53047688545612
 30
0.0
 10
183.5246835696989
 20
79.55418857849745
 30
0.0
 10
183.3639331675994
 20
79.60966350905784
 30
0.0
 10
183.0292485313485
 20
79.71761057703819
 30
0.0
 10
182.4713742728146
 20
79.8888827947272
 30
0.0
 10
181.870207867276
 20
80.0466132227102
 30
0.0
 10
181.5450905853235
 20
80.13191554092786
 30
0.0
  0
LINE
  5
DD
330
1F
100
AcDbEntity
  8
0
  6
HIDDEN
 62
     7
370
     0
100
AcDbLine
 10
175.5188246372
 20
132.5367551408
 30
0.0
 11
181.9688246372
 21
132.5367551408
 31
0.0
  0
SPLINE
  5
DE
330
1F
100
AcDbEntity
  8
0
  6
HIDDEN
 62
     7
370
     0
100
AcDbSpline
210
0.0
220
0.0
230
1.0
 70
     8
 71
     3
 72
    13
 73
     9
 74
     0
 42
0.000000001
 43
0.00000001
 40
0.0
 40
0.0
 40
0.0
 40
0.0
 40
0.1850454653144679
 40
0.3520092965859432
 40
0.5010298177386109
 40
0.6766227814582007
 40
0.8430962614808595
 40
1.0
 40
1.0
 40
1.0
 40
1.0
 10
181.5450882678461
 20
139.9416159165283
 30
0.0
 10
181.7718783834661
 20
140.0004525880682
 30
0.0
 10
182.2032979210182
 20
140.1123767323698
 30
0.0
 10
182.6907533919698
 20
140.2526428039981
 30
0.0
 10
183.079862568514
 20
140.3719375632534
 30
0.0
 10
183.3607624889392
 20
140.4626053728778
 30
0.0
 10
183.5376472640043
 20
140.524521133227
 30
0.0
 10
183.5585096438275
 20
140.5327103893847
 30
0.0
 10
183.5686321422627
 20
140.536683844635
 30
0.0
  0
LINE
  5
DF
330
1F
100
AcDbEntity
  8
0
  6
HIDDEN
 62
     7
370
     0
100
AcDbLine
 10
182.295318811
 20
140.1413289958
 30
0.0
 11
181.5450662498
 21
139.9418033427
 31
0.0
  0
LINE
  5
E0
330
1F
100
AcDbEntity
  8
0
  6
HIDDEN
 62
     7
370
     0
100
AcDbLine
 10
181.9688246372
 20
87.5367551408
 30
0.0
 11
175.5188246372
 21
87.5367551408
 31
0.0
  0
SPLINE
  5
E1
330
1F
100
AcDbEntity
  8
0
  6
HIDDEN
 62
     7
370
     0
100
AcDbSpline
210
0.0
220
0.0
230
1.0
 70
     8
 71
     3
 72
    16
 73
    12
 74
     0
 42
0.000000001
 43
0.00000001
 40
0.0
 40
0.0
 40
0.0
 40
0.0
 40
0.2499999999999956
 40
0.2499999999999956
 40
0.4999999999999912
 40
0.4999999999999912
 40
0.6249999999999932
 40
0.6249999999999932
 40
0.7499999999999952
 40
0.7499999999999952
 40
1.0
 40
1.0
 40
1.0
 40
1.0
 10
202.5688246372337
 20
116.8775922561956
 30
0.0
 10
202.5688246372336
 20
116.8091213340119
 30
0.0
 10
202.5642794270584
 20
116.739193092361
 30
0.0
 10
202.5386094619348
 20
116.5940238622738
 30
0.0
 10
202.5168825820524
 20
116.515673140203
 30
0.0
 10
202.4579231515931
 20
116.4135015913423
 30
0.0
 10
202.4332730246097
 20
116.3823132620745
 30
0.0
 10
202.3789560318128
 20
116.3361053449746
 30
0.0
 10
202.3501861000978
 20
116.3213683285006
 30
0.0
 10
202.267483730087
 20
116.2961706797858
 30
0.0
 10
202.2161942534801
 20
116.301747517363
 30
0.0
 10
202.1688246372261
 20
116.3143008706119
 30
0.0
  0
SPLINE
  5
E2
330
1F
100
AcDbEntity
  8
0
  6
HIDDEN
 62
     7
370
     0
100
AcDbSpline
210
0.0
220
0.0
230
1.0
 70
     8
 71
     3
 72
     8
 73
     4
 74
     0
 42
0.000000001
 43
0.00000001
 40
0.0
 40
0.0
 40
0.0
 40
0.0
 40
1.0
 40
1.0
 40
1.0
 40
1.0
 10
202.1688246372285
 20
116.3143008706212
 30
0.0
 10
202.1099293126004
 20
116.2813490139489
 30
0.0
 10
202.0403196833209
 20
116.2596830579925
 30
0.0
 10
201.9688246372338
 20
116.2596830579925
 30
0.0
  0
SPLINE
  5
E3
330
1F
100
AcDbEntity
  8
0
  6
HIDDEN
 62
     7
370
     0
100
AcDbSpline
210
0.0
220
0.0
230
1.0
 70
     8
 71
     3
 72
     8
 73
     4
 74
     0
 42
0.000000001
 43
0.00000001
 40
0.0
 40
0.0
 40
0.0
 40
0.0
 40
1.0
 40
1.0
 40
1.0
 40
1.0
 10
202.1688246372434
 20
103.759209411005
 30
0.0
 10
202.109929312612
 20
103.7921612676817
 30
0.0
 10
202.0403196833269
 20
103.813827223642
 30
0.0
 10
201.9688246372338
 20
103.813827223642
 30
0.0
  0
SPLINE
  5
E4
330
1F
100
AcDbEntity
  8
0
  6
HIDDEN
 62
     7
370
     0
100
AcDbSpline
210
0.0
220
0.0
230
1.0
 70
     8
 71
     3
 72
    16
 73
    12
 74
     0
 42
0.000000001
 43
0.00000001
 40
0.0
 40
0.0
 40
0.0
 40
0.0
 40
0.2499999999999941
 40
0.2499999999999941
 40
0.3749999999999914
 40
0.3749999999999914
 40
0.4999999999999888
 40
0.4999999999999888
 40
0.7499999999999943
 40
0.7499999999999943
 40
1.0
 40
1.0
 40
1.0
 40
1.0
 10
202.1688246372434
 20
103.7592094110047
 30
0.0
 10
202.2162066020104
 20
103.7717661016869
 30
0.0
 10
202.2673878205407
 20
103.7773908594504
 30
0.0
 10
202.3503428824579
 20
103.7520902087945
 30
0.0
 10
202.3790252436197
 20
103.737345652055
 30
0.0
 10
202.4331330485237
 20
103.6913340846807
 30
0.0
 10
202.4575288026418
 20
103.6606012691345
 30
0.0
 10
202.5168403653792
 20
103.5581193286295
 30
0.0
 10
202.5383679192792
 20
103.4804617698192
 30
0.0
 10
202.5641981740268
 20
103.3351756492712
 30
0.0
 10
202.5688246372337
 20
103.2644433824582
 30
0.0
 10
202.5688246372337
 20
103.1959225092538
 30
0.0
  0
LINE
  5
E5
330
1F
100
AcDbEntity
  8
0
  6
HIDDEN
 62
     7
370
     0
100
AcDbLine
 10
186.0688246372
 20
110.0367551408
 30
0.0
 11
186.0688246372
 21
103.3367551408
 31
0.0
  0
LINE
  5
E6
330
1F
100
AcDbEntity
  8
0
  6
HIDDEN
 62
     7
370
     0
100
AcDbLine
 10
186.0688246372
 20
116.7367551408
 30
0.0
 11
186.0688246372
 21
110.0367551408
 31
0.0
  0
LINE
  5
E7
330
1F
100
AcDbEntity
  8
0
  6
HIDDEN
 62
     7
370
     0
100
AcDbLine
 10
189.434850041
 20
110.0367551408
 30
0.0
 11
189.434850041
 21
103.0367551408
 31
0.0
  0
LINE
  5
E8
330
1F
100
AcDbEntity
  8
0
  6
HIDDEN
 62
     7
370
     0
100
AcDbLine
 10
189.434850041
 20
117.0367551408
 30
0.0
 11
189.434850041
 21
110.0367551408
 31
0.0
  0
LINE
  5
E9
330
1F
100
AcDbEntity
  8
0
  6
HIDDEN
 62
     7
370
     0
100
AcDbLine
 10
195.6688246372
 20
116.259683058
 30
0.0
 11
201.9688246372
 21
116.259683058
 31
0.0
  0
LINE
  5
EA
330
1F
100
AcDbEntity
  8
0
  6
HIDDEN
 62
     7
370
     0
100
AcDbLine
 10
195.6688246372
 20
103.8138272236
 30
0.0
 11
201.9688246372
 21
103.8138272236
 31
0.0
  0
LINE
  5
EB
330
1F
100
AcDbEntity
  8
0
  6
HIDDEN
 62
     7
370
     0
100
AcDbLine
 10
138.1688246372
 20
103.0367551408
 30
0.0
 11
138.1688246372
 21
117.0367551408
 31
0.0
  0
LINE
  5
EC
330
1F
100
AcDbEntity
  8
0
  6
HIDDEN
 62
     7
370
     0
100
AcDbLine
 10
140.8726974229
 20
107.5367551408
 30
0.0
 11
140.8726974229
 21
112.5367551408
 31
0.0
  0
SPLINE
  5
ED
330
1F
100
AcDbEntity
  8
0
  6
HIDDEN
 62
     7
370
     0
100
AcDbSpline
210
0.0
220
0.0
230
1.0
 70
     8
 71
     3
 72
     9
 73
     5
 74
     0
 42
0.000000001
 43
0.00000001
 40
0.0
 40
0.0
 40
0.0
 40
0.0
 40
0.4932365035776448
 40
1.0
 40
1.0
 40
1.0
 40
1.0
 10
181.5458841759311
 20
139.9415866519895
 30
0.0
 10
181.6517321314398
 20
140.0986080402724
 30
0.0
 10
181.8663309187171
 20
140.416957122597
 30
0.0
 10
182.0841908006013
 20
140.7367832302745
 30
0.0
 10
182.1945942360751
 20
140.8988594268484
 30
0.0
  0
SPLINE
  5
EE
330
1F
100
AcDbEntity
  8
0
  6
HIDDEN
 62
     7
370
     0
100
AcDbSpline
210
0.0
220
0.0
230
1.0
 70
     8
 71
     3
 72
     9
 73
     5
 74
     0
 42
0.000000001
 43
0.00000001
 40
0.0
 40
0.0
 40
0.0
 40
0.0
 40
0.5067661695379747
 40
1.0
 40
1.0
 40
1.0
 40
1.0
 10
182.1945979213611
 20
79.17466499034009
 30
0.0
 10
182.0841930908871
 20
79.33674240492023
 30
0.0
 10
181.8663316054318
 20
79.65656922905076
 30
0.0
 10
181.6517318875461
 20
79.97491774531524
 30
0.0
 10
181.5458840466773
 20
80.13193800341425
 30
0.0
  0
SPLINE
  5
EF
330
1F
100
AcDbEntity
  8
0
  6
HIDDEN
 62
     7
370
     0
100
AcDbSpline
210
0.0
220
0.0
230
1.0
 70
     8
 71
     3
 72
    14
 73
    10
 74
     0
 42
0.000000001
 43
0.00000001
 40
0.0
 40
0.0
 40
0.0
 40
0.0
 40
0.25
 40
0.25
 40
0.5
 40
0.5
 40
0.75
 40
0.75
 40
1.0
 40
1.0
 40
1.0
 40
1.0
 10
202.1688246372337
 20
119.1117551408172
 30
0.0
 10
202.1688246372337
 20
119.244427704754
 30
0.0
 10
202.1689923062585
 20
119.3646415035111
 30
0.0
 10
202.1666272688305
 20
119.5809343544396
 30
0.0
 10
202.1645603358415
 20
119.6765057214891
 30
0.0
 10
202.1590998447505
 20
119.832141277389
 30
0.0
 10
202.1554018748147
 20
119.8944093576242
 30
0.0
 10
202.1481972792256
 20
119.9805595155609
 30
0.0
 10
202.1446581937051
 20
120.0051376808952
 30
0.0
 10
202.1420725938378
 20
120.0106072696634
 30
0.0
  0
SPLINE
  5
F0
330
1F
100
AcDbEntity
  8
0
  6
HIDDEN
 62
     7
370
     0
100
AcDbSpline
210
0.0
220
0.0
230
1.0
 70
     8
 71
     3
 72
    11
 73
     7
 74
     0
 42
0.000000001
 43
0.00000001
 40
0.0
 40
0.0
 40
0.0
 40
0.0
 40
0.2792539147312117
 40
0.6041965600204598
 40
0.9296784191691896
 40
0.9999999999999999
 40
0.9999999999999999
 40
0.9999999999999999
 40
0.9999999999999999
 10
202.1416964014963
 20
119.9990969884407
 30
0.0
 10
202.1399304095473
 20
119.9873966741951
 30
0.0
 10
202.1361094917221
 20
119.962081757392
 30
0.0
 10
202.1522246491561
 20
119.6813080992591
 30
0.0
 10
202.1676450717169
 20
119.3580750703076
 30
0.0
 10
202.1686466733359
 20
119.1489160012272
 30
0.0
 10
202.1688246258297
 20
119.1117551408173
 30
0.0
  0
LWPOLYLINE
  5
F1
330
1F
100
AcDbEntity
  8
0
  6
HIDDEN
 62
     7
370
     0
100
AcDbPolyline
 90
        4
 70
   128
 43
0.0
 10
202.1688246258
 20
119.1117551408
 10
202.168824641
 20
118.6310950331
 10
202.1688246362
 20
116.7084546024
 10
202.1688246372
 20
116.3143008706
  0
LINE
  5
F2
330
1F
100
AcDbEntity
  8
0
  6
HIDDEN
 62
     7
370
     0
100
AcDbLine
 10
202.1688246418
 20
100.9617551408
 30
0.0
 11
202.1688246372
 21
103.759209411
 31
0.0
  0
SPLINE
  5
F3
330
1F
100
AcDbEntity
  8
0
  6
HIDDEN
 62
     7
370
     0
100
AcDbSpline
210
0.0
220
0.0
230
1.0
 70
     8
 71
     3
 72
    11
 73
     7
 74
     0
 42
0.000000001
 43
0.00000001
 40
0.0
 40
0.0
 40
0.0
 40
0.0
 40
0.2791210403208578
 40
0.6041001967114601
 40
0.9296186745226671
 40
1.0
 40
1.0
 40
1.0
 40
1.0
 10
202.1416947046336
 20
100.0744519518611
 30
0.0
 10
202.1399304763056
 20
100.0861384205041
 30
0.0
 10
202.1361121662321
 20
100.1114313830052
 30
0.0
 10
202.1521984439149
 20
100.392144456113
 30
0.0
 10
202.1676962559799
 20
100.7153803191449
 30
0.0
 10
202.1686543211986
 20
100.9245668751041
 30
0.0
 10
202.1688246418187
 20
100.9617551408172
 30
0.0
  0
LINE
  5
F4
330
1F
100
AcDbEntity
  8
0
  6
HIDDEN
 62
     7
370
     0
100
AcDbLine
 10
195.6688246372
 20
100.9617551408
 30
0.0
 11
195.6688246372
 21
103.8138272236
 31
0.0
  0
LINE
  5
F5
330
1F
100
AcDbEntity
  8
0
  6
HIDDEN
 62
     7
370
     0
100
AcDbLine
 10
195.6688246372
 20
119.1117551408
 30
0.0
 11
195.6688246372
 21
116.259683058
 31
0.0
  0
SPLINE
  5
F6
330
1F
100
AcDbEntity
  8
0
  6
HIDDEN
 62
     7
370
     0
100
AcDbSpline
210
0.0
220
0.0
230
1.0
 70
    11
 71
     3
 72
    66
 73
    62
 74
     0
 42
0.000000001
 43
0.00000001
 40
0.0
 40
0.0
 40
0.0
 40
0.0
 40
0.0312499999999997
 40
0.0312499999999997
 40
0.0624999999999994
 40
0.0624999999999994
 40
0.0937499999999991
 40
0.0937499999999991
 40
0.1249999999999988
 40
0.1249999999999988
 40
0.1562499999999985
 40
0.1562499999999985
 40
0.1874999999999982
 40
0.1874999999999982
 40
0.2187499999999979
 40
0.2187499999999979
 40
0.2499999999999976
 40
0.2499999999999976
 40
0.2812499999999973
 40
0.2812499999999973
 40
0.312499999999997
 40
0.312499999999997
 40
0.3437499999999968
 40
0.3437499999999968
 40
0.3749999999999964
 40
0.3749999999999964
 40
0.4062499999999962
 40
0.4062499999999962
 40
0.4374999999999959
 40
0.4374999999999959
 40
0.4687499999999956
 40
0.4687499999999956
 40
0.4999999999999953
 40
0.4999999999999953
 40
0.531249999999995
 40
0.531249999999995
 40
0.5624999999999948
 40
0.5624999999999948
 40
0.5937499999999951
 40
0.5937499999999951
 40
0.6249999999999954
 40
0.6249999999999954
 40
0.6562499999999959
 40
0.6562499999999959
 40
0.6874999999999962
 40
0.6874999999999962
 40
0.7187499999999964
 40
0.7187499999999964
 40
0.7499999999999967
 40
0.7499999999999967
 40
0.781249999999997
 40
0.781249999999997
 40
0.8124999999999972
 40
0.8124999999999972
 40
0.8749999999999979
 40
0.8749999999999979
 40
0.9374999999999984
 40
0.9374999999999984
 40
0.9687499999999992
 40
0.9687499999999992
 40
1.0
 40
1.0
 40
1.0
 40
1.0
 10
177.1688246372336
 20
108.5273393317489
 30
0.0
 10
177.3179600123609
 20
108.5273393317489
 30
0.0
 10
177.461688320279
 20
108.5505478734022
 30
0.0
 10
177.7406265879736
 20
108.6346625230884
 30
0.0
 10
177.8691837310546
 20
108.6931165651567
 30
0.0
 10
178.1132013817822
 20
108.8339732182585
 30
0.0
 10
178.2286578756159
 20
108.9169713591521
 30
0.0
 10
178.4424945290881
 20
109.0989369771033
 30
0.0
 10
178.5419866343198
 20
109.1985651520331
 30
0.0
 10
178.7277902462557
 20
109.4154559140026
 30
0.0
 10
178.8144336998432
 20
109.5336371354034
 30
0.0
 10
178.9673949991724
 20
109.7806925007827
 30
0.0
 10
179.0346026481354
 20
109.9103745576681
 30
0.0
 10
179.1478675350765
 20
110.1841162384988
 30
0.0
 10
179.1921118796739
 20
110.3241671259849
 30
0.0
 10
179.2526336592818
 20
110.6073222873536
 30
0.0
 10
179.2686214111363
 20
110.7516102411218
 30
0.0
 10
179.2690238868315
 20
111.0265686645437
 30
0.0
 10
179.2535495205898
 20
111.1613472725133
 30
0.0
 10
179.1936234164385
 20
111.4111357739866
 30
0.0
 10
179.1496409594147
 20
111.5263622923211
 30
0.0
 10
179.0368785421644
 20
111.7374343504962
 30
0.0
 10
178.9696986026674
 20
111.8306003373322
 30
0.0
 10
178.8161165408358
 20
111.9968448595521
 30
0.0
 10
178.729812901956
 20
112.0693582073154
 30
0.0
 10
178.5446836417237
 20
112.1930091513725
 30
0.0
 10
178.4451710202907
 20
112.2449251832279
 30
0.0
 10
178.230260387155
 20
112.3322489492713
 30
0.0
 10
178.1150457561579
 20
112.3673652840026
 30
0.0
 10
177.8715877913326
 20
112.421778746717
 30
0.0
 10
177.740736381302
 20
112.4416274415389
 30
0.0
 10
177.4641607506063
 20
112.467671495441
 30
0.0
 10
177.316595316024
 20
112.4740258682297
 30
0.0
 10
177.0226150754253
 20
112.4740706908595
 30
0.0
 10
176.8754202018898
 20
112.4677751254909
 30
0.0
 10
176.599316978809
 20
112.4419308735381
 30
0.0
 10
176.4696230499387
 20
112.4224445558708
 30
0.0
 10
176.2240745608507
 20
112.3678216325616
 30
0.0
 10
176.110614653241
 20
112.333284080452
 30
0.0
 10
175.8968269107559
 20
112.2469581336133
 30
0.0
 10
175.7960002332125
 20
112.1947980420914
 30
0.0
 10
175.6092069056796
 20
112.0705060284093
 30
0.0
 10
175.5244694163797
 20
111.9993691287941
 30
0.0
 10
175.3722262478803
 20
111.8358526039846
 30
0.0
 10
175.304196468368
 20
111.742602757924
 30
0.0
 10
175.1908251763921
 20
111.532812026929
 30
0.0
 10
175.1465245035421
 20
111.4186767977947
 30
0.0
 10
175.085295075494
 20
111.1690337912887
 30
0.0
 10
175.0692620820032
 20
111.0349940636677
 30
0.0
 10
175.068405186958
 20
110.7601647659062
 30
0.0
 10
175.0838032876907
 20
110.615661829031
 30
0.0
 10
175.143285825384
 20
110.3321832272842
 30
0.0
 10
175.1875759042435
 20
110.1905433839663
 30
0.0
 10
175.3559039793526
 20
109.7805131945084
 30
0.0
 10
175.5141623278553
 20
109.5280358360237
 30
0.0
 10
175.8841902158099
 20
109.0943705499218
 30
0.0
 10
176.1000693056105
 20
108.9063143035692
 30
0.0
 10
176.46509345908
 20
108.6947957154694
 30
0.0
 10
176.5964419754252
 20
108.6350218838532
 30
0.0
 10
176.8727331878005
 20
108.5513394924451
 30
0.0
 10
177.0196892621063
 20
108.5273393317489
 30
0.0
 10
177.1688246372336
 20
108.5273393317489
 30
0.0
  0
LINE
  5
F7
330
1F
100
AcDbEntity
  8
0
  6
HIDDEN
 62
     7
370
     0
100
AcDbLine
 10
195.6688246372
 20
120.0117551408
 30
0.0
 11
195.6688246372
 21
119.1117551408
 31
0.0
  0
LINE
  5
F8
330
1F
100
AcDbEntity
  8
0
  6
HIDDEN
 62
     7
370
     0
100
AcDbLine
 10
195.6688246372
 20
100.0617551408
 30
0.0
 11
195.6688246372
 21
100.9617551408
 31
0.0
  0
SPLINE
  5
F9
330
1F
100
AcDbEntity
  8
0
  6
HIDDEN
 62
     7
370
     0
100
AcDbSpline
210
0.0
220
0.0
230
1.0
 70
     8
 71
     3
 72
    22
 73
    18
 74
     0
 42
0.000000001
 43
0.00000001
 40
0.0
 40
0.0
 40
0.0
 40
0.0
 40
0.1250000000000003
 40
0.1250000000000003
 40
0.2500000000000006
 40
0.2500000000000006
 40
0.3750000000000009
 40
0.3750000000000009
 40
0.5000000000000012
 40
0.5000000000000012
 40
0.6250000000000016
 40
0.6250000000000016
 40
0.7500000000000018
 40
0.7500000000000018
 40
0.8750000000000009
 40
0.8750000000000009
 40
1.0
 40
1.0
 40
1.0
 40
1.0
 10
178.8451930759338
 20
117.9014101164725
 30
0.0
 10
178.7469148523784
 20
117.7768813965402
 30
0.0
 10
178.6355920850712
 20
117.6652782571079
 30
0.0
 10
178.3877834767064
 20
117.4672944139196
 30
0.0
 10
178.2498319511563
 20
117.3806398917308
 30
0.0
 10
177.9615709895723
 20
117.2421163165079
 30
0.0
 10
177.8091274706601
 20
117.1886725652313
 30
0.0
 10
177.4922157323844
 20
117.1164924150861
 30
0.0
 10
177.3322272282759
 20
117.0985743756927
 30
0.0
 10
177.009257121654
 20
117.0982892341952
 30
0.0
 10
176.8456946380012
 20
117.1165875440635
 30
0.0
 10
176.5321964068613
 20
117.1876829662544
 30
0.0
 10
176.3786944406324
 20
117.2409935185183
 30
0.0
 10
176.0880917427582
 20
117.3803749565428
 30
0.0
 10
175.9532714993444
 20
117.4649288536506
 30
0.0
 10
175.7043234227151
 20
117.6631203015567
 30
0.0
 10
175.590734189546
 20
117.7768816911962
 30
0.0
 10
175.4924561985334
 20
117.9014101164725
 30
0.0
  0
SPLINE
  5
FA
330
1F
100
AcDbEntity
  8
0
  6
HIDDEN
 62
     7
370
     0
100
AcDbSpline
210
0.0
220
0.0
230
1.0
 70
     8
 71
     3
 72
    18
 73
    14
 74
     0
 42
0.000000001
 43
0.00000001
 40
0.0
 40
0.0
 40
0.0
 40
0.0
 40
0.2500000000000009
 40
0.2500000000000009
 40
0.3750000000000011
 40
0.3750000000000011
 40
0.5000000000000012
 40
0.5000000000000012
 40
0.6250000000000013
 40
0.6250000000000013
 40
0.7500000000000016
 40
0.7500000000000016
 40
1.0
 40
1.0
 40
1.0
 40
1.0
 10
178.8451930759338
 20
120.2785084410513
 30
0.0
 10
178.9837634246642
 20
120.1089284468155
 30
0.0
 10
179.0882488442147
 20
119.9353172386736
 30
0.0
 10
179.1958050773527
 20
119.6522859762701
 30
0.0
 10
179.2228150513247
 20
119.5556129411773
 30
0.0
 10
179.2593560134373
 20
119.3545445140059
 30
0.0
 10
179.2688318339495
 20
119.2488006169193
 30
0.0
 10
179.2688174321387
 20
119.03455112464
 30
0.0
 10
179.2595953191168
 20
118.9265231262297
 30
0.0
 10
179.2233505730854
 20
118.7095302366983
 30
0.0
 10
179.1959762818066
 20
118.5996806189632
 30
0.0
 10
179.0887161599086
 20
118.2800968290474
 30
0.0
 10
178.9835256377694
 20
118.0766918444797
 30
0.0
 10
178.8451930759341
 20
117.9014101164723
 30
0.0
  0
SPLINE
  5
FB
330
1F
100
AcDbEntity
  8
0
  6
HIDDEN
 62
     7
370
     0
100
AcDbSpline
210
0.0
220
0.0
230
1.0
 70
     8
 71
     3
 72
    22
 73
    18
 74
     0
 42
0.000000001
 43
0.00000001
 40
0.0
 40
0.0
 40
0.0
 40
0.0
 40
0.1249999999999991
 40
0.1249999999999991
 40
0.2499999999999982
 40
0.2499999999999982
 40
0.3749999999999984
 40
0.3749999999999984
 40
0.4999999999999988
 40
0.4999999999999988
 40
0.6249999999999991
 40
0.6249999999999991
 40
0.7499999999999993
 40
0.7499999999999993
 40
0.8749999999999997
 40
0.8749999999999997
 40
1.0
 40
1.0
 40
1.0
 40
1.0
 10
175.4924561985334
 20
120.2785084410513
 30
0.0
 10
175.5907344220889
 20
120.398779629922
 30
0.0
 10
175.7020571893961
 20
120.5059278383181
 30
0.0
 10
175.9498657977608
 20
120.6953058767386
 30
0.0
 10
176.087817323311
 20
120.7777860302961
 30
0.0
 10
176.376078284895
 20
120.9093208616075
 30
0.0
 10
176.5285218038072
 20
120.9598808673927
 30
0.0
 10
176.8454335420829
 20
121.0281075427925
 30
0.0
 10
177.0054220461913
 20
121.0450046144181
 30
0.0
 10
177.3283921528133
 20
121.0452737194006
 30
0.0
 10
177.4919546364661
 20
121.0280171901
 30
0.0
 10
177.805452867606
 20
120.9608166924539
 30
0.0
 10
177.9589548338348
 20
120.9103856868217
 30
0.0
 10
178.2495575317091
 20
120.7780389116867
 30
0.0
 10
178.3843777751228
 20
120.697562374352
 30
0.0
 10
178.6333258517521
 20
120.5079980911452
 30
0.0
 10
178.7469150849213
 20
120.3987793453401
 30
0.0
 10
178.8451930759338
 20
120.2785084410513
 30
0.0
  0
SPLINE
  5
FC
330
1F
100
AcDbEntity
  8
0
  6
HIDDEN
 62
     7
370
     0
100
AcDbSpline
210
0.0
220
0.0
230
1.0
 70
     8
 71
     3
 72
    18
 73
    14
 74
     0
 42
0.000000001
 43
0.00000001
 40
0.0
 40
0.0
 40
0.0
 40
0.0
 40
0.2499999999999984
 40
0.2499999999999984
 40
0.3749999999999986
 40
0.3749999999999986
 40
0.4999999999999987
 40
0.4999999999999987
 40
0.6249999999999988
 40
0.6249999999999988
 40
0.7499999999999989
 40
0.7499999999999989
 40
1.0
 40
1.0
 40
1.0
 40
1.0
 10
175.4924561985334
 20
117.9014101164725
 30
0.0
 10
175.353885849803
 20
118.076993145181
 30
0.0
 10
175.2494004302525
 20
118.2789861608119
 30
0.0
 10
175.1418441971146
 20
118.5990304516098
 30
0.0
 10
175.1148342231425
 20
118.707089727455
 30
0.0
 10
175.07829326103
 20
118.9243409565716
 30
0.0
 10
175.0688174405178
 20
119.0348038897596
 30
0.0
 10
175.0688318423286
 20
119.2490464552024
 30
0.0
 10
175.0780539553504
 20
119.3524777419938
 30
0.0
 10
175.1142987013819
 20
119.553400379277
 30
0.0
 10
175.1416729926606
 20
119.6517056221363
 30
0.0
 10
175.2489331145586
 20
119.9343457152053
 30
0.0
 10
175.3541236366979
 20
120.1092194463019
 30
0.0
 10
175.4924561985332
 20
120.2785084410513
 30
0.0
  0
SPLINE
  5
FD
330
1F
100
AcDbEntity
  8
0
  6
HIDDEN
 62
     7
370
     0
100
AcDbSpline
210
0.0
220
0.0
230
1.0
 70
    11
 71
     3
 72
    56
 73
    52
 74
     0
 42
0.000000001
 43
0.00000001
 40
0.0
 40
0.0
 40
0.0
 40
0.0
 40
0.0312499999999999
 40
0.0312499999999999
 40
0.0624999999999997
 40
0.0624999999999997
 40
0.1249999999999999
 40
0.1249999999999999
 40
0.1562499999999999
 40
0.1562499999999999
 40
0.1874999999999999
 40
0.1874999999999999
 40
0.2187499999999999
 40
0.2187499999999999
 40
0.2499999999999999
 40
0.2499999999999999
 40
0.3124999999999993
 40
0.3124999999999993
 40
0.3437499999999989
 40
0.3437499999999989
 40
0.3749999999999986
 40
0.3749999999999986
 40
0.4374999999999982
 40
0.4374999999999982
 40
0.4687499999999981
 40
0.4687499999999981
 40
0.499999999999998
 40
0.499999999999998
 40
0.5312499999999979
 40
0.5312499999999979
 40
0.5624999999999977
 40
0.5624999999999977
 40
0.6249999999999984
 40
0.6249999999999984
 40
0.6874999999999991
 40
0.6874999999999991
 40
0.7499999999999999
 40
0.7499999999999999
 40
0.7812499999999999
 40
0.7812499999999999
 40
0.8124999999999998
 40
0.8124999999999998
 40
0.8437499999999998
 40
0.8437499999999998
 40
0.8749999999999998
 40
0.8749999999999998
 40
0.9062499999999998
 40
0.9062499999999998
 40
0.9374999999999997
 40
0.9374999999999997
 40
1.0
 40
1.0
 40
1.0
 40
1.0
 10
175.1282486363964
 20
115.7036352297935
 30
0.0
 10
175.1569201529934
 20
115.6018211649207
 30
0.0
 10
175.1946900725772
 20
115.509418247271
 30
0.0
 10
175.2849882093468
 20
115.3426401625754
 30
0.0
 10
175.3382639055202
 20
115.2677704734524
 30
0.0
 10
175.5071949822944
 20
115.0816498089375
 30
0.0
 10
175.6383816982787
 20
115.003633311354
 30
0.0
 10
175.7836672182821
 20
114.9830587607994
 30
0.0
 10
175.8218081510838
 20
114.992606980732
 30
0.0
 10
175.8665846842479
 20
115.0399632099121
 30
0.0
 10
175.8734794222879
 20
115.0780639721722
 30
0.0
 10
175.862230876674
 20
115.1701844501363
 30
0.0
 10
175.8445700314693
 20
115.2252398922756
 30
0.0
 10
175.7958460257073
 20
115.344846650455
 30
0.0
 10
175.7649070273159
 20
115.4095245195578
 30
0.0
 10
175.6612514919972
 20
115.6168859019813
 30
0.0
 10
175.5774461553351
 20
115.7736736572041
 30
0.0
 10
175.4519958908828
 20
116.032818919857
 30
0.0
 10
175.4099027108352
 20
116.1235712944068
 30
0.0
 10
175.3271617195223
 20
116.3165725164449
 30
0.0
 10
175.2863314861146
 20
116.4193534789733
 30
0.0
 10
175.1734817299546
 20
116.7415945921533
 30
0.0
 10
175.1087915465906
 20
116.9805411308644
 30
0.0
 10
175.0683218688527
 20
117.3493082358416
 30
0.0
 10
175.0652800726627
 20
117.4690676464866
 30
0.0
 10
175.0810832292401
 20
117.6881659076958
 30
0.0
 10
175.0998263267849
 20
117.7864949160196
 30
0.0
 10
175.1511002301784
 20
117.9533699632262
 30
0.0
 10
175.1836247762107
 20
118.0232446093223
 30
0.0
 10
175.2557779246526
 20
118.1398536696149
 30
0.0
 10
175.2948831014054
 20
118.186074309388
 30
0.0
 10
175.4168808398518
 20
118.298893126876
 30
0.0
 10
175.5044126525816
 20
118.3393464162357
 30
0.0
 10
175.6665292055341
 20
118.3702045356581
 30
0.0
 10
175.7440868628227
 20
118.3613013500897
 30
0.0
 10
175.8552316859266
 20
118.2902253016516
 30
0.0
 10
175.8879646722686
 20
118.2279863829414
 30
0.0
 10
175.8443362899485
 20
118.0700850996684
 30
0.0
 10
175.8140210289525
 20
118.0068296967981
 30
0.0
 10
175.7291640453154
 20
117.8615156309384
 30
0.0
 10
175.6743149710524
 20
117.7781437151792
 30
0.0
 10
175.55947628564
 20
117.5995505576887
 30
0.0
 10
175.4980568564605
 20
117.5018038092712
 30
0.0
 10
175.3818488695735
 20
117.2968255101718
 30
0.0
 10
175.326334804605
 20
117.1885435748583
 30
0.0
 10
175.2281308292597
 20
116.9631936707298
 30
0.0
 10
175.1862404110136
 20
116.8482877152688
 30
0.0
 10
175.1197337307089
 20
116.6130203122357
 30
0.0
 10
175.0952902357815
 20
116.4920229777399
 30
0.0
 10
175.054800309986
 20
116.1388215455636
 30
0.0
 10
175.0709056032025
 20
115.9072633595393
 30
0.0
 10
175.1282486363964
 20
115.7036352297935
 30
0.0
  0
LWPOLYLINE
  5
FE
330
1F
100
AcDbEntity
  8
0
  6
HIDDEN
 62
     7
370
     0
100
AcDbPolyline
 90
       22
 70
   128
 43
0.0
 10
163.1738309099
 20
118.0642193687
 10
163.2818921466
 20
117.7130677042
 10
163.4502655966
 20
117.4759509061
 10
163.6639905398
 20
117.3739378425
 10
163.9040765772
 20
117.4160928218
 10
164.1491910107
 20
117.5986701891
 10
164.3775543472
 20
117.9054471441
 10
164.5688755021
 20
118.309165208
 10
164.7061547513
 20
118.7739522593
 10
164.7771942309
 20
119.2585099286
 10
164.7756817715
 20
119.7197831407
 10
164.7017517617
 20
120.1167857464
 10
164.5619732074
 20
120.4142423219
 10
164.3687660464
 20
120.5857225452
 10
164.139297583
 20
120.6159896458
 10
163.8939570971
 20
120.5023542591
 10
163.6545441675
 20
120.2549133879
 10
163.4423316836
 20
119.8956532394
 10
163.276175656
 20
119.4564956544
 10
163.1708397769
 20
118.9764617116
 10
163.1356836013
 20
118.4982045333
 10
163.1738309099
 20
118.0642193687
  0
LWPOLYLINE
  5
FF
330
1F
100
AcDbEntity
  8
0
  6
HIDDEN
 62
     7
370
     0
100
AcDbPolyline
 90
       25
 70
   128
 43
0.0
 10
162.8173956155
 20
117.8379816082
 10
162.9332167602
 20
117.4396920811
 10
163.1093906181
 20
117.1494023616
 10
163.333911232
 20
116.9868952144
 10
163.5914778931
 20
116.9632452331
 10
163.8645378591
 20
117.0800641248
 10
164.1344825446
 20
117.329390875
 10
164.3829156654
 20
117.6942342778
 10
164.5929069148
 20
118.1497308582
 10
164.7501457362
 20
118.664839277
 10
164.8439165638
 20
119.2044557468
 10
164.8678290707
 20
119.7318062967
 10
164.8202536589
 20
120.2109528585
 10
164.7044325143
 20
120.6092423856
 10
164.5282586564
 20
120.8995321051
 10
164.3037380425
 20
121.0620392523
 10
164.0461713814
 20
121.0856892336
 10
163.7731114153
 20
120.9688703419
 10
163.5031667298
 20
120.7195435917
 10
163.2547336091
 20
120.3547001889
 10
163.0447423597
 20
119.8992036085
 10
162.8875035383
 20
119.3840951896
 10
162.7937327107
 20
118.8444787199
 10
162.7698202038
 20
118.3171281699
 10
162.8173956155
 20
117.8379816082
  0
LWPOLYLINE
  5
100
330
1F
100
AcDbEntity
  8
0
  6
HIDDEN
 62
     7
370
     0
100
AcDbPolyline
 90
       22
 70
   128
 43
0.0
 10
164.170618243
 20
99.4798497715
 10
164.3684101588
 20
99.6180138192
 10
164.5173689891
 20
99.8833310938
 10
164.6042590883
 20
100.2522269913
 10
164.6213598897
 20
100.6919234922
 10
164.567151912
 20
101.1633516328
 10
164.446451772
 20
101.6246229541
 10
164.2699842068
 20
102.0347514748
 10
164.0534291339
 20
102.3572954762
 10
163.816028422
 20
102.5635955082
 10
163.578876166
 20
102.6353209076
 10
163.3630443847
 20
102.5660985579
 10
163.187710679
 20
102.3620791687
 10
163.0684542181
 20
102.0413907581
 10
163.0158714619
 20
101.6325278986
 10
163.034634619
 20
101.1718198495
 10
163.1230765006
 20
100.7002025429
 10
163.2733386574
 20
100.2595812461
 10
163.4720696373
 20
99.8891070948
 10
163.7016113206
 20
99.6216983434
 10
163.9415679216
 20
99.4811154327
 10
164.170618243
 20
99.4798497715
  0
LWPOLYLINE
  5
101
330
1F
100
AcDbEntity
  8
0
  6
HIDDEN
 62
     7
370
     0
100
AcDbPolyline
 90
       24
 70
   128
 43
0.0
 10
164.4508353276
 20
99.1382403871
 10
164.6773001944
 20
99.2883561624
 10
164.8545581144
 20
99.5719098253
 10
164.9694626784
 20
99.9678714977
 10
165.0134919407
 20
100.4468745139
 10
164.9833804522
 20
100.9733934114
 10
164.8813614444
 20
101.5083786923
 10
164.7150012003
 20
102.0121529456
 10
164.4966378982
 20
102.4473535396
 10
164.2424665452
 20
102.7817036372
 10
163.9713378679
 20
102.9904060212
 10
163.7033602399
 20
103.0579821905
 10
163.458408336
 20
102.9794203298
 10
163.2546491183
 20
102.7605470128
 10
163.1071944758
 20
102.4175950723
 10
163.0269804449
 20
101.9759996847
 10
163.0199561331
 20
101.4685119598
 10
163.0866425017
 20
100.9327699406
 10
163.2220937277
 20
100.4085071617
 10
163.4162640133
 20
99.9346057951
 10
163.6547526368
 20
99.5462129372
 10
163.9198719878
 20
99.2721339096
 10
164.1919593771
 20
99.1326958998
 10
164.4508353276
 20
99.1382403871
  0
LWPOLYLINE
  5
102
330
1F
100
AcDbEntity
  8
0
  6
HIDDEN
 62
     7
370
     0
100
AcDbPolyline
 90
       24
 70
   128
 43
0.0
 10
167.9364432937
 20
99.8265274345
 10
168.1629081605
 20
99.9766432097
 10
168.3401660805
 20
100.2601968726
 10
168.4550706445
 20
100.656158545
 10
168.4990999068
 20
101.1351615612
 10
168.4689884183
 20
101.6616804587
 10
168.3669694105
 20
102.1966657396
 10
168.2006091664
 20
102.7004399929
 10
167.9822458643
 20
103.1356405869
 10
167.7280745113
 20
103.4699906846
 10
167.456945834
 20
103.6786930685
 10
167.188968206
 20
103.7462692378
 10
166.9440163021
 20
103.6677073771
 10
166.7402570844
 20
103.4488340602
 10
166.5928024419
 20
103.1058821196
 10
166.512588411
 20
102.664286732
 10
166.5055640992
 20
102.1567990071
 10
166.5722504678
 20
101.6210569879
 10
166.7077016938
 20
101.096794209
 10
166.9018719794
 20
100.6228928424
 10
167.1403606029
 20
100.2344999845
 10
167.4054799539
 20
99.9604209569
 10
167.6775673432
 20
99.8209829471
 10
167.9364432937
 20
99.8265274345
  0
LINE
  5
103
330
1F
100
AcDbEntity
  8
0
  6
HIDDEN
 62
     7
370
     0
100
AcDbLine
 10
164.1423986732
 20
101.7559983594
 30
0.0
 11
163.5665163975
 21
102.1744767884
 31
0.0
  0
LINE
  5
104
330
1F
100
AcDbEntity
  8
0
  6
HIDDEN
 62
     7
370
     0
100
AcDbLine
 10
163.2429423616
 20
101.4675214773
 30
0.0
 11
163.5665163975
 21
102.1744767884
 31
0.0
  0
LINE
  5
105
330
1F
100
AcDbEntity
  8
0
  6
HIDDEN
 62
     7
370
     0
100
AcDbLine
 10
163.4952506013
 20
100.3420877372
 30
0.0
 11
163.2429423616
 21
101.4675214773
 31
0.0
  0
LINE
  5
106
330
1F
100
AcDbEntity
  8
0
  6
HIDDEN
 62
     7
370
     0
100
AcDbLine
 10
163.4952506013
 20
100.3420877372
 30
0.0
 11
164.071132877
 21
99.9236093082
 31
0.0
  0
LINE
  5
107
330
1F
100
AcDbEntity
  8
0
  6
HIDDEN
 62
     7
370
     0
100
AcDbLine
 10
164.3947069129
 20
100.6305646193
 30
0.0
 11
164.071132877
 21
99.9236093082
 31
0.0
  0
LINE
  5
108
330
1F
100
AcDbEntity
  8
0
  6
HIDDEN
 62
     7
370
     0
100
AcDbLine
 10
164.3947069129
 20
100.6305646193
 30
0.0
 11
164.1423986732
 21
101.7559983594
 31
0.0
  0
LINE
  5
109
330
1F
100
AcDbEntity
  8
0
  6
HIDDEN
 62
     7
370
     0
100
AcDbLine
 10
166.5597704224
 20
101.0580897984
 30
0.0
 11
164.3947069129
 21
100.6305646193
 31
0.0
  0
LINE
  5
10A
330
1F
100
AcDbEntity
  8
0
  6
HIDDEN
 62
     7
370
     0
100
AcDbLine
 10
166.3074621826
 20
102.1835235385
 30
0.0
 11
164.1423986732
 21
101.7559983594
 31
0.0
  0
LINE
  5
10B
330
1F
100
AcDbEntity
  8
0
  6
HIDDEN
 62
     7
370
     0
100
AcDbLine
 10
165.6603141108
 20
100.7696129164
 30
0.0
 11
163.4952506013
 21
100.3420877372
 31
0.0
  0
LINE
  5
10C
330
1F
100
AcDbEntity
  8
0
  6
HIDDEN
 62
     7
370
     0
100
AcDbLine
 10
165.6603141108
 20
100.7696129164
 30
0.0
 11
166.2361963864
 21
100.3511344873
 31
0.0
  0
LINE
  5
10D
330
1F
100
AcDbEntity
  8
0
  6
HIDDEN
 62
     7
370
     0
100
AcDbLine
 10
166.2361963864
 20
100.3511344873
 30
0.0
 11
164.071132877
 21
99.9236093082
 31
0.0
  0
LINE
  5
10E
330
1F
100
AcDbEntity
  8
0
  6
HIDDEN
 62
     7
370
     0
100
AcDbLine
 10
165.408005871
 20
101.8950466565
 30
0.0
 11
165.7315799069
 21
102.6020019676
 31
0.0
  0
LINE
  5
10F
330
1F
100
AcDbEntity
  8
0
  6
HIDDEN
 62
     7
370
     0
100
AcDbLine
 10
165.408005871
 20
101.8950466565
 30
0.0
 11
163.2429423616
 21
101.4675214773
 31
0.0
  0
LINE
  5
110
330
1F
100
AcDbEntity
  8
0
  6
HIDDEN
 62
     7
370
     0
100
AcDbLine
 10
165.7315799069
 20
102.6020019676
 30
0.0
 11
163.5665163975
 21
102.1744767884
 31
0.0
  0
LWPOLYLINE
  5
111
330
1F
100
AcDbEntity
  8
0
  6
HIDDEN
 62
     7
370
     0
100
AcDbPolyline
 90
       19
 70
   128
 43
0.0
 10
168.4220833377
 20
100.6857756451
 10
168.5978815921
 20
100.8209147617
 10
168.7195322709
 20
101.0867012089
 10
168.7723625066
 20
101.4510772185
 10
168.7500001931
 20
101.8700936662
 10
168.6551425556
 20
102.2932109845
 10
168.4992308251
 20
102.66939498
 10
168.3010702571
 20
102.9532723112
 10
168.0845619409
 20
103.1106031822
 10
167.8758199747
 20
103.1224111681
 10
167.7000217202
 20
102.9872720515
 10
167.5783710415
 20
102.7214856044
 10
167.5255408058
 20
102.3571095947
 10
167.5479031192
 20
101.938093147
 10
167.6427607567
 20
101.5149758288
 10
167.7986724873
 20
101.1387918332
 10
167.9968330552
 20
100.854914502
 10
168.2133413714
 20
100.697583631
 10
168.4220833377
 20
100.6857756451
  0
LINE
  5
112
330
1F
100
AcDbEntity
  8
0
  6
HIDDEN
 62
     7
370
     0
100
AcDbLine
 10
165.6603141108
 20
100.7696129164
 30
0.0
 11
165.408005871
 21
101.8950466565
 31
0.0
  0
LINE
  5
113
330
1F
100
AcDbEntity
  8
0
  6
HIDDEN
 62
     7
370
     0
100
AcDbLine
 10
166.3074621826
 20
102.1835235385
 30
0.0
 11
165.7315799069
 21
102.6020019676
 31
0.0
  0
LINE
  5
114
330
1F
100
AcDbEntity
  8
0
  6
HIDDEN
 62
     7
370
     0
100
AcDbLine
 10
166.5597704224
 20
101.0580897984
 30
0.0
 11
166.3074621826
 21
102.1835235385
 31
0.0
  0
LINE
  5
115
330
1F
100
AcDbEntity
  8
0
  6
HIDDEN
 62
     7
370
     0
100
AcDbLine
 10
166.5597704224
 20
101.0580897984
 30
0.0
 11
166.2361963864
 21
100.3511344873
 31
0.0
  0
LWPOLYLINE
  5
116
330
1F
100
AcDbEntity
  8
0
  6
HIDDEN
 62
     7
370
     0
100
AcDbPolyline
 90
       24
 70
   128
 43
0.0
 10
167.15741246
 20
116.32901853
 10
166.9165694597
 20
116.4252557764
 10
166.7189547524
 20
116.6603617484
 10
166.5792245168
 20
117.0168997117
 10
166.5077419053
 20
117.4684268767
 10
166.5098084562
 20
117.981455539
 10
166.5852709029
 20
118.5179367098
 10
166.7285325409
 20
119.0380820348
 10
166.9289683099
 20
119.5033147148
 10
167.1717128058
 20
119.8791305703
 10
167.4387627799
 20
120.1376570584
 10
167.7103123572
 20
120.2597204522
 10
167.9662219479
 20
120.2362678683
 10
168.1875119084
 20
120.0690386774
 10
168.3577701745
 20
119.7704355036
 10
168.4643694696
 20
119.3626043784
 10
168.4994038116
 20
118.8757922705
 10
168.4602748637
 20
118.346103807
 10
168.3498846409
 20
117.8128235581
 10
168.176420281
 20
117.3155024802
 10
167.9527468421
 20
116.8910246026
 10
167.6954531598
 20
116.5708715076
 10
167.4236215297
 20
116.3787874857
 10
167.15741246
 20
116.32901853
  0
LWPOLYLINE
  5
117
330
1F
100
AcDbEntity
  8
0
  6
HIDDEN
 62
     7
370
     0
100
AcDbPolyline
 90
       19
 70
   128
 43
0.0
 10
167.9351890666
 20
116.9390069383
 10
167.7472094001
 20
117.0316183749
 10
167.6076857788
 20
117.2614651027
 10
167.5334468105
 20
117.6008242141
 10
167.5334468105
 20
118.0087639921
 10
167.6076857788
 20
118.4360808786
 10
167.7472094001
 20
118.8312341509
 10
167.9351890666
 20
119.1465624922
 10
168.1489516562
 20
119.344032651
 10
168.3627142457
 20
119.3998268117
 10
168.5506939122
 20
119.3072153752
 10
168.6902175335
 20
119.0773686474
 10
168.7644565018
 20
118.7380095359
 10
168.7644565018
 20
118.330069758
 10
168.6902175335
 20
117.9027528714
 10
168.5506939122
 20
117.5075995992
 10
168.3627142457
 20
117.1922712578
 10
168.1489516562
 20
116.994801099
 10
167.9351890666
 20
116.9390069383
  0
LWPOLYLINE
  5
118
330
1F
100
AcDbEntity
  8
0
  6
HIDDEN
 62
     7
370
     0
100
AcDbPolyline
 90
       24
 70
   128
 43
0.0
 10
163.6718044939
 20
117.0173055774
 10
163.4309614936
 20
117.1135428237
 10
163.2333467863
 20
117.3486487957
 10
163.0936165507
 20
117.705186759
 10
163.0221339393
 20
118.156713924
 10
163.0242004902
 20
118.6697425863
 10
163.0996629368
 20
119.2062237571
 10
163.2429245748
 20
119.7263690821
 10
163.4433603438
 20
120.1916017621
 10
163.6861048397
 20
120.5674176176
 10
163.9531548138
 20
120.8259441057
 10
164.2247043911
 20
120.9480074995
 10
164.4806139818
 20
120.9245549156
 10
164.7019039423
 20
120.7573257247
 10
164.8721622084
 20
120.4587225509
 10
164.9787615035
 20
120.0508914257
 10
165.0137958456
 20
119.5640793178
 10
164.9746668976
 20
119.0343908543
 10
164.8642766748
 20
118.5011106054
 10
164.6908123149
 20
118.0037895275
 10
164.467138876
 20
117.5793116499
 10
164.2098451938
 20
117.259158555
 10
163.9380135636
 20
117.067074533
 10
163.6718044939
 20
117.0173055774
  0
LINE
  5
119
330
1F
100
AcDbEntity
  8
0
  6
HIDDEN
 62
     7
370
     0
100
AcDbLine
 10
165.6127745472
 20
119.2083026659
 30
0.0
 11
166.1813535685
 21
119.7335460673
 31
0.0
  0
LINE
  5
11A
330
1F
100
AcDbEntity
  8
0
  6
HIDDEN
 62
     7
370
     0
100
AcDbLine
 10
165.4153091254
 20
118.0716986529
 30
0.0
 11
165.6127745472
 21
119.2083026659
 31
0.0
  0
LINE
  5
11B
330
1F
100
AcDbEntity
  8
0
  6
HIDDEN
 62
     7
370
     0
100
AcDbLine
 10
165.6127745472
 20
119.2083026659
 30
0.0
 11
163.4477110377
 21
119.6358278451
 31
0.0
  0
LINE
  5
11C
330
1F
100
AcDbEntity
  8
0
  6
HIDDEN
 62
     7
370
     0
100
AcDbLine
 10
165.4153091254
 20
118.0716986529
 30
0.0
 11
163.2502456159
 21
118.499223832
 31
0.0
  0
LINE
  5
11D
330
1F
100
AcDbEntity
  8
0
  6
HIDDEN
 62
     7
370
     0
100
AcDbLine
 10
165.4153091254
 20
118.0716986529
 30
0.0
 11
165.7864227249
 21
117.4603380411
 31
0.0
  0
LWPOLYLINE
  5
11E
330
1F
100
AcDbEntity
  8
0
  6
HIDDEN
 62
     7
370
     0
100
AcDbPolyline
 90
       22
 70
   128
 43
0.0
 10
163.5434984219
 20
117.4396992349
 10
163.3327620869
 20
117.5305397427
 10
163.1652145426
 20
117.7541222641
 10
163.0557431236
 20
118.0905805108
 10
163.0140748457
 20
118.5100186911
 10
163.0439121184
 20
118.975167882
 10
163.1426037691
 20
119.4446975366
 10
163.3013806114
 20
119.8768878846
 10
163.5061346262
 20
120.233336917
 10
163.7386725207
 20
120.4823725729
 10
163.9783322825
 20
120.6018669415
 10
164.20381909
 20
120.5812024238
 10
164.3950974509
 20
120.4222151527
 10
164.5351714433
 20
120.1390318451
 10
164.6115948784
 20
119.7568145806
 10
164.6175771985
 20
119.3095250403
 10
164.5525868483
 20
118.836906863
 10
164.4223985056
 20
118.3809542477
 10
164.238579976
 20
117.9821805852
 10
164.0174643424
 20
117.6760186653
 10
163.7786986993
 20
117.4896723183
 10
163.5434984219
 20
117.4396992349
  0
LINE
  5
11F
330
1F
100
AcDbEntity
  8
0
  6
HIDDEN
 62
     7
370
     0
100
AcDbLine
 10
163.2502456159
 20
118.499223832
 30
0.0
 11
163.6213592154
 21
117.8878632203
 31
0.0
  0
LINE
  5
120
330
1F
100
AcDbEntity
  8
0
  6
HIDDEN
 62
     7
370
     0
100
AcDbLine
 10
163.2502456159
 20
118.499223832
 30
0.0
 11
163.4477110377
 21
119.6358278451
 31
0.0
  0
LINE
  5
121
330
1F
100
AcDbEntity
  8
0
  6
HIDDEN
 62
     7
370
     0
100
AcDbLine
 10
163.4477110377
 20
119.6358278451
 30
0.0
 11
164.0162900591
 21
120.1610712464
 31
0.0
  0
LINE
  5
122
330
1F
100
AcDbEntity
  8
0
  6
HIDDEN
 62
     7
370
     0
100
AcDbLine
 10
166.552467168
 20
119.1221854555
 30
0.0
 11
164.3874036585
 21
119.5497106346
 31
0.0
  0
LINE
  5
123
330
1F
100
AcDbEntity
  8
0
  6
HIDDEN
 62
     7
370
     0
100
AcDbLine
 10
164.3874036585
 20
119.5497106346
 30
0.0
 11
164.0162900591
 21
120.1610712464
 31
0.0
  0
LINE
  5
124
330
1F
100
AcDbEntity
  8
0
  6
HIDDEN
 62
     7
370
     0
100
AcDbLine
 10
166.552467168
 20
119.1221854555
 30
0.0
 11
166.1813535685
 21
119.7335460673
 31
0.0
  0
LINE
  5
125
330
1F
100
AcDbEntity
  8
0
  6
HIDDEN
 62
     7
370
     0
100
AcDbLine
 10
166.1813535685
 20
119.7335460673
 30
0.0
 11
164.0162900591
 21
120.1610712464
 31
0.0
  0
LINE
  5
126
330
1F
100
AcDbEntity
  8
0
  6
HIDDEN
 62
     7
370
     0
100
AcDbLine
 10
166.3550017462
 20
117.9855814424
 30
0.0
 11
164.1899382367
 21
118.4131066216
 31
0.0
  0
LINE
  5
127
330
1F
100
AcDbEntity
  8
0
  6
HIDDEN
 62
     7
370
     0
100
AcDbLine
 10
164.1899382367
 20
118.4131066216
 30
0.0
 11
163.6213592154
 21
117.8878632203
 31
0.0
  0
LINE
  5
128
330
1F
100
AcDbEntity
  8
0
  6
HIDDEN
 62
     7
370
     0
100
AcDbLine
 10
165.7864227249
 20
117.4603380411
 30
0.0
 11
163.6213592154
 21
117.8878632203
 31
0.0
  0
LINE
  5
129
330
1F
100
AcDbEntity
  8
0
  6
HIDDEN
 62
     7
370
     0
100
AcDbLine
 10
166.3550017462
 20
117.9855814424
 30
0.0
 11
165.7864227249
 21
117.4603380411
 31
0.0
  0
LINE
  5
12A
330
1F
100
AcDbEntity
  8
0
  6
HIDDEN
 62
     7
370
     0
100
AcDbLine
 10
164.1899382367
 20
118.4131066216
 30
0.0
 11
164.3874036585
 21
119.5497106346
 31
0.0
  0
LINE
  5
12B
330
1F
100
AcDbEntity
  8
0
  6
HIDDEN
 62
     7
370
     0
100
AcDbLine
 10
166.3550017462
 20
117.9855814424
 30
0.0
 11
166.552467168
 21
119.1221854555
 31
0.0
  0
LWPOLYLINE
  5
12C
330
1F
100
AcDbEntity
  8
0
  6
HIDDEN
 62
     7
370
     0
100
AcDbPolyline
 90
       27
 70
   128
 43
0.0
 10
175.6157996632
 20
119.6244729423
 10
176.1297735453
 20
119.9202271149
 10
176.7041333001
 20
120.091803136
 10
177.3054992264
 20
120.129229631
 10
177.8989221222
 20
120.030331508
 10
178.4499144061
 20
119.8008563665
 10
178.9264544092
 20
119.4541404674
 10
179.3008473586
 20
119.0103336788
 10
179.5513348971
 20
118.4952284378
 10
179.6633595993
 20
117.9387607889
 10
179.6304109968
 20
117.373270609
 10
179.4544039426
 20
116.831622132
 10
179.1455673269
 20
116.3452939985
 10
178.7218496113
 20
115.942549832
 10
178.2078757291
 20
115.6467956594
 10
177.6335159743
 20
115.4752196382
 10
177.0321500481
 20
115.4377931433
 10
176.4387271522
 20
115.5366912663
 10
175.8877348684
 20
115.7661664078
 10
175.4111948653
 20
116.1128823069
 10
175.0368019159
 20
116.5566890955
 10
174.7863143774
 20
117.0717943365
 10
174.6742896752
 20
117.6282619854
 10
174.7072382777
 20
118.1937521653
 10
174.8832453319
 20
118.7354006423
 10
175.1920819476
 20
119.2217287758
 10
175.6157996632
 20
119.6244729423
  0
LWPOLYLINE
  5
12D
330
1F
100
AcDbEntity
  8
0
  6
HIDDEN
 62
     7
370
     0
100
AcDbPolyline
 90
       23
 70
   128
 43
0.0
 10
176.0817071554
 20
118.8156693683
 10
176.5121046729
 20
119.0512747149
 10
176.9957057363
 20
119.163392088
 10
177.4933318634
 20
119.1429384047
 10
177.964668345
 20
118.9915707008
 10
178.3715303024
 20
118.7215518875
 10
178.6809561996
 20
118.3547572831
 10
178.8678781907
 20
117.9209024051
 10
178.9171529674
 20
117.4551355955
 10
178.8247885806
 20
116.9951905111
 10
178.5982678435
 20
116.5783291673
 10
178.255942119
 20
116.238323191
 10
177.8255446015
 20
116.0027178444
 10
177.3419435382
 20
115.8906004713
 10
176.8443174111
 20
115.9110541546
 10
176.3729809295
 20
116.0624218585
 10
175.9661189721
 20
116.3324406718
 10
175.6566930748
 20
116.6992352762
 10
175.4697710838
 20
117.1330901542
 10
175.420496307
 20
117.5988569638
 10
175.5128606938
 20
118.0588020482
 10
175.739381431
 20
118.475663392
 10
176.0817071554
 20
118.8156693683
  0
LWPOLYLINE
  5
12E
330
1F
100
AcDbEntity
  8
0
  6
HIDDEN
 62
     7
370
     0
100
AcDbPolyline
 90
       27
 70
   128
 43
0.0
 10
175.6157996632
 20
120.9901864387
 10
176.1297735453
 20
121.2859406113
 10
176.7041333001
 20
121.4575166325
 10
177.3054992264
 20
121.4949431275
 10
177.8989221222
 20
121.3960450045
 10
178.4499144061
 20
121.1665698629
 10
178.9264544092
 20
120.8198539639
 10
179.3008473586
 20
120.3760471752
 10
179.5513348971
 20
119.8609419342
 10
179.6633595993
 20
119.3044742853
 10
179.6304109968
 20
118.7389841054
 10
179.4544039426
 20
118.1973356284
 10
179.1455673269
 20
117.7110074949
 10
178.7218496113
 20
117.3082633284
 10
178.2078757291
 20
117.0125091558
 10
177.6335159743
 20
116.8409331347
 10
177.0321500481
 20
116.8035066397
 10
176.4387271522
 20
116.9024047627
 10
175.8877348684
 20
117.1318799043
 10
175.4111948653
 20
117.4785958033
 10
175.0368019159
 20
117.922402592
 10
174.7863143774
 20
118.4375078329
 10
174.6742896752
 20
118.9939754818
 10
174.7072382777
 20
119.5594656617
 10
174.8832453319
 20
120.1011141387
 10
175.1920819476
 20
120.5874422722
 10
175.6157996632
 20
120.9901864387
  0
LINE
  5
12F
330
1F
100
AcDbEntity
  8
0
  6
HIDDEN
 62
     7
370
     0
100
AcDbLine
 10
177.7000601273
 20
119.8141795883
 30
0.0
 11
176.2721852504
 21
119.6159363591
 31
0.0
  0
LINE
  5
130
330
1F
100
AcDbEntity
  8
0
  6
HIDDEN
 62
     7
370
     0
100
AcDbLine
 10
177.7000601273
 20
119.8141795883
 30
0.0
 11
178.5966995141
 21
118.7512999389
 31
0.0
  0
LINE
  5
131
330
1F
100
AcDbEntity
  8
0
  6
HIDDEN
 62
     7
370
     0
100
AcDbLine
 10
177.7000601273
 20
119.8141795883
 30
0.0
 11
177.7000601273
 21
120.498219875
 31
0.0
  0
LINE
  5
132
330
1F
100
AcDbEntity
  8
0
  6
HIDDEN
 62
     7
370
     0
100
AcDbLine
 10
175.7409497603
 20
118.3548134804
 30
0.0
 11
176.2721852504
 21
119.6159363591
 31
0.0
  0
LINE
  5
133
330
1F
100
AcDbEntity
  8
0
  6
HIDDEN
 62
     7
370
     0
100
AcDbLine
 10
176.2721852504
 20
119.6159363591
 30
0.0
 11
176.2721852504
 21
120.2999766457
 31
0.0
  0
LINE
  5
134
330
1F
100
AcDbEntity
  8
0
  6
HIDDEN
 62
     7
370
     0
100
AcDbLine
 10
178.065464024
 20
117.4901770602
 30
0.0
 11
178.065464024
 21
118.1742173468
 31
0.0
  0
LINE
  5
135
330
1F
100
AcDbEntity
  8
0
  6
HIDDEN
 62
     7
370
     0
100
AcDbLine
 10
178.5966995141
 20
119.4353402255
 30
0.0
 11
178.065464024
 21
118.1742173468
 31
0.0
  0
LINE
  5
136
330
1F
100
AcDbEntity
  8
0
  6
HIDDEN
 62
     7
370
     0
100
AcDbLine
 10
178.5966995141
 20
118.7512999389
 30
0.0
 11
178.5966995141
 21
119.4353402255
 31
0.0
  0
LINE
  5
137
330
1F
100
AcDbEntity
  8
0
  6
HIDDEN
 62
     7
370
     0
100
AcDbLine
 10
178.5966995141
 20
118.7512999389
 30
0.0
 11
178.065464024
 21
117.4901770602
 31
0.0
  0
LINE
  5
138
330
1F
100
AcDbEntity
  8
0
  6
HIDDEN
 62
     7
370
     0
100
AcDbLine
 10
176.6375891471
 20
117.2919338309
 30
0.0
 11
176.6375891471
 21
117.9759741176
 31
0.0
  0
LINE
  5
139
330
1F
100
AcDbEntity
  8
0
  6
HIDDEN
 62
     7
370
     0
100
AcDbLine
 10
175.7409497603
 20
119.038853767
 30
0.0
 11
176.6375891471
 21
117.9759741176
 31
0.0
  0
LINE
  5
13A
330
1F
100
AcDbEntity
  8
0
  6
HIDDEN
 62
     7
370
     0
100
AcDbLine
 10
175.7409497603
 20
118.3548134804
 30
0.0
 11
175.7409497603
 21
119.038853767
 31
0.0
  0
LINE
  5
13B
330
1F
100
AcDbEntity
  8
0
  6
HIDDEN
 62
     7
370
     0
100
AcDbLine
 10
175.7409497603
 20
118.3548134804
 30
0.0
 11
176.6375891471
 21
117.2919338309
 31
0.0
  0
LINE
  5
13C
330
1F
100
AcDbEntity
  8
0
  6
HIDDEN
 62
     7
370
     0
100
AcDbLine
 10
176.6375891471
 20
117.9759741176
 30
0.0
 11
178.065464024
 21
118.1742173468
 31
0.0
  0
LINE
  5
13D
330
1F
100
AcDbEntity
  8
0
  6
HIDDEN
 62
     7
370
     0
100
AcDbLine
 10
176.6375891471
 20
117.2919338309
 30
0.0
 11
178.065464024
 21
117.4901770602
 31
0.0
  0
LWPOLYLINE
  5
13E
330
1F
100
AcDbEntity
  8
0
  6
HIDDEN
 62
     7
370
     0
100
AcDbPolyline
 90
       25
 70
   128
 43
0.0
 10
175.8922381086
 20
120.7503673946
 10
176.3525360109
 20
121.0092830086
 10
176.8684626341
 20
121.1474270744
 10
177.4048584315
 20
121.1553853024
 10
177.9251689158
 20
121.0326153525
 10
178.3939357875
 20
120.7874837938
 10
178.7792133589
 20
120.436695937
 10
179.0547456002
 20
120.0041573949
 10
179.2017554445
 20
119.5193449542
 10
179.2102244138
 20
119.0152977816
 10
179.079575362
 20
118.5263658589
 10
178.8187118059
 20
118.0858690887
 10
178.4454111659
 20
117.7238265979
 10
177.9851132636
 20
117.464910984
 10
177.4691866403
 20
117.3267669181
 10
176.932790843
 20
117.3188086901
 10
176.4124803586
 20
117.4415786401
 10
175.9437134869
 20
117.6867101987
 10
175.5584359156
 20
118.0374980555
 10
175.2829036743
 20
118.4700365977
 10
175.13589383
 20
118.9548490384
 10
175.1274248606
 20
119.458896211
 10
175.2580739125
 20
119.9478281337
 10
175.5189374685
 20
120.3883249039
 10
175.8922381086
 20
120.7503673946
  0
LINE
  5
13F
330
1F
100
AcDbEntity
  8
0
  6
HIDDEN
 62
     7
370
     0
100
AcDbLine
 10
175.7409497603
 20
119.038853767
 30
0.0
 11
176.2721852504
 21
120.2999766457
 31
0.0
  0
LINE
  5
140
330
1F
100
AcDbEntity
  8
0
  6
HIDDEN
 62
     7
370
     0
100
AcDbLine
 10
177.7000601273
 20
120.498219875
 30
0.0
 11
178.5966995141
 21
119.4353402255
 31
0.0
  0
LINE
  5
141
330
1F
100
AcDbEntity
  8
0
  6
HIDDEN
 62
     7
370
     0
100
AcDbLine
 10
177.7000601273
 20
120.498219875
 30
0.0
 11
176.2721852504
 21
120.2999766457
 31
0.0
  0
LINE
  5
142
330
1F
100
AcDbEntity
  8
0
  6
HIDDEN
 62
     7
370
     0
100
AcDbLine
 10
162.5688246372
 20
98.6616605628
 30
0.0
 11
164.2256463523
 21
98.9888255617
 31
0.0
  0
LINE
  5
143
330
1F
100
AcDbEntity
  8
0
  6
HIDDEN
 62
     7
370
     0
100
AcDbLine
 10
163.4120029222
 20
103.1092605349
 30
0.0
 11
162.5688246372
 21
102.9427619792
 31
0.0
  0
LINE
  5
144
330
1F
100
AcDbEntity
  8
0
  6
HIDDEN
 62
     7
370
     0
100
AcDbLine
 10
164.2803136316
 20
99.4583098965
 30
0.0
 11
175.720010942
 21
101.7172545514
 31
0.0
  0
LINE
  5
145
330
1F
100
AcDbEntity
  8
0
  6
HIDDEN
 62
     7
370
     0
100
AcDbLine
 10
175.718264594
 20
105.0806322495
 30
0.0
 11
163.6410223651
 21
102.6957945183
 31
0.0
  0
LINE
  5
146
330
1F
100
AcDbEntity
  8
0
  6
HIDDEN
 62
     7
370
     0
100
AcDbLine
 10
179.2688246372
 20
102.6833220593
 30
0.0
 11
179.2688246372
 21
109.1827458466
 31
0.0
  0
LINE
  5
147
330
1F
100
AcDbEntity
  8
0
  6
HIDDEN
 62
     7
370
     0
100
AcDbLine
 10
175.0688246372
 20
109.181926507
 30
0.0
 11
175.0688246372
 21
103.9218460545
 31
0.0
  0
ARC
  5
148
330
1F
100
AcDbEntity
  8
0
  6
HIDDEN
 62
     7
370
     0
100
AcDbCircle
 10
95.9688246372
 20
100.7367551408
 30
0.0
 40
0.7999999999999972
100
AcDbArc
 50
90.0
 51
180.0
  0
ARC
  5
149
330
1F
100
AcDbEntity
  8
0
  6
HIDDEN
 62
     7
370
     0
100
AcDbCircle
 10
95.9688246372
 20
119.3367551408
 30
0.0
 40
0.7999999999999972
100
AcDbArc
 50
180.0
 51
270.0
  0
ARC
  5
14A
330
1F
100
AcDbEntity
  8
0
  6
HIDDEN
 62
     7
370
     0
100
AcDbCircle
 10
103.9378845296
 20
101.7117551408
 30
0.0
 40
0.4000000000000244
100
AcDbArc
 50
270.0
 51
330.0
  0
ARC
  5
14B
330
1F
100
AcDbEntity
  8
0
  6
HIDDEN
 62
     7
370
     0
100
AcDbCircle
 10
103.9378845296
 20
118.3617551408
 30
0.0
 40
0.4000000000000244
100
AcDbArc
 50
30.0
 51
90.0
  0
LINE
  5
14C
330
1F
100
AcDbEntity
  8
0
  6
HIDDEN
 62
     7
370
     0
100
AcDbLine
 10
103.061197068
 20
101.3117551408
 30
0.0
 11
103.9378845296
 21
101.3117551408
 31
0.0
  0
LINE
  5
14D
330
1F
100
AcDbEntity
  8
0
  6
HIDDEN
 62
     7
370
     0
100
AcDbLine
 10
103.9378845296
 20
118.7617551408
 30
0.0
 11
103.061197068
 21
118.7617551408
 31
0.0
  0
ARC
  5
14E
330
1F
100
AcDbEntity
  8
0
  6
HIDDEN
 62
     7
370
     0
100
AcDbCircle
 10
103.061197068
 20
101.7117551408
 30
0.0
 40
0.3999999999999915
100
AcDbArc
 50
255.0
 51
270.0
  0
ARC
  5
14F
330
1F
100
AcDbEntity
  8
0
  6
HIDDEN
 62
     7
370
     0
100
AcDbCircle
 10
103.061197068
 20
118.3617551408
 30
0.0
 40
0.3999999999999915
100
AcDbArc
 50
90.0
 51
105.0
  0
LINE
  5
150
330
1F
100
AcDbEntity
  8
0
  6
HIDDEN
 62
     7
370
     0
100
AcDbLine
 10
102.9576694499
 20
118.7481254713
 30
0.0
 11
102.1688246372
 21
118.5367551408
 31
0.0
  0
LINE
  5
151
330
1F
100
AcDbEntity
  8
0
  6
HIDDEN
 62
     7
370
     0
100
AcDbLine
 10
102.1688246372
 20
101.5367551408
 30
0.0
 11
102.9576694499
 21
101.3253848103
 31
0.0
  0
LINE
  5
152
330
1F
100
AcDbEntity
  8
0
  6
HIDDEN
 62
     7
370
     0
100
AcDbLine
 10
104.2842946911
 20
101.5117551408
 30
0.0
 11
105.1647538516
 21
103.0367551408
 31
0.0
  0
LINE
  5
153
330
1F
100
AcDbEntity
  8
0
  6
HIDDEN
 62
     7
370
     0
100
AcDbLine
 10
105.1647538516
 20
117.0367551408
 30
0.0
 11
104.2842946911
 21
118.5617551408
 31
0.0
  0
LINE
  5
154
330
1F
100
AcDbEntity
  8
0
  6
HIDDEN
 62
     7
370
     0
100
AcDbLine
 10
95.9688246372
 20
101.5367551408
 30
0.0
 11
102.1688246372
 21
101.5367551408
 31
0.0
  0
LINE
  5
155
330
1F
100
AcDbEntity
  8
0
  6
HIDDEN
 62
     7
370
     0
100
AcDbLine
 10
102.1688246372
 20
118.5367551408
 30
0.0
 11
95.9688246372
 21
118.5367551408
 31
0.0
  0
LINE
  5
156
330
1F
100
AcDbEntity
  8
0
  6
HIDDEN
 62
     7
370
     0
100
AcDbLine
 10
183.5688246372
 20
79.5367634419
 30
0.0
 11
183.5688246372
 21
85.9367551408
 31
0.0
  0
ARC
  5
157
330
1F
100
AcDbEntity
  8
0
  6
HIDDEN
 62
     7
370
     0
100
AcDbCircle
 10
181.9688246372
 20
134.1367551408
 30
0.0
 40
1.599999999999994
100
AcDbArc
 50
270.0
 51
0.0
  0
LINE
  5
158
330
1F
100
AcDbEntity
  8
0
  6
HIDDEN
 62
     7
370
     0
100
AcDbLine
 10
183.5688246372
 20
134.1367551408
 30
0.0
 11
183.5688246372
 21
140.5366838446
 31
0.0
  0
ARC
  5
159
330
1F
100
AcDbEntity
  8
0
  6
HIDDEN
 62
     7
370
     0
100
AcDbCircle
 10
181.9688246372
 20
85.9367551408
 30
0.0
 40
1.599999999999994
100
AcDbArc
 50
0.0
 51
90.0
  0
ARC
  5
15A
330
1F
100
AcDbEntity
  8
0
  6
HIDDEN
 62
     7
370
     0
100
AcDbCircle
 10
186.8688246372
 20
116.7367551408
 30
0.0
 40
0.7999999999999972
100
AcDbArc
 50
90.0
 51
180.0
  0
ARC
  5
15B
330
1F
100
AcDbEntity
  8
0
  6
HIDDEN
 62
     7
370
     0
100
AcDbCircle
 10
186.8688246372
 20
103.3367551408
 30
0.0
 40
0.7999999999999972
100
AcDbArc
 50
180.0
 51
270.0
  0
LINE
  5
15C
330
1F
100
AcDbEntity
  8
0
  6
HIDDEN
 62
     7
370
     0
100
AcDbLine
 10
187.4635026392
 20
117.5367551408
 30
0.0
 11
186.8688246372
 21
117.5367551408
 31
0.0
  0
LINE
  5
15D
330
1F
100
AcDbEntity
  8
0
  6
HIDDEN
 62
     7
370
     0
100
AcDbLine
 10
186.8688246372
 20
102.5367551408
 30
0.0
 11
187.4635026392
 21
102.5367551408
 31
0.0
  0
ARC
  5
15E
330
1F
100
AcDbEntity
  8
0
  6
HIDDEN
 62
     7
370
     0
100
AcDbCircle
 10
187.4635026392
 20
116.7367551408
 30
0.0
 40
0.8000000000000046
100
AcDbArc
 50
75.0
 51
90.0
  0
ARC
  5
15F
330
1F
100
AcDbEntity
  8
0
  6
HIDDEN
 62
     7
370
     0
100
AcDbCircle
 10
187.4635026392
 20
103.3367551408
 30
0.0
 40
0.7999999999999908
100
AcDbArc
 50
270.0
 51
285.0
  0
LINE
  5
160
330
1F
100
AcDbEntity
  8
0
  6
HIDDEN
 62
     7
370
     0
100
AcDbLine
 10
187.6705578752
 20
102.5640144798
 30
0.0
 11
189.434850041
 21
103.0367551408
 31
0.0
  0
LINE
  5
161
330
1F
100
AcDbEntity
  8
0
  6
HIDDEN
 62
     7
370
     0
100
AcDbLine
 10
189.434850041
 20
117.0367551408
 30
0.0
 11
187.6705578752
 21
117.5094958018
 31
0.0
  0
LINE
  5
162
330
1F
100
AcDbEntity
  8
0
  6
HIDDEN
 62
     7
370
     0
100
AcDbLine
 10
195.6688246372
 20
117.0367551408
 30
0.0
 11
189.434850041
 21
117.0367551408
 31
0.0
  0
LINE
  5
163
330
1F
100
AcDbEntity
  8
0
  6
HIDDEN
 62
     7
370
     0
100
AcDbLine
 10
189.434850041
 20
103.0367551408
 30
0.0
 11
195.6688246372
 21
103.0367551408
 31
0.0
  0
LINE
  5
164
330
1F
100
AcDbEntity
  8
0
  6
HIDDEN
 62
     7
370
     0
100
AcDbLine
 10
138.1688246372
 20
103.0367551408
 30
0.0
 11
140.8726974229
 21
107.5367551408
 31
0.0
  0
LINE
  5
165
330
1F
100
AcDbEntity
  8
0
  6
HIDDEN
 62
     7
370
     0
100
AcDbLine
 10
140.8726974229
 20
112.5367551408
 30
0.0
 11
138.1688246372
 21
117.0367551408
 31
0.0
  0
LINE
  5
166
330
1F
100
AcDbEntity
  8
0
  6
HIDDEN
 62
     7
370
     0
100
AcDbLine
 10
105.1647538516
 20
103.0367551408
 30
0.0
 11
138.1688246372
 21
103.0367551408
 31
0.0
  0
LINE
  5
167
330
1F
100
AcDbEntity
  8
0
  6
HIDDEN
 62
     7
370
     0
100
AcDbLine
 10
138.1688246372
 20
117.0367551408
 30
0.0
 11
105.1647538516
 21
117.0367551408
 31
0.0
  0
LINE
  5
168
330
1F
100
AcDbEntity
  8
0
  6
HIDDEN
 62
     7
370
     0
100
AcDbLine
 10
183.5688237273
 20
140.5367549289
 30
0.0
 11
184.5688230966
 21
141.5367546756
 31
0.0
  0
LINE
  5
169
330
1F
100
AcDbEntity
  8
0
  6
HIDDEN
 62
     7
370
     0
100
AcDbLine
 10
184.5688309986
 20
78.5367540031
 30
0.0
 11
183.5688307497
 21
79.5367538077
 31
0.0
  0
LINE
  5
16A
330
1F
100
AcDbEntity
  8
0
  6
HIDDEN
 62
     7
370
     0
100
AcDbLine
 10
202.5688246372
 20
120.4397035557
 30
0.0
 11
202.1348409069
 21
120.0057199736
 31
0.0
  0
LINE
  5
16B
330
1F
100
AcDbEntity
  8
0
  6
HIDDEN
 62
     7
370
     0
100
AcDbLine
 10
202.1348403726
 20
100.0677912658
 30
0.0
 11
202.5688246372
 21
99.6338070933
 31
0.0
  0
LINE
  5
16C
330
1F
100
AcDbEntity
  8
0
  6
HIDDEN
 62
     7
370
     0
100
AcDbLine
 10
140.8726974229
 20
107.5367551408
 30
0.0
 11
186.0688246372
 21
107.5367551408
 31
0.0
  0
LINE
  5
16D
330
1F
100
AcDbEntity
  8
0
  6
HIDDEN
 62
     7
370
     0
100
AcDbLine
 10
186.0688246372
 20
112.5367551408
 30
0.0
 11
140.8726974229
 21
112.5367551408
 31
0.0
  0
LINE
  5
16E
330
1F
100
AcDbEntity
  8
0
  6
HIDDEN
 62
     7
370
     0
100
AcDbLine
 10
202.1417971085
 20
120.0117551408
 30
0.0
 11
195.6688246372
 21
120.0117551408
 31
0.0
  0
LINE
  5
16F
330
1F
100
AcDbEntity
  8
0
  6
HIDDEN
 62
     7
370
     0
100
AcDbLine
 10
195.6688246372
 20
100.0617551408
 30
0.0
 11
202.1417963816
 21
100.0617551408
 31
0.0
  0
LINE
  5
170
330
1F
100
AcDbEntity
  8
0
  6
HIDDEN
 62
     7
370
     0
100
AcDbLine
 10
179.2688246372
 20
110.8915837746
 30
0.0
 11
179.2688246372
 21
119.1405313565
 31
0.0
  0
LINE
  5
171
330
1F
100
AcDbEntity
  8
0
  6
HIDDEN
 62
     7
370
     0
100
AcDbLine
 10
175.0688246372
 20
116.152682144
 30
0.0
 11
175.0688246372
 21
110.890764435
 31
0.0
  0
LINE
  5
172
330
1F
100
AcDbEntity
  8
0
  6
HIDDEN
 62
     7
370
     0
100
AcDbLine
 10
175.0688246372
 20
119.1405313565
 30
0.0
 11
175.0688246372
 21
117.4535629169
 31
0.0
  0
LINE
  5
173
330
1F
100
AcDbEntity
  8
0
  6
HIDDEN
 62
     7
370
     0
100
AcDbLine
 10
163.6410223651
 20
117.3777157633
 30
0.0
 11
175.718214041
 21
114.9928880146
 31
0.0
  0
LINE
  5
174
330
1F
100
AcDbEntity
  8
0
  6
HIDDEN
 62
     7
370
     0
100
AcDbLine
 10
175.71975107
 20
118.356307046
 30
0.0
 11
164.2803136316
 21
120.6152003851
 31
0.0
  0
LINE
  5
175
330
1F
100
AcDbEntity
  8
0
  6
HIDDEN
 62
     7
370
     0
100
AcDbLine
 10
162.5688246372
 20
117.1307483024
 30
0.0
 11
163.4120029222
 21
116.9642497467
 31
0.0
  0
LINE
  5
176
330
1F
100
AcDbEntity
  8
0
  6
HIDDEN
 62
     7
370
     0
100
AcDbLine
 10
164.2256463523
 20
121.08468472
 30
0.0
 11
162.5688246372
 21
121.4118497188
 31
0.0
  0
LINE
  5
177
330
1F
100
AcDbEntity
  8
0
  6
HIDDEN
 62
     7
370
     0
100
AcDbLine
 10
163.0138246372
 20
101.679945071
 30
0.0
 11
163.0138246372
 21
101.525922042
 31
0.0
  0
LINE
  5
178
330
1F
100
AcDbEntity
  8
0
  6
HIDDEN
 62
     7
370
     0
100
AcDbLine
 10
163.2555128836
 20
100.301969797
 30
0.0
 11
163.3140584836
 21
100.1595074996
 31
0.0
  0
LINE
  5
179
330
1F
100
AcDbEntity
  8
0
  6
HIDDEN
 62
     7
370
     0
100
AcDbLine
 10
164.4012738896
 20
99.1254369135
 30
0.0
 11
167.8868818557
 21
99.8137239608
 31
0.0
  0
LINE
  5
17A
330
1F
100
AcDbEntity
  8
0
  6
HIDDEN
 62
     7
370
     0
100
AcDbLine
 10
167.1119833509
 20
103.7379477449
 30
0.0
 11
163.6263753848
 21
103.0496606976
 31
0.0
  0
LINE
  5
17B
330
1F
100
AcDbEntity
  8
0
  6
HIDDEN
 62
     7
370
     0
100
AcDbLine
 10
168.3181214326
 20
100.2116343379
 30
0.0
 11
168.6606321744
 21
100.9264674598
 31
0.0
  0
LINE
  5
17C
330
1F
100
AcDbEntity
  8
0
  6
HIDDEN
 62
     7
370
     0
100
AcDbLine
 10
168.2506214168
 20
103.002834825
 30
0.0
 11
167.6621042204
 21
103.5338221223
 31
0.0
  0
LINE
  5
17D
330
1F
100
AcDbEntity
  8
0
  6
HIDDEN
 62
     7
370
     0
100
AcDbLine
 10
167.6621042204
 20
116.5396881594
 30
0.0
 11
168.2506214168
 21
117.0706754566
 31
0.0
  0
LINE
  5
17E
330
1F
100
AcDbEntity
  8
0
  6
HIDDEN
 62
     7
370
     0
100
AcDbLine
 10
168.6606321744
 20
119.1470428218
 30
0.0
 11
168.3181214326
 21
119.8618759437
 31
0.0
  0
LINE
  5
17F
330
1F
100
AcDbEntity
  8
0
  6
HIDDEN
 62
     7
370
     0
100
AcDbLine
 10
163.6263753848
 20
117.0238495841
 30
0.0
 11
167.1119833509
 21
116.3355625368
 31
0.0
  0
LINE
  5
180
330
1F
100
AcDbEntity
  8
0
  6
HIDDEN
 62
     7
370
     0
100
AcDbLine
 10
167.8868818557
 20
120.2597863208
 30
0.0
 11
164.4012738896
 21
120.9480733681
 31
0.0
  0
LINE
  5
181
330
1F
100
AcDbEntity
  8
0
  6
HIDDEN
 62
     7
370
     0
100
AcDbLine
 10
163.3140584836
 20
119.9140027821
 30
0.0
 11
163.2555128836
 21
119.7715404846
 31
0.0
  0
LINE
  5
182
330
1F
100
AcDbEntity
  8
0
  6
HIDDEN
 62
     7
370
     0
100
AcDbLine
 10
163.0138246372
 20
118.5475882396
 30
0.0
 11
163.0138246372
 21
118.3935652106
 31
0.0
  0
LINE
  5
183
330
1F
100
AcDbEntity
  8
0
  6
HIDDEN
 62
     7
370
     0
100
AcDbLine
 10
174.6688246372
 20
119.1492248836
 30
0.0
 11
174.6688246372
 21
117.7835113871
 31
0.0
  0
LINE
  5
184
330
1F
100
AcDbEntity
  8
0
  6
HIDDEN
 62
     7
370
     0
100
AcDbLine
 10
179.6688246372
 20
117.7835113871
 30
0.0
 11
179.6688246372
 21
119.1492248836
 31
0.0
  0
DIMENSION
  5
185
330
1F
100
AcDbEntity
  8
VERMASSUNG
100
AcDbDimension
  2
_D
 10
208.7284818115
 20
103.0367551408
 30
0.0
 11
208.7284818115
 21
110.0367551408
 31
0.0
 70
   160
  1
%%c<>
 71
     2
 42
-1.0
  3
SLDDIMSTYLE0
100
AcDbAlignedDimension
 13
195.6688246372
 23
117.0367551408
 33
0.0
 14
195.6688246372
 24
103.0367551408
 34
0.0
 50
90.0
100
AcDbRotatedDimension
  0
DIMENSION
  5
191
330
1F
100
AcDbEntity
  8
VERMASSUNG
100
AcDbDimension
  2
_D_1
 10
214.9284818115
 20
97.5367551408
 30
0.0
 11
214.9284818115
 21
110.0367551408
 31
0.0
 70
   160
  1
ST2 %%c<>
 71
     2
 42
-1.0
  3
SLDDIMSTYLE0
100
AcDbAlignedDimension
 13
202.3688246372
 23
122.5367551408
 33
0.0
 14
202.3688246372
 24
97.5367551408
 34
0.0
 50
90.0
100
AcDbRotatedDimension
  0
DIMENSION
  5
19D
330
1F
100
AcDbEntity
  8
VERMASSUNG
100
AcDbDimension
  2
_D_2
 10
202.5688246372
 20
145.1723700975
 30
0.0
 11
195.0688246372
 21
145.1723700975
 31
0.0
 70
   160
  1
(<>)
 71
     2
 42
-1.0
  3
SLDDIMSTYLE0
100
AcDbAlignedDimension
 13
187.5688246372
 23
140.5367551408
 33
0.0
 14
202.5688246372
 24
122.3367551408
 34
0.0
100
AcDbRotatedDimension
  0
DIMENSION
  5
1A9
330
1F
100
AcDbEntity
  8
VERMASSUNG
100
AcDbDimension
  2
_D_3
 10
202.5688246372
 20
151.1723700975
 30
0.0
 11
181.5688246372
 21
151.1723700975
 31
0.0
 70
   160
  1
<>
 71
     2
 42
-1.0
  3
SLDDIMSTYLE0
100
AcDbAlignedDimension
 13
160.5688246372
 23
132.2617551408
 33
0.0
 14
202.5688246372
 24
122.3367551408
 34
0.0
100
AcDbRotatedDimension
  0
DIMENSION
  5
1B3
330
1F
100
AcDbEntity
  8
VERMASSUNG
100
AcDbDimension
  2
_D_4
 10
202.5688246372
 20
157.1723700975
 30
0.0
 11
148.8688246372
 21
157.1723700975
 31
0.0
 70
   160
  1
(<>)
 71
     2
 42
-1.0
  3
SLDDIMSTYLE0
100
AcDbAlignedDimension
 13
95.1688246372
 23
121.8595107378
 33
0.0
 14
202.5688246372
 24
122.3367551408
 34
0.0
100
AcDbRotatedDimension
  0
DIMENSION
  5
1BF
330
1F
100
AcDbEntity
  8
VERMASSUNG
100
AcDbDimension
  2
_D_5
 10
89.2425869104
 20
78.5367551408
 30
0.0
 11
89.2425869104
 21
110.0367551408
 31
0.0
 70
   160
  1
MAS BT 40 %%c<>
 71
     2
 42
-1.0
  3
SLDDIMSTYLE0
100
AcDbAlignedDimension
 13
184.5688204932
 23
141.5367551408
 33
0.0
 14
184.5688254033
 24
78.5367551408
 34
0.0
 50
90.0
100
AcDbRotatedDimension
  0
LINE
  5
1CB
330
1F
100
AcDbEntity
  8
VERMASSUNG
  6
CENTERX2
370
     0
100
AcDbLine
 10
93.740543765
 20
110.0367551408
 30
0.0
 11
203.3199754953
 21
110.0367551408
 31
0.0
  0
LINE
  5
1CC
330
1F
100
AcDbEntity
  8
VERMASSUNG
  6
CENTERX2
370
     0
100
AcDbLine
 10
161.9985561063
 20
119.3839073266
 30
0.0
 11
177.6831128786
 21
116.2867497076
 31
0.0
  0
LINE
  5
1CD
330
1F
100
AcDbEntity
  8
VERMASSUNG
  6
CENTERX2
370
     0
100
AcDbLine
 10
161.9985561063
 20
100.689602955
 30
0.0
 11
177.6831128786
 21
103.7867605741
 31
0.0
  0
LINE
  5
1CE
330
1F
100
AcDbEntity
  8
0
  6
Continuous
 62
     7
370
    15
100
AcDbLine
 10
260.4697234289
 20
47.1726260088
 30
0.0
 11
260.3813207191
 21
47.2236763957
 31
0.0
  0
LINE
  5
1CF
330
1F
100
AcDbEntity
  8
0
  6
Continuous
 62
     7
370
    15
100
AcDbLine
 10
258.7900719438
 20
47.2236763957
 30
0.0
 11
258.7016692341
 21
47.1726260088
 31
0.0
  0
LINE
  5
1D0
330
1F
100
AcDbEntity
  8
0
  6
Continuous
 62
     7
370
    15
100
AcDbLine
 10
260.8356963315
 20
46.5603862614
 30
0.0
 11
260.8356963315
 21
46.6624538629
 31
0.0
  0
LINE
  5
1D1
330
1F
100
AcDbEntity
  8
0
  6
Continuous
 62
     7
370
    15
100
AcDbLine
 10
258.3356963315
 20
46.6624538629
 30
0.0
 11
258.3356963315
 21
46.5603862614
 31
0.0
  0
SPLINE
  5
1D2
330
1F
100
AcDbEntity
  8
0
  6
Continuous
 62
     7
370
    15
100
AcDbSpline
210
0.0
220
0.0
230
1.0
 70
     8
 71
     3
 72
    22
 73
    18
 74
     0
 42
0.000000001
 43
0.00000001
 40
0.0
 40
0.0
 40
0.0
 40
0.0
 40
0.0340920374294183
 40
0.1036214054467213
 40
0.1735483108989592
 40
0.2439153562202769
 40
0.3146861377238017
 40
0.3857758098876685
 40
0.4570845918901294
 40
0.5285219036595121
 40
0.6000177148576775
 40
0.6715175992249145
 40
0.7429926266269369
 40
0.8144311213845657
 40
0.8858295643053238
 40
0.9571895676225854
 40
1.0
 40
1.0
 40
1.0
 40
1.0
 10
249.8035750719151
 20
29.37923491893107
 30
0.0
 10
249.9227034992916
 20
29.34604438961381
 30
0.0
 10
250.2847896638092
 20
29.24516308257856
 30
0.0
 10
250.9296461735901
 20
29.17332598268973
 30
0.0
 10
251.7307883299628
 20
29.15915624103364
 30
0.0
 10
252.5626084790045
 20
29.24035536335682
 30
0.0
 10
253.4175900964363
 20
29.4107735320347
 30
0.0
 10
254.2908946204598
 20
29.67130006874068
 30
0.0
 10
255.1764804949548
 20
30.01988968782839
 30
0.0
 10
256.06845483055
 20
30.45427408595558
 30
0.0
 10
256.9608976814655
 20
30.9713670215393
 30
0.0
 10
257.8481095658095
 20
31.56749369360638
 30
0.0
 10
258.7244095245046
 20
32.23878104817224
 30
0.0
 10
259.5849637203584
 20
32.97999651857955
 30
0.0
 10
260.4227265225528
 20
33.78927387397268
 30
0.0
 10
261.1308469007921
 20
34.53583215414339
 30
0.0
 10
261.5445801823091
 20
35.03258230965196
 30
0.0
 10
261.699717548326
 20
35.21884847226643
 30
0.0
  0
SPLINE
  5
1D3
330
1F
100
AcDbEntity
  8
0
  6
Continuous
 62
     7
370
    15
100
AcDbSpline
210
0.0
220
0.0
230
1.0
 70
     8
 71
     3
 72
    22
 73
    18
 74
     0
 42
0.000000001
 43
0.00000001
 40
0.0
 40
0.0
 40
0.0
 40
0.0
 40
0.0702118428231094
 40
0.1416770024643914
 40
0.2131856994055444
 40
0.2847445718665468
 40
0.3563580928848333
 40
0.4280268942897711
 40
0.4997451769143016
 40
0.5714969513931665
 40
0.6432390937439375
 40
0.7149095613129893
 40
0.7864234732801598
 40
0.857674943563256
 40
0.9285541811098833
 40
0.9989793195779181
 40
1.0
 40
1.0
 40
1.0
 40
1.0
 10
266.2434742185509
 20
43.09244448826936
 30
0.0
 10
266.3730405933661
 20
43.46532813677633
 30
0.0
 10
266.6344861681566
 20
44.21775159504603
 30
0.0
 10
266.9471309168565
 20
45.34674040348523
 30
0.0
 10
267.1997469964176
 20
46.47164704783392
 30
0.0
 10
267.3828606597007
 20
47.57949685964014
 30
0.0
 10
267.4966276509924
 20
48.66352754240671
 30
0.0
 10
267.5395447100516
 20
49.7171851159961
 30
0.0
 10
267.5109972111217
 20
50.73400729148238
 30
0.0
 10
267.410617429662
 20
51.70761768658922
 30
0.0
 10
267.2384511798148
 20
52.63161306575201
 30
0.0
 10
266.995288600035
 20
53.49996106837308
 30
0.0
 10
266.6817178435485
 20
54.30561788115946
 30
0.0
 10
266.3022279590551
 20
55.04603092969435
 30
0.0
 10
265.8505694375483
 20
55.70326771832735
 30
0.0
 10
265.5229555136876
 20
56.11782121009712
 30
0.0
 10
265.3310776836953
 20
56.28918459338913
 30
0.0
 10
265.3283365023701
 20
56.2916327037629
 30
0.0
  0
LINE
  5
1D4
330
1F
100
AcDbEntity
  8
0
  6
Continuous
 62
     7
370
    15
100
AcDbLine
 10
246.823460687
 20
30.8425823441
 30
0.0
 11
248.3702567708
 21
29.9496359718
 31
0.0
  0
LINE
  5
1D5
330
1F
100
AcDbEntity
  8
0
  6
Continuous
 62
     7
370
    15
100
AcDbLine
 10
264.1189768099
 20
57.2301751368
 30
0.0
 11
262.572180726
 21
58.1231215091
 31
0.0
  0
LINE
  5
1D6
330
1F
100
AcDbEntity
  8
0
  6
Continuous
 62
     7
370
    15
100
AcDbLine
 10
259.0189691506
 20
60.1743468901
 30
0.0
 11
255.9872488262
 21
61.9245217798
 31
0.0
  0
LINE
  5
1D7
330
1F
100
AcDbEntity
  8
0
  6
Continuous
 62
     7
370
    15
100
AcDbLine
 10
261.8314786413
 20
35.2621281597
 30
0.0
 11
261.902177827
 21
35.3029551998
 31
0.0
  0
LINE
  5
1D8
330
1F
100
AcDbEntity
  8
0
  6
Continuous
 62
     7
370
    15
100
AcDbLine
 10
266.2501777441
 20
42.8347280509
 30
0.0
 11
266.2501777441
 21
42.9163688621
 31
0.0
  0
LINE
  5
1D9
330
1F
100
AcDbEntity
  8
0
  6
Continuous
 62
     7
370
    15
100
AcDbLine
 10
264.9555064012
 20
45.7778989025
 30
0.0
 11
261.1371297828
 21
47.9822008044
 31
0.0
  0
LINE
  5
1DA
330
1F
100
AcDbEntity
  8
0
  6
Continuous
 62
     7
370
    15
100
AcDbLine
 10
254.8876377038
 20
37.1565900247
 30
0.0
 11
258.7060143222
 21
34.9522881227
 31
0.0
  0
SPLINE
  5
1DB
330
1F
100
AcDbEntity
  8
0
  6
Continuous
 62
     7
370
    15
100
AcDbSpline
210
0.0
220
0.0
230
1.0
 70
     8
 71
     3
 72
    32
 73
    28
 74
     0
 42
0.000000001
 43
0.00000001
 40
0.0
 40
0.0
 40
0.0
 40
0.0
 40
0.039686086866924
 40
0.0802084941032467
 40
0.1209757388025919
 40
0.1619966363227483
 40
0.2032388833410515
 40
0.2446484143183226
 40
0.2861677083573673
 40
0.3277474586022587
 40
0.3693510886556393
 40
0.4109492245256536
 40
0.4525300997714918
 40
0.4940886530680208
 40
0.535623943373902
 40
0.5771375821956114
 40
0.6186326922408746
 40
0.6601132530203758
 40
0.701583710261072
 40
0.7430487560308933
 40
0.7845132136057937
 40
0.8259811222184036
 40
0.8674566522760271
 40
0.9089447648187297
 40
0.9504503786323657
 40
0.9919782475168395
 40
1.0
 40
1.0
 40
1.0
 40
1.0
 10
254.6858870511994
 20
62.47089767624124
 30
0.0
 10
254.4444410985479
 20
62.5299894840512
 30
0.0
 10
253.9564611086226
 20
62.64941836435798
 30
0.0
 10
253.1778067812384
 20
62.71575071907219
 30
0.0
 10
252.3661190896502
 20
62.69891920029942
 30
0.0
 10
251.5264866688396
 20
62.58965933901331
 30
0.0
 10
250.6650598661126
 20
62.39052390168378
 30
0.0
 10
249.7872307412395
 20
62.10191541022596
 30
0.0
 10
248.8989781826368
 20
61.72586061956612
 30
0.0
 10
248.0062180030635
 20
61.26492441104386
 30
0.0
 10
247.1148181914683
 20
60.72238043640328
 30
0.0
 10
246.230455202602
 20
60.10200528941611
 30
0.0
 10
245.3586150464195
 20
59.40801064538454
 30
0.0
 10
244.5045701933
 20
58.64494907958961
 30
0.0
 10
243.6734464106368
 20
57.81772602011323
 30
0.0
 10
242.8702205386685
 20
56.93158118186459
 30
0.0
 10
242.0997070216633
 20
55.99206805823555
 30
0.0
 10
241.3665375486614
 20
55.00502989854981
 30
0.0
 10
240.6751394025258
 20
53.97657210023225
 30
0.0
 10
240.0297039248219
 20
52.91302850970589
 30
0.0
 10
239.434191018242
 20
51.82093915768095
 30
0.0
 10
238.8922104160186
 20
50.70698987919546
 30
0.0
 10
238.4073435662747
 20
49.57804647743811
 30
0.0
 10
237.9818242112232
 20
48.44079815924518
 30
0.0
 10
237.621376887316
 20
47.30285761338907
 30
0.0
 10
237.3989934796571
 20
46.47378419788166
 30
0.0
 10
237.3017958969802
 20
46.02760887952058
 30
0.0
 10
237.2860602580656
 20
45.95537607795318
 30
0.0
  0
SPLINE
  5
1DC
330
1F
100
AcDbEntity
  8
0
  6
Continuous
 62
     7
370
    15
100
AcDbSpline
210
0.0
220
0.0
230
1.0
 70
     8
 71
     3
 72
    20
 73
    16
 74
     0
 42
0.000000001
 43
0.00000001
 40
0.0
 40
0.0
 40
0.0
 40
0.0
 40
0.0142203051644412
 40
0.1028837716999606
 40
0.191709167755183
 40
0.2805526688487338
 40
0.3692677925376684
 40
0.4577352311235446
 40
0.5458502848526934
 40
0.6335519653454713
 40
0.7209129857959857
 40
0.8082371887481241
 40
0.8962946535623282
 40
0.9868621587903251
 40
1.0
 40
1.0
 40
1.0
 40
1.0
 10
259.6089677315232
 20
40.45437141368395
 30
0.0
 10
259.6190206811848
 20
40.48288478807917
 30
0.0
 10
259.6917536757257
 20
40.68917877880232
 30
0.0
 10
259.8672475431549
 20
41.07268645205995
 30
0.0
 10
260.1537950202833
 20
41.58668905194103
 30
0.0
 10
260.4876368048646
 20
42.06806098440573
 30
0.0
 10
260.8554001586714
 20
42.50259730791236
 30
0.0
 10
261.2465947241186
 20
42.87791657655183
 30
0.0
 10
261.6485172675698
 20
43.18368439860112
 30
0.0
 10
262.0482279330209
 20
43.4124707537726
 30
0.0
 10
262.4321191080297
 20
43.55925620509691
 30
0.0
 10
262.7892728870943
 20
43.62584969952082
 30
0.0
 10
263.1057046531152
 20
43.60621183991116
 30
0.0
 10
263.3112638432337
 20
43.55902035532428
 30
0.0
 10
263.4000684982125
 20
43.49519867746569
 30
0.0
 10
263.4113186554692
 20
43.4871134716567
 30
0.0
  0
LINE
  5
1DD
330
1F
100
AcDbEntity
  8
0
  6
Continuous
 62
     7
370
    15
100
AcDbLine
 10
259.5566341459
 20
37.8044660028
 30
0.0
 11
259.5203949352
 21
37.8677100233
 31
0.0
  0
SPLINE
  5
1DE
330
1F
100
AcDbEntity
  8
0
  6
Continuous
 62
     7
370
    15
100
AcDbSpline
210
0.0
220
0.0
230
1.0
 70
     8
 71
     3
 72
    10
 73
     6
 74
     0
 42
0.000000001
 43
0.00000001
 40
0.0
 40
0.0
 40
0.0
 40
0.0
 40
0.4680543378147877
 40
0.9647355213495363
 40
1.0
 40
1.0
 40
1.0
 40
1.0
 10
259.967352709951
 20
37.40638067116051
 30
0.0
 10
259.8939967382846
 20
37.45108275911359
 30
0.0
 10
259.7427982430412
 20
37.54322097607396
 30
0.0
 10
259.6171011714194
 20
37.6981136811423
 30
0.0
 10
259.5603934900291
 20
37.79785388694843
 30
0.0
 10
259.556634145867
 20
37.8044660028247
 30
0.0
  0
LINE
  5
1DF
330
1F
100
AcDbEntity
  8
0
  6
Continuous
 62
     7
370
    15
100
AcDbLine
 10
246.9771241334
 20
60.612001981
 30
0.0
 11
227.0877511488
 21
67.7793436172
 31
0.0
  0
LINE
  5
1E0
330
1F
100
AcDbEntity
  8
0
  6
Continuous
 62
     7
370
    15
100
AcDbLine
 10
220.7162817374
 20
56.7424390062
 30
0.0
 11
239.7441558237
 21
40.6754594288
 31
0.0
  0
LINE
  5
1E1
330
1F
100
AcDbEntity
  8
0
  6
Continuous
 62
     7
370
    15
100
AcDbLine
 10
240.2385287872
 20
34.6439826148
 30
0.0
 11
243.2702491115
 21
32.8938077251
 31
0.0
  0
SPLINE
  5
1E2
330
1F
100
AcDbEntity
  8
0
  6
Continuous
 62
     7
370
    15
100
AcDbSpline
210
0.0
220
0.0
230
1.0
 70
     8
 71
     3
 72
    13
 73
     9
 74
     0
 42
0.000000001
 43
0.00000001
 40
0.0
 40
0.0
 40
0.0
 40
0.0
 40
0.0737735013221148
 40
0.2979980693714442
 40
0.5216271021273152
 40
0.7441065526486939
 40
0.9651709677155685
 40
1.0
 40
1.0
 40
1.0
 40
1.0
 10
237.2752036909506
 20
38.71061221790846
 30
0.0
 10
237.3026109487322
 20
38.61638750380764
 30
0.0
 10
237.413318855492
 20
38.23577952959038
 30
0.0
 10
237.6579333819826
 20
37.61214383529861
 30
0.0
 10
238.0323789861766
 20
36.86724849885721
 30
0.0
 10
238.4796969115
 20
36.20443290524199
 30
0.0
 10
238.8313875431438
 20
35.76185591394697
 30
0.0
 10
239.0504115441121
 20
35.56619137061931
 30
0.0
 10
239.0802223660763
 20
35.53955994739604
 30
0.0
  0
SPLINE
  5
1E3
330
1F
100
AcDbEntity
  8
0
  6
Continuous
 62
     7
370
    15
100
AcDbSpline
210
0.0
220
0.0
230
1.0
 70
     8
 71
     3
 72
    25
 73
    21
 74
     0
 42
0.000000001
 43
0.00000001
 40
0.0
 40
0.0
 40
0.0
 40
0.0
 40
0.0417133444629357
 40
0.095745955801648
 40
0.1507790166833663
 40
0.2069080436821817
 40
0.263881935363957
 40
0.3213220295400791
 40
0.3789075809115738
 40
0.4364375034427846
 40
0.4938660973713808
 40
0.551197450601301
 40
0.6084589326429781
 40
0.665687773351079
 40
0.722925255305239
 40
0.7802028742284502
 40
0.837562150351074
 40
0.8950467017984702
 40
0.9526954223409108
 40
1.0
 40
1.0
 40
1.0
 40
1.0
 10
226.9276208048104
 20
67.82265010376767
 30
0.0
 10
226.8026355448551
 20
67.85633379365893
 30
0.0
 10
226.5157529337959
 20
67.93364902994817
 30
0.0
 10
226.0305700249131
 20
67.94777350719735
 30
0.0
 10
225.4861487804591
 20
67.88398897693513
 30
0.0
 10
224.9210118644409
 20
67.72719566539341
 30
0.0
 10
224.344512200387
 20
67.48213924420543
 30
0.0
 10
223.7659853800509
 20
67.15131140873567
 30
0.0
 10
223.1956423533501
 20
66.7409778769312
 30
0.0
 10
222.642789061265
 20
66.25858945601357
 30
0.0
 10
222.1157700855289
 20
65.71247692242696
 30
0.0
 10
221.6220771556682
 20
65.1113538655936
 30
0.0
 10
221.1686802849327
 20
64.46444273822972
 30
0.0
 10
220.7620538947985
 20
63.78142235980941
 30
0.0
 10
220.4081102929172
 20
63.07236678065985
 30
0.0
 10
220.1122934055672
 20
62.34767992722788
 30
0.0
 10
219.8788237106798
 20
61.61759114799337
 30
0.0
 10
219.7132991332676
 20
60.8932243664803
 30
0.0
 10
219.6190580777243
 20
60.22509735371329
 30
0.0
 10
219.608275072246
 20
59.81329027910181
 30
0.0
 10
219.6034149532333
 20
59.62768048812493
 30
0.0
  0
SPLINE
  5
1E4
330
1F
100
AcDbEntity
  8
0
  6
Continuous
 62
     7
370
    15
100
AcDbSpline
210
0.0
220
0.0
230
1.0
 70
     8
 71
     3
 72
    13
 73
     9
 74
     0
 42
0.000000001
 43
0.00000001
 40
0.0
 40
0.0
 40
0.0
 40
0.0
 40
0.1036006027273755
 40
0.2994795789643288
 40
0.4954043829683596
 40
0.6899082311327374
 40
0.8813897955599084
 40
1.0
 40
1.0
 40
1.0
 40
1.0
 10
219.6034149532333
 20
59.62768048812493
 30
0.0
 10
219.6055139388293
 20
59.50985556578554
 30
0.0
 10
219.6115815031677
 20
59.16925756534186
 30
0.0
 10
219.6796464026685
 20
58.635729251011
 30
0.0
 10
219.8322515676004
 20
58.05036057773988
 30
0.0
 10
220.0643155769258
 20
57.53014685315957
 30
0.0
 10
220.322097763424
 20
57.12514097871448
 30
0.0
 10
220.5288585802862
 20
56.93025248535128
 30
0.0
 10
220.6079446613126
 20
56.85570757200105
 30
0.0
  0
LWPOLYLINE
  5
1E5
330
1F
100
AcDbEntity
  8
0
  6
Continuous
 62
     7
370
    15
100
AcDbPolyline
 90
       21
 70
   128
 43
0.0
 10
260.5507595221
 20
46.4307522815
 10
260.324862283
 20
46.2749288316
 10
260.0266103304
 20
46.1670301199
 10
259.6851986435
 20
46.1176180239
 10
259.3340469771
 20
46.131529344
 10
259.0075285029
 20
46.2074023431
 10
258.737605124
 20
46.3378100434
 10
258.5506988215
 20
46.5099872308
 10
258.4651052866
 20
46.7070800023
 10
258.4892030107
 20
46.9097955444
 10
258.6206331408
 20
47.0982906474
 10
258.84653038
 20
47.2541140972
 10
259.1447823325
 20
47.3620128089
 10
259.4861940194
 20
47.4114249049
 10
259.8373456858
 20
47.3975135849
 10
260.16386416
 20
47.3216405858
 10
260.4337875389
 20
47.1912328854
 10
260.6206938414
 20
47.0190556981
 10
260.7062873763
 20
46.8219629265
 10
260.6821896522
 20
46.6192473844
 10
260.5507595221
 20
46.4307522815
  0
LWPOLYLINE
  5
1E6
330
1F
100
AcDbEntity
  8
0
  6
Continuous
 62
     7
370
    15
100
AcDbPolyline
 90
       13
 70
   128
 43
0.0
 10
260.6579887655
 20
46.2915992152
 10
260.4209965334
 20
46.1256155313
 10
260.1097842126
 20
46.0073322891
 10
259.7520043837
 20
45.9472594737
 10
259.3794473545
 20
45.9507348183
 10
259.025216452
 20
46.0174495234
 10
258.7207866464
 20
46.1414756946
 10
258.493207862
 20
46.3117930623
 10
258.3627014723
 20
46.513268181
 10
258.3408635429
 20
46.7279991023
 10
258.4296344697
 20
46.9369060413
 10
258.6211265661
 20
47.1214267
 10
258.7016692341
 20
47.1726260088
  0
LWPOLYLINE
  5
1E7
330
1F
100
AcDbEntity
  8
0
  6
Continuous
 62
     7
370
    15
100
AcDbPolyline
 90
        6
 70
   128
 43
0.0
 10
260.4697234289
 20
47.1726260088
 10
260.575450141
 20
47.1031960738
 10
260.7565150738
 20
46.9152000705
 10
260.8335476232
 20
46.7047464576
 10
260.7997031093
 20
46.490534962
 10
260.6579887655
 20
46.2915992152
  0
LWPOLYLINE
  5
1E8
330
1F
100
AcDbEntity
  8
0
  6
Continuous
 62
     7
370
    15
100
AcDbPolyline
 90
       17
 70
   128
 43
0.0
 10
260.2290717919
 20
46.5420086758
 10
260.0325942517
 20
46.4168129482
 10
259.7680805542
 20
46.3445526902
 10
259.4758005122
 20
46.3362288711
 10
259.2002511124
 20
46.3931087168
 10
258.9833822532
 20
46.5065327865
 10
258.8582102524
 20
46.6592332937
 10
258.8437914124
 20
46.8279629705
 10
258.942320871
 20
46.9870342531
 10
259.1387984112
 20
47.1122299806
 10
259.4033121087
 20
47.1844902386
 10
259.6955921507
 20
47.1928140577
 10
259.9711415505
 20
47.135934212
 10
260.1880104097
 20
47.0225101423
 10
260.3131824106
 20
46.8698096351
 10
260.3276012505
 20
46.7010799583
 10
260.2290717919
 20
46.5420086758
  0
SPLINE
  5
1E9
330
1F
100
AcDbEntity
  8
0
  6
Continuous
 62
     7
370
    15
100
AcDbSpline
210
0.0
220
0.0
230
1.0
 70
     8
 71
     3
 72
    10
 73
     6
 74
     0
 42
0.000000001
 43
0.00000001
 40
0.0
 40
0.0
 40
0.0
 40
0.0
 40
0.1804964913846054
 40
0.6741491443526515
 40
1.0
 40
1.0
 40
1.0
 40
1.0
 10
260.3072899659807
 20
46.73467214506094
 30
0.0
 10
260.2923685697708
 20
46.7091572751564
 30
0.0
 10
260.2366375890175
 20
46.61385997833656
 30
0.0
 10
260.1443352579658
 20
46.48324127878121
 30
0.0
 10
260.0705218818567
 20
46.44023786162221
 30
0.0
 10
260.0411722189078
 20
46.42313884968424
 30
0.0
  0
SPLINE
  5
1EA
330
1F
100
AcDbEntity
  8
0
  6
Continuous
 62
     7
370
    15
100
AcDbSpline
210
0.0
220
0.0
230
1.0
 70
     8
 71
     3
 72
    10
 73
     6
 74
     0
 42
0.000000001
 43
0.00000001
 40
0.0
 40
0.0
 40
0.0
 40
0.0
 40
0.4391119879276771
 40
0.7513633230734692
 40
0.9999999999999999
 40
0.9999999999999999
 40
0.9999999999999999
 40
0.9999999999999999
 10
259.9565911664192
 20
47.09879551042239
 30
0.0
 10
260.0067958379349
 20
47.01171643027575
 30
0.0
 10
260.0927009142275
 20
46.8627156541003
 30
0.0
 10
260.2175799378184
 20
46.75963922087605
 30
0.0
 10
260.2797365094989
 20
46.74234051002572
 30
0.0
 10
260.3072899659807
 20
46.73467214506094
 30
0.0
  0
SPLINE
  5
1EB
330
1F
100
AcDbEntity
  8
0
  6
Continuous
 62
     7
370
    15
100
AcDbSpline
210
0.0
220
0.0
230
1.0
 70
     8
 71
     3
 72
    10
 73
     6
 74
     0
 42
0.000000001
 43
0.00000001
 40
0.0
 40
0.0
 40
0.0
 40
0.0
 40
0.4391119879276848
 40
0.7513633230734723
 40
1.0
 40
1.0
 40
1.0
 40
1.0
 10
259.2349975318958
 20
47.10552679279504
 30
0.0
 10
259.3382980605386
 20
47.06961056849854
 30
0.0
 10
259.5150553129257
 20
47.00815441521284
 30
0.0
 10
259.772004890801
 20
47.03234039183592
 30
0.0
 10
259.8998975055591
 20
47.07838454572342
 30
0.0
 10
259.9565911664192
 20
47.09879551042239
 30
0.0
  0
SPLINE
  5
1EC
330
1F
100
AcDbEntity
  8
0
  6
Continuous
 62
     7
370
    15
100
AcDbSpline
210
0.0
220
0.0
230
1.0
 70
     8
 71
     3
 72
    11
 73
     7
 74
     0
 42
0.000000001
 43
0.00000001
 40
0.0
 40
0.0
 40
0.0
 40
0.0
 40
0.1849308168245032
 40
0.5198464202157091
 40
0.87144382336932
 40
1.0
 40
1.0
 40
1.0
 40
1.0
 10
258.8641026969339
 20
46.74813470980621
 30
0.0
 10
258.8856905885668
 20
46.75301316278129
 30
0.0
 10
258.9463748399968
 20
46.76672664958049
 30
0.0
 10
259.0596535839057
 20
46.84281059440612
 30
0.0
 10
259.1642711386984
 20
46.9841166229286
 30
0.0
 10
259.2200605038615
 20
47.07988562789235
 30
0.0
 10
259.2349975318958
 20
47.10552679279504
 30
0.0
  0
SPLINE
  5
1ED
330
1F
100
AcDbEntity
  8
0
  6
Continuous
 62
     7
370
    15
100
AcDbSpline
210
0.0
220
0.0
230
1.0
 70
     8
 71
     3
 72
    10
 73
     6
 74
     0
 42
0.000000001
 43
0.00000001
 40
0.0
 40
0.0
 40
0.0
 40
0.0
 40
0.2476425667247256
 40
0.6664866282675856
 40
1.0
 40
1.0
 40
1.0
 40
1.0
 10
259.1259427092985
 20
46.43129241123281
 30
0.0
 10
259.1047044343916
 20
46.43996033555668
 30
0.0
 10
259.0475453344027
 20
46.46328853689582
 30
0.0
 10
258.9536655878304
 20
46.5884477236701
 30
0.0
 10
258.8916109618096
 20
46.69908859407823
 30
0.0
 10
258.8641026969339
 20
46.74813470980621
 30
0.0
  0
LINE
  5
1EE
330
1F
100
AcDbEntity
  8
0
  6
Continuous
 62
     7
370
    15
100
AcDbLine
 10
259.9565911664
 20
46.3882038057
 30
0.0
 11
259.9565911664
 21
47.0987955104
 31
0.0
  0
LINE
  5
1EF
330
1F
100
AcDbEntity
  8
0
  6
Continuous
 62
     7
370
    15
100
AcDbLine
 10
259.2349975319
 20
46.3818052452
 30
0.0
 11
259.2349975319
 21
47.1055267928
 31
0.0
  0
ARC
  5
1F0
330
1F
100
AcDbEntity
  8
0
  6
Continuous
 62
     7
370
    15
100
AcDbCircle
 10
261.4448643673
 20
52.597789837
 30
0.0
 40
5.347587089897065
100
AcDbArc
 50
44.5002903952
 51
75.1436985711
  0
ARC
  5
1F1
330
1F
100
AcDbEntity
  8
0
  6
Continuous
 62
     7
370
    15
100
AcDbCircle
 10
251.0424275377
 20
34.5783663977
 30
0.0
 40
5.343630994390404
100
AcDbArc
 50
224.5443236664
 51
255.6269378882
  0
ARC
  5
1F2
330
1F
100
AcDbEntity
  8
0
  6
Continuous
 62
     7
370
    15
100
AcDbCircle
 10
250.6052869828
 20
36.6029274637
 30
0.0
 40
6.890847990550865
100
AcDbArc
 50
188.312493873
 51
236.7139908619
  0
SPLINE
  5
1F3
330
1F
100
AcDbEntity
  8
0
  6
Continuous
 62
     7
370
    15
100
AcDbSpline
210
0.0
220
0.0
230
1.0
 70
     8
 71
     3
 72
    29
 73
    25
 74
     0
 42
0.000000001
 43
0.00000001
 40
0.0
 40
0.0
 40
0.0
 40
0.0
 40
0.0226170105016674
 40
0.0451713142211041
 40
0.0676870228449807
 40
0.090188372120831
 40
0.1126996441629423
 40
0.1352450890127045
 40
0.1578488467149011
 40
0.1805348711521328
 40
0.2033268568146046
 40
0.2262481695760157
 40
0.2493217824052029
 40
0.3751991801868492
 40
0.499961424646005
 40
0.4999717960761217
 40
0.6247044141102638
 40
0.7509557879397657
 40
0.7931713871186022
 40
0.8349081045046313
 40
0.8763104515914815
 40
0.9175264576320521
 40
0.9587061619408423
 40
1.0
 40
1.0
 40
1.0
 40
1.0
 10
243.7869936054227
 20
40.76095732015364
 30
0.0
 10
243.8053588305449
 20
40.7121174303552
 30
0.0
 10
243.8420383622926
 20
40.61457306177269
 30
0.0
 10
243.8937281909556
 20
40.46711045237516
 30
0.0
 10
243.9429095507767
 20
40.31917316285787
 30
0.0
 10
243.9893992206748
 20
40.17068129762891
 30
0.0
 10
244.0333093171332
 20
40.02168933149773
 30
0.0
 10
244.0746745085886
 20
39.87221754291956
 30
0.0
 10
244.1135517952938
 20
39.72229743960962
 30
0.0
 10
244.1499936403173
 20
39.571958629626
 30
0.0
 10
244.1840556214059
 20
39.42123617799741
 30
0.0
 10
244.2157926745055
 20
39.27015448125717
 30
0.0
 10
244.28895094638
 20
38.89443327430565
 30
0.0
 10
244.3746274864194
 20
38.30566285258919
 30
0.0
 10
244.4003598482362
 20
37.80417924858276
 30
0.0
 10
244.4007970044713
 20
37.33372642333903
 30
0.0
 10
244.3753659477519
 20
36.88728389345139
 30
0.0
 10
244.2833986317138
 20
36.45125722196165
 30
0.0
 10
244.1908447376686
 20
36.18306433933907
 30
0.0
 10
244.1272621137799
 20
36.03681322850459
 30
0.0
 10
244.0556166097442
 20
35.90589289665871
 30
0.0
 10
243.9753618354317
 20
35.79044656420812
 30
0.0
 10
243.8869601758376
 20
35.68892455976317
 30
0.0
 10
243.8206035219258
 20
35.63392568280059
 30
0.0
 10
243.7873792800403
 20
35.60638818830817
 30
0.0
  0
LWPOLYLINE
  5
1F4
330
1F
100
AcDbEntity
  8
0
  6
Continuous
 62
     7
370
    15
100
AcDbPolyline
 90
       27
 70
   128
 43
0.0
 10
243.7867748643
 20
40.7610835967
 10
244.0174128788
 20
41.9615799331
 10
244.3261989762
 20
43.1805243078
 10
244.7108737818
 20
44.4089977575
 10
245.1686226468
 20
45.6380115949
 10
245.6960962424
 20
46.8585731789
 10
246.2894350673
 20
48.0617517131
 10
246.9442976867
 20
49.2387435921
 10
247.6558924992
 20
50.3809368172
 10
248.4190127962
 20
51.4799740099
 10
249.2280748596
 20
52.5278135624
 10
250.0771588171
 20
53.5167884781
 10
250.9600519582
 20
54.4396624702
 10
251.8702941917
 20
55.2896829096
 10
252.8012253146
 20
56.0606302334
 10
253.7460337442
 20
56.7468634533
 10
254.6978063578
 20
57.3433614305
 10
255.6495790764
 20
57.845759615
 10
256.5943878201
 20
58.2503819811
 10
257.5253194641
 20
58.5542679244
 10
258.4355624219
 20
58.7551939245
 10
259.3184564849
 20
58.8516898145
 10
260.1675415555
 20
58.8430495383
 10
260.9766049148
 20
58.7293363164
 10
261.7397266813
 20
58.5113821834
 10
262.4513231259
 20
58.1907819003
 10
262.572180726
 20
58.1231215091
  0
SPLINE
  5
1F5
330
1F
100
AcDbEntity
  8
0
  6
Continuous
 62
     7
370
    15
100
AcDbSpline
210
0.0
220
0.0
230
1.0
 70
     8
 71
     3
 72
     8
 73
     4
 74
     0
 42
0.000000001
 43
0.00000001
 40
0.0
 40
0.0
 40
0.0
 40
0.0
 40
1.0
 40
1.0
 40
1.0
 40
1.0
 10
243.0088384672476
 20
44.03986072365799
 30
0.0
 10
242.3157672321948
 20
43.92399910528327
 30
0.0
 10
241.6221464657986
 20
43.80924041213022
 30
0.0
 10
240.9281673049712
 20
43.69522886449206
 30
0.0
  0
SPLINE
  5
1F6
330
1F
100
AcDbEntity
  8
0
  6
Continuous
 62
     7
370
    15
100
AcDbSpline
210
0.0
220
0.0
230
1.0
 70
     8
 71
     3
 72
     8
 73
     4
 74
     0
 42
0.000000001
 43
0.00000001
 40
0.0
 40
0.0
 40
0.0
 40
0.0
 40
0.0012389803509652
 40
0.0012389803509652
 40
0.0012389803509652
 40
0.0012389803509652
 10
240.4544308908256
 20
43.96876298524606
 30
0.0
 10
240.6125042258066
 20
43.87749190479555
 30
0.0
 10
240.7704224047726
 20
43.78631037769531
 30
0.0
 10
240.9281673049712
 20
43.69522886449207
 30
0.0
  0
LWPOLYLINE
  5
1F7
330
1F
100
AcDbEntity
  8
0
  6
Continuous
 62
     7
370
    15
100
AcDbPolyline
 90
       28
 70
   128
 43
0.0
 10
240.4544308908
 20
43.9687629852
 10
240.7612463685
 20
45.1901633723
 10
241.1444052907
 20
46.4214448568
 10
241.6010904899
 20
47.6535544689
 10
242.1279441983
 20
48.87743315
 10
242.7210927357
 20
50.0840823592
 10
243.3761749906
 20
51.264630235
 10
244.0883744853
 20
52.4103968252
 10
244.8524547888
 20
53.5129579065
 10
245.6627980176
 20
54.5642069229
 10
246.513446141
 20
55.5564145894
 10
247.3981447877
 20
56.4822857211
 10
248.3103892303
 20
57.3350128709
 10
249.243472212
 20
58.1083263815
 10
250.1905332607
 20
58.7965404825
 10
251.144609131
 20
59.3945950948
 10
252.0986850014
 20
59.8980930352
 10
253.0457460501
 20
60.3033323463
 10
253.9788290318
 20
60.607333515
 10
254.8910734744
 20
60.8078613795
 10
255.7757721211
 20
60.903441563
 10
256.6264202445
 20
60.8933713145
 10
257.4367634733
 20
60.7777246752
 10
258.2008437768
 20
60.5573519344
 10
258.9130432715
 20
60.2338733778
 10
259.5681255264
 20
59.8096673744
 10
260.1612740638
 20
59.2878528894
 10
260.5926061491
 20
58.7971438489
  0
LINE
  5
1F8
330
1F
100
AcDbEntity
  8
0
  6
Continuous
 62
     7
370
    15
100
AcDbLine
 10
237.4227105665
 20
45.718937875
 30
0.0
 11
240.4544308908
 21
43.9687629852
 31
0.0
  0
ARC
  5
1F9
330
1F
100
AcDbEntity
  8
0
  6
Continuous
 62
     7
370
    15
100
AcDbCircle
 10
253.3209686355
 20
57.2971904804
 30
0.0
 40
5.340528532812358
100
AcDbArc
 50
60.0493432146
 51
74.3504436768
  0
LINE
  5
1FA
330
1F
100
AcDbEntity
  8
0
  6
Continuous
 62
     7
370
    15
100
AcDbLine
 10
243.4114338697
 20
43.9786983329
 30
0.0
 11
243.4021112188
 21
43.9840801847
 31
0.0
  0
SPLINE
  5
1FB
330
1F
100
AcDbEntity
  8
0
  6
Continuous
 62
     7
370
    15
100
AcDbSpline
210
0.0
220
0.0
230
1.0
 70
     8
 71
     3
 72
    10
 73
     6
 74
     0
 42
0.000000001
 43
0.00000001
 40
0.0
 40
0.0
 40
0.0
 40
0.0
 40
0.2409971518765583
 40
0.7131807703182222
 40
1.0
 40
1.0
 40
1.0
 40
1.0
 10
244.3286345931913
 20
43.17629599128292
 30
0.0
 10
244.2627759034726
 20
43.25731486072883
 30
0.0
 10
244.0678808572031
 20
43.49707329468468
 30
0.0
 10
243.7549959776749
 20
43.76280122462543
 30
0.0
 10
243.5056566072512
 20
43.91948802975933
 30
0.0
 10
243.4114338697067
 20
43.9786983329366
 30
0.0
  0
SPLINE
  5
1FC
330
1F
100
AcDbEntity
  8
0
  6
Continuous
 62
     7
370
    15
100
AcDbSpline
210
0.0
220
0.0
230
1.0
 70
     8
 71
     3
 72
    10
 73
     6
 74
     0
 42
0.000000001
 43
0.00000001
 40
0.0
 40
0.0
 40
0.0
 40
0.0
 40
0.5
 40
0.5
 40
1.0
 40
1.0
 40
1.0
 40
1.0
 10
243.4021112187996
 20
43.98408018474933
 30
0.0
 10
243.3523106199868
 20
44.01282945849845
 30
0.0
 10
243.2872787032429
 20
44.03359280385911
 30
0.0
 10
243.1502203428974
 20
44.05254649324689
 30
0.0
 10
243.0766815028476
 20
44.05120213201909
 30
0.0
 10
243.0088384672476
 20
44.03986072365799
 30
0.0
  0
LWPOLYLINE
  5
1FD
330
1F
100
AcDbEntity
  8
0
  6
Continuous
 62
     7
370
    15
100
AcDbPolyline
 90
       48
 70
   128
 43
0.0
 10
261.9014710398
 20
45.3459991001
 10
261.3218451634
 20
44.9665817944
 10
260.7525627245
 20
44.5043223802
 10
260.2037825817
 20
43.9674698876
 10
259.6852977296
 20
43.3656044622
 10
259.2063605427
 20
42.7094664067
 10
258.7755176666
 20
42.0107645203
 10
258.4004575024
 20
41.2819671547
 10
258.0878730077
 20
40.5360797161
 10
257.8433422603
 20
39.7864125835
 10
257.6712289171
 20
39.0463435847
 10
257.5746043447
 20
38.3290792685
 10
257.5551928111
 20
37.6474192337
 10
257.6133407154
 20
37.0135277196
 10
257.7480104069
 20
36.4387165354
 10
257.9567987019
 20
35.9332432002
 10
258.2359797681
 20
35.5061278978
 10
258.580571613
 20
35.1649925108
 10
258.9844249867
 20
34.9159246082
 10
259.4403331165
 20
34.7633688127
 10
259.9401603107
 20
34.7100474861
 10
260.4749871414
 20
34.7569121487
 10
261.035269611
 20
34.9031264995
 10
261.6110094657
 20
35.14608134
 10
262.191932614
 20
35.4814411352
 10
262.7676724687
 20
35.9032213816
 10
263.3279549383
 20
36.4038954009
 10
263.862781769
 20
36.9745286532
 10
264.3626089632
 20
37.6049381746
 10
264.8185170929
 20
38.2838742923
 10
265.2223704667
 20
38.9992213752
 10
265.5669623116
 20
39.7382140376
 10
265.8461433778
 20
40.487664938
 10
266.0549316727
 20
41.2342001074
 10
266.1896013643
 20
41.9644976078
 10
266.2477492686
 20
42.6655252632
 10
266.2283377349
 20
43.3247732184
 10
266.1317131626
 20
43.930477178
 10
265.9595998194
 20
44.4718283405
 10
265.715069072
 20
44.9391662816
 10
265.4024845773
 20
45.3241513447
 10
265.0274244131
 20
45.6199134622
 10
264.596581537
 20
45.8211747521
 10
264.1176443501
 20
45.924343702
 10
263.599159498
 20
45.9275792593
 10
263.0503793552
 20
45.8308236857
 10
262.4810969163
 20
45.6358035865
 10
261.9014710398
 20
45.3459991001
  0
LWPOLYLINE
  5
1FE
330
1F
100
AcDbEntity
  8
0
  6
Continuous
 62
     7
370
    15
100
AcDbPolyline
 90
       25
 70
   128
 43
0.0
 10
261.8307603617
 20
45.4684735869
 10
261.2417096743
 20
45.0828868941
 10
260.6631706103
 20
44.6131110666
 10
260.1054672132
 20
44.0675292653
 10
259.5785517131
 20
43.4558774102
 10
259.0918269297
 20
42.7890704432
 10
258.6539784783
 20
42.0790075505
 10
258.2728197749
 20
41.3383598212
 10
257.9551526055
 20
40.5803441316
 10
257.7066457484
 20
39.8184872895
 10
257.5317338142
 20
39.0663846485
 10
257.4335381106
 20
38.3374574979
 10
257.4138109423
 20
37.64471356
 10
257.472904341
 20
37.0005148668
 10
257.6097637836
 20
36.4163571593
 10
257.8219470101
 20
35.9026647455
 10
258.1056676059
 20
35.4686044788
 10
258.4558625702
 20
35.121922175
 10
258.8662826655
 20
34.8688043878
 10
259.3296039355
 20
34.7137680103
 10
259.8375584012
 20
34.6595796703
 10
260.3810816031
 20
34.7072063599
 10
260.9504743568
 20
34.8557981798
 10
261.5355758351
 20
35.1027035055
 10
261.8314786413
 20
35.2621281597
  0
LWPOLYLINE
  5
1FF
330
1F
100
AcDbEntity
  8
0
  6
Continuous
 62
     7
370
    15
100
AcDbPolyline
 90
       13
 70
   128
 43
0.0
 10
266.2501777441
 20
42.9163688621
 10
266.2279826128
 20
43.4143822436
 10
266.1297869093
 20
44.0299350481
 10
265.9548749751
 20
44.5800886686
 10
265.7063681179
 20
45.0550256006
 10
265.3887009486
 20
45.4462705835
 10
265.0075422451
 20
45.7468418411
 10
264.5696937937
 20
45.9513756723
 10
264.0829690104
 20
46.056222166
 10
263.5560535103
 20
46.0595103341
 10
262.9983501131
 20
45.9611814991
 10
262.4198110492
 20
45.7629903414
 10
261.8307603617
 20
45.4684735869
  0
SPLINE
  5
200
330
1F
100
AcDbEntity
  8
0
  6
Continuous
 62
     7
370
    15
100
AcDbSpline
210
0.0
220
0.0
230
1.0
 70
    11
 71
     3
 72
    64
 73
    60
 74
     0
 42
0.000000001
 43
0.00000001
 40
0.0
 40
0.0
 40
0.0
 40
0.0
 40
0.03125
 40
0.03125
 40
0.0625
 40
0.0625
 40
0.09375
 40
0.09375
 40
0.1249999999999999
 40
0.1249999999999999
 40
0.1562499999999999
 40
0.1562499999999999
 40
0.1874999999999999
 40
0.1874999999999999
 40
0.2187499999999999
 40
0.2187499999999999
 40
0.2499999999999999
 40
0.2499999999999999
 40
0.2812499999999999
 40
0.2812499999999999
 40
0.3124999999999999
 40
0.3124999999999999
 40
0.3437499999999998
 40
0.3437499999999998
 40
0.3749999999999998
 40
0.3749999999999998
 40
0.4062499999999998
 40
0.4062499999999998
 40
0.4374999999999998
 40
0.4374999999999998
 40
0.4687499999999998
 40
0.4687499999999998
 40
0.4999999999999998
 40
0.4999999999999998
 40
0.5312499999999998
 40
0.5312499999999998
 40
0.5624999999999998
 40
0.5624999999999998
 40
0.6249999999999998
 40
0.6249999999999998
 40
0.6874999999999997
 40
0.6874999999999997
 40
0.7187499999999997
 40
0.7187499999999997
 40
0.7499999999999997
 40
0.7499999999999997
 40
0.7812499999999997
 40
0.7812499999999997
 40
0.8124999999999997
 40
0.8124999999999997
 40
0.8437499999999997
 40
0.8437499999999997
 40
0.8749999999999996
 40
0.8749999999999996
 40
0.9062499999999996
 40
0.9062499999999996
 40
0.9374999999999996
 40
0.9374999999999996
 40
1.0
 40
1.0
 40
1.0
 40
1.0
 10
259.5782948208022
 20
47.51852109862087
 30
0.0
 10
259.6717537376569
 20
47.50535444520812
 30
0.0
 10
259.7628540594293
 20
47.48747278121829
 30
0.0
 10
259.9408391647709
 20
47.44389571628526
 30
0.0
 10
260.0283141662149
 20
47.41797665388906
 30
0.0
 10
260.1962633071072
 20
47.3597588591622
 30
0.0
 10
260.2757055345122
 20
47.32788886816715
 30
0.0
 10
260.425915729556
 20
47.25926303493236
 30
0.0
 10
260.4972887979791
 20
47.22211889738681
 30
0.0
 10
260.6272956214031
 20
47.1449521497677
 30
0.0
 10
260.6859728463025
 20
47.1050293855775
 30
0.0
 10
260.7907687592137
 20
47.02233343797008
 30
0.0
 10
260.837224564746
 20
46.97911170088656
 30
0.0
 10
260.9139639287062
 20
46.8919874825008
 30
0.0
 10
260.9445593464715
 20
46.84799430730511
 30
0.0
 10
260.9898023060455
 20
46.75836860275707
 30
0.0
 10
261.0044138911599
 20
46.71225349986386
 30
0.0
 10
261.0152639625064
 20
46.62098417339019
 30
0.0
 10
261.0118306842126
 20
46.57555862317848
 30
0.0
 10
260.9860692688145
 20
46.48419154467445
 30
0.0
 10
260.963268205576
 20
46.4379062082174
 30
0.0
 10
260.8993417193762
 20
46.34875070134012
 30
0.0
 10
260.8582136215242
 20
46.3053149488283
 30
0.0
 10
260.7560674833513
 20
46.22034752997617
 30
0.0
 10
260.69586875597
 20
46.17970854284943
 30
0.0
 10
260.5614325720638
 20
46.10461388044531
 30
0.0
 10
260.4855185508268
 20
46.06931357203829
 30
0.0
 10
260.3243354567292
 20
46.00711180801558
 30
0.0
 10
260.2392411793254
 20
45.98007129881463
 30
0.0
 10
260.0603247011552
 20
45.93439516773757
 30
0.0
 10
259.9684863461214
 20
45.91632849329101
 30
0.0
 10
259.7833719244054
 20
45.8902541090097
 30
0.0
 10
259.6887311575476
 20
45.88215186657881
 30
0.0
 10
259.5033055890758
 20
45.87679272577623
 30
0.0
 10
259.4120551102486
 20
45.87937538971677
 30
0.0
 10
259.2322702699277
 20
45.89549562963452
 30
0.0
 10
259.144462555266
 20
45.90908157602453
 30
0.0
 10
258.8942244796794
 20
45.96540110298602
 30
0.0
 10
258.7399428218014
 20
46.02527674979836
 30
0.0
 10
258.480968899055
 20
46.18094506342285
 30
0.0
 10
258.3730130760295
 20
46.27874928785052
 30
0.0
 10
258.2581368685209
 20
46.44152572098398
 30
0.0
 10
258.2269899290619
 20
46.49916017289088
 30
0.0
 10
258.181329175643
 20
46.61845389744163
 30
0.0
 10
258.167103093212
 20
46.67903156589484
 30
0.0
 10
258.1561393151017
 20
46.8012852105827
 30
0.0
 10
258.1595558380557
 20
46.86365723680428
 30
0.0
 10
258.1856253833355
 20
46.98535453587691
 30
0.0
 10
258.2079087986865
 20
47.04404734598901
 30
0.0
 10
258.2717781615702
 20
47.15619507855349
 30
0.0
 10
258.3141993318431
 20
47.21026761358068
 30
0.0
 10
258.4158812761357
 20
47.30674096753686
 30
0.0
 10
258.4751253651302
 20
47.3496774465863
 30
0.0
 10
258.6111190770217
 20
47.42434319638998
 30
0.0
 10
258.6866003458941
 20
47.45516705517187
 30
0.0
 10
258.8473827995086
 20
47.50280127634408
 30
0.0
 10
258.9343996564741
 20
47.52000599957162
 30
0.0
 10
259.2012837474104
 20
47.55091330303437
 30
0.0
 10
259.3913769870928
 20
47.54485440544636
 30
0.0
 10
259.5782948208022
 20
47.51852109862087
 30
0.0
  0
LINE
  5
201
330
1F
100
AcDbEntity
  8
0
  6
Continuous
 62
     7
370
    15
100
AcDbLine
 10
264.3201704373
 20
40.3689956765
 30
0.0
 11
265.1806787376
 21
41.4394598214
 31
0.0
  0
SPLINE
  5
202
330
1F
100
AcDbEntity
  8
0
  6
Continuous
 62
     7
370
    15
100
AcDbSpline
210
0.0
220
0.0
230
1.0
 70
     8
 71
     3
 72
    22
 73
    18
 74
     0
 42
0.000000001
 43
0.00000001
 40
0.0
 40
0.0
 40
0.0
 40
0.0
 40
0.041666666666667
 40
0.0833333333333331
 40
0.1250000000000032
 40
0.166666666666668
 40
0.2083333333333339
 40
0.249999999999922
 40
0.2968749999997848
 40
0.34375
 40
0.3906249999999997
 40
0.4374999999999997
 40
0.4863049253904977
 40
0.4863049253904977
 40
0.53125
 40
0.6249999999999818
 40
0.8289791339914792
 40
0.8289791339914792
 40
0.8289791339914792
 40
0.8289791339914792
 10
265.1806787375955
 20
41.43945982135665
 30
0.0
 10
265.2150904161883
 20
41.48226762238033
 30
0.0
 10
265.28235205149
 20
41.57410004972398
 30
0.0
 10
265.3763912817595
 20
41.73019171830387
 30
0.0
 10
265.4592370810517
 20
41.90282763575728
 30
0.0
 10
265.5251794761114
 20
42.08654204463804
 30
0.0
 10
265.5684166844111
 20
42.27331147894328
 30
0.0
 10
265.5850724823055
 20
42.46139139569478
 30
0.0
 10
265.5681521080062
 20
42.63813701994953
 30
0.0
 10
265.5134437554236
 20
42.78927981863731
 30
0.0
 10
265.4271930000922
 20
42.9004035293596
 30
0.0
 10
265.3134650062577
 20
42.97080258772123
 30
0.0
 10
265.2296333501725
 20
42.99069713616622
 30
0.0
 10
265.1482358131085
 20
42.99849252818663
 30
0.0
 10
265.0409509277276
 20
43.00727225866424
 30
0.0
 10
264.8534997241548
 20
43.02471539157725
 30
0.0
 10
264.5453439369794
 20
43.05223443495214
 30
0.0
 10
264.3200721964818
 20
43.07229911748838
 30
0.0
  0
SPLINE
  5
203
330
1F
100
AcDbEntity
  8
0
  6
Continuous
 62
     7
370
    15
100
AcDbSpline
210
0.0
220
0.0
230
1.0
 70
     8
 71
     3
 72
    22
 73
    18
 74
     0
 42
0.000000001
 43
0.00000001
 40
0.0
 40
0.0
 40
0.0
 40
0.0
 40
0.041666666666667
 40
0.0833333333333331
 40
0.1250000000000032
 40
0.166666666666668
 40
0.2083333333333339
 40
0.249999999999922
 40
0.2968749999997848
 40
0.34375
 40
0.3906249999999997
 40
0.4374999999999997
 40
0.4863049253904977
 40
0.4863049253904977
 40
0.53125
 40
0.6249999999999818
 40
0.8265829076568415
 40
0.8265829076568415
 40
0.8265829076568415
 40
0.8265829076568415
 10
258.622263342091
 20
37.65336720277923
 30
0.0
 10
258.5886556730827
 20
37.65637223482278
 30
0.0
 10
258.5202168862284
 20
37.67065128632308
 30
0.0
 10
258.4266507804388
 20
37.71812526546558
 30
0.0
 10
258.3436782105555
 20
37.79512079720284
 30
0.0
 10
258.2777697733807
 20
37.90269669002756
 30
0.0
 10
258.234523504132
 20
38.03954635731397
 30
0.0
 10
258.2178700873956
 20
38.20839552720319
 30
0.0
 10
258.2347902117315
 20
38.40467768831407
 30
0.0
 10
258.2894968644297
 20
38.61898301376161
 30
0.0
 10
258.3757546788761
 20
38.82969858241771
 30
0.0
 10
258.489455771949
 20
39.03137170478886
 30
0.0
 10
258.5733566055649
 20
39.14814227862077
 30
0.0
 10
258.6547777710217
 20
39.24994666135972
 30
0.0
 10
258.7620374569709
 20
39.38256354075639
 30
0.0
 10
258.946827043207
 20
39.61311742571386
 30
0.0
 10
259.2588680918844
 20
40.00126408490917
 30
0.0
 10
259.4828714684729
 20
40.27984635848262
 30
0.0
  0
LINE
  5
204
330
1F
100
AcDbEntity
  8
0
  6
Continuous
 62
     7
370
    15
100
AcDbLine
 10
259.4827716424
 20
37.5764247937
 30
0.0
 11
258.6222633421
 21
37.6533672028
 31
0.0
  0
SPLINE
  5
205
330
1F
100
AcDbEntity
  8
0
  6
Continuous
 62
     7
370
    15
100
AcDbSpline
210
0.0
220
0.0
230
1.0
 70
     8
 71
     3
 72
     8
 73
     4
 74
     0
 42
0.000000001
 43
0.00000001
 40
0.0
 40
0.0
 40
0.0
 40
0.0
 40
1.0
 40
1.0
 40
1.0
 40
1.0
 10
237.2658859589272
 20
45.80945955415484
 30
0.0
 10
237.2882647554467
 20
45.79654760270301
 30
0.0
 10
237.3424521864639
 20
45.76527005154599
 30
0.0
 10
237.4227105664884
 20
45.71893787496599
 30
0.0
  0
LINE
  5
206
330
1F
100
AcDbEntity
  8
0
  6
Continuous
 62
     7
370
    15
100
AcDbLine
 10
237.2658859589
 20
45.8094595542
 30
0.0
 11
237.2888535492
 21
45.9548449619
 31
0.0
  0
SPLINE
  5
207
330
1F
100
AcDbEntity
  8
0
  6
Continuous
 62
     7
370
    15
100
AcDbSpline
210
0.0
220
0.0
230
1.0
 70
     8
 71
     3
 72
    11
 73
     7
 74
     0
 42
0.000000001
 43
0.00000001
 40
0.0
 40
0.0
 40
0.0
 40
0.0
 40
0.3095641458094145
 40
0.5897803711570422
 40
0.8409900224186586
 40
1.0
 40
1.0
 40
1.0
 40
1.0
 10
243.8954189547064
 20
36.33251692706867
 30
0.0
 10
243.9864149176841
 20
36.42399114348203
 30
0.0
 10
244.1597800620177
 20
36.59826745434651
 30
0.0
 10
244.310113045717
 20
37.01673327934358
 30
0.0
 10
244.3843937848159
 20
37.42988250752578
 30
0.0
 10
244.3919384167507
 20
37.72691375913051
 30
0.0
 10
244.3948628788448
 20
37.84204947994388
 30
0.0
  0
SPLINE
  5
208
330
1F
100
AcDbEntity
  8
0
  6
Continuous
 62
     7
370
    15
100
AcDbSpline
210
0.0
220
0.0
230
1.0
 70
     8
 71
     3
 72
     9
 73
     5
 74
     0
 42
0.000000001
 43
0.00000001
 40
0.0
 40
0.0
 40
0.0
 40
0.0
 40
0.5067661695379747
 40
1.0
 40
1.0
 40
1.0
 40
1.0
 10
243.786697490234
 20
35.60588616052452
 30
0.0
 10
243.8049665075454
 20
35.72834051435451
 30
0.0
 10
243.841016698757
 20
35.96997928424643
 30
0.0
 10
243.8776974381938
 20
36.21212968237561
 30
0.0
 10
243.8957896198104
 20
36.33156645079276
 30
0.0
  0
SPLINE
  5
209
330
1F
100
AcDbEntity
  8
0
  6
Continuous
 62
     7
370
    15
100
AcDbSpline
210
0.0
220
0.0
230
1.0
 70
     8
 71
     3
 72
    10
 73
     6
 74
     0
 42
0.000000001
 43
0.00000001
 40
0.0
 40
0.0
 40
0.0
 40
0.0
 40
0.481123765483478
 40
0.976457493642654
 40
0.9999999999999999
 40
0.9999999999999999
 40
0.9999999999999999
 40
0.9999999999999999
 10
243.4114338697067
 20
37.40554479725632
 30
0.0
 10
243.5615294231993
 20
37.32479085880279
 30
0.0
 10
243.8661535937036
 20
37.16089791897915
 30
0.0
 10
244.1523469451016
 20
37.05564570443352
 30
0.0
 10
244.289046457939
 20
37.02258674676646
 30
0.0
 10
244.295248802421
 20
37.02108679230859
 30
0.0
  0
SPLINE
  5
20A
330
1F
100
AcDbEntity
  8
0
  6
Continuous
 62
     7
370
    15
100
AcDbSpline
210
0.0
220
0.0
230
1.0
 70
     8
 71
     3
 72
    11
 73
     7
 74
     0
 42
0.000000001
 43
0.00000001
 40
0.0
 40
0.0
 40
0.0
 40
0.0
 40
0.3181896031218406
 40
0.636383594612707
 40
0.954614030288116
 40
1.0
 40
1.0
 40
1.0
 40
1.0
 10
258.551552663972
 20
37.91725743681572
 30
0.0
 10
258.4926770722505
 20
37.93173098851469
 30
0.0
 10
258.3749250768141
 20
37.96067829152722
 30
0.0
 10
258.266294242297
 20
38.12152539520168
 30
0.0
 10
258.2146211388941
 20
38.27382196191429
 30
0.0
 10
258.2267017563289
 20
38.37415641695736
 30
0.0
 10
258.2282096380659
 20
38.38667998979449
 30
0.0
  0
SPLINE
  5
20B
330
1F
100
AcDbEntity
  8
0
  6
Continuous
 62
     7
370
    15
100
AcDbSpline
210
0.0
220
0.0
230
1.0
 70
     8
 71
     3
 72
    13
 73
     9
 74
     0
 42
0.000000001
 43
0.00000001
 40
0.0
 40
0.0
 40
0.0
 40
0.0
 40
0.0222195897384466
 40
0.1665527556661132
 40
0.4104150105224931
 40
0.6345884147609905
 40
0.8641358233131591
 40
1.0
 40
1.0
 40
1.0
 40
1.0
 10
259.6070850198092
 20
40.45502307132764
 30
0.0
 10
259.6070481135281
 20
40.45454400258345
 30
0.0
 10
259.6067714728298
 20
40.45095301731156
 30
0.0
 10
259.595011692217
 20
40.43052583255232
 30
0.0
 10
259.5724426947946
 20
40.39635269575378
 30
0.0
 10
259.5394576760187
 20
40.3518032694522
 30
0.0
 10
259.5095336267542
 20
40.31317140633387
 30
0.0
 10
259.4900978944418
 20
40.28887867269618
 30
0.0
 10
259.4828714684729
 20
40.27984635848262
 30
0.0
  0
SPLINE
  5
20C
330
1F
100
AcDbEntity
  8
0
  6
Continuous
 62
     7
370
    15
100
AcDbSpline
210
0.0
220
0.0
230
1.0
 70
     8
 71
     3
 72
    16
 73
    12
 74
     0
 42
0.000000001
 43
0.00000001
 40
0.0
 40
0.0
 40
0.0
 40
0.0
 40
0.2499999999999956
 40
0.2499999999999956
 40
0.4999999999999912
 40
0.4999999999999912
 40
0.6249999999999932
 40
0.6249999999999932
 40
0.7499999999999952
 40
0.7499999999999952
 40
1.0
 40
1.0
 40
1.0
 40
1.0
 10
264.3200721964816
 20
43.07229911748839
 30
0.0
 10
264.2958640697864
 20
43.07445530616904
 30
0.0
 10
264.2695337283841
 20
43.07543877836181
 30
0.0
 10
264.2091329516712
 20
43.07313149074226
 30
0.0
 10
264.1737501761781
 20
43.06977659379073
 30
0.0
 10
264.11678177211
 20
43.05720816628934
 30
0.0
 10
264.0970398965769
 20
43.05159214283124
 30
0.0
 10
264.0614989738438
 20
43.03851299517181
 30
0.0
 10
264.0461169447972
 20
43.03128090480248
 30
0.0
 10
264.0079685273317
 20
43.00995490742492
 30
0.0
 10
263.9918066688097
 20
42.99606649297285
 30
0.0
 10
263.9794972609765
 20
42.98300632372434
 30
0.0
  0
SPLINE
  5
20D
330
1F
100
AcDbEntity
  8
0
  6
Continuous
 62
     7
370
    15
100
AcDbSpline
210
0.0
220
0.0
230
1.0
 70
     8
 71
     3
 72
     8
 73
     4
 74
     0
 42
0.000000001
 43
0.00000001
 40
0.0
 40
0.0
 40
0.0
 40
0.0
 40
1.0
 40
1.0
 40
1.0
 40
1.0
 10
263.9794972609806
 20
42.9830063237189
 30
0.0
 10
263.9470243786154
 20
42.99606868598454
 30
0.0
 10
263.9147535859769
 20
43.01096107836909
 30
0.0
 10
263.8894762700222
 20
43.02555336226425
 30
0.0
  0
LINE
  5
20E
330
1F
100
AcDbEntity
  8
0
  6
Continuous
 62
     7
370
    15
100
AcDbLine
 10
263.4391967876
 20
43.4779053421
 30
0.0
 11
263.4087682895
 21
43.4948708737
 31
0.0
  0
LINE
  5
20F
330
1F
100
AcDbEntity
  8
0
  6
Continuous
 62
     7
370
    15
100
AcDbLine
 10
262.881476274
 20
43.6074593738
 30
0.0
 11
263.88947627
 21
43.0255533623
 31
0.0
  0
ARC
  5
210
330
1F
100
AcDbEntity
  8
0
  6
Continuous
 62
     7
370
    15
100
AcDbCircle
 10
257.6596224359
 20
43.1953697112
 30
0.0
 40
4.274799352338897
100
AcDbArc
 50
339.4381576473
 51
1.8508970724
  0
LINE
  5
211
330
1F
100
AcDbEntity
  8
0
  6
Continuous
 62
     7
370
    15
100
AcDbLine
 10
261.6620899093
 20
41.6939824769
 30
0.0
 11
263.88947627
 21
40.4081397008
 31
0.0
  0
LINE
  5
212
330
1F
100
AcDbEntity
  8
0
  6
Continuous
 62
     7
370
    15
100
AcDbLine
 10
259.9394812234
 20
37.4155633055
 30
0.0
 11
259.9698889923
 21
37.3986089296
 31
0.0
  0
LINE
  5
213
330
1F
100
AcDbEntity
  8
0
  6
Continuous
 62
     7
370
    15
100
AcDbLine
 10
258.2852102279
 20
38.5629647912
 30
0.0
 11
259.489201741
 21
37.8679152853
 31
0.0
  0
LINE
  5
214
330
1F
100
AcDbEntity
  8
0
  6
Continuous
 62
     7
370
    15
100
AcDbLine
 10
237.6993192065
 20
45.559203196
 30
0.0
 11
237.2658859589
 21
45.8094595542
 31
0.0
  0
LINE
  5
215
330
1F
100
AcDbEntity
  8
0
  6
Continuous
 62
     7
370
    15
100
AcDbLine
 10
240.928167305
 20
43.6952288645
 30
0.0
 11
237.6993192065
 21
45.559203196
 31
0.0
  0
SPLINE
  5
216
330
1F
100
AcDbEntity
  8
0
  6
Continuous
 62
     7
370
    15
100
AcDbSpline
210
0.0
220
0.0
230
1.0
 70
     8
 71
     3
 72
    11
 73
     7
 74
     0
 42
0.000000001
 43
0.00000001
 40
0.0
 40
0.0
 40
0.0
 40
0.0
 40
0.2167959017936504
 40
0.5260805092056551
 40
0.8354028471249841
 40
1.0
 40
1.0
 40
1.0
 40
1.0
 10
239.8043841277637
 20
41.54537725017011
 30
0.0
 10
239.7996652378019
 20
41.75176964500051
 30
0.0
 10
239.788214301629
 20
42.25260483270574
 30
0.0
 10
239.7230621623017
 20
43.07137821965603
 30
0.0
 10
239.6823161910264
 20
43.83075255161038
 30
0.0
 10
239.7035600939768
 20
44.26328392286188
 30
0.0
 10
239.7109383217338
 20
44.41350655269673
 30
0.0
  0
LINE
  5
217
330
1F
100
AcDbEntity
  8
0
  6
Continuous
 62
     7
370
    15
100
AcDbLine
 10
239.8043841278
 20
41.1250218948
 30
0.0
 11
239.8043841278
 21
41.5453772502
 31
0.0
  0
LINE
  5
218
330
1F
100
AcDbEntity
  8
0
  6
Continuous
 62
     7
370
    15
100
AcDbLine
 10
259.5406021062
 20
37.8288215127
 30
0.0
 11
258.551552664
 21
37.9172574368
 31
0.0
  0
SPLINE
  5
219
330
1F
100
AcDbEntity
  8
0
  6
Continuous
 62
     7
370
    15
100
AcDbSpline
210
0.0
220
0.0
230
1.0
 70
     8
 71
     3
 72
    16
 73
    12
 74
     0
 42
0.000000001
 43
0.00000001
 40
0.0
 40
0.0
 40
0.0
 40
0.0
 40
0.2500000000000029
 40
0.2500000000000029
 40
0.5000000000000059
 40
0.5000000000000059
 40
0.6250000000000007
 40
0.6250000000000007
 40
0.7499999999999954
 40
0.7499999999999954
 40
1.0
 40
1.0
 40
1.0
 40
1.0
 10
259.4827716424044
 20
37.57642479372552
 30
0.0
 10
259.5068244647881
 20
37.57427410895226
 30
0.0
 10
259.5303256448962
 20
37.5751426657954
 30
0.0
 10
259.5725751615075
 20
37.58797625640254
 30
0.0
 10
259.5925329390794
 20
37.60026900530808
 30
0.0
 10
259.6077082414427
 20
37.63673070388433
 30
0.0
 10
259.610019623895
 20
37.6523416045237
 30
0.0
 10
259.6071806401275
 20
37.687488529239
 30
0.0
 10
259.6022066281646
 20
37.70656260822133
 30
0.0
 10
259.581841731093
 20
37.76171601087881
 30
0.0
 10
259.5617079182917
 20
37.79654745669684
 30
0.0
 10
259.5406021062285
 20
37.82882151268475
 30
0.0
  0
SPLINE
  5
21A
330
1F
100
AcDbEntity
  8
0
  6
Continuous
 62
     7
370
    15
100
AcDbSpline
210
0.0
220
0.0
230
1.0
 70
     8
 71
     3
 72
     8
 73
     4
 74
     0
 42
0.000000001
 43
0.00000001
 40
0.0
 40
0.0
 40
0.0
 40
0.0
 40
1.0
 40
1.0
 40
1.0
 40
1.0
 10
259.4892017409518
 20
37.86791528532072
 30
0.0
 10
259.5145536698211
 20
37.85327992830684
 30
0.0
 10
259.5313584690494
 20
37.8398857272121
 30
0.0
 10
259.540602106229
 20
37.82882151268456
 30
0.0
  0
SPLINE
  5
21B
330
1F
100
AcDbEntity
  8
0
  6
Continuous
 62
     7
370
    15
100
AcDbSpline
210
0.0
220
0.0
230
1.0
 70
     8
 71
     3
 72
     8
 73
     4
 74
     0
 42
0.000000001
 43
0.00000001
 40
0.0
 40
0.0
 40
0.0
 40
0.0
 40
1.0
 40
1.0
 40
1.0
 40
1.0
 10
263.8894762700227
 20
40.40813970075629
 30
0.0
 10
263.9148281988918
 20
40.39350434374249
 30
0.0
 10
263.9467721826943
 20
40.38884980787351
 30
0.0
 10
263.9794972609836
 20
40.39134114076072
 30
0.0
  0
SPLINE
  5
21C
330
1F
100
AcDbEntity
  8
0
  6
Continuous
 62
     7
370
    15
100
AcDbSpline
210
0.0
220
0.0
230
1.0
 70
     8
 71
     3
 72
    16
 73
    12
 74
     0
 42
0.000000001
 43
0.00000001
 40
0.0
 40
0.0
 40
0.0
 40
0.0
 40
0.2500000000000163
 40
0.2500000000000163
 40
0.3750000000000164
 40
0.3750000000000164
 40
0.5000000000000167
 40
0.5000000000000167
 40
0.7500000000000083
 40
0.7500000000000083
 40
1.0
 40
1.0
 40
1.0
 40
1.0
 10
263.9794972609834
 20
40.39134114076132
 30
0.0
 10
263.9917164794871
 20
40.35409542389105
 30
0.0
 10
264.0077851841025
 20
40.31698451614086
 30
0.0
 10
264.0460802722637
 20
40.27197754463164
 30
0.0
 10
264.0615373676178
 20
40.25900970681803
 30
0.0
 10
264.0968451973997
 20
40.24272734907228
 30
0.0
 10
264.116428559245
 20
40.23973073055937
 30
0.0
 10
264.1737293347159
 20
40.24476449052094
 30
0.0
 10
264.2087996320682
 20
40.26440803627116
 30
0.0
 10
264.2693203906197
 20
40.31089079624542
 30
0.0
 10
264.2961454946811
 20
40.33910887627054
 30
0.0
 10
264.3201704372823
 20
40.36899567646572
 30
0.0
  0
LINE
  5
21D
330
1F
100
AcDbEntity
  8
0
  6
Continuous
 62
     7
370
    15
100
AcDbLine
 10
239.194504529
 20
44.3603907098
 30
0.0
 11
239.1996924237
 21
44.6930561741
 31
0.0
  0
ARC
  5
21E
330
1F
100
AcDbEntity
  8
0
  6
Continuous
 62
     7
370
    15
100
AcDbCircle
 10
246.7756581953
 20
44.1914233501
 30
0.0
 40
7.583036389277837
100
AcDbArc
 50
178.7232135802
 51
203.1724163449
  0
LWPOLYLINE
  5
21F
330
1F
100
AcDbEntity
  8
0
  6
Continuous
 62
     7
370
    15
100
AcDbPolyline
 90
        3
 70
   128
 43
0.0
 10
226.9506677368
 20
67.8237774802
 10
226.9899546973
 20
67.8120366595
 10
227.0877511488
 20
67.7793436172
  0
LWPOLYLINE
  5
220
330
1F
100
AcDbEntity
  8
0
  6
Continuous
 62
     7
370
    15
100
AcDbPolyline
 90
        3
 70
   128
 43
0.0
 10
220.7162817374
 20
56.7424390062
 10
220.6386158607
 20
56.8111951307
 10
220.6153295925
 20
56.8331059344
  0
SPLINE
  5
221
330
1F
100
AcDbEntity
  8
0
  6
Continuous
 62
     7
370
    15
100
AcDbSpline
210
0.0
220
0.0
230
1.0
 70
     8
 71
     3
 72
    22
 73
    18
 74
     0
 42
0.000000001
 43
0.00000001
 40
0.0
 40
0.0
 40
0.0
 40
0.0
 40
0.125
 40
0.125
 40
0.25
 40
0.25
 40
0.375
 40
0.375
 40
0.5
 40
0.5
 40
0.625
 40
0.625
 40
0.75
 40
0.75
 40
0.875
 40
0.875
 40
1.0
 40
1.0
 40
1.0
 40
1.0
 10
264.9685467032399
 20
41.62170924421126
 30
0.0
 10
265.0170956819316
 20
41.68210371215724
 30
0.0
 10
265.0609898543209
 20
41.74630922071412
 30
0.0
 10
265.138583317391
 20
41.88277911314862
 30
0.0
 10
265.1721422012986
 20
41.95474139995017
 30
0.0
 10
265.2253447881252
 20
42.09837708330243
 30
0.0
 10
265.2456363320999
 20
42.17208601933402
 30
0.0
 10
265.2716538436043
 20
42.31359592533448
 30
0.0
 10
265.2777415754779
 20
42.382598867947
 30
0.0
 10
265.2761137480472
 20
42.51230374543485
 30
0.0
 10
265.2685882039263
 20
42.57160567151917
 30
0.0
 10
265.2405393009759
 20
42.67889600627923
 30
0.0
 10
265.2201324373915
 20
42.72566174868195
 30
0.0
 10
265.1677908388201
 20
42.80277479432286
 30
0.0
 10
265.13523654032
 20
42.83367929712364
 30
0.0
 10
265.060293156197
 20
42.8770452887972
 30
0.0
 10
265.0171008636293
 20
42.890228928539
 30
0.0
 10
264.968546699208
 20
42.89457040191455
 30
0.0
  0
LINE
  5
222
330
1F
100
AcDbEntity
  8
0
  6
Continuous
 62
     7
370
    15
100
AcDbLine
 10
264.9685466992
 20
42.8945704019
 30
0.0
 11
263.979497261
 21
42.9830063237
 31
0.0
  0
LINE
  5
223
330
1F
100
AcDbEntity
  8
0
  6
Continuous
 62
     7
370
    15
100
AcDbLine
 10
243.4021112188
 20
37.4109266491
 30
0.0
 11
243.4114338697
 21
37.4055447973
 31
0.0
  0
ARC
  5
224
330
1F
100
AcDbEntity
  8
0
  6
Continuous
 62
     7
370
    15
100
AcDbCircle
 10
246.2293269849
 20
38.057827635
 30
0.0
 40
5.919642220385771
100
AcDbArc
 50
192.6964501329
 51
260.4756565155
  0
SPLINE
  5
225
330
1F
100
AcDbEntity
  8
0
  6
Continuous
 62
     7
370
    15
100
AcDbSpline
210
0.0
220
0.0
230
1.0
 70
     8
 71
     3
 72
     8
 73
     4
 74
     0
 42
0.000000001
 43
0.00000001
 40
0.0
 40
0.0
 40
0.0
 40
0.0
 40
0.0012389803509652
 40
0.0012389803509652
 40
0.0012389803509652
 40
0.0012389803509652
 10
240.9281673049712
 20
37.12207532881177
 30
0.0
 10
240.7704224047727
 20
36.99999887827705
 30
0.0
 10
240.6125042258066
 20
36.87824157527623
 30
0.0
 10
240.4544308908256
 20
36.7567745537318
 30
0.0
  0
SPLINE
  5
226
330
1F
100
AcDbEntity
  8
0
  6
Continuous
 62
     7
370
    15
100
AcDbSpline
210
0.0
220
0.0
230
1.0
 70
     8
 71
     3
 72
     8
 73
     4
 74
     0
 42
0.000000001
 43
0.00000001
 40
0.0
 40
0.0
 40
0.0
 40
0.0
 40
1.0
 40
1.0
 40
1.0
 40
1.0
 10
240.9281673049712
 20
37.12207532881177
 30
0.0
 10
241.6221478879127
 20
37.23608711008438
 30
0.0
 10
242.3157809486747
 20
37.35084786260475
 30
0.0
 10
243.0088384672476
 20
37.4667071879777
 30
0.0
  0
SPLINE
  5
227
330
1F
100
AcDbEntity
  8
0
  6
Continuous
 62
     7
370
    15
100
AcDbSpline
210
0.0
220
0.0
230
1.0
 70
     8
 71
     3
 72
    12
 73
     8
 74
     0
 42
0.000000001
 43
0.00000001
 40
0.0
 40
0.0
 40
0.0
 40
0.0
 40
0.2500000000000016
 40
0.2500000000000016
 40
0.5000000000000032
 40
0.5000000000000032
 40
1.0
 40
1.0
 40
1.0
 40
1.0
 10
243.0088384672476
 20
37.4667071879777
 30
0.0
 10
243.0426269831717
 20
37.47235565806194
 30
0.0
 10
243.0781987592406
 20
37.47561612157739
 30
0.0
 10
243.1487810056331
 20
37.47675371112551
 30
0.0
 10
243.183803964082
 20
37.47473709466749
 30
0.0
 10
243.288009259347
 20
37.4603613573279
 30
0.0
 10
243.3517196912866
 20
37.4400170586955
 30
0.0
 10
243.4021112187996
 20
37.41092664906905
 30
0.0
  0
LINE
  5
228
330
1F
100
AcDbEntity
  8
0
  6
Continuous
 62
     7
370
    15
100
AcDbLine
 10
237.6993192065
 20
38.9860496603
 30
0.0
 11
240.928167305
 21
37.1220753288
 31
0.0
  0
LINE
  5
229
330
1F
100
AcDbEntity
  8
0
  6
Continuous
 62
     7
370
    15
100
AcDbLine
 10
237.6993192065
 20
38.9860496603
 30
0.0
 11
239.5922520934
 21
40.0788165557
 31
0.0
  0
LINE
  5
22A
330
1F
100
AcDbEntity
  8
0
  6
Continuous
 62
     7
370
    15
100
AcDbLine
 10
237.2658859589
 20
38.7357933021
 30
0.0
 11
237.6993192065
 21
38.9860496603
 31
0.0
  0
LINE
  5
22B
330
1F
100
AcDbEntity
  8
0
  6
Continuous
 62
     7
370
    15
100
AcDbLine
 10
240.4544308908
 20
36.7567745537
 30
0.0
 11
237.4227105665
 21
38.5069494435
 31
0.0
  0
SPLINE
  5
22C
330
1F
100
AcDbEntity
  8
0
  6
Continuous
 62
     7
370
    15
100
AcDbSpline
210
0.0
220
0.0
230
1.0
 70
     8
 71
     3
 72
     8
 73
     4
 74
     0
 42
0.000000001
 43
0.00000001
 40
0.0
 40
0.0
 40
0.0
 40
0.0
 40
1.0
 40
1.0
 40
1.0
 40
1.0
 10
237.4227105664884
 20
38.50694944345174
 30
0.0
 10
237.3426857669737
 20
38.5531467768737
 30
0.0
 10
237.2882089695918
 20
38.63633429923839
 30
0.0
 10
237.2658859589272
 20
38.73579330207952
 30
0.0
  0
LINE
  5
22D
330
1F
100
AcDbEntity
  8
0
  6
Continuous
 62
     7
370
    15
100
AcDbLine
 10
263.979497261
 20
40.3913411408
 30
0.0
 11
264.9685467032
 21
41.6217092442
 31
0.0
  0
ARC
  5
22E
330
1F
100
AcDbEntity
  8
0
  6
Continuous
 62
     7
370
    15
100
AcDbCircle
 10
261.5105459983
 20
43.885561983
 30
0.0
 40
1.491207826005057
100
AcDbArc
 50
321.0621655031
 51
347.3474134538
  0
LINE
  5
22F
330
1F
100
AcDbEntity
  8
0
  6
Continuous
 62
     7
370
    15
100
AcDbLine
 10
261.6620899093
 20
41.6939824769
 30
0.0
 11
262.6704496644
 21
42.9483724259
 31
0.0
  0
LWPOLYLINE
  5
230
330
1F
100
AcDbEntity
  8
0
  6
Continuous
 62
     7
370
    15
100
AcDbPolyline
 90
        3
 70
   128
 43
0.0
 10
240.2385287872
 20
34.6439826148
 10
239.6893724113
 20
35.0086621305
 10
239.1435979348
 20
35.4829363406
  0
ELLIPSE
  5
231
330
1F
100
AcDbEntity
  8
0
  6
Continuous
 62
     7
370
    15
100
AcDbEllipse
 10
239.3579375184
 20
40.8673161302
 30
0.0
 11
-6.005970385558612E-5
 21
0.8534489614827264
 31
0.0
210
0.0
220
0.0
230
1.0
 40
0.7174342186
 41
3.534193645557434
 42
5.104989972352359
  0
ELLIPSE
  5
232
330
1F
100
AcDbEntity
  8
0
  6
Continuous
 62
     7
370
    15
100
AcDbEllipse
 10
239.2386987028
 20
40.7984586501
 30
0.0
 11
0.2600075789209484
 21
0.9705436209909378
 31
0.0
210
0.0
220
0.0
230
1.0
 40
0.5176380889
 41
3.619174351347763
 42
5.189970678142606
  0
LWPOLYLINE
  5
233
330
1F
100
AcDbEntity
  8
0
  6
Continuous
 62
     7
370
     0
100
AcDbPolyline
 90
       44
 70
   128
 43
0.0
 10
245.8147917678
 20
37.1606916737
 10
245.8536390121
 20
38.2391420614
 10
245.9699008497
 20
39.354674263
 10
246.1627396113
 20
40.4992508432
 10
246.4307658894
 20
41.6646251017
 10
246.7720485483
 20
42.8424004902
 10
247.1841286388
 20
44.0240911099
 10
247.6640371142
 20
45.2011828531
 10
248.2083162232
 20
46.3651947465
 10
248.8130444222
 20
47.507740058
 10
249.4738646307
 20
48.6205867223
 10
250.1860156239
 20
49.6957166537
 10
250.9443663376
 20
50.7253835165
 10
251.7434528376
 20
51.7021685372
 10
252.5775176873
 20
52.6190339574
 10
253.4405514303
 20
53.4693737409
 10
254.3263358888
 20
54.2470611698
 10
255.2284889654
 20
54.9464929886
 10
256.1405106266
 20
55.5626297748
 10
257.0558297353
 20
56.091032249
 10
257.9678513965
 20
56.527893259
 10
258.8700044731
 20
56.8700652113
 10
259.7557889316
 20
57.1150827493
 10
260.6188226746
 20
57.2611805158
 10
261.4528875243
 20
57.3073058731
 10
262.2519740243
 20
57.2531264871
 10
263.010324738
 20
57.0990327213
 10
263.7224757312
 20
56.8461348249
 10
264.3832959397
 20
56.4962549331
 10
264.9880241387
 20
56.0519139385
 10
265.5323032476
 20
55.5163133281
 10
266.0122117231
 20
54.8933121167
 10
266.4242918136
 20
54.1873990421
 10
266.7655744725
 20
53.4036602244
 10
267.0336007505
 20
52.5477425195
 10
267.2264395122
 20
51.6258128343
 10
267.3427013498
 20
50.6445136932
 10
267.381548594
 20
49.610915379
 10
267.3427013498
 20
48.5324649913
 10
267.2264395122
 20
47.4169327897
 10
267.0336007505
 20
46.2723562095
 10
266.7655744725
 20
45.106981951
 10
266.4242918136
 20
43.9292065626
 10
266.2330143857
 20
43.3557948597
  0
LWPOLYLINE
  5
234
330
1F
100
AcDbEntity
  8
0
  6
Continuous
 62
     7
370
     0
100
AcDbPolyline
 90
       25
 70
   128
 43
0.0
 10
261.4423621094
 20
35.0572425504
 10
260.6188226746
 20
34.1525730953
 10
259.7557889316
 20
33.3022333119
 10
258.8700044731
 20
32.5245458829
 10
257.9678513965
 20
31.8251140641
 10
257.0558297353
 20
31.2089772779
 10
256.1405106266
 20
30.6805748038
 10
255.2284889654
 20
30.2437137937
 10
254.3263358888
 20
29.9015418414
 10
253.4405514303
 20
29.6565243035
 10
252.5775176873
 20
29.5104265369
 10
251.7434528376
 20
29.4643011796
 10
250.9443663376
 20
29.5184805656
 10
250.1860156239
 20
29.6725743314
 10
249.4738646307
 20
29.9254722278
 10
248.8130444222
 20
30.2753521196
 10
248.2083162232
 20
30.7196931142
 10
247.6640371142
 20
31.2552937246
 10
247.1841286388
 20
31.878294936
 10
246.7720485483
 20
32.5842080106
 10
246.4307658894
 20
33.3679468284
 10
246.1627396113
 20
34.2238645332
 10
245.9699008497
 20
35.1457942184
 10
245.8536390121
 20
36.1270933595
 10
245.8147917678
 20
37.1606916737
  0
LWPOLYLINE
  5
235
330
1F
100
AcDbEntity
  8
0
  6
Continuous
 62
     7
370
     0
100
AcDbPolyline
 90
       28
 70
   128
 43
0.0
 10
245.1076849867
 20
37.1606916737
 10
245.146743774
 20
38.2593802243
 10
245.2636461668
 20
39.39545858
 10
245.4575721787
 20
40.5609579676
 10
245.727161558
 20
41.7477032463
 10
246.070523329
 20
42.9473702505
 10
246.4852490556
 20
44.1515441781
 10
246.9684297347
 20
45.3517786144
 10
247.5166762011
 20
46.5396547771
 10
248.1261428997
 20
47.7068405683
 10
248.7925548596
 20
48.8451490185
 10
249.5112376796
 20
49.9465957116
 10
250.2771503161
 20
51.0034547906
 10
251.0849204423
 20
52.0083131483
 10
251.9288821312
 20
52.9541224253
 10
252.8031155978
 20
53.8342484492
 10
253.7014887226
 20
54.6425177682
 10
254.6177000636
 20
55.3732609538
 10
255.5453230564
 20
56.0213523676
 10
256.4778510924
 20
56.582246114
 10
257.4087431573
 20
57.0520079264
 10
258.3314697122
 20
57.4273427631
 10
259.2395584932
 20
57.70561792
 10
260.12663991
 20
57.8848814968
 10
260.9864917239
 20
57.9638760883
 10
261.8130826922
 20
57.9420476041
 10
262.6006148731
 20
57.8195491555
 10
262.8159625898
 20
57.7666173006
  0
ARC
  5
236
330
1F
100
AcDbEntity
  8
0
  6
Continuous
 62
     7
370
     0
100
AcDbCircle
 10
253.8801121774
 20
36.5846841807
 30
0.0
 40
8.791317503546075
100
AcDbArc
 50
176.2432869865
 51
220.8881985468
  0
LWPOLYLINE
  5
237
330
1F
100
AcDbEntity
  8
0
  6
Continuous
 62
     7
370
     0
100
AcDbPolyline
 90
       28
 70
   128
 43
0.0
 10
250.7645392362
 20
40.0181200651
 10
250.8039841617
 20
40.8229466053
 10
250.9217855133
 20
41.6624313889
 10
251.1163502297
 20
42.5252218241
 10
251.3850471571
 20
43.3996501506
 10
251.7242426303
 20
44.2738912253
 10
252.1293496125
 20
45.1361224373
 10
252.5948897267
 20
45.9746835887
 10
253.1145673414
 20
46.7782345784
 10
253.6813547085
 20
47.5359087579
 10
254.2875870012
 20
48.2374598835
 10
254.9250659675
 20
48.8734006798
 10
255.5851707982
 20
49.4351311385
 10
256.2589747077
 20
49.9150548187
 10
256.9373656542
 20
50.3066815761
 10
257.6111695637
 20
50.6047153305
 10
258.2712743944
 20
50.8051256866
 10
258.9087533607
 20
50.9052024383
 10
259.5149856533
 20
50.9035922191
 10
260.0817730204
 20
50.8003168045
 10
260.6014506352
 20
50.5967728173
 10
261.0669907494
 20
50.2957128407
 10
261.4720977316
 20
49.9012081945
 10
261.8112932048
 20
49.4185938772
 10
262.0799901322
 20
48.8543964195
 10
262.2745548486
 20
48.2162456243
 10
262.3923562002
 20
47.5127713862
 10
262.4157174253
 20
47.2440878696
  0
LWPOLYLINE
  5
238
330
1F
100
AcDbEntity
  8
0
  6
Continuous
 62
     7
370
     0
100
AcDbPolyline
 90
       14
 70
   128
 43
0.0
 10
256.1662253463
 20
36.4184770898
 10
255.5851707982
 20
36.1668917222
 10
254.9250659675
 20
35.9664813661
 10
254.2875870012
 20
35.8664046144
 10
253.6813547085
 20
35.8680148336
 10
253.1145673414
 20
35.9712902482
 10
252.5948897267
 20
36.1748342354
 10
252.1293496125
 20
36.475894212
 10
251.7242426303
 20
36.8703988583
 10
251.3850471571
 20
37.3530131755
 10
251.1163502297
 20
37.9172106332
 10
250.9217855133
 20
38.5553614284
 10
250.8039841617
 20
39.2588356665
 10
250.7645392362
 20
40.0181200651
  0
LWPOLYLINE
  5
239
330
1F
100
AcDbEntity
  8
0
  6
Continuous
 62
     7
370
     0
100
AcDbPolyline
 90
       21
 70
   128
 43
0.0
 10
243.0088384672
 20
44.0398607237
 10
243.3031657934
 20
45.1433092296
 10
243.6693445732
 20
46.2537028706
 10
244.1043783106
 20
47.3619551281
 10
244.6047070589
 20
48.4589970071
 10
245.1662365527
 20
49.5358512486
 10
245.7843717115
 20
50.5837057921
 10
246.4540542422
 20
51.593985886
 10
247.1698040317
 20
52.5584242563
 10
247.9257639918
 20
53.4691287583
 10
248.7157479883
 20
54.3186469601
 10
249.533291463
 20
55.1000271261
 10
250.3717043346
 20
55.8068751048
 10
251.2241257442
 20
56.4334066527
 10
252.0835801991
 20
56.9744947678
 10
252.943034654
 20
57.4257116446
 10
253.7954560637
 20
57.7833649072
 10
254.6338689352
 20
58.0445278254
 10
255.4514124099
 20
58.2070632634
 10
256.2413964064
 20
58.2696411695
 10
256.6280855872
 20
58.2630488067
  0
LWPOLYLINE
  5
23A
330
1F
100
AcDbEntity
  8
0
  6
Continuous
 62
     7
370
     0
100
AcDbPolyline
 90
       24
 70
   128
 43
0.0
 10
237.4227105665
 20
45.718937875
 10
237.7295260442
 20
46.940338262
 10
238.1126849663
 20
48.1716197465
 10
238.5693701655
 20
49.4037293586
 10
239.0962238739
 20
50.6276080397
 10
239.6893724113
 20
51.8342572489
 10
240.3444546663
 20
53.0148051247
 10
241.056654161
 20
54.1605717149
 10
241.8207344644
 20
55.2631327962
 10
242.6310776932
 20
56.3143818127
 10
243.4817258167
 20
57.3065894791
 10
244.3664244633
 20
58.2324606108
 10
245.278668906
 20
59.0851877606
 10
246.2117518876
 20
59.8585012713
 10
247.1588129363
 20
60.5467153722
 10
248.1128888067
 20
61.1447699845
 10
249.0669646771
 20
61.6482679249
 10
250.0140257258
 20
62.053507236
 10
250.9471087074
 20
62.3575084047
 10
251.8593531501
 20
62.5580362692
 10
252.7440517967
 20
62.6536164528
 10
253.5946999202
 20
62.6435462042
 10
254.405043149
 20
62.5278995649
 10
254.761591051
 20
62.4397435492
  0
LWPOLYLINE
  5
23B
330
1F
100
AcDbEntity
  8
0
  6
Continuous
 62
     7
370
     0
100
AcDbPolyline
 90
       19
 70
   128
 43
0.0
 10
243.4021112188
 20
43.9840801847
 10
243.7067961123
 20
45.1079231143
 10
244.086786984
 20
46.2382530372
 10
244.5387648279
 20
47.3651971587
 10
245.0587818724
 20
48.4789122572
 10
245.6422960616
 20
49.5696706591
 10
246.2842107281
 20
50.6279452046
 10
246.9789191091
 20
51.6444924621
 10
247.7203533184
 20
52.6104334643
 10
248.5020373462
 20
53.5173312611
 10
249.3171436232
 20
54.3572646114
 10
250.1585526555
 20
55.1228971709
 10
251.0189152094
 20
55.8075415708
 10
251.8907165031
 20
56.405217828
 10
252.7663418437
 20
56.9107055775
 10
253.6381431374
 20
57.3195896687
 10
254.4985056913
 20
57.6282987295
 10
255.3399147236
 20
57.8341363604
 10
255.7630203142
 20
57.8993365584
  0
ARC
  5
23C
330
1F
100
AcDbEntity
  8
0
  6
Continuous
 62
     7
370
     0
100
AcDbCircle
 10
256.7261705031
 20
39.7120619764
 30
0.0
 40
3.148116857812535
100
AcDbArc
 50
174.4209254684
 51
234.2668941382
  0
LWPOLYLINE
  5
23D
330
1F
100
AcDbEntity
  8
0
  6
Continuous
 62
     7
370
     0
100
AcDbPolyline
 90
       19
 70
   128
 43
0.0
 10
261.1371297828
 20
47.9822008044
 10
260.8656826931
 20
48.1137772407
 10
260.3903942481
 20
48.2437912808
 10
259.8726701493
 20
48.2725455924
 10
259.3217491955
 20
48.1995270538
 10
258.7474625842
 20
48.0260386828
 10
258.1600584735
 20
47.7551763834
 10
257.5700191038
 20
47.3917736998
 10
256.9878737416
 20
46.9423155614
 10
256.4240107847
 20
46.4148225594
 10
255.8884923808
 20
45.8187078189
 10
255.3908748686
 20
45.1646090215
 10
254.9400382443
 20
44.4641985759
 10
254.5440276983
 20
43.729975323
 10
254.2099100481
 20
42.9750414941
 10
253.943647631
 20
42.2128689013
 10
253.7499919063
 20
41.4570585325
 10
253.6323986648
 20
40.7210978418
 10
253.5929663609
 20
40.0181200651
  0
LWPOLYLINE
  5
23E
330
1F
100
AcDbEntity
  8
0
  6
Continuous
 62
     7
370
     0
100
AcDbPolyline
 90
       14
 70
   128
 43
0.0
 10
259.4827716424
 20
37.5764247937
 10
259.7192906919
 20
37.2540557197
 10
260.0204506344
 20
37.022633113
 10
260.3773304622
 20
36.8890122108
 10
260.7793586244
 20
36.8571511527
 10
261.2146261789
 20
36.9279937321
 10
261.670239561
 20
37.0994414387
 10
262.1327025187
 20
37.3664156215
 10
262.5883159008
 20
37.7210079287
 10
263.0235834553
 20
38.1527145707
 10
263.4256116175
 20
38.6487474647
 10
263.7824914453
 20
39.1944130455
 10
264.0836513878
 20
39.7735475206
 10
264.3201704373
 20
40.3689956765
  0
LWPOLYLINE
  5
23F
330
1F
100
AcDbEntity
  8
0
  6
Continuous
 62
     7
370
     0
100
AcDbPolyline
 90
       14
 70
   128
 43
0.0
 10
264.3200721965
 20
43.0722991175
 10
264.0835402036
 20
43.394604997
 10
263.7823803514
 20
43.6259747224
 10
263.4255123005
 20
43.7595556558
 10
263.02350566
 20
43.7913914377
 10
262.5882669402
 20
43.7205391657
 10
262.1326869088
 20
43.5490973208
 10
261.6702587962
 20
43.2821436153
 10
261.2146786573
 20
42.9275846026
 10
260.779439726
 20
42.4959215035
 10
260.377432776
 20
41.9999391842
 10
260.0205643269
 20
41.4543274977
 10
259.7194039994
 20
40.8752462047
 10
259.4828714685
 20
40.2798463585
  0
LINE
  5
240
330
1F
100
AcDbEntity
  8
0
  6
Continuous
 62
     7
370
     0
100
AcDbLine
 10
243.4114338697
 20
37.4055447973
 30
0.0
 11
243.817215111
 21
37.6397973216
 31
0.0
  0
LWPOLYLINE
  5
241
330
1F
100
AcDbEntity
  8
0
  6
Continuous
 62
     7
370
     0
100
AcDbPolyline
 90
        3
 70
   128
 43
0.0
 10
244.3643145074
 20
37.3852568891
 10
244.2856685635
 20
37.4141895232
 10
243.817215111
 20
37.6397973216
  0
LINE
  5
242
330
1F
100
AcDbEntity
  8
0
  6
Continuous
 62
     7
370
     0
100
AcDbLine
 10
258.551552664
 20
37.9172574368
 30
0.0
 11
258.6222633421
 21
37.6533672028
 31
0.0
  0
LWPOLYLINE
  5
243
330
1F
100
AcDbEntity
  8
0
  6
Continuous
 62
     7
370
     0
100
AcDbPolyline
 90
        3
 70
   128
 43
0.0
 10
263.88947627
 20
43.0255533623
 10
263.6472216088
 20
43.3251164101
 10
263.4391967876
 20
43.4779053421
  0
LWPOLYLINE
  5
244
330
1F
100
AcDbEntity
  8
0
  6
Continuous
 62
     7
370
     0
100
AcDbPolyline
 90
       12
 70
   128
 43
0.0
 10
259.9698889923
 20
37.3986089296
 10
260.0387558948
 20
37.3644148811
 10
260.4008911064
 20
37.2628784286
 10
260.8058311706
 20
37.2671161271
 10
261.2401231572
 20
37.3769871915
 10
261.6893390055
 20
37.5888414822
 10
262.1385548537
 20
37.89564077
 10
262.5728468403
 20
38.2871925603
 10
262.9777869046
 20
38.7504887082
 10
263.3399221162
 20
39.2701375762
 10
263.6472216088
 20
39.8288753747
 10
263.88947627
 20
40.4081397008
  0
ARC
  5
245
330
1F
100
AcDbEntity
  8
0
  6
Continuous
 62
     7
370
     0
100
AcDbCircle
 10
243.1292259415
 20
38.6963989168
 30
0.0
 40
1.260847345343671
100
AcDbArc
 50
303.0695173616
 51
345.5982002291
  0
LINE
  5
246
330
1F
100
AcDbEntity
  8
0
  6
Continuous
 62
     7
370
     0
100
AcDbLine
 10
258.3424036598
 20
38.0379965869
 30
0.0
 11
258.551552664
 21
37.9172574368
 31
0.0
  0
LINE
  5
247
330
1F
100
AcDbEntity
  8
0
  6
Continuous
 62
     7
370
     0
100
AcDbLine
 10
239.9236229433
 20
41.1938793749
 30
0.0
 11
244.3086134489
 21
38.6624782384
 31
0.0
  0
LINE
  5
248
330
1F
100
AcDbEntity
  8
0
  6
Continuous
 62
     7
370
     0
100
AcDbLine
 10
239.8043841278
 20
41.1250218948
 30
0.0
 11
239.9236229433
 21
41.1938793749
 31
0.0
  0
LINE
  5
249
330
1F
100
AcDbEntity
  8
0
  6
Continuous
 62
     7
370
     0
100
AcDbLine
 10
239.5480579196
 20
44.1562886819
 30
0.0
 11
239.5532458143
 21
44.4889541461
 31
0.0
  0
ARC
  5
24A
330
1F
100
AcDbEntity
  8
0
  6
Continuous
 62
     7
370
     0
100
AcDbCircle
 10
248.1521701039
 20
44.0826332786
 30
0.0
 40
8.604427441696116
100
AcDbArc
 50
179.5095321196
 51
192.163968291
  0
LWPOLYLINE
  5
24B
330
1F
100
AcDbEntity
  8
0
  6
Continuous
 62
     7
370
     0
100
AcDbPolyline
 90
       18
 70
   128
 43
0.0
 10
219.7025420213
 20
59.4551681295
 10
219.7412953284
 20
60.1603065586
 10
219.8568921698
 20
60.8981234896
 10
220.0473546515
 20
61.6559946702
 10
220.3094239077
 20
62.4209527146
 10
220.6386158607
 20
63.1799089783
 10
221.0292979449
 20
63.9198775095
 10
221.4747854815
 20
64.6281972412
 10
221.9674560554
 20
65.2927486265
 10
222.4988799363
 20
65.902161007
 10
223.0599643143
 20
66.4460071679
 10
223.6411088803
 20
66.9149817506
 10
224.2323700894
 20
67.3010604699
 10
224.8236312985
 20
67.5976374119
 10
225.4047758644
 20
67.7996380629
 10
225.9658602425
 20
67.9036061358
 10
226.4972841234
 20
67.9077627081
 10
226.9506677368
 20
67.8237774802
  0
ARC
  5
24C
330
1F
100
AcDbEntity
  8
0
  6
Continuous
 62
     7
370
     0
100
AcDbCircle
 10
223.2991896694
 20
59.2373165535
 30
0.0
 40
3.603239322258926
100
AcDbArc
 50
176.5337875941
 51
221.8540867457
  0
LINE
  5
24D
330
1F
100
AcDbEntity
  8
0
  6
Continuous
 62
     7
370
     0
100
AcDbLine
 10
265.1806787376
 20
41.4394598214
 30
0.0
 11
264.9685467032
 21
41.6217092442
 31
0.0
  0
LWPOLYLINE
  5
24E
330
1F
100
AcDbEntity
  8
0
  6
Continuous
 62
     7
370
     0
100
AcDbPolyline
 90
        3
 70
   128
 43
0.0
 10
243.8709192825
 20
36.3131295498
 10
243.7012183508
 20
36.650821341
 10
243.4021112188
 20
37.4109266491
  0
ARC
  5
24F
330
1F
100
AcDbEntity
  8
0
  6
Continuous
 62
     7
370
     0
100
AcDbCircle
 10
249.0508315984
 20
39.3440834455
 30
0.0
 40
6.326944176277143
100
AcDbArc
 50
197.2611351492
 51
214.0281525679
  0
LINE
  5
250
330
1F
100
AcDbEntity
  8
0
  6
Continuous
 62
     7
370
     0
100
AcDbLine
 10
243.817215111
 20
37.6397973216
 30
0.0
 11
239.5922520934
 21
40.0788165557
 31
0.0
  0
LINE
  5
251
330
1F
100
AcDbEntity
  8
0
  6
Continuous
 62
     7
370
     0
100
AcDbLine
 10
262.6704496644
 20
42.9483724259
 30
0.0
 11
264.9685467032
 21
41.6217092442
 31
0.0
  0
ARC
  5
252
330
1F
100
AcDbEntity
  8
0
  6
Continuous
 62
     7
370
     0
100
AcDbCircle
 10
244.1166704872
 20
40.3146455728
 30
0.0
 40
6.933748244316104
100
AcDbArc
 50
195.112183421
 51
224.1739785086
  0
OLE2FRAME
  5
253
330
1F
100
AcDbEntity
  8
0
100
AcDbOle2Frame
 70
     2
  3
Paintbrush-Bild
 10
13.8511154363
 20
38.264191557
 30
0.0
 11
51.6290888628
 21
31.9806341108
 31
0.0
 71
     2
 72
     0
 73
     1
 90
    12928
310
80552BED0767C5B32B40DDAF6807D121434000000000000000006FFBDDFB85D0
310
4940DDAF6807D121434000000000000000006FFBDDFB85D04940416F4BD60AFB
310
3F4000000000000000002BED0767C5B32B40416F4BD60AFB3F40000000000000
310
0000000000000100000000010000010000000100000000000100000000320000
310
D0CF11E0A1B11AE1000000000000000000000000000000003E000300FEFF0900
310
0600000000000000000000000100000001000000000000000010000002000000
310
01000000FEFFFFFF0000000000000000FFFFFFFFFFFFFFFFFFFFFFFFFFFFFFFF
310
FFFFFFFFFFFFFFFFFFFFFFFFFFFFFFFFFFFFFFFFFFFFFFFFFFFFFFFFFFFFFFFF
310
FFFFFFFFFFFFFFFFFFFFFFFFFFFFFFFFFFFFFFFFFFFFFFFFFFFFFFFFFFFFFFFF
310
FFFFFFFFFFFFFFFFFFFFFFFFFFFFFFFFFFFFFFFFFFFFFFFFFFFFFFFFFFFFFFFF
310
FFFFFFFFFFFFFFFFFFFFFFFFFFFFFFFFFFFFFFFFFFFFFFFFFFFFFFFFFFFFFFFF
310
FFFFFFFFFFFFFFFFFFFFFFFFFFFFFFFFFFFFFFFFFFFFFFFFFFFFFFFFFFFFFFFF
310
FFFFFFFFFFFFFFFFFFFFFFFFFFFFFFFFFFFFFFFFFFFFFFFFFFFFFFFFFFFFFFFF
310
FFFFFFFFFFFFFFFFFFFFFFFFFFFFFFFFFFFFFFFFFFFFFFFFFFFFFFFFFFFFFFFF
310
FFFFFFFFFFFFFFFFFFFFFFFFFFFFFFFFFFFFFFFFFFFFFFFFFFFFFFFFFFFFFFFF
310
FFFFFFFFFFFFFFFFFFFFFFFFFFFFFFFFFFFFFFFFFFFFFFFFFFFFFFFFFFFFFFFF
310
FFFFFFFFFFFFFFFFFFFFFFFFFFFFFFFFFFFFFFFFFFFFFFFFFFFFFFFFFFFFFFFF
310
FFFFFFFFFFFFFFFFFFFFFFFFFFFFFFFFFFFFFFFFFFFFFFFFFFFFFFFFFFFFFFFF
310
FFFFFFFFFFFFFFFFFFFFFFFFFFFFFFFFFFFFFFFFFFFFFFFFFFFFFFFFFFFFFFFF
310
FFFFFFFFFFFFFFFFFFFFFFFFFFFFFFFFFFFFFFFFFFFFFFFFFFFFFFFFFFFFFFFF
310
FDFFFFFFFEFFFFFFFEFFFFFFFEFFFFFF05000000060000000700000008000000
310
090000000A0000000B0000000C0000000D0000000E0000000F00000010000000
310
11000000120000001300000014000000150000001600000017000000FEFFFFFF
310
FFFFFFFFFFFFFFFFFFFFFFFFFFFFFFFFFFFFFFFFFFFFFFFFFFFFFFFFFFFFFFFF
310
FFFFFFFFFFFFFFFFFFFFFFFFFFFFFFFFFFFFFFFFFFFFFFFFFFFFFFFFFFFFFFFF
310
FFFFFFFFFFFFFFFFFFFFFFFFFFFFFFFFFFFFFFFFFFFFFFFFFFFFFFFFFFFFFFFF
310
FFFFFFFFFFFFFFFFFFFFFFFFFFFFFFFFFFFFFFFFFFFFFFFFFFFFFFFFFFFFFFFF
310
FFFFFFFFFFFFFFFFFFFFFFFFFFFFFFFFFFFFFFFFFFFFFFFFFFFFFFFFFFFFFFFF
310
FFFFFFFFFFFFFFFFFFFFFFFFFFFFFFFFFFFFFFFFFFFFFFFFFFFFFFFFFFFFFFFF
310
FFFFFFFFFFFFFFFFFFFFFFFFFFFFFFFFFFFFFFFFFFFFFFFFFFFFFFFFFFFFFFFF
310
FFFFFFFFFFFFFFFFFFFFFFFFFFFFFFFFFFFFFFFFFFFFFFFFFFFFFFFFFFFFFFFF
310
FFFFFFFFFFFFFFFFFFFFFFFFFFFFFFFFFFFFFFFFFFFFFFFFFFFFFFFFFFFFFFFF
310
FFFFFFFFFFFFFFFFFFFFFFFFFFFFFFFFFFFFFFFFFFFFFFFFFFFFFFFFFFFFFFFF
310
FFFFFFFFFFFFFFFFFFFFFFFFFFFFFFFFFFFFFFFFFFFFFFFFFFFFFFFFFFFFFFFF
310
FFFFFFFFFFFFFFFFFFFFFFFFFFFFFFFFFFFFFFFFFFFFFFFFFFFFFFFFFFFFFFFF
310
FFFFFFFFFFFFFFFFFFFFFFFFFFFFFFFFFFFFFFFFFFFFFFFFFFFFFFFFFFFFFFFF
310
52006F006F007400200045006E00740072007900000000000000000000000000
310
0000000000000000000000000000000000000000000000000000000000000000
310
16000500FFFFFFFFFFFFFFFF020000000A00030000000000C000000000000046
310
000000000000000000000000F074EC96CB22D20103000000C000000000000000
310
01004F006C006500000000000000000000000000000000000000000000000000
310
0000000000000000000000000000000000000000000000000000000000000000
310
0A000200FFFFFFFFFFFFFFFFFFFFFFFF00000000000000000000000000000000
310
0000000000000000000000000000000000000000000000001400000000000000
310
010043006F006D0070004F0062006A0000000000000000000000000000000000
310
0000000000000000000000000000000000000000000000000000000000000000
310
120002010100000003000000FFFFFFFF00000000000000000000000000000000
310
0000000000000000000000000000000000000000010000004D00000000000000
310
01004F006C006500310030004E00610074006900760065000000000000000000
310
0000000000000000000000000000000000000000000000000000000000000000
310
1A000200FFFFFFFFFFFFFFFFFFFFFFFF00000000000000000000000000000000
310
0000000000000000000000000000000000000000040000002426000000000000
310
FEFFFFFF02000000FEFFFFFFFFFFFFFFFFFFFFFFFFFFFFFFFFFFFFFFFFFFFFFF
310
FFFFFFFFFFFFFFFFFFFFFFFFFFFFFFFFFFFFFFFFFFFFFFFFFFFFFFFFFFFFFFFF
310
FFFFFFFFFFFFFFFFFFFFFFFFFFFFFFFFFFFFFFFFFFFFFFFFFFFFFFFFFFFFFFFF
310
FFFFFFFFFFFFFFFFFFFFFFFFFFFFFFFFFFFFFFFFFFFFFFFFFFFFFFFFFFFFFFFF
310
FFFFFFFFFFFFFFFFFFFFFFFFFFFFFFFFFFFFFFFFFFFFFFFFFFFFFFFFFFFFFFFF
310
FFFFFFFFFFFFFFFFFFFFFFFFFFFFFFFFFFFFFFFFFFFFFFFFFFFFFFFFFFFFFFFF
310
FFFFFFFFFFFFFFFFFFFFFFFFFFFFFFFFFFFFFFFFFFFFFFFFFFFFFFFFFFFFFFFF
310
FFFFFFFFFFFFFFFFFFFFFFFFFFFFFFFFFFFFFFFFFFFFFFFFFFFFFFFFFFFFFFFF
310
FFFFFFFFFFFFFFFFFFFFFFFFFFFFFFFFFFFFFFFFFFFFFFFFFFFFFFFFFFFFFFFF
310
FFFFFFFFFFFFFFFFFFFFFFFFFFFFFFFFFFFFFFFFFFFFFFFFFFFFFFFFFFFFFFFF
310
FFFFFFFFFFFFFFFFFFFFFFFFFFFFFFFFFFFFFFFFFFFFFFFFFFFFFFFFFFFFFFFF
310
FFFFFFFFFFFFFFFFFFFFFFFFFFFFFFFFFFFFFFFFFFFFFFFFFFFFFFFFFFFFFFFF
310
FFFFFFFFFFFFFFFFFFFFFFFFFFFFFFFFFFFFFFFFFFFFFFFFFFFFFFFFFFFFFFFF
310
FFFFFFFFFFFFFFFFFFFFFFFFFFFFFFFFFFFFFFFFFFFFFFFFFFFFFFFFFFFFFFFF
310
FFFFFFFFFFFFFFFFFFFFFFFFFFFFFFFFFFFFFFFFFFFFFFFFFFFFFFFFFFFFFFFF
310
FFFFFFFFFFFFFFFFFFFFFFFFFFFFFFFFFFFFFFFFFFFFFFFFFFFFFFFFFFFFFFFF
310
0100000200000000000000000000000000000000000000000000000000000000
310
0000000000000000000000000000000000000000000000000000000000000000
310
0100FEFF030A0000FFFFFFFF0A00030000000000C00000000000004607000000
310
5042727573680007000000504272757368000700000050427275736800F439B2
310
7100000000000000000000000000000000000000000000000000000000000000
310
0000000000000000000000000000000000000000000000000000000000000000
310
0000000000000000000000000000000000000000000000000000000000000000
310
0000000000000000000000000000000000000000000000000000000000000000
310
0000000000000000000000000000000000000000000000000000000000000000
310
0000000000000000000000000000000000000000000000000000000000000000
310
0000000000000000000000000000000000000000000000000000000000000000
310
0000000000000000000000000000000000000000000000000000000000000000
310
0000000000000000000000000000000000000000000000000000000000000000
310
0000000000000000000000000000000000000000000000000000000000000000
310
0000000000000000000000000000000000000000000000000000000000000000
310
0000000000000000000000000000000000000000000000000000000000000000
310
20260000424D0E260000000000003E00000028000000B40200006E0000000100
310
01000000000000000000130B0000130B00000200000002000000000000FFFFFF
310
FFFFFFFFFFFFFFFFFFFFFFFFFFFFFFFFFFFFFFFFFFFFFFFFFFFFFFFFFFFFFFFF
310
FFFFFFFFFFFFFFFFFFFFFFFFFFFFFFFFFFFFFFFFFFFFFFFFFFFFFFFFFFFFFFFF
310
FFFFFFFFFFFFFFFFFFFFFFFFFFFFFFFFFFFFFFFFFFFFFFFFF000FFFFFFFFFFFF
310
FFFFFFFFFFFFFFFFFFFFFFFFFFFFFFFFFFFFFFFFFFFFFFFFFFFFFFFFFFFFFFFF
310
FFFFFFFFFFFFFFFFFFFFFFFFFFFFFFFFFFFFFFFFFFFFFFFFFFFFFFFFFFFFFFFF
310
FFFFFFFFFFFFFFFFFFFFFFFFFFFFFFFFF000FFFFFFFFFFFFFFFFFFFFFFFFFFFF
310
FFFFFFFFFFFFFFFFFFFFFFFFFFFFFFFFFFFFFFFFFFFFFFFFFFFFFFFFFFFFFFFF
310
FFFFFFFFFFFFFFFFFFFFFFFFFFFFFFFFFFFFFFFFFFFFFFFFFFFFFFFFFFFFFFFF
310
FFFFFFFFFFFFFFFFF000FFFFFFFFFFFFFFFFFFFFFFFFFFFFFFFFFFFFFFFFFFFF
310
FFFFFFFFFFFFFFFFFFFFFFFFFFFFFFFFFFFFFFFFFFFFFFFFFFFFFFFFFFFFFFFF
310
FFFFFFFFFFFFFFFFFFFFFFFFFFFFFFFFFFFFFFFFFFFFFFFFFFFFFFFFFFFFFFFF
310
F000FFFFFFFFFFFFFFFFFFFFFFFFFFFFFFFFFFFFFFFFFFFFFFFFFFFFFFFFFFFF
310
FFFFFFFFFFFFFFFFFFFFFFFFFFFFFFFFFFFFFFFFFFFFFFFFFFFFFFFFFFFFFFFF
310
FFFFFFFFFFFFFFFFFFFFFFFFFFFFFFFFFFFFFFFFFFFFFFFFF000FFFFFFFFFFFF
310
FFFFFFFFFFFFFFFFFFFFFFFFFFFFFFFFFFFFFFFFFFFFFFFFFFFFFFFFFFFFFFFF
310
FFFFFFFFFFFFFFFFFFFFFFFFFFFFFFFFFFFFFFFFFFFFFFFFFFFFFFFFFFFFFFFF
310
FFFFFFFFFFFFFFFFFFFFFFFFFFFFFFFFF000FFFFFFFFFFFFFFFFFFFFFFFFFFFF
310
FFFFFFFFFFFFFFFFFFFFFFFFFFFFFFFFFFFFFFFFFFFFFFFFFFFFFFFFFFFFFFFF
310
FFFFFFFFFFFFFFFFFFFFFFFFFFFFFFFFFFFFFFFFFFFFFFFFFFFFFFFFFFFFFFFF
310
FFFFFFFFFFFFFFFFF000FFFFFFFFFFFFFFFFFFFFFFFFFFFFFFFFFFFFFFFFFFFF
310
FFFFFFFFFFFFFFFFFFFFFFFFFFFFFFFFFFFFFFFFFFFFFFFFFFFFFFFFFFFFFFFF
310
FFFFFFFFFFFFFFFFFFFFFFFFFFFFFFFFFFFFFFFFFFFFFFFFFFFFFFFFFFFFFFFF
310
F000FFFFFFFFFFFFFFFFFFFFFFFFFFFFFFFFFFFFFFFFFFFFFFFFFFFFFFFFFFFF
310
FFFFFFFFFFFFFFFFFFFFFFFFFFFFFFFFFFFFFFFFFFFFFFFFFFFFFFFFFFFFFFFF
310
FFFFFFFFFFFFFFFFFFFFFFFFFFFFFFFFFFFFFFFFFFFFFFFFF000FFFFFFFFFFFF
310
FFFFFFFFFFFFFFFFFFFFFFFFFFFFFFFFFFFFFFFFFFFFFFFFFFFFFFFFFFFFFFFF
310
FFFFFFFFFFFFFFFFFFFFFFFFFFFFFFFFFFFFFFFFFFFFFFFFFFFFFFFFFFFFFFFF
310
FFFFFFFFFFFFFFFFFFFFFFFFFFFFFFFFF000FFFFFFFFFFFFFFFFFFFFFFFFFFFF
310
FFFFFFFFFFFFFFFFFFFFFFFFFFFFFFFFFFFFFFFFFFFFFFFFFFFFFFFFFFFFFFFF
310
FFFFFFFFFFFFFFFFFFFFFFFFFFFFFFFFFFFFFFFFFFFFFFFFFFFFFFFFFFFFFFFF
310
FFFFFFFFFFFFFFFFF000FFFFFFFFFFFFFFFFFFFFFFFFFFFFFFFFFFFFFFFFFFFF
310
FFFFFFFFFFFFFFFFFFFFFFFFFFFFFFFFFFFFFFFFFFFFFFFFFFFFFFFFFFFFFFFF
310
FFFFFFFFFFFFFFFFFFFFFFFFFFFFFFFFFFFFFFFFFFFFFFFFFFFFFFFFFFFFFFFF
310
F000FFFFFFFFFFFFFFFFFFFFFFFFFFFFFFFFFFFFFFFFFFFFFFFFFFFFFFFFFFFF
310
FFFFFFFFFFFFFFFFFFFFFFFFFFFFFFFFFFFFFFFFFFFFFFFFFFFFFFFFFFFFFFFF
310
FFFFFFFFFFFFFFFFFFFFFFFFFFFFFFFFFFFFFFFFFFFFFFFFF000FFFFFFFFFFFF
310
FFFFFFFFFFFFFFFFFFFFFFFFFFFFFFFFFFFFFFFFFFFFFFFFFFFFFFFFFFFFFFFF
310
FFFFFFFFFFFFFFFFFFFFFFFFFFFFFFFFFFFFFFFFFFFFFFFFFFFFFFFFFFFFFFFF
310
FFFFFFFFFFFFFFFFFFFFFFFFFFFFFFFFF000FFFFFFFFFFFFFFFFFFFFFFFFFFFF
310
FFFFFFFFFFFFFFFFFFFFFFFFFFFFFFFFFFFFFFFFFFFFFFFFFFFFFFFFFFFFFFFF
310
FFFFFFFFFFFFFFFFFFFFFFFFFFFFFFFFFFFFFFFFFFFFFFFFFFFFFFFFFFFFFFFF
310
FFFFFFFFFFFFFFFFF000FFFFFFFFFFFFFFFFFFFFFFFFFFFFFFFFFFFFFFFFFFFF
310
FFFFFFFFFFFFFFFFFFFFFFFFFFFFFFFFFFFFFFFFFFFFFFFFFFFFFFFFFFFFFFFF
310
FFFFFFFFFFFFFFFFFFFFFFFFFFFFFFFFFFFFFFFFFFFFFFFFFFFFFFFFFFFFFFFF
310
F000FFFFFFFFFFFFFFFFFFFFFFFFFFFFFFFFFFFFFFFFFFFFFFFFFFFFFFFFFFFF
310
FFFFFFFFFFFFFFFFFFFFFFFFFFFFFFFFFFFFFFFFFFFFFFFFFFFFFFFFFFFFFFFF
310
FFFFFFFFFFFFFFFFFFFFFFFFFFFFFFFFFFFFFFFFFFFFFFFFF000FFFFFFFFFFFF
310
FFFFFFFFFFFFFFFFFFFFFFFFFFFFFFFFFFFFFFFFFFFFFFFFFFFFFFFFFFFFFFFF
310
FFFFFFFFFFFFFFFFFFFFFFFFFFFFFFFFFFFFFFFFFFFFFFFFFFFFFFFFFFFFFFFF
310
FFFFFFFFFFFFFFFFFFFFFFFFFFFFFFFFF000FFFFFFFFFFFFFFFFFFFFFFFFFFFF
310
FFFFFFFFFFFFFFFFFFFFFFFFFFFFFFFFFFFFFFFFFFFFFFFFFFFFFFFFFFFFFFFF
310
FFFFFFFFFFFFFFFFFFFFFFFFFFFFFFFFFFFFFFFFFFFFFFFFFFFFFFFFFFFFFFFF
310
FFFFFFFFFFFFFFFFF000FFFFF80003FFFFFFFFFFFFFFFFFFFFFFFFFFFFFFFFFF
310
FFFFF00007FFFFFFFFFF00007FFFFFF800000000000000007FFFFFFFFFFFFFFF
310
FFFFFFFC001FFFFFFFFFFFFFFC001FFFFFFFFFFFFFFFFFFFFFFFFFFE0007FFFF
310
F000FFFF8000007FFFFFFFF8000FFFFFC0007FFFFF80007FFFFF0000007FFFFF
310
FFF8000007FFFFF800000000000000007FFFFFF0001FFFFFFFFFFFC00001FFFF
310
FFFFFFFFC00001FFFFFFFF000000000003FFFFE000007FFFF000FFFE0000000F
310
FFFFFFF0000FFFFF80007FFFFF80007FFFFC0000001FFFFFFFC0000001FFFFF8
310
00000000000000007FFFFFF0001FFFFFFFFFFE0000003FFFFFFFFFFE0000003F
310
FFFFFF000000000003FFFF0000000FFFF000FFF800000003FFFFFFF00007FFFF
310
80007FFFFF80007FFFF000000007FFFFFF000000003FFFF80000000000000000
310
7FFFFFF0001FFFFFFFFFF80000000FFFFFFFFFF80000000FFFFFFF0000000000
310
03FFFC00000003FFF000FFE000000000FFFFFFF00007FFFF80003FFFFF80007F
310
FFC000000001FFFFFC000000001FFFF800000000000000007FFFFFF0001FFFFF
310
FFFFE000000003FFFFFFFFE000000003FFFFFF000000000003FFF000000000FF
310
F000FF80000000007FFFFFF00007FFFF80003FFFFF80007FFF8000000000FFFF
310
F80000000007FFF800000000000000007FFFFFF0001FFFFFFFFFC000000001FF
310
FFFFFFC000000001FFFFFF000000000003FFC0000000007FF000FF0000000000
310
3FFFFFE00007FFFF00003FFFFF80007FFE00000000003FFFF00000000003FFF8
310
00000000000000007FFFFFF0001FFFFFFFFF8000000000FFFFFFFF8000000000
310
FFFFFF000000000003FF80000000003FF000FE00000000001FFFFFE00003FFFF
310
00003FFFFF80007FFC00000000001FFFE00000000001FFF8000001FFFE000000
310
7FFFFFF0001FFFFFFFFE00000000003FFFFFFE00000000003FFFFF0000000000
310
03FF00000000001FF000FC00000000000FFFFFE00003FFFF00001FFFFF80007F
310
F800000000001FFFC00000000000FFF8000001FFFE0000007FFFFFF0001FFFFF
310
FFFC00000000001FFFFFFC00000000001FFFFF000000000003FE00000000000F
310
F000F8000000000007FFFFE00003FFFF00001FFFFF80007FF800000000000FFF
310
800000000000FFF8000001FFFE0000007FFFFFF0001FFFFFFFF800000000000F
310
FFFFF800000000000FFFFF000000000003FC000000000007F000F80000000000
310
03FFFFC00003FFFE00001FFFFF80007FF0000000000007FF0000000000007FF8
310
000001FFFE0000007FFFFFF0001FFFFFFFF0000000000007FFFFF00000000000
310
07FFFF000000000003F8000000000003F000F0000000000003FFFFC00001FFFE
310
00001FFFFF80007FE0000000000007FE0000000000003FF8000001FFFE000000
310
7FFFFFF0001FFFFFFFF0000000000007FFFFF0000000000007FFFF0000000000
310
03F800001F800003F000E00001FFF00001FFFFC00001FFFE00000FFFFF80007F
310
E00001FFE00003FE00001FFF00003FF8000001FFFE0000007FFFFFF0001FFFFF
310
FFE000003E000003FFFFE000003E000003FFFF000000000003F00001FFF80001
310
F000E00007FFFC0001FFFFC00001FFFE00000FFFFF80007FC0000FFFFC0003FC
310
0000FFFFC0001FF8000001FFFE0000007FFFFFF0001FFFFFFFC00003FFE00001
310
FFFFC00003FFE00001FFFF0001FFFFFFFFF00007FFFE0001F000E0000FFFFF00
310
00FFFF800001FFFC00000FFFFF80007FC0001FFFFE0001FC0001FFFFE0001FF8
310
000001FFFE0000007FFFFFF0001FFFFFFF80000FFFF80000FFFF80000FFFF800
310
00FFFF0003FFFFFFFFE0000FFFFF8000F000C0003FFFFF8000FFFF800000FFFC
310
000007FFFF80007F80003FFFFF0001FC0003FFFFF0001FF8000001FFFE000000
310
7FFFFFF0001FFFFFFF80003FFFFE0000FFFF80003FFFFE0000FFFF0003FFFFFF
310
FFE0003FFFFF8000F000C0003FFFFF8000FFFF800000FFFC000007FFFF80007F
310
80007FFFFF8001F80007FFFFF8000FF8000001FFFE0000007FFFFFF0001FFFFF
310
FF00007FFFFF00007FFF00007FFFFF00007FFF0003FFFFFFFFE0003FFFFFC000
310
F000C0007FFFFFC000FFFF000000FFFC000007FFFF80007F8000FFFFFF8000F8
310
000FFFFFF8000FF8000001FFFE0000007FFFFFF0001FFFFFFF0000FFFFFF8000
310
7FFF0000FFFFFF80007FFF0003FFFFFFFFC0007FFFFFC00070008000FFFFFFC0
310
00FFFF000000FFF8000007FFFF80007F8000FFFFFF8000F8000FFFFFF8000FF8
310
000001FFFE0000007FFFFFF0001FFFFFFE0001FFFFFFC0003FFE0001FFFFFFC0
310
003FFF0003FFFFFFFFC0007FFFFFE00070008000FFFFFFC0007FFF0000007FF8
310
000003FFFF80007F0001FFFFFF8000F8000FFFFFF8000FF8000001FFFE000000
310
7FFFFFF0001FFFFFFE0001FFFFFFC0003FFE0001FFFFFFC0003FFF0003FFFFFF
310
FFC000FFFFFFE00070008000FFFFFFC0007FFF0000007FF8000003FFFF80007F
310
0001FFFFFF8000F8001FFFFFF8000FF8000001FFFE0000007FFFFFF0001FFFFF
310
FE0003FFFFFFE0003FFE0003FFFFFFE0003FFF0003FFFFFFFFC000FFFFFFE000
310
70008000FFFFFFC0007FFE0000007FF8000003FFFF80007F0001FFFFFF8000F0
310
001FFFFFF8000FF8000001FFFE0000007FFFFFF0001FFFFFFC0003FFFFFFE000
310
1FFC0003FFFFFFE0001FFF0003FFFFFFFFC000FFFFFFC00070008000FFFFFF80
310
007FFE0000007FF0000003FFFF80007F0001FFFFFF0000F0001FFFFFF8000FF8
310
000001FFFE0000007FFFFFF0001FFFFFFC0007FFFFFFF0001FFC0007FFFFFFF0
310
001FFF0003FFFFFFFFC000FFFFFFC00070008001FFFFFF0000FFFE0000003FF0
310
000001FFFF80007F0001FFFFFF0000F8001FFFFFF0000FF8000001FFFE000000
310
7FFFFFF0001FFFFFFC0007FFFFFFF0001FFC0007FFFFFFF0001FFF0003FFFFFF
310
FFC001FFFFFF80007000FFFFFFFFFE0000FFFE0008003FF0008001FFFF80007F
310
FFFFFFFFFC0000FFFFFFFFFFE0000FF8000001FFFE0000007FFFFFF0001FFFFF
310
F8000FFFFFFFF8000FF8000FFFFFFFF8000FFF0003FFFFFFFFFFFFFFFFFF0000
310
7000FFFFFFFFFC0000FFFC0008003FF0008001FFFF80007FFFFFFFFFF80001FF
310
FFFFFFFF80000FF8000001FFFE0000007FFFFFF0001FFFFFF8000FFFFFFFF800
310
0FF8000FFFFFFFF8000FFF0003FFFFFFFFFFFFFFFFFE0000F000FFFFFFFFE000
310
00FFFC000C003FE000C001FFFF80007FFFFFFFFFC00001FFFFFFFFFE00001FF8
310
000001FFFE0000007FFFFFF0001FFFFFF8000FFFFFFFF8000FF8000FFFFFFFF8
310
000FFF0003FFFFFFFFFFFFFFFFF00000F000FFFFFFFE000001FFFC000C001FE0
310
00C000FFFF80007FFFFFFFFE000001FFFFFFFFE000001FF80FFFFFFFFFFFFFC0
310
7FFFFFF0001FFFFFF8000FFFFFFFF8000FF8000FFFFFFFF8000FFF0003FFFFFF
310
FFFFFFFFFF800000F000FFFFFFC0000001FFFC001C001FE001C000FFFF80007F
310
FFFFFF80000003FFFFFFF80000001FF80FFFFFFFFFFFFFC07FFFFFF0001FFFFF
310
F8001FFFFFFFFC000FF8001FFFFFFFFC000FFF0003FFFFFFFFFFFFFFF0000001
310
F000FFFFF800000001FFF8001C001FE001C000FFFF80007FFFFFF800000003FF
310
FFFF800000003FF80FFFFFFFFFFFFFC07FFFFFF0001FFFFFF8001FFFFFFFFC00
310
0FF8001FFFFFFFFC000FFF0003FFFFFFFFFFFFFE00000001F000FFFFC0000000
310
03FFF8001E001FC001E000FFFF80007FFFFF8000000007FFFFFC000000003FF8
310
0FFFFFFFFFFFFFC07FFFFFF0001FFFFFF8001FFFFFFFFC000FF8001FFFFFFFFC
310
000FFF0003FFFFFFFFFFFFE000000003F000FFFE0000000007FFF8001E000FC0
310
01E0007FFF80007FFFFE0000000007FFFFE0000000007FF80FFFFFFFFFFFFFC0
310
7FFFFFF0001FFFFFF0001FFFFFFFFC0007F0001FFFFFFFFC0007FF0003FFFFFF
310
FFFFFF0000000003F000FFF80000000007FFF8001E000FC003E0007FFF80007F
310
FFF0000000000FFFFF8000000000FFF80FFFFFFFFFFFFFC07FFFFFF0001FFFFF
310
F0001FFFFFFFFC0007F0001FFFFFFFFC0007FF0003FFFFFFFFFFFC0000000007
310
F000FFE0000000000FFFF0003E000FC003E0007FFF80007FFFC0000000001FFF
310
FE0000000001FFF80FFFFFFFFFFFFFC07FFFFFF0001FFFFFF0001FFFFFFFFC00
310
07F0001FFFFFFFFC0007FF0003FFFFFFFFFFF0000000000FF000FFC000000000
310
1FFFF0003F000F8003F0003FFF80007FFF80000000003FFFF80000000003FFF8
310
0FFFFFFFFFFFFFC07FFFFFF0001FFFFFF0001FFFFFFFFC0007F0001FFFFFFFFC
310
0007FF0003FFFFFFFFFFE0000000001FF000FF00000000007FFFF0003F000780
310
03F0003FFF80007FFF00000000007FFFF00000000007FFF80FFFFFFFFFFFFFC0
310
7FFFFFF0001FFFFFF0001FFFFFFFFC0007F0001FFFFFFFFC0007FF0003FFFFFF
310
FFFF80000000007FF000FE0000000000FFFFE0003F00078007F0003FFF80007F
310
FE0000000001FFFFE0000000001FFFF80FFFFFFFFFFFFFC07FFFFFF0001FFFFF
310
F0001FFFFFFFFC0007F0001FFFFFFFFC0007FF0003FFFFFFFFFF0000000000FF
310
F000FC0000000003FFFFE0007F00078007F0003FFF80007FFC0000000007FFFF
310
C0000000007FFFF80FFFFFFFFFFFFFC07FFFFFF0001FFFFFF8001FFFFFFFFC00
310
0FF8001FFFFFFFFC000FFF0003FFFFFFFFFE0000000003FFF000FC000000000F
310
FFFFE0007F80070007F8001FFF80007FF8000000001FFFFF8000000001FFFFF8
310
0FFFFFFFFFFFFFC07FFFFFF0001FFFFFF8001FFFFFFFFC000FF8001FFFFFFFFC
310
000FFF0003FFFFFFFFFC000000000FFFF000F8000000007FFFFFE0007F800700
310
07F8001FFF80007FF000000000FFFFFF800000000FFFFFF80FFFFFFFFFFFFFC0
310
7FFFFFF0001FFFFFF8000FFFFFFFF8000FF8000FFFFFFFF8000FFF0003FFFFFF
310
FFFC000000007FFFF000F800000007FFFFFFC0007F8003000FF8001FFF80007F
310
F000000007FFFFFF000000007FFFFFF80FFFFFFFFFFFFFC07FFFFFF0001FFFFF
310
F8000FFFFFFFF8000FF8000FFFFFFFF8000FFF0003FFFFFFFFF80000000FFFFF
310
F000F0000000FFFFFFFFC000FF8003000FF8001FFF80007FE0000000FFFFFFFF
310
0000000FFFFFFFF8000001FFFE0000007FFFFFF0001FFFFFF8000FFFFFFFF800
310
0FF8000FFFFFFFF8000FFF0003FFFFFFFFF8000000FFFFFFF000F000000FFFFF
310
FFFFC000FFC002000FF8000FFF80007FE000001FFFFFFFFE000001FFFFFFFFF8
310
000001FFFE0000007FFFFFF0001FFFFFF8000FFFFFFFF8000FF8000FFFFFFFF8
310
000FFF0003FFFFFFFFF000001FFFFFFFF000E00000FFFFFFFFFFC000FFC00200
310
0FFC000FFF80007FE00001FFFFFFFFFE00001FFFFFFFFFF8000001FFFE000000
310
7FFFFFF0001FFFFFFC000FFFFFFFF8001FFC000FFFFFFFF8001FFF0003FFFFFF
310
FFF00001FFFFFFFFF000E00007FFFFFFFFFF8000FFC000001FFC000FFF80007F
310
C0000FFFFFFFFFFE0000FFFFFFFFFFF8000001FFFE0000007FFFFFF0001FFFFF
310
FC0007FFFFFFF0001FFC0007FFFFFFF0001FFF0003FFFFFFFFF00007FFFFFFFF
310
F000E0001FFFFFFFFFFF8000FFC000001FFC000FFF80007FC0003FFFFFFFFFFE
310
0001FFFFFFFFFFF8000001FFFE0000007FFFFFF0001FFFFFFC0007FFFFFFF000
310
1FFC0007FFFFFFF0001FFF0003FFFFFFFFF0001FFFFFFFFFF000E0003FFFFF00
310
03FF8001FFE000001FFC0007FF80007FC0007FFFFF0007FC0003FFFFF0003FF8
310
000001FFFE0000007FFFFFF0001FFFFFFC0003FFFFFFE0001FFC0003FFFFFFE0
310
001FFF0003FFFFFFFFF0003FFFFFFFFFF000E0003FFFFF0001FF8001FFE00000
310
1FFE0007FF80007FC0007FFFFE0003FC0007FFFFE0003FF8000001FFFE000000
310
7FFFFFF0001FFFFFFE0003FFFFFFE0003FFE0003FFFFFFE0003FFF0003FFFFFF
310
FFF0003FFFFF8001F000E0003FFFFF0001FF0001FFE000001FFE0007FF80007F
310
C0007FFFFE0003FC0007FFFFE0003FF8000001FFFE0000007FFFFFF0001FFFFF
310
FE0001FFFFFFC0003FFE0001FFFFFFC0003FFF0003FFFFFFFFF0003FFFFF0001
310
F000E0003FFFFF0003FF0001FFE000003FFE0007FF80007FC0007FFFFE0003FC
310
0007FFFFE0003FF8000001FFFE0000007FFFFFF0001FFFFFFF0001FFFFFFC000
310
7FFF0001FFFFFFC0007FFF0003FFFFFFFFF0003FFFFF0001F000E0003FFFFE00
310
03FF0003FFF000003FFE0003FF80007FC0007FFFFC0003FE0007FFFFE0003FF8
310
000001FFFE0000007FFFFFF0001FFFFFFF0000FFFFFF80007FFF0000FFFFFF80
310
007FFF0003FFFFFFFFF0003FFFFF0001F000E0003FFFFE0003FF0003FFF00000
310
3FFF0003FF80007FC0007FFFFC0007FE0007FFFFC0003FF8000001FFFE000000
310
7FFFFFF0001FFFFFFF80007FFFFF0000FFFF80007FFFFF0000FFFF0003FFFFFF
310
FFF0003FFFFF0003F000E0003FFFFC0003FE0003FFF000003FFF0003FF80007F
310
E0003FFFF80007FE0003FFFFC0007FF8000001FFFE0000007FFFFFF0001FFFFF
310
FF80003FFFFE0000FFFF80003FFFFE0000FFFF0003FFFFFFFFF0001FFFFE0003
310
F000F0001FFFF80003FE0003FFF000007FFF0001FF80007FE0003FFFF00007FE
310
0001FFFF80007FF8000001FFFE0000007FFFFFF0001FFFFFFFC0000FFFF80001
310
FFFFC0000FFFF80001FFFF0003FFFFFFFFF0001FFFFC0003F000F0000FFFF000
310
07FE0007FFF800007FFF0001FF80007FE0001FFFE00007FF0000FFFE00007FF8
310
000001FFFE0000007FFFFFF0001FFFFFFFC00003FFE00001FFFFC00003FFE000
310
01FFFF0003FFFFFFFFF8000FFFF80003F000F00003FFC00007FC0007FFF80000
310
7FFF8001FF80007FF00007FF80000FFF00007FF80000FFF8000001FFFE000000
310
7F80000000000001FFE000003E000003FFFFE000003E000003FFFF0003FFFFFF
310
FFF80003FFE00007F000F800000000000FFC0007FFF800007FFF8001FF80007F
310
F000000000000FFF000000000000FFF8000001FFFE0000007F80000000000001
310
FFF0000000000007FFFFF0000000000007FFFF0003FFFFFFFFFC00007E000007
310
F000F800000000000FFC0007FFF80000FFFF8000FF80007FF800000000001FFF
310
800000000001FFF8000001FFFE0000007F80000000000001FFF800000000000F
310
FFFFF800000000000FFFFF0003FFFFFFFFFC00000000000FF000FC0000000000
310
1FFC0007FFFC0000FFFF8000FF80007FF800000000003FFFC00000000001FFF8
310
000001FFFE0000007F80000000000001FFF800000000000FFFFFF80000000000
310
0FFFFF0003FFFFFFFFFE00000000001FF000FE00000000003FF8000FFFFC0000
310
FFFF8000FF80007FFC00000000003FFFC00000000003FFF8000001FFFE000000
310
7F80000000000001FFFC00000000001FFFFFFC00000000001FFFFF0003FFFFFF
310
FFFF00000000001FF000FF00000000003FF8000FFFFC0000FFFFC000FF80007F
310
FE00000000007FFFE00000000007FFF8000001FFFE0000007F80000000000001
310
FFFE00000000003FFFFFFE00000000003FFFFF0003FFFFFFFFFF80000000003F
310
F000FF80000000007FF8000FFFFC0001FFFFC0007F80007FFF0000000000FFFF
310
F0000000000FFFF800000000000000007F80000000000001FFFF8000000000FF
310
FFFFFF8000000000FFFFFF0003FFFFFFFFFFC0000000007FF000FFC000000000
310
FFF8000FFFFE0001FFFFC0007F80007FFF8000000001FFFFF8000000001FFFF8
310
00000000000000007F80000000000001FFFFC000000001FFFFFFFFC000000001
310
FFFFFF0003FFFFFFFFFFE000000000FFF000FFE000000003FFF0001FFFFE0001
310
FFFFC0007F80007FFFC000000007FFFFFE000000003FFFF80000000000000000
310
7F80000000000001FFFFE000000003FFFFFFFFE000000003FFFFFF0003FFFFFF
310
FFFFF000000003FFF000FFF80000000FFFF0001FFFFE0001FFFFE0007F80007F
310
FFF00000000FFFFFFF00000000FFFFF800000000000000007F80000000000001
310
FFFFF80000000FFFFFFFFFF80000000FFFFFFF0003FFFFFFFFFFFC0000000FFF
310
F000FFFE0000003FFFF0001FFFFE0003FFFFE0003F80007FFFFC0000003FFFFF
310
FFC0000003FFFFF800000000000000007F80000000000001FFFFFE0000003FFF
310
FFFFFFFE0000003FFFFFFF0003FFFFFFFFFFFF0000003FFFF000FFFF800000FF
310
FFF0001FFFFF0003FFFFE0003F80007FFFFF000001FFFFFFFFF800001FFFFFF8
310
00000000000000007F80000000000001FFFFFFC00001FFFFFFFFFFFFC00001FF
310
FFFFFF0003FFFFFFFFFFFFC00000FFFFF000FFFFF8000FFFFFFFFFFFFFFFFFFF
310
FFFFFFFFFFFFFFFFFFFFF0001FFFFFFFFFFF0000FFFFFFF80000000000000000
310
7FFFFFFFFFFFFFFFFFFFFFFC001FFFFFFFFFFFFFFC001FFFFFFFFFFFFFFFFFFF
310
FFFFFFFC001FFFFFF000FFFFFFFFFFFFFFFFFFFFFFFFFFFFFFFFFFFFFFFFFFFF
310
FFFFFFFFFFFFFFFFFFFFFFFFFFFFFFFFFFFFFFFFFFFFFFFFFFFFFFFFFFFFFFFF
310
FFFFFFFFFFFFFFFFFFFFFFFFFFFFFFFFFFFFFFFFFFFFFFFFFFFFFFFFFFFFFFFF
310
F000FFFFFFFFFFFFFFFFFFFFFFFFFFFFFFFFFFFFFFFFFFFFFFFFFFFFFFFFFFFF
310
FFFFFFFFFFFFFFFFFFFFFFFFFFFFFFFFFFFFFFFFFFFFFFFFFFFFFFFFFFFFFFFF
310
FFFFFFFFFFFFFFFFFFFFFFFFFFFFFFFFFFFFFFFFFFFFFFFFF000FFFFFFFFFFFF
310
FFFFFFFFFFFFFFFFFFFFFFFFFFFFFFFFFFFFFFFFFFFFFFFFFFFFFFFFFFFFFFFF
310
FFFFFFFFFFFFFFFFFFFFFFFFFFFFFFFFFFFFFFFFFFFFFFFFFFFFFFFFFFFFFFFF
310
FFFFFFFFFFFFFFFFFFFFFFFFFFFFFFFFF000FFFFFFFFFFFFFFFFFFFFFFFFFFFF
310
FFFFFFFFFFFFFFFFFFFFFFFFFFFFFFFFFFFFFFFFFFFFFFFFFFFFFFFFFFFFFFFF
310
FFFFFFFFFFFFFFFFFFFFFFFFFFFFFFFFFFFFFFFFFFFFFFFFFFFFFFFFFFFFFFFF
310
FFFFFFFFFFFFFFFFF000FFFFFFFFFFFFFFFFFFFFFFFFFFFFFFFFFFFFFFFFFFFF
310
FFFFFFFFFFFFFFFFFFFFFFFFFFFFFFFFFFFFFFFFFFFFFFFFFFFFFFFFFFFFFFFF
310
FFFFFFFFFFFFFFFFFFFFFFFFFFFFFFFFFFFFFFFFFFFFFFFFFFFFFFFFFFFFFFFF
310
F000FFFFFFFFFFFFFFFFFFFFFFFFFFFFFFFFFFFFFFFFFFFFFFFFFFFFFFFFFFFF
310
FFFFFFFFFFFFFFFFFFFFFFFFFFFFFFFFFFFFFFFFFFFFFFFFFFFFFFFFFFFFFFFF
310
FFFFFFFFFFFFFFFFFFFFFFFFFFFFFFFFFFFFFFFFFFFFFFFFF000FFFFFFFFFFFF
310
FFFFFFFFFFFFFFFFFFFFFFFFFFFFFFFFFFFFFFFFFFFFFFFFFFFFFFFFFFFFFFFF
310
FFFFFFFFFFFFFFFFFFFFFFFFFFFFFFFFFFFFFFFFFFFFFFFFFFFFFFFFFFFFFFFF
310
FFFFFFFFFFFFFFFFFFFFFFFFFFFFFFFFF000FFFFFFFFFFFFFFFFFFFFFFFFFFFF
310
FFFFFFFFFFFFFFFFFFFFFFFFFFFFFFFFFFFFFFFFFFFFFFFFFFFFFFFFFFFFFFFF
310
FFFFFFFFFFFFFFFFFFFFFFFFFFFFFFFFFFFFFFFFFFFFFFFFFFFFFFFFFFFFFFFF
310
FFFFFFFFFFFFFFFFF000FFFFFFFFFFFFFFFFFFFFFFFFFFFFFFFFFFFFFFFFFFFF
310
FFFFFFFFFFFFFFFFFFFFFFFFFFFFFFFFFFFFFFFFFFFFFFFFFFFFFFFFFFFFFFFF
310
FFFFFFFFFFFFFFFFFFFFFFFFFFFFFFFFFFFFFFFFFFFFFFFFFFFFFFFFFFFFFFFF
310
F000FFFFFFFFFFFFFFFFFFFFFFFFFFFFFFFFFFFFFFFFFFFFFFFFFFFFFFFFFFFF
310
FFFFFFFFFFFFFFFFFFFFFFFFFFFFFFFFFFFFFFFFFFFFFFFFFFFFFFFFFFFFFFFF
310
FFFFFFFFFFFFFFFFFFFFFFFFFFFFFFFFFFFFFFFFFFFFFFFFF000FFFFFFFFFFFF
310
FFFFFFFFFFFFFFFFFFFFFFFFFFFFFFFFFFFFFFFFFFFFFFFFFFFFFFFFFFFFFFFF
310
FFFFFFFFFFFFFFFFFFFFFFFFFFFFFFFFFFFFFFFFFFFFFFFFFFFFFFFFFFFFFFFF
310
FFFFFFFFFFFFFFFFFFFFFFFFFFFFFFFFF000FFFFFFFFFFFFFFFFFFFFFFFFFFFF
310
FFFFFFFFFFFFFFFFFFFFFFFFFFFFFFFFFFFFFFFFFFFFFFFFFFFFFFFFFFFFFFFF
310
FFFFFFFFFFFFFFFFFFFFFFFFFFFFFFFFFFFFFFFFFFFFFFFFFFFFFFFFFFFFFFFF
310
FFFFFFFFFFFFFFFFF000FFFFFFFFFFFFFFFFFFFFFFFFFFFFFFFFFFFFFFFFFFFF
310
FFFFFFFFFFFFFFFFFFFFFFFFFFFFFFFFFFFFFFFFFFFFFFFFFFFFFFFFFFFFFFFF
310
FFFFFFFFFFFFFFFFFFFFFFFFFFFFFFFFFFFFFFFFFFFFFFFFFFFFFFFFFFFFFFFF
310
F000FFFFFFFFFFFFFFFFFFFFFFFFFFFFFFFFFFFFFFFFFFFFFFFFFFFFFFFFFFFF
310
FFFFFFFFFFFFFFFFFFFFFFFFFFFFFFFFFFFFFFFFFFFFFFFFFFFFFFFFFFFFFFFF
310
FFFFFFFFFFFFFFFFFFFFFFFFFFFFFFFFFFFFFFFFFFFFFFFFF000FFFFFFFFFFFF
310
FFFFFFFFFFFFFFFFFFFFFFFFFFFFFFFFFFFFFFFFFFFFFFFFFFFFFFFFFFFFFFFF
310
FFFFFFFFFFFFFFFFFFFFFFFFFFFFFFFFFFFFFFFFFFFFFFFFFFFFFFFFFFFFFFFF
310
FFFFFFFFFFFFFFFFFFFFFFFFFFFFFFFFF000FFFFFFFFFFFFFFFFFFFFFFFFFFFF
310
FFFFFFFFFFFFFFFFFFFFFFFFFFFFFFFFFFFFFFFFFFFFFFFFFFFFFFFFFFFFFFFF
310
FFFFFFFFFFFFFFFFFFFFFFFFFFFFFFFFFFFFFFFFFFFFFFFFFFFFFFFFFFFFFFFF
310
FFFFFFFFFFFFFFFFF000FFFFFFFFFFFFFFFFFFFFFFFFFFFFFFFFFFFFFFFFFFFF
310
FFFFFFFFFFFFFFFFFFFFFFFFFFFFFFFFFFFFFFFFFFFFFFFFFFFFFFFFFFFFFFFF
310
FFFFFFFFFFFFFFFFFFFFFFFFFFFFFFFFFFFFFFFFFFFFFFFFFFFFFFFFFFFFFFFF
310
F000FFFFFFFFFFFFFFFFFFFFFFFFFFFFFFFFFFFFFFFFFFFFFFFFFFFFFFFFFFFF
310
FFFFFFFFFFFFFFFFFFFFFFFFFFFFFFFFFFFFFFFFFFFFFFFFFFFFFFFFFFFFFFFF
310
FFFFFFFFFFFFFFFFFFFFFFFFFFFFFFFFFFFFFFFFFFFFFFFFF000FFFFFFFFFFFF
310
FFFFFFFFFFFFFFFFFFFFFFFFFFFFFFFFFFFFFFFFFFFFFFFFFFFFFFFFFFFFFFFF
310
FFFFFFFFFFFFFFFFFFFFFFFFFFFFFFFFFFFFFFFFFFFFFFFFFFFFFFFFFFFFFFFF
310
FFFFFFFFFFFFFFFFFFFFFFFFFFFFFFFFF000FFFFFFFFFFFFFFFFFFFFFFFFFFFF
310
FFFFFFFFFFFFFFFFFFFFFFFFFFFFFFFFFFFFFFFFFFFFFFFFFFFFFFFFFFFFFFFF
310
FFFFFFFFFFFFFFFFFFFFFFFFFFFFFFFFFFFFFFFFFFFFFFFFFFFFFFFFFFFFFFFF
310
FFFFFFFFFFFFFFFFF000FFFFFFFFFFFFFFFFFFFFFFFFFFFFFFFFFFFFFFFFFFFF
310
FFFFFFFFFFFFFFFFFFFFFFFFFFFFFFFFFFFFFFFFFFFFFFFFFFFFFFFFFFFFFFFF
310
FFFFFFFFFFFFFFFFFFFFFFFFFFFFFFFFFFFFFFFFFFFFFFFFFFFFFFFFFFFFFFFF
310
F000FFFFFFFFFFFFFFFFFFFFFFFFFFFFFFFFFFFFFFFFFFFFFFFFFFFFFFFFFFFF
310
FFFFFFFFFFFFFFFFFFFFFFFFFFFFFFFFFFFFFFFFFFFFFFFFFFFFFFFFFFFFFFFF
310
FFFFFFFFFFFFFFFFFFFFFFFFFFFFFFFFFFFFFFFFFFFFFFFFF000FFFFFFFFFFFF
310
FFFFFFFFFFFFFFFFFFFFFFFFFFFFFFFFFFFFFFFFFFFFFFFFFFFFFFFFFFFFFFFF
310
FFFFFFFFFFFFFFFFFFFFFFFFFFFFFFFFFFFFFFFFFFFFFFFFFFFFFFFFFFFFFFFF
310
FFFFFFFFFFFFFFFFFFFFFFFFFFFFFFFFF0000000000000000000000000000000
310
0000000000000000000000000000000000000000000000000000000000000000
310
0000000000000000000000000000000000000000000000000000000000000000
310
0000000000000000000000000000000000000000000000000000000000000000
310
0000000000000000000000000000000000000000000000000000000000000000
310
0000000000000000000000000000000000000000000000000000000000000000
310
0000000000000000000000000000000000000000000000000000000000000000
310
0000000000000000000000000000000000000000000000000000000000000000
310
0000000000000000000000000000000000000000000000000000000000000000
310
0000000000000000000000000000000000000000000000000000000000000000
310
0000000000000000000000000000000000000000000000000000000000000000
310
0000000000000000000000000000000000000000000000000000000000000000
310
0000000000000000000000000000000000000000000000000000000000000000
310
0000000000000000000000000000000000000000000000000000000000000000
310
0000000000000000000000000000000000000000000000000000000000000000
310
0000000000000000000000000000000000000000000000000000000000000000
  1
OLE
  0
ENDSEC
  0
SECTION
  2
OBJECTS
  0
DICTIONARY
  5
C
330
0
100
AcDbDictionary
281
     1
  3
ACAD_GROUP
350
D
  3
ACAD_LAYOUT
350
1A
  3
ACAD_MLINESTYLE
350
17
  3
ACAD_PLOTSETTINGS
350
19
  3
ACAD_PLOTSTYLENAME
350
E
  3
ACAD_SCALELIST
350
47
  0
DICTIONARY
  5
D
102
{ACAD_REACTORS
330
C
102
}
330
C
100
AcDbDictionary
281
     1
  0
DICTIONARY
  5
1A
102
{ACAD_REACTORS
330
C
102
}
330
C
100
AcDbDictionary
281
     1
  3
Layout1
350
1E
  3
Layout2
350
26
  3
Model
350
22
  0
DICTIONARY
  5
17
102
{ACAD_REACTORS
330
C
102
}
330
C
100
AcDbDictionary
281
     1
  3
Standard
350
18
  0
DICTIONARY
  5
19
102
{ACAD_REACTORS
330
C
102
}
330
C
100
AcDbDictionary
281
     1
  0
ACDBDICTIONARYWDFLT
  5
E
102
{ACAD_REACTORS
330
C
102
}
330
C
100
AcDbDictionary
281
     1
  3
Normal
350
F
100
AcDbDictionaryWithDefault
340
F
  0
DICTIONARY
  5
47
102
{ACAD_REACTORS
330
C
102
}
330
C
100
AcDbDictionary
281
     1
  3
A0
350
48
  3
A1
350
49
  3
A2
350
4A
  3
A3
350
4B
  3
A4
350
4C
  3
A5
350
4D
  3
A6
350
4E
  3
A7
350
4F
  3
A8
350
50
  3
A9
350
51
  3
B0
350
52
  3
B1
350
53
  3
B2
350
54
  3
B3
350
55
  3
B4
350
56
  3
B5
350
57
  3
B6
350
58
  3
B7
350
59
  3
B8
350
5A
  3
B9
350
5B
  3
C0
350
5C
  3
C1
350
5D
  3
C2
350
5E
  3
C3
350
5F
  3
C4
350
60
  3
C5
350
61
  3
C6
350
62
  3
C7
350
63
  3
C8
350
64
  3
C9
350
65
  3
D0
350
66
  3
D1
350
67
  3
D2
350
68
  0
LAYOUT
  5
1E
102
{ACAD_REACTORS
330
1A
102
}
330
1A
100
AcDbPlotSettings
  1

  2
none_device
  4

  6

 40
0.0
 41
0.0
 42
0.0
 43
0.0
 44
0.0
 45
0.0
 46
0.0
 47
0.0
 48
0.0
 49
0.0
140
0.0
141
0.0
142
1.0
143
1.0
 70
   688
 72
     1
 73
     0
 74
     5
  7

 75
    16
147
1.0
148
0.0
149
0.0
100
AcDbLayout
  1
Layout1
 70
     1
 71
     1
 10
0.0
 20
0.0
 11
420.0
 21
297.0
 12
0.0
 22
0.0
 32
0.0
 14
1.0000000000E+20
 24
1.0000000000E+20
 34
1.0000000000E+20
 15
-1.0000000000E+20
 25
-1.0000000000E+20
 35
-1.0000000000E+20
146
0.0
 13
0.0
 23
0.0
 33
0.0
 16
1.0
 26
0.0
 36
0.0
 17
0.0
 27
1.0
 37
0.0
 76
     0
330
1B
  0
LAYOUT
  5
26
102
{ACAD_REACTORS
330
1A
102
}
330
1A
100
AcDbPlotSettings
  1

  2
none_device
  4

  6

 40
0.0
 41
0.0
 42
0.0
 43
0.0
 44
0.0
 45
0.0
 46
0.0
 47
0.0
 48
0.0
 49
0.0
140
0.0
141
0.0
142
1.0
143
1.0
 70
   688
 72
     1
 73
     0
 74
     5
  7

 75
    16
147
1.0
148
0.0
149
0.0
100
AcDbLayout
  1
Layout2
 70
     1
 71
     2
 10
0.0
 20
0.0
 11
0.0
 21
0.0
 12
0.0
 22
0.0
 32
0.0
 14
0.0
 24
0.0
 34
0.0
 15
0.0
 25
0.0
 35
0.0
146
0.0
 13
0.0
 23
0.0
 33
0.0
 16
1.0
 26
0.0
 36
0.0
 17
0.0
 27
1.0
 37
0.0
 76
     0
330
23
  0
LAYOUT
  5
22
102
{ACAD_REACTORS
330
1A
102
}
330
1A
100
AcDbPlotSettings
  1

  2
none_device
  4
Letter_(8.50_x_11.00_Inches)
  6

 40
6.35
 41
6.35
 42
6.35000508
 43
6.35000508
 44
215.9
 45
279.4
 46
0.0
 47
0.0
 48
0.0
 49
0.0
140
0.0
141
0.0
142
1.0
143
1.0
 70
  1712
 72
     1
 73
     0
 74
     0
  7

 75
     0
147
1.0
148
0.0
149
0.0
100
AcDbLayout
  1
Model
 70
     1
 71
     0
 10
0.0
 20
0.0
 11
297.0
 21
210.0
 12
0.0
 22
0.0
 32
0.0
 14
0.0
 24
0.0
 34
0.0
 15
297.0
 25
210.0
 35
0.0
146
0.0
 13
0.0
 23
0.0
 33
0.0
 16
1.0
 26
0.0
 36
0.0
 17
0.0
 27
1.0
 37
0.0
 76
     0
330
1F
331
29
  0
MLINESTYLE
  5
18
102
{ACAD_REACTORS
330
17
102
}
330
17
100
AcDbMlineStyle
  2
Standard
 70
     0
  3

 62
   256
 51
90.0
 52
90.0
 71
     2
 49
0.5
 62
   256
  6
BYLAYER
 49
-0.5
 62
   256
  6
BYLAYER
  0
ACDBPLACEHOLDER
  5
F
102
{ACAD_REACTORS
330
E
102
}
330
E
  0
SCALE
  5
48
102
{ACAD_REACTORS
330
47
102
}
330
47
100
AcDbScale
 70
     0
300
1:1
140
1.0
141
1.0
290
     1
  0
SCALE
  5
49
102
{ACAD_REACTORS
330
47
102
}
330
47
100
AcDbScale
 70
     0
300
1:2
140
1.0
141
2.0
290
     0
  0
SCALE
  5
4A
102
{ACAD_REACTORS
330
47
102
}
330
47
100
AcDbScale
 70
     0
300
1:4
140
1.0
141
4.0
290
     0
  0
SCALE
  5
4B
102
{ACAD_REACTORS
330
47
102
}
330
47
100
AcDbScale
 70
     0
300
1:5
140
1.0
141
5.0
290
     0
  0
SCALE
  5
4C
102
{ACAD_REACTORS
330
47
102
}
330
47
100
AcDbScale
 70
     0
300
1:8
140
1.0
141
8.0
290
     0
  0
SCALE
  5
4D
102
{ACAD_REACTORS
330
47
102
}
330
47
100
AcDbScale
 70
     0
300
1:10
140
1.0
141
10.0
290
     0
  0
SCALE
  5
4E
102
{ACAD_REACTORS
330
47
102
}
330
47
100
AcDbScale
 70
     0
300
1:16
140
1.0
141
16.0
290
     0
  0
SCALE
  5
4F
102
{ACAD_REACTORS
330
47
102
}
330
47
100
AcDbScale
 70
     0
300
1:20
140
1.0
141
20.0
290
     0
  0
SCALE
  5
50
102
{ACAD_REACTORS
330
47
102
}
330
47
100
AcDbScale
 70
     0
300
1:30
140
1.0
141
30.0
290
     0
  0
SCALE
  5
51
102
{ACAD_REACTORS
330
47
102
}
330
47
100
AcDbScale
 70
     0
300
1:40
140
1.0
141
40.0
290
     0
  0
SCALE
  5
52
102
{ACAD_REACTORS
330
47
102
}
330
47
100
AcDbScale
 70
     0
300
1:50
140
1.0
141
50.0
290
     0
  0
SCALE
  5
53
102
{ACAD_REACTORS
330
47
102
}
330
47
100
AcDbScale
 70
     0
300
1:100
140
1.0
141
100.0
290
     0
  0
SCALE
  5
54
102
{ACAD_REACTORS
330
47
102
}
330
47
100
AcDbScale
 70
     0
300
2:1
140
2.0
141
1.0
290
     0
  0
SCALE
  5
55
102
{ACAD_REACTORS
330
47
102
}
330
47
100
AcDbScale
 70
     0
300
4:1
140
4.0
141
1.0
290
     0
  0
SCALE
  5
56
102
{ACAD_REACTORS
330
47
102
}
330
47
100
AcDbScale
 70
     0
300
8:1
140
8.0
141
1.0
290
     0
  0
SCALE
  5
57
102
{ACAD_REACTORS
330
47
102
}
330
47
100
AcDbScale
 70
     0
300
10:1
140
10.0
141
1.0
290
     0
  0
SCALE
  5
58
102
{ACAD_REACTORS
330
47
102
}
330
47
100
AcDbScale
 70
     0
300
100:1
140
100.0
141
1.0
290
     0
  0
SCALE
  5
59
102
{ACAD_REACTORS
330
47
102
}
330
47
100
AcDbScale
 70
     0
300
1/128" = 1'-0"
140
0.0078125
141
12.0
290
     0
  0
SCALE
  5
5A
102
{ACAD_REACTORS
330
47
102
}
330
47
100
AcDbScale
 70
     0
300
1/64" = 1'-0"
140
0.015625
141
12.0
290
     0
  0
SCALE
  5
5B
102
{ACAD_REACTORS
330
47
102
}
330
47
100
AcDbScale
 70
     0
300
1/32" = 1'-0"
140
0.03125
141
12.0
290
     0
  0
SCALE
  5
5C
102
{ACAD_REACTORS
330
47
102
}
330
47
100
AcDbScale
 70
     0
300
1/16" = 1'-0"
140
0.0625
141
12.0
290
     0
  0
SCALE
  5
5D
102
{ACAD_REACTORS
330
47
102
}
330
47
100
AcDbScale
 70
     0
300
3/32" = 1'-0"
140
0.09375
141
12.0
290
     0
  0
SCALE
  5
5E
102
{ACAD_REACTORS
330
47
102
}
330
47
100
AcDbScale
 70
     0
300
1/8" = 1'-0"
140
0.125
141
12.0
290
     0
  0
SCALE
  5
5F
102
{ACAD_REACTORS
330
47
102
}
330
47
100
AcDbScale
 70
     0
300
3/16" = 1'-0"
140
0.1875
141
12.0
290
     0
  0
SCALE
  5
60
102
{ACAD_REACTORS
330
47
102
}
330
47
100
AcDbScale
 70
     0
300
1/4" = 1'-0"
140
0.25
141
12.0
290
     0
  0
SCALE
  5
61
102
{ACAD_REACTORS
330
47
102
}
330
47
100
AcDbScale
 70
     0
300
3/8" = 1'-0"
140
0.375
141
12.0
290
     0
  0
SCALE
  5
62
102
{ACAD_REACTORS
330
47
102
}
330
47
100
AcDbScale
 70
     0
300
1/2" = 1'-0"
140
0.5
141
12.0
290
     0
  0
SCALE
  5
63
102
{ACAD_REACTORS
330
47
102
}
330
47
100
AcDbScale
 70
     0
300
3/4" = 1'-0"
140
0.75
141
12.0
290
     0
  0
SCALE
  5
64
102
{ACAD_REACTORS
330
47
102
}
330
47
100
AcDbScale
 70
     0
300
1" = 1'-0"
140
1.0
141
12.0
290
     0
  0
SCALE
  5
65
102
{ACAD_REACTORS
330
47
102
}
330
47
100
AcDbScale
 70
     0
300
1-1/2" = 1'-0"
140
1.5
141
12.0
290
     0
  0
SCALE
  5
66
102
{ACAD_REACTORS
330
47
102
}
330
47
100
AcDbScale
 70
     0
300
3" = 1'-0"
140
3.0
141
12.0
290
     0
  0
SCALE
  5
67
102
{ACAD_REACTORS
330
47
102
}
330
47
100
AcDbScale
 70
     0
300
6" = 1'-0"
140
6.0
141
12.0
290
     0
  0
SCALE
  5
68
102
{ACAD_REACTORS
330
47
102
}
330
47
100
AcDbScale
 70
     0
300
1'-0" = 1'-0"
140
12.0
141
12.0
290
     0
  0
ENDSEC
  0
EOF
