  0
SECTION
  2
HEADER
  9
$ACADVER
  1
AC1015
  9
$ACADMAINTVER
 70
     6
  9
$DWGCODEPAGE
  3
ANSI_1252
  9
$INSBASE
 10
0.0
 20
0.0
 30
0.0
  9
$EXTMIN
 10
0.0
 20
0.0
 30
0.0
  9
$EXTMAX
 10
297.0
 20
210.0
 30
0.0
  9
$LIMMIN
 10
0.0
 20
0.0
  9
$LIMMAX
 10
297.0
 20
210.0
  9
$ORTHOMODE
 70
     0
  9
$REGENMODE
 70
     1
  9
$FILLMODE
 70
     1
  9
$QTEXTMODE
 70
     0
  9
$MIRRTEXT
 70
     1
  9
$LTSCALE
 40
1.0
  9
$ATTMODE
 70
     1
  9
$TEXTSIZE
 40
2.0
  9
$TRACEWID
 40
1.0
  9
$TEXTSTYLE
  7
Standard
  9
$CLAYER
  8
0
  9
$CELTYPE
  6
ByLayer
  9
$CECOLOR
 62
   256
  9
$CELTSCALE
 40
1.0
  9
$DISPSILH
 70
     0
  9
$DIMSCALE
 40
1.0
  9
$DIMASZ
 40
3.0
  9
$DIMEXO
 40
0.0
  9
$DIMDLI
 40
3.75
  9
$DIMRND
 40
0.0
  9
$DIMDLE
 40
0.0
  9
$DIMEXE
 40
1.0
  9
$DIMTP
 40
0.0
  9
$DIMTM
 40
0.0
  9
$DIMTXT
 40
2.0
  9
$DIMCEN
 40
2.5
  9
$DIMTSZ
 40
0.0
  9
$DIMTOL
 70
     0
  9
$DIMLIM
 70
     0
  9
$DIMTIH
 70
     1
  9
$DIMTOH
 70
     1
  9
$DIMSE1
 70
     0
  9
$DIMSE2
 70
     0
  9
$DIMTAD
 70
     1
  9
$DIMZIN
 70
     0
  9
$DIMBLK
  1

  9
$DIMASO
 70
     1
  9
$DIMSHO
 70
     1
  9
$DIMPOST
  1

  9
$DIMAPOST
  1

  9
$DIMALT
 70
     0
  9
$DIMALTD
 70
     3
  9
$DIMALTF
 40
0.0393700787
  9
$DIMLFAC
 40
1.0
  9
$DIMTOFL
 70
     1
  9
$DIMTVP
 40
0.0
  9
$DIMTIX
 70
     0
  9
$DIMSOXD
 70
     0
  9
$DIMSAH
 70
     0
  9
$DIMBLK1
  1

  9
$DIMBLK2
  1

  9
$DIMSTYLE
  2
ISO-25
  9
$DIMCLRD
 70
     0
  9
$DIMCLRE
 70
     0
  9
$DIMCLRT
 70
     0
  9
$DIMTFAC
 40
1.0
  9
$DIMGAP
 40
1.524
  9
$DIMJUST
 70
     0
  9
$DIMSD1
 70
     0
  9
$DIMSD2
 70
     0
  9
$DIMTOLJ
 70
     0
  9
$DIMTZIN
 70
     0
  9
$DIMALTZ
 70
     0
  9
$DIMALTTZ
 70
     0
  9
$DIMUPT
 70
     0
  9
$DIMDEC
 70
     2
  9
$DIMTDEC
 70
     3
  9
$DIMALTU
 70
     2
  9
$DIMALTTD
 70
     3
  9
$DIMTXSTY
  7
Standard
  9
$DIMAUNIT
 70
     0
  9
$DIMADEC
 70
     2
  9
$DIMALTRND
 40
0.0
  9
$DIMAZIN
 70
     0
  9
$DIMDSEP
 70
    44
  9
$DIMATFIT
 70
     3
  9
$DIMFRAC
 70
     0
  9
$DIMLDRBLK
  1

  9
$DIMLUNIT
 70
     2
  9
$DIMLWD
 70
    -2
  9
$DIMLWE
 70
    -2
  9
$DIMTMOVE
 70
     0
  9
$LUNITS
 70
     2
  9
$LUPREC
 70
     2
  9
$SKETCHINC
 40
1.0
  9
$FILLETRAD
 40
10.0
  9
$AUNITS
 70
     0
  9
$AUPREC
 70
     2
  9
$MENU
  1
.
  9
$ELEVATION
 40
0.0
  9
$PELEVATION
 40
0.0
  9
$THICKNESS
 40
0.0
  9
$LIMCHECK
 70
     0
  9
$CHAMFERA
 40
0.0
  9
$CHAMFERB
 40
0.0
  9
$CHAMFERC
 40
0.0
  9
$CHAMFERD
 40
0.0
  9
$SKPOLY
 70
     0
  9
$TDCREATE
 40
2457672.515403091
  9
$TDUCREATE
 40
2457672.432069757
  9
$TDUPDATE
 40
2457672.515404386
  9
$TDUUPDATE
 40
2457672.432071053
  9
$TDINDWG
 40
0.0000000116
  9
$TDUSRTIMER
 40
0.0000000116
  9
$USRTIMER
 70
     1
  9
$ANGBASE
 50
0.0
  9
$ANGDIR
 70
     0
  9
$PDMODE
 70
     0
  9
$PDSIZE
 40
-1.0
  9
$PLINEWID
 40
0.0
  9
$SPLFRAME
 70
     0
  9
$SPLINETYPE
 70
     6
  9
$SPLINESEGS
 70
     8
  9
$HANDSEED
  5
27A
  9
$SURFTAB1
 70
     6
  9
$SURFTAB2
 70
     6
  9
$SURFTYPE
 70
     6
  9
$SURFU
 70
     6
  9
$SURFV
 70
     6
  9
$UCSBASE
  2

  9
$UCSNAME
  2

  9
$UCSORG
 10
0.0
 20
0.0
 30
0.0
  9
$UCSXDIR
 10
1.0
 20
0.0
 30
0.0
  9
$UCSYDIR
 10
0.0
 20
1.0
 30
0.0
  9
$UCSORTHOREF
  2

  9
$UCSORTHOVIEW
 70
     0
  9
$UCSORGTOP
 10
0.0
 20
0.0
 30
0.0
  9
$UCSORGBOTTOM
 10
0.0
 20
0.0
 30
0.0
  9
$UCSORGLEFT
 10
0.0
 20
0.0
 30
0.0
  9
$UCSORGRIGHT
 10
0.0
 20
0.0
 30
0.0
  9
$UCSORGFRONT
 10
0.0
 20
0.0
 30
0.0
  9
$UCSORGBACK
 10
0.0
 20
0.0
 30
0.0
  9
$PUCSBASE
  2

  9
$PUCSNAME
  2

  9
$PUCSORG
 10
0.0
 20
0.0
 30
0.0
  9
$PUCSXDIR
 10
1.0
 20
0.0
 30
0.0
  9
$PUCSYDIR
 10
0.0
 20
1.0
 30
0.0
  9
$PUCSORTHOREF
  2

  9
$PUCSORTHOVIEW
 70
     0
  9
$PUCSORGTOP
 10
0.0
 20
0.0
 30
0.0
  9
$PUCSORGBOTTOM
 10
0.0
 20
0.0
 30
0.0
  9
$PUCSORGLEFT
 10
0.0
 20
0.0
 30
0.0
  9
$PUCSORGRIGHT
 10
0.0
 20
0.0
 30
0.0
  9
$PUCSORGFRONT
 10
0.0
 20
0.0
 30
0.0
  9
$PUCSORGBACK
 10
0.0
 20
0.0
 30
0.0
  9
$USERI1
 70
     0
  9
$USERI2
 70
     0
  9
$USERI3
 70
     0
  9
$USERI4
 70
     0
  9
$USERI5
 70
     0
  9
$USERR1
 40
0.0
  9
$USERR2
 40
0.0
  9
$USERR3
 40
0.0
  9
$USERR4
 40
0.0
  9
$USERR5
 40
0.0
  9
$WORLDVIEW
 70
     1
  9
$SHADEDGE
 70
     3
  9
$SHADEDIF
 70
    70
  9
$TILEMODE
 70
     1
  9
$MAXACTVP
 70
    64
  9
$PINSBASE
 10
0.0
 20
0.0
 30
0.0
  9
$PLIMCHECK
 70
     0
  9
$PEXTMIN
 10
1.0000000000E+20
 20
1.0000000000E+20
 30
1.0000000000E+20
  9
$PEXTMAX
 10
-1.0000000000E+20
 20
-1.0000000000E+20
 30
-1.0000000000E+20
  9
$PLIMMIN
 10
0.0
 20
0.0
  9
$PLIMMAX
 10
420.0
 20
297.0
  9
$UNITMODE
 70
     0
  9
$VISRETAIN
 70
     1
  9
$PLINEGEN
 70
     0
  9
$PSLTSCALE
 70
     1
  9
$TREEDEPTH
 70
  3020
  9
$CMLSTYLE
  2
Standard
  9
$CMLJUST
 70
     0
  9
$CMLSCALE
 40
20.0
  9
$PROXYGRAPHICS
 70
     1
  9
$MEASUREMENT
 70
     1
  9
$CELWEIGHT
370
    -1
  9
$ENDCAPS
280
     0
  9
$JOINSTYLE
280
     0
  9
$LWDISPLAY
290
     1
  9
$INSUNITS
 70
     4
  9
$HYPERLINKBASE
  1

  9
$STYLESHEET
  1

  9
$XEDIT
290
     1
  9
$CEPSNTYPE
380
     0
  9
$PSTYLEMODE
290
     1
  9
$FINGERPRINTGUID
  2
{A2EF6AD6-8906-4A00-B257-54FDDC1D241A}
  9
$VERSIONGUID
  2
{FAEB1C32-E019-11D5-929B-00C0DF256EC4}
  9
$EXTNAMES
290
     1
  9
$PSVPSCALE
 40
0.0
  9
$OLESTARTUP
290
     0
  0
ENDSEC
  0
SECTION
  2
CLASSES
  0
CLASS
  1
ACDBDICTIONARYWDFLT
  2
AcDbDictionaryWithDefault
  3
ObjectDBX Classes
 90
        0
280
     0
281
     0
  0
CLASS
  1
VISUALSTYLE
  2
AcDbVisualStyle
  3
ObjectDBX Classes
 90
     4095
280
     0
281
     0
  0
CLASS
  1
MATERIAL
  2
AcDbMaterial
  3
ObjectDBX Classes
 90
     1153
280
     0
281
     0
  0
CLASS
  1
SCALE
  2
AcDbScale
  3
ObjectDBX Classes
 90
     1153
280
     0
281
     0
  0
CLASS
  1
TABLESTYLE
  2
AcDbTableStyle
  3
ObjectDBX Classes
 90
     4095
280
     0
281
     0
  0
CLASS
  1
MLEADERSTYLE
  2
AcDbMLeaderStyle
  3
ACDB_MLEADERSTYLE_CLASS
 90
     4095
280
     0
281
     0
  0
CLASS
  1
SUN
  2
AcDbSun
  3
SCENEOE
 90
     1153
280
     0
281
     0
  0
CLASS
  1
ACDBPLACEHOLDER
  2
AcDbPlaceHolder
  3
ObjectDBX Classes
 90
        0
280
     0
281
     0
  0
CLASS
  1
LAYOUT
  2
AcDbLayout
  3
ObjectDBX Classes
 90
        0
280
     0
281
     0
  0
ENDSEC
  0
SECTION
  2
TABLES
  0
TABLE
  2
VPORT
  5
8
330
0
100
AcDbSymbolTable
 70
     1
  0
VPORT
  5
29
330
8
100
AcDbSymbolTableRecord
100
AcDbViewportTableRecord
  2
*Active
 70
     0
 10
0.0
 20
0.0
 11
1.0
 21
1.0
 12
148.5
 22
105.0
 13
0.0
 23
0.0
 14
10.0
 24
10.0
 15
10.0
 25
10.0
 16
0.0
 26
0.0
 36
1.0
 17
0.0
 27
0.0
 37
0.0
 40
210.0
 41
1.4142857143
 42
50.0
 43
0.0
 44
0.0
 50
0.0
 51
0.0
 71
     0
 72
  2000
 73
     1
 74
     3
 75
     0
 76
     0
 77
     0
 78
     0
281
     0
 65
     1
110
0.0
120
0.0
130
0.0
111
1.0
121
0.0
131
0.0
112
0.0
122
1.0
132
0.0
 79
     0
146
0.0
  0
ENDTAB
  0
TABLE
  2
LTYPE
  5
5
330
0
100
AcDbSymbolTable
 70
     6
  0
LTYPE
  5
14
330
5
100
AcDbSymbolTableRecord
100
AcDbLinetypeTableRecord
  2
ByBlock
 70
     0
  3

 72
    65
 73
     0
 40
0.0
  0
LTYPE
  5
15
330
5
100
AcDbSymbolTableRecord
100
AcDbLinetypeTableRecord
  2
ByLayer
 70
     0
  3

 72
    65
 73
     0
 40
0.0
  0
LTYPE
  5
16
330
5
100
AcDbSymbolTableRecord
100
AcDbLinetypeTableRecord
  2
Continuous
 70
     0
  3
Solid line
 72
    65
 73
     0
 40
0.0
  0
LTYPE
  5
6E
330
5
100
AcDbSymbolTableRecord
100
AcDbLinetypeTableRecord
  2
HIDDEN
 70
     0
  3
Hidden __ __ __ __ __ __ __ __ __ __ __ __ __ __
 72
    65
 73
     2
 40
1.905
 49
1.27
 74
     0
 49
-0.635
 74
     0
  0
LTYPE
  5
6F
330
5
100
AcDbSymbolTableRecord
100
AcDbLinetypeTableRecord
  2
PHANTOM
 70
     0
  3
Phantom ______  __  __  ______  __  __  ______
 72
    65
 73
     6
 40
12.7
 49
6.35
 74
     0
 49
-1.27
 74
     0
 49
1.27
 74
     0
 49
-1.27
 74
     0
 49
1.27
 74
     0
 49
-1.27
 74
     0
  0
LTYPE
  5
70
330
5
100
AcDbSymbolTableRecord
100
AcDbLinetypeTableRecord
  2
CENTER
 70
     0
  3
Center ____ _ ____ _ ____ _ ____ _ ____ _ ____
 72
    65
 73
     4
 40
10.16
 49
6.35
 74
     0
 49
-1.27
 74
     0
 49
1.27
 74
     0
 49
-1.27
 74
     0
  0
LTYPE
  5
71
330
5
100
AcDbSymbolTableRecord
100
AcDbLinetypeTableRecord
  2
CENTERX2
 70
     0
  3
Center (2x) ________  __  ________  __  _____
 72
    65
 73
     4
 40
20.32
 49
12.7
 74
     0
 49
-2.54
 74
     0
 49
2.54
 74
     0
 49
-2.54
 74
     0
  0
LTYPE
  5
72
330
5
100
AcDbSymbolTableRecord
100
AcDbLinetypeTableRecord
  2
DOT2
 70
     0
  3
Dot (.5x) ........................................
 72
    65
 73
     2
 40
0.635
 49
0.0
 74
     0
 49
-0.635
 74
     0
  0
ENDTAB
  0
TABLE
  2
LAYER
  5
2
330
0
100
AcDbSymbolTable
 70
     5
  0
LAYER
  5
10
330
2
100
AcDbSymbolTableRecord
100
AcDbLayerTableRecord
  2
0
 70
     0
 62
     7
  6
Continuous
370
    -3
390
F
  0
LAYER
  5
73
330
2
100
AcDbSymbolTableRecord
100
AcDbLayerTableRecord
  2
FORMAT
 70
     0
 62
     7
  6
Continuous
370
    -3
390
F
  0
LAYER
  5
74
330
2
100
AcDbSymbolTableRecord
100
AcDbLayerTableRecord
  2
VERMASSUNG
 70
     0
 62
     7
  6
Continuous
370
    -3
390
F
  0
LAYER
  5
75
330
2
100
AcDbSymbolTableRecord
100
AcDbLayerTableRecord
  2
KOPF_DÜNN
 70
     0
 62
     7
  6
Continuous
370
    -3
390
F
  0
LAYER
  5
76
330
2
100
AcDbSymbolTableRecord
100
AcDbLayerTableRecord
  2
KOPF_DICK
 70
     0
 62
     7
  6
Continuous
370
    15
390
F
  0
ENDTAB
  0
TABLE
  2
STYLE
  5
3
330
0
100
AcDbSymbolTable
 70
     3
  0
STYLE
  5
11
330
3
100
AcDbSymbolTableRecord
100
AcDbTextStyleTableRecord
  2
Standard
 70
     0
 40
0.0
 41
1.0
 50
0.0
 71
     0
 42
2.0
  3
txt
  4

  0
STYLE
  5
77
330
3
100
AcDbSymbolTableRecord
100
AcDbTextStyleTableRecord
  2
SLDTEXTSTYLE0
 70
     0
 40
0.0
 41
0.7
 50
0.0
 71
     0
 42
2.0
  3
TXT
  4

  0
STYLE
  5
7B
330
3
100
AcDbSymbolTableRecord
100
AcDbTextStyleTableRecord
  2
SLDTEXTSTYLE1
 70
     0
 40
0.0
 41
0.6454545455
 50
0.0
 71
     0
 42
2.0
  3
TXT
  4

  0
ENDTAB
  0
TABLE
  2
VIEW
  5
6
330
0
100
AcDbSymbolTable
 70
     0
  0
ENDTAB
  0
TABLE
  2
UCS
  5
7
330
0
100
AcDbSymbolTable
 70
     0
  0
ENDTAB
  0
TABLE
  2
APPID
  5
9
330
0
100
AcDbSymbolTable
 70
     1
  0
APPID
  5
12
330
9
100
AcDbSymbolTableRecord
100
AcDbRegAppTableRecord
  2
ACAD
 70
     0
  0
ENDTAB
  0
TABLE
  2
DIMSTYLE
  5
A
330
0
100
AcDbSymbolTable
 70
     2
100
AcDbDimStyleTable
  0
DIMSTYLE
105
27
330
A
100
AcDbSymbolTableRecord
100
AcDbDimStyleTableRecord
  2
ISO-25
 70
     0
 41
2.5
 42
0.625
 43
3.75
 44
1.25
 73
     0
 74
     0
 77
     1
 78
     8
140
2.5
141
2.5
143
0.0393700787
147
0.625
171
     3
172
     1
178
     0
271
     2
272
     2
274
     3
278
    44
283
     0
284
     8
340
11
  0
DIMSTYLE
105
19B
102
{ACAD_REACTORS
330
19A
330
1A6
330
1B2
330
1BE
330
1C8
330
1D4
102
}
330
A
100
AcDbSymbolTableRecord
100
AcDbDimStyleTableRecord
  2
SLDDIMSTYLE0
 70
     0
 41
3.0
 44
0.0
 45
0.000000001
 73
     0
 74
     0
 77
     1
 78
    12
 79
     3
140
2.0
147
0.5
173
     1
178
     0
271
     2
272
     3
276
     2
284
    12
340
77
  0
ENDTAB
  0
TABLE
  2
BLOCK_RECORD
  5
1
330
0
100
AcDbSymbolTable
 70
     7
  0
BLOCK_RECORD
  5
1F
330
1
100
AcDbSymbolTableRecord
100
AcDbBlockTableRecord
  2
*Model_Space
340
22
  0
BLOCK_RECORD
  5
1B
330
1
100
AcDbSymbolTableRecord
100
AcDbBlockTableRecord
  2
*Paper_Space
340
1E
  0
BLOCK_RECORD
  5
23
330
1
100
AcDbSymbolTableRecord
100
AcDbBlockTableRecord
  2
*Paper_Space0
340
26
  0
BLOCK_RECORD
  5
19C
330
1
100
AcDbSymbolTableRecord
100
AcDbBlockTableRecord
  2
_D
340
0
  0
BLOCK_RECORD
  5
1A7
330
1
100
AcDbSymbolTableRecord
100
AcDbBlockTableRecord
  2
_D_1
340
0
  0
BLOCK_RECORD
  5
1B3
330
1
100
AcDbSymbolTableRecord
100
AcDbBlockTableRecord
  2
_D_2
340
0
  0
BLOCK_RECORD
  5
1BF
330
1
100
AcDbSymbolTableRecord
100
AcDbBlockTableRecord
  2
_D_3
340
0
  0
BLOCK_RECORD
  5
1C9
330
1
100
AcDbSymbolTableRecord
100
AcDbBlockTableRecord
  2
_D_4
340
0
  0
BLOCK_RECORD
  5
1D5
330
1
100
AcDbSymbolTableRecord
100
AcDbBlockTableRecord
  2
_D_5
340
0
  0
ENDTAB
  0
ENDSEC
  0
SECTION
  2
BLOCKS
  0
BLOCK
  5
20
330
1F
100
AcDbEntity
  8
0
100
AcDbBlockBegin
  2
*Model_Space
 70
     0
 10
0.0
 20
0.0
 30
0.0
  3
*Model_Space
  1

  0
ENDBLK
  5
21
330
1F
100
AcDbEntity
  8
0
100
AcDbBlockEnd
  0
BLOCK
  5
1C
330
1B
100
AcDbEntity
 67
     1
  8
0
100
AcDbBlockBegin
  2
*Paper_Space
 70
     0
 10
0.0
 20
0.0
 30
0.0
  3
*Paper_Space
  1

  0
ENDBLK
  5
1D
330
1B
100
AcDbEntity
 67
     1
  8
0
100
AcDbBlockEnd
  0
BLOCK
  5
24
330
23
100
AcDbEntity
  8
0
100
AcDbBlockBegin
  2
*Paper_Space0
 70
     0
 10
0.0
 20
0.0
 30
0.0
  3
*Paper_Space0
  1

  0
ENDBLK
  5
25
330
23
100
AcDbEntity
  8
0
100
AcDbBlockEnd
  0
BLOCK
  5
19D
330
19C
100
AcDbEntity
  8
0
100
AcDbBlockBegin
  2
_D
 70
     0
 10
0.0
 20
0.0
 30
0.0
  3
_D
  1

  0
SOLID
  5
19F
330
19C
100
AcDbEntity
  8
VERMASSUNG
100
AcDbTrace
 10
243.1515375068
 20
123.6393637691
 30
0.0
 11
242.7015375068
 21
120.6393637691
 31
0.0
 12
243.6015375068
 22
120.6393637691
 32
0.0
 13
243.6015375068
 23
120.6393637691
 33
0.0
  0
SOLID
  5
1A0
330
19C
100
AcDbEntity
  8
VERMASSUNG
100
AcDbTrace
 10
243.1515375068
 20
101.6393637691
 30
0.0
 11
243.6015375068
 21
104.6393637691
 31
0.0
 12
242.7015375068
 22
104.6393637691
 32
0.0
 13
242.7015375068
 23
104.6393637691
 33
0.0
  0
LINE
  5
1A1
330
19C
100
AcDbEntity
  8
VERMASSUNG
100
AcDbLine
 10
226.6319387164
 20
123.6393637691
 30
0.0
 11
244.1515375068
 21
123.6393637691
 31
0.0
  0
LINE
  5
1A2
330
19C
100
AcDbEntity
  8
VERMASSUNG
100
AcDbLine
 10
226.6319387164
 20
101.6393637691
 30
0.0
 11
244.1515375068
 21
101.6393637691
 31
0.0
  0
LINE
  5
1A3
330
19C
100
AcDbEntity
  8
VERMASSUNG
100
AcDbLine
 10
243.1515375068
 20
123.6393637691
 30
0.0
 11
243.1515375068
 21
101.6393637691
 31
0.0
  0
MTEXT
  5
1A4
330
19C
100
AcDbEntity
  8
VERMASSUNG
100
AcDbMText
 10
240.573401969
 20
109.435187662
 30
0.0
 40
2.0
 41
0.0
 71
     1
 72
     1
  1
%%c
  7
SLDTEXTSTYLE0
 11
-7.044195017643634E-15
 21
1.0
 31
0.0
 73
     1
 44
1.0
  0
MTEXT
  5
1A5
330
19C
100
AcDbEntity
  8
VERMASSUNG
100
AcDbMText
 10
240.5734019108
 20
113.0441598556
 30
0.0
 40
2.0
 41
0.0
 71
     1
 72
     1
  1
22
  7
SLDTEXTSTYLE0
 11
-7.044195017643634E-15
 21
1.0
 31
0.0
 73
     1
 44
1.0
  0
ENDBLK
  5
19E
330
19C
100
AcDbEntity
  8
0
100
AcDbBlockEnd
  0
BLOCK
  5
1A8
330
1A7
100
AcDbEntity
  8
0
100
AcDbBlockBegin
  2
_D_1
 70
     0
 10
0.0
 20
0.0
 30
0.0
  3
_D_1
  1

  0
SOLID
  5
1AA
330
1A7
100
AcDbEntity
  8
VERMASSUNG
100
AcDbTrace
 10
249.2515375068
 20
132.1393637691
 30
0.0
 11
248.8015375068
 21
129.1393637691
 31
0.0
 12
249.7015375068
 22
129.1393637691
 32
0.0
 13
249.7015375068
 23
129.1393637691
 33
0.0
  0
SOLID
  5
1AB
330
1A7
100
AcDbEntity
  8
VERMASSUNG
100
AcDbTrace
 10
249.2515375068
 20
93.1393637691
 30
0.0
 11
249.7015375068
 21
96.1393637691
 31
0.0
 12
248.8015375068
 22
96.1393637691
 32
0.0
 13
248.8015375068
 23
96.1393637691
 33
0.0
  0
LINE
  5
1AC
330
1A7
100
AcDbEntity
  8
VERMASSUNG
100
AcDbLine
 10
236.8319387164
 20
132.1393637691
 30
0.0
 11
250.2515375068
 21
132.1393637691
 31
0.0
  0
LINE
  5
1AD
330
1A7
100
AcDbEntity
  8
VERMASSUNG
100
AcDbLine
 10
236.8319387164
 20
93.1393637691
 30
0.0
 11
250.2515375068
 21
93.1393637691
 31
0.0
  0
LINE
  5
1AE
330
1A7
100
AcDbEntity
  8
VERMASSUNG
100
AcDbLine
 10
249.2515375068
 20
132.1393637691
 30
0.0
 11
249.2515375068
 21
93.1393637691
 31
0.0
  0
MTEXT
  5
1AF
330
1A7
100
AcDbEntity
  8
VERMASSUNG
100
AcDbMText
 10
246.4734022506
 20
106.4350640781
 30
0.0
 40
2.0
 41
0.0
 71
     1
 72
     1
  1
ST4
  7
SLDTEXTSTYLE0
 11
-7.044195017643634E-15
 21
1.0
 31
0.0
 73
     1
 44
1.0
  0
MTEXT
  5
1B0
330
1A7
100
AcDbEntity
  8
VERMASSUNG
100
AcDbMText
 10
246.6734022019
 20
112.4350641303
 30
0.0
 40
2.0
 41
0.0
 71
     1
 72
     1
  1
%%c
  7
SLDTEXTSTYLE0
 11
-7.044195017643634E-15
 21
1.0
 31
0.0
 73
     1
 44
1.0
  0
MTEXT
  5
1B1
330
1A7
100
AcDbEntity
  8
VERMASSUNG
100
AcDbMText
 10
246.6734019108
 20
116.0442834396
 30
0.0
 40
2.0
 41
0.0
 71
     1
 72
     1
  1
39
  7
SLDTEXTSTYLE0
 11
-7.044195017643634E-15
 21
1.0
 31
0.0
 73
     1
 44
1.0
  0
ENDBLK
  5
1A9
330
1A7
100
AcDbEntity
  8
0
100
AcDbBlockEnd
  0
BLOCK
  5
1B4
330
1B3
100
AcDbEntity
  8
0
100
AcDbBlockBegin
  2
_D_2
 70
     0
 10
0.0
 20
0.0
 30
0.0
  3
_D_2
  1

  0
ARC
  5
1B6
330
1B3
100
AcDbEntity
  8
VERMASSUNG
100
AcDbCircle
 10
222.7441781602
 20
168.4912598476
 30
0.0
 40
4.247059938537272
100
AcDbArc
 50
153.4349488229
 51
206.5650511771
  0
ARC
  5
1B7
330
1B3
100
AcDbEntity
  8
VERMASSUNG
100
AcDbCircle
 10
220.7196992725
 20
168.4912598476
 30
0.0
 40
4.247059938537323
100
AcDbArc
 50
333.4349488229
 51
26.5650511771
  0
SOLID
  5
1B8
330
1B3
100
AcDbEntity
  8
VERMASSUNG
100
AcDbTrace
 10
206.2319387164
 20
166.5919169022
 30
0.0
 11
209.2319387164
 21
166.1419169022
 31
0.0
 12
209.2319387164
 22
167.0419169022
 32
0.0
 13
209.2319387164
 23
167.0419169022
 33
0.0
  0
SOLID
  5
1B9
330
1B3
100
AcDbEntity
  8
VERMASSUNG
100
AcDbTrace
 10
237.2319387164
 20
166.5919169022
 30
0.0
 11
234.2319387164
 21
167.0419169022
 31
0.0
 12
234.2319387164
 22
166.1419169022
 32
0.0
 13
234.2319387164
 23
166.1419169022
 33
0.0
  0
LINE
  5
1BA
330
1B3
100
AcDbEntity
  8
VERMASSUNG
100
AcDbLine
 10
206.2319387164
 20
161.6393637691
 30
0.0
 11
206.2319387164
 21
167.5919169022
 31
0.0
  0
LINE
  5
1BB
330
1B3
100
AcDbEntity
  8
VERMASSUNG
100
AcDbLine
 10
237.2319387164
 20
131.7393637691
 30
0.0
 11
237.2319387164
 21
167.5919169022
 31
0.0
  0
LINE
  5
1BC
330
1B3
100
AcDbEntity
  8
VERMASSUNG
100
AcDbLine
 10
206.2319387164
 20
166.5919169022
 30
0.0
 11
237.2319387164
 21
166.5919169022
 31
0.0
  0
MTEXT
  5
1BD
330
1B3
100
AcDbEntity
  8
VERMASSUNG
100
AcDbMText
 10
220.5329922694
 20
169.1700524981
 30
0.0
 40
2.0
 41
0.0
 71
     1
 72
     1
  1
31
  7
SLDTEXTSTYLE0
 73
     1
 44
1.0
  0
ENDBLK
  5
1B5
330
1B3
100
AcDbEntity
  8
0
100
AcDbBlockEnd
  0
BLOCK
  5
1C0
330
1BF
100
AcDbEntity
  8
0
100
AcDbBlockBegin
  2
_D_3
 70
     0
 10
0.0
 20
0.0
 30
0.0
  3
_D_3
  1

  0
SOLID
  5
1C2
330
1BF
100
AcDbEntity
  8
VERMASSUNG
100
AcDbTrace
 10
168.2319387164
 20
172.5919169022
 30
0.0
 11
171.2319387164
 21
172.1419169022
 31
0.0
 12
171.2319387164
 22
173.0419169022
 32
0.0
 13
171.2319387164
 23
173.0419169022
 33
0.0
  0
SOLID
  5
1C3
330
1BF
100
AcDbEntity
  8
VERMASSUNG
100
AcDbTrace
 10
237.2319387164
 20
172.5919169022
 30
0.0
 11
234.2319387164
 21
173.0419169022
 31
0.0
 12
234.2319387164
 22
172.1419169022
 32
0.0
 13
234.2319387164
 23
172.1419169022
 33
0.0
  0
LINE
  5
1C4
330
1BF
100
AcDbEntity
  8
VERMASSUNG
100
AcDbLine
 10
168.2319387164
 20
147.5643637691
 30
0.0
 11
168.2319387164
 21
173.5919169022
 31
0.0
  0
LINE
  5
1C5
330
1BF
100
AcDbEntity
  8
VERMASSUNG
100
AcDbLine
 10
237.2319387164
 20
131.7393637691
 30
0.0
 11
237.2319387164
 21
173.5919169022
 31
0.0
  0
LINE
  5
1C6
330
1BF
100
AcDbEntity
  8
VERMASSUNG
100
AcDbLine
 10
168.2319387164
 20
172.5919169022
 30
0.0
 11
237.2319387164
 21
172.5919169022
 31
0.0
  0
MTEXT
  5
1C7
330
1BF
100
AcDbEntity
  8
VERMASSUNG
100
AcDbMText
 10
201.3322487061
 20
175.1700524981
 30
0.0
 40
2.0
 41
0.0
 71
     1
 72
     1
  1
69
  7
SLDTEXTSTYLE0
 73
     1
 44
1.0
  0
ENDBLK
  5
1C1
330
1BF
100
AcDbEntity
  8
0
100
AcDbBlockEnd
  0
BLOCK
  5
1CA
330
1C9
100
AcDbEntity
  8
0
100
AcDbBlockBegin
  2
_D_4
 70
     0
 10
0.0
 20
0.0
 30
0.0
  3
_D_4
  1

  0
ARC
  5
1CC
330
1C9
100
AcDbEntity
  8
VERMASSUNG
100
AcDbCircle
 10
151.1433728049
 20
180.4912598476
 30
0.0
 40
4.247059938537284
100
AcDbArc
 50
153.4349488229
 51
206.5650511771
  0
ARC
  5
1CD
330
1C9
100
AcDbEntity
  8
VERMASSUNG
100
AcDbCircle
 10
152.5205046278
 20
180.4912598476
 30
0.0
 40
4.247059938537284
100
AcDbArc
 50
333.4349488229
 51
26.5650511771
  0
SOLID
  5
1CE
330
1C9
100
AcDbEntity
  8
VERMASSUNG
100
AcDbTrace
 10
66.4319387164
 20
178.5919169022
 30
0.0
 11
69.4319387164
 21
178.1419169022
 31
0.0
 12
69.4319387164
 22
179.0419169022
 32
0.0
 13
69.4319387164
 23
179.0419169022
 33
0.0
  0
SOLID
  5
1CF
330
1C9
100
AcDbEntity
  8
VERMASSUNG
100
AcDbTrace
 10
237.2319387164
 20
178.5919169022
 30
0.0
 11
234.2319387164
 21
179.0419169022
 31
0.0
 12
234.2319387164
 22
178.1419169022
 32
0.0
 13
234.2319387164
 23
178.1419169022
 33
0.0
  0
LINE
  5
1D0
330
1C9
100
AcDbEntity
  8
VERMASSUNG
100
AcDbLine
 10
66.4319387164
 20
130.9890416299
 30
0.0
 11
66.4319387164
 21
179.5919169022
 31
0.0
  0
LINE
  5
1D1
330
1C9
100
AcDbEntity
  8
VERMASSUNG
100
AcDbLine
 10
237.2319387164
 20
131.7393637691
 30
0.0
 11
237.2319387164
 21
179.5919169022
 31
0.0
  0
LINE
  5
1D2
330
1C9
100
AcDbEntity
  8
VERMASSUNG
100
AcDbLine
 10
66.4319387164
 20
178.5919169022
 30
0.0
 11
237.2319387164
 21
178.5919169022
 31
0.0
  0
MTEXT
  5
1D3
330
1C9
100
AcDbEntity
  8
VERMASSUNG
100
AcDbMText
 10
148.9321869141
 20
181.1700524981
 30
0.0
 40
2.0
 41
0.0
 71
     1
 72
     1
  1
170.8
  7
SLDTEXTSTYLE0
 73
     1
 44
1.0
  0
ENDBLK
  5
1CB
330
1C9
100
AcDbEntity
  8
0
100
AcDbBlockEnd
  0
BLOCK
  5
1D6
330
1D5
100
AcDbEntity
  8
0
100
AcDbBlockBegin
  2
_D_5
 70
     0
 10
0.0
 20
0.0
 30
0.0
  3
_D_5
  1

  0
SOLID
  5
1D8
330
1D5
100
AcDbEntity
  8
VERMASSUNG
100
AcDbTrace
 10
59.9106148744
 20
162.6393637691
 30
0.0
 11
59.4606148744
 21
159.6393637691
 31
0.0
 12
60.3606148744
 22
159.6393637691
 32
0.0
 13
60.3606148744
 23
159.6393637691
 33
0.0
  0
SOLID
  5
1D9
330
1D5
100
AcDbEntity
  8
VERMASSUNG
100
AcDbTrace
 10
59.9106148744
 20
62.6393637691
 30
0.0
 11
60.3606148744
 21
65.6393637691
 31
0.0
 12
59.4606148744
 22
65.6393637691
 32
0.0
 13
59.4606148744
 23
65.6393637691
 33
0.0
  0
LINE
  5
1DA
330
1D5
100
AcDbEntity
  8
VERMASSUNG
100
AcDbLine
 10
202.2319406249
 20
162.6393637691
 30
0.0
 11
58.9106148744
 21
162.6393637691
 31
0.0
  0
LINE
  5
1DB
330
1D5
100
AcDbEntity
  8
VERMASSUNG
100
AcDbLine
 10
202.2319407784
 20
62.6393637691
 30
0.0
 11
58.9106148744
 21
62.6393637691
 31
0.0
  0
LINE
  5
1DC
330
1D5
100
AcDbEntity
  8
VERMASSUNG
100
AcDbLine
 10
59.9106148744
 20
162.6393637691
 30
0.0
 11
59.9106148744
 21
62.6393637691
 31
0.0
  0
MTEXT
  5
1DD
330
1D5
100
AcDbEntity
  8
VERMASSUNG
100
AcDbMText
 10
57.1324796182
 20
101.5355975487
 30
0.0
 40
2.0
 41
0.0
 71
     1
 72
     1
  1
MAS BT 50
  7
SLDTEXTSTYLE0
 11
-7.044195017643634E-15
 21
1.0
 31
0.0
 73
     1
 44
1.0
  0
MTEXT
  5
1DE
330
1D5
100
AcDbEntity
  8
VERMASSUNG
100
AcDbMText
 10
57.3324795695
 20
116.3355975532
 30
0.0
 40
2.0
 41
0.0
 71
     1
 72
     1
  1
%%c
  7
SLDTEXTSTYLE0
 11
-7.044195017643634E-15
 21
1.0
 31
0.0
 73
     1
 44
1.0
  0
MTEXT
  5
1DF
330
1D5
100
AcDbEntity
  8
VERMASSUNG
100
AcDbMText
 10
57.3324792785
 20
119.9444440987
 30
0.0
 40
2.0
 41
0.0
 71
     1
 72
     1
  1
100
  7
SLDTEXTSTYLE0
 11
-7.044195017643634E-15
 21
1.0
 31
0.0
 73
     1
 44
1.0
  0
ENDBLK
  5
1D7
330
1D5
100
AcDbEntity
  8
0
100
AcDbBlockEnd
  0
ENDSEC
  0
SECTION
  2
ENTITIES
  0
MTEXT
  5
78
330
1F
100
AcDbEntity
  8
KOPF_DÜNN
100
AcDbMText
 10
13.8892156294
 20
23.8442973028
 30
0.0
 40
3.0
 41
0.0
 71
     1
 72
     1
  1
134.650.039.069
  7
SLDTEXTSTYLE0
 73
     1
 44
1.0
  0
MTEXT
  5
79
330
1F
100
AcDbEntity
  8
VERMASSUNG
100
AcDbMText
 10
13.9329988022
 20
28.8834360957
 30
0.0
 40
3.0
 41
0.0
 71
     1
 72
     1
  1
Aufnahme_Master shank ST4
  7
SLDTEXTSTYLE0
 73
     1
 44
1.0
  0
MTEXT
  5
7A
330
1F
100
AcDbEntity
  8
VERMASSUNG
100
AcDbMText
 10
98.8601118557
 20
13.8365368761
 30
0.0
 40
2.0
 41
0.0
 71
     1
 72
     1
  1
Datum: 06.06.2008
  7
SLDTEXTSTYLE0
 73
     1
 44
1.0
  0
MTEXT
  5
7C
330
1F
100
AcDbEntity
  8
VERMASSUNG
100
AcDbMText
 10
13.933048693
 20
18.0482802738
 30
0.0
 40
2.0
 41
0.0
 71
     1
 72
     1
  1
MAS BT 50 B
  7
SLDTEXTSTYLE1
 73
     1
 44
1.0
  0
MTEXT
  5
7D
330
1F
100
AcDbEntity
  8
VERMASSUNG
100
AcDbMText
 10
13.9808475933
 20
13.9090974274
 30
0.0
 40
2.0
 41
0.0
 71
     1
 72
     1
  1
Gewicht: 3855g
  7
SLDTEXTSTYLE0
 73
     1
 44
1.0
  0
LINE
  5
7E
330
1F
100
AcDbEntity
  8
0
  6
Continuous
 62
     7
370
    15
100
AcDbLine
 10
202.2316514896
 20
62.6393637691
 30
0.0
 11
205.2319387164
 21
62.6393637691
 31
0.0
  0
LINE
  5
7F
330
1F
100
AcDbEntity
  8
0
  6
Continuous
 62
     7
370
    15
100
AcDbLine
 10
205.2319387164
 20
162.6393637691
 30
0.0
 11
202.2315045354
 21
162.6393637691
 31
0.0
  0
ARC
  5
80
330
1F
100
AcDbEntity
  8
0
  6
Continuous
 62
     7
370
    15
100
AcDbCircle
 10
205.2319387164
 20
63.6393637691
 30
0.0
 40
1.000000000000028
100
AcDbArc
 50
270.0
 51
0.0
  0
ARC
  5
81
330
1F
100
AcDbEntity
  8
0
  6
Continuous
 62
     7
370
    15
100
AcDbCircle
 10
205.2319387164
 20
161.6393637691
 30
0.0
 40
1.000000000000028
100
AcDbArc
 50
0.0
 51
90.0
  0
ARC
  5
82
330
1F
100
AcDbEntity
  8
0
  6
Continuous
 62
     7
370
    15
100
AcDbCircle
 10
170.2319387164
 20
76.7143637691
 30
0.0
 40
1.000000000000011
100
AcDbArc
 50
38.7225404037
 51
90.0
  0
ARC
  5
83
330
1F
100
AcDbEntity
  8
0
  6
Continuous
 62
     7
370
    15
100
AcDbCircle
 10
170.2319387164
 20
148.5643637691
 30
0.0
 40
1.000000000000008
100
AcDbArc
 50
270.0
 51
321.2892509301
  0
LINE
  5
84
330
1F
100
AcDbEntity
  8
0
  6
Continuous
 62
     7
370
    15
100
AcDbLine
 10
168.2319387164
 20
77.7143637691
 30
0.0
 11
170.2319387164
 21
77.7143637691
 31
0.0
  0
LINE
  5
85
330
1F
100
AcDbEntity
  8
0
  6
Continuous
 62
     7
370
    15
100
AcDbLine
 10
170.2319387164
 20
147.5643637691
 30
0.0
 11
168.2319387164
 21
147.5643637691
 31
0.0
  0
LINE
  5
86
330
1F
100
AcDbEntity
  8
0
  6
Continuous
 62
     7
370
    15
100
AcDbLine
 10
168.2319387164
 20
147.5643637691
 30
0.0
 11
68.1433249302
 21
132.968107592
 31
0.0
  0
LINE
  5
87
330
1F
100
AcDbEntity
  8
0
  6
Continuous
 62
     7
370
    15
100
AcDbLine
 10
68.1433249302
 20
92.3106199463
 30
0.0
 11
168.2319387164
 21
77.7143637691
 31
0.0
  0
ARC
  5
88
330
1F
100
AcDbEntity
  8
0
  6
Continuous
 62
     7
370
    15
100
AcDbCircle
 10
210.2319387164
 20
89.1393637691
 30
0.0
 40
4.0
100
AcDbArc
 50
90.0
 51
180.0
  0
ARC
  5
89
330
1F
100
AcDbEntity
  8
0
  6
Continuous
 62
     7
370
    15
100
AcDbCircle
 10
210.2319387164
 20
136.1393637691
 30
0.0
 40
4.0
100
AcDbArc
 50
180.0
 51
270.0
  0
ARC
  5
8A
330
1F
100
AcDbEntity
  8
0
  6
Continuous
 62
     7
370
    15
100
AcDbCircle
 10
68.4319387164
 20
94.2896859084
 30
0.0
 40
2.0
100
AcDbArc
 50
180.0
 51
261.7028550302
  0
ARC
  5
8B
330
1F
100
AcDbEntity
  8
0
  6
Continuous
 62
     7
370
    15
100
AcDbCircle
 10
68.4319387164
 20
130.9890416299
 30
0.0
 40
2.0
100
AcDbArc
 50
98.2971449698
 51
180.0
  0
LINE
  5
8C
330
1F
100
AcDbEntity
  8
0
  6
Continuous
 62
     7
370
    15
100
AcDbLine
 10
236.8319387164
 20
93.1393637691
 30
0.0
 11
237.2319387164
 21
93.5393637691
 31
0.0
  0
LINE
  5
8D
330
1F
100
AcDbEntity
  8
0
  6
Continuous
 62
     7
370
    15
100
AcDbLine
 10
237.2319387164
 20
131.7393637691
 30
0.0
 11
236.8319387164
 21
132.1393637691
 31
0.0
  0
LINE
  5
8E
330
1F
100
AcDbEntity
  8
0
  6
Continuous
 62
     7
370
    15
100
AcDbLine
 10
236.8319387164
 20
132.1393637691
 30
0.0
 11
210.2319387164
 21
132.1393637691
 31
0.0
  0
LINE
  5
8F
330
1F
100
AcDbEntity
  8
0
  6
Continuous
 62
     7
370
    15
100
AcDbLine
 10
210.2319387164
 20
93.1393637691
 30
0.0
 11
236.8319387164
 21
93.1393637691
 31
0.0
  0
SPLINE
  5
90
330
1F
100
AcDbEntity
  8
0
  6
Continuous
 62
     7
370
    15
100
AcDbSpline
210
0.0
220
0.0
230
1.0
 70
    24
 71
     3
 72
    11
 73
     7
 74
     0
 42
0.000000001
 43
0.00000001
 40
0.0
 40
0.0
 40
0.0
 40
0.0
 40
0.1285561766307341
 40
0.4801535797842227
 40
0.8150691831753877
 40
1.0
 40
1.0
 40
1.0
 40
1.0
 10
225.7502528907062
 20
110.8272906387352
 30
0.0
 10
225.71588160371
 20
110.9137128736505
 30
0.0
 10
225.5875058467021
 20
111.23649740688
 30
0.0
 10
225.3467725500678
 20
111.8417907005517
 30
0.0
 10
225.0861091698748
 20
112.4971956575826
 30
0.0
 10
224.9464698910798
 20
112.8483008855236
 30
0.0
 10
224.8967944390922
 20
112.9732034991985
 30
0.0
  0
SPLINE
  5
91
330
1F
100
AcDbEntity
  8
0
  6
Continuous
 62
     7
370
    15
100
AcDbSpline
210
0.0
220
0.0
230
1.0
 70
    24
 71
     3
 72
    10
 73
     6
 74
     0
 42
0.000000001
 43
0.00000001
 40
0.0
 40
0.0
 40
0.0
 40
0.0
 40
0.4391222274230498
 40
0.7513714712594626
 40
0.9999999999999999
 40
0.9999999999999999
 40
0.9999999999999999
 40
0.9999999999999999
 10
228.0353971679823
 20
110.4934509086759
 30
0.0
 10
227.7082565417995
 20
110.5412433126052
 30
0.0
 10
227.14849409241
 20
110.623019744343
 30
0.0
 10
226.3347872118975
 20
110.7418952516967
 30
0.0
 10
225.9297844249755
 20
110.8010626409963
 30
0.0
 10
225.7502528907062
 20
110.8272906387352
 30
0.0
  0
SPLINE
  5
92
330
1F
100
AcDbEntity
  8
0
  6
Continuous
 62
     7
370
    15
100
AcDbSpline
210
0.0
220
0.0
230
1.0
 70
    24
 71
     3
 72
    10
 73
     6
 74
     0
 42
0.000000001
 43
0.00000001
 40
0.0
 40
0.0
 40
0.0
 40
0.0
 40
0.4391222274230492
 40
0.7513714712594577
 40
1.0
 40
1.0
 40
1.0
 40
1.0
 10
229.4670829936442
 20
112.3055240390799
 30
0.0
 10
229.2621232446421
 20
112.0461081481604
 30
0.0
 10
228.9114215526316
 20
111.6022278627734
 30
0.0
 10
228.4016189031193
 20
110.9569747866922
 30
0.0
 10
228.1478770474492
 20
110.635815779264
 30
0.0
 10
228.0353971679823
 20
110.4934509086759
 30
0.0
  0
SPLINE
  5
93
330
1F
100
AcDbEntity
  8
0
  6
Continuous
 62
     7
370
    15
100
AcDbSpline
210
0.0
220
0.0
230
1.0
 70
    24
 71
     3
 72
    11
 73
     7
 74
     0
 42
0.000000001
 43
0.00000001
 40
0.0
 40
0.0
 40
0.0
 40
0.0
 40
0.1849308168246122
 40
0.5198464202157724
 40
0.8714438233692609
 40
1.0
 40
1.0
 40
1.0
 40
1.0
 10
228.61362454203
 20
114.4514368995432
 30
0.0
 10
228.6632999940176
 20
114.3265342858682
 30
0.0
 10
228.8029392728127
 20
113.9754290579272
 30
0.0
 10
229.0636026530056
 20
113.3200241008963
 30
0.0
 10
229.30433594964
 20
112.7147308072247
 30
0.0
 10
229.432711706648
 20
112.3919462739952
 30
0.0
 10
229.4670829936442
 20
112.3055240390799
 30
0.0
  0
SPLINE
  5
94
330
1F
100
AcDbEntity
  8
0
  6
Continuous
 62
     7
370
    15
100
AcDbSpline
210
0.0
220
0.0
230
1.0
 70
    24
 71
     3
 72
    10
 73
     6
 74
     0
 42
0.000000001
 43
0.00000001
 40
0.0
 40
0.0
 40
0.0
 40
0.0
 40
0.4391222274230385
 40
0.7513714712594515
 40
1.0
 40
1.0
 40
1.0
 40
1.0
 10
224.8967944390922
 20
112.9732034991985
 30
0.0
 10
225.1017541880942
 20
113.2326193901181
 30
0.0
 10
225.4524558801046
 20
113.6764996755051
 30
0.0
 10
225.962258529617
 20
114.3217527515862
 30
0.0
 10
226.2160003852871
 20
114.6429117590145
 30
0.0
 10
226.3284802647541
 20
114.7852766296025
 30
0.0
  0
CIRCLE
  5
95
330
1F
100
AcDbEntity
  8
0
  6
Continuous
 62
     7
370
    15
100
AcDbCircle
 10
227.1819387164
 20
112.6393637691
 30
0.0
 40
2.400000000000021
  0
SPLINE
  5
96
330
1F
100
AcDbEntity
  8
0
  6
Continuous
 62
     7
370
    15
100
AcDbSpline
210
0.0
220
0.0
230
1.0
 70
    24
 71
     3
 72
    10
 73
     6
 74
     0
 42
0.000000001
 43
0.00000001
 40
0.0
 40
0.0
 40
0.0
 40
0.0
 40
0.4391222274230488
 40
0.7513714712594595
 40
1.0
 40
1.0
 40
1.0
 40
1.0
 10
226.3284802647541
 20
114.7852766296025
 30
0.0
 10
226.6556208909368
 20
114.7374842256733
 30
0.0
 10
227.2153833403263
 20
114.6557077939355
 30
0.0
 10
228.0290902208387
 20
114.5368322865818
 30
0.0
 10
228.4340930077608
 20
114.4776648972822
 30
0.0
 10
228.61362454203
 20
114.4514368995432
 30
0.0
  0
CIRCLE
  5
97
330
1F
100
AcDbEntity
  8
0
  6
Continuous
 62
     7
370
    15
100
AcDbCircle
 10
227.1819387164
 20
112.6393637691
 30
0.0
 40
3.620000000000013
  0
CIRCLE
  5
98
330
1F
100
AcDbEntity
  8
0
  6
Continuous
 62
     7
370
    15
100
AcDbCircle
 10
227.1819387164
 20
112.6393637691
 30
0.0
 40
4.000000000000004
  0
ARC
  5
99
330
1F
100
AcDbEntity
  8
0
  6
Continuous
 62
     7
370
    15
100
AcDbCircle
 10
227.1819387164
 20
112.6393637691
 30
0.0
 40
2.00000000000001
100
AcDbArc
 50
21.6883821733
 51
81.6883821733
  0
ARC
  5
9A
330
1F
100
AcDbEntity
  8
0
  6
Continuous
 62
     7
370
    15
100
AcDbCircle
 10
227.1819387164
 20
112.6393637691
 30
0.0
 40
2.00000000000002
100
AcDbArc
 50
141.6883821733
 51
201.6883821733
  0
ARC
  5
9B
330
1F
100
AcDbEntity
  8
0
  6
Continuous
 62
     7
370
    15
100
AcDbCircle
 10
227.1819387164
 20
112.6393637691
 30
0.0
 40
2.000000000000007
100
AcDbArc
 50
81.6883821733
 51
141.6883821733
  0
ARC
  5
9C
330
1F
100
AcDbEntity
  8
0
  6
Continuous
 62
     7
370
    15
100
AcDbCircle
 10
227.1819387164
 20
112.6393637691
 30
0.0
 40
2.000000000000011
100
AcDbArc
 50
321.6883821733
 51
21.6883821733
  0
ARC
  5
9D
330
1F
100
AcDbEntity
  8
0
  6
Continuous
 62
     7
370
    15
100
AcDbCircle
 10
227.1819387164
 20
112.6393637691
 30
0.0
 40
2.000000000000026
100
AcDbArc
 50
201.6883821733
 51
261.6883821733
  0
ARC
  5
9E
330
1F
100
AcDbEntity
  8
0
  6
Continuous
 62
     7
370
    15
100
AcDbCircle
 10
227.1819387164
 20
112.6393637691
 30
0.0
 40
2.000000000000026
100
AcDbArc
 50
261.6883821733
 51
321.6883821733
  0
SPLINE
  5
9F
330
1F
100
AcDbEntity
  8
0
  6
Continuous
 62
     7
370
    15
100
AcDbSpline
210
0.0
220
0.0
230
1.0
 70
     8
 71
     3
 72
    12
 73
     8
 74
     0
 42
0.000000001
 43
0.00000001
 40
0.0
 40
0.0
 40
0.0
 40
0.0
 40
0.5000000000000001
 40
0.5000000000000001
 40
0.75
 40
0.75
 40
1.0
 40
1.0
 40
1.0
 40
1.0
 10
198.3162183812115
 20
160.8454107208403
 30
0.0
 10
197.777321686114
 20
159.7877109033392
 30
0.0
 10
197.2149908753943
 20
158.6853424683806
 30
0.0
 10
196.3463246328039
 20
156.9853778620178
 30
0.0
 10
196.0519959104614
 20
156.4098594465792
 30
0.0
 10
195.4584649114936
 20
155.2504307781207
 30
0.0
 10
195.1592386533752
 20
154.6664711090393
 30
0.0
 10
194.8577518051218
 20
154.0787611484506
 30
0.0
  0
SPLINE
  5
A0
330
1F
100
AcDbEntity
  8
0
  6
Continuous
 62
     7
370
    15
100
AcDbSpline
210
0.0
220
0.0
230
1.0
 70
     8
 71
     3
 72
     9
 73
     5
 74
     0
 42
0.000000001
 43
0.00000001
 40
0.0
 40
0.0
 40
0.0
 40
0.0
 40
0.504794330390352
 40
1.0
 40
1.0
 40
1.0
 40
1.0
 10
198.9569151217802
 20
161.7994690192267
 30
0.0
 10
198.8485326872795
 20
161.6386274579374
 30
0.0
 10
198.6338265624764
 20
161.3199995502807
 30
0.0
 10
198.4213991336649
 20
161.0026253236929
 30
0.0
 10
198.3162038665368
 20
160.8454598072987
 30
0.0
  0
LINE
  5
A1
330
1F
100
AcDbEntity
  8
0
  6
Continuous
 62
     7
370
    15
100
AcDbLine
 10
198.9569387164
 20
63.4792024838
 30
0.0
 11
198.9569387164
 21
161.7995250545
 31
0.0
  0
SPLINE
  5
A2
330
1F
100
AcDbEntity
  8
0
  6
Continuous
 62
     7
370
    15
100
AcDbSpline
210
0.0
220
0.0
230
1.0
 70
     8
 71
     3
 72
     9
 73
     5
 74
     0
 42
0.000000001
 43
0.00000001
 40
0.0
 40
0.0
 40
0.0
 40
0.0
 40
0.4952056715554214
 40
1.0
 40
1.0
 40
1.0
 40
1.0
 10
198.3162038665368
 20
64.43326773097988
 30
0.0
 10
198.4213991340817
 20
64.27610221396155
 30
0.0
 10
198.6338265629003
 20
63.95872798736055
 30
0.0
 10
198.8485326876993
 20
63.64010007971532
 30
0.0
 10
198.9569151217802
 20
63.47925851905185
 30
0.0
  0
SPLINE
  5
A3
330
1F
100
AcDbEntity
  8
0
  6
Continuous
 62
     7
370
    15
100
AcDbSpline
210
0.0
220
0.0
230
1.0
 70
     8
 71
     3
 72
    12
 73
     8
 74
     0
 42
0.000000001
 43
0.00000001
 40
0.0
 40
0.0
 40
0.0
 40
0.0
 40
0.2499999999999993
 40
0.2499999999999993
 40
0.4999999999999986
 40
0.4999999999999986
 40
1.0
 40
1.0
 40
1.0
 40
1.0
 10
198.3162183489727
 20
64.43331688071405
 30
0.0
 10
198.0468808276038
 20
64.96194926939869
 30
0.0
 10
197.7711107102097
 20
65.50287392334539
 30
0.0
 10
197.208850423604
 20
66.60493067770845
 30
0.0
 10
196.9217650501993
 20
67.16722751694527
 30
0.0
 10
196.05133860948
 20
68.87062275226528
 30
0.0
 10
195.4593286133107
 20
70.02726952334737
 30
0.0
 10
194.8577518051218
 20
71.199966389828
 30
0.0
  0
SPLINE
  5
A4
330
1F
100
AcDbEntity
  8
0
  6
Continuous
 62
     7
370
    15
100
AcDbSpline
210
0.0
220
0.0
230
1.0
 70
     8
 71
     3
 72
    12
 73
     8
 74
     0
 42
0.000000001
 43
0.00000001
 40
0.0
 40
0.0
 40
0.0
 40
0.0
 40
0.000512515335492
 40
0.2509311781568301
 40
0.5009716914398246
 40
0.7506335204405247
 40
1.0
 40
1.0
 40
1.0
 40
1.0
 10
202.231504535438
 20
162.6392387269557
 30
0.0
 10
202.2316489921249
 20
162.639280400273
 30
0.0
 10
202.3023760204189
 20
162.6596839548619
 30
0.0
 10
202.0591124601624
 20
162.5880723234732
 30
0.0
 10
201.4535878459305
 20
162.4197191150024
 30
0.0
 10
200.4284241615073
 20
162.1423855245456
 30
0.0
 10
199.4472402942855
 20
161.9137667752217
 30
0.0
 10
198.9569387170552
 20
161.7995250544571
 30
0.0
  0
SPLINE
  5
A5
330
1F
100
AcDbEntity
  8
0
  6
Continuous
 62
     7
370
    15
100
AcDbSpline
210
0.0
220
0.0
230
1.0
 70
     8
 71
     3
 72
    13
 73
     9
 74
     0
 42
0.000000001
 43
0.00000001
 40
0.0
 40
0.0
 40
0.0
 40
0.0
 40
0.249249238042121
 40
0.4988437701386194
 40
0.6658825660857411
 40
0.8320256711231946
 40
0.9994886337290221
 40
0.9999999999999999
 40
0.9999999999999999
 40
0.9999999999999999
 40
0.9999999999999999
 10
198.9569387170552
 20
63.47920248382147
 30
0.0
 10
199.4481234404748
 20
63.36471496013149
 30
0.0
 10
200.4311733434148
 20
63.135581309012
 30
0.0
 10
201.3302167682249
 20
62.89237155786181
 30
0.0
 10
201.8885416689104
 20
62.73843435047644
 30
0.0
 10
202.1542128936196
 20
62.66218079162616
 30
0.0
 10
202.2631071396355
 20
62.63026660730364
 30
0.0
 10
202.2317469598171
 20
62.63941952124654
 30
0.0
 10
202.2316514896442
 20
62.63944738557262
 30
0.0
  0
LINE
  5
A6
330
1F
100
AcDbEntity
  8
0
  6
Continuous
 62
     7
370
    15
100
AcDbLine
 10
206.2319387164
 20
63.6393637691
 30
0.0
 11
206.2319387164
 21
161.639363764
 31
0.0
  0
LINE
  5
A7
330
1F
100
AcDbEntity
  8
0
  6
Continuous
 62
     7
370
    15
100
AcDbLine
 10
171.2319387164
 20
65.6374755092
 30
0.0
 11
171.2319387164
 21
159.6412520291
 31
0.0
  0
SPLINE
  5
A8
330
1F
100
AcDbEntity
  8
0
  6
Continuous
 62
     7
370
    15
100
AcDbSpline
210
0.0
220
0.0
230
1.0
 70
     8
 71
     3
 72
    12
 73
     8
 74
     0
 42
0.000000001
 43
0.00000001
 40
0.0
 40
0.0
 40
0.0
 40
0.0
 40
0.2500000000000004
 40
0.2500000000000004
 40
0.5000000000000009
 40
0.5000000000000009
 40
1.0
 40
1.0
 40
1.0
 40
1.0
 10
171.6180751364179
 20
160.5737975030106
 30
0.0
 10
171.5664450143081
 20
160.5175932322959
 30
0.0
 10
171.5179127813176
 20
160.4563038217755
 30
0.0
 10
171.4280876443598
 20
160.3218417477308
 30
0.0
 10
171.3863773711473
 20
160.247722677488
 30
0.0
 10
171.2802459909852
 20
160.0114150323195
 30
0.0
 10
171.2319387163681
 20
159.8295914896696
 30
0.0
 10
171.2319387163681
 20
159.6412520290805
 30
0.0
  0
SPLINE
  5
A9
330
1F
100
AcDbEntity
  8
0
  6
Continuous
 62
     7
370
    15
100
AcDbSpline
210
0.0
220
0.0
230
1.0
 70
     8
 71
     3
 72
     8
 73
     4
 74
     0
 42
0.000000001
 43
0.00000001
 40
0.0
 40
0.0
 40
0.0
 40
0.0
 40
1.0
 40
1.0
 40
1.0
 40
1.0
 10
172.2319387163681
 20
160.7444552646037
 30
0.0
 10
172.0050444726683
 20
160.7444552646037
 30
0.0
 10
171.787194826742
 20
160.6804430976348
 30
0.0
 10
171.6180751364179
 20
160.5737975030106
 30
0.0
  0
SPLINE
  5
AA
330
1F
100
AcDbEntity
  8
0
  6
Continuous
 62
     7
370
    15
100
AcDbSpline
210
0.0
220
0.0
230
1.0
 70
     8
 71
     3
 72
    10
 73
     6
 74
     0
 42
0.000000001
 43
0.00000001
 40
0.0
 40
0.0
 40
0.0
 40
0.0
 40
0.5
 40
0.5
 40
1.0
 40
1.0
 40
1.0
 40
1.0
 10
171.6180751364179
 20
64.70493003526803
 30
0.0
 10
171.7026857771486
 20
64.65157520665535
 30
0.0
 10
171.7979203992552
 20
64.60900574470514
 30
0.0
 10
172.0079577584351
 20
64.54972341002419
 30
0.0
 10
172.1183896632191
 20
64.53427227367492
 30
0.0
 10
172.2319387163681
 20
64.53427227367492
 30
0.0
  0
SPLINE
  5
AB
330
1F
100
AcDbEntity
  8
0
  6
Continuous
 62
     7
370
    15
100
AcDbSpline
210
0.0
220
0.0
230
1.0
 70
     8
 71
     3
 72
    12
 73
     8
 74
     0
 42
0.000000001
 43
0.00000001
 40
0.0
 40
0.0
 40
0.0
 40
0.0
 40
0.2500000000000039
 40
0.2500000000000039
 40
0.5000000000000079
 40
0.5000000000000079
 40
1.0
 40
1.0
 40
1.0
 40
1.0
 10
171.6180751364179
 20
64.70493003526803
 30
0.0
 10
171.5664450143081
 20
64.76113430598267
 30
0.0
 10
171.5179127813176
 20
64.82242371650307
 30
0.0
 10
171.4280876443598
 20
64.95688579054779
 30
0.0
 10
171.3863773711473
 20
65.0310048607906
 30
0.0
 10
171.2802459909852
 20
65.26731250595905
 30
0.0
 10
171.2319387163681
 20
65.44913604860895
 30
0.0
 10
171.2319387163681
 20
65.63747550919807
 30
0.0
  0
LINE
  5
AC
330
1F
100
AcDbEntity
  8
0
  6
Continuous
 62
     7
370
    15
100
AcDbLine
 10
183.9069387164
 20
160.7444552646
 30
0.0
 11
172.2319387164
 21
160.7444552646
 31
0.0
  0
LINE
  5
AD
330
1F
100
AcDbEntity
  8
0
  6
Continuous
 62
     7
370
    15
100
AcDbLine
 10
183.9069387164
 20
64.5342722737
 30
0.0
 11
183.9069387164
 21
160.7444552646
 31
0.0
  0
LINE
  5
AE
330
1F
100
AcDbEntity
  8
0
  6
Continuous
 62
     7
370
    15
100
AcDbLine
 10
172.2319387164
 20
64.5342722737
 30
0.0
 11
183.9069387164
 21
64.5342722737
 31
0.0
  0
SPLINE
  5
AF
330
1F
100
AcDbEntity
  8
0
  6
Continuous
 62
     7
370
    15
100
AcDbSpline
210
0.0
220
0.0
230
1.0
 70
     8
 71
     3
 72
     8
 73
     4
 74
     0
 42
0.000000001
 43
0.00000001
 40
0.0
 40
0.0
 40
0.0
 40
0.0
 40
0.0012417047560384
 40
0.0012417047560384
 40
0.0012417047560384
 40
0.0012417047560384
 10
184.4645077528958
 20
159.9599339230603
 30
0.0
 10
184.2791192016014
 20
160.2216070086088
 30
0.0
 10
184.0932529559935
 20
160.4831111174864
 30
0.0
 10
183.9069387163681
 20
160.7444552646037
 30
0.0
  0
SPLINE
  5
B0
330
1F
100
AcDbEntity
  8
0
  6
Continuous
 62
     7
370
    15
100
AcDbSpline
210
0.0
220
0.0
230
1.0
 70
     8
 71
     3
 72
     8
 73
     4
 74
     0
 42
0.000000001
 43
0.00000001
 40
0.0
 40
0.0
 40
0.0
 40
0.0
 40
1.0
 40
1.0
 40
1.0
 40
1.0
 10
188.0061256276144
 20
153.5696398493223
 30
0.0
 10
186.8311381517116
 20
155.7027166042582
 30
0.0
 10
185.6498916176152
 20
157.8324351701343
 30
0.0
 10
184.4645077528958
 20
159.9599339230603
 30
0.0
  0
SPLINE
  5
B1
330
1F
100
AcDbEntity
  8
0
  6
Continuous
 62
     7
370
    15
100
AcDbSpline
210
0.0
220
0.0
230
1.0
 70
     8
 71
     3
 72
     8
 73
     4
 74
     0
 42
0.000000001
 43
0.00000001
 40
0.0
 40
0.0
 40
0.0
 40
0.0
 40
1.0
 40
1.0
 40
1.0
 40
1.0
 10
188.0061256276144
 20
71.70908768895629
 30
0.0
 10
186.8310888297875
 20
69.57592139481095
 30
0.0
 10
185.6498416223485
 20
67.44620263782927
 30
0.0
 10
184.4645077528959
 20
65.31879361521831
 30
0.0
  0
SPLINE
  5
B2
330
1F
100
AcDbEntity
  8
0
  6
Continuous
 62
     7
370
    15
100
AcDbSpline
210
0.0
220
0.0
230
1.0
 70
     8
 71
     3
 72
     8
 73
     4
 74
     0
 42
0.000000001
 43
0.00000001
 40
0.0
 40
0.0
 40
0.0
 40
0.0
 40
0.0012417047560385
 40
0.0012417047560385
 40
0.0012417047560385
 40
0.0012417047560385
 10
183.9069387163681
 20
64.53427227367492
 30
0.0
 10
184.0932529559935
 20
64.79561642079216
 30
0.0
 10
184.2791192016014
 20
65.05712052966975
 30
0.0
 10
184.4645077528959
 20
65.31879361521831
 30
0.0
  0
SPLINE
  5
B3
330
1F
100
AcDbEntity
  8
0
  6
Continuous
 62
     7
370
    15
100
AcDbSpline
210
0.0
220
0.0
230
1.0
 70
     8
 71
     3
 72
    10
 73
     6
 74
     0
 42
0.000000001
 43
0.00000001
 40
0.0
 40
0.0
 40
0.0
 40
0.0
 40
0.5
 40
0.5
 40
1.0
 40
1.0
 40
1.0
 40
1.0
 10
188.3819387163681
 20
72.0598325549901
 30
0.0
 10
188.3029386481169
 20
72.02406832038221
 30
0.0
 10
188.2291813978402
 20
71.97457871682278
 30
0.0
 10
188.101126274707
 20
71.8542902253198
 30
0.0
 10
188.0482762402954
 20
71.78560807233048
 30
0.0
 10
188.0061256276145
 20
71.70908768895629
 30
0.0
  0
SPLINE
  5
B4
330
1F
100
AcDbEntity
  8
0
  6
Continuous
 62
     7
370
    15
100
AcDbSpline
210
0.0
220
0.0
230
1.0
 70
     8
 71
     3
 72
    10
 73
     6
 74
     0
 42
0.000000001
 43
0.00000001
 40
0.0
 40
0.0
 40
0.0
 40
0.0
 40
0.5
 40
0.5
 40
1.0
 40
1.0
 40
1.0
 40
1.0
 10
188.3819387163681
 20
153.2188949832884
 30
0.0
 10
188.3026522686854
 20
153.2547888651409
 30
0.0
 10
188.2291400495648
 20
153.3042905749919
 30
0.0
 10
188.1021875966941
 20
153.4233382716605
 30
0.0
 10
188.0481217479575
 20
153.4933999319288
 30
0.0
 10
188.0061256276144
 20
153.5696398493223
 30
0.0
  0
SPLINE
  5
B5
330
1F
100
AcDbEntity
  8
0
  6
Continuous
 62
     7
370
    15
100
AcDbSpline
210
0.0
220
0.0
230
1.0
 70
     8
 71
     3
 72
     8
 73
     4
 74
     0
 42
0.000000001
 43
0.00000001
 40
0.0
 40
0.0
 40
0.0
 40
0.0
 40
1.0
 40
1.0
 40
1.0
 40
1.0
 10
188.698945950642
 20
153.1514359648019
 30
0.0
 10
188.5892441653403
 20
153.1505775476026
 30
0.0
 10
188.4818971443558
 20
153.1736426594774
 30
0.0
 10
188.3819387163681
 20
153.2188949832883
 30
0.0
  0
SPLINE
  5
B6
330
1F
100
AcDbEntity
  8
0
  6
Continuous
 62
     7
370
    15
100
AcDbSpline
210
0.0
220
0.0
230
1.0
 70
     8
 71
     3
 72
     8
 73
     4
 74
     0
 42
0.000000001
 43
0.00000001
 40
0.0
 40
0.0
 40
0.0
 40
0.0
 40
1.0
 40
1.0
 40
1.0
 40
1.0
 10
188.698945950642
 20
72.12729157347664
 30
0.0
 10
188.5892441653403
 20
72.12814999067596
 30
0.0
 10
188.4818971443558
 20
72.10508487880118
 30
0.0
 10
188.381938716368
 20
72.05983255499027
 30
0.0
  0
SPLINE
  5
B7
330
1F
100
AcDbEntity
  8
0
  6
Continuous
 62
     7
370
    15
100
AcDbSpline
210
0.0
220
0.0
230
1.0
 70
     8
 71
     3
 72
    12
 73
     8
 74
     0
 42
0.000000001
 43
0.00000001
 40
0.0
 40
0.0
 40
0.0
 40
0.0
 40
0.2499999999999951
 40
0.2499999999999951
 40
0.4999999999999902
 40
0.4999999999999902
 40
1.0
 40
1.0
 40
1.0
 40
1.0
 10
194.8577518051218
 20
154.0787611484506
 30
0.0
 10
194.8215313837349
 20
154.0081540803508
 30
0.0
 10
194.778605709087
 20
153.9444194890251
 30
0.0
 10
194.6810791258281
 20
153.8286453127766
 30
0.0
 10
194.6256476062113
 20
153.7760974687651
 30
0.0
 10
194.4471597033072
 20
153.6419488655508
 30
0.0
 10
194.3103228746593
 20
153.5814267634869
 30
0.0
 10
194.1649314820949
 20
153.5608801795585
 30
0.0
  0
SPLINE
  5
B8
330
1F
100
AcDbEntity
  8
0
  6
Continuous
 62
     7
370
    15
100
AcDbSpline
210
0.0
220
0.0
230
1.0
 70
     8
 71
     3
 72
    12
 73
     8
 74
     0
 42
0.000000001
 43
0.00000001
 40
0.0
 40
0.0
 40
0.0
 40
0.0
 40
0.2499999999999957
 40
0.2499999999999957
 40
0.4999999999999913
 40
0.4999999999999913
 40
1.0
 40
1.0
 40
1.0
 40
1.0
 10
194.8577518051218
 20
71.19996638982798
 30
0.0
 10
194.8215313837348
 20
71.27057345792791
 30
0.0
 10
194.7786057090869
 20
71.33430804925364
 30
0.0
 10
194.6810791258279
 20
71.45008222550204
 30
0.0
 10
194.6256476062113
 20
71.50263006951347
 30
0.0
 10
194.4471597033071
 20
71.63677867272786
 30
0.0
 10
194.3103228746593
 20
71.69730077479164
 30
0.0
 10
194.1649314820949
 20
71.71784735872005
 30
0.0
  0
SPLINE
  5
B9
330
1F
100
AcDbEntity
  8
0
  6
Continuous
 62
     7
370
    15
100
AcDbSpline
210
0.0
220
0.0
230
1.0
 70
    11
 71
     3
 72
    66
 73
    62
 74
     0
 42
0.000000001
 43
0.00000001
 40
0.0
 40
0.0
 40
0.0
 40
0.0
 40
0.0312500000000001
 40
0.0312500000000001
 40
0.0625000000000003
 40
0.0625000000000003
 40
0.0937500000000004
 40
0.0937500000000004
 40
0.1250000000000006
 40
0.1250000000000006
 40
0.1562500000000007
 40
0.1562500000000007
 40
0.1875000000000009
 40
0.1875000000000009
 40
0.218750000000001
 40
0.218750000000001
 40
0.2500000000000012
 40
0.2500000000000012
 40
0.2812500000000013
 40
0.2812500000000013
 40
0.3125000000000014
 40
0.3125000000000014
 40
0.3437500000000016
 40
0.3437500000000016
 40
0.3750000000000018
 40
0.3750000000000018
 40
0.4062500000000019
 40
0.4062500000000019
 40
0.4375000000000021
 40
0.4375000000000021
 40
0.4687500000000022
 40
0.4687500000000022
 40
0.5000000000000023
 40
0.5000000000000023
 40
0.5312500000000024
 40
0.5312500000000024
 40
0.5625000000000027
 40
0.5625000000000027
 40
0.6250000000000022
 40
0.6250000000000022
 40
0.6562500000000021
 40
0.6562500000000021
 40
0.6875000000000019
 40
0.6875000000000019
 40
0.7187500000000017
 40
0.7187500000000017
 40
0.7500000000000014
 40
0.7500000000000014
 40
0.7812500000000013
 40
0.7812500000000013
 40
0.8125000000000011
 40
0.8125000000000011
 40
0.8437500000000009
 40
0.8437500000000009
 40
0.8750000000000008
 40
0.8750000000000008
 40
0.9062500000000006
 40
0.9062500000000006
 40
0.9375000000000003
 40
0.9375000000000003
 40
1.0
 40
1.0
 40
1.0
 40
1.0
 10
191.4319387163681
 20
95.779446458296
 30
0.0
 10
191.597139007032
 20
95.77944645829598
 30
0.0
 10
191.7595715483286
 20
95.79435248765378
 30
0.0
 10
192.0791297039185
 20
95.85278766639622
 30
0.0
 10
192.2379130418956
 20
95.89702871877195
 30
0.0
 10
192.540651058375
 20
96.01262026419444
 30
0.0
 10
192.6842302235093
 20
96.08339623441314
 30
0.0
 10
192.9559599533773
 20
96.25083476632574
 30
0.0
 10
193.0845885169151
 20
96.34837403864641
 30
0.0
 10
193.3151542785823
 20
96.56179239884786
 30
0.0
 10
193.4186282798316
 20
96.67840705087397
 30
0.0
 10
193.6013888177574
 20
96.93213241489369
 30
0.0
 10
193.679033073986
 20
97.06742527396243
 30
0.0
 10
193.8037257246761
 20
97.34777162935403
 30
0.0
 10
193.8517297052545
 20
97.49489250519007
 30
0.0
 10
193.9159614475728
 20
97.79688260956738
 30
0.0
 10
193.931850891615
 20
97.94900637713658
 30
0.0
 10
193.9320258219702
 20
98.25548901996281
 30
0.0
 10
193.9157951706352
 20
98.41147494102849
 30
0.0
 10
193.8520139479257
 20
98.71405440999783
 30
0.0
 10
193.8048218365294
 20
98.86143292139002
 30
0.0
 10
193.6796552188714
 20
99.14822162676774
 30
0.0
 10
193.6013957314964
 20
99.28717872830565
 30
0.0
 10
193.4204755481411
 20
99.54477238857363
 30
0.0
 10
193.3171903192172
 20
99.66506493227465
 30
0.0
 10
193.0839385771685
 20
99.8877857499213
 30
0.0
 10
192.9575247089029
 20
99.98676365391317
 30
0.0
 10
192.6868524382083
 20
100.1599805085223
 30
0.0
 10
192.540770666044
 20
100.2349615459991
 30
0.0
 10
192.2378862205711
 20
100.3552897160948
 30
0.0
 10
192.0820558609314
 20
100.400673403584
 30
0.0
 10
191.7617103716659
 20
100.462099664005
 30
0.0
 10
191.5960002856943
 20
100.4778532855248
 30
0.0
 10
191.2696688969978
 20
100.4779655307802
 30
0.0
 10
191.1074818111709
 20
100.4628333008742
 30
0.0
 10
190.7851062299623
 20
100.4015811876938
 30
0.0
 10
190.6270907559248
 20
100.3555744443185
 30
0.0
 10
190.1756798808492
 20
100.1766937150766
 30
0.0
 10
189.8966004237971
 20
99.99854160777765
 30
0.0
 10
189.5505267192987
 20
99.66904519149061
 30
0.0
 10
189.444884703384
 20
99.5466723516506
 30
0.0
 10
189.2631012274132
 20
99.28826964753603
 30
0.0
 10
189.1862134040293
 20
99.15203808198774
 30
0.0
 10
189.0605588466589
 20
98.86560262010161
 30
0.0
 10
189.0122507707443
 20
98.71529553552612
 30
0.0
 10
188.9484328853039
 20
98.4137276054416
 30
0.0
 10
188.9321047082611
 20
98.26086154297705
 30
0.0
 10
188.9317752182014
 20
97.95084642623361
 30
0.0
 10
188.9478717300361
 20
97.79797742588096
 30
0.0
 10
189.0111004672973
 20
97.4989446601061
 30
0.0
 10
189.0589370607078
 20
97.35087906368322
 30
0.0
 10
189.1842803786212
 20
97.06832202553775
 30
0.0
 10
189.2609770531464
 20
96.93470569341403
 30
0.0
 10
189.4420284197982
 20
96.68241582348186
 30
0.0
 10
189.5475040301591
 20
96.563072514414
 30
0.0
 10
189.7780305988354
 20
96.34938873492918
 30
0.0
 10
189.9037500364657
 20
96.25372876026938
 30
0.0
 10
190.1765168856625
 20
96.08500769126559
 30
0.0
 10
190.3222362620685
 20
96.01314048261233
 30
0.0
 10
190.7733053671766
 20
95.8404894053439
 30
0.0
 10
191.1015381350403
 20
95.77944645829598
 30
0.0
 10
191.4319387163681
 20
95.77944645829598
 30
0.0
  0
SPLINE
  5
BA
330
1F
100
AcDbEntity
  8
0
  6
Continuous
 62
     7
370
    15
100
AcDbSpline
210
0.0
220
0.0
230
1.0
 70
     8
 71
     3
 72
    10
 73
     6
 74
     0
 42
0.000000001
 43
0.00000001
 40
0.0
 40
0.0
 40
0.0
 40
0.0
 40
0.5
 40
0.5
 40
1.0
 40
1.0
 40
1.0
 40
1.0
 10
194.1649314820942
 20
153.5608801795613
 30
0.0
 10
193.317367115326
 20
153.4411031275003
 30
0.0
 10
192.4366536796041
 20
153.3424129478365
 30
0.0
 10
190.6090974283885
 20
153.2011405415993
 30
0.0
 10
189.6556650252872
 20
153.1589222979217
 30
0.0
 10
188.698945950642
 20
153.1514359648019
 30
0.0
  0
SPLINE
  5
BB
330
1F
100
AcDbEntity
  8
0
  6
Continuous
 62
     7
370
    15
100
AcDbSpline
210
0.0
220
0.0
230
1.0
 70
     8
 71
     3
 72
    10
 73
     6
 74
     0
 42
0.000000001
 43
0.00000001
 40
0.0
 40
0.0
 40
0.0
 40
0.0
 40
0.5
 40
0.5
 40
1.0
 40
1.0
 40
1.0
 40
1.0
 10
194.1649314820942
 20
71.71784735871724
 30
0.0
 10
193.317367115326
 20
71.83762441077829
 30
0.0
 10
192.4366536796041
 20
71.93631459044211
 30
0.0
 10
190.6090974283885
 20
72.07758699667924
 30
0.0
 10
189.6556650252872
 20
72.11980524035684
 30
0.0
 10
188.698945950642
 20
72.12729157347664
 30
0.0
  0
LINE
  5
BC
330
1F
100
AcDbEntity
  8
0
  6
Continuous
 62
     7
370
    15
100
AcDbLine
 10
168.2319387164
 20
77.7143637691
 30
0.0
 11
168.2319387164
 21
147.5643637691
 31
0.0
  0
LINE
  5
BD
330
1F
100
AcDbEntity
  8
0
  6
Continuous
 62
     7
370
    15
100
AcDbLine
 10
66.4319387164
 20
94.2896859084
 30
0.0
 11
66.4319387164
 21
130.9890415726
 31
0.0
  0
LINE
  5
BE
330
1F
100
AcDbEntity
  8
0
  6
Continuous
 62
     7
370
    15
100
AcDbLine
 10
237.2319387164
 20
112.6393637691
 30
0.0
 11
237.2319387164
 21
93.5393637691
 31
0.0
  0
LINE
  5
BF
330
1F
100
AcDbEntity
  8
0
  6
Continuous
 62
     7
370
    15
100
AcDbLine
 10
237.2319387164
 20
131.7393637691
 30
0.0
 11
237.2319387164
 21
112.6393637691
 31
0.0
  0
LINE
  5
C0
330
1F
100
AcDbEntity
  8
0
  6
Continuous
 62
     7
370
    15
100
AcDbLine
 10
236.8319387164
 20
112.6393637691
 30
0.0
 11
236.8319387164
 21
93.1393637691
 31
0.0
  0
LINE
  5
C1
330
1F
100
AcDbEntity
  8
0
  6
Continuous
 62
     7
370
    15
100
AcDbLine
 10
236.8319387164
 20
132.1393637691
 30
0.0
 11
236.8319387164
 21
112.6393637691
 31
0.0
  0
SPLINE
  5
C2
330
1F
100
AcDbEntity
  8
0
  6
Continuous
 62
     7
370
    15
100
AcDbSpline
210
0.0
220
0.0
230
1.0
 70
    11
 71
     3
 72
    77
 73
    73
 74
     0
 42
0.000000001
 43
0.00000001
 40
0.0
 40
0.0
 40
0.0
 40
0.0
 40
0.0312499999999998
 40
0.0312499999999998
 40
0.0624999999999996
 40
0.0624999999999996
 40
0.0937499999999994
 40
0.0937499999999994
 40
0.1249999999999992
 40
0.1249999999999992
 40
0.156249999999999
 40
0.156249999999999
 40
0.1874999999999988
 40
0.1874999999999988
 40
0.2187499999999987
 40
0.2187499999999987
 40
0.2499999999999984
 40
0.2499999999999984
 40
0.2812499999999982
 40
0.2812499999999982
 40
0.312499999999998
 40
0.312499999999998
 40
0.3437499999999978
 40
0.3437499999999978
 40
0.3593749999999977
 40
0.3593749999999977
 40
0.3749999999999976
 40
0.3906249999999975
 40
0.3906249999999975
 40
0.4062499999999974
 40
0.4062499999999974
 40
0.4374999999999972
 40
0.4374999999999972
 40
0.4687499999999969
 40
0.4687499999999969
 40
0.4999999999999967
 40
0.4999999999999967
 40
0.5312499999999964
 40
0.5312499999999964
 40
0.5624999999999962
 40
0.5624999999999962
 40
0.593749999999996
 40
0.593749999999996
 40
0.6249999999999958
 40
0.6249999999999958
 40
0.6562499999999956
 40
0.6562499999999956
 40
0.6874999999999953
 40
0.6874999999999953
 40
0.7187499999999951
 40
0.7187499999999951
 40
0.7499999999999949
 40
0.7499999999999949
 40
0.7656249999999951
 40
0.7656249999999951
 40
0.7812499999999952
 40
0.7812499999999952
 40
0.8124999999999959
 40
0.8124999999999959
 40
0.8437499999999966
 40
0.8437499999999966
 40
0.8749999999999972
 40
0.8749999999999972
 40
0.8906249999999976
 40
0.8906249999999976
 40
0.9062499999999979
 40
0.9062499999999979
 40
0.9374999999999986
 40
0.9374999999999986
 40
0.9687499999999992
 40
0.9687499999999992
 40
1.0
 40
1.0
 40
1.0
 40
1.0
 10
223.8315386608379
 20
115.9577229870147
 30
0.0
 10
224.0738853095768
 20
116.1541947065115
 30
0.0
 10
224.3310064643755
 20
116.3246159835727
 30
0.0
 10
224.8724155727807
 20
116.6182202644407
 30
0.0
 10
225.1587361022031
 20
116.7419950795518
 30
0.0
 10
225.7502582359537
 20
116.9383910094352
 30
0.0
 10
226.0512629492033
 20
117.0100271611689
 30
0.0
 10
226.6633880327197
 20
117.1024453495131
 30
0.0
 10
226.9774942290387
 20
117.1230447725365
 30
0.0
 10
227.6000194420593
 20
117.1110295297701
 30
0.0
 10
227.9075780086565
 20
117.0790451045258
 30
0.0
 10
228.5153794833752
 20
116.9635922074174
 30
0.0
 10
228.8185565699067
 20
116.8788480342021
 30
0.0
 10
229.3987338696457
 20
116.6604372985043
 30
0.0
 10
229.6762363730236
 20
116.5273717457435
 30
0.0
 10
230.2056855345893
 20
116.212195202712
 30
0.0
 10
230.4600975050661
 20
116.0275841103485
 30
0.0
 10
230.9222814308819
 20
115.618835847889
 30
0.0
 10
231.131586852963
 20
115.3946166806644
 30
0.0
 10
231.5040780319288
 20
114.9036135668618
 30
0.0
 10
231.6681262346284
 20
114.6335507010285
 30
0.0
 10
231.9286353036317
 20
114.0739314524027
 30
0.0
 10
232.0276731667903
 20
113.7820639487016
 30
0.0
 10
232.1256616228281
 20
113.324602770181
 30
0.0
 10
232.1497168837971
 20
113.1683774930349
 30
0.0
 10
232.1789541328175
 20
112.8583318865744
 30
0.0
 10
232.1899181784373
 20
112.5484753530783
 30
0.0
 10
232.1648209469127
 20
112.2389920818714
 30
0.0
 10
232.1213576402886
 20
111.9296987578996
 30
0.0
 10
232.0902278019654
 20
111.774870857643
 30
0.0
 10
231.9719384867258
 20
111.3229454797752
 30
0.0
 10
231.8597654257725
 20
111.0340874168893
 30
0.0
 10
231.5715460722295
 20
110.4800201148712
 30
0.0
 10
231.3982242325253
 20
110.2208799060313
 30
0.0
 10
231.0044600661929
 20
109.7440962476439
 30
0.0
 10
230.780670378028
 20
109.523220317487
 30
0.0
 10
230.3006997162557
 20
109.132351807879
 30
0.0
 10
230.0439085442885
 20
108.9607838493035
 30
0.0
 10
229.4977611201216
 20
108.6632581290827
 30
0.0
 10
229.2102154684147
 20
108.5388974713757
 30
0.0
 10
228.6233860929033
 20
108.3431109969821
 30
0.0
 10
228.3218299730071
 20
108.2704083828459
 30
0.0
 10
227.7020433713933
 20
108.1762056025914
 30
0.0
 10
227.3914671505252
 20
108.1559696177976
 30
0.0
 10
226.7723851055395
 20
108.1671568240192
 30
0.0
 10
226.4625317247543
 20
108.1986401017675
 30
0.0
 10
225.8470259248007
 20
108.3152745307308
 30
0.0
 10
225.5488606366193
 20
108.3988663868955
 30
0.0
 10
224.9712019479995
 20
108.6156953458495
 30
0.0
 10
224.6902491445327
 20
108.7497729730445
 30
0.0
 10
224.154850956938
 20
109.0685514596093
 30
0.0
 10
223.9057551581216
 20
109.2497077795383
 30
0.0
 10
223.5602406161073
 20
109.5548113801315
 30
0.0
 10
223.4497903892338
 20
109.662113348883
 30
0.0
 10
223.2388210027445
 20
109.8885792882888
 30
0.0
 10
223.1377149034116
 20
110.0085750225659
 30
0.0
 10
222.8562171433506
 20
110.3802465022818
 30
0.0
 10
222.6966847752456
 20
110.6435329834927
 30
0.0
 10
222.4360706058231
 20
111.2026571765424
 30
0.0
 10
222.3343740903466
 20
111.5031814277634
 30
0.0
 10
222.2050582427776
 20
112.1109845875035
 30
0.0
 10
222.1757225378576
 20
112.4192912084012
 30
0.0
 10
222.1866703743763
 20
112.8886171095544
 30
0.0
 10
222.1997291686035
 20
113.0462360887007
 30
0.0
 10
222.2435974428109
 20
113.3549136956946
 30
0.0
 10
222.2743914212548
 20
113.5071135669342
 30
0.0
 10
222.3926099783606
 20
113.9574883223923
 30
0.0
 10
222.5076568791635
 20
114.2525358782627
 30
0.0
 10
222.7952183989681
 20
114.8031517505959
 30
0.0
 10
222.9674319465146
 20
115.0607261239735
 30
0.0
 10
223.366340828208
 20
115.5422737417367
 30
0.0
 10
223.5891920120989
 20
115.7612512675179
 30
0.0
 10
223.8315386608379
 20
115.9577229870147
 30
0.0
  0
LWPOLYLINE
  5
C3
330
1F
100
AcDbEntity
  8
0
  6
Continuous
 62
     7
370
    15
100
AcDbPolyline
 90
       21
 70
   128
 43
0.0
 10
188.9882244682
 20
98.1913120014
 10
189.0789539912
 20
97.4774063909
 10
189.4000100533
 20
96.8247879367
 10
189.9199654503
 20
96.2973394801
 10
190.587923325
 20
95.9466913511
 10
191.3384993069
 20
95.8071674315
 10
192.0982217892
 20
95.8924252947
 10
192.792723842
 20
96.1941193072
 10
193.3540227657
 20
96.6827175568
 10
193.7271747106
 20
97.3103926427
 10
193.8756529645
 20
98.0157033542
 10
193.7849234415
 20
98.7296089647
 10
193.4638673794
 20
99.3822274189
 10
192.9439119825
 20
99.9096758754
 10
192.2759541077
 20
100.2603240045
 10
191.5253781259
 20
100.3998479241
 10
190.7656556436
 20
100.3145900609
 10
190.0711535907
 20
100.0128960484
 10
189.5098546671
 20
99.5242977988
 10
189.1367027221
 20
98.8966227129
 10
188.9882244682
 20
98.1913120014
  0
LINE
  5
C4
330
1F
100
AcDbEntity
  8
0
  6
Continuous
 62
     7
370
    15
100
AcDbLine
 10
192.2400186609
 20
96.6639038568
 30
0.0
 11
193.1627247466
 21
98.0413193525
 31
0.0
  0
LINE
  5
C5
330
1F
100
AcDbEntity
  8
0
  6
Continuous
 62
     7
370
    15
100
AcDbLine
 10
192.3546448021
 20
99.4809231735
 30
0.0
 11
193.1627247466
 21
98.0413193525
 31
0.0
  0
LINE
  5
C6
330
1F
100
AcDbEntity
  8
0
  6
Continuous
 62
     7
370
    15
100
AcDbLine
 10
190.6238587719
 20
99.5431114988
 30
0.0
 11
192.3546448021
 21
99.4809231735
 31
0.0
  0
LINE
  5
C7
330
1F
100
AcDbEntity
  8
0
  6
Continuous
 62
     7
370
    15
100
AcDbLine
 10
190.6238587719
 20
99.5431114988
 30
0.0
 11
189.7011526861
 21
98.1656960031
 31
0.0
  0
LINE
  5
C8
330
1F
100
AcDbEntity
  8
0
  6
Continuous
 62
     7
370
    15
100
AcDbLine
 10
190.5092326306
 20
96.7260921821
 30
0.0
 11
189.7011526861
 21
98.1656960031
 31
0.0
  0
LINE
  5
C9
330
1F
100
AcDbEntity
  8
0
  6
Continuous
 62
     7
370
    15
100
AcDbLine
 10
190.5092326306
 20
96.7260921821
 30
0.0
 11
192.2400186609
 21
96.6639038568
 31
0.0
  0
LINE
  5
CA
330
1F
100
AcDbEntity
  8
0
  6
Continuous
 62
     7
370
    15
100
AcDbLine
 10
190.5092326306
 20
97.4101324688
 30
0.0
 11
189.9100638703
 21
98.4775585851
 31
0.0
  0
LINE
  5
CB
330
1F
100
AcDbEntity
  8
0
  6
Continuous
 62
     7
370
    15
100
AcDbLine
 10
190.5092326306
 20
97.4101324688
 30
0.0
 11
190.5092326306
 21
96.7260921821
 31
0.0
  0
LINE
  5
CC
330
1F
100
AcDbEntity
  8
0
  6
Continuous
 62
     7
370
    15
100
AcDbLine
 10
192.2400186609
 20
97.3479441434
 30
0.0
 11
192.2400186609
 21
96.6639038568
 31
0.0
  0
LINE
  5
CD
330
1F
100
AcDbEntity
  8
0
  6
Continuous
 62
     7
370
    15
100
AcDbLine
 10
192.2400186609
 20
97.3479441434
 30
0.0
 11
192.9538135625
 21
98.4134970572
 31
0.0
  0
LINE
  5
CE
330
1F
100
AcDbEntity
  8
0
  6
Continuous
 62
     7
370
    15
100
AcDbLine
 10
190.5092326306
 20
97.4101324688
 30
0.0
 11
192.2400186609
 21
97.3479441434
 31
0.0
  0
CIRCLE
  5
CF
330
1F
100
AcDbEntity
  8
0
  6
HIDDEN
 62
     7
370
     0
100
AcDbCircle
 10
227.1819387164
 20
112.6393637691
 30
0.0
 40
2.953589838486226
  0
CIRCLE
  5
D0
330
1F
100
AcDbEntity
  8
0
  6
HIDDEN
 62
     7
370
     0
100
AcDbCircle
 10
227.1819387164
 20
112.6393637691
 30
0.0
 40
2.753589838486223
  0
SPLINE
  5
D1
330
1F
100
AcDbEntity
  8
0
  6
HIDDEN
 62
     7
370
     0
100
AcDbSpline
210
0.0
220
0.0
230
1.0
 70
     8
 71
     3
 72
     9
 73
     5
 74
     0
 42
0.000000001
 43
0.00000001
 40
0.0
 40
0.0
 40
0.0
 40
0.0
 40
0.326715502844845
 40
1.0
 40
1.0
 40
1.0
 40
1.0
 10
200.8559061900998
 20
63.01560332873642
 30
0.0
 10
200.6991133119824
 20
63.0576855577563
 30
0.0
 10
200.2192068589608
 20
63.1864894518276
 30
0.0
 10
199.4649953180352
 20
63.36151609994711
 30
0.0
 10
198.9571963799545
 20
63.47935882871503
 30
0.0
  0
LWPOLYLINE
  5
D2
330
1F
100
AcDbEntity
  8
0
  6
HIDDEN
 62
     7
370
     0
100
AcDbPolyline
 90
       24
 70
   128
 43
0.0
 10
171.5013258282
 20
98.6102089666
 10
171.6760389552
 20
97.8127415546
 10
171.9438964221
 20
97.0744186525
 10
172.2850324659
 20
96.4499982922
 10
172.674146587
 20
95.9857908752
 10
173.0823799709
 20
95.7162245423
 10
173.4794558153
 20
95.6612917949
 10
173.8359248211
 20
95.8250667438
 10
174.125349313
 20
96.1954029502
 10
174.3262640005
 20
96.7448342718
 10
174.4237679602
 20
97.4326119009
 10
174.4106297696
 20
98.2077265173
 10
174.2878238281
 20
99.0126914158
 10
174.0644580907
 20
99.7878060322
 10
173.7570985722
 20
100.4755836613
 10
173.388540722
 20
101.0250149829
 10
172.9861187899
 20
101.3953511893
 10
172.5796785696
 20
101.5591261382
 10
172.1993638729
 20
101.5041933908
 10
171.8733809011
 20
101.2346270579
 10
171.6259063198
 20
100.7704196409
 10
171.4752941867
 20
100.1459992806
 10
171.4327147146
 20
99.4076763785
 10
171.5013258282
 20
98.6102089666
  0
LWPOLYLINE
  5
D3
330
1F
100
AcDbEntity
  8
0
  6
HIDDEN
 62
     7
370
     0
100
AcDbPolyline
 90
       20
 70
   128
 43
0.0
 10
172.2141964169
 20
98.6662272848
 10
172.3709505585
 20
97.9944028187
 10
172.6192383298
 20
97.3953809579
 10
172.9321538983
 20
96.9340750158
 10
173.2757880067
 20
96.6604746492
 10
173.6129025673
 20
96.6042287031
 10
173.9069659866
 20
96.7714322986
 10
174.1261119303
 20
97.1439663315
 10
174.246592535
 20
97.6814609591
 10
174.2553518576
 20
98.3256702983
 10
174.1514406897
 20
99.0067842713
 10
173.9461194187
 20
99.6509936105
 10
173.6616377902
 20
100.1884882381
 10
173.3288238027
 20
100.5610222711
 10
172.9837430161
 20
100.7282258665
 10
172.6637902879
 20
100.6719799204
 10
172.403637461
 20
100.3983795538
 10
172.2314761307
 20
99.9370736118
 10
172.1659626485
 20
99.338051751
 10
172.2141964169
 20
98.6662272848
  0
SPLINE
  5
D4
330
1F
100
AcDbEntity
  8
0
  6
HIDDEN
 62
     7
370
     0
100
AcDbSpline
210
0.0
220
0.0
230
1.0
 70
    11
 71
     3
 72
    66
 73
    62
 74
     0
 42
0.000000001
 43
0.00000001
 40
0.0
 40
0.0
 40
0.0
 40
0.0
 40
0.0312500000000006
 40
0.0312500000000006
 40
0.0625000000000011
 40
0.0625000000000011
 40
0.0937500000000017
 40
0.0937500000000017
 40
0.1250000000000022
 40
0.1250000000000022
 40
0.1562500000000028
 40
0.1562500000000028
 40
0.1875000000000033
 40
0.1875000000000033
 40
0.2187500000000039
 40
0.2187500000000039
 40
0.234375000000004
 40
0.234375000000004
 40
0.2500000000000042
 40
0.2500000000000042
 40
0.2812500000000039
 40
0.2812500000000039
 40
0.3125000000000036
 40
0.3125000000000036
 40
0.3750000000000031
 40
0.3750000000000031
 40
0.4375000000000025
 40
0.4375000000000025
 40
0.4687500000000021
 40
0.4687500000000021
 40
0.5000000000000017
 40
0.5000000000000017
 40
0.5312500000000013
 40
0.5312500000000013
 40
0.5625000000000009
 40
0.5625000000000009
 40
0.5937500000000004
 40
0.5937500000000004
 40
0.625
 40
0.625
 40
0.687499999999999
 40
0.687499999999999
 40
0.749999999999998
 40
0.749999999999998
 40
0.781249999999998
 40
0.781249999999998
 40
0.812499999999998
 40
0.812499999999998
 40
0.843749999999998
 40
0.843749999999998
 40
0.8593749999999981
 40
0.8593749999999981
 40
0.8749999999999983
 40
0.8749999999999983
 40
0.9062499999999988
 40
0.9062499999999988
 40
0.9374999999999992
 40
0.9374999999999992
 40
0.9687499999999997
 40
0.9687499999999997
 40
1.0
 40
1.0
 40
1.0
 40
1.0
 10
189.0129636561484
 20
101.9834029437286
 30
0.0
 10
188.9733733685085
 20
102.1370164634196
 30
0.0
 10
188.948112377827
 20
102.2892598910196
 30
0.0
 10
188.9269674718121
 20
102.591364807768
 30
0.0
 10
188.9316151839057
 20
102.7418449516099
 30
0.0
 10
188.9703088516913
 20
103.0242892249085
 30
0.0
 10
189.0046058107861
 20
103.1597359198818
 30
0.0
 10
189.0989165967354
 20
103.4088793184588
 30
0.0
 10
189.1580631370287
 20
103.5213707354815
 30
0.0
 10
189.2963993217209
 20
103.7225376707167
 30
0.0
 10
189.3750358376717
 20
103.8097918269085
 30
0.0
 10
189.5395893896866
 20
103.9520014458578
 30
0.0
 10
189.6275240859484
 20
104.0084643737349
 30
0.0
 10
189.7951026322992
 20
104.0833732892814
 30
0.0
 10
189.8756995091065
 20
104.1021832083925
 30
0.0
 10
189.9705418745681
 20
104.0976153319192
 30
0.0
 10
189.9974661799901
 20
104.0907410764403
 30
0.0
 10
190.0399948550413
 20
104.0666509086141
 30
0.0
 10
190.0554811441134
 20
104.0492432566644
 30
0.0
 10
190.0829054708016
 20
103.9853508803779
 30
0.0
 10
190.0765428672694
 20
103.9261811096449
 30
0.0
 10
190.0338927317339
 20
103.7927613015896
 30
0.0
 10
189.998397124437
 20
103.7182058908276
 30
0.0
 10
189.8698597772671
 20
103.4758491595558
 30
0.0
 10
189.7586863578282
 20
103.2946571833966
 30
0.0
 10
189.5299605422059
 20
102.8909587403596
 30
0.0
 10
189.408895358599
 20
102.6649340750465
 30
0.0
 10
189.2407813840466
 20
102.2864023381153
 30
0.0
 10
189.1864411674209
 20
102.152323833922
 30
0.0
 10
189.0878160931799
 20
101.8701438875716
 30
0.0
 10
189.0438132516178
 20
101.7234452148014
 30
0.0
 10
188.9730268240659
 20
101.4130284334087
 30
0.0
 10
188.9478366776102
 20
101.2545240036712
 30
0.0
 10
188.9269227032453
 20
100.9431604290716
 30
0.0
 10
188.9318845449982
 20
100.7954420504424
 30
0.0
 10
188.9700586633561
 20
100.5319400514704
 30
0.0
 10
189.0028949890554
 20
100.417401132432
 30
0.0
 10
189.0836274513675
 20
100.2264354359634
 30
0.0
 10
189.1317291583094
 20
100.148251747997
 30
0.0
 10
189.2881715550268
 20
99.95445657005753
 30
0.0
 10
189.4049610147711
 20
99.8806814160297
 30
0.0
 10
189.6400179868543
 20
99.79763245924907
 30
0.0
 10
189.7558155738138
 20
99.79048906633341
 30
0.0
 10
189.9065162775227
 20
99.82226308376326
 30
0.0
 10
189.952836065278
 20
99.84016053576187
 30
0.0
 10
190.0289192761383
 20
99.89376005615328
 30
0.0
 10
190.0583054316407
 20
99.92927922671771
 30
0.0
 10
190.0817664648686
 20
100.0233886015206
 30
0.0
 10
190.0747268210625
 20
100.0825090753349
 30
0.0
 10
190.0257291241828
 20
100.1924163047524
 30
0.0
 10
190.002876079605
 20
100.2330595300596
 30
0.0
 10
189.9475335619332
 20
100.3193670139136
 30
0.0
 10
189.9149444265061
 20
100.3654085171703
 30
0.0
 10
189.8061459516458
 20
100.51318732537
 30
0.0
 10
189.7215252299936
 20
100.6216559276883
 30
0.0
 10
189.5513370011891
 20
100.8557027903335
 30
0.0
 10
189.4647069262432
 20
100.9827137550745
 30
0.0
 10
189.3055909249026
 20
101.2483997165474
 30
0.0
 10
189.2312770306137
 20
101.3899766291224
 30
0.0
 10
189.1049482088684
 20
101.68070745494
 30
0.0
 10
189.0525539437884
 20
101.8297894240377
 30
0.0
 10
189.0129636561484
 20
101.9834029437286
 30
0.0
  0
SPLINE
  5
D5
330
1F
100
AcDbEntity
  8
0
  6
HIDDEN
 62
     7
370
     0
100
AcDbSpline
210
0.0
220
0.0
230
1.0
 70
    11
 71
     3
 72
    60
 73
    56
 74
     0
 42
0.000000001
 43
0.00000001
 40
0.0
 40
0.0
 40
0.0
 40
0.0
 40
0.0312499999999997
 40
0.0312499999999997
 40
0.0624999999999994
 40
0.0624999999999994
 40
0.1249999999999987
 40
0.1249999999999987
 40
0.1562499999999984
 40
0.1562499999999984
 40
0.1874999999999981
 40
0.1874999999999981
 40
0.2187499999999978
 40
0.2187499999999978
 40
0.2499999999999974
 40
0.2499999999999974
 40
0.3124999999999969
 40
0.3124999999999969
 40
0.3749999999999963
 40
0.3749999999999963
 40
0.4062499999999962
 40
0.4062499999999962
 40
0.4374999999999961
 40
0.4374999999999961
 40
0.4687499999999961
 40
0.4687499999999961
 40
0.499999999999996
 40
0.499999999999996
 40
0.5312499999999959
 40
0.5312499999999959
 40
0.5624999999999958
 40
0.5624999999999958
 40
0.6249999999999962
 40
0.6249999999999962
 40
0.6562499999999966
 40
0.6562499999999966
 40
0.6874999999999969
 40
0.6874999999999969
 40
0.7187499999999972
 40
0.7187499999999972
 40
0.7499999999999976
 40
0.7499999999999976
 40
0.781249999999998
 40
0.781249999999998
 40
0.8124999999999983
 40
0.8124999999999983
 40
0.8749999999999991
 40
0.8749999999999991
 40
0.9062499999999993
 40
0.9062499999999993
 40
0.9374999999999997
 40
0.9374999999999997
 40
0.9687499999999999
 40
0.9687499999999999
 40
1.0
 40
1.0
 40
1.0
 40
1.0
 10
191.4319387163682
 20
109.1146323201824
 30
0.0
 10
191.2624111197975
 20
109.1146323201824
 30
0.0
 10
191.0968132720901
 20
109.1263547281121
 30
0.0
 10
190.7726931954174
 20
109.1722899334538
 30
0.0
 10
190.6128831310918
 20
109.2071321641351
 30
0.0
 10
190.1635415285504
 20
109.3429400093615
 30
0.0
 10
189.893858788775
 20
109.4773790967219
 30
0.0
 10
189.5556740000174
 20
109.7408490496133
 30
0.0
 10
189.4521075663936
 20
109.8406276133743
 30
0.0
 10
189.2716561040936
 20
110.0592007322157
 30
0.0
 10
189.1945341378313
 20
110.17761983552
 30
0.0
 10
189.0671162530241
 20
110.4353302047133
 30
0.0
 10
189.0166520602231
 20
110.5765880372772
 30
0.0
 10
188.9498106475406
 20
110.8686002822773
 30
0.0
 10
188.9324924459915
 20
111.0203411060974
 30
0.0
 10
188.9308700540581
 20
111.4939912173178
 30
0.0
 10
188.9993580246018
 20
111.8233318701591
 30
0.0
 10
189.2534083309726
 20
112.4411293652473
 30
0.0
 10
189.437991230328
 20
112.730398071184
 30
0.0
 10
189.7753597007511
 20
113.1006827305976
 30
0.0
 10
189.8993488697179
 20
113.2151279278992
 30
0.0
 10
190.1655176149354
 20
113.4184334665886
 30
0.0
 10
190.3060542957594
 20
113.5063756383791
 30
0.0
 10
190.6037126310574
 20
113.6529752473898
 30
0.0
 10
190.7631800085999
 20
113.7120880505273
 30
0.0
 10
191.0887973927335
 20
113.7915404205353
 30
0.0
 10
191.2547643751206
 20
113.8124563180555
 30
0.0
 10
191.5935976211836
 20
113.8137059200931
 30
0.0
 10
191.7605883000189
 20
113.7938545848689
 30
0.0
 10
192.0862132138096
 20
113.716740029699
 30
0.0
 10
192.2463443863666
 20
113.6586767725847
 30
0.0
 10
192.6970495457249
 20
113.4398839489139
 30
0.0
 10
192.9673080468757
 20
113.2318510274347
 30
0.0
 10
193.3070227757775
 20
112.8617486091255
 30
0.0
 10
193.4109814196529
 20
112.726508681495
 30
0.0
 10
193.5912905122745
 20
112.4448121188198
 30
0.0
 10
193.6687242208671
 20
112.2974737416703
 30
0.0
 10
193.7969730757117
 20
111.98944181869
 30
0.0
 10
193.8472883666285
 20
111.8284581082091
 30
0.0
 10
193.9140366131199
 20
111.510308798381
 30
0.0
 10
193.9315101223161
 20
111.3510217619962
 30
0.0
 10
193.9323519048465
 20
111.032201037288
 30
0.0
 10
193.9155918073146
 20
110.8785809493642
 30
0.0
 10
193.8498396638107
 20
110.5848914391294
 30
0.0
 10
193.7999848030371
 20
110.4432010411433
 30
0.0
 10
193.6090200174696
 20
110.0530119536052
 30
0.0
 10
193.4237238844997
 20
109.8313685998638
 30
0.0
 10
193.0848349836798
 20
109.5665727080946
 30
0.0
 10
192.9596530612767
 20
109.4880047993764
 30
0.0
 10
192.6937179253034
 20
109.3542153750667
 30
0.0
 10
192.5528623419046
 20
109.2985011678629
 30
0.0
 10
192.2531957454204
 20
109.2076663240701
 30
0.0
 10
192.0928175632857
 20
109.1725868419639
 30
0.0
 10
191.7680804232371
 20
109.1264338583504
 30
0.0
 10
191.6014663129387
 20
109.1146323201824
 30
0.0
 10
191.4319387163681
 20
109.1146323201824
 30
0.0
  0
CIRCLE
  5
D6
330
1F
100
AcDbEntity
  8
0
  6
HIDDEN
 62
     7
370
     0
100
AcDbCircle
 10
227.1819387164
 20
112.6393637691
 30
0.0
 40
3.624999999999986
  0
LINE
  5
D7
330
1F
100
AcDbEntity
  8
0
  6
HIDDEN
 62
     7
370
     0
100
AcDbLine
 10
171.2319387164
 20
147.9393637691
 30
0.0
 11
171.4035115916
 21
147.9393637691
 31
0.0
  0
ELLIPSE
  5
D8
330
1F
100
AcDbEntity
  8
0
  6
HIDDEN
 62
     7
370
     0
100
AcDbEllipse
 10
171.4035115916
 20
149.9393637691
 30
0.0
 11
0.0
 21
2.0
 31
0.0
210
0.0
220
0.0
230
1.0
 40
0.4142135624
 41
3.141592653589793
 42
4.712388980384681
  0
ELLIPSE
  5
D9
330
1F
100
AcDbEntity
  8
0
  6
HIDDEN
 62
     7
370
     0
100
AcDbEllipse
 10
171.4035115916
 20
75.3393637691
 30
0.0
 11
0.0
 21
2.0
 31
0.0
210
0.0
220
0.0
230
1.0
 40
0.4142135624
 41
4.712388980384702
 42
6.283185307179586
  0
LINE
  5
DA
330
1F
100
AcDbEntity
  8
0
  6
HIDDEN
 62
     7
370
     0
100
AcDbLine
 10
171.4035115916
 20
77.3393637691
 30
0.0
 11
171.2319387164
 21
77.3393637691
 31
0.0
  0
LINE
  5
DB
330
1F
100
AcDbEntity
  8
0
  6
HIDDEN
 62
     7
370
     0
100
AcDbLine
 10
172.2319387164
 20
65.3187936152
 30
0.0
 11
171.6180751364
 21
64.7049300353
 31
0.0
  0
LINE
  5
DC
330
1F
100
AcDbEntity
  8
0
  6
HIDDEN
 62
     7
370
     0
100
AcDbLine
 10
171.6180751364
 20
160.573797503
 30
0.0
 11
172.2319387164
 21
159.9599339231
 31
0.0
  0
LINE
  5
DD
330
1F
100
AcDbEntity
  8
0
  6
HIDDEN
 62
     7
370
     0
100
AcDbLine
 10
184.4645077529
 20
65.3187936152
 30
0.0
 11
172.2319387164
 21
65.3187936152
 31
0.0
  0
LINE
  5
DE
330
1F
100
AcDbEntity
  8
0
  6
HIDDEN
 62
     7
370
     0
100
AcDbLine
 10
172.2319387164
 20
65.3187936152
 30
0.0
 11
172.2319387164
 21
75.3393637691
 31
0.0
  0
LINE
  5
DF
330
1F
100
AcDbEntity
  8
0
  6
HIDDEN
 62
     7
370
     0
100
AcDbLine
 10
171.4035115916
 20
147.9393637691
 30
0.0
 11
188.3819387164
 21
147.9393637691
 31
0.0
  0
LINE
  5
E0
330
1F
100
AcDbEntity
  8
0
  6
HIDDEN
 62
     7
370
     0
100
AcDbLine
 10
199.2319387164
 20
77.3393637691
 30
0.0
 11
188.3819387164
 21
77.3393637691
 31
0.0
  0
SPLINE
  5
E1
330
1F
100
AcDbEntity
  8
0
  6
HIDDEN
 62
     7
370
     0
100
AcDbSpline
210
0.0
220
0.0
230
1.0
 70
     8
 71
     3
 72
    13
 73
     9
 74
     0
 42
0.000000001
 43
0.00000001
 40
0.0
 40
0.0
 40
0.0
 40
0.0
 40
0.0005825290635647
 40
0.1623661983773396
 40
0.3287385494553315
 40
0.4998718252132767
 40
0.7262528256169377
 40
1.0
 40
1.0
 40
1.0
 40
1.0
 10
201.2315045589745
 20
63.63949657579848
 30
0.0
 10
201.2316493450094
 20
63.63945223360519
 30
0.0
 10
201.2720050277267
 20
63.62709289601317
 30
0.0
 10
201.1578504208358
 20
63.66272198202066
 30
0.0
 10
200.9337333131352
 20
63.73056994492909
 30
0.0
 10
200.4544244221663
 20
63.86966311907253
 30
0.0
 10
199.6609167645378
 20
64.09990969984497
 30
0.0
 10
198.7918988920617
 20
64.31539527060318
 30
0.0
 10
198.3162384532549
 20
64.43334216719728
 30
0.0
  0
LINE
  5
E2
330
1F
100
AcDbEntity
  8
0
  6
HIDDEN
 62
     7
370
     0
100
AcDbLine
 10
172.2319387164
 20
159.9599339231
 30
0.0
 11
184.4645077529
 21
159.9599339231
 31
0.0
  0
LINE
  5
E3
330
1F
100
AcDbEntity
  8
0
  6
HIDDEN
 62
     7
370
     0
100
AcDbLine
 10
172.2319387164
 20
159.9599339231
 30
0.0
 11
172.2319387164
 21
149.9393637691
 31
0.0
  0
SPLINE
  5
E4
330
1F
100
AcDbEntity
  8
0
  6
HIDDEN
 62
     7
370
     0
100
AcDbSpline
210
0.0
220
0.0
230
1.0
 70
     8
 71
     3
 72
    14
 73
    10
 74
     0
 42
0.000000001
 43
0.00000001
 40
0.0
 40
0.0
 40
0.0
 40
0.0
 40
0.1878282877623173
 40
0.3545816313016879
 40
0.5003024319338173
 40
0.6713282049188825
 40
0.8376422060211013
 40
0.9994166164999629
 40
1.0
 40
1.0
 40
1.0
 40
1.0
 10
198.3162384532549
 20
160.8453853710812
 30
0.0
 10
198.6492413756442
 20
160.9269333085348
 30
0.0
 10
199.2778832104591
 20
161.0808792398749
 30
0.0
 10
199.9773197823639
 20
161.271857957993
 30
0.0
 10
200.5251968817934
 20
161.4292302450687
 30
0.0
 10
200.9313124759107
 20
161.5475556810924
 30
0.0
 10
201.1644403686097
 20
161.6179326957074
 30
0.0
 10
201.2584297552068
 20
161.6475670469818
 30
0.0
 10
201.2317468620629
 20
161.6393045213783
 30
0.0
 10
201.2316509851776
 20
161.639274832498
 30
0.0
  0
LINE
  5
E5
330
1F
100
AcDbEntity
  8
0
  6
HIDDEN
 62
     7
370
     0
100
AcDbLine
 10
198.8155728181
 20
160.969699409
 30
0.0
 11
198.3162341649
 21
160.8454300255
 31
0.0
  0
LINE
  5
E6
330
1F
100
AcDbEntity
  8
0
  6
HIDDEN
 62
     7
370
     0
100
AcDbLine
 10
188.3819387164
 20
147.9393637691
 30
0.0
 11
199.2319387164
 21
147.9393637691
 31
0.0
  0
LINE
  5
E7
330
1F
100
AcDbEntity
  8
0
  6
HIDDEN
 62
     7
370
     0
100
AcDbLine
 10
188.3819387164
 20
77.3393637691
 30
0.0
 11
171.4035115916
 21
77.3393637691
 31
0.0
  0
LINE
  5
E8
330
1F
100
AcDbEntity
  8
0
  6
HIDDEN
 62
     7
370
     0
100
AcDbLine
 10
76.4319387164
 20
100.1393637691
 30
0.0
 11
76.4319387164
 21
125.1393637691
 31
0.0
  0
LINE
  5
E9
330
1F
100
AcDbEntity
  8
0
  6
HIDDEN
 62
     7
370
     0
100
AcDbLine
 10
79.7165430653
 20
102.1393637691
 30
0.0
 11
79.7165430653
 21
123.1393637691
 31
0.0
  0
SPLINE
  5
EA
330
1F
100
AcDbEntity
  8
0
  6
HIDDEN
 62
     7
370
     0
100
AcDbSpline
210
0.0
220
0.0
230
1.0
 70
     8
 71
     3
 72
    16
 73
    12
 74
     0
 42
0.000000001
 43
0.00000001
 40
0.0
 40
0.0
 40
0.0
 40
0.0
 40
0.2500000000000062
 40
0.2500000000000062
 40
0.5000000000000123
 40
0.5000000000000123
 40
0.6250000000000154
 40
0.6250000000000154
 40
0.7500000000000184
 40
0.7500000000000184
 40
1.0
 40
1.0
 40
1.0
 40
1.0
 10
237.2319387163682
 20
123.1034688841735
 30
0.0
 10
237.2319387163682
 20
123.0144032156683
 30
0.0
 10
237.2266189761808
 20
122.9235408422198
 30
0.0
 10
237.1971818515606
 20
122.7354677257999
 30
0.0
 10
237.1737913054976
 20
122.637366533899
 30
0.0
 10
237.1056638754054
 20
122.4973381853753
 30
0.0
 10
237.0767023288151
 20
122.4526380189235
 30
0.0
 10
237.0101607858606
 20
122.3825675914434
 30
0.0
 10
236.9727146510638
 20
122.3573651999031
 30
0.0
 10
236.8623453671522
 20
122.3122255532497
 30
0.0
 10
236.7943140293442
 20
122.3178238888749
 30
0.0
 10
236.7319387163418
 20
122.3335588400756
 30
0.0
  0
SPLINE
  5
EB
330
1F
100
AcDbEntity
  8
0
  6
HIDDEN
 62
     7
370
     0
100
AcDbSpline
210
0.0
220
0.0
230
1.0
 70
     8
 71
     3
 72
     8
 73
     4
 74
     0
 42
0.000000001
 43
0.00000001
 40
0.0
 40
0.0
 40
0.0
 40
0.0
 40
1.0
 40
1.0
 40
1.0
 40
1.0
 10
236.7319387163426
 20
122.3335588400747
 30
0.0
 10
236.6468993192834
 20
122.2761147487821
 30
0.0
 10
236.5418800683394
 20
122.2353575043691
 30
0.0
 10
236.4319387163684
 20
122.235357504369
 30
0.0
  0
SPLINE
  5
EC
330
1F
100
AcDbEntity
  8
0
  6
HIDDEN
 62
     7
370
     0
100
AcDbSpline
210
0.0
220
0.0
230
1.0
 70
     8
 71
     3
 72
     8
 73
     4
 74
     0
 42
0.000000001
 43
0.00000001
 40
0.0
 40
0.0
 40
0.0
 40
0.0
 40
1.0
 40
1.0
 40
1.0
 40
1.0
 10
236.7319387163863
 20
102.9451686981743
 30
0.0
 10
236.646899319318
 20
103.0026127894826
 30
0.0
 10
236.5418800683582
 20
103.0433700339095
 30
0.0
 10
236.4319387163684
 20
103.0433700339095
 30
0.0
  0
SPLINE
  5
ED
330
1F
100
AcDbEntity
  8
0
  6
HIDDEN
 62
     7
370
     0
100
AcDbSpline
210
0.0
220
0.0
230
1.0
 70
     8
 71
     3
 72
    16
 73
    12
 74
     0
 42
0.000000001
 43
0.00000001
 40
0.0
 40
0.0
 40
0.0
 40
0.0
 40
0.2500000000000017
 40
0.2500000000000017
 40
0.3750000000000027
 40
0.3750000000000027
 40
0.5000000000000037
 40
0.5000000000000037
 40
0.7500000000000018
 40
0.7500000000000018
 40
1.0
 40
1.0
 40
1.0
 40
1.0
 10
236.7319387163854
 20
102.9451686981734
 30
0.0
 10
236.7940117997433
 20
102.9608274711008
 30
0.0
 10
236.8618210836284
 20
102.9664283600013
 30
0.0
 10
236.9716768555647
 20
102.9219310209197
 30
0.0
 10
237.0089837733529
 20
102.8970508936116
 30
0.0
 10
237.075291455515
 20
102.8279153137005
 30
0.0
 10
237.1042576766632
 20
102.783790814398
 30
0.0
 10
237.1730696267798
 20
102.6437912176375
 30
0.0
 10
237.19678030089
 20
102.5450838640154
 30
0.0
 10
237.2264813093352
 20
102.3567958267523
 30
0.0
 10
237.2319387163682
 20
102.2645594490148
 30
0.0
 10
237.2319387163682
 20
102.175258830309
 30
0.0
  0
LINE
  5
EE
330
1F
100
AcDbEntity
  8
0
  6
HIDDEN
 62
     7
370
     0
100
AcDbLine
 10
212.7319387164
 20
112.6393637691
 30
0.0
 11
212.7319387164
 21
102.1393637691
 31
0.0
  0
LINE
  5
EF
330
1F
100
AcDbEntity
  8
0
  6
HIDDEN
 62
     7
370
     0
100
AcDbLine
 10
212.7319387164
 20
123.1393637691
 30
0.0
 11
212.7319387164
 21
112.6393637691
 31
0.0
  0
LINE
  5
F0
330
1F
100
AcDbEntity
  8
0
  6
HIDDEN
 62
     7
370
     0
100
AcDbLine
 10
216.5979641202
 20
112.6393637691
 30
0.0
 11
216.5979641202
 21
101.6393637691
 31
0.0
  0
LINE
  5
F1
330
1F
100
AcDbEntity
  8
0
  6
HIDDEN
 62
     7
370
     0
100
AcDbLine
 10
216.5979641202
 20
123.6393637691
 30
0.0
 11
216.5979641202
 21
112.6393637691
 31
0.0
  0
LINE
  5
F2
330
1F
100
AcDbEntity
  8
0
  6
HIDDEN
 62
     7
370
     0
100
AcDbLine
 10
226.6319387164
 20
122.2353575044
 30
0.0
 11
236.4319387164
 21
122.2353575044
 31
0.0
  0
LINE
  5
F3
330
1F
100
AcDbEntity
  8
0
  6
HIDDEN
 62
     7
370
     0
100
AcDbLine
 10
226.6319387164
 20
103.0433700339
 30
0.0
 11
236.4319387164
 21
103.0433700339
 31
0.0
  0
LINE
  5
F4
330
1F
100
AcDbEntity
  8
0
  6
HIDDEN
 62
     7
370
     0
100
AcDbLine
 10
129.4319387164
 20
102.1393637691
 30
0.0
 11
129.4319387164
 21
123.1393637691
 31
0.0
  0
LINE
  5
F5
330
1F
100
AcDbEntity
  8
0
  6
HIDDEN
 62
     7
370
     0
100
AcDbLine
 10
133.1873175853
 20
108.3893637691
 30
0.0
 11
133.1873175853
 21
116.8893637691
 31
0.0
  0
SPLINE
  5
F6
330
1F
100
AcDbEntity
  8
0
  6
HIDDEN
 62
     7
370
     0
100
AcDbSpline
210
0.0
220
0.0
230
1.0
 70
     8
 71
     3
 72
     9
 73
     5
 74
     0
 42
0.000000001
 43
0.00000001
 40
0.0
 40
0.0
 40
0.0
 40
0.0
 40
0.4951995003022724
 40
1.0
 40
1.0
 40
1.0
 40
1.0
 10
198.3162229308052
 20
160.845375933552
 30
0.0
 10
198.4214191524409
 20
161.002531693672
 30
0.0
 10
198.6338511552427
 20
161.3198901724752
 30
0.0
 10
198.8485695387566
 20
161.6385167205779
 30
0.0
 10
198.9569594860487
 20
161.7993595612771
 30
0.0
  0
SPLINE
  5
F7
330
1F
100
AcDbEntity
  8
0
  6
HIDDEN
 62
     7
370
     0
100
AcDbSpline
210
0.0
220
0.0
230
1.0
 70
     8
 71
     3
 72
     9
 73
     5
 74
     0
 42
0.000000001
 43
0.00000001
 40
0.0
 40
0.0
 40
0.0
 40
0.0
 40
0.5048005003628353
 40
1.0
 40
1.0
 40
1.0
 40
1.0
 10
198.9569594860487
 20
63.47936797700146
 30
0.0
 10
198.8485695386169
 20
63.64021081790607
 30
0.0
 10
198.633851155109
 20
63.95883736599585
 30
0.0
 10
198.4214191523021
 20
64.27619584481143
 30
0.0
 10
198.3162229308052
 20
64.43335160472652
 30
0.0
  0
SPLINE
  5
F8
330
1F
100
AcDbEntity
  8
0
  6
HIDDEN
 62
     7
370
     0
100
AcDbSpline
210
0.0
220
0.0
230
1.0
 70
     8
 71
     3
 72
    11
 73
     7
 74
     0
 42
0.000000001
 43
0.00000001
 40
0.0
 40
0.0
 40
0.0
 40
0.0
 40
0.2779557705709296
 40
0.6036819231120821
 40
0.9297909352322566
 40
1.0
 40
1.0
 40
1.0
 40
1.0
 10
236.6865764748999
 20
128.3260766485074
 30
0.0
 10
236.6836913474743
 20
128.3053307483909
 30
0.0
 10
236.6774252452484
 20
128.2602734903483
 30
0.0
 10
236.7042015511712
 20
127.7615359765012
 30
0.0
 10
236.7300906686554
 20
127.186842662023
 30
0.0
 10
236.7316606097781
 20
126.8152012760762
 30
0.0
 10
236.7319387300669
 20
126.7493637691393
 30
0.0
  0
LINE
  5
F9
330
1F
100
AcDbEntity
  8
0
  6
HIDDEN
 62
     7
370
     0
100
AcDbLine
 10
236.7319387301
 20
126.7493637691
 30
0.0
 11
236.7319387163
 21
122.3335588401
 31
0.0
  0
LINE
  5
FA
330
1F
100
AcDbEntity
  8
0
  6
HIDDEN
 62
     7
370
     0
100
AcDbLine
 10
236.7319387105
 20
98.5293637691
 30
0.0
 11
236.7319387164
 21
102.9451686982
 31
0.0
  0
SPLINE
  5
FB
330
1F
100
AcDbEntity
  8
0
  6
HIDDEN
 62
     7
370
     0
100
AcDbSpline
210
0.0
220
0.0
230
1.0
 70
     8
 71
     3
 72
    12
 73
     8
 74
     0
 42
0.000000001
 43
0.00000001
 40
0.0
 40
0.0
 40
0.0
 40
0.0
 40
0.5
 40
0.5
 40
0.75
 40
0.75
 40
1.0
 40
1.0
 40
1.0
 40
1.0
 10
236.7319387163681
 20
98.5293637691393
 30
0.0
 10
236.7319387163681
 20
98.18667169710052
 30
0.0
 10
236.7310931050962
 20
97.89180660879859
 30
0.0
 10
236.7244789767421
 20
97.52005116844842
 30
0.0
 10
236.7213496694643
 20
97.4102334874685
 30
0.0
 10
236.713883551308
 20
97.22410413866552
 30
0.0
 10
236.7096697730076
 20
97.14670448350806
 30
0.0
 10
236.7052191650479
 20
97.0856444887305
 30
0.0
  0
SPLINE
  5
FC
330
1F
100
AcDbEntity
  8
0
  6
HIDDEN
 62
     7
370
     0
100
AcDbSpline
210
0.0
220
0.0
230
1.0
 70
     8
 71
     3
 72
    11
 73
     7
 74
     0
 42
0.000000001
 43
0.00000001
 40
0.0
 40
0.0
 40
0.0
 40
0.0
 40
0.007007027514756
 40
0.3341928103641838
 40
0.6604331475259949
 40
1.0
 40
1.0
 40
1.0
 40
1.0
 10
236.6850608954827
 20
96.93357133170622
 30
0.0
 10
236.6849126318106
 20
96.93243705584392
 30
0.0
 10
236.6778413518498
 20
96.87833896113132
 30
0.0
 10
236.6801317962579
 20
97.10694889598973
 30
0.0
 10
236.7139013403318
 20
97.6209723909387
 30
0.0
 10
236.72584655696
 20
98.22255298211837
 30
0.0
 10
236.7319387104779
 20
98.52936376913928
 30
0.0
  0
LINE
  5
FD
330
1F
100
AcDbEntity
  8
0
  6
HIDDEN
 62
     7
370
     0
100
AcDbLine
 10
226.6319387164
 20
126.7493637691
 30
0.0
 11
226.6319387164
 21
122.2353575044
 31
0.0
  0
LINE
  5
FE
330
1F
100
AcDbEntity
  8
0
  6
HIDDEN
 62
     7
370
     0
100
AcDbLine
 10
226.6319387164
 20
98.5293637691
 30
0.0
 11
226.6319387164
 21
103.0433700339
 31
0.0
  0
SPLINE
  5
FF
330
1F
100
AcDbEntity
  8
0
  6
HIDDEN
 62
     7
370
     0
100
AcDbSpline
210
0.0
220
0.0
230
1.0
 70
    11
 71
     3
 72
    60
 73
    56
 74
     0
 42
0.000000001
 43
0.00000001
 40
0.0
 40
0.0
 40
0.0
 40
0.0
 40
0.0312499999999998
 40
0.0312499999999998
 40
0.0624999999999996
 40
0.0624999999999996
 40
0.1249999999999998
 40
0.1249999999999998
 40
0.1562499999999999
 40
0.1562499999999999
 40
0.1875
 40
0.1875
 40
0.2187500000000001
 40
0.2187500000000001
 40
0.2500000000000002
 40
0.2500000000000002
 40
0.3125000000000003
 40
0.3125000000000003
 40
0.3750000000000005
 40
0.3750000000000005
 40
0.4062500000000004
 40
0.4062500000000004
 40
0.4375000000000002
 40
0.4375000000000002
 40
0.4687500000000001
 40
0.4687500000000001
 40
0.5
 40
0.5
 40
0.5312499999999998
 40
0.5312499999999998
 40
0.5624999999999997
 40
0.5624999999999997
 40
0.6249999999999999
 40
0.6249999999999999
 40
0.6562499999999999
 40
0.6562499999999999
 40
0.6874999999999998
 40
0.6874999999999998
 40
0.7187499999999998
 40
0.7187499999999998
 40
0.7499999999999997
 40
0.7499999999999997
 40
0.7812499999999996
 40
0.7812499999999996
 40
0.8124999999999996
 40
0.8124999999999996
 40
0.8749999999999993
 40
0.8749999999999993
 40
0.9062499999999996
 40
0.9062499999999996
 40
0.9374999999999997
 40
0.9374999999999997
 40
0.9687499999999999
 40
0.9687499999999999
 40
1.0
 40
1.0
 40
1.0
 40
1.0
 10
191.4319387163681
 20
111.4656321141667
 30
0.0
 10
191.6014663129387
 20
111.4656321141667
 30
0.0
 10
191.7670641606462
 20
111.4859550375184
 30
0.0
 10
192.0911842373189
 20
111.5636325082977
 30
0.0
 10
192.2509943016445
 20
111.6219561065282
 30
0.0
 10
192.7003359041859
 20
111.8411578098433
 30
0.0
 10
192.9700186439613
 20
112.0494026845099
 30
0.0
 10
193.3082034327188
 20
112.4184810493795
 30
0.0
 10
193.4117698663427
 20
112.5532814368221
 30
0.0
 10
193.5922213286426
 20
112.8355404600746
 30
0.0
 10
193.669343294905
 20
112.9826585186358
 30
0.0
 10
193.7967611797121
 20
113.2888592329109
 30
0.0
 10
193.8472253725132
 20
113.44999440432
 30
0.0
 10
193.9140667851957
 20
113.7685373348351
 30
0.0
 10
193.9313849867447
 20
113.9272895172457
 30
0.0
 10
193.9330073786781
 20
114.4015924388712
 30
0.0
 10
193.8645194081345
 20
114.7027125746706
 30
0.0
 10
193.6104691017637
 20
115.2236995459537
 30
0.0
 10
193.4258862024082
 20
115.4449553717839
 30
0.0
 10
193.0885177319851
 20
115.709626762107
 30
0.0
 10
192.9645285630183
 20
115.7878960401059
 30
0.0
 10
192.6983598178008
 20
115.9225376297028
 30
0.0
 10
192.5578231369768
 20
115.9783671835909
 30
0.0
 10
192.2601648016789
 20
116.0692902710989
 30
0.0
 10
192.1006974241363
 20
116.1046448565782
 30
0.0
 10
191.7750800400028
 20
116.151657999939
 30
0.0
 10
191.6091130576157
 20
116.1637236780343
 30
0.0
 10
191.2702798115527
 20
116.1644501259152
 30
0.0
 10
191.1032891327174
 20
116.1530037031964
 30
0.0
 10
190.7776642189267
 20
116.1074190820899
 30
0.0
 10
190.6175330463696
 20
116.0727511992881
 30
0.0
 10
190.1668278870113
 20
115.9372695813365
 30
0.0
 10
189.8965693858605
 20
115.8030820359257
 30
0.0
 10
189.5568546569588
 20
115.538985270409
 30
0.0
 10
189.4528960130833
 20
115.4388939856437
 30
0.0
 10
189.2725869204617
 20
115.2208136868362
 30
0.0
 10
189.1951532118691
 20
115.1022783222427
 30
0.0
 10
189.0669043570246
 20
114.8430499978674
 30
0.0
 10
189.0165890661078
 20
114.701889419996
 30
0.0
 10
188.9498408196164
 20
114.4102339339436
 30
0.0
 10
188.9323673104202
 20
114.2580205243745
 30
0.0
 10
188.9315255278898
 20
113.9395385126093
 30
0.0
 10
188.9482856254217
 20
113.7791308562821
 30
0.0
 10
189.0140377689256
 20
113.4593283880124
 30
0.0
 10
189.0638926296992
 20
113.297981278667
 30
0.0
 10
189.2548574152667
 20
112.835046912743
 30
0.0
 10
189.4401535482366
 20
112.5451492551347
 30
0.0
 10
189.7790424490565
 20
112.1744147788368
 30
0.0
 10
189.9042243714597
 20
112.059416842791
 30
0.0
 10
190.1701595074329
 20
111.8572239728037
 30
0.0
 10
190.3110150908317
 20
111.76940954276
 30
0.0
 10
190.6106816873159
 20
111.6228393633345
 30
0.0
 10
190.7710598694506
 20
111.5641310423436
 30
0.0
 10
191.0957970094992
 20
111.4860923647304
 30
0.0
 10
191.2624111197975
 20
111.4656321141667
 30
0.0
 10
191.4319387163681
 20
111.4656321141667
 30
0.0
  0
LINE
  5
100
330
1F
100
AcDbEntity
  8
0
  6
HIDDEN
 62
     7
370
     0
100
AcDbLine
 10
226.6319387164
 20
128.3493637691
 30
0.0
 11
226.6319387164
 21
126.7493637691
 31
0.0
  0
LINE
  5
101
330
1F
100
AcDbEntity
  8
0
  6
HIDDEN
 62
     7
370
     0
100
AcDbLine
 10
226.6319387164
 20
96.9293637691
 30
0.0
 11
226.6319387164
 21
98.5293637691
 31
0.0
  0
SPLINE
  5
102
330
1F
100
AcDbEntity
  8
0
  6
HIDDEN
 62
     7
370
     0
100
AcDbSpline
210
0.0
220
0.0
230
1.0
 70
    11
 71
     3
 72
    66
 73
    62
 74
     0
 42
0.000000001
 43
0.00000001
 40
0.0
 40
0.0
 40
0.0
 40
0.0
 40
0.0312500000000001
 40
0.0312500000000001
 40
0.0625000000000003
 40
0.0625000000000003
 40
0.0937500000000004
 40
0.0937500000000004
 40
0.1250000000000006
 40
0.1250000000000006
 40
0.1562500000000007
 40
0.1562500000000007
 40
0.1875000000000008
 40
0.1875000000000008
 40
0.218750000000001
 40
0.218750000000001
 40
0.2500000000000011
 40
0.2500000000000011
 40
0.2812500000000012
 40
0.2812500000000012
 40
0.3125000000000014
 40
0.3125000000000014
 40
0.3437500000000016
 40
0.3437500000000016
 40
0.3750000000000017
 40
0.3750000000000017
 40
0.4062500000000018
 40
0.4062500000000018
 40
0.4375000000000019
 40
0.4375000000000019
 40
0.4687500000000021
 40
0.4687500000000021
 40
0.5000000000000022
 40
0.5000000000000022
 40
0.5312500000000023
 40
0.5312500000000023
 40
0.5625000000000024
 40
0.5625000000000024
 40
0.6250000000000026
 40
0.6250000000000026
 40
0.6562500000000023
 40
0.6562500000000023
 40
0.6875000000000021
 40
0.6875000000000021
 40
0.718750000000002
 40
0.718750000000002
 40
0.7500000000000018
 40
0.7500000000000018
 40
0.7812500000000016
 40
0.7812500000000016
 40
0.8125000000000013
 40
0.8125000000000013
 40
0.8437500000000012
 40
0.8437500000000012
 40
0.875000000000001
 40
0.875000000000001
 40
0.9062500000000008
 40
0.9062500000000008
 40
0.9375000000000006
 40
0.9375000000000006
 40
1.0
 40
1.0
 40
1.0
 40
1.0
 10
191.4319387163681
 20
124.8008179760531
 30
0.0
 10
191.2667384257042
 20
124.8008179760531
 30
0.0
 10
191.1043058844077
 20
124.816383567335
 30
0.0
 10
190.7847477288177
 20
124.8773298391646
 30
0.0
 10
190.6259643908407
 20
124.9234518831499
 30
0.0
 10
190.3232263743613
 20
125.0437150707379
 30
0.0
 10
190.179647209227
 20
125.1172587201586
 30
0.0
 10
189.907917479359
 20
125.2907756430909
 30
0.0
 10
189.7792889158212
 20
125.3916482998775
 30
0.0
 10
189.548723154154
 20
125.6116330887757
 30
0.0
 10
189.4452491529047
 20
125.7315122523645
 30
0.0
 10
189.2624886149788
 20
125.991353618962
 30
0.0
 10
189.1848443587503
 20
126.1294430495342
 30
0.0
 10
189.0601517080602
 20
126.4144254817824
 30
0.0
 10
189.0121477274818
 20
126.5634205911249
 30
0.0
 10
188.9479159851635
 20
126.8679456785196
 30
0.0
 10
188.9320265411213
 20
127.0207150259561
 30
0.0
 10
188.9318516107661
 20
127.3272047075702
 30
0.0
 10
188.948082262101
 20
127.4825314778652
 30
0.0
 10
189.0118634848106
 20
127.7825936837637
 30
0.0
 10
189.0590555962069
 20
127.9281283962629
 30
0.0
 10
189.1842222138648
 20
128.2102616765848
 30
0.0
 10
189.2624817012398
 20
128.3464015179395
 30
0.0
 10
189.4434018845952
 20
128.5979380677091
 30
0.0
 10
189.5466871135191
 20
128.7149649115523
 30
0.0
 10
189.7799388555678
 20
128.9310402051738
 30
0.0
 10
189.9063527238334
 20
129.0267441290592
 30
0.0
 10
190.177024994528
 20
129.1938971258308
 30
0.0
 10
190.3231067666923
 20
129.2660583114539
 30
0.0
 10
190.6259912121651
 20
129.3817123534103
 30
0.0
 10
190.7818215718048
 20
129.425245160593
 30
0.0
 10
191.1021670610703
 20
129.4841410635264
 30
0.0
 10
191.2678771470419
 20
129.4992271665463
 30
0.0
 10
191.5942085357384
 20
129.4993346982131
 30
0.0
 10
191.7563956215654
 20
129.4848440410234
 30
0.0
 10
192.0787712027739
 20
129.4261159767462
 30
0.0
 10
192.2367866768114
 20
129.3819851696169
 30
0.0
 10
192.688197551887
 20
129.210055571019
 30
0.0
 10
192.9672770089392
 20
129.0384818783479
 30
0.0
 10
193.3133507134376
 20
128.7188310599816
 30
0.0
 10
193.4189927293523
 20
128.5997899305932
 30
0.0
 10
193.600776205323
 20
128.3474701697348
 30
0.0
 10
193.6776640287069
 20
128.2140058583634
 30
0.0
 10
193.8033185860773
 20
127.9322404458111
 30
0.0
 10
193.851626661992
 20
127.7838197141801
 30
0.0
 10
193.9154445474323
 20
127.4847701164036
 30
0.0
 10
193.9317727244751
 20
127.3325670465363
 30
0.0
 10
193.9321022145349
 20
127.0225651876965
 30
0.0
 10
193.9160057027002
 20
126.8690425205985
 30
0.0
 10
193.8527769654389
 20
126.5675138030194
 30
0.0
 10
193.8049403720285
 20
126.4175789777176
 30
0.0
 10
193.679597054115
 20
126.1303598816267
 30
0.0
 10
193.6029003795898
 20
125.9939809673105
 30
0.0
 10
193.421849012938
 20
125.7356254092963
 30
0.0
 10
193.3163734025771
 20
125.612950232922
 30
0.0
 10
193.0858468339009
 20
125.3926965488699
 30
0.0
 10
192.9601273962706
 20
125.2937709774361
 30
0.0
 10
192.6873605470738
 20
125.1189322965144
 30
0.0
 10
192.5416411706677
 20
125.044255451534
 30
0.0
 10
192.0905720655597
 20
124.8646292360413
 30
0.0
 10
191.7623392976959
 20
124.8008179760531
 30
0.0
 10
191.4319387163682
 20
124.8008179760531
 30
0.0
  0
SPLINE
  5
103
330
1F
100
AcDbEntity
  8
0
  6
HIDDEN
 62
     7
370
     0
100
AcDbSpline
210
0.0
220
0.0
230
1.0
 70
    11
 71
     3
 72
    60
 73
    56
 74
     0
 42
0.000000001
 43
0.00000001
 40
0.0
 40
0.0
 40
0.0
 40
0.0
 40
0.0312499999999994
 40
0.0312499999999994
 40
0.0624999999999989
 40
0.0624999999999989
 40
0.0937499999999983
 40
0.0937499999999983
 40
0.1249999999999977
 40
0.1249999999999977
 40
0.1562499999999972
 40
0.1562499999999972
 40
0.1874999999999966
 40
0.1874999999999966
 40
0.218749999999996
 40
0.218749999999996
 40
0.2499999999999954
 40
0.2499999999999954
 40
0.3124999999999942
 40
0.3124999999999942
 40
0.374999999999993
 40
0.374999999999993
 40
0.4062499999999922
 40
0.4062499999999922
 40
0.4374999999999914
 40
0.4374999999999914
 40
0.4531249999999912
 40
0.4531249999999912
 40
0.468749999999991
 40
0.468749999999991
 40
0.4999999999999917
 40
0.4999999999999917
 40
0.5624999999999928
 40
0.5624999999999928
 40
0.6249999999999938
 40
0.6249999999999938
 40
0.6874999999999949
 40
0.6874999999999949
 40
0.7187499999999954
 40
0.7187499999999954
 40
0.749999999999996
 40
0.749999999999996
 40
0.7812499999999966
 40
0.7812499999999966
 40
0.8124999999999971
 40
0.8124999999999971
 40
0.8437499999999977
 40
0.8437499999999977
 40
0.8749999999999981
 40
0.8749999999999981
 40
0.9062499999999987
 40
0.9062499999999987
 40
0.9374999999999992
 40
0.9374999999999992
 40
1.0
 40
1.0
 40
1.0
 40
1.0
 10
189.0129636561484
 20
122.1088389694164
 30
0.0
 10
189.0525537389952
 20
121.9773584380624
 30
0.0
 10
189.1048653599154
 20
121.8581745873828
 30
0.0
 10
189.2305854655179
 20
121.6429811000548
 30
0.0
 10
189.3050084959622
 20
121.5463931944466
 30
0.0
 10
189.4637188041552
 20
121.3858322826915
 30
0.0
 10
189.5485974039607
 20
121.3205530459896
 30
0.0
 10
189.7203706235025
 20
121.2230508714323
 30
0.0
 10
189.8043808597985
 20
121.1925757746351
 30
0.0
 10
189.9497767830772
 20
121.1728268062776
 30
0.0
 10
190.0080430315864
 20
121.1846033557739
 30
0.0
 10
190.0746477563965
 20
121.2490236985572
 30
0.0
 10
190.0818086407943
 20
121.299736836637
 30
0.0
 10
190.0586633214121
 20
121.422760349012
 30
0.0
 10
190.0297552354425
 20
121.4932315752973
 30
0.0
 10
189.9543344775973
 20
121.6468532379617
 30
0.0
 10
189.9073890048209
 20
121.7304885061457
 30
0.0
 10
189.7557471131995
 20
121.9938687451558
 30
0.0
 10
189.6398199759363
 20
122.1874176705794
 30
0.0
 10
189.4061944049539
 20
122.6242871424753
 30
0.0
 10
189.2875116382521
 20
122.8672922766627
 30
0.0
 10
189.1310403292964
 20
123.2783668151925
 30
0.0
 10
189.0830536807443
 20
123.4220383806758
 30
0.0
 10
189.002444670954
 20
123.7225013086347
 30
0.0
 10
188.9697451420589
 20
123.881000562909
 30
0.0
 10
188.941324532715
 20
124.1162110847383
 30
0.0
 10
188.9351784607414
 20
124.1954586925348
 30
0.0
 10
188.9307002589766
 20
124.3471362629942
 30
0.0
 10
188.9322164693887
 20
124.4203443353026
 30
0.0
 10
188.9479794090652
 20
124.6321000665296
 30
0.0
 10
188.9734534637506
 20
124.757998212391
 30
0.0
 10
189.0798182074994
 20
125.0797285784102
 30
0.0
 10
189.18569623677
 20
125.2177422947703
 30
0.0
 10
189.408866457715
 20
125.4035541459005
 30
0.0
 10
189.5297528898422
 20
125.4524781806567
 30
0.0
 10
189.758835363524
 20
125.4885295064477
 30
0.0
 10
189.8689981817744
 20
125.476651323246
 30
0.0
 10
189.9969813491255
 20
125.4120437616965
 30
0.0
 10
190.033322694538
 20
125.3820365479331
 30
0.0
 10
190.0764126976981
 20
125.3015084243832
 30
0.0
 10
190.0828975063
 20
125.2499280071314
 30
0.0
 10
190.0468567535991
 20
125.1203807975058
 30
0.0
 10
190.0026375384739
 20
125.0405219730123
 30
0.0
 10
189.8769875636617
 20
124.8583924977074
 30
0.0
 10
189.7958634321803
 20
124.7543400576872
 30
0.0
 10
189.6289180620859
 20
124.5313761620079
 30
0.0
 10
189.541029897356
 20
124.4095727799626
 30
0.0
 10
189.3753904001069
 20
124.152011556903
 30
0.0
 10
189.2974443119695
 20
124.0165326965891
 30
0.0
 10
189.1581885782979
 20
123.7297783752411
 30
0.0
 10
189.0991628593989
 20
123.58332633735
 30
0.0
 10
189.0053779056957
 20
123.283081607448
 30
0.0
 10
188.9705648475862
 20
123.1273797513228
 30
0.0
 10
188.9122472429096
 20
122.6716167640611
 30
0.0
 10
188.9337834904547
 20
122.3718000321243
 30
0.0
 10
189.0129636561484
 20
122.1088389694164
 30
0.0
  0
LWPOLYLINE
  5
104
330
1F
100
AcDbEntity
  8
0
  6
HIDDEN
 62
     7
370
     0
100
AcDbPolyline
 90
       20
 70
   128
 43
0.0
 10
172.2141964169
 20
125.4260146283
 10
172.3709505585
 20
124.9399112984
 10
172.6192383298
 20
124.6350589346
 10
172.9321538983
 20
124.5444930209
 10
173.2757880067
 20
124.6780277792
 10
173.6129025673
 20
125.0211926466
 10
173.9069659866
 20
125.5368003849
 10
174.1261119303
 20
126.1689768951
 10
174.246592535
 20
126.8492160432
 10
174.2553518576
 20
127.5038033624
 10
174.1514406897
 20
128.0618041598
 10
173.9461194187
 20
128.4627503907
 10
173.6616377902
 20
128.6631933096
 10
173.3288238027
 20
128.6414118161
 10
172.9837430161
 20
128.399766273
 10
172.6637902879
 20
127.9644427244
 10
172.403637461
 20
127.3826152315
 10
172.2314761307
 20
126.7173338311
 10
172.1659626485
 20
126.040692086
 10
172.2141964169
 20
125.4260146283
  0
LWPOLYLINE
  5
105
330
1F
100
AcDbEntity
  8
0
  6
HIDDEN
 62
     7
370
     0
100
AcDbPolyline
 90
       24
 70
   128
 43
0.0
 10
171.5013258282
 20
124.9735391073
 10
171.6760389552
 20
124.3830705032
 10
171.9438964221
 20
123.9621031271
 10
172.2850324659
 20
123.7418582036
 10
172.674146587
 20
123.738670291
 10
173.0823799709
 20
123.9527758222
 10
173.4794558153
 20
124.3682955694
 10
173.8359248211
 20
124.9544123339
 10
174.125349313
 20
125.6676565165
 10
174.3262640005
 20
126.4551300592
 10
174.4237679602
 20
127.2584296516
 10
174.4106297696
 20
128.0179782379
 10
174.2878238281
 20
128.6774435741
 10
174.0644580907
 20
129.1879161331
 10
173.7570985722
 20
129.5115365005
 10
173.388540722
 20
129.624303234
 10
172.9861187899
 20
129.517852941
 10
172.5796785696
 20
129.2000805526
 10
172.1993638729
 20
128.6945537932
 10
171.8733809011
 20
128.0387652699
 10
171.6259063198
 20
127.2813518175
 10
171.4752941867
 20
126.4784873268
 10
171.4327147146
 20
125.6897165842
 10
171.5013258282
 20
124.9735391073
  0
LWPOLYLINE
  5
106
330
1F
100
AcDbEntity
  8
0
  6
HIDDEN
 62
     7
370
     0
100
AcDbPolyline
 90
       24
 70
   128
 43
0.0
 10
194.4297480578
 20
125.6994259481
 10
194.2876553926
 20
124.943397535
 10
193.9337672856
 20
124.2514288962
 10
193.3943299987
 20
123.6748401803
 10
192.7093511277
 20
123.2563943345
 10
191.9296324219
 20
123.027125573
 10
191.1130020508
 20
123.0040377109
 10
190.3200257532
 20
123.1888430694
 10
189.6095149533
 20
123.5678354805
 10
189.034164987
 20
124.1129068108
 10
188.636646929
 20
124.7836316132
 10
188.4464428753
 20
125.5302652976
 10
188.4776593904
 20
126.2974334592
 10
188.7279812882
 20
127.028238745
 10
189.1788433387
 20
127.6684806702
 10
189.7968071661
 20
128.17067542
 10
190.5360412203
 20
128.4975775074
 10
191.3417198934
 20
128.6249420999
 10
192.1540896838
 20
128.5433231483
 10
192.9129008406
 20
128.258773957
 10
193.5618758116
 20
127.7923982377
 10
194.0528830921
 20
127.178784944
 10
194.3495069182
 20
126.4634429668
 10
194.4297480578
 20
125.6994259481
  0
LWPOLYLINE
  5
107
330
1F
100
AcDbEntity
  8
0
  6
HIDDEN
 62
     7
370
     0
100
AcDbPolyline
 90
       19
 70
   128
 43
0.0
 10
193.4304782773
 20
125.3933102511
 10
193.2838152947
 20
124.7553226236
 10
192.9137886658
 20
124.2029469319
 10
192.3650290633
 20
123.8028078367
 10
191.703724994
 20
123.6031680182
 10
191.0096394885
 20
123.6281069849
 10
190.3664895024
 20
123.8746167294
 10
189.8518484158
 20
124.3129645384
 10
189.5277895391
 20
124.8902791968
 10
189.4333991554
 20
125.5369280366
 10
189.5800621381
 20
126.1749156641
 10
189.9500887669
 20
126.7272913558
 10
190.4988483694
 20
127.127430451
 10
191.1601524387
 20
127.3270702695
 10
191.8542379442
 20
127.3021313028
 10
192.4973879304
 20
127.0556215583
 10
193.012029017
 20
126.6172737493
 10
193.3360878937
 20
126.0399590909
 10
193.4304782773
 20
125.3933102511
  0
LWPOLYLINE
  5
108
330
1F
100
AcDbEntity
  8
0
  6
HIDDEN
 62
     7
370
     0
100
AcDbPolyline
 90
       24
 70
   128
 43
0.0
 10
194.4297480578
 20
126.958011945
 10
194.2876553926
 20
126.2019835319
 10
193.9337672856
 20
125.5100148931
 10
193.3943299987
 20
124.9334261772
 10
192.7093511277
 20
124.5149803314
 10
191.9296324219
 20
124.2857115699
 10
191.1130020508
 20
124.2626237078
 10
190.3200257532
 20
124.4474290663
 10
189.6095149533
 20
124.8264214774
 10
189.034164987
 20
125.3714928077
 10
188.636646929
 20
126.0422176101
 10
188.4464428753
 20
126.7888512945
 10
188.4776593904
 20
127.5560194561
 10
188.7279812882
 20
128.2868247419
 10
189.1788433387
 20
128.9270666671
 10
189.7968071661
 20
129.4292614169
 10
190.5360412203
 20
129.7561635043
 10
191.3417198934
 20
129.8835280968
 10
192.1540896838
 20
129.8019091452
 10
192.9129008406
 20
129.5173599539
 10
193.5618758116
 20
129.0509842346
 10
194.0528830921
 20
128.4373709409
 10
194.3495069182
 20
127.7220289637
 10
194.4297480578
 20
126.958011945
  0
LINE
  5
109
330
1F
100
AcDbEntity
  8
0
  6
HIDDEN
 62
     7
370
     0
100
AcDbLine
 10
190.6238587719
 20
127.9307833948
 30
0.0
 11
189.7011526861
 21
126.5533678992
 31
0.0
  0
LINE
  5
10A
330
1F
100
AcDbEntity
  8
0
  6
HIDDEN
 62
     7
370
     0
100
AcDbLine
 10
192.3546448021
 20
127.8685950695
 30
0.0
 11
190.6238587719
 21
127.9307833948
 31
0.0
  0
LINE
  5
10B
330
1F
100
AcDbEntity
  8
0
  6
HIDDEN
 62
     7
370
     0
100
AcDbLine
 10
190.6238587719
 20
127.9307833948
 30
0.0
 11
190.6238587719
 21
128.6148236815
 31
0.0
  0
LINE
  5
10C
330
1F
100
AcDbEntity
  8
0
  6
HIDDEN
 62
     7
370
     0
100
AcDbLine
 10
192.3546448021
 20
127.8685950695
 30
0.0
 11
192.3546448021
 21
128.5526353562
 31
0.0
  0
LINE
  5
10D
330
1F
100
AcDbEntity
  8
0
  6
HIDDEN
 62
     7
370
     0
100
AcDbLine
 10
192.3546448021
 20
127.8685950695
 30
0.0
 11
193.1627247466
 21
126.4289912485
 31
0.0
  0
LINE
  5
10E
330
1F
100
AcDbEntity
  8
0
  6
HIDDEN
 62
     7
370
     0
100
AcDbLine
 10
190.5092326306
 20
125.1137640781
 30
0.0
 11
190.5092326306
 21
125.7978043648
 31
0.0
  0
LINE
  5
10F
330
1F
100
AcDbEntity
  8
0
  6
HIDDEN
 62
     7
370
     0
100
AcDbLine
 10
190.5092326306
 20
125.7978043648
 30
0.0
 11
189.7011526861
 21
127.2374081858
 31
0.0
  0
LINE
  5
110
330
1F
100
AcDbEntity
  8
0
  6
HIDDEN
 62
     7
370
     0
100
AcDbLine
 10
190.5092326306
 20
125.1137640781
 30
0.0
 11
189.7011526861
 21
126.5533678992
 31
0.0
  0
LINE
  5
111
330
1F
100
AcDbEntity
  8
0
  6
HIDDEN
 62
     7
370
     0
100
AcDbLine
 10
189.7011526861
 20
126.5533678992
 30
0.0
 11
189.7011526861
 21
127.2374081858
 31
0.0
  0
LINE
  5
112
330
1F
100
AcDbEntity
  8
0
  6
HIDDEN
 62
     7
370
     0
100
AcDbLine
 10
192.2400186609
 20
125.0515757528
 30
0.0
 11
192.2400186609
 21
125.7356160395
 31
0.0
  0
LINE
  5
113
330
1F
100
AcDbEntity
  8
0
  6
HIDDEN
 62
     7
370
     0
100
AcDbLine
 10
192.2400186609
 20
125.7356160395
 30
0.0
 11
193.1627247466
 21
127.1130315352
 31
0.0
  0
LINE
  5
114
330
1F
100
AcDbEntity
  8
0
  6
HIDDEN
 62
     7
370
     0
100
AcDbLine
 10
193.1627247466
 20
126.4289912485
 30
0.0
 11
193.1627247466
 21
127.1130315352
 31
0.0
  0
LINE
  5
115
330
1F
100
AcDbEntity
  8
0
  6
HIDDEN
 62
     7
370
     0
100
AcDbLine
 10
192.2400186609
 20
125.0515757528
 30
0.0
 11
193.1627247466
 21
126.4289912485
 31
0.0
  0
LINE
  5
116
330
1F
100
AcDbEntity
  8
0
  6
HIDDEN
 62
     7
370
     0
100
AcDbLine
 10
192.2400186609
 20
125.7356160395
 30
0.0
 11
190.5092326306
 21
125.7978043648
 31
0.0
  0
LINE
  5
117
330
1F
100
AcDbEntity
  8
0
  6
HIDDEN
 62
     7
370
     0
100
AcDbLine
 10
192.2400186609
 20
125.0515757528
 30
0.0
 11
190.5092326306
 21
125.1137640781
 31
0.0
  0
LWPOLYLINE
  5
118
330
1F
100
AcDbEntity
  8
0
  6
HIDDEN
 62
     7
370
     0
100
AcDbPolyline
 90
       21
 70
   128
 43
0.0
 10
193.8756529645
 20
127.0874155369
 10
193.7271747106
 20
126.3821048254
 10
193.3540227657
 20
125.7544297395
 10
192.792723842
 20
125.2658314898
 10
192.0982217892
 20
124.9641374774
 10
191.3384993069
 20
124.8788796142
 10
190.587923325
 20
125.0184035338
 10
189.9199654503
 20
125.3690516628
 10
189.4000100533
 20
125.8965001194
 10
189.0789539912
 20
126.5491185736
 10
188.9882244682
 20
127.2630241841
 10
189.1367027221
 20
127.9683348956
 10
189.5098546671
 20
128.5960099815
 10
190.0711535907
 20
129.0846082311
 10
190.7656556436
 20
129.3863022435
 10
191.5253781259
 20
129.4715601068
 10
192.2759541077
 20
129.3320361872
 10
192.9439119825
 20
128.9813880581
 10
193.4638673794
 20
128.4539396016
 10
193.7849234415
 20
127.8013211474
 10
193.8756529645
 20
127.0874155369
  0
LINE
  5
119
330
1F
100
AcDbEntity
  8
0
  6
HIDDEN
 62
     7
370
     0
100
AcDbLine
 10
192.3546448021
 20
128.5526353562
 30
0.0
 11
193.1627247466
 21
127.1130315352
 31
0.0
  0
LINE
  5
11A
330
1F
100
AcDbEntity
  8
0
  6
HIDDEN
 62
     7
370
     0
100
AcDbLine
 10
192.3546448021
 20
128.5526353562
 30
0.0
 11
190.6238587719
 21
128.6148236815
 31
0.0
  0
LINE
  5
11B
330
1F
100
AcDbEntity
  8
0
  6
HIDDEN
 62
     7
370
     0
100
AcDbLine
 10
190.6238587719
 20
128.6148236815
 30
0.0
 11
189.7011526861
 21
127.2374081858
 31
0.0
  0
LWPOLYLINE
  5
11C
330
1F
100
AcDbEntity
  8
0
  6
HIDDEN
 62
     7
370
     0
100
AcDbPolyline
 90
       24
 70
   128
 43
0.0
 10
188.4341293749
 20
98.3207155933
 10
188.5143705145
 20
97.5566985746
 10
188.8109943406
 20
96.8413565974
 10
189.3020016211
 20
96.2277433037
 10
189.9509765921
 20
95.7613675844
 10
190.7097877489
 20
95.4768183931
 10
191.5221575394
 20
95.3951994415
 10
192.3278362124
 20
95.522564034
 10
193.0670702667
 20
95.8494661213
 10
193.6850340941
 20
96.3516608712
 10
194.1358961445
 20
96.9919027964
 10
194.3862180423
 20
97.7227080822
 10
194.4174345574
 20
98.4898762437
 10
194.2272305037
 20
99.2365099281
 10
193.8297124458
 20
99.9072347306
 10
193.2543624794
 20
100.4523060609
 10
192.5438516796
 20
100.8312984719
 10
191.7508753819
 20
101.0161038305
 10
190.9342450108
 20
100.9930159684
 10
190.154526305
 20
100.7637472069
 10
189.4695474341
 20
100.3453013611
 10
188.9301101472
 20
99.7687126451
 10
188.5762220401
 20
99.0767440064
 10
188.4341293749
 20
98.3207155933
  0
LWPOLYLINE
  5
11D
330
1F
100
AcDbEntity
  8
0
  6
HIDDEN
 62
     7
370
     0
100
AcDbPolyline
 90
       24
 70
   128
 43
0.0
 10
188.4341293749
 20
99.5793015902
 10
188.5143705145
 20
98.8152845715
 10
188.8109943406
 20
98.0999425943
 10
189.3020016211
 20
97.4863293006
 10
189.9509765921
 20
97.0199535813
 10
190.7097877489
 20
96.73540439
 10
191.5221575394
 20
96.6537854384
 10
192.3278362124
 20
96.7811500309
 10
193.0670702667
 20
97.1080521182
 10
193.6850340941
 20
97.6102468681
 10
194.1358961445
 20
98.2504887933
 10
194.3862180423
 20
98.9812940791
 10
194.4174345574
 20
99.7484622407
 10
194.2272305037
 20
100.495095925
 10
193.8297124458
 20
101.1658207275
 10
193.2543624794
 20
101.7108920578
 10
192.5438516796
 20
102.0898844689
 10
191.7508753819
 20
102.2746898274
 10
190.9342450108
 20
102.2516019653
 10
190.154526305
 20
102.0223332038
 10
189.4695474341
 20
101.603887358
 10
188.9301101472
 20
101.027298642
 10
188.5762220401
 20
100.3353300033
 10
188.4341293749
 20
99.5793015902
  0
LINE
  5
11E
330
1F
100
AcDbEntity
  8
0
  6
HIDDEN
 62
     7
370
     0
100
AcDbLine
 10
190.6238587719
 20
100.2271517855
 30
0.0
 11
190.6238587719
 21
99.5431114988
 31
0.0
  0
LINE
  5
11F
330
1F
100
AcDbEntity
  8
0
  6
HIDDEN
 62
     7
370
     0
100
AcDbLine
 10
192.3546448021
 20
100.1649634601
 30
0.0
 11
192.3546448021
 21
99.4809231735
 31
0.0
  0
LINE
  5
120
330
1F
100
AcDbEntity
  8
0
  6
HIDDEN
 62
     7
370
     0
100
AcDbLine
 10
189.9100638703
 20
98.4775585851
 30
0.0
 11
189.7011526861
 21
98.8497362898
 31
0.0
  0
LINE
  5
121
330
1F
100
AcDbEntity
  8
0
  6
HIDDEN
 62
     7
370
     0
100
AcDbLine
 10
189.7011526861
 20
98.8497362898
 30
0.0
 11
189.7011526861
 21
98.1656960031
 31
0.0
  0
LINE
  5
122
330
1F
100
AcDbEntity
  8
0
  6
HIDDEN
 62
     7
370
     0
100
AcDbLine
 10
192.9538135625
 20
98.4134970572
 30
0.0
 11
193.1627247466
 21
98.7253596391
 31
0.0
  0
LINE
  5
123
330
1F
100
AcDbEntity
  8
0
  6
HIDDEN
 62
     7
370
     0
100
AcDbLine
 10
193.1627247466
 20
98.7253596391
 30
0.0
 11
193.1627247466
 21
98.0413193525
 31
0.0
  0
LINE
  5
124
330
1F
100
AcDbEntity
  8
0
  6
HIDDEN
 62
     7
370
     0
100
AcDbLine
 10
192.3546448021
 20
100.1649634601
 30
0.0
 11
193.1627247466
 21
98.7253596391
 31
0.0
  0
LINE
  5
125
330
1F
100
AcDbEntity
  8
0
  6
HIDDEN
 62
     7
370
     0
100
AcDbLine
 10
190.6238587719
 20
100.2271517855
 30
0.0
 11
192.3546448021
 21
100.1649634601
 31
0.0
  0
LINE
  5
126
330
1F
100
AcDbEntity
  8
0
  6
HIDDEN
 62
     7
370
     0
100
AcDbLine
 10
190.6238587719
 20
100.2271517855
 30
0.0
 11
189.7011526861
 21
98.8497362898
 31
0.0
  0
LWPOLYLINE
  5
127
330
1F
100
AcDbEntity
  8
0
  6
HIDDEN
 62
     7
370
     0
100
AcDbPolyline
 90
       19
 70
   128
 43
0.0
 10
189.4333991554
 20
99.8854172872
 10
189.5277895391
 20
99.2387684474
 10
189.8518484158
 20
98.661453789
 10
190.3664895024
 20
98.22310598
 10
191.0096394885
 20
97.9765962355
 10
191.7037249941
 20
97.9516572688
 10
192.3650290633
 20
98.1512970873
 10
192.9137886658
 20
98.5514361825
 10
193.2838152947
 20
99.1038118742
 10
193.4304782773
 20
99.7417995017
 10
193.3360878937
 20
100.3884483415
 10
193.012029017
 20
100.9657629999
 10
192.4973879304
 20
101.4041108089
 10
191.8542379442
 20
101.6506205534
 10
191.1601524387
 20
101.6755595201
 10
190.4988483694
 20
101.4759197016
 10
189.9500887669
 20
101.0757806063
 10
189.5800621381
 20
100.5234049147
 10
189.4333991554
 20
99.8854172872
  0
LWPOLYLINE
  5
128
330
1F
100
AcDbEntity
  8
0
  6
HIDDEN
 62
     7
370
     0
100
AcDbPolyline
 90
       20
 70
   128
 43
0.0
 10
172.0300187298
 20
100.0696046605
 10
171.9190583729
 20
99.5348291067
 10
171.9178593176
 20
98.8998566138
 10
172.0265515003
 20
98.233496304
 10
172.2333564363
 20
97.6079586564
 10
172.515863602
 20
97.0910303815
 10
172.8434589624
 20
96.7387286788
 10
173.1806424771
 20
96.5892309042
 10
173.4908750802
 20
96.6587374614
 10
173.7405382556
 20
96.9397162364
 10
173.9025771241
 20
97.4017188191
 10
173.9594322602
 20
97.9946800609
 10
173.9049425276
 20
98.6543434105
 10
173.7450127343
 20
99.3092241083
 10
173.496973755
 20
99.8883556692
 10
173.1877044619
 20
100.3289802024
 10
172.8507189817
 20
100.5833492026
 10
172.5225349199
 20
100.6238978419
 10
172.2387161121
 20
100.4462320459
 10
172.0300187298
 20
100.0696046605
  0
LWPOLYLINE
  5
129
330
1F
100
AcDbEntity
  8
0
  6
HIDDEN
 62
     7
370
     0
100
AcDbPolyline
 90
       22
 70
   128
 43
0.0
 10
172.0572124554
 20
100.4295655751
 10
171.9294515966
 20
99.8474331899
 10
171.9105362192
 20
99.1592719145
 10
172.0021470375
 20
98.426227898
 10
172.1961440281
 20
97.7134353182
 10
172.4752897072
 20
97.084228924
 10
172.8147807562
 20
96.5945164646
 10
173.1844519055
 20
96.2878110411
 10
173.5514562512
 20
96.1913647764
 10
173.8831838467
 20
96.3137473444
 10
174.1501592393
 20
96.6440845167
 10
174.3286604938
 20
97.153024386
 10
174.4028269904
 20
97.7953454115
 10
174.3660687104
 20
98.5139745512
 10
174.2216517882
 20
99.2450584525
 10
173.9824083012
 20
99.9236371023
 10
173.6695960832
 20
100.4894158099
 10
173.3110098723
 20
100.892122654
 10
172.9385116272
 20
101.0959753644
 10
172.5851994515
 20
101.0828607332
 10
172.2824666825
 20
100.8539440529
 10
172.0572124554
 20
100.4295655751
  0
LWPOLYLINE
  5
12A
330
1F
100
AcDbEntity
  8
0
  6
HIDDEN
 62
     7
370
     0
100
AcDbPolyline
 90
       22
 70
   128
 43
0.0
 10
175.5153204215
 20
101.1124223233
 10
175.3875595627
 20
100.5302899382
 10
175.3686441853
 20
99.8421286627
 10
175.4602550035
 20
99.1090846462
 10
175.6542519942
 20
98.3962920664
 10
175.9333976733
 20
97.7670856722
 10
176.2728887223
 20
97.2773732128
 10
176.6425598716
 20
96.9706677893
 10
177.0095642173
 20
96.8742215246
 10
177.3412918128
 20
96.9966040926
 10
177.6082672054
 20
97.3269412649
 10
177.7867684599
 20
97.8358811342
 10
177.8609349565
 20
98.4782021597
 10
177.8241766764
 20
99.1968312994
 10
177.6797597543
 20
99.9279152007
 10
177.4405162673
 20
100.6064938506
 10
177.1277040492
 20
101.1722725581
 10
176.7691178384
 20
101.5749794022
 10
176.3966195933
 20
101.7788321127
 10
176.0433074176
 20
101.7657174814
 10
175.7405746486
 20
101.5368008011
 10
175.5153204215
 20
101.1124223233
  0
LINE
  5
12B
330
1F
100
AcDbEntity
  8
0
  6
HIDDEN
 62
     7
370
     0
100
AcDbLine
 10
172.9492668392
 20
97.2440054052
 30
0.0
 11
173.5654225935
 21
97.5851694328
 31
0.0
  0
LINE
  5
12C
330
1F
100
AcDbEntity
  8
0
  6
HIDDEN
 62
     7
370
     0
100
AcDbLine
 10
173.5480944707
 20
98.9513729942
 30
0.0
 11
173.5654225935
 21
97.5851694328
 31
0.0
  0
LINE
  5
12D
330
1F
100
AcDbEntity
  8
0
  6
HIDDEN
 62
     7
370
     0
100
AcDbLine
 10
172.9146105935
 20
99.9764125279
 30
0.0
 11
173.5480944707
 21
98.9513729942
 31
0.0
  0
LINE
  5
12E
330
1F
100
AcDbEntity
  8
0
  6
HIDDEN
 62
     7
370
     0
100
AcDbLine
 10
172.9146105935
 20
99.9764125279
 30
0.0
 11
172.2984548392
 21
99.6352485003
 31
0.0
  0
LINE
  5
12F
330
1F
100
AcDbEntity
  8
0
  6
HIDDEN
 62
     7
370
     0
100
AcDbLine
 10
172.3157829621
 20
98.2690449389
 30
0.0
 11
172.2984548392
 21
99.6352485003
 31
0.0
  0
LINE
  5
130
330
1F
100
AcDbEntity
  8
0
  6
HIDDEN
 62
     7
370
     0
100
AcDbLine
 10
172.3157829621
 20
98.2690449389
 30
0.0
 11
172.9492668392
 21
97.2440054052
 31
0.0
  0
LINE
  5
131
330
1F
100
AcDbEntity
  8
0
  6
HIDDEN
 62
     7
370
     0
100
AcDbLine
 10
175.2801452782
 20
99.2933931375
 30
0.0
 11
173.5480944707
 21
98.9513729942
 31
0.0
  0
LWPOLYLINE
  5
132
330
1F
100
AcDbEntity
  8
0
  6
HIDDEN
 62
     7
370
     0
100
AcDbPolyline
 90
       18
 70
   128
 43
0.0
 10
176.4940073526
 20
100.7080537114
 10
176.3944475789
 20
100.1923899583
 10
176.4120644449
 20
99.578523184
 10
176.5444786952
 20
98.9493594979
 10
176.7738070515
 20
98.3898709421
 10
177.0690774486
 20
97.9756195464
 10
177.3904119832
 20
97.7625522571
 10
177.6944126458
 20
97.7794449923
 10
177.9400224625
 20
98.0240162946
 10
178.0940704664
 20
98.4632354543
 10
178.1357516211
 20
99.0377834901
 10
178.0594366557
 20
99.6700645062
 10
177.8754323291
 20
100.2746854476
 10
177.6085894452
 20
100.769988906
 10
177.2949466141
 20
101.0890814047
 10
176.9768630382
 20
101.1888677336
 10
176.6972976668
 20
101.055871196
 10
176.4940073526
 20
100.7080537114
  0
LINE
  5
133
330
1F
100
AcDbEntity
  8
0
  6
HIDDEN
 62
     7
370
     0
100
AcDbLine
 10
175.2974734011
 20
97.9271895761
 30
0.0
 11
173.5654225935
 21
97.5851694328
 31
0.0
  0
LINE
  5
134
330
1F
100
AcDbEntity
  8
0
  6
HIDDEN
 62
     7
370
     0
100
AcDbLine
 10
174.6466614011
 20
100.3184326713
 30
0.0
 11
174.0305056468
 21
99.9772686436
 31
0.0
  0
LINE
  5
135
330
1F
100
AcDbEntity
  8
0
  6
HIDDEN
 62
     7
370
     0
100
AcDbLine
 10
174.0478337696
 20
98.6110650822
 30
0.0
 11
174.6813176468
 21
97.5860255485
 31
0.0
  0
LINE
  5
136
330
1F
100
AcDbEntity
  8
0
  6
HIDDEN
 62
     7
370
     0
100
AcDbLine
 10
174.0478337696
 20
98.6110650822
 30
0.0
 11
174.0305056468
 21
99.9772686436
 31
0.0
  0
LINE
  5
137
330
1F
100
AcDbEntity
  8
0
  6
HIDDEN
 62
     7
370
     0
100
AcDbLine
 10
174.6813176468
 20
97.5860255485
 30
0.0
 11
175.2974734011
 21
97.9271895761
 31
0.0
  0
LINE
  5
138
330
1F
100
AcDbEntity
  8
0
  6
HIDDEN
 62
     7
370
     0
100
AcDbLine
 10
174.6466614011
 20
100.3184326713
 30
0.0
 11
175.2801452782
 21
99.2933931375
 31
0.0
  0
LINE
  5
139
330
1F
100
AcDbEntity
  8
0
  6
HIDDEN
 62
     7
370
     0
100
AcDbLine
 10
175.2801452782
 20
99.2933931375
 30
0.0
 11
175.2974734011
 21
97.9271895761
 31
0.0
  0
LINE
  5
13A
330
1F
100
AcDbEntity
  8
0
  6
HIDDEN
 62
     7
370
     0
100
AcDbLine
 10
174.0305056468
 20
99.9772686436
 30
0.0
 11
172.2984548392
 21
99.6352485003
 31
0.0
  0
LINE
  5
13B
330
1F
100
AcDbEntity
  8
0
  6
HIDDEN
 62
     7
370
     0
100
AcDbLine
 10
174.6466614011
 20
100.3184326713
 30
0.0
 11
172.9146105935
 21
99.9764125279
 31
0.0
  0
LINE
  5
13C
330
1F
100
AcDbEntity
  8
0
  6
HIDDEN
 62
     7
370
     0
100
AcDbLine
 10
174.0478337696
 20
98.6110650822
 30
0.0
 11
172.3157829621
 21
98.2690449389
 31
0.0
  0
LINE
  5
13D
330
1F
100
AcDbEntity
  8
0
  6
HIDDEN
 62
     7
370
     0
100
AcDbLine
 10
174.6813176468
 20
97.5860255485
 30
0.0
 11
172.9492668392
 21
97.2440054052
 31
0.0
  0
LWPOLYLINE
  5
13E
330
1F
100
AcDbEntity
  8
0
  6
HIDDEN
 62
     7
370
     0
100
AcDbPolyline
 90
       22
 70
   128
 43
0.0
 10
177.7097729434
 20
125.4662906937
 10
177.4845187163
 20
124.77503269
 10
177.1817859473
 20
124.1874404862
 10
176.8284737716
 20
123.7557242281
 10
176.4559755265
 20
123.5182437999
 10
176.0973893157
 20
123.4961003798
 10
175.7845770976
 20
123.6912615078
 10
175.5453336106
 20
124.0863862612
 10
175.4009166885
 20
124.6463660717
 10
175.3641584084
 20
125.3214442758
 10
175.438324905
 20
126.0516372125
 10
175.6168261595
 20
126.7720640349
 10
175.8838015521
 20
127.4187116583
 10
176.2155291476
 20
127.9341226037
 10
176.5825334933
 20
128.2725003466
 10
176.9522046426
 20
128.4037785397
 10
177.2916956916
 20
128.3162925395
 10
177.5708413707
 20
128.0178158609
 10
177.7648383614
 20
127.5348694667
 10
177.8564491796
 20
126.9103652634
 10
177.8375338022
 20
126.19979319
 10
177.7097729434
 20
125.4662906937
  0
LWPOLYLINE
  5
13F
330
1F
100
AcDbEntity
  8
0
  6
HIDDEN
 62
     7
370
     0
100
AcDbPolyline
 90
       18
 70
   128
 43
0.0
 10
178.030124118
 20
125.480663662
 10
177.8268338038
 20
124.8919893315
 10
177.5472684324
 20
124.42776583
 10
177.2291848564
 20
124.150689114
 10
176.9155420254
 20
124.098179929
 10
176.6486991415
 20
124.2773299316
 10
176.4646948149
 20
124.6639439212
 10
176.3883798494
 20
125.2058075362
 10
176.4300610041
 20
125.8297390928
 10
176.5841090081
 20
126.451473177
 10
176.8297188248
 20
126.9870411556
 10
177.1337194874
 20
127.3641116053
 10
177.455054022
 20
127.5317590725
 10
177.7503244191
 20
127.4673418378
 10
177.9796527754
 20
127.1795598058
 10
178.1120670257
 20
126.7072795344
 10
178.1296838917
 20
126.1142850913
 10
178.030124118
 20
125.480663662
  0
LWPOLYLINE
  5
140
330
1F
100
AcDbEntity
  8
0
  6
HIDDEN
 62
     7
370
     0
100
AcDbPolyline
 90
       22
 70
   128
 43
0.0
 10
174.2516649773
 20
126.1491474419
 10
174.0264107502
 20
125.4578894382
 10
173.7236779813
 20
124.8702972344
 10
173.3703658056
 20
124.4385809763
 10
172.9978675604
 20
124.2011005481
 10
172.6392813496
 20
124.178957128
 10
172.3264691315
 20
124.374118256
 10
172.0872256445
 20
124.7692430094
 10
171.9428087224
 20
125.32922282
 10
171.9060504423
 20
126.0043010241
 10
171.9802169389
 20
126.7344939607
 10
172.1587181934
 20
127.4549207831
 10
172.425693586
 20
128.1015684065
 10
172.7574211815
 20
128.6169793519
 10
173.1244255272
 20
128.9553570948
 10
173.4940966765
 20
129.086635288
 10
173.8335877255
 20
128.9991492877
 10
174.1127334046
 20
128.7006726091
 10
174.3067303953
 20
128.2177262149
 10
174.3983412135
 20
127.5932220116
 10
174.3794258361
 20
126.8826499383
 10
174.2516649773
 20
126.1491474419
  0
LWPOLYLINE
  5
141
330
1F
100
AcDbEntity
  8
0
  6
HIDDEN
 62
     7
370
     0
100
AcDbPolyline
 90
       20
 70
   128
 43
0.0
 10
173.8338587029
 20
126.2777109413
 10
173.6251613207
 20
125.6538204562
 10
173.3413425128
 20
125.1398882565
 10
173.0131584511
 20
124.7916068707
 10
172.6761729708
 20
124.6467179909
 10
172.3669036777
 20
124.7209225756
 10
172.1188646985
 20
125.0061794065
 10
171.9589349052
 20
125.4715764797
 10
171.9044451726
 20
126.0666808012
 10
171.9613003086
 20
126.7270035835
 10
172.1233391772
 20
127.3809886073
 10
172.3730023525
 20
127.9577664477
 10
172.6832349556
 20
128.394834276
 10
173.0204184703
 20
128.6448290111
 10
173.3480138307
 20
128.6806598445
 10
173.6305209964
 20
128.4984439495
 10
173.8373259325
 20
128.1179272455
 10
173.9460181151
 20
127.5803446218
 10
173.9448190598
 20
126.9439514972
 10
173.8338587029
 20
126.2777109413
  0
LINE
  5
142
330
1F
100
AcDbEntity
  8
0
  6
HIDDEN
 62
     7
370
     0
100
AcDbLine
 10
174.0478337696
 20
125.2553176652
 30
0.0
 11
174.0305056468
 21
126.6009909961
 31
0.0
  0
LINE
  5
143
330
1F
100
AcDbEntity
  8
0
  6
HIDDEN
 62
     7
370
     0
100
AcDbLine
 10
174.0305056468
 20
126.6009909961
 30
0.0
 11
172.2984548392
 21
126.9430111394
 31
0.0
  0
LINE
  5
144
330
1F
100
AcDbEntity
  8
0
  6
HIDDEN
 62
     7
370
     0
100
AcDbLine
 10
174.6466614011
 20
127.6721717593
 30
0.0
 11
174.0305056468
 21
126.6009909961
 31
0.0
  0
LINE
  5
145
330
1F
100
AcDbEntity
  8
0
  6
HIDDEN
 62
     7
370
     0
100
AcDbLine
 10
172.9146105935
 20
128.0141919026
 30
0.0
 11
172.2984548392
 21
126.9430111394
 31
0.0
  0
LINE
  5
146
330
1F
100
AcDbEntity
  8
0
  6
HIDDEN
 62
     7
370
     0
100
AcDbLine
 10
172.3157829621
 20
125.5973378085
 30
0.0
 11
172.2984548392
 21
126.9430111394
 31
0.0
  0
LINE
  5
147
330
1F
100
AcDbEntity
  8
0
  6
HIDDEN
 62
     7
370
     0
100
AcDbLine
 10
172.9492668392
 20
125.3228452409
 30
0.0
 11
172.3157829621
 21
125.5973378085
 31
0.0
  0
LINE
  5
148
330
1F
100
AcDbEntity
  8
0
  6
HIDDEN
 62
     7
370
     0
100
AcDbLine
 10
174.0478337696
 20
125.2553176652
 30
0.0
 11
172.3157829621
 21
125.5973378085
 31
0.0
  0
LINE
  5
149
330
1F
100
AcDbEntity
  8
0
  6
HIDDEN
 62
     7
370
     0
100
AcDbLine
 10
174.6813176468
 20
124.9808250975
 30
0.0
 11
174.0478337696
 21
125.2553176652
 31
0.0
  0
LINE
  5
14A
330
1F
100
AcDbEntity
  8
0
  6
HIDDEN
 62
     7
370
     0
100
AcDbLine
 10
175.2801452782
 20
127.3976791916
 30
0.0
 11
173.5480944707
 21
127.7396993349
 31
0.0
  0
LINE
  5
14B
330
1F
100
AcDbEntity
  8
0
  6
HIDDEN
 62
     7
370
     0
100
AcDbLine
 10
173.5480944707
 20
127.7396993349
 30
0.0
 11
172.9146105935
 21
128.0141919026
 31
0.0
  0
LINE
  5
14C
330
1F
100
AcDbEntity
  8
0
  6
HIDDEN
 62
     7
370
     0
100
AcDbLine
 10
174.6466614011
 20
127.6721717593
 30
0.0
 11
172.9146105935
 21
128.0141919026
 31
0.0
  0
LINE
  5
14D
330
1F
100
AcDbEntity
  8
0
  6
HIDDEN
 62
     7
370
     0
100
AcDbLine
 10
175.2801452782
 20
127.3976791916
 30
0.0
 11
174.6466614011
 21
127.6721717593
 31
0.0
  0
LINE
  5
14E
330
1F
100
AcDbEntity
  8
0
  6
HIDDEN
 62
     7
370
     0
100
AcDbLine
 10
175.2974734011
 20
126.0520058607
 30
0.0
 11
173.5654225935
 21
126.3940260041
 31
0.0
  0
LINE
  5
14F
330
1F
100
AcDbEntity
  8
0
  6
HIDDEN
 62
     7
370
     0
100
AcDbLine
 10
174.6813176468
 20
124.9808250975
 30
0.0
 11
172.9492668392
 21
125.3228452409
 31
0.0
  0
LINE
  5
150
330
1F
100
AcDbEntity
  8
0
  6
HIDDEN
 62
     7
370
     0
100
AcDbLine
 10
172.9492668392
 20
125.3228452409
 30
0.0
 11
173.5654225935
 21
126.3940260041
 31
0.0
  0
LINE
  5
151
330
1F
100
AcDbEntity
  8
0
  6
HIDDEN
 62
     7
370
     0
100
AcDbLine
 10
174.6813176468
 20
124.9808250975
 30
0.0
 11
175.2974734011
 21
126.0520058607
 31
0.0
  0
LINE
  5
152
330
1F
100
AcDbEntity
  8
0
  6
HIDDEN
 62
     7
370
     0
100
AcDbLine
 10
173.5480944707
 20
127.7396993349
 30
0.0
 11
173.5654225935
 21
126.3940260041
 31
0.0
  0
LINE
  5
153
330
1F
100
AcDbEntity
  8
0
  6
HIDDEN
 62
     7
370
     0
100
AcDbLine
 10
175.2801452782
 20
127.3976791916
 30
0.0
 11
175.2974734011
 21
126.0520058607
 31
0.0
  0
LINE
  5
154
330
1F
100
AcDbEntity
  8
0
  6
HIDDEN
 62
     7
370
     0
100
AcDbLine
 10
171.2319387164
 20
95.2165881663
 30
0.0
 11
173.513112595
 21
95.6670411285
 31
0.0
  0
LINE
  5
155
330
1F
100
AcDbEntity
  8
0
  6
HIDDEN
 62
     7
370
     0
100
AcDbLine
 10
172.3507648378
 20
101.5533768046
 30
0.0
 11
171.2319387164
 21
101.3324473326
 31
0.0
  0
LINE
  5
156
330
1F
100
AcDbEntity
  8
0
  6
HIDDEN
 62
     7
370
     0
100
AcDbLine
 10
193.9319387164
 20
98.1036688599
 30
0.0
 11
193.9319387164
 21
111.186006665
 31
0.0
  0
LINE
  5
157
330
1F
100
AcDbEntity
  8
0
  6
HIDDEN
 62
     7
370
     0
100
AcDbLine
 10
188.9319387164
 20
100.9404898193
 30
0.0
 11
188.9319387164
 21
98.1035403317
 31
0.0
  0
LINE
  5
158
330
1F
100
AcDbEntity
  8
0
  6
HIDDEN
 62
     7
370
     0
100
AcDbLine
 10
188.9319387164
 20
111.1870668309
 30
0.0
 11
188.9319387164
 21
102.5986209268
 31
0.0
  0
LINE
  5
159
330
1F
100
AcDbEntity
  8
0
  6
HIDDEN
 62
     7
370
     0
100
AcDbLine
 10
173.6224471536
 20
96.6060097982
 30
0.0
 11
189.8483684675
 21
99.8100681948
 31
0.0
  0
LINE
  5
15A
330
1F
100
AcDbEntity
  8
0
  6
HIDDEN
 62
     7
370
     0
100
AcDbLine
 10
189.8468080569
 20
104.0908614841
 30
0.0
 11
172.8088037235
 21
100.7264447714
 31
0.0
  0
ARC
  5
15B
330
1F
100
AcDbEntity
  8
0
  6
HIDDEN
 62
     7
370
     0
100
AcDbCircle
 10
67.6319387164
 20
98.9393637691
 30
0.0
 40
1.200000000000017
100
AcDbArc
 50
90.0
 51
180.0
  0
ARC
  5
15C
330
1F
100
AcDbEntity
  8
0
  6
HIDDEN
 62
     7
370
     0
100
AcDbCircle
 10
67.6319387164
 20
126.3393637691
 30
0.0
 40
1.200000000000017
100
AcDbArc
 50
180.0
 51
270.0
  0
ARC
  5
15D
330
1F
100
AcDbEntity
  8
0
  6
HIDDEN
 62
     7
370
     0
100
AcDbCircle
 10
199.2319387164
 20
75.3393637691
 30
0.0
 40
2.0
100
AcDbArc
 50
0.0
 51
90.0
  0
LINE
  5
15E
330
1F
100
AcDbEntity
  8
0
  6
HIDDEN
 62
     7
370
     0
100
AcDbLine
 10
201.2319387164
 20
63.539148382
 30
0.0
 11
201.2319387164
 21
75.3393637691
 31
0.0
  0
LINE
  5
15F
330
1F
100
AcDbEntity
  8
0
  6
HIDDEN
 62
     7
370
     0
100
AcDbLine
 10
201.2319387164
 20
149.9393637691
 30
0.0
 11
201.2319387164
 21
161.7394671197
 31
0.0
  0
ARC
  5
160
330
1F
100
AcDbEntity
  8
0
  6
HIDDEN
 62
     7
370
     0
100
AcDbCircle
 10
199.2319387164
 20
149.9393637691
 30
0.0
 40
2.0
100
AcDbArc
 50
270.0
 51
0.0
  0
LINE
  5
161
330
1F
100
AcDbEntity
  8
0
  6
HIDDEN
 62
     7
370
     0
100
AcDbLine
 10
77.3243111471
 20
99.9143637691
 30
0.0
 11
78.2009986087
 21
99.9143637691
 31
0.0
  0
LINE
  5
162
330
1F
100
AcDbEntity
  8
0
  6
HIDDEN
 62
     7
370
     0
100
AcDbLine
 10
78.2009986087
 20
125.3643637691
 30
0.0
 11
77.3243111471
 21
125.3643637691
 31
0.0
  0
ARC
  5
163
330
1F
100
AcDbEntity
  8
0
  6
HIDDEN
 62
     7
370
     0
100
AcDbCircle
 10
78.2009986087
 20
100.3143637691
 30
0.0
 40
0.4000000000000057
100
AcDbArc
 50
270.0
 51
330.0
  0
ARC
  5
164
330
1F
100
AcDbEntity
  8
0
  6
HIDDEN
 62
     7
370
     0
100
AcDbCircle
 10
78.2009986087
 20
124.9643637691
 30
0.0
 40
0.4000000000000199
100
AcDbArc
 50
30.0
 51
90.0
  0
ARC
  5
165
330
1F
100
AcDbEntity
  8
0
  6
HIDDEN
 62
     7
370
     0
100
AcDbCircle
 10
77.3243111471
 20
100.3143637691
 30
0.0
 40
0.4000000000000057
100
AcDbArc
 50
255.0
 51
270.0
  0
ARC
  5
166
330
1F
100
AcDbEntity
  8
0
  6
HIDDEN
 62
     7
370
     0
100
AcDbCircle
 10
77.3243111471
 20
124.9643637691
 30
0.0
 40
0.4000000000000199
100
AcDbArc
 50
90.0
 51
105.0
  0
LINE
  5
167
330
1F
100
AcDbEntity
  8
0
  6
HIDDEN
 62
     7
370
     0
100
AcDbLine
 10
77.2207835291
 20
125.3507340997
 30
0.0
 11
76.4319387164
 21
125.1393637691
 31
0.0
  0
LINE
  5
168
330
1F
100
AcDbEntity
  8
0
  6
HIDDEN
 62
     7
370
     0
100
AcDbLine
 10
76.4319387164
 20
100.1393637691
 30
0.0
 11
77.2207835291
 21
99.9279934386
 31
0.0
  0
LINE
  5
169
330
1F
100
AcDbEntity
  8
0
  6
HIDDEN
 62
     7
370
     0
100
AcDbLine
 10
78.5474087702
 20
100.1143637691
 30
0.0
 11
79.7165430653
 21
102.1393637691
 31
0.0
  0
LINE
  5
16A
330
1F
100
AcDbEntity
  8
0
  6
HIDDEN
 62
     7
370
     0
100
AcDbLine
 10
79.7165430653
 20
123.1393637691
 30
0.0
 11
78.5474087702
 21
125.1643637691
 31
0.0
  0
LINE
  5
16B
330
1F
100
AcDbEntity
  8
0
  6
HIDDEN
 62
     7
370
     0
100
AcDbLine
 10
67.6319387164
 20
100.1393637691
 30
0.0
 11
76.4319387164
 21
100.1393637691
 31
0.0
  0
LINE
  5
16C
330
1F
100
AcDbEntity
  8
0
  6
HIDDEN
 62
     7
370
     0
100
AcDbLine
 10
76.4319387164
 20
125.1393637691
 30
0.0
 11
67.6319387164
 21
125.1393637691
 31
0.0
  0
ARC
  5
16D
330
1F
100
AcDbEntity
  8
0
  6
HIDDEN
 62
     7
370
     0
100
AcDbCircle
 10
213.7319387164
 20
123.1393637691
 30
0.0
 40
1.0
100
AcDbArc
 50
90.0
 51
180.0
  0
ARC
  5
16E
330
1F
100
AcDbEntity
  8
0
  6
HIDDEN
 62
     7
370
     0
100
AcDbCircle
 10
213.7319387164
 20
102.1393637691
 30
0.0
 40
1.0
100
AcDbArc
 50
180.0
 51
270.0
  0
LINE
  5
16F
330
1F
100
AcDbEntity
  8
0
  6
HIDDEN
 62
     7
370
     0
100
AcDbLine
 10
214.6002862188
 20
124.1393637691
 30
0.0
 11
213.7319387164
 21
124.1393637691
 31
0.0
  0
LINE
  5
170
330
1F
100
AcDbEntity
  8
0
  6
HIDDEN
 62
     7
370
     0
100
AcDbLine
 10
213.7319387164
 20
101.1393637691
 30
0.0
 11
214.6002862188
 21
101.1393637691
 31
0.0
  0
ARC
  5
171
330
1F
100
AcDbEntity
  8
0
  6
HIDDEN
 62
     7
370
     0
100
AcDbCircle
 10
214.6002862188
 20
123.1393637691
 30
0.0
 40
1.000000000000009
100
AcDbArc
 50
75.0
 51
90.0
  0
ARC
  5
172
330
1F
100
AcDbEntity
  8
0
  6
HIDDEN
 62
     7
370
     0
100
AcDbCircle
 10
214.6002862188
 20
102.1393637691
 30
0.0
 40
1.000000000000009
100
AcDbArc
 50
270.0
 51
285.0
  0
LINE
  5
173
330
1F
100
AcDbEntity
  8
0
  6
HIDDEN
 62
     7
370
     0
100
AcDbLine
 10
214.8591052639
 20
101.1734379429
 30
0.0
 11
216.5979641202
 21
101.6393637691
 31
0.0
  0
LINE
  5
174
330
1F
100
AcDbEntity
  8
0
  6
HIDDEN
 62
     7
370
     0
100
AcDbLine
 10
216.5979641202
 20
123.6393637691
 30
0.0
 11
214.8591052639
 21
124.1052895954
 31
0.0
  0
LINE
  5
175
330
1F
100
AcDbEntity
  8
0
  6
HIDDEN
 62
     7
370
     0
100
AcDbLine
 10
226.6319387164
 20
123.6393637691
 30
0.0
 11
216.5979641202
 21
123.6393637691
 31
0.0
  0
LINE
  5
176
330
1F
100
AcDbEntity
  8
0
  6
HIDDEN
 62
     7
370
     0
100
AcDbLine
 10
216.5979641202
 20
101.6393637691
 30
0.0
 11
226.6319387164
 21
101.6393637691
 31
0.0
  0
LINE
  5
177
330
1F
100
AcDbEntity
  8
0
  6
HIDDEN
 62
     7
370
     0
100
AcDbLine
 10
129.4319387164
 20
102.1393637691
 30
0.0
 11
133.1873175853
 21
108.3893637691
 31
0.0
  0
LINE
  5
178
330
1F
100
AcDbEntity
  8
0
  6
HIDDEN
 62
     7
370
     0
100
AcDbLine
 10
133.1873175853
 20
116.8893637691
 30
0.0
 11
129.4319387164
 21
123.1393637691
 31
0.0
  0
LINE
  5
179
330
1F
100
AcDbEntity
  8
0
  6
HIDDEN
 62
     7
370
     0
100
AcDbLine
 10
79.7165430653
 20
102.1393637691
 30
0.0
 11
129.4319387164
 21
102.1393637691
 31
0.0
  0
LINE
  5
17A
330
1F
100
AcDbEntity
  8
0
  6
HIDDEN
 62
     7
370
     0
100
AcDbLine
 10
129.4319387164
 20
123.1393637691
 30
0.0
 11
79.7165430653
 21
123.1393637691
 31
0.0
  0
LINE
  5
17B
330
1F
100
AcDbEntity
  8
0
  6
HIDDEN
 62
     7
370
     0
100
AcDbLine
 10
201.2319430368
 20
161.6393642928
 30
0.0
 11
202.2319428861
 21
162.6393640717
 31
0.0
  0
LINE
  5
17C
330
1F
100
AcDbEntity
  8
0
  6
HIDDEN
 62
     7
370
     0
100
AcDbLine
 10
202.2319428868
 20
62.6393634659
 30
0.0
 11
201.2319430375
 21
63.6393632447
 31
0.0
  0
LINE
  5
17D
330
1F
100
AcDbEntity
  8
0
  6
HIDDEN
 62
     7
370
     0
100
AcDbLine
 10
237.2319387164
 20
128.8959674014
 30
0.0
 11
236.6763314574
 21
128.3403692142
 31
0.0
  0
LINE
  5
17E
330
1F
100
AcDbEntity
  8
0
  6
HIDDEN
 62
     7
370
     0
100
AcDbLine
 10
236.6767573885
 20
96.937929825
 30
0.0
 11
237.2319387164
 21
96.3827593282
 31
0.0
  0
LINE
  5
17F
330
1F
100
AcDbEntity
  8
0
  6
HIDDEN
 62
     7
370
     0
100
AcDbLine
 10
133.1873175853
 20
108.3893637691
 30
0.0
 11
212.7319387164
 21
108.3893637691
 31
0.0
  0
LINE
  5
180
330
1F
100
AcDbEntity
  8
0
  6
HIDDEN
 62
     7
370
     0
100
AcDbLine
 10
212.7319387164
 20
116.8893637691
 30
0.0
 11
133.1873175853
 21
116.8893637691
 31
0.0
  0
LINE
  5
181
330
1F
100
AcDbEntity
  8
0
  6
HIDDEN
 62
     7
370
     0
100
AcDbLine
 10
236.6867652329
 20
128.3493637691
 30
0.0
 11
226.6319387164
 21
128.3493637691
 31
0.0
  0
LINE
  5
182
330
1F
100
AcDbEntity
  8
0
  6
HIDDEN
 62
     7
370
     0
100
AcDbLine
 10
226.6319387164
 20
96.9293637691
 30
0.0
 11
236.6860407671
 21
96.9293637691
 31
0.0
  0
LINE
  5
183
330
1F
100
AcDbEntity
  8
0
  6
HIDDEN
 62
     7
370
     0
100
AcDbLine
 10
193.9319387164
 20
114.0916607073
 30
0.0
 11
193.9319387164
 21
127.1751872066
 31
0.0
  0
LINE
  5
184
330
1F
100
AcDbEntity
  8
0
  6
HIDDEN
 62
     7
370
     0
100
AcDbLine
 10
188.9319387164
 20
122.6814442471
 30
0.0
 11
188.9319387164
 21
114.0927208733
 31
0.0
  0
LINE
  5
185
330
1F
100
AcDbEntity
  8
0
  6
HIDDEN
 62
     7
370
     0
100
AcDbLine
 10
188.9319387164
 20
127.1750586784
 30
0.0
 11
188.9319387164
 21
124.3324602705
 31
0.0
  0
LINE
  5
186
330
1F
100
AcDbEntity
  8
0
  6
HIDDEN
 62
     7
370
     0
100
AcDbLine
 10
172.8088037235
 20
124.5522827668
 30
0.0
 11
189.8467424409
 21
121.1878790111
 31
0.0
  0
LINE
  5
187
330
1F
100
AcDbEntity
  8
0
  6
HIDDEN
 62
     7
370
     0
100
AcDbLine
 10
189.8425257518
 20
125.4698130778
 30
0.0
 11
173.6224471536
 21
128.6727177401
 31
0.0
  0
LINE
  5
188
330
1F
100
AcDbEntity
  8
0
  6
HIDDEN
 62
     7
370
     0
100
AcDbLine
 10
171.2319387164
 20
123.9462802057
 30
0.0
 11
172.3507648378
 21
123.7253507337
 31
0.0
  0
LINE
  5
189
330
1F
100
AcDbEntity
  8
0
  6
HIDDEN
 62
     7
370
     0
100
AcDbLine
 10
173.513112595
 20
129.6116864098
 30
0.0
 11
171.2319387164
 21
130.0621393719
 31
0.0
  0
LINE
  5
18A
330
1F
100
AcDbEntity
  8
0
  6
HIDDEN
 62
     7
370
     0
100
AcDbLine
 10
188.4319387164
 20
127.0657252841
 30
0.0
 11
188.4319387164
 21
125.8071392872
 31
0.0
  0
LINE
  5
18B
330
1F
100
AcDbEntity
  8
0
  6
HIDDEN
 62
     7
370
     0
100
AcDbLine
 10
194.4319387164
 20
125.8071392872
 30
0.0
 11
194.4319387164
 21
127.0657252841
 31
0.0
  0
LINE
  5
18C
330
1F
100
AcDbEntity
  8
0
  6
HIDDEN
 62
     7
370
     0
100
AcDbLine
 10
194.4319387164
 20
98.2130022542
 30
0.0
 11
194.4319387164
 21
99.4715882511
 31
0.0
  0
LINE
  5
18D
330
1F
100
AcDbEntity
  8
0
  6
HIDDEN
 62
     7
370
     0
100
AcDbLine
 10
188.4319387164
 20
99.4715882511
 30
0.0
 11
188.4319387164
 21
98.2130022542
 31
0.0
  0
LINE
  5
18E
330
1F
100
AcDbEntity
  8
0
  6
HIDDEN
 62
     7
370
     0
100
AcDbLine
 10
171.9044387164
 20
99.3946403547
 30
0.0
 11
171.9044387164
 21
99.2188961293
 31
0.0
  0
LINE
  5
18F
330
1F
100
AcDbEntity
  8
0
  6
HIDDEN
 62
     7
370
     0
100
AcDbLine
 10
172.2129289935
 20
97.6566465247
 30
0.0
 11
172.2797310244
 21
97.4940933904
 31
0.0
  0
LINE
  5
190
330
1F
100
AcDbEntity
  8
0
  6
HIDDEN
 62
     7
370
     0
100
AcDbLine
 10
173.6387502819
 20
96.2015051579
 30
0.0
 11
177.096858248
 21
96.8843619061
 31
0.0
  0
LINE
  5
191
330
1F
100
AcDbEntity
  8
0
  6
HIDDEN
 62
     7
370
     0
100
AcDbLine
 10
176.1282351169
 20
101.7896416361
 30
0.0
 11
172.6701271509
 21
101.1067848879
 31
0.0
  0
LINE
  5
192
330
1F
100
AcDbEntity
  8
0
  6
HIDDEN
 62
     7
370
     0
100
AcDbLine
 10
177.635907719
 20
97.3817498775
 30
0.0
 11
177.9784184609
 21
98.0965829993
 31
0.0
  0
LINE
  5
193
330
1F
100
AcDbEntity
  8
0
  6
HIDDEN
 62
     7
370
     0
100
AcDbLine
 10
177.4044034002
 20
101.0034973106
 30
0.0
 11
176.8158862038
 21
101.5344846079
 31
0.0
  0
LINE
  5
194
330
1F
100
AcDbEntity
  8
0
  6
HIDDEN
 62
     7
370
     0
100
AcDbLine
 10
176.8158862038
 20
123.7442429304
 30
0.0
 11
177.4044034002
 21
124.2752302277
 31
0.0
  0
LINE
  5
195
330
1F
100
AcDbEntity
  8
0
  6
HIDDEN
 62
     7
370
     0
100
AcDbLine
 10
177.9784184609
 20
127.182144539
 30
0.0
 11
177.635907719
 21
127.8969776608
 31
0.0
  0
LINE
  5
196
330
1F
100
AcDbEntity
  8
0
  6
HIDDEN
 62
     7
370
     0
100
AcDbLine
 10
172.6701271509
 20
124.1719426503
 30
0.0
 11
176.1282351169
 21
123.4890859021
 31
0.0
  0
LINE
  5
197
330
1F
100
AcDbEntity
  8
0
  6
HIDDEN
 62
     7
370
     0
100
AcDbLine
 10
177.096858248
 20
128.3943656322
 30
0.0
 11
173.6387502819
 21
129.0772223804
 31
0.0
  0
LINE
  5
198
330
1F
100
AcDbEntity
  8
0
  6
HIDDEN
 62
     7
370
     0
100
AcDbLine
 10
172.2797310244
 20
127.7846341478
 30
0.0
 11
172.2129289935
 21
127.6220810136
 31
0.0
  0
LINE
  5
199
330
1F
100
AcDbEntity
  8
0
  6
HIDDEN
 62
     7
370
     0
100
AcDbLine
 10
171.9044387164
 20
126.059831409
 30
0.0
 11
171.9044387164
 21
125.8840871836
 31
0.0
  0
DIMENSION
  5
19A
330
1F
100
AcDbEntity
  8
VERMASSUNG
100
AcDbDimension
  2
_D
 10
243.1515375068
 20
101.6393637691
 30
0.0
 11
243.1515375068
 21
112.6393637691
 31
0.0
 70
   160
  1
%%c<>
 71
     2
 42
-1.0
  3
SLDDIMSTYLE0
100
AcDbAlignedDimension
 13
226.6319387164
 23
123.6393637691
 33
0.0
 14
226.6319387164
 24
101.6393637691
 34
0.0
 50
90.0
100
AcDbRotatedDimension
  0
DIMENSION
  5
1A6
330
1F
100
AcDbEntity
  8
VERMASSUNG
100
AcDbDimension
  2
_D_1
 10
249.2515375068
 20
93.1393637691
 30
0.0
 11
249.2515375068
 21
112.6393637691
 31
0.0
 70
   160
  1
ST4 %%c<>
 71
     2
 42
-1.0
  3
SLDDIMSTYLE0
100
AcDbAlignedDimension
 13
236.8319387164
 23
132.1393637691
 33
0.0
 14
236.8319387164
 24
93.1393637691
 34
0.0
 50
90.0
100
AcDbRotatedDimension
  0
DIMENSION
  5
1B2
330
1F
100
AcDbEntity
  8
VERMASSUNG
100
AcDbDimension
  2
_D_2
 10
237.2319387164
 20
166.5919169022
 30
0.0
 11
221.7319387164
 21
166.5919169022
 31
0.0
 70
   160
  1
(<>)
 71
     2
 42
-1.0
  3
SLDDIMSTYLE0
100
AcDbAlignedDimension
 13
206.2319387164
 23
161.6393637691
 33
0.0
 14
237.2319387164
 24
131.7393637691
 34
0.0
100
AcDbRotatedDimension
  0
DIMENSION
  5
1BE
330
1F
100
AcDbEntity
  8
VERMASSUNG
100
AcDbDimension
  2
_D_3
 10
237.2319387164
 20
172.5919169022
 30
0.0
 11
202.7319387164
 21
172.5919169022
 31
0.0
 70
   160
  1
<>
 71
     2
 42
-1.0
  3
SLDDIMSTYLE0
100
AcDbAlignedDimension
 13
168.2319387164
 23
147.5643637691
 33
0.0
 14
237.2319387164
 24
131.7393637691
 34
0.0
100
AcDbRotatedDimension
  0
DIMENSION
  5
1C8
330
1F
100
AcDbEntity
  8
VERMASSUNG
100
AcDbDimension
  2
_D_4
 10
237.2319387164
 20
178.5919169022
 30
0.0
 11
151.8319387164
 21
178.5919169022
 31
0.0
 70
   160
  1
(<>)
 71
     2
 42
-1.0
  3
SLDDIMSTYLE0
100
AcDbAlignedDimension
 13
66.4319387164
 23
130.9890416299
 33
0.0
 14
237.2319387164
 24
131.7393637691
 34
0.0
100
AcDbRotatedDimension
  0
DIMENSION
  5
1D4
330
1F
100
AcDbEntity
  8
VERMASSUNG
100
AcDbDimension
  2
_D_5
 10
59.9106148744
 20
62.6393637691
 30
0.0
 11
59.9106148744
 21
112.6393637691
 31
0.0
 70
   160
  1
MAS BT 50 %%c<>
 71
     2
 42
-1.0
  3
SLDDIMSTYLE0
100
AcDbAlignedDimension
 13
202.2319406249
 23
162.6393637691
 33
0.0
 14
202.2319407784
 24
62.6393637691
 34
0.0
 50
90.0
100
AcDbRotatedDimension
  0
LINE
  5
1E0
330
1F
100
AcDbEntity
  8
VERMASSUNG
  6
CENTERX2
370
     0
100
AcDbLine
 10
63.3483726344
 20
112.6393637691
 30
0.0
 11
237.9291687
 21
112.6393637691
 31
0.0
  0
LINE
  5
1E1
330
1F
100
AcDbEntity
  8
VERMASSUNG
  6
CENTERX2
370
     0
100
AcDbLine
 10
169.2698268243
 20
127.3916590412
 30
0.0
 11
193.9786602992
 21
122.5125188165
 31
0.0
  0
LINE
  5
1E2
330
1F
100
AcDbEntity
  8
VERMASSUNG
  6
CENTERX2
370
     0
100
AcDbLine
 10
171.2535135465
 20
98.2787780324
 30
0.0
 11
191.8122745082
 21
102.3384224377
 31
0.0
  0
LINE
  5
1E3
330
1F
100
AcDbEntity
  8
VERMASSUNG
  6
CENTERX2
370
     0
100
AcDbLine
 10
191.4319387164
 20
100.3245837146
 30
0.0
 11
191.4319387164
 21
125.331688336
 31
0.0
  0
LINE
  5
1E4
330
1F
100
AcDbEntity
  8
0
  6
Continuous
 62
     7
370
    15
100
AcDbLine
 10
281.3384194524
 20
43.424883185
 30
0.0
 11
281.2040473336
 21
43.5024797731
 31
0.0
  0
LINE
  5
1E5
330
1F
100
AcDbEntity
  8
0
  6
Continuous
 62
     7
370
    15
100
AcDbLine
 10
278.6439048595
 20
43.5024797731
 30
0.0
 11
278.5095327407
 21
43.424883185
 31
0.0
  0
LINE
  5
1E6
330
1F
100
AcDbEntity
  8
0
  6
Continuous
 62
     7
370
    15
100
AcDbLine
 10
281.9239760965
 20
42.3554801
 30
0.0
 11
281.9239760965
 21
42.6086077517
 31
0.0
  0
LINE
  5
1E7
330
1F
100
AcDbEntity
  8
0
  6
Continuous
 62
     7
370
    15
100
AcDbLine
 10
277.9239760965
 20
42.6086077517
 30
0.0
 11
277.9239760965
 21
42.3554801
 31
0.0
  0
SPLINE
  5
1E8
330
1F
100
AcDbEntity
  8
0
  6
Continuous
 62
     7
370
    15
100
AcDbSpline
210
0.0
220
0.0
230
1.0
 70
     8
 71
     3
 72
    20
 73
    16
 74
     0
 42
0.000000001
 43
0.00000001
 40
0.0
 40
0.0
 40
0.0
 40
0.0
 40
0.0240668360557208
 40
0.1096848578420666
 40
0.1956555396789291
 40
0.2819406079859446
 40
0.3684670975623997
 40
0.455154958675497
 40
0.5419345977313659
 40
0.6287537978189702
 40
0.7155718794760813
 40
0.8023692515619193
 40
0.8891378408251123
 40
0.975875471830459
 40
1.0
 40
1.0
 40
1.0
 40
1.0
 10
263.3666352564431
 20
16.4823825680004
 30
0.0
 10
263.4801433799044
 20
16.46679564935637
 30
0.0
 10
263.9974578435481
 20
16.39575810409253
 30
0.0
 10
264.970781235033
 20
16.41329646328133
 30
0.0
 10
266.279419619873
 20
16.53895982941327
 30
0.0
 10
267.6295083495317
 20
16.81864310415167
 30
0.0
 10
269.0073217247646
 20
17.23694638282482
 30
0.0
 10
270.4051852277374
 20
17.79498379950895
 30
0.0
 10
271.8135666328501
 20
18.48806946021486
 30
0.0
 10
273.2235388371737
 20
19.31159799799151
 30
0.0
 10
274.6258224984632
 20
20.26060325948709
 30
0.0
 10
276.0128252765372
 20
21.3264001891146
 30
0.0
 10
277.3717713377031
 20
22.51112657206752
 30
0.0
 10
278.388362347748
 20
23.46988051328754
 30
0.0
 10
278.9347984427289
 20
24.06107077621453
 30
0.0
 10
279.0537074831475
 20
24.18971869591671
 30
0.0
  0
SPLINE
  5
1E9
330
1F
100
AcDbEntity
  8
0
  6
Continuous
 62
     7
370
    15
100
AcDbSpline
210
0.0
220
0.0
230
1.0
 70
     8
 71
     3
 72
    19
 73
    15
 74
     0
 42
0.000000001
 43
0.00000001
 40
0.0
 40
0.0
 40
0.0
 40
0.0
 40
0.0617738815015544
 40
0.1492031200797322
 40
0.2366706808991026
 40
0.3241801036427409
 40
0.411732124032779
 40
0.4993227767026336
 40
0.5869406199804557
 40
0.6745551689322675
 40
0.7621195695392086
 40
0.8495697834433148
 40
0.936823662879324
 40
1.0
 40
1.0
 40
1.0
 40
1.0
 10
288.6808964686445
 20
40.87028045873044
 30
0.0
 10
288.8043964713351
 20
41.2947122948065
 30
0.0
 10
289.1026873554984
 20
42.31984707125928
 30
0.0
 10
289.4546360570781
 20
43.92791314323307
 30
0.0
 10
289.7508019222229
 20
45.68339425330784
 30
0.0
 10
289.9332704577314
 20
47.39959379702945
 30
0.0
 10
290.0052853437684
 20
49.06649852511981
 30
0.0
 10
289.9646501894451
 20
50.67367124332008
 30
0.0
 10
289.811519772534
 20
52.21118760691252
 30
0.0
 10
289.5458858171895
 20
53.66882922113108
 30
0.0
 10
289.1701590795587
 20
55.03841301538524
 30
0.0
 10
288.6818691767508
 20
56.30549365444133
 30
0.0
 10
288.1536866745525
 20
57.37375327355378
 30
0.0
 10
287.7435830279444
 20
57.96552135809086
 30
0.0
 10
287.5713513658117
 20
58.21404682632273
 30
0.0
  0
LINE
  5
1EA
330
1F
100
AcDbEntity
  8
0
  6
Continuous
 62
     7
370
    15
100
AcDbLine
 10
257.4459474891
 20
18.9120357696
 30
0.0
 11
259.6644950151
 21
17.6312955441
 31
0.0
  0
LINE
  5
1EB
330
1F
100
AcDbEntity
  8
0
  6
Continuous
 62
     7
370
    15
100
AcDbLine
 10
284.662463331
 20
60.9337386632
 30
0.0
 11
282.443915805
 21
62.2144788886
 31
0.0
  0
LINE
  5
1EC
330
1F
100
AcDbEntity
  8
0
  6
Continuous
 62
     7
370
    15
100
AcDbLine
 10
277.1229372766
 20
65.2862144093
 30
0.0
 11
272.9952014414
 21
67.6691055857
 31
0.0
  0
LINE
  5
1ED
330
1F
100
AcDbEntity
  8
0
  6
Continuous
 62
     7
370
    15
100
AcDbLine
 10
283.336886832
 20
24.8722670698
 30
0.0
 11
283.4782852033
 21
24.9539211499
 31
0.0
  0
LINE
  5
1EE
330
1F
100
AcDbEntity
  8
0
  6
Continuous
 62
     7
370
    15
100
AcDbLine
 10
290.2300574323
 20
36.649600943
 30
0.0
 11
290.2300574323
 21
36.8128825654
 31
0.0
  0
LINE
  5
1EF
330
1F
100
AcDbEntity
  8
0
  6
Continuous
 62
     7
370
    15
100
AcDbLine
 10
288.2103701374
 20
41.2768694285
 30
0.0
 11
278.8058499476
 21
46.7059833721
 31
0.0
  0
LINE
  5
1F0
330
1F
100
AcDbEntity
  8
0
  6
Continuous
 62
     7
370
    15
100
AcDbLine
 10
269.0566423044
 20
29.8180305557
 30
0.0
 11
278.4611624942
 21
24.3889166121
 31
0.0
  0
SPLINE
  5
1F1
330
1F
100
AcDbEntity
  8
0
  6
Continuous
 62
     7
370
    15
100
AcDbSpline
210
0.0
220
0.0
230
1.0
 70
     8
 71
     3
 72
    31
 73
    27
 74
     0
 42
0.000000001
 43
0.00000001
 40
0.0
 40
0.0
 40
0.0
 40
0.0
 40
0.0198517640914944
 40
0.0631428801314114
 40
0.1066098735787301
 40
0.150227691914614
 40
0.1939574744107841
 40
0.237759483478393
 40
0.2816005591926499
 40
0.3254565512961088
 40
0.3693081202113365
 40
0.4131478811758238
 40
0.4569726097723102
 40
0.5007817496225031
 40
0.544576394761622
 40
0.5883586162924656
 40
0.6321310394499821
 40
0.675896590832921
 40
0.7196583558263158
 40
0.7634195038878325
 40
0.8071827578594276
 40
0.8509507859154739
 40
0.8947268473424298
 40
0.9385141790382354
 40
0.9823159220601879
 40
1.0
 40
1.0
 40
1.0
 40
1.0
 10
269.2110406699157
 20
68.82240207615479
 30
0.0
 10
269.0240190522006
 20
68.84337839771156
 30
0.0
 10
268.4291558685089
 20
68.91009817896385
 30
0.0
 10
267.3731750028393
 20
68.86930982725292
 30
0.0
 10
266.0537376664535
 20
68.70639798150005
 30
0.0
 10
264.6960341363794
 20
68.39256714271113
 30
0.0
 10
263.3124891939486
 20
67.9398850633642
 30
0.0
 10
261.9112114299258
 20
67.34847883773045
 30
0.0
 10
260.5016039412492
 20
66.62306595212672
 30
0.0
 10
259.0926787745637
 20
65.76836777914433
 30
0.0
 10
257.6933532108564
 20
64.79016944576071
 30
0.0
 10
256.3123151906843
 20
63.69490151415845
 30
0.0
 10
254.9580125303534
 20
62.48962499734314
 30
0.0
 10
253.6386933337847
 20
61.18200670089498
 30
0.0
 10
252.3623833663395
 20
59.78028854014913
 30
0.0
 10
251.1368522040203
 20
58.29324638232923
 30
0.0
 10
249.9695738652599
 20
56.73014612583231
 30
0.0
 10
248.8676879107086
 20
55.10069466545693
 30
0.0
 10
247.8379476399503
 20
53.4149828320928
 30
0.0
 10
246.886719696089
 20
51.68344163599203
 30
0.0
 10
246.019807443796
 20
49.91674799557901
 30
0.0
 10
245.2429223807226
 20
48.12587563243403
 30
0.0
 10
244.5597395761195
 20
46.32155565936435
 30
0.0
 10
243.9790095128224
 20
44.51593954775345
 30
0.0
 10
243.5855728037705
 20
43.07403586979417
 30
0.0
 10
243.4066096378803
 20
42.24253773568979
 30
0.0
 10
243.3551376314168
 20
42.00338865090399
 30
0.0
  0
SPLINE
  5
1F2
330
1F
100
AcDbEntity
  8
0
  6
Continuous
 62
     7
370
    15
100
AcDbSpline
210
0.0
220
0.0
230
1.0
 70
     8
 71
     3
 72
    17
 73
    13
 74
     0
 42
0.000000001
 43
0.00000001
 40
0.0
 40
0.0
 40
0.0
 40
0.0
 40
0.1009857875134677
 40
0.205074582542672
 40
0.3090027579197846
 40
0.4126541835185182
 40
0.5159279324564948
 40
0.6187842001201772
 40
0.7213626298695708
 40
0.8240340434116372
 40
0.9278551084070954
 40
1.0
 40
1.0
 40
1.0
 40
1.0
 10
280.4157581814251
 20
34.098934841245
 30
0.0
 10
280.5628440873814
 20
34.36108440286679
 30
0.0
 10
280.8615354330115
 20
34.89343864039915
 30
0.0
 10
281.4008758165293
 20
35.63003521218705
 30
0.0
 10
281.9912199295841
 20
36.29789579362861
 30
0.0
 10
282.6166533397537
 20
36.86696299155488
 30
0.0
 10
283.2552642931981
 20
37.32267720148248
 30
0.0
 10
283.8867012331221
 20
37.65313382415214
 30
0.0
 10
284.4910494679669
 20
37.85376469126948
 30
0.0
 10
285.0465766091314
 20
37.91873026537816
 30
0.0
 10
285.4971386053591
 20
37.87885147177495
 30
0.0
 10
285.7298197731573
 20
37.76814664251162
 30
0.0
 10
285.825217530496
 20
37.72275838639173
 30
0.0
  0
SPLINE
  5
1F3
330
1F
100
AcDbEntity
  8
0
  6
Continuous
 62
     7
370
    15
100
AcDbSpline
210
0.0
220
0.0
230
1.0
 70
     8
 71
     3
 72
    10
 73
     6
 74
     0
 42
0.000000001
 43
0.00000001
 40
0.0
 40
0.0
 40
0.0
 40
0.0
 40
0.1538239152895839
 40
0.9754028938767598
 40
1.0
 40
1.0
 40
1.0
 40
1.0
 10
279.9540479736532
 20
33.0846177370578
 30
0.0
 10
279.97377388851
 20
33.13717061830619
 30
0.0
 10
280.0988566131267
 20
33.47041029924104
 30
0.0
 10
280.2497452515195
 20
33.81698932640614
 30
0.0
 10
280.4110687425474
 20
34.09097060460742
 30
0.0
 10
280.4157581814251
 20
34.098934841245
 30
0.0
  0
LINE
  5
1F4
330
1F
100
AcDbEntity
  8
0
  6
Continuous
 62
     7
370
    15
100
AcDbLine
 10
279.8769270407
 20
28.7099677206
 30
0.0
 11
279.8151370954
 21
28.7957946232
 31
0.0
  0
SPLINE
  5
1F5
330
1F
100
AcDbEntity
  8
0
  6
Continuous
 62
     7
370
    15
100
AcDbSpline
210
0.0
220
0.0
230
1.0
 70
     8
 71
     3
 72
    10
 73
     6
 74
     0
 42
0.000000001
 43
0.00000001
 40
0.0
 40
0.0
 40
0.0
 40
0.0
 40
0.2069865922145633
 40
0.870186837399334
 40
1.0
 40
1.0
 40
1.0
 40
1.0
 10
280.5634772003827
 20
28.10630544282652
 30
0.0
 10
280.5153034216294
 20
28.12471911789632
 30
0.0
 10
280.3127773172552
 20
28.20213156042436
 30
0.0
 10
280.122157371857
 20
28.36385146589346
 30
0.0
 10
279.9982314577481
 20
28.54070248666243
 30
0.0
 10
279.9779452750926
 20
28.56965230023404
 30
0.0
  0
LINE
  5
1F6
330
1F
100
AcDbEntity
  8
0
  6
Continuous
 62
     7
370
    15
100
AcDbLine
 10
258.5746672356
 20
65.3845688344
 30
0.0
 11
228.2258534293
 21
76.3210783448
 31
0.0
  0
LINE
  5
1F7
330
1F
100
AcDbEntity
  8
0
  6
Continuous
 62
     7
370
    15
100
AcDbLine
 10
218.1164987539
 20
58.8092649739
 30
0.0
 11
247.5802360805
 21
33.9303287485
 31
0.0
  0
LINE
  5
1F8
330
1F
100
AcDbEntity
  8
0
  6
Continuous
 62
     7
370
    15
100
AcDbLine
 10
247.9972331255
 20
24.3666624667
 30
0.0
 11
252.1249689607
 21
21.9837712903
 31
0.0
  0
SPLINE
  5
1F9
330
1F
100
AcDbEntity
  8
0
  6
Continuous
 62
     7
370
    15
100
AcDbSpline
210
0.0
220
0.0
230
1.0
 70
     8
 71
     3
 72
    11
 73
     7
 74
     0
 42
0.000000001
 43
0.00000001
 40
0.0
 40
0.0
 40
0.0
 40
0.0
 40
0.1049073210344181
 40
0.4240564552303849
 40
0.7427196061207827
 40
1.0
 40
1.0
 40
1.0
 40
1.0
 10
243.3416411590226
 20
30.84103781968989
 30
0.0
 10
243.3836265884082
 20
30.69212830251359
 30
0.0
 10
243.5533401239463
 20
30.09020613558368
 30
0.0
 10
243.9314268410784
 20
29.10618464616838
 30
0.0
 10
244.4659203903968
 20
27.99591511698491
 30
0.0
 10
244.8913655521928
 20
27.3700038774787
 30
0.0
 10
245.0814166427813
 20
27.09040235803115
 30
0.0
  0
SPLINE
  5
1FA
330
1F
100
AcDbEntity
  8
0
  6
Continuous
 62
     7
370
    15
100
AcDbSpline
210
0.0
220
0.0
230
1.0
 70
     8
 71
     3
 72
    25
 73
    21
 74
     0
 42
0.000000001
 43
0.00000001
 40
0.0
 40
0.0
 40
0.0
 40
0.0
 40
0.0463904475396444
 40
0.0998645051816306
 40
0.1544804944404835
 40
0.2103946554914906
 40
0.267359481093704
 40
0.3249362906754855
 40
0.3827276361102495
 40
0.4404605099649607
 40
0.4980703822991346
 40
0.5555596632091012
 40
0.6129624653912588
 40
0.6703264113072134
 40
0.7277047155227686
 40
0.7851373053288434
 40
0.8426787427562635
 40
0.9003852033121096
 40
0.9583057185595262
 40
1.0
 40
1.0
 40
1.0
 40
1.0
 10
228.0208013226672
 20
76.38054071543922
 30
0.0
 10
227.7940179502591
 20
76.44109199494021
 30
0.0
 10
227.3058224171249
 20
76.57144045860426
 30
0.0
 10
226.5001464371061
 20
76.59651733676948
 30
0.0
 10
225.6274048836002
 20
76.49430736764074
 30
0.0
 10
224.7231170923473
 20
76.24506796479149
 30
0.0
 10
223.8012646438062
 20
75.85473392988149
 30
0.0
 10
222.876921481135
 20
75.3272103346627
 30
0.0
 10
221.966852405573
 20
74.6725839745386
 30
0.0
 10
221.0862995101042
 20
73.903229648742
 30
0.0
 10
220.2486562823942
 20
73.03288196036524
 30
0.0
 10
219.4656466827017
 20
72.07560858735614
 30
0.0
 10
218.7481016958628
 20
71.04611196962121
 30
0.0
 10
218.1060780184121
 20
69.95968892907051
 30
0.0
 10
217.5488102814273
 20
68.83219613011066
 30
0.0
 10
217.0848447552477
 20
67.67992712355829
 30
0.0
 10
216.720923081162
 20
66.5188652793271
 30
0.0
 10
216.465924435278
 20
65.3661954953891
 30
0.0
 10
216.330438069655
 20
64.34071261797024
 30
0.0
 10
216.3158784986472
 20
63.71878080008934
 30
0.0
 10
216.3097845159114
 20
63.4584680642941
 30
0.0
  0
SPLINE
  5
1FB
330
1F
100
AcDbEntity
  8
0
  6
Continuous
 62
     7
370
    15
100
AcDbSpline
210
0.0
220
0.0
230
1.0
 70
     8
 71
     3
 72
    13
 73
     9
 74
     0
 42
0.000000001
 43
0.00000001
 40
0.0
 40
0.0
 40
0.0
 40
0.0
 40
0.1026951028557759
 40
0.2963554261477985
 40
0.4900063353822784
 40
0.6818040413441955
 40
0.8698489457092753
 40
1.0
 40
1.0
 40
1.0
 40
1.0
 10
216.3097845159114
 20
63.4584680642941
 30
0.0
 10
216.3131996028231
 20
63.26895777845906
 30
0.0
 10
216.3230547907426
 20
62.72207287395771
 30
0.0
 10
216.4335958031374
 20
61.86365627355512
 30
0.0
 10
216.6820914674055
 20
60.92010727925754
 30
0.0
 10
217.059887328974
 20
60.07911277358039
 30
0.0
 10
217.4938088242633
 20
59.40708082096229
 30
0.0
 10
217.8471626613585
 20
59.07692084719616
 30
0.0
 10
217.9916942720989
 20
58.94187617581885
 30
0.0
  0
LWPOLYLINE
  5
1FC
330
1F
100
AcDbEntity
  8
0
  6
Continuous
 62
     7
370
    15
100
AcDbPolyline
 90
       21
 70
   128
 43
0.0
 10
278.2617333506
 20
43.1772469307
 10
278.5644302717
 20
43.4535393071
 10
279.0002090106
 20
43.6623103497
 10
279.5264125082
 20
43.7831240941
 10
280.0915322998
 20
43.8041544493
 10
280.6402505228
 20
43.7233428176
 10
281.1188548143
 20
43.5485996046
 10
281.4804960518
 20
43.2970298934
 10
281.6897742711
 20
42.9932590802
 10
281.7262038621
 20
42.6670223687
 10
281.5862188425
 20
42.3502540812
 10
281.2835219214
 20
42.0739617047
 10
280.8477431825
 20
41.8651906622
 10
280.3215396849
 20
41.7443769177
 10
279.7564198933
 20
41.7233465625
 10
279.2077016703
 20
41.8041581942
 10
278.7290973788
 20
41.9789014072
 10
278.3674561413
 20
42.2304711184
 10
278.158177922
 20
42.5342419316
 10
278.121748331
 20
42.8604786431
 10
278.2617333506
 20
43.1772469307
  0
LWPOLYLINE
  5
1FD
330
1F
100
AcDbEntity
  8
0
  6
Continuous
 62
     7
370
    15
100
AcDbPolyline
 90
        3
 70
   128
 43
0.0
 10
278.0872437806
 20
43.0655098784
 10
278.4021325925
 20
43.3577466886
 10
278.5095327407
 20
43.424883185
  0
LWPOLYLINE
  5
1FE
330
1F
100
AcDbEntity
  8
0
  6
Continuous
 62
     7
370
    15
100
AcDbPolyline
 90
       17
 70
   128
 43
0.0
 10
281.3384194524
 20
43.424883185
 10
281.5277697122
 20
43.2984233394
 10
281.8087280234
 20
42.9948775878
 10
281.9222178548
 20
42.6570100661
 10
281.8581551369
 20
42.3148417864
 10
281.6222321232
 20
41.9987759019
 10
281.2354116089
 20
41.7368962534
 10
280.7320642942
 20
41.552471997
 10
280.1569147969
 20
41.4618900372
 10
279.5610676738
 20
41.4731989786
 10
278.9974665567
 20
41.5853939721
 10
278.5161898781
 20
41.7885060003
 10
278.160001183
 20
42.064487668
 10
277.9605494
 20
42.388816793
 10
277.9355566954
 20
42.7326753092
 10
278.0872437806
 20
43.0655098784
 10
278.0872437806
 20
43.0655098784
  0
LWPOLYLINE
  5
1FF
330
1F
100
AcDbEntity
  8
0
  6
Continuous
 62
     7
370
    15
100
AcDbPolyline
 90
       17
 70
   128
 43
0.0
 10
278.821936707
 20
43.037891782
 10
279.0875524313
 20
43.2604848461
 10
279.4805060764
 20
43.4074546098
 10
279.9409740121
 20
43.4564262589
 10
280.3988541692
 20
43.3999443038
 10
280.7844384445
 20
43.24660761
 10
281.0390251274
 20
43.0197602992
 10
281.1238557034
 20
42.7539378182
 10
281.0260154861
 20
42.4896092299
 10
280.7603997618
 20
42.2670161657
 10
280.3674461167
 20
42.120046402
 10
279.906978181
 20
42.0710747529
 10
279.4490980239
 20
42.1275567081
 10
279.0635137486
 20
42.2808934019
 10
278.8089270657
 20
42.5077407126
 10
278.7240964897
 20
42.7735631937
 10
278.821936707
 20
43.037891782
  0
SPLINE
  5
200
330
1F
100
AcDbEntity
  8
0
  6
Continuous
 62
     7
370
    15
100
AcDbSpline
210
0.0
220
0.0
230
1.0
 70
     8
 71
     3
 72
    11
 73
     7
 74
     0
 42
0.000000001
 43
0.00000001
 40
0.0
 40
0.0
 40
0.0
 40
0.0
 40
0.128556176630734
 40
0.4801535797842226
 40
0.8150691831753877
 40
1.0
 40
1.0
 40
1.0
 40
1.0
 10
278.7771341193636
 20
42.64912382644796
 30
0.0
 10
278.7955369084839
 20
42.65578133726109
 30
0.0
 10
278.8642707904782
 20
42.68064694646911
 30
0.0
 10
278.9931622135055
 20
42.78852722105199
 30
0.0
 10
279.1327244364046
 20
43.02841188561745
 30
0.0
 10
279.2074889397202
 20
43.20019223656978
 30
0.0
 10
279.2340857577994
 20
43.26130159383504
 30
0.0
  0
SPLINE
  5
201
330
1F
100
AcDbEntity
  8
0
  6
Continuous
 62
     7
370
    15
100
AcDbSpline
210
0.0
220
0.0
230
1.0
 70
     8
 71
     3
 72
    10
 73
     6
 74
     0
 42
0.000000001
 43
0.00000001
 40
0.0
 40
0.0
 40
0.0
 40
0.0
 40
0.1008060395619608
 40
0.6014010852865191
 40
0.9999999999999999
 40
0.9999999999999999
 40
0.9999999999999999
 40
0.9999999999999999
 10
279.2085956253829
 20
42.20842510692203
 30
0.0
 10
279.1942769667712
 20
42.21295652182732
 30
0.0
 10
279.1088529498538
 20
42.23999059492223
 30
0.0
 10
278.9530214469211
 20
42.4085521547853
 30
0.0
 10
278.8311554498999
 20
42.57523560509033
 30
0.0
 10
278.7771341193636
 20
42.64912382644796
 30
0.0
  0
SPLINE
  5
202
330
1F
100
AcDbEntity
  8
0
  6
Continuous
 62
     7
370
    15
100
AcDbSpline
210
0.0
220
0.0
230
1.0
 70
     8
 71
     3
 72
    10
 73
     6
 74
     0
 42
0.000000001
 43
0.00000001
 40
0.0
 40
0.0
 40
0.0
 40
0.0
 40
0.2205043113995726
 40
0.619844647265712
 40
1.0
 40
1.0
 40
1.0
 40
1.0
 10
281.0708180737324
 20
42.80439946706087
 30
0.0
 10
281.0442554366674
 20
42.74351248518391
 30
0.0
 10
280.9695870172724
 20
42.57235723853566
 30
0.0
 10
280.8341209765884
 20
42.33399756125259
 30
0.0
 10
280.7337582315338
 20
42.26304735191284
 30
0.0
 10
280.684811925216
 20
42.22844536212305
 30
0.0
  0
SPLINE
  5
203
330
1F
100
AcDbEntity
  8
0
  6
Continuous
 62
     7
370
    15
100
AcDbSpline
210
0.0
220
0.0
230
1.0
 70
     8
 71
     3
 72
    10
 73
     6
 74
     0
 42
0.000000001
 43
0.00000001
 40
0.0
 40
0.0
 40
0.0
 40
0.0
 40
0.4391222274230488
 40
0.7513714712594595
 40
1.0
 40
1.0
 40
1.0
 40
1.0
 10
280.3809277349839
 20
43.33893941414149
 30
0.0
 10
280.4796922461178
 20
43.20648960579635
 30
0.0
 10
280.6486858233147
 20
42.97985792753141
 30
0.0
 10
280.8943458111855
 20
42.83205255919766
 30
0.0
 10
281.0166170886022
 20
42.8128927272145
 30
0.0
 10
281.0708180737324
 20
42.80439946706087
 30
0.0
  0
SPLINE
  5
204
330
1F
100
AcDbEntity
  8
0
  6
Continuous
 62
     7
370
    15
100
AcDbSpline
210
0.0
220
0.0
230
1.0
 70
     8
 71
     3
 72
    10
 73
     6
 74
     0
 42
0.000000001
 43
0.00000001
 40
0.0
 40
0.0
 40
0.0
 40
0.0
 40
0.4391222274230385
 40
0.7513714712594515
 40
1.0
 40
1.0
 40
1.0
 40
1.0
 10
279.2340857577994
 20
43.26130159383504
 30
0.0
 10
279.3982673398027
 20
43.21649098628333
 30
0.0
 10
279.6791944920158
 20
43.13981663453908
 30
0.0
 10
280.0875683601236
 20
43.20999892955472
 30
0.0
 10
280.2908265095271
 20
43.29933714924779
 30
0.0
 10
280.3809277349839
 20
43.3389394141415
 30
0.0
  0
LINE
  5
205
330
1F
100
AcDbEntity
  8
0
  6
Continuous
 62
     7
370
    15
100
AcDbLine
 10
279.2340857578
 20
42.1969341283
 30
0.0
 11
279.2340857578
 21
43.2613015938
 31
0.0
  0
LINE
  5
206
330
1F
100
AcDbEntity
  8
0
  6
Continuous
 62
     7
370
    15
100
AcDbLine
 10
280.380927735
 20
42.1231964724
 30
0.0
 11
280.380927735
 21
43.3389394141
 31
0.0
  0
ARC
  5
207
330
1F
100
AcDbEntity
  8
0
  6
Continuous
 62
     7
370
    15
100
AcDbCircle
 10
280.304840691
 20
53.384189706
 30
0.0
 40
8.707111905511201
100
AcDbArc
 50
34.5309619216
 51
85.122878034
  0
ARC
  5
208
330
1F
100
AcDbEntity
  8
0
  6
Continuous
 62
     7
370
    15
100
AcDbCircle
 10
264.0068541135
 20
25.1527404051
 30
0.0
 40
8.677348939768502
100
AcDbArc
 50
215.2989471955
 51
264.876672331
  0
LWPOLYLINE
  5
209
330
1F
100
AcDbEntity
  8
0
  6
Continuous
 62
     7
370
    15
100
AcDbPolyline
 90
        9
 70
   128
 43
0.0
 10
257.4459474891
 20
18.9120357696
 10
257.2796242259
 20
19.0106417804
 10
256.2887298381
 20
19.7170969721
 10
255.3943087324
 20
20.570818405
 10
254.602679484
 20
21.5657750237
 10
253.9194345026
 20
22.6949380269
 10
253.3494005244
 20
23.9503305214
 10
252.8966045145
 20
25.323083875
 10
252.5642452188
 20
26.8035003675
  0
SPLINE
  5
20A
330
1F
100
AcDbEntity
  8
0
  6
Continuous
 62
     7
370
    15
100
AcDbSpline
210
0.0
220
0.0
230
1.0
 70
     8
 71
     3
 72
    32
 73
    28
 74
     0
 42
0.000000001
 43
0.00000001
 40
0.0
 40
0.0
 40
0.0
 40
0.0
 40
0.0193254758647258
 40
0.0385826927399014
 40
0.0577846348003733
 40
0.0769443985950771
 40
0.0960751672943215
 40
0.1151901840580798
 40
0.1343027247879751
 40
0.1534260705402312
 40
0.172573479885108
 40
0.1917581614995186
 40
0.2109932472740069
 40
0.2302917662029109
 40
0.2496666193081449
 40
0.3745846283005043
 40
0.4997410234224777
 40
0.4999962720873377
 40
0.6248627021449072
 40
0.7503411293897363
 40
0.7861451323127985
 40
0.8217618640028611
 40
0.8572756267732794
 40
0.8927714566788081
 40
0.9283345184945242
 40
0.9640494961196089
 40
1.0
 40
1.0
 40
1.0
 40
1.0
 10
252.5641899427594
 20
34.25532513395381
 30
0.0
 10
252.5861331600471
 20
34.19523409023984
 30
0.0
 10
252.6299420895794
 20
34.07526424875883
 30
0.0
 10
252.6923813408013
 20
33.89451669465171
 30
0.0
 10
252.7522899683281
 20
33.71367329823629
 30
0.0
 10
252.8094765539616
 20
33.53266618269626
 30
0.0
 10
252.8640346251696
 20
33.35153678037521
 30
0.0
 10
252.9159823717603
 20
33.17029826304434
 30
0.0
 10
252.9653588512232
 20
32.98897230883443
 30
0.0
 10
253.0121982326708
 20
32.80757923209861
 30
0.0
 10
253.0565368390164
 20
32.62614087669544
 30
0.0
 10
253.0984106822397
 20
32.44467898772155
 30
0.0
 10
253.1378582734283
 20
32.26321893526814
 30
0.0
 10
253.1749117927885
 20
32.08177648957484
 30
0.0
 10
253.2726038924227
 20
31.57142553783275
 30
0.0
 10
253.3901000912561
 20
30.74482400914451
 30
0.0
 10
253.4249515273767
 20
30.02950451385115
 30
0.0
 10
253.4253473515506
 20
29.35279254895019
 30
0.0
 10
253.3902960005044
 20
28.71110142485255
 30
0.0
 10
253.2653619203333
 20
28.08980048607222
 30
0.0
 10
253.1446357394603
 20
27.7171763840817
 30
0.0
 10
253.0703283269377
 20
27.52837968293918
 30
0.0
 10
252.9874148557057
 20
27.35418839997204
 30
0.0
 10
252.8957160546963
 20
27.19437222990667
 30
0.0
 10
252.7948139870744
 20
27.04916835729685
 30
0.0
 10
252.6852610902753
 20
26.91712139717968
 30
0.0
 10
252.6047327923743
 20
26.84142191224811
 30
0.0
 10
252.5643363166184
 20
26.80344777784467
 30
0.0
  0
LWPOLYLINE
  5
20B
330
1F
100
AcDbEntity
  8
0
  6
Continuous
 62
     7
370
    15
100
AcDbPolyline
 90
       27
 70
   128
 43
0.0
 10
252.5641899425
 20
34.2553251341
 10
252.8965292825
 20
36.1194909964
 10
253.3493088409
 20
38.01505031
 10
253.9193299094
 20
39.9286116981
 10
254.6025655146
 20
41.8466566066
 10
255.3941888672
 20
43.7556348068
 10
256.2886074613
 20
45.642060123
 10
257.2795025836
 20
47.4926057067
 10
258.3598739518
 20
49.2941981852
 10
259.5220891697
 20
51.0341100205
 10
260.7579376465
 20
52.7000494236
 10
262.0586886016
 20
54.2802471919
 10
263.4151527441
 20
55.7635398531
 10
264.8177471914
 20
57.1394485314
 10
266.2565631687
 20
58.3982529762
 10
267.7214360101
 20
59.5310602321
 10
269.2020169686
 20
60.5298674641
 10
270.6878463255
 20
61.387618494
 10
272.168427284
 20
62.0982536503
 10
273.6333001254
 20
62.6567525766
 10
275.0721161027
 20
63.059169699
 10
276.47471055
 20
63.3026620997
 10
277.8311746925
 20
63.3855096012
 10
279.1319256476
 20
63.3071269187
 10
280.3677741244
 20
63.0680677948
 10
281.5299893423
 20
62.6700210877
 10
282.443915805
 20
62.2144788886
  0
SPLINE
  5
20C
330
1F
100
AcDbEntity
  8
0
  6
Continuous
 62
     7
370
    15
100
AcDbSpline
210
0.0
220
0.0
230
1.0
 70
     8
 71
     3
 72
     8
 73
     4
 74
     0
 42
0.000000001
 43
0.00000001
 40
0.0
 40
0.0
 40
0.0
 40
0.0
 40
1.0
 40
1.0
 40
1.0
 40
1.0
 10
251.6021966637033
 20
39.69066285188022
 30
0.0
 10
250.4325702437654
 20
39.49510667863748
 30
0.0
 10
249.2619670009055
 20
39.30152171191757
 30
0.0
 10
248.0907355192527
 20
39.1092422626713
 30
0.0
  0
SPLINE
  5
20D
330
1F
100
AcDbEntity
  8
0
  6
Continuous
 62
     7
370
    15
100
AcDbSpline
210
0.0
220
0.0
230
1.0
 70
     8
 71
     3
 72
     8
 73
     4
 74
     0
 42
0.000000001
 43
0.00000001
 40
0.0
 40
0.0
 40
0.0
 40
0.0
 40
0.0012417047560385
 40
0.0012417047560385
 40
0.0012417047560385
 40
0.0012417047560385
 10
247.616234915603
 20
39.38321768355116
 30
0.0
 10
247.7745060560634
 20
39.29183235879322
 30
0.0
 10
247.9326753617426
 20
39.20050581138962
 30
0.0
 10
248.0907355192527
 20
39.1092422626713
 30
0.0
  0
LWPOLYLINE
  5
20E
330
1F
100
AcDbEntity
  8
0
  6
Continuous
 62
     7
370
    15
100
AcDbPolyline
 90
       29
 70
   128
 43
0.0
 10
247.6162349156
 20
39.3832176836
 10
248.0776820051
 20
41.2686776446
 10
248.6544905747
 20
43.1706356807
 10
249.3426390846
 20
45.0758312398
 10
250.1373297268
 20
46.9709811971
 10
251.0330218759
 20
48.8428724666
 10
252.0234707188
 20
50.6784541231
 10
253.1017707937
 20
52.4649283939
 10
254.260404135
 20
54.1898398855
 10
255.4912926898
 20
55.8411624235
 10
256.7858546377
 20
57.4073828996
 10
258.1350642241
 20
58.8775815415
 10
259.5295146882
 20
60.2415080462
 10
260.9594838473
 20
61.4896530458
 10
262.4150018806
 20
62.6133144072
 10
263.8859208392
 20
63.6046579036
 10
265.361985398
 20
64.4567718356
 10
266.8329043566
 20
65.1637152197
 10
268.2884223899
 20
65.7205592091
 10
269.7183915491
 20
66.123421458
 10
271.1128420132
 20
66.3694931893
 10
272.4620515996
 20
66.4570587779
 10
273.7566135474
 20
66.3855077119
 10
274.9875021022
 20
66.1553388491
 10
276.1461354436
 20
65.7681569391
 10
277.2244355184
 20
65.2266614346
 10
278.2148843613
 20
64.534627671
 10
279.1105765105
 20
63.6968805445
 10
279.497087563
 20
63.2543392478
  0
LINE
  5
20F
330
1F
100
AcDbEntity
  8
0
  6
Continuous
 62
     7
370
    15
100
AcDbLine
 10
243.4884990804
 20
41.7661088599
 30
0.0
 11
247.6162349156
 21
39.3832176836
 31
0.0
  0
ARC
  5
210
330
1F
100
AcDbEntity
  8
0
  6
Continuous
 62
     7
370
    15
100
AcDbCircle
 10
268.5989963694
 20
59.9212667453
 30
0.0
 40
8.908177464119712
100
AcDbArc
 50
60.4289686518
 51
85.1812967809
  0
SPLINE
  5
211
330
1F
100
AcDbEntity
  8
0
  6
Continuous
 62
     7
370
    15
100
AcDbSpline
210
0.0
220
0.0
230
1.0
 70
     8
 71
     3
 72
    13
 73
     9
 74
     0
 42
0.000000001
 43
0.00000001
 40
0.0
 40
0.0
 40
0.0
 40
0.0
 40
0.1935905955785822
 40
0.3928012754924508
 40
0.5863901717850121
 40
0.7855816257758073
 40
0.979380266418876
 40
1.0
 40
1.0
 40
1.0
 40
1.0
 10
261.3235614524676
 20
54.58572534032664
 30
0.0
 10
261.3746676778561
 20
54.5597970100483
 30
0.0
 10
261.4783637817819
 20
54.50718763006122
 30
0.0
 10
261.657818718536
 20
54.46217729835455
 30
0.0
 10
261.8510476638157
 20
54.44245392404155
 30
0.0
 10
262.0507107226151
 20
54.45431574775719
 30
0.0
 10
262.1945823119214
 20
54.47504930293641
 30
0.0
 10
262.2671752860388
 20
54.49856410191327
 30
0.0
 10
262.2741562539319
 20
54.50082542346218
 30
0.0
  0
LWPOLYLINE
  5
212
330
1F
100
AcDbEntity
  8
0
  6
Continuous
 62
     7
370
    15
100
AcDbPolyline
 90
       25
 70
   128
 43
0.0
 10
263.3564959268
 20
55.6905040179
 10
263.339678359
 20
55.8038196277
 10
263.2824274424
 20
55.9472372348
 10
263.1948202708
 20
56.0726648206
 10
263.0742285309
 20
56.1839319827
 10
262.9309827255
 20
56.2716711069
 10
262.7607836349
 20
56.3386120449
 10
262.5781003405
 20
56.3790236126
 10
262.3776434839
 20
56.3939420351
 10
262.1760508534
 20
56.3818356421
 10
261.9678787589
 20
56.3420067122
 10
261.7704433297
 20
56.2773768051
 10
261.5784277862
 20
56.1857976597
 10
261.408174716
 20
56.0748020661
 10
261.2547046737
 20
55.9409675911
 10
261.1311248802
 20
55.7957362417
 10
261.0335929349
 20
55.6347946058
 10
260.9702215292
 20
55.4718056913
 10
260.939073869
 20
55.3023289374
 10
260.9426618053
 20
55.1405987714
 10
260.9810338545
 20
54.9825459289
 10
261.0509179609
 20
54.8416382192
 10
261.1542282694
 20
54.7141967091
 10
261.3235614525
 20
54.5857253403
 10
261.3235614525
 20
54.5857253403
  0
SPLINE
  5
213
330
1F
100
AcDbEntity
  8
0
  6
Continuous
 62
     7
370
    15
100
AcDbSpline
210
0.0
220
0.0
230
1.0
 70
     8
 71
     3
 72
    10
 73
     6
 74
     0
 42
0.000000001
 43
0.00000001
 40
0.0
 40
0.0
 40
0.0
 40
0.0
 40
0.198675367014776
 40
0.6711048930325698
 40
1.0
 40
1.0
 40
1.0
 40
1.0
 10
253.4448381255071
 20
38.30165703880887
 30
0.0
 10
253.3602851846786
 20
38.41237845425935
 30
0.0
 10
253.0746740736342
 20
38.78638397285381
 30
0.0
 10
252.583161949744
 20
39.23600793232768
 30
0.0
 10
252.1661578872793
 20
39.51748652394868
 30
0.0
 10
251.9950030393131
 20
39.63301639497654
 30
0.0
  0
LWPOLYLINE
  5
214
330
1F
100
AcDbEntity
  8
0
  6
Continuous
 62
     7
370
    15
100
AcDbPolyline
 90
       47
 70
   128
 43
0.0
 10
283.477187672
 20
40.5492169626
 10
282.557672025
 20
39.945761214
 10
281.6552852146
 20
39.2082853751
 10
280.7868369999
 20
38.3505272255
 10
279.9685049279
 20
37.3884651766
 10
279.2155329767
 20
36.3400206241
 10
278.5419475891
 20
35.2247241062
 10
277.9602963864
 20
34.0633514869
 10
277.48141443
 20
32.8775369406
 10
277.1142223847
 20
31.6893699487
 10
276.8655603435
 20
30.5209838141
 10
276.7400604097
 20
29.3941433599
 10
276.7400604097
 20
28.3298394917
 10
276.8655603435
 20
27.3478981768
 10
277.1142223847
 20
26.4666111239
 10
277.48141443
 20
25.7023950435
 10
277.9602963864
 20
25.0694858351
 10
278.5419475891
 20
24.5796733998
 10
279.2155329767
 20
24.2420820165
 10
279.9685049279
 20
24.0630003739
 10
280.7868369999
 20
24.0457644242
 10
281.6552852146
 20
24.1906952405
 10
282.557672025
 20
24.495093036
 10
283.477187672
 20
24.9532874556
 10
284.3967033191
 20
25.5567432042
 10
285.2990901294
 20
26.2942190431
 10
286.1675383441
 20
27.1519771926
 10
286.9858704162
 20
28.1140392415
 10
287.7388423674
 20
29.162483794
 10
288.4124277549
 20
30.2777803119
 10
288.9940789576
 20
31.4391529313
 10
289.472960914
 20
32.6249674776
 10
289.8401529593
 20
33.8131344695
 10
290.0888150005
 20
34.9815206041
 10
290.2143149343
 20
36.1083610583
 10
290.2143149343
 20
37.1726649265
 10
290.0888150005
 20
38.1546062414
 10
289.8401529593
 20
39.0358932943
 10
289.472960914
 20
39.8001093747
 10
288.9940789576
 20
40.4330185831
 10
288.4124277549
 20
40.9228310184
 10
287.7388423674
 20
41.2604224017
 10
286.9858704162
 20
41.4395040443
 10
286.1675383441
 20
41.456739994
 10
285.2990901294
 20
41.3118091776
 10
284.3967033191
 20
41.0074113822
 10
283.477187672
 20
40.5492169626
  0
LWPOLYLINE
  5
215
330
1F
100
AcDbEntity
  8
0
  6
Continuous
 62
     7
370
    15
100
AcDbPolyline
 90
       25
 70
   128
 43
0.0
 10
283.3357663158
 20
40.7941659362
 10
282.4168472434
 20
40.1926506954
 10
281.5143263036
 20
39.4598004045
 10
280.644309004
 20
38.6086927944
 10
279.8223208239
 20
37.6545159005
 10
279.0630301618
 20
36.614297032
 10
278.3799865776
 20
35.5065989194
 10
277.7853790003
 20
34.3511884617
 10
277.2898182161
 20
33.1686839858
 10
276.9021475189
 20
31.9801873122
 10
276.6292849016
 20
30.8069071922
 10
276.476099604
 20
29.6697808373
 10
276.4453252214
 20
28.5891002942
 10
276.5375109234
 20
27.5841503329
 10
276.7510116539
 20
26.6728643091
 10
277.0820174873
 20
25.8715041436
 10
277.5246216167
 20
25.1943701276
 10
278.070925761
 20
24.6535457335
 10
278.7111811096
 20
24.2586819856
 10
279.4339622909
 20
24.0168252367
 10
280.2263712574
 20
23.9322914262
 10
281.0742674524
 20
24.006589062
 10
281.9625201481
 20
24.2383923011
 10
282.8752784543
 20
24.6235646091
 10
283.336886832
 20
24.8722670698
  0
LWPOLYLINE
  5
216
330
1F
100
AcDbEntity
  8
0
  6
Continuous
 62
     7
370
    15
100
AcDbPolyline
 90
       13
 70
   128
 43
0.0
 10
290.2300574323
 20
36.8128825654
 10
290.1954330275
 20
37.5897834407
 10
290.0422477299
 20
38.5500458157
 10
289.7693851126
 20
39.4082854636
 10
289.3817144155
 20
40.1491870776
 10
288.8861536313
 20
40.7595292508
 10
288.2915460539
 20
41.2284204127
 10
287.6085024697
 20
41.5474931893
 10
286.8492118077
 20
41.7110537196
 10
286.0272236275
 20
41.7161832618
 10
285.1572063279
 20
41.5627902792
 10
284.2546853882
 20
41.2536120731
 10
283.3357663158
 20
40.7941659362
  0
SPLINE
  5
217
330
1F
100
AcDbEntity
  8
0
  6
Continuous
 62
     7
370
    15
100
AcDbSpline
210
0.0
220
0.0
230
1.0
 70
    11
 71
     3
 72
    77
 73
    73
 74
     0
 42
0.000000001
 43
0.00000001
 40
0.0
 40
0.0
 40
0.0
 40
0.0
 40
0.0312499999999998
 40
0.0312499999999998
 40
0.0624999999999996
 40
0.0624999999999996
 40
0.0937499999999994
 40
0.0937499999999994
 40
0.1249999999999992
 40
0.1249999999999992
 40
0.156249999999999
 40
0.156249999999999
 40
0.1874999999999988
 40
0.1874999999999988
 40
0.2187499999999987
 40
0.2187499999999987
 40
0.2499999999999984
 40
0.2499999999999984
 40
0.2812499999999982
 40
0.2812499999999982
 40
0.312499999999998
 40
0.312499999999998
 40
0.3437499999999978
 40
0.3437499999999978
 40
0.3593749999999977
 40
0.3593749999999977
 40
0.3749999999999976
 40
0.3906249999999975
 40
0.3906249999999975
 40
0.4062499999999974
 40
0.4062499999999974
 40
0.4374999999999972
 40
0.4374999999999972
 40
0.4687499999999969
 40
0.4687499999999969
 40
0.4999999999999967
 40
0.4999999999999967
 40
0.5312499999999964
 40
0.5312499999999964
 40
0.5624999999999962
 40
0.5624999999999962
 40
0.593749999999996
 40
0.593749999999996
 40
0.6249999999999958
 40
0.6249999999999958
 40
0.6562499999999956
 40
0.6562499999999956
 40
0.6874999999999953
 40
0.6874999999999953
 40
0.7187499999999951
 40
0.7187499999999951
 40
0.7499999999999949
 40
0.7499999999999949
 40
0.7656249999999951
 40
0.7656249999999951
 40
0.7812499999999952
 40
0.7812499999999952
 40
0.8124999999999959
 40
0.8124999999999959
 40
0.8437499999999966
 40
0.8437499999999966
 40
0.8749999999999972
 40
0.8749999999999972
 40
0.8906249999999976
 40
0.8906249999999976
 40
0.9062499999999979
 40
0.9062499999999979
 40
0.9374999999999986
 40
0.9374999999999986
 40
0.9687499999999992
 40
0.9687499999999992
 40
1.0
 40
1.0
 40
1.0
 40
1.0
 10
279.9126479497577
 20
44.00873737081568
 30
0.0
 10
280.067793671702
 20
43.9855220333757
 30
0.0
 10
280.2189527481087
 20
43.95457212397821
 30
0.0
 10
280.5141745630769
 20
43.87996987573185
 30
0.0
 10
280.6591651626032
 20
43.83595870309505
 30
0.0
 10
280.9377362655107
 20
43.73762378951179
 30
0.0
 10
281.0694847067992
 20
43.68405639874601
 30
0.0
 10
281.3185783693852
 20
43.56920866872476
 30
0.0
 10
281.4369146759543
 20
43.50729736387269
 30
0.0
 10
281.6527625459287
 20
43.37894370943622
 30
0.0
 10
281.7501927179638
 20
43.31274446838988
 30
0.0
 10
281.9242642269317
 20
43.17599699308307
 30
0.0
 10
282.0014919240519
 20
43.104705016802
 30
0.0
 10
282.1293957193719
 20
42.96103721741616
 30
0.0
 10
282.1804618929895
 20
42.88863239546245
 30
0.0
 10
282.2562187037835
 20
42.74132219267632
 30
0.0
 10
282.2808970409069
 20
42.66557097637065
 30
0.0
 10
282.2997894008652
 20
42.51542972378808
 30
0.0
 10
282.2945165957032
 20
42.44074886122893
 30
0.0
 10
282.2526162993159
 20
42.29052481662379
 30
0.0
 10
282.2151344557124
 20
42.2142181934933
 30
0.0
 10
282.1093830375459
 20
42.06699329638718
 30
0.0
 10
282.0412074643252
 20
41.99524967955265
 30
0.0
 10
281.9141146644656
 20
41.88991230247068
 30
0.0
 10
281.8673855071114
 20
41.85511124277715
 30
0.0
 10
281.7681047602315
 20
41.78829108777867
 30
0.0
 10
281.6624303077201
 20
41.72372758676759
 30
0.0
 10
281.544138236553
 20
41.66358982920654
 30
0.0
 10
281.4194199337514
 20
41.60573781843039
 30
0.0
 10
281.3536739447695
 20
41.57792499085004
 30
0.0
 10
281.1520726066553
 20
41.5002110122383
 30
0.0
 10
281.0102866930885
 20
41.45514794449782
 30
0.0
 10
280.7124933901634
 20
41.37894970031303
 30
0.0
 10
280.5595949665977
 20
41.34872343881106
 30
0.0
 10
280.2518098314944
 20
41.30500735620016
 30
0.0
 10
280.0945967944565
 20
41.29133802254876
 30
0.0
 10
279.7867086527536
 20
41.28202389451155
 30
0.0
 10
279.6352608297586
 20
41.28611431292526
 30
0.0
 10
279.3369773290079
 20
41.31254398006737
 30
0.0
 10
279.1913464567078
 20
41.33496418349218
 30
0.0
 10
278.9146499694419
 20
41.39715374196837
 30
0.0
 10
278.7823295250656
 20
41.43701643419405
 30
0.0
 10
278.5298961582584
 20
41.53534696503311
 30
0.0
 10
278.412936381297
 20
41.5926340411638
 30
0.0
 10
278.1980130999278
 20
41.72235088657781
 30
0.0
 10
278.0995944061593
 20
41.79507393863131
 30
0.0
 10
277.9232167414758
 20
41.95548788914216
 30
0.0
 10
277.8473535770551
 20
42.04118106933571
 30
0.0
 10
277.7197810027049
 20
42.22253206089255
 30
0.0
 10
277.66785278614
 20
42.31873363730693
 30
0.0
 10
277.5912661563716
 20
42.51843752366731
 30
0.0
 10
277.5672459232558
 20
42.61983949522079
 30
0.0
 10
277.5529584978993
 20
42.77326283728905
 30
0.0
 10
277.5518454205658
 20
42.82462559334159
 30
0.0
 10
277.5573242793919
 20
42.92763566405223
 30
0.0
 10
277.5640027738735
 20
42.97961482359369
 30
0.0
 10
277.5958839982
 20
43.13259906521994
 30
0.0
 10
277.6325666166765
 20
43.23086640952917
 30
0.0
 10
277.738105847656
 20
43.41834618957355
 30
0.0
 10
277.8084020677724
 20
43.5086959908426
 30
0.0
 10
277.9775728793464
 20
43.6697443578193
 30
0.0
 10
278.0762039925672
 20
43.7411299477121
 30
0.0
 10
278.246006400934
 20
43.83377384218125
 30
0.0
 10
278.3063501064091
 20
43.86218947216172
 30
0.0
 10
278.4309938980475
 20
43.91260911495568
 30
0.0
 10
278.4956919940609
 20
43.93485060545169
 30
0.0
 10
278.6967200875865
 20
43.99303323636165
 30
0.0
 10
278.8417103732069
 20
44.02054715729535
 30
0.0
 10
279.1380508321158
 20
44.05236346495754
 30
0.0
 10
279.2900038087946
 20
44.05715301893019
 30
0.0
 10
279.6012921894473
 20
44.04692606622613
 30
0.0
 10
279.7575022278133
 20
44.03195270825566
 30
0.0
 10
279.9126479497577
 20
44.00873737081568
 30
0.0
  0
LINE
  5
218
330
1F
100
AcDbEntity
  8
0
  6
Continuous
 62
     7
370
    15
100
AcDbLine
 10
287.1768283146
 20
32.6604837738
 30
0.0
 11
288.5542143609
 21
34.3739389208
 31
0.0
  0
SPLINE
  5
219
330
1F
100
AcDbEntity
  8
0
  6
Continuous
 62
     7
370
    15
100
AcDbSpline
210
0.0
220
0.0
230
1.0
 70
     8
 71
     3
 72
    22
 73
    18
 74
     0
 42
0.000000001
 43
0.00000001
 40
0.0
 40
0.0
 40
0.0
 40
0.0
 40
0.0500000000000153
 40
0.1
 40
0.1499999999999999
 40
0.2000000000000001
 40
0.25
 40
0.2968749999999255
 40
0.34375
 40
0.390625
 40
0.4374999999999989
 40
0.515352885058417
 40
0.515352885058417
 40
0.53125
 40
0.6249999999995614
 40
0.8125
 40
0.8824198414277675
 40
0.8824198414277675
 40
0.8824198414277675
 40
0.8824198414277675
 10
288.554214360925
 20
34.37393892084241
 30
0.0
 10
288.6199525498589
 20
34.45571660291494
 30
0.0
 10
288.7487072631351
 20
34.6337194939663
 30
0.0
 10
288.9250123527179
 20
34.93908446281195
 30
0.0
 10
289.0737204107422
 20
35.27765548249072
 30
0.0
 10
289.180408004435
 20
35.63344214792262
 30
0.0
 10
289.2309554974095
 20
35.97705234465376
 30
0.0
 10
289.2220266219813
 20
36.28716164317951
 30
0.0
 10
289.1569979373659
 20
36.54748044730886
 30
0.0
 10
289.0407996788702
 20
36.75162540888509
 30
0.0
 10
288.8489521746901
 20
36.92445075771883
 30
0.0
 10
288.6737230634996
 20
36.97868635130562
 30
0.0
 10
288.5367759830552
 20
36.99177217583074
 30
0.0
 10
288.3888353427187
 20
37.0056307914165
 30
0.0
 10
288.0521574303042
 20
37.03486439881832
 30
0.0
 10
287.8242137707916
 20
37.0556574877076
 30
0.0
 10
287.3239973029794
 20
37.10040993525519
 30
0.0
 10
287.1768075149552
 20
37.11356888715804
 30
0.0
  0
SPLINE
  5
21A
330
1F
100
AcDbEntity
  8
0
  6
Continuous
 62
     7
370
    15
100
AcDbSpline
210
0.0
220
0.0
230
1.0
 70
     8
 71
     3
 72
    22
 73
    18
 74
     0
 42
0.000000001
 43
0.00000001
 40
0.0
 40
0.0
 40
0.0
 40
0.0
 40
0.0500000000000153
 40
0.1
 40
0.1499999999999999
 40
0.2000000000000001
 40
0.25
 40
0.2968749999999255
 40
0.34375
 40
0.390625
 40
0.4374999999999989
 40
0.515352885058417
 40
0.515352885058417
 40
0.53125
 40
0.6249999999995614
 40
0.8125
 40
0.8812161579339127
 40
0.8812161579339127
 40
0.8812161579339127
 40
0.8812161579339127
 10
278.4001609830959
 20
28.51212867796104
 30
0.0
 10
278.3353921416066
 20
28.51791998839231
 30
0.0
 10
278.2052182053954
 20
28.54739275251542
 30
0.0
 10
278.029483534352
 20
28.64914918993394
 30
0.0
 10
277.8806226365722
 20
28.81603922064569
 30
0.0
 10
277.7739759833624
 20
29.04864329935866
 30
0.0
 10
277.7234177957565
 20
29.33389375024236
 30
0.0
 10
277.7323488954995
 20
29.65431123989196
 30
0.0
 10
277.7973787153151
 20
29.98971293000702
 30
0.0
 10
277.9135702570498
 20
30.32800893584306
 30
0.0
 10
278.1054491614689
 20
30.72237583580419
 30
0.0
 10
278.2805571997749
 20
30.97877602839863
 30
0.0
 10
278.4175625576008
 20
31.15005007479884
 30
0.0
 10
278.5656070083597
 20
31.33484644799418
 30
0.0
 10
278.9034302431246
 20
31.75422488166224
 30
0.0
 10
279.1224114487654
 20
32.02704549412289
 30
0.0
 10
279.6309468216103
 20
32.65968538595299
 30
0.0
 10
279.7775678913681
 20
32.84207891171913
 30
0.0
  0
LINE
  5
21B
330
1F
100
AcDbEntity
  8
0
  6
Continuous
 62
     7
370
    15
100
AcDbLine
 10
279.7775470294
 20
28.3889696096
 30
0.0
 11
278.4001609831
 21
28.512128678
 31
0.0
  0
SPLINE
  5
21C
330
1F
100
AcDbEntity
  8
0
  6
Continuous
 62
     7
370
    15
100
AcDbSpline
210
0.0
220
0.0
230
1.0
 70
     8
 71
     3
 72
    10
 73
     6
 74
     0
 42
0.000000001
 43
0.00000001
 40
0.0
 40
0.0
 40
0.0
 40
0.0
 40
0.5
 40
0.5
 40
1.0
 40
1.0
 40
1.0
 40
1.0
 10
251.8590736920809
 20
39.68554637678587
 30
0.0
 10
251.818498383686
 20
39.69437089811283
 30
0.0
 10
251.7749240406323
 20
39.69932397402151
 30
0.0
 10
251.6871213136455
 20
39.70090915928763
 30
0.0
 10
251.6441531967237
 20
39.69767779177909
 30
0.0
 10
251.6021966637033
 20
39.69066285188022
 30
0.0
  0
SPLINE
  5
21D
330
1F
100
AcDbEntity
  8
0
  6
Continuous
 62
     7
370
    15
100
AcDbSpline
210
0.0
220
0.0
230
1.0
 70
     8
 71
     3
 72
     8
 73
     4
 74
     0
 42
0.000000001
 43
0.00000001
 40
0.0
 40
0.0
 40
0.0
 40
0.0
 40
1.0
 40
1.0
 40
1.0
 40
1.0
 10
251.9950030393131
 20
39.63301639497654
 30
0.0
 10
251.9565210974769
 20
39.65668720477241
 30
0.0
 10
251.91041344573
 20
39.67438074998186
 30
0.0
 10
251.859073692081
 20
39.68554637678591
 30
0.0
  0
SPLINE
  5
21E
330
1F
100
AcDbEntity
  8
0
  6
Continuous
 62
     7
370
    15
100
AcDbSpline
210
0.0
220
0.0
230
1.0
 70
     8
 71
     3
 72
    10
 73
     6
 74
     0
 42
0.000000001
 43
0.00000001
 40
0.0
 40
0.0
 40
0.0
 40
0.0
 40
0.5
 40
0.5
 40
1.0
 40
1.0
 40
1.0
 40
1.0
 10
243.3318021606157
 20
41.85655674311428
 30
0.0
 10
243.3428527589658
 20
41.85018090857015
 30
0.0
 10
243.3614727049052
 20
41.83943466706476
 30
0.0
 10
243.4147726549658
 20
41.8086691942248
 30
0.0
 10
243.4483534276871
 20
41.78928445195385
 30
0.0
 10
243.4884990804265
 20
41.76610885993369
 30
0.0
  0
LINE
  5
21F
330
1F
100
AcDbEntity
  8
0
  6
Continuous
 62
     7
370
    15
100
AcDbLine
 10
243.3318021606
 20
41.8565567431
 30
0.0
 11
243.3553338095
 21
42.0033511205
 31
0.0
  0
SPLINE
  5
220
330
1F
100
AcDbEntity
  8
0
  6
Continuous
 62
     7
370
    15
100
AcDbSpline
210
0.0
220
0.0
230
1.0
 70
     8
 71
     3
 72
     9
 73
     5
 74
     0
 42
0.000000001
 43
0.00000001
 40
0.0
 40
0.0
 40
0.0
 40
0.0
 40
0.5377956222894344
 40
1.0
 40
1.0
 40
1.0
 40
1.0
 10
251.9950030393131
 20
29.14366033203344
 30
0.0
 10
252.2350692127605
 20
29.01689428449195
 30
0.0
 10
252.681458442233
 20
28.78118011671603
 30
0.0
 10
253.0730645996759
 20
28.66553547770178
 30
0.0
 10
253.2540666799845
 20
28.61208401929063
 30
0.0
  0
SPLINE
  5
221
330
1F
100
AcDbEntity
  8
0
  6
Continuous
 62
     7
370
    15
100
AcDbSpline
210
0.0
220
0.0
230
1.0
 70
     8
 71
     3
 72
     8
 73
     4
 74
     0
 42
0.000000001
 43
0.00000001
 40
0.0
 40
0.0
 40
0.0
 40
0.0
 40
1.0
 40
1.0
 40
1.0
 40
1.0
 10
251.8590736920815
 20
29.19299694405386
 30
0.0
 10
251.9104020740787
 20
29.18183379041357
 30
0.0
 10
251.9565226381829
 20
29.16511978611186
 30
0.0
 10
251.9950030393132
 20
29.14366033203347
 30
0.0
  0
SPLINE
  5
222
330
1F
100
AcDbEntity
  8
0
  6
Continuous
 62
     7
370
    15
100
AcDbSpline
210
0.0
220
0.0
230
1.0
 70
     8
 71
     3
 72
    12
 73
     8
 74
     0
 42
0.000000001
 43
0.00000001
 40
0.0
 40
0.0
 40
0.0
 40
0.0
 40
0.1882366098261066
 40
0.3552062861212412
 40
0.5009511951253487
 40
0.7563094580701585
 40
1.0
 40
1.0
 40
1.0
 40
1.0
 10
252.6749902084133
 20
27.52742193475213
 30
0.0
 10
252.7640337402599
 20
27.62170358466994
 30
0.0
 10
252.9320606840066
 20
27.79961496305498
 30
0.0
 10
253.111970054419
 20
28.14693204073651
 30
0.0
 10
253.2734939748467
 20
28.60758574419406
 30
0.0
 10
253.3992497241944
 20
29.229127225662
 30
0.0
 10
253.4165524310585
 20
29.81244353594535
 30
0.0
 10
253.4250015165415
 20
30.09728274682206
 30
0.0
  0
SPLINE
  5
223
330
1F
100
AcDbEntity
  8
0
  6
Continuous
 62
     7
370
    15
100
AcDbSpline
210
0.0
220
0.0
230
1.0
 70
     8
 71
     3
 72
     9
 73
     5
 74
     0
 42
0.000000001
 43
0.00000001
 40
0.0
 40
0.0
 40
0.0
 40
0.0
 40
0.5048005003628353
 40
1.0
 40
1.0
 40
1.0
 40
1.0
 10
252.5642557963824
 20
26.80339741449102
 30
0.0
 10
252.5828006947162
 20
26.92511129053562
 30
0.0
 10
252.6195377786144
 20
27.16622411819151
 30
0.0
 10
252.6566348899703
 20
27.40773035143868
 30
0.0
 10
252.6750053609517
 20
27.52732411730194
 30
0.0
  0
SPLINE
  5
224
330
1F
100
AcDbEntity
  8
0
  6
Continuous
 62
     7
370
    15
100
AcDbSpline
210
0.0
220
0.0
230
1.0
 70
     8
 71
     3
 72
    10
 73
     6
 74
     0
 42
0.000000001
 43
0.00000001
 40
0.0
 40
0.0
 40
0.0
 40
0.0
 40
0.3703085079807364
 40
0.6860191668400558
 40
1.0
 40
1.0
 40
1.0
 40
1.0
 10
278.3117726354427
 20
28.84199147049512
 30
0.0
 10
278.1913668309095
 20
28.87616222746141
 30
0.0
 10
277.968307711477
 20
28.93946564533894
 30
0.0
 10
277.766376391069
 20
29.25973010968517
 30
0.0
 10
277.7421234814335
 20
29.54347630790694
 30
0.0
 10
277.7300303392036
 20
29.68495966738181
 30
0.0
  0
SPLINE
  5
225
330
1F
100
AcDbEntity
  8
0
  6
Continuous
 62
     7
370
    15
100
AcDbSpline
210
0.0
220
0.0
230
1.0
 70
     8
 71
     3
 72
    13
 73
     9
 74
     0
 42
0.000000001
 43
0.00000001
 40
0.0
 40
0.0
 40
0.0
 40
0.0
 40
0.0060267583406436
 40
0.1397542760736084
 40
0.3665892782944498
 40
0.5784443633022444
 40
0.7953041725633648
 40
0.9999999999999999
 40
0.9999999999999999
 40
0.9999999999999999
 40
0.9999999999999999
 10
279.9512751477374
 20
33.08563116361283
 30
0.0
 10
279.9512645730417
 20
33.08545582490735
 30
0.0
 10
279.9510193568123
 20
33.08138990215649
 30
0.0
 10
279.9367373625675
 20
33.05635940561698
 30
0.0
 10
279.9088310995317
 20
33.01336548689772
 30
0.0
 10
279.8668631355479
 20
32.95614428354572
 30
0.0
 10
279.8233068808857
 20
32.89936901340173
 30
0.0
 10
279.7925180844464
 20
32.86080468792591
 30
0.0
 10
279.7775678913656
 20
32.84207891171604
 30
0.0
  0
SPLINE
  5
226
330
1F
100
AcDbEntity
  8
0
  6
Continuous
 62
     7
370
    15
100
AcDbSpline
210
0.0
220
0.0
230
1.0
 70
     8
 71
     3
 72
    16
 73
    12
 74
     0
 42
0.000000001
 43
0.00000001
 40
0.0
 40
0.0
 40
0.0
 40
0.0
 40
0.2500000000000062
 40
0.2500000000000062
 40
0.5000000000000123
 40
0.5000000000000123
 40
0.6250000000000154
 40
0.6250000000000154
 40
0.7500000000000184
 40
0.7500000000000184
 40
1.0
 40
1.0
 40
1.0
 40
1.0
 10
287.1768075149552
 20
37.11356888715803
 30
0.0
 10
287.1453180458697
 20
37.11638408524143
 30
0.0
 10
287.1113125334793
 20
37.11783318291906
 30
0.0
 10
287.0344110502709
 20
37.11590461550643
 30
0.0
 10
286.9914572343847
 20
37.11274928903019
 30
0.0
 10
286.9178630530834
 20
37.09895620839636
 30
0.0
 10
286.8918197046805
 20
37.09262430803664
 30
0.0
 10
286.8435200793377
 20
37.07704613763865
 30
0.0
 10
286.8213704804355
 20
37.06783039091384
 30
0.0
 10
286.7663897707668
 20
37.03974824516492
 30
0.0
 10
286.74431637116
 20
37.02138398043334
 30
0.0
 10
286.7278265131065
 20
37.00421182046599
 30
0.0
  0
SPLINE
  5
227
330
1F
100
AcDbEntity
  8
0
  6
Continuous
 62
     7
370
    15
100
AcDbSpline
210
0.0
220
0.0
230
1.0
 70
     8
 71
     3
 72
     8
 73
     4
 74
     0
 42
0.000000001
 43
0.00000001
 40
0.0
 40
0.0
 40
0.0
 40
0.0
 40
1.0
 40
1.0
 40
1.0
 40
1.0
 10
286.7278265131065
 20
37.00421182046584
 30
0.0
 10
286.6774509926962
 20
37.02338451396677
 30
0.0
 10
286.625911218494
 20
37.04610761485977
 30
0.0
 10
286.5870410807382
 20
37.06854686775324
 30
0.0
  0
LINE
  5
228
330
1F
100
AcDbEntity
  8
0
  6
Continuous
 62
     7
370
    15
100
AcDbLine
 10
285.9441214743
 20
37.6778025745
 30
0.0
 11
285.814730964
 21
37.7457786552
 31
0.0
  0
LINE
  5
229
330
1F
100
AcDbEntity
  8
0
  6
Continuous
 62
     7
370
    15
100
AcDbLine
 10
285.1729026578
 20
37.8849116025
 30
0.0
 11
286.5870410807
 21
37.0685468678
 31
0.0
  0
ARC
  5
22A
330
1F
100
AcDbEntity
  8
0
  6
Continuous
 62
     7
370
    15
100
AcDbCircle
 10
276.8210809963
 20
37.2135752093
 30
0.0
 40
6.792220349291142
100
AcDbArc
 50
338.0789444274
 51
2.3341413816
  0
LINE
  5
22B
330
1F
100
AcDbEntity
  8
0
  6
Continuous
 62
     7
370
    15
100
AcDbLine
 10
283.1222178529
 20
34.6778442323
 30
0.0
 11
286.5870410807
 21
32.6776443584
 31
0.0
  0
LINE
  5
22C
330
1F
100
AcDbEntity
  8
0
  6
Continuous
 62
     7
370
    15
100
AcDbLine
 10
280.4445684448
 20
28.1512650884
 30
0.0
 11
280.5739654224
 21
28.0832859315
 31
0.0
  0
LINE
  5
22D
330
1F
100
AcDbEntity
  8
0
  6
Continuous
 62
     7
370
    15
100
AcDbLine
 10
277.7976319988
 20
29.9174150914
 30
0.0
 11
279.8016488383
 21
28.7605207951
 31
0.0
  0
LINE
  5
22E
330
1F
100
AcDbEntity
  8
0
  6
Continuous
 62
     7
370
    15
100
AcDbLine
 10
279.8729954403
 20
28.7023946257
 30
0.0
 11
278.3117726354
 21
28.8419914705
 31
0.0
  0
SPLINE
  5
22F
330
1F
100
AcDbEntity
  8
0
  6
Continuous
 62
     7
370
    15
100
AcDbSpline
210
0.0
220
0.0
230
1.0
 70
     8
 71
     3
 72
    16
 73
    12
 74
     0
 42
0.000000001
 43
0.00000001
 40
0.0
 40
0.0
 40
0.0
 40
0.0
 40
0.2499999999999997
 40
0.2499999999999997
 40
0.4999999999999993
 40
0.4999999999999993
 40
0.6249999999999991
 40
0.6249999999999991
 40
0.749999999999999
 40
0.749999999999999
 40
1.0
 40
1.0
 40
1.0
 40
1.0
 10
279.7775470293739
 20
28.38896960958367
 30
0.0
 10
279.8085957834477
 20
28.38619338309557
 30
0.0
 10
279.8392695071977
 20
28.38684071983025
 30
0.0
 10
279.8957490371666
 20
28.40094156147755
 30
0.0
 10
279.9223164243596
 20
28.41385964223566
 30
0.0
 10
279.9475383472866
 20
28.45591556058907
 30
0.0
 10
279.9529089745085
 20
28.4740434875268
 30
0.0
 10
279.9539382481478
 20
28.51670932885053
 30
0.0
 10
279.9495389536742
 20
28.54117121216243
 30
0.0
 10
279.926412157573
 20
28.61403660908472
 30
0.0
 10
279.9003847085967
 20
28.66011086894662
 30
0.0
 10
279.8729954403053
 20
28.70239462566287
 30
0.0
  0
SPLINE
  5
230
330
1F
100
AcDbEntity
  8
0
  6
Continuous
 62
     7
370
    15
100
AcDbSpline
210
0.0
220
0.0
230
1.0
 70
     8
 71
     3
 72
     8
 73
     4
 74
     0
 42
0.000000001
 43
0.00000001
 40
0.0
 40
0.0
 40
0.0
 40
0.0
 40
1.0
 40
1.0
 40
1.0
 40
1.0
 10
279.8016488383324
 20
28.76052079514308
 30
0.0
 10
279.8406049207126
 20
28.73803192747406
 30
0.0
 10
279.8630868945041
 20
28.71817768580319
 30
0.0
 10
279.8729954403053
 20
28.70239462566291
 30
0.0
  0
LINE
  5
231
330
1F
100
AcDbEntity
  8
0
  6
Continuous
 62
     7
370
    15
100
AcDbLine
 10
243.7658692607
 20
41.6059344101
 30
0.0
 11
243.3318021606
 21
41.8565567431
 31
0.0
  0
LINE
  5
232
330
1F
100
AcDbEntity
  8
0
  6
Continuous
 62
     7
370
    15
100
AcDbLine
 10
248.0907355193
 20
39.1092422627
 30
0.0
 11
243.7658692607
 21
41.6059344101
 31
0.0
  0
SPLINE
  5
233
330
1F
100
AcDbEntity
  8
0
  6
Continuous
 62
     7
370
    15
100
AcDbSpline
210
0.0
220
0.0
230
1.0
 70
     8
 71
     3
 72
    11
 73
     7
 74
     0
 42
0.000000001
 43
0.00000001
 40
0.0
 40
0.0
 40
0.0
 40
0.0
 40
0.0763291486414734
 40
0.4828240100966647
 40
0.8892344489868842
 40
0.9999999999999999
 40
0.9999999999999999
 40
0.9999999999999999
 40
0.9999999999999999
 10
247.6622292049118
 20
36.29320306444439
 30
0.0
 10
247.6617938255818
 20
36.3714422034644
 30
0.0
 10
247.6590398109259
 20
36.86634795730149
 30
0.0
 10
247.6143441537119
 20
37.79933399979882
 30
0.0
 10
247.5762690391503
 20
38.76481780807803
 30
0.0
 10
247.5882870582863
 20
39.28615657051299
 30
0.0
 10
247.5908610032058
 20
39.39781367836984
 30
0.0
  0
LINE
  5
234
330
1F
100
AcDbEntity
  8
0
  6
Continuous
 62
     7
370
    15
100
AcDbLine
 10
247.6622292049
 20
34.5174024354
 30
0.0
 11
247.6622292049
 21
36.2932030644
 31
0.0
  0
SPLINE
  5
235
330
1F
100
AcDbEntity
  8
0
  6
Continuous
 62
     7
370
    15
100
AcDbSpline
210
0.0
220
0.0
230
1.0
 70
     8
 71
     3
 72
     8
 73
     4
 74
     0
 42
0.000000001
 43
0.00000001
 40
0.0
 40
0.0
 40
0.0
 40
0.0
 40
1.0
 40
1.0
 40
1.0
 40
1.0
 10
286.5870410807391
 20
32.67764435836501
 30
0.0
 10
286.6259971631193
 20
32.65515549069596
 30
0.0
 10
286.6766654865868
 20
32.65157288234154
 30
0.0
 10
286.7278265131221
 20
32.65960437242217
 30
0.0
  0
SPLINE
  5
236
330
1F
100
AcDbEntity
  8
0
  6
Continuous
 62
     7
370
    15
100
AcDbSpline
210
0.0
220
0.0
230
1.0
 70
     8
 71
     3
 72
    16
 73
    12
 74
     0
 42
0.000000001
 43
0.00000001
 40
0.0
 40
0.0
 40
0.0
 40
0.0
 40
0.2499999999999832
 40
0.2499999999999832
 40
0.374999999999986
 40
0.374999999999986
 40
0.4999999999999888
 40
0.4999999999999888
 40
0.7499999999999943
 40
0.7499999999999943
 40
1.0
 40
1.0
 40
1.0
 40
1.0
 10
286.7278265131222
 20
32.6596043724221
 30
0.0
 10
286.7441422202699
 20
32.61106562138326
 30
0.0
 10
286.7665170373015
 20
32.56223356805042
 30
0.0
 10
286.8206516746477
 20
32.50803277270354
 30
0.0
 10
286.8425854643308
 20
32.49370473426008
 30
0.0
 10
286.8907004841037
 20
32.47921662009839
 30
0.0
 10
286.9166687978064
 20
32.4791000438564
 30
0.0
 10
286.9903164114093
 20
32.49419097670119
 30
0.0
 10
287.0337369034163
 20
32.52162772636765
 30
0.0
 10
287.1109405505404
 20
32.58453568269944
 30
0.0
 10
287.1455634779144
 20
32.62159061417032
 30
0.0
 10
287.1768283146469
 20
32.66048377383628
 30
0.0
  0
LINE
  5
237
330
1F
100
AcDbEntity
  8
0
  6
Continuous
 62
     7
370
    15
100
AcDbLine
 10
246.7341515546
 20
39.7060288117
 30
0.0
 11
246.7351925819
 21
39.8917805436
 31
0.0
  0
ARC
  5
238
330
1F
100
AcDbEntity
  8
0
  6
Continuous
 62
     7
370
    15
100
AcDbCircle
 10
258.6912312738
 20
39.4444696343
 30
0.0
 40
11.95994015934521
100
AcDbArc
 50
178.7468639795
 51
202.7557767409
  0
LWPOLYLINE
  5
239
330
1F
100
AcDbEntity
  8
0
  6
Continuous
 62
     7
370
    15
100
AcDbPolyline
 90
        3
 70
   128
 43
0.0
 10
228.0553664033
 20
76.3776432993
 10
228.0706837266
 20
76.3729510823
 10
228.2258534293
 20
76.3210783448
  0
LINE
  5
23A
330
1F
100
AcDbEntity
  8
0
  6
Continuous
 62
     7
370
    15
100
AcDbLine
 10
218.1164987539
 20
58.8092649739
 30
0.0
 11
218.002299127
 21
58.9100103005
 31
0.0
  0
SPLINE
  5
23B
330
1F
100
AcDbEntity
  8
0
  6
Continuous
 62
     7
370
    15
100
AcDbSpline
210
0.0
220
0.0
230
1.0
 70
     8
 71
     3
 72
    26
 73
    22
 74
     0
 42
0.000000001
 43
0.00000001
 40
0.0
 40
0.0
 40
0.0
 40
0.0
 40
0.1249999999999999
 40
0.1249999999999999
 40
0.1874999999999998
 40
0.1874999999999998
 40
0.2499999999999997
 40
0.2499999999999997
 40
0.3749999999999997
 40
0.3749999999999997
 40
0.4999999999999996
 40
0.4999999999999996
 40
0.6249999999999994
 40
0.6249999999999994
 40
0.6874999999999996
 40
0.6874999999999996
 40
0.7499999999999996
 40
0.7499999999999996
 40
0.8749999999999999
 40
0.8749999999999999
 40
1.0
 40
1.0
 40
1.0
 40
1.0
 10
288.2890493179849
 20
34.60175069940431
 30
0.0
 10
288.3753568470955
 20
34.70911644510765
 30
0.0
 10
288.4533548506502
 20
34.82327670388933
 30
0.0
 10
288.5569406600692
 20
35.00515876540393
 30
0.0
 10
288.589412962193
 20
35.06802299819496
 30
0.0
 10
288.6482900073082
 20
35.19409651121794
 30
0.0
 10
288.6748293853727
 20
35.25752351091096
 30
0.0
 10
288.7459028010232
 20
35.44895894946684
 30
0.0
 10
288.7821536849496
 20
35.57989823895276
 30
0.0
 10
288.8286945379898
 20
35.83131017142692
 30
0.0
 10
288.8396619871785
 20
35.95389743191375
 30
0.0
 10
288.8370262109419
 20
36.18433910059291
 30
0.0
 10
288.8236882584109
 20
36.28974131773179
 30
0.0
 10
288.786200229006
 20
36.43284584544322
 30
0.0
 10
288.7707008757304
 20
36.47791066973848
 30
0.0
 10
288.7346383817045
 20
36.56033102741077
 30
0.0
 10
288.7139570388539
 20
36.59807902016259
 30
0.0
 10
288.6438742521293
 20
36.7010678155474
 30
0.0
 10
288.5859251623312
 20
36.75605374947092
 30
0.0
 10
288.452319883692
 20
36.83336312788235
 30
0.0
 10
288.375365236502
 20
36.85689702588435
 30
0.0
 10
288.2890493228281
 20
36.86461497283183
 30
0.0
  0
LINE
  5
23C
330
1F
100
AcDbEntity
  8
0
  6
Continuous
 62
     7
370
    15
100
AcDbLine
 10
288.2890493228
 20
36.8646149728
 30
0.0
 11
286.7278265131
 21
37.0042118205
 31
0.0
  0
ARC
  5
23D
330
1F
100
AcDbEntity
  8
0
  6
Continuous
 62
     7
370
    15
100
AcDbCircle
 10
282.7260656987
 20
38.2934897508
 30
0.0
 40
2.574168997250651
100
AcDbArc
 50
320.7034755418
 51
349.7435996042
  0
LINE
  5
23E
330
1F
100
AcDbEntity
  8
0
  6
Continuous
 62
     7
370
    15
100
AcDbLine
 10
286.7278265131
 20
32.6596043724
 30
0.0
 11
288.289049318
 21
34.6017506994
 31
0.0
  0
LINE
  5
23F
330
1F
100
AcDbEntity
  8
0
  6
Continuous
 62
     7
370
    15
100
AcDbLine
 10
283.1222178529
 20
34.6778442323
 30
0.0
 11
284.718160073
 21
36.6631811818
 31
0.0
  0
LWPOLYLINE
  5
240
330
1F
100
AcDbEntity
  8
0
  6
Continuous
 62
     7
370
    15
100
AcDbPolyline
 90
       10
 70
   128
 43
0.0
 10
255.0717972027
 20
20.9439109311
 10
254.260404135
 20
21.1146468505
 10
253.1017707937
 20
21.5018287606
 10
252.0234707188
 20
22.0433242651
 10
251.0330218759
 20
22.7353580286
 10
250.1373297268
 20
23.5731051551
 10
249.3426390846
 20
24.5507248272
 10
248.6544905747
 20
25.6614010285
 10
248.0776820051
 20
26.8973900657
 10
247.6162349156
 20
28.2500745577
  0
SPLINE
  5
241
330
1F
100
AcDbEntity
  8
0
  6
Continuous
 62
     7
370
    15
100
AcDbSpline
210
0.0
220
0.0
230
1.0
 70
     8
 71
     3
 72
     8
 73
     4
 74
     0
 42
0.000000001
 43
0.00000001
 40
0.0000000000000006
 40
0.0000000000000006
 40
0.0000000000000006
 40
0.0000000000000006
 40
0.001241704756042
 40
0.001241704756042
 40
0.001241704756042
 40
0.001241704756042
 10
248.0907355192554
 20
28.6166928299378
 30
0.0
 10
247.932675361745
 20
28.49428962493329
 30
0.0
 10
247.7745060560638
 20
28.37208739496485
 30
0.0
 10
247.616234915603
 20
28.25007455765373
 30
0.0
  0
SPLINE
  5
242
330
1F
100
AcDbEntity
  8
0
  6
Continuous
 62
     7
370
    15
100
AcDbSpline
210
0.0
220
0.0
230
1.0
 70
     8
 71
     3
 72
     8
 73
     4
 74
     0
 42
0.000000001
 43
0.00000001
 40
0.0
 40
0.0
 40
0.0
 40
0.0
 40
1.0
 40
1.0
 40
1.0
 40
1.0
 10
248.0907355192545
 20
28.61669282993972
 30
0.0
 10
249.2619681039296
 20
28.80897246026761
 30
0.0
 10
250.4325874785214
 20
29.00256012747776
 30
0.0
 10
251.6021966637033
 20
29.19811341914833
 30
0.0
  0
SPLINE
  5
243
330
1F
100
AcDbEntity
  8
0
  6
Continuous
 62
     7
370
    15
100
AcDbSpline
210
0.0
220
0.0
230
1.0
 70
     8
 71
     3
 72
    10
 73
     6
 74
     0
 42
0.000000001
 43
0.00000001
 40
0.0
 40
0.0
 40
0.0
 40
0.0
 40
0.5
 40
0.5
 40
1.0
 40
1.0
 40
1.0
 40
1.0
 10
251.6021966637033
 20
29.19811341914834
 30
0.0
 10
251.6439625247177
 20
29.20509647956228
 30
0.0
 10
251.6878598105318
 20
29.20838657057066
 30
0.0
 10
251.7754871933218
 20
29.20672359614161
 30
0.0
 10
251.8179924903824
 20
29.20193148959087
 30
0.0
 10
251.8590736920815
 20
29.19299694405386
 30
0.0
  0
LINE
  5
244
330
1F
100
AcDbEntity
  8
0
  6
Continuous
 62
     7
370
    15
100
AcDbLine
 10
243.7658692607
 20
31.1133849774
 30
0.0
 11
248.0907355193
 21
28.6166928299
 31
0.0
  0
LINE
  5
245
330
1F
100
AcDbEntity
  8
0
  6
Continuous
 62
     7
370
    15
100
AcDbLine
 10
243.7658692607
 20
31.1133849774
 30
0.0
 11
247.3086758143
 21
33.1586036671
 31
0.0
  0
LINE
  5
246
330
1F
100
AcDbEntity
  8
0
  6
Continuous
 62
     7
370
    15
100
AcDbLine
 10
243.3318021606
 20
30.8627626444
 30
0.0
 11
243.7658692607
 21
31.1133849774
 31
0.0
  0
LINE
  5
247
330
1F
100
AcDbEntity
  8
0
  6
Continuous
 62
     7
370
    15
100
AcDbLine
 10
247.6162349156
 20
28.2500745577
 30
0.0
 11
243.4884990804
 21
30.632965734
 31
0.0
  0
SPLINE
  5
248
330
1F
100
AcDbEntity
  8
0
  6
Continuous
 62
     7
370
    15
100
AcDbSpline
210
0.0
220
0.0
230
1.0
 70
     8
 71
     3
 72
     8
 73
     4
 74
     0
 42
0.000000001
 43
0.00000001
 40
0.0
 40
0.0
 40
0.0
 40
0.0
 40
1.0
 40
1.0
 40
1.0
 40
1.0
 10
243.4884990804265
 20
30.63296573403627
 30
0.0
 10
243.4082798512604
 20
30.67927530930686
 30
0.0
 10
243.3538900889746
 20
30.76293815031566
 30
0.0
 10
243.3318021606157
 20
30.86276264442269
 30
0.0
  0
ARC
  5
249
330
1F
100
AcDbEntity
  8
0
  6
Continuous
 62
     7
370
    15
100
AcDbCircle
 10
252.5106688996
 20
32.0515959642
 30
0.0
 40
8.91231200914786
100
AcDbArc
 50
214.6160533681
 51
239.573871766
  0
ELLIPSE
  5
24A
330
1F
100
AcDbEntity
  8
0
  6
Continuous
 62
     7
370
    15
100
AcDbEllipse
 10
247.0157825955
 20
34.1442281351
 30
0.0
 11
-7.507462979106096E-5
 21
1.066811201853405
 31
0.0
210
0.0
220
0.0
230
1.0
 40
0.7174342186
 41
3.534193645557514
 42
5.104989972352375
  0
ELLIPSE
  5
24B
330
1F
100
AcDbEntity
  8
0
  6
Continuous
 62
     7
370
    15
100
AcDbEllipse
 10
246.9551224237
 20
34.1091983795
 30
0.0
 11
0.3250094736511642
 21
1.213179526238669
 31
0.0
210
0.0
220
0.0
230
1.0
 40
0.5176380889
 41
3.619174351347721
 42
5.189970678142622
  0
LWPOLYLINE
  5
24C
330
1F
100
AcDbEntity
  8
0
  6
Continuous
 62
     7
370
    15
100
AcDbPolyline
 90
        8
 70
   128
 43
0.0
 10
261.3123012348
 20
55.9671322579
 10
261.0523701551
 20
55.6241638271
 10
260.9588187815
 20
55.2527617809
 10
261.0458894626
 20
54.9094687141
 10
261.3003264765
 20
54.6465478842
 10
261.6833940943
 20
54.5040266041
 10
262.1367737438
 20
54.5036024468
 10
262.2794623765
 20
54.5325706756
  0
LWPOLYLINE
  5
24D
330
1F
100
AcDbEntity
  8
0
  6
Continuous
 62
     7
370
    15
100
AcDbPolyline
 90
        7
 70
   128
 43
0.0
 10
263.3302010261
 20
55.6752103939
 10
263.2445928906
 20
55.9653245109
 10
262.9901558767
 20
56.2282453408
 10
262.6070882588
 20
56.3707666209
 10
262.1537086094
 20
56.3711907782
 10
261.69903987
 20
56.2294532387
 10
261.3123012348
 20
55.9671322579
  0
LINE
  5
24E
330
1F
100
AcDbEntity
  8
0
  6
Continuous
 62
     7
370
    15
100
AcDbLine
 10
261.9219637688
 20
54.7647171529
 30
0.0
 11
262.7351795527
 21
55.0622058326
 31
0.0
  0
LINE
  5
24F
330
1F
100
AcDbEntity
  8
0
  6
Continuous
 62
     7
370
    15
100
AcDbLine
 10
262.9584569605
 20
55.7348852922
 30
0.0
 11
262.7351795527
 21
55.0622058326
 31
0.0
  0
LINE
  5
250
330
1F
100
AcDbEntity
  8
0
  6
Continuous
 62
     7
370
    15
100
AcDbLine
 10
262.3685185843
 20
56.1100760722
 30
0.0
 11
262.9584569605
 21
55.7348852922
 31
0.0
  0
LINE
  5
251
330
1F
100
AcDbEntity
  8
0
  6
Continuous
 62
     7
370
    15
100
AcDbLine
 10
262.3685185843
 20
56.1100760722
 30
0.0
 11
261.5553028004
 21
55.8125873924
 31
0.0
  0
LINE
  5
252
330
1F
100
AcDbEntity
  8
0
  6
Continuous
 62
     7
370
    15
100
AcDbLine
 10
261.3320253927
 20
55.1399079328
 30
0.0
 11
261.5553028004
 21
55.8125873924
 31
0.0
  0
LINE
  5
253
330
1F
100
AcDbEntity
  8
0
  6
Continuous
 62
     7
370
    15
100
AcDbLine
 10
261.3320253927
 20
55.1399079328
 30
0.0
 11
261.9219637688
 21
54.7647171529
 31
0.0
  0
LINE
  5
254
330
1F
100
AcDbEntity
  8
0
  6
Continuous
 62
     7
370
    15
100
AcDbLine
 10
262.610363347
 20
55.4823927064
 30
0.0
 11
262.8285834001
 21
55.3436084617
 31
0.0
  0
LINE
  5
255
330
1F
100
AcDbEntity
  8
0
  6
Continuous
 62
     7
370
    15
100
AcDbLine
 10
262.610363347
 20
55.4823927064
 30
0.0
 11
262.3685185843
 21
56.1100760722
 31
0.0
  0
LINE
  5
256
330
1F
100
AcDbEntity
  8
0
  6
Continuous
 62
     7
370
    15
100
AcDbLine
 10
262.610363347
 20
55.4823927064
 30
0.0
 11
261.7971475631
 21
55.1849040266
 31
0.0
  0
LINE
  5
257
330
1F
100
AcDbEntity
  8
0
  6
Continuous
 62
     7
370
    15
100
AcDbLine
 10
261.7037437157
 20
54.9035013975
 30
0.0
 11
261.7971475631
 21
55.1849040266
 31
0.0
  0
LINE
  5
258
330
1F
100
AcDbEntity
  8
0
  6
Continuous
 62
     7
370
    15
100
AcDbLine
 10
261.7971475631
 20
55.1849040266
 30
0.0
 11
261.5553028004
 21
55.8125873924
 31
0.0
  0
LWPOLYLINE
  5
259
330
1F
100
AcDbEntity
  8
0
  6
Continuous
 62
     7
370
     0
100
AcDbPolyline
 90
       43
 70
   128
 43
0.0
 10
255.1929164245
 20
29.0774157059
 10
255.2553267514
 20
30.8100081321
 10
255.4421080642
 20
32.6021746198
 10
255.7519145993
 20
34.4410025684
 10
256.1825141935
 20
36.3132431803
 10
256.7308043669
 20
38.2054069192
 10
257.3928346762
 20
40.1038607018
 10
258.1638351778
 20
41.9949261252
 10
259.0382507955
 20
43.8649780196
 10
260.0097813446
 20
45.7005426184
 10
261.0714269255
 20
47.4883946364
 10
262.2155383572
 20
49.215652559
 10
263.4338722907
 20
50.8698714533
 10
264.7176506022
 20
52.4391326341
 10
266.0576236393
 20
53.9121295388
 10
267.4441368659
 20
55.2782491908
 10
268.8672004221
 20
56.5276486668
 10
270.3165611026
 20
57.651326015
 10
271.7817762304
 20
58.6411851143
 10
273.2522888969
 20
59.4900940071
 10
274.7175040246
 20
60.1919362855
 10
276.1668647051
 20
60.7416551598
 10
277.5899282614
 20
61.1352898928
 10
278.9764414879
 20
61.3700043374
 10
280.3164145251
 20
61.4441073705
 10
281.6001928365
 20
61.3570650782
 10
282.8185267701
 20
61.109504602
 10
283.9626382018
 20
60.703209621
 10
285.0242837826
 20
60.1411074997
 10
285.9958143318
 20
59.4272481969
 10
286.8702299495
 20
58.5667750851
 10
287.6412304511
 20
57.565887893
 10
288.3032607603
 20
56.4317980355
 10
288.8515509337
 20
55.1726766561
 10
289.2821505279
 20
53.7975957533
 10
289.591957063
 20
52.3164628163
 10
289.7787383758
 20
50.7399494421
 10
289.8411487027
 20
49.0794144455
 10
289.7787383758
 20
47.3468220193
 10
289.591957063
 20
45.5546555316
 10
289.2821505279
 20
43.715827583
 10
288.8515509337
 20
41.8435869711
 10
288.6200376784
 20
40.9967996039
  0
LWPOLYLINE
  5
25A
330
1F
100
AcDbEntity
  8
0
  6
Continuous
 62
     7
370
     0
100
AcDbPolyline
 90
       24
 70
   128
 43
0.0
 10
278.9085639972
 20
24.1742110091
 10
277.5899282614
 20
22.8785809606
 10
276.1668647051
 20
21.6291814846
 10
274.7175040246
 20
20.5055041364
 10
273.2522888969
 20
19.5156450372
 10
271.7817762304
 20
18.6667361443
 10
270.3165611026
 20
17.9648938659
 10
268.8672004221
 20
17.4151749916
 10
267.4441368659
 20
17.0215402586
 10
266.0576236393
 20
16.786825814
 10
264.7176506022
 20
16.7127227809
 10
263.4338722907
 20
16.7997650733
 10
262.2155383572
 20
17.0473255494
 10
261.0714269255
 20
17.4536205304
 10
260.0097813446
 20
18.0157226517
 10
259.0382507955
 20
18.7295819545
 10
258.1638351778
 20
19.5900550663
 10
257.3928346762
 20
20.5909422585
 10
256.7308043669
 20
21.7250321159
 10
256.1825141935
 20
22.9841534953
 10
255.7519145993
 20
24.3592343982
 10
255.4421080642
 20
25.8403673351
 10
255.2553267514
 20
27.4168807093
 10
255.1929164245
 20
29.0774157059
  0
LWPOLYLINE
  5
25B
330
1F
100
AcDbEntity
  8
0
  6
Continuous
 62
     7
370
     0
100
AcDbPolyline
 90
       27
 70
   128
 43
0.0
 10
254.4858096434
 20
29.0774157059
 10
254.5478077185
 20
30.8213657861
 10
254.7333670721
 20
32.6246647636
 10
255.0411861386
 20
34.4746637915
 10
255.4691057883
 20
36.358386456
 10
256.0141244725
 20
38.262619796
 10
256.6724192766
 20
40.1740069828
 10
257.4393727355
 20
42.0791410086
 10
258.3096052219
 20
43.9646587271
 10
259.27701268
 20
45.8173345863
 10
260.3348094416
 20
47.624173396
 10
261.4755758226
 20
49.3725014804
 10
262.6913101662
 20
51.0500555739
 10
263.9734849698
 20
52.6450688401
 10
265.3131066981
 20
54.1463534068
 10
266.7007788674
 20
55.5433788416
 10
268.1267679544
 20
56.8263460146
 10
269.5810716702
 20
57.986255833
 10
271.0534891192
 20
59.0149723629
 10
272.5336923509
 20
59.9052798969
 10
274.0112988031
 20
60.6509335673
 10
275.4759441283
 20
61.2467031494
 10
276.9173548918
 20
61.6884097477
 10
278.3254206329
 20
61.9729551077
 10
279.6902647819
 20
62.0983433481
 10
281.0023139379
 20
62.0636949606
 10
281.0451113227
 20
62.0597759759
  0
ARC
  5
25C
330
1F
100
AcDbEntity
  8
0
  6
Continuous
 62
     7
370
     0
100
AcDbCircle
 10
269.8542503365
 20
28.4686748789
 30
0.0
 40
15.38049201853278
100
AcDbArc
 50
177.7317115345
 51
212.7926336904
  0
LWPOLYLINE
  5
25D
330
1F
100
AcDbEntity
  8
0
  6
Continuous
 62
     7
370
     0
100
AcDbPolyline
 90
       25
 70
   128
 43
0.0
 10
264.2085278847
 20
34.2820174188
 10
264.2715021155
 20
35.4974054978
 10
264.4594701829
 20
36.7670780318
 10
264.7695826826
 20
38.0717880793
 10
265.1971386252
 20
39.391757566
 10
265.7356566984
 20
40.7069770999
 10
266.3769735171
 20
41.9975092936
 10
267.1113673722
 20
43.2437909946
 10
267.9277056013
 20
44.4269298425
 10
268.8136133491
 20
45.5289906586
 10
269.7556611571
 20
46.5332673242
 10
270.7395685408
 20
47.4245360287
 10
271.7504204673
 20
48.1892860472
 10
272.7728934517
 20
48.8159245489
 10
273.7914878459
 20
49.2949523328
 10
274.7907627971
 20
49.619107826
 10
275.7555703157
 20
49.7834771618
 10
276.6712849031
 20
49.7855686684
 10
277.5240252597
 20
49.6253506409
 10
278.3008647108
 20
49.3052518212
 10
278.9900271623
 20
48.830124581
 10
279.5810656139
 20
48.2071713652
 10
280.0650205252
 20
47.4458355093
 10
280.4345556329
 20
46.5576580889
 10
280.6706220786
 20
45.629473335
  0
LWPOLYLINE
  5
25E
330
1F
100
AcDbEntity
  8
0
  6
Continuous
 62
     7
370
     0
100
AcDbPolyline
 90
       13
 70
   128
 43
0.0
 10
270.9214144354
 20
28.7415205186
 10
270.7395685408
 20
28.6800778446
 10
269.7556611571
 20
28.4353512642
 10
268.8136133491
 20
28.3519626823
 10
267.9277056013
 20
28.4311761847
 10
267.1113673722
 20
28.6717909755
 10
266.3769735171
 20
29.0701595797
 10
265.7356566984
 20
29.6202431354
 10
265.1971386252
 20
30.3137029366
 10
264.7695826826
 20
31.1400268395
 10
264.4594701829
 20
32.0866886162
 10
264.2715021155
 20
33.139337839
 10
264.2085278847
 20
34.2820174188
  0
LWPOLYLINE
  5
25F
330
1F
100
AcDbEntity
  8
0
  6
Continuous
 62
     7
370
     0
100
AcDbPolyline
 90
       21
 70
   128
 43
0.0
 10
251.6021966637
 20
39.6906628519
 10
252.0718421755
 20
41.4500907823
 10
252.6560106643
 20
43.2205465853
 10
253.349923983
 20
44.9875489961
 10
254.1479063375
 20
46.7366449967
 10
255.0434307116
 20
48.4535280326
 10
256.0291722539
 20
50.1241550323
 10
257.097068191
 20
51.7348612706
 10
258.2383837757
 20
53.2724721384
 10
259.4437837323
 20
54.7244109024
 10
260.7034086133
 20
56.0788015761
 10
262.0069554441
 20
57.3245660575
 10
263.3437619948
 20
58.4515147417
 10
264.7028939911
 20
59.4504298654
 10
266.0732345498
 20
60.3131409032
 10
267.4435751084
 20
61.0325913972
 10
268.8027071047
 20
61.6028966745
 10
270.1395136554
 20
62.0193919807
 10
271.4430604862
 20
62.2786706344
 10
272.7026853673
 20
62.378611892
 10
272.8592032308
 20
62.3798454675
  0
LWPOLYLINE
  5
260
330
1F
100
AcDbEntity
  8
0
  6
Continuous
 62
     7
370
     0
100
AcDbPolyline
 90
       23
 70
   128
 43
0.0
 10
243.4884990804
 20
41.7661088599
 10
243.9499461699
 20
43.6515688209
 10
244.5267547396
 20
45.5535268571
 10
245.2149032494
 20
47.4587224161
 10
246.0095938916
 20
49.3538723734
 10
246.9052860407
 20
51.225763643
 10
247.8957348837
 20
53.0613452995
 10
248.9740349585
 20
54.8478195702
 10
250.1326682998
 20
56.5727310619
 10
251.3635568546
 20
58.2240535999
 10
252.6581188025
 20
59.790274076
 10
254.0073283889
 20
61.2604727179
 10
255.401778853
 20
62.6243992226
 10
256.8317480121
 20
63.8725442222
 10
258.2872660455
 20
64.9962055835
 10
259.7581850041
 20
65.98754908
 10
261.2342495628
 20
66.839663012
 10
262.7051685214
 20
67.5466063961
 10
264.1606865548
 20
68.1034503855
 10
265.5906557139
 20
68.5063126344
 10
266.985106178
 20
68.7523843657
 10
268.3343157644
 20
68.8399499543
 10
269.3473111303
 20
68.7979581757
  0
LWPOLYLINE
  5
261
330
1F
100
AcDbEntity
  8
0
  6
Continuous
 62
     7
370
     0
100
AcDbPolyline
 90
       20
 70
   128
 43
0.0
 10
251.9950030393
 20
39.633016395
 10
252.462730986
 20
41.3726499274
 10
253.043277396
 20
43.1227407875
 10
253.7319151517
 20
44.8690388047
 10
254.5230369984
 20
46.5973246918
 10
255.4102012011
 20
48.293525826
 10
256.3861839971
 20
49.9438308355
 10
257.4430384154
 20
51.5348020592
 10
258.5721589853
 20
53.0534849634
 10
259.7643518067
 20
54.4875136241
 10
261.0099094114
 20
55.8252114173
 10
262.298689807
 20
57.0556860962
 10
263.6201990582
 20
58.1689184814
 10
264.9636767338
 20
59.1558440429
 10
266.318183524
 20
60.0084267079
 10
267.6726903143
 20
60.7197242948
 10
269.0161679899
 20
61.2839450405
 10
270.3376772411
 20
61.6964947595
 10
271.6264576367
 20
61.9540142526
 10
271.9267099732
 20
61.9921515332
  0
LWPOLYLINE
  5
262
330
1F
100
AcDbEntity
  8
0
  6
Continuous
 62
     7
370
     0
100
AcDbPolyline
 90
        7
 70
   128
 43
0.0
 10
267.0369550094
 20
34.2820174188
 10
267.0984694036
 20
33.2563950948
 10
267.2819148602
 20
32.3200980331
 10
267.5840177908
 20
31.4898344772
 10
267.9993871614
 20
30.7804204997
 10
268.5206106958
 20
30.2045156098
 10
269.0566423044
 20
29.8180305557
  0
LWPOLYLINE
  5
263
330
1F
100
AcDbEntity
  8
0
  6
Continuous
 62
     7
370
     0
100
AcDbPolyline
 90
       19
 70
   128
 43
0.0
 10
278.8058499476
 20
46.7059833721
 10
278.3823924876
 20
46.9112426127
 10
277.6409425134
 20
47.1140645153
 10
276.8332929193
 20
47.1589212413
 10
275.9738562313
 20
47.0450123212
 10
275.0779691177
 20
46.7743704624
 10
274.1616187051
 20
46.3518252754
 10
273.2411572884
 20
45.7849170889
 10
272.3330105234
 20
45.083762393
 10
271.4533843105
 20
44.2608733099
 10
270.6179756004
 20
43.3309343147
 10
269.8416922814
 20
42.3105401908
 10
269.1383871476
 20
41.2178998956
 10
268.5206106958
 20
40.0725116211
 10
267.9993871614
 20
38.894814848
 10
267.5840177908
 20
37.7058256032
 10
267.2819148602
 20
36.526761428
 10
267.0984694036
 20
35.3786627505
 10
267.0369550094
 20
34.2820174188
  0
LWPOLYLINE
  5
264
330
1F
100
AcDbEntity
  8
0
  6
Continuous
 62
     7
370
     0
100
AcDbPolyline
 90
       13
 70
   128
 43
0.0
 10
279.7775470294
 20
28.3889696096
 10
280.1869348202
 20
27.8898598265
 10
280.7046832147
 20
27.5508542777
 10
281.3137407791
 20
27.3831177117
 10
281.9940489197
 20
27.3921743348
 10
282.7232024887
 20
27.5777258777
 10
283.477187672
 20
27.933661419
 10
284.2311728553
 20
28.4482586405
 10
284.9603264244
 20
29.1045698888
 10
285.6406345649
 20
29.8809803257
 10
286.2496921293
 20
30.7519197875
 10
286.7674405238
 20
31.6887049085
 10
287.1768283146
 20
32.6604837738
  0
LWPOLYLINE
  5
265
330
1F
100
AcDbEntity
  8
0
  6
Continuous
 62
     7
370
     0
100
AcDbPolyline
 90
       13
 70
   128
 43
0.0
 10
287.176807515
 20
37.1135688872
 10
286.7674174724
 20
37.6126654293
 10
286.2496697268
 20
37.951660215
 10
285.6406153535
 20
38.1193890707
 10
284.9603124449
 20
38.1103281532
 10
284.2311655333
 20
37.9247758672
 10
283.4771877394
 20
37.5688430381
 10
282.7232099433
 20
37.0542516628
 10
281.9940630251
 20
36.3979488675
 10
281.3137601057
 20
35.6215487849
 10
280.7047057179
 20
34.7506207322
 10
280.1869579545
 20
33.8138471325
 10
279.7775678914
 20
32.8420789117
  0
LINE
  5
266
330
1F
100
AcDbEntity
  8
0
  6
Continuous
 62
     7
370
     0
100
AcDbLine
 10
251.8590736921
 20
29.1929969441
 30
0.0
 11
253.0185630724
 21
29.8623559156
 31
0.0
  0
LINE
  5
267
330
1F
100
AcDbEntity
  8
0
  6
Continuous
 62
     7
370
     0
100
AcDbLine
 10
253.4045127829
 20
29.6585168483
 30
0.0
 11
253.0185630724
 21
29.8623559156
 31
0.0
  0
LINE
  5
268
330
1F
100
AcDbEntity
  8
0
  6
Continuous
 62
     7
370
     0
100
AcDbLine
 10
278.3117726354
 20
28.8419914705
 30
0.0
 11
278.4001609831
 21
28.512128678
 31
0.0
  0
LWPOLYLINE
  5
269
330
1F
100
AcDbEntity
  8
0
  6
Continuous
 62
     7
370
     0
100
AcDbPolyline
 90
        3
 70
   128
 43
0.0
 10
286.5870410807
 20
37.0685468678
 10
286.1600683897
 20
37.5318164166
 10
285.9441214743
 20
37.6778025745
  0
LWPOLYLINE
  5
26A
330
1F
100
AcDbEntity
  8
0
  6
Continuous
 62
     7
370
     0
100
AcDbPolyline
 90
       11
 70
   128
 43
0.0
 10
280.5739654224
 20
28.0832859315
 10
280.7654151153
 20
28.0049599148
 10
281.3921521012
 20
27.8944703639
 10
282.0856243835
 20
27.9698740276
 10
282.8201526472
 20
28.2283787042
 10
283.5685372719
 20
28.660411952
 10
284.3030655356
 20
29.249975557
 10
284.9965378179
 20
29.9752379478
 10
285.6232748038
 20
30.80934262
 10
286.1600683897
 20
31.7214026337
 10
286.5870410807
 20
32.6776443584
  0
LINE
  5
26B
330
1F
100
AcDbEntity
  8
0
  6
Continuous
 62
     7
370
     0
100
AcDbLine
 10
277.9293964731
 20
29.0627325304
 30
0.0
 11
278.3117726354
 21
28.8419914705
 31
0.0
  0
ARC
  5
26C
330
1F
100
AcDbEntity
  8
0
  6
Continuous
 62
     7
370
     0
100
AcDbCircle
 10
252.2934166115
 20
31.0382764689
 30
0.0
 40
1.381530505394303
100
AcDbArc
 50
301.6605905891
 51
324.2377952695
  0
LINE
  5
26D
330
1F
100
AcDbEntity
  8
0
  6
Continuous
 62
     7
370
     0
100
AcDbLine
 10
247.7228893767
 20
34.5524321911
 30
0.0
 11
253.2978924439
 21
31.3340514255
 31
0.0
  0
LINE
  5
26E
330
1F
100
AcDbEntity
  8
0
  6
Continuous
 62
     7
370
     0
100
AcDbLine
 10
247.6622292049
 20
34.5174024354
 30
0.0
 11
247.7228893767
 21
34.5524321911
 31
0.0
  0
LINE
  5
26F
330
1F
100
AcDbEntity
  8
0
  6
Continuous
 62
     7
370
     0
100
AcDbLine
 10
247.4412583358
 20
39.2978247558
 30
0.0
 11
247.442299363
 21
39.4835764877
 31
0.0
  0
LWPOLYLINE
  5
270
330
1F
100
AcDbEntity
  8
0
  6
Continuous
 62
     7
370
     0
100
AcDbPolyline
 90
        3
 70
   128
 43
0.0
 10
247.5948011243
 20
37.144832703
 10
247.502617587
 20
37.9135243127
 10
247.4412583358
 20
39.2978247558
  0
LWPOLYLINE
  5
271
330
1F
100
AcDbEntity
  8
0
  6
Continuous
 62
     7
370
     0
100
AcDbPolyline
 90
       18
 70
   128
 43
0.0
 10
216.5080386521
 20
63.113443347
 10
216.5695269684
 20
64.2322581783
 10
216.7529398349
 20
65.4029226765
 10
217.0551390069
 20
66.6054064473
 10
217.4709537725
 20
67.8191346602
 10
217.9932694259
 20
69.0233400888
 10
218.6131490015
 20
70.1974184445
 10
219.3199861878
 20
71.321280921
 10
220.1016868047
 20
72.3756979197
 10
220.9448757378
 20
73.3426280736
 10
221.8351257907
 20
74.2055269395
 10
222.7572045381
 20
74.9496300786
 10
223.6953349572
 20
75.5622056799
 10
224.6334653763
 20
76.0327724051
 10
225.5555441238
 20
76.353278727
 10
226.4457941767
 20
76.5182406935
 10
227.2889831097
 20
76.5248357598
 10
228.0553664033
 20
76.3776432993
  0
ARC
  5
272
330
1F
100
AcDbEntity
  8
0
  6
Continuous
 62
     7
370
     0
100
AcDbCircle
 10
221.9528737181
 20
62.6816938651
 30
0.0
 40
5.46192608069814
100
AcDbArc
 50
175.4662041914
 51
223.6729441429
  0
LINE
  5
273
330
1F
100
AcDbEntity
  8
0
  6
Continuous
 62
     7
370
     0
100
AcDbLine
 10
288.5542143609
 20
34.3739389208
 30
0.0
 11
288.289049318
 21
34.6017506994
 31
0.0
  0
LINE
  5
274
330
1F
100
AcDbEntity
  8
0
  6
Continuous
 62
     7
370
     0
100
AcDbLine
 10
284.718160073
 20
36.6631811818
 30
0.0
 11
288.289049318
 21
34.6017506994
 31
0.0
  0
LWPOLYLINE
  5
275
330
1F
100
AcDbEntity
  8
0
  6
Continuous
 62
     7
370
     0
100
AcDbPolyline
 90
        3
 70
   128
 43
0.0
 10
252.6675844368
 20
27.5243318826
 10
252.462730986
 20
27.944053992
 10
251.9950030393
 20
29.143660332
  0
LWPOLYLINE
  5
276
330
1F
100
AcDbEntity
  8
0
  6
Continuous
 62
     7
370
     0
100
AcDbPolyline
 90
        3
 70
   128
 43
0.0
 10
252.5726920255
 20
27.0220137872
 10
252.0718421755
 20
27.9809266547
 10
251.6021966637
 20
29.1981134191
  0
LINE
  5
277
330
1F
100
AcDbEntity
  8
0
  6
Continuous
 62
     7
370
     0
100
AcDbLine
 10
253.0185630724
 20
29.8623559156
 30
0.0
 11
247.3086758143
 21
33.1586036671
 31
0.0
  0
ARC
  5
278
330
1F
100
AcDbEntity
  8
0
  6
Continuous
 62
     7
370
     0
100
AcDbCircle
 10
255.1946233
 20
33.8409081932
 30
0.0
 40
12.13771968142825
100
AcDbArc
 50
195.3250845755
 51
214.3700100978
  0
OLE2FRAME
  5
279
330
1F
100
AcDbEntity
  8
0
100
AcDbOle2Frame
 70
     2
  3
Paintbrush-Bild
 10
13.8511154363
 20
38.264191557
 30
0.0
 11
51.6290888628
 21
31.9806341108
 31
0.0
 71
     2
 72
     0
 73
     1
 90
    12928
310
80552BED0767C5B32B40DDAF6807D121434000000000000000006FFBDDFB85D0
310
4940DDAF6807D121434000000000000000006FFBDDFB85D04940416F4BD60AFB
310
3F4000000000000000002BED0767C5B32B40416F4BD60AFB3F40000000000000
310
0000000000000100000000010000010000000100000000000100000000320000
310
D0CF11E0A1B11AE1000000000000000000000000000000003E000300FEFF0900
310
0600000000000000000000000100000001000000000000000010000002000000
310
01000000FEFFFFFF0000000000000000FFFFFFFFFFFFFFFFFFFFFFFFFFFFFFFF
310
FFFFFFFFFFFFFFFFFFFFFFFFFFFFFFFFFFFFFFFFFFFFFFFFFFFFFFFFFFFFFFFF
310
FFFFFFFFFFFFFFFFFFFFFFFFFFFFFFFFFFFFFFFFFFFFFFFFFFFFFFFFFFFFFFFF
310
FFFFFFFFFFFFFFFFFFFFFFFFFFFFFFFFFFFFFFFFFFFFFFFFFFFFFFFFFFFFFFFF
310
FFFFFFFFFFFFFFFFFFFFFFFFFFFFFFFFFFFFFFFFFFFFFFFFFFFFFFFFFFFFFFFF
310
FFFFFFFFFFFFFFFFFFFFFFFFFFFFFFFFFFFFFFFFFFFFFFFFFFFFFFFFFFFFFFFF
310
FFFFFFFFFFFFFFFFFFFFFFFFFFFFFFFFFFFFFFFFFFFFFFFFFFFFFFFFFFFFFFFF
310
FFFFFFFFFFFFFFFFFFFFFFFFFFFFFFFFFFFFFFFFFFFFFFFFFFFFFFFFFFFFFFFF
310
FFFFFFFFFFFFFFFFFFFFFFFFFFFFFFFFFFFFFFFFFFFFFFFFFFFFFFFFFFFFFFFF
310
FFFFFFFFFFFFFFFFFFFFFFFFFFFFFFFFFFFFFFFFFFFFFFFFFFFFFFFFFFFFFFFF
310
FFFFFFFFFFFFFFFFFFFFFFFFFFFFFFFFFFFFFFFFFFFFFFFFFFFFFFFFFFFFFFFF
310
FFFFFFFFFFFFFFFFFFFFFFFFFFFFFFFFFFFFFFFFFFFFFFFFFFFFFFFFFFFFFFFF
310
FFFFFFFFFFFFFFFFFFFFFFFFFFFFFFFFFFFFFFFFFFFFFFFFFFFFFFFFFFFFFFFF
310
FFFFFFFFFFFFFFFFFFFFFFFFFFFFFFFFFFFFFFFFFFFFFFFFFFFFFFFFFFFFFFFF
310
FDFFFFFFFEFFFFFFFEFFFFFFFEFFFFFF05000000060000000700000008000000
310
090000000A0000000B0000000C0000000D0000000E0000000F00000010000000
310
11000000120000001300000014000000150000001600000017000000FEFFFFFF
310
FFFFFFFFFFFFFFFFFFFFFFFFFFFFFFFFFFFFFFFFFFFFFFFFFFFFFFFFFFFFFFFF
310
FFFFFFFFFFFFFFFFFFFFFFFFFFFFFFFFFFFFFFFFFFFFFFFFFFFFFFFFFFFFFFFF
310
FFFFFFFFFFFFFFFFFFFFFFFFFFFFFFFFFFFFFFFFFFFFFFFFFFFFFFFFFFFFFFFF
310
FFFFFFFFFFFFFFFFFFFFFFFFFFFFFFFFFFFFFFFFFFFFFFFFFFFFFFFFFFFFFFFF
310
FFFFFFFFFFFFFFFFFFFFFFFFFFFFFFFFFFFFFFFFFFFFFFFFFFFFFFFFFFFFFFFF
310
FFFFFFFFFFFFFFFFFFFFFFFFFFFFFFFFFFFFFFFFFFFFFFFFFFFFFFFFFFFFFFFF
310
FFFFFFFFFFFFFFFFFFFFFFFFFFFFFFFFFFFFFFFFFFFFFFFFFFFFFFFFFFFFFFFF
310
FFFFFFFFFFFFFFFFFFFFFFFFFFFFFFFFFFFFFFFFFFFFFFFFFFFFFFFFFFFFFFFF
310
FFFFFFFFFFFFFFFFFFFFFFFFFFFFFFFFFFFFFFFFFFFFFFFFFFFFFFFFFFFFFFFF
310
FFFFFFFFFFFFFFFFFFFFFFFFFFFFFFFFFFFFFFFFFFFFFFFFFFFFFFFFFFFFFFFF
310
FFFFFFFFFFFFFFFFFFFFFFFFFFFFFFFFFFFFFFFFFFFFFFFFFFFFFFFFFFFFFFFF
310
FFFFFFFFFFFFFFFFFFFFFFFFFFFFFFFFFFFFFFFFFFFFFFFFFFFFFFFFFFFFFFFF
310
FFFFFFFFFFFFFFFFFFFFFFFFFFFFFFFFFFFFFFFFFFFFFFFFFFFFFFFFFFFFFFFF
310
52006F006F007400200045006E00740072007900000000000000000000000000
310
0000000000000000000000000000000000000000000000000000000000000000
310
16000500FFFFFFFFFFFFFFFF020000000A00030000000000C000000000000046
310
000000000000000000000000906E6029E022D20103000000C000000000000000
310
01004F006C006500000000000000000000000000000000000000000000000000
310
0000000000000000000000000000000000000000000000000000000000000000
310
0A000200FFFFFFFFFFFFFFFFFFFFFFFF00000000000000000000000000000000
310
0000000000000000000000000000000000000000000000001400000000000000
310
010043006F006D0070004F0062006A0000000000000000000000000000000000
310
0000000000000000000000000000000000000000000000000000000000000000
310
120002010100000003000000FFFFFFFF00000000000000000000000000000000
310
0000000000000000000000000000000000000000010000004D00000000000000
310
01004F006C006500310030004E00610074006900760065000000000000000000
310
0000000000000000000000000000000000000000000000000000000000000000
310
1A000200FFFFFFFFFFFFFFFFFFFFFFFF00000000000000000000000000000000
310
0000000000000000000000000000000000000000040000002426000000000000
310
FEFFFFFF02000000FEFFFFFFFFFFFFFFFFFFFFFFFFFFFFFFFFFFFFFFFFFFFFFF
310
FFFFFFFFFFFFFFFFFFFFFFFFFFFFFFFFFFFFFFFFFFFFFFFFFFFFFFFFFFFFFFFF
310
FFFFFFFFFFFFFFFFFFFFFFFFFFFFFFFFFFFFFFFFFFFFFFFFFFFFFFFFFFFFFFFF
310
FFFFFFFFFFFFFFFFFFFFFFFFFFFFFFFFFFFFFFFFFFFFFFFFFFFFFFFFFFFFFFFF
310
FFFFFFFFFFFFFFFFFFFFFFFFFFFFFFFFFFFFFFFFFFFFFFFFFFFFFFFFFFFFFFFF
310
FFFFFFFFFFFFFFFFFFFFFFFFFFFFFFFFFFFFFFFFFFFFFFFFFFFFFFFFFFFFFFFF
310
FFFFFFFFFFFFFFFFFFFFFFFFFFFFFFFFFFFFFFFFFFFFFFFFFFFFFFFFFFFFFFFF
310
FFFFFFFFFFFFFFFFFFFFFFFFFFFFFFFFFFFFFFFFFFFFFFFFFFFFFFFFFFFFFFFF
310
FFFFFFFFFFFFFFFFFFFFFFFFFFFFFFFFFFFFFFFFFFFFFFFFFFFFFFFFFFFFFFFF
310
FFFFFFFFFFFFFFFFFFFFFFFFFFFFFFFFFFFFFFFFFFFFFFFFFFFFFFFFFFFFFFFF
310
FFFFFFFFFFFFFFFFFFFFFFFFFFFFFFFFFFFFFFFFFFFFFFFFFFFFFFFFFFFFFFFF
310
FFFFFFFFFFFFFFFFFFFFFFFFFFFFFFFFFFFFFFFFFFFFFFFFFFFFFFFFFFFFFFFF
310
FFFFFFFFFFFFFFFFFFFFFFFFFFFFFFFFFFFFFFFFFFFFFFFFFFFFFFFFFFFFFFFF
310
FFFFFFFFFFFFFFFFFFFFFFFFFFFFFFFFFFFFFFFFFFFFFFFFFFFFFFFFFFFFFFFF
310
FFFFFFFFFFFFFFFFFFFFFFFFFFFFFFFFFFFFFFFFFFFFFFFFFFFFFFFFFFFFFFFF
310
FFFFFFFFFFFFFFFFFFFFFFFFFFFFFFFFFFFFFFFFFFFFFFFFFFFFFFFFFFFFFFFF
310
0100000200000000000000000000000000000000000000000000000000000000
310
0000000000000000000000000000000000000000000000000000000000000000
310
0100FEFF030A0000FFFFFFFF0A00030000000000C00000000000004607000000
310
5042727573680007000000504272757368000700000050427275736800F439B2
310
7100000000000000000000000000000000000000000000000000000000000000
310
0000000000000000000000000000000000000000000000000000000000000000
310
0000000000000000000000000000000000000000000000000000000000000000
310
0000000000000000000000000000000000000000000000000000000000000000
310
0000000000000000000000000000000000000000000000000000000000000000
310
0000000000000000000000000000000000000000000000000000000000000000
310
0000000000000000000000000000000000000000000000000000000000000000
310
0000000000000000000000000000000000000000000000000000000000000000
310
0000000000000000000000000000000000000000000000000000000000000000
310
0000000000000000000000000000000000000000000000000000000000000000
310
0000000000000000000000000000000000000000000000000000000000000000
310
0000000000000000000000000000000000000000000000000000000000000000
310
20260000424D0E260000000000003E00000028000000B40200006E0000000100
310
01000000000000000000130B0000130B00000200000002000000000000FFFFFF
310
FFFFFFFFFFFFFFFFFFFFFFFFFFFFFFFFFFFFFFFFFFFFFFFFFFFFFFFFFFFFFFFF
310
FFFFFFFFFFFFFFFFFFFFFFFFFFFFFFFFFFFFFFFFFFFFFFFFFFFFFFFFFFFFFFFF
310
FFFFFFFFFFFFFFFFFFFFFFFFFFFFFFFFFFFFFFFFFFFFFFFFF000FFFFFFFFFFFF
310
FFFFFFFFFFFFFFFFFFFFFFFFFFFFFFFFFFFFFFFFFFFFFFFFFFFFFFFFFFFFFFFF
310
FFFFFFFFFFFFFFFFFFFFFFFFFFFFFFFFFFFFFFFFFFFFFFFFFFFFFFFFFFFFFFFF
310
FFFFFFFFFFFFFFFFFFFFFFFFFFFFFFFFF000FFFFFFFFFFFFFFFFFFFFFFFFFFFF
310
FFFFFFFFFFFFFFFFFFFFFFFFFFFFFFFFFFFFFFFFFFFFFFFFFFFFFFFFFFFFFFFF
310
FFFFFFFFFFFFFFFFFFFFFFFFFFFFFFFFFFFFFFFFFFFFFFFFFFFFFFFFFFFFFFFF
310
FFFFFFFFFFFFFFFFF000FFFFFFFFFFFFFFFFFFFFFFFFFFFFFFFFFFFFFFFFFFFF
310
FFFFFFFFFFFFFFFFFFFFFFFFFFFFFFFFFFFFFFFFFFFFFFFFFFFFFFFFFFFFFFFF
310
FFFFFFFFFFFFFFFFFFFFFFFFFFFFFFFFFFFFFFFFFFFFFFFFFFFFFFFFFFFFFFFF
310
F000FFFFFFFFFFFFFFFFFFFFFFFFFFFFFFFFFFFFFFFFFFFFFFFFFFFFFFFFFFFF
310
FFFFFFFFFFFFFFFFFFFFFFFFFFFFFFFFFFFFFFFFFFFFFFFFFFFFFFFFFFFFFFFF
310
FFFFFFFFFFFFFFFFFFFFFFFFFFFFFFFFFFFFFFFFFFFFFFFFF000FFFFFFFFFFFF
310
FFFFFFFFFFFFFFFFFFFFFFFFFFFFFFFFFFFFFFFFFFFFFFFFFFFFFFFFFFFFFFFF
310
FFFFFFFFFFFFFFFFFFFFFFFFFFFFFFFFFFFFFFFFFFFFFFFFFFFFFFFFFFFFFFFF
310
FFFFFFFFFFFFFFFFFFFFFFFFFFFFFFFFF000FFFFFFFFFFFFFFFFFFFFFFFFFFFF
310
FFFFFFFFFFFFFFFFFFFFFFFFFFFFFFFFFFFFFFFFFFFFFFFFFFFFFFFFFFFFFFFF
310
FFFFFFFFFFFFFFFFFFFFFFFFFFFFFFFFFFFFFFFFFFFFFFFFFFFFFFFFFFFFFFFF
310
FFFFFFFFFFFFFFFFF000FFFFFFFFFFFFFFFFFFFFFFFFFFFFFFFFFFFFFFFFFFFF
310
FFFFFFFFFFFFFFFFFFFFFFFFFFFFFFFFFFFFFFFFFFFFFFFFFFFFFFFFFFFFFFFF
310
FFFFFFFFFFFFFFFFFFFFFFFFFFFFFFFFFFFFFFFFFFFFFFFFFFFFFFFFFFFFFFFF
310
F000FFFFFFFFFFFFFFFFFFFFFFFFFFFFFFFFFFFFFFFFFFFFFFFFFFFFFFFFFFFF
310
FFFFFFFFFFFFFFFFFFFFFFFFFFFFFFFFFFFFFFFFFFFFFFFFFFFFFFFFFFFFFFFF
310
FFFFFFFFFFFFFFFFFFFFFFFFFFFFFFFFFFFFFFFFFFFFFFFFF000FFFFFFFFFFFF
310
FFFFFFFFFFFFFFFFFFFFFFFFFFFFFFFFFFFFFFFFFFFFFFFFFFFFFFFFFFFFFFFF
310
FFFFFFFFFFFFFFFFFFFFFFFFFFFFFFFFFFFFFFFFFFFFFFFFFFFFFFFFFFFFFFFF
310
FFFFFFFFFFFFFFFFFFFFFFFFFFFFFFFFF000FFFFFFFFFFFFFFFFFFFFFFFFFFFF
310
FFFFFFFFFFFFFFFFFFFFFFFFFFFFFFFFFFFFFFFFFFFFFFFFFFFFFFFFFFFFFFFF
310
FFFFFFFFFFFFFFFFFFFFFFFFFFFFFFFFFFFFFFFFFFFFFFFFFFFFFFFFFFFFFFFF
310
FFFFFFFFFFFFFFFFF000FFFFFFFFFFFFFFFFFFFFFFFFFFFFFFFFFFFFFFFFFFFF
310
FFFFFFFFFFFFFFFFFFFFFFFFFFFFFFFFFFFFFFFFFFFFFFFFFFFFFFFFFFFFFFFF
310
FFFFFFFFFFFFFFFFFFFFFFFFFFFFFFFFFFFFFFFFFFFFFFFFFFFFFFFFFFFFFFFF
310
F000FFFFFFFFFFFFFFFFFFFFFFFFFFFFFFFFFFFFFFFFFFFFFFFFFFFFFFFFFFFF
310
FFFFFFFFFFFFFFFFFFFFFFFFFFFFFFFFFFFFFFFFFFFFFFFFFFFFFFFFFFFFFFFF
310
FFFFFFFFFFFFFFFFFFFFFFFFFFFFFFFFFFFFFFFFFFFFFFFFF000FFFFFFFFFFFF
310
FFFFFFFFFFFFFFFFFFFFFFFFFFFFFFFFFFFFFFFFFFFFFFFFFFFFFFFFFFFFFFFF
310
FFFFFFFFFFFFFFFFFFFFFFFFFFFFFFFFFFFFFFFFFFFFFFFFFFFFFFFFFFFFFFFF
310
FFFFFFFFFFFFFFFFFFFFFFFFFFFFFFFFF000FFFFFFFFFFFFFFFFFFFFFFFFFFFF
310
FFFFFFFFFFFFFFFFFFFFFFFFFFFFFFFFFFFFFFFFFFFFFFFFFFFFFFFFFFFFFFFF
310
FFFFFFFFFFFFFFFFFFFFFFFFFFFFFFFFFFFFFFFFFFFFFFFFFFFFFFFFFFFFFFFF
310
FFFFFFFFFFFFFFFFF000FFFFFFFFFFFFFFFFFFFFFFFFFFFFFFFFFFFFFFFFFFFF
310
FFFFFFFFFFFFFFFFFFFFFFFFFFFFFFFFFFFFFFFFFFFFFFFFFFFFFFFFFFFFFFFF
310
FFFFFFFFFFFFFFFFFFFFFFFFFFFFFFFFFFFFFFFFFFFFFFFFFFFFFFFFFFFFFFFF
310
F000FFFFFFFFFFFFFFFFFFFFFFFFFFFFFFFFFFFFFFFFFFFFFFFFFFFFFFFFFFFF
310
FFFFFFFFFFFFFFFFFFFFFFFFFFFFFFFFFFFFFFFFFFFFFFFFFFFFFFFFFFFFFFFF
310
FFFFFFFFFFFFFFFFFFFFFFFFFFFFFFFFFFFFFFFFFFFFFFFFF000FFFFFFFFFFFF
310
FFFFFFFFFFFFFFFFFFFFFFFFFFFFFFFFFFFFFFFFFFFFFFFFFFFFFFFFFFFFFFFF
310
FFFFFFFFFFFFFFFFFFFFFFFFFFFFFFFFFFFFFFFFFFFFFFFFFFFFFFFFFFFFFFFF
310
FFFFFFFFFFFFFFFFFFFFFFFFFFFFFFFFF000FFFFFFFFFFFFFFFFFFFFFFFFFFFF
310
FFFFFFFFFFFFFFFFFFFFFFFFFFFFFFFFFFFFFFFFFFFFFFFFFFFFFFFFFFFFFFFF
310
FFFFFFFFFFFFFFFFFFFFFFFFFFFFFFFFFFFFFFFFFFFFFFFFFFFFFFFFFFFFFFFF
310
FFFFFFFFFFFFFFFFF000FFFFF80003FFFFFFFFFFFFFFFFFFFFFFFFFFFFFFFFFF
310
FFFFF00007FFFFFFFFFF00007FFFFFF800000000000000007FFFFFFFFFFFFFFF
310
FFFFFFFC001FFFFFFFFFFFFFFC001FFFFFFFFFFFFFFFFFFFFFFFFFFE0007FFFF
310
F000FFFF8000007FFFFFFFF8000FFFFFC0007FFFFF80007FFFFF0000007FFFFF
310
FFF8000007FFFFF800000000000000007FFFFFF0001FFFFFFFFFFFC00001FFFF
310
FFFFFFFFC00001FFFFFFFF000000000003FFFFE000007FFFF000FFFE0000000F
310
FFFFFFF0000FFFFF80007FFFFF80007FFFFC0000001FFFFFFFC0000001FFFFF8
310
00000000000000007FFFFFF0001FFFFFFFFFFE0000003FFFFFFFFFFE0000003F
310
FFFFFF000000000003FFFF0000000FFFF000FFF800000003FFFFFFF00007FFFF
310
80007FFFFF80007FFFF000000007FFFFFF000000003FFFF80000000000000000
310
7FFFFFF0001FFFFFFFFFF80000000FFFFFFFFFF80000000FFFFFFF0000000000
310
03FFFC00000003FFF000FFE000000000FFFFFFF00007FFFF80003FFFFF80007F
310
FFC000000001FFFFFC000000001FFFF800000000000000007FFFFFF0001FFFFF
310
FFFFE000000003FFFFFFFFE000000003FFFFFF000000000003FFF000000000FF
310
F000FF80000000007FFFFFF00007FFFF80003FFFFF80007FFF8000000000FFFF
310
F80000000007FFF800000000000000007FFFFFF0001FFFFFFFFFC000000001FF
310
FFFFFFC000000001FFFFFF000000000003FFC0000000007FF000FF0000000000
310
3FFFFFE00007FFFF00003FFFFF80007FFE00000000003FFFF00000000003FFF8
310
00000000000000007FFFFFF0001FFFFFFFFF8000000000FFFFFFFF8000000000
310
FFFFFF000000000003FF80000000003FF000FE00000000001FFFFFE00003FFFF
310
00003FFFFF80007FFC00000000001FFFE00000000001FFF8000001FFFE000000
310
7FFFFFF0001FFFFFFFFE00000000003FFFFFFE00000000003FFFFF0000000000
310
03FF00000000001FF000FC00000000000FFFFFE00003FFFF00001FFFFF80007F
310
F800000000001FFFC00000000000FFF8000001FFFE0000007FFFFFF0001FFFFF
310
FFFC00000000001FFFFFFC00000000001FFFFF000000000003FE00000000000F
310
F000F8000000000007FFFFE00003FFFF00001FFFFF80007FF800000000000FFF
310
800000000000FFF8000001FFFE0000007FFFFFF0001FFFFFFFF800000000000F
310
FFFFF800000000000FFFFF000000000003FC000000000007F000F80000000000
310
03FFFFC00003FFFE00001FFFFF80007FF0000000000007FF0000000000007FF8
310
000001FFFE0000007FFFFFF0001FFFFFFFF0000000000007FFFFF00000000000
310
07FFFF000000000003F8000000000003F000F0000000000003FFFFC00001FFFE
310
00001FFFFF80007FE0000000000007FE0000000000003FF8000001FFFE000000
310
7FFFFFF0001FFFFFFFF0000000000007FFFFF0000000000007FFFF0000000000
310
03F800001F800003F000E00001FFF00001FFFFC00001FFFE00000FFFFF80007F
310
E00001FFE00003FE00001FFF00003FF8000001FFFE0000007FFFFFF0001FFFFF
310
FFE000003E000003FFFFE000003E000003FFFF000000000003F00001FFF80001
310
F000E00007FFFC0001FFFFC00001FFFE00000FFFFF80007FC0000FFFFC0003FC
310
0000FFFFC0001FF8000001FFFE0000007FFFFFF0001FFFFFFFC00003FFE00001
310
FFFFC00003FFE00001FFFF0001FFFFFFFFF00007FFFE0001F000E0000FFFFF00
310
00FFFF800001FFFC00000FFFFF80007FC0001FFFFE0001FC0001FFFFE0001FF8
310
000001FFFE0000007FFFFFF0001FFFFFFF80000FFFF80000FFFF80000FFFF800
310
00FFFF0003FFFFFFFFE0000FFFFF8000F000C0003FFFFF8000FFFF800000FFFC
310
000007FFFF80007F80003FFFFF0001FC0003FFFFF0001FF8000001FFFE000000
310
7FFFFFF0001FFFFFFF80003FFFFE0000FFFF80003FFFFE0000FFFF0003FFFFFF
310
FFE0003FFFFF8000F000C0003FFFFF8000FFFF800000FFFC000007FFFF80007F
310
80007FFFFF8001F80007FFFFF8000FF8000001FFFE0000007FFFFFF0001FFFFF
310
FF00007FFFFF00007FFF00007FFFFF00007FFF0003FFFFFFFFE0003FFFFFC000
310
F000C0007FFFFFC000FFFF000000FFFC000007FFFF80007F8000FFFFFF8000F8
310
000FFFFFF8000FF8000001FFFE0000007FFFFFF0001FFFFFFF0000FFFFFF8000
310
7FFF0000FFFFFF80007FFF0003FFFFFFFFC0007FFFFFC00070008000FFFFFFC0
310
00FFFF000000FFF8000007FFFF80007F8000FFFFFF8000F8000FFFFFF8000FF8
310
000001FFFE0000007FFFFFF0001FFFFFFE0001FFFFFFC0003FFE0001FFFFFFC0
310
003FFF0003FFFFFFFFC0007FFFFFE00070008000FFFFFFC0007FFF0000007FF8
310
000003FFFF80007F0001FFFFFF8000F8000FFFFFF8000FF8000001FFFE000000
310
7FFFFFF0001FFFFFFE0001FFFFFFC0003FFE0001FFFFFFC0003FFF0003FFFFFF
310
FFC000FFFFFFE00070008000FFFFFFC0007FFF0000007FF8000003FFFF80007F
310
0001FFFFFF8000F8001FFFFFF8000FF8000001FFFE0000007FFFFFF0001FFFFF
310
FE0003FFFFFFE0003FFE0003FFFFFFE0003FFF0003FFFFFFFFC000FFFFFFE000
310
70008000FFFFFFC0007FFE0000007FF8000003FFFF80007F0001FFFFFF8000F0
310
001FFFFFF8000FF8000001FFFE0000007FFFFFF0001FFFFFFC0003FFFFFFE000
310
1FFC0003FFFFFFE0001FFF0003FFFFFFFFC000FFFFFFC00070008000FFFFFF80
310
007FFE0000007FF0000003FFFF80007F0001FFFFFF0000F0001FFFFFF8000FF8
310
000001FFFE0000007FFFFFF0001FFFFFFC0007FFFFFFF0001FFC0007FFFFFFF0
310
001FFF0003FFFFFFFFC000FFFFFFC00070008001FFFFFF0000FFFE0000003FF0
310
000001FFFF80007F0001FFFFFF0000F8001FFFFFF0000FF8000001FFFE000000
310
7FFFFFF0001FFFFFFC0007FFFFFFF0001FFC0007FFFFFFF0001FFF0003FFFFFF
310
FFC001FFFFFF80007000FFFFFFFFFE0000FFFE0008003FF0008001FFFF80007F
310
FFFFFFFFFC0000FFFFFFFFFFE0000FF8000001FFFE0000007FFFFFF0001FFFFF
310
F8000FFFFFFFF8000FF8000FFFFFFFF8000FFF0003FFFFFFFFFFFFFFFFFF0000
310
7000FFFFFFFFFC0000FFFC0008003FF0008001FFFF80007FFFFFFFFFF80001FF
310
FFFFFFFF80000FF8000001FFFE0000007FFFFFF0001FFFFFF8000FFFFFFFF800
310
0FF8000FFFFFFFF8000FFF0003FFFFFFFFFFFFFFFFFE0000F000FFFFFFFFE000
310
00FFFC000C003FE000C001FFFF80007FFFFFFFFFC00001FFFFFFFFFE00001FF8
310
000001FFFE0000007FFFFFF0001FFFFFF8000FFFFFFFF8000FF8000FFFFFFFF8
310
000FFF0003FFFFFFFFFFFFFFFFF00000F000FFFFFFFE000001FFFC000C001FE0
310
00C000FFFF80007FFFFFFFFE000001FFFFFFFFE000001FF80FFFFFFFFFFFFFC0
310
7FFFFFF0001FFFFFF8000FFFFFFFF8000FF8000FFFFFFFF8000FFF0003FFFFFF
310
FFFFFFFFFF800000F000FFFFFFC0000001FFFC001C001FE001C000FFFF80007F
310
FFFFFF80000003FFFFFFF80000001FF80FFFFFFFFFFFFFC07FFFFFF0001FFFFF
310
F8001FFFFFFFFC000FF8001FFFFFFFFC000FFF0003FFFFFFFFFFFFFFF0000001
310
F000FFFFF800000001FFF8001C001FE001C000FFFF80007FFFFFF800000003FF
310
FFFF800000003FF80FFFFFFFFFFFFFC07FFFFFF0001FFFFFF8001FFFFFFFFC00
310
0FF8001FFFFFFFFC000FFF0003FFFFFFFFFFFFFE00000001F000FFFFC0000000
310
03FFF8001E001FC001E000FFFF80007FFFFF8000000007FFFFFC000000003FF8
310
0FFFFFFFFFFFFFC07FFFFFF0001FFFFFF8001FFFFFFFFC000FF8001FFFFFFFFC
310
000FFF0003FFFFFFFFFFFFE000000003F000FFFE0000000007FFF8001E000FC0
310
01E0007FFF80007FFFFE0000000007FFFFE0000000007FF80FFFFFFFFFFFFFC0
310
7FFFFFF0001FFFFFF0001FFFFFFFFC0007F0001FFFFFFFFC0007FF0003FFFFFF
310
FFFFFF0000000003F000FFF80000000007FFF8001E000FC003E0007FFF80007F
310
FFF0000000000FFFFF8000000000FFF80FFFFFFFFFFFFFC07FFFFFF0001FFFFF
310
F0001FFFFFFFFC0007F0001FFFFFFFFC0007FF0003FFFFFFFFFFFC0000000007
310
F000FFE0000000000FFFF0003E000FC003E0007FFF80007FFFC0000000001FFF
310
FE0000000001FFF80FFFFFFFFFFFFFC07FFFFFF0001FFFFFF0001FFFFFFFFC00
310
07F0001FFFFFFFFC0007FF0003FFFFFFFFFFF0000000000FF000FFC000000000
310
1FFFF0003F000F8003F0003FFF80007FFF80000000003FFFF80000000003FFF8
310
0FFFFFFFFFFFFFC07FFFFFF0001FFFFFF0001FFFFFFFFC0007F0001FFFFFFFFC
310
0007FF0003FFFFFFFFFFE0000000001FF000FF00000000007FFFF0003F000780
310
03F0003FFF80007FFF00000000007FFFF00000000007FFF80FFFFFFFFFFFFFC0
310
7FFFFFF0001FFFFFF0001FFFFFFFFC0007F0001FFFFFFFFC0007FF0003FFFFFF
310
FFFF80000000007FF000FE0000000000FFFFE0003F00078007F0003FFF80007F
310
FE0000000001FFFFE0000000001FFFF80FFFFFFFFFFFFFC07FFFFFF0001FFFFF
310
F0001FFFFFFFFC0007F0001FFFFFFFFC0007FF0003FFFFFFFFFF0000000000FF
310
F000FC0000000003FFFFE0007F00078007F0003FFF80007FFC0000000007FFFF
310
C0000000007FFFF80FFFFFFFFFFFFFC07FFFFFF0001FFFFFF8001FFFFFFFFC00
310
0FF8001FFFFFFFFC000FFF0003FFFFFFFFFE0000000003FFF000FC000000000F
310
FFFFE0007F80070007F8001FFF80007FF8000000001FFFFF8000000001FFFFF8
310
0FFFFFFFFFFFFFC07FFFFFF0001FFFFFF8001FFFFFFFFC000FF8001FFFFFFFFC
310
000FFF0003FFFFFFFFFC000000000FFFF000F8000000007FFFFFE0007F800700
310
07F8001FFF80007FF000000000FFFFFF800000000FFFFFF80FFFFFFFFFFFFFC0
310
7FFFFFF0001FFFFFF8000FFFFFFFF8000FF8000FFFFFFFF8000FFF0003FFFFFF
310
FFFC000000007FFFF000F800000007FFFFFFC0007F8003000FF8001FFF80007F
310
F000000007FFFFFF000000007FFFFFF80FFFFFFFFFFFFFC07FFFFFF0001FFFFF
310
F8000FFFFFFFF8000FF8000FFFFFFFF8000FFF0003FFFFFFFFF80000000FFFFF
310
F000F0000000FFFFFFFFC000FF8003000FF8001FFF80007FE0000000FFFFFFFF
310
0000000FFFFFFFF8000001FFFE0000007FFFFFF0001FFFFFF8000FFFFFFFF800
310
0FF8000FFFFFFFF8000FFF0003FFFFFFFFF8000000FFFFFFF000F000000FFFFF
310
FFFFC000FFC002000FF8000FFF80007FE000001FFFFFFFFE000001FFFFFFFFF8
310
000001FFFE0000007FFFFFF0001FFFFFF8000FFFFFFFF8000FF8000FFFFFFFF8
310
000FFF0003FFFFFFFFF000001FFFFFFFF000E00000FFFFFFFFFFC000FFC00200
310
0FFC000FFF80007FE00001FFFFFFFFFE00001FFFFFFFFFF8000001FFFE000000
310
7FFFFFF0001FFFFFFC000FFFFFFFF8001FFC000FFFFFFFF8001FFF0003FFFFFF
310
FFF00001FFFFFFFFF000E00007FFFFFFFFFF8000FFC000001FFC000FFF80007F
310
C0000FFFFFFFFFFE0000FFFFFFFFFFF8000001FFFE0000007FFFFFF0001FFFFF
310
FC0007FFFFFFF0001FFC0007FFFFFFF0001FFF0003FFFFFFFFF00007FFFFFFFF
310
F000E0001FFFFFFFFFFF8000FFC000001FFC000FFF80007FC0003FFFFFFFFFFE
310
0001FFFFFFFFFFF8000001FFFE0000007FFFFFF0001FFFFFFC0007FFFFFFF000
310
1FFC0007FFFFFFF0001FFF0003FFFFFFFFF0001FFFFFFFFFF000E0003FFFFF00
310
03FF8001FFE000001FFC0007FF80007FC0007FFFFF0007FC0003FFFFF0003FF8
310
000001FFFE0000007FFFFFF0001FFFFFFC0003FFFFFFE0001FFC0003FFFFFFE0
310
001FFF0003FFFFFFFFF0003FFFFFFFFFF000E0003FFFFF0001FF8001FFE00000
310
1FFE0007FF80007FC0007FFFFE0003FC0007FFFFE0003FF8000001FFFE000000
310
7FFFFFF0001FFFFFFE0003FFFFFFE0003FFE0003FFFFFFE0003FFF0003FFFFFF
310
FFF0003FFFFF8001F000E0003FFFFF0001FF0001FFE000001FFE0007FF80007F
310
C0007FFFFE0003FC0007FFFFE0003FF8000001FFFE0000007FFFFFF0001FFFFF
310
FE0001FFFFFFC0003FFE0001FFFFFFC0003FFF0003FFFFFFFFF0003FFFFF0001
310
F000E0003FFFFF0003FF0001FFE000003FFE0007FF80007FC0007FFFFE0003FC
310
0007FFFFE0003FF8000001FFFE0000007FFFFFF0001FFFFFFF0001FFFFFFC000
310
7FFF0001FFFFFFC0007FFF0003FFFFFFFFF0003FFFFF0001F000E0003FFFFE00
310
03FF0003FFF000003FFE0003FF80007FC0007FFFFC0003FE0007FFFFE0003FF8
310
000001FFFE0000007FFFFFF0001FFFFFFF0000FFFFFF80007FFF0000FFFFFF80
310
007FFF0003FFFFFFFFF0003FFFFF0001F000E0003FFFFE0003FF0003FFF00000
310
3FFF0003FF80007FC0007FFFFC0007FE0007FFFFC0003FF8000001FFFE000000
310
7FFFFFF0001FFFFFFF80007FFFFF0000FFFF80007FFFFF0000FFFF0003FFFFFF
310
FFF0003FFFFF0003F000E0003FFFFC0003FE0003FFF000003FFF0003FF80007F
310
E0003FFFF80007FE0003FFFFC0007FF8000001FFFE0000007FFFFFF0001FFFFF
310
FF80003FFFFE0000FFFF80003FFFFE0000FFFF0003FFFFFFFFF0001FFFFE0003
310
F000F0001FFFF80003FE0003FFF000007FFF0001FF80007FE0003FFFF00007FE
310
0001FFFF80007FF8000001FFFE0000007FFFFFF0001FFFFFFFC0000FFFF80001
310
FFFFC0000FFFF80001FFFF0003FFFFFFFFF0001FFFFC0003F000F0000FFFF000
310
07FE0007FFF800007FFF0001FF80007FE0001FFFE00007FF0000FFFE00007FF8
310
000001FFFE0000007FFFFFF0001FFFFFFFC00003FFE00001FFFFC00003FFE000
310
01FFFF0003FFFFFFFFF8000FFFF80003F000F00003FFC00007FC0007FFF80000
310
7FFF8001FF80007FF00007FF80000FFF00007FF80000FFF8000001FFFE000000
310
7F80000000000001FFE000003E000003FFFFE000003E000003FFFF0003FFFFFF
310
FFF80003FFE00007F000F800000000000FFC0007FFF800007FFF8001FF80007F
310
F000000000000FFF000000000000FFF8000001FFFE0000007F80000000000001
310
FFF0000000000007FFFFF0000000000007FFFF0003FFFFFFFFFC00007E000007
310
F000F800000000000FFC0007FFF80000FFFF8000FF80007FF800000000001FFF
310
800000000001FFF8000001FFFE0000007F80000000000001FFF800000000000F
310
FFFFF800000000000FFFFF0003FFFFFFFFFC00000000000FF000FC0000000000
310
1FFC0007FFFC0000FFFF8000FF80007FF800000000003FFFC00000000001FFF8
310
000001FFFE0000007F80000000000001FFF800000000000FFFFFF80000000000
310
0FFFFF0003FFFFFFFFFE00000000001FF000FE00000000003FF8000FFFFC0000
310
FFFF8000FF80007FFC00000000003FFFC00000000003FFF8000001FFFE000000
310
7F80000000000001FFFC00000000001FFFFFFC00000000001FFFFF0003FFFFFF
310
FFFF00000000001FF000FF00000000003FF8000FFFFC0000FFFFC000FF80007F
310
FE00000000007FFFE00000000007FFF8000001FFFE0000007F80000000000001
310
FFFE00000000003FFFFFFE00000000003FFFFF0003FFFFFFFFFF80000000003F
310
F000FF80000000007FF8000FFFFC0001FFFFC0007F80007FFF0000000000FFFF
310
F0000000000FFFF800000000000000007F80000000000001FFFF8000000000FF
310
FFFFFF8000000000FFFFFF0003FFFFFFFFFFC0000000007FF000FFC000000000
310
FFF8000FFFFE0001FFFFC0007F80007FFF8000000001FFFFF8000000001FFFF8
310
00000000000000007F80000000000001FFFFC000000001FFFFFFFFC000000001
310
FFFFFF0003FFFFFFFFFFE000000000FFF000FFE000000003FFF0001FFFFE0001
310
FFFFC0007F80007FFFC000000007FFFFFE000000003FFFF80000000000000000
310
7F80000000000001FFFFE000000003FFFFFFFFE000000003FFFFFF0003FFFFFF
310
FFFFF000000003FFF000FFF80000000FFFF0001FFFFE0001FFFFE0007F80007F
310
FFF00000000FFFFFFF00000000FFFFF800000000000000007F80000000000001
310
FFFFF80000000FFFFFFFFFF80000000FFFFFFF0003FFFFFFFFFFFC0000000FFF
310
F000FFFE0000003FFFF0001FFFFE0003FFFFE0003F80007FFFFC0000003FFFFF
310
FFC0000003FFFFF800000000000000007F80000000000001FFFFFE0000003FFF
310
FFFFFFFE0000003FFFFFFF0003FFFFFFFFFFFF0000003FFFF000FFFF800000FF
310
FFF0001FFFFF0003FFFFE0003F80007FFFFF000001FFFFFFFFF800001FFFFFF8
310
00000000000000007F80000000000001FFFFFFC00001FFFFFFFFFFFFC00001FF
310
FFFFFF0003FFFFFFFFFFFFC00000FFFFF000FFFFF8000FFFFFFFFFFFFFFFFFFF
310
FFFFFFFFFFFFFFFFFFFFF0001FFFFFFFFFFF0000FFFFFFF80000000000000000
310
7FFFFFFFFFFFFFFFFFFFFFFC001FFFFFFFFFFFFFFC001FFFFFFFFFFFFFFFFFFF
310
FFFFFFFC001FFFFFF000FFFFFFFFFFFFFFFFFFFFFFFFFFFFFFFFFFFFFFFFFFFF
310
FFFFFFFFFFFFFFFFFFFFFFFFFFFFFFFFFFFFFFFFFFFFFFFFFFFFFFFFFFFFFFFF
310
FFFFFFFFFFFFFFFFFFFFFFFFFFFFFFFFFFFFFFFFFFFFFFFFFFFFFFFFFFFFFFFF
310
F000FFFFFFFFFFFFFFFFFFFFFFFFFFFFFFFFFFFFFFFFFFFFFFFFFFFFFFFFFFFF
310
FFFFFFFFFFFFFFFFFFFFFFFFFFFFFFFFFFFFFFFFFFFFFFFFFFFFFFFFFFFFFFFF
310
FFFFFFFFFFFFFFFFFFFFFFFFFFFFFFFFFFFFFFFFFFFFFFFFF000FFFFFFFFFFFF
310
FFFFFFFFFFFFFFFFFFFFFFFFFFFFFFFFFFFFFFFFFFFFFFFFFFFFFFFFFFFFFFFF
310
FFFFFFFFFFFFFFFFFFFFFFFFFFFFFFFFFFFFFFFFFFFFFFFFFFFFFFFFFFFFFFFF
310
FFFFFFFFFFFFFFFFFFFFFFFFFFFFFFFFF000FFFFFFFFFFFFFFFFFFFFFFFFFFFF
310
FFFFFFFFFFFFFFFFFFFFFFFFFFFFFFFFFFFFFFFFFFFFFFFFFFFFFFFFFFFFFFFF
310
FFFFFFFFFFFFFFFFFFFFFFFFFFFFFFFFFFFFFFFFFFFFFFFFFFFFFFFFFFFFFFFF
310
FFFFFFFFFFFFFFFFF000FFFFFFFFFFFFFFFFFFFFFFFFFFFFFFFFFFFFFFFFFFFF
310
FFFFFFFFFFFFFFFFFFFFFFFFFFFFFFFFFFFFFFFFFFFFFFFFFFFFFFFFFFFFFFFF
310
FFFFFFFFFFFFFFFFFFFFFFFFFFFFFFFFFFFFFFFFFFFFFFFFFFFFFFFFFFFFFFFF
310
F000FFFFFFFFFFFFFFFFFFFFFFFFFFFFFFFFFFFFFFFFFFFFFFFFFFFFFFFFFFFF
310
FFFFFFFFFFFFFFFFFFFFFFFFFFFFFFFFFFFFFFFFFFFFFFFFFFFFFFFFFFFFFFFF
310
FFFFFFFFFFFFFFFFFFFFFFFFFFFFFFFFFFFFFFFFFFFFFFFFF000FFFFFFFFFFFF
310
FFFFFFFFFFFFFFFFFFFFFFFFFFFFFFFFFFFFFFFFFFFFFFFFFFFFFFFFFFFFFFFF
310
FFFFFFFFFFFFFFFFFFFFFFFFFFFFFFFFFFFFFFFFFFFFFFFFFFFFFFFFFFFFFFFF
310
FFFFFFFFFFFFFFFFFFFFFFFFFFFFFFFFF000FFFFFFFFFFFFFFFFFFFFFFFFFFFF
310
FFFFFFFFFFFFFFFFFFFFFFFFFFFFFFFFFFFFFFFFFFFFFFFFFFFFFFFFFFFFFFFF
310
FFFFFFFFFFFFFFFFFFFFFFFFFFFFFFFFFFFFFFFFFFFFFFFFFFFFFFFFFFFFFFFF
310
FFFFFFFFFFFFFFFFF000FFFFFFFFFFFFFFFFFFFFFFFFFFFFFFFFFFFFFFFFFFFF
310
FFFFFFFFFFFFFFFFFFFFFFFFFFFFFFFFFFFFFFFFFFFFFFFFFFFFFFFFFFFFFFFF
310
FFFFFFFFFFFFFFFFFFFFFFFFFFFFFFFFFFFFFFFFFFFFFFFFFFFFFFFFFFFFFFFF
310
F000FFFFFFFFFFFFFFFFFFFFFFFFFFFFFFFFFFFFFFFFFFFFFFFFFFFFFFFFFFFF
310
FFFFFFFFFFFFFFFFFFFFFFFFFFFFFFFFFFFFFFFFFFFFFFFFFFFFFFFFFFFFFFFF
310
FFFFFFFFFFFFFFFFFFFFFFFFFFFFFFFFFFFFFFFFFFFFFFFFF000FFFFFFFFFFFF
310
FFFFFFFFFFFFFFFFFFFFFFFFFFFFFFFFFFFFFFFFFFFFFFFFFFFFFFFFFFFFFFFF
310
FFFFFFFFFFFFFFFFFFFFFFFFFFFFFFFFFFFFFFFFFFFFFFFFFFFFFFFFFFFFFFFF
310
FFFFFFFFFFFFFFFFFFFFFFFFFFFFFFFFF000FFFFFFFFFFFFFFFFFFFFFFFFFFFF
310
FFFFFFFFFFFFFFFFFFFFFFFFFFFFFFFFFFFFFFFFFFFFFFFFFFFFFFFFFFFFFFFF
310
FFFFFFFFFFFFFFFFFFFFFFFFFFFFFFFFFFFFFFFFFFFFFFFFFFFFFFFFFFFFFFFF
310
FFFFFFFFFFFFFFFFF000FFFFFFFFFFFFFFFFFFFFFFFFFFFFFFFFFFFFFFFFFFFF
310
FFFFFFFFFFFFFFFFFFFFFFFFFFFFFFFFFFFFFFFFFFFFFFFFFFFFFFFFFFFFFFFF
310
FFFFFFFFFFFFFFFFFFFFFFFFFFFFFFFFFFFFFFFFFFFFFFFFFFFFFFFFFFFFFFFF
310
F000FFFFFFFFFFFFFFFFFFFFFFFFFFFFFFFFFFFFFFFFFFFFFFFFFFFFFFFFFFFF
310
FFFFFFFFFFFFFFFFFFFFFFFFFFFFFFFFFFFFFFFFFFFFFFFFFFFFFFFFFFFFFFFF
310
FFFFFFFFFFFFFFFFFFFFFFFFFFFFFFFFFFFFFFFFFFFFFFFFF000FFFFFFFFFFFF
310
FFFFFFFFFFFFFFFFFFFFFFFFFFFFFFFFFFFFFFFFFFFFFFFFFFFFFFFFFFFFFFFF
310
FFFFFFFFFFFFFFFFFFFFFFFFFFFFFFFFFFFFFFFFFFFFFFFFFFFFFFFFFFFFFFFF
310
FFFFFFFFFFFFFFFFFFFFFFFFFFFFFFFFF000FFFFFFFFFFFFFFFFFFFFFFFFFFFF
310
FFFFFFFFFFFFFFFFFFFFFFFFFFFFFFFFFFFFFFFFFFFFFFFFFFFFFFFFFFFFFFFF
310
FFFFFFFFFFFFFFFFFFFFFFFFFFFFFFFFFFFFFFFFFFFFFFFFFFFFFFFFFFFFFFFF
310
FFFFFFFFFFFFFFFFF000FFFFFFFFFFFFFFFFFFFFFFFFFFFFFFFFFFFFFFFFFFFF
310
FFFFFFFFFFFFFFFFFFFFFFFFFFFFFFFFFFFFFFFFFFFFFFFFFFFFFFFFFFFFFFFF
310
FFFFFFFFFFFFFFFFFFFFFFFFFFFFFFFFFFFFFFFFFFFFFFFFFFFFFFFFFFFFFFFF
310
F000FFFFFFFFFFFFFFFFFFFFFFFFFFFFFFFFFFFFFFFFFFFFFFFFFFFFFFFFFFFF
310
FFFFFFFFFFFFFFFFFFFFFFFFFFFFFFFFFFFFFFFFFFFFFFFFFFFFFFFFFFFFFFFF
310
FFFFFFFFFFFFFFFFFFFFFFFFFFFFFFFFFFFFFFFFFFFFFFFFF000FFFFFFFFFFFF
310
FFFFFFFFFFFFFFFFFFFFFFFFFFFFFFFFFFFFFFFFFFFFFFFFFFFFFFFFFFFFFFFF
310
FFFFFFFFFFFFFFFFFFFFFFFFFFFFFFFFFFFFFFFFFFFFFFFFFFFFFFFFFFFFFFFF
310
FFFFFFFFFFFFFFFFFFFFFFFFFFFFFFFFF000FFFFFFFFFFFFFFFFFFFFFFFFFFFF
310
FFFFFFFFFFFFFFFFFFFFFFFFFFFFFFFFFFFFFFFFFFFFFFFFFFFFFFFFFFFFFFFF
310
FFFFFFFFFFFFFFFFFFFFFFFFFFFFFFFFFFFFFFFFFFFFFFFFFFFFFFFFFFFFFFFF
310
FFFFFFFFFFFFFFFFF000FFFFFFFFFFFFFFFFFFFFFFFFFFFFFFFFFFFFFFFFFFFF
310
FFFFFFFFFFFFFFFFFFFFFFFFFFFFFFFFFFFFFFFFFFFFFFFFFFFFFFFFFFFFFFFF
310
FFFFFFFFFFFFFFFFFFFFFFFFFFFFFFFFFFFFFFFFFFFFFFFFFFFFFFFFFFFFFFFF
310
F000FFFFFFFFFFFFFFFFFFFFFFFFFFFFFFFFFFFFFFFFFFFFFFFFFFFFFFFFFFFF
310
FFFFFFFFFFFFFFFFFFFFFFFFFFFFFFFFFFFFFFFFFFFFFFFFFFFFFFFFFFFFFFFF
310
FFFFFFFFFFFFFFFFFFFFFFFFFFFFFFFFFFFFFFFFFFFFFFFFF000FFFFFFFFFFFF
310
FFFFFFFFFFFFFFFFFFFFFFFFFFFFFFFFFFFFFFFFFFFFFFFFFFFFFFFFFFFFFFFF
310
FFFFFFFFFFFFFFFFFFFFFFFFFFFFFFFFFFFFFFFFFFFFFFFFFFFFFFFFFFFFFFFF
310
FFFFFFFFFFFFFFFFFFFFFFFFFFFFFFFFF0000000000000000000000000000000
310
0000000000000000000000000000000000000000000000000000000000000000
310
0000000000000000000000000000000000000000000000000000000000000000
310
0000000000000000000000000000000000000000000000000000000000000000
310
0000000000000000000000000000000000000000000000000000000000000000
310
0000000000000000000000000000000000000000000000000000000000000000
310
0000000000000000000000000000000000000000000000000000000000000000
310
0000000000000000000000000000000000000000000000000000000000000000
310
0000000000000000000000000000000000000000000000000000000000000000
310
0000000000000000000000000000000000000000000000000000000000000000
310
0000000000000000000000000000000000000000000000000000000000000000
310
0000000000000000000000000000000000000000000000000000000000000000
310
0000000000000000000000000000000000000000000000000000000000000000
310
0000000000000000000000000000000000000000000000000000000000000000
310
0000000000000000000000000000000000000000000000000000000000000000
310
0000000000000000000000000000000000000000000000000000000000000000
  1
OLE
  0
ENDSEC
  0
SECTION
  2
OBJECTS
  0
DICTIONARY
  5
C
330
0
100
AcDbDictionary
281
     1
  3
ACAD_GROUP
350
D
  3
ACAD_LAYOUT
350
1A
  3
ACAD_MLINESTYLE
350
17
  3
ACAD_PLOTSETTINGS
350
19
  3
ACAD_PLOTSTYLENAME
350
E
  3
ACAD_SCALELIST
350
47
  0
DICTIONARY
  5
D
102
{ACAD_REACTORS
330
C
102
}
330
C
100
AcDbDictionary
281
     1
  0
DICTIONARY
  5
1A
102
{ACAD_REACTORS
330
C
102
}
330
C
100
AcDbDictionary
281
     1
  3
Layout1
350
1E
  3
Layout2
350
26
  3
Model
350
22
  0
DICTIONARY
  5
17
102
{ACAD_REACTORS
330
C
102
}
330
C
100
AcDbDictionary
281
     1
  3
Standard
350
18
  0
DICTIONARY
  5
19
102
{ACAD_REACTORS
330
C
102
}
330
C
100
AcDbDictionary
281
     1
  0
ACDBDICTIONARYWDFLT
  5
E
102
{ACAD_REACTORS
330
C
102
}
330
C
100
AcDbDictionary
281
     1
  3
Normal
350
F
100
AcDbDictionaryWithDefault
340
F
  0
DICTIONARY
  5
47
102
{ACAD_REACTORS
330
C
102
}
330
C
100
AcDbDictionary
281
     1
  3
A0
350
48
  3
A1
350
49
  3
A2
350
4A
  3
A3
350
4B
  3
A4
350
4C
  3
A5
350
4D
  3
A6
350
4E
  3
A7
350
4F
  3
A8
350
50
  3
A9
350
51
  3
B0
350
52
  3
B1
350
53
  3
B2
350
54
  3
B3
350
55
  3
B4
350
56
  3
B5
350
57
  3
B6
350
58
  3
B7
350
59
  3
B8
350
5A
  3
B9
350
5B
  3
C0
350
5C
  3
C1
350
5D
  3
C2
350
5E
  3
C3
350
5F
  3
C4
350
60
  3
C5
350
61
  3
C6
350
62
  3
C7
350
63
  3
C8
350
64
  3
C9
350
65
  3
D0
350
66
  3
D1
350
67
  3
D2
350
68
  0
LAYOUT
  5
1E
102
{ACAD_REACTORS
330
1A
102
}
330
1A
100
AcDbPlotSettings
  1

  2
none_device
  4

  6

 40
0.0
 41
0.0
 42
0.0
 43
0.0
 44
0.0
 45
0.0
 46
0.0
 47
0.0
 48
0.0
 49
0.0
140
0.0
141
0.0
142
1.0
143
1.0
 70
   688
 72
     1
 73
     0
 74
     5
  7

 75
    16
147
1.0
148
0.0
149
0.0
100
AcDbLayout
  1
Layout1
 70
     1
 71
     1
 10
0.0
 20
0.0
 11
420.0
 21
297.0
 12
0.0
 22
0.0
 32
0.0
 14
1.0000000000E+20
 24
1.0000000000E+20
 34
1.0000000000E+20
 15
-1.0000000000E+20
 25
-1.0000000000E+20
 35
-1.0000000000E+20
146
0.0
 13
0.0
 23
0.0
 33
0.0
 16
1.0
 26
0.0
 36
0.0
 17
0.0
 27
1.0
 37
0.0
 76
     0
330
1B
  0
LAYOUT
  5
26
102
{ACAD_REACTORS
330
1A
102
}
330
1A
100
AcDbPlotSettings
  1

  2
none_device
  4

  6

 40
0.0
 41
0.0
 42
0.0
 43
0.0
 44
0.0
 45
0.0
 46
0.0
 47
0.0
 48
0.0
 49
0.0
140
0.0
141
0.0
142
1.0
143
1.0
 70
   688
 72
     1
 73
     0
 74
     5
  7

 75
    16
147
1.0
148
0.0
149
0.0
100
AcDbLayout
  1
Layout2
 70
     1
 71
     2
 10
0.0
 20
0.0
 11
0.0
 21
0.0
 12
0.0
 22
0.0
 32
0.0
 14
0.0
 24
0.0
 34
0.0
 15
0.0
 25
0.0
 35
0.0
146
0.0
 13
0.0
 23
0.0
 33
0.0
 16
1.0
 26
0.0
 36
0.0
 17
0.0
 27
1.0
 37
0.0
 76
     0
330
23
  0
LAYOUT
  5
22
102
{ACAD_REACTORS
330
1A
102
}
330
1A
100
AcDbPlotSettings
  1

  2
none_device
  4
Letter_(8.50_x_11.00_Inches)
  6

 40
6.35
 41
6.35
 42
6.35000508
 43
6.35000508
 44
215.9
 45
279.4
 46
0.0
 47
0.0
 48
0.0
 49
0.0
140
0.0
141
0.0
142
1.0
143
1.0
 70
  1712
 72
     1
 73
     0
 74
     0
  7

 75
     0
147
1.0
148
0.0
149
0.0
100
AcDbLayout
  1
Model
 70
     1
 71
     0
 10
0.0
 20
0.0
 11
297.0
 21
210.0
 12
0.0
 22
0.0
 32
0.0
 14
0.0
 24
0.0
 34
0.0
 15
297.0
 25
210.0
 35
0.0
146
0.0
 13
0.0
 23
0.0
 33
0.0
 16
1.0
 26
0.0
 36
0.0
 17
0.0
 27
1.0
 37
0.0
 76
     0
330
1F
331
29
  0
MLINESTYLE
  5
18
102
{ACAD_REACTORS
330
17
102
}
330
17
100
AcDbMlineStyle
  2
Standard
 70
     0
  3

 62
   256
 51
90.0
 52
90.0
 71
     2
 49
0.5
 62
   256
  6
BYLAYER
 49
-0.5
 62
   256
  6
BYLAYER
  0
ACDBPLACEHOLDER
  5
F
102
{ACAD_REACTORS
330
E
102
}
330
E
  0
SCALE
  5
48
102
{ACAD_REACTORS
330
47
102
}
330
47
100
AcDbScale
 70
     0
300
1:1
140
1.0
141
1.0
290
     1
  0
SCALE
  5
49
102
{ACAD_REACTORS
330
47
102
}
330
47
100
AcDbScale
 70
     0
300
1:2
140
1.0
141
2.0
290
     0
  0
SCALE
  5
4A
102
{ACAD_REACTORS
330
47
102
}
330
47
100
AcDbScale
 70
     0
300
1:4
140
1.0
141
4.0
290
     0
  0
SCALE
  5
4B
102
{ACAD_REACTORS
330
47
102
}
330
47
100
AcDbScale
 70
     0
300
1:5
140
1.0
141
5.0
290
     0
  0
SCALE
  5
4C
102
{ACAD_REACTORS
330
47
102
}
330
47
100
AcDbScale
 70
     0
300
1:8
140
1.0
141
8.0
290
     0
  0
SCALE
  5
4D
102
{ACAD_REACTORS
330
47
102
}
330
47
100
AcDbScale
 70
     0
300
1:10
140
1.0
141
10.0
290
     0
  0
SCALE
  5
4E
102
{ACAD_REACTORS
330
47
102
}
330
47
100
AcDbScale
 70
     0
300
1:16
140
1.0
141
16.0
290
     0
  0
SCALE
  5
4F
102
{ACAD_REACTORS
330
47
102
}
330
47
100
AcDbScale
 70
     0
300
1:20
140
1.0
141
20.0
290
     0
  0
SCALE
  5
50
102
{ACAD_REACTORS
330
47
102
}
330
47
100
AcDbScale
 70
     0
300
1:30
140
1.0
141
30.0
290
     0
  0
SCALE
  5
51
102
{ACAD_REACTORS
330
47
102
}
330
47
100
AcDbScale
 70
     0
300
1:40
140
1.0
141
40.0
290
     0
  0
SCALE
  5
52
102
{ACAD_REACTORS
330
47
102
}
330
47
100
AcDbScale
 70
     0
300
1:50
140
1.0
141
50.0
290
     0
  0
SCALE
  5
53
102
{ACAD_REACTORS
330
47
102
}
330
47
100
AcDbScale
 70
     0
300
1:100
140
1.0
141
100.0
290
     0
  0
SCALE
  5
54
102
{ACAD_REACTORS
330
47
102
}
330
47
100
AcDbScale
 70
     0
300
2:1
140
2.0
141
1.0
290
     0
  0
SCALE
  5
55
102
{ACAD_REACTORS
330
47
102
}
330
47
100
AcDbScale
 70
     0
300
4:1
140
4.0
141
1.0
290
     0
  0
SCALE
  5
56
102
{ACAD_REACTORS
330
47
102
}
330
47
100
AcDbScale
 70
     0
300
8:1
140
8.0
141
1.0
290
     0
  0
SCALE
  5
57
102
{ACAD_REACTORS
330
47
102
}
330
47
100
AcDbScale
 70
     0
300
10:1
140
10.0
141
1.0
290
     0
  0
SCALE
  5
58
102
{ACAD_REACTORS
330
47
102
}
330
47
100
AcDbScale
 70
     0
300
100:1
140
100.0
141
1.0
290
     0
  0
SCALE
  5
59
102
{ACAD_REACTORS
330
47
102
}
330
47
100
AcDbScale
 70
     0
300
1/128" = 1'-0"
140
0.0078125
141
12.0
290
     0
  0
SCALE
  5
5A
102
{ACAD_REACTORS
330
47
102
}
330
47
100
AcDbScale
 70
     0
300
1/64" = 1'-0"
140
0.015625
141
12.0
290
     0
  0
SCALE
  5
5B
102
{ACAD_REACTORS
330
47
102
}
330
47
100
AcDbScale
 70
     0
300
1/32" = 1'-0"
140
0.03125
141
12.0
290
     0
  0
SCALE
  5
5C
102
{ACAD_REACTORS
330
47
102
}
330
47
100
AcDbScale
 70
     0
300
1/16" = 1'-0"
140
0.0625
141
12.0
290
     0
  0
SCALE
  5
5D
102
{ACAD_REACTORS
330
47
102
}
330
47
100
AcDbScale
 70
     0
300
3/32" = 1'-0"
140
0.09375
141
12.0
290
     0
  0
SCALE
  5
5E
102
{ACAD_REACTORS
330
47
102
}
330
47
100
AcDbScale
 70
     0
300
1/8" = 1'-0"
140
0.125
141
12.0
290
     0
  0
SCALE
  5
5F
102
{ACAD_REACTORS
330
47
102
}
330
47
100
AcDbScale
 70
     0
300
3/16" = 1'-0"
140
0.1875
141
12.0
290
     0
  0
SCALE
  5
60
102
{ACAD_REACTORS
330
47
102
}
330
47
100
AcDbScale
 70
     0
300
1/4" = 1'-0"
140
0.25
141
12.0
290
     0
  0
SCALE
  5
61
102
{ACAD_REACTORS
330
47
102
}
330
47
100
AcDbScale
 70
     0
300
3/8" = 1'-0"
140
0.375
141
12.0
290
     0
  0
SCALE
  5
62
102
{ACAD_REACTORS
330
47
102
}
330
47
100
AcDbScale
 70
     0
300
1/2" = 1'-0"
140
0.5
141
12.0
290
     0
  0
SCALE
  5
63
102
{ACAD_REACTORS
330
47
102
}
330
47
100
AcDbScale
 70
     0
300
3/4" = 1'-0"
140
0.75
141
12.0
290
     0
  0
SCALE
  5
64
102
{ACAD_REACTORS
330
47
102
}
330
47
100
AcDbScale
 70
     0
300
1" = 1'-0"
140
1.0
141
12.0
290
     0
  0
SCALE
  5
65
102
{ACAD_REACTORS
330
47
102
}
330
47
100
AcDbScale
 70
     0
300
1-1/2" = 1'-0"
140
1.5
141
12.0
290
     0
  0
SCALE
  5
66
102
{ACAD_REACTORS
330
47
102
}
330
47
100
AcDbScale
 70
     0
300
3" = 1'-0"
140
3.0
141
12.0
290
     0
  0
SCALE
  5
67
102
{ACAD_REACTORS
330
47
102
}
330
47
100
AcDbScale
 70
     0
300
6" = 1'-0"
140
6.0
141
12.0
290
     0
  0
SCALE
  5
68
102
{ACAD_REACTORS
330
47
102
}
330
47
100
AcDbScale
 70
     0
300
1'-0" = 1'-0"
140
12.0
141
12.0
290
     0
  0
ENDSEC
  0
EOF
