  0
SECTION
  2
HEADER
  9
$ACADVER
  1
AC1015
  9
$ACADMAINTVER
 70
     6
  9
$DWGCODEPAGE
  3
ANSI_1252
  9
$INSBASE
 10
0.0
 20
0.0
 30
0.0
  9
$EXTMIN
 10
0.0
 20
0.0
 30
0.0
  9
$EXTMAX
 10
297.0
 20
210.0
 30
0.0
  9
$LIMMIN
 10
0.0
 20
0.0
  9
$LIMMAX
 10
297.0
 20
210.0
  9
$ORTHOMODE
 70
     0
  9
$REGENMODE
 70
     1
  9
$FILLMODE
 70
     1
  9
$QTEXTMODE
 70
     0
  9
$MIRRTEXT
 70
     1
  9
$LTSCALE
 40
1.0
  9
$ATTMODE
 70
     1
  9
$TEXTSIZE
 40
2.0
  9
$TRACEWID
 40
1.0
  9
$TEXTSTYLE
  7
Standard
  9
$CLAYER
  8
0
  9
$CELTYPE
  6
ByLayer
  9
$CECOLOR
 62
   256
  9
$CELTSCALE
 40
1.0
  9
$DISPSILH
 70
     0
  9
$DIMSCALE
 40
1.0
  9
$DIMASZ
 40
3.0
  9
$DIMEXO
 40
0.0
  9
$DIMDLI
 40
3.75
  9
$DIMRND
 40
0.0
  9
$DIMDLE
 40
0.0
  9
$DIMEXE
 40
1.0
  9
$DIMTP
 40
0.0
  9
$DIMTM
 40
0.0
  9
$DIMTXT
 40
2.0
  9
$DIMCEN
 40
2.5
  9
$DIMTSZ
 40
0.0
  9
$DIMTOL
 70
     0
  9
$DIMLIM
 70
     0
  9
$DIMTIH
 70
     1
  9
$DIMTOH
 70
     1
  9
$DIMSE1
 70
     0
  9
$DIMSE2
 70
     0
  9
$DIMTAD
 70
     1
  9
$DIMZIN
 70
     0
  9
$DIMBLK
  1

  9
$DIMASO
 70
     1
  9
$DIMSHO
 70
     1
  9
$DIMPOST
  1

  9
$DIMAPOST
  1

  9
$DIMALT
 70
     0
  9
$DIMALTD
 70
     3
  9
$DIMALTF
 40
0.0393700787
  9
$DIMLFAC
 40
1.0
  9
$DIMTOFL
 70
     1
  9
$DIMTVP
 40
0.0
  9
$DIMTIX
 70
     0
  9
$DIMSOXD
 70
     0
  9
$DIMSAH
 70
     0
  9
$DIMBLK1
  1

  9
$DIMBLK2
  1

  9
$DIMSTYLE
  2
ISO-25
  9
$DIMCLRD
 70
     0
  9
$DIMCLRE
 70
     0
  9
$DIMCLRT
 70
     0
  9
$DIMTFAC
 40
1.0
  9
$DIMGAP
 40
1.524
  9
$DIMJUST
 70
     0
  9
$DIMSD1
 70
     0
  9
$DIMSD2
 70
     0
  9
$DIMTOLJ
 70
     0
  9
$DIMTZIN
 70
     0
  9
$DIMALTZ
 70
     0
  9
$DIMALTTZ
 70
     0
  9
$DIMUPT
 70
     0
  9
$DIMDEC
 70
     2
  9
$DIMTDEC
 70
     3
  9
$DIMALTU
 70
     2
  9
$DIMALTTD
 70
     3
  9
$DIMTXSTY
  7
Standard
  9
$DIMAUNIT
 70
     0
  9
$DIMADEC
 70
     2
  9
$DIMALTRND
 40
0.0
  9
$DIMAZIN
 70
     0
  9
$DIMDSEP
 70
    44
  9
$DIMATFIT
 70
     3
  9
$DIMFRAC
 70
     0
  9
$DIMLDRBLK
  1

  9
$DIMLUNIT
 70
     2
  9
$DIMLWD
 70
    -2
  9
$DIMLWE
 70
    -2
  9
$DIMTMOVE
 70
     0
  9
$LUNITS
 70
     2
  9
$LUPREC
 70
     2
  9
$SKETCHINC
 40
1.0
  9
$FILLETRAD
 40
10.0
  9
$AUNITS
 70
     0
  9
$AUPREC
 70
     2
  9
$MENU
  1
.
  9
$ELEVATION
 40
0.0
  9
$PELEVATION
 40
0.0
  9
$THICKNESS
 40
0.0
  9
$LIMCHECK
 70
     0
  9
$CHAMFERA
 40
0.0
  9
$CHAMFERB
 40
0.0
  9
$CHAMFERC
 40
0.0
  9
$CHAMFERD
 40
0.0
  9
$SKPOLY
 70
     0
  9
$TDCREATE
 40
2457668.662482558
  9
$TDUCREATE
 40
2457668.579149224
  9
$TDUPDATE
 40
2457668.662484121
  9
$TDUUPDATE
 40
2457668.579150787
  9
$TDINDWG
 40
0.0000000116
  9
$TDUSRTIMER
 40
0.0000000116
  9
$USRTIMER
 70
     1
  9
$ANGBASE
 50
0.0
  9
$ANGDIR
 70
     0
  9
$PDMODE
 70
     0
  9
$PDSIZE
 40
-1.0
  9
$PLINEWID
 40
0.0
  9
$SPLFRAME
 70
     0
  9
$SPLINETYPE
 70
     6
  9
$SPLINESEGS
 70
     8
  9
$HANDSEED
  5
288
  9
$SURFTAB1
 70
     6
  9
$SURFTAB2
 70
     6
  9
$SURFTYPE
 70
     6
  9
$SURFU
 70
     6
  9
$SURFV
 70
     6
  9
$UCSBASE
  2

  9
$UCSNAME
  2

  9
$UCSORG
 10
0.0
 20
0.0
 30
0.0
  9
$UCSXDIR
 10
1.0
 20
0.0
 30
0.0
  9
$UCSYDIR
 10
0.0
 20
1.0
 30
0.0
  9
$UCSORTHOREF
  2

  9
$UCSORTHOVIEW
 70
     0
  9
$UCSORGTOP
 10
0.0
 20
0.0
 30
0.0
  9
$UCSORGBOTTOM
 10
0.0
 20
0.0
 30
0.0
  9
$UCSORGLEFT
 10
0.0
 20
0.0
 30
0.0
  9
$UCSORGRIGHT
 10
0.0
 20
0.0
 30
0.0
  9
$UCSORGFRONT
 10
0.0
 20
0.0
 30
0.0
  9
$UCSORGBACK
 10
0.0
 20
0.0
 30
0.0
  9
$PUCSBASE
  2

  9
$PUCSNAME
  2

  9
$PUCSORG
 10
0.0
 20
0.0
 30
0.0
  9
$PUCSXDIR
 10
1.0
 20
0.0
 30
0.0
  9
$PUCSYDIR
 10
0.0
 20
1.0
 30
0.0
  9
$PUCSORTHOREF
  2

  9
$PUCSORTHOVIEW
 70
     0
  9
$PUCSORGTOP
 10
0.0
 20
0.0
 30
0.0
  9
$PUCSORGBOTTOM
 10
0.0
 20
0.0
 30
0.0
  9
$PUCSORGLEFT
 10
0.0
 20
0.0
 30
0.0
  9
$PUCSORGRIGHT
 10
0.0
 20
0.0
 30
0.0
  9
$PUCSORGFRONT
 10
0.0
 20
0.0
 30
0.0
  9
$PUCSORGBACK
 10
0.0
 20
0.0
 30
0.0
  9
$USERI1
 70
     0
  9
$USERI2
 70
     0
  9
$USERI3
 70
     0
  9
$USERI4
 70
     0
  9
$USERI5
 70
     0
  9
$USERR1
 40
0.0
  9
$USERR2
 40
0.0
  9
$USERR3
 40
0.0
  9
$USERR4
 40
0.0
  9
$USERR5
 40
0.0
  9
$WORLDVIEW
 70
     1
  9
$SHADEDGE
 70
     3
  9
$SHADEDIF
 70
    70
  9
$TILEMODE
 70
     1
  9
$MAXACTVP
 70
    64
  9
$PINSBASE
 10
0.0
 20
0.0
 30
0.0
  9
$PLIMCHECK
 70
     0
  9
$PEXTMIN
 10
1.0000000000E+20
 20
1.0000000000E+20
 30
1.0000000000E+20
  9
$PEXTMAX
 10
-1.0000000000E+20
 20
-1.0000000000E+20
 30
-1.0000000000E+20
  9
$PLIMMIN
 10
0.0
 20
0.0
  9
$PLIMMAX
 10
420.0
 20
297.0
  9
$UNITMODE
 70
     0
  9
$VISRETAIN
 70
     1
  9
$PLINEGEN
 70
     0
  9
$PSLTSCALE
 70
     1
  9
$TREEDEPTH
 70
  3020
  9
$CMLSTYLE
  2
Standard
  9
$CMLJUST
 70
     0
  9
$CMLSCALE
 40
20.0
  9
$PROXYGRAPHICS
 70
     1
  9
$MEASUREMENT
 70
     1
  9
$CELWEIGHT
370
    -1
  9
$ENDCAPS
280
     0
  9
$JOINSTYLE
280
     0
  9
$LWDISPLAY
290
     1
  9
$INSUNITS
 70
     4
  9
$HYPERLINKBASE
  1

  9
$STYLESHEET
  1

  9
$XEDIT
290
     1
  9
$CEPSNTYPE
380
     0
  9
$PSTYLEMODE
290
     1
  9
$FINGERPRINTGUID
  2
{E434AE45-8B00-41DA-AB0F-45187B8DBC90}
  9
$VERSIONGUID
  2
{FAEB1C32-E019-11D5-929B-00C0DF256EC4}
  9
$EXTNAMES
290
     1
  9
$PSVPSCALE
 40
0.0
  9
$OLESTARTUP
290
     0
  0
ENDSEC
  0
SECTION
  2
CLASSES
  0
CLASS
  1
ACDBDICTIONARYWDFLT
  2
AcDbDictionaryWithDefault
  3
ObjectDBX Classes
 90
        0
280
     0
281
     0
  0
CLASS
  1
VISUALSTYLE
  2
AcDbVisualStyle
  3
ObjectDBX Classes
 90
     4095
280
     0
281
     0
  0
CLASS
  1
MATERIAL
  2
AcDbMaterial
  3
ObjectDBX Classes
 90
     1153
280
     0
281
     0
  0
CLASS
  1
SCALE
  2
AcDbScale
  3
ObjectDBX Classes
 90
     1153
280
     0
281
     0
  0
CLASS
  1
TABLESTYLE
  2
AcDbTableStyle
  3
ObjectDBX Classes
 90
     4095
280
     0
281
     0
  0
CLASS
  1
MLEADERSTYLE
  2
AcDbMLeaderStyle
  3
ACDB_MLEADERSTYLE_CLASS
 90
     4095
280
     0
281
     0
  0
CLASS
  1
SUN
  2
AcDbSun
  3
SCENEOE
 90
     1153
280
     0
281
     0
  0
CLASS
  1
ACDBPLACEHOLDER
  2
AcDbPlaceHolder
  3
ObjectDBX Classes
 90
        0
280
     0
281
     0
  0
CLASS
  1
LAYOUT
  2
AcDbLayout
  3
ObjectDBX Classes
 90
        0
280
     0
281
     0
  0
ENDSEC
  0
SECTION
  2
TABLES
  0
TABLE
  2
VPORT
  5
8
330
0
100
AcDbSymbolTable
 70
     1
  0
VPORT
  5
29
330
8
100
AcDbSymbolTableRecord
100
AcDbViewportTableRecord
  2
*Active
 70
     0
 10
0.0
 20
0.0
 11
1.0
 21
1.0
 12
148.5
 22
105.0
 13
0.0
 23
0.0
 14
10.0
 24
10.0
 15
10.0
 25
10.0
 16
0.0
 26
0.0
 36
1.0
 17
0.0
 27
0.0
 37
0.0
 40
210.0
 41
1.4142857143
 42
50.0
 43
0.0
 44
0.0
 50
0.0
 51
0.0
 71
     0
 72
  2000
 73
     1
 74
     3
 75
     0
 76
     0
 77
     0
 78
     0
281
     0
 65
     1
110
0.0
120
0.0
130
0.0
111
1.0
121
0.0
131
0.0
112
0.0
122
1.0
132
0.0
 79
     0
146
0.0
  0
ENDTAB
  0
TABLE
  2
LTYPE
  5
5
330
0
100
AcDbSymbolTable
 70
     6
  0
LTYPE
  5
14
330
5
100
AcDbSymbolTableRecord
100
AcDbLinetypeTableRecord
  2
ByBlock
 70
     0
  3

 72
    65
 73
     0
 40
0.0
  0
LTYPE
  5
15
330
5
100
AcDbSymbolTableRecord
100
AcDbLinetypeTableRecord
  2
ByLayer
 70
     0
  3

 72
    65
 73
     0
 40
0.0
  0
LTYPE
  5
16
330
5
100
AcDbSymbolTableRecord
100
AcDbLinetypeTableRecord
  2
Continuous
 70
     0
  3
Solid line
 72
    65
 73
     0
 40
0.0
  0
LTYPE
  5
6E
330
5
100
AcDbSymbolTableRecord
100
AcDbLinetypeTableRecord
  2
HIDDEN
 70
     0
  3
Hidden __ __ __ __ __ __ __ __ __ __ __ __ __ __
 72
    65
 73
     2
 40
1.905
 49
1.27
 74
     0
 49
-0.635
 74
     0
  0
LTYPE
  5
6F
330
5
100
AcDbSymbolTableRecord
100
AcDbLinetypeTableRecord
  2
PHANTOM
 70
     0
  3
Phantom ______  __  __  ______  __  __  ______
 72
    65
 73
     6
 40
12.7
 49
6.35
 74
     0
 49
-1.27
 74
     0
 49
1.27
 74
     0
 49
-1.27
 74
     0
 49
1.27
 74
     0
 49
-1.27
 74
     0
  0
LTYPE
  5
70
330
5
100
AcDbSymbolTableRecord
100
AcDbLinetypeTableRecord
  2
CENTER
 70
     0
  3
Center ____ _ ____ _ ____ _ ____ _ ____ _ ____
 72
    65
 73
     4
 40
10.16
 49
6.35
 74
     0
 49
-1.27
 74
     0
 49
1.27
 74
     0
 49
-1.27
 74
     0
  0
LTYPE
  5
71
330
5
100
AcDbSymbolTableRecord
100
AcDbLinetypeTableRecord
  2
CENTERX2
 70
     0
  3
Center (2x) ________  __  ________  __  _____
 72
    65
 73
     4
 40
20.32
 49
12.7
 74
     0
 49
-2.54
 74
     0
 49
2.54
 74
     0
 49
-2.54
 74
     0
  0
LTYPE
  5
72
330
5
100
AcDbSymbolTableRecord
100
AcDbLinetypeTableRecord
  2
DOT2
 70
     0
  3
Dot (.5x) ........................................
 72
    65
 73
     2
 40
0.635
 49
0.0
 74
     0
 49
-0.635
 74
     0
  0
ENDTAB
  0
TABLE
  2
LAYER
  5
2
330
0
100
AcDbSymbolTable
 70
     5
  0
LAYER
  5
10
330
2
100
AcDbSymbolTableRecord
100
AcDbLayerTableRecord
  2
0
 70
     0
 62
     7
  6
Continuous
370
    -3
390
F
  0
LAYER
  5
73
330
2
100
AcDbSymbolTableRecord
100
AcDbLayerTableRecord
  2
FORMAT
 70
     0
 62
     7
  6
Continuous
370
    -3
390
F
  0
LAYER
  5
74
330
2
100
AcDbSymbolTableRecord
100
AcDbLayerTableRecord
  2
VERMASSUNG
 70
     0
 62
     7
  6
Continuous
370
    -3
390
F
  0
LAYER
  5
75
330
2
100
AcDbSymbolTableRecord
100
AcDbLayerTableRecord
  2
KOPF_DÜNN
 70
     0
 62
     7
  6
Continuous
370
    -3
390
F
  0
LAYER
  5
76
330
2
100
AcDbSymbolTableRecord
100
AcDbLayerTableRecord
  2
KOPF_DICK
 70
     0
 62
     7
  6
Continuous
370
    15
390
F
  0
ENDTAB
  0
TABLE
  2
STYLE
  5
3
330
0
100
AcDbSymbolTable
 70
     3
  0
STYLE
  5
11
330
3
100
AcDbSymbolTableRecord
100
AcDbTextStyleTableRecord
  2
Standard
 70
     0
 40
0.0
 41
1.0
 50
0.0
 71
     0
 42
2.0
  3
txt
  4

  0
STYLE
  5
77
330
3
100
AcDbSymbolTableRecord
100
AcDbTextStyleTableRecord
  2
SLDTEXTSTYLE0
 70
     0
 40
0.0
 41
0.7
 50
0.0
 71
     0
 42
2.0
  3
TXT
  4

  0
STYLE
  5
18A
330
3
100
AcDbSymbolTableRecord
100
AcDbTextStyleTableRecord
  2
SLDTEXTSTYLE1
 70
     0
 40
0.0
 41
0.65
 50
0.0
 71
     0
 42
2.0
  3
TXT
  4

  0
ENDTAB
  0
TABLE
  2
VIEW
  5
6
330
0
100
AcDbSymbolTable
 70
     0
  0
ENDTAB
  0
TABLE
  2
UCS
  5
7
330
0
100
AcDbSymbolTable
 70
     0
  0
ENDTAB
  0
TABLE
  2
APPID
  5
9
330
0
100
AcDbSymbolTable
 70
     1
  0
APPID
  5
12
330
9
100
AcDbSymbolTableRecord
100
AcDbRegAppTableRecord
  2
ACAD
 70
     0
  0
ENDTAB
  0
TABLE
  2
DIMSTYLE
  5
A
330
0
100
AcDbSymbolTable
 70
     2
100
AcDbDimStyleTable
  0
DIMSTYLE
105
27
330
A
100
AcDbSymbolTableRecord
100
AcDbDimStyleTableRecord
  2
ISO-25
 70
     0
 41
2.5
 42
0.625
 43
3.75
 44
1.25
 73
     0
 74
     0
 77
     1
 78
     8
140
2.5
141
2.5
143
0.0393700787
147
0.625
171
     3
172
     1
178
     0
271
     2
272
     2
274
     3
278
    44
283
     0
284
     8
340
11
  0
DIMSTYLE
105
181
102
{ACAD_REACTORS
330
180
330
18E
330
19A
330
1A5
330
1B1
330
1BB
102
}
330
A
100
AcDbSymbolTableRecord
100
AcDbDimStyleTableRecord
  2
SLDDIMSTYLE0
 70
     0
 41
3.0
 44
0.0
 45
0.000000001
 73
     0
 74
     0
 77
     1
 78
    12
 79
     3
140
2.0
147
0.5
173
     1
178
     0
271
     2
272
     3
276
     2
284
    12
340
77
  0
ENDTAB
  0
TABLE
  2
BLOCK_RECORD
  5
1
330
0
100
AcDbSymbolTable
 70
     7
  0
BLOCK_RECORD
  5
1F
330
1
100
AcDbSymbolTableRecord
100
AcDbBlockTableRecord
  2
*Model_Space
340
22
  0
BLOCK_RECORD
  5
1B
330
1
100
AcDbSymbolTableRecord
100
AcDbBlockTableRecord
  2
*Paper_Space
340
1E
  0
BLOCK_RECORD
  5
23
330
1
100
AcDbSymbolTableRecord
100
AcDbBlockTableRecord
  2
*Paper_Space0
340
26
  0
BLOCK_RECORD
  5
182
330
1
100
AcDbSymbolTableRecord
100
AcDbBlockTableRecord
  2
_D
340
0
  0
BLOCK_RECORD
  5
18F
330
1
100
AcDbSymbolTableRecord
100
AcDbBlockTableRecord
  2
_D_1
340
0
  0
BLOCK_RECORD
  5
19B
330
1
100
AcDbSymbolTableRecord
100
AcDbBlockTableRecord
  2
_D_2
340
0
  0
BLOCK_RECORD
  5
1A6
330
1
100
AcDbSymbolTableRecord
100
AcDbBlockTableRecord
  2
_D_3
340
0
  0
BLOCK_RECORD
  5
1B2
330
1
100
AcDbSymbolTableRecord
100
AcDbBlockTableRecord
  2
_D_4
340
0
  0
BLOCK_RECORD
  5
1BC
330
1
100
AcDbSymbolTableRecord
100
AcDbBlockTableRecord
  2
_D_5
340
0
  0
ENDTAB
  0
ENDSEC
  0
SECTION
  2
BLOCKS
  0
BLOCK
  5
20
330
1F
100
AcDbEntity
  8
0
100
AcDbBlockBegin
  2
*Model_Space
 70
     0
 10
0.0
 20
0.0
 30
0.0
  3
*Model_Space
  1

  0
ENDBLK
  5
21
330
1F
100
AcDbEntity
  8
0
100
AcDbBlockEnd
  0
BLOCK
  5
1C
330
1B
100
AcDbEntity
 67
     1
  8
0
100
AcDbBlockBegin
  2
*Paper_Space
 70
     0
 10
0.0
 20
0.0
 30
0.0
  3
*Paper_Space
  1

  0
ENDBLK
  5
1D
330
1B
100
AcDbEntity
 67
     1
  8
0
100
AcDbBlockEnd
  0
BLOCK
  5
24
330
23
100
AcDbEntity
  8
0
100
AcDbBlockBegin
  2
*Paper_Space0
 70
     0
 10
0.0
 20
0.0
 30
0.0
  3
*Paper_Space0
  1

  0
ENDBLK
  5
25
330
23
100
AcDbEntity
  8
0
100
AcDbBlockEnd
  0
BLOCK
  5
183
330
182
100
AcDbEntity
  8
0
100
AcDbBlockBegin
  2
_D
 70
     0
 10
0.0
 20
0.0
 30
0.0
  3
_D
  1

  0
SOLID
  5
185
330
182
100
AcDbEntity
  8
VERMASSUNG
100
AcDbTrace
 10
102.3731889294
 20
139.7320385177
 30
0.0
 11
101.9231889294
 21
136.7320385177
 31
0.0
 12
102.8231889294
 22
136.7320385177
 32
0.0
 13
102.8231889294
 23
136.7320385177
 33
0.0
  0
SOLID
  5
186
330
182
100
AcDbEntity
  8
VERMASSUNG
100
AcDbTrace
 10
102.3731889294
 20
76.7320385177
 30
0.0
 11
102.8231889294
 21
79.7320385177
 31
0.0
 12
101.9231889294
 22
79.7320385177
 32
0.0
 13
101.9231889294
 23
79.7320385177
 33
0.0
  0
LINE
  5
187
330
182
100
AcDbEntity
  8
VERMASSUNG
100
AcDbLine
 10
140.0410870695
 20
139.7320385177
 30
0.0
 11
101.3731889294
 21
139.7320385177
 31
0.0
  0
LINE
  5
188
330
182
100
AcDbEntity
  8
VERMASSUNG
100
AcDbLine
 10
140.0410870695
 20
76.7320385177
 30
0.0
 11
101.3731889294
 21
76.7320385177
 31
0.0
  0
LINE
  5
189
330
182
100
AcDbEntity
  8
VERMASSUNG
100
AcDbLine
 10
102.3731889294
 20
139.7320385177
 30
0.0
 11
102.3731889294
 21
76.7320385177
 31
0.0
  0
MTEXT
  5
18B
330
182
100
AcDbEntity
  8
VERMASSUNG
100
AcDbMText
 10
99.5950536732
 20
98.5279623076
 30
0.0
 40
2.0
 41
0.0
 71
     1
 72
     1
  1
HSK A 63
  7
SLDTEXTSTYLE1
 11
-7.044195017643634E-15
 21
1.0
 31
0.0
 73
     1
 44
1.0
  0
MTEXT
  5
18C
330
182
100
AcDbEntity
  8
VERMASSUNG
100
AcDbMText
 10
99.7950536245
 20
111.5279625758
 30
0.0
 40
2.0
 41
0.0
 71
     1
 72
     1
  1
%%c
  7
SLDTEXTSTYLE0
 11
-7.044195017643634E-15
 21
1.0
 31
0.0
 73
     1
 44
1.0
  0
MTEXT
  5
18D
330
182
100
AcDbEntity
  8
VERMASSUNG
100
AcDbMText
 10
99.7950533335
 20
115.1367347072
 30
0.0
 40
2.0
 41
0.0
 71
     1
 72
     1
  1
63
  7
SLDTEXTSTYLE0
 11
-7.044195017643634E-15
 21
1.0
 31
0.0
 73
     1
 44
1.0
  0
ENDBLK
  5
184
330
182
100
AcDbEntity
  8
0
100
AcDbBlockEnd
  0
BLOCK
  5
190
330
18F
100
AcDbEntity
  8
0
100
AcDbBlockBegin
  2
_D_1
 70
     0
 10
0.0
 20
0.0
 30
0.0
  3
_D_1
  1

  0
SOLID
  5
192
330
18F
100
AcDbEntity
  8
VERMASSUNG
100
AcDbTrace
 10
200.1460498491
 20
127.7320385177
 30
0.0
 11
199.6960498491
 21
124.7320385177
 31
0.0
 12
200.5960498491
 22
124.7320385177
 32
0.0
 13
200.5960498491
 23
124.7320385177
 33
0.0
  0
SOLID
  5
193
330
18F
100
AcDbEntity
  8
VERMASSUNG
100
AcDbTrace
 10
200.1460498491
 20
88.7320385177
 30
0.0
 11
200.5960498491
 21
91.7320385177
 31
0.0
 12
199.6960498491
 22
91.7320385177
 32
0.0
 13
199.6960498491
 23
91.7320385177
 33
0.0
  0
LINE
  5
194
330
18F
100
AcDbEntity
  8
VERMASSUNG
100
AcDbLine
 10
187.3410870695
 20
127.7320385177
 30
0.0
 11
201.1460498491
 21
127.7320385177
 31
0.0
  0
LINE
  5
195
330
18F
100
AcDbEntity
  8
VERMASSUNG
100
AcDbLine
 10
187.3410870695
 20
88.7320385177
 30
0.0
 11
201.1460498491
 21
88.7320385177
 31
0.0
  0
LINE
  5
196
330
18F
100
AcDbEntity
  8
VERMASSUNG
100
AcDbLine
 10
200.1460498491
 20
127.7320385177
 30
0.0
 11
200.1460498491
 21
88.7320385177
 31
0.0
  0
MTEXT
  5
197
330
18F
100
AcDbEntity
  8
VERMASSUNG
100
AcDbMText
 10
197.3679145929
 20
102.0277388267
 30
0.0
 40
2.0
 41
0.0
 71
     1
 72
     1
  1
ST4
  7
SLDTEXTSTYLE0
 11
-7.044195017643634E-15
 21
1.0
 31
0.0
 73
     1
 44
1.0
  0
MTEXT
  5
198
330
18F
100
AcDbEntity
  8
VERMASSUNG
100
AcDbMText
 10
197.5679145442
 20
108.0277388788
 30
0.0
 40
2.0
 41
0.0
 71
     1
 72
     1
  1
%%c
  7
SLDTEXTSTYLE0
 11
-7.044195017643634E-15
 21
1.0
 31
0.0
 73
     1
 44
1.0
  0
MTEXT
  5
199
330
18F
100
AcDbEntity
  8
VERMASSUNG
100
AcDbMText
 10
197.5679142531
 20
111.6369581882
 30
0.0
 40
2.0
 41
0.0
 71
     1
 72
     1
  1
39
  7
SLDTEXTSTYLE0
 11
-7.044195017643634E-15
 21
1.0
 31
0.0
 73
     1
 44
1.0
  0
ENDBLK
  5
191
330
18F
100
AcDbEntity
  8
0
100
AcDbBlockEnd
  0
BLOCK
  5
19C
330
19B
100
AcDbEntity
  8
0
100
AcDbBlockBegin
  2
_D_2
 70
     0
 10
0.0
 20
0.0
 30
0.0
  3
_D_2
  1

  0
SOLID
  5
19E
330
19B
100
AcDbEntity
  8
VERMASSUNG
100
AcDbTrace
 10
194.0460498491
 20
119.2320385177
 30
0.0
 11
193.5960498491
 21
116.2320385177
 31
0.0
 12
194.4960498491
 22
116.2320385177
 32
0.0
 13
194.4960498491
 23
116.2320385177
 33
0.0
  0
SOLID
  5
19F
330
19B
100
AcDbEntity
  8
VERMASSUNG
100
AcDbTrace
 10
194.0460498491
 20
97.2320385177
 30
0.0
 11
194.4960498491
 21
100.2320385177
 31
0.0
 12
193.5960498491
 22
100.2320385177
 32
0.0
 13
193.5960498491
 23
100.2320385177
 33
0.0
  0
LINE
  5
1A0
330
19B
100
AcDbEntity
  8
VERMASSUNG
100
AcDbLine
 10
177.1410870695
 20
119.2320385177
 30
0.0
 11
195.0460498491
 21
119.2320385177
 31
0.0
  0
LINE
  5
1A1
330
19B
100
AcDbEntity
  8
VERMASSUNG
100
AcDbLine
 10
177.1410870695
 20
97.2320385177
 30
0.0
 11
195.0460498491
 21
97.2320385177
 31
0.0
  0
LINE
  5
1A2
330
19B
100
AcDbEntity
  8
VERMASSUNG
100
AcDbLine
 10
194.0460498491
 20
119.2320385177
 30
0.0
 11
194.0460498491
 21
97.2320385177
 31
0.0
  0
MTEXT
  5
1A3
330
19B
100
AcDbEntity
  8
VERMASSUNG
100
AcDbMText
 10
191.4679143113
 20
105.0278624106
 30
0.0
 40
2.0
 41
0.0
 71
     1
 72
     1
  1
%%c
  7
SLDTEXTSTYLE0
 11
-7.044195017643634E-15
 21
1.0
 31
0.0
 73
     1
 44
1.0
  0
MTEXT
  5
1A4
330
19B
100
AcDbEntity
  8
VERMASSUNG
100
AcDbMText
 10
191.4679142531
 20
108.6368346042
 30
0.0
 40
2.0
 41
0.0
 71
     1
 72
     1
  1
22
  7
SLDTEXTSTYLE0
 11
-7.044195017643634E-15
 21
1.0
 31
0.0
 73
     1
 44
1.0
  0
ENDBLK
  5
19D
330
19B
100
AcDbEntity
  8
0
100
AcDbBlockEnd
  0
BLOCK
  5
1A7
330
1A6
100
AcDbEntity
  8
0
100
AcDbBlockBegin
  2
_D_3
 70
     0
 10
0.0
 20
0.0
 30
0.0
  3
_D_3
  1

  0
ARC
  5
1A9
330
1A6
100
AcDbEntity
  8
VERMASSUNG
100
AcDbCircle
 10
175.8278805814
 20
144.1726894007
 30
0.0
 40
4.24705993853726
100
AcDbArc
 50
153.4349488229
 51
206.5650511771
  0
ARC
  5
1AA
330
1A6
100
AcDbEntity
  8
VERMASSUNG
100
AcDbCircle
 10
177.6042935577
 20
144.1726894007
 30
0.0
 40
4.247059938537284
100
AcDbArc
 50
333.4349488229
 51
26.5650511771
  0
SOLID
  5
1AB
330
1A6
100
AcDbEntity
  8
VERMASSUNG
100
AcDbTrace
 10
165.6910870695
 20
142.2733464552
 30
0.0
 11
168.6910870695
 21
141.8233464552
 31
0.0
 12
168.6910870695
 22
142.7233464552
 32
0.0
 13
168.6910870695
 23
142.7233464552
 33
0.0
  0
SOLID
  5
1AC
330
1A6
100
AcDbEntity
  8
VERMASSUNG
100
AcDbTrace
 10
187.7410870695
 20
142.2733464552
 30
0.0
 11
184.7410870695
 21
142.7233464552
 31
0.0
 12
184.7410870695
 22
141.8233464552
 32
0.0
 13
184.7410870695
 23
141.8233464552
 33
0.0
  0
LINE
  5
1AD
330
1A6
100
AcDbEntity
  8
VERMASSUNG
100
AcDbLine
 10
165.6910870695
 20
138.0784788415
 30
0.0
 11
165.6910870695
 21
143.2733464552
 31
0.0
  0
LINE
  5
1AE
330
1A6
100
AcDbEntity
  8
VERMASSUNG
100
AcDbLine
 10
187.7410870695
 20
124.4886665588
 30
0.0
 11
187.7410870695
 21
143.2733464552
 31
0.0
  0
LINE
  5
1AF
330
1A6
100
AcDbEntity
  8
VERMASSUNG
100
AcDbLine
 10
165.6910870695
 20
142.2733464552
 30
0.0
 11
187.7410870695
 21
142.2733464552
 31
0.0
  0
MTEXT
  5
1B0
330
1A6
100
AcDbEntity
  8
VERMASSUNG
100
AcDbMText
 10
173.6166946905
 20
144.8514820512
 30
0.0
 40
2.0
 41
0.0
 71
     1
 72
     1
  1
22.05
  7
SLDTEXTSTYLE0
 73
     1
 44
1.0
  0
ENDBLK
  5
1A8
330
1A6
100
AcDbEntity
  8
0
100
AcDbBlockEnd
  0
BLOCK
  5
1B3
330
1B2
100
AcDbEntity
  8
0
100
AcDbBlockBegin
  2
_D_4
 70
     0
 10
0.0
 20
0.0
 30
0.0
  3
_D_4
  1

  0
SOLID
  5
1B5
330
1B2
100
AcDbEntity
  8
VERMASSUNG
100
AcDbTrace
 10
139.7410870695
 20
148.2733464552
 30
0.0
 11
142.7410870695
 21
147.8233464552
 31
0.0
 12
142.7410870695
 22
148.7233464552
 32
0.0
 13
142.7410870695
 23
148.7233464552
 33
0.0
  0
SOLID
  5
1B6
330
1B2
100
AcDbEntity
  8
VERMASSUNG
100
AcDbTrace
 10
187.7410870695
 20
148.2733464552
 30
0.0
 11
184.7410870695
 21
148.7233464552
 31
0.0
 12
184.7410870695
 22
147.8233464552
 32
0.0
 13
184.7410870695
 23
147.8233464552
 33
0.0
  0
LINE
  5
1B7
330
1B2
100
AcDbEntity
  8
VERMASSUNG
100
AcDbLine
 10
139.7410870695
 20
139.4320385177
 30
0.0
 11
139.7410870695
 21
149.2733464552
 31
0.0
  0
LINE
  5
1B8
330
1B2
100
AcDbEntity
  8
VERMASSUNG
100
AcDbLine
 10
187.7410870695
 20
124.4886665588
 30
0.0
 11
187.7410870695
 21
149.2733464552
 31
0.0
  0
LINE
  5
1B9
330
1B2
100
AcDbEntity
  8
VERMASSUNG
100
AcDbLine
 10
139.7410870695
 20
148.2733464552
 30
0.0
 11
187.7410870695
 21
148.2733464552
 31
0.0
  0
MTEXT
  5
1BA
330
1B2
100
AcDbEntity
  8
VERMASSUNG
100
AcDbMText
 10
162.2421282642
 20
150.8514820512
 30
0.0
 40
2.0
 41
0.0
 71
     1
 72
     1
  1
48
  7
SLDTEXTSTYLE0
 73
     1
 44
1.0
  0
ENDBLK
  5
1B4
330
1B2
100
AcDbEntity
  8
0
100
AcDbBlockEnd
  0
BLOCK
  5
1BD
330
1BC
100
AcDbEntity
  8
0
100
AcDbBlockBegin
  2
_D_5
 70
     0
 10
0.0
 20
0.0
 30
0.0
  3
_D_5
  1

  0
ARC
  5
1BF
330
1BC
100
AcDbEntity
  8
VERMASSUNG
100
AcDbCircle
 10
147.6032770798
 20
156.1726894007
 30
0.0
 40
4.247059938537297
100
AcDbArc
 50
153.4349488229
 51
206.5650511771
  0
ARC
  5
1C0
330
1BC
100
AcDbEntity
  8
VERMASSUNG
100
AcDbCircle
 10
147.9788970592
 20
156.1726894007
 30
0.0
 40
4.247059938537323
100
AcDbArc
 50
333.4349488229
 51
26.5650511771
  0
SOLID
  5
1C1
330
1BC
100
AcDbEntity
  8
VERMASSUNG
100
AcDbTrace
 10
107.8410870695
 20
154.2733464552
 30
0.0
 11
110.8410870695
 21
153.8233464552
 31
0.0
 12
110.8410870695
 22
154.7233464552
 32
0.0
 13
110.8410870695
 23
154.7233464552
 33
0.0
  0
SOLID
  5
1C2
330
1BC
100
AcDbEntity
  8
VERMASSUNG
100
AcDbTrace
 10
187.7410870695
 20
154.2733464552
 30
0.0
 11
184.7410870695
 21
154.7233464552
 31
0.0
 12
184.7410870695
 22
153.8233464552
 32
0.0
 13
184.7410870695
 23
153.8233464552
 33
0.0
  0
LINE
  5
1C3
330
1BC
100
AcDbEntity
  8
VERMASSUNG
100
AcDbLine
 10
107.8410870695
 20
127.9227162642
 30
0.0
 11
107.8410870695
 21
155.2733464552
 31
0.0
  0
LINE
  5
1C4
330
1BC
100
AcDbEntity
  8
VERMASSUNG
100
AcDbLine
 10
187.7410870695
 20
124.4886665588
 30
0.0
 11
187.7410870695
 21
155.2733464552
 31
0.0
  0
LINE
  5
1C5
330
1BC
100
AcDbEntity
  8
VERMASSUNG
100
AcDbLine
 10
107.8410870695
 20
154.2733464552
 30
0.0
 11
187.7410870695
 21
154.2733464552
 31
0.0
  0
MTEXT
  5
1C6
330
1BC
100
AcDbEntity
  8
VERMASSUNG
100
AcDbMText
 10
145.392091189
 20
156.8514820512
 30
0.0
 40
2.0
 41
0.0
 71
     1
 72
     1
  1
79.9
  7
SLDTEXTSTYLE0
 73
     1
 44
1.0
  0
ENDBLK
  5
1BE
330
1BC
100
AcDbEntity
  8
0
100
AcDbBlockEnd
  0
ENDSEC
  0
SECTION
  2
ENTITIES
  0
MTEXT
  5
78
330
1F
100
AcDbEntity
  8
KOPF_DÜNN
100
AcDbMText
 10
13.8892156294
 20
23.8442973028
 30
0.0
 40
3.0
 41
0.0
 71
     1
 72
     1
  1
144.806.039.048
  7
SLDTEXTSTYLE0
 73
     1
 44
1.0
  0
MTEXT
  5
79
330
1F
100
AcDbEntity
  8
VERMASSUNG
100
AcDbMText
 10
13.9329988022
 20
28.8834360957
 30
0.0
 40
3.0
 41
0.0
 71
     1
 72
     1
  1
Aufnahme_Master shank ST4
  7
SLDTEXTSTYLE0
 73
     1
 44
1.0
  0
MTEXT
  5
7A
330
1F
100
AcDbEntity
  8
VERMASSUNG
100
AcDbMText
 10
98.8601118557
 20
13.8365368761
 30
0.0
 40
2.0
 41
0.0
 71
     1
 72
     1
  1
Datum: 10.06.2008
  7
SLDTEXTSTYLE0
 73
     1
 44
1.0
  0
MTEXT
  5
7B
330
1F
100
AcDbEntity
  8
VERMASSUNG
100
AcDbMText
 10
13.933048693
 20
18.0482802738
 30
0.0
 40
2.0
 41
0.0
 71
     1
 72
     1
  1
DIN 69893 HSK A 63
  7
SLDTEXTSTYLE0
 73
     1
 44
1.0
  0
MTEXT
  5
7C
330
1F
100
AcDbEntity
  8
VERMASSUNG
100
AcDbMText
 10
13.9808475933
 20
13.9090974274
 30
0.0
 40
2.0
 41
0.0
 71
     1
 72
     1
  1
Gewicht: 770g
  7
SLDTEXTSTYLE0
 73
     1
 44
1.0
  0
ARC
  5
7D
330
1F
100
AcDbEntity
  8
0
  6
Continuous
 62
     7
370
    15
100
AcDbCircle
 10
140.0410870695
 20
77.0320385177
 30
0.0
 40
0.3000000000000114
100
AcDbArc
 50
180.0
 51
270.0
  0
ARC
  5
7E
330
1F
100
AcDbEntity
  8
0
  6
Continuous
 62
     7
370
    15
100
AcDbCircle
 10
140.0410870695
 20
139.4320385177
 30
0.0
 40
0.3000000000000114
100
AcDbArc
 50
90.0
 51
180.0
  0
LINE
  5
7F
330
1F
100
AcDbEntity
  8
0
  6
Continuous
 62
     7
370
    15
100
AcDbLine
 10
140.0410870695
 20
76.7320385177
 30
0.0
 11
144.6910870695
 21
76.7320385177
 31
0.0
  0
LINE
  5
80
330
1F
100
AcDbEntity
  8
0
  6
Continuous
 62
     7
370
    15
100
AcDbLine
 10
144.7003951564
 20
139.7320385177
 30
0.0
 11
140.0410870695
 21
139.7320385177
 31
0.0
  0
ARC
  5
81
330
1F
100
AcDbEntity
  8
0
  6
Continuous
 62
     7
370
    15
100
AcDbCircle
 10
139.2410803169
 20
83.6616009033
 30
0.0
 40
0.6000067526677242
100
AcDbArc
 50
33.5571153394
 51
90.0
  0
ARC
  5
82
330
1F
100
AcDbEntity
  8
0
  6
Continuous
 62
     7
370
    15
100
AcDbCircle
 10
139.2410803169
 20
132.8024761321
 30
0.0
 40
0.6000067526677242
100
AcDbArc
 50
270.0
 51
326.4428846606
  0
LINE
  5
83
330
1F
100
AcDbEntity
  8
0
  6
Continuous
 62
     7
370
    15
100
AcDbLine
 10
126.5095782707
 20
131.8897685378
 30
0.0
 11
113.9410870695
 21
131.2600846099
 31
0.0
  0
LINE
  5
84
330
1F
100
AcDbEntity
  8
0
  6
Continuous
 62
     7
370
    15
100
AcDbLine
 10
137.7410870695
 20
132.4524693794
 30
0.0
 11
134.9240854122
 21
132.3113370319
 31
0.0
  0
LINE
  5
85
330
1F
100
AcDbEntity
  8
0
  6
Continuous
 62
     7
370
    15
100
AcDbLine
 10
134.9241415023
 20
84.1527371934
 30
0.0
 11
137.7410870695
 21
84.011607656
 31
0.0
  0
LINE
  5
86
330
1F
100
AcDbEntity
  8
0
  6
Continuous
 62
     7
370
    15
100
AcDbLine
 10
117.9410870695
 20
85.0035916239
 30
0.0
 11
126.5099807894
 21
84.5742883313
 31
0.0
  0
LINE
  5
87
330
1F
100
AcDbEntity
  8
0
  6
Continuous
 62
     7
370
    15
100
AcDbLine
 10
137.7410870695
 20
84.011607656
 30
0.0
 11
138.5977998429
 21
84.2411631518
 31
0.0
  0
LINE
  5
88
330
1F
100
AcDbEntity
  8
0
  6
Continuous
 62
     7
370
    15
100
AcDbLine
 10
138.5977998429
 20
132.2229138837
 30
0.0
 11
137.7410870695
 21
132.4524693794
 31
0.0
  0
ARC
  5
89
330
1F
100
AcDbEntity
  8
0
  6
Continuous
 62
     7
370
    15
100
AcDbCircle
 10
138.75309127
 20
83.661607656
 30
0.0
 40
0.6000000000000085
100
AcDbArc
 50
90.0
 51
105.0
  0
ARC
  5
8A
330
1F
100
AcDbEntity
  8
0
  6
Continuous
 62
     7
370
    15
100
AcDbCircle
 10
138.75309127
 20
132.8024693794
 30
0.0
 40
0.5999999999999943
100
AcDbArc
 50
255.0
 51
270.0
  0
LINE
  5
8B
330
1F
100
AcDbEntity
  8
0
  6
Continuous
 62
     7
370
    15
100
AcDbLine
 10
138.75309127
 20
84.261607656
 30
0.0
 11
139.2410803169
 21
84.261607656
 31
0.0
  0
LINE
  5
8C
330
1F
100
AcDbEntity
  8
0
  6
Continuous
 62
     7
370
    15
100
AcDbLine
 10
139.2410803169
 20
132.2024693794
 30
0.0
 11
138.75309127
 21
132.2024693794
 31
0.0
  0
ARC
  5
8D
330
1F
100
AcDbEntity
  8
0
  6
Continuous
 62
     7
370
    15
100
AcDbCircle
 10
169.6910870695
 20
84.7320385177
 30
0.0
 40
4.000000000000014
100
AcDbArc
 50
90.0
 51
180.0
  0
ARC
  5
8E
330
1F
100
AcDbEntity
  8
0
  6
Continuous
 62
     7
370
    15
100
AcDbCircle
 10
169.6910870695
 20
131.7320385177
 30
0.0
 40
4.000000000000014
100
AcDbArc
 50
180.0
 51
270.0
  0
LINE
  5
8F
330
1F
100
AcDbEntity
  8
0
  6
Continuous
 62
     7
370
    15
100
AcDbLine
 10
187.3410870695
 20
88.7320385177
 30
0.0
 11
187.7410870695
 21
89.1320385177
 31
0.0
  0
LINE
  5
90
330
1F
100
AcDbEntity
  8
0
  6
Continuous
 62
     7
370
    15
100
AcDbLine
 10
187.7410870695
 20
127.3320385177
 30
0.0
 11
187.3410870695
 21
127.7320385177
 31
0.0
  0
LINE
  5
91
330
1F
100
AcDbEntity
  8
0
  6
Continuous
 62
     7
370
    15
100
AcDbLine
 10
187.3410870695
 20
127.7320385177
 30
0.0
 11
169.6910870695
 21
127.7320385177
 31
0.0
  0
LINE
  5
92
330
1F
100
AcDbEntity
  8
0
  6
Continuous
 62
     7
370
    15
100
AcDbLine
 10
169.6910870695
 20
88.7320385177
 30
0.0
 11
187.3410870695
 21
88.7320385177
 31
0.0
  0
LINE
  5
93
330
1F
100
AcDbEntity
  8
0
  6
Continuous
 62
     7
370
    15
100
AcDbLine
 10
109.1244237095
 20
87.3620385177
 30
0.0
 11
116.5410870695
 21
87.3620385177
 31
0.0
  0
ARC
  5
94
330
1F
100
AcDbEntity
  8
0
  6
Continuous
 62
     7
370
    15
100
AcDbCircle
 10
116.5410870695
 20
85.9620385177
 30
0.0
 40
1.399999999999997
100
AcDbArc
 50
42.2465410162
 51
90.0
  0
LINE
  5
95
330
1F
100
AcDbEntity
  8
0
  6
Continuous
 62
     7
370
    15
100
AcDbLine
 10
107.8522475046
 20
88.5008780826
 30
0.0
 11
108.9822505277
 21
87.3708750595
 31
0.0
  0
LINE
  5
96
330
1F
100
AcDbEntity
  8
0
  6
Continuous
 62
     7
370
    15
100
AcDbLine
 10
108.9822505277
 20
129.0932019759
 30
0.0
 11
107.8509878429
 21
127.9619392911
 31
0.0
  0
ARC
  5
97
330
1F
100
AcDbEntity
  8
0
  6
Continuous
 62
     7
370
    15
100
AcDbCircle
 10
112.5410870695
 20
130.5020385177
 30
0.0
 40
1.400000000000008
100
AcDbArc
 50
270.0
 51
301.7485287426
  0
LINE
  5
98
330
1F
100
AcDbEntity
  8
0
  6
Continuous
 62
     7
370
    15
100
AcDbLine
 10
112.5410870695
 20
129.1020385177
 30
0.0
 11
109.131975471
 21
129.1020385177
 31
0.0
  0
SPLINE
  5
99
330
1F
100
AcDbEntity
  8
0
  6
Continuous
 62
     7
370
    15
100
AcDbSpline
210
0.0
220
0.0
230
1.0
 70
    24
 71
     3
 72
    11
 73
     7
 74
     0
 42
0.000000001
 43
0.00000001
 40
0.0
 40
0.0
 40
0.0
 40
0.0
 40
0.1285561766307259
 40
0.4801535797842145
 40
0.8150691831753913
 40
1.0
 40
1.0
 40
1.0
 40
1.0
 10
176.0542466872722
 20
109.8611753739382
 30
0.0
 10
176.1440269302221
 20
109.8854590316812
 30
0.0
 10
176.4793535257705
 20
109.9761577868956
 30
0.0
 10
177.1081659953286
 20
110.1462382666707
 30
0.0
 10
177.7890372587311
 20
110.3303995496458
 30
0.0
 10
178.1537849732103
 20
110.4290560955618
 30
0.0
 10
178.2835407821386
 20
110.4641522988092
 30
0.0
  0
SPLINE
  5
9A
330
1F
100
AcDbEntity
  8
0
  6
Continuous
 62
     7
370
    15
100
AcDbSpline
210
0.0
220
0.0
230
1.0
 70
    24
 71
     3
 72
    11
 73
     7
 74
     0
 42
0.000000001
 43
0.00000001
 40
0.0
 40
0.0
 40
0.0
 40
0.0
 40
0.2164526859271177
 40
0.440305550863402
 40
0.7518960204221861
 40
1.0
 40
1.0
 40
1.0
 40
1.0
 10
175.461792974673
 20
107.6290615928417
 30
0.0
 10
175.5023761135083
 20
107.7819616111014
 30
0.0
 10
175.5849298652629
 20
108.0929890602573
 30
0.0
 10
175.7381284622676
 20
108.6701762604497
 30
0.0
 10
175.9024634314497
 20
109.2893205777642
 30
0.0
 10
176.0076285849533
 20
109.6855381782863
 30
0.0
 10
176.0542466872722
 20
109.8611753739382
 30
0.0
  0
SPLINE
  5
9B
330
1F
100
AcDbEntity
  8
0
  6
Continuous
 62
     7
370
    15
100
AcDbSpline
210
0.0
220
0.0
230
1.0
 70
    24
 71
     3
 72
    11
 73
     7
 74
     0
 42
0.000000001
 43
0.00000001
 40
0.0
 40
0.0
 40
0.0
 40
0.0
 40
0.184930816824621
 40
0.5198464202157771
 40
0.8714438233692647
 40
1.0
 40
1.0
 40
1.0
 40
1.0
 10
179.3279274518068
 20
106.6029016614873
 30
0.0
 10
179.1981716428786
 20
106.5678054582398
 30
0.0
 10
178.8334239283993
 20
106.4691489123239
 30
0.0
 10
178.1525526649968
 20
106.2849876293487
 30
0.0
 10
177.5237401954388
 20
106.1149071495736
 30
0.0
 10
177.1884135998903
 20
106.0242083943592
 30
0.0
 10
177.0986333569404
 20
105.9999247366163
 30
0.0
  0
SPLINE
  5
9C
330
1F
100
AcDbEntity
  8
0
  6
Continuous
 62
     7
370
    15
100
AcDbSpline
210
0.0
220
0.0
230
1.0
 70
    24
 71
     3
 72
    11
 73
     7
 74
     0
 42
0.000000001
 43
0.00000001
 40
0.0
 40
0.0
 40
0.0
 40
0.0
 40
0.216452685927122
 40
0.4403055508634007
 40
0.7518960204221927
 40
1.0
 40
1.0
 40
1.0
 40
1.0
 10
178.2835407821386
 20
110.4641522988092
 30
0.0
 10
178.395664512773
 20
110.3525562604827
 30
0.0
 10
178.6237453091389
 20
110.1255488897076
 30
0.0
 10
179.0470047887424
 20
109.7042814127813
 30
0.0
 10
179.5010320115545
 20
109.2523909960821
 30
0.0
 10
179.7915839422813
 20
108.9632065012941
 30
0.0
 10
179.9203811644059
 20
108.8350154425838
 30
0.0
  0
CIRCLE
  5
9D
330
1F
100
AcDbEntity
  8
0
  6
Continuous
 62
     7
370
    15
100
AcDbCircle
 10
177.6910870695
 20
108.2320385177
 30
0.0
 40
2.400000000000009
  0
SPLINE
  5
9E
330
1F
100
AcDbEntity
  8
0
  6
Continuous
 62
     7
370
    15
100
AcDbSpline
210
0.0
220
0.0
230
1.0
 70
    24
 71
     3
 72
    11
 73
     7
 74
     0
 42
0.000000001
 43
0.00000001
 40
0.0
 40
0.0
 40
0.0
 40
0.0
 40
0.2164526859271137
 40
0.4403055508633976
 40
0.7518960204221892
 40
1.0
 40
1.0
 40
1.0
 40
1.0
 10
179.9203811644059
 20
108.8350154425838
 30
0.0
 10
179.8797980255706
 20
108.6821154243241
 30
0.0
 10
179.797244273816
 20
108.3710879751682
 30
0.0
 10
179.6440456768115
 20
107.7939007749758
 30
0.0
 10
179.4797107076292
 20
107.1747564576613
 30
0.0
 10
179.3745455541257
 20
106.7785388571392
 30
0.0
 10
179.3279274518068
 20
106.6029016614873
 30
0.0
  0
SPLINE
  5
9F
330
1F
100
AcDbEntity
  8
0
  6
Continuous
 62
     7
370
    15
100
AcDbSpline
210
0.0
220
0.0
230
1.0
 70
    24
 71
     3
 72
    11
 73
     7
 74
     0
 42
0.000000001
 43
0.00000001
 40
0.0
 40
0.0
 40
0.0
 40
0.0
 40
0.2164526859271207
 40
0.4403055508633939
 40
0.7518960204221881
 40
1.0
 40
1.0
 40
1.0
 40
1.0
 10
177.0986333569404
 20
105.9999247366163
 30
0.0
 10
176.986509626306
 20
106.1115207749428
 30
0.0
 10
176.75842882994
 20
106.3385281457179
 30
0.0
 10
176.3351693503366
 20
106.7597956226443
 30
0.0
 10
175.8811421275245
 20
107.2116860393434
 30
0.0
 10
175.5905901967976
 20
107.5008705341314
 30
0.0
 10
175.461792974673
 20
107.6290615928417
 30
0.0
  0
CIRCLE
  5
A0
330
1F
100
AcDbEntity
  8
0
  6
Continuous
 62
     7
370
    15
100
AcDbCircle
 10
177.6910870695
 20
108.2320385177
 30
0.0
 40
3.620000000000019
  0
CIRCLE
  5
A1
330
1F
100
AcDbEntity
  8
0
  6
Continuous
 62
     7
370
    15
100
AcDbCircle
 10
177.6910870695
 20
108.2320385177
 30
0.0
 40
4.000000000000012
  0
ARC
  5
A2
330
1F
100
AcDbEntity
  8
0
  6
Continuous
 62
     7
370
    15
100
AcDbCircle
 10
177.6910870695
 20
108.2320385177
 30
0.0
 40
1.999999999999982
100
AcDbArc
 50
345.1351444541
 51
45.1351444541
  0
ARC
  5
A3
330
1F
100
AcDbEntity
  8
0
  6
Continuous
 62
     7
370
    15
100
AcDbCircle
 10
177.6910870695
 20
108.2320385177
 30
0.0
 40
2.000000000000007
100
AcDbArc
 50
45.1351444541
 51
105.1351444541
  0
ARC
  5
A4
330
1F
100
AcDbEntity
  8
0
  6
Continuous
 62
     7
370
    15
100
AcDbCircle
 10
177.6910870695
 20
108.2320385177
 30
0.0
 40
2.000000000000019
100
AcDbArc
 50
225.1351444541
 51
285.1351444541
  0
ARC
  5
A5
330
1F
100
AcDbEntity
  8
0
  6
Continuous
 62
     7
370
    15
100
AcDbCircle
 10
177.6910870695
 20
108.2320385177
 30
0.0
 40
2.00000000000004
100
AcDbArc
 50
105.1351444541
 51
165.1351444541
  0
ARC
  5
A6
330
1F
100
AcDbEntity
  8
0
  6
Continuous
 62
     7
370
    15
100
AcDbCircle
 10
177.6910870695
 20
108.2320385177
 30
0.0
 40
1.999999999999998
100
AcDbArc
 50
285.1351444541
 51
345.1351444541
  0
ARC
  5
A7
330
1F
100
AcDbEntity
  8
0
  6
Continuous
 62
     7
370
    15
100
AcDbCircle
 10
177.6910870695
 20
108.2320385177
 30
0.0
 40
2.00000000000004
100
AcDbArc
 50
165.1351444541
 51
225.1351444541
  0
LINE
  5
A8
330
1F
100
AcDbEntity
  8
0
  6
Continuous
 62
     7
370
    15
100
AcDbLine
 10
155.8310870695
 20
80.7342013587
 30
0.0
 11
155.8310870695
 21
128.0820385177
 31
0.0
  0
SPLINE
  5
A9
330
1F
100
AcDbEntity
  8
0
  6
Continuous
 62
     7
370
    15
100
AcDbSpline
210
0.0
220
0.0
230
1.0
 70
     8
 71
     3
 72
     8
 73
     4
 74
     0
 42
0.000000001
 43
0.00000001
 40
0.0
 40
0.0
 40
0.0
 40
0.0
 40
1.0
 40
1.0
 40
1.0
 40
1.0
 10
155.8310870695395
 20
80.73420135865788
 30
0.0
 10
155.3387479467583
 20
79.83693132445119
 30
0.0
 10
154.8446338987162
 20
78.94064690939895
 30
0.0
 10
154.3491542380504
 20
78.04512082146559
 30
0.0
  0
LINE
  5
AA
330
1F
100
AcDbEntity
  8
0
  6
Continuous
 62
     7
370
    15
100
AcDbLine
 10
154.3491542381
 20
78.0451208215
 30
0.0
 11
154.3491542381
 21
128.0820385177
 31
0.0
  0
SPLINE
  5
AB
330
1F
100
AcDbEntity
  8
0
  6
Continuous
 62
     7
370
    15
100
AcDbSpline
210
0.0
220
0.0
230
1.0
 70
    24
 71
     3
 72
     8
 73
     4
 74
     0
 42
0.000000001
 43
0.00000001
 40
0.0
 40
0.0
 40
0.0
 40
0.0
 40
1.0
 40
1.0
 40
1.0
 40
1.0
 10
154.3491542380504
 20
128.0820385177127
 30
0.0
 10
154.855834346201
 20
128.0820385177127
 30
0.0
 10
155.3511350751746
 20
128.0820385177127
 30
0.0
 10
155.8310870695395
 20
128.0820385177127
 30
0.0
  0
LINE
  5
AC
330
1F
100
AcDbEntity
  8
0
  6
Continuous
 62
     7
370
    15
100
AcDbLine
 10
165.0910870695
 20
78.0451208215
 30
0.0
 11
161.133019901
 21
78.0451208215
 31
0.0
  0
LINE
  5
AD
330
1F
100
AcDbEntity
  8
0
  6
Continuous
 62
     7
370
    15
100
AcDbLine
 10
161.133019901
 20
78.0451208215
 30
0.0
 11
161.133019901
 21
128.0820385177
 31
0.0
  0
LINE
  5
AE
330
1F
100
AcDbEntity
  8
0
  6
Continuous
 62
     7
370
    15
100
AcDbLine
 10
161.133019901
 20
128.0820385177
 30
0.0
 11
165.0910870695
 21
128.0820385177
 31
0.0
  0
SPLINE
  5
AF
330
1F
100
AcDbEntity
  8
0
  6
Continuous
 62
     7
370
    15
100
AcDbSpline
210
0.0
220
0.0
230
1.0
 70
     8
 71
     3
 72
     8
 73
     4
 74
     0
 42
0.000000001
 43
0.00000001
 40
0.0
 40
0.0
 40
0.0
 40
0.0
 40
1.0
 40
1.0
 40
1.0
 40
1.0
 10
161.1330199010285
 20
78.04512082146559
 30
0.0
 10
160.6375402403628
 20
78.94064690939895
 30
0.0
 10
160.1434261923207
 20
79.83693132445119
 30
0.0
 10
159.6510870695395
 20
80.73420135865788
 30
0.0
  0
LINE
  5
B0
330
1F
100
AcDbEntity
  8
0
  6
Continuous
 62
     7
370
    15
100
AcDbLine
 10
159.6510870695
 20
80.7342013587
 30
0.0
 11
159.6510870695
 21
128.0820385177
 31
0.0
  0
SPLINE
  5
B1
330
1F
100
AcDbEntity
  8
0
  6
Continuous
 62
     7
370
    15
100
AcDbSpline
210
0.0
220
0.0
230
1.0
 70
    24
 71
     3
 72
     8
 73
     4
 74
     0
 42
0.000000001
 43
0.00000001
 40
0.0
 40
0.0
 40
0.0
 40
0.0
 40
1.0
 40
1.0
 40
1.0
 40
1.0
 10
159.6510870695395
 20
128.0820385177127
 30
0.0
 10
160.1310390639044
 20
128.0820385177127
 30
0.0
 10
160.626339792878
 20
128.0820385177127
 30
0.0
 10
161.1330199010286
 20
128.0820385177127
 30
0.0
  0
LINE
  5
B2
330
1F
100
AcDbEntity
  8
0
  6
Continuous
 62
     7
370
    15
100
AcDbLine
 10
139.7410870695
 20
77.0320385177
 30
0.0
 11
139.7410870695
 21
139.4320385159
 31
0.0
  0
LINE
  5
B3
330
1F
100
AcDbEntity
  8
0
  6
Continuous
 62
     7
370
    15
100
AcDbLine
 10
144.6910870695
 20
128.0820385177
 30
0.0
 11
154.3491542381
 21
128.0820385177
 31
0.0
  0
LINE
  5
B4
330
1F
100
AcDbEntity
  8
0
  6
Continuous
 62
     7
370
    15
100
AcDbLine
 10
154.3491542381
 20
78.0451208215
 30
0.0
 11
152.6910870695
 21
78.0451208215
 31
0.0
  0
SPLINE
  5
B5
330
1F
100
AcDbEntity
  8
0
  6
Continuous
 62
     7
370
    15
100
AcDbSpline
210
0.0
220
0.0
230
1.0
 70
     8
 71
     3
 72
    28
 73
    24
 74
     0
 42
0.000000001
 43
0.00000001
 40
0.0
 40
0.0
 40
0.0
 40
0.0
 40
0.1249999999999999
 40
0.1249999999999999
 40
0.1874999999999998
 40
0.1874999999999998
 40
0.2499999999999997
 40
0.2499999999999997
 40
0.3749999999999993
 40
0.3749999999999993
 40
0.4374999999999993
 40
0.4374999999999993
 40
0.4999999999999992
 40
0.4999999999999992
 40
0.6249999999999992
 40
0.6249999999999992
 40
0.7499999999999992
 40
0.7499999999999992
 40
0.8124999999999993
 40
0.8124999999999993
 40
0.8749999999999996
 40
0.8749999999999996
 40
1.0
 40
1.0
 40
1.0
 40
1.0
 10
152.6910870695395
 20
78.04512082146559
 30
0.0
 10
152.1593793120465
 20
78.04512082146559
 30
0.0
 10
151.6371407467362
 20
78.02933610751536
 30
0.0
 10
150.8672702604612
 20
77.98434069343917
 30
0.0
 10
150.6129106882699
 20
77.96578569836343
 30
0.0
 10
150.1087891075714
 20
77.92193297591695
 30
0.0
 10
149.8590662901435
 20
77.89658836896474
 30
0.0
 10
149.133476338697
 20
77.81318629121463
 30
0.0
 10
148.6751160771155
 20
77.74732073206354
 30
0.0
 10
148.0246181337216
 20
77.63835039157178
 30
0.0
 10
147.8129360829292
 20
77.60011075580512
 30
0.0
 10
147.4088645937912
 20
77.52235201838576
 30
0.0
 10
147.2163580799703
 20
77.48285105621042
 30
0.0
 10
146.666523108949
 20
77.3639433138444
 30
0.0
 10
146.3365943306402
 20
77.28412563241977
 30
0.0
 10
145.7521230620715
 20
77.13078247062373
 30
0.0
 10
145.5058459240581
 20
77.05944871735447
 30
0.0
 10
145.20600313136
 20
76.96550521027986
 30
0.0
 10
145.1175462742878
 20
76.93631141691992
 30
0.0
 10
144.9641849209827
 20
76.88284484265652
 30
0.0
 10
144.8990967067565
 20
76.85848550838134
 30
0.0
 10
144.7435026908157
 20
76.7948953629366
 30
0.0
 10
144.6910870695395
 20
76.76479242784734
 30
0.0
 10
144.6910870695395
 20
76.74791553485042
 30
0.0
  0
LINE
  5
B6
330
1F
100
AcDbEntity
  8
0
  6
Continuous
 62
     7
370
    15
100
AcDbLine
 10
144.6910870695
 20
76.7479155349
 30
0.0
 11
144.6910870695
 21
76.7320385177
 31
0.0
  0
SPLINE
  5
B7
330
1F
100
AcDbEntity
  8
0
  6
Continuous
 62
     7
370
    15
100
AcDbSpline
210
0.0
220
0.0
230
1.0
 70
     8
 71
     3
 72
    22
 73
    18
 74
     0
 42
0.000000001
 43
0.00000001
 40
0.0
 40
0.0
 40
0.0
 40
0.0
 40
0.0515773377536172
 40
0.1565264849943629
 40
0.2100197540385886
 40
0.2615951369298746
 40
0.3664424119934943
 40
0.4198226601719804
 40
0.4724528789006786
 40
0.5794488992297344
 40
0.6339397336480286
 40
0.6872670452602943
 40
0.7409741315029978
 40
0.7958968813361827
 40
0.8512481408256359
 40
0.9034470736265863
 40
1.0
 40
1.0
 40
1.0
 40
1.0
 10
152.6910870695395
 20
138.699233990877
 30
0.0
 10
152.474276873537
 20
138.7006306119455
 30
0.0
 10
151.8163030546223
 20
138.7048690662017
 30
0.0
 10
150.9412080772913
 20
138.744401390556
 30
0.0
 10
150.0963825824345
 20
138.8073746373979
 30
0.0
 10
149.2766572988303
 20
138.8853886706531
 30
0.0
 10
148.5008673208018
 20
138.9822717985282
 30
0.0
 10
147.7833788594954
 20
139.0905312104442
 30
0.0
 10
147.1041141123233
 20
139.2042495827487
 30
0.0
 10
146.4957991344144
 20
139.3207497676894
 30
0.0
 10
145.9757071936912
 20
139.4298500191065
 30
0.0
 10
145.6318170159751
 20
139.5058539168365
 30
0.0
 10
145.3368632882475
 20
139.5738873727582
 30
0.0
 10
145.0910890009064
 20
139.6326004235167
 30
0.0
 10
144.905186691933
 20
139.6782158034504
 30
0.0
 10
144.7335900862092
 20
139.721175255011
 30
0.0
 10
144.7134608110329
 20
139.726336276813
 30
0.0
 10
144.7003951563592
 20
139.7296862299553
 30
0.0
  0
LINE
  5
B8
330
1F
100
AcDbEntity
  8
0
  6
Continuous
 62
     7
370
    15
100
AcDbLine
 10
154.3491542381
 20
138.6992339909
 30
0.0
 11
152.6910870695
 21
138.6992339909
 31
0.0
  0
LINE
  5
B9
330
1F
100
AcDbEntity
  8
0
  6
Continuous
 62
     7
370
    15
100
AcDbLine
 10
154.3491542381
 20
132.6907281801
 30
0.0
 11
154.3491542381
 21
138.6992339909
 31
0.0
  0
LINE
  5
BA
330
1F
100
AcDbEntity
  8
0
  6
Continuous
 62
     7
370
    15
100
AcDbLine
 10
151.9367074152
 20
132.6907281801
 30
0.0
 11
154.3491542381
 21
132.6907281801
 31
0.0
  0
SPLINE
  5
BB
330
1F
100
AcDbEntity
  8
0
  6
Continuous
 62
     7
370
    15
100
AcDbSpline
210
0.0
220
0.0
230
1.0
 70
     8
 71
     3
 72
    20
 73
    16
 74
     0
 42
0.000000001
 43
0.00000001
 40
0.0
 40
0.0
 40
0.0
 40
0.0
 40
0.2499999999999995
 40
0.2499999999999995
 40
0.3749999999999996
 40
0.3749999999999996
 40
0.4999999999999997
 40
0.4999999999999997
 40
0.6249999999999998
 40
0.6249999999999998
 40
0.7499999999999998
 40
0.7499999999999998
 40
0.8749999999999999
 40
0.8749999999999999
 40
1.0
 40
1.0
 40
1.0
 40
1.0
 10
144.6910870695395
 20
128.0820385177127
 30
0.0
 10
144.9394608038276
 20
128.7359009460101
 30
0.0
 10
145.2590308961728
 20
129.3396867280073
 30
0.0
 10
145.8813371293775
 20
130.1665254641759
 30
0.0
 10
146.1127613898082
 20
130.4289541021288
 30
0.0
 10
146.633975729458
 20
130.9256167562338
 30
0.0
 10
146.920596212093
 20
131.1562036352553
 30
0.0
 10
147.5400809534007
 20
131.572757859838
 30
0.0
 10
147.8743813328876
 20
131.7602556618055
 30
0.0
 10
148.5996418055124
 20
132.0916526394419
 30
0.0
 10
148.9815568629029
 20
132.2311566269371
 30
0.0
 10
149.7763450390746
 20
132.4566101344081
 30
0.0
 10
150.1905032332809
 20
132.5432362459517
 30
0.0
 10
151.0560495738623
 20
132.6612170348058
 30
0.0
 10
151.4939371888741
 20
132.6907281800802
 30
0.0
 10
151.9367074152287
 20
132.6907281800802
 30
0.0
  0
LINE
  5
BC
330
1F
100
AcDbEntity
  8
0
  6
Continuous
 62
     7
370
    15
100
AcDbLine
 10
165.6910870695
 20
78.6717611171
 30
0.0
 11
165.6910870695
 21
128.0820385177
 31
0.0
  0
SPLINE
  5
BD
330
1F
100
AcDbEntity
  8
0
  6
Continuous
 62
     7
370
    15
100
AcDbSpline
210
0.0
220
0.0
230
1.0
 70
     8
 71
     3
 72
    10
 73
     6
 74
     0
 42
0.000000001
 43
0.00000001
 40
0.0
 40
0.0
 40
0.0
 40
0.0
 40
0.5
 40
0.5
 40
1.0
 40
1.0
 40
1.0
 40
1.0
 10
165.6910870695395
 20
78.6717611171199
 30
0.0
 10
165.6910870695395
 20
78.51187384892624
 30
0.0
 10
165.6297774183036
 20
78.35074659341164
 30
0.0
 10
165.4106777807686
 20
78.1166475950568
 30
0.0
 10
165.2526295744551
 20
78.04512082146559
 30
0.0
 10
165.0910870695395
 20
78.04512082146559
 30
0.0
  0
SPLINE
  5
BE
330
1F
100
AcDbEntity
  8
0
  6
Continuous
 62
     7
370
    15
100
AcDbSpline
210
0.0
220
0.0
230
1.0
 70
    24
 71
     3
 72
    12
 73
     8
 74
     0
 42
0.000000001
 43
0.00000001
 40
0.0
 40
0.0
 40
0.0
 40
0.0
 40
0.250000000000002
 40
0.250000000000002
 40
0.500000000000004
 40
0.500000000000004
 40
1.0
 40
1.0
 40
1.0
 40
1.0
 10
165.0910870695395
 20
128.0820385177127
 30
0.0
 10
165.1813261372265
 20
128.0820385177128
 30
0.0
 10
165.272224251333
 20
128.0820385177128
 30
0.0
 10
165.4268212878216
 20
128.0820385177127
 30
0.0
 10
165.4917997039297
 20
128.0820385177128
 30
0.0
 10
165.6436347318659
 20
128.0820385177128
 30
0.0
 10
165.6910870695395
 20
128.0820385177128
 30
0.0
 10
165.6910870695395
 20
128.0820385177127
 30
0.0
  0
SPLINE
  5
BF
330
1F
100
AcDbEntity
  8
0
  6
Continuous
 62
     7
370
    15
100
AcDbSpline
210
0.0
220
0.0
230
1.0
 70
     8
 71
     3
 72
    10
 73
     6
 74
     0
 42
0.000000001
 43
0.00000001
 40
0.0
 40
0.0
 40
0.0
 40
0.0
 40
0.5
 40
0.5
 40
1.0
 40
1.0
 40
1.0
 40
1.0
 10
156.2253846012304
 20
134.6320385177127
 30
0.0
 10
156.1038443375619
 20
134.7067646849245
 30
0.0
 10
156.002509977213
 20
134.8157097008413
 30
0.0
 10
155.8668710343246
 20
135.0661401816029
 30
0.0
 10
155.8310870695395
 20
135.2085595437019
 30
0.0
 10
155.8310870695395
 20
135.3516923687485
 30
0.0
  0
SPLINE
  5
C0
330
1F
100
AcDbEntity
  8
0
  6
Continuous
 62
     7
370
    15
100
AcDbSpline
210
0.0
220
0.0
230
1.0
 70
    24
 71
     3
 72
    12
 73
     8
 74
     0
 42
0.000000001
 43
0.00000001
 40
0.0
 40
0.0
 40
0.0
 40
0.0
 40
0.2499999999999992
 40
0.2499999999999992
 40
0.4999999999999983
 40
0.4999999999999983
 40
1.0
 40
1.0
 40
1.0
 40
1.0
 10
156.6310870695395
 20
134.6320385177127
 30
0.0
 10
156.5812103872222
 20
134.6320385177127
 30
0.0
 10
156.5332071938184
 20
134.6320385177127
 30
0.0
 10
156.4501590911065
 20
134.6320385177127
 30
0.0
 10
156.4140295116386
 20
134.6320385177127
 30
0.0
 10
156.3181174806944
 20
134.6320385177128
 30
0.0
 10
156.2683588127256
 20
134.6320385177127
 30
0.0
 10
156.2253846012304
 20
134.6320385177127
 30
0.0
  0
SPLINE
  5
C1
330
1F
100
AcDbEntity
  8
0
  6
Continuous
 62
     7
370
    15
100
AcDbSpline
210
0.0
220
0.0
230
1.0
 70
    24
 71
     3
 72
    14
 73
    10
 74
     0
 42
0.000000001
 43
0.00000001
 40
0.0
 40
0.0
 40
0.0
 40
0.0
 40
0.1250000000000012
 40
0.1250000000000012
 40
0.2500000000000024
 40
0.2500000000000024
 40
0.5000000000000013
 40
0.5000000000000013
 40
1.0
 40
1.0
 40
1.0
 40
1.0
 10
156.6310870695395
 20
81.83203851771276
 30
0.0
 10
156.562649221653
 20
81.83203851771276
 30
0.0
 10
156.497099182888
 20
81.83203851771276
 30
0.0
 10
156.39267254348
 20
81.83203851771276
 30
0.0
 10
156.3501279337186
 20
81.83203851771275
 30
0.0
 10
156.2375184731783
 20
81.83203851771275
 30
0.0
 10
156.1819794261589
 20
81.83203851771275
 30
0.0
 10
156.0393677306951
 20
81.83203851771276
 30
0.0
 10
155.9759623756993
 20
81.83203851771275
 30
0.0
 10
155.9287618718718
 20
81.83203851771276
 30
0.0
  0
SPLINE
  5
C2
330
1F
100
AcDbEntity
  8
0
  6
Continuous
 62
     7
370
    15
100
AcDbSpline
210
0.0
220
0.0
230
1.0
 70
     8
 71
     3
 72
    10
 73
     6
 74
     0
 42
0.000000001
 43
0.00000001
 40
0.0
 40
0.0
 40
0.0
 40
0.0
 40
0.5
 40
0.5
 40
1.0
 40
1.0
 40
1.0
 40
1.0
 10
155.8310870695395
 20
128.3679051491741
 30
0.0
 10
155.8310870695395
 20
128.3201336411808
 30
0.0
 10
155.8332483131366
 20
128.2724239191192
 30
0.0
 10
155.8419196869968
 20
128.1771288015709
 30
0.0
 10
155.8484488699528
 20
128.1294362376043
 30
0.0
 10
155.8572346926996
 20
128.0820385177127
 30
0.0
  0
SPLINE
  5
C3
330
1F
100
AcDbEntity
  8
0
  6
Continuous
 62
     7
370
    15
100
AcDbSpline
210
0.0
220
0.0
230
1.0
 70
    24
 71
     3
 72
    14
 73
    10
 74
     0
 42
0.000000001
 43
0.00000001
 40
0.0
 40
0.0
 40
0.0
 40
0.0
 40
0.4999999999999984
 40
0.4999999999999984
 40
0.7499999999999992
 40
0.7499999999999992
 40
0.8749999999999996
 40
0.8749999999999996
 40
1.0
 40
1.0
 40
1.0
 40
1.0
 10
159.5534122672072
 20
81.83203851771276
 30
0.0
 10
159.506627562159
 20
81.83203851771276
 30
0.0
 10
159.4445763653793
 20
81.83203851771276
 30
0.0
 10
159.3011847268288
 20
81.83203851771275
 30
0.0
 10
159.2450410732776
 20
81.83203851771276
 30
0.0
 10
159.1320900511414
 20
81.83203851771276
 30
0.0
 10
159.0890892891033
 20
81.83203851771276
 30
0.0
 10
158.9850265787968
 20
81.83203851771276
 30
0.0
 10
158.9196943404399
 20
81.83203851771276
 30
0.0
 10
158.8510870695395
 20
81.83203851771276
 30
0.0
  0
SPLINE
  5
C4
330
1F
100
AcDbEntity
  8
0
  6
Continuous
 62
     7
370
    15
100
AcDbSpline
210
0.0
220
0.0
230
1.0
 70
    24
 71
     3
 72
    12
 73
     8
 74
     0
 42
0.000000001
 43
0.00000001
 40
0.0
 40
0.0
 40
0.0
 40
0.0
 40
0.5000000000000017
 40
0.5000000000000017
 40
0.7500000000000008
 40
0.7500000000000008
 40
1.0
 40
1.0
 40
1.0
 40
1.0
 10
159.2567895378485
 20
134.6320385177127
 30
0.0
 10
159.2137039882376
 20
134.6320385177127
 30
0.0
 10
159.1645517864883
 20
134.6320385177127
 30
0.0
 10
159.0680791922003
 20
134.6320385177127
 30
0.0
 10
159.0319776070658
 20
134.6320385177127
 30
0.0
 10
158.9488718492045
 20
134.6320385177127
 30
0.0
 10
158.9008752522382
 20
134.6320385177127
 30
0.0
 10
158.8510870695395
 20
134.6320385177127
 30
0.0
  0
SPLINE
  5
C5
330
1F
100
AcDbEntity
  8
0
  6
Continuous
 62
     7
370
    15
100
AcDbSpline
210
0.0
220
0.0
230
1.0
 70
     8
 71
     3
 72
    10
 73
     6
 74
     0
 42
0.000000001
 43
0.00000001
 40
0.0
 40
0.0
 40
0.0
 40
0.0
 40
0.5
 40
0.5
 40
1.0
 40
1.0
 40
1.0
 40
1.0
 10
159.6510870695395
 20
135.3516923687485
 30
0.0
 10
159.6510870695395
 20
135.2079223109305
 30
0.0
 10
159.6150380108206
 20
135.0655029484354
 30
0.0
 10
159.4795291500466
 20
134.8156086550781
 30
0.0
 10
159.3796531569504
 20
134.7075783188299
 30
0.0
 10
159.2567895378485
 20
134.6320385177127
 30
0.0
  0
SPLINE
  5
C6
330
1F
100
AcDbEntity
  8
0
  6
Continuous
 62
     7
370
    15
100
AcDbSpline
210
0.0
220
0.0
230
1.0
 70
     8
 71
     3
 72
    10
 73
     6
 74
     0
 42
0.000000001
 43
0.00000001
 40
0.0
 40
0.0
 40
0.0
 40
0.0
 40
0.5
 40
0.5
 40
1.0
 40
1.0
 40
1.0
 40
1.0
 10
159.6249394463794
 20
128.0820385177127
 30
0.0
 10
159.633629089291
 20
128.1289173670309
 30
0.0
 10
159.6401681540415
 20
128.1763398324321
 30
0.0
 10
159.6489267884345
 20
128.2722766310189
 30
0.0
 10
159.6510870695395
 20
128.3201919190294
 30
0.0
 10
159.6510870695395
 20
128.3679051491739
 30
0.0
  0
LINE
  5
C7
330
1F
100
AcDbEntity
  8
0
  6
Continuous
 62
     7
370
    15
100
AcDbLine
 10
158.8510870695
 20
134.6320385177
 30
0.0
 11
156.6310870695
 21
134.6320385177
 31
0.0
  0
LINE
  5
C8
330
1F
100
AcDbEntity
  8
0
  6
Continuous
 62
     7
370
    15
100
AcDbLine
 10
158.8510870695
 20
81.8320385177
 30
0.0
 11
156.6310870695
 21
81.8320385177
 31
0.0
  0
LINE
  5
C9
330
1F
100
AcDbEntity
  8
0
  6
Continuous
 62
     7
370
    15
100
AcDbLine
 10
117.9410870695
 20
85.0035916239
 30
0.0
 11
117.9410870695
 21
86.2683009865
 31
0.0
  0
SPLINE
  5
CA
330
1F
100
AcDbEntity
  8
0
  6
Continuous
 62
     7
370
    15
100
AcDbSpline
210
0.0
220
0.0
230
1.0
 70
     8
 71
     3
 72
    14
 73
    10
 74
     0
 42
0.000000001
 43
0.00000001
 40
0.0
 40
0.0
 40
0.0
 40
0.0
 40
0.25
 40
0.25
 40
0.5
 40
0.5
 40
0.75
 40
0.75
 40
1.0
 40
1.0
 40
1.0
 40
1.0
 10
117.1627999516238
 20
87.3988871941528
 30
0.0
 10
117.2194266268258
 20
87.29118974031594
 30
0.0
 10
117.3139492871156
 20
87.18840015859662
 30
0.0
 10
117.4969942626778
 20
86.99004284637647
 30
0.0
 10
117.5886208396325
 20
86.89398333769823
 30
0.0
 10
117.7474741573257
 20
86.70645429498899
 30
0.0
 10
117.8153647649474
 20
86.61504532220543
 30
0.0
 10
117.912281790655
 20
86.43666910129527
 30
0.0
 10
117.9410870695401
 20
86.3494471950491
 30
0.0
 10
117.9410870695401
 20
86.26830098651483
 30
0.0
  0
SPLINE
  5
CB
330
1F
100
AcDbEntity
  8
0
  6
Continuous
 62
     7
370
    15
100
AcDbSpline
210
0.0
220
0.0
230
1.0
 70
     8
 71
     3
 72
    14
 73
    10
 74
     0
 42
0.000000001
 43
0.00000001
 40
0.0
 40
0.0
 40
0.0
 40
0.0
 40
0.125
 40
0.125
 40
0.25
 40
0.25
 40
0.5
 40
0.5
 40
1.0
 40
1.0
 40
1.0
 40
1.0
 10
116.5410870695395
 20
87.84556905643213
 30
0.0
 10
116.5896314781967
 20
87.8513173697124
 30
0.0
 10
116.6425468329816
 20
87.84821648105617
 30
0.0
 10
116.7378421779646
 20
87.82602163689384
 30
0.0
 10
116.7780931752496
 20
87.80878940979798
 30
0.0
 10
116.8823631887625
 20
87.75246149334592
 30
0.0
 10
116.9326851639158
 20
87.70827514740012
 30
0.0
 10
117.0603681114412
 20
87.5772672485495
 30
0.0
 10
117.1164535585035
 20
87.4870327283192
 30
0.0
 10
117.1627999516252
 20
87.39888719415333
 30
0.0
  0
SPLINE
  5
CC
330
1F
100
AcDbEntity
  8
0
  6
Continuous
 62
     7
370
    15
100
AcDbSpline
210
0.0
220
0.0
230
1.0
 70
     8
 71
     3
 72
     8
 73
     4
 74
     0
 42
0.000000001
 43
0.00000001
 40
0.0
 40
0.0
 40
0.0
 40
0.0
 40
1.0
 40
1.0
 40
1.0
 40
1.0
 10
114.2725619765932
 20
87.53572376984931
 30
0.0
 10
115.0071390030762
 20
87.65434878091828
 30
0.0
 10
115.7706140724719
 20
87.75433465305457
 30
0.0
 10
116.5410870695395
 20
87.84556905643213
 30
0.0
  0
SPLINE
  5
CD
330
1F
100
AcDbEntity
  8
0
  6
Continuous
 62
     7
370
    15
100
AcDbSpline
210
0.0
220
0.0
230
1.0
 70
     8
 71
     3
 72
    14
 73
    10
 74
     0
 42
0.000000001
 43
0.00000001
 40
0.0
 40
0.0
 40
0.0
 40
0.0
 40
0.5000000000000002
 40
0.5000000000000002
 40
0.7500000000000002
 40
0.7500000000000002
 40
0.8750000000000001
 40
0.8750000000000001
 40
1.0
 40
1.0
 40
1.0
 40
1.0
 10
108.9910870695395
 20
87.36210075231767
 30
0.0
 10
109.883233200093
 20
87.36137852611702
 30
0.0
 10
110.7732096358866
 20
87.3659647325745
 30
0.0
 10
112.0998048029622
 20
87.39368973696602
 30
0.0
 10
112.540651731461
 20
87.4062962745902
 30
0.0
 10
113.1970919688834
 20
87.43731242259764
 30
0.0
 10
113.4151056254753
 20
87.44965559522443
 30
0.0
 10
113.847814479158
 20
87.4826796503877
 30
0.0
 10
114.0630909443228
 20
87.50189681552614
 30
0.0
 10
114.2725619765932
 20
87.53572376984931
 30
0.0
  0
SPLINE
  5
CE
330
1F
100
AcDbEntity
  8
0
  6
Continuous
 62
     7
370
    15
100
AcDbSpline
210
0.0
220
0.0
230
1.0
 70
     8
 71
     3
 72
     8
 73
     4
 74
     0
 42
0.000000001
 43
0.00000001
 40
0.0000005163856998
 40
0.0000005163856998
 40
0.0000005163856998
 40
0.0000005163856998
 40
0.000026289209185
 40
0.000026289209185
 40
0.000026289209185
 40
0.000026289209185
 10
108.9810421391319
 20
87.37208462541446
 30
0.0
 10
108.9843698773397
 20
87.36875037854534
 30
0.0
 10
108.9877183303153
 20
87.36542242127003
 30
0.0
 10
108.9910870695395
 20
87.36210075231766
 30
0.0
  0
SPLINE
  5
CF
330
1F
100
AcDbEntity
  8
0
  6
Continuous
 62
     7
370
    15
100
AcDbSpline
210
0.0
220
0.0
230
1.0
 70
     8
 71
     3
 72
     8
 73
     4
 74
     0
 42
0.000000001
 43
0.00000001
 40
0.0000005099763573
 40
0.0000005099763573
 40
0.0000005099763573
 40
0.0000005099763573
 40
0.0000262827998699
 40
0.0000262827998699
 40
0.0000262827998699
 40
0.0000262827998699
 10
108.9910870695395
 20
129.1019762831078
 30
0.0
 10
108.9877183303117
 20
129.0986546141519
 30
0.0
 10
108.9843698773326
 20
129.0953266568731
 30
0.0
 10
108.9810421391212
 20
129.0919924100004
 30
0.0
  0
SPLINE
  5
D0
330
1F
100
AcDbEntity
  8
0
  6
Continuous
 62
     7
370
    15
100
AcDbSpline
210
0.0
220
0.0
230
1.0
 70
     8
 71
     3
 72
    10
 73
     6
 74
     0
 42
0.000000001
 43
0.00000001
 40
0.0
 40
0.0
 40
0.0
 40
0.0
 40
0.5
 40
0.5
 40
1.0
 40
1.0
 40
1.0
 40
1.0
 10
112.5410870695395
 20
129.0551259095405
 30
0.0
 10
111.9535015224489
 20
129.0761914297769
 30
0.0
 10
111.3627551289885
 20
129.0869499156491
 30
0.0
 10
110.1787359636897
 20
129.1003146961848
 30
0.0
 10
109.5853219754842
 20
129.1024573388494
 30
0.0
 10
108.9910870695395
 20
129.1019762831078
 30
0.0
  0
SPLINE
  5
D1
330
1F
100
AcDbEntity
  8
0
  6
Continuous
 62
     7
370
    15
100
AcDbSpline
210
0.0
220
0.0
230
1.0
 70
     8
 71
     3
 72
    18
 73
    14
 74
     0
 42
0.000000001
 43
0.00000001
 40
0.0
 40
0.0
 40
0.0
 40
0.0
 40
0.2500000000000008
 40
0.2500000000000008
 40
0.5000000000000009
 40
0.5000000000000009
 40
0.7500000000000009
 40
0.7500000000000009
 40
0.875000000000001
 40
0.875000000000001
 40
0.9375000000000006
 40
0.9375000000000006
 40
1.0
 40
1.0
 40
1.0
 40
1.0
 10
113.9410870695395
 20
130.0761461900757
 30
0.0
 10
113.9410870695395
 20
129.9929392812186
 30
0.0
 10
113.9052379696012
 20
129.904202625905
 30
0.0
 10
113.7803662335673
 20
129.7220774353447
 30
0.0
 10
113.6899658159195
 20
129.6269473867181
 30
0.0
 10
113.4677231611773
 20
129.4377658775938
 30
0.0
 10
113.3379583747315
 20
129.3428207094991
 30
0.0
 10
113.09732091742
 20
129.2045420019192
 30
0.0
 10
113.0095536192826
 20
129.1588315686168
 30
0.0
 10
112.8550295320757
 20
129.1010082633953
 30
0.0
 10
112.798418646021
 20
129.0832934993574
 30
0.0
 10
112.6743746151144
 20
129.0587541961245
 30
0.0
 10
112.6066599400961
 20
129.0527750575862
 30
0.0
 10
112.5410870695395
 20
129.0551259095405
 30
0.0
  0
LINE
  5
D2
330
1F
100
AcDbEntity
  8
0
  6
Continuous
 62
     7
370
    15
100
AcDbLine
 10
113.9410870695
 20
130.0761461901
 30
0.0
 11
113.9410870695
 21
131.2600846099
 31
0.0
  0
LINE
  5
D3
330
1F
100
AcDbEntity
  8
0
  6
Continuous
 62
     7
370
    15
100
AcDbLine
 10
137.7410870695
 20
84.011607656
 30
0.0
 11
137.7410870695
 21
132.4524693794
 31
0.0
  0
SPLINE
  5
D4
330
1F
100
AcDbEntity
  8
0
  6
Continuous
 62
     7
370
    15
100
AcDbSpline
210
0.0
220
0.0
230
1.0
 70
     8
 71
     3
 72
    24
 73
    20
 74
     0
 42
0.000000001
 43
0.00000001
 40
0.0
 40
0.0
 40
0.0
 40
0.0
 40
0.0010489762969682
 40
0.0637843125639767
 40
0.1272220590447889
 40
0.19037889244876
 40
0.2526748653693632
 40
0.3146354154433589
 40
0.3770891997149993
 40
0.4393540298512636
 40
0.5008133242537819
 40
0.5621845104587263
 40
0.6248438451115537
 40
0.6874304766616293
 40
0.7496743174679374
 40
0.8119848426977089
 40
0.875096052541316
 40
0.9384412526965075
 40
0.9999999999999999
 40
0.9999999999999999
 40
0.9999999999999999
 40
0.9999999999999999
 10
126.5099929015152
 20
84.5745300891326
 30
0.0
 10
126.509546441411
 20
84.5744718033137
 30
0.0
 10
126.4823988777172
 20
84.57092766137112
 30
0.0
 10
126.5780106553309
 20
84.58376140605398
 30
0.0
 10
126.8115709132253
 20
84.6130080912541
 30
0.0
 10
127.2071252205424
 20
84.659622414317
 30
0.0
 10
127.7341655243831
 20
84.7098055559764
 30
0.0
 10
128.377695936371
 20
84.75418201842668
 30
0.0
 10
129.1163697916159
 20
84.7811267993643
 30
0.0
 10
129.9138842970466
 20
84.78459865007018
 30
0.0
 10
130.7404631794888
 20
84.75697140604058
 30
0.0
 10
131.565986197096
 20
84.69849251706732
 30
0.0
 10
132.358112745097
 20
84.61304748770728
 30
0.0
 10
133.0906850191026
 20
84.51131324787092
 30
0.0
 10
133.7263252558306
 20
84.40347012589802
 30
0.0
 10
134.2482363628404
 20
84.3018399691589
 30
0.0
 10
134.6298651399558
 20
84.21935481248067
 30
0.0
 10
134.8806796101897
 20
84.16320560613106
 30
0.0
 10
134.909801166174
 20
84.15635614751729
 30
0.0
 10
134.9241536869901
 20
84.15298040078913
 30
0.0
  0
SPLINE
  5
D5
330
1F
100
AcDbEntity
  8
0
  6
Continuous
 62
     7
370
    15
100
AcDbSpline
210
0.0
220
0.0
230
1.0
 70
     8
 71
     3
 72
    24
 73
    20
 74
     0
 42
0.000000001
 43
0.00000001
 40
0.0
 40
0.0
 40
0.0
 40
0.0
 40
0.061438427625136
 40
0.1250736755369643
 40
0.1884253490730172
 40
0.2508623904037476
 40
0.3129665632512369
 40
0.3753451453465166
 40
0.4377328972325402
 40
0.4990927322917273
 40
0.5605807588448041
 40
0.6229469893028856
 40
0.6854686282026866
 40
0.7475477813740222
 40
0.8098225060807238
 40
0.8730684085990468
 40
0.9364041844533111
 40
0.9991757196257863
 40
1.0
 40
1.0
 40
1.0
 40
1.0
 10
134.9240989161872
 20
132.3110674921701
 30
0.0
 10
134.9094981918835
 20
132.3076994353175
 30
0.0
 10
134.879774673155
 20
132.3008428918437
 30
0.0
 10
134.6270368575069
 20
132.2445042713177
 30
0.0
 10
134.2440409410578
 20
132.1616471891878
 30
0.0
 10
133.7216853566198
 20
132.0597401592365
 30
0.0
 10
133.0869008786198
 20
131.9519010201927
 30
0.0
 10
132.3566772744473
 20
131.8504340682175
 30
0.0
 10
131.5662086892137
 20
131.7653743545269
 30
0.0
 10
130.7417251743853
 20
131.7071700606405
 30
0.0
 10
129.914688715502
 20
131.6795866218139
 30
0.0
 10
129.11636444785
 20
131.6830795993067
 30
0.0
 10
128.3765404835608
 20
131.7100355191598
 30
0.0
 10
127.7322862505853
 20
131.7543894611592
 30
0.0
 10
127.2048789953696
 20
131.804594910917
 30
0.0
 10
126.8102143932198
 20
131.8512047661153
 30
0.0
 10
126.5776851140349
 20
131.8804003586626
 30
0.0
 10
126.4823050814827
 20
131.8931784276045
 30
0.0
 10
126.5092387183841
 20
131.8896241690962
 30
0.0
 10
126.5095878116084
 20
131.8895781015128
 30
0.0
  0
SPLINE
  5
D6
330
1F
100
AcDbEntity
  8
0
  6
Continuous
 62
     7
370
    15
100
AcDbSpline
210
0.0
220
0.0
230
1.0
 70
     8
 71
     3
 72
    10
 73
     6
 74
     0
 42
0.000000001
 43
0.00000001
 40
0.0
 40
0.0
 40
0.0
 40
0.0
 40
0.0840381716606348
 40
0.7011125076933074
 40
1.0
 40
1.0
 40
1.0
 40
1.0
 10
107.8546340320752
 20
88.50326461002942
 30
0.0
 10
107.8553085894101
 20
88.50105898319352
 30
0.0
 10
107.8609362771063
 20
88.4826579098313
 30
0.0
 10
107.8872577572331
 20
88.49689247255448
 30
0.0
 10
107.8996927740778
 20
88.54257824810546
 30
0.0
 10
107.9037504442629
 20
88.55748597293203
 30
0.0
  0
LINE
  5
D7
330
1F
100
AcDbEntity
  8
0
  6
Continuous
 62
     7
370
    15
100
AcDbLine
 10
107.8410870695
 20
88.5413607712
 30
0.0
 11
107.8410870695
 21
127.9227162642
 31
0.0
  0
SPLINE
  5
D8
330
1F
100
AcDbEntity
  8
0
  6
Continuous
 62
     7
370
    15
100
AcDbSpline
210
0.0
220
0.0
230
1.0
 70
     8
 71
     3
 72
     9
 73
     5
 74
     0
 42
0.000000001
 43
0.00000001
 40
0.0
 40
0.0
 40
0.0
 40
0.0
 40
0.8063521891319351
 40
1.0
 40
1.0
 40
1.0
 40
1.0
 10
107.9037504442629
 20
127.9065910624935
 30
0.0
 10
107.8875655841658
 20
127.9429194940137
 30
0.0
 10
107.8674938830962
 20
127.9879723034558
 30
0.0
 10
107.8582586499526
 20
127.9615696774618
 30
0.0
 10
107.8564702672715
 20
127.956456866737
 30
0.0
  0
SPLINE
  5
D9
330
1F
100
AcDbEntity
  8
0
  6
Continuous
 62
     7
370
    15
100
AcDbSpline
210
0.0
220
0.0
230
1.0
 70
     8
 71
     3
 72
    26
 73
    22
 74
     0
 42
0.000000001
 43
0.00000001
 40
0.0
 40
0.0
 40
0.0
 40
0.0
 40
0.2500000000000165
 40
0.2500000000000165
 40
0.3750000000000256
 40
0.3750000000000256
 40
0.4375000000000291
 40
0.4375000000000291
 40
0.4687500000000291
 40
0.4687500000000291
 40
0.5000000000000292
 40
0.5000000000000292
 40
0.5312500000000293
 40
0.5312500000000293
 40
0.5625000000000293
 40
0.5625000000000293
 40
0.625000000000026
 40
0.625000000000026
 40
0.7500000000000173
 40
0.7500000000000173
 40
1.0
 40
1.0
 40
1.0
 40
1.0
 10
108.665240715644
 20
128.6221578513106
 30
0.0
 10
108.6266401927755
 20
128.5043831549551
 30
0.0
 10
108.5803431902213
 20
128.3799934687932
 30
0.0
 10
108.4864038417874
 20
128.1747741364397
 30
0.0
 10
108.4510923748739
 20
128.1032012699933
 30
0.0
 10
108.3849123991282
 20
127.9872480373928
 30
0.0
 10
108.36037403246
 20
127.9466635025826
 30
0.0
 10
108.3170012869062
 20
127.8825218207109
 30
0.0
 10
108.301492885481
 20
127.8606553954258
 30
0.0
 10
108.266450240894
 20
127.8150611270826
 30
0.0
 10
108.2468999501742
 20
127.7913908361152
 30
0.0
 10
108.2049726698036
 20
127.7467742767753
 30
0.0
 10
108.1823205595719
 20
127.7258942642573
 30
0.0
 10
108.1413468454853
 20
127.6950208505065
 30
0.0
 10
108.1237475455899
 20
127.6851819806741
 30
0.0
 10
108.0791205597338
 20
127.6661923649779
 30
0.0
 10
108.0585613370804
 20
127.6658680403245
 30
0.0
 10
108.0074358975837
 20
127.6750914812007
 30
0.0
 10
107.9865244845952
 20
127.6963383774177
 30
0.0
 10
107.9350745770343
 20
127.7703072562484
 30
0.0
 10
107.9174092777297
 20
127.8364253495632
 30
0.0
 10
107.9037504442629
 20
127.9065910624935
 30
0.0
  0
SPLINE
  5
DA
330
1F
100
AcDbEntity
  8
0
  6
Continuous
 62
     7
370
    15
100
AcDbSpline
210
0.0
220
0.0
230
1.0
 70
     8
 71
     3
 72
    10
 73
     6
 74
     0
 42
0.000000001
 43
0.00000001
 40
0.0
 40
0.0
 40
0.0
 40
0.0
 40
0.5
 40
0.5
 40
1.0
 40
1.0
 40
1.0
 40
1.0
 10
108.9810421391213
 20
129.0919924100004
 30
0.0
 10
108.913482884203
 20
129.0243010171907
 30
0.0
 10
108.8498462288665
 20
128.949593852437
 30
0.0
 10
108.7396254742947
 20
128.7906277200104
 30
0.0
 10
108.6928091810721
 20
128.7062724540024
 30
0.0
 10
108.665240715644
 20
128.6221578513106
 30
0.0
  0
SPLINE
  5
DB
330
1F
100
AcDbEntity
  8
0
  6
Continuous
 62
     7
370
    15
100
AcDbSpline
210
0.0
220
0.0
230
1.0
 70
     8
 71
     3
 72
    10
 73
     6
 74
     0
 42
0.000000001
 43
0.00000001
 40
0.0
 40
0.0
 40
0.0
 40
0.0
 40
0.5
 40
0.5
 40
1.0
 40
1.0
 40
1.0
 40
1.0
 10
108.665240715644
 20
87.84191918411479
 30
0.0
 10
108.692718130398
 20
87.75808238764691
 30
0.0
 10
108.7394267606874
 20
87.67377190005776
 30
0.0
 10
108.8497052234334
 20
87.51465066957105
 30
0.0
 10
108.9135927620473
 20
87.43966592548139
 30
0.0
 10
108.9810421391319
 20
87.37208462541446
 30
0.0
  0
SPLINE
  5
DC
330
1F
100
AcDbEntity
  8
0
  6
Continuous
 62
     7
370
    15
100
AcDbSpline
210
0.0
220
0.0
230
1.0
 70
     8
 71
     3
 72
    24
 73
    20
 74
     0
 42
0.000000001
 43
0.00000001
 40
0.0
 40
0.0
 40
0.0
 40
0.0
 40
0.249999999999999
 40
0.249999999999999
 40
0.3749999999999983
 40
0.3749999999999983
 40
0.4374999999999987
 40
0.4374999999999987
 40
0.4687499999999975
 40
0.4687499999999975
 40
0.4999999999999963
 40
0.4999999999999963
 40
0.5624999999999984
 40
0.5624999999999984
 40
0.6250000000000006
 40
0.6250000000000006
 40
0.7500000000000001
 40
0.7500000000000001
 40
1.0
 40
1.0
 40
1.0
 40
1.0
 10
107.9037504442629
 20
88.557485972932
 30
0.0
 10
107.9175035629331
 20
88.62813603092229
 30
0.0
 10
107.935276130339
 20
88.69473414368723
 30
0.0
 10
107.9875272218943
 20
88.76883216392042
 30
0.0
 10
108.0085622974759
 20
88.79008997108198
 30
0.0
 10
108.0614627051043
 20
88.79823589722822
 30
0.0
 10
108.0825683779822
 20
88.79729609383244
 30
0.0
 10
108.1286205466602
 20
88.77628010225509
 30
0.0
 10
108.1469910186436
 20
88.76537129614749
 30
0.0
 10
108.1885426537093
 20
88.73273638520011
 30
0.0
 10
108.2111093264662
 20
88.71124440482873
 30
0.0
 10
108.2738903429263
 20
88.64277846124243
 30
0.0
 10
108.3070201038941
 20
88.59670400303733
 30
0.0
 10
108.3639377903792
 20
88.51169611470266
 30
0.0
 10
108.3881238158829
 20
88.47141581352129
 30
0.0
 10
108.4533317662627
 20
88.35647958705535
 30
0.0
 10
108.4880478264539
 20
88.28589660190833
 30
0.0
 10
108.5812630967848
 20
88.08169084282974
 30
0.0
 10
108.6269356321455
 20
87.95879246050238
 30
0.0
 10
108.665240715644
 20
87.8419191841148
 30
0.0
  0
SPLINE
  5
DD
330
1F
100
AcDbEntity
  8
0
  6
Continuous
 62
     7
370
    15
100
AcDbSpline
210
0.0
220
0.0
230
1.0
 70
     8
 71
     3
 72
    10
 73
     6
 74
     0
 42
0.000000001
 43
0.00000001
 40
0.0
 40
0.0
 40
0.0
 40
0.0
 40
0.5
 40
0.5
 40
1.0
 40
1.0
 40
1.0
 40
1.0
 10
165.6910870695395
 20
138.0784788414767
 30
0.0
 10
165.6910870695395
 20
138.2388841078275
 30
0.0
 10
165.6288492384326
 20
138.3979459208161
 30
0.0
 10
165.40971431469
 20
138.6288583864464
 30
0.0
 10
165.2521256196982
 20
138.699233990877
 30
0.0
 10
165.0910870695395
 20
138.699233990877
 30
0.0
  0
SPLINE
  5
DE
330
1F
100
AcDbEntity
  8
0
  6
Continuous
 62
     7
370
    15
100
AcDbSpline
210
0.0
220
0.0
230
1.0
 70
     8
 71
     3
 72
    12
 73
     8
 74
     0
 42
0.000000001
 43
0.00000001
 40
0.0
 40
0.0
 40
0.0
 40
0.0
 40
0.250000000000002
 40
0.250000000000002
 40
0.500000000000004
 40
0.500000000000004
 40
1.0
 40
1.0
 40
1.0
 40
1.0
 10
165.0910870695395
 20
132.6907281800802
 30
0.0
 10
165.1822867913652
 20
132.6907281800802
 30
0.0
 10
165.2728818005012
 20
132.6625084814923
 30
0.0
 10
165.4262945269478
 20
132.5680654742442
 30
0.0
 10
165.4915033942715
 20
132.5017784975389
 30
0.0
 10
165.6442879236114
 20
132.2761536742506
 30
0.0
 10
165.6910870695395
 20
132.093727411218
 30
0.0
 10
165.6910870695395
 20
131.9129907789711
 30
0.0
  0
LINE
  5
DF
330
1F
100
AcDbEntity
  8
0
  6
Continuous
 62
     7
370
    15
100
AcDbLine
 10
165.6910870695
 20
131.912990779
 30
0.0
 11
165.6910870695
 21
138.0784788415
 31
0.0
  0
SPLINE
  5
E0
330
1F
100
AcDbEntity
  8
0
  6
Continuous
 62
     7
370
    15
100
AcDbSpline
210
0.0
220
0.0
230
1.0
 70
     8
 71
     3
 72
     8
 73
     4
 74
     0
 42
0.000000001
 43
0.00000001
 40
0.0
 40
0.0
 40
0.0
 40
0.0
 40
1.0
 40
1.0
 40
1.0
 40
1.0
 10
154.3491542380504
 20
132.6907281800802
 30
0.0
 10
154.8562410798097
 20
131.5595778259165
 30
0.0
 10
155.3518089189496
 20
130.4231934151487
 30
0.0
 10
155.8310870695395
 20
129.2821821852961
 30
0.0
  0
LINE
  5
E1
330
1F
100
AcDbEntity
  8
0
  6
Continuous
 62
     7
370
    15
100
AcDbLine
 10
155.8310870695
 20
129.2821821853
 30
0.0
 11
155.8310870695
 21
128.3679051492
 31
0.0
  0
SPLINE
  5
E2
330
1F
100
AcDbEntity
  8
0
  6
Continuous
 62
     7
370
    15
100
AcDbSpline
210
0.0
220
0.0
230
1.0
 70
     8
 71
     3
 72
     8
 73
     4
 74
     0
 42
0.000000001
 43
0.00000001
 40
0.0
 40
0.0
 40
0.0
 40
0.0
 40
1.0
 40
1.0
 40
1.0
 40
1.0
 10
161.1330199010285
 20
138.699233990877
 30
0.0
 10
160.6378798716642
 20
137.8125543426967
 30
0.0
 10
160.1437971663852
 20
136.9252917070107
 30
0.0
 10
159.6510870695395
 20
136.0372727088844
 30
0.0
  0
LINE
  5
E3
330
1F
100
AcDbEntity
  8
0
  6
Continuous
 62
     7
370
    15
100
AcDbLine
 10
161.133019901
 20
132.6907281801
 30
0.0
 11
161.133019901
 21
138.6992339909
 31
0.0
  0
SPLINE
  5
E4
330
1F
100
AcDbEntity
  8
0
  6
Continuous
 62
     7
370
    15
100
AcDbSpline
210
0.0
220
0.0
230
1.0
 70
     8
 71
     3
 72
     8
 73
     4
 74
     0
 42
0.000000001
 43
0.00000001
 40
0.0
 40
0.0
 40
0.0
 40
0.0
 40
1.0
 40
1.0
 40
1.0
 40
1.0
 10
159.6510870695395
 20
129.2821821852961
 30
0.0
 10
160.1303652201293
 20
130.4231934151487
 30
0.0
 10
160.6259330592692
 20
131.5595778259165
 30
0.0
 10
161.1330199010285
 20
132.6907281800802
 30
0.0
  0
LINE
  5
E5
330
1F
100
AcDbEntity
  8
0
  6
Continuous
 62
     7
370
    15
100
AcDbLine
 10
159.6510870695
 20
129.2821821853
 30
0.0
 11
159.6510870695
 21
136.0372727089
 31
0.0
  0
SPLINE
  5
E6
330
1F
100
AcDbEntity
  8
0
  6
Continuous
 62
     7
370
    15
100
AcDbSpline
210
0.0
220
0.0
230
1.0
 70
     8
 71
     3
 72
     8
 73
     4
 74
     0
 42
0.000000001
 43
0.00000001
 40
0.0
 40
0.0
 40
0.0
 40
0.0
 40
1.0
 40
1.0
 40
1.0
 40
1.0
 10
155.8310870695395
 20
136.0372727088844
 30
0.0
 10
155.3383769726937
 20
136.9252917070108
 30
0.0
 10
154.8442942674147
 20
137.8125543426967
 30
0.0
 10
154.3491542380504
 20
138.699233990877
 30
0.0
  0
LINE
  5
E7
330
1F
100
AcDbEntity
  8
0
  6
Continuous
 62
     7
370
    15
100
AcDbLine
 10
155.8310870695
 20
129.2821821853
 30
0.0
 11
155.8310870695
 21
136.0372727089
 31
0.0
  0
LINE
  5
E8
330
1F
100
AcDbEntity
  8
0
  6
Continuous
 62
     7
370
    15
100
AcDbLine
 10
165.0910870695
 20
138.6992339909
 30
0.0
 11
161.133019901
 21
138.6992339909
 31
0.0
  0
LINE
  5
E9
330
1F
100
AcDbEntity
  8
0
  6
Continuous
 62
     7
370
    15
100
AcDbLine
 10
161.133019901
 20
132.6907281801
 30
0.0
 11
165.0910870695
 21
132.6907281801
 31
0.0
  0
LINE
  5
EA
330
1F
100
AcDbEntity
  8
0
  6
Continuous
 62
     7
370
    15
100
AcDbLine
 10
159.6510870695
 20
128.3679051492
 30
0.0
 11
159.6510870695
 21
129.2821821853
 31
0.0
  0
LINE
  5
EB
330
1F
100
AcDbEntity
  8
0
  6
Continuous
 62
     7
370
    15
100
AcDbLine
 10
165.6910870695
 20
131.912990779
 30
0.0
 11
165.6910870695
 21
128.0820385177
 31
0.0
  0
SPLINE
  5
EC
330
1F
100
AcDbEntity
  8
0
  6
Continuous
 62
     7
370
    15
100
AcDbSpline
210
0.0
220
0.0
230
1.0
 70
    11
 71
     3
 72
    77
 73
    73
 74
     0
 42
0.000000001
 43
0.00000001
 40
0.0
 40
0.0
 40
0.0
 40
0.0
 40
0.03125
 40
0.03125
 40
0.0625
 40
0.0625
 40
0.0937499999999999
 40
0.0937499999999999
 40
0.1249999999999999
 40
0.1249999999999999
 40
0.1562499999999999
 40
0.1562499999999999
 40
0.1874999999999999
 40
0.1874999999999999
 40
0.2187499999999999
 40
0.2187499999999999
 40
0.2499999999999998
 40
0.2499999999999998
 40
0.2812499999999998
 40
0.2812499999999998
 40
0.3124999999999998
 40
0.3124999999999998
 40
0.3437499999999998
 40
0.3437499999999998
 40
0.3593749999999998
 40
0.3593749999999998
 40
0.3749999999999998
 40
0.3906249999999997
 40
0.3906249999999997
 40
0.4062499999999997
 40
0.4062499999999997
 40
0.4374999999999999
 40
0.4374999999999999
 40
0.46875
 40
0.46875
 40
0.5000000000000001
 40
0.5000000000000001
 40
0.5312500000000002
 40
0.5312500000000002
 40
0.5625000000000003
 40
0.5625000000000003
 40
0.5937500000000003
 40
0.5937500000000003
 40
0.6250000000000004
 40
0.6250000000000004
 40
0.6562500000000006
 40
0.6562500000000006
 40
0.6875000000000007
 40
0.6875000000000007
 40
0.7187500000000008
 40
0.7187500000000008
 40
0.7500000000000008
 40
0.7500000000000008
 40
0.7656250000000006
 40
0.7656250000000006
 40
0.7812500000000003
 40
0.7812500000000003
 40
0.8125000000000003
 40
0.8125000000000003
 40
0.8437500000000003
 40
0.8437500000000003
 40
0.8750000000000003
 40
0.8750000000000003
 40
0.8906250000000003
 40
0.8906250000000003
 40
0.9062500000000003
 40
0.9062500000000003
 40
0.9375000000000001
 40
0.9375000000000001
 40
0.96875
 40
0.96875
 40
1.0
 40
1.0
 40
1.0
 40
1.0
 10
174.3406870140092
 20
111.5503977355882
 30
0.0
 10
174.5830336627482
 20
111.746869455085
 30
0.0
 10
174.8401548175469
 20
111.9172907321462
 30
0.0
 10
175.3815639259521
 20
112.2108950130142
 30
0.0
 10
175.6678844553745
 20
112.3346698281253
 30
0.0
 10
176.2594065891251
 20
112.5310657580086
 30
0.0
 10
176.5604113023747
 20
112.6027019097424
 30
0.0
 10
177.1725363858911
 20
112.6951200980866
 30
0.0
 10
177.48664258221
 20
112.7157195211099
 30
0.0
 10
178.1091677952307
 20
112.7037042783436
 30
0.0
 10
178.4167263618278
 20
112.6717198530993
 30
0.0
 10
179.0245278365466
 20
112.5562669559908
 30
0.0
 10
179.3277049230781
 20
112.4715227827755
 30
0.0
 10
179.9078822228171
 20
112.2531120470778
 30
0.0
 10
180.185384726195
 20
112.1200464943169
 30
0.0
 10
180.7148338877606
 20
111.8048699512854
 30
0.0
 10
180.9692458582375
 20
111.620258858922
 30
0.0
 10
181.4314297840533
 20
111.2115105964625
 30
0.0
 10
181.6407352061344
 20
110.9872914292378
 30
0.0
 10
182.0132263851002
 20
110.4962883154352
 30
0.0
 10
182.1772745877998
 20
110.226225449602
 30
0.0
 10
182.4377836568031
 20
109.6666062009762
 30
0.0
 10
182.5368215199616
 20
109.374738697275
 30
0.0
 10
182.6348099759994
 20
108.9172775187545
 30
0.0
 10
182.6588652369685
 20
108.7610522416083
 30
0.0
 10
182.6881022178413
 20
108.4510066377632
 30
0.0
 10
182.6990665316087
 20
108.1411501016518
 30
0.0
 10
182.6739693000841
 20
107.8316668304449
 30
0.0
 10
182.63050599346
 20
107.522373506473
 30
0.0
 10
182.5993761551367
 20
107.3675456062164
 30
0.0
 10
182.4810868398972
 20
106.9156202283486
 30
0.0
 10
182.3689137789438
 20
106.6267621654628
 30
0.0
 10
182.0806944254009
 20
106.0726948634447
 30
0.0
 10
181.9073725856966
 20
105.8135546546047
 30
0.0
 10
181.5136084193643
 20
105.3367709962173
 30
0.0
 10
181.2898187311993
 20
105.1158950660605
 30
0.0
 10
180.8098480694271
 20
104.7250265564525
 30
0.0
 10
180.5530568974599
 20
104.553458597877
 30
0.0
 10
180.0069094732929
 20
104.2559328776561
 30
0.0
 10
179.7193638215861
 20
104.1315722199491
 30
0.0
 10
179.1325344460747
 20
103.9357857455555
 30
0.0
 10
178.8309783261784
 20
103.8630831314194
 30
0.0
 10
178.2111917245646
 20
103.7688803511649
 30
0.0
 10
177.9006155036966
 20
103.748644366371
 30
0.0
 10
177.2815334587108
 20
103.7598315725926
 30
0.0
 10
176.9716800779257
 20
103.791314850341
 30
0.0
 10
176.3561742779721
 20
103.9079492793042
 30
0.0
 10
176.0580089897907
 20
103.991541135469
 30
0.0
 10
175.4803503011709
 20
104.2083700944229
 30
0.0
 10
175.1993974977041
 20
104.342447721618
 30
0.0
 10
174.6639993101094
 20
104.6612262081828
 30
0.0
 10
174.4149035112929
 20
104.8423825281118
 30
0.0
 10
174.0693889692787
 20
105.147486128705
 30
0.0
 10
173.9589387424051
 20
105.2547880974564
 30
0.0
 10
173.7479693559158
 20
105.4812540368623
 30
0.0
 10
173.6468632565829
 20
105.6012497711393
 30
0.0
 10
173.365365496522
 20
105.9729212508553
 30
0.0
 10
173.2058331284169
 20
106.2362077320662
 30
0.0
 10
172.9452189589945
 20
106.7953319251159
 30
0.0
 10
172.843522443518
 20
107.0958561763368
 30
0.0
 10
172.714206595949
 20
107.703659336077
 30
0.0
 10
172.684870891029
 20
108.0119659569746
 30
0.0
 10
172.6958187275477
 20
108.4812918581278
 30
0.0
 10
172.7088775217749
 20
108.6389108372741
 30
0.0
 10
172.7527457959823
 20
108.9475884442681
 30
0.0
 10
172.7835397744262
 20
109.0997883155077
 30
0.0
 10
172.901758331532
 20
109.5501630709658
 30
0.0
 10
173.0168052323349
 20
109.8452106268362
 30
0.0
 10
173.3043667521395
 20
110.3958264991693
 30
0.0
 10
173.476580299686
 20
110.6534008725469
 30
0.0
 10
173.8754891813794
 20
111.1349484903102
 30
0.0
 10
174.0983403652703
 20
111.3539260160913
 30
0.0
 10
174.3406870140092
 20
111.5503977355882
 30
0.0
  0
LINE
  5
ED
330
1F
100
AcDbEntity
  8
0
  6
Continuous
 62
     7
370
    15
100
AcDbLine
 10
187.7410870695
 20
108.2320385177
 30
0.0
 11
187.7410870695
 21
89.1320385177
 31
0.0
  0
LINE
  5
EE
330
1F
100
AcDbEntity
  8
0
  6
Continuous
 62
     7
370
    15
100
AcDbLine
 10
187.7410870695
 20
127.3320385177
 30
0.0
 11
187.7410870695
 21
108.2320385177
 31
0.0
  0
LINE
  5
EF
330
1F
100
AcDbEntity
  8
0
  6
Continuous
 62
     7
370
    15
100
AcDbLine
 10
187.3410870695
 20
108.2320385177
 30
0.0
 11
187.3410870695
 21
88.7320385177
 31
0.0
  0
LINE
  5
F0
330
1F
100
AcDbEntity
  8
0
  6
Continuous
 62
     7
370
    15
100
AcDbLine
 10
187.3410870695
 20
127.7320385177
 30
0.0
 11
187.3410870695
 21
108.2320385177
 31
0.0
  0
CIRCLE
  5
F1
330
1F
100
AcDbEntity
  8
0
  6
HIDDEN
 62
     7
370
     0
100
AcDbCircle
 10
177.6910870695
 20
108.2320385177
 30
0.0
 40
2.953589838486227
  0
CIRCLE
  5
F2
330
1F
100
AcDbEntity
  8
0
  6
HIDDEN
 62
     7
370
     0
100
AcDbCircle
 10
177.6910870695
 20
108.2320385177
 30
0.0
 40
2.753589838486222
  0
LINE
  5
F3
330
1F
100
AcDbEntity
  8
0
  6
HIDDEN
 62
     7
370
     0
100
AcDbLine
 10
154.3491542381
 20
132.6907281801
 30
0.0
 11
154.3491542381
 21
128.0820385177
 31
0.0
  0
LINE
  5
F4
330
1F
100
AcDbEntity
  8
0
  6
HIDDEN
 62
     7
370
     0
100
AcDbLine
 10
127.7362372741
 20
84.7074388949
 30
0.0
 11
127.4845796799
 21
84.6839172734
 31
0.0
  0
SPLINE
  5
F5
330
1F
100
AcDbEntity
  8
0
  6
HIDDEN
 62
     7
370
     0
100
AcDbSpline
210
0.0
220
0.0
230
1.0
 70
     8
 71
     3
 72
    32
 73
    28
 74
     0
 42
0.000000001
 43
0.00000001
 40
0.0
 40
0.0
 40
0.0
 40
0.0
 40
0.0346246159901393
 40
0.0694870388940024
 40
0.105100760954932
 40
0.1409753874086759
 40
0.175600572118933
 40
0.2104692408125612
 40
0.2461122854708171
 40
0.2820258067991323
 40
0.3162663828049038
 40
0.3859338563640314
 40
0.4214461814158482
 40
0.4553763558770599
 40
0.5243713305904969
 40
0.559512463821912
 40
0.5937987343035772
 40
0.6635059787021125
 40
0.6990055363805019
 40
0.7337623601246064
 40
0.7687606633024605
 40
0.8045245907686109
 40
0.8405553812432469
 40
0.8751701211305551
 40
0.9456085132854554
 40
0.9815233266320909
 40
1.0
 40
1.0
 40
1.0
 40
1.0
 10
133.4960890711411
 20
88.39451004189628
 30
0.0
 10
133.4240907692947
 20
88.4042979848046
 30
0.0
 10
133.2795996707615
 20
88.42394109564104
 30
0.0
 10
133.038279736503
 20
88.45339031426276
 30
0.0
 10
132.7789814855174
 20
88.48194069635318
 30
0.0
 10
132.5049940663848
 20
88.508371915308
 30
0.0
 10
132.2203662853632
 20
88.53182439265933
 30
0.0
 10
131.9257813263951
 20
88.55182184911791
 30
0.0
 10
131.6188504174268
 20
88.56797752762166
 30
0.0
 10
131.3071189516743
 20
88.57941951531717
 30
0.0
 10
130.8898534029889
 20
88.58811064301501
 30
0.0
 10
130.4692104096313
 20
88.58682258655482
 30
0.0
 10
130.0558068564659
 20
88.57559477518734
 30
0.0
 10
129.6509628933986
 20
88.55829650310646
 30
0.0
 10
129.2603248088364
 20
88.53258085933825
 30
0.0
 10
128.8915437307951
 20
88.50048754844134
 30
0.0
 10
128.5381259485467
 20
88.46492933993889
 30
0.0
 10
128.2126848582258
 20
88.42568088360329
 30
0.0
 10
127.9233076525085
 20
88.38604936623096
 30
0.0
 10
127.7253937755332
 20
88.3569136230887
 30
0.0
 10
127.5480668114957
 20
88.32917939077596
 30
0.0
 10
127.3914574829831
 20
88.30339884652156
 30
0.0
 10
127.2598099632805
 20
88.2807922097874
 30
0.0
 10
127.1179487677087
 20
88.25560616448074
 30
0.0
 10
127.0291301798931
 20
88.23916061535714
 30
0.0
 10
126.9923072413427
 20
88.23226778454094
 30
0.0
 10
126.9937233885159
 20
88.23253277045015
 30
0.0
 10
126.9942044507251
 20
88.23262278560487
 30
0.0
  0
SPLINE
  5
F6
330
1F
100
AcDbEntity
  8
0
  6
HIDDEN
 62
     7
370
     0
100
AcDbSpline
210
0.0
220
0.0
230
1.0
 70
     8
 71
     3
 72
    22
 73
    18
 74
     0
 42
0.000000001
 43
0.00000001
 40
0.0
 40
0.0
 40
0.0
 40
0.0
 40
0.0499040281125885
 40
0.1203075863893545
 40
0.1885125365560132
 40
0.2586444168297191
 40
0.3277839407293159
 40
0.39888732146551
 40
0.4686969488930338
 40
0.5405663748364755
 40
0.6097087891223015
 40
0.6809159691092502
 40
0.7490773369981714
 40
0.8192056085539695
 40
0.8876078379088254
 40
0.9579332867310426
 40
1.0
 40
1.0
 40
1.0
 40
1.0
 10
127.0010592112009
 20
128.2301737096311
 30
0.0
 10
127.0023101452264
 20
128.2299346792354
 30
0.0
 10
127.0053258707907
 20
128.2293584297607
 30
0.0
 10
127.1302191978442
 20
128.2061603949372
 30
0.0
 10
127.3547010257218
 20
128.1664803586195
 30
0.0
 10
127.6737291878993
 20
128.1142689372203
 30
0.0
 10
128.081264418896
 20
128.0549391255481
 30
0.0
 10
128.5630509727289
 20
127.9954643490321
 30
0.0
 10
129.1134706545242
 20
127.9418579926701
 30
0.0
 10
129.7063655404724
 20
127.9013840741958
 30
0.0
 10
130.3333181107896
 20
127.8781848258295
 30
0.0
 10
130.9615290846176
 20
127.8752067226146
 30
0.0
 10
131.5857891770946
 20
127.8923410483139
 30
0.0
 10
132.1784074669229
 20
127.9270269040039
 30
0.0
 10
132.7352335504511
 20
127.9759832676677
 30
0.0
 10
133.1730403950839
 20
128.0258834322909
 30
0.0
 10
133.4081071018568
 20
128.0576698212826
 30
0.0
 10
133.4960890711411
 20
128.0695669935292
 30
0.0
  0
SPLINE
  5
F7
330
1F
100
AcDbEntity
  8
0
  6
HIDDEN
 62
     7
370
     0
100
AcDbSpline
210
0.0
220
0.0
230
1.0
 70
     8
 71
     3
 72
    12
 73
     8
 74
     0
 42
0.000000001
 43
0.00000001
 40
0.0
 40
0.0
 40
0.0
 40
0.0
 40
0.2208213339966167
 40
0.4480951724837626
 40
0.6689508843508064
 40
0.8961473275827746
 40
1.0
 40
1.0
 40
1.0
 40
1.0
 10
133.4960890711411
 20
128.0695669935292
 30
0.0
 10
133.6281322798112
 20
128.0866240809527
 30
0.0
 10
133.8960770625613
 20
128.1212366720135
 30
0.0
 10
134.1912331465478
 20
128.1482086158414
 30
0.0
 10
134.3923254736995
 20
128.1637183494639
 30
0.0
 10
134.4896566011178
 20
128.1698275543815
 30
0.0
 10
134.4809987316399
 20
128.169282347423
 30
0.0
 10
134.4782826909069
 20
128.169111311776
 30
0.0
  0
SPLINE
  5
F8
330
1F
100
AcDbEntity
  8
0
  6
HIDDEN
 62
     7
370
     0
100
AcDbSpline
210
0.0
220
0.0
230
1.0
 70
     8
 71
     3
 72
    12
 73
     8
 74
     0
 42
0.000000001
 43
0.00000001
 40
0.0
 40
0.0
 40
0.0
 40
0.0
 40
0.1181213770031575
 40
0.3465081652875607
 40
0.5687654108073117
 40
0.7975205978020642
 40
1.0
 40
1.0
 40
1.0
 40
1.0
 10
134.4782827894446
 20
88.2949657173694
 30
0.0
 10
134.4804062295099
 20
88.29483164449118
 30
0.0
 10
134.4866353248678
 20
88.29443834271785
 30
0.0
 10
134.3819686638679
 20
88.3010617187433
 30
0.0
 10
134.171994274053
 20
88.3174661469509
 30
0.0
 10
133.8765360041291
 20
88.34506784588658
 30
0.0
 10
133.6176465380836
 20
88.37871265312563
 30
0.0
 10
133.4960890711411
 20
88.39451004189628
 30
0.0
  0
LINE
  5
F9
330
1F
100
AcDbEntity
  8
0
  6
HIDDEN
 62
     7
370
     0
100
AcDbLine
 10
120.7450616658
 20
91.2320385177
 30
0.0
 11
120.7450616658
 21
125.2320385177
 31
0.0
  0
CIRCLE
  5
FA
330
1F
100
AcDbEntity
  8
0
  6
HIDDEN
 62
     7
370
     0
100
AcDbCircle
 10
177.6910870695
 20
108.2320385177
 30
0.0
 40
3.624999999999986
  0
SPLINE
  5
FB
330
1F
100
AcDbEntity
  8
0
  6
HIDDEN
 62
     7
370
     0
100
AcDbSpline
210
0.0
220
0.0
230
1.0
 70
     8
 71
     3
 72
    11
 73
     7
 74
     0
 42
0.000000001
 43
0.00000001
 40
0.0
 40
0.0
 40
0.0
 40
0.0
 40
0.0005779865010846
 40
0.0005779865010846
 40
0.0005779865010846
 40
0.0011559733324422
 40
0.0011559733324422
 40
0.0011559733324422
 40
0.0011559733324422
 10
107.8410870695395
 20
110.2318791258727
 30
0.0
 10
108.0077543243455
 20
110.229895486532
 30
0.0
 10
108.1744207540231
 20
110.2278578795237
 30
0.0
 10
108.341087092475
 20
110.2257464161176
 30
0.0
 10
108.5077535213014
 20
110.2236349515666
 30
0.0
 10
108.674419894939
 20
110.2214493884105
 30
0.0
 10
108.8410870695395
 20
110.2191668110792
 30
0.0
  0
SPLINE
  5
FC
330
1F
100
AcDbEntity
  8
0
  6
HIDDEN
 62
     7
370
     0
100
AcDbSpline
210
0.0
220
0.0
230
1.0
 70
     8
 71
     3
 72
    11
 73
     7
 74
     0
 42
0.000000001
 43
0.00000001
 40
0.0
 40
0.0
 40
0.0
 40
0.0
 40
0.0005782382535738
 40
0.0005782382535738
 40
0.0005782382535738
 40
0.0011564766069467
 40
0.0011564766069467
 40
0.0011564766069467
 40
0.0011564766069467
 10
108.8410870695395
 20
106.2353382154945
 30
0.0
 10
108.6744331155709
 20
106.2349006377329
 30
0.0
 10
108.5077724433689
 20
106.2344205730605
 30
0.0
 10
108.3411055547035
 20
106.2339010336911
 30
0.0
 10
108.1744386363074
 20
106.2333814942291
 30
0.0
 10
108.0077655064742
 20
106.2328226652072
 30
0.0
 10
107.8410870695395
 20
106.2322371216241
 30
0.0
  0
LINE
  5
FD
330
1F
100
AcDbEntity
  8
0
  6
HIDDEN
 62
     7
370
     0
100
AcDbLine
 10
147.4009130381
 20
91.2320385177
 30
0.0
 11
147.4009130381
 21
125.2320385177
 31
0.0
  0
LINE
  5
FE
330
1F
100
AcDbEntity
  8
0
  6
HIDDEN
 62
     7
370
     0
100
AcDbLine
 10
149.6910870695
 20
92.5070385177
 30
0.0
 11
149.6910870695
 21
123.9570263044
 31
0.0
  0
SPLINE
  5
FF
330
1F
100
AcDbEntity
  8
0
  6
HIDDEN
 62
     7
370
     0
100
AcDbSpline
210
0.0
220
0.0
230
1.0
 70
     8
 71
     3
 72
    16
 73
    12
 74
     0
 42
0.000000001
 43
0.00000001
 40
0.0
 40
0.0
 40
0.0
 40
0.0
 40
0.124999999999998
 40
0.124999999999998
 40
0.249999999999996
 40
0.249999999999996
 40
0.4999999999999973
 40
0.4999999999999973
 40
0.7499999999999987
 40
0.7499999999999987
 40
1.0
 40
1.0
 40
1.0
 40
1.0
 10
116.5410870695395
 20
92.4305480816811
 30
0.0
 10
116.6362088242053
 20
92.4305480816811
 30
0.0
 10
116.7295388929334
 20
92.42673224828829
 30
0.0
 10
116.9128006536714
 20
92.41196169555849
 30
0.0
 10
117.0036783692284
 20
92.4008036475829
 30
0.0
 10
117.2604800667481
 20
92.35833237744117
 30
0.0
 10
117.4155474316201
 20
92.31728618023838
 30
0.0
 10
117.6692938931748
 20
92.2221400636565
 30
0.0
 10
117.7701643448426
 20
92.16737732957492
 30
0.0
 10
117.9054107595374
 20
92.05611620567103
 30
0.0
 10
117.9410870695395
 20
91.99894646834235
 30
0.0
 10
117.9410870695395
 20
91.94452489530863
 30
0.0
  0
SPLINE
  5
100
330
1F
100
AcDbEntity
  8
0
  6
HIDDEN
 62
     7
370
     0
100
AcDbSpline
210
0.0
220
0.0
230
1.0
 70
     8
 71
     3
 72
     8
 73
     4
 74
     0
 42
0.000000001
 43
0.00000001
 40
0.0
 40
0.0
 40
0.0
 40
0.0
 40
1.0
 40
1.0
 40
1.0
 40
1.0
 10
109.1410870728203
 20
94.57535102776332
 30
0.0
 10
109.1410870728222
 20
93.69145388544639
 30
0.0
 10
109.1276064469128
 20
92.97687064038443
 30
0.0
 10
109.1262550787235
 20
92.43054808168108
 30
0.0
  0
SPLINE
  5
101
330
1F
100
AcDbEntity
  8
0
  6
HIDDEN
 62
     7
370
     0
100
AcDbSpline
210
0.0
220
0.0
230
1.0
 70
     8
 71
     3
 72
    10
 73
     6
 74
     0
 42
0.000000001
 43
0.00000001
 40
0.0
 40
0.0
 40
0.0
 40
0.0
 40
0.5
 40
0.5
 40
1.0
 40
1.0
 40
1.0
 40
1.0
 10
108.8410870695395
 20
95.6002612934161
 30
0.0
 10
108.9324781852217
 20
95.42562250580681
 30
0.0
 10
109.0051300189472
 20
95.25202067855983
 30
0.0
 10
109.1126289119428
 20
94.90840725957023
 30
0.0
 10
109.1410870728147
 20
94.74008143304717
 30
0.0
 10
109.1410870728203
 20
94.5753510278228
 30
0.0
  0
LINE
  5
102
330
1F
100
AcDbEntity
  8
0
  6
HIDDEN
 62
     7
370
     0
100
AcDbLine
 10
108.8410870695
 20
98.6312117255
 30
0.0
 11
108.8410870695
 21
95.6002612934
 31
0.0
  0
SPLINE
  5
103
330
1F
100
AcDbEntity
  8
0
  6
HIDDEN
 62
     7
370
     0
100
AcDbSpline
210
0.0
220
0.0
230
1.0
 70
     8
 71
     3
 72
    10
 73
     6
 74
     0
 42
0.000000001
 43
0.00000001
 40
0.0
 40
0.0
 40
0.0
 40
0.0
 40
0.5
 40
0.5
 40
1.0
 40
1.0
 40
1.0
 40
1.0
 10
109.1410870726247
 20
99.99905214206991
 30
0.0
 10
109.1410870726247
 20
99.75706817449861
 30
0.0
 10
109.1129370435644
 20
99.52272574556653
 30
0.0
 10
109.009347129459
 20
99.06735072335046
 30
0.0
 10
108.932718419894
 20
98.84574616027278
 30
0.0
 10
108.8410870695395
 20
98.6312117255
 30
0.0
  0
LINE
  5
104
330
1F
100
AcDbEntity
  8
0
  6
HIDDEN
 62
     7
370
     0
100
AcDbLine
 10
109.1410870726
 20
111.8366721393
 30
0.0
 11
109.1410870726
 21
99.999052142
 31
0.0
  0
SPLINE
  5
105
330
1F
100
AcDbEntity
  8
0
  6
HIDDEN
 62
     7
370
     0
100
AcDbSpline
210
0.0
220
0.0
230
1.0
 70
     8
 71
     3
 72
     8
 73
     4
 74
     0
 42
0.000000001
 43
0.00000001
 40
0.0
 40
0.0
 40
0.0
 40
0.0
 40
1.0
 40
1.0
 40
1.0
 40
1.0
 10
108.8410870695395
 20
117.8389778385933
 30
0.0
 10
109.0221185360388
 20
117.406870352983
 30
0.0
 10
109.1410870726304
 20
116.9527249469434
 30
0.0
 10
109.1410870726247
 20
116.4650248933247
 30
0.0
  0
LINE
  5
106
330
1F
100
AcDbEntity
  8
0
  6
HIDDEN
 62
     7
370
     0
100
AcDbLine
 10
108.8410870695
 20
120.8721808248
 30
0.0
 11
108.8410870695
 21
117.8389778386
 31
0.0
  0
SPLINE
  5
107
330
1F
100
AcDbEntity
  8
0
  6
HIDDEN
 62
     7
370
     0
100
AcDbSpline
210
0.0
220
0.0
230
1.0
 70
     8
 71
     3
 72
    10
 73
     6
 74
     0
 42
0.000000001
 43
0.00000001
 40
0.0
 40
0.0
 40
0.0
 40
0.0
 40
0.5
 40
0.5
 40
1.0
 40
1.0
 40
1.0
 40
1.0
 10
109.1410870729319
 20
121.8887260076326
 30
0.0
 10
109.1410870729301
 20
121.7240896610268
 30
0.0
 10
109.1139284021749
 20
121.5569344371965
 30
0.0
 10
109.0081634068567
 20
121.2183114293953
 30
0.0
 10
108.9317486185597
 20
121.0460396521046
 30
0.0
 10
108.8410870695395
 20
120.8721808247608
 30
0.0
  0
SPLINE
  5
108
330
1F
100
AcDbEntity
  8
0
  6
HIDDEN
 62
     7
370
     0
100
AcDbSpline
210
0.0
220
0.0
230
1.0
 70
     8
 71
     3
 72
    18
 73
    14
 74
     0
 42
0.000000001
 43
0.00000001
 40
0.0
 40
0.0
 40
0.0
 40
0.0
 40
0.2500000000000033
 40
0.2500000000000033
 40
0.3750000000000029
 40
0.3750000000000029
 40
0.5000000000000026
 40
0.5000000000000026
 40
0.6250000000000022
 40
0.6250000000000022
 40
0.7500000000000018
 40
0.7500000000000018
 40
1.0
 40
1.0
 40
1.0
 40
1.0
 10
113.9410870695395
 20
124.5195521401169
 30
0.0
 10
113.9410870695395
 20
124.4650776195647
 30
0.0
 10
113.9061763781473
 20
124.4086965602122
 30
0.0
 10
113.8041670768143
 20
124.3246197193587
 30
0.0
 10
113.7625307221362
 20
124.2972860153678
 30
0.0
 10
113.6641249266474
 20
124.2443320997688
 30
0.0
 10
113.6065817149431
 20
124.2184447460516
 30
0.0
 10
113.4792835413702
 20
124.1706672012184
 30
0.0
 10
113.4096962366127
 20
124.1487192830405
 30
0.0
 10
113.2582619914577
 20
124.1092867181278
 30
0.0
 10
113.1755780883638
 20
124.0917304689019
 30
0.0
 10
112.9194666263258
 20
124.0492917034814
 30
0.0
 10
112.7315516224378
 20
124.0335289537444
 30
0.0
 10
112.5410870695395
 20
124.0335289537444
 30
0.0
  0
LINE
  5
109
330
1F
100
AcDbEntity
  8
0
  6
HIDDEN
 62
     7
370
     0
100
AcDbLine
 10
112.5410870695
 20
124.0335289537
 30
0.0
 11
109.1410870729
 21
124.0335289537
 31
0.0
  0
LINE
  5
10A
330
1F
100
AcDbEntity
  8
0
  6
HIDDEN
 62
     7
370
     0
100
AcDbLine
 10
109.0721180829
 20
92.4305480817
 30
0.0
 11
116.5410870695
 21
92.4305480817
 31
0.0
  0
SPLINE
  5
10B
330
1F
100
AcDbEntity
  8
0
  6
HIDDEN
 62
     7
370
     0
100
AcDbSpline
210
0.0
220
0.0
230
1.0
 70
     8
 71
     3
 72
    22
 73
    18
 74
     0
 42
0.000000001
 43
0.00000001
 40
0.0
 40
0.0
 40
0.0
 40
0.0
 40
0.125
 40
0.125
 40
0.25
 40
0.25
 40
0.5000000000000001
 40
0.5000000000000001
 40
0.5625000000000001
 40
0.5625000000000001
 40
0.6250000000000001
 40
0.6250000000000001
 40
0.75
 40
0.75
 40
0.875
 40
0.875
 40
1.0
 40
1.0
 40
1.0
 40
1.0
 10
109.0721180828974
 20
92.4305480816811
 30
0.0
 10
109.059035690169
 20
92.68565379182876
 30
0.0
 10
109.0458161267292
 20
92.97881205093267
 30
0.0
 10
109.0233689489351
 20
93.64111251655747
 30
0.0
 10
109.0138904819106
 20
94.01138643716885
 30
0.0
 10
108.9946925209741
 20
95.23394324028264
 30
0.0
 10
108.995806293971
 20
96.17108216641451
 30
0.0
 10
109.014717086924
 20
97.49095339592951
 30
0.0
 10
109.019346614783
 20
97.76245530490581
 30
0.0
 10
109.029827834529
 20
98.32084013970811
 30
0.0
 10
109.0356230958134
 20
98.60796299564772
 30
0.0
 10
109.0539323167183
 20
99.48055225001941
 30
0.0
 10
109.0679672509987
 20
100.0810079263753
 30
0.0
 10
109.0974244231355
 20
101.3184824188713
 30
0.0
 10
109.1129801141171
 20
101.9554985755148
 30
0.0
 10
109.136774664114
 20
103.2669871731994
 30
0.0
 10
109.1447937162594
 20
103.9431097848598
 30
0.0
 10
109.1410870695395
 20
104.6274048961447
 30
0.0
  0
LINE
  5
10C
330
1F
100
AcDbEntity
  8
0
  6
HIDDEN
 62
     7
370
     0
100
AcDbLine
 10
109.1410870729
 20
111.8366721393
 30
0.0
 11
109.1410870729
 21
124.0335289537
 31
0.0
  0
SPLINE
  5
10D
330
1F
100
AcDbEntity
  8
0
  6
HIDDEN
 62
     7
370
     0
100
AcDbSpline
210
0.0
220
0.0
230
1.0
 70
     8
 71
     3
 72
    10
 73
     6
 74
     0
 42
0.000000001
 43
0.00000001
 40
0.0
 40
0.0
 40
0.0
 40
0.0
 40
0.5
 40
0.5
 40
1.0
 40
1.0
 40
1.0
 40
1.0
 10
109.1410870695395
 20
104.6274048961296
 30
0.0
 10
109.1410870695393
 20
104.9013200442037
 30
0.0
 10
109.1153278396705
 20
105.1722616229333
 30
0.0
 10
109.012121906937
 20
105.7079527045354
 30
0.0
 10
108.9347837430627
 20
105.9736995080572
 30
0.0
 10
108.8410870695395
 20
106.2353382154945
 30
0.0
  0
SPLINE
  5
10E
330
1F
100
AcDbEntity
  8
0
  6
HIDDEN
 62
     7
370
     0
100
AcDbSpline
210
0.0
220
0.0
230
1.0
 70
     8
 71
     3
 72
    10
 73
     6
 74
     0
 42
0.000000001
 43
0.00000001
 40
0.0
 40
0.0
 40
0.0
 40
0.0
 40
0.5
 40
0.5
 40
1.0
 40
1.0
 40
1.0
 40
1.0
 10
108.8410870695395
 20
110.2191668110792
 30
0.0
 10
108.9343176509302
 20
110.483060619149
 30
0.0
 10
109.0093472631668
 20
110.749240929787
 30
0.0
 10
109.1144143623446
 20
111.2875635047445
 30
0.0
 10
109.1410870729307
 20
111.5603116209898
 30
0.0
 10
109.1410870729319
 20
111.8366721392799
 30
0.0
  0
LINE
  5
10F
330
1F
100
AcDbEntity
  8
0
  6
HIDDEN
 62
     7
370
     0
100
AcDbLine
 10
108.8410870695
 20
106.2353382155
 30
0.0
 11
108.8410870695
 21
110.2191668111
 31
0.0
  0
SPLINE
  5
110
330
1F
100
AcDbEntity
  8
0
  6
HIDDEN
 62
     7
370
     0
100
AcDbSpline
210
0.0
220
0.0
230
1.0
 70
     8
 71
     3
 72
    16
 73
    12
 74
     0
 42
0.000000001
 43
0.00000001
 40
0.0
 40
0.0
 40
0.0
 40
0.0
 40
0.2500000000000066
 40
0.2500000000000066
 40
0.5000000000000132
 40
0.5000000000000132
 40
0.6250000000000129
 40
0.6250000000000129
 40
0.7500000000000124
 40
0.7500000000000124
 40
1.0
 40
1.0
 40
1.0
 40
1.0
 10
187.7410870695395
 20
118.6961436327303
 30
0.0
 10
187.7410870695395
 20
118.6070779642246
 30
0.0
 10
187.7357673293523
 20
118.5162155907753
 30
0.0
 10
187.7063302047316
 20
118.328142474354
 30
0.0
 10
187.6829396586682
 20
118.230041282452
 30
0.0
 10
187.6148122285732
 20
118.0900129339279
 30
0.0
 10
187.5858506819815
 20
118.0453127674769
 30
0.0
 10
187.5193091390257
 20
117.975242340001
 30
0.0
 10
187.481863004229
 20
117.9500399484638
 30
0.0
 10
187.3714937203187
 20
117.9049003018182
 30
0.0
 10
187.3034623825138
 20
117.9104986374466
 30
0.0
 10
187.2410870695132
 20
117.9262335886492
 30
0.0
  0
SPLINE
  5
111
330
1F
100
AcDbEntity
  8
0
  6
HIDDEN
 62
     7
370
     0
100
AcDbSpline
210
0.0
220
0.0
230
1.0
 70
     8
 71
     3
 72
     8
 73
     4
 74
     0
 42
0.000000001
 43
0.00000001
 40
0.0
 40
0.0
 40
0.0
 40
0.0
 40
1.0
 40
1.0
 40
1.0
 40
1.0
 10
187.241087069514
 20
117.9262335886482
 30
0.0
 10
187.1560476724548
 20
117.8687894973556
 30
0.0
 10
187.0510284215108
 20
117.8280322529426
 30
0.0
 10
186.9410870695398
 20
117.8280322529425
 30
0.0
  0
SPLINE
  5
112
330
1F
100
AcDbEntity
  8
0
  6
HIDDEN
 62
     7
370
     0
100
AcDbSpline
210
0.0
220
0.0
230
1.0
 70
     8
 71
     3
 72
     8
 73
     4
 74
     0
 42
0.000000001
 43
0.00000001
 40
0.0
 40
0.0
 40
0.0
 40
0.0
 40
1.0
 40
1.0
 40
1.0
 40
1.0
 10
187.2410870695577
 20
98.53784344674777
 30
0.0
 10
187.1560476724894
 20
98.59528753805606
 30
0.0
 10
187.0510284215296
 20
98.63604478248291
 30
0.0
 10
186.9410870695398
 20
98.63604478248298
 30
0.0
  0
SPLINE
  5
113
330
1F
100
AcDbEntity
  8
0
  6
HIDDEN
 62
     7
370
     0
100
AcDbSpline
210
0.0
220
0.0
230
1.0
 70
     8
 71
     3
 72
    16
 73
    12
 74
     0
 42
0.000000001
 43
0.00000001
 40
0.0
 40
0.0
 40
0.0
 40
0.0
 40
0.2500000000000047
 40
0.2500000000000047
 40
0.3750000000000076
 40
0.3750000000000076
 40
0.5000000000000105
 40
0.5000000000000105
 40
0.7500000000000053
 40
0.7500000000000053
 40
1.0
 40
1.0
 40
1.0
 40
1.0
 10
187.2410870695568
 20
98.53784344674685
 30
0.0
 10
187.3031601529129
 20
98.55350221967606
 30
0.0
 10
187.3709694367951
 20
98.5591031085797
 30
0.0
 10
187.4808252087299
 20
98.51460576950586
 30
0.0
 10
187.5181321265179
 20
98.48972564220097
 30
0.0
 10
187.5844398086815
 20
98.42059006229405
 30
0.0
 10
187.6134060298306
 20
98.37646556299272
 30
0.0
 10
187.6822179799503
 20
98.23646596623178
 30
0.0
 10
187.7059286540608
 20
98.13775861260855
 30
0.0
 10
187.7356296625065
 20
97.94947057534381
 30
0.0
 10
187.7410870695395
 20
97.85723419760554
 30
0.0
 10
187.7410870695395
 20
97.76793357889918
 30
0.0
  0
LINE
  5
114
330
1F
100
AcDbEntity
  8
0
  6
HIDDEN
 62
     7
370
     0
100
AcDbLine
 10
163.2410870695
 20
108.2320385177
 30
0.0
 11
163.2410870695
 21
97.7320385177
 31
0.0
  0
LINE
  5
115
330
1F
100
AcDbEntity
  8
0
  6
HIDDEN
 62
     7
370
     0
100
AcDbLine
 10
163.2410870695
 20
118.7320385177
 30
0.0
 11
163.2410870695
 21
108.2320385177
 31
0.0
  0
LINE
  5
116
330
1F
100
AcDbEntity
  8
0
  6
HIDDEN
 62
     7
370
     0
100
AcDbLine
 10
108.9910870695
 20
90.2420385177
 30
0.0
 11
108.9910870695
 21
87.3621007523
 31
0.0
  0
LINE
  5
117
330
1F
100
AcDbEntity
  8
0
  6
HIDDEN
 62
     7
370
     0
100
AcDbLine
 10
167.1071124733
 20
108.2320385177
 30
0.0
 11
167.1071124733
 21
97.2320385177
 31
0.0
  0
LINE
  5
118
330
1F
100
AcDbEntity
  8
0
  6
HIDDEN
 62
     7
370
     0
100
AcDbLine
 10
167.1071124733
 20
119.2320385177
 30
0.0
 11
167.1071124733
 21
108.2320385177
 31
0.0
  0
LINE
  5
119
330
1F
100
AcDbEntity
  8
0
  6
HIDDEN
 62
     7
370
     0
100
AcDbLine
 10
177.1410870695
 20
117.8280322529
 30
0.0
 11
186.9410870695
 21
117.8280322529
 31
0.0
  0
LINE
  5
11A
330
1F
100
AcDbEntity
  8
0
  6
HIDDEN
 62
     7
370
     0
100
AcDbLine
 10
177.1410870695
 20
98.6360447825
 30
0.0
 11
186.9410870695
 21
98.6360447825
 31
0.0
  0
LINE
  5
11B
330
1F
100
AcDbEntity
  8
0
  6
HIDDEN
 62
     7
370
     0
100
AcDbLine
 10
117.9410870695
 20
90.2420385177
 30
0.0
 11
117.9410870695
 21
86.2683009865
 31
0.0
  0
LINE
  5
11C
330
1F
100
AcDbEntity
  8
0
  6
HIDDEN
 62
     7
370
     0
100
AcDbLine
 10
108.9910870695
 20
126.2220385177
 30
0.0
 11
108.9910870695
 21
129.1019762831
 31
0.0
  0
LINE
  5
11D
330
1F
100
AcDbEntity
  8
0
  6
HIDDEN
 62
     7
370
     0
100
AcDbLine
 10
113.9410870695
 20
126.2220385177
 30
0.0
 11
113.9410870695
 21
130.0761461901
 31
0.0
  0
LINE
  5
11E
330
1F
100
AcDbEntity
  8
0
  6
HIDDEN
 62
     7
370
     0
100
AcDbLine
 10
158.5410870695
 20
98.7320385177
 30
0.0
 11
158.5410870695
 21
117.7320385177
 31
0.0
  0
LINE
  5
11F
330
1F
100
AcDbEntity
  8
0
  6
HIDDEN
 62
     7
370
     0
100
AcDbLine
 10
161.5410870695
 20
98.7320385177
 30
0.0
 11
161.5410870695
 21
117.7320385177
 31
0.0
  0
LINE
  5
120
330
1F
100
AcDbEntity
  8
0
  6
HIDDEN
 62
     7
370
     0
100
AcDbLine
 10
150.1910870695
 20
99.7320385177
 30
0.0
 11
150.1910870695
 21
116.7320385177
 31
0.0
  0
LINE
  5
121
330
1F
100
AcDbEntity
  8
0
  6
HIDDEN
 62
     7
370
     0
100
AcDbLine
 10
144.6910870695
 20
76.7479155349
 30
0.0
 11
144.6910870695
 21
81.8320385177
 31
0.0
  0
LINE
  5
122
330
1F
100
AcDbEntity
  8
0
  6
HIDDEN
 62
     7
370
     0
100
AcDbLine
 10
152.6910870695
 20
81.8320385177
 30
0.0
 11
144.6910870695
 21
81.8320385177
 31
0.0
  0
LINE
  5
123
330
1F
100
AcDbEntity
  8
0
  6
HIDDEN
 62
     7
370
     0
100
AcDbLine
 10
155.9287618719
 20
81.8320385177
 30
0.0
 11
152.6910870695
 21
81.8320385177
 31
0.0
  0
LINE
  5
124
330
1F
100
AcDbEntity
  8
0
  6
HIDDEN
 62
     7
370
     0
100
AcDbLine
 10
165.6910870695
 20
81.8320385177
 30
0.0
 11
159.5534122672
 21
81.8320385177
 31
0.0
  0
LINE
  5
125
330
1F
100
AcDbEntity
  8
0
  6
HIDDEN
 62
     7
370
     0
100
AcDbLine
 10
165.6910870695
 20
134.6320385177
 30
0.0
 11
159.2567895378
 21
134.6320385177
 31
0.0
  0
LINE
  5
126
330
1F
100
AcDbEntity
  8
0
  6
HIDDEN
 62
     7
370
     0
100
AcDbLine
 10
152.6910870695
 20
134.6320385177
 30
0.0
 11
144.6910870695
 21
134.6320385177
 31
0.0
  0
LINE
  5
127
330
1F
100
AcDbEntity
  8
0
  6
HIDDEN
 62
     7
370
     0
100
AcDbLine
 10
156.2253846012
 20
134.6320385177
 30
0.0
 11
152.6910870695
 21
134.6320385177
 31
0.0
  0
SPLINE
  5
128
330
1F
100
AcDbEntity
  8
0
  6
HIDDEN
 62
     7
370
     0
100
AcDbSpline
210
0.0
220
0.0
230
1.0
 70
     8
 71
     3
 72
    11
 73
     7
 74
     0
 42
0.000000001
 43
0.00000001
 40
0.0
 40
0.0
 40
0.0
 40
0.0
 40
0.0008203708524183
 40
0.0008203708524183
 40
0.0008203708524183
 40
0.0016409967870154
 40
0.0016409967870154
 40
0.0016409967870154
 40
0.0016409967870154
 10
108.9910870695395
 20
92.38000576707003
 30
0.0
 10
108.7999287692408
 20
92.33882673845089
 30
0.0
 10
108.6085016991686
 20
92.3000727662209
 30
0.0
 10
108.416856075648
 20
92.26370500694235
 30
0.0
 10
108.2251506705675
 20
92.22732590317631
 30
0.0
 10
108.0332117185086
 20
92.19333165240876
 30
0.0
 10
107.8410870714378
 20
92.16168352701754
 30
0.0
  0
ELLIPSE
  5
129
330
1F
100
AcDbEntity
  8
0
  6
HIDDEN
 62
     7
370
     0
100
AcDbEllipse
 10
103.5986552009
 20
108.2320385177
 30
0.0
 11
20.19992453367506
 21
-1.421085471520200E-14
 31
0.0
210
0.0
220
0.0
230
1.0
 40
0.8164965809
 41
1.300566354717478
 42
1.359198697209065
  0
SPLINE
  5
12A
330
1F
100
AcDbEntity
  8
0
  6
HIDDEN
 62
     7
370
     0
100
AcDbSpline
210
0.0
220
0.0
230
1.0
 70
     8
 71
     3
 72
    18
 73
    14
 74
     0
 42
0.000000001
 43
0.00000001
 40
0.0
 40
0.0
 40
0.0
 40
0.0
 40
0.0301122960240226
 40
0.1110464336239763
 40
0.1937505796320569
 40
0.2770674319781303
 40
0.3572222375097662
 40
0.5202522979301785
 40
0.603319557225424
 40
0.6835704800616818
 40
0.8467897962903755
 40
0.929958005001898
 40
1.0
 40
1.0
 40
1.0
 40
1.0
 10
187.1942042915099
 20
123.9390480167452
 30
0.0
 10
187.1937543144681
 20
123.9391825345541
 30
0.0
 10
187.192094914412
 20
123.939678601773
 30
0.0
 10
187.1905479191866
 20
123.9173648157333
 30
0.0
 10
187.190188490025
 20
123.8716757311779
 30
0.0
 10
187.1917311525775
 20
123.8019934361653
 30
0.0
 10
187.1963336685331
 20
123.6812722363271
 30
0.0
 10
187.2042069114242
 20
123.5184035314539
 30
0.0
 10
187.2143180129164
 20
123.3170344817824
 30
0.0
 10
187.225070862234
 20
123.0914096036134
 30
0.0
 10
187.2347637334785
 20
122.8308741149498
 30
0.0
 10
187.2402384129558
 20
122.5520375007859
 30
0.0
 10
187.2408208257948
 20
122.4079225170962
 30
0.0
 10
187.2410870832383
 20
122.3420385177128
 30
0.0
  0
LINE
  5
12B
330
1F
100
AcDbEntity
  8
0
  6
HIDDEN
 62
     7
370
     0
100
AcDbLine
 10
187.2410870832
 20
122.3420385177
 30
0.0
 11
187.2410870695
 21
117.9262335886
 31
0.0
  0
LINE
  5
12C
330
1F
100
AcDbEntity
  8
0
  6
HIDDEN
 62
     7
370
     0
100
AcDbLine
 10
187.2410870636
 20
94.1220385177
 30
0.0
 11
187.2410870696
 21
98.5378434467
 31
0.0
  0
SPLINE
  5
12D
330
1F
100
AcDbEntity
  8
0
  6
HIDDEN
 62
     7
370
     0
100
AcDbSpline
210
0.0
220
0.0
230
1.0
 70
     8
 71
     3
 72
    14
 73
    10
 74
     0
 42
0.000000001
 43
0.00000001
 40
0.0
 40
0.0
 40
0.0
 40
0.0
 40
0.25
 40
0.25
 40
0.5
 40
0.5
 40
0.75
 40
0.75
 40
1.0
 40
1.0
 40
1.0
 40
1.0
 10
187.2410870695395
 20
94.12203851771275
 30
0.0
 10
187.2410870695395
 20
93.9119340503541
 30
0.0
 10
187.2412594798593
 20
93.72017952259883
 30
0.0
 10
187.2382578509102
 20
93.3713053472405
 30
0.0
 10
187.2359615739883
 20
93.21250318501771
 30
0.0
 10
187.2286804303615
 20
92.94150778781395
 30
0.0
 10
187.2238502065284
 20
92.8299460876203
 30
0.0
 10
187.2133346712427
 20
92.65456297925951
 30
0.0
 10
187.2076844462711
 20
92.59200489809713
 30
0.0
 10
187.2028552657124
 20
92.55683687979015
 30
0.0
  0
SPLINE
  5
12E
330
1F
100
AcDbEntity
  8
0
  6
HIDDEN
 62
     7
370
     0
100
AcDbSpline
210
0.0
220
0.0
230
1.0
 70
     8
 71
     3
 72
    14
 73
    10
 74
     0
 42
0.000000001
 43
0.00000001
 40
0.0
 40
0.0
 40
0.0
 40
0.0
 40
0.0069955212193826
 40
0.1682254671471067
 40
0.3341580921176119
 40
0.4949389827924077
 40
0.6603625862522673
 40
0.8275537971518268
 40
1.0
 40
1.0
 40
1.0
 40
1.0
 10
187.1941512347906
 20
92.52434807575139
 30
0.0
 10
187.1940221441296
 20
92.52384688066326
 30
0.0
 10
187.1909178240855
 20
92.51179434373499
 30
0.0
 10
187.1894760635219
 20
92.5721674795707
 30
0.0
 10
187.192934209711
 20
92.71015970345974
 30
0.0
 10
187.2041072302441
 20
92.94528935162317
 30
0.0
 10
187.2200404256697
 20
93.2580800140216
 30
0.0
 10
187.2366251537132
 20
93.64870964435543
 30
0.0
 10
187.23958449766
 20
93.96264312941373
 30
0.0
 10
187.2410870636492
 20
94.12203851771274
 30
0.0
  0
LINE
  5
12F
330
1F
100
AcDbEntity
  8
0
  6
HIDDEN
 62
     7
370
     0
100
AcDbLine
 10
108.9910870695
 20
90.2420385177
 30
0.0
 11
108.9910870695
 21
92.3800057671
 31
0.0
  0
LINE
  5
130
330
1F
100
AcDbEntity
  8
0
  6
HIDDEN
 62
     7
370
     0
100
AcDbLine
 10
109.0721180829
 20
92.4305480817
 30
0.0
 11
108.9910870695
 21
92.3800057671
 31
0.0
  0
LINE
  5
131
330
1F
100
AcDbEntity
  8
0
  6
HIDDEN
 62
     7
370
     0
100
AcDbLine
 10
117.9410870695
 20
90.2420385177
 30
0.0
 11
117.9410870695
 21
91.9445248953
 31
0.0
  0
LINE
  5
132
330
1F
100
AcDbEntity
  8
0
  6
HIDDEN
 62
     7
370
     0
100
AcDbLine
 10
113.9410870695
 20
126.2220385177
 30
0.0
 11
113.9410870695
 21
124.5195521401
 31
0.0
  0
LINE
  5
133
330
1F
100
AcDbEntity
  8
0
  6
HIDDEN
 62
     7
370
     0
100
AcDbLine
 10
108.9910870695
 20
126.2220385177
 30
0.0
 11
108.9910870695
 21
124.1266629688
 31
0.0
  0
SPLINE
  5
134
330
1F
100
AcDbEntity
  8
0
  6
HIDDEN
 62
     7
370
     0
100
AcDbSpline
210
0.0
220
0.0
230
1.0
 70
     8
 71
     3
 72
     8
 73
     4
 74
     0
 42
0.000000001
 43
0.00000001
 40
0.0
 40
0.0
 40
0.0
 40
0.0
 40
1.0
 40
1.0
 40
1.0
 40
1.0
 10
108.9910870695395
 20
124.1266629687709
 30
0.0
 10
109.0410925684829
 20
124.095627194552
 30
0.0
 10
109.0910926391471
 20
124.0645825495246
 30
0.0
 10
109.1410870729319
 20
124.0335289537444
 30
0.0
  0
LINE
  5
135
330
1F
100
AcDbEntity
  8
0
  6
HIDDEN
 62
     7
370
     0
100
AcDbLine
 10
177.1410870695
 20
94.1220385177
 30
0.0
 11
177.1410870695
 21
98.6360447825
 31
0.0
  0
LINE
  5
136
330
1F
100
AcDbEntity
  8
0
  6
HIDDEN
 62
     7
370
     0
100
AcDbLine
 10
177.1410870695
 20
122.3420385177
 30
0.0
 11
177.1410870695
 21
117.8280322529
 31
0.0
  0
SPLINE
  5
137
330
1F
100
AcDbEntity
  8
0
  6
HIDDEN
 62
     7
370
     0
100
AcDbSpline
210
0.0
220
0.0
230
1.0
 70
     8
 71
     3
 72
    27
 73
    23
 74
     0
 42
0.000000001
 43
0.00000001
 40
0.0
 40
0.0
 40
0.0
 40
0.0
 40
0.0524627353777325
 40
0.1118297874052016
 40
0.1772284016607407
 40
0.2122612275209717
 40
0.2488295286587561
 40
0.3294293671746796
 40
0.3980751981346738
 40
0.437223985739814
 40
0.4710472004905595
 40
0.4995540036165979
 40
0.5540479435668125
 40
0.6137880897459504
 40
0.6788340881815026
 40
0.7134127983858165
 40
0.7493398633045527
 40
0.8293383242419122
 40
0.8976560336098562
 40
0.9542791649888652
 40
0.999205023469825
 40
1.0
 40
1.0
 40
1.0
 40
1.0
 10
134.4901597528571
 20
84.63200742787834
 30
0.0
 10
134.4805264749467
 20
84.6351160646062
 30
0.0
 10
134.4599921392326
 20
84.64174244773112
 30
0.0
 10
134.273602693638
 20
84.69151953325752
 30
0.0
 10
133.9987128494961
 20
84.75522817104199
 30
0.0
 10
133.6905709526578
 20
84.82111609919805
 30
0.0
 10
133.2974520131166
 20
84.90359895060273
 30
0.0
 10
132.7210885075561
 20
85.00595434973762
 30
0.0
 10
132.0478751082031
 20
85.09849686999603
 30
0.0
 10
131.5120195281139
 20
85.16007979908491
 30
0.0
 10
131.118286455343
 20
85.19829328146096
 30
0.0
 10
130.6601098302883
 20
85.23211712244596
 30
0.0
 10
130.0977000827248
 20
85.25169546166833
 30
0.0
 10
129.4123546211689
 20
85.2526240926653
 30
0.0
 10
128.8456822459299
 20
85.23443657066427
 30
0.0
 10
128.4095929182578
 20
85.20958405357563
 30
0.0
 10
127.9661443615205
 20
85.17360077305584
 30
0.0
 10
127.5160488399354
 20
85.12811909190742
 30
0.0
 10
127.1742353584237
 20
85.08626648340957
 30
0.0
 10
127.0284698368537
 20
85.06264458696602
 30
0.0
 10
126.9790497237651
 20
85.05082343782446
 30
0.0
 10
126.9915304525972
 20
85.05351487825408
 30
0.0
 10
126.9917474627743
 20
85.05356167599898
 30
0.0
  0
SPLINE
  5
138
330
1F
100
AcDbEntity
  8
0
  6
HIDDEN
 62
     7
370
     0
100
AcDbSpline
210
0.0
220
0.0
230
1.0
 70
     8
 71
     3
 72
    27
 73
    23
 74
     0
 42
0.000000001
 43
0.00000001
 40
0.0
 40
0.0
 40
0.0
 40
0.0
 40
0.0008379694065617
 40
0.0457207816392656
 40
0.1023028263142768
 40
0.1705813738025236
 40
0.2091733043745709
 40
0.2507008214810854
 40
0.3211470707171838
 40
0.3862412411583893
 40
0.4267206621101024
 40
0.4648521704145438
 40
0.5006567269945641
 40
0.5452487901685916
 40
0.6017434248155605
 40
0.6701498577907637
 40
0.7088874473284046
 40
0.7506164723106102
 40
0.8222815378506979
 40
0.8878214017239137
 40
0.9472955553649373
 40
1.0
 40
1.0
 40
1.0
 40
1.0
 10
126.9917793812301
 20
131.4104475292787
 30
0.0
 10
126.9915488240819
 20
131.4104972317674
 30
0.0
 10
126.9789693039446
 20
131.4132090689883
 30
0.0
 10
127.0280372995272
 20
131.4013789113824
 30
0.0
 10
127.1731532104444
 20
131.3779320622614
 30
0.0
 10
127.4462018391944
 20
131.3440287346787
 30
0.0
 10
127.7747288900554
 20
131.3104598049242
 30
0.0
 10
128.1674565015877
 20
131.2722765018374
 30
0.0
 10
128.7171845419451
 20
131.2333078138666
 30
0.0
 10
129.3432071691207
 20
131.2138467134288
 30
0.0
 10
129.8863986821162
 20
131.2116610347988
 30
0.0
 10
130.3314675781193
 20
131.2201759159651
 30
0.0
 10
130.7979153753477
 20
131.239959312773
 30
0.0
 10
131.3351560245079
 20
131.2841216979702
 30
0.0
 10
131.9833694599974
 20
131.356537318891
 30
0.0
 10
132.5689080744343
 20
131.4374394079924
 30
0.0
 10
133.0498777258919
 20
131.5156054059282
 30
0.0
 10
133.495292463305
 20
131.6003775039747
 30
0.0
 10
133.9337932001382
 20
131.6941608071049
 30
0.0
 10
134.2728147602991
 20
131.7720636249479
 30
0.0
 10
134.4601295914933
 20
131.8222481262684
 30
0.0
 10
134.4806179862928
 20
131.8289137543878
 30
0.0
 10
134.4902439709812
 20
131.8320454411229
 30
0.0
  0
LINE
  5
139
330
1F
100
AcDbEntity
  8
0
  6
HIDDEN
 62
     7
370
     0
100
AcDbLine
 10
177.1410870695
 20
123.9420385177
 30
0.0
 11
177.1410870695
 21
122.3420385177
 31
0.0
  0
LINE
  5
13A
330
1F
100
AcDbEntity
  8
0
  6
HIDDEN
 62
     7
370
     0
100
AcDbLine
 10
177.1410870695
 20
92.5220385177
 30
0.0
 11
177.1410870695
 21
94.1220385177
 31
0.0
  0
SPLINE
  5
13B
330
1F
100
AcDbEntity
  8
0
  6
HIDDEN
 62
     7
370
     0
100
AcDbSpline
210
0.0
220
0.0
230
1.0
 70
     8
 71
     3
 72
     8
 73
     4
 74
     0
 42
0.000000001
 43
0.00000001
 40
0.0
 40
0.0
 40
0.0
 40
0.0
 40
0.0001590976953043
 40
0.0001590976953043
 40
0.0001590976953043
 40
0.0001590976953043
 10
109.1262550787236
 20
92.4305480816811
 30
0.0
 10
109.0812036082305
 20
92.4025691973636
 30
0.0
 10
109.0361475698271
 20
92.37459766699482
 30
0.0
 10
108.9910870695395
 20
92.34663332764858
 30
0.0
  0
SPLINE
  5
13C
330
1F
100
AcDbEntity
  8
0
  6
HIDDEN
 62
     7
370
     0
100
AcDbSpline
210
0.0
220
0.0
230
1.0
 70
     8
 71
     3
 72
    11
 73
     7
 74
     0
 42
0.000000001
 43
0.00000001
 40
0.0
 40
0.0
 40
0.0
 40
0.0
 40
0.000821290931147
 40
0.000821290931147
 40
0.000821290931147
 40
0.0016428257243086
 40
0.0016428257243086
 40
0.0016428257243086
 40
0.0016428257243086
 10
108.9910870695395
 20
92.34663332764856
 30
0.0
 10
108.7999420480573
 20
92.30334713879296
 30
0.0
 10
108.6085237123809
 20
92.26241062915258
 30
0.0
 10
108.4168776377197
 20
92.22380885776286
 30
0.0
 10
108.2251745561781
 20
92.18519560392264
 30
0.0
 10
108.0332294328926
 20
92.14891539463342
 30
0.0
 10
107.8410870695394
 20
92.11494848827869
 30
0.0
  0
LINE
  5
13D
330
1F
100
AcDbEntity
  8
0
  6
HIDDEN
 62
     7
370
     0
100
AcDbLine
 10
155.8310870695
 20
128.3679051492
 30
0.0
 11
155.8310870695
 21
128.0820385177
 31
0.0
  0
LINE
  5
13E
330
1F
100
AcDbEntity
  8
0
  6
HIDDEN
 62
     7
370
     0
100
AcDbLine
 10
159.6510870695
 20
128.3679051492
 30
0.0
 11
159.6510870695
 21
128.0820385177
 31
0.0
  0
LINE
  5
13F
330
1F
100
AcDbEntity
  8
0
  6
HIDDEN
 62
     7
370
     0
100
AcDbLine
 10
161.133019901
 20
132.6907281801
 30
0.0
 11
161.133019901
 21
128.0820385177
 31
0.0
  0
SPLINE
  5
140
330
1F
100
AcDbEntity
  8
0
  6
HIDDEN
 62
     7
370
     0
100
AcDbSpline
210
0.0
220
0.0
230
1.0
 70
     8
 71
     3
 72
    11
 73
     7
 74
     0
 42
0.000000001
 43
0.00000001
 40
0.0000000000000004
 40
0.0000000000000004
 40
0.0000000000000004
 40
0.0000000000000004
 40
0.0005781862223981
 40
0.0005781862223981
 40
0.0005781862223981
 40
0.0011563724723932
 40
0.0011563724723932
 40
0.0011563724723932
 40
0.0011563724723932
 10
108.8410870695398
 20
120.8721808247656
 30
0.0
 10
108.6744265152641
 20
120.9367103361789
 30
0.0
 10
108.5077632183576
 20
121.0012130400176
 30
0.0
 10
108.3410966345273
 20
121.0656994884511
 30
0.0
 10
108.1744300422682
 20
121.1301859401458
 30
0.0
 10
108.0077601766422
 20
121.1946559488737
 30
0.0
 10
107.8410870695395
 20
121.2591117156061
 30
0.0
  0
SPLINE
  5
141
330
1F
100
AcDbEntity
  8
0
  6
HIDDEN
 62
     7
370
     0
100
AcDbSpline
210
0.0
220
0.0
230
1.0
 70
     8
 71
     3
 72
    11
 73
     7
 74
     0
 42
0.000000001
 43
0.00000001
 40
0.0000000000000001
 40
0.0000000000000001
 40
0.0000000000000001
 40
0.0000000000000001
 40
0.0005778746105124
 40
0.0005778746105124
 40
0.0005778746105124
 40
0.0011557494857259
 40
0.0011557494857259
 40
0.0011557494857259
 40
0.0011557494857259
 10
107.8410870695394
 20
95.20481666222287
 30
0.0
 10
108.0077539459528
 20
95.27062878890794
 30
0.0
 10
108.1744206655142
 20
95.33648726903692
 30
0.0
 10
108.3410873135629
 20
95.40239484195912
 30
0.0
 10
108.5077540380815
 20
95.46830244512107
 30
0.0
 10
108.6744207325021
 20
95.53425955350136
 30
0.0
 10
108.8410870695395
 20
95.6002612934161
 30
0.0
  0
SPLINE
  5
142
330
1F
100
AcDbEntity
  8
0
  6
HIDDEN
 62
     7
370
     0
100
AcDbSpline
210
0.0
220
0.0
230
1.0
 70
     8
 71
     3
 72
    11
 73
     7
 74
     0
 42
0.000000001
 43
0.00000001
 40
0.0000000000000006
 40
0.0000000000000006
 40
0.0000000000000006
 40
0.0000000000000006
 40
0.0005780486062825
 40
0.0005780486062825
 40
0.0005780486062825
 40
0.0011560973514241
 40
0.0011560973514241
 40
0.0011560973514241
 40
0.0011560973514241
 10
107.8410870695395
 20
118.2128530194045
 30
0.0
 10
108.0077569255843
 20
118.1504811578575
 30
0.0
 10
108.1744246296686
 20
118.088127297528
 30
0.0
 10
108.3410909341222
 20
118.0258077373107
 30
0.0
 10
108.507757274816
 20
117.9634881635425
 30
0.0
 10
108.6744222314448
 20
117.9012029591922
 30
0.0
 10
108.8410870695395
 20
117.8389778385933
 30
0.0
  0
SPLINE
  5
143
330
1F
100
AcDbEntity
  8
0
  6
HIDDEN
 62
     7
370
     0
100
AcDbSpline
210
0.0
220
0.0
230
1.0
 70
     8
 71
     3
 72
    11
 73
     7
 74
     0
 42
0.000000001
 43
0.00000001
 40
0.0
 40
0.0
 40
0.0
 40
0.0
 40
0.0005782401583596
 40
0.0005782401583596
 40
0.0005782401583596
 40
0.0011564805961119
 40
0.0011564805961119
 40
0.0011564805961119
 40
0.0011564805961119
 10
108.8410870695395
 20
98.6312117255
 30
0.0
 10
108.6744361191906
 20
98.56778626741006
 30
0.0
 10
108.5077765266079
 20
98.5044307437249
 30
0.0
 10
108.3411094741793
 20
98.4411331593441
 30
0.0
 10
108.1744423376155
 20
98.37783554301005
 30
0.0
 10
108.0077677301695
 20
98.31459574803768
 30
0.0
 10
107.8410870695394
 20
98.25139574136622
 30
0.0
  0
CIRCLE
  5
144
330
1F
100
AcDbEntity
  8
0
  6
HIDDEN
 62
     7
370
     0
100
AcDbCircle
 10
146.7410870695
 20
108.2320385177
 30
0.0
 40
5.0
  0
ARC
  5
145
330
1F
100
AcDbEntity
  8
0
  6
HIDDEN
 62
     7
370
     0
100
AcDbCircle
 10
164.2410870695
 20
118.7320385177
 30
0.0
 40
1.0
100
AcDbArc
 50
0.0
 51
180.0
  0
ARC
  5
146
330
1F
100
AcDbEntity
  8
0
  6
HIDDEN
 62
     7
370
     0
100
AcDbCircle
 10
164.2410870695
 20
118.7320385177
 30
0.0
 40
1.0
100
AcDbArc
 50
180.0
 51
0.0
  0
ARC
  5
147
330
1F
100
AcDbEntity
  8
0
  6
HIDDEN
 62
     7
370
     0
100
AcDbCircle
 10
164.2410870695
 20
97.7320385177
 30
0.0
 40
1.0
100
AcDbArc
 50
180.0
 51
0.0
  0
ARC
  5
148
330
1F
100
AcDbEntity
  8
0
  6
HIDDEN
 62
     7
370
     0
100
AcDbCircle
 10
164.2410870695
 20
97.7320385177
 30
0.0
 40
1.0
100
AcDbArc
 50
0.0
 51
180.0
  0
LINE
  5
149
330
1F
100
AcDbEntity
  8
0
  6
HIDDEN
 62
     7
370
     0
100
AcDbLine
 10
163.2410870695
 20
118.7320385177
 30
0.0
 11
163.2410870695
 21
97.7320385177
 31
0.0
  0
LINE
  5
14A
330
1F
100
AcDbEntity
  8
0
  6
HIDDEN
 62
     7
370
     0
100
AcDbLine
 10
165.2410870695
 20
97.7320385177
 30
0.0
 11
165.2410870695
 21
118.7320385177
 31
0.0
  0
LINE
  5
14B
330
1F
100
AcDbEntity
  8
0
  6
HIDDEN
 62
     7
370
     0
100
AcDbLine
 10
139.7410870695
 20
82.9081073717
 30
0.0
 11
139.8352478451
 21
83.578096103
 31
0.0
  0
LINE
  5
14C
330
1F
100
AcDbEntity
  8
0
  6
HIDDEN
 62
     7
370
     0
100
AcDbLine
 10
139.8352478451
 20
132.8859809325
 30
0.0
 11
139.7410870695
 21
133.5559696637
 31
0.0
  0
ARC
  5
14D
330
1F
100
AcDbEntity
  8
0
  6
HIDDEN
 62
     7
370
     0
100
AcDbCircle
 10
139.2410803169
 20
83.6616009033
 30
0.0
 40
0.6000067526677242
100
AcDbArc
 50
352.0
 51
0.0
  0
ARC
  5
14E
330
1F
100
AcDbEntity
  8
0
  6
HIDDEN
 62
     7
370
     0
100
AcDbCircle
 10
139.2410803169
 20
83.6616009033
 30
0.0
 40
0.6000067526677242
100
AcDbArc
 50
0.0
 51
33.5571153394
  0
ARC
  5
14F
330
1F
100
AcDbEntity
  8
0
  6
HIDDEN
 62
     7
370
     0
100
AcDbCircle
 10
139.2410803169
 20
132.8024761321
 30
0.0
 40
0.6000067526677308
100
AcDbArc
 50
348.75
 51
8.0
  0
LWPOLYLINE
  5
150
330
1F
100
AcDbEntity
  8
0
  6
HIDDEN
 62
     7
370
     0
100
AcDbPolyline
 90
        3
 70
   128
 43
0.0
 10
139.829558108
 20
132.6854206215
 10
139.795414275
 20
132.5728634886
 10
139.7410870695
 20
132.4708116171
  0
LINE
  5
151
330
1F
100
AcDbEntity
  8
0
  6
HIDDEN
 62
     7
370
     0
100
AcDbLine
 10
139.8410870695
 20
83.6616009033
 30
0.0
 11
139.8410870695
 21
132.8024761321
 31
0.0
  0
LINE
  5
152
330
1F
100
AcDbEntity
  8
0
  6
HIDDEN
 62
     7
370
     0
100
AcDbLine
 10
122.8235226348
 20
88.2320385177
 30
0.0
 11
126.9942044507
 21
88.2320385177
 31
0.0
  0
LINE
  5
153
330
1F
100
AcDbEntity
  8
0
  6
HIDDEN
 62
     7
370
     0
100
AcDbLine
 10
127.0010592112
 20
128.2320385177
 30
0.0
 11
122.8235226348
 21
128.2320385177
 31
0.0
  0
ARC
  5
154
330
1F
100
AcDbEntity
  8
0
  6
HIDDEN
 62
     7
370
     0
100
AcDbCircle
 10
133.4960890711
 20
96.2320385177
 30
0.0
 40
7.999999999999996
100
AcDbArc
 50
277.0570335281
 51
321.3178125465
  0
ARC
  5
155
330
1F
100
AcDbEntity
  8
0
  6
HIDDEN
 62
     7
370
     0
100
AcDbCircle
 10
133.4960890711
 20
120.2320385177
 30
0.0
 40
7.999999999999993
100
AcDbArc
 50
38.6821874535
 51
82.9485630182
  0
ARC
  5
156
330
1F
100
AcDbEntity
  8
0
  6
HIDDEN
 62
     7
370
     0
100
AcDbCircle
 10
122.8235226348
 20
88.8320385177
 30
0.0
 40
0.6000000000000032
100
AcDbArc
 50
210.0
 51
270.0
  0
ARC
  5
157
330
1F
100
AcDbEntity
  8
0
  6
HIDDEN
 62
     7
370
     0
100
AcDbCircle
 10
122.8235226348
 20
127.6320385177
 30
0.0
 40
0.5999999999999943
100
AcDbArc
 50
90.0
 51
150.0
  0
LINE
  5
158
330
1F
100
AcDbEntity
  8
0
  6
HIDDEN
 62
     7
370
     0
100
AcDbLine
 10
122.3039073926
 20
127.9320385177
 30
0.0
 11
120.7450616658
 21
125.2320385177
 31
0.0
  0
LINE
  5
159
330
1F
100
AcDbEntity
  8
0
  6
HIDDEN
 62
     7
370
     0
100
AcDbLine
 10
120.7450616658
 20
91.2320385177
 30
0.0
 11
122.3039073926
 21
88.5320385177
 31
0.0
  0
ARC
  5
15A
330
1F
100
AcDbEntity
  8
0
  6
HIDDEN
 62
     7
370
     0
100
AcDbCircle
 10
148.1910870695
 20
92.5070385177
 30
0.0
 40
1.5
100
AcDbArc
 50
238.2116693829
 51
0.0
  0
ARC
  5
15B
330
1F
100
AcDbEntity
  8
0
  6
HIDDEN
 62
     7
370
     0
100
AcDbCircle
 10
148.1910870695
 20
123.9570385177
 30
0.0
 40
1.500000000000001
100
AcDbArc
 50
0.0
 51
121.7883306171
  0
LINE
  5
15C
330
1F
100
AcDbEntity
  8
0
  6
HIDDEN
 62
     7
370
     0
100
AcDbLine
 10
139.7410870695
 20
91.2320385177
 30
0.0
 11
147.4009130381
 21
91.2320385177
 31
0.0
  0
LINE
  5
15D
330
1F
100
AcDbEntity
  8
0
  6
HIDDEN
 62
     7
370
     0
100
AcDbLine
 10
147.4009130381
 20
125.2320385177
 30
0.0
 11
139.7410870695
 21
125.2320385177
 31
0.0
  0
LINE
  5
15E
330
1F
100
AcDbEntity
  8
0
  6
HIDDEN
 62
     7
370
     0
100
AcDbLine
 10
117.9410870695
 20
91.2320385177
 30
0.0
 11
120.7450616658
 21
91.2320385177
 31
0.0
  0
LINE
  5
15F
330
1F
100
AcDbEntity
  8
0
  6
HIDDEN
 62
     7
370
     0
100
AcDbLine
 10
120.7450616658
 20
125.2320385177
 30
0.0
 11
113.9410870695
 21
125.2320385177
 31
0.0
  0
LINE
  5
160
330
1F
100
AcDbEntity
  8
0
  6
HIDDEN
 62
     7
370
     0
100
AcDbLine
 10
165.109434572
 20
119.7320385177
 30
0.0
 11
164.2410870695
 21
119.7320385177
 31
0.0
  0
LINE
  5
161
330
1F
100
AcDbEntity
  8
0
  6
HIDDEN
 62
     7
370
     0
100
AcDbLine
 10
164.2410870695
 20
96.7320385177
 30
0.0
 11
165.109434572
 21
96.7320385177
 31
0.0
  0
ARC
  5
162
330
1F
100
AcDbEntity
  8
0
  6
HIDDEN
 62
     7
370
     0
100
AcDbCircle
 10
164.2410870695
 20
118.7320385177
 30
0.0
 40
1.0
100
AcDbArc
 50
90.0
 51
180.0
  0
ARC
  5
163
330
1F
100
AcDbEntity
  8
0
  6
HIDDEN
 62
     7
370
     0
100
AcDbCircle
 10
164.2410870695
 20
97.7320385177
 30
0.0
 40
1.0
100
AcDbArc
 50
180.0
 51
270.0
  0
ARC
  5
164
330
1F
100
AcDbEntity
  8
0
  6
HIDDEN
 62
     7
370
     0
100
AcDbCircle
 10
165.109434572
 20
118.7320385177
 30
0.0
 40
0.9999999999999858
100
AcDbArc
 50
75.0
 51
90.0
  0
ARC
  5
165
330
1F
100
AcDbEntity
  8
0
  6
HIDDEN
 62
     7
370
     0
100
AcDbCircle
 10
165.109434572
 20
97.7320385177
 30
0.0
 40
0.9999999999999858
100
AcDbArc
 50
270.0
 51
285.0
  0
LINE
  5
166
330
1F
100
AcDbEntity
  8
0
  6
HIDDEN
 62
     7
370
     0
100
AcDbLine
 10
165.3682536171
 20
96.7661126914
 30
0.0
 11
167.1071124733
 21
97.2320385177
 31
0.0
  0
LINE
  5
167
330
1F
100
AcDbEntity
  8
0
  6
HIDDEN
 62
     7
370
     0
100
AcDbLine
 10
167.1071124733
 20
119.2320385177
 30
0.0
 11
165.3682536171
 21
119.697964344
 31
0.0
  0
LINE
  5
168
330
1F
100
AcDbEntity
  8
0
  6
HIDDEN
 62
     7
370
     0
100
AcDbLine
 10
177.1410870695
 20
119.2320385177
 30
0.0
 11
167.1071124733
 21
119.2320385177
 31
0.0
  0
LINE
  5
169
330
1F
100
AcDbEntity
  8
0
  6
HIDDEN
 62
     7
370
     0
100
AcDbLine
 10
167.1071124733
 20
97.2320385177
 30
0.0
 11
177.1410870695
 21
97.2320385177
 31
0.0
  0
LINE
  5
16A
330
1F
100
AcDbEntity
  8
0
  6
HIDDEN
 62
     7
370
     0
100
AcDbLine
 10
158.5410870695
 20
98.7320385177
 30
0.0
 11
161.5410870695
 21
98.7320385177
 31
0.0
  0
LINE
  5
16B
330
1F
100
AcDbEntity
  8
0
  6
HIDDEN
 62
     7
370
     0
100
AcDbLine
 10
161.5410870695
 20
117.7320385177
 30
0.0
 11
158.5410870695
 21
117.7320385177
 31
0.0
  0
LINE
  5
16C
330
1F
100
AcDbEntity
  8
0
  6
HIDDEN
 62
     7
370
     0
100
AcDbLine
 10
149.6910870695
 20
99.2320385177
 30
0.0
 11
150.1910870695
 21
99.7320385177
 31
0.0
  0
LINE
  5
16D
330
1F
100
AcDbEntity
  8
0
  6
HIDDEN
 62
     7
370
     0
100
AcDbLine
 10
150.1910870695
 20
116.7320385177
 30
0.0
 11
149.6910870695
 21
117.2320385177
 31
0.0
  0
LINE
  5
16E
330
1F
100
AcDbEntity
  8
0
  6
HIDDEN
 62
     7
370
     0
100
AcDbLine
 10
150.1910870695
 20
99.7320385177
 30
0.0
 11
158.5410870695
 21
99.7320385177
 31
0.0
  0
LINE
  5
16F
330
1F
100
AcDbEntity
  8
0
  6
HIDDEN
 62
     7
370
     0
100
AcDbLine
 10
158.5410870695
 20
116.7320385177
 30
0.0
 11
150.1910870695
 21
116.7320385177
 31
0.0
  0
LINE
  5
170
330
1F
100
AcDbEntity
  8
0
  6
HIDDEN
 62
     7
370
     0
100
AcDbLine
 10
144.6910870695
 20
139.7320385177
 30
0.0
 11
144.6910870695
 21
134.6320385177
 31
0.0
  0
LINE
  5
171
330
1F
100
AcDbEntity
  8
0
  6
HIDDEN
 62
     7
370
     0
100
AcDbLine
 10
187.7410870695
 20
124.48864215
 30
0.0
 11
187.1854798106
 21
123.9330439628
 31
0.0
  0
LINE
  5
172
330
1F
100
AcDbEntity
  8
0
  6
HIDDEN
 62
     7
370
     0
100
AcDbLine
 10
187.1859057417
 20
92.5306045736
 30
0.0
 11
187.7410870695
 21
91.9754340768
 31
0.0
  0
LINE
  5
173
330
1F
100
AcDbEntity
  8
0
  6
HIDDEN
 62
     7
370
     0
100
AcDbLine
 10
134.9255249
 20
84.1526671842
 30
0.0
 11
134.4910927505
 21
84.6317332033
 31
0.0
  0
LINE
  5
174
330
1F
100
AcDbEntity
  8
0
  6
HIDDEN
 62
     7
370
     0
100
AcDbLine
 10
126.9910894254
 20
85.0534211624
 30
0.0
 11
126.5086556821
 21
84.574355187
 31
0.0
  0
LINE
  5
175
330
1F
100
AcDbEntity
  8
0
  6
HIDDEN
 62
     7
370
     0
100
AcDbLine
 10
126.5085337539
 20
131.889716558
 30
0.0
 11
126.9910845048
 21
131.4105963001
 31
0.0
  0
LINE
  5
176
330
1F
100
AcDbEntity
  8
0
  6
HIDDEN
 62
     7
370
     0
100
AcDbLine
 10
134.4910869515
 20
131.8322940778
 30
0.0
 11
134.9256293419
 21
132.3114143284
 31
0.0
  0
LINE
  5
177
330
1F
100
AcDbEntity
  8
0
  6
HIDDEN
 62
     7
370
     0
100
AcDbLine
 10
161.5410870695
 20
104.0320385177
 30
0.0
 11
163.2410870695
 21
104.0320385177
 31
0.0
  0
LINE
  5
178
330
1F
100
AcDbEntity
  8
0
  6
HIDDEN
 62
     7
370
     0
100
AcDbLine
 10
163.2410870695
 20
112.4320385177
 30
0.0
 11
161.5410870695
 21
112.4320385177
 31
0.0
  0
LINE
  5
179
330
1F
100
AcDbEntity
  8
0
  6
HIDDEN
 62
     7
370
     0
100
AcDbLine
 10
134.4910870695
 20
84.6319881694
 30
0.0
 11
134.4910870695
 21
88.2949656917
 31
0.0
  0
LINE
  5
17A
330
1F
100
AcDbEntity
  8
0
  6
HIDDEN
 62
     7
370
     0
100
AcDbLine
 10
126.9910870695
 20
88.2326227789
 30
0.0
 11
126.9910870695
 21
85.0536025874
 31
0.0
  0
LINE
  5
17B
330
1F
100
AcDbEntity
  8
0
  6
HIDDEN
 62
     7
370
     0
100
AcDbLine
 10
134.4910870695
 20
128.1691113437
 30
0.0
 11
134.4910870695
 21
131.8320027717
 31
0.0
  0
LINE
  5
17C
330
1F
100
AcDbEntity
  8
0
  6
HIDDEN
 62
     7
370
     0
100
AcDbLine
 10
126.9910870695
 20
131.410452521
 30
0.0
 11
126.9910870695
 21
128.2301762721
 31
0.0
  0
LINE
  5
17D
330
1F
100
AcDbEntity
  8
0
  6
HIDDEN
 62
     7
370
     0
100
AcDbLine
 10
187.1948775136
 20
123.9420385177
 30
0.0
 11
177.1410870695
 21
123.9420385177
 31
0.0
  0
LINE
  5
17E
330
1F
100
AcDbEntity
  8
0
  6
HIDDEN
 62
     7
370
     0
100
AcDbLine
 10
177.1410870695
 20
92.5220385177
 30
0.0
 11
187.1950116442
 21
92.5220385177
 31
0.0
  0
LINE
  5
17F
330
1F
100
AcDbEntity
  8
0
  6
HIDDEN
 62
     7
370
     0
100
AcDbLine
 10
107.8421195637
 20
88.5110060235
 30
0.0
 11
107.8522475046
 21
88.5008780826
 31
0.0
  0
DIMENSION
  5
180
330
1F
100
AcDbEntity
  8
VERMASSUNG
100
AcDbDimension
  2
_D
 10
102.3731889294
 20
76.7320385177
 30
0.0
 11
102.3731889294
 21
108.2320385177
 31
0.0
 70
   160
  1
HSK A 63 %%c<>
 71
     2
 42
-1.0
  3
SLDDIMSTYLE0
100
AcDbAlignedDimension
 13
140.0410870695
 23
139.7320385177
 33
0.0
 14
140.0410870695
 24
76.7320385177
 34
0.0
 50
90.0
100
AcDbRotatedDimension
  0
DIMENSION
  5
18E
330
1F
100
AcDbEntity
  8
VERMASSUNG
100
AcDbDimension
  2
_D_1
 10
200.1460498491
 20
88.7320385177
 30
0.0
 11
200.1460498491
 21
108.2320385177
 31
0.0
 70
   160
  1
ST4 %%c<>
 71
     2
 42
-1.0
  3
SLDDIMSTYLE0
100
AcDbAlignedDimension
 13
187.3410870695
 23
127.7320385177
 33
0.0
 14
187.3410870695
 24
88.7320385177
 34
0.0
 50
90.0
100
AcDbRotatedDimension
  0
DIMENSION
  5
19A
330
1F
100
AcDbEntity
  8
VERMASSUNG
100
AcDbDimension
  2
_D_2
 10
194.0460498491
 20
97.2320385177
 30
0.0
 11
194.0460498491
 21
108.2320385177
 31
0.0
 70
   160
  1
%%c<>
 71
     2
 42
-1.0
  3
SLDDIMSTYLE0
100
AcDbAlignedDimension
 13
177.1410870695
 23
119.2320385177
 33
0.0
 14
177.1410870695
 24
97.2320385177
 34
0.0
 50
90.0
100
AcDbRotatedDimension
  0
DIMENSION
  5
1A5
330
1F
100
AcDbEntity
  8
VERMASSUNG
100
AcDbDimension
  2
_D_3
 10
187.7410870695
 20
142.2733464552
 30
0.0
 11
176.7160870695
 21
142.2733464552
 31
0.0
 70
   160
  1
(<>)
 71
     2
 42
-1.0
  3
SLDDIMSTYLE0
100
AcDbAlignedDimension
 13
165.6910870695
 23
138.0784788415
 33
0.0
 14
187.7410870695
 24
124.4886665588
 34
0.0
100
AcDbRotatedDimension
  0
DIMENSION
  5
1B1
330
1F
100
AcDbEntity
  8
VERMASSUNG
100
AcDbDimension
  2
_D_4
 10
187.7410870695
 20
148.2733464552
 30
0.0
 11
163.7410870695
 21
148.2733464552
 31
0.0
 70
   160
  1
<>
 71
     2
 42
-1.0
  3
SLDDIMSTYLE0
100
AcDbAlignedDimension
 13
139.7410870695
 23
139.4320385177
 33
0.0
 14
187.7410870695
 24
124.4886665588
 34
0.0
100
AcDbRotatedDimension
  0
DIMENSION
  5
1BB
330
1F
100
AcDbEntity
  8
VERMASSUNG
100
AcDbDimension
  2
_D_5
 10
187.7410870695
 20
154.2733464552
 30
0.0
 11
147.7910870695
 21
154.2733464552
 31
0.0
 70
   160
  1
(<>)
 71
     2
 42
-1.0
  3
SLDDIMSTYLE0
100
AcDbAlignedDimension
 13
107.8410870695
 23
127.9227162642
 33
0.0
 14
187.7410870695
 24
124.4886665588
 34
0.0
100
AcDbRotatedDimension
  0
LINE
  5
1C7
330
1F
100
AcDbEntity
  8
VERMASSUNG
  6
CENTERX2
370
     0
100
AcDbLine
 10
106.5152674329
 20
108.2320385177
 30
0.0
 11
189.1880226053
 21
108.2320385177
 31
0.0
  0
LINE
  5
1C8
330
1F
100
AcDbEntity
  8
0
  6
Continuous
 62
     7
370
    15
100
AcDbLine
 10
256.5992557471
 20
50.7160912306
 30
0.0
 11
256.4648836283
 21
50.7936878187
 31
0.0
  0
LINE
  5
1C9
330
1F
100
AcDbEntity
  8
0
  6
Continuous
 62
     7
370
    15
100
AcDbLine
 10
253.9047411543
 20
50.7936878187
 30
0.0
 11
253.7703690355
 21
50.7160912306
 31
0.0
  0
LINE
  5
1CA
330
1F
100
AcDbEntity
  8
0
  6
Continuous
 62
     7
370
    15
100
AcDbLine
 10
257.1848123913
 20
49.6466881456
 30
0.0
 11
257.1848123913
 21
49.8998157973
 31
0.0
  0
LINE
  5
1CB
330
1F
100
AcDbEntity
  8
0
  6
Continuous
 62
     7
370
    15
100
AcDbLine
 10
253.1848123913
 20
49.8998157973
 30
0.0
 11
253.1848123913
 21
49.6466881456
 31
0.0
  0
LINE
  5
1CC
330
1F
100
AcDbEntity
  8
0
  6
Continuous
 62
     7
370
    15
100
AcDbLine
 10
258.5977231267
 20
32.1634751154
 30
0.0
 11
258.739121498
 21
32.2451291955
 31
0.0
  0
LINE
  5
1CD
330
1F
100
AcDbEntity
  8
0
  6
Continuous
 62
     7
370
    15
100
AcDbLine
 10
265.4908937271
 20
43.9408089886
 30
0.0
 11
265.4908937271
 21
44.104090611
 31
0.0
  0
LINE
  5
1CE
330
1F
100
AcDbEntity
  8
0
  6
Continuous
 62
     7
370
    15
100
AcDbLine
 10
263.4712064321
 20
48.5680774741
 30
0.0
 11
257.2309890882
 21
52.1704782675
 31
0.0
  0
LINE
  5
1CF
330
1F
100
AcDbEntity
  8
0
  6
Continuous
 62
     7
370
    15
100
AcDbLine
 10
247.481781445
 20
35.2825254511
 30
0.0
 11
253.7219987889
 21
31.6801246576
 31
0.0
  0
LINE
  5
1D0
330
1F
100
AcDbEntity
  8
0
  6
Continuous
 62
     7
370
    15
100
AcDbLine
 10
233.999167216
 20
36.1378574057
 30
0.0
 11
239.0578328762
 21
33.2175518804
 31
0.0
  0
LINE
  5
1D1
330
1F
100
AcDbEntity
  8
0
  6
Continuous
 62
     7
370
    15
100
AcDbLine
 10
251.9310638223
 20
62.158075565
 30
0.0
 11
249.747887255
 21
63.4183965707
 31
0.0
  0
SPLINE
  5
1D2
330
1F
100
AcDbEntity
  8
0
  6
Continuous
 62
     7
370
    15
100
AcDbSpline
210
0.0
220
0.0
230
1.0
 70
     8
 71
     3
 72
    23
 73
    19
 74
     0
 42
0.000000001
 43
0.00000001
 40
0.0
 40
0.0
 40
0.0
 40
0.0
 40
0.0048544304908766
 40
0.0715907269145861
 40
0.1384055001618126
 40
0.2052454737782869
 40
0.2720645257228149
 40
0.3388134086130987
 40
0.4054510903547653
 40
0.4719388882045424
 40
0.5382459850437914
 40
0.6043616369367876
 40
0.6703195572619457
 40
0.736226946254005
 40
0.8022709797370512
 40
0.8688944550933408
 40
0.9368155207171751
 40
1.0
 40
1.0
 40
1.0
 40
1.0
 10
255.2127409694369
 20
40.37579461928937
 30
0.0
 10
255.2183489762322
 20
40.39098505551342
 30
0.0
 10
255.3010530717527
 20
40.61500605519056
 30
0.0
 10
255.4947896354521
 20
41.0464091682076
 30
0.0
 10
255.8120371017064
 20
41.65736591631688
 30
0.0
 10
256.1747876871308
 20
42.24514608539627
 30
0.0
 10
256.5734796832979
 20
42.8002074828259
 30
0.0
 10
257.0024215307699
 20
43.31358431743738
 30
0.0
 10
257.4540519326737
 20
43.77711936667037
 30
0.0
 10
257.920618921862
 20
44.1836158127966
 30
0.0
 10
258.3938776298385
 20
44.52701801346436
 30
0.0
 10
258.8653734654422
 20
44.80260347919107
 30
0.0
 10
259.3266906665115
 20
45.00723887418143
 30
0.0
 10
259.7696040333026
 20
45.13927804090033
 30
0.0
 10
260.1873326392665
 20
45.19951462241366
 30
0.0
 10
260.5737220310116
 20
45.18752187715237
 30
0.0
 10
260.9191806490285
 20
45.11465793604796
 30
0.0
 10
261.1153010885091
 20
45.01170362319123
 30
0.0
 10
261.2098185847304
 20
44.96208623551777
 30
0.0
  0
SPLINE
  5
1D3
330
1F
100
AcDbEntity
  8
0
  6
Continuous
 62
     7
370
    15
100
AcDbSpline
210
0.0
220
0.0
230
1.0
 70
     8
 71
     3
 72
    12
 73
     8
 74
     0
 42
0.000000001
 43
0.00000001
 40
0.0
 40
0.0
 40
0.0
 40
0.0
 40
0.1979098221332155
 40
0.4395597593694892
 40
0.6812607842970153
 40
0.9230138083100082
 40
1.0
 40
1.0
 40
1.0
 40
1.0
 10
231.2177954684842
 20
47.59708964187621
 30
0.0
 10
231.1516839652572
 20
47.31019135090732
 30
0.0
 10
231.0048496336573
 20
46.67298728300149
 30
0.0
 10
230.8480888875542
 20
45.70381621318081
 30
0.0
 10
230.7358819318706
 20
44.69351806839491
 30
0.0
 10
230.6959979113226
 20
43.93327558359459
 30
0.0
 10
230.6933105392798
 20
43.51191613057892
 30
0.0
 10
230.6926614489607
 20
43.41014371594614
 30
0.0
  0
SPLINE
  5
1D4
330
1F
100
AcDbEntity
  8
0
  6
Continuous
 62
     7
370
    15
100
AcDbSpline
210
0.0
220
0.0
230
1.0
 70
     8
 71
     3
 72
    13
 73
     9
 74
     0
 42
0.000000001
 43
0.00000001
 40
0.0
 40
0.0
 40
0.0
 40
0.0
 40
0.0261402329946452
 40
0.2536923602406604
 40
0.4813202271044718
 40
0.7089737827855865
 40
0.9366145622874767
 40
1.0
 40
1.0
 40
1.0
 40
1.0
 10
243.6789120522138
 20
63.54358003707728
 30
0.0
 10
243.6477923207871
 20
63.53294933727413
 30
0.0
 10
243.3457736617604
 20
63.42977782672851
 30
0.0
 10
242.7636344288321
 20
63.16203031133868
 30
0.0
 10
241.937031896512
 20
62.73894022224924
 30
0.0
 10
241.1100687613178
 20
62.2321952453765
 30
0.0
 10
240.4832463875542
 20
61.81097021030216
 30
0.0
 10
240.1369946795651
 20
61.53816550464249
 30
0.0
 10
240.0615811436999
 20
61.47874870761373
 30
0.0
  0
SPLINE
  5
1D5
330
1F
100
AcDbEntity
  8
0
  6
Continuous
 62
     7
370
    15
100
AcDbSpline
210
0.0
220
0.0
230
1.0
 70
     8
 71
     3
 72
    10
 73
     6
 74
     0
 42
0.000000001
 43
0.00000001
 40
0.0
 40
0.0
 40
0.0
 40
0.0
 40
0.2413147492220756
 40
0.6997861421982914
 40
1.0
 40
1.0
 40
1.0
 40
1.0
 10
230.6926614489607
 20
43.41014371594614
 30
0.0
 10
230.6945458367944
 20
43.24359708897095
 30
0.0
 10
230.7000103535585
 20
42.760630250173
 30
0.0
 10
230.7421793361309
 20
42.09003141364444
 30
0.0
 10
230.8162968640496
 20
41.61136461088606
 30
0.0
 10
230.8456253753979
 20
41.42195482954346
 30
0.0
  0
SPLINE
  5
1D6
330
1F
100
AcDbEntity
  8
0
  6
Continuous
 62
     7
370
    15
100
AcDbSpline
210
0.0
220
0.0
230
1.0
 70
     8
 71
     3
 72
    11
 73
     7
 74
     0
 42
0.000000001
 43
0.00000001
 40
0.0
 40
0.0
 40
0.0
 40
0.0
 40
0.0439282528121743
 40
0.5077453769453472
 40
0.9695361452216178
 40
1.0
 40
1.0
 40
1.0
 40
1.0
 10
255.700536524494
 20
35.44939770655262
 30
0.0
 10
255.6899891007444
 20
35.45421365926978
 30
0.0
 10
255.5680765432285
 20
35.50987892185556
 30
0.0
 10
255.3756661165882
 20
35.68573607541922
 30
0.0
 10
255.1993832932694
 20
35.88647552625256
 30
0.0
 10
255.1222332994645
 20
36.01214291898232
 30
0.0
 10
255.1174587659256
 20
36.01992001852227
 30
0.0
  0
SPLINE
  5
1D7
330
1F
100
AcDbEntity
  8
0
  6
Continuous
 62
     7
370
    15
100
AcDbSpline
210
0.0
220
0.0
230
1.0
 70
     8
 71
     3
 72
    17
 73
    13
 74
     0
 42
0.000000001
 43
0.00000001
 40
0.0
 40
0.0
 40
0.0
 40
0.0
 40
0.0382530910744597
 40
0.148886849908114
 40
0.2599305461544966
 40
0.3713557161638386
 40
0.483090312570792
 40
0.5950470201350242
 40
0.7071438866324408
 40
0.8193147800660078
 40
0.9315106995898471
 40
1.0
 40
1.0
 40
1.0
 40
1.0
 10
244.9796627468169
 20
30.32588918940296
 30
0.0
 10
245.0611322684441
 20
30.31264142262706
 30
0.0
 10
245.3782240405831
 20
30.26107909895126
 30
0.0
 10
245.9614391725972
 20
30.25239206461116
 30
0.0
 10
246.7250297924047
 20
30.30030564769316
 30
0.0
 10
247.5129734207079
 20
30.43277483688614
 30
0.0
 10
248.3182799059765
 20
30.64229581004459
 30
0.0
 10
249.1370009538175
 20
30.92987169314275
 30
0.0
 10
249.9643572702262
 20
31.29237547612912
 30
0.0
 10
250.7952679448116
 20
31.73142673369908
 30
0.0
 10
251.5187060600944
 20
32.16598897638615
 30
0.0
 10
251.96072428855
 20
32.48082396202553
 30
0.0
 10
252.128272687066
 20
32.60016315268517
 30
0.0
  0
LINE
  5
1D8
330
1F
100
AcDbEntity
  8
0
  6
Continuous
 62
     7
370
    15
100
AcDbLine
 10
241.4562915827
 20
31.8329511413
 30
0.0
 11
242.8556796503
 21
31.0251016054
 31
0.0
  0
LINE
  5
1D9
330
1F
100
AcDbEntity
  8
0
  6
Continuous
 62
     7
370
    15
100
AcDbLine
 10
242.5251421477
 20
63.0308624234
 30
0.0
 11
236.3812110083
 21
66.0919383713
 31
0.0
  0
LINE
  5
1DA
330
1F
100
AcDbEntity
  8
0
  6
Continuous
 62
     7
370
    15
100
AcDbLine
 10
224.9995131951
 20
46.3761232329
 30
0.0
 11
230.7236053173
 21
42.5858671721
 31
0.0
  0
SPLINE
  5
1DB
330
1F
100
AcDbEntity
  8
0
  6
Continuous
 62
     7
370
    15
100
AcDbSpline
210
0.0
220
0.0
230
1.0
 70
     8
 71
     3
 72
    10
 73
     6
 74
     0
 42
0.000000001
 43
0.00000001
 40
0.0
 40
0.0
 40
0.0
 40
0.0
 40
0.0451673719596168
 40
0.7977500873785783
 40
1.0
 40
1.0
 40
1.0
 40
1.0
 10
260.0664434298868
 20
57.08071379359993
 30
0.0
 10
260.0576532742309
 20
57.092175251755
 30
0.0
 10
259.9024007736227
 20
57.29460853153203
 30
0.0
 10
259.6769358700328
 20
57.51054526063058
 30
0.0
 10
259.4513108905589
 20
57.69983694482826
 30
0.0
 10
259.403519653599
 20
57.73993216724175
 30
0.0
  0
SPLINE
  5
1DC
330
1F
100
AcDbEntity
  8
0
  6
Continuous
 62
     7
370
    15
100
AcDbSpline
210
0.0
220
0.0
230
1.0
 70
     8
 71
     3
 72
    12
 73
     8
 74
     0
 42
0.000000001
 43
0.00000001
 40
0.0
 40
0.0
 40
0.0
 40
0.0
 40
0.1186599476439453
 40
0.343033820028196
 40
0.5671203797029113
 40
0.7906046316726338
 40
1.0
 40
1.0
 40
1.0
 40
1.0
 10
261.5943969525565
 20
54.01630602118778
 30
0.0
 10
261.5555960155233
 20
54.1583414366959
 30
0.0
 10
261.443426459448
 20
54.56895135291836
 30
0.0
 10
261.2118324848458
 20
55.20836785085869
 30
0.0
 10
260.8800061615299
 20
55.91027503410579
 30
0.0
 10
260.5025784445781
 20
56.54212451273107
 30
0.0
 10
260.2086327625858
 20
56.90512218121869
 30
0.0
 10
260.0664434298868
 20
57.08071379359993
 30
0.0
  0
SPLINE
  5
1DD
330
1F
100
AcDbEntity
  8
0
  6
Continuous
 62
     7
370
    15
100
AcDbSpline
210
0.0
220
0.0
230
1.0
 70
     8
 71
     3
 72
    29
 73
    25
 74
     0
 42
0.000000001
 43
0.00000001
 40
0.0
 40
0.0
 40
0.0
 40
0.0
 40
0.0191157020278736
 40
0.0659722088585614
 40
0.1130067090015848
 40
0.1604281301684926
 40
0.2083452154032004
 40
0.2567574740514381
 40
0.3055810414279269
 40
0.3546932842735265
 40
0.4039736841697135
 40
0.4533271979887019
 40
0.5026798851182652
 40
0.5519980196763387
 40
0.601269409193541
 40
0.6504925939291142
 40
0.6996724303420896
 40
0.7488172876313792
 40
0.7979373928420762
 40
0.8470439180449567
 40
0.8961485144416416
 40
0.9452612211083369
 40
0.9943919988122375
 40
1.0
 40
1.0
 40
1.0
 40
1.0
 10
236.2877658661198
 20
66.12559986125035
 30
0.0
 10
236.2148202788409
 20
66.16266345319617
 30
0.0
 10
235.9630700939794
 20
66.29057751177129
 30
0.0
 10
235.4918904756456
 20
66.42883044477786
 30
0.0
 10
234.8816744881679
 20
66.54027982659166
 30
0.0
 10
234.240106564089
 20
66.56813648361207
 30
0.0
 10
233.573852202116
 20
66.5178380528346
 30
0.0
 10
232.8863727717606
 20
66.38742632672295
 30
0.0
 10
232.1830780965397
 20
66.17774433133651
 30
0.0
 10
231.4697025440203
 20
65.89007291253571
 30
0.0
 10
230.7522857851084
 20
65.52685667295015
 30
0.0
 10
230.0367966733837
 20
65.09136354696912
 30
0.0
 10
229.3289292350046
 20
64.5875035793754
 30
0.0
 10
228.6340491188011
 20
64.01963189968511
 30
0.0
 10
227.9571890462163
 20
63.39240305374616
 30
0.0
 10
227.3031648659414
 20
62.71077160700292
 30
0.0
 10
226.6765978848107
 20
61.97999099792215
 30
0.0
 10
226.0819707994035
 20
61.20559331207683
 30
0.0
 10
225.5233943235875
 20
60.39337953455291
 30
0.0
 10
225.0053964154059
 20
59.54934325290824
 30
0.0
 10
224.5298726880567
 20
58.6798196942266
 30
0.0
 10
224.1073672325069
 20
57.79079597013989
 30
0.0
 10
223.8308069484459
 20
57.15635285584599
 30
0.0
 10
223.7121488867323
 20
56.81987113950672
 30
0.0
 10
223.6999923395001
 20
56.78539850597162
 30
0.0
  0
LINE
  5
1DE
330
1F
100
AcDbEntity
  8
0
  6
Continuous
 62
     7
370
    15
100
AcDbLine
 10
223.8153274733
 20
54.9322633258
 30
0.0
 11
226.3688873719
 21
53.4581245743
 31
0.0
  0
LINE
  5
1DF
330
1F
100
AcDbEntity
  8
0
  6
Continuous
 62
     7
370
    15
100
AcDbLine
 10
223.5170351959
 20
56.0564387766
 30
0.0
 11
223.5170351959
 21
55.5951669593
 31
0.0
  0
LINE
  5
1E0
330
1F
100
AcDbEntity
  8
0
  6
Continuous
 62
     7
370
    15
100
AcDbLine
 10
223.5170351959
 20
48.5892246144
 30
0.0
 11
223.5170351959
 21
48.1238185306
 31
0.0
  0
SPLINE
  5
1E1
330
1F
100
AcDbEntity
  8
0
  6
Continuous
 62
     7
370
    15
100
AcDbSpline
210
0.0
220
0.0
230
1.0
 70
     8
 71
     3
 72
    11
 73
     7
 74
     0
 42
0.000000001
 43
0.00000001
 40
0.0
 40
0.0
 40
0.0
 40
0.0
 40
0.209404852729062
 40
0.5371788549894764
 40
0.8611955543254995
 40
1.0
 40
1.0
 40
1.0
 40
1.0
 10
223.6330096806181
 20
47.83635146718343
 30
0.0
 10
223.7047045056649
 20
47.71661046502745
 30
0.0
 10
223.8886207020921
 20
47.40944311147683
 30
0.0
 10
224.2531222608537
 20
46.99053398100106
 30
0.0
 10
224.6163276818301
 20
46.63985427482314
 30
0.0
 10
224.8604565222593
 20
46.48118044880849
 30
0.0
 10
224.9336730741266
 20
46.433592665276
 30
0.0
  0
LWPOLYLINE
  5
1E2
330
1F
100
AcDbEntity
  8
0
  6
Continuous
 62
     7
370
    15
100
AcDbPolyline
 90
       28
 70
   128
 43
0.0
 10
256.0861125763
 20
50.9610902746
 10
256.4238009451
 20
50.8166737434
 10
256.6946951203
 20
50.6311929489
 10
256.8841911267
 20
50.414647209
 10
256.9820731857
 20
50.1787105604
 10
256.98306445
 20
49.936102409
 10
256.8871114804
 20
49.699901823
 10
256.6993871263
 20
49.4828424372
 10
256.4300116561
 20
49.2966259791
 10
256.0935071713
 20
49.1512914264
 10
255.7080147157
 20
49.0546738022
 10
255.2943162874
 20
49.0119817878
 10
254.8747144757
 20
49.0255169207
 10
254.4718301228
 20
49.0945495183
 10
254.1073828287
 20
49.2153580156
 10
253.8010200411
 20
49.381429595
 10
253.5692578573
 20
49.5838112949
 10
253.4245906366
 20
49.8115926653
 10
253.3748174263
 20
50.0524939536
 10
253.4226215131
 20
50.293528109
 10
253.5654257662
 20
50.5217009178
 10
253.7955315715
 20
50.7247115249
 10
254.1005338654
 20
50.8916155758
 10
254.4639898952
 20
51.0134152299
 10
254.8663056524
 20
51.0835442365
 10
255.2857921904
 20
51.0982219225
 10
255.6998348812
 20
51.0566570102
 10
256.0861125763
 20
50.9610902746
  0
LWPOLYLINE
  5
1E3
330
1F
100
AcDbEntity
  8
0
  6
Continuous
 62
     7
370
    15
100
AcDbPolyline
 90
       23
 70
   128
 43
0.0
 10
256.5992557471
 20
50.7160912306
 10
256.8346279219
 20
50.5524595895
 10
257.04483124
 20
50.3241634523
 10
257.1617654463
 20
50.0745887518
 10
257.1795669715
 20
49.8162502055
 10
257.0973431725
 20
49.5621019869
 10
256.9192170942
 20
49.324888149
 10
256.6541207218
 20
49.116503584
 10
256.3153470945
 20
48.9473975643
 10
255.9198837364
 20
48.8260497716
 10
255.4875608317
 20
48.7585450912
 10
255.040056856
 20
48.7482684895
 10
254.5998115273
 20
48.7957352783
 10
254.1889005847
 20
48.8985652745
 10
253.8279288186
 20
49.0516021528
 10
253.5349968607
 20
49.247172005
 10
253.3247935426
 20
49.4754681422
 10
253.2078593363
 20
49.7250428428
 10
253.1900578112
 20
49.983381389
 10
253.2722816101
 20
50.2375296076
 10
253.4504076884
 20
50.4747434455
 10
253.7155040608
 20
50.6831280105
 10
253.7703690355
 20
50.7160912306
  0
LWPOLYLINE
  5
1E4
330
1F
100
AcDbEntity
  8
0
  6
Continuous
 62
     7
370
    15
100
AcDbPolyline
 90
       23
 70
   128
 43
0.0
 10
255.7823594753
 20
50.6557088652
 10
256.0513375827
 20
50.5341887546
 10
256.2501149726
 20
50.373844263
 10
256.3625878829
 20
50.1876655476
 10
256.3796444274
 20
49.9907357005
 10
256.2999027862
 20
49.799008807
 10
256.129823153
 20
49.6280174395
 10
255.883184368
 20
49.4916143018
 10
255.5799676389
 20
49.4008499649
 10
255.2447377817
 20
49.3630776156
 10
254.9046531258
 20
49.3813573449
 10
254.5872653073
 20
49.4542082379
 10
254.3182871999
 20
49.5757283485
 10
254.1195098101
 20
49.73607284
 10
254.0070368997
 20
49.9222515555
 10
253.9899803553
 20
50.1191814025
 10
254.0697219964
 20
50.3109082961
 10
254.2398016296
 20
50.4818996635
 10
254.4864404146
 20
50.6183028012
 10
254.7896571437
 20
50.7090671381
 10
255.1248870009
 20
50.7468394875
 10
255.4649716568
 20
50.7285597582
 10
255.7823594753
 20
50.6557088652
  0
SPLINE
  5
1E5
330
1F
100
AcDbEntity
  8
0
  6
Continuous
 62
     7
370
    15
100
AcDbSpline
210
0.0
220
0.0
230
1.0
 70
     8
 71
     3
 72
    11
 73
     7
 74
     0
 42
0.000000001
 43
0.00000001
 40
0.0
 40
0.0
 40
0.0
 40
0.0
 40
0.1285561766307231
 40
0.4801535797842145
 40
0.8150691831753912
 40
1.0
 40
1.0
 40
1.0
 40
1.0
 10
255.182088783556
 20
50.68456226998173
 30
0.0
 10
255.2224164623902
 20
50.6531975921439
 30
0.0
 10
255.3730391696311
 20
50.5360514328748
 30
0.0
 10
255.655490480589
 20
50.37762783526897
 30
0.0
 10
255.9613256703342
 20
50.32916158014999
 30
0.0
 10
256.1251638178123
 20
50.34647023494453
 30
0.0
 10
256.1834478056631
 20
50.35262763748653
 30
0.0
  0
SPLINE
  5
1E6
330
1F
100
AcDbEntity
  8
0
  6
Continuous
 62
     7
370
    15
100
AcDbSpline
210
0.0
220
0.0
230
1.0
 70
     8
 71
     3
 72
    11
 73
     7
 74
     0
 42
0.000000001
 43
0.00000001
 40
0.0
 40
0.0
 40
0.0
 40
0.0
 40
0.2164526859271174
 40
0.4403055508634028
 40
0.7518960204221865
 40
1.0
 40
1.0
 40
1.0
 40
1.0
 10
254.1834533692003
 20
50.34990432484349
 30
0.0
 10
254.251859995414
 20
50.3432541643503
 30
0.0
 10
254.3910119634696
 20
50.32972648477109
 30
0.0
 10
254.6492423385098
 20
50.36611887744774
 30
0.0
 10
254.9262440967103
 20
50.48917748430338
 30
0.0
 10
255.1035096693811
 20
50.62455256811477
 30
0.0
 10
255.182088783556
 20
50.68456226998173
 30
0.0
  0
SPLINE
  5
1E7
330
1F
100
AcDbEntity
  8
0
  6
Continuous
 62
     7
370
    15
100
AcDbSpline
210
0.0
220
0.0
230
1.0
 70
     8
 71
     3
 72
    11
 73
     7
 74
     0
 42
0.000000001
 43
0.00000001
 40
0.0
 40
0.0
 40
0.0
 40
0.0
 40
0.2164526859271198
 40
0.4403055508633926
 40
0.7518960204221884
 40
1.0
 40
1.0
 40
1.0
 40
1.0
 10
254.1861769769519
 20
49.68331174721001
 30
0.0
 10
254.1859904095473
 20
49.69939914239134
 30
0.0
 10
254.1856108962901
 20
49.73212393565013
 30
0.0
 10
254.1849066169896
 20
49.85434905907705
 30
0.0
 10
254.1841511419433
 20
50.06947978303073
 30
0.0
 10
254.1836676803307
 20
50.26377585229154
 30
0.0
 10
254.1834533692003
 20
50.34990432484349
 30
0.0
  0
SPLINE
  5
1E8
330
1F
100
AcDbEntity
  8
0
  6
Continuous
 62
     7
370
    15
100
AcDbSpline
210
0.0
220
0.0
230
1.0
 70
     8
 71
     3
 72
     9
 73
     5
 74
     0
 42
0.000000001
 43
0.00000001
 40
0.0
 40
0.0
 40
0.0
 40
0.0
 40
0.5230571235592104
 40
1.0
 40
1.0
 40
1.0
 40
1.0
 10
254.4517891981263
 20
49.5136129030692
 30
0.0
 10
254.4031212115091
 20
49.53729084690298
 30
0.0
 10
254.310075950437
 20
49.5825592177315
 30
0.0
 10
254.22618714508
 20
49.65077616172145
 30
0.0
 10
254.1861769769519
 20
49.68331174721001
 30
0.0
  0
SPLINE
  5
1E9
330
1F
100
AcDbEntity
  8
0
  6
Continuous
 62
     7
370
    15
100
AcDbSpline
210
0.0
220
0.0
230
1.0
 70
     8
 71
     3
 72
     9
 73
     5
 74
     0
 42
0.000000001
 43
0.00000001
 40
0.0
 40
0.0
 40
0.0
 40
0.0
 40
0.7827524941391786
 40
1.0
 40
1.0
 40
1.0
 40
1.0
 10
256.1861714134148
 20
49.68603505985306
 30
0.0
 10
256.1184595101333
 20
49.6310574444694
 30
0.0
 10
256.0319546394514
 20
49.56082117464553
 30
0.0
 10
255.9372889425835
 20
49.51327584125696
 30
0.0
 10
255.9167230560483
 20
49.50294673616298
 30
0.0
  0
SPLINE
  5
1EA
330
1F
100
AcDbEntity
  8
0
  6
Continuous
 62
     7
370
    15
100
AcDbSpline
210
0.0
220
0.0
230
1.0
 70
     8
 71
     3
 72
    11
 73
     7
 74
     0
 42
0.000000001
 43
0.00000001
 40
0.0
 40
0.0
 40
0.0
 40
0.0
 40
0.2164526859271224
 40
0.4403055508634009
 40
0.7518960204221938
 40
1.0
 40
1.0
 40
1.0
 40
1.0
 10
256.1834478056631
 20
50.35262763748653
 30
0.0
 10
256.1836343730678
 20
50.27739171559049
 30
0.0
 10
256.184013886325
 20
50.124347673225
 30
0.0
 10
256.1847181656256
 20
49.90183346766997
 30
0.0
 10
256.1854736406718
 20
49.74716493685355
 30
0.0
 10
256.1859571022844
 20
49.70481024585963
 30
0.0
 10
256.1861714134148
 20
49.68603505985306
 30
0.0
  0
LINE
  5
1EB
330
1F
100
AcDbEntity
  8
0
  6
Continuous
 62
     7
370
    15
100
AcDbLine
 10
256.1834478057
 20
49.6840587224
 30
0.0
 11
256.1834478057
 21
50.3526276375
 31
0.0
  0
LINE
  5
1EC
330
1F
100
AcDbEntity
  8
0
  6
Continuous
 62
     7
370
    15
100
AcDbLine
 10
255.1820887836
 20
49.3622150813
 30
0.0
 11
255.1820887836
 21
50.68456227
 31
0.0
  0
SPLINE
  5
1ED
330
1F
100
AcDbEntity
  8
0
  6
Continuous
 62
     7
370
    15
100
AcDbSpline
210
0.0
220
0.0
230
1.0
 70
     8
 71
     3
 72
    10
 73
     6
 74
     0
 42
0.000000001
 43
0.00000001
 40
0.0
 40
0.0
 40
0.0
 40
0.0
 40
0.5
 40
0.5
 40
1.0
 40
1.0
 40
1.0
 40
1.0
 10
240.4910354023309
 20
42.18403106019264
 30
0.0
 10
240.4345067165484
 20
42.15139774451002
 30
0.0
 10
240.3558633939737
 20
42.13102476905105
 30
0.0
 10
240.1956334796425
 20
42.1279633690897
 30
0.0
 10
240.1144664671019
 20
42.14562256896994
 30
0.0
 10
240.057352566764
 20
42.17859372182426
 30
0.0
  0
SPLINE
  5
1EE
330
1F
100
AcDbEntity
  8
0
  6
Continuous
 62
     7
370
    15
100
AcDbSpline
210
0.0
220
0.0
230
1.0
 70
     8
 71
     3
 72
    12
 73
     8
 74
     0
 42
0.000000001
 43
0.00000001
 40
0.0
 40
0.0
 40
0.0
 40
0.0
 40
0.250000000000002
 40
0.250000000000002
 40
0.500000000000004
 40
0.500000000000004
 40
1.0
 40
1.0
 40
1.0
 40
1.0
 10
257.7480744731088
 20
58.70255560007936
 30
0.0
 10
257.7799788014535
 20
58.6841376233636
 30
0.0
 10
257.8121161378945
 20
58.65422308273154
 30
0.0
 10
257.8667744443206
 20
58.58382566278863
 30
0.0
 10
257.889747783651
 20
58.5434449661128
 30
0.0
 10
257.9434295725887
 20
58.42092113607742
 30
0.0
 10
257.9602065074648
 20
58.33611981447174
 30
0.0
 10
257.9602065074648
 20
58.26256721883813
 30
0.0
  0
LINE
  5
1EF
330
1F
100
AcDbEntity
  8
0
  6
Continuous
 62
     7
370
    15
100
AcDbLine
 10
240.0573525668
 20
42.1785937218
 30
0.0
 11
238.6579644991
 21
42.9864432577
 31
0.0
  0
LWPOLYLINE
  5
1F0
330
1F
100
AcDbEntity
  8
0
  6
Continuous
 62
     7
370
    15
100
AcDbPolyline
 90
       26
 70
   128
 43
0.0
 10
238.6579644991
 20
42.9864432577
 10
238.940408979
 20
44.1047985165
 10
239.286867562
 20
45.2315846007
 10
239.6952057227
 20
46.3598594007
 10
240.162907697
 20
47.4826716354
 10
240.6870919811
 20
48.5931036781
 10
241.2645290849
 20
49.6843141766
 10
241.8916614285
 20
50.7495802019
 10
242.5646252604
 20
51.7823386687
 10
243.2792744622
 20
52.7762267703
 10
244.0312060928
 20
53.7251211793
 10
244.8157875144
 20
54.623175774
 10
245.6281849348
 20
55.4648576556
 10
246.4633931875
 20
56.2449812368
 10
247.3162665691
 20
56.95874019
 10
248.1815505418
 20
57.6017370585
 10
249.0539141059
 20
58.1700103501
 10
249.9279826449
 20
58.6600589428
 10
250.7983710379
 20
59.068863656
 10
251.659716837
 20
59.3939058508
 10
252.506713306
 20
59.633182948
 10
253.3341421143
 20
59.7852207656
 10
254.1369054877
 20
59.8490826013
 10
254.9100576149
 20
59.8243750034
 10
255.6488351193
 20
59.7112501949
 10
256.3486864055
 20
59.510405136
  0
LINE
  5
1F1
330
1F
100
AcDbEntity
  8
0
  6
Continuous
 62
     7
370
    15
100
AcDbLine
 10
256.3486864055
 20
59.510405136
 30
0.0
 11
257.7480744731
 21
58.7025556001
 31
0.0
  0
LWPOLYLINE
  5
1F2
330
1F
100
AcDbEntity
  8
0
  6
Continuous
 62
     7
370
    15
100
AcDbPolyline
 90
       63
 70
   128
 43
0.0
 10
258.7380239668
 20
47.8404250082
 10
258.0548474645
 20
47.4060267729
 10
257.3786812777
 20
46.8960683806
 10
256.7164637863
 20
46.3157826946
 10
256.074990238
 20
45.6711242311
 10
255.4608430194
 20
44.9687080585
 10
254.880324112
 20
44.2157419171
 10
254.3393904255
 20
43.4199522585
 10
253.8435926714
 20
42.5895049615
 10
253.3980184056
 20
41.7329215391
 10
253.0072398231
 20
40.8589916963
 10
252.6752668408
 20
39.976683136
 10
252.4055059509
 20
39.095049538
 10
252.2007252651
 20
38.2231376559
 10
252.0630261104
 20
37.3698944857
 10
251.9938214664
 20
36.5440754568
 10
251.9938214664
 20
35.75415459
 10
252.0630261104
 20
35.0082375423
 10
252.2007252651
 20
34.313978432
 10
252.4055059509
 20
33.6785012972
 10
252.6752668408
 20
33.108326993
 10
253.0072398231
 20
32.6093062795
 10
253.3980184056
 20
32.1865597844
 10
253.8435926714
 20
31.8444254589
 10
254.3393904255
 20
31.5864140641
 10
254.880324112
 20
31.4151731461
 10
255.4608430194
 20
31.3324598684
 10
256.074990238
 20
31.3391229812
 10
256.7164637863
 20
31.4350941119
 10
257.3786812777
 20
31.6193884668
 10
258.0548474645
 20
31.8901149366
 10
258.7380239668
 20
32.2444955012
 10
259.421200469
 20
32.6788937365
 10
260.0973666559
 20
33.1888521287
 10
260.7595841473
 20
33.7691378148
 10
261.4010576956
 20
34.4137962782
 10
262.0152049142
 20
35.1162124509
 10
262.5957238215
 20
35.8691785922
 10
263.1366575081
 20
36.6649682508
 10
263.6324552622
 20
37.4954155479
 10
264.0780295279
 20
38.3519989703
 10
264.4688081105
 20
39.2259288131
 10
264.8007810927
 20
40.1082373734
 10
265.0705419826
 20
40.9898709714
 10
265.2753226684
 20
41.8617828534
 10
265.4130218232
 20
42.7150260237
 10
265.4822264672
 20
43.5408450526
 10
265.4822264672
 20
44.3307659194
 10
265.4130218232
 20
45.0766829671
 10
265.2753226684
 20
45.7709420773
 10
265.0705419826
 20
46.4064192122
 10
264.8007810927
 20
46.9765935163
 10
264.4688081105
 20
47.4756142299
 10
264.0780295279
 20
47.8983607249
 10
263.6324552622
 20
48.2404950504
 10
263.1366575081
 20
48.4985064452
 10
262.5957238215
 20
48.6697473632
 10
262.0152049142
 20
48.7524606409
 10
261.4010576956
 20
48.7457975282
 10
260.7595841473
 20
48.6498263975
 10
260.0973666559
 20
48.4655320425
 10
259.421200469
 20
48.1948055728
 10
258.7380239668
 20
47.8404250082
  0
LWPOLYLINE
  5
1F3
330
1F
100
AcDbEntity
  8
0
  6
Continuous
 62
     7
370
    15
100
AcDbPolyline
 90
       33
 70
   128
 43
0.0
 10
258.5966026105
 20
48.0853739817
 10
257.9101528903
 20
47.6495336398
 10
257.2305254157
 20
47.1389021679
 10
256.56447463
 20
46.5585544512
 10
255.9186200452
 20
45.9142582459
 10
255.2993804543
 20
45.2124168572
 10
254.7129101384
 20
44.4600055002
 10
254.1650377032
 20
43.6645019769
 10
253.661208151
 20
42.8338123588
 10
253.2064287663
 20
41.9761924124
 10
252.8052193509
 20
41.1001655502
 10
252.4615673042
 20
40.2144381206
 10
252.1788879946
 20
39.3278128808
 10
251.9599908162
 20
38.4491015107
 10
251.8070512674
 20
37.5870370387
 10
251.7215893302
 20
36.7501870488
 10
251.7044543637
 20
35.9468685322
 10
251.755816663
 20
35.1850652292
 10
251.8751657663
 20
34.4723482834
 10
252.0613155287
 20
33.8158009958
 10
252.3124159102
 20
33.2219484285
 10
252.6259713625
 20
32.696692555
 10
252.9988656305
 20
32.2452536042
 10
253.4273927235
 20
31.8721181792
 10
253.9072937468
 20
31.5809946675
 10
254.4337992283
 20
31.3747763853
 10
255.00167652
 20
31.2555128226
 10
255.6052818023
 20
31.2243892743
 10
256.2386161747
 20
31.2817150601
 10
256.8953852757
 20
31.4269204506
 10
257.5690618388
 20
31.6585623295
 10
258.2529505638
 20
31.9743385356
 10
258.5977231267
 20
32.1634751154
  0
LWPOLYLINE
  5
1F4
330
1F
100
AcDbEntity
  8
0
  6
Continuous
 62
     7
370
    15
100
AcDbPolyline
 90
       17
 70
   128
 43
0.0
 10
265.4908937271
 20
44.104090611
 10
265.4716158908
 20
44.6879084231
 10
265.3861539537
 20
45.4260861606
 10
265.2332144049
 20
46.1115703882
 10
265.0143172265
 20
46.7375484557
 10
264.7316379169
 20
47.2977991118
 10
264.3879858702
 20
47.7867543338
 10
263.9867764548
 20
48.199554665
 10
263.53199707
 20
48.5320975103
 10
263.0281675178
 20
48.7810779095
 10
262.4802950826
 20
48.9440213835
 10
261.8938247668
 20
49.0193085269
 10
261.2745851759
 20
49.0061911022
 10
260.628730591
 20
48.9047994763
 10
259.9626798054
 20
48.7161413246
 10
259.2830523308
 20
48.4420916167
 10
258.5966026105
 20
48.0853739817
  0
SPLINE
  5
1F5
330
1F
100
AcDbEntity
  8
0
  6
Continuous
 62
     7
370
    15
100
AcDbSpline
210
0.0
220
0.0
230
1.0
 70
    11
 71
     3
 72
    77
 73
    73
 74
     0
 42
0.000000001
 43
0.00000001
 40
0.0
 40
0.0
 40
0.0
 40
0.0
 40
0.03125
 40
0.03125
 40
0.0625
 40
0.0625
 40
0.0937499999999999
 40
0.0937499999999999
 40
0.1249999999999999
 40
0.1249999999999999
 40
0.1562499999999999
 40
0.1562499999999999
 40
0.1874999999999999
 40
0.1874999999999999
 40
0.2187499999999999
 40
0.2187499999999999
 40
0.2499999999999998
 40
0.2499999999999998
 40
0.2812499999999998
 40
0.2812499999999998
 40
0.3124999999999998
 40
0.3124999999999998
 40
0.3437499999999998
 40
0.3437499999999998
 40
0.3593749999999998
 40
0.3593749999999998
 40
0.3749999999999998
 40
0.3906249999999997
 40
0.3906249999999997
 40
0.4062499999999997
 40
0.4062499999999997
 40
0.4374999999999999
 40
0.4374999999999999
 40
0.46875
 40
0.46875
 40
0.5000000000000001
 40
0.5000000000000001
 40
0.5312500000000002
 40
0.5312500000000002
 40
0.5625000000000003
 40
0.5625000000000003
 40
0.5937500000000003
 40
0.5937500000000003
 40
0.6250000000000004
 40
0.6250000000000004
 40
0.6562500000000006
 40
0.6562500000000006
 40
0.6875000000000007
 40
0.6875000000000007
 40
0.7187500000000008
 40
0.7187500000000008
 40
0.7500000000000008
 40
0.7500000000000008
 40
0.7656250000000006
 40
0.7656250000000006
 40
0.7812500000000003
 40
0.7812500000000003
 40
0.8125000000000003
 40
0.8125000000000003
 40
0.8437500000000003
 40
0.8437500000000003
 40
0.8750000000000003
 40
0.8750000000000003
 40
0.8906250000000003
 40
0.8906250000000003
 40
0.9062500000000003
 40
0.9062500000000003
 40
0.9375000000000001
 40
0.9375000000000001
 40
0.96875
 40
0.96875
 40
1.0
 40
1.0
 40
1.0
 40
1.0
 10
255.1734842445173
 20
51.29994541640953
 30
0.0
 10
255.3286299664616
 20
51.27673007896954
 30
0.0
 10
255.4797890428682
 20
51.24578016957205
 30
0.0
 10
255.7750108578365
 20
51.17117792132569
 30
0.0
 10
255.9200014573628
 20
51.12716674868889
 30
0.0
 10
256.1985725602703
 20
51.02883183510563
 30
0.0
 10
256.3303210015588
 20
50.97526444433984
 30
0.0
 10
256.5794146641447
 20
50.86041671431859
 30
0.0
 10
256.6977509707139
 20
50.79850540946653
 30
0.0
 10
256.9135988406883
 20
50.67015175503006
 30
0.0
 10
257.0110290127234
 20
50.60395251398371
 30
0.0
 10
257.1851005216913
 20
50.46720503867691
 30
0.0
 10
257.2623282188114
 20
50.39591306239584
 30
0.0
 10
257.3902320141315
 20
50.25224526300999
 30
0.0
 10
257.4412981877491
 20
50.17984044105629
 30
0.0
 10
257.5170549985431
 20
50.03253023827016
 30
0.0
 10
257.5417333356665
 20
49.95677902196449
 30
0.0
 10
257.5606256956247
 20
49.80663776938192
 30
0.0
 10
257.5553528904628
 20
49.73195690682277
 30
0.0
 10
257.5134525940754
 20
49.58173286221763
 30
0.0
 10
257.475970750472
 20
49.50542623908714
 30
0.0
 10
257.3702193323055
 20
49.35820134198102
 30
0.0
 10
257.3020437590847
 20
49.28645772514649
 30
0.0
 10
257.1749509592252
 20
49.18112034806451
 30
0.0
 10
257.128221801871
 20
49.14631928837099
 30
0.0
 10
257.0289409611113
 20
49.07949919884771
 30
0.0
 10
256.9232666024796
 20
49.01493563236143
 30
0.0
 10
256.8049745313124
 20
48.95479787480037
 30
0.0
 10
256.680256228511
 20
48.89694586402423
 30
0.0
 10
256.614510239529
 20
48.86913303644388
 30
0.0
 10
256.4129089014148
 20
48.79141905783214
 30
0.0
 10
256.2711229878481
 20
48.74635599009167
 30
0.0
 10
255.973329684923
 20
48.67015774590687
 30
0.0
 10
255.8204312613573
 20
48.6399314844049
 30
0.0
 10
255.512646126254
 20
48.59621540179399
 30
0.0
 10
255.355433089216
 20
48.58254606814261
 30
0.0
 10
255.0475449475131
 20
48.57323194010539
 30
0.0
 10
254.8960971245181
 20
48.5773223585191
 30
0.0
 10
254.5978136237674
 20
48.60375202566121
 30
0.0
 10
254.4521827514673
 20
48.626172229086
 30
0.0
 10
254.1754862642014
 20
48.68836178756221
 30
0.0
 10
254.0431658198251
 20
48.72822447978788
 30
0.0
 10
253.790732453018
 20
48.82655501062697
 30
0.0
 10
253.6737726760566
 20
48.88384208675763
 30
0.0
 10
253.4588493946874
 20
49.01355893217166
 30
0.0
 10
253.3604307009189
 20
49.08628198422517
 30
0.0
 10
253.1840530362354
 20
49.246695934736
 30
0.0
 10
253.1081898718146
 20
49.33238911492956
 30
0.0
 10
252.9806172974644
 20
49.51374010648639
 30
0.0
 10
252.9286890808995
 20
49.60994168290078
 30
0.0
 10
252.8521024511311
 20
49.80964556926116
 30
0.0
 10
252.8280822180153
 20
49.91104754081462
 30
0.0
 10
252.8137947926589
 20
50.0644708828829
 30
0.0
 10
252.8126817153253
 20
50.11583363893543
 30
0.0
 10
252.8181605741515
 20
50.21884370964608
 30
0.0
 10
252.8248390686331
 20
50.27082286918754
 30
0.0
 10
252.8567202929595
 20
50.42380711081378
 30
0.0
 10
252.893402911436
 20
50.52207445512301
 30
0.0
 10
252.9989421424156
 20
50.70955423516738
 30
0.0
 10
253.069238362532
 20
50.79990403643644
 30
0.0
 10
253.238409174106
 20
50.96095240341315
 30
0.0
 10
253.3370402873268
 20
51.03233799330592
 30
0.0
 10
253.5068426956936
 20
51.12498188777509
 30
0.0
 10
253.5671864011686
 20
51.15339751775558
 30
0.0
 10
253.6918301928071
 20
51.20381716054952
 30
0.0
 10
253.7565282888204
 20
51.22605865104553
 30
0.0
 10
253.9575563823461
 20
51.28424128195549
 30
0.0
 10
254.1025466679664
 20
51.3117552028892
 30
0.0
 10
254.3988871268754
 20
51.34357151055138
 30
0.0
 10
254.5508401035541
 20
51.34836106452403
 30
0.0
 10
254.8621284842069
 20
51.33813411181997
 30
0.0
 10
255.0183385225729
 20
51.3231607538495
 30
0.0
 10
255.1734842445173
 20
51.29994541640952
 30
0.0
  0
LINE
  5
1F6
330
1F
100
AcDbEntity
  8
0
  6
Continuous
 62
     7
370
    15
100
AcDbLine
 10
260.2759812159
 20
53.1973667567
 30
0.0
 11
261.4944818778
 21
53.900792216
 31
0.0
  0
LINE
  5
1F7
330
1F
100
AcDbEntity
  8
0
  6
Continuous
 62
     7
370
    15
100
AcDbLine
 10
260.2759812159
 20
50.4126417288
 30
0.0
 11
260.2759812159
 21
53.1973667567
 31
0.0
  0
LINE
  5
1F8
330
1F
100
AcDbEntity
  8
0
  6
Continuous
 62
     7
370
    15
100
AcDbLine
 10
240.4910354023
 20
34.8351637532
 30
0.0
 11
241.6083621925
 21
35.4801827796
 31
0.0
  0
LINE
  5
1F9
330
1F
100
AcDbEntity
  8
0
  6
Continuous
 62
     7
370
    15
100
AcDbLine
 10
241.6083621925
 20
35.4801827796
 30
0.0
 11
241.6083621925
 21
42.8290500866
 31
0.0
  0
LINE
  5
1FA
330
1F
100
AcDbEntity
  8
0
  6
Continuous
 62
     7
370
    15
100
AcDbLine
 10
241.6083621925
 20
42.8290500866
 30
0.0
 11
240.4910354023
 21
42.1840310602
 31
0.0
  0
LINE
  5
1FB
330
1F
100
AcDbEntity
  8
0
  6
Continuous
 62
     7
370
    15
100
AcDbLine
 10
257.9602065075
 20
58.2625672188
 30
0.0
 11
257.9602065075
 21
56.698502784
 31
0.0
  0
LINE
  5
1FC
330
1F
100
AcDbEntity
  8
0
  6
Continuous
 62
     7
370
    15
100
AcDbLine
 10
259.3146526686
 20
57.4804079095
 30
0.0
 11
257.9602065075
 21
56.698502784
 31
0.0
  0
LINE
  5
1FD
330
1F
100
AcDbEntity
  8
0
  6
Continuous
 62
     7
370
    15
100
AcDbLine
 10
262.4376646094
 20
39.9516918194
 30
0.0
 11
263.8150506557
 21
41.6651469664
 31
0.0
  0
SPLINE
  5
1FE
330
1F
100
AcDbEntity
  8
0
  6
Continuous
 62
     7
370
    15
100
AcDbSpline
210
0.0
220
0.0
230
1.0
 70
     8
 71
     3
 72
    22
 73
    18
 74
     0
 42
0.000000001
 43
0.00000001
 40
0.0
 40
0.0
 40
0.0
 40
0.0
 40
0.050000000000015
 40
0.0999999999999998
 40
0.15
 40
0.2000000000000001
 40
0.25
 40
0.2968749999999256
 40
0.34375
 40
0.3906249999999996
 40
0.4374999999999988
 40
0.5153528850584169
 40
0.5153528850584169
 40
0.53125
 40
0.6249999999995612
 40
0.8125
 40
0.8824198414282317
 40
0.8824198414282317
 40
0.8824198414282317
 40
0.8824198414282317
 10
263.8150506556879
 20
41.66514696643139
 30
0.0
 10
263.8807888446221
 20
41.74692464850436
 30
0.0
 10
264.0095435578991
 20
41.92492753955656
 30
0.0
 10
264.1858486474828
 20
42.23029250840378
 30
0.0
 10
264.3345567055077
 20
42.56886352808424
 30
0.0
 10
264.4412442992012
 20
42.92465019351796
 30
0.0
 10
264.4917917921759
 20
43.26826039025094
 30
0.0
 10
264.4828629167477
 20
43.57836968877839
 30
0.0
 10
264.4178342321319
 20
43.83868849290919
 30
0.0
 10
264.3016359736356
 20
44.04283345448653
 30
0.0
 10
264.1097884694544
 20
44.21565880332119
 30
0.0
 10
263.934559358263
 20
44.26989439690818
 30
0.0
 10
263.7976122778183
 20
44.28298022143337
 30
0.0
 10
263.6496716374813
 20
44.2968388370192
 30
0.0
 10
263.3129937250666
 20
44.32607244442101
 30
0.0
 10
263.0850500655591
 20
44.3468655333098
 30
0.0
 10
262.5848335977368
 20
44.39161798085838
 30
0.0
 10
262.4376438097087
 20
44.40477693276159
 30
0.0
  0
SPLINE
  5
1FF
330
1F
100
AcDbEntity
  8
0
  6
Continuous
 62
     7
370
    15
100
AcDbSpline
210
0.0
220
0.0
230
1.0
 70
     8
 71
     3
 72
    22
 73
    18
 74
     0
 42
0.000000001
 43
0.00000001
 40
0.0
 40
0.0
 40
0.0
 40
0.0
 40
0.050000000000015
 40
0.0999999999999998
 40
0.15
 40
0.2000000000000001
 40
0.25
 40
0.2968749999999256
 40
0.34375
 40
0.3906249999999996
 40
0.4374999999999988
 40
0.5153528850584169
 40
0.5153528850584169
 40
0.53125
 40
0.6249999999995612
 40
0.8125
 40
0.8812161579343053
 40
0.8812161579343053
 40
0.8812161579343053
 40
0.8812161579343053
 10
253.660997277852
 20
35.80333672354607
 30
0.0
 10
253.5962284363624
 20
35.80912803397738
 30
0.0
 10
253.4660545001505
 20
35.83860079810062
 30
0.0
 10
253.2903198291063
 20
35.94035723551965
 30
0.0
 10
253.1414589313257
 20
36.10724726623224
 30
0.0
 10
253.0348122781154
 20
36.33985134494638
 30
0.0
 10
252.9842540905091
 20
36.62510179583162
 30
0.0
 10
252.9931851902522
 20
36.94551928548296
 30
0.0
 10
253.0582150100682
 20
37.2809209755999
 30
0.0
 10
253.1744065518036
 20
37.61921698143779
 30
0.0
 10
253.3662854562237
 20
38.01358388140105
 30
0.0
 10
253.5413934945304
 20
38.2699840739966
 30
0.0
 10
253.6783988523567
 20
38.44125812039738
 30
0.0
 10
253.8264433031162
 20
38.62605449359332
 30
0.0
 10
254.1642665378814
 20
39.04543292726177
 30
0.0
 10
254.3832477435165
 20
39.31825353971533
 30
0.0
 10
254.891783116372
 20
39.95089343155863
 30
0.0
 10
255.0384041861336
 20
40.13328695732951
 30
0.0
  0
LINE
  5
200
330
1F
100
AcDbEntity
  8
0
  6
Continuous
 62
     7
370
    15
100
AcDbLine
 10
255.0383833241
 20
35.6801776552
 30
0.0
 11
253.6609972779
 21
35.8033367235
 31
0.0
  0
LWPOLYLINE
  5
201
330
1F
100
AcDbEntity
  8
0
  6
Continuous
 62
     7
370
    15
100
AcDbPolyline
 90
       23
 70
   128
 43
0.0
 10
237.7341817114
 20
44.6174252917
 10
238.0345277776
 20
45.7173070899
 10
238.4009551158
 20
46.8230667955
 10
238.8308936777
 20
47.9269488308
 10
239.3213279604
 20
49.0212107879
 10
239.8688181556
 20
50.0981777321
 10
240.4695242767
 20
51.1502960326
 10
241.1192330909
 20
52.1701863418
 10
241.8133876705
 20
53.150695353
 10
242.547119354
 20
54.0849459719
 10
243.315281894
 20
54.9663855513
 10
244.112487552
 20
55.7888318504
 10
244.9331448869
 20
56.5465163951
 10
245.771497972
 20
57.2341249374
 10
246.6216667665
 20
57.8468347284
 10
247.4776883563
 20
58.3803483442
 10
248.3335587771
 20
58.8309238269
 10
249.1832751248
 20
59.19540093
 10
250.0208776587
 20
59.4712232841
 10
250.8404916022
 20
59.6564563263
 10
251.6363683468
 20
59.7498008689
 10
252.4029257721
 20
59.7506022122
 10
252.8492477591
 20
59.7062567979
  0
SPLINE
  5
202
330
1F
100
AcDbEntity
  8
0
  6
Continuous
 62
     7
370
    15
100
AcDbSpline
210
0.0
220
0.0
230
1.0
 70
     8
 71
     3
 72
     8
 73
     4
 74
     0
 42
0.000000001
 43
0.00000001
 40
0.0
 40
0.0
 40
0.0
 40
0.0
 40
1.0
 40
1.0
 40
1.0
 40
1.0
 10
237.734181711373
 20
44.61742529167092
 30
0.0
 10
237.2428806823205
 20
44.53477807146703
 30
0.0
 10
236.7513005914178
 20
44.45269428397658
 30
0.0
 10
236.2595057926659
 20
44.37104399689484
 30
0.0
  0
LWPOLYLINE
  5
203
330
1F
100
AcDbEntity
  8
0
  6
Continuous
 62
     7
370
    15
100
AcDbPolyline
 90
       26
 70
   128
 43
0.0
 10
236.2595057927
 20
44.3710439969
 10
236.5419502725
 20
45.4893992557
 10
236.8884088555
 20
46.6161853399
 10
237.2967470162
 20
47.7444601399
 10
237.7644489905
 20
48.8672723746
 10
238.2886332747
 20
49.9777044173
 10
238.8660703785
 20
51.0689149158
 10
239.493202722
 20
52.1341809411
 10
240.1661665539
 20
53.1669394079
 10
240.8808157557
 20
54.1608275095
 10
241.6327473863
 20
55.1097219185
 10
242.4173288079
 20
56.0077765132
 10
243.2297262283
 20
56.8494583948
 10
244.064934481
 20
57.629581976
 10
244.9178078627
 20
58.3433409292
 10
245.7830918353
 20
58.9863377977
 10
246.6554553994
 20
59.5546110893
 10
247.5295239385
 20
60.044659682
 10
248.3999123314
 20
60.4534643952
 10
249.2612581305
 20
60.77850659
 10
250.1082545995
 20
61.0177836872
 10
250.9356834079
 20
61.1698215048
 10
251.7384467812
 20
61.2336833405
 10
252.5115989084
 20
61.2089757426
 10
253.2503764128
 20
61.0958509341
 10
253.950227699
 20
60.8950058751
  0
LINE
  5
204
330
1F
100
AcDbEntity
  8
0
  6
Continuous
 62
     7
370
    15
100
AcDbLine
 10
253.950227699
 20
60.8950058751
 30
0.0
 11
254.2815878409
 21
59.8244251697
 31
0.0
  0
LINE
  5
205
330
1F
100
AcDbEntity
  8
0
  6
Continuous
 62
     7
370
    15
100
AcDbLine
 10
250.535585305
 20
62.8662369704
 30
0.0
 11
253.950227699
 21
60.8950058751
 31
0.0
  0
LINE
  5
206
330
1F
100
AcDbEntity
  8
0
  6
Continuous
 62
     7
370
    15
100
AcDbLine
 10
236.2595057927
 20
44.3710439969
 30
0.0
 11
235.6732905234
 21
44.7094588685
 31
0.0
  0
SPLINE
  5
207
330
1F
100
AcDbEntity
  8
0
  6
Continuous
 62
     7
370
    15
100
AcDbSpline
210
0.0
220
0.0
230
1.0
 70
     8
 71
     3
 72
    28
 73
    24
 74
     0
 42
0.000000001
 43
0.00000001
 40
0.0
 40
0.0
 40
0.0
 40
0.0
 40
0.1249999999999999
 40
0.1249999999999999
 40
0.1874999999999998
 40
0.1874999999999998
 40
0.2499999999999997
 40
0.2499999999999997
 40
0.3749999999999993
 40
0.3749999999999993
 40
0.4374999999999993
 40
0.4374999999999993
 40
0.4999999999999992
 40
0.4999999999999992
 40
0.6249999999999992
 40
0.6249999999999992
 40
0.7499999999999992
 40
0.7499999999999992
 40
0.8124999999999993
 40
0.8124999999999993
 40
0.8749999999999996
 40
0.8749999999999996
 40
1.0
 40
1.0
 40
1.0
 40
1.0
 10
235.6732905234074
 20
44.70945886847466
 30
0.0
 10
235.485303442941
 20
44.81798150005874
 30
0.0
 10
235.2950834883404
 20
44.89992522060665
 30
0.0
 10
235.0069848863924
 20
44.98508295064511
 30
0.0
 10
234.9104950157928
 20
45.0071328810489
 30
0.0
 10
234.7167568429579
 20
45.03840670450787
 30
0.0
 10
234.6195058224266
 20
45.0475339558313
 30
0.0
 10
234.3334839475412
 20
45.0553167979397
 30
0.0
 10
234.1481421311846
 20
45.03501025430263
 30
0.0
 10
233.8796295443688
 20
44.9677896011695
 30
0.0
 10
233.791268884703
 20
44.9390032435639
 30
0.0
 10
233.6209161744134
 20
44.86999135346876
 30
0.0
 10
233.5388891446319
 20
44.82985146355863
 30
0.0
 10
233.3024528908793
 20
44.6932316957954
 30
0.0
 10
233.1575856407569
 20
44.58071720610634
 30
0.0
 10
232.8967288472728
 20
44.31246024110688
 30
0.0
 10
232.7844364397705
 20
44.16030685472959
 30
0.0
 10
232.6452119583167
 20
43.90839046703128
 30
0.0
 10
232.6036161719509
 20
43.82034818135491
 30
0.0
 10
232.5304914568897
 20
43.63600712630308
 30
0.0
 10
232.4988669728367
 20
43.5392183636213
 30
0.0
 10
232.4213736694145
 20
43.24120328472449
 30
0.0
 10
232.3921989540247
 20
43.03173040758796
 30
0.0
 10
232.3862320712829
 20
42.8113496149041
 30
0.0
  0
ARC
  5
208
330
1F
100
AcDbEntity
  8
0
  6
Continuous
 62
     7
370
    15
100
AcDbCircle
 10
247.2295985336
 20
42.403079209
 30
0.0
 40
14.84898018921135
100
AcDbArc
 50
178.4244628824
 51
181.5755371176
  0
SPLINE
  5
209
330
1F
100
AcDbEntity
  8
0
  6
Continuous
 62
     7
370
    15
100
AcDbSpline
210
0.0
220
0.0
230
1.0
 70
     8
 71
     3
 72
    30
 73
    26
 74
     0
 42
0.000000001
 43
0.00000001
 40
0.0
 40
0.0
 40
0.0
 40
0.0
 40
0.1250000000000001
 40
0.1250000000000001
 40
0.1875000000000002
 40
0.1875000000000002
 40
0.2500000000000003
 40
0.2500000000000003
 40
0.3750000000000004
 40
0.3750000000000004
 40
0.4375000000000004
 40
0.4375000000000004
 40
0.5000000000000004
 40
0.5000000000000004
 40
0.6250000000000007
 40
0.6250000000000007
 40
0.6875000000000006
 40
0.6875000000000006
 40
0.7500000000000004
 40
0.7500000000000004
 40
0.8125000000000004
 40
0.8125000000000004
 40
0.8750000000000003
 40
0.8750000000000003
 40
1.0
 40
1.0
 40
1.0
 40
1.0
 10
232.3862320712829
 20
41.99480880301835
 30
0.0
 10
232.3921996699744
 20
41.78129161024364
 30
0.0
 10
232.4213448899739
 20
41.56374171222451
 30
0.0
 10
232.4977795512328
 20
41.23144268268891
 30
0.0
 10
232.5287455348101
 20
41.11966838138935
 30
0.0
 10
232.6017154756257
 20
40.89396650785435
 30
0.0
 10
232.6438516741843
 20
40.77987873528183
 30
0.0
 10
232.7837434635487
 20
40.44171600792065
 30
0.0
 10
232.895587388091
 20
40.21920578864788
 30
0.0
 10
233.0893739852356
 20
39.88859553269831
 30
0.0
 10
233.1587146228388
 20
39.77836889299216
 30
0.0
 10
233.3042070072855
 20
39.56163889253862
 30
0.0
 10
233.3800942980046
 20
39.4554419569079
 30
0.0
 10
233.616482246476
 20
39.14280378365829
 30
0.0
 10
233.7856277487269
 20
38.94226123582312
 30
0.0
 10
234.0554937460609
 20
38.65215639640078
 30
0.0
 10
234.1476852521118
 20
38.55781298002833
 30
0.0
 10
234.3332838471465
 20
38.37650795196794
 30
0.0
 10
234.4271127274333
 20
38.28908861847378
 30
0.0
 10
234.6165627778987
 20
38.12048106814914
 30
0.0
 10
234.7121841931043
 20
38.0392928823798
 30
0.0
 10
234.9050458825308
 20
37.88313020283166
 30
0.0
 10
235.0027807914292
 20
37.80780322313495
 30
0.0
 10
235.2940367465495
 20
37.59451298969111
 30
0.0
 10
235.4852941375227
 20
37.46911956499068
 30
0.0
 10
235.6732905234074
 20
37.36059156150291
 30
0.0
  0
LINE
  5
20A
330
1F
100
AcDbEntity
  8
0
  6
Continuous
 62
     7
370
    15
100
AcDbLine
 10
235.6732905234
 20
37.3605915615
 30
0.0
 11
236.2595057927
 21
37.0221766899
 31
0.0
  0
ARC
  5
20B
330
1F
100
AcDbEntity
  8
0
  6
Continuous
 62
     7
370
    15
100
AcDbCircle
 10
242.0807353188
 20
38.4134551838
 30
0.0
 40
5.985179115443947
100
AcDbArc
 50
193.4415888918
 51
253.1805824648
  0
LINE
  5
20C
330
1F
100
AcDbEntity
  8
0
  6
Continuous
 62
     7
370
    15
100
AcDbLine
 10
255.5796455553
 20
59.9540571821
 30
0.0
 11
255.9139579591
 21
59.6467290719
 31
0.0
  0
LINE
  5
20D
330
1F
100
AcDbEntity
  8
0
  6
Continuous
 62
     7
370
    15
100
AcDbLine
 10
254.7267168015
 20
60.446442471
 30
0.0
 11
255.5796455553
 21
59.9540571821
 31
0.0
  0
SPLINE
  5
20E
330
1F
100
AcDbEntity
  8
0
  6
Continuous
 62
     7
370
    15
100
AcDbSpline
210
0.0
220
0.0
230
1.0
 70
     8
 71
     3
 72
    20
 73
    16
 74
     0
 42
0.000000001
 43
0.00000001
 40
0.0
 40
0.0
 40
0.0
 40
0.0
 40
0.2499999999999995
 40
0.2499999999999995
 40
0.3749999999999996
 40
0.3749999999999996
 40
0.4999999999999997
 40
0.4999999999999997
 40
0.6249999999999998
 40
0.6249999999999998
 40
0.7499999999999998
 40
0.7499999999999998
 40
0.8749999999999999
 40
0.8749999999999999
 40
1.0
 40
1.0
 40
1.0
 40
1.0
 10
250.535585305006
 20
62.86623697037511
 30
0.0
 10
250.854573959404
 20
62.7323465811153
 30
0.0
 10
251.181029559502
 20
62.57245023405332
 30
0.0
 10
251.6933796768851
 20
62.2945313065838
 30
0.0
 10
251.867983043563
 20
62.1955322937735
 30
0.0
 10
252.2278569059118
 20
61.9845915888748
 30
0.0
 10
252.4107173222653
 20
61.87403577166475
 30
0.0
 10
252.7770124114426
 20
61.64861790265392
 30
0.0
 10
252.9614959277012
 20
61.53313730127446
 30
0.0
 10
253.3350807519367
 20
61.2983049569787
 30
0.0
 10
253.5194302231759
 20
61.18197503170343
 30
0.0
 10
253.8801401296524
 20
60.95628034490405
 30
0.0
 10
254.0571941189062
 20
60.84647037080737
 30
0.0
 10
254.4049234702586
 20
60.63507560727147
 30
0.0
 10
254.5701738867168
 20
60.53681277212844
 30
0.0
 10
254.7267168014983
 20
60.44644247101107
 30
0.0
  0
ARC
  5
20F
330
1F
100
AcDbEntity
  8
0
  6
Continuous
 62
     7
370
    15
100
AcDbCircle
 10
246.623760093
 20
57.1967969488
 30
0.0
 40
6.961930219390012
100
AcDbArc
 50
63.3368458857
 51
114.3655888202
  0
ARC
  5
210
330
1F
100
AcDbEntity
  8
0
  6
Continuous
 62
     7
370
    15
100
AcDbCircle
 10
237.792282589
 20
41.9431407072
 30
0.0
 40
6.934626049336916
100
AcDbArc
 50
184.8225784138
 51
236.8397915839
  0
LINE
  5
211
330
1F
100
AcDbEntity
  8
0
  6
Continuous
 62
     7
370
    15
100
AcDbLine
 10
238.8687962662
 20
43.8431665233
 30
0.0
 11
238.4051684738
 21
44.1108131508
 31
0.0
  0
LINE
  5
212
330
1F
100
AcDbEntity
  8
0
  6
Continuous
 62
     7
370
    15
100
AcDbLine
 10
237.9793503157
 20
44.7589581144
 30
0.0
 11
237.7341817114
 21
44.6174252917
 31
0.0
  0
SPLINE
  5
213
330
1F
100
AcDbEntity
  8
0
  6
Continuous
 62
     7
370
    15
100
AcDbSpline
210
0.0
220
0.0
230
1.0
 70
     8
 71
     3
 72
    14
 73
    10
 74
     0
 42
0.000000001
 43
0.00000001
 40
0.0
 40
0.0
 40
0.0
 40
0.0
 40
0.1250000000000012
 40
0.1250000000000012
 40
0.2500000000000024
 40
0.2500000000000024
 40
0.5000000000000013
 40
0.5000000000000013
 40
1.0
 40
1.0
 40
1.0
 40
1.0
 10
238.4051684737508
 20
44.11081315084893
 30
0.0
 10
238.3809720405856
 20
44.12478145439148
 30
0.0
 10
238.3577966021267
 20
44.15214663038902
 30
0.0
 10
238.3208762096958
 20
44.20994839951457
 30
0.0
 10
238.3058344186632
 20
44.2409188786309
 30
0.0
 10
238.2660209620763
 20
44.33394535156013
 30
0.0
 10
238.2463849436922
 20
44.39655640584485
 30
0.0
 10
238.1959640952227
 20
44.58088715675984
 30
0.0
 10
238.1735469169822
 20
44.70243139166057
 30
0.0
 10
238.1568590188163
 20
44.82156045696293
 30
0.0
  0
SPLINE
  5
214
330
1F
100
AcDbEntity
  8
0
  6
Continuous
 62
     7
370
    15
100
AcDbSpline
210
0.0
220
0.0
230
1.0
 70
     8
 71
     3
 72
    10
 73
     6
 74
     0
 42
0.000000001
 43
0.00000001
 40
0.0
 40
0.0
 40
0.0
 40
0.0
 40
0.5
 40
0.5
 40
1.0
 40
1.0
 40
1.0
 40
1.0
 10
238.1568590188163
 20
44.82156045696293
 30
0.0
 10
238.1234690006285
 20
44.81541068776269
 30
0.0
 10
238.0912296492004
 20
44.80686407991463
 30
0.0
 10
238.0312417549381
 20
44.78562810614573
 30
0.0
 10
238.0039798816891
 20
44.77317646013754
 30
0.0
 10
237.9793503157392
 20
44.75895811436069
 30
0.0
  0
SPLINE
  5
215
330
1F
100
AcDbEntity
  8
0
  6
Continuous
 62
     7
370
    15
100
AcDbSpline
210
0.0
220
0.0
230
1.0
 70
     8
 71
     3
 72
    15
 73
    11
 74
     0
 42
0.000000001
 43
0.00000001
 40
0.0
 40
0.0
 40
0.0
 40
0.0
 40
0.090461140989946
 40
0.1817808865055776
 40
0.2758623750269266
 40
0.3709116626475574
 40
0.5263619641134175
 40
0.6863179785757687
 40
0.8418214617828754
 40
1.0
 40
1.0
 40
1.0
 40
1.0
 10
253.5726089302022
 20
36.13319951608895
 30
0.0
 10
253.5416006377218
 20
36.13730844854064
 30
0.0
 10
253.4792897400877
 20
36.14556531304056
 30
0.0
 10
253.3919793058375
 20
36.17584507116969
 30
0.0
 10
253.3097042147368
 20
36.21988337159419
 30
0.0
 10
253.2186351744
 20
36.29153481260826
 30
0.0
 10
253.1263533669299
 20
36.40316430429354
 30
0.0
 10
253.0486642830396
 20
36.56579180977757
 30
0.0
 10
252.998558929689
 20
36.75736374988038
 30
0.0
 10
252.9933203711317
 20
36.90273390044896
 30
0.0
 10
252.9906787548504
 20
36.97603882820012
 30
0.0
  0
SPLINE
  5
216
330
1F
100
AcDbEntity
  8
0
  6
Continuous
 62
     7
370
    15
100
AcDbSpline
210
0.0
220
0.0
230
1.0
 70
     8
 71
     3
 72
    12
 73
     8
 74
     0
 42
0.000000001
 43
0.00000001
 40
0.0
 40
0.0
 40
0.0
 40
0.0
 40
0.1334659540839481
 40
0.3619591005842698
 40
0.5753628279692431
 40
0.7938078637096344
 40
1.0
 40
1.0
 40
1.0
 40
1.0
 10
255.2119656016067
 20
40.37609404389729
 30
0.0
 10
255.2086926067331
 20
40.36903710900074
 30
0.0
 10
255.1998162585378
 20
40.34989873153535
 30
0.0
 10
255.1689734316396
 20
40.30384307139393
 30
0.0
 10
255.1278842284107
 20
40.24754684657373
 30
0.0
 10
255.0840995651913
 20
40.19053115489265
 30
0.0
 10
255.0533401247483
 20
40.15199772937
 30
0.0
 10
255.0384041861311
 20
40.13328695732642
 30
0.0
  0
SPLINE
  5
217
330
1F
100
AcDbEntity
  8
0
  6
Continuous
 62
     7
370
    15
100
AcDbSpline
210
0.0
220
0.0
230
1.0
 70
     8
 71
     3
 72
    16
 73
    12
 74
     0
 42
0.000000001
 43
0.00000001
 40
0.0
 40
0.0
 40
0.0
 40
0.0
 40
0.2500000000000066
 40
0.2500000000000066
 40
0.5000000000000132
 40
0.5000000000000132
 40
0.6250000000000129
 40
0.6250000000000129
 40
0.7500000000000124
 40
0.7500000000000124
 40
1.0
 40
1.0
 40
1.0
 40
1.0
 10
262.4376438097088
 20
44.40477693276157
 30
0.0
 10
262.4061543406232
 20
44.40759213084498
 30
0.0
 10
262.3721488282326
 20
44.40904122852254
 30
0.0
 10
262.2952473450234
 20
44.4071126611093
 30
0.0
 10
262.2522935291367
 20
44.40395733463259
 30
0.0
 10
262.1786993478343
 20
44.39016425399675
 30
0.0
 10
262.1526559994311
 20
44.38383235363615
 30
0.0
 10
262.1043563740894
 20
44.36825418323646
 30
0.0
 10
262.0822067751884
 20
44.35903843651086
 30
0.0
 10
262.0272260655228
 20
44.33095629076004
 30
0.0
 10
262.0051526659184
 20
44.31259202602791
 30
0.0
 10
261.9886628078662
 20
44.29541986605983
 30
0.0
  0
SPLINE
  5
218
330
1F
100
AcDbEntity
  8
0
  6
Continuous
 62
     7
370
    15
100
AcDbSpline
210
0.0
220
0.0
230
1.0
 70
     8
 71
     3
 72
     8
 73
     4
 74
     0
 42
0.000000001
 43
0.00000001
 40
0.0
 40
0.0
 40
0.0
 40
0.0
 40
1.0
 40
1.0
 40
1.0
 40
1.0
 10
261.9886628078661
 20
44.29541986605967
 30
0.0
 10
261.9382872874558
 20
44.3145925595606
 30
0.0
 10
261.8867475132535
 20
44.33731566045361
 30
0.0
 10
261.8478773754978
 20
44.35975491334708
 30
0.0
  0
LINE
  5
219
330
1F
100
AcDbEntity
  8
0
  6
Continuous
 62
     7
370
    15
100
AcDbLine
 10
260.4252013334
 20
45.1810483107
 30
0.0
 11
261.8478773755
 21
44.3597549133
 31
0.0
  0
ARC
  5
21A
330
1F
100
AcDbEntity
  8
0
  6
Continuous
 62
     7
370
    15
100
AcDbCircle
 10
252.0914987207
 20
44.5021542849
 30
0.0
 40
6.782350290916083
100
AcDbArc
 50
338.0693297611
 51
2.4866559266
  0
LINE
  5
21B
330
1F
100
AcDbEntity
  8
0
  6
Continuous
 62
     7
370
    15
100
AcDbLine
 10
258.3830541477
 20
41.9690522779
 30
0.0
 11
261.8478773755
 21
39.968852404
 31
0.0
  0
LINE
  5
21C
330
1F
100
AcDbEntity
  8
0
  6
Continuous
 62
     7
370
    15
100
AcDbLine
 10
253.0584682935
 20
37.208623137
 30
0.0
 11
255.0624851331
 21
36.0517288407
 31
0.0
  0
ARC
  5
21D
330
1F
100
AcDbEntity
  8
0
  6
Continuous
 62
     7
370
    15
100
AcDbCircle
 10
255.8210936061
 20
41.6802486249
 30
0.0
 40
25.27653893634597
100
AcDbArc
 50
128.797149969
 51
166.2325933909
  0
LINE
  5
21E
330
1F
100
AcDbEntity
  8
0
  6
Continuous
 62
     7
370
    15
100
AcDbLine
 10
239.4383664558
 20
36.7328946537
 30
0.0
 11
241.6083621925
 21
35.4801827796
 31
0.0
  0
SPLINE
  5
21F
330
1F
100
AcDbEntity
  8
0
  6
Continuous
 62
     7
370
    15
100
AcDbSpline
210
0.0
220
0.0
230
1.0
 70
     8
 71
     3
 72
    14
 73
    10
 74
     0
 42
0.000000001
 43
0.00000001
 40
0.0
 40
0.0
 40
0.0
 40
0.0
 40
0.1249999999999983
 40
0.1249999999999983
 40
0.2499999999999966
 40
0.2499999999999966
 40
0.4999999999999968
 40
0.4999999999999968
 40
1.0
 40
1.0
 40
1.0
 40
1.0
 10
239.1900570008679
 20
37.44364195978704
 30
0.0
 10
239.2144863495116
 20
37.42953919700073
 30
0.0
 10
239.2374649035777
 20
37.40225706714105
 30
0.0
 10
239.2743480170695
 20
37.34450366363455
 30
0.0
 10
239.2894731633864
 20
37.31335608196395
 30
0.0
 10
239.3291905238456
 20
37.22051898040797
 30
0.0
 10
239.3486526417346
 20
37.1585685105912
 30
0.0
 10
239.3995207629287
 20
36.97265380509369
 30
0.0
 10
239.4218049903438
 20
36.85112116012042
 30
0.0
 10
239.4383664558024
 20
36.73289465367287
 30
0.0
  0
LINE
  5
220
330
1F
100
AcDbEntity
  8
0
  6
Continuous
 62
     7
370
    15
100
AcDbLine
 10
238.4051684738
 20
37.8967484618
 30
0.0
 11
239.1900570009
 21
37.4436419598
 31
0.0
  0
SPLINE
  5
221
330
1F
100
AcDbEntity
  8
0
  6
Continuous
 62
     7
370
    15
100
AcDbSpline
210
0.0
220
0.0
230
1.0
 70
     8
 71
     3
 72
    14
 73
    10
 74
     0
 42
0.000000001
 43
0.00000001
 40
0.0
 40
0.0
 40
0.0
 40
0.0
 40
0.5
 40
0.5
 40
0.75
 40
0.75
 40
0.875
 40
0.875
 40
1.0
 40
1.0
 40
1.0
 40
1.0
 10
238.1568590188162
 20
37.47269314999094
 30
0.0
 10
238.17348310027
 20
37.57217289422105
 30
0.0
 10
238.1959005018743
 20
37.66800802761705
 30
0.0
 10
238.246331559723
 20
37.79422397719069
 30
0.0
 10
238.2658662536542
 20
37.83405752588494
 30
0.0
 10
238.3058094109897
 20
37.88131785735679
 30
0.0
 10
238.3208263781553
 20
37.89492047096206
 30
0.0
 10
238.357887745677
 20
37.91014087253776
 30
0.0
 10
238.3808714080254
 20
37.91077485933163
 30
0.0
 10
238.4051684737508
 20
37.8967484618486
 30
0.0
  0
LINE
  5
222
330
1F
100
AcDbEntity
  8
0
  6
Continuous
 62
     7
370
    15
100
AcDbLine
 10
237.0121681148
 20
38.133509143
 30
0.0
 11
238.1568590188
 21
37.47269315
 31
0.0
  0
ARC
  5
223
330
1F
100
AcDbEntity
  8
0
  6
Continuous
 62
     7
370
    15
100
AcDbCircle
 10
240.280779467
 20
43.2866291116
 30
0.0
 40
6.102332798378684
100
AcDbArc
 50
182.3868561234
 51
237.6131440222
  0
LINE
  5
224
330
1F
100
AcDbEntity
  8
0
  6
Continuous
 62
     7
370
    15
100
AcDbLine
 10
234.1837409901
 20
43.8490294261
 30
0.0
 11
234.1837409901
 21
43.0324886142
 31
0.0
  0
ARC
  5
225
330
1F
100
AcDbEntity
  8
0
  6
Continuous
 62
     7
370
    15
100
AcDbCircle
 10
236.8030207745
 20
43.9263852273
 30
0.0
 40
2.620421818933565
100
AcDbArc
 50
154.1749241122
 51
181.6916379215
  0
LINE
  5
226
330
1F
100
AcDbEntity
  8
0
  6
Continuous
 62
     7
370
    15
100
AcDbLine
 10
255.1338317351
 20
35.9936026713
 30
0.0
 11
253.5726089302
 21
36.1331995161
 31
0.0
  0
SPLINE
  5
227
330
1F
100
AcDbEntity
  8
0
  6
Continuous
 62
     7
370
    15
100
AcDbSpline
210
0.0
220
0.0
230
1.0
 70
     8
 71
     3
 72
    16
 73
    12
 74
     0
 42
0.000000001
 43
0.00000001
 40
0.0
 40
0.0
 40
0.0
 40
0.0
 40
0.2499999999999971
 40
0.2499999999999971
 40
0.4999999999999941
 40
0.4999999999999941
 40
0.6249999999999927
 40
0.6249999999999927
 40
0.7499999999999911
 40
0.7499999999999911
 40
1.0
 40
1.0
 40
1.0
 40
1.0
 10
255.0383833241394
 20
35.68017765516786
 30
0.0
 10
255.0694320782134
 20
35.67740142867974
 30
0.0
 10
255.1001058019637
 20
35.67804876541452
 30
0.0
 10
255.156585331933
 20
35.69214960706265
 30
0.0
 10
255.1831527191262
 20
35.70506768782136
 30
0.0
 10
255.2083746420524
 20
35.74712360617831
 30
0.0
 10
255.2137452692734
 20
35.76525153311733
 30
0.0
 10
255.2147745429106
 20
35.80791737444314
 30
0.0
 10
255.2103752484359
 20
35.8323792577558
 30
0.0
 10
255.1872484523325
 20
35.90524465467962
 30
0.0
 10
255.1612210033562
 20
35.95131891454059
 30
0.0
 10
255.1338317350648
 20
35.9936026712567
 30
0.0
  0
SPLINE
  5
228
330
1F
100
AcDbEntity
  8
0
  6
Continuous
 62
     7
370
    15
100
AcDbSpline
210
0.0
220
0.0
230
1.0
 70
     8
 71
     3
 72
     8
 73
     4
 74
     0
 42
0.000000001
 43
0.00000001
 40
0.0
 40
0.0
 40
0.0
 40
0.0
 40
1.0
 40
1.0
 40
1.0
 40
1.0
 10
255.062485133092
 20
36.05172884073691
 30
0.0
 10
255.1014412154721
 20
36.0292399730679
 30
0.0
 10
255.1239231892637
 20
36.00938573139702
 30
0.0
 10
255.1338317350648
 20
35.99360267125675
 30
0.0
  0
SPLINE
  5
229
330
1F
100
AcDbEntity
  8
0
  6
Continuous
 62
     7
370
    15
100
AcDbSpline
210
0.0
220
0.0
230
1.0
 70
     8
 71
     3
 72
     8
 73
     4
 74
     0
 42
0.000000001
 43
0.00000001
 40
0.0
 40
0.0
 40
0.0
 40
0.0
 40
1.0
 40
1.0
 40
1.0
 40
1.0
 10
261.8478773754987
 20
39.96885240395885
 30
0.0
 10
261.8868334578788
 20
39.9463635362898
 30
0.0
 10
261.9375017813464
 20
39.94278092793538
 30
0.0
 10
261.9886628078817
 20
39.95081241801601
 30
0.0
  0
SPLINE
  5
22A
330
1F
100
AcDbEntity
  8
0
  6
Continuous
 62
     7
370
    15
100
AcDbSpline
210
0.0
220
0.0
230
1.0
 70
     8
 71
     3
 72
    16
 73
    12
 74
     0
 42
0.000000001
 43
0.00000001
 40
0.0
 40
0.0
 40
0.0
 40
0.0
 40
0.2500000000000017
 40
0.2500000000000017
 40
0.3750000000000026
 40
0.3750000000000026
 40
0.5000000000000036
 40
0.5000000000000036
 40
0.7500000000000018
 40
0.7500000000000018
 40
1.0
 40
1.0
 40
1.0
 40
1.0
 10
261.9886628078818
 20
39.95081241801594
 30
0.0
 10
262.0049785150281
 20
39.90227366697646
 30
0.0
 10
262.0273533320575
 20
39.85344161364301
 30
0.0
 10
262.0814879694007
 20
39.79924081829159
 30
0.0
 10
262.1034217590825
 20
39.78491277984622
 30
0.0
 10
262.1515367788544
 20
39.77042466568058
 30
0.0
 10
262.1775050925572
 20
39.77030808943684
 30
0.0
 10
262.2511527061612
 20
39.78539902227851
 30
0.0
 10
262.2945731981687
 20
39.81283577194477
 30
0.0
 10
262.3717768452937
 20
39.87574372827645
 30
0.0
 10
262.406399772668
 20
39.91279865974752
 30
0.0
 10
262.4376646094006
 20
39.95169181941369
 30
0.0
  0
ARC
  5
22B
330
1F
100
AcDbEntity
  8
0
  6
Continuous
 62
     7
370
    15
100
AcDbCircle
 10
245.5750727321
 20
35.7356540436
 30
0.0
 40
5.435608459497309
100
AcDbArc
 50
217.1306917148
 51
262.9237077868
  0
SPLINE
  5
22C
330
1F
100
AcDbEntity
  8
0
  6
Continuous
 62
     7
370
    15
100
AcDbSpline
210
0.0
220
0.0
230
1.0
 70
     8
 71
     3
 72
    12
 73
     8
 74
     0
 42
0.000000001
 43
0.00000001
 40
0.0
 40
0.0
 40
0.0
 40
0.0
 40
0.2499999999999999
 40
0.2499999999999999
 40
0.4999999999999998
 40
0.4999999999999998
 40
1.0
 40
1.0
 40
1.0
 40
1.0
 10
240.057352566764
 20
34.82972641485251
 30
0.0
 10
240.0855947668364
 20
34.81342253978849
 30
0.0
 10
240.1201408987418
 20
34.80046674637849
 30
0.0
 10
240.1948649584395
 20
34.78375500818595
 30
0.0
 10
240.2351553497411
 20
34.77986809939849
 30
0.0
 10
240.3562683671774
 20
34.78213149728779
 30
0.0
 10
240.4343859295954
 20
34.80246070871453
 30
0.0
 10
240.4910354023309
 20
34.83516375322088
 30
0.0
  0
ARC
  5
22D
330
1F
100
AcDbEntity
  8
0
  6
Continuous
 62
     7
370
    15
100
AcDbCircle
 10
244.857261193
 20
37.2657936973
 30
0.0
 40
6.409553223800164
100
AcDbArc
 50
194.716105919
 51
237.9533567894
  0
LINE
  5
22E
330
1F
100
AcDbEntity
  8
0
  6
Continuous
 62
     7
370
    15
100
AcDbLine
 10
238.6579644991
 20
35.6375759507
 30
0.0
 11
240.0573525668
 21
34.8297264149
 31
0.0
  0
SPLINE
  5
22F
330
1F
100
AcDbEntity
  8
0
  6
Continuous
 62
     7
370
    15
100
AcDbSpline
210
0.0
220
0.0
230
1.0
 70
     8
 71
     3
 72
     8
 73
     4
 74
     0
 42
0.000000001
 43
0.00000001
 40
0.0
 40
0.0
 40
0.0
 40
0.0
 40
1.0
 40
1.0
 40
1.0
 40
1.0
 10
239.0847556634394
 20
36.48888823790848
 30
0.0
 10
238.9415909667488
 20
36.20526619090148
 30
0.0
 10
238.7994022698962
 20
35.92148304491747
 30
0.0
 10
238.6579644991411
 20
35.63757595073037
 30
0.0
  0
LINE
  5
230
330
1F
100
AcDbEntity
  8
0
  6
Continuous
 62
     7
370
    15
100
AcDbLine
 10
239.3299242678
 20
36.6304210606
 30
0.0
 11
239.0847556634
 21
36.4888882379
 31
0.0
  0
SPLINE
  5
231
330
1F
100
AcDbEntity
  8
0
  6
Continuous
 62
     7
370
    15
100
AcDbSpline
210
0.0
220
0.0
230
1.0
 70
     8
 71
     3
 72
    10
 73
     6
 74
     0
 42
0.000000001
 43
0.00000001
 40
0.0
 40
0.0
 40
0.0
 40
0.0
 40
0.5
 40
0.5
 40
1.0
 40
1.0
 40
1.0
 40
1.0
 10
239.4383664558024
 20
36.73289465367287
 30
0.0
 10
239.4277135888324
 20
36.71361900646674
 30
0.0
 10
239.4129088256803
 20
36.69500762504169
 30
0.0
 10
239.3761230543494
 20
36.66037735081016
 30
0.0
 10
239.3545538337553
 20
36.64463940637506
 30
0.0
 10
239.3299242678055
 20
36.6304210605982
 30
0.0
  0
SPLINE
  5
232
330
1F
100
AcDbEntity
  8
0
  6
Continuous
 62
     7
370
    15
100
AcDbSpline
210
0.0
220
0.0
230
1.0
 70
     8
 71
     3
 72
    14
 73
    10
 74
     0
 42
0.000000001
 43
0.00000001
 40
0.0
 40
0.0
 40
0.0
 40
0.0
 40
0.5000000000000002
 40
0.5000000000000002
 40
0.7500000000000002
 40
0.7500000000000002
 40
0.8750000000000001
 40
0.8750000000000001
 40
1.0
 40
1.0
 40
1.0
 40
1.0
 10
223.5170571991237
 20
48.12795400080968
 30
0.0
 10
223.8322231429635
 20
47.90086600991382
 30
0.0
 10
224.1484987982295
 20
47.67101963486569
 30
0.0
 10
224.6273232868005
 20
47.31571103287657
 30
0.0
 10
224.7876432972245
 20
47.19557271868103
 30
0.0
 10
225.0306958331782
 20
47.00930388443722
 30
0.0
 10
225.1121392711948
 20
46.94621064321021
 30
0.0
 10
225.2768007202282
 20
46.81586540079807
 30
0.0
 10
225.3597067382944
 20
46.74934095882082
 30
0.0
 10
225.4457255663791
 20
46.67554748749727
 30
0.0
  0
SPLINE
  5
233
330
1F
100
AcDbEntity
  8
0
  6
Continuous
 62
     7
370
    15
100
AcDbSpline
210
0.0
220
0.0
230
1.0
 70
     8
 71
     3
 72
     8
 73
     4
 74
     0
 42
0.000000001
 43
0.00000001
 40
0.0
 40
0.0
 40
0.0
 40
0.0
 40
1.0
 40
1.0
 40
1.0
 40
1.0
 10
225.4457255663791
 20
46.67554748749726
 30
0.0
 10
225.7473780396166
 20
46.41676712941543
 30
0.0
 10
226.0526575831401
 20
46.16919211401076
 30
0.0
 10
226.3573171562668
 20
45.92821925744424
 30
0.0
  0
SPLINE
  5
234
330
1F
100
AcDbEntity
  8
0
  6
Continuous
 62
     7
370
    15
100
AcDbSpline
210
0.0
220
0.0
230
1.0
 70
     8
 71
     3
 72
    14
 73
    10
 74
     0
 42
0.000000001
 43
0.00000001
 40
0.0
 40
0.0
 40
0.0
 40
0.0
 40
0.1250000000000022
 40
0.1250000000000022
 40
0.2500000000000044
 40
0.2500000000000044
 40
0.500000000000003
 40
0.500000000000003
 40
1.0
 40
1.0
 40
1.0
 40
1.0
 10
226.3573171562668
 20
45.92821925744418
 30
0.0
 10
226.3765125321924
 20
45.91303652570799
 30
0.0
 10
226.3941246055927
 20
45.90166870721121
 30
0.0
 10
226.419969535512
 20
45.89040023799875
 30
0.0
 10
226.4281078997597
 20
45.8900167677617
 30
0.0
 10
226.4450579907277
 20
45.89579256045609
 30
0.0
 10
226.4472272632375
 20
45.90845798607413
 30
0.0
 10
226.4460517154229
 20
45.9528948131179
 30
0.0
 10
226.4339781948187
 20
45.99337808389134
 30
0.0
 10
226.4191999667786
 20
46.03738175377384
 30
0.0
  0
SPLINE
  5
235
330
1F
100
AcDbEntity
  8
0
  6
Continuous
 62
     7
370
    15
100
AcDbSpline
210
0.0
220
0.0
230
1.0
 70
     8
 71
     3
 72
    14
 73
    10
 74
     0
 42
0.000000001
 43
0.00000001
 40
0.0
 40
0.0
 40
0.0
 40
0.0
 40
0.25
 40
0.25
 40
0.5
 40
0.5
 40
0.75
 40
0.75
 40
1.0
 40
1.0
 40
1.0
 40
1.0
 10
226.4191999667779
 20
46.03738175377454
 30
0.0
 10
226.4011437198314
 20
46.09114605676131
 30
0.0
 10
226.3982209217302
 20
46.13569666585836
 30
0.0
 10
226.3928071931869
 20
46.22795801570308
 30
0.0
 10
226.3912399151457
 20
46.27525241862332
 30
0.0
 10
226.3811015153386
 20
46.38001347345111
 30
0.0
 10
226.3727865175944
 20
46.43727468048612
 30
0.0
 10
226.3439863429356
 20
46.56689603786054
 30
0.0
 10
226.323332946265
 20
46.63969023747359
 30
0.0
 10
226.2946434291039
 20
46.71937693643335
 30
0.0
  0
ARC
  5
236
330
1F
100
AcDbEntity
  8
0
  6
Continuous
 62
     7
370
    15
100
AcDbCircle
 10
236.6496107065
 20
49.8059384344
 30
0.0
 40
10.80519362138126
100
AcDbArc
 50
163.4019732888
 51
196.5980267112
  0
SPLINE
  5
237
330
1F
100
AcDbEntity
  8
0
  6
Continuous
 62
     7
370
    15
100
AcDbSpline
210
0.0
220
0.0
230
1.0
 70
     8
 71
     3
 72
    14
 73
    10
 74
     0
 42
0.000000001
 43
0.00000001
 40
0.0
 40
0.0
 40
0.0
 40
0.0
 40
0.25
 40
0.25
 40
0.5
 40
0.5
 40
0.75
 40
0.75
 40
1.0
 40
1.0
 40
1.0
 40
1.0
 10
226.4191999667779
 20
54.35370494869753
 30
0.0
 10
226.4011437198314
 20
54.23286286975296
 30
0.0
 10
226.3982209217302
 20
54.10776860318686
 30
0.0
 10
226.3928071931869
 20
53.8598172925355
 30
0.0
 10
226.3912399151457
 20
53.73590866822174
 30
0.0
 10
226.3811015153386
 20
53.48975292898154
 30
0.0
 10
226.3727865175944
 20
53.36746498712012
 30
0.0
 10
226.3439863429356
 20
53.12546780991135
 30
0.0
 10
226.323332946265
 20
53.00531084273175
 30
0.0
 10
226.2946434291039
 20
52.89249993232647
 30
0.0
  0
SPLINE
  5
238
330
1F
100
AcDbEntity
  8
0
  6
Continuous
 62
     7
370
    15
100
AcDbSpline
210
0.0
220
0.0
230
1.0
 70
     8
 71
     3
 72
    14
 73
    10
 74
     0
 42
0.000000001
 43
0.00000001
 40
0.0
 40
0.0
 40
0.0
 40
0.0
 40
0.125
 40
0.125
 40
0.25
 40
0.25
 40
0.5
 40
0.5
 40
1.0
 40
1.0
 40
1.0
 40
1.0
 10
226.3573171562669
 20
54.89899051299155
 30
0.0
 10
226.3765125321924
 20
54.89670370501772
 30
0.0
 10
226.3941246055928
 20
54.8852054657449
 30
0.0
 10
226.419969535512
 20
54.84851396321838
 30
0.0
 10
226.4281078997597
 20
54.82543254811631
 30
0.0
 10
226.4450579907277
 20
54.75410002903921
 30
0.0
 10
226.4472272632375
 20
54.70285592343114
 30
0.0
 10
226.4460517154229
 20
54.55282044366955
 30
0.0
 10
226.4339781948187
 20
54.45260876878648
 30
0.0
 10
226.4191999667786
 20
54.35370494869785
 30
0.0
  0
SPLINE
  5
239
330
1F
100
AcDbEntity
  8
0
  6
Continuous
 62
     7
370
    15
100
AcDbSpline
210
0.0
220
0.0
230
1.0
 70
     8
 71
     3
 72
     8
 73
     4
 74
     0
 42
0.000000001
 43
0.00000001
 40
0.0
 40
0.0
 40
0.0
 40
0.0
 40
1.0
 40
1.0
 40
1.0
 40
1.0
 10
225.4457255663791
 20
54.95120332412764
 30
0.0
 10
225.7473780396167
 20
54.95854957127074
 30
0.0
 10
226.0526575831402
 20
54.9352856053008
 30
0.0
 10
226.3573171562669
 20
54.89899051299155
 30
0.0
  0
SPLINE
  5
23A
330
1F
100
AcDbEntity
  8
0
  6
Continuous
 62
     7
370
    15
100
AcDbSpline
210
0.0
220
0.0
230
1.0
 70
     8
 71
     3
 72
    14
 73
    10
 74
     0
 42
0.000000001
 43
0.00000001
 40
0.0
 40
0.0
 40
0.0
 40
0.0
 40
0.5000000000000002
 40
0.5000000000000002
 40
0.7500000000000002
 40
0.7500000000000002
 40
0.8750000000000001
 40
0.8750000000000001
 40
1.0
 40
1.0
 40
1.0
 40
1.0
 10
223.5170571991237
 20
55.58384266911262
 30
0.0
 10
223.8322231429635
 20
55.4464581753865
 30
0.0
 10
224.1484987982295
 20
55.31488466775534
 30
0.0
 10
224.6273232868005
 20
55.13998920123458
 30
0.0
 10
224.7876432972245
 20
55.08531805097007
 30
0.0
 10
225.0306958331782
 20
55.01628623525002
 30
0.0
 10
225.1121392711948
 20
54.99542395074123
 30
0.0
 10
225.2768007202282
 20
54.96261623731159
 30
0.0
 10
225.3597067382944
 20
54.94910847781894
 30
0.0
 10
225.4457255663791
 20
54.95120332412764
 30
0.0
  0
SPLINE
  5
23B
330
1F
100
AcDbEntity
  8
0
  6
Continuous
 62
     7
370
    15
100
AcDbSpline
210
0.0
220
0.0
230
1.0
 70
     8
 71
     3
 72
     8
 73
     4
 74
     0
 42
0.000000001
 43
0.00000001
 40
0.0000005163856998
 40
0.0000005163856998
 40
0.0000005163856998
 40
0.0000005163856998
 40
0.000026289209185
 40
0.000026289209185
 40
0.000026289209185
 40
0.000026289209185
 10
223.5170356121044
 20
55.5967217803038
 30
0.0
 10
223.5170333109451
 20
55.59242894527727
 30
0.0
 10
223.5170405572694
 20
55.58813587760175
 30
0.0
 10
223.5170571991236
 20
55.58384266911262
 30
0.0
  0
LINE
  5
23C
330
1F
100
AcDbEntity
  8
0
  6
Continuous
 62
     7
370
    15
100
AcDbLine
 10
236.3008969565
 20
66.130787632
 30
0.0
 11
236.3812110083
 21
66.0919383713
 31
0.0
  0
LINE
  5
23D
330
1F
100
AcDbEntity
  8
0
  6
Continuous
 62
     7
370
    15
100
AcDbLine
 10
224.9995131951
 20
46.3761232329
 30
0.0
 11
224.9348336175
 21
46.4199103975
 31
0.0
  0
SPLINE
  5
23E
330
1F
100
AcDbEntity
  8
0
  6
Continuous
 62
     7
370
    15
100
AcDbSpline
210
0.0
220
0.0
230
1.0
 70
     8
 71
     3
 72
     8
 73
     4
 74
     0
 42
0.000000001
 43
0.00000001
 40
0.000000516385691
 40
0.000000516385691
 40
0.000000516385691
 40
0.000000516385691
 40
0.0000262892091854
 40
0.0000262892091854
 40
0.0000262892091854
 40
0.0000262892091854
 10
223.5170356121044
 20
48.12325072844236
 30
0.0
 10
223.5170333109451
 20
48.12482411414062
 30
0.0
 10
223.5170405572694
 20
48.12639184407336
 30
0.0
 10
223.5170571991236
 20
48.12795400080969
 30
0.0
  0
SPLINE
  5
23F
330
1F
100
AcDbEntity
  8
0
  6
Continuous
 62
     7
370
    15
100
AcDbSpline
210
0.0
220
0.0
230
1.0
 70
     8
 71
     3
 72
    17
 73
    13
 74
     0
 42
0.000000001
 43
0.00000001
 40
0.0
 40
0.0
 40
0.0
 40
0.0
 40
0.1260572105603505
 40
0.25280283277805
 40
0.3795253137584998
 40
0.5055267574752553
 40
0.630453283287305
 40
0.6932925487837494
 40
0.75531884693203
 40
0.8172562240247544
 40
0.88049363360995
 40
1.0
 40
1.0
 40
1.0
 40
1.0
 10
229.2059039105583
 20
46.25027961318778
 30
0.0
 10
229.0728572433596
 20
46.49521443815581
 30
0.0
 10
228.8060373271485
 20
46.98642170287846
 30
0.0
 10
228.6813406265558
 20
47.73844196684132
 30
0.0
 10
228.8171742947351
 20
48.363132260154
 30
0.0
 10
229.1842213026499
 20
48.77998560165921
 30
0.0
 10
229.6269501857914
 20
48.87400501947418
 30
0.0
 10
230.0029938970887
 20
48.79198754733383
 30
0.0
 10
230.2857656248808
 20
48.64993570732844
 30
0.0
 10
230.5560794755142
 20
48.43240607933087
 30
0.0
 10
230.8849234993635
 20
48.06761784031234
 30
0.0
 10
231.0698152898403
 20
47.70883714702381
 30
0.0
 10
231.1907263629388
 20
47.47421040388579
 30
0.0
  0
SPLINE
  5
240
330
1F
100
AcDbEntity
  8
0
  6
Continuous
 62
     7
370
    15
100
AcDbSpline
210
0.0
220
0.0
230
1.0
 70
     8
 71
     3
 72
    12
 73
     8
 74
     0
 42
0.000000001
 43
0.00000001
 40
0.0
 40
0.0
 40
0.0
 40
0.0
 40
0.1548677789717793
 40
0.3227702727029609
 40
0.4907979604354432
 40
0.661251224478764
 40
1.0
 40
1.0
 40
1.0
 40
1.0
 10
230.770595233132
 20
44.92135877968545
 30
0.0
 10
230.6962120015686
 20
44.94068245169455
 30
0.0
 10
230.541184944968
 20
44.98095620602493
 30
0.0
 10
230.2763232136891
 20
45.12688729580167
 30
0.0
 10
229.9948981554177
 20
45.33421457023729
 30
0.0
 10
229.6147141816409
 20
45.68342837797031
 30
0.0
 10
229.3692199617796
 20
46.02382760864174
 30
0.0
 10
229.2059039105583
 20
46.25027961318778
 30
0.0
  0
SPLINE
  5
241
330
1F
100
AcDbEntity
  8
0
  6
Continuous
 62
     7
370
    15
100
AcDbSpline
210
0.0
220
0.0
230
1.0
 70
     8
 71
     3
 72
    26
 73
    22
 74
     0
 42
0.000000001
 43
0.00000001
 40
0.0
 40
0.0
 40
0.0
 40
0.0
 40
0.1249999999999991
 40
0.1249999999999991
 40
0.1874999999999989
 40
0.1874999999999989
 40
0.2499999999999989
 40
0.2499999999999989
 40
0.3749999999999988
 40
0.3749999999999988
 40
0.499999999999999
 40
0.499999999999999
 40
0.6249999999999992
 40
0.6249999999999992
 40
0.6874999999999993
 40
0.6874999999999993
 40
0.7499999999999994
 40
0.7499999999999994
 40
0.8749999999999997
 40
0.8749999999999997
 40
1.0
 40
1.0
 40
1.0
 40
1.0
 10
263.5498856127444
 20
41.89295874499815
 30
0.0
 10
263.6361931418551
 20
42.00032449070147
 30
0.0
 10
263.7141911454097
 20
42.11448474948315
 30
0.0
 10
263.8177769548289
 20
42.29636681099775
 30
0.0
 10
263.8502492569526
 20
42.35923104378875
 30
0.0
 10
263.9091263020679
 20
42.48530455681171
 30
0.0
 10
263.9356656801324
 20
42.54873155650472
 30
0.0
 10
264.006739095783
 20
42.74016699506053
 30
0.0
 10
264.0429899797095
 20
42.87110628454639
 30
0.0
 10
264.0895308327499
 20
43.12251821702047
 30
0.0
 10
264.1004982819386
 20
43.24510547750725
 30
0.0
 10
264.0978625057021
 20
43.47554714618634
 30
0.0
 10
264.0845245531712
 20
43.58094936332521
 30
0.0
 10
264.0470365237662
 20
43.72405389103667
 30
0.0
 10
264.0315371704906
 20
43.76911871533194
 30
0.0
 10
263.9954746764647
 20
43.85153907300426
 30
0.0
 10
263.9747933336141
 20
43.8892870657561
 30
0.0
 10
263.9047105468892
 20
43.992275861141
 30
0.0
 10
263.846761457091
 20
44.04726179506457
 30
0.0
 10
263.7131561784516
 20
44.12457117347614
 30
0.0
 10
263.6362015312616
 20
44.14810507147818
 30
0.0
 10
263.5498856175877
 20
44.15582301842566
 30
0.0
  0
LINE
  5
242
330
1F
100
AcDbEntity
  8
0
  6
Continuous
 62
     7
370
    15
100
AcDbLine
 10
263.5498856176
 20
44.1558230184
 30
0.0
 11
261.9886628079
 21
44.2954198661
 31
0.0
  0
ARC
  5
243
330
1F
100
AcDbEntity
  8
0
  6
Continuous
 62
     7
370
    15
100
AcDbCircle
 10
244.0295335066
 20
39.3275888049
 30
0.0
 40
6.623523393472113
100
AcDbArc
 50
198.1114510494
 51
217.3575801744
  0
SPLINE
  5
244
330
1F
100
AcDbEntity
  8
0
  6
Continuous
 62
     7
370
    15
100
AcDbSpline
210
0.0
220
0.0
230
1.0
 70
     8
 71
     3
 72
     8
 73
     4
 74
     0
 42
0.000000001
 43
0.00000001
 40
0.0
 40
0.0
 40
0.0
 40
0.0
 40
1.0
 40
1.0
 40
1.0
 40
1.0
 10
236.2595057926659
 20
37.02217668992309
 30
0.0
 10
236.7513005914178
 20
37.10382697700484
 30
0.0
 10
237.2428806823205
 20
37.18591076449528
 30
0.0
 10
237.734181711373
 20
37.26855798469917
 30
0.0
  0
LINE
  5
245
330
1F
100
AcDbEntity
  8
0
  6
Continuous
 62
     7
370
    15
100
AcDbLine
 10
237.7341817114
 20
37.2685579847
 30
0.0
 11
237.9793503157
 21
37.4100908074
 31
0.0
  0
SPLINE
  5
246
330
1F
100
AcDbEntity
  8
0
  6
Continuous
 62
     7
370
    15
100
AcDbSpline
210
0.0
220
0.0
230
1.0
 70
     8
 71
     3
 72
    10
 73
     6
 74
     0
 42
0.000000001
 43
0.00000001
 40
0.0
 40
0.0
 40
0.0
 40
0.0
 40
0.5
 40
0.5
 40
1.0
 40
1.0
 40
1.0
 40
1.0
 10
237.9793503157393
 20
37.41009080738894
 30
0.0
 10
238.0041826190912
 20
37.42442619097679
 30
0.0
 10
238.0318576165846
 20
37.43702163111288
 30
0.0
 10
238.0919826260391
 20
37.45821952925315
 30
0.0
 10
238.1236770262338
 20
37.4665816949198
 30
0.0
 10
238.1568590188155
 20
37.47269314999105
 30
0.0
  0
ARC
  5
247
330
1F
100
AcDbEntity
  8
0
  6
Continuous
 62
     7
370
    15
100
AcDbCircle
 10
257.9869019934
 20
45.5846977964
 30
0.0
 40
2.574168997249381
100
AcDbArc
 50
320.7034755418
 51
349.7435996043
  0
LINE
  5
248
330
1F
100
AcDbEntity
  8
0
  6
Continuous
 62
     7
370
    15
100
AcDbLine
 10
261.9886628079
 20
39.950812418
 30
0.0
 11
263.5498856127
 21
41.892958745
 31
0.0
  0
LINE
  5
249
330
1F
100
AcDbEntity
  8
0
  6
Continuous
 62
     7
370
    15
100
AcDbLine
 10
258.3830541477
 20
41.9690522779
 30
0.0
 11
259.9789963678
 21
43.9543892274
 31
0.0
  0
SPLINE
  5
24A
330
1F
100
AcDbEntity
  8
0
  6
Continuous
 62
     7
370
    15
100
AcDbSpline
210
0.0
220
0.0
230
1.0
 70
     8
 71
     3
 72
    20
 73
    16
 74
     0
 42
0.000000001
 43
0.00000001
 40
0.0
 40
0.0
 40
0.0
 40
0.0
 40
0.0284238241239865
 40
0.0964089354083184
 40
0.1609415427279077
 40
0.2922184752391531
 40
0.3591180217428339
 40
0.4234670256625692
 40
0.5543020037254578
 40
0.6209316443556101
 40
0.6861625559083748
 40
0.8187966450135812
 40
0.8863538502270516
 40
0.9522122617152405
 40
1.0
 40
1.0
 40
1.0
 40
1.0
 10
230.2140367807675
 20
48.60271772475282
 30
0.0
 10
230.2096888324538
 20
48.58655496916205
 30
0.0
 10
230.194941307057
 20
48.53173356114271
 30
0.0
 10
230.1893119914454
 20
48.42934960892836
 30
0.0
 10
230.1872337538384
 20
48.25961902379682
 30
0.0
 10
230.2090537045777
 20
48.08121560423072
 30
0.0
 10
230.2514142963354
 20
47.89959727892632
 30
0.0
 10
230.3073856169893
 20
47.71670988057522
 30
0.0
 10
230.3827929359347
 20
47.53317299185819
 30
0.0
 10
230.4757122449878
 20
47.35222649841544
 30
0.0
 10
230.5799867003366
 20
47.17306419195921
 30
0.0
 10
230.6995375789412
 20
46.99890989777246
 30
0.0
 10
230.8308960175405
 20
46.83422750784666
 30
0.0
 10
230.9244341597401
 20
46.7261157155994
 30
0.0
 10
230.9858350193969
 20
46.66278959154093
 30
0.0
 10
231.0116538281959
 20
46.63616121698411
 30
0.0
  0
LINE
  5
24B
330
1F
100
AcDbEntity
  8
0
  6
Continuous
 62
     7
370
    15
100
AcDbLine
 10
257.8830959465
 20
58.5484079216
 30
0.0
 11
257.9781042618
 21
58.5694564429
 31
0.0
  0
LINE
  5
24C
330
1F
100
AcDbEntity
  8
0
  6
Continuous
 62
     7
370
    15
100
AcDbLine
 10
257.9781042618
 20
58.5694564429
 30
0.0
 11
259.3774923294
 21
57.7616069071
 31
0.0
  0
SPLINE
  5
24D
330
1F
100
AcDbEntity
  8
0
  6
Continuous
 62
     7
370
    15
100
AcDbSpline
210
0.0
220
0.0
230
1.0
 70
     8
 71
     3
 72
    12
 73
     8
 74
     0
 42
0.000000001
 43
0.00000001
 40
0.0
 40
0.0
 40
0.0
 40
0.0
 40
0.250000000000002
 40
0.250000000000002
 40
0.500000000000004
 40
0.500000000000004
 40
1.0
 40
1.0
 40
1.0
 40
1.0
 10
259.377492329431
 20
57.76160690706736
 30
0.0
 10
259.4097363003036
 20
57.74299285889374
 30
0.0
 10
259.4317893028372
 20
57.71874253609634
 30
0.0
 10
259.4526382470022
 20
57.66815467820879
 30
0.0
 10
259.4522570777749
 20
57.64131610977473
 30
0.0
 10
259.4265041448776
 20
57.56408199350592
 30
0.0
 10
259.3785527177689
 20
57.51729662267809
 30
0.0
 10
259.3146526686336
 20
57.48040790951061
 30
0.0
  0
SPLINE
  5
24E
330
1F
100
AcDbEntity
  8
0
  6
Continuous
 62
     7
370
    15
100
AcDbSpline
210
0.0
220
0.0
230
1.0
 70
     8
 71
     3
 72
    11
 73
     7
 74
     0
 42
0.000000001
 43
0.00000001
 40
0.0
 40
0.0
 40
0.0
 40
0.0
 40
0.2040717569185362
 40
0.3923020494249821
 40
0.7204098097566409
 40
1.0
 40
1.0
 40
1.0
 40
1.0
 10
229.4971732625272
 20
46.43320269510662
 30
0.0
 10
229.5767926605597
 20
46.31861816790842
 30
0.0
 10
229.729850847022
 20
46.09834395882131
 30
0.0
 10
230.0536053839552
 20
45.74750687806513
 30
0.0
 10
230.4383594141585
 20
45.42990935714609
 30
0.0
 10
230.6924150426673
 20
45.32220653714533
 30
0.0
 10
230.8093011724295
 20
45.27265453206571
 30
0.0
  0
SPLINE
  5
24F
330
1F
100
AcDbEntity
  8
0
  6
Continuous
 62
     7
370
    15
100
AcDbSpline
210
0.0
220
0.0
230
1.0
 70
     8
 71
     3
 72
    16
 73
    12
 74
     0
 42
0.000000001
 43
0.00000001
 40
0.0
 40
0.0
 40
0.0
 40
0.0
 40
0.1460145433272634
 40
0.2335492811860072
 40
0.328284659647779
 40
0.4359414636891987
 40
0.5278790605354984
 40
0.6640995323892502
 40
0.8013223013367583
 40
0.893041357694521
 40
1.0
 40
1.0
 40
1.0
 40
1.0
 10
230.4367807308232
 20
48.51517161705591
 30
0.0
 10
230.2899201245437
 20
48.58864251674811
 30
0.0
 10
230.0550175713491
 20
48.70615872725833
 30
0.0
 10
229.7381664815832
 20
48.69618879281398
 30
0.0
 10
229.4850373230705
 20
48.60845344979774
 30
0.0
 10
229.2763140482127
 20
48.42666123454044
 30
0.0
 10
229.1132831321907
 20
48.13479585952141
 30
0.0
 10
229.036255326409
 20
47.72491248516063
 30
0.0
 10
229.111654667299
 20
47.26034332241595
 30
0.0
 10
229.2703972049563
 20
46.81839865589347
 30
0.0
 10
229.417812087255
 20
46.56800353998237
 30
0.0
 10
229.4971732625272
 20
46.43320269510662
 30
0.0
  0
SPLINE
  5
250
330
1F
100
AcDbEntity
  8
0
  6
Continuous
 62
     7
370
    15
100
AcDbSpline
210
0.0
220
0.0
230
1.0
 70
     8
 71
     3
 72
    12
 73
     8
 74
     0
 42
0.000000001
 43
0.00000001
 40
0.0
 40
0.0
 40
0.0
 40
0.0
 40
0.1650673178747384
 40
0.3340107834835806
 40
0.7030644233364851
 40
0.8817865331755206
 40
1.0
 40
1.0
 40
1.0
 40
1.0
 10
261.4944818777948
 20
53.90079221598144
 30
0.0
 10
261.5053429355394
 20
53.90763759163217
 30
0.0
 10
261.5273200928195
 20
53.92148908757808
 30
0.0
 10
261.5633864265245
 20
53.95526362022701
 30
0.0
 10
261.584815504359
 20
53.99433529095104
 30
0.0
 10
261.5893511084452
 20
54.03192040274219
 30
0.0
 10
261.5849452615029
 20
54.04842771747787
 30
0.0
 10
261.5831912431829
 20
54.05499946925243
 30
0.0
  0
LINE
  5
251
330
1F
100
AcDbEntity
  8
0
  6
Continuous
 62
     7
370
    15
100
AcDbLine
 10
255.5796455553
 20
59.9540571821
 30
0.0
 11
255.4406368261
 21
59.7449510711
 31
0.0
  0
LINE
  5
252
330
1F
100
AcDbEntity
  8
0
  6
Continuous
 62
     7
370
    15
100
AcDbLine
 10
225.3568130454
 20
50.3029352034
 30
0.0
 11
225.8571958797
 21
50.0140703419
 31
0.0
  0
SPLINE
  5
253
330
1F
100
AcDbEntity
  8
0
  6
Continuous
 62
     7
370
    15
100
AcDbSpline
210
0.0
220
0.0
230
1.0
 70
     8
 71
     3
 72
    10
 73
     6
 74
     0
 42
0.000000001
 43
0.00000001
 40
0.0
 40
0.0
 40
0.0
 40
0.0
 40
0.0840381716605808
 40
0.7011125076932897
 40
1.0
 40
1.0
 40
1.0
 40
1.0
 10
223.5187227255946
 20
56.05651414859533
 30
0.0
 10
223.5181814107813
 20
56.06296012205917
 30
0.0
 10
223.5136653369697
 20
56.11673750120076
 30
0.0
 10
223.5280040634284
 20
56.1995375034418
 30
0.0
 10
223.5485528666439
 20
56.2811660878303
 30
0.0
 10
223.5552581463541
 20
56.30780231014172
 30
0.0
  0
SPLINE
  5
254
330
1F
100
AcDbEntity
  8
0
  6
Continuous
 62
     7
370
    15
100
AcDbSpline
210
0.0
220
0.0
230
1.0
 70
     8
 71
     3
 72
    10
 73
     6
 74
     0
 42
0.000000001
 43
0.00000001
 40
0.0
 40
0.0
 40
0.0
 40
0.0
 40
0.5
 40
0.5
 40
1.0
 40
1.0
 40
1.0
 40
1.0
 10
223.5714945493225
 20
56.11266395942546
 30
0.0
 10
223.5515684988258
 20
56.02870348540745
 30
0.0
 10
223.5382742346849
 20
55.94325762289368
 30
0.0
 10
223.5210057085441
 20
55.7708441519564
 30
0.0
 10
223.5170822539221
 20
55.68373254569009
 30
0.0
 10
223.5170356121044
 20
55.59672178030381
 30
0.0
  0
SPLINE
  5
255
330
1F
100
AcDbEntity
  8
0
  6
Continuous
 62
     7
370
    15
100
AcDbSpline
210
0.0
220
0.0
230
1.0
 70
     8
 71
     3
 72
    24
 73
    20
 74
     0
 42
0.000000001
 43
0.00000001
 40
0.0
 40
0.0
 40
0.0
 40
0.0
 40
0.249999999999999
 40
0.249999999999999
 40
0.3749999999999983
 40
0.3749999999999983
 40
0.4374999999999987
 40
0.4374999999999987
 40
0.4687499999999975
 40
0.4687499999999975
 40
0.4999999999999963
 40
0.4999999999999963
 40
0.5624999999999984
 40
0.5624999999999984
 40
0.6250000000000006
 40
0.6250000000000006
 40
0.7500000000000001
 40
0.7500000000000001
 40
1.0
 40
1.0
 40
1.0
 40
1.0
 10
223.5552581463541
 20
56.30780231014171
 30
0.0
 10
223.5850991756393
 20
56.41508136669795
 30
0.0
 10
223.6149287156804
 20
56.52096594006863
 30
0.0
 10
223.6595998725517
 20
56.67091398331893
 30
0.0
 10
223.6745526646434
 20
56.71991424608186
 30
0.0
 10
223.6961358029328
 20
56.78306452798461
 30
0.0
 10
223.7032655144624
 20
56.80270471221312
 30
0.0
 10
223.7121171397638
 20
56.82041464170111
 30
0.0
 10
223.7147552370337
 20
56.8241310081868
 30
0.0
 10
223.7179077750787
 20
56.82198265980459
 30
0.0
 10
223.7182877362155
 20
56.81582025073799
 30
0.0
 10
223.7162778109547
 20
56.78717516738526
 30
0.0
 10
223.7117011693563
 20
56.75887416239707
 30
0.0
 10
223.7017697832499
 20
56.70249515224778
 30
0.0
 10
223.6960795975149
 20
56.67302540429174
 30
0.0
 10
223.6784979968963
 20
56.58517098372541
 30
0.0
 10
223.6658171239681
 20
56.52594599067608
 30
0.0
 10
223.6265760603477
 20
56.34745268354629
 30
0.0
 10
223.5992726003112
 20
56.22970964937259
 30
0.0
 10
223.5714945493225
 20
56.11266395942548
 30
0.0
  0
ARC
  5
256
330
1F
100
AcDbEntity
  8
0
  6
Continuous
 62
     7
370
    15
100
AcDbCircle
 10
224.2341725863
 20
55.5180545255
 30
0.0
 40
0.7201267655271313
100
AcDbArc
 50
174.7583590299
 51
234.4349468916
  0
ARC
  5
257
330
1F
100
AcDbEntity
  8
0
  6
Continuous
 62
     7
370
    15
100
AcDbCircle
 10
225.7295065314
 20
48.0181581482
 30
0.0
 40
2.215172042338711
100
AcDbArc
 50
122.6235698331
 51
177.1589486026
  0
LINE
  5
258
330
1F
100
AcDbEntity
  8
0
  6
Continuous
 62
     7
370
    15
100
AcDbLine
 10
224.5352689608
 20
49.883844028
 30
0.0
 11
225.2793555917
 21
50.3133960967
 31
0.0
  0
SPLINE
  5
259
330
1F
100
AcDbEntity
  8
0
  6
Continuous
 62
     7
370
    15
100
AcDbSpline
210
0.0
220
0.0
230
1.0
 70
     8
 71
     3
 72
     8
 73
     4
 74
     0
 42
0.000000001
 43
0.00000001
 40
0.0
 40
0.0
 40
0.0
 40
0.0
 40
0.0001590976953043
 40
0.0001590976953043
 40
0.0001590976953043
 40
0.0001590976953043
 10
225.3568130454103
 20
50.30293520341973
 30
0.0
 10
225.3309929158508
 20
50.3064197528806
 30
0.0
 10
225.3051737713046
 20
50.30990673561711
 30
0.0
 10
225.2793555916545
 20
50.31339609673549
 30
0.0
  0
SPLINE
  5
25A
330
1F
100
AcDbEntity
  8
0
  6
Continuous
 62
     7
370
    15
100
AcDbSpline
210
0.0
220
0.0
230
1.0
 70
     8
 71
     3
 72
    10
 73
     6
 74
     0
 42
0.000000001
 43
0.00000001
 40
0.0
 40
0.0
 40
0.0
 40
0.0
 40
0.5
 40
0.5
 40
1.0
 40
1.0
 40
1.0
 40
1.0
 10
223.5714945493225
 20
47.92800834372149
 30
0.0
 10
223.5515684988259
 20
47.96652990523783
 30
0.0
 10
223.5382742346851
 20
47.9984932324314
 30
0.0
 10
223.5210057085444
 20
48.06093665592933
 30
0.0
 10
223.5170822539222
 20
48.09136003314212
 30
0.0
 10
223.5170356121044
 20
48.12325072844236
 30
0.0
  0
LINE
  5
25B
330
1F
100
AcDbEntity
  8
0
  6
Continuous
 62
     7
370
    15
100
AcDbLine
 10
223.527402178
 20
48.7251209049
 30
0.0
 11
223.5310021034
 21
48.5894840227
 31
0.0
  0
ARC
  5
25C
330
1F
100
AcDbEntity
  8
0
  6
Continuous
 62
     7
370
    15
100
AcDbCircle
 10
224.8641277767
 20
48.512815763
 30
0.0
 40
1.35348025455715
100
AcDbArc
 50
122.9135798094
 51
170.9753897871
  0
LINE
  5
25D
330
1F
100
AcDbEntity
  8
0
  6
Continuous
 62
     7
370
    15
100
AcDbLine
 10
224.5352689608
 20
49.883844028
 30
0.0
 11
224.1286825616
 21
49.6490503933
 31
0.0
  0
LINE
  5
25E
330
1F
100
AcDbEntity
  8
0
  6
Continuous
 62
     7
370
    15
100
AcDbLine
 10
223.6268073316
 20
47.8320183614
 30
0.0
 11
223.5714945493
 21
47.9280083437
 31
0.0
  0
LWPOLYLINE
  5
25F
330
1F
100
AcDbEntity
  8
0
  6
Continuous
 62
     7
370
     0
100
AcDbPolyline
 90
       26
 70
   128
 43
0.0
 10
240.4910354023
 20
42.1840310602
 10
240.7744057072
 20
43.2875834803
 10
241.1210633517
 20
44.3989494431
 10
241.5288506307
 20
45.511211461
 10
241.9952293493
 20
46.6174464691
 10
242.5172966212
 20
47.7107689165
 10
243.0918029373
 20
48.7843736241
 10
243.7151723915
 20
49.831578142
 10
244.3835249383
 20
50.8458643435
 10
245.0927005435
 20
51.8209189956
 10
245.8382850775
 20
52.7506730548
 10
246.6156377901
 20
53.6293394424
 10
247.4199201961
 20
54.4514490655
 10
248.2461261915
 20
55.2118848579
 10
249.0891132132
 20
55.9059136306
 10
249.9436342475
 20
56.5292155326
 10
250.8043704897
 20
57.0779109389
 10
251.6659644496
 20
57.5485845985
 10
252.5230532981
 20
57.9383068921
 10
253.3703022477
 20
58.2446520669
 10
254.2024377572
 20
58.4657133351
 10
255.0142803562
 20
58.6001147427
 10
255.8007768839
 20
58.6470197334
 10
256.557031941
 20
58.6061363561
 10
257.2783383607
 20
58.4777190816
 10
257.9602065075
 20
58.2625672188
  0
LWPOLYLINE
  5
260
330
1F
100
AcDbEntity
  8
0
  6
Continuous
 62
     7
370
     0
100
AcDbPolyline
 90
       26
 70
   128
 43
0.0
 10
240.0573525668
 20
42.1785937218
 10
240.3397970466
 20
43.2969489807
 10
240.6862556296
 20
44.4237350648
 10
241.0945937903
 20
45.5520098648
 10
241.5622957646
 20
46.6748220995
 10
242.0864800488
 20
47.7852541422
 10
242.6639171525
 20
48.8764646407
 10
243.2910494961
 20
49.941730666
 10
243.964013328
 20
50.9744891329
 10
244.6786625298
 20
51.9683772344
 10
245.4305941604
 20
52.9172716435
 10
246.215175582
 20
53.8153262381
 10
247.0275730024
 20
54.6570081197
 10
247.8627812551
 20
55.437131701
 10
248.7156546368
 20
56.1508906541
 10
249.5809386094
 20
56.7938875227
 10
250.4533021735
 20
57.3621608142
 10
251.3273707126
 20
57.852209407
 10
252.1977591055
 20
58.2610141201
 10
253.0591049046
 20
58.5860563149
 10
253.9061013736
 20
58.8253334121
 10
254.733530182
 20
58.9773712297
 10
255.5362935553
 20
59.0412330654
 10
256.3094456825
 20
59.0165254675
 10
257.0482231869
 20
58.9034006591
 10
257.7480744731
 20
58.7025556001
  0
LWPOLYLINE
  5
261
330
1F
100
AcDbEntity
  8
0
  6
Continuous
 62
     7
370
     0
100
AcDbPolyline
 90
        9
 70
   128
 43
0.0
 10
245.46209415
 20
39.7465123141
 10
245.4963534312
 20
38.9736029758
 10
245.5987907909
 20
38.247930082
 10
245.7683881604
 20
37.5767056958
 10
246.0034600049
 20
36.9666007468
 10
246.3016700749
 20
36.423678732
 10
246.6600546246
 20
35.9533354545
 10
247.0750518675
 20
35.5602453969
 10
247.481781445
 20
35.2825254511
  0
LWPOLYLINE
  5
262
330
1F
100
AcDbEntity
  8
0
  6
Continuous
 62
     7
370
     0
100
AcDbPolyline
 90
       25
 70
   128
 43
0.0
 10
257.2309890882
 20
52.1704782675
 10
256.9182400587
 20
52.3292173591
 10
256.3808840804
 20
52.5138556261
 10
255.8035308248
 20
52.6111612235
 10
255.191918288
 20
52.6201670845
 10
254.5521249501
 20
52.5407837048
 10
253.8905093648
 20
52.3738000322
 10
253.2136469649
 20
52.1208756254
 10
252.5282647131
 20
51.7845241607
 10
251.8411742462
 20
51.3680884502
 10
251.1592041779
 20
50.875707219
 10
250.489132233
 20
50.3122739731
 10
249.8376178878
 20
49.6833883651
 10
249.2111361843
 20
48.9953005427
 10
248.6159133793
 20
48.254849032
 10
248.0578650643
 20
47.4693927725
 10
247.5425373744
 20
46.6467379817
 10
247.0750518675
 20
45.7950605722
 10
246.6600546246
 20
44.922824897
 10
246.3016700749
 20
44.0386996259
 10
246.0034600049
 20
43.1514715931
 10
245.7683881604
 20
42.2699584695
 10
245.5987907909
 20
41.4029211285
 10
245.4963534312
 20
40.5589765766
 10
245.46209415
 20
39.7465123141
  0
LWPOLYLINE
  5
263
330
1F
100
AcDbEntity
  8
0
  6
Continuous
 62
     7
370
     0
100
AcDbPolyline
 90
       19
 70
   128
 43
0.0
 10
252.0605501439
 20
32.6392585447
 10
252.0065949342
 20
32.6018551567
 10
251.126044046
 20
32.0352886234
 10
250.2442947061
 20
31.5502448439
 10
249.3670940212
 20
31.1498852591
 10
248.5001594506
 20
30.8368193512
 10
247.6491415406
 20
30.6130876356
 10
246.8195870951
 20
30.4801483613
 10
246.0169030226
 20
30.4388680061
 10
245.2463210945
 20
30.489515629
 10
244.5128638453
 20
30.6317611165
 10
243.8213118367
 20
30.8646773345
 10
243.1761724984
 20
31.1867461707
 10
242.5816507495
 20
31.5958684301
 10
242.0416215914
 20
32.0893775167
 10
241.5596048511
 20
32.6640568139
 10
241.1387422397
 20
33.3161606505
 10
240.781776875
 20
34.041438714
 10
240.4910354023
 20
34.8351637532
  0
ARC
  5
264
330
1F
100
AcDbEntity
  8
0
  6
Continuous
 62
     7
370
     0
100
AcDbCircle
 10
254.9680300197
 20
52.3799869365
 30
0.0
 40
6.701300064527543
100
AcDbArc
 50
13.1170908933
 51
49.5620782406
  0
LWPOLYLINE
  5
265
330
1F
100
AcDbEntity
  8
0
  6
Continuous
 62
     7
370
     0
100
AcDbPolyline
 90
       34
 70
   128
 43
0.0
 10
242.6336670252
 20
39.7465123141
 10
242.6680904685
 20
40.6388458539
 10
242.7710755546
 20
41.5635296985
 10
242.9417689168
 20
42.5129016264
 10
243.1787561362
 20
43.4790948427
 10
243.4800734619
 20
44.4541031662
 10
243.8432240837
 20
45.4298473708
 10
244.2651988213
 20
46.3982421329
 10
244.742501059
 20
47.3512630283
 10
245.2711757201
 20
48.2810130258
 10
245.84684204
 20
49.1797879242
 10
246.4647298662
 20
50.0401401915
 10
247.1197191856
 20
50.854940678
 10
247.8063825504
 20
51.6174376901
 10
248.5190300516
 20
52.3213129375
 10
249.2517564678
 20
52.9607338882
 10
249.998490197
 20
53.5304020988
 10
250.7530435683
 20
54.0255971192
 10
251.5091641149
 20
54.4422156074
 10
252.2605863839
 20
54.7768053315
 10
253.0010838536
 20
55.0265937756
 10
253.7245205288
 20
55.189511114
 10
254.4249017854
 20
55.2642073623
 10
255.0964240437
 20
55.2500635638
 10
255.7335228587
 20
55.1471969187
 10
256.3309190292
 20
54.9564598122
 10
256.8836623422
 20
54.6794327521
 10
257.3871725925
 20
54.3184112719
 10
257.8372775357
 20
53.8763869092
 10
258.2302474605
 20
53.3570224172
 10
258.5628260943
 20
52.7646214135
 10
258.8322575858
 20
52.1040927196
 10
259.0363093408
 20
51.380909684
 10
259.0957612192
 20
51.0939682304
  0
LWPOLYLINE
  5
266
330
1F
100
AcDbEntity
  8
0
  6
Continuous
 62
     7
370
     0
100
AcDbPolyline
 90
       17
 70
   128
 43
0.0
 10
249.346553576
 20
34.206015414
 10
249.2517564678
 20
34.1733741654
 10
248.5190300516
 20
33.9668072034
 10
247.8063825504
 20
33.8478771597
 10
247.1197191856
 20
33.8175695262
 10
246.4647298662
 20
33.8761354414
 10
245.84684204
 20
34.0230896097
 10
245.2711757201
 20
34.2572143226
 10
244.742501059
 20
34.576569549
 10
244.2651988213
 20
34.9785090109
 10
243.8432240837
 20
35.4597021113
 10
243.4800734619
 20
36.0161615327
 10
243.1787561362
 20
36.6432762771
 10
242.9417689168
 20
37.3358498741
 10
242.7710755546
 20
38.0881434408
 10
242.6680904685
 20
38.8939232359
 10
242.6336670252
 20
39.7465123141
  0
LWPOLYLINE
  5
267
330
1F
100
AcDbEntity
  8
0
  6
Continuous
 62
     7
370
     0
100
AcDbPolyline
 90
       18
 70
   128
 43
0.0
 10
255.0383833241
 20
35.6801776552
 10
255.3154381536
 20
35.3118845022
 10
255.6487350214
 20
35.0213270839
 10
256.0327969881
 20
34.8132800188
 10
256.4613129108
 20
34.6911620645
 10
256.9272411521
 20
34.6569799383
 10
257.422925292
 20
34.7112953421
 10
257.9402199434
 20
34.8532157316
 10
258.470624602
 20
35.0804089837
 10
259.0054233316
 20
35.3891417187
 10
259.5358279901
 20
35.7743406503
 10
260.0531226415
 20
36.2296759523
 10
260.5488067814
 20
36.7476652747
 10
261.0147350227
 20
37.3197966976
 10
261.4432509455
 20
37.9366686053
 10
261.8273129122
 20
38.5881441784
 10
262.16060978
 20
39.2635179692
 10
262.4376646094
 20
39.9516918194
  0
LWPOLYLINE
  5
268
330
1F
100
AcDbEntity
  8
0
  6
Continuous
 62
     7
370
     0
100
AcDbPolyline
 90
       18
 70
   128
 43
0.0
 10
262.4376438097
 20
44.4047769328
 10
262.1605870778
 20
44.7730605129
 10
261.8272897936
 20
45.0636094939
 10
261.443228795
 20
45.2716494905
 10
261.014715084
 20
45.393761929
 10
260.5487901225
 20
45.4279402222
 10
260.0531101249
 20
45.3736227425
 10
259.5358202492
 20
45.2317020505
 10
259.005420753
 20
45.0045102284
 10
258.470627315
 20
44.6957805581
 10
257.9402278166
 20
44.3105861755
 10
257.4229379365
 20
43.8552567065
 10
256.9272579325
 20
43.3372742575
 10
256.4613329625
 20
42.7651504668
 10
256.0328192412
 20
42.1482866387
 10
255.6487582305
 20
41.4968192591
 10
255.3154609328
 20
40.8214534294
 10
255.0384041861
 20
40.1332869573
  0
LWPOLYLINE
  5
269
330
1F
100
AcDbEntity
  8
0
  6
Continuous
 62
     7
370
     0
100
AcDbPolyline
 90
       24
 70
   128
 43
0.0
 10
230.7365954318
 20
43.3489131076
 10
230.7709268758
 20
44.3777568245
 10
230.873709543
 20
45.4398956193
 10
231.044309744
 20
46.5287810531
 10
231.281675672
 20
47.6376997851
 10
231.5843438871
 20
48.7598149625
 10
231.9504483389
 20
49.8882083723
 10
232.377731872
 20
51.0159230937
 10
232.8635601411
 20
52.1360063904
 10
233.4049378535
 20
53.2415525766
 10
233.9985272355
 20
54.3257455924
 10
234.6406686112
 20
55.3819010272
 10
235.3274029655
 20
56.4035073316
 10
236.0544963527
 20
57.3842659631
 10
236.8174660003
 20
58.3181302184
 10
237.6116079468
 20
59.199342514
 10
238.4320260429
 20
60.022469883
 10
239.2736621383
 20
60.7824374715
 10
240.1313272666
 20
61.4745598266
 10
240.999733637
 20
62.0945697837
 10
241.8735272355
 20
62.6386447754
 10
242.747320834
 20
63.1034303983
 10
243.6157272044
 20
63.4860610946
 10
243.7515641978
 20
63.5386391984
  0
ARC
  5
26A
330
1F
100
AcDbEntity
  8
0
  6
Continuous
 62
     7
370
     0
100
AcDbCircle
 10
243.5640892964
 20
43.2883832703
 30
0.0
 40
12.82763667661269
100
AcDbArc
 50
179.7296370977
 51
188.6454256313
  0
LWPOLYLINE
  5
26B
330
1F
100
AcDbEntity
  8
0
  6
Continuous
 62
     7
370
     0
100
AcDbPolyline
 90
       19
 70
   128
 43
0.0
 10
238.4051684738
 20
44.1108131508
 10
238.6708043271
 20
45.1785705891
 10
239.003481483
 20
46.2552995002
 10
239.4007404485
 20
47.333039592
 10
239.8596442752
 20
48.4038230972
 10
240.3768002721
 20
49.4597336785
 10
240.9483850881
 20
50.4929649547
 10
241.5701729782
 20
51.4958782132
 10
242.2375670441
 20
52.4610588838
 10
242.94563322
 20
53.3813713545
 10
243.6891367496
 20
54.2500117252
 10
244.462580887
 20
55.0605581094
 10
245.2602475347
 20
55.8070181114
 10
246.0762395172
 20
56.483873128
 10
246.9045241793
 20
57.0861191483
 10
247.7389779854
 20
57.6093037477
 10
248.5734317916
 20
58.0495590055
 10
249.4017164536
 20
58.4036301002
 10
249.5512316277
 20
58.4585539103
  0
LWPOLYLINE
  5
26C
330
1F
100
AcDbEntity
  8
0
  6
Continuous
 62
     7
370
     0
100
AcDbPolyline
 90
       22
 70
   128
 43
0.0
 10
237.9793503157
 20
44.7589581144
 10
238.2812424858
 20
45.8424701266
 10
238.6484201759
 20
46.9310548
 10
239.0782706702
 20
48.0169661241
 10
239.567735294
 20
49.0924771109
 10
240.1133311779
 20
50.149934778
 10
240.7111760412
 20
51.1818146043
 10
241.3570158163
 20
52.1807740724
 10
242.0462549198
 20
53.1397049151
 10
242.7739889529
 20
54.0517836959
 10
243.5350395995
 20
54.9105203622
 10
244.3239914735
 20
55.7098044262
 10
245.1352306528
 20
56.4439484453
 10
245.9629846261
 20
57.1077284922
 10
246.8013633684
 20
57.6964213263
 10
247.6444012523
 20
58.205838003
 10
248.4860994973
 20
58.6323536807
 10
249.3204688557
 20
58.9729334141
 10
250.1415722293
 20
59.2251537499
 10
250.9435669167
 20
59.387219971
 10
251.7207461873
 20
59.4579788676
 10
251.8706277836
 20
59.4610996815
  0
LINE
  5
26D
330
1F
100
AcDbEntity
  8
0
  6
Continuous
 62
     7
370
     0
100
AcDbLine
 10
253.5726089302
 20
36.1331995161
 30
0.0
 11
253.6609972779
 21
35.8033367235
 31
0.0
  0
ARC
  5
26E
330
1F
100
AcDbEntity
  8
0
  6
Continuous
 62
     7
370
     0
100
AcDbCircle
 10
260.2334465006
 20
43.3000686146
 30
0.0
 40
1.931145282374304
100
AcDbArc
 50
33.28024678
 51
59.5302938419
  0
LWPOLYLINE
  5
26F
330
1F
100
AcDbEntity
  8
0
  6
Continuous
 62
     7
370
     0
100
AcDbPolyline
 90
       15
 70
   128
 43
0.0
 10
255.7054047395
 20
35.4424731339
 10
256.0630131484
 20
35.2838592804
 10
256.4890919294
 20
35.1959157584
 10
256.9496384039
 20
35.1957999604
 10
257.436578689
 20
35.2835139166
 10
257.9413761896
 20
35.4575199053
 10
258.4551812543
 20
35.7147674117
 10
258.968986319
 20
36.0507466058
 10
259.4737838196
 20
36.4595674055
 10
259.9607241047
 20
36.9340627356
 10
260.4212705792
 20
37.4659141746
 10
260.8473493602
 20
38.0457977859
 10
261.2314908214
 20
38.6635475764
 10
261.5669605434
 20
39.3083337176
 10
261.8478773755
 20
39.968852404
  0
LINE
  5
270
330
1F
100
AcDbEntity
  8
0
  6
Continuous
 62
     7
370
     0
100
AcDbLine
 10
253.1633553536
 20
36.369456577
 30
0.0
 11
253.5726089302
 21
36.1331995161
 31
0.0
  0
LINE
  5
271
330
1F
100
AcDbEntity
  8
0
  6
Continuous
 62
     7
370
     0
100
AcDbLine
 10
232.3862320713
 20
42.8113496149
 30
0.0
 11
234.1837409901
 21
43.8490294261
 31
0.0
  0
ARC
  5
272
330
1F
100
AcDbEntity
  8
0
  6
Continuous
 62
     7
370
     0
100
AcDbCircle
 10
247.0816334936
 20
36.8488268037
 30
0.0
 40
7.308713219121188
100
AcDbArc
 50
196.0370774696
 51
216.9588198245
  0
LWPOLYLINE
  5
273
330
1F
100
AcDbEntity
  8
0
  6
Continuous
 62
     7
370
     0
100
AcDbPolyline
 90
       22
 70
   128
 43
0.0
 10
223.5170356121
 20
55.5967217803
 10
223.8477976699
 20
56.559045132
 10
224.2389019467
 20
57.5175865724
 10
224.6869982236
 20
58.4641351871
 10
225.1882480851
 20
59.3905827927
 10
225.7383577996
 20
60.2889933921
 10
226.3326150994
 20
61.1516711546
 10
226.9659295463
 20
61.9712263389
 10
227.6328761368
 20
62.7406385937
 10
228.3277417726
 20
63.4533170947
 10
229.0445741995
 20
64.1031570018
 10
229.7772329946
 20
64.6845917535
 10
230.5194421656
 20
65.1926407502
 10
231.2648439111
 20
65.6229520184
 10
232.0070530821
 20
65.9718394902
 10
232.7397118772
 20
66.2363145776
 10
233.4565443041
 20
66.4141117738
 10
234.1514099399
 20
66.503708059
 10
234.8183565304
 20
66.5043359468
 10
235.4516709773
 20
66.4159900588
 10
236.0459282771
 20
66.2394271702
 10
236.3008969565
 20
66.130787632
  0
ARC
  5
274
330
1F
100
AcDbEntity
  8
0
  6
Continuous
 62
     7
370
     0
100
AcDbCircle
 10
227.4319837516
 20
49.9401782524
 30
0.0
 40
4.316021844464363
100
AcDbArc
 50
204.8960156114
 51
234.6494950998
  0
LINE
  5
275
330
1F
100
AcDbEntity
  8
0
  6
Continuous
 62
     7
370
     0
100
AcDbLine
 10
263.8150506557
 20
41.6651469664
 30
0.0
 11
263.5498856127
 21
41.892958745
 31
0.0
  0
LINE
  5
276
330
1F
100
AcDbEntity
  8
0
  6
Continuous
 62
     7
370
     0
100
AcDbLine
 10
232.3862320713
 20
41.994808803
 30
0.0
 11
234.1837409901
 21
43.0324886142
 31
0.0
  0
LINE
  5
277
330
1F
100
AcDbEntity
  8
0
  6
Continuous
 62
     7
370
     0
100
AcDbLine
 10
235.6732905234
 20
37.3605915615
 30
0.0
 11
237.0121681148
 21
38.133509143
 31
0.0
  0
LINE
  5
278
330
1F
100
AcDbEntity
  8
0
  6
Continuous
 62
     7
370
     0
100
AcDbLine
 10
239.4363208693
 20
36.7301394563
 30
0.0
 11
239.1900570009
 21
37.4436419598
 31
0.0
  0
ARC
  5
279
330
1F
100
AcDbEntity
  8
0
  6
Continuous
 62
     7
370
     0
100
AcDbCircle
 10
244.9997374214
 20
39.7616273776
 30
0.0
 40
6.853182689453833
100
AcDbArc
 50
195.7903786645
 51
209.373201769
  0
ARC
  5
27A
330
1F
100
AcDbEntity
  8
0
  6
Continuous
 62
     7
370
     0
100
AcDbCircle
 10
244.1739624251
 20
39.5140646619
 30
0.0
 40
6.542165174133064
100
AcDbArc
 50
198.7598389164
 51
214.0753920307
  0
LINE
  5
27B
330
1F
100
AcDbEntity
  8
0
  6
Continuous
 62
     7
370
     0
100
AcDbLine
 10
259.9789963678
 20
43.9543892274
 30
0.0
 11
263.5498856127
 21
41.892958745
 31
0.0
  0
LINE
  5
27C
330
1F
100
AcDbEntity
  8
0
  6
Continuous
 62
     7
370
     0
100
AcDbLine
 10
254.7267168015
 20
60.446442471
 30
0.0
 11
254.1857278236
 21
60.1341361817
 31
0.0
  0
ARC
  5
27D
330
1F
100
AcDbEntity
  8
0
  6
Continuous
 62
     7
370
     0
100
AcDbCircle
 10
227.2794733412
 20
54.1006311689
 30
0.0
 40
1.102095792745807
100
AcDbArc
 50
159.4111972489
 51
213.1915491986
  0
ARC
  5
27E
330
1F
100
AcDbEntity
  8
0
  6
Continuous
 62
     7
370
     0
100
AcDbCircle
 10
225.9476625323
 20
53.9291463462
 30
0.0
 40
0.6345057597344649
100
AcDbArc
 50
41.9989524423
 51
61.7721687694
  0
LINE
  5
27F
330
1F
100
AcDbEntity
  8
0
  6
Continuous
 62
     7
370
     0
100
AcDbLine
 10
226.2477703046
 20
54.4881927522
 30
0.0
 11
226.3573171563
 21
54.898990513
 31
0.0
  0
LINE
  5
280
330
1F
100
AcDbEntity
  8
0
  6
Continuous
 62
     7
370
     0
100
AcDbLine
 10
226.2477703046
 20
54.4881927522
 30
0.0
 11
225.4457255664
 21
54.9512033241
 31
0.0
  0
LINE
  5
281
330
1F
100
AcDbEntity
  8
0
  6
Continuous
 62
     7
370
     0
100
AcDbLine
 10
223.5714945493
 20
56.1126639594
 30
0.0
 11
223.5552581464
 21
56.3078023101
 31
0.0
  0
ARC
  5
282
330
1F
100
AcDbEntity
  8
0
  6
Continuous
 62
     7
370
     0
100
AcDbCircle
 10
226.0378103232
 20
45.8355734399
 30
0.0
 40
0.4314912001452205
100
AcDbArc
 50
27.8850837497
 51
60.8831993912
  0
ARC
  5
283
330
1F
100
AcDbEntity
  8
0
  6
Continuous
 62
     7
370
     0
100
AcDbCircle
 10
227.4875089999
 20
46.6076316355
 30
0.0
 40
1.301173266866327
100
AcDbArc
 50
165.9701785416
 51
197.6766607319
  0
LINE
  5
284
330
1F
100
AcDbEntity
  8
0
  6
Continuous
 62
     7
370
     0
100
AcDbLine
 10
225.8559991389
 20
49.1214027252
 30
0.0
 11
224.5352689608
 21
49.883844028
 31
0.0
  0
LINE
  5
285
330
1F
100
AcDbEntity
  8
0
  6
Continuous
 62
     7
370
     0
100
AcDbLine
 10
226.2477703046
 20
46.2125369156
 30
0.0
 11
225.4457255664
 21
46.6755474875
 31
0.0
  0
LINE
  5
286
330
1F
100
AcDbEntity
  8
0
  6
Continuous
 62
     7
370
     0
100
AcDbLine
 10
226.2477703046
 20
46.2125369156
 30
0.0
 11
226.3573171563
 21
45.9282192574
 31
0.0
  0
OLE2FRAME
  5
287
330
1F
100
AcDbEntity
  8
0
100
AcDbOle2Frame
 70
     2
  3
Paintbrush-Bild
 10
13.8511154363
 20
38.264191557
 30
0.0
 11
51.6290888628
 21
31.9806341108
 31
0.0
 71
     2
 72
     0
 73
     1
 90
    12928
310
80552BED0767C5B32B40DDAF6807D121434000000000000000006FFBDDFB85D0
310
4940DDAF6807D121434000000000000000006FFBDDFB85D04940416F4BD60AFB
310
3F4000000000000000002BED0767C5B32B40416F4BD60AFB3F40000000000000
310
0000000000000100000000010000010000000100000000000100000000320000
310
D0CF11E0A1B11AE1000000000000000000000000000000003E000300FEFF0900
310
0600000000000000000000000100000001000000000000000010000002000000
310
01000000FEFFFFFF0000000000000000FFFFFFFFFFFFFFFFFFFFFFFFFFFFFFFF
310
FFFFFFFFFFFFFFFFFFFFFFFFFFFFFFFFFFFFFFFFFFFFFFFFFFFFFFFFFFFFFFFF
310
FFFFFFFFFFFFFFFFFFFFFFFFFFFFFFFFFFFFFFFFFFFFFFFFFFFFFFFFFFFFFFFF
310
FFFFFFFFFFFFFFFFFFFFFFFFFFFFFFFFFFFFFFFFFFFFFFFFFFFFFFFFFFFFFFFF
310
FFFFFFFFFFFFFFFFFFFFFFFFFFFFFFFFFFFFFFFFFFFFFFFFFFFFFFFFFFFFFFFF
310
FFFFFFFFFFFFFFFFFFFFFFFFFFFFFFFFFFFFFFFFFFFFFFFFFFFFFFFFFFFFFFFF
310
FFFFFFFFFFFFFFFFFFFFFFFFFFFFFFFFFFFFFFFFFFFFFFFFFFFFFFFFFFFFFFFF
310
FFFFFFFFFFFFFFFFFFFFFFFFFFFFFFFFFFFFFFFFFFFFFFFFFFFFFFFFFFFFFFFF
310
FFFFFFFFFFFFFFFFFFFFFFFFFFFFFFFFFFFFFFFFFFFFFFFFFFFFFFFFFFFFFFFF
310
FFFFFFFFFFFFFFFFFFFFFFFFFFFFFFFFFFFFFFFFFFFFFFFFFFFFFFFFFFFFFFFF
310
FFFFFFFFFFFFFFFFFFFFFFFFFFFFFFFFFFFFFFFFFFFFFFFFFFFFFFFFFFFFFFFF
310
FFFFFFFFFFFFFFFFFFFFFFFFFFFFFFFFFFFFFFFFFFFFFFFFFFFFFFFFFFFFFFFF
310
FFFFFFFFFFFFFFFFFFFFFFFFFFFFFFFFFFFFFFFFFFFFFFFFFFFFFFFFFFFFFFFF
310
FFFFFFFFFFFFFFFFFFFFFFFFFFFFFFFFFFFFFFFFFFFFFFFFFFFFFFFFFFFFFFFF
310
FDFFFFFFFEFFFFFFFEFFFFFFFEFFFFFF05000000060000000700000008000000
310
090000000A0000000B0000000C0000000D0000000E0000000F00000010000000
310
11000000120000001300000014000000150000001600000017000000FEFFFFFF
310
FFFFFFFFFFFFFFFFFFFFFFFFFFFFFFFFFFFFFFFFFFFFFFFFFFFFFFFFFFFFFFFF
310
FFFFFFFFFFFFFFFFFFFFFFFFFFFFFFFFFFFFFFFFFFFFFFFFFFFFFFFFFFFFFFFF
310
FFFFFFFFFFFFFFFFFFFFFFFFFFFFFFFFFFFFFFFFFFFFFFFFFFFFFFFFFFFFFFFF
310
FFFFFFFFFFFFFFFFFFFFFFFFFFFFFFFFFFFFFFFFFFFFFFFFFFFFFFFFFFFFFFFF
310
FFFFFFFFFFFFFFFFFFFFFFFFFFFFFFFFFFFFFFFFFFFFFFFFFFFFFFFFFFFFFFFF
310
FFFFFFFFFFFFFFFFFFFFFFFFFFFFFFFFFFFFFFFFFFFFFFFFFFFFFFFFFFFFFFFF
310
FFFFFFFFFFFFFFFFFFFFFFFFFFFFFFFFFFFFFFFFFFFFFFFFFFFFFFFFFFFFFFFF
310
FFFFFFFFFFFFFFFFFFFFFFFFFFFFFFFFFFFFFFFFFFFFFFFFFFFFFFFFFFFFFFFF
310
FFFFFFFFFFFFFFFFFFFFFFFFFFFFFFFFFFFFFFFFFFFFFFFFFFFFFFFFFFFFFFFF
310
FFFFFFFFFFFFFFFFFFFFFFFFFFFFFFFFFFFFFFFFFFFFFFFFFFFFFFFFFFFFFFFF
310
FFFFFFFFFFFFFFFFFFFFFFFFFFFFFFFFFFFFFFFFFFFFFFFFFFFFFFFFFFFFFFFF
310
FFFFFFFFFFFFFFFFFFFFFFFFFFFFFFFFFFFFFFFFFFFFFFFFFFFFFFFFFFFFFFFF
310
FFFFFFFFFFFFFFFFFFFFFFFFFFFFFFFFFFFFFFFFFFFFFFFFFFFFFFFFFFFFFFFF
310
52006F006F007400200045006E00740072007900000000000000000000000000
310
0000000000000000000000000000000000000000000000000000000000000000
310
16000500FFFFFFFFFFFFFFFF020000000A00030000000000C000000000000046
310
00000000000000000000000020E41816D91FD20103000000C000000000000000
310
01004F006C006500000000000000000000000000000000000000000000000000
310
0000000000000000000000000000000000000000000000000000000000000000
310
0A000200FFFFFFFFFFFFFFFFFFFFFFFF00000000000000000000000000000000
310
0000000000000000000000000000000000000000000000001400000000000000
310
010043006F006D0070004F0062006A0000000000000000000000000000000000
310
0000000000000000000000000000000000000000000000000000000000000000
310
120002010100000003000000FFFFFFFF00000000000000000000000000000000
310
0000000000000000000000000000000000000000010000004D00000000000000
310
01004F006C006500310030004E00610074006900760065000000000000000000
310
0000000000000000000000000000000000000000000000000000000000000000
310
1A000200FFFFFFFFFFFFFFFFFFFFFFFF00000000000000000000000000000000
310
0000000000000000000000000000000000000000040000002426000000000000
310
FEFFFFFF02000000FEFFFFFFFFFFFFFFFFFFFFFFFFFFFFFFFFFFFFFFFFFFFFFF
310
FFFFFFFFFFFFFFFFFFFFFFFFFFFFFFFFFFFFFFFFFFFFFFFFFFFFFFFFFFFFFFFF
310
FFFFFFFFFFFFFFFFFFFFFFFFFFFFFFFFFFFFFFFFFFFFFFFFFFFFFFFFFFFFFFFF
310
FFFFFFFFFFFFFFFFFFFFFFFFFFFFFFFFFFFFFFFFFFFFFFFFFFFFFFFFFFFFFFFF
310
FFFFFFFFFFFFFFFFFFFFFFFFFFFFFFFFFFFFFFFFFFFFFFFFFFFFFFFFFFFFFFFF
310
FFFFFFFFFFFFFFFFFFFFFFFFFFFFFFFFFFFFFFFFFFFFFFFFFFFFFFFFFFFFFFFF
310
FFFFFFFFFFFFFFFFFFFFFFFFFFFFFFFFFFFFFFFFFFFFFFFFFFFFFFFFFFFFFFFF
310
FFFFFFFFFFFFFFFFFFFFFFFFFFFFFFFFFFFFFFFFFFFFFFFFFFFFFFFFFFFFFFFF
310
FFFFFFFFFFFFFFFFFFFFFFFFFFFFFFFFFFFFFFFFFFFFFFFFFFFFFFFFFFFFFFFF
310
FFFFFFFFFFFFFFFFFFFFFFFFFFFFFFFFFFFFFFFFFFFFFFFFFFFFFFFFFFFFFFFF
310
FFFFFFFFFFFFFFFFFFFFFFFFFFFFFFFFFFFFFFFFFFFFFFFFFFFFFFFFFFFFFFFF
310
FFFFFFFFFFFFFFFFFFFFFFFFFFFFFFFFFFFFFFFFFFFFFFFFFFFFFFFFFFFFFFFF
310
FFFFFFFFFFFFFFFFFFFFFFFFFFFFFFFFFFFFFFFFFFFFFFFFFFFFFFFFFFFFFFFF
310
FFFFFFFFFFFFFFFFFFFFFFFFFFFFFFFFFFFFFFFFFFFFFFFFFFFFFFFFFFFFFFFF
310
FFFFFFFFFFFFFFFFFFFFFFFFFFFFFFFFFFFFFFFFFFFFFFFFFFFFFFFFFFFFFFFF
310
FFFFFFFFFFFFFFFFFFFFFFFFFFFFFFFFFFFFFFFFFFFFFFFFFFFFFFFFFFFFFFFF
310
0100000200000000000000000000000000000000000000000000000000000000
310
0000000000000000000000000000000000000000000000000000000000000000
310
0100FEFF030A0000FFFFFFFF0A00030000000000C00000000000004607000000
310
5042727573680007000000504272757368000700000050427275736800F439B2
310
7100000000000000000000000000000000000000000000000000000000000000
310
0000000000000000000000000000000000000000000000000000000000000000
310
0000000000000000000000000000000000000000000000000000000000000000
310
0000000000000000000000000000000000000000000000000000000000000000
310
0000000000000000000000000000000000000000000000000000000000000000
310
0000000000000000000000000000000000000000000000000000000000000000
310
0000000000000000000000000000000000000000000000000000000000000000
310
0000000000000000000000000000000000000000000000000000000000000000
310
0000000000000000000000000000000000000000000000000000000000000000
310
0000000000000000000000000000000000000000000000000000000000000000
310
0000000000000000000000000000000000000000000000000000000000000000
310
0000000000000000000000000000000000000000000000000000000000000000
310
20260000424D0E260000000000003E00000028000000B40200006E0000000100
310
01000000000000000000130B0000130B00000200000002000000000000FFFFFF
310
FFFFFFFFFFFFFFFFFFFFFFFFFFFFFFFFFFFFFFFFFFFFFFFFFFFFFFFFFFFFFFFF
310
FFFFFFFFFFFFFFFFFFFFFFFFFFFFFFFFFFFFFFFFFFFFFFFFFFFFFFFFFFFFFFFF
310
FFFFFFFFFFFFFFFFFFFFFFFFFFFFFFFFFFFFFFFFFFFFFFFFF000FFFFFFFFFFFF
310
FFFFFFFFFFFFFFFFFFFFFFFFFFFFFFFFFFFFFFFFFFFFFFFFFFFFFFFFFFFFFFFF
310
FFFFFFFFFFFFFFFFFFFFFFFFFFFFFFFFFFFFFFFFFFFFFFFFFFFFFFFFFFFFFFFF
310
FFFFFFFFFFFFFFFFFFFFFFFFFFFFFFFFF000FFFFFFFFFFFFFFFFFFFFFFFFFFFF
310
FFFFFFFFFFFFFFFFFFFFFFFFFFFFFFFFFFFFFFFFFFFFFFFFFFFFFFFFFFFFFFFF
310
FFFFFFFFFFFFFFFFFFFFFFFFFFFFFFFFFFFFFFFFFFFFFFFFFFFFFFFFFFFFFFFF
310
FFFFFFFFFFFFFFFFF000FFFFFFFFFFFFFFFFFFFFFFFFFFFFFFFFFFFFFFFFFFFF
310
FFFFFFFFFFFFFFFFFFFFFFFFFFFFFFFFFFFFFFFFFFFFFFFFFFFFFFFFFFFFFFFF
310
FFFFFFFFFFFFFFFFFFFFFFFFFFFFFFFFFFFFFFFFFFFFFFFFFFFFFFFFFFFFFFFF
310
F000FFFFFFFFFFFFFFFFFFFFFFFFFFFFFFFFFFFFFFFFFFFFFFFFFFFFFFFFFFFF
310
FFFFFFFFFFFFFFFFFFFFFFFFFFFFFFFFFFFFFFFFFFFFFFFFFFFFFFFFFFFFFFFF
310
FFFFFFFFFFFFFFFFFFFFFFFFFFFFFFFFFFFFFFFFFFFFFFFFF000FFFFFFFFFFFF
310
FFFFFFFFFFFFFFFFFFFFFFFFFFFFFFFFFFFFFFFFFFFFFFFFFFFFFFFFFFFFFFFF
310
FFFFFFFFFFFFFFFFFFFFFFFFFFFFFFFFFFFFFFFFFFFFFFFFFFFFFFFFFFFFFFFF
310
FFFFFFFFFFFFFFFFFFFFFFFFFFFFFFFFF000FFFFFFFFFFFFFFFFFFFFFFFFFFFF
310
FFFFFFFFFFFFFFFFFFFFFFFFFFFFFFFFFFFFFFFFFFFFFFFFFFFFFFFFFFFFFFFF
310
FFFFFFFFFFFFFFFFFFFFFFFFFFFFFFFFFFFFFFFFFFFFFFFFFFFFFFFFFFFFFFFF
310
FFFFFFFFFFFFFFFFF000FFFFFFFFFFFFFFFFFFFFFFFFFFFFFFFFFFFFFFFFFFFF
310
FFFFFFFFFFFFFFFFFFFFFFFFFFFFFFFFFFFFFFFFFFFFFFFFFFFFFFFFFFFFFFFF
310
FFFFFFFFFFFFFFFFFFFFFFFFFFFFFFFFFFFFFFFFFFFFFFFFFFFFFFFFFFFFFFFF
310
F000FFFFFFFFFFFFFFFFFFFFFFFFFFFFFFFFFFFFFFFFFFFFFFFFFFFFFFFFFFFF
310
FFFFFFFFFFFFFFFFFFFFFFFFFFFFFFFFFFFFFFFFFFFFFFFFFFFFFFFFFFFFFFFF
310
FFFFFFFFFFFFFFFFFFFFFFFFFFFFFFFFFFFFFFFFFFFFFFFFF000FFFFFFFFFFFF
310
FFFFFFFFFFFFFFFFFFFFFFFFFFFFFFFFFFFFFFFFFFFFFFFFFFFFFFFFFFFFFFFF
310
FFFFFFFFFFFFFFFFFFFFFFFFFFFFFFFFFFFFFFFFFFFFFFFFFFFFFFFFFFFFFFFF
310
FFFFFFFFFFFFFFFFFFFFFFFFFFFFFFFFF000FFFFFFFFFFFFFFFFFFFFFFFFFFFF
310
FFFFFFFFFFFFFFFFFFFFFFFFFFFFFFFFFFFFFFFFFFFFFFFFFFFFFFFFFFFFFFFF
310
FFFFFFFFFFFFFFFFFFFFFFFFFFFFFFFFFFFFFFFFFFFFFFFFFFFFFFFFFFFFFFFF
310
FFFFFFFFFFFFFFFFF000FFFFFFFFFFFFFFFFFFFFFFFFFFFFFFFFFFFFFFFFFFFF
310
FFFFFFFFFFFFFFFFFFFFFFFFFFFFFFFFFFFFFFFFFFFFFFFFFFFFFFFFFFFFFFFF
310
FFFFFFFFFFFFFFFFFFFFFFFFFFFFFFFFFFFFFFFFFFFFFFFFFFFFFFFFFFFFFFFF
310
F000FFFFFFFFFFFFFFFFFFFFFFFFFFFFFFFFFFFFFFFFFFFFFFFFFFFFFFFFFFFF
310
FFFFFFFFFFFFFFFFFFFFFFFFFFFFFFFFFFFFFFFFFFFFFFFFFFFFFFFFFFFFFFFF
310
FFFFFFFFFFFFFFFFFFFFFFFFFFFFFFFFFFFFFFFFFFFFFFFFF000FFFFFFFFFFFF
310
FFFFFFFFFFFFFFFFFFFFFFFFFFFFFFFFFFFFFFFFFFFFFFFFFFFFFFFFFFFFFFFF
310
FFFFFFFFFFFFFFFFFFFFFFFFFFFFFFFFFFFFFFFFFFFFFFFFFFFFFFFFFFFFFFFF
310
FFFFFFFFFFFFFFFFFFFFFFFFFFFFFFFFF000FFFFFFFFFFFFFFFFFFFFFFFFFFFF
310
FFFFFFFFFFFFFFFFFFFFFFFFFFFFFFFFFFFFFFFFFFFFFFFFFFFFFFFFFFFFFFFF
310
FFFFFFFFFFFFFFFFFFFFFFFFFFFFFFFFFFFFFFFFFFFFFFFFFFFFFFFFFFFFFFFF
310
FFFFFFFFFFFFFFFFF000FFFFFFFFFFFFFFFFFFFFFFFFFFFFFFFFFFFFFFFFFFFF
310
FFFFFFFFFFFFFFFFFFFFFFFFFFFFFFFFFFFFFFFFFFFFFFFFFFFFFFFFFFFFFFFF
310
FFFFFFFFFFFFFFFFFFFFFFFFFFFFFFFFFFFFFFFFFFFFFFFFFFFFFFFFFFFFFFFF
310
F000FFFFFFFFFFFFFFFFFFFFFFFFFFFFFFFFFFFFFFFFFFFFFFFFFFFFFFFFFFFF
310
FFFFFFFFFFFFFFFFFFFFFFFFFFFFFFFFFFFFFFFFFFFFFFFFFFFFFFFFFFFFFFFF
310
FFFFFFFFFFFFFFFFFFFFFFFFFFFFFFFFFFFFFFFFFFFFFFFFF000FFFFFFFFFFFF
310
FFFFFFFFFFFFFFFFFFFFFFFFFFFFFFFFFFFFFFFFFFFFFFFFFFFFFFFFFFFFFFFF
310
FFFFFFFFFFFFFFFFFFFFFFFFFFFFFFFFFFFFFFFFFFFFFFFFFFFFFFFFFFFFFFFF
310
FFFFFFFFFFFFFFFFFFFFFFFFFFFFFFFFF000FFFFFFFFFFFFFFFFFFFFFFFFFFFF
310
FFFFFFFFFFFFFFFFFFFFFFFFFFFFFFFFFFFFFFFFFFFFFFFFFFFFFFFFFFFFFFFF
310
FFFFFFFFFFFFFFFFFFFFFFFFFFFFFFFFFFFFFFFFFFFFFFFFFFFFFFFFFFFFFFFF
310
FFFFFFFFFFFFFFFFF000FFFFF80003FFFFFFFFFFFFFFFFFFFFFFFFFFFFFFFFFF
310
FFFFF00007FFFFFFFFFF00007FFFFFF800000000000000007FFFFFFFFFFFFFFF
310
FFFFFFFC001FFFFFFFFFFFFFFC001FFFFFFFFFFFFFFFFFFFFFFFFFFE0007FFFF
310
F000FFFF8000007FFFFFFFF8000FFFFFC0007FFFFF80007FFFFF0000007FFFFF
310
FFF8000007FFFFF800000000000000007FFFFFF0001FFFFFFFFFFFC00001FFFF
310
FFFFFFFFC00001FFFFFFFF000000000003FFFFE000007FFFF000FFFE0000000F
310
FFFFFFF0000FFFFF80007FFFFF80007FFFFC0000001FFFFFFFC0000001FFFFF8
310
00000000000000007FFFFFF0001FFFFFFFFFFE0000003FFFFFFFFFFE0000003F
310
FFFFFF000000000003FFFF0000000FFFF000FFF800000003FFFFFFF00007FFFF
310
80007FFFFF80007FFFF000000007FFFFFF000000003FFFF80000000000000000
310
7FFFFFF0001FFFFFFFFFF80000000FFFFFFFFFF80000000FFFFFFF0000000000
310
03FFFC00000003FFF000FFE000000000FFFFFFF00007FFFF80003FFFFF80007F
310
FFC000000001FFFFFC000000001FFFF800000000000000007FFFFFF0001FFFFF
310
FFFFE000000003FFFFFFFFE000000003FFFFFF000000000003FFF000000000FF
310
F000FF80000000007FFFFFF00007FFFF80003FFFFF80007FFF8000000000FFFF
310
F80000000007FFF800000000000000007FFFFFF0001FFFFFFFFFC000000001FF
310
FFFFFFC000000001FFFFFF000000000003FFC0000000007FF000FF0000000000
310
3FFFFFE00007FFFF00003FFFFF80007FFE00000000003FFFF00000000003FFF8
310
00000000000000007FFFFFF0001FFFFFFFFF8000000000FFFFFFFF8000000000
310
FFFFFF000000000003FF80000000003FF000FE00000000001FFFFFE00003FFFF
310
00003FFFFF80007FFC00000000001FFFE00000000001FFF8000001FFFE000000
310
7FFFFFF0001FFFFFFFFE00000000003FFFFFFE00000000003FFFFF0000000000
310
03FF00000000001FF000FC00000000000FFFFFE00003FFFF00001FFFFF80007F
310
F800000000001FFFC00000000000FFF8000001FFFE0000007FFFFFF0001FFFFF
310
FFFC00000000001FFFFFFC00000000001FFFFF000000000003FE00000000000F
310
F000F8000000000007FFFFE00003FFFF00001FFFFF80007FF800000000000FFF
310
800000000000FFF8000001FFFE0000007FFFFFF0001FFFFFFFF800000000000F
310
FFFFF800000000000FFFFF000000000003FC000000000007F000F80000000000
310
03FFFFC00003FFFE00001FFFFF80007FF0000000000007FF0000000000007FF8
310
000001FFFE0000007FFFFFF0001FFFFFFFF0000000000007FFFFF00000000000
310
07FFFF000000000003F8000000000003F000F0000000000003FFFFC00001FFFE
310
00001FFFFF80007FE0000000000007FE0000000000003FF8000001FFFE000000
310
7FFFFFF0001FFFFFFFF0000000000007FFFFF0000000000007FFFF0000000000
310
03F800001F800003F000E00001FFF00001FFFFC00001FFFE00000FFFFF80007F
310
E00001FFE00003FE00001FFF00003FF8000001FFFE0000007FFFFFF0001FFFFF
310
FFE000003E000003FFFFE000003E000003FFFF000000000003F00001FFF80001
310
F000E00007FFFC0001FFFFC00001FFFE00000FFFFF80007FC0000FFFFC0003FC
310
0000FFFFC0001FF8000001FFFE0000007FFFFFF0001FFFFFFFC00003FFE00001
310
FFFFC00003FFE00001FFFF0001FFFFFFFFF00007FFFE0001F000E0000FFFFF00
310
00FFFF800001FFFC00000FFFFF80007FC0001FFFFE0001FC0001FFFFE0001FF8
310
000001FFFE0000007FFFFFF0001FFFFFFF80000FFFF80000FFFF80000FFFF800
310
00FFFF0003FFFFFFFFE0000FFFFF8000F000C0003FFFFF8000FFFF800000FFFC
310
000007FFFF80007F80003FFFFF0001FC0003FFFFF0001FF8000001FFFE000000
310
7FFFFFF0001FFFFFFF80003FFFFE0000FFFF80003FFFFE0000FFFF0003FFFFFF
310
FFE0003FFFFF8000F000C0003FFFFF8000FFFF800000FFFC000007FFFF80007F
310
80007FFFFF8001F80007FFFFF8000FF8000001FFFE0000007FFFFFF0001FFFFF
310
FF00007FFFFF00007FFF00007FFFFF00007FFF0003FFFFFFFFE0003FFFFFC000
310
F000C0007FFFFFC000FFFF000000FFFC000007FFFF80007F8000FFFFFF8000F8
310
000FFFFFF8000FF8000001FFFE0000007FFFFFF0001FFFFFFF0000FFFFFF8000
310
7FFF0000FFFFFF80007FFF0003FFFFFFFFC0007FFFFFC00070008000FFFFFFC0
310
00FFFF000000FFF8000007FFFF80007F8000FFFFFF8000F8000FFFFFF8000FF8
310
000001FFFE0000007FFFFFF0001FFFFFFE0001FFFFFFC0003FFE0001FFFFFFC0
310
003FFF0003FFFFFFFFC0007FFFFFE00070008000FFFFFFC0007FFF0000007FF8
310
000003FFFF80007F0001FFFFFF8000F8000FFFFFF8000FF8000001FFFE000000
310
7FFFFFF0001FFFFFFE0001FFFFFFC0003FFE0001FFFFFFC0003FFF0003FFFFFF
310
FFC000FFFFFFE00070008000FFFFFFC0007FFF0000007FF8000003FFFF80007F
310
0001FFFFFF8000F8001FFFFFF8000FF8000001FFFE0000007FFFFFF0001FFFFF
310
FE0003FFFFFFE0003FFE0003FFFFFFE0003FFF0003FFFFFFFFC000FFFFFFE000
310
70008000FFFFFFC0007FFE0000007FF8000003FFFF80007F0001FFFFFF8000F0
310
001FFFFFF8000FF8000001FFFE0000007FFFFFF0001FFFFFFC0003FFFFFFE000
310
1FFC0003FFFFFFE0001FFF0003FFFFFFFFC000FFFFFFC00070008000FFFFFF80
310
007FFE0000007FF0000003FFFF80007F0001FFFFFF0000F0001FFFFFF8000FF8
310
000001FFFE0000007FFFFFF0001FFFFFFC0007FFFFFFF0001FFC0007FFFFFFF0
310
001FFF0003FFFFFFFFC000FFFFFFC00070008001FFFFFF0000FFFE0000003FF0
310
000001FFFF80007F0001FFFFFF0000F8001FFFFFF0000FF8000001FFFE000000
310
7FFFFFF0001FFFFFFC0007FFFFFFF0001FFC0007FFFFFFF0001FFF0003FFFFFF
310
FFC001FFFFFF80007000FFFFFFFFFE0000FFFE0008003FF0008001FFFF80007F
310
FFFFFFFFFC0000FFFFFFFFFFE0000FF8000001FFFE0000007FFFFFF0001FFFFF
310
F8000FFFFFFFF8000FF8000FFFFFFFF8000FFF0003FFFFFFFFFFFFFFFFFF0000
310
7000FFFFFFFFFC0000FFFC0008003FF0008001FFFF80007FFFFFFFFFF80001FF
310
FFFFFFFF80000FF8000001FFFE0000007FFFFFF0001FFFFFF8000FFFFFFFF800
310
0FF8000FFFFFFFF8000FFF0003FFFFFFFFFFFFFFFFFE0000F000FFFFFFFFE000
310
00FFFC000C003FE000C001FFFF80007FFFFFFFFFC00001FFFFFFFFFE00001FF8
310
000001FFFE0000007FFFFFF0001FFFFFF8000FFFFFFFF8000FF8000FFFFFFFF8
310
000FFF0003FFFFFFFFFFFFFFFFF00000F000FFFFFFFE000001FFFC000C001FE0
310
00C000FFFF80007FFFFFFFFE000001FFFFFFFFE000001FF80FFFFFFFFFFFFFC0
310
7FFFFFF0001FFFFFF8000FFFFFFFF8000FF8000FFFFFFFF8000FFF0003FFFFFF
310
FFFFFFFFFF800000F000FFFFFFC0000001FFFC001C001FE001C000FFFF80007F
310
FFFFFF80000003FFFFFFF80000001FF80FFFFFFFFFFFFFC07FFFFFF0001FFFFF
310
F8001FFFFFFFFC000FF8001FFFFFFFFC000FFF0003FFFFFFFFFFFFFFF0000001
310
F000FFFFF800000001FFF8001C001FE001C000FFFF80007FFFFFF800000003FF
310
FFFF800000003FF80FFFFFFFFFFFFFC07FFFFFF0001FFFFFF8001FFFFFFFFC00
310
0FF8001FFFFFFFFC000FFF0003FFFFFFFFFFFFFE00000001F000FFFFC0000000
310
03FFF8001E001FC001E000FFFF80007FFFFF8000000007FFFFFC000000003FF8
310
0FFFFFFFFFFFFFC07FFFFFF0001FFFFFF8001FFFFFFFFC000FF8001FFFFFFFFC
310
000FFF0003FFFFFFFFFFFFE000000003F000FFFE0000000007FFF8001E000FC0
310
01E0007FFF80007FFFFE0000000007FFFFE0000000007FF80FFFFFFFFFFFFFC0
310
7FFFFFF0001FFFFFF0001FFFFFFFFC0007F0001FFFFFFFFC0007FF0003FFFFFF
310
FFFFFF0000000003F000FFF80000000007FFF8001E000FC003E0007FFF80007F
310
FFF0000000000FFFFF8000000000FFF80FFFFFFFFFFFFFC07FFFFFF0001FFFFF
310
F0001FFFFFFFFC0007F0001FFFFFFFFC0007FF0003FFFFFFFFFFFC0000000007
310
F000FFE0000000000FFFF0003E000FC003E0007FFF80007FFFC0000000001FFF
310
FE0000000001FFF80FFFFFFFFFFFFFC07FFFFFF0001FFFFFF0001FFFFFFFFC00
310
07F0001FFFFFFFFC0007FF0003FFFFFFFFFFF0000000000FF000FFC000000000
310
1FFFF0003F000F8003F0003FFF80007FFF80000000003FFFF80000000003FFF8
310
0FFFFFFFFFFFFFC07FFFFFF0001FFFFFF0001FFFFFFFFC0007F0001FFFFFFFFC
310
0007FF0003FFFFFFFFFFE0000000001FF000FF00000000007FFFF0003F000780
310
03F0003FFF80007FFF00000000007FFFF00000000007FFF80FFFFFFFFFFFFFC0
310
7FFFFFF0001FFFFFF0001FFFFFFFFC0007F0001FFFFFFFFC0007FF0003FFFFFF
310
FFFF80000000007FF000FE0000000000FFFFE0003F00078007F0003FFF80007F
310
FE0000000001FFFFE0000000001FFFF80FFFFFFFFFFFFFC07FFFFFF0001FFFFF
310
F0001FFFFFFFFC0007F0001FFFFFFFFC0007FF0003FFFFFFFFFF0000000000FF
310
F000FC0000000003FFFFE0007F00078007F0003FFF80007FFC0000000007FFFF
310
C0000000007FFFF80FFFFFFFFFFFFFC07FFFFFF0001FFFFFF8001FFFFFFFFC00
310
0FF8001FFFFFFFFC000FFF0003FFFFFFFFFE0000000003FFF000FC000000000F
310
FFFFE0007F80070007F8001FFF80007FF8000000001FFFFF8000000001FFFFF8
310
0FFFFFFFFFFFFFC07FFFFFF0001FFFFFF8001FFFFFFFFC000FF8001FFFFFFFFC
310
000FFF0003FFFFFFFFFC000000000FFFF000F8000000007FFFFFE0007F800700
310
07F8001FFF80007FF000000000FFFFFF800000000FFFFFF80FFFFFFFFFFFFFC0
310
7FFFFFF0001FFFFFF8000FFFFFFFF8000FF8000FFFFFFFF8000FFF0003FFFFFF
310
FFFC000000007FFFF000F800000007FFFFFFC0007F8003000FF8001FFF80007F
310
F000000007FFFFFF000000007FFFFFF80FFFFFFFFFFFFFC07FFFFFF0001FFFFF
310
F8000FFFFFFFF8000FF8000FFFFFFFF8000FFF0003FFFFFFFFF80000000FFFFF
310
F000F0000000FFFFFFFFC000FF8003000FF8001FFF80007FE0000000FFFFFFFF
310
0000000FFFFFFFF8000001FFFE0000007FFFFFF0001FFFFFF8000FFFFFFFF800
310
0FF8000FFFFFFFF8000FFF0003FFFFFFFFF8000000FFFFFFF000F000000FFFFF
310
FFFFC000FFC002000FF8000FFF80007FE000001FFFFFFFFE000001FFFFFFFFF8
310
000001FFFE0000007FFFFFF0001FFFFFF8000FFFFFFFF8000FF8000FFFFFFFF8
310
000FFF0003FFFFFFFFF000001FFFFFFFF000E00000FFFFFFFFFFC000FFC00200
310
0FFC000FFF80007FE00001FFFFFFFFFE00001FFFFFFFFFF8000001FFFE000000
310
7FFFFFF0001FFFFFFC000FFFFFFFF8001FFC000FFFFFFFF8001FFF0003FFFFFF
310
FFF00001FFFFFFFFF000E00007FFFFFFFFFF8000FFC000001FFC000FFF80007F
310
C0000FFFFFFFFFFE0000FFFFFFFFFFF8000001FFFE0000007FFFFFF0001FFFFF
310
FC0007FFFFFFF0001FFC0007FFFFFFF0001FFF0003FFFFFFFFF00007FFFFFFFF
310
F000E0001FFFFFFFFFFF8000FFC000001FFC000FFF80007FC0003FFFFFFFFFFE
310
0001FFFFFFFFFFF8000001FFFE0000007FFFFFF0001FFFFFFC0007FFFFFFF000
310
1FFC0007FFFFFFF0001FFF0003FFFFFFFFF0001FFFFFFFFFF000E0003FFFFF00
310
03FF8001FFE000001FFC0007FF80007FC0007FFFFF0007FC0003FFFFF0003FF8
310
000001FFFE0000007FFFFFF0001FFFFFFC0003FFFFFFE0001FFC0003FFFFFFE0
310
001FFF0003FFFFFFFFF0003FFFFFFFFFF000E0003FFFFF0001FF8001FFE00000
310
1FFE0007FF80007FC0007FFFFE0003FC0007FFFFE0003FF8000001FFFE000000
310
7FFFFFF0001FFFFFFE0003FFFFFFE0003FFE0003FFFFFFE0003FFF0003FFFFFF
310
FFF0003FFFFF8001F000E0003FFFFF0001FF0001FFE000001FFE0007FF80007F
310
C0007FFFFE0003FC0007FFFFE0003FF8000001FFFE0000007FFFFFF0001FFFFF
310
FE0001FFFFFFC0003FFE0001FFFFFFC0003FFF0003FFFFFFFFF0003FFFFF0001
310
F000E0003FFFFF0003FF0001FFE000003FFE0007FF80007FC0007FFFFE0003FC
310
0007FFFFE0003FF8000001FFFE0000007FFFFFF0001FFFFFFF0001FFFFFFC000
310
7FFF0001FFFFFFC0007FFF0003FFFFFFFFF0003FFFFF0001F000E0003FFFFE00
310
03FF0003FFF000003FFE0003FF80007FC0007FFFFC0003FE0007FFFFE0003FF8
310
000001FFFE0000007FFFFFF0001FFFFFFF0000FFFFFF80007FFF0000FFFFFF80
310
007FFF0003FFFFFFFFF0003FFFFF0001F000E0003FFFFE0003FF0003FFF00000
310
3FFF0003FF80007FC0007FFFFC0007FE0007FFFFC0003FF8000001FFFE000000
310
7FFFFFF0001FFFFFFF80007FFFFF0000FFFF80007FFFFF0000FFFF0003FFFFFF
310
FFF0003FFFFF0003F000E0003FFFFC0003FE0003FFF000003FFF0003FF80007F
310
E0003FFFF80007FE0003FFFFC0007FF8000001FFFE0000007FFFFFF0001FFFFF
310
FF80003FFFFE0000FFFF80003FFFFE0000FFFF0003FFFFFFFFF0001FFFFE0003
310
F000F0001FFFF80003FE0003FFF000007FFF0001FF80007FE0003FFFF00007FE
310
0001FFFF80007FF8000001FFFE0000007FFFFFF0001FFFFFFFC0000FFFF80001
310
FFFFC0000FFFF80001FFFF0003FFFFFFFFF0001FFFFC0003F000F0000FFFF000
310
07FE0007FFF800007FFF0001FF80007FE0001FFFE00007FF0000FFFE00007FF8
310
000001FFFE0000007FFFFFF0001FFFFFFFC00003FFE00001FFFFC00003FFE000
310
01FFFF0003FFFFFFFFF8000FFFF80003F000F00003FFC00007FC0007FFF80000
310
7FFF8001FF80007FF00007FF80000FFF00007FF80000FFF8000001FFFE000000
310
7F80000000000001FFE000003E000003FFFFE000003E000003FFFF0003FFFFFF
310
FFF80003FFE00007F000F800000000000FFC0007FFF800007FFF8001FF80007F
310
F000000000000FFF000000000000FFF8000001FFFE0000007F80000000000001
310
FFF0000000000007FFFFF0000000000007FFFF0003FFFFFFFFFC00007E000007
310
F000F800000000000FFC0007FFF80000FFFF8000FF80007FF800000000001FFF
310
800000000001FFF8000001FFFE0000007F80000000000001FFF800000000000F
310
FFFFF800000000000FFFFF0003FFFFFFFFFC00000000000FF000FC0000000000
310
1FFC0007FFFC0000FFFF8000FF80007FF800000000003FFFC00000000001FFF8
310
000001FFFE0000007F80000000000001FFF800000000000FFFFFF80000000000
310
0FFFFF0003FFFFFFFFFE00000000001FF000FE00000000003FF8000FFFFC0000
310
FFFF8000FF80007FFC00000000003FFFC00000000003FFF8000001FFFE000000
310
7F80000000000001FFFC00000000001FFFFFFC00000000001FFFFF0003FFFFFF
310
FFFF00000000001FF000FF00000000003FF8000FFFFC0000FFFFC000FF80007F
310
FE00000000007FFFE00000000007FFF8000001FFFE0000007F80000000000001
310
FFFE00000000003FFFFFFE00000000003FFFFF0003FFFFFFFFFF80000000003F
310
F000FF80000000007FF8000FFFFC0001FFFFC0007F80007FFF0000000000FFFF
310
F0000000000FFFF800000000000000007F80000000000001FFFF8000000000FF
310
FFFFFF8000000000FFFFFF0003FFFFFFFFFFC0000000007FF000FFC000000000
310
FFF8000FFFFE0001FFFFC0007F80007FFF8000000001FFFFF8000000001FFFF8
310
00000000000000007F80000000000001FFFFC000000001FFFFFFFFC000000001
310
FFFFFF0003FFFFFFFFFFE000000000FFF000FFE000000003FFF0001FFFFE0001
310
FFFFC0007F80007FFFC000000007FFFFFE000000003FFFF80000000000000000
310
7F80000000000001FFFFE000000003FFFFFFFFE000000003FFFFFF0003FFFFFF
310
FFFFF000000003FFF000FFF80000000FFFF0001FFFFE0001FFFFE0007F80007F
310
FFF00000000FFFFFFF00000000FFFFF800000000000000007F80000000000001
310
FFFFF80000000FFFFFFFFFF80000000FFFFFFF0003FFFFFFFFFFFC0000000FFF
310
F000FFFE0000003FFFF0001FFFFE0003FFFFE0003F80007FFFFC0000003FFFFF
310
FFC0000003FFFFF800000000000000007F80000000000001FFFFFE0000003FFF
310
FFFFFFFE0000003FFFFFFF0003FFFFFFFFFFFF0000003FFFF000FFFF800000FF
310
FFF0001FFFFF0003FFFFE0003F80007FFFFF000001FFFFFFFFF800001FFFFFF8
310
00000000000000007F80000000000001FFFFFFC00001FFFFFFFFFFFFC00001FF
310
FFFFFF0003FFFFFFFFFFFFC00000FFFFF000FFFFF8000FFFFFFFFFFFFFFFFFFF
310
FFFFFFFFFFFFFFFFFFFFF0001FFFFFFFFFFF0000FFFFFFF80000000000000000
310
7FFFFFFFFFFFFFFFFFFFFFFC001FFFFFFFFFFFFFFC001FFFFFFFFFFFFFFFFFFF
310
FFFFFFFC001FFFFFF000FFFFFFFFFFFFFFFFFFFFFFFFFFFFFFFFFFFFFFFFFFFF
310
FFFFFFFFFFFFFFFFFFFFFFFFFFFFFFFFFFFFFFFFFFFFFFFFFFFFFFFFFFFFFFFF
310
FFFFFFFFFFFFFFFFFFFFFFFFFFFFFFFFFFFFFFFFFFFFFFFFFFFFFFFFFFFFFFFF
310
F000FFFFFFFFFFFFFFFFFFFFFFFFFFFFFFFFFFFFFFFFFFFFFFFFFFFFFFFFFFFF
310
FFFFFFFFFFFFFFFFFFFFFFFFFFFFFFFFFFFFFFFFFFFFFFFFFFFFFFFFFFFFFFFF
310
FFFFFFFFFFFFFFFFFFFFFFFFFFFFFFFFFFFFFFFFFFFFFFFFF000FFFFFFFFFFFF
310
FFFFFFFFFFFFFFFFFFFFFFFFFFFFFFFFFFFFFFFFFFFFFFFFFFFFFFFFFFFFFFFF
310
FFFFFFFFFFFFFFFFFFFFFFFFFFFFFFFFFFFFFFFFFFFFFFFFFFFFFFFFFFFFFFFF
310
FFFFFFFFFFFFFFFFFFFFFFFFFFFFFFFFF000FFFFFFFFFFFFFFFFFFFFFFFFFFFF
310
FFFFFFFFFFFFFFFFFFFFFFFFFFFFFFFFFFFFFFFFFFFFFFFFFFFFFFFFFFFFFFFF
310
FFFFFFFFFFFFFFFFFFFFFFFFFFFFFFFFFFFFFFFFFFFFFFFFFFFFFFFFFFFFFFFF
310
FFFFFFFFFFFFFFFFF000FFFFFFFFFFFFFFFFFFFFFFFFFFFFFFFFFFFFFFFFFFFF
310
FFFFFFFFFFFFFFFFFFFFFFFFFFFFFFFFFFFFFFFFFFFFFFFFFFFFFFFFFFFFFFFF
310
FFFFFFFFFFFFFFFFFFFFFFFFFFFFFFFFFFFFFFFFFFFFFFFFFFFFFFFFFFFFFFFF
310
F000FFFFFFFFFFFFFFFFFFFFFFFFFFFFFFFFFFFFFFFFFFFFFFFFFFFFFFFFFFFF
310
FFFFFFFFFFFFFFFFFFFFFFFFFFFFFFFFFFFFFFFFFFFFFFFFFFFFFFFFFFFFFFFF
310
FFFFFFFFFFFFFFFFFFFFFFFFFFFFFFFFFFFFFFFFFFFFFFFFF000FFFFFFFFFFFF
310
FFFFFFFFFFFFFFFFFFFFFFFFFFFFFFFFFFFFFFFFFFFFFFFFFFFFFFFFFFFFFFFF
310
FFFFFFFFFFFFFFFFFFFFFFFFFFFFFFFFFFFFFFFFFFFFFFFFFFFFFFFFFFFFFFFF
310
FFFFFFFFFFFFFFFFFFFFFFFFFFFFFFFFF000FFFFFFFFFFFFFFFFFFFFFFFFFFFF
310
FFFFFFFFFFFFFFFFFFFFFFFFFFFFFFFFFFFFFFFFFFFFFFFFFFFFFFFFFFFFFFFF
310
FFFFFFFFFFFFFFFFFFFFFFFFFFFFFFFFFFFFFFFFFFFFFFFFFFFFFFFFFFFFFFFF
310
FFFFFFFFFFFFFFFFF000FFFFFFFFFFFFFFFFFFFFFFFFFFFFFFFFFFFFFFFFFFFF
310
FFFFFFFFFFFFFFFFFFFFFFFFFFFFFFFFFFFFFFFFFFFFFFFFFFFFFFFFFFFFFFFF
310
FFFFFFFFFFFFFFFFFFFFFFFFFFFFFFFFFFFFFFFFFFFFFFFFFFFFFFFFFFFFFFFF
310
F000FFFFFFFFFFFFFFFFFFFFFFFFFFFFFFFFFFFFFFFFFFFFFFFFFFFFFFFFFFFF
310
FFFFFFFFFFFFFFFFFFFFFFFFFFFFFFFFFFFFFFFFFFFFFFFFFFFFFFFFFFFFFFFF
310
FFFFFFFFFFFFFFFFFFFFFFFFFFFFFFFFFFFFFFFFFFFFFFFFF000FFFFFFFFFFFF
310
FFFFFFFFFFFFFFFFFFFFFFFFFFFFFFFFFFFFFFFFFFFFFFFFFFFFFFFFFFFFFFFF
310
FFFFFFFFFFFFFFFFFFFFFFFFFFFFFFFFFFFFFFFFFFFFFFFFFFFFFFFFFFFFFFFF
310
FFFFFFFFFFFFFFFFFFFFFFFFFFFFFFFFF000FFFFFFFFFFFFFFFFFFFFFFFFFFFF
310
FFFFFFFFFFFFFFFFFFFFFFFFFFFFFFFFFFFFFFFFFFFFFFFFFFFFFFFFFFFFFFFF
310
FFFFFFFFFFFFFFFFFFFFFFFFFFFFFFFFFFFFFFFFFFFFFFFFFFFFFFFFFFFFFFFF
310
FFFFFFFFFFFFFFFFF000FFFFFFFFFFFFFFFFFFFFFFFFFFFFFFFFFFFFFFFFFFFF
310
FFFFFFFFFFFFFFFFFFFFFFFFFFFFFFFFFFFFFFFFFFFFFFFFFFFFFFFFFFFFFFFF
310
FFFFFFFFFFFFFFFFFFFFFFFFFFFFFFFFFFFFFFFFFFFFFFFFFFFFFFFFFFFFFFFF
310
F000FFFFFFFFFFFFFFFFFFFFFFFFFFFFFFFFFFFFFFFFFFFFFFFFFFFFFFFFFFFF
310
FFFFFFFFFFFFFFFFFFFFFFFFFFFFFFFFFFFFFFFFFFFFFFFFFFFFFFFFFFFFFFFF
310
FFFFFFFFFFFFFFFFFFFFFFFFFFFFFFFFFFFFFFFFFFFFFFFFF000FFFFFFFFFFFF
310
FFFFFFFFFFFFFFFFFFFFFFFFFFFFFFFFFFFFFFFFFFFFFFFFFFFFFFFFFFFFFFFF
310
FFFFFFFFFFFFFFFFFFFFFFFFFFFFFFFFFFFFFFFFFFFFFFFFFFFFFFFFFFFFFFFF
310
FFFFFFFFFFFFFFFFFFFFFFFFFFFFFFFFF000FFFFFFFFFFFFFFFFFFFFFFFFFFFF
310
FFFFFFFFFFFFFFFFFFFFFFFFFFFFFFFFFFFFFFFFFFFFFFFFFFFFFFFFFFFFFFFF
310
FFFFFFFFFFFFFFFFFFFFFFFFFFFFFFFFFFFFFFFFFFFFFFFFFFFFFFFFFFFFFFFF
310
FFFFFFFFFFFFFFFFF000FFFFFFFFFFFFFFFFFFFFFFFFFFFFFFFFFFFFFFFFFFFF
310
FFFFFFFFFFFFFFFFFFFFFFFFFFFFFFFFFFFFFFFFFFFFFFFFFFFFFFFFFFFFFFFF
310
FFFFFFFFFFFFFFFFFFFFFFFFFFFFFFFFFFFFFFFFFFFFFFFFFFFFFFFFFFFFFFFF
310
F000FFFFFFFFFFFFFFFFFFFFFFFFFFFFFFFFFFFFFFFFFFFFFFFFFFFFFFFFFFFF
310
FFFFFFFFFFFFFFFFFFFFFFFFFFFFFFFFFFFFFFFFFFFFFFFFFFFFFFFFFFFFFFFF
310
FFFFFFFFFFFFFFFFFFFFFFFFFFFFFFFFFFFFFFFFFFFFFFFFF000FFFFFFFFFFFF
310
FFFFFFFFFFFFFFFFFFFFFFFFFFFFFFFFFFFFFFFFFFFFFFFFFFFFFFFFFFFFFFFF
310
FFFFFFFFFFFFFFFFFFFFFFFFFFFFFFFFFFFFFFFFFFFFFFFFFFFFFFFFFFFFFFFF
310
FFFFFFFFFFFFFFFFFFFFFFFFFFFFFFFFF000FFFFFFFFFFFFFFFFFFFFFFFFFFFF
310
FFFFFFFFFFFFFFFFFFFFFFFFFFFFFFFFFFFFFFFFFFFFFFFFFFFFFFFFFFFFFFFF
310
FFFFFFFFFFFFFFFFFFFFFFFFFFFFFFFFFFFFFFFFFFFFFFFFFFFFFFFFFFFFFFFF
310
FFFFFFFFFFFFFFFFF000FFFFFFFFFFFFFFFFFFFFFFFFFFFFFFFFFFFFFFFFFFFF
310
FFFFFFFFFFFFFFFFFFFFFFFFFFFFFFFFFFFFFFFFFFFFFFFFFFFFFFFFFFFFFFFF
310
FFFFFFFFFFFFFFFFFFFFFFFFFFFFFFFFFFFFFFFFFFFFFFFFFFFFFFFFFFFFFFFF
310
F000FFFFFFFFFFFFFFFFFFFFFFFFFFFFFFFFFFFFFFFFFFFFFFFFFFFFFFFFFFFF
310
FFFFFFFFFFFFFFFFFFFFFFFFFFFFFFFFFFFFFFFFFFFFFFFFFFFFFFFFFFFFFFFF
310
FFFFFFFFFFFFFFFFFFFFFFFFFFFFFFFFFFFFFFFFFFFFFFFFF000FFFFFFFFFFFF
310
FFFFFFFFFFFFFFFFFFFFFFFFFFFFFFFFFFFFFFFFFFFFFFFFFFFFFFFFFFFFFFFF
310
FFFFFFFFFFFFFFFFFFFFFFFFFFFFFFFFFFFFFFFFFFFFFFFFFFFFFFFFFFFFFFFF
310
FFFFFFFFFFFFFFFFFFFFFFFFFFFFFFFFF0000000000000000000000000000000
310
0000000000000000000000000000000000000000000000000000000000000000
310
0000000000000000000000000000000000000000000000000000000000000000
310
0000000000000000000000000000000000000000000000000000000000000000
310
0000000000000000000000000000000000000000000000000000000000000000
310
0000000000000000000000000000000000000000000000000000000000000000
310
0000000000000000000000000000000000000000000000000000000000000000
310
0000000000000000000000000000000000000000000000000000000000000000
310
0000000000000000000000000000000000000000000000000000000000000000
310
0000000000000000000000000000000000000000000000000000000000000000
310
0000000000000000000000000000000000000000000000000000000000000000
310
0000000000000000000000000000000000000000000000000000000000000000
310
0000000000000000000000000000000000000000000000000000000000000000
310
0000000000000000000000000000000000000000000000000000000000000000
310
0000000000000000000000000000000000000000000000000000000000000000
310
0000000000000000000000000000000000000000000000000000000000000000
  1
OLE
  0
ENDSEC
  0
SECTION
  2
OBJECTS
  0
DICTIONARY
  5
C
330
0
100
AcDbDictionary
281
     1
  3
ACAD_GROUP
350
D
  3
ACAD_LAYOUT
350
1A
  3
ACAD_MLINESTYLE
350
17
  3
ACAD_PLOTSETTINGS
350
19
  3
ACAD_PLOTSTYLENAME
350
E
  3
ACAD_SCALELIST
350
47
  0
DICTIONARY
  5
D
102
{ACAD_REACTORS
330
C
102
}
330
C
100
AcDbDictionary
281
     1
  0
DICTIONARY
  5
1A
102
{ACAD_REACTORS
330
C
102
}
330
C
100
AcDbDictionary
281
     1
  3
Layout1
350
1E
  3
Layout2
350
26
  3
Model
350
22
  0
DICTIONARY
  5
17
102
{ACAD_REACTORS
330
C
102
}
330
C
100
AcDbDictionary
281
     1
  3
Standard
350
18
  0
DICTIONARY
  5
19
102
{ACAD_REACTORS
330
C
102
}
330
C
100
AcDbDictionary
281
     1
  0
ACDBDICTIONARYWDFLT
  5
E
102
{ACAD_REACTORS
330
C
102
}
330
C
100
AcDbDictionary
281
     1
  3
Normal
350
F
100
AcDbDictionaryWithDefault
340
F
  0
DICTIONARY
  5
47
102
{ACAD_REACTORS
330
C
102
}
330
C
100
AcDbDictionary
281
     1
  3
A0
350
48
  3
A1
350
49
  3
A2
350
4A
  3
A3
350
4B
  3
A4
350
4C
  3
A5
350
4D
  3
A6
350
4E
  3
A7
350
4F
  3
A8
350
50
  3
A9
350
51
  3
B0
350
52
  3
B1
350
53
  3
B2
350
54
  3
B3
350
55
  3
B4
350
56
  3
B5
350
57
  3
B6
350
58
  3
B7
350
59
  3
B8
350
5A
  3
B9
350
5B
  3
C0
350
5C
  3
C1
350
5D
  3
C2
350
5E
  3
C3
350
5F
  3
C4
350
60
  3
C5
350
61
  3
C6
350
62
  3
C7
350
63
  3
C8
350
64
  3
C9
350
65
  3
D0
350
66
  3
D1
350
67
  3
D2
350
68
  0
LAYOUT
  5
1E
102
{ACAD_REACTORS
330
1A
102
}
330
1A
100
AcDbPlotSettings
  1

  2
none_device
  4

  6

 40
0.0
 41
0.0
 42
0.0
 43
0.0
 44
0.0
 45
0.0
 46
0.0
 47
0.0
 48
0.0
 49
0.0
140
0.0
141
0.0
142
1.0
143
1.0
 70
   688
 72
     1
 73
     0
 74
     5
  7

 75
    16
147
1.0
148
0.0
149
0.0
100
AcDbLayout
  1
Layout1
 70
     1
 71
     1
 10
0.0
 20
0.0
 11
420.0
 21
297.0
 12
0.0
 22
0.0
 32
0.0
 14
1.0000000000E+20
 24
1.0000000000E+20
 34
1.0000000000E+20
 15
-1.0000000000E+20
 25
-1.0000000000E+20
 35
-1.0000000000E+20
146
0.0
 13
0.0
 23
0.0
 33
0.0
 16
1.0
 26
0.0
 36
0.0
 17
0.0
 27
1.0
 37
0.0
 76
     0
330
1B
  0
LAYOUT
  5
26
102
{ACAD_REACTORS
330
1A
102
}
330
1A
100
AcDbPlotSettings
  1

  2
none_device
  4

  6

 40
0.0
 41
0.0
 42
0.0
 43
0.0
 44
0.0
 45
0.0
 46
0.0
 47
0.0
 48
0.0
 49
0.0
140
0.0
141
0.0
142
1.0
143
1.0
 70
   688
 72
     1
 73
     0
 74
     5
  7

 75
    16
147
1.0
148
0.0
149
0.0
100
AcDbLayout
  1
Layout2
 70
     1
 71
     2
 10
0.0
 20
0.0
 11
0.0
 21
0.0
 12
0.0
 22
0.0
 32
0.0
 14
0.0
 24
0.0
 34
0.0
 15
0.0
 25
0.0
 35
0.0
146
0.0
 13
0.0
 23
0.0
 33
0.0
 16
1.0
 26
0.0
 36
0.0
 17
0.0
 27
1.0
 37
0.0
 76
     0
330
23
  0
LAYOUT
  5
22
102
{ACAD_REACTORS
330
1A
102
}
330
1A
100
AcDbPlotSettings
  1

  2
none_device
  4
Letter_(8.50_x_11.00_Inches)
  6

 40
6.35
 41
6.35
 42
6.35000508
 43
6.35000508
 44
215.9
 45
279.4
 46
0.0
 47
0.0
 48
0.0
 49
0.0
140
0.0
141
0.0
142
1.0
143
1.0
 70
  1712
 72
     1
 73
     0
 74
     0
  7

 75
     0
147
1.0
148
0.0
149
0.0
100
AcDbLayout
  1
Model
 70
     1
 71
     0
 10
0.0
 20
0.0
 11
297.0
 21
210.0
 12
0.0
 22
0.0
 32
0.0
 14
0.0
 24
0.0
 34
0.0
 15
297.0
 25
210.0
 35
0.0
146
0.0
 13
0.0
 23
0.0
 33
0.0
 16
1.0
 26
0.0
 36
0.0
 17
0.0
 27
1.0
 37
0.0
 76
     0
330
1F
331
29
  0
MLINESTYLE
  5
18
102
{ACAD_REACTORS
330
17
102
}
330
17
100
AcDbMlineStyle
  2
Standard
 70
     0
  3

 62
   256
 51
90.0
 52
90.0
 71
     2
 49
0.5
 62
   256
  6
BYLAYER
 49
-0.5
 62
   256
  6
BYLAYER
  0
ACDBPLACEHOLDER
  5
F
102
{ACAD_REACTORS
330
E
102
}
330
E
  0
SCALE
  5
48
102
{ACAD_REACTORS
330
47
102
}
330
47
100
AcDbScale
 70
     0
300
1:1
140
1.0
141
1.0
290
     1
  0
SCALE
  5
49
102
{ACAD_REACTORS
330
47
102
}
330
47
100
AcDbScale
 70
     0
300
1:2
140
1.0
141
2.0
290
     0
  0
SCALE
  5
4A
102
{ACAD_REACTORS
330
47
102
}
330
47
100
AcDbScale
 70
     0
300
1:4
140
1.0
141
4.0
290
     0
  0
SCALE
  5
4B
102
{ACAD_REACTORS
330
47
102
}
330
47
100
AcDbScale
 70
     0
300
1:5
140
1.0
141
5.0
290
     0
  0
SCALE
  5
4C
102
{ACAD_REACTORS
330
47
102
}
330
47
100
AcDbScale
 70
     0
300
1:8
140
1.0
141
8.0
290
     0
  0
SCALE
  5
4D
102
{ACAD_REACTORS
330
47
102
}
330
47
100
AcDbScale
 70
     0
300
1:10
140
1.0
141
10.0
290
     0
  0
SCALE
  5
4E
102
{ACAD_REACTORS
330
47
102
}
330
47
100
AcDbScale
 70
     0
300
1:16
140
1.0
141
16.0
290
     0
  0
SCALE
  5
4F
102
{ACAD_REACTORS
330
47
102
}
330
47
100
AcDbScale
 70
     0
300
1:20
140
1.0
141
20.0
290
     0
  0
SCALE
  5
50
102
{ACAD_REACTORS
330
47
102
}
330
47
100
AcDbScale
 70
     0
300
1:30
140
1.0
141
30.0
290
     0
  0
SCALE
  5
51
102
{ACAD_REACTORS
330
47
102
}
330
47
100
AcDbScale
 70
     0
300
1:40
140
1.0
141
40.0
290
     0
  0
SCALE
  5
52
102
{ACAD_REACTORS
330
47
102
}
330
47
100
AcDbScale
 70
     0
300
1:50
140
1.0
141
50.0
290
     0
  0
SCALE
  5
53
102
{ACAD_REACTORS
330
47
102
}
330
47
100
AcDbScale
 70
     0
300
1:100
140
1.0
141
100.0
290
     0
  0
SCALE
  5
54
102
{ACAD_REACTORS
330
47
102
}
330
47
100
AcDbScale
 70
     0
300
2:1
140
2.0
141
1.0
290
     0
  0
SCALE
  5
55
102
{ACAD_REACTORS
330
47
102
}
330
47
100
AcDbScale
 70
     0
300
4:1
140
4.0
141
1.0
290
     0
  0
SCALE
  5
56
102
{ACAD_REACTORS
330
47
102
}
330
47
100
AcDbScale
 70
     0
300
8:1
140
8.0
141
1.0
290
     0
  0
SCALE
  5
57
102
{ACAD_REACTORS
330
47
102
}
330
47
100
AcDbScale
 70
     0
300
10:1
140
10.0
141
1.0
290
     0
  0
SCALE
  5
58
102
{ACAD_REACTORS
330
47
102
}
330
47
100
AcDbScale
 70
     0
300
100:1
140
100.0
141
1.0
290
     0
  0
SCALE
  5
59
102
{ACAD_REACTORS
330
47
102
}
330
47
100
AcDbScale
 70
     0
300
1/128" = 1'-0"
140
0.0078125
141
12.0
290
     0
  0
SCALE
  5
5A
102
{ACAD_REACTORS
330
47
102
}
330
47
100
AcDbScale
 70
     0
300
1/64" = 1'-0"
140
0.015625
141
12.0
290
     0
  0
SCALE
  5
5B
102
{ACAD_REACTORS
330
47
102
}
330
47
100
AcDbScale
 70
     0
300
1/32" = 1'-0"
140
0.03125
141
12.0
290
     0
  0
SCALE
  5
5C
102
{ACAD_REACTORS
330
47
102
}
330
47
100
AcDbScale
 70
     0
300
1/16" = 1'-0"
140
0.0625
141
12.0
290
     0
  0
SCALE
  5
5D
102
{ACAD_REACTORS
330
47
102
}
330
47
100
AcDbScale
 70
     0
300
3/32" = 1'-0"
140
0.09375
141
12.0
290
     0
  0
SCALE
  5
5E
102
{ACAD_REACTORS
330
47
102
}
330
47
100
AcDbScale
 70
     0
300
1/8" = 1'-0"
140
0.125
141
12.0
290
     0
  0
SCALE
  5
5F
102
{ACAD_REACTORS
330
47
102
}
330
47
100
AcDbScale
 70
     0
300
3/16" = 1'-0"
140
0.1875
141
12.0
290
     0
  0
SCALE
  5
60
102
{ACAD_REACTORS
330
47
102
}
330
47
100
AcDbScale
 70
     0
300
1/4" = 1'-0"
140
0.25
141
12.0
290
     0
  0
SCALE
  5
61
102
{ACAD_REACTORS
330
47
102
}
330
47
100
AcDbScale
 70
     0
300
3/8" = 1'-0"
140
0.375
141
12.0
290
     0
  0
SCALE
  5
62
102
{ACAD_REACTORS
330
47
102
}
330
47
100
AcDbScale
 70
     0
300
1/2" = 1'-0"
140
0.5
141
12.0
290
     0
  0
SCALE
  5
63
102
{ACAD_REACTORS
330
47
102
}
330
47
100
AcDbScale
 70
     0
300
3/4" = 1'-0"
140
0.75
141
12.0
290
     0
  0
SCALE
  5
64
102
{ACAD_REACTORS
330
47
102
}
330
47
100
AcDbScale
 70
     0
300
1" = 1'-0"
140
1.0
141
12.0
290
     0
  0
SCALE
  5
65
102
{ACAD_REACTORS
330
47
102
}
330
47
100
AcDbScale
 70
     0
300
1-1/2" = 1'-0"
140
1.5
141
12.0
290
     0
  0
SCALE
  5
66
102
{ACAD_REACTORS
330
47
102
}
330
47
100
AcDbScale
 70
     0
300
3" = 1'-0"
140
3.0
141
12.0
290
     0
  0
SCALE
  5
67
102
{ACAD_REACTORS
330
47
102
}
330
47
100
AcDbScale
 70
     0
300
6" = 1'-0"
140
6.0
141
12.0
290
     0
  0
SCALE
  5
68
102
{ACAD_REACTORS
330
47
102
}
330
47
100
AcDbScale
 70
     0
300
1'-0" = 1'-0"
140
12.0
141
12.0
290
     0
  0
ENDSEC
  0
EOF
