  0
SECTION
  2
HEADER
  9
$ACADVER
  1
AC1015
  9
$ACADMAINTVER
 70
     6
  9
$DWGCODEPAGE
  3
ANSI_1252
  9
$INSBASE
 10
0.0
 20
0.0
 30
0.0
  9
$EXTMIN
 10
0.0
 20
0.0
 30
0.0
  9
$EXTMAX
 10
297.0
 20
210.0
 30
0.0
  9
$LIMMIN
 10
0.0
 20
0.0
  9
$LIMMAX
 10
297.0
 20
210.0
  9
$ORTHOMODE
 70
     0
  9
$REGENMODE
 70
     1
  9
$FILLMODE
 70
     1
  9
$QTEXTMODE
 70
     0
  9
$MIRRTEXT
 70
     1
  9
$LTSCALE
 40
1.0
  9
$ATTMODE
 70
     1
  9
$TEXTSIZE
 40
2.0
  9
$TRACEWID
 40
1.0
  9
$TEXTSTYLE
  7
Standard
  9
$CLAYER
  8
0
  9
$CELTYPE
  6
ByLayer
  9
$CECOLOR
 62
   256
  9
$CELTSCALE
 40
1.0
  9
$DISPSILH
 70
     0
  9
$DIMSCALE
 40
1.0
  9
$DIMASZ
 40
3.0
  9
$DIMEXO
 40
0.0
  9
$DIMDLI
 40
3.75
  9
$DIMRND
 40
0.0
  9
$DIMDLE
 40
0.0
  9
$DIMEXE
 40
1.0
  9
$DIMTP
 40
0.0
  9
$DIMTM
 40
0.0
  9
$DIMTXT
 40
2.0
  9
$DIMCEN
 40
2.5
  9
$DIMTSZ
 40
0.0
  9
$DIMTOL
 70
     0
  9
$DIMLIM
 70
     0
  9
$DIMTIH
 70
     1
  9
$DIMTOH
 70
     1
  9
$DIMSE1
 70
     0
  9
$DIMSE2
 70
     0
  9
$DIMTAD
 70
     1
  9
$DIMZIN
 70
     0
  9
$DIMBLK
  1

  9
$DIMASO
 70
     1
  9
$DIMSHO
 70
     1
  9
$DIMPOST
  1

  9
$DIMAPOST
  1

  9
$DIMALT
 70
     0
  9
$DIMALTD
 70
     3
  9
$DIMALTF
 40
0.0393700787
  9
$DIMLFAC
 40
1.0
  9
$DIMTOFL
 70
     1
  9
$DIMTVP
 40
0.0
  9
$DIMTIX
 70
     0
  9
$DIMSOXD
 70
     0
  9
$DIMSAH
 70
     0
  9
$DIMBLK1
  1

  9
$DIMBLK2
  1

  9
$DIMSTYLE
  2
ISO-25
  9
$DIMCLRD
 70
     0
  9
$DIMCLRE
 70
     0
  9
$DIMCLRT
 70
     0
  9
$DIMTFAC
 40
1.0
  9
$DIMGAP
 40
1.524
  9
$DIMJUST
 70
     0
  9
$DIMSD1
 70
     0
  9
$DIMSD2
 70
     0
  9
$DIMTOLJ
 70
     0
  9
$DIMTZIN
 70
     0
  9
$DIMALTZ
 70
     0
  9
$DIMALTTZ
 70
     0
  9
$DIMUPT
 70
     0
  9
$DIMDEC
 70
     2
  9
$DIMTDEC
 70
     3
  9
$DIMALTU
 70
     2
  9
$DIMALTTD
 70
     3
  9
$DIMTXSTY
  7
Standard
  9
$DIMAUNIT
 70
     0
  9
$DIMADEC
 70
     2
  9
$DIMALTRND
 40
0.0
  9
$DIMAZIN
 70
     0
  9
$DIMDSEP
 70
    44
  9
$DIMATFIT
 70
     3
  9
$DIMFRAC
 70
     0
  9
$DIMLDRBLK
  1

  9
$DIMLUNIT
 70
     2
  9
$DIMLWD
 70
    -2
  9
$DIMLWE
 70
    -2
  9
$DIMTMOVE
 70
     0
  9
$LUNITS
 70
     2
  9
$LUPREC
 70
     2
  9
$SKETCHINC
 40
1.0
  9
$FILLETRAD
 40
10.0
  9
$AUNITS
 70
     0
  9
$AUPREC
 70
     2
  9
$MENU
  1
.
  9
$ELEVATION
 40
0.0
  9
$PELEVATION
 40
0.0
  9
$THICKNESS
 40
0.0
  9
$LIMCHECK
 70
     0
  9
$CHAMFERA
 40
0.0
  9
$CHAMFERB
 40
0.0
  9
$CHAMFERC
 40
0.0
  9
$CHAMFERD
 40
0.0
  9
$SKPOLY
 70
     0
  9
$TDCREATE
 40
2457668.66065728
  9
$TDUCREATE
 40
2457668.577323947
  9
$TDUPDATE
 40
2457668.660658947
  9
$TDUUPDATE
 40
2457668.577325613
  9
$TDINDWG
 40
0.0000000116
  9
$TDUSRTIMER
 40
0.0000000116
  9
$USRTIMER
 70
     1
  9
$ANGBASE
 50
0.0
  9
$ANGDIR
 70
     0
  9
$PDMODE
 70
     0
  9
$PDSIZE
 40
-1.0
  9
$PLINEWID
 40
0.0
  9
$SPLFRAME
 70
     0
  9
$SPLINETYPE
 70
     6
  9
$SPLINESEGS
 70
     8
  9
$HANDSEED
  5
29B
  9
$SURFTAB1
 70
     6
  9
$SURFTAB2
 70
     6
  9
$SURFTYPE
 70
     6
  9
$SURFU
 70
     6
  9
$SURFV
 70
     6
  9
$UCSBASE
  2

  9
$UCSNAME
  2

  9
$UCSORG
 10
0.0
 20
0.0
 30
0.0
  9
$UCSXDIR
 10
1.0
 20
0.0
 30
0.0
  9
$UCSYDIR
 10
0.0
 20
1.0
 30
0.0
  9
$UCSORTHOREF
  2

  9
$UCSORTHOVIEW
 70
     0
  9
$UCSORGTOP
 10
0.0
 20
0.0
 30
0.0
  9
$UCSORGBOTTOM
 10
0.0
 20
0.0
 30
0.0
  9
$UCSORGLEFT
 10
0.0
 20
0.0
 30
0.0
  9
$UCSORGRIGHT
 10
0.0
 20
0.0
 30
0.0
  9
$UCSORGFRONT
 10
0.0
 20
0.0
 30
0.0
  9
$UCSORGBACK
 10
0.0
 20
0.0
 30
0.0
  9
$PUCSBASE
  2

  9
$PUCSNAME
  2

  9
$PUCSORG
 10
0.0
 20
0.0
 30
0.0
  9
$PUCSXDIR
 10
1.0
 20
0.0
 30
0.0
  9
$PUCSYDIR
 10
0.0
 20
1.0
 30
0.0
  9
$PUCSORTHOREF
  2

  9
$PUCSORTHOVIEW
 70
     0
  9
$PUCSORGTOP
 10
0.0
 20
0.0
 30
0.0
  9
$PUCSORGBOTTOM
 10
0.0
 20
0.0
 30
0.0
  9
$PUCSORGLEFT
 10
0.0
 20
0.0
 30
0.0
  9
$PUCSORGRIGHT
 10
0.0
 20
0.0
 30
0.0
  9
$PUCSORGFRONT
 10
0.0
 20
0.0
 30
0.0
  9
$PUCSORGBACK
 10
0.0
 20
0.0
 30
0.0
  9
$USERI1
 70
     0
  9
$USERI2
 70
     0
  9
$USERI3
 70
     0
  9
$USERI4
 70
     0
  9
$USERI5
 70
     0
  9
$USERR1
 40
0.0
  9
$USERR2
 40
0.0
  9
$USERR3
 40
0.0
  9
$USERR4
 40
0.0
  9
$USERR5
 40
0.0
  9
$WORLDVIEW
 70
     1
  9
$SHADEDGE
 70
     3
  9
$SHADEDIF
 70
    70
  9
$TILEMODE
 70
     1
  9
$MAXACTVP
 70
    64
  9
$PINSBASE
 10
0.0
 20
0.0
 30
0.0
  9
$PLIMCHECK
 70
     0
  9
$PEXTMIN
 10
1.0000000000E+20
 20
1.0000000000E+20
 30
1.0000000000E+20
  9
$PEXTMAX
 10
-1.0000000000E+20
 20
-1.0000000000E+20
 30
-1.0000000000E+20
  9
$PLIMMIN
 10
0.0
 20
0.0
  9
$PLIMMAX
 10
420.0
 20
297.0
  9
$UNITMODE
 70
     0
  9
$VISRETAIN
 70
     1
  9
$PLINEGEN
 70
     0
  9
$PSLTSCALE
 70
     1
  9
$TREEDEPTH
 70
  3020
  9
$CMLSTYLE
  2
Standard
  9
$CMLJUST
 70
     0
  9
$CMLSCALE
 40
20.0
  9
$PROXYGRAPHICS
 70
     1
  9
$MEASUREMENT
 70
     1
  9
$CELWEIGHT
370
    -1
  9
$ENDCAPS
280
     0
  9
$JOINSTYLE
280
     0
  9
$LWDISPLAY
290
     1
  9
$INSUNITS
 70
     4
  9
$HYPERLINKBASE
  1

  9
$STYLESHEET
  1

  9
$XEDIT
290
     1
  9
$CEPSNTYPE
380
     0
  9
$PSTYLEMODE
290
     1
  9
$FINGERPRINTGUID
  2
{0F90671B-2989-48C6-90EA-67D2EDA37766}
  9
$VERSIONGUID
  2
{FAEB1C32-E019-11D5-929B-00C0DF256EC4}
  9
$EXTNAMES
290
     1
  9
$PSVPSCALE
 40
0.0
  9
$OLESTARTUP
290
     0
  0
ENDSEC
  0
SECTION
  2
CLASSES
  0
CLASS
  1
ACDBDICTIONARYWDFLT
  2
AcDbDictionaryWithDefault
  3
ObjectDBX Classes
 90
        0
280
     0
281
     0
  0
CLASS
  1
VISUALSTYLE
  2
AcDbVisualStyle
  3
ObjectDBX Classes
 90
     4095
280
     0
281
     0
  0
CLASS
  1
MATERIAL
  2
AcDbMaterial
  3
ObjectDBX Classes
 90
     1153
280
     0
281
     0
  0
CLASS
  1
SCALE
  2
AcDbScale
  3
ObjectDBX Classes
 90
     1153
280
     0
281
     0
  0
CLASS
  1
TABLESTYLE
  2
AcDbTableStyle
  3
ObjectDBX Classes
 90
     4095
280
     0
281
     0
  0
CLASS
  1
MLEADERSTYLE
  2
AcDbMLeaderStyle
  3
ACDB_MLEADERSTYLE_CLASS
 90
     4095
280
     0
281
     0
  0
CLASS
  1
SUN
  2
AcDbSun
  3
SCENEOE
 90
     1153
280
     0
281
     0
  0
CLASS
  1
ACDBPLACEHOLDER
  2
AcDbPlaceHolder
  3
ObjectDBX Classes
 90
        0
280
     0
281
     0
  0
CLASS
  1
LAYOUT
  2
AcDbLayout
  3
ObjectDBX Classes
 90
        0
280
     0
281
     0
  0
ENDSEC
  0
SECTION
  2
TABLES
  0
TABLE
  2
VPORT
  5
8
330
0
100
AcDbSymbolTable
 70
     1
  0
VPORT
  5
29
330
8
100
AcDbSymbolTableRecord
100
AcDbViewportTableRecord
  2
*Active
 70
     0
 10
0.0
 20
0.0
 11
1.0
 21
1.0
 12
148.5
 22
105.0
 13
0.0
 23
0.0
 14
10.0
 24
10.0
 15
10.0
 25
10.0
 16
0.0
 26
0.0
 36
1.0
 17
0.0
 27
0.0
 37
0.0
 40
210.0
 41
1.4142857143
 42
50.0
 43
0.0
 44
0.0
 50
0.0
 51
0.0
 71
     0
 72
  2000
 73
     1
 74
     3
 75
     0
 76
     0
 77
     0
 78
     0
281
     0
 65
     1
110
0.0
120
0.0
130
0.0
111
1.0
121
0.0
131
0.0
112
0.0
122
1.0
132
0.0
 79
     0
146
0.0
  0
ENDTAB
  0
TABLE
  2
LTYPE
  5
5
330
0
100
AcDbSymbolTable
 70
     6
  0
LTYPE
  5
14
330
5
100
AcDbSymbolTableRecord
100
AcDbLinetypeTableRecord
  2
ByBlock
 70
     0
  3

 72
    65
 73
     0
 40
0.0
  0
LTYPE
  5
15
330
5
100
AcDbSymbolTableRecord
100
AcDbLinetypeTableRecord
  2
ByLayer
 70
     0
  3

 72
    65
 73
     0
 40
0.0
  0
LTYPE
  5
16
330
5
100
AcDbSymbolTableRecord
100
AcDbLinetypeTableRecord
  2
Continuous
 70
     0
  3
Solid line
 72
    65
 73
     0
 40
0.0
  0
LTYPE
  5
6E
330
5
100
AcDbSymbolTableRecord
100
AcDbLinetypeTableRecord
  2
HIDDEN
 70
     0
  3
Hidden __ __ __ __ __ __ __ __ __ __ __ __ __ __
 72
    65
 73
     2
 40
1.905
 49
1.27
 74
     0
 49
-0.635
 74
     0
  0
LTYPE
  5
6F
330
5
100
AcDbSymbolTableRecord
100
AcDbLinetypeTableRecord
  2
PHANTOM
 70
     0
  3
Phantom ______  __  __  ______  __  __  ______
 72
    65
 73
     6
 40
12.7
 49
6.35
 74
     0
 49
-1.27
 74
     0
 49
1.27
 74
     0
 49
-1.27
 74
     0
 49
1.27
 74
     0
 49
-1.27
 74
     0
  0
LTYPE
  5
70
330
5
100
AcDbSymbolTableRecord
100
AcDbLinetypeTableRecord
  2
CENTER
 70
     0
  3
Center ____ _ ____ _ ____ _ ____ _ ____ _ ____
 72
    65
 73
     4
 40
10.16
 49
6.35
 74
     0
 49
-1.27
 74
     0
 49
1.27
 74
     0
 49
-1.27
 74
     0
  0
LTYPE
  5
71
330
5
100
AcDbSymbolTableRecord
100
AcDbLinetypeTableRecord
  2
CENTERX2
 70
     0
  3
Center (2x) ________  __  ________  __  _____
 72
    65
 73
     4
 40
20.32
 49
12.7
 74
     0
 49
-2.54
 74
     0
 49
2.54
 74
     0
 49
-2.54
 74
     0
  0
LTYPE
  5
72
330
5
100
AcDbSymbolTableRecord
100
AcDbLinetypeTableRecord
  2
DOT2
 70
     0
  3
Dot (.5x) ........................................
 72
    65
 73
     2
 40
0.635
 49
0.0
 74
     0
 49
-0.635
 74
     0
  0
ENDTAB
  0
TABLE
  2
LAYER
  5
2
330
0
100
AcDbSymbolTable
 70
     5
  0
LAYER
  5
10
330
2
100
AcDbSymbolTableRecord
100
AcDbLayerTableRecord
  2
0
 70
     0
 62
     7
  6
Continuous
370
    -3
390
F
  0
LAYER
  5
73
330
2
100
AcDbSymbolTableRecord
100
AcDbLayerTableRecord
  2
FORMAT
 70
     0
 62
     7
  6
Continuous
370
    -3
390
F
  0
LAYER
  5
74
330
2
100
AcDbSymbolTableRecord
100
AcDbLayerTableRecord
  2
VERMASSUNG
 70
     0
 62
     7
  6
Continuous
370
    -3
390
F
  0
LAYER
  5
75
330
2
100
AcDbSymbolTableRecord
100
AcDbLayerTableRecord
  2
KOPF_DÜNN
 70
     0
 62
     7
  6
Continuous
370
    -3
390
F
  0
LAYER
  5
76
330
2
100
AcDbSymbolTableRecord
100
AcDbLayerTableRecord
  2
KOPF_DICK
 70
     0
 62
     7
  6
Continuous
370
    15
390
F
  0
ENDTAB
  0
TABLE
  2
STYLE
  5
3
330
0
100
AcDbSymbolTable
 70
     3
  0
STYLE
  5
11
330
3
100
AcDbSymbolTableRecord
100
AcDbTextStyleTableRecord
  2
Standard
 70
     0
 40
0.0
 41
1.0
 50
0.0
 71
     0
 42
2.0
  3
txt
  4

  0
STYLE
  5
77
330
3
100
AcDbSymbolTableRecord
100
AcDbTextStyleTableRecord
  2
SLDTEXTSTYLE0
 70
     0
 40
0.0
 41
0.7
 50
0.0
 71
     0
 42
2.0
  3
TXT
  4

  0
STYLE
  5
1AD
330
3
100
AcDbSymbolTableRecord
100
AcDbTextStyleTableRecord
  2
SLDTEXTSTYLE1
 70
     0
 40
0.0
 41
0.65
 50
0.0
 71
     0
 42
2.0
  3
TXT
  4

  0
ENDTAB
  0
TABLE
  2
VIEW
  5
6
330
0
100
AcDbSymbolTable
 70
     0
  0
ENDTAB
  0
TABLE
  2
UCS
  5
7
330
0
100
AcDbSymbolTable
 70
     0
  0
ENDTAB
  0
TABLE
  2
APPID
  5
9
330
0
100
AcDbSymbolTable
 70
     1
  0
APPID
  5
12
330
9
100
AcDbSymbolTableRecord
100
AcDbRegAppTableRecord
  2
ACAD
 70
     0
  0
ENDTAB
  0
TABLE
  2
DIMSTYLE
  5
A
330
0
100
AcDbSymbolTable
 70
     2
100
AcDbDimStyleTable
  0
DIMSTYLE
105
27
330
A
100
AcDbSymbolTableRecord
100
AcDbDimStyleTableRecord
  2
ISO-25
 70
     0
 41
2.5
 42
0.625
 43
3.75
 44
1.25
 73
     0
 74
     0
 77
     1
 78
     8
140
2.5
141
2.5
143
0.0393700787
147
0.625
171
     3
172
     1
178
     0
271
     2
272
     2
274
     3
278
    44
283
     0
284
     8
340
11
  0
DIMSTYLE
105
18D
102
{ACAD_REACTORS
330
18C
330
199
330
1A4
330
1B1
330
1BD
330
1C7
102
}
330
A
100
AcDbSymbolTableRecord
100
AcDbDimStyleTableRecord
  2
SLDDIMSTYLE0
 70
     0
 41
3.0
 44
0.0
 45
0.000000001
 73
     0
 74
     0
 77
     1
 78
    12
 79
     3
140
2.0
147
0.5
173
     1
178
     0
271
     2
272
     3
276
     2
284
    12
340
77
  0
ENDTAB
  0
TABLE
  2
BLOCK_RECORD
  5
1
330
0
100
AcDbSymbolTable
 70
     7
  0
BLOCK_RECORD
  5
1F
330
1
100
AcDbSymbolTableRecord
100
AcDbBlockTableRecord
  2
*Model_Space
340
22
  0
BLOCK_RECORD
  5
1B
330
1
100
AcDbSymbolTableRecord
100
AcDbBlockTableRecord
  2
*Paper_Space
340
1E
  0
BLOCK_RECORD
  5
23
330
1
100
AcDbSymbolTableRecord
100
AcDbBlockTableRecord
  2
*Paper_Space0
340
26
  0
BLOCK_RECORD
  5
18E
330
1
100
AcDbSymbolTableRecord
100
AcDbBlockTableRecord
  2
_D
340
0
  0
BLOCK_RECORD
  5
19A
330
1
100
AcDbSymbolTableRecord
100
AcDbBlockTableRecord
  2
_D_1
340
0
  0
BLOCK_RECORD
  5
1A5
330
1
100
AcDbSymbolTableRecord
100
AcDbBlockTableRecord
  2
_D_2
340
0
  0
BLOCK_RECORD
  5
1B2
330
1
100
AcDbSymbolTableRecord
100
AcDbBlockTableRecord
  2
_D_3
340
0
  0
BLOCK_RECORD
  5
1BE
330
1
100
AcDbSymbolTableRecord
100
AcDbBlockTableRecord
  2
_D_4
340
0
  0
BLOCK_RECORD
  5
1C8
330
1
100
AcDbSymbolTableRecord
100
AcDbBlockTableRecord
  2
_D_5
340
0
  0
ENDTAB
  0
ENDSEC
  0
SECTION
  2
BLOCKS
  0
BLOCK
  5
20
330
1F
100
AcDbEntity
  8
0
100
AcDbBlockBegin
  2
*Model_Space
 70
     0
 10
0.0
 20
0.0
 30
0.0
  3
*Model_Space
  1

  0
ENDBLK
  5
21
330
1F
100
AcDbEntity
  8
0
100
AcDbBlockEnd
  0
BLOCK
  5
1C
330
1B
100
AcDbEntity
 67
     1
  8
0
100
AcDbBlockBegin
  2
*Paper_Space
 70
     0
 10
0.0
 20
0.0
 30
0.0
  3
*Paper_Space
  1

  0
ENDBLK
  5
1D
330
1B
100
AcDbEntity
 67
     1
  8
0
100
AcDbBlockEnd
  0
BLOCK
  5
24
330
23
100
AcDbEntity
  8
0
100
AcDbBlockBegin
  2
*Paper_Space0
 70
     0
 10
0.0
 20
0.0
 30
0.0
  3
*Paper_Space0
  1

  0
ENDBLK
  5
25
330
23
100
AcDbEntity
  8
0
100
AcDbBlockEnd
  0
BLOCK
  5
18F
330
18E
100
AcDbEntity
  8
0
100
AcDbBlockBegin
  2
_D
 70
     0
 10
0.0
 20
0.0
 30
0.0
  3
_D
  1

  0
SOLID
  5
191
330
18E
100
AcDbEntity
  8
VERMASSUNG
100
AcDbTrace
 10
213.3724056255
 20
136.7061783166
 30
0.0
 11
212.9224056255
 21
133.7061783166
 31
0.0
 12
213.8224056255
 22
133.7061783166
 32
0.0
 13
213.8224056255
 23
133.7061783166
 33
0.0
  0
SOLID
  5
192
330
18E
100
AcDbEntity
  8
VERMASSUNG
100
AcDbTrace
 10
213.3724056255
 20
72.7061783166
 30
0.0
 11
213.8224056255
 21
75.7061783166
 31
0.0
 12
212.9224056255
 22
75.7061783166
 32
0.0
 13
212.9224056255
 23
75.7061783166
 33
0.0
  0
LINE
  5
193
330
18E
100
AcDbEntity
  8
VERMASSUNG
100
AcDbLine
 10
201.0661743117
 20
136.7061783166
 30
0.0
 11
214.3724056255
 21
136.7061783166
 31
0.0
  0
LINE
  5
194
330
18E
100
AcDbEntity
  8
VERMASSUNG
100
AcDbLine
 10
201.0661743117
 20
72.7061783166
 30
0.0
 11
214.3724056255
 21
72.7061783166
 31
0.0
  0
LINE
  5
195
330
18E
100
AcDbEntity
  8
VERMASSUNG
100
AcDbLine
 10
213.3724056255
 20
136.7061783166
 30
0.0
 11
213.3724056255
 21
72.7061783166
 31
0.0
  0
MTEXT
  5
196
330
18E
100
AcDbEntity
  8
VERMASSUNG
100
AcDbMText
 10
210.5942703692
 20
98.5029816121
 30
0.0
 40
2.0
 41
0.0
 71
     1
 72
     1
  1
ST6
  7
SLDTEXTSTYLE0
 11
-7.044195017643634E-15
 21
1.0
 31
0.0
 73
     1
 44
1.0
  0
MTEXT
  5
197
330
18E
100
AcDbEntity
  8
VERMASSUNG
100
AcDbMText
 10
210.7942703205
 20
104.3029815384
 30
0.0
 40
2.0
 41
0.0
 71
     1
 72
     1
  1
%%c
  7
SLDTEXTSTYLE0
 11
-7.044195017643634E-15
 21
1.0
 31
0.0
 73
     1
 44
1.0
  0
MTEXT
  5
198
330
18E
100
AcDbEntity
  8
VERMASSUNG
100
AcDbMText
 10
210.7942700295
 20
107.9114574103
 30
0.0
 40
2.0
 41
0.0
 71
     1
 72
     1
  1
64
  7
SLDTEXTSTYLE0
 11
-7.044195017643634E-15
 21
1.0
 31
0.0
 73
     1
 44
1.0
  0
ENDBLK
  5
190
330
18E
100
AcDbEntity
  8
0
100
AcDbBlockEnd
  0
BLOCK
  5
19B
330
19A
100
AcDbEntity
  8
0
100
AcDbBlockBegin
  2
_D_1
 70
     0
 10
0.0
 20
0.0
 30
0.0
  3
_D_1
  1

  0
SOLID
  5
19D
330
19A
100
AcDbEntity
  8
VERMASSUNG
100
AcDbTrace
 10
207.3724056255
 20
122.7061783166
 30
0.0
 11
206.9224056255
 21
119.7061783166
 31
0.0
 12
207.8224056255
 22
119.7061783166
 32
0.0
 13
207.8224056255
 23
119.7061783166
 33
0.0
  0
SOLID
  5
19E
330
19A
100
AcDbEntity
  8
VERMASSUNG
100
AcDbTrace
 10
207.3724056255
 20
86.7061783166
 30
0.0
 11
207.8224056255
 21
89.7061783166
 31
0.0
 12
206.9224056255
 22
89.7061783166
 32
0.0
 13
206.9224056255
 23
89.7061783166
 33
0.0
  0
LINE
  5
19F
330
19A
100
AcDbEntity
  8
VERMASSUNG
100
AcDbLine
 10
185.0661743116
 20
122.7061783166
 30
0.0
 11
208.3724056255
 21
122.7061783166
 31
0.0
  0
LINE
  5
1A0
330
19A
100
AcDbEntity
  8
VERMASSUNG
100
AcDbLine
 10
185.0661743116
 20
86.7061783166
 30
0.0
 11
208.3724056255
 21
86.7061783166
 31
0.0
  0
LINE
  5
1A1
330
19A
100
AcDbEntity
  8
VERMASSUNG
100
AcDbLine
 10
207.3724056255
 20
122.7061783166
 30
0.0
 11
207.3724056255
 21
86.7061783166
 31
0.0
  0
MTEXT
  5
1A2
330
19A
100
AcDbEntity
  8
VERMASSUNG
100
AcDbMText
 10
204.7942700877
 20
101.5020022095
 30
0.0
 40
2.0
 41
0.0
 71
     1
 72
     1
  1
%%c
  7
SLDTEXTSTYLE0
 11
-7.044195017643634E-15
 21
1.0
 31
0.0
 73
     1
 44
1.0
  0
MTEXT
  5
1A3
330
19A
100
AcDbEntity
  8
VERMASSUNG
100
AcDbMText
 10
204.7942700295
 20
105.1109744031
 30
0.0
 40
2.0
 41
0.0
 71
     1
 72
     1
  1
36
  7
SLDTEXTSTYLE0
 11
-7.044195017643634E-15
 21
1.0
 31
0.0
 73
     1
 44
1.0
  0
ENDBLK
  5
19C
330
19A
100
AcDbEntity
  8
0
100
AcDbBlockEnd
  0
BLOCK
  5
1A6
330
1A5
100
AcDbEntity
  8
0
100
AcDbBlockBegin
  2
_D_2
 70
     0
 10
0.0
 20
0.0
 30
0.0
  3
_D_2
  1

  0
SOLID
  5
1A8
330
1A5
100
AcDbEntity
  8
VERMASSUNG
100
AcDbTrace
 10
94.6367898241
 20
136.2061783166
 30
0.0
 11
94.1867898241
 21
133.2061783166
 31
0.0
 12
95.0867898241
 22
133.2061783166
 32
0.0
 13
95.0867898241
 23
133.2061783166
 33
0.0
  0
SOLID
  5
1A9
330
1A5
100
AcDbEntity
  8
VERMASSUNG
100
AcDbTrace
 10
94.6367898241
 20
73.2061783166
 30
0.0
 11
95.0867898241
 21
76.2061783166
 31
0.0
 12
94.1867898241
 22
76.2061783166
 32
0.0
 13
94.1867898241
 23
76.2061783166
 33
0.0
  0
LINE
  5
1AA
330
1A5
100
AcDbEntity
  8
VERMASSUNG
100
AcDbLine
 10
131.9661743117
 20
136.2061783166
 30
0.0
 11
93.6367898241
 21
136.2061783166
 31
0.0
  0
LINE
  5
1AB
330
1A5
100
AcDbEntity
  8
VERMASSUNG
100
AcDbLine
 10
131.9661743117
 20
73.2061783166
 30
0.0
 11
93.6367898241
 21
73.2061783166
 31
0.0
  0
LINE
  5
1AC
330
1A5
100
AcDbEntity
  8
VERMASSUNG
100
AcDbLine
 10
94.6367898241
 20
136.2061783166
 30
0.0
 11
94.6367898241
 21
73.2061783166
 31
0.0
  0
MTEXT
  5
1AE
330
1A5
100
AcDbEntity
  8
VERMASSUNG
100
AcDbMText
 10
91.8586545679
 20
95.0021021065
 30
0.0
 40
2.0
 41
0.0
 71
     1
 72
     1
  1
HSK A 63
  7
SLDTEXTSTYLE1
 11
-7.044195017643634E-15
 21
1.0
 31
0.0
 73
     1
 44
1.0
  0
MTEXT
  5
1AF
330
1A5
100
AcDbEntity
  8
VERMASSUNG
100
AcDbMText
 10
92.0586545191
 20
108.0021023747
 30
0.0
 40
2.0
 41
0.0
 71
     1
 72
     1
  1
%%c
  7
SLDTEXTSTYLE0
 11
-7.044195017643634E-15
 21
1.0
 31
0.0
 73
     1
 44
1.0
  0
MTEXT
  5
1B0
330
1A5
100
AcDbEntity
  8
VERMASSUNG
100
AcDbMText
 10
92.0586542281
 20
111.6108745061
 30
0.0
 40
2.0
 41
0.0
 71
     1
 72
     1
  1
63
  7
SLDTEXTSTYLE0
 11
-7.044195017643634E-15
 21
1.0
 31
0.0
 73
     1
 44
1.0
  0
ENDBLK
  5
1A7
330
1A5
100
AcDbEntity
  8
0
100
AcDbBlockEnd
  0
BLOCK
  5
1B3
330
1B2
100
AcDbEntity
  8
0
100
AcDbBlockBegin
  2
_D_3
 70
     0
 10
0.0
 20
0.0
 30
0.0
  3
_D_3
  1

  0
ARC
  5
1B5
330
1B2
100
AcDbEntity
  8
VERMASSUNG
100
AcDbCircle
 10
150.2283519636
 20
157.9516898098
 30
0.0
 40
4.247059938537284
100
AcDbArc
 50
153.4349488229
 51
206.5650511771
  0
ARC
  5
1B6
330
1B2
100
AcDbEntity
  8
VERMASSUNG
100
AcDbCircle
 10
151.2039966598
 20
157.9516898098
 30
0.0
 40
4.247059938537284
100
AcDbArc
 50
333.4349488229
 51
26.5650511771
  0
SOLID
  5
1B7
330
1B2
100
AcDbEntity
  8
VERMASSUNG
100
AcDbTrace
 10
99.7661743117
 20
156.0523468644
 30
0.0
 11
102.7661743117
 21
155.6023468644
 31
0.0
 12
102.7661743117
 22
156.5023468644
 32
0.0
 13
102.7661743117
 23
156.5023468644
 33
0.0
  0
SOLID
  5
1B8
330
1B2
100
AcDbEntity
  8
VERMASSUNG
100
AcDbTrace
 10
201.6661743117
 20
156.0523468644
 30
0.0
 11
198.6661743117
 21
156.5023468644
 31
0.0
 12
198.6661743117
 22
155.6023468644
 32
0.0
 13
198.6661743117
 23
155.6023468644
 33
0.0
  0
LINE
  5
1B9
330
1B2
100
AcDbEntity
  8
VERMASSUNG
100
AcDbLine
 10
99.7661743117
 20
124.396856063
 30
0.0
 11
99.7661743117
 21
157.0523468644
 31
0.0
  0
LINE
  5
1BA
330
1B2
100
AcDbEntity
  8
VERMASSUNG
100
AcDbLine
 10
201.6661743117
 20
136.1061783166
 30
0.0
 11
201.6661743117
 21
157.0523468644
 31
0.0
  0
LINE
  5
1BB
330
1B2
100
AcDbEntity
  8
VERMASSUNG
100
AcDbLine
 10
99.7661743117
 20
156.0523468644
 30
0.0
 11
201.6661743117
 21
156.0523468644
 31
0.0
  0
MTEXT
  5
1BC
330
1B2
100
AcDbEntity
  8
VERMASSUNG
100
AcDbMText
 10
148.0171660727
 20
158.6304824603
 30
0.0
 40
2.0
 41
0.0
 71
     1
 72
     1
  1
101.9
  7
SLDTEXTSTYLE0
 73
     1
 44
1.0
  0
ENDBLK
  5
1B4
330
1B2
100
AcDbEntity
  8
0
100
AcDbBlockEnd
  0
BLOCK
  5
1BF
330
1BE
100
AcDbEntity
  8
0
100
AcDbBlockBegin
  2
_D_4
 70
     0
 10
0.0
 20
0.0
 30
0.0
  3
_D_4
  1

  0
SOLID
  5
1C1
330
1BE
100
AcDbEntity
  8
VERMASSUNG
100
AcDbTrace
 10
131.6661743117
 20
150.0523468644
 30
0.0
 11
134.6661743117
 21
149.6023468644
 31
0.0
 12
134.6661743117
 22
150.5023468644
 32
0.0
 13
134.6661743117
 23
150.5023468644
 33
0.0
  0
SOLID
  5
1C2
330
1BE
100
AcDbEntity
  8
VERMASSUNG
100
AcDbTrace
 10
201.6661743117
 20
150.0523468644
 30
0.0
 11
198.6661743117
 21
150.5023468644
 31
0.0
 12
198.6661743117
 22
149.6023468644
 32
0.0
 13
198.6661743117
 23
149.6023468644
 33
0.0
  0
LINE
  5
1C3
330
1BE
100
AcDbEntity
  8
VERMASSUNG
100
AcDbLine
 10
131.6661743117
 20
135.9061783166
 30
0.0
 11
131.6661743117
 21
151.0523468644
 31
0.0
  0
LINE
  5
1C4
330
1BE
100
AcDbEntity
  8
VERMASSUNG
100
AcDbLine
 10
201.6661743117
 20
136.1061783166
 30
0.0
 11
201.6661743117
 21
151.0523468644
 31
0.0
  0
LINE
  5
1C5
330
1BE
100
AcDbEntity
  8
VERMASSUNG
100
AcDbLine
 10
131.6661743117
 20
150.0523468644
 30
0.0
 11
201.6661743117
 21
150.0523468644
 31
0.0
  0
MTEXT
  5
1C6
330
1BE
100
AcDbEntity
  8
VERMASSUNG
100
AcDbMText
 10
165.2664843014
 20
152.6304824603
 30
0.0
 40
2.0
 41
0.0
 71
     1
 72
     1
  1
70
  7
SLDTEXTSTYLE0
 73
     1
 44
1.0
  0
ENDBLK
  5
1C0
330
1BE
100
AcDbEntity
  8
0
100
AcDbBlockEnd
  0
BLOCK
  5
1C9
330
1C8
100
AcDbEntity
  8
0
100
AcDbBlockBegin
  2
_D_5
 70
     0
 10
0.0
 20
0.0
 30
0.0
  3
_D_5
  1

  0
ARC
  5
1CB
330
1C8
100
AcDbEntity
  8
VERMASSUNG
100
AcDbCircle
 10
178.5533272468
 20
145.9516898098
 30
0.0
 40
4.247059938537297
100
AcDbArc
 50
153.4349488229
 51
206.5650511771
  0
ARC
  5
1CC
330
1C8
100
AcDbEntity
  8
VERMASSUNG
100
AcDbCircle
 10
180.7290213766
 20
145.9516898098
 30
0.0
 40
4.247059938537297
100
AcDbArc
 50
333.4349488229
 51
26.5650511771
  0
SOLID
  5
1CD
330
1C8
100
AcDbEntity
  8
VERMASSUNG
100
AcDbTrace
 10
157.6161743117
 20
144.0523468644
 30
0.0
 11
160.6161743117
 21
143.6023468644
 31
0.0
 12
160.6161743117
 22
144.5023468644
 32
0.0
 13
160.6161743117
 23
144.5023468644
 33
0.0
  0
SOLID
  5
1CE
330
1C8
100
AcDbEntity
  8
VERMASSUNG
100
AcDbTrace
 10
201.6661743117
 20
144.0523468644
 30
0.0
 11
198.6661743117
 21
144.5023468644
 31
0.0
 12
198.6661743117
 22
143.6023468644
 32
0.0
 13
198.6661743117
 23
143.6023468644
 33
0.0
  0
LINE
  5
1CF
330
1C8
100
AcDbEntity
  8
VERMASSUNG
100
AcDbLine
 10
157.6161743117
 20
134.5526186403
 30
0.0
 11
157.6161743117
 21
145.0523468644
 31
0.0
  0
LINE
  5
1D0
330
1C8
100
AcDbEntity
  8
VERMASSUNG
100
AcDbLine
 10
201.6661743117
 20
136.1061783166
 30
0.0
 11
201.6661743117
 21
145.0523468644
 31
0.0
  0
LINE
  5
1D1
330
1C8
100
AcDbEntity
  8
VERMASSUNG
100
AcDbLine
 10
157.6161743117
 20
144.0523468644
 30
0.0
 11
201.6661743117
 21
144.0523468644
 31
0.0
  0
MTEXT
  5
1D2
330
1C8
100
AcDbEntity
  8
VERMASSUNG
100
AcDbMText
 10
176.342141356
 20
146.6304824603
 30
0.0
 40
2.0
 41
0.0
 71
     1
 72
     1
  1
44.05
  7
SLDTEXTSTYLE0
 73
     1
 44
1.0
  0
ENDBLK
  5
1CA
330
1C8
100
AcDbEntity
  8
0
100
AcDbBlockEnd
  0
ENDSEC
  0
SECTION
  2
ENTITIES
  0
MTEXT
  5
78
330
1F
100
AcDbEntity
  8
KOPF_DÜNN
100
AcDbMText
 10
13.8892156294
 20
23.8442973028
 30
0.0
 40
3.0
 41
0.0
 71
     1
 72
     1
  1
144.806.064.070
  7
SLDTEXTSTYLE0
 73
     1
 44
1.0
  0
MTEXT
  5
79
330
1F
100
AcDbEntity
  8
VERMASSUNG
100
AcDbMText
 10
13.9329988022
 20
28.8834360957
 30
0.0
 40
3.0
 41
0.0
 71
     1
 72
     1
  1
Aufnahme_Master shank ST6
  7
SLDTEXTSTYLE0
 73
     1
 44
1.0
  0
MTEXT
  5
7A
330
1F
100
AcDbEntity
  8
VERMASSUNG
100
AcDbMText
 10
98.8601118557
 20
13.8365368761
 30
0.0
 40
2.0
 41
0.0
 71
     1
 72
     1
  1
Datum: 10.06.2008
  7
SLDTEXTSTYLE0
 73
     1
 44
1.0
  0
MTEXT
  5
7B
330
1F
100
AcDbEntity
  8
VERMASSUNG
100
AcDbMText
 10
13.933048693
 20
18.0482802738
 30
0.0
 40
2.0
 41
0.0
 71
     1
 72
     1
  1
DIN 69893 HSK A 63
  7
SLDTEXTSTYLE0
 73
     1
 44
1.0
  0
MTEXT
  5
7C
330
1F
100
AcDbEntity
  8
VERMASSUNG
100
AcDbMText
 10
13.9808475933
 20
13.9090974274
 30
0.0
 40
2.0
 41
0.0
 71
     1
 72
     1
  1
Gewicht: 1249g
  7
SLDTEXTSTYLE0
 73
     1
 44
1.0
  0
LINE
  5
7D
330
1F
100
AcDbEntity
  8
0
  6
Continuous
 62
     7
370
    15
100
AcDbLine
 10
201.0661743117
 20
136.7061783166
 30
0.0
 11
177.707626196
 21
136.7061783166
 31
0.0
  0
LINE
  5
7E
330
1F
100
AcDbEntity
  8
0
  6
Continuous
 62
     7
370
    15
100
AcDbLine
 10
177.707626196
 20
72.7061783166
 30
0.0
 11
201.0661743117
 21
72.7061783166
 31
0.0
  0
ARC
  5
7F
330
1F
100
AcDbEntity
  8
0
  6
Continuous
 62
     7
370
    15
100
AcDbCircle
 10
177.707626196
 20
135.7061783166
 30
0.0
 40
1.0
100
AcDbArc
 50
90.0
 51
150.0
  0
ARC
  5
80
330
1F
100
AcDbEntity
  8
0
  6
Continuous
 62
     7
370
    15
100
AcDbCircle
 10
177.707626196
 20
73.7061783166
 30
0.0
 40
1.0
100
AcDbArc
 50
210.0
 51
270.0
  0
LINE
  5
81
330
1F
100
AcDbEntity
  8
0
  6
Continuous
 62
     7
370
    15
100
AcDbLine
 10
201.0661743117
 20
72.7061783166
 30
0.0
 11
201.6661743117
 21
73.3061783166
 31
0.0
  0
LINE
  5
82
330
1F
100
AcDbEntity
  8
0
  6
Continuous
 62
     7
370
    15
100
AcDbLine
 10
201.6661743117
 20
136.1061783166
 30
0.0
 11
201.0661743117
 21
136.7061783166
 31
0.0
  0
LINE
  5
83
330
1F
100
AcDbEntity
  8
0
  6
Continuous
 62
     7
370
    15
100
AcDbLine
 10
176.8416007922
 20
136.2061783166
 30
0.0
 11
173.9548494463
 21
131.2061783166
 31
0.0
  0
LINE
  5
84
330
1F
100
AcDbEntity
  8
0
  6
Continuous
 62
     7
370
    15
100
AcDbLine
 10
173.9548494463
 20
78.2061783166
 30
0.0
 11
176.8416007922
 21
73.2061783166
 31
0.0
  0
LINE
  5
85
330
1F
100
AcDbEntity
  8
0
  6
Continuous
 62
     7
370
    15
100
AcDbLine
 10
131.9661743117
 20
73.2061783166
 30
0.0
 11
136.6161743117
 21
73.2061783166
 31
0.0
  0
LINE
  5
86
330
1F
100
AcDbEntity
  8
0
  6
Continuous
 62
     7
370
    15
100
AcDbLine
 10
136.6441626708
 20
136.2061783166
 30
0.0
 11
131.9661743117
 21
136.2061783166
 31
0.0
  0
ARC
  5
87
330
1F
100
AcDbEntity
  8
0
  6
Continuous
 62
     7
370
    15
100
AcDbCircle
 10
131.9661743117
 20
73.5061783166
 30
0.0
 40
0.2999999999999972
100
AcDbArc
 50
180.0
 51
270.0
  0
ARC
  5
88
330
1F
100
AcDbEntity
  8
0
  6
Continuous
 62
     7
370
    15
100
AcDbCircle
 10
131.9661743117
 20
135.9061783166
 30
0.0
 40
0.3000000000000114
100
AcDbArc
 50
90.0
 51
180.0
  0
ARC
  5
89
330
1F
100
AcDbEntity
  8
0
  6
Continuous
 62
     7
370
    15
100
AcDbCircle
 10
158.6161743117
 20
77.7061783166
 30
0.0
 40
1.0
100
AcDbArc
 50
90.0
 51
143.1139143113
  0
ARC
  5
8A
330
1F
100
AcDbEntity
  8
0
  6
Continuous
 62
     7
370
    15
100
AcDbCircle
 10
158.6161743117
 20
131.7061783166
 30
0.0
 40
1.0
100
AcDbArc
 50
216.8996843908
 51
270.0
  0
ARC
  5
8B
330
1F
100
AcDbEntity
  8
0
  6
Continuous
 62
     7
370
    15
100
AcDbCircle
 10
173.0888240425
 20
131.7061783166
 30
0.0
 40
1.0
100
AcDbArc
 50
270.0
 51
330.0
  0
ARC
  5
8C
330
1F
100
AcDbEntity
  8
0
  6
Continuous
 62
     7
370
    15
100
AcDbCircle
 10
173.0888240425
 20
77.7061783166
 30
0.0
 40
1.0
100
AcDbArc
 50
30.0
 51
90.0
  0
LINE
  5
8D
330
1F
100
AcDbEntity
  8
0
  6
Continuous
 62
     7
370
    15
100
AcDbLine
 10
158.6161743117
 20
78.7061783166
 30
0.0
 11
173.0888240425
 21
78.7061783166
 31
0.0
  0
LINE
  5
8E
330
1F
100
AcDbEntity
  8
0
  6
Continuous
 62
     7
370
    15
100
AcDbLine
 10
173.0888240425
 20
130.7061783166
 30
0.0
 11
158.6161743117
 21
130.7061783166
 31
0.0
  0
ARC
  5
8F
330
1F
100
AcDbEntity
  8
0
  6
Continuous
 62
     7
370
    15
100
AcDbCircle
 10
131.166167559
 20
80.1357407022
 30
0.0
 40
0.6000067526677282
100
AcDbArc
 50
33.5571153394
 51
90.0
  0
ARC
  5
90
330
1F
100
AcDbEntity
  8
0
  6
Continuous
 62
     7
370
    15
100
AcDbCircle
 10
131.166167559
 20
129.276615931
 30
0.0
 40
0.600006752667744
100
AcDbArc
 50
270.0
 51
326.4428846606
  0
LINE
  5
91
330
1F
100
AcDbEntity
  8
0
  6
Continuous
 62
     7
370
    15
100
AcDbLine
 10
118.4346655128
 20
128.3639083367
 30
0.0
 11
105.8661743117
 21
127.7342244088
 31
0.0
  0
LINE
  5
92
330
1F
100
AcDbEntity
  8
0
  6
Continuous
 62
     7
370
    15
100
AcDbLine
 10
129.6661743117
 20
128.9266091783
 30
0.0
 11
126.8491726543
 21
128.7854768307
 31
0.0
  0
LINE
  5
93
330
1F
100
AcDbEntity
  8
0
  6
Continuous
 62
     7
370
    15
100
AcDbLine
 10
126.8492287444
 20
80.6268769923
 30
0.0
 11
129.6661743117
 21
80.4857474548
 31
0.0
  0
LINE
  5
94
330
1F
100
AcDbEntity
  8
0
  6
Continuous
 62
     7
370
    15
100
AcDbLine
 10
109.8661743117
 20
81.4777314228
 30
0.0
 11
118.4350680315
 21
81.0484281302
 31
0.0
  0
LINE
  5
95
330
1F
100
AcDbEntity
  8
0
  6
Continuous
 62
     7
370
    15
100
AcDbLine
 10
129.6661743117
 20
80.4857474548
 30
0.0
 11
130.5228870851
 21
80.7153029506
 31
0.0
  0
LINE
  5
96
330
1F
100
AcDbEntity
  8
0
  6
Continuous
 62
     7
370
    15
100
AcDbLine
 10
130.5228870851
 20
128.6970536825
 30
0.0
 11
129.6661743117
 21
128.9266091783
 31
0.0
  0
ARC
  5
97
330
1F
100
AcDbEntity
  8
0
  6
Continuous
 62
     7
370
    15
100
AcDbCircle
 10
130.6781785121
 20
80.1357474548
 30
0.0
 40
0.5999999999999943
100
AcDbArc
 50
90.0
 51
105.0
  0
ARC
  5
98
330
1F
100
AcDbEntity
  8
0
  6
Continuous
 62
     7
370
    15
100
AcDbCircle
 10
130.6781785121
 20
129.2766091783
 30
0.0
 40
0.5999999999999943
100
AcDbArc
 50
255.0
 51
270.0
  0
LINE
  5
99
330
1F
100
AcDbEntity
  8
0
  6
Continuous
 62
     7
370
    15
100
AcDbLine
 10
130.6781785121
 20
80.7357474548
 30
0.0
 11
131.166167559
 21
80.7357474548
 31
0.0
  0
LINE
  5
9A
330
1F
100
AcDbEntity
  8
0
  6
Continuous
 62
     7
370
    15
100
AcDbLine
 10
131.166167559
 20
128.6766091783
 30
0.0
 11
130.6781785121
 21
128.6766091783
 31
0.0
  0
LINE
  5
9B
330
1F
100
AcDbEntity
  8
0
  6
Continuous
 62
     7
370
    15
100
AcDbLine
 10
101.0495109517
 20
83.8361783166
 30
0.0
 11
108.4661743117
 21
83.8361783166
 31
0.0
  0
ARC
  5
9C
330
1F
100
AcDbEntity
  8
0
  6
Continuous
 62
     7
370
    15
100
AcDbCircle
 10
108.4661743117
 20
82.4361783166
 30
0.0
 40
1.400000000000006
100
AcDbArc
 50
42.2465410162
 51
90.0
  0
LINE
  5
9D
330
1F
100
AcDbEntity
  8
0
  6
Continuous
 62
     7
370
    15
100
AcDbLine
 10
99.7672068058
 20
84.9851458224
 30
0.0
 11
100.9073377699
 21
83.8450148584
 31
0.0
  0
LINE
  5
9E
330
1F
100
AcDbEntity
  8
0
  6
Continuous
 62
     7
370
    15
100
AcDbLine
 10
100.9073377699
 20
125.5673417748
 30
0.0
 11
99.7760750851
 21
124.4360790899
 31
0.0
  0
ARC
  5
9F
330
1F
100
AcDbEntity
  8
0
  6
Continuous
 62
     7
370
    15
100
AcDbCircle
 10
104.4661743117
 20
126.9761783166
 30
0.0
 40
1.400000000000008
100
AcDbArc
 50
270.0
 51
301.7485287426
  0
LINE
  5
A0
330
1F
100
AcDbEntity
  8
0
  6
Continuous
 62
     7
370
    15
100
AcDbLine
 10
104.4661743117
 20
125.5761783166
 30
0.0
 11
101.0404400456
 21
125.5761783166
 31
0.0
  0
SPLINE
  5
A1
330
1F
100
AcDbEntity
  8
0
  6
Continuous
 62
     7
370
    15
100
AcDbSpline
210
0.0
220
0.0
230
1.0
 70
    24
 71
     3
 72
    12
 73
     8
 74
     0
 42
0.000000001
 43
0.00000001
 40
0.0
 40
0.0
 40
0.0
 40
0.0
 40
0.1334829036190257
 40
0.3085839825174595
 40
0.4832515003868021
 40
0.815886535589931
 40
0.9999999999999999
 40
0.9999999999999999
 40
0.9999999999999999
 40
0.9999999999999999
 10
182.404817538654
 20
103.4072604298818
 30
0.0
 10
182.4249783671838
 20
103.5511160076416
 30
0.0
 10
182.4715858996087
 20
103.8836793988242
 30
0.0
 10
182.5490007732016
 20
104.4360654950325
 30
0.0
 10
182.6626292318824
 20
105.246850009632
 30
0.0
 10
182.7794247852873
 20
106.0802330122205
 30
0.0
 10
182.8577082494791
 20
106.638816849868
 30
0.0
 10
182.885600037862
 20
106.8378359192794
 30
0.0
  0
SPLINE
  5
A2
330
1F
100
AcDbEntity
  8
0
  6
Continuous
 62
     7
370
    15
100
AcDbSpline
210
0.0
220
0.0
230
1.0
 70
    24
 71
     3
 72
    11
 73
     7
 74
     0
 42
0.000000001
 43
0.00000001
 40
0.0
 40
0.0
 40
0.0
 40
0.0
 40
0.2164553779443413
 40
0.4403112895790518
 40
0.7519005688038662
 40
1.0
 40
1.0
 40
1.0
 40
1.0
 10
188.3467485854911
 20
102.5745207138637
 30
0.0
 10
188.1267675350228
 20
102.4855435800907
 30
0.0
 10
187.6792843588851
 20
102.3045472154511
 30
0.0
 10
186.8488750993151
 20
101.9686663038098
 30
0.0
 10
185.9581122104462
 20
101.6083737760934
 30
0.0
 10
185.3880774515064
 20
101.3778081937695
 30
0.0
 10
185.1353918124686
 20
101.275602827174
 30
0.0
  0
SPLINE
  5
A3
330
1F
100
AcDbEntity
  8
0
  6
Continuous
 62
     7
370
    15
100
AcDbSpline
210
0.0
220
0.0
230
1.0
 70
    24
 71
     3
 72
    12
 73
     8
 74
     0
 42
0.000000001
 43
0.00000001
 40
0.0
 40
0.0
 40
0.0
 40
0.0
 40
0.184113464410069
 40
0.5167484996131979
 40
0.6914160174825404
 40
0.8665170963809744
 40
1.0
 40
1.0
 40
1.0
 40
1.0
 10
188.827531084699
 20
106.0050962032613
 30
0.0
 10
188.7996392963162
 20
105.8060771338499
 30
0.0
 10
188.7213558321244
 20
105.2474932962024
 30
0.0
 10
188.6045602787194
 20
104.4141102936139
 30
0.0
 10
188.4909318200386
 20
103.6033257790144
 30
0.0
 10
188.4135169464457
 20
103.0509396828061
 30
0.0
 10
188.3669094140209
 20
102.7183762916234
 30
0.0
 10
188.3467485854911
 20
102.5745207138637
 30
0.0
  0
SPLINE
  5
A4
330
1F
100
AcDbEntity
  8
0
  6
Continuous
 62
     7
370
    15
100
AcDbSpline
210
0.0
220
0.0
230
1.0
 70
    24
 71
     3
 72
    11
 73
     7
 74
     0
 42
0.000000001
 43
0.00000001
 40
0.0
 40
0.0
 40
0.0
 40
0.0
 40
0.216455377944343
 40
0.4403112895790525
 40
0.7519005688038666
 40
1.0
 40
1.0
 40
1.0
 40
1.0
 10
186.0969568108845
 20
108.1367538059691
 30
0.0
 10
186.2840037943219
 20
107.9907331947989
 30
0.0
 10
186.6644928321614
 20
107.6936995788173
 30
0.0
 10
187.370578864074
 20
107.1424845203125
 30
0.0
 10
188.1279827903045
 20
106.5512074936618
 30
0.0
 10
188.6126758213053
 20
106.1728257025418
 30
0.0
 10
188.827531084699
 20
106.0050962032613
 30
0.0
  0
SPLINE
  5
A5
330
1F
100
AcDbEntity
  8
0
  6
Continuous
 62
     7
370
    15
100
AcDbSpline
210
0.0
220
0.0
230
1.0
 70
    24
 71
     3
 72
    11
 73
     7
 74
     0
 42
0.000000001
 43
0.00000001
 40
0.0
 40
0.0
 40
0.0
 40
0.0
 40
0.2164553779443426
 40
0.4403112895790527
 40
0.7519005688038668
 40
1.0
 40
1.0
 40
1.0
 40
1.0
 10
182.885600037862
 20
106.8378359192794
 30
0.0
 10
183.1055810883302
 20
106.9268130530524
 30
0.0
 10
183.553064264468
 20
107.1078094176921
 30
0.0
 10
184.3834735240379
 20
107.4436903293333
 30
0.0
 10
185.2742364129069
 20
107.8039828570497
 30
0.0
 10
185.8442711718467
 20
108.0345484393736
 30
0.0
 10
186.0969568108845
 20
108.1367538059691
 30
0.0
  0
CIRCLE
  5
A6
330
1F
100
AcDbEntity
  8
0
  6
Continuous
 62
     7
370
    15
100
AcDbCircle
 10
185.6161743117
 20
104.7061783166
 30
0.0
 40
3.500000000000008
  0
SPLINE
  5
A7
330
1F
100
AcDbEntity
  8
0
  6
Continuous
 62
     7
370
    15
100
AcDbSpline
210
0.0
220
0.0
230
1.0
 70
    24
 71
     3
 72
    11
 73
     7
 74
     0
 42
0.000000001
 43
0.00000001
 40
0.0
 40
0.0
 40
0.0
 40
0.0
 40
0.216455377944343
 40
0.4403112895790525
 40
0.7519005688038665
 40
1.0
 40
1.0
 40
1.0
 40
1.0
 10
185.1353918124686
 20
101.275602827174
 30
0.0
 10
184.9483448290311
 20
101.4216234383442
 30
0.0
 10
184.5678557911916
 20
101.7186570543258
 30
0.0
 10
183.8617697592791
 20
102.2698721128306
 30
0.0
 10
183.1043658330485
 20
102.8611491394813
 30
0.0
 10
182.6196728020478
 20
103.2395309306013
 30
0.0
 10
182.404817538654
 20
103.4072604298818
 30
0.0
  0
CIRCLE
  5
A8
330
1F
100
AcDbEntity
  8
0
  6
Continuous
 62
     7
370
    15
100
AcDbCircle
 10
185.6161743117
 20
104.7061783166
 30
0.0
 40
5.499999999999999
  0
CIRCLE
  5
A9
330
1F
100
AcDbEntity
  8
0
  6
Continuous
 62
     7
370
    15
100
AcDbCircle
 10
185.6161743117
 20
104.7061783166
 30
0.0
 40
6.000000000000004
  0
ARC
  5
AA
330
1F
100
AcDbEntity
  8
0
  6
Continuous
 62
     7
370
    15
100
AcDbCircle
 10
185.6161743117
 20
104.7061783166
 30
0.0
 40
3.000000000000008
100
AcDbArc
 50
232.0221679204
 51
292.0221679204
  0
ARC
  5
AB
330
1F
100
AcDbEntity
  8
0
  6
Continuous
 62
     7
370
    15
100
AcDbCircle
 10
185.6161743117
 20
104.7061783166
 30
0.0
 40
3.000000000000008
100
AcDbArc
 50
172.0221679204
 51
232.0221679204
  0
ARC
  5
AC
330
1F
100
AcDbEntity
  8
0
  6
Continuous
 62
     7
370
    15
100
AcDbCircle
 10
185.6161743117
 20
104.7061783166
 30
0.0
 40
3.000000000000009
100
AcDbArc
 50
52.0221679204
 51
112.0221679204
  0
ARC
  5
AD
330
1F
100
AcDbEntity
  8
0
  6
Continuous
 62
     7
370
    15
100
AcDbCircle
 10
185.6161743117
 20
104.7061783166
 30
0.0
 40
3.000000000000009
100
AcDbArc
 50
112.0221679204
 51
172.0221679204
  0
ARC
  5
AE
330
1F
100
AcDbEntity
  8
0
  6
Continuous
 62
     7
370
    15
100
AcDbCircle
 10
185.6161743117
 20
104.7061783166
 30
0.0
 40
3.000000000000006
100
AcDbArc
 50
292.0221679204
 51
352.0221679204
  0
ARC
  5
AF
330
1F
100
AcDbEntity
  8
0
  6
Continuous
 62
     7
370
    15
100
AcDbCircle
 10
185.6161743117
 20
104.7061783166
 30
0.0
 40
3.000000000000002
100
AcDbArc
 50
352.0221679204
 51
52.0221679204
  0
SPLINE
  5
B0
330
1F
100
AcDbEntity
  8
0
  6
Continuous
 62
     7
370
    15
100
AcDbSpline
210
0.0
220
0.0
230
1.0
 70
    11
 71
     3
 72
    94
 73
    90
 74
     0
 42
0.000000001
 43
0.00000001
 40
0.0
 40
0.0
 40
0.0
 40
0.0
 40
0.0312500000000006
 40
0.0312500000000006
 40
0.0625000000000012
 40
0.0625000000000012
 40
0.0937500000000017
 40
0.0937500000000017
 40
0.1093750000000022
 40
0.1093750000000022
 40
0.1250000000000028
 40
0.1250000000000028
 40
0.1562500000000033
 40
0.1562500000000033
 40
0.1718750000000034
 40
0.1718750000000034
 40
0.1875000000000034
 40
0.1875000000000034
 40
0.2187500000000039
 40
0.2187500000000039
 40
0.234375000000004
 40
0.234375000000004
 40
0.2500000000000041
 40
0.2500000000000041
 40
0.2812500000000042
 40
0.2812500000000042
 40
0.3125000000000043
 40
0.3125000000000043
 40
0.3281250000000043
 40
0.3281250000000043
 40
0.3437500000000043
 40
0.3437500000000043
 40
0.3750000000000042
 40
0.3750000000000042
 40
0.3906250000000042
 40
0.3906250000000042
 40
0.4062500000000042
 40
0.4062500000000042
 40
0.4218750000000041
 40
0.4218750000000041
 40
0.4375000000000041
 40
0.4375000000000041
 40
0.4687500000000038
 40
0.4687500000000038
 40
0.4843750000000036
 40
0.4843750000000036
 40
0.5000000000000034
 40
0.5000000000000034
 40
0.5312500000000032
 40
0.5312500000000032
 40
0.562500000000003
 40
0.562500000000003
 40
0.5781250000000029
 40
0.5781250000000029
 40
0.5937500000000028
 40
0.5937500000000028
 40
0.6250000000000026
 40
0.6250000000000026
 40
0.6562500000000023
 40
0.6562500000000023
 40
0.6875000000000021
 40
0.6875000000000021
 40
0.7187500000000019
 40
0.7187500000000019
 40
0.7500000000000017
 40
0.7500000000000017
 40
0.7812500000000016
 40
0.7812500000000016
 40
0.8125000000000013
 40
0.8125000000000013
 40
0.8281250000000012
 40
0.8281250000000012
 40
0.8437500000000011
 40
0.8437500000000011
 40
0.859375000000001
 40
0.859375000000001
 40
0.8750000000000008
 40
0.8750000000000008
 40
0.9062500000000006
 40
0.9062500000000006
 40
0.9218750000000006
 40
0.9218750000000006
 40
0.9375000000000006
 40
0.9375000000000006
 40
0.9531250000000004
 40
0.9531250000000004
 40
0.9687500000000004
 40
0.9687500000000004
 40
1.0
 40
1.0
 40
1.0
 40
1.0
 10
180.882564607508
 20
109.3854613728049
 30
0.0
 10
181.2201803030248
 20
109.6676611668868
 30
0.0
 10
181.5802974929372
 20
109.9138953858247
 30
0.0
 10
182.342703663331
 20
110.3396647513513
 30
0.0
 10
182.7480720414135
 20
110.5196523150574
 30
0.0
 10
183.5737769078365
 20
110.8022179351046
 30
0.0
 10
183.9966398984687
 20
110.9067408490177
 30
0.0
 10
184.6459001207327
 20
111.0088827983744
 30
0.0
 10
184.8659069324237
 20
111.0338045444807
 30
0.0
 10
185.3044706047245
 20
111.0643246650172
 30
0.0
 10
185.5231159788255
 20
111.0700551928403
 30
0.0
 10
186.1771897242764
 20
111.0593712638069
 30
0.0
 10
186.6107710881416
 20
111.015321449036
 30
0.0
 10
187.2573487593424
 20
110.8923258840195
 30
0.0
 10
187.4729042578435
 20
110.8415059178488
 30
0.0
 10
187.8944397331964
 20
110.7223949270659
 30
0.0
 10
188.1013647627526
 20
110.6539869087455
 30
0.0
 10
188.7107600892899
 20
110.4224531002201
 30
0.0
 10
189.1019626099481
 20
110.2332854117539
 30
0.0
 10
189.6648777968853
 20
109.8938066324812
 30
0.0
 10
189.8483313987499
 20
109.7712250098062
 30
0.0
 10
190.1990046896003
 20
109.512268177638
 30
0.0
 10
190.3672829969698
 20
109.375293507842
 30
0.0
 10
190.8508678577462
 20
108.9416831566923
 30
0.0
 10
191.1451857242309
 20
108.6226441992434
 30
0.0
 10
191.6717465951858
 20
107.9176296322888
 30
0.0
 10
191.8953422992587
 20
107.5426408828102
 30
0.0
 10
192.1672465182061
 20
106.9513763502905
 30
0.0
 10
192.2474348300195
 20
106.7491717573191
 30
0.0
 10
192.385891539143
 20
106.3339947750016
 30
0.0
 10
192.4443965351776
 20
106.1195061937402
 30
0.0
 10
192.5813451432947
 20
105.4746789890774
 30
0.0
 10
192.6231202506153
 20
105.0407988912137
 30
0.0
 10
192.6113086215186
 20
104.3839612917839
 30
0.0
 10
192.5946278469929
 20
104.1625373641849
 30
0.0
 10
192.5362399197519
 20
103.7256083516443
 30
0.0
 10
192.4948067089603
 20
103.5105629268006
 30
0.0
 10
192.3884375442746
 20
103.0870275685188
 30
0.0
 10
192.3234987461107
 20
102.8785384408635
 30
0.0
 10
192.1703163863083
 20
102.4680448725276
 30
0.0
 10
192.0814407276108
 20
102.2649129587485
 30
0.0
 10
191.7850152032965
 20
101.6765106643876
 30
0.0
 10
191.5481885903534
 20
101.3106441057967
 30
0.0
 10
191.1378835441098
 20
100.7986049022479
 30
0.0
 10
190.9910557805333
 20
100.6333629840305
 30
0.0
 10
190.6841098081886
 20
100.320646955601
 30
0.0
 10
190.5238155366375
 20
100.1727601473165
 30
0.0
 10
190.0233601291384
 20
99.75327802672041
 30
0.0
 10
189.6621250067936
 20
99.50471136752131
 30
0.0
 10
188.8949568996706
 20
99.07504643575163
 30
0.0
 10
188.496604568204
 20
98.89777527734125
 30
0.0
 10
187.8780617005417
 20
98.68484413953416
 30
0.0
 10
187.6683526515772
 20
98.62276350177775
 30
0.0
 10
187.2417771165846
 20
98.51659075907547
 30
0.0
 10
187.0246788673942
 20
98.47257327818531
 30
0.0
 10
186.3749790898793
 20
98.36989734817735
 30
0.0
 10
185.9399081970462
 20
98.33921204244078
 30
0.0
 10
185.0659470481088
 20
98.35214855057308
 30
0.0
 10
184.6231199915231
 20
98.39691564893397
 30
0.0
 10
183.7637313332001
 20
98.56004670262685
 30
0.0
 10
183.3447965538357
 20
98.67773917686009
 30
0.0
 10
182.5286767711778
 20
98.98661797229984
 30
0.0
 10
182.128760105193
 20
99.1801254222496
 30
0.0
 10
181.3832244882726
 20
99.62959045081035
 30
0.0
 10
181.0339044694172
 20
99.886291644235
 30
0.0
 10
180.3844244684649
 20
100.4674247403941
 30
0.0
 10
180.0837547199032
 20
100.7942776528129
 30
0.0
 10
179.5640312219093
 20
101.4901336455883
 30
0.0
 10
179.3407406664403
 20
101.8622029777832
 30
0.0
 10
179.0654226588252
 20
102.4599830000868
 30
0.0
 10
178.9836128999241
 20
102.666627345322
 30
0.0
 10
178.8452594241984
 20
103.0824199085388
 30
0.0
 10
178.7880257286947
 20
103.2928626161229
 30
0.0
 10
178.6974041098301
 20
103.7188430306229
 30
0.0
 10
178.6640146553279
 20
103.9343803994554
 30
0.0
 10
178.6217990218751
 20
104.3707099086704
 30
0.0
 10
178.6130588556186
 20
104.5930819467252
 30
0.0
 10
178.6254120280417
 20
105.2542590318275
 30
0.0
 10
178.6837293737919
 20
105.6873202746976
 30
0.0
 10
178.8439817486038
 20
106.3257129093679
 30
0.0
 10
178.9101629308705
 20
106.5378751376765
 30
0.0
 10
179.0643301385908
 20
106.9499185742684
 30
0.0
 10
179.1522484910644
 20
107.1502441636449
 30
0.0
 10
179.3487693628349
 20
107.5400565560482
 30
0.0
 10
179.4573750358909
 20
107.7295416474302
 30
0.0
 10
179.6949853962976
 20
108.0978645142883
 30
0.0
 10
179.8246130364462
 20
108.2773657430183
 30
0.0
 10
180.2370270132114
 20
108.7908928372617
 30
0.0
 10
180.5449489119913
 20
109.103261578723
 30
0.0
 10
180.8825646075081
 20
109.3854613728049
 30
0.0
  0
LINE
  5
B1
330
1F
100
AcDbEntity
  8
0
  6
Continuous
 62
     7
370
    15
100
AcDbLine
 10
201.0661743117
 20
104.7061783166
 30
0.0
 11
201.0661743117
 21
72.7061783166
 31
0.0
  0
LINE
  5
B2
330
1F
100
AcDbEntity
  8
0
  6
Continuous
 62
     7
370
    15
100
AcDbLine
 10
201.0661743117
 20
136.7061783166
 30
0.0
 11
201.0661743117
 21
104.7061783166
 31
0.0
  0
LINE
  5
B3
330
1F
100
AcDbEntity
  8
0
  6
Continuous
 62
     7
370
    15
100
AcDbLine
 10
201.6661743117
 20
104.7061783166
 30
0.0
 11
201.6661743117
 21
73.3061783166
 31
0.0
  0
LINE
  5
B4
330
1F
100
AcDbEntity
  8
0
  6
Continuous
 62
     7
370
    15
100
AcDbLine
 10
201.6661743117
 20
136.1061783166
 30
0.0
 11
201.6661743117
 21
104.7061783166
 31
0.0
  0
LINE
  5
B5
330
1F
100
AcDbEntity
  8
0
  6
Continuous
 62
     7
370
    15
100
AcDbLine
 10
153.0581071432
 20
74.5192606203
 30
0.0
 11
153.0581071432
 21
124.5561783166
 31
0.0
  0
SPLINE
  5
B6
330
1F
100
AcDbEntity
  8
0
  6
Continuous
 62
     7
370
    15
100
AcDbSpline
210
0.0
220
0.0
230
1.0
 70
     8
 71
     3
 72
     8
 73
     4
 74
     0
 42
0.000000001
 43
0.00000001
 40
0.0
 40
0.0
 40
0.0
 40
0.0
 40
1.0
 40
1.0
 40
1.0
 40
1.0
 10
153.0581071431656
 20
74.51926062032439
 30
0.0
 10
152.5626274824998
 20
75.41478670825775
 30
0.0
 10
152.0685134344577
 20
76.31107112331001
 30
0.0
 10
151.5761743116765
 20
77.20834115751671
 30
0.0
  0
LINE
  5
B7
330
1F
100
AcDbEntity
  8
0
  6
Continuous
 62
     7
370
    15
100
AcDbLine
 10
151.5761743117
 20
77.2083411575
 30
0.0
 11
151.5761743117
 21
124.5561783166
 31
0.0
  0
SPLINE
  5
B8
330
1F
100
AcDbEntity
  8
0
  6
Continuous
 62
     7
370
    15
100
AcDbSpline
210
0.0
220
0.0
230
1.0
 70
    24
 71
     3
 72
     8
 73
     4
 74
     0
 42
0.000000001
 43
0.00000001
 40
0.0
 40
0.0
 40
0.0
 40
0.0
 40
1.0
 40
1.0
 40
1.0
 40
1.0
 10
151.5761743116765
 20
124.5561783165716
 30
0.0
 10
152.0561263060414
 20
124.5561783165716
 30
0.0
 10
152.5514270350151
 20
124.5561783165716
 30
0.0
 10
153.0581071431656
 20
124.5561783165716
 30
0.0
  0
LINE
  5
B9
330
1F
100
AcDbEntity
  8
0
  6
Continuous
 62
     7
370
    15
100
AcDbLine
 10
157.6161743117
 20
75.145900916
 30
0.0
 11
157.6161743117
 21
124.5561783166
 31
0.0
  0
SPLINE
  5
BA
330
1F
100
AcDbEntity
  8
0
  6
Continuous
 62
     7
370
    15
100
AcDbSpline
210
0.0
220
0.0
230
1.0
 70
     8
 71
     3
 72
    10
 73
     6
 74
     0
 42
0.000000001
 43
0.00000001
 40
0.0
 40
0.0
 40
0.0
 40
0.0
 40
0.5
 40
0.5
 40
1.0
 40
1.0
 40
1.0
 40
1.0
 10
157.6161743116765
 20
75.14590091597871
 30
0.0
 10
157.6161743116765
 20
74.98601364778506
 30
0.0
 10
157.5548646604407
 20
74.82488639227044
 30
0.0
 10
157.3357650229056
 20
74.59078739391562
 30
0.0
 10
157.1777168165921
 20
74.51926062032439
 30
0.0
 10
157.0161743116765
 20
74.51926062032439
 30
0.0
  0
SPLINE
  5
BB
330
1F
100
AcDbEntity
  8
0
  6
Continuous
 62
     7
370
    15
100
AcDbSpline
210
0.0
220
0.0
230
1.0
 70
    24
 71
     3
 72
    12
 73
     8
 74
     0
 42
0.000000001
 43
0.00000001
 40
0.0
 40
0.0
 40
0.0
 40
0.0
 40
0.250000000000002
 40
0.250000000000002
 40
0.500000000000004
 40
0.500000000000004
 40
1.0
 40
1.0
 40
1.0
 40
1.0
 10
157.0161743116765
 20
124.5561783165716
 30
0.0
 10
157.1064133793636
 20
124.5561783165716
 30
0.0
 10
157.19731149347
 20
124.5561783165716
 30
0.0
 10
157.3519085299586
 20
124.5561783165716
 30
0.0
 10
157.4168869460667
 20
124.5561783165716
 30
0.0
 10
157.568721974003
 20
124.5561783165716
 30
0.0
 10
157.6161743116765
 20
124.5561783165716
 30
0.0
 10
157.6161743116765
 20
124.5561783165716
 30
0.0
  0
LINE
  5
BC
330
1F
100
AcDbEntity
  8
0
  6
Continuous
 62
     7
370
    15
100
AcDbLine
 10
136.6161743117
 20
124.5561783166
 30
0.0
 11
146.2742414802
 21
124.5561783166
 31
0.0
  0
LINE
  5
BD
330
1F
100
AcDbEntity
  8
0
  6
Continuous
 62
     7
370
    15
100
AcDbLine
 10
146.2742414802
 20
74.5192606203
 30
0.0
 11
146.2742414802
 21
124.5561783166
 31
0.0
  0
LINE
  5
BE
330
1F
100
AcDbEntity
  8
0
  6
Continuous
 62
     7
370
    15
100
AcDbLine
 10
146.2742414802
 20
74.5192606203
 30
0.0
 11
144.6161743117
 21
74.5192606203
 31
0.0
  0
SPLINE
  5
BF
330
1F
100
AcDbEntity
  8
0
  6
Continuous
 62
     7
370
    15
100
AcDbSpline
210
0.0
220
0.0
230
1.0
 70
     8
 71
     3
 72
    28
 73
    24
 74
     0
 42
0.000000001
 43
0.00000001
 40
0.0
 40
0.0
 40
0.0
 40
0.0
 40
0.1249999999999999
 40
0.1249999999999999
 40
0.1874999999999998
 40
0.1874999999999998
 40
0.2499999999999997
 40
0.2499999999999997
 40
0.3749999999999993
 40
0.3749999999999993
 40
0.4374999999999993
 40
0.4374999999999993
 40
0.4999999999999992
 40
0.4999999999999992
 40
0.6249999999999992
 40
0.6249999999999992
 40
0.7499999999999992
 40
0.7499999999999992
 40
0.8124999999999993
 40
0.8124999999999993
 40
0.8749999999999996
 40
0.8749999999999996
 40
1.0
 40
1.0
 40
1.0
 40
1.0
 10
144.6161743116765
 20
74.51926062032439
 30
0.0
 10
144.0844665541836
 20
74.51926062032439
 30
0.0
 10
143.5622279888732
 20
74.50347590637418
 30
0.0
 10
142.7923575025982
 20
74.45848049229798
 30
0.0
 10
142.5379979304069
 20
74.43992549722225
 30
0.0
 10
142.0338763497084
 20
74.39607277477575
 30
0.0
 10
141.7841535322805
 20
74.37072816782354
 30
0.0
 10
141.0585635808341
 20
74.28732609007344
 30
0.0
 10
140.6002033192526
 20
74.22146053092236
 30
0.0
 10
139.9497053758587
 20
74.11249019043056
 30
0.0
 10
139.7380233250662
 20
74.0742505546639
 30
0.0
 10
139.3339518359282
 20
73.99649181724456
 30
0.0
 10
139.1414453221073
 20
73.95699085506921
 30
0.0
 10
138.591610351086
 20
73.8380831127032
 30
0.0
 10
138.2616815727772
 20
73.75826543127859
 30
0.0
 10
137.6772103042086
 20
73.60492226948254
 30
0.0
 10
137.4309331661951
 20
73.53358851621327
 30
0.0
 10
137.131090373497
 20
73.43964500913866
 30
0.0
 10
137.0426335164249
 20
73.41045121577875
 30
0.0
 10
136.8892721631198
 20
73.35698464151533
 30
0.0
 10
136.8241839488935
 20
73.33262530724014
 30
0.0
 10
136.6685899329527
 20
73.2690351617954
 30
0.0
 10
136.6161743116765
 20
73.23893222670615
 30
0.0
 10
136.6161743116765
 20
73.22205533370924
 30
0.0
  0
LINE
  5
C0
330
1F
100
AcDbEntity
  8
0
  6
Continuous
 62
     7
370
    15
100
AcDbLine
 10
136.6161743117
 20
73.2220553337
 30
0.0
 11
136.6161743117
 21
73.2061783166
 31
0.0
  0
SPLINE
  5
C1
330
1F
100
AcDbEntity
  8
0
  6
Continuous
 62
     7
370
    15
100
AcDbSpline
210
0.0
220
0.0
230
1.0
 70
     8
 71
     3
 72
    17
 73
    13
 74
     0
 42
0.000000001
 43
0.00000001
 40
0.0
 40
0.0
 40
0.0
 40
0.0
 40
0.1034796923964057
 40
0.210023918880785
 40
0.3134862136955584
 40
0.4198361274354883
 40
0.5254127712915682
 40
0.6339610695419791
 40
0.7409508756305032
 40
0.8511696089308174
 40
0.9558996534551938
 40
0.9999999999999999
 40
0.9999999999999999
 40
0.9999999999999999
 40
0.9999999999999999
 10
144.6161743116765
 20
135.1733737897358
 30
0.0
 10
144.1809259625665
 20
135.1788219862691
 30
0.0
 10
143.2975394560015
 20
135.189879726781
 30
0.0
 10
142.0167118707729
 20
135.2762381196825
 30
0.0
 10
140.7992953348988
 20
135.4041082962203
 30
0.0
 10
139.6914894826523
 20
135.5630535948134
 30
0.0
 10
138.703250678704
 20
135.737547282529
 30
0.0
 10
137.8785271211725
 20
135.9067131331689
 30
0.0
 10
137.2295736205132
 20
136.0545969156972
 30
0.0
 10
136.8125388050515
 20
136.156387499928
 30
0.0
 10
136.613942092087
 20
136.2067390225312
 30
0.0
 10
136.6372548135202
 20
136.2008333383089
 30
0.0
 10
136.6441626707578
 20
136.1990834086143
 30
0.0
  0
LINE
  5
C2
330
1F
100
AcDbEntity
  8
0
  6
Continuous
 62
     7
370
    15
100
AcDbLine
 10
146.2742414802
 20
135.1733737897
 30
0.0
 11
144.6161743117
 21
135.1733737897
 31
0.0
  0
LINE
  5
C3
330
1F
100
AcDbEntity
  8
0
  6
Continuous
 62
     7
370
    15
100
AcDbLine
 10
146.2742414802
 20
129.1648679789
 30
0.0
 11
146.2742414802
 21
135.1733737897
 31
0.0
  0
LINE
  5
C4
330
1F
100
AcDbEntity
  8
0
  6
Continuous
 62
     7
370
    15
100
AcDbLine
 10
143.8617946574
 20
129.1648679789
 30
0.0
 11
146.2742414802
 21
129.1648679789
 31
0.0
  0
SPLINE
  5
C5
330
1F
100
AcDbEntity
  8
0
  6
Continuous
 62
     7
370
    15
100
AcDbSpline
210
0.0
220
0.0
230
1.0
 70
     8
 71
     3
 72
    20
 73
    16
 74
     0
 42
0.000000001
 43
0.00000001
 40
0.0
 40
0.0
 40
0.0
 40
0.0
 40
0.2499999999999995
 40
0.2499999999999995
 40
0.3749999999999996
 40
0.3749999999999996
 40
0.4999999999999997
 40
0.4999999999999997
 40
0.6249999999999998
 40
0.6249999999999998
 40
0.7499999999999998
 40
0.7499999999999998
 40
0.8749999999999999
 40
0.8749999999999999
 40
1.0
 40
1.0
 40
1.0
 40
1.0
 10
136.6161743116765
 20
124.5561783165716
 30
0.0
 10
136.8645480459646
 20
125.210040744869
 30
0.0
 10
137.1841181383099
 20
125.8138265268661
 30
0.0
 10
137.8064243715145
 20
126.6406652630347
 30
0.0
 10
138.0378486319453
 20
126.9030939009876
 30
0.0
 10
138.559062971595
 20
127.3997565550926
 30
0.0
 10
138.8456834542301
 20
127.6303434341141
 30
0.0
 10
139.4651681955377
 20
128.0468976586968
 30
0.0
 10
139.7994685750247
 20
128.2343954606643
 30
0.0
 10
140.5247290476494
 20
128.5657924383007
 30
0.0
 10
140.9066441050399
 20
128.705296425796
 30
0.0
 10
141.7014322812116
 20
128.9307499332669
 30
0.0
 10
142.115590475418
 20
129.0173760448105
 30
0.0
 10
142.9811368159993
 20
129.1353568336647
 30
0.0
 10
143.4190244310112
 20
129.164867978939
 30
0.0
 10
143.8617946573658
 20
129.164867978939
 30
0.0
  0
LINE
  5
C6
330
1F
100
AcDbEntity
  8
0
  6
Continuous
 62
     7
370
    15
100
AcDbLine
 10
131.6661743117
 20
73.5061783166
 30
0.0
 11
131.6661743117
 21
135.9061783166
 31
0.0
  0
LINE
  5
C7
330
1F
100
AcDbEntity
  8
0
  6
Continuous
 62
     7
370
    15
100
AcDbLine
 10
147.7561743117
 20
77.2083411575
 30
0.0
 11
147.7561743117
 21
124.5561783166
 31
0.0
  0
SPLINE
  5
C8
330
1F
100
AcDbEntity
  8
0
  6
Continuous
 62
     7
370
    15
100
AcDbSpline
210
0.0
220
0.0
230
1.0
 70
     8
 71
     3
 72
     8
 73
     4
 74
     0
 42
0.000000001
 43
0.00000001
 40
0.0
 40
0.0
 40
0.0
 40
0.0
 40
1.0
 40
1.0
 40
1.0
 40
1.0
 10
147.7561743116765
 20
77.2083411575167
 30
0.0
 10
147.2638351888953
 20
76.31107112331
 30
0.0
 10
146.7697211408532
 20
75.41478670825774
 30
0.0
 10
146.2742414801875
 20
74.51926062032439
 30
0.0
  0
SPLINE
  5
C9
330
1F
100
AcDbEntity
  8
0
  6
Continuous
 62
     7
370
    15
100
AcDbSpline
210
0.0
220
0.0
230
1.0
 70
    24
 71
     3
 72
     8
 73
     4
 74
     0
 42
0.000000001
 43
0.00000001
 40
0.0
 40
0.0
 40
0.0
 40
0.0
 40
1.0
 40
1.0
 40
1.0
 40
1.0
 10
146.2742414801875
 20
124.5561783165716
 30
0.0
 10
146.780921588338
 20
124.5561783165716
 30
0.0
 10
147.2762223173116
 20
124.5561783165716
 30
0.0
 10
147.7561743116765
 20
124.5561783165716
 30
0.0
  0
LINE
  5
CA
330
1F
100
AcDbEntity
  8
0
  6
Continuous
 62
     7
370
    15
100
AcDbLine
 10
157.0161743117
 20
74.5192606203
 30
0.0
 11
153.0581071432
 21
74.5192606203
 31
0.0
  0
LINE
  5
CB
330
1F
100
AcDbEntity
  8
0
  6
Continuous
 62
     7
370
    15
100
AcDbLine
 10
153.0581071432
 20
124.5561783166
 30
0.0
 11
157.0161743117
 21
124.5561783166
 31
0.0
  0
SPLINE
  5
CC
330
1F
100
AcDbEntity
  8
0
  6
Continuous
 62
     7
370
    15
100
AcDbSpline
210
0.0
220
0.0
230
1.0
 70
    24
 71
     3
 72
    14
 73
    10
 74
     0
 42
0.000000001
 43
0.00000001
 40
0.0
 40
0.0
 40
0.0
 40
0.0
 40
0.4999999999999984
 40
0.4999999999999984
 40
0.7499999999999992
 40
0.7499999999999992
 40
0.8749999999999996
 40
0.8749999999999996
 40
1.0
 40
1.0
 40
1.0
 40
1.0
 10
151.4784995093443
 20
78.30617831657155
 30
0.0
 10
151.431714804296
 20
78.30617831657156
 30
0.0
 10
151.3696636075164
 20
78.30617831657156
 30
0.0
 10
151.2262719689658
 20
78.30617831657155
 30
0.0
 10
151.1701283154146
 20
78.30617831657155
 30
0.0
 10
151.0571772932785
 20
78.30617831657156
 30
0.0
 10
151.0141765312403
 20
78.30617831657156
 30
0.0
 10
150.9101138209338
 20
78.30617831657155
 30
0.0
 10
150.8447815825769
 20
78.30617831657158
 30
0.0
 10
150.7761743116765
 20
78.30617831657155
 30
0.0
  0
SPLINE
  5
CD
330
1F
100
AcDbEntity
  8
0
  6
Continuous
 62
     7
370
    15
100
AcDbSpline
210
0.0
220
0.0
230
1.0
 70
    24
 71
     3
 72
    12
 73
     8
 74
     0
 42
0.000000001
 43
0.00000001
 40
0.0
 40
0.0
 40
0.0
 40
0.0
 40
0.5000000000000017
 40
0.5000000000000017
 40
0.7500000000000008
 40
0.7500000000000008
 40
1.0
 40
1.0
 40
1.0
 40
1.0
 10
151.1818767799856
 20
131.1061783165716
 30
0.0
 10
151.1387912303746
 20
131.1061783165716
 30
0.0
 10
151.0896390286253
 20
131.1061783165716
 30
0.0
 10
150.9931664343374
 20
131.1061783165716
 30
0.0
 10
150.9570648492028
 20
131.1061783165716
 30
0.0
 10
150.8739590913415
 20
131.1061783165716
 30
0.0
 10
150.8259624943752
 20
131.1061783165716
 30
0.0
 10
150.7761743116765
 20
131.1061783165716
 30
0.0
  0
SPLINE
  5
CE
330
1F
100
AcDbEntity
  8
0
  6
Continuous
 62
     7
370
    15
100
AcDbSpline
210
0.0
220
0.0
230
1.0
 70
     8
 71
     3
 72
    10
 73
     6
 74
     0
 42
0.000000001
 43
0.00000001
 40
0.0
 40
0.0
 40
0.0
 40
0.0
 40
0.5
 40
0.5
 40
1.0
 40
1.0
 40
1.0
 40
1.0
 10
151.5761743116765
 20
131.8258321676074
 30
0.0
 10
151.5761743116765
 20
131.6820621097893
 30
0.0
 10
151.5401252529577
 20
131.5396427472942
 30
0.0
 10
151.4046163921836
 20
131.2897484539369
 30
0.0
 10
151.3047403990874
 20
131.1817181176887
 30
0.0
 10
151.1818767799855
 20
131.1061783165715
 30
0.0
  0
SPLINE
  5
CF
330
1F
100
AcDbEntity
  8
0
  6
Continuous
 62
     7
370
    15
100
AcDbSpline
210
0.0
220
0.0
230
1.0
 70
     8
 71
     3
 72
    10
 73
     6
 74
     0
 42
0.000000001
 43
0.00000001
 40
0.0
 40
0.0
 40
0.0
 40
0.0
 40
0.5
 40
0.5
 40
1.0
 40
1.0
 40
1.0
 40
1.0
 10
151.5500266885164
 20
124.5561783165716
 30
0.0
 10
151.5587163314281
 20
124.6030571658897
 30
0.0
 10
151.5652553961785
 20
124.650479631291
 30
0.0
 10
151.5740140305716
 20
124.7464164298777
 30
0.0
 10
151.5761743116765
 20
124.7943317178882
 30
0.0
 10
151.5761743116765
 20
124.8420449480327
 30
0.0
  0
SPLINE
  5
D0
330
1F
100
AcDbEntity
  8
0
  6
Continuous
 62
     7
370
    15
100
AcDbSpline
210
0.0
220
0.0
230
1.0
 70
     8
 71
     3
 72
    10
 73
     6
 74
     0
 42
0.000000001
 43
0.00000001
 40
0.0
 40
0.0
 40
0.0
 40
0.0
 40
0.5
 40
0.5
 40
1.0
 40
1.0
 40
1.0
 40
1.0
 10
148.1504718433675
 20
131.1061783165716
 30
0.0
 10
148.028931579699
 20
131.1809044837833
 30
0.0
 10
147.92759721935
 20
131.2898494997001
 30
0.0
 10
147.7919582764616
 20
131.5402799804617
 30
0.0
 10
147.7561743116765
 20
131.6826993425606
 30
0.0
 10
147.7561743116765
 20
131.8258321676074
 30
0.0
  0
SPLINE
  5
D1
330
1F
100
AcDbEntity
  8
0
  6
Continuous
 62
     7
370
    15
100
AcDbSpline
210
0.0
220
0.0
230
1.0
 70
    24
 71
     3
 72
    12
 73
     8
 74
     0
 42
0.000000001
 43
0.00000001
 40
0.0
 40
0.0
 40
0.0
 40
0.0
 40
0.2499999999999992
 40
0.2499999999999992
 40
0.4999999999999983
 40
0.4999999999999983
 40
1.0
 40
1.0
 40
1.0
 40
1.0
 10
148.5561743116765
 20
131.1061783165716
 30
0.0
 10
148.5062976293592
 20
131.1061783165716
 30
0.0
 10
148.4582944359554
 20
131.1061783165716
 30
0.0
 10
148.3752463332435
 20
131.1061783165716
 30
0.0
 10
148.3391167537756
 20
131.1061783165716
 30
0.0
 10
148.2432047228315
 20
131.1061783165716
 30
0.0
 10
148.1934460548626
 20
131.1061783165716
 30
0.0
 10
148.1504718433675
 20
131.1061783165716
 30
0.0
  0
SPLINE
  5
D2
330
1F
100
AcDbEntity
  8
0
  6
Continuous
 62
     7
370
    15
100
AcDbSpline
210
0.0
220
0.0
230
1.0
 70
    24
 71
     3
 72
    14
 73
    10
 74
     0
 42
0.000000001
 43
0.00000001
 40
0.0
 40
0.0
 40
0.0
 40
0.0
 40
0.1250000000000012
 40
0.1250000000000012
 40
0.2500000000000024
 40
0.2500000000000024
 40
0.5000000000000013
 40
0.5000000000000013
 40
1.0
 40
1.0
 40
1.0
 40
1.0
 10
148.5561743116765
 20
78.30617831657155
 30
0.0
 10
148.4877364637901
 20
78.30617831657155
 30
0.0
 10
148.422186425025
 20
78.30617831657155
 30
0.0
 10
148.3177597856171
 20
78.30617831657156
 30
0.0
 10
148.2752151758557
 20
78.30617831657155
 30
0.0
 10
148.1626057153154
 20
78.30617831657155
 30
0.0
 10
148.1070666682959
 20
78.30617831657155
 30
0.0
 10
147.9644549728321
 20
78.30617831657155
 30
0.0
 10
147.9010496178363
 20
78.30617831657155
 30
0.0
 10
147.8538491140088
 20
78.30617831657155
 30
0.0
  0
SPLINE
  5
D3
330
1F
100
AcDbEntity
  8
0
  6
Continuous
 62
     7
370
    15
100
AcDbSpline
210
0.0
220
0.0
230
1.0
 70
     8
 71
     3
 72
    10
 73
     6
 74
     0
 42
0.000000001
 43
0.00000001
 40
0.0
 40
0.0
 40
0.0
 40
0.0
 40
0.5
 40
0.5
 40
1.0
 40
1.0
 40
1.0
 40
1.0
 10
147.7561743116765
 20
124.8420449480329
 30
0.0
 10
147.7561743116765
 20
124.7942734400396
 30
0.0
 10
147.7583355552737
 20
124.746563717978
 30
0.0
 10
147.7670069291339
 20
124.6512686004297
 30
0.0
 10
147.7735361120898
 20
124.6035760364631
 30
0.0
 10
147.7823219348367
 20
124.5561783165716
 30
0.0
  0
LINE
  5
D4
330
1F
100
AcDbEntity
  8
0
  6
Continuous
 62
     7
370
    15
100
AcDbLine
 10
150.7761743117
 20
131.1061783166
 30
0.0
 11
148.5561743117
 21
131.1061783166
 31
0.0
  0
LINE
  5
D5
330
1F
100
AcDbEntity
  8
0
  6
Continuous
 62
     7
370
    15
100
AcDbLine
 10
150.7761743117
 20
78.3061783166
 30
0.0
 11
148.5561743117
 21
78.3061783166
 31
0.0
  0
SPLINE
  5
D6
330
1F
100
AcDbEntity
  8
0
  6
Continuous
 62
     7
370
    15
100
AcDbSpline
210
0.0
220
0.0
230
1.0
 70
    24
 71
     3
 72
     9
 73
     5
 74
     0
 42
0.000000001
 43
0.00000001
 40
0.0
 40
0.0
 40
0.0
 40
0.0
 40
0.9757088451163454
 40
1.0
 40
1.0
 40
1.0
 40
1.0
 10
157.8161733267621
 20
131.1061783165716
 30
0.0
 10
157.8074417120542
 20
131.1061783165716
 30
0.0
 10
157.7984927158946
 20
131.1061783165716
 30
0.0
 10
157.7629614713402
 20
131.1061783165716
 30
0.0
 10
157.7620983763756
 20
131.1061783165716
 30
0.0
  0
SPLINE
  5
D7
330
1F
100
AcDbEntity
  8
0
  6
Continuous
 62
     7
370
    15
100
AcDbSpline
210
0.0
220
0.0
230
1.0
 70
    24
 71
     3
 72
     9
 73
     5
 74
     0
 42
0.000000001
 43
0.00000001
 40
0.0
 40
0.0
 40
0.0
 40
0.0
 40
0.9689756080301896
 40
0.9999999999999999
 40
0.9999999999999999
 40
0.9999999999999999
 40
0.9999999999999999
 10
157.8161733039435
 20
78.30617831657155
 30
0.0
 10
157.8073834808506
 20
78.30617831657153
 30
0.0
 10
157.7983122276425
 20
78.30617831657152
 30
0.0
 10
157.76247402264
 20
78.30617831657155
 30
0.0
 10
157.7613621641205
 20
78.30617831657155
 30
0.0
  0
LINE
  5
D8
330
1F
100
AcDbEntity
  8
0
  6
Continuous
 62
     7
370
    15
100
AcDbLine
 10
109.8661743117
 20
81.4777314228
 30
0.0
 11
109.8661743117
 21
82.7424407854
 31
0.0
  0
SPLINE
  5
D9
330
1F
100
AcDbEntity
  8
0
  6
Continuous
 62
     7
370
    15
100
AcDbSpline
210
0.0
220
0.0
230
1.0
 70
     8
 71
     3
 72
    14
 73
    10
 74
     0
 42
0.000000001
 43
0.00000001
 40
0.0
 40
0.0
 40
0.0
 40
0.0
 40
0.25
 40
0.25
 40
0.5
 40
0.5
 40
0.75
 40
0.75
 40
1.0
 40
1.0
 40
1.0
 40
1.0
 10
109.0878871937608
 20
83.8730269930116
 30
0.0
 10
109.1445138689629
 20
83.76532953917474
 30
0.0
 10
109.2390365292526
 20
83.66253995745542
 30
0.0
 10
109.4220815048148
 20
83.46418264523528
 30
0.0
 10
109.5137080817696
 20
83.36812313655703
 30
0.0
 10
109.6725613994628
 20
83.18059409384779
 30
0.0
 10
109.7404520070845
 20
83.08918512106422
 30
0.0
 10
109.8373690327921
 20
82.91080890015408
 30
0.0
 10
109.8661743116771
 20
82.82358699390791
 30
0.0
 10
109.8661743116771
 20
82.74244078537366
 30
0.0
  0
SPLINE
  5
DA
330
1F
100
AcDbEntity
  8
0
  6
Continuous
 62
     7
370
    15
100
AcDbSpline
210
0.0
220
0.0
230
1.0
 70
     8
 71
     3
 72
    14
 73
    10
 74
     0
 42
0.000000001
 43
0.00000001
 40
0.0
 40
0.0
 40
0.0
 40
0.0
 40
0.125
 40
0.125
 40
0.25
 40
0.25
 40
0.5
 40
0.5
 40
1.0
 40
1.0
 40
1.0
 40
1.0
 10
108.4661743116765
 20
84.31970885529093
 30
0.0
 10
108.5147187203337
 20
84.32545716857122
 30
0.0
 10
108.5676340751186
 20
84.32235627991498
 30
0.0
 10
108.6629294201016
 20
84.30016143575266
 30
0.0
 10
108.7031804173866
 20
84.2829292086568
 30
0.0
 10
108.8074504308996
 20
84.22660129220473
 30
0.0
 10
108.8577724060529
 20
84.18241494625893
 30
0.0
 10
108.9854553535783
 20
84.0514070474083
 30
0.0
 10
109.0415408006405
 20
83.96117252717802
 30
0.0
 10
109.0878871937623
 20
83.87302699301213
 30
0.0
  0
SPLINE
  5
DB
330
1F
100
AcDbEntity
  8
0
  6
Continuous
 62
     7
370
    15
100
AcDbSpline
210
0.0
220
0.0
230
1.0
 70
     8
 71
     3
 72
     8
 73
     4
 74
     0
 42
0.000000001
 43
0.00000001
 40
0.0
 40
0.0
 40
0.0
 40
0.0
 40
1.0
 40
1.0
 40
1.0
 40
1.0
 10
106.1976492187303
 20
84.00986356870813
 30
0.0
 10
106.9322262452132
 20
84.12848857977708
 30
0.0
 10
107.6957013146089
 20
84.22847445191339
 30
0.0
 10
108.4661743116765
 20
84.31970885529093
 30
0.0
  0
SPLINE
  5
DC
330
1F
100
AcDbEntity
  8
0
  6
Continuous
 62
     7
370
    15
100
AcDbSpline
210
0.0
220
0.0
230
1.0
 70
     8
 71
     3
 72
    14
 73
    10
 74
     0
 42
0.000000001
 43
0.00000001
 40
0.0
 40
0.0
 40
0.0
 40
0.0
 40
0.5000000000000002
 40
0.5000000000000002
 40
0.7500000000000002
 40
0.7500000000000002
 40
0.8750000000000001
 40
0.8750000000000001
 40
1.0
 40
1.0
 40
1.0
 40
1.0
 10
100.9161743116765
 20
83.83624055117649
 30
0.0
 10
101.8083204422301
 20
83.83551832497584
 30
0.0
 10
102.6982968780237
 20
83.8401045314333
 30
0.0
 10
104.0248920450993
 20
83.86782953582484
 30
0.0
 10
104.465738973598
 20
83.880436073449
 30
0.0
 10
105.1221792110204
 20
83.91145222145644
 30
0.0
 10
105.3401928676123
 20
83.92379539408323
 30
0.0
 10
105.7729017212951
 20
83.9568194492465
 30
0.0
 10
105.9881781864599
 20
83.97603661438495
 30
0.0
 10
106.1976492187303
 20
84.00986356870813
 30
0.0
  0
SPLINE
  5
DD
330
1F
100
AcDbEntity
  8
0
  6
Continuous
 62
     7
370
    15
100
AcDbSpline
210
0.0
220
0.0
230
1.0
 70
     8
 71
     3
 72
     8
 73
     4
 74
     0
 42
0.000000001
 43
0.00000001
 40
0.0000005163856998
 40
0.0000005163856998
 40
0.0000005163856998
 40
0.0000005163856998
 40
0.000026289209185
 40
0.000026289209185
 40
0.000026289209185
 40
0.000026289209185
 10
100.9061293812689
 20
83.84622442427326
 30
0.0
 10
100.9094571194767
 20
83.84289017740414
 30
0.0
 10
100.9128055724523
 20
83.83956222012884
 30
0.0
 10
100.9161743116765
 20
83.83624055117647
 30
0.0
  0
SPLINE
  5
DE
330
1F
100
AcDbEntity
  8
0
  6
Continuous
 62
     7
370
    15
100
AcDbSpline
210
0.0
220
0.0
230
1.0
 70
     8
 71
     3
 72
     8
 73
     4
 74
     0
 42
0.000000001
 43
0.00000001
 40
0.0000005099763573
 40
0.0000005099763573
 40
0.0000005099763573
 40
0.0000005099763573
 40
0.0000262827998699
 40
0.0000262827998699
 40
0.0000262827998699
 40
0.0000262827998699
 10
100.9161743116765
 20
125.5761160819666
 30
0.0
 10
100.9128055724488
 20
125.5727944130108
 30
0.0
 10
100.9094571194696
 20
125.5694664557319
 30
0.0
 10
100.9061293812583
 20
125.5661322088592
 30
0.0
  0
SPLINE
  5
DF
330
1F
100
AcDbEntity
  8
0
  6
Continuous
 62
     7
370
    15
100
AcDbSpline
210
0.0
220
0.0
230
1.0
 70
     8
 71
     3
 72
    10
 73
     6
 74
     0
 42
0.000000001
 43
0.00000001
 40
0.0
 40
0.0
 40
0.0
 40
0.0
 40
0.5
 40
0.5
 40
1.0
 40
1.0
 40
1.0
 40
1.0
 10
104.4661743116765
 20
125.5292657083993
 30
0.0
 10
103.8785887645859
 20
125.5503312286357
 30
0.0
 10
103.2878423711255
 20
125.5610897145079
 30
0.0
 10
102.1038232058267
 20
125.5744544950436
 30
0.0
 10
101.5104092176212
 20
125.5765971377082
 30
0.0
 10
100.9161743116765
 20
125.5761160819666
 30
0.0
  0
SPLINE
  5
E0
330
1F
100
AcDbEntity
  8
0
  6
Continuous
 62
     7
370
    15
100
AcDbSpline
210
0.0
220
0.0
230
1.0
 70
     8
 71
     3
 72
    18
 73
    14
 74
     0
 42
0.000000001
 43
0.00000001
 40
0.0
 40
0.0
 40
0.0
 40
0.0
 40
0.2500000000000008
 40
0.2500000000000008
 40
0.5000000000000009
 40
0.5000000000000009
 40
0.7500000000000009
 40
0.7500000000000009
 40
0.875000000000001
 40
0.875000000000001
 40
0.9375000000000006
 40
0.9375000000000006
 40
1.0
 40
1.0
 40
1.0
 40
1.0
 10
105.8661743116765
 20
126.5502859889346
 30
0.0
 10
105.8661743116766
 20
126.4670790800773
 30
0.0
 10
105.8303252117383
 20
126.3783424247638
 30
0.0
 10
105.7054534757044
 20
126.1962172342035
 30
0.0
 10
105.6150530580565
 20
126.1010871855769
 30
0.0
 10
105.3928104033143
 20
125.9119056764526
 30
0.0
 10
105.2630456168685
 20
125.8169605083579
 30
0.0
 10
105.022408159557
 20
125.678681800778
 30
0.0
 10
104.9346408614196
 20
125.6329713674756
 30
0.0
 10
104.7801167742128
 20
125.5751480622541
 30
0.0
 10
104.723505888158
 20
125.5574332982162
 30
0.0
 10
104.5994618572514
 20
125.5328939949833
 30
0.0
 10
104.5317471822331
 20
125.526914856445
 30
0.0
 10
104.4661743116765
 20
125.5292657083993
 30
0.0
  0
LINE
  5
E1
330
1F
100
AcDbEntity
  8
0
  6
Continuous
 62
     7
370
    15
100
AcDbLine
 10
105.8661743117
 20
126.5502859889
 30
0.0
 11
105.8661743117
 21
127.7342244088
 31
0.0
  0
LINE
  5
E2
330
1F
100
AcDbEntity
  8
0
  6
Continuous
 62
     7
370
    15
100
AcDbLine
 10
129.6661743117
 20
80.4857474548
 30
0.0
 11
129.6661743117
 21
128.9266091783
 31
0.0
  0
SPLINE
  5
E3
330
1F
100
AcDbEntity
  8
0
  6
Continuous
 62
     7
370
    15
100
AcDbSpline
210
0.0
220
0.0
230
1.0
 70
     8
 71
     3
 72
    24
 73
    20
 74
     0
 42
0.000000001
 43
0.00000001
 40
0.0
 40
0.0
 40
0.0
 40
0.0
 40
0.0010489762969682
 40
0.0637843125639767
 40
0.1272220590447889
 40
0.19037889244876
 40
0.2526748653693632
 40
0.3146354154433589
 40
0.3770891997149993
 40
0.4393540298512636
 40
0.5008133242537819
 40
0.5621845104587263
 40
0.6248438451115537
 40
0.6874304766616293
 40
0.7496743174679374
 40
0.8119848426977089
 40
0.875096052541316
 40
0.9384412526965075
 40
0.9999999999999999
 40
0.9999999999999999
 40
0.9999999999999999
 40
0.9999999999999999
 10
118.4350801436522
 20
81.04866988799142
 30
0.0
 10
118.434633683548
 20
81.04861160217251
 30
0.0
 10
118.4074861198542
 20
81.04506746022992
 30
0.0
 10
118.5030978974679
 20
81.05790120491278
 30
0.0
 10
118.7366581553624
 20
81.0871478901129
 30
0.0
 10
119.1322124626794
 20
81.13376221317581
 30
0.0
 10
119.6592527665202
 20
81.18394535483522
 30
0.0
 10
120.3027831785081
 20
81.22832181728548
 30
0.0
 10
121.041457033753
 20
81.2552665982231
 30
0.0
 10
121.8389715391837
 20
81.258738448929
 30
0.0
 10
122.6655504216258
 20
81.23111120489938
 30
0.0
 10
123.491073439233
 20
81.17263231592611
 30
0.0
 10
124.283199987234
 20
81.08718728656608
 30
0.0
 10
125.0157722612396
 20
80.98545304672972
 30
0.0
 10
125.6514124979677
 20
80.87760992475684
 30
0.0
 10
126.1733236049774
 20
80.77597976801773
 30
0.0
 10
126.5549523820928
 20
80.69349461133949
 30
0.0
 10
126.8057668523267
 20
80.63734540498986
 30
0.0
 10
126.834888408311
 20
80.63049594637612
 30
0.0
 10
126.8492409291272
 20
80.62712019964793
 30
0.0
  0
SPLINE
  5
E4
330
1F
100
AcDbEntity
  8
0
  6
Continuous
 62
     7
370
    15
100
AcDbSpline
210
0.0
220
0.0
230
1.0
 70
     8
 71
     3
 72
    24
 73
    20
 74
     0
 42
0.000000001
 43
0.00000001
 40
0.0
 40
0.0
 40
0.0
 40
0.0
 40
0.061438427625136
 40
0.1250736755369643
 40
0.1884253490730172
 40
0.2508623904037476
 40
0.3129665632512369
 40
0.3753451453465166
 40
0.4377328972325402
 40
0.4990927322917273
 40
0.5605807588448041
 40
0.6229469893028856
 40
0.6854686282026866
 40
0.7475477813740222
 40
0.8098225060807238
 40
0.8730684085990468
 40
0.9364041844533111
 40
0.9991757196257863
 40
1.0
 40
1.0
 40
1.0
 40
1.0
 10
126.8491861583242
 20
128.785207291029
 30
0.0
 10
126.8345854340205
 20
128.7818392341763
 30
0.0
 10
126.804861915292
 20
128.7749826907025
 30
0.0
 10
126.5521240996439
 20
128.7186440701765
 30
0.0
 10
126.1691281831949
 20
128.6357869880466
 30
0.0
 10
125.6467725987568
 20
128.5338799580953
 30
0.0
 10
125.0119881207568
 20
128.4260408190515
 30
0.0
 10
124.2817645165843
 20
128.3245738670763
 30
0.0
 10
123.4912959313507
 20
128.2395141533857
 30
0.0
 10
122.6668124165223
 20
128.1813098594993
 30
0.0
 10
121.8397759576391
 20
128.1537264206727
 30
0.0
 10
121.0414516899871
 20
128.1572193981655
 30
0.0
 10
120.3016277256978
 20
128.1841753180186
 30
0.0
 10
119.6573734927224
 20
128.228529260018
 30
0.0
 10
119.1299662375067
 20
128.2787347097757
 30
0.0
 10
118.7353016353568
 20
128.3253445649741
 30
0.0
 10
118.5027723561719
 20
128.3545401575214
 30
0.0
 10
118.4073923236197
 20
128.3673182264633
 30
0.0
 10
118.4343259605211
 20
128.363763967955
 30
0.0
 10
118.4346750537455
 20
128.3637179003716
 30
0.0
  0
SPLINE
  5
E5
330
1F
100
AcDbEntity
  8
0
  6
Continuous
 62
     7
370
    15
100
AcDbSpline
210
0.0
220
0.0
230
1.0
 70
     8
 71
     3
 72
     9
 73
     5
 74
     0
 42
0.000000001
 43
0.00000001
 40
0.0
 40
0.0
 40
0.0
 40
0.0
 40
0.7009329310330167
 40
1.0
 40
1.0
 40
1.0
 40
1.0
 10
99.78695899591199
 20
85.00489801246894
 30
0.0
 10
99.79609827258729
 20
84.9870687269274
 30
0.0
 10
99.80913700464087
 20
84.96163221973512
 30
0.0
 10
99.82430225840619
 20
85.01551207992692
 30
0.0
 10
99.82883768639991
 20
85.03162577179083
 30
0.0
  0
LINE
  5
E6
330
1F
100
AcDbEntity
  8
0
  6
Continuous
 62
     7
370
    15
100
AcDbLine
 10
99.7661743117
 20
85.0155005701
 30
0.0
 11
99.7661743117
 21
124.396856063
 31
0.0
  0
SPLINE
  5
E7
330
1F
100
AcDbEntity
  8
0
  6
Continuous
 62
     7
370
    15
100
AcDbSpline
210
0.0
220
0.0
230
1.0
 70
     8
 71
     3
 72
    10
 73
     6
 74
     0
 42
0.000000001
 43
0.00000001
 40
0.0
 40
0.0
 40
0.0
 40
0.0
 40
0.5
 40
0.5
 40
1.0
 40
1.0
 40
1.0
 40
1.0
 10
99.82883768639994
 20
124.3807308613523
 30
0.0
 10
99.81993339729118
 20
124.4264723805655
 30
0.0
 10
99.80341801709821
 20
124.4436632200345
 30
0.0
 10
99.7763100710366
 20
124.4433399430987
 30
0.0
 10
99.76617431167654
 20
124.4254624008023
 30
0.0
 10
99.76617431167654
 20
124.3968560630497
 30
0.0
  0
SPLINE
  5
E8
330
1F
100
AcDbEntity
  8
0
  6
Continuous
 62
     7
370
    15
100
AcDbSpline
210
0.0
220
0.0
230
1.0
 70
     8
 71
     3
 72
    26
 73
    22
 74
     0
 42
0.000000001
 43
0.00000001
 40
0.0
 40
0.0
 40
0.0
 40
0.0
 40
0.2500000000000165
 40
0.2500000000000165
 40
0.3750000000000256
 40
0.3750000000000256
 40
0.4375000000000291
 40
0.4375000000000291
 40
0.4687500000000291
 40
0.4687500000000291
 40
0.5000000000000292
 40
0.5000000000000292
 40
0.5312500000000293
 40
0.5312500000000293
 40
0.5625000000000293
 40
0.5625000000000293
 40
0.625000000000026
 40
0.625000000000026
 40
0.7500000000000173
 40
0.7500000000000173
 40
1.0
 40
1.0
 40
1.0
 40
1.0
 10
100.590327957781
 20
125.0962976501694
 30
0.0
 10
100.5517274349126
 20
124.978522953814
 30
0.0
 10
100.5054304323583
 20
124.854133267652
 30
0.0
 10
100.4114910839244
 20
124.6489139352985
 30
0.0
 10
100.3761796170109
 20
124.5773410688521
 30
0.0
 10
100.3099996412653
 20
124.4613878362516
 30
0.0
 10
100.285461274597
 20
124.4208033014414
 30
0.0
 10
100.2420885290432
 20
124.3566616195697
 30
0.0
 10
100.226580127618
 20
124.3347951942846
 30
0.0
 10
100.191537483031
 20
124.2892009259414
 30
0.0
 10
100.1719871923112
 20
124.265530634974
 30
0.0
 10
100.1300599119406
 20
124.2209140756341
 30
0.0
 10
100.107407801709
 20
124.2000340631161
 30
0.0
 10
100.0664340876224
 20
124.1691606493653
 30
0.0
 10
100.0488347877269
 20
124.1593217795329
 30
0.0
 10
100.0042078018708
 20
124.1403321638367
 30
0.0
 10
99.98364857921746
 20
124.1400078391833
 30
0.0
 10
99.93252313972079
 20
124.1492312800595
 30
0.0
 10
99.91161172673225
 20
124.1704781762765
 30
0.0
 10
99.86016181917131
 20
124.2444470551073
 30
0.0
 10
99.84249651986676
 20
124.310565148422
 30
0.0
 10
99.82883768639994
 20
124.3807308613523
 30
0.0
  0
SPLINE
  5
E9
330
1F
100
AcDbEntity
  8
0
  6
Continuous
 62
     7
370
    15
100
AcDbSpline
210
0.0
220
0.0
230
1.0
 70
     8
 71
     3
 72
    10
 73
     6
 74
     0
 42
0.000000001
 43
0.00000001
 40
0.0
 40
0.0
 40
0.0
 40
0.0
 40
0.5
 40
0.5
 40
1.0
 40
1.0
 40
1.0
 40
1.0
 10
100.9061293812583
 20
125.5661322088592
 30
0.0
 10
100.8385701263401
 20
125.4984408160494
 30
0.0
 10
100.7749334710036
 20
125.4237336512958
 30
0.0
 10
100.6647127164317
 20
125.2647675188692
 30
0.0
 10
100.6178964232091
 20
125.1804122528612
 30
0.0
 10
100.590327957781
 20
125.0962976501694
 30
0.0
  0
SPLINE
  5
EA
330
1F
100
AcDbEntity
  8
0
  6
Continuous
 62
     7
370
    15
100
AcDbSpline
210
0.0
220
0.0
230
1.0
 70
     8
 71
     3
 72
    10
 73
     6
 74
     0
 42
0.000000001
 43
0.00000001
 40
0.0
 40
0.0
 40
0.0
 40
0.0
 40
0.5
 40
0.5
 40
1.0
 40
1.0
 40
1.0
 40
1.0
 10
100.5903279577811
 20
84.31605898297359
 30
0.0
 10
100.617805372535
 20
84.2322221865057
 30
0.0
 10
100.6645140028245
 20
84.14791169891656
 30
0.0
 10
100.7747924655704
 20
83.98879046842985
 30
0.0
 10
100.8386800041843
 20
83.91380572434021
 30
0.0
 10
100.9061293812689
 20
83.84622442427326
 30
0.0
  0
SPLINE
  5
EB
330
1F
100
AcDbEntity
  8
0
  6
Continuous
 62
     7
370
    15
100
AcDbSpline
210
0.0
220
0.0
230
1.0
 70
     8
 71
     3
 72
    24
 73
    20
 74
     0
 42
0.000000001
 43
0.00000001
 40
0.0
 40
0.0
 40
0.0
 40
0.0
 40
0.249999999999999
 40
0.249999999999999
 40
0.3749999999999983
 40
0.3749999999999983
 40
0.4374999999999987
 40
0.4374999999999987
 40
0.4687499999999975
 40
0.4687499999999975
 40
0.4999999999999963
 40
0.4999999999999963
 40
0.5624999999999984
 40
0.5624999999999984
 40
0.6250000000000006
 40
0.6250000000000006
 40
0.7500000000000001
 40
0.7500000000000001
 40
1.0
 40
1.0
 40
1.0
 40
1.0
 10
99.82883768639994
 20
85.03162577179083
 30
0.0
 10
99.84259080507016
 20
85.1022758297811
 30
0.0
 10
99.86036337247603
 20
85.16887394254601
 30
0.0
 10
99.91261446403138
 20
85.24297196277924
 30
0.0
 10
99.93364953961296
 20
85.26422976994078
 30
0.0
 10
99.98654994724137
 20
85.27237569608704
 30
0.0
 10
100.0076556201193
 20
85.27143589269124
 30
0.0
 10
100.0537077887973
 20
85.2504199011139
 30
0.0
 10
100.0720782607807
 20
85.23951109500629
 30
0.0
 10
100.1136298958464
 20
85.20687618405893
 30
0.0
 10
100.1361965686033
 20
85.18538420368755
 30
0.0
 10
100.1989775850633
 20
85.11691826010123
 30
0.0
 10
100.2321073460312
 20
85.07084380189615
 30
0.0
 10
100.2890250325162
 20
84.98583591356147
 30
0.0
 10
100.31321105802
 20
84.94555561238009
 30
0.0
 10
100.3784190083997
 20
84.83061938591416
 30
0.0
 10
100.413135068591
 20
84.76003640076713
 30
0.0
 10
100.5063503389219
 20
84.55583064168854
 30
0.0
 10
100.5520228742825
 20
84.43293225936118
 30
0.0
 10
100.5903279577811
 20
84.31605898297362
 30
0.0
  0
SPLINE
  5
EC
330
1F
100
AcDbEntity
  8
0
  6
Continuous
 62
     7
370
    15
100
AcDbSpline
210
0.0
220
0.0
230
1.0
 70
     8
 71
     3
 72
     8
 73
     4
 74
     0
 42
0.000000001
 43
0.00000001
 40
0.0
 40
0.0
 40
0.0
 40
0.0
 40
1.0
 40
1.0
 40
1.0
 40
1.0
 10
146.2742414801875
 20
129.164867978939
 30
0.0
 10
146.7813283219467
 20
128.0337176247753
 30
0.0
 10
147.2768961610867
 20
126.8973332140075
 30
0.0
 10
147.7561743116765
 20
125.7563219841549
 30
0.0
  0
LINE
  5
ED
330
1F
100
AcDbEntity
  8
0
  6
Continuous
 62
     7
370
    15
100
AcDbLine
 10
147.7561743117
 20
125.7563219842
 30
0.0
 11
147.7561743117
 21
124.842044948
 31
0.0
  0
SPLINE
  5
EE
330
1F
100
AcDbEntity
  8
0
  6
Continuous
 62
     7
370
    15
100
AcDbSpline
210
0.0
220
0.0
230
1.0
 70
     8
 71
     3
 72
    10
 73
     6
 74
     0
 42
0.000000001
 43
0.00000001
 40
0.0
 40
0.0
 40
0.0
 40
0.0
 40
0.5
 40
0.5
 40
1.0
 40
1.0
 40
1.0
 40
1.0
 10
157.6161743116765
 20
134.5526186403355
 30
0.0
 10
157.6161743116765
 20
134.7130239066863
 30
0.0
 10
157.5539364805697
 20
134.8720857196749
 30
0.0
 10
157.3348015568271
 20
135.1029981853052
 30
0.0
 10
157.1772128618352
 20
135.1733737897358
 30
0.0
 10
157.0161743116765
 20
135.1733737897358
 30
0.0
  0
SPLINE
  5
EF
330
1F
100
AcDbEntity
  8
0
  6
Continuous
 62
     7
370
    15
100
AcDbSpline
210
0.0
220
0.0
230
1.0
 70
     8
 71
     3
 72
    12
 73
     8
 74
     0
 42
0.000000001
 43
0.00000001
 40
0.0
 40
0.0
 40
0.0
 40
0.0
 40
0.250000000000002
 40
0.250000000000002
 40
0.500000000000004
 40
0.500000000000004
 40
1.0
 40
1.0
 40
1.0
 40
1.0
 10
157.0161743116765
 20
129.164867978939
 30
0.0
 10
157.1073740335022
 20
129.164867978939
 30
0.0
 10
157.1979690426382
 20
129.1366482803511
 30
0.0
 10
157.3513817690849
 20
129.042205273103
 30
0.0
 10
157.4165906364085
 20
128.9759182963977
 30
0.0
 10
157.5693751657485
 20
128.7502934731094
 30
0.0
 10
157.6161743116765
 20
128.5678672100769
 30
0.0
 10
157.6161743116765
 20
128.38713057783
 30
0.0
  0
LINE
  5
F0
330
1F
100
AcDbEntity
  8
0
  6
Continuous
 62
     7
370
    15
100
AcDbLine
 10
157.6161743117
 20
128.3871305778
 30
0.0
 11
157.6161743117
 21
134.5526186403
 31
0.0
  0
SPLINE
  5
F1
330
1F
100
AcDbEntity
  8
0
  6
Continuous
 62
     7
370
    15
100
AcDbSpline
210
0.0
220
0.0
230
1.0
 70
     8
 71
     3
 72
     8
 73
     4
 74
     0
 42
0.000000001
 43
0.00000001
 40
0.0
 40
0.0
 40
0.0
 40
0.0
 40
1.0
 40
1.0
 40
1.0
 40
1.0
 10
147.7561743116765
 20
132.5114125077432
 30
0.0
 10
147.2634642148308
 20
133.3994315058696
 30
0.0
 10
146.7693815095518
 20
134.2866941415555
 30
0.0
 10
146.2742414801875
 20
135.1733737897358
 30
0.0
  0
LINE
  5
F2
330
1F
100
AcDbEntity
  8
0
  6
Continuous
 62
     7
370
    15
100
AcDbLine
 10
147.7561743117
 20
125.7563219842
 30
0.0
 11
147.7561743117
 21
132.5114125077
 31
0.0
  0
SPLINE
  5
F3
330
1F
100
AcDbEntity
  8
0
  6
Continuous
 62
     7
370
    15
100
AcDbSpline
210
0.0
220
0.0
230
1.0
 70
     8
 71
     3
 72
     8
 73
     4
 74
     0
 42
0.000000001
 43
0.00000001
 40
0.0
 40
0.0
 40
0.0
 40
0.0
 40
1.0
 40
1.0
 40
1.0
 40
1.0
 10
153.0581071431656
 20
135.1733737897358
 30
0.0
 10
152.5629671138013
 20
134.2866941415555
 30
0.0
 10
152.0688844085223
 20
133.3994315058696
 30
0.0
 10
151.5761743116765
 20
132.5114125077432
 30
0.0
  0
LINE
  5
F4
330
1F
100
AcDbEntity
  8
0
  6
Continuous
 62
     7
370
    15
100
AcDbLine
 10
153.0581071432
 20
129.1648679789
 30
0.0
 11
153.0581071432
 21
135.1733737897
 31
0.0
  0
SPLINE
  5
F5
330
1F
100
AcDbEntity
  8
0
  6
Continuous
 62
     7
370
    15
100
AcDbSpline
210
0.0
220
0.0
230
1.0
 70
     8
 71
     3
 72
     8
 73
     4
 74
     0
 42
0.000000001
 43
0.00000001
 40
0.0
 40
0.0
 40
0.0
 40
0.0
 40
1.0
 40
1.0
 40
1.0
 40
1.0
 10
151.5761743116765
 20
125.7563219841549
 30
0.0
 10
152.0554524622664
 20
126.8973332140075
 30
0.0
 10
152.5510203014063
 20
128.0337176247753
 30
0.0
 10
153.0581071431656
 20
129.164867978939
 30
0.0
  0
LINE
  5
F6
330
1F
100
AcDbEntity
  8
0
  6
Continuous
 62
     7
370
    15
100
AcDbLine
 10
151.5761743117
 20
125.7563219842
 30
0.0
 11
151.5761743117
 21
132.5114125077
 31
0.0
  0
LINE
  5
F7
330
1F
100
AcDbEntity
  8
0
  6
Continuous
 62
     7
370
    15
100
AcDbLine
 10
153.0581071432
 20
129.1648679789
 30
0.0
 11
157.0161743117
 21
129.1648679789
 31
0.0
  0
LINE
  5
F8
330
1F
100
AcDbEntity
  8
0
  6
Continuous
 62
     7
370
    15
100
AcDbLine
 10
151.5761743117
 20
124.842044948
 30
0.0
 11
151.5761743117
 21
125.7563219842
 31
0.0
  0
LINE
  5
F9
330
1F
100
AcDbEntity
  8
0
  6
Continuous
 62
     7
370
    15
100
AcDbLine
 10
157.6161743117
 20
128.3871305778
 30
0.0
 11
157.6161743117
 21
124.5561783166
 31
0.0
  0
LINE
  5
FA
330
1F
100
AcDbEntity
  8
0
  6
Continuous
 62
     7
370
    15
100
AcDbLine
 10
157.0161743117
 20
135.1733737897
 30
0.0
 11
153.0581071432
 21
135.1733737897
 31
0.0
  0
CIRCLE
  5
FB
330
1F
100
AcDbEntity
  8
0
  6
HIDDEN
 62
     7
370
     0
100
AcDbCircle
 10
185.6161743117
 20
104.7061783166
 30
0.0
 40
4.080384757729345
  0
CIRCLE
  5
FC
330
1F
100
AcDbEntity
  8
0
  6
HIDDEN
 62
     7
370
     0
100
AcDbCircle
 10
185.6161743117
 20
104.7061783166
 30
0.0
 40
3.780384757729312
  0
LINE
  5
FD
330
1F
100
AcDbEntity
  8
0
  6
HIDDEN
 62
     7
370
     0
100
AcDbLine
 10
146.2742414802
 20
129.1648679789
 30
0.0
 11
146.2742414802
 21
124.5561783166
 31
0.0
  0
LINE
  5
FE
330
1F
100
AcDbEntity
  8
0
  6
HIDDEN
 62
     7
370
     0
100
AcDbLine
 10
119.6613245162
 20
81.1815786937
 30
0.0
 11
119.4096669221
 21
81.1580570723
 31
0.0
  0
SPLINE
  5
FF
330
1F
100
AcDbEntity
  8
0
  6
HIDDEN
 62
     7
370
     0
100
AcDbSpline
210
0.0
220
0.0
230
1.0
 70
     8
 71
     3
 72
    15
 73
    11
 74
     0
 42
0.000000001
 43
0.00000001
 40
0.0
 40
0.0
 40
0.0
 40
0.0
 40
0.1409172169897705
 40
0.2818898291171906
 40
0.4212989265166057
 40
0.5593768372264388
 40
0.6988856205980569
 40
0.8403671979046411
 40
0.981316445467027
 40
1.0
 40
1.0
 40
1.0
 40
1.0
 10
125.4211763132781
 20
84.8686498407551
 30
0.0
 10
125.1051346270056
 20
84.90900365807671
 30
0.0
 10
124.4729270171735
 20
84.98972715597155
 30
0.0
 10
123.2387638954963
 20
85.06628225357382
 30
0.0
 10
121.9680418946378
 20
85.06160620243477
 30
0.0
 10
120.7794824896103
 20
84.98081019070256
 30
0.0
 10
119.7863598168293
 20
84.85641339419081
 30
0.0
 10
119.1469508105327
 20
84.7500098555287
 30
0.0
 10
118.8659307039492
 20
84.69692919485155
 30
0.0
 10
118.9324914416424
 20
84.70918523486579
 30
0.0
 10
118.9402817651606
 20
84.71061969187562
 30
0.0
  0
SPLINE
  5
100
330
1F
100
AcDbEntity
  8
0
  6
HIDDEN
 62
     7
370
     0
100
AcDbSpline
210
0.0
220
0.0
230
1.0
 70
     8
 71
     3
 72
    15
 73
    11
 74
     0
 42
0.000000001
 43
0.00000001
 40
0.0
 40
0.0
 40
0.0
 40
0.0
 40
0.1201202395113831
 40
0.2584739316900695
 40
0.3987301965958642
 40
0.5404022890432704
 40
0.680739540300365
 40
0.819035606386088
 40
0.9577823106998845
 40
1.0
 40
1.0
 40
1.0
 40
1.0
 10
118.9402817651606
 20
124.7017369412675
 30
0.0
 10
118.960990901631
 20
124.6977123474139
 30
0.0
 10
119.0055526836188
 20
124.689052253153
 30
0.0
 10
119.5679922894916
 20
124.5897611265443
 30
0.0
 10
120.4614545018129
 20
124.4658435365631
 30
0.0
 10
121.6204336560051
 20
124.3661330997416
 30
0.0
 10
122.8934705361304
 20
124.338994610666
 30
0.0
 10
124.127755810774
 20
124.3943334448299
 30
0.0
 10
124.95571860754
 20
124.4808120438141
 30
0.0
 10
125.333129152204
 20
124.531809462104
 30
0.0
 10
125.4211763132782
 20
124.543706792388
 30
0.0
  0
SPLINE
  5
101
330
1F
100
AcDbEntity
  8
0
  6
HIDDEN
 62
     7
370
     0
100
AcDbSpline
210
0.0
220
0.0
230
1.0
 70
     8
 71
     3
 72
    10
 73
     6
 74
     0
 42
0.000000001
 43
0.00000001
 40
0.0
 40
0.0
 40
0.0
 40
0.0
 40
0.4475516351828317
 40
0.8950865125104718
 40
1.0
 40
1.0
 40
1.0
 40
1.0
 10
125.4211763132781
 20
124.543706792388
 30
0.0
 10
125.6678832763498
 20
124.5732193479661
 30
0.0
 10
126.1612879649455
 20
124.6322433540719
 30
0.0
 10
126.4503036429403
 20
124.646181366487
 30
0.0
 10
126.3899230050181
 20
124.6422899657587
 30
0.0
 10
126.3784563346382
 20
124.6415509638037
 30
0.0
  0
SPLINE
  5
102
330
1F
100
AcDbEntity
  8
0
  6
HIDDEN
 62
     7
370
     0
100
AcDbSpline
210
0.0
220
0.0
230
1.0
 70
     8
 71
     3
 72
    10
 73
     6
 74
     0
 42
0.000000001
 43
0.00000001
 40
0.0
 40
0.0
 40
0.0
 40
0.0
 40
0.3454891020300965
 40
0.7967014686497323
 40
1.0
 40
1.0
 40
1.0
 40
1.0
 10
126.3784574016206
 20
84.7708055968086
 30
0.0
 10
126.3688974545682
 20
84.77136119076532
 30
0.0
 10
126.3468521170683
 20
84.77264239621785
 30
0.0
 10
125.9299040144463
 20
84.80260025398957
 30
0.0
 10
125.5417434124142
 20
84.85299626604868
 30
0.0
 10
125.4211763132781
 20
84.8686498407551
 30
0.0
  0
LINE
  5
103
330
1F
100
AcDbEntity
  8
0
  6
HIDDEN
 62
     7
370
     0
100
AcDbLine
 10
112.6701489079
 20
87.7061783166
 30
0.0
 11
112.6701489079
 21
121.7061783166
 31
0.0
  0
SPLINE
  5
104
330
1F
100
AcDbEntity
  8
0
  6
HIDDEN
 62
     7
370
     0
100
AcDbSpline
210
0.0
220
0.0
230
1.0
 70
     8
 71
     3
 72
    18
 73
    14
 74
     0
 42
0.000000001
 43
0.00000001
 40
0.0
 40
0.0
 40
0.0
 40
0.0
 40
0.2500000000000091
 40
0.2500000000000091
 40
0.5000000000000182
 40
0.5000000000000182
 40
0.6250000000000137
 40
0.6250000000000137
 40
0.7500000000000091
 40
0.7500000000000091
 40
0.8750000000000046
 40
0.8750000000000046
 40
1.0
 40
1.0
 40
1.0
 40
1.0
 10
201.6661743116765
 20
121.7038795606849
 30
0.0
 10
201.6661743116765
 20
121.6085598956671
 30
0.0
 10
201.6609162485135
 20
121.5115305094994
 30
0.0
 10
201.6334112586466
 20
121.3119463689746
 30
0.0
 10
201.6109277651731
 20
121.2069421992718
 30
0.0
 10
201.552629413053
 20
121.0549334506875
 30
0.0
 10
201.5283026193455
 20
121.0038815505137
 30
0.0
 10
201.4694592601625
 20
120.9113306594353
 30
0.0
 10
201.4343365397096
 20
120.869508682802
 30
0.0
 10
201.3593578677176
 20
120.8050364261976
 30
0.0
 10
201.3193710500633
 20
120.7818785404427
 30
0.0
 10
201.2407632055157
 20
120.7518916946451
 30
0.0
 10
201.2029138625126
 20
120.744853738159
 30
0.0
 10
201.1661347316621
 20
120.7425944311829
 30
0.0
  0
SPLINE
  5
105
330
1F
100
AcDbEntity
  8
0
  6
HIDDEN
 62
     7
370
     0
100
AcDbSpline
210
0.0
220
0.0
230
1.0
 70
     8
 71
     3
 72
    10
 73
     6
 74
     0
 42
0.000000001
 43
0.00000001
 40
0.0
 40
0.0
 40
0.0
 40
0.0
 40
0.5
 40
0.5
 40
1.0
 40
1.0
 40
1.0
 40
1.0
 10
201.1661347316622
 20
120.7425944311831
 30
0.0
 10
201.1013132739293
 20
120.6817268268086
 30
0.0
 10
201.0264698776271
 20
120.6267549951883
 30
0.0
 10
200.8578592217758
 20
120.54692998693
 30
0.0
 10
200.76356866974
 20
120.5226232129029
 30
0.0
 10
200.6661743116765
 20
120.5226232129029
 30
0.0
  0
SPLINE
  5
106
330
1F
100
AcDbEntity
  8
0
  6
HIDDEN
 62
     7
370
     0
100
AcDbSpline
210
0.0
220
0.0
230
1.0
 70
     8
 71
     3
 72
    10
 73
     6
 74
     0
 42
0.000000001
 43
0.00000001
 40
0.0
 40
0.0
 40
0.0
 40
0.0
 40
0.5
 40
0.5
 40
1.0
 40
1.0
 40
1.0
 40
1.0
 10
201.1661245053718
 20
88.66977180436005
 30
0.0
 10
201.101303819205
 20
88.730637074442
 30
0.0
 10
201.0264615365475
 20
88.785606616692
 30
0.0
 10
200.8578542628267
 20
88.86542796400089
 30
0.0
 10
200.7635661089218
 20
88.8897334202402
 30
0.0
 10
200.6661743116765
 20
88.8897334202402
 30
0.0
  0
SPLINE
  5
107
330
1F
100
AcDbEntity
  8
0
  6
HIDDEN
 62
     7
370
     0
100
AcDbSpline
210
0.0
220
0.0
230
1.0
 70
     8
 71
     3
 72
    18
 73
    14
 74
     0
 42
0.000000001
 43
0.00000001
 40
0.0
 40
0.0
 40
0.0
 40
0.0
 40
0.1249999999999973
 40
0.1249999999999973
 40
0.2499999999999946
 40
0.2499999999999946
 40
0.3749999999999918
 40
0.3749999999999918
 40
0.4999999999999891
 40
0.4999999999999891
 40
0.7499999999999946
 40
0.7499999999999946
 40
1.0
 40
1.0
 40
1.0
 40
1.0
 10
201.1661245053717
 20
88.66977180436002
 30
0.0
 10
201.2026113854681
 20
88.66753776807329
 30
0.0
 10
201.2408670774963
 20
88.66039427762112
 30
0.0
 10
201.3184141144859
 20
88.63093239688776
 30
0.0
 10
201.3583615296934
 20
88.60795931580572
 30
0.0
 10
201.4327064399287
 20
88.54453437994545
 30
0.0
 10
201.4678496849299
 20
88.50314438162218
 30
0.0
 10
201.5268326455006
 20
88.41123710638124
 30
0.0
 10
201.5512502680081
 20
88.36056058164354
 30
0.0
 10
201.6103265830672
 20
88.20790956528413
 30
0.0
 10
201.6328154516543
 20
88.10369036372408
 30
0.0
 10
201.6608197131245
 20
87.90254912295848
 30
0.0
 10
201.6661743116765
 20
87.80405486425182
 30
0.0
 10
201.6661743116765
 20
87.70847707245821
 30
0.0
  0
LINE
  5
108
330
1F
100
AcDbEntity
  8
0
  6
HIDDEN
 62
     7
370
     0
100
AcDbLine
 10
161.1661743117
 20
104.7061783166
 30
0.0
 11
161.1661743117
 21
87.2061783166
 31
0.0
  0
LINE
  5
109
330
1F
100
AcDbEntity
  8
0
  6
HIDDEN
 62
     7
370
     0
100
AcDbLine
 10
161.1661743117
 20
122.2061783166
 30
0.0
 11
161.1661743117
 21
104.7061783166
 31
0.0
  0
LINE
  5
10A
330
1F
100
AcDbEntity
  8
0
  6
HIDDEN
 62
     7
370
     0
100
AcDbLine
 10
166.0321997155
 20
104.7061783166
 30
0.0
 11
166.0321997155
 21
86.7061783166
 31
0.0
  0
LINE
  5
10B
330
1F
100
AcDbEntity
  8
0
  6
HIDDEN
 62
     7
370
     0
100
AcDbLine
 10
166.0321997155
 20
122.7061783166
 30
0.0
 11
166.0321997155
 21
104.7061783166
 31
0.0
  0
LINE
  5
10C
330
1F
100
AcDbEntity
  8
0
  6
HIDDEN
 62
     7
370
     0
100
AcDbLine
 10
185.0661743116
 20
120.5226232129
 30
0.0
 11
200.6661743117
 21
120.5226232129
 31
0.0
  0
LINE
  5
10D
330
1F
100
AcDbEntity
  8
0
  6
HIDDEN
 62
     7
370
     0
100
AcDbLine
 10
185.0661743116
 20
88.8897334202
 30
0.0
 11
200.6661743117
 21
88.8897334202
 31
0.0
  0
SPLINE
  5
10E
330
1F
100
AcDbEntity
  8
0
  6
HIDDEN
 62
     7
370
     0
100
AcDbSpline
210
0.0
220
0.0
230
1.0
 70
     8
 71
     3
 72
    11
 73
     7
 74
     0
 42
0.000000001
 43
0.00000001
 40
0.0
 40
0.0
 40
0.0
 40
0.0
 40
0.0005779865010846
 40
0.0005779865010846
 40
0.0005779865010846
 40
0.0011559733324422
 40
0.0011559733324422
 40
0.0011559733324422
 40
0.0011559733324422
 10
99.76617431167654
 20
106.7060189247315
 30
0.0
 10
99.9328415664825
 20
106.7040352853908
 30
0.0
 10
100.0995079961602
 20
106.7019976783826
 30
0.0
 10
100.266174334612
 20
106.6998862149764
 30
0.0
 10
100.4328407634384
 20
106.6977747504254
 30
0.0
 10
100.5995071370761
 20
106.6955891872693
 30
0.0
 10
100.7661743116765
 20
106.693306609938
 30
0.0
  0
SPLINE
  5
10F
330
1F
100
AcDbEntity
  8
0
  6
HIDDEN
 62
     7
370
     0
100
AcDbSpline
210
0.0
220
0.0
230
1.0
 70
     8
 71
     3
 72
    11
 73
     7
 74
     0
 42
0.000000001
 43
0.00000001
 40
0.0
 40
0.0
 40
0.0
 40
0.0
 40
0.0005782382535738
 40
0.0005782382535738
 40
0.0005782382535738
 40
0.0011564766069467
 40
0.0011564766069467
 40
0.0011564766069467
 40
0.0011564766069467
 10
100.7661743116765
 20
102.7094780143533
 30
0.0
 10
100.5995203577079
 20
102.7090404365917
 30
0.0
 10
100.4328596855059
 20
102.7085603719193
 30
0.0
 10
100.2661927968405
 20
102.7080408325499
 30
0.0
 10
100.0995258784445
 20
102.7075212930879
 30
0.0
 10
99.93285274861124
 20
102.706962464066
 30
0.0
 10
99.76617431167652
 20
102.7063769204829
 30
0.0
  0
LINE
  5
110
330
1F
100
AcDbEntity
  8
0
  6
HIDDEN
 62
     7
370
     0
100
AcDbLine
 10
139.3260002802
 20
87.7061783166
 30
0.0
 11
139.3260002802
 21
121.7061783166
 31
0.0
  0
LINE
  5
111
330
1F
100
AcDbEntity
  8
0
  6
HIDDEN
 62
     7
370
     0
100
AcDbLine
 10
141.6161743117
 20
88.9811783166
 30
0.0
 11
141.6161743117
 21
120.4311782979
 31
0.0
  0
SPLINE
  5
112
330
1F
100
AcDbEntity
  8
0
  6
HIDDEN
 62
     7
370
     0
100
AcDbSpline
210
0.0
220
0.0
230
1.0
 70
     8
 71
     3
 72
    16
 73
    12
 74
     0
 42
0.000000001
 43
0.00000001
 40
0.0
 40
0.0
 40
0.0
 40
0.0
 40
0.124999999999998
 40
0.124999999999998
 40
0.249999999999996
 40
0.249999999999996
 40
0.4999999999999973
 40
0.4999999999999973
 40
0.7499999999999987
 40
0.7499999999999987
 40
1.0
 40
1.0
 40
1.0
 40
1.0
 10
108.4661743116765
 20
88.9046878805399
 30
0.0
 10
108.5612960663424
 20
88.9046878805399
 30
0.0
 10
108.6546261350704
 20
88.9008720471471
 30
0.0
 10
108.8378878958084
 20
88.88610149441728
 30
0.0
 10
108.9287656113654
 20
88.8749434464417
 30
0.0
 10
109.1855673088852
 20
88.83247217629999
 30
0.0
 10
109.3406346737572
 20
88.79142597909718
 30
0.0
 10
109.5943811353118
 20
88.6962798625153
 30
0.0
 10
109.6952515869797
 20
88.6415171284337
 30
0.0
 10
109.8304980016745
 20
88.53025600452985
 30
0.0
 10
109.8661743116765
 20
88.47308626720115
 30
0.0
 10
109.8661743116765
 20
88.41866469416743
 30
0.0
  0
SPLINE
  5
113
330
1F
100
AcDbEntity
  8
0
  6
HIDDEN
 62
     7
370
     0
100
AcDbSpline
210
0.0
220
0.0
230
1.0
 70
     8
 71
     3
 72
     8
 73
     4
 74
     0
 42
0.000000001
 43
0.00000001
 40
0.0
 40
0.0
 40
0.0
 40
0.0
 40
1.0
 40
1.0
 40
1.0
 40
1.0
 10
101.0661743149574
 20
91.04949082662213
 30
0.0
 10
101.0661743149593
 20
90.1655936843052
 30
0.0
 10
101.0526936890499
 20
89.45101043924323
 30
0.0
 10
101.0513423208606
 20
88.90468788053988
 30
0.0
  0
SPLINE
  5
114
330
1F
100
AcDbEntity
  8
0
  6
HIDDEN
 62
     7
370
     0
100
AcDbSpline
210
0.0
220
0.0
230
1.0
 70
     8
 71
     3
 72
    10
 73
     6
 74
     0
 42
0.000000001
 43
0.00000001
 40
0.0
 40
0.0
 40
0.0
 40
0.0
 40
0.5
 40
0.5
 40
1.0
 40
1.0
 40
1.0
 40
1.0
 10
100.7661743116765
 20
92.07440109227491
 30
0.0
 10
100.8575654273588
 20
91.89976230466563
 30
0.0
 10
100.9302172610843
 20
91.72616047741863
 30
0.0
 10
101.0377161540799
 20
91.38254705842904
 30
0.0
 10
101.0661743149518
 20
91.21422123190598
 30
0.0
 10
101.0661743149574
 20
91.04949082668162
 30
0.0
  0
LINE
  5
115
330
1F
100
AcDbEntity
  8
0
  6
HIDDEN
 62
     7
370
     0
100
AcDbLine
 10
100.7661743117
 20
95.1053515244
 30
0.0
 11
100.7661743117
 21
92.0744010923
 31
0.0
  0
SPLINE
  5
116
330
1F
100
AcDbEntity
  8
0
  6
HIDDEN
 62
     7
370
     0
100
AcDbSpline
210
0.0
220
0.0
230
1.0
 70
     8
 71
     3
 72
    10
 73
     6
 74
     0
 42
0.000000001
 43
0.00000001
 40
0.0
 40
0.0
 40
0.0
 40
0.0
 40
0.5
 40
0.5
 40
1.0
 40
1.0
 40
1.0
 40
1.0
 10
101.0661743147617
 20
96.47319194092873
 30
0.0
 10
101.0661743147617
 20
96.23120797335743
 30
0.0
 10
101.0380242857014
 20
95.99686554442533
 30
0.0
 10
100.9344343715961
 20
95.54149052220927
 30
0.0
 10
100.8578056620311
 20
95.31988595913158
 30
0.0
 10
100.7661743116765
 20
95.10535152435881
 30
0.0
  0
LINE
  5
117
330
1F
100
AcDbEntity
  8
0
  6
HIDDEN
 62
     7
370
     0
100
AcDbLine
 10
101.0661743148
 20
108.3108119381
 30
0.0
 11
101.0661743148
 21
96.4731919409
 31
0.0
  0
SPLINE
  5
118
330
1F
100
AcDbEntity
  8
0
  6
HIDDEN
 62
     7
370
     0
100
AcDbSpline
210
0.0
220
0.0
230
1.0
 70
     8
 71
     3
 72
     8
 73
     4
 74
     0
 42
0.000000001
 43
0.00000001
 40
0.0
 40
0.0
 40
0.0
 40
0.0
 40
1.0
 40
1.0
 40
1.0
 40
1.0
 10
100.7661743116765
 20
114.3131176374521
 30
0.0
 10
100.9472057781758
 20
113.8810101518418
 30
0.0
 10
101.0661743147675
 20
113.4268647458022
 30
0.0
 10
101.0661743147618
 20
112.9391646921835
 30
0.0
  0
LINE
  5
119
330
1F
100
AcDbEntity
  8
0
  6
HIDDEN
 62
     7
370
     0
100
AcDbLine
 10
100.7661743117
 20
117.3463206236
 30
0.0
 11
100.7661743117
 21
114.3131176375
 31
0.0
  0
SPLINE
  5
11A
330
1F
100
AcDbEntity
  8
0
  6
HIDDEN
 62
     7
370
     0
100
AcDbSpline
210
0.0
220
0.0
230
1.0
 70
     8
 71
     3
 72
    10
 73
     6
 74
     0
 42
0.000000001
 43
0.00000001
 40
0.0
 40
0.0
 40
0.0
 40
0.0
 40
0.5
 40
0.5
 40
1.0
 40
1.0
 40
1.0
 40
1.0
 10
101.0661743150689
 20
118.3628658064914
 30
0.0
 10
101.0661743150671
 20
118.1982294598856
 30
0.0
 10
101.0390156443119
 20
118.0310742360553
 30
0.0
 10
100.9332506489938
 20
117.6924512282541
 30
0.0
 10
100.8568358606967
 20
117.5201794509634
 30
0.0
 10
100.7661743116766
 20
117.3463206236196
 30
0.0
  0
SPLINE
  5
11B
330
1F
100
AcDbEntity
  8
0
  6
HIDDEN
 62
     7
370
     0
100
AcDbSpline
210
0.0
220
0.0
230
1.0
 70
     8
 71
     3
 72
    18
 73
    14
 74
     0
 42
0.000000001
 43
0.00000001
 40
0.0
 40
0.0
 40
0.0
 40
0.0
 40
0.2500000000000033
 40
0.2500000000000033
 40
0.3750000000000029
 40
0.3750000000000029
 40
0.5000000000000026
 40
0.5000000000000026
 40
0.6250000000000022
 40
0.6250000000000022
 40
0.7500000000000018
 40
0.7500000000000018
 40
1.0
 40
1.0
 40
1.0
 40
1.0
 10
105.8661743116765
 20
120.9936919389757
 30
0.0
 10
105.8661743116765
 20
120.9392174184235
 30
0.0
 10
105.8312636202844
 20
120.882836359071
 30
0.0
 10
105.7292543189513
 20
120.7987595182175
 30
0.0
 10
105.6876179642732
 20
120.7714258142266
 30
0.0
 10
105.5892121687844
 20
120.7184718986276
 30
0.0
 10
105.5316689570802
 20
120.6925845449105
 30
0.0
 10
105.4043707835072
 20
120.6448070000772
 30
0.0
 10
105.3347834787498
 20
120.6228590818993
 30
0.0
 10
105.1833492335948
 20
120.5834265169866
 30
0.0
 10
105.1006653305008
 20
120.5658702677607
 30
0.0
 10
104.8445538684628
 20
120.5234315023402
 30
0.0
 10
104.6566388645748
 20
120.5076687526032
 30
0.0
 10
104.4661743116765
 20
120.5076687526032
 30
0.0
  0
LINE
  5
11C
330
1F
100
AcDbEntity
  8
0
  6
HIDDEN
 62
     7
370
     0
100
AcDbLine
 10
104.4661743117
 20
120.5076687526
 30
0.0
 11
101.0661743151
 21
120.5076687526
 31
0.0
  0
LINE
  5
11D
330
1F
100
AcDbEntity
  8
0
  6
HIDDEN
 62
     7
370
     0
100
AcDbLine
 10
100.997205325
 20
88.9046878805
 30
0.0
 11
108.4661743117
 21
88.9046878805
 31
0.0
  0
SPLINE
  5
11E
330
1F
100
AcDbEntity
  8
0
  6
HIDDEN
 62
     7
370
     0
100
AcDbSpline
210
0.0
220
0.0
230
1.0
 70
     8
 71
     3
 72
    22
 73
    18
 74
     0
 42
0.000000001
 43
0.00000001
 40
0.0
 40
0.0
 40
0.0
 40
0.0
 40
0.125
 40
0.125
 40
0.25
 40
0.25
 40
0.5000000000000001
 40
0.5000000000000001
 40
0.5625000000000001
 40
0.5625000000000001
 40
0.6250000000000001
 40
0.6250000000000001
 40
0.75
 40
0.75
 40
0.875
 40
0.875
 40
1.0
 40
1.0
 40
1.0
 40
1.0
 10
100.9972053250344
 20
88.9046878805399
 30
0.0
 10
100.9841229323061
 20
89.15979359068757
 30
0.0
 10
100.9709033688662
 20
89.45295184979148
 30
0.0
 10
100.9484561910721
 20
90.11525231541629
 30
0.0
 10
100.9389777240477
 20
90.48552623602767
 30
0.0
 10
100.9197797631112
 20
91.70808303914146
 30
0.0
 10
100.920893536108
 20
92.64522196527332
 30
0.0
 10
100.9398043290611
 20
93.96509319478831
 30
0.0
 10
100.9444338569201
 20
94.23659510376461
 30
0.0
 10
100.954915076666
 20
94.79497993856693
 30
0.0
 10
100.9607103379505
 20
95.08210279450653
 30
0.0
 10
100.9790195588554
 20
95.95469204887821
 30
0.0
 10
100.9930544931358
 20
96.55514772523408
 30
0.0
 10
101.0225116652726
 20
97.79262221773014
 30
0.0
 10
101.0380673562542
 20
98.42963837437358
 30
0.0
 10
101.0618619062511
 20
99.74112697205815
 30
0.0
 10
101.0698809583964
 20
100.4172495837187
 30
0.0
 10
101.0661743116765
 20
101.1015446950035
 30
0.0
  0
LINE
  5
11F
330
1F
100
AcDbEntity
  8
0
  6
HIDDEN
 62
     7
370
     0
100
AcDbLine
 10
101.0661743151
 20
108.3108119381
 30
0.0
 11
101.0661743151
 21
120.5076687526
 31
0.0
  0
SPLINE
  5
120
330
1F
100
AcDbEntity
  8
0
  6
HIDDEN
 62
     7
370
     0
100
AcDbSpline
210
0.0
220
0.0
230
1.0
 70
     8
 71
     3
 72
    10
 73
     6
 74
     0
 42
0.000000001
 43
0.00000001
 40
0.0
 40
0.0
 40
0.0
 40
0.0
 40
0.5
 40
0.5
 40
1.0
 40
1.0
 40
1.0
 40
1.0
 10
101.0661743116765
 20
101.1015446949884
 30
0.0
 10
101.0661743116763
 20
101.3754598430625
 30
0.0
 10
101.0404150818075
 20
101.6464014217921
 30
0.0
 10
100.9372091490741
 20
102.1820925033942
 30
0.0
 10
100.8598709851997
 20
102.447839306916
 30
0.0
 10
100.7661743116765
 20
102.7094780143534
 30
0.0
  0
SPLINE
  5
121
330
1F
100
AcDbEntity
  8
0
  6
HIDDEN
 62
     7
370
     0
100
AcDbSpline
210
0.0
220
0.0
230
1.0
 70
     8
 71
     3
 72
    10
 73
     6
 74
     0
 42
0.000000001
 43
0.00000001
 40
0.0
 40
0.0
 40
0.0
 40
0.0
 40
0.5
 40
0.5
 40
1.0
 40
1.0
 40
1.0
 40
1.0
 10
100.7661743116765
 20
106.693306609938
 30
0.0
 10
100.8594048930673
 20
106.9572004180078
 30
0.0
 10
100.9344345053038
 20
107.2233807286458
 30
0.0
 10
101.0395016044817
 20
107.7617033036033
 30
0.0
 10
101.0661743150677
 20
108.0344514198486
 30
0.0
 10
101.0661743150689
 20
108.3108119381387
 30
0.0
  0
LINE
  5
122
330
1F
100
AcDbEntity
  8
0
  6
HIDDEN
 62
     7
370
     0
100
AcDbLine
 10
100.7661743117
 20
102.7094780144
 30
0.0
 11
100.7661743117
 21
106.6933066099
 31
0.0
  0
LINE
  5
123
330
1F
100
AcDbEntity
  8
0
  6
HIDDEN
 62
     7
370
     0
100
AcDbLine
 10
100.9161743117
 20
86.7161783166
 30
0.0
 11
100.9161743117
 21
83.8362405512
 31
0.0
  0
LINE
  5
124
330
1F
100
AcDbEntity
  8
0
  6
HIDDEN
 62
     7
370
     0
100
AcDbLine
 10
109.8661743117
 20
86.7161783166
 30
0.0
 11
109.8661743117
 21
82.7424407854
 31
0.0
  0
LINE
  5
125
330
1F
100
AcDbEntity
  8
0
  6
HIDDEN
 62
     7
370
     0
100
AcDbLine
 10
100.9161743117
 20
122.6961783166
 30
0.0
 11
100.9161743117
 21
125.576116082
 31
0.0
  0
LINE
  5
126
330
1F
100
AcDbEntity
  8
0
  6
HIDDEN
 62
     7
370
     0
100
AcDbLine
 10
105.8661743117
 20
122.6961783166
 30
0.0
 11
105.8661743117
 21
126.5502859889
 31
0.0
  0
LINE
  5
127
330
1F
100
AcDbEntity
  8
0
  6
HIDDEN
 62
     7
370
     0
100
AcDbLine
 10
201.1661743116
 20
127.6061783166
 30
0.0
 11
201.1627444188
 21
128.4167510271
 31
0.0
  0
SPLINE
  5
128
330
1F
100
AcDbEntity
  8
0
  6
HIDDEN
 62
     7
370
     0
100
AcDbSpline
210
0.0
220
0.0
230
1.0
 70
     8
 71
     3
 72
    14
 73
    10
 74
     0
 42
0.000000001
 43
0.00000001
 40
0.0
 40
0.0
 40
0.0
 40
0.0
 40
0.1039706554650246
 40
0.2673586664200723
 40
0.4257029386282282
 40
0.5886274742884728
 40
0.7471546824213707
 40
0.9102502352597173
 40
1.0
 40
1.0
 40
1.0
 40
1.0
 10
201.0934520972905
 20
130.1899396443511
 30
0.0
 10
201.0909283934005
 20
130.1903774456428
 30
0.0
 10
201.0844387343381
 20
130.191503243773
 30
0.0
 10
201.0848304079579
 20
130.0262367595839
 30
0.0
 10
201.099487430839
 20
129.7172846478258
 30
0.0
 10
201.1161649707504
 20
129.2732722351469
 30
0.0
 10
201.1498983403621
 20
128.704948702984
 30
0.0
 10
201.187029513662
 20
128.1355677159133
 30
0.0
 10
201.1756207034825
 20
127.7448626599818
 30
0.0
 10
201.1715710416602
 20
127.6061783165718
 30
0.0
  0
SPLINE
  5
129
330
1F
100
AcDbEntity
  8
0
  6
HIDDEN
 62
     7
370
     0
100
AcDbSpline
210
0.0
220
0.0
230
1.0
 70
     8
 71
     3
 72
    14
 73
    10
 74
     0
 42
0.000000001
 43
0.00000001
 40
0.0
 40
0.0
 40
0.0
 40
0.0
 40
0.25
 40
0.25
 40
0.5
 40
0.5
 40
0.75
 40
0.75
 40
1.0
 40
1.0
 40
1.0
 40
1.0
 10
201.1715710416599
 20
127.6061783165716
 30
0.0
 10
201.1437531009404
 20
127.0343955223633
 30
0.0
 10
201.1608525442546
 20
126.4624205738745
 30
0.0
 10
201.1735486259035
 20
125.3185043294554
 30
0.0
 10
201.1724451778556
 20
124.74650587592
 30
0.0
 10
201.1676977493702
 20
123.6025338272763
 30
0.0
 10
201.1649449208606
 20
123.0305483921865
 30
0.0
 10
201.1647859406502
 20
121.8865720223674
 30
0.0
 10
201.1659330996606
 20
121.314583247633
 30
0.0
 10
201.1661347316621
 20
120.742594431183
 30
0.0
  0
SPLINE
  5
12A
330
1F
100
AcDbEntity
  8
0
  6
HIDDEN
 62
     7
370
     0
100
AcDbSpline
210
0.0
220
0.0
230
1.0
 70
     8
 71
     3
 72
    14
 73
    10
 74
     0
 42
0.000000001
 43
0.00000001
 40
0.0
 40
0.0
 40
0.0
 40
0.0
 40
0.25
 40
0.25
 40
0.5
 40
0.5
 40
0.75
 40
0.75
 40
1.0
 40
1.0
 40
1.0
 40
1.0
 10
201.171560067643
 20
81.80617831657155
 30
0.0
 10
201.1438014439051
 20
82.37788609376095
 30
0.0
 10
201.1608096908452
 20
82.94987988763475
 30
0.0
 10
201.1736059583612
 20
84.09380148715009
 30
0.0
 10
201.1723944938922
 20
84.66581379195804
 30
0.0
 10
201.1676087022946
 20
85.80979691274625
 30
0.0
 10
201.1650122583242
 20
86.38178815145965
 30
0.0
 10
201.1647345779441
 20
87.52577944288517
 30
0.0
 10
201.1658756010121
 20
88.09777566164614
 30
0.0
 10
201.1661245053717
 20
88.66977180436001
 30
0.0
  0
SPLINE
  5
12B
330
1F
100
AcDbEntity
  8
0
  6
HIDDEN
 62
     7
370
     0
100
AcDbSpline
210
0.0
220
0.0
230
1.0
 70
     8
 71
     3
 72
     9
 73
     5
 74
     0
 42
0.000000001
 43
0.00000001
 40
0.0
 40
0.0
 40
0.0
 40
0.0
 40
0.934993152039599
 40
1.0
 40
1.0
 40
1.0
 40
1.0
 10
201.1661743115628
 20
81.80617831657155
 30
0.0
 10
201.1665709640356
 20
81.5553326877125
 30
0.0
 10
201.1669951943863
 20
81.28704662774312
 30
0.0
 10
201.1649749486865
 20
81.06831940342008
 30
0.0
 10
201.1648436188815
 20
81.0541006360037
 30
0.0
  0
SPLINE
  5
12C
330
1F
100
AcDbEntity
  8
0
  6
HIDDEN
 62
     7
370
     0
100
AcDbSpline
210
0.0
220
0.0
230
1.0
 70
     8
 71
     3
 72
    14
 73
    10
 74
     0
 42
0.000000001
 43
0.00000001
 40
0.0
 40
0.0
 40
0.0
 40
0.0
 40
0.1133565651202259
 40
0.2788681641818096
 40
0.4392491959455343
 40
0.6042651017111987
 40
0.7648716028542876
 40
0.9301055077567344
 40
0.9999999999999999
 40
0.9999999999999999
 40
0.9999999999999999
 40
0.9999999999999999
 10
201.0925168646459
 20
79.22158834455573
 30
0.0
 10
201.0900385692395
 20
79.22530986111317
 30
0.0
 10
201.0839417217428
 20
79.23446515343568
 30
0.0
 10
201.0857737643904
 20
79.41827960260231
 30
0.0
 10
201.1020385267291
 20
79.74545052424558
 30
0.0
 10
201.1185296478473
 20
80.20563775571709
 30
0.0
 10
201.1565281102817
 20
80.78818778642865
 30
0.0
 10
201.1871486754544
 20
81.33937971702818
 30
0.0
 10
201.1751321203172
 20
81.69921371742193
 30
0.0
 10
201.171560067643
 20
81.80617831657153
 30
0.0
  0
LINE
  5
12D
330
1F
100
AcDbEntity
  8
0
  6
HIDDEN
 62
     7
370
     0
100
AcDbLine
 10
150.4661743117
 20
95.2061783166
 30
0.0
 11
150.4661743117
 21
114.2061783166
 31
0.0
  0
LINE
  5
12E
330
1F
100
AcDbEntity
  8
0
  6
HIDDEN
 62
     7
370
     0
100
AcDbLine
 10
153.4661743117
 20
95.2061783166
 30
0.0
 11
153.4661743117
 21
114.2061783166
 31
0.0
  0
LINE
  5
12F
330
1F
100
AcDbEntity
  8
0
  6
HIDDEN
 62
     7
370
     0
100
AcDbLine
 10
142.1161743117
 20
96.2061783166
 30
0.0
 11
142.1161743117
 21
113.2061783166
 31
0.0
  0
LINE
  5
130
330
1F
100
AcDbEntity
  8
0
  6
HIDDEN
 62
     7
370
     0
100
AcDbLine
 10
136.6161743117
 20
73.2220553337
 30
0.0
 11
136.6161743117
 21
78.3061783166
 31
0.0
  0
LINE
  5
131
330
1F
100
AcDbEntity
  8
0
  6
HIDDEN
 62
     7
370
     0
100
AcDbLine
 10
144.6161743117
 20
78.3061783166
 30
0.0
 11
136.6161743117
 21
78.3061783166
 31
0.0
  0
LINE
  5
132
330
1F
100
AcDbEntity
  8
0
  6
HIDDEN
 62
     7
370
     0
100
AcDbLine
 10
147.853849114
 20
78.3061783166
 30
0.0
 11
144.6161743117
 21
78.3061783166
 31
0.0
  0
LINE
  5
133
330
1F
100
AcDbEntity
  8
0
  6
HIDDEN
 62
     7
370
     0
100
AcDbLine
 10
157.6161743117
 20
78.3061783166
 30
0.0
 11
151.4784995093
 21
78.3061783166
 31
0.0
  0
LINE
  5
134
330
1F
100
AcDbEntity
  8
0
  6
HIDDEN
 62
     7
370
     0
100
AcDbLine
 10
185.0661743116
 20
81.8061783166
 30
0.0
 11
185.0661743116
 21
88.8897334202
 31
0.0
  0
LINE
  5
135
330
1F
100
AcDbEntity
  8
0
  6
HIDDEN
 62
     7
370
     0
100
AcDbLine
 10
185.0661743116
 20
127.6061783166
 30
0.0
 11
185.0661743116
 21
120.5226232129
 31
0.0
  0
LINE
  5
136
330
1F
100
AcDbEntity
  8
0
  6
HIDDEN
 62
     7
370
     0
100
AcDbLine
 10
144.6161743117
 20
131.1061783166
 30
0.0
 11
136.6161743117
 21
131.1061783166
 31
0.0
  0
LINE
  5
137
330
1F
100
AcDbEntity
  8
0
  6
HIDDEN
 62
     7
370
     0
100
AcDbLine
 10
157.6161743117
 20
131.1061783166
 30
0.0
 11
151.18187678
 21
131.1061783166
 31
0.0
  0
LINE
  5
138
330
1F
100
AcDbEntity
  8
0
  6
HIDDEN
 62
     7
370
     0
100
AcDbLine
 10
148.1504718434
 20
131.1061783166
 30
0.0
 11
144.6161743117
 21
131.1061783166
 31
0.0
  0
SPLINE
  5
139
330
1F
100
AcDbEntity
  8
0
  6
HIDDEN
 62
     7
370
     0
100
AcDbSpline
210
0.0
220
0.0
230
1.0
 70
     8
 71
     3
 72
    11
 73
     7
 74
     0
 42
0.000000001
 43
0.00000001
 40
0.0
 40
0.0
 40
0.0
 40
0.0
 40
0.0008203708524183
 40
0.0008203708524183
 40
0.0008203708524183
 40
0.0016409967870154
 40
0.0016409967870154
 40
0.0016409967870154
 40
0.0016409967870154
 10
100.9161743116765
 20
88.85414556592883
 30
0.0
 10
100.7250160113779
 20
88.81296653730969
 30
0.0
 10
100.5335889413057
 20
88.7742125650797
 30
0.0
 10
100.3419433177851
 20
88.73784480580116
 30
0.0
 10
100.1502379127046
 20
88.70146570203514
 30
0.0
 10
99.95829896064564
 20
88.66747145126756
 30
0.0
 10
99.76617431357482
 20
88.63582332587636
 30
0.0
  0
ELLIPSE
  5
13A
330
1F
100
AcDbEntity
  8
0
  6
HIDDEN
 62
     7
370
     0
100
AcDbEllipse
 10
95.5237424431
 20
104.7061783166
 30
0.0
 11
20.19992453367504
 21
-1.421085471520200E-14
 31
0.0
210
0.0
220
0.0
230
1.0
 40
0.8164965809
 41
1.300566354717479
 42
1.359198697209065
  0
LINE
  5
13B
330
1F
100
AcDbEntity
  8
0
  6
HIDDEN
 62
     7
370
     0
100
AcDbLine
 10
100.9161743117
 20
86.7161783166
 30
0.0
 11
100.9161743117
 21
88.8541455659
 31
0.0
  0
LINE
  5
13C
330
1F
100
AcDbEntity
  8
0
  6
HIDDEN
 62
     7
370
     0
100
AcDbLine
 10
100.997205325
 20
88.9046878805
 30
0.0
 11
100.9161743117
 21
88.8541455659
 31
0.0
  0
LINE
  5
13D
330
1F
100
AcDbEntity
  8
0
  6
HIDDEN
 62
     7
370
     0
100
AcDbLine
 10
109.8661743117
 20
86.7161783166
 30
0.0
 11
109.8661743117
 21
88.4186646942
 31
0.0
  0
LINE
  5
13E
330
1F
100
AcDbEntity
  8
0
  6
HIDDEN
 62
     7
370
     0
100
AcDbLine
 10
105.8661743117
 20
122.6961783166
 30
0.0
 11
105.8661743117
 21
120.993691939
 31
0.0
  0
LINE
  5
13F
330
1F
100
AcDbEntity
  8
0
  6
HIDDEN
 62
     7
370
     0
100
AcDbLine
 10
100.9161743117
 20
122.6961783166
 30
0.0
 11
100.9161743117
 21
120.6008027676
 31
0.0
  0
SPLINE
  5
140
330
1F
100
AcDbEntity
  8
0
  6
HIDDEN
 62
     7
370
     0
100
AcDbSpline
210
0.0
220
0.0
230
1.0
 70
     8
 71
     3
 72
     8
 73
     4
 74
     0
 42
0.000000001
 43
0.00000001
 40
0.0
 40
0.0
 40
0.0
 40
0.0
 40
1.0
 40
1.0
 40
1.0
 40
1.0
 10
100.9161743116765
 20
120.6008027676297
 30
0.0
 10
100.96617981062
 20
120.5697669934108
 30
0.0
 10
101.0161798812841
 20
120.5387223483834
 30
0.0
 10
101.0661743150689
 20
120.5076687526032
 30
0.0
  0
LINE
  5
141
330
1F
100
AcDbEntity
  8
0
  6
HIDDEN
 62
     7
370
     0
100
AcDbLine
 10
185.0661743116
 20
130.2061783166
 30
0.0
 11
185.0661743116
 21
127.6061783166
 31
0.0
  0
LINE
  5
142
330
1F
100
AcDbEntity
  8
0
  6
HIDDEN
 62
     7
370
     0
100
AcDbLine
 10
185.0661743116
 20
79.2061783166
 30
0.0
 11
185.0661743116
 21
81.8061783166
 31
0.0
  0
LWPOLYLINE
  5
143
330
1F
100
AcDbEntity
  8
0
  6
HIDDEN
 62
     7
370
     0
100
AcDbPolyline
 90
       17
 70
   128
 43
0.0
 10
126.4147464279
 20
81.1062562016
 10
126.1861480729
 20
81.1672934419
 10
125.849036536
 20
81.2449770917
 10
125.3303454121
 20
81.3539783164
 10
124.5885690043
 20
81.4840833503
 10
123.8583596897
 20
81.5846621611
 10
122.6869395352
 20
81.6972411132
 10
121.3653595522
 20
81.723324289
 10
120.676816645
 20
81.7021596425
 10
120.0266902922
 20
81.6581908396
 10
119.4460442844
 20
81.6012151878
 10
119.1100669905
 20
81.5604520793
 10
118.9161941224
 20
81.5275634919
 10
119.1051933953
 20
81.559612942
 10
119.4371810116
 20
81.6000289461
 10
120.0100315427
 20
81.656705803
 10
120.0100315427
 20
81.656705803
  0
SPLINE
  5
144
330
1F
100
AcDbEntity
  8
0
  6
HIDDEN
 62
     7
370
     0
100
AcDbSpline
210
0.0
220
0.0
230
1.0
 70
     8
 71
     3
 72
    27
 73
    23
 74
     0
 42
0.000000001
 43
0.00000001
 40
0.0
 40
0.0
 40
0.0
 40
0.0
 40
0.0008168554425856
 40
0.0456994514472282
 40
0.1022812235317929
 40
0.1705594420803583
 40
0.2091511867313833
 40
0.250678503774353
 40
0.32112441362762
 40
0.3862182704702433
 40
0.4266974964077342
 40
0.4648288210092902
 40
0.50063320509678
 40
0.5452250534434628
 40
0.6017194159210931
 40
0.6701255193405121
 40
0.708862922255402
 40
0.7505917462032757
 40
0.8222564664887455
 40
0.8877960146162002
 40
0.9472698817337128
 40
1.0
 40
1.0
 40
1.0
 40
1.0
 10
118.9168494908845
 20
127.8845910167462
 30
0.0
 10
118.9166248348746
 20
127.8846394455857
 30
0.0
 10
118.904056324116
 20
127.887348825099
 30
0.0
 10
118.953130546099
 20
127.8755173184506
 30
0.0
 10
119.0982382482417
 20
127.8520723720724
 30
0.0
 10
119.3712894186516
 20
127.8181684553488
 30
0.0
 10
119.6998160591825
 20
127.7845996207062
 30
0.0
 10
120.0925437800055
 20
127.7464162922866
 30
0.0
 10
120.6422717731061
 20
127.707447615269
 30
0.0
 10
121.2682944129385
 20
127.6879865118995
 30
0.0
 10
121.8114859239122
 20
127.6858008337335
 30
0.0
 10
122.2565548203593
 20
127.6943157148109
 30
0.0
 10
122.7230026173731
 20
127.7140991116163
 30
0.0
 10
123.2602432671073
 20
127.7582614969424
 30
0.0
 10
123.908456699753
 20
127.8306771171423
 30
0.0
 10
124.4939953254145
 20
127.9115792091138
 30
0.0
 10
124.9749649500032
 20
127.9897452001746
 30
0.0
 10
125.4203798026045
 20
128.0745173276953
 30
0.0
 10
125.8588798068791
 20
128.1683004433789
 30
0.0
 10
126.1979040321391
 20
128.2462039431659
 30
0.0
 10
126.3852376746888
 20
128.2963935868369
 30
0.0
 10
126.4057270693135
 20
128.3030597997029
 30
0.0
 10
126.4153560339004
 20
128.3061925778446
 30
0.0
  0
SPLINE
  5
145
330
1F
100
AcDbEntity
  8
0
  6
HIDDEN
 62
     7
370
     0
100
AcDbSpline
210
0.0
220
0.0
230
1.0
 70
     8
 71
     3
 72
     8
 73
     4
 74
     0
 42
0.000000001
 43
0.00000001
 40
0.0
 40
0.0
 40
0.0
 40
0.0
 40
0.0001590976953043
 40
0.0001590976953043
 40
0.0001590976953043
 40
0.0001590976953043
 10
101.0513423208606
 20
88.9046878805399
 30
0.0
 10
101.0062908503676
 20
88.8767089962224
 30
0.0
 10
100.9612348119641
 20
88.84873746585362
 30
0.0
 10
100.9161743116765
 20
88.82077312650738
 30
0.0
  0
SPLINE
  5
146
330
1F
100
AcDbEntity
  8
0
  6
HIDDEN
 62
     7
370
     0
100
AcDbSpline
210
0.0
220
0.0
230
1.0
 70
     8
 71
     3
 72
    11
 73
     7
 74
     0
 42
0.000000001
 43
0.00000001
 40
0.0
 40
0.0
 40
0.0
 40
0.0
 40
0.000821290931147
 40
0.000821290931147
 40
0.000821290931147
 40
0.0016428257243086
 40
0.0016428257243086
 40
0.0016428257243086
 40
0.0016428257243086
 10
100.9161743116765
 20
88.82077312650738
 30
0.0
 10
100.7250292901944
 20
88.77748693765176
 30
0.0
 10
100.5336109545179
 20
88.7365504280114
 30
0.0
 10
100.3419648798568
 20
88.69794865662168
 30
0.0
 10
100.1502617983152
 20
88.65933540278144
 30
0.0
 10
99.95831667502962
 20
88.62305519349223
 30
0.0
 10
99.76617431167642
 20
88.58908828713749
 30
0.0
  0
LINE
  5
147
330
1F
100
AcDbEntity
  8
0
  6
HIDDEN
 62
     7
370
     0
100
AcDbLine
 10
147.7561743117
 20
124.842044948
 30
0.0
 11
147.7561743117
 21
124.5561783166
 31
0.0
  0
LINE
  5
148
330
1F
100
AcDbEntity
  8
0
  6
HIDDEN
 62
     7
370
     0
100
AcDbLine
 10
151.5761743117
 20
124.842044948
 30
0.0
 11
151.5761743117
 21
124.5561783166
 31
0.0
  0
LINE
  5
149
330
1F
100
AcDbEntity
  8
0
  6
HIDDEN
 62
     7
370
     0
100
AcDbLine
 10
153.0581071432
 20
129.1648679789
 30
0.0
 11
153.0581071432
 21
124.5561783166
 31
0.0
  0
SPLINE
  5
14A
330
1F
100
AcDbEntity
  8
0
  6
HIDDEN
 62
     7
370
     0
100
AcDbSpline
210
0.0
220
0.0
230
1.0
 70
     8
 71
     3
 72
    24
 73
    20
 74
     0
 42
0.000000001
 43
0.00000001
 40
0.0
 40
0.0
 40
0.0
 40
0.0
 40
0.249999999999999
 40
0.249999999999999
 40
0.3749999999999983
 40
0.3749999999999983
 40
0.4374999999999987
 40
0.4374999999999987
 40
0.4687499999999975
 40
0.4687499999999975
 40
0.4999999999999963
 40
0.4999999999999963
 40
0.5624999999999984
 40
0.5624999999999984
 40
0.6250000000000006
 40
0.6250000000000006
 40
0.7500000000000001
 40
0.7500000000000001
 40
1.0
 40
1.0
 40
1.0
 40
1.0
 10
99.82883768639994
 20
85.03162577179083
 30
0.0
 10
99.84259080507016
 20
85.1022758297811
 30
0.0
 10
99.86036337247603
 20
85.16887394254601
 30
0.0
 10
99.91261446403138
 20
85.24297196277924
 30
0.0
 10
99.93364953961296
 20
85.26422976994078
 30
0.0
 10
99.98654994724137
 20
85.27237569608704
 30
0.0
 10
100.0076556201193
 20
85.27143589269124
 30
0.0
 10
100.0537077887973
 20
85.2504199011139
 30
0.0
 10
100.0720782607807
 20
85.23951109500629
 30
0.0
 10
100.1136298958464
 20
85.20687618405893
 30
0.0
 10
100.1361965686033
 20
85.18538420368755
 30
0.0
 10
100.1989775850633
 20
85.11691826010123
 30
0.0
 10
100.2321073460312
 20
85.07084380189615
 30
0.0
 10
100.2890250325162
 20
84.98583591356147
 30
0.0
 10
100.31321105802
 20
84.94555561238009
 30
0.0
 10
100.3784190083997
 20
84.83061938591416
 30
0.0
 10
100.413135068591
 20
84.76003640076713
 30
0.0
 10
100.5063503389219
 20
84.55583064168854
 30
0.0
 10
100.5520228742825
 20
84.43293225936118
 30
0.0
 10
100.5903279577811
 20
84.31605898297362
 30
0.0
  0
SPLINE
  5
14B
330
1F
100
AcDbEntity
  8
0
  6
HIDDEN
 62
     7
370
     0
100
AcDbSpline
210
0.0
220
0.0
230
1.0
 70
     8
 71
     3
 72
    11
 73
     7
 74
     0
 42
0.000000001
 43
0.00000001
 40
0.0000000000000004
 40
0.0000000000000004
 40
0.0000000000000004
 40
0.0000000000000004
 40
0.0005781862223981
 40
0.0005781862223981
 40
0.0005781862223981
 40
0.0011563724723932
 40
0.0011563724723932
 40
0.0011563724723932
 40
0.0011563724723932
 10
100.7661743116768
 20
117.3463206236244
 30
0.0
 10
100.5995137574011
 20
117.4108501350378
 30
0.0
 10
100.4328504604946
 20
117.4753528388764
 30
0.0
 10
100.2661838766643
 20
117.5398392873099
 30
0.0
 10
100.0995172844052
 20
117.6043257390046
 30
0.0
 10
99.93284741877928
 20
117.6687957477325
 30
0.0
 10
99.76617431167651
 20
117.7332515144649
 30
0.0
  0
SPLINE
  5
14C
330
1F
100
AcDbEntity
  8
0
  6
HIDDEN
 62
     7
370
     0
100
AcDbSpline
210
0.0
220
0.0
230
1.0
 70
     8
 71
     3
 72
    11
 73
     7
 74
     0
 42
0.000000001
 43
0.00000001
 40
0.0000000000000001
 40
0.0000000000000001
 40
0.0000000000000001
 40
0.0000000000000001
 40
0.0005778746105124
 40
0.0005778746105124
 40
0.0005778746105124
 40
0.0011557494857259
 40
0.0011557494857259
 40
0.0011557494857259
 40
0.0011557494857259
 10
99.7661743116765
 20
91.67895646108168
 30
0.0
 10
99.93284118808981
 20
91.74476858776676
 30
0.0
 10
100.0995079076513
 20
91.81062706789575
 30
0.0
 10
100.2661745556999
 20
91.87653464081794
 30
0.0
 10
100.4328412802186
 20
91.94244224397987
 30
0.0
 10
100.5995079746392
 20
92.00839935236016
 30
0.0
 10
100.7661743116765
 20
92.07440109227491
 30
0.0
  0
SPLINE
  5
14D
330
1F
100
AcDbEntity
  8
0
  6
HIDDEN
 62
     7
370
     0
100
AcDbSpline
210
0.0
220
0.0
230
1.0
 70
     8
 71
     3
 72
    11
 73
     7
 74
     0
 42
0.000000001
 43
0.00000001
 40
0.0000000000000006
 40
0.0000000000000006
 40
0.0000000000000006
 40
0.0000000000000006
 40
0.0005780486062825
 40
0.0005780486062825
 40
0.0005780486062825
 40
0.0011560973514241
 40
0.0011560973514241
 40
0.0011560973514241
 40
0.0011560973514241
 10
99.76617431167651
 20
114.6869928182633
 30
0.0
 10
99.93284416772138
 20
114.6246209567164
 30
0.0
 10
100.0995118718056
 20
114.5622670963868
 30
0.0
 10
100.2661781762593
 20
114.4999475361695
 30
0.0
 10
100.432844516953
 20
114.4376279624013
 30
0.0
 10
100.5995094735818
 20
114.375342758051
 30
0.0
 10
100.7661743116765
 20
114.3131176374521
 30
0.0
  0
SPLINE
  5
14E
330
1F
100
AcDbEntity
  8
0
  6
HIDDEN
 62
     7
370
     0
100
AcDbSpline
210
0.0
220
0.0
230
1.0
 70
     8
 71
     3
 72
    11
 73
     7
 74
     0
 42
0.000000001
 43
0.00000001
 40
0.0
 40
0.0
 40
0.0
 40
0.0
 40
0.0005782401583596
 40
0.0005782401583596
 40
0.0005782401583596
 40
0.0011564805961119
 40
0.0011564805961119
 40
0.0011564805961119
 40
0.0011564805961119
 10
100.7661743116765
 20
95.10535152435881
 30
0.0
 10
100.5995233613276
 20
95.04192606626887
 30
0.0
 10
100.4328637687449
 20
94.9785705425837
 30
0.0
 10
100.2661967163164
 20
94.91527295820292
 30
0.0
 10
100.0995295797526
 20
94.85197534186885
 30
0.0
 10
99.9328549723065
 20
94.78873554689649
 30
0.0
 10
99.76617431167647
 20
94.72553554022502
 30
0.0
  0
CIRCLE
  5
14F
330
1F
100
AcDbEntity
  8
0
  6
HIDDEN
 62
     7
370
     0
100
AcDbCircle
 10
138.6661743117
 20
104.7061783166
 30
0.0
 40
5.0
  0
ARC
  5
150
330
1F
100
AcDbEntity
  8
0
  6
HIDDEN
 62
     7
370
     0
100
AcDbCircle
 10
162.1661743117
 20
122.2061783166
 30
0.0
 40
1.0
100
AcDbArc
 50
0.0
 51
180.0
  0
ARC
  5
151
330
1F
100
AcDbEntity
  8
0
  6
HIDDEN
 62
     7
370
     0
100
AcDbCircle
 10
162.1661743117
 20
122.2061783166
 30
0.0
 40
1.0
100
AcDbArc
 50
180.0
 51
0.0
  0
ARC
  5
152
330
1F
100
AcDbEntity
  8
0
  6
HIDDEN
 62
     7
370
     0
100
AcDbCircle
 10
162.1661743117
 20
87.2061783166
 30
0.0
 40
1.0
100
AcDbArc
 50
180.0
 51
0.0
  0
ARC
  5
153
330
1F
100
AcDbEntity
  8
0
  6
HIDDEN
 62
     7
370
     0
100
AcDbCircle
 10
162.1661743117
 20
87.2061783166
 30
0.0
 40
1.0
100
AcDbArc
 50
0.0
 51
180.0
  0
LINE
  5
154
330
1F
100
AcDbEntity
  8
0
  6
HIDDEN
 62
     7
370
     0
100
AcDbLine
 10
161.1661743117
 20
122.2061783166
 30
0.0
 11
161.1661743117
 21
87.2061783166
 31
0.0
  0
LINE
  5
155
330
1F
100
AcDbEntity
  8
0
  6
HIDDEN
 62
     7
370
     0
100
AcDbLine
 10
163.1661743117
 20
87.2061783166
 30
0.0
 11
163.1661743117
 21
122.2061783166
 31
0.0
  0
LINE
  5
156
330
1F
100
AcDbEntity
  8
0
  6
HIDDEN
 62
     7
370
     0
100
AcDbLine
 10
131.6661743117
 20
79.3822471706
 30
0.0
 11
131.7603350872
 21
80.0522359018
 31
0.0
  0
LINE
  5
157
330
1F
100
AcDbEntity
  8
0
  6
HIDDEN
 62
     7
370
     0
100
AcDbLine
 10
131.7603350872
 20
129.3601207313
 30
0.0
 11
131.6661743117
 21
130.0301094626
 31
0.0
  0
ARC
  5
158
330
1F
100
AcDbEntity
  8
0
  6
HIDDEN
 62
     7
370
     0
100
AcDbCircle
 10
131.166167559
 20
80.1357407022
 30
0.0
 40
0.6000067526677242
100
AcDbArc
 50
352.0
 51
0.0
  0
ARC
  5
159
330
1F
100
AcDbEntity
  8
0
  6
HIDDEN
 62
     7
370
     0
100
AcDbCircle
 10
131.166167559
 20
80.1357407022
 30
0.0
 40
0.6000067526677282
100
AcDbArc
 50
0.0
 51
33.5571153394
  0
ARC
  5
15A
330
1F
100
AcDbEntity
  8
0
  6
HIDDEN
 62
     7
370
     0
100
AcDbCircle
 10
131.166167559
 20
129.276615931
 30
0.0
 40
0.6000067526677081
100
AcDbArc
 50
348.75
 51
8.0
  0
LWPOLYLINE
  5
15B
330
1F
100
AcDbEntity
  8
0
  6
HIDDEN
 62
     7
370
     0
100
AcDbPolyline
 90
        3
 70
   128
 43
0.0
 10
131.7546453502
 20
129.1595604204
 10
131.7205015172
 20
129.0470032874
 10
131.6661743117
 20
128.9449514159
  0
LINE
  5
15C
330
1F
100
AcDbEntity
  8
0
  6
HIDDEN
 62
     7
370
     0
100
AcDbLine
 10
131.7661743117
 20
80.1357407022
 30
0.0
 11
131.7661743117
 21
129.276615931
 31
0.0
  0
LINE
  5
15D
330
1F
100
AcDbEntity
  8
0
  6
HIDDEN
 62
     7
370
     0
100
AcDbLine
 10
114.748609877
 20
84.7061783166
 30
0.0
 11
118.9402817652
 21
84.7061783166
 31
0.0
  0
LINE
  5
15E
330
1F
100
AcDbEntity
  8
0
  6
HIDDEN
 62
     7
370
     0
100
AcDbLine
 10
118.9402817652
 20
124.7061783166
 30
0.0
 11
114.748609877
 21
124.7061783166
 31
0.0
  0
ARC
  5
15F
330
1F
100
AcDbEntity
  8
0
  6
HIDDEN
 62
     7
370
     0
100
AcDbCircle
 10
114.748609877
 20
85.3061783166
 30
0.0
 40
0.6000000000000085
100
AcDbArc
 50
210.0
 51
270.0
  0
ARC
  5
160
330
1F
100
AcDbEntity
  8
0
  6
HIDDEN
 62
     7
370
     0
100
AcDbCircle
 10
114.748609877
 20
124.1061783166
 30
0.0
 40
0.6000000000000085
100
AcDbArc
 50
90.0
 51
150.0
  0
ARC
  5
161
330
1F
100
AcDbEntity
  8
0
  6
HIDDEN
 62
     7
370
     0
100
AcDbCircle
 10
125.4211763133
 20
92.7061783166
 30
0.0
 40
8.000000000000016
100
AcDbArc
 50
276.8775888276
 51
321.3178125465
  0
ARC
  5
162
330
1F
100
AcDbEntity
  8
0
  6
HIDDEN
 62
     7
370
     0
100
AcDbCircle
 10
125.4211763133
 20
116.7061783166
 30
0.0
 40
8.000000000000007
100
AcDbArc
 50
38.6821874535
 51
83.1227497923
  0
LINE
  5
163
330
1F
100
AcDbEntity
  8
0
  6
HIDDEN
 62
     7
370
     0
100
AcDbLine
 10
114.2289946347
 20
124.4061783166
 30
0.0
 11
112.6701489079
 21
121.7061783166
 31
0.0
  0
LINE
  5
164
330
1F
100
AcDbEntity
  8
0
  6
HIDDEN
 62
     7
370
     0
100
AcDbLine
 10
112.6701489079
 20
87.7061783166
 30
0.0
 11
114.2289946347
 21
85.0061783166
 31
0.0
  0
LINE
  5
165
330
1F
100
AcDbEntity
  8
0
  6
HIDDEN
 62
     7
370
     0
100
AcDbLine
 10
164.0345218141
 20
123.2061783166
 30
0.0
 11
162.1661743117
 21
123.2061783166
 31
0.0
  0
LINE
  5
166
330
1F
100
AcDbEntity
  8
0
  6
HIDDEN
 62
     7
370
     0
100
AcDbLine
 10
162.1661743117
 20
86.2061783166
 30
0.0
 11
164.0345218141
 21
86.2061783166
 31
0.0
  0
ARC
  5
167
330
1F
100
AcDbEntity
  8
0
  6
HIDDEN
 62
     7
370
     0
100
AcDbCircle
 10
162.1661743117
 20
122.2061783166
 30
0.0
 40
1.0
100
AcDbArc
 50
90.0
 51
180.0
  0
ARC
  5
168
330
1F
100
AcDbEntity
  8
0
  6
HIDDEN
 62
     7
370
     0
100
AcDbCircle
 10
162.1661743117
 20
87.2061783166
 30
0.0
 40
1.0
100
AcDbArc
 50
180.0
 51
270.0
  0
ARC
  5
169
330
1F
100
AcDbEntity
  8
0
  6
HIDDEN
 62
     7
370
     0
100
AcDbCircle
 10
164.0345218141
 20
122.2061783166
 30
0.0
 40
1.000000000000002
100
AcDbArc
 50
75.0
 51
90.0
  0
ARC
  5
16A
330
1F
100
AcDbEntity
  8
0
  6
HIDDEN
 62
     7
370
     0
100
AcDbCircle
 10
164.0345218141
 20
87.2061783166
 30
0.0
 40
0.9999999999999883
100
AcDbArc
 50
270.0
 51
285.0
  0
LINE
  5
16B
330
1F
100
AcDbEntity
  8
0
  6
HIDDEN
 62
     7
370
     0
100
AcDbLine
 10
164.2933408592
 20
86.2402524903
 30
0.0
 11
166.0321997155
 21
86.7061783166
 31
0.0
  0
LINE
  5
16C
330
1F
100
AcDbEntity
  8
0
  6
HIDDEN
 62
     7
370
     0
100
AcDbLine
 10
166.0321997155
 20
122.7061783166
 30
0.0
 11
164.2933408592
 21
123.1721041429
 31
0.0
  0
LINE
  5
16D
330
1F
100
AcDbEntity
  8
0
  6
HIDDEN
 62
     7
370
     0
100
AcDbLine
 10
185.0661743116
 20
122.7061783166
 30
0.0
 11
166.0321997155
 21
122.7061783166
 31
0.0
  0
LINE
  5
16E
330
1F
100
AcDbEntity
  8
0
  6
HIDDEN
 62
     7
370
     0
100
AcDbLine
 10
166.0321997155
 20
86.7061783166
 30
0.0
 11
185.0661743116
 21
86.7061783166
 31
0.0
  0
ARC
  5
16F
330
1F
100
AcDbEntity
  8
0
  6
HIDDEN
 62
     7
370
     0
100
AcDbCircle
 10
140.1161743117
 20
88.9811783166
 30
0.0
 40
1.500000000000001
100
AcDbArc
 50
238.2116693829
 51
0.0
  0
ARC
  5
170
330
1F
100
AcDbEntity
  8
0
  6
HIDDEN
 62
     7
370
     0
100
AcDbCircle
 10
140.1161743117
 20
120.4311783166
 30
0.0
 40
1.5
100
AcDbArc
 50
0.0
 51
121.7883306171
  0
LINE
  5
171
330
1F
100
AcDbEntity
  8
0
  6
HIDDEN
 62
     7
370
     0
100
AcDbLine
 10
109.8661743117
 20
87.7061783166
 30
0.0
 11
112.6701489079
 21
87.7061783166
 31
0.0
  0
LINE
  5
172
330
1F
100
AcDbEntity
  8
0
  6
HIDDEN
 62
     7
370
     0
100
AcDbLine
 10
112.6701489079
 20
121.7061783166
 30
0.0
 11
105.8661743117
 21
121.7061783166
 31
0.0
  0
LINE
  5
173
330
1F
100
AcDbEntity
  8
0
  6
HIDDEN
 62
     7
370
     0
100
AcDbLine
 10
131.6661743117
 20
87.7061783166
 30
0.0
 11
139.3260002802
 21
87.7061783166
 31
0.0
  0
LINE
  5
174
330
1F
100
AcDbEntity
  8
0
  6
HIDDEN
 62
     7
370
     0
100
AcDbLine
 10
139.3260002802
 20
121.7061783166
 30
0.0
 11
131.6661743117
 21
121.7061783166
 31
0.0
  0
LINE
  5
175
330
1F
100
AcDbEntity
  8
0
  6
HIDDEN
 62
     7
370
     0
100
AcDbLine
 10
201.6661743116
 20
130.7802598423
 30
0.0
 11
201.0794158422
 21
130.1935088527
 31
0.0
  0
LINE
  5
176
330
1F
100
AcDbEntity
  8
0
  6
HIDDEN
 62
     7
370
     0
100
AcDbLine
 10
201.0792147457
 20
79.2190440802
 30
0.0
 11
201.6661743116
 21
78.6320965565
 31
0.0
  0
LINE
  5
177
330
1F
100
AcDbEntity
  8
0
  6
HIDDEN
 62
     7
370
     0
100
AcDbLine
 10
150.4661743117
 20
95.2061783166
 30
0.0
 11
153.4661743117
 21
95.2061783166
 31
0.0
  0
LINE
  5
178
330
1F
100
AcDbEntity
  8
0
  6
HIDDEN
 62
     7
370
     0
100
AcDbLine
 10
153.4661743117
 20
114.2061783166
 30
0.0
 11
150.4661743117
 21
114.2061783166
 31
0.0
  0
LINE
  5
179
330
1F
100
AcDbEntity
  8
0
  6
HIDDEN
 62
     7
370
     0
100
AcDbLine
 10
141.6161743117
 20
95.7061783166
 30
0.0
 11
142.1161743117
 21
96.2061783166
 31
0.0
  0
LINE
  5
17A
330
1F
100
AcDbEntity
  8
0
  6
HIDDEN
 62
     7
370
     0
100
AcDbLine
 10
142.1161743117
 20
113.2061783166
 30
0.0
 11
141.6161743117
 21
113.7061783166
 31
0.0
  0
LINE
  5
17B
330
1F
100
AcDbEntity
  8
0
  6
HIDDEN
 62
     7
370
     0
100
AcDbLine
 10
142.1161743117
 20
96.2061783166
 30
0.0
 11
150.4661743117
 21
96.2061783166
 31
0.0
  0
LINE
  5
17C
330
1F
100
AcDbEntity
  8
0
  6
HIDDEN
 62
     7
370
     0
100
AcDbLine
 10
150.4661743117
 20
113.2061783166
 30
0.0
 11
142.1161743117
 21
113.2061783166
 31
0.0
  0
LINE
  5
17D
330
1F
100
AcDbEntity
  8
0
  6
HIDDEN
 62
     7
370
     0
100
AcDbLine
 10
136.6161743117
 20
136.2061783166
 30
0.0
 11
136.6161743117
 21
131.1061783166
 31
0.0
  0
LINE
  5
17E
330
1F
100
AcDbEntity
  8
0
  6
HIDDEN
 62
     7
370
     0
100
AcDbLine
 10
201.0934520973
 20
130.2061783166
 30
0.0
 11
185.0661743116
 21
130.2061783166
 31
0.0
  0
LINE
  5
17F
330
1F
100
AcDbEntity
  8
0
  6
HIDDEN
 62
     7
370
     0
100
AcDbLine
 10
185.0661743116
 20
79.2061783166
 30
0.0
 11
201.0932360462
 21
79.2061783166
 31
0.0
  0
LINE
  5
180
330
1F
100
AcDbEntity
  8
0
  6
HIDDEN
 62
     7
370
     0
100
AcDbLine
 10
126.8506121422
 20
80.626806983
 30
0.0
 11
126.4161799927
 21
81.1058730021
 31
0.0
  0
LINE
  5
181
330
1F
100
AcDbEntity
  8
0
  6
HIDDEN
 62
     7
370
     0
100
AcDbLine
 10
118.9161766676
 20
81.5275609613
 30
0.0
 11
118.4337429242
 21
81.0484949858
 31
0.0
  0
LINE
  5
182
330
1F
100
AcDbEntity
  8
0
  6
HIDDEN
 62
     7
370
     0
100
AcDbLine
 10
118.433620996
 20
128.3638563569
 30
0.0
 11
118.916171747
 21
127.884736099
 31
0.0
  0
LINE
  5
183
330
1F
100
AcDbEntity
  8
0
  6
HIDDEN
 62
     7
370
     0
100
AcDbLine
 10
126.4161741937
 20
128.3064338767
 30
0.0
 11
126.850716584
 21
128.7855541272
 31
0.0
  0
LINE
  5
184
330
1F
100
AcDbEntity
  8
0
  6
HIDDEN
 62
     7
370
     0
100
AcDbLine
 10
153.4661743117
 20
100.5061783166
 30
0.0
 11
161.1661743117
 21
100.5061783166
 31
0.0
  0
LINE
  5
185
330
1F
100
AcDbEntity
  8
0
  6
HIDDEN
 62
     7
370
     0
100
AcDbLine
 10
161.1661743117
 20
108.9061783166
 30
0.0
 11
153.4661743117
 21
108.9061783166
 31
0.0
  0
LINE
  5
186
330
1F
100
AcDbEntity
  8
0
  6
HIDDEN
 62
     7
370
     0
100
AcDbLine
 10
126.4161743117
 20
124.6415786548
 30
0.0
 11
126.4161743117
 21
128.3061425706
 31
0.0
  0
LINE
  5
187
330
1F
100
AcDbEntity
  8
0
  6
HIDDEN
 62
     7
370
     0
100
AcDbLine
 10
118.9161743117
 20
127.8845923198
 30
0.0
 11
118.9161743117
 21
124.7018005485
 31
0.0
  0
LINE
  5
188
330
1F
100
AcDbEntity
  8
0
  6
HIDDEN
 62
     7
370
     0
100
AcDbLine
 10
126.4161743117
 20
81.1063569038
 30
0.0
 11
126.4161743117
 21
84.7707779783
 31
0.0
  0
LINE
  5
189
330
1F
100
AcDbEntity
  8
0
  6
HIDDEN
 62
     7
370
     0
100
AcDbLine
 10
118.9161743117
 20
84.7105560846
 30
0.0
 11
118.9161743117
 21
81.5278841989
 31
0.0
  0
LINE
  5
18A
330
1F
100
AcDbEntity
  8
VERMASSUNG
100
AcDbLine
 10
173.6661743117
 20
130.7061783166
 30
0.0
 11
173.6661743117
 21
78.7061783166
 31
0.0
  0
LINE
  5
18B
330
1F
100
AcDbEntity
  8
VERMASSUNG
100
AcDbLine
 10
177.1302759268
 20
136.7061783166
 30
0.0
 11
177.1302759268
 21
72.7061783166
 31
0.0
  0
DIMENSION
  5
18C
330
1F
100
AcDbEntity
  8
VERMASSUNG
100
AcDbDimension
  2
_D
 10
213.3724056255
 20
72.7061783166
 30
0.0
 11
213.3724056255
 21
104.7061783166
 31
0.0
 70
   160
  1
ST6 %%c<>
 71
     2
 42
-1.0
  3
SLDDIMSTYLE0
100
AcDbAlignedDimension
 13
201.0661743117
 23
136.7061783166
 33
0.0
 14
201.0661743117
 24
72.7061783166
 34
0.0
 50
90.0
100
AcDbRotatedDimension
  0
DIMENSION
  5
199
330
1F
100
AcDbEntity
  8
VERMASSUNG
100
AcDbDimension
  2
_D_1
 10
207.3724056255
 20
86.7061783166
 30
0.0
 11
207.3724056255
 21
104.7061783166
 31
0.0
 70
   160
  1
%%c<>
 71
     2
 42
-1.0
  3
SLDDIMSTYLE0
100
AcDbAlignedDimension
 13
185.0661743116
 23
122.7061783166
 33
0.0
 14
185.0661743116
 24
86.7061783166
 34
0.0
 50
90.0
100
AcDbRotatedDimension
  0
DIMENSION
  5
1A4
330
1F
100
AcDbEntity
  8
VERMASSUNG
100
AcDbDimension
  2
_D_2
 10
94.6367898241
 20
73.2061783166
 30
0.0
 11
94.6367898241
 21
104.7061783166
 31
0.0
 70
   160
  1
HSK A 63 %%c<>
 71
     2
 42
-1.0
  3
SLDDIMSTYLE0
100
AcDbAlignedDimension
 13
131.9661743117
 23
136.2061783166
 33
0.0
 14
131.9661743117
 24
73.2061783166
 34
0.0
 50
90.0
100
AcDbRotatedDimension
  0
DIMENSION
  5
1B1
330
1F
100
AcDbEntity
  8
VERMASSUNG
100
AcDbDimension
  2
_D_3
 10
201.6661743117
 20
156.0523468644
 30
0.0
 11
150.7161743117
 21
156.0523468644
 31
0.0
 70
   160
  1
(<>)
 71
     2
 42
-1.0
  3
SLDDIMSTYLE0
100
AcDbAlignedDimension
 13
99.7661743117
 23
124.396856063
 33
0.0
 14
201.6661743117
 24
136.1061783166
 34
0.0
100
AcDbRotatedDimension
  0
DIMENSION
  5
1BD
330
1F
100
AcDbEntity
  8
VERMASSUNG
100
AcDbDimension
  2
_D_4
 10
201.6661743117
 20
150.0523468644
 30
0.0
 11
166.6661743117
 21
150.0523468644
 31
0.0
 70
   160
  1
<>
 71
     2
 42
-1.0
  3
SLDDIMSTYLE0
100
AcDbAlignedDimension
 13
131.6661743117
 23
135.9061783166
 33
0.0
 14
201.6661743117
 24
136.1061783166
 34
0.0
100
AcDbRotatedDimension
  0
DIMENSION
  5
1C7
330
1F
100
AcDbEntity
  8
VERMASSUNG
100
AcDbDimension
  2
_D_5
 10
201.6661743117
 20
144.0523468644
 30
0.0
 11
179.6411743117
 21
144.0523468644
 31
0.0
 70
   160
  1
(<>)
 71
     2
 42
-1.0
  3
SLDDIMSTYLE0
100
AcDbAlignedDimension
 13
157.6161743117
 23
134.5526186403
 33
0.0
 14
201.6661743117
 24
136.1061783166
 34
0.0
100
AcDbRotatedDimension
  0
LINE
  5
1D3
330
1F
100
AcDbEntity
  8
VERMASSUNG
  6
CENTERX2
370
     0
100
AcDbLine
 10
97.0673230018
 20
104.7061783166
 30
0.0
 11
203.6616240545
 21
104.7061783166
 31
0.0
  0
LINE
  5
1D4
330
1F
100
AcDbEntity
  8
0
  6
Continuous
 62
     7
370
    15
100
AcDbLine
 10
268.5740505504
 20
44.5189100356
 30
0.0
 11
268.3972451309
 21
44.6210108094
 31
0.0
  0
LINE
  5
1D5
330
1F
100
AcDbEntity
  8
0
  6
Continuous
 62
     7
370
    15
100
AcDbLine
 10
264.5075259024
 20
44.6210108094
 30
0.0
 11
264.3307204829
 21
44.5189100356
 31
0.0
  0
LINE
  5
1D6
330
1F
100
AcDbEntity
  8
0
  6
Continuous
 62
     7
370
    15
100
AcDbLine
 10
269.4523855167
 20
43.0903616826
 30
0.0
 11
269.4523855167
 21
43.2944968856
 31
0.0
  0
LINE
  5
1D7
330
1F
100
AcDbEntity
  8
0
  6
Continuous
 62
     7
370
    15
100
AcDbLine
 10
263.4523855167
 20
43.2944968856
 30
0.0
 11
263.4523855167
 21
43.0903616826
 31
0.0
  0
LINE
  5
1D8
330
1F
100
AcDbEntity
  8
0
  6
Continuous
 62
     7
370
    15
100
AcDbLine
 10
271.9166241971
 20
14.2170114631
 30
0.0
 11
272.1287217541
 21
14.3394925832
 31
0.0
  0
LINE
  5
1D9
330
1F
100
AcDbEntity
  8
0
  6
Continuous
 62
     7
370
    15
100
AcDbLine
 10
283.2284939003
 20
33.5669452275
 30
0.0
 11
283.2284939003
 21
33.811867661
 31
0.0
  0
LINE
  5
1DA
330
1F
100
AcDbEntity
  8
0
  6
Continuous
 62
     7
370
    15
100
AcDbLine
 10
279.9141352624
 20
41.1373845645
 30
0.0
 11
271.6556413768
 21
45.9049116051
 31
0.0
  0
LINE
  5
1DB
330
1F
100
AcDbEntity
  8
0
  6
Continuous
 62
     7
370
    15
100
AcDbLine
 10
255.6569416546
 20
18.1913480089
 30
0.0
 11
263.9154355402
 21
13.4238209684
 31
0.0
  0
SPLINE
  5
1DC
330
1F
100
AcDbEntity
  8
0
  6
Continuous
 62
     7
370
    15
100
AcDbSpline
210
0.0
220
0.0
230
1.0
 70
     8
 71
     3
 72
    16
 73
    12
 74
     0
 42
0.000000001
 43
0.00000001
 40
0.0
 40
0.0
 40
0.0
 40
0.0
 40
0.0319210020626512
 40
0.1513553518882839
 40
0.2713906955695454
 40
0.3921523961458296
 40
0.513625507955546
 40
0.6356949445466132
 40
0.7582004559539084
 40
0.8809829393525952
 40
1.0
 40
1.0
 40
1.0
 40
1.0
 10
270.3063744136115
 20
46.45858613169502
 30
0.0
 10
270.2426456596448
 20
46.47911101908279
 30
0.0
 10
269.9404719383091
 20
46.57643100756393
 30
0.0
 10
269.3614968249298
 20
46.66275441066202
 30
0.0
 10
268.5736036046045
 20
46.71391903084762
 30
0.0
 10
267.7526444691119
 20
46.66915702238446
 30
0.0
 10
266.9070352679129
 20
46.53690428273561
 30
0.0
 10
266.0408975964353
 20
46.31572422868246
 30
0.0
 10
265.160150683532
 20
46.00556894901182
 30
0.0
 10
264.2796741121472
 20
45.6195001506022
 30
0.0
 10
263.6943945040263
 20
45.29651470177649
 30
0.0
 10
263.4063118325299
 20
45.13753682238151
 30
0.0
  0
SPLINE
  5
1DD
330
1F
100
AcDbEntity
  8
0
  6
Continuous
 62
     7
370
    15
100
AcDbSpline
210
0.0
220
0.0
230
1.0
 70
     8
 71
     3
 72
    17
 73
    13
 74
     0
 42
0.000000001
 43
0.00000001
 40
0.0
 40
0.0
 40
0.0
 40
0.0
 40
0.0652984816092826
 40
0.1751605821859674
 40
0.2850813281837454
 40
0.39501317822983
 40
0.5048721835660211
 40
0.6145468984739846
 40
0.7238916648118114
 40
0.8327434721555406
 40
0.9409597213239864
 40
0.9999999999999999
 40
0.9999999999999999
 40
0.9999999999999999
 40
0.9999999999999999
 10
252.2396807921917
 20
26.77414775542557
 30
0.0
 10
252.2248654599375
 20
26.5624771144083
 30
0.0
 10
252.1851239198746
 20
25.99467903092283
 30
0.0
 10
252.1987601340355
 20
25.10836142526324
 30
0.0
 10
252.2735644292957
 20
24.11910403757168
 30
0.0
 10
252.4221957668552
 20
23.17808529613369
 30
0.0
 10
252.6402187803412
 20
22.28951940742424
 30
0.0
 10
252.9279663971641
 20
21.46023781299891
 30
0.0
 10
253.282493974913
 20
20.69462039841012
 30
0.0
 10
253.7050671610921
 20
20.00303685046305
 30
0.0
 10
254.1080631795884
 20
19.4666260362321
 30
0.0
 10
254.392483626416
 20
19.19297038174652
 30
0.0
 10
254.4928818748926
 20
19.09637202286441
 30
0.0
  0
SPLINE
  5
1DE
330
1F
100
AcDbEntity
  8
0
  6
Continuous
 62
     7
370
    15
100
AcDbSpline
210
0.0
220
0.0
230
1.0
 70
     8
 71
     3
 72
    10
 73
     6
 74
     0
 42
0.000000001
 43
0.00000001
 40
0.0
 40
0.0
 40
0.0
 40
0.0
 40
0.2825832176758173
 40
0.8179336563806617
 40
1.0
 40
1.0
 40
1.0
 40
1.0
 10
263.4063118325299
 20
45.13753682238151
 30
0.0
 10
263.249500538111
 20
45.04435225076046
 30
0.0
 10
262.7956121704268
 20
44.77463065154037
 30
0.0
 10
262.2413731476012
 20
44.41142188751127
 30
0.0
 10
261.8504875324952
 20
44.10908754586087
 30
0.0
 10
261.7512884107723
 20
44.03236100490024
 30
0.0
  0
SPLINE
  5
1DF
330
1F
100
AcDbEntity
  8
0
  6
Continuous
 62
     7
370
    15
100
AcDbSpline
210
0.0
220
0.0
230
1.0
 70
     8
 71
     3
 72
    26
 73
    22
 74
     0
 42
0.000000001
 43
0.00000001
 40
0.0
 40
0.0
 40
0.0
 40
0.0
 40
0.0053010776026129
 40
0.0606465367311276
 40
0.1160408188301218
 40
0.1714583685047334
 40
0.2268814492124715
 40
0.2822876896552788
 40
0.3376571591929217
 40
0.3929717357074592
 40
0.4482140333740403
 40
0.5033688330040909
 40
0.5584259596960879
 40
0.6133856196871253
 40
0.6682676751796406
 40
0.7231220527119
 40
0.7780214607609867
 40
0.8331306451011806
 40
0.8887101870943253
 40
0.945101189190517
 40
1.0
 40
1.0
 40
1.0
 40
1.0
 10
266.3272602792408
 20
27.44740488964534
 30
0.0
 10
266.3368474187718
 20
27.47453674958664
 30
0.0
 10
266.4465282899647
 20
27.78493653315187
 30
0.0
 10
266.6954493268263
 20
28.37820877728426
 30
0.0
 10
267.0957819792501
 20
29.21610134719932
 30
0.0
 10
267.5506006697804
 20
30.03393579473512
 30
0.0
 10
268.0509877721738
 20
30.82254633916907
 30
0.0
 10
268.5924070163194
 20
31.57322668573248
 30
0.0
 10
269.1684466177792
 20
32.2777196674331
 30
0.0
 10
269.7725881545243
 20
32.92836035921776
 30
0.0
 10
270.3978148254557
 20
33.51816066792738
 30
0.0
 10
271.0368030777599
 20
34.04091383928358
 30
0.0
 10
271.6819834078867
 20
34.49130955870382
 30
0.0
 10
272.3256772389192
 20
34.86505943848052
 30
0.0
 10
272.9602448156572
 20
35.15898529352182
 30
0.0
 10
273.5782532362254
 20
35.3711257103849
 30
0.0
 10
274.1727599844711
 20
35.5005860726416
 30
0.0
 10
274.738307359743
 20
35.54824538256351
 30
0.0
 10
275.2695817611861
 20
35.51288728388271
 30
0.0
 10
275.7610242466886
 20
35.40437841396886
 30
0.0
 10
276.0509631042988
 20
35.26635231704688
 30
0.0
 10
276.1939887602387
 20
35.19826460637643
 30
0.0
  0
LINE
  5
1E0
330
1F
100
AcDbEntity
  8
0
  6
Continuous
 62
     7
370
    15
100
AcDbLine
 10
250.4069722085
 20
24.6860986422
 30
0.0
 11
252.3768224249
 21
23.5489283176
 31
0.0
  0
LINE
  5
1E1
330
1F
100
AcDbEntity
  8
0
  6
Continuous
 62
     7
370
    15
100
AcDbLine
 10
265.3733760659
 20
46.0675783898
 30
0.0
 11
263.4059157328
 21
47.2033690641
 31
0.0
  0
SPLINE
  5
1E2
330
1F
100
AcDbEntity
  8
0
  6
Continuous
 62
     7
370
    15
100
AcDbSpline
210
0.0
220
0.0
230
1.0
 70
     8
 71
     3
 72
    11
 73
     7
 74
     0
 42
0.000000001
 43
0.00000001
 40
0.0
 40
0.0
 40
0.0
 40
0.0
 40
0.0152617523803552
 40
0.359929244751277
 40
0.7059031197431721
 40
0.9999999999999999
 40
0.9999999999999999
 40
0.9999999999999999
 40
0.9999999999999999
 10
267.3532367269232
 20
19.52595165782142
 30
0.0
 10
267.3463236890719
 20
19.52889017814257
 30
0.0
 10
267.1832883815428
 20
19.59819148598173
 30
0.0
 10
266.9082363273596
 20
19.81130314826573
 30
0.0
 10
266.5466151514592
 20
20.14815756785311
 30
0.0
 10
266.3537440727177
 20
20.43552892499353
 30
0.0
 10
266.265124522325
 20
20.56756904542886
 30
0.0
  0
LINE
  5
1E3
330
1F
100
AcDbEntity
  8
0
  6
Continuous
 62
     7
370
    15
100
AcDbLine
 10
239.6098860918
 20
27.7437833157
 30
0.0
 11
244.6685517521
 21
24.8234777905
 31
0.0
  0
LINE
  5
1E4
330
1F
100
AcDbEntity
  8
0
  6
Continuous
 62
     7
370
    15
100
AcDbLine
 10
257.5519066356
 20
53.7581570504
 30
0.0
 11
255.3586061308
 21
55.0243224807
 31
0.0
  0
LINE
  5
1E5
330
1F
100
AcDbEntity
  8
0
  6
Continuous
 62
     7
370
    15
100
AcDbLine
 10
236.3045695249
 20
35.083044529
 30
0.0
 11
236.3033803248
 21
35.016069626
 31
0.0
  0
LINE
  5
1E6
330
1F
100
AcDbEntity
  8
0
  6
Continuous
 62
     7
370
    15
100
AcDbLine
 10
236.3046970527
 20
34.9434227292
 30
0.0
 11
236.3100432243
 21
34.6484621758
 31
0.0
  0
LINE
  5
1E7
330
1F
100
AcDbEntity
  8
0
  6
Continuous
 62
     7
370
    15
100
AcDbLine
 10
236.3033803248
 20
35.016069626
 30
0.0
 11
236.3046970527
 21
34.9434227292
 31
0.0
  0
SPLINE
  5
1E8
330
1F
100
AcDbEntity
  8
0
  6
Continuous
 62
     7
370
    15
100
AcDbSpline
210
0.0
220
0.0
230
1.0
 70
     8
 71
     3
 72
    10
 73
     6
 74
     0
 42
0.000000001
 43
0.00000001
 40
0.0
 40
0.0
 40
0.0
 40
0.0
 40
0.1993072679445919
 40
0.6437957167058755
 40
1.0
 40
1.0
 40
1.0
 40
1.0
 10
250.9516973962053
 20
21.89679755668385
 30
0.0
 10
251.0666088079188
 20
21.88585320992605
 30
0.0
 10
251.4377918331274
 20
21.85050114455744
 30
0.0
 10
252.0415911614756
 20
21.8756515412125
 30
0.0
 10
252.5387163436026
 20
21.95328141342142
 30
0.0
 10
252.7598724901713
 20
21.98781662510169
 30
0.0
  0
LINE
  5
1E9
330
1F
100
AcDbEntity
  8
0
  6
Continuous
 62
     7
370
    15
100
AcDbLine
 10
247.0670104586
 20
23.4388770513
 30
0.0
 11
248.4663985262
 21
22.6310275154
 31
0.0
  0
LINE
  5
1EA
330
1F
100
AcDbEntity
  8
0
  6
Continuous
 62
     7
370
    15
100
AcDbLine
 10
248.1823126692
 20
54.6136448424
 30
0.0
 11
241.9919298841
 21
57.6978642813
 31
0.0
  0
LINE
  5
1EB
330
1F
100
AcDbEntity
  8
0
  6
Continuous
 62
     7
370
    15
100
AcDbLine
 10
230.610232071
 20
37.9820491429
 30
0.0
 11
236.3687892067
 21
34.1689717816
 31
0.0
  0
SPLINE
  5
1EC
330
1F
100
AcDbEntity
  8
0
  6
Continuous
 62
     7
370
    15
100
AcDbSpline
210
0.0
220
0.0
230
1.0
 70
     8
 71
     3
 72
    13
 73
     9
 74
     0
 42
0.000000001
 43
0.00000001
 40
0.0
 40
0.0
 40
0.0
 40
0.0
 40
0.0989248792549411
 40
0.3261831750286051
 40
0.5527727899068894
 40
0.7785049072263909
 40
0.9905527313316337
 40
0.9999999999999999
 40
0.9999999999999999
 40
0.9999999999999999
 40
0.9999999999999999
 10
266.9121930137912
 20
46.52352418718027
 30
0.0
 10
266.8710548519614
 20
46.64089807237259
 30
0.0
 10
266.735410751695
 20
47.0279128135158
 30
0.0
 10
266.4347963700001
 20
47.61700812207122
 30
0.0
 10
266.0157494743773
 20
48.28671421474763
 30
0.0
 10
265.5401238538525
 20
48.86437158747511
 30
0.0
 10
265.1861680427352
 20
49.20934317817709
 30
0.0
 10
264.9987616829138
 20
49.36233890805028
 30
0.0
 10
264.9907683761131
 20
49.36886452334551
 30
0.0
  0
SPLINE
  5
1ED
330
1F
100
AcDbEntity
  8
0
  6
Continuous
 62
     7
370
    15
100
AcDbSpline
210
0.0
220
0.0
230
1.0
 70
     8
 71
     3
 72
    27
 73
    23
 74
     0
 42
0.000000001
 43
0.00000001
 40
0.0
 40
0.0
 40
0.0
 40
0.0
 40
0.0469247395142138
 40
0.0959673412977639
 40
0.145289721303798
 40
0.1950997623739647
 40
0.2454714590108262
 40
0.2963533462257993
 40
0.3476171532653631
 40
0.3991165319881196
 40
0.4507280288021408
 40
0.5023577612233535
 40
0.5539543895541413
 40
0.6055009271039583
 40
0.6569946226183785
 40
0.7084409118502025
 40
0.7598496474919499
 40
0.8112329372665434
 40
0.862603995667387
 40
0.9139765851382771
 40
0.9653612936145108
 40
0.9999999999999999
 40
0.9999999999999999
 40
0.9999999999999999
 40
0.9999999999999999
 10
242.0495816957847
 20
57.66634770792015
 30
0.0
 10
241.8652139579931
 20
57.75311905541175
 30
0.0
 10
241.488157381865
 20
57.93057801641613
 30
0.0
 10
240.866769246534
 20
58.089943798379
 30
0.0
 10
240.2055693427656
 20
58.17021467365334
 30
0.0
 10
239.5128935156612
 20
58.15985506865255
 30
0.0
 10
238.7944919710346
 20
58.06065260465493
 30
0.0
 10
238.0555873695709
 20
57.87197968861385
 30
0.0
 10
237.3028267617051
 20
57.59512741533776
 30
0.0
 10
236.5432675760681
 20
57.23246245282252
 30
0.0
 10
235.7840774587087
 20
56.78758895809023
 30
0.0
 10
235.0321495611018
 20
56.26499145036038
 30
0.0
 10
234.2939692953149
 20
55.66977853706778
 30
0.0
 10
233.5756074249888
 20
55.00747604465747
 30
0.0
 10
232.8828141045284
 20
54.28397389262946
 30
0.0
 10
232.2211232696728
 20
53.50553592683249
 30
0.0
 10
231.5957593576283
 20
52.6787857513531
 30
0.0
 10
231.0119578503915
 20
51.81064286458805
 30
0.0
 10
230.4736628275053
 20
50.90840621004819
 30
0.0
 10
229.9882500263839
 20
49.97926179039764
 30
0.0
 10
229.5965774496695
 20
49.13499764506933
 30
0.0
 10
229.3938119785659
 20
48.59989440138229
 30
0.0
 10
229.3121652126247
 20
48.38442650611456
 30
0.0
  0
LINE
  5
1EE
330
1F
100
AcDbEntity
  8
0
  6
Continuous
 62
     7
370
    15
100
AcDbLine
 10
229.4260463491
 20
46.5381892358
 30
0.0
 11
231.9796062478
 21
45.0640504843
 31
0.0
  0
LINE
  5
1EF
330
1F
100
AcDbEntity
  8
0
  6
Continuous
 62
     7
370
    15
100
AcDbLine
 10
229.1277540717
 20
47.6623646866
 30
0.0
 11
229.1277540717
 21
47.2010928694
 31
0.0
  0
LINE
  5
1F0
330
1F
100
AcDbEntity
  8
0
  6
Continuous
 62
     7
370
    15
100
AcDbLine
 10
229.1277540717
 20
40.1908546943
 30
0.0
 11
229.1277540717
 21
39.7297444406
 31
0.0
  0
SPLINE
  5
1F1
330
1F
100
AcDbEntity
  8
0
  6
Continuous
 62
     7
370
    15
100
AcDbSpline
210
0.0
220
0.0
230
1.0
 70
     8
 71
     3
 72
    11
 73
     7
 74
     0
 42
0.000000001
 43
0.00000001
 40
0.0
 40
0.0
 40
0.0
 40
0.0
 40
0.2246450968024019
 40
0.5496431414996905
 40
0.8707085286308904
 40
0.9999999999999999
 40
0.9999999999999999
 40
0.9999999999999999
 40
0.9999999999999999
 10
229.2439644246301
 20
39.44272130952468
 30
0.0
 10
229.3267670295911
 20
39.30612183206996
 30
0.0
 10
229.5293616313115
 20
38.97190146855375
 30
0.0
 10
229.9296146908345
 20
38.52721356397597
 30
0.0
 10
230.3178871465438
 20
38.16952551165564
 30
0.0
 10
230.5771582351873
 20
38.01375186188874
 30
0.0
 10
230.6515915204842
 20
37.96903131639519
 30
0.0
  0
LWPOLYLINE
  5
1F2
330
1F
100
AcDbEntity
  8
0
  6
Continuous
 62
     7
370
    15
100
AcDbPolyline
 90
       32
 70
   128
 43
0.0
 10
264.7965445916
 20
44.7661291265
 10
265.272412226
 20
44.9326039625
 10
265.7965881056
 20
45.0403718215
 10
266.3476124082
 20
45.0850206746
 10
266.9029261342
 20
45.0647225927
 10
267.4397946743
 20
44.9803085815
 10
267.9362385676
 20
44.8352345605
 10
268.3719333426
 20
44.6354398774
 10
268.729041604
 20
44.3891041498
 10
268.9929432978
 20
44.1063123914
 10
269.1528342574
 20
43.79864213
 10
269.2021685284
 20
43.4786894222
 10
269.1389263597
 20
43.1595531695
 10
268.9656968933
 20
42.8542988477
 10
268.6895721639
 20
42.5754236044
 10
268.3218567502
 20
42.3343446249
 10
267.8776049646
 20
42.140931711
 10
267.3750045273
 20
42.0031032101
 10
266.8346319593
 20
41.9265018371
 10
266.2786101771
 20
41.9142636614
 10
265.7297027776
 20
41.9668897153
 10
265.2103820944
 20
42.0822254818
 10
264.7419091773
 20
42.2555491013
 10
264.3434633625
 20
42.4797646843
 10
264.0313570684
 20
42.7456928186
 10
263.8183679635
 20
43.042446375
 10
263.7132158466
 20
43.3578762282
 10
263.720205658
 20
43.6790686428
 10
263.8390512337
 20
43.9928739637
 10
264.064887022
 20
44.2864449641
 10
264.3884672793
 20
44.5477628129
 10
264.7965445916
 20
44.7661291265
  0
LWPOLYLINE
  5
1F3
330
1F
100
AcDbEntity
  8
0
  6
Continuous
 62
     7
370
    15
100
AcDbPolyline
 90
       27
 70
   128
 43
0.0
 10
268.5740505504
 20
44.5189100356
 10
268.7589297404
 20
44.4019047218
 10
269.0802871004
 20
44.1298968862
 10
269.3066652503
 20
43.8276955179
 10
269.4298822938
 20
43.5062229619
 10
269.445484846
 20
43.1770980738
 10
269.35290899
 20
42.8522162846
 10
269.1555006584
 20
42.5433196687
 10
268.8603947027
 20
42.2615725546
 10
268.4782570211
 20
42.017158017
 10
268.0228990648
 20
41.8189098343
 10
267.5107786571
 20
41.6739932122
 10
266.9604051636
 20
41.587645815
 10
266.3916705164
 20
41.5629884627
 10
265.8251302676
 20
41.6009123361
 10
265.2812606577
 20
41.7000467678
 10
264.7797185516
 20
41.8568087811
 10
264.3386309877
 20
42.0655325883
 10
263.9739400198
 20
42.3186743672
 10
263.6988265297
 20
42.6070849144
 10
263.5232338357
 20
42.9203403213
 10
263.4535083152
 20
43.2471187213
 10
263.4921700304
 20
43.5756094916
 10
263.637821646
 20
43.8939401199
 10
263.8851989331
 20
44.1906053078
 10
264.2253610321
 20
44.4548828026
 10
264.3307204829
 20
44.5189100356
  0
LWPOLYLINE
  5
1F4
330
1F
100
AcDbEntity
  8
0
  6
Continuous
 62
     7
370
    15
100
AcDbPolyline
 90
       26
 70
   128
 43
0.0
 10
265.3986685644
 20
44.3052211127
 10
265.7792436646
 20
44.4311581586
 10
266.2021147431
 20
44.498501162
 10
266.6407112547
 20
44.5030187142
 10
267.0674745675
 20
44.4444269608
 10
267.4555895732
 20
44.3264074372
 10
267.7806695785
 20
44.1563757441
 10
268.022288611
 20
43.9450155982
 10
268.1652648585
 20
43.7056075346
 10
268.2006145973
 20
43.4531944425
 10
268.1261166735
 20
43.2036363649
 10
267.9464520656
 20
42.9726139535
 10
267.6729097616
 20
42.7746431961
 10
267.3226774305
 20
42.6221633234
 10
266.9177614577
 20
42.5247552067
 10
266.4836042031
 20
42.4885393561
 10
266.0474853636
 20
42.5157913468
 10
265.6368078897
 20
42.6047988359
 10
265.2773761577
 20
42.7499691556
 10
264.9917745851
 20
42.9421807207
 10
264.7979485691
 20
43.1693561718
 10
264.7080769111
 20
43.4172212397
 10
264.7278065778
 20
43.6702016506
 10
264.8558978819
 20
43.912401715
 10
265.0843023755
 20
44.128603112
 10
265.3986685644
 20
44.3052211127
  0
SPLINE
  5
1F5
330
1F
100
AcDbEntity
  8
0
  6
Continuous
 62
     7
370
    15
100
AcDbSpline
210
0.0
220
0.0
230
1.0
 70
     8
 71
     3
 72
    11
 73
     7
 74
     0
 42
0.000000001
 43
0.00000001
 40
0.0
 40
0.0
 40
0.0
 40
0.0
 40
0.1336647920874054
 40
0.4825473608259763
 40
0.8156356561503798
 40
1.0
 40
1.0
 40
1.0
 40
1.0
 10
264.8577626182068
 20
43.87430849542164
 30
0.0
 10
264.9156953812576
 20
43.87150394671166
 30
0.0
 10
265.1248402239568
 20
43.86137915949447
 30
0.0
 10
265.5155481018774
 20
43.93604702803258
 30
0.0
 10
265.9351642197424
 20
44.198317191783
 30
0.0
 10
266.1603902257161
 20
44.40332466225765
 30
0.0
 10
266.2406364969024
 20
44.47636722676878
 30
0.0
  0
SPLINE
  5
1F6
330
1F
100
AcDbEntity
  8
0
  6
Continuous
 62
     7
370
    15
100
AcDbSpline
210
0.0
220
0.0
230
1.0
 70
     8
 71
     3
 72
    11
 73
     7
 74
     0
 42
0.000000001
 43
0.00000001
 40
0.0
 40
0.0
 40
0.0
 40
0.0
 40
0.2164553779443411
 40
0.4403112895790525
 40
0.7519005688038665
 40
1.0
 40
1.0
 40
1.0
 40
1.0
 10
265.0695116379594
 20
42.88191710903268
 30
0.0
 10
265.0550066249406
 20
42.90553496525533
 30
0.0
 10
265.0255006775794
 20
42.95357816394714
 30
0.0
 10
264.9707455198266
 20
43.13498024022346
 30
0.0
 10
264.9120107912113
 20
43.45559776222882
 30
0.0
 10
264.8744240918933
 20
43.74570807485481
 30
0.0
 10
264.8577626182068
 20
43.87430849542164
 30
0.0
  0
LINE
  5
1F7
330
1F
100
AcDbEntity
  8
0
  6
Continuous
 62
     7
370
    15
100
AcDbLine
 10
265.308121522
 20
42.7390575662
 30
0.0
 11
265.069511638
 21
42.881917109
 31
0.0
  0
SPLINE
  5
1F8
330
1F
100
AcDbEntity
  8
0
  6
Continuous
 62
     7
370
    15
100
AcDbSpline
210
0.0
220
0.0
230
1.0
 70
     8
 71
     3
 72
     9
 73
     5
 74
     0
 42
0.000000001
 43
0.00000001
 40
0.0
 40
0.0
 40
0.0
 40
0.0
 40
0.4831972008380698
 40
1.0
 40
1.0
 40
1.0
 40
1.0
 10
268.0470084151032
 20
43.09364318533801
 30
0.0
 10
267.9671063701556
 20
43.0183403090123
 30
0.0
 10
267.8017452198657
 20
42.86249736084311
 30
0.0
 10
267.6181476039591
 20
42.76198898211914
 30
0.0
 10
267.5232638421392
 20
42.71004597065537
 30
0.0
  0
SPLINE
  5
1F9
330
1F
100
AcDbEntity
  8
0
  6
Continuous
 62
     7
370
    15
100
AcDbSpline
210
0.0
220
0.0
230
1.0
 70
     8
 71
     3
 72
    11
 73
     7
 74
     0
 42
0.000000001
 43
0.00000001
 40
0.0
 40
0.0
 40
0.0
 40
0.0
 40
0.2164553779443427
 40
0.440311289579053
 40
0.751900568803867
 40
1.0
 40
1.0
 40
1.0
 40
1.0
 10
267.8352593953505
 20
44.08603457172697
 30
0.0
 10
267.8497644083694
 20
43.97369288493813
 30
0.0
 10
267.8792703557306
 20
43.74516858836835
 30
0.0
 10
267.9340255134834
 20
43.41333526003454
 30
0.0
 10
267.9927602420986
 20
43.18341574694336
 30
0.0
 10
268.0303469414166
 20
43.12121541662469
 30
0.0
 10
268.0470084151032
 20
43.09364318533801
 30
0.0
  0
SPLINE
  5
1FA
330
1F
100
AcDbEntity
  8
0
  6
Continuous
 62
     7
370
    15
100
AcDbSpline
210
0.0
220
0.0
230
1.0
 70
     8
 71
     3
 72
    11
 73
     7
 74
     0
 42
0.000000001
 43
0.00000001
 40
0.0
 40
0.0
 40
0.0
 40
0.0
 40
0.2164553779443428
 40
0.4403112895790494
 40
0.7519005688038667
 40
1.0
 40
1.0
 40
1.0
 40
1.0
 10
266.2406364969024
 20
44.47636722676879
 30
0.0
 10
266.3498697104924
 20
44.40526714641805
 30
0.0
 10
266.5720707830527
 20
44.26063609882886
 30
0.0
 10
266.9844166275001
 20
44.0844862341063
 30
0.0
 10
267.4267315118539
 20
44.02156516208176
 30
0.0
 10
267.7097864770178
 20
44.06623380585969
 30
0.0
 10
267.8352593953505
 20
44.08603457172697
 30
0.0
  0
LINE
  5
1FB
330
1F
100
AcDbEntity
  8
0
  6
Continuous
 62
     7
370
    15
100
AcDbLine
 10
267.8352593954
 20
42.908778837
 30
0.0
 11
267.8352593954
 21
44.0860345717
 31
0.0
  0
LINE
  5
1FC
330
1F
100
AcDbEntity
  8
0
  6
Continuous
 62
     7
370
    15
100
AcDbLine
 10
266.2406364969
 20
42.4958013537
 30
0.0
 11
266.2406364969
 21
44.4763672268
 31
0.0
  0
LWPOLYLINE
  5
1FD
330
1F
100
AcDbEntity
  8
0
  6
Continuous
 62
     7
370
    15
100
AcDbPolyline
 90
       77
 70
   128
 43
0.0
 10
272.1269174357
 20
39.9778322963
 10
271.2101565175
 20
39.4048117399
 10
270.299658006
 20
38.7481340082
 10
269.4016415292
 20
38.0122848759
 10
268.5222414503
 20
37.2022909387
 10
267.6674649634
 20
36.3236852765
 10
266.8431510587
 20
35.382469657
 10
266.0549306361
 20
34.3850735371
 10
265.3081880402
 20
33.3383101437
 10
264.6080242802
 20
32.2493299322
 10
263.9592221845
 20
31.1255717417
 10
263.3662137293
 20
29.9747119801
 10
262.8330497636
 20
28.8046121864
 10
262.363372338
 20
27.6232653288
 10
261.9603898255
 20
26.4387412042
 10
261.6268550054
 20
25.2591313133
 10
261.3650462585
 20
24.092493588
 10
261.1767520042
 20
22.9467973467
 10
261.0632584831
 20
21.8298688567
 10
261.025340971
 20
20.7493378719
 10
261.0632584831
 20
19.7125855146
 10
261.1767520042
 20
18.7266938548
 10
261.3650462585
 20
17.7983975321
 10
261.6268550054
 20
16.9340377517
 10
261.9603898255
 20
16.1395189674
 10
262.363372338
 20
15.420268548
 10
262.8330497636
 20
14.7811997033
 10
263.3662137293
 20
14.2266779214
 10
263.9592221845
 20
13.7604911485
 10
264.6080242802
 20
13.3858239128
 10
265.3081880402
 20
13.1052355716
 10
266.0549306361
 20
12.9206428276
 10
266.8431510587
 20
12.8333066365
 10
267.6674649634
 20
12.8438235931
 10
268.5222414503
 20
12.9521218558
 10
269.4016415292
 20
13.1574616378
 10
270.299658006
 20
13.4584402601
 10
271.2101565175
 20
13.8530017335
 10
272.1269174357
 20
14.3384508031
 10
273.0436783538
 20
14.9114713594
 10
273.9541768653
 20
15.5681490912
 10
274.8521933421
 20
16.3039982235
 10
275.7315934211
 20
17.1139921607
 10
276.586369908
 20
17.9925978228
 10
277.4106838126
 20
18.9338134424
 10
278.1989042353
 20
19.9312095623
 10
278.9456468311
 20
20.9779729556
 10
279.6458105912
 20
22.0669531671
 10
280.2946126869
 20
23.1907113576
 10
280.8876211421
 20
24.3415711193
 10
281.4207851077
 20
25.511670913
 10
281.8904625333
 20
26.6930177706
 10
282.2934450458
 20
27.8775418952
 10
282.626979866
 20
29.057151786
 10
282.8887886128
 20
30.2237895114
 10
283.0770828672
 20
31.3694857526
 10
283.1905763883
 20
32.4864142427
 10
283.2284939003
 20
33.5669452275
 10
283.1905763883
 20
34.6036975847
 10
283.0770828672
 20
35.5895892445
 10
282.8887886128
 20
36.5178855672
 10
282.626979866
 20
37.3822453476
 10
282.2934450458
 20
38.176764132
 10
281.8904625333
 20
38.8960145513
 10
281.4207851077
 20
39.5350833961
 10
280.8876211421
 20
40.0896051779
 10
280.2946126869
 20
40.5557919509
 10
279.6458105912
 20
40.9304591865
 10
278.9456468311
 20
41.2110475278
 10
278.1989042353
 20
41.3956402718
 10
277.4106838126
 20
41.4829764628
 10
276.586369908
 20
41.4724595063
 10
275.7315934211
 20
41.3641612435
 10
274.8521933421
 20
41.1588214615
 10
273.9541768653
 20
40.8578428393
 10
273.0436783538
 20
40.4632813659
 10
272.1269174357
 20
39.9778322963
  0
LWPOLYLINE
  5
1FE
330
1F
100
AcDbEntity
  8
0
  6
Continuous
 62
     7
370
    15
100
AcDbPolyline
 90
       40
 70
   128
 43
0.0
 10
271.9147854013
 20
40.3452557566
 10
270.9805067586
 20
39.7612857629
 10
270.0526101864
 20
39.092060049
 10
269.1374341591
 20
38.3421501052
 10
268.241230257
 20
37.5166785769
 10
267.3701204614
 20
36.6212842715
 10
266.5300553356
 20
35.6620836401
 10
265.7267733763
 20
34.6456289957
 10
264.9657618136
 20
33.578863754
 10
264.2522191282
 20
32.4690750035
 10
263.5910195402
 20
31.3238437265
 10
262.9866797133
 20
30.150993014
 10
262.4433279011
 20
28.9585346255
 10
261.9646757477
 20
27.7546142611
 10
261.5539929324
 20
26.5474559175
 10
261.2140848354
 20
25.3453057103
 10
260.9472733736
 20
24.1563755443
 10
260.7553811399
 20
22.9887870182
 10
260.6397189528
 20
21.8505159455
 10
260.6010769023
 20
20.7493378719
 10
260.6397189528
 20
19.69277496
 10
260.7553811399
 20
18.6880446061
 10
260.9472733736
 20
17.7420101371
 10
261.2140848354
 20
16.8611339278
 10
261.5539929324
 20
16.0514332558
 10
261.9646757477
 20
15.3184391979
 10
262.4433279011
 20
14.6671588466
 10
262.9866797133
 20
14.1020411071
 10
263.5910195402
 20
13.6269463066
 10
264.2522191282
 20
13.2451198244
 10
264.9657618136
 20
12.9591699225
 10
265.7267733763
 20
12.7710499286
 10
266.5300553356
 20
12.6820448932
 10
267.3701204614
 20
12.6927628107
 10
268.241230257
 20
12.803130467
 10
269.1374341591
 20
13.0123939391
 10
270.0526101864
 20
13.3191237452
 10
270.9805067586
 20
13.7212246098
 10
271.9147854013
 20
14.2159497763
 10
271.9166241971
 20
14.2170114631
  0
LWPOLYLINE
  5
1FF
330
1F
100
AcDbEntity
  8
0
  6
Continuous
 62
     7
370
    15
100
AcDbPolyline
 90
       20
 70
   128
 43
0.0
 10
283.2284939003
 20
33.811867661
 10
283.1898518498
 20
34.8684305729
 10
283.0741896627
 20
35.8731609268
 10
282.882297429
 20
36.8191953958
 10
282.6154859672
 20
37.7000716051
 10
282.2755778702
 20
38.5097722771
 10
281.864895055
 20
39.242766335
 10
281.3862429015
 20
39.8940466863
 10
280.8428910894
 20
40.4591644258
 10
280.2385512624
 20
40.9342592263
 10
279.5773516744
 20
41.3160857085
 10
278.8638089891
 20
41.6020356104
 10
278.1027974264
 20
41.7901556043
 10
277.299515467
 20
41.8791606397
 10
276.4594503412
 20
41.8684427222
 10
275.5883405457
 20
41.7580750659
 10
274.6921366436
 20
41.5488115938
 10
273.7769606163
 20
41.2420817877
 10
272.849064044
 20
40.8399809231
 10
271.9147854013
 20
40.3452557566
  0
SPLINE
  5
200
330
1F
100
AcDbEntity
  8
0
  6
Continuous
 62
     7
370
    15
100
AcDbSpline
210
0.0
220
0.0
230
1.0
 70
    11
 71
     3
 72
    94
 73
    90
 74
     0
 42
0.000000001
 43
0.00000001
 40
0.0
 40
0.0
 40
0.0
 40
0.0
 40
0.0312500000000006
 40
0.0312500000000006
 40
0.0625000000000012
 40
0.0625000000000012
 40
0.0937500000000017
 40
0.0937500000000017
 40
0.1093750000000022
 40
0.1093750000000022
 40
0.1250000000000028
 40
0.1250000000000028
 40
0.1562500000000033
 40
0.1562500000000033
 40
0.1718750000000034
 40
0.1718750000000034
 40
0.1875000000000034
 40
0.1875000000000034
 40
0.2187500000000039
 40
0.2187500000000039
 40
0.234375000000004
 40
0.234375000000004
 40
0.2500000000000041
 40
0.2500000000000041
 40
0.2812500000000042
 40
0.2812500000000042
 40
0.3125000000000043
 40
0.3125000000000043
 40
0.3281250000000043
 40
0.3281250000000043
 40
0.3437500000000043
 40
0.3437500000000043
 40
0.3750000000000042
 40
0.3750000000000042
 40
0.3906250000000042
 40
0.3906250000000042
 40
0.4062500000000042
 40
0.4062500000000042
 40
0.4218750000000041
 40
0.4218750000000041
 40
0.4375000000000041
 40
0.4375000000000041
 40
0.4687500000000038
 40
0.4687500000000038
 40
0.4843750000000036
 40
0.4843750000000036
 40
0.5000000000000034
 40
0.5000000000000034
 40
0.5312500000000032
 40
0.5312500000000032
 40
0.562500000000003
 40
0.562500000000003
 40
0.5781250000000029
 40
0.5781250000000029
 40
0.5937500000000028
 40
0.5937500000000028
 40
0.6250000000000026
 40
0.6250000000000026
 40
0.6562500000000023
 40
0.6562500000000023
 40
0.6875000000000021
 40
0.6875000000000021
 40
0.7187500000000019
 40
0.7187500000000019
 40
0.7500000000000017
 40
0.7500000000000017
 40
0.7812500000000016
 40
0.7812500000000016
 40
0.8125000000000013
 40
0.8125000000000013
 40
0.8281250000000012
 40
0.8281250000000012
 40
0.8437500000000011
 40
0.8437500000000011
 40
0.859375000000001
 40
0.859375000000001
 40
0.8750000000000008
 40
0.8750000000000008
 40
0.9062500000000006
 40
0.9062500000000006
 40
0.9218750000000006
 40
0.9218750000000006
 40
0.9375000000000006
 40
0.9375000000000006
 40
0.9531250000000004
 40
0.9531250000000004
 40
0.9687500000000004
 40
0.9687500000000004
 40
1.0
 40
1.0
 40
1.0
 40
1.0
 10
266.4331781460779
 20
45.27939032472706
 30
0.0
 10
266.6523160139678
 20
45.25104932507126
 30
0.0
 10
266.8666936104578
 20
45.21140247267138
 30
0.0
 10
267.2867770998024
 20
45.11281688312994
 30
0.0
 10
267.4937316777257
 20
45.05328931850415
 30
0.0
 10
267.8855644659117
 20
44.92058437760234
 30
0.0
 10
268.0720235406149
 20
44.84715277319351
 30
0.0
 10
268.3376843260904
 20
44.72715427322476
 30
0.0
 10
268.4242796481528
 20
44.68528247858793
 30
0.0
 10
268.5901258135828
 20
44.59948011170663
 30
0.0
 10
268.6694546744755
 20
44.55554772755465
 30
0.0
 10
268.8969273255431
 20
44.42075396498123
 30
0.0
 10
269.0346475254684
 20
44.32694351882191
 30
0.0
 10
269.2197617543638
 20
44.1798343514061
 30
0.0
 10
269.2780045603704
 20
44.1295498133818
 30
0.0
 10
269.3849277622886
 20
44.02860701832167
 30
0.0
 10
269.4339009212658
 20
43.97774177889225
 30
0.0
 10
269.5674951421337
 20
43.82374776777825
 30
0.0
 10
269.6389252420731
 20
43.71925654915218
 30
0.0
 10
269.7179219415848
 20
43.55835663376147
 30
0.0
 10
269.7394434362195
 20
43.50404231542565
 30
0.0
 10
269.7718701011598
 20
43.3961196232515
 30
0.0
 10
269.7829376083618
 20
43.34221515726974
 30
0.0
 10
269.8006062656835
 20
43.18029863303521
 30
0.0
 10
269.791866040154
 20
43.07209873040036
 30
0.0
 10
269.7287731308694
 20
42.85298980381665
 30
0.0
 10
269.675247606354
 20
42.7455444179172
 30
0.0
 10
269.5623366846696
 20
42.58784749632799
 30
0.0
 10
269.5191974147585
 20
42.53578090289016
 30
0.0
 10
269.4213620239249
 20
42.43252134234093
 30
0.0
 10
269.3662134984911
 20
42.38098789704005
 30
0.0
 10
269.1866512986726
 20
42.23129190131029
 30
0.0
 10
269.0480212497976
 20
42.13730587669022
 30
0.0
 10
268.8116180479344
 20
42.00478932751678
 30
0.0
 10
268.7274353231821
 20
41.96177653471807
 30
0.0
 10
268.552314339704
 20
41.88026594109724
 30
0.0
 10
268.4616354484604
 20
41.84182630986975
 30
0.0
 10
268.2742859076745
 20
41.7694796684338
 30
0.0
 10
268.1776145374182
 20
41.73557310081132
 30
0.0
 10
267.9783250018291
 20
41.67238705261957
 30
0.0
 10
267.8750847345011
 20
41.64296445354267
 30
0.0
 10
267.5622508591172
 20
41.56350458650665
 30
0.0
 10
267.3491666448339
 20
41.52185995115953
 30
0.0
 10
267.0230687080257
 20
41.47651514504746
 30
0.0
 10
266.9127354139261
 20
41.46424853325732
 30
0.0
 10
266.6936518125305
 20
41.44604809559264
 30
0.0
 10
266.5846933468379
 20
41.44005187870704
 30
0.0
 10
266.2594463146459
 20
41.4312967007582
 30
0.0
 10
266.0438488271913
 20
41.43777566535436
 30
0.0
 10
265.6207044483167
 20
41.47653468769693
 30
0.0
 10
265.4171908117656
 20
41.50833707636743
 30
0.0
 10
265.1232203579416
 20
41.57467115501785
 30
0.0
 10
265.0271281926732
 20
41.59990561359603
 30
0.0
 10
264.8387732327615
 20
41.65683077968838
 30
0.0
 10
264.7464548810543
 20
41.68858977486481
 30
0.0
 10
264.4804498986595
 20
41.79186549843514
 30
0.0
 10
264.3157802154654
 20
41.87183286833791
 30
0.0
 10
264.0113620343243
 20
42.05392165064951
 30
0.0
 10
263.8706265864346
 20
42.15717463343852
 30
0.0
 10
263.6244623495912
 20
42.37908734669421
 30
0.0
 10
263.517957111222
 20
42.49803997282698
 30
0.0
 10
263.3386203403431
 20
42.75120294350474
 30
0.0
 10
263.2656436621643
 20
42.88659965306411
 30
0.0
 10
263.1609669017947
 20
43.16132797009714
 30
0.0
 10
263.1282212020309
 20
43.30164199805899
 30
0.0
 10
263.1040569221047
 20
43.58673615610766
 30
0.0
 10
263.1133140684629
 20
43.73218256187152
 30
0.0
 10
263.1755863091865
 20
44.01212399335858
 30
0.0
 10
263.2281875501463
 20
44.14832407408596
 30
0.0
 10
263.3421950887769
 20
44.34523072184495
 30
0.0
 10
263.3863307800387
 20
44.40978891486687
 30
0.0
 10
263.4844203101043
 20
44.53262388958445
 30
0.0
 10
263.5385878757947
 20
44.59135206592548
 30
0.0
 10
263.6571551150569
 20
44.70331977170186
 30
0.0
 10
263.7215541277579
 20
44.7565597747717
 30
0.0
 10
263.8608944248135
 20
44.85731428420457
 30
0.0
 10
263.9364246974266
 20
44.90512721963809
 30
0.0
 10
264.1745536036418
 20
45.03664838539203
 30
0.0
 10
264.3482821697135
 20
45.10882709126765
 30
0.0
 10
264.6306458206963
 20
45.19494766721627
 30
0.0
 10
264.7290550772545
 20
45.22004737557364
 30
0.0
 10
264.929240770341
 20
45.26194629235707
 30
0.0
 10
265.0311503933001
 20
45.27885419410805
 30
0.0
 10
265.2384505068664
 20
45.30513585758801
 30
0.0
 10
265.343841507338
 20
45.3145081685056
 30
0.0
 10
265.5580712543106
 20
45.3260376682157
 30
0.0
 10
265.6673648140329
 20
45.32816720319014
 30
0.0
 10
265.9947344191776
 20
45.32411592881274
 30
0.0
 10
266.2140402781881
 20
45.30773132438287
 30
0.0
 10
266.4331781460779
 20
45.27939032472707
 30
0.0
  0
ARC
  5
201
330
1F
100
AcDbEntity
  8
0
  6
Continuous
 62
     7
370
    15
100
AcDbCircle
 10
258.3875509696
 20
22.9069800211
 30
0.0
 40
5.449166221158462
100
AcDbArc
 50
225.268976875
 51
239.9268075796
  0
ARC
  5
202
330
1F
100
AcDbEntity
  8
0
  6
Continuous
 62
     7
370
    15
100
AcDbCircle
 10
268.9382917875
 20
41.183660111
 30
0.0
 40
5.447403460386179
100
AcDbArc
 50
60.077117689
 51
74.5793166495
  0
LINE
  5
203
330
1F
100
AcDbEntity
  8
0
  6
Continuous
 62
     7
370
    15
100
AcDbLine
 10
278.1368867564
 20
27.1623198369
 30
0.0
 11
280.3116784279
 21
29.8677400009
 31
0.0
  0
SPLINE
  5
204
330
1F
100
AcDbEntity
  8
0
  6
Continuous
 62
     7
370
    15
100
AcDbSpline
210
0.0
220
0.0
230
1.0
 70
     8
 71
     3
 72
    20
 73
    16
 74
     0
 42
0.000000001
 43
0.00000001
 40
0.0
 40
0.0
 40
0.0
 40
0.0
 40
0.0469163091108929
 40
0.0977062414429349
 40
0.1516689633031515
 40
0.2078463383218541
 40
0.265193847623343
 40
0.3192095203174498
 40
0.3728953068123803
 40
0.4259306594991014
 40
0.4781535685998876
 40
0.5793596734499781
 40
0.6698058354121841
 40
0.8327057026615088
 40
0.9074992363786779
 40
0.9074992363786779
 40
0.9074992363786779
 40
0.9074992363786779
 10
280.3116784278708
 20
29.86774000086567
 30
0.0
 10
280.41200977221
 20
29.99255123939148
 30
0.0
 10
280.6110624592421
 20
30.26805328502241
 30
0.0
 10
280.8770215825914
 20
30.72762260669577
 30
0.0
 10
281.1034357869156
 20
31.2376646652318
 30
0.0
 10
281.2684628655255
 20
31.77420060941627
 30
0.0
 10
281.3513976098176
 20
32.29525732217129
 30
0.0
 10
281.3463599520258
 20
32.76900443069394
 30
0.0
 10
281.2576264783059
 20
33.17168169183206
 30
0.0
 10
281.0903555286438
 20
33.49171043765315
 30
0.0
 10
280.7877742427996
 20
33.79901687498631
 30
0.0
 10
280.2867623655678
 20
33.9172868154883
 30
0.0
 10
279.5748237910351
 20
33.95618270765237
 30
0.0
 10
279.0741289927679
 20
34.0096394823962
 30
0.0
 10
278.3694150493278
 20
34.07287750045655
 30
0.0
 10
278.1365123428147
 20
34.0935757622037
 30
0.0
  0
SPLINE
  5
205
330
1F
100
AcDbEntity
  8
0
  6
Continuous
 62
     7
370
    15
100
AcDbSpline
210
0.0
220
0.0
230
1.0
 70
     8
 71
     3
 72
    20
 73
    16
 74
     0
 42
0.000000001
 43
0.00000001
 40
0.0
 40
0.0
 40
0.0
 40
0.0
 40
0.0469163091108929
 40
0.0977062414429349
 40
0.1516689633031515
 40
0.2078463383218543
 40
0.2651938476233431
 40
0.31920952031745
 40
0.3728953068123805
 40
0.4259306594991016
 40
0.4781535685998878
 40
0.5793596734499785
 40
0.6698058354121846
 40
0.8327057026615095
 40
0.9074992363786795
 40
0.9074992363786795
 40
0.9074992363786795
 40
0.9074992363786795
 10
263.9421564434028
 20
20.4178161065182
 30
0.0
 10
263.8418250990636
 20
20.42678724059586
 30
0.0
 10
263.6427724120315
 20
20.47246794566444
 30
0.0
 10
263.3768132886822
 20
20.62496739968457
 30
0.0
 10
263.1503990843581
 20
20.87359718222467
 30
0.0
 10
262.9853720057482
 20
21.21959691712335
 30
0.0
 10
262.902437261456
 20
21.64489921230879
 30
0.0
 10
262.907474919248
 20
22.12446267671336
 30
0.0
 10
262.9962083929677
 20
22.6295894259097
 30
0.0
 10
263.1634793426299
 20
23.14274509938841
 30
0.0
 10
263.4660606284741
 20
23.79940445317142
 30
0.0
 10
263.9670725057058
 20
24.49613039434296
 30
0.0
 10
264.6790110802386
 20
25.35701306818196
 30
0.0
 10
265.1797058785057
 20
25.98855975201533
 30
0.0
 10
265.8844198219459
 20
26.86544317024232
 30
0.0
 10
266.1173225284589
 20
27.15504517315242
 30
0.0
  0
LINE
  5
206
330
1F
100
AcDbEntity
  8
0
  6
Continuous
 62
     7
370
    15
100
AcDbLine
 10
266.1169481149
 20
20.2233569591
 30
0.0
 11
263.9421564434
 21
20.4178161065
 31
0.0
  0
ARC
  5
207
330
1F
100
AcDbEntity
  8
0
  6
Continuous
 62
     7
370
    15
100
AcDbCircle
 10
276.9353536698
 20
24.4138594658
 30
0.0
 40
24.80645085730799
100
AcDbArc
 50
127.8504637026
 51
174.3359961287
  0
SPLINE
  5
208
330
1F
100
AcDbEntity
  8
0
  6
Continuous
 62
     7
370
    15
100
AcDbSpline
210
0.0
220
0.0
230
1.0
 70
     8
 71
     3
 72
    18
 73
    14
 74
     0
 42
0.000000001
 43
0.00000001
 40
0.0
 40
0.0
 40
0.0
 40
0.0
 40
0.2500000000000091
 40
0.2500000000000091
 40
0.5000000000000182
 40
0.5000000000000182
 40
0.6250000000000137
 40
0.6250000000000137
 40
0.7500000000000091
 40
0.7500000000000091
 40
0.8750000000000046
 40
0.8750000000000046
 40
1.0
 40
1.0
 40
1.0
 40
1.0
 10
278.1365123428247
 20
34.0935757622368
 30
0.0
 10
278.1028117520675
 20
34.09657076241936
 30
0.0
 10
278.0666476775415
 20
34.09820810405644
 30
0.0
 10
277.9863595455246
 20
34.0970947965438
 30
0.0
 10
277.9412858499498
 20
34.09435691494924
 30
0.0
 10
277.86693106143
 20
34.08348404313634
 30
0.0
 10
277.8402806686298
 20
34.07855870057492
 30
0.0
 10
277.7867547181335
 20
34.06567830314928
 30
0.0
 10
277.7595506595905
 20
34.057571068551
 30
0.0
 10
277.7102473109639
 20
34.0394930341573
 30
0.0
 10
277.6879222869755
 20
34.02950300742443
 30
0.0
 10
277.6495282660036
 20
34.00938382344025
 30
0.0
 10
277.6336582090746
 20
33.99946759342055
 30
0.0
 10
277.6198560370175
 20
33.98969278961563
 30
0.0
  0
SPLINE
  5
209
330
1F
100
AcDbEntity
  8
0
  6
Continuous
 62
     7
370
    15
100
AcDbSpline
210
0.0
220
0.0
230
1.0
 70
     8
 71
     3
 72
    10
 73
     6
 74
     0
 42
0.000000001
 43
0.00000001
 40
0.0
 40
0.0
 40
0.0
 40
0.0
 40
0.5
 40
0.5
 40
1.0
 40
1.0
 40
1.0
 40
1.0
 10
277.6198560370176
 20
33.98969278961564
 30
0.0
 10
277.5754182429491
 20
34.00484718822081
 30
0.0
 10
277.5295216289664
 20
34.02186070174315
 30
0.0
 10
277.4416863575762
 20
34.05879798658867
 30
0.0
 10
277.3997558708314
 20
34.07881128954342
 30
0.0
 10
277.3653217653134
 20
34.09868967553562
 30
0.0
  0
LINE
  5
20A
330
1F
100
AcDbEntity
  8
0
  6
Continuous
 62
     7
370
    15
100
AcDbLine
 10
276.2729983419
 20
35.1566833391
 30
0.0
 11
276.1854315503
 21
35.2053045393
 31
0.0
  0
SPLINE
  5
20B
330
1F
100
AcDbEntity
  8
0
  6
Continuous
 62
     7
370
    15
100
AcDbSpline
210
0.0
220
0.0
230
1.0
 70
     8
 71
     3
 72
    11
 73
     7
 74
     0
 42
0.000000001
 43
0.00000001
 40
0.0
 40
0.0
 40
0.0
 40
0.0
 40
0.1165302744399505
 40
0.3312530509211823
 40
0.7094862338859881
 40
1.0
 40
1.0
 40
1.0
 40
1.0
 10
266.3255794031109
 20
27.44802132725363
 30
0.0
 10
266.3228831888255
 20
27.4413189776268
 30
0.0
 10
266.315218835401
 20
27.42226664317639
 30
0.0
 10
266.2713833150469
 20
27.35514278412326
 30
0.0
 10
266.2019109838
 20
27.26127123355441
 30
0.0
 10
266.1429402884575
 20
27.18721591925244
 30
0.0
 10
266.1173225285292
 20
27.15504517322024
 30
0.0
  0
SPLINE
  5
20C
330
1F
100
AcDbEntity
  8
0
  6
Continuous
 62
     7
370
    15
100
AcDbSpline
210
0.0
220
0.0
230
1.0
 70
     8
 71
     3
 72
    14
 73
    10
 74
     0
 42
0.000000001
 43
0.00000001
 40
0.0
 40
0.0
 40
0.0
 40
0.0
 40
0.1544296596799568
 40
0.3133374685117708
 40
0.4677552653505865
 40
0.6266509538798212
 40
0.7810900577437139
 40
0.9400017621043688
 40
1.0
 40
1.0
 40
1.0
 40
1.0
 10
263.8537680957542
 20
20.74767889906409
 30
0.0
 10
263.7680055849909
 20
20.76189755005873
 30
0.0
 10
263.5939936233543
 20
20.79074716429439
 30
0.0
 10
263.3723806489521
 20
20.91825415847515
 30
0.0
 10
263.1845588903603
 20
21.10624844673474
 30
0.0
 10
263.0407397657744
 20
21.35133200638944
 30
0.0
 10
262.9471650051034
 20
21.65083710471989
 30
0.0
 10
262.9042320814928
 20
21.91585479966594
 30
0.0
 10
262.9126808128284
 20
22.08858965455989
 30
0.0
 10
262.9149964179917
 20
22.1359323508759
 30
0.0
  0
LINE
  5
20D
330
1F
100
AcDbEntity
  8
0
  6
Continuous
 62
     7
370
    15
100
AcDbLine
 10
274.89648237
 20
35.5239203216
 30
0.0
 11
277.3653217653
 21
34.0986896755
 31
0.0
  0
ARC
  5
20E
330
1F
100
AcDbEntity
  8
0
  6
Continuous
 62
     7
370
    15
100
AcDbCircle
 10
261.8918557401
 20
34.2352788531
 30
0.0
 40
10.71991593487309
100
AcDbArc
 50
338.2683659042
 51
3.9846467074
  0
LINE
  5
20F
330
1F
100
AcDbEntity
  8
0
  6
Continuous
 62
     7
370
    15
100
AcDbLine
 10
271.849888872
 20
30.2661260726
 30
0.0
 11
277.3653217653
 21
27.0821344365
 31
0.0
  0
LINE
  5
210
330
1F
100
AcDbEntity
  8
0
  6
Continuous
 62
     7
370
    15
100
AcDbLine
 10
267.2737297482
 20
19.5678038162
 30
0.0
 11
267.3618596233
 21
19.5188822208
 31
0.0
  0
LINE
  5
211
330
1F
100
AcDbEntity
  8
0
  6
Continuous
 62
     7
370
    15
100
AcDbLine
 10
262.9855796571
 20
22.470708945
 30
0.0
 11
266.1814063249
 21
20.6257974797
 31
0.0
  0
LINE
  5
212
330
1F
100
AcDbEntity
  8
0
  6
Continuous
 62
     7
370
    15
100
AcDbLine
 10
250.4069722085
 20
24.6860986422
 30
0.0
 11
250.2065654796
 21
24.8091550151
 31
0.0
  0
LINE
  5
213
330
1F
100
AcDbEntity
  8
0
  6
Continuous
 62
     7
370
    15
100
AcDbLine
 10
266.2803983093
 20
20.5307015911
 30
0.0
 11
263.8537680958
 21
20.7476788991
 31
0.0
  0
SPLINE
  5
214
330
1F
100
AcDbEntity
  8
0
  6
Continuous
 62
     7
370
    15
100
AcDbSpline
210
0.0
220
0.0
230
1.0
 70
     8
 71
     3
 72
    18
 73
    14
 74
     0
 42
0.000000001
 43
0.00000001
 40
0.0
 40
0.0
 40
0.0
 40
0.0
 40
0.2499999999999998
 40
0.2499999999999998
 40
0.4999999999999996
 40
0.4999999999999996
 40
0.6249999999999997
 40
0.6249999999999997
 40
0.7499999999999998
 40
0.7499999999999998
 40
0.8749999999999999
 40
0.8749999999999999
 40
1.0
 40
1.0
 40
1.0
 40
1.0
 10
266.1169481148868
 20
20.22335695906231
 30
0.0
 10
266.1504708409699
 20
20.22035952219598
 30
0.0
 10
266.1834929490142
 20
20.22083537723589
 30
0.0
 10
266.2445973049886
 20
20.23328922272967
 30
0.0
 10
266.2736296355735
 20
20.24512264671406
 30
0.0
 10
266.3069305668558
 20
20.28027190667157
 30
0.0
 10
266.3162030105985
 20
20.29512464217104
 30
0.0
 10
266.3278827968323
 20
20.33173173965116
 30
0.0
 10
266.3302107635002
 20
20.35415031504028
 30
0.0
 10
266.3264688643283
 20
20.4025136777163
 30
0.0
 10
266.3205056907362
 20
20.42880108064233
 30
0.0
 10
266.3035296219759
 20
20.48038698989174
 30
0.0
 10
266.2925245256435
 20
20.50606614147758
 30
0.0
 10
266.2803983093289
 20
20.53070159106255
 30
0.0
  0
SPLINE
  5
215
330
1F
100
AcDbEntity
  8
0
  6
Continuous
 62
     7
370
    15
100
AcDbSpline
210
0.0
220
0.0
230
1.0
 70
     8
 71
     3
 72
    10
 73
     6
 74
     0
 42
0.000000001
 43
0.00000001
 40
0.0
 40
0.0
 40
0.0
 40
0.0
 40
0.5
 40
0.5
 40
1.0
 40
1.0
 40
1.0
 40
1.0
 10
266.1814063248541
 20
20.62579747973494
 30
0.0
 10
266.2158445659873
 20
20.60591670630289
 30
0.0
 10
266.240683833368
 20
20.58735269539949
 30
0.0
 10
266.2719625130027
 20
20.55555179109506
 30
0.0
 10
266.2790032801751
 20
20.5420019812843
 30
0.0
 10
266.2803983093289
 20
20.53070159106255
 30
0.0
  0
SPLINE
  5
216
330
1F
100
AcDbEntity
  8
0
  6
Continuous
 62
     7
370
    15
100
AcDbSpline
210
0.0
220
0.0
230
1.0
 70
     8
 71
     3
 72
    10
 73
     6
 74
     0
 42
0.000000001
 43
0.00000001
 40
0.0
 40
0.0
 40
0.0
 40
0.0
 40
0.5
 40
0.5
 40
1.0
 40
1.0
 40
1.0
 40
1.0
 10
246.101754278186
 20
33.78995697021971
 30
0.0
 10
246.0452255924034
 20
33.75732365453709
 30
0.0
 10
245.9665822698287
 20
33.73695067907812
 30
0.0
 10
245.8063523554976
 20
33.73388927911677
 30
0.0
 10
245.7251853429569
 20
33.75154847899701
 30
0.0
 10
245.668071442619
 20
33.78451963185132
 30
0.0
  0
SPLINE
  5
217
330
1F
100
AcDbEntity
  8
0
  6
Continuous
 62
     7
370
    15
100
AcDbSpline
210
0.0
220
0.0
230
1.0
 70
     8
 71
     3
 72
    12
 73
     8
 74
     0
 42
0.000000001
 43
0.00000001
 40
0.0
 40
0.0
 40
0.0
 40
0.0
 40
0.250000000000002
 40
0.250000000000002
 40
0.500000000000004
 40
0.500000000000004
 40
1.0
 40
1.0
 40
1.0
 40
1.0
 10
263.3587933489638
 20
50.30848151010643
 30
0.0
 10
263.3906976773086
 20
50.29006353339066
 30
0.0
 10
263.4228350137495
 20
50.26014899275861
 30
0.0
 10
263.4774933201757
 20
50.18975157281569
 30
0.0
 10
263.5004666595061
 20
50.14937087613987
 30
0.0
 10
263.5541484484438
 20
50.02684704610449
 30
0.0
 10
263.5709253833198
 20
49.94204572449881
 30
0.0
 10
263.5709253833198
 20
49.8684931288652
 30
0.0
  0
LINE
  5
218
330
1F
100
AcDbEntity
  8
0
  6
Continuous
 62
     7
370
    15
100
AcDbLine
 10
245.6680714426
 20
33.7845196319
 30
0.0
 11
244.268683375
 21
34.5923691677
 31
0.0
  0
LWPOLYLINE
  5
219
330
1F
100
AcDbEntity
  8
0
  6
Continuous
 62
     7
370
    15
100
AcDbPolyline
 90
       24
 70
   128
 43
0.0
 10
244.268683375
 20
34.5923691677
 10
244.5787415083
 20
35.8084707569
 10
244.9642226377
 20
37.0338207889
 10
245.4223210909
 20
38.2595007189
 10
245.9497026601
 20
39.4765896011
 10
246.5425288698
 20
40.6762290182
 10
247.1964849144
 20
41.8496875568
 10
247.9068110631
 20
42.9884243572
 10
248.668337303
 20
44.0841512774
 10
249.475520968
 20
45.1288932168
 10
250.3224870809
 20
46.1150461624
 10
251.2030711131
 20
47.0354325329
 10
252.1108638526
 20
47.8833534205
 10
253.0392580525
 20
48.6526373475
 10
253.981496521
 20
49.3376851845
 10
254.9307213025
 20
49.9335109034
 10
255.8800235925
 20
50.4357778672
 10
256.8224940226
 20
50.8408303934
 10
257.7512729489
 20
51.1457203621
 10
258.6596003793
 20
51.3482286727
 10
259.5408651753
 20
51.4468813958
 10
260.3886531701
 20
51.4409605008
 10
261.196793853
 20
51.3305090823
 10
261.9594052813
 20
51.116331046
  0
LINE
  5
21A
330
1F
100
AcDbEntity
  8
0
  6
Continuous
 62
     7
370
    15
100
AcDbLine
 10
261.9594052813
 20
51.116331046
 30
0.0
 11
263.358793349
 21
50.3084815101
 31
0.0
  0
LINE
  5
21B
330
1F
100
AcDbEntity
  8
0
  6
Continuous
 62
     7
370
    15
100
AcDbLine
 10
247.2190810684
 20
33.071511527
 30
0.0
 11
247.2190810684
 21
34.4349759966
 31
0.0
  0
LINE
  5
21C
330
1F
100
AcDbEntity
  8
0
  6
Continuous
 62
     7
370
    15
100
AcDbLine
 10
247.2190810684
 20
34.4349759966
 30
0.0
 11
246.1017542782
 21
33.7899569702
 31
0.0
  0
LINE
  5
21D
330
1F
100
AcDbEntity
  8
0
  6
Continuous
 62
     7
370
    15
100
AcDbLine
 10
263.5709253833
 20
49.8684931289
 30
0.0
 11
263.5709253833
 21
48.304428694
 31
0.0
  0
LINE
  5
21E
330
1F
100
AcDbEntity
  8
0
  6
Continuous
 62
     7
370
    15
100
AcDbLine
 10
264.9253715445
 20
49.0863338195
 30
0.0
 11
263.5709253833
 21
48.304428694
 31
0.0
  0
SPLINE
  5
21F
330
1F
100
AcDbEntity
  8
0
  6
Continuous
 62
     7
370
    15
100
AcDbSpline
210
0.0
220
0.0
230
1.0
 70
     8
 71
     3
 72
    20
 73
    16
 74
     0
 42
0.000000001
 43
0.00000001
 40
0.0
 40
0.0
 40
0.0
 40
0.0
 40
0.25
 40
0.25
 40
0.375
 40
0.375
 40
0.4375000000000001
 40
0.4375000000000001
 40
0.4687500000000001
 40
0.4687500000000001
 40
0.5
 40
0.5
 40
0.75
 40
0.75
 40
1.0
 40
1.0
 40
1.0
 40
1.0
 10
247.2190810683809
 20
28.44957315923202
 30
0.0
 10
247.2190810683809
 20
28.84195533575255
 30
0.0
 10
247.2395268476909
 20
29.22213197021856
 30
0.0
 10
247.2667004234104
 20
29.79448339203672
 30
0.0
 10
247.2752808032043
 20
29.98555224040432
 30
0.0
 10
247.2841371809481
 20
30.27455187006601
 30
0.0
 10
247.2864289878706
 20
30.37127927139516
 30
0.0
 10
247.2886232215581
 20
30.51711269320362
 30
0.0
 10
247.2891489633867
 20
30.56584661252182
 30
0.0
 10
247.2897686958852
 20
30.6635721941791
 30
0.0
 10
247.2898578039333
 20
30.71281724718949
 30
0.0
 10
247.2888191980164
 20
31.13947993907222
 30
0.0
 10
247.2733059577444
 20
31.52673628545492
 30
0.0
 10
247.238168478822
 20
32.30341854815655
 30
0.0
 10
247.2190810683809
 20
32.69257240477434
 30
0.0
 10
247.2190810683809
 20
33.07151152696263
 30
0.0
  0
SPLINE
  5
220
330
1F
100
AcDbEntity
  8
0
  6
Continuous
 62
     7
370
    15
100
AcDbSpline
210
0.0
220
0.0
230
1.0
 70
     8
 71
     3
 72
    10
 73
     6
 74
     0
 42
0.000000001
 43
0.00000001
 40
0.0
 40
0.0
 40
0.0
 40
0.0
 40
0.5
 40
0.5
 40
1.0
 40
1.0
 40
1.0
 40
1.0
 10
277.3653217653134
 20
27.08213443651583
 30
0.0
 10
277.3997600064466
 20
27.06225366308378
 30
0.0
 10
277.4419177569488
 20
27.0536873996784
 30
0.0
 10
277.529539447802
 20
27.05441262341234
 30
0.0
 10
277.5754643851488
 20
27.06331016723787
 30
0.0
 10
277.6198831713514
 20
27.07684686328815
 30
0.0
  0
SPLINE
  5
221
330
1F
100
AcDbEntity
  8
0
  6
Continuous
 62
     7
370
    15
100
AcDbSpline
210
0.0
220
0.0
230
1.0
 70
     8
 71
     3
 72
    16
 73
    12
 74
     0
 42
0.000000001
 43
0.00000001
 40
0.0
 40
0.0
 40
0.0
 40
0.0
 40
0.2500000000000153
 40
0.2500000000000153
 40
0.3750000000000114
 40
0.3750000000000114
 40
0.5000000000000075
 40
0.5000000000000075
 40
0.7500000000000038
 40
0.7500000000000038
 40
1.0
 40
1.0
 40
1.0
 40
1.0
 10
277.6198831713514
 20
27.07684686328817
 30
0.0
 10
277.6476078470295
 20
27.02899869519644
 30
0.0
 10
277.6851211146538
 20
26.98541794047454
 30
0.0
 10
277.7593420942812
 20
26.95176043280683
 30
0.0
 10
277.7861080992197
 20
26.94647627613726
 30
0.0
 10
277.8396359357229
 20
26.94726480982296
 30
0.0
 10
277.8662258378568
 20
26.95317540591759
 30
0.0
 10
277.941009544509
 20
26.98060894196774
 30
0.0
 10
277.9859626354468
 20
27.01146716536419
 30
0.0
 10
278.0666258534086
 20
27.08085065726949
 30
0.0
 10
278.1033412757974
 20
27.12058957782682
 30
0.0
 10
278.1368867564681
 20
27.16231983687075
 30
0.0
  0
LWPOLYLINE
  5
222
330
1F
100
AcDbEntity
  8
0
  6
Continuous
 62
     7
370
    15
100
AcDbPolyline
 90
       22
 70
   128
 43
0.0
 10
243.3449005872
 20
36.2233512017
 10
243.6598211586
 20
37.3712433103
 10
244.0465790787
 20
38.5251685938
 10
244.5022208485
 20
39.6763150355
 10
245.0232669334
 20
40.8158918393
 10
245.6057383349
 20
41.9351965614
 10
246.2451869767
 20
43.0256815668
 10
246.9367296724
 20
44.079019304
 10
247.6750854164
 20
45.0871658988
 10
248.4546157127
 20
46.0424225818
 10
249.2693676331
 20
46.9374944802
 10
250.1131192779
 20
47.765546326
 10
250.979427289
 20
48.5202546536
 10
251.8616760555
 20
49.1958560896
 10
252.7531282338
 20
49.7871913645
 10
253.6469761981
 20
50.2897447126
 10
254.536394027
 20
50.6996783563
 10
255.41458963
 20
51.0138618138
 10
256.274856616
 20
51.2298958049
 10
257.1106255065
 20
51.3461305738
 10
257.9155139043
 20
51.3616784868
 10
258.459966635
 20
51.3121827079
  0
SPLINE
  5
223
330
1F
100
AcDbEntity
  8
0
  6
Continuous
 62
     7
370
    15
100
AcDbSpline
210
0.0
220
0.0
230
1.0
 70
     8
 71
     3
 72
     8
 73
     4
 74
     0
 42
0.000000001
 43
0.00000001
 40
0.0
 40
0.0
 40
0.0
 40
0.0
 40
1.0
 40
1.0
 40
1.0
 40
1.0
 10
243.3449005872281
 20
36.22335120169799
 30
0.0
 10
242.8535995581755
 20
36.1407039814941
 30
0.0
 10
242.3620194672728
 20
36.05862019400365
 30
0.0
 10
241.8702246685209
 20
35.97696990692191
 30
0.0
  0
LWPOLYLINE
  5
224
330
1F
100
AcDbEntity
  8
0
  6
Continuous
 62
     7
370
    15
100
AcDbPolyline
 90
       24
 70
   128
 43
0.0
 10
241.8702246685
 20
35.9769699069
 10
242.1802828018
 20
37.1930714961
 10
242.5657639312
 20
38.4184215281
 10
243.0238623844
 20
39.6441014581
 10
243.5512439536
 20
40.8611903403
 10
244.1440701633
 20
42.0608297574
 10
244.7980262079
 20
43.234288296
 10
245.5083523566
 20
44.3730250964
 10
246.2698785965
 20
45.4687520165
 10
247.0770622615
 20
46.513493956
 10
247.9240283744
 20
47.4996469016
 10
248.8046124066
 20
48.4200332721
 10
249.7124051462
 20
49.2679541597
 10
250.6407993461
 20
50.0372380866
 10
251.5830378145
 20
50.7222859237
 10
252.532262596
 20
51.3181116426
 10
253.481564886
 20
51.8203786063
 10
254.4240353161
 20
52.2254311326
 10
255.3528142424
 20
52.5303211013
 10
256.2611416728
 20
52.7328294119
 10
257.1424064688
 20
52.831482135
 10
257.9901944636
 20
52.82556124
 10
258.7983351465
 20
52.7151098215
 10
259.5609465749
 20
52.5009317852
  0
LINE
  5
225
330
1F
100
AcDbEntity
  8
0
  6
Continuous
 62
     7
370
    15
100
AcDbLine
 10
259.5609465749
 20
52.5009317852
 30
0.0
 11
259.898889886
 21
51.4090817321
 31
0.0
  0
LINE
  5
226
330
1F
100
AcDbEntity
  8
0
  6
Continuous
 62
     7
370
    15
100
AcDbLine
 10
256.1463041809
 20
54.4721628804
 30
0.0
 11
259.5609465749
 21
52.5009317852
 31
0.0
  0
LINE
  5
227
330
1F
100
AcDbEntity
  8
0
  6
Continuous
 62
     7
370
    15
100
AcDbLine
 10
241.8702246685
 20
35.9769699069
 30
0.0
 11
241.2840093993
 21
36.3153847785
 31
0.0
  0
SPLINE
  5
228
330
1F
100
AcDbEntity
  8
0
  6
Continuous
 62
     7
370
    15
100
AcDbSpline
210
0.0
220
0.0
230
1.0
 70
     8
 71
     3
 72
    28
 73
    24
 74
     0
 42
0.000000001
 43
0.00000001
 40
0.0
 40
0.0
 40
0.0
 40
0.0
 40
0.1249999999999999
 40
0.1249999999999999
 40
0.1874999999999998
 40
0.1874999999999998
 40
0.2499999999999997
 40
0.2499999999999997
 40
0.3749999999999993
 40
0.3749999999999993
 40
0.4374999999999993
 40
0.4374999999999993
 40
0.4999999999999992
 40
0.4999999999999992
 40
0.6249999999999992
 40
0.6249999999999992
 40
0.7499999999999992
 40
0.7499999999999992
 40
0.8124999999999993
 40
0.8124999999999993
 40
0.8749999999999996
 40
0.8749999999999996
 40
1.0
 40
1.0
 40
1.0
 40
1.0
 10
241.2840093992625
 20
36.31538477850173
 30
0.0
 10
241.0960223187961
 20
36.4239074100858
 30
0.0
 10
240.9058023641954
 20
36.50585113063371
 30
0.0
 10
240.6177037622474
 20
36.59100886067218
 30
0.0
 10
240.5212138916478
 20
36.61305879107597
 30
0.0
 10
240.3274757188129
 20
36.64433261453493
 30
0.0
 10
240.2302246982816
 20
36.65345986585837
 30
0.0
 10
239.9442028233962
 20
36.66124270796676
 30
0.0
 10
239.7588610070397
 20
36.64093616432969
 30
0.0
 10
239.4903484202238
 20
36.57371551119656
 30
0.0
 10
239.4019877605581
 20
36.54492915359097
 30
0.0
 10
239.2316350502684
 20
36.47591726349582
 30
0.0
 10
239.149608020487
 20
36.43577737358569
 30
0.0
 10
238.9131717667343
 20
36.29915760582247
 30
0.0
 10
238.768304516612
 20
36.1866431161334
 30
0.0
 10
238.5074477231279
 20
35.91838615113394
 30
0.0
 10
238.3951553156255
 20
35.76623276475666
 30
0.0
 10
238.2559308341717
 20
35.51431637705835
 30
0.0
 10
238.2143350478059
 20
35.42627409138198
 30
0.0
 10
238.1412103327447
 20
35.24193303633015
 30
0.0
 10
238.1095858486918
 20
35.14514427364837
 30
0.0
 10
238.0320925452696
 20
34.84712919475156
 30
0.0
 10
238.0029178298797
 20
34.63765631761503
 30
0.0
 10
237.996950947138
 20
34.41727552493116
 30
0.0
  0
ARC
  5
229
330
1F
100
AcDbEntity
  8
0
  6
Continuous
 62
     7
370
    15
100
AcDbCircle
 10
252.8403174095
 20
34.009005119
 30
0.0
 40
14.84898018921135
100
AcDbArc
 50
178.4244628824
 51
181.5755371176
  0
SPLINE
  5
22A
330
1F
100
AcDbEntity
  8
0
  6
Continuous
 62
     7
370
    15
100
AcDbSpline
210
0.0
220
0.0
230
1.0
 70
     8
 71
     3
 72
    30
 73
    26
 74
     0
 42
0.000000001
 43
0.00000001
 40
0.0
 40
0.0
 40
0.0
 40
0.0
 40
0.1250000000000001
 40
0.1250000000000001
 40
0.1875000000000002
 40
0.1875000000000002
 40
0.2500000000000003
 40
0.2500000000000003
 40
0.3750000000000004
 40
0.3750000000000004
 40
0.4375000000000004
 40
0.4375000000000004
 40
0.5000000000000004
 40
0.5000000000000004
 40
0.6250000000000007
 40
0.6250000000000007
 40
0.6875000000000006
 40
0.6875000000000006
 40
0.7500000000000004
 40
0.7500000000000004
 40
0.8125000000000004
 40
0.8125000000000004
 40
0.8750000000000003
 40
0.8750000000000003
 40
1.0
 40
1.0
 40
1.0
 40
1.0
 10
237.996950947138
 20
33.60073471304542
 30
0.0
 10
238.0029185458295
 20
33.3872175202707
 30
0.0
 10
238.0320637658289
 20
33.16966762225157
 30
0.0
 10
238.1084984270878
 20
32.83736859271598
 30
0.0
 10
238.1394644106651
 20
32.72559429141641
 30
0.0
 10
238.2124343514808
 20
32.49989241788141
 30
0.0
 10
238.2545705500393
 20
32.3858046453089
 30
0.0
 10
238.3944623394038
 20
32.04764191794772
 30
0.0
 10
238.506306263946
 20
31.82513169867494
 30
0.0
 10
238.7000928610906
 20
31.49452144272538
 30
0.0
 10
238.7694334986939
 20
31.38429480301923
 30
0.0
 10
238.9149258831406
 20
31.16756480256568
 30
0.0
 10
238.9908131738596
 20
31.06136786693497
 30
0.0
 10
239.227201122331
 20
30.74872969368536
 30
0.0
 10
239.3963466245819
 20
30.54818714585019
 30
0.0
 10
239.6662126219159
 20
30.25808230642786
 30
0.0
 10
239.7584041279668
 20
30.1637388900554
 30
0.0
 10
239.9440027230015
 20
29.98243386199501
 30
0.0
 10
240.0378316032884
 20
29.89501452850085
 30
0.0
 10
240.2272816537537
 20
29.7264069781762
 30
0.0
 10
240.3229030689594
 20
29.64521879240686
 30
0.0
 10
240.5157647583858
 20
29.48905611285872
 30
0.0
 10
240.6134996672842
 20
29.41372913316201
 30
0.0
 10
240.9047556224046
 20
29.20043889971818
 30
0.0
 10
241.0960130133777
 20
29.07504547501775
 30
0.0
 10
241.2840093992625
 20
28.96651747152998
 30
0.0
  0
LINE
  5
22B
330
1F
100
AcDbEntity
  8
0
  6
Continuous
 62
     7
370
    15
100
AcDbLine
 10
241.2840093993
 20
28.9665174715
 30
0.0
 11
241.8702246685
 21
28.6281026
 31
0.0
  0
ARC
  5
22C
330
1F
100
AcDbEntity
  8
0
  6
Continuous
 62
     7
370
    15
100
AcDbCircle
 10
247.6849583561
 20
30.0132573519
 30
0.0
 40
5.977439380251601
100
AcDbArc
 50
193.398972344
 51
253.2231990126
  0
LINE
  5
22D
330
1F
100
AcDbEntity
  8
0
  6
Continuous
 62
     7
370
    15
100
AcDbLine
 10
261.1903644312
 20
51.5599830922
 30
0.0
 11
261.5246768349
 21
51.252654982
 31
0.0
  0
LINE
  5
22E
330
1F
100
AcDbEntity
  8
0
  6
Continuous
 62
     7
370
    15
100
AcDbLine
 10
260.3374356774
 20
52.052368381
 30
0.0
 11
261.1903644312
 21
51.5599830922
 31
0.0
  0
SPLINE
  5
22F
330
1F
100
AcDbEntity
  8
0
  6
Continuous
 62
     7
370
    15
100
AcDbSpline
210
0.0
220
0.0
230
1.0
 70
     8
 71
     3
 72
    20
 73
    16
 74
     0
 42
0.000000001
 43
0.00000001
 40
0.0
 40
0.0
 40
0.0
 40
0.0
 40
0.2499999999999995
 40
0.2499999999999995
 40
0.3749999999999996
 40
0.3749999999999996
 40
0.4999999999999997
 40
0.4999999999999997
 40
0.6249999999999998
 40
0.6249999999999998
 40
0.7499999999999998
 40
0.7499999999999998
 40
0.8749999999999999
 40
0.8749999999999999
 40
1.0
 40
1.0
 40
1.0
 40
1.0
 10
256.1463041808611
 20
54.47216288040217
 30
0.0
 10
256.465292835259
 20
54.33827249114237
 30
0.0
 10
256.791748435357
 20
54.17837614408039
 30
0.0
 10
257.3040985527401
 20
53.90045721661087
 30
0.0
 10
257.478701919418
 20
53.80145820380057
 30
0.0
 10
257.8385757817668
 20
53.59051749890187
 30
0.0
 10
258.0214361981203
 20
53.47996168169182
 30
0.0
 10
258.3877312872976
 20
53.25454381268099
 30
0.0
 10
258.5722148035562
 20
53.13906321130153
 30
0.0
 10
258.9457996277917
 20
52.90423086700577
 30
0.0
 10
259.130149099031
 20
52.7879009417305
 30
0.0
 10
259.4908590055074
 20
52.56220625493112
 30
0.0
 10
259.6679129947612
 20
52.45239628083443
 30
0.0
 10
260.0156423461136
 20
52.24100151729854
 30
0.0
 10
260.1808927625719
 20
52.1427386821555
 30
0.0
 10
260.3374356773533
 20
52.05236838103814
 30
0.0
  0
LWPOLYLINE
  5
230
330
1F
100
AcDbEntity
  8
0
  6
Continuous
 62
     7
370
    15
100
AcDbPolyline
 90
       12
 70
   128
 43
0.0
 10
247.2225735823
 20
54.0899599803
 10
247.4842461113
 20
54.2445706854
 10
248.4039266502
 20
54.7315657711
 10
249.3173248385
 20
55.1273838097
 10
250.2182012404
 20
55.4293209626
 10
251.1004019566
 20
55.635314693
 10
251.9579006615
 20
55.7439578546
 10
252.7848397697
 20
55.7545083047
 10
253.5755704485
 20
55.6668939729
 10
254.3246912055
 20
55.481713354
 10
255.0270847864
 20
55.2002314192
 10
255.3586061308
 20
55.0243224807
  0
LWPOLYLINE
  5
231
330
1F
100
AcDbEntity
  8
0
  6
Continuous
 62
     7
370
    15
100
AcDbPolyline
 90
       11
 70
   128
 43
0.0
 10
239.6098860918
 20
27.7437833157
 10
239.2905390918
 20
27.9437348206
 10
238.6956420747
 20
28.4114062648
 10
238.1607801346
 20
28.9676940396
 10
237.689606921
 20
29.6087981354
 10
237.2853410247
 20
30.3303391612
 10
236.9507439918
 20
31.1273882601
 10
236.6881014591
 20
31.9945007787
 10
236.4992075415
 20
32.9257534591
 10
236.3853525761
 20
33.9147849013
 10
236.3520048916
 20
34.5843324323
  0
LINE
  5
232
330
1F
100
AcDbEntity
  8
0
  6
Continuous
 62
     7
370
    15
100
AcDbLine
 10
244.4795151421
 20
35.4490924333
 30
0.0
 11
244.0158873496
 21
35.7167390609
 31
0.0
  0
LINE
  5
233
330
1F
100
AcDbEntity
  8
0
  6
Continuous
 62
     7
370
    15
100
AcDbLine
 10
243.5900691916
 20
36.3648840244
 30
0.0
 11
243.3449005872
 21
36.2233512017
 31
0.0
  0
SPLINE
  5
234
330
1F
100
AcDbEntity
  8
0
  6
Continuous
 62
     7
370
    15
100
AcDbSpline
210
0.0
220
0.0
230
1.0
 70
     8
 71
     3
 72
    14
 73
    10
 74
     0
 42
0.000000001
 43
0.00000001
 40
0.0
 40
0.0
 40
0.0
 40
0.0
 40
0.1250000000000012
 40
0.1250000000000012
 40
0.2500000000000024
 40
0.2500000000000024
 40
0.5000000000000013
 40
0.5000000000000013
 40
1.0
 40
1.0
 40
1.0
 40
1.0
 10
244.0158873496058
 20
35.716739060876
 30
0.0
 10
243.9916909164407
 20
35.73070736441855
 30
0.0
 10
243.9685154779818
 20
35.75807254041609
 30
0.0
 10
243.9315950855508
 20
35.81587430954163
 30
0.0
 10
243.9165532945182
 20
35.84684478865797
 30
0.0
 10
243.8767398379313
 20
35.9398712615872
 30
0.0
 10
243.8571038195473
 20
36.00248231587192
 30
0.0
 10
243.8066829710778
 20
36.18681306678691
 30
0.0
 10
243.7842657928372
 20
36.30835730168764
 30
0.0
 10
243.7675778946713
 20
36.42748636699
 30
0.0
  0
SPLINE
  5
235
330
1F
100
AcDbEntity
  8
0
  6
Continuous
 62
     7
370
    15
100
AcDbSpline
210
0.0
220
0.0
230
1.0
 70
     8
 71
     3
 72
    10
 73
     6
 74
     0
 42
0.000000001
 43
0.00000001
 40
0.0
 40
0.0
 40
0.0
 40
0.0
 40
0.5
 40
0.5
 40
1.0
 40
1.0
 40
1.0
 40
1.0
 10
243.7675778946713
 20
36.42748636699
 30
0.0
 10
243.7341878764835
 20
36.42133659778976
 30
0.0
 10
243.7019485250555
 20
36.41278998994169
 30
0.0
 10
243.6419606307931
 20
36.3915540161728
 30
0.0
 10
243.6146987575441
 20
36.37910237016461
 30
0.0
 10
243.5900691915943
 20
36.36488402438776
 30
0.0
  0
SPLINE
  5
236
330
1F
100
AcDbEntity
  8
0
  6
Continuous
 62
     7
370
    15
100
AcDbSpline
210
0.0
220
0.0
230
1.0
 70
     8
 71
     3
 72
    32
 73
    28
 74
     0
 42
0.000000001
 43
0.00000001
 40
0.0
 40
0.0
 40
0.0
 40
0.0
 40
0.1249999999999998
 40
0.1249999999999998
 40
0.1874999999999998
 40
0.1874999999999998
 40
0.2499999999999998
 40
0.2499999999999998
 40
0.3749999999999997
 40
0.3749999999999997
 40
0.4374999999999997
 40
0.4374999999999997
 40
0.4999999999999998
 40
0.4999999999999998
 40
0.6249999999999998
 40
0.6249999999999998
 40
0.6874999999999999
 40
0.6874999999999999
 40
0.7499999999999999
 40
0.7499999999999999
 40
0.8124999999999999
 40
0.8124999999999999
 40
0.8749999999999999
 40
0.8749999999999999
 40
0.9375
 40
0.9375
 40
1.0
 40
1.0
 40
1.0
 40
1.0
 10
280.0465133849261
 20
30.0955517794341
 30
0.0
 10
280.1867327720042
 20
30.26998336391853
 30
0.0
 10
280.3135692335715
 20
30.45575510654444
 30
0.0
 10
280.4824488652798
 20
30.75205056494013
 30
0.0
 10
280.5351663766498
 20
30.85414975677444
 30
0.0
 10
280.6305980631053
 20
31.05850658913972
 30
0.0
 10
280.6737095404095
 20
31.16145402009267
 30
0.0
 10
280.7893484687237
 20
31.47259266338426
 30
0.0
 10
280.8482723648457
 20
31.68540586474
 30
0.0
 10
280.9050124236536
 20
31.99136262386144
 30
0.0
 10
280.9189174333035
 20
32.09175080733956
 30
0.0
 10
280.9368105594449
 20
32.28917499804054
 30
0.0
 10
280.9407759004679
 20
32.38681421690971
 30
0.0
 10
280.9375640012301
 20
32.66678984021511
 30
0.0
 10
280.9159565259389
 20
32.8381366345003
 30
0.0
 10
280.8547955472941
 20
33.07131904965775
 30
0.0
 10
280.8297936495013
 20
33.1440695278664
 30
0.0
 10
280.7713474739997
 20
33.27774172588918
 30
0.0
 10
280.7377433244433
 20
33.33909403934417
 30
0.0
 10
280.6612119171482
 20
33.45110428814467
 30
0.0
 10
280.6179649684955
 20
33.50204509263277
 30
0.0
 10
280.5249621905985
 20
33.59011688651452
 30
0.0
 10
280.4757554965691
 20
33.6270480166697
 30
0.0
 10
280.3702318166459
 20
33.68815263887096
 30
0.0
 10
280.313711490102
 20
33.7124453443363
 30
0.0
 10
280.189547690959
 20
33.75010270971029
 30
0.0
 10
280.1219097195897
 20
33.76337041832285
 30
0.0
 10
280.0484214171502
 20
33.77160474474019
 30
0.0
  0
SPLINE
  5
237
330
1F
100
AcDbEntity
  8
0
  6
Continuous
 62
     7
370
    15
100
AcDbSpline
210
0.0
220
0.0
230
1.0
 70
     8
 71
     3
 72
    14
 73
    10
 74
     0
 42
0.000000001
 43
0.00000001
 40
0.0
 40
0.0
 40
0.0
 40
0.0
 40
0.25
 40
0.25
 40
0.5
 40
0.5
 40
0.75
 40
0.75
 40
1.0
 40
1.0
 40
1.0
 40
1.0
 10
280.0484214171502
 20
33.77160474474005
 30
0.0
 10
279.8364305443142
 20
33.79535821279527
 30
0.0
 10
279.6402524281025
 20
33.80995002625215
 30
0.0
 10
279.2403057040477
 20
33.8435213554106
 30
0.0
 10
279.0376835835874
 20
33.8618291589742
 30
0.0
 10
278.6315499176079
 20
33.89896250806473
 30
0.0
 10
278.4283492558086
 20
33.91760654197331
 30
0.0
 10
278.0238363235081
 20
33.95380351607105
 30
0.0
 10
277.8220133347771
 20
33.97165166019398
 30
0.0
 10
277.6198560370175
 20
33.98969278961566
 30
0.0
  0
LWPOLYLINE
  5
238
330
1F
100
AcDbEntity
  8
0
  6
Continuous
 62
     7
370
    15
100
AcDbPolyline
 90
       20
 70
   128
 43
0.0
 10
236.4791599109
 20
37.1169718615
 10
236.5017901432
 20
37.2907836464
 10
236.6938692407
 20
38.4451830398
 10
236.9608911021
 20
39.6206259824
 10
237.300982761
 20
40.8088675866
 10
237.7117587188
 20
42.0015731911
 10
238.1903376771
 20
43.1903768233
 10
238.7333627486
 20
44.3669398796
 10
239.3370250025
 20
45.5230096157
 10
239.9970901818
 20
46.650477033
 10
240.7089284035
 20
47.7414337576
 10
241.4675466339
 20
48.788227512
 10
242.2676237113
 20
49.7835157901
 10
243.1035476698
 20
50.7203173598
 10
243.9694551034
 20
51.592061231
 10
244.8592722937
 20
52.392632747
 10
245.7667578124
 20
53.1164164737
 10
246.6855463006
 20
53.7583355883
 10
247.6091931171
 20
54.3138874896
 10
248.3449671777
 20
54.6924169491
  0
LINE
  5
239
330
1F
100
AcDbEntity
  8
0
  6
Continuous
 62
     7
370
    15
100
AcDbLine
 10
245.0490853317
 20
28.3388205637
 30
0.0
 11
247.2190810684
 21
27.0861086896
 31
0.0
  0
SPLINE
  5
23A
330
1F
100
AcDbEntity
  8
0
  6
Continuous
 62
     7
370
    15
100
AcDbSpline
210
0.0
220
0.0
230
1.0
 70
     8
 71
     3
 72
    14
 73
    10
 74
     0
 42
0.000000001
 43
0.00000001
 40
0.0
 40
0.0
 40
0.0
 40
0.0
 40
0.1249999999999983
 40
0.1249999999999983
 40
0.2499999999999966
 40
0.2499999999999966
 40
0.4999999999999968
 40
0.4999999999999968
 40
1.0
 40
1.0
 40
1.0
 40
1.0
 10
244.8007758767229
 20
29.0495678698141
 30
0.0
 10
244.8252052253667
 20
29.03546510702779
 30
0.0
 10
244.8481837794328
 20
29.00818297716812
 30
0.0
 10
244.8850668929245
 20
28.95042957366161
 30
0.0
 10
244.9001920392414
 20
28.91928199199101
 30
0.0
 10
244.9399093997006
 20
28.82644489043503
 30
0.0
 10
244.9593715175897
 20
28.76449442061827
 30
0.0
 10
245.0102396387837
 20
28.57857971512076
 30
0.0
 10
245.0325238661989
 20
28.45704707014748
 30
0.0
 10
245.0490853316574
 20
28.33882056369993
 30
0.0
  0
LINE
  5
23B
330
1F
100
AcDbEntity
  8
0
  6
Continuous
 62
     7
370
    15
100
AcDbLine
 10
244.0158873496
 20
29.5026743719
 30
0.0
 11
244.8007758767
 21
29.0495678698
 31
0.0
  0
SPLINE
  5
23C
330
1F
100
AcDbEntity
  8
0
  6
Continuous
 62
     7
370
    15
100
AcDbSpline
210
0.0
220
0.0
230
1.0
 70
     8
 71
     3
 72
    14
 73
    10
 74
     0
 42
0.000000001
 43
0.00000001
 40
0.0
 40
0.0
 40
0.0
 40
0.0
 40
0.5
 40
0.5
 40
0.75
 40
0.75
 40
0.875
 40
0.875
 40
1.0
 40
1.0
 40
1.0
 40
1.0
 10
243.7675778946713
 20
29.078619060018
 30
0.0
 10
243.784201976125
 20
29.17809880424812
 30
0.0
 10
243.8066193777294
 20
29.27393393764412
 30
0.0
 10
243.857050435578
 20
29.40014988721775
 30
0.0
 10
243.8765851295093
 20
29.43998343591201
 30
0.0
 10
243.9165282868447
 20
29.48724376738386
 30
0.0
 10
243.9315452540103
 20
29.50084638098912
 30
0.0
 10
243.968606621532
 20
29.51606678256483
 30
0.0
 10
243.9915902838804
 20
29.5167007693587
 30
0.0
 10
244.0158873496058
 20
29.50267437187567
 30
0.0
  0
LINE
  5
23D
330
1F
100
AcDbEntity
  8
0
  6
Continuous
 62
     7
370
    15
100
AcDbLine
 10
242.6228869907
 20
29.739435053
 30
0.0
 11
243.7675778947
 21
29.07861906
 31
0.0
  0
ARC
  5
23E
330
1F
100
AcDbEntity
  8
0
  6
Continuous
 62
     7
370
    15
100
AcDbCircle
 10
245.9093517805
 20
34.9028627086
 30
0.0
 40
6.120607483709517
100
AcDbArc
 50
182.476303705
 51
237.5236964406
  0
LINE
  5
23F
330
1F
100
AcDbEntity
  8
0
  6
Continuous
 62
     7
370
    15
100
AcDbLine
 10
239.7944598659
 20
35.4549553361
 30
0.0
 11
239.7944598659
 21
34.6384145242
 31
0.0
  0
ARC
  5
240
330
1F
100
AcDbEntity
  8
0
  6
Continuous
 62
     7
370
    15
100
AcDbCircle
 10
242.3712909758
 20
35.5409439802
 30
0.0
 40
2.578265427742858
100
AcDbArc
 50
153.7527291662
 51
181.9112462779
  0
LINE
  5
241
330
1F
100
AcDbEntity
  8
0
  6
Continuous
 62
     7
370
    15
100
AcDbLine
 10
247.2190810684
 20
27.0861086896
 30
0.0
 11
247.2190810684
 21
28.4495731592
 31
0.0
  0
ARC
  5
242
330
1F
100
AcDbEntity
  8
0
  6
Continuous
 62
     7
370
    15
100
AcDbCircle
 10
271.1635213701
 20
36.0083849656
 30
0.0
 40
4.132931285713813
100
AcDbArc
 50
320.5373067048
 51
350.4934488753
  0
LINE
  5
243
330
1F
100
AcDbEntity
  8
0
  6
Continuous
 62
     7
370
    15
100
AcDbLine
 10
246.1017542782
 20
26.4410896632
 30
0.0
 11
247.2190810684
 21
27.0861086896
 31
0.0
  0
LINE
  5
244
330
1F
100
AcDbEntity
  8
0
  6
Continuous
 62
     7
370
    15
100
AcDbLine
 10
277.6198831714
 20
27.0768468633
 30
0.0
 11
280.0465133849
 21
30.0955517794
 31
0.0
  0
LINE
  5
245
330
1F
100
AcDbEntity
  8
0
  6
Continuous
 62
     7
370
    15
100
AcDbLine
 10
271.849888872
 20
30.2661260726
 30
0.0
 11
274.3543037964
 21
33.3815944295
 31
0.0
  0
ARC
  5
246
330
1F
100
AcDbEntity
  8
0
  6
Continuous
 62
     7
370
    15
100
AcDbCircle
 10
251.2118701075
 20
27.3867272214
 30
0.0
 40
5.486153194654072
100
AcDbArc
 50
213.6779467318
 51
266.3723690769
  0
SPLINE
  5
247
330
1F
100
AcDbEntity
  8
0
  6
Continuous
 62
     7
370
    15
100
AcDbSpline
210
0.0
220
0.0
230
1.0
 70
     8
 71
     3
 72
    12
 73
     8
 74
     0
 42
0.000000001
 43
0.00000001
 40
0.0
 40
0.0
 40
0.0
 40
0.0
 40
0.2499999999999999
 40
0.2499999999999999
 40
0.4999999999999998
 40
0.4999999999999998
 40
1.0
 40
1.0
 40
1.0
 40
1.0
 10
245.6680714426191
 20
26.43565232487958
 30
0.0
 10
245.6963136426914
 20
26.41934844981555
 30
0.0
 10
245.7308597745969
 20
26.40639265640555
 30
0.0
 10
245.8055838342945
 20
26.38968091821302
 30
0.0
 10
245.8458742255962
 20
26.38579400942556
 30
0.0
 10
245.9669872430325
 20
26.38805740731485
 30
0.0
 10
246.0451048054504
 20
26.40838661874159
 30
0.0
 10
246.101754278186
 20
26.44108966324794
 30
0.0
  0
ARC
  5
248
330
1F
100
AcDbEntity
  8
0
  6
Continuous
 62
     7
370
    15
100
AcDbCircle
 10
250.4398945958
 20
28.8510625533
 30
0.0
 40
6.377154483897765
100
AcDbArc
 50
194.6007005451
 51
238.0687621634
  0
LINE
  5
249
330
1F
100
AcDbEntity
  8
0
  6
Continuous
 62
     7
370
    15
100
AcDbLine
 10
244.268683375
 20
27.2435018608
 30
0.0
 11
245.6680714426
 21
26.4356523249
 31
0.0
  0
SPLINE
  5
24A
330
1F
100
AcDbEntity
  8
0
  6
Continuous
 62
     7
370
    15
100
AcDbSpline
210
0.0
220
0.0
230
1.0
 70
     8
 71
     3
 72
     8
 73
     4
 74
     0
 42
0.000000001
 43
0.00000001
 40
0.0
 40
0.0
 40
0.0
 40
0.0
 40
1.0
 40
1.0
 40
1.0
 40
1.0
 10
244.6954745392944
 20
28.09481414793555
 30
0.0
 10
244.5523098426038
 20
27.81119210092854
 30
0.0
 10
244.4101211457513
 20
27.52740895494453
 30
0.0
 10
244.2686833749961
 20
27.24350186075744
 30
0.0
  0
LINE
  5
24B
330
1F
100
AcDbEntity
  8
0
  6
Continuous
 62
     7
370
    15
100
AcDbLine
 10
244.9406431437
 20
28.2363469706
 30
0.0
 11
244.6954745393
 21
28.0948141479
 31
0.0
  0
SPLINE
  5
24C
330
1F
100
AcDbEntity
  8
0
  6
Continuous
 62
     7
370
    15
100
AcDbSpline
210
0.0
220
0.0
230
1.0
 70
     8
 71
     3
 72
    10
 73
     6
 74
     0
 42
0.000000001
 43
0.00000001
 40
0.0
 40
0.0
 40
0.0
 40
0.0
 40
0.5
 40
0.5
 40
1.0
 40
1.0
 40
1.0
 40
1.0
 10
245.0490853316574
 20
28.33882056369993
 30
0.0
 10
245.0384324646874
 20
28.31954491649381
 30
0.0
 10
245.0236277015353
 20
28.30093353506876
 30
0.0
 10
244.9868419302044
 20
28.26630326083723
 30
0.0
 10
244.9652727096104
 20
28.25056531640213
 30
0.0
 10
244.9406431436605
 20
28.23634697062527
 30
0.0
  0
SPLINE
  5
24D
330
1F
100
AcDbEntity
  8
0
  6
Continuous
 62
     7
370
    15
100
AcDbSpline
210
0.0
220
0.0
230
1.0
 70
     8
 71
     3
 72
    14
 73
    10
 74
     0
 42
0.000000001
 43
0.00000001
 40
0.0
 40
0.0
 40
0.0
 40
0.0
 40
0.5000000000000002
 40
0.5000000000000002
 40
0.7500000000000002
 40
0.7500000000000002
 40
0.8750000000000001
 40
0.8750000000000001
 40
1.0
 40
1.0
 40
1.0
 40
1.0
 10
229.1277760749787
 20
39.73387991083675
 30
0.0
 10
229.4429420188185
 20
39.50679191994089
 30
0.0
 10
229.7592176740845
 20
39.27694554489275
 30
0.0
 10
230.2380421626555
 20
38.92163694290364
 30
0.0
 10
230.3983621730796
 20
38.8014986287081
 30
0.0
 10
230.6414147090333
 20
38.61522979446428
 30
0.0
 10
230.7228581470499
 20
38.55213655323728
 30
0.0
 10
230.8875195960833
 20
38.42179131082514
 30
0.0
 10
230.9704256141495
 20
38.35526686884789
 30
0.0
 10
231.0564444422342
 20
38.28147339752434
 30
0.0
  0
SPLINE
  5
24E
330
1F
100
AcDbEntity
  8
0
  6
Continuous
 62
     7
370
    15
100
AcDbSpline
210
0.0
220
0.0
230
1.0
 70
     8
 71
     3
 72
     8
 73
     4
 74
     0
 42
0.000000001
 43
0.00000001
 40
0.0
 40
0.0
 40
0.0
 40
0.0
 40
1.0
 40
1.0
 40
1.0
 40
1.0
 10
231.0564444422342
 20
38.28147339752433
 30
0.0
 10
231.3580969154717
 20
38.0226930394425
 30
0.0
 10
231.6633764589951
 20
37.77511802403783
 30
0.0
 10
231.9680360321218
 20
37.53414516747131
 30
0.0
  0
SPLINE
  5
24F
330
1F
100
AcDbEntity
  8
0
  6
Continuous
 62
     7
370
    15
100
AcDbSpline
210
0.0
220
0.0
230
1.0
 70
     8
 71
     3
 72
    14
 73
    10
 74
     0
 42
0.000000001
 43
0.00000001
 40
0.0
 40
0.0
 40
0.0
 40
0.0
 40
0.1250000000000022
 40
0.1250000000000022
 40
0.2500000000000044
 40
0.2500000000000044
 40
0.500000000000003
 40
0.500000000000003
 40
1.0
 40
1.0
 40
1.0
 40
1.0
 10
231.9680360321219
 20
37.53414516747125
 30
0.0
 10
231.9872314080474
 20
37.51896243573506
 30
0.0
 10
232.0048434814478
 20
37.50759461723828
 30
0.0
 10
232.030688411367
 20
37.49632614802582
 30
0.0
 10
232.0388267756147
 20
37.49594267778877
 30
0.0
 10
232.0557768665827
 20
37.50171847048315
 30
0.0
 10
232.0579461390925
 20
37.5143838961012
 30
0.0
 10
232.0567705912779
 20
37.55882072314497
 30
0.0
 10
232.0446970706737
 20
37.5993039939184
 30
0.0
 10
232.0299188426337
 20
37.6433076638009
 30
0.0
  0
SPLINE
  5
250
330
1F
100
AcDbEntity
  8
0
  6
Continuous
 62
     7
370
    15
100
AcDbSpline
210
0.0
220
0.0
230
1.0
 70
     8
 71
     3
 72
    14
 73
    10
 74
     0
 42
0.000000001
 43
0.00000001
 40
0.0
 40
0.0
 40
0.0
 40
0.0
 40
0.25
 40
0.25
 40
0.5
 40
0.5
 40
0.75
 40
0.75
 40
1.0
 40
1.0
 40
1.0
 40
1.0
 10
232.029918842633
 20
37.64330766380161
 30
0.0
 10
232.0118625956864
 20
37.69707196678838
 30
0.0
 10
232.0089397975852
 20
37.74162257588542
 30
0.0
 10
232.0035260690419
 20
37.83388392573014
 30
0.0
 10
232.0019587910008
 20
37.88117832865039
 30
0.0
 10
231.9918203911936
 20
37.98593938347818
 30
0.0
 10
231.9835053934494
 20
38.04320059051319
 30
0.0
 10
231.9547052187906
 20
38.17282194788761
 30
0.0
 10
231.93405182212
 20
38.24561614750066
 30
0.0
 10
231.9053623049589
 20
38.32530284646042
 30
0.0
  0
ARC
  5
251
330
1F
100
AcDbEntity
  8
0
  6
Continuous
 62
     7
370
    15
100
AcDbCircle
 10
242.2603295823
 20
41.4118643444
 30
0.0
 40
10.80519362138102
100
AcDbArc
 50
163.4019732888
 51
196.5980267112
  0
SPLINE
  5
252
330
1F
100
AcDbEntity
  8
0
  6
Continuous
 62
     7
370
    15
100
AcDbSpline
210
0.0
220
0.0
230
1.0
 70
     8
 71
     3
 72
    14
 73
    10
 74
     0
 42
0.000000001
 43
0.00000001
 40
0.0
 40
0.0
 40
0.0
 40
0.0
 40
0.25
 40
0.25
 40
0.5
 40
0.5
 40
0.75
 40
0.75
 40
1.0
 40
1.0
 40
1.0
 40
1.0
 10
232.029918842633
 20
45.95963085872459
 30
0.0
 10
232.0118625956864
 20
45.83878877978003
 30
0.0
 10
232.0089397975852
 20
45.71369451321393
 30
0.0
 10
232.0035260690419
 20
45.46574320256256
 30
0.0
 10
232.0019587910008
 20
45.34183457824881
 30
0.0
 10
231.9918203911936
 20
45.09567883900861
 30
0.0
 10
231.9835053934494
 20
44.97339089714719
 30
0.0
 10
231.9547052187906
 20
44.73139371993842
 30
0.0
 10
231.93405182212
 20
44.61123675275882
 30
0.0
 10
231.9053623049589
 20
44.49842584235354
 30
0.0
  0
SPLINE
  5
253
330
1F
100
AcDbEntity
  8
0
  6
Continuous
 62
     7
370
    15
100
AcDbSpline
210
0.0
220
0.0
230
1.0
 70
     8
 71
     3
 72
    14
 73
    10
 74
     0
 42
0.000000001
 43
0.00000001
 40
0.0
 40
0.0
 40
0.0
 40
0.0
 40
0.125
 40
0.125
 40
0.25
 40
0.25
 40
0.5
 40
0.5
 40
1.0
 40
1.0
 40
1.0
 40
1.0
 10
231.9680360321219
 20
46.50491642301861
 30
0.0
 10
231.9872314080475
 20
46.50262961504479
 30
0.0
 10
232.0048434814478
 20
46.49113137577196
 30
0.0
 10
232.0306884113671
 20
46.45443987324545
 30
0.0
 10
232.0388267756147
 20
46.43135845814338
 30
0.0
 10
232.0557768665827
 20
46.36002593906628
 30
0.0
 10
232.0579461390925
 20
46.30878183345821
 30
0.0
 10
232.0567705912779
 20
46.15874635369662
 30
0.0
 10
232.0446970706737
 20
46.05853467881354
 30
0.0
 10
232.0299188426337
 20
45.95963085872492
 30
0.0
  0
SPLINE
  5
254
330
1F
100
AcDbEntity
  8
0
  6
Continuous
 62
     7
370
    15
100
AcDbSpline
210
0.0
220
0.0
230
1.0
 70
     8
 71
     3
 72
     8
 73
     4
 74
     0
 42
0.000000001
 43
0.00000001
 40
0.0
 40
0.0
 40
0.0
 40
0.0
 40
1.0
 40
1.0
 40
1.0
 40
1.0
 10
231.0564444422342
 20
46.5571292341547
 30
0.0
 10
231.3580969154717
 20
46.56447548129781
 30
0.0
 10
231.6633764589952
 20
46.54121151532786
 30
0.0
 10
231.9680360321219
 20
46.50491642301861
 30
0.0
  0
SPLINE
  5
255
330
1F
100
AcDbEntity
  8
0
  6
Continuous
 62
     7
370
    15
100
AcDbSpline
210
0.0
220
0.0
230
1.0
 70
     8
 71
     3
 72
    14
 73
    10
 74
     0
 42
0.000000001
 43
0.00000001
 40
0.0
 40
0.0
 40
0.0
 40
0.0
 40
0.5000000000000002
 40
0.5000000000000002
 40
0.7500000000000002
 40
0.7500000000000002
 40
0.8750000000000001
 40
0.8750000000000001
 40
1.0
 40
1.0
 40
1.0
 40
1.0
 10
229.1277760749787
 20
47.18976857913969
 30
0.0
 10
229.4429420188185
 20
47.05238408541356
 30
0.0
 10
229.7592176740845
 20
46.92081057778241
 30
0.0
 10
230.2380421626555
 20
46.74591511126165
 30
0.0
 10
230.3983621730796
 20
46.69124396099713
 30
0.0
 10
230.6414147090333
 20
46.62221214527708
 30
0.0
 10
230.7228581470499
 20
46.60134986076829
 30
0.0
 10
230.8875195960833
 20
46.56854214733865
 30
0.0
 10
230.9704256141495
 20
46.55503438784601
 30
0.0
 10
231.0564444422342
 20
46.5571292341547
 30
0.0
  0
SPLINE
  5
256
330
1F
100
AcDbEntity
  8
0
  6
Continuous
 62
     7
370
    15
100
AcDbSpline
210
0.0
220
0.0
230
1.0
 70
     8
 71
     3
 72
     8
 73
     4
 74
     0
 42
0.000000001
 43
0.00000001
 40
0.0000005163856998
 40
0.0000005163856998
 40
0.0000005163856998
 40
0.0000005163856998
 40
0.000026289209185
 40
0.000026289209185
 40
0.000026289209185
 40
0.000026289209185
 10
229.1277544879594
 20
47.20264769033087
 30
0.0
 10
229.1277521868001
 20
47.19835485530434
 30
0.0
 10
229.1277594331245
 20
47.19406178762882
 30
0.0
 10
229.1277760749787
 20
47.18976857913969
 30
0.0
  0
SPLINE
  5
257
330
1F
100
AcDbEntity
  8
0
  6
Continuous
 62
     7
370
    15
100
AcDbSpline
210
0.0
220
0.0
230
1.0
 70
     8
 71
     3
 72
     8
 73
     4
 74
     0
 42
0.000000001
 43
0.00000001
 40
0.000000516385691
 40
0.000000516385691
 40
0.000000516385691
 40
0.000000516385691
 40
0.0000262892091854
 40
0.0000262892091854
 40
0.0000262892091854
 40
0.0000262892091854
 10
229.1277544879594
 20
39.72917663846943
 30
0.0
 10
229.1277521868001
 20
39.73075002416769
 30
0.0
 10
229.1277594331245
 20
39.73231775410042
 30
0.0
 10
229.1277760749787
 20
39.73387991083675
 30
0.0
  0
SPLINE
  5
258
330
1F
100
AcDbEntity
  8
0
  6
Continuous
 62
     7
370
    15
100
AcDbSpline
210
0.0
220
0.0
230
1.0
 70
    11
 71
     3
 72
    39
 73
    35
 74
     0
 42
0.000000001
 43
0.00000001
 40
0.0
 40
0.0
 40
0.0
 40
0.0
 40
0.0311554731468858
 40
0.062753754470128
 40
0.0944598246530378
 40
0.1258516844974861
 40
0.1572196167873394
 40
0.1889387571416961
 40
0.2205174397748063
 40
0.2516656885414532
 40
0.2826462244724491
 40
0.3138733795791024
 40
0.3450060568224485
 40
0.3757359628070951
 40
0.4064218143219623
 40
0.4377517454847092
 40
0.469045324789953
 40
0.5001675072799424
 40
0.531323032262448
 40
0.5628789029232716
 40
0.594551769725138
 40
0.6258698547354934
 40
0.6571954425804662
 40
0.6889351647119898
 40
0.7205341263071544
 40
0.751718247521035
 40
0.7827801982306051
 40
0.8139996739131191
 40
0.8452044676924363
 40
0.8758948969807238
 40
0.9066082101318941
 40
0.9377648876226694
 40
0.9689964676635748
 40
1.0
 40
1.0
 40
1.0
 40
1.0
 10
234.8166227864133
 20
37.85620552321483
 30
0.0
 10
234.7424899248863
 20
37.97371844000266
 30
0.0
 10
234.6065638067421
 20
38.21762091529715
 30
0.0
 10
234.4536595370462
 20
38.59422837871153
 30
0.0
 10
234.3564419107942
 20
38.96953896109963
 30
0.0
 10
234.324675693
 20
39.32789032745692
 30
0.0
 10
234.3584588173029
 20
39.6573167091849
 30
0.0
 10
234.4576421427005
 20
39.94382921713268
 30
0.0
 10
234.6122987990574
 20
40.17931783222625
 30
0.0
 10
234.8168194307796
 20
40.34795552038494
 30
0.0
 10
235.0599139393838
 20
40.44398932169037
 30
0.0
 10
235.3306326199086
 20
40.45910543505373
 30
0.0
 10
235.6138155524611
 20
40.39808540944329
 30
0.0
 10
235.8962900946425
 20
40.25567085163909
 30
0.0
 10
236.1674796094236
 20
40.03892944585262
 30
0.0
 10
236.4173330002678
 20
39.75529543544074
 30
0.0
 10
236.6403545000937
 20
39.42195237491116
 30
0.0
 10
236.8270086462752
 20
39.05084984502165
 30
0.0
 10
236.9754142358592
 20
38.65717651292168
 30
0.0
 10
237.0818819562022
 20
38.25584205677156
 30
0.0
 10
237.1484650577533
 20
37.86435108870196
 30
0.0
 10
237.1696014380066
 20
37.50077986323628
 30
0.0
 10
237.1465609982939
 20
37.17823560953459
 30
0.0
 10
237.0782388572114
 20
36.90975180879854
 30
0.0
 10
236.9702283169729
 20
36.70110098558607
 30
0.0
 10
236.82047878112
 20
36.56400241990483
 30
0.0
 10
236.6327991670317
 20
36.49905070361334
 30
0.0
 10
236.4092865561639
 20
36.50871445389993
 30
0.0
 10
236.1589336645632
 20
36.58587307246228
 30
0.0
 10
235.887591993968
 20
36.73194905150304
 30
0.0
 10
235.6049236656966
 20
36.93991882305566
 30
0.0
 10
235.3219346184905
 20
37.20458084830219
 30
0.0
 10
235.0516971685332
 20
37.51163793293313
 30
0.0
 10
234.8903941125205
 20
37.73926570020518
 30
0.0
 10
234.8166227864133
 20
37.85620552321485
 30
0.0
  0
ARC
  5
259
330
1F
100
AcDbEntity
  8
0
  6
Continuous
 62
     7
370
    15
100
AcDbCircle
 10
249.6150350521
 20
30.9202559359
 30
0.0
 40
6.595435501300397
100
AcDbArc
 50
198.0700771549
 51
217.3989540689
  0
SPLINE
  5
25A
330
1F
100
AcDbEntity
  8
0
  6
Continuous
 62
     7
370
    15
100
AcDbSpline
210
0.0
220
0.0
230
1.0
 70
     8
 71
     3
 72
     8
 73
     4
 74
     0
 42
0.000000001
 43
0.00000001
 40
0.0
 40
0.0
 40
0.0
 40
0.0
 40
1.0
 40
1.0
 40
1.0
 40
1.0
 10
241.8702246685209
 20
28.62810259995016
 30
0.0
 10
242.3620194672728
 20
28.70975288703191
 30
0.0
 10
242.8535995581755
 20
28.79183667452235
 30
0.0
 10
243.3449005872281
 20
28.87448389472624
 30
0.0
  0
LINE
  5
25B
330
1F
100
AcDbEntity
  8
0
  6
Continuous
 62
     7
370
    15
100
AcDbLine
 10
243.3449005872
 20
28.8744838947
 30
0.0
 11
243.5900691916
 21
29.0160167174
 31
0.0
  0
SPLINE
  5
25C
330
1F
100
AcDbEntity
  8
0
  6
Continuous
 62
     7
370
    15
100
AcDbSpline
210
0.0
220
0.0
230
1.0
 70
     8
 71
     3
 72
    10
 73
     6
 74
     0
 42
0.000000001
 43
0.00000001
 40
0.0
 40
0.0
 40
0.0
 40
0.0
 40
0.5
 40
0.5
 40
1.0
 40
1.0
 40
1.0
 40
1.0
 10
243.5900691915943
 20
29.01601671741601
 30
0.0
 10
243.6149014949462
 20
29.03035210100385
 30
0.0
 10
243.6425764924396
 20
29.04294754113995
 30
0.0
 10
243.7027015018941
 20
29.06414543928022
 30
0.0
 10
243.7343959020889
 20
29.07250760494687
 30
0.0
 10
243.7675778946706
 20
29.07861906001812
 30
0.0
  0
SPLINE
  5
25D
330
1F
100
AcDbEntity
  8
0
  6
Continuous
 62
     7
370
    15
100
AcDbSpline
210
0.0
220
0.0
230
1.0
 70
     8
 71
     3
 72
    21
 73
    17
 74
     0
 42
0.000000001
 43
0.00000001
 40
0.0
 40
0.0
 40
0.0
 40
0.0
 40
0.0272451106649863
 40
0.0930056910871856
 40
0.2186358349558824
 40
0.2824114932341171
 40
0.3471220294817478
 40
0.4723707078369768
 40
0.5359218834117382
 40
0.6003713453363695
 40
0.7273385528646906
 40
0.7917653059996415
 40
0.8571119818028082
 40
0.9208154498611956
 40
0.9849655661141424
 40
1.0
 40
1.0
 40
1.0
 40
1.0
 10
235.8223526677982
 20
40.20958809283753
 30
0.0
 10
235.8189372025652
 20
40.19303043469277
 30
0.0
 10
235.8072779471382
 20
40.13650813028834
 30
0.0
 10
235.7961501606479
 20
39.99471750079015
 30
0.0
 10
235.8018866932908
 20
39.82112182015356
 30
0.0
 10
235.8302868228652
 20
39.64198890581977
 30
0.0
 10
235.8726421430636
 20
39.46047374046466
 30
0.0
 10
235.9355250836493
 20
39.27650490979877
 30
0.0
 10
236.0165458524039
 20
39.09426545836124
 30
0.0
 10
236.1097585916846
 20
38.91270092659714
 30
0.0
 10
236.2196481053593
 20
38.73468099776207
 30
0.0
 10
236.3428567857769
 20
38.56405784261725
 30
0.0
 10
236.4415097730496
 20
38.4399031841731
 30
0.0
 10
236.5451285279618
 20
38.32186992651765
 30
0.0
 10
236.6240642110739
 20
38.23737162995897
 30
0.0
 10
236.6693714954517
 20
38.19431365574287
 30
0.0
 10
236.677973796915
 20
38.18613842123719
 30
0.0
  0
LINE
  5
25E
330
1F
100
AcDbEntity
  8
0
  6
Continuous
 62
     7
370
    15
100
AcDbLine
 10
263.4938148223
 20
50.1543338316
 30
0.0
 11
263.5888231377
 21
50.175382353
 31
0.0
  0
LINE
  5
25F
330
1F
100
AcDbEntity
  8
0
  6
Continuous
 62
     7
370
    15
100
AcDbLine
 10
263.5888231377
 20
50.175382353
 30
0.0
 11
264.9882112053
 21
49.3675328171
 31
0.0
  0
SPLINE
  5
260
330
1F
100
AcDbEntity
  8
0
  6
Continuous
 62
     7
370
    15
100
AcDbSpline
210
0.0
220
0.0
230
1.0
 70
     8
 71
     3
 72
    12
 73
     8
 74
     0
 42
0.000000001
 43
0.00000001
 40
0.0
 40
0.0
 40
0.0
 40
0.0
 40
0.250000000000002
 40
0.250000000000002
 40
0.500000000000004
 40
0.500000000000004
 40
1.0
 40
1.0
 40
1.0
 40
1.0
 10
264.9882112052861
 20
49.36753281709442
 30
0.0
 10
265.0204551761587
 20
49.34891876892081
 30
0.0
 10
265.0425081786922
 20
49.3246684461234
 30
0.0
 10
265.0633571228572
 20
49.27408058823586
 30
0.0
 10
265.0629759536299
 20
49.2472420198018
 30
0.0
 10
265.0372230207327
 20
49.17000790353298
 30
0.0
 10
264.989271593624
 20
49.12322253270514
 30
0.0
 10
264.9253715444887
 20
49.08633381953768
 30
0.0
  0
SPLINE
  5
261
330
1F
100
AcDbEntity
  8
0
  6
Continuous
 62
     7
370
    15
100
AcDbSpline
210
0.0
220
0.0
230
1.0
 70
     8
 71
     3
 72
    16
 73
    12
 74
     0
 42
0.000000001
 43
0.00000001
 40
0.0
 40
0.0
 40
0.0
 40
0.0
 40
0.0986656782331549
 40
0.1896722425642856
 40
0.3483074951612806
 40
0.4902444215610417
 40
0.5857364076916344
 40
0.6974229490240149
 40
0.7977779705531003
 40
0.8894875968595162
 40
1.0
 40
1.0
 40
1.0
 40
1.0
 10
235.1078921383822
 20
38.03912860513368
 30
0.0
 10
235.1874775246114
 20
37.92464667058408
 30
0.0
 10
235.3404703276992
 20
37.70456968284161
 30
0.0
 10
235.66479724191
 20
37.35200609260185
 30
0.0
 10
236.0526819401258
 20
37.03977167718651
 30
0.0
 10
236.4059062279988
 20
36.86261527841872
 30
0.0
 10
236.6787756893723
 20
36.82116904514699
 30
0.0
 10
236.8785144785396
 20
36.87176047487612
 30
0.0
 10
237.0252124229761
 20
37.01345815365362
 30
0.0
 10
237.1350998618987
 20
37.22209494846845
 30
0.0
 10
237.1510465727007
 20
37.43792840933938
 30
0.0
 10
237.1597612974898
 20
37.55587932944542
 30
0.0
  0
SPLINE
  5
262
330
1F
100
AcDbEntity
  8
0
  6
Continuous
 62
     7
370
    15
100
AcDbSpline
210
0.0
220
0.0
230
1.0
 70
     8
 71
     3
 72
    16
 73
    12
 74
     0
 42
0.000000001
 43
0.00000001
 40
0.0
 40
0.0
 40
0.0
 40
0.0
 40
0.1460145433272634
 40
0.2335492811860072
 40
0.328284659647779
 40
0.4359414636891987
 40
0.5278790605354984
 40
0.6640995323892502
 40
0.8013223013367583
 40
0.893041357694521
 40
1.0
 40
1.0
 40
1.0
 40
1.0
 10
236.0474996066783
 20
40.12109752708298
 30
0.0
 10
235.9006390003988
 20
40.19456842677518
 30
0.0
 10
235.6657364472041
 20
40.3120846372854
 30
0.0
 10
235.3488853574382
 20
40.30211470284105
 30
0.0
 10
235.0957561989255
 20
40.21437935982481
 30
0.0
 10
234.8870329240677
 20
40.03258714456751
 30
0.0
 10
234.7240020080458
 20
39.74072176954848
 30
0.0
 10
234.646974202264
 20
39.3308383951877
 30
0.0
 10
234.7223735431541
 20
38.86626923244302
 30
0.0
 10
234.8811160808114
 20
38.42432456592054
 30
0.0
 10
235.02853096311
 20
38.17392945000943
 30
0.0
 10
235.1078921383822
 20
38.03912860513368
 30
0.0
  0
LINE
  5
263
330
1F
100
AcDbEntity
  8
0
  6
Continuous
 62
     7
370
    15
100
AcDbLine
 10
261.1903644312
 20
51.5599830922
 30
0.0
 11
261.0347882336
 21
51.3259551011
 31
0.0
  0
LINE
  5
264
330
1F
100
AcDbEntity
  8
0
  6
Continuous
 62
     7
370
    15
100
AcDbLine
 10
230.9675319213
 20
41.9088611134
 30
0.0
 11
231.4679147555
 21
41.6199962519
 31
0.0
  0
SPLINE
  5
265
330
1F
100
AcDbEntity
  8
0
  6
Continuous
 62
     7
370
    15
100
AcDbSpline
210
0.0
220
0.0
230
1.0
 70
     8
 71
     3
 72
    10
 73
     6
 74
     0
 42
0.000000001
 43
0.00000001
 40
0.0
 40
0.0
 40
0.0
 40
0.0
 40
0.0840381716605808
 40
0.7011125076932897
 40
1.0
 40
1.0
 40
1.0
 40
1.0
 10
229.1294416014496
 20
47.66244005862239
 30
0.0
 10
229.1289002866363
 20
47.66888603208623
 30
0.0
 10
229.1243842128248
 20
47.72266341122782
 30
0.0
 10
229.1387229392834
 20
47.80546341346887
 30
0.0
 10
229.1592717424989
 20
47.88709199785737
 30
0.0
 10
229.1659770222092
 20
47.91372822016878
 30
0.0
  0
SPLINE
  5
266
330
1F
100
AcDbEntity
  8
0
  6
Continuous
 62
     7
370
    15
100
AcDbSpline
210
0.0
220
0.0
230
1.0
 70
     8
 71
     3
 72
    10
 73
     6
 74
     0
 42
0.000000001
 43
0.00000001
 40
0.0
 40
0.0
 40
0.0
 40
0.0
 40
0.5
 40
0.5
 40
1.0
 40
1.0
 40
1.0
 40
1.0
 10
229.1822134251775
 20
47.71858986945253
 30
0.0
 10
229.1622873746808
 20
47.63462939543452
 30
0.0
 10
229.1489931105399
 20
47.54918353292075
 30
0.0
 10
229.1317245843992
 20
47.37677006198346
 30
0.0
 10
229.1278011297771
 20
47.28965845571716
 30
0.0
 10
229.1277544879594
 20
47.20264769033088
 30
0.0
  0
SPLINE
  5
267
330
1F
100
AcDbEntity
  8
0
  6
Continuous
 62
     7
370
    15
100
AcDbSpline
210
0.0
220
0.0
230
1.0
 70
     8
 71
     3
 72
    24
 73
    20
 74
     0
 42
0.000000001
 43
0.00000001
 40
0.0
 40
0.0
 40
0.0
 40
0.0
 40
0.249999999999999
 40
0.249999999999999
 40
0.3749999999999983
 40
0.3749999999999983
 40
0.4374999999999987
 40
0.4374999999999987
 40
0.4687499999999975
 40
0.4687499999999975
 40
0.4999999999999963
 40
0.4999999999999963
 40
0.5624999999999984
 40
0.5624999999999984
 40
0.6250000000000006
 40
0.6250000000000006
 40
0.7500000000000001
 40
0.7500000000000001
 40
1.0
 40
1.0
 40
1.0
 40
1.0
 10
229.1659770222092
 20
47.91372822016878
 30
0.0
 10
229.1958180514944
 20
48.02100727672502
 30
0.0
 10
229.2256475915354
 20
48.1268918500957
 30
0.0
 10
229.2703187484067
 20
48.27683989334599
 30
0.0
 10
229.2852715404985
 20
48.32584015610892
 30
0.0
 10
229.3068546787878
 20
48.38899043801167
 30
0.0
 10
229.3139843903175
 20
48.40863062224018
 30
0.0
 10
229.3228360156189
 20
48.42634055172818
 30
0.0
 10
229.3254741128887
 20
48.43005691821386
 30
0.0
 10
229.3286266509338
 20
48.42790856983166
 30
0.0
 10
229.3290066120705
 20
48.42174616076506
 30
0.0
 10
229.3269966868098
 20
48.39310107741232
 30
0.0
 10
229.3224200452113
 20
48.36480007242414
 30
0.0
 10
229.312488659105
 20
48.30842106227485
 30
0.0
 10
229.30679847337
 20
48.27895131431881
 30
0.0
 10
229.2892168727514
 20
48.19109689375247
 30
0.0
 10
229.2765359998231
 20
48.13187190070315
 30
0.0
 10
229.2372949362027
 20
47.95337859357336
 30
0.0
 10
229.2099914761662
 20
47.83563555939965
 30
0.0
 10
229.1822134251775
 20
47.71858986945254
 30
0.0
  0
ARC
  5
268
330
1F
100
AcDbEntity
  8
0
  6
Continuous
 62
     7
370
    15
100
AcDbCircle
 10
229.8448914622
 20
47.1239804356
 30
0.0
 40
0.7201267655269403
100
AcDbArc
 50
174.7583590299
 51
234.4349468916
  0
ARC
  5
269
330
1F
100
AcDbEntity
  8
0
  6
Continuous
 62
     7
370
    15
100
AcDbCircle
 10
231.3402254073
 20
39.6240840582
 30
0.0
 40
2.215172042338792
100
AcDbArc
 50
122.6235698332
 51
177.1589486026
  0
LINE
  5
26A
330
1F
100
AcDbEntity
  8
0
  6
Continuous
 62
     7
370
    15
100
AcDbLine
 10
230.1459878366
 20
41.489769938
 30
0.0
 11
230.8900744675
 21
41.9193220068
 31
0.0
  0
SPLINE
  5
26B
330
1F
100
AcDbEntity
  8
0
  6
Continuous
 62
     7
370
    15
100
AcDbSpline
210
0.0
220
0.0
230
1.0
 70
     8
 71
     3
 72
     8
 73
     4
 74
     0
 42
0.000000001
 43
0.00000001
 40
0.0
 40
0.0
 40
0.0
 40
0.0
 40
0.0001590976953043
 40
0.0001590976953043
 40
0.0001590976953043
 40
0.0001590976953043
 10
230.9675319212653
 20
41.90886111344679
 30
0.0
 10
230.9417117917058
 20
41.91234566290767
 30
0.0
 10
230.9158926471596
 20
41.91583264564418
 30
0.0
 10
230.8900744675095
 20
41.91932200676256
 30
0.0
  0
SPLINE
  5
26C
330
1F
100
AcDbEntity
  8
0
  6
Continuous
 62
     7
370
    15
100
AcDbSpline
210
0.0
220
0.0
230
1.0
 70
     8
 71
     3
 72
    10
 73
     6
 74
     0
 42
0.000000001
 43
0.00000001
 40
0.0
 40
0.0
 40
0.0
 40
0.0
 40
0.5
 40
0.5
 40
1.0
 40
1.0
 40
1.0
 40
1.0
 10
229.1822134251775
 20
39.53393425374855
 30
0.0
 10
229.162287374681
 20
39.5724558152649
 30
0.0
 10
229.1489931105401
 20
39.60441914245847
 30
0.0
 10
229.1317245843994
 20
39.6668625659564
 30
0.0
 10
229.1278011297773
 20
39.69728594316918
 30
0.0
 10
229.1277544879594
 20
39.72917663846942
 30
0.0
  0
SPLINE
  5
26D
330
1F
100
AcDbEntity
  8
0
  6
Continuous
 62
     7
370
    15
100
AcDbSpline
210
0.0
220
0.0
230
1.0
 70
     8
 71
     3
 72
     9
 73
     5
 74
     0
 42
0.000000001
 43
0.00000001
 40
0.0
 40
0.0
 40
0.0
 40
0.0
 40
0.5797035953942357
 40
1.0
 40
1.0
 40
1.0
 40
1.0
 10
229.1381210538756
 20
40.33104681494061
 30
0.0
 10
229.1345988736598
 20
40.303801082927
 30
0.0
 10
229.1285230441432
 20
40.25680166420666
 30
0.0
 10
229.1284796028444
 20
40.21036301987768
 30
0.0
 10
229.1284613446228
 20
40.19084502463143
 30
0.0
  0
ARC
  5
26E
330
1F
100
AcDbEntity
  8
0
  6
Continuous
 62
     7
370
    15
100
AcDbCircle
 10
230.4748466526
 20
40.1187416731
 30
0.0
 40
1.353480254557211
100
AcDbArc
 50
122.9135798094
 51
170.9753897871
  0
LINE
  5
26F
330
1F
100
AcDbEntity
  8
0
  6
Continuous
 62
     7
370
    15
100
AcDbLine
 10
230.1459878366
 20
41.489769938
 30
0.0
 11
229.7394014374
 21
41.2549763033
 31
0.0
  0
LINE
  5
270
330
1F
100
AcDbEntity
  8
0
  6
Continuous
 62
     7
370
    15
100
AcDbLine
 10
229.2374846804
 20
39.4380163375
 30
0.0
 11
229.1822134252
 21
39.5339342537
 31
0.0
  0
LWPOLYLINE
  5
271
330
1F
100
AcDbEntity
  8
0
  6
Continuous
 62
     7
370
     0
100
AcDbPolyline
 90
       28
 70
   128
 43
0.0
 10
263.6562915157
 20
45.1127827971
 10
262.722012873
 20
44.5288128034
 10
261.7941163007
 20
43.8595870895
 10
260.8789402734
 20
43.1096771457
 10
259.9827363713
 20
42.2842056174
 10
259.1116265758
 20
41.388811312
 10
258.27156145
 20
40.4296106806
 10
257.4682794906
 20
39.4131560362
 10
256.7072679279
 20
38.3463907945
 10
255.9937252426
 20
37.236602044
 10
255.3325256546
 20
36.091370767
 10
254.7281858276
 20
34.9185200545
 10
254.1848340155
 20
33.726061666
 10
253.706181862
 20
32.5221413016
 10
253.2954990468
 20
31.314982958
 10
252.9555909498
 20
30.1128327508
 10
252.688779488
 20
28.9239025849
 10
252.4968872543
 20
27.7563140588
 10
252.3812250672
 20
26.6180429861
 10
252.3425830167
 20
25.5168649124
 10
252.3812250672
 20
24.4603020006
 10
252.4968872543
 20
23.4555716466
 10
252.688779488
 20
22.5095371776
 10
252.9555909498
 20
21.6286609683
 10
253.2954990468
 20
20.8189602964
 10
253.706181862
 20
20.0859662384
 10
254.1848340155
 20
19.4346858871
 10
254.5525396759
 20
19.0357914591
  0
ARC
  5
272
330
1F
100
AcDbEntity
  8
0
  6
Continuous
 62
     7
370
     0
100
AcDbCircle
 10
268.6059156342
 20
37.7086112372
 30
0.0
 40
8.906207689214597
100
AcDbArc
 50
78.4655248271
 51
123.7623822387
  0
LWPOLYLINE
  5
273
330
1F
100
AcDbEntity
  8
0
  6
Continuous
 62
     7
370
     0
100
AcDbPolyline
 90
       21
 70
   128
 43
0.0
 10
266.1169481149
 20
20.2233569591
 10
266.4855078344
 20
19.6901800569
 10
266.9232163015
 20
19.2485405934
 10
267.4247083693
 20
18.9038518991
 10
267.9838370725
 20
18.6603389451
 10
268.5937489733
 20
18.5209865555
 10
269.2469681664
 20
18.4875028217
 10
269.9354879137
 20
18.5602981657
 10
270.6508687857
 20
18.7384803092
 10
271.3843421068
 20
19.0198652109
 10
272.1269174357
 20
19.4010038368
 10
272.8694927645
 20
19.8772244362
 10
273.6029660856
 20
20.4426898053
 10
274.3183469577
 20
21.0904688356
 10
275.006866705
 20
21.8126214708
 10
275.6600858981
 20
22.6002960315
 10
276.2699977989
 20
23.4438377127
 10
276.829126502
 20
24.3329069264
 10
277.3306185698
 20
25.2566060375
 10
277.768327037
 20
26.2036129402
 10
278.1368867564
 20
27.1623198369
  0
LWPOLYLINE
  5
274
330
1F
100
AcDbEntity
  8
0
  6
Continuous
 62
     7
370
     0
100
AcDbPolyline
 90
       21
 70
   128
 43
0.0
 10
278.1365123428
 20
34.0935757622
 10
277.7679175436
 20
34.6265980493
 10
277.3301945735
 20
35.068097428
 10
276.8287075504
 20
35.4126635022
 10
276.2696019943
 20
35.6560737543
 10
275.6597295175
 20
35.7953452903
 10
275.00656386
 20
35.828771394
 10
274.3181093023
 20
35.755942442
 10
273.6028025761
 20
35.5777509236
 10
272.8694094754
 20
35.2963805036
 10
272.1269174357
 20
34.9152792626
 10
271.3844253959
 20
34.4391174418
 10
270.6510322952
 20
33.8737302115
 10
269.935725569
 20
33.2260461631
 10
269.2472710113
 20
32.5040024021
 10
268.5941053538
 20
31.7164472824
 10
267.984232877
 20
30.8730319727
 10
267.425127321
 20
29.9840921861
 10
266.9236402978
 20
29.0605215194
 10
266.4859173278
 20
28.1136379569
 10
266.1173225285
 20
27.1550451732
  0
ARC
  5
275
330
1F
100
AcDbEntity
  8
0
  6
Continuous
 62
     7
370
     0
100
AcDbCircle
 10
274.6571887446
 20
32.3955635911
 30
0.0
 40
3.199159720545219
100
AcDbArc
 50
32.1655027206
 51
59.6637933174
  0
LINE
  5
276
330
1F
100
AcDbEntity
  8
0
  6
Continuous
 62
     7
370
     0
100
AcDbLine
 10
263.8537680958
 20
20.7476788991
 30
0.0
 11
263.9421564434
 21
20.4178161065
 31
0.0
  0
LWPOLYLINE
  5
277
330
1F
100
AcDbEntity
  8
0
  6
Continuous
 62
     7
370
     0
100
AcDbPolyline
 90
       18
 70
   128
 43
0.0
 10
267.3618596233
 20
19.5188822208
 10
267.5093819052
 20
19.4453195453
 10
268.0690700115
 20
19.2481710864
 10
268.6759740063
 20
19.1544466914
 10
269.3223581346
 20
19.1653409956
 10
269.9999834174
 20
19.2807151374
 10
270.7002126677
 20
19.4990985282
 10
271.4141205826
 20
19.8177075969
 10
272.1326075075
 20
20.2324812699
 10
272.8465154225
 20
20.738132735
 10
273.5467446728
 20
21.3282168279
 10
274.2243699556
 20
21.9952121844
 10
274.8707540839
 20
22.7306171093
 10
275.4776580787
 20
23.5250579415
 10
276.0373461849
 20
24.3684085331
 10
276.5426844734
 20
25.2499193194
 10
276.9872317718
 20
26.1583543363
 10
277.3653217653
 20
27.0821344365
  0
LINE
  5
278
330
1F
100
AcDbEntity
  8
0
  6
Continuous
 62
     7
370
     0
100
AcDbLine
 10
263.1800370822
 20
21.1366155344
 30
0.0
 11
263.8537680958
 21
20.7476788991
 31
0.0
  0
LWPOLYLINE
  5
279
330
1F
100
AcDbEntity
  8
0
  6
Continuous
 62
     7
370
     0
100
AcDbPolyline
 90
       27
 70
   128
 43
0.0
 10
247.7140558152
 20
30.6380811263
 10
247.7521413269
 20
31.6253437661
 10
247.8660822732
 20
32.6483982324
 10
248.0549345038
 20
33.6987671739
 10
248.3171331294
 20
34.7677469026
 10
248.6505054898
 20
35.8464795158
 10
249.0522891565
 20
36.9260262954
 10
249.5191548236
 20
37.9974417768
 10
250.0472338951
 20
39.0518478739
 10
250.6321505415
 20
40.0805074456
 10
251.2690579592
 20
41.0748966949
 10
251.9526785329
 20
42.0267757992
 10
252.6773475671
 20
42.9282571884
 10
253.437060226
 20
43.7718709039
 10
254.2255212912
 20
44.5506264968
 10
255.0361973261
 20
45.2580709529
 10
255.8623708137
 20
45.8883421647
 10
256.6971958203
 20
46.4362175064
 10
257.5337547229
 20
46.8971571104
 10
258.3651155312
 20
47.2673414859
 10
259.1843893274
 20
47.5437031688
 10
259.9847873511
 20
47.7239521389
 10
260.7596772519
 20
47.8065947966
 10
261.5026380483
 20
47.7909463388
 10
262.2075133331
 20
47.6771364335
 10
262.8684622876
 20
47.4661081454
 10
263.4059157328
 20
47.2033690641
  0
LWPOLYLINE
  5
27A
330
1F
100
AcDbEntity
  8
0
  6
Continuous
 62
     7
370
     0
100
AcDbPolyline
 90
       10
 70
   128
 43
0.0
 10
250.2065654796
 20
24.8091550151
 10
250.0472338951
 20
24.91814445
 10
249.5191548236
 20
25.3628434291
 10
249.0522891565
 20
25.8952272849
 10
248.6505054898
 20
26.5108845171
 10
248.3171331294
 20
27.2047135959
 10
248.0549345038
 20
27.9709652352
 10
247.8660822732
 20
28.8032900325
 10
247.7521413269
 20
29.6947910823
 10
247.7140558152
 20
30.6380811263
  0
LWPOLYLINE
  5
27B
330
1F
100
AcDbEntity
  8
0
  6
Continuous
 62
     7
370
     0
100
AcDbPolyline
 90
       24
 70
   128
 43
0.0
 10
246.1017542782
 20
33.7899569702
 10
246.4127847343
 20
34.9899390146
 10
246.7983771348
 20
36.1984426271
 10
247.2556961523
 20
37.4065814727
 10
247.7813790414
 20
38.6054718984
 10
248.3715603653
 20
39.7862982565
 10
249.021900419
 20
40.9403777273
 10
249.7276171402
 20
42.0592241659
 10
250.4835212723
 20
43.1346105016
 10
251.284054522
 20
44.1586292337
 10
252.1233304305
 20
45.1237505759
 10
252.9951776576
 20
46.022877825
 10
253.8931853604
 20
46.8493995434
 10
254.8107503337
 20
47.5972381745
 10
255.7411255642
 20
48.2608947323
 10
256.6774698427
 20
48.8354892356
 10
257.6128980684
 20
49.3167965923
 10
258.5405318765
 20
49.7012776663
 10
259.4535502158
 20
49.9861053023
 10
260.3452395054
 20
50.1691851134
 10
261.2090430003
 20
50.2491708824
 10
262.0386090047
 20
50.2254744601
 10
262.8278375769
 20
50.0982700904
 10
263.5709253833
 20
49.8684931289
  0
LWPOLYLINE
  5
27C
330
1F
100
AcDbEntity
  8
0
  6
Continuous
 62
     7
370
     0
100
AcDbPolyline
 90
       24
 70
   128
 43
0.0
 10
245.6680714426
 20
33.7845196319
 10
245.9781295759
 20
35.000621221
 10
246.3636107053
 20
36.225971253
 10
246.8217091585
 20
37.451651183
 10
247.3490907277
 20
38.6687400652
 10
247.9419169374
 20
39.8683794823
 10
248.595872982
 20
41.0418380209
 10
249.3061991307
 20
42.1805748213
 10
250.0677253706
 20
43.2763017415
 10
250.8749090356
 20
44.3210436809
 10
251.7218751485
 20
45.3071966265
 10
252.6024591807
 20
46.227582997
 10
253.5102519203
 20
47.0755038847
 10
254.4386461202
 20
47.8447878116
 10
255.3808845886
 20
48.5298356486
 10
256.3301093701
 20
49.1256613675
 10
257.2794116601
 20
49.6279283313
 10
258.2218820902
 20
50.0329808576
 10
259.1506610165
 20
50.3378708262
 10
260.0589884469
 20
50.5403791368
 10
260.9402532429
 20
50.6390318599
 10
261.7880412377
 20
50.633110965
 10
262.5961819206
 20
50.5226595465
 10
263.358793349
 20
50.3084815101
  0
LWPOLYLINE
  5
27D
330
1F
100
AcDbEntity
  8
0
  6
Continuous
 62
     7
370
     0
100
AcDbPolyline
 90
       28
 70
   128
 43
0.0
 10
247.2190810684
 20
33.071511527
 10
247.4385385304
 20
34.1643163645
 10
247.7328230983
 20
35.2734137319
 10
248.0995187517
 20
36.3896981494
 10
248.5356149884
 20
37.5040051333
 10
249.037531541
 20
38.6071864341
 10
249.6011477694
 20
39.6901851419
 10
250.2218364912
 20
40.7441100422
 10
250.8945019692
 20
41.7603086111
 10
251.6136217472
 20
42.7304380505
 10
252.3732919879
 20
43.6465337812
 10
253.1672759423
 20
44.5010748307
 10
253.9890551523
 20
45.2870455785
 10
254.8318829661
 20
45.9979933536
 10
255.6888399269
 20
46.6280814092
 10
256.55289058
 20
47.1721368416
 10
257.4169412332
 20
47.6256930586
 10
258.273898194
 20
47.9850264494
 10
259.1167260078
 20
48.247186955
 10
259.9385052178
 20
48.4100222872
 10
260.7324891722
 20
48.4721955986
 10
261.4921594129
 20
48.4331964582
 10
262.2112791909
 20
48.2933450416
 10
262.8839446689
 20
48.0537895023
 10
263.5046333907
 20
47.7164965462
 10
264.0682496191
 20
47.2842352844
 10
264.5701661717
 20
46.7605545003
 10
264.8725377113
 20
46.3567062176
  0
ARC
  5
27E
330
1F
100
AcDbEntity
  8
0
  6
Continuous
 62
     7
370
     0
100
AcDbCircle
 10
260.8246191752
 20
44.1975665211
 30
0.0
 40
6.380925927560934
100
AcDbArc
 50
21.0722233615
 51
50.0097018837
  0
LWPOLYLINE
  5
27F
330
1F
100
AcDbEntity
  8
0
  6
Continuous
 62
     7
370
     0
100
AcDbPolyline
 90
       11
 70
   128
 43
0.0
 10
251.873594187
 20
23.8394357957
 10
251.6136217472
 20
23.864475304
 10
250.8945019692
 20
24.0043267207
 10
250.2218364912
 20
24.2438822599
 10
249.6011477694
 20
24.5811752161
 10
249.037531541
 20
25.0134364778
 10
248.5356149884
 20
25.537117262
 10
248.0995187517
 20
26.1479182484
 10
247.7328230983
 20
26.8408248765
 10
247.4385385304
 20
27.6101485139
 10
247.2190810684
 20
28.4495731592
  0
LWPOLYLINE
  5
280
330
1F
100
AcDbEntity
  8
0
  6
Continuous
 62
     7
370
     0
100
AcDbPolyline
 90
       21
 70
   128
 43
0.0
 10
236.3520048916
 20
34.5843324323
 10
236.3473143076
 20
34.9548390176
 10
236.3853525761
 20
36.0388111839
 10
236.4992075415
 20
37.159296771
 10
236.6881014591
 20
38.3086417264
 10
236.9507439918
 20
39.4789948585
 10
237.2853410247
 20
40.6623614688
 10
237.689606921
 20
41.8506579632
 10
238.1607801346
 20
43.035767072
 10
238.6956420747
 20
44.2095932981
 10
239.2905390918
 20
45.3641182182
 10
239.9414074362
 20
46.4914552565
 10
240.6438010171
 20
47.5839035578
 10
241.3929217742
 20
48.6340005926
 10
242.1836524529
 20
49.6345731332
 10
243.0105915611
 20
50.5787862547
 10
243.8680902661
 20
51.4601900241
 10
244.7502909822
 20
52.2727635598
 10
245.6511673841
 20
53.0109561607
 10
246.5645655724
 20
53.6697252228
 10
247.2225735823
 20
54.0899599803
  0
LWPOLYLINE
  5
281
330
1F
100
AcDbEntity
  8
0
  6
Continuous
 62
     7
370
     0
100
AcDbPolyline
 90
       18
 70
   128
 43
0.0
 10
244.0158873496
 20
35.7167390609
 10
244.2918915415
 20
36.8215213103
 10
244.6395551598
 20
37.9356110909
 10
245.0561277173
 20
39.0501944538
 10
245.5383135647
 20
40.1564535449
 10
246.0822979633
 20
41.2456363666
 10
246.6837772645
 20
42.3091260173
 10
247.337992958
 20
43.3385088631
 10
248.0397693174
 20
44.3256411009
 10
248.7835543475
 20
45.2627131864
 10
249.5634637081
 20
46.1423116189
 10
250.3733272668
 20
46.9574775913
 10
251.2067379134
 20
47.7017620441
 10
252.0571022483
 20
48.3692766859
 10
252.9176927457
 20
48.9547405778
 10
253.7817009768
 20
49.4535219127
 10
254.6422914742
 20
49.8616746594
 10
255.1619505036
 20
50.0644798203
  0
LWPOLYLINE
  5
282
330
1F
100
AcDbEntity
  8
0
  6
Continuous
 62
     7
370
     0
100
AcDbPolyline
 90
       21
 70
   128
 43
0.0
 10
243.5900691916
 20
36.3648840244
 10
243.9065853432
 20
37.4956763007
 10
244.2940703831
 20
38.6316253348
 10
244.7495222834
 20
39.7639303981
 10
245.2694124451
 20
40.8838189934
 10
245.8497130359
 20
41.9826148199
 10
246.4859281957
 20
43.0518049922
 10
247.1731288678
 20
44.0831059938
 10
247.9059909871
 20
45.0685278533
 10
248.6788367281
 20
46.0004360465
 10
249.485678493
 20
46.8716106446
 10
250.3202653012
 20
47.6753022504
 10
251.1761312183
 20
48.405284289
 10
252.0466454506
 20
49.0559012481
 10
252.925063717
 20
49.6221124935
 10
253.8045805002
 20
50.099531322
 10
254.6783817722
 20
50.4844589464
 10
255.5396977857
 20
50.7739131524
 10
256.3818555226
 20
50.9656514028
 10
257.1983303928
 20
51.0581882117
 10
257.4813466594
 20
51.0670255916
  0
LINE
  5
283
330
1F
100
AcDbEntity
  8
0
  6
Continuous
 62
     7
370
     0
100
AcDbLine
 10
280.3116784279
 20
29.8677400009
 30
0.0
 11
280.0465133849
 21
30.0955517794
 31
0.0
  0
LINE
  5
284
330
1F
100
AcDbEntity
  8
0
  6
Continuous
 62
     7
370
     0
100
AcDbLine
 10
237.9969509471
 20
34.4172755249
 30
0.0
 11
239.7944598659
 21
35.4549553361
 31
0.0
  0
LINE
  5
285
330
1F
100
AcDbEntity
  8
0
  6
Continuous
 62
     7
370
     0
100
AcDbLine
 10
274.3543037964
 20
33.3815944295
 30
0.0
 11
280.0465133849
 21
30.0955517794
 31
0.0
  0
ARC
  5
286
330
1F
100
AcDbEntity
  8
0
  6
Continuous
 62
     7
370
     0
100
AcDbCircle
 10
251.7197357379
 20
27.8204563482
 30
0.0
 40
5.784839507985266
100
AcDbArc
 50
193.7947875745
 51
279.8802754049
  0
ARC
  5
287
330
1F
100
AcDbEntity
  8
0
  6
Continuous
 62
     7
370
     0
100
AcDbCircle
 10
252.9283946264
 20
28.5581668117
 30
0.0
 40
7.564215787478076
100
AcDbArc
 50
196.2959826156
 51
213.85200918
  0
LWPOLYLINE
  5
288
330
1F
100
AcDbEntity
  8
0
  6
Continuous
 62
     7
370
     0
100
AcDbPolyline
 90
       20
 70
   128
 43
0.0
 10
229.127754488
 20
47.2026476903
 10
229.4901748829
 20
48.2485911287
 10
229.923558468
 20
49.2892207415
 10
230.4235197227
 20
50.3140061291
 10
230.9849994103
 20
51.3125772237
 10
231.6023157727
 20
52.2748292266
 10
232.2692220263
 20
53.1910248614
 10
232.9789695748
 20
54.0518929081
 10
233.7243762993
 20
54.8487220207
 10
234.497899237
 20
55.5734488797
 10
235.2917109094
 20
56.218739787
 10
236.0977785315
 20
56.7780648773
 10
236.9079452969
 20
57.2457641957
 10
237.714012919
 20
57.6171049721
 10
238.5078245914
 20
57.8883295132
 10
239.2813475291
 20
58.0566932281
 10
240.0267542536
 20
58.1204924007
 10
240.736501802
 20
58.0790814308
 10
241.4034080557
 20
57.9328793666
 10
241.9919298841
 20
57.6978642813
  0
ARC
  5
289
330
1F
100
AcDbEntity
  8
0
  6
Continuous
 62
     7
370
     0
100
AcDbCircle
 10
233.0133560322
 20
41.5236765013
 30
0.0
 40
4.27996835483762
100
AcDbArc
 50
204.7890615306
 51
235.8416699089
  0
LINE
  5
28A
330
1F
100
AcDbEntity
  8
0
  6
Continuous
 62
     7
370
     0
100
AcDbLine
 10
237.9969509471
 20
33.600734713
 30
0.0
 11
239.7944598659
 21
34.6384145242
 31
0.0
  0
LINE
  5
28B
330
1F
100
AcDbEntity
  8
0
  6
Continuous
 62
     7
370
     0
100
AcDbLine
 10
241.2840093993
 20
28.9665174715
 30
0.0
 11
242.6228869907
 21
29.739435053
 31
0.0
  0
LINE
  5
28C
330
1F
100
AcDbEntity
  8
0
  6
Continuous
 62
     7
370
     0
100
AcDbLine
 10
245.0290179678
 20
28.3812167577
 30
0.0
 11
244.8007758767
 21
29.0495678698
 31
0.0
  0
LWPOLYLINE
  5
28D
330
1F
100
AcDbEntity
  8
0
  6
Continuous
 62
     7
370
     0
100
AcDbPolyline
 90
        3
 70
   128
 43
0.0
 10
244.6378181628
 20
28.0069358908
 10
244.2918915415
 20
28.7165597795
 10
244.0158873496
 20
29.5026743719
  0
ARC
  5
28E
330
1F
100
AcDbEntity
  8
0
  6
Continuous
 62
     7
370
     0
100
AcDbCircle
 10
249.7730605633
 20
31.1141455101
 30
0.0
 40
6.529282252516274
100
AcDbArc
 50
198.7440673379
 51
214.0541620116
  0
LINE
  5
28F
330
1F
100
AcDbEntity
  8
0
  6
Continuous
 62
     7
370
     0
100
AcDbLine
 10
260.3374356774
 20
52.052368381
 30
0.0
 11
259.7964466995
 21
51.7400620917
 31
0.0
  0
ARC
  5
290
330
1F
100
AcDbEntity
  8
0
  6
Continuous
 62
     7
370
     0
100
AcDbCircle
 10
232.890192217
 20
45.7065570789
 30
0.0
 40
1.102095792745949
100
AcDbArc
 50
159.4111972489
 51
213.1915491986
  0
ARC
  5
291
330
1F
100
AcDbEntity
  8
0
  6
Continuous
 62
     7
370
     0
100
AcDbCircle
 10
231.5583814081
 20
45.5350722562
 30
0.0
 40
0.6345057597337856
100
AcDbArc
 50
41.9989524423
 51
61.7721687695
  0
LINE
  5
292
330
1F
100
AcDbEntity
  8
0
  6
Continuous
 62
     7
370
     0
100
AcDbLine
 10
231.8584891805
 20
46.0941186622
 30
0.0
 11
231.9680360321
 21
46.504916423
 31
0.0
  0
LINE
  5
293
330
1F
100
AcDbEntity
  8
0
  6
Continuous
 62
     7
370
     0
100
AcDbLine
 10
231.8584891805
 20
46.0941186622
 30
0.0
 11
231.0564444422
 21
46.5571292342
 31
0.0
  0
LINE
  5
294
330
1F
100
AcDbEntity
  8
0
  6
Continuous
 62
     7
370
     0
100
AcDbLine
 10
229.1822134252
 20
47.7185898695
 30
0.0
 11
229.1659770222
 21
47.9137282202
 31
0.0
  0
ARC
  5
295
330
1F
100
AcDbEntity
  8
0
  6
Continuous
 62
     7
370
     0
100
AcDbCircle
 10
231.648529199
 20
37.4414993499
 30
0.0
 40
0.4314912001449189
100
AcDbArc
 50
27.8850837496
 51
60.8831993912
  0
ARC
  5
296
330
1F
100
AcDbEntity
  8
0
  6
Continuous
 62
     7
370
     0
100
AcDbCircle
 10
233.0982278758
 20
38.2135575456
 30
0.0
 40
1.301173266867202
100
AcDbArc
 50
165.9701785416
 51
197.6766607319
  0
LINE
  5
297
330
1F
100
AcDbEntity
  8
0
  6
Continuous
 62
     7
370
     0
100
AcDbLine
 10
231.4667180147
 20
40.7273286352
 30
0.0
 11
230.1459878366
 21
41.489769938
 31
0.0
  0
LINE
  5
298
330
1F
100
AcDbEntity
  8
0
  6
Continuous
 62
     7
370
     0
100
AcDbLine
 10
231.8584891805
 20
37.8184628256
 30
0.0
 11
231.0564444422
 21
38.2814733975
 31
0.0
  0
LINE
  5
299
330
1F
100
AcDbEntity
  8
0
  6
Continuous
 62
     7
370
     0
100
AcDbLine
 10
231.8584891805
 20
37.8184628256
 30
0.0
 11
231.9680360321
 21
37.5341451675
 31
0.0
  0
OLE2FRAME
  5
29A
330
1F
100
AcDbEntity
  8
0
100
AcDbOle2Frame
 70
     2
  3
Paintbrush-Bild
 10
13.8511154363
 20
38.264191557
 30
0.0
 11
51.6290888628
 21
31.9806341108
 31
0.0
 71
     2
 72
     0
 73
     1
 90
    12928
310
80552BED0767C5B32B40DDAF6807D121434000000000000000006FFBDDFB85D0
310
4940DDAF6807D121434000000000000000006FFBDDFB85D04940416F4BD60AFB
310
3F4000000000000000002BED0767C5B32B40416F4BD60AFB3F40000000000000
310
0000000000000100000000010000010000000100000000000100000000320000
310
D0CF11E0A1B11AE1000000000000000000000000000000003E000300FEFF0900
310
0600000000000000000000000100000001000000000000000010000002000000
310
01000000FEFFFFFF0000000000000000FFFFFFFFFFFFFFFFFFFFFFFFFFFFFFFF
310
FFFFFFFFFFFFFFFFFFFFFFFFFFFFFFFFFFFFFFFFFFFFFFFFFFFFFFFFFFFFFFFF
310
FFFFFFFFFFFFFFFFFFFFFFFFFFFFFFFFFFFFFFFFFFFFFFFFFFFFFFFFFFFFFFFF
310
FFFFFFFFFFFFFFFFFFFFFFFFFFFFFFFFFFFFFFFFFFFFFFFFFFFFFFFFFFFFFFFF
310
FFFFFFFFFFFFFFFFFFFFFFFFFFFFFFFFFFFFFFFFFFFFFFFFFFFFFFFFFFFFFFFF
310
FFFFFFFFFFFFFFFFFFFFFFFFFFFFFFFFFFFFFFFFFFFFFFFFFFFFFFFFFFFFFFFF
310
FFFFFFFFFFFFFFFFFFFFFFFFFFFFFFFFFFFFFFFFFFFFFFFFFFFFFFFFFFFFFFFF
310
FFFFFFFFFFFFFFFFFFFFFFFFFFFFFFFFFFFFFFFFFFFFFFFFFFFFFFFFFFFFFFFF
310
FFFFFFFFFFFFFFFFFFFFFFFFFFFFFFFFFFFFFFFFFFFFFFFFFFFFFFFFFFFFFFFF
310
FFFFFFFFFFFFFFFFFFFFFFFFFFFFFFFFFFFFFFFFFFFFFFFFFFFFFFFFFFFFFFFF
310
FFFFFFFFFFFFFFFFFFFFFFFFFFFFFFFFFFFFFFFFFFFFFFFFFFFFFFFFFFFFFFFF
310
FFFFFFFFFFFFFFFFFFFFFFFFFFFFFFFFFFFFFFFFFFFFFFFFFFFFFFFFFFFFFFFF
310
FFFFFFFFFFFFFFFFFFFFFFFFFFFFFFFFFFFFFFFFFFFFFFFFFFFFFFFFFFFFFFFF
310
FFFFFFFFFFFFFFFFFFFFFFFFFFFFFFFFFFFFFFFFFFFFFFFFFFFFFFFFFFFFFFFF
310
FDFFFFFFFEFFFFFFFEFFFFFFFEFFFFFF05000000060000000700000008000000
310
090000000A0000000B0000000C0000000D0000000E0000000F00000010000000
310
11000000120000001300000014000000150000001600000017000000FEFFFFFF
310
FFFFFFFFFFFFFFFFFFFFFFFFFFFFFFFFFFFFFFFFFFFFFFFFFFFFFFFFFFFFFFFF
310
FFFFFFFFFFFFFFFFFFFFFFFFFFFFFFFFFFFFFFFFFFFFFFFFFFFFFFFFFFFFFFFF
310
FFFFFFFFFFFFFFFFFFFFFFFFFFFFFFFFFFFFFFFFFFFFFFFFFFFFFFFFFFFFFFFF
310
FFFFFFFFFFFFFFFFFFFFFFFFFFFFFFFFFFFFFFFFFFFFFFFFFFFFFFFFFFFFFFFF
310
FFFFFFFFFFFFFFFFFFFFFFFFFFFFFFFFFFFFFFFFFFFFFFFFFFFFFFFFFFFFFFFF
310
FFFFFFFFFFFFFFFFFFFFFFFFFFFFFFFFFFFFFFFFFFFFFFFFFFFFFFFFFFFFFFFF
310
FFFFFFFFFFFFFFFFFFFFFFFFFFFFFFFFFFFFFFFFFFFFFFFFFFFFFFFFFFFFFFFF
310
FFFFFFFFFFFFFFFFFFFFFFFFFFFFFFFFFFFFFFFFFFFFFFFFFFFFFFFFFFFFFFFF
310
FFFFFFFFFFFFFFFFFFFFFFFFFFFFFFFFFFFFFFFFFFFFFFFFFFFFFFFFFFFFFFFF
310
FFFFFFFFFFFFFFFFFFFFFFFFFFFFFFFFFFFFFFFFFFFFFFFFFFFFFFFFFFFFFFFF
310
FFFFFFFFFFFFFFFFFFFFFFFFFFFFFFFFFFFFFFFFFFFFFFFFFFFFFFFFFFFFFFFF
310
FFFFFFFFFFFFFFFFFFFFFFFFFFFFFFFFFFFFFFFFFFFFFFFFFFFFFFFFFFFFFFFF
310
FFFFFFFFFFFFFFFFFFFFFFFFFFFFFFFFFFFFFFFFFFFFFFFFFFFFFFFFFFFFFFFF
310
52006F006F007400200045006E00740072007900000000000000000000000000
310
0000000000000000000000000000000000000000000000000000000000000000
310
16000500FFFFFFFFFFFFFFFF020000000A00030000000000C000000000000046
310
000000000000000000000000308B1AB8D81FD20103000000C000000000000000
310
01004F006C006500000000000000000000000000000000000000000000000000
310
0000000000000000000000000000000000000000000000000000000000000000
310
0A000200FFFFFFFFFFFFFFFFFFFFFFFF00000000000000000000000000000000
310
0000000000000000000000000000000000000000000000001400000000000000
310
010043006F006D0070004F0062006A0000000000000000000000000000000000
310
0000000000000000000000000000000000000000000000000000000000000000
310
120002010100000003000000FFFFFFFF00000000000000000000000000000000
310
0000000000000000000000000000000000000000010000004D00000000000000
310
01004F006C006500310030004E00610074006900760065000000000000000000
310
0000000000000000000000000000000000000000000000000000000000000000
310
1A000200FFFFFFFFFFFFFFFFFFFFFFFF00000000000000000000000000000000
310
0000000000000000000000000000000000000000040000002426000000000000
310
FEFFFFFF02000000FEFFFFFFFFFFFFFFFFFFFFFFFFFFFFFFFFFFFFFFFFFFFFFF
310
FFFFFFFFFFFFFFFFFFFFFFFFFFFFFFFFFFFFFFFFFFFFFFFFFFFFFFFFFFFFFFFF
310
FFFFFFFFFFFFFFFFFFFFFFFFFFFFFFFFFFFFFFFFFFFFFFFFFFFFFFFFFFFFFFFF
310
FFFFFFFFFFFFFFFFFFFFFFFFFFFFFFFFFFFFFFFFFFFFFFFFFFFFFFFFFFFFFFFF
310
FFFFFFFFFFFFFFFFFFFFFFFFFFFFFFFFFFFFFFFFFFFFFFFFFFFFFFFFFFFFFFFF
310
FFFFFFFFFFFFFFFFFFFFFFFFFFFFFFFFFFFFFFFFFFFFFFFFFFFFFFFFFFFFFFFF
310
FFFFFFFFFFFFFFFFFFFFFFFFFFFFFFFFFFFFFFFFFFFFFFFFFFFFFFFFFFFFFFFF
310
FFFFFFFFFFFFFFFFFFFFFFFFFFFFFFFFFFFFFFFFFFFFFFFFFFFFFFFFFFFFFFFF
310
FFFFFFFFFFFFFFFFFFFFFFFFFFFFFFFFFFFFFFFFFFFFFFFFFFFFFFFFFFFFFFFF
310
FFFFFFFFFFFFFFFFFFFFFFFFFFFFFFFFFFFFFFFFFFFFFFFFFFFFFFFFFFFFFFFF
310
FFFFFFFFFFFFFFFFFFFFFFFFFFFFFFFFFFFFFFFFFFFFFFFFFFFFFFFFFFFFFFFF
310
FFFFFFFFFFFFFFFFFFFFFFFFFFFFFFFFFFFFFFFFFFFFFFFFFFFFFFFFFFFFFFFF
310
FFFFFFFFFFFFFFFFFFFFFFFFFFFFFFFFFFFFFFFFFFFFFFFFFFFFFFFFFFFFFFFF
310
FFFFFFFFFFFFFFFFFFFFFFFFFFFFFFFFFFFFFFFFFFFFFFFFFFFFFFFFFFFFFFFF
310
FFFFFFFFFFFFFFFFFFFFFFFFFFFFFFFFFFFFFFFFFFFFFFFFFFFFFFFFFFFFFFFF
310
FFFFFFFFFFFFFFFFFFFFFFFFFFFFFFFFFFFFFFFFFFFFFFFFFFFFFFFFFFFFFFFF
310
0100000200000000000000000000000000000000000000000000000000000000
310
0000000000000000000000000000000000000000000000000000000000000000
310
0100FEFF030A0000FFFFFFFF0A00030000000000C00000000000004607000000
310
5042727573680007000000504272757368000700000050427275736800F439B2
310
7100000000000000000000000000000000000000000000000000000000000000
310
0000000000000000000000000000000000000000000000000000000000000000
310
0000000000000000000000000000000000000000000000000000000000000000
310
0000000000000000000000000000000000000000000000000000000000000000
310
0000000000000000000000000000000000000000000000000000000000000000
310
0000000000000000000000000000000000000000000000000000000000000000
310
0000000000000000000000000000000000000000000000000000000000000000
310
0000000000000000000000000000000000000000000000000000000000000000
310
0000000000000000000000000000000000000000000000000000000000000000
310
0000000000000000000000000000000000000000000000000000000000000000
310
0000000000000000000000000000000000000000000000000000000000000000
310
0000000000000000000000000000000000000000000000000000000000000000
310
20260000424D0E260000000000003E00000028000000B40200006E0000000100
310
01000000000000000000130B0000130B00000200000002000000000000FFFFFF
310
FFFFFFFFFFFFFFFFFFFFFFFFFFFFFFFFFFFFFFFFFFFFFFFFFFFFFFFFFFFFFFFF
310
FFFFFFFFFFFFFFFFFFFFFFFFFFFFFFFFFFFFFFFFFFFFFFFFFFFFFFFFFFFFFFFF
310
FFFFFFFFFFFFFFFFFFFFFFFFFFFFFFFFFFFFFFFFFFFFFFFFF000FFFFFFFFFFFF
310
FFFFFFFFFFFFFFFFFFFFFFFFFFFFFFFFFFFFFFFFFFFFFFFFFFFFFFFFFFFFFFFF
310
FFFFFFFFFFFFFFFFFFFFFFFFFFFFFFFFFFFFFFFFFFFFFFFFFFFFFFFFFFFFFFFF
310
FFFFFFFFFFFFFFFFFFFFFFFFFFFFFFFFF000FFFFFFFFFFFFFFFFFFFFFFFFFFFF
310
FFFFFFFFFFFFFFFFFFFFFFFFFFFFFFFFFFFFFFFFFFFFFFFFFFFFFFFFFFFFFFFF
310
FFFFFFFFFFFFFFFFFFFFFFFFFFFFFFFFFFFFFFFFFFFFFFFFFFFFFFFFFFFFFFFF
310
FFFFFFFFFFFFFFFFF000FFFFFFFFFFFFFFFFFFFFFFFFFFFFFFFFFFFFFFFFFFFF
310
FFFFFFFFFFFFFFFFFFFFFFFFFFFFFFFFFFFFFFFFFFFFFFFFFFFFFFFFFFFFFFFF
310
FFFFFFFFFFFFFFFFFFFFFFFFFFFFFFFFFFFFFFFFFFFFFFFFFFFFFFFFFFFFFFFF
310
F000FFFFFFFFFFFFFFFFFFFFFFFFFFFFFFFFFFFFFFFFFFFFFFFFFFFFFFFFFFFF
310
FFFFFFFFFFFFFFFFFFFFFFFFFFFFFFFFFFFFFFFFFFFFFFFFFFFFFFFFFFFFFFFF
310
FFFFFFFFFFFFFFFFFFFFFFFFFFFFFFFFFFFFFFFFFFFFFFFFF000FFFFFFFFFFFF
310
FFFFFFFFFFFFFFFFFFFFFFFFFFFFFFFFFFFFFFFFFFFFFFFFFFFFFFFFFFFFFFFF
310
FFFFFFFFFFFFFFFFFFFFFFFFFFFFFFFFFFFFFFFFFFFFFFFFFFFFFFFFFFFFFFFF
310
FFFFFFFFFFFFFFFFFFFFFFFFFFFFFFFFF000FFFFFFFFFFFFFFFFFFFFFFFFFFFF
310
FFFFFFFFFFFFFFFFFFFFFFFFFFFFFFFFFFFFFFFFFFFFFFFFFFFFFFFFFFFFFFFF
310
FFFFFFFFFFFFFFFFFFFFFFFFFFFFFFFFFFFFFFFFFFFFFFFFFFFFFFFFFFFFFFFF
310
FFFFFFFFFFFFFFFFF000FFFFFFFFFFFFFFFFFFFFFFFFFFFFFFFFFFFFFFFFFFFF
310
FFFFFFFFFFFFFFFFFFFFFFFFFFFFFFFFFFFFFFFFFFFFFFFFFFFFFFFFFFFFFFFF
310
FFFFFFFFFFFFFFFFFFFFFFFFFFFFFFFFFFFFFFFFFFFFFFFFFFFFFFFFFFFFFFFF
310
F000FFFFFFFFFFFFFFFFFFFFFFFFFFFFFFFFFFFFFFFFFFFFFFFFFFFFFFFFFFFF
310
FFFFFFFFFFFFFFFFFFFFFFFFFFFFFFFFFFFFFFFFFFFFFFFFFFFFFFFFFFFFFFFF
310
FFFFFFFFFFFFFFFFFFFFFFFFFFFFFFFFFFFFFFFFFFFFFFFFF000FFFFFFFFFFFF
310
FFFFFFFFFFFFFFFFFFFFFFFFFFFFFFFFFFFFFFFFFFFFFFFFFFFFFFFFFFFFFFFF
310
FFFFFFFFFFFFFFFFFFFFFFFFFFFFFFFFFFFFFFFFFFFFFFFFFFFFFFFFFFFFFFFF
310
FFFFFFFFFFFFFFFFFFFFFFFFFFFFFFFFF000FFFFFFFFFFFFFFFFFFFFFFFFFFFF
310
FFFFFFFFFFFFFFFFFFFFFFFFFFFFFFFFFFFFFFFFFFFFFFFFFFFFFFFFFFFFFFFF
310
FFFFFFFFFFFFFFFFFFFFFFFFFFFFFFFFFFFFFFFFFFFFFFFFFFFFFFFFFFFFFFFF
310
FFFFFFFFFFFFFFFFF000FFFFFFFFFFFFFFFFFFFFFFFFFFFFFFFFFFFFFFFFFFFF
310
FFFFFFFFFFFFFFFFFFFFFFFFFFFFFFFFFFFFFFFFFFFFFFFFFFFFFFFFFFFFFFFF
310
FFFFFFFFFFFFFFFFFFFFFFFFFFFFFFFFFFFFFFFFFFFFFFFFFFFFFFFFFFFFFFFF
310
F000FFFFFFFFFFFFFFFFFFFFFFFFFFFFFFFFFFFFFFFFFFFFFFFFFFFFFFFFFFFF
310
FFFFFFFFFFFFFFFFFFFFFFFFFFFFFFFFFFFFFFFFFFFFFFFFFFFFFFFFFFFFFFFF
310
FFFFFFFFFFFFFFFFFFFFFFFFFFFFFFFFFFFFFFFFFFFFFFFFF000FFFFFFFFFFFF
310
FFFFFFFFFFFFFFFFFFFFFFFFFFFFFFFFFFFFFFFFFFFFFFFFFFFFFFFFFFFFFFFF
310
FFFFFFFFFFFFFFFFFFFFFFFFFFFFFFFFFFFFFFFFFFFFFFFFFFFFFFFFFFFFFFFF
310
FFFFFFFFFFFFFFFFFFFFFFFFFFFFFFFFF000FFFFFFFFFFFFFFFFFFFFFFFFFFFF
310
FFFFFFFFFFFFFFFFFFFFFFFFFFFFFFFFFFFFFFFFFFFFFFFFFFFFFFFFFFFFFFFF
310
FFFFFFFFFFFFFFFFFFFFFFFFFFFFFFFFFFFFFFFFFFFFFFFFFFFFFFFFFFFFFFFF
310
FFFFFFFFFFFFFFFFF000FFFFFFFFFFFFFFFFFFFFFFFFFFFFFFFFFFFFFFFFFFFF
310
FFFFFFFFFFFFFFFFFFFFFFFFFFFFFFFFFFFFFFFFFFFFFFFFFFFFFFFFFFFFFFFF
310
FFFFFFFFFFFFFFFFFFFFFFFFFFFFFFFFFFFFFFFFFFFFFFFFFFFFFFFFFFFFFFFF
310
F000FFFFFFFFFFFFFFFFFFFFFFFFFFFFFFFFFFFFFFFFFFFFFFFFFFFFFFFFFFFF
310
FFFFFFFFFFFFFFFFFFFFFFFFFFFFFFFFFFFFFFFFFFFFFFFFFFFFFFFFFFFFFFFF
310
FFFFFFFFFFFFFFFFFFFFFFFFFFFFFFFFFFFFFFFFFFFFFFFFF000FFFFFFFFFFFF
310
FFFFFFFFFFFFFFFFFFFFFFFFFFFFFFFFFFFFFFFFFFFFFFFFFFFFFFFFFFFFFFFF
310
FFFFFFFFFFFFFFFFFFFFFFFFFFFFFFFFFFFFFFFFFFFFFFFFFFFFFFFFFFFFFFFF
310
FFFFFFFFFFFFFFFFFFFFFFFFFFFFFFFFF000FFFFFFFFFFFFFFFFFFFFFFFFFFFF
310
FFFFFFFFFFFFFFFFFFFFFFFFFFFFFFFFFFFFFFFFFFFFFFFFFFFFFFFFFFFFFFFF
310
FFFFFFFFFFFFFFFFFFFFFFFFFFFFFFFFFFFFFFFFFFFFFFFFFFFFFFFFFFFFFFFF
310
FFFFFFFFFFFFFFFFF000FFFFF80003FFFFFFFFFFFFFFFFFFFFFFFFFFFFFFFFFF
310
FFFFF00007FFFFFFFFFF00007FFFFFF800000000000000007FFFFFFFFFFFFFFF
310
FFFFFFFC001FFFFFFFFFFFFFFC001FFFFFFFFFFFFFFFFFFFFFFFFFFE0007FFFF
310
F000FFFF8000007FFFFFFFF8000FFFFFC0007FFFFF80007FFFFF0000007FFFFF
310
FFF8000007FFFFF800000000000000007FFFFFF0001FFFFFFFFFFFC00001FFFF
310
FFFFFFFFC00001FFFFFFFF000000000003FFFFE000007FFFF000FFFE0000000F
310
FFFFFFF0000FFFFF80007FFFFF80007FFFFC0000001FFFFFFFC0000001FFFFF8
310
00000000000000007FFFFFF0001FFFFFFFFFFE0000003FFFFFFFFFFE0000003F
310
FFFFFF000000000003FFFF0000000FFFF000FFF800000003FFFFFFF00007FFFF
310
80007FFFFF80007FFFF000000007FFFFFF000000003FFFF80000000000000000
310
7FFFFFF0001FFFFFFFFFF80000000FFFFFFFFFF80000000FFFFFFF0000000000
310
03FFFC00000003FFF000FFE000000000FFFFFFF00007FFFF80003FFFFF80007F
310
FFC000000001FFFFFC000000001FFFF800000000000000007FFFFFF0001FFFFF
310
FFFFE000000003FFFFFFFFE000000003FFFFFF000000000003FFF000000000FF
310
F000FF80000000007FFFFFF00007FFFF80003FFFFF80007FFF8000000000FFFF
310
F80000000007FFF800000000000000007FFFFFF0001FFFFFFFFFC000000001FF
310
FFFFFFC000000001FFFFFF000000000003FFC0000000007FF000FF0000000000
310
3FFFFFE00007FFFF00003FFFFF80007FFE00000000003FFFF00000000003FFF8
310
00000000000000007FFFFFF0001FFFFFFFFF8000000000FFFFFFFF8000000000
310
FFFFFF000000000003FF80000000003FF000FE00000000001FFFFFE00003FFFF
310
00003FFFFF80007FFC00000000001FFFE00000000001FFF8000001FFFE000000
310
7FFFFFF0001FFFFFFFFE00000000003FFFFFFE00000000003FFFFF0000000000
310
03FF00000000001FF000FC00000000000FFFFFE00003FFFF00001FFFFF80007F
310
F800000000001FFFC00000000000FFF8000001FFFE0000007FFFFFF0001FFFFF
310
FFFC00000000001FFFFFFC00000000001FFFFF000000000003FE00000000000F
310
F000F8000000000007FFFFE00003FFFF00001FFFFF80007FF800000000000FFF
310
800000000000FFF8000001FFFE0000007FFFFFF0001FFFFFFFF800000000000F
310
FFFFF800000000000FFFFF000000000003FC000000000007F000F80000000000
310
03FFFFC00003FFFE00001FFFFF80007FF0000000000007FF0000000000007FF8
310
000001FFFE0000007FFFFFF0001FFFFFFFF0000000000007FFFFF00000000000
310
07FFFF000000000003F8000000000003F000F0000000000003FFFFC00001FFFE
310
00001FFFFF80007FE0000000000007FE0000000000003FF8000001FFFE000000
310
7FFFFFF0001FFFFFFFF0000000000007FFFFF0000000000007FFFF0000000000
310
03F800001F800003F000E00001FFF00001FFFFC00001FFFE00000FFFFF80007F
310
E00001FFE00003FE00001FFF00003FF8000001FFFE0000007FFFFFF0001FFFFF
310
FFE000003E000003FFFFE000003E000003FFFF000000000003F00001FFF80001
310
F000E00007FFFC0001FFFFC00001FFFE00000FFFFF80007FC0000FFFFC0003FC
310
0000FFFFC0001FF8000001FFFE0000007FFFFFF0001FFFFFFFC00003FFE00001
310
FFFFC00003FFE00001FFFF0001FFFFFFFFF00007FFFE0001F000E0000FFFFF00
310
00FFFF800001FFFC00000FFFFF80007FC0001FFFFE0001FC0001FFFFE0001FF8
310
000001FFFE0000007FFFFFF0001FFFFFFF80000FFFF80000FFFF80000FFFF800
310
00FFFF0003FFFFFFFFE0000FFFFF8000F000C0003FFFFF8000FFFF800000FFFC
310
000007FFFF80007F80003FFFFF0001FC0003FFFFF0001FF8000001FFFE000000
310
7FFFFFF0001FFFFFFF80003FFFFE0000FFFF80003FFFFE0000FFFF0003FFFFFF
310
FFE0003FFFFF8000F000C0003FFFFF8000FFFF800000FFFC000007FFFF80007F
310
80007FFFFF8001F80007FFFFF8000FF8000001FFFE0000007FFFFFF0001FFFFF
310
FF00007FFFFF00007FFF00007FFFFF00007FFF0003FFFFFFFFE0003FFFFFC000
310
F000C0007FFFFFC000FFFF000000FFFC000007FFFF80007F8000FFFFFF8000F8
310
000FFFFFF8000FF8000001FFFE0000007FFFFFF0001FFFFFFF0000FFFFFF8000
310
7FFF0000FFFFFF80007FFF0003FFFFFFFFC0007FFFFFC00070008000FFFFFFC0
310
00FFFF000000FFF8000007FFFF80007F8000FFFFFF8000F8000FFFFFF8000FF8
310
000001FFFE0000007FFFFFF0001FFFFFFE0001FFFFFFC0003FFE0001FFFFFFC0
310
003FFF0003FFFFFFFFC0007FFFFFE00070008000FFFFFFC0007FFF0000007FF8
310
000003FFFF80007F0001FFFFFF8000F8000FFFFFF8000FF8000001FFFE000000
310
7FFFFFF0001FFFFFFE0001FFFFFFC0003FFE0001FFFFFFC0003FFF0003FFFFFF
310
FFC000FFFFFFE00070008000FFFFFFC0007FFF0000007FF8000003FFFF80007F
310
0001FFFFFF8000F8001FFFFFF8000FF8000001FFFE0000007FFFFFF0001FFFFF
310
FE0003FFFFFFE0003FFE0003FFFFFFE0003FFF0003FFFFFFFFC000FFFFFFE000
310
70008000FFFFFFC0007FFE0000007FF8000003FFFF80007F0001FFFFFF8000F0
310
001FFFFFF8000FF8000001FFFE0000007FFFFFF0001FFFFFFC0003FFFFFFE000
310
1FFC0003FFFFFFE0001FFF0003FFFFFFFFC000FFFFFFC00070008000FFFFFF80
310
007FFE0000007FF0000003FFFF80007F0001FFFFFF0000F0001FFFFFF8000FF8
310
000001FFFE0000007FFFFFF0001FFFFFFC0007FFFFFFF0001FFC0007FFFFFFF0
310
001FFF0003FFFFFFFFC000FFFFFFC00070008001FFFFFF0000FFFE0000003FF0
310
000001FFFF80007F0001FFFFFF0000F8001FFFFFF0000FF8000001FFFE000000
310
7FFFFFF0001FFFFFFC0007FFFFFFF0001FFC0007FFFFFFF0001FFF0003FFFFFF
310
FFC001FFFFFF80007000FFFFFFFFFE0000FFFE0008003FF0008001FFFF80007F
310
FFFFFFFFFC0000FFFFFFFFFFE0000FF8000001FFFE0000007FFFFFF0001FFFFF
310
F8000FFFFFFFF8000FF8000FFFFFFFF8000FFF0003FFFFFFFFFFFFFFFFFF0000
310
7000FFFFFFFFFC0000FFFC0008003FF0008001FFFF80007FFFFFFFFFF80001FF
310
FFFFFFFF80000FF8000001FFFE0000007FFFFFF0001FFFFFF8000FFFFFFFF800
310
0FF8000FFFFFFFF8000FFF0003FFFFFFFFFFFFFFFFFE0000F000FFFFFFFFE000
310
00FFFC000C003FE000C001FFFF80007FFFFFFFFFC00001FFFFFFFFFE00001FF8
310
000001FFFE0000007FFFFFF0001FFFFFF8000FFFFFFFF8000FF8000FFFFFFFF8
310
000FFF0003FFFFFFFFFFFFFFFFF00000F000FFFFFFFE000001FFFC000C001FE0
310
00C000FFFF80007FFFFFFFFE000001FFFFFFFFE000001FF80FFFFFFFFFFFFFC0
310
7FFFFFF0001FFFFFF8000FFFFFFFF8000FF8000FFFFFFFF8000FFF0003FFFFFF
310
FFFFFFFFFF800000F000FFFFFFC0000001FFFC001C001FE001C000FFFF80007F
310
FFFFFF80000003FFFFFFF80000001FF80FFFFFFFFFFFFFC07FFFFFF0001FFFFF
310
F8001FFFFFFFFC000FF8001FFFFFFFFC000FFF0003FFFFFFFFFFFFFFF0000001
310
F000FFFFF800000001FFF8001C001FE001C000FFFF80007FFFFFF800000003FF
310
FFFF800000003FF80FFFFFFFFFFFFFC07FFFFFF0001FFFFFF8001FFFFFFFFC00
310
0FF8001FFFFFFFFC000FFF0003FFFFFFFFFFFFFE00000001F000FFFFC0000000
310
03FFF8001E001FC001E000FFFF80007FFFFF8000000007FFFFFC000000003FF8
310
0FFFFFFFFFFFFFC07FFFFFF0001FFFFFF8001FFFFFFFFC000FF8001FFFFFFFFC
310
000FFF0003FFFFFFFFFFFFE000000003F000FFFE0000000007FFF8001E000FC0
310
01E0007FFF80007FFFFE0000000007FFFFE0000000007FF80FFFFFFFFFFFFFC0
310
7FFFFFF0001FFFFFF0001FFFFFFFFC0007F0001FFFFFFFFC0007FF0003FFFFFF
310
FFFFFF0000000003F000FFF80000000007FFF8001E000FC003E0007FFF80007F
310
FFF0000000000FFFFF8000000000FFF80FFFFFFFFFFFFFC07FFFFFF0001FFFFF
310
F0001FFFFFFFFC0007F0001FFFFFFFFC0007FF0003FFFFFFFFFFFC0000000007
310
F000FFE0000000000FFFF0003E000FC003E0007FFF80007FFFC0000000001FFF
310
FE0000000001FFF80FFFFFFFFFFFFFC07FFFFFF0001FFFFFF0001FFFFFFFFC00
310
07F0001FFFFFFFFC0007FF0003FFFFFFFFFFF0000000000FF000FFC000000000
310
1FFFF0003F000F8003F0003FFF80007FFF80000000003FFFF80000000003FFF8
310
0FFFFFFFFFFFFFC07FFFFFF0001FFFFFF0001FFFFFFFFC0007F0001FFFFFFFFC
310
0007FF0003FFFFFFFFFFE0000000001FF000FF00000000007FFFF0003F000780
310
03F0003FFF80007FFF00000000007FFFF00000000007FFF80FFFFFFFFFFFFFC0
310
7FFFFFF0001FFFFFF0001FFFFFFFFC0007F0001FFFFFFFFC0007FF0003FFFFFF
310
FFFF80000000007FF000FE0000000000FFFFE0003F00078007F0003FFF80007F
310
FE0000000001FFFFE0000000001FFFF80FFFFFFFFFFFFFC07FFFFFF0001FFFFF
310
F0001FFFFFFFFC0007F0001FFFFFFFFC0007FF0003FFFFFFFFFF0000000000FF
310
F000FC0000000003FFFFE0007F00078007F0003FFF80007FFC0000000007FFFF
310
C0000000007FFFF80FFFFFFFFFFFFFC07FFFFFF0001FFFFFF8001FFFFFFFFC00
310
0FF8001FFFFFFFFC000FFF0003FFFFFFFFFE0000000003FFF000FC000000000F
310
FFFFE0007F80070007F8001FFF80007FF8000000001FFFFF8000000001FFFFF8
310
0FFFFFFFFFFFFFC07FFFFFF0001FFFFFF8001FFFFFFFFC000FF8001FFFFFFFFC
310
000FFF0003FFFFFFFFFC000000000FFFF000F8000000007FFFFFE0007F800700
310
07F8001FFF80007FF000000000FFFFFF800000000FFFFFF80FFFFFFFFFFFFFC0
310
7FFFFFF0001FFFFFF8000FFFFFFFF8000FF8000FFFFFFFF8000FFF0003FFFFFF
310
FFFC000000007FFFF000F800000007FFFFFFC0007F8003000FF8001FFF80007F
310
F000000007FFFFFF000000007FFFFFF80FFFFFFFFFFFFFC07FFFFFF0001FFFFF
310
F8000FFFFFFFF8000FF8000FFFFFFFF8000FFF0003FFFFFFFFF80000000FFFFF
310
F000F0000000FFFFFFFFC000FF8003000FF8001FFF80007FE0000000FFFFFFFF
310
0000000FFFFFFFF8000001FFFE0000007FFFFFF0001FFFFFF8000FFFFFFFF800
310
0FF8000FFFFFFFF8000FFF0003FFFFFFFFF8000000FFFFFFF000F000000FFFFF
310
FFFFC000FFC002000FF8000FFF80007FE000001FFFFFFFFE000001FFFFFFFFF8
310
000001FFFE0000007FFFFFF0001FFFFFF8000FFFFFFFF8000FF8000FFFFFFFF8
310
000FFF0003FFFFFFFFF000001FFFFFFFF000E00000FFFFFFFFFFC000FFC00200
310
0FFC000FFF80007FE00001FFFFFFFFFE00001FFFFFFFFFF8000001FFFE000000
310
7FFFFFF0001FFFFFFC000FFFFFFFF8001FFC000FFFFFFFF8001FFF0003FFFFFF
310
FFF00001FFFFFFFFF000E00007FFFFFFFFFF8000FFC000001FFC000FFF80007F
310
C0000FFFFFFFFFFE0000FFFFFFFFFFF8000001FFFE0000007FFFFFF0001FFFFF
310
FC0007FFFFFFF0001FFC0007FFFFFFF0001FFF0003FFFFFFFFF00007FFFFFFFF
310
F000E0001FFFFFFFFFFF8000FFC000001FFC000FFF80007FC0003FFFFFFFFFFE
310
0001FFFFFFFFFFF8000001FFFE0000007FFFFFF0001FFFFFFC0007FFFFFFF000
310
1FFC0007FFFFFFF0001FFF0003FFFFFFFFF0001FFFFFFFFFF000E0003FFFFF00
310
03FF8001FFE000001FFC0007FF80007FC0007FFFFF0007FC0003FFFFF0003FF8
310
000001FFFE0000007FFFFFF0001FFFFFFC0003FFFFFFE0001FFC0003FFFFFFE0
310
001FFF0003FFFFFFFFF0003FFFFFFFFFF000E0003FFFFF0001FF8001FFE00000
310
1FFE0007FF80007FC0007FFFFE0003FC0007FFFFE0003FF8000001FFFE000000
310
7FFFFFF0001FFFFFFE0003FFFFFFE0003FFE0003FFFFFFE0003FFF0003FFFFFF
310
FFF0003FFFFF8001F000E0003FFFFF0001FF0001FFE000001FFE0007FF80007F
310
C0007FFFFE0003FC0007FFFFE0003FF8000001FFFE0000007FFFFFF0001FFFFF
310
FE0001FFFFFFC0003FFE0001FFFFFFC0003FFF0003FFFFFFFFF0003FFFFF0001
310
F000E0003FFFFF0003FF0001FFE000003FFE0007FF80007FC0007FFFFE0003FC
310
0007FFFFE0003FF8000001FFFE0000007FFFFFF0001FFFFFFF0001FFFFFFC000
310
7FFF0001FFFFFFC0007FFF0003FFFFFFFFF0003FFFFF0001F000E0003FFFFE00
310
03FF0003FFF000003FFE0003FF80007FC0007FFFFC0003FE0007FFFFE0003FF8
310
000001FFFE0000007FFFFFF0001FFFFFFF0000FFFFFF80007FFF0000FFFFFF80
310
007FFF0003FFFFFFFFF0003FFFFF0001F000E0003FFFFE0003FF0003FFF00000
310
3FFF0003FF80007FC0007FFFFC0007FE0007FFFFC0003FF8000001FFFE000000
310
7FFFFFF0001FFFFFFF80007FFFFF0000FFFF80007FFFFF0000FFFF0003FFFFFF
310
FFF0003FFFFF0003F000E0003FFFFC0003FE0003FFF000003FFF0003FF80007F
310
E0003FFFF80007FE0003FFFFC0007FF8000001FFFE0000007FFFFFF0001FFFFF
310
FF80003FFFFE0000FFFF80003FFFFE0000FFFF0003FFFFFFFFF0001FFFFE0003
310
F000F0001FFFF80003FE0003FFF000007FFF0001FF80007FE0003FFFF00007FE
310
0001FFFF80007FF8000001FFFE0000007FFFFFF0001FFFFFFFC0000FFFF80001
310
FFFFC0000FFFF80001FFFF0003FFFFFFFFF0001FFFFC0003F000F0000FFFF000
310
07FE0007FFF800007FFF0001FF80007FE0001FFFE00007FF0000FFFE00007FF8
310
000001FFFE0000007FFFFFF0001FFFFFFFC00003FFE00001FFFFC00003FFE000
310
01FFFF0003FFFFFFFFF8000FFFF80003F000F00003FFC00007FC0007FFF80000
310
7FFF8001FF80007FF00007FF80000FFF00007FF80000FFF8000001FFFE000000
310
7F80000000000001FFE000003E000003FFFFE000003E000003FFFF0003FFFFFF
310
FFF80003FFE00007F000F800000000000FFC0007FFF800007FFF8001FF80007F
310
F000000000000FFF000000000000FFF8000001FFFE0000007F80000000000001
310
FFF0000000000007FFFFF0000000000007FFFF0003FFFFFFFFFC00007E000007
310
F000F800000000000FFC0007FFF80000FFFF8000FF80007FF800000000001FFF
310
800000000001FFF8000001FFFE0000007F80000000000001FFF800000000000F
310
FFFFF800000000000FFFFF0003FFFFFFFFFC00000000000FF000FC0000000000
310
1FFC0007FFFC0000FFFF8000FF80007FF800000000003FFFC00000000001FFF8
310
000001FFFE0000007F80000000000001FFF800000000000FFFFFF80000000000
310
0FFFFF0003FFFFFFFFFE00000000001FF000FE00000000003FF8000FFFFC0000
310
FFFF8000FF80007FFC00000000003FFFC00000000003FFF8000001FFFE000000
310
7F80000000000001FFFC00000000001FFFFFFC00000000001FFFFF0003FFFFFF
310
FFFF00000000001FF000FF00000000003FF8000FFFFC0000FFFFC000FF80007F
310
FE00000000007FFFE00000000007FFF8000001FFFE0000007F80000000000001
310
FFFE00000000003FFFFFFE00000000003FFFFF0003FFFFFFFFFF80000000003F
310
F000FF80000000007FF8000FFFFC0001FFFFC0007F80007FFF0000000000FFFF
310
F0000000000FFFF800000000000000007F80000000000001FFFF8000000000FF
310
FFFFFF8000000000FFFFFF0003FFFFFFFFFFC0000000007FF000FFC000000000
310
FFF8000FFFFE0001FFFFC0007F80007FFF8000000001FFFFF8000000001FFFF8
310
00000000000000007F80000000000001FFFFC000000001FFFFFFFFC000000001
310
FFFFFF0003FFFFFFFFFFE000000000FFF000FFE000000003FFF0001FFFFE0001
310
FFFFC0007F80007FFFC000000007FFFFFE000000003FFFF80000000000000000
310
7F80000000000001FFFFE000000003FFFFFFFFE000000003FFFFFF0003FFFFFF
310
FFFFF000000003FFF000FFF80000000FFFF0001FFFFE0001FFFFE0007F80007F
310
FFF00000000FFFFFFF00000000FFFFF800000000000000007F80000000000001
310
FFFFF80000000FFFFFFFFFF80000000FFFFFFF0003FFFFFFFFFFFC0000000FFF
310
F000FFFE0000003FFFF0001FFFFE0003FFFFE0003F80007FFFFC0000003FFFFF
310
FFC0000003FFFFF800000000000000007F80000000000001FFFFFE0000003FFF
310
FFFFFFFE0000003FFFFFFF0003FFFFFFFFFFFF0000003FFFF000FFFF800000FF
310
FFF0001FFFFF0003FFFFE0003F80007FFFFF000001FFFFFFFFF800001FFFFFF8
310
00000000000000007F80000000000001FFFFFFC00001FFFFFFFFFFFFC00001FF
310
FFFFFF0003FFFFFFFFFFFFC00000FFFFF000FFFFF8000FFFFFFFFFFFFFFFFFFF
310
FFFFFFFFFFFFFFFFFFFFF0001FFFFFFFFFFF0000FFFFFFF80000000000000000
310
7FFFFFFFFFFFFFFFFFFFFFFC001FFFFFFFFFFFFFFC001FFFFFFFFFFFFFFFFFFF
310
FFFFFFFC001FFFFFF000FFFFFFFFFFFFFFFFFFFFFFFFFFFFFFFFFFFFFFFFFFFF
310
FFFFFFFFFFFFFFFFFFFFFFFFFFFFFFFFFFFFFFFFFFFFFFFFFFFFFFFFFFFFFFFF
310
FFFFFFFFFFFFFFFFFFFFFFFFFFFFFFFFFFFFFFFFFFFFFFFFFFFFFFFFFFFFFFFF
310
F000FFFFFFFFFFFFFFFFFFFFFFFFFFFFFFFFFFFFFFFFFFFFFFFFFFFFFFFFFFFF
310
FFFFFFFFFFFFFFFFFFFFFFFFFFFFFFFFFFFFFFFFFFFFFFFFFFFFFFFFFFFFFFFF
310
FFFFFFFFFFFFFFFFFFFFFFFFFFFFFFFFFFFFFFFFFFFFFFFFF000FFFFFFFFFFFF
310
FFFFFFFFFFFFFFFFFFFFFFFFFFFFFFFFFFFFFFFFFFFFFFFFFFFFFFFFFFFFFFFF
310
FFFFFFFFFFFFFFFFFFFFFFFFFFFFFFFFFFFFFFFFFFFFFFFFFFFFFFFFFFFFFFFF
310
FFFFFFFFFFFFFFFFFFFFFFFFFFFFFFFFF000FFFFFFFFFFFFFFFFFFFFFFFFFFFF
310
FFFFFFFFFFFFFFFFFFFFFFFFFFFFFFFFFFFFFFFFFFFFFFFFFFFFFFFFFFFFFFFF
310
FFFFFFFFFFFFFFFFFFFFFFFFFFFFFFFFFFFFFFFFFFFFFFFFFFFFFFFFFFFFFFFF
310
FFFFFFFFFFFFFFFFF000FFFFFFFFFFFFFFFFFFFFFFFFFFFFFFFFFFFFFFFFFFFF
310
FFFFFFFFFFFFFFFFFFFFFFFFFFFFFFFFFFFFFFFFFFFFFFFFFFFFFFFFFFFFFFFF
310
FFFFFFFFFFFFFFFFFFFFFFFFFFFFFFFFFFFFFFFFFFFFFFFFFFFFFFFFFFFFFFFF
310
F000FFFFFFFFFFFFFFFFFFFFFFFFFFFFFFFFFFFFFFFFFFFFFFFFFFFFFFFFFFFF
310
FFFFFFFFFFFFFFFFFFFFFFFFFFFFFFFFFFFFFFFFFFFFFFFFFFFFFFFFFFFFFFFF
310
FFFFFFFFFFFFFFFFFFFFFFFFFFFFFFFFFFFFFFFFFFFFFFFFF000FFFFFFFFFFFF
310
FFFFFFFFFFFFFFFFFFFFFFFFFFFFFFFFFFFFFFFFFFFFFFFFFFFFFFFFFFFFFFFF
310
FFFFFFFFFFFFFFFFFFFFFFFFFFFFFFFFFFFFFFFFFFFFFFFFFFFFFFFFFFFFFFFF
310
FFFFFFFFFFFFFFFFFFFFFFFFFFFFFFFFF000FFFFFFFFFFFFFFFFFFFFFFFFFFFF
310
FFFFFFFFFFFFFFFFFFFFFFFFFFFFFFFFFFFFFFFFFFFFFFFFFFFFFFFFFFFFFFFF
310
FFFFFFFFFFFFFFFFFFFFFFFFFFFFFFFFFFFFFFFFFFFFFFFFFFFFFFFFFFFFFFFF
310
FFFFFFFFFFFFFFFFF000FFFFFFFFFFFFFFFFFFFFFFFFFFFFFFFFFFFFFFFFFFFF
310
FFFFFFFFFFFFFFFFFFFFFFFFFFFFFFFFFFFFFFFFFFFFFFFFFFFFFFFFFFFFFFFF
310
FFFFFFFFFFFFFFFFFFFFFFFFFFFFFFFFFFFFFFFFFFFFFFFFFFFFFFFFFFFFFFFF
310
F000FFFFFFFFFFFFFFFFFFFFFFFFFFFFFFFFFFFFFFFFFFFFFFFFFFFFFFFFFFFF
310
FFFFFFFFFFFFFFFFFFFFFFFFFFFFFFFFFFFFFFFFFFFFFFFFFFFFFFFFFFFFFFFF
310
FFFFFFFFFFFFFFFFFFFFFFFFFFFFFFFFFFFFFFFFFFFFFFFFF000FFFFFFFFFFFF
310
FFFFFFFFFFFFFFFFFFFFFFFFFFFFFFFFFFFFFFFFFFFFFFFFFFFFFFFFFFFFFFFF
310
FFFFFFFFFFFFFFFFFFFFFFFFFFFFFFFFFFFFFFFFFFFFFFFFFFFFFFFFFFFFFFFF
310
FFFFFFFFFFFFFFFFFFFFFFFFFFFFFFFFF000FFFFFFFFFFFFFFFFFFFFFFFFFFFF
310
FFFFFFFFFFFFFFFFFFFFFFFFFFFFFFFFFFFFFFFFFFFFFFFFFFFFFFFFFFFFFFFF
310
FFFFFFFFFFFFFFFFFFFFFFFFFFFFFFFFFFFFFFFFFFFFFFFFFFFFFFFFFFFFFFFF
310
FFFFFFFFFFFFFFFFF000FFFFFFFFFFFFFFFFFFFFFFFFFFFFFFFFFFFFFFFFFFFF
310
FFFFFFFFFFFFFFFFFFFFFFFFFFFFFFFFFFFFFFFFFFFFFFFFFFFFFFFFFFFFFFFF
310
FFFFFFFFFFFFFFFFFFFFFFFFFFFFFFFFFFFFFFFFFFFFFFFFFFFFFFFFFFFFFFFF
310
F000FFFFFFFFFFFFFFFFFFFFFFFFFFFFFFFFFFFFFFFFFFFFFFFFFFFFFFFFFFFF
310
FFFFFFFFFFFFFFFFFFFFFFFFFFFFFFFFFFFFFFFFFFFFFFFFFFFFFFFFFFFFFFFF
310
FFFFFFFFFFFFFFFFFFFFFFFFFFFFFFFFFFFFFFFFFFFFFFFFF000FFFFFFFFFFFF
310
FFFFFFFFFFFFFFFFFFFFFFFFFFFFFFFFFFFFFFFFFFFFFFFFFFFFFFFFFFFFFFFF
310
FFFFFFFFFFFFFFFFFFFFFFFFFFFFFFFFFFFFFFFFFFFFFFFFFFFFFFFFFFFFFFFF
310
FFFFFFFFFFFFFFFFFFFFFFFFFFFFFFFFF000FFFFFFFFFFFFFFFFFFFFFFFFFFFF
310
FFFFFFFFFFFFFFFFFFFFFFFFFFFFFFFFFFFFFFFFFFFFFFFFFFFFFFFFFFFFFFFF
310
FFFFFFFFFFFFFFFFFFFFFFFFFFFFFFFFFFFFFFFFFFFFFFFFFFFFFFFFFFFFFFFF
310
FFFFFFFFFFFFFFFFF000FFFFFFFFFFFFFFFFFFFFFFFFFFFFFFFFFFFFFFFFFFFF
310
FFFFFFFFFFFFFFFFFFFFFFFFFFFFFFFFFFFFFFFFFFFFFFFFFFFFFFFFFFFFFFFF
310
FFFFFFFFFFFFFFFFFFFFFFFFFFFFFFFFFFFFFFFFFFFFFFFFFFFFFFFFFFFFFFFF
310
F000FFFFFFFFFFFFFFFFFFFFFFFFFFFFFFFFFFFFFFFFFFFFFFFFFFFFFFFFFFFF
310
FFFFFFFFFFFFFFFFFFFFFFFFFFFFFFFFFFFFFFFFFFFFFFFFFFFFFFFFFFFFFFFF
310
FFFFFFFFFFFFFFFFFFFFFFFFFFFFFFFFFFFFFFFFFFFFFFFFF000FFFFFFFFFFFF
310
FFFFFFFFFFFFFFFFFFFFFFFFFFFFFFFFFFFFFFFFFFFFFFFFFFFFFFFFFFFFFFFF
310
FFFFFFFFFFFFFFFFFFFFFFFFFFFFFFFFFFFFFFFFFFFFFFFFFFFFFFFFFFFFFFFF
310
FFFFFFFFFFFFFFFFFFFFFFFFFFFFFFFFF000FFFFFFFFFFFFFFFFFFFFFFFFFFFF
310
FFFFFFFFFFFFFFFFFFFFFFFFFFFFFFFFFFFFFFFFFFFFFFFFFFFFFFFFFFFFFFFF
310
FFFFFFFFFFFFFFFFFFFFFFFFFFFFFFFFFFFFFFFFFFFFFFFFFFFFFFFFFFFFFFFF
310
FFFFFFFFFFFFFFFFF000FFFFFFFFFFFFFFFFFFFFFFFFFFFFFFFFFFFFFFFFFFFF
310
FFFFFFFFFFFFFFFFFFFFFFFFFFFFFFFFFFFFFFFFFFFFFFFFFFFFFFFFFFFFFFFF
310
FFFFFFFFFFFFFFFFFFFFFFFFFFFFFFFFFFFFFFFFFFFFFFFFFFFFFFFFFFFFFFFF
310
F000FFFFFFFFFFFFFFFFFFFFFFFFFFFFFFFFFFFFFFFFFFFFFFFFFFFFFFFFFFFF
310
FFFFFFFFFFFFFFFFFFFFFFFFFFFFFFFFFFFFFFFFFFFFFFFFFFFFFFFFFFFFFFFF
310
FFFFFFFFFFFFFFFFFFFFFFFFFFFFFFFFFFFFFFFFFFFFFFFFF000FFFFFFFFFFFF
310
FFFFFFFFFFFFFFFFFFFFFFFFFFFFFFFFFFFFFFFFFFFFFFFFFFFFFFFFFFFFFFFF
310
FFFFFFFFFFFFFFFFFFFFFFFFFFFFFFFFFFFFFFFFFFFFFFFFFFFFFFFFFFFFFFFF
310
FFFFFFFFFFFFFFFFFFFFFFFFFFFFFFFFF0000000000000000000000000000000
310
0000000000000000000000000000000000000000000000000000000000000000
310
0000000000000000000000000000000000000000000000000000000000000000
310
0000000000000000000000000000000000000000000000000000000000000000
310
0000000000000000000000000000000000000000000000000000000000000000
310
0000000000000000000000000000000000000000000000000000000000000000
310
0000000000000000000000000000000000000000000000000000000000000000
310
0000000000000000000000000000000000000000000000000000000000000000
310
0000000000000000000000000000000000000000000000000000000000000000
310
0000000000000000000000000000000000000000000000000000000000000000
310
0000000000000000000000000000000000000000000000000000000000000000
310
0000000000000000000000000000000000000000000000000000000000000000
310
0000000000000000000000000000000000000000000000000000000000000000
310
0000000000000000000000000000000000000000000000000000000000000000
310
0000000000000000000000000000000000000000000000000000000000000000
310
0000000000000000000000000000000000000000000000000000000000000000
  1
OLE
  0
ENDSEC
  0
SECTION
  2
OBJECTS
  0
DICTIONARY
  5
C
330
0
100
AcDbDictionary
281
     1
  3
ACAD_GROUP
350
D
  3
ACAD_LAYOUT
350
1A
  3
ACAD_MLINESTYLE
350
17
  3
ACAD_PLOTSETTINGS
350
19
  3
ACAD_PLOTSTYLENAME
350
E
  3
ACAD_SCALELIST
350
47
  0
DICTIONARY
  5
D
102
{ACAD_REACTORS
330
C
102
}
330
C
100
AcDbDictionary
281
     1
  0
DICTIONARY
  5
1A
102
{ACAD_REACTORS
330
C
102
}
330
C
100
AcDbDictionary
281
     1
  3
Layout1
350
1E
  3
Layout2
350
26
  3
Model
350
22
  0
DICTIONARY
  5
17
102
{ACAD_REACTORS
330
C
102
}
330
C
100
AcDbDictionary
281
     1
  3
Standard
350
18
  0
DICTIONARY
  5
19
102
{ACAD_REACTORS
330
C
102
}
330
C
100
AcDbDictionary
281
     1
  0
ACDBDICTIONARYWDFLT
  5
E
102
{ACAD_REACTORS
330
C
102
}
330
C
100
AcDbDictionary
281
     1
  3
Normal
350
F
100
AcDbDictionaryWithDefault
340
F
  0
DICTIONARY
  5
47
102
{ACAD_REACTORS
330
C
102
}
330
C
100
AcDbDictionary
281
     1
  3
A0
350
48
  3
A1
350
49
  3
A2
350
4A
  3
A3
350
4B
  3
A4
350
4C
  3
A5
350
4D
  3
A6
350
4E
  3
A7
350
4F
  3
A8
350
50
  3
A9
350
51
  3
B0
350
52
  3
B1
350
53
  3
B2
350
54
  3
B3
350
55
  3
B4
350
56
  3
B5
350
57
  3
B6
350
58
  3
B7
350
59
  3
B8
350
5A
  3
B9
350
5B
  3
C0
350
5C
  3
C1
350
5D
  3
C2
350
5E
  3
C3
350
5F
  3
C4
350
60
  3
C5
350
61
  3
C6
350
62
  3
C7
350
63
  3
C8
350
64
  3
C9
350
65
  3
D0
350
66
  3
D1
350
67
  3
D2
350
68
  0
LAYOUT
  5
1E
102
{ACAD_REACTORS
330
1A
102
}
330
1A
100
AcDbPlotSettings
  1

  2
none_device
  4

  6

 40
0.0
 41
0.0
 42
0.0
 43
0.0
 44
0.0
 45
0.0
 46
0.0
 47
0.0
 48
0.0
 49
0.0
140
0.0
141
0.0
142
1.0
143
1.0
 70
   688
 72
     1
 73
     0
 74
     5
  7

 75
    16
147
1.0
148
0.0
149
0.0
100
AcDbLayout
  1
Layout1
 70
     1
 71
     1
 10
0.0
 20
0.0
 11
420.0
 21
297.0
 12
0.0
 22
0.0
 32
0.0
 14
1.0000000000E+20
 24
1.0000000000E+20
 34
1.0000000000E+20
 15
-1.0000000000E+20
 25
-1.0000000000E+20
 35
-1.0000000000E+20
146
0.0
 13
0.0
 23
0.0
 33
0.0
 16
1.0
 26
0.0
 36
0.0
 17
0.0
 27
1.0
 37
0.0
 76
     0
330
1B
  0
LAYOUT
  5
26
102
{ACAD_REACTORS
330
1A
102
}
330
1A
100
AcDbPlotSettings
  1

  2
none_device
  4

  6

 40
0.0
 41
0.0
 42
0.0
 43
0.0
 44
0.0
 45
0.0
 46
0.0
 47
0.0
 48
0.0
 49
0.0
140
0.0
141
0.0
142
1.0
143
1.0
 70
   688
 72
     1
 73
     0
 74
     5
  7

 75
    16
147
1.0
148
0.0
149
0.0
100
AcDbLayout
  1
Layout2
 70
     1
 71
     2
 10
0.0
 20
0.0
 11
0.0
 21
0.0
 12
0.0
 22
0.0
 32
0.0
 14
0.0
 24
0.0
 34
0.0
 15
0.0
 25
0.0
 35
0.0
146
0.0
 13
0.0
 23
0.0
 33
0.0
 16
1.0
 26
0.0
 36
0.0
 17
0.0
 27
1.0
 37
0.0
 76
     0
330
23
  0
LAYOUT
  5
22
102
{ACAD_REACTORS
330
1A
102
}
330
1A
100
AcDbPlotSettings
  1

  2
none_device
  4
Letter_(8.50_x_11.00_Inches)
  6

 40
6.35
 41
6.35
 42
6.35000508
 43
6.35000508
 44
215.9
 45
279.4
 46
0.0
 47
0.0
 48
0.0
 49
0.0
140
0.0
141
0.0
142
1.0
143
1.0
 70
  1712
 72
     1
 73
     0
 74
     0
  7

 75
     0
147
1.0
148
0.0
149
0.0
100
AcDbLayout
  1
Model
 70
     1
 71
     0
 10
0.0
 20
0.0
 11
297.0
 21
210.0
 12
0.0
 22
0.0
 32
0.0
 14
0.0
 24
0.0
 34
0.0
 15
297.0
 25
210.0
 35
0.0
146
0.0
 13
0.0
 23
0.0
 33
0.0
 16
1.0
 26
0.0
 36
0.0
 17
0.0
 27
1.0
 37
0.0
 76
     0
330
1F
331
29
  0
MLINESTYLE
  5
18
102
{ACAD_REACTORS
330
17
102
}
330
17
100
AcDbMlineStyle
  2
Standard
 70
     0
  3

 62
   256
 51
90.0
 52
90.0
 71
     2
 49
0.5
 62
   256
  6
BYLAYER
 49
-0.5
 62
   256
  6
BYLAYER
  0
ACDBPLACEHOLDER
  5
F
102
{ACAD_REACTORS
330
E
102
}
330
E
  0
SCALE
  5
48
102
{ACAD_REACTORS
330
47
102
}
330
47
100
AcDbScale
 70
     0
300
1:1
140
1.0
141
1.0
290
     1
  0
SCALE
  5
49
102
{ACAD_REACTORS
330
47
102
}
330
47
100
AcDbScale
 70
     0
300
1:2
140
1.0
141
2.0
290
     0
  0
SCALE
  5
4A
102
{ACAD_REACTORS
330
47
102
}
330
47
100
AcDbScale
 70
     0
300
1:4
140
1.0
141
4.0
290
     0
  0
SCALE
  5
4B
102
{ACAD_REACTORS
330
47
102
}
330
47
100
AcDbScale
 70
     0
300
1:5
140
1.0
141
5.0
290
     0
  0
SCALE
  5
4C
102
{ACAD_REACTORS
330
47
102
}
330
47
100
AcDbScale
 70
     0
300
1:8
140
1.0
141
8.0
290
     0
  0
SCALE
  5
4D
102
{ACAD_REACTORS
330
47
102
}
330
47
100
AcDbScale
 70
     0
300
1:10
140
1.0
141
10.0
290
     0
  0
SCALE
  5
4E
102
{ACAD_REACTORS
330
47
102
}
330
47
100
AcDbScale
 70
     0
300
1:16
140
1.0
141
16.0
290
     0
  0
SCALE
  5
4F
102
{ACAD_REACTORS
330
47
102
}
330
47
100
AcDbScale
 70
     0
300
1:20
140
1.0
141
20.0
290
     0
  0
SCALE
  5
50
102
{ACAD_REACTORS
330
47
102
}
330
47
100
AcDbScale
 70
     0
300
1:30
140
1.0
141
30.0
290
     0
  0
SCALE
  5
51
102
{ACAD_REACTORS
330
47
102
}
330
47
100
AcDbScale
 70
     0
300
1:40
140
1.0
141
40.0
290
     0
  0
SCALE
  5
52
102
{ACAD_REACTORS
330
47
102
}
330
47
100
AcDbScale
 70
     0
300
1:50
140
1.0
141
50.0
290
     0
  0
SCALE
  5
53
102
{ACAD_REACTORS
330
47
102
}
330
47
100
AcDbScale
 70
     0
300
1:100
140
1.0
141
100.0
290
     0
  0
SCALE
  5
54
102
{ACAD_REACTORS
330
47
102
}
330
47
100
AcDbScale
 70
     0
300
2:1
140
2.0
141
1.0
290
     0
  0
SCALE
  5
55
102
{ACAD_REACTORS
330
47
102
}
330
47
100
AcDbScale
 70
     0
300
4:1
140
4.0
141
1.0
290
     0
  0
SCALE
  5
56
102
{ACAD_REACTORS
330
47
102
}
330
47
100
AcDbScale
 70
     0
300
8:1
140
8.0
141
1.0
290
     0
  0
SCALE
  5
57
102
{ACAD_REACTORS
330
47
102
}
330
47
100
AcDbScale
 70
     0
300
10:1
140
10.0
141
1.0
290
     0
  0
SCALE
  5
58
102
{ACAD_REACTORS
330
47
102
}
330
47
100
AcDbScale
 70
     0
300
100:1
140
100.0
141
1.0
290
     0
  0
SCALE
  5
59
102
{ACAD_REACTORS
330
47
102
}
330
47
100
AcDbScale
 70
     0
300
1/128" = 1'-0"
140
0.0078125
141
12.0
290
     0
  0
SCALE
  5
5A
102
{ACAD_REACTORS
330
47
102
}
330
47
100
AcDbScale
 70
     0
300
1/64" = 1'-0"
140
0.015625
141
12.0
290
     0
  0
SCALE
  5
5B
102
{ACAD_REACTORS
330
47
102
}
330
47
100
AcDbScale
 70
     0
300
1/32" = 1'-0"
140
0.03125
141
12.0
290
     0
  0
SCALE
  5
5C
102
{ACAD_REACTORS
330
47
102
}
330
47
100
AcDbScale
 70
     0
300
1/16" = 1'-0"
140
0.0625
141
12.0
290
     0
  0
SCALE
  5
5D
102
{ACAD_REACTORS
330
47
102
}
330
47
100
AcDbScale
 70
     0
300
3/32" = 1'-0"
140
0.09375
141
12.0
290
     0
  0
SCALE
  5
5E
102
{ACAD_REACTORS
330
47
102
}
330
47
100
AcDbScale
 70
     0
300
1/8" = 1'-0"
140
0.125
141
12.0
290
     0
  0
SCALE
  5
5F
102
{ACAD_REACTORS
330
47
102
}
330
47
100
AcDbScale
 70
     0
300
3/16" = 1'-0"
140
0.1875
141
12.0
290
     0
  0
SCALE
  5
60
102
{ACAD_REACTORS
330
47
102
}
330
47
100
AcDbScale
 70
     0
300
1/4" = 1'-0"
140
0.25
141
12.0
290
     0
  0
SCALE
  5
61
102
{ACAD_REACTORS
330
47
102
}
330
47
100
AcDbScale
 70
     0
300
3/8" = 1'-0"
140
0.375
141
12.0
290
     0
  0
SCALE
  5
62
102
{ACAD_REACTORS
330
47
102
}
330
47
100
AcDbScale
 70
     0
300
1/2" = 1'-0"
140
0.5
141
12.0
290
     0
  0
SCALE
  5
63
102
{ACAD_REACTORS
330
47
102
}
330
47
100
AcDbScale
 70
     0
300
3/4" = 1'-0"
140
0.75
141
12.0
290
     0
  0
SCALE
  5
64
102
{ACAD_REACTORS
330
47
102
}
330
47
100
AcDbScale
 70
     0
300
1" = 1'-0"
140
1.0
141
12.0
290
     0
  0
SCALE
  5
65
102
{ACAD_REACTORS
330
47
102
}
330
47
100
AcDbScale
 70
     0
300
1-1/2" = 1'-0"
140
1.5
141
12.0
290
     0
  0
SCALE
  5
66
102
{ACAD_REACTORS
330
47
102
}
330
47
100
AcDbScale
 70
     0
300
3" = 1'-0"
140
3.0
141
12.0
290
     0
  0
SCALE
  5
67
102
{ACAD_REACTORS
330
47
102
}
330
47
100
AcDbScale
 70
     0
300
6" = 1'-0"
140
6.0
141
12.0
290
     0
  0
SCALE
  5
68
102
{ACAD_REACTORS
330
47
102
}
330
47
100
AcDbScale
 70
     0
300
1'-0" = 1'-0"
140
12.0
141
12.0
290
     0
  0
ENDSEC
  0
EOF
