  0
SECTION
  2
HEADER
  9
$ACADVER
  1
AC1015
  9
$ACADMAINTVER
 70
     6
  9
$DWGCODEPAGE
  3
ANSI_1252
  9
$INSBASE
 10
0.0
 20
0.0
 30
0.0
  9
$EXTMIN
 10
0.0
 20
0.0
 30
0.0
  9
$EXTMAX
 10
297.0
 20
210.0
 30
0.0
  9
$LIMMIN
 10
0.0
 20
0.0
  9
$LIMMAX
 10
297.0
 20
210.0
  9
$ORTHOMODE
 70
     0
  9
$REGENMODE
 70
     1
  9
$FILLMODE
 70
     1
  9
$QTEXTMODE
 70
     0
  9
$MIRRTEXT
 70
     1
  9
$LTSCALE
 40
1.0
  9
$ATTMODE
 70
     1
  9
$TEXTSIZE
 40
2.0
  9
$TRACEWID
 40
1.0
  9
$TEXTSTYLE
  7
Standard
  9
$CLAYER
  8
0
  9
$CELTYPE
  6
ByLayer
  9
$CECOLOR
 62
   256
  9
$CELTSCALE
 40
1.0
  9
$DISPSILH
 70
     0
  9
$DIMSCALE
 40
1.0
  9
$DIMASZ
 40
3.0
  9
$DIMEXO
 40
0.0
  9
$DIMDLI
 40
3.75
  9
$DIMRND
 40
0.0
  9
$DIMDLE
 40
0.0
  9
$DIMEXE
 40
1.0
  9
$DIMTP
 40
0.0
  9
$DIMTM
 40
0.0
  9
$DIMTXT
 40
2.0
  9
$DIMCEN
 40
2.5
  9
$DIMTSZ
 40
0.0
  9
$DIMTOL
 70
     0
  9
$DIMLIM
 70
     0
  9
$DIMTIH
 70
     1
  9
$DIMTOH
 70
     1
  9
$DIMSE1
 70
     0
  9
$DIMSE2
 70
     0
  9
$DIMTAD
 70
     1
  9
$DIMZIN
 70
     0
  9
$DIMBLK
  1

  9
$DIMASO
 70
     1
  9
$DIMSHO
 70
     1
  9
$DIMPOST
  1

  9
$DIMAPOST
  1

  9
$DIMALT
 70
     0
  9
$DIMALTD
 70
     3
  9
$DIMALTF
 40
0.0393700787
  9
$DIMLFAC
 40
1.0
  9
$DIMTOFL
 70
     1
  9
$DIMTVP
 40
0.0
  9
$DIMTIX
 70
     0
  9
$DIMSOXD
 70
     0
  9
$DIMSAH
 70
     0
  9
$DIMBLK1
  1

  9
$DIMBLK2
  1

  9
$DIMSTYLE
  2
ISO-25
  9
$DIMCLRD
 70
     0
  9
$DIMCLRE
 70
     0
  9
$DIMCLRT
 70
     0
  9
$DIMTFAC
 40
1.0
  9
$DIMGAP
 40
1.524
  9
$DIMJUST
 70
     0
  9
$DIMSD1
 70
     0
  9
$DIMSD2
 70
     0
  9
$DIMTOLJ
 70
     0
  9
$DIMTZIN
 70
     0
  9
$DIMALTZ
 70
     0
  9
$DIMALTTZ
 70
     0
  9
$DIMUPT
 70
     0
  9
$DIMDEC
 70
     2
  9
$DIMTDEC
 70
     3
  9
$DIMALTU
 70
     2
  9
$DIMALTTD
 70
     3
  9
$DIMTXSTY
  7
Standard
  9
$DIMAUNIT
 70
     0
  9
$DIMADEC
 70
     2
  9
$DIMALTRND
 40
0.0
  9
$DIMAZIN
 70
     0
  9
$DIMDSEP
 70
    44
  9
$DIMATFIT
 70
     3
  9
$DIMFRAC
 70
     0
  9
$DIMLDRBLK
  1

  9
$DIMLUNIT
 70
     2
  9
$DIMLWD
 70
    -2
  9
$DIMLWE
 70
    -2
  9
$DIMTMOVE
 70
     0
  9
$LUNITS
 70
     2
  9
$LUPREC
 70
     2
  9
$SKETCHINC
 40
1.0
  9
$FILLETRAD
 40
10.0
  9
$AUNITS
 70
     0
  9
$AUPREC
 70
     2
  9
$MENU
  1
.
  9
$ELEVATION
 40
0.0
  9
$PELEVATION
 40
0.0
  9
$THICKNESS
 40
0.0
  9
$LIMCHECK
 70
     0
  9
$CHAMFERA
 40
0.0
  9
$CHAMFERB
 40
0.0
  9
$CHAMFERC
 40
0.0
  9
$CHAMFERD
 40
0.0
  9
$SKPOLY
 70
     0
  9
$TDCREATE
 40
2457669.413808912
  9
$TDUCREATE
 40
2457669.330475579
  9
$TDUPDATE
 40
2457669.413810486
  9
$TDUUPDATE
 40
2457669.330477153
  9
$TDINDWG
 40
0.0000000116
  9
$TDUSRTIMER
 40
0.0000000116
  9
$USRTIMER
 70
     1
  9
$ANGBASE
 50
0.0
  9
$ANGDIR
 70
     0
  9
$PDMODE
 70
     0
  9
$PDSIZE
 40
-1.0
  9
$PLINEWID
 40
0.0
  9
$SPLFRAME
 70
     0
  9
$SPLINETYPE
 70
     6
  9
$SPLINESEGS
 70
     8
  9
$HANDSEED
  5
27C
  9
$SURFTAB1
 70
     6
  9
$SURFTAB2
 70
     6
  9
$SURFTYPE
 70
     6
  9
$SURFU
 70
     6
  9
$SURFV
 70
     6
  9
$UCSBASE
  2

  9
$UCSNAME
  2

  9
$UCSORG
 10
0.0
 20
0.0
 30
0.0
  9
$UCSXDIR
 10
1.0
 20
0.0
 30
0.0
  9
$UCSYDIR
 10
0.0
 20
1.0
 30
0.0
  9
$UCSORTHOREF
  2

  9
$UCSORTHOVIEW
 70
     0
  9
$UCSORGTOP
 10
0.0
 20
0.0
 30
0.0
  9
$UCSORGBOTTOM
 10
0.0
 20
0.0
 30
0.0
  9
$UCSORGLEFT
 10
0.0
 20
0.0
 30
0.0
  9
$UCSORGRIGHT
 10
0.0
 20
0.0
 30
0.0
  9
$UCSORGFRONT
 10
0.0
 20
0.0
 30
0.0
  9
$UCSORGBACK
 10
0.0
 20
0.0
 30
0.0
  9
$PUCSBASE
  2

  9
$PUCSNAME
  2

  9
$PUCSORG
 10
0.0
 20
0.0
 30
0.0
  9
$PUCSXDIR
 10
1.0
 20
0.0
 30
0.0
  9
$PUCSYDIR
 10
0.0
 20
1.0
 30
0.0
  9
$PUCSORTHOREF
  2

  9
$PUCSORTHOVIEW
 70
     0
  9
$PUCSORGTOP
 10
0.0
 20
0.0
 30
0.0
  9
$PUCSORGBOTTOM
 10
0.0
 20
0.0
 30
0.0
  9
$PUCSORGLEFT
 10
0.0
 20
0.0
 30
0.0
  9
$PUCSORGRIGHT
 10
0.0
 20
0.0
 30
0.0
  9
$PUCSORGFRONT
 10
0.0
 20
0.0
 30
0.0
  9
$PUCSORGBACK
 10
0.0
 20
0.0
 30
0.0
  9
$USERI1
 70
     0
  9
$USERI2
 70
     0
  9
$USERI3
 70
     0
  9
$USERI4
 70
     0
  9
$USERI5
 70
     0
  9
$USERR1
 40
0.0
  9
$USERR2
 40
0.0
  9
$USERR3
 40
0.0
  9
$USERR4
 40
0.0
  9
$USERR5
 40
0.0
  9
$WORLDVIEW
 70
     1
  9
$SHADEDGE
 70
     3
  9
$SHADEDIF
 70
    70
  9
$TILEMODE
 70
     1
  9
$MAXACTVP
 70
    64
  9
$PINSBASE
 10
0.0
 20
0.0
 30
0.0
  9
$PLIMCHECK
 70
     0
  9
$PEXTMIN
 10
1.0000000000E+20
 20
1.0000000000E+20
 30
1.0000000000E+20
  9
$PEXTMAX
 10
-1.0000000000E+20
 20
-1.0000000000E+20
 30
-1.0000000000E+20
  9
$PLIMMIN
 10
0.0
 20
0.0
  9
$PLIMMAX
 10
420.0
 20
297.0
  9
$UNITMODE
 70
     0
  9
$VISRETAIN
 70
     1
  9
$PLINEGEN
 70
     0
  9
$PSLTSCALE
 70
     1
  9
$TREEDEPTH
 70
  3020
  9
$CMLSTYLE
  2
Standard
  9
$CMLJUST
 70
     0
  9
$CMLSCALE
 40
20.0
  9
$PROXYGRAPHICS
 70
     1
  9
$MEASUREMENT
 70
     1
  9
$CELWEIGHT
370
    -1
  9
$ENDCAPS
280
     0
  9
$JOINSTYLE
280
     0
  9
$LWDISPLAY
290
     1
  9
$INSUNITS
 70
     4
  9
$HYPERLINKBASE
  1

  9
$STYLESHEET
  1

  9
$XEDIT
290
     1
  9
$CEPSNTYPE
380
     0
  9
$PSTYLEMODE
290
     1
  9
$FINGERPRINTGUID
  2
{DB6FF966-1F71-4EF1-9CCB-44D9C625AC4B}
  9
$VERSIONGUID
  2
{FAEB1C32-E019-11D5-929B-00C0DF256EC4}
  9
$EXTNAMES
290
     1
  9
$PSVPSCALE
 40
0.0
  9
$OLESTARTUP
290
     0
  0
ENDSEC
  0
SECTION
  2
CLASSES
  0
CLASS
  1
ACDBDICTIONARYWDFLT
  2
AcDbDictionaryWithDefault
  3
ObjectDBX Classes
 90
        0
280
     0
281
     0
  0
CLASS
  1
VISUALSTYLE
  2
AcDbVisualStyle
  3
ObjectDBX Classes
 90
     4095
280
     0
281
     0
  0
CLASS
  1
MATERIAL
  2
AcDbMaterial
  3
ObjectDBX Classes
 90
     1153
280
     0
281
     0
  0
CLASS
  1
SCALE
  2
AcDbScale
  3
ObjectDBX Classes
 90
     1153
280
     0
281
     0
  0
CLASS
  1
TABLESTYLE
  2
AcDbTableStyle
  3
ObjectDBX Classes
 90
     4095
280
     0
281
     0
  0
CLASS
  1
MLEADERSTYLE
  2
AcDbMLeaderStyle
  3
ACDB_MLEADERSTYLE_CLASS
 90
     4095
280
     0
281
     0
  0
CLASS
  1
SUN
  2
AcDbSun
  3
SCENEOE
 90
     1153
280
     0
281
     0
  0
CLASS
  1
ACDBPLACEHOLDER
  2
AcDbPlaceHolder
  3
ObjectDBX Classes
 90
        0
280
     0
281
     0
  0
CLASS
  1
LAYOUT
  2
AcDbLayout
  3
ObjectDBX Classes
 90
        0
280
     0
281
     0
  0
ENDSEC
  0
SECTION
  2
TABLES
  0
TABLE
  2
VPORT
  5
8
330
0
100
AcDbSymbolTable
 70
     1
  0
VPORT
  5
29
330
8
100
AcDbSymbolTableRecord
100
AcDbViewportTableRecord
  2
*Active
 70
     0
 10
0.0
 20
0.0
 11
1.0
 21
1.0
 12
148.5
 22
105.0
 13
0.0
 23
0.0
 14
10.0
 24
10.0
 15
10.0
 25
10.0
 16
0.0
 26
0.0
 36
1.0
 17
0.0
 27
0.0
 37
0.0
 40
210.0
 41
1.4142857143
 42
50.0
 43
0.0
 44
0.0
 50
0.0
 51
0.0
 71
     0
 72
  2000
 73
     1
 74
     3
 75
     0
 76
     0
 77
     0
 78
     0
281
     0
 65
     1
110
0.0
120
0.0
130
0.0
111
1.0
121
0.0
131
0.0
112
0.0
122
1.0
132
0.0
 79
     0
146
0.0
  0
ENDTAB
  0
TABLE
  2
LTYPE
  5
5
330
0
100
AcDbSymbolTable
 70
     6
  0
LTYPE
  5
14
330
5
100
AcDbSymbolTableRecord
100
AcDbLinetypeTableRecord
  2
ByBlock
 70
     0
  3

 72
    65
 73
     0
 40
0.0
  0
LTYPE
  5
15
330
5
100
AcDbSymbolTableRecord
100
AcDbLinetypeTableRecord
  2
ByLayer
 70
     0
  3

 72
    65
 73
     0
 40
0.0
  0
LTYPE
  5
16
330
5
100
AcDbSymbolTableRecord
100
AcDbLinetypeTableRecord
  2
Continuous
 70
     0
  3
Solid line
 72
    65
 73
     0
 40
0.0
  0
LTYPE
  5
6E
330
5
100
AcDbSymbolTableRecord
100
AcDbLinetypeTableRecord
  2
HIDDEN
 70
     0
  3
Hidden __ __ __ __ __ __ __ __ __ __ __ __ __ __
 72
    65
 73
     2
 40
1.905
 49
1.27
 74
     0
 49
-0.635
 74
     0
  0
LTYPE
  5
6F
330
5
100
AcDbSymbolTableRecord
100
AcDbLinetypeTableRecord
  2
PHANTOM
 70
     0
  3
Phantom ______  __  __  ______  __  __  ______
 72
    65
 73
     6
 40
12.7
 49
6.35
 74
     0
 49
-1.27
 74
     0
 49
1.27
 74
     0
 49
-1.27
 74
     0
 49
1.27
 74
     0
 49
-1.27
 74
     0
  0
LTYPE
  5
70
330
5
100
AcDbSymbolTableRecord
100
AcDbLinetypeTableRecord
  2
CENTER
 70
     0
  3
Center ____ _ ____ _ ____ _ ____ _ ____ _ ____
 72
    65
 73
     4
 40
10.16
 49
6.35
 74
     0
 49
-1.27
 74
     0
 49
1.27
 74
     0
 49
-1.27
 74
     0
  0
LTYPE
  5
71
330
5
100
AcDbSymbolTableRecord
100
AcDbLinetypeTableRecord
  2
CENTERX2
 70
     0
  3
Center (2x) ________  __  ________  __  _____
 72
    65
 73
     4
 40
20.32
 49
12.7
 74
     0
 49
-2.54
 74
     0
 49
2.54
 74
     0
 49
-2.54
 74
     0
  0
LTYPE
  5
72
330
5
100
AcDbSymbolTableRecord
100
AcDbLinetypeTableRecord
  2
DOT2
 70
     0
  3
Dot (.5x) ........................................
 72
    65
 73
     2
 40
0.635
 49
0.0
 74
     0
 49
-0.635
 74
     0
  0
ENDTAB
  0
TABLE
  2
LAYER
  5
2
330
0
100
AcDbSymbolTable
 70
     5
  0
LAYER
  5
10
330
2
100
AcDbSymbolTableRecord
100
AcDbLayerTableRecord
  2
0
 70
     0
 62
     7
  6
Continuous
370
    -3
390
F
  0
LAYER
  5
73
330
2
100
AcDbSymbolTableRecord
100
AcDbLayerTableRecord
  2
FORMAT
 70
     0
 62
     7
  6
Continuous
370
    -3
390
F
  0
LAYER
  5
74
330
2
100
AcDbSymbolTableRecord
100
AcDbLayerTableRecord
  2
VERMASSUNG
 70
     0
 62
     7
  6
Continuous
370
    -3
390
F
  0
LAYER
  5
75
330
2
100
AcDbSymbolTableRecord
100
AcDbLayerTableRecord
  2
KOPF_DÜNN
 70
     0
 62
     7
  6
Continuous
370
    -3
390
F
  0
LAYER
  5
76
330
2
100
AcDbSymbolTableRecord
100
AcDbLayerTableRecord
  2
KOPF_DICK
 70
     0
 62
     7
  6
Continuous
370
    15
390
F
  0
ENDTAB
  0
TABLE
  2
STYLE
  5
3
330
0
100
AcDbSymbolTable
 70
     2
  0
STYLE
  5
11
330
3
100
AcDbSymbolTableRecord
100
AcDbTextStyleTableRecord
  2
Standard
 70
     0
 40
0.0
 41
1.0
 50
0.0
 71
     0
 42
2.0
  3
txt
  4

  0
STYLE
  5
77
330
3
100
AcDbSymbolTableRecord
100
AcDbTextStyleTableRecord
  2
SLDTEXTSTYLE0
 70
     0
 40
0.0
 41
0.7
 50
0.0
 71
     0
 42
2.0
  3
TXT
  4

  0
ENDTAB
  0
TABLE
  2
VIEW
  5
6
330
0
100
AcDbSymbolTable
 70
     0
  0
ENDTAB
  0
TABLE
  2
UCS
  5
7
330
0
100
AcDbSymbolTable
 70
     0
  0
ENDTAB
  0
TABLE
  2
APPID
  5
9
330
0
100
AcDbSymbolTable
 70
     1
  0
APPID
  5
12
330
9
100
AcDbSymbolTableRecord
100
AcDbRegAppTableRecord
  2
ACAD
 70
     0
  0
ENDTAB
  0
TABLE
  2
DIMSTYLE
  5
A
330
0
100
AcDbSymbolTable
 70
     4
100
AcDbDimStyleTable
  0
DIMSTYLE
105
27
330
A
100
AcDbSymbolTableRecord
100
AcDbDimStyleTableRecord
  2
ISO-25
 70
     0
 41
2.5
 42
0.625
 43
3.75
 44
1.25
 73
     0
 74
     0
 77
     1
 78
     8
140
2.5
141
2.5
143
0.0393700787
147
0.625
171
     3
172
     1
178
     0
271
     2
272
     2
274
     3
278
    44
283
     0
284
     8
340
11
  0
DIMSTYLE
105
16D
102
{ACAD_REACTORS
330
16C
330
179
330
185
330
190
330
19C
330
1A6
102
}
330
A
100
AcDbSymbolTableRecord
100
AcDbDimStyleTableRecord
  2
SLDDIMSTYLE0
 70
     0
 41
3.0
 44
0.0
 45
0.000000001
 73
     0
 74
     0
 77
     1
 78
    12
 79
     3
140
2.0
147
0.5
173
     1
178
     0
271
     2
272
     3
276
     2
284
    12
340
77
  0
DIMSTYLE
105
1B3
102
{ACAD_REACTORS
330
1B2
102
}
330
A
100
AcDbSymbolTableRecord
100
AcDbDimStyleTableRecord
  2
SLDDIMSTYLE1
 70
     0
 41
3.0
 44
0.0
 73
     0
 74
     0
 77
     1
 78
    12
 79
     3
140
2.0
147
0.5
173
     1
178
     0
179
     2
272
     3
276
     2
284
    12
340
77
  0
DIMSTYLE
105
1BD
102
{ACAD_REACTORS
330
1BC
102
}
330
A
100
AcDbSymbolTableRecord
100
AcDbDimStyleTableRecord
  2
SLDDIMSTYLE2
 70
     0
 41
3.0
 44
0.0
 45
0.000000001
 73
     0
 74
     0
 77
     1
 78
    12
 79
     3
140
2.0
141
0.0
147
0.5
173
     1
178
     0
271
     2
272
     3
276
     2
279
     1
284
    12
340
77
  0
ENDTAB
  0
TABLE
  2
BLOCK_RECORD
  5
1
330
0
100
AcDbSymbolTable
 70
     9
  0
BLOCK_RECORD
  5
1F
330
1
100
AcDbSymbolTableRecord
100
AcDbBlockTableRecord
  2
*Model_Space
340
22
  0
BLOCK_RECORD
  5
1B
330
1
100
AcDbSymbolTableRecord
100
AcDbBlockTableRecord
  2
*Paper_Space
340
1E
  0
BLOCK_RECORD
  5
23
330
1
100
AcDbSymbolTableRecord
100
AcDbBlockTableRecord
  2
*Paper_Space0
340
26
  0
BLOCK_RECORD
  5
16E
330
1
100
AcDbSymbolTableRecord
100
AcDbBlockTableRecord
  2
_D
340
0
  0
BLOCK_RECORD
  5
17A
330
1
100
AcDbSymbolTableRecord
100
AcDbBlockTableRecord
  2
_D_1
340
0
  0
BLOCK_RECORD
  5
186
330
1
100
AcDbSymbolTableRecord
100
AcDbBlockTableRecord
  2
_D_2
340
0
  0
BLOCK_RECORD
  5
191
330
1
100
AcDbSymbolTableRecord
100
AcDbBlockTableRecord
  2
_D_3
340
0
  0
BLOCK_RECORD
  5
19D
330
1
100
AcDbSymbolTableRecord
100
AcDbBlockTableRecord
  2
_D_4
340
0
  0
BLOCK_RECORD
  5
1A7
330
1
100
AcDbSymbolTableRecord
100
AcDbBlockTableRecord
  2
_D_5
340
0
  0
BLOCK_RECORD
  5
1B4
330
1
100
AcDbSymbolTableRecord
100
AcDbBlockTableRecord
  2
_D_6
340
0
  0
BLOCK_RECORD
  5
1BE
330
1
100
AcDbSymbolTableRecord
100
AcDbBlockTableRecord
  2
_D_7
340
0
  0
ENDTAB
  0
ENDSEC
  0
SECTION
  2
BLOCKS
  0
BLOCK
  5
20
330
1F
100
AcDbEntity
  8
0
100
AcDbBlockBegin
  2
*Model_Space
 70
     0
 10
0.0
 20
0.0
 30
0.0
  3
*Model_Space
  1

  0
ENDBLK
  5
21
330
1F
100
AcDbEntity
  8
0
100
AcDbBlockEnd
  0
BLOCK
  5
1C
330
1B
100
AcDbEntity
 67
     1
  8
0
100
AcDbBlockBegin
  2
*Paper_Space
 70
     0
 10
0.0
 20
0.0
 30
0.0
  3
*Paper_Space
  1

  0
ENDBLK
  5
1D
330
1B
100
AcDbEntity
 67
     1
  8
0
100
AcDbBlockEnd
  0
BLOCK
  5
24
330
23
100
AcDbEntity
  8
0
100
AcDbBlockBegin
  2
*Paper_Space0
 70
     0
 10
0.0
 20
0.0
 30
0.0
  3
*Paper_Space0
  1

  0
ENDBLK
  5
25
330
23
100
AcDbEntity
  8
0
100
AcDbBlockEnd
  0
BLOCK
  5
16F
330
16E
100
AcDbEntity
  8
0
100
AcDbBlockBegin
  2
_D
 70
     0
 10
0.0
 20
0.0
 30
0.0
  3
_D
  1

  0
SOLID
  5
171
330
16E
100
AcDbEntity
  8
VERMASSUNG
100
AcDbTrace
 10
224.7232944433
 20
125.0483289967
 30
0.0
 11
224.2732944433
 21
122.0483289967
 31
0.0
 12
225.1732944433
 22
122.0483289967
 32
0.0
 13
225.1732944433
 23
122.0483289967
 33
0.0
  0
SOLID
  5
172
330
16E
100
AcDbEntity
  8
VERMASSUNG
100
AcDbTrace
 10
224.7232944433
 20
100.0483289967
 30
0.0
 11
225.1732944433
 21
103.0483289967
 31
0.0
 12
224.2732944433
 22
103.0483289967
 32
0.0
 13
224.2732944433
 23
103.0483289967
 33
0.0
  0
LINE
  5
173
330
16E
100
AcDbEntity
  8
VERMASSUNG
100
AcDbLine
 10
209.676948449
 20
125.0483289967
 30
0.0
 11
225.7232944433
 21
125.0483289967
 31
0.0
  0
LINE
  5
174
330
16E
100
AcDbEntity
  8
VERMASSUNG
100
AcDbLine
 10
209.676948449
 20
100.0483289967
 30
0.0
 11
225.7232944433
 21
100.0483289967
 31
0.0
  0
LINE
  5
175
330
16E
100
AcDbEntity
  8
VERMASSUNG
100
AcDbLine
 10
224.7232944433
 20
125.0483289967
 30
0.0
 11
224.7232944433
 21
100.0483289967
 31
0.0
  0
MTEXT
  5
176
330
16E
100
AcDbEntity
  8
VERMASSUNG
100
AcDbMText
 10
221.9451591871
 20
106.4433297748
 30
0.0
 40
2.0
 41
0.0
 71
     1
 72
     1
  1
ST2
  7
SLDTEXTSTYLE0
 11
-7.044195017643634E-15
 21
1.0
 31
0.0
 73
     1
 44
1.0
  0
MTEXT
  5
177
330
16E
100
AcDbEntity
  8
VERMASSUNG
100
AcDbMText
 10
222.1451591384
 20
112.2433297011
 30
0.0
 40
2.0
 41
0.0
 71
     1
 72
     1
  1
%%c
  7
SLDTEXTSTYLE0
 11
-7.044195017643634E-15
 21
1.0
 31
0.0
 73
     1
 44
1.0
  0
MTEXT
  5
178
330
16E
100
AcDbEntity
  8
VERMASSUNG
100
AcDbMText
 10
221.9451591871
 20
115.8533292497
 30
0.0
 40
2.0
 41
0.0
 71
     1
 72
     1
  1
25
  7
SLDTEXTSTYLE0
 11
-7.044195017643634E-15
 21
1.0
 31
0.0
 73
     1
 44
1.0
  0
ENDBLK
  5
170
330
16E
100
AcDbEntity
  8
0
100
AcDbBlockEnd
  0
BLOCK
  5
17B
330
17A
100
AcDbEntity
  8
0
100
AcDbBlockBegin
  2
_D_1
 70
     0
 10
0.0
 20
0.0
 30
0.0
  3
_D_1
  1

  0
SOLID
  5
17D
330
17A
100
AcDbEntity
  8
VERMASSUNG
100
AcDbTrace
 10
97.9878336261
 20
162.5483289967
 30
0.0
 11
97.5378336261
 21
159.5483289967
 31
0.0
 12
98.4378336261
 22
159.5483289967
 32
0.0
 13
98.4378336261
 23
159.5483289967
 33
0.0
  0
SOLID
  5
17E
330
17A
100
AcDbEntity
  8
VERMASSUNG
100
AcDbTrace
 10
97.9878336261
 20
62.5483289967
 30
0.0
 11
98.4378336261
 21
65.5483289967
 31
0.0
 12
97.5378336261
 22
65.5483289967
 32
0.0
 13
97.5378336261
 23
65.5483289967
 33
0.0
  0
LINE
  5
17F
330
17A
100
AcDbEntity
  8
VERMASSUNG
100
AcDbLine
 10
155.176948449
 20
162.5483289967
 30
0.0
 11
96.9878336261
 21
162.5483289967
 31
0.0
  0
LINE
  5
180
330
17A
100
AcDbEntity
  8
VERMASSUNG
100
AcDbLine
 10
155.176948449
 20
62.5483289967
 30
0.0
 11
96.9878336261
 21
62.5483289967
 31
0.0
  0
LINE
  5
181
330
17A
100
AcDbEntity
  8
VERMASSUNG
100
AcDbLine
 10
97.9878336261
 20
162.5483289967
 30
0.0
 11
97.9878336261
 21
62.5483289967
 31
0.0
  0
MTEXT
  5
182
330
17A
100
AcDbEntity
  8
VERMASSUNG
100
AcDbMText
 10
95.2096983699
 20
101.8449469164
 30
0.0
 40
2.0
 41
0.0
 71
     1
 72
     1
  1
HSK A 100
  7
SLDTEXTSTYLE0
 11
-7.044195017643634E-15
 21
1.0
 31
0.0
 73
     1
 44
1.0
  0
MTEXT
  5
183
330
17A
100
AcDbEntity
  8
VERMASSUNG
100
AcDbMText
 10
95.4096983212
 20
115.8449473485
 30
0.0
 40
2.0
 41
0.0
 71
     1
 72
     1
  1
%%c
  7
SLDTEXTSTYLE0
 11
-7.044195017643634E-15
 21
1.0
 31
0.0
 73
     1
 44
1.0
  0
MTEXT
  5
184
330
17A
100
AcDbEntity
  8
VERMASSUNG
100
AcDbMText
 10
95.4096980302
 20
119.4530251862
 30
0.0
 40
2.0
 41
0.0
 71
     1
 72
     1
  1
100
  7
SLDTEXTSTYLE0
 11
-7.044195017643634E-15
 21
1.0
 31
0.0
 73
     1
 44
1.0
  0
ENDBLK
  5
17C
330
17A
100
AcDbEntity
  8
0
100
AcDbBlockEnd
  0
BLOCK
  5
187
330
186
100
AcDbEntity
  8
0
100
AcDbBlockBegin
  2
_D_2
 70
     0
 10
0.0
 20
0.0
 30
0.0
  3
_D_2
  1

  0
SOLID
  5
189
330
186
100
AcDbEntity
  8
VERMASSUNG
100
AcDbTrace
 10
216.717425255
 20
119.5483289967
 30
0.0
 11
216.267425255
 21
116.5483289967
 31
0.0
 12
217.167425255
 22
116.5483289967
 32
0.0
 13
217.167425255
 23
116.5483289967
 33
0.0
  0
SOLID
  5
18A
330
186
100
AcDbEntity
  8
VERMASSUNG
100
AcDbTrace
 10
216.717425255
 20
105.5483289967
 30
0.0
 11
217.167425255
 21
108.5483289967
 31
0.0
 12
216.267425255
 22
108.5483289967
 32
0.0
 13
216.267425255
 23
108.5483289967
 33
0.0
  0
LINE
  5
18B
330
186
100
AcDbEntity
  8
VERMASSUNG
100
AcDbLine
 10
202.776948449
 20
119.5483289967
 30
0.0
 11
217.717425255
 21
119.5483289967
 31
0.0
  0
LINE
  5
18C
330
186
100
AcDbEntity
  8
VERMASSUNG
100
AcDbLine
 10
202.776948449
 20
105.5483289967
 30
0.0
 11
217.717425255
 21
105.5483289967
 31
0.0
  0
LINE
  5
18D
330
186
100
AcDbEntity
  8
VERMASSUNG
100
AcDbLine
 10
216.717425255
 20
119.5483289967
 30
0.0
 11
216.717425255
 21
105.5483289967
 31
0.0
  0
MTEXT
  5
18E
330
186
100
AcDbEntity
  8
VERMASSUNG
100
AcDbMText
 10
214.1392897173
 20
109.4445246713
 30
0.0
 40
2.0
 41
0.0
 71
     1
 72
     1
  1
%%c
  7
SLDTEXTSTYLE0
 11
-7.044195017643634E-15
 21
1.0
 31
0.0
 73
     1
 44
1.0
  0
MTEXT
  5
18F
330
186
100
AcDbEntity
  8
VERMASSUNG
100
AcDbMText
 10
214.1392896591
 20
113.0534968649
 30
0.0
 40
2.0
 41
0.0
 71
     1
 72
     1
  1
14
  7
SLDTEXTSTYLE0
 11
-7.044195017643634E-15
 21
1.0
 31
0.0
 73
     1
 44
1.0
  0
ENDBLK
  5
188
330
186
100
AcDbEntity
  8
0
100
AcDbBlockEnd
  0
BLOCK
  5
192
330
191
100
AcDbEntity
  8
0
100
AcDbBlockBegin
  2
_D_3
 70
     0
 10
0.0
 20
0.0
 30
0.0
  3
_D_3
  1

  0
ARC
  5
194
330
191
100
AcDbEntity
  8
VERMASSUNG
100
AcDbCircle
 10
195.7637419609
 20
166.4180036434
 30
0.0
 40
4.247059938537361
100
AcDbArc
 50
153.4349488229
 51
206.5650511771
  0
ARC
  5
195
330
191
100
AcDbEntity
  8
VERMASSUNG
100
AcDbCircle
 10
197.5401549372
 20
166.4180036434
 30
0.0
 40
4.247059938537386
100
AcDbArc
 50
333.4349488229
 51
26.5650511771
  0
SOLID
  5
196
330
191
100
AcDbEntity
  8
VERMASSUNG
100
AcDbTrace
 10
183.626948449
 20
164.518660698
 30
0.0
 11
186.626948449
 21
164.068660698
 31
0.0
 12
186.626948449
 22
164.968660698
 32
0.0
 13
186.626948449
 23
164.968660698
 33
0.0
  0
SOLID
  5
197
330
191
100
AcDbEntity
  8
VERMASSUNG
100
AcDbTrace
 10
209.676948449
 20
164.518660698
 30
0.0
 11
206.676948449
 21
164.968660698
 31
0.0
 12
206.676948449
 22
164.068660698
 32
0.0
 13
206.676948449
 23
164.068660698
 33
0.0
  0
LINE
  5
198
330
191
100
AcDbEntity
  8
VERMASSUNG
100
AcDbLine
 10
183.626948449
 20
160.5170688175
 30
0.0
 11
183.626948449
 21
165.518660698
 31
0.0
  0
LINE
  5
199
330
191
100
AcDbEntity
  8
VERMASSUNG
100
AcDbLine
 10
209.676948449
 20
124.8633670722
 30
0.0
 11
209.676948449
 21
165.518660698
 31
0.0
  0
LINE
  5
19A
330
191
100
AcDbEntity
  8
VERMASSUNG
100
AcDbLine
 10
183.626948449
 20
164.518660698
 30
0.0
 11
209.676948449
 21
164.518660698
 31
0.0
  0
MTEXT
  5
19B
330
191
100
AcDbEntity
  8
VERMASSUNG
100
AcDbMText
 10
193.55255607
 20
167.096796294
 30
0.0
 40
2.0
 41
0.0
 71
     1
 72
     1
  1
26.05
  7
SLDTEXTSTYLE0
 73
     1
 44
1.0
  0
ENDBLK
  5
193
330
191
100
AcDbEntity
  8
0
100
AcDbBlockEnd
  0
BLOCK
  5
19E
330
19D
100
AcDbEntity
  8
0
100
AcDbBlockBegin
  2
_D_4
 70
     0
 10
0.0
 20
0.0
 30
0.0
  3
_D_4
  1

  0
SOLID
  5
1A0
330
19D
100
AcDbEntity
  8
VERMASSUNG
100
AcDbTrace
 10
154.676948449
 20
170.518660698
 30
0.0
 11
157.676948449
 21
170.068660698
 31
0.0
 12
157.676948449
 22
170.968660698
 32
0.0
 13
157.676948449
 23
170.968660698
 33
0.0
  0
SOLID
  5
1A1
330
19D
100
AcDbEntity
  8
VERMASSUNG
100
AcDbTrace
 10
209.676948449
 20
170.518660698
 30
0.0
 11
206.676948449
 21
170.968660698
 31
0.0
 12
206.676948449
 22
170.068660698
 32
0.0
 13
206.676948449
 23
170.068660698
 33
0.0
  0
LINE
  5
1A2
330
19D
100
AcDbEntity
  8
VERMASSUNG
100
AcDbLine
 10
154.676948449
 20
162.0483289967
 30
0.0
 11
154.676948449
 21
171.518660698
 31
0.0
  0
LINE
  5
1A3
330
19D
100
AcDbEntity
  8
VERMASSUNG
100
AcDbLine
 10
209.676948449
 20
124.8633670722
 30
0.0
 11
209.676948449
 21
171.518660698
 31
0.0
  0
LINE
  5
1A4
330
19D
100
AcDbEntity
  8
VERMASSUNG
100
AcDbLine
 10
154.676948449
 20
170.518660698
 30
0.0
 11
209.676948449
 21
170.518660698
 31
0.0
  0
MTEXT
  5
1A5
330
19D
100
AcDbEntity
  8
VERMASSUNG
100
AcDbMText
 10
180.7772584387
 20
173.096796294
 30
0.0
 40
2.0
 41
0.0
 71
     1
 72
     1
  1
55
  7
SLDTEXTSTYLE0
 73
     1
 44
1.0
  0
ENDBLK
  5
19F
330
19D
100
AcDbEntity
  8
0
100
AcDbBlockEnd
  0
BLOCK
  5
1A8
330
1A7
100
AcDbEntity
  8
0
100
AcDbBlockBegin
  2
_D_5
 70
     0
 10
0.0
 20
0.0
 30
0.0
  3
_D_5
  1

  0
ARC
  5
1AA
330
1A7
100
AcDbEntity
  8
VERMASSUNG
100
AcDbCircle
 10
156.4391137425
 20
178.4180036434
 30
0.0
 40
4.247059938537233
100
AcDbArc
 50
153.4349488229
 51
206.5650511771
  0
ARC
  5
1AB
330
1A7
100
AcDbEntity
  8
VERMASSUNG
100
AcDbCircle
 10
158.0147831555
 20
178.4180036434
 30
0.0
 40
4.247059938537233
100
AcDbArc
 50
333.4349488229
 51
26.5650511771
  0
SOLID
  5
1AC
330
1A7
100
AcDbEntity
  8
VERMASSUNG
100
AcDbTrace
 10
104.776948449
 20
176.518660698
 30
0.0
 11
107.776948449
 21
176.068660698
 31
0.0
 12
107.776948449
 22
176.968660698
 32
0.0
 13
107.776948449
 23
176.968660698
 33
0.0
  0
SOLID
  5
1AD
330
1A7
100
AcDbEntity
  8
VERMASSUNG
100
AcDbTrace
 10
209.676948449
 20
176.518660698
 30
0.0
 11
206.676948449
 21
176.968660698
 31
0.0
 12
206.676948449
 22
176.068660698
 32
0.0
 13
206.676948449
 23
176.068660698
 33
0.0
  0
LINE
  5
1AE
330
1A7
100
AcDbEntity
  8
VERMASSUNG
100
AcDbLine
 10
104.776948449
 20
143.0509987393
 30
0.0
 11
104.776948449
 21
177.518660698
 31
0.0
  0
LINE
  5
1AF
330
1A7
100
AcDbEntity
  8
VERMASSUNG
100
AcDbLine
 10
209.676948449
 20
124.8633670722
 30
0.0
 11
209.676948449
 21
177.518660698
 31
0.0
  0
LINE
  5
1B0
330
1A7
100
AcDbEntity
  8
VERMASSUNG
100
AcDbLine
 10
104.776948449
 20
176.518660698
 30
0.0
 11
209.676948449
 21
176.518660698
 31
0.0
  0
MTEXT
  5
1B1
330
1A7
100
AcDbEntity
  8
VERMASSUNG
100
AcDbMText
 10
154.2279278517
 20
179.096796294
 30
0.0
 40
2.0
 41
0.0
 71
     1
 72
     1
  1
104.9
  7
SLDTEXTSTYLE0
 73
     1
 44
1.0
  0
ENDBLK
  5
1A9
330
1A7
100
AcDbEntity
  8
0
100
AcDbBlockEnd
  0
BLOCK
  5
1B5
330
1B4
100
AcDbEntity
  8
0
100
AcDbBlockBegin
  2
_D_6
 70
     0
 10
0.0
 20
0.0
 30
0.0
  3
_D_6
  1

  0
ARC
  5
1B7
330
1B4
100
AcDbEntity
  8
VERMASSUNG
100
AcDbCircle
 10
375.9216247281
 20
112.5483289967
 30
0.0
 40
179.9441983625945
100
AcDbArc
 50
175.7
 51
180.0
  0
ARC
  5
1B8
330
1B4
100
AcDbEntity
  8
VERMASSUNG
100
AcDbCircle
 10
375.9216247281
 20
112.5483289967
 30
0.0
 40
179.9441983625945
100
AcDbArc
 50
173.0697825602
 51
175.7
  0
SOLID
  5
1B9
330
1B4
100
AcDbEntity
  8
VERMASSUNG
100
AcDbTrace
 10
196.4839452569
 20
126.0403158897
 30
0.0
 11
195.8349526999
 21
123.0769885941
 31
0.0
 12
196.7329506009
 22
123.0169905121
 32
0.0
 13
196.7329506009
 23
123.0169905121
 33
0.0
  0
SOLID
  5
1BA
330
1B4
100
AcDbEntity
  8
VERMASSUNG
100
AcDbTrace
 10
195.9774263655
 20
112.5483289967
 30
0.0
 11
196.4524158803
 21
115.5444740134
 31
0.0
 12
195.5524471438
 22
115.5519755573
 32
0.0
 13
195.5524471438
 23
115.5519755573
 33
0.0
  0
MTEXT
  5
1BB
330
1B4
100
AcDbEntity
  8
VERMASSUNG
100
AcDbMText
 10
194.1974470205
 20
129.7670871024
 30
0.0
 40
2.0
 41
0.0
 71
     1
 72
     1
  1
4.3°
  7
SLDTEXTSTYLE0
 11
0.1074108199768033
 21
0.9942147231619087
 31
0.0
 73
     1
 44
1.0
  0
ENDBLK
  5
1B6
330
1B4
100
AcDbEntity
  8
0
100
AcDbBlockEnd
  0
BLOCK
  5
1BF
330
1BE
100
AcDbEntity
  8
0
100
AcDbBlockBegin
  2
_D_7
 70
     0
 10
0.0
 20
0.0
 30
0.0
  3
_D_7
  1

  0
SOLID
  5
1C1
330
1BE
100
AcDbEntity
  8
VERMASSUNG
100
AcDbTrace
 10
186.0371932084
 20
127.3681492123
 30
0.0
 11
188.080283809
 21
129.6105320515
 31
0.0
 12
187.3324560057
 22
130.1112850612
 32
0.0
 13
187.3324560057
 23
130.1112850612
 33
0.0
  0
LINE
  5
1C2
330
1BE
100
AcDbEntity
  8
VERMASSUNG
100
AcDbLine
 10
186.0371932084
 20
127.3681492123
 30
0.0
 11
190.7661010482
 21
134.4303309527
 31
0.0
  0
MTEXT
  5
1C3
330
1BE
100
AcDbEntity
  8
VERMASSUNG
100
AcDbMText
 10
187.0068842516
 20
133.1994481866
 30
0.0
 40
2.0
 41
0.0
 71
     1
 72
     1
  1
R5
  7
SLDTEXTSTYLE0
 11
0.5179510481286644
 21
0.855410259315621
 31
0.0
 73
     1
 44
1.0
  0
ENDBLK
  5
1C0
330
1BE
100
AcDbEntity
  8
0
100
AcDbBlockEnd
  0
ENDSEC
  0
SECTION
  2
ENTITIES
  0
MTEXT
  5
78
330
1F
100
AcDbEntity
  8
KOPF_DÜNN
100
AcDbMText
 10
13.8892156294
 20
23.8442973028
 30
0.0
 40
3.0
 41
0.0
 71
     1
 72
     1
  1
144.810.025.055
  7
SLDTEXTSTYLE0
 73
     1
 44
1.0
  0
MTEXT
  5
79
330
1F
100
AcDbEntity
  8
VERMASSUNG
100
AcDbMText
 10
13.9329988022
 20
28.8834360957
 30
0.0
 40
3.0
 41
0.0
 71
     1
 72
     1
  1
Aufnahme_Master shank ST2
  7
SLDTEXTSTYLE0
 73
     1
 44
1.0
  0
MTEXT
  5
7A
330
1F
100
AcDbEntity
  8
VERMASSUNG
100
AcDbMText
 10
98.8601118557
 20
13.8365368761
 30
0.0
 40
2.0
 41
0.0
 71
     1
 72
     1
  1
Datum: 10.06.2008
  7
SLDTEXTSTYLE0
 73
     1
 44
1.0
  0
MTEXT
  5
7B
330
1F
100
AcDbEntity
  8
VERMASSUNG
100
AcDbMText
 10
13.933048693
 20
18.0482802738
 30
0.0
 40
2.0
 41
0.0
 71
     1
 72
     1
  1
DIN 69893 HSK A 100
  7
SLDTEXTSTYLE0
 73
     1
 44
1.0
  0
MTEXT
  5
7C
330
1F
100
AcDbEntity
  8
VERMASSUNG
100
AcDbMText
 10
13.9808475933
 20
13.9090974274
 30
0.0
 40
2.0
 41
0.0
 71
     1
 72
     1
  1
Gewicht: 2087g
  7
SLDTEXTSTYLE0
 73
     1
 44
1.0
  0
LINE
  5
7D
330
1F
100
AcDbEntity
  8
0
  6
Continuous
 62
     7
370
    15
100
AcDbLine
 10
155.176948449
 20
62.5483289967
 30
0.0
 11
159.626948449
 21
62.5483289967
 31
0.0
  0
LINE
  5
7E
330
1F
100
AcDbEntity
  8
0
  6
Continuous
 62
     7
370
    15
100
AcDbLine
 10
159.6423264205
 20
162.5483289967
 30
0.0
 11
155.176948449
 21
162.5483289967
 31
0.0
  0
ARC
  5
7F
330
1F
100
AcDbEntity
  8
0
  6
Continuous
 62
     7
370
    15
100
AcDbCircle
 10
155.176948449
 20
63.0483289967
 30
0.0
 40
0.5000000000000071
100
AcDbArc
 50
180.0
 51
270.0
  0
ARC
  5
80
330
1F
100
AcDbEntity
  8
0
  6
Continuous
 62
     7
370
    15
100
AcDbCircle
 10
155.176948449
 20
162.0483289967
 30
0.0
 40
0.5
100
AcDbArc
 50
90.0
 51
180.0
  0
ARC
  5
81
330
1F
100
AcDbEntity
  8
0
  6
Continuous
 62
     7
370
    15
100
AcDbCircle
 10
153.7800115306
 20
73.9198436723
 30
0.0
 40
0.9962338214386983
100
AcDbArc
 50
25.7988228126
 51
90.0
  0
ARC
  5
82
330
1F
100
AcDbEntity
  8
0
  6
Continuous
 62
     7
370
    15
100
AcDbCircle
 10
153.7800115306
 20
151.1768143211
 30
0.0
 40
0.9962338214387216
100
AcDbArc
 50
270.0
 51
334.2011771874
  0
LINE
  5
83
330
1F
100
AcDbEntity
  8
0
  6
Continuous
 62
     7
370
    15
100
AcDbLine
 10
152.176948449
 20
74.6660774937
 30
0.0
 11
152.9827946034
 21
74.88200332
 31
0.0
  0
LINE
  5
84
330
1F
100
AcDbEntity
  8
0
  6
Continuous
 62
     7
370
    15
100
AcDbLine
 10
152.9827946034
 20
150.2146546734
 30
0.0
 11
152.176948449
 21
150.4305804997
 31
0.0
  0
LINE
  5
85
330
1F
100
AcDbEntity
  8
0
  6
Continuous
 62
     7
370
    15
100
AcDbLine
 10
133.1962530277
 20
149.4796438554
 30
0.0
 11
114.876948449
 21
148.5618430248
 31
0.0
  0
LINE
  5
86
330
1F
100
AcDbEntity
  8
0
  6
Continuous
 62
     7
370
    15
100
AcDbLine
 10
152.176948449
 20
150.4305804997
 30
0.0
 11
146.1089092945
 21
150.126570522
 31
0.0
  0
LINE
  5
87
330
1F
100
AcDbEntity
  8
0
  6
Continuous
 62
     7
370
    15
100
AcDbLine
 10
146.109032571
 20
74.9700812952
 30
0.0
 11
152.176948449
 21
74.6660774937
 31
0.0
  0
LINE
  5
88
330
1F
100
AcDbEntity
  8
0
  6
Continuous
 62
     7
370
    15
100
AcDbLine
 10
119.876948449
 20
76.2843139666
 30
0.0
 11
133.1968996029
 21
75.6169817445
 31
0.0
  0
ARC
  5
89
330
1F
100
AcDbEntity
  8
0
  6
Continuous
 62
     7
370
    15
100
AcDbCircle
 10
153.2416136485
 20
73.9160774937
 30
0.0
 40
1.000000000000009
100
AcDbArc
 50
90.0
 51
105.0
  0
ARC
  5
8A
330
1F
100
AcDbEntity
  8
0
  6
Continuous
 62
     7
370
    15
100
AcDbCircle
 10
153.2416136485
 20
151.1805804997
 30
0.0
 40
1.0
100
AcDbArc
 50
255.0
 51
270.0
  0
LINE
  5
8B
330
1F
100
AcDbEntity
  8
0
  6
Continuous
 62
     7
370
    15
100
AcDbLine
 10
153.2416136485
 20
74.9160774937
 30
0.0
 11
153.7800115306
 21
74.9160774937
 31
0.0
  0
LINE
  5
8C
330
1F
100
AcDbEntity
  8
0
  6
Continuous
 62
     7
370
    15
100
AcDbLine
 10
153.7800115306
 20
150.1805804997
 30
0.0
 11
153.2416136485
 21
150.1805804997
 31
0.0
  0
ARC
  5
8D
330
1F
100
AcDbEntity
  8
0
  6
Continuous
 62
     7
370
    15
100
AcDbCircle
 10
188.626948449
 20
93.4514574846
 30
0.0
 40
5.0
100
AcDbArc
 50
94.3
 51
180.0
  0
ARC
  5
8E
330
1F
100
AcDbEntity
  8
0
  6
Continuous
 62
     7
370
    15
100
AcDbCircle
 10
188.626948449
 20
131.6452005089
 30
0.0
 40
5.000000000000012
100
AcDbArc
 50
180.0
 51
265.7
  0
LINE
  5
8F
330
1F
100
AcDbEntity
  8
0
  6
Continuous
 62
     7
370
    15
100
AcDbLine
 10
106.426948449
 20
80.2983289967
 30
0.0
 11
117.976948449
 21
80.2983289967
 31
0.0
  0
ARC
  5
90
330
1F
100
AcDbEntity
  8
0
  6
Continuous
 62
     7
370
    15
100
AcDbCircle
 10
117.976948449
 20
78.3983289967
 30
0.0
 40
1.899999999999991
100
AcDbArc
 50
35.6630613694
 51
90.0
  0
ARC
  5
91
330
1F
100
AcDbEntity
  8
0
  6
Continuous
 62
     7
370
    15
100
AcDbCircle
 10
112.976948449
 20
146.6983289967
 30
0.0
 40
1.899999999999996
100
AcDbArc
 50
270.0
 51
310.9212832533
  0
LINE
  5
92
330
1F
100
AcDbEntity
  8
0
  6
Continuous
 62
     7
370
    15
100
AcDbLine
 10
106.426948449
 20
144.7983289967
 30
0.0
 11
104.8276323301
 21
143.1990128778
 31
0.0
  0
LINE
  5
93
330
1F
100
AcDbEntity
  8
0
  6
Continuous
 62
     7
370
    15
100
AcDbLine
 10
104.8284697001
 20
81.8968077457
 30
0.0
 11
106.426948449
 21
80.2983289967
 31
0.0
  0
LINE
  5
94
330
1F
100
AcDbEntity
  8
0
  6
Continuous
 62
     7
370
    15
100
AcDbLine
 10
112.976948449
 20
144.7983289967
 30
0.0
 11
106.426948449
 21
144.7983289967
 31
0.0
  0
LINE
  5
95
330
1F
100
AcDbEntity
  8
0
  6
Continuous
 62
     7
370
    15
100
AcDbLine
 10
188.2520548149
 20
98.4373831522
 30
0.0
 11
209.476948449
 21
100.0332909212
 31
0.0
  0
LINE
  5
96
330
1F
100
AcDbEntity
  8
0
  6
Continuous
 62
     7
370
    15
100
AcDbLine
 10
209.476948449
 20
125.0633670722
 30
0.0
 11
188.2520548149
 21
126.6592748412
 31
0.0
  0
LINE
  5
97
330
1F
100
AcDbEntity
  8
0
  6
Continuous
 62
     7
370
    15
100
AcDbLine
 10
209.476948449
 20
100.0332909212
 30
0.0
 11
209.676948449
 21
100.2332909212
 31
0.0
  0
LINE
  5
98
330
1F
100
AcDbEntity
  8
0
  6
Continuous
 62
     7
370
    15
100
AcDbLine
 10
209.676948449
 20
124.8633670722
 30
0.0
 11
209.476948449
 21
125.0633670722
 31
0.0
  0
SPLINE
  5
99
330
1F
100
AcDbEntity
  8
0
  6
Continuous
 62
     7
370
    15
100
AcDbSpline
210
0.0
220
0.0
230
1.0
 70
    24
 71
     3
 72
    11
 73
     7
 74
     0
 42
0.000000001
 43
0.00000001
 40
0.0
 40
0.0
 40
0.0
 40
0.0
 40
0.1285561766306766
 40
0.480153579784284
 40
0.815069183175493
 40
1.0
 40
1.0
 40
1.0
 40
1.0
 10
204.1475691751686
 20
113.5689497228634
 30
0.0
 10
204.1626140653686
 20
113.5128014282425
 30
0.0
 10
204.2188062925828
 20
113.3030891812886
 30
0.0
 10
204.3241793039502
 20
112.9098317491188
 30
0.0
 10
204.4382760479743
 20
112.4840169034432
 30
0.0
 10
204.4993985080474
 20
112.2559047769666
 30
0.0
 10
204.5211422885719
 20
112.1747558833004
 30
0.0
  0
SPLINE
  5
9A
330
1F
100
AcDbEntity
  8
0
  6
Continuous
 62
     7
370
    15
100
AcDbSpline
210
0.0
220
0.0
230
1.0
 70
    24
 71
     3
 72
    10
 73
     6
 74
     0
 42
0.000000001
 43
0.00000001
 40
0.0
 40
0.0
 40
0.0
 40
0.0
 40
0.4391119879276825
 40
0.7513633230734623
 40
1.0
 40
1.0
 40
1.0
 40
1.0
 10
202.7533753356056
 20
113.9425228362667
 30
0.0
 10
202.952962684727
 20
113.8890435672502
 30
0.0
 10
203.2944760526198
 20
113.7975353361188
 30
0.0
 10
203.7909293213472
 20
113.6645110836835
 30
0.0
 10
204.0380311347373
 20
113.5983003523374
 30
0.0
 10
204.1475691751686
 20
113.5689497228634
 30
0.0
  0
SPLINE
  5
9B
330
1F
100
AcDbEntity
  8
0
  6
Continuous
 62
     7
370
    15
100
AcDbSpline
210
0.0
220
0.0
230
1.0
 70
    24
 71
     3
 72
    10
 73
     6
 74
     0
 42
0.000000001
 43
0.00000001
 40
0.0
 40
0.0
 40
0.0
 40
0.0
 40
0.439111987927689
 40
0.7513633230734965
 40
1.0
 40
1.0
 40
1.0
 40
1.0
 10
201.7327546094459
 20
112.9219021101071
 30
0.0
 10
201.8788626895508
 20
113.068010190212
 30
0.0
 10
202.1288678263123
 20
113.3180153269735
 30
0.0
 10
202.4922968426044
 20
113.6814443432656
 30
0.0
 10
202.6731879246483
 20
113.8623354253095
 30
0.0
 10
202.7533753356056
 20
113.9425228362667
 30
0.0
  0
SPLINE
  5
9C
330
1F
100
AcDbEntity
  8
0
  6
Continuous
 62
     7
370
    15
100
AcDbSpline
210
0.0
220
0.0
230
1.0
 70
    24
 71
     3
 72
    11
 73
     7
 74
     0
 42
0.000000001
 43
0.00000001
 40
0.0
 40
0.0
 40
0.0
 40
0.0
 40
0.1849308168245056
 40
0.5198464202157101
 40
0.8714438233693188
 40
1.0
 40
1.0
 40
1.0
 40
1.0
 10
202.1063277228493
 20
111.5277082705441
 30
0.0
 10
202.0845839423247
 20
111.6088571642103
 30
0.0
 10
202.0234614822515
 20
111.8369692906869
 30
0.0
 10
201.9093647382276
 20
112.2627841363626
 30
0.0
 10
201.8039917268602
 20
112.6560415685323
 30
0.0
 10
201.747799499646
 20
112.8657538154862
 30
0.0
 10
201.7327546094459
 20
112.9219021101071
 30
0.0
  0
SPLINE
  5
9D
330
1F
100
AcDbEntity
  8
0
  6
Continuous
 62
     7
370
    15
100
AcDbSpline
210
0.0
220
0.0
230
1.0
 70
    24
 71
     3
 72
    10
 73
     6
 74
     0
 42
0.000000001
 43
0.00000001
 40
0.0
 40
0.0
 40
0.0
 40
0.0
 40
0.4391119879276884
 40
0.7513633230734723
 40
1.0
 40
1.0
 40
1.0
 40
1.0
 10
203.5005215624123
 20
111.1541351571407
 30
0.0
 10
203.3009342132908
 20
111.2076144261573
 30
0.0
 10
202.959420845398
 20
111.2991226572886
 30
0.0
 10
202.4629675766706
 20
111.4321469097239
 30
0.0
 10
202.2158657632806
 20
111.49835764107
 30
0.0
 10
202.1063277228493
 20
111.5277082705441
 30
0.0
  0
SPLINE
  5
9E
330
1F
100
AcDbEntity
  8
0
  6
Continuous
 62
     7
370
    15
100
AcDbSpline
210
0.0
220
0.0
230
1.0
 70
    24
 71
     3
 72
    10
 73
     6
 74
     0
 42
0.000000001
 43
0.00000001
 40
0.0
 40
0.0
 40
0.0
 40
0.0
 40
0.4391119879276937
 40
0.7513633230734836
 40
1.0
 40
1.0
 40
1.0
 40
1.0
 10
204.521142288572
 20
112.1747558833004
 30
0.0
 10
204.3750342084671
 20
112.0286478031955
 30
0.0
 10
204.1250290717055
 20
111.778642666434
 30
0.0
 10
203.7616000554134
 20
111.4152136501419
 30
0.0
 10
203.5807089733695
 20
111.234322568098
 30
0.0
 10
203.5005215624123
 20
111.1541351571407
 30
0.0
  0
CIRCLE
  5
9F
330
1F
100
AcDbEntity
  8
0
  6
Continuous
 62
     7
370
    15
100
AcDbCircle
 10
203.126948449
 20
112.5483289967
 30
0.0
 40
1.500000000000015
  0
CIRCLE
  5
A0
330
1F
100
AcDbEntity
  8
0
  6
Continuous
 62
     7
370
    15
100
AcDbCircle
 10
203.126948449
 20
112.5483289967
 30
0.0
 40
2.250000000000006
  0
ARC
  5
A1
330
1F
100
AcDbEntity
  8
0
  6
Continuous
 62
     7
370
    15
100
AcDbCircle
 10
203.126948449
 20
112.5483289967
 30
0.0
 40
1.250000000000007
100
AcDbArc
 50
315.0
 51
15.0
  0
ARC
  5
A2
330
1F
100
AcDbEntity
  8
0
  6
Continuous
 62
     7
370
    15
100
AcDbCircle
 10
203.126948449
 20
112.5483289967
 30
0.0
 40
1.24999999999999
100
AcDbArc
 50
75.0
 51
135.0
  0
ARC
  5
A3
330
1F
100
AcDbEntity
  8
0
  6
Continuous
 62
     7
370
    15
100
AcDbCircle
 10
203.126948449
 20
112.5483289967
 30
0.0
 40
1.25
100
AcDbArc
 50
255.0
 51
315.0
  0
ARC
  5
A4
330
1F
100
AcDbEntity
  8
0
  6
Continuous
 62
     7
370
    15
100
AcDbCircle
 10
203.126948449
 20
112.5483289967
 30
0.0
 40
1.250000000000003
100
AcDbArc
 50
195.0
 51
255.0
  0
ARC
  5
A5
330
1F
100
AcDbEntity
  8
0
  6
Continuous
 62
     7
370
    15
100
AcDbCircle
 10
203.126948449
 20
112.5483289967
 30
0.0
 40
1.250000000000007
100
AcDbArc
 50
15.0
 51
75.0
  0
ARC
  5
A6
330
1F
100
AcDbEntity
  8
0
  6
Continuous
 62
     7
370
    15
100
AcDbCircle
 10
203.126948449
 20
112.5483289967
 30
0.0
 40
1.250000000000003
100
AcDbArc
 50
135.0
 51
195.0
  0
LINE
  5
A7
330
1F
100
AcDbEntity
  8
0
  6
Continuous
 62
     7
370
    15
100
AcDbLine
 10
177.9389774699
 20
63.7733354037
 30
0.0
 11
177.9389774699
 21
143.8983289967
 31
0.0
  0
SPLINE
  5
A8
330
1F
100
AcDbEntity
  8
0
  6
Continuous
 62
     7
370
    15
100
AcDbSpline
210
0.0
220
0.0
230
1.0
 70
     8
 71
     3
 72
     8
 73
     4
 74
     0
 42
0.000000001
 43
0.00000001
 40
0.0
 40
0.0
 40
0.0
 40
0.0
 40
1.0
 40
1.0
 40
1.0
 40
1.0
 10
177.9389774699303
 20
63.77333540367491
 30
0.0
 10
177.4878727405301
 20
64.57429533549482
 30
0.0
 10
177.0371749132867
 20
65.3754853470555
 30
0.0
 10
176.586948449009
 20
66.17694070968027
 30
0.0
  0
LINE
  5
A9
330
1F
100
AcDbEntity
  8
0
  6
Continuous
 62
     7
370
    15
100
AcDbLine
 10
176.586948449
 20
66.1769407097
 30
0.0
 11
176.586948449
 21
143.8983289967
 31
0.0
  0
SPLINE
  5
AA
330
1F
100
AcDbEntity
  8
0
  6
Continuous
 62
     7
370
    15
100
AcDbSpline
210
0.0
220
0.0
230
1.0
 70
    24
 71
     3
 72
     8
 73
     4
 74
     0
 42
0.000000001
 43
0.00000001
 40
0.0
 40
0.0
 40
0.0
 40
0.0
 40
1.0
 40
1.0
 40
1.0
 40
1.0
 10
176.586948449009
 20
143.8983289967038
 30
0.0
 10
177.0311613313629
 20
143.8983289967038
 30
0.0
 10
177.4821758976021
 20
143.8983289967038
 30
0.0
 10
177.9389774699303
 20
143.8983289967038
 30
0.0
  0
LINE
  5
AB
330
1F
100
AcDbEntity
  8
0
  6
Continuous
 62
     7
370
    15
100
AcDbLine
 10
159.626948449
 20
143.8983289967
 30
0.0
 11
171.4149194281
 21
143.8983289967
 31
0.0
  0
LINE
  5
AC
330
1F
100
AcDbEntity
  8
0
  6
Continuous
 62
     7
370
    15
100
AcDbLine
 10
171.4149194281
 20
63.7733354037
 30
0.0
 11
171.4149194281
 21
143.8983289967
 31
0.0
  0
LINE
  5
AD
330
1F
100
AcDbEntity
  8
0
  6
Continuous
 62
     7
370
    15
100
AcDbLine
 10
171.4149194281
 20
63.7733354037
 30
0.0
 11
169.626948449
 21
63.7733354037
 31
0.0
  0
SPLINE
  5
AE
330
1F
100
AcDbEntity
  8
0
  6
Continuous
 62
     7
370
    15
100
AcDbSpline
210
0.0
220
0.0
230
1.0
 70
     8
 71
     3
 72
    30
 73
    26
 74
     0
 42
0.000000001
 43
0.00000001
 40
0.0
 40
0.0
 40
0.0
 40
0.0
 40
0.1250000000000006
 40
0.1250000000000006
 40
0.187500000000001
 40
0.187500000000001
 40
0.2500000000000013
 40
0.2500000000000013
 40
0.3750000000000014
 40
0.3750000000000014
 40
0.4375000000000014
 40
0.4375000000000014
 40
0.5000000000000013
 40
0.5000000000000013
 40
0.625000000000001
 40
0.625000000000001
 40
0.6875000000000009
 40
0.6875000000000009
 40
0.7500000000000007
 40
0.7500000000000007
 40
0.8125000000000006
 40
0.8125000000000006
 40
0.8750000000000004
 40
0.8750000000000004
 40
1.0
 40
1.0
 40
1.0
 40
1.0
 10
169.6269484490089
 20
63.77333540367491
 30
0.0
 10
168.9642037551639
 20
63.77333540367493
 30
0.0
 10
168.3129478960482
 20
63.75849532708611
 30
0.0
 10
167.35249735779
 20
63.71612576285651
 30
0.0
 10
167.035105914557
 20
63.69864766007731
 30
0.0
 10
166.4059424130021
 20
63.65731937352502
 30
0.0
 10
166.0937942265604
 20
63.63339410006733
 30
0.0
 10
165.1864869247122
 20
63.55458758360042
 30
0.0
 10
164.6130619670709
 20
63.49228156362395
 30
0.0
 10
163.7991850974962
 20
63.38915224338458
 30
0.0
 10
163.5343789009264
 20
63.35296832433805
 30
0.0
 10
163.027471490112
 20
63.27917354013754
 30
0.0
 10
162.7860773387586
 20
63.24169968136592
 30
0.0
 10
162.0969358666262
 20
63.12898773802618
 30
0.0
 10
161.6838810517619
 20
63.05345164055241
 30
0.0
 10
161.1357262323869
 20
62.94505838353493
 30
0.0
 10
160.9662636250413
 20
62.90998615187166
 30
0.0
 10
160.6582463770259
 20
62.84375069127179
 30
0.0
 10
160.5188663564176
 20
62.81242399451708
 30
0.0
 10
160.2690808437908
 20
62.75401522293614
 30
0.0
 10
160.1586747311369
 20
62.72693198775331
 30
0.0
 10
159.9674168774992
 20
62.6776722331397
 30
0.0
 10
159.8862973592149
 20
62.65541025333207
 30
0.0
 10
159.6921504391065
 20
62.59784334616375
 30
0.0
 10
159.6269484490089
 20
62.57158374137778
 30
0.0
 10
159.6269484490089
 20
62.55832999690378
 30
0.0
  0
LINE
  5
AF
330
1F
100
AcDbEntity
  8
0
  6
Continuous
 62
     7
370
    15
100
AcDbLine
 10
159.626948449
 20
62.5583299969
 30
0.0
 11
159.626948449
 21
62.5483289967
 31
0.0
  0
SPLINE
  5
B0
330
1F
100
AcDbEntity
  8
0
  6
Continuous
 62
     7
370
    15
100
AcDbSpline
210
0.0
220
0.0
230
1.0
 70
     8
 71
     3
 72
    23
 73
    19
 74
     0
 42
0.000000001
 43
0.00000001
 40
0.0
 40
0.0
 40
0.0
 40
0.0
 40
0.0520256687590416
 40
0.1044186119084699
 40
0.1579654762732602
 40
0.2119084390155455
 40
0.2639329008030785
 40
0.3697142245600881
 40
0.423586857736462
 40
0.4762679679182532
 40
0.5833878371337099
 40
0.6379530306539528
 40
0.691055181935852
 40
0.7445319929992286
 40
0.7992014233075216
 40
0.8542881036302091
 40
0.9066815619543741
 40
1.0
 40
1.0
 40
1.0
 40
1.0
 10
169.6269484490089
 20
161.5381238523673
 30
0.0
 10
169.353936051814
 20
161.5394454208741
 30
0.0
 10
168.8059839306998
 20
161.5420978874798
 30
0.0
 10
167.9828375732446
 20
161.5635727759074
 30
0.0
 10
167.1615924726523
 20
161.5977904945755
 30
0.0
 10
166.3601636625441
 20
161.6448424047429
 30
0.0
 10
165.3277804084012
 20
161.7218313555687
 30
0.0
 10
164.3505323937772
 20
161.8177086062292
 30
0.0
 10
163.4494853825212
 20
161.9246380540174
 30
0.0
 10
162.6005116034198
 20
162.0364848618578
 30
0.0
 10
161.8429431578116
 20
162.1507134605872
 30
0.0
 10
161.1979548673621
 20
162.257293206951
 30
0.0
 10
160.7733809941643
 20
162.3312231633522
 30
0.0
 10
160.4108243445152
 20
162.397113721409
 30
0.0
 10
160.1096227873915
 20
162.4538100726232
 30
0.0
 10
159.8823692153568
 20
162.4977463188578
 30
0.0
 10
159.6762619181343
 20
162.5384047656858
 30
0.0
 10
159.6555749801012
 20
162.5425882050753
 30
0.0
 10
159.6423264204895
 20
162.5452674099941
 30
0.0
  0
LINE
  5
B1
330
1F
100
AcDbEntity
  8
0
  6
Continuous
 62
     7
370
    15
100
AcDbLine
 10
171.4149194281
 20
161.5381238524
 30
0.0
 11
169.626948449
 21
161.5381238524
 31
0.0
  0
LINE
  5
B2
330
1F
100
AcDbEntity
  8
0
  6
Continuous
 62
     7
370
    15
100
AcDbLine
 10
171.4149194281
 20
151.4992917576
 30
0.0
 11
171.4149194281
 21
161.5381238524
 31
0.0
  0
LINE
  5
B3
330
1F
100
AcDbEntity
  8
0
  6
Continuous
 62
     7
370
    15
100
AcDbLine
 10
169.3349152972
 20
151.4992917576
 30
0.0
 11
171.4149194281
 21
151.4992917576
 31
0.0
  0
SPLINE
  5
B4
330
1F
100
AcDbEntity
  8
0
  6
Continuous
 62
     7
370
    15
100
AcDbSpline
210
0.0
220
0.0
230
1.0
 70
     8
 71
     3
 72
    22
 73
    18
 74
     0
 42
0.000000001
 43
0.00000001
 40
0.0
 40
0.0
 40
0.0
 40
0.0
 40
0.2500000000000001
 40
0.2500000000000001
 40
0.3750000000000002
 40
0.3750000000000002
 40
0.5000000000000002
 40
0.5000000000000002
 40
0.6250000000000001
 40
0.6250000000000001
 40
0.7500000000000001
 40
0.7500000000000001
 40
0.875
 40
0.875
 40
0.9375
 40
0.9375
 40
1.0
 40
1.0
 40
1.0
 40
1.0
 10
159.6269484490089
 20
143.8983289967038
 30
0.0
 10
159.829673404928
 20
144.9175753385684
 30
0.0
 10
160.1444171267234
 20
145.8766834885077
 30
0.0
 10
160.8524725963944
 20
147.2191625660169
 30
0.0
 10
161.130935226612
 20
147.6533711487569
 30
0.0
 10
161.7697026332492
 20
148.4649988642591
 30
0.0
 10
162.1301163130395
 20
148.8442791571959
 30
0.0
 10
162.9476485450287
 20
149.5472377362169
 30
0.0
 10
163.4088165283158
 20
149.8722665539175
 30
0.0
 10
164.4068067747996
 20
150.4372818773084
 30
0.0
 10
164.9465659687919
 20
150.6809854715149
 30
0.0
 10
166.1211589328232
 20
151.0851853991599
 30
0.0
 10
166.7328951188151
 20
151.2376225922054
 30
0.0
 10
167.6848043436768
 20
151.3929501398141
 30
0.0
 10
168.0080375079375
 20
151.4324549198641
 30
0.0
 10
168.6671006792127
 20
151.4857640405328
 30
0.0
 10
169.0011646897867
 20
151.4992917575907
 30
0.0
 10
169.3349152971883
 20
151.4992917575906
 30
0.0
  0
LINE
  5
B5
330
1F
100
AcDbEntity
  8
0
  6
Continuous
 62
     7
370
    15
100
AcDbLine
 10
154.676948449
 20
63.0483289967
 30
0.0
 11
154.676948449
 21
162.0483289937
 31
0.0
  0
LINE
  5
B6
330
1F
100
AcDbEntity
  8
0
  6
Continuous
 62
     7
370
    15
100
AcDbLine
 10
183.626948449
 20
64.7989834515
 30
0.0
 11
183.626948449
 21
143.8983289967
 31
0.0
  0
SPLINE
  5
B7
330
1F
100
AcDbEntity
  8
0
  6
Continuous
 62
     7
370
    15
100
AcDbSpline
210
0.0
220
0.0
230
1.0
 70
     8
 71
     3
 72
    14
 73
    10
 74
     0
 42
0.000000001
 43
0.00000001
 40
0.0
 40
0.0
 40
0.0
 40
0.0
 40
0.25
 40
0.25
 40
0.5
 40
0.5
 40
0.75
 40
0.75
 40
1.0
 40
1.0
 40
1.0
 40
1.0
 10
183.626948449009
 20
64.79898345145044
 30
0.0
 10
183.6269484490089
 20
64.6655577553959
 30
0.0
 10
183.6016373490981
 20
64.53370994755153
 30
0.0
 10
183.5033025852534
 20
64.28718739885744
 30
0.0
 10
183.4301585809973
 20
64.1733822106169
 30
0.0
 10
183.2467205199016
 20
63.98292503366962
 30
0.0
 10
183.135034185563
 20
63.9052901698197
 30
0.0
 10
182.8925307552567
 20
63.80099875970724
 30
0.0
 10
182.7591563265625
 20
63.77333540367488
 30
0.0
 10
182.6269484490089
 20
63.77333540367488
 30
0.0
  0
SPLINE
  5
B8
330
1F
100
AcDbEntity
  8
0
  6
Continuous
 62
     7
370
    15
100
AcDbSpline
210
0.0
220
0.0
230
1.0
 70
    24
 71
     3
 72
    12
 73
     8
 74
     0
 42
0.000000001
 43
0.00000001
 40
0.0
 40
0.0
 40
0.0
 40
0.0
 40
0.2500000000000016
 40
0.2500000000000016
 40
0.5000000000000032
 40
0.5000000000000032
 40
1.0
 40
1.0
 40
1.0
 40
1.0
 10
182.6269484490089
 20
143.8983289967038
 30
0.0
 10
182.779038685954
 20
143.8983289967038
 30
0.0
 10
182.9274979470294
 20
143.8983289967037
 30
0.0
 10
183.1849015792951
 20
143.8983289967038
 30
0.0
 10
183.294006327137
 20
143.8983289967038
 30
0.0
 10
183.5480658035445
 20
143.8983289967038
 30
0.0
 10
183.6269484490089
 20
143.8983289967037
 30
0.0
 10
183.626948449009
 20
143.8983289967038
 30
0.0
  0
LINE
  5
B9
330
1F
100
AcDbEntity
  8
0
  6
Continuous
 62
     7
370
    15
100
AcDbLine
 10
172.766948449
 20
66.1769407097
 30
0.0
 11
172.766948449
 21
143.8983289967
 31
0.0
  0
SPLINE
  5
BA
330
1F
100
AcDbEntity
  8
0
  6
Continuous
 62
     7
370
    15
100
AcDbSpline
210
0.0
220
0.0
230
1.0
 70
     8
 71
     3
 72
     8
 73
     4
 74
     0
 42
0.000000001
 43
0.00000001
 40
0.0
 40
0.0
 40
0.0
 40
0.0
 40
1.0
 40
1.0
 40
1.0
 40
1.0
 10
172.766948449009
 20
66.17694070968025
 30
0.0
 10
172.3167219847312
 20
65.37548534705549
 30
0.0
 10
171.8660241574878
 20
64.57429533549482
 30
0.0
 10
171.4149194280876
 20
63.77333540367491
 30
0.0
  0
SPLINE
  5
BB
330
1F
100
AcDbEntity
  8
0
  6
Continuous
 62
     7
370
    15
100
AcDbSpline
210
0.0
220
0.0
230
1.0
 70
    24
 71
     3
 72
     8
 73
     4
 74
     0
 42
0.000000001
 43
0.00000001
 40
0.0
 40
0.0
 40
0.0
 40
0.0
 40
1.0
 40
1.0
 40
1.0
 40
1.0
 10
171.4149194280876
 20
143.8983289967038
 30
0.0
 10
171.8717210004158
 20
143.8983289967038
 30
0.0
 10
172.322735566655
 20
143.8983289967038
 30
0.0
 10
172.766948449009
 20
143.8983289967038
 30
0.0
  0
LINE
  5
BC
330
1F
100
AcDbEntity
  8
0
  6
Continuous
 62
     7
370
    15
100
AcDbLine
 10
182.626948449
 20
63.7733354037
 30
0.0
 11
177.9389774699
 21
63.7733354037
 31
0.0
  0
LINE
  5
BD
330
1F
100
AcDbEntity
  8
0
  6
Continuous
 62
     7
370
    15
100
AcDbLine
 10
177.9389774699
 20
143.8983289967
 30
0.0
 11
182.626948449
 21
143.8983289967
 31
0.0
  0
SPLINE
  5
BE
330
1F
100
AcDbEntity
  8
0
  6
Continuous
 62
     7
370
    15
100
AcDbSpline
210
0.0
220
0.0
230
1.0
 70
     8
 71
     3
 72
    14
 73
    10
 74
     0
 42
0.000000001
 43
0.00000001
 40
0.0
 40
0.0
 40
0.0
 40
0.0
 40
0.25
 40
0.25
 40
0.5
 40
0.5
 40
0.75
 40
0.75
 40
1.0
 40
1.0
 40
1.0
 40
1.0
 10
176.586948449009
 20
67.08515021430883
 30
0.0
 10
176.586948449009
 20
67.19219429530322
 30
0.0
 10
176.5668307618508
 20
67.29742943554568
 30
0.0
 10
176.4883395725852
 20
67.49527992239335
 30
0.0
 10
176.430182947784
 20
67.58633168595827
 30
0.0
 10
176.2836676921659
 20
67.73949777988305
 30
0.0
 10
176.1950251435248
 20
67.80179222609247
 30
0.0
 10
175.9993018207245
 20
67.88658601162845
 30
0.0
 10
175.8940706296536
 20
67.90865353865408
 30
0.0
 10
175.786948449009
 20
67.90865353865408
 30
0.0
  0
SPLINE
  5
BF
330
1F
100
AcDbEntity
  8
0
  6
Continuous
 62
     7
370
    15
100
AcDbSpline
210
0.0
220
0.0
230
1.0
 70
    24
 71
     3
 72
    14
 73
    10
 74
     0
 42
0.000000001
 43
0.00000001
 40
0.0
 40
0.0
 40
0.0
 40
0.0
 40
0.25
 40
0.25
 40
0.5
 40
0.5
 40
0.75
 40
0.75
 40
1.0
 40
1.0
 40
1.0
 40
1.0
 10
175.786948449009
 20
143.8983289967038
 30
0.0
 10
175.9107182137741
 20
143.8983289967038
 30
0.0
 10
176.035085317781
 20
143.8983289967038
 30
0.0
 10
176.241441786507
 20
143.8983289967037
 30
0.0
 10
176.3267699299254
 20
143.8983289967038
 30
0.0
 10
176.4589619886407
 20
143.8983289967038
 30
0.0
 10
176.5076072323912
 20
143.8983289967038
 30
0.0
 10
176.57114302412
 20
143.8983289967038
 30
0.0
 10
176.586948449009
 20
143.8983289967038
 30
0.0
 10
176.586948449009
 20
143.8983289967038
 30
0.0
  0
SPLINE
  5
C0
330
1F
100
AcDbEntity
  8
0
  6
Continuous
 62
     7
370
    15
100
AcDbSpline
210
0.0
220
0.0
230
1.0
 70
     8
 71
     3
 72
    12
 73
     8
 74
     0
 42
0.000000001
 43
0.00000001
 40
0.0
 40
0.0
 40
0.0
 40
0.0
 40
0.25
 40
0.25
 40
0.5
 40
0.5
 40
1.0
 40
1.0
 40
1.0
 40
1.0
 10
173.5669484490089
 20
67.90865353865408
 30
0.0
 10
173.46118779566
 20
67.9086535386541
 30
0.0
 10
173.3532001674771
 20
67.88611403265368
 30
0.0
 10
173.1586055022115
 20
67.80154340065839
 30
0.0
 10
173.0697335893726
 20
67.73906174789958
 30
0.0
 10
172.8505412970467
 20
67.50967279642742
 30
0.0
 10
172.7669484490089
 20
67.29708945890503
 30
0.0
 10
172.7669484490089
 20
67.08515021430883
 30
0.0
  0
SPLINE
  5
C1
330
1F
100
AcDbEntity
  8
0
  6
Continuous
 62
     7
370
    15
100
AcDbSpline
210
0.0
220
0.0
230
1.0
 70
    24
 71
     3
 72
    14
 73
    10
 74
     0
 42
0.000000001
 43
0.00000001
 40
0.0
 40
0.0
 40
0.0
 40
0.0
 40
0.25
 40
0.25
 40
0.5
 40
0.5
 40
0.75
 40
0.75
 40
1.0
 40
1.0
 40
1.0
 40
1.0
 10
172.7669484490089
 20
143.8983289967038
 30
0.0
 10
172.7669484490089
 20
143.8983289967038
 30
0.0
 10
172.7826627694749
 20
143.8983289967038
 30
0.0
 10
172.8463467479433
 20
143.8983289967037
 30
0.0
 10
172.8949499423537
 20
143.8983289967038
 30
0.0
 10
173.0276334647793
 20
143.8983289967038
 30
0.0
 10
173.11273556909
 20
143.8983289967038
 30
0.0
 10
173.319177804
 20
143.8983289967038
 30
0.0
 10
173.443258745623
 20
143.8983289967038
 30
0.0
 10
173.5669484490089
 20
143.8983289967038
 30
0.0
  0
LINE
  5
C2
330
1F
100
AcDbEntity
  8
0
  6
Continuous
 62
     7
370
    15
100
AcDbLine
 10
175.786948449
 20
67.9086535387
 30
0.0
 11
173.566948449
 21
67.9086535387
 31
0.0
  0
LINE
  5
C3
330
1F
100
AcDbEntity
  8
0
  6
Continuous
 62
     7
370
    15
100
AcDbLine
 10
173.566948449
 20
143.8983289967
 30
0.0
 11
175.786948449
 21
143.8983289967
 31
0.0
  0
LINE
  5
C4
330
1F
100
AcDbEntity
  8
0
  6
Continuous
 62
     7
370
    15
100
AcDbLine
 10
152.176948449
 20
74.6660774937
 30
0.0
 11
152.176948449
 21
150.4305804997
 31
0.0
  0
LINE
  5
C5
330
1F
100
AcDbEntity
  8
0
  6
Continuous
 62
     7
370
    15
100
AcDbLine
 10
119.876948449
 20
76.2843139666
 30
0.0
 11
119.876948449
 21
78.6789957313
 31
0.0
  0
SPLINE
  5
C6
330
1F
100
AcDbEntity
  8
0
  6
Continuous
 62
     7
370
    15
100
AcDbSpline
210
0.0
220
0.0
230
1.0
 70
     8
 71
     3
 72
    14
 73
    10
 74
     0
 42
0.000000001
 43
0.00000001
 40
0.0
 40
0.0
 40
0.0
 40
0.0
 40
0.25
 40
0.25
 40
0.5
 40
0.5
 40
0.75
 40
0.75
 40
1.0
 40
1.0
 40
1.0
 40
1.0
 10
118.872525977672
 20
80.38184765296019
 30
0.0
 10
118.9612945556173
 20
80.22331352165224
 30
0.0
 10
119.0830123942962
 20
80.07087084476369
 30
0.0
 10
119.3180620041531
 20
79.77373622093477
 30
0.0
 10
119.43369219037
 20
79.6290535773174
 30
0.0
 10
119.6340971237978
 20
79.345764374814
 30
0.0
 10
119.7194974157821
 20
79.20721038177714
 30
0.0
 10
119.8412030494993
 20
78.93582635174361
 30
0.0
 10
119.876948449012
 20
78.803690483109
 30
0.0
 10
119.876948449012
 20
78.67899573133823
 30
0.0
  0
SPLINE
  5
C7
330
1F
100
AcDbEntity
  8
0
  6
Continuous
 62
     7
370
    15
100
AcDbSpline
210
0.0
220
0.0
230
1.0
 70
     8
 71
     3
 72
    14
 73
    10
 74
     0
 42
0.000000001
 43
0.00000001
 40
0.0
 40
0.0
 40
0.0
 40
0.0
 40
0.1249999999999983
 40
0.1249999999999983
 40
0.2499999999999966
 40
0.2499999999999966
 40
0.4999999999999978
 40
0.4999999999999978
 40
1.0
 40
1.0
 40
1.0
 40
1.0
 10
117.976948449009
 20
81.0106775920603
 30
0.0
 10
118.0445307487934
 20
81.0178334771617
 30
0.0
 10
118.1170183265414
 20
81.0134090071227
 30
0.0
 10
118.2493094358073
 20
80.98370284935235
 30
0.0
 10
118.3065868151975
 20
80.96041856777411
 30
0.0
 10
118.4562372423978
 20
80.8829333279238
 30
0.0
 10
118.5299505379193
 20
80.82108150102243
 30
0.0
 10
118.7177585212455
 20
80.6364040483741
 30
0.0
 10
118.8017988276069
 20
80.50816112508288
 30
0.0
 10
118.8725259776732
 20
80.3818476529603
 30
0.0
  0
SPLINE
  5
C8
330
1F
100
AcDbEntity
  8
0
  6
Continuous
 62
     7
370
    15
100
AcDbSpline
210
0.0
220
0.0
230
1.0
 70
     8
 71
     3
 72
     8
 73
     4
 74
     0
 42
0.000000001
 43
0.00000001
 40
0.0
 40
0.0
 40
0.0
 40
0.0
 40
1.0
 40
1.0
 40
1.0
 40
1.0
 10
114.4323080609282
 20
80.59262900726851
 30
0.0
 10
115.597606371637
 20
80.74781647915513
 30
0.0
 10
116.7822215856769
 20
80.88417511746546
 30
0.0
 10
117.976948449009
 20
81.0106775920603
 30
0.0
  0
SPLINE
  5
C9
330
1F
100
AcDbEntity
  8
0
  6
Continuous
 62
     7
370
    15
100
AcDbSpline
210
0.0
220
0.0
230
1.0
 70
     8
 71
     3
 72
    14
 73
    10
 74
     0
 42
0.000000001
 43
0.00000001
 40
0.0
 40
0.0
 40
0.0
 40
0.0
 40
0.4999999999999972
 40
0.4999999999999972
 40
0.7499999999999971
 40
0.7499999999999971
 40
0.8749999999999986
 40
0.8749999999999986
 40
1.0
 40
1.0
 40
1.0
 40
1.0
 10
106.6768735649803
 20
80.3024968281386
 30
0.0
 10
107.985175127514
 20
80.30951155187974
 30
0.0
 10
109.2902345021708
 20
80.32492012832421
 30
0.0
 10
111.2361105536591
 20
80.37881668379087
 30
0.0
 10
111.8828080573981
 20
80.40184824839358
 30
0.0
 10
112.8466504212525
 20
80.45279077326434
 30
0.0
 10
113.1668891131866
 20
80.47252569549754
 30
0.0
 10
113.803584339529
 20
80.52201282396909
 30
0.0
 10
114.1202997478119
 20
80.55107760289833
 30
0.0
 10
114.4323080609282
 20
80.59262900726848
 30
0.0
  0
SPLINE
  5
CA
330
1F
100
AcDbEntity
  8
0
  6
Continuous
 62
     7
370
    15
100
AcDbSpline
210
0.0
220
0.0
230
1.0
 70
     8
 71
     3
 72
    12
 73
     8
 74
     0
 42
0.000000001
 43
0.00000001
 40
0.0
 40
0.0
 40
0.0
 40
0.0
 40
0.2500000000000009
 40
0.2500000000000009
 40
0.5000000000000018
 40
0.5000000000000018
 40
1.0
 40
1.0
 40
1.0
 40
1.0
 10
112.976948449009
 20
144.6348518882002
 30
0.0
 10
112.4582496271808
 20
144.6673746630484
 30
0.0
 10
111.9365380539758
 20
144.6906714042189
 30
0.0
 10
110.8902460374802
 20
144.728516918641
 30
0.0
 10
110.3655744118099
 20
144.7427853931371
 30
0.0
 10
108.7887283892707
 20
144.7769948805954
 30
0.0
 10
107.7337730747238
 20
144.7884943845393
 30
0.0
 10
106.6768735649786
 20
144.7941611652688
 30
0.0
  0
SPLINE
  5
CB
330
1F
100
AcDbEntity
  8
0
  6
Continuous
 62
     7
370
    15
100
AcDbSpline
210
0.0
220
0.0
230
1.0
 70
     8
 71
     3
 72
    20
 73
    16
 74
     0
 42
0.000000001
 43
0.00000001
 40
0.0
 40
0.0
 40
0.0
 40
0.0
 40
0.2500000000000003
 40
0.2500000000000003
 40
0.5000000000000007
 40
0.5000000000000007
 40
0.750000000000001
 40
0.750000000000001
 40
0.8750000000000007
 40
0.8750000000000007
 40
0.9375000000000012
 40
0.9375000000000012
 40
0.9687500000000007
 40
0.9687500000000007
 40
1.0
 40
1.0
 40
1.0
 40
1.0
 10
114.876948449009
 20
146.2929377336883
 30
0.0
 10
114.876948449009
 20
146.1572554139415
 30
0.0
 10
114.8282366597923
 20
146.0161684278015
 30
0.0
 10
114.6590752365671
 20
145.7240967090709
 30
0.0
 10
114.5372948226488
 20
145.5724479669805
 30
0.0
 10
114.2397477278993
 20
145.2700395268274
 30
0.0
 10
114.0658351221965
 20
145.1174508907041
 30
0.0
 10
113.7464202883147
 20
144.8921801268618
 30
0.0
 10
113.6313795128675
 20
144.8174570323511
 30
0.0
 10
113.424295188851
 20
144.7180466230941
 30
0.0
 10
113.3481873540447
 20
144.6864815307495
 30
0.0
 10
113.2167928144913
 20
144.6520381465565
 30
0.0
 10
113.1702395954899
 20
144.6429865747889
 30
0.0
 10
113.0739062444092
 20
144.6328109259504
 30
0.0
 10
113.0246468210537
 20
144.6318611672754
 30
0.0
 10
112.976948449007
 20
144.63485188819
 30
0.0
  0
LINE
  5
CC
330
1F
100
AcDbEntity
  8
0
  6
Continuous
 62
     7
370
    15
100
AcDbLine
 10
114.876948449
 20
146.2929377337
 30
0.0
 11
114.876948449
 21
148.5618430248
 31
0.0
  0
SPLINE
  5
CD
330
1F
100
AcDbEntity
  8
0
  6
Continuous
 62
     7
370
    15
100
AcDbSpline
210
0.0
220
0.0
230
1.0
 70
     8
 71
     3
 72
    24
 73
    20
 74
     0
 42
0.000000001
 43
0.00000001
 40
0.0
 40
0.0
 40
0.0
 40
0.0
 40
0.0002934293894792
 40
0.062808005175934
 40
0.1260453927228742
 40
0.1890746766613222
 40
0.2513200540860153
 40
0.3133304633787786
 40
0.3759158453762985
 40
0.4383740564607907
 40
0.5000631094857534
 40
0.561659398803632
 40
0.6245050380643723
 40
0.6872231506498981
 40
0.7494953263230506
 40
0.811758379753676
 40
0.8747365508229972
 40
0.9378980306234588
 40
1.0
 40
1.0
 40
1.0
 40
1.0
 10
133.1969047128484
 20
75.61708373839134
 30
0.0
 10
133.1967098599636
 20
75.61705943099736
 30
0.0
 10
133.1550019689514
 20
75.61185647934361
 30
0.0
 10
133.3001203604816
 20
75.63049110267359
 30
0.0
 10
133.6551993020236
 20
75.67301088122264
 30
0.0
 10
134.2597749395679
 20
75.74114716482417
 30
0.0
 10
135.0662102483833
 20
75.81440270184025
 30
0.0
 10
136.0516876723007
 20
75.87892204265817
 30
0.0
 10
137.183357268986
 20
75.91748627071907
 30
0.0
 10
138.4056497391469
 20
75.92118077672097
 30
0.0
 10
139.6729784205968
 20
75.87875479667156
 30
0.0
 10
140.939463951015
 20
75.79050765588879
 30
0.0
 10
142.1556013148304
 20
75.66211438562526
 30
0.0
 10
143.281011810679
 20
75.50947339703296
 30
0.0
 10
144.2584288722295
 20
75.3476987819277
 30
0.0
 10
145.0616943507794
 20
75.19516988882596
 30
0.0
 10
145.6501878737795
 20
75.07115614555862
 30
0.0
 10
146.0390939854293
 20
74.98623221928247
 30
0.0
 10
146.0858551161685
 20
74.97550590800363
 30
0.0
 10
146.1090379227115
 20
74.970188115312
 30
0.0
  0
SPLINE
  5
CE
330
1F
100
AcDbEntity
  8
0
  6
Continuous
 62
     7
370
    15
100
AcDbSpline
210
0.0
220
0.0
230
1.0
 70
     8
 71
     3
 72
    41
 73
    37
 74
     0
 42
0.000000001
 43
0.00000001
 40
0.0
 40
0.0
 40
0.0
 40
0.0
 40
0.0619930088509839
 40
0.1254347838145775
 40
0.1886508980472116
 40
0.2510246518033717
 40
0.3131658325488003
 40
0.3756581805174138
 40
0.4382227337755126
 40
0.4998045140815232
 40
0.5615164441950592
 40
0.6240683366165516
 40
0.6867257531767135
 40
0.7488365631577227
 40
0.8110686297815293
 40
0.8741743265521017
 40
0.9373213196239055
 40
0.9685512131825712
 40
0.984208730152181
 40
0.9920641614991338
 40
0.9960005295431176
 40
0.9979711229155214
 40
0.9989570525954502
 40
0.9994501795074999
 40
0.9996967839589611
 40
0.9998200964931961
 40
0.9998817553448917
 40
0.9999125854178162
 40
0.9999280006161619
 40
0.9999357082558221
 40
0.9999395620857765
 40
0.9999414890032835
 40
0.999942452462671
 40
0.9999434159224786
 40
0.9999502132898598
 40
0.9999999999999999
 40
0.9999999999999999
 40
0.9999999999999999
 40
0.9999999999999999
 10
146.1089165922336
 20
150.1264248601439
 30
0.0
 10
146.0853449468903
 20
150.121115380494
 30
0.0
 10
146.0376507908462
 20
150.1103723395545
 30
0.0
 10
145.6456088014186
 20
150.0251432030988
 30
0.0
 10
145.0550947521458
 20
149.9005744244583
 30
0.0
 10
144.2510573061058
 20
149.7476274783067
 30
0.0
 10
143.2749819059248
 20
149.5858709243532
 30
0.0
 10
142.1531731706459
 20
149.4336381564212
 30
0.0
 10
140.9396422508565
 20
149.3058582152195
 30
0.0
 10
139.6748115444601
 20
149.2180096635369
 30
0.0
 10
138.4067685070158
 20
149.1756241796663
 30
0.0
 10
137.1832611493142
 20
149.1793599876378
 30
0.0
 10
136.0497626088952
 20
149.2179554580853
 30
0.0
 10
135.0636567979229
 20
149.2823948293771
 30
0.0
 10
134.2550289891395
 20
149.3559046366586
 30
0.0
 10
133.6584102940271
 20
149.4232183214698
 30
0.0
 10
133.3430190045693
 20
149.4611828727376
 30
0.0
 10
133.2329524357695
 20
149.4749819320699
 30
0.0
 10
133.205533047959
 20
149.4784680059901
 30
0.0
 10
133.1986109971244
 20
149.4793472316841
 30
0.0
 10
133.1968427569481
 20
149.4795680062896
 30
0.0
 10
133.1963823777647
 20
149.4796232090016
 30
0.0
 10
133.1962582190941
 20
149.4796369487869
 30
0.0
 10
133.1962226645808
 20
149.4796403446203
 30
0.0
 10
133.1962115205392
 20
149.4796411729371
 30
0.0
 10
133.1962076073029
 20
149.4796413695309
 30
0.0
 10
133.1962060651547
 20
149.4796414134539
 30
0.0
 10
133.1962053980733
 20
149.4796414217706
 30
0.0
 10
133.1962050900084
 20
149.4796414225868
 30
0.0
 10
133.1962049430831
 20
149.4796414220615
 30
0.0
 10
133.1962048703554
 20
149.4796414217036
 30
0.0
 10
133.1962048356458
 20
149.4796414213058
 30
0.0
 10
133.1962048139123
 20
149.4796414213307
 30
0.0
 10
133.1962047820572
 20
149.479641419086
 30
0.0
 10
133.1962028327168
 20
149.479641635032
 30
0.0
 10
133.1962297675797
 20
149.4796381539014
 30
0.0
 10
133.1962534667946
 20
149.4796350909541
 30
0.0
  0
SPLINE
  5
CF
330
1F
100
AcDbEntity
  8
0
  6
Continuous
 62
     7
370
    15
100
AcDbSpline
210
0.0
220
0.0
230
1.0
 70
     8
 71
     3
 72
    20
 73
    16
 74
     0
 42
0.000000001
 43
0.00000001
 40
0.0
 40
0.0
 40
0.0
 40
0.0
 40
0.2499999999999887
 40
0.2499999999999887
 40
0.374999999999986
 40
0.374999999999986
 40
0.4374999999999881
 40
0.4374999999999881
 40
0.4999999999999901
 40
0.4999999999999901
 40
0.6249999999999891
 40
0.6249999999999891
 40
0.7499999999999881
 40
0.7499999999999881
 40
1.0
 40
1.0
 40
1.0
 40
1.0
 10
105.067762680725
 20
81.86984584400304
 30
0.0
 10
105.0940348979384
 20
81.88916378508549
 30
0.0
 10
105.1247150401932
 20
81.90355249618725
 30
0.0
 10
105.1961859105751
 20
81.89664813435124
 30
0.0
 10
105.2242129476195
 20
81.88948213100281
 30
0.0
 10
105.279296537117
 20
81.85978310429921
 30
0.0
 10
105.3001878656694
 20
81.8463094617379
 30
0.0
 10
105.3453965131149
 20
81.81111119622189
 30
0.0
 10
105.3698007255105
 20
81.78920296749462
 30
0.0
 10
105.4411330435619
 20
81.71707810749909
 30
0.0
 10
105.4830298283821
 20
81.66473756654902
 30
0.0
 10
105.554605787238
 20
81.56725417464826
 30
0.0
 10
105.5854337770553
 20
81.52050040476985
 30
0.0
 10
105.668533709891
 20
81.38720718893074
 30
0.0
 10
105.7133886152612
 20
81.30456979101554
 30
0.0
 10
105.7535006907138
 20
81.22546289622476
 30
0.0
  0
SPLINE
  5
D0
330
1F
100
AcDbEntity
  8
0
  6
Continuous
 62
     7
370
    15
100
AcDbSpline
210
0.0
220
0.0
230
1.0
 70
     8
 71
     3
 72
    14
 73
    10
 74
     0
 42
0.000000001
 43
0.00000001
 40
0.0
 40
0.0
 40
0.0
 40
0.0
 40
0.25
 40
0.25
 40
0.5
 40
0.5
 40
0.75
 40
0.75
 40
1.0
 40
1.0
 40
1.0
 40
1.0
 10
104.776948449009
 20
82.0456592541358
 30
0.0
 10
104.776948449009
 20
82.00441232311145
 30
0.0
 10
104.7855581653902
 20
81.96750535082897
 30
0.0
 10
104.8166443449606
 20
81.90660529092956
 30
0.0
 10
104.8390338984446
 20
81.88242437138987
 30
0.0
 10
104.8937778296207
 20
81.84845678050662
 30
0.0
 10
104.9262280692059
 20
81.83853669653843
 30
0.0
 10
104.996229583934
 20
81.83718548763358
 30
0.0
 10
105.0344400840565
 20
81.84534376432974
 30
0.0
 10
105.0677626807296
 20
81.86984584399782
 30
0.0
  0
LINE
  5
D1
330
1F
100
AcDbEntity
  8
0
  6
Continuous
 62
     7
370
    15
100
AcDbLine
 10
104.776948449
 20
82.0456592541
 30
0.0
 11
104.776948449
 21
143.0509987393
 31
0.0
  0
SPLINE
  5
D2
330
1F
100
AcDbEntity
  8
0
  6
Continuous
 62
     7
370
    15
100
AcDbSpline
210
0.0
220
0.0
230
1.0
 70
     8
 71
     3
 72
     9
 73
     5
 74
     0
 42
0.000000001
 43
0.00000001
 40
0.0
 40
0.0
 40
0.0
 40
0.0
 40
0.0592950272321235
 40
0.9999999999999999
 40
0.9999999999999999
 40
0.9999999999999999
 40
0.9999999999999999
 10
105.0677626807296
 20
143.2268121494096
 30
0.0
 10
105.0628798392674
 20
143.2301049948031
 30
0.0
 10
104.9805315937211
 20
143.2856382418087
 30
0.0
 10
104.9143995432395
 20
143.2283488392962
 30
0.0
 10
104.8521887944922
 20
143.1744564134658
 30
0.0
  0
SPLINE
  5
D3
330
1F
100
AcDbEntity
  8
0
  6
Continuous
 62
     7
370
    15
100
AcDbSpline
210
0.0
220
0.0
230
1.0
 70
     8
 71
     3
 72
     8
 73
     4
 74
     0
 42
0.000000001
 43
0.00000001
 40
0.0
 40
0.0
 40
0.0
 40
0.0
 40
1.0
 40
1.0
 40
1.0
 40
1.0
 10
104.8005821179452
 20
143.1585782403413
 30
0.0
 10
104.7852330793091
 20
143.1280681853454
 30
0.0
 10
104.776948449009
 20
143.091756629833
 30
0.0
 10
104.776948449009
 20
143.0509987392716
 30
0.0
  0
SPLINE
  5
D4
330
1F
100
AcDbEntity
  8
0
  6
Continuous
 62
     7
370
    15
100
AcDbSpline
210
0.0
220
0.0
230
1.0
 70
     8
 71
     3
 72
    20
 73
    16
 74
     0
 42
0.000000001
 43
0.00000001
 40
0.0
 40
0.0
 40
0.0
 40
0.0
 40
0.2499999999999868
 40
0.2499999999999868
 40
0.3749999999999822
 40
0.3749999999999822
 40
0.4999999999999776
 40
0.4999999999999776
 40
0.5624999999999778
 40
0.5624999999999778
 40
0.624999999999978
 40
0.624999999999978
 40
0.7499999999999855
 40
0.7499999999999855
 40
1.0
 40
1.0
 40
1.0
 40
1.0
 10
105.7535006907114
 20
143.8711950971819
 30
0.0
 10
105.7135044728875
 20
143.7923166906244
 30
0.0
 10
105.6683908450499
 20
143.7091870439329
 30
0.0
 10
105.5851366306834
 20
143.575698379582
 30
0.0
 10
105.5549173020628
 20
143.5298333237
 30
0.0
 10
105.4828290669214
 20
143.4316417712951
 30
0.0
 10
105.4409117495103
 20
143.3793319517715
 30
0.0
 10
105.3696611449589
 20
143.307326049037
 30
0.0
 10
105.3454253325796
 20
143.2855558367354
 30
0.0
 10
105.2998271423949
 20
143.2500811784064
 30
0.0
 10
105.2790246527952
 20
143.2367109942289
 30
0.0
 10
105.2240836543761
 20
143.2071410820937
 30
0.0
 10
105.1960146662893
 20
143.2000145597917
 30
0.0
 10
105.1255118362265
 20
143.193140188309
 30
0.0
 10
105.0940877484356
 20
143.2074553473962
 30
0.0
 10
105.067762680727
 20
143.2268121494068
 30
0.0
  0
SPLINE
  5
D5
330
1F
100
AcDbEntity
  8
0
  6
Continuous
 62
     7
370
    15
100
AcDbSpline
210
0.0
220
0.0
230
1.0
 70
     8
 71
     3
 72
    10
 73
     6
 74
     0
 42
0.000000001
 43
0.00000001
 40
0.0
 40
0.0
 40
0.0
 40
0.0
 40
0.4999999999999989
 40
0.4999999999999989
 40
1.0
 40
1.0
 40
1.0
 40
1.0
 10
106.426948449009
 20
144.7966141985237
 30
0.0
 10
106.3020601782588
 20
144.6656179204522
 30
0.0
 10
106.1806100601983
 20
144.5219050837873
 30
0.0
 10
105.9510260852409
 20
144.211334791098
 30
0.0
 10
105.8407511098449
 20
144.0432657180349
 30
0.0
 10
105.7535006907114
 20
143.8711950971819
 30
0.0
  0
SPLINE
  5
D6
330
1F
100
AcDbEntity
  8
0
  6
Continuous
 62
     7
370
    15
100
AcDbSpline
210
0.0
220
0.0
230
1.0
 70
     8
 71
     3
 72
     8
 73
     4
 74
     0
 42
0.000000001
 43
0.00000001
 40
0.0
 40
0.0
 40
0.0
 40
0.0
 40
1.0
 40
1.0
 40
1.0
 40
1.0
 10
106.6768735649747
 20
144.7941611652683
 30
0.0
 10
106.5898555351263
 20
144.7946277300554
 30
0.0
 10
106.5069015087464
 20
144.7956677496315
 30
0.0
 10
106.4269484490067
 20
144.7966141985238
 30
0.0
  0
SPLINE
  5
D7
330
1F
100
AcDbEntity
  8
0
  6
Continuous
 62
     7
370
    15
100
AcDbSpline
210
0.0
220
0.0
230
1.0
 70
     8
 71
     3
 72
     8
 73
     4
 74
     0
 42
0.000000001
 43
0.00000001
 40
0.0
 40
0.0
 40
0.0
 40
0.0
 40
1.0
 40
1.0
 40
1.0
 40
1.0
 10
106.4269484490067
 20
80.30004379488365
 30
0.0
 10
106.5069015087469
 20
80.30099024377591
 30
0.0
 10
106.5898555351274
 20
80.30203026335205
 30
0.0
 10
106.6768735649764
 20
80.30249682813911
 30
0.0
  0
SPLINE
  5
D8
330
1F
100
AcDbEntity
  8
0
  6
Continuous
 62
     7
370
    15
100
AcDbSpline
210
0.0
220
0.0
230
1.0
 70
     8
 71
     3
 72
    10
 73
     6
 74
     0
 42
0.000000001
 43
0.00000001
 40
0.0
 40
0.0
 40
0.0
 40
0.0
 40
0.4999999999999989
 40
0.4999999999999989
 40
1.0
 40
1.0
 40
1.0
 40
1.0
 10
105.7535006907105
 20
81.22546289622733
 30
0.0
 10
105.8407511098439
 20
81.05339227537395
 30
0.0
 10
105.9510260852401
 20
80.88532320231052
 30
0.0
 10
106.1806100601979
 20
80.57475290962071
 30
0.0
 10
106.3020601782586
 20
80.43104007295543
 30
0.0
 10
106.426948449009
 20
80.30004379488373
 30
0.0
  0
SPLINE
  5
D9
330
1F
100
AcDbEntity
  8
0
  6
Continuous
 62
     7
370
    15
100
AcDbSpline
210
0.0
220
0.0
230
1.0
 70
     8
 71
     3
 72
    10
 73
     6
 74
     0
 42
0.000000001
 43
0.00000001
 40
0.0
 40
0.0
 40
0.0
 40
0.0
 40
0.5
 40
0.5
 40
1.0
 40
1.0
 40
1.0
 40
1.0
 10
173.5669484490089
 20
157.4226047568762
 30
0.0
 10
173.3544121351526
 20
157.4226047568762
 30
0.0
 10
173.1444759634986
 20
157.5140173435063
 30
0.0
 10
172.8507688224873
 20
157.8187622094106
 30
0.0
 10
172.7669484490089
 20
158.0309171793192
 30
0.0
 10
172.7669484490089
 20
158.2418802375517
 30
0.0
  0
SPLINE
  5
DA
330
1F
100
AcDbEntity
  8
0
  6
Continuous
 62
     7
370
    15
100
AcDbSpline
210
0.0
220
0.0
230
1.0
 70
     8
 71
     3
 72
    14
 73
    10
 74
     0
 42
0.000000001
 43
0.00000001
 40
0.0
 40
0.0
 40
0.0
 40
0.0
 40
0.25
 40
0.25
 40
0.5
 40
0.5
 40
0.75
 40
0.75
 40
1.0
 40
1.0
 40
1.0
 40
1.0
 10
172.7669484490089
 20
147.2625641892008
 30
0.0
 10
172.7669484490089
 20
147.1386973124116
 30
0.0
 10
172.7828075766365
 20
147.0144376355741
 30
0.0
 10
172.8461692221564
 20
146.7768292731682
 30
0.0
 10
172.8947589302058
 20
146.6600488884157
 30
0.0
 10
173.0270445349807
 20
146.4512463598067
 30
0.0
 10
173.1123693262412
 20
146.3567356562141
 30
0.0
 10
173.3192605745474
 20
146.2187788554118
 30
0.0
 10
173.4432285204374
 20
146.1768604097761
 30
0.0
 10
173.5669484490089
 20
146.1768604097761
 30
0.0
  0
LINE
  5
DB
330
1F
100
AcDbEntity
  8
0
  6
Continuous
 62
     7
370
    15
100
AcDbLine
 10
182.626948449
 20
161.5381238524
 30
0.0
 11
177.9389774699
 21
161.5381238524
 31
0.0
  0
LINE
  5
DC
330
1F
100
AcDbEntity
  8
0
  6
Continuous
 62
     7
370
    15
100
AcDbLine
 10
177.9389774699
 20
151.4992917576
 30
0.0
 11
182.626948449
 21
151.4992917576
 31
0.0
  0
LINE
  5
DD
330
1F
100
AcDbEntity
  8
0
  6
Continuous
 62
     7
370
    15
100
AcDbLine
 10
177.9389774699
 20
151.4992917576
 30
0.0
 11
177.9389774699
 21
161.5381238524
 31
0.0
  0
SPLINE
  5
DE
330
1F
100
AcDbEntity
  8
0
  6
Continuous
 62
     7
370
    15
100
AcDbSpline
210
0.0
220
0.0
230
1.0
 70
     8
 71
     3
 72
     8
 73
     4
 74
     0
 42
0.000000001
 43
0.00000001
 40
0.0
 40
0.0
 40
0.0
 40
0.0
 40
1.0
 40
1.0
 40
1.0
 40
1.0
 10
171.4149194280876
 20
151.4992917575907
 30
0.0
 10
171.8718457818871
 20
150.4833737879164
 30
0.0
 10
172.3230514236901
 20
149.4645779588252
 30
0.0
 10
172.766948449009
 20
148.4437765028416
 30
0.0
  0
LINE
  5
DF
330
1F
100
AcDbEntity
  8
0
  6
Continuous
 62
     7
370
    15
100
AcDbLine
 10
172.766948449
 20
148.4437765028
 30
0.0
 11
172.766948449
 21
147.2625641892
 31
0.0
  0
LINE
  5
E0
330
1F
100
AcDbEntity
  8
0
  6
Continuous
 62
     7
370
    15
100
AcDbLine
 10
173.566948449
 20
146.1768604098
 30
0.0
 11
175.786948449
 21
146.1768604098
 31
0.0
  0
SPLINE
  5
E1
330
1F
100
AcDbEntity
  8
0
  6
Continuous
 62
     7
370
    15
100
AcDbSpline
210
0.0
220
0.0
230
1.0
 70
     8
 71
     3
 72
    12
 73
     8
 74
     0
 42
0.000000001
 43
0.00000001
 40
0.0
 40
0.0
 40
0.0
 40
0.0
 40
0.2500000000000039
 40
0.2500000000000039
 40
0.5000000000000078
 40
0.5000000000000078
 40
1.0
 40
1.0
 40
1.0
 40
1.0
 10
175.7869484490089
 20
146.1768604097762
 30
0.0
 10
175.9106493989889
 20
146.1768604097762
 30
0.0
 10
176.0347460112592
 20
146.2188540215087
 30
0.0
 10
176.2414011743462
 20
146.3566493481531
 30
0.0
 10
176.326441941073
 20
146.450622946618
 30
0.0
 10
176.5259205095466
 20
146.7654111528389
 30
0.0
 10
176.586948449009
 20
147.0156501450665
 30
0.0
 10
176.586948449009
 20
147.2625641892008
 30
0.0
  0
LINE
  5
E2
330
1F
100
AcDbEntity
  8
0
  6
Continuous
 62
     7
370
    15
100
AcDbLine
 10
176.586948449
 20
147.2625641892
 30
0.0
 11
176.586948449
 21
148.4437765028
 31
0.0
  0
SPLINE
  5
E3
330
1F
100
AcDbEntity
  8
0
  6
Continuous
 62
     7
370
    15
100
AcDbSpline
210
0.0
220
0.0
230
1.0
 70
     8
 71
     3
 72
     8
 73
     4
 74
     0
 42
0.000000001
 43
0.00000001
 40
0.0
 40
0.0
 40
0.0
 40
0.0
 40
1.0
 40
1.0
 40
1.0
 40
1.0
 10
176.586948449009
 20
148.4437765028416
 30
0.0
 10
177.0310984600345
 20
149.4651597337932
 30
0.0
 10
177.4821727702924
 20
150.4836442705615
 30
0.0
 10
177.9389774699303
 20
151.4992917575906
 30
0.0
  0
SPLINE
  5
E4
330
1F
100
AcDbEntity
  8
0
  6
Continuous
 62
     7
370
    15
100
AcDbSpline
210
0.0
220
0.0
230
1.0
 70
     8
 71
     3
 72
    16
 73
    12
 74
     0
 42
0.000000001
 43
0.00000001
 40
0.0
 40
0.0
 40
0.0
 40
0.0
 40
0.1249999999999996
 40
0.1249999999999996
 40
0.2499999999999992
 40
0.2499999999999992
 40
0.4999999999999994
 40
0.4999999999999994
 40
0.7499999999999997
 40
0.7499999999999997
 40
1.0
 40
1.0
 40
1.0
 40
1.0
 10
182.6269484490089
 20
151.4992917575907
 30
0.0
 10
182.7025861554201
 20
151.4992917575907
 30
0.0
 10
182.7789018198384
 20
151.4879467574557
 30
0.0
 10
182.9233125577303
 20
151.4452942068172
 30
0.0
 10
182.9917590068387
 20
151.4143598821344
 30
0.0
 10
183.1866902594519
 20
151.2951035103667
 30
0.0
 10
183.2945314332328
 20
151.1849514967462
 30
0.0
 10
183.4632441814448
 20
150.9368154110881
 30
0.0
 10
183.5256085941683
 20
150.7964730870844
 30
0.0
 10
183.6069125186768
 20
150.5082013955958
 30
0.0
 10
183.626948449009
 20
150.357396422616
 30
0.0
 10
183.626948449009
 20
150.2070265312707
 30
0.0
  0
LINE
  5
E5
330
1F
100
AcDbEntity
  8
0
  6
Continuous
 62
     7
370
    15
100
AcDbLine
 10
183.626948449
 20
150.2070265313
 30
0.0
 11
183.626948449
 21
143.8983289967
 31
0.0
  0
SPLINE
  5
E6
330
1F
100
AcDbEntity
  8
0
  6
Continuous
 62
     7
370
    15
100
AcDbSpline
210
0.0
220
0.0
230
1.0
 70
     8
 71
     3
 72
    14
 73
    10
 74
     0
 42
0.000000001
 43
0.00000001
 40
0.0
 40
0.0
 40
0.0
 40
0.0
 40
0.25
 40
0.25
 40
0.5
 40
0.5
 40
0.75
 40
0.75
 40
1.0
 40
1.0
 40
1.0
 40
1.0
 10
176.586948449009
 20
158.2418802375517
 30
0.0
 10
176.586948449009
 20
158.1355235437994
 30
0.0
 10
176.5665608928677
 20
158.0296830560393
 30
0.0
 10
176.4879265474062
 20
157.8331181425028
 30
0.0
 10
176.4291951877676
 20
157.7419474002157
 30
0.0
 10
176.282586282165
 20
157.5900363111841
 30
0.0
 10
176.1931809621385
 20
157.5279674743645
 30
0.0
 10
175.9992902295381
 20
157.4446994266058
 30
0.0
 10
175.8927852396483
 20
157.4226047568761
 30
0.0
 10
175.786948449009
 20
157.4226047568761
 30
0.0
  0
SPLINE
  5
E7
330
1F
100
AcDbEntity
  8
0
  6
Continuous
 62
     7
370
    15
100
AcDbSpline
210
0.0
220
0.0
230
1.0
 70
     8
 71
     3
 72
    12
 73
     8
 74
     0
 42
0.000000001
 43
0.00000001
 40
0.0
 40
0.0
 40
0.0
 40
0.0
 40
0.4999999999999953
 40
0.4999999999999953
 40
0.7499999999999977
 40
0.7499999999999977
 40
1.0
 40
1.0
 40
1.0
 40
1.0
 10
183.626948449009
 20
160.5170688175496
 30
0.0
 10
183.6269484490089
 20
160.7823382503159
 30
0.0
 10
183.5223417055225
 20
161.0448533559683
 30
0.0
 10
183.2456733537772
 20
161.3303909620056
 30
0.0
 10
183.1353080944252
 20
161.4067125788671
 30
0.0
 10
182.8912360458095
 20
161.5110547437072
 30
0.0
 10
182.7594835844777
 20
161.5381238523673
 30
0.0
 10
182.6269484490089
 20
161.5381238523673
 30
0.0
  0
LINE
  5
E8
330
1F
100
AcDbEntity
  8
0
  6
Continuous
 62
     7
370
    15
100
AcDbLine
 10
183.626948449
 20
150.2070265313
 30
0.0
 11
183.626948449
 21
160.5170688175
 31
0.0
  0
SPLINE
  5
E9
330
1F
100
AcDbEntity
  8
0
  6
Continuous
 62
     7
370
    15
100
AcDbSpline
210
0.0
220
0.0
230
1.0
 70
     8
 71
     3
 72
     8
 73
     4
 74
     0
 42
0.000000001
 43
0.00000001
 40
0.0
 40
0.0
 40
0.0
 40
0.0
 40
1.0
 40
1.0
 40
1.0
 40
1.0
 10
172.766948449009
 20
159.1455998574086
 30
0.0
 10
172.3166402133244
 20
159.9433149825222
 30
0.0
 10
171.8659463968008
 20
160.7408132821794
 30
0.0
 10
171.4149194280876
 20
161.5381238523673
 30
0.0
  0
LINE
  5
EA
330
1F
100
AcDbEntity
  8
0
  6
Continuous
 62
     7
370
    15
100
AcDbLine
 10
172.766948449
 20
148.4437765028
 30
0.0
 11
172.766948449
 21
159.1455998574
 31
0.0
  0
SPLINE
  5
EB
330
1F
100
AcDbEntity
  8
0
  6
Continuous
 62
     7
370
    15
100
AcDbSpline
210
0.0
220
0.0
230
1.0
 70
     8
 71
     3
 72
     8
 73
     4
 74
     0
 42
0.000000001
 43
0.00000001
 40
0.0
 40
0.0
 40
0.0
 40
0.0
 40
1.0
 40
1.0
 40
1.0
 40
1.0
 10
177.9389774699303
 20
161.5381238523673
 30
0.0
 10
177.4879505012171
 20
160.7408132821794
 30
0.0
 10
177.0372566846935
 20
159.9433149825222
 30
0.0
 10
176.586948449009
 20
159.1455998574086
 30
0.0
  0
LINE
  5
EC
330
1F
100
AcDbEntity
  8
0
  6
Continuous
 62
     7
370
    15
100
AcDbLine
 10
176.586948449
 20
148.4437765028
 30
0.0
 11
176.586948449
 21
159.1455998574
 31
0.0
  0
LINE
  5
ED
330
1F
100
AcDbEntity
  8
0
  6
Continuous
 62
     7
370
    15
100
AcDbLine
 10
175.786948449
 20
157.4226047569
 30
0.0
 11
173.566948449
 21
157.4226047569
 31
0.0
  0
LINE
  5
EE
330
1F
100
AcDbEntity
  8
0
  6
Continuous
 62
     7
370
    15
100
AcDbLine
 10
106.426948449
 20
80.2983289967
 30
0.0
 11
106.426948449
 21
80.3000437949
 31
0.0
  0
LINE
  5
EF
330
1F
100
AcDbEntity
  8
0
  6
Continuous
 62
     7
370
    15
100
AcDbLine
 10
106.426948449
 20
144.7983289967
 30
0.0
 11
106.426948449
 21
144.7966141985
 31
0.0
  0
SPLINE
  5
F0
330
1F
100
AcDbEntity
  8
0
  6
Continuous
 62
     7
370
    15
100
AcDbSpline
210
0.0
220
0.0
230
1.0
 70
    11
 71
     3
 72
    70
 73
    66
 74
     0
 42
0.000000001
 43
0.00000001
 40
0.0
 40
0.0
 40
0.0
 40
0.0
 40
0.03125
 40
0.03125
 40
0.0625
 40
0.0625
 40
0.09375
 40
0.09375
 40
0.125
 40
0.125
 40
0.15625
 40
0.15625
 40
0.1875
 40
0.1875
 40
0.21875
 40
0.21875
 40
0.25
 40
0.25
 40
0.28125
 40
0.28125
 40
0.3125
 40
0.3125
 40
0.34375
 40
0.34375
 40
0.375
 40
0.375
 40
0.40625
 40
0.40625
 40
0.4375
 40
0.4375
 40
0.46875
 40
0.46875
 40
0.5
 40
0.5
 40
0.53125
 40
0.53125
 40
0.5625
 40
0.5625
 40
0.59375
 40
0.59375
 40
0.625
 40
0.625
 40
0.65625
 40
0.65625
 40
0.6875
 40
0.6875
 40
0.71875
 40
0.71875
 40
0.75
 40
0.75
 40
0.78125
 40
0.78125
 40
0.8125
 40
0.8125
 40
0.84375
 40
0.84375
 40
0.875
 40
0.875
 40
0.90625
 40
0.90625
 40
0.9375
 40
0.9375
 40
0.96875
 40
0.96875
 40
1.0
 40
1.0
 40
1.0
 40
1.0
 10
199.8455848092358
 20
113.5645663179035
 30
0.0
 10
199.9249407925803
 20
113.7518382324336
 30
0.0
 10
200.0232854728186
 20
113.9259058317187
 30
0.0
 10
200.2533875102946
 20
114.2510916804995
 30
0.0
 10
200.3868112648943
 20
114.4035475312889
 30
0.0
 10
200.678221525352
 20
114.6778082105029
 30
0.0
 10
200.835615488308
 20
114.799768048059
 30
0.0
 10
201.1726055866854
 20
115.015437481851
 30
0.0
 10
201.351968393684
 20
115.1085245666137
 30
0.0
 10
201.7201857969936
 20
115.2611161712144
 30
0.0
 10
201.9105239885227
 20
115.3216269539757
 30
0.0
 10
202.3039774240868
 20
115.410836301563
 30
0.0
 10
202.5040212903729
 20
115.438634014534
 30
0.0
 10
202.9038614419727
 20
115.4606750578145
 30
0.0
 10
203.104723724289
 20
115.4551706413065
 30
0.0
 10
203.508430346041
 20
115.4093046070214
 30
0.0
 10
203.7071167217365
 20
115.3692459354398
 30
0.0
 10
204.0925692794993
 20
115.2563268610252
 30
0.0
 10
204.2802671799878
 20
115.1833871865125
 30
0.0
 10
204.6447422436375
 20
115.0017809007036
 30
0.0
 10
204.8167623940436
 20
114.8953297645492
 30
0.0
 10
205.1365750506651
 20
114.6531834692193
 30
0.0
 10
205.2854901016143
 20
114.51669426685
 30
0.0
 10
205.5558575921447
 20
114.2123236325259
 30
0.0
 10
205.6732337880935
 20
114.0492030825403
 30
0.0
 10
205.8718724706271
 20
113.7006309153817
 30
0.0
 10
205.9538924907345
 20
113.5124045088544
 30
0.0
 10
206.0722299278933
 20
113.1252717470676
 30
0.0
 10
206.1089514375113
 20
112.9275883869711
 30
0.0
 10
206.1364092738644
 20
112.5237664730505
 30
0.0
 10
206.1262868226474
 20
112.3179877800151
 30
0.0
 10
206.0602308920445
 20
111.9202083486308
 30
0.0
 10
206.0036955803806
 20
111.7232218329477
 30
0.0
 10
205.8487507857724
 20
111.3481665046908
 30
0.0
 10
205.7515722283851
 20
111.1714986070932
 30
0.0
 10
205.5199246954756
 20
110.8385874423214
 30
0.0
 10
205.3860563662793
 20
110.6840217392336
 30
0.0
 10
205.0934012282464
 20
110.406648401805
 30
0.0
 10
204.9319332053914
 20
110.281265197134
 30
0.0
 10
204.5894273453031
 20
110.0635750851984
 30
0.0
 10
204.4098610852215
 20
109.9717453758232
 30
0.0
 10
204.0350044693723
 20
109.8201850911578
 30
0.0
 10
203.8383364745667
 20
109.7604558397981
 30
0.0
 10
203.443358226908
 20
109.676820630462
 30
0.0
 10
203.2435941093556
 20
109.6521081437075
 30
0.0
 10
202.8396052139524
 20
109.6364047196677
 30
0.0
 10
202.63566969486
 20
109.6458264759248
 30
0.0
 10
202.2381992889261
 20
109.6976170489764
 30
0.0
 10
202.0427400454721
 20
109.7398275570591
 30
0.0
 10
201.6584158814065
 20
109.8577203374255
 30
0.0
 10
201.4708962159515
 20
109.9333536227048
 30
0.0
 10
201.1165173764649
 20
110.1134808170942
 30
0.0
 10
200.9479115168864
 20
110.2184344727216
 30
0.0
 10
200.6289494202082
 20
110.4606783098774
 30
0.0
 10
200.4802733538696
 20
110.5972449209429
 30
0.0
 10
200.2157107061061
 20
110.8931390287699
 30
0.0
 10
200.0981339183737
 20
111.0536143827473
 30
0.0
 10
199.8960871123871
 20
111.4032011784103
 30
0.0
 10
199.8141162057082
 20
111.5890241139863
 30
0.0
 10
199.6950542066421
 20
111.9713642843036
 30
0.0
 10
199.6567533151066
 20
112.1719935893839
 30
0.0
 10
199.6291641423638
 20
112.5783439720654
 30
0.0
 10
199.6395892896095
 20
112.7798231437541
 30
0.0
 10
199.7077917986961
 20
113.179469503021
 30
0.0
 10
199.7662288258913
 20
113.3772944033734
 30
0.0
 10
199.8455848092358
 20
113.5645663179035
 30
0.0
  0
LINE
  5
F1
330
1F
100
AcDbEntity
  8
0
  6
Continuous
 62
     7
370
    15
100
AcDbLine
 10
209.476948449
 20
112.5483289967
 30
0.0
 11
209.476948449
 21
100.0332909212
 31
0.0
  0
LINE
  5
F2
330
1F
100
AcDbEntity
  8
0
  6
Continuous
 62
     7
370
    15
100
AcDbLine
 10
209.476948449
 20
125.0633670722
 30
0.0
 11
209.476948449
 21
112.5483289967
 31
0.0
  0
LINE
  5
F3
330
1F
100
AcDbEntity
  8
0
  6
Continuous
 62
     7
370
    15
100
AcDbLine
 10
209.676948449
 20
112.5483289967
 30
0.0
 11
209.676948449
 21
100.2332909212
 31
0.0
  0
LINE
  5
F4
330
1F
100
AcDbEntity
  8
0
  6
Continuous
 62
     7
370
    15
100
AcDbLine
 10
209.676948449
 20
124.8633670722
 30
0.0
 11
209.676948449
 21
112.5483289967
 31
0.0
  0
CIRCLE
  5
F5
330
1F
100
AcDbEntity
  8
0
  6
HIDDEN
 62
     7
370
     0
100
AcDbCircle
 10
203.126948449
 20
112.5483289967
 30
0.0
 40
2.500000000000011
  0
CIRCLE
  5
F6
330
1F
100
AcDbEntity
  8
0
  6
HIDDEN
 62
     7
370
     0
100
AcDbCircle
 10
203.126948449
 20
112.5483289967
 30
0.0
 40
1.776794919243121
  0
CIRCLE
  5
F7
330
1F
100
AcDbEntity
  8
0
  6
HIDDEN
 62
     7
370
     0
100
AcDbCircle
 10
203.126948449
 20
112.5483289967
 30
0.0
 40
1.676794919243116
  0
LINE
  5
F8
330
1F
100
AcDbEntity
  8
0
  6
HIDDEN
 62
     7
370
     0
100
AcDbLine
 10
171.4149194281
 20
151.4992917576
 30
0.0
 11
171.4149194281
 21
143.8983289967
 31
0.0
  0
LINE
  5
F9
330
1F
100
AcDbEntity
  8
0
  6
HIDDEN
 62
     7
370
     0
100
AcDbLine
 10
135.0903731984
 20
75.8125226344
 30
0.0
 11
134.8147583762
 21
75.788096637
 31
0.0
  0
SPLINE
  5
FA
330
1F
100
AcDbEntity
  8
0
  6
HIDDEN
 62
     7
370
     0
100
AcDbSpline
210
0.0
220
0.0
230
1.0
 70
     8
 71
     3
 72
    13
 73
     9
 74
     0
 42
0.000000001
 43
0.00000001
 40
0.0
 40
0.0
 40
0.0
 40
0.0
 40
0.1247123583496572
 40
0.2490591701008075
 40
0.3740782882418872
 40
0.5009715943216706
 40
0.7521524312994651
 40
1.0
 40
1.0
 40
1.0
 40
1.0
 10
133.1962534667946
 20
149.4796350909541
 30
0.0
 10
133.2020400772446
 20
149.4788588461516
 30
0.0
 10
133.2135963369083
 20
149.4773086318116
 30
0.0
 10
133.3106064536632
 20
149.465092325062
 30
0.0
 10
133.4659019895473
 20
149.4461656136842
 30
0.0
 10
133.7560702682342
 20
149.4121935352678
 30
0.0
 10
134.243626186
 20
149.3556722118506
 30
0.0
 10
134.8093229131215
 20
149.3078638190367
 30
0.0
 10
135.0902819864799
 20
149.2841192910948
 30
0.0
  0
SPLINE
  5
FB
330
1F
100
AcDbEntity
  8
0
  6
HIDDEN
 62
     7
370
     0
100
AcDbSpline
210
0.0
220
0.0
230
1.0
 70
     8
 71
     3
 72
    33
 73
    29
 74
     0
 42
0.000000001
 43
0.00000001
 40
0.0
 40
0.0
 40
0.0
 40
0.0
 40
0.0315770993915114
 40
0.0633747858953127
 40
0.0958648639194665
 40
0.128593219255507
 40
0.1601699973587661
 40
0.1919659594790286
 40
0.2244567549077018
 40
0.2571897632651755
 40
0.2886515996331286
 40
0.3203372936083431
 40
0.3527348662350357
 40
0.3853807755268743
 40
0.4474506225879152
 40
0.51133739983118
 40
0.5731823281630536
 40
0.6367713984082682
 40
0.6995212949833266
 40
0.7640517070563544
 40
0.79566273704946
 40
0.8274954619175441
 40
0.8600327816425987
 40
0.892816237813544
 40
0.9241197144208999
 40
0.9556458069204179
 40
0.9878779453176745
 40
1.0
 40
1.0
 40
1.0
 40
1.0
 10
144.9301541042
 20
81.18200677595667
 30
0.0
 10
144.8462827912986
 20
81.19588052535798
 30
0.0
 10
144.6779542684037
 20
81.2237249415589
 30
0.0
 10
144.3786022008352
 20
81.2701574138164
 30
0.0
 10
144.0445928837373
 20
81.31877067010937
 30
0.0
 10
143.6788597151658
 20
81.3679161593135
 30
0.0
 10
143.2874119391729
 20
81.41582496730392
 30
0.0
 10
142.871404810324
 20
81.46145864791276
 30
0.0
 10
142.4270936544977
 20
81.50410749759983
 30
0.0
 10
141.9638950141808
 20
81.54176938733998
 30
0.0
 10
141.4879396304011
 20
81.57327332808045
 30
0.0
 10
141.0006131080357
 20
81.59804172447454
 30
0.0
 10
140.4973331971666
 20
81.61556195319832
 30
0.0
 10
139.8279545570037
 20
81.62781101035822
 30
0.0
 10
138.9860083563055
 20
81.62269029680103
 30
0.0
 10
138.008870559721
 20
81.58503477073224
 30
0.0
 10
137.0716895029277
 20
81.51980238079106
 30
0.0
 10
136.2123348098253
 20
81.43510510949834
 30
0.0
 10
135.4382125317903
 20
81.33858348525635
 30
0.0
 10
134.8921105617241
 20
81.25806394357812
 30
0.0
 10
134.5220568787435
 20
81.19866487101977
 30
0.0
 10
134.2805173217139
 20
81.1579600595641
 30
0.0
 10
134.0748587099245
 20
81.121871324861
 30
0.0
 10
133.9113423308233
 20
81.09223604931039
 30
0.0
 10
133.7897206624014
 20
81.06966227834225
 30
0.0
 10
133.7123727335876
 20
81.05507525342031
 30
0.0
 10
133.6758170072436
 20
81.04811371445936
 30
0.0
 10
133.6807662020265
 20
81.0490558277422
 30
0.0
 10
133.6821188229543
 20
81.04931330844332
 30
0.0
  0
SPLINE
  5
FC
330
1F
100
AcDbEntity
  8
0
  6
HIDDEN
 62
     7
370
     0
100
AcDbSpline
210
0.0
220
0.0
230
1.0
 70
     8
 71
     3
 72
    26
 73
    22
 74
     0
 42
0.000000001
 43
0.00000001
 40
0.0
 40
0.0
 40
0.0
 40
0.0
 40
0.0203628561577175
 40
0.0822701507994353
 40
0.1459657000350313
 40
0.2080588093083893
 40
0.2718982249720002
 40
0.3349632233681558
 40
0.3998367064009634
 40
0.4314303791524612
 40
0.4632474371989096
 40
0.4957753880294206
 40
0.5285518605578194
 40
0.5910172567855515
 40
0.6553368707596259
 40
0.7171248941908994
 40
0.7806747415095492
 40
0.8430459704906546
 40
0.9071718947481419
 40
0.9532406528817843
 40
1.0
 40
1.0
 40
1.0
 40
1.0
 10
133.6821188229543
 20
144.0473446849641
 30
0.0
 10
133.6819535419203
 20
144.0473764766716
 30
0.0
 10
133.6812857723554
 20
144.0475049217459
 30
0.0
 10
133.7962058392084
 20
144.0256090119497
 30
0.0
 10
134.0882335682699
 20
143.9718827370591
 30
0.0
 10
134.5413760394608
 20
143.8937688480387
 30
0.0
 10
135.1324498171817
 20
143.8014990151602
 30
0.0
 10
135.8593559297706
 20
143.7031434103959
 30
0.0
 10
136.5548277317122
 20
143.6263604923306
 30
0.0
 10
137.1562509622143
 20
143.5730827693662
 30
0.0
 10
137.6242266095515
 20
143.5384487463347
 30
0.0
 10
138.1132523816331
 20
143.5097931586424
 30
0.0
 10
138.7720391277695
 20
143.481790216849
 30
0.0
 10
139.6153024017196
 20
143.4661680364924
 30
0.0
 10
140.6136323512481
 20
143.4805078075294
 30
0.0
 10
141.5902728446171
 20
143.525959939797
 30
0.0
 10
142.5034616722773
 20
143.5963853101457
 30
0.0
 10
143.3488705972902
 20
143.6855195187986
 30
0.0
 10
144.0218674781274
 20
143.7735771664945
 30
0.0
 10
144.5519620799189
 20
143.8524409999018
 30
0.0
 10
144.8034664124308
 20
143.8938118862123
 30
0.0
 10
144.9301541042
 20
143.9146512174508
 30
0.0
  0
SPLINE
  5
FD
330
1F
100
AcDbEntity
  8
0
  6
HIDDEN
 62
     7
370
     0
100
AcDbSpline
210
0.0
220
0.0
230
1.0
 70
     8
 71
     3
 72
    11
 73
     7
 74
     0
 42
0.000000001
 43
0.00000001
 40
0.0
 40
0.0
 40
0.0
 40
0.0
 40
0.3257543790598221
 40
0.6609931896520465
 40
0.9867978820916951
 40
1.0
 40
1.0
 40
1.0
 40
1.0
 10
144.9301541042
 20
143.9146512174508
 30
0.0
 10
145.0760366338676
 20
143.9379168950595
 30
0.0
 10
145.3720491046064
 20
143.9851256371072
 30
0.0
 10
145.6011833640017
 20
144.0152173218729
 30
0.0
 10
145.7024676003017
 20
144.0283952508124
 30
0.0
 10
145.6747831354225
 20
144.0247869035357
 30
0.0
 10
145.6737050049591
 20
144.0246463817977
 30
0.0
  0
SPLINE
  5
FE
330
1F
100
AcDbEntity
  8
0
  6
HIDDEN
 62
     7
370
     0
100
AcDbSpline
210
0.0
220
0.0
230
1.0
 70
     8
 71
     3
 72
    10
 73
     6
 74
     0
 42
0.000000001
 43
0.00000001
 40
0.0
 40
0.0
 40
0.0
 40
0.0
 40
0.32215299903961
 40
0.6559810999428171
 40
1.0
 40
1.0
 40
1.0
 40
1.0
 10
145.6736940167366
 20
81.07201304385912
 30
0.0
 10
145.6591464900045
 20
81.0739091594099
 30
0.0
 10
145.6295242216547
 20
81.07777010737041
 30
0.0
 10
145.3800413206322
 20
81.11028979458096
 30
0.0
 10
145.0816120452005
 20
81.1578627106505
 30
0.0
 10
144.9301541042
 20
81.18200677595665
 30
0.0
  0
LINE
  5
FF
330
1F
100
AcDbEntity
  8
0
  6
HIDDEN
 62
     7
370
     0
100
AcDbLine
 10
124.673572776
 20
86.0483289967
 30
0.0
 11
124.673572776
 21
139.0483289967
 31
0.0
  0
LINE
  5
100
330
1F
100
AcDbEntity
  8
0
  6
HIDDEN
 62
     7
370
     0
100
AcDbLine
 10
163.9610260674
 20
86.0483289967
 30
0.0
 11
163.9610260674
 21
139.0483289967
 31
0.0
  0
LINE
  5
101
330
1F
100
AcDbEntity
  8
0
  6
HIDDEN
 62
     7
370
     0
100
AcDbLine
 10
167.126948449
 20
87.6733289967
 30
0.0
 11
167.126948449
 21
137.4233289967
 31
0.0
  0
SPLINE
  5
102
330
1F
100
AcDbEntity
  8
0
  6
HIDDEN
 62
     7
370
     0
100
AcDbSpline
210
0.0
220
0.0
230
1.0
 70
     8
 71
     3
 72
    20
 73
    16
 74
     0
 42
0.000000001
 43
0.00000001
 40
0.0
 40
0.0
 40
0.0
 40
0.0
 40
0.2499999999999978
 40
0.2499999999999978
 40
0.3749999999999982
 40
0.3749999999999982
 40
0.4999999999999986
 40
0.4999999999999986
 40
0.6249999999999989
 40
0.6249999999999989
 40
0.7499999999999992
 40
0.7499999999999992
 40
0.8749999999999997
 40
0.8749999999999997
 40
1.0
 40
1.0
 40
1.0
 40
1.0
 10
114.876948449009
 20
137.776842627118
 30
0.0
 10
114.876948449009
 20
137.6976396405857
 30
0.0
 10
114.8299659537962
 20
137.6165434221828
 30
0.0
 10
114.6921443630187
 20
137.4963467304319
 30
0.0
 10
114.6358620791087
 20
137.4574200264298
 30
0.0
 10
114.5027772276414
 20
137.3822312940055
 30
0.0
 10
114.4249372854084
 20
137.3455890886634
 30
0.0
 10
114.252304929294
 20
137.2779985558316
 30
0.0
 10
114.1579119322029
 20
137.247040374056
 30
0.0
 10
113.9524746258878
 20
137.1915159526863
 30
0.0
 10
113.8401283859006
 20
137.1668074388531
 30
0.0
 10
113.607887522001
 20
137.1270112117449
 30
0.0
 10
113.4871768795783
 20
137.1115913743478
 30
0.0
 10
113.2361060203093
 20
137.0905113995082
 30
0.0
 10
113.1065840238935
 20
137.0850341544872
 30
0.0
 10
112.976948449009
 20
137.0850341544872
 30
0.0
  0
LINE
  5
103
330
1F
100
AcDbEntity
  8
0
  6
HIDDEN
 62
     7
370
     0
100
AcDbLine
 10
112.976948449
 20
137.0850341545
 30
0.0
 11
106.426948449
 21
137.0850341545
 31
0.0
  0
LINE
  5
104
330
1F
100
AcDbEntity
  8
0
  6
HIDDEN
 62
     7
370
     0
100
AcDbLine
 10
106.426948449
 20
88.0116238389
 30
0.0
 11
117.976948449
 21
88.0116238389
 31
0.0
  0
SPLINE
  5
105
330
1F
100
AcDbEntity
  8
0
  6
HIDDEN
 62
     7
370
     0
100
AcDbSpline
210
0.0
220
0.0
230
1.0
 70
     8
 71
     3
 72
    18
 73
    14
 74
     0
 42
0.000000001
 43
0.00000001
 40
0.0
 40
0.0
 40
0.0
 40
0.0
 40
0.1249999999999982
 40
0.1249999999999982
 40
0.2499999999999964
 40
0.2499999999999964
 40
0.4999999999999988
 40
0.4999999999999988
 40
0.7500000000000011
 40
0.7500000000000011
 40
0.8750000000000006
 40
0.8750000000000006
 40
1.0
 40
1.0
 40
1.0
 40
1.0
 10
117.976948449009
 20
88.01162383892022
 30
0.0
 10
118.1064157619662
 20
88.01162383892022
 30
0.0
 10
118.2334265108628
 20
88.00627084032757
 30
0.0
 10
118.4827898320601
 20
87.98553286763878
 30
0.0
 10
118.6064134866885
 20
87.96986096338449
 30
0.0
 10
118.9554458236226
 20
87.91016623498241
 30
0.0
 10
119.1659575884293
 20
87.85240105530143
 30
0.0
 10
119.5098742661289
 20
87.71787921402392
 30
0.0
 10
119.6462246676466
 20
87.64021010051852
 30
0.0
 10
119.7832627242092
 20
87.52091896643118
 30
0.0
 10
119.8184817429221
 20
87.47999995729613
 30
0.0
 10
119.8651053198607
 20
87.3993439640061
 30
0.0
 10
119.876948449009
 20
87.35937544381325
 30
0.0
 10
119.876948449009
 20
87.31981536628942
 30
0.0
  0
LINE
  5
106
330
1F
100
AcDbEntity
  8
0
  6
HIDDEN
 62
     7
370
     0
100
AcDbLine
 10
106.426948449
 20
88.0116238389
 30
0.0
 11
106.426948449
 21
137.0850341545
 31
0.0
  0
LINE
  5
107
330
1F
100
AcDbEntity
  8
0
  6
HIDDEN
 62
     7
370
     0
100
AcDbLine
 10
106.426948449
 20
85.1783289967
 30
0.0
 11
106.426948449
 21
80.3000437949
 31
0.0
  0
LINE
  5
108
330
1F
100
AcDbEntity
  8
0
  6
HIDDEN
 62
     7
370
     0
100
AcDbLine
 10
119.876948449
 20
85.1783289967
 30
0.0
 11
119.876948449
 21
78.6789957313
 31
0.0
  0
LINE
  5
109
330
1F
100
AcDbEntity
  8
0
  6
HIDDEN
 62
     7
370
     0
100
AcDbLine
 10
114.876948449
 20
139.9183289967
 30
0.0
 11
114.876948449
 21
146.2929377337
 31
0.0
  0
LINE
  5
10A
330
1F
100
AcDbEntity
  8
0
  6
HIDDEN
 62
     7
370
     0
100
AcDbLine
 10
106.426948449
 20
139.9183289967
 30
0.0
 11
106.426948449
 21
144.7966141985
 31
0.0
  0
LINE
  5
10B
330
1F
100
AcDbEntity
  8
0
  6
HIDDEN
 62
     7
370
     0
100
AcDbLine
 10
178.976948449
 20
99.5483289967
 30
0.0
 11
178.976948449
 21
125.5483289967
 31
0.0
  0
LINE
  5
10C
330
1F
100
AcDbEntity
  8
0
  6
HIDDEN
 62
     7
370
     0
100
AcDbLine
 10
182.976948449
 20
99.5483289967
 30
0.0
 11
182.976948449
 21
125.5483289967
 31
0.0
  0
LINE
  5
10D
330
1F
100
AcDbEntity
  8
0
  6
HIDDEN
 62
     7
370
     0
100
AcDbLine
 10
167.876948449
 20
101.2983289967
 30
0.0
 11
167.876948449
 21
123.7983289967
 31
0.0
  0
ELLIPSE
  5
10E
330
1F
100
AcDbEntity
  8
0
  6
HIDDEN
 62
     7
370
     0
100
AcDbEllipse
 10
98.4922752487
 20
112.5483289967
 30
0.0
 11
31.0810857081166
 21
1.421085471520200E-14
 31
0.0
210
0.0
220
0.0
230
1.0
 40
0.8164965809
 41
1.312649268214811
 42
1.367189972061495
  0
ELLIPSE
  5
10F
330
1F
100
AcDbEntity
  8
0
  6
HIDDEN
 62
     7
370
     0
100
AcDbEllipse
 10
98.4922752487
 20
112.5483289967
 30
0.0
 11
31.0810857081166
 21
-1.421085471520200E-14
 31
0.0
210
0.0
220
0.0
230
1.0
 40
0.8164965809
 41
4.915995335118103
 42
4.970536038964787
  0
LINE
  5
110
330
1F
100
AcDbEntity
  8
0
  6
HIDDEN
 62
     7
370
     0
100
AcDbLine
 10
183.626948449
 20
68.6483289967
 30
0.0
 11
169.626948449
 21
68.6483289967
 31
0.0
  0
LINE
  5
111
330
1F
100
AcDbEntity
  8
0
  6
HIDDEN
 62
     7
370
     0
100
AcDbLine
 10
159.626948449
 20
62.5583299969
 30
0.0
 11
159.626948449
 21
68.6483289967
 31
0.0
  0
LINE
  5
112
330
1F
100
AcDbEntity
  8
0
  6
HIDDEN
 62
     7
370
     0
100
AcDbLine
 10
169.626948449
 20
68.6483289967
 30
0.0
 11
159.626948449
 21
68.6483289967
 31
0.0
  0
LINE
  5
113
330
1F
100
AcDbEntity
  8
0
  6
HIDDEN
 62
     7
370
     0
100
AcDbLine
 10
119.876948449
 20
85.1783289967
 30
0.0
 11
119.876948449
 21
87.3198153663
 31
0.0
  0
LINE
  5
114
330
1F
100
AcDbEntity
  8
0
  6
HIDDEN
 62
     7
370
     0
100
AcDbLine
 10
106.426948449
 20
85.1783289967
 30
0.0
 11
106.426948449
 21
88.0116238389
 31
0.0
  0
LINE
  5
115
330
1F
100
AcDbEntity
  8
0
  6
HIDDEN
 62
     7
370
     0
100
AcDbLine
 10
114.876948449
 20
139.9183289967
 30
0.0
 11
114.876948449
 21
137.7768426271
 31
0.0
  0
LINE
  5
116
330
1F
100
AcDbEntity
  8
0
  6
HIDDEN
 62
     7
370
     0
100
AcDbLine
 10
106.426948449
 20
139.9183289967
 30
0.0
 11
106.426948449
 21
137.0850341545
 31
0.0
  0
LINE
  5
117
330
1F
100
AcDbEntity
  8
0
  6
HIDDEN
 62
     7
370
     0
100
AcDbLine
 10
169.626948449
 20
156.4483289967
 30
0.0
 11
159.626948449
 21
156.4483289967
 31
0.0
  0
LINE
  5
118
330
1F
100
AcDbEntity
  8
0
  6
HIDDEN
 62
     7
370
     0
100
AcDbLine
 10
183.626948449
 20
156.4483289967
 30
0.0
 11
169.626948449
 21
156.4483289967
 31
0.0
  0
SPLINE
  5
119
330
1F
100
AcDbEntity
  8
0
  6
HIDDEN
 62
     7
370
     0
100
AcDbSpline
210
0.0
220
0.0
230
1.0
 70
     8
 71
     3
 72
    16
 73
    12
 74
     0
 42
0.000000001
 43
0.00000001
 40
0.0
 40
0.0
 40
0.0
 40
0.0
 40
0.249999999999996
 40
0.249999999999996
 40
0.499999999999992
 40
0.499999999999992
 40
0.62499999999999
 40
0.62499999999999
 40
0.749999999999988
 40
0.749999999999988
 40
1.0
 40
1.0
 40
1.0
 40
1.0
 10
209.676948449009
 20
119.3891661120713
 30
0.0
 10
209.6769484490089
 20
119.3206951898872
 30
0.0
 10
209.6724032388335
 20
119.2507669482343
 30
0.0
 10
209.6467332737093
 20
119.105597718146
 30
0.0
 10
209.6250063938263
 20
119.0272469960742
 30
0.0
 10
209.5660469633648
 20
118.9250754472143
 30
0.0
 10
209.5413968363803
 20
118.8938871179474
 30
0.0
 10
209.4870798435833
 20
118.8476792008515
 30
0.0
 10
209.4583099118685
 20
118.8329421843794
 30
0.0
 10
209.3756075418595
 20
118.8077445356696
 30
0.0
 10
209.3243180652542
 20
118.8133213732484
 30
0.0
 10
209.2769484490014
 20
118.8258747264984
 30
0.0
  0
SPLINE
  5
11A
330
1F
100
AcDbEntity
  8
0
  6
HIDDEN
 62
     7
370
     0
100
AcDbSpline
210
0.0
220
0.0
230
1.0
 70
     8
 71
     3
 72
     8
 73
     4
 74
     0
 42
0.000000001
 43
0.00000001
 40
0.0
 40
0.0
 40
0.0
 40
0.0
 40
1.0
 40
1.0
 40
1.0
 40
1.0
 10
209.2769484490038
 20
118.8258747265077
 30
0.0
 10
209.2180531243757
 20
118.7929228698354
 30
0.0
 10
209.1484434950962
 20
118.771256913879
 30
0.0
 10
209.0769484490091
 20
118.771256913879
 30
0.0
  0
SPLINE
  5
11B
330
1F
100
AcDbEntity
  8
0
  6
HIDDEN
 62
     7
370
     0
100
AcDbSpline
210
0.0
220
0.0
230
1.0
 70
     8
 71
     3
 72
     8
 73
     4
 74
     0
 42
0.000000001
 43
0.00000001
 40
0.0
 40
0.0
 40
0.0
 40
0.0
 40
1.0
 40
1.0
 40
1.0
 40
1.0
 10
209.2769484490187
 20
106.2707832668914
 30
0.0
 10
209.2180531243873
 20
106.3037351235682
 30
0.0
 10
209.1484434951022
 20
106.3254010795284
 30
0.0
 10
209.0769484490091
 20
106.3254010795284
 30
0.0
  0
SPLINE
  5
11C
330
1F
100
AcDbEntity
  8
0
  6
HIDDEN
 62
     7
370
     0
100
AcDbSpline
210
0.0
220
0.0
230
1.0
 70
     8
 71
     3
 72
    16
 73
    12
 74
     0
 42
0.000000001
 43
0.00000001
 40
0.0
 40
0.0
 40
0.0
 40
0.0
 40
0.2499999999999885
 40
0.2499999999999885
 40
0.3749999999999904
 40
0.3749999999999904
 40
0.4999999999999923
 40
0.4999999999999923
 40
0.7499999999999961
 40
0.7499999999999961
 40
1.0
 40
1.0
 40
1.0
 40
1.0
 10
209.2769484490187
 20
106.2707832668912
 30
0.0
 10
209.3243304137846
 20
106.2833399575744
 30
0.0
 10
209.3755116323135
 20
106.2889647153396
 30
0.0
 10
209.458466694229
 20
106.2636640646885
 30
0.0
 10
209.4871490553903
 20
106.2489195079512
 30
0.0
 10
209.5412568602952
 20
106.2029079405798
 30
0.0
 10
209.5656526144138
 20
106.1721751250348
 30
0.0
 10
209.6249641771534
 20
106.0696931845307
 30
0.0
 10
209.646491731054
 20
105.992035625719
 30
0.0
 10
209.6723219858021
 20
105.8467495051696
 30
0.0
 10
209.6769484490089
 20
105.776017238356
 30
0.0
 10
209.6769484490089
 20
105.7074963651511
 30
0.0
  0
LINE
  5
11D
330
1F
100
AcDbEntity
  8
0
  6
HIDDEN
 62
     7
370
     0
100
AcDbLine
 10
196.5429738528
 20
112.5483289967
 30
0.0
 11
196.5429738528
 21
105.5483289967
 31
0.0
  0
LINE
  5
11E
330
1F
100
AcDbEntity
  8
0
  6
HIDDEN
 62
     7
370
     0
100
AcDbLine
 10
196.5429738528
 20
119.5483289967
 30
0.0
 11
196.5429738528
 21
112.5483289967
 31
0.0
  0
LINE
  5
11F
330
1F
100
AcDbEntity
  8
0
  6
HIDDEN
 62
     7
370
     0
100
AcDbLine
 10
202.776948449
 20
118.7712569139
 30
0.0
 11
209.076948449
 21
118.7712569139
 31
0.0
  0
LINE
  5
120
330
1F
100
AcDbEntity
  8
0
  6
HIDDEN
 62
     7
370
     0
100
AcDbLine
 10
202.776948449
 20
106.3254010795
 30
0.0
 11
209.076948449
 21
106.3254010795
 31
0.0
  0
SPLINE
  5
121
330
1F
100
AcDbEntity
  8
0
  6
HIDDEN
 62
     7
370
     0
100
AcDbSpline
210
0.0
220
0.0
230
1.0
 70
     8
 71
     3
 72
    32
 73
    28
 74
     0
 42
0.000000001
 43
0.00000001
 40
0.0
 40
0.0
 40
0.0
 40
0.0
 40
0.053094502419118
 40
0.1124756436640691
 40
0.1778732757737921
 40
0.2010595072005219
 40
0.2249250678871968
 40
0.2494715450877374
 40
0.2912376054957312
 40
0.3260801332540165
 40
0.3539954159632174
 40
0.3749808063705691
 40
0.4414388116582323
 40
0.500156712274938
 40
0.554671694685776
 40
0.6144162032636458
 40
0.6794418742441765
 40
0.702337547867841
 40
0.7258286425690043
 40
0.7499163915061505
 40
0.7913811104727222
 40
0.8260482263448363
 40
0.8539139552895791
 40
0.874975445191699
 40
0.9411622514380776
 40
0.9999130562140949
 40
1.0
 40
1.0
 40
1.0
 40
1.0
 10
145.6764090968878
 20
75.44842411916329
 30
0.0
 10
145.660222093213
 20
75.45331869427378
 30
0.0
 10
145.62593146849
 20
75.46368738521036
 30
0.0
 10
145.3246724651466
 20
75.5393742730239
 30
0.0
 10
144.9152623363931
 20
75.6283676429412
 30
0.0
 10
144.5202454616619
 20
75.70879135919195
 30
0.0
 10
144.2425711516488
 20
75.76357561703476
 30
0.0
 10
143.8609135877444
 20
75.83785073621632
 30
0.0
 10
143.3862671779334
 20
75.92315661757357
 30
0.0
 10
142.8481312101128
 20
76.00885219987255
 30
0.0
 10
142.390081090001
 20
76.07613538244506
 30
0.0
 10
141.7345176046985
 20
76.16448579153622
 30
0.0
 10
140.8512095569066
 20
76.26114318373735
 30
0.0
 10
139.7225523243605
 20
76.34791610426535
 30
0.0
 10
138.632775485597
 20
76.38600397063149
 30
0.0
 10
137.5368095931
 20
76.38781601526286
 30
0.0
 10
136.697485466848
 20
76.36369277827973
 30
0.0
 10
136.1181215736698
 20
76.33476957347551
 30
0.0
 10
135.7707136727779
 20
76.3132897235036
 30
0.0
 10
135.3592757018994
 20
76.28148669831675
 30
0.0
 10
134.9417171971639
 20
76.24388640632013
 30
0.0
 10
134.5705282065003
 20
76.20684178644483
 30
0.0
 10
134.3164766961349
 20
76.17814877186443
 30
0.0
 10
134.0154229302302
 20
76.14176674962832
 30
0.0
 10
133.7599378391555
 20
76.10898779845597
 30
0.0
 10
133.6607176715127
 20
76.09264962800616
 30
0.0
 10
133.6769989253579
 20
76.09524332678467
 30
0.0
 10
133.6770229839577
 20
76.09524715946006
 30
0.0
  0
SPLINE
  5
122
330
1F
100
AcDbEntity
  8
0
  6
HIDDEN
 62
     7
370
     0
100
AcDbSpline
210
0.0
220
0.0
230
1.0
 70
     8
 71
     3
 72
    32
 73
    28
 74
     0
 42
0.000000001
 43
0.00000001
 40
0.0
 40
0.0
 40
0.0
 40
0.0
 40
0.0001353497821227
 40
0.0227318153052691
 40
0.0465266483578367
 40
0.0715221639188579
 40
0.0977203428909977
 40
0.1251228895288174
 40
0.1547097971497691
 40
0.1963863631250113
 40
0.250138121172694
 40
0.320549513670901
 40
0.3856310024093256
 40
0.4454211681822056
 40
0.4999714975774485
 40
0.5225357310365001
 40
0.5463103335655284
 40
0.5712995071640766
 40
0.5975068543322004
 40
0.6249354822708819
 40
0.6542088698744408
 40
0.6958851442450791
 40
0.7499499130939689
 40
0.8216057994081278
 40
0.8871539823185651
 40
0.9466463174557703
 40
0.9999999999999999
 40
0.9999999999999999
 40
0.9999999999999999
 40
0.9999999999999999
 10
133.6770633058359
 20
149.0013364470766
 30
0.0
 10
133.6770248598604
 20
149.0013448298936
 30
0.0
 10
133.6705679095682
 20
149.0027527128133
 30
0.0
 10
133.690525900078
 20
148.9988949736388
 30
0.0
 10
133.7353672209022
 20
148.9923063883917
 30
0.0
 10
133.8237053386587
 20
148.9797387813014
 30
0.0
 10
133.9536019949293
 20
148.9625606364407
 30
0.0
 10
134.1336073562716
 20
148.9404293329703
 30
0.0
 10
134.3982520511362
 20
148.908381977825
 30
0.0
 10
134.8117105775181
 20
148.8647024642513
 30
0.0
 10
135.4879787733474
 20
148.8016591181013
 30
0.0
 10
136.4264143377707
 20
148.7403626648346
 30
0.0
 10
137.5359146341448
 20
148.7090718546862
 30
0.0
 10
138.6333663341441
 20
148.7107347330109
 30
0.0
 10
139.4967371537247
 20
148.7407420078848
 30
0.0
 10
140.1306071400606
 20
148.7811327617409
 30
0.0
 10
140.5760148430796
 20
148.8159034608456
 30
0.0
 10
141.0383027436687
 20
148.8584318389826
 30
0.0
 10
141.5136759556181
 20
148.9088023779975
 30
0.0
 10
142.001167247634
 20
148.9669959849327
 30
0.0
 10
142.5577156842876
 20
149.0437626617011
 30
0.0
 10
143.2243118980965
 20
149.1453937859233
 30
0.0
 10
144.0256494345242
 20
149.2875395123869
 30
0.0
 10
144.7781578981633
 20
149.4387816381908
 30
0.0
 10
145.3234439658395
 20
149.5566329560237
 30
0.0
 10
145.6261588893497
 20
149.6328603672996
 30
0.0
 10
145.6604489384957
 20
149.6433124866689
 30
0.0
 10
145.6766612996773
 20
149.6482542566153
 30
0.0
  0
SPLINE
  5
123
330
1F
100
AcDbEntity
  8
0
  6
HIDDEN
 62
     7
370
     0
100
AcDbSpline
210
0.0
220
0.0
230
1.0
 70
     8
 71
     3
 72
    14
 73
    10
 74
     0
 42
0.000000001
 43
0.00000001
 40
0.0
 40
0.0
 40
0.0
 40
0.0
 40
0.25
 40
0.25
 40
0.5
 40
0.5
 40
0.75
 40
0.75
 40
1.0
 40
1.0
 40
1.0
 40
1.0
 10
209.276948449009
 20
121.6233289967037
 30
0.0
 10
209.276948449009
 20
121.7560015606405
 30
0.0
 10
209.2771161180338
 20
121.8762153593976
 30
0.0
 10
209.2747510806058
 20
122.0925082103261
 30
0.0
 10
209.2726841476169
 20
122.1880795773756
 30
0.0
 10
209.2672236565262
 20
122.3437151332756
 30
0.0
 10
209.2635256865905
 20
122.4059832135108
 30
0.0
 10
209.2563210910016
 20
122.4921333714474
 30
0.0
 10
209.2527820054813
 20
122.5167115367817
 30
0.0
 10
209.2501964056141
 20
122.5221811255498
 30
0.0
  0
SPLINE
  5
124
330
1F
100
AcDbEntity
  8
0
  6
HIDDEN
 62
     7
370
     0
100
AcDbSpline
210
0.0
220
0.0
230
1.0
 70
     8
 71
     3
 72
    18
 73
    14
 74
     0
 42
0.000000001
 43
0.00000001
 40
0.0
 40
0.0
 40
0.0
 40
0.0
 40
0.0316705475877396
 40
0.112474525079944
 40
0.1950474036044805
 40
0.2782329606791885
 40
0.3582107868528636
 40
0.5208792890793794
 40
0.603760621501592
 40
0.6838727077728445
 40
0.8468085098428693
 40
0.9298325152908344
 40
1.0
 40
1.0
 40
1.0
 40
1.0
 10
209.2489153282783
 20
122.5216654650674
 30
0.0
 10
209.2486227547663
 20
122.5217534765492
 30
0.0
 10
209.2475837115759
 20
122.5220660398096
 30
0.0
 10
209.246710105034
 20
122.5094795154352
 30
0.0
 10
209.2463860519891
 20
122.4837620721525
 30
0.0
 10
209.2473840390066
 20
122.4445811649762
 30
0.0
 10
209.2500801144836
 20
122.3767090560838
 30
0.0
 10
209.2549694132326
 20
122.2851724295699
 30
0.0
 10
209.260899031528
 20
122.1719867089184
 30
0.0
 10
209.2672117156581
 20
122.0451356041721
 30
0.0
 10
209.2731320085914
 20
121.8986339501115
 30
0.0
 10
209.2764009308169
 20
121.7417050856819
 30
0.0
 10
209.2767764401547
 20
121.6605164543301
 30
0.0
 10
209.276948437605
 20
121.6233289967037
 30
0.0
  0
LWPOLYLINE
  5
125
330
1F
100
AcDbEntity
  8
0
  6
HIDDEN
 62
     7
370
     0
100
AcDbPolyline
 90
        4
 70
   128
 43
0.0
 10
209.2769484376
 20
121.6233289967
 10
209.2769484527
 20
121.142668889
 10
209.276948448
 20
119.2200284582
 10
209.276948449
 20
118.8258747265
  0
LINE
  5
126
330
1F
100
AcDbEntity
  8
0
  6
HIDDEN
 62
     7
370
     0
100
AcDbLine
 10
209.2769484536
 20
103.4733289967
 30
0.0
 11
209.276948449
 21
106.2707832669
 31
0.0
  0
SPLINE
  5
127
330
1F
100
AcDbEntity
  8
0
  6
HIDDEN
 62
     7
370
     0
100
AcDbSpline
210
0.0
220
0.0
230
1.0
 70
     8
 71
     3
 72
    11
 73
     7
 74
     0
 42
0.000000001
 43
0.00000001
 40
0.0
 40
0.0
 40
0.0
 40
0.0
 40
0.2794669386387404
 40
0.6042901607466513
 40
0.9296524454933298
 40
1.0
 40
1.0
 40
1.0
 40
1.0
 10
209.2498223790866
 20
102.5859078175261
 30
0.0
 10
209.2480542413925
 20
102.5976047515112
 30
0.0
 10
209.2442310048528
 20
102.6228969816136
 30
0.0
 10
209.2603212661952
 20
102.9037074181684
 30
0.0
 10
209.2758201097841
 20
103.2269546377452
 30
0.0
 10
209.2767781393179
 20
103.4361408008335
 30
0.0
 10
209.2769484535941
 20
103.4733289967037
 30
0.0
  0
LINE
  5
128
330
1F
100
AcDbEntity
  8
0
  6
HIDDEN
 62
     7
370
     0
100
AcDbLine
 10
202.776948449
 20
103.4733289967
 30
0.0
 11
202.776948449
 21
106.3254010795
 31
0.0
  0
LINE
  5
129
330
1F
100
AcDbEntity
  8
0
  6
HIDDEN
 62
     7
370
     0
100
AcDbLine
 10
202.776948449
 20
121.6233289967
 30
0.0
 11
202.776948449
 21
118.7712569139
 31
0.0
  0
LINE
  5
12A
330
1F
100
AcDbEntity
  8
0
  6
HIDDEN
 62
     7
370
     0
100
AcDbLine
 10
202.776948449
 20
102.5733289967
 30
0.0
 11
202.776948449
 21
103.4733289967
 31
0.0
  0
LINE
  5
12B
330
1F
100
AcDbEntity
  8
0
  6
HIDDEN
 62
     7
370
     0
100
AcDbLine
 10
202.776948449
 20
122.5233289967
 30
0.0
 11
202.776948449
 21
121.6233289967
 31
0.0
  0
LINE
  5
12C
330
1F
100
AcDbEntity
  8
0
  6
HIDDEN
 62
     7
370
     0
100
AcDbLine
 10
177.9389774699
 20
151.4992917576
 30
0.0
 11
177.9389774699
 21
143.8983289967
 31
0.0
  0
LINE
  5
12D
330
1F
100
AcDbEntity
  8
0
  6
HIDDEN
 62
     7
370
     0
100
AcDbLine
 10
172.766948449
 20
147.2625641892
 30
0.0
 11
172.766948449
 21
143.8983289967
 31
0.0
  0
LINE
  5
12E
330
1F
100
AcDbEntity
  8
0
  6
HIDDEN
 62
     7
370
     0
100
AcDbLine
 10
176.586948449
 20
147.2625641892
 30
0.0
 11
176.586948449
 21
143.8983289967
 31
0.0
  0
CIRCLE
  5
12F
330
1F
100
AcDbEntity
  8
0
  6
HIDDEN
 62
     7
370
     0
100
AcDbCircle
 10
161.676948449
 20
112.5483289967
 30
0.0
 40
5.0
  0
ARC
  5
130
330
1F
100
AcDbEntity
  8
0
  6
HIDDEN
 62
     7
370
     0
100
AcDbCircle
 10
193.926948449
 20
119.2983289967
 30
0.0
 40
0.75
100
AcDbArc
 50
0.0
 51
180.0
  0
ARC
  5
131
330
1F
100
AcDbEntity
  8
0
  6
HIDDEN
 62
     7
370
     0
100
AcDbCircle
 10
193.926948449
 20
119.2983289967
 30
0.0
 40
0.75
100
AcDbArc
 50
180.0
 51
0.0
  0
ARC
  5
132
330
1F
100
AcDbEntity
  8
0
  6
HIDDEN
 62
     7
370
     0
100
AcDbCircle
 10
193.926948449
 20
105.7983289967
 30
0.0
 40
0.75
100
AcDbArc
 50
180.0
 51
0.0
  0
ARC
  5
133
330
1F
100
AcDbEntity
  8
0
  6
HIDDEN
 62
     7
370
     0
100
AcDbCircle
 10
193.926948449
 20
105.7983289967
 30
0.0
 40
0.75
100
AcDbArc
 50
0.0
 51
180.0
  0
LINE
  5
134
330
1F
100
AcDbEntity
  8
0
  6
HIDDEN
 62
     7
370
     0
100
AcDbLine
 10
193.176948449
 20
119.2983289967
 30
0.0
 11
193.176948449
 21
105.7983289967
 31
0.0
  0
LINE
  5
135
330
1F
100
AcDbEntity
  8
0
  6
HIDDEN
 62
     7
370
     0
100
AcDbLine
 10
194.676948449
 20
105.7983289967
 30
0.0
 11
194.676948449
 21
119.2983289967
 31
0.0
  0
LINE
  5
136
330
1F
100
AcDbEntity
  8
0
  6
HIDDEN
 62
     7
370
     0
100
AcDbLine
 10
154.676948449
 20
73.1436460401
 30
0.0
 11
154.7665500729
 21
73.781194722
 31
0.0
  0
LINE
  5
137
330
1F
100
AcDbEntity
  8
0
  6
HIDDEN
 62
     7
370
     0
100
AcDbLine
 10
154.7665500729
 20
151.3154632714
 30
0.0
 11
154.676948449
 21
151.9530119533
 31
0.0
  0
ARC
  5
138
330
1F
100
AcDbEntity
  8
0
  6
HIDDEN
 62
     7
370
     0
100
AcDbCircle
 10
153.7800115306
 20
73.9198436723
 30
0.0
 40
0.9962338214386963
100
AcDbArc
 50
352.0
 51
0.0
  0
ARC
  5
139
330
1F
100
AcDbEntity
  8
0
  6
HIDDEN
 62
     7
370
     0
100
AcDbCircle
 10
153.7800115306
 20
73.9198436723
 30
0.0
 40
0.9962338214386983
100
AcDbArc
 50
0.0
 51
25.7988228126
  0
ARC
  5
13A
330
1F
100
AcDbEntity
  8
0
  6
HIDDEN
 62
     7
370
     0
100
AcDbCircle
 10
153.7800115306
 20
151.1768143211
 30
0.0
 40
0.9962338214386963
100
AcDbArc
 50
348.75
 51
8.0
  0
LWPOLYLINE
  5
13B
330
1F
100
AcDbEntity
  8
0
  6
HIDDEN
 62
     7
370
     0
100
AcDbPolyline
 90
        3
 70
   128
 43
0.0
 10
154.7571029985
 20
150.9824587441
 10
154.7004115678
 20
150.7955721429
 10
154.676948449
 20
150.743240808
  0
LINE
  5
13C
330
1F
100
AcDbEntity
  8
0
  6
HIDDEN
 62
     7
370
     0
100
AcDbLine
 10
154.776245352
 20
73.9198436723
 30
0.0
 11
154.776245352
 21
151.1768143211
 31
0.0
  0
LINE
  5
13D
330
1F
100
AcDbEntity
  8
0
  6
HIDDEN
 62
     7
370
     0
100
AcDbLine
 10
128.1376743912
 20
81.0483289967
 30
0.0
 11
133.682118823
 21
81.0483289967
 31
0.0
  0
LINE
  5
13E
330
1F
100
AcDbEntity
  8
0
  6
HIDDEN
 62
     7
370
     0
100
AcDbLine
 10
133.682118823
 20
144.0483289967
 30
0.0
 11
128.1376743912
 21
144.0483289967
 31
0.0
  0
ARC
  5
13F
330
1F
100
AcDbEntity
  8
0
  6
HIDDEN
 62
     7
370
     0
100
AcDbCircle
 10
144.9301541042
 20
93.0483289967
 30
0.0
 40
11.99999999999999
100
AcDbArc
 50
273.5586509798
 51
324.3146652873
  0
ARC
  5
140
330
1F
100
AcDbEntity
  8
0
  6
HIDDEN
 62
     7
370
     0
100
AcDbCircle
 10
144.9301541042
 20
132.0483289967
 30
0.0
 40
12.00000000000003
100
AcDbArc
 50
35.6853347127
 51
86.4409956228
  0
ARC
  5
141
330
1F
100
AcDbEntity
  8
0
  6
HIDDEN
 62
     7
370
     0
100
AcDbCircle
 10
128.1376743912
 20
82.0483289967
 30
0.0
 40
1.0
100
AcDbArc
 50
210.0
 51
270.0
  0
ARC
  5
142
330
1F
100
AcDbEntity
  8
0
  6
HIDDEN
 62
     7
370
     0
100
AcDbCircle
 10
128.1376743912
 20
143.0483289967
 30
0.0
 40
1.0
100
AcDbArc
 50
90.0
 51
150.0
  0
LINE
  5
143
330
1F
100
AcDbEntity
  8
0
  6
HIDDEN
 62
     7
370
     0
100
AcDbLine
 10
127.2716489874
 20
143.5483289967
 30
0.0
 11
124.673572776
 21
139.0483289967
 31
0.0
  0
LINE
  5
144
330
1F
100
AcDbEntity
  8
0
  6
HIDDEN
 62
     7
370
     0
100
AcDbLine
 10
124.673572776
 20
86.0483289967
 30
0.0
 11
127.2716489874
 21
81.5483289967
 31
0.0
  0
ARC
  5
145
330
1F
100
AcDbEntity
  8
0
  6
HIDDEN
 62
     7
370
     0
100
AcDbCircle
 10
165.126948449
 20
87.6733289967
 30
0.0
 40
2.0
100
AcDbArc
 50
234.3409123039
 51
0.0
  0
ARC
  5
146
330
1F
100
AcDbEntity
  8
0
  6
HIDDEN
 62
     7
370
     0
100
AcDbCircle
 10
165.126948449
 20
137.4233289967
 30
0.0
 40
2.000000000000003
100
AcDbArc
 50
0.0
 51
125.6590876961
  0
LINE
  5
147
330
1F
100
AcDbEntity
  8
0
  6
HIDDEN
 62
     7
370
     0
100
AcDbLine
 10
119.876948449
 20
86.0483289967
 30
0.0
 11
124.673572776
 21
86.0483289967
 31
0.0
  0
LINE
  5
148
330
1F
100
AcDbEntity
  8
0
  6
HIDDEN
 62
     7
370
     0
100
AcDbLine
 10
124.673572776
 20
139.0483289967
 30
0.0
 11
114.876948449
 21
139.0483289967
 31
0.0
  0
LINE
  5
149
330
1F
100
AcDbEntity
  8
0
  6
HIDDEN
 62
     7
370
     0
100
AcDbLine
 10
154.676948449
 20
86.0483289967
 30
0.0
 11
163.9610260674
 21
86.0483289967
 31
0.0
  0
LINE
  5
14A
330
1F
100
AcDbEntity
  8
0
  6
HIDDEN
 62
     7
370
     0
100
AcDbLine
 10
163.9610260674
 20
139.0483289967
 30
0.0
 11
154.676948449
 21
139.0483289967
 31
0.0
  0
LINE
  5
14B
330
1F
100
AcDbEntity
  8
0
  6
HIDDEN
 62
     7
370
     0
100
AcDbLine
 10
178.976948449
 20
99.5483289967
 30
0.0
 11
182.976948449
 21
99.5483289967
 31
0.0
  0
LINE
  5
14C
330
1F
100
AcDbEntity
  8
0
  6
HIDDEN
 62
     7
370
     0
100
AcDbLine
 10
182.976948449
 20
125.5483289967
 30
0.0
 11
178.976948449
 21
125.5483289967
 31
0.0
  0
LINE
  5
14D
330
1F
100
AcDbEntity
  8
0
  6
HIDDEN
 62
     7
370
     0
100
AcDbLine
 10
167.126948449
 20
100.5483289967
 30
0.0
 11
167.876948449
 21
101.2983289967
 31
0.0
  0
LINE
  5
14E
330
1F
100
AcDbEntity
  8
0
  6
HIDDEN
 62
     7
370
     0
100
AcDbLine
 10
167.876948449
 20
123.7983289967
 30
0.0
 11
167.126948449
 21
124.5483289967
 31
0.0
  0
LINE
  5
14F
330
1F
100
AcDbEntity
  8
0
  6
HIDDEN
 62
     7
370
     0
100
AcDbLine
 10
167.876948449
 20
101.2983289967
 30
0.0
 11
178.976948449
 21
101.2983289967
 31
0.0
  0
LINE
  5
150
330
1F
100
AcDbEntity
  8
0
  6
HIDDEN
 62
     7
370
     0
100
AcDbLine
 10
178.976948449
 20
123.7983289967
 30
0.0
 11
167.876948449
 21
123.7983289967
 31
0.0
  0
LINE
  5
151
330
1F
100
AcDbEntity
  8
0
  6
HIDDEN
 62
     7
370
     0
100
AcDbLine
 10
159.626948449
 20
162.5483289967
 30
0.0
 11
159.626948449
 21
156.4483289967
 31
0.0
  0
ARC
  5
152
330
1F
100
AcDbEntity
  8
0
  6
HIDDEN
 62
     7
370
     0
100
AcDbCircle
 10
194.5716264509
 20
119.2483289967
 30
0.0
 40
0.7999999999999982
100
AcDbArc
 50
75.0
 51
90.0
  0
ARC
  5
153
330
1F
100
AcDbEntity
  8
0
  6
HIDDEN
 62
     7
370
     0
100
AcDbCircle
 10
194.5716264509
 20
105.8483289967
 30
0.0
 40
0.7999999999999982
100
AcDbArc
 50
270.0
 51
285.0
  0
LINE
  5
154
330
1F
100
AcDbEntity
  8
0
  6
HIDDEN
 62
     7
370
     0
100
AcDbLine
 10
194.5716264509
 20
120.0483289967
 30
0.0
 11
193.976948449
 21
120.0483289967
 31
0.0
  0
LINE
  5
155
330
1F
100
AcDbEntity
  8
0
  6
HIDDEN
 62
     7
370
     0
100
AcDbLine
 10
193.976948449
 20
105.0483289967
 30
0.0
 11
194.5716264509
 21
105.0483289967
 31
0.0
  0
ARC
  5
156
330
1F
100
AcDbEntity
  8
0
  6
HIDDEN
 62
     7
370
     0
100
AcDbCircle
 10
193.976948449
 20
119.2483289967
 30
0.0
 40
0.7999999999999972
100
AcDbArc
 50
90.0
 51
180.0
  0
ARC
  5
157
330
1F
100
AcDbEntity
  8
0
  6
HIDDEN
 62
     7
370
     0
100
AcDbCircle
 10
193.976948449
 20
105.8483289967
 30
0.0
 40
0.7999999999999972
100
AcDbArc
 50
180.0
 51
270.0
  0
LINE
  5
158
330
1F
100
AcDbEntity
  8
0
  6
HIDDEN
 62
     7
370
     0
100
AcDbLine
 10
194.778681687
 20
105.0755883357
 30
0.0
 11
196.5429738528
 21
105.5483289967
 31
0.0
  0
LINE
  5
159
330
1F
100
AcDbEntity
  8
0
  6
HIDDEN
 62
     7
370
     0
100
AcDbLine
 10
196.5429738528
 20
119.5483289967
 30
0.0
 11
194.778681687
 21
120.0210696577
 31
0.0
  0
LINE
  5
15A
330
1F
100
AcDbEntity
  8
0
  6
HIDDEN
 62
     7
370
     0
100
AcDbLine
 10
202.776948449
 20
119.5483289967
 30
0.0
 11
196.5429738528
 21
119.5483289967
 31
0.0
  0
LINE
  5
15B
330
1F
100
AcDbEntity
  8
0
  6
HIDDEN
 62
     7
370
     0
100
AcDbLine
 10
196.5429738528
 20
105.5483289967
 30
0.0
 11
202.776948449
 21
105.5483289967
 31
0.0
  0
LINE
  5
15C
330
1F
100
AcDbEntity
  8
0
  6
HIDDEN
 62
     7
370
     0
100
AcDbLine
 10
146.1096610651
 20
74.9700494261
 30
0.0
 11
145.6769517786
 21
75.4482741435
 31
0.0
  0
LINE
  5
15D
330
1F
100
AcDbEntity
  8
0
  6
HIDDEN
 62
     7
370
     0
100
AcDbLine
 10
133.676948907
 20
76.0952355002
 30
0.0
 11
133.1963216018
 21
75.6170107893
 31
0.0
  0
LINE
  5
15E
330
1F
100
AcDbEntity
  8
0
  6
HIDDEN
 62
     7
370
     0
100
AcDbLine
 10
133.1962032603
 20
149.4796412879
 30
0.0
 11
133.6769487244
 21
149.0013616161
 31
0.0
  0
LINE
  5
15F
330
1F
100
AcDbEntity
  8
0
  6
HIDDEN
 62
     7
370
     0
100
AcDbLine
 10
145.6769484511
 20
149.6483340034
 30
0.0
 11
146.1097701209
 21
150.1266136763
 31
0.0
  0
LINE
  5
160
330
1F
100
AcDbEntity
  8
0
  6
HIDDEN
 62
     7
370
     0
100
AcDbLine
 10
145.676948449
 20
75.3481453011
 30
0.0
 11
145.676948449
 21
81.072003094
 31
0.0
  0
LINE
  5
161
330
1F
100
AcDbEntity
  8
0
  6
HIDDEN
 62
     7
370
     0
100
AcDbLine
 10
133.676948449
 20
81.0493131961
 30
0.0
 11
133.676948449
 21
76.0952739146
 31
0.0
  0
LINE
  5
162
330
1F
100
AcDbEntity
  8
0
  6
HIDDEN
 62
     7
370
     0
100
AcDbLine
 10
145.676948449
 20
144.0246548994
 30
0.0
 11
145.676948449
 21
149.7483378296
 31
0.0
  0
LINE
  5
163
330
1F
100
AcDbEntity
  8
0
  6
HIDDEN
 62
     7
370
     0
100
AcDbLine
 10
133.676948449
 20
149.0013511168
 30
0.0
 11
133.676948449
 21
144.0473447973
 31
0.0
  0
LINE
  5
164
330
1F
100
AcDbEntity
  8
0
  6
HIDDEN
 62
     7
370
     0
100
AcDbLine
 10
209.676948449
 20
122.9512774116
 30
0.0
 11
209.2429647187
 21
122.5172938295
 31
0.0
  0
LINE
  5
165
330
1F
100
AcDbEntity
  8
0
  6
HIDDEN
 62
     7
370
     0
100
AcDbLine
 10
209.2429641844
 20
102.5793651217
 30
0.0
 11
209.676948449
 21
102.1453809492
 31
0.0
  0
LINE
  5
166
330
1F
100
AcDbEntity
  8
0
  6
HIDDEN
 62
     7
370
     0
100
AcDbLine
 10
182.976948449
 20
110.0483289967
 30
0.0
 11
193.176948449
 21
110.0483289967
 31
0.0
  0
LINE
  5
167
330
1F
100
AcDbEntity
  8
0
  6
HIDDEN
 62
     7
370
     0
100
AcDbLine
 10
193.176948449
 20
115.0483289967
 30
0.0
 11
182.976948449
 21
115.0483289967
 31
0.0
  0
LINE
  5
168
330
1F
100
AcDbEntity
  8
0
  6
HIDDEN
 62
     7
370
     0
100
AcDbLine
 10
202.776948449
 20
102.5733289967
 30
0.0
 11
209.2499201933
 21
102.5733289967
 31
0.0
  0
LINE
  5
169
330
1F
100
AcDbEntity
  8
0
  6
HIDDEN
 62
     7
370
     0
100
AcDbLine
 10
209.2492842049
 20
122.5233289967
 30
0.0
 11
202.776948449
 21
122.5233289967
 31
0.0
  0
POINT
  5
16A
330
1F
100
AcDbEntity
  8
VERMASSUNG
100
AcDbPoint
 10
209.676948449
 20
125.0483289967
 30
0.0
  0
POINT
  5
16B
330
1F
100
AcDbEntity
  8
VERMASSUNG
100
AcDbPoint
 10
209.676948449
 20
100.0483289967
 30
0.0
  0
DIMENSION
  5
16C
330
1F
100
AcDbEntity
  8
VERMASSUNG
100
AcDbDimension
  2
_D
 10
224.7232944433
 20
100.0483289967
 30
0.0
 11
224.7232944433
 21
112.5483289967
 31
0.0
 70
   160
  1
ST2 %%c<>
 71
     2
 42
-1.0
  3
SLDDIMSTYLE0
100
AcDbAlignedDimension
 13
209.676948449
 23
125.0483289967
 33
0.0
 14
209.676948449
 24
100.0483289967
 34
0.0
 50
90.0
100
AcDbRotatedDimension
  0
DIMENSION
  5
179
330
1F
100
AcDbEntity
  8
VERMASSUNG
100
AcDbDimension
  2
_D_1
 10
97.9878336261
 20
62.5483289967
 30
0.0
 11
97.9878336261
 21
112.5483289967
 31
0.0
 70
   160
  1
HSK A 100 %%c<>
 71
     2
 42
-1.0
  3
SLDDIMSTYLE0
100
AcDbAlignedDimension
 13
155.176948449
 23
162.5483289967
 33
0.0
 14
155.176948449
 24
62.5483289967
 34
0.0
 50
90.0
100
AcDbRotatedDimension
  0
DIMENSION
  5
185
330
1F
100
AcDbEntity
  8
VERMASSUNG
100
AcDbDimension
  2
_D_2
 10
216.717425255
 20
105.5483289967
 30
0.0
 11
216.717425255
 21
112.5483289967
 31
0.0
 70
   160
  1
%%c<>
 71
     2
 42
-1.0
  3
SLDDIMSTYLE0
100
AcDbAlignedDimension
 13
202.776948449
 23
119.5483289967
 33
0.0
 14
202.776948449
 24
105.5483289967
 34
0.0
 50
90.0
100
AcDbRotatedDimension
  0
DIMENSION
  5
190
330
1F
100
AcDbEntity
  8
VERMASSUNG
100
AcDbDimension
  2
_D_3
 10
209.676948449
 20
164.518660698
 30
0.0
 11
196.651948449
 21
164.518660698
 31
0.0
 70
   160
  1
(<>)
 71
     2
 42
-1.0
  3
SLDDIMSTYLE0
100
AcDbAlignedDimension
 13
183.626948449
 23
160.5170688175
 33
0.0
 14
209.676948449
 24
124.8633670722
 34
0.0
100
AcDbRotatedDimension
  0
DIMENSION
  5
19C
330
1F
100
AcDbEntity
  8
VERMASSUNG
100
AcDbDimension
  2
_D_4
 10
209.676948449
 20
170.518660698
 30
0.0
 11
182.176948449
 21
170.518660698
 31
0.0
 70
   160
  1
<>
 71
     2
 42
-1.0
  3
SLDDIMSTYLE0
100
AcDbAlignedDimension
 13
154.676948449
 23
162.0483289967
 33
0.0
 14
209.676948449
 24
124.8633670722
 34
0.0
100
AcDbRotatedDimension
  0
DIMENSION
  5
1A6
330
1F
100
AcDbEntity
  8
VERMASSUNG
100
AcDbDimension
  2
_D_5
 10
209.676948449
 20
176.518660698
 30
0.0
 11
157.226948449
 21
176.518660698
 31
0.0
 70
   160
  1
(<>)
 71
     2
 42
-1.0
  3
SLDDIMSTYLE0
100
AcDbAlignedDimension
 13
104.776948449
 23
143.0509987393
 33
0.0
 14
209.676948449
 24
124.8633670722
 34
0.0
100
AcDbRotatedDimension
  0
DIMENSION
  5
1B2
330
1F
100
AcDbEntity
  8
VERMASSUNG
100
AcDbDimension
  2
_D_6
 10
188.2520548149
 20
126.6592748412
 30
0.0
 11
197.0184533685
 21
131.8762828929
 31
0.0
 70
   162
  1
<>
 71
     1
 42
-1.0
  3
SLDDIMSTYLE1
100
AcDb2LineAngularDimension
 13
210.8613495246
 23
112.5483289967
 33
0.0
 14
103.8613501662
 24
112.5483289967
 34
0.0
 15
209.476948449
 25
125.0633670722
 35
0.0
 16
196.1041006755
 26
119.2990747279
 36
0.0
  0
DIMENSION
  5
1BC
330
1F
100
AcDbEntity
  8
VERMASSUNG
100
AcDbDimension
  2
_D_7
 10
188.626948449
 20
131.6452005089
 30
0.0
 11
189.9218360693
 21
133.7837361571
 31
0.0
 70
   164
  1
<>
 71
     1
 42
-1.0
  3
SLDDIMSTYLE2
100
AcDbRadialDimension
 15
186.0371932084
 25
127.3681492123
 35
0.0
 40
0.0
  0
LINE
  5
1C4
330
1F
100
AcDbEntity
  8
VERMASSUNG
  6
CENTERX2
370
     0
100
AcDbLine
 10
103.8613501662
 20
112.5483289967
 30
0.0
 11
210.8613495246
 21
112.5483289967
 31
0.0
  0
LINE
  5
1C5
330
1F
100
AcDbEntity
  8
0
  6
Continuous
 62
     7
370
    15
100
AcDbLine
 10
228.3295027812
 20
26.6521762985
 30
0.0
 11
234.0704924772
 21
23.3379734918
 31
0.0
  0
LINE
  5
1C6
330
1F
100
AcDbEntity
  8
0
  6
Continuous
 62
     7
370
    15
100
AcDbLine
 10
255.5138649057
 20
68.6924411381
 30
0.0
 11
253.3274710971
 21
69.9546194176
 31
0.0
  0
SPLINE
  5
1C7
330
1F
100
AcDbEntity
  8
0
  6
Continuous
 62
     7
370
    15
100
AcDbSpline
210
0.0
220
0.0
230
1.0
 70
     8
 71
     3
 72
    34
 73
    30
 74
     0
 42
0.000000001
 43
0.00000001
 40
0.0
 40
0.0
 40
0.0
 40
0.0
 40
0.0155814617465072
 40
0.0542429861518078
 40
0.0929322885996703
 40
0.1316372808360189
 40
0.1703489768058199
 40
0.2090601372984016
 40
0.2477672030912012
 40
0.2864685190174112
 40
0.3251634769084826
 40
0.3638521599766215
 40
0.4025350917780561
 40
0.4412130666727778
 40
0.4798870396660712
 40
0.5185580576313725
 40
0.5572272183765717
 40
0.5958956477392848
 40
0.6345644808741318
 40
0.6732344940597116
 40
0.7119068451317596
 40
0.7505826918070708
 40
0.7892631788461019
 40
0.8279494137795761
 40
0.8666424235414834
 40
0.9053430815574817
 40
0.9440519907984931
 40
0.9827693034252466
 40
0.9999999999999999
 40
0.9999999999999999
 40
0.9999999999999999
 40
0.9999999999999999
 10
245.6100329543354
 20
70.74860188719273
 30
0.0
 10
245.4465928005932
 20
70.7118598938565
 30
0.0
 10
244.8776165299251
 20
70.58395177662393
 30
0.0
 10
243.8799029730406
 20
70.2449749396338
 30
0.0
 10
242.6248149265581
 20
69.73632644442063
 30
0.0
 10
241.3593705222732
 20
69.11107760929231
 30
0.0
 10
240.0919455090505
 20
68.38158741510692
 30
0.0
 10
238.828538730969
 20
67.54929916703209
 30
0.0
 10
237.5757005979503
 20
66.6192307210611
 30
0.0
 10
236.3397125120835
 20
65.59603744772107
 30
0.0
 10
235.1267966205249
 20
64.48503961182011
 30
0.0
 10
233.9430408099045
 20
63.29192133960385
 30
0.0
 10
232.7943893277522
 20
62.02278014946282
 30
0.0
 10
231.6866125217003
 20
60.68407943807617
 30
0.0
 10
230.6252809686092
 20
59.28262403890739
 30
0.0
 10
229.615738143713
 20
57.8255265842978
 30
0.0
 10
228.663073981361
 20
56.32017348217521
 30
0.0
 10
227.7720993548534
 20
54.77418852353131
 30
0.0
 10
226.9473245661565
 20
53.19539993885206
 30
0.0
 10
226.1929329157093
 20
51.59179613762858
 30
0.0
 10
225.5127607160478
 20
49.97148533120018
 30
0.0
 10
224.9102741023451
 20
48.34264714041061
 30
0.0
 10
224.3885671614475
 20
46.71350337195829
 30
0.0
 10
223.9503049530243
 20
45.09225097312424
 30
0.0
 10
223.5978739008413
 20
43.48711862298207
 30
0.0
 10
223.3327699165133
 20
41.90596587843709
 30
0.0
 10
223.1578437132604
 20
40.35759723876505
 30
0.0
 10
223.0853512876985
 20
39.12628758644818
 30
0.0
 10
223.0794206151219
 20
38.41836982038236
 30
0.0
 10
223.07759410474
 20
38.20034747426055
 30
0.0
  0
SPLINE
  5
1C8
330
1F
100
AcDbEntity
  8
0
  6
Continuous
 62
     7
370
    15
100
AcDbSpline
210
0.0
220
0.0
230
1.0
 70
     8
 71
     3
 72
    12
 73
     8
 74
     0
 42
0.000000001
 43
0.00000001
 40
0.0
 40
0.0
 40
0.0
 40
0.0
 40
0.128025977036001
 40
0.3712393122933431
 40
0.6145140545373704
 40
0.8577587979508002
 40
1.0
 40
1.0
 40
1.0
 40
1.0
 10
223.07759410474
 20
38.20034747426055
 30
0.0
 10
223.0801440322811
 20
37.94507990203215
 30
0.0
 10
223.0875381047079
 20
37.20487576409995
 30
0.0
 10
223.1683328434056
 20
36.02007692198347
 30
0.0
 10
223.3542874432811
 20
34.67631214357232
 30
0.0
 10
223.5802041454278
 20
33.56686545295212
 30
0.0
 10
223.7789154033242
 20
32.93880298105579
 30
0.0
 10
223.8522382533959
 20
32.70705299894604
 30
0.0
  0
LINE
  5
1C9
330
1F
100
AcDbEntity
  8
0
  6
Continuous
 62
     7
370
    15
100
AcDbLine
 10
249.1874350554
 20
35.3426667263
 30
0.0
 11
257.0687322204
 21
31.7129601396
 31
0.0
  0
LINE
  5
1CA
330
1F
100
AcDbEntity
  8
0
  6
Continuous
 62
     7
370
    15
100
AcDbLine
 10
263.3168913805
 20
42.536261986
 30
0.0
 11
256.2323545358
 21
47.5461474742
 31
0.0
  0
LINE
  5
1CB
330
1F
100
AcDbEntity
  8
0
  6
Continuous
 62
     7
370
    15
100
AcDbLine
 10
260.0271551921
 20
32.1115532849
 30
0.0
 11
260.0978543777
 21
32.152380325
 31
0.0
  0
LINE
  5
1CC
330
1F
100
AcDbEntity
  8
0
  6
Continuous
 62
     7
370
    15
100
AcDbLine
 10
264.4511701933
 20
39.6933615801
 30
0.0
 11
264.4511701933
 21
39.7750023912
 31
0.0
  0
LINE
  5
1CD
330
1F
100
AcDbEntity
  8
0
  6
Continuous
 62
     7
370
    15
100
AcDbLine
 10
241.5250282918
 20
69.175539151
 30
0.0
 11
232.2601142338
 21
73.791574868
 31
0.0
  0
LINE
  5
1CE
330
1F
100
AcDbEntity
  8
0
  6
Continuous
 62
     7
370
    15
100
AcDbLine
 10
214.4713914784
 20
42.9772644592
 30
0.0
 11
223.101748022
 21
37.2626008063
 31
0.0
  0
SPLINE
  5
1CF
330
1F
100
AcDbEntity
  8
0
  6
Continuous
 62
     7
370
    15
100
AcDbSpline
210
0.0
220
0.0
230
1.0
 70
     8
 71
     3
 72
    15
 73
    11
 74
     0
 42
0.000000001
 43
0.00000001
 40
0.0
 40
0.0
 40
0.0
 40
0.0
 40
0.1072310084474193
 40
0.2435697300154088
 40
0.3793586455771794
 40
0.5144299346591715
 40
0.6488389064413016
 40
0.783129163505307
 40
0.9188011122941099
 40
1.0
 40
1.0
 40
1.0
 40
1.0
 10
258.5530295646734
 20
38.72056736634817
 30
0.0
 10
258.6543734647952
 20
38.86105963054687
 30
0.0
 10
258.8845709305172
 20
39.18018059523416
 30
0.0
 10
259.2929153355165
 20
39.60176058111252
 30
0.0
 10
259.7475396292238
 20
39.97699692306082
 30
0.0
 10
260.2046689623082
 20
40.25228215520006
 30
0.0
 10
260.6436483665834
 20
40.42379142873233
 30
0.0
 10
261.043484343552
 20
40.48458886698846
 30
0.0
 10
261.3511909614804
 20
40.46342352159238
 30
0.0
 10
261.5012132521138
 20
40.38722478049849
 30
0.0
 10
261.5573832901301
 20
40.35869511223411
 30
0.0
  0
SPLINE
  5
1D0
330
1F
100
AcDbEntity
  8
0
  6
Continuous
 62
     7
370
    15
100
AcDbSpline
210
0.0
220
0.0
230
1.0
 70
     8
 71
     3
 72
    11
 73
     7
 74
     0
 42
0.000000001
 43
0.00000001
 40
0.0
 40
0.0
 40
0.0
 40
0.0
 40
0.0840521454972318
 40
0.497056655340074
 40
0.9108928304942953
 40
0.9999999999999999
 40
0.9999999999999999
 40
0.9999999999999999
 40
0.9999999999999999
 10
257.8054062408858
 20
37.30992197441783
 30
0.0
 10
257.8199921614168
 20
37.35110597476187
 30
0.0
 10
257.9062484827905
 20
37.59465456407426
 30
0.0
 10
258.1196292964047
 20
38.03566699081635
 30
0.0
 10
258.3624476411439
 20
38.47202979411471
 30
0.0
 10
258.5243458369198
 20
38.68316096428001
 30
0.0
 10
258.5530295646734
 20
38.72056736634818
 30
0.0
  0
SPLINE
  5
1D1
330
1F
100
AcDbEntity
  8
0
  6
Continuous
 62
     7
370
    15
100
AcDbSpline
210
0.0
220
0.0
230
1.0
 70
     8
 71
     3
 72
    35
 73
    31
 74
     0
 42
0.000000001
 43
0.00000001
 40
0.0
 40
0.0
 40
0.0
 40
0.0
 40
0.0159013726699839
 40
0.0522360171494666
 40
0.0887051702815618
 40
0.1253068697841663
 40
0.1620223540478537
 40
0.1988247148937611
 40
0.235686241677309
 40
0.2725829332760989
 40
0.3094963061695779
 40
0.3464118756790326
 40
0.3833209481246168
 40
0.420219713404257
 40
0.4571065800543706
 40
0.4939814369203018
 40
0.5308451232588506
 40
0.5676990670152018
 40
0.6045450479022564
 40
0.6413850483416335
 40
0.6782211639126806
 40
0.715055552593154
 40
0.7518904078427919
 40
0.7887273076227339
 40
0.825568381426367
 40
0.86241585962997
 40
0.8992719513372311
 40
0.9361387999845787
 40
0.9730184033916902
 40
1.0
 40
1.0
 40
1.0
 40
1.0
 10
240.9461547362395
 20
20.01042220855502
 30
0.0
 10
241.101642649934
 20
19.97884851135311
 30
0.0
 10
241.6124205239481
 20
19.87512890030187
 30
0.0
 10
242.5269264675651
 20
19.82266977582998
 30
0.0
 10
243.6819783355698
 20
19.84958615751885
 30
0.0
 10
244.8752086455881
 20
20.00032180715373
 30
0.0
 10
246.0970646570551
 20
20.26575608812846
 30
0.0
 10
247.3419803599822
 20
20.64701211709486
 30
0.0
 10
248.6030232713595
 20
21.14146860073763
 30
0.0
 10
249.8735317702383
 20
21.74658089127859
 30
0.0
 10
251.1467934257809
 20
22.45894205136338
 30
0.0
 10
252.4162142551443
 20
23.27463319795841
 30
0.0
 10
253.6753252556839
 20
24.18922083867271
 30
0.0
 10
254.9178102920657
 20
25.1978379756781
 30
0.0
 10
256.1374919740132
 20
26.29520467293189
 30
0.0
 10
257.3283235366287
 20
27.47563933654539
 30
0.0
 10
258.484404999298
 20
28.73308021910177
 30
0.0
 10
259.6000038319121
 20
30.06110902403687
 30
0.0
 10
260.6695785087893
 20
31.45297705442544
 30
0.0
 10
261.6878034051358
 20
32.90163429916907
 30
0.0
 10
262.6495948547699
 20
34.39976162322326
 30
0.0
 10
263.5501339273807
 20
35.93980463503529
 30
0.0
 10
264.3848937590993
 20
37.51400398556446
 30
0.0
 10
265.1496367862414
 20
39.11443097882109
 30
0.0
 10
265.8405515574389
 20
40.7330659264205
 30
0.0
 10
266.4538429495922
 20
42.36171213740275
 30
0.0
 10
266.9873502350106
 20
43.99253870088621
 30
0.0
 10
267.434557117615
 20
45.61621617955235
 30
0.0
 10
267.7736401138802
 20
47.08456280959823
 30
0.0
 10
267.9242095083386
 20
47.99751271747385
 30
0.0
 10
267.9878256424209
 20
48.38323747886175
 30
0.0
  0
LINE
  5
1D2
330
1F
100
AcDbEntity
  8
0
  6
Continuous
 62
     7
370
    15
100
AcDbLine
 10
236.3770953183
 20
22.006400015
 30
0.0
 11
238.0345433529
 21
21.0495756312
 31
0.0
  0
SPLINE
  5
1D3
330
1F
100
AcDbEntity
  8
0
  6
Continuous
 62
     7
370
    15
100
AcDbSpline
210
0.0
220
0.0
230
1.0
 70
     8
 71
     3
 72
    10
 73
     6
 74
     0
 42
0.000000001
 43
0.00000001
 40
0.0
 40
0.0
 40
0.0
 40
0.0
 40
0.2082658512597655
 40
0.7301797293443796
 40
1.0
 40
1.0
 40
1.0
 40
1.0
 10
258.2126657032291
 20
34.24588837603218
 30
0.0
 10
258.1692044682453
 20
34.26294439853537
 30
0.0
 10
258.0168294504234
 20
34.32274278516353
 30
0.0
 10
257.8560151750606
 20
34.4891238598955
 30
0.0
 10
257.7516409859222
 20
34.66375914658738
 30
0.0
 10
257.7160706217949
 20
34.72327425073718
 30
0.0
  0
SPLINE
  5
1D4
330
1F
100
AcDbEntity
  8
0
  6
Continuous
 62
     7
370
    15
100
AcDbSpline
210
0.0
220
0.0
230
1.0
 70
     8
 71
     3
 72
    15
 73
    11
 74
     0
 42
0.000000001
 43
0.00000001
 40
0.0
 40
0.0
 40
0.0
 40
0.0
 40
0.0788713189102572
 40
0.2281894225613957
 40
0.3773896486220102
 40
0.5262889629089986
 40
0.6747633661973363
 40
0.8227062146230616
 40
0.9700647313303108
 40
1.0
 40
1.0
 40
1.0
 40
1.0
 10
268.0086868899361
 20
56.54368881152755
 30
0.0
 10
267.9617141051752
 20
56.7712751490665
 30
0.0
 10
267.8258130859102
 20
57.42972483221387
 30
0.0
 10
267.5317187182141
 20
58.46382393025942
 30
0.0
 10
267.098543104792
 20
59.61459964229142
 30
0.0
 10
266.5773475549154
 20
60.67758201845668
 30
0.0
 10
265.9735888117116
 20
61.64892626900208
 30
0.0
 10
265.28739349905
 20
62.51817441270335
 30
0.0
 10
264.7338433587917
 20
63.0918950428576
 30
0.0
 10
264.4059692804699
 20
63.36709393637749
 30
0.0
 10
264.3506091977489
 20
63.41356004796511
 30
0.0
  0
SPLINE
  5
1D5
330
1F
100
AcDbEntity
  8
0
  6
Continuous
 62
     7
370
    15
100
AcDbSpline
210
0.0
220
0.0
230
1.0
 70
     8
 71
     3
 72
    29
 73
    25
 74
     0
 42
0.000000001
 43
0.00000001
 40
0.0
 40
0.0
 40
0.0
 40
0.0
 40
0.0280835594842309
 40
0.0727873344939197
 40
0.1176797610143922
 40
0.1629543185515118
 40
0.2087134454861373
 40
0.254959976406223
 40
0.3016183403582291
 40
0.3485734227384921
 40
0.3957082979392844
 40
0.4429276523689097
 40
0.4901573633553918
 40
0.5373571791227557
 40
0.5845121994445164
 40
0.6316188745372878
 40
0.6786805364219904
 40
0.7257044609770269
 40
0.7727000747757533
 40
0.819677928620205
 40
0.8666491494955145
 40
0.9136249791641025
 40
0.9606133749349813
 40
1.0
 40
1.0
 40
1.0
 40
1.0
 10
232.2320693551396
 20
73.78892460288881
 30
0.0
 10
232.0602933343109
 20
73.87485840163225
 30
0.0
 10
231.615082010828
 20
74.09758273816034
 30
0.0
 10
230.8327974099018
 20
74.32887945391609
 30
0.0
 10
229.9016544900531
 20
74.49480313042956
 30
0.0
 10
228.9254285448042
 20
74.5394906415673
 30
0.0
 10
227.9123162601695
 20
74.4680837949113
 30
0.0
 10
226.8676089959865
 20
74.27837706110819
 30
0.0
 10
225.7989509744212
 20
73.97125958318534
 30
0.0
 10
224.7146186353384
 20
73.54847627157129
 30
0.0
 10
223.6233425261865
 20
73.01339024748054
 30
0.0
 10
222.5337817473299
 20
72.37058740816987
 30
0.0
 10
221.4542255201835
 20
71.62560819117635
 30
0.0
 10
220.3924709316076
 20
70.78464512041307
 30
0.0
 10
219.3558215139947
 20
69.85432513437313
 30
0.0
 10
218.3512261696906
 20
68.8416675851175
 30
0.0
 10
217.3853685215033
 20
67.75410176111323
 30
0.0
 10
216.4646975868036
 20
66.5994457575813
 30
0.0
 10
215.5953254313795
 20
65.38588772393823
 30
0.0
 10
214.7833278395908
 20
64.1219267238954
 30
0.0
 10
214.0334880308307
 20
62.81641944707168
 30
0.0
 10
213.3538458107926
 20
61.47822465990524
 30
0.0
 10
212.7718738998142
 20
60.19097832475744
 30
0.0
 10
212.4560666472625
 20
59.34845862892689
 30
0.0
 10
212.3120599456872
 20
58.96427339749734
 30
0.0
  0
LINE
  5
1D6
330
1F
100
AcDbEntity
  8
0
  6
Continuous
 62
     7
370
    15
100
AcDbLine
 10
212.6961019933
 20
56.633086336
 30
0.0
 11
216.4807805819
 21
54.4482378927
 31
0.0
  0
LINE
  5
1D7
330
1F
100
AcDbEntity
  8
0
  6
Continuous
 62
     7
370
    15
100
AcDbLine
 10
212.1906623011
 20
58.4027331724
 30
0.0
 11
212.1906623011
 21
57.7502276638
 31
0.0
  0
LINE
  5
1D8
330
1F
100
AcDbEntity
  8
0
  6
Continuous
 62
     7
370
    15
100
AcDbLine
 10
216.5859755865
 20
42.5219863131
 30
0.0
 11
216.5708508797
 21
42.6317006181
 31
0.0
  0
LINE
  5
1D9
330
1F
100
AcDbEntity
  8
0
  6
Continuous
 62
     7
370
    15
100
AcDbLine
 10
212.1906623011
 20
46.2444404835
 30
0.0
 11
212.1906623011
 21
45.5919349748
 31
0.0
  0
SPLINE
  5
1DA
330
1F
100
AcDbEntity
  8
0
  6
Continuous
 62
     7
370
    15
100
AcDbSpline
210
0.0
220
0.0
230
1.0
 70
     8
 71
     3
 72
    11
 73
     7
 74
     0
 42
0.000000001
 43
0.00000001
 40
0.0
 40
0.0
 40
0.0
 40
0.0
 40
0.2565550147448583
 40
0.555976524930917
 40
0.8519279337473655
 40
1.0
 40
1.0
 40
1.0
 40
1.0
 10
212.3158671772242
 20
45.27071736438769
 30
0.0
 10
212.4667038812404
 20
45.03118806779847
 30
0.0
 10
212.7935798404353
 20
44.51210772135013
 30
0.0
 10
213.403600737671
 20
43.83351004157895
 30
0.0
 10
213.9846545482806
 20
43.30003177206354
 30
0.0
 10
214.3790635287178
 20
43.05303841284415
 30
0.0
 10
214.5105902518777
 20
42.9706715581534
 30
0.0
  0
SPLINE
  5
1DB
330
1F
100
AcDbEntity
  8
0
  6
Continuous
 62
     7
370
    15
100
AcDbSpline
210
0.0
220
0.0
230
1.0
 70
     8
 71
     3
 72
     9
 73
     5
 74
     0
 42
0.000000001
 43
0.00000001
 40
0.0
 40
0.0
 40
0.0
 40
0.0
 40
0.0059771832110667
 40
1.0
 40
1.0
 40
1.0
 40
1.0
 10
212.23232734823
 20
45.39633410452434
 30
0.0
 10
212.2324727384311
 20
45.39606338070444
 30
0.0
 10
212.2567969386424
 20
45.35077050438784
 30
0.0
 10
212.2864205909318
 20
45.31062395274052
 30
0.0
 10
212.3158671772242
 20
45.27071736438769
 30
0.0
  0
LWPOLYLINE
  5
1DC
330
1F
100
AcDbEntity
  8
0
  6
Continuous
 62
     7
370
    15
100
AcDbPolyline
 90
       14
 70
   128
 43
0.0
 10
256.8416178631
 20
43.0650633655
 10
256.7453533104
 20
43.1689441707
 10
256.6569055834
 20
43.4020902801
 10
256.7203232793
 20
43.6379374746
 10
256.9270414868
 20
43.8446332838
 10
257.2491417666
 20
43.9942622933
 10
257.6431226911
 20
44.0666162762
 10
258.0557749532
 20
44.0519234263
 10
258.4313675784
 20
43.9521680943
 10
258.7191747014
 20
43.7808227905
 10
258.8803263755
 20
43.5610286478
 10
258.8930581741
 20
43.3224700829
 10
258.7556505973
 20
43.0973657521
 10
258.7556505973
 20
43.0973657521
  0
LWPOLYLINE
  5
1DD
330
1F
100
AcDbEntity
  8
0
  6
Continuous
 62
     7
370
    15
100
AcDbPolyline
 90
       17
 70
   128
 43
0.0
 10
258.4308910709
 20
43.2056071981
 10
258.2379430898
 20
43.0785952391
 10
257.9754863019
 20
43.0038772574
 10
257.6834773739
 20
42.9928283884
 10
257.4063720181
 20
43.0471307221
 10
257.1863570128
 20
43.1585172207
 10
257.0569276483
 20
43.3100302993
 10
257.037788372
 20
43.4786034653
 10
257.1318529652
 20
43.6385729821
 10
257.3248009463
 20
43.7655849411
 10
257.5872577342
 20
43.8403029228
 10
257.8792666622
 20
43.8513517919
 10
258.1563720181
 20
43.7970494581
 10
258.3763870233
 20
43.6856629595
 10
258.5058163878
 20
43.5341498809
 10
258.5249556641
 20
43.365576715
 10
258.4308910709
 20
43.2056071981
  0
SPLINE
  5
1DE
330
1F
100
AcDbEntity
  8
0
  6
Continuous
 62
     7
370
    15
100
AcDbSpline
210
0.0
220
0.0
230
1.0
 70
     8
 71
     3
 72
    10
 73
     6
 74
     0
 42
0.000000001
 43
0.00000001
 40
0.0
 40
0.0
 40
0.0
 40
0.0
 40
0.1768688984900158
 40
0.660600190424611
 40
1.0
 40
1.0
 40
1.0
 40
1.0
 10
258.5030598545416
 20
43.39897205313049
 30
0.0
 10
258.4885425265719
 20
43.37330951027639
 30
0.0
 10
258.4343207289403
 20
43.27746065928598
 30
0.0
 10
258.3426945109408
 20
43.14389489426723
 30
0.0
 10
258.2690922982723
 20
43.09941370588908
 30
0.0
 10
258.238744062228
 20
43.08107287678234
 30
0.0
  0
SPLINE
  5
1DF
330
1F
100
AcDbEntity
  8
0
  6
Continuous
 62
     7
370
    15
100
AcDbSpline
210
0.0
220
0.0
230
1.0
 70
     8
 71
     3
 72
    10
 73
     6
 74
     0
 42
0.000000001
 43
0.00000001
 40
0.0
 40
0.0
 40
0.0
 40
0.0
 40
0.4391119879276806
 40
0.751363323073459
 40
1.0
 40
1.0
 40
1.0
 40
1.0
 10
258.142215936298
 20
43.75977687318397
 30
0.0
 10
258.1938729434121
 20
43.67317286303273
 30
0.0
 10
258.2822631071799
 20
43.52498497782874
 30
0.0
 10
258.41075466813
 20
43.4230902329887
 30
0.0
 10
258.4747093235147
 20
43.40637968896292
 30
0.0
 10
258.5030598545416
 20
43.39897205313049
 30
0.0
  0
SPLINE
  5
1E0
330
1F
100
AcDbEntity
  8
0
  6
Continuous
 62
     7
370
    15
100
AcDbSpline
210
0.0
220
0.0
230
1.0
 70
     8
 71
     3
 72
    10
 73
     6
 74
     0
 42
0.000000001
 43
0.00000001
 40
0.0
 40
0.0
 40
0.0
 40
0.0
 40
0.439111987927688
 40
0.7513633230734997
 40
1.0
 40
1.0
 40
1.0
 40
1.0
 10
257.420528099811
 20
43.75977687318396
 30
0.0
 10
257.5238421140393
 20
43.72482427300258
 30
0.0
 10
257.7006224415749
 20
43.66501697430804
 30
0.0
 10
257.9576055634749
 20
43.6915998680898
 30
0.0
 10
258.0855148742444
 20
43.73883704982864
 30
0.0
 10
258.142215936298
 20
43.75977687318397
 30
0.0
  0
SPLINE
  5
1E1
330
1F
100
AcDbEntity
  8
0
  6
Continuous
 62
     7
370
    15
100
AcDbSpline
210
0.0
220
0.0
230
1.0
 70
     8
 71
     3
 72
    11
 73
     7
 74
     0
 42
0.000000001
 43
0.00000001
 40
0.0
 40
0.0
 40
0.0
 40
0.0
 40
0.1849308168245066
 40
0.5198464202157101
 40
0.8714438233693198
 40
1.0
 40
1.0
 40
1.0
 40
1.0
 10
257.0596841815675
 20
43.39897205313049
 30
0.0
 10
257.0806870607373
 20
43.4040491440778
 30
0.0
 10
257.1397268234883
 20
43.41832100854789
 30
0.0
 10
257.2499358152366
 20
43.49544727192728
 30
0.0
 10
257.3517183283102
 20
43.63771592428056
 30
0.0
 10
257.4059958518131
 20
43.73399826730232
 30
0.0
 10
257.420528099811
 20
43.75977687318396
 30
0.0
  0
SPLINE
  5
1E2
330
1F
100
AcDbEntity
  8
0
  6
Continuous
 62
     7
370
    15
100
AcDbSpline
210
0.0
220
0.0
230
1.0
 70
     8
 71
     3
 72
    10
 73
     6
 74
     0
 42
0.000000001
 43
0.00000001
 40
0.0
 40
0.0
 40
0.0
 40
0.0
 40
0.2318697714475761
 40
0.6594946881313153
 40
1.0
 40
1.0
 40
1.0
 40
1.0
 10
257.3235991168567
 20
43.08740093441469
 30
0.0
 10
257.3035464799031
 20
43.0952947297544
 30
0.0
 10
257.246511845887
 20
43.1177466261928
 30
0.0
 10
257.1518232594286
 20
43.24029126320416
 30
0.0
 10
257.0879836941652
 20
43.35023497959151
 30
0.0
 10
257.0596841815675
 20
43.39897205313049
 30
0.0
  0
LINE
  5
1E3
330
1F
100
AcDbEntity
  8
0
  6
Continuous
 62
     7
370
    15
100
AcDbLine
 10
258.1422159363
 20
43.0425298216
 30
0.0
 11
258.1422159363
 21
43.7597768732
 31
0.0
  0
LINE
  5
1E4
330
1F
100
AcDbEntity
  8
0
  6
Continuous
 62
     7
370
    15
100
AcDbLine
 10
257.4205280998
 20
43.0425298216
 30
0.0
 11
257.4205280998
 21
43.7597768732
 31
0.0
  0
LWPOLYLINE
  5
1E5
330
1F
100
AcDbEntity
  8
0
  6
Continuous
 62
     7
370
    15
100
AcDbPolyline
 90
       27
 70
   128
 43
0.0
 10
234.0051378854
 20
37.2419313688
 10
234.361628353
 20
38.9609027186
 10
234.819662356
 20
40.7016003639
 10
235.3764254242
 20
42.4533282834
 10
236.0284964296
 20
44.2053226783
 10
236.7718686077
 20
45.9468181123
 10
237.601974178
 20
47.6671136621
 10
238.5137124117
 20
49.3556386706
 10
239.5014809735
 20
51.0020177002
 10
240.5592103467
 20
52.596134287
 10
241.680401128
 20
54.1281931026
 10
242.8581639645
 20
55.5887801434
 10
244.0852618863
 20
56.9689205768
 10
245.3541547754
 20
58.2601338883
 10
246.6570456973
 20
59.4544859918
 10
247.985928811
 20
60.5446379817
 10
249.3326385613
 20
61.5238912284
 10
250.6888998547
 20
62.3862285389
 10
252.0463789062
 20
63.1263511306
 10
253.3967344482
 20
63.7397111908
 10
254.7316689848
 20
64.2225398212
 10
256.0429797771
 20
64.5718701969
 10
257.3226092463
 20
64.7855557961
 10
258.5626944854
 20
64.8622835904
 10
259.7556155735
 20
64.8015821123
 10
260.8940423982
 20
64.6038243527
 10
261.9709796966
 20
64.2702254689
  0
SPLINE
  5
1E6
330
1F
100
AcDbEntity
  8
0
  6
Continuous
 62
     7
370
    15
100
AcDbSpline
210
0.0
220
0.0
230
1.0
 70
     8
 71
     3
 72
    14
 73
    10
 74
     0
 42
0.000000001
 43
0.00000001
 40
0.0
 40
0.0
 40
0.0
 40
0.0
 40
0.25
 40
0.25
 40
0.5
 40
0.5
 40
0.75
 40
0.75
 40
1.0
 40
1.0
 40
1.0
 40
1.0
 10
234.0051378853516
 20
37.24193136875659
 30
0.0
 10
233.9579647781192
 20
37.21469891361046
 30
0.0
 10
233.9024007134204
 20
37.19295455546952
 30
0.0
 10
233.7804752413014
 20
37.1627091280635
 30
0.0
 10
233.7143787204255
 20
37.1544100979532
 30
0.0
 10
233.5821867912888
 20
37.15297748217343
 30
0.0
 10
233.515251639758
 20
37.15992745635504
 30
0.0
 10
233.3926411480878
 20
37.18813680996445
 30
0.0
 10
233.335705693284
 20
37.2097126542721
 30
0.0
 10
233.2889631499119
 20
37.23669655019251
 30
0.0
  0
LWPOLYLINE
  5
1E7
330
1F
100
AcDbEntity
  8
0
  6
Continuous
 62
     7
370
    15
100
AcDbPolyline
 90
       27
 70
   128
 43
0.0
 10
233.2889631499
 20
37.2366965502
 10
233.6441704014
 20
38.9787767453
 10
234.101946636
 20
40.7434607523
 10
234.6595117809
 20
42.5200316539
 10
235.3134797457
 20
44.2977003438
 10
236.0598789861
 20
46.0656710486
 10
236.8941766232
 20
47.813206891
 10
237.8113059716
 20
49.5296950942
 10
238.8056973091
 20
51.2047114339
 10
239.8713117021
 20
52.828083544
 10
241.0016776795
 20
54.3899526936
 10
242.1899305343
 20
55.880833659
 10
243.4288540128
 20
57.2916723274
 10
244.7109241386
 20
58.6139006824
 10
246.0283549063
 20
59.8394888378
 10
247.3731455652
 20
60.9609938026
 10
248.7371292081
 20
61.9716046827
 10
250.1120223692
 20
62.8651840432
 10
251.4894753289
 20
63.636305181
 10
252.8611228222
 20
64.2802850811
 10
254.2186348406
 20
64.7932128568
 10
255.5537672201
 20
65.1719735003
 10
256.8584117085
 20
65.4142667999
 10
258.1246452061
 20
65.5186213097
 10
259.344777883
 20
65.4844032852
 10
260.5113998796
 20
65.3118205324
 10
261.617426306
 20
65.0019211453
  0
SPLINE
  5
1E8
330
1F
100
AcDbEntity
  8
0
  6
Continuous
 62
     7
370
    15
100
AcDbSpline
210
0.0
220
0.0
230
1.0
 70
     8
 71
     3
 72
    12
 73
     8
 74
     0
 42
0.000000001
 43
0.00000001
 40
0.0
 40
0.0
 40
0.0
 40
0.0
 40
0.2500000000000016
 40
0.2500000000000016
 40
0.5000000000000032
 40
0.5000000000000032
 40
1.0
 40
1.0
 40
1.0
 40
1.0
 10
261.6174263059916
 20
65.00192114534678
 30
0.0
 10
261.6711983249396
 20
64.97087921955406
 30
0.0
 10
261.7236866000579
 20
64.92190459029725
 30
0.0
 10
261.8146925269964
 20
64.80517371544774
 30
0.0
 10
261.8532668805257
 20
64.73772225011459
 30
0.0
 10
261.9430904698219
 20
64.5334050231077
 30
0.0
 10
261.9709796965849
 20
64.39304219391029
 30
0.0
 10
261.9709796965849
 20
64.2702254688556
 30
0.0
  0
LINE
  5
1E9
330
1F
100
AcDbEntity
  8
0
  6
Continuous
 62
     7
370
    15
100
AcDbLine
 10
233.2889631499
 20
37.2366965502
 30
0.0
 11
231.6315151153
 21
38.193520934
 31
0.0
  0
LWPOLYLINE
  5
1EA
330
1F
100
AcDbEntity
  8
0
  6
Continuous
 62
     7
370
    15
100
AcDbPolyline
 90
       27
 70
   128
 43
0.0
 10
231.6315151153
 20
38.193520934
 10
231.9867223668
 20
39.9356011291
 10
232.4444986014
 20
41.7002851361
 10
233.0020637463
 20
43.4768560378
 10
233.656031711
 20
45.2545247276
 10
234.4024309515
 20
47.0224954325
 10
235.2367285886
 20
48.7700312748
 10
236.1538579369
 20
50.4865194781
 10
237.1482492744
 20
52.1615358177
 10
238.2138636674
 20
53.7849079278
 10
239.3442296448
 20
55.3467770774
 10
240.5324824997
 20
56.8376580428
 10
241.7714059781
 20
58.2484967112
 10
243.053476104
 20
59.5707250662
 10
244.3709068716
 20
60.7963132216
 10
245.7156975305
 20
61.9178181864
 10
247.0796811735
 20
62.9284290666
 10
248.4545743345
 20
63.8220084271
 10
249.8320272942
 20
64.5931295648
 10
251.2036747875
 20
65.2371094649
 10
252.5611868059
 20
65.7500372407
 10
253.8963191855
 20
66.1287978841
 10
255.2009636738
 20
66.3710911837
 10
256.4671971714
 20
66.4754456935
 10
257.6873298484
 20
66.441227669
 10
258.8539518449
 20
66.2686449162
 10
259.9599782713
 20
65.9587455292
  0
LINE
  5
1EB
330
1F
100
AcDbEntity
  8
0
  6
Continuous
 62
     7
370
    15
100
AcDbLine
 10
259.9599782713
 20
65.9587455292
 30
0.0
 11
261.617426306
 21
65.0019211453
 31
0.0
  0
LINE
  5
1EC
330
1F
100
AcDbEntity
  8
0
  6
Continuous
 62
     7
370
    15
100
AcDbLine
 10
266.4080747485
 20
55.5394782494
 30
0.0
 11
267.8465915076
 21
56.3699162981
 31
0.0
  0
LINE
  5
1ED
330
1F
100
AcDbEntity
  8
0
  6
Continuous
 62
     7
370
    15
100
AcDbLine
 10
266.4080747485
 20
47.3740701306
 30
0.0
 11
266.4080747485
 21
55.5394782494
 31
0.0
  0
LINE
  5
1EE
330
1F
100
AcDbEntity
  8
0
  6
Continuous
 62
     7
370
    15
100
AcDbLine
 10
267.8465915076
 20
48.2045081792
 30
0.0
 11
266.4080747485
 21
47.3740701306
 31
0.0
  0
LINE
  5
1EF
330
1F
100
AcDbEntity
  8
0
  6
Continuous
 62
     7
370
    15
100
AcDbLine
 10
234.0051378854
 20
28.259982438
 30
0.0
 11
235.3660870544
 21
29.0456416701
 31
0.0
  0
LINE
  5
1F0
330
1F
100
AcDbEntity
  8
0
  6
Continuous
 62
     7
370
    15
100
AcDbLine
 10
235.3660870544
 20
29.0456416701
 30
0.0
 11
235.3660870544
 21
38.0275906008
 31
0.0
  0
LINE
  5
1F1
330
1F
100
AcDbEntity
  8
0
  6
Continuous
 62
     7
370
    15
100
AcDbLine
 10
235.3660870544
 20
38.0275906008
 30
0.0
 11
234.0051378854
 21
37.2419313688
 31
0.0
  0
LINE
  5
1F2
330
1F
100
AcDbEntity
  8
0
  6
Continuous
 62
     7
370
    15
100
AcDbLine
 10
261.9709796966
 20
64.2702254689
 30
0.0
 11
261.9709796966
 21
61.6945709654
 31
0.0
  0
LINE
  5
1F3
330
1F
100
AcDbEntity
  8
0
  6
Continuous
 62
     7
370
    15
100
AcDbLine
 10
264.2014411002
 20
62.982188926
 30
0.0
 11
261.9709796966
 21
61.6945709654
 31
0.0
  0
ARC
  5
1F4
330
1F
100
AcDbEntity
  8
0
  6
Continuous
 62
     7
370
    15
100
AcDbCircle
 10
256.8603965763
 20
54.6244199793
 30
0.0
 40
11.12399372828731
100
AcDbArc
 50
9.0277456972
 51
48.705552358
  0
LWPOLYLINE
  5
1F5
330
1F
100
AcDbEntity
  8
0
  6
Continuous
 62
     7
370
    15
100
AcDbPolyline
 90
       25
 70
   128
 43
0.0
 10
230.6527295242
 20
39.7397232632
 10
231.0111376298
 20
41.427975398
 10
231.4697511099
 20
43.1367559834
 10
232.0257042547
 20
44.8553874673
 10
232.675523114
 20
46.573130743
 10
233.4151472047
 20
48.2792522539
 10
234.2399548832
 20
49.9630910634
 10
235.1447922247
 20
51.6141254717
 10
236.1240052277
 20
53.2220387617
 10
237.1714751443
 20
54.7767836647
 10
238.2806567135
 20
56.2686451418
 10
239.444619061
 20
57.6883010902
 10
240.6560890067
 20
59.0268805931
 10
241.9074965131
 20
60.2760193511
 10
243.1910219871
 20
61.4279119479
 10
244.4986451421
 20
62.475360623
 10
245.8221951138
 20
63.4118202485
 10
247.1534015169
 20
64.2314392266
 10
248.483946124
 20
64.9290960548
 10
249.8055148429
 20
65.5004313279
 10
251.1098496685
 20
65.9418749781
 10
252.3888002841
 20
66.2506685839
 10
253.6343749897
 20
66.4248826055
 10
254.8387906394
 20
66.4634284427
 10
255.5840318102
 20
66.4168028889
  0
SPLINE
  5
1F6
330
1F
100
AcDbEntity
  8
0
  6
Continuous
 62
     7
370
    15
100
AcDbSpline
210
0.0
220
0.0
230
1.0
 70
     8
 71
     3
 72
     8
 73
     4
 74
     0
 42
0.000000001
 43
0.00000001
 40
0.0
 40
0.0
 40
0.0
 40
0.0
 40
1.0
 40
1.0
 40
1.0
 40
1.0
 10
230.6527295242484
 20
39.7397232631962
 30
0.0
 10
230.210193170403
 20
39.66803673276694
 30
0.0
 10
229.7675839803513
 20
39.59650056716517
 30
0.0
 10
229.3249122741349
 20
39.52509441086047
 30
0.0
  0
LWPOLYLINE
  5
1F7
330
1F
100
AcDbEntity
  8
0
  6
Continuous
 62
     7
370
    15
100
AcDbPolyline
 90
       27
 70
   128
 43
0.0
 10
229.3249122741
 20
39.5250944109
 10
229.6801195256
 20
41.2671746059
 10
230.1378957602
 20
43.031858613
 10
230.6954609051
 20
44.8084295146
 10
231.3494288699
 20
46.5860982045
 10
232.0958281103
 20
48.3540689093
 10
232.9301257475
 20
50.1016047517
 10
233.8472550958
 20
51.8180929549
 10
234.8416464333
 20
53.4931092946
 10
235.9072608263
 20
55.1164814047
 10
237.0376268037
 20
56.6783505542
 10
238.2258796585
 20
58.1692315196
 10
239.464803137
 20
59.580070188
 10
240.7468732629
 20
60.9022985431
 10
242.0643040305
 20
62.1278866985
 10
243.4090946894
 20
63.2493916633
 10
244.7730783323
 20
64.2600025434
 10
246.1479714934
 20
65.1535819039
 10
247.5254244531
 20
65.9247030417
 10
248.8970719464
 20
66.5686829418
 10
250.2545839648
 20
67.0816107175
 10
251.5897163443
 20
67.460371361
 10
252.8943608327
 20
67.7026646606
 10
254.1605943303
 20
67.8070191704
 10
255.3807270072
 20
67.7728011459
 10
256.5473490038
 20
67.600218393
 10
257.6533754302
 20
67.290319006
  0
LINE
  5
1F8
330
1F
100
AcDbEntity
  8
0
  6
Continuous
 62
     7
370
    15
100
AcDbLine
 10
257.6533754302
 20
67.290319006
 30
0.0
 11
257.9484811625
 21
66.3498193315
 31
0.0
  0
LINE
  5
1F9
330
1F
100
AcDbEntity
  8
0
  6
Continuous
 62
     7
370
    15
100
AcDbLine
 10
253.4856983223
 20
69.6962677883
 30
0.0
 11
257.6533754302
 21
67.290319006
 31
0.0
  0
LINE
  5
1FA
330
1F
100
AcDbEntity
  8
0
  6
Continuous
 62
     7
370
    15
100
AcDbLine
 10
229.3249122741
 20
39.5250944109
 30
0.0
 11
228.6927690722
 21
39.8900229136
 31
0.0
  0
SPLINE
  5
1FB
330
1F
100
AcDbEntity
  8
0
  6
Continuous
 62
     7
370
    15
100
AcDbSpline
210
0.0
220
0.0
230
1.0
 70
     8
 71
     3
 72
    30
 73
    26
 74
     0
 42
0.000000001
 43
0.00000001
 40
0.0
 40
0.0
 40
0.0
 40
0.0
 40
0.1250000000000006
 40
0.1250000000000006
 40
0.187500000000001
 40
0.187500000000001
 40
0.2500000000000013
 40
0.2500000000000013
 40
0.3750000000000014
 40
0.3750000000000014
 40
0.4375000000000014
 40
0.4375000000000014
 40
0.5000000000000013
 40
0.5000000000000013
 40
0.625000000000001
 40
0.625000000000001
 40
0.6875000000000009
 40
0.6875000000000009
 40
0.7500000000000007
 40
0.7500000000000007
 40
0.8125000000000006
 40
0.8125000000000006
 40
0.8750000000000004
 40
0.8750000000000004
 40
1.0
 40
1.0
 40
1.0
 40
1.0
 10
228.6927690721993
 20
39.89002291361632
 30
0.0
 10
228.4584534385927
 20
40.02529044964695
 30
0.0
 10
228.222952962064
 20
40.12855297857631
 30
0.0
 10
227.8684025146743
 20
40.23779571634008
 30
0.0
 10
227.7500082512753
 20
40.26654867833678
 30
0.0
 10
227.512953606225
 20
40.30850184298648
 30
0.0
 10
227.3941336949892
 20
40.32160697788859
 30
0.0
 10
227.045489811013
 20
40.3368583669029
 30
0.0
 10
226.8207249683711
 20
40.3157796054609
 30
0.0
 10
226.4965143207673
 20
40.23877655358521
 30
0.0
 10
226.3900982448561
 20
40.20526794855199
 30
0.0
 10
226.1847890148836
 20
40.12372960242836
 30
0.0
 10
226.0861942843759
 20
40.07592399732703
 30
0.0
 10
225.8026962905769
 20
39.91225678777413
 30
0.0
 10
225.6299533169068
 20
39.77634469129754
 30
0.0
 10
225.3978285184107
 20
39.53197355439246
 30
0.0
 10
225.3255145325846
 20
39.44415646918481
 30
0.0
 10
225.193196218515
 20
39.25877590024454
 30
0.0
 10
225.1328422797942
 20
39.16085490020421
 30
0.0
 10
225.0238791456512
 20
38.95476704949997
 30
0.0
 10
224.975269320553
 20
38.84660024265571
 30
0.0
 10
224.8902335046584
 20
38.61991052914897
 30
0.0
 10
224.8536826254834
 20
38.50077010142619
 30
0.0
 10
224.7646883483905
 20
38.13278577297206
 30
0.0
 10
224.7323517914103
 20
37.87356064767538
 30
0.0
 10
224.7276658851135
 20
37.60035406624524
 30
0.0
  0
ARC
  5
1FC
330
1F
100
AcDbEntity
  8
0
  6
Continuous
 62
     7
370
    15
100
AcDbCircle
 10
248.295730961
 20
37.1920836603
 30
0.0
 40
23.57160105185068
100
AcDbArc
 50
179.0075624958
 51
180.9924375042
  0
SPLINE
  5
1FD
330
1F
100
AcDbEntity
  8
0
  6
Continuous
 62
     7
370
    15
100
AcDbSpline
210
0.0
220
0.0
230
1.0
 70
     8
 71
     3
 72
    30
 73
    26
 74
     0
 42
0.000000001
 43
0.00000001
 40
0.0
 40
0.0
 40
0.0
 40
0.0
 40
0.1249999999999998
 40
0.1249999999999998
 40
0.1874999999999997
 40
0.1874999999999997
 40
0.2499999999999996
 40
0.2499999999999996
 40
0.3749999999999996
 40
0.3749999999999996
 40
0.4374999999999998
 40
0.4374999999999998
 40
0.5
 40
0.5
 40
0.6250000000000002
 40
0.6250000000000002
 40
0.6875000000000002
 40
0.6875000000000002
 40
0.7500000000000001
 40
0.7500000000000001
 40
0.8125000000000001
 40
0.8125000000000001
 40
0.8750000000000001
 40
0.8750000000000001
 40
1.0
 40
1.0
 40
1.0
 40
1.0
 10
224.7276658851135
 20
36.78381325435949
 30
0.0
 10
224.7323521317722
 20
36.51599745372776
 30
0.0
 10
224.764661652091
 20
36.24228128874235
 30
0.0
 10
224.8523197074596
 20
35.82303314154694
 30
0.0
 10
224.8881138787731
 20
35.68182272285464
 30
0.0
 10
224.9729744936255
 20
35.39632210786249
 30
0.0
 10
225.0222271415392
 20
35.25173704303147
 30
0.0
 10
225.1864314777086
 20
34.82264477387986
 30
0.0
 10
225.318483935769
 20
34.53967195839602
 30
0.0
 10
225.5485345032879
 20
34.11866804765888
 30
0.0
 10
225.6309975417818
 20
33.97826297778509
 30
0.0
 10
225.8047492770009
 20
33.70159868369085
 30
0.0
 10
225.8955508688345
 20
33.56601413464448
 30
0.0
 10
226.1789453410659
 20
33.16691706788483
 30
0.0
 10
226.3824252157329
 20
32.91099012487765
 30
0.0
 10
226.7083332029817
 20
32.54136414484198
 30
0.0
 10
226.8200738184428
 20
32.42104529765645
 30
0.0
 10
227.0453779225802
 20
32.19020769952566
 30
0.0
 10
227.1595005700592
 20
32.0790451054461
 30
0.0
 10
227.3904103566236
 20
31.86497129627113
 30
0.0
 10
227.5071977726324
 20
31.76206016953665
 30
0.0
 10
227.7432807351022
 20
31.56450200262142
 30
0.0
 10
227.863158109492
 20
31.46943023001605
 30
0.0
 10
228.2216413646557
 20
31.20062515141347
 30
0.0
 10
228.4584500312189
 20
31.0433434859387
 30
0.0
 10
228.6927690721993
 20
30.90807398287307
 30
0.0
  0
LINE
  5
1FE
330
1F
100
AcDbEntity
  8
0
  6
Continuous
 62
     7
370
    15
100
AcDbLine
 10
228.6927690722
 20
30.9080739829
 30
0.0
 11
229.3249122741
 21
30.5431454801
 31
0.0
  0
LWPOLYLINE
  5
1FF
330
1F
100
AcDbEntity
  8
0
  6
Continuous
 62
     7
370
    15
100
AcDbPolyline
 90
       10
 70
   128
 43
0.0
 10
235.2770987611
 20
22.76452349
 10
234.5859644555
 20
23.0639853747
 10
233.6396976098
 20
23.6044293258
 10
232.7671215054
 20
24.2667515579
 10
231.973209219
 20
25.0471772952
 10
231.2624854978
 20
25.9412586541
 10
230.6390009726
 20
26.9438999933
 10
230.1063090712
 20
28.0493869548
 10
229.6674457665
 20
29.2514190325
 10
229.3249122741
 20
30.5431454801
  0
LINE
  5
200
330
1F
100
AcDbEntity
  8
0
  6
Continuous
 62
     7
370
    15
100
AcDbLine
 10
259.6053290732
 20
66.1629758293
 30
0.0
 11
259.9577399103
 21
65.9595333834
 31
0.0
  0
SPLINE
  5
201
330
1F
100
AcDbEntity
  8
0
  6
Continuous
 62
     7
370
    15
100
AcDbSpline
210
0.0
220
0.0
230
1.0
 70
     8
 71
     3
 72
    22
 73
    18
 74
     0
 42
0.000000001
 43
0.00000001
 40
0.0
 40
0.0
 40
0.0
 40
0.0
 40
0.2500000000000001
 40
0.2500000000000001
 40
0.3750000000000002
 40
0.3750000000000002
 40
0.5000000000000002
 40
0.5000000000000002
 40
0.6250000000000001
 40
0.6250000000000001
 40
0.7500000000000001
 40
0.7500000000000001
 40
0.875
 40
0.875
 40
0.9375
 40
0.9375
 40
1.0
 40
1.0
 40
1.0
 40
1.0
 10
253.4856983223463
 20
69.69626778832738
 30
0.0
 10
253.9177304178854
 20
69.52799735022094
 30
0.0
 10
254.3681050662508
 20
69.31732134534073
 30
0.0
 10
255.093078507935
 20
68.93222710908408
 30
0.0
 10
255.3450458316544
 20
68.79110157080831
 30
0.0
 10
255.8578379447867
 20
68.49208460159112
 30
0.0
 10
256.1193592568458
 20
68.3339187642353
 30
0.0
 10
256.6569339384444
 20
68.00131882289782
 30
0.0
 10
256.9348964831072
 20
67.82562101153178
 30
0.0
 10
257.4875024018525
 20
67.47397809543843
 30
0.0
 10
257.7644983270239
 20
67.29659926631571
 30
0.0
 10
258.3226859069206
 20
66.94228884700314
 30
0.0
 10
258.5928619960804
 20
66.77243100729069
 30
0.0
 10
258.9843293111768
 20
66.53186202231596
 30
0.0
 10
259.1125765412847
 20
66.45399413976757
 30
0.0
 10
259.3644381804662
 20
66.30338784426914
 30
0.0
 10
259.4873304143126
 20
66.23109500505821
 30
0.0
 10
259.605329073172
 20
66.16297582925611
 30
0.0
  0
ARC
  5
202
330
1F
100
AcDbEntity
  8
0
  6
Continuous
 62
     7
370
    15
100
AcDbCircle
 10
248.5568474574
 20
61.0260797807
 30
0.0
 40
10.12312550345201
100
AcDbArc
 50
61.8838861263
 51
106.2631400287
  0
ARC
  5
203
330
1F
100
AcDbEntity
  8
0
  6
Continuous
 62
     7
370
    15
100
AcDbCircle
 10
233.6937763967
 20
35.2453491094
 30
0.0
 40
10.13005678070421
100
AcDbArc
 50
195.0631784563
 51
238.0255979285
  0
LINE
  5
204
330
1F
100
AcDbEntity
  8
0
  6
Continuous
 62
     7
370
    15
100
AcDbLine
 10
230.973830074
 20
39.9250906649
 30
0.0
 11
230.6527295242
 21
39.7397232632
 31
0.0
  0
LINE
  5
205
330
1F
100
AcDbEntity
  8
0
  6
Continuous
 62
     7
370
    15
100
AcDbLine
 10
231.9344798575
 20
39.7066767463
 30
0.0
 11
231.5478251789
 21
39.9298877411
 31
0.0
  0
SPLINE
  5
206
330
1F
100
AcDbEntity
  8
0
  6
Continuous
 62
     7
370
    15
100
AcDbSpline
210
0.0
220
0.0
230
1.0
 70
     8
 71
     3
 72
    12
 73
     8
 74
     0
 42
0.000000001
 43
0.00000001
 40
0.0
 40
0.0
 40
0.0
 40
0.0
 40
0.25
 40
0.25
 40
0.5
 40
0.5
 40
1.0
 40
1.0
 40
1.0
 40
1.0
 10
231.5478251789406
 20
39.92988774106208
 30
0.0
 10
231.5104331413577
 20
39.95147370488851
 30
0.0
 10
231.4642848305027
 20
39.96891383991097
 30
0.0
 10
231.3655849931202
 20
39.99136996822531
 30
0.0
 10
231.3120734268248
 20
39.99675627382592
 30
0.0
 10
231.1534760071234
 20
39.9946751150158
 30
0.0
 10
231.0487619125056
 20
39.968347894525
 30
0.0
 10
230.9738300739788
 20
39.92509066489952
 30
0.0
  0
LINE
  5
207
330
1F
100
AcDbEntity
  8
0
  6
Continuous
 62
     7
370
    15
100
AcDbLine
 10
230.4163395861
 20
31.9030700615
 30
0.0
 11
235.3660870544
 21
29.0456416701
 31
0.0
  0
ARC
  5
208
330
1F
100
AcDbEntity
  8
0
  6
Continuous
 62
     7
370
    15
100
AcDbCircle
 10
234.5244205735
 20
38.357354631
 30
0.0
 40
7.650759354637016
100
AcDbArc
 50
182.476303705
 51
237.5236964406
  0
LINE
  5
209
330
1F
100
AcDbEntity
  8
0
  6
Continuous
 62
     7
370
    15
100
AcDbLine
 10
226.8808056802
 20
38.8433352124
 30
0.0
 11
226.8808056802
 21
38.0267944005
 31
0.0
  0
ARC
  5
20A
330
1F
100
AcDbEntity
  8
0
  6
Continuous
 62
     7
370
    15
100
AcDbCircle
 10
230.1045646199
 20
38.9504923828
 30
0.0
 40
3.225539390666814
100
AcDbArc
 50
153.8530692172
 51
181.9038005074
  0
SPLINE
  5
20B
330
1F
100
AcDbEntity
  8
0
  6
Continuous
 62
     7
370
    15
100
AcDbSpline
210
0.0
220
0.0
230
1.0
 70
    11
 71
     3
 72
    70
 73
    66
 74
     0
 42
0.000000001
 43
0.00000001
 40
0.0
 40
0.0
 40
0.0
 40
0.0
 40
0.03125
 40
0.03125
 40
0.0625
 40
0.0625
 40
0.09375
 40
0.09375
 40
0.125
 40
0.125
 40
0.15625
 40
0.15625
 40
0.1875
 40
0.1875
 40
0.21875
 40
0.21875
 40
0.25
 40
0.25
 40
0.28125
 40
0.28125
 40
0.3125
 40
0.3125
 40
0.34375
 40
0.34375
 40
0.375
 40
0.375
 40
0.40625
 40
0.40625
 40
0.4375
 40
0.4375
 40
0.46875
 40
0.46875
 40
0.5
 40
0.5
 40
0.53125
 40
0.53125
 40
0.5625
 40
0.5625
 40
0.59375
 40
0.59375
 40
0.625
 40
0.625
 40
0.65625
 40
0.65625
 40
0.6875
 40
0.6875
 40
0.71875
 40
0.71875
 40
0.75
 40
0.75
 40
0.78125
 40
0.78125
 40
0.8125
 40
0.8125
 40
0.84375
 40
0.84375
 40
0.875
 40
0.875
 40
0.90625
 40
0.90625
 40
0.9375
 40
0.9375
 40
0.96875
 40
0.96875
 40
1.0
 40
1.0
 40
1.0
 40
1.0
 10
256.9805289280009
 20
44.78309073719134
 30
0.0
 10
257.0747961253212
 20
44.79678709997661
 30
0.0
 10
257.171108410386
 20
44.80211480667976
 30
0.0
 10
257.3674323253274
 20
44.79883272265269
 30
0.0
 10
257.4685060291142
 20
44.79000494677489
 30
0.0
 10
257.6685009077952
 20
44.7603421155706
 30
0.0
 10
257.7672673911414
 20
44.73969945467292
 30
0.0
 10
257.9626620425835
 20
44.68836674845564
 30
0.0
 10
258.0589876255826
 20
44.65764172979379
 30
0.0
 10
258.2431214161807
 20
44.5893051107452
 30
0.0
 10
258.331809921568
 20
44.5514717855997
 30
0.0
 10
258.5024569850643
 20
44.46896359730708
 30
0.0
 10
258.5830111479288
 20
44.42491183267867
 30
0.0
 10
258.7321686748062
 20
44.33315536314883
 30
0.0
 10
258.8012381106418
 20
44.28522796621229
 30
0.0
 10
258.9277538636326
 20
44.18502604623955
 30
0.0
 10
258.9838372262641
 20
44.13376355436797
 30
0.0
 10
259.0801923633521
 20
44.03001869690188
 30
0.0
 10
259.1207655232443
 20
43.9773121663891
 30
0.0
 10
259.1854193996836
 20
43.86936871888965
 30
0.0
 10
259.2086015469902
 20
43.81551122354536
 30
0.0
 10
259.2360607523598
 20
43.70822925704908
 30
0.0
 10
259.2404539532562
 20
43.65444088648321
 30
0.0
 10
259.2284320264772
 20
43.54653509511697
 30
0.0
 10
259.2122589550069
 20
43.49406349545089
 30
0.0
 10
259.1592494631543
 20
43.39108231750102
 30
0.0
 10
259.1216998351329
 20
43.33989427522349
 30
0.0
 10
259.026666336735
 20
43.2426373465853
 30
0.0
 10
258.9697577287421
 20
43.19674276672723
 30
0.0
 10
258.8366929330207
 20
43.11016510478026
 30
0.0
 10
258.7603603514373
 20
43.06968409435055
 30
0.0
 10
258.5963697865297
 20
42.99854555517182
 30
0.0
 10
258.5067362848818
 20
42.96696599452561
 30
0.0
 10
258.3193529444279
 20
42.91464323087974
 30
0.0
 10
258.222533601766
 20
42.89399584527343
 30
0.0
 10
258.0229319600119
 20
42.86398819833138
 30
0.0
 10
257.9209551299354
 20
42.85489207405409
 30
0.0
 10
257.7194196297012
 20
42.84921291919508
 30
0.0
 10
257.6180024056136
 20
42.85257540547086
 30
0.0
 10
257.4199432203078
 20
42.87205396037658
 30
0.0
 10
257.323990255113
 20
42.88797585858371
 30
0.0
 10
257.1378737750705
 20
42.93231952760522
 30
0.0
 10
257.04722365935
 20
42.96106074869869
 30
0.0
 10
256.878008248846
 20
43.02938807949609
 30
0.0
 10
256.7986437842843
 20
43.06908144441656
 30
0.0
 10
256.6502601417393
 20
43.15958506247964
 30
0.0
 10
256.5814891413718
 20
43.21044932241809
 30
0.0
 10
256.4592728643966
 20
43.31943450272226
 30
0.0
 10
256.4050912544019
 20
43.37796195423524
 30
0.0
 10
256.3108935353346
 20
43.50287483425437
 30
0.0
 10
256.2713357262622
 20
43.56892082373758
 30
0.0
 10
256.2097284663217
 20
43.70351071214542
 30
0.0
 10
256.1872240137961
 20
43.77260659577123
 30
0.0
 10
256.1601000130215
 20
43.91390951363385
 30
0.0
 10
256.1558186740515
 20
43.98549831440128
 30
0.0
 10
256.1668960179891
 20
44.12474343781694
 30
0.0
 10
256.1820629515367
 20
44.19312376769237
 30
0.0
 10
256.2342262151348
 20
44.32625999929978
 30
0.0
 10
256.2709434520714
 20
44.38957730370169
 30
0.0
 10
256.3640263421865
 20
44.50464296816362
 30
0.0
 10
256.4214181031849
 20
44.55760311144748
 30
0.0
 10
256.5553304131839
 20
44.64918562262926
 30
0.0
 10
256.6302499036245
 20
44.68702888706436
 30
0.0
 10
256.7956594573162
 20
44.74726915606957
 30
0.0
 10
256.8862617306805
 20
44.76939437440608
 30
0.0
 10
256.9805289280009
 20
44.78309073719134
 30
0.0
  0
LWPOLYLINE
  5
20C
330
1F
100
AcDbEntity
  8
0
  6
Continuous
 62
     7
370
    15
100
AcDbPolyline
 90
       22
 70
   128
 43
0.0
 10
260.0264360483
 20
42.3301774156
 10
259.3510035482
 20
41.8803771276
 10
258.6914026135
 20
41.3213569667
 10
258.0630937309
 20
40.6662198914
 10
257.4808039282
 20
39.9303217596
 10
256.9581815848
 20
39.1309113999
 10
256.5074765255
 20
38.2867263133
 10
256.1392528949
 20
37.417553483
 10
255.8621415428
 20
36.5437655834
 10
255.6826377244
 20
35.6858434622
 10
255.6049488571
 20
34.8638960868
 10
255.630895902
 20
34.0971892071
 10
255.7598706825
 20
33.4036937825
 10
255.9888501391
 20
32.7996647579
 10
256.3124671872
 20
32.2992600618
 10
256.7231365176
 20
31.914208756
 10
257.2112323893
 20
31.6535361169
 10
257.7653142486
 20
31.5233520902
 10
258.3723948866
 20
31.5267080791
 10
259.0182448474
 20
31.6635254221
 10
259.6877259555
 20
31.9305972366
 10
260.0271551921
 20
32.1115532849
  0
LWPOLYLINE
  5
20D
330
1F
100
AcDbEntity
  8
0
  6
Continuous
 62
     7
370
    15
100
AcDbPolyline
 90
       12
 70
   128
 43
0.0
 10
264.4511701933
 20
39.7750023912
 10
264.4479232396
 20
39.9688365361
 10
264.3702343723
 20
40.7010862546
 10
264.1907305539
 20
41.3517576785
 10
263.9136192017
 20
41.9055996212
 10
263.5453955711
 20
42.349630497
 10
263.0946905118
 20
42.6734425985
 10
262.5720681685
 20
42.8694460445
 10
261.9897783658
 20
42.9330466803
 10
261.3614694832
 20
42.862753761
 10
260.7018685484
 20
42.6602148929
 10
260.0264360483
 20
42.3301774156
  0
LWPOLYLINE
  5
20E
330
1F
100
AcDbEntity
  8
0
  6
Continuous
 62
     7
370
    15
100
AcDbPolyline
 90
       42
 70
   128
 43
0.0
 10
260.0971467264
 20
42.2077029288
 10
259.4325081607
 20
41.7650907978
 10
258.7834481597
 20
41.2150042119
 10
258.1651801396
 20
40.5703367344
 10
257.5921957789
 20
39.8461988247
 10
257.0779253453
 20
39.0595636615
 10
256.6344229019
 20
38.2288693064
 10
256.27208377
 20
37.373586531
 10
255.9994008719
 20
36.5137624387
 10
255.8227656635
 20
35.6695505773
 10
255.7463183245
 20
34.8607385575
 10
255.7718507156
 20
34.1062842475
 10
255.8987643792
 20
33.4238714168
 10
256.1240845667
 20
32.8294952438
 10
256.4425299638
 20
32.3370874022
 10
256.8466364803
 20
31.9581895145
 10
257.3269322019
 20
31.701682626
 10
257.8721594041
 20
31.5735790409
 10
258.4695384233
 20
31.5768813985
 10
259.1050672017
 20
31.7115122944
 10
259.7638494832
 20
31.9743160945
 10
260.4304439697
 20
32.3591329004
 10
261.0892262512
 20
32.8569429325
 10
261.7247550296
 20
33.4560779454
 10
262.3221340488
 20
34.1424947223
 10
262.867361251
 20
34.9001042357
 10
263.3476569726
 20
35.7111487607
 10
263.7517634891
 20
36.5566181011
 10
264.0702088862
 20
37.4166951721
 10
264.2955290737
 20
38.2712204962
 10
264.4224427373
 20
39.1001647239
 10
264.4479751284
 20
39.8840981052
 10
264.3715277894
 20
40.6046459061
 10
264.194892581
 20
41.2449190968
 10
263.9222096829
 20
41.7899102164
 10
263.559870551
 20
42.2268451349
 10
263.1163681076
 20
42.5454824683
 10
262.602097674
 20
42.7383536274
 10
262.0291133132
 20
42.8009378758
 10
261.4108452932
 20
42.7317682918
 10
260.7617852921
 20
42.5324661517
 10
260.0971467264
 20
42.2077029288
  0
LWPOLYLINE
  5
20F
330
1F
100
AcDbEntity
  8
0
  6
Continuous
 62
     7
370
    15
100
AcDbPolyline
 90
       12
 70
   128
 43
0.0
 10
257.678447329
 20
34.4319890212
 10
257.9651520153
 20
34.060540341
 10
258.3399773281
 20
33.8180199383
 10
258.7874308083
 20
33.7144517825
 10
259.2890180941
 20
33.7541166023
 10
259.8240073397
 20
33.9353749524
 10
260.3702861132
 20
34.2507349757
 10
260.9052753588
 20
34.6871620608
 10
261.4068626446
 20
35.2266175943
 10
261.8543161247
 20
35.8468045417
 10
262.2291414376
 20
36.522089039
 10
262.5158461239
 20
37.2245599039
  0
LINE
  5
210
330
1F
100
AcDbEntity
  8
0
  6
Continuous
 62
     7
370
    15
100
AcDbLine
 10
262.5158461239
 20
37.2245599039
 30
0.0
 11
263.3763544242
 21
38.2950240488
 31
0.0
  0
SPLINE
  5
211
330
1F
100
AcDbEntity
  8
0
  6
Continuous
 62
     7
370
    15
100
AcDbSpline
210
0.0
220
0.0
230
1.0
 70
     8
 71
     3
 72
    22
 73
    18
 74
     0
 42
0.000000001
 43
0.00000001
 40
0.0
 40
0.0
 40
0.0
 40
0.0
 40
0.0416666666666666
 40
0.0833333333333333
 40
0.1250000000000032
 40
0.1666666666666682
 40
0.2083333333333338
 40
0.249999999999922
 40
0.2968749999997847
 40
0.34375
 40
0.390625
 40
0.4374999999999999
 40
0.486304925390498
 40
0.486304925390498
 40
0.53125
 40
0.6249999999999821
 40
0.8289791339917306
 40
0.8289791339917306
 40
0.8289791339917306
 40
0.8289791339917306
 10
263.3763544241953
 20
38.29502404881617
 30
0.0
 10
263.4107661027882
 20
38.33783184984014
 30
0.0
 10
263.4780277380903
 20
38.42966427718434
 30
0.0
 10
263.5720669683605
 20
38.58575594576519
 30
0.0
 10
263.6549127676531
 20
38.75839186321966
 30
0.0
 10
263.7208551627133
 20
38.94210627210155
 30
0.0
 10
263.7640923710132
 20
39.128875706408
 30
0.0
 10
263.7807481689077
 20
39.31695562316074
 30
0.0
 10
263.7638277946083
 20
39.49370124741668
 30
0.0
 10
263.7091194420253
 20
39.64484404610549
 30
0.0
 10
263.6228686866934
 20
39.7559677568285
 30
0.0
 10
263.5091406928581
 20
39.82636681519057
 30
0.0
 10
263.4253090367726
 20
39.84626136363566
 30
0.0
 10
263.3439114997083
 20
39.85405675565612
 30
0.0
 10
263.2366266143272
 20
39.86283648613372
 30
0.0
 10
263.0491754107551
 20
39.88027961904669
 30
0.0
 10
262.7410196235754
 20
39.90779866242195
 30
0.0
 10
262.5157478830742
 20
39.92786334495849
 30
0.0
  0
LWPOLYLINE
  5
212
330
1F
100
AcDbEntity
  8
0
  6
Continuous
 62
     7
370
    15
100
AcDbPolyline
 90
       12
 70
   128
 43
0.0
 10
262.5157478831
 20
39.927863345
 10
262.2290293313
 20
40.2992383624
 10
261.8542080515
 20
40.5417002118
 10
261.406774004
 20
40.6452288525
 10
260.9052179634
 20
40.6055458333
 10
260.3702673633
 20
40.4242911048
 10
259.8240297095
 20
40.1089552465
 10
259.2890789598
 20
39.6725699091
 10
258.7875226261
 20
39.1331692651
 10
258.3400881544
 20
38.5130447241
 10
257.9652663365
 20
37.837823712
 10
257.6785471551
 20
37.135410586
  0
SPLINE
  5
213
330
1F
100
AcDbEntity
  8
0
  6
Continuous
 62
     7
370
    15
100
AcDbSpline
210
0.0
220
0.0
230
1.0
 70
     8
 71
     3
 72
    22
 73
    18
 74
     0
 42
0.000000001
 43
0.00000001
 40
0.0
 40
0.0
 40
0.0
 40
0.0
 40
0.0416666666666666
 40
0.0833333333333333
 40
0.1250000000000032
 40
0.1666666666666682
 40
0.2083333333333338
 40
0.249999999999922
 40
0.2968749999997847
 40
0.34375
 40
0.390625
 40
0.4374999999999999
 40
0.486304925390498
 40
0.486304925390498
 40
0.53125
 40
0.6249999999999821
 40
0.8265829076566926
 40
0.8265829076566926
 40
0.8265829076566926
 40
0.8265829076566926
 10
256.8179390286857
 20
34.5089314302359
 30
0.0
 10
256.7843313596773
 20
34.51193646227945
 30
0.0
 10
256.7158925728224
 20
34.52621551377984
 30
0.0
 10
256.6223264670324
 20
34.57368949292263
 30
0.0
 10
256.5393538971485
 20
34.65068502466037
 30
0.0
 10
256.4734454599733
 20
34.75826091748576
 30
0.0
 10
256.4301991907242
 20
34.89511058477302
 30
0.0
 10
256.4135457739877
 20
35.06395975466337
 30
0.0
 10
256.4304658983238
 20
35.26024191577555
 30
0.0
 10
256.4851725510224
 20
35.47454724122456
 30
0.0
 10
256.5714303654694
 20
35.68526280988205
 30
0.0
 10
256.685131458543
 20
35.88693593225452
 30
0.0
 10
256.7690322921593
 20
36.00370650608696
 30
0.0
 10
256.8504534576163
 20
36.10551088882625
 30
0.0
 10
256.9577131435657
 20
36.23812776822316
 30
0.0
 10
257.1425027298008
 20
36.46868165317933
 30
0.0
 10
257.4545437784824
 20
36.85682831237978
 30
0.0
 10
257.6785471550739
 20
37.13541058595708
 30
0.0
  0
LINE
  5
214
330
1F
100
AcDbEntity
  8
0
  6
Continuous
 62
     7
370
    15
100
AcDbLine
 10
257.678447329
 20
34.4319890212
 30
0.0
 11
256.8179390287
 21
34.5089314302
 31
0.0
  0
LINE
  5
215
330
1F
100
AcDbEntity
  8
0
  6
Continuous
 62
     7
370
    15
100
AcDbLine
 10
224.7276658851
 20
37.6003540662
 30
0.0
 11
226.8808056802
 21
38.8433352124
 31
0.0
  0
SPLINE
  5
216
330
1F
100
AcDbEntity
  8
0
  6
Continuous
 62
     7
370
    15
100
AcDbSpline
210
0.0
220
0.0
230
1.0
 70
     8
 71
     3
 72
     8
 73
     4
 74
     0
 42
0.000000001
 43
0.00000001
 40
0.0
 40
0.0
 40
0.0
 40
0.0
 40
1.0
 40
1.0
 40
1.0
 40
1.0
 10
215.1250351013512
 20
43.33666496307197
 30
0.0
 10
215.591897327018
 20
42.95642337581003
 30
0.0
 10
216.0589321114015
 20
42.58951672726718
 30
0.0
 10
216.5260572235769
 20
42.22959040167522
 30
0.0
  0
SPLINE
  5
217
330
1F
100
AcDbEntity
  8
0
  6
Continuous
 62
     7
370
    15
100
AcDbSpline
210
0.0
220
0.0
230
1.0
 70
     8
 71
     3
 72
    14
 73
    10
 74
     0
 42
0.000000001
 43
0.00000001
 40
0.0
 40
0.0
 40
0.0
 40
0.0
 40
0.125
 40
0.125
 40
0.25
 40
0.25
 40
0.5
 40
0.5
 40
1.0
 40
1.0
 40
1.0
 40
1.0
 10
216.5260572235769
 20
42.22959040167518
 30
0.0
 10
216.5524811622501
 20
42.20923039338957
 30
0.0
 10
216.5765451047549
 20
42.1937180900749
 30
0.0
 10
216.61281436218
 20
42.17673472151554
 30
0.0
 10
216.6248327371682
 20
42.17486048010961
 30
0.0
 10
216.6503469838386
 20
42.17900132144484
 30
0.0
 10
216.6545406462866
 20
42.19394370950786
 30
0.0
 10
216.6556474560222
 20
42.24829504585301
 30
0.0
 10
216.6400194709336
 20
42.29971600652902
 30
0.0
 10
216.6203667382999
 20
42.35606483411498
 30
0.0
  0
SPLINE
  5
218
330
1F
100
AcDbEntity
  8
0
  6
Continuous
 62
     7
370
    15
100
AcDbSpline
210
0.0
220
0.0
230
1.0
 70
     8
 71
     3
 72
    14
 73
    10
 74
     0
 42
0.000000001
 43
0.00000001
 40
0.0
 40
0.0
 40
0.0
 40
0.0
 40
0.25
 40
0.25
 40
0.5
 40
0.5
 40
0.75
 40
0.75
 40
1.0
 40
1.0
 40
1.0
 40
1.0
 10
216.6203667382995
 20
42.35606483411534
 30
0.0
 10
216.5957008903615
 20
42.42678739665315
 30
0.0
 10
216.584838019637
 20
42.48985369440337
 30
0.0
 10
216.5628876524422
 20
42.62142043536196
 30
0.0
 10
216.5526160576232
 20
42.68937377435364
 30
0.0
 10
216.5233120432647
 20
42.83797877819708
 30
0.0
 10
216.504519372035
 20
42.91844258462795
 30
0.0
 10
216.4516000675188
 20
43.09801345844227
 30
0.0
 10
216.4175208903398
 20
43.19684450437013
 30
0.0
 10
216.3734346380621
 20
43.30444455934941
 30
0.0
  0
LWPOLYLINE
  5
219
330
1F
100
AcDbEntity
  8
0
  6
Continuous
 62
     7
370
    15
100
AcDbPolyline
 90
        9
 70
   128
 43
0.0
 10
216.3734346381
 20
43.3044445594
 10
216.0053547142
 20
44.3755900988
 10
215.7402253253
 20
45.5395928184
 10
215.5802579177
 20
46.7867437625
 10
215.5267867808
 20
48.1066404355
 10
215.5802579177
 20
49.488273569
 10
215.7402253253
 20
50.9201189506
 10
216.0053547142
 20
52.3902335468
 10
216.3734346381
 20
53.8863551205
  0
SPLINE
  5
21A
330
1F
100
AcDbEntity
  8
0
  6
Continuous
 62
     7
370
    15
100
AcDbSpline
210
0.0
220
0.0
230
1.0
 70
     8
 71
     3
 72
    14
 73
    10
 74
     0
 42
0.000000001
 43
0.00000001
 40
0.0
 40
0.0
 40
0.0
 40
0.0
 40
0.25
 40
0.25
 40
0.5
 40
0.5
 40
0.75
 40
0.75
 40
1.0
 40
1.0
 40
1.0
 40
1.0
 10
216.6203667382995
 20
55.93985523342386
 30
0.0
 10
216.5957008903615
 20
55.768182701931
 30
0.0
 10
216.584838019637
 20
55.5932029697554
 30
0.0
 10
216.5628876524422
 20
55.2443964661142
 30
0.0
 10
216.5526160576232
 20
55.07018237417842
 30
0.0
 10
216.5233120432647
 20
54.72413146222732
 30
0.0
 10
216.504519372035
 20
54.55224860831208
 30
0.0
 10
216.4516000675188
 20
54.21221693941786
 30
0.0
 10
216.4175208903398
 20
54.04485607892074
 30
0.0
 10
216.3734346380621
 20
53.88635512051778
 30
0.0
  0
SPLINE
  5
21B
330
1F
100
AcDbEntity
  8
0
  6
Continuous
 62
     7
370
    15
100
AcDbSpline
210
0.0
220
0.0
230
1.0
 70
     8
 71
     3
 72
    14
 73
    10
 74
     0
 42
0.000000001
 43
0.00000001
 40
0.0
 40
0.0
 40
0.0
 40
0.0
 40
0.1249999999999983
 40
0.1249999999999983
 40
0.2499999999999966
 40
0.2499999999999966
 40
0.4999999999999978
 40
0.4999999999999978
 40
1.0
 40
1.0
 40
1.0
 40
1.0
 10
216.5260572235769
 20
56.68859897706652
 30
0.0
 10
216.5524811622501
 20
56.68429267779431
 30
0.0
 10
216.5765451047549
 20
56.66840917125392
 30
0.0
 10
216.61281436218
 20
56.61926459836251
 30
0.0
 10
216.6248327371682
 20
56.58825324301016
 30
0.0
 10
216.6503469838386
 20
56.49139470114272
 30
0.0
 10
216.6545406462866
 20
56.42111408026657
 30
0.0
 10
216.6556474560222
 20
56.2147126781887
 30
0.0
 10
216.6400194709336
 20
56.07663684216652
 30
0.0
 10
216.6203667382999
 20
55.93985523342377
 30
0.0
  0
SPLINE
  5
21C
330
1F
100
AcDbEntity
  8
0
  6
Continuous
 62
     7
370
    15
100
AcDbSpline
210
0.0
220
0.0
230
1.0
 70
     8
 71
     3
 72
     8
 73
     4
 74
     0
 42
0.000000001
 43
0.00000001
 40
0.0
 40
0.0
 40
0.0
 40
0.0
 40
1.0
 40
1.0
 40
1.0
 40
1.0
 10
215.1250351013512
 20
56.85781187095147
 30
0.0
 10
215.5918973270181
 20
56.82572211688618
 30
0.0
 10
216.0589321114015
 20
56.76472617958051
 30
0.0
 10
216.5260572235769
 20
56.68859897706652
 30
0.0
  0
SPLINE
  5
21D
330
1F
100
AcDbEntity
  8
0
  6
Continuous
 62
     7
370
    15
100
AcDbSpline
210
0.0
220
0.0
230
1.0
 70
     8
 71
     3
 72
    14
 73
    10
 74
     0
 42
0.000000001
 43
0.00000001
 40
0.0
 40
0.0
 40
0.0
 40
0.0
 40
0.4999999999999972
 40
0.4999999999999972
 40
0.7499999999999971
 40
0.7499999999999971
 40
0.8749999999999986
 40
0.8749999999999986
 40
1.0
 40
1.0
 40
1.0
 40
1.0
 10
212.2804977241332
 20
57.78239374711369
 30
0.0
 10
212.7455322568483
 20
57.58604849785286
 30
0.0
 10
213.2123881781299
 20
57.3983959863848
 30
0.0
 10
213.9194145637344
 20
57.14837802944037
 30
0.0
 10
214.1561995466255
 20
57.07021677164153
 30
0.0
 10
214.514980184757
 20
56.96964950624655
 30
0.0
 10
214.6351790087581
 20
56.93892800999492
 30
0.0
 10
214.8777811068679
 20
56.88765330361036
 30
0.0
 10
215.0000328644567
 20
56.86640389407737
 30
0.0
 10
215.1250351013512
 20
56.85781187095143
 30
0.0
  0
SPLINE
  5
21E
330
1F
100
AcDbEntity
  8
0
  6
Continuous
 62
     7
370
    15
100
AcDbSpline
210
0.0
220
0.0
230
1.0
 70
     8
 71
     3
 72
    14
 73
    10
 74
     0
 42
0.000000001
 43
0.00000001
 40
0.0
 40
0.0
 40
0.0
 40
0.0
 40
0.4999999999999986
 40
0.4999999999999986
 40
0.7499999999999978
 40
0.7499999999999978
 40
0.8749999999999989
 40
0.8749999999999989
 40
1.0
 40
1.0
 40
1.0
 40
1.0
 10
212.2804977241332
 20
45.45944977123929
 30
0.0
 10
212.7455322568483
 20
45.12460445500093
 30
0.0
 10
213.2123881781299
 20
44.78581627992939
 30
0.0
 10
213.9194145637344
 20
44.26352053289666
 30
0.0
 10
214.1561995466255
 20
44.08709882480629
 30
0.0
 10
214.514980184757
 20
43.81501667328735
 30
0.0
 10
214.6351790087581
 20
43.72307131193043
 30
0.0
 10
214.8777811068679
 20
43.53464529110013
 30
0.0
 10
215.0000328644567
 20
43.43847454704548
 30
0.0
 10
215.1250351013512
 20
43.33666496307199
 30
0.0
  0
SPLINE
  5
21F
330
1F
100
AcDbEntity
  8
0
  6
Continuous
 62
     7
370
    15
100
AcDbSpline
210
0.0
220
0.0
230
1.0
 70
     8
 71
     3
 72
    17
 73
    13
 74
     0
 42
0.000000001
 43
0.00000001
 40
0.0
 40
0.0
 40
0.0
 40
0.0
 40
0.1228850510116205
 40
0.2462026108941776
 40
0.369496116034066
 40
0.4923283167538088
 40
0.6144707776350395
 40
0.6760087745498442
 40
0.7367889456244195
 40
0.8587733475788747
 40
0.9813261090344212
 40
1.0
 40
1.0
 40
1.0
 40
1.0
 10
220.7387412583002
 20
43.01567372801645
 30
0.0
 10
220.5349725225971
 20
43.38956333007654
 30
0.0
 10
220.1267178623621
 20
44.13865848408899
 30
0.0
 10
219.9334502521338
 20
45.28697699275326
 30
0.0
 10
220.1388127583019
 20
46.23931561992773
 30
0.0
 10
220.6981014903545
 20
46.87278186654542
 30
0.0
 10
221.3739988795963
 20
47.01408953733537
 30
0.0
 10
221.9488845577976
 20
46.88789491201821
 30
0.0
 10
222.5291371355252
 20
46.59982720448741
 30
0.0
 10
223.1926093167859
 20
45.94112763171115
 30
0.0
 10
223.7012015756787
 20
45.17079018677114
 30
0.0
 10
223.8467914299568
 20
44.70733766424603
 30
0.0
 10
223.8660422513696
 20
44.64605700847044
 30
0.0
  0
SPLINE
  5
220
330
1F
100
AcDbEntity
  8
0
  6
Continuous
 62
     7
370
    15
100
AcDbSpline
210
0.0
220
0.0
230
1.0
 70
     8
 71
     3
 72
    12
 73
     8
 74
     0
 42
0.000000001
 43
0.00000001
 40
0.0
 40
0.0
 40
0.0
 40
0.0
 40
0.0356378841915166
 40
0.3562120584707485
 40
0.5161795263335501
 40
0.6782957129077979
 40
1.0
 40
1.0
 40
1.0
 40
1.0
 10
223.2424995809741
 20
40.98355606949956
 30
0.0
 10
223.2196199451698
 20
40.97967437674966
 30
0.0
 10
222.9909306626325
 20
40.94087561537077
 30
0.0
 10
222.5169195411002
 20
41.20448531695481
 30
0.0
 10
221.9482084437631
 20
41.61393274938511
 30
0.0
 10
221.3647624104721
 20
42.15015466475254
 30
0.0
 10
220.9887567739927
 20
42.67000937755032
 30
0.0
 10
220.7387412583002
 20
43.01567372801645
 30
0.0
  0
SPLINE
  5
221
330
1F
100
AcDbEntity
  8
0
  6
Continuous
 62
     7
370
    15
100
AcDbSpline
210
0.0
220
0.0
230
1.0
 70
     8
 71
     3
 72
    11
 73
     7
 74
     0
 42
0.000000001
 43
0.00000001
 40
0.0
 40
0.0
 40
0.0
 40
0.0
 40
0.3181896031106202
 40
0.6363835945902663
 40
0.9546140302544499
 40
1.0
 40
1.0
 40
1.0
 40
1.0
 10
256.7472283505692
 20
34.77282166427878
 30
0.0
 10
256.6883527588478
 20
34.78729521597778
 30
0.0
 10
256.5706007634117
 20
34.81624251899038
 30
0.0
 10
256.4619699288935
 20
34.97708962266423
 30
0.0
 10
256.4102968254911
 20
35.1293861893861
 30
0.0
 10
256.4223774429281
 20
35.22972064443942
 30
0.0
 10
256.4238853246665
 20
35.24224421728636
 30
0.0
  0
LINE
  5
222
330
1F
100
AcDbEntity
  8
0
  6
Continuous
 62
     7
370
    15
100
AcDbLine
 10
256.7472283506
 20
34.7728216643
 30
0.0
 11
256.8179390287
 21
34.5089314302
 31
0.0
  0
SPLINE
  5
223
330
1F
100
AcDbEntity
  8
0
  6
Continuous
 62
     7
370
    15
100
AcDbSpline
210
0.0
220
0.0
230
1.0
 70
     8
 71
     3
 72
    13
 73
     9
 74
     0
 42
0.000000001
 43
0.00000001
 40
0.0
 40
0.0
 40
0.0
 40
0.0
 40
0.025891923141577
 40
0.1696830046691283
 40
0.4126293652214255
 40
0.6359608222542281
 40
0.8646460999935869
 40
1.0
 40
1.0
 40
1.0
 40
1.0
 10
257.8027930674656
 20
37.31084533485992
 30
0.0
 10
257.802754308427
 20
37.31028959182381
 30
0.0
 10
257.8025003006393
 20
37.30664752369025
 30
0.0
 10
257.7907266699461
 20
37.28613112552313
 30
0.0
 10
257.7681067757058
 20
37.25190479342991
 30
0.0
 10
257.7351364790424
 20
37.2073707540854
 30
0.0
 10
257.7052088872589
 20
37.16873518846972
 30
0.0
 10
257.6857734655555
 20
37.14444277946795
 30
0.0
 10
257.6785471550739
 20
37.13541058595708
 30
0.0
  0
SPLINE
  5
224
330
1F
100
AcDbEntity
  8
0
  6
Continuous
 62
     7
370
    15
100
AcDbSpline
210
0.0
220
0.0
230
1.0
 70
     8
 71
     3
 72
    16
 73
    12
 74
     0
 42
0.000000001
 43
0.00000001
 40
0.0
 40
0.0
 40
0.0
 40
0.0
 40
0.249999999999996
 40
0.249999999999996
 40
0.499999999999992
 40
0.499999999999992
 40
0.62499999999999
 40
0.62499999999999
 40
0.749999999999988
 40
0.749999999999988
 40
1.0
 40
1.0
 40
1.0
 40
1.0
 10
262.515747883075
 20
39.92786334495841
 30
0.0
 10
262.4915397563797
 20
39.93001953363908
 30
0.0
 10
262.4652094149766
 20
39.93100300583178
 30
0.0
 10
262.404808638263
 20
39.92869571821168
 30
0.0
 10
262.3694258627695
 20
39.92534082125965
 30
0.0
 10
262.3124574587008
 20
39.91277239375665
 30
0.0
 10
262.2927155831676
 20
39.90715637029783
 30
0.0
 10
262.2571746604359
 20
39.89407722263735
 30
0.0
 10
262.2417926313901
 20
39.88684513226755
 30
0.0
 10
262.203644213927
 20
39.86551913488896
 30
0.0
 10
262.1874823554062
 20
39.85163072043642
 30
0.0
 10
262.1751729475737
 20
39.8385705511874
 30
0.0
  0
SPLINE
  5
225
330
1F
100
AcDbEntity
  8
0
  6
Continuous
 62
     7
370
    15
100
AcDbSpline
210
0.0
220
0.0
230
1.0
 70
     8
 71
     3
 72
     8
 73
     4
 74
     0
 42
0.000000001
 43
0.00000001
 40
0.0
 40
0.0
 40
0.0
 40
0.0
 40
1.0
 40
1.0
 40
1.0
 40
1.0
 10
262.1751729475778
 20
39.83857055118197
 30
0.0
 10
262.1427000652127
 20
39.85163291344761
 30
0.0
 10
262.1104292725742
 20
39.86652530583215
 30
0.0
 10
262.0851519566194
 20
39.88111758972732
 30
0.0
  0
LINE
  5
226
330
1F
100
AcDbEntity
  8
0
  6
Continuous
 62
     7
370
    15
100
AcDbLine
 10
261.6348724742
 20
40.3334695696
 30
0.0
 11
261.5502328162
 21
40.3778181458
 31
0.0
  0
LINE
  5
227
330
1F
100
AcDbEntity
  8
0
  6
Continuous
 62
     7
370
    15
100
AcDbLine
 10
261.0708005662
 20
40.4666901832
 30
0.0
 11
262.0851519566
 21
39.8811175897
 31
0.0
  0
ARC
  5
228
330
1F
100
AcDbEntity
  8
0
  6
Continuous
 62
     7
370
    15
100
AcDbCircle
 10
255.8556723538
 20
40.0508377202
 30
0.0
 40
4.274415168451
100
AcDbArc
 50
339.437603402
 51
1.8602812531
  0
LINE
  5
229
330
1F
100
AcDbEntity
  8
0
  6
Continuous
 62
     7
370
    15
100
AcDbLine
 10
259.8577655959
 20
38.5495467043
 30
0.0
 11
262.0851519566
 21
37.2637039282
 31
0.0
  0
LINE
  5
22A
330
1F
100
AcDbEntity
  8
0
  6
Continuous
 62
     7
370
    15
100
AcDbLine
 10
258.13515691
 20
34.2711275329
 30
0.0
 11
258.2198221799
 21
34.2267668426
 31
0.0
  0
LINE
  5
22B
330
1F
100
AcDbEntity
  8
0
  6
Continuous
 62
     7
370
    15
100
AcDbLine
 10
256.4808859145
 20
35.4185290187
 30
0.0
 11
257.6848774275
 21
34.7234795128
 31
0.0
  0
LWPOLYLINE
  5
22C
330
1F
100
AcDbEntity
  8
0
  6
Continuous
 62
     7
370
    15
100
AcDbPolyline
 90
       14
 70
   128
 43
0.0
 10
258.6867746682
 20
43.0366144427
 10
258.7641972075
 20
43.1060654557
 10
258.8955837528
 20
43.3323646283
 10
258.8764898292
 20
43.5707817217
 10
258.709494177
 20
43.7891171863
 10
258.4171504843
 20
43.9578836078
 10
258.0389413867
 20
44.0542881458
 10
257.6259461187
 20
44.0653108332
 10
257.2339419797
 20
43.9894629951
 10
256.9158713007
 20
43.8369883023
 10
256.7146912895
 20
43.6284793068
 10
256.6575724214
 20
43.392096304
 10
256.752228916
 20
43.1597641283
 10
256.8453817865
 20
43.0617833345
  0
SPLINE
  5
22D
330
1F
100
AcDbEntity
  8
0
  6
Continuous
 62
     7
370
    15
100
AcDbSpline
210
0.0
220
0.0
230
1.0
 70
     8
 71
     3
 72
    14
 73
    10
 74
     0
 42
0.000000001
 43
0.00000001
 40
0.0
 40
0.0
 40
0.0
 40
0.0
 40
0.25
 40
0.25
 40
0.5
 40
0.5
 40
0.75
 40
0.75
 40
1.0
 40
1.0
 40
1.0
 40
1.0
 10
267.8540355865813
 20
48.61700961042798
 30
0.0
 10
267.9007176229199
 20
48.59006064447455
 30
0.0
 10
267.938404237526
 20
48.55695392032342
 30
0.0
 10
267.9872757162804
 20
48.48634534726089
 30
0.0
 10
267.9993769466802
 20
48.44784977287082
 30
0.0
 10
267.997207335125
 20
48.37189165867543
 30
0.0
 10
267.982966921043
 20
48.33369795108308
 30
0.0
 10
267.9311154784534
 20
48.26370330215801
 30
0.0
 10
267.8934089383498
 20
48.23153530667624
 30
0.0
 10
267.8465915076324
 20
48.20450817921164
 30
0.0
  0
ARC
  5
22E
330
1F
100
AcDbEntity
  8
0
  6
Continuous
 62
     7
370
    15
100
AcDbCircle
 10
242.323374824
 20
28.4792560206
 30
0.0
 40
8.574486537185479
100
AcDbArc
 50
219.7751913043
 51
260.015632353
  0
SPLINE
  5
22F
330
1F
100
AcDbEntity
  8
0
  6
Continuous
 62
     7
370
    15
100
AcDbSpline
210
0.0
220
0.0
230
1.0
 70
     8
 71
     3
 72
    14
 73
    10
 74
     0
 42
0.000000001
 43
0.00000001
 40
0.0
 40
0.0
 40
0.0
 40
0.0
 40
0.25
 40
0.25
 40
0.5
 40
0.5
 40
0.75
 40
0.75
 40
1.0
 40
1.0
 40
1.0
 40
1.0
 10
233.2889631499119
 20
28.25474761944926
 30
0.0
 10
233.3361843133355
 20
28.22748742205442
 30
0.0
 10
233.3924710727669
 20
28.20620549053027
 30
0.0
 10
233.5159004208402
 20
28.17785086069915
 30
0.0
 10
233.5825537443001
 20
28.17100747835899
 30
0.0
 10
233.7146786212418
 20
28.17248959398818
 30
0.0
 10
233.7810379772265
 20
28.18088012567438
 30
0.0
 10
233.9022922093473
 20
28.21099844914576
 30
0.0
 10
233.9584033118245
 20
28.23300314298657
 30
0.0
 10
234.0051378853519
 20
28.25998243801352
 30
0.0
  0
LINE
  5
230
330
1F
100
AcDbEntity
  8
0
  6
Continuous
 62
     7
370
    15
100
AcDbLine
 10
231.6315151153
 20
29.2115720033
 30
0.0
 11
233.2889631499
 21
28.2547476194
 31
0.0
  0
SPLINE
  5
231
330
1F
100
AcDbEntity
  8
0
  6
Continuous
 62
     7
370
    15
100
AcDbSpline
210
0.0
220
0.0
230
1.0
 70
     8
 71
     3
 72
     8
 73
     4
 74
     0
 42
0.000000001
 43
0.00000001
 40
0.0
 40
0.0
 40
0.0
 40
0.0
 40
1.0
 40
1.0
 40
1.0
 40
1.0
 10
232.0033034763147
 20
29.97810458566227
 30
0.0
 10
231.8791253084298
 20
29.72263378643619
 30
0.0
 10
231.7552076082879
 20
29.46712093976323
 30
0.0
 10
231.6315151152558
 20
29.21157200327657
 30
0.0
  0
LINE
  5
232
330
1F
100
AcDbEntity
  8
0
  6
Continuous
 62
     7
370
    15
100
AcDbLine
 10
232.324404026
 20
30.1634719874
 30
0.0
 11
232.0033034763
 21
29.9781045857
 31
0.0
  0
SPLINE
  5
233
330
1F
100
AcDbEntity
  8
0
  6
Continuous
 62
     7
370
    15
100
AcDbSpline
210
0.0
220
0.0
230
1.0
 70
     8
 71
     3
 72
    12
 73
     8
 74
     0
 42
0.000000001
 43
0.00000001
 40
0.0
 40
0.0
 40
0.0
 40
0.0
 40
0.2499999999999986
 40
0.2499999999999986
 40
0.4999999999999971
 40
0.4999999999999971
 40
1.0
 40
1.0
 40
1.0
 40
1.0
 10
232.3327137060576
 20
30.49483230825723
 30
0.0
 10
232.3701057436405
 20
30.47324634443079
 30
0.0
 10
232.400316216958
 20
30.44660549164072
 30
0.0
 10
232.4392155869674
 20
30.38962728833492
 30
0.0
 10
232.4485459528974
 20
30.35873571865811
 30
0.0
 10
232.4449408894835
 20
30.26717937709603
 30
0.0
 10
232.3993358645719
 20
30.20672921699102
 30
0.0
 10
232.3244040260451
 20
30.16347198736554
 30
0.0
  0
LINE
  5
234
330
1F
100
AcDbEntity
  8
0
  6
Continuous
 62
     7
370
    15
100
AcDbLine
 10
231.5478251789
 20
30.9479388103
 30
0.0
 11
232.3327137061
 21
30.4948323083
 31
0.0
  0
SPLINE
  5
235
330
1F
100
AcDbEntity
  8
0
  6
Continuous
 62
     7
370
    15
100
AcDbSpline
210
0.0
220
0.0
230
1.0
 70
     8
 71
     3
 72
    14
 73
    10
 74
     0
 42
0.000000001
 43
0.00000001
 40
0.0
 40
0.0
 40
0.0
 40
0.0
 40
0.25
 40
0.25
 40
0.5
 40
0.5
 40
0.75
 40
0.75
 40
1.0
 40
1.0
 40
1.0
 40
1.0
 10
230.9738300739788
 20
30.94314173415627
 30
0.0
 10
231.0116758717573
 20
30.96498964816788
 30
0.0
 10
231.0559947889053
 20
30.9823622929568
 30
0.0
 10
231.1536963254574
 20
31.00672376764867
 30
0.0
 10
231.2064494570692
 20
31.01343773218022
 30
0.0
 10
231.3124028142976
 20
31.01479518176623
 30
0.0
 10
231.365767100593
 20
31.00941748062714
 30
0.0
 10
231.4649448753647
 20
30.9867765371113
 30
0.0
 10
231.5099517687659
 20
30.96980266462743
 30
0.0
 10
231.5478251789406
 20
30.94793881031883
 30
0.0
  0
LINE
  5
236
330
1F
100
AcDbEntity
  8
0
  6
Continuous
 62
     7
370
    15
100
AcDbLine
 10
230.6527295242
 20
30.7577743325
 30
0.0
 11
230.973830074
 21
30.9431417342
 31
0.0
  0
SPLINE
  5
237
330
1F
100
AcDbEntity
  8
0
  6
Continuous
 62
     7
370
    15
100
AcDbSpline
210
0.0
220
0.0
230
1.0
 70
     8
 71
     3
 72
     8
 73
     4
 74
     0
 42
0.000000001
 43
0.00000001
 40
0.0
 40
0.0
 40
0.0
 40
0.0
 40
1.0
 40
1.0
 40
1.0
 40
1.0
 10
229.3249122741349
 20
30.54314548011722
 30
0.0
 10
229.7675839803513
 20
30.61455163642193
 30
0.0
 10
230.210193170403
 20
30.6860878020237
 30
0.0
 10
230.6527295242484
 20
30.75777433245295
 30
0.0
  0
LINE
  5
238
330
1F
100
AcDbEntity
  8
0
  6
Continuous
 62
     7
370
    15
100
AcDbLine
 10
228.6927690722
 20
30.9080739829
 30
0.0
 11
230.4163395861
 21
31.9030700615
 31
0.0
  0
LINE
  5
239
330
1F
100
AcDbEntity
  8
0
  6
Continuous
 62
     7
370
    15
100
AcDbLine
 10
266.4080747485
 20
49.4517450344
 30
0.0
 11
267.8540355866
 21
48.6170096104
 31
0.0
  0
ARC
  5
23A
330
1F
100
AcDbEntity
  8
0
  6
Continuous
 62
     7
370
    15
100
AcDbCircle
 10
242.0192526548
 20
30.8879128623
 30
0.0
 40
10.52212953095433
100
AcDbArc
 50
189.1671816022
 51
237.5734356253
  0
LINE
  5
23B
330
1F
100
AcDbEntity
  8
0
  6
Continuous
 62
     7
370
    15
100
AcDbLine
 10
224.7276658851
 20
36.7838132544
 30
0.0
 11
226.8808056802
 21
38.0267944005
 31
0.0
  0
LINE
  5
23C
330
1F
100
AcDbEntity
  8
0
  6
Continuous
 62
     7
370
    15
100
AcDbLine
 10
257.7362777928
 20
34.6843857401
 30
0.0
 11
256.7472283506
 21
34.7728216643
 31
0.0
  0
SPLINE
  5
23D
330
1F
100
AcDbEntity
  8
0
  6
Continuous
 62
     7
370
    15
100
AcDbSpline
210
0.0
220
0.0
230
1.0
 70
     8
 71
     3
 72
    16
 73
    12
 74
     0
 42
0.000000001
 43
0.00000001
 40
0.0
 40
0.0
 40
0.0
 40
0.0
 40
0.2500000000000037
 40
0.2500000000000037
 40
0.5000000000000074
 40
0.5000000000000074
 40
0.6250000000000093
 40
0.6250000000000093
 40
0.7500000000000111
 40
0.7500000000000111
 40
1.0
 40
1.0
 40
1.0
 40
1.0
 10
257.6784473290055
 20
34.43198902118158
 30
0.0
 10
257.7025001513893
 20
34.42983833640831
 30
0.0
 10
257.7260013314976
 20
34.4307068932515
 30
0.0
 10
257.7682508481093
 20
34.44354048385933
 30
0.0
 10
257.7882086256814
 20
34.45583323276558
 30
0.0
 10
257.8033839280437
 20
34.49229493134429
 30
0.0
 10
257.8056953104954
 20
34.50790583198457
 30
0.0
 10
257.8028563267265
 20
34.54305275670162
 30
0.0
 10
257.7978823147629
 20
34.56212683568407
 30
0.0
 10
257.7775174176904
 20
34.61728023834178
 30
0.0
 10
257.7573836048889
 20
34.65211168415978
 30
0.0
 10
257.7362777928257
 20
34.68438574014782
 30
0.0
  0
SPLINE
  5
23E
330
1F
100
AcDbEntity
  8
0
  6
Continuous
 62
     7
370
    15
100
AcDbSpline
210
0.0
220
0.0
230
1.0
 70
     8
 71
     3
 72
     8
 73
     4
 74
     0
 42
0.000000001
 43
0.00000001
 40
0.0
 40
0.0
 40
0.0
 40
0.0
 40
1.0
 40
1.0
 40
1.0
 40
1.0
 10
257.6848774275491
 20
34.72347951278378
 30
0.0
 10
257.7102293564183
 20
34.7088441557699
 30
0.0
 10
257.7270341556466
 20
34.69544995467516
 30
0.0
 10
257.7362777928262
 20
34.68438574014761
 30
0.0
  0
SPLINE
  5
23F
330
1F
100
AcDbEntity
  8
0
  6
Continuous
 62
     7
370
    15
100
AcDbSpline
210
0.0
220
0.0
230
1.0
 70
     8
 71
     3
 72
     8
 73
     4
 74
     0
 42
0.000000001
 43
0.00000001
 40
0.0
 40
0.0
 40
0.0
 40
0.0
 40
1.0
 40
1.0
 40
1.0
 40
1.0
 10
262.0851519566199
 20
37.26370392821936
 30
0.0
 10
262.110503885489
 20
37.24906857120556
 30
0.0
 10
262.1424478692915
 20
37.24441403533658
 30
0.0
 10
262.1751729475808
 20
37.24690536822379
 30
0.0
  0
SPLINE
  5
240
330
1F
100
AcDbEntity
  8
0
  6
Continuous
 62
     7
370
    15
100
AcDbSpline
210
0.0
220
0.0
230
1.0
 70
     8
 71
     3
 72
    16
 73
    12
 74
     0
 42
0.000000001
 43
0.00000001
 40
0.0
 40
0.0
 40
0.0
 40
0.0
 40
0.2499999999999889
 40
0.2499999999999889
 40
0.3749999999999907
 40
0.3749999999999907
 40
0.4999999999999925
 40
0.4999999999999925
 40
0.7499999999999962
 40
0.7499999999999962
 40
1.0
 40
1.0
 40
1.0
 40
1.0
 10
262.1751729475806
 20
37.24690536822438
 30
0.0
 10
262.1873921660836
 20
37.2096596513535
 30
0.0
 10
262.2034608706979
 20
37.17254874360269
 30
0.0
 10
262.2417559588569
 20
37.12754177209111
 30
0.0
 10
262.2572130542101
 20
37.11457393427637
 30
0.0
 10
262.292520883991
 20
37.09829157652797
 30
0.0
 10
262.3121042458363
 20
37.09529495801368
 30
0.0
 10
262.3694050213076
 20
37.10032871797254
 30
0.0
 10
262.4044753186605
 20
37.11997226372252
 30
0.0
 10
262.4649960772127
 20
37.16645502369664
 30
0.0
 10
262.4918211812744
 20
37.194673103722
 30
0.0
 10
262.5158461238757
 20
37.2245599039173
 30
0.0
  0
ARC
  5
241
330
1F
100
AcDbEntity
  8
0
  6
Continuous
 62
     7
370
    15
100
AcDbCircle
 10
242.2790977436
 20
33.269786473
 30
0.0
 40
11.89464766047125
100
AcDbArc
 50
192.1920072326
 51
214.8828158913
  0
LINE
  5
242
330
1F
100
AcDbEntity
  8
0
  6
Continuous
 62
     7
370
    15
100
AcDbLine
 10
263.3763544242
 20
38.2950240488
 30
0.0
 11
263.1642223898
 21
38.4772734717
 31
0.0
  0
SPLINE
  5
243
330
1F
100
AcDbEntity
  8
0
  6
Continuous
 62
     7
370
    15
100
AcDbSpline
210
0.0
220
0.0
230
1.0
 70
     8
 71
     3
 72
    22
 73
    18
 74
     0
 42
0.000000001
 43
0.00000001
 40
0.0
 40
0.0
 40
0.0
 40
0.0
 40
0.125
 40
0.125
 40
0.2500000000000001
 40
0.2500000000000001
 40
0.3750000000000001
 40
0.3750000000000001
 40
0.5000000000000001
 40
0.5000000000000001
 40
0.6250000000000001
 40
0.6250000000000001
 40
0.7500000000000002
 40
0.7500000000000002
 40
0.8750000000000001
 40
0.8750000000000001
 40
1.0
 40
1.0
 40
1.0
 40
1.0
 10
263.1642223898372
 20
38.47727347167432
 30
0.0
 10
263.2127713685288
 20
38.5376679396203
 30
0.0
 10
263.2566655409182
 20
38.60187344817719
 30
0.0
 10
263.3342590039883
 20
38.73834334061166
 30
0.0
 10
263.3678178878959
 20
38.8103056274132
 30
0.0
 10
263.4210204747226
 20
38.95394131076542
 30
0.0
 10
263.4413120186973
 20
39.02765024679697
 30
0.0
 10
263.4673295302018
 20
39.1691601527974
 30
0.0
 10
263.4734172620755
 20
39.23816309540988
 30
0.0
 10
263.4717894346448
 20
39.36786797289768
 30
0.0
 10
263.4642638905239
 20
39.42716989898202
 30
0.0
 10
263.4362149875735
 20
39.53446023374207
 30
0.0
 10
263.4158081239891
 20
39.58122597614483
 30
0.0
 10
263.3634665254176
 20
39.6583390217858
 30
0.0
 10
263.3309122269173
 20
39.68924352458662
 30
0.0
 10
263.2559688427942
 20
39.73260951626024
 30
0.0
 10
263.2127765502265
 20
39.74579315600206
 30
0.0
 10
263.1642223858052
 20
39.75013462937761
 30
0.0
  0
LINE
  5
244
330
1F
100
AcDbEntity
  8
0
  6
Continuous
 62
     7
370
    15
100
AcDbLine
 10
263.1642223858
 20
39.7501346294
 30
0.0
 11
262.1751729476
 21
39.8385705512
 31
0.0
  0
SPLINE
  5
245
330
1F
100
AcDbEntity
  8
0
  6
Continuous
 62
     7
370
    15
100
AcDbSpline
210
0.0
220
0.0
230
1.0
 70
     8
 71
     3
 72
    18
 73
    14
 74
     0
 42
0.000000001
 43
0.00000001
 40
0.0
 40
0.0
 40
0.0
 40
0.0
 40
0.0469134848940677
 40
0.1092039975347411
 40
0.1719686045268949
 40
0.2915643215408846
 40
0.4146146813654859
 40
0.5345693647053555
 40
0.657897653144222
 40
0.7797298822106778
 40
0.905055835531778
 40
0.9660901283027388
 40
1.0
 40
1.0
 40
1.0
 40
1.0
 10
222.1330379403447
 20
46.68704300797629
 30
0.0
 10
222.1236979375334
 20
46.63915012468188
 30
0.0
 10
222.1019565204061
 20
46.52766630886595
 30
0.0
 10
222.0887064522543
 20
46.34090156887042
 30
0.0
 10
222.0912233376047
 20
46.06660427468625
 30
0.0
 10
222.1392251023651
 20
45.70830762102646
 30
0.0
 10
222.2628949875939
 20
45.2713361016654
 30
0.0
 10
222.4503369513633
 20
44.82930902696881
 30
0.0
 10
222.6920654216595
 20
44.39885849469429
 30
0.0
 10
222.9837104925542
 20
43.98232434402892
 30
0.0
 10
223.2570707453719
 20
43.66195972868406
 30
0.0
 10
223.4622301869608
 20
43.44861728825623
 30
0.0
 10
223.5534625043337
 20
43.36387741505085
 30
0.0
 10
223.5860466678164
 20
43.33361206652594
 30
0.0
  0
LINE
  5
246
330
1F
100
AcDbEntity
  8
0
  6
Continuous
 62
     7
370
    15
100
AcDbLine
 10
262.1751729476
 20
37.2469053682
 30
0.0
 11
263.1642223898
 21
38.4772734717
 31
0.0
  0
ARC
  5
247
330
1F
100
AcDbEntity
  8
0
  6
Continuous
 62
     7
370
    15
100
AcDbCircle
 10
259.7062216849
 20
40.7411262104
 30
0.0
 40
1.491207826003757
100
AcDbArc
 50
321.0621655031
 51
347.3474134538
  0
LINE
  5
248
330
1F
100
AcDbEntity
  8
0
  6
Continuous
 62
     7
370
    15
100
AcDbLine
 10
260.866125351
 20
39.8039366534
 30
0.0
 11
263.1642223898
 21
38.4772734717
 31
0.0
  0
LINE
  5
249
330
1F
100
AcDbEntity
  8
0
  6
Continuous
 62
     7
370
    15
100
AcDbLine
 10
259.8577655959
 20
38.5495467043
 30
0.0
 11
260.866125351
 21
39.8039366534
 31
0.0
  0
SPLINE
  5
24A
330
1F
100
AcDbEntity
  8
0
  6
Continuous
 62
     7
370
    15
100
AcDbSpline
210
0.0
220
0.0
230
1.0
 70
     8
 71
     3
 72
    15
 73
    11
 74
     0
 42
0.000000001
 43
0.00000001
 40
0.0
 40
0.0
 40
0.0
 40
0.0
 40
0.1886106556571769
 40
0.3628651427578191
 40
0.5228663787835973
 40
0.6687520192194106
 40
0.744877357493777
 40
0.826078095871323
 40
0.9123747353509005
 40
1.0
 40
1.0
 40
1.0
 40
1.0
 10
221.0290547108354
 20
43.19808413122745
 30
0.0
 10
221.1554737921904
 20
43.01507441582246
 30
0.0
 10
221.3986895206092
 20
42.66298483596753
 30
0.0
 10
221.8050577446438
 20
42.22089828972467
 30
0.0
 10
222.1910400463167
 20
41.87567697711643
 30
0.0
 10
222.4979430878804
 20
41.65522400062048
 30
0.0
 10
222.7327971892365
 20
41.51394600239543
 30
0.0
 10
222.9160375556002
 20
41.42146496369793
 30
0.0
 10
223.1014602727604
 20
41.34647377195186
 30
0.0
 10
223.2194439645119
 20
41.31834523572979
 30
0.0
 10
223.2788864612221
 20
41.30417352778422
 30
0.0
  0
SPLINE
  5
24B
330
1F
100
AcDbEntity
  8
0
  6
Continuous
 62
     7
370
    15
100
AcDbSpline
210
0.0
220
0.0
230
1.0
 70
     8
 71
     3
 72
    22
 73
    18
 74
     0
 42
0.000000001
 43
0.00000001
 40
0.0
 40
0.0
 40
0.0
 40
0.0
 40
0.1402864692907324
 40
0.2282537884295858
 40
0.2750030522914542
 40
0.323565055054008
 40
0.3962761026350631
 40
0.4526559277739687
 40
0.4926849906388197
 40
0.5822231041263358
 40
0.6617017271911216
 40
0.700226200977229
 40
0.7412752563996583
 40
0.7848545772578678
 40
0.8309688324369418
 40
0.897593496058984
 40
0.9999999999999999
 40
0.9999999999999999
 40
0.9999999999999999
 40
0.9999999999999999
 10
222.4891488374614
 20
46.54829973027123
 30
0.0
 10
222.2644337722529
 20
46.65956196630265
 30
0.0
 10
221.8988100224332
 20
46.84059173354758
 30
0.0
 10
221.4776316274795
 20
46.82428172343465
 30
0.0
 10
221.2186211557639
 20
46.75897812750417
 30
0.0
 10
220.9966279467863
 20
46.65695018471032
 30
0.0
 10
220.7895877906182
 20
46.49815204755087
 30
0.0
 10
220.6278083424545
 20
46.29992132235882
 30
0.0
 10
220.481534636069
 20
46.04693655940913
 30
0.0
 10
220.3695040534844
 20
45.71361956124993
 30
0.0
 10
220.3321889510368
 20
45.33422489912466
 30
0.0
 10
220.3456334162238
 20
45.02658358471025
 30
0.0
 10
220.3773462407472
 20
44.78099662885163
 30
0.0
 10
220.4341743641797
 20
44.51416586238678
 30
0.0
 10
220.5308661648689
 20
44.19087467491881
 30
0.0
 10
220.7078305402119
 20
43.74237878433336
 30
0.0
 10
220.9078650317734
 20
43.40343260857588
 30
0.0
 10
221.0290547108354
 20
43.19808413122746
 30
0.0
  0
SPLINE
  5
24C
330
1F
100
AcDbEntity
  8
0
  6
Continuous
 62
     7
370
    15
100
AcDbSpline
210
0.0
220
0.0
230
1.0
 70
     8
 71
     3
 72
     9
 73
     5
 74
     0
 42
0.000000001
 43
0.00000001
 40
0.0
 40
0.0
 40
0.0
 40
0.0
 40
0.1883699358114506
 40
1.0
 40
1.0
 40
1.0
 40
1.0
 10
261.9709796965849
 20
64.2572393041277
 30
0.0
 10
262.0133557387109
 20
64.26677180371958
 30
0.0
 10
262.2383175509208
 20
64.31737701070668
 30
0.0
 10
262.4640848774763
 20
64.36677577163756
 30
0.0
 10
262.6473244272203
 20
64.40686929114273
 30
0.0
  0
LINE
  5
24D
330
1F
100
AcDbEntity
  8
0
  6
Continuous
 62
     7
370
    15
100
AcDbLine
 10
262.6473244272
 20
64.4068692911
 30
0.0
 11
264.3047724619
 21
63.4500449073
 31
0.0
  0
SPLINE
  5
24E
330
1F
100
AcDbEntity
  8
0
  6
Continuous
 62
     7
370
    15
100
AcDbSpline
210
0.0
220
0.0
230
1.0
 70
     8
 71
     3
 72
    16
 73
    12
 74
     0
 42
0.000000001
 43
0.00000001
 40
0.0
 40
0.0
 40
0.0
 40
0.0
 40
0.1249999999999996
 40
0.1249999999999996
 40
0.2499999999999992
 40
0.2499999999999992
 40
0.4999999999999994
 40
0.4999999999999994
 40
0.7499999999999997
 40
0.7499999999999997
 40
1.0
 40
1.0
 40
1.0
 40
1.0
 10
264.3047724618764
 20
63.45004490731542
 30
0.0
 10
264.3315144294348
 20
63.43460709804697
 30
0.0
 10
264.3544850280812
 20
63.41671537863973
 30
0.0
 10
264.3904619802053
 20
63.3785353820946
 30
0.0
 10
264.4037245189843
 20
63.35825156462401
 30
0.0
 10
264.43047962969
 20
63.29412523332932
 30
0.0
 10
264.4296626244296
 20
63.24963238170016
 30
0.0
 10
264.4015822341833
 20
63.16455268935631
 30
0.0
 10
264.3740128792588
 20
63.12317983331
 30
0.0
 10
264.3008387234994
 20
63.04774870060205
 30
0.0
 10
264.2546048850867
 20
63.01287972577828
 30
0.0
 10
264.2014411001585
 20
62.98218892601123
 30
0.0
  0
LINE
  5
24F
330
1F
100
AcDbEntity
  8
0
  6
Continuous
 62
     7
370
    15
100
AcDbLine
 10
214.9177238452
 20
49.1585936754
 30
0.0
 11
215.5404973764
 21
48.7990741684
 31
0.0
  0
SPLINE
  5
250
330
1F
100
AcDbEntity
  8
0
  6
Continuous
 62
     7
370
    15
100
AcDbSpline
210
0.0
220
0.0
230
1.0
 70
     8
 71
     3
 72
    14
 73
    10
 74
     0
 42
0.000000001
 43
0.00000001
 40
0.0
 40
0.0
 40
0.0
 40
0.0
 40
0.0464345134520975
 40
0.2343277269788911
 40
0.4276886329341998
 40
0.6151164973765246
 40
0.808134267695362
 40
0.9928011211996882
 40
1.0
 40
1.0
 40
1.0
 40
1.0
 10
267.8465915076324
 20
56.36991629806914
 30
0.0
 10
267.8515667294765
 20
56.37286350007547
 30
0.0
 10
267.8766737530947
 20
56.38773629825401
 30
0.0
 10
267.9170580912391
 20
56.41790611789994
 30
0.0
 10
267.9584877240991
 20
56.4624856342898
 30
0.0
 10
267.9868989925485
 20
56.51098722263062
 30
0.0
 10
267.9986391314409
 20
56.56061515810463
 30
0.0
 10
268.0008903788582
 20
56.59521090127362
 30
0.0
 10
267.9951522690405
 20
56.61189152969851
 30
0.0
 10
267.9949369728715
 20
56.61251739352997
 30
0.0
  0
LINE
  5
251
330
1F
100
AcDbEntity
  8
0
  6
Continuous
 62
     7
370
    15
100
AcDbLine
 10
212.265732674
 20
58.8400249013
 30
0.0
 11
212.2814775258
 21
58.8873565579
 31
0.0
  0
LWPOLYLINE
  5
252
330
1F
100
AcDbEntity
  8
0
  6
Continuous
 62
     7
370
    15
100
AcDbPolyline
 90
       11
 70
   128
 43
0.0
 10
212.3076551441
 20
58.9660508544
 10
212.3129803114
 20
58.9820591973
 10
212.330148461
 20
59.0238051123
 10
212.3384391501
 20
59.0369787589
 10
212.3427210737
 20
59.0359636406
 10
212.3438864298
 20
59.0220707007
 10
212.3414119469
 20
58.9922192057
 10
212.3317887031
 20
58.9272785958
 10
212.2912633012
 20
58.716406365
 10
212.2803538964
 20
58.6642987111
 10
212.2803538964
 20
58.6642987111
  0
SPLINE
  5
253
330
1F
100
AcDbEntity
  8
0
  6
Continuous
 62
     7
370
    15
100
AcDbSpline
210
0.0
220
0.0
230
1.0
 70
     8
 71
     3
 72
     9
 73
     5
 74
     0
 42
0.000000001
 43
0.00000001
 40
0.0
 40
0.0
 40
0.0
 40
0.0
 40
0.77665218469388
 40
1.0
 40
1.0
 40
1.0
 40
1.0
 10
212.2145691397015
 20
58.40182947124612
 30
0.0
 10
212.2113832718341
 20
58.51066528612701
 30
0.0
 10
212.2072812195509
 20
58.65079984961091
 30
0.0
 10
212.2550611343746
 20
58.80547789730461
 30
0.0
 10
212.2657326739659
 20
58.84002490133282
 30
0.0
  0
SPLINE
  5
254
330
1F
100
AcDbEntity
  8
0
  6
Continuous
 62
     7
370
    15
100
AcDbSpline
210
0.0
220
0.0
230
1.0
 70
     8
 71
     3
 72
     8
 73
     4
 74
     0
 42
0.000000001
 43
0.00000001
 40
0.0
 40
0.0
 40
0.0
 40
0.0
 40
1.0
 40
1.0
 40
1.0
 40
1.0
 10
212.1912685737618
 20
57.80339069690444
 30
0.0
 10
212.2198708693362
 20
57.80183728177091
 30
0.0
 10
212.2495672490738
 20
57.79545310380814
 30
0.0
 10
212.280497724132
 20
57.78239374712005
 30
0.0
  0
SPLINE
  5
255
330
1F
100
AcDbEntity
  8
0
  6
Continuous
 62
     7
370
    15
100
AcDbSpline
210
0.0
220
0.0
230
1.0
 70
     8
 71
     3
 72
    10
 73
     6
 74
     0
 42
0.000000001
 43
0.00000001
 40
0.0
 40
0.0
 40
0.0
 40
0.0
 40
0.4999999999999989
 40
0.4999999999999989
 40
1.0
 40
1.0
 40
1.0
 40
1.0
 10
212.2803538964286
 20
58.66429871109879
 30
0.0
 10
212.2503654265197
 20
58.5225078549288
 30
0.0
 10
212.2299321273332
 20
58.38025003888549
 30
0.0
 10
212.2012991401074
 20
58.09343977071573
 30
0.0
 10
212.1934280804609
 20
57.9489832375202
 30
0.0
 10
212.1912685737627
 20
57.80339069690073
 30
0.0
  0
ARC
  5
256
330
1F
100
AcDbEntity
  8
0
  6
Continuous
 62
     7
370
    15
100
AcDbCircle
 10
215.9930629016
 20
55.4068884843
 30
0.0
 40
0.8231425509804974
100
AcDbArc
 50
40.3517278188
 51
62.0985124778
  0
LINE
  5
257
330
1F
100
AcDbEntity
  8
0
  6
Continuous
 62
     7
370
    15
100
AcDbLine
 10
216.378254729
 20
56.1343435794
 30
0.0
 11
216.5260572236
 21
56.6885989771
 31
0.0
  0
LINE
  5
258
330
1F
100
AcDbEntity
  8
0
  6
Continuous
 62
     7
370
    15
100
AcDbLine
 10
216.378254729
 20
56.1343435794
 30
0.0
 11
215.1250351014
 21
56.857811871
 31
0.0
  0
ARC
  5
259
330
1F
100
AcDbEntity
  8
0
  6
Continuous
 62
     7
370
    15
100
AcDbCircle
 10
213.4106013429
 20
57.6353364587
 30
0.0
 40
1.230859305078058
100
AcDbArc
 50
172.152662553
 51
234.515109951
  0
LINE
  5
25A
330
1F
100
AcDbEntity
  8
0
  6
Continuous
 62
     7
370
    15
100
AcDbLine
 10
212.2803538964
 20
58.6642987111
 30
0.0
 11
212.265732674
 21
58.8400249013
 31
0.0
  0
ARC
  5
25B
330
1F
100
AcDbEntity
  8
0
  6
Continuous
 62
     7
370
    15
100
AcDbCircle
 10
216.0966041462
 20
42.1054474434
 30
0.0
 40
0.5806344198073099
100
AcDbArc
 50
25.5708468831
 51
60.9826879702
  0
SPLINE
  5
25C
330
1F
100
AcDbEntity
  8
0
  6
Continuous
 62
     7
370
    15
100
AcDbSpline
210
0.0
220
0.0
230
1.0
 70
     8
 71
     3
 72
     8
 73
     4
 74
     0
 42
0.000000001
 43
0.00000001
 40
0.0
 40
0.0
 40
0.0
 40
0.0
 40
1.0
 40
1.0
 40
1.0
 40
1.0
 10
212.1912685737625
 20
45.53947192933839
 30
0.0
 10
212.2198708693367
 20
45.50877452548027
 30
0.0
 10
212.249567249074
 20
45.4817210736298
 30
0.0
 10
212.280497724132
 20
45.45944977123474
 30
0.0
  0
ARC
  5
25D
330
1F
100
AcDbEntity
  8
0
  6
Continuous
 62
     7
370
    15
100
AcDbCircle
 10
215.92377021
 20
45.4319806633
 30
0.0
 40
3.73404912087573
100
AcDbArc
 50
122.5266432908
 51
178.3504108787
  0
LINE
  5
25E
330
1F
100
AcDbEntity
  8
0
  6
Continuous
 62
     7
370
    15
100
AcDbLine
 10
216.378254729
 20
42.6131966715
 30
0.0
 11
215.1250351014
 21
43.3366649631
 31
0.0
  0
LINE
  5
25F
330
1F
100
AcDbEntity
  8
0
  6
Continuous
 62
     7
370
    15
100
AcDbLine
 10
213.9160028471
 20
48.5803124523
 30
0.0
 11
214.9177238452
 21
49.1585936754
 31
0.0
  0
LINE
  5
260
330
1F
100
AcDbEntity
  8
0
  6
Continuous
 62
     7
370
    15
100
AcDbLine
 10
216.378254729
 20
42.6131966715
 30
0.0
 11
216.5260572236
 21
42.2295904017
 31
0.0
  0
SPLINE
  5
261
330
1F
100
AcDbEntity
  8
0
  6
Continuous
 62
     7
370
    15
100
AcDbSpline
210
0.0
220
0.0
230
1.0
 70
     8
 71
     3
 72
     9
 73
     5
 74
     0
 42
0.000000001
 43
0.00000001
 40
0.0
 40
0.0
 40
0.0
 40
0.0
 40
0.3901122753668738
 40
0.9999999999999999
 40
0.9999999999999999
 40
0.9999999999999999
 40
0.9999999999999999
 10
212.2250737435743
 20
46.60662276716535
 30
0.0
 10
212.2159965012865
 20
46.55983644402263
 30
0.0
 10
212.1927282196633
 20
46.43990603911877
 30
0.0
 10
212.2062949546001
 20
46.31905173885184
 30
0.0
 10
212.2145691397015
 20
46.24534418464992
 30
0.0
  0
ARC
  5
262
330
1F
100
AcDbEntity
  8
0
  6
Continuous
 62
     7
370
    15
100
AcDbCircle
 10
214.7086840788
 20
46.1191906811
 30
0.0
 40
2.530989991238575
100
AcDbArc
 50
122.9343892187
 51
168.8962877716
  0
LINE
  5
263
330
1F
100
AcDbEntity
  8
0
  6
Continuous
 62
     7
370
    15
100
AcDbLine
 10
213.9160028471
 20
48.5803124523
 30
0.0
 11
213.3326397527
 21
48.2434346286
 31
0.0
  0
SPLINE
  5
264
330
1F
100
AcDbEntity
  8
0
  6
Continuous
 62
     7
370
    15
100
AcDbSpline
210
0.0
220
0.0
230
1.0
 70
     8
 71
     3
 72
     9
 73
     5
 74
     0
 42
0.000000001
 43
0.00000001
 40
0.0
 40
0.0
 40
0.0
 40
0.0
 40
0.2365411664913156
 40
1.0
 40
1.0
 40
1.0
 40
1.0
 10
212.2359824338091
 20
45.39811796237147
 30
0.0
 10
212.2287536007669
 20
45.40811221346993
 30
0.0
 10
212.1981930300663
 20
45.45036384876331
 30
0.0
 10
212.1942663966956
 20
45.50089413553972
 30
0.0
 10
212.1912685737627
 20
45.53947192933889
 30
0.0
  0
ARC
  5
265
330
1F
100
AcDbEntity
  8
0
  6
Continuous
 62
     7
370
    15
100
AcDbCircle
 10
230.1622548101
 20
54.8559292385
 30
0.0
 40
38.26683465404699
100
AcDbArc
 50
331.1572136794
 51
349.9901859444
  0
LWPOLYLINE
  5
266
330
1F
100
AcDbEntity
  8
0
  6
Continuous
 62
     7
370
    15
100
AcDbPolyline
 90
       28
 70
   128
 43
0.0
 10
262.5688875033
 20
34.4675948654
 10
261.6247916622
 20
32.9963314418
 10
260.5411680742
 20
31.458799607
 10
259.3997104021
 20
29.9873917431
 10
258.2072566989
 20
28.5909225132
 10
256.970950516
 20
27.2777576506
 10
255.6981981088
 20
26.0557638428
 10
254.3966240686
 20
24.9322616051
 10
253.0740256467
 20
23.9139814259
 10
251.7383260434
 20
23.0070234473
 10
250.3975269438
 20
22.2168209207
 10
249.0596605818
 20
21.5481076587
 10
247.7327416225
 20
21.0048896764
 10
246.4247191492
 20
20.5904211928
 10
245.1434290432
 20
20.3071851361
 10
243.8965470421
 20
20.1568782694
 10
242.6915427572
 20
20.1404010258
 10
241.5356349258
 20
20.2578521143
 10
240.4357481664
 20
20.5085279287
 10
239.3984714958
 20
20.8909267625
 10
238.4300188569
 20
21.4027578049
 10
237.5361918931
 20
22.0409548644
 10
236.7223451929
 20
22.8016947375
 10
235.9933542125
 20
23.6804201112
 10
235.3535860684
 20
24.6718668654
 10
234.8068733764
 20
25.7700956072
 10
234.3564912909
 20
26.9685272524
 10
234.0051378854
 20
28.259982438
  0
LWPOLYLINE
  5
267
330
1F
100
AcDbEntity
  8
0
  6
Continuous
 62
     7
370
    15
100
AcDbPolyline
 90
       27
 70
   128
 43
0.0
 10
244.1353172286
 20
38.5989849595
 10
244.1864921561
 20
39.5866492141
 10
244.3392411787
 20
40.6184267989
 10
244.5912487771
 20
41.6786770176
 10
244.9386947728
 20
42.7513275575
 10
245.3763122388
 20
43.8201181298
 10
245.8974673403
 20
44.868846959
 10
246.4942598973
 20
45.881616385
 10
247.1576431429
 20
46.8430738556
 10
247.8775608634
 20
47.7386446557
 10
248.6430998399
 20
48.5547528449
 10
249.4426552819
 20
49.2790270548
 10
250.2641067439
 20
49.9004880268
 10
251.0950018591
 20
50.409715046
 10
251.9227451046
 20
50.7989887498
 10
252.7347887365
 20
51.0624081458
 10
253.518823001
 20
51.1959800643
 10
254.2629627379
 20
51.1976796913
 10
254.9559275474
 20
51.0674812621
 10
255.5872127893
 20
50.8073584523
 10
256.1472488228
 20
50.4212544584
 10
256.6275460725
 20
49.9150222234
 10
257.0208237218
 20
49.296335712
 10
257.3211200823
 20
48.574573581
 10
257.5238829673
 20
47.7606770087
 10
257.6260386982
 20
46.8669838374
 10
257.6374416177
 20
46.5525291847
  0
LWPOLYLINE
  5
268
330
1F
100
AcDbEntity
  8
0
  6
Continuous
 62
     7
370
    15
100
AcDbPolyline
 90
       14
 70
   128
 43
0.0
 10
250.7505448363
 20
34.6227814398
 10
250.2641067439
 20
34.3736316464
 10
249.4426552819
 20
34.0466649482
 10
248.6430998399
 20
33.8477920945
 10
247.8775608634
 20
33.7800277951
 10
247.1576431429
 20
33.8443992878
 10
246.4942598973
 20
34.0399307663
 10
245.8974673403
 20
34.3636581726
 10
245.3763122388
 20
34.8106741294
 10
244.9386947728
 20
35.3742023303
 10
244.5912487771
 20
36.0457002623
 10
244.3392411787
 20
36.8149887012
 10
244.1864921561
 20
37.6704060185
 10
244.1353172286
 20
38.5989849595
  0
LWPOLYLINE
  5
269
330
1F
100
AcDbEntity
  8
0
  6
Continuous
 62
     7
370
    15
100
AcDbPolyline
 90
       26
 70
   128
 43
0.0
 10
223.1508174094
 20
38.0982964603
 10
223.2014454545
 20
39.6713723478
 10
223.353039597
 20
41.2938916957
 10
223.6047315192
 20
42.9565608601
 10
223.9550795527
 20
44.6498562226
 10
224.4020769357
 20
46.3640787408
 10
224.9431633076
 20
48.0894095032
 10
225.5752393747
 20
49.8159659716
 10
226.2946846625
 20
51.5338585867
 10
227.0973782536
 20
53.2332474154
 10
227.9787223918
 20
54.9043985123
 10
228.9336688177
 20
56.5377396752
 10
229.9567476845
 20
58.1239152738
 10
231.0420988893
 20
59.6538398381
 10
232.1835056385
 20
61.1187500985
 10
233.3744300578
 20
62.5102551819
 10
234.6080506398
 20
63.8203846731
 10
235.8773013177
 20
65.041634269
 10
237.1749119384
 20
66.1670087626
 10
238.4934499059
 20
67.1900621106
 10
239.825362754
 20
68.1049343562
 10
241.1630214066
 20
68.9063851939
 10
242.4987638761
 20
69.5898239859
 10
243.8249391505
 20
70.1513360567
 10
245.1339510181
 20
70.5877051161
 10
245.721874447
 20
70.7441350383
  0
ARC
  5
26A
330
1F
100
AcDbEntity
  8
0
  6
Continuous
 62
     7
370
    15
100
AcDbCircle
 10
241.7170824079
 20
37.8782736825
 30
0.0
 40
18.56756866192593
100
AcDbArc
 50
179.3210381046
 51
196.4745437271
  0
LWPOLYLINE
  5
26B
330
1F
100
AcDbEntity
  8
0
  6
Continuous
 62
     7
370
    15
100
AcDbPolyline
 90
       23
 70
   128
 43
0.0
 10
230.973830074
 20
39.9250906649
 10
231.3336379073
 20
41.5933299999
 10
231.7927975433
 20
43.2812951778
 10
232.3484059171
 20
44.978313935
 10
232.9969501604
 20
46.6736567661
 10
233.7343298124
 20
48.3566047618
 10
234.555882745
 20
50.01651738
 10
235.4564146392
 20
51.642899721
 10
236.4302318268
 20
53.2254688827
 10
237.4711772888
 20
54.754218974
 10
238.5726695834
 20
56.2194843787
 10
239.7277444579
 20
57.612000866
 10
240.9290988804
 20
58.922964165
 10
242.1691372137
 20
60.1440856295
 10
243.4400192393
 20
61.267644644
 10
244.7337097273
 20
62.2865374376
 10
246.0420292402
 20
63.194321998
 10
247.3567058474
 20
63.9852588014
 10
248.6694274252
 20
64.6543471013
 10
249.9718942107
 20
65.1973565459
 10
251.2558712777
 20
65.6108539244
 10
252.5132406021
 20
65.8922248743
 10
253.4526381176
 20
66.0171750298
  0
LWPOLYLINE
  5
26C
330
1F
100
AcDbEntity
  8
0
  6
Continuous
 62
     7
370
    15
100
AcDbPolyline
 90
       20
 70
   128
 43
0.0
 10
231.5478251789
 20
39.9298877411
 10
231.9090063649
 20
41.580163838
 10
232.3687877045
 20
43.2494280872
 10
232.9242294693
 20
44.9270076257
 10
233.5717803023
 20
46.602176425
 10
234.3072999235
 20
48.26422387
 10
235.1260856024
 20
49.9025232405
 10
236.0229022258
 20
51.5065996553
 10
236.99201577
 20
53.0661970468
 10
238.0272299628
 20
54.5713437349
 10
239.1219259006
 20
56.0124161838
 10
240.2691043684
 20
57.3802005329
 10
241.4614305907
 20
58.6659515071
 10
242.6912811285
 20
59.8614483329
 10
243.9507926218
 20
60.9590472991
 10
245.2319120654
 20
61.9517306295
 10
246.5264482986
 20
62.8331513523
 10
247.8261243768
 20
63.5976738815
 10
249.1226304927
 20
64.240410049
 10
249.3787750816
 20
64.35308651
  0
LWPOLYLINE
  5
26D
330
1F
100
AcDbEntity
  8
0
  6
Continuous
 62
     7
370
    15
100
AcDbPolyline
 90
       24
 70
   128
 43
0.0
 10
256.2323545358
 20
47.5461474742
 10
255.7893852943
 20
47.7926830301
 10
255.2195452436
 20
47.9563166519
 10
254.5947971179
 20
47.9895911372
 10
253.9278589872
 20
47.8918291135
 10
253.2323077887
 20
47.6650207336
 10
252.522302939
 20
47.3137831621
 10
251.8122980892
 20
46.8452665831
 10
251.1167468907
 20
46.2690086429
 10
250.4498087601
 20
45.5967402916
 10
249.8250606344
 20
44.8421469739
 10
249.2552205837
 20
44.020590034
 10
248.7518889084
 20
43.1487940017
 10
248.3253119897
 20
42.2445061304
 10
247.9841737036
 20
41.3261351134
 10
247.7354186419
 20
40.4123763361
 10
247.5841107403
 20
39.5218312922
 10
247.5333301912
 20
38.6726289107
 10
247.5841107403
 20
37.8820565032
 10
247.7354186419
 20
37.1662078441
 10
247.9841737036
 20
36.5396555477
 10
248.3253119897
 20
36.0151544119
 10
248.7518889084
 20
35.6033817674
 10
249.1874350554
 20
35.3426667263
  0
LWPOLYLINE
  5
26E
330
1F
100
AcDbEntity
  8
0
  6
Continuous
 62
     7
370
    15
100
AcDbPolyline
 90
       22
 70
   128
 43
0.0
 10
212.2804977241
 20
57.7823937471
 10
212.8102936118
 20
59.2546496202
 10
213.4293482427
 20
60.7182653124
 10
214.1325786514
 20
62.1612232935
 10
214.914210718
 20
63.5716756505
 10
215.767826578
 20
64.9380413696
 10
216.6864173189
 20
66.2491014254
 10
217.6624405291
 20
67.4940908994
 10
218.6878822276
 20
68.6627873684
 10
219.7543226653
 20
69.7455948402
 10
220.8530054589
 20
70.7336225439
 10
221.9749094877
 20
71.6187579314
 10
223.110822965
 20
72.393733288
 10
224.2514190747
 20
73.0521854066
 10
225.387332552
 20
73.5887078349
 10
226.5092365808
 20
73.9988952673
 10
227.6079193744
 20
74.279379716
 10
228.6743598121
 20
74.427858165
 10
229.6998015105
 20
74.4431114798
 10
230.6758247207
 20
74.3250144178
 10
231.5944154617
 20
74.0745366564
 10
232.2601142338
 20
73.791574868
  0
ARC
  5
26F
330
1F
100
AcDbEntity
  8
0
  6
Continuous
 62
     7
370
    15
100
AcDbCircle
 10
218.1754741739
 20
48.454648142
 30
0.0
 40
6.612258360294351
100
AcDbArc
 50
206.9348210899
 51
235.9314622704
  0
LWPOLYLINE
  5
270
330
1F
100
AcDbEntity
  8
0
  6
Continuous
 62
     7
370
    15
100
AcDbPolyline
 90
        3
 70
   128
 43
0.0
 10
262.0851519566
 20
39.8811175897
 10
261.7863434585
 20
40.2293824687
 10
261.6348724742
 20
40.3334695696
  0
LWPOLYLINE
  5
271
330
1F
100
AcDbEntity
  8
0
  6
Continuous
 62
     7
370
    15
100
AcDbPolyline
 90
       10
 70
   128
 43
0.0
 10
258.2198221799
 20
34.2267668426
 10
258.3733423447
 20
34.1668095694
 10
258.8352284025
 20
34.1082221799
 10
259.3472745923
 20
34.2022518459
 10
259.8850146921
 20
34.4444057097
 10
260.4227547918
 20
34.8231133497
 10
260.9348009817
 20
35.3202796305
 10
261.3966870395
 20
35.9121493111
 10
261.7863434585
 20
36.5704421009
 10
262.0851519566
 20
37.2637039282
  0
ARC
  5
272
330
1F
100
AcDbEntity
  8
0
  6
Continuous
 62
     7
370
    15
100
AcDbCircle
 10
245.2567123749
 20
30.6165495299
 30
0.0
 40
12.19857080875564
100
AcDbArc
 50
191.1637103936
 51
218.6758449595
  0
LINE
  5
273
330
1F
100
AcDbEntity
  8
0
  6
Continuous
 62
     7
370
    15
100
AcDbLine
 10
256.5380793464
 20
34.8935608144
 30
0.0
 11
256.7472283506
 21
34.7728216643
 31
0.0
  0
LINE
  5
274
330
1F
100
AcDbEntity
  8
0
  6
Continuous
 62
     7
370
    15
100
AcDbLine
 10
232.400217313
 20
30.2285182241
 30
0.0
 11
232.3327137061
 21
30.4948323083
 31
0.0
  0
LINE
  5
275
330
1F
100
AcDbEntity
  8
0
  6
Continuous
 62
     7
370
    15
100
AcDbLine
 10
231.8855575765
 20
29.7830419645
 30
0.0
 11
231.5478251789
 21
30.9479388103
 31
0.0
  0
ARC
  5
276
330
1F
100
AcDbEntity
  8
0
  6
Continuous
 62
     7
370
    15
100
AcDbCircle
 10
243.3819341951
 20
33.8143744691
 30
0.0
 40
12.73597366903224
100
AcDbArc
 50
193.0289139223
 51
204.5990437934
  0
LINE
  5
277
330
1F
100
AcDbEntity
  8
0
  6
Continuous
 62
     7
370
    15
100
AcDbLine
 10
259.6053290732
 20
66.1629758293
 30
0.0
 11
259.5049590535
 21
66.1050334503
 31
0.0
  0
ARC
  5
278
330
1F
100
AcDbEntity
  8
0
  6
Continuous
 62
     7
370
    15
100
AcDbCircle
 10
218.2350411506
 20
55.4674985705
 30
0.0
 40
1.972900930438458
100
AcDbArc
 50
160.2447912923
 51
206.8893927025
  0
ARC
  5
279
330
1F
100
AcDbEntity
  8
0
  6
Continuous
 62
     7
370
    15
100
AcDbCircle
 10
218.333975766
 20
43.2592148819
 30
0.0
 40
2.059656355480114
100
AcDbArc
 50
172.8744043428
 51
198.2795396692
  0
LINE
  5
27A
330
1F
100
AcDbEntity
  8
0
  6
Continuous
 62
     7
370
    15
100
AcDbLine
 10
215.5330702604
 20
47.646799305
 30
0.0
 11
213.9160028471
 21
48.5803124523
 31
0.0
  0
OLE2FRAME
  5
27B
330
1F
100
AcDbEntity
  8
0
100
AcDbOle2Frame
 70
     2
  3
Paintbrush-Bild
 10
13.8511154363
 20
38.264191557
 30
0.0
 11
51.6290888628
 21
31.9806341108
 31
0.0
 71
     2
 72
     0
 73
     1
 90
    12928
310
80552BED0767C5B32B40DDAF6807D121434000000000000000006FFBDDFB85D0
310
4940DDAF6807D121434000000000000000006FFBDDFB85D04940416F4BD60AFB
310
3F4000000000000000002BED0767C5B32B40416F4BD60AFB3F40000000000000
310
0000000000000100000000010000010000000100000000000100000000320000
310
D0CF11E0A1B11AE1000000000000000000000000000000003E000300FEFF0900
310
0600000000000000000000000100000001000000000000000010000002000000
310
01000000FEFFFFFF0000000000000000FFFFFFFFFFFFFFFFFFFFFFFFFFFFFFFF
310
FFFFFFFFFFFFFFFFFFFFFFFFFFFFFFFFFFFFFFFFFFFFFFFFFFFFFFFFFFFFFFFF
310
FFFFFFFFFFFFFFFFFFFFFFFFFFFFFFFFFFFFFFFFFFFFFFFFFFFFFFFFFFFFFFFF
310
FFFFFFFFFFFFFFFFFFFFFFFFFFFFFFFFFFFFFFFFFFFFFFFFFFFFFFFFFFFFFFFF
310
FFFFFFFFFFFFFFFFFFFFFFFFFFFFFFFFFFFFFFFFFFFFFFFFFFFFFFFFFFFFFFFF
310
FFFFFFFFFFFFFFFFFFFFFFFFFFFFFFFFFFFFFFFFFFFFFFFFFFFFFFFFFFFFFFFF
310
FFFFFFFFFFFFFFFFFFFFFFFFFFFFFFFFFFFFFFFFFFFFFFFFFFFFFFFFFFFFFFFF
310
FFFFFFFFFFFFFFFFFFFFFFFFFFFFFFFFFFFFFFFFFFFFFFFFFFFFFFFFFFFFFFFF
310
FFFFFFFFFFFFFFFFFFFFFFFFFFFFFFFFFFFFFFFFFFFFFFFFFFFFFFFFFFFFFFFF
310
FFFFFFFFFFFFFFFFFFFFFFFFFFFFFFFFFFFFFFFFFFFFFFFFFFFFFFFFFFFFFFFF
310
FFFFFFFFFFFFFFFFFFFFFFFFFFFFFFFFFFFFFFFFFFFFFFFFFFFFFFFFFFFFFFFF
310
FFFFFFFFFFFFFFFFFFFFFFFFFFFFFFFFFFFFFFFFFFFFFFFFFFFFFFFFFFFFFFFF
310
FFFFFFFFFFFFFFFFFFFFFFFFFFFFFFFFFFFFFFFFFFFFFFFFFFFFFFFFFFFFFFFF
310
FFFFFFFFFFFFFFFFFFFFFFFFFFFFFFFFFFFFFFFFFFFFFFFFFFFFFFFFFFFFFFFF
310
FDFFFFFFFEFFFFFFFEFFFFFFFEFFFFFF05000000060000000700000008000000
310
090000000A0000000B0000000C0000000D0000000E0000000F00000010000000
310
11000000120000001300000014000000150000001600000017000000FEFFFFFF
310
FFFFFFFFFFFFFFFFFFFFFFFFFFFFFFFFFFFFFFFFFFFFFFFFFFFFFFFFFFFFFFFF
310
FFFFFFFFFFFFFFFFFFFFFFFFFFFFFFFFFFFFFFFFFFFFFFFFFFFFFFFFFFFFFFFF
310
FFFFFFFFFFFFFFFFFFFFFFFFFFFFFFFFFFFFFFFFFFFFFFFFFFFFFFFFFFFFFFFF
310
FFFFFFFFFFFFFFFFFFFFFFFFFFFFFFFFFFFFFFFFFFFFFFFFFFFFFFFFFFFFFFFF
310
FFFFFFFFFFFFFFFFFFFFFFFFFFFFFFFFFFFFFFFFFFFFFFFFFFFFFFFFFFFFFFFF
310
FFFFFFFFFFFFFFFFFFFFFFFFFFFFFFFFFFFFFFFFFFFFFFFFFFFFFFFFFFFFFFFF
310
FFFFFFFFFFFFFFFFFFFFFFFFFFFFFFFFFFFFFFFFFFFFFFFFFFFFFFFFFFFFFFFF
310
FFFFFFFFFFFFFFFFFFFFFFFFFFFFFFFFFFFFFFFFFFFFFFFFFFFFFFFFFFFFFFFF
310
FFFFFFFFFFFFFFFFFFFFFFFFFFFFFFFFFFFFFFFFFFFFFFFFFFFFFFFFFFFFFFFF
310
FFFFFFFFFFFFFFFFFFFFFFFFFFFFFFFFFFFFFFFFFFFFFFFFFFFFFFFFFFFFFFFF
310
FFFFFFFFFFFFFFFFFFFFFFFFFFFFFFFFFFFFFFFFFFFFFFFFFFFFFFFFFFFFFFFF
310
FFFFFFFFFFFFFFFFFFFFFFFFFFFFFFFFFFFFFFFFFFFFFFFFFFFFFFFFFFFFFFFF
310
FFFFFFFFFFFFFFFFFFFFFFFFFFFFFFFFFFFFFFFFFFFFFFFFFFFFFFFFFFFFFFFF
310
52006F006F007400200045006E00740072007900000000000000000000000000
310
0000000000000000000000000000000000000000000000000000000000000000
310
16000500FFFFFFFFFFFFFFFF020000000A00030000000000C000000000000046
310
0000000000000000000000008078363A7020D20103000000C000000000000000
310
01004F006C006500000000000000000000000000000000000000000000000000
310
0000000000000000000000000000000000000000000000000000000000000000
310
0A000200FFFFFFFFFFFFFFFFFFFFFFFF00000000000000000000000000000000
310
0000000000000000000000000000000000000000000000001400000000000000
310
010043006F006D0070004F0062006A0000000000000000000000000000000000
310
0000000000000000000000000000000000000000000000000000000000000000
310
120002010100000003000000FFFFFFFF00000000000000000000000000000000
310
0000000000000000000000000000000000000000010000004D00000000000000
310
01004F006C006500310030004E00610074006900760065000000000000000000
310
0000000000000000000000000000000000000000000000000000000000000000
310
1A000200FFFFFFFFFFFFFFFFFFFFFFFF00000000000000000000000000000000
310
0000000000000000000000000000000000000000040000002426000000000000
310
FEFFFFFF02000000FEFFFFFFFFFFFFFFFFFFFFFFFFFFFFFFFFFFFFFFFFFFFFFF
310
FFFFFFFFFFFFFFFFFFFFFFFFFFFFFFFFFFFFFFFFFFFFFFFFFFFFFFFFFFFFFFFF
310
FFFFFFFFFFFFFFFFFFFFFFFFFFFFFFFFFFFFFFFFFFFFFFFFFFFFFFFFFFFFFFFF
310
FFFFFFFFFFFFFFFFFFFFFFFFFFFFFFFFFFFFFFFFFFFFFFFFFFFFFFFFFFFFFFFF
310
FFFFFFFFFFFFFFFFFFFFFFFFFFFFFFFFFFFFFFFFFFFFFFFFFFFFFFFFFFFFFFFF
310
FFFFFFFFFFFFFFFFFFFFFFFFFFFFFFFFFFFFFFFFFFFFFFFFFFFFFFFFFFFFFFFF
310
FFFFFFFFFFFFFFFFFFFFFFFFFFFFFFFFFFFFFFFFFFFFFFFFFFFFFFFFFFFFFFFF
310
FFFFFFFFFFFFFFFFFFFFFFFFFFFFFFFFFFFFFFFFFFFFFFFFFFFFFFFFFFFFFFFF
310
FFFFFFFFFFFFFFFFFFFFFFFFFFFFFFFFFFFFFFFFFFFFFFFFFFFFFFFFFFFFFFFF
310
FFFFFFFFFFFFFFFFFFFFFFFFFFFFFFFFFFFFFFFFFFFFFFFFFFFFFFFFFFFFFFFF
310
FFFFFFFFFFFFFFFFFFFFFFFFFFFFFFFFFFFFFFFFFFFFFFFFFFFFFFFFFFFFFFFF
310
FFFFFFFFFFFFFFFFFFFFFFFFFFFFFFFFFFFFFFFFFFFFFFFFFFFFFFFFFFFFFFFF
310
FFFFFFFFFFFFFFFFFFFFFFFFFFFFFFFFFFFFFFFFFFFFFFFFFFFFFFFFFFFFFFFF
310
FFFFFFFFFFFFFFFFFFFFFFFFFFFFFFFFFFFFFFFFFFFFFFFFFFFFFFFFFFFFFFFF
310
FFFFFFFFFFFFFFFFFFFFFFFFFFFFFFFFFFFFFFFFFFFFFFFFFFFFFFFFFFFFFFFF
310
FFFFFFFFFFFFFFFFFFFFFFFFFFFFFFFFFFFFFFFFFFFFFFFFFFFFFFFFFFFFFFFF
310
0100000200000000000000000000000000000000000000000000000000000000
310
0000000000000000000000000000000000000000000000000000000000000000
310
0100FEFF030A0000FFFFFFFF0A00030000000000C00000000000004607000000
310
5042727573680007000000504272757368000700000050427275736800F439B2
310
7100000000000000000000000000000000000000000000000000000000000000
310
0000000000000000000000000000000000000000000000000000000000000000
310
0000000000000000000000000000000000000000000000000000000000000000
310
0000000000000000000000000000000000000000000000000000000000000000
310
0000000000000000000000000000000000000000000000000000000000000000
310
0000000000000000000000000000000000000000000000000000000000000000
310
0000000000000000000000000000000000000000000000000000000000000000
310
0000000000000000000000000000000000000000000000000000000000000000
310
0000000000000000000000000000000000000000000000000000000000000000
310
0000000000000000000000000000000000000000000000000000000000000000
310
0000000000000000000000000000000000000000000000000000000000000000
310
0000000000000000000000000000000000000000000000000000000000000000
310
20260000424D0E260000000000003E00000028000000B40200006E0000000100
310
01000000000000000000130B0000130B00000200000002000000000000FFFFFF
310
FFFFFFFFFFFFFFFFFFFFFFFFFFFFFFFFFFFFFFFFFFFFFFFFFFFFFFFFFFFFFFFF
310
FFFFFFFFFFFFFFFFFFFFFFFFFFFFFFFFFFFFFFFFFFFFFFFFFFFFFFFFFFFFFFFF
310
FFFFFFFFFFFFFFFFFFFFFFFFFFFFFFFFFFFFFFFFFFFFFFFFF000FFFFFFFFFFFF
310
FFFFFFFFFFFFFFFFFFFFFFFFFFFFFFFFFFFFFFFFFFFFFFFFFFFFFFFFFFFFFFFF
310
FFFFFFFFFFFFFFFFFFFFFFFFFFFFFFFFFFFFFFFFFFFFFFFFFFFFFFFFFFFFFFFF
310
FFFFFFFFFFFFFFFFFFFFFFFFFFFFFFFFF000FFFFFFFFFFFFFFFFFFFFFFFFFFFF
310
FFFFFFFFFFFFFFFFFFFFFFFFFFFFFFFFFFFFFFFFFFFFFFFFFFFFFFFFFFFFFFFF
310
FFFFFFFFFFFFFFFFFFFFFFFFFFFFFFFFFFFFFFFFFFFFFFFFFFFFFFFFFFFFFFFF
310
FFFFFFFFFFFFFFFFF000FFFFFFFFFFFFFFFFFFFFFFFFFFFFFFFFFFFFFFFFFFFF
310
FFFFFFFFFFFFFFFFFFFFFFFFFFFFFFFFFFFFFFFFFFFFFFFFFFFFFFFFFFFFFFFF
310
FFFFFFFFFFFFFFFFFFFFFFFFFFFFFFFFFFFFFFFFFFFFFFFFFFFFFFFFFFFFFFFF
310
F000FFFFFFFFFFFFFFFFFFFFFFFFFFFFFFFFFFFFFFFFFFFFFFFFFFFFFFFFFFFF
310
FFFFFFFFFFFFFFFFFFFFFFFFFFFFFFFFFFFFFFFFFFFFFFFFFFFFFFFFFFFFFFFF
310
FFFFFFFFFFFFFFFFFFFFFFFFFFFFFFFFFFFFFFFFFFFFFFFFF000FFFFFFFFFFFF
310
FFFFFFFFFFFFFFFFFFFFFFFFFFFFFFFFFFFFFFFFFFFFFFFFFFFFFFFFFFFFFFFF
310
FFFFFFFFFFFFFFFFFFFFFFFFFFFFFFFFFFFFFFFFFFFFFFFFFFFFFFFFFFFFFFFF
310
FFFFFFFFFFFFFFFFFFFFFFFFFFFFFFFFF000FFFFFFFFFFFFFFFFFFFFFFFFFFFF
310
FFFFFFFFFFFFFFFFFFFFFFFFFFFFFFFFFFFFFFFFFFFFFFFFFFFFFFFFFFFFFFFF
310
FFFFFFFFFFFFFFFFFFFFFFFFFFFFFFFFFFFFFFFFFFFFFFFFFFFFFFFFFFFFFFFF
310
FFFFFFFFFFFFFFFFF000FFFFFFFFFFFFFFFFFFFFFFFFFFFFFFFFFFFFFFFFFFFF
310
FFFFFFFFFFFFFFFFFFFFFFFFFFFFFFFFFFFFFFFFFFFFFFFFFFFFFFFFFFFFFFFF
310
FFFFFFFFFFFFFFFFFFFFFFFFFFFFFFFFFFFFFFFFFFFFFFFFFFFFFFFFFFFFFFFF
310
F000FFFFFFFFFFFFFFFFFFFFFFFFFFFFFFFFFFFFFFFFFFFFFFFFFFFFFFFFFFFF
310
FFFFFFFFFFFFFFFFFFFFFFFFFFFFFFFFFFFFFFFFFFFFFFFFFFFFFFFFFFFFFFFF
310
FFFFFFFFFFFFFFFFFFFFFFFFFFFFFFFFFFFFFFFFFFFFFFFFF000FFFFFFFFFFFF
310
FFFFFFFFFFFFFFFFFFFFFFFFFFFFFFFFFFFFFFFFFFFFFFFFFFFFFFFFFFFFFFFF
310
FFFFFFFFFFFFFFFFFFFFFFFFFFFFFFFFFFFFFFFFFFFFFFFFFFFFFFFFFFFFFFFF
310
FFFFFFFFFFFFFFFFFFFFFFFFFFFFFFFFF000FFFFFFFFFFFFFFFFFFFFFFFFFFFF
310
FFFFFFFFFFFFFFFFFFFFFFFFFFFFFFFFFFFFFFFFFFFFFFFFFFFFFFFFFFFFFFFF
310
FFFFFFFFFFFFFFFFFFFFFFFFFFFFFFFFFFFFFFFFFFFFFFFFFFFFFFFFFFFFFFFF
310
FFFFFFFFFFFFFFFFF000FFFFFFFFFFFFFFFFFFFFFFFFFFFFFFFFFFFFFFFFFFFF
310
FFFFFFFFFFFFFFFFFFFFFFFFFFFFFFFFFFFFFFFFFFFFFFFFFFFFFFFFFFFFFFFF
310
FFFFFFFFFFFFFFFFFFFFFFFFFFFFFFFFFFFFFFFFFFFFFFFFFFFFFFFFFFFFFFFF
310
F000FFFFFFFFFFFFFFFFFFFFFFFFFFFFFFFFFFFFFFFFFFFFFFFFFFFFFFFFFFFF
310
FFFFFFFFFFFFFFFFFFFFFFFFFFFFFFFFFFFFFFFFFFFFFFFFFFFFFFFFFFFFFFFF
310
FFFFFFFFFFFFFFFFFFFFFFFFFFFFFFFFFFFFFFFFFFFFFFFFF000FFFFFFFFFFFF
310
FFFFFFFFFFFFFFFFFFFFFFFFFFFFFFFFFFFFFFFFFFFFFFFFFFFFFFFFFFFFFFFF
310
FFFFFFFFFFFFFFFFFFFFFFFFFFFFFFFFFFFFFFFFFFFFFFFFFFFFFFFFFFFFFFFF
310
FFFFFFFFFFFFFFFFFFFFFFFFFFFFFFFFF000FFFFFFFFFFFFFFFFFFFFFFFFFFFF
310
FFFFFFFFFFFFFFFFFFFFFFFFFFFFFFFFFFFFFFFFFFFFFFFFFFFFFFFFFFFFFFFF
310
FFFFFFFFFFFFFFFFFFFFFFFFFFFFFFFFFFFFFFFFFFFFFFFFFFFFFFFFFFFFFFFF
310
FFFFFFFFFFFFFFFFF000FFFFFFFFFFFFFFFFFFFFFFFFFFFFFFFFFFFFFFFFFFFF
310
FFFFFFFFFFFFFFFFFFFFFFFFFFFFFFFFFFFFFFFFFFFFFFFFFFFFFFFFFFFFFFFF
310
FFFFFFFFFFFFFFFFFFFFFFFFFFFFFFFFFFFFFFFFFFFFFFFFFFFFFFFFFFFFFFFF
310
F000FFFFFFFFFFFFFFFFFFFFFFFFFFFFFFFFFFFFFFFFFFFFFFFFFFFFFFFFFFFF
310
FFFFFFFFFFFFFFFFFFFFFFFFFFFFFFFFFFFFFFFFFFFFFFFFFFFFFFFFFFFFFFFF
310
FFFFFFFFFFFFFFFFFFFFFFFFFFFFFFFFFFFFFFFFFFFFFFFFF000FFFFFFFFFFFF
310
FFFFFFFFFFFFFFFFFFFFFFFFFFFFFFFFFFFFFFFFFFFFFFFFFFFFFFFFFFFFFFFF
310
FFFFFFFFFFFFFFFFFFFFFFFFFFFFFFFFFFFFFFFFFFFFFFFFFFFFFFFFFFFFFFFF
310
FFFFFFFFFFFFFFFFFFFFFFFFFFFFFFFFF000FFFFFFFFFFFFFFFFFFFFFFFFFFFF
310
FFFFFFFFFFFFFFFFFFFFFFFFFFFFFFFFFFFFFFFFFFFFFFFFFFFFFFFFFFFFFFFF
310
FFFFFFFFFFFFFFFFFFFFFFFFFFFFFFFFFFFFFFFFFFFFFFFFFFFFFFFFFFFFFFFF
310
FFFFFFFFFFFFFFFFF000FFFFF80003FFFFFFFFFFFFFFFFFFFFFFFFFFFFFFFFFF
310
FFFFF00007FFFFFFFFFF00007FFFFFF800000000000000007FFFFFFFFFFFFFFF
310
FFFFFFFC001FFFFFFFFFFFFFFC001FFFFFFFFFFFFFFFFFFFFFFFFFFE0007FFFF
310
F000FFFF8000007FFFFFFFF8000FFFFFC0007FFFFF80007FFFFF0000007FFFFF
310
FFF8000007FFFFF800000000000000007FFFFFF0001FFFFFFFFFFFC00001FFFF
310
FFFFFFFFC00001FFFFFFFF000000000003FFFFE000007FFFF000FFFE0000000F
310
FFFFFFF0000FFFFF80007FFFFF80007FFFFC0000001FFFFFFFC0000001FFFFF8
310
00000000000000007FFFFFF0001FFFFFFFFFFE0000003FFFFFFFFFFE0000003F
310
FFFFFF000000000003FFFF0000000FFFF000FFF800000003FFFFFFF00007FFFF
310
80007FFFFF80007FFFF000000007FFFFFF000000003FFFF80000000000000000
310
7FFFFFF0001FFFFFFFFFF80000000FFFFFFFFFF80000000FFFFFFF0000000000
310
03FFFC00000003FFF000FFE000000000FFFFFFF00007FFFF80003FFFFF80007F
310
FFC000000001FFFFFC000000001FFFF800000000000000007FFFFFF0001FFFFF
310
FFFFE000000003FFFFFFFFE000000003FFFFFF000000000003FFF000000000FF
310
F000FF80000000007FFFFFF00007FFFF80003FFFFF80007FFF8000000000FFFF
310
F80000000007FFF800000000000000007FFFFFF0001FFFFFFFFFC000000001FF
310
FFFFFFC000000001FFFFFF000000000003FFC0000000007FF000FF0000000000
310
3FFFFFE00007FFFF00003FFFFF80007FFE00000000003FFFF00000000003FFF8
310
00000000000000007FFFFFF0001FFFFFFFFF8000000000FFFFFFFF8000000000
310
FFFFFF000000000003FF80000000003FF000FE00000000001FFFFFE00003FFFF
310
00003FFFFF80007FFC00000000001FFFE00000000001FFF8000001FFFE000000
310
7FFFFFF0001FFFFFFFFE00000000003FFFFFFE00000000003FFFFF0000000000
310
03FF00000000001FF000FC00000000000FFFFFE00003FFFF00001FFFFF80007F
310
F800000000001FFFC00000000000FFF8000001FFFE0000007FFFFFF0001FFFFF
310
FFFC00000000001FFFFFFC00000000001FFFFF000000000003FE00000000000F
310
F000F8000000000007FFFFE00003FFFF00001FFFFF80007FF800000000000FFF
310
800000000000FFF8000001FFFE0000007FFFFFF0001FFFFFFFF800000000000F
310
FFFFF800000000000FFFFF000000000003FC000000000007F000F80000000000
310
03FFFFC00003FFFE00001FFFFF80007FF0000000000007FF0000000000007FF8
310
000001FFFE0000007FFFFFF0001FFFFFFFF0000000000007FFFFF00000000000
310
07FFFF000000000003F8000000000003F000F0000000000003FFFFC00001FFFE
310
00001FFFFF80007FE0000000000007FE0000000000003FF8000001FFFE000000
310
7FFFFFF0001FFFFFFFF0000000000007FFFFF0000000000007FFFF0000000000
310
03F800001F800003F000E00001FFF00001FFFFC00001FFFE00000FFFFF80007F
310
E00001FFE00003FE00001FFF00003FF8000001FFFE0000007FFFFFF0001FFFFF
310
FFE000003E000003FFFFE000003E000003FFFF000000000003F00001FFF80001
310
F000E00007FFFC0001FFFFC00001FFFE00000FFFFF80007FC0000FFFFC0003FC
310
0000FFFFC0001FF8000001FFFE0000007FFFFFF0001FFFFFFFC00003FFE00001
310
FFFFC00003FFE00001FFFF0001FFFFFFFFF00007FFFE0001F000E0000FFFFF00
310
00FFFF800001FFFC00000FFFFF80007FC0001FFFFE0001FC0001FFFFE0001FF8
310
000001FFFE0000007FFFFFF0001FFFFFFF80000FFFF80000FFFF80000FFFF800
310
00FFFF0003FFFFFFFFE0000FFFFF8000F000C0003FFFFF8000FFFF800000FFFC
310
000007FFFF80007F80003FFFFF0001FC0003FFFFF0001FF8000001FFFE000000
310
7FFFFFF0001FFFFFFF80003FFFFE0000FFFF80003FFFFE0000FFFF0003FFFFFF
310
FFE0003FFFFF8000F000C0003FFFFF8000FFFF800000FFFC000007FFFF80007F
310
80007FFFFF8001F80007FFFFF8000FF8000001FFFE0000007FFFFFF0001FFFFF
310
FF00007FFFFF00007FFF00007FFFFF00007FFF0003FFFFFFFFE0003FFFFFC000
310
F000C0007FFFFFC000FFFF000000FFFC000007FFFF80007F8000FFFFFF8000F8
310
000FFFFFF8000FF8000001FFFE0000007FFFFFF0001FFFFFFF0000FFFFFF8000
310
7FFF0000FFFFFF80007FFF0003FFFFFFFFC0007FFFFFC00070008000FFFFFFC0
310
00FFFF000000FFF8000007FFFF80007F8000FFFFFF8000F8000FFFFFF8000FF8
310
000001FFFE0000007FFFFFF0001FFFFFFE0001FFFFFFC0003FFE0001FFFFFFC0
310
003FFF0003FFFFFFFFC0007FFFFFE00070008000FFFFFFC0007FFF0000007FF8
310
000003FFFF80007F0001FFFFFF8000F8000FFFFFF8000FF8000001FFFE000000
310
7FFFFFF0001FFFFFFE0001FFFFFFC0003FFE0001FFFFFFC0003FFF0003FFFFFF
310
FFC000FFFFFFE00070008000FFFFFFC0007FFF0000007FF8000003FFFF80007F
310
0001FFFFFF8000F8001FFFFFF8000FF8000001FFFE0000007FFFFFF0001FFFFF
310
FE0003FFFFFFE0003FFE0003FFFFFFE0003FFF0003FFFFFFFFC000FFFFFFE000
310
70008000FFFFFFC0007FFE0000007FF8000003FFFF80007F0001FFFFFF8000F0
310
001FFFFFF8000FF8000001FFFE0000007FFFFFF0001FFFFFFC0003FFFFFFE000
310
1FFC0003FFFFFFE0001FFF0003FFFFFFFFC000FFFFFFC00070008000FFFFFF80
310
007FFE0000007FF0000003FFFF80007F0001FFFFFF0000F0001FFFFFF8000FF8
310
000001FFFE0000007FFFFFF0001FFFFFFC0007FFFFFFF0001FFC0007FFFFFFF0
310
001FFF0003FFFFFFFFC000FFFFFFC00070008001FFFFFF0000FFFE0000003FF0
310
000001FFFF80007F0001FFFFFF0000F8001FFFFFF0000FF8000001FFFE000000
310
7FFFFFF0001FFFFFFC0007FFFFFFF0001FFC0007FFFFFFF0001FFF0003FFFFFF
310
FFC001FFFFFF80007000FFFFFFFFFE0000FFFE0008003FF0008001FFFF80007F
310
FFFFFFFFFC0000FFFFFFFFFFE0000FF8000001FFFE0000007FFFFFF0001FFFFF
310
F8000FFFFFFFF8000FF8000FFFFFFFF8000FFF0003FFFFFFFFFFFFFFFFFF0000
310
7000FFFFFFFFFC0000FFFC0008003FF0008001FFFF80007FFFFFFFFFF80001FF
310
FFFFFFFF80000FF8000001FFFE0000007FFFFFF0001FFFFFF8000FFFFFFFF800
310
0FF8000FFFFFFFF8000FFF0003FFFFFFFFFFFFFFFFFE0000F000FFFFFFFFE000
310
00FFFC000C003FE000C001FFFF80007FFFFFFFFFC00001FFFFFFFFFE00001FF8
310
000001FFFE0000007FFFFFF0001FFFFFF8000FFFFFFFF8000FF8000FFFFFFFF8
310
000FFF0003FFFFFFFFFFFFFFFFF00000F000FFFFFFFE000001FFFC000C001FE0
310
00C000FFFF80007FFFFFFFFE000001FFFFFFFFE000001FF80FFFFFFFFFFFFFC0
310
7FFFFFF0001FFFFFF8000FFFFFFFF8000FF8000FFFFFFFF8000FFF0003FFFFFF
310
FFFFFFFFFF800000F000FFFFFFC0000001FFFC001C001FE001C000FFFF80007F
310
FFFFFF80000003FFFFFFF80000001FF80FFFFFFFFFFFFFC07FFFFFF0001FFFFF
310
F8001FFFFFFFFC000FF8001FFFFFFFFC000FFF0003FFFFFFFFFFFFFFF0000001
310
F000FFFFF800000001FFF8001C001FE001C000FFFF80007FFFFFF800000003FF
310
FFFF800000003FF80FFFFFFFFFFFFFC07FFFFFF0001FFFFFF8001FFFFFFFFC00
310
0FF8001FFFFFFFFC000FFF0003FFFFFFFFFFFFFE00000001F000FFFFC0000000
310
03FFF8001E001FC001E000FFFF80007FFFFF8000000007FFFFFC000000003FF8
310
0FFFFFFFFFFFFFC07FFFFFF0001FFFFFF8001FFFFFFFFC000FF8001FFFFFFFFC
310
000FFF0003FFFFFFFFFFFFE000000003F000FFFE0000000007FFF8001E000FC0
310
01E0007FFF80007FFFFE0000000007FFFFE0000000007FF80FFFFFFFFFFFFFC0
310
7FFFFFF0001FFFFFF0001FFFFFFFFC0007F0001FFFFFFFFC0007FF0003FFFFFF
310
FFFFFF0000000003F000FFF80000000007FFF8001E000FC003E0007FFF80007F
310
FFF0000000000FFFFF8000000000FFF80FFFFFFFFFFFFFC07FFFFFF0001FFFFF
310
F0001FFFFFFFFC0007F0001FFFFFFFFC0007FF0003FFFFFFFFFFFC0000000007
310
F000FFE0000000000FFFF0003E000FC003E0007FFF80007FFFC0000000001FFF
310
FE0000000001FFF80FFFFFFFFFFFFFC07FFFFFF0001FFFFFF0001FFFFFFFFC00
310
07F0001FFFFFFFFC0007FF0003FFFFFFFFFFF0000000000FF000FFC000000000
310
1FFFF0003F000F8003F0003FFF80007FFF80000000003FFFF80000000003FFF8
310
0FFFFFFFFFFFFFC07FFFFFF0001FFFFFF0001FFFFFFFFC0007F0001FFFFFFFFC
310
0007FF0003FFFFFFFFFFE0000000001FF000FF00000000007FFFF0003F000780
310
03F0003FFF80007FFF00000000007FFFF00000000007FFF80FFFFFFFFFFFFFC0
310
7FFFFFF0001FFFFFF0001FFFFFFFFC0007F0001FFFFFFFFC0007FF0003FFFFFF
310
FFFF80000000007FF000FE0000000000FFFFE0003F00078007F0003FFF80007F
310
FE0000000001FFFFE0000000001FFFF80FFFFFFFFFFFFFC07FFFFFF0001FFFFF
310
F0001FFFFFFFFC0007F0001FFFFFFFFC0007FF0003FFFFFFFFFF0000000000FF
310
F000FC0000000003FFFFE0007F00078007F0003FFF80007FFC0000000007FFFF
310
C0000000007FFFF80FFFFFFFFFFFFFC07FFFFFF0001FFFFFF8001FFFFFFFFC00
310
0FF8001FFFFFFFFC000FFF0003FFFFFFFFFE0000000003FFF000FC000000000F
310
FFFFE0007F80070007F8001FFF80007FF8000000001FFFFF8000000001FFFFF8
310
0FFFFFFFFFFFFFC07FFFFFF0001FFFFFF8001FFFFFFFFC000FF8001FFFFFFFFC
310
000FFF0003FFFFFFFFFC000000000FFFF000F8000000007FFFFFE0007F800700
310
07F8001FFF80007FF000000000FFFFFF800000000FFFFFF80FFFFFFFFFFFFFC0
310
7FFFFFF0001FFFFFF8000FFFFFFFF8000FF8000FFFFFFFF8000FFF0003FFFFFF
310
FFFC000000007FFFF000F800000007FFFFFFC0007F8003000FF8001FFF80007F
310
F000000007FFFFFF000000007FFFFFF80FFFFFFFFFFFFFC07FFFFFF0001FFFFF
310
F8000FFFFFFFF8000FF8000FFFFFFFF8000FFF0003FFFFFFFFF80000000FFFFF
310
F000F0000000FFFFFFFFC000FF8003000FF8001FFF80007FE0000000FFFFFFFF
310
0000000FFFFFFFF8000001FFFE0000007FFFFFF0001FFFFFF8000FFFFFFFF800
310
0FF8000FFFFFFFF8000FFF0003FFFFFFFFF8000000FFFFFFF000F000000FFFFF
310
FFFFC000FFC002000FF8000FFF80007FE000001FFFFFFFFE000001FFFFFFFFF8
310
000001FFFE0000007FFFFFF0001FFFFFF8000FFFFFFFF8000FF8000FFFFFFFF8
310
000FFF0003FFFFFFFFF000001FFFFFFFF000E00000FFFFFFFFFFC000FFC00200
310
0FFC000FFF80007FE00001FFFFFFFFFE00001FFFFFFFFFF8000001FFFE000000
310
7FFFFFF0001FFFFFFC000FFFFFFFF8001FFC000FFFFFFFF8001FFF0003FFFFFF
310
FFF00001FFFFFFFFF000E00007FFFFFFFFFF8000FFC000001FFC000FFF80007F
310
C0000FFFFFFFFFFE0000FFFFFFFFFFF8000001FFFE0000007FFFFFF0001FFFFF
310
FC0007FFFFFFF0001FFC0007FFFFFFF0001FFF0003FFFFFFFFF00007FFFFFFFF
310
F000E0001FFFFFFFFFFF8000FFC000001FFC000FFF80007FC0003FFFFFFFFFFE
310
0001FFFFFFFFFFF8000001FFFE0000007FFFFFF0001FFFFFFC0007FFFFFFF000
310
1FFC0007FFFFFFF0001FFF0003FFFFFFFFF0001FFFFFFFFFF000E0003FFFFF00
310
03FF8001FFE000001FFC0007FF80007FC0007FFFFF0007FC0003FFFFF0003FF8
310
000001FFFE0000007FFFFFF0001FFFFFFC0003FFFFFFE0001FFC0003FFFFFFE0
310
001FFF0003FFFFFFFFF0003FFFFFFFFFF000E0003FFFFF0001FF8001FFE00000
310
1FFE0007FF80007FC0007FFFFE0003FC0007FFFFE0003FF8000001FFFE000000
310
7FFFFFF0001FFFFFFE0003FFFFFFE0003FFE0003FFFFFFE0003FFF0003FFFFFF
310
FFF0003FFFFF8001F000E0003FFFFF0001FF0001FFE000001FFE0007FF80007F
310
C0007FFFFE0003FC0007FFFFE0003FF8000001FFFE0000007FFFFFF0001FFFFF
310
FE0001FFFFFFC0003FFE0001FFFFFFC0003FFF0003FFFFFFFFF0003FFFFF0001
310
F000E0003FFFFF0003FF0001FFE000003FFE0007FF80007FC0007FFFFE0003FC
310
0007FFFFE0003FF8000001FFFE0000007FFFFFF0001FFFFFFF0001FFFFFFC000
310
7FFF0001FFFFFFC0007FFF0003FFFFFFFFF0003FFFFF0001F000E0003FFFFE00
310
03FF0003FFF000003FFE0003FF80007FC0007FFFFC0003FE0007FFFFE0003FF8
310
000001FFFE0000007FFFFFF0001FFFFFFF0000FFFFFF80007FFF0000FFFFFF80
310
007FFF0003FFFFFFFFF0003FFFFF0001F000E0003FFFFE0003FF0003FFF00000
310
3FFF0003FF80007FC0007FFFFC0007FE0007FFFFC0003FF8000001FFFE000000
310
7FFFFFF0001FFFFFFF80007FFFFF0000FFFF80007FFFFF0000FFFF0003FFFFFF
310
FFF0003FFFFF0003F000E0003FFFFC0003FE0003FFF000003FFF0003FF80007F
310
E0003FFFF80007FE0003FFFFC0007FF8000001FFFE0000007FFFFFF0001FFFFF
310
FF80003FFFFE0000FFFF80003FFFFE0000FFFF0003FFFFFFFFF0001FFFFE0003
310
F000F0001FFFF80003FE0003FFF000007FFF0001FF80007FE0003FFFF00007FE
310
0001FFFF80007FF8000001FFFE0000007FFFFFF0001FFFFFFFC0000FFFF80001
310
FFFFC0000FFFF80001FFFF0003FFFFFFFFF0001FFFFC0003F000F0000FFFF000
310
07FE0007FFF800007FFF0001FF80007FE0001FFFE00007FF0000FFFE00007FF8
310
000001FFFE0000007FFFFFF0001FFFFFFFC00003FFE00001FFFFC00003FFE000
310
01FFFF0003FFFFFFFFF8000FFFF80003F000F00003FFC00007FC0007FFF80000
310
7FFF8001FF80007FF00007FF80000FFF00007FF80000FFF8000001FFFE000000
310
7F80000000000001FFE000003E000003FFFFE000003E000003FFFF0003FFFFFF
310
FFF80003FFE00007F000F800000000000FFC0007FFF800007FFF8001FF80007F
310
F000000000000FFF000000000000FFF8000001FFFE0000007F80000000000001
310
FFF0000000000007FFFFF0000000000007FFFF0003FFFFFFFFFC00007E000007
310
F000F800000000000FFC0007FFF80000FFFF8000FF80007FF800000000001FFF
310
800000000001FFF8000001FFFE0000007F80000000000001FFF800000000000F
310
FFFFF800000000000FFFFF0003FFFFFFFFFC00000000000FF000FC0000000000
310
1FFC0007FFFC0000FFFF8000FF80007FF800000000003FFFC00000000001FFF8
310
000001FFFE0000007F80000000000001FFF800000000000FFFFFF80000000000
310
0FFFFF0003FFFFFFFFFE00000000001FF000FE00000000003FF8000FFFFC0000
310
FFFF8000FF80007FFC00000000003FFFC00000000003FFF8000001FFFE000000
310
7F80000000000001FFFC00000000001FFFFFFC00000000001FFFFF0003FFFFFF
310
FFFF00000000001FF000FF00000000003FF8000FFFFC0000FFFFC000FF80007F
310
FE00000000007FFFE00000000007FFF8000001FFFE0000007F80000000000001
310
FFFE00000000003FFFFFFE00000000003FFFFF0003FFFFFFFFFF80000000003F
310
F000FF80000000007FF8000FFFFC0001FFFFC0007F80007FFF0000000000FFFF
310
F0000000000FFFF800000000000000007F80000000000001FFFF8000000000FF
310
FFFFFF8000000000FFFFFF0003FFFFFFFFFFC0000000007FF000FFC000000000
310
FFF8000FFFFE0001FFFFC0007F80007FFF8000000001FFFFF8000000001FFFF8
310
00000000000000007F80000000000001FFFFC000000001FFFFFFFFC000000001
310
FFFFFF0003FFFFFFFFFFE000000000FFF000FFE000000003FFF0001FFFFE0001
310
FFFFC0007F80007FFFC000000007FFFFFE000000003FFFF80000000000000000
310
7F80000000000001FFFFE000000003FFFFFFFFE000000003FFFFFF0003FFFFFF
310
FFFFF000000003FFF000FFF80000000FFFF0001FFFFE0001FFFFE0007F80007F
310
FFF00000000FFFFFFF00000000FFFFF800000000000000007F80000000000001
310
FFFFF80000000FFFFFFFFFF80000000FFFFFFF0003FFFFFFFFFFFC0000000FFF
310
F000FFFE0000003FFFF0001FFFFE0003FFFFE0003F80007FFFFC0000003FFFFF
310
FFC0000003FFFFF800000000000000007F80000000000001FFFFFE0000003FFF
310
FFFFFFFE0000003FFFFFFF0003FFFFFFFFFFFF0000003FFFF000FFFF800000FF
310
FFF0001FFFFF0003FFFFE0003F80007FFFFF000001FFFFFFFFF800001FFFFFF8
310
00000000000000007F80000000000001FFFFFFC00001FFFFFFFFFFFFC00001FF
310
FFFFFF0003FFFFFFFFFFFFC00000FFFFF000FFFFF8000FFFFFFFFFFFFFFFFFFF
310
FFFFFFFFFFFFFFFFFFFFF0001FFFFFFFFFFF0000FFFFFFF80000000000000000
310
7FFFFFFFFFFFFFFFFFFFFFFC001FFFFFFFFFFFFFFC001FFFFFFFFFFFFFFFFFFF
310
FFFFFFFC001FFFFFF000FFFFFFFFFFFFFFFFFFFFFFFFFFFFFFFFFFFFFFFFFFFF
310
FFFFFFFFFFFFFFFFFFFFFFFFFFFFFFFFFFFFFFFFFFFFFFFFFFFFFFFFFFFFFFFF
310
FFFFFFFFFFFFFFFFFFFFFFFFFFFFFFFFFFFFFFFFFFFFFFFFFFFFFFFFFFFFFFFF
310
F000FFFFFFFFFFFFFFFFFFFFFFFFFFFFFFFFFFFFFFFFFFFFFFFFFFFFFFFFFFFF
310
FFFFFFFFFFFFFFFFFFFFFFFFFFFFFFFFFFFFFFFFFFFFFFFFFFFFFFFFFFFFFFFF
310
FFFFFFFFFFFFFFFFFFFFFFFFFFFFFFFFFFFFFFFFFFFFFFFFF000FFFFFFFFFFFF
310
FFFFFFFFFFFFFFFFFFFFFFFFFFFFFFFFFFFFFFFFFFFFFFFFFFFFFFFFFFFFFFFF
310
FFFFFFFFFFFFFFFFFFFFFFFFFFFFFFFFFFFFFFFFFFFFFFFFFFFFFFFFFFFFFFFF
310
FFFFFFFFFFFFFFFFFFFFFFFFFFFFFFFFF000FFFFFFFFFFFFFFFFFFFFFFFFFFFF
310
FFFFFFFFFFFFFFFFFFFFFFFFFFFFFFFFFFFFFFFFFFFFFFFFFFFFFFFFFFFFFFFF
310
FFFFFFFFFFFFFFFFFFFFFFFFFFFFFFFFFFFFFFFFFFFFFFFFFFFFFFFFFFFFFFFF
310
FFFFFFFFFFFFFFFFF000FFFFFFFFFFFFFFFFFFFFFFFFFFFFFFFFFFFFFFFFFFFF
310
FFFFFFFFFFFFFFFFFFFFFFFFFFFFFFFFFFFFFFFFFFFFFFFFFFFFFFFFFFFFFFFF
310
FFFFFFFFFFFFFFFFFFFFFFFFFFFFFFFFFFFFFFFFFFFFFFFFFFFFFFFFFFFFFFFF
310
F000FFFFFFFFFFFFFFFFFFFFFFFFFFFFFFFFFFFFFFFFFFFFFFFFFFFFFFFFFFFF
310
FFFFFFFFFFFFFFFFFFFFFFFFFFFFFFFFFFFFFFFFFFFFFFFFFFFFFFFFFFFFFFFF
310
FFFFFFFFFFFFFFFFFFFFFFFFFFFFFFFFFFFFFFFFFFFFFFFFF000FFFFFFFFFFFF
310
FFFFFFFFFFFFFFFFFFFFFFFFFFFFFFFFFFFFFFFFFFFFFFFFFFFFFFFFFFFFFFFF
310
FFFFFFFFFFFFFFFFFFFFFFFFFFFFFFFFFFFFFFFFFFFFFFFFFFFFFFFFFFFFFFFF
310
FFFFFFFFFFFFFFFFFFFFFFFFFFFFFFFFF000FFFFFFFFFFFFFFFFFFFFFFFFFFFF
310
FFFFFFFFFFFFFFFFFFFFFFFFFFFFFFFFFFFFFFFFFFFFFFFFFFFFFFFFFFFFFFFF
310
FFFFFFFFFFFFFFFFFFFFFFFFFFFFFFFFFFFFFFFFFFFFFFFFFFFFFFFFFFFFFFFF
310
FFFFFFFFFFFFFFFFF000FFFFFFFFFFFFFFFFFFFFFFFFFFFFFFFFFFFFFFFFFFFF
310
FFFFFFFFFFFFFFFFFFFFFFFFFFFFFFFFFFFFFFFFFFFFFFFFFFFFFFFFFFFFFFFF
310
FFFFFFFFFFFFFFFFFFFFFFFFFFFFFFFFFFFFFFFFFFFFFFFFFFFFFFFFFFFFFFFF
310
F000FFFFFFFFFFFFFFFFFFFFFFFFFFFFFFFFFFFFFFFFFFFFFFFFFFFFFFFFFFFF
310
FFFFFFFFFFFFFFFFFFFFFFFFFFFFFFFFFFFFFFFFFFFFFFFFFFFFFFFFFFFFFFFF
310
FFFFFFFFFFFFFFFFFFFFFFFFFFFFFFFFFFFFFFFFFFFFFFFFF000FFFFFFFFFFFF
310
FFFFFFFFFFFFFFFFFFFFFFFFFFFFFFFFFFFFFFFFFFFFFFFFFFFFFFFFFFFFFFFF
310
FFFFFFFFFFFFFFFFFFFFFFFFFFFFFFFFFFFFFFFFFFFFFFFFFFFFFFFFFFFFFFFF
310
FFFFFFFFFFFFFFFFFFFFFFFFFFFFFFFFF000FFFFFFFFFFFFFFFFFFFFFFFFFFFF
310
FFFFFFFFFFFFFFFFFFFFFFFFFFFFFFFFFFFFFFFFFFFFFFFFFFFFFFFFFFFFFFFF
310
FFFFFFFFFFFFFFFFFFFFFFFFFFFFFFFFFFFFFFFFFFFFFFFFFFFFFFFFFFFFFFFF
310
FFFFFFFFFFFFFFFFF000FFFFFFFFFFFFFFFFFFFFFFFFFFFFFFFFFFFFFFFFFFFF
310
FFFFFFFFFFFFFFFFFFFFFFFFFFFFFFFFFFFFFFFFFFFFFFFFFFFFFFFFFFFFFFFF
310
FFFFFFFFFFFFFFFFFFFFFFFFFFFFFFFFFFFFFFFFFFFFFFFFFFFFFFFFFFFFFFFF
310
F000FFFFFFFFFFFFFFFFFFFFFFFFFFFFFFFFFFFFFFFFFFFFFFFFFFFFFFFFFFFF
310
FFFFFFFFFFFFFFFFFFFFFFFFFFFFFFFFFFFFFFFFFFFFFFFFFFFFFFFFFFFFFFFF
310
FFFFFFFFFFFFFFFFFFFFFFFFFFFFFFFFFFFFFFFFFFFFFFFFF000FFFFFFFFFFFF
310
FFFFFFFFFFFFFFFFFFFFFFFFFFFFFFFFFFFFFFFFFFFFFFFFFFFFFFFFFFFFFFFF
310
FFFFFFFFFFFFFFFFFFFFFFFFFFFFFFFFFFFFFFFFFFFFFFFFFFFFFFFFFFFFFFFF
310
FFFFFFFFFFFFFFFFFFFFFFFFFFFFFFFFF000FFFFFFFFFFFFFFFFFFFFFFFFFFFF
310
FFFFFFFFFFFFFFFFFFFFFFFFFFFFFFFFFFFFFFFFFFFFFFFFFFFFFFFFFFFFFFFF
310
FFFFFFFFFFFFFFFFFFFFFFFFFFFFFFFFFFFFFFFFFFFFFFFFFFFFFFFFFFFFFFFF
310
FFFFFFFFFFFFFFFFF000FFFFFFFFFFFFFFFFFFFFFFFFFFFFFFFFFFFFFFFFFFFF
310
FFFFFFFFFFFFFFFFFFFFFFFFFFFFFFFFFFFFFFFFFFFFFFFFFFFFFFFFFFFFFFFF
310
FFFFFFFFFFFFFFFFFFFFFFFFFFFFFFFFFFFFFFFFFFFFFFFFFFFFFFFFFFFFFFFF
310
F000FFFFFFFFFFFFFFFFFFFFFFFFFFFFFFFFFFFFFFFFFFFFFFFFFFFFFFFFFFFF
310
FFFFFFFFFFFFFFFFFFFFFFFFFFFFFFFFFFFFFFFFFFFFFFFFFFFFFFFFFFFFFFFF
310
FFFFFFFFFFFFFFFFFFFFFFFFFFFFFFFFFFFFFFFFFFFFFFFFF000FFFFFFFFFFFF
310
FFFFFFFFFFFFFFFFFFFFFFFFFFFFFFFFFFFFFFFFFFFFFFFFFFFFFFFFFFFFFFFF
310
FFFFFFFFFFFFFFFFFFFFFFFFFFFFFFFFFFFFFFFFFFFFFFFFFFFFFFFFFFFFFFFF
310
FFFFFFFFFFFFFFFFFFFFFFFFFFFFFFFFF000FFFFFFFFFFFFFFFFFFFFFFFFFFFF
310
FFFFFFFFFFFFFFFFFFFFFFFFFFFFFFFFFFFFFFFFFFFFFFFFFFFFFFFFFFFFFFFF
310
FFFFFFFFFFFFFFFFFFFFFFFFFFFFFFFFFFFFFFFFFFFFFFFFFFFFFFFFFFFFFFFF
310
FFFFFFFFFFFFFFFFF000FFFFFFFFFFFFFFFFFFFFFFFFFFFFFFFFFFFFFFFFFFFF
310
FFFFFFFFFFFFFFFFFFFFFFFFFFFFFFFFFFFFFFFFFFFFFFFFFFFFFFFFFFFFFFFF
310
FFFFFFFFFFFFFFFFFFFFFFFFFFFFFFFFFFFFFFFFFFFFFFFFFFFFFFFFFFFFFFFF
310
F000FFFFFFFFFFFFFFFFFFFFFFFFFFFFFFFFFFFFFFFFFFFFFFFFFFFFFFFFFFFF
310
FFFFFFFFFFFFFFFFFFFFFFFFFFFFFFFFFFFFFFFFFFFFFFFFFFFFFFFFFFFFFFFF
310
FFFFFFFFFFFFFFFFFFFFFFFFFFFFFFFFFFFFFFFFFFFFFFFFF000FFFFFFFFFFFF
310
FFFFFFFFFFFFFFFFFFFFFFFFFFFFFFFFFFFFFFFFFFFFFFFFFFFFFFFFFFFFFFFF
310
FFFFFFFFFFFFFFFFFFFFFFFFFFFFFFFFFFFFFFFFFFFFFFFFFFFFFFFFFFFFFFFF
310
FFFFFFFFFFFFFFFFFFFFFFFFFFFFFFFFF0000000000000000000000000000000
310
0000000000000000000000000000000000000000000000000000000000000000
310
0000000000000000000000000000000000000000000000000000000000000000
310
0000000000000000000000000000000000000000000000000000000000000000
310
0000000000000000000000000000000000000000000000000000000000000000
310
0000000000000000000000000000000000000000000000000000000000000000
310
0000000000000000000000000000000000000000000000000000000000000000
310
0000000000000000000000000000000000000000000000000000000000000000
310
0000000000000000000000000000000000000000000000000000000000000000
310
0000000000000000000000000000000000000000000000000000000000000000
310
0000000000000000000000000000000000000000000000000000000000000000
310
0000000000000000000000000000000000000000000000000000000000000000
310
0000000000000000000000000000000000000000000000000000000000000000
310
0000000000000000000000000000000000000000000000000000000000000000
310
0000000000000000000000000000000000000000000000000000000000000000
310
0000000000000000000000000000000000000000000000000000000000000000
  1
OLE
  0
ENDSEC
  0
SECTION
  2
OBJECTS
  0
DICTIONARY
  5
C
330
0
100
AcDbDictionary
281
     1
  3
ACAD_GROUP
350
D
  3
ACAD_LAYOUT
350
1A
  3
ACAD_MLINESTYLE
350
17
  3
ACAD_PLOTSETTINGS
350
19
  3
ACAD_PLOTSTYLENAME
350
E
  3
ACAD_SCALELIST
350
47
  0
DICTIONARY
  5
D
102
{ACAD_REACTORS
330
C
102
}
330
C
100
AcDbDictionary
281
     1
  0
DICTIONARY
  5
1A
102
{ACAD_REACTORS
330
C
102
}
330
C
100
AcDbDictionary
281
     1
  3
Layout1
350
1E
  3
Layout2
350
26
  3
Model
350
22
  0
DICTIONARY
  5
17
102
{ACAD_REACTORS
330
C
102
}
330
C
100
AcDbDictionary
281
     1
  3
Standard
350
18
  0
DICTIONARY
  5
19
102
{ACAD_REACTORS
330
C
102
}
330
C
100
AcDbDictionary
281
     1
  0
ACDBDICTIONARYWDFLT
  5
E
102
{ACAD_REACTORS
330
C
102
}
330
C
100
AcDbDictionary
281
     1
  3
Normal
350
F
100
AcDbDictionaryWithDefault
340
F
  0
DICTIONARY
  5
47
102
{ACAD_REACTORS
330
C
102
}
330
C
100
AcDbDictionary
281
     1
  3
A0
350
48
  3
A1
350
49
  3
A2
350
4A
  3
A3
350
4B
  3
A4
350
4C
  3
A5
350
4D
  3
A6
350
4E
  3
A7
350
4F
  3
A8
350
50
  3
A9
350
51
  3
B0
350
52
  3
B1
350
53
  3
B2
350
54
  3
B3
350
55
  3
B4
350
56
  3
B5
350
57
  3
B6
350
58
  3
B7
350
59
  3
B8
350
5A
  3
B9
350
5B
  3
C0
350
5C
  3
C1
350
5D
  3
C2
350
5E
  3
C3
350
5F
  3
C4
350
60
  3
C5
350
61
  3
C6
350
62
  3
C7
350
63
  3
C8
350
64
  3
C9
350
65
  3
D0
350
66
  3
D1
350
67
  3
D2
350
68
  0
LAYOUT
  5
1E
102
{ACAD_REACTORS
330
1A
102
}
330
1A
100
AcDbPlotSettings
  1

  2
none_device
  4

  6

 40
0.0
 41
0.0
 42
0.0
 43
0.0
 44
0.0
 45
0.0
 46
0.0
 47
0.0
 48
0.0
 49
0.0
140
0.0
141
0.0
142
1.0
143
1.0
 70
   688
 72
     1
 73
     0
 74
     5
  7

 75
    16
147
1.0
148
0.0
149
0.0
100
AcDbLayout
  1
Layout1
 70
     1
 71
     1
 10
0.0
 20
0.0
 11
420.0
 21
297.0
 12
0.0
 22
0.0
 32
0.0
 14
1.0000000000E+20
 24
1.0000000000E+20
 34
1.0000000000E+20
 15
-1.0000000000E+20
 25
-1.0000000000E+20
 35
-1.0000000000E+20
146
0.0
 13
0.0
 23
0.0
 33
0.0
 16
1.0
 26
0.0
 36
0.0
 17
0.0
 27
1.0
 37
0.0
 76
     0
330
1B
  0
LAYOUT
  5
26
102
{ACAD_REACTORS
330
1A
102
}
330
1A
100
AcDbPlotSettings
  1

  2
none_device
  4

  6

 40
0.0
 41
0.0
 42
0.0
 43
0.0
 44
0.0
 45
0.0
 46
0.0
 47
0.0
 48
0.0
 49
0.0
140
0.0
141
0.0
142
1.0
143
1.0
 70
   688
 72
     1
 73
     0
 74
     5
  7

 75
    16
147
1.0
148
0.0
149
0.0
100
AcDbLayout
  1
Layout2
 70
     1
 71
     2
 10
0.0
 20
0.0
 11
0.0
 21
0.0
 12
0.0
 22
0.0
 32
0.0
 14
0.0
 24
0.0
 34
0.0
 15
0.0
 25
0.0
 35
0.0
146
0.0
 13
0.0
 23
0.0
 33
0.0
 16
1.0
 26
0.0
 36
0.0
 17
0.0
 27
1.0
 37
0.0
 76
     0
330
23
  0
LAYOUT
  5
22
102
{ACAD_REACTORS
330
1A
102
}
330
1A
100
AcDbPlotSettings
  1

  2
none_device
  4
Letter_(8.50_x_11.00_Inches)
  6

 40
6.35
 41
6.35
 42
6.35000508
 43
6.35000508
 44
215.9
 45
279.4
 46
0.0
 47
0.0
 48
0.0
 49
0.0
140
0.0
141
0.0
142
1.0
143
1.0
 70
  1712
 72
     1
 73
     0
 74
     0
  7

 75
     0
147
1.0
148
0.0
149
0.0
100
AcDbLayout
  1
Model
 70
     1
 71
     0
 10
0.0
 20
0.0
 11
297.0
 21
210.0
 12
0.0
 22
0.0
 32
0.0
 14
0.0
 24
0.0
 34
0.0
 15
297.0
 25
210.0
 35
0.0
146
0.0
 13
0.0
 23
0.0
 33
0.0
 16
1.0
 26
0.0
 36
0.0
 17
0.0
 27
1.0
 37
0.0
 76
     0
330
1F
331
29
  0
MLINESTYLE
  5
18
102
{ACAD_REACTORS
330
17
102
}
330
17
100
AcDbMlineStyle
  2
Standard
 70
     0
  3

 62
   256
 51
90.0
 52
90.0
 71
     2
 49
0.5
 62
   256
  6
BYLAYER
 49
-0.5
 62
   256
  6
BYLAYER
  0
ACDBPLACEHOLDER
  5
F
102
{ACAD_REACTORS
330
E
102
}
330
E
  0
SCALE
  5
48
102
{ACAD_REACTORS
330
47
102
}
330
47
100
AcDbScale
 70
     0
300
1:1
140
1.0
141
1.0
290
     1
  0
SCALE
  5
49
102
{ACAD_REACTORS
330
47
102
}
330
47
100
AcDbScale
 70
     0
300
1:2
140
1.0
141
2.0
290
     0
  0
SCALE
  5
4A
102
{ACAD_REACTORS
330
47
102
}
330
47
100
AcDbScale
 70
     0
300
1:4
140
1.0
141
4.0
290
     0
  0
SCALE
  5
4B
102
{ACAD_REACTORS
330
47
102
}
330
47
100
AcDbScale
 70
     0
300
1:5
140
1.0
141
5.0
290
     0
  0
SCALE
  5
4C
102
{ACAD_REACTORS
330
47
102
}
330
47
100
AcDbScale
 70
     0
300
1:8
140
1.0
141
8.0
290
     0
  0
SCALE
  5
4D
102
{ACAD_REACTORS
330
47
102
}
330
47
100
AcDbScale
 70
     0
300
1:10
140
1.0
141
10.0
290
     0
  0
SCALE
  5
4E
102
{ACAD_REACTORS
330
47
102
}
330
47
100
AcDbScale
 70
     0
300
1:16
140
1.0
141
16.0
290
     0
  0
SCALE
  5
4F
102
{ACAD_REACTORS
330
47
102
}
330
47
100
AcDbScale
 70
     0
300
1:20
140
1.0
141
20.0
290
     0
  0
SCALE
  5
50
102
{ACAD_REACTORS
330
47
102
}
330
47
100
AcDbScale
 70
     0
300
1:30
140
1.0
141
30.0
290
     0
  0
SCALE
  5
51
102
{ACAD_REACTORS
330
47
102
}
330
47
100
AcDbScale
 70
     0
300
1:40
140
1.0
141
40.0
290
     0
  0
SCALE
  5
52
102
{ACAD_REACTORS
330
47
102
}
330
47
100
AcDbScale
 70
     0
300
1:50
140
1.0
141
50.0
290
     0
  0
SCALE
  5
53
102
{ACAD_REACTORS
330
47
102
}
330
47
100
AcDbScale
 70
     0
300
1:100
140
1.0
141
100.0
290
     0
  0
SCALE
  5
54
102
{ACAD_REACTORS
330
47
102
}
330
47
100
AcDbScale
 70
     0
300
2:1
140
2.0
141
1.0
290
     0
  0
SCALE
  5
55
102
{ACAD_REACTORS
330
47
102
}
330
47
100
AcDbScale
 70
     0
300
4:1
140
4.0
141
1.0
290
     0
  0
SCALE
  5
56
102
{ACAD_REACTORS
330
47
102
}
330
47
100
AcDbScale
 70
     0
300
8:1
140
8.0
141
1.0
290
     0
  0
SCALE
  5
57
102
{ACAD_REACTORS
330
47
102
}
330
47
100
AcDbScale
 70
     0
300
10:1
140
10.0
141
1.0
290
     0
  0
SCALE
  5
58
102
{ACAD_REACTORS
330
47
102
}
330
47
100
AcDbScale
 70
     0
300
100:1
140
100.0
141
1.0
290
     0
  0
SCALE
  5
59
102
{ACAD_REACTORS
330
47
102
}
330
47
100
AcDbScale
 70
     0
300
1/128" = 1'-0"
140
0.0078125
141
12.0
290
     0
  0
SCALE
  5
5A
102
{ACAD_REACTORS
330
47
102
}
330
47
100
AcDbScale
 70
     0
300
1/64" = 1'-0"
140
0.015625
141
12.0
290
     0
  0
SCALE
  5
5B
102
{ACAD_REACTORS
330
47
102
}
330
47
100
AcDbScale
 70
     0
300
1/32" = 1'-0"
140
0.03125
141
12.0
290
     0
  0
SCALE
  5
5C
102
{ACAD_REACTORS
330
47
102
}
330
47
100
AcDbScale
 70
     0
300
1/16" = 1'-0"
140
0.0625
141
12.0
290
     0
  0
SCALE
  5
5D
102
{ACAD_REACTORS
330
47
102
}
330
47
100
AcDbScale
 70
     0
300
3/32" = 1'-0"
140
0.09375
141
12.0
290
     0
  0
SCALE
  5
5E
102
{ACAD_REACTORS
330
47
102
}
330
47
100
AcDbScale
 70
     0
300
1/8" = 1'-0"
140
0.125
141
12.0
290
     0
  0
SCALE
  5
5F
102
{ACAD_REACTORS
330
47
102
}
330
47
100
AcDbScale
 70
     0
300
3/16" = 1'-0"
140
0.1875
141
12.0
290
     0
  0
SCALE
  5
60
102
{ACAD_REACTORS
330
47
102
}
330
47
100
AcDbScale
 70
     0
300
1/4" = 1'-0"
140
0.25
141
12.0
290
     0
  0
SCALE
  5
61
102
{ACAD_REACTORS
330
47
102
}
330
47
100
AcDbScale
 70
     0
300
3/8" = 1'-0"
140
0.375
141
12.0
290
     0
  0
SCALE
  5
62
102
{ACAD_REACTORS
330
47
102
}
330
47
100
AcDbScale
 70
     0
300
1/2" = 1'-0"
140
0.5
141
12.0
290
     0
  0
SCALE
  5
63
102
{ACAD_REACTORS
330
47
102
}
330
47
100
AcDbScale
 70
     0
300
3/4" = 1'-0"
140
0.75
141
12.0
290
     0
  0
SCALE
  5
64
102
{ACAD_REACTORS
330
47
102
}
330
47
100
AcDbScale
 70
     0
300
1" = 1'-0"
140
1.0
141
12.0
290
     0
  0
SCALE
  5
65
102
{ACAD_REACTORS
330
47
102
}
330
47
100
AcDbScale
 70
     0
300
1-1/2" = 1'-0"
140
1.5
141
12.0
290
     0
  0
SCALE
  5
66
102
{ACAD_REACTORS
330
47
102
}
330
47
100
AcDbScale
 70
     0
300
3" = 1'-0"
140
3.0
141
12.0
290
     0
  0
SCALE
  5
67
102
{ACAD_REACTORS
330
47
102
}
330
47
100
AcDbScale
 70
     0
300
6" = 1'-0"
140
6.0
141
12.0
290
     0
  0
SCALE
  5
68
102
{ACAD_REACTORS
330
47
102
}
330
47
100
AcDbScale
 70
     0
300
1'-0" = 1'-0"
140
12.0
141
12.0
290
     0
  0
ENDSEC
  0
EOF
