  0
SECTION
  2
HEADER
  9
$ACADVER
  1
AC1015
  9
$ACADMAINTVER
 70
     6
  9
$DWGCODEPAGE
  3
ANSI_1252
  9
$INSBASE
 10
0.0
 20
0.0
 30
0.0
  9
$EXTMIN
 10
0.0
 20
0.0
 30
0.0
  9
$EXTMAX
 10
297.0
 20
210.0
 30
0.0
  9
$LIMMIN
 10
0.0
 20
0.0
  9
$LIMMAX
 10
297.0
 20
210.0
  9
$ORTHOMODE
 70
     0
  9
$REGENMODE
 70
     1
  9
$FILLMODE
 70
     1
  9
$QTEXTMODE
 70
     0
  9
$MIRRTEXT
 70
     1
  9
$LTSCALE
 40
1.0
  9
$ATTMODE
 70
     1
  9
$TEXTSIZE
 40
2.0
  9
$TRACEWID
 40
1.0
  9
$TEXTSTYLE
  7
Standard
  9
$CLAYER
  8
0
  9
$CELTYPE
  6
ByLayer
  9
$CECOLOR
 62
   256
  9
$CELTSCALE
 40
1.0
  9
$DISPSILH
 70
     0
  9
$DIMSCALE
 40
1.0
  9
$DIMASZ
 40
3.0
  9
$DIMEXO
 40
0.0
  9
$DIMDLI
 40
3.75
  9
$DIMRND
 40
0.0
  9
$DIMDLE
 40
0.0
  9
$DIMEXE
 40
1.0
  9
$DIMTP
 40
0.0
  9
$DIMTM
 40
0.0
  9
$DIMTXT
 40
2.0
  9
$DIMCEN
 40
2.5
  9
$DIMTSZ
 40
0.0
  9
$DIMTOL
 70
     0
  9
$DIMLIM
 70
     0
  9
$DIMTIH
 70
     1
  9
$DIMTOH
 70
     1
  9
$DIMSE1
 70
     0
  9
$DIMSE2
 70
     0
  9
$DIMTAD
 70
     1
  9
$DIMZIN
 70
     0
  9
$DIMBLK
  1

  9
$DIMASO
 70
     1
  9
$DIMSHO
 70
     1
  9
$DIMPOST
  1

  9
$DIMAPOST
  1

  9
$DIMALT
 70
     0
  9
$DIMALTD
 70
     3
  9
$DIMALTF
 40
0.0393700787
  9
$DIMLFAC
 40
1.0
  9
$DIMTOFL
 70
     1
  9
$DIMTVP
 40
0.0
  9
$DIMTIX
 70
     0
  9
$DIMSOXD
 70
     0
  9
$DIMSAH
 70
     0
  9
$DIMBLK1
  1

  9
$DIMBLK2
  1

  9
$DIMSTYLE
  2
ISO-25
  9
$DIMCLRD
 70
     0
  9
$DIMCLRE
 70
     0
  9
$DIMCLRT
 70
     0
  9
$DIMTFAC
 40
1.0
  9
$DIMGAP
 40
1.524
  9
$DIMJUST
 70
     0
  9
$DIMSD1
 70
     0
  9
$DIMSD2
 70
     0
  9
$DIMTOLJ
 70
     0
  9
$DIMTZIN
 70
     0
  9
$DIMALTZ
 70
     0
  9
$DIMALTTZ
 70
     0
  9
$DIMUPT
 70
     0
  9
$DIMDEC
 70
     2
  9
$DIMTDEC
 70
     3
  9
$DIMALTU
 70
     2
  9
$DIMALTTD
 70
     3
  9
$DIMTXSTY
  7
Standard
  9
$DIMAUNIT
 70
     0
  9
$DIMADEC
 70
     2
  9
$DIMALTRND
 40
0.0
  9
$DIMAZIN
 70
     0
  9
$DIMDSEP
 70
    44
  9
$DIMATFIT
 70
     3
  9
$DIMFRAC
 70
     0
  9
$DIMLDRBLK
  1

  9
$DIMLUNIT
 70
     2
  9
$DIMLWD
 70
    -2
  9
$DIMLWE
 70
    -2
  9
$DIMTMOVE
 70
     0
  9
$LUNITS
 70
     2
  9
$LUPREC
 70
     2
  9
$SKETCHINC
 40
1.0
  9
$FILLETRAD
 40
10.0
  9
$AUNITS
 70
     0
  9
$AUPREC
 70
     2
  9
$MENU
  1
.
  9
$ELEVATION
 40
0.0
  9
$PELEVATION
 40
0.0
  9
$THICKNESS
 40
0.0
  9
$LIMCHECK
 70
     0
  9
$CHAMFERA
 40
0.0
  9
$CHAMFERB
 40
0.0
  9
$CHAMFERC
 40
0.0
  9
$CHAMFERD
 40
0.0
  9
$SKPOLY
 70
     0
  9
$TDCREATE
 40
2457584.437944132
  9
$TDUCREATE
 40
2457584.354610798
  9
$TDUPDATE
 40
2457584.43794515
  9
$TDUUPDATE
 40
2457584.354611817
  9
$TDINDWG
 40
0.0000000116
  9
$TDUSRTIMER
 40
0.0000000116
  9
$USRTIMER
 70
     1
  9
$ANGBASE
 50
0.0
  9
$ANGDIR
 70
     0
  9
$PDMODE
 70
     0
  9
$PDSIZE
 40
-1.0
  9
$PLINEWID
 40
0.0
  9
$SPLFRAME
 70
     0
  9
$SPLINETYPE
 70
     6
  9
$SPLINESEGS
 70
     8
  9
$HANDSEED
  5
165
  9
$SURFTAB1
 70
     6
  9
$SURFTAB2
 70
     6
  9
$SURFTYPE
 70
     6
  9
$SURFU
 70
     6
  9
$SURFV
 70
     6
  9
$UCSBASE
  2

  9
$UCSNAME
  2

  9
$UCSORG
 10
0.0
 20
0.0
 30
0.0
  9
$UCSXDIR
 10
1.0
 20
0.0
 30
0.0
  9
$UCSYDIR
 10
0.0
 20
1.0
 30
0.0
  9
$UCSORTHOREF
  2

  9
$UCSORTHOVIEW
 70
     0
  9
$UCSORGTOP
 10
0.0
 20
0.0
 30
0.0
  9
$UCSORGBOTTOM
 10
0.0
 20
0.0
 30
0.0
  9
$UCSORGLEFT
 10
0.0
 20
0.0
 30
0.0
  9
$UCSORGRIGHT
 10
0.0
 20
0.0
 30
0.0
  9
$UCSORGFRONT
 10
0.0
 20
0.0
 30
0.0
  9
$UCSORGBACK
 10
0.0
 20
0.0
 30
0.0
  9
$PUCSBASE
  2

  9
$PUCSNAME
  2

  9
$PUCSORG
 10
0.0
 20
0.0
 30
0.0
  9
$PUCSXDIR
 10
1.0
 20
0.0
 30
0.0
  9
$PUCSYDIR
 10
0.0
 20
1.0
 30
0.0
  9
$PUCSORTHOREF
  2

  9
$PUCSORTHOVIEW
 70
     0
  9
$PUCSORGTOP
 10
0.0
 20
0.0
 30
0.0
  9
$PUCSORGBOTTOM
 10
0.0
 20
0.0
 30
0.0
  9
$PUCSORGLEFT
 10
0.0
 20
0.0
 30
0.0
  9
$PUCSORGRIGHT
 10
0.0
 20
0.0
 30
0.0
  9
$PUCSORGFRONT
 10
0.0
 20
0.0
 30
0.0
  9
$PUCSORGBACK
 10
0.0
 20
0.0
 30
0.0
  9
$USERI1
 70
     0
  9
$USERI2
 70
     0
  9
$USERI3
 70
     0
  9
$USERI4
 70
     0
  9
$USERI5
 70
     0
  9
$USERR1
 40
0.0
  9
$USERR2
 40
0.0
  9
$USERR3
 40
0.0
  9
$USERR4
 40
0.0
  9
$USERR5
 40
0.0
  9
$WORLDVIEW
 70
     1
  9
$SHADEDGE
 70
     3
  9
$SHADEDIF
 70
    70
  9
$TILEMODE
 70
     1
  9
$MAXACTVP
 70
    64
  9
$PINSBASE
 10
0.0
 20
0.0
 30
0.0
  9
$PLIMCHECK
 70
     0
  9
$PEXTMIN
 10
1.0000000000E+20
 20
1.0000000000E+20
 30
1.0000000000E+20
  9
$PEXTMAX
 10
-1.0000000000E+20
 20
-1.0000000000E+20
 30
-1.0000000000E+20
  9
$PLIMMIN
 10
0.0
 20
0.0
  9
$PLIMMAX
 10
420.0
 20
297.0
  9
$UNITMODE
 70
     0
  9
$VISRETAIN
 70
     1
  9
$PLINEGEN
 70
     0
  9
$PSLTSCALE
 70
     1
  9
$TREEDEPTH
 70
  3020
  9
$CMLSTYLE
  2
Standard
  9
$CMLJUST
 70
     0
  9
$CMLSCALE
 40
20.0
  9
$PROXYGRAPHICS
 70
     1
  9
$MEASUREMENT
 70
     1
  9
$CELWEIGHT
370
    -1
  9
$ENDCAPS
280
     0
  9
$JOINSTYLE
280
     0
  9
$LWDISPLAY
290
     1
  9
$INSUNITS
 70
     4
  9
$HYPERLINKBASE
  1

  9
$STYLESHEET
  1

  9
$XEDIT
290
     1
  9
$CEPSNTYPE
380
     0
  9
$PSTYLEMODE
290
     1
  9
$FINGERPRINTGUID
  2
{5831A821-0739-443A-AE5C-95BE23D6D854}
  9
$VERSIONGUID
  2
{FAEB1C32-E019-11D5-929B-00C0DF256EC4}
  9
$EXTNAMES
290
     1
  9
$PSVPSCALE
 40
0.0
  9
$OLESTARTUP
290
     0
  0
ENDSEC
  0
SECTION
  2
CLASSES
  0
CLASS
  1
ACDBDICTIONARYWDFLT
  2
AcDbDictionaryWithDefault
  3
ObjectDBX Classes
 90
        0
280
     0
281
     0
  0
CLASS
  1
VISUALSTYLE
  2
AcDbVisualStyle
  3
ObjectDBX Classes
 90
     4095
280
     0
281
     0
  0
CLASS
  1
MATERIAL
  2
AcDbMaterial
  3
ObjectDBX Classes
 90
     1153
280
     0
281
     0
  0
CLASS
  1
SCALE
  2
AcDbScale
  3
ObjectDBX Classes
 90
     1153
280
     0
281
     0
  0
CLASS
  1
TABLESTYLE
  2
AcDbTableStyle
  3
ObjectDBX Classes
 90
     4095
280
     0
281
     0
  0
CLASS
  1
MLEADERSTYLE
  2
AcDbMLeaderStyle
  3
ACDB_MLEADERSTYLE_CLASS
 90
     4095
280
     0
281
     0
  0
CLASS
  1
SUN
  2
AcDbSun
  3
SCENEOE
 90
     1153
280
     0
281
     0
  0
CLASS
  1
ACDBPLACEHOLDER
  2
AcDbPlaceHolder
  3
ObjectDBX Classes
 90
        0
280
     0
281
     0
  0
CLASS
  1
LAYOUT
  2
AcDbLayout
  3
ObjectDBX Classes
 90
        0
280
     0
281
     0
  0
ENDSEC
  0
SECTION
  2
TABLES
  0
TABLE
  2
VPORT
  5
8
330
0
100
AcDbSymbolTable
 70
     1
  0
VPORT
  5
29
330
8
100
AcDbSymbolTableRecord
100
AcDbViewportTableRecord
  2
*Active
 70
     0
 10
0.0
 20
0.0
 11
1.0
 21
1.0
 12
148.5
 22
105.0
 13
0.0
 23
0.0
 14
10.0
 24
10.0
 15
10.0
 25
10.0
 16
0.0
 26
0.0
 36
1.0
 17
0.0
 27
0.0
 37
0.0
 40
210.0
 41
1.4142857143
 42
50.0
 43
0.0
 44
0.0
 50
0.0
 51
0.0
 71
     0
 72
  2000
 73
     1
 74
     3
 75
     0
 76
     0
 77
     0
 78
     0
281
     0
 65
     1
110
0.0
120
0.0
130
0.0
111
1.0
121
0.0
131
0.0
112
0.0
122
1.0
132
0.0
 79
     0
146
0.0
  0
ENDTAB
  0
TABLE
  2
LTYPE
  5
5
330
0
100
AcDbSymbolTable
 70
     6
  0
LTYPE
  5
14
330
5
100
AcDbSymbolTableRecord
100
AcDbLinetypeTableRecord
  2
ByBlock
 70
     0
  3

 72
    65
 73
     0
 40
0.0
  0
LTYPE
  5
15
330
5
100
AcDbSymbolTableRecord
100
AcDbLinetypeTableRecord
  2
ByLayer
 70
     0
  3

 72
    65
 73
     0
 40
0.0
  0
LTYPE
  5
16
330
5
100
AcDbSymbolTableRecord
100
AcDbLinetypeTableRecord
  2
Continuous
 70
     0
  3
Solid line
 72
    65
 73
     0
 40
0.0
  0
LTYPE
  5
6E
330
5
100
AcDbSymbolTableRecord
100
AcDbLinetypeTableRecord
  2
HIDDEN
 70
     0
  3
Hidden __ __ __ __ __ __ __ __ __ __ __ __ __ __
 72
    65
 73
     2
 40
1.905
 49
1.27
 74
     0
 49
-0.635
 74
     0
  0
LTYPE
  5
6F
330
5
100
AcDbSymbolTableRecord
100
AcDbLinetypeTableRecord
  2
PHANTOM
 70
     0
  3
Phantom ______  __  __  ______  __  __  ______
 72
    65
 73
     6
 40
12.7
 49
6.35
 74
     0
 49
-1.27
 74
     0
 49
1.27
 74
     0
 49
-1.27
 74
     0
 49
1.27
 74
     0
 49
-1.27
 74
     0
  0
LTYPE
  5
70
330
5
100
AcDbSymbolTableRecord
100
AcDbLinetypeTableRecord
  2
CENTER
 70
     0
  3
Center ____ _ ____ _ ____ _ ____ _ ____ _ ____
 72
    65
 73
     4
 40
10.16
 49
6.35
 74
     0
 49
-1.27
 74
     0
 49
1.27
 74
     0
 49
-1.27
 74
     0
  0
LTYPE
  5
71
330
5
100
AcDbSymbolTableRecord
100
AcDbLinetypeTableRecord
  2
CENTERX2
 70
     0
  3
Center (2x) ________  __  ________  __  _____
 72
    65
 73
     4
 40
20.32
 49
12.7
 74
     0
 49
-2.54
 74
     0
 49
2.54
 74
     0
 49
-2.54
 74
     0
  0
LTYPE
  5
72
330
5
100
AcDbSymbolTableRecord
100
AcDbLinetypeTableRecord
  2
DOT2
 70
     0
  3
Dot (.5x) ........................................
 72
    65
 73
     2
 40
0.635
 49
0.0
 74
     0
 49
-0.635
 74
     0
  0
ENDTAB
  0
TABLE
  2
LAYER
  5
2
330
0
100
AcDbSymbolTable
 70
     5
  0
LAYER
  5
10
330
2
100
AcDbSymbolTableRecord
100
AcDbLayerTableRecord
  2
0
 70
     0
 62
     7
  6
Continuous
370
    -3
390
F
  0
LAYER
  5
73
330
2
100
AcDbSymbolTableRecord
100
AcDbLayerTableRecord
  2
FORMAT
 70
     0
 62
     7
  6
Continuous
370
    -3
390
F
  0
LAYER
  5
74
330
2
100
AcDbSymbolTableRecord
100
AcDbLayerTableRecord
  2
VERMASSUNG
 70
     0
 62
     7
  6
Continuous
370
    -3
390
F
  0
LAYER
  5
75
330
2
100
AcDbSymbolTableRecord
100
AcDbLayerTableRecord
  2
KOPF_DÜNN
 70
     0
 62
     7
  6
Continuous
370
    -3
390
F
  0
LAYER
  5
76
330
2
100
AcDbSymbolTableRecord
100
AcDbLayerTableRecord
  2
KOPF_DICK
 70
     0
 62
     7
  6
Continuous
370
    15
390
F
  0
ENDTAB
  0
TABLE
  2
STYLE
  5
3
330
0
100
AcDbSymbolTable
 70
     2
  0
STYLE
  5
11
330
3
100
AcDbSymbolTableRecord
100
AcDbTextStyleTableRecord
  2
Standard
 70
     0
 40
0.0
 41
1.0
 50
0.0
 71
     0
 42
2.0
  3
txt
  4

  0
STYLE
  5
77
330
3
100
AcDbSymbolTableRecord
100
AcDbTextStyleTableRecord
  2
SLDTEXTSTYLE0
 70
     0
 40
0.0
 41
0.7
 50
0.0
 71
     0
 42
2.0
  3
TXT
  4

  0
ENDTAB
  0
TABLE
  2
VIEW
  5
6
330
0
100
AcDbSymbolTable
 70
     0
  0
ENDTAB
  0
TABLE
  2
UCS
  5
7
330
0
100
AcDbSymbolTable
 70
     0
  0
ENDTAB
  0
TABLE
  2
APPID
  5
9
330
0
100
AcDbSymbolTable
 70
     1
  0
APPID
  5
12
330
9
100
AcDbSymbolTableRecord
100
AcDbRegAppTableRecord
  2
ACAD
 70
     0
  0
ENDTAB
  0
TABLE
  2
DIMSTYLE
  5
A
330
0
100
AcDbSymbolTable
 70
     2
100
AcDbDimStyleTable
  0
DIMSTYLE
105
27
330
A
100
AcDbSymbolTableRecord
100
AcDbDimStyleTableRecord
  2
ISO-25
 70
     0
 41
2.5
 42
0.625
 43
3.75
 44
1.25
 73
     0
 74
     0
 77
     1
 78
     8
140
2.5
141
2.5
143
0.0393700787
147
0.625
171
     3
172
     1
178
     0
271
     2
272
     2
274
     3
278
    44
283
     0
284
     8
340
11
  0
DIMSTYLE
105
136
102
{ACAD_REACTORS
330
135
330
141
330
14D
330
157
102
}
330
A
100
AcDbSymbolTableRecord
100
AcDbDimStyleTableRecord
  2
SLDDIMSTYLE0
 70
     0
 41
3.0
 44
0.0
 45
0.000000001
 73
     0
 74
     0
 77
     1
 78
    12
 79
     3
140
2.0
147
0.5
173
     1
178
     0
271
     2
272
     3
276
     2
284
    12
340
77
  0
ENDTAB
  0
TABLE
  2
BLOCK_RECORD
  5
1
330
0
100
AcDbSymbolTable
 70
     5
  0
BLOCK_RECORD
  5
1F
330
1
100
AcDbSymbolTableRecord
100
AcDbBlockTableRecord
  2
*Model_Space
340
22
  0
BLOCK_RECORD
  5
1B
330
1
100
AcDbSymbolTableRecord
100
AcDbBlockTableRecord
  2
*Paper_Space
340
1E
  0
BLOCK_RECORD
  5
23
330
1
100
AcDbSymbolTableRecord
100
AcDbBlockTableRecord
  2
*Paper_Space0
340
26
  0
BLOCK_RECORD
  5
137
330
1
100
AcDbSymbolTableRecord
100
AcDbBlockTableRecord
  2
_D
340
0
  0
BLOCK_RECORD
  5
142
330
1
100
AcDbSymbolTableRecord
100
AcDbBlockTableRecord
  2
_D_1
340
0
  0
BLOCK_RECORD
  5
14E
330
1
100
AcDbSymbolTableRecord
100
AcDbBlockTableRecord
  2
_D_2
340
0
  0
BLOCK_RECORD
  5
158
330
1
100
AcDbSymbolTableRecord
100
AcDbBlockTableRecord
  2
_D_3
340
0
  0
ENDTAB
  0
ENDSEC
  0
SECTION
  2
BLOCKS
  0
BLOCK
  5
20
330
1F
100
AcDbEntity
  8
0
100
AcDbBlockBegin
  2
*Model_Space
 70
     0
 10
0.0
 20
0.0
 30
0.0
  3
*Model_Space
  1

  0
ENDBLK
  5
21
330
1F
100
AcDbEntity
  8
0
100
AcDbBlockEnd
  0
BLOCK
  5
1C
330
1B
100
AcDbEntity
 67
     1
  8
0
100
AcDbBlockBegin
  2
*Paper_Space
 70
     0
 10
0.0
 20
0.0
 30
0.0
  3
*Paper_Space
  1

  0
ENDBLK
  5
1D
330
1B
100
AcDbEntity
 67
     1
  8
0
100
AcDbBlockEnd
  0
BLOCK
  5
24
330
23
100
AcDbEntity
  8
0
100
AcDbBlockBegin
  2
*Paper_Space0
 70
     0
 10
0.0
 20
0.0
 30
0.0
  3
*Paper_Space0
  1

  0
ENDBLK
  5
25
330
23
100
AcDbEntity
  8
0
100
AcDbBlockEnd
  0
BLOCK
  5
138
330
137
100
AcDbEntity
  8
0
100
AcDbBlockBegin
  2
_D
 70
     0
 10
0.0
 20
0.0
 30
0.0
  3
_D
  1

  0
SOLID
  5
13A
330
137
100
AcDbEntity
  8
VERMASSUNG
100
AcDbTrace
 10
216.6366268207
 20
124.4691084171
 30
0.0
 11
216.1866268207
 21
121.4691084171
 31
0.0
 12
217.0866268207
 22
121.4691084171
 32
0.0
 13
217.0866268207
 23
121.4691084171
 33
0.0
  0
SOLID
  5
13B
330
137
100
AcDbEntity
  8
VERMASSUNG
100
AcDbTrace
 10
216.6366268207
 20
88.4691084171
 30
0.0
 11
217.0866268207
 21
91.4691084171
 31
0.0
 12
216.1866268207
 22
91.4691084171
 32
0.0
 13
216.1866268207
 23
91.4691084171
 33
0.0
  0
LINE
  5
13C
330
137
100
AcDbEntity
  8
VERMASSUNG
100
AcDbLine
 10
189.9400815858
 20
124.4691084171
 30
0.0
 11
217.6366268207
 21
124.4691084171
 31
0.0
  0
LINE
  5
13D
330
137
100
AcDbEntity
  8
VERMASSUNG
100
AcDbLine
 10
189.9400815858
 20
88.4691084171
 30
0.0
 11
217.6366268207
 21
88.4691084171
 31
0.0
  0
LINE
  5
13E
330
137
100
AcDbEntity
  8
VERMASSUNG
100
AcDbLine
 10
216.6366268207
 20
124.4691084171
 30
0.0
 11
216.6366268207
 21
88.4691084171
 31
0.0
  0
MTEXT
  5
13F
330
137
100
AcDbEntity
  8
VERMASSUNG
100
AcDbMText
 10
214.0584912829
 20
103.26493231
 30
0.0
 40
2.0
 41
0.0
 71
     1
 72
     1
  1
%%c
  7
SLDTEXTSTYLE0
 11
-7.044195017643634E-15
 21
1.0
 31
0.0
 73
     1
 44
1.0
  0
MTEXT
  5
140
330
137
100
AcDbEntity
  8
VERMASSUNG
100
AcDbMText
 10
214.0584912247
 20
106.8739045037
 30
0.0
 40
2.0
 41
0.0
 71
     1
 72
     1
  1
36
  7
SLDTEXTSTYLE0
 11
-7.044195017643634E-15
 21
1.0
 31
0.0
 73
     1
 44
1.0
  0
ENDBLK
  5
139
330
137
100
AcDbEntity
  8
0
100
AcDbBlockEnd
  0
BLOCK
  5
143
330
142
100
AcDbEntity
  8
0
100
AcDbBlockBegin
  2
_D_1
 70
     0
 10
0.0
 20
0.0
 30
0.0
  3
_D_1
  1

  0
SOLID
  5
145
330
142
100
AcDbEntity
  8
VERMASSUNG
100
AcDbTrace
 10
222.6366268207
 20
138.4691084171
 30
0.0
 11
222.1866268207
 21
135.4691084171
 31
0.0
 12
223.0866268207
 22
135.4691084171
 32
0.0
 13
223.0866268207
 23
135.4691084171
 33
0.0
  0
SOLID
  5
146
330
142
100
AcDbEntity
  8
VERMASSUNG
100
AcDbTrace
 10
222.6366268207
 20
74.4691084171
 30
0.0
 11
223.0866268207
 21
77.4691084171
 31
0.0
 12
222.1866268207
 22
77.4691084171
 32
0.0
 13
222.1866268207
 23
77.4691084171
 33
0.0
  0
LINE
  5
147
330
142
100
AcDbEntity
  8
VERMASSUNG
100
AcDbLine
 10
205.9400815859
 20
138.4691084171
 30
0.0
 11
223.6366268207
 21
138.4691084171
 31
0.0
  0
LINE
  5
148
330
142
100
AcDbEntity
  8
VERMASSUNG
100
AcDbLine
 10
205.9400815859
 20
74.4691084171
 30
0.0
 11
223.6366268207
 21
74.4691084171
 31
0.0
  0
LINE
  5
149
330
142
100
AcDbEntity
  8
VERMASSUNG
100
AcDbLine
 10
222.6366268207
 20
138.4691084171
 30
0.0
 11
222.6366268207
 21
74.4691084171
 31
0.0
  0
MTEXT
  5
14A
330
142
100
AcDbEntity
  8
VERMASSUNG
100
AcDbMText
 10
219.8584915645
 20
100.2659117127
 30
0.0
 40
2.0
 41
0.0
 71
     1
 72
     1
  1
ST6
  7
SLDTEXTSTYLE0
 11
-7.044195017643634E-15
 21
1.0
 31
0.0
 73
     1
 44
1.0
  0
MTEXT
  5
14B
330
142
100
AcDbEntity
  8
VERMASSUNG
100
AcDbMText
 10
220.0584915158
 20
106.065911639
 30
0.0
 40
2.0
 41
0.0
 71
     1
 72
     1
  1
%%c
  7
SLDTEXTSTYLE0
 11
-7.044195017643634E-15
 21
1.0
 31
0.0
 73
     1
 44
1.0
  0
MTEXT
  5
14C
330
142
100
AcDbEntity
  8
VERMASSUNG
100
AcDbMText
 10
220.0584912247
 20
109.6743875109
 30
0.0
 40
2.0
 41
0.0
 71
     1
 72
     1
  1
64
  7
SLDTEXTSTYLE0
 11
-7.044195017643634E-15
 21
1.0
 31
0.0
 73
     1
 44
1.0
  0
ENDBLK
  5
144
330
142
100
AcDbEntity
  8
0
100
AcDbBlockEnd
  0
BLOCK
  5
14F
330
14E
100
AcDbEntity
  8
0
100
AcDbBlockBegin
  2
_D_2
 70
     0
 10
0.0
 20
0.0
 30
0.0
  3
_D_2
  1

  0
SOLID
  5
151
330
14E
100
AcDbEntity
  8
VERMASSUNG
100
AcDbTrace
 10
206.5400815859
 20
142.4691084171
 30
0.0
 11
203.5400815859
 21
142.9191084171
 31
0.0
 12
203.5400815859
 22
142.0191084171
 32
0.0
 13
203.5400815859
 23
142.0191084171
 33
0.0
  0
SOLID
  5
152
330
14E
100
AcDbEntity
  8
VERMASSUNG
100
AcDbTrace
 10
106.5400815859
 20
142.4691084171
 30
0.0
 11
109.5400815859
 21
142.0191084171
 31
0.0
 12
109.5400815859
 22
142.9191084171
 32
0.0
 13
109.5400815859
 23
142.9191084171
 33
0.0
  0
LINE
  5
153
330
14E
100
AcDbEntity
  8
VERMASSUNG
100
AcDbLine
 10
206.5400815859
 20
137.8691084171
 30
0.0
 11
206.5400815859
 21
143.4691084171
 31
0.0
  0
LINE
  5
154
330
14E
100
AcDbEntity
  8
VERMASSUNG
100
AcDbLine
 10
106.5400815859
 20
137.8691084171
 30
0.0
 11
106.5400815859
 21
143.4691084171
 31
0.0
  0
LINE
  5
155
330
14E
100
AcDbEntity
  8
VERMASSUNG
100
AcDbLine
 10
206.5400815859
 20
142.4691084171
 30
0.0
 11
106.5400815859
 21
142.4691084171
 31
0.0
  0
MTEXT
  5
156
330
14E
100
AcDbEntity
  8
VERMASSUNG
100
AcDbMText
 10
154.6400815539
 20
145.0472440131
 30
0.0
 40
2.0
 41
0.0
 71
     1
 72
     1
  1
100
  7
SLDTEXTSTYLE0
 73
     1
 44
1.0
  0
ENDBLK
  5
150
330
14E
100
AcDbEntity
  8
0
100
AcDbBlockEnd
  0
BLOCK
  5
159
330
158
100
AcDbEntity
  8
0
100
AcDbBlockBegin
  2
_D_3
 70
     0
 10
0.0
 20
0.0
 30
0.0
  3
_D_3
  1

  0
ARC
  5
15B
330
158
100
AcDbEntity
  8
VERMASSUNG
100
AcDbCircle
 10
138.340081817
 20
150.369108682
 30
0.0
 40
4.248529228887633
100
AcDbArc
 50
153.4349488229
 51
206.5650511771
  0
ARC
  5
15C
330
158
100
AcDbEntity
  8
VERMASSUNG
100
AcDbCircle
 10
134.7400814131
 20
150.369108682
 30
0.0
 40
4.248529228887608
100
AcDbArc
 50
333.4349488229
 51
26.5650511771
  0
SOLID
  5
15D
330
158
100
AcDbEntity
  8
VERMASSUNG
100
AcDbTrace
 10
206.5400815859
 20
148.4691084171
 30
0.0
 11
203.5400815859
 21
148.9191084171
 31
0.0
 12
203.5400815859
 22
148.0191084171
 32
0.0
 13
203.5400815859
 23
148.0191084171
 33
0.0
  0
SOLID
  5
15E
330
158
100
AcDbEntity
  8
VERMASSUNG
100
AcDbTrace
 10
66.5400815859
 20
148.4691084171
 30
0.0
 11
69.5400815859
 21
148.0191084171
 31
0.0
 12
69.5400815859
 22
148.9191084171
 32
0.0
 13
69.5400815859
 23
148.9191084171
 33
0.0
  0
LINE
  5
15F
330
158
100
AcDbEntity
  8
VERMASSUNG
100
AcDbLine
 10
206.5400815859
 20
137.8691084171
 30
0.0
 11
206.5400815859
 21
149.4691084171
 31
0.0
  0
LINE
  5
160
330
158
100
AcDbEntity
  8
VERMASSUNG
100
AcDbLine
 10
66.5400815859
 20
122.3691084171
 30
0.0
 11
66.5400815859
 21
149.4691084171
 31
0.0
  0
LINE
  5
161
330
158
100
AcDbEntity
  8
VERMASSUNG
100
AcDbLine
 10
206.5400815859
 20
148.4691084171
 30
0.0
 11
66.5400815859
 21
148.4691084171
 31
0.0
  0
MTEXT
  5
162
330
158
100
AcDbEntity
  8
VERMASSUNG
100
AcDbMText
 10
134.5400817529
 20
151.0472442459
 30
0.0
 40
2.0
 41
0.0
 71
     1
 72
     1
  1
140
  7
SLDTEXTSTYLE0
 73
     1
 44
1.0
  0
ENDBLK
  5
15A
330
158
100
AcDbEntity
  8
0
100
AcDbBlockEnd
  0
ENDSEC
  0
SECTION
  2
ENTITIES
  0
MTEXT
  5
78
330
1F
100
AcDbEntity
  8
KOPF_DÜNN
100
AcDbMText
 10
13.8892156294
 20
23.8442973028
 30
0.0
 40
3.0
 41
0.0
 71
     1
 72
     1
  1
164.064.064.100
  7
SLDTEXTSTYLE0
 73
     1
 44
1.0
  0
MTEXT
  5
79
330
1F
100
AcDbEntity
  8
VERMASSUNG
100
AcDbMText
 10
13.9329988022
 20
28.8834360957
 30
0.0
 40
3.0
 41
0.0
 71
     1
 72
     1
  1
Verlängerung_Extension ST6+
  7
SLDTEXTSTYLE0
 73
     1
 44
1.0
  0
MTEXT
  5
7A
330
1F
100
AcDbEntity
  8
VERMASSUNG
100
AcDbMText
 10
98.8601118557
 20
13.8365368761
 30
0.0
 40
2.0
 41
0.0
 71
     1
 72
     1
  1
Datum: 11.06.2008
  7
SLDTEXTSTYLE0
 73
     1
 44
1.0
  0
MTEXT
  5
7B
330
1F
100
AcDbEntity
  8
VERMASSUNG
100
AcDbMText
 10
13.933048693
 20
18.0482802738
 30
0.0
 40
2.0
 41
0.0
 71
     1
 72
     1
  1
ST6+ / 100 lang
  7
SLDTEXTSTYLE0
 73
     1
 44
1.0
  0
MTEXT
  5
7C
330
1F
100
AcDbEntity
  8
VERMASSUNG
100
AcDbMText
 10
13.9808475933
 20
13.9090974274
 30
0.0
 40
2.0
 41
0.0
 71
     1
 72
     1
  1
Gewicht: 2383g
  7
SLDTEXTSTYLE0
 73
     1
 44
1.0
  0
LINE
  5
7D
330
1F
100
AcDbEntity
  8
0
  6
Continuous
 62
     7
370
    15
100
AcDbLine
 10
106.5400815859
 20
131.3691084171
 30
0.0
 11
101.8400815859
 21
131.3691084171
 31
0.0
  0
LINE
  5
7E
330
1F
100
AcDbEntity
  8
0
  6
Continuous
 62
     7
370
    15
100
AcDbLine
 10
101.8400815859
 20
131.3691084171
 30
0.0
 11
101.5400815859
 21
131.0691084171
 31
0.0
  0
LINE
  5
7F
330
1F
100
AcDbEntity
  8
0
  6
Continuous
 62
     7
370
    15
100
AcDbLine
 10
101.8400815859
 20
123.9479471268
 30
0.0
 11
106.5400815859
 21
123.9479471268
 31
0.0
  0
LINE
  5
80
330
1F
100
AcDbEntity
  8
0
  6
Continuous
 62
     7
370
    15
100
AcDbLine
 10
101.5400815859
 20
124.2479471268
 30
0.0
 11
101.8400815859
 21
123.9479471268
 31
0.0
  0
LINE
  5
81
330
1F
100
AcDbEntity
  8
0
  6
Continuous
 62
     7
370
    15
100
AcDbLine
 10
101.8400815859
 20
81.5691084171
 30
0.0
 11
106.5400815859
 21
81.5691084171
 31
0.0
  0
LINE
  5
82
330
1F
100
AcDbEntity
  8
0
  6
Continuous
 62
     7
370
    15
100
AcDbLine
 10
101.5400815859
 20
81.8691084171
 30
0.0
 11
101.8400815859
 21
81.5691084171
 31
0.0
  0
LINE
  5
83
330
1F
100
AcDbEntity
  8
0
  6
Continuous
 62
     7
370
    15
100
AcDbLine
 10
106.5400815859
 20
88.9902697075
 30
0.0
 11
101.8400815859
 21
88.9902697075
 31
0.0
  0
LINE
  5
84
330
1F
100
AcDbEntity
  8
0
  6
Continuous
 62
     7
370
    15
100
AcDbLine
 10
101.8400815859
 20
88.9902697075
 30
0.0
 11
101.5400815859
 21
88.6902697075
 31
0.0
  0
LINE
  5
85
330
1F
100
AcDbEntity
  8
0
  6
Continuous
 62
     7
370
    15
100
AcDbLine
 10
107.1400815859
 20
74.4691084171
 30
0.0
 11
205.9400815859
 21
74.4691084171
 31
0.0
  0
LINE
  5
86
330
1F
100
AcDbEntity
  8
0
  6
Continuous
 62
     7
370
    15
100
AcDbLine
 10
205.9400815859
 20
138.4691084171
 30
0.0
 11
107.1400815859
 21
138.4691084171
 31
0.0
  0
LINE
  5
87
330
1F
100
AcDbEntity
  8
0
  6
Continuous
 62
     7
370
    15
100
AcDbLine
 10
205.9400815859
 20
74.4691084171
 30
0.0
 11
206.5400815859
 21
75.0691084171
 31
0.0
  0
LINE
  5
88
330
1F
100
AcDbEntity
  8
0
  6
Continuous
 62
     7
370
    15
100
AcDbLine
 10
206.5400815859
 20
137.8691084171
 30
0.0
 11
205.9400815859
 21
138.4691084171
 31
0.0
  0
LINE
  5
89
330
1F
100
AcDbEntity
  8
0
  6
Continuous
 62
     7
370
    15
100
AcDbLine
 10
107.1400815859
 20
138.4691084171
 30
0.0
 11
106.5400815859
 21
137.8691084171
 31
0.0
  0
LINE
  5
8A
330
1F
100
AcDbEntity
  8
0
  6
Continuous
 62
     7
370
    15
100
AcDbLine
 10
106.5400815859
 20
75.0691084171
 30
0.0
 11
107.1400815859
 21
74.4691084171
 31
0.0
  0
LINE
  5
8B
330
1F
100
AcDbEntity
  8
0
  6
Continuous
 62
     7
370
    15
100
AcDbLine
 10
71.3400815859
 20
124.4691084171
 30
0.0
 11
69.9946399341
 21
124.2041805752
 31
0.0
  0
LINE
  5
8C
330
1F
100
AcDbEntity
  8
0
  6
Continuous
 62
     7
370
    15
100
AcDbLine
 10
69.9946399341
 20
88.7340362591
 30
0.0
 11
71.3400815859
 21
88.4691084171
 31
0.0
  0
LINE
  5
8D
330
1F
100
AcDbEntity
  8
0
  6
Continuous
 62
     7
370
    15
100
AcDbLine
 10
71.3400815859
 20
88.4691084171
 30
0.0
 11
101.5400815859
 21
88.4691084171
 31
0.0
  0
LINE
  5
8E
330
1F
100
AcDbEntity
  8
0
  6
Continuous
 62
     7
370
    15
100
AcDbLine
 10
101.5400815859
 20
124.4691084171
 30
0.0
 11
71.3400815859
 21
124.4691084171
 31
0.0
  0
LINE
  5
8F
330
1F
100
AcDbEntity
  8
0
  6
Continuous
 62
     7
370
    15
100
AcDbLine
 10
68.7886097234
 20
88.5691084171
 30
0.0
 11
68.8744113403
 21
88.5691084171
 31
0.0
  0
LINE
  5
90
330
1F
100
AcDbEntity
  8
0
  6
Continuous
 62
     7
370
    15
100
AcDbLine
 10
68.8744113403
 20
124.3691084171
 30
0.0
 11
68.7886097234
 21
124.3691084171
 31
0.0
  0
ARC
  5
91
330
1F
100
AcDbEntity
  8
0
  6
Continuous
 62
     7
370
    15
100
AcDbCircle
 10
68.7886097234
 20
89.1691084171
 30
0.0
 40
0.6000000000000085
100
AcDbArc
 50
225.0
 51
270.0
  0
ARC
  5
92
330
1F
100
AcDbEntity
  8
0
  6
Continuous
 62
     7
370
    15
100
AcDbCircle
 10
68.7886097234
 20
123.7691084171
 30
0.0
 40
0.5999999999999943
100
AcDbArc
 50
90.0
 51
135.0
  0
ARC
  5
93
330
1F
100
AcDbEntity
  8
0
  6
Continuous
 62
     7
370
    15
100
AcDbCircle
 10
68.8744113403
 20
89.1691084171
 30
0.0
 40
0.6000000000000085
100
AcDbArc
 50
270.0
 51
282.4923677447
  0
ARC
  5
94
330
1F
100
AcDbEntity
  8
0
  6
Continuous
 62
     7
370
    15
100
AcDbCircle
 10
68.8744113403
 20
123.7691084171
 30
0.0
 40
0.5999999999999943
100
AcDbArc
 50
77.5076322553
 51
90.0
  0
LINE
  5
95
330
1F
100
AcDbEntity
  8
0
  6
Continuous
 62
     7
370
    15
100
AcDbLine
 10
69.0041970773
 20
88.5833135192
 30
0.0
 11
69.6670339367
 21
88.7301682811
 31
0.0
  0
LINE
  5
96
330
1F
100
AcDbEntity
  8
0
  6
Continuous
 62
     7
370
    15
100
AcDbLine
 10
69.6670339367
 20
124.2080485532
 30
0.0
 11
69.0041970773
 21
124.3549033151
 31
0.0
  0
ARC
  5
97
330
1F
100
AcDbEntity
  8
0
  6
Continuous
 62
     7
370
    15
100
AcDbCircle
 10
69.8400815859
 20
87.9491084171
 30
0.0
 40
0.7999999999999896
100
AcDbArc
 50
78.8605288287
 51
102.4923677447
  0
ARC
  5
98
330
1F
100
AcDbEntity
  8
0
  6
Continuous
 62
     7
370
    15
100
AcDbCircle
 10
69.8400815859
 20
124.9891084171
 30
0.0
 40
0.8000000000000036
100
AcDbArc
 50
257.5076322553
 51
281.1394711713
  0
LINE
  5
99
330
1F
100
AcDbEntity
  8
0
  6
Continuous
 62
     7
370
    15
100
AcDbLine
 10
68.3643456547
 20
124.1933724859
 30
0.0
 11
66.5400815859
 21
122.3691084171
 31
0.0
  0
LINE
  5
9A
330
1F
100
AcDbEntity
  8
0
  6
Continuous
 62
     7
370
    15
100
AcDbLine
 10
66.5400815859
 20
90.5691084171
 30
0.0
 11
68.3643456547
 21
88.7448443484
 31
0.0
  0
LINE
  5
9B
330
1F
100
AcDbEntity
  8
0
  6
Continuous
 62
     7
370
    15
100
AcDbLine
 10
101.8400815859
 20
131.3691084171
 30
0.0
 11
101.8400815859
 21
124.3026042836
 31
0.0
  0
LINE
  5
9C
330
1F
100
AcDbEntity
  8
0
  6
Continuous
 62
     7
370
    15
100
AcDbLine
 10
101.5400815859
 20
124.3898099895
 30
0.0
 11
101.5400815859
 21
131.0691084171
 31
0.0
  0
LINE
  5
9D
330
1F
100
AcDbEntity
  8
0
  6
Continuous
 62
     7
370
    15
100
AcDbLine
 10
101.8400815859
 20
124.3026042836
 30
0.0
 11
101.8400815859
 21
123.9479471268
 31
0.0
  0
LINE
  5
9E
330
1F
100
AcDbEntity
  8
0
  6
Continuous
 62
     7
370
    15
100
AcDbLine
 10
101.5400815859
 20
124.2479471268
 30
0.0
 11
101.5400815859
 21
124.3898099895
 31
0.0
  0
LINE
  5
9F
330
1F
100
AcDbEntity
  8
0
  6
Continuous
 62
     7
370
    15
100
AcDbLine
 10
101.8400815859
 20
88.6356125507
 30
0.0
 11
101.8400815859
 21
81.5691084171
 31
0.0
  0
LINE
  5
A0
330
1F
100
AcDbEntity
  8
0
  6
Continuous
 62
     7
370
    15
100
AcDbLine
 10
101.5400815859
 20
81.8691084171
 30
0.0
 11
101.5400815859
 21
88.5484068448
 31
0.0
  0
LINE
  5
A1
330
1F
100
AcDbEntity
  8
0
  6
Continuous
 62
     7
370
    15
100
AcDbLine
 10
101.8400815859
 20
88.9902697075
 30
0.0
 11
101.8400815859
 21
88.6356125507
 31
0.0
  0
LINE
  5
A2
330
1F
100
AcDbEntity
  8
0
  6
Continuous
 62
     7
370
    15
100
AcDbLine
 10
101.5400815859
 20
88.5484068448
 30
0.0
 11
101.5400815859
 21
88.6902697075
 31
0.0
  0
SPLINE
  5
A3
330
1F
100
AcDbEntity
  8
0
  6
Continuous
 62
     7
370
    15
100
AcDbSpline
210
0.0
220
0.0
230
1.0
 70
    24
 71
     3
 72
    11
 73
     7
 74
     0
 42
0.000000001
 43
0.00000001
 40
0.0
 40
0.0
 40
0.0
 40
0.0
 40
0.1336647920874049
 40
0.4825473608259762
 40
0.81563565615038
 40
1.0
 40
1.0
 40
1.0
 40
1.0
 10
192.4861358525716
 20
109.3003214724702
 30
0.0
 10
192.5470430794224
 20
109.1685997536497
 30
0.0
 10
192.7669261250108
 20
108.693067141152
 30
0.0
 10
193.1776942655194
 20
107.8047146696633
 30
0.0
 10
193.6188548926874
 20
106.8506335352721
 30
0.0
 10
193.8556447628083
 20
106.3385371830943
 30
0.0
 10
193.9400111486958
 20
106.1560812425705
 30
0.0
  0
SPLINE
  5
A4
330
1F
100
AcDbEntity
  8
0
  6
Continuous
 62
     7
370
    15
100
AcDbSpline
210
0.0
220
0.0
230
1.0
 70
    24
 71
     3
 72
    11
 73
     7
 74
     0
 42
0.000000001
 43
0.00000001
 40
0.0
 40
0.0
 40
0.0
 40
0.0
 40
0.2164553779443434
 40
0.4403112895790523
 40
0.7519005688038668
 40
1.0
 40
1.0
 40
1.0
 40
1.0
 10
187.0401520231832
 20
106.7821355917138
 30
0.0
 10
187.1768836744448
 20
106.9760764291949
 30
0.0
 10
187.4550217843176
 20
107.370588873581
 30
0.0
 10
187.9711718301611
 20
108.1026986026245
 30
0.0
 10
188.5248353408058
 20
108.8880176121327
 30
0.0
 10
188.8791467403578
 20
109.3905746201422
 30
0.0
 10
189.0362062898153
 20
109.6133486470419
 30
0.0
  0
SPLINE
  5
A5
330
1F
100
AcDbEntity
  8
0
  6
Continuous
 62
     7
370
    15
100
AcDbSpline
210
0.0
220
0.0
230
1.0
 70
    24
 71
     3
 72
    11
 73
     7
 74
     0
 42
0.000000001
 43
0.00000001
 40
0.0
 40
0.0
 40
0.0
 40
0.0
 40
0.1843643438496196
 40
0.5174526391740236
 40
0.8663352079125934
 40
0.9999999999999999
 40
0.9999999999999999
 40
0.9999999999999999
 40
0.9999999999999999
 10
188.4940273193074
 20
103.6378953618141
 30
0.0
 10
188.4096609334199
 20
103.820351302338
 30
0.0
 10
188.1728710632991
 20
104.3324476545158
 30
0.0
 10
187.7317104361311
 20
105.2865287889069
 30
0.0
 10
187.3209422956225
 20
106.1748812603957
 30
0.0
 10
187.1010592500341
 20
106.6504138728934
 30
0.0
 10
187.0401520231832
 20
106.7821355917138
 30
0.0
  0
SPLINE
  5
A6
330
1F
100
AcDbEntity
  8
0
  6
Continuous
 62
     7
370
    15
100
AcDbSpline
210
0.0
220
0.0
230
1.0
 70
    24
 71
     3
 72
    11
 73
     7
 74
     0
 42
0.000000001
 43
0.00000001
 40
0.0
 40
0.0
 40
0.0
 40
0.0
 40
0.2164553779443433
 40
0.4403112895790522
 40
0.7519005688038668
 40
1.0
 40
1.0
 40
1.0
 40
1.0
 10
193.9400111486958
 20
106.1560812425705
 30
0.0
 10
193.8032794974342
 20
105.9621404050894
 30
0.0
 10
193.5251413875613
 20
105.5676279607033
 30
0.0
 10
193.0089913417178
 20
104.8355182316598
 30
0.0
 10
192.4553278310732
 20
104.0501992221516
 30
0.0
 10
192.1010164315212
 20
103.5476422141421
 30
0.0
 10
191.9439568820637
 20
103.3248681872424
 30
0.0
  0
CIRCLE
  5
A7
330
1F
100
AcDbEntity
  8
0
  6
Continuous
 62
     7
370
    15
100
AcDbCircle
 10
190.4900815859
 20
106.4691084171
 30
0.0
 40
3.499999999999993
  0
SPLINE
  5
A8
330
1F
100
AcDbEntity
  8
0
  6
Continuous
 62
     7
370
    15
100
AcDbSpline
210
0.0
220
0.0
230
1.0
 70
    24
 71
     3
 72
    11
 73
     7
 74
     0
 42
0.000000001
 43
0.00000001
 40
0.0
 40
0.0
 40
0.0
 40
0.0
 40
0.2164553779443445
 40
0.4403112895790527
 40
0.7519005688038665
 40
0.9999999999999999
 40
0.9999999999999999
 40
0.9999999999999999
 40
0.9999999999999999
 10
189.0362062898153
 20
109.6133486470419
 30
0.0
 10
189.2725298075359
 20
109.5919059822885
 30
0.0
 10
189.7532566614197
 20
109.548287535571
 30
0.0
 10
190.645357308051
 20
109.4673433482279
 30
0.0
 10
191.6022952756822
 20
109.3805161876152
 30
0.0
 10
192.2146781112443
 20
109.3249520187575
 30
0.0
 10
192.4861358525716
 20
109.3003214724702
 30
0.0
  0
SPLINE
  5
A9
330
1F
100
AcDbEntity
  8
0
  6
Continuous
 62
     7
370
    15
100
AcDbSpline
210
0.0
220
0.0
230
1.0
 70
    24
 71
     3
 72
    11
 73
     7
 74
     0
 42
0.000000001
 43
0.00000001
 40
0.0
 40
0.0
 40
0.0
 40
0.0
 40
0.2164553779443438
 40
0.4403112895790526
 40
0.7519005688038665
 40
1.0
 40
1.0
 40
1.0
 40
1.0
 10
191.9439568820637
 20
103.3248681872424
 30
0.0
 10
191.7076333643431
 20
103.3463108519958
 30
0.0
 10
191.2269065104592
 20
103.3899292987133
 30
0.0
 10
190.334805863828
 20
103.4708734860564
 30
0.0
 10
189.3778678961967
 20
103.5577006466691
 30
0.0
 10
188.7654850606346
 20
103.6132648155268
 30
0.0
 10
188.4940273193074
 20
103.6378953618141
 30
0.0
  0
CIRCLE
  5
AA
330
1F
100
AcDbEntity
  8
0
  6
Continuous
 62
     7
370
    15
100
AcDbCircle
 10
190.4900815859
 20
106.4691084171
 30
0.0
 40
5.49999999999998
  0
CIRCLE
  5
AB
330
1F
100
AcDbEntity
  8
0
  6
Continuous
 62
     7
370
    15
100
AcDbCircle
 10
190.4900815859
 20
106.4691084171
 30
0.0
 40
5.99999999999998
  0
ARC
  5
AC
330
1F
100
AcDbEntity
  8
0
  6
Continuous
 62
     7
370
    15
100
AcDbCircle
 10
190.4900815859
 20
106.4691084171
 30
0.0
 40
3.00000000000001
100
AcDbArc
 50
84.8155001425
 51
144.8155001425
  0
ARC
  5
AD
330
1F
100
AcDbEntity
  8
0
  6
Continuous
 62
     7
370
    15
100
AcDbCircle
 10
190.4900815859
 20
106.4691084171
 30
0.0
 40
3.000000000000006
100
AcDbArc
 50
324.8155001425
 51
24.8155001425
  0
ARC
  5
AE
330
1F
100
AcDbEntity
  8
0
  6
Continuous
 62
     7
370
    15
100
AcDbCircle
 10
190.4900815859
 20
106.4691084171
 30
0.0
 40
3.000000000000009
100
AcDbArc
 50
264.8155001425
 51
324.8155001425
  0
ARC
  5
AF
330
1F
100
AcDbEntity
  8
0
  6
Continuous
 62
     7
370
    15
100
AcDbCircle
 10
190.4900815859
 20
106.4691084171
 30
0.0
 40
3.000000000000006
100
AcDbArc
 50
24.8155001425
 51
84.8155001425
  0
ARC
  5
B0
330
1F
100
AcDbEntity
  8
0
  6
Continuous
 62
     7
370
    15
100
AcDbCircle
 10
190.4900815859
 20
106.4691084171
 30
0.0
 40
3.00000000000001
100
AcDbArc
 50
144.8155001425
 51
204.8155001425
  0
ARC
  5
B1
330
1F
100
AcDbEntity
  8
0
  6
Continuous
 62
     7
370
    15
100
AcDbCircle
 10
190.4900815859
 20
106.4691084171
 30
0.0
 40
3.000000000000009
100
AcDbArc
 50
204.8155001425
 51
264.8155001425
  0
SPLINE
  5
B2
330
1F
100
AcDbEntity
  8
0
  6
Continuous
 62
     7
370
    15
100
AcDbSpline
210
0.0
220
0.0
230
1.0
 70
    11
 71
     3
 72
    93
 73
    89
 74
     0
 42
0.000000001
 43
0.00000001
 40
0.0
 40
0.0
 40
0.0
 40
0.0
 40
0.0312499999999991
 40
0.0312499999999991
 40
0.0624999999999982
 40
0.0624999999999982
 40
0.0937499999999973
 40
0.0937499999999973
 40
0.1093749999999968
 40
0.1093749999999968
 40
0.1249999999999964
 40
0.1406249999999959
 40
0.1406249999999959
 40
0.1562499999999955
 40
0.1562499999999955
 40
0.1874999999999946
 40
0.1874999999999946
 40
0.2031249999999944
 40
0.2031249999999944
 40
0.2187499999999941
 40
0.2187499999999941
 40
0.2343749999999939
 40
0.2343749999999939
 40
0.2499999999999937
 40
0.2499999999999937
 40
0.2812499999999932
 40
0.2812499999999932
 40
0.3124999999999926
 40
0.3124999999999926
 40
0.3437499999999921
 40
0.3437499999999921
 40
0.3593749999999913
 40
0.3593749999999913
 40
0.3749999999999906
 40
0.3749999999999906
 40
0.4062499999999901
 40
0.4062499999999901
 40
0.4374999999999895
 40
0.4374999999999895
 40
0.468749999999989
 40
0.468749999999989
 40
0.4999999999999886
 40
0.4999999999999886
 40
0.5156249999999887
 40
0.5156249999999887
 40
0.5312499999999888
 40
0.5312499999999888
 40
0.5624999999999891
 40
0.5624999999999891
 40
0.5781249999999896
 40
0.5781249999999896
 40
0.59374999999999
 40
0.59374999999999
 40
0.6249999999999905
 40
0.6249999999999905
 40
0.6406249999999908
 40
0.6406249999999908
 40
0.6562499999999911
 40
0.6562499999999911
 40
0.6718749999999915
 40
0.6718749999999915
 40
0.6874999999999918
 40
0.6874999999999918
 40
0.7187499999999923
 40
0.7187499999999923
 40
0.7343749999999927
 40
0.7343749999999927
 40
0.749999999999993
 40
0.749999999999993
 40
0.7656249999999933
 40
0.7656249999999933
 40
0.7812499999999937
 40
0.7812499999999937
 40
0.8124999999999943
 40
0.8124999999999943
 40
0.843749999999995
 40
0.843749999999995
 40
0.8749999999999956
 40
0.8749999999999956
 40
0.9062499999999962
 40
0.9062499999999962
 40
0.9374999999999969
 40
0.9374999999999969
 40
0.9531249999999977
 40
0.9531249999999977
 40
0.9687499999999984
 40
0.9687499999999984
 40
1.0
 40
1.0
 40
1.0
 40
1.0
 10
186.0701416971441
 20
110.8208682943518
 30
0.0
 10
185.7576828309361
 20
110.5554448297282
 30
0.0
 10
185.4751804551919
 20
110.2638807421002
 30
0.0
 10
184.9713423965873
 20
109.6268946932802
 30
0.0
 10
184.748843926482
 20
109.2776806962808
 30
0.0
 10
184.3887243188053
 20
108.5515231088598
 30
0.0
 10
184.2482291021243
 20
108.1721796381338
 30
0.0
 10
184.1007777769681
 20
107.5770161532404
 30
0.0
 10
184.0623463659596
 20
107.3736034333079
 30
0.0
 10
184.0093834414859
 20
106.9688851052671
 30
0.0
 10
183.9795066966417
 20
106.5636429744858
 30
0.0
 10
183.995220280391
 20
106.1573658903726
 30
0.0
 10
184.0341536154749
 20
105.7505618401334
 30
0.0
 10
184.0655563988365
 20
105.5458803689966
 30
0.0
 10
184.1925524134705
 20
104.9458715732503
 30
0.0
 10
184.3205182594706
 20
104.5604005826842
 30
0.0
 10
184.5749266417898
 20
104.0030644447175
 30
0.0
 10
184.6706671377595
 20
103.8202663243024
 30
0.0
 10
184.878643282221
 20
103.4695285019155
 30
0.0
 10
184.9912551892092
 20
103.3005912817849
 30
0.0
 10
185.2330228068867
 20
102.9750073601729
 30
0.0
 10
185.3621807102138
 20
102.8183623732853
 30
0.0
 10
185.6368785946025
 20
102.5171910969425
 30
0.0
 10
185.7830083221148
 20
102.3722454147087
 30
0.0
 10
186.2372656129223
 20
101.9635117035005
 30
0.0
 10
186.5632158992769
 20
101.7228524032966
 30
0.0
 10
187.2592462160475
 20
101.30175016094
 30
0.0
 10
187.6307772409187
 20
101.1216322613486
 30
0.0
 10
188.3899077381847
 20
100.8338369418348
 30
0.0
 10
188.7807575911865
 20
100.7238937447279
 30
0.0
 10
189.3840866806009
 20
100.6100118733476
 30
0.0
 10
189.5881717279322
 20
100.580713020812
 30
0.0
 10
189.9942407262601
 20
100.5403236734219
 30
0.0
 10
190.1972056369374
 20
100.5290175863898
 30
0.0
 10
190.8058953843135
 20
100.5212663926298
 30
0.0
 10
191.2114169989772
 20
100.5507549158825
 30
0.0
 10
192.0218955490876
 20
100.6819122638293
 30
0.0
 10
192.417459315489
 20
100.782305300243
 30
0.0
 10
193.1817207925316
 20
101.0492063103815
 30
0.0
 10
193.5523289953488
 20
101.2161996419551
 30
0.0
 10
194.2654623488073
 20
101.6208311198264
 30
0.0
 10
194.5975725932993
 20
101.852443935338
 30
0.0
 10
195.0593006905333
 20
102.2439068158881
 30
0.0
 10
195.2070944559443
 20
102.3817866997793
 30
0.0
 10
195.4899328361434
 20
102.6730280635854
 30
0.0
 10
195.6257351071556
 20
102.8273821538997
 30
0.0
 10
196.0064226953544
 20
103.307543849706
 30
0.0
 10
196.2240415490225
 20
103.6482847946084
 30
0.0
 10
196.4950723286443
 20
104.191230987274
 30
0.0
 10
196.576115656925
 20
104.37755687301
 30
0.0
 10
196.7184843049648
 20
104.7615709362649
 30
0.0
 10
196.7794616094987
 20
104.9588821758694
 30
0.0
 10
196.9271310832552
 20
105.5519499589746
 30
0.0
 10
196.9810018613275
 20
105.9540092633051
 30
0.0
 10
196.9930568877181
 20
106.5674220573004
 30
0.0
 10
196.985308300354
 20
106.774624203301
 30
0.0
 10
196.9467784785178
 20
107.1819599295675
 30
0.0
 10
196.9161296570156
 20
107.3832262995647
 30
0.0
 10
196.8327080407624
 20
107.7810969811023
 30
0.0
 10
196.7799339284273
 20
107.9777010060084
 30
0.0
 10
196.6521984739057
 20
108.3662424103004
 30
0.0
 10
196.5768269949152
 20
108.5587873942015
 30
0.0
 10
196.3229718249612
 20
109.1162719985071
 30
0.0
 10
196.1159529055452
 20
109.4655738196833
 30
0.0
 10
195.7514770233721
 20
109.9578362037893
 30
0.0
 10
195.6204973690721
 20
110.1169014901974
 30
0.0
 10
195.3460653135453
 20
110.4181689699216
 30
0.0
 10
195.2020464158072
 20
110.5612285356397
 30
0.0
 10
194.9009229635853
 20
110.8328450459717
 30
0.0
 10
194.7438167153671
 20
110.9613999921645
 30
0.0
 10
194.4166238150206
 20
111.2041900411172
 30
0.0
 10
194.2456803762183
 20
111.3188942494627
 30
0.0
 10
193.7216228595428
 20
111.6362132826385
 30
0.0
 10
193.3565785845932
 20
111.8133987146995
 30
0.0
 10
192.5964670402549
 20
112.1024760152532
 30
0.0
 10
192.1978521718569
 20
112.2145938616073
 30
0.0
 10
191.3972654756497
 20
112.365754117375
 30
0.0
 10
190.9931806228579
 20
112.4062170691293
 30
0.0
 10
190.1774443992188
 20
112.4172112362375
 30
0.0
 10
189.7642040781637
 20
112.3867604962832
 30
0.0
 10
188.9616770992442
 20
112.2568226568347
 30
0.0
 10
188.5684338468663
 20
112.1577230656445
 30
0.0
 10
187.990903627227
 20
111.956316979312
 30
0.0
 10
187.7995524265808
 20
111.8798801027307
 30
0.0
 10
187.427111734591
 20
111.7111064886614
 30
0.0
 10
187.2457966863396
 20
111.6188060522199
 30
0.0
 10
186.7164653181233
 20
111.3182319645884
 30
0.0
 10
186.3826005633521
 20
111.0862917589755
 30
0.0
 10
186.0701416971441
 20
110.8208682943518
 30
0.0
  0
LINE
  5
B3
330
1F
100
AcDbEntity
  8
0
  6
Continuous
 62
     7
370
    15
100
AcDbLine
 10
107.1400815859
 20
74.4691084171
 30
0.0
 11
107.1400815859
 21
138.4691084171
 31
0.0
  0
LINE
  5
B4
330
1F
100
AcDbEntity
  8
0
  6
Continuous
 62
     7
370
    15
100
AcDbLine
 10
205.9400815859
 20
138.4691084171
 30
0.0
 11
205.9400815859
 21
74.4691084171
 31
0.0
  0
LINE
  5
B5
330
1F
100
AcDbEntity
  8
0
  6
Continuous
 62
     7
370
    15
100
AcDbLine
 10
206.5400815859
 20
137.8691084171
 30
0.0
 11
206.5400815859
 21
75.0691084171
 31
0.0
  0
LINE
  5
B6
330
1F
100
AcDbEntity
  8
0
  6
Continuous
 62
     7
370
    15
100
AcDbLine
 10
106.5400815859
 20
75.0691084171
 30
0.0
 11
106.5400815859
 21
137.8691084171
 31
0.0
  0
LINE
  5
B7
330
1F
100
AcDbEntity
  8
0
  6
Continuous
 62
     7
370
    15
100
AcDbLine
 10
71.3400815859
 20
88.4691084171
 30
0.0
 11
71.3400815859
 21
124.4691084171
 31
0.0
  0
SPLINE
  5
B8
330
1F
100
AcDbEntity
  8
0
  6
Continuous
 62
     7
370
    15
100
AcDbSpline
210
0.0
220
0.0
230
1.0
 70
    11
 71
     3
 72
    90
 73
    86
 74
     0
 42
0.000000001
 43
0.00000001
 40
0.0
 40
0.0
 40
0.0
 40
0.0
 40
0.03125
 40
0.03125
 40
0.0625
 40
0.0625
 40
0.09375
 40
0.09375
 40
0.125
 40
0.125
 40
0.1562499999999999
 40
0.1562499999999999
 40
0.1874999999999998
 40
0.1874999999999998
 40
0.2187499999999997
 40
0.2187499999999997
 40
0.2343749999999996
 40
0.2343749999999996
 40
0.2499999999999994
 40
0.2499999999999994
 40
0.2812499999999993
 40
0.2812499999999993
 40
0.2968749999999993
 40
0.2968749999999993
 40
0.3124999999999993
 40
0.3124999999999993
 40
0.3437499999999992
 40
0.3437499999999992
 40
0.3593749999999992
 40
0.3593749999999992
 40
0.3749999999999991
 40
0.3749999999999991
 40
0.406249999999999
 40
0.406249999999999
 40
0.4218749999999989
 40
0.4218749999999989
 40
0.4374999999999989
 40
0.4374999999999989
 40
0.4687499999999987
 40
0.4687499999999987
 40
0.4843749999999987
 40
0.4843749999999987
 40
0.4999999999999987
 40
0.4999999999999987
 40
0.5156249999999987
 40
0.5156249999999987
 40
0.5312499999999987
 40
0.5312499999999987
 40
0.5624999999999988
 40
0.5624999999999988
 40
0.5937499999999989
 40
0.5937499999999989
 40
0.624999999999999
 40
0.624999999999999
 40
0.6562499999999991
 40
0.6562499999999991
 40
0.6874999999999992
 40
0.6874999999999992
 40
0.7187499999999993
 40
0.7187499999999993
 40
0.7499999999999994
 40
0.7499999999999994
 40
0.7812499999999996
 40
0.7812499999999996
 40
0.8124999999999997
 40
0.8124999999999997
 40
0.8281249999999998
 40
0.8281249999999998
 40
0.8437499999999998
 40
0.8437499999999998
 40
0.8593749999999998
 40
0.8593749999999998
 40
0.8749999999999998
 40
0.8749999999999998
 40
0.9062499999999999
 40
0.9062499999999999
 40
0.9375
 40
0.9375
 40
0.953125
 40
0.953125
 40
0.96875
 40
0.96875
 40
0.984375
 40
0.984375
 40
1.0
 40
1.0
 40
1.0
 40
1.0
 10
86.38460880779948
 20
110.9202476071984
 30
0.0
 10
86.72296222247341
 20
111.1786902879034
 30
0.0
 10
87.08011598208421
 20
111.4020709891619
 30
0.0
 10
87.82882804271844
 20
111.7865136495464
 30
0.0
 10
88.22193602107508
 20
111.9479656624481
 30
0.0
 10
89.03716405378157
 20
112.2062177738643
 30
0.0
 10
89.45101485830259
 20
112.3006612101271
 30
0.0
 10
90.29074170371587
 20
112.4237751498649
 30
0.0
 10
90.71925562215964
 20
112.4523614176933
 30
0.0
 10
91.57706099431779
 20
112.4408908660598
 30
0.0
 10
92.00018378707841
 20
112.4013613971788
 30
0.0
 10
92.83522689799645
 20
112.2563359190378
 30
0.0
 10
93.24956876162535
 20
112.1500049692869
 30
0.0
 10
94.05559254793235
 20
111.870096083043
 30
0.0
 10
94.44108021871372
 20
111.699156044668
 30
0.0
 10
94.99329445715875
 20
111.3955490043208
 30
0.0
 10
95.17300127538104
 20
111.2864270934031
 30
0.0
 10
95.52334662907128
 20
111.0514899759791
 30
0.0
 10
95.69483496279149
 20
110.9249691770737
 30
0.0
 10
96.18828791932152
 20
110.52348743469
 30
0.0
 10
96.48696967125852
 20
110.2294826558534
 30
0.0
 10
96.8875720803492
 20
109.7461367206349
 30
0.0
 10
97.01314235363782
 20
109.5779121559913
 30
0.0
 10
97.24713206797658
 20
109.225980466669
 30
0.0
 10
97.35622315747469
 20
109.040880916958
 30
0.0
 10
97.64881709433698
 20
108.4714108845816
 30
0.0
 10
97.79842212950213
 20
108.0741858268045
 30
0.0
 10
97.94866961572458
 20
107.4493171544733
 30
0.0
 10
97.98614888455253
 20
107.2354050400884
 30
0.0
 10
98.03305205511074
 20
106.8102640631825
 30
0.0
 10
98.0429422436938
 20
106.5975304685386
 30
0.0
 10
98.03223642438553
 20
105.9588436911161
 30
0.0
 10
97.96928822452603
 20
105.5267495146651
 30
0.0
 10
97.79939257901391
 20
104.9099908446394
 30
0.0
 10
97.73042787322578
 20
104.7087700807227
 30
0.0
 10
97.56876021348853
 20
104.3146840213885
 30
0.0
 10
97.47541457993498
 20
104.1207409680226
 30
0.0
 10
97.16519098988897
 20
103.5603811991139
 30
0.0
 10
96.91970229239408
 20
103.2157922025777
 30
0.0
 10
96.49934685327725
 20
102.7371370187525
 30
0.0
 10
96.35006445371708
 20
102.5838043252378
 30
0.0
 10
96.04010958245752
 20
102.295007579133
 30
0.0
 10
95.87881848333902
 20
102.1587686512411
 30
0.0
 10
95.54420379640061
 20
101.9016204923148
 30
0.0
 10
95.37087771985891
 20
101.7807148875117
 30
0.0
 10
95.01237000944258
 20
101.5537926878811
 30
0.0
 10
94.82643502064816
 20
101.4474450631147
 30
0.0
 10
94.2596695749476
 20
101.1551346935838
 30
0.0
 10
93.86822075779112
 20
100.9942120750477
 30
0.0
 10
93.05904324735761
 20
100.7363116948224
 30
0.0
 10
92.6374906977096
 20
100.639104860229
 30
0.0
 10
91.79298319738142
 20
100.5146422977022
 30
0.0
 10
91.36871510937549
 20
100.4863085922881
 30
0.0
 10
90.5161788017636
 20
100.496607023352
 30
0.0
 10
90.08414923134434
 20
100.536216543143
 30
0.0
 10
89.24386238997204
 20
100.6819824339626
 30
0.0
 10
88.83358134811061
 20
100.7875188054429
 30
0.0
 10
88.03270380688583
 20
101.0649568598425
 30
0.0
 10
87.63862923751066
 20
101.239105084662
 30
0.0
 10
86.8977931438176
 20
101.6468281340442
 30
0.0
 10
86.54893205231839
 20
101.8803180131002
 30
0.0
 10
85.8962443016717
 20
102.4109943995916
 30
0.0
 10
85.5895362149625
 20
102.7121364187929
 30
0.0
 10
85.05066113390936
 20
103.3643586661749
 30
0.0
 10
84.81628395848803
 20
103.7158436032643
 30
0.0
 10
84.5241957912636
 20
104.2870101564913
 30
0.0
 10
84.43738361134017
 20
104.4842071027779
 30
0.0
 10
84.28963183465652
 20
104.8828539108172
 30
0.0
 10
84.22799445596844
 20
105.085589756627
 30
0.0
 10
84.12978502665722
 20
105.4980850696677
 30
0.0
 10
84.09320759291067
 20
105.7078430129748
 30
0.0
 10
84.04661195228746
 20
106.1348226282279
 30
0.0
 10
84.0368830804323
 20
106.3523618888308
 30
0.0
 10
84.04930319503812
 20
106.9948520115623
 30
0.0
 10
84.11148020109891
 20
107.4169251107106
 30
0.0
 10
84.34244112694749
 20
108.2487620756796
 30
0.0
 10
84.50676381724351
 20
108.6422963664673
 30
0.0
 10
84.81742842901139
 20
109.2006976829769
 30
0.0
 10
84.93253828769535
 20
109.3824924445235
 30
0.0
 10
85.17958705543602
 20
109.7295995209211
 30
0.0
 10
85.31162833057729
 20
109.8953775969928
 30
0.0
 10
85.59166198643393
 20
110.212542989059
 30
0.0
 10
85.73965889720142
 20
110.3639258344269
 30
0.0
 10
86.05114440481748
 20
110.6528956596844
 30
0.0
 10
86.21543210046252
 20
110.7910262668459
 30
0.0
 10
86.38460880779948
 20
110.9202476071984
 30
0.0
  0
CIRCLE
  5
B9
330
1F
100
AcDbEntity
  8
0
  6
Continuous
 62
     7
370
    15
100
AcDbCircle
 10
91.0400815859
 20
106.4691084171
 30
0.0
 40
5.545419629966943
  0
LINE
  5
BA
330
1F
100
AcDbEntity
  8
0
  6
Continuous
 62
     7
370
    15
100
AcDbLine
 10
104.0400815859
 20
88.9902697075
 30
0.0
 11
104.0400815859
 21
123.9479471268
 31
0.0
  0
LINE
  5
BB
330
1F
100
AcDbEntity
  8
0
  6
Continuous
 62
     7
370
    15
100
AcDbLine
 10
66.5400815859
 20
90.5691084171
 30
0.0
 11
66.5400815859
 21
122.3691084171
 31
0.0
  0
CIRCLE
  5
BC
330
1F
100
AcDbEntity
  8
0
  6
Continuous
 62
     7
370
    15
100
AcDbCircle
 10
91.0400815859
 20
106.4691084171
 30
0.0
 40
4.250000000000014
  0
LINE
  5
BD
330
1F
100
AcDbEntity
  8
0
  6
HIDDEN
 62
     7
370
     0
100
AcDbLine
 10
107.1400815859
 20
138.4691084171
 30
0.0
 11
107.1400815859
 21
74.4691084171
 31
0.0
  0
LINE
  5
BE
330
1F
100
AcDbEntity
  8
0
  6
HIDDEN
 62
     7
370
     0
100
AcDbLine
 10
205.9400815859
 20
74.4691084171
 30
0.0
 11
205.9400815859
 21
138.4691084171
 31
0.0
  0
LINE
  5
BF
330
1F
100
AcDbEntity
  8
0
  6
HIDDEN
 62
     7
370
     0
100
AcDbLine
 10
206.5400815859
 20
75.0691084171
 30
0.0
 11
206.5400815859
 21
137.8691084171
 31
0.0
  0
CIRCLE
  5
C0
330
1F
100
AcDbEntity
  8
0
  6
HIDDEN
 62
     7
370
     0
100
AcDbCircle
 10
190.4900815859
 20
106.4691084171
 30
0.0
 40
5.500000000000014
  0
LINE
  5
C1
330
1F
100
AcDbEntity
  8
0
  6
HIDDEN
 62
     7
370
     0
100
AcDbLine
 10
106.5400815859
 20
137.8691084171
 30
0.0
 11
106.5400815859
 21
75.0691084171
 31
0.0
  0
SPLINE
  5
C2
330
1F
100
AcDbEntity
  8
0
  6
HIDDEN
 62
     7
370
     0
100
AcDbSpline
210
0.0
220
0.0
230
1.0
 70
    11
 71
     3
 72
    20
 73
    16
 74
     0
 42
0.000000001
 43
0.00000001
 40
0.0
 40
0.0
 40
0.0
 40
0.0
 40
0.1250000000000001
 40
0.1250000000000001
 40
0.2500000000000002
 40
0.2500000000000002
 40
0.3750000000000002
 40
0.3750000000000002
 40
0.5000000000000002
 40
0.5000000000000002
 40
0.6250000000000002
 40
0.6250000000000002
 40
0.7500000000000002
 40
0.7500000000000002
 40
1.0
 40
1.0
 40
1.0
 40
1.0
 10
106.5400815859395
 20
126.0489318857139
 30
0.0
 10
106.5632766160741
 20
125.9008292149077
 30
0.0
 10
106.5841100121501
 20
125.7696522310767
 30
0.0
 10
106.6209178265123
 20
125.5399349945192
 30
0.0
 10
106.6370192686631
 20
125.4406250146217
 30
0.0
 10
106.66302777399
 20
125.2811584296937
 30
0.0
 10
106.6729155565813
 20
125.2210862055471
 30
0.0
 10
106.6863205136548
 20
125.139811798051
 30
0.0
 10
106.6897872884528
 20
125.1189120577469
 30
0.0
 10
106.6898150279959
 20
125.1187445246188
 30
0.0
 10
106.6864874832625
 20
125.1388025687419
 30
0.0
 10
106.6731465266242
 20
125.219682813604
 30
0.0
 10
106.6630935801862
 20
125.2807604081299
 30
0.0
 10
106.6244299009989
 20
125.5178037122868
 30
0.0
 10
106.5864756428225
 20
125.7527010253084
 30
0.0
 10
106.5400815859395
 20
126.0489318857139
 30
0.0
  0
SPLINE
  5
C3
330
1F
100
AcDbEntity
  8
0
  6
HIDDEN
 62
     7
370
     0
100
AcDbSpline
210
0.0
220
0.0
230
1.0
 70
    11
 71
     3
 72
    20
 73
    16
 74
     0
 42
0.000000001
 43
0.00000001
 40
0.0
 40
0.0
 40
0.0
 40
0.0
 40
0.125
 40
0.125
 40
0.2499999999999998
 40
0.2499999999999998
 40
0.3749999999999997
 40
0.3749999999999997
 40
0.4999999999999996
 40
0.4999999999999996
 40
0.6249999999999994
 40
0.6249999999999994
 40
0.7499999999999994
 40
0.7499999999999994
 40
1.0
 40
1.0
 40
1.0
 40
1.0
 10
106.5400815859395
 20
86.88928494857046
 30
0.0
 10
106.5632766160741
 20
87.03738761937662
 30
0.0
 10
106.5841100121501
 20
87.16856460320759
 30
0.0
 10
106.6209178265123
 20
87.39828183976515
 30
0.0
 10
106.6370192686631
 20
87.49759181966266
 30
0.0
 10
106.66302777399
 20
87.65705840459063
 30
0.0
 10
106.6729155565813
 20
87.71713062873718
 30
0.0
 10
106.6863205136548
 20
87.79840503623335
 30
0.0
 10
106.6897872884528
 20
87.81930477653738
 30
0.0
 10
106.6898150279959
 20
87.8194723096655
 30
0.0
 10
106.6864874832625
 20
87.79941426554235
 30
0.0
 10
106.6731465266242
 20
87.71853402068037
 30
0.0
 10
106.6630935801862
 20
87.65745642615448
 30
0.0
 10
106.6244299009989
 20
87.4204131219975
 30
0.0
 10
106.5864756428225
 20
87.18551580897588
 30
0.0
 10
106.5400815859395
 20
86.88928494857045
 30
0.0
  0
LINE
  5
C4
330
1F
100
AcDbEntity
  8
0
  6
HIDDEN
 62
     7
370
     0
100
AcDbLine
 10
106.5400815859
 20
126.0489318857
 30
0.0
 11
106.5400815859
 21
86.8892849486
 31
0.0
  0
LINE
  5
C5
330
1F
100
AcDbEntity
  8
0
  6
HIDDEN
 62
     7
370
     0
100
AcDbLine
 10
106.5400815859
 20
86.8892849486
 30
0.0
 11
106.5400815859
 21
126.0489318857
 31
0.0
  0
SPLINE
  5
C6
330
1F
100
AcDbEntity
  8
0
  6
HIDDEN
 62
     7
370
     0
100
AcDbSpline
210
0.0
220
0.0
230
1.0
 70
     8
 71
     3
 72
    18
 73
    14
 74
     0
 42
0.000000001
 43
0.00000001
 40
0.0
 40
0.0
 40
0.0
 40
0.0
 40
0.2500000000000057
 40
0.2500000000000057
 40
0.5000000000000113
 40
0.5000000000000113
 40
0.6250000000000084
 40
0.6250000000000084
 40
0.7500000000000057
 40
0.7500000000000057
 40
0.8750000000000028
 40
0.8750000000000028
 40
1.0
 40
1.0
 40
1.0
 40
1.0
 10
206.5400815859395
 20
123.4668096612528
 30
0.0
 10
206.5400815859395
 20
123.371489996235
 30
0.0
 10
206.5348235227765
 20
123.2744606100673
 30
0.0
 10
206.5073185329096
 20
123.0748764695424
 30
0.0
 10
206.484835039436
 20
122.9698722998395
 30
0.0
 10
206.4265366873156
 20
122.8178635512551
 30
0.0
 10
206.402209893608
 20
122.7668116510814
 30
0.0
 10
206.3433665344247
 20
122.6742607600032
 30
0.0
 10
206.3082438139718
 20
122.6324387833702
 30
0.0
 10
206.2332651419796
 20
122.5679665267665
 30
0.0
 10
206.1932783243256
 20
122.544808641012
 30
0.0
 10
206.1146704797783
 20
122.5148217952151
 30
0.0
 10
206.0768211367754
 20
122.5077838387294
 30
0.0
 10
206.0400420059251
 20
122.5055245317535
 30
0.0
  0
SPLINE
  5
C7
330
1F
100
AcDbEntity
  8
0
  6
HIDDEN
 62
     7
370
     0
100
AcDbSpline
210
0.0
220
0.0
230
1.0
 70
     8
 71
     3
 72
    10
 73
     6
 74
     0
 42
0.000000001
 43
0.00000001
 40
0.0
 40
0.0
 40
0.0
 40
0.0
 40
0.5
 40
0.5
 40
1.0
 40
1.0
 40
1.0
 40
1.0
 10
206.0400420059251
 20
122.5055245317537
 30
0.0
 10
205.9752205481923
 20
122.4446569273792
 30
0.0
 10
205.9003771518901
 20
122.3896850957589
 30
0.0
 10
205.7317664960388
 20
122.3098600875006
 30
0.0
 10
205.637475944003
 20
122.2855533134735
 30
0.0
 10
205.5400815859395
 20
122.2855533134735
 30
0.0
  0
SPLINE
  5
C8
330
1F
100
AcDbEntity
  8
0
  6
HIDDEN
 62
     7
370
     0
100
AcDbSpline
210
0.0
220
0.0
230
1.0
 70
     8
 71
     3
 72
    10
 73
     6
 74
     0
 42
0.000000001
 43
0.00000001
 40
0.0
 40
0.0
 40
0.0
 40
0.0
 40
0.5
 40
0.5
 40
1.0
 40
1.0
 40
1.0
 40
1.0
 10
206.0400317796347
 20
90.43270190493071
 30
0.0
 10
205.975211093468
 20
90.49356717501263
 30
0.0
 10
205.9003688108104
 20
90.54853671726262
 30
0.0
 10
205.7317615370897
 20
90.6283580645715
 30
0.0
 10
205.6374733831848
 20
90.65266352081079
 30
0.0
 10
205.5400815859395
 20
90.6526635208108
 30
0.0
  0
SPLINE
  5
C9
330
1F
100
AcDbEntity
  8
0
  6
HIDDEN
 62
     7
370
     0
100
AcDbSpline
210
0.0
220
0.0
230
1.0
 70
     8
 71
     3
 72
    18
 73
    14
 74
     0
 42
0.000000001
 43
0.00000001
 40
0.0
 40
0.0
 40
0.0
 40
0.0
 40
0.1250000000000001
 40
0.1250000000000001
 40
0.2500000000000002
 40
0.2500000000000002
 40
0.3750000000000003
 40
0.3750000000000003
 40
0.5000000000000004
 40
0.5000000000000004
 40
0.7500000000000002
 40
0.7500000000000002
 40
1.0
 40
1.0
 40
1.0
 40
1.0
 10
206.0400317796346
 20
90.43270190493067
 30
0.0
 10
206.0765186597308
 20
90.43046786864414
 30
0.0
 10
206.1147743517589
 20
90.42332437819233
 30
0.0
 10
206.1923213887481
 20
90.39386249745971
 30
0.0
 10
206.2322688039556
 20
90.37088941637805
 30
0.0
 10
206.3066137141909
 20
90.30746448051855
 30
0.0
 10
206.3417569591922
 20
90.26607448219556
 30
0.0
 10
206.400739919763
 20
90.17416720695492
 30
0.0
 10
206.4251575422707
 20
90.12349068221724
 30
0.0
 10
206.4842338573302
 20
89.97083966585778
 30
0.0
 10
206.5067227259172
 20
89.86662046429763
 30
0.0
 10
206.5347269873875
 20
89.66547922353182
 30
0.0
 10
206.5400815859395
 20
89.56698496482521
 30
0.0
 10
206.5400815859395
 20
89.47140717303155
 30
0.0
  0
LINE
  5
CA
330
1F
100
AcDbEntity
  8
0
  6
HIDDEN
 62
     7
370
     0
100
AcDbLine
 10
206.5400815858
 20
123.4668096613
 30
0.0
 11
206.5400815858
 21
89.4714071729
 31
0.0
  0
LINE
  5
CB
330
1F
100
AcDbEntity
  8
0
  6
HIDDEN
 62
     7
370
     0
100
AcDbLine
 10
166.0400815859
 20
88.9691084171
 30
0.0
 11
166.0400815859
 21
123.9691084171
 31
0.0
  0
LINE
  5
CC
330
1F
100
AcDbEntity
  8
0
  6
HIDDEN
 62
     7
370
     0
100
AcDbLine
 10
170.9061069897
 20
88.4691084171
 30
0.0
 11
170.9061069897
 21
124.4691084171
 31
0.0
  0
LINE
  5
CD
330
1F
100
AcDbEntity
  8
0
  6
HIDDEN
 62
     7
370
     0
100
AcDbLine
 10
189.9400815858
 20
122.2855533135
 30
0.0
 11
205.5400815859
 21
122.2855533135
 31
0.0
  0
LINE
  5
CE
330
1F
100
AcDbEntity
  8
0
  6
HIDDEN
 62
     7
370
     0
100
AcDbLine
 10
189.9400815858
 20
122.2855533135
 30
0.0
 11
189.9400815858
 21
124.4691084171
 31
0.0
  0
LINE
  5
CF
330
1F
100
AcDbEntity
  8
0
  6
HIDDEN
 62
     7
370
     0
100
AcDbLine
 10
189.9400815858
 20
90.6526635208
 30
0.0
 11
205.5400815859
 21
90.6526635208
 31
0.0
  0
LINE
  5
D0
330
1F
100
AcDbEntity
  8
0
  6
HIDDEN
 62
     7
370
     0
100
AcDbLine
 10
189.9400815858
 20
90.6526635208
 30
0.0
 11
189.9400815858
 21
88.4691084171
 31
0.0
  0
SPLINE
  5
D1
330
1F
100
AcDbEntity
  8
0
  6
HIDDEN
 62
     7
370
     0
100
AcDbSpline
210
0.0
220
0.0
230
1.0
 70
    11
 71
     3
 72
    88
 73
    84
 74
     0
 42
0.000000001
 43
0.00000001
 40
0.0
 40
0.0
 40
0.0
 40
0.0
 40
0.0312499999999966
 40
0.0312499999999966
 40
0.046874999999995
 40
0.046874999999995
 40
0.0624999999999933
 40
0.0624999999999933
 40
0.0937499999999911
 40
0.0937499999999911
 40
0.10937499999999
 40
0.10937499999999
 40
0.1249999999999889
 40
0.1249999999999889
 40
0.1562499999999875
 40
0.1562499999999875
 40
0.1874999999999861
 40
0.1874999999999861
 40
0.2031249999999855
 40
0.2031249999999855
 40
0.2187499999999848
 40
0.2187499999999848
 40
0.2499999999999832
 40
0.2499999999999832
 40
0.2812499999999815
 40
0.2812499999999815
 40
0.31249999999998
 40
0.31249999999998
 40
0.3437499999999784
 40
0.3437499999999784
 40
0.3593749999999776
 40
0.3593749999999776
 40
0.3749999999999768
 40
0.3749999999999768
 40
0.4062499999999761
 40
0.4062499999999761
 40
0.4374999999999754
 40
0.4374999999999754
 40
0.4687499999999747
 40
0.4687499999999747
 40
0.4843749999999749
 40
0.4843749999999749
 40
0.4999999999999751
 40
0.4999999999999751
 40
0.5312499999999768
 40
0.5312499999999768
 40
0.5624999999999784
 40
0.5624999999999784
 40
0.59374999999998
 40
0.59374999999998
 40
0.6249999999999817
 40
0.6249999999999817
 40
0.6406249999999821
 40
0.6406249999999821
 40
0.6562499999999826
 40
0.6562499999999826
 40
0.6874999999999832
 40
0.6874999999999832
 40
0.718749999999984
 40
0.718749999999984
 40
0.7343749999999843
 40
0.7343749999999843
 40
0.7499999999999847
 40
0.7499999999999847
 40
0.7812499999999855
 40
0.7812499999999855
 40
0.7968749999999858
 40
0.7968749999999858
 40
0.812499999999986
 40
0.812499999999986
 40
0.8437499999999872
 40
0.8437499999999872
 40
0.8749999999999885
 40
0.8749999999999885
 40
0.8906249999999896
 40
0.8906249999999896
 40
0.9062499999999907
 40
0.9062499999999907
 40
0.9374999999999937
 40
0.9374999999999937
 40
0.9687499999999968
 40
0.9687499999999968
 40
1.0
 40
1.0
 40
1.0
 40
1.0
 10
190.4900815859395
 20
100.9691084171422
 30
0.0
 10
190.8558061498411
 20
100.9691084171422
 30
0.0
 10
191.214951801345
 20
101.0052193065892
 30
0.0
 10
191.7443208329288
 20
101.1110057518592
 30
0.0
 10
191.9192080106925
 20
101.1549372520171
 30
0.0
 10
192.2658017645449
 20
101.260496763595
 30
0.0
 10
192.4374209582104
 20
101.322237214561
 30
0.0
 10
192.936063575157
 20
101.5297939570733
 30
0.0
 10
193.2510467166622
 20
101.6988143655853
 30
0.0
 10
193.6981416028268
 20
101.9980336720842
 30
0.0
 10
193.843637247844
 20
102.1060876817118
 30
0.0
 10
194.121257063746
 20
102.3342746641766
 30
0.0
 10
194.2535549527535
 20
102.4543828312383
 30
0.0
 10
194.6315261711888
 20
102.832427238014
 30
0.0
 10
194.8584759531883
 20
103.1078952057472
 30
0.0
 10
195.2607597931669
 20
103.7084467132472
 30
0.0
 10
195.4301482600974
 20
104.0249521981682
 30
0.0
 10
195.6365133194145
 20
104.5207039404868
 30
0.0
 10
195.6973955495084
 20
104.689640084602
 30
0.0
 10
195.8029292617267
 20
105.035136368748
 30
0.0
 10
195.8477204026214
 20
105.2126979817291
 30
0.0
 10
195.9543752787423
 20
105.745963944908
 30
0.0
 10
195.9898440917163
 20
106.1043226499908
 30
0.0
 10
195.9903167257223
 20
106.8266971235682
 30
0.0
 10
195.9540690067782
 20
107.1936053054151
 30
0.0
 10
195.8126847503044
 20
107.9008730035509
 30
0.0
 10
195.7080982766473
 20
108.2449022801976
 30
0.0
 10
195.4302134595541
 20
108.9137431751105
 30
0.0
 10
195.2591469590199
 20
109.2319976296808
 30
0.0
 10
194.9611397594677
 20
109.677148962755
 30
0.0
 10
194.8546274411881
 20
109.8206615019681
 30
0.0
 10
194.626997168598
 20
110.0978958268608
 30
0.0
 10
194.5052403334507
 20
110.2321768902995
 30
0.0
 10
194.1245978070055
 20
110.6126610286524
 30
0.0
 10
193.8492922381332
 20
110.8387221108817
 30
0.0
 10
193.2553331722951
 20
111.2368336297026
 30
0.0
 10
192.9334614654993
 20
111.409614339706
 30
0.0
 10
192.2709709858064
 20
111.6851545204821
 30
0.0
 10
191.9280320814932
 20
111.7901536356374
 30
0.0
 10
191.395293749482
 20
111.8971280284008
 30
0.0
 10
191.213826523561
 20
111.9242967648272
 30
0.0
 10
190.8529068193895
 20
111.9601233045217
 30
0.0
 10
190.6726000494779
 20
111.9690305407948
 30
0.0
 10
190.1321306718912
 20
111.9692626482738
 30
0.0
 10
189.770607798217
 20
111.9339879911969
 30
0.0
 10
189.0565397699358
 20
111.7914677766659
 30
0.0
 10
188.7126014479823
 20
111.6863350228765
 30
0.0
 10
188.0494672787964
 20
111.410999846563
 30
0.0
 10
187.7276494124642
 20
111.2384994819779
 30
0.0
 10
187.1327814749098
 20
110.8402248199467
 30
0.0
 10
186.8571746601777
 20
110.6140850778847
 30
0.0
 10
186.4762347093427
 20
110.2335797364075
 30
0.0
 10
186.3544318651196
 20
110.0993341193474
 30
0.0
 10
186.1268116419498
 20
109.8223177243797
 30
0.0
 10
186.0203346976833
 20
109.6789640606943
 30
0.0
 10
185.7224795917109
 20
109.2344679262667
 30
0.0
 10
185.552095435457
 20
108.9182042222081
 30
0.0
 10
185.2730425193643
 20
108.2479509797589
 30
0.0
 10
185.1683870738392
 20
107.9040037460009
 30
0.0
 10
185.0622279796744
 20
107.3750579191453
 30
0.0
 10
185.0353754185737
 20
107.1965569365874
 30
0.0
 10
184.9992620604339
 20
106.8350341733653
 30
0.0
 10
184.9901255487424
 20
106.6516943153643
 30
0.0
 10
184.9899941421232
 20
106.107923982681
 30
0.0
 10
185.0254007616158
 20
105.7493826872232
 30
0.0
 10
185.1313452353445
 20
105.217457453686
 30
0.0
 10
185.1758585888579
 20
105.0401494058151
 30
0.0
 10
185.2815360345452
 20
104.693173970769
 30
0.0
 10
185.3425161881323
 20
104.5236606649962
 30
0.0
 10
185.5491393989341
 20
104.0265940919439
 30
0.0
 10
185.7183872707411
 20
103.710161932315
 30
0.0
 10
186.1208401976854
 20
103.1089622841586
 30
0.0
 10
186.3478776270998
 20
102.8332780919264
 30
0.0
 10
186.7259329740176
 20
102.4550127313167
 30
0.0
 10
186.8582511530232
 20
102.3348484975213
 30
0.0
 10
187.1358872109116
 20
102.1065773317548
 30
0.0
 10
187.2814098979934
 20
101.9984745580059
 30
0.0
 10
187.7283405795784
 20
101.6992707859735
 30
0.0
 10
188.042944427482
 20
101.5304213299213
 30
0.0
 10
188.7062991933073
 20
101.2540119852896
 30
0.0
 10
189.0574089938617
 20
101.1467481100749
 30
0.0
 10
189.7646958667793
 20
101.0052374859457
 30
0.0
 10
190.1243570220379
 20
100.9691084171422
 30
0.0
 10
190.4900815859395
 20
100.9691084171422
 30
0.0
  0
LINE
  5
D2
330
1F
100
AcDbEntity
  8
0
  6
HIDDEN
 62
     7
370
     0
100
AcDbLine
 10
71.3400815859
 20
124.4691084171
 30
0.0
 11
71.3400815859
 21
88.4691084171
 31
0.0
  0
LINE
  5
D3
330
1F
100
AcDbEntity
  8
0
  6
HIDDEN
 62
     7
370
     0
100
AcDbLine
 10
104.0400815859
 20
88.4691084171
 30
0.0
 11
104.0400815859
 21
88.9902697075
 31
0.0
  0
LINE
  5
D4
330
1F
100
AcDbEntity
  8
0
  6
HIDDEN
 62
     7
370
     0
100
AcDbLine
 10
104.0400815859
 20
88.4691084171
 30
0.0
 11
104.0400815859
 21
124.4691084171
 31
0.0
  0
LINE
  5
D5
330
1F
100
AcDbEntity
  8
0
  6
HIDDEN
 62
     7
370
     0
100
AcDbLine
 10
66.5400815859
 20
122.3691084171
 30
0.0
 11
66.5400815859
 21
90.5691084171
 31
0.0
  0
LINE
  5
D6
330
1F
100
AcDbEntity
  8
0
  6
HIDDEN
 62
     7
370
     0
100
AcDbLine
 10
162.0400815859
 20
89.8691084171
 30
0.0
 11
162.0400815859
 21
123.0691084171
 31
0.0
  0
LINE
  5
D7
330
1F
100
AcDbEntity
  8
0
  6
HIDDEN
 62
     7
370
     0
100
AcDbLine
 10
166.0400815859
 20
123.4691084171
 30
0.0
 11
166.0400815859
 21
89.4902407564
 31
0.0
  0
LINE
  5
D8
330
1F
100
AcDbEntity
  8
0
  6
HIDDEN
 62
     7
370
     0
100
AcDbLine
 10
161.0400815859
 20
92.4691084171
 30
0.0
 11
161.0400815859
 21
120.4691084171
 31
0.0
  0
LINE
  5
D9
330
1F
100
AcDbEntity
  8
0
  6
HIDDEN
 62
     7
370
     0
100
AcDbLine
 10
162.0400815859
 20
121.4691084171
 30
0.0
 11
162.0400815859
 21
91.490367982
 31
0.0
  0
LINE
  5
DA
330
1F
100
AcDbEntity
  8
0
  6
HIDDEN
 62
     7
370
     0
100
AcDbLine
 10
130.0400815859
 20
92.4691084171
 30
0.0
 11
130.0400815859
 21
120.4691084171
 31
0.0
  0
LINE
  5
DB
330
1F
100
AcDbEntity
  8
0
  6
HIDDEN
 62
     7
370
     0
100
AcDbLine
 10
126.4349178718
 20
98.4691084171
 30
0.0
 11
126.4349178718
 21
114.4691084171
 31
0.0
  0
LINE
  5
DC
330
1F
100
AcDbEntity
  8
0
  6
HIDDEN
 62
     7
370
     0
100
AcDbLine
 10
66.5400815859
 20
95.9691084171
 30
0.0
 11
66.5400815859
 21
116.947535041
 31
0.0
  0
SPLINE
  5
DD
330
1F
100
AcDbEntity
  8
0
  6
HIDDEN
 62
     7
370
     0
100
AcDbSpline
210
0.0
220
0.0
230
1.0
 70
     8
 71
     3
 72
    32
 73
    28
 74
     0
 42
0.000000001
 43
0.00000001
 40
0.0
 40
0.0
 40
0.0
 40
0.0
 40
0.1249999999999989
 40
0.1249999999999989
 40
0.1874999999999987
 40
0.1874999999999987
 40
0.2499999999999984
 40
0.2499999999999984
 40
0.3749999999999987
 40
0.3749999999999987
 40
0.4374999999999988
 40
0.4374999999999988
 40
0.499999999999999
 40
0.499999999999999
 40
0.6249999999999993
 40
0.6249999999999993
 40
0.6874999999999994
 40
0.6874999999999994
 40
0.7499999999999996
 40
0.7499999999999996
 40
0.8124999999999997
 40
0.8124999999999997
 40
0.8749999999999998
 40
0.8749999999999998
 40
0.9374999999999999
 40
0.9374999999999999
 40
1.0
 40
1.0
 40
1.0
 40
1.0
 10
206.0400815858258
 20
129.3691084171422
 30
0.0
 10
206.0400815858258
 20
129.7657087349692
 30
0.0
 10
206.0401507975289
 20
130.1243872115695
 30
0.0
 10
206.0354950532537
 20
130.6067066869858
 30
0.0
 10
206.0329927734555
 20
130.758316605892
 30
0.0
 10
206.0271540784054
 20
131.0340768714732
 30
0.0
 10
206.0237441899119
 20
131.1594244317617
 30
0.0
 10
206.0119927409507
 20
131.4982521622435
 30
0.0
 10
206.0016034031188
 20
131.6753034461626
 30
0.0
 10
205.9868473173106
 20
131.850544653363
 30
0.0
 10
205.9820463517389
 20
131.8946749253982
 30
0.0
 10
205.9732964816855
 20
131.9540341987768
 30
0.0
 10
205.9694049846791
 20
131.9691413738914
 30
0.0
 10
205.9604193968067
 20
131.9690423388376
 30
0.0
 10
205.9578689755879
 20
131.9104775908455
 30
0.0
 10
205.9618604341125
 20
131.7334967613461
 30
0.0
 10
205.9646834291581
 20
131.659957720413
 30
0.0
 10
205.972352629545
 20
131.4869777718996
 30
0.0
 10
205.9770380832591
 20
131.3872454300761
 30
0.0
 10
205.9866281517641
 20
131.1611918532826
 30
0.0
 10
205.9916963737572
 20
131.0338027886575
 30
0.0
 10
206.0056317857564
 20
130.756815796978
 30
0.0
 10
206.0154967329359
 20
130.6077733016865
 30
0.0
 10
206.0357653211849
 20
130.2890386748394
 30
0.0
 10
206.0456053591486
 20
130.1193350121794
 30
0.0
 10
206.055327265058
 20
129.7584248488626
 30
0.0
 10
206.0551216237386
 20
129.5673214172982
 30
0.0
 10
206.0454783159231
 20
129.3691084171425
 30
0.0
  0
SPLINE
  5
DE
330
1F
100
AcDbEntity
  8
0
  6
HIDDEN
 62
     7
370
     0
100
AcDbSpline
210
0.0
220
0.0
230
1.0
 70
     8
 71
     3
 72
    14
 73
    10
 74
     0
 42
0.000000001
 43
0.00000001
 40
0.0
 40
0.0
 40
0.0
 40
0.0
 40
0.25
 40
0.25
 40
0.5
 40
0.5
 40
0.75
 40
0.75
 40
1.0
 40
1.0
 40
1.0
 40
1.0
 10
206.0454783159229
 20
129.3691084171422
 30
0.0
 10
206.0176603752035
 20
128.7973256229339
 30
0.0
 10
206.0347598185176
 20
128.2253506744451
 30
0.0
 10
206.0474559001664
 20
127.081434430026
 30
0.0
 10
206.0463524521185
 20
126.5094359764906
 30
0.0
 10
206.0416050236331
 20
125.3654639278469
 30
0.0
 10
206.0388521951235
 20
124.7934784927571
 30
0.0
 10
206.0386932149132
 20
123.649502122938
 30
0.0
 10
206.0398403739235
 20
123.0775133482036
 30
0.0
 10
206.040042005925
 20
122.5055245317536
 30
0.0
  0
SPLINE
  5
DF
330
1F
100
AcDbEntity
  8
0
  6
HIDDEN
 62
     7
370
     0
100
AcDbSpline
210
0.0
220
0.0
230
1.0
 70
    24
 71
     3
 72
    20
 73
    16
 74
     0
 42
0.000000001
 43
0.00000001
 40
0.0
 40
0.0
 40
0.0
 40
0.0
 40
0.0469163091108931
 40
0.0977062414429345
 40
0.1516689633031515
 40
0.2078463383218538
 40
0.2651938476233426
 40
0.3192095203174495
 40
0.37289530681238
 40
0.4259306594991002
 40
0.4781535685998854
 40
0.5793596734499756
 40
0.6698058354121802
 40
0.8327057026615023
 40
0.907499236378693
 40
0.907499236378693
 40
0.907499236378693
 40
0.907499236378693
 10
206.5400815858259
 20
129.6191084171429
 30
0.0
 10
206.5400815858259
 20
129.9028883129345
 30
0.0
 10
206.5400815858258
 20
130.4658943321897
 30
0.0
 10
206.5400815858259
 20
131.2181403307451
 30
0.0
 10
206.5400815858258
 20
131.8585364076838
 30
0.0
 10
206.5400815858258
 20
132.325303473142
 30
0.0
 10
206.5400815858258
 20
132.5598783534819
 30
0.0
 10
206.5400815858259
 20
132.545629705538
 30
0.0
 10
206.5400815858258
 20
132.2946535415958
 30
0.0
 10
206.5400815858258
 20
131.8215398503892
 30
0.0
 10
206.5400815858259
 20
130.9657107340662
 30
0.0
 10
206.5400815858258
 20
129.5486351506832
 30
0.0
 10
206.5400815858258
 20
127.5349687753214
 30
0.0
 10
206.5400815858258
 20
126.1187900266858
 30
0.0
 10
206.5400815858258
 20
124.1255579938682
 30
0.0
 10
206.5400815858258
 20
123.4668096613379
 30
0.0
  0
SPLINE
  5
E0
330
1F
100
AcDbEntity
  8
0
  6
HIDDEN
 62
     7
370
     0
100
AcDbSpline
210
0.0
220
0.0
230
1.0
 70
     8
 71
     3
 72
    14
 73
    10
 74
     0
 42
0.000000001
 43
0.00000001
 40
0.0
 40
0.0
 40
0.0
 40
0.0
 40
0.25
 40
0.25
 40
0.5
 40
0.5
 40
0.75
 40
0.75
 40
1.0
 40
1.0
 40
1.0
 40
1.0
 10
206.0454673419059
 20
83.56910841714215
 30
0.0
 10
206.0177087181683
 20
84.14081619433158
 30
0.0
 10
206.0347169651082
 20
84.71280998820536
 30
0.0
 10
206.0475132326241
 20
85.8567315877207
 30
0.0
 10
206.046301768155
 20
86.42874389252866
 30
0.0
 10
206.0415159765574
 20
87.57272701331686
 30
0.0
 10
206.0389195325872
 20
88.14471825203027
 30
0.0
 10
206.038641852207
 20
89.2887095434558
 30
0.0
 10
206.0397828752751
 20
89.86070576221678
 30
0.0
 10
206.0400317796346
 20
90.43270190493064
 30
0.0
  0
SPLINE
  5
E1
330
1F
100
AcDbEntity
  8
0
  6
HIDDEN
 62
     7
370
     0
100
AcDbSpline
210
0.0
220
0.0
230
1.0
 70
     8
 71
     3
 72
    34
 73
    30
 74
     0
 42
0.000000001
 43
0.00000001
 40
0.0
 40
0.0
 40
0.0
 40
0.0
 40
0.1250000000000001
 40
0.1250000000000001
 40
0.1875000000000001
 40
0.1875000000000001
 40
0.2500000000000001
 40
0.2500000000000001
 40
0.3125000000000001
 40
0.3125000000000001
 40
0.3750000000000001
 40
0.3750000000000001
 40
0.4375000000000001
 40
0.4375000000000001
 40
0.5
 40
0.5
 40
0.6249999999999999
 40
0.6249999999999999
 40
0.6875
 40
0.6875
 40
0.75
 40
0.75
 40
0.8125
 40
0.8125
 40
0.875
 40
0.875
 40
0.9375000000000001
 40
0.9375000000000001
 40
1.0
 40
1.0
 40
1.0
 40
1.0
 10
206.0400815858258
 20
83.56910841714215
 30
0.0
 10
206.0400815858258
 20
83.17241160113826
 30
0.0
 10
206.0398410115545
 20
82.81423202995892
 30
0.0
 10
206.0352529317573
 20
82.33304339191392
 30
0.0
 10
206.0330187872232
 20
82.18122813541724
 30
0.0
 10
206.0273407168176
 20
81.90467076594038
 30
0.0
 10
206.0238782309848
 20
81.77918768327693
 30
0.0
 10
206.0159109089808
 20
81.55333065636835
 30
0.0
 10
206.0114252728449
 20
81.45295502598286
 30
0.0
 10
206.0017936253113
 20
81.2781359480472
 30
0.0
 10
205.9966981910764
 20
81.20474691636365
 30
0.0
 10
205.986874514648
 20
81.08772379655598
 30
0.0
 10
205.9820703891662
 20
81.04361518591168
 30
0.0
 10
205.9733181766332
 20
80.98429135449858
 30
0.0
 10
205.9694246797351
 20
80.96911837969714
 30
0.0
 10
205.9604041316786
 20
80.9690885069389
 30
0.0
 10
205.9578838894229
 20
81.0279168299086
 30
0.0
 10
205.9618496998556
 20
81.2042760671386
 30
0.0
 10
205.9646744391057
 20
81.27814346324674
 30
0.0
 10
205.9723512535249
 20
81.45142619091368
 30
0.0
 10
205.9770412247604
 20
81.55123151719133
 30
0.0
 10
205.9866431596105
 20
81.77705022834857
 30
0.0
 10
205.9916898517865
 20
81.90368825722
 30
0.0
 10
206.0056477894006
 20
82.18158202515522
 30
0.0
 10
206.0155024035195
 20
82.33095049857462
 30
0.0
 10
206.0357311324317
 20
82.64990964342248
 30
0.0
 10
206.0455419861975
 20
82.81951291628107
 30
0.0
 10
206.0552587928322
 20
83.17959199238749
 30
0.0
 10
206.0550961497226
 20
83.37079655680176
 30
0.0
 10
206.0454673419059
 20
83.56910841714213
 30
0.0
  0
SPLINE
  5
E2
330
1F
100
AcDbEntity
  8
0
  6
HIDDEN
 62
     7
370
     0
100
AcDbSpline
210
0.0
220
0.0
230
1.0
 70
    24
 71
     3
 72
    20
 73
    16
 74
     0
 42
0.000000001
 43
0.00000001
 40
0.0
 40
0.0
 40
0.0
 40
0.0
 40
0.046916309110893
 40
0.0977062414429345
 40
0.1516689633031515
 40
0.2078463383218537
 40
0.2651938476233426
 40
0.3192095203174494
 40
0.3728953068123798
 40
0.4259306594991001
 40
0.4781535685998854
 40
0.5793596734499756
 40
0.6698058354121801
 40
0.832705702661502
 40
0.9074992363786925
 40
0.9074992363786925
 40
0.9074992363786925
 40
0.9074992363786925
 10
206.5400815858259
 20
83.31910841714136
 30
0.0
 10
206.5400815858259
 20
83.03532852134981
 30
0.0
 10
206.5400815858259
 20
82.47232250209457
 30
0.0
 10
206.5400815858259
 20
81.7200765035392
 30
0.0
 10
206.5400815858259
 20
81.07968042660049
 30
0.0
 10
206.5400815858258
 20
80.61291336114232
 30
0.0
 10
206.5400815858259
 20
80.37833848080243
 30
0.0
 10
206.5400815858258
 20
80.39258712874633
 30
0.0
 10
206.5400815858259
 20
80.64356329268848
 30
0.0
 10
206.5400815858259
 20
81.11667698389516
 30
0.0
 10
206.5400815858259
 20
81.97250610021811
 30
0.0
 10
206.5400815858259
 20
83.38958168360111
 30
0.0
 10
206.5400815858258
 20
85.40324805896293
 30
0.0
 10
206.5400815858258
 20
86.81942680759852
 30
0.0
 10
206.5400815858258
 20
88.81265884041618
 30
0.0
 10
206.5400815858258
 20
89.4714071729464
 30
0.0
  0
LINE
  5
E3
330
1F
100
AcDbEntity
  8
0
  6
HIDDEN
 62
     7
370
     0
100
AcDbLine
 10
69.5400815859
 20
115.9691084171
 30
0.0
 11
69.5400815859
 21
96.9691084171
 31
0.0
  0
LINE
  5
E4
330
1F
100
AcDbEntity
  8
0
  6
HIDDEN
 62
     7
370
     0
100
AcDbLine
 10
70.4413725145
 20
114.4691084171
 30
0.0
 11
70.4413725145
 21
98.4691084171
 31
0.0
  0
LINE
  5
E5
330
1F
100
AcDbEntity
  8
0
  6
HIDDEN
 62
     7
370
     0
100
AcDbLine
 10
189.9400815858
 20
129.3691084171
 30
0.0
 11
189.9400815858
 21
122.2855533135
 31
0.0
  0
LINE
  5
E6
330
1F
100
AcDbEntity
  8
0
  6
HIDDEN
 62
     7
370
     0
100
AcDbLine
 10
189.9400815858
 20
83.5691084171
 30
0.0
 11
189.9400815858
 21
90.6526635208
 31
0.0
  0
SPLINE
  5
E7
330
1F
100
AcDbEntity
  8
0
  6
HIDDEN
 62
     7
370
     0
100
AcDbSpline
210
0.0
220
0.0
230
1.0
 70
    11
 71
     3
 72
    74
 73
    70
 74
     0
 42
0.000000001
 43
0.00000001
 40
0.0
 40
0.0
 40
0.0
 40
0.0
 40
0.0312499999999998
 40
0.0312499999999998
 40
0.0624999999999997
 40
0.0624999999999997
 40
0.0937499999999996
 40
0.0937499999999996
 40
0.1249999999999994
 40
0.1249999999999994
 40
0.1562499999999993
 40
0.1562499999999993
 40
0.1874999999999991
 40
0.1874999999999991
 40
0.218749999999999
 40
0.218749999999999
 40
0.2499999999999989
 40
0.2499999999999989
 40
0.2656249999999988
 40
0.2656249999999988
 40
0.2812499999999987
 40
0.2812499999999987
 40
0.3124999999999988
 40
0.3124999999999988
 40
0.3437499999999988
 40
0.3437499999999988
 40
0.3749999999999988
 40
0.3749999999999988
 40
0.4062499999999988
 40
0.4062499999999988
 40
0.4374999999999988
 40
0.4374999999999988
 40
0.4531249999999989
 40
0.4531249999999989
 40
0.4687499999999989
 40
0.4687499999999989
 40
0.499999999999999
 40
0.499999999999999
 40
0.5312499999999991
 40
0.5312499999999991
 40
0.5624999999999991
 40
0.5624999999999991
 40
0.5937499999999992
 40
0.5937499999999992
 40
0.6249999999999992
 40
0.6249999999999992
 40
0.6562499999999993
 40
0.6562499999999993
 40
0.6874999999999994
 40
0.6874999999999994
 40
0.7187499999999994
 40
0.7187499999999994
 40
0.7499999999999996
 40
0.7499999999999996
 40
0.7812499999999997
 40
0.7812499999999997
 40
0.8124999999999997
 40
0.8124999999999997
 40
0.8437499999999998
 40
0.8437499999999998
 40
0.8749999999999998
 40
0.8749999999999998
 40
0.9062499999999999
 40
0.9062499999999999
 40
0.9375
 40
0.9375
 40
0.96875
 40
0.96875
 40
1.0
 40
1.0
 40
1.0
 40
1.0
 10
86.79008158593949
 20
106.4691084171422
 30
0.0
 10
86.79008158593949
 20
106.1826493229844
 30
0.0
 10
86.81873903182665
 20
105.9019574055008
 30
0.0
 10
86.9300937332094
 20
105.3513458844095
 30
0.0
 10
87.01432327646258
 20
105.0787466010332
 30
0.0
 10
87.22982691124741
 20
104.5660069327216
 30
0.0
 10
87.3609123331874
 20
104.3237907594409
 30
0.0
 10
87.66927958024252
 20
103.8659626123071
 30
0.0
 10
87.84429624535274
 20
103.654283637169
 30
0.0
 10
88.22864137589292
 20
103.2703451513794
 30
0.0
 10
88.4410134982617
 20
103.0953193506562
 30
0.0
 10
88.89584896101287
 20
102.7894516342715
 30
0.0
 10
89.13596137816559
 20
102.6595498550276
 30
0.0
 10
89.64376238799326
 20
102.445589695764
 30
0.0
 10
89.9154717407033
 20
102.3610062671939
 30
0.0
 10
90.46539228787816
 20
102.2488024105704
 30
0.0
 10
90.74442849263373
 20
102.2199479273514
 30
0.0
 10
91.16942099268479
 20
102.2187154679247
 30
0.0
 10
91.31318727124848
 20
102.2255097304249
 30
0.0
 10
91.59620052666214
 20
102.2532516533246
 30
0.0
 10
91.7357292665106
 20
102.2740779001523
 30
0.0
 10
92.14869676469978
 20
102.3566518129625
 30
0.0
 10
92.41907911374878
 20
102.4394305058815
 30
0.0
 10
92.93275519572289
 20
102.6536497478554
 30
0.0
 10
93.17446499226678
 20
102.7837018649913
 30
0.0
 10
93.630716622366
 20
103.0888090091191
 30
0.0
 10
93.84387761767411
 20
103.2636352357457
 30
0.0
 10
94.2292560566564
 20
103.6467872625691
 30
0.0
 10
94.40387907802769
 20
103.8568181528908
 30
0.0
 10
94.71443687015723
 20
104.3154354526876
 30
0.0
 10
94.84577050887027
 20
104.5571369561823
 30
0.0
 10
95.00746574202694
 20
104.9389242061933
 30
0.0
 10
95.05543147712812
 20
105.0694140927525
 30
0.0
 10
95.13899174911376
 20
105.3372451636421
 30
0.0
 10
95.17473024172554
 20
105.47552589515
 30
0.0
 10
95.26013340631376
 20
105.8913839390708
 30
0.0
 10
95.28907305249638
 20
106.1714418920897
 30
0.0
 10
95.29103881901854
 20
106.7372435426723
 30
0.0
 10
95.26296585684236
 20
107.0250547532726
 30
0.0
 10
95.15267133194679
 20
107.5774555988191
 30
0.0
 10
95.07049593575806
 20
107.84649237365
 30
0.0
 10
94.8541197446347
 20
108.3650354513092
 30
0.0
 10
94.7229288780729
 20
108.6079435193897
 30
0.0
 10
94.41690332936687
 20
109.0643068074192
 30
0.0
 10
94.24046294617214
 20
109.2787788031805
 30
0.0
 10
93.85561904546353
 20
109.6643294334605
 30
0.0
 10
93.64621371470896
 20
109.8375074700249
 30
0.0
 10
93.19066492373435
 20
110.1451155117035
 30
0.0
 10
92.9468613238109
 20
110.2773164419958
 30
0.0
 10
92.43973564496476
 20
110.4914492585392
 30
0.0
 10
92.17445406745992
 20
110.5748155718382
 30
0.0
 10
91.61643689022078
 20
110.6894693886919
 30
0.0
 10
91.33570974933117
 20
110.7181869616649
 30
0.0
 10
90.77156906184386
 20
110.719986622045
 30
0.0
 10
90.48419966848356
 20
110.6920438064642
 30
0.0
 10
89.93056112257916
 20
110.5814255680837
 30
0.0
 10
89.66349372168122
 20
110.4997035548699
 30
0.0
 10
89.14726387693098
 20
110.284594288268
 30
0.0
 10
88.9037854593422
 20
110.153349877868
 30
0.0
 10
88.44890645700879
 20
109.8489320416315
 30
0.0
 10
88.23466005715994
 20
109.6732653996928
 30
0.0
 10
87.84780914013875
 20
109.2880459039887
 30
0.0
 10
87.67412590239209
 20
109.0784171592488
 30
0.0
 10
87.36588108863324
 20
108.6228030289276
 30
0.0
 10
87.23163304381183
 20
108.3756838692243
 30
0.0
 10
87.0162801847245
 20
107.8649352459775
 30
0.0
 10
86.93314889697801
 20
107.598776252775
 30
0.0
 10
86.81941055827053
 20
107.0426775992985
 30
0.0
 10
86.79008158593949
 20
106.7555675112999
 30
0.0
 10
86.79008158593949
 20
106.4691084171422
 30
0.0
  0
LINE
  5
E8
330
1F
100
AcDbEntity
  8
0
  6
HIDDEN
 62
     7
370
     0
100
AcDbLine
 10
189.9400815858
 20
83.5691084171
 30
0.0
 11
189.9400815858
 21
80.9691084171
 31
0.0
  0
LINE
  5
E9
330
1F
100
AcDbEntity
  8
0
  6
HIDDEN
 62
     7
370
     0
100
AcDbLine
 10
189.9400815858
 20
129.3691084171
 30
0.0
 11
189.9400815858
 21
131.9691084171
 31
0.0
  0
LINE
  5
EA
330
1F
100
AcDbEntity
  8
0
  6
HIDDEN
 62
     7
370
     0
100
AcDbLine
 10
107.0400815859
 20
130.4691084171
 30
0.0
 11
107.0400815859
 21
125.4691084171
 31
0.0
  0
LINE
  5
EB
330
1F
100
AcDbEntity
  8
0
  6
HIDDEN
 62
     7
370
     0
100
AcDbLine
 10
106.5400815859
 20
126.0489318857
 30
0.0
 11
106.5400815859
 21
130.9478099548
 31
0.0
  0
LINE
  5
EC
330
1F
100
AcDbEntity
  8
0
  6
HIDDEN
 62
     7
370
     0
100
AcDbLine
 10
107.0400815859
 20
87.4691084171
 30
0.0
 11
107.0400815859
 21
82.4691084171
 31
0.0
  0
LINE
  5
ED
330
1F
100
AcDbEntity
  8
0
  6
HIDDEN
 62
     7
370
     0
100
AcDbLine
 10
106.5400815859
 20
86.8892849486
 30
0.0
 11
106.5400815859
 21
81.9904068795
 31
0.0
  0
LINE
  5
EE
330
1F
100
AcDbEntity
  8
0
  6
HIDDEN
 62
     7
370
     0
100
AcDbLine
 10
114.5400815859
 20
130.4691084171
 30
0.0
 11
114.5400815859
 21
125.4691084171
 31
0.0
  0
LINE
  5
EF
330
1F
100
AcDbEntity
  8
0
  6
HIDDEN
 62
     7
370
     0
100
AcDbLine
 10
114.5400815859
 20
87.4691084171
 30
0.0
 11
114.5400815859
 21
82.4691084171
 31
0.0
  0
LINE
  5
F0
330
1F
100
AcDbEntity
  8
0
  6
HIDDEN
 62
     7
370
     0
100
AcDbLine
 10
206.0400815858
 20
122.5055616993
 30
0.0
 11
206.0400815858
 21
129.3691084171
 31
0.0
  0
SPLINE
  5
F1
330
1F
100
AcDbEntity
  8
0
  6
HIDDEN
 62
     7
370
     0
100
AcDbSpline
210
0.0
220
0.0
230
1.0
 70
     8
 71
     3
 72
    16
 73
    12
 74
     0
 42
0.000000001
 43
0.00000001
 40
0.0
 40
0.0
 40
0.0
 40
0.0
 40
0.2500000000000155
 40
0.2500000000000155
 40
0.3750000000000118
 40
0.3750000000000118
 40
0.5000000000000081
 40
0.5000000000000081
 40
0.7500000000000041
 40
0.7500000000000041
 40
1.0
 40
1.0
 40
1.0
 40
1.0
 10
206.0400815858258
 20
122.5055616993388
 30
0.0
 10
206.1139036725104
 20
122.5101568373659
 30
0.0
 10
206.1948172623426
 20
122.5353467912188
 30
0.0
 10
206.3077753451066
 20
122.6323173404574
 30
0.0
 10
206.3423661390497
 20
122.6734322409031
 30
0.0
 10
206.401360747602
 20
122.7658372170454
 30
0.0
 10
206.425718133416
 20
122.8166874316714
 30
0.0
 10
206.4845308240672
 20
122.9693950054044
 30
0.0
 10
206.5070018095373
 20
123.0740705616841
 30
0.0
 10
206.5347606369898
 20
123.2744617678843
 30
0.0
 10
206.54008158594
 20
123.3729877155154
 30
0.0
 10
206.5400815859396
 20
123.4678686629574
 30
0.0
  0
LINE
  5
F2
330
1F
100
AcDbEntity
  8
0
  6
HIDDEN
 62
     7
370
     0
100
AcDbLine
 10
206.5400815858
 20
123.4678686629
 30
0.0
 11
206.5400815858
 21
129.6191084171
 31
0.0
  0
SPLINE
  5
F3
330
1F
100
AcDbEntity
  8
0
  6
HIDDEN
 62
     7
370
     0
100
AcDbSpline
210
0.0
220
0.0
230
1.0
 70
     8
 71
     3
 72
    10
 73
     6
 74
     0
 42
0.000000001
 43
0.00000001
 40
0.0
 40
0.0
 40
0.0
 40
0.0
 40
0.5
 40
0.5
 40
1.0
 40
1.0
 40
1.0
 40
1.0
 10
205.5400815859395
 20
122.2855533134735
 30
0.0
 10
205.6374876412893
 20
122.2855533134735
 30
0.0
 10
205.7322357326179
 20
122.3100453471837
 30
0.0
 10
205.9003862491329
 20
122.3897263977939
 30
0.0
 10
205.9752910668048
 20
122.4447169186161
 30
0.0
 10
206.0400815858258
 20
122.5055616993388
 30
0.0
  0
LINE
  5
F4
330
1F
100
AcDbEntity
  8
0
  6
HIDDEN
 62
     7
370
     0
100
AcDbLine
 10
206.0400815858
 20
90.4326551349
 30
0.0
 11
206.0400815858
 21
83.5691084171
 31
0.0
  0
SPLINE
  5
F5
330
1F
100
AcDbEntity
  8
0
  6
HIDDEN
 62
     7
370
     0
100
AcDbSpline
210
0.0
220
0.0
230
1.0
 70
     8
 71
     3
 72
    18
 73
    14
 74
     0
 42
0.000000001
 43
0.00000001
 40
0.0
 40
0.0
 40
0.0
 40
0.0
 40
0.2500000000000092
 40
0.2500000000000092
 40
0.5000000000000184
 40
0.5000000000000184
 40
0.6250000000000138
 40
0.6250000000000138
 40
0.7500000000000092
 40
0.7500000000000092
 40
0.8750000000000046
 40
0.8750000000000046
 40
1.0
 40
1.0
 40
1.0
 40
1.0
 10
206.5400815859408
 20
89.4703481713283
 30
0.0
 10
206.5400815859413
 20
89.5651647590765
 30
0.0
 10
206.5347571139835
 20
89.6638898571431
 30
0.0
 10
206.5069314195351
 20
89.86454476946982
 30
0.0
 10
206.4845227781851
 20
89.96906924214063
 30
0.0
 10
206.4253121321067
 20
90.1224691455371
 30
0.0
 10
206.4009584018482
 20
90.17304930719
 30
0.0
 10
206.3424860762595
 20
90.26455705697312
 30
0.0
 10
206.3073469862283
 20
90.30628063107311
 30
0.0
 10
206.232758762885
 20
90.37028516529973
 30
0.0
 10
206.1927627354954
 20
90.39341479075144
 30
0.0
 10
206.1150076353895
 20
90.42315431750377
 30
0.0
 10
206.0766563413758
 20
90.43037849854022
 30
0.0
 10
206.0400815858258
 20
90.4326551349455
 30
0.0
  0
LINE
  5
F6
330
1F
100
AcDbEntity
  8
0
  6
HIDDEN
 62
     7
370
     0
100
AcDbLine
 10
206.5400815858
 20
89.4703481714
 30
0.0
 11
206.5400815858
 21
83.3191084171
 31
0.0
  0
SPLINE
  5
F7
330
1F
100
AcDbEntity
  8
0
  6
HIDDEN
 62
     7
370
     0
100
AcDbSpline
210
0.0
220
0.0
230
1.0
 70
     8
 71
     3
 72
    10
 73
     6
 74
     0
 42
0.000000001
 43
0.00000001
 40
0.0
 40
0.0
 40
0.0
 40
0.0
 40
0.5
 40
0.5
 40
1.0
 40
1.0
 40
1.0
 40
1.0
 10
205.5400815859395
 20
90.6526635208108
 30
0.0
 10
205.6374876412893
 20
90.6526635208108
 30
0.0
 10
205.7322357326179
 20
90.62817148710062
 30
0.0
 10
205.9003862491329
 20
90.5484904364904
 30
0.0
 10
205.9752910668048
 20
90.49349991566822
 30
0.0
 10
206.0400815858258
 20
90.43265513494552
 30
0.0
  0
LINE
  5
F8
330
1F
100
AcDbEntity
  8
0
  6
HIDDEN
 62
     7
370
     0
100
AcDbLine
 10
206.5400815858
 20
89.4703481714
 30
0.0
 11
206.5400815858
 21
123.4678686629
 31
0.0
  0
LINE
  5
F9
330
1F
100
AcDbEntity
  8
0
  6
HIDDEN
 62
     7
370
     0
100
AcDbLine
 10
106.6845182671
 20
87.7817987733
 30
0.0
 11
106.7342424272
 21
88.1356045566
 31
0.0
  0
LINE
  5
FA
330
1F
100
AcDbEntity
  8
0
  6
HIDDEN
 62
     7
370
     0
100
AcDbLine
 10
106.7342424272
 20
124.8026122777
 30
0.0
 11
106.6845182671
 21
125.156418061
 31
0.0
  0
LINE
  5
FB
330
1F
100
AcDbEntity
  8
0
  6
HIDDEN
 62
     7
370
     0
100
AcDbLine
 10
168.9084290884
 20
124.9691084171
 30
0.0
 11
167.0400815859
 21
124.9691084171
 31
0.0
  0
LINE
  5
FC
330
1F
100
AcDbEntity
  8
0
  6
HIDDEN
 62
     7
370
     0
100
AcDbLine
 10
167.0400815859
 20
87.9691084171
 30
0.0
 11
168.9084290884
 21
87.9691084171
 31
0.0
  0
ARC
  5
FD
330
1F
100
AcDbEntity
  8
0
  6
HIDDEN
 62
     7
370
     0
100
AcDbCircle
 10
167.0400815859
 20
123.9691084171
 30
0.0
 40
1.0
100
AcDbArc
 50
90.0
 51
180.0
  0
ARC
  5
FE
330
1F
100
AcDbEntity
  8
0
  6
HIDDEN
 62
     7
370
     0
100
AcDbCircle
 10
167.0400815859
 20
88.9691084171
 30
0.0
 40
1.0
100
AcDbArc
 50
180.0
 51
270.0
  0
ARC
  5
FF
330
1F
100
AcDbEntity
  8
0
  6
HIDDEN
 62
     7
370
     0
100
AcDbCircle
 10
168.9084290884
 20
123.9691084171
 30
0.0
 40
1.0
100
AcDbArc
 50
75.0
 51
90.0
  0
ARC
  5
100
330
1F
100
AcDbEntity
  8
0
  6
HIDDEN
 62
     7
370
     0
100
AcDbCircle
 10
168.9084290884
 20
88.9691084171
 30
0.0
 40
1.0
100
AcDbArc
 50
270.0
 51
285.0
  0
LINE
  5
101
330
1F
100
AcDbEntity
  8
0
  6
HIDDEN
 62
     7
370
     0
100
AcDbLine
 10
169.1672481335
 20
88.0031825909
 30
0.0
 11
170.9061069897
 21
88.4691084171
 31
0.0
  0
LINE
  5
102
330
1F
100
AcDbEntity
  8
0
  6
HIDDEN
 62
     7
370
     0
100
AcDbLine
 10
170.9061069897
 20
124.4691084171
 30
0.0
 11
169.1672481335
 21
124.9350342434
 31
0.0
  0
ARC
  5
103
330
1F
100
AcDbEntity
  8
0
  6
HIDDEN
 62
     7
370
     0
100
AcDbCircle
 10
106.1400815859
 20
88.2191084171
 30
0.0
 40
0.6000000000000085
100
AcDbArc
 50
352.0
 51
0.0
  0
ARC
  5
104
330
1F
100
AcDbEntity
  8
0
  6
HIDDEN
 62
     7
370
     0
100
AcDbCircle
 10
106.1400815859
 20
88.2191084171
 30
0.0
 40
0.6000000000000085
100
AcDbArc
 50
0.0
 51
90.0
  0
ARC
  5
105
330
1F
100
AcDbEntity
  8
0
  6
HIDDEN
 62
     7
370
     0
100
AcDbCircle
 10
106.1400815859
 20
124.7191084171
 30
0.0
 40
0.6000000000000085
100
AcDbArc
 50
0.0
 51
8.0
  0
ARC
  5
106
330
1F
100
AcDbEntity
  8
0
  6
HIDDEN
 62
     7
370
     0
100
AcDbCircle
 10
106.1400815859
 20
124.7191084171
 30
0.0
 40
0.6000000000000085
100
AcDbArc
 50
270.0
 51
0.0
  0
LINE
  5
107
330
1F
100
AcDbEntity
  8
0
  6
HIDDEN
 62
     7
370
     0
100
AcDbLine
 10
106.7400815859
 20
88.2191084171
 30
0.0
 11
106.7400815859
 21
124.7191084171
 31
0.0
  0
LINE
  5
108
330
1F
100
AcDbEntity
  8
0
  6
HIDDEN
 62
     7
370
     0
100
AcDbLine
 10
106.7400815859
 20
88.2191084171
 30
0.0
 11
106.7400815859
 21
124.7191084171
 31
0.0
  0
LINE
  5
109
330
1F
100
AcDbEntity
  8
0
  6
HIDDEN
 62
     7
370
     0
100
AcDbLine
 10
189.9400815858
 20
124.4691084171
 30
0.0
 11
170.9061069897
 21
124.4691084171
 31
0.0
  0
LINE
  5
10A
330
1F
100
AcDbEntity
  8
0
  6
HIDDEN
 62
     7
370
     0
100
AcDbLine
 10
170.9061069897
 20
88.4691084171
 30
0.0
 11
189.9400815858
 21
88.4691084171
 31
0.0
  0
LINE
  5
10B
330
1F
100
AcDbEntity
  8
0
  6
HIDDEN
 62
     7
370
     0
100
AcDbLine
 10
101.5400815859
 20
88.4691084171
 30
0.0
 11
104.0400815859
 21
88.4691084171
 31
0.0
  0
LINE
  5
10C
330
1F
100
AcDbEntity
  8
0
  6
HIDDEN
 62
     7
370
     0
100
AcDbLine
 10
104.0400815859
 20
124.4691084171
 30
0.0
 11
101.5400815859
 21
124.4691084171
 31
0.0
  0
LINE
  5
10D
330
1F
100
AcDbEntity
  8
0
  6
HIDDEN
 62
     7
370
     0
100
AcDbLine
 10
104.0400815859
 20
88.4691084171
 30
0.0
 11
105.2699994401
 21
88.7986639129
 31
0.0
  0
LINE
  5
10E
330
1F
100
AcDbEntity
  8
0
  6
HIDDEN
 62
     7
370
     0
100
AcDbLine
 10
105.2699994401
 20
124.1395529214
 30
0.0
 11
104.0400815859
 21
124.4691084171
 31
0.0
  0
ARC
  5
10F
330
1F
100
AcDbEntity
  8
0
  6
HIDDEN
 62
     7
370
     0
100
AcDbCircle
 10
105.4252908671
 20
88.2191084171
 30
0.0
 40
0.6000000000000085
100
AcDbArc
 50
90.0
 51
105.0
  0
ARC
  5
110
330
1F
100
AcDbEntity
  8
0
  6
HIDDEN
 62
     7
370
     0
100
AcDbCircle
 10
105.4252908671
 20
124.7191084171
 30
0.0
 40
0.6000000000000085
100
AcDbArc
 50
255.0
 51
270.0
  0
LINE
  5
111
330
1F
100
AcDbEntity
  8
0
  6
HIDDEN
 62
     7
370
     0
100
AcDbLine
 10
105.4252908671
 20
88.8191084171
 30
0.0
 11
106.1400815859
 21
88.8191084171
 31
0.0
  0
LINE
  5
112
330
1F
100
AcDbEntity
  8
0
  6
HIDDEN
 62
     7
370
     0
100
AcDbLine
 10
106.1400815859
 20
124.1191084171
 30
0.0
 11
105.4252908671
 21
124.1191084171
 31
0.0
  0
ARC
  5
113
330
1F
100
AcDbEntity
  8
0
  6
HIDDEN
 62
     7
370
     0
100
AcDbCircle
 10
162.4400815859
 20
123.0691084171
 30
0.0
 40
0.4000000000000057
100
AcDbArc
 50
90.0
 51
180.0
  0
ARC
  5
114
330
1F
100
AcDbEntity
  8
0
  6
HIDDEN
 62
     7
370
     0
100
AcDbCircle
 10
162.4400815859
 20
89.8691084171
 30
0.0
 40
0.4000000000000057
100
AcDbArc
 50
180.0
 51
270.0
  0
LINE
  5
115
330
1F
100
AcDbEntity
  8
0
  6
HIDDEN
 62
     7
370
     0
100
AcDbLine
 10
166.0400815859
 20
123.4691084171
 30
0.0
 11
162.4400815859
 21
123.4691084171
 31
0.0
  0
LINE
  5
116
330
1F
100
AcDbEntity
  8
0
  6
HIDDEN
 62
     7
370
     0
100
AcDbLine
 10
162.4400815859
 20
89.4691084171
 30
0.0
 11
166.0400815859
 21
89.4691084171
 31
0.0
  0
LINE
  5
117
330
1F
100
AcDbEntity
  8
0
  6
HIDDEN
 62
     7
370
     0
100
AcDbLine
 10
162.0400815859
 20
121.4691084171
 30
0.0
 11
161.0400815859
 21
120.4691084171
 31
0.0
  0
LINE
  5
118
330
1F
100
AcDbEntity
  8
0
  6
HIDDEN
 62
     7
370
     0
100
AcDbLine
 10
161.0400815859
 20
92.4691084171
 30
0.0
 11
162.0400815859
 21
91.4691084171
 31
0.0
  0
LINE
  5
119
330
1F
100
AcDbEntity
  8
0
  6
HIDDEN
 62
     7
370
     0
100
AcDbLine
 10
161.0400815859
 20
120.4691084171
 30
0.0
 11
130.0400815859
 21
120.4691084171
 31
0.0
  0
LINE
  5
11A
330
1F
100
AcDbEntity
  8
0
  6
HIDDEN
 62
     7
370
     0
100
AcDbLine
 10
130.0400815859
 20
92.4691084171
 30
0.0
 11
161.0400815859
 21
92.4691084171
 31
0.0
  0
LINE
  5
11B
330
1F
100
AcDbEntity
  8
0
  6
HIDDEN
 62
     7
370
     0
100
AcDbLine
 10
130.0400815859
 20
120.4691084171
 30
0.0
 11
126.4349178718
 21
114.4691084171
 31
0.0
  0
LINE
  5
11C
330
1F
100
AcDbEntity
  8
0
  6
HIDDEN
 62
     7
370
     0
100
AcDbLine
 10
126.4349178718
 20
98.4691084171
 30
0.0
 11
130.0400815859
 21
92.4691084171
 31
0.0
  0
ARC
  5
11D
330
1F
100
AcDbEntity
  8
0
  6
HIDDEN
 62
     7
370
     0
100
AcDbCircle
 10
67.5400815859
 20
95.9691084171
 30
0.0
 40
1.0
100
AcDbArc
 50
90.0
 51
180.0
  0
ARC
  5
11E
330
1F
100
AcDbEntity
  8
0
  6
HIDDEN
 62
     7
370
     0
100
AcDbCircle
 10
67.5400815859
 20
116.9691084171
 30
0.0
 40
1.0
100
AcDbArc
 50
180.0
 51
270.0
  0
LINE
  5
11F
330
1F
100
AcDbEntity
  8
0
  6
HIDDEN
 62
     7
370
     0
100
AcDbLine
 10
206.5400815858
 20
132.5431899429
 30
0.0
 11
205.9533231165
 21
131.9564389533
 31
0.0
  0
LINE
  5
120
330
1F
100
AcDbEntity
  8
0
  6
HIDDEN
 62
     7
370
     0
100
AcDbLine
 10
205.95312202
 20
80.9819741808
 30
0.0
 11
206.5400815858
 21
80.3950266571
 31
0.0
  0
LINE
  5
121
330
1F
100
AcDbEntity
  8
0
  6
HIDDEN
 62
     7
370
     0
100
AcDbLine
 10
69.5400815859
 20
96.9691084171
 30
0.0
 11
70.4413725145
 21
98.4691084171
 31
0.0
  0
LINE
  5
122
330
1F
100
AcDbEntity
  8
0
  6
HIDDEN
 62
     7
370
     0
100
AcDbLine
 10
70.4413725145
 20
114.4691084171
 30
0.0
 11
69.5400815859
 21
115.9691084171
 31
0.0
  0
LINE
  5
123
330
1F
100
AcDbEntity
  8
0
  6
HIDDEN
 62
     7
370
     0
100
AcDbLine
 10
67.5400815859
 20
96.9691084171
 30
0.0
 11
69.5400815859
 21
96.9691084171
 31
0.0
  0
LINE
  5
124
330
1F
100
AcDbEntity
  8
0
  6
HIDDEN
 62
     7
370
     0
100
AcDbLine
 10
69.5400815859
 20
115.9691084171
 30
0.0
 11
67.5400815859
 21
115.9691084171
 31
0.0
  0
LINE
  5
125
330
1F
100
AcDbEntity
  8
0
  6
HIDDEN
 62
     7
370
     0
100
AcDbLine
 10
70.4413725145
 20
98.4691084171
 30
0.0
 11
126.4349178718
 21
98.4691084171
 31
0.0
  0
LINE
  5
126
330
1F
100
AcDbEntity
  8
0
  6
HIDDEN
 62
     7
370
     0
100
AcDbLine
 10
126.4349178718
 20
114.4691084171
 30
0.0
 11
70.4413725145
 21
114.4691084171
 31
0.0
  0
LINE
  5
127
330
1F
100
AcDbEntity
  8
0
  6
HIDDEN
 62
     7
370
     0
100
AcDbLine
 10
189.9400815858
 20
80.9691084171
 30
0.0
 11
205.9683122625
 21
80.9691084171
 31
0.0
  0
LINE
  5
128
330
1F
100
AcDbEntity
  8
0
  6
HIDDEN
 62
     7
370
     0
100
AcDbLine
 10
205.9691812201
 20
131.9691084171
 30
0.0
 11
189.9400815858
 21
131.9691084171
 31
0.0
  0
LINE
  5
129
330
1F
100
AcDbEntity
  8
0
  6
HIDDEN
 62
     7
370
     0
100
AcDbLine
 10
106.7053816943
 20
125.1344085255
 30
0.0
 11
107.0400815859
 21
125.4691084171
 31
0.0
  0
LINE
  5
12A
330
1F
100
AcDbEntity
  8
0
  6
HIDDEN
 62
     7
370
     0
100
AcDbLine
 10
107.0400815859
 20
130.4691084171
 30
0.0
 11
106.5400815859
 21
130.9691084171
 31
0.0
  0
LINE
  5
12B
330
1F
100
AcDbEntity
  8
0
  6
HIDDEN
 62
     7
370
     0
100
AcDbLine
 10
106.5400815859
 20
81.9691084171
 30
0.0
 11
107.0400815859
 21
82.4691084171
 31
0.0
  0
LINE
  5
12C
330
1F
100
AcDbEntity
  8
0
  6
HIDDEN
 62
     7
370
     0
100
AcDbLine
 10
107.0400815859
 20
87.4691084171
 30
0.0
 11
106.7053816943
 21
87.8038083088
 31
0.0
  0
LINE
  5
12D
330
1F
100
AcDbEntity
  8
0
  6
HIDDEN
 62
     7
370
     0
100
AcDbLine
 10
107.0400815859
 20
125.4691084171
 30
0.0
 11
114.5400815859
 21
125.4691084171
 31
0.0
  0
LINE
  5
12E
330
1F
100
AcDbEntity
  8
0
  6
HIDDEN
 62
     7
370
     0
100
AcDbLine
 10
114.5400815859
 20
130.4691084171
 30
0.0
 11
107.0400815859
 21
130.4691084171
 31
0.0
  0
LINE
  5
12F
330
1F
100
AcDbEntity
  8
0
  6
HIDDEN
 62
     7
370
     0
100
AcDbLine
 10
107.0400815859
 20
82.4691084171
 30
0.0
 11
114.5400815859
 21
82.4691084171
 31
0.0
  0
LINE
  5
130
330
1F
100
AcDbEntity
  8
0
  6
HIDDEN
 62
     7
370
     0
100
AcDbLine
 10
114.5400815859
 20
87.4691084171
 30
0.0
 11
107.0400815859
 21
87.4691084171
 31
0.0
  0
LINE
  5
131
330
1F
100
AcDbEntity
  8
0
  6
HIDDEN
 62
     7
370
     0
100
AcDbLine
 10
114.5400815859
 20
82.4691084171
 30
0.0
 11
116.0422331335
 21
84.9691084171
 31
0.0
  0
LINE
  5
132
330
1F
100
AcDbEntity
  8
0
  6
HIDDEN
 62
     7
370
     0
100
AcDbLine
 10
116.0422331335
 20
84.9691084171
 30
0.0
 11
114.5400815859
 21
87.4691084171
 31
0.0
  0
LINE
  5
133
330
1F
100
AcDbEntity
  8
0
  6
HIDDEN
 62
     7
370
     0
100
AcDbLine
 10
114.5400815859
 20
125.4691084171
 30
0.0
 11
116.0422331335
 21
127.9691084171
 31
0.0
  0
LINE
  5
134
330
1F
100
AcDbEntity
  8
0
  6
HIDDEN
 62
     7
370
     0
100
AcDbLine
 10
116.0422331335
 20
127.9691084171
 30
0.0
 11
114.5400815859
 21
130.4691084171
 31
0.0
  0
DIMENSION
  5
135
330
1F
100
AcDbEntity
  8
VERMASSUNG
100
AcDbDimension
  2
_D
 10
216.6366268207
 20
88.4691084171
 30
0.0
 11
216.6366268207
 21
106.4691084171
 31
0.0
 70
   160
  1
%%c<>
 71
     2
 42
-1.0
  3
SLDDIMSTYLE0
100
AcDbAlignedDimension
 13
189.9400815858
 23
124.4691084171
 33
0.0
 14
189.9400815858
 24
88.4691084171
 34
0.0
 50
90.0
100
AcDbRotatedDimension
  0
DIMENSION
  5
141
330
1F
100
AcDbEntity
  8
VERMASSUNG
100
AcDbDimension
  2
_D_1
 10
222.6366268207
 20
74.4691084171
 30
0.0
 11
222.6366268207
 21
106.4691084171
 31
0.0
 70
   160
  1
ST6 %%c<>
 71
     2
 42
-1.0
  3
SLDDIMSTYLE0
100
AcDbAlignedDimension
 13
205.9400815859
 23
138.4691084171
 33
0.0
 14
205.9400815859
 24
74.4691084171
 34
0.0
 50
90.0
100
AcDbRotatedDimension
  0
DIMENSION
  5
14D
330
1F
100
AcDbEntity
  8
VERMASSUNG
100
AcDbDimension
  2
_D_2
 10
106.5400815859
 20
142.4691084171
 30
0.0
 11
156.5400815859
 21
142.4691084171
 31
0.0
 70
   160
  1
<>
 71
     2
 42
-1.0
  3
SLDDIMSTYLE0
100
AcDbAlignedDimension
 13
206.5400815859
 23
137.8691084171
 33
0.0
 14
106.5400815859
 24
137.8691084171
 34
0.0
100
AcDbRotatedDimension
  0
DIMENSION
  5
157
330
1F
100
AcDbEntity
  8
VERMASSUNG
100
AcDbDimension
  2
_D_3
 10
66.5400815859
 20
148.4691084171
 30
0.0
 11
136.5400815859
 21
148.4691084171
 31
0.0
 70
   160
  1
(<>)
 71
     2
 42
-1.0
  3
SLDDIMSTYLE0
100
AcDbAlignedDimension
 13
206.5400815859
 23
137.8691084171
 33
0.0
 14
66.5400815859
 24
122.3691084171
 34
0.0
100
AcDbRotatedDimension
  0
LINE
  5
163
330
1F
100
AcDbEntity
  8
VERMASSUNG
  6
CENTERX2
370
     0
100
AcDbLine
 10
66.0711501805
 20
106.4691084171
 30
0.0
 11
207.9400815859
 21
106.4691084171
 31
0.0
  0
OLE2FRAME
  5
164
330
1F
100
AcDbEntity
  8
0
100
AcDbOle2Frame
 70
     2
  3
Paintbrush-Bild
 10
13.8511154363
 20
38.264191557
 30
0.0
 11
51.6290888628
 21
31.9806341108
 31
0.0
 71
     2
 72
     0
 73
     1
 90
    12928
310
80552BED0767C5B32B40DDAF6807D121434000000000000000006FFBDDFB85D0
310
4940DDAF6807D121434000000000000000006FFBDDFB85D04940416F4BD60AFB
310
3F4000000000000000002BED0767C5B32B40416F4BD60AFB3F40000000000000
310
0000000000000100000000010000010000000100000000000100000000320000
310
D0CF11E0A1B11AE1000000000000000000000000000000003E000300FEFF0900
310
0600000000000000000000000100000001000000000000000010000002000000
310
01000000FEFFFFFF0000000000000000FFFFFFFFFFFFFFFFFFFFFFFFFFFFFFFF
310
FFFFFFFFFFFFFFFFFFFFFFFFFFFFFFFFFFFFFFFFFFFFFFFFFFFFFFFFFFFFFFFF
310
FFFFFFFFFFFFFFFFFFFFFFFFFFFFFFFFFFFFFFFFFFFFFFFFFFFFFFFFFFFFFFFF
310
FFFFFFFFFFFFFFFFFFFFFFFFFFFFFFFFFFFFFFFFFFFFFFFFFFFFFFFFFFFFFFFF
310
FFFFFFFFFFFFFFFFFFFFFFFFFFFFFFFFFFFFFFFFFFFFFFFFFFFFFFFFFFFFFFFF
310
FFFFFFFFFFFFFFFFFFFFFFFFFFFFFFFFFFFFFFFFFFFFFFFFFFFFFFFFFFFFFFFF
310
FFFFFFFFFFFFFFFFFFFFFFFFFFFFFFFFFFFFFFFFFFFFFFFFFFFFFFFFFFFFFFFF
310
FFFFFFFFFFFFFFFFFFFFFFFFFFFFFFFFFFFFFFFFFFFFFFFFFFFFFFFFFFFFFFFF
310
FFFFFFFFFFFFFFFFFFFFFFFFFFFFFFFFFFFFFFFFFFFFFFFFFFFFFFFFFFFFFFFF
310
FFFFFFFFFFFFFFFFFFFFFFFFFFFFFFFFFFFFFFFFFFFFFFFFFFFFFFFFFFFFFFFF
310
FFFFFFFFFFFFFFFFFFFFFFFFFFFFFFFFFFFFFFFFFFFFFFFFFFFFFFFFFFFFFFFF
310
FFFFFFFFFFFFFFFFFFFFFFFFFFFFFFFFFFFFFFFFFFFFFFFFFFFFFFFFFFFFFFFF
310
FFFFFFFFFFFFFFFFFFFFFFFFFFFFFFFFFFFFFFFFFFFFFFFFFFFFFFFFFFFFFFFF
310
FFFFFFFFFFFFFFFFFFFFFFFFFFFFFFFFFFFFFFFFFFFFFFFFFFFFFFFFFFFFFFFF
310
FDFFFFFFFEFFFFFFFEFFFFFFFEFFFFFF05000000060000000700000008000000
310
090000000A0000000B0000000C0000000D0000000E0000000F00000010000000
310
11000000120000001300000014000000150000001600000017000000FEFFFFFF
310
FFFFFFFFFFFFFFFFFFFFFFFFFFFFFFFFFFFFFFFFFFFFFFFFFFFFFFFFFFFFFFFF
310
FFFFFFFFFFFFFFFFFFFFFFFFFFFFFFFFFFFFFFFFFFFFFFFFFFFFFFFFFFFFFFFF
310
FFFFFFFFFFFFFFFFFFFFFFFFFFFFFFFFFFFFFFFFFFFFFFFFFFFFFFFFFFFFFFFF
310
FFFFFFFFFFFFFFFFFFFFFFFFFFFFFFFFFFFFFFFFFFFFFFFFFFFFFFFFFFFFFFFF
310
FFFFFFFFFFFFFFFFFFFFFFFFFFFFFFFFFFFFFFFFFFFFFFFFFFFFFFFFFFFFFFFF
310
FFFFFFFFFFFFFFFFFFFFFFFFFFFFFFFFFFFFFFFFFFFFFFFFFFFFFFFFFFFFFFFF
310
FFFFFFFFFFFFFFFFFFFFFFFFFFFFFFFFFFFFFFFFFFFFFFFFFFFFFFFFFFFFFFFF
310
FFFFFFFFFFFFFFFFFFFFFFFFFFFFFFFFFFFFFFFFFFFFFFFFFFFFFFFFFFFFFFFF
310
FFFFFFFFFFFFFFFFFFFFFFFFFFFFFFFFFFFFFFFFFFFFFFFFFFFFFFFFFFFFFFFF
310
FFFFFFFFFFFFFFFFFFFFFFFFFFFFFFFFFFFFFFFFFFFFFFFFFFFFFFFFFFFFFFFF
310
FFFFFFFFFFFFFFFFFFFFFFFFFFFFFFFFFFFFFFFFFFFFFFFFFFFFFFFFFFFFFFFF
310
FFFFFFFFFFFFFFFFFFFFFFFFFFFFFFFFFFFFFFFFFFFFFFFFFFFFFFFFFFFFFFFF
310
FFFFFFFFFFFFFFFFFFFFFFFFFFFFFFFFFFFFFFFFFFFFFFFFFFFFFFFFFFFFFFFF
310
52006F006F007400200045006E00740072007900000000000000000000000000
310
0000000000000000000000000000000000000000000000000000000000000000
310
16000500FFFFFFFFFFFFFFFF020000000A00030000000000C000000000000046
310
000000000000000000000000C07BFFFFA9DDD10103000000C000000000000000
310
01004F006C006500000000000000000000000000000000000000000000000000
310
0000000000000000000000000000000000000000000000000000000000000000
310
0A000200FFFFFFFFFFFFFFFFFFFFFFFF00000000000000000000000000000000
310
0000000000000000000000000000000000000000000000001400000000000000
310
010043006F006D0070004F0062006A0000000000000000000000000000000000
310
0000000000000000000000000000000000000000000000000000000000000000
310
120002010100000003000000FFFFFFFF00000000000000000000000000000000
310
0000000000000000000000000000000000000000010000004D00000000000000
310
01004F006C006500310030004E00610074006900760065000000000000000000
310
0000000000000000000000000000000000000000000000000000000000000000
310
1A000200FFFFFFFFFFFFFFFFFFFFFFFF00000000000000000000000000000000
310
0000000000000000000000000000000000000000040000002426000000000000
310
FEFFFFFF02000000FEFFFFFFFFFFFFFFFFFFFFFFFFFFFFFFFFFFFFFFFFFFFFFF
310
FFFFFFFFFFFFFFFFFFFFFFFFFFFFFFFFFFFFFFFFFFFFFFFFFFFFFFFFFFFFFFFF
310
FFFFFFFFFFFFFFFFFFFFFFFFFFFFFFFFFFFFFFFFFFFFFFFFFFFFFFFFFFFFFFFF
310
FFFFFFFFFFFFFFFFFFFFFFFFFFFFFFFFFFFFFFFFFFFFFFFFFFFFFFFFFFFFFFFF
310
FFFFFFFFFFFFFFFFFFFFFFFFFFFFFFFFFFFFFFFFFFFFFFFFFFFFFFFFFFFFFFFF
310
FFFFFFFFFFFFFFFFFFFFFFFFFFFFFFFFFFFFFFFFFFFFFFFFFFFFFFFFFFFFFFFF
310
FFFFFFFFFFFFFFFFFFFFFFFFFFFFFFFFFFFFFFFFFFFFFFFFFFFFFFFFFFFFFFFF
310
FFFFFFFFFFFFFFFFFFFFFFFFFFFFFFFFFFFFFFFFFFFFFFFFFFFFFFFFFFFFFFFF
310
FFFFFFFFFFFFFFFFFFFFFFFFFFFFFFFFFFFFFFFFFFFFFFFFFFFFFFFFFFFFFFFF
310
FFFFFFFFFFFFFFFFFFFFFFFFFFFFFFFFFFFFFFFFFFFFFFFFFFFFFFFFFFFFFFFF
310
FFFFFFFFFFFFFFFFFFFFFFFFFFFFFFFFFFFFFFFFFFFFFFFFFFFFFFFFFFFFFFFF
310
FFFFFFFFFFFFFFFFFFFFFFFFFFFFFFFFFFFFFFFFFFFFFFFFFFFFFFFFFFFFFFFF
310
FFFFFFFFFFFFFFFFFFFFFFFFFFFFFFFFFFFFFFFFFFFFFFFFFFFFFFFFFFFFFFFF
310
FFFFFFFFFFFFFFFFFFFFFFFFFFFFFFFFFFFFFFFFFFFFFFFFFFFFFFFFFFFFFFFF
310
FFFFFFFFFFFFFFFFFFFFFFFFFFFFFFFFFFFFFFFFFFFFFFFFFFFFFFFFFFFFFFFF
310
FFFFFFFFFFFFFFFFFFFFFFFFFFFFFFFFFFFFFFFFFFFFFFFFFFFFFFFFFFFFFFFF
310
0100000200000000000000000000000000000000000000000000000000000000
310
0000000000000000000000000000000000000000000000000000000000000000
310
0100FEFF030A0000FFFFFFFF0A00030000000000C00000000000004607000000
310
5042727573680007000000504272757368000700000050427275736800F439B2
310
7100000000000000000000000000000000000000000000000000000000000000
310
0000000000000000000000000000000000000000000000000000000000000000
310
0000000000000000000000000000000000000000000000000000000000000000
310
0000000000000000000000000000000000000000000000000000000000000000
310
0000000000000000000000000000000000000000000000000000000000000000
310
0000000000000000000000000000000000000000000000000000000000000000
310
0000000000000000000000000000000000000000000000000000000000000000
310
0000000000000000000000000000000000000000000000000000000000000000
310
0000000000000000000000000000000000000000000000000000000000000000
310
0000000000000000000000000000000000000000000000000000000000000000
310
0000000000000000000000000000000000000000000000000000000000000000
310
0000000000000000000000000000000000000000000000000000000000000000
310
20260000424D0E260000000000003E00000028000000B40200006E0000000100
310
01000000000000000000130B0000130B00000200000002000000000000FFFFFF
310
FFFFFFFFFFFFFFFFFFFFFFFFFFFFFFFFFFFFFFFFFFFFFFFFFFFFFFFFFFFFFFFF
310
FFFFFFFFFFFFFFFFFFFFFFFFFFFFFFFFFFFFFFFFFFFFFFFFFFFFFFFFFFFFFFFF
310
FFFFFFFFFFFFFFFFFFFFFFFFFFFFFFFFFFFFFFFFFFFFFFFFF000FFFFFFFFFFFF
310
FFFFFFFFFFFFFFFFFFFFFFFFFFFFFFFFFFFFFFFFFFFFFFFFFFFFFFFFFFFFFFFF
310
FFFFFFFFFFFFFFFFFFFFFFFFFFFFFFFFFFFFFFFFFFFFFFFFFFFFFFFFFFFFFFFF
310
FFFFFFFFFFFFFFFFFFFFFFFFFFFFFFFFF000FFFFFFFFFFFFFFFFFFFFFFFFFFFF
310
FFFFFFFFFFFFFFFFFFFFFFFFFFFFFFFFFFFFFFFFFFFFFFFFFFFFFFFFFFFFFFFF
310
FFFFFFFFFFFFFFFFFFFFFFFFFFFFFFFFFFFFFFFFFFFFFFFFFFFFFFFFFFFFFFFF
310
FFFFFFFFFFFFFFFFF000FFFFFFFFFFFFFFFFFFFFFFFFFFFFFFFFFFFFFFFFFFFF
310
FFFFFFFFFFFFFFFFFFFFFFFFFFFFFFFFFFFFFFFFFFFFFFFFFFFFFFFFFFFFFFFF
310
FFFFFFFFFFFFFFFFFFFFFFFFFFFFFFFFFFFFFFFFFFFFFFFFFFFFFFFFFFFFFFFF
310
F000FFFFFFFFFFFFFFFFFFFFFFFFFFFFFFFFFFFFFFFFFFFFFFFFFFFFFFFFFFFF
310
FFFFFFFFFFFFFFFFFFFFFFFFFFFFFFFFFFFFFFFFFFFFFFFFFFFFFFFFFFFFFFFF
310
FFFFFFFFFFFFFFFFFFFFFFFFFFFFFFFFFFFFFFFFFFFFFFFFF000FFFFFFFFFFFF
310
FFFFFFFFFFFFFFFFFFFFFFFFFFFFFFFFFFFFFFFFFFFFFFFFFFFFFFFFFFFFFFFF
310
FFFFFFFFFFFFFFFFFFFFFFFFFFFFFFFFFFFFFFFFFFFFFFFFFFFFFFFFFFFFFFFF
310
FFFFFFFFFFFFFFFFFFFFFFFFFFFFFFFFF000FFFFFFFFFFFFFFFFFFFFFFFFFFFF
310
FFFFFFFFFFFFFFFFFFFFFFFFFFFFFFFFFFFFFFFFFFFFFFFFFFFFFFFFFFFFFFFF
310
FFFFFFFFFFFFFFFFFFFFFFFFFFFFFFFFFFFFFFFFFFFFFFFFFFFFFFFFFFFFFFFF
310
FFFFFFFFFFFFFFFFF000FFFFFFFFFFFFFFFFFFFFFFFFFFFFFFFFFFFFFFFFFFFF
310
FFFFFFFFFFFFFFFFFFFFFFFFFFFFFFFFFFFFFFFFFFFFFFFFFFFFFFFFFFFFFFFF
310
FFFFFFFFFFFFFFFFFFFFFFFFFFFFFFFFFFFFFFFFFFFFFFFFFFFFFFFFFFFFFFFF
310
F000FFFFFFFFFFFFFFFFFFFFFFFFFFFFFFFFFFFFFFFFFFFFFFFFFFFFFFFFFFFF
310
FFFFFFFFFFFFFFFFFFFFFFFFFFFFFFFFFFFFFFFFFFFFFFFFFFFFFFFFFFFFFFFF
310
FFFFFFFFFFFFFFFFFFFFFFFFFFFFFFFFFFFFFFFFFFFFFFFFF000FFFFFFFFFFFF
310
FFFFFFFFFFFFFFFFFFFFFFFFFFFFFFFFFFFFFFFFFFFFFFFFFFFFFFFFFFFFFFFF
310
FFFFFFFFFFFFFFFFFFFFFFFFFFFFFFFFFFFFFFFFFFFFFFFFFFFFFFFFFFFFFFFF
310
FFFFFFFFFFFFFFFFFFFFFFFFFFFFFFFFF000FFFFFFFFFFFFFFFFFFFFFFFFFFFF
310
FFFFFFFFFFFFFFFFFFFFFFFFFFFFFFFFFFFFFFFFFFFFFFFFFFFFFFFFFFFFFFFF
310
FFFFFFFFFFFFFFFFFFFFFFFFFFFFFFFFFFFFFFFFFFFFFFFFFFFFFFFFFFFFFFFF
310
FFFFFFFFFFFFFFFFF000FFFFFFFFFFFFFFFFFFFFFFFFFFFFFFFFFFFFFFFFFFFF
310
FFFFFFFFFFFFFFFFFFFFFFFFFFFFFFFFFFFFFFFFFFFFFFFFFFFFFFFFFFFFFFFF
310
FFFFFFFFFFFFFFFFFFFFFFFFFFFFFFFFFFFFFFFFFFFFFFFFFFFFFFFFFFFFFFFF
310
F000FFFFFFFFFFFFFFFFFFFFFFFFFFFFFFFFFFFFFFFFFFFFFFFFFFFFFFFFFFFF
310
FFFFFFFFFFFFFFFFFFFFFFFFFFFFFFFFFFFFFFFFFFFFFFFFFFFFFFFFFFFFFFFF
310
FFFFFFFFFFFFFFFFFFFFFFFFFFFFFFFFFFFFFFFFFFFFFFFFF000FFFFFFFFFFFF
310
FFFFFFFFFFFFFFFFFFFFFFFFFFFFFFFFFFFFFFFFFFFFFFFFFFFFFFFFFFFFFFFF
310
FFFFFFFFFFFFFFFFFFFFFFFFFFFFFFFFFFFFFFFFFFFFFFFFFFFFFFFFFFFFFFFF
310
FFFFFFFFFFFFFFFFFFFFFFFFFFFFFFFFF000FFFFFFFFFFFFFFFFFFFFFFFFFFFF
310
FFFFFFFFFFFFFFFFFFFFFFFFFFFFFFFFFFFFFFFFFFFFFFFFFFFFFFFFFFFFFFFF
310
FFFFFFFFFFFFFFFFFFFFFFFFFFFFFFFFFFFFFFFFFFFFFFFFFFFFFFFFFFFFFFFF
310
FFFFFFFFFFFFFFFFF000FFFFFFFFFFFFFFFFFFFFFFFFFFFFFFFFFFFFFFFFFFFF
310
FFFFFFFFFFFFFFFFFFFFFFFFFFFFFFFFFFFFFFFFFFFFFFFFFFFFFFFFFFFFFFFF
310
FFFFFFFFFFFFFFFFFFFFFFFFFFFFFFFFFFFFFFFFFFFFFFFFFFFFFFFFFFFFFFFF
310
F000FFFFFFFFFFFFFFFFFFFFFFFFFFFFFFFFFFFFFFFFFFFFFFFFFFFFFFFFFFFF
310
FFFFFFFFFFFFFFFFFFFFFFFFFFFFFFFFFFFFFFFFFFFFFFFFFFFFFFFFFFFFFFFF
310
FFFFFFFFFFFFFFFFFFFFFFFFFFFFFFFFFFFFFFFFFFFFFFFFF000FFFFFFFFFFFF
310
FFFFFFFFFFFFFFFFFFFFFFFFFFFFFFFFFFFFFFFFFFFFFFFFFFFFFFFFFFFFFFFF
310
FFFFFFFFFFFFFFFFFFFFFFFFFFFFFFFFFFFFFFFFFFFFFFFFFFFFFFFFFFFFFFFF
310
FFFFFFFFFFFFFFFFFFFFFFFFFFFFFFFFF000FFFFFFFFFFFFFFFFFFFFFFFFFFFF
310
FFFFFFFFFFFFFFFFFFFFFFFFFFFFFFFFFFFFFFFFFFFFFFFFFFFFFFFFFFFFFFFF
310
FFFFFFFFFFFFFFFFFFFFFFFFFFFFFFFFFFFFFFFFFFFFFFFFFFFFFFFFFFFFFFFF
310
FFFFFFFFFFFFFFFFF000FFFFF80003FFFFFFFFFFFFFFFFFFFFFFFFFFFFFFFFFF
310
FFFFF00007FFFFFFFFFF00007FFFFFF800000000000000007FFFFFFFFFFFFFFF
310
FFFFFFFC001FFFFFFFFFFFFFFC001FFFFFFFFFFFFFFFFFFFFFFFFFFE0007FFFF
310
F000FFFF8000007FFFFFFFF8000FFFFFC0007FFFFF80007FFFFF0000007FFFFF
310
FFF8000007FFFFF800000000000000007FFFFFF0001FFFFFFFFFFFC00001FFFF
310
FFFFFFFFC00001FFFFFFFF000000000003FFFFE000007FFFF000FFFE0000000F
310
FFFFFFF0000FFFFF80007FFFFF80007FFFFC0000001FFFFFFFC0000001FFFFF8
310
00000000000000007FFFFFF0001FFFFFFFFFFE0000003FFFFFFFFFFE0000003F
310
FFFFFF000000000003FFFF0000000FFFF000FFF800000003FFFFFFF00007FFFF
310
80007FFFFF80007FFFF000000007FFFFFF000000003FFFF80000000000000000
310
7FFFFFF0001FFFFFFFFFF80000000FFFFFFFFFF80000000FFFFFFF0000000000
310
03FFFC00000003FFF000FFE000000000FFFFFFF00007FFFF80003FFFFF80007F
310
FFC000000001FFFFFC000000001FFFF800000000000000007FFFFFF0001FFFFF
310
FFFFE000000003FFFFFFFFE000000003FFFFFF000000000003FFF000000000FF
310
F000FF80000000007FFFFFF00007FFFF80003FFFFF80007FFF8000000000FFFF
310
F80000000007FFF800000000000000007FFFFFF0001FFFFFFFFFC000000001FF
310
FFFFFFC000000001FFFFFF000000000003FFC0000000007FF000FF0000000000
310
3FFFFFE00007FFFF00003FFFFF80007FFE00000000003FFFF00000000003FFF8
310
00000000000000007FFFFFF0001FFFFFFFFF8000000000FFFFFFFF8000000000
310
FFFFFF000000000003FF80000000003FF000FE00000000001FFFFFE00003FFFF
310
00003FFFFF80007FFC00000000001FFFE00000000001FFF8000001FFFE000000
310
7FFFFFF0001FFFFFFFFE00000000003FFFFFFE00000000003FFFFF0000000000
310
03FF00000000001FF000FC00000000000FFFFFE00003FFFF00001FFFFF80007F
310
F800000000001FFFC00000000000FFF8000001FFFE0000007FFFFFF0001FFFFF
310
FFFC00000000001FFFFFFC00000000001FFFFF000000000003FE00000000000F
310
F000F8000000000007FFFFE00003FFFF00001FFFFF80007FF800000000000FFF
310
800000000000FFF8000001FFFE0000007FFFFFF0001FFFFFFFF800000000000F
310
FFFFF800000000000FFFFF000000000003FC000000000007F000F80000000000
310
03FFFFC00003FFFE00001FFFFF80007FF0000000000007FF0000000000007FF8
310
000001FFFE0000007FFFFFF0001FFFFFFFF0000000000007FFFFF00000000000
310
07FFFF000000000003F8000000000003F000F0000000000003FFFFC00001FFFE
310
00001FFFFF80007FE0000000000007FE0000000000003FF8000001FFFE000000
310
7FFFFFF0001FFFFFFFF0000000000007FFFFF0000000000007FFFF0000000000
310
03F800001F800003F000E00001FFF00001FFFFC00001FFFE00000FFFFF80007F
310
E00001FFE00003FE00001FFF00003FF8000001FFFE0000007FFFFFF0001FFFFF
310
FFE000003E000003FFFFE000003E000003FFFF000000000003F00001FFF80001
310
F000E00007FFFC0001FFFFC00001FFFE00000FFFFF80007FC0000FFFFC0003FC
310
0000FFFFC0001FF8000001FFFE0000007FFFFFF0001FFFFFFFC00003FFE00001
310
FFFFC00003FFE00001FFFF0001FFFFFFFFF00007FFFE0001F000E0000FFFFF00
310
00FFFF800001FFFC00000FFFFF80007FC0001FFFFE0001FC0001FFFFE0001FF8
310
000001FFFE0000007FFFFFF0001FFFFFFF80000FFFF80000FFFF80000FFFF800
310
00FFFF0003FFFFFFFFE0000FFFFF8000F000C0003FFFFF8000FFFF800000FFFC
310
000007FFFF80007F80003FFFFF0001FC0003FFFFF0001FF8000001FFFE000000
310
7FFFFFF0001FFFFFFF80003FFFFE0000FFFF80003FFFFE0000FFFF0003FFFFFF
310
FFE0003FFFFF8000F000C0003FFFFF8000FFFF800000FFFC000007FFFF80007F
310
80007FFFFF8001F80007FFFFF8000FF8000001FFFE0000007FFFFFF0001FFFFF
310
FF00007FFFFF00007FFF00007FFFFF00007FFF0003FFFFFFFFE0003FFFFFC000
310
F000C0007FFFFFC000FFFF000000FFFC000007FFFF80007F8000FFFFFF8000F8
310
000FFFFFF8000FF8000001FFFE0000007FFFFFF0001FFFFFFF0000FFFFFF8000
310
7FFF0000FFFFFF80007FFF0003FFFFFFFFC0007FFFFFC00070008000FFFFFFC0
310
00FFFF000000FFF8000007FFFF80007F8000FFFFFF8000F8000FFFFFF8000FF8
310
000001FFFE0000007FFFFFF0001FFFFFFE0001FFFFFFC0003FFE0001FFFFFFC0
310
003FFF0003FFFFFFFFC0007FFFFFE00070008000FFFFFFC0007FFF0000007FF8
310
000003FFFF80007F0001FFFFFF8000F8000FFFFFF8000FF8000001FFFE000000
310
7FFFFFF0001FFFFFFE0001FFFFFFC0003FFE0001FFFFFFC0003FFF0003FFFFFF
310
FFC000FFFFFFE00070008000FFFFFFC0007FFF0000007FF8000003FFFF80007F
310
0001FFFFFF8000F8001FFFFFF8000FF8000001FFFE0000007FFFFFF0001FFFFF
310
FE0003FFFFFFE0003FFE0003FFFFFFE0003FFF0003FFFFFFFFC000FFFFFFE000
310
70008000FFFFFFC0007FFE0000007FF8000003FFFF80007F0001FFFFFF8000F0
310
001FFFFFF8000FF8000001FFFE0000007FFFFFF0001FFFFFFC0003FFFFFFE000
310
1FFC0003FFFFFFE0001FFF0003FFFFFFFFC000FFFFFFC00070008000FFFFFF80
310
007FFE0000007FF0000003FFFF80007F0001FFFFFF0000F0001FFFFFF8000FF8
310
000001FFFE0000007FFFFFF0001FFFFFFC0007FFFFFFF0001FFC0007FFFFFFF0
310
001FFF0003FFFFFFFFC000FFFFFFC00070008001FFFFFF0000FFFE0000003FF0
310
000001FFFF80007F0001FFFFFF0000F8001FFFFFF0000FF8000001FFFE000000
310
7FFFFFF0001FFFFFFC0007FFFFFFF0001FFC0007FFFFFFF0001FFF0003FFFFFF
310
FFC001FFFFFF80007000FFFFFFFFFE0000FFFE0008003FF0008001FFFF80007F
310
FFFFFFFFFC0000FFFFFFFFFFE0000FF8000001FFFE0000007FFFFFF0001FFFFF
310
F8000FFFFFFFF8000FF8000FFFFFFFF8000FFF0003FFFFFFFFFFFFFFFFFF0000
310
7000FFFFFFFFFC0000FFFC0008003FF0008001FFFF80007FFFFFFFFFF80001FF
310
FFFFFFFF80000FF8000001FFFE0000007FFFFFF0001FFFFFF8000FFFFFFFF800
310
0FF8000FFFFFFFF8000FFF0003FFFFFFFFFFFFFFFFFE0000F000FFFFFFFFE000
310
00FFFC000C003FE000C001FFFF80007FFFFFFFFFC00001FFFFFFFFFE00001FF8
310
000001FFFE0000007FFFFFF0001FFFFFF8000FFFFFFFF8000FF8000FFFFFFFF8
310
000FFF0003FFFFFFFFFFFFFFFFF00000F000FFFFFFFE000001FFFC000C001FE0
310
00C000FFFF80007FFFFFFFFE000001FFFFFFFFE000001FF80FFFFFFFFFFFFFC0
310
7FFFFFF0001FFFFFF8000FFFFFFFF8000FF8000FFFFFFFF8000FFF0003FFFFFF
310
FFFFFFFFFF800000F000FFFFFFC0000001FFFC001C001FE001C000FFFF80007F
310
FFFFFF80000003FFFFFFF80000001FF80FFFFFFFFFFFFFC07FFFFFF0001FFFFF
310
F8001FFFFFFFFC000FF8001FFFFFFFFC000FFF0003FFFFFFFFFFFFFFF0000001
310
F000FFFFF800000001FFF8001C001FE001C000FFFF80007FFFFFF800000003FF
310
FFFF800000003FF80FFFFFFFFFFFFFC07FFFFFF0001FFFFFF8001FFFFFFFFC00
310
0FF8001FFFFFFFFC000FFF0003FFFFFFFFFFFFFE00000001F000FFFFC0000000
310
03FFF8001E001FC001E000FFFF80007FFFFF8000000007FFFFFC000000003FF8
310
0FFFFFFFFFFFFFC07FFFFFF0001FFFFFF8001FFFFFFFFC000FF8001FFFFFFFFC
310
000FFF0003FFFFFFFFFFFFE000000003F000FFFE0000000007FFF8001E000FC0
310
01E0007FFF80007FFFFE0000000007FFFFE0000000007FF80FFFFFFFFFFFFFC0
310
7FFFFFF0001FFFFFF0001FFFFFFFFC0007F0001FFFFFFFFC0007FF0003FFFFFF
310
FFFFFF0000000003F000FFF80000000007FFF8001E000FC003E0007FFF80007F
310
FFF0000000000FFFFF8000000000FFF80FFFFFFFFFFFFFC07FFFFFF0001FFFFF
310
F0001FFFFFFFFC0007F0001FFFFFFFFC0007FF0003FFFFFFFFFFFC0000000007
310
F000FFE0000000000FFFF0003E000FC003E0007FFF80007FFFC0000000001FFF
310
FE0000000001FFF80FFFFFFFFFFFFFC07FFFFFF0001FFFFFF0001FFFFFFFFC00
310
07F0001FFFFFFFFC0007FF0003FFFFFFFFFFF0000000000FF000FFC000000000
310
1FFFF0003F000F8003F0003FFF80007FFF80000000003FFFF80000000003FFF8
310
0FFFFFFFFFFFFFC07FFFFFF0001FFFFFF0001FFFFFFFFC0007F0001FFFFFFFFC
310
0007FF0003FFFFFFFFFFE0000000001FF000FF00000000007FFFF0003F000780
310
03F0003FFF80007FFF00000000007FFFF00000000007FFF80FFFFFFFFFFFFFC0
310
7FFFFFF0001FFFFFF0001FFFFFFFFC0007F0001FFFFFFFFC0007FF0003FFFFFF
310
FFFF80000000007FF000FE0000000000FFFFE0003F00078007F0003FFF80007F
310
FE0000000001FFFFE0000000001FFFF80FFFFFFFFFFFFFC07FFFFFF0001FFFFF
310
F0001FFFFFFFFC0007F0001FFFFFFFFC0007FF0003FFFFFFFFFF0000000000FF
310
F000FC0000000003FFFFE0007F00078007F0003FFF80007FFC0000000007FFFF
310
C0000000007FFFF80FFFFFFFFFFFFFC07FFFFFF0001FFFFFF8001FFFFFFFFC00
310
0FF8001FFFFFFFFC000FFF0003FFFFFFFFFE0000000003FFF000FC000000000F
310
FFFFE0007F80070007F8001FFF80007FF8000000001FFFFF8000000001FFFFF8
310
0FFFFFFFFFFFFFC07FFFFFF0001FFFFFF8001FFFFFFFFC000FF8001FFFFFFFFC
310
000FFF0003FFFFFFFFFC000000000FFFF000F8000000007FFFFFE0007F800700
310
07F8001FFF80007FF000000000FFFFFF800000000FFFFFF80FFFFFFFFFFFFFC0
310
7FFFFFF0001FFFFFF8000FFFFFFFF8000FF8000FFFFFFFF8000FFF0003FFFFFF
310
FFFC000000007FFFF000F800000007FFFFFFC0007F8003000FF8001FFF80007F
310
F000000007FFFFFF000000007FFFFFF80FFFFFFFFFFFFFC07FFFFFF0001FFFFF
310
F8000FFFFFFFF8000FF8000FFFFFFFF8000FFF0003FFFFFFFFF80000000FFFFF
310
F000F0000000FFFFFFFFC000FF8003000FF8001FFF80007FE0000000FFFFFFFF
310
0000000FFFFFFFF8000001FFFE0000007FFFFFF0001FFFFFF8000FFFFFFFF800
310
0FF8000FFFFFFFF8000FFF0003FFFFFFFFF8000000FFFFFFF000F000000FFFFF
310
FFFFC000FFC002000FF8000FFF80007FE000001FFFFFFFFE000001FFFFFFFFF8
310
000001FFFE0000007FFFFFF0001FFFFFF8000FFFFFFFF8000FF8000FFFFFFFF8
310
000FFF0003FFFFFFFFF000001FFFFFFFF000E00000FFFFFFFFFFC000FFC00200
310
0FFC000FFF80007FE00001FFFFFFFFFE00001FFFFFFFFFF8000001FFFE000000
310
7FFFFFF0001FFFFFFC000FFFFFFFF8001FFC000FFFFFFFF8001FFF0003FFFFFF
310
FFF00001FFFFFFFFF000E00007FFFFFFFFFF8000FFC000001FFC000FFF80007F
310
C0000FFFFFFFFFFE0000FFFFFFFFFFF8000001FFFE0000007FFFFFF0001FFFFF
310
FC0007FFFFFFF0001FFC0007FFFFFFF0001FFF0003FFFFFFFFF00007FFFFFFFF
310
F000E0001FFFFFFFFFFF8000FFC000001FFC000FFF80007FC0003FFFFFFFFFFE
310
0001FFFFFFFFFFF8000001FFFE0000007FFFFFF0001FFFFFFC0007FFFFFFF000
310
1FFC0007FFFFFFF0001FFF0003FFFFFFFFF0001FFFFFFFFFF000E0003FFFFF00
310
03FF8001FFE000001FFC0007FF80007FC0007FFFFF0007FC0003FFFFF0003FF8
310
000001FFFE0000007FFFFFF0001FFFFFFC0003FFFFFFE0001FFC0003FFFFFFE0
310
001FFF0003FFFFFFFFF0003FFFFFFFFFF000E0003FFFFF0001FF8001FFE00000
310
1FFE0007FF80007FC0007FFFFE0003FC0007FFFFE0003FF8000001FFFE000000
310
7FFFFFF0001FFFFFFE0003FFFFFFE0003FFE0003FFFFFFE0003FFF0003FFFFFF
310
FFF0003FFFFF8001F000E0003FFFFF0001FF0001FFE000001FFE0007FF80007F
310
C0007FFFFE0003FC0007FFFFE0003FF8000001FFFE0000007FFFFFF0001FFFFF
310
FE0001FFFFFFC0003FFE0001FFFFFFC0003FFF0003FFFFFFFFF0003FFFFF0001
310
F000E0003FFFFF0003FF0001FFE000003FFE0007FF80007FC0007FFFFE0003FC
310
0007FFFFE0003FF8000001FFFE0000007FFFFFF0001FFFFFFF0001FFFFFFC000
310
7FFF0001FFFFFFC0007FFF0003FFFFFFFFF0003FFFFF0001F000E0003FFFFE00
310
03FF0003FFF000003FFE0003FF80007FC0007FFFFC0003FE0007FFFFE0003FF8
310
000001FFFE0000007FFFFFF0001FFFFFFF0000FFFFFF80007FFF0000FFFFFF80
310
007FFF0003FFFFFFFFF0003FFFFF0001F000E0003FFFFE0003FF0003FFF00000
310
3FFF0003FF80007FC0007FFFFC0007FE0007FFFFC0003FF8000001FFFE000000
310
7FFFFFF0001FFFFFFF80007FFFFF0000FFFF80007FFFFF0000FFFF0003FFFFFF
310
FFF0003FFFFF0003F000E0003FFFFC0003FE0003FFF000003FFF0003FF80007F
310
E0003FFFF80007FE0003FFFFC0007FF8000001FFFE0000007FFFFFF0001FFFFF
310
FF80003FFFFE0000FFFF80003FFFFE0000FFFF0003FFFFFFFFF0001FFFFE0003
310
F000F0001FFFF80003FE0003FFF000007FFF0001FF80007FE0003FFFF00007FE
310
0001FFFF80007FF8000001FFFE0000007FFFFFF0001FFFFFFFC0000FFFF80001
310
FFFFC0000FFFF80001FFFF0003FFFFFFFFF0001FFFFC0003F000F0000FFFF000
310
07FE0007FFF800007FFF0001FF80007FE0001FFFE00007FF0000FFFE00007FF8
310
000001FFFE0000007FFFFFF0001FFFFFFFC00003FFE00001FFFFC00003FFE000
310
01FFFF0003FFFFFFFFF8000FFFF80003F000F00003FFC00007FC0007FFF80000
310
7FFF8001FF80007FF00007FF80000FFF00007FF80000FFF8000001FFFE000000
310
7F80000000000001FFE000003E000003FFFFE000003E000003FFFF0003FFFFFF
310
FFF80003FFE00007F000F800000000000FFC0007FFF800007FFF8001FF80007F
310
F000000000000FFF000000000000FFF8000001FFFE0000007F80000000000001
310
FFF0000000000007FFFFF0000000000007FFFF0003FFFFFFFFFC00007E000007
310
F000F800000000000FFC0007FFF80000FFFF8000FF80007FF800000000001FFF
310
800000000001FFF8000001FFFE0000007F80000000000001FFF800000000000F
310
FFFFF800000000000FFFFF0003FFFFFFFFFC00000000000FF000FC0000000000
310
1FFC0007FFFC0000FFFF8000FF80007FF800000000003FFFC00000000001FFF8
310
000001FFFE0000007F80000000000001FFF800000000000FFFFFF80000000000
310
0FFFFF0003FFFFFFFFFE00000000001FF000FE00000000003FF8000FFFFC0000
310
FFFF8000FF80007FFC00000000003FFFC00000000003FFF8000001FFFE000000
310
7F80000000000001FFFC00000000001FFFFFFC00000000001FFFFF0003FFFFFF
310
FFFF00000000001FF000FF00000000003FF8000FFFFC0000FFFFC000FF80007F
310
FE00000000007FFFE00000000007FFF8000001FFFE0000007F80000000000001
310
FFFE00000000003FFFFFFE00000000003FFFFF0003FFFFFFFFFF80000000003F
310
F000FF80000000007FF8000FFFFC0001FFFFC0007F80007FFF0000000000FFFF
310
F0000000000FFFF800000000000000007F80000000000001FFFF8000000000FF
310
FFFFFF8000000000FFFFFF0003FFFFFFFFFFC0000000007FF000FFC000000000
310
FFF8000FFFFE0001FFFFC0007F80007FFF8000000001FFFFF8000000001FFFF8
310
00000000000000007F80000000000001FFFFC000000001FFFFFFFFC000000001
310
FFFFFF0003FFFFFFFFFFE000000000FFF000FFE000000003FFF0001FFFFE0001
310
FFFFC0007F80007FFFC000000007FFFFFE000000003FFFF80000000000000000
310
7F80000000000001FFFFE000000003FFFFFFFFE000000003FFFFFF0003FFFFFF
310
FFFFF000000003FFF000FFF80000000FFFF0001FFFFE0001FFFFE0007F80007F
310
FFF00000000FFFFFFF00000000FFFFF800000000000000007F80000000000001
310
FFFFF80000000FFFFFFFFFF80000000FFFFFFF0003FFFFFFFFFFFC0000000FFF
310
F000FFFE0000003FFFF0001FFFFE0003FFFFE0003F80007FFFFC0000003FFFFF
310
FFC0000003FFFFF800000000000000007F80000000000001FFFFFE0000003FFF
310
FFFFFFFE0000003FFFFFFF0003FFFFFFFFFFFF0000003FFFF000FFFF800000FF
310
FFF0001FFFFF0003FFFFE0003F80007FFFFF000001FFFFFFFFF800001FFFFFF8
310
00000000000000007F80000000000001FFFFFFC00001FFFFFFFFFFFFC00001FF
310
FFFFFF0003FFFFFFFFFFFFC00000FFFFF000FFFFF8000FFFFFFFFFFFFFFFFFFF
310
FFFFFFFFFFFFFFFFFFFFF0001FFFFFFFFFFF0000FFFFFFF80000000000000000
310
7FFFFFFFFFFFFFFFFFFFFFFC001FFFFFFFFFFFFFFC001FFFFFFFFFFFFFFFFFFF
310
FFFFFFFC001FFFFFF000FFFFFFFFFFFFFFFFFFFFFFFFFFFFFFFFFFFFFFFFFFFF
310
FFFFFFFFFFFFFFFFFFFFFFFFFFFFFFFFFFFFFFFFFFFFFFFFFFFFFFFFFFFFFFFF
310
FFFFFFFFFFFFFFFFFFFFFFFFFFFFFFFFFFFFFFFFFFFFFFFFFFFFFFFFFFFFFFFF
310
F000FFFFFFFFFFFFFFFFFFFFFFFFFFFFFFFFFFFFFFFFFFFFFFFFFFFFFFFFFFFF
310
FFFFFFFFFFFFFFFFFFFFFFFFFFFFFFFFFFFFFFFFFFFFFFFFFFFFFFFFFFFFFFFF
310
FFFFFFFFFFFFFFFFFFFFFFFFFFFFFFFFFFFFFFFFFFFFFFFFF000FFFFFFFFFFFF
310
FFFFFFFFFFFFFFFFFFFFFFFFFFFFFFFFFFFFFFFFFFFFFFFFFFFFFFFFFFFFFFFF
310
FFFFFFFFFFFFFFFFFFFFFFFFFFFFFFFFFFFFFFFFFFFFFFFFFFFFFFFFFFFFFFFF
310
FFFFFFFFFFFFFFFFFFFFFFFFFFFFFFFFF000FFFFFFFFFFFFFFFFFFFFFFFFFFFF
310
FFFFFFFFFFFFFFFFFFFFFFFFFFFFFFFFFFFFFFFFFFFFFFFFFFFFFFFFFFFFFFFF
310
FFFFFFFFFFFFFFFFFFFFFFFFFFFFFFFFFFFFFFFFFFFFFFFFFFFFFFFFFFFFFFFF
310
FFFFFFFFFFFFFFFFF000FFFFFFFFFFFFFFFFFFFFFFFFFFFFFFFFFFFFFFFFFFFF
310
FFFFFFFFFFFFFFFFFFFFFFFFFFFFFFFFFFFFFFFFFFFFFFFFFFFFFFFFFFFFFFFF
310
FFFFFFFFFFFFFFFFFFFFFFFFFFFFFFFFFFFFFFFFFFFFFFFFFFFFFFFFFFFFFFFF
310
F000FFFFFFFFFFFFFFFFFFFFFFFFFFFFFFFFFFFFFFFFFFFFFFFFFFFFFFFFFFFF
310
FFFFFFFFFFFFFFFFFFFFFFFFFFFFFFFFFFFFFFFFFFFFFFFFFFFFFFFFFFFFFFFF
310
FFFFFFFFFFFFFFFFFFFFFFFFFFFFFFFFFFFFFFFFFFFFFFFFF000FFFFFFFFFFFF
310
FFFFFFFFFFFFFFFFFFFFFFFFFFFFFFFFFFFFFFFFFFFFFFFFFFFFFFFFFFFFFFFF
310
FFFFFFFFFFFFFFFFFFFFFFFFFFFFFFFFFFFFFFFFFFFFFFFFFFFFFFFFFFFFFFFF
310
FFFFFFFFFFFFFFFFFFFFFFFFFFFFFFFFF000FFFFFFFFFFFFFFFFFFFFFFFFFFFF
310
FFFFFFFFFFFFFFFFFFFFFFFFFFFFFFFFFFFFFFFFFFFFFFFFFFFFFFFFFFFFFFFF
310
FFFFFFFFFFFFFFFFFFFFFFFFFFFFFFFFFFFFFFFFFFFFFFFFFFFFFFFFFFFFFFFF
310
FFFFFFFFFFFFFFFFF000FFFFFFFFFFFFFFFFFFFFFFFFFFFFFFFFFFFFFFFFFFFF
310
FFFFFFFFFFFFFFFFFFFFFFFFFFFFFFFFFFFFFFFFFFFFFFFFFFFFFFFFFFFFFFFF
310
FFFFFFFFFFFFFFFFFFFFFFFFFFFFFFFFFFFFFFFFFFFFFFFFFFFFFFFFFFFFFFFF
310
F000FFFFFFFFFFFFFFFFFFFFFFFFFFFFFFFFFFFFFFFFFFFFFFFFFFFFFFFFFFFF
310
FFFFFFFFFFFFFFFFFFFFFFFFFFFFFFFFFFFFFFFFFFFFFFFFFFFFFFFFFFFFFFFF
310
FFFFFFFFFFFFFFFFFFFFFFFFFFFFFFFFFFFFFFFFFFFFFFFFF000FFFFFFFFFFFF
310
FFFFFFFFFFFFFFFFFFFFFFFFFFFFFFFFFFFFFFFFFFFFFFFFFFFFFFFFFFFFFFFF
310
FFFFFFFFFFFFFFFFFFFFFFFFFFFFFFFFFFFFFFFFFFFFFFFFFFFFFFFFFFFFFFFF
310
FFFFFFFFFFFFFFFFFFFFFFFFFFFFFFFFF000FFFFFFFFFFFFFFFFFFFFFFFFFFFF
310
FFFFFFFFFFFFFFFFFFFFFFFFFFFFFFFFFFFFFFFFFFFFFFFFFFFFFFFFFFFFFFFF
310
FFFFFFFFFFFFFFFFFFFFFFFFFFFFFFFFFFFFFFFFFFFFFFFFFFFFFFFFFFFFFFFF
310
FFFFFFFFFFFFFFFFF000FFFFFFFFFFFFFFFFFFFFFFFFFFFFFFFFFFFFFFFFFFFF
310
FFFFFFFFFFFFFFFFFFFFFFFFFFFFFFFFFFFFFFFFFFFFFFFFFFFFFFFFFFFFFFFF
310
FFFFFFFFFFFFFFFFFFFFFFFFFFFFFFFFFFFFFFFFFFFFFFFFFFFFFFFFFFFFFFFF
310
F000FFFFFFFFFFFFFFFFFFFFFFFFFFFFFFFFFFFFFFFFFFFFFFFFFFFFFFFFFFFF
310
FFFFFFFFFFFFFFFFFFFFFFFFFFFFFFFFFFFFFFFFFFFFFFFFFFFFFFFFFFFFFFFF
310
FFFFFFFFFFFFFFFFFFFFFFFFFFFFFFFFFFFFFFFFFFFFFFFFF000FFFFFFFFFFFF
310
FFFFFFFFFFFFFFFFFFFFFFFFFFFFFFFFFFFFFFFFFFFFFFFFFFFFFFFFFFFFFFFF
310
FFFFFFFFFFFFFFFFFFFFFFFFFFFFFFFFFFFFFFFFFFFFFFFFFFFFFFFFFFFFFFFF
310
FFFFFFFFFFFFFFFFFFFFFFFFFFFFFFFFF000FFFFFFFFFFFFFFFFFFFFFFFFFFFF
310
FFFFFFFFFFFFFFFFFFFFFFFFFFFFFFFFFFFFFFFFFFFFFFFFFFFFFFFFFFFFFFFF
310
FFFFFFFFFFFFFFFFFFFFFFFFFFFFFFFFFFFFFFFFFFFFFFFFFFFFFFFFFFFFFFFF
310
FFFFFFFFFFFFFFFFF000FFFFFFFFFFFFFFFFFFFFFFFFFFFFFFFFFFFFFFFFFFFF
310
FFFFFFFFFFFFFFFFFFFFFFFFFFFFFFFFFFFFFFFFFFFFFFFFFFFFFFFFFFFFFFFF
310
FFFFFFFFFFFFFFFFFFFFFFFFFFFFFFFFFFFFFFFFFFFFFFFFFFFFFFFFFFFFFFFF
310
F000FFFFFFFFFFFFFFFFFFFFFFFFFFFFFFFFFFFFFFFFFFFFFFFFFFFFFFFFFFFF
310
FFFFFFFFFFFFFFFFFFFFFFFFFFFFFFFFFFFFFFFFFFFFFFFFFFFFFFFFFFFFFFFF
310
FFFFFFFFFFFFFFFFFFFFFFFFFFFFFFFFFFFFFFFFFFFFFFFFF000FFFFFFFFFFFF
310
FFFFFFFFFFFFFFFFFFFFFFFFFFFFFFFFFFFFFFFFFFFFFFFFFFFFFFFFFFFFFFFF
310
FFFFFFFFFFFFFFFFFFFFFFFFFFFFFFFFFFFFFFFFFFFFFFFFFFFFFFFFFFFFFFFF
310
FFFFFFFFFFFFFFFFFFFFFFFFFFFFFFFFF000FFFFFFFFFFFFFFFFFFFFFFFFFFFF
310
FFFFFFFFFFFFFFFFFFFFFFFFFFFFFFFFFFFFFFFFFFFFFFFFFFFFFFFFFFFFFFFF
310
FFFFFFFFFFFFFFFFFFFFFFFFFFFFFFFFFFFFFFFFFFFFFFFFFFFFFFFFFFFFFFFF
310
FFFFFFFFFFFFFFFFF000FFFFFFFFFFFFFFFFFFFFFFFFFFFFFFFFFFFFFFFFFFFF
310
FFFFFFFFFFFFFFFFFFFFFFFFFFFFFFFFFFFFFFFFFFFFFFFFFFFFFFFFFFFFFFFF
310
FFFFFFFFFFFFFFFFFFFFFFFFFFFFFFFFFFFFFFFFFFFFFFFFFFFFFFFFFFFFFFFF
310
F000FFFFFFFFFFFFFFFFFFFFFFFFFFFFFFFFFFFFFFFFFFFFFFFFFFFFFFFFFFFF
310
FFFFFFFFFFFFFFFFFFFFFFFFFFFFFFFFFFFFFFFFFFFFFFFFFFFFFFFFFFFFFFFF
310
FFFFFFFFFFFFFFFFFFFFFFFFFFFFFFFFFFFFFFFFFFFFFFFFF000FFFFFFFFFFFF
310
FFFFFFFFFFFFFFFFFFFFFFFFFFFFFFFFFFFFFFFFFFFFFFFFFFFFFFFFFFFFFFFF
310
FFFFFFFFFFFFFFFFFFFFFFFFFFFFFFFFFFFFFFFFFFFFFFFFFFFFFFFFFFFFFFFF
310
FFFFFFFFFFFFFFFFFFFFFFFFFFFFFFFFF0000000000000000000000000000000
310
0000000000000000000000000000000000000000000000000000000000000000
310
0000000000000000000000000000000000000000000000000000000000000000
310
0000000000000000000000000000000000000000000000000000000000000000
310
0000000000000000000000000000000000000000000000000000000000000000
310
0000000000000000000000000000000000000000000000000000000000000000
310
0000000000000000000000000000000000000000000000000000000000000000
310
0000000000000000000000000000000000000000000000000000000000000000
310
0000000000000000000000000000000000000000000000000000000000000000
310
0000000000000000000000000000000000000000000000000000000000000000
310
0000000000000000000000000000000000000000000000000000000000000000
310
0000000000000000000000000000000000000000000000000000000000000000
310
0000000000000000000000000000000000000000000000000000000000000000
310
0000000000000000000000000000000000000000000000000000000000000000
310
0000000000000000000000000000000000000000000000000000000000000000
310
0000000000000000000000000000000000000000000000000000000000000000
  1
OLE
  0
ENDSEC
  0
SECTION
  2
OBJECTS
  0
DICTIONARY
  5
C
330
0
100
AcDbDictionary
281
     1
  3
ACAD_GROUP
350
D
  3
ACAD_LAYOUT
350
1A
  3
ACAD_MLINESTYLE
350
17
  3
ACAD_PLOTSETTINGS
350
19
  3
ACAD_PLOTSTYLENAME
350
E
  3
ACAD_SCALELIST
350
47
  0
DICTIONARY
  5
D
102
{ACAD_REACTORS
330
C
102
}
330
C
100
AcDbDictionary
281
     1
  0
DICTIONARY
  5
1A
102
{ACAD_REACTORS
330
C
102
}
330
C
100
AcDbDictionary
281
     1
  3
Layout1
350
1E
  3
Layout2
350
26
  3
Model
350
22
  0
DICTIONARY
  5
17
102
{ACAD_REACTORS
330
C
102
}
330
C
100
AcDbDictionary
281
     1
  3
Standard
350
18
  0
DICTIONARY
  5
19
102
{ACAD_REACTORS
330
C
102
}
330
C
100
AcDbDictionary
281
     1
  0
ACDBDICTIONARYWDFLT
  5
E
102
{ACAD_REACTORS
330
C
102
}
330
C
100
AcDbDictionary
281
     1
  3
Normal
350
F
100
AcDbDictionaryWithDefault
340
F
  0
DICTIONARY
  5
47
102
{ACAD_REACTORS
330
C
102
}
330
C
100
AcDbDictionary
281
     1
  3
A0
350
48
  3
A1
350
49
  3
A2
350
4A
  3
A3
350
4B
  3
A4
350
4C
  3
A5
350
4D
  3
A6
350
4E
  3
A7
350
4F
  3
A8
350
50
  3
A9
350
51
  3
B0
350
52
  3
B1
350
53
  3
B2
350
54
  3
B3
350
55
  3
B4
350
56
  3
B5
350
57
  3
B6
350
58
  3
B7
350
59
  3
B8
350
5A
  3
B9
350
5B
  3
C0
350
5C
  3
C1
350
5D
  3
C2
350
5E
  3
C3
350
5F
  3
C4
350
60
  3
C5
350
61
  3
C6
350
62
  3
C7
350
63
  3
C8
350
64
  3
C9
350
65
  3
D0
350
66
  3
D1
350
67
  3
D2
350
68
  0
LAYOUT
  5
1E
102
{ACAD_REACTORS
330
1A
102
}
330
1A
100
AcDbPlotSettings
  1

  2
none_device
  4

  6

 40
0.0
 41
0.0
 42
0.0
 43
0.0
 44
0.0
 45
0.0
 46
0.0
 47
0.0
 48
0.0
 49
0.0
140
0.0
141
0.0
142
1.0
143
1.0
 70
   688
 72
     1
 73
     0
 74
     5
  7

 75
    16
147
1.0
148
0.0
149
0.0
100
AcDbLayout
  1
Layout1
 70
     1
 71
     1
 10
0.0
 20
0.0
 11
420.0
 21
297.0
 12
0.0
 22
0.0
 32
0.0
 14
1.0000000000E+20
 24
1.0000000000E+20
 34
1.0000000000E+20
 15
-1.0000000000E+20
 25
-1.0000000000E+20
 35
-1.0000000000E+20
146
0.0
 13
0.0
 23
0.0
 33
0.0
 16
1.0
 26
0.0
 36
0.0
 17
0.0
 27
1.0
 37
0.0
 76
     0
330
1B
  0
LAYOUT
  5
26
102
{ACAD_REACTORS
330
1A
102
}
330
1A
100
AcDbPlotSettings
  1

  2
none_device
  4

  6

 40
0.0
 41
0.0
 42
0.0
 43
0.0
 44
0.0
 45
0.0
 46
0.0
 47
0.0
 48
0.0
 49
0.0
140
0.0
141
0.0
142
1.0
143
1.0
 70
   688
 72
     1
 73
     0
 74
     5
  7

 75
    16
147
1.0
148
0.0
149
0.0
100
AcDbLayout
  1
Layout2
 70
     1
 71
     2
 10
0.0
 20
0.0
 11
0.0
 21
0.0
 12
0.0
 22
0.0
 32
0.0
 14
0.0
 24
0.0
 34
0.0
 15
0.0
 25
0.0
 35
0.0
146
0.0
 13
0.0
 23
0.0
 33
0.0
 16
1.0
 26
0.0
 36
0.0
 17
0.0
 27
1.0
 37
0.0
 76
     0
330
23
  0
LAYOUT
  5
22
102
{ACAD_REACTORS
330
1A
102
}
330
1A
100
AcDbPlotSettings
  1

  2
none_device
  4
Letter_(8.50_x_11.00_Inches)
  6

 40
6.35
 41
6.35
 42
6.35000508
 43
6.35000508
 44
215.9
 45
279.4
 46
0.0
 47
0.0
 48
0.0
 49
0.0
140
0.0
141
0.0
142
1.0
143
1.0
 70
  1712
 72
     1
 73
     0
 74
     0
  7

 75
     0
147
1.0
148
0.0
149
0.0
100
AcDbLayout
  1
Model
 70
     1
 71
     0
 10
0.0
 20
0.0
 11
297.0
 21
210.0
 12
0.0
 22
0.0
 32
0.0
 14
0.0
 24
0.0
 34
0.0
 15
297.0
 25
210.0
 35
0.0
146
0.0
 13
0.0
 23
0.0
 33
0.0
 16
1.0
 26
0.0
 36
0.0
 17
0.0
 27
1.0
 37
0.0
 76
     0
330
1F
331
29
  0
MLINESTYLE
  5
18
102
{ACAD_REACTORS
330
17
102
}
330
17
100
AcDbMlineStyle
  2
Standard
 70
     0
  3

 62
   256
 51
90.0
 52
90.0
 71
     2
 49
0.5
 62
   256
  6
BYLAYER
 49
-0.5
 62
   256
  6
BYLAYER
  0
ACDBPLACEHOLDER
  5
F
102
{ACAD_REACTORS
330
E
102
}
330
E
  0
SCALE
  5
48
102
{ACAD_REACTORS
330
47
102
}
330
47
100
AcDbScale
 70
     0
300
1:1
140
1.0
141
1.0
290
     1
  0
SCALE
  5
49
102
{ACAD_REACTORS
330
47
102
}
330
47
100
AcDbScale
 70
     0
300
1:2
140
1.0
141
2.0
290
     0
  0
SCALE
  5
4A
102
{ACAD_REACTORS
330
47
102
}
330
47
100
AcDbScale
 70
     0
300
1:4
140
1.0
141
4.0
290
     0
  0
SCALE
  5
4B
102
{ACAD_REACTORS
330
47
102
}
330
47
100
AcDbScale
 70
     0
300
1:5
140
1.0
141
5.0
290
     0
  0
SCALE
  5
4C
102
{ACAD_REACTORS
330
47
102
}
330
47
100
AcDbScale
 70
     0
300
1:8
140
1.0
141
8.0
290
     0
  0
SCALE
  5
4D
102
{ACAD_REACTORS
330
47
102
}
330
47
100
AcDbScale
 70
     0
300
1:10
140
1.0
141
10.0
290
     0
  0
SCALE
  5
4E
102
{ACAD_REACTORS
330
47
102
}
330
47
100
AcDbScale
 70
     0
300
1:16
140
1.0
141
16.0
290
     0
  0
SCALE
  5
4F
102
{ACAD_REACTORS
330
47
102
}
330
47
100
AcDbScale
 70
     0
300
1:20
140
1.0
141
20.0
290
     0
  0
SCALE
  5
50
102
{ACAD_REACTORS
330
47
102
}
330
47
100
AcDbScale
 70
     0
300
1:30
140
1.0
141
30.0
290
     0
  0
SCALE
  5
51
102
{ACAD_REACTORS
330
47
102
}
330
47
100
AcDbScale
 70
     0
300
1:40
140
1.0
141
40.0
290
     0
  0
SCALE
  5
52
102
{ACAD_REACTORS
330
47
102
}
330
47
100
AcDbScale
 70
     0
300
1:50
140
1.0
141
50.0
290
     0
  0
SCALE
  5
53
102
{ACAD_REACTORS
330
47
102
}
330
47
100
AcDbScale
 70
     0
300
1:100
140
1.0
141
100.0
290
     0
  0
SCALE
  5
54
102
{ACAD_REACTORS
330
47
102
}
330
47
100
AcDbScale
 70
     0
300
2:1
140
2.0
141
1.0
290
     0
  0
SCALE
  5
55
102
{ACAD_REACTORS
330
47
102
}
330
47
100
AcDbScale
 70
     0
300
4:1
140
4.0
141
1.0
290
     0
  0
SCALE
  5
56
102
{ACAD_REACTORS
330
47
102
}
330
47
100
AcDbScale
 70
     0
300
8:1
140
8.0
141
1.0
290
     0
  0
SCALE
  5
57
102
{ACAD_REACTORS
330
47
102
}
330
47
100
AcDbScale
 70
     0
300
10:1
140
10.0
141
1.0
290
     0
  0
SCALE
  5
58
102
{ACAD_REACTORS
330
47
102
}
330
47
100
AcDbScale
 70
     0
300
100:1
140
100.0
141
1.0
290
     0
  0
SCALE
  5
59
102
{ACAD_REACTORS
330
47
102
}
330
47
100
AcDbScale
 70
     0
300
1/128" = 1'-0"
140
0.0078125
141
12.0
290
     0
  0
SCALE
  5
5A
102
{ACAD_REACTORS
330
47
102
}
330
47
100
AcDbScale
 70
     0
300
1/64" = 1'-0"
140
0.015625
141
12.0
290
     0
  0
SCALE
  5
5B
102
{ACAD_REACTORS
330
47
102
}
330
47
100
AcDbScale
 70
     0
300
1/32" = 1'-0"
140
0.03125
141
12.0
290
     0
  0
SCALE
  5
5C
102
{ACAD_REACTORS
330
47
102
}
330
47
100
AcDbScale
 70
     0
300
1/16" = 1'-0"
140
0.0625
141
12.0
290
     0
  0
SCALE
  5
5D
102
{ACAD_REACTORS
330
47
102
}
330
47
100
AcDbScale
 70
     0
300
3/32" = 1'-0"
140
0.09375
141
12.0
290
     0
  0
SCALE
  5
5E
102
{ACAD_REACTORS
330
47
102
}
330
47
100
AcDbScale
 70
     0
300
1/8" = 1'-0"
140
0.125
141
12.0
290
     0
  0
SCALE
  5
5F
102
{ACAD_REACTORS
330
47
102
}
330
47
100
AcDbScale
 70
     0
300
3/16" = 1'-0"
140
0.1875
141
12.0
290
     0
  0
SCALE
  5
60
102
{ACAD_REACTORS
330
47
102
}
330
47
100
AcDbScale
 70
     0
300
1/4" = 1'-0"
140
0.25
141
12.0
290
     0
  0
SCALE
  5
61
102
{ACAD_REACTORS
330
47
102
}
330
47
100
AcDbScale
 70
     0
300
3/8" = 1'-0"
140
0.375
141
12.0
290
     0
  0
SCALE
  5
62
102
{ACAD_REACTORS
330
47
102
}
330
47
100
AcDbScale
 70
     0
300
1/2" = 1'-0"
140
0.5
141
12.0
290
     0
  0
SCALE
  5
63
102
{ACAD_REACTORS
330
47
102
}
330
47
100
AcDbScale
 70
     0
300
3/4" = 1'-0"
140
0.75
141
12.0
290
     0
  0
SCALE
  5
64
102
{ACAD_REACTORS
330
47
102
}
330
47
100
AcDbScale
 70
     0
300
1" = 1'-0"
140
1.0
141
12.0
290
     0
  0
SCALE
  5
65
102
{ACAD_REACTORS
330
47
102
}
330
47
100
AcDbScale
 70
     0
300
1-1/2" = 1'-0"
140
1.5
141
12.0
290
     0
  0
SCALE
  5
66
102
{ACAD_REACTORS
330
47
102
}
330
47
100
AcDbScale
 70
     0
300
3" = 1'-0"
140
3.0
141
12.0
290
     0
  0
SCALE
  5
67
102
{ACAD_REACTORS
330
47
102
}
330
47
100
AcDbScale
 70
     0
300
6" = 1'-0"
140
6.0
141
12.0
290
     0
  0
SCALE
  5
68
102
{ACAD_REACTORS
330
47
102
}
330
47
100
AcDbScale
 70
     0
300
1'-0" = 1'-0"
140
12.0
141
12.0
290
     0
  0
ENDSEC
  0
EOF
