  0
SECTION
  2
HEADER
  9
$ACADVER
  1
AC1015
  9
$ACADMAINTVER
 70
    13
  9
$DWGCODEPAGE
  3
ANSI_1252
  9
$INSBASE
 10
0.0
 20
0.0
 30
0.0
  9
$EXTMIN
 10
-52.30101819917411
 20
-66.1293169938134
 30
-0.0000000000000058
  9
$EXTMAX
 10
58.50770632344347
 20
42.08142422429022
 30
0.0000000000000104
  9
$LIMMIN
 10
0.0
 20
0.0
  9
$LIMMAX
 10
420.0
 20
297.0
  9
$ORTHOMODE
 70
     0
  9
$REGENMODE
 70
     1
  9
$FILLMODE
 70
     1
  9
$QTEXTMODE
 70
     0
  9
$MIRRTEXT
 70
     1
  9
$LTSCALE
 40
1.0
  9
$ATTMODE
 70
     1
  9
$TEXTSIZE
 40
2.5
  9
$TRACEWID
 40
1.0
  9
$TEXTSTYLE
  7
STANDARD
  9
$CLAYER
  8
0
  9
$CELTYPE
  6
ByLayer
  9
$CECOLOR
 62
   256
  9
$CELTSCALE
 40
1.0
  9
$DISPSILH
 70
     0
  9
$DIMSCALE
 40
1.0
  9
$DIMASZ
 40
3.0
  9
$DIMEXO
 40
0.0
  9
$DIMDLI
 40
3.75
  9
$DIMRND
 40
0.0
  9
$DIMDLE
 40
0.0
  9
$DIMEXE
 40
1.0
  9
$DIMTP
 40
0.0
  9
$DIMTM
 40
0.0
  9
$DIMTXT
 40
2.0
  9
$DIMCEN
 40
2.5
  9
$DIMTSZ
 40
0.0
  9
$DIMTOL
 70
     0
  9
$DIMLIM
 70
     0
  9
$DIMTIH
 70
     1
  9
$DIMTOH
 70
     1
  9
$DIMSE1
 70
     0
  9
$DIMSE2
 70
     0
  9
$DIMTAD
 70
     1
  9
$DIMZIN
 70
     0
  9
$DIMBLK
  1

  9
$DIMASO
 70
     1
  9
$DIMSHO
 70
     1
  9
$DIMPOST
  1

  9
$DIMAPOST
  1

  9
$DIMALT
 70
     0
  9
$DIMALTD
 70
     3
  9
$DIMALTF
 40
0.0394
  9
$DIMLFAC
 40
1.0
  9
$DIMTOFL
 70
     1
  9
$DIMTVP
 40
0.0
  9
$DIMTIX
 70
     0
  9
$DIMSOXD
 70
     0
  9
$DIMSAH
 70
     0
  9
$DIMBLK1
  1

  9
$DIMBLK2
  1

  9
$DIMSTYLE
  2
ISO-25
  9
$DIMCLRD
 70
     0
  9
$DIMCLRE
 70
     0
  9
$DIMCLRT
 70
     0
  9
$DIMTFAC
 40
1.0
  9
$DIMGAP
 40
1.524
  9
$DIMJUST
 70
     0
  9
$DIMSD1
 70
     0
  9
$DIMSD2
 70
     0
  9
$DIMTOLJ
 70
     0
  9
$DIMTZIN
 70
     0
  9
$DIMALTZ
 70
     0
  9
$DIMALTTZ
 70
     0
  9
$DIMUPT
 70
     0
  9
$DIMDEC
 70
     2
  9
$DIMTDEC
 70
     2
  9
$DIMALTU
 70
     2
  9
$DIMALTTD
 70
     3
  9
$DIMTXSTY
  7
STANDARD
  9
$DIMAUNIT
 70
     0
  9
$DIMADEC
 70
     0
  9
$DIMALTRND
 40
0.0
  9
$DIMAZIN
 70
     0
  9
$DIMDSEP
 70
    44
  9
$DIMATFIT
 70
     3
  9
$DIMFRAC
 70
     0
  9
$DIMLDRBLK
  1

  9
$DIMLUNIT
 70
     2
  9
$DIMLWD
 70
    -2
  9
$DIMLWE
 70
    -2
  9
$DIMTMOVE
 70
     0
  9
$LUNITS
 70
     2
  9
$LUPREC
 70
     2
  9
$SKETCHINC
 40
1.0
  9
$FILLETRAD
 40
10.0
  9
$AUNITS
 70
     0
  9
$AUPREC
 70
     0
  9
$MENU
  1
.
  9
$ELEVATION
 40
0.0
  9
$PELEVATION
 40
0.0
  9
$THICKNESS
 40
0.0
  9
$LIMCHECK
 70
     0
  9
$CHAMFERA
 40
10.0
  9
$CHAMFERB
 40
10.0
  9
$CHAMFERC
 40
20.0
  9
$CHAMFERD
 40
0.0
  9
$SKPOLY
 70
     0
  9
$TDCREATE
 40
2454392.400997454
  9
$TDUCREATE
 40
2454392.317664120
  9
$TDUPDATE
 40
2454651.573097998
  9
$TDUUPDATE
 40
2454651.489764664
  9
$TDINDWG
 40
0.1585912500
  9
$TDUSRTIMER
 40
0.1585912500
  9
$USRTIMER
 70
     1
  9
$ANGBASE
 50
0.0
  9
$ANGDIR
 70
     0
  9
$PDMODE
 70
     0
  9
$PDSIZE
 40
-1.0
  9
$PLINEWID
 40
0.0
  9
$SPLFRAME
 70
     0
  9
$SPLINETYPE
 70
     6
  9
$SPLINESEGS
 70
     8
  9
$HANDSEED
  5
1FF4
  9
$SURFTAB1
 70
     6
  9
$SURFTAB2
 70
     6
  9
$SURFTYPE
 70
     6
  9
$SURFU
 70
     6
  9
$SURFV
 70
     6
  9
$UCSBASE
  2

  9
$UCSNAME
  2

  9
$UCSORG
 10
0.0
 20
0.0
 30
0.0
  9
$UCSXDIR
 10
1.0
 20
0.0
 30
0.0
  9
$UCSYDIR
 10
0.0
 20
1.0
 30
0.0
  9
$UCSORTHOREF
  2

  9
$UCSORTHOVIEW
 70
     0
  9
$UCSORGTOP
 10
0.0
 20
0.0
 30
0.0
  9
$UCSORGBOTTOM
 10
0.0
 20
0.0
 30
0.0
  9
$UCSORGLEFT
 10
0.0
 20
0.0
 30
0.0
  9
$UCSORGRIGHT
 10
0.0
 20
0.0
 30
0.0
  9
$UCSORGFRONT
 10
0.0
 20
0.0
 30
0.0
  9
$UCSORGBACK
 10
0.0
 20
0.0
 30
0.0
  9
$PUCSBASE
  2

  9
$PUCSNAME
  2

  9
$PUCSORG
 10
0.0
 20
0.0
 30
0.0
  9
$PUCSXDIR
 10
1.0
 20
0.0
 30
0.0
  9
$PUCSYDIR
 10
0.0
 20
1.0
 30
0.0
  9
$PUCSORTHOREF
  2

  9
$PUCSORTHOVIEW
 70
     0
  9
$PUCSORGTOP
 10
0.0
 20
0.0
 30
0.0
  9
$PUCSORGBOTTOM
 10
0.0
 20
0.0
 30
0.0
  9
$PUCSORGLEFT
 10
0.0
 20
0.0
 30
0.0
  9
$PUCSORGRIGHT
 10
0.0
 20
0.0
 30
0.0
  9
$PUCSORGFRONT
 10
0.0
 20
0.0
 30
0.0
  9
$PUCSORGBACK
 10
0.0
 20
0.0
 30
0.0
  9
$USERI1
 70
     0
  9
$USERI2
 70
     0
  9
$USERI3
 70
     0
  9
$USERI4
 70
     0
  9
$USERI5
 70
     0
  9
$USERR1
 40
0.0
  9
$USERR2
 40
0.0
  9
$USERR3
 40
0.0
  9
$USERR4
 40
0.0
  9
$USERR5
 40
0.0
  9
$WORLDVIEW
 70
     1
  9
$SHADEDGE
 70
     3
  9
$SHADEDIF
 70
    70
  9
$TILEMODE
 70
     1
  9
$MAXACTVP
 70
    64
  9
$PINSBASE
 10
0.0
 20
0.0
 30
0.0
  9
$PLIMCHECK
 70
     0
  9
$PEXTMIN
 10
1.000000000000000E+20
 20
1.000000000000000E+20
 30
1.000000000000000E+20
  9
$PEXTMAX
 10
-1.000000000000000E+20
 20
-1.000000000000000E+20
 30
-1.000000000000000E+20
  9
$PLIMMIN
 10
0.0
 20
0.0
  9
$PLIMMAX
 10
420.0
 20
297.0
  9
$UNITMODE
 70
     0
  9
$VISRETAIN
 70
     1
  9
$PLINEGEN
 70
     0
  9
$PSLTSCALE
 70
     1
  9
$TREEDEPTH
 70
  3020
  9
$CMLSTYLE
  2
Standard
  9
$CMLJUST
 70
     0
  9
$CMLSCALE
 40
20.0
  9
$PROXYGRAPHICS
 70
     1
  9
$MEASUREMENT
 70
     1
  9
$CELWEIGHT
370
    -1
  9
$ENDCAPS
280
     0
  9
$JOINSTYLE
280
     0
  9
$LWDISPLAY
290
     1
  9
$INSUNITS
 70
     4
  9
$HYPERLINKBASE
  1

  9
$STYLESHEET
  1

  9
$XEDIT
290
     1
  9
$CEPSNTYPE
380
     0
  9
$PSTYLEMODE
290
     1
  9
$FINGERPRINTGUID
  2
{6E43A73D-4D78-4529-AD28-A6E0BB347199}
  9
$VERSIONGUID
  2
{8C692266-47F3-4D19-9D88-EDE588F5C331}
  9
$EXTNAMES
290
     1
  9
$PSVPSCALE
 40
0.0
  9
$OLESTARTUP
290
     0
  0
ENDSEC
  0
SECTION
  2
CLASSES
  0
CLASS
  1
ACDBDICTIONARYWDFLT
  2
AcDbDictionaryWithDefault
  3
AutoCAD 2000
 90
        0
280
     0
281
     0
  0
CLASS
  1
ACDBPLACEHOLDER
  2
AcDbPlaceHolder
  3
AutoCAD 2000
 90
        0
280
     0
281
     0
  0
CLASS
  1
LAYOUT
  2
AcDbLayout
  3
AutoCAD 2000
 90
        0
280
     0
281
     0
  0
CLASS
  1
DICTIONARYVAR
  2
AcDbDictionaryVar
  3
AutoCAD 2000
 90
        0
280
     0
281
     0
  0
ENDSEC
  0
SECTION
  2
TABLES
  0
TABLE
  2
VPORT
  5
8
330
0
100
AcDbSymbolTable
 70
     3
  0
VPORT
  5
1FF3
330
8
100
AcDbSymbolTableRecord
100
AcDbViewportTableRecord
  2
*Active
 70
     0
 10
0.0
 20
0.0
 11
1.0
 21
1.0
 12
-100.2136687598653
 22
-90.66905665226158
 13
0.0
 23
0.0
 14
10.0
 24
10.0
 15
10.0
 25
10.0
 16
0.0
 26
0.0
 36
1.0
 17
103.317012822
 27
78.6451102675
 37
0.0
 40
109.0054345440627
 41
1.998774509803921
 42
50.0
 43
0.0
 44
0.0
 50
0.0
 51
0.0
 71
     0
 72
  2000
 73
     1
 74
     3
 75
     0
 76
     0
 77
     0
 78
     0
281
     0
 65
     1
110
0.0
120
0.0
130
0.0
111
1.0
121
0.0
131
0.0
112
0.0
122
1.0
132
0.0
 79
     0
146
0.0
  0
ENDTAB
  0
TABLE
  2
LTYPE
  5
5
330
0
100
AcDbSymbolTable
 70
    10
  0
LTYPE
  5
14
330
5
100
AcDbSymbolTableRecord
100
AcDbLinetypeTableRecord
  2
ByBlock
 70
     0
  3

 72
    65
 73
     0
 40
0.0
  0
LTYPE
  5
15
330
5
100
AcDbSymbolTableRecord
100
AcDbLinetypeTableRecord
  2
ByLayer
 70
     0
  3

 72
    65
 73
     0
 40
0.0
  0
LTYPE
  5
16
330
5
100
AcDbSymbolTableRecord
100
AcDbLinetypeTableRecord
  2
Continuous
 70
     0
  3
Solid line
 72
    65
 73
     0
 40
0.0
  0
LTYPE
  5
2A
330
5
100
AcDbSymbolTableRecord
100
AcDbLinetypeTableRecord
  2
SLD-Durchgehend
 70
     0
  3
SolidWorks Line Style
 72
    65
 73
     0
 40
0.0
  0
LTYPE
  5
2B
330
5
100
AcDbSymbolTableRecord
100
AcDbLinetypeTableRecord
  2
SLD-Gestrichelt
 70
     0
  3
SolidWorks Line Style
 72
    65
 73
     2
 40
1.905
 49
1.27
 74
     0
 49
-0.635
 74
     0
  0
LTYPE
  5
2C
330
5
100
AcDbSymbolTableRecord
100
AcDbLinetypeTableRecord
  2
SLD-Phantom
 70
     0
  3
SolidWorks Line Style
 72
    65
 73
     6
 40
12.7
 49
6.349999999999997
 74
     0
 49
-1.27
 74
     0
 49
1.27
 74
     0
 49
-1.27
 74
     0
 49
1.27
 74
     0
 49
-1.27
 74
     0
  0
LTYPE
  5
2D
330
5
100
AcDbSymbolTableRecord
100
AcDbLinetypeTableRecord
  2
SLD-Kette
 70
     0
  3
SolidWorks Line Style
 72
    65
 73
     4
 40
10.16
 49
6.349999999999997
 74
     0
 49
-1.27
 74
     0
 49
1.27
 74
     0
 49
-1.27
 74
     0
  0
LTYPE
  5
2E
330
5
100
AcDbSymbolTableRecord
100
AcDbLinetypeTableRecord
  2
SLD-Punktstrich
 70
     0
  3
SolidWorks Line Style
 72
    65
 73
     4
 40
19.05
 49
15.24
 74
     0
 49
-1.27
 74
     0
 49
1.27
 74
     0
 49
-1.27
 74
     0
  0
LTYPE
  5
2F
330
5
100
AcDbSymbolTableRecord
100
AcDbLinetypeTableRecord
  2
SLD-Naht
 70
     0
  3
SolidWorks Line Style
 72
    65
 73
     2
 40
0.635
 49
0.0
 74
     0
 49
-0.635
 74
     0
  0
LTYPE
  5
30
330
5
100
AcDbSymbolTableRecord
100
AcDbLinetypeTableRecord
  2
SLD-Dicke-Dünne-Kette
 70
     0
  3
SolidWorks Line Style
 72
    65
 73
     4
 40
10.16
 49
6.349999999999997
 74
     0
 49
-1.27
 74
     0
 49
1.27
 74
     0
 49
-1.27
 74
     0
  0
LTYPE
  5
65D
330
5
100
AcDbSymbolTableRecord
100
AcDbLinetypeTableRecord
  2
GEN3A
 70
     0
  3
 - - - - -
 72
    65
 73
     2
 40
3.1
 49
2.5
 74
     0
 49
-0.6
 74
     0
  0
LTYPE
  5
701
330
5
100
AcDbSymbolTableRecord
100
AcDbLinetypeTableRecord
  2
GEN7A
 70
     0
  3
__ . __ . __
 72
    65
 73
     4
 40
7.5
 49
5.0
 74
     0
 49
-1.25
 74
     0
 49
0.0
 74
     0
 49
-1.25
 74
     0
  0
ENDTAB
  0
TABLE
  2
LAYER
  5
2
102
{ACAD_XDICTIONARY
360
662
102
}
330
0
100
AcDbSymbolTable
 70
    15
  0
LAYER
  5
10
330
2
100
AcDbSymbolTableRecord
100
AcDbLayerTableRecord
  2
0
 70
     0
 62
     7
  6
Continuous
370
    -3
390
F
  0
LAYER
  5
31
330
2
100
AcDbSymbolTableRecord
100
AcDbLayerTableRecord
  2
FORMAT
 70
     0
 62
     7
  6
SLD-Durchgehend
370
     0
390
F
  0
LAYER
  5
32
330
2
100
AcDbSymbolTableRecord
100
AcDbLayerTableRecord
  2
VERMASSUNG
 70
     0
 62
     7
  6
SLD-Durchgehend
370
     0
390
F
  0
LAYER
  5
33
330
2
100
AcDbSymbolTableRecord
100
AcDbLayerTableRecord
  2
KOPF__DÜNN
 70
     0
 62
     7
  6
SLD-Durchgehend
370
     0
390
F
  0
LAYER
  5
34
330
2
100
AcDbSymbolTableRecord
100
AcDbLayerTableRecord
  2
KOPF__DICK
 70
     0
 62
     7
  6
SLD-Durchgehend
370
    15
390
F
  0
LAYER
  5
618
330
2
100
AcDbSymbolTableRecord
100
AcDbLayerTableRecord
  2
Defpoints
 70
     0
 62
     7
  6
Continuous
290
     0
370
    -3
390
F
  0
LAYER
  5
65E
330
2
100
AcDbSymbolTableRecord
100
AcDbLayerTableRecord
  2
SK1
 70
     0
 62
     4
  6
Continuous
370
    -3
390
F
  0
LAYER
  5
65F
330
2
100
AcDbSymbolTableRecord
100
AcDbLayerTableRecord
  2
SK3
 70
     0
 62
     1
  6
GEN3A
370
    -3
390
F
  0
LAYER
  5
6E2
330
2
100
AcDbSymbolTableRecord
100
AcDbLayerTableRecord
  2
1
 70
     0
 62
     4
  6
Continuous
370
    -3
390
F
  0
LAYER
  5
6E3
330
2
100
AcDbSymbolTableRecord
100
AcDbLayerTableRecord
  2
3
 70
     0
 62
     1
  6
GEN3A
370
    -3
390
F
  0
LAYER
  5
700
330
2
100
AcDbSymbolTableRecord
100
AcDbLayerTableRecord
  2
SK4
 70
     0
 62
     2
  6
GEN7A
370
    -3
390
F
  0
LAYER
  5
703
330
2
100
AcDbSymbolTableRecord
100
AcDbLayerTableRecord
  2
4
 70
     0
 62
     2
  6
GEN7A
370
    -3
390
F
  0
LAYER
  5
705
330
2
100
AcDbSymbolTableRecord
100
AcDbLayerTableRecord
  2
2
 70
     0
 62
     7
  6
Continuous
370
    -3
390
F
  0
LAYER
  5
73B
330
2
100
AcDbSymbolTableRecord
100
AcDbLayerTableRecord
  2
SK2
 70
     0
 62
     7
  6
Continuous
370
    -3
390
F
  0
LAYER
  5
75A
330
2
100
AcDbSymbolTableRecord
100
AcDbLayerTableRecord
  2
5
 70
     0
 62
     7
  6
Continuous
370
    -3
390
F
  0
ENDTAB
  0
TABLE
  2
STYLE
  5
3
330
0
100
AcDbSymbolTable
 70
     3
  0
STYLE
  5
11
330
3
100
AcDbSymbolTableRecord
100
AcDbTextStyleTableRecord
  2
STANDARD
 70
     0
 40
0.0
 41
1.0
 50
0.0
 71
     0
 42
2.5
  3
ISOCPEUR.TTF
  4

1001
ACAD
1000
ISOCPEUR
1071
       34
  0
STYLE
  5
35
330
3
100
AcDbSymbolTableRecord
100
AcDbTextStyleTableRecord
  2
SLDTEXTSTYLE0
 70
     0
 40
0.0
 41
1.0
 50
0.0
 71
     0
 42
0.2
  3
ISOCPEUR.TTF
  4

1001
ACAD
1000
ISOCPEUR
1071
       34
  0
STYLE
  5
660
330
3
100
AcDbSymbolTableRecord
100
AcDbTextStyleTableRecord
  2
GENPRESET
 70
     0
 40
0.0
 41
1.0
 50
0.0
 71
     0
 42
3.5
  3
simplex.shx
  4

  0
ENDTAB
  0
TABLE
  2
VIEW
  5
6
330
0
100
AcDbSymbolTable
 70
     0
  0
ENDTAB
  0
TABLE
  2
UCS
  5
7
330
0
100
AcDbSymbolTable
 70
     0
  0
ENDTAB
  0
TABLE
  2
APPID
  5
9
330
0
100
AcDbSymbolTable
 70
     1
  0
APPID
  5
12
330
9
100
AcDbSymbolTableRecord
100
AcDbRegAppTableRecord
  2
ACAD
 70
     0
  0
ENDTAB
  0
TABLE
  2
DIMSTYLE
  5
A
330
0
100
AcDbSymbolTable
 70
     5
100
AcDbDimStyleTable
 71
     1
340
661
  0
DIMSTYLE
105
27
330
A
100
AcDbSymbolTableRecord
100
AcDbDimStyleTableRecord
  2
ISO-25
 70
     0
 41
2.5
 42
0.625
 43
3.75
 44
1.25
 73
     0
 74
     0
 77
     1
 78
     8
140
2.5
141
2.5
143
0.0393700787
147
0.625
171
     3
172
     1
271
     2
272
     2
274
     3
278
    44
283
     0
284
     8
340
11
  0
DIMSTYLE
105
626
102
{ACAD_REACTORS
330
7A0
330
7A3
330
7AC
102
}
330
A
100
AcDbSymbolTableRecord
100
AcDbDimStyleTableRecord
  2
SLDDIMSTYLE0
 70
     0
 41
3.0
 44
0.0
 73
     0
 74
     0
 77
     2
 78
    12
140
2.0
147
0.5
173
     1
271
     2
272
     3
284
    12
340
35
  0
DIMSTYLE
105
661
102
{ACAD_REACTORS
330
1D19
330
1CFF
102
}
330
A
100
AcDbSymbolTableRecord
100
AcDbDimStyleTableRecord
  2
GEN-ISO_TDM
 70
     0
 41
4.57
 42
0.0
 43
2.299999999999998
 44
2.5
 47
0.1
 48
0.1
 73
     0
 74
     0
 77
     1
 78
     8
140
4.57
141
2.0
146
0.7
147
1.5
172
     1
178
     7
179
     1
271
     2
272
     2
284
     8
285
     8
286
     8
340
660
  0
DIMSTYLE
105
FC0
330
A
100
AcDbSymbolTableRecord
100
AcDbDimStyleTableRecord
  2
SLDDIMSTYLE1
 70
     0
 41
3.0
 44
0.0
 45
0.000000001
 73
     0
 74
     0
 77
     1
 78
    12
140
2.0
147
0.5
173
     1
271
     2
272
     3
284
    12
340
35
  0
DIMSTYLE
105
FC1
330
A
100
AcDbSymbolTableRecord
100
AcDbDimStyleTableRecord
  2
SLDDIMSTYLE2
 70
     0
 41
3.0
 44
0.0
 45
0.000000001
 73
     0
 74
     0
 77
     1
 78
    12
140
2.0
147
0.5
173
     1
271
     2
272
     3
284
    12
340
35
  0
ENDTAB
  0
TABLE
  2
BLOCK_RECORD
  5
1
330
0
100
AcDbSymbolTable
 70
    29
  0
BLOCK_RECORD
  5
1F
330
1
100
AcDbSymbolTableRecord
100
AcDbBlockTableRecord
  2
*Model_Space
340
22
  0
BLOCK_RECORD
  5
1B
330
1
100
AcDbSymbolTableRecord
100
AcDbBlockTableRecord
  2
*Paper_Space
340
1E
  0
BLOCK_RECORD
  5
23
330
1
100
AcDbSymbolTableRecord
100
AcDbBlockTableRecord
  2
*Paper_Space0
340
26
  0
BLOCK_RECORD
  5
619
330
1
100
AcDbSymbolTableRecord
100
AcDbBlockTableRecord
  2
*D1
340
0
  0
BLOCK_RECORD
  5
630
330
1
100
AcDbSymbolTableRecord
100
AcDbBlockTableRecord
  2
*D2
340
0
  0
BLOCK_RECORD
  5
643
330
1
100
AcDbSymbolTableRecord
100
AcDbBlockTableRecord
  2
*D3
340
0
  0
BLOCK_RECORD
  5
664
330
1
100
AcDbSymbolTableRecord
100
AcDbBlockTableRecord
  2
A$C38E809AF
340
0
102
{BLKREFS
331
6B1
102
}
  0
BLOCK_RECORD
  5
782
330
1
100
AcDbSymbolTableRecord
100
AcDbBlockTableRecord
  2
*D5
340
0
  0
BLOCK_RECORD
  5
78D
330
1
100
AcDbSymbolTableRecord
100
AcDbBlockTableRecord
  2
*D6
340
0
  0
BLOCK_RECORD
  5
796
330
1
100
AcDbSymbolTableRecord
100
AcDbBlockTableRecord
  2
*D7
340
0
  0
BLOCK_RECORD
  5
79F
330
1
100
AcDbSymbolTableRecord
100
AcDbBlockTableRecord
  2
A$C0C8E0696
340
0
  0
BLOCK_RECORD
  5
9FA
330
1
100
AcDbSymbolTableRecord
100
AcDbBlockTableRecord
  2
A$C2F26163D
340
0
  0
BLOCK_RECORD
  5
A2F
330
1
100
AcDbSymbolTableRecord
100
AcDbBlockTableRecord
  2
*D10
340
0
  0
BLOCK_RECORD
  5
A3A
330
1
100
AcDbSymbolTableRecord
100
AcDbBlockTableRecord
  2
*D11
340
0
  0
BLOCK_RECORD
  5
A43
330
1
100
AcDbSymbolTableRecord
100
AcDbBlockTableRecord
  2
*D12
340
0
  0
BLOCK_RECORD
  5
EBE
330
1
100
AcDbSymbolTableRecord
100
AcDbBlockTableRecord
  2
*D13
340
0
  0
BLOCK_RECORD
  5
ECA
330
1
100
AcDbSymbolTableRecord
100
AcDbBlockTableRecord
  2
*D14
340
0
  0
BLOCK_RECORD
  5
ED6
330
1
100
AcDbSymbolTableRecord
100
AcDbBlockTableRecord
  2
*D15
340
0
  0
BLOCK_RECORD
  5
EFD
330
1
100
AcDbSymbolTableRecord
100
AcDbBlockTableRecord
  2
A$C234B32A7
340
0
102
{BLKREFS
331
F3A
102
}
  0
BLOCK_RECORD
  5
FA1
330
1
100
AcDbSymbolTableRecord
100
AcDbBlockTableRecord
  2
*D17
340
0
  0
BLOCK_RECORD
  5
FAC
330
1
100
AcDbSymbolTableRecord
100
AcDbBlockTableRecord
  2
*D18
340
0
  0
BLOCK_RECORD
  5
FB5
330
1
100
AcDbSymbolTableRecord
100
AcDbBlockTableRecord
  2
*D19
340
0
  0
BLOCK_RECORD
  5
149E
330
1
100
AcDbSymbolTableRecord
100
AcDbBlockTableRecord
  2
*D20
340
0
  0
BLOCK_RECORD
  5
14AA
330
1
100
AcDbSymbolTableRecord
100
AcDbBlockTableRecord
  2
*D21
340
0
  0
BLOCK_RECORD
  5
14B6
330
1
100
AcDbSymbolTableRecord
100
AcDbBlockTableRecord
  2
*D22
340
0
  0
BLOCK_RECORD
  5
1A64
330
1
100
AcDbSymbolTableRecord
100
AcDbBlockTableRecord
  2
*D23
340
0
  0
BLOCK_RECORD
  5
1A6F
330
1
100
AcDbSymbolTableRecord
100
AcDbBlockTableRecord
  2
*D24
340
0
  0
BLOCK_RECORD
  5
1A7A
330
1
100
AcDbSymbolTableRecord
100
AcDbBlockTableRecord
  2
*D25
340
0
  0
BLOCK_RECORD
  5
1F75
330
1
100
AcDbSymbolTableRecord
100
AcDbBlockTableRecord
  2
*D26
340
0
  0
BLOCK_RECORD
  5
1F81
330
1
100
AcDbSymbolTableRecord
100
AcDbBlockTableRecord
  2
*D27
340
0
  0
BLOCK_RECORD
  5
1F8D
330
1
100
AcDbSymbolTableRecord
100
AcDbBlockTableRecord
  2
*D28
340
0
  0
ENDTAB
  0
ENDSEC
  0
SECTION
  2
BLOCKS
  0
BLOCK
  5
20
330
1F
100
AcDbEntity
  8
0
100
AcDbBlockBegin
  2
*Model_Space
 70
     0
 10
0.0
 20
0.0
 30
0.0
  3
*Model_Space
  1

  0
ENDBLK
  5
21
330
1F
100
AcDbEntity
  8
0
100
AcDbBlockEnd
  0
BLOCK
  5
1C
330
1B
100
AcDbEntity
 67
     1
  8
0
100
AcDbBlockBegin
  2
*Paper_Space
 70
     0
 10
0.0
 20
0.0
 30
0.0
  3
*Paper_Space
  1

  0
ENDBLK
  5
1D
330
1B
100
AcDbEntity
 67
     1
  8
0
100
AcDbBlockEnd
  0
BLOCK
  5
24
330
23
100
AcDbEntity
  8
0
100
AcDbBlockBegin
  2
*Paper_Space0
 70
     0
 10
0.0
 20
0.0
 30
0.0
  3
*Paper_Space0
  1

  0
ENDBLK
  5
25
330
23
100
AcDbEntity
  8
0
100
AcDbBlockEnd
  0
BLOCK
  5
624
330
619
100
AcDbEntity
  8
0
100
AcDbBlockBegin
  2
*D1
 70
     1
 10
0.0
 20
0.0
 30
0.0
  3
*D1
  1

  0
LINE
  5
A1D
330
619
100
AcDbEntity
  8
SK2
 62
     0
370
    -2
100
AcDbLine
 10
-107.2842727440295
 20
-33.66816862041723
 30
0.0
 11
-143.8272318774519
 21
-33.66816862041722
 31
0.0
  0
LINE
  5
A1E
330
619
100
AcDbEntity
  8
SK2
 62
     0
370
    -2
100
AcDbLine
 10
-107.2842727440295
 20
-88.66816862041719
 30
0.0
 11
-143.8272318774519
 21
-88.66816862041719
 31
0.0
  0
LINE
  5
A1F
330
619
100
AcDbEntity
  8
SK2
 62
     0
370
    -2
100
AcDbLine
 10
-141.3272318774519
 20
-38.23816862041722
 30
0.0
 11
-141.3272318774519
 21
-84.0981686204172
 31
0.0
  0
SOLID
  5
A20
330
619
100
AcDbEntity
  8
SK2
 62
     0
100
AcDbTrace
 10
-142.0888985441185
 20
-38.23816862041722
 30
0.0
 11
-140.5655652107854
 21
-38.23816862041722
 31
0.0
 12
-141.3272318774519
 22
-33.66816862041722
 32
0.0
 13
-141.3272318774519
 23
-33.66816862041722
 33
0.0
  0
SOLID
  5
A21
330
619
100
AcDbEntity
  8
SK2
 62
     0
100
AcDbTrace
 10
-142.0888985441185
 20
-84.0981686204172
 30
0.0
 11
-140.5655652107855
 21
-84.0981686204172
 31
0.0
 12
-141.3272318774519
 22
-88.66816862041719
 32
0.0
 13
-141.3272318774519
 23
-88.66816862041719
 33
0.0
  0
MTEXT
  5
A22
330
619
100
AcDbEntity
  8
SK2
 62
     7
100
AcDbMText
 10
-145.1122318774519
 20
-61.08242284481724
 30
0.0
 40
4.57
 41
0.0
 71
     5
 72
     1
  1
\A1;MBM %%c55
  7
GENPRESET
 11
0.0000000000000001
 21
1.0
 31
0.0
 73
     1
 44
1.0
  0
POINT
  5
A23
330
619
100
AcDbEntity
  8
Defpoints
 62
     0
100
AcDbPoint
 10
-107.2842727440295
 20
-33.66816862041723
 30
0.0
  0
POINT
  5
A24
330
619
100
AcDbEntity
  8
Defpoints
 62
     0
100
AcDbPoint
 10
-107.2842727440295
 20
-88.66816862041719
 30
0.0
  0
POINT
  5
A25
330
619
100
AcDbEntity
  8
Defpoints
 62
     0
100
AcDbPoint
 10
-141.3272318774519
 20
-88.66816862041719
 30
0.0
  0
ENDBLK
  5
625
330
619
100
AcDbEntity
  8
0
100
AcDbBlockEnd
  0
BLOCK
  5
63A
330
630
100
AcDbEntity
  8
0
100
AcDbBlockBegin
  2
*D2
 70
     1
 10
0.0
 20
0.0
 30
0.0
  3
*D2
  1

  0
LINE
  5
A26
330
630
100
AcDbEntity
  8
2
 62
     0
370
    -2
100
AcDbLine
 10
-107.6842727440296
 20
-34.06816862041722
 30
0.0
 11
-107.6842727440296
 21
-25.1809083295421
 31
0.0
  0
LINE
  5
A27
330
630
100
AcDbEntity
  8
2
 62
     0
370
    -2
100
AcDbLine
 10
-62.6842727440298
 20
-40.16816862041724
 30
0.0
 11
-62.6842727440298
 21
-25.1809083295421
 31
0.0
  0
LINE
  5
A28
330
630
100
AcDbEntity
  8
2
 62
     0
370
    -2
100
AcDbLine
 10
-103.1142727440298
 20
-27.6809083295421
 30
0.0
 11
-67.25427274402981
 21
-27.6809083295421
 31
0.0
  0
SOLID
  5
A29
330
630
100
AcDbEntity
  8
2
 62
     0
100
AcDbTrace
 10
-103.1142727440298
 20
-26.91924166287543
 30
0.0
 11
-103.1142727440298
 21
-28.44257499620876
 31
0.0
 12
-107.6842727440296
 22
-27.6809083295421
 32
0.0
 13
-107.6842727440296
 23
-27.6809083295421
 33
0.0
  0
SOLID
  5
A2A
330
630
100
AcDbEntity
  8
2
 62
     0
100
AcDbTrace
 10
-67.25427274402981
 20
-26.91924166287543
 30
0.0
 11
-67.25427274402981
 21
-28.44257499620876
 31
0.0
 12
-62.6842727440298
 22
-27.6809083295421
 32
0.0
 13
-62.6842727440298
 23
-27.6809083295421
 33
0.0
  0
MTEXT
  5
A2B
330
630
100
AcDbEntity
  8
2
 62
     7
100
AcDbMText
 10
-86.11494430602981
 20
-23.8959083295421
 30
0.0
 40
4.57
 41
0.0
 71
     5
 72
     1
  1
\A1;45
  7
GENPRESET
 73
     1
 44
1.0
  0
POINT
  5
A2C
330
630
100
AcDbEntity
  8
Defpoints
 62
     0
100
AcDbPoint
 10
-107.6842727440296
 20
-34.06816862041722
 30
0.0
  0
POINT
  5
A2D
330
630
100
AcDbEntity
  8
Defpoints
 62
     0
100
AcDbPoint
 10
-62.6842727440298
 20
-40.16816862041724
 30
0.0
  0
POINT
  5
A2E
330
630
100
AcDbEntity
  8
Defpoints
 62
     0
100
AcDbPoint
 10
-62.6842727440298
 20
-27.6809083295421
 30
0.0
  0
ENDBLK
  5
63B
330
630
100
AcDbEntity
  8
0
100
AcDbBlockEnd
  0
BLOCK
  5
64D
330
643
100
AcDbEntity
  8
0
100
AcDbBlockBegin
  2
*D3
 70
     1
 10
0.0
 20
0.0
 30
0.0
  3
*D3
  1

  0
LINE
  5
712
330
643
100
AcDbEntity
  8
2
 62
     0
370
    -2
100
AcDbLine
 10
45.0
 20
21.0
 30
0.0
 11
45.0
 21
42.91014835170002
 31
0.0
  0
LINE
  5
713
330
643
100
AcDbEntity
  8
2
 62
     0
370
    -2
100
AcDbLine
 10
-30.00000000000001
 20
14.10000000000001
 30
0.0
 11
-30.00000000000001
 21
42.91014835170002
 31
0.0
  0
LINE
  5
714
330
643
100
AcDbEntity
  8
2
 62
     0
370
    -2
100
AcDbLine
 10
40.43
 20
40.41014835170002
 30
0.0
 11
-25.43000000000001
 21
40.41014835170002
 31
0.0
  0
SOLID
  5
715
330
643
100
AcDbEntity
  8
2
 62
     0
100
AcDbTrace
 10
40.43
 20
41.17181501836667
 30
0.0
 11
40.43
 21
39.64848168503336
 31
0.0
 12
45.0
 22
40.41014835170002
 32
0.0
 13
45.0
 23
40.41014835170002
 33
0.0
  0
SOLID
  5
716
330
643
100
AcDbEntity
  8
2
 62
     0
100
AcDbTrace
 10
-25.43000000000001
 20
41.17181501836667
 30
0.0
 11
-25.43000000000001
 21
39.64848168503336
 31
0.0
 12
-30.00000000000001
 22
40.41014835170002
 32
0.0
 13
-30.00000000000001
 23
40.41014835170002
 33
0.0
  0
MTEXT
  5
717
330
643
100
AcDbEntity
  8
2
 62
     7
100
AcDbMText
 10
4.682507054176172
 20
46.48014835170001
 30
0.0
 40
4.57
 41
0.0
 71
     1
 72
     1
  1
\A1;75
  7
GENPRESET
 73
     1
 44
1.0
  0
POINT
  5
718
330
643
100
AcDbEntity
  8
Defpoints
 62
     0
100
AcDbPoint
 10
45.0
 20
21.0
 30
0.0
  0
POINT
  5
719
330
643
100
AcDbEntity
  8
Defpoints
 62
     0
100
AcDbPoint
 10
-30.00000000000001
 20
14.10000000000001
 30
0.0
  0
POINT
  5
71A
330
643
100
AcDbEntity
  8
Defpoints
 62
     0
100
AcDbPoint
 10
-30.00000000000001
 20
40.41014835170002
 30
0.0
  0
ENDBLK
  5
64E
330
643
100
AcDbEntity
  8
0
100
AcDbBlockEnd
  0
BLOCK
  5
692
330
664
100
AcDbEntity
  8
0
100
AcDbBlockBegin
  2
A$C38E809AF
 70
     0
 10
0.0
 20
0.0
 30
0.0
  3
A$C38E809AF
  1

  0
LWPOLYLINE
  5
665
330
664
100
AcDbEntity
  8
SK1
100
AcDbPolyline
 90
       21
 70
   128
 43
0.0
 10
-7.449999999999991
 20
0.0
 10
-7.480888330650002
 20
-0.5356843697000003
 10
-7.624476147800002
 20
-1.266699489449995
 10
-7.885670644149992
 20
-1.982905565299994
 10
-8.257120846299997
 20
-2.662106009150001
 10
-8.730205989999994
 20
-3.292356966449993
 10
-9.366095261249997
 20
-3.925706672650001
 10
-10.10061297549998
 20
-4.473194231349999
 10
-11.04236275355
 20
-4.982081343299991
 10
-12.0774144831
 20
-5.355942475299997
 10
-13.25582190605
 20
-5.590217468299995
 10
-14.49335345289999
 20
-5.641189766700001
 10
-15.708157274
 20
-5.501661172949999
 10
-16.91451420679999
 20
-5.163268941599993
 10
-18.01152964999999
 20
-4.648671824849997
 10
-19.0280286353
 20
-3.9307597568
 10
-19.6988586856
 20
-3.258476673299995
 10
-20.2658474977
 20
-2.4622338283
 10
-20.61535579475
 20
-1.744232855149999
 10
-20.85141070089997
 20
-0.9547501940999936
 10
-20.94999999999998
 20
0.0
  0
LINE
  5
666
330
664
100
AcDbEntity
  8
SK1
100
AcDbLine
 10
-5.788334699949999
 20
-15.0
 30
0.0
 11
-5.788334699949999
 21
15.0
 31
0.0
  0
LINE
  5
667
330
664
100
AcDbEntity
  8
SK1
100
AcDbLine
 10
-26.0
 20
-15.0
 30
0.0
 11
-26.0
 21
15.0
 31
0.0
  0
CIRCLE
  5
668
330
664
100
AcDbEntity
  8
SK1
100
AcDbCircle
 10
-14.19999999999999
 20
0.0
 30
0.0
 40
4.942344702964468
  0
LINE
  5
669
330
664
100
AcDbEntity
  8
SK1
100
AcDbLine
 10
-30.0
 20
-14.1
 30
0.0
 11
-30.0
 21
14.09999999999999
 31
0.0
  0
CIRCLE
  5
66A
330
664
100
AcDbEntity
  8
SK1
100
AcDbCircle
 10
-14.19999999999999
 20
0.0
 30
0.0
 40
4.000000000000006
  0
LINE
  5
66B
330
664
100
AcDbEntity
  8
SK3
100
AcDbLine
 10
-26.09870838929998
 20
-7.000000216099992
 30
0.0
 11
-26.09870838929998
 21
7.000000216100002
 31
0.0
  0
LINE
  5
66C
330
664
100
AcDbEntity
  8
SK3
100
AcDbLine
 10
-26.99999930339998
 20
-8.500000461999986
 30
0.0
 11
-26.99999930339998
 21
8.5000004619
 31
0.0
  0
LINE
  5
66D
330
664
100
AcDbEntity
  8
SK1
100
AcDbLine
 10
-26.0
 20
-15.0
 30
0.0
 11
-5.788334699949999
 21
-15.0
 31
0.0
  0
ARC
  5
66E
330
664
100
AcDbEntity
  8
SK1
100
AcDbCircle
 10
-29.19999999999999
 20
-14.1
 30
0.0
 40
0.8000000000000044
100
AcDbArc
 50
180.0
 51
280.0
  0
LINE
  5
66F
330
664
100
AcDbEntity
  8
SK1
100
AcDbLine
 10
-27.99460346454999
 20
-14.7196767642
 30
0.0
 11
-26.0
 21
-15.0
 31
0.0
  0
LINE
  5
670
330
664
100
AcDbEntity
  8
SK1
100
AcDbLine
 10
-29.06108145784999
 20
-14.88784620239998
 30
0.0
 11
-28.119731976
 21
-14.72186089049999
 31
0.0
  0
ARC
  5
671
330
664
100
AcDbEntity
  8
SK1
100
AcDbCircle
 10
-28.0502727049
 20
-15.1157839917
 30
0.0
 40
0.3999999999999986
100
AcDbArc
 50
82.0
 51
100.0
  0
LINE
  5
672
330
664
100
AcDbEntity
  8
SK3
100
AcDbLine
 10
-26.99999930339998
 20
-8.500000461999986
 30
0.0
 11
-26.09870838929998
 21
-7.000000216099992
 31
0.0
  0
ARC
  5
673
330
664
100
AcDbEntity
  8
SK3
100
AcDbCircle
 10
-28.99999932949997
 20
-9.5
 30
0.0
 40
1.0
100
AcDbArc
 50
90.0
 51
180.0
  0
LINE
  5
674
330
664
100
AcDbEntity
  8
SK3
100
AcDbLine
 10
-28.99999928199999
 20
-8.500000461999986
 30
0.0
 11
-26.99999930339998
 21
-8.500000461999986
 31
0.0
  0
ARC
  5
675
330
664
100
AcDbEntity
  8
SK1
100
AcDbCircle
 10
-4.75
 20
-15.54999999999999
 30
0.0
 40
0.8000000000000085
100
AcDbArc
 50
0.0
 51
104.9999999999996
  0
LINE
  5
676
330
664
100
AcDbEntity
  8
SK1
100
AcDbLine
 10
-5.788334699949999
 20
-15.0
 30
0.0
 11
-4.957055236049995
 21
-14.77725933894999
 31
0.0
  0
LINE
  5
677
330
664
100
AcDbEntity
  8
SK1
100
AcDbLine
 10
-5.788334699949999
 20
15.0
 30
0.0
 11
-26.0
 21
15.0
 31
0.0
  0
ARC
  5
678
330
664
100
AcDbEntity
  8
SK1
100
AcDbCircle
 10
-29.19999999999999
 20
14.09999999999999
 30
0.0
 40
0.8000000000000044
100
AcDbArc
 50
80.0
 51
180.0
  0
LINE
  5
679
330
664
100
AcDbEntity
  8
SK3
100
AcDbLine
 10
-26.09870838929998
 20
7.000000216100002
 30
0.0
 11
-26.99999930339998
 21
8.5000004619
 31
0.0
  0
ARC
  5
67A
330
664
100
AcDbEntity
  8
SK3
100
AcDbCircle
 10
-28.99999932949997
 20
9.5
 30
0.0
 40
1.0
100
AcDbArc
 50
180.0
 51
270.0
  0
LINE
  5
67B
330
664
100
AcDbEntity
  8
SK3
100
AcDbLine
 10
-26.99999930339998
 20
8.5000004619
 30
0.0
 11
-28.99999928199999
 21
8.5000004619
 31
0.0
  0
LINE
  5
67C
330
664
100
AcDbEntity
  8
SK1
100
AcDbLine
 10
-26.0
 20
15.0
 30
0.0
 11
-27.99460346454999
 21
14.7196767642
 31
0.0
  0
LINE
  5
67D
330
664
100
AcDbEntity
  8
SK1
100
AcDbLine
 10
-28.119731976
 20
14.72186089049999
 30
0.0
 11
-29.06108145784999
 21
14.88784620239998
 31
0.0
  0
ARC
  5
67E
330
664
100
AcDbEntity
  8
SK1
100
AcDbCircle
 10
-28.0502727049
 20
15.1157839917
 30
0.0
 40
0.4000000000000056
100
AcDbArc
 50
260.0
 51
278.0
  0
LWPOLYLINE
  5
67F
330
664
100
AcDbEntity
  8
SK1
100
AcDbPolyline
 90
       20
 70
   128
 43
0.0
 10
-20.94999999999998
 20
0.0
 10
-20.90063933869998
 20
0.67673697675
 10
-20.73598965199999
 20
1.400911859999999
 10
-20.45612188589998
 20
2.106737529350004
 10
-20.06276167499998
 20
2.782681854800002
 10
-19.56836317905
 20
3.406654401099997
 10
-18.64420103779998
 20
4.235854434949998
 10
-17.6477709743
 20
4.84453313985
 10
-16.5282176188
 20
5.295072258450002
 10
-15.36991795815
 20
5.559809324400005
 10
-14.14818960759999
 20
5.646441646900007
 10
-12.92872730775
 20
5.543982780950003
 10
-11.71075888435
 20
5.242960059049996
 10
-10.59651999349999
 20
4.764030003500002
 10
-9.555473373299996
 20
4.0825303226
 10
-8.843557847800004
 20
3.419704283000001
 10
-8.234052702499994
 20
2.626061678400001
 10
-7.853624776900005
 20
1.910810475200008
 10
-7.585777725250003
 20
1.118966402949999
 10
-7.449999999999991
 20
0.0
  0
ARC
  5
680
330
664
100
AcDbEntity
  8
SK1
100
AcDbCircle
 10
-4.75
 20
15.54999999999999
 30
0.0
 40
0.7999999999999971
100
AcDbArc
 50
255.0
 51
0.0
  0
LINE
  5
681
330
664
100
AcDbEntity
  8
SK1
100
AcDbLine
 10
-4.957055236049995
 20
14.77725933894999
 30
0.0
 11
-5.788334699949999
 21
15.0
 31
0.0
  0
LINE
  5
682
330
664
100
AcDbEntity
  8
SK1
100
AcDbLine
 10
-0.1499999999999915
 20
12.78603181265
 30
0.0
 11
-0.1499999999999915
 21
-12.78603181264998
 31
0.0
  0
ARC
  5
683
330
664
100
AcDbEntity
  8
SK1
100
AcDbCircle
 10
-0.2490740635000037
 20
13.31989824195
 30
0.0
 40
0.5429816151209015
100
AcDbArc
 50
231.3641575183
 51
280.51325655
  0
LINE
  5
684
330
664
100
AcDbEntity
  8
SK1
100
AcDbLine
 10
-3.950000000000001
 20
-21.025
 30
0.0
 11
-3.949999999999988
 21
21.025
 31
0.0
  0
LINE
  5
685
330
664
100
AcDbEntity
  8
SK1
100
AcDbLine
 10
-1.606834536349991
 20
13.64003757324999
 30
0.0
 11
-1.606834536349991
 21
21.025
 31
0.0
  0
LINE
  5
686
330
664
100
AcDbEntity
  8
SK1
100
AcDbLine
 10
-1.606834536349991
 20
13.64003757324999
 30
0.0
 11
-3.950000000000001
 21
13.64003757324999
 31
0.0
  0
LINE
  5
687
330
664
100
AcDbEntity
  8
SK1
100
AcDbLine
 10
-0.5880946094000024
 20
12.8957589914
 30
0.0
 11
-1.606834536349991
 21
13.64003757324999
 31
0.0
  0
LINE
  5
688
330
664
100
AcDbEntity
  8
SK1
100
AcDbLine
 10
-1.606834536349991
 20
21.025
 30
0.0
 11
-3.950000000000001
 21
21.025
 31
0.0
  0
LINE
  5
689
330
664
100
AcDbEntity
  8
SK1
100
AcDbLine
 10
-0.5880946093499944
 20
20.54995377039998
 30
0.0
 11
-1.606834536349991
 21
21.025
 31
0.0
  0
ARC
  5
68A
330
664
100
AcDbEntity
  8
SK1
100
AcDbCircle
 10
-0.25
 20
21.27499999999999
 30
0.0
 40
0.7999999999999984
100
AcDbArc
 50
245.0
 51
288.2099568642999
  0
LINE
  5
68B
330
664
100
AcDbEntity
  8
SK1
100
AcDbLine
 10
-1.606834536349991
 20
-21.025
 30
0.0
 11
-1.606834536349991
 21
-13.64003757324999
 31
0.0
  0
LINE
  5
68C
330
664
100
AcDbEntity
  8
SK1
100
AcDbLine
 10
-3.950000000000001
 20
-21.025
 30
0.0
 11
-1.606834536349991
 21
-21.025
 31
0.0
  0
ARC
  5
68D
330
664
100
AcDbEntity
  8
SK1
100
AcDbCircle
 10
-0.25
 20
-21.27499999999999
 30
0.0
 40
0.8000000000000115
100
AcDbArc
 50
71.79004313570001
 51
115.0
  0
LINE
  5
68E
330
664
100
AcDbEntity
  8
SK1
100
AcDbLine
 10
-1.606834536349991
 20
-21.025
 30
0.0
 11
-0.5880946093499944
 21
-20.54995377034999
 31
0.0
  0
LINE
  5
68F
330
664
100
AcDbEntity
  8
SK1
100
AcDbLine
 10
-1.606834536349991
 20
-13.64003757324999
 30
0.0
 11
-3.950000000000001
 21
-13.64003757324999
 31
0.0
  0
ARC
  5
690
330
664
100
AcDbEntity
  8
SK1
100
AcDbCircle
 10
-0.2491211378999907
 20
-13.31971029359999
 30
0.0
 40
0.5428054172628256
100
AcDbArc
 50
79.47823807289998
 51
128.64434786
  0
LWPOLYLINE
  5
691
330
664
100
AcDbEntity
  8
SK1
100
AcDbPolyline
 90
        3
 70
   128
 43
0.0
 10
-1.606834536349991
 20
-13.64003757324999
 10
-0.8737795698500008
 20
-13.10700410574999
 10
-0.5880946093499944
 20
-12.89575899139999
  0
ENDBLK
  5
693
330
664
100
AcDbEntity
  8
0
100
AcDbBlockEnd
  0
BLOCK
  5
78B
330
782
100
AcDbEntity
  8
0
100
AcDbBlockBegin
  2
*D5
 70
     1
 10
0.0
 20
0.0
 30
0.0
  3
*D5
  1

  0
SOLID
  5
783
330
782
100
AcDbEntity
  8
VERMASSUNG
100
AcDbTrace
 10
102.4976393544
 20
137.0593615774
 30
0.0
 11
102.0476393543999
 21
134.0593615774
 31
0.0
 12
102.9476393544
 22
134.0593615774
 32
0.0
 13
102.9476393544
 23
134.0593615774
 33
0.0
  0
SOLID
  5
784
330
782
100
AcDbEntity
  8
VERMASSUNG
100
AcDbTrace
 10
102.4976393544
 20
82.0593615774
 30
0.0
 11
102.9476393544
 21
85.0593615774
 31
0.0
 12
102.0476393543999
 22
85.0593615774
 32
0.0
 13
102.0476393543999
 23
85.0593615774
 33
0.0
  0
LINE
  5
785
330
782
100
AcDbEntity
  8
VERMASSUNG
100
AcDbLine
 10
138.3562445235
 20
137.0593615774
 30
0.0
 11
101.4976393544
 21
137.0593615774
 31
0.0
  0
LINE
  5
786
330
782
100
AcDbEntity
  8
VERMASSUNG
100
AcDbLine
 10
138.3562445235
 20
82.0593615774
 30
0.0
 11
101.4976393544
 21
82.0593615774
 31
0.0
  0
LINE
  5
787
330
782
100
AcDbEntity
  8
VERMASSUNG
100
AcDbLine
 10
102.4976393544
 20
137.0593615774
 30
0.0
 11
102.4976393544
 21
82.0593615774
 31
0.0
  0
MTEXT
  5
788
330
782
100
AcDbEntity
  8
VERMASSUNG
100
AcDbMText
 10
99.6976395777
 20
103.2410338148999
 30
0.0
 40
2.0
 41
0.0
 71
     1
 72
     1
  1
{MBM }
  7
SLDTEXTSTYLE0
 11
-0.000000000000007
 21
1.0
 31
0.0
 73
     1
 44
1.0
  0
MTEXT
  5
789
330
782
100
AcDbEntity
  8
VERMASSUNG
100
AcDbMText
 10
99.897639529
 20
109.6410336531999
 30
0.0
 40
2.0
 41
0.0
 71
     1
 72
     1
  1
{%%c}
  7
SLDTEXTSTYLE0
 11
-0.000000000000007
 21
1.0
 31
0.0
 73
     1
 44
1.0
  0
MTEXT
  5
78A
330
782
100
AcDbEntity
  8
VERMASSUNG
100
AcDbMText
 10
99.897639238
 20
113.2509640428
 30
0.0
 40
2.0
 41
0.0
 71
     1
 72
     1
  1
{55}
  7
SLDTEXTSTYLE0
 11
-0.000000000000007
 21
1.0
 31
0.0
 73
     1
 44
1.0
  0
ENDBLK
  5
78C
330
782
100
AcDbEntity
  8
0
100
AcDbBlockEnd
  0
BLOCK
  5
794
330
78D
100
AcDbEntity
  8
0
100
AcDbBlockBegin
  2
*D6
 70
     1
 10
0.0
 20
0.0
 30
0.0
  3
*D6
  1

  0
SOLID
  5
78E
330
78D
100
AcDbEntity
  8
VERMASSUNG
100
AcDbTrace
 10
137.9562445235
 20
143.9695099290998
 30
0.0
 11
140.9562445235
 21
143.5195099291
 31
0.0
 12
140.9562445235
 22
144.4195099290999
 32
0.0
 13
140.9562445235
 23
144.4195099290999
 33
0.0
  0
SOLID
  5
78F
330
78D
100
AcDbEntity
  8
VERMASSUNG
100
AcDbTrace
 10
182.9562445234999
 20
143.9695099290998
 30
0.0
 11
179.9562445234999
 21
144.4195099290999
 31
0.0
 12
179.9562445234999
 22
143.5195099291
 32
0.0
 13
179.9562445234999
 23
143.5195099291
 33
0.0
  0
LINE
  5
790
330
78D
100
AcDbEntity
  8
VERMASSUNG
100
AcDbLine
 10
137.9562445235
 20
136.6593615774
 30
0.0
 11
137.9562445235
 21
144.9695099290998
 31
0.0
  0
LINE
  5
791
330
78D
100
AcDbEntity
  8
VERMASSUNG
100
AcDbLine
 10
182.9562445234999
 20
130.5593615774
 30
0.0
 11
182.9562445234999
 21
144.9695099290998
 31
0.0
  0
LINE
  5
792
330
78D
100
AcDbEntity
  8
VERMASSUNG
100
AcDbLine
 10
137.9562445235
 20
143.9695099290998
 30
0.0
 11
182.9562445234999
 21
143.9695099290998
 31
0.0
  0
MTEXT
  5
793
330
78D
100
AcDbEntity
  8
VERMASSUNG
100
AcDbMText
 10
158.0258848545
 20
146.5695100454999
 30
0.0
 40
2.0
 41
0.0
 71
     1
 72
     1
  1
{45}
  7
SLDTEXTSTYLE0
 73
     1
 44
1.0
  0
ENDBLK
  5
795
330
78D
100
AcDbEntity
  8
0
100
AcDbBlockEnd
  0
BLOCK
  5
79D
330
796
100
AcDbEntity
  8
0
100
AcDbBlockBegin
  2
*D7
 70
     1
 10
0.0
 20
0.0
 30
0.0
  3
*D7
  1

  0
SOLID
  5
797
330
796
100
AcDbEntity
  8
VERMASSUNG
100
AcDbTrace
 10
182.9562445234999
 20
149.9695099290998
 30
0.0
 11
179.9562445234999
 21
150.4195099291
 31
0.0
 12
179.9562445234999
 22
149.5195099290999
 32
0.0
 13
179.9562445234999
 23
149.5195099290999
 33
0.0
  0
SOLID
  5
798
330
796
100
AcDbEntity
  8
VERMASSUNG
100
AcDbTrace
 10
107.9562445235
 20
149.9695099290998
 30
0.0
 11
110.9562445235
 21
149.5195099290999
 31
0.0
 12
110.9562445235
 22
150.4195099291
 32
0.0
 13
110.9562445235
 23
150.4195099291
 33
0.0
  0
LINE
  5
799
330
796
100
AcDbEntity
  8
VERMASSUNG
100
AcDbLine
 10
182.9562445234999
 20
130.5593615774
 30
0.0
 11
182.9562445234999
 21
150.9695099290999
 31
0.0
  0
LINE
  5
79A
330
796
100
AcDbEntity
  8
VERMASSUNG
100
AcDbLine
 10
107.9562445235
 20
123.6593615773999
 30
0.0
 11
107.9562445235
 21
150.9695099290999
 31
0.0
  0
LINE
  5
79B
330
796
100
AcDbEntity
  8
VERMASSUNG
100
AcDbLine
 10
182.9562445234999
 20
149.9695099290998
 30
0.0
 11
107.9562445235
 21
149.9695099290998
 31
0.0
  0
MTEXT
  5
79C
330
796
100
AcDbEntity
  8
VERMASSUNG
100
AcDbMText
 10
144.9391669629999
 20
152.5695100454998
 30
0.0
 40
2.0
 41
0.0
 71
     1
 72
     1
  1
{75}
  7
SLDTEXTSTYLE0
 73
     1
 44
1.0
  0
ENDBLK
  5
79E
330
796
100
AcDbEntity
  8
0
100
AcDbBlockEnd
  0
BLOCK
  5
9C2
330
79F
100
AcDbEntity
  8
0
100
AcDbBlockBegin
  2
A$C0C8E0696
 70
     0
 10
0.0
 20
0.0
 30
0.0
  3
A$C0C8E0696
  1

  0
DIMENSION
  5
7A0
330
79F
100
AcDbEntity
  8
VERMASSUNG
100
AcDbDimension
  2
*D7
 10
-30.0
 20
40.41730990458559
 30
0.0
 11
8.382030863699981
 21
40.41730990458559
 31
0.0
 12
-137.9562445235
 22
-109.5522000245142
 32
0.0
 70
   128
 71
     5
 42
75.0
  3
SLDDIMSTYLE0
100
AcDbAlignedDimension
 13
44.99999999999997
 23
21.00716155288562
 33
0.0
 14
-30.0
 24
14.10716155288558
 34
0.0
100
AcDbRotatedDimension
1001
ACAD
1000
DSTYLE
1002
{
1070
   143
1040
0.0394
1070
    41
1040
3.0
1070
    44
1040
1.0
1070
    42
1040
0.0
1070
   147
1040
1.524
1070
    73
1070
     1
1070
    74
1070
     1
1070
   140
1040
2.0
1070
   284
1070
     0
1070
    78
1070
     0
1002
}
  0
LINE
  5
7A1
330
79F
100
AcDbEntity
  8
VERMASSUNG
  6
SLD-Punktstrich
 62
     7
370
     0
100
AcDbLine
 10
-32.0
 20
0.0071615528856199
 30
0.0
 11
46.99999999999997
 21
0.0071615528856199
 31
0.0
  0
LINE
  5
7A2
330
79F
100
AcDbEntity
  8
VERMASSUNG
  6
SLD-Punktstrich
370
     0
100
AcDbLine
 10
-34.34180448390002
 20
0.0071615528856199
 30
0.0
 11
48.52384467370001
 21
0.0071615528856199
 31
0.0
  0
DIMENSION
  5
7A3
330
79F
100
AcDbEntity
  8
VERMASSUNG
100
AcDbDimension
  2
*D6
 10
44.99999999999997
 20
34.41730990458561
 30
0.0
 11
21.56932843799998
 21
34.41730990458561
 31
0.0
 12
-137.9562445235
 22
-109.5522000245142
 32
0.0
 70
   128
 71
     5
 42
45.0
  3
SLDDIMSTYLE0
100
AcDbAlignedDimension
 13
0.0
 23
27.10716155288563
 33
0.0
 14
44.99999999999997
 24
21.00716155288562
 34
0.0
100
AcDbRotatedDimension
1001
ACAD
1000
DSTYLE
1002
{
1070
   143
1040
0.0394
1070
    41
1040
3.0
1070
    44
1040
1.0
1070
    42
1040
0.0
1070
   147
1040
1.524
1070
    73
1070
     1
1070
    74
1070
     1
1070
   140
1040
2.0
1070
   284
1070
     0
1070
    78
1070
     0
1002
}
  0
LINE
  5
7A4
330
79F
100
AcDbEntity
  8
0
  6
SLD-Gestrichelt
 62
     7
370
     0
100
AcDbLine
 10
9.854384203699991
 20
11.3071615528856
 30
0.0
 11
-28.78756443470001
 21
11.3071615528856
 31
0.0
  0
LINE
  5
7A5
330
79F
100
AcDbEntity
  8
0
  6
SLD-Gestrichelt
 62
     7
370
     0
100
AcDbLine
 10
-23.9378221735
 20
-8.49283844711438
 30
0.0
 11
9.854384203699991
 21
-8.49283844711438
 31
0.0
  0
LINE
  5
7A6
330
79F
100
AcDbEntity
  8
0
  6
SLD-Gestrichelt
 62
     7
370
     0
100
AcDbLine
 10
8.0
 20
-22.64283844711437
 30
0.0
 11
3.150000000000004
 21
-27.49283844711437
 31
0.0
  0
LINE
  5
7A7
330
79F
100
AcDbEntity
  8
0
  6
SLD-Gestrichelt
 62
     7
370
     0
100
AcDbLine
 10
3.0
 20
-4.99283844711438
 30
0.0
 11
20.62350832729998
 21
-4.99283844711438
 31
0.0
  0
LINE
  5
7A8
330
79F
100
AcDbEntity
  8
0
  6
SLD-Gestrichelt
 62
     7
370
     0
100
AcDbLine
 10
20.6099544422
 20
5.007161552885619
 30
0.0
 11
3.0
 21
5.007161552885619
 31
0.0
  0
LWPOLYLINE
  5
7A9
330
79F
100
AcDbEntity
  8
0
  6
SLD-Gestrichelt
 62
     7
370
     0
100
AcDbPolyline
 90
       13
 70
   128
 43
0.0
 10
9.288888065500003
 20
-22.64283844711437
 10
8.480865455399992
 20
-23.28571021441437
 10
7.707441729499977
 20
-23.89970098371438
 10
7.025081322299996
 20
-24.44033330331437
 10
6.380594564900007
 20
-24.95006504091437
 10
5.681378072900002
 20
-25.50212706171437
 10
5.040263127600011
 20
-26.00746297601436
 10
4.4757643243
 20
-26.45175005041437
 10
3.967518107500012
 20
-26.85124712761437
 10
3.57132248229999
 20
-27.16233569401437
 10
3.312760918399986
 20
-27.36520025581437
 10
3.173375479100001
 20
-27.47451018391437
 10
3.165830985399991
 20
-27.48042574921437
  0
LWPOLYLINE
  5
7AA
330
79F
100
AcDbEntity
  8
0
  6
SLD-Durchgehend
 62
     7
370
    15
100
AcDbPolyline
 90
       12
 70
   128
 43
0.0
 10
3.165830985399991
 20
-27.48042574921437
 10
3.160721897900003
 20
-27.48443173571438
 10
3.280883079499997
 20
-27.39020284151437
 10
3.483092464400013
 20
-27.23157369211437
 10
3.775815875299997
 20
-27.00180581701436
 10
4.157973412999978
 20
-26.70160014201437
 10
4.622862676399988
 20
-26.33603539001437
 10
5.161546842099994
 20
-25.91192699961437
 10
6.214263562199985
 20
-25.08147989871437
 10
7.183942430599984
 20
-24.31455587101437
 10
8.2505295622
 20
-23.46870138401437
 10
9.288888065500003
 20
-22.64283844711437
  0
LINE
  5
7AB
330
79F
100
AcDbEntity
  8
0
  6
SLD-Durchgehend
 62
     7
370
    15
100
AcDbLine
 10
9.855156124199991
 20
27.50716155288563
 30
0.0
 11
0.4000000000000057
 21
27.50716155288563
 31
0.0
  0
DIMENSION
  5
7AC
330
79F
100
AcDbEntity
  8
VERMASSUNG
100
AcDbDimension
  2
*D5
 10
-35.45860516909999
 20
-27.49283844711437
 30
0.0
 11
-35.45860516909999
 21
0.0929073284856088
 31
0.0
 12
-137.9562445235
 22
-109.5522000245142
 32
0.0
 70
   128
  1
MBM %%c<>
 71
     5
 42
55.0
  3
SLDDIMSTYLE0
100
AcDbAlignedDimension
 13
0.4000000000000057
 23
27.50716155288563
 33
0.0
 14
0.4000000000000057
 24
-27.49283844711437
 34
0.0
 50
90.0
100
AcDbRotatedDimension
1001
ACAD
1000
DSTYLE
1002
{
1070
   143
1040
0.0394
1070
    41
1040
3.0
1070
    44
1040
1.0
1070
    42
1040
0.0
1070
   147
1040
1.524
1070
    73
1070
     1
1070
    74
1070
     1
1070
   140
1040
2.0
1070
   284
1070
     0
1070
    78
1070
     0
1002
}
  0
LINE
  5
7AD
330
79F
100
AcDbEntity
  8
0
  6
SLD-Gestrichelt
 62
     7
370
     0
100
AcDbLine
 10
0.5500000000000114
 20
-21.26783844711437
 30
0.0
 11
0.5500000000000114
 21
21.2821615528856
 31
0.0
  0
LINE
  5
7AE
330
79F
100
AcDbEntity
  8
0
  6
SLD-Gestrichelt
 62
     7
370
     0
100
AcDbLine
 10
0.5500000000000114
 20
-21.26783844711437
 30
0.0
 11
0.5500000000000114
 21
21.2821615528856
 31
0.0
  0
LINE
  5
7AF
330
79F
100
AcDbEntity
  8
0
  6
SLD-Gestrichelt
 62
     7
370
     0
100
AcDbLine
 10
-3.949999999999988
 20
13.64719912618562
 30
0.0
 11
-3.949999999999988
 21
-13.63287602031435
 31
0.0
  0
LINE
  5
7B0
330
79F
100
AcDbEntity
  8
0
  6
SLD-Gestrichelt
 62
     7
370
     0
100
AcDbLine
 10
-0.1500000000000057
 20
12.7931933655856
 30
0.0
 11
-0.1500000000000057
 21
-12.77887025971438
 31
0.0
  0
LINE
  5
7B1
330
79F
100
AcDbEntity
  8
0
  6
SLD-Gestrichelt
 62
     7
370
     0
100
AcDbLine
 10
-30.0
 20
-11.99283844711438
 30
0.0
 11
-30.0
 21
11.9931482748856
 31
0.0
  0
LINE
  5
7B2
330
79F
100
AcDbEntity
  8
0
  6
SLD-Gestrichelt
 62
     7
370
     0
100
AcDbLine
 10
-23.9378221735
 20
0.0071615528856199
 30
0.0
 11
-23.9378221735
 21
-8.49283844711438
 31
0.0
  0
LINE
  5
7B3
330
79F
100
AcDbEntity
  8
0
  6
SLD-Gestrichelt
 62
     7
370
     0
100
AcDbLine
 10
-30.0
 20
14.10716153928561
 30
0.0
 11
-30.0
 21
-14.09283844711437
 31
0.0
  0
LINE
  5
7B4
330
79F
100
AcDbEntity
  8
0
  6
SLD-Gestrichelt
 62
     7
370
     0
100
AcDbLine
 10
-26.0
 20
15.00716155288561
 30
0.0
 11
-26.0
 21
-14.99283844711438
 31
0.0
  0
LINE
  5
7B5
330
79F
100
AcDbEntity
  8
0
  6
SLD-Gestrichelt
 62
     7
370
     0
100
AcDbLine
 10
-5.788334700000008
 20
15.00716155288561
 30
0.0
 11
-5.788334700000008
 21
-14.99283844711438
 31
0.0
  0
LINE
  5
7B6
330
79F
100
AcDbEntity
  8
0
  6
SLD-Gestrichelt
 62
     7
370
     0
100
AcDbLine
 10
-3.949999999999988
 20
-15.54283844711437
 30
0.0
 11
-3.949999999999988
 21
15.5571615528856
 31
0.0
  0
LINE
  5
7B7
330
79F
100
AcDbEntity
  8
0
  6
SLD-Gestrichelt
 62
     7
370
     0
100
AcDbLine
 10
-0.1500000000000057
 20
-12.77887025971438
 30
0.0
 11
-0.1500000000000057
 21
12.7931933655856
 31
0.0
  0
LINE
  5
7B8
330
79F
100
AcDbEntity
  8
0
  6
SLD-Gestrichelt
 62
     7
370
     0
100
AcDbLine
 10
-0.1500000000000057
 20
-12.77887025971438
 30
0.0
 11
-0.1500000000000057
 21
12.7931933655856
 31
0.0
  0
LINE
  5
7B9
330
79F
100
AcDbEntity
  8
0
  6
SLD-Gestrichelt
 62
     7
370
     0
100
AcDbLine
 10
0.0
 20
-22.62467298351437
 30
0.0
 11
0.0
 21
22.63899608928562
 31
0.0
  0
LINE
  5
7BA
330
79F
100
AcDbEntity
  8
0
  6
SLD-Gestrichelt
 62
     7
370
     0
100
AcDbLine
 10
0.0
 20
27.10716155138561
 30
0.0
 11
0.0
 21
-27.09283844711437
 31
0.0
  0
LINE
  5
7BB
330
79F
100
AcDbEntity
  8
0
  6
SLD-Durchgehend
 62
     7
370
    15
100
AcDbLine
 10
-30.0
 20
-14.09283844711437
 30
0.0
 11
-30.0
 21
14.10716153928561
 31
0.0
  0
LINE
  5
7BC
330
79F
100
AcDbEntity
  8
0
  6
SLD-Durchgehend
 62
     7
370
    15
100
AcDbLine
 10
-26.0
 20
-14.99283844711438
 30
0.0
 11
-26.0
 21
15.00716155288561
 31
0.0
  0
LINE
  5
7BD
330
79F
100
AcDbEntity
  8
0
  6
SLD-Durchgehend
 62
     7
370
    15
100
AcDbLine
 10
-5.788334700000008
 20
-14.99283844711438
 30
0.0
 11
-5.788334700000008
 21
15.00716155288561
 31
0.0
  0
LINE
  5
7BE
330
79F
100
AcDbEntity
  8
0
  6
SLD-Durchgehend
 62
     7
370
    15
100
AcDbLine
 10
-3.949999999999988
 20
-13.63287602031435
 30
0.0
 11
-3.949999999999988
 21
13.64719912618562
 31
0.0
  0
LINE
  5
7BF
330
79F
100
AcDbEntity
  8
0
  6
SLD-Durchgehend
 62
     7
370
    15
100
AcDbLine
 10
-0.1500000000000057
 20
12.7931933655856
 30
0.0
 11
-0.1500000000000057
 21
-12.77887025971438
 31
0.0
  0
LINE
  5
7C0
330
79F
100
AcDbEntity
  8
0
  6
SLD-Durchgehend
 62
     7
370
    15
100
AcDbLine
 10
0.0
 20
-27.09283844711437
 30
0.0
 11
0.0
 21
27.10716155288563
 31
0.0
  0
LINE
  5
7C1
330
79F
100
AcDbEntity
  8
0
  6
SLD-Gestrichelt
 62
     7
370
     0
100
AcDbLine
 10
-30.0
 20
-11.99283844711438
 30
0.0
 11
-23.9378221735
 21
-8.49283844711438
 31
0.0
  0
LINE
  5
7C2
330
79F
100
AcDbEntity
  8
0
  6
SLD-Durchgehend
 62
     7
370
    15
100
AcDbLine
 10
-27.9946034646
 20
-14.71251521131438
 30
0.0
 11
-26.0
 21
-14.99283844711438
 31
0.0
  0
ARC
  5
7C3
330
79F
100
AcDbEntity
  8
0
  6
SLD-Durchgehend
 62
     7
370
    15
100
AcDbCircle
 10
-28.05027270489999
 20
-15.10862243881438
 30
0.0
 40
0.4000000000000015
100
AcDbArc
 50
81.99999999999922
 51
100.0000000000001
  0
LINE
  5
7C4
330
79F
100
AcDbEntity
  8
0
  6
SLD-Durchgehend
 62
     7
370
    15
100
AcDbLine
 10
-29.06108145790001
 20
-14.88068464951437
 30
0.0
 11
-28.119731976
 21
-14.71469933761436
 31
0.0
  0
ARC
  5
7C5
330
79F
100
AcDbEntity
  8
0
  6
SLD-Durchgehend
 62
     7
370
    15
100
AcDbCircle
 10
-29.19999999999999
 20
-14.09283844711437
 30
0.0
 40
0.8000000000000021
100
AcDbArc
 50
180.0
 51
280.0
  0
LINE
  5
7C6
330
79F
100
AcDbEntity
  8
0
  6
SLD-Durchgehend
 62
     7
370
    15
100
AcDbLine
 10
-26.0
 20
-14.99283844711438
 30
0.0
 11
-5.788334700000008
 21
-14.99283844711438
 31
0.0
  0
LINE
  5
7C7
330
79F
100
AcDbEntity
  8
0
  6
SLD-Gestrichelt
 62
     7
370
     0
100
AcDbLine
 10
-3.949999999999988
 20
-13.63287602031435
 30
0.0
 11
-3.949999999999988
 21
-21.01783844711437
 31
0.0
  0
LINE
  5
7C8
330
79F
100
AcDbEntity
  8
0
  6
SLD-Gestrichelt
 62
     7
370
     0
100
AcDbLine
 10
-1.606834536400014
 20
-13.63287602031435
 30
0.0
 11
-1.606834536400014
 21
-21.01783844711437
 31
0.0
  0
LINE
  5
7C9
330
79F
100
AcDbEntity
  8
0
  6
SLD-Durchgehend
 62
     7
370
    15
100
AcDbLine
 10
-3.949999999999988
 20
-21.01783844711437
 30
0.0
 11
-3.949999999999988
 21
-13.63287602031435
 31
0.0
  0
LINE
  5
7CA
330
79F
100
AcDbEntity
  8
0
  6
SLD-Durchgehend
 62
     7
370
    15
100
AcDbLine
 10
-1.606834536400014
 20
-21.01783844711437
 30
0.0
 11
-1.606834536400014
 21
-13.63287602031435
 31
0.0
  0
LINE
  5
7CB
330
79F
100
AcDbEntity
  8
0
  6
SLD-Durchgehend
 62
     7
370
    15
100
AcDbLine
 10
-3.949999999999988
 20
-21.01783844711437
 30
0.0
 11
-1.606834536400014
 21
-21.01783844711437
 31
0.0
  0
LINE
  5
7CC
330
79F
100
AcDbEntity
  8
0
  6
SLD-Durchgehend
 62
     7
370
    15
100
AcDbLine
 10
0.4000000000000057
 20
-27.49283844711437
 30
0.0
 11
3.165830985399991
 21
-27.49283844711437
 31
0.0
  0
ARC
  5
7CD
330
79F
100
AcDbEntity
  8
0
  6
SLD-Durchgehend
 62
     7
370
    15
100
AcDbCircle
 10
0.4000000000000057
 20
-27.09283844711437
 30
0.0
 40
0.4000000000000199
100
AcDbArc
 50
180.0
 51
270.0
  0
ARC
  5
7CE
330
79F
100
AcDbEntity
  8
0
  6
SLD-Gestrichelt
 62
     7
370
     0
100
AcDbCircle
 10
-0.25
 20
-21.26783844711437
 30
0.0
 40
0.8000000000000111
100
AcDbArc
 50
0.0
 51
71.79004313569997
  0
ARC
  5
7CF
330
79F
100
AcDbEntity
  8
0
  6
SLD-Gestrichelt
 62
     7
370
     0
100
AcDbCircle
 10
-0.25
 20
-21.26783844711437
 30
0.0
 40
0.8000000000000111
100
AcDbArc
 50
335.0
 51
0.0
  0
LINE
  5
7D0
330
79F
100
AcDbEntity
  8
0
  6
SLD-Gestrichelt
 62
     7
370
     0
100
AcDbLine
 10
0.0
 20
-22.62467298351437
 30
0.0
 11
0.475046229599997
 21
-21.60593305651437
 31
0.0
  0
LINE
  5
7D1
330
79F
100
AcDbEntity
  8
0
  6
SLD-Durchgehend
 62
     7
370
    15
100
AcDbLine
 10
-1.606834536400014
 20
-21.01783844711437
 30
0.0
 11
-0.5880946094000024
 21
-20.54279221741438
 31
0.0
  0
ARC
  5
7D2
330
79F
100
AcDbEntity
  8
0
  6
SLD-Durchgehend
 62
     7
370
    15
100
AcDbCircle
 10
-0.25
 20
-21.26783844711437
 30
0.0
 40
0.8000000000000069
100
AcDbArc
 50
71.79004313569997
 51
114.9999999999996
  0
LINE
  5
7D3
330
79F
100
AcDbEntity
  8
0
  6
SLD-Gestrichelt
 62
     7
370
     0
100
AcDbLine
 10
-1.606834536400014
 20
-13.63287602031435
 30
0.0
 11
-3.949999999999988
 21
-13.63287602031435
 31
0.0
  0
LINE
  5
7D4
330
79F
100
AcDbEntity
  8
0
  6
SLD-Durchgehend
 62
     7
370
    15
100
AcDbLine
 10
-1.606834536400014
 20
-13.63287602031435
 30
0.0
 11
-3.949999999999988
 21
-13.63287602031435
 31
0.0
  0
LINE
  5
7D5
330
79F
100
AcDbEntity
  8
0
  6
SLD-Durchgehend
 62
     7
370
    15
100
AcDbLine
 10
-5.788334700000008
 20
-14.99283844711438
 30
0.0
 11
-4.957055236100018
 21
-14.77009778601436
 31
0.0
  0
ARC
  5
7D6
330
79F
100
AcDbEntity
  8
0
  6
SLD-Durchgehend
 62
     7
370
    15
100
AcDbCircle
 10
-4.75
 20
-15.54283844711437
 30
0.0
 40
0.7999999999999983
100
AcDbArc
 50
0.0
 51
104.9999999999994
  0
LINE
  5
7D7
330
79F
100
AcDbEntity
  8
0
  6
SLD-Gestrichelt
 62
     7
370
     0
100
AcDbLine
 10
-0.5880946094000024
 20
-12.88859743851435
 30
0.0
 11
-1.606834536400014
 21
-13.63287602031435
 31
0.0
  0
LWPOLYLINE
  5
7D8
330
79F
100
AcDbEntity
  8
0
  6
SLD-Durchgehend
 62
     7
370
    15
100
AcDbPolyline
 90
        3
 70
   128
 43
0.0
 10
-1.606834536400014
 20
-13.63287602031435
 10
-0.8737795698999946
 20
-13.09984255281438
 10
-0.5880946094000024
 20
-12.88859743851435
  0
ARC
  5
7D9
330
79F
100
AcDbEntity
  8
0
  6
SLD-Gestrichelt
 62
     7
370
     0
100
AcDbCircle
 10
-0.2507796740999879
 20
-13.30592690121433
 30
0.0
 40
0.5366052981813321
100
AcDbArc
 50
79.17501233750022
 51
128.9475735932994
  0
ARC
  5
7DA
330
79F
100
AcDbEntity
  8
0
  6
SLD-Durchgehend
 62
     7
370
    15
100
AcDbCircle
 10
-0.2491211379000049
 20
-13.31254874071439
 30
0.0
 40
0.5428054172550294
100
AcDbArc
 50
79.47823807249953
 51
128.6443478602995
  0
ARC
  5
7DB
330
79F
100
AcDbEntity
  8
0
  6
SLD-Gestrichelt
 62
     7
370
     0
100
AcDbCircle
 10
59.74303273690001
 20
48.48590677738561
 30
0.0
 40
96.02022913003864
100
AcDbArc
 50
202.7966639678998
 51
208.4062588424005
  0
LINE
  5
7DC
330
79F
100
AcDbEntity
  8
0
  6
SLD-Durchgehend
 62
     7
370
    15
100
AcDbLine
 10
-26.0
 20
15.00716155288561
 30
0.0
 11
-27.9946034646
 21
14.72683831708561
 31
0.0
  0
LINE
  5
7DD
330
79F
100
AcDbEntity
  8
0
  6
SLD-Gestrichelt
 62
     7
370
     0
100
AcDbLine
 10
-28.76722234640002
 20
11.2954170427856
 30
0.0
 11
-30.0
 21
12.00716155288561
 31
0.0
  0
ARC
  5
7DE
330
79F
100
AcDbEntity
  8
0
  6
SLD-Durchgehend
 62
     7
370
    15
100
AcDbCircle
 10
-28.05027270489999
 20
15.12294554458561
 30
0.0
 40
0.4000000000000015
100
AcDbArc
 50
259.9999999999998
 51
278.0000000000006
  0
LINE
  5
7DF
330
79F
100
AcDbEntity
  8
0
  6
SLD-Durchgehend
 62
     7
370
    15
100
AcDbLine
 10
-28.119731976
 20
14.72902244338563
 30
0.0
 11
-29.06108145790001
 21
14.8950077552856
 31
0.0
  0
ARC
  5
7E0
330
79F
100
AcDbEntity
  8
0
  6
SLD-Durchgehend
 62
     7
370
    15
100
AcDbCircle
 10
-29.19999999999999
 20
14.10716155288558
 30
0.0
 40
0.7999999999999882
100
AcDbArc
 50
79.9999999999998
 51
180.0
  0
LINE
  5
7E1
330
79F
100
AcDbEntity
  8
0
  6
SLD-Gestrichelt
 62
     7
370
     0
100
AcDbLine
 10
-3.949999999999988
 20
21.03216155288559
 30
0.0
 11
-3.949999999999988
 21
13.64719912618562
 31
0.0
  0
LINE
  5
7E2
330
79F
100
AcDbEntity
  8
0
  6
SLD-Gestrichelt
 62
     7
370
     0
100
AcDbLine
 10
-1.606834536400014
 20
21.03216155288559
 30
0.0
 11
-1.606834536400014
 21
13.64719912618562
 31
0.0
  0
LINE
  5
7E3
330
79F
100
AcDbEntity
  8
0
  6
SLD-Durchgehend
 62
     7
370
    15
100
AcDbLine
 10
-3.949999999999988
 20
13.64719912618562
 30
0.0
 11
-3.949999999999988
 21
21.03216155288559
 31
0.0
  0
LINE
  5
7E4
330
79F
100
AcDbEntity
  8
0
  6
SLD-Durchgehend
 62
     7
370
    15
100
AcDbLine
 10
-1.606834536400014
 20
13.64719912618562
 30
0.0
 11
-1.606834536400014
 21
21.03216155288559
 31
0.0
  0
ARC
  5
7E5
330
79F
100
AcDbEntity
  8
0
  6
SLD-Gestrichelt
 62
     7
370
     0
100
AcDbCircle
 10
-14.19999999999999
 20
0.0071615528856199
 30
0.0
 40
4.000000000000013
100
AcDbArc
 50
0.0
 51
44.42700400079998
  0
CIRCLE
  5
7E6
330
79F
100
AcDbEntity
  8
0
  6
SLD-Durchgehend
 62
     7
370
    15
100
AcDbCircle
 10
-14.19999999999999
 20
0.0071615528856199
 30
0.0
 40
4.942344702964476
  0
LWPOLYLINE
  5
7E7
330
79F
100
AcDbEntity
  8
0
  6
SLD-Durchgehend
 62
     7
370
    15
100
AcDbPolyline
 90
       20
 70
   128
 43
0.0
 10
-20.95
 20
0.0071615528856199
 10
-20.9006393387
 20
0.6838985296856209
 10
-20.73273133709998
 20
1.417022966385629
 10
-20.4561218859
 20
2.113899082285624
 10
-20.0579675513
 20
2.796402088485621
 10
-19.5683631791
 20
3.413815953985633
 10
-18.64420103779998
 20
4.243015987885627
 10
-17.63263297290001
 20
4.858827792385625
 10
-16.52821761880001
 20
5.302233811385619
 10
-15.3536071181
 20
5.568874565585629
 10
-14.14818960759999
 20
5.653603199785621
 10
-12.91131613520001
 20
5.547718630785622
 10
-11.7107588844
 20
5.250121611985615
 10
-10.5801857319
 20
4.761949523585613
 10
-9.555473373300003
 20
4.089691875485627
 10
-8.834776801700002
 20
3.416686169585616
 10
-8.234052702500008
 20
2.633223231285624
 10
-7.849548165300006
 20
1.90727327478562
 10
-7.585777725300004
 20
1.126127955885634
 10
-7.449999999999986
 20
0.0071615528856199
  0
LWPOLYLINE
  5
7E8
330
79F
100
AcDbEntity
  8
0
  6
SLD-Durchgehend
 62
     7
370
    15
100
AcDbPolyline
 90
       21
 70
   128
 43
0.0
 10
-7.449999999999986
 20
0.0071615528856199
 10
-7.480888330599981
 20
-0.5285228168143732
 10
-7.627587874999987
 20
-1.268866791414382
 10
-7.885670644100002
 20
-1.975744012414379
 10
-8.261754587799996
 20
-2.661628457114375
 10
-8.730205990000001
 20
-3.285195413514371
 10
-9.373083863900003
 20
-3.924307311214376
 10
-10.10061297549998
 20
-4.466032678414363
 10
-11.05387813989999
 20
-4.979758504114371
 10
-12.0774144831
 20
-5.348780922414391
 10
-13.27273556989999
 20
-5.58452020871438
 10
-14.49335345290001
 20
-5.634028213814374
 10
-15.72541346099999
 20
-5.490563078614369
 10
-16.91451420679999
 20
-5.156107388714374
 10
-18.02788078460001
 20
-4.631517164214372
 10
-19.0280286353
 20
-3.92359820391438
 10
-19.70702479799999
 20
-3.241085092814372
 10
-20.2658474977
 20
-2.455072275414377
 10
-20.61899483239999
 20
-1.726326918914381
 10
-20.8514107009
 20
-0.9475886412143808
 10
-20.95
 20
0.0071615528856199
  0
LINE
  5
7E9
330
79F
100
AcDbEntity
  8
0
  6
SLD-Durchgehend
 62
     7
370
    15
100
AcDbLine
 10
-5.788334700000008
 20
15.00716155288561
 30
0.0
 11
-26.0
 21
15.00716155288561
 31
0.0
  0
ARC
  5
7EA
330
79F
100
AcDbEntity
  8
0
  6
SLD-Gestrichelt
 62
     7
370
     0
100
AcDbCircle
 10
-14.19999999999999
 20
0.0071615528856199
 30
0.0
 40
4.000000000000013
100
AcDbArc
 50
180.0
 51
0.0
  0
ARC
  5
7EB
330
79F
100
AcDbEntity
  8
0
  6
SLD-Gestrichelt
 62
     7
370
     0
100
AcDbCircle
 10
-14.19999999999999
 20
0.0071615528856199
 30
0.0
 40
4.0
100
AcDbArc
 50
135.5729959992
 51
180.0
  0
CIRCLE
  5
7EC
330
79F
100
AcDbEntity
  8
0
  6
SLD-Durchgehend
 62
     7
370
    15
100
AcDbCircle
 10
-14.19999999999999
 20
0.0071615528856199
 30
0.0
 40
4.0
  0
ARC
  5
7ED
330
79F
100
AcDbEntity
  8
0
  6
SLD-Gestrichelt
 62
     7
370
     0
100
AcDbCircle
 10
-29.55343092350002
 20
-0.0454575067143708
 30
0.0
 40
5.615855268647596
100
AcDbArc
 50
0.5368539627000161
 51
30.52791394059945
  0
ARC
  5
7EE
330
79F
100
AcDbEntity
  8
0
  6
SLD-Gestrichelt
 62
     7
370
     0
100
AcDbCircle
 10
-29.8119356025
 20
-0.1173045693143706
 30
0.0
 40
5.875431932450909
100
AcDbArc
 50
1.213854074699754
 51
29.8509138286
  0
ARC
  5
7EF
330
79F
100
AcDbEntity
  8
0
  6
SLD-Gestrichelt
 62
     7
370
     0
100
AcDbCircle
 10
-14.19999999999999
 20
0.0057749240856282
 30
0.0
 40
4.000970762717265
100
AcDbArc
 50
44.44118486079985
 51
135.5588151392001
  0
LINE
  5
7F0
330
79F
100
AcDbEntity
  8
0
  6
SLD-Gestrichelt
 62
     7
370
     0
100
AcDbLine
 10
3.0
 20
5.007161552885619
 30
0.0
 11
-0.0043030950999992
 21
0.0071615528856199
 31
0.0
  0
LINE
  5
7F1
330
79F
100
AcDbEntity
  8
0
  6
SLD-Gestrichelt
 62
     7
370
     0
100
AcDbLine
 10
3.0
 20
-4.99283844711438
 30
0.0
 11
3.0
 21
5.007161552885619
 31
0.0
  0
LINE
  5
7F2
330
79F
100
AcDbEntity
  8
0
  6
SLD-Gestrichelt
 62
     7
370
     0
100
AcDbLine
 10
-0.0043030950999992
 20
0.0071615528856199
 30
0.0
 11
3.0
 21
-4.99283844711438
 31
0.0
  0
LINE
  5
7F3
330
79F
100
AcDbEntity
  8
0
  6
SLD-Gestrichelt
 62
     7
370
     0
100
AcDbLine
 10
-1.606834536400014
 20
13.64719912618562
 30
0.0
 11
-3.949999999999988
 21
13.64719912618562
 31
0.0
  0
LINE
  5
7F4
330
79F
100
AcDbEntity
  8
0
  6
SLD-Durchgehend
 62
     7
370
    15
100
AcDbLine
 10
-1.606834536400014
 20
13.64719912618562
 30
0.0
 11
-3.949999999999988
 21
13.64719912618562
 31
0.0
  0
LINE
  5
7F5
330
79F
100
AcDbEntity
  8
0
  6
SLD-Durchgehend
 62
     7
370
    15
100
AcDbLine
 10
-4.957055236100018
 20
14.7844208918856
 30
0.0
 11
-5.788334700000008
 21
15.00716155288561
 31
0.0
  0
ARC
  5
7F6
330
79F
100
AcDbEntity
  8
0
  6
SLD-Durchgehend
 62
     7
370
    15
100
AcDbCircle
 10
-4.75
 20
15.5571615528856
 30
0.0
 40
0.8000000000000119
100
AcDbArc
 50
255.0000000000004
 51
0.0
  0
LWPOLYLINE
  5
7F7
330
79F
100
AcDbEntity
  8
0
  6
SLD-Gestrichelt
 62
     7
370
     0
100
AcDbPolyline
 90
        3
 70
   128
 43
0.0
 10
-1.606834536400014
 20
13.64719912618562
 10
-0.8737795698999946
 20
13.11416565868562
 10
-0.5880946094000024
 20
12.90292054428562
  0
ARC
  5
7F8
330
79F
100
AcDbEntity
  8
0
  6
SLD-Gestrichelt
 62
     7
370
     0
100
AcDbCircle
 10
-0.2469887967999966
 20
13.33538539018561
 30
0.0
 40
0.5507985278797359
100
AcDbArc
 50
231.7354575228998
 51
280.1419565443005
  0
LINE
  5
7F9
330
79F
100
AcDbEntity
  8
0
  6
SLD-Durchgehend
 62
     7
370
    15
100
AcDbLine
 10
-0.5880946094000024
 20
12.90292054428562
 30
0.0
 11
-1.606834536400014
 21
13.64719912618562
 31
0.0
  0
ARC
  5
7FA
330
79F
100
AcDbEntity
  8
0
  6
SLD-Durchgehend
 62
     7
370
    15
100
AcDbCircle
 10
-0.2490740635000179
 20
13.32705979488562
 30
0.0
 40
0.5429816151361857
100
AcDbArc
 50
231.3641575190001
 51
280.5132565491998
  0
ARC
  5
7FB
330
79F
100
AcDbEntity
  8
0
  6
SLD-Durchgehend
 62
     7
370
    15
100
AcDbCircle
 10
0.4000000000000057
 20
27.10716155288563
 30
0.0
 40
0.4000000000000057
100
AcDbArc
 50
90.0
 51
180.0
  0
LINE
  5
7FC
330
79F
100
AcDbEntity
  8
0
  6
SLD-Durchgehend
 62
     7
370
    15
100
AcDbLine
 10
-1.606834536400014
 20
21.03216155288559
 30
0.0
 11
-3.949999999999988
 21
21.03216155288559
 31
0.0
  0
ARC
  5
7FD
330
79F
100
AcDbEntity
  8
0
  6
SLD-Gestrichelt
 62
     7
370
     0
100
AcDbCircle
 10
-0.25
 20
21.2821615528856
 30
0.0
 40
0.8000000000000289
100
AcDbArc
 50
345.6249999999998
 51
25.00000000000003
  0
ARC
  5
7FE
330
79F
100
AcDbEntity
  8
0
  6
SLD-Gestrichelt
 62
     7
370
     0
100
AcDbCircle
 10
-0.25
 20
21.2821615528856
 30
0.0
 40
0.8000000000000289
100
AcDbArc
 50
288.2099568642999
 51
345.6249999999998
  0
LINE
  5
7FF
330
79F
100
AcDbEntity
  8
0
  6
SLD-Durchgehend
 62
     7
370
    15
100
AcDbLine
 10
-0.5880946094000024
 20
20.55711532328564
 30
0.0
 11
-1.606834536400014
 21
21.03216155288559
 31
0.0
  0
ARC
  5
800
330
79F
100
AcDbEntity
  8
0
  6
SLD-Durchgehend
 62
     7
370
    15
100
AcDbCircle
 10
-0.25
 20
21.2821615528856
 30
0.0
 40
0.8000000000000204
100
AcDbArc
 50
245.0000000000003
 51
288.2099568642999
  0
LINE
  5
801
330
79F
100
AcDbEntity
  8
0
  6
SLD-Gestrichelt
 62
     7
370
     0
100
AcDbLine
 10
0.475046229599997
 20
21.6202561622856
 30
0.0
 11
0.0
 21
22.63899608928562
 31
0.0
  0
LINE
  5
802
330
79F
100
AcDbEntity
  8
0
  6
SLD-Gestrichelt
 62
     7
370
     0
100
AcDbLine
 10
44.99999999999997
 20
0.0071615528856199
 30
0.0
 11
44.99999999999997
 21
-9.192838447114382
 31
0.0
  0
LINE
  5
803
330
79F
100
AcDbEntity
  8
0
  6
SLD-Gestrichelt
 62
     7
370
     0
100
AcDbLine
 10
44.29999999999998
 20
0.0071615528856199
 30
0.0
 11
44.29999999999998
 21
-8.49283844711438
 31
0.0
  0
LWPOLYLINE
  5
804
330
79F
100
AcDbEntity
  8
0
  6
SLD-Gestrichelt
 62
     7
370
     0
100
AcDbPolyline
 90
       34
 70
   128
 43
0.0
 10
37.54083330569997
 20
0.0071615528856199
 10
37.5570271073
 20
-0.6303568958143729
 10
37.68662547719998
 20
-1.910640835114378
 10
37.7974753901
 20
-2.542912242014379
 10
37.92762545879998
 20
-3.131468721914373
 10
38.2469398217
 20
-4.260028932714376
 10
38.42849571690001
 20
-4.794087994714386
 10
38.63169328369999
 20
-5.336111019314373
 10
39.05014861079999
 20
-6.327992429914387
 10
39.25555431659997
 20
-6.771358113814386
 10
39.4594825533
 20
-7.190347440414385
 10
39.64695311649998
 20
-7.559920817214376
 10
39.8149910855
 20
-7.880262669514379
 10
39.95446903569998
 20
-8.139226857814376
 10
40.0479055492
 20
-8.309506134114371
 10
40.14607046239999
 20
-8.485832645314374
 10
40.14561577980001
 20
-8.485021726114382
 10
40.14510847779999
 20
-8.484116961214382
 10
40.1165205678
 20
-8.43302174351437
 10
39.98256760489999
 20
-8.190693778514372
 10
39.87854465779999
 20
-7.998998021614369
 10
39.75624959409998
 20
-7.769367369614386
 10
39.45604410359999
 20
-7.183437248714382
 10
39.28317762149998
 20
-6.829260242714369
 10
39.08604925669999
 20
-6.407219451014369
 10
38.66991362169999
 20
-5.432878743214386
 10
38.4604058442
 20
-4.882626324914379
 10
38.2482581078
 20
-4.264119623714377
 10
38.05060283749996
 20
-3.604726377414379
 10
37.87209928319998
 20
-2.894293247014372
 10
37.72438547370001
 20
-2.146320669614381
 10
37.64676619050002
 20
-1.626299520314374
 10
37.55307207569998
 20
-0.5470212128143716
 10
37.54083330569997
 20
0.0071615528856199
  0
LWPOLYLINE
  5
805
330
79F
100
AcDbEntity
  8
0
  6
SLD-Gestrichelt
 62
     7
370
     0
100
AcDbPolyline
 90
       34
 70
   128
 43
0.0
 10
12.45916669440001
 20
0.0071615528856199
 10
12.44297289269999
 20
-0.6303568958143729
 10
12.31337452279999
 20
-1.910640835114378
 10
12.20252460989999
 20
-2.542912242014379
 10
12.07237454119999
 20
-3.131468721914373
 10
11.75306017829998
 20
-4.260028932714376
 10
11.57150428309998
 20
-4.794087994714386
 10
11.36830671629998
 20
-5.336111019314373
 10
11.16029934119998
 20
-5.846453938714375
 10
10.9498513892
 20
-6.327992429914387
 10
10.74444568349999
 20
-6.771358113814386
 10
10.54051744669999
 20
-7.190347440414385
 10
10.35304688350001
 20
-7.559920817214376
 10
10.18500891449997
 20
-7.880262669514379
 10
10.0455309644
 20
-8.139226857814376
 10
9.952094450900004
 20
-8.309506134114371
 10
9.853929537699995
 20
-8.485832645314374
 10
9.854384220299976
 20
-8.485021726114382
 10
9.854891522200006
 20
-8.484116961214382
 10
9.883479432200003
 20
-8.43302174351437
 10
10.0174323951
 20
-8.190693778514372
 10
10.12145534219998
 20
-7.998998021614369
 10
10.24375040589998
 20
-7.769367369614386
 10
10.5439558964
 20
-7.183437248714382
 10
10.71682237850001
 20
-6.829260242714369
 10
10.9139507433
 20
-6.407219451014369
 10
11.33008637829999
 20
-5.432878743214386
 10
11.53959415579999
 20
-4.882626324914379
 10
11.75174189219998
 20
-4.264119623714377
 10
11.94939716249999
 20
-3.604726377414379
 10
12.12790071680001
 20
-2.894293247014372
 10
12.27561452629998
 20
-2.146320669614381
 10
12.44692792430001
 20
-0.5470212128143716
 10
12.45916669440001
 20
0.0071615528856199
  0
LINE
  5
806
330
79F
100
AcDbEntity
  8
0
  6
SLD-Gestrichelt
 62
     7
370
     0
100
AcDbLine
 10
44.99999999999997
 20
-20.99283844711437
 30
0.0
 11
44.99999999999997
 21
21.00716155288562
 31
0.0
  0
LINE
  5
807
330
79F
100
AcDbEntity
  8
0
  6
SLD-Durchgehend
 62
     7
370
    15
100
AcDbLine
 10
44.99999999999997
 20
0.0071615528856199
 30
0.0
 11
44.99999999999997
 21
-20.99283844711437
 31
0.0
  0
LINE
  5
808
330
79F
100
AcDbEntity
  8
0
  6
SLD-Gestrichelt
 62
     7
370
     0
100
AcDbLine
 10
37.39081696259999
 20
-22.64283844711437
 30
0.0
 11
39.86202630460002
 21
-22.64283844711437
 31
0.0
  0
LINE
  5
809
330
79F
100
AcDbEntity
  8
0
  6
SLD-Gestrichelt
 62
     7
370
     0
100
AcDbLine
 10
37.39081696259999
 20
-22.65283844711437
 30
0.0
 11
39.86202630460002
 21
-22.65283844711437
 31
0.0
  0
LINE
  5
80A
330
79F
100
AcDbEntity
  8
0
  6
SLD-Gestrichelt
 62
     7
370
     0
100
AcDbLine
 10
40.03220698929999
 20
-22.64283844711437
 30
0.0
 11
37.5609976474
 21
-22.64283844711437
 31
0.0
  0
LINE
  5
80B
330
79F
100
AcDbEntity
  8
0
  6
SLD-Gestrichelt
 62
     7
370
     0
100
AcDbLine
 10
40.03220698929999
 20
-22.65283844711437
 30
0.0
 11
37.5609976474
 21
-22.65283844711437
 31
0.0
  0
LINE
  5
80C
330
79F
100
AcDbEntity
  8
0
  6
SLD-Gestrichelt
 62
     7
370
     0
100
AcDbLine
 10
38.55975430469999
 20
-22.64283844711437
 30
0.0
 11
41.25863795089998
 21
-22.64283844711437
 31
0.0
  0
LINE
  5
80D
330
79F
100
AcDbEntity
  8
0
  6
SLD-Gestrichelt
 62
     7
370
     0
100
AcDbLine
 10
38.55975430469999
 20
-22.65283844711437
 30
0.0
 11
41.25863795089998
 21
-22.65283844711437
 31
0.0
  0
LINE
  5
80E
330
79F
100
AcDbEntity
  8
0
  6
SLD-Gestrichelt
 62
     7
370
     0
100
AcDbLine
 10
41.38977268089999
 20
-22.64283844711437
 30
0.0
 11
38.6908890347
 21
-22.64283844711437
 31
0.0
  0
LINE
  5
80F
330
79F
100
AcDbEntity
  8
0
  6
SLD-Gestrichelt
 62
     7
370
     0
100
AcDbLine
 10
41.38977268089999
 20
-22.65283844711437
 30
0.0
 11
38.6908890347
 21
-22.65283844711437
 31
0.0
  0
LINE
  5
810
330
79F
100
AcDbEntity
  8
0
  6
SLD-Gestrichelt
 62
     7
370
     0
100
AcDbLine
 10
40.14925740749997
 20
-22.64283844711437
 30
0.0
 11
9.857659646900003
 21
-22.64283844711437
 31
0.0
  0
LINE
  5
811
330
79F
100
AcDbEntity
  8
0
  6
SLD-Gestrichelt
 62
     7
370
     0
100
AcDbLine
 10
38.6908890347
 20
-22.64283844711437
 30
0.0
 11
39.42093254050002
 21
-22.64283844711437
 31
0.0
  0
LINE
  5
812
330
79F
100
AcDbEntity
  8
0
  6
SLD-Gestrichelt
 62
     7
370
     0
100
AcDbLine
 10
42.49100326119999
 20
-22.64283844711437
 30
0.0
 11
25.15
 21
-22.64283844711437
 31
0.0
  0
LINE
  5
813
330
79F
100
AcDbEntity
  8
0
  6
SLD-Durchgehend
 62
     7
370
    15
100
AcDbLine
 10
9.288888065500003
 20
-22.64283844711437
 30
0.0
 11
42.49100326119999
 21
-22.64283844711437
 31
0.0
  0
LWPOLYLINE
  5
814
330
79F
100
AcDbEntity
  8
0
  6
SLD-Durchgehend
 62
     7
370
    15
100
AcDbPolyline
 90
        3
 70
   128
 43
0.0
 10
35.14999999999997
 20
-23.99280517961437
 10
39.47384355989999
 20
-22.83427421881437
 10
40.14966996339999
 20
-22.65319120891438
  0
LINE
  5
815
330
79F
100
AcDbEntity
  8
0
  6
SLD-Durchgehend
 62
     7
370
    15
100
AcDbLine
 10
40.04274361409996
 20
-22.65319120891438
 30
0.0
 11
37.06672694429997
 21
-23.45692852091437
 31
0.0
  0
LINE
  5
816
330
79F
100
AcDbEntity
  8
0
  6
SLD-Durchgehend
 62
     7
370
    15
100
AcDbLine
 10
37.0416602976
 20
-23.45692852091437
 30
0.0
 11
40.01767696739999
 21
-22.65319120891438
 31
0.0
  0
LINE
  5
817
330
79F
100
AcDbEntity
  8
0
  6
SLD-Durchgehend
 62
     7
370
    15
100
AcDbLine
 10
39.6985842119
 20
-22.65319120891438
 30
0.0
 11
36.79315439639999
 21
-23.45692852091437
 31
0.0
  0
LINE
  5
818
330
79F
100
AcDbEntity
  8
0
  6
SLD-Durchgehend
 62
     7
370
    15
100
AcDbLine
 10
36.74341641899999
 20
-23.45692852091437
 30
0.0
 11
39.64884623449997
 21
-22.65319120891438
 31
0.0
  0
LINE
  5
819
330
79F
100
AcDbEntity
  8
0
  6
SLD-Durchgehend
 62
     7
370
    15
100
AcDbLine
 10
40.01767696739999
 20
-22.64283844711437
 30
0.0
 11
37.0416602976
 21
-23.44657575911436
 31
0.0
  0
LINE
  5
81A
330
79F
100
AcDbEntity
  8
0
  6
SLD-Durchgehend
 62
     7
370
    15
100
AcDbLine
 10
39.64884623449997
 20
-22.64283844711437
 30
0.0
 11
36.74341641899999
 21
-23.44657575911436
 31
0.0
  0
LWPOLYLINE
  5
81B
330
79F
100
AcDbEntity
  8
0
  6
SLD-Durchgehend
 62
     7
370
    15
100
AcDbPolyline
 90
        3
 70
   128
 43
0.0
 10
40.14925740749997
 20
-22.64294898851436
 10
39.3978313253
 20
-22.84428838521435
 10
35.14999999999997
 20
-23.98245241781436
  0
LINE
  5
81C
330
79F
100
AcDbEntity
  8
0
  6
SLD-Durchgehend
 62
     7
370
    15
100
AcDbLine
 10
35.14999999999997
 20
-23.99293717101437
 30
0.0
 11
40.14999999999997
 21
-22.65319120891438
 31
0.0
  0
LINE
  5
81D
330
79F
100
AcDbEntity
  8
0
  6
SLD-Gestrichelt
 62
     7
370
     0
100
AcDbLine
 10
24.84999999999999
 20
-22.64283844711437
 30
0.0
 11
9.288888065500003
 21
-22.64283844711437
 31
0.0
  0
LINE
  5
81E
330
79F
100
AcDbEntity
  8
0
  6
SLD-Durchgehend
 62
     7
370
    15
100
AcDbLine
 10
28.94999999999999
 20
-25.64386940231437
 30
0.0
 11
21.05000000000001
 21
-25.64386940231437
 31
0.0
  0
LINE
  5
81F
330
79F
100
AcDbEntity
  8
0
  6
SLD-Gestrichelt
 62
     7
370
     0
100
AcDbLine
 10
9.849999999999994
 20
-8.485021726114382
 30
0.0
 11
9.849999999999994
 21
-22.64283844711437
 31
0.0
  0
LWPOLYLINE
  5
820
330
79F
100
AcDbEntity
  8
0
  6
SLD-Durchgehend
 62
     7
370
    15
100
AcDbPolyline
 90
        3
 70
   128
 43
0.0
 10
9.850330036599984
 20
-22.65319120891438
 10
10.5261564401
 20
-22.83427421881437
 10
14.84999999999999
 20
-23.99280517961437
  0
LWPOLYLINE
  5
821
330
79F
100
AcDbEntity
  8
0
  6
SLD-Durchgehend
 62
     7
370
    15
100
AcDbPolyline
 90
        3
 70
   128
 43
0.0
 10
16.72969898190001
 20
-23.99280517961437
 10
13.2316360609
 20
-22.83427421881437
 10
12.6848810152
 20
-22.65319120891438
  0
LWPOLYLINE
  5
822
330
79F
100
AcDbEntity
  8
0
  6
SLD-Durchgehend
 62
     7
370
    15
100
AcDbPolyline
 90
        3
 70
   128
 43
0.0
 10
12.80243806569998
 20
-22.65319120891438
 10
13.34919311129999
 20
-22.83427421881437
 10
16.84725603229998
 20
-23.99280517961437
  0
LINE
  5
823
330
79F
100
AcDbEntity
  8
0
  6
SLD-Durchgehend
 62
     7
370
    15
100
AcDbLine
 10
16.0745764662
 20
-23.45692852091437
 30
0.0
 11
13.88791117029998
 21
-22.65319120891438
 31
0.0
  0
LINE
  5
824
330
79F
100
AcDbEntity
  8
0
  6
SLD-Durchgehend
 62
     7
370
    15
100
AcDbLine
 10
14.0248205915
 20
-22.65319120891438
 30
0.0
 11
16.21148588739998
 21
-23.45692852091437
 31
0.0
  0
LINE
  5
825
330
79F
100
AcDbEntity
  8
0
  6
SLD-Durchgehend
 62
     7
370
    15
100
AcDbLine
 10
16.21148588739998
 20
-23.44657575911436
 30
0.0
 11
14.0248205915
 21
-22.64283844711437
 31
0.0
  0
LWPOLYLINE
  5
826
330
79F
100
AcDbEntity
  8
0
  6
SLD-Durchgehend
 62
     7
370
    15
100
AcDbPolyline
 90
        3
 70
   128
 43
0.0
 10
16.84725603229998
 20
-23.98245241781436
 10
13.41068830089999
 20
-22.84428838521435
 10
12.80243806569998
 20
-22.64283844711437
  0
LWPOLYLINE
  5
827
330
79F
100
AcDbEntity
  8
0
  6
SLD-Durchgehend
 62
     7
370
    15
100
AcDbPolyline
 90
        3
 70
   128
 43
0.0
 10
14.84999999999999
 20
-23.98245241781436
 10
10.60216867469998
 20
-22.84428838521435
 10
9.850330036599984
 20
-22.64283844711437
  0
LINE
  5
828
330
79F
100
AcDbEntity
  8
0
  6
SLD-Durchgehend
 62
     7
370
    15
100
AcDbLine
 10
9.849999999999994
 20
-22.65319120891438
 30
0.0
 11
14.84999999999999
 21
-23.99293717101437
 31
0.0
  0
LINE
  5
829
330
79F
100
AcDbEntity
  8
0
  6
SLD-Durchgehend
 62
     7
370
    15
100
AcDbLine
 10
12.9332730557
 20
-23.45692852091437
 30
0.0
 11
9.957256385899995
 21
-22.65319120891438
 31
0.0
  0
LINE
  5
82A
330
79F
100
AcDbEntity
  8
0
  6
SLD-Durchgehend
 62
     7
370
    15
100
AcDbLine
 10
9.982323032599992
 20
-22.65319120891438
 30
0.0
 11
12.95833970239999
 21
-23.45692852091437
 31
0.0
  0
LINE
  5
82B
330
79F
100
AcDbEntity
  8
0
  6
SLD-Durchgehend
 62
     7
370
    15
100
AcDbLine
 10
13.20684560359998
 20
-23.45692852091437
 30
0.0
 11
10.3014157881
 21
-22.65319120891438
 31
0.0
  0
LINE
  5
82C
330
79F
100
AcDbEntity
  8
0
  6
SLD-Durchgehend
 62
     7
370
    15
100
AcDbLine
 10
10.35115376549998
 20
-22.65319120891438
 30
0.0
 11
13.256583581
 21
-23.45692852091437
 31
0.0
  0
LINE
  5
82D
330
79F
100
AcDbEntity
  8
0
  6
SLD-Durchgehend
 62
     7
370
    15
100
AcDbLine
 10
13.256583581
 20
-23.44657575911436
 30
0.0
 11
10.35115376549998
 21
-22.64283844711437
 31
0.0
  0
LINE
  5
82E
330
79F
100
AcDbEntity
  8
0
  6
SLD-Durchgehend
 62
     7
370
    15
100
AcDbLine
 10
12.95833970239999
 20
-23.44657575911436
 30
0.0
 11
9.982323032599992
 21
-22.64283844711437
 31
0.0
  0
LINE
  5
82F
330
79F
100
AcDbEntity
  8
0
  6
SLD-Gestrichelt
 62
     7
370
     0
100
AcDbLine
 10
9.288888065500003
 20
-22.64283844711437
 30
0.0
 11
8.0
 21
-22.64283844711437
 31
0.0
  0
LINE
  5
830
330
79F
100
AcDbEntity
  8
0
  6
SLD-Durchgehend
 62
     7
370
    15
100
AcDbLine
 10
9.849999999999994
 20
-22.65319120891438
 30
0.0
 11
9.850330036599984
 21
-22.65319120891438
 31
0.0
  0
LINE
  5
831
330
79F
100
AcDbEntity
  8
0
  6
SLD-Durchgehend
 62
     7
370
    15
100
AcDbLine
 10
9.850330036599984
 20
-22.65319120891438
 30
0.0
 11
9.850330036599984
 21
-22.64283844711437
 31
0.0
  0
LINE
  5
832
330
79F
100
AcDbEntity
  8
0
  6
SLD-Durchgehend
 62
     7
370
    15
100
AcDbLine
 10
9.957256385899995
 20
-22.65319120891438
 30
0.0
 11
9.957256385899995
 21
-22.64283844711437
 31
0.0
  0
LINE
  5
833
330
79F
100
AcDbEntity
  8
0
  6
SLD-Durchgehend
 62
     7
370
    15
100
AcDbLine
 10
9.957256385899995
 20
-22.65319120891438
 30
0.0
 11
9.982323032599992
 21
-22.65319120891438
 31
0.0
  0
LINE
  5
834
330
79F
100
AcDbEntity
  8
0
  6
SLD-Durchgehend
 62
     7
370
    15
100
AcDbLine
 10
9.982323032599992
 20
-22.65319120891438
 30
0.0
 11
9.982323032599992
 21
-22.64283844711437
 31
0.0
  0
LINE
  5
835
330
79F
100
AcDbEntity
  8
0
  6
SLD-Durchgehend
 62
     7
370
    15
100
AcDbLine
 10
10.3014157881
 20
-22.65319120891438
 30
0.0
 11
10.3014157881
 21
-22.64283844711437
 31
0.0
  0
LINE
  5
836
330
79F
100
AcDbEntity
  8
0
  6
SLD-Durchgehend
 62
     7
370
    15
100
AcDbLine
 10
10.3014157881
 20
-22.65319120891438
 30
0.0
 11
10.35115376549998
 21
-22.65319120891438
 31
0.0
  0
LINE
  5
837
330
79F
100
AcDbEntity
  8
0
  6
SLD-Durchgehend
 62
     7
370
    15
100
AcDbLine
 10
10.35115376549998
 20
-22.65319120891438
 30
0.0
 11
10.35115376549998
 21
-22.64283844711437
 31
0.0
  0
LINE
  5
838
330
79F
100
AcDbEntity
  8
0
  6
SLD-Durchgehend
 62
     7
370
    15
100
AcDbLine
 10
9.849999999999994
 20
-22.64283844711437
 30
0.0
 11
9.849999999999994
 21
-22.65319120891438
 31
0.0
  0
LINE
  5
839
330
79F
100
AcDbEntity
  8
0
  6
SLD-Durchgehend
 62
     7
370
    15
100
AcDbLine
 10
12.95833970239999
 20
-23.45692852091437
 30
0.0
 11
12.9332730557
 21
-23.45692852091437
 31
0.0
  0
LINE
  5
83A
330
79F
100
AcDbEntity
  8
0
  6
SLD-Durchgehend
 62
     7
370
    15
100
AcDbLine
 10
12.95833970239999
 20
-23.45692852091437
 30
0.0
 11
12.95833970239999
 21
-23.44657575911436
 31
0.0
  0
LINE
  5
83B
330
79F
100
AcDbEntity
  8
0
  6
SLD-Durchgehend
 62
     7
370
    15
100
AcDbLine
 10
13.256583581
 20
-23.45692852091437
 30
0.0
 11
13.20684560359998
 21
-23.45692852091437
 31
0.0
  0
LINE
  5
83C
330
79F
100
AcDbEntity
  8
0
  6
SLD-Durchgehend
 62
     7
370
    15
100
AcDbLine
 10
13.256583581
 20
-23.45692852091437
 30
0.0
 11
13.256583581
 21
-23.44657575911436
 31
0.0
  0
LINE
  5
83D
330
79F
100
AcDbEntity
  8
0
  6
SLD-Durchgehend
 62
     7
370
    15
100
AcDbLine
 10
13.74002815169999
 20
-23.45692852091437
 30
0.0
 11
13.74002815169999
 21
-23.44657575911436
 31
0.0
  0
LINE
  5
83E
330
79F
100
AcDbEntity
  8
0
  6
SLD-Durchgehend
 62
     7
370
    15
100
AcDbLine
 10
13.66640324119998
 20
-23.45692852091437
 30
0.0
 11
10.87738064379996
 21
-22.65319120891438
 31
0.0
  0
LINE
  5
83F
330
79F
100
AcDbEntity
  8
0
  6
SLD-Durchgehend
 62
     7
370
    15
100
AcDbLine
 10
13.74002815169999
 20
-23.45692852091437
 30
0.0
 11
13.66640324119998
 21
-23.45692852091437
 31
0.0
  0
LINE
  5
840
330
79F
100
AcDbEntity
  8
0
  6
SLD-Durchgehend
 62
     7
370
    15
100
AcDbLine
 10
10.95100555429999
 20
-22.65319120891438
 30
0.0
 11
13.74002815169999
 21
-23.45692852091437
 31
0.0
  0
LINE
  5
841
330
79F
100
AcDbEntity
  8
0
  6
SLD-Durchgehend
 62
     7
370
    15
100
AcDbLine
 10
14.30469847009999
 20
-23.45692852091437
 30
0.0
 11
11.67606764319998
 21
-22.65319120891438
 31
0.0
  0
LINE
  5
842
330
79F
100
AcDbEntity
  8
0
  6
SLD-Durchgehend
 62
     7
370
    15
100
AcDbLine
 10
14.4010492049
 20
-23.45692852091437
 30
0.0
 11
14.30469847009999
 21
-23.45692852091437
 31
0.0
  0
LINE
  5
843
330
79F
100
AcDbEntity
  8
0
  6
SLD-Durchgehend
 62
     7
370
    15
100
AcDbLine
 10
14.4010492049
 20
-23.45692852091437
 30
0.0
 11
14.4010492049
 21
-23.44657575911436
 31
0.0
  0
LINE
  5
844
330
79F
100
AcDbEntity
  8
0
  6
SLD-Durchgehend
 62
     7
370
    15
100
AcDbLine
 10
11.77241837799999
 20
-22.65319120891438
 30
0.0
 11
14.4010492049
 21
-23.45692852091437
 31
0.0
  0
LINE
  5
845
330
79F
100
AcDbEntity
  8
0
  6
SLD-Durchgehend
 62
     7
370
    15
100
AcDbLine
 10
10.87738064379996
 20
-22.65319120891438
 30
0.0
 11
10.87738064379996
 21
-22.64283844711437
 31
0.0
  0
LINE
  5
846
330
79F
100
AcDbEntity
  8
0
  6
SLD-Durchgehend
 62
     7
370
    15
100
AcDbLine
 10
10.87738064379996
 20
-22.65319120891438
 30
0.0
 11
10.95100555429999
 21
-22.65319120891438
 31
0.0
  0
LINE
  5
847
330
79F
100
AcDbEntity
  8
0
  6
SLD-Durchgehend
 62
     7
370
    15
100
AcDbLine
 10
10.95100555429999
 20
-22.65319120891438
 30
0.0
 11
10.95100555429999
 21
-22.64283844711437
 31
0.0
  0
LINE
  5
848
330
79F
100
AcDbEntity
  8
0
  6
SLD-Durchgehend
 62
     7
370
    15
100
AcDbLine
 10
11.67606764319998
 20
-22.65319120891438
 30
0.0
 11
11.67606764319998
 21
-22.64283844711437
 31
0.0
  0
LINE
  5
849
330
79F
100
AcDbEntity
  8
0
  6
SLD-Durchgehend
 62
     7
370
    15
100
AcDbLine
 10
11.67606764319998
 20
-22.65319120891438
 30
0.0
 11
11.77241837799999
 21
-22.65319120891438
 31
0.0
  0
LINE
  5
84A
330
79F
100
AcDbEntity
  8
0
  6
SLD-Durchgehend
 62
     7
370
    15
100
AcDbLine
 10
11.77241837799999
 20
-22.65319120891438
 30
0.0
 11
11.77241837799999
 21
-22.64283844711437
 31
0.0
  0
LINE
  5
84B
330
79F
100
AcDbEntity
  8
0
  6
SLD-Durchgehend
 62
     7
370
    15
100
AcDbLine
 10
12.6848810152
 20
-22.65319120891438
 30
0.0
 11
12.6848810152
 21
-22.64283844711437
 31
0.0
  0
LINE
  5
84C
330
79F
100
AcDbEntity
  8
0
  6
SLD-Durchgehend
 62
     7
370
    15
100
AcDbLine
 10
12.6848810152
 20
-22.65319120891438
 30
0.0
 11
12.80243806569998
 21
-22.65319120891438
 31
0.0
  0
LINE
  5
84D
330
79F
100
AcDbEntity
  8
0
  6
SLD-Durchgehend
 62
     7
370
    15
100
AcDbLine
 10
12.80243806569998
 20
-22.65319120891438
 30
0.0
 11
12.80243806569998
 21
-22.64283844711437
 31
0.0
  0
LINE
  5
84E
330
79F
100
AcDbEntity
  8
0
  6
SLD-Durchgehend
 62
     7
370
    15
100
AcDbLine
 10
13.88791117029998
 20
-22.65319120891438
 30
0.0
 11
13.88791117029998
 21
-22.64283844711437
 31
0.0
  0
LINE
  5
84F
330
79F
100
AcDbEntity
  8
0
  6
SLD-Durchgehend
 62
     7
370
    15
100
AcDbLine
 10
13.88791117029998
 20
-22.65319120891438
 30
0.0
 11
14.0248205915
 21
-22.65319120891438
 31
0.0
  0
LINE
  5
850
330
79F
100
AcDbEntity
  8
0
  6
SLD-Durchgehend
 62
     7
370
    15
100
AcDbLine
 10
14.0248205915
 20
-22.65319120891438
 30
0.0
 11
14.0248205915
 21
-22.64283844711437
 31
0.0
  0
LINE
  5
851
330
79F
100
AcDbEntity
  8
0
  6
SLD-Durchgehend
 62
     7
370
    15
100
AcDbLine
 10
14.4010492049
 20
-23.44657575911436
 30
0.0
 11
11.77241837799999
 21
-22.64283844711437
 31
0.0
  0
LINE
  5
852
330
79F
100
AcDbEntity
  8
0
  6
SLD-Durchgehend
 62
     7
370
    15
100
AcDbLine
 10
13.74002815169999
 20
-23.44657575911436
 30
0.0
 11
10.95100555429999
 21
-22.64283844711437
 31
0.0
  0
LINE
  5
853
330
79F
100
AcDbEntity
  8
0
  6
SLD-Durchgehend
 62
     7
370
    15
100
AcDbLine
 10
19.2456033576
 20
-25.05329829481437
 30
0.0
 11
17.67909694729999
 21
-24.54676848111437
 31
0.0
  0
ARC
  5
854
330
79F
100
AcDbEntity
  8
0
  6
SLD-Durchgehend
 62
     7
370
    15
100
AcDbCircle
 10
20.81176699779998
 20
-18.01381103601437
 30
0.0
 40
7.07490187825049
100
AcDbArc
 50
253.0062235463993
 51
268.7178177476993
  0
LWPOLYLINE
  5
855
330
79F
100
AcDbEntity
  8
0
  6
SLD-Durchgehend
 62
     7
370
    15
100
AcDbPolyline
 90
        6
 70
   128
 43
0.0
 10
20.65345592169998
 20
-25.08694147381437
 10
20.82034724440001
 20
-25.05502244081438
 10
20.86200089350001
 20
-24.98910000001437
 10
20.79219937899996
 20
-24.91046573781437
 10
20.60372862389999
 20
-24.81254045051437
 10
20.30169310119998
 20
-24.70357274471437
  0
LWPOLYLINE
  5
856
330
79F
100
AcDbEntity
  8
0
  6
SLD-Durchgehend
 62
     7
370
    15
100
AcDbPolyline
 90
        6
 70
   128
 43
0.0
 10
20.05730207549996
 20
-24.72620329651437
 10
20.2830736427
 20
-24.81343830081438
 10
20.37228660359996
 20
-24.87336066651437
 10
20.38051152029998
 20
-24.92199468101436
 10
20.30121587979996
 20
-24.95002501851436
 10
20.25682130629999
 20
-24.95440138561437
  0
ARC
  5
857
330
79F
100
AcDbEntity
  8
0
  6
SLD-Durchgehend
 62
     7
370
    15
100
AcDbCircle
 10
20.80374821949999
 20
-16.26044147041437
 30
0.0
 40
8.711146196443875
100
AcDbArc
 50
254.9082572884003
 51
266.4003326923006
  0
LINE
  5
858
330
79F
100
AcDbEntity
  8
0
  6
SLD-Durchgehend
 62
     7
370
    15
100
AcDbLine
 10
16.86098797299997
 20
-24.34445262941437
 30
0.0
 11
18.97156489599996
 21
-25.01797174091437
 31
0.0
  0
LINE
  5
859
330
79F
100
AcDbEntity
  8
0
  6
SLD-Durchgehend
 62
     7
370
    15
100
AcDbLine
 10
17.7660560198
 20
-24.56488669521437
 30
0.0
 11
19.2456033576
 21
-25.04329829481438
 31
0.0
  0
ARC
  5
85A
330
79F
100
AcDbEntity
  8
0
  6
SLD-Durchgehend
 62
     7
370
    15
100
AcDbCircle
 10
20.58668003359997
 20
-17.56939970181434
 30
0.0
 40
7.38237472741283
100
AcDbArc
 50
253.8695284313994
 51
267.4390615492999
  0
LWPOLYLINE
  5
85B
330
79F
100
AcDbEntity
  8
0
  6
SLD-Durchgehend
 62
     7
370
    15
100
AcDbPolyline
 90
        4
 70
   128
 43
0.0
 10
20.30169310119998
 20
-24.69357274471438
 10
20.68315676289997
 20
-24.83831887541437
 10
20.83383082169999
 20
-24.93545490841437
 10
20.84976305680001
 20
-24.99118409351437
  0
LINE
  5
85C
330
79F
100
AcDbEntity
  8
0
  6
SLD-Durchgehend
 62
     7
370
    15
100
AcDbLine
 10
14.84999999999999
 20
-23.98258440921437
 30
0.0
 11
21.05000000000001
 21
-25.64386940231437
 31
0.0
  0
LINE
  5
85D
330
79F
100
AcDbEntity
  8
0
  6
SLD-Durchgehend
 62
     7
370
    15
100
AcDbLine
 10
19.2456033576
 20
-25.05329829481437
 30
0.0
 11
19.2456033576
 21
-25.04329829481438
 31
0.0
  0
LINE
  5
85E
330
79F
100
AcDbEntity
  8
0
  6
SLD-Durchgehend
 62
     7
370
    15
100
AcDbLine
 10
20.25682130629999
 20
-24.95440138561437
 30
0.0
 11
20.25682130629999
 21
-24.94440138561435
 31
0.0
  0
LINE
  5
85F
330
79F
100
AcDbEntity
  8
0
  6
SLD-Durchgehend
 62
     7
370
    15
100
AcDbLine
 10
18.97156489599996
 20
-25.01797174091437
 30
0.0
 11
19.2456033576
 21
-25.05329829481437
 31
0.0
  0
LWPOLYLINE
  5
860
330
79F
100
AcDbEntity
  8
0
  6
SLD-Durchgehend
 62
     7
370
    15
100
AcDbPolyline
 90
        3
 70
   128
 43
0.0
 10
20.25682130629999
 20
-24.94440138561435
 10
20.36212208559998
 20
-24.92490330971438
 10
20.37977713770001
 20
-24.89349773141437
  0
LINE
  5
861
330
79F
100
AcDbEntity
  8
0
  6
SLD-Durchgehend
 62
     7
370
    15
100
AcDbLine
 10
20.86430960659999
 20
-25.00152499801437
 30
0.0
 11
20.86430960659999
 21
-24.99118409351437
 31
0.0
  0
ARC
  5
862
330
79F
100
AcDbEntity
  8
0
  6
SLD-Durchgehend
 62
     7
370
    15
100
AcDbCircle
 10
3.09586669379999
 20
-93.73928955851438
 30
0.0
 40
70.71262672031666
100
AcDbArc
 50
77.21507403139991
 51
78.09835160990068
  0
ARC
  5
863
330
79F
100
AcDbEntity
  8
0
  6
SLD-Durchgehend
 62
     7
370
    15
100
AcDbCircle
 10
18.55026281920001
 20
-29.96145863401437
 30
0.0
 40
5.541919528152433
100
AcDbArc
 50
71.57680465929989
 51
89.55443269399998
  0
LINE
  5
864
330
79F
100
AcDbEntity
  8
0
  6
SLD-Durchgehend
 62
     7
370
    15
100
AcDbLine
 10
18.59335976779998
 20
-24.41970668091439
 30
0.0
 11
18.96675720369998
 21
-24.55382375971437
 31
0.0
  0
LINE
  5
865
330
79F
100
AcDbEntity
  8
0
  6
SLD-Durchgehend
 62
     7
370
    15
100
AcDbLine
 10
19.73629890219998
 20
-23.45692852091437
 30
0.0
 11
18.45910155029996
 21
-22.65319120891438
 31
0.0
  0
LINE
  5
866
330
79F
100
AcDbEntity
  8
0
  6
SLD-Durchgehend
 62
     7
370
    15
100
AcDbLine
 10
18.64006696079998
 20
-22.65319120891438
 30
0.0
 11
19.91726431270001
 21
-23.45692852091437
 31
0.0
  0
ARC
  5
867
330
79F
100
AcDbEntity
  8
0
  6
SLD-Durchgehend
 62
     7
370
    15
100
AcDbCircle
 10
18.50315209999997
 20
-30.23497548301437
 30
0.0
 40
5.825967219262195
100
AcDbArc
 50
72.0184248356004
 51
89.11281251759929
  0
LINE
  5
868
330
79F
100
AcDbEntity
  8
0
  6
SLD-Durchgehend
 62
     7
370
    15
100
AcDbLine
 10
19.91726431270001
 20
-23.44657575911436
 30
0.0
 11
18.64006696079998
 21
-22.64283844711437
 31
0.0
  0
LINE
  5
869
330
79F
100
AcDbEntity
  8
0
  6
SLD-Durchgehend
 62
     7
370
    15
100
AcDbLine
 10
14.84999999999999
 20
-23.99280517961437
 30
0.0
 11
14.84999999999999
 21
-23.99293717101437
 31
0.0
  0
LINE
  5
86A
330
79F
100
AcDbEntity
  8
0
  6
SLD-Durchgehend
 62
     7
370
    15
100
AcDbLine
 10
14.84999999999999
 20
-23.99280517961437
 30
0.0
 11
14.84999999999999
 21
-23.98245241781436
 31
0.0
  0
LINE
  5
86B
330
79F
100
AcDbEntity
  8
0
  6
SLD-Durchgehend
 62
     7
370
    15
100
AcDbLine
 10
16.86098797299997
 20
-24.34445262941437
 30
0.0
 11
16.86098797299997
 21
-24.33445262941437
 31
0.0
  0
LINE
  5
86C
330
79F
100
AcDbEntity
  8
0
  6
SLD-Durchgehend
 62
     7
370
    15
100
AcDbLine
 10
17.1045777166
 20
-24.37803348761439
 30
0.0
 11
17.1045777166
 21
-24.36803348761438
 31
0.0
  0
LINE
  5
86D
330
79F
100
AcDbEntity
  8
0
  6
SLD-Durchgehend
 62
     7
370
    15
100
AcDbLine
 10
18.5356674601
 20
-24.67114166271437
 30
0.0
 11
18.5356674601
 21
-24.66114166271437
 31
0.0
  0
LINE
  5
86E
330
79F
100
AcDbEntity
  8
0
  6
SLD-Durchgehend
 62
     7
370
    15
100
AcDbLine
 10
18.59335976779998
 20
-24.41970668091439
 30
0.0
 11
18.59335976779998
 21
-24.40970668091438
 31
0.0
  0
ARC
  5
86F
330
79F
100
AcDbEntity
  8
0
  6
SLD-Durchgehend
 62
     7
370
    15
100
AcDbCircle
 10
12.5833955704
 20
-50.09271211821438
 30
0.0
 40
26.10911306557857
100
AcDbArc
 50
76.82201364429933
 51
80.02811528450045
  0
ARC
  5
870
330
79F
100
AcDbEntity
  8
0
  6
SLD-Durchgehend
 62
     7
370
    15
100
AcDbCircle
 10
16.57447784049998
 20
-27.32301701161437
 30
0.0
 40
2.992312456155238
100
AcDbArc
 50
79.79597272570019
 51
84.50558437589961
  0
LINE
  5
871
330
79F
100
AcDbEntity
  8
0
  6
SLD-Durchgehend
 62
     7
370
    15
100
AcDbLine
 10
16.84725603229998
 20
-23.99280517961437
 30
0.0
 11
16.84725603229998
 21
-23.98245241781436
 31
0.0
  0
LWPOLYLINE
  5
872
330
79F
100
AcDbEntity
  8
0
  6
SLD-Durchgehend
 62
     7
370
    15
100
AcDbPolyline
 90
        3
 70
   128
 43
0.0
 10
16.84725603229998
 20
-23.99280517961437
 10
16.78847750709999
 20
-23.99293717101437
 10
16.72969898190001
 20
-23.99280517961437
  0
LINE
  5
873
330
79F
100
AcDbEntity
  8
0
  6
SLD-Durchgehend
 62
     7
370
    15
100
AcDbLine
 10
16.21148588739998
 20
-23.45692852091437
 30
0.0
 11
16.0745764662
 21
-23.45692852091437
 31
0.0
  0
LINE
  5
874
330
79F
100
AcDbEntity
  8
0
  6
SLD-Durchgehend
 62
     7
370
    15
100
AcDbLine
 10
16.21148588739998
 20
-23.45692852091437
 30
0.0
 11
16.21148588739998
 21
-23.44657575911436
 31
0.0
  0
LINE
  5
875
330
79F
100
AcDbEntity
  8
0
  6
SLD-Durchgehend
 62
     7
370
    15
100
AcDbLine
 10
17.33234984879999
 20
-23.45692852091437
 30
0.0
 11
17.33234984879999
 21
-23.44657575911436
 31
0.0
  0
LINE
  5
876
330
79F
100
AcDbEntity
  8
0
  6
SLD-Durchgehend
 62
     7
370
    15
100
AcDbLine
 10
17.17824720029997
 20
-23.45692852091437
 30
0.0
 11
15.2661856043
 21
-22.65319120891438
 31
0.0
  0
LINE
  5
877
330
79F
100
AcDbEntity
  8
0
  6
SLD-Durchgehend
 62
     7
370
    15
100
AcDbLine
 10
17.33234984879999
 20
-23.45692852091437
 30
0.0
 11
17.17824720029997
 21
-23.45692852091437
 31
0.0
  0
LINE
  5
878
330
79F
100
AcDbEntity
  8
0
  6
SLD-Durchgehend
 62
     7
370
    15
100
AcDbLine
 10
15.42028825279999
 20
-22.65319120891438
 30
0.0
 11
17.33234984879999
 21
-23.45692852091437
 31
0.0
  0
LINE
  5
879
330
79F
100
AcDbEntity
  8
0
  6
SLD-Durchgehend
 62
     7
370
    15
100
AcDbLine
 10
18.40527164849998
 20
-23.45692852091437
 30
0.0
 11
16.797968106
 21
-22.65319120891438
 31
0.0
  0
LINE
  5
87A
330
79F
100
AcDbEntity
  8
0
  6
SLD-Durchgehend
 62
     7
370
    15
100
AcDbLine
 10
18.57413723359998
 20
-23.45692852091437
 30
0.0
 11
18.40527164849998
 21
-23.45692852091437
 31
0.0
  0
LINE
  5
87B
330
79F
100
AcDbEntity
  8
0
  6
SLD-Durchgehend
 62
     7
370
    15
100
AcDbLine
 10
18.57413723359998
 20
-23.45692852091437
 30
0.0
 11
18.57413723359998
 21
-23.44657575911436
 31
0.0
  0
LINE
  5
87C
330
79F
100
AcDbEntity
  8
0
  6
SLD-Durchgehend
 62
     7
370
    15
100
AcDbLine
 10
16.96683369109997
 20
-22.65319120891438
 30
0.0
 11
18.57413723359998
 21
-23.45692852091437
 31
0.0
  0
LINE
  5
87D
330
79F
100
AcDbEntity
  8
0
  6
SLD-Durchgehend
 62
     7
370
    15
100
AcDbLine
 10
15.2661856043
 20
-22.65319120891438
 30
0.0
 11
15.2661856043
 21
-22.64283844711437
 31
0.0
  0
LINE
  5
87E
330
79F
100
AcDbEntity
  8
0
  6
SLD-Durchgehend
 62
     7
370
    15
100
AcDbLine
 10
15.2661856043
 20
-22.65319120891438
 30
0.0
 11
15.42028825279999
 21
-22.65319120891438
 31
0.0
  0
LINE
  5
87F
330
79F
100
AcDbEntity
  8
0
  6
SLD-Durchgehend
 62
     7
370
    15
100
AcDbLine
 10
15.42028825279999
 20
-22.65319120891438
 30
0.0
 11
15.42028825279999
 21
-22.64283844711437
 31
0.0
  0
LINE
  5
880
330
79F
100
AcDbEntity
  8
0
  6
SLD-Durchgehend
 62
     7
370
    15
100
AcDbLine
 10
16.797968106
 20
-22.65319120891438
 30
0.0
 11
16.797968106
 21
-22.64283844711437
 31
0.0
  0
LINE
  5
881
330
79F
100
AcDbEntity
  8
0
  6
SLD-Durchgehend
 62
     7
370
    15
100
AcDbLine
 10
16.797968106
 20
-22.65319120891438
 30
0.0
 11
16.96683369109997
 21
-22.65319120891438
 31
0.0
  0
LINE
  5
882
330
79F
100
AcDbEntity
  8
0
  6
SLD-Durchgehend
 62
     7
370
    15
100
AcDbLine
 10
16.96683369109997
 20
-22.65319120891438
 30
0.0
 11
16.96683369109997
 21
-22.64283844711437
 31
0.0
  0
LINE
  5
883
330
79F
100
AcDbEntity
  8
0
  6
SLD-Durchgehend
 62
     7
370
    15
100
AcDbLine
 10
18.45910155029996
 20
-22.65319120891438
 30
0.0
 11
18.45910155029996
 21
-22.64283844711437
 31
0.0
  0
LINE
  5
884
330
79F
100
AcDbEntity
  8
0
  6
SLD-Durchgehend
 62
     7
370
    15
100
AcDbLine
 10
18.45910155029996
 20
-22.65319120891438
 30
0.0
 11
18.64006696079998
 21
-22.65319120891438
 31
0.0
  0
LINE
  5
885
330
79F
100
AcDbEntity
  8
0
  6
SLD-Durchgehend
 62
     7
370
    15
100
AcDbLine
 10
18.64006696079998
 20
-22.65319120891438
 30
0.0
 11
18.64006696079998
 21
-22.64283844711437
 31
0.0
  0
ARC
  5
886
330
79F
100
AcDbEntity
  8
0
  6
SLD-Durchgehend
 62
     7
370
    15
100
AcDbCircle
 10
16.54248770949999
 20
-27.54506789411438
 30
0.0
 40
3.226374559119096
100
AcDbArc
 50
79.96689161059922
 51
84.33466549090079
  0
ARC
  5
887
330
79F
100
AcDbEntity
  8
0
  6
SLD-Durchgehend
 62
     7
370
    15
100
AcDbCircle
 10
9.502358254200004
 20
-65.12576201391437
 30
0.0
 40
41.46065816379963
100
AcDbArc
 50
77.41565116690011
 51
79.43447776190021
  0
LINE
  5
888
330
79F
100
AcDbEntity
  8
0
  6
SLD-Durchgehend
 62
     7
370
    15
100
AcDbLine
 10
18.57413723359998
 20
-23.44657575911436
 30
0.0
 11
16.96683369109997
 21
-22.64283844711437
 31
0.0
  0
LINE
  5
889
330
79F
100
AcDbEntity
  8
0
  6
SLD-Durchgehend
 62
     7
370
    15
100
AcDbLine
 10
17.33234984879999
 20
-23.44657575911436
 30
0.0
 11
15.42028825279999
 21
-22.64283844711437
 31
0.0
  0
LINE
  5
88A
330
79F
100
AcDbEntity
  8
0
  6
SLD-Durchgehend
 62
     7
370
    15
100
AcDbLine
 10
20.30169310119998
 20
-24.70357274471437
 30
0.0
 11
20.30169310119998
 21
-24.69357274471438
 31
0.0
  0
ARC
  5
88B
330
79F
100
AcDbEntity
  8
0
  6
SLD-Durchgehend
 62
     7
370
    15
100
AcDbCircle
 10
18.97638829079999
 20
-28.02870418701438
 30
0.0
 40
3.474893774165555
100
AcDbArc
 50
71.87664616119961
 51
90.1588023636002
  0
LINE
  5
88C
330
79F
100
AcDbEntity
  8
0
  6
SLD-Durchgehend
 62
     7
370
    15
100
AcDbLine
 10
19.91726431270001
 20
-23.45692852091437
 30
0.0
 11
19.73629890219998
 21
-23.45692852091437
 31
0.0
  0
LINE
  5
88D
330
79F
100
AcDbEntity
  8
0
  6
SLD-Durchgehend
 62
     7
370
    15
100
AcDbLine
 10
19.91726431270001
 20
-23.45692852091437
 30
0.0
 11
19.91726431270001
 21
-23.44657575911436
 31
0.0
  0
LWPOLYLINE
  5
88E
330
79F
100
AcDbEntity
  8
0
  6
SLD-Durchgehend
 62
     7
370
    15
100
AcDbPolyline
 90
        3
 70
   128
 43
0.0
 10
21.76837185549998
 20
-23.99280517961437
 10
20.43223071439999
 20
-22.83427421881437
 10
20.2233888705
 20
-22.65319120891438
  0
LWPOLYLINE
  5
88F
330
79F
100
AcDbEntity
  8
0
  6
SLD-Durchgehend
 62
     7
370
    15
100
AcDbPolyline
 90
        3
 70
   128
 43
0.0
 10
21.95858315869998
 20
-23.99280517961437
 10
21.86347750709998
 20
-23.99293717101437
 10
21.76837185549998
 20
-23.99280517961437
  0
LINE
  5
890
330
79F
100
AcDbEntity
  8
0
  6
SLD-Durchgehend
 62
     7
370
    15
100
AcDbLine
 10
21.95858315869998
 20
-23.99280517961437
 30
0.0
 11
21.95858315869998
 21
-23.98245241781436
 31
0.0
  0
LWPOLYLINE
  5
891
330
79F
100
AcDbEntity
  8
0
  6
SLD-Durchgehend
 62
     7
370
    15
100
AcDbPolyline
 90
        3
 70
   128
 43
0.0
 10
20.41360017379996
 20
-22.65319120891438
 10
20.62244201769999
 20
-22.83427421881437
 10
21.95858315869998
 20
-23.99280517961437
  0
LINE
  5
892
330
79F
100
AcDbEntity
  8
0
  6
SLD-Durchgehend
 62
     7
370
    15
100
AcDbLine
 10
22.62508830269998
 20
-23.45692852091437
 30
0.0
 11
22.0630062017
 21
-22.65319120891438
 31
0.0
  0
LINE
  5
893
330
79F
100
AcDbEntity
  8
0
  6
SLD-Durchgehend
 62
     7
370
    15
100
AcDbLine
 10
22.82154575289998
 20
-23.45692852091437
 30
0.0
 11
22.62508830269998
 21
-23.45692852091437
 31
0.0
  0
LINE
  5
894
330
79F
100
AcDbEntity
  8
0
  6
SLD-Durchgehend
 62
     7
370
    15
100
AcDbLine
 10
22.82154575289998
 20
-23.45692852091437
 30
0.0
 11
22.82154575289998
 21
-23.44657575911436
 31
0.0
  0
LINE
  5
895
330
79F
100
AcDbEntity
  8
0
  6
SLD-Durchgehend
 62
     7
370
    15
100
AcDbLine
 10
22.25946365179999
 20
-22.65319120891438
 30
0.0
 11
22.82154575289998
 21
-23.45692852091437
 31
0.0
  0
LINE
  5
896
330
79F
100
AcDbEntity
  8
0
  6
SLD-Durchgehend
 62
     7
370
    15
100
AcDbLine
 10
20.2233888705
 20
-22.65319120891438
 30
0.0
 11
20.2233888705
 21
-22.64283844711437
 31
0.0
  0
LINE
  5
897
330
79F
100
AcDbEntity
  8
0
  6
SLD-Durchgehend
 62
     7
370
    15
100
AcDbLine
 10
20.2233888705
 20
-22.65319120891438
 30
0.0
 11
20.41360017379996
 21
-22.65319120891438
 31
0.0
  0
LINE
  5
898
330
79F
100
AcDbEntity
  8
0
  6
SLD-Durchgehend
 62
     7
370
    15
100
AcDbLine
 10
20.41360017379996
 20
-22.65319120891438
 30
0.0
 11
20.41360017379996
 21
-22.64283844711437
 31
0.0
  0
LINE
  5
899
330
79F
100
AcDbEntity
  8
0
  6
SLD-Durchgehend
 62
     7
370
    15
100
AcDbLine
 10
22.0630062017
 20
-22.65319120891438
 30
0.0
 11
22.0630062017
 21
-22.64283844711437
 31
0.0
  0
LINE
  5
89A
330
79F
100
AcDbEntity
  8
0
  6
SLD-Durchgehend
 62
     7
370
    15
100
AcDbLine
 10
22.0630062017
 20
-22.65319120891438
 30
0.0
 11
22.25946365179999
 21
-22.65319120891438
 31
0.0
  0
LINE
  5
89B
330
79F
100
AcDbEntity
  8
0
  6
SLD-Durchgehend
 62
     7
370
    15
100
AcDbLine
 10
22.25946365179999
 20
-22.65319120891438
 30
0.0
 11
22.25946365179999
 21
-22.64283844711437
 31
0.0
  0
LINE
  5
89C
330
79F
100
AcDbEntity
  8
0
  6
SLD-Durchgehend
 62
     7
370
    15
100
AcDbLine
 10
22.82154575289998
 20
-23.44657575911436
 30
0.0
 11
22.25946365179999
 21
-22.64283844711437
 31
0.0
  0
LWPOLYLINE
  5
89D
330
79F
100
AcDbEntity
  8
0
  6
SLD-Durchgehend
 62
     7
370
    15
100
AcDbPolyline
 90
        3
 70
   128
 43
0.0
 10
21.95858315869998
 20
-23.98245241781436
 10
20.64593109
 20
-22.84428838521435
 10
20.41360017379996
 20
-22.64283844711437
  0
LINE
  5
89E
330
79F
100
AcDbEntity
  8
0
  6
SLD-Gestrichelt
 62
     7
370
     0
100
AcDbLine
 10
25.0
 20
-22.64283844711437
 30
0.0
 11
35.9406513129
 21
-22.64283844711437
 31
0.0
  0
ARC
  5
89F
330
79F
100
AcDbEntity
  8
0
  6
SLD-Durchgehend
 62
     7
370
    15
100
AcDbCircle
 10
33.35422304299999
 20
-30.27661158381437
 30
0.0
 40
5.690602408935241
100
AcDbArc
 50
101.3274011774994
 51
114.9424556729997
  0
LINE
  5
8A0
330
79F
100
AcDbEntity
  8
0
  6
SLD-Durchgehend
 62
     7
370
    15
100
AcDbLine
 10
30.08273568729999
 20
-23.45692852091437
 30
0.0
 11
31.3599330392
 21
-22.65319120891438
 31
0.0
  0
LINE
  5
8A1
330
79F
100
AcDbEntity
  8
0
  6
SLD-Durchgehend
 62
     7
370
    15
100
AcDbLine
 10
31.54089844969997
 20
-22.65319120891438
 30
0.0
 11
30.26370109779997
 21
-23.45692852091437
 31
0.0
  0
ARC
  5
8A2
330
79F
100
AcDbEntity
  8
0
  6
SLD-Durchgehend
 62
     7
370
    15
100
AcDbCircle
 10
33.4897495985
 20
-30.68040121391438
 30
0.0
 40
6.123168746754465
100
AcDbArc
 50
101.8103520306
 51
114.4595048199004
  0
LINE
  5
8A3
330
79F
100
AcDbEntity
  8
0
  6
SLD-Durchgehend
 62
     7
370
    15
100
AcDbLine
 10
31.3599330392
 20
-22.64283844711437
 30
0.0
 11
30.08273568729999
 21
-23.44657575911436
 31
0.0
  0
LINE
  5
8A4
330
79F
100
AcDbEntity
  8
0
  6
SLD-Durchgehend
 62
     7
370
    15
100
AcDbLine
 10
30.95592429090001
 20
-25.11638360851437
 30
0.0
 11
31.46829317129999
 21
-24.97909478071437
 31
0.0
  0
LWPOLYLINE
  5
8A5
330
79F
100
AcDbEntity
  8
0
  6
SLD-Durchgehend
 62
     7
370
    15
100
AcDbPolyline
 90
        3
 70
   128
 43
0.0
 10
25.1700770077
 20
-24.83725686201437
 10
27.0626380896
 20
-24.91552274661437
 10
28.9665513667
 20
-24.83797338241437
  0
LINE
  5
8A6
330
79F
100
AcDbEntity
  8
0
  6
SLD-Durchgehend
 62
     7
370
    15
100
AcDbLine
 10
30.95445156690002
 20
-25.11676152411438
 30
0.0
 11
30.95445156690002
 21
-25.10676152411437
 31
0.0
  0
LINE
  5
8A7
330
79F
100
AcDbEntity
  8
0
  6
SLD-Durchgehend
 62
     7
370
    15
100
AcDbLine
 10
28.94999999999999
 20
-25.64386940231437
 30
0.0
 11
30.95445156690002
 21
-25.10677822371437
 31
0.0
  0
LINE
  5
8A8
330
79F
100
AcDbEntity
  8
0
  6
SLD-Durchgehend
 62
     7
370
    15
100
AcDbLine
 10
28.2790513667
 20
-24.76201321561437
 30
0.0
 11
25.32071803330001
 21
-24.71165125151435
 31
0.0
  0
LINE
  5
8A9
330
79F
100
AcDbEntity
  8
0
  6
SLD-Durchgehend
 62
     7
370
    15
100
AcDbLine
 10
25.32071803330001
 20
-24.70165125151437
 30
0.0
 11
28.2790513667
 21
-24.75201321561437
 31
0.0
  0
LINE
  5
8AA
330
79F
100
AcDbEntity
  8
0
  6
SLD-Gestrichelt
 62
     7
370
     0
100
AcDbLine
 10
25.15
 20
-19.44460852471437
 30
0.0
 11
25.15
 21
-19.45168189571438
 31
0.0
  0
LINE
  5
8AB
330
79F
100
AcDbEntity
  8
0
  6
SLD-Gestrichelt
 62
     7
370
     0
100
AcDbLine
 10
24.84999999999999
 20
-19.44460852471437
 30
0.0
 11
24.84999999999999
 21
-19.45168189571438
 31
0.0
  0
LINE
  5
8AC
330
79F
100
AcDbEntity
  8
0
  6
SLD-Gestrichelt
 62
     7
370
     0
100
AcDbLine
 10
25.15
 20
-19.45168189571438
 30
0.0
 11
24.84999999999999
 21
-19.45168189571438
 31
0.0
  0
LINE
  5
8AD
330
79F
100
AcDbEntity
  8
0
  6
SLD-Gestrichelt
 62
     7
370
     0
100
AcDbLine
 10
25.15
 20
-19.45168189571438
 30
0.0
 11
25.15
 21
-22.65283844711437
 31
0.0
  0
LINE
  5
8AE
330
79F
100
AcDbEntity
  8
0
  6
SLD-Gestrichelt
 62
     7
370
     0
100
AcDbLine
 10
24.84999999999999
 20
-19.45168189571438
 30
0.0
 11
24.84999999999999
 21
-22.65283844711437
 31
0.0
  0
LINE
  5
8AF
330
79F
100
AcDbEntity
  8
0
  6
SLD-Gestrichelt
 62
     7
370
     0
100
AcDbLine
 10
25.15
 20
-22.65283844711437
 30
0.0
 11
24.84999999999999
 21
-22.65283844711437
 31
0.0
  0
LINE
  5
8B0
330
79F
100
AcDbEntity
  8
0
  6
SLD-Gestrichelt
 62
     7
370
     0
100
AcDbLine
 10
25.15
 20
-22.64283844711437
 30
0.0
 11
25.0
 21
-22.64283844711437
 31
0.0
  0
LINE
  5
8B1
330
79F
100
AcDbEntity
  8
0
  6
SLD-Gestrichelt
 62
     7
370
     0
100
AcDbLine
 10
25.0
 20
-22.64283844711437
 30
0.0
 11
24.84999999999999
 21
-22.64283844711437
 31
0.0
  0
LINE
  5
8B2
330
79F
100
AcDbEntity
  8
0
  6
SLD-Gestrichelt
 62
     7
370
     0
100
AcDbLine
 10
25.15
 20
-22.65283844711437
 30
0.0
 11
25.15
 21
-22.64283844711437
 31
0.0
  0
LINE
  5
8B3
330
79F
100
AcDbEntity
  8
0
  6
SLD-Gestrichelt
 62
     7
370
     0
100
AcDbLine
 10
24.84999999999999
 20
-22.65283844711437
 30
0.0
 11
24.84999999999999
 21
-22.64283844711437
 31
0.0
  0
LINE
  5
8B4
330
79F
100
AcDbEntity
  8
0
  6
SLD-Gestrichelt
 62
     7
370
     0
100
AcDbLine
 10
25.15
 20
-22.65283844711437
 30
0.0
 11
24.84999999999999
 21
-22.65283844711437
 31
0.0
  0
LINE
  5
8B5
330
79F
100
AcDbEntity
  8
0
  6
SLD-Gestrichelt
 62
     7
370
     0
100
AcDbLine
 10
25.15
 20
-19.44460852471437
 30
0.0
 11
25.15
 21
-22.64283844711437
 31
0.0
  0
LINE
  5
8B6
330
79F
100
AcDbEntity
  8
0
  6
SLD-Gestrichelt
 62
     7
370
     0
100
AcDbLine
 10
25.15
 20
-19.44460852471437
 30
0.0
 11
24.84999999999999
 21
-19.44460852471437
 31
0.0
  0
LINE
  5
8B7
330
79F
100
AcDbEntity
  8
0
  6
SLD-Gestrichelt
 62
     7
370
     0
100
AcDbLine
 10
24.84999999999999
 20
-19.44460852471437
 30
0.0
 11
24.84999999999999
 21
-22.64283844711437
 31
0.0
  0
LINE
  5
8B8
330
79F
100
AcDbEntity
  8
0
  6
SLD-Durchgehend
 62
     7
370
    15
100
AcDbLine
 10
25.1700770077
 20
-24.83725686201437
 30
0.0
 11
25.1700770077
 21
-24.82725686201438
 31
0.0
  0
LINE
  5
8B9
330
79F
100
AcDbEntity
  8
0
  6
SLD-Durchgehend
 62
     7
370
    15
100
AcDbLine
 10
25.32071803330001
 20
-24.71165125151435
 30
0.0
 11
25.32071803330001
 21
-24.70165125151437
 31
0.0
  0
LINE
  5
8BA
330
79F
100
AcDbEntity
  8
0
  6
SLD-Durchgehend
 62
     7
370
    15
100
AcDbLine
 10
25.32071803330001
 20
-24.71165125151435
 30
0.0
 11
25.1700770077
 21
-24.83725686201437
 31
0.0
  0
LINE
  5
8BB
330
79F
100
AcDbEntity
  8
0
  6
SLD-Durchgehend
 62
     7
370
    15
100
AcDbLine
 10
25.66310213939998
 20
-23.45692852091437
 30
0.0
 11
25.66310213939998
 21
-23.44657575911436
 31
0.0
  0
LINE
  5
8BC
330
79F
100
AcDbEntity
  8
0
  6
SLD-Durchgehend
 62
     7
370
    15
100
AcDbLine
 10
25.66310213939998
 20
-23.45692852091437
 30
0.0
 11
25.85145297489997
 21
-22.65319120891438
 31
0.0
  0
LINE
  5
8BD
330
79F
100
AcDbEntity
  8
0
  6
SLD-Durchgehend
 62
     7
370
    15
100
AcDbLine
 10
25.8627074851
 20
-23.45692852091437
 30
0.0
 11
25.66310213939998
 21
-23.45692852091437
 31
0.0
  0
LINE
  5
8BE
330
79F
100
AcDbEntity
  8
0
  6
SLD-Durchgehend
 62
     7
370
    15
100
AcDbLine
 10
26.0510583205
 20
-22.65319120891438
 30
0.0
 11
25.8627074851
 21
-23.45692852091437
 31
0.0
  0
LINE
  5
8BF
330
79F
100
AcDbEntity
  8
0
  6
SLD-Durchgehend
 62
     7
370
    15
100
AcDbLine
 10
24.13729251489999
 20
-23.45692852091437
 30
0.0
 11
23.94894167949999
 21
-22.65319120891438
 31
0.0
  0
LINE
  5
8C0
330
79F
100
AcDbEntity
  8
0
  6
SLD-Durchgehend
 62
     7
370
    15
100
AcDbLine
 10
24.3368978606
 20
-23.45692852091437
 30
0.0
 11
24.13729251489999
 21
-23.45692852091437
 31
0.0
  0
LINE
  5
8C1
330
79F
100
AcDbEntity
  8
0
  6
SLD-Durchgehend
 62
     7
370
    15
100
AcDbLine
 10
24.3368978606
 20
-23.45692852091437
 30
0.0
 11
24.3368978606
 21
-23.44657575911436
 31
0.0
  0
LINE
  5
8C2
330
79F
100
AcDbEntity
  8
0
  6
SLD-Durchgehend
 62
     7
370
    15
100
AcDbLine
 10
24.14854702510001
 20
-22.65319120891438
 30
0.0
 11
24.3368978606
 21
-23.45692852091437
 31
0.0
  0
LINE
  5
8C3
330
79F
100
AcDbEntity
  8
0
  6
SLD-Durchgehend
 62
     7
370
    15
100
AcDbLine
 10
23.94894167949999
 20
-22.65319120891438
 30
0.0
 11
23.94894167949999
 21
-22.64283844711437
 31
0.0
  0
LINE
  5
8C4
330
79F
100
AcDbEntity
  8
0
  6
SLD-Durchgehend
 62
     7
370
    15
100
AcDbLine
 10
23.94894167949999
 20
-22.65319120891438
 30
0.0
 11
24.14854702510001
 21
-22.65319120891438
 31
0.0
  0
LINE
  5
8C5
330
79F
100
AcDbEntity
  8
0
  6
SLD-Durchgehend
 62
     7
370
    15
100
AcDbLine
 10
24.14854702510001
 20
-22.65319120891438
 30
0.0
 11
24.14854702510001
 21
-22.64283844711437
 31
0.0
  0
LINE
  5
8C6
330
79F
100
AcDbEntity
  8
0
  6
SLD-Durchgehend
 62
     7
370
    15
100
AcDbLine
 10
25.85145297489997
 20
-22.65319120891438
 30
0.0
 11
25.85145297489997
 21
-22.64283844711437
 31
0.0
  0
LINE
  5
8C7
330
79F
100
AcDbEntity
  8
0
  6
SLD-Durchgehend
 62
     7
370
    15
100
AcDbLine
 10
25.85145297489997
 20
-22.65319120891438
 30
0.0
 11
26.0510583205
 21
-22.65319120891438
 31
0.0
  0
LINE
  5
8C8
330
79F
100
AcDbEntity
  8
0
  6
SLD-Durchgehend
 62
     7
370
    15
100
AcDbLine
 10
26.0510583205
 20
-22.65319120891438
 30
0.0
 11
26.0510583205
 21
-22.64283844711437
 31
0.0
  0
LINE
  5
8C9
330
79F
100
AcDbEntity
  8
0
  6
SLD-Durchgehend
 62
     7
370
    15
100
AcDbLine
 10
25.1700770077
 20
-24.82725686201438
 30
0.0
 11
25.32071803330001
 21
-24.70165125151437
 31
0.0
  0
LINE
  5
8CA
330
79F
100
AcDbEntity
  8
0
  6
SLD-Durchgehend
 62
     7
370
    15
100
AcDbLine
 10
25.85145297489997
 20
-22.64283844711437
 30
0.0
 11
25.66310213939998
 21
-23.44657575911436
 31
0.0
  0
LINE
  5
8CB
330
79F
100
AcDbEntity
  8
0
  6
SLD-Durchgehend
 62
     7
370
    15
100
AcDbLine
 10
24.3368978606
 20
-23.44657575911436
 30
0.0
 11
24.14854702510001
 21
-22.64283844711437
 31
0.0
  0
LINE
  5
8CC
330
79F
100
AcDbEntity
  8
0
  6
SLD-Durchgehend
 62
     7
370
    15
100
AcDbLine
 10
28.02103854609999
 20
-24.51873583861437
 30
0.0
 11
28.02103854609999
 21
-24.50873583861437
 31
0.0
  0
LINE
  5
8CD
330
79F
100
AcDbEntity
  8
0
  6
SLD-Durchgehend
 62
     7
370
    15
100
AcDbLine
 10
28.47055777689998
 20
-24.50698080651438
 30
0.0
 11
28.47055777689998
 21
-24.49698080651437
 31
0.0
  0
LINE
  5
8CE
330
79F
100
AcDbEntity
  8
0
  6
SLD-Durchgehend
 62
     7
370
    15
100
AcDbLine
 10
28.9665513667
 20
-24.83797338241437
 30
0.0
 11
29.06350649489999
 21
-24.75713071341437
 31
0.0
  0
LWPOLYLINE
  5
8CF
330
79F
100
AcDbEntity
  8
0
  6
SLD-Durchgehend
 62
     7
370
    15
100
AcDbPolyline
 90
        4
 70
   128
 43
0.0
 10
29.06350649489999
 20
-24.75713071341437
 10
28.6785919445
 20
-24.67113214241438
 10
28.5475585592
 20
-24.59600460821437
 10
28.47055777689998
 20
-24.50698080651438
  0
LINE
  5
8D0
330
79F
100
AcDbEntity
  8
0
  6
SLD-Durchgehend
 62
     7
370
    15
100
AcDbLine
 10
28.47055777689998
 20
-24.50698080651438
 30
0.0
 11
28.02103854609999
 21
-24.51873583861437
 31
0.0
  0
ARC
  5
8D1
330
79F
100
AcDbEntity
  8
0
  6
SLD-Durchgehend
 62
     7
370
    15
100
AcDbCircle
 10
28.4178672957
 20
-24.35633004251437
 30
0.0
 40
0.4287758145287209
100
AcDbArc
 50
202.2572806446999
 51
251.1101727090998
  0
LINE
  5
8D2
330
79F
100
AcDbEntity
  8
0
  6
SLD-Durchgehend
 62
     7
370
    15
100
AcDbLine
 10
30.08273568729999
 20
-23.45692852091437
 30
0.0
 11
30.08273568729999
 21
-23.44657575911436
 31
0.0
  0
LINE
  5
8D3
330
79F
100
AcDbEntity
  8
0
  6
SLD-Durchgehend
 62
     7
370
    15
100
AcDbLine
 10
30.26370109779997
 20
-23.45692852091437
 30
0.0
 11
30.08273568729999
 21
-23.45692852091437
 31
0.0
  0
LWPOLYLINE
  5
8D4
330
79F
100
AcDbEntity
  8
0
  6
SLD-Durchgehend
 62
     7
370
    15
100
AcDbPolyline
 90
        3
 70
   128
 43
0.0
 10
28.23162814449998
 20
-23.99280517961437
 10
28.13652249289998
 20
-23.99293717101437
 10
28.04141684129998
 20
-23.99280517961437
  0
LWPOLYLINE
  5
8D5
330
79F
100
AcDbEntity
  8
0
  6
SLD-Durchgehend
 62
     7
370
    15
100
AcDbPolyline
 90
        3
 70
   128
 43
0.0
 10
29.77661112949999
 20
-22.65319120891438
 10
29.5677692856
 20
-22.83427421881437
 10
28.23162814449998
 20
-23.99280517961437
  0
LINE
  5
8D6
330
79F
100
AcDbEntity
  8
0
  6
SLD-Durchgehend
 62
     7
370
    15
100
AcDbLine
 10
28.04141684129998
 20
-23.99280517961437
 30
0.0
 11
28.04141684129998
 21
-23.98245241781436
 31
0.0
  0
LWPOLYLINE
  5
8D7
330
79F
100
AcDbEntity
  8
0
  6
SLD-Durchgehend
 62
     7
370
    15
100
AcDbPolyline
 90
        3
 70
   128
 43
0.0
 10
28.04141684129998
 20
-23.99280517961437
 10
29.3775579823
 20
-22.83427421881437
 10
29.58639982619999
 20
-22.65319120891438
  0
LINE
  5
8D8
330
79F
100
AcDbEntity
  8
0
  6
SLD-Durchgehend
 62
     7
370
    15
100
AcDbLine
 10
27.17845424719998
 20
-23.45692852091437
 30
0.0
 11
27.17845424719998
 21
-23.44657575911436
 31
0.0
  0
LINE
  5
8D9
330
79F
100
AcDbEntity
  8
0
  6
SLD-Durchgehend
 62
     7
370
    15
100
AcDbLine
 10
27.17845424719998
 20
-23.45692852091437
 30
0.0
 11
27.74053634820001
 21
-22.65319120891438
 31
0.0
  0
LINE
  5
8DA
330
79F
100
AcDbEntity
  8
0
  6
SLD-Durchgehend
 62
     7
370
    15
100
AcDbLine
 10
27.37491169730001
 20
-23.45692852091437
 30
0.0
 11
27.17845424719998
 21
-23.45692852091437
 31
0.0
  0
LINE
  5
8DB
330
79F
100
AcDbEntity
  8
0
  6
SLD-Durchgehend
 62
     7
370
    15
100
AcDbLine
 10
27.93699379840001
 20
-22.65319120891438
 30
0.0
 11
27.37491169730001
 21
-23.45692852091437
 31
0.0
  0
LINE
  5
8DC
330
79F
100
AcDbEntity
  8
0
  6
SLD-Durchgehend
 62
     7
370
    15
100
AcDbLine
 10
27.74053634820001
 20
-22.65319120891438
 30
0.0
 11
27.74053634820001
 21
-22.64283844711437
 31
0.0
  0
LINE
  5
8DD
330
79F
100
AcDbEntity
  8
0
  6
SLD-Durchgehend
 62
     7
370
    15
100
AcDbLine
 10
27.74053634820001
 20
-22.65319120891438
 30
0.0
 11
27.93699379840001
 21
-22.65319120891438
 31
0.0
  0
LINE
  5
8DE
330
79F
100
AcDbEntity
  8
0
  6
SLD-Durchgehend
 62
     7
370
    15
100
AcDbLine
 10
27.93699379840001
 20
-22.65319120891438
 30
0.0
 11
27.93699379840001
 21
-22.64283844711437
 31
0.0
  0
LINE
  5
8DF
330
79F
100
AcDbEntity
  8
0
  6
SLD-Durchgehend
 62
     7
370
    15
100
AcDbLine
 10
29.58639982619999
 20
-22.65319120891438
 30
0.0
 11
29.58639982619999
 21
-22.64283844711437
 31
0.0
  0
LINE
  5
8E0
330
79F
100
AcDbEntity
  8
0
  6
SLD-Durchgehend
 62
     7
370
    15
100
AcDbLine
 10
29.58639982619999
 20
-22.65319120891438
 30
0.0
 11
29.77661112949999
 21
-22.65319120891438
 31
0.0
  0
LINE
  5
8E1
330
79F
100
AcDbEntity
  8
0
  6
SLD-Durchgehend
 62
     7
370
    15
100
AcDbLine
 10
29.77661112949999
 20
-22.65319120891438
 30
0.0
 11
29.77661112949999
 21
-22.64283844711437
 31
0.0
  0
LINE
  5
8E2
330
79F
100
AcDbEntity
  8
0
  6
SLD-Durchgehend
 62
     7
370
    15
100
AcDbLine
 10
28.02103854609999
 20
-24.50873583861437
 30
0.0
 11
28.47055777689998
 21
-24.49698080651437
 31
0.0
  0
ARC
  5
8E3
330
79F
100
AcDbEntity
  8
0
  6
SLD-Durchgehend
 62
     7
370
    15
100
AcDbCircle
 10
29.04949826379998
 20
-23.95250552721438
 30
0.0
 40
0.7947486503434627
100
AcDbArc
 50
223.2427772416003
 51
271.0099470830001
  0
LWPOLYLINE
  5
8E4
330
79F
100
AcDbEntity
  8
0
  6
SLD-Durchgehend
 62
     7
370
    15
100
AcDbPolyline
 90
        3
 70
   128
 43
0.0
 10
29.58639982619999
 20
-22.64283844711437
 10
29.35406890999999
 20
-22.84428838521435
 10
28.04141684129998
 20
-23.98245241781436
  0
LINE
  5
8E5
330
79F
100
AcDbEntity
  8
0
  6
SLD-Durchgehend
 62
     7
370
    15
100
AcDbLine
 10
27.74053634820001
 20
-22.64283844711437
 30
0.0
 11
27.17845424719998
 21
-23.44657575911436
 31
0.0
  0
ARC
  5
8E6
330
79F
100
AcDbEntity
  8
0
  6
SLD-Durchgehend
 62
     7
370
    15
100
AcDbCircle
 10
32.93426797909997
 20
-28.15271255451438
 30
0.0
 40
3.49603727816712
100
AcDbArc
 50
101.5128346842997
 51
114.8103954671997
  0
LINE
  5
8E7
330
79F
100
AcDbEntity
  8
0
  6
SLD-Durchgehend
 62
     7
370
    15
100
AcDbLine
 10
31.50776526409998
 20
-24.95851826541438
 30
0.0
 11
32.954105067
 21
-24.57097268321438
 31
0.0
  0
LWPOLYLINE
  5
8E8
330
79F
100
AcDbEntity
  8
0
  6
SLD-Durchgehend
 62
     7
370
    15
100
AcDbPolyline
 90
        3
 70
   128
 43
0.0
 10
33.15274396769999
 20
-23.99280517961437
 10
36.65080688869999
 20
-22.83427421881437
 10
37.19756193429997
 20
-22.65319120891438
  0
LWPOLYLINE
  5
8E9
330
79F
100
AcDbEntity
  8
0
  6
SLD-Durchgehend
 62
     7
370
    15
100
AcDbPolyline
 90
        3
 70
   128
 43
0.0
 10
37.31511898480002
 20
-22.65319120891438
 10
36.76836393909997
 20
-22.83427421881437
 10
33.27030101809997
 20
-23.99280517961437
  0
LINE
  5
8EA
330
79F
100
AcDbEntity
  8
0
  6
SLD-Durchgehend
 62
     7
370
    15
100
AcDbLine
 10
36.11208882969997
 20
-22.65319120891438
 30
0.0
 11
33.9254235338
 21
-23.45692852091437
 31
0.0
  0
LINE
  5
8EB
330
79F
100
AcDbEntity
  8
0
  6
SLD-Durchgehend
 62
     7
370
    15
100
AcDbLine
 10
33.78851411260001
 20
-23.45692852091437
 30
0.0
 11
35.97517940849999
 21
-22.65319120891438
 31
0.0
  0
LWPOLYLINE
  5
8EC
330
79F
100
AcDbEntity
  8
0
  6
SLD-Durchgehend
 62
     7
370
    15
100
AcDbPolyline
 90
        3
 70
   128
 43
0.0
 10
37.19756193429997
 20
-22.64283844711437
 10
36.58931169909996
 20
-22.84428838521435
 10
33.15274396769999
 20
-23.98245241781436
  0
LINE
  5
8ED
330
79F
100
AcDbEntity
  8
0
  6
SLD-Durchgehend
 62
     7
370
    15
100
AcDbLine
 10
35.97517940849999
 20
-22.64283844711437
 30
0.0
 11
33.78851411260001
 21
-23.44657575911436
 31
0.0
  0
LINE
  5
8EE
330
79F
100
AcDbEntity
  8
0
  6
SLD-Durchgehend
 62
     7
370
    15
100
AcDbLine
 10
33.518554131
 20
-24.41972901231437
 30
0.0
 11
35.14999999999997
 21
-23.98258440921437
 31
0.0
  0
LINE
  5
8EF
330
79F
100
AcDbEntity
  8
0
  6
SLD-Durchgehend
 62
     7
370
    15
100
AcDbLine
 10
33.518554131
 20
-24.42971733931438
 30
0.0
 11
33.518554131
 21
-24.41971733931437
 31
0.0
  0
LINE
  5
8F0
330
79F
100
AcDbEntity
  8
0
  6
SLD-Durchgehend
 62
     7
370
    15
100
AcDbLine
 10
33.12993233609998
 20
-24.48859862221437
 30
0.0
 11
33.12993233609998
 21
-24.47859862221438
 31
0.0
  0
ARC
  5
8F1
330
79F
100
AcDbEntity
  8
0
  6
SLD-Durchgehend
 62
     7
370
    15
100
AcDbCircle
 10
33.78235199080001
 20
-27.48271722711438
 30
0.0
 40
3.06437556863142
100
AcDbArc
 50
94.93843993670031
 51
102.2926237610004
  0
ARC
  5
8F2
330
79F
100
AcDbEntity
  8
0
  6
SLD-Durchgehend
 62
     7
370
    15
100
AcDbCircle
 10
36.91073035269996
 20
-42.72874876341439
 30
0.0
 40
18.62786919679075
100
AcDbArc
 50
101.7103745403001
 51
104.5323491600997
  0
ARC
  5
8F3
330
79F
100
AcDbEntity
  8
0
  6
SLD-Durchgehend
 62
     7
370
    15
100
AcDbCircle
 10
33.4306654941
 20
-28.54186130891438
 30
0.0
 40
3.997383288026377
100
AcDbArc
 50
96.10221490370044
 51
107.3817054442994
  0
LINE
  5
8F4
330
79F
100
AcDbEntity
  8
0
  6
SLD-Durchgehend
 62
     7
370
    15
100
AcDbLine
 10
32.23650284889998
 20
-24.69685734691437
 30
0.0
 11
32.23650284889998
 21
-24.68685734691437
 31
0.0
  0
LINE
  5
8F5
330
79F
100
AcDbEntity
  8
0
  6
SLD-Durchgehend
 62
     7
370
    15
100
AcDbLine
 10
33.15274396769999
 20
-23.99280517961437
 30
0.0
 11
33.15274396769999
 21
-23.98245241781436
 31
0.0
  0
LWPOLYLINE
  5
8F6
330
79F
100
AcDbEntity
  8
0
  6
SLD-Durchgehend
 62
     7
370
    15
100
AcDbPolyline
 90
        3
 70
   128
 43
0.0
 10
33.27030101809997
 20
-23.99280517961437
 10
33.2115224929
 20
-23.99293717101437
 10
33.15274396769999
 20
-23.99280517961437
  0
LINE
  5
8F7
330
79F
100
AcDbEntity
  8
0
  6
SLD-Durchgehend
 62
     7
370
    15
100
AcDbLine
 10
33.9254235338
 20
-23.45692852091437
 30
0.0
 11
33.78851411260001
 21
-23.45692852091437
 31
0.0
  0
LINE
  5
8F8
330
79F
100
AcDbEntity
  8
0
  6
SLD-Durchgehend
 62
     7
370
    15
100
AcDbLine
 10
33.78851411260001
 20
-23.45692852091437
 30
0.0
 11
33.78851411260001
 21
-23.44657575911436
 31
0.0
  0
LINE
  5
8F9
330
79F
100
AcDbEntity
  8
0
  6
SLD-Durchgehend
 62
     7
370
    15
100
AcDbLine
 10
32.82175279969997
 20
-23.45692852091437
 30
0.0
 11
32.66765015119998
 21
-23.45692852091437
 31
0.0
  0
LINE
  5
8FA
330
79F
100
AcDbEntity
  8
0
  6
SLD-Durchgehend
 62
     7
370
    15
100
AcDbLine
 10
34.73381439569996
 20
-22.65319120891438
 30
0.0
 11
32.82175279969997
 21
-23.45692852091437
 31
0.0
  0
LINE
  5
8FB
330
79F
100
AcDbEntity
  8
0
  6
SLD-Durchgehend
 62
     7
370
    15
100
AcDbLine
 10
32.66765015119998
 20
-23.45692852091437
 30
0.0
 11
32.66765015119998
 21
-23.44657575911436
 31
0.0
  0
LINE
  5
8FC
330
79F
100
AcDbEntity
  8
0
  6
SLD-Durchgehend
 62
     7
370
    15
100
AcDbLine
 10
32.66765015119998
 20
-23.45692852091437
 30
0.0
 11
34.57971174719998
 21
-22.65319120891438
 31
0.0
  0
LINE
  5
8FD
330
79F
100
AcDbEntity
  8
0
  6
SLD-Durchgehend
 62
     7
370
    15
100
AcDbLine
 10
31.42586276649998
 20
-23.45692852091437
 30
0.0
 11
31.42586276649998
 21
-23.44657575911436
 31
0.0
  0
LINE
  5
8FE
330
79F
100
AcDbEntity
  8
0
  6
SLD-Durchgehend
 62
     7
370
    15
100
AcDbLine
 10
31.42586276649998
 20
-23.45692852091437
 30
0.0
 11
33.0331663089
 21
-22.65319120891438
 31
0.0
  0
LINE
  5
8FF
330
79F
100
AcDbEntity
  8
0
  6
SLD-Durchgehend
 62
     7
370
    15
100
AcDbLine
 10
31.59472835159998
 20
-23.45692852091437
 30
0.0
 11
31.42586276649998
 21
-23.45692852091437
 31
0.0
  0
LINE
  5
900
330
79F
100
AcDbEntity
  8
0
  6
SLD-Durchgehend
 62
     7
370
    15
100
AcDbLine
 10
33.20203189399999
 20
-22.65319120891438
 30
0.0
 11
31.59472835159998
 21
-23.45692852091437
 31
0.0
  0
LINE
  5
901
330
79F
100
AcDbEntity
  8
0
  6
SLD-Durchgehend
 62
     7
370
    15
100
AcDbLine
 10
31.3599330392
 20
-22.65319120891438
 30
0.0
 11
31.3599330392
 21
-22.64283844711437
 31
0.0
  0
LINE
  5
902
330
79F
100
AcDbEntity
  8
0
  6
SLD-Durchgehend
 62
     7
370
    15
100
AcDbLine
 10
31.3599330392
 20
-22.65319120891438
 30
0.0
 11
31.54089844969997
 21
-22.65319120891438
 31
0.0
  0
LINE
  5
903
330
79F
100
AcDbEntity
  8
0
  6
SLD-Durchgehend
 62
     7
370
    15
100
AcDbLine
 10
31.54089844969997
 20
-22.65319120891438
 30
0.0
 11
31.54089844969997
 21
-22.64283844711437
 31
0.0
  0
LINE
  5
904
330
79F
100
AcDbEntity
  8
0
  6
SLD-Durchgehend
 62
     7
370
    15
100
AcDbLine
 10
33.0331663089
 20
-22.65319120891438
 30
0.0
 11
33.0331663089
 21
-22.64283844711437
 31
0.0
  0
LINE
  5
905
330
79F
100
AcDbEntity
  8
0
  6
SLD-Durchgehend
 62
     7
370
    15
100
AcDbLine
 10
33.0331663089
 20
-22.65319120891438
 30
0.0
 11
33.20203189399999
 21
-22.65319120891438
 31
0.0
  0
LINE
  5
906
330
79F
100
AcDbEntity
  8
0
  6
SLD-Durchgehend
 62
     7
370
    15
100
AcDbLine
 10
33.20203189399999
 20
-22.65319120891438
 30
0.0
 11
33.20203189399999
 21
-22.64283844711437
 31
0.0
  0
LINE
  5
907
330
79F
100
AcDbEntity
  8
0
  6
SLD-Durchgehend
 62
     7
370
    15
100
AcDbLine
 10
34.57971174719998
 20
-22.65319120891438
 30
0.0
 11
34.57971174719998
 21
-22.64283844711437
 31
0.0
  0
LINE
  5
908
330
79F
100
AcDbEntity
  8
0
  6
SLD-Durchgehend
 62
     7
370
    15
100
AcDbLine
 10
34.57971174719998
 20
-22.65319120891438
 30
0.0
 11
34.73381439569996
 21
-22.65319120891438
 31
0.0
  0
LINE
  5
909
330
79F
100
AcDbEntity
  8
0
  6
SLD-Durchgehend
 62
     7
370
    15
100
AcDbLine
 10
34.73381439569996
 20
-22.65319120891438
 30
0.0
 11
34.73381439569996
 21
-22.64283844711437
 31
0.0
  0
ARC
  5
90A
330
79F
100
AcDbEntity
  8
0
  6
SLD-Durchgehend
 62
     7
370
    15
100
AcDbCircle
 10
36.18118994370002
 20
-39.58902195541438
 30
0.0
 40
15.41541651380265
100
AcDbArc
 50
101.4162564382992
 51
104.8264672620002
  0
ARC
  5
90B
330
79F
100
AcDbEntity
  8
0
  6
SLD-Durchgehend
 62
     7
370
    15
100
AcDbCircle
 10
33.66205658429999
 20
-26.67875666001437
 30
0.0
 40
2.26359263261272
100
AcDbArc
 50
93.63475400449951
 51
103.5963096932001
  0
LINE
  5
90C
330
79F
100
AcDbEntity
  8
0
  6
SLD-Durchgehend
 62
     7
370
    15
100
AcDbLine
 10
34.57971174719998
 20
-22.64283844711437
 30
0.0
 11
32.66765015119998
 21
-23.44657575911436
 31
0.0
  0
LINE
  5
90D
330
79F
100
AcDbEntity
  8
0
  6
SLD-Durchgehend
 62
     7
370
    15
100
AcDbLine
 10
33.0331663089
 20
-22.64283844711437
 30
0.0
 11
31.42586276649998
 21
-23.44657575911436
 31
0.0
  0
LINE
  5
90E
330
79F
100
AcDbEntity
  8
0
  6
SLD-Durchgehend
 62
     7
370
    15
100
AcDbLine
 10
33.00661078819998
 20
-24.56690381761437
 30
0.0
 11
33.51739412899998
 21
-24.43003983391438
 31
0.0
  0
LINE
  5
90F
330
79F
100
AcDbEntity
  8
0
  6
SLD-Gestrichelt
 62
     7
370
     0
100
AcDbLine
 10
38.85706714919999
 20
-22.64283844711437
 30
0.0
 11
39.06243128100001
 21
-22.64283844711437
 31
0.0
  0
LINE
  5
910
330
79F
100
AcDbEntity
  8
0
  6
SLD-Gestrichelt
 62
     7
370
     0
100
AcDbLine
 10
38.85706714919999
 20
-22.65283844711437
 30
0.0
 11
39.06243128100001
 21
-22.65283844711437
 31
0.0
  0
LINE
  5
911
330
79F
100
AcDbEntity
  8
0
  6
SLD-Gestrichelt
 62
     7
370
     0
100
AcDbLine
 10
38.85706714919999
 20
-22.65283844711437
 30
0.0
 11
38.85706714919999
 21
-22.64283844711437
 31
0.0
  0
LINE
  5
912
330
79F
100
AcDbEntity
  8
0
  6
SLD-Gestrichelt
 62
     7
370
     0
100
AcDbLine
 10
35.9406513129
 20
-22.64283844711437
 30
0.0
 11
38.85706714919999
 21
-22.64283844711437
 31
0.0
  0
LINE
  5
913
330
79F
100
AcDbEntity
  8
0
  6
SLD-Gestrichelt
 62
     7
370
     0
100
AcDbLine
 10
35.9406513129
 20
-22.65283844711437
 30
0.0
 11
38.85706714919999
 21
-22.65283844711437
 31
0.0
  0
LINE
  5
914
330
79F
100
AcDbEntity
  8
0
  6
SLD-Gestrichelt
 62
     7
370
     0
100
AcDbLine
 10
39.06243128100001
 20
-22.64283844711437
 30
0.0
 11
36.1460154447
 21
-22.64283844711437
 31
0.0
  0
LINE
  5
915
330
79F
100
AcDbEntity
  8
0
  6
SLD-Gestrichelt
 62
     7
370
     0
100
AcDbLine
 10
39.06243128100001
 20
-22.65283844711437
 30
0.0
 11
36.1460154447
 21
-22.65283844711437
 31
0.0
  0
LINE
  5
916
330
79F
100
AcDbEntity
  8
0
  6
SLD-Gestrichelt
 62
     7
370
     0
100
AcDbLine
 10
39.06243128100001
 20
-22.65283844711437
 30
0.0
 11
39.06243128100001
 21
-22.64283844711437
 31
0.0
  0
LINE
  5
917
330
79F
100
AcDbEntity
  8
0
  6
SLD-Gestrichelt
 62
     7
370
     0
100
AcDbLine
 10
37.5609976474
 20
-22.64283844711437
 30
0.0
 11
38.55975430469999
 21
-22.64283844711437
 31
0.0
  0
LINE
  5
918
330
79F
100
AcDbEntity
  8
0
  6
SLD-Gestrichelt
 62
     7
370
     0
100
AcDbLine
 10
36.1460154447
 20
-22.64283844711437
 30
0.0
 11
37.39081696259999
 21
-22.64283844711437
 31
0.0
  0
LINE
  5
919
330
79F
100
AcDbEntity
  8
0
  6
SLD-Gestrichelt
 62
     7
370
     0
100
AcDbLine
 10
35.9406513129
 20
-22.65283844711437
 30
0.0
 11
35.9406513129
 21
-22.64283844711437
 31
0.0
  0
LINE
  5
91A
330
79F
100
AcDbEntity
  8
0
  6
SLD-Gestrichelt
 62
     7
370
     0
100
AcDbLine
 10
36.1460154447
 20
-22.65283844711437
 30
0.0
 11
35.9406513129
 21
-22.65283844711437
 31
0.0
  0
LINE
  5
91B
330
79F
100
AcDbEntity
  8
0
  6
SLD-Gestrichelt
 62
     7
370
     0
100
AcDbLine
 10
36.1460154447
 20
-22.65283844711437
 30
0.0
 11
36.1460154447
 21
-22.64283844711437
 31
0.0
  0
LINE
  5
91C
330
79F
100
AcDbEntity
  8
0
  6
SLD-Gestrichelt
 62
     7
370
     0
100
AcDbLine
 10
37.39081696259999
 20
-22.65283844711437
 30
0.0
 11
37.39081696259999
 21
-22.64283844711437
 31
0.0
  0
LINE
  5
91D
330
79F
100
AcDbEntity
  8
0
  6
SLD-Gestrichelt
 62
     7
370
     0
100
AcDbLine
 10
37.5609976474
 20
-22.65283844711437
 30
0.0
 11
37.39081696259999
 21
-22.65283844711437
 31
0.0
  0
LINE
  5
91E
330
79F
100
AcDbEntity
  8
0
  6
SLD-Gestrichelt
 62
     7
370
     0
100
AcDbLine
 10
37.5609976474
 20
-22.65283844711437
 30
0.0
 11
37.5609976474
 21
-22.64283844711437
 31
0.0
  0
LINE
  5
91F
330
79F
100
AcDbEntity
  8
0
  6
SLD-Gestrichelt
 62
     7
370
     0
100
AcDbLine
 10
38.55975430469999
 20
-22.65283844711437
 30
0.0
 11
38.55975430469999
 21
-22.64283844711437
 31
0.0
  0
LINE
  5
920
330
79F
100
AcDbEntity
  8
0
  6
SLD-Gestrichelt
 62
     7
370
     0
100
AcDbLine
 10
38.6908890347
 20
-22.65283844711437
 30
0.0
 11
38.55975430469999
 21
-22.65283844711437
 31
0.0
  0
LINE
  5
921
330
79F
100
AcDbEntity
  8
0
  6
SLD-Gestrichelt
 62
     7
370
     0
100
AcDbLine
 10
38.6908890347
 20
-22.65283844711437
 30
0.0
 11
38.6908890347
 21
-22.64283844711437
 31
0.0
  0
LINE
  5
922
330
79F
100
AcDbEntity
  8
0
  6
SLD-Durchgehend
 62
     7
370
    15
100
AcDbLine
 10
35.14999999999997
 20
-23.99280517961437
 30
0.0
 11
35.14999999999997
 21
-23.98245241781436
 31
0.0
  0
LINE
  5
923
330
79F
100
AcDbEntity
  8
0
  6
SLD-Durchgehend
 62
     7
370
    15
100
AcDbLine
 10
35.14999999999997
 20
-23.99293717101437
 30
0.0
 11
35.14999999999997
 21
-23.99280517961437
 31
0.0
  0
LINE
  5
924
330
79F
100
AcDbEntity
  8
0
  6
SLD-Durchgehend
 62
     7
370
    15
100
AcDbLine
 10
37.06672694429997
 20
-23.45692852091437
 30
0.0
 11
37.0416602976
 21
-23.45692852091437
 31
0.0
  0
LINE
  5
925
330
79F
100
AcDbEntity
  8
0
  6
SLD-Durchgehend
 62
     7
370
    15
100
AcDbLine
 10
37.0416602976
 20
-23.45692852091437
 30
0.0
 11
37.0416602976
 21
-23.44657575911436
 31
0.0
  0
LINE
  5
926
330
79F
100
AcDbEntity
  8
0
  6
SLD-Durchgehend
 62
     7
370
    15
100
AcDbLine
 10
36.79315439639999
 20
-23.45692852091437
 30
0.0
 11
36.74341641899999
 21
-23.45692852091437
 31
0.0
  0
LINE
  5
927
330
79F
100
AcDbEntity
  8
0
  6
SLD-Durchgehend
 62
     7
370
    15
100
AcDbLine
 10
36.74341641899999
 20
-23.45692852091437
 30
0.0
 11
36.74341641899999
 21
-23.44657575911436
 31
0.0
  0
LINE
  5
928
330
79F
100
AcDbEntity
  8
0
  6
SLD-Durchgehend
 62
     7
370
    15
100
AcDbLine
 10
36.25997184830001
 20
-23.45692852091437
 30
0.0
 11
36.25997184830001
 21
-23.44657575911436
 31
0.0
  0
LINE
  5
929
330
79F
100
AcDbEntity
  8
0
  6
SLD-Durchgehend
 62
     7
370
    15
100
AcDbLine
 10
36.25997184830001
 20
-23.45692852091437
 30
0.0
 11
39.04899444569997
 21
-22.65319120891438
 31
0.0
  0
LINE
  5
92A
330
79F
100
AcDbEntity
  8
0
  6
SLD-Durchgehend
 62
     7
370
    15
100
AcDbLine
 10
36.33359675879997
 20
-23.45692852091437
 30
0.0
 11
36.25997184830001
 21
-23.45692852091437
 31
0.0
  0
LINE
  5
92B
330
79F
100
AcDbEntity
  8
0
  6
SLD-Durchgehend
 62
     7
370
    15
100
AcDbLine
 10
39.1226193562
 20
-22.65319120891438
 30
0.0
 11
36.33359675879997
 21
-23.45692852091437
 31
0.0
  0
LINE
  5
92C
330
79F
100
AcDbEntity
  8
0
  6
SLD-Durchgehend
 62
     7
370
    15
100
AcDbLine
 10
35.59895079509999
 20
-23.45692852091437
 30
0.0
 11
35.59895079509999
 21
-23.44657575911436
 31
0.0
  0
LINE
  5
92D
330
79F
100
AcDbEntity
  8
0
  6
SLD-Durchgehend
 62
     7
370
    15
100
AcDbLine
 10
35.59895079509999
 20
-23.45692852091437
 30
0.0
 11
38.22758162199999
 21
-22.65319120891438
 31
0.0
  0
LINE
  5
92E
330
79F
100
AcDbEntity
  8
0
  6
SLD-Durchgehend
 62
     7
370
    15
100
AcDbLine
 10
35.6953015299
 20
-23.45692852091437
 30
0.0
 11
35.59895079509999
 21
-23.45692852091437
 31
0.0
  0
LINE
  5
92F
330
79F
100
AcDbEntity
  8
0
  6
SLD-Durchgehend
 62
     7
370
    15
100
AcDbLine
 10
38.32393235679997
 20
-22.65319120891438
 30
0.0
 11
35.6953015299
 21
-23.45692852091437
 31
0.0
  0
LINE
  5
930
330
79F
100
AcDbEntity
  8
0
  6
SLD-Durchgehend
 62
     7
370
    15
100
AcDbLine
 10
35.97517940849999
 20
-22.65319120891438
 30
0.0
 11
35.97517940849999
 21
-22.64283844711437
 31
0.0
  0
LINE
  5
931
330
79F
100
AcDbEntity
  8
0
  6
SLD-Durchgehend
 62
     7
370
    15
100
AcDbLine
 10
35.97517940849999
 20
-22.65319120891438
 30
0.0
 11
36.11208882969997
 21
-22.65319120891438
 31
0.0
  0
LINE
  5
932
330
79F
100
AcDbEntity
  8
0
  6
SLD-Durchgehend
 62
     7
370
    15
100
AcDbLine
 10
36.11208882969997
 20
-22.65319120891438
 30
0.0
 11
36.11208882969997
 21
-22.64283844711437
 31
0.0
  0
LINE
  5
933
330
79F
100
AcDbEntity
  8
0
  6
SLD-Durchgehend
 62
     7
370
    15
100
AcDbLine
 10
37.19756193429997
 20
-22.65319120891438
 30
0.0
 11
37.19756193429997
 21
-22.64283844711437
 31
0.0
  0
LINE
  5
934
330
79F
100
AcDbEntity
  8
0
  6
SLD-Durchgehend
 62
     7
370
    15
100
AcDbLine
 10
37.19756193429997
 20
-22.65319120891438
 30
0.0
 11
37.31511898480002
 21
-22.65319120891438
 31
0.0
  0
LINE
  5
935
330
79F
100
AcDbEntity
  8
0
  6
SLD-Durchgehend
 62
     7
370
    15
100
AcDbLine
 10
37.31511898480002
 20
-22.65319120891438
 30
0.0
 11
37.31511898480002
 21
-22.64283844711437
 31
0.0
  0
LINE
  5
936
330
79F
100
AcDbEntity
  8
0
  6
SLD-Durchgehend
 62
     7
370
    15
100
AcDbLine
 10
38.22758162199999
 20
-22.65319120891438
 30
0.0
 11
38.22758162199999
 21
-22.64283844711437
 31
0.0
  0
LINE
  5
937
330
79F
100
AcDbEntity
  8
0
  6
SLD-Durchgehend
 62
     7
370
    15
100
AcDbLine
 10
38.22758162199999
 20
-22.65319120891438
 30
0.0
 11
38.32393235679997
 21
-22.65319120891438
 31
0.0
  0
LINE
  5
938
330
79F
100
AcDbEntity
  8
0
  6
SLD-Durchgehend
 62
     7
370
    15
100
AcDbLine
 10
38.32393235679997
 20
-22.65319120891438
 30
0.0
 11
38.32393235679997
 21
-22.64283844711437
 31
0.0
  0
LINE
  5
939
330
79F
100
AcDbEntity
  8
0
  6
SLD-Durchgehend
 62
     7
370
    15
100
AcDbLine
 10
39.04899444569997
 20
-22.65319120891438
 30
0.0
 11
39.04899444569997
 21
-22.64283844711437
 31
0.0
  0
LINE
  5
93A
330
79F
100
AcDbEntity
  8
0
  6
SLD-Durchgehend
 62
     7
370
    15
100
AcDbLine
 10
39.04899444569997
 20
-22.65319120891438
 30
0.0
 11
39.1226193562
 21
-22.65319120891438
 31
0.0
  0
LINE
  5
93B
330
79F
100
AcDbEntity
  8
0
  6
SLD-Durchgehend
 62
     7
370
    15
100
AcDbLine
 10
39.1226193562
 20
-22.65319120891438
 30
0.0
 11
39.1226193562
 21
-22.64283844711437
 31
0.0
  0
LINE
  5
93C
330
79F
100
AcDbEntity
  8
0
  6
SLD-Durchgehend
 62
     7
370
    15
100
AcDbLine
 10
39.04899444569997
 20
-22.64283844711437
 30
0.0
 11
36.25997184830001
 21
-23.44657575911436
 31
0.0
  0
LINE
  5
93D
330
79F
100
AcDbEntity
  8
0
  6
SLD-Durchgehend
 62
     7
370
    15
100
AcDbLine
 10
38.22758162199999
 20
-22.64283844711437
 30
0.0
 11
35.59895079509999
 21
-23.44657575911436
 31
0.0
  0
LINE
  5
93E
330
79F
100
AcDbEntity
  8
0
  6
SLD-Gestrichelt
 62
     7
370
     0
100
AcDbLine
 10
44.99999999999997
 20
-16.19283844711438
 30
0.0
 11
44.99999999999997
 21
-19.17886736611437
 31
0.0
  0
LINE
  5
93F
330
79F
100
AcDbEntity
  8
0
  6
SLD-Durchgehend
 62
     7
370
    15
100
AcDbLine
 10
45.00438403839999
 20
-19.19109280621437
 30
0.0
 11
45.00438403839999
 21
-17.00636433151439
 31
0.0
  0
LINE
  5
940
330
79F
100
AcDbEntity
  8
0
  6
SLD-Gestrichelt
 62
     7
370
     0
100
AcDbLine
 10
40.14954568249999
 20
-19.19283844711437
 30
0.0
 11
44.99999999999997
 21
-19.19283844711437
 31
0.0
  0
LINE
  5
941
330
79F
100
AcDbEntity
  8
0
  6
SLD-Gestrichelt
 62
     7
370
     0
100
AcDbLine
 10
40.14925740749997
 20
-22.64283844711437
 30
0.0
 11
44.14999999999998
 21
-22.64283844711437
 31
0.0
  0
LINE
  5
942
330
79F
100
AcDbEntity
  8
0
  6
SLD-Gestrichelt
 62
     7
370
     0
100
AcDbLine
 10
40.14925740749997
 20
-22.65283844711437
 30
0.0
 11
44.14999999999998
 21
-22.65283844711437
 31
0.0
  0
LINE
  5
943
330
79F
100
AcDbEntity
  8
0
  6
SLD-Gestrichelt
 62
     7
370
     0
100
AcDbLine
 10
44.14999999999998
 20
-22.64283844711437
 30
0.0
 11
40.14925740749997
 21
-22.64283844711437
 31
0.0
  0
LINE
  5
944
330
79F
100
AcDbEntity
  8
0
  6
SLD-Gestrichelt
 62
     7
370
     0
100
AcDbLine
 10
44.14999999999998
 20
-22.65283844711437
 30
0.0
 11
42.43683129759999
 21
-22.65283844711437
 31
0.0
  0
LINE
  5
945
330
79F
100
AcDbEntity
  8
0
  6
SLD-Gestrichelt
 62
     7
370
     0
100
AcDbLine
 10
42.49100326119999
 20
-22.64283844711437
 30
0.0
 11
43.45692908749998
 21
-22.64283844711437
 31
0.0
  0
LINE
  5
946
330
79F
100
AcDbEntity
  8
0
  6
SLD-Durchgehend
 62
     7
370
    15
100
AcDbLine
 10
43.45692908749998
 20
-22.64283844711437
 30
0.0
 11
42.49100326119999
 21
-22.64283844711437
 31
0.0
  0
LINE
  5
947
330
79F
100
AcDbEntity
  8
0
  6
SLD-Gestrichelt
 62
     7
370
     0
100
AcDbLine
 10
40.14999999999997
 20
-22.65283844711437
 30
0.0
 11
40.14999999999997
 21
-19.18823615641437
 31
0.0
  0
LINE
  5
948
330
79F
100
AcDbEntity
  8
0
  6
SLD-Gestrichelt
 62
     7
370
     0
100
AcDbLine
 10
39.86202630460002
 20
-22.64283844711437
 30
0.0
 11
40.03220698929999
 21
-22.64283844711437
 31
0.0
  0
LINE
  5
949
330
79F
100
AcDbEntity
  8
0
  6
SLD-Gestrichelt
 62
     7
370
     0
100
AcDbLine
 10
39.86202630460002
 20
-22.65283844711437
 30
0.0
 11
40.03220698929999
 21
-22.65283844711437
 31
0.0
  0
LINE
  5
94A
330
79F
100
AcDbEntity
  8
0
  6
SLD-Gestrichelt
 62
     7
370
     0
100
AcDbLine
 10
39.86202630460002
 20
-22.65283844711437
 30
0.0
 11
39.86202630460002
 21
-22.64283844711437
 31
0.0
  0
LINE
  5
94B
330
79F
100
AcDbEntity
  8
0
  6
SLD-Gestrichelt
 62
     7
370
     0
100
AcDbLine
 10
40.03220698929999
 20
-22.65283844711437
 30
0.0
 11
40.03220698929999
 21
-22.64283844711437
 31
0.0
  0
LINE
  5
94C
330
79F
100
AcDbEntity
  8
0
  6
SLD-Gestrichelt
 62
     7
370
     0
100
AcDbLine
 10
41.25863795089998
 20
-22.64283844711437
 30
0.0
 11
41.38977268089999
 21
-22.64283844711437
 31
0.0
  0
LINE
  5
94D
330
79F
100
AcDbEntity
  8
0
  6
SLD-Gestrichelt
 62
     7
370
     0
100
AcDbLine
 10
41.25863795089998
 20
-22.65283844711437
 30
0.0
 11
41.38977268089999
 21
-22.65283844711437
 31
0.0
  0
LINE
  5
94E
330
79F
100
AcDbEntity
  8
0
  6
SLD-Gestrichelt
 62
     7
370
     0
100
AcDbLine
 10
41.25863795089998
 20
-22.65283844711437
 30
0.0
 11
41.25863795089998
 21
-22.64283844711437
 31
0.0
  0
LINE
  5
94F
330
79F
100
AcDbEntity
  8
0
  6
SLD-Gestrichelt
 62
     7
370
     0
100
AcDbLine
 10
41.38977268089999
 20
-22.65283844711437
 30
0.0
 11
41.38977268089999
 21
-22.64283844711437
 31
0.0
  0
LINE
  5
950
330
79F
100
AcDbEntity
  8
0
  6
SLD-Gestrichelt
 62
     7
370
     0
100
AcDbLine
 10
42.28623524989997
 20
-22.64283844711437
 30
0.0
 11
42.3753477244
 21
-22.64283844711437
 31
0.0
  0
LINE
  5
951
330
79F
100
AcDbEntity
  8
0
  6
SLD-Gestrichelt
 62
     7
370
     0
100
AcDbLine
 10
42.28623524989997
 20
-22.65283844711437
 30
0.0
 11
42.3753477244
 21
-22.65283844711437
 31
0.0
  0
LINE
  5
952
330
79F
100
AcDbEntity
  8
0
  6
SLD-Gestrichelt
 62
     7
370
     0
100
AcDbLine
 10
42.28623524989997
 20
-22.65283844711437
 30
0.0
 11
42.28623524989997
 21
-22.64283844711437
 31
0.0
  0
LINE
  5
953
330
79F
100
AcDbEntity
  8
0
  6
SLD-Gestrichelt
 62
     7
370
     0
100
AcDbLine
 10
39.42093254050002
 20
-22.64283844711437
 30
0.0
 11
42.28623524989997
 21
-22.64283844711437
 31
0.0
  0
LINE
  5
954
330
79F
100
AcDbEntity
  8
0
  6
SLD-Gestrichelt
 62
     7
370
     0
100
AcDbLine
 10
39.42093254050002
 20
-22.65283844711437
 30
0.0
 11
42.28623524989997
 21
-22.65283844711437
 31
0.0
  0
LINE
  5
955
330
79F
100
AcDbEntity
  8
0
  6
SLD-Gestrichelt
 62
     7
370
     0
100
AcDbLine
 10
42.3753477244
 20
-22.64283844711437
 30
0.0
 11
39.51004501489999
 21
-22.64283844711437
 31
0.0
  0
LINE
  5
956
330
79F
100
AcDbEntity
  8
0
  6
SLD-Gestrichelt
 62
     7
370
     0
100
AcDbLine
 10
42.3753477244
 20
-22.65283844711437
 30
0.0
 11
39.51004501489999
 21
-22.65283844711437
 31
0.0
  0
LINE
  5
957
330
79F
100
AcDbEntity
  8
0
  6
SLD-Gestrichelt
 62
     7
370
     0
100
AcDbLine
 10
42.3753477244
 20
-22.65283844711437
 30
0.0
 11
42.3753477244
 21
-22.64283844711437
 31
0.0
  0
LINE
  5
958
330
79F
100
AcDbEntity
  8
0
  6
SLD-Gestrichelt
 62
     7
370
     0
100
AcDbLine
 10
42.92149532859997
 20
-22.64283844711437
 30
0.0
 11
42.96656300539999
 21
-22.64283844711437
 31
0.0
  0
LINE
  5
959
330
79F
100
AcDbEntity
  8
0
  6
SLD-Gestrichelt
 62
     7
370
     0
100
AcDbLine
 10
42.92149532859997
 20
-22.65283844711437
 30
0.0
 11
42.96656300539999
 21
-22.65283844711437
 31
0.0
  0
LINE
  5
95A
330
79F
100
AcDbEntity
  8
0
  6
SLD-Gestrichelt
 62
     7
370
     0
100
AcDbLine
 10
42.92149532859997
 20
-22.65283844711437
 30
0.0
 11
42.92149532859997
 21
-22.64283844711437
 31
0.0
  0
LINE
  5
95B
330
79F
100
AcDbEntity
  8
0
  6
SLD-Gestrichelt
 62
     7
370
     0
100
AcDbLine
 10
39.95480592909999
 20
-22.64283844711437
 30
0.0
 11
42.92149532859997
 21
-22.64283844711437
 31
0.0
  0
LINE
  5
95C
330
79F
100
AcDbEntity
  8
0
  6
SLD-Gestrichelt
 62
     7
370
     0
100
AcDbLine
 10
39.95480592909999
 20
-22.65283844711437
 30
0.0
 11
42.92149532859997
 21
-22.65283844711437
 31
0.0
  0
LINE
  5
95D
330
79F
100
AcDbEntity
  8
0
  6
SLD-Gestrichelt
 62
     7
370
     0
100
AcDbLine
 10
42.96656300539999
 20
-22.64283844711437
 30
0.0
 11
39.9998736058
 21
-22.64283844711437
 31
0.0
  0
LINE
  5
95E
330
79F
100
AcDbEntity
  8
0
  6
SLD-Gestrichelt
 62
     7
370
     0
100
AcDbLine
 10
42.96656300539999
 20
-22.65283844711437
 30
0.0
 11
39.9998736058
 21
-22.65283844711437
 31
0.0
  0
LINE
  5
95F
330
79F
100
AcDbEntity
  8
0
  6
SLD-Gestrichelt
 62
     7
370
     0
100
AcDbLine
 10
42.96656300539999
 20
-22.65283844711437
 30
0.0
 11
42.96656300539999
 21
-22.64283844711437
 31
0.0
  0
LINE
  5
960
330
79F
100
AcDbEntity
  8
0
  6
SLD-Gestrichelt
 62
     7
370
     0
100
AcDbLine
 10
39.9998736058
 20
-22.64283844711437
 30
0.0
 11
40.14925740749997
 21
-22.64283844711437
 31
0.0
  0
LINE
  5
961
330
79F
100
AcDbEntity
  8
0
  6
SLD-Gestrichelt
 62
     7
370
     0
100
AcDbLine
 10
39.51004501489999
 20
-22.64283844711437
 30
0.0
 11
39.95480592909999
 21
-22.64283844711437
 31
0.0
  0
LINE
  5
962
330
79F
100
AcDbEntity
  8
0
  6
SLD-Gestrichelt
 62
     7
370
     0
100
AcDbLine
 10
39.42093254050002
 20
-22.65283844711437
 30
0.0
 11
39.42093254050002
 21
-22.64283844711437
 31
0.0
  0
LINE
  5
963
330
79F
100
AcDbEntity
  8
0
  6
SLD-Gestrichelt
 62
     7
370
     0
100
AcDbLine
 10
39.51004501489999
 20
-22.65283844711437
 30
0.0
 11
39.42093254050002
 21
-22.65283844711437
 31
0.0
  0
LINE
  5
964
330
79F
100
AcDbEntity
  8
0
  6
SLD-Gestrichelt
 62
     7
370
     0
100
AcDbLine
 10
39.51004501489999
 20
-22.65283844711437
 30
0.0
 11
39.51004501489999
 21
-22.64283844711437
 31
0.0
  0
LINE
  5
965
330
79F
100
AcDbEntity
  8
0
  6
SLD-Gestrichelt
 62
     7
370
     0
100
AcDbLine
 10
39.95480592909999
 20
-22.65283844711437
 30
0.0
 11
39.95480592909999
 21
-22.64283844711437
 31
0.0
  0
LINE
  5
966
330
79F
100
AcDbEntity
  8
0
  6
SLD-Gestrichelt
 62
     7
370
     0
100
AcDbLine
 10
39.9998736058
 20
-22.65283844711437
 30
0.0
 11
39.95480592909999
 21
-22.65283844711437
 31
0.0
  0
LINE
  5
967
330
79F
100
AcDbEntity
  8
0
  6
SLD-Gestrichelt
 62
     7
370
     0
100
AcDbLine
 10
39.9998736058
 20
-22.65283844711437
 30
0.0
 11
39.9998736058
 21
-22.64283844711437
 31
0.0
  0
LINE
  5
968
330
79F
100
AcDbEntity
  8
0
  6
SLD-Gestrichelt
 62
     7
370
     0
100
AcDbLine
 10
40.14925740749997
 20
-22.65283844711437
 30
0.0
 11
40.14925740749997
 21
-22.64283844711437
 31
0.0
  0
LINE
  5
969
330
79F
100
AcDbEntity
  8
0
  6
SLD-Gestrichelt
 62
     7
370
     0
100
AcDbLine
 10
40.14925740749997
 20
-22.65283844711437
 30
0.0
 11
40.14999999999997
 21
-22.65283844711437
 31
0.0
  0
LINE
  5
96A
330
79F
100
AcDbEntity
  8
0
  6
SLD-Durchgehend
 62
     7
370
    15
100
AcDbLine
 10
42.43683129759999
 20
-22.65283844711437
 30
0.0
 11
40.14925740749997
 21
-22.65283844711437
 31
0.0
  0
LINE
  5
96B
330
79F
100
AcDbEntity
  8
0
  6
SLD-Durchgehend
 62
     7
370
    15
100
AcDbLine
 10
40.14925740749997
 20
-22.65283844711437
 30
0.0
 11
40.14925740749997
 21
-22.64283844711437
 31
0.0
  0
LINE
  5
96C
330
79F
100
AcDbEntity
  8
0
  6
SLD-Durchgehend
 62
     7
370
    15
100
AcDbLine
 10
40.14966996339999
 20
-22.65319120891438
 30
0.0
 11
40.14966996339999
 21
-22.65283844711437
 31
0.0
  0
LINE
  5
96D
330
79F
100
AcDbEntity
  8
0
  6
SLD-Durchgehend
 62
     7
370
    15
100
AcDbLine
 10
40.14966996339999
 20
-22.65319120891438
 30
0.0
 11
40.14999999999997
 21
-22.65319120891438
 31
0.0
  0
LINE
  5
96E
330
79F
100
AcDbEntity
  8
0
  6
SLD-Durchgehend
 62
     7
370
    15
100
AcDbLine
 10
39.64884623449997
 20
-22.65319120891438
 30
0.0
 11
39.64884623449997
 21
-22.64283844711437
 31
0.0
  0
LINE
  5
96F
330
79F
100
AcDbEntity
  8
0
  6
SLD-Durchgehend
 62
     7
370
    15
100
AcDbLine
 10
39.64884623449997
 20
-22.65319120891438
 30
0.0
 11
39.6985842119
 21
-22.65319120891438
 31
0.0
  0
LINE
  5
970
330
79F
100
AcDbEntity
  8
0
  6
SLD-Durchgehend
 62
     7
370
    15
100
AcDbLine
 10
39.6985842119
 20
-22.65319120891438
 30
0.0
 11
39.6985842119
 21
-22.64283844711437
 31
0.0
  0
LINE
  5
971
330
79F
100
AcDbEntity
  8
0
  6
SLD-Durchgehend
 62
     7
370
    15
100
AcDbLine
 10
40.01767696739999
 20
-22.65319120891438
 30
0.0
 11
40.01767696739999
 21
-22.64283844711437
 31
0.0
  0
LINE
  5
972
330
79F
100
AcDbEntity
  8
0
  6
SLD-Durchgehend
 62
     7
370
    15
100
AcDbLine
 10
40.01767696739999
 20
-22.65319120891438
 30
0.0
 11
40.04274361409996
 21
-22.65319120891438
 31
0.0
  0
LINE
  5
973
330
79F
100
AcDbEntity
  8
0
  6
SLD-Durchgehend
 62
     7
370
    15
100
AcDbLine
 10
40.04274361409996
 20
-22.65319120891438
 30
0.0
 11
40.04274361409996
 21
-22.64283844711437
 31
0.0
  0
LINE
  5
974
330
79F
100
AcDbEntity
  8
0
  6
SLD-Durchgehend
 62
     7
370
    15
100
AcDbLine
 10
40.14999999999997
 20
-22.65319120891438
 30
0.0
 11
40.14999999999997
 21
-22.65283844711437
 31
0.0
  0
LINE
  5
975
330
79F
100
AcDbEntity
  8
0
  6
SLD-Gestrichelt
 62
     7
370
     0
100
AcDbLine
 10
44.14999999999998
 20
-22.65283844711437
 30
0.0
 11
44.14999999999998
 21
-22.64283844711437
 31
0.0
  0
LINE
  5
976
330
79F
100
AcDbEntity
  8
0
  6
SLD-Gestrichelt
 62
     7
370
     0
100
AcDbLine
 10
44.14999999999998
 20
-22.65283844711437
 30
0.0
 11
44.14999999999998
 21
-22.64283844711437
 31
0.0
  0
LINE
  5
977
330
79F
100
AcDbEntity
  8
0
  6
SLD-Gestrichelt
 62
     7
370
     0
100
AcDbLine
 10
43.45692908749998
 20
-22.64283844711437
 30
0.0
 11
44.5502355337
 21
-22.64283844711437
 31
0.0
  0
LINE
  5
978
330
79F
100
AcDbEntity
  8
0
  6
SLD-Durchgehend
 62
     7
370
    15
100
AcDbLine
 10
44.54306816869999
 20
-22.64283844711437
 30
0.0
 11
43.45692908749998
 21
-22.64283844711437
 31
0.0
  0
LINE
  5
979
330
79F
100
AcDbEntity
  8
0
  6
SLD-Durchgehend
 62
     7
370
    15
100
AcDbLine
 10
44.55788383249998
 20
-22.64283844711437
 30
0.0
 11
44.99999999999997
 21
-20.99283844711437
 31
0.0
  0
LINE
  5
97A
330
79F
100
AcDbEntity
  8
0
  6
SLD-Gestrichelt
 62
     7
370
     0
100
AcDbLine
 10
40.14999999999997
 20
-16.19283844711438
 30
0.0
 11
40.14999999999997
 21
-8.485021726114382
 31
0.0
  0
LINE
  5
97B
330
79F
100
AcDbEntity
  8
0
  6
SLD-Gestrichelt
 62
     7
370
     0
100
AcDbLine
 10
44.99999999999997
 20
-16.19283844711438
 30
0.0
 11
40.14999999999997
 21
-16.19283844711438
 31
0.0
  0
LWPOLYLINE
  5
97C
330
79F
100
AcDbEntity
  8
0
  6
SLD-Gestrichelt
 62
     7
370
     0
100
AcDbPolyline
 90
       40
 70
   128
 43
0.0
 10
40.14908548249997
 20
-16.20210340831437
 10
40.14999999999997
 20
-16.19283844711438
 10
40.14797710269998
 20
-16.21340940051438
 10
40.14190678929995
 20
-16.27691429121435
 10
40.13279133589998
 20
-16.37797205961438
 10
40.12115541679997
 20
-16.51944970491439
 10
40.10887079329997
 20
-16.69010386171437
 10
40.0966844747
 20
-16.89447629321438
 10
40.08659248629999
 20
-17.11597377691437
 10
40.07921916309999
 20
-17.36064788501437
 10
40.0758040142
 20
-17.60700911661435
 10
40.07652001879995
 20
-17.86300271371437
 10
40.08122484669999
 20
-18.10616988201437
 10
40.08963529559999
 20
-18.34444673061438
 10
40.10038287989999
 20
-18.55832277361438
 10
40.11282804449999
 20
-18.75353232431437
 10
40.1249767947
 20
-18.91448612101437
 10
40.13606915529999
 20
-19.04490703801437
 10
40.14427152919997
 20
-19.13383121221437
 10
40.14910429080001
 20
-19.18376460681438
 10
40.14954535159996
 20
-19.18823615641437
 10
40.14976922569997
 20
-19.19050583061437
 10
40.1462570754
 20
-19.15455093381437
 10
40.13916477749996
 20
-19.07913212431435
 10
40.12889717760001
 20
-18.96210193791437
 10
40.11709528709999
 20
-18.81269107981437
 10
40.10447148059998
 20
-18.62694695641438
 10
40.09306628089999
 20
-18.41957757431437
 10
40.08359635179997
 20
-18.18515836581437
 10
40.07764931919999
 20
-17.94385436871436
 10
40.0755603897
 20
-17.68824896451437
 10
40.07766259819995
 20
-17.44102616411434
 10
40.08381264819997
 20
-17.19393564461438
 10
40.0929894283
 20
-16.96769716321438
 10
40.10465610969998
 20
-16.75574923511436
 10
40.1169479367
 20
-16.57497668391435
 10
40.12910269539998
 20
-16.42112764391439
 10
40.13913373109995
 20
-16.30688385631438
 10
40.1464305878
 20
-16.22932911971436
 10
40.14908548249997
 20
-16.20210340831437
  0
LINE
  5
97D
330
79F
100
AcDbEntity
  8
0
  6
SLD-Durchgehend
 62
     7
370
    15
100
AcDbLine
 10
45.00438403839999
 20
-16.99537132741439
 30
0.0
 11
45.00438403839999
 21
-16.88105820351436
 31
0.0
  0
LINE
  5
97E
330
79F
100
AcDbEntity
  8
0
  6
SLD-Durchgehend
 62
     7
370
    15
100
AcDbLine
 10
45.00438403839999
 20
-16.88105820351436
 30
0.0
 11
45.00438403839999
 21
-16.19283844711438
 31
0.0
  0
LINE
  5
97F
330
79F
100
AcDbEntity
  8
0
  6
SLD-Durchgehend
 62
     7
370
    15
100
AcDbLine
 10
45.00438403839999
 20
-17.00636433151439
 30
0.0
 11
45.00438403839999
 21
-16.99537132741439
 31
0.0
  0
LINE
  5
980
330
79F
100
AcDbEntity
  8
0
  6
SLD-Durchgehend
 62
     7
370
    15
100
AcDbLine
 10
44.99999999999997
 20
-16.99533844711437
 30
0.0
 11
45.00438403839999
 21
-16.99537132741439
 31
0.0
  0
LINE
  5
981
330
79F
100
AcDbEntity
  8
0
  6
SLD-Durchgehend
 62
     7
370
    15
100
AcDbLine
 10
45.00438403839999
 20
-16.19283844711438
 30
0.0
 11
44.99999999999997
 21
-16.19283844711438
 31
0.0
  0
LINE
  5
982
330
79F
100
AcDbEntity
  8
0
  6
SLD-Gestrichelt
 62
     7
370
     0
100
AcDbLine
 10
40.14561579629996
 20
-8.49283844711438
 30
0.0
 11
44.29999999999998
 21
-8.49283844711438
 31
0.0
  0
LINE
  5
983
330
79F
100
AcDbEntity
  8
0
  6
SLD-Gestrichelt
 62
     7
370
     0
100
AcDbLine
 10
44.29999999999998
 20
-8.49283844711438
 30
0.0
 11
44.99999999999997
 21
-9.192838447114382
 31
0.0
  0
LINE
  5
984
330
79F
100
AcDbEntity
  8
0
  6
SLD-Gestrichelt
 62
     7
370
     0
100
AcDbLine
 10
29.26042793949997
 20
-4.99283844711438
 30
0.0
 11
44.99999999999997
 21
-4.99283844711438
 31
0.0
  0
LINE
  5
985
330
79F
100
AcDbEntity
  8
0
  6
SLD-Gestrichelt
 62
     7
370
     0
100
AcDbLine
 10
44.99999999999997
 20
5.007161552885619
 30
0.0
 11
29.38760060809999
 21
5.007161552885619
 31
0.0
  0
ARC
  5
986
330
79F
100
AcDbEntity
  8
0
  6
SLD-Gestrichelt
 62
     7
370
     0
100
AcDbCircle
 10
53.1122039289
 20
2.676426950285615
 30
0.0
 40
15.57191942639809
100
AcDbArc
 50
146.3794804772
 51
179.5189655970996
  0
LWPOLYLINE
  5
987
330
79F
100
AcDbEntity
  8
0
  6
SLD-Gestrichelt
 62
     7
370
     0
100
AcDbPolyline
 90
       34
 70
   128
 43
0.0
 10
40.14999999999997
 20
27.50716155288563
 10
40.10542374649999
 20
27.48262927518561
 10
39.86897531050002
 20
27.35334824838563
 10
39.4260769437
 20
27.11507914138562
 10
39.03611518219999
 20
26.90957834778561
 10
38.30013997789999
 20
26.53302107588562
 10
37.3880012413
 20
26.08761543618561
 10
35.85933839379999
 20
25.39717396628562
 10
34.98277967890001
 20
25.03481406198563
 10
34.03051646249997
 20
24.67044859218563
 10
32.95182583920001
 20
24.29623387308561
 10
31.7997607714
 20
23.94383313748562
 10
30.55723131190001
 20
23.62093549638561
 10
29.24692963459998
 20
23.34733960108561
 10
28.03496514859998
 20
23.15750741328562
 10
26.77071891209998
 20
23.02591359258562
 10
25.47565785359998
 20
22.96263476508562
 10
24.1484994422
 20
22.9734967677856
 10
22.01427452609999
 20
23.1511036675856
 10
19.90459277100001
 20
23.51653574338564
 10
17.93189233270001
 20
24.0214415961856
 10
16.08320219599998
 20
24.62903766088563
 10
15.12310759799999
 20
24.9927674795856
 10
14.21752216769998
 20
25.3643957909856
 10
13.3779879184
 20
25.73260935898562
 10
12.60563820249998
 20
26.09063724858561
 10
11.89833319479998
 20
26.43406400238564
 10
11.28126100529999
 20
26.74536081168563
 10
10.7547534974
 20
27.01928009108562
 10
10.3398224576
 20
27.24038217728562
 10
10.07895896440001
 20
27.38169288378561
 10
9.914305537299979
 20
27.47178748188563
 10
9.850612157400007
 20
27.50682431458562
 10
9.855156124199991
 20
27.50432353738563
  0
LWPOLYLINE
  5
988
330
79F
100
AcDbEntity
  8
0
  6
SLD-Durchgehend
 62
     7
370
    15
100
AcDbPolyline
 90
       36
 70
   128
 43
0.0
 10
9.855156124199991
 20
27.50432353738563
 10
9.893410334900012
 20
27.48327028958561
 10
10.11158549129999
 20
27.3639228119856
 10
10.51583236649999
 20
27.14603794888562
 10
10.88720095739998
 20
26.94966694528563
 10
11.33267555069999
 20
26.71901767718563
 10
12.44867215010001
 20
26.16558908198561
 10
13.1144354173
 20
25.85274425958562
 10
13.90695725910001
 20
25.49800495308562
 10
14.7803011544
 20
25.13025341068564
 10
15.7269313088
 20
24.7602886876856
 10
16.75077487699999
 20
24.39521631608561
 10
17.88027644249998
 20
24.03668430168561
 10
19.08039270819998
 20
23.70883344518559
 10
20.36972879789999
 20
23.42012615388562
 10
21.72199407249999
 20
23.1906216669856
 10
22.92387324649998
 20
23.0514190218856
 10
24.15577982889999
 20
22.9732279922856
 10
25.41379175939999
 20
22.96143617918561
 10
26.69256873149998
 20
23.02003379678561
 10
28.00404646279996
 20
23.15347432948561
 10
29.29741699659999
 20
23.35657895128562
 10
30.81103979829999
 20
23.68195159498562
 10
32.77439512180001
 20
24.23872608168561
 10
34.59541038639999
 20
24.88284044778561
 10
35.53040818530002
 20
25.25824066938563
 10
36.4049973417
 20
25.63529968978562
 10
37.20677650710001
 20
26.00202436648561
 10
37.93373868599999
 20
26.3512139442856
 10
38.56559455749999
 20
26.6671100842856
 10
39.10810996269996
 20
26.94721104658562
 10
39.5465167126
 20
27.17936515278561
 10
39.8742570144
 20
27.35622043488561
 10
40.07990604390002
 20
27.4686084610856
 10
40.14999999999997
 20
27.50716155288563
 10
40.14999999999997
 20
27.50716155288563
  0
LINE
  5
989
330
79F
100
AcDbEntity
  8
0
  6
SLD-Durchgehend
 62
     7
370
    15
100
AcDbLine
 10
39.5045867714
 20
27.15716155288561
 30
0.0
 11
37.98922812579999
 21
27.15716155288561
 31
0.0
  0
LINE
  5
98A
330
79F
100
AcDbEntity
  8
0
  6
SLD-Gestrichelt
 62
     7
370
     0
100
AcDbLine
 10
9.849999999999994
 20
27.50716155288563
 30
0.0
 11
9.849999999999994
 21
11.29934483198562
 31
0.0
  0
CIRCLE
  5
98B
330
79F
100
AcDbEntity
  8
0
  6
SLD-Gestrichelt
 62
     7
370
     0
100
AcDbCircle
 10
25.0
 20
0.0071615528856199
 30
0.0
 40
4.250000000000013
  0
LWPOLYLINE
  5
98C
330
79F
100
AcDbEntity
  8
0
  6
SLD-Gestrichelt
 62
     7
370
     0
100
AcDbPolyline
 90
       59
 70
   128
 43
0.0
 10
19.32151083279998
 20
4.986465547685611
 10
20.6099544422
 20
5.007161552885619
 10
23.05886361910001
 20
4.979509081985622
 10
24.3387694015
 20
4.966602992085626
 10
24.6034329096
 20
4.96657128748563
 10
25.13008781969998
 20
4.96650819818562
 10
25.6329603602
 20
4.966447957985621
 10
28.12413839569998
 20
4.996628182285618
 10
29.37199013069998
 20
5.007158578085622
 10
30.5973726727
 20
4.989326845885623
 10
32.0544754073
 20
4.886311392685612
 10
33.44350066690001
 20
4.623387110385619
 10
34.3010651715
 20
4.313233750785625
 10
35.0903532194
 20
3.849672504185633
 10
35.60717633579999
 20
3.388946812185621
 10
36.05610023509999
 20
2.807631112985617
 10
36.354652813
 20
2.246845679285613
 10
36.58601866769997
 20
1.602942055785629
 10
36.73247092809997
 20
0.9250220013856278
 10
36.7986152003
 20
0.1923289586856214
 10
36.78322630310001
 20
-0.4666856761143805
 10
36.6944549115
 20
-1.131216325414384
 10
36.54142547379999
 20
-1.73726625081437
 10
36.31828634230001
 20
-2.312591811914372
 10
36.02245992239999
 20
-2.845531360914364
 10
35.6576226498
 20
-3.319688581914377
 10
35.06176280550002
 20
-3.856407791614373
 10
34.35918621239999
 20
-4.271774141514383
 10
33.24596229330001
 20
-4.661182445714388
 10
31.99753406029997
 20
-4.878567790614382
 10
29.94863899090001
 20
-4.989560907714377
 10
27.73008134959998
 20
-4.976653059414374
 10
25.41123605299998
 20
-4.951137140914369
 10
24.89693142999999
 20
-4.954265591714372
 10
24.4989999041
 20
-4.956686159514376
 10
23.02471541239996
 20
-4.965654048114386
 10
20.57592909039998
 20
-4.992827744814376
 10
19.36280116559998
 20
-4.973631623114386
 10
18.18194342399999
 20
-4.897668447414386
 10
17.04413791749999
 20
-4.727520658514378
 10
15.9678477404
 20
-4.41315852681437
 10
15.2184097619
 20
-4.043708844214362
 10
14.5398290439
 20
-3.523247524814378
 10
14.103903626
 20
-3.027252184914388
 10
13.73521081
 20
-2.423366634914384
 10
13.46249693599999
 20
-1.749602112814371
 10
13.27861607859998
 20
-0.9805281617143748
 10
13.20615407279999
 20
-0.2984395209143713
 10
13.21212390779999
 20
0.4160521408856255
 10
13.2887814618
 20
1.054508666285627
 10
13.43690304109998
 20
1.681377258985619
 10
13.65021836159999
 20
2.257813762685614
 10
13.93305177510001
 20
2.790409386385618
 10
14.29971168489998
 20
3.285823343385626
 10
14.73516717509999
 20
3.712200625285618
 10
15.4827030126
 20
4.207396781185622
 10
16.34603651649999
 20
4.560856628385637
 10
17.75888682219997
 20
4.862866875885629
 10
19.32151083279998
 20
4.986465547685611
  0
CIRCLE
  5
98D
330
79F
100
AcDbEntity
  8
0
  6
SLD-Gestrichelt
 62
     7
370
     0
100
AcDbCircle
 10
25.0
 20
0.0071615528856199
 30
0.0
 40
4.25
  0
LWPOLYLINE
  5
98E
330
79F
100
AcDbEntity
  8
0
  6
SLD-Durchgehend
 62
     7
370
    15
100
AcDbPolyline
 90
       39
 70
   128
 43
0.0
 10
21.11659198639995
 20
3.869888126285616
 10
20.53530112159998
 20
3.305832396185618
 10
20.04446369219999
 20
2.661427181885613
 10
19.61930240399999
 20
1.849577000185615
 10
19.34892060109999
 20
0.9730583376856143
 10
19.25264638049998
 20
0.1431669293856146
 10
19.30146533279996
 20
-0.6909515031143771
 10
19.48182263309998
 20
-1.461457301514385
 10
19.78289134979998
 20
-2.192541149514382
 10
20.20856533059998
 20
-2.885740301914381
 10
20.73534648469999
 20
-3.505102744514372
 10
21.40461809729998
 20
-4.080771974914384
 10
22.15489549199998
 20
-4.547449502014372
 10
23.04302425949998
 20
-4.922649333414367
 10
23.98032580889998
 20
-5.15435347531438
 10
24.9959402364
 20
-5.237490514214369
 10
26.01166591649998
 20
-5.155672254714374
 10
27.01466266509997
 20
-4.903043897214386
 10
27.95949536410001
 20
-4.486201022914372
 10
28.80433818129998
 20
-3.91971266171437
 10
29.5340641281
 20
-3.212416076814376
 10
30.08708947899998
 20
-2.430341246814379
 10
30.48624055569998
 20
-1.558869691114379
 10
30.693517866
 20
-0.7189451189143769
 10
30.74800424899998
 20
0.144925578485612
 10
30.65745370459998
 20
0.9388528143856119
 10
30.43805178709998
 20
1.706676295685625
 10
30.09655934149998
 20
2.429049968385625
 10
29.64762758879999
 20
3.089293118185622
 10
29.06233959869997
 20
3.713090822985618
 10
28.38833313109998
 20
4.240340035485615
 10
27.56944411809999
 20
4.696167191085621
 10
26.68840935129998
 20
5.01974724638562
 10
25.7024112322
 20
5.212312556385626
 10
24.69764018379998
 20
5.245013873885625
 10
23.6736433639
 20
5.109472292485633
 10
22.68731666739998
 20
4.806943004385613
 10
21.86481027279997
 20
4.399553085085613
 10
21.11659195909997
 20
3.869888168685617
  0
LINE
  5
98F
330
79F
100
AcDbEntity
  8
0
  6
SLD-Durchgehend
 62
     7
370
    15
100
AcDbLine
 10
23.55662432699998
 20
-2.49283844711438
 30
0.0
 11
22.11324865409999
 21
0.0071615528856199
 31
0.0
  0
LINE
  5
990
330
79F
100
AcDbEntity
  8
0
  6
SLD-Durchgehend
 62
     7
370
    15
100
AcDbLine
 10
23.55662432699998
 20
2.507161552885619
 30
0.0
 11
22.11324865409999
 21
0.0071615528856199
 31
0.0
  0
CIRCLE
  5
991
330
79F
100
AcDbEntity
  8
0
  6
SLD-Durchgehend
 62
     7
370
    15
100
AcDbCircle
 10
25.0
 20
0.0071615528856199
 30
0.0
 40
5.000000000000056
  0
CIRCLE
  5
992
330
79F
100
AcDbEntity
  8
0
  6
SLD-Durchgehend
 62
     7
370
    15
100
AcDbCircle
 10
25.0
 20
0.0071615528856199
 30
0.0
 40
4.172000000000026
  0
ARC
  5
993
330
79F
100
AcDbEntity
  8
0
  6
SLD-Gestrichelt
 62
     7
370
     0
100
AcDbCircle
 10
-3.112751833600015
 20
2.676402931485625
 30
0.0
 40
15.57253795882933
100
AcDbArc
 50
0.5110410423002458
 51
33.62669322190024
  0
LINE
  5
994
330
79F
100
AcDbEntity
  8
0
  6
SLD-Gestrichelt
 62
     7
370
     0
100
AcDbLine
 10
12.45916669440001
 20
2.807161552885615
 30
0.0
 11
12.45916669440001
 21
0.0071615528856199
 31
0.0
  0
LINE
  5
995
330
79F
100
AcDbEntity
  8
0
  6
SLD-Gestrichelt
 62
     7
370
     0
100
AcDbLine
 10
12.45916669440001
 20
0.0071615528856199
 30
0.0
 11
12.45916669440001
 21
2.807161552885615
 31
0.0
  0
LINE
  5
996
330
79F
100
AcDbEntity
  8
0
  6
SLD-Durchgehend
 62
     7
370
    15
100
AcDbLine
 10
26.44337567299999
 20
-2.49283844711438
 30
0.0
 11
27.88675134600001
 21
0.0071615528856199
 31
0.0
  0
LINE
  5
997
330
79F
100
AcDbEntity
  8
0
  6
SLD-Durchgehend
 62
     7
370
    15
100
AcDbLine
 10
23.55662432699998
 20
-2.49283844711438
 30
0.0
 11
26.44337567299999
 21
-2.49283844711438
 31
0.0
  0
LINE
  5
998
330
79F
100
AcDbEntity
  8
0
  6
SLD-Durchgehend
 62
     7
370
    15
100
AcDbLine
 10
26.44337567299999
 20
2.507161552885619
 30
0.0
 11
27.88675134600001
 21
0.0071615528856199
 31
0.0
  0
LINE
  5
999
330
79F
100
AcDbEntity
  8
0
  6
SLD-Durchgehend
 62
     7
370
    15
100
AcDbLine
 10
23.55662432699998
 20
2.507161552885619
 30
0.0
 11
26.44337567299999
 21
2.507161552885619
 31
0.0
  0
LINE
  5
99A
330
79F
100
AcDbEntity
  8
0
  6
SLD-Gestrichelt
 62
     7
370
     0
100
AcDbLine
 10
37.54083330569997
 20
2.807161552885615
 30
0.0
 11
37.54083330569997
 21
0.0071615528856199
 31
0.0
  0
LINE
  5
99B
330
79F
100
AcDbEntity
  8
0
  6
SLD-Gestrichelt
 62
     7
370
     0
100
AcDbLine
 10
37.54083330569997
 20
0.0071615528856199
 30
0.0
 11
37.54083330569997
 21
2.807161552885615
 31
0.0
  0
ARC
  5
99C
330
79F
100
AcDbEntity
  8
0
  6
SLD-Durchgehend
 62
     7
370
    15
100
AcDbCircle
 10
17.75000006569998
 20
59.6467297132856
 30
0.0
 40
32.99441373202297
100
AcDbArc
 50
259.9831121547993
 51
280.0172955154
  0
LINE
  5
99D
330
79F
100
AcDbEntity
  8
0
  6
SLD-Durchgehend
 62
     7
370
    15
100
AcDbLine
 10
12.01100318839999
 20
27.15716155288561
 30
0.0
 11
10.49519448409999
 21
27.15716155288561
 31
0.0
  0
LINE
  5
99E
330
79F
100
AcDbEntity
  8
0
  6
SLD-Durchgehend
 62
     7
370
    15
100
AcDbLine
 10
13.9898752466
 20
26.87128191858562
 30
0.0
 11
13.86659195909999
 21
26.88452541888562
 31
0.0
  0
LINE
  5
99F
330
79F
100
AcDbEntity
  8
0
  6
SLD-Durchgehend
 62
     7
370
    15
100
AcDbLine
 10
13.86659198639998
 20
26.88452556308561
 30
0.0
 11
13.64113384279997
 21
26.91321599088562
 31
0.0
  0
ARC
  5
9A0
330
79F
100
AcDbEntity
  8
0
  6
SLD-Durchgehend
 62
     7
370
    15
100
AcDbCircle
 10
32.25000006569998
 20
59.6467297132856
 30
0.0
 40
32.99441373202378
100
AcDbArc
 50
259.9831121547993
 51
280.0172955154
  0
ARC
  5
9A1
330
79F
100
AcDbEntity
  8
0
  6
SLD-Durchgehend
 62
     7
370
    15
100
AcDbCircle
 10
25.0
 20
55.34709660188561
 30
0.0
 40
28.21763523166669
100
AcDbArc
 50
267.4610498552991
 51
272.5389501447007
  0
LINE
  5
9A2
330
79F
100
AcDbEntity
  8
0
  6
SLD-Durchgehend
 62
     7
370
    15
100
AcDbLine
 10
26.51100318839998
 20
27.15716155288561
 30
0.0
 11
26.25
 21
27.15716155288561
 31
0.0
  0
LINE
  5
9A3
330
79F
100
AcDbEntity
  8
0
  6
SLD-Durchgehend
 62
     7
370
    15
100
AcDbLine
 10
23.75
 20
27.15716155288561
 30
0.0
 11
23.48922812579999
 21
27.15716155288561
 31
0.0
  0
LINE
  5
9A4
330
79F
100
AcDbEntity
  8
0
  6
SLD-Durchgehend
 62
     7
370
    15
100
AcDbLine
 10
28.4898752466
 20
26.87128191858562
 30
0.0
 11
28.36659195909998
 21
26.88452541888562
 31
0.0
  0
LINE
  5
9A5
330
79F
100
AcDbEntity
  8
0
  6
SLD-Durchgehend
 62
     7
370
    15
100
AcDbLine
 10
28.36659198639997
 20
26.88452556308561
 30
0.0
 11
28.14113384279997
 21
26.91321599088562
 31
0.0
  0
LINE
  5
9A6
330
79F
100
AcDbEntity
  8
0
  6
SLD-Gestrichelt
 62
     7
370
     0
100
AcDbLine
 10
40.14999999999997
 20
11.2829886126856
 30
0.0
 11
40.14999999999997
 21
17.52583161318563
 31
0.0
  0
LINE
  5
9A7
330
79F
100
AcDbEntity
  8
0
  6
SLD-Durchgehend
 62
     7
370
    15
100
AcDbLine
 10
44.99999999999997
 20
21.00716155288562
 30
0.0
 11
44.99999999999997
 21
0.0071615528856199
 31
0.0
  0
LINE
  5
9A8
330
79F
100
AcDbEntity
  8
0
  6
SLD-Gestrichelt
 62
     7
370
     0
100
AcDbLine
 10
44.99999999999997
 20
2.807161552885615
 30
0.0
 11
44.99999999999997
 21
12.00716155288561
 31
0.0
  0
LINE
  5
9A9
330
79F
100
AcDbEntity
  8
0
  6
SLD-Gestrichelt
 62
     7
370
     0
100
AcDbLine
 10
44.29999999999998
 20
2.807161552885615
 30
0.0
 11
44.29999999999998
 21
11.3071615528856
 31
0.0
  0
LINE
  5
9AA
330
79F
100
AcDbEntity
  8
0
  6
SLD-Gestrichelt
 62
     7
370
     0
100
AcDbLine
 10
44.99999999999997
 20
5.007161552885619
 30
0.0
 11
44.99999999999997
 21
-4.99283844711438
 31
0.0
  0
LINE
  5
9AB
330
79F
100
AcDbEntity
  8
0
  6
SLD-Durchgehend
 62
     7
370
    15
100
AcDbLine
 10
45.00438403839999
 20
5.007161552885619
 30
0.0
 11
45.00438403839999
 21
-4.99283844711438
 31
0.0
  0
LINE
  5
9AC
330
79F
100
AcDbEntity
  8
0
  6
SLD-Durchgehend
 62
     7
370
    15
100
AcDbLine
 10
44.99999999999997
 20
-4.99283844711438
 30
0.0
 11
45.00438403839999
 21
-4.99283844711438
 31
0.0
  0
LINE
  5
9AD
330
79F
100
AcDbEntity
  8
0
  6
SLD-Gestrichelt
 62
     7
370
     0
100
AcDbLine
 10
44.99999999999997
 20
2.807161552885615
 30
0.0
 11
44.99999999999997
 21
0.0071615528856199
 31
0.0
  0
LINE
  5
9AE
330
79F
100
AcDbEntity
  8
0
  6
SLD-Gestrichelt
 62
     7
370
     0
100
AcDbLine
 10
44.29999999999998
 20
0.0071615528856199
 30
0.0
 11
44.29999999999998
 21
2.807161552885615
 31
0.0
  0
LINE
  5
9AF
330
79F
100
AcDbEntity
  8
0
  6
SLD-Gestrichelt
 62
     7
370
     0
100
AcDbLine
 10
44.29999999999998
 20
2.807161552885615
 30
0.0
 11
44.29999999999998
 21
0.0071615528856199
 31
0.0
  0
LINE
  5
9B0
330
79F
100
AcDbEntity
  8
0
  6
SLD-Gestrichelt
 62
     7
370
     0
100
AcDbLine
 10
44.99999999999997
 20
0.0071615528856199
 30
0.0
 11
44.99999999999997
 21
2.807161552885615
 31
0.0
  0
LINE
  5
9B1
330
79F
100
AcDbEntity
  8
0
  6
SLD-Durchgehend
 62
     7
370
    15
100
AcDbLine
 10
45.00438403839999
 20
5.007161552885619
 30
0.0
 11
44.99999999999997
 21
5.007161552885619
 31
0.0
  0
LINE
  5
9B2
330
79F
100
AcDbEntity
  8
0
  6
SLD-Gestrichelt
 62
     7
370
     0
100
AcDbLine
 10
44.29999999999998
 20
11.3071615528856
 30
0.0
 11
40.13648081730003
 21
11.3071615528856
 31
0.0
  0
LINE
  5
9B3
330
79F
100
AcDbEntity
  8
0
  6
SLD-Gestrichelt
 62
     7
370
     0
100
AcDbLine
 10
44.99999999999997
 20
12.00716155288561
 30
0.0
 11
44.29999999999998
 21
11.3071615528856
 31
0.0
  0
LINE
  5
9B4
330
79F
100
AcDbEntity
  8
0
  6
SLD-Gestrichelt
 62
     7
370
     0
100
AcDbLine
 10
40.14999999999997
 20
20.50716155288561
 30
0.0
 11
40.14999999999997
 21
27.50716155288563
 31
0.0
  0
ARC
  5
9B5
330
79F
100
AcDbEntity
  8
0
  6
SLD-Durchgehend
 62
     7
370
    15
100
AcDbCircle
 10
42.49100326119999
 20
26.50716155288562
 30
0.0
 40
1.000000000000009
100
AcDbArc
 50
15.00000000000037
 51
90.0
  0
LINE
  5
9B6
330
79F
100
AcDbEntity
  8
0
  6
SLD-Durchgehend
 62
     7
370
    15
100
AcDbLine
 10
44.99999999999997
 20
21.00716155288562
 30
0.0
 11
43.45692908749998
 21
26.76598059798561
 31
0.0
  0
LINE
  5
9B7
330
79F
100
AcDbEntity
  8
0
  6
SLD-Gestrichelt
 62
     7
370
     0
100
AcDbLine
 10
40.14817512179999
 20
17.50716155288562
 30
0.0
 11
44.99999999999997
 21
17.50716155288562
 31
0.0
  0
LINE
  5
9B8
330
79F
100
AcDbEntity
  8
0
  6
SLD-Gestrichelt
 62
     7
370
     0
100
AcDbLine
 10
44.99999999999997
 20
20.50716155288561
 30
0.0
 11
40.14999999999997
 21
20.50716155288561
 31
0.0
  0
LWPOLYLINE
  5
9B9
330
79F
100
AcDbEntity
  8
0
  6
SLD-Gestrichelt
 62
     7
370
     0
100
AcDbPolyline
 90
       21
 70
   128
 43
0.0
 10
40.1464305878
 20
20.47067088028561
 10
40.14999999999997
 20
20.50716155288561
 10
40.14190678929995
 20
20.42308570878561
 10
40.12115541679997
 20
20.18055029508562
 10
40.0966844747
 20
19.8055237067856
 10
40.07921916309999
 20
19.33935211498564
 10
40.07652001879995
 20
18.83699728628562
 10
40.08963529559999
 20
18.35555326938562
 10
40.11282804449999
 20
17.94646767568562
 10
40.13606915529999
 20
17.65509296198561
 10
40.14910429080001
 20
17.51623539318562
 10
40.14816902649999
 20
17.52583161318563
 10
40.1462570754
 20
17.54544906618561
 10
40.12889717760001
 20
17.73789806208561
 10
40.10447148059998
 20
18.0730530435856
 10
40.08359635179997
 20
18.51484163418564
 10
40.0755603897
 20
19.01175103548561
 10
40.08381264819997
 20
19.50606435538563
 10
40.10465610969998
 20
19.9442507648856
 10
40.12910269539998
 20
20.27887235608563
 10
40.1464305878
 20
20.47067088028561
  0
LINE
  5
9BA
330
79F
100
AcDbEntity
  8
0
  6
SLD-Gestrichelt
 62
     7
370
     0
100
AcDbLine
 10
44.99999999999997
 20
20.50716155288561
 30
0.0
 11
44.99999999999997
 21
17.52113263388562
 31
0.0
  0
LINE
  5
9BB
330
79F
100
AcDbEntity
  8
0
  6
SLD-Durchgehend
 62
     7
370
    15
100
AcDbLine
 10
45.00438403839999
 20
19.70462867258561
 30
0.0
 11
45.00438403839999
 21
19.81894179648563
 31
0.0
  0
LINE
  5
9BC
330
79F
100
AcDbEntity
  8
0
  6
SLD-Durchgehend
 62
     7
370
    15
100
AcDbLine
 10
45.00438403839999
 20
19.81894179648563
 30
0.0
 11
45.00438403839999
 21
20.50716155288561
 31
0.0
  0
LINE
  5
9BD
330
79F
100
AcDbEntity
  8
0
  6
SLD-Durchgehend
 62
     7
370
    15
100
AcDbLine
 10
45.00438403839999
 20
19.69363566848562
 30
0.0
 11
45.00438403839999
 21
19.70462867258561
 31
0.0
  0
LINE
  5
9BE
330
79F
100
AcDbEntity
  8
0
  6
SLD-Durchgehend
 62
     7
370
    15
100
AcDbLine
 10
44.99999999999997
 20
19.70466155288562
 30
0.0
 11
45.00438403839999
 21
19.70462867258561
 31
0.0
  0
LINE
  5
9BF
330
79F
100
AcDbEntity
  8
0
  6
SLD-Durchgehend
 62
     7
370
    15
100
AcDbLine
 10
45.00438403839999
 20
17.50890719378561
 30
0.0
 11
45.00438403839999
 21
19.69363566848562
 31
0.0
  0
LINE
  5
9C0
330
79F
100
AcDbEntity
  8
0
  6
SLD-Durchgehend
 62
     7
370
    15
100
AcDbLine
 10
45.00438403839999
 20
20.50716155288561
 30
0.0
 11
44.99999999999997
 21
20.50716155288561
 31
0.0
  0
LINE
  5
9C1
330
79F
100
AcDbEntity
  8
0
  6
SLD-Durchgehend
 62
     7
370
    15
100
AcDbLine
 10
42.49100326119999
 20
27.50716155288563
 30
0.0
 11
40.14999999999997
 21
27.50716155288563
 31
0.0
  0
ENDBLK
  5
9C3
330
79F
100
AcDbEntity
  8
0
100
AcDbBlockEnd
  0
BLOCK
  5
9FE
330
9FA
100
AcDbEntity
  8
0
100
AcDbBlockBegin
  2
A$C2F26163D
 70
     0
 10
0.0
 20
0.0
 30
0.0
  3
A$C2F26163D
  1

  0
ARC
  5
9FB
330
9FA
100
AcDbEntity
  8
0
  6
SLD-Gestrichelt
 62
     7
370
     0
100
AcDbCircle
 10
59.74303273690001
 20
48.47158367161438
 30
0.0
 40
96.02022913003864
100
AcDbArc
 50
202.7966639678998
 51
208.4062588424005
  0
ARC
  5
9FC
330
9FA
100
AcDbEntity
  8
0
  6
SLD-Gestrichelt
 62
     7
370
     0
100
AcDbCircle
 10
-29.55343092350002
 20
-0.0597806124856106
 30
0.0
 40
5.615855268647596
100
AcDbArc
 50
0.5368539627000161
 51
30.52791394059945
  0
ARC
  5
9FD
330
9FA
100
AcDbEntity
  8
0
  6
SLD-Gestrichelt
 62
     7
370
     0
100
AcDbCircle
 10
-29.8119356025
 20
-0.1316276750856105
 30
0.0
 40
5.875431932450909
100
AcDbArc
 50
1.213854074699754
 51
29.8509138286
  0
ENDBLK
  5
9FF
330
9FA
100
AcDbEntity
  8
0
100
AcDbBlockEnd
  0
BLOCK
  5
A38
330
A2F
100
AcDbEntity
  8
0
100
AcDbBlockBegin
  2
*D10
 70
     1
 10
0.0
 20
0.0
 30
0.0
  3
*D10
  1

  0
SOLID
  5
A30
330
A2F
100
AcDbEntity
  8
VERMASSUNG
100
AcDbTrace
 10
105.8967783796999
 20
129.8204805212999
 30
0.0
 11
105.4467783797
 21
126.8204805212999
 31
0.0
 12
106.3467783796999
 22
126.8204805212999
 32
0.0
 13
106.3467783796999
 23
126.8204805212999
 33
0.0
  0
SOLID
  5
A31
330
A2F
100
AcDbEntity
  8
VERMASSUNG
100
AcDbTrace
 10
105.8967783796999
 20
87.82048052129999
 30
0.0
 11
106.3467783796999
 21
90.8204805213
 31
0.0
 12
105.4467783797
 22
90.8204805213
 32
0.0
 13
105.4467783797
 23
90.8204805213
 33
0.0
  0
LINE
  5
A32
330
A2F
100
AcDbEntity
  8
VERMASSUNG
100
AcDbLine
 10
136.3259514879
 20
129.8204805212999
 30
0.0
 11
104.8967783796999
 21
129.8204805212999
 31
0.0
  0
LINE
  5
A33
330
A2F
100
AcDbEntity
  8
VERMASSUNG
100
AcDbLine
 10
136.3259514879
 20
87.82048052129999
 30
0.0
 11
104.8967783796999
 21
87.82048052129999
 31
0.0
  0
LINE
  5
A34
330
A2F
100
AcDbEntity
  8
VERMASSUNG
100
AcDbLine
 10
105.8967783796999
 20
129.8204805212999
 30
0.0
 11
105.8967783796999
 21
87.82048052129999
 31
0.0
  0
MTEXT
  5
A35
330
A2F
100
AcDbEntity
  8
VERMASSUNG
100
AcDbMText
 10
103.0967786029998
 20
102.4401975748
 30
0.0
 40
2.0
 41
0.0
 71
     1
 72
     1
  1
{MBM }
  7
SLDTEXTSTYLE0
 11
-0.000000000000007
 21
1.0
 31
0.0
 73
     1
 44
1.0
  0
MTEXT
  5
A36
330
A2F
100
AcDbEntity
  8
VERMASSUNG
100
AcDbMText
 10
103.2967785543
 20
108.8401974131
 30
0.0
 40
2.0
 41
0.0
 71
     1
 72
     1
  1
{%%c}
  7
SLDTEXTSTYLE0
 11
-0.000000000000007
 21
1.0
 31
0.0
 73
     1
 44
1.0
  0
MTEXT
  5
A37
330
A2F
100
AcDbEntity
  8
VERMASSUNG
100
AcDbMText
 10
103.2967782632999
 20
112.4501278027
 30
0.0
 40
2.0
 41
0.0
 71
     1
 72
     1
  1
{42}
  7
SLDTEXTSTYLE0
 11
-0.000000000000007
 21
1.0
 31
0.0
 73
     1
 44
1.0
  0
ENDBLK
  5
A39
330
A2F
100
AcDbEntity
  8
0
100
AcDbBlockEnd
  0
BLOCK
  5
A41
330
A3A
100
AcDbEntity
  8
0
100
AcDbBlockBegin
  2
*D11
 70
     1
 10
0.0
 20
0.0
 30
0.0
  3
*D11
  1

  0
SOLID
  5
A3B
330
A3A
100
AcDbEntity
  8
VERMASSUNG
100
AcDbTrace
 10
136.0259514879
 20
136.2277738717
 30
0.0
 11
139.0259514879
 21
135.7777738717
 31
0.0
 12
139.0259514879
 22
136.6777738716999
 32
0.0
 13
139.0259514879
 23
136.6777738716999
 33
0.0
  0
SOLID
  5
A3C
330
A3A
100
AcDbEntity
  8
VERMASSUNG
100
AcDbTrace
 10
181.0259514879
 20
136.2277738717
 30
0.0
 11
178.0259514879
 21
136.6777738716999
 31
0.0
 12
178.0259514879
 22
135.7777738717
 32
0.0
 13
178.0259514879
 23
135.7777738717
 33
0.0
  0
LINE
  5
A3D
330
A3A
100
AcDbEntity
  8
VERMASSUNG
100
AcDbLine
 10
136.0259514879
 20
129.5204805212996
 30
0.0
 11
136.0259514879
 21
137.2277738717
 31
0.0
  0
LINE
  5
A3E
330
A3A
100
AcDbEntity
  8
VERMASSUNG
100
AcDbLine
 10
181.0259514879
 20
125.3204805213
 30
0.0
 11
181.0259514879
 21
137.2277738717
 31
0.0
  0
LINE
  5
A3F
330
A3A
100
AcDbEntity
  8
VERMASSUNG
100
AcDbLine
 10
136.0259514879
 20
136.2277738717
 30
0.0
 11
181.0259514879
 21
136.2277738717
 31
0.0
  0
MTEXT
  5
A40
330
A3A
100
AcDbEntity
  8
VERMASSUNG
100
AcDbMText
 10
157.309425935
 20
138.8277739881
 30
0.0
 40
2.0
 41
0.0
 71
     1
 72
     1
  1
{45}
  7
SLDTEXTSTYLE0
 73
     1
 44
1.0
  0
ENDBLK
  5
A42
330
A3A
100
AcDbEntity
  8
0
100
AcDbBlockEnd
  0
BLOCK
  5
A4A
330
A43
100
AcDbEntity
  8
0
100
AcDbBlockBegin
  2
*D12
 70
     1
 10
0.0
 20
0.0
 30
0.0
  3
*D12
  1

  0
SOLID
  5
A44
330
A43
100
AcDbEntity
  8
VERMASSUNG
100
AcDbTrace
 10
112.0259514878999
 20
142.2277738716998
 30
0.0
 11
115.0259514879
 21
141.7777738716999
 31
0.0
 12
115.0259514879
 22
142.6777738716999
 32
0.0
 13
115.0259514879
 23
142.6777738716999
 33
0.0
  0
SOLID
  5
A45
330
A43
100
AcDbEntity
  8
VERMASSUNG
100
AcDbTrace
 10
181.0259514879
 20
142.2277738716998
 30
0.0
 11
178.0259514879
 21
142.6777738716999
 31
0.0
 12
178.0259514879
 22
141.7777738716999
 32
0.0
 13
178.0259514879
 23
141.7777738716999
 33
0.0
  0
LINE
  5
A46
330
A43
100
AcDbEntity
  8
VERMASSUNG
100
AcDbLine
 10
112.0259514878999
 20
119.9204805213
 30
0.0
 11
112.0259514878999
 21
143.2277738717
 31
0.0
  0
LINE
  5
A47
330
A43
100
AcDbEntity
  8
VERMASSUNG
100
AcDbLine
 10
181.0259514879
 20
125.3204805213
 30
0.0
 11
181.0259514879
 21
143.2277738717
 31
0.0
  0
LINE
  5
A48
330
A43
100
AcDbEntity
  8
VERMASSUNG
100
AcDbLine
 10
112.0259514878999
 20
142.2277738716998
 30
0.0
 11
181.0259514879
 21
142.2277738716998
 31
0.0
  0
MTEXT
  5
A49
330
A43
100
AcDbEntity
  8
VERMASSUNG
100
AcDbMText
 10
144.0165706534
 20
144.8277739881
 30
0.0
 40
2.0
 41
0.0
 71
     1
 72
     1
  1
{69}
  7
SLDTEXTSTYLE0
 73
     1
 44
1.0
  0
ENDBLK
  5
A4B
330
A43
100
AcDbEntity
  8
0
100
AcDbBlockEnd
  0
BLOCK
  5
EC8
330
EBE
100
AcDbEntity
  8
0
100
AcDbBlockBegin
  2
*D13
 70
     1
 10
0.0
 20
0.0
 30
0.0
  3
*D13
  1

  0
LINE
  5
EE2
330
EBE
100
AcDbEntity
  8
VERMASSUNG
 62
     0
370
    -2
100
AcDbLine
 10
-24.00000000000001
 20
11.09999999999999
 30
0.0
 11
-24.00000000000001
 21
34.40729335040001
 31
0.0
  0
LINE
  5
EE3
330
EBE
100
AcDbEntity
  8
VERMASSUNG
 62
     0
370
    -2
100
AcDbLine
 10
45.0
 20
16.5
 30
0.0
 11
45.0
 21
34.40729335040001
 31
0.0
  0
LINE
  5
EE4
330
EBE
100
AcDbEntity
  8
VERMASSUNG
 62
     0
370
    -2
100
AcDbLine
 10
-21.0
 20
33.40729335040001
 30
0.0
 11
42.0
 21
33.40729335040001
 31
0.0
  0
SOLID
  5
EE5
330
EBE
100
AcDbEntity
  8
VERMASSUNG
 62
     0
100
AcDbTrace
 10
-21.0
 20
33.90729335040001
 30
0.0
 11
-21.0
 21
32.90729335040001
 31
0.0
 12
-24.00000000000001
 22
33.40729335040001
 32
0.0
 13
-24.00000000000001
 23
33.40729335040001
 33
0.0
  0
SOLID
  5
EE6
330
EBE
100
AcDbEntity
  8
VERMASSUNG
 62
     0
100
AcDbTrace
 10
42.0
 20
33.90729335040001
 30
0.0
 11
42.0
 21
32.90729335040001
 31
0.0
 12
45.0
 22
33.40729335040001
 32
0.0
 13
45.0
 23
33.40729335040001
 33
0.0
  0
MTEXT
  5
EE7
330
EBE
100
AcDbEntity
  8
VERMASSUNG
 62
     0
100
AcDbMText
 10
6.489727589599968
 20
36.93129335040001
 30
0.0
 40
2.0
 41
0.0
 71
     1
 72
     1
  1
\A1;69.00
  7
SLDTEXTSTYLE0
 73
     1
 44
1.0
  0
POINT
  5
EE8
330
EBE
100
AcDbEntity
  8
Defpoints
 62
     0
100
AcDbPoint
 10
-24.00000000000001
 20
11.09999999999999
 30
0.0
  0
POINT
  5
EE9
330
EBE
100
AcDbEntity
  8
Defpoints
 62
     0
100
AcDbPoint
 10
45.0
 20
16.5
 30
0.0
  0
POINT
  5
EEA
330
EBE
100
AcDbEntity
  8
Defpoints
 62
     0
100
AcDbPoint
 10
45.0
 20
33.40729335040001
 30
0.0
  0
ENDBLK
  5
EC9
330
EBE
100
AcDbEntity
  8
0
100
AcDbBlockEnd
  0
BLOCK
  5
ED4
330
ECA
100
AcDbEntity
  8
0
100
AcDbBlockBegin
  2
*D14
 70
     1
 10
0.0
 20
0.0
 30
0.0
  3
*D14
  1

  0
LINE
  5
F97
330
ECA
100
AcDbEntity
  8
2
 62
     0
370
    -2
100
AcDbLine
 10
-106.3247193680048
 20
-42.41711025617941
 30
0.0
 11
-106.3247193680048
 21
-33.20981690577939
 31
0.0
  0
LINE
  5
F98
330
ECA
100
AcDbEntity
  8
2
 62
     0
370
    -2
100
AcDbLine
 10
-61.32471936800479
 20
-46.61711025617941
 30
0.0
 11
-61.32471936800479
 21
-33.20981690577939
 31
0.0
  0
LINE
  5
F99
330
ECA
100
AcDbEntity
  8
2
 62
     0
370
    -2
100
AcDbLine
 10
-101.7547193680047
 20
-35.70981690577939
 30
0.0
 11
-65.89471936800478
 21
-35.70981690577939
 31
0.0
  0
SOLID
  5
F9A
330
ECA
100
AcDbEntity
  8
2
 62
     0
100
AcDbTrace
 10
-101.7547193680047
 20
-34.94815023911272
 30
0.0
 11
-101.7547193680047
 21
-36.47148357244606
 31
0.0
 12
-106.3247193680048
 22
-35.70981690577939
 32
0.0
 13
-106.3247193680048
 23
-35.70981690577939
 33
0.0
  0
SOLID
  5
F9B
330
ECA
100
AcDbEntity
  8
2
 62
     0
100
AcDbTrace
 10
-65.89471936800478
 20
-34.94815023911272
 30
0.0
 11
-65.89471936800478
 21
-36.47148357244606
 31
0.0
 12
-61.32471936800479
 22
-35.70981690577939
 32
0.0
 13
-61.32471936800479
 23
-35.70981690577939
 33
0.0
  0
MTEXT
  5
F9C
330
ECA
100
AcDbEntity
  8
2
 62
     7
100
AcDbMText
 10
-83.54155681380481
 20
-31.9248169057794
 30
0.0
 40
4.57
 41
0.0
 71
     5
 72
     1
  1
\A1;45
  7
GENPRESET
 73
     1
 44
1.0
  0
POINT
  5
F9D
330
ECA
100
AcDbEntity
  8
Defpoints
 62
     0
100
AcDbPoint
 10
-106.3247193680048
 20
-42.41711025617941
 30
0.0
  0
POINT
  5
F9E
330
ECA
100
AcDbEntity
  8
Defpoints
 62
     0
100
AcDbPoint
 10
-61.32471936800479
 20
-46.61711025617941
 30
0.0
  0
POINT
  5
F9F
330
ECA
100
AcDbEntity
  8
Defpoints
 62
     0
100
AcDbPoint
 10
-61.32471936800479
 20
-35.70981690577939
 30
0.0
  0
ENDBLK
  5
ED5
330
ECA
100
AcDbEntity
  8
0
100
AcDbBlockEnd
  0
BLOCK
  5
EE0
330
ED6
100
AcDbEntity
  8
0
100
AcDbBlockBegin
  2
*D15
 70
     1
 10
0.0
 20
0.0
 30
0.0
  3
*D15
  1

  0
LINE
  5
F8E
330
ED6
100
AcDbEntity
  8
SK2
 62
     0
370
    -2
100
AcDbLine
 10
-106.0247193680047
 20
-42.11711025617939
 30
0.0
 11
-138.9538924762047
 21
-42.11711025617939
 31
0.0
  0
LINE
  5
F8F
330
ED6
100
AcDbEntity
  8
SK2
 62
     0
370
    -2
100
AcDbLine
 10
-106.0247193680047
 20
-84.11711025617941
 30
0.0
 11
-138.9538924762047
 21
-84.11711025617941
 31
0.0
  0
LINE
  5
F90
330
ED6
100
AcDbEntity
  8
SK2
 62
     0
370
    -2
100
AcDbLine
 10
-136.4538924762048
 20
-46.6871102561794
 30
0.0
 11
-136.4538924762048
 21
-79.54711025617942
 31
0.0
  0
SOLID
  5
F91
330
ED6
100
AcDbEntity
  8
SK2
 62
     0
100
AcDbTrace
 10
-137.2155591428714
 20
-46.6871102561794
 30
0.0
 11
-135.692225809538
 21
-46.6871102561794
 31
0.0
 12
-136.4538924762048
 22
-42.11711025617939
 32
0.0
 13
-136.4538924762048
 23
-42.11711025617939
 33
0.0
  0
SOLID
  5
F92
330
ED6
100
AcDbEntity
  8
SK2
 62
     0
100
AcDbTrace
 10
-137.2155591428714
 20
-79.54711025617942
 30
0.0
 11
-135.6922258095382
 21
-79.54711025617942
 31
0.0
 12
-136.4538924762048
 22
-84.11711025617941
 32
0.0
 13
-136.4538924762048
 23
-84.11711025617941
 33
0.0
  0
MTEXT
  5
F93
330
ED6
100
AcDbEntity
  8
SK2
 62
     7
100
AcDbMText
 10
-140.2388924762048
 20
-62.99273998167942
 30
0.0
 40
4.57
 41
0.0
 71
     5
 72
     1
  1
\A1;MBM %%c42
  7
GENPRESET
 11
0.0000000000000001
 21
1.0
 31
0.0
 73
     1
 44
1.0
  0
POINT
  5
F94
330
ED6
100
AcDbEntity
  8
Defpoints
 62
     0
100
AcDbPoint
 10
-106.0247193680047
 20
-42.11711025617939
 30
0.0
  0
POINT
  5
F95
330
ED6
100
AcDbEntity
  8
Defpoints
 62
     0
100
AcDbPoint
 10
-106.0247193680047
 20
-84.11711025617941
 30
0.0
  0
POINT
  5
F96
330
ED6
100
AcDbEntity
  8
Defpoints
 62
     0
100
AcDbPoint
 10
-136.4538924762048
 20
-84.11711025617941
 30
0.0
  0
ENDBLK
  5
EE1
330
ED6
100
AcDbEntity
  8
0
100
AcDbBlockEnd
  0
BLOCK
  5
F38
330
EFD
100
AcDbEntity
  8
0
100
AcDbBlockBegin
  2
A$C234B32A7
 70
     0
 10
0.0
 20
0.0
 30
0.0
  3
A$C234B32A7
  1

  0
LINE
  5
EFE
330
EFD
100
AcDbEntity
  8
SK1
100
AcDbLine
 10
-0.5880946094000024
 20
9.745308333899984
 30
0.0
 11
-1.606834536400014
 21
10.50026785369998
 31
0.0
  0
LINE
  5
EFF
330
EFD
100
AcDbEntity
  8
SK1
100
AcDbLine
 10
-24.0
 20
-11.1
 30
0.0
 11
-24.0
 21
11.09999999999999
 31
0.0
  0
LINE
  5
F00
330
EFD
100
AcDbEntity
  8
SK1
100
AcDbLine
 10
-20.0
 20
-12.00000000000001
 30
0.0
 11
-20.0
 21
11.99999999999998
 31
0.0
  0
LINE
  5
F01
330
EFD
100
AcDbEntity
  8
SK1
100
AcDbLine
 10
-5.288334699949983
 20
-12.00000000000001
 30
0.0
 11
-5.288334699949983
 21
11.99999999999998
 31
0.0
  0
LINE
  5
F02
330
EFD
100
AcDbEntity
  8
1
100
AcDbLine
 10
0.0
 20
-20.69999999999998
 30
0.0
 11
0.0
 21
20.69999999999998
 31
0.0
  0
LINE
  5
F03
330
EFD
100
AcDbEntity
  8
3
100
AcDbLine
 10
0.5500000000000114
 20
-16.57499999999999
 30
0.0
 11
0.5500000000000114
 21
16.57499999999999
 31
0.0
  0
LINE
  5
F04
330
EFD
100
AcDbEntity
  8
SK1
100
AcDbLine
 10
-3.449999999999988
 20
-16.325
 30
0.0
 11
-3.449999999999988
 21
16.325
 31
0.0
  0
LINE
  5
F05
330
EFD
100
AcDbEntity
  8
SK4
100
AcDbLine
 10
0.0
 20
0.0
 30
0.0
 11
-24.0
 21
0.0
 31
0.0
  0
LINE
  5
F06
330
EFD
100
AcDbEntity
  8
SK1
100
AcDbLine
 10
-21.99460346455001
 20
-11.7196767642
 30
0.0
 11
-20.0
 21
-12.00000000000001
 31
0.0
  0
LINE
  5
F07
330
EFD
100
AcDbEntity
  8
SK3
100
AcDbLine
 10
-21.00000018259998
 20
-6.500000134099991
 30
0.0
 11
-20.15879540709998
 21
-5.100000183999995
 31
0.0
  0
LINE
  5
F08
330
EFD
100
AcDbEntity
  8
SK3
100
AcDbLine
 10
-20.15879540709998
 20
5.100000183999995
 30
0.0
 11
-21.00000018259998
 21
6.500000134100004
 31
0.0
  0
LINE
  5
F09
330
EFD
100
AcDbEntity
  8
SK3
100
AcDbLine
 10
-21.00000018259998
 20
-6.500000134099991
 30
0.0
 11
-21.00000018259998
 21
6.500000134100004
 31
0.0
  0
LINE
  5
F0A
330
EFD
100
AcDbEntity
  8
SK1
100
AcDbLine
 10
-23.06108145785001
 20
-11.88784620245
 30
0.0
 11
-22.11973197599998
 21
-11.72186089049999
 31
0.0
  0
ARC
  5
F0B
330
EFD
100
AcDbEntity
  8
SK1
100
AcDbCircle
 10
-22.05027270495
 20
-12.11578399169999
 30
0.0
 40
0.3999999999999999
100
AcDbArc
 50
81.99999999999922
 51
100.0
  0
ARC
  5
F0C
330
EFD
100
AcDbEntity
  8
SK1
100
AcDbCircle
 10
-23.19999999999999
 20
-11.1
 30
0.0
 40
0.8000000000000062
100
AcDbArc
 50
180.0
 51
280.0
  0
LINE
  5
F0D
330
EFD
100
AcDbEntity
  8
SK3
100
AcDbLine
 10
-23.50000018489998
 20
-6.500000134099991
 30
0.0
 11
-21.00000018259998
 21
-6.500000134099991
 31
0.0
  0
ARC
  5
F0E
330
EFD
100
AcDbEntity
  8
SK3
100
AcDbCircle
 10
-23.50000020869998
 20
-7.0
 30
0.0
 40
0.5
100
AcDbArc
 50
90.0
 51
180.0
  0
LINE
  5
F0F
330
EFD
100
AcDbEntity
  8
SK3
100
AcDbLine
 10
-21.00000018259998
 20
6.500000134100004
 30
0.0
 11
-23.50000018489998
 21
6.500000134100004
 31
0.0
  0
ARC
  5
F10
330
EFD
100
AcDbEntity
  8
SK3
100
AcDbCircle
 10
-23.50000020869998
 20
7.0
 30
0.0
 40
0.5
100
AcDbArc
 50
180.0
 51
270.0
  0
LINE
  5
F11
330
EFD
100
AcDbEntity
  8
3
100
AcDbLine
 10
0.0
 20
-17.9318345364
 30
0.0
 11
0.4750462296499907
 21
-16.9130946094
 31
0.0
  0
ARC
  5
F12
330
EFD
100
AcDbEntity
  8
1
100
AcDbCircle
 10
0.3000000000000114
 20
-20.69999999999998
 30
0.0
 40
0.3000000000000114
100
AcDbArc
 50
180.0
 51
270.0
  0
LINE
  5
F13
330
EFD
100
AcDbEntity
  8
SK3
100
AcDbLine
 10
0.0
 20
-5.100000000000004
 30
0.0
 11
-20.15879540709998
 21
-5.100000000000004
 31
0.0
  0
LINE
  5
F14
330
EFD
100
AcDbEntity
  8
SK3
100
AcDbLine
 10
-20.15879540709998
 20
5.100000000000004
 30
0.0
 11
0.0
 21
5.100000000000004
 31
0.0
  0
LINE
  5
F15
330
EFD
100
AcDbEntity
  8
SK1
100
AcDbLine
 10
-1.606834536400014
 20
-10.50026785375
 30
0.0
 11
-3.449999999999988
 21
-10.50026785375
 31
0.0
  0
LINE
  5
F16
330
EFD
100
AcDbEntity
  8
SK1
100
AcDbLine
 10
-3.449999999999988
 20
-16.325
 30
0.0
 11
-1.606834536400014
 21
-16.325
 31
0.0
  0
CIRCLE
  5
F17
330
EFD
100
AcDbEntity
  8
SK1
100
AcDbCircle
 10
-12.19999999999999
 20
0.0
 30
0.0
 40
4.0
  0
CIRCLE
  5
F18
330
EFD
100
AcDbEntity
  8
SK1
100
AcDbCircle
 10
-12.19999999999999
 20
0.0
 30
0.0
 40
5.013555400104165
  0
LWPOLYLINE
  5
F19
330
EFD
100
AcDbEntity
  8
SK1
100
AcDbPolyline
 90
       21
 70
   128
 43
0.0
 10
-5.449999999999986
 20
0.0
 10
-5.475685177350013
 20
-0.4706607895499957
 10
-5.605190180300011
 20
-1.14995326475001
 10
-5.835078305400003
 20
-1.799257244749995
 10
-6.171748965200009
 20
-2.432681925349996
 10
-6.590916841500017
 20
-3.010930168900002
 10
-7.334048871550009
 20
-3.755756422600001
 10
-8.191827579250002
 20
-4.366648745250001
 10
-9.150564467000007
 20
-4.847616908400011
 10
-10.1750134195
 20
-5.188973005800007
 10
-11.39746620080001
 20
-5.404128120750002
 10
-12.6426642315
 20
-5.432100254100004
 10
-13.86988459335
 20
-5.271318959600002
 10
-15.05054422905002
 20
-4.926768466700011
 10
-16.15957459385001
 20
-4.395165125350001
 10
-17.15280417589999
 20
-3.681630755200004
 10
-17.79070190365001
 20
-3.0324460522
 10
-18.31683293494998
 20
-2.286376557549999
 10
-18.64180955204998
 20
-1.612760121249991
 10
-18.85717174090001
 20
-0.8926537578999925
 10
-18.94999999999998
 20
0.0
  0
LINE
  5
F1A
330
EFD
100
AcDbEntity
  8
SK3
100
AcDbLine
 10
-20.15879540709998
 20
-5.100000183999995
 30
0.0
 11
-20.15879540709998
 21
5.100000183999995
 31
0.0
  0
LINE
  5
F1B
330
EFD
100
AcDbEntity
  8
SK1
100
AcDbLine
 10
-20.0
 20
-12.00000000000001
 30
0.0
 11
-5.288334699949983
 21
-12.00000000000001
 31
0.0
  0
ARC
  5
F1C
330
EFD
100
AcDbEntity
  8
SK1
100
AcDbCircle
 10
-4.25
 20
-12.54999999999999
 30
0.0
 40
0.8000000000000049
100
AcDbArc
 50
0.0
 51
104.9999999999994
  0
LINE
  5
F1D
330
EFD
100
AcDbEntity
  8
SK1
100
AcDbLine
 10
-5.288334699949983
 20
-12.00000000000001
 30
0.0
 11
-4.457055236049995
 21
-11.77725933899999
 31
0.0
  0
LWPOLYLINE
  5
F1E
330
EFD
100
AcDbEntity
  8
SK1
100
AcDbPolyline
 90
       21
 70
   128
 43
0.0
 10
-18.94999999999998
 20
0.0
 10
-18.90547313830001
 20
0.6192857085499952
 10
-18.75416728295
 20
1.290436012499995
 10
-18.50555914930001
 20
1.92882552799999
 10
-18.14571581469998
 20
2.560184330149994
 10
-17.70416786674998
 20
3.133557992000007
 10
-17.19528443725001
 20
3.644105188399989
 10
-16.63047500145
 20
4.091720355299997
 10
-15.5943564975
 20
4.694596492799988
 10
-14.46571743135001
 20
5.122877964699995
 10
-13.26610378695
 20
5.373917414550006
 10
-12.03700931505
 20
5.442420996699993
 10
-10.80137475989999
 20
5.323231843249999
 10
-9.604997572450002
 20
5.01886315035
 10
-8.478313919349997
 20
4.529108495049996
 10
-7.458504382949992
 20
3.858150365050008
 10
-6.769317753350009
 20
3.214967350249991
 10
-6.19282382175001
 20
2.466421130599981
 10
-5.833433457150023
 20
1.794356970399985
 10
-5.58379811825
 20
1.070139511850001
 10
-5.449999999999986
 20
0.0
  0
LINE
  5
F1F
330
EFD
100
AcDbEntity
  8
SK1
100
AcDbLine
 10
-0.1500000000000057
 20
9.633204462249992
 30
0.0
 11
-0.1500000000000057
 21
-9.633204462250006
 31
0.0
  0
LWPOLYLINE
  5
F20
330
EFD
100
AcDbEntity
  8
SK1
100
AcDbPolyline
 90
        3
 70
   128
 43
0.0
 10
-1.606834536400014
 20
-10.50026785375
 10
-0.9873007807499899
 20
-10.0452335453
 10
-0.5880946094000024
 20
-9.745308333900011
  0
ARC
  5
F21
330
EFD
100
AcDbEntity
  8
3
100
AcDbCircle
 10
-0.25
 20
-16.57499999999999
 30
0.0
 40
0.8000000000000115
100
AcDbArc
 50
335.0
 51
0.0
  0
ARC
  5
F22
330
EFD
100
AcDbEntity
  8
3
100
AcDbCircle
 10
-0.25
 20
-16.57499999999999
 30
0.0
 40
0.8000000000000115
100
AcDbArc
 50
0.0
 51
71.79004313569997
  0
LINE
  5
F23
330
EFD
100
AcDbEntity
  8
SK1
100
AcDbLine
 10
-1.606834536400014
 20
-16.325
 30
0.0
 11
-0.5880946094000024
 21
-15.8499537704
 31
0.0
  0
ARC
  5
F24
330
EFD
100
AcDbEntity
  8
SK1
100
AcDbCircle
 10
-0.25
 20
-16.57499999999999
 30
0.0
 40
0.8
100
AcDbArc
 50
71.79004313569997
 51
114.9999999999996
  0
LINE
  5
F25
330
EFD
100
AcDbEntity
  8
SK1
100
AcDbLine
 10
-1.606834536400014
 20
-16.325
 30
0.0
 11
-1.606834536400014
 21
-10.50026785375
 31
0.0
  0
ARC
  5
F26
330
EFD
100
AcDbEntity
  8
SK1
100
AcDbCircle
 10
-0.250267148450007
 20
-10.1534414915
 30
0.0
 40
0.5298113510098621
100
AcDbArc
 50
79.09094311859937
 51
129.6158610901002
  0
ARC
  5
F27
330
EFD
100
AcDbEntity
  8
SK1
100
AcDbCircle
 10
-0.2416361714500113
 20
10.18717078609999
 30
0.0
 40
0.5614943240023546
100
AcDbArc
 50
231.9004802497999
 51
279.3927155423994
  0
LINE
  5
F28
330
EFD
100
AcDbEntity
  8
SK1
100
AcDbLine
 10
-20.0
 20
11.99999999999998
 30
0.0
 11
-21.99460346455001
 21
11.71967676414997
 31
0.0
  0
ARC
  5
F29
330
EFD
100
AcDbEntity
  8
SK1
100
AcDbCircle
 10
-23.19999999999999
 20
11.09999999999999
 30
0.0
 40
0.8000000000000044
100
AcDbArc
 50
79.9999999999998
 51
180.0
  0
LINE
  5
F2A
330
EFD
100
AcDbEntity
  8
SK1
100
AcDbLine
 10
-22.11973197599998
 20
11.72186089045
 30
0.0
 11
-23.06108145785001
 21
11.88784620239998
 31
0.0
  0
ARC
  5
F2B
330
EFD
100
AcDbEntity
  8
SK1
100
AcDbCircle
 10
-22.05027270495
 20
12.11578399164999
 30
0.0
 40
0.3999999999999995
100
AcDbArc
 50
259.9999999999998
 51
278.0000000000006
  0
LINE
  5
F2C
330
EFD
100
AcDbEntity
  8
SK1
100
AcDbLine
 10
-1.606834536400014
 20
10.50026785369998
 30
0.0
 11
-3.449999999999988
 21
10.50026785369998
 31
0.0
  0
LINE
  5
F2D
330
EFD
100
AcDbEntity
  8
SK1
100
AcDbLine
 10
-1.606834536400014
 20
16.325
 30
0.0
 11
-3.449999999999988
 21
16.325
 31
0.0
  0
LINE
  5
F2E
330
EFD
100
AcDbEntity
  8
SK1
100
AcDbLine
 10
-5.288334699949983
 20
11.99999999999998
 30
0.0
 11
-20.0
 21
11.99999999999998
 31
0.0
  0
ARC
  5
F2F
330
EFD
100
AcDbEntity
  8
SK1
100
AcDbCircle
 10
-4.25
 20
12.54999999999999
 30
0.0
 40
0.7999999999999984
100
AcDbArc
 50
255.0000000000004
 51
0.0
  0
LINE
  5
F30
330
EFD
100
AcDbEntity
  8
SK1
100
AcDbLine
 10
-4.457055236049995
 20
11.77725933894997
 30
0.0
 11
-5.288334699949983
 21
11.99999999999998
 31
0.0
  0
LINE
  5
F31
330
EFD
100
AcDbEntity
  8
3
100
AcDbLine
 10
0.4750462296499907
 20
16.91309460939995
 30
0.0
 11
0.0
 21
17.93183453639999
 31
0.0
  0
ARC
  5
F32
330
EFD
100
AcDbEntity
  8
3
100
AcDbCircle
 10
-0.25
 20
16.57499999999999
 30
0.0
 40
0.800000000000015
100
AcDbArc
 50
345.6249999999998
 51
25.00000000000003
  0
LINE
  5
F33
330
EFD
100
AcDbEntity
  8
SK1
100
AcDbLine
 10
-1.606834536400014
 20
10.50026785369998
 30
0.0
 11
-1.606834536400014
 21
16.325
 31
0.0
  0
LINE
  5
F34
330
EFD
100
AcDbEntity
  8
SK1
100
AcDbLine
 10
-0.5880946094000024
 20
15.84995377034998
 30
0.0
 11
-1.606834536400014
 21
16.325
 31
0.0
  0
ARC
  5
F35
330
EFD
100
AcDbEntity
  8
SK1
100
AcDbCircle
 10
-0.25
 20
16.57499999999999
 30
0.0
 40
0.8000000000000071
100
AcDbArc
 50
245.0000000000003
 51
288.2099568642999
  0
ARC
  5
F36
330
EFD
100
AcDbEntity
  8
3
100
AcDbCircle
 10
-0.25
 20
16.57499999999999
 30
0.0
 40
0.800000000000015
100
AcDbArc
 50
288.2099568642999
 51
345.6249999999998
  0
ARC
  5
F37
330
EFD
100
AcDbEntity
  8
1
100
AcDbCircle
 10
0.3000000000000114
 20
20.69999999999998
 30
0.0
 40
0.3000000000000114
100
AcDbArc
 50
90.0
 51
180.0
  0
ENDBLK
  5
F39
330
EFD
100
AcDbEntity
  8
0
100
AcDbBlockEnd
  0
BLOCK
  5
FAA
330
FA1
100
AcDbEntity
  8
0
100
AcDbBlockBegin
  2
*D17
 70
     1
 10
0.0
 20
0.0
 30
0.0
  3
*D17
  1

  0
SOLID
  5
FA2
330
FA1
100
AcDbEntity
  8
VERMASSUNG
100
AcDbTrace
 10
74.87227691130001
 20
78.73830302399999
 30
0.0
 11
75.3222769113
 21
81.73830302399998
 31
0.0
 12
74.4222769113
 22
81.73830302399998
 32
0.0
 13
74.4222769113
 23
81.73830302399998
 33
0.0
  0
SOLID
  5
FA3
330
FA1
100
AcDbEntity
  8
VERMASSUNG
100
AcDbTrace
 10
74.87227691130001
 20
128.738303024
 30
0.0
 11
74.4222769113
 21
125.7383030239999
 31
0.0
 12
75.3222769113
 22
125.7383030239999
 32
0.0
 13
75.3222769113
 23
125.7383030239999
 33
0.0
  0
LINE
  5
FA4
330
FA1
100
AcDbEntity
  8
VERMASSUNG
100
AcDbLine
 10
109.4214642515999
 20
78.73830302399999
 30
0.0
 11
73.8722769113
 21
78.73830302399999
 31
0.0
  0
LINE
  5
FA5
330
FA1
100
AcDbEntity
  8
VERMASSUNG
100
AcDbLine
 10
109.4214642515999
 20
128.738303024
 30
0.0
 11
73.8722769113
 21
128.738303024
 31
0.0
  0
LINE
  5
FA6
330
FA1
100
AcDbEntity
  8
VERMASSUNG
100
AcDbLine
 10
74.87227691130001
 20
78.73830302399999
 30
0.0
 11
74.87227691130001
 21
128.738303024
 31
0.0
  0
MTEXT
  5
FA7
330
FA1
100
AcDbEntity
  8
VERMASSUNG
100
AcDbMText
 10
72.0722771346
 20
97.6350414226
 30
0.0
 40
2.0
 41
0.0
 71
     1
 72
     1
  1
ST5 
  7
SLDTEXTSTYLE0
 11
0.0000000000000001
 21
1.0
 31
0.0
 73
     1
 44
1.0
  0
MTEXT
  5
FA8
330
FA1
100
AcDbEntity
  8
VERMASSUNG
100
AcDbMText
 10
72.2722770859
 20
103.4350413487999
 30
0.0
 40
2.0
 41
0.0
 71
     1
 72
     1
  1
%%c
  7
SLDTEXTSTYLE0
 11
0.0000000000000001
 21
1.0
 31
0.0
 73
     1
 44
1.0
  0
MTEXT
  5
FA9
330
FA1
100
AcDbEntity
  8
VERMASSUNG
100
AcDbMText
 10
72.27227679489999
 20
107.0435758654
 30
0.0
 40
2.0
 41
0.0
 71
     1
 72
     1
  1
50
  7
SLDTEXTSTYLE0
 11
0.0000000000000001
 21
1.0
 31
0.0
 73
     1
 44
1.0
  0
ENDBLK
  5
FAB
330
FA1
100
AcDbEntity
  8
0
100
AcDbBlockEnd
  0
BLOCK
  5
FB3
330
FAC
100
AcDbEntity
  8
0
100
AcDbBlockBegin
  2
*D18
 70
     1
 10
0.0
 20
0.0
 30
0.0
  3
*D18
  1

  0
SOLID
  5
FAD
330
FAC
100
AcDbEntity
  8
VERMASSUNG
100
AcDbTrace
 10
109.4214642515999
 20
137.4190902975997
 30
0.0
 11
112.4214642516
 21
136.9690902975999
 31
0.0
 12
112.4214642516
 22
137.8690902975999
 32
0.0
 13
112.4214642516
 23
137.8690902975999
 33
0.0
  0
SOLID
  5
FAE
330
FAC
100
AcDbEntity
  8
VERMASSUNG
100
AcDbTrace
 10
154.4214642515999
 20
137.4190902975997
 30
0.0
 11
151.4214642515999
 21
137.8690902975999
 31
0.0
 12
151.4214642515999
 22
136.9690902975999
 32
0.0
 13
151.4214642515999
 23
136.9690902975999
 33
0.0
  0
LINE
  5
FAF
330
FAC
100
AcDbEntity
  8
VERMASSUNG
100
AcDbLine
 10
109.4214642515999
 20
128.738303024
 30
0.0
 11
109.4214642515999
 21
138.4190902976
 31
0.0
  0
LINE
  5
FB0
330
FAC
100
AcDbEntity
  8
VERMASSUNG
100
AcDbLine
 10
154.4214642515999
 20
124.7368148761
 30
0.0
 11
154.4214642515999
 21
138.4190902976
 31
0.0
  0
LINE
  5
FB1
330
FAC
100
AcDbEntity
  8
VERMASSUNG
100
AcDbLine
 10
109.4214642515999
 20
137.4190902975997
 30
0.0
 11
154.4214642515999
 21
137.4190902975997
 31
0.0
  0
MTEXT
  5
FB2
330
FAC
100
AcDbEntity
  8
VERMASSUNG
100
AcDbMText
 10
130.4220698970999
 20
140.019090414
 30
0.0
 40
2.0
 41
0.0
 71
     1
 72
     1
  1
45
  7
SLDTEXTSTYLE0
 73
     1
 44
1.0
  0
ENDBLK
  5
FB4
330
FAC
100
AcDbEntity
  8
0
100
AcDbBlockEnd
  0
BLOCK
  5
FBE
330
FB5
100
AcDbEntity
  8
0
100
AcDbBlockBegin
  2
*D19
 70
     1
 10
0.0
 20
0.0
 30
0.0
  3
*D19
  1

  0
ARC
  5
FB6
330
FB5
100
AcDbEntity
  8
VERMASSUNG
100
AcDbCircle
 10
117.7343162711
 20
145.3187634973
 30
0.0
 40
4.247798409719291
100
AcDbArc
 50
153.4349488229
 51
206.5650511771
  0
ARC
  5
FB7
330
FB5
100
AcDbEntity
  8
VERMASSUNG
100
AcDbCircle
 10
116.1086122320999
 20
145.3187634973
 30
0.0
 40
4.247798409719266
100
AcDbArc
 50
333.4349488229
 51
26.5650511771
  0
SOLID
  5
FB8
330
FB5
100
AcDbEntity
  8
VERMASSUNG
100
AcDbTrace
 10
79.4214642516
 20
143.4190902976
 30
0.0
 11
82.42146425159999
 21
142.9690902975998
 31
0.0
 12
82.42146425159999
 22
143.8690902975999
 32
0.0
 13
82.42146425159999
 23
143.8690902975999
 33
0.0
  0
SOLID
  5
FB9
330
FB5
100
AcDbEntity
  8
VERMASSUNG
100
AcDbTrace
 10
154.4214642515999
 20
143.4190902976
 30
0.0
 11
151.4214642515999
 21
143.8690902975999
 31
0.0
 12
151.4214642515999
 22
142.9690902975998
 32
0.0
 13
151.4214642515999
 23
142.9690902975998
 33
0.0
  0
LINE
  5
FBA
330
FB5
100
AcDbEntity
  8
VERMASSUNG
100
AcDbLine
 10
79.4214642516
 20
115.6383030239998
 30
0.0
 11
79.4214642516
 21
144.4190902976
 31
0.0
  0
LINE
  5
FBB
330
FB5
100
AcDbEntity
  8
VERMASSUNG
100
AcDbLine
 10
154.4214642515999
 20
124.7368148761
 30
0.0
 11
154.4214642515999
 21
144.4190902976
 31
0.0
  0
LINE
  5
FBC
330
FB5
100
AcDbEntity
  8
VERMASSUNG
100
AcDbLine
 10
79.4214642516
 20
143.4190902976
 30
0.0
 11
154.4214642515999
 21
143.4190902976
 31
0.0
  0
MTEXT
  5
FBD
330
FB5
100
AcDbEntity
  8
VERMASSUNG
100
AcDbMText
 10
115.5224698714998
 20
146.019090414
 30
0.0
 40
2.0
 41
0.0
 71
     1
 72
     1
  1
75
  7
SLDTEXTSTYLE0
 73
     1
 44
1.0
  0
ENDBLK
  5
FBF
330
FB5
100
AcDbEntity
  8
0
100
AcDbBlockEnd
  0
BLOCK
  5
14A8
330
149E
100
AcDbEntity
  8
0
100
AcDbBlockBegin
  2
*D20
 70
     1
 10
0.0
 20
0.0
 30
0.0
  3
*D20
  1

  0
LINE
  5
150B
330
149E
100
AcDbEntity
  8
SK2
 62
     0
370
    -2
100
AcDbLine
 10
-133.6166261706636
 20
-97.9807812255134
 30
0.0
 11
-172.5654867107637
 21
-97.98078122551338
 31
0.0
  0
LINE
  5
150C
330
149E
100
AcDbEntity
  8
SK2
 62
     0
370
    -2
100
AcDbLine
 10
-133.6166261706636
 20
-47.98078122551338
 30
0.0
 11
-172.5654867107637
 21
-47.98078122551336
 31
0.0
  0
LINE
  5
150D
330
149E
100
AcDbEntity
  8
SK2
 62
     0
370
    -2
100
AcDbLine
 10
-170.0654867107638
 20
-93.41078122551341
 30
0.0
 11
-170.0654867107636
 21
-52.55078122551338
 31
0.0
  0
SOLID
  5
150E
330
149E
100
AcDbEntity
  8
SK2
 62
     0
100
AcDbTrace
 10
-170.8271533774303
 20
-93.41078122551341
 30
0.0
 11
-169.3038200440971
 21
-93.41078122551341
 31
0.0
 12
-170.0654867107638
 22
-97.98078122551338
 32
0.0
 13
-170.0654867107638
 23
-97.98078122551338
 33
0.0
  0
SOLID
  5
150F
330
149E
100
AcDbEntity
  8
SK2
 62
     0
100
AcDbTrace
 10
-170.8271533774303
 20
-52.55078122551338
 30
0.0
 11
-169.3038200440971
 21
-52.55078122551338
 31
0.0
 12
-170.0654867107636
 22
-47.98078122551336
 32
0.0
 13
-170.0654867107636
 23
-47.98078122551336
 33
0.0
  0
MTEXT
  5
1510
330
149E
100
AcDbEntity
  8
SK2
 62
     7
100
AcDbMText
 10
-176.1354867107637
 20
-72.98078122551341
 30
0.0
 40
4.57
 41
0.0
 71
     2
 72
     1
  1
\A1;ST5 %%c50
  7
GENPRESET
 11
0.0000000000000001
 21
1.0
 31
0.0
 73
     1
 44
1.0
  0
POINT
  5
1511
330
149E
100
AcDbEntity
  8
Defpoints
 62
     0
100
AcDbPoint
 10
-133.6166261706636
 20
-97.9807812255134
 30
0.0
  0
POINT
  5
1512
330
149E
100
AcDbEntity
  8
Defpoints
 62
     0
100
AcDbPoint
 10
-133.6166261706636
 20
-47.98078122551338
 30
0.0
  0
POINT
  5
1513
330
149E
100
AcDbEntity
  8
Defpoints
 62
     0
100
AcDbPoint
 10
-170.0654867107636
 20
-47.98078122551336
 30
0.0
  0
ENDBLK
  5
14A9
330
149E
100
AcDbEntity
  8
0
100
AcDbBlockEnd
  0
BLOCK
  5
14B4
330
14AA
100
AcDbEntity
  8
0
100
AcDbBlockBegin
  2
*D21
 70
     1
 10
0.0
 20
0.0
 30
0.0
  3
*D21
  1

  0
LINE
  5
14CB
330
14AA
100
AcDbEntity
  8
VERMASSUNG
 62
     0
370
    -2
100
AcDbLine
 10
-30.0
 20
11.9625
 30
0.0
 11
-30.0
 21
39.6807872736
 31
0.0
  0
LINE
  5
14CC
330
14AA
100
AcDbEntity
  8
VERMASSUNG
 62
     0
370
    -2
100
AcDbLine
 10
44.99999999999999
 20
21.06101185210002
 30
0.0
 11
44.99999999999999
 21
39.6807872736
 31
0.0
  0
LINE
  5
14CD
330
14AA
100
AcDbEntity
  8
VERMASSUNG
 62
     0
370
    -2
100
AcDbLine
 10
-27.0
 20
39.6807872736
 30
0.0
 11
41.99999999999998
 21
39.6807872736
 31
0.0
  0
SOLID
  5
14CE
330
14AA
100
AcDbEntity
  8
VERMASSUNG
 62
     0
100
AcDbTrace
 10
-27.0
 20
40.1807872736
 30
0.0
 11
-27.0
 21
39.1807872736
 31
0.0
 12
-30.0
 22
39.6807872736
 32
0.0
 13
-30.0
 23
39.6807872736
 33
0.0
  0
SOLID
  5
14CF
330
14AA
100
AcDbEntity
  8
VERMASSUNG
 62
     0
100
AcDbTrace
 10
41.99999999999998
 20
40.1807872736
 30
0.0
 11
41.99999999999998
 21
39.1807872736
 31
0.0
 12
44.99999999999999
 22
39.6807872736
 32
0.0
 13
44.99999999999999
 23
39.6807872736
 33
0.0
  0
MTEXT
  5
14D0
330
14AA
100
AcDbEntity
  8
VERMASSUNG
 62
     0
100
AcDbMText
 10
7.5
 20
42.58078727360002
 30
0.0
 40
2.0
 41
0.0
 71
     2
 72
     1
  1
\A1;(75)
  7
SLDTEXTSTYLE0
 73
     1
 44
1.0
  0
POINT
  5
14D1
330
14AA
100
AcDbEntity
  8
Defpoints
 62
     0
100
AcDbPoint
 10
-30.0
 20
11.9
 30
0.0
  0
POINT
  5
14D2
330
14AA
100
AcDbEntity
  8
Defpoints
 62
     0
100
AcDbPoint
 10
44.99999999999999
 20
20.99851185210002
 30
0.0
  0
POINT
  5
14D3
330
14AA
100
AcDbEntity
  8
Defpoints
 62
     0
100
AcDbPoint
 10
44.99999999999999
 20
39.6807872736
 30
0.0
  0
ENDBLK
  5
14B5
330
14AA
100
AcDbEntity
  8
0
100
AcDbBlockEnd
  0
BLOCK
  5
14C0
330
14B6
100
AcDbEntity
  8
0
100
AcDbBlockBegin
  2
*D22
 70
     1
 10
0.0
 20
0.0
 30
0.0
  3
*D22
  1

  0
LINE
  5
1502
330
14B6
100
AcDbEntity
  8
2
 62
     0
370
    -2
100
AcDbLine
 10
-133.6166261706636
 20
-47.98078122551338
 30
0.0
 11
-133.6166261706636
 21
-36.79999395191336
 31
0.0
  0
LINE
  5
1503
330
14B6
100
AcDbEntity
  8
2
 62
     0
370
    -2
100
AcDbLine
 10
-88.61662617066377
 20
-51.98226937341336
 30
0.0
 11
-88.61662617066377
 21
-36.79999395191336
 31
0.0
  0
LINE
  5
1504
330
14B6
100
AcDbEntity
  8
2
 62
     0
370
    -2
100
AcDbLine
 10
-129.0466261706636
 20
-39.29999395191336
 30
0.0
 11
-93.18662617066374
 21
-39.29999395191336
 31
0.0
  0
SOLID
  5
1505
330
14B6
100
AcDbEntity
  8
2
 62
     0
100
AcDbTrace
 10
-129.0466261706636
 20
-38.5383272852467
 30
0.0
 11
-129.0466261706636
 21
-40.06166061858005
 31
0.0
 12
-133.6166261706636
 22
-39.29999395191336
 32
0.0
 13
-133.6166261706636
 23
-39.29999395191336
 33
0.0
  0
SOLID
  5
1506
330
14B6
100
AcDbEntity
  8
2
 62
     0
100
AcDbTrace
 10
-93.18662617066374
 20
-38.5383272852467
 30
0.0
 11
-93.18662617066374
 21
-40.06166061858005
 31
0.0
 12
-88.61662617066377
 22
-39.29999395191336
 32
0.0
 13
-88.61662617066377
 23
-39.29999395191336
 33
0.0
  0
MTEXT
  5
1507
330
14B6
100
AcDbEntity
  8
2
 62
     7
100
AcDbMText
 10
-111.1166261706636
 20
-33.22999395191338
 30
0.0
 40
4.57
 41
0.0
 71
     2
 72
     1
  1
\A1;45
  7
GENPRESET
 73
     1
 44
1.0
  0
POINT
  5
1508
330
14B6
100
AcDbEntity
  8
Defpoints
 62
     0
100
AcDbPoint
 10
-133.6166261706636
 20
-47.98078122551338
 30
0.0
  0
POINT
  5
1509
330
14B6
100
AcDbEntity
  8
Defpoints
 62
     0
100
AcDbPoint
 10
-88.61662617066377
 20
-51.98226937341336
 30
0.0
  0
POINT
  5
150A
330
14B6
100
AcDbEntity
  8
Defpoints
 62
     0
100
AcDbPoint
 10
-88.61662617066377
 20
-39.29999395191336
 30
0.0
  0
ENDBLK
  5
14C1
330
14B6
100
AcDbEntity
  8
0
100
AcDbBlockEnd
  0
BLOCK
  5
1A6D
330
1A64
100
AcDbEntity
  8
0
100
AcDbBlockBegin
  2
*D23
 70
     1
 10
0.0
 20
0.0
 30
0.0
  3
*D23
  1

  0
SOLID
  5
1A65
330
1A64
100
AcDbEntity
  8
VERMASSUNG
100
AcDbTrace
 10
84.2097047116
 20
136.6036843116
 30
0.0
 11
83.7597047116
 21
133.6036843116
 31
0.0
 12
84.6597047116
 22
133.6036843116
 32
0.0
 13
84.6597047116
 23
133.6036843116
 33
0.0
  0
SOLID
  5
1A66
330
1A64
100
AcDbEntity
  8
VERMASSUNG
100
AcDbTrace
 10
84.2097047116
 20
72.60368431159999
 30
0.0
 11
84.6597047116
 21
75.60368431159999
 31
0.0
 12
83.7597047116
 22
75.60368431159999
 32
0.0
 13
83.7597047116
 23
75.60368431159999
 33
0.0
  0
LINE
  5
1A67
330
1A64
100
AcDbEntity
  8
VERMASSUNG
100
AcDbLine
 10
130.9319595398
 20
136.6036843116
 30
0.0
 11
83.2097047116
 21
136.6036843116
 31
0.0
  0
LINE
  5
1A68
330
1A64
100
AcDbEntity
  8
VERMASSUNG
100
AcDbLine
 10
130.9319595398
 20
72.60368431159999
 30
0.0
 11
83.2097047116
 21
72.60368431159999
 31
0.0
  0
LINE
  5
1A69
330
1A64
100
AcDbEntity
  8
VERMASSUNG
100
AcDbLine
 10
84.2097047116
 20
136.6036843116
 30
0.0
 11
84.2097047116
 21
72.60368431159999
 31
0.0
  0
MTEXT
  5
1A6A
330
1A64
100
AcDbEntity
  8
VERMASSUNG
100
AcDbMText
 10
81.4097049349
 20
98.4000227357
 30
0.0
 40
2.0
 41
0.0
 71
     1
 72
     1
  1
ST6 
  7
SLDTEXTSTYLE0
 11
-0.000000000000007
 21
1.0
 31
0.0
 73
     1
 44
1.0
  0
MTEXT
  5
1A6B
330
1A64
100
AcDbEntity
  8
VERMASSUNG
100
AcDbMText
 10
81.6097048862
 20
104.2000226619
 30
0.0
 40
2.0
 41
0.0
 71
     1
 72
     1
  1
%%c
  7
SLDTEXTSTYLE0
 11
-0.000000000000007
 21
1.0
 31
0.0
 73
     1
 44
1.0
  0
MTEXT
  5
1A6C
330
1A64
100
AcDbEntity
  8
VERMASSUNG
100
AcDbMText
 10
81.6097045951
 20
107.8085571785
 30
0.0
 40
2.0
 41
0.0
 71
     1
 72
     1
  1
64
  7
SLDTEXTSTYLE0
 11
-0.000000000000007
 21
1.0
 31
0.0
 73
     1
 44
1.0
  0
ENDBLK
  5
1A6E
330
1A64
100
AcDbEntity
  8
0
100
AcDbBlockEnd
  0
BLOCK
  5
1A78
330
1A6F
100
AcDbEntity
  8
0
100
AcDbBlockBegin
  2
*D24
 70
     1
 10
0.0
 20
0.0
 30
0.0
  3
*D24
  1

  0
ARC
  5
1A70
330
1A6F
100
AcDbEntity
  8
VERMASSUNG
100
AcDbCircle
 10
133.7448115593
 20
148.5033575114
 30
0.0
 40
4.247798409719318
100
AcDbArc
 50
153.4349488229
 51
206.5650511771
  0
ARC
  5
1A71
330
1A6F
100
AcDbEntity
  8
VERMASSUNG
100
AcDbCircle
 10
132.1191075204
 20
148.5033575114
 30
0.0
 40
4.247798409719318
100
AcDbArc
 50
333.4349488229
 51
26.5650511771
  0
SOLID
  5
1A72
330
1A6F
100
AcDbEntity
  8
VERMASSUNG
100
AcDbTrace
 10
90.43195953979999
 20
146.6036843116
 30
0.0
 11
93.43195953979998
 21
146.1536843115998
 31
0.0
 12
93.43195953979998
 22
147.0536843116
 32
0.0
 13
93.43195953979998
 23
147.0536843116
 33
0.0
  0
SOLID
  5
1A73
330
1A6F
100
AcDbEntity
  8
VERMASSUNG
100
AcDbTrace
 10
175.4319595397999
 20
146.6036843116
 30
0.0
 11
172.4319595398
 21
147.0536843116
 31
0.0
 12
172.4319595398
 22
146.1536843115998
 32
0.0
 13
172.4319595398
 23
146.1536843115998
 33
0.0
  0
LINE
  5
1A74
330
1A6F
100
AcDbEntity
  8
VERMASSUNG
100
AcDbLine
 10
90.43195953979999
 20
120.5036843115999
 30
0.0
 11
90.43195953979999
 21
147.6036843115998
 31
0.0
  0
LINE
  5
1A75
330
1A6F
100
AcDbEntity
  8
VERMASSUNG
100
AcDbLine
 10
175.4319595397999
 20
125.6021961636
 30
0.0
 11
175.4319595397999
 21
147.6036843115998
 31
0.0
  0
LINE
  5
1A76
330
1A6F
100
AcDbEntity
  8
VERMASSUNG
100
AcDbLine
 10
90.43195953979999
 20
146.6036843116
 30
0.0
 11
175.4319595397999
 21
146.6036843116
 31
0.0
  0
MTEXT
  5
1A77
330
1A6F
100
AcDbEntity
  8
VERMASSUNG
100
AcDbMText
 10
131.5329651596998
 20
149.203684428
 30
0.0
 40
2.0
 41
0.0
 71
     1
 72
     1
  1
85
  7
SLDTEXTSTYLE0
 73
     1
 44
1.0
  0
ENDBLK
  5
1A79
330
1A6F
100
AcDbEntity
  8
0
100
AcDbBlockEnd
  0
BLOCK
  5
1A81
330
1A7A
100
AcDbEntity
  8
0
100
AcDbBlockBegin
  2
*D25
 70
     1
 10
0.0
 20
0.0
 30
0.0
  3
*D25
  1

  0
SOLID
  5
1A7B
330
1A7A
100
AcDbEntity
  8
VERMASSUNG
100
AcDbTrace
 10
130.4319595398
 20
140.6036843116
 30
0.0
 11
133.4319595398
 21
140.1536843116
 31
0.0
 12
133.4319595398
 22
141.0536843115998
 32
0.0
 13
133.4319595398
 23
141.0536843115998
 33
0.0
  0
SOLID
  5
1A7C
330
1A7A
100
AcDbEntity
  8
VERMASSUNG
100
AcDbTrace
 10
175.4319595397999
 20
140.6036843116
 30
0.0
 11
172.4319595398
 21
141.0536843115998
 31
0.0
 12
172.4319595398
 22
140.1536843116
 32
0.0
 13
172.4319595398
 23
140.1536843116
 33
0.0
  0
LINE
  5
1A7D
330
1A7A
100
AcDbEntity
  8
VERMASSUNG
100
AcDbLine
 10
130.4319595398
 20
136.1036843116
 30
0.0
 11
130.4319595398
 21
141.6036843116
 31
0.0
  0
LINE
  5
1A7E
330
1A7A
100
AcDbEntity
  8
VERMASSUNG
100
AcDbLine
 10
175.4319595397999
 20
125.6021961636
 30
0.0
 11
175.4319595397999
 21
141.6036843116
 31
0.0
  0
LINE
  5
1A7F
330
1A7A
100
AcDbEntity
  8
VERMASSUNG
100
AcDbLine
 10
130.4319595398
 20
140.6036843116
 30
0.0
 11
175.4319595397999
 21
140.6036843116
 31
0.0
  0
MTEXT
  5
1A80
330
1A7A
100
AcDbEntity
  8
VERMASSUNG
100
AcDbMText
 10
151.4325651853
 20
143.2036844279998
 30
0.0
 40
2.0
 41
0.0
 71
     1
 72
     1
  1
45
  7
SLDTEXTSTYLE0
 73
     1
 44
1.0
  0
ENDBLK
  5
1A82
330
1A7A
100
AcDbEntity
  8
0
100
AcDbBlockEnd
  0
BLOCK
  5
1F7F
330
1F75
100
AcDbEntity
  8
0
100
AcDbBlockBegin
  2
*D26
 70
     1
 10
0.0
 20
0.0
 30
0.0
  3
*D26
  1

  0
LINE
  5
1FDB
330
1F75
100
AcDbEntity
  8
2
 62
     0
370
    -2
100
AcDbLine
 10
0.0
 20
31.50000000000001
 30
0.0
 11
0.0000000000000004
 21
38.50000000000001
 31
0.0
  0
LINE
  5
1FDC
330
1F75
100
AcDbEntity
  8
2
 62
     0
370
    -2
100
AcDbLine
 10
45.0
 20
20.99851185200001
 30
0.0
 11
45.0
 21
38.50000000000001
 31
0.0
  0
LINE
  5
1FDD
330
1F75
100
AcDbEntity
  8
2
 62
     0
370
    -2
100
AcDbLine
 10
4.57
 20
36.0
 30
0.0
 11
40.43
 21
36.0
 31
0.0
  0
SOLID
  5
1FDE
330
1F75
100
AcDbEntity
  8
2
 62
     0
100
AcDbTrace
 10
4.57
 20
36.76166666666667
 30
0.0
 11
4.57
 21
35.23833333333334
 31
0.0
 12
0.0000000000000003
 22
36.0
 32
0.0
 13
0.0000000000000003
 23
36.0
 33
0.0
  0
SOLID
  5
1FDF
330
1F75
100
AcDbEntity
  8
2
 62
     0
100
AcDbTrace
 10
40.43
 20
36.76166666666667
 30
0.0
 11
40.43
 21
35.23833333333334
 31
0.0
 12
45.0
 22
36.0
 32
0.0
 13
45.0
 23
36.0
 33
0.0
  0
MTEXT
  5
1FE0
330
1F75
100
AcDbEntity
  8
2
 62
     7
100
AcDbMText
 10
22.5
 20
42.06999999999999
 30
0.0
 40
4.57
 41
0.0
 71
     2
 72
     1
  1
\A1;45
  7
GENPRESET
 73
     1
 44
1.0
  0
POINT
  5
1FE1
330
1F75
100
AcDbEntity
  8
Defpoints
 62
     0
100
AcDbPoint
 10
0.0
 20
31.50000000000001
 30
0.0
  0
POINT
  5
1FE2
330
1F75
100
AcDbEntity
  8
Defpoints
 62
     0
100
AcDbPoint
 10
45.0
 20
20.99851185200001
 30
0.0
  0
POINT
  5
1FE3
330
1F75
100
AcDbEntity
  8
Defpoints
 62
     0
100
AcDbPoint
 10
45.0
 20
36.0
 30
0.0
  0
ENDBLK
  5
1F80
330
1F75
100
AcDbEntity
  8
0
100
AcDbBlockEnd
  0
BLOCK
  5
1F8B
330
1F81
100
AcDbEntity
  8
0
100
AcDbBlockBegin
  2
*D27
 70
     1
 10
0.0
 20
0.0
 30
0.0
  3
*D27
  1

  0
LINE
  5
1FA2
330
1F81
100
AcDbEntity
  8
VERMASSUNG
 62
     0
370
    -2
100
AcDbLine
 10
-40.0
 20
15.9625
 30
0.0
 11
-40.0
 21
42.00000000000001
 31
0.0
  0
LINE
  5
1FA3
330
1F81
100
AcDbEntity
  8
VERMASSUNG
 62
     0
370
    -2
100
AcDbLine
 10
45.0
 20
21.06101185200001
 30
0.0
 11
45.0
 21
42.00000000000001
 31
0.0
  0
LINE
  5
1FA4
330
1F81
100
AcDbEntity
  8
VERMASSUNG
 62
     0
370
    -2
100
AcDbLine
 10
-37.00000000000001
 20
42.00000000000001
 30
0.0
 11
42.0
 21
42.00000000000001
 31
0.0
  0
SOLID
  5
1FA5
330
1F81
100
AcDbEntity
  8
VERMASSUNG
 62
     0
100
AcDbTrace
 10
-37.00000000000001
 20
42.5
 30
0.0
 11
-37.00000000000001
 21
41.50000000000001
 31
0.0
 12
-40.0
 22
42.00000000000001
 32
0.0
 13
-40.0
 23
42.00000000000001
 33
0.0
  0
SOLID
  5
1FA6
330
1F81
100
AcDbEntity
  8
VERMASSUNG
 62
     0
100
AcDbTrace
 10
42.0
 20
42.5
 30
0.0
 11
42.0
 21
41.50000000000001
 31
0.0
 12
45.0
 22
42.00000000000001
 32
0.0
 13
45.0
 23
42.00000000000001
 33
0.0
  0
MTEXT
  5
1FA7
330
1F81
100
AcDbEntity
  8
VERMASSUNG
 62
     0
100
AcDbMText
 10
2.5
 20
44.90000000000001
 30
0.0
 40
2.0
 41
0.0
 71
     2
 72
     1
  1
\A1;(85)
  7
SLDTEXTSTYLE0
 73
     1
 44
1.0
  0
POINT
  5
1FA8
330
1F81
100
AcDbEntity
  8
Defpoints
 62
     0
100
AcDbPoint
 10
-40.0
 20
15.9
 30
0.0
  0
POINT
  5
1FA9
330
1F81
100
AcDbEntity
  8
Defpoints
 62
     0
100
AcDbPoint
 10
45.0
 20
20.99851185200001
 30
0.0
  0
POINT
  5
1FAA
330
1F81
100
AcDbEntity
  8
Defpoints
 62
     0
100
AcDbPoint
 10
45.0
 20
42.00000000000001
 30
0.0
  0
ENDBLK
  5
1F8C
330
1F81
100
AcDbEntity
  8
0
100
AcDbBlockEnd
  0
BLOCK
  5
1F97
330
1F8D
100
AcDbEntity
  8
0
100
AcDbBlockBegin
  2
*D28
 70
     1
 10
0.0
 20
0.0
 30
0.0
  3
*D28
  1

  0
LINE
  5
1FD2
330
1F8D
100
AcDbEntity
  8
SK2
 62
     0
370
    -2
100
AcDbLine
 10
0.5
 20
32.00000000000001
 30
0.0
 11
-48.72225482819999
 21
32.00000000000002
 31
0.0
  0
LINE
  5
1FD3
330
1F8D
100
AcDbEntity
  8
SK2
 62
     0
370
    -2
100
AcDbLine
 10
0.5
 20
-32.0
 30
0.0
 11
-48.72225482820002
 21
-31.99999999999998
 31
0.0
  0
LINE
  5
1FD4
330
1F8D
100
AcDbEntity
  8
SK2
 62
     0
370
    -2
100
AcDbLine
 10
-46.22225482819999
 20
27.43000000000002
 30
0.0
 11
-46.22225482820002
 21
-27.42999999999998
 31
0.0
  0
SOLID
  5
1FD5
330
1F8D
100
AcDbEntity
  8
SK2
 62
     0
100
AcDbTrace
 10
-46.98392149486667
 20
27.43000000000002
 30
0.0
 11
-45.46058816153331
 21
27.43000000000002
 31
0.0
 12
-46.22225482819999
 22
32.00000000000002
 32
0.0
 13
-46.22225482819999
 23
32.00000000000002
 33
0.0
  0
SOLID
  5
1FD6
330
1F8D
100
AcDbEntity
  8
SK2
 62
     0
100
AcDbTrace
 10
-46.98392149486667
 20
-27.42999999999998
 30
0.0
 11
-45.46058816153334
 21
-27.42999999999998
 31
0.0
 12
-46.22225482820002
 22
-31.99999999999998
 32
0.0
 13
-46.22225482820002
 23
-31.99999999999998
 33
0.0
  0
MTEXT
  5
1FD7
330
1F8D
100
AcDbEntity
  8
SK2
 62
     7
100
AcDbMText
 10
-52.29225482820002
 20
0.0000000000000005
 30
0.0
 40
4.57
 41
0.0
 71
     2
 72
     1
  1
\A1;ST6 %%c64
  7
GENPRESET
 11
0.0000000000000001
 21
1.0
 31
0.0
 73
     1
 44
1.0
  0
POINT
  5
1FD8
330
1F8D
100
AcDbEntity
  8
Defpoints
 62
     0
100
AcDbPoint
 10
0.5
 20
32.00000000000001
 30
0.0
  0
POINT
  5
1FD9
330
1F8D
100
AcDbEntity
  8
Defpoints
 62
     0
100
AcDbPoint
 10
0.5
 20
-32.0
 30
0.0
  0
POINT
  5
1FDA
330
1F8D
100
AcDbEntity
  8
Defpoints
 62
     0
100
AcDbPoint
 10
-46.22225482820002
 20
-31.99999999999998
 30
0.0
  0
ENDBLK
  5
1F98
330
1F8D
100
AcDbEntity
  8
0
100
AcDbBlockEnd
  0
ENDSEC
  0
SECTION
  2
ENTITIES
  0
MTEXT
  5
36
330
1F
100
AcDbEntity
  8
5
100
AcDbMText
 10
-46.89069646636203
 20
-61.53211167854788
 30
0.0
 40
4.57
 41
0.0
 71
     1
 72
     1
  1
204.050.025.045
  7
GENPRESET
 73
     1
 44
1.0
  0
MTEXT
  5
37
330
1F
100
AcDbEntity
  8
5
100
AcDbMText
 10
-46.846913293562
 20
-53.49297288564788
 30
0.0
 40
4.57
 41
0.0
 71
     1
 72
     1
  1
{Ausdrehkopf_Fine boring head}
  7
GENPRESET
 73
     1
 44
1.0
  0
REGION
  5
76E
330
1F
100
AcDbEntity
  8
5
100
AcDbModelerGeometry
 70
     1
  1
koo hn n o          
  1
h J1410(1 nl ^ \VL kqoqm QK mk K7* U*3 ol nlekjenj moog 
  1
rn fqfffffffffffffffj:rooh n:rono 
  1
=0;& {rn {n {rn {rn |
  1
3*2/ {rn {rn {m {o |
  1
,7:33 {rn {rn {rn {l {rn {n |
  1
9><: {rn {rn {k {m {rn {j 90-(>-; ;0*=3: 0*+ |
  1
300/ {rn {rn {i {l |
  1
/3>1:r,*-9><: {rn rlkqikmjnkggfjhnook rklqigmngflgfogkokk o o o n m o o 90-(>-;@) V V V V |
  1
<0:;8: {rn {h {g {rn {f -:):-,:; {k {rn |
  1
<0:;8: {rn {no {i {rn {nn -:):-,:; {k {rn |
  1
<0:;8: {rn {i {nm {rn {nl -:):-,:; {k {rn |
  1
:;8: {rn {nk {nj {i {ni 90-(>-; |
  1
<0:;8: {rn {nh {h {rn {ng -:):-,:; {k {rn |
  1
:;8: {rn {nf {nk {h {mo 90-(>-; |
  1
<0:;8: {rn {g {mn {rn {mm -:):-,:; {k {rn |
  1
:;8: {rn {nj {ml {g {mk 90-(>-; |
  1
):-+:' {rn {f {mj |
  1
):-+:' {rn {f {mi |
  1
,+->687+r<*-): {rn rlhqiongknmhhlnlmfg rkhqhhmgnnkoknnilig o roqjlmonliifjkjgkgfk nqfmhfkmmgjmfngkfh o V V |
  1
<0:;8: {rn {mh {no {rn {mg -:):-,:; {k {rn |
  1
:;8: {rn {mf {nf {no {lo 90-(>-; |
  1
):-+:' {rn {ng {ln |
  1
,+->687+r<*-): {rn rljqfolknmmffkijgmg rkhqhhmgnnkoknnilig o rm o o V V |
  1
<0:;8: {rn {nm {lm {rn {ll -:):-,:; {k {rn |
  1
:;8: {rn {ml {lk {nm {lj 90-(>-; |
  1
):-+:' {rn {nl {li |
  1
,+->687+r<*-): {rn rlfqjfjlgjomhfhlklj rkoqjkgkfoglhhhofnl o m o o V V |
  1
/061+ {rn rlhqiongknmhhlnlmfg rkhqhhmgnnkoknnilig o |
  1
/061+ {rn rlfqjfjlgjomhfhlklj rkoqjkgkfoglhhhofnl o |
  1
<0:;8: {rn {lh {nh {rn {lg -:):-,:; {k {rn |
  1
:;8: {rn {lf {mf {nh {ko 90-(>-; |
  1
):-+:' {rn {mg {kn |
  1
,+->687+r<*-): {rn rlkqiiinkhkkifinji rkmqfhmnkjgniifonl o roqkffnkkjioljfmlmll rnqflihnmlkjnjnfokk o V V |
  1
/061+ {rn rljqfolknmmffkijgmg rkhqhhmgnnkoknnilig o |
  1
<0:;8: {rn {mn {km {rn {kl -:):-,:; {k {rn |
  1
:;8: {rn {lk {kk {mn {kj 90-(>-; |
  1
):-+:' {rn {mm {ki |
  1
,+->687+r<*-): {rn rlhqghfifjhhknjlnlk rkoqjkgkfoglhhhofnl o oqkjfngfjmfijlloohl rnqfkijhmimmgojhloj o V V |
  1
/061+ {rn rlhqghfifjhhknjlnlk rkoqjkgkfoglhhhofnl o |
  1
<0:;8: {rn {kh {mh {rn {kg -:):-,:; {k {rn |
  1
:;8: {rn {kf {lf {mh {jo 90-(>-; |
  1
):-+:' {rn {lg {jn |
  1
,+->687+r<*-): {rn rllqlnikomlmlgkgmg rkhqhhmgnnkoknnilig o roqjknlmigjnonmjgikf nqfmjlkgogmfnnfifg o V V |
  1
/061+ {rn rlkqiiinkhkkifinji rkmqfhmnkjgniifonl o |
  1
<0:;8: {rn {lm {jm {rn {jl -:):-,:; {k {rn |
  1
:;8: {rn {kk {jk {lm {jj 90-(>-; |
  1
):-+:' {rn {ll {ji |
  1
,+->687+r<*-): {rn rliqhigfiokikgkmghh rkjqmjhoimhffnjjhoj o oqjkiffiokfiomonjof nqfmlhkjnmfofjhflm o V V |
  1
/061+ {rn rliqhigfiokikgkmghh rkjqmjhoimhffnjjhoj o |
  1
<0:;8: {rn {jm {lh {rn {jh -:):-,:; {k {rn |
  1
:;8: {rn {jg {kf {lh {jf 90-(>-; |
  1
):-+:' {rn {kg {io |
  1
,+->687+r<*-): {rn rlnqiimfijnjmnhklfk rkhqhhmgnnkoknnilig o rm o o V V |
  1
/061+ {rn rllqlnikomlmlgkgmg rkhqhhmgnnkoknnilig o |
  1
<0:;8: {rn {km {kh {rn {in -:):-,:; {k {rn |
  1
:;8: {rn {jk {im {km {il 90-(>-; |
  1
):-+:' {rn {kl {ik |
  1
,+->687+r<*-): {rn rljqklonmfnmgkofing rkoqjkgkfoglhhhofnl o m o o V V |
  1
/061+ {rn rljqklonmfnmgkofing rkoqjkgkfoglhhhofnl o |
  1
:;8: {rn {ij {jg {kh {ii 90-(>-; |
  1
):-+:' {rn {jh {ih |
  1
,+->687+r<*-): {rn rmfqifigokokofkmign rkoqjkgkfoglhhhofnl o roqjmjmnllmokmjomhkk rnqfmfgojfkojnjmfli o V V |
  1
/061+ {rn rlnqiimfijnjmnhklfk rkhqhhmgnnkoknnilig o |
  1
:;8: {rn {im {ij {jm {ig 90-(>-; |
  1
):-+:' {rn {jl {if |
  1
,+->687+r<*-): {rn rllqgjlmgnhggmjmghm rkoqjkgkfoglhhhofnl o oqjojlgfiiloigogfgi rnqfljofmoimonmjlkh o V V |
  1
/061+ {rn rllqgjlmgnhggmjmghm rkoqjkgkfoglhhhofnl o |
  1
):-+:' {rn {in {ho |
  1
,+->687+r<*-): {rn rlnqljknmggjmijkkkn rkoqjkgkfoglhhhofnl o m o o V V |
  1
/061+ {rn rmfqifigokokofkmign rkoqjkgkfoglhhhofnl o |
  1
,+->687+r<*-): {rn rlmqimljlffghkloilm rkjqmjhoimhffnjjhoj o oqjmoioknljjlnghihf nqflnojkkinhokokh o V V |
  1
/061+ {rn rlmqimljlffghkloilm rkjqmjhoimhffnjjhoj o |
  1
/061+ {rn rlnqljknmggjmijkkkn rkoqjkgkfoglhhhofnl o |
  0
REGION
  5
76F
330
1F
100
AcDbEntity
  8
5
100
AcDbModelerGeometry
 70
     1
  1
koo mi n o          
  1
h J1410(1 nl ^ \VL kqoqm QK mk K7* U*3 ol nlekjenj moog 
  1
rn fqfffffffffffffffj:rooh n:rono 
  1
=0;& {rn {n {rn {rn |
  1
3*2/ {rn {rn {m {o |
  1
,7:33 {rn {rn {rn {l {rn {n |
  1
9><: {rn {rn {k {m {rn {j 90-(>-; ;0*=3: 0*+ |
  1
300/ {rn {rn {i {l |
  1
/3>1:r,*-9><: {rn riqiolgjkkkjmkfflii rklqfjkjoifoionihki o o o n m o o 90-(>-;@) V V V V |
  1
<0:;8: {rn {h {g {rn {f -:):-,:; {k {rn |
  1
<0:;8: {rn {no {i {rn {nn -:):-,:; {k {rn |
  1
<0:;8: {rn {i {no {rn {nm -:):-,:; {k {rn |
  1
:;8: {rn {nl {nk {i {nj 90-(>-; |
  1
<0:;8: {rn {g {h {rn {ni -:):-,:; {k {rn |
  1
:;8: {rn {nh {nl {h {ng 90-(>-; |
  1
:;8: {rn {nk {nf {g {mo 90-(>-; |
  1
):-+:' {rn {f {mn |
  1
):-+:' {rn {f {mm |
  1
,+->687+r<*-): {rn llqlonofllonmmnfnn rkfqfgjlillimjigmmm o rm o o V V |
  1
:;8: {rn {nf {nh {no {ml 90-(>-; |
  1
):-+:' {rn {ni {mk |
  1
,+->687+r<*-): {rn llqlonofllonmmnfnn rlhqfmlijokkfkijmhn o mqljiljhikkijlllgm:ronj rm o V V |
  1
):-+:' {rn {nm {mj |
  1
,+->687+r<*-): {rn rkiqjoggomnfnhmnhff rkfqfgjlillimjigmmm o o m o V V |
  1
/061+ {rn llqlonofllonmmnfnn rkfqfgjlillimjigmmm o |
  1
/061+ {rn rkiqjoggomnfnhmnhff rkfqfgjlillimjigmmm o |
  1
,+->687+r<*-): {rn rkiqjoggomnfnhmnhff rlhqfmlijokkfkijmhn o m o o V V |
  1
/061+ {rn llqlonofllonmmnfnn rlhqfmlijokkfkijmhn o |
  1
/061+ {rn rkiqjoggomnfnhmnhff rlhqfmlijokkfkijmhn o |
  0
REGION
  5
770
330
1F
100
AcDbEntity
  8
5
100
AcDbModelerGeometry
 70
     1
  1
koo mi n o          
  1
h J1410(1 nl ^ \VL kqoqm QK mk K7* U*3 ol nlekjenj moog 
  1
rn fqfffffffffffffffj:rooh n:rono 
  1
=0;& {rn {n {rn {rn |
  1
3*2/ {rn {rn {m {o |
  1
,7:33 {rn {rn {rn {l {rn {n |
  1
9><: {rn {rn {k {m {rn {j -:):-,:; ;0*=3: 0*+ |
  1
300/ {rn {rn {i {l |
  1
/3>1:r,*-9><: {rn rklqmnonkmnlnmimjgi rkkqnjfhkhmkmjghggl o o o rn rm o o 90-(>-;@) V V V V |
  1
<0:;8: {rn {h {g {rn {f -:):-,:; {k {rn |
  1
<0:;8: {rn {no {i {rn {nn 90-(>-; {k {rn |
  1
<0:;8: {rn {i {no {rn {nm 90-(>-; {k {rn |
  1
:;8: {rn {nl {nk {i {nj 90-(>-; |
  1
<0:;8: {rn {g {h {rn {ni 90-(>-; {k {rn |
  1
:;8: {rn {nl {nh {h {ng 90-(>-; |
  1
:;8: {rn {nf {nk {g {mo 90-(>-; |
  1
):-+:' {rn {f {mn |
  1
):-+:' {rn {f {mm |
  1
61+<*-):r<*-): {rn 90-(>-; $ :'><+<*- 1*=, l 0/:1 mk 
  1
 o l oqligokiljfljmjmjj n oqikiffjgmifofigklg n nqoigjglohkoojklhk n nqiohihjljnioiinng n 
  1
 nqfhmmojknmiffgfof n mqnfkhjgmkmhhogjlf n mqioinmmijimmmlmmg n lqnlhnlfiiikkokmkj n lqifnmlfgjmonggmhk n 
  1
 kqokoilfionkiiffnk n kqlffkggihjloikjmk n kqgnjjkihfkomhonmj n jqljoknhiinlnnjjjf n jqgnogkngnofmjifjk n 
  1
 iqmmhnfffmkgnlkoni n iqinkmilhmmmoihgkk n hqkgfigmoofjhoomml n hqgihgfiogmnmng n gqmjlnglnofmnkimnl n 
  1
 gqjjhhkmomokmlmfin n gqhimgololoifolglj n fqnknnhijkkiknoojg n fqmjiilgghlkomkimn l 
  1
 rknqgigjljmgnogkggg rkmqgkgkjlgjfhffglm o 
  1
 rknqgfklgnhgglkggg rkmqjfomlmiihmffolk o 
  1
 rknqflfgnhgiklohfk rkmqnlilooimfllogim o 
  1
 rkmqjfimlojmlkjmfjf rknqhnmhlgmingnhjm o 
  1
 rklqlghnnkkloghooff rknqihnfjnnlmkgkihf o 
  1
 rkkqkhohhkmnklogflm rknqhojglogijliiglj o 
  1
 rkkqjfolkfkljhmklil rkmqijigiikkofnfhkm o 
  1
 rkkqogkjnonlfkglfnn rklqnjloljgihfmflll o 
  1
 rklqmgnmimjmijjhokl rklqmlgfjglkojfoknj o 
  1
 rkmqlmkmjkmlmmnkjff rklqkhnggigjffhjijj o 
  1
 rknqlhimhhklinmmlfl rklqiiggfmgjmklfflf o 
  1
 rkoqilgogflmiigjkki rkkqofmonglofnhmmlm o 
  1
 rkoqnmnnfmknknomilh rkkqiifjhkgmmnjinik o 
  1
 rlfqflkijjgnlhhllll rkjqjkgifkllhhffihk o 
  1
 rkoqohnnjkfhmihlmh rkiqjmjgklikmihijfn o 
  1
 rkoqhlfojjmfkiknjln rkhqmkhmkjfjmonggon o 
  1
 rknqkgjnmgfjjmmgnlk rkhqikjlmofkikhgjoi o 
  1
 rkmqjjgkklnhffgolni rkgqoongfgohhigiklk o 
  1
 rklqihfmnhfghkkiofk rkhqgggiimjglnjgfhj o 
  1
 rkkqhjmfgjomoffoojl rkhqifljgonffkmgmmi o 
  1
 rkjqkoiljolmgjnjool rkhqlighffgklmofjgh o 
  1
 rkjqgmnjfojkfiimmin rkiqflogmlkjokioimm o 
  1
 rkiqmolmjgglkklnljm rkiqkgfonghmklgmiki o 
  1
 rkiqmffnjillkhghnkm rkjqfmnhkllmgohjllh o 
  1
 rkiqljnffhhljghmhkl rkjqhmjolifhofknjkj o 
  1
 rkiqlhhnhihmghjhgi rkjqmfoijmonghomfjh o 
  1
 o 
  1
 1*33@,*-9><: 
  1
 1*33@,*-9><: 
  1
 1*33=, 
  1
 1*33=, 
  1
 V V 
  1
 o 
  1
 o 
  3
 mm oqligokiljfljmjmjj oqikiffjgmifofigklg nqoigjglohkoojklhk nqiohihjljnioiinng nqfhmmojknmiffgfof mqnfkhjgmkmhhogjlf mqioinmmijimmmlmmg lqnlhnlfiiikkokmkj lqifnmlfgjmonggmhk kqokoilfionkiiffnk kqlffkggihjloikjmk kqgnjjkihfkomhonmj jqljoknhiinlnnjjjf jqg
  1
nogkngnofmjifjk iqmmhnfffmkgnlkoni iqinkmilhmmmoihgkk hqkgfigmoofjhoomml hqgihgfiogmnmng gqmjlnglnofmnkimnl gqjjhhkmomokmlmfin gqhimgololoifolglj fqnknnhijkkiknoojg 
  1
 Y n Y o " V V |
  1
:;8: {rn {nh {nf {no {ml 90-(>-; |
  1
):-+:' {rn {ni {mk |
  1
,+->687+r<*-): {rn rknqgigjljmgnogkggg rkmqgkgkjlgjfhffglm o nqfffffggjlnomnhjn roqoomnkngiioojnojinfi o V V |
  1
):-+:' {rn {nm {mj |
  1
,+->687+r<*-): {rn rkkqhfmoloonhnfnjfl rkjqmggjlknjjnnigmn o rnqfffffgmnkfmjoklf roqoomihmnlllkfklhngfk o V V |
  1
/061+ {rn rknqgigjljmgnogkggg rkmqgkgkjlgjfhffglm o |
  1
/061+ {rn rkiqlhhnhihmghjhgi rkjqmfoijmonghomfjh o |
  1
61+<*-):r<*-): {rn 90-(>-; $ :'><+<*- 1*=, l 0/:1 mg 
  1
 o l oqlfigjomnhmmhnoggk n oqhmihgjfojjnjijimj n nqongknlhimogofofh n nqmhjijkomimihfkmn n 
  1
 nqjjhhfooifjkllfmm n nqginnnojigjoifhom n mqjkkgnlhjikjngfjl n mqgnmoofmlhlingolh n lqokfffiohonmmmllj n 
  1
 lqlloonlmhgjlffngk n lqjhjiljhgilhmngkg n lqflkijnjffnhfgkfk n kqklfnimomimokiofi n kqihhohhmgmkfjfon n 
  1
 kqfjglhmkoiilonmjg n jqlmoknigoglljkill n jqijoooimimfnhomng n iqnnmooijfhfmfnkjk n iqillkinjnnhkjhlfi n 
  1
 iqfknhinkfmmgkfnmf n hqmokikooliljffifi n hqkfmhhkhgfkhifngl n hqhnffflnfkkoglkjn n gqmmhonmnijoikjmjg n 
  1
 gqhgfgkommjlomnifh n fqnlnohigkhjkjhkmm n fqlggifigilfmffjgm l 
  1
 rkoqmghlhnlinjgjkjh rkmqgjonkhngnlfkhol o 
  1
 rkoqmhgffjffgkflkmg rkmqjhfhooimhiokiii o 
  1
 rkoqmilijhkhillfmoj rkmqogkkoginlmklffk o 
  1
 rkoqinjmijmifkiikkg rknqkgmookggjjlmmfn o 
  1
 rknqoolfhmgihgmnnkh rknqomgkhogfmommmgk o 
  1
 rknqjmogmohfhlhjgnf rkoqgohijokfkjffiff o 
  1
 rkmqomhjjjmmfihoohn rkoqjiokjmklmnjhooh o 
  1
 rkmqghlhmmmmmmjljnf rkoqkkmigjhogkgjfmj o 
  1
 rklqhnioiljnmohgjlk rkoqkmifijlogmjfgih o 
  1
 rkkqkfjjmmgohoonnjn rkoqjfmlfihiglnijkh o 
  1
 rkkqfhhggngilmnfgik rkoqgognjmlognmhjhj o 
  1
 rkjqlglnmfmgfmhkjlj rknqnnhihiiojlhmnig o 
  1
 rkjqglihknfkghhnlf rknqjolfgimmnklglih o 
  1
 rkiqnilkkoffhjfmooj rkmqngflhnfikkoijkh o 
  1
 rkiqmoioomgmjhllfhj rkmqfiikhmojiiknlhf o 
  1
 rkjqfnokfjkijjngmih rklqjgfkfljhgfinjlh o 
  1
 rkjqjkogmkmnflhmfmm rkkqoimnnihlgnlmof o 
  1
 rkkqfkmlihlflfolkjl rkkqlkggfjiojklfojk o 
  1
 rkkqmmjjnhjkjmjggih rkkqinfjmonkfljofoj o 
  1
 rklqliollogniihlin rkkqhfhlnolkkjilnjg o 
  1
 rkmqjmljjnojkimkgng rkkqfmmhmiffohloonl o 
  1
 rknqgolionhlnnojnkh rkjqmnoknmklnikimll o 
  1
 rknqjhjghnjgmgjkofn rkjqhgfgmhfjkghfjkn o 
  1
 rknqhjonmkohljfkiim rkiqljmlkngjjgnhjkm o 
  1
 rkmqknkfogfiohkjoof rkiqimgknjlgojihom o 
  1
 rklqmjhmhggkhhhggkf rkiqhogikmgogiohmlh o 
  1
 rkkqmhfoglfgmlhnnfn rkiqjiohklmnkfinfki o 
  1
 rkkqhlkjnnnjomfjgkj rkjqgjgihfhjokmlnli o 
  1
 rkkqhhkhmggfonlngmi rkjqkioomgjnhmninom o 
  1
 rkkqhfmoloonhnfnjfl rkjqmggjlknjjnnigmn o 
  1
 o 
  1
 1*33@,*-9><: 
  1
 1*33@,*-9><: 
  1
 1*33=, 
  1
 1*33=, 
  1
 V V 
  1
 o 
  1
 o 
  3
 mi oqlfigjomnhmmhnoggk oqhmihgjfojjnjijimj nqongknlhimogofofh nqmhjijkomimihfkmn nqjjhhfooifjkllfmm nqginnnojigjoifhom mqjkkgnlhjikjngfjl mqgnmoofmlhlingolh lqokfffiohonmmmllj lqlloonlmhgjlffngk lqjhjiljhgilhmngkg lqflkijnjffnhfgkfk kqklfnimomimokiofi kq
  1
ihhohhmgmkfjfon kqfjglhmkoiilonmjg jqlmoknigoglljkill jqijoooimimfnhomng iqnnmooijfhfmfnkjk iqillkinjnnhkjhlfi iqfknhinkfmmgkfnmf hqmokikooliljffifi hqkfmhhkhgfkhifngl hqhnffflnfkkoglkjn gqmmhonmnijoikjmjg gqhgfgkommjlomnifh fqnlnohigkhjkjhkmm 
  1
 Y n Y o " V V |
  1
/061+ {rn rkoqmghlhnlinjgjkjh rkmqgjonkhngnlfkhol o |
  1
/061+ {rn rkkqhfmoloonhnfnjfl rkjqmggjlknjjnnigmn o |
  0
REGION
  5
771
330
1F
100
AcDbEntity
  8
5
100
AcDbModelerGeometry
 70
     1
  1
koo ki n o          
  1
h J1410(1 nl ^ \VL kqoqm QK mk K7* U*3 ol nlekjenj moog 
  1
rn fqfffffffffffffffj:rooh n:rono 
  1
=0;& {rn {n {rn {rn |
  1
3*2/ {rn {rn {m {o |
  1
,7:33 {rn {rn {rn {l {rn {n |
  1
9><: {rn {rn {k {m {rn {j -:):-,:; ;0*=3: 0*+ |
  1
300/ {rn {rn {i {l |
  1
/3>1:r,*-9><: {rn oqojmnjnngnfilnfihfn rklqonmogmlmihnkhin o o o rn rm o o 90-(>-;@) V V V V |
  1
<0:;8: {rn {h {g {rn {f -:):-,:; {k {rn |
  1
<0:;8: {rn {no {i {rn {nn -:):-,:; {k {rn |
  1
<0:;8: {rn {i {nm {rn {nl -:):-,:; {k {rn |
  1
:;8: {rn {nk {nj {i {ni 90-(>-; |
  1
<0:;8: {rn {nh {h {rn {ng -:):-,:; {k {rn |
  1
:;8: {rn {nf {nk {h {mo 90-(>-; |
  1
<0:;8: {rn {g {mn {rn {mm -:):-,:; {k {rn |
  1
:;8: {rn {nj {ml {g {mk 90-(>-; |
  1
):-+:' {rn {f {mj |
  1
):-+:' {rn {f {mi |
  1
,+->687+r<*-): {rn lqnghhlhnkhlhfmmlg rknqgjmoomkljomifkh o rm o o V V |
  1
<0:;8: {rn {mh {no {rn {mg -:):-,:; {k {rn |
  1
:;8: {rn {mf {nf {no {lo 90-(>-; |
  1
):-+:' {rn {ng {ln |
  1
,+->687+r<*-): {rn lqnghhlhnkhlhfmmlg rkoqjijnfokjgifhnhk o o rm o V V |
  1
<0:;8: {rn {nm {mh {rn {lm -:):-,:; {k {rn |
  1
:;8: {rn {ml {ll {nm {lk 90-(>-; |
  1
):-+:' {rn {nl {lj |
  1
,+->687+r<*-): {rn oqgiijmiojhjhkiiooi rknqgjmoomkljomifkh o o rm o V V |
  1
/061+ {rn lqnghhlhnkhlhfmmlg rknqgjmoomkljomifkh o |
  1
/061+ {rn oqgiijmiojhjhkiiooi rknqgjmoomkljomifkh o |
  1
<0:;8: {rn {mn {nh {rn {li -:):-,:; {k {rn |
  1
:;8: {rn {lh {mf {nh {lg 90-(>-; |
  1
):-+:' {rn {mg {lf |
  1
,+->687+r<*-): {rn rlqonjnikhnloijgklm rkoqjijnfokjgifhnhk o m o o V V |
  1
/061+ {rn lqnghhlhnkhlhfmmlg rkoqjijnfokjgifhnhk o |
  1
:;8: {rn {ll {ko {mn {kn 90-(>-; |
  1
):-+:' {rn {mm {km |
  1
,+->687+r<*-): {rn oqgiijmiojhjhkiiooi rkhqhhfnllfhgnohfhg o rm o o V V |
  1
/061+ {rn oqgiijmiojhjhkiiooi rkhqhhfnllfhgnohfhg o |
  1
:;8: {rn {ko {lh {mh {kl 90-(>-; |
  1
):-+:' {rn {li {kk |
  1
,+->687+r<*-): {rn rlqonjnikhnloijgklm rknqgjmoomkljomifkh o o m o V V |
  1
/061+ {rn rlqonjnikhnloijgklm rkoqjijnfokjgifhnhk o |
  1
):-+:' {rn {lm {kj |
  1
,+->687+r<*-): {rn roqglokflhikoljlnomg rkhqhhfnllfhgnohfhg o o m o V V |
  1
/061+ {rn roqglokflhikoljlnomg rkhqhhfnllfhgnohfhg o |
  1
,+->687+r<*-): {rn roqglokflhikoljlnomg rknqgjmoomkljomifkh o rm o o V V |
  1
/061+ {rn rlqonjnikhnloijgklm rknqgjmoomkljomifkh o |
  1
/061+ {rn roqglokflhikoljlnomg rknqgjmoomkljomifkh o |
  0
REGION
  5
772
330
1F
100
AcDbEntity
  8
5
100
AcDbModelerGeometry
 70
     1
  1
koo mi n o          
  1
h J1410(1 nl ^ \VL kqoqm QK mk K7* U*3 ol nlekjenj moog 
  1
rn fqfffffffffffffffj:rooh n:rono 
  1
=0;& {rn {n {rn {rn |
  1
3*2/ {rn {rn {m {o |
  1
,7:33 {rn {rn {rn {l {rn {n |
  1
9><: {rn {rn {k {m {rn {j -:):-,:; ;0*=3: 0*+ |
  1
300/ {rn {rn {i {l |
  1
/3>1:r,*-9><: {rn rniqonlnfjiilmkhkhl rkkqnjfhkhmkmjghggl o o o rn rm o o 90-(>-;@) V V V V |
  1
<0:;8: {rn {h {g {rn {f -:):-,:; {k {rn |
  1
<0:;8: {rn {no {i {rn {nn 90-(>-; {k {rn |
  1
<0:;8: {rn {i {no {rn {nm 90-(>-; {k {rn |
  1
:;8: {rn {nl {nk {i {nj 90-(>-; |
  1
<0:;8: {rn {g {h {rn {ni 90-(>-; {k {rn |
  1
:;8: {rn {nl {nh {h {ng 90-(>-; |
  1
:;8: {rn {nf {nk {g {mo 90-(>-; |
  1
):-+:' {rn {f {mn |
  1
):-+:' {rn {f {mm |
  1
61+<*-):r<*-): {rn 90-(>-; $ :'><+<*- 1*=, l 0/:1 mk 
  1
 o l oqligokiljfljmjmjj n oqikiffjgmifofigklg n nqoigjglohkoojklhk n nqiohihjljnioiinng n 
  1
 nqfhmmojknmiffgfof n mqnfkhjgmkmhhogjlf n mqioinmmijimmmlmmg n lqnlhnlfiiikkokmkj n lqifnmlfgjmonggmhk n 
  1
 kqokoilfionkiiffnk n kqlffkggihjloikjmk n kqgnjjkihfkomhonmj n jqljoknhiinlnnjjjf n jqgnogkngnofmjifjk n 
  1
 iqmmhnfffmkgnlkoni n iqinkmilhmmmoihgkk n hqkgfigmoofjhoomml n hqgihgfiogmnmng n gqmjlnglnofmnkimnl n 
  1
 gqjjhhkmomokmlmfin n gqhimgololoifolglj n fqnknnhijkkiknoojg n fqmjiilgghlkomkimn l 
  1
 rnkqihnjgggnloifgol rkmqgkgkjlgjfhffglm o 
  1
 rnkqifhkljlmolllhfi rkmqjfomlmiihmffolk o 
  1
 rnkqhkmghnlfimfmgjj rkmqnlilooimfllogim o 
  1
 rnjqlffmgkojjklhghk rknqhnmhlgmingnhjm o 
  1
 rniqnfonihfimgjjonk rknqihnfjnnlmkgkihf o 
  1
 rnhqmhlgmhhkimflgkh rknqhojglogijliiglj o 
  1
 rnhqlflkomfihhofmhg rkmqijigiikkofnfhkm o 
  1
 rniqgghjilihnkiggmi rklqnjloljgihfmflll o 
  1
 rniqogklniojgjknfjg rklqmlgfjglkojfoknj o 
  1
 rnjqnmhlohhiknffjnk rklqkhnggigjffhjijj o 
  1
 rnkqnhfllofignohlog rklqiiggfmgjmklfflf o 
  1
 rnlqkknnkmgjgiholin rkkqofmonglofnhmmlm o 
  1
 rnmqfmkmkjfkioghjjm rkkqiifjhkgmmnjinik o 
  1
 rnmqhlhhoflkjhjgmkg rkjqjkgifkllhhffihk o 
  1
 rnmqghkmogjokijgngj rkiqjmjgklikmihijfn o 
  1
 rnlqjkmnoggmiimikki rkhqmkhmkjfjmonggon o 
  1
 rnkqmggngmkghmnlokf rkhqikjlmofkikhgjoi o 
  1
 rnjqlinkfihnnfijmln rkgqoongfgohhigiklk o 
  1
 rniqkgmmhnjnfklnoof rkhqgggiimjglnjgfhj o 
  1
 rnhqjjiolgjjmfhkfig rkhqifljgonffkmgmmi o 
  1
 rngqmofkolgiokfffng rkhqlighffgklmofjgh o 
  1
 rngqimkikkognikhnhi rkiqflogmlkjokioimm o 
  1
 rnfqooilnmliiknimih rkiqkgfonghmklgmiki o 
  1
 rnfqnommofgiihhmojh rkjqfmnhkllmgohjllh o 
  1
 rnfqnjjojnmihgjhijg rkjqhmjolifhofknjkj o 
  1
 rnfqngomlomiohkmhhj rkjqmfoijmonghomfjh o 
  1
 o 
  1
 1*33@,*-9><: 
  1
 1*33@,*-9><: 
  1
 1*33=, 
  1
 1*33=, 
  1
 V V 
  1
 o 
  1
 o 
  3
 mm oqligokiljfljmjmjj oqikiffjgmifofigklg nqoigjglohkoojklhk nqiohihjljnioiinng nqfhmmojknmiffgfof mqnfkhjgmkmhhogjlf mqioinmmijimmmlmmg lqnlhnlfiiikkokmkj lqifnmlfgjmonggmhk kqokoilfionkiiffnk kqlffkggihjloikjmk kqgnjjkihfkomhonmj jqljoknhiinlnnjjjf jqg
  1
nogkngnofmjifjk iqmmhnfffmkgnlkoni iqinkmilhmmmoihgkk hqkgfigmoofjhoomml hqgihgfiogmnmng gqmjlnglnofmnkimnl gqjjhhkmomokmlmfin gqhimgololoifolglj fqnknnhijkkiknoojg 
  1
 Y n Y o " V V |
  1
:;8: {rn {nh {nf {no {ml 90-(>-; |
  1
):-+:' {rn {ni {mk |
  1
,+->687+r<*-): {rn rnkqihnjgggnloifgol rkmqgkgkjlgjfhffglm o nqfffffggjlnomnhjn roqoomnkngiioojnojinfi o V V |
  1
):-+:' {rn {nm {mj |
  1
,+->687+r<*-): {rn rnhqjfjogljkfnhijog rkjqmggjlknjjnnigmn o rnqfffffgmnkfmjoklf roqoomihmnlllkfklhngfk o V V |
  1
/061+ {rn rnkqihnjgggnloifgol rkmqgkgkjlgjfhffglm o |
  1
/061+ {rn rnfqngomlomiohkmhhj rkjqmfoijmonghomfjh o |
  1
61+<*-):r<*-): {rn 90-(>-; $ :'><+<*- 1*=, l 0/:1 mg 
  1
 o l oqlfigjomnhmmhnoggk n oqhmihgjfojjnjijimj n nqongknlhimogofofh n nqmhjijkomimihfkmn n 
  1
 nqjjhhfooifjkllfmm n nqginnnojigjoifhom n mqjkkgnlhjikjngfjl n mqgnmoofmlhlingolh n lqokfffiohonmmmllj n 
  1
 lqlloonlmhgjlffngk n lqjhjiljhgilhmngkg n lqflkijnjffnhfgkfk n kqklfnimomimokiofi n kqihhohhmgmkfjfon n 
  1
 kqfjglhmkoiilonmjg n jqlmoknigoglljkill n jqijoooimimfnhomng n iqnnmooijfhfmfnkjk n iqillkinjnnhkjhlfi n 
  1
 iqfknhinkfmmgkfnmf n hqmokikooliljffifi n hqkfmhhkhgfkhifngl n hqhnffflnfkkoglkjn n gqmmhonmnijoikjmjg n 
  1
 gqhgfgkommjlomnifh n fqnlnohigkhjkjhkmm n fqlggifigilfmffjgm l 
  1
 rnlqofokmkgfljholhm rkmqgjonkhngnlfkhol o 
  1
 rnlqogmokfjlokhglhm rkmqjhfhooimhiokiii o 
  1
 rnlqoiihnnooglmknm rkmqogkkoginlmklffk o 
  1
 rnlqknglnggonkjnlil rknqkgmookggjjlmmfn o 
  1
 rnlqgohomilffgoioim rknqomgkhogfmommmgk o 
  1
 rnkqlmlghklmfliohlk rkoqgohijokfkjffiff o 
  1
 rnkqgloioghinijkfgi rkoqjiokjmklmnjhooh o 
  1
 rnjqihihhjhjkmlgklj rkoqkkmigjhogkgjfmj o 
  1
 rniqjnfnnhokkoilkkf rkoqkmifijlogmjfgih o 
  1
 rnhqmfgjhillgfgioih rkoqjfmlfihiglnijkh o 
  1
 rnhqhgofljlfjmokhhf rkoqgognjmlognmhjhj o 
  1
 rngqngingmgmnmjfkj rknqnnhihiiojlhmnig o 
  1
 rngqilfhfjkgohjiloj rknqjolfgimmnklglih o 
  1
 rngqfiikfkjmfjhifm rkmqngflhnfikkoijkh o 
  1
 rnfqoofojiljhhnggf rkmqfiikhmojiiknlhf o 
  1
 rngqhnljkgffhjolngm rklqjgfkfljhgfinjlh o 
  1
 rngqlklghhhjnljhglh rkkqoimnnihlgnlmof o 
  1
 rnhqhkjkmofmjggglig rkkqlkggfjiojklfojk o 
  1
 rnhqomgjhnohhmklhgm rkkqinfjmonkfljofoj o 
  1
 rniqnillgklkgijgjmj rkkqhfhlnolkkjilnjg o 
  1
 rnjqlmiiokjgiiofhll rkkqfmmhmiffohloonl o 
  1
 rnkqioiijjmilofooim rkjqmnoknmklnikimll o 
  1
 rnkqlhgfmjnnkglfooi rkjqhgfgmhfjkghfjkn o 
  1
 rnkqjjlnhhiojjhfjhh rkiqljmlkngjjgnhjkm o 
  1
 rnjqmnhfimkfmhmffmk rkiqimgknjlgojihom o 
  1
 rniqoiollmlhfhilhik rkiqhogikmgogiohmlh o 
  1
 rnhqogmnlhjnkljinoi rkiqjiohklmnkfinfki o 
  1
 rnhqjlhjikigmmgohi rkjqgjgihfhjokmlnli o 
  1
 rnhqjhhhgmkmmnnihkn rkjqkioomgjnhmninom o 
  1
 rnhqjfjogljkfnhijog rkjqmggjlknjjnnigmn o 
  1
 o 
  1
 1*33@,*-9><: 
  1
 1*33@,*-9><: 
  1
 1*33=, 
  1
 1*33=, 
  1
 V V 
  1
 o 
  1
 o 
  3
 mi oqlfigjomnhmmhnoggk oqhmihgjfojjnjijimj nqongknlhimogofofh nqmhjijkomimihfkmn nqjjhhfooifjkllfmm nqginnnojigjoifhom mqjkkgnlhjikjngfjl mqgnmoofmlhlingolh lqokfffiohonmmmllj lqlloonlmhgjlffngk lqjhjiljhgilhmngkg lqflkijnjffnhfgkfk kqklfnimomimokiofi kq
  1
ihhohhmgmkfjfon kqfjglhmkoiilonmjg jqlmoknigoglljkill jqijoooimimfnhomng iqnnmooijfhfmfnkjk iqillkinjnnhkjhlfi iqfknhinkfmmgkfnmf hqmokikooliljffifi hqkfmhhkhgfkhifngl hqhnffflnfkkoglkjn gqmmhonmnijoikjmjg gqhgfgkommjlomnifh fqnlnohigkhjkjhkmm 
  1
 Y n Y o " V V |
  1
/061+ {rn rnlqofokmkgfljholhm rkmqgjonkhngnlfkhol o |
  1
/061+ {rn rnhqjfjogljkfnhijog rkjqmggjlknjjnnigmn o |
  0
REGION
  5
773
330
1F
100
AcDbEntity
  8
5
100
AcDbModelerGeometry
 70
     1
  1
koo mi n o          
  1
h J1410(1 nl ^ \VL kqoqm QK mk K7* U*3 ol nlekjenj moog 
  1
rn fqfffffffffffffffj:rooh n:rono 
  1
=0;& {rn {n {rn {rn |
  1
3*2/ {rn {rn {m {o |
  1
,7:33 {rn {rn {rn {l {rn {n |
  1
9><: {rn {rn {k {m {rn {j 90-(>-; ;0*=3: 0*+ |
  1
300/ {rn {rn {i {l |
  1
/3>1:r,*-9><: {rn rmhqfkffnhookklffgm rkkqnikjmihimgkmlhn o o o n m o o 90-(>-;@) V V V V |
  1
<0:;8: {rn {h {g {rn {f -:):-,:; {k {rn |
  1
<0:;8: {rn {no {i {rn {nn -:):-,:; {k {rn |
  1
<0:;8: {rn {i {no {rn {nm -:):-,:; {k {rn |
  1
:;8: {rn {nl {nk {i {nj 90-(>-; |
  1
<0:;8: {rn {g {h {rn {ni -:):-,:; {k {rn |
  1
:;8: {rn {nh {nl {h {ng 90-(>-; |
  1
:;8: {rn {nk {nf {g {mo 90-(>-; |
  1
):-+:' {rn {f {mn |
  1
):-+:' {rn {f {mm |
  1
,+->687+r<*-): {rn rmgqgkikkffflnfijjg rkhqhjjokhjmolfolm o o m o V V |
  1
:;8: {rn {nf {nh {no {ml 90-(>-; |
  1
):-+:' {rn {ni {mk |
  1
,+->687+r<*-): {rn rmhqojllgkonjiglkoi rkhqhjjokhjmolfolm o rm o o V V |
  1
):-+:' {rn {nm {mj |
  1
,+->687+r<*-): {rn rmgqgkikkffflnfijjg rkoqjhkooioojmfkkmm o m o o V V |
  1
/061+ {rn rmgqgkikkffflnfijjg rkhqhjjokhjmolfolm o |
  1
/061+ {rn rmgqgkikkffflnfijjg rkoqjhkooioojmfkkmm o |
  1
,+->687+r<*-): {rn rmhqojllgkonjiglkoi rkoqjhkooioojmfkkmm o o rm o V V |
  1
/061+ {rn rmhqojllgkonjiglkoi rkhqhjjokhjmolfolm o |
  1
/061+ {rn rmhqojllgkonjiglkoi rkoqjhkooioojmfkkmm o |
  0
REGION
  5
774
330
1F
100
AcDbEntity
  8
5
100
AcDbModelerGeometry
 70
     1
  1
koo mi n o          
  1
h J1410(1 nl ^ \VL kqoqm QK mk K7* U*3 ol nlekjenj moog 
  1
rn fqfffffffffffffffj:rooh n:rono 
  1
=0;& {rn {n {rn {rn |
  1
3*2/ {rn {rn {m {o |
  1
,7:33 {rn {rn {rn {l {rn {n |
  1
9><: {rn {rn {k {m {rn {j 90-(>-; ;0*=3: 0*+ |
  1
300/ {rn {rn {i {l |
  1
/3>1:r,*-9><: {rn rmlqomnnkmjfngljnhm rkkqnjfhkhmkmjghggl o o o n m o o 90-(>-;@) V V V V |
  1
<0:;8: {rn {h {g {rn {f 90-(>-; {k {rn |
  1
<0:;8: {rn {no {i {rn {nn -:):-,:; {k {rn |
  1
<0:;8: {rn {i {no {rn {nm 90-(>-; {k {rn |
  1
:;8: {rn {nl {nk {i {nj 90-(>-; |
  1
<0:;8: {rn {g {h {rn {ni 90-(>-; {k {rn |
  1
:;8: {rn {nh {nk {h {ng 90-(>-; |
  1
:;8: {rn {nf {nl {g {mo 90-(>-; |
  1
):-+:' {rn {f {mn |
  1
):-+:' {rn {f {mm |
  1
,+->687+r<*-): {rn rmkqiololokhhhiknhf rkjqmggjlknjjnnigmn o rnqfffffgmnkfmjoklf roqoomihmnlllkfklhngfk o V V |
  1
:;8: {rn {nh {nf {no {ml 90-(>-; |
  1
):-+:' {rn {nn {mk |
  1
61+<*-):r<*-): {rn 90-(>-; $ :'><+<*- 1*=, l 0/:1 mk 
  1
 o l oqligokiljfljmjmjj n oqikiffjgmifofigklg n nqoigjglohkoojklhk n nqiohihjljnioiinng n 
  1
 nqfhmmojknmiffgfof n mqnfkhjgmkmhhogjlf n mqioinmmijimmmlmmg n lqnlhnlfiiikkokmkj n lqifnmlfgjmonggmhk n 
  1
 kqokoilfionkiiffnk n kqlffkggihjloikjmk n kqgnjjkihfkomhonmj n jqljoknhiinlnnjjjf n jqgnogkngnofmjifjk n 
  1
 iqmmhnfffmkgnlkoni n iqinkmilhmmmoihgkk n hqkgfigmoofjhoomml n hqgihgfiogmnmng n gqmjlnglnofmnkimnl n 
  1
 gqjjhhkmomokmlmfin n gqhimgololoifolglj n fqnknnhijkkiknoojg n fqmjiilgghlkomkimn l 
  1
 rmnqihfjljhknijhkhj rkmqgkgkjlgjfhffglm o 
  1
 rmnqhojlgmmkgfmnkih rkmqjfomlmiihmffolk o 
  1
 rmnqhjognglmkggojmh rkmqnlilooimfllogim o 
  1
 rmmqkohmlofgkomjjki rknqhnmhlgmingnhjm o 
  1
 rmlqnfgnnkgfnkkmigj rknqihnfjnnlmkgkihf o 
  1
 rmkqmgnhhkihkggnjng rknqhojglogijliiglj o 
  1
 rmkqkonlkfgfimfifkf rkmqijigiikkofnfhkm o 
  1
 rmlqgfjjnoiooojikfh rklqnjloljgihfmflll o 
  1
 rmlqofmmimfghnmfimf rklqmlgfjglkojfoknj o 
  1
 rmmqnljmjkifmhghngi rklqkhnggigjffhjijj o 
  1
 rmnqnghmhhgfiifkfg rklqiiggfmgjmklfflf o 
  1
 rmoqkkfogfhghmjgolm rkkqofmonglofnhmmlm o 
  1
 rnfqflmnfmghkihjmml rkkqiifjhkgmmnjinik o 
  1
 rnfqhkjijimhklkjfnf rkjqjkgifkllhhffihk o 
  1
 rnfqggmnjjkllmkjgji rkiqjmjgklikmihijfn o 
  1
 rmoqjjoojjhjjmnknnh rkhqmkhmkjfjmonggon o 
  1
 rmnqmfinmfknjgoohmn rkhqikjlmofkikhgjoi o 
  1
 rmmqlifkklikojjmfom rkgqoongfgohhigiklk o 
  1
 rmlqkfomngkkgongig rkhqgggiimjglnjgfhj o 
  1
 rmkqjilfgjkgnjimilf rkhqifljgonffkmgmmi o 
  1
 rmjqmnhljohgfoghjf rkhqlighffgklmofjgh o 
  1
 rmjqilmjfnonomlkgkh rkiqflogmlkjokioimm o 
  1
 rmiqonkmjfmfjoolflf rkiqkgfonghmklgmiki o 
  1
 rmiqnnonjihfjljfhmg rkjqfmnhkllmgohjllh o 
  1
 rmiqnimffgnfikkjlmf rkjqhmjolifhofknjkj o 
  1
 rmiqnggnhhngfllokki rkjqmfoijmonghomfjh o 
  1
 o 
  1
 1*33@,*-9><: 
  1
 1*33@,*-9><: 
  1
 1*33=, 
  1
 1*33=, 
  1
 V V 
  1
 o 
  1
 o 
  3
 mm oqligokiljfljmjmjj oqikiffjgmifofigklg nqoigjglohkoojklhk nqiohihjljnioiinng nqfhmmojknmiffgfof mqnfkhjgmkmhhogjlf mqioinmmijimmmlmmg lqnlhnlfiiikkokmkj lqifnmlfgjmonggmhk kqokoilfionkiiffnk kqlffkggihjloikjmk kqgnjjkihfkomhonmj jqljoknhiinlnnjjjf jqg
  1
nogkngnofmjifjk iqmmhnfffmkgnlkoni iqinkmilhmmmoihgkk hqkgfigmoofjhoomml hqgihgfiogmnmng gqmjlnglnofmnkimnl gqjjhhkmomokmlmfin gqhimgololoifolglj fqnknnhijkkiknoojg 
  1
 Y n Y o " V V |
  1
):-+:' {rn {ni {mj |
  1
61+<*-):r<*-): {rn 90-(>-; $ :'><+<*- 1*=, l 0/:1 mg 
  1
 o l oqlfigjomnhmmhnoggk n oqhmihgjfojjnjijimj n nqongknlhimogofofh n nqmhjijkomimihfkmn n 
  1
 nqjjhhfooifjkllfmm n nqginnnojigjoifhom n mqjkkgnlhjikjngfjl n mqgnmoofmlhlingolh n lqokfffiohonmmmllj n 
  1
 lqlloonlmhgjlffngk n lqjhjiljhgilhmngkg n lqflkijnjffnhfgkfk n kqklfnimomimokiofi n kqihhohhmgmkfjfon n 
  1
 kqfjglhmkoiilonmjg n jqlmoknigoglljkill n jqijoooimimfnhomng n iqnnmooijfhfmfnkjk n iqillkinjnnhkjhlfi n 
  1
 iqfknhinkfmmgkfnmf n hqmokikooliljffifi n hqkfmhhkhgfkhifngl n hqhnffflnfkkoglkjn n gqmmhonmnijoikjmjg n 
  1
 gqhgfgkommjlomnifh n fqnlnohigkhjkjhkmm n fqlggifigilfmffjgm l 
  1
 rmoqofglhngmmnjgokl rkmqgjonkhngnlfkhol o 
  1
 rmoqogfffikjfoiionj rkmqjhfhooimhiokiii o 
  1
 rmoqohkijhflifnnhfn rkmqogkkoginlmklffk o 
  1
 rmoqkmimijhloolfolk rknqkgmookggjjlmmfn o 
  1
 rmoqgnkfhllmglflhlk rknqomgkhogfmommmgk o 
  1
 rmnqllngmnmjhfkgkoj rkoqgohijokfkjffiff o 
  1
 rmnqglgjjjifomkmijh rkoqjiokjmklmnjhooh o 
  1
 rmmqigkhmmigmgminoi rkoqkkmigjhogkgjfmj o 
  1
 rmlqjmhoilfhmijnnmn rkoqkmifijlogmjfgih o 
  1
 rmkqloijmlmihjhlhlg rkoqjfmlfihiglnijkh o 
  1
 rmkqhggggmlmlhfmkj rkoqgognjmlognmhjhj o 
  1
 rmjqnfknmfhkfgkhnmm rknqnnhihiiojlhmnig o 
  1
 rmjqikhhkmkoflklfhh rknqjolfgimmnklglih o 
  1
 rmjqfhkkknkjgnikjfn rkmqngflhnfikkoijkh o 
  1
 rmiqonhoolmgiloijin rkmqfiikhmojiiknlhf o 
  1
 rmjqhmnkfjfmiofogjl rklqjgfkfljhgfinjlh o 
  1
 rmjqljngmkihffkjjog rkkqoimnnihlgnlmof o 
  1
 rmkqhjllihgjkkhiolf rkkqlkggfjiojklfojk o 
  1
 rmkqolijngoojglnkjk rkkqinfjmonkfljofoj o 
  1
 rmlqnhnllnmhhmkinfi rkkqhfhlnolkkjilnjg o 
  1
 rmmqllkjjnjnjnfhkok rkkqfmmhmiffohloonl o 
  1
 rmnqinkiomnfnihhhll rkjqmnoknmklnikimll o 
  1
 rmnqlgighmoklkmiihg rkjqhgfgmhfjkghfjkn o 
  1
 rmnqjinnmkjlknihmkf rkiqljmlkngjjgnhjkm o 
  1
 rmmqmmjfofkmnlnhjfi rkiqimgknjlgojihom o 
  1
 rmlqoigmhflogljnklj rkiqhogikmgogiohmlh o 
  1
 rmkqofoogkkkmfklhhh rkiqjiohklmnkfinfki o 
  1
 rmkqjkjjnninogigkln rkjqgjgihfhjokmlnli o 
  1
 rmkqjgjhmfljohokknm rkjqkioomgjnhmninom o 
  1
 rmkqiololokhhhiknhf rkjqmggjlknjjnnigmn o 
  1
 o 
  1
 1*33@,*-9><: 
  1
 1*33@,*-9><: 
  1
 1*33=, 
  1
 1*33=, 
  1
 V V 
  1
 o 
  1
 o 
  3
 mi oqlfigjomnhmmhnoggk oqhmihgjfojjnjijimj nqongknlhimogofofh nqmhjijkomimihfkmn nqjjhhfooifjkllfmm nqginnnojigjoifhom mqjkkgnlhjikjngfjl mqgnmoofmlhlingolh lqokfffiohonmmmllj lqlloonlmhgjlffngk lqjhjiljhgilhmngkg lqflkijnjffnhfgkfk kqklfnimomimokiofi kq
  1
ihhohhmgmkfjfon kqfjglhmkoiilonmjg jqlmoknigoglljkill jqijoooimimfnhomng iqnnmooijfhfmfnkjk iqillkinjnnhkjhlfi iqfknhinkfmmgkfnmf hqmokikooliljffifi hqkfmhhkhgfkhifngl hqhnffflnfkkoglkjn gqmmhonmnijoikjmjg gqhgfgkommjlomnifh fqnlnohigkhjkjhkmm 
  1
 Y n Y o " V V |
  1
/061+ {rn rmkqiololokhhhiknhf rkjqmggjlknjjnnigmn o |
  1
/061+ {rn rmiqnggnhhngfllokki rkjqmfoijmonghomfjh o |
  1
,+->687+r<*-): {rn rmnqihfjljhknijhkhj rkmqgkgkjlgjfhffglm o nqfffffggjlnomnhjn roqoomnkngiioojnojinfi o V V |
  1
/061+ {rn rmnqihfjljhknijhkhj rkmqgkgkjlgjfhffglm o |
  1
/061+ {rn rmoqofglhngmmnjgokl rkmqgjonkhngnlfkhol o |
  0
REGION
  5
775
330
1F
100
AcDbEntity
  8
5
100
AcDbModelerGeometry
 70
     1
  1
koo mi n o          
  1
h J1410(1 nl ^ \VL kqoqm QK mk K7* U*3 ol nlekjenj moog 
  1
rn fqfffffffffffffffj:rooh n:rono 
  1
=0;& {rn {n {rn {rn |
  1
3*2/ {rn {rn {m {o |
  1
,7:33 {rn {rn {rn {l {rn {n |
  1
9><: {rn {rn {k {m {rn {j -:):-,:; ;0*=3: 0*+ |
  1
300/ {rn {rn {i {l |
  1
/3>1:r,*-9><: {rn rhqggnjjgfnoolhnhn rkkqniofljiomgkgilf o o o rn rm o o 90-(>-;@) V V V V |
  1
<0:;8: {rn {h {g {rn {f 90-(>-; {k {rn |
  1
<0:;8: {rn {no {i {rn {nn 90-(>-; {k {rn |
  1
<0:;8: {rn {i {no {rn {nm 90-(>-; {k {rn |
  1
:;8: {rn {nl {nk {i {nj 90-(>-; |
  1
<0:;8: {rn {g {h {rn {ni 90-(>-; {k {rn |
  1
:;8: {rn {nk {nh {h {ng 90-(>-; |
  1
:;8: {rn {nf {nl {g {mo 90-(>-; |
  1
):-+:' {rn {f {mn |
  1
):-+:' {rn {f {mm |
  1
,+->687+r<*-): {rn rlqfgnlmllnnollhhim rkhqgifmljhkinhhnig o o m o V V |
  1
:;8: {rn {nh {nf {no {ml 90-(>-; |
  1
):-+:' {rn {nn {mk |
  1
,+->687+r<*-): {rn rlqfgnlmllnnollhhim rkoqkjmiljkjfjmonn o rm o o V V |
  1
):-+:' {rn {ni {mj |
  1
,+->687+r<*-): {rn rnnqhgnhfkjofokojii rkhqgifmljhkinhhnig o m o o V V |
  1
/061+ {rn rlqfgnlmllnnollhhim rkhqgifmljhkinhhnig o |
  1
/061+ {rn rlqfgnlmllnnollhhim rkoqkjmiljkjfjmonn o |
  1
,+->687+r<*-): {rn rnnqhgnhfkjofokojii rkoqkjmiljkjfjmonn o o rm o V V |
  1
/061+ {rn rnnqhgnhfkjofokojii rkoqkjmiljkjfjmonn o |
  1
/061+ {rn rnnqhgnhfkjofokojii rkhqgifmljhkinhhnig o |
  0
REGION
  5
776
330
1F
100
AcDbEntity
  8
5
100
AcDbModelerGeometry
 70
     1
  1
koo ii n o          
  1
h J1410(1 nl ^ \VL kqoqm QK mk K7* U*3 ol nlekjenj moog 
  1
rn fqfffffffffffffffj:rooh n:rono 
  1
=0;& {rn {n {rn {rn |
  1
3*2/ {rn {rn {m {o |
  1
,7:33 {rn {rn {rn {l {rn {n |
  1
9><: {rn {rn {k {m {rn {j -:):-,:; ;0*=3: 0*+ |
  1
300/ {rn {rn {i {l |
  1
/3>1:r,*-9><: {rn rhqgigfomnhfgklinjg rkkqnhmnimmngkomjkg o o o rn rm o o 90-(>-;@) V V V V |
  1
<0:;8: {rn {h {g {rn {f 90-(>-; {k {rn |
  1
<0:;8: {rn {no {i {rn {nn 90-(>-; {k {rn |
  1
<0:;8: {rn {i {nm {rn {nl 90-(>-; {k {rn |
  1
:;8: {rn {nk {nj {i {ni 90-(>-; |
  1
<0:;8: {rn {nh {h {rn {ng 90-(>-; {k {rn |
  1
:;8: {rn {nj {nf {h {mo 90-(>-; |
  1
<0:;8: {rn {g {mn {rn {mm 90-(>-; {k {rn |
  1
:;8: {rn {ml {nk {g {mk 90-(>-; |
  1
):-+:' {rn {f {mj |
  1
):-+:' {rn {f {mi |
  1
,+->687+r<*-): {rn rkqhlnifohooiookiif rkkqfhnjkkhkomikfgf o o m o V V |
  1
<0:;8: {rn {mh {no {rn {mg 90-(>-; {k {rn |
  1
:;8: {rn {nf {mf {no {lo 90-(>-; |
  1
):-+:' {rn {nn {ln |
  1
,+->687+r<*-): {rn rkqhlnifohooiookiif rklqlhmhhfifijkooj o rm o o V V |
  1
<0:;8: {rn {nm {lm {rn {ll 90-(>-; {k {rn |
  1
:;8: {rn {lk {ml {nm {lj 90-(>-; |
  1
):-+:' {rn {mm {li |
  1
,+->687+r<*-): {rn riqfljgiilojmoionfk rkkqfhnjkkhkomikfgf o m o o V V |
  1
/061+ {rn rkqhlnifohooiookiif rkkqfhnjkkhkomikfgf o |
  1
/061+ {rn rkqhlnifohooiookiif rklqlhmhhfifijkooj o |
  1
<0:;8: {rn {lh {nh {rn {lg 90-(>-; {k {rn |
  1
:;8: {rn {mf {lf {nh {ko 90-(>-; |
  1
):-+:' {rn {ng {kn |
  1
,+->687+r<*-): {rn riqfljgiilojmoionfk rklqlhmhhfifijkooj o o m o V V |
  1
/061+ {rn riqfljgiilojmoionfk rklqlhmhhfifijkooj o |
  1
<0:;8: {rn {mn {km {rn {kl 90-(>-; {k {rn |
  1
:;8: {rn {kk {lk {mn {kj 90-(>-; |
  1
):-+:' {rn {ll {ki |
  1
,+->687+r<*-): {rn riqfljgiilojmoionfk rkhqnljhmhfgffklofm o o m o V V |
  1
/061+ {rn riqfljgiilojmoionfk rkkqfhnjkkhkomikfgf o |
  1
<0:;8: {rn {kh {mh {rn {kg 90-(>-; {k {rn |
  1
:;8: {rn {lf {kf {mh {jo 90-(>-; |
  1
):-+:' {rn {mg {jn |
  1
,+->687+r<*-): {rn riqfljgiilojmoionfk rknqmogjfikkigimoi o rm o o V V |
  1
/061+ {rn riqfljgiilojmoionfk rknqmogjfikkigimoi o |
  1
<0:;8: {rn {lm {kh {rn {jm 90-(>-; {k {rn |
  1
:;8: {rn {jl {kk {lm {jk 90-(>-; |
  1
):-+:' {rn {kl {jj |
  1
,+->687+r<*-): {rn rgqgogkkonofhgfkhmh rkhqnljhmhfgffklofm o m o o V V |
  1
/061+ {rn riqfljgiilojmoionfk rkhqnljhmhfgffklofm o |
  1
<0:;8: {rn {km {lh {rn {ji 90-(>-; {k {rn |
  1
:;8: {rn {kf {jh {lh {jg 90-(>-; |
  1
):-+:' {rn {lg {jf |
  1
,+->687+r<*-): {rn rgqgogkkonofhgfkhmh rknqmogjfikkigimoi o o rm o V V |
  1
/061+ {rn rgqgogkkonofhgfkhmh rknqmogjfikkigimoi o |
  1
:;8: {rn {io {jl {km {in 90-(>-; |
  1
):-+:' {rn {jm {im |
  1
,+->687+r<*-): {rn rgqgogkkonofhgfkhmh rkkqfjmokhhfkhnmnnj o o rm o V V |
  1
/061+ {rn rgqgogkkonofhgfkhmh rkhqnljhmhfgffklofm o |
  1
:;8: {rn {jh {io {kh {il 90-(>-; |
  1
):-+:' {rn {kg {ik |
  1
,+->687+r<*-): {rn rgqgogkkonofhgfkhmh rklqlfmmhiikmoflolh o rm o o V V |
  1
/061+ {rn rgqgogkkonofhgfkhmh rklqlfmmhiikmoflolh o |
  1
):-+:' {rn {ji {ij |
  1
,+->687+r<*-): {rn rnoqfflnofjkgkhonl rkkqfjmokhhfkhnmnnj o m o o V V |
  1
/061+ {rn rgqgogkkonofhgfkhmh rkkqfjmokhhfkhnmnnj o |
  1
,+->687+r<*-): {rn rnoqfflnofjkgkhonl rklqlfmmhiikmoflolh o o rm o V V |
  1
/061+ {rn rnoqfflnofjkgkhonl rklqlfmmhiikmoflolh o |
  1
/061+ {rn rnoqfflnofjkgkhonl rkkqfjmokhhfkhnmnnj o |
  0
REGION
  5
777
330
1F
100
AcDbEntity
  8
5
100
AcDbModelerGeometry
 70
     1
  1
koo nn n o          
  1
h J1410(1 nl ^ \VL kqoqm QK mk K7* U*3 ol nlekjenj moog 
  1
rn fqfffffffffffffffj:rooh n:rono 
  1
=0;& {rn {n {rn {rn |
  1
3*2/ {rn {rn {m {o |
  1
,7:33 {rn {rn {rn {l {rn {n |
  1
9><: {rn {rn {k {m {rn {j 90-(>-; ;0*=3: 0*+ |
  1
300/ {rn {rn {i {l |
  1
/3>1:r,*-9><: {rn njqgkkfnhgnjijfhh rkkqnfhikfnjnmolkhg o o o n m o o 90-(>-;@) V V V V |
  1
<0:;8: {rn {i {i {rn {h 90-(>-; {k {rn |
  1
:;8: {rn {g {g {i {f 90-(>-; |
  1
):-+:' {rn {h {no |
  1
61+<*-):r<*-): {rn 90-(>-; $ :'><+<*- 1*=, l <30,:; mg 
  1
 o l oqjmgoifhjffkokifih n oqflmofglijffhhnlml n nqloihiinnoohnkhhg n nqhiljkmjkiinmjogl n 
  1
 mqnnnognoonkmogkkg n mqjillgijfimjkjnik n lqoflnkgomngmkggl n lqjiofnfmlfomimlli n lqfhkfokkklhhjkhig n 
  1
 kqmmmiimiinffogokn n kqimoijkgflgjimkgi n jqnhnhjmjiknoghohf n jqgjhnohgjlmjimmmm n iqmifnifjjikfnhhif n 
  1
 iqinofhklnkknfofok n hqojhfikfhomnjoklj n hqkjfhiggmgmmilljf n hqflgljnffjgoflgkm n gqlkmoookkglnihffl n 
  1
 gqjgkiohmfjkmmgjfi n fqnjglfmnhjohhikfk n fqijimfofkfkhflmmn n noqnoogkffjggjfkfl n noqjokghfmojlgjmoi n 
  1
 noqgklkglgogmlgfkh n nnqoiggghmhoijglhi n nnqhjkmognioiokmgh l 
  1
 njqnlimmiimkmmmnhj rkoqjnhfkhohifgmnjl o 
  1
 nkqhfnkolknhliomjh rkoqjfikofffikogomg o 
  1
 nkqngmhjklgilgigf rkoqhlkfojmjifjngf o 
  1
 nlqkmonhmgffkgmgik rknqnfjkfmkolomgghf o 
  1
 nmqfoojhimofmjhonn rknqgkihhmjfjnnnnf o 
  1
 nmqjmnnmokhhnffhhl rkmqjlihghjniollimh o 
  1
 nmqmmfnnlijnhjjokl rklqlmfngfoninkignl o 
  1
 nmqniomfflkggkglnm rkkqmngglinnlhjlnji o 
  1
 nmqnfffgooihmlggmi rkjqnfjflnmhkiomolm o 
  1
 nmqjilinfojmihlknh rkiqohghhllnmohhkjf o 
  1
 nmqffgimlimfhmkofk rkiqhoknjkokffnoknk o 
  1
 nlqjlhlnjkjmonlmgf rkhqnikiillihhmnmok o 
  1
 nkqmoillggkonlmki rkhqinnillojkkikgng o 
  1
 njqmhhnkfoioomfhff rkhqfonmimhmlmgigfn o 
  1
 niqlgjonmffmjihfhf rkhqfnmhfoollgimkmm o 
  1
 nhqlliknohhgoknkig rkhqhojohlgjmlkifkm o 
  1
 ngqomhnnmiojiknllj rkhqmfmflkjllggiiof o 
  1
 ngqigkmnmmkflnmmlf rkiqgmhomoonlikkjjh o 
  1
 nfqnjjmnnglfjofnoh rkiqojfkhmnjgfhjmk o 
  1
 nfqkjmjjifjjhofkjk rkjqmjmogglfgllkmg o 
  1
 nfqjjilkhfoihgmnij rkkqjolgfngkmikmjln o 
  1
 nfqjjikklfklhhmioh rklqifolmgnijggnflh o 
  1
 nfqkomklkfklgnkik rkmqgnllkgfmkmfhnkj o 
  1
 ngqfmffofgiifnlofl rknqfojllfmmnjlkiok o 
  1
 ngqlmknklmginfjhoh rknqmmfihgmofoogkmi o 
  1
 nhqikkojlikljfijli rkoqgomhgmmgkmnmgih o 
  1
 nhqomjnojfilfimhom rkoqiofnjjlhiihoml o 
  1
 niqmoimjiimkfflmgh rkoqkklhgjkkkmljmi o 
  1
 njqjfjiglkifhhglij rkoqkginolokkhknljj o 
  1
 njqnlimmiimkmmmnhj rkoqjnhfkhohifgmnjl o 
  1
 o 
  1
 1*33@,*-9><: 
  1
 1*33@,*-9><: 
  1
 1*33=, 
  1
 1*33=, 
  1
 V V 
  1
 o 
  1
 o 
  3
 mi oqjmgoifhjffkokifih oqflmofglijffhhnlml nqloihiinnoohnkhhg nqhiljkmjkiinmjogl mqnnnognoonkmogkkg mqjillgijfimjkjnik lqoflnkgomngmkggl lqjiofnfmlfomimlli lqfhkfokkklhhjkhig kqmmmiimiinffogokn kqimoijkgflgjimkgi jqnhnhjmjiknoghohf jqgjhnohgjlmjimmmm iqm
  1
ifnifjjikfnhhif iqinofhklnkknfofok hqojhfikfhomnjoklj hqkjfhiggmgmmilljf hqflgljnffjgoflgkm gqlkmoookkglnihffl gqjgkiohmfjkmmgjfi fqnjglfmnhjohhikfk fqijimfofkfkhflmmn noqnoogkffjggjfkfl noqjokghfmojlgjmoi noqgklkglgogmlgfkh nnqoiggghmhoijglhi 
  1
 Y n Y o " V V |
  1
/061+ {rn njqnlimmiimkmmmnhj rkoqjnhfkhohifgmnjl o |
  0
REGION
  5
778
330
1F
100
AcDbEntity
  8
5
100
AcDbModelerGeometry
 70
     1
  1
koo nn n o          
  1
h J1410(1 nl ^ \VL kqoqm QK mk K7* U*3 ol nlekjenj moog 
  1
rn fqfffffffffffffffj:rooh n:rono 
  1
=0;& {rn {n {rn {rn |
  1
3*2/ {rn {rn {m {o |
  1
,7:33 {rn {rn {rn {l {rn {n |
  1
9><: {rn {rn {k {m {rn {j 90-(>-; ;0*=3: 0*+ |
  1
300/ {rn {rn {i {l |
  1
/3>1:r,*-9><: {rn hqjnfjhmfmmhlimoml rkkqnfhikfnjnmolkhg o o o n m o o 90-(>-;@) V V V V |
  1
<0:;8: {rn {i {i {rn {h 90-(>-; {k {rn |
  1
:;8: {rn {g {g {i {f 90-(>-; |
  1
):-+:' {rn {h {no |
  1
61+<*-):r<*-): {rn 90-(>-; $ :'><+<*- 1*=, l <30,:; mg 
  1
 o l oqjmgoifhjffkokifih n oqflmofglijffhhnlml n nqloihiinnoohnkhhg n nqhiljkmjkiinmjogl n 
  1
 mqnnnognoonkmogkkg n mqjillgijfimjkjnik n lqoflnkgomngmkggl n lqjiofnfmlfomimlli n lqfhkfokkklhhjkhig n 
  1
 kqmmmiimiinffogokn n kqimoijkgflgjimkgi n jqnhnhjmjiknoghohf n jqgjhnohgjlmjimmmm n iqmifnifjjikfnhhif n 
  1
 iqinofhklnkknfofok n hqojhfikfhomnjoklj n hqkjfhiggmgmmilljf n hqflgljnffjgoflgkm n gqlkmoookkglnihffl n 
  1
 gqjgkiohmfjkmmgjfi n fqnjglfmnhjohhikfk n fqijimfofkfkhflmmn n noqnoogkffjggjfkfl n noqjokghfmojlgjmoi n 
  1
 noqgklkglgogmlgfkh n nnqoiggghmhoijglhi n nnqhjkmognioiokmgh l 
  1
 iqgnoggnhlnmfgiohi rkoqjnhfkhohifgmnjl o 
  1
 iqkiiojgjmkkliigff rkoqjfikofffikogomg o 
  1
 jqgjhkofkflkillmml rkoqhlkfojmjifjngf o 
  1
 jqofkgmgooijjfmfig rknqnfjkfmkolomgghf o 
  1
 kqjhjmlnlnilllkklj rknqgkihhmjfjnnnnf o 
  1
 kqnfjhhjjgkmhimojk rkmqjlihghjniollimh o 
  1
 lqfolhighjgglnkhjl rklqlmfngfoninkignl o 
  1
 lqglkfjkkjjfmkhkkg rkkqmngglinnlhjlnji o 
  1
 lqghkiljnhklnjmjgh rkjqnfjflnmhkiomolm o 
  1
 kqmlgmhknjfhkfgkfk rkiqohghhllnmohhkjf o 
  1
 kqihlmhghligoojmim rkiqhoknjkokffnoknk o 
  1
 jqmnnfhojjfogfhmnm rkhqnikiillihhmnmok o 
  1
 jqggofflfkhmoggfmg rkhqinnillojkkikgng o 
  1
 iqfjngoknihnoimlmn rkhqfonmimhmlmgigfn o 
  1
 gqojfiigoffikkknmn rkhqfnmhfoollgimkmm o 
  1
 fqonnoijggjnnhfonn rkhqhojohlgjmlkifkm o 
  1
 fqhonhihhnmhnhhihh rkhqmfmflkjllggiiof o 
  1
 noqljggihljilggihm rkiqgmhomoonlikkjjh o 
  1
 noqgmfgiifkijgjjk rkiqojfkhmnjgfhjmk o 
  1
 nnqnmhmnmoimhgjggh rkjqmjmogglfgllkmg o 
  1
 nnqmlnoolonlgjgjfh rkkqjolgfngkmikmjln o 
  1
 nnqmlnoffojogkfolf rklqifolmgnijggnflh o 
  1
 nnqohhofoojogfnohl rkmqgnllkgfmkmfhnkj o 
  1
 noqiokjikfhlfgfjmj rknqfojllfmmnjlkiok o 
  1
 fqffghfglflmhmnlfm rknqmmfihgmofoogkmi o 
  1
 fqlnghoghjoihmfigm rkoqgomhgmmgkmnmgih o 
  1
 gqiffhinohnolfnlkm rkoqiofnjjlhiihoml o 
  1
 hqggofnnhlmoifhnfh rkoqkklhgjkkkmljmi o 
  1
 hqmhollgjhigjkhfhj rkoqkginolokkhknljj o 
  1
 iqgnoggnhlnmfgiohi rkoqjnhfkhohifgmnjl o 
  1
 o 
  1
 1*33@,*-9><: 
  1
 1*33@,*-9><: 
  1
 1*33=, 
  1
 1*33=, 
  1
 V V 
  1
 o 
  1
 o 
  3
 mi oqjmgoifhjffkokifih oqflmofglijffhhnlml nqloihiinnoohnkhhg nqhiljkmjkiinmjogl mqnnnognoonkmogkkg mqjillgijfimjkjnik lqoflnkgomngmkggl lqjiofnfmlfomimlli lqfhkfokkklhhjkhig kqmmmiimiinffogokn kqimoijkgflgjimkgi jqnhnhjmjiknoghohf jqgjhnohgjlmjimmmm iqm
  1
ifnifjjikfnhhif iqinofhklnkknfofok hqojhfikfhomnjoklj hqkjfhiggmgmmilljf hqflgljnffjgoflgkm gqlkmoookkglnihffl gqjgkiohmfjkmmgjfi fqnjglfmnhjohhikfk fqijimfofkfkhflmmn noqnoogkffjggjfkfl noqjokghfmojlgjmoi noqgklkglgogmlgfkh nnqoiggghmhoijglhi 
  1
 Y n Y o " V V |
  1
/061+ {rn iqgnoggnhlnmfgiohi rkoqjnhfkhohifgmnjl o |
  0
REGION
  5
779
330
1F
100
AcDbEntity
  8
5
100
AcDbModelerGeometry
 70
     1
  1
koo nn n o          
  1
h J1410(1 nl ^ \VL kqoqm QK mk K7* U*3 ol nlekjenj moog 
  1
rn fqfffffffffffffffj:rooh n:rono 
  1
=0;& {rn {n {rn {rn |
  1
3*2/ {rn {rn {m {o |
  1
,7:33 {rn {rn {rn {l {rn {n |
  1
9><: {rn {rn {k {m {rn {j 90-(>-; ;0*=3: 0*+ |
  1
300/ {rn {rn {i {l |
  1
/3>1:r,*-9><: {rn hqjmkhjiflokmojogi rkkqnioigiofionjfjn o o o n m o o 90-(>-;@) V V V V |
  1
<0:;8: {rn {i {i {rn {h 90-(>-; {k {rn |
  1
:;8: {rn {g {g {i {f 90-(>-; |
  1
):-+:' {rn {h {no |
  1
61+<*-):r<*-): {rn 90-(>-; $ :'><+<*- 1*=, l <30,:; ml 
  1
 o l oqkoojgnkjmnohkngg n oqhmihiglnghjgffgin n nqojhklkhohmkfhol n nqklknomhhhhofhofh n 
  1
 nqgoifmlifgglhonh n mqljmfhomjhfinmnjn n mqhnlhonofgokhfhml n mqfgjifgglmmmggjih n lqljjojkfjnhjoihji n 
  1
 lqiffhngmihljfiggf n lqfhllnfokkkifnlfj n kqnfhlimgmimnjgnhi n kqljfofhlmhgfkhkg n kqjfkhggnfmglimhhf n 
  1
 kqfllohoihkgffhinh n jqlmjlmjimoogggkon n jqiklmikikjnoglgmn n iqonjoofjlkgojjgji n iqlkmfomgffhhgnjij n 
  1
 iqikfhmnlikhffhogm n iqfngojijnjjghhmfg n hqofnjnggkhoiliojh l 
  1
 hqjojgihinflkjmlgj rknqgolmfnjhmjkgof o 
  1
 hqmlfoljlhmkjmflnf rknqgmjjhnkhjjofjhh o 
  1
 iqhjkfmiomfhgjnmkg rknqgijffljljgmmhjl o 
  1
 iqofkhnffhgjlmifkk rkmqmojijiohlilhjmh o 
  1
 jqhhmmjjoihhmighkm rkmqgkkimnlkhiiknni o 
  1
 jqjhlhojfifkgnmjl rklqjmfoofmhjfkgflh o 
  1
 jqlfkilnfmigohmljg rkkqlfnhhljgijfjgok o 
  1
 jqikonmlmgmjglihmf rkjqmmgkmimmiojhjfl o 
  1
 jqfjknngihgijjfhlk rkjqfhnmgkmgmjlmlii o 
  1
 iqjmoofonolmjfkhhn rkiqliikhnjljnojhnh o 
  1
 hqnjiknfogfgoijing rkiqjjgnnominkjlnjm o 
  1
 hqgmlljgilniffmohk rkiqjhgghnmlmnfiill o 
  1
 gqlhkmofhglomkhihl rkiqklgkkjilonngkml o 
  1
 gqhimkfkfgomhoigg rkiqmmkhfjilflmmij o 
  1
 fqohhhmjmlnjlljfnj rkjqfkggmjogmnjiji o 
  1
 fqlnlfhonijmnifgim rkjqjohfkgjifjjlnhf o 
  1
 fqkghhfmhkkjlmjifi rkkqgggjgilknoljojn o 
  1
 fqimjjkjmkglmglmmn rkkqnfjknkkmlhknfof o 
  1
 fqjmkmmngmgflifhln rklqkifjojmifihhlkm o 
  1
 fqmhmiglogomlofkhf rkmqgkomknlggoogkhf o 
  1
 gqfknnokghijiiimii rkmqmlgjfmknjolmfk o 
  1
 gqkoggkoloomilkljn rknqfnmioomfkggkhgl o 
  1
 hqfnigkhmnlolffon rknqhfhnjmkjmggjjnl o 
  1
 hqimnhlijmokkgfnfg rknqgonjiohkfmiikmf o 
  1
 hqjojgihinflkjmlgj rknqgolmfnjhmjkgof o 
  1
 o 
  1
 1*33@,*-9><: 
  1
 1*33@,*-9><: 
  1
 1*33=, 
  1
 1*33=, 
  1
 V V 
  1
 o 
  1
 o 
  3
 mn oqkoojgnkjmnohkngg oqhmihiglnghjgffgin nqojhklkhohmkfhol nqklknomhhhhofhofh nqgoifmlifgglhonh mqljmfhomjhfinmnjn mqhnlhonofgokhfhml mqfgjifgglmmmggjih lqljjojkfjnhjoihji lqiffhngmihljfiggf lqfhllnfokkkifnlfj kqnfhlimgmimnjgnhi kqljfofhlmhgfkhkg kqjfkh
  1
ggnfmglimhhf kqfllohoihkgffhinh jqlmjlmjimoogggkon jqiklmikikjnoglgmn iqonjoofjlkgojjgji iqlkmfomgffhhgnjij iqikfhmnlikhffhogm iqfngojijnjjghhmfg 
  1
 Y n Y o " V V |
  1
/061+ {rn hqjojgihinflkjmlgj rknqgolmfnjhmjkgof o |
  0
REGION
  5
77A
330
1F
100
AcDbEntity
  8
5
100
AcDbModelerGeometry
 70
     1
  1
koo nn n o          
  1
h J1410(1 nl ^ \VL kqoqm QK mk K7* U*3 ol nlekjenj moog 
  1
rn fqfffffffffffffffj:rooh n:rono 
  1
=0;& {rn {n {rn {rn |
  1
3*2/ {rn {rn {m {o |
  1
,7:33 {rn {rn {rn {l {rn {n |
  1
9><: {rn {rn {k {m {rn {j 90-(>-; ;0*=3: 0*+ |
  1
300/ {rn {rn {i {l |
  1
/3>1:r,*-9><: {rn njqgjonongmllkkohi rkkqnioigiofionjfjn o o o n m o o 90-(>-;@) V V V V |
  1
<0:;8: {rn {i {i {rn {h 90-(>-; {k {rn |
  1
:;8: {rn {g {g {i {f 90-(>-; |
  1
):-+:' {rn {h {no |
  1
61+<*-):r<*-): {rn 90-(>-; $ :'><+<*- 1*=, l <30,:; ml 
  1
 o l oqkoojgnkjmnohkngg n oqhmihiglnghjgffgin n nqojhklkhohmkfhol n nqklknomhhhhofhofh n 
  1
 nqgoifmlifgglhonh n mqljmfhomjhfinmnjn n mqhnlhonofgokhfhml n mqfgjifgglmmmggjih n lqljjojkfjnhjoihji n 
  1
 lqiffhngmihljfiggf n lqfhllnfokkkifnlfj n kqnfhlimgmimnjgnhi n kqljfofhlmhgfkhkg n kqjfkhggnfmglimhhf n 
  1
 kqfllohoihkgffhinh n jqlmjlmjimoogggkon n jqiklmikikjnoglgmn n iqonjoofjlkgojjgji n iqlkmfomgffhhgnjij n 
  1
 iqikfhmnlikhffhogm n iqfngojijnjjghhmfg n hqofnjnggkhoiliojh l 
  1
 njqglnmnmjnmmiggoi rknqgolmfnjhmjkgof o 
  1
 njqjiklgomijlhikff rknqgmjjhnkhjjofjhh o 
  1
 njqogomhofmmhogifm rknqgijffljljgmmhjl o 
  1
 nkqkmooikghnkjimim rkmqmojijiohlilhjmh o 
  1
 nkqofhjfffioijokkm rkmqgkkimnlkhiiknni o 
  1
 nlqgffojogimkokgm rklqjmfoofmhjfkgflh o 
  1
 nlqhnffhignfhlogol rkkqlfnhhljgijfjgok o 
  1
 nlqfijkignhjjohmk rkjqmmgkmimmiojhjfl o 
  1
 nkqmhfkiljhnjhfjkn rkjqfhnmgkmgmjlmlii o 
  1
 nkqgkjklkffinglokj rkiqliikhnjljnojhnh o 
  1
 njqkgnhilfgmhlonmf rkiqjjgnnominkjlnjm o 
  1
 niqnkgholjmkimmhhj rkiqjhgghnmlmnfiill o 
  1
 niqiffjjkihjfkgllj rkiqklgkkjilonngkml o 
  1
 nhqoghglfghlnfkmjj rkiqmmkhfjilflmmij o 
  1
 nhqkolohonmkkjhnjf rkjqfkggmjogmnjiji o 
  1
 nhqilflnjojgnkojjk rkjqjohfkgjifjjlnhf o 
  1
 nhqgnlnlhilhkjinlh rkkqgggjgilknoljojn o 
  1
 nhqfjogfonknmjngf rkkqnfjknkkmlhknfof o 
  1
 nhqgkfjiihmngiojk rklqkifjojmifihhlkm o 
  1
 nhqjfgomhfhlnjkjnj rkmqgkomknlggoogkhf o 
  1
 nhqmiikkfhifkfonfk rkmqmlgjfmknjolmfk o 
  1
 niqhlkngjnflnghoom rknqfnmioomfkggkhgl o 
  1
 niqmkmnfmnojfilkig rknqhfhnjmkjmggjjnl o 
  1
 njqfkhognknllhmkgh rknqgonjiohkfmiikmf o 
  1
 njqglnmnmjnmmiggoi rknqgolmfnjhmjkgof o 
  1
 o 
  1
 1*33@,*-9><: 
  1
 1*33@,*-9><: 
  1
 1*33=, 
  1
 1*33=, 
  1
 V V 
  1
 o 
  1
 o 
  3
 mn oqkoojgnkjmnohkngg oqhmihiglnghjgffgin nqojhklkhohmkfhol nqklknomhhhhofhofh nqgoifmlifgglhonh mqljmfhomjhfinmnjn mqhnlhonofgokhfhml mqfgjifgglmmmggjih lqljjojkfjnhjoihji lqiffhngmihljfiggf lqfhllnfokkkifnlfj kqnfhlimgmimnjgnhi kqljfofhlmhgfkhkg kqjfkh
  1
ggnfmglimhhf kqfllohoihkgffhinh jqlmjlmjimoogggkon jqiklmikikjnoglgmn iqonjoofjlkgojjgji iqlkmfomgffhhgnjij iqikfhmnlikhffhogm iqfngojijnjjghhmfg 
  1
 Y n Y o " V V |
  1
/061+ {rn njqglnmnmjnmmiggoi rknqgolmfnjhmjkgof o |
  0
REGION
  5
77B
330
1F
100
AcDbEntity
  8
5
100
AcDbModelerGeometry
 70
     1
  1
koo li n o          
  1
h J1410(1 nl ^ \VL kqoqm QK mk K7* U*3 ol nlekjenj moog 
  1
rn fqfffffffffffffffj:rooh n:rono 
  1
=0;& {rn {n {rn {rn |
  1
3*2/ {rn {rn {m {o |
  1
,7:33 {rn {rn {rn {l {rn {n |
  1
9><: {rn {rn {k {m {rn {j -:):-,:; ;0*=3: 0*+ |
  1
300/ {rn {rn {i {l |
  1
/3>1:r,*-9><: {rn mlqnimhgjjghhkifih rkkqfkimijhjmkfkjjk o o o rn rm o o 90-(>-;@) V V V V |
  1
<0:;8: {rn {h {g {rn {f 90-(>-; {k {rn |
  1
<0:;8: {rn {no {i {rn {nn 90-(>-; {k {rn |
  1
<0:;8: {rn {i {nm {rn {nl 90-(>-; {k {rn |
  1
:;8: {rn {nk {nj {i {ni 90-(>-; |
  1
<0:;8: {rn {nh {h {rn {ng 90-(>-; {k {rn |
  1
:;8: {rn {nj {nf {h {mo 90-(>-; |
  1
<0:;8: {rn {g {nh {rn {mn 90-(>-; {k {rn |
  1
:;8: {rn {mm {nk {g {ml 90-(>-; |
  1
):-+:' {rn {f {mk |
  1
):-+:' {rn {f {mj |
  1
,+->687+r<*-): {rn mmqkiilhokojkihnnh rkiqkgkhojkkhoiooof o o m o V V |
  1
<0:;8: {rn {nm {no {rn {mi 90-(>-; {k {rn |
  1
:;8: {rn {nf {mh {no {mg 90-(>-; |
  1
):-+:' {rn {nn {mf |
  1
,+->687+r<*-): {rn mmqkiilhokojkihnnh rkoqjhohhfmfmloign o rm o o V V |
  1
:;8: {rn {lo {mm {nm {ln 90-(>-; |
  1
):-+:' {rn {mn {lm |
  1
,+->687+r<*-): {rn miqnjlmhjfnogkglli rkiqkgkhojkkhoiooof o rm o o V V |
  1
/061+ {rn mmqkiilhokojkihnnh rkiqkgkhojkkhoiooof o |
  1
/061+ {rn mmqkiilhokojkihnnh rkoqjhohhfmfmloign o |
  1
:;8: {rn {mh {lo {nh {ll 90-(>-; |
  1
):-+:' {rn {ng {lk |
  1
,+->687+r<*-): {rn moqgighnokkifmjlfn rkoqjhohhfmfmloign o o rm o V V |
  1
/061+ {rn moqgighnokkifmjlfn rkoqjhohhfmfmloign o |
  1
):-+:' {rn {mi {lj |
  1
,+->687+r<*-): {rn miqnjlmhjfnogkglli rkhqhgllnmjngnnigkk o o m o V V |
  1
/061+ {rn miqnjlmhjfnogkglli rkiqkgkhojkkhoiooof o |
  1
,+->687+r<*-): {rn moqgighnokkifmjlfn rkhqhgllnmjngnnigkk o m o o V V |
  1
/061+ {rn moqgighnokkifmjlfn rkhqhgllnmjngnnigkk o |
  1
/061+ {rn miqnjlmhjfnogkglli rkhqhgllnmjngnnigkk o |
  0
REGION
  5
77C
330
1F
100
AcDbEntity
  8
5
100
AcDbModelerGeometry
 70
     1
  1
koo mi n o          
  1
h J1410(1 nl ^ \VL kqoqm QK mk K7* U*3 ol nlekjenj moog 
  1
rn fqfffffffffffffffj:rooh n:rono 
  1
=0;& {rn {n {rn {rn |
  1
3*2/ {rn {rn {m {o |
  1
,7:33 {rn {rn {rn {l {rn {n |
  1
9><: {rn {rn {k {m {rn {j 90-(>-; ;0*=3: 0*+ |
  1
300/ {rn {rn {i {l |
  1
/3>1:r,*-9><: {rn mfqhgnogikhlgmlkoh rkkqnjfhkhmkmjghggl o o o n m o o 90-(>-;@) V V V V |
  1
<0:;8: {rn {h {g {rn {f 90-(>-; {k {rn |
  1
<0:;8: {rn {no {i {rn {nn -:):-,:; {k {rn |
  1
<0:;8: {rn {i {no {rn {nm 90-(>-; {k {rn |
  1
:;8: {rn {nl {nk {i {nj 90-(>-; |
  1
<0:;8: {rn {g {h {rn {ni 90-(>-; {k {rn |
  1
:;8: {rn {nh {nk {h {ng 90-(>-; |
  1
:;8: {rn {nf {nl {g {mo 90-(>-; |
  1
):-+:' {rn {f {mn |
  1
):-+:' {rn {f {mm |
  1
,+->687+r<*-): {rn mgqnffnfgjghgfkkon rkjqmggjlknjjnnigmn o rnqfffffgmnkfmjoklf roqoomihmnlllkfklhngfk o V V |
  1
:;8: {rn {nh {nf {no {ml 90-(>-; |
  1
):-+:' {rn {nn {mk |
  1
61+<*-):r<*-): {rn 90-(>-; $ :'><+<*- 1*=, l 0/:1 mk 
  1
 o l oqligokiljfljmjmjj n oqikiffjgmifofigklg n nqoigjglohkoojklhk n nqiohihjljnioiinng n 
  1
 nqfhmmojknmiffgfof n mqnfkhjgmkmhhogjlf n mqioinmmijimmmlmmg n lqnlhnlfiiikkokmkj n lqifnmlfgjmonggmhk n 
  1
 kqokoilfionkiiffnk n kqlffkggihjloikjmk n kqgnjjkihfkomhonmj n jqljoknhiinlnnjjjf n jqgnogkngnofmjifjk n 
  1
 iqmmhnfffmkgnlkoni n iqinkmilhmmmoihgkk n hqkgfigmoofjhoomml n hqgihgfiogmnmng n gqmjlnglnofmnkimnl n 
  1
 gqjjhhkmomokmlmfin n gqhimgololoifolglj n fqnknnhijkkiknoojg n fqmjiilgghlkomkimn l 
  1
 lnqnmmifllmkoonnoj rkmqgkgkjlgjfhffglm o 
  1
 lnqofigkignihlhnkn rkmqjfomlmiihmffolk o 
  1
 lnqojnknohkohhgomk rkmqnlilooimfllogim o 
  1
 loqlfkffgognilloim rknqhnmhlgmingnhjm o 
  1
 mfqioknnknhkmnjfml rknqihnfjnnlmkgkihf o 
  1
 mgqjmokjklfohhhoin rknqhojglogijliiglj o 
  1
 mgqkooghfnifliniom rkmqijigiikkofnfhkm o 
  1
 mgqfoihngkijiomogl rklqnjloljgihfmflll o 
  1
 mfqhoffiiohgjmgfhf rklqmlgfjglkojfoknj o 
  1
 loqiiifhklhmghnlfk rklqkhnggigjffhjijj o 
  1
 lnqinkfjnnigfiljhm rklqiiggfmgjmklfflf o 
  1
 lmqljlnlfmhgkoojkg rkkqofmonglofnhmmlm o 
  1
 lmqghoolinfofgllji rkkqiifjhkgmmnjinik o 
  1
 llqojijhmhfnlnmiin rkjqjkgifkllhhffihk o 
  1
 lmqfmoohlilmknmhml rkiqjmjgklikmihijfn o 
  1
 lmqmjmnhllnokkkkim rkhqmkhmkjfjmonggon o 
  1
 lnqjoioffikfgjhgjf rkhqikjlmofkikhgjoi o 
  1
 loqklmhgjkmjnojhoi rkgqoongfgohhigiklk o 
  1
 mfqlnmonoinhilfgff rkhqgggiimjglnjgfhj o 
  1
 mgqmlgmkljgkofjfk rkhqifljgonffkmgmmi o 
  1
 mhqjgkghgmhijhoff rkhqlighffgklmofjgh o 
  1
 mhqnifilgojjkmlhlm rkiqflogmlkjokioimm o 
  1
 miqhghfifhhoijkikn rkiqkgfonghmklgmiki o 
  1
 miqifmohmmhomfggml rkjqfmnhkllmgohjllh o 
  1
 miqilfmlogifmnlmj rkjqhmjolifhofknjkj o 
  1
 miqinkojnghilmgnlk rkjqmfoijmonghomfjh o 
  1
 o 
  1
 1*33@,*-9><: 
  1
 1*33@,*-9><: 
  1
 1*33=, 
  1
 1*33=, 
  1
 V V 
  1
 o 
  1
 o 
  3
 mm oqligokiljfljmjmjj oqikiffjgmifofigklg nqoigjglohkoojklhk nqiohihjljnioiinng nqfhmmojknmiffgfof mqnfkhjgmkmhhogjlf mqioinmmijimmmlmmg lqnlhnlfiiikkokmkj lqifnmlfgjmonggmhk kqokoilfionkiiffnk kqlffkggihjloikjmk kqgnjjkihfkomhonmj jqljoknhiinlnnjjjf jqg
  1
nogkngnofmjifjk iqmmhnfffmkgnlkoni iqinkmilhmmmoihgkk hqkgfigmoofjhoomml hqgihgfiogmnmng gqmjlnglnofmnkimnl gqjjhhkmomokmlmfin gqhimgololoifolglj fqnknnhijkkiknoojg 
  1
 Y n Y o " V V |
  1
):-+:' {rn {ni {mj |
  1
61+<*-):r<*-): {rn 90-(>-; $ :'><+<*- 1*=, l 0/:1 mg 
  1
 o l oqlfigjomnhmmhnoggk n oqhmihgjfojjnjijimj n nqongknlhimogofofh n nqmhjijkomimihfkmn n 
  1
 nqjjhhfooifjkllfmm n nqginnnojigjoifhom n mqjkkgnlhjikjngfjl n mqgnmoofmlhlingolh n lqokfffiohonmmmllj n 
  1
 lqlloonlmhgjlffngk n lqjhjiljhgilhmngkg n lqflkijnjffnhfgkfk n kqklfnimomimokiofi n kqihhohhmgmkfjfon n 
  1
 kqfjglhmkoiilonmjg n jqlmoknigoglljkill n jqijoooimimfnhomng n iqnnmooijfhfmfnkjk n iqillkinjnnhkjhlfi n 
  1
 iqfknhinkfmmgkfnmf n hqmokikooliljffifi n hqkfmhhkhgfkhifngl n hqhnffflnfkkoglkjn n gqmmhonmnijoikjmjg n 
  1
 gqhgfgkommjlomnifh n fqnlnohigkhjkjhkmm n fqlggifigilfmffjgm l 
  1
 lmqholgjhmkljoojli rkmqgjonkhngnlfkhol o 
  1
 lmqhnmmlmioijfmjli rkmqjhfhooimhiokiii o 
  1
 lmqhmhjhnnmghkihgf rkmqogkkoginlmklffk o 
  1
 lmqlhjfillljinfjkj rknqkgmookggjjlmmfn o 
  1
 lnqfghmjjhlhmikgki rknqomgkhogfmommmgk o 
  1
 lnqkhokohgohhnonhk rkoqgohijokfkjffiff o 
  1
 loqfilihllhjknjfmm rkoqjiokjmklmnjhooh o 
  1
 loqnnhjoilgmglmkhk rkoqkkmigjhogkgjfmj o 
  1
 mfqmhjnijofloohkjf rkoqkmifijlogmjfgih o 
  1
 mgqkfjhojhfgogkgkm rkoqjfmlfihiglnijkh o 
  1
 mgqonllkihkngiinjg rkoqgognjmlognmhjhj o 
  1
 mhqiogofflnjgnnkjg rknqnnhihiiojlhmnig o 
  1
 mhqnjkkgiijilnkiol rknqjolfgimmnklglih o 
  1
 miqgmhhghiohkflfgg rkmqngflhnfikkoijkh o 
  1
 miqhgjmmjhhfljmong rkmqfiikhmojiiknlhf o 
  1
 mhqogohllnlfjihhmh rklqjgfkfljhgfinjlh o 
  1
 mhqkjokoklgjhnlohn rkkqoimnnihlgnlmof o 
  1
 mgqokgginmnnngmjnm rkkqlkggfjiojklfojk o 
  1
 mgqhijhnnojfgmhnjk rkkqinfjmonkfljofoj o 
  1
 mfqilogfhhggknmlgl rkkqhfhlnolkkjilnjg o 
  1
 loqkihihhjjokinmok rkkqfmmhmiffohloonl o 
  1
 lnqnghimighlfgogkh rkjqmnoknmklnikimll o 
  1
 lnqknjljhommmlnfom rkjqhgfgmhfjkghfjkn o 
  1
 lnqmknnokjlnkfnlln rkiqljmlkngjjgnhjkm o 
  1
 loqjhilnfikklkofgk rkiqimgknjlgojihom o 
  1
 mfqhllfkfhjhlohnkk rkiqhogikmgogiohmlh o 
  1
 mgqhnmnkkimmhnkgol rkiqjiohklmnkfinfki o 
  1
 mgqmjihnhkjkhfonkf rkjqgjgihfhjokmlnli o 
  1
 mgqmnikffhnkfjknfi rkjqkioomgjnhmninom o 
  1
 mgqnffnfgjghgfkkon rkjqmggjlknjjnnigmn o 
  1
 o 
  1
 1*33@,*-9><: 
  1
 1*33@,*-9><: 
  1
 1*33=, 
  1
 1*33=, 
  1
 V V 
  1
 o 
  1
 o 
  3
 mi oqlfigjomnhmmhnoggk oqhmihgjfojjnjijimj nqongknlhimogofofh nqmhjijkomimihfkmn nqjjhhfooifjkllfmm nqginnnojigjoifhom mqjkkgnlhjikjngfjl mqgnmoofmlhlingolh lqokfffiohonmmmllj lqlloonlmhgjlffngk lqjhjiljhgilhmngkg lqflkijnjffnhfgkfk kqklfnimomimokiofi kq
  1
ihhohhmgmkfjfon kqfjglhmkoiilonmjg jqlmoknigoglljkill jqijoooimimfnhomng iqnnmooijfhfmfnkjk iqillkinjnnhkjhlfi iqfknhinkfmmgkfnmf hqmokikooliljffifi hqkfmhhkhgfkhifngl hqhnffflnfkkoglkjn gqmmhonmnijoikjmjg gqhgfgkommjlomnifh fqnlnohigkhjkjhkmm 
  1
 Y n Y o " V V |
  1
/061+ {rn mgqnffnfgjghgfkkon rkjqmggjlknjjnnigmn o |
  1
/061+ {rn miqinkojnghilmgnlk rkjqmfoijmonghomfjh o |
  1
,+->687+r<*-): {rn lnqnmmifllmkoonnoj rkmqgkgkjlgjfhffglm o nqfffffggjlnomnhjn roqoomnkngiioojnojinfi o V V |
  1
/061+ {rn lnqnmmifllmkoonnoj rkmqgkgkjlgjfhffglm o |
  1
/061+ {rn lmqholgjhmkljoojli rkmqgjonkhngnlfkhol o |
  0
DIMENSION
  5
1CFF
330
1F
100
AcDbEntity
  8
2
100
AcDbDimension
  2
*D26
 10
45.0
 20
36.0
 30
0.0
 11
22.5
 21
36.0
 31
0.0
 70
   160
 71
     2
 42
45.0
  3
GEN-ISO_TDM
100
AcDbAlignedDimension
 13
0.0
 23
31.50000000000001
 33
0.0
 14
45.0
 24
20.99851185200001
 34
0.0
100
AcDbRotatedDimension
  0
LWPOLYLINE
  5
1D05
330
1F
100
AcDbEntity
  8
3
100
AcDbPolyline
 90
       80
 70
   128
 43
0.0
 10
20.20274633630001
 20
4.991709693200006
 10
21.15942712609998
 20
5.0
 10
22.36999671479998
 20
4.992831941499999
 10
23.6070761231
 20
4.981025362700008
 10
24.88081613130001
 20
4.9749847514
 10
24.896451611
 20
4.975037072700003
 10
25.1593286369
 20
4.975916742999999
 10
26.16482140899998
 20
4.979281442500009
 10
27.39682004849999
 20
4.990549565400016
 10
28.6207803867
 20
4.999681441000005
 10
29.84551839689999
 20
4.990738115900014
 10
31.0438414488
 20
4.940121742100018
 10
31.69650876849999
 20
4.882463819700006
 10
32.33355619299998
 20
4.795619034099998
 10
32.95749071859998
 20
4.670628861100012
 10
33.5586785447
 20
4.499076748800021
 10
33.96887478159998
 20
4.343485100600005
 10
34.3623363835
 20
4.155576294400006
 10
34.74067625359998
 20
3.928515793100004
 10
35.09618045599998
 20
3.660080192500004
 10
35.57044199769999
 20
3.1813146474
 10
35.97706562179999
 20
2.589379604699999
 10
36.2840475605
 20
1.918779304899998
 10
36.40463005059999
 20
1.541114736900013
 10
36.49873595679999
 20
1.142111787700017
 10
36.59089690919997
 20
0.4587277887000171
 10
36.60250859429999
 20
-0.2632338224999984
 10
36.54039632849997
 20
-0.9031058788999928
 10
36.4061993892
 20
-1.53543273919999
 10
36.20729470379997
 20
-2.115920927399996
 10
35.93870846289998
 20
-2.65597898419999
 10
35.58902499499997
 20
-3.158762705300006
 10
35.17055313839998
 20
-3.595452970599992
 10
34.8287619653
 20
-3.867625024199995
 10
34.45853988869998
 20
-4.102657849300001
 10
34.05716762459998
 20
-4.304961910799988
 10
33.63271874769998
 20
-4.473605109699988
 10
32.9794284111
 20
-4.665349454999996
 10
32.2887451677
 20
-4.802928481499988
 10
31.55709162779999
 20
-4.897114420699992
 10
30.79861789470001
 20
-4.955428766299988
 10
29.67776760429998
 20
-4.993844046299983
 10
28.51799416509999
 20
-4.999333731099993
 10
27.31064652859998
 20
-4.9896877094
 10
26.07937422169998
 20
-4.978691925399985
 10
24.86435712099998
 20
-4.974998787599999
 10
23.64211677849998
 20
-4.980742406099992
 10
22.40384203079997
 20
-4.992507380999994
 10
21.1750507916
 20
-4.999998294999996
 10
20.21421435909998
 20
-4.991931084899988
 10
19.27059391130001
 20
-4.959216030299997
 10
18.3389614813
 20
-4.886323841699989
 10
17.43667588479999
 20
-4.754859814099987
 10
16.94509134179998
 20
-4.646667109099992
 10
16.46876466099999
 20
-4.50824970459999
 10
16.00594079369999
 20
-4.332695080399986
 10
15.5643262028
 20
-4.115511450300004
 10
14.9439780397
 20
-3.693637146399993
 10
14.65768997479997
 20
-3.432621907999986
 10
14.39323837079999
 20
-3.136910036100005
 10
14.03258026169999
 20
-2.606396198699981
 10
13.73929441929999
 20
-1.981547701999999
 10
13.53622813179998
 20
-1.306735679999988
 10
13.4175921039
 20
-0.5595890112999911
 10
13.3927486656
 20
0.1069005216000107
 10
13.44359901479998
 20
0.7907732325000012
 10
13.56065215870001
 20
1.409037076700002
 10
13.74847167269999
 20
2.005512684200013
 10
14.00477461899997
 20
2.556833091800015
 10
14.33029856519999
 20
3.056654245599999
 10
14.57782710539999
 20
3.349649294800002
 10
14.85048516089998
 20
3.614071400699998
 10
15.4728460277
 20
4.06301442
 10
15.9404836251
 20
4.303910200400011
 10
16.44045251630001
 20
4.498783967800007
 10
16.97572080789997
 20
4.654346141700003
 10
17.53559894249999
 20
4.773100607000016
 10
18.38499049129998
 20
4.891196696800007
 10
19.27250757379998
 20
4.959317588100005
 10
20.20274633630001
 20
4.991709693200006
  0
ARC
  5
1D15
330
1F
100
AcDbEntity
  8
1
100
AcDbCircle
 10
17.75432909619999
 20
58.04926550030002
 30
0.0
 40
33.1553432511873
100
AcDbArc
 50
264.6140701418999
 51
279.9717780799998
  0
LWPOLYLINE
  5
1D16
330
1F
100
AcDbEntity
  8
1
100
AcDbPolyline
 90
       28
 70
   128
 43
0.0
 10
40.29999755989999
 20
27.50000000000001
 10
40.2257286313
 20
27.45686294370001
 10
40.00141746849999
 20
27.32971609580001
 10
39.6270640714
 20
27.12210417360002
 10
39.1026684402
 20
26.8377437246
 10
38.21595422359999
 20
26.37110392239998
 10
37.118178559
 20
25.82614428360001
 10
35.80934144619999
 20
25.22699668420001
 10
34.30844562179999
 20
24.6066066293
 10
32.68488993770001
 20
24.02693643819998
 10
30.9386743938
 20
23.51633542660001
 10
29.4894306655
 20
23.18407669239998
 10
28.01882499039999
 20
22.93895871010001
 10
26.52685736859998
 20
22.78843586250001
 10
25.01352779989996
 20
22.73693295870001
 10
23.49960318489999
 20
22.7860812082
 10
22.00754133239998
 20
22.9346007675
 10
20.53734224249998
 20
23.17811568940001
 10
19.08900591509999
 20
23.5092057348
 10
16.50101700709998
 20
24.30523649219999
 10
14.2006738604
 20
25.2226117622
 10
12.88894237729999
 20
25.82288874880002
 10
11.79057516279999
 20
26.36754144500001
 10
10.90557221679998
 20
26.83331831510001
 10
10.37851516220001
 20
27.1195409749
 10
10.00190118499997
 20
27.32852914660002
 10
9.775730285099996
 20
27.45653874690002
 10
9.70000246249998
 20
27.4999999873
  0
LINE
  5
1D18
330
1F
100
AcDbEntity
  8
1
100
AcDbLine
 10
10.00000000039865
 20
-22.64999999999999
 30
0.0
 11
18.59999999999998
 21
-25.26520467839998
 31
0.0
  0
DIMENSION
  5
1D19
330
1F
100
AcDbEntity
  8
SK2
100
AcDbDimension
  2
*D28
 10
-46.22225482820002
 20
-31.99999999999998
 30
0.0
 11
-46.22225482820001
 21
0.0
 31
0.0
 70
   160
  1
ST6 %%c<>
 71
     2
 42
64.00000000000002
  3
GEN-ISO_TDM
100
AcDbAlignedDimension
 13
0.5
 23
32.00000000000001
 33
0.0
 14
0.5
 24
-32.0
 34
0.0
 50
90.0
100
AcDbRotatedDimension
  0
LINE
  5
1D27
330
1F
100
AcDbEntity
  8
1
100
AcDbLine
 10
5.198598838299999
 20
31.25881904509999
 30
0.0
 11
5.198598838299999
 21
-31.25881904509999
 31
0.0
  0
LINE
  5
1D2A
330
1F
100
AcDbEntity
  8
3
100
AcDbLine
 10
7.0
 20
5.0
 30
0.0
 11
3.995696904899999
 21
0.0
 31
0.0
  0
LINE
  5
1D2D
330
1F
100
AcDbEntity
  8
SK1
100
AcDbLine
 10
-40.0
 20
-15.89999999999998
 30
0.0
 11
-40.0
 21
15.9
 31
0.0
  0
ARC
  5
1D2E
330
1F
100
AcDbEntity
  8
SK3
100
AcDbCircle
 10
-39.75623964569999
 20
-0.1089863601999923
 30
0.0
 40
5.819438109236547
100
AcDbArc
 50
1.073097339199901
 51
29.99167056409946
  0
LINE
  5
1D30
330
1F
100
AcDbEntity
  8
3
100
AcDbLine
 10
12.64079290569998
 20
0.0
 30
0.0
 11
12.64079290569998
 21
2.800000000000011
 31
0.0
  0
LINE
  5
1D33
330
1F
100
AcDbEntity
  8
SK1
100
AcDbLine
 10
-35.2
 20
18.0
 30
0.0
 11
-35.2
 21
-18.0
 31
0.0
  0
LINE
  5
1D35
330
1F
100
AcDbEntity
  8
3
100
AcDbLine
 10
7.0
 20
-5.0
 30
0.0
 11
7.0
 21
5.0
 31
0.0
  0
CIRCLE
  5
1D48
330
1F
100
AcDbEntity
  8
SK1
100
AcDbCircle
 10
-15.5
 20
0.0
 30
0.0
 40
4.25
  0
CIRCLE
  5
1D4A
330
1F
100
AcDbEntity
  8
SK1
100
AcDbCircle
 10
-15.5
 20
0.0
 30
0.0
 40
5.545419629966943
  0
LWPOLYLINE
  5
1D4B
330
1F
100
AcDbEntity
  8
SK1
100
AcDbPolyline
 90
       32
 70
   128
 43
0.0
 10
-20.1554727781
 20
4.451139190000006
 10
-19.12696647309998
 20
5.103271360200011
 10
-18.00073294670001
 20
5.578802140100008
 10
-16.80087659039999
 20
5.872158392100017
 10
-15.566850641
 20
5.977963840900002
 10
-14.2867920734
 20
5.885925179099998
 10
-13.04091901660001
 20
5.592428207100012
 10
-11.8642088248
 20
5.098564092000016
 10
-10.7943023626
 20
4.412405757600011
 10
-9.896776951299996
 20
3.566621518800018
 10
-9.182126517600011
 20
2.560383108999999
 10
-8.586278004200011
 20
0.9298262182000057
 10
-8.566754765500007
 20
-0.818432684399994
 10
-9.079446105299991
 20
-2.368511988799979
 10
-10.07979395779999
 20
-3.767938175300002
 10
-11.64899541779998
 20
-4.981946317199983
 10
-12.69902620510001
 20
-5.47233441039998
 10
-13.8154165775
 20
-5.800204401900002
 10
-15.07149297969999
 20
-5.966280121399988
 10
-16.33934322520001
 20
-5.934512193199991
 10
-17.5997836658
 20
-5.698784112899986
 10
-18.80067148189999
 20
-5.263881361599985
 10
-19.90316971369998
 20
-4.634228334699983
 10
-20.87144949869999
 20
-3.818385060599992
 10
-21.4964005063
 20
-3.068626135399981
 10
-21.99123525990001
 20
-2.22494197969999
 10
-22.3304350692
 20
-1.295358720399987
 10
-22.4900677519
 20
-0.3163059153000063
 10
-22.30685859619999
 20
1.386096565900004
 10
-21.62703171770001
 20
2.876521038800021
 10
-20.4373391758
 20
4.223678316300023
 10
-20.15547278520001
 20
4.451139193000003
  0
LINE
  5
1D4D
330
1F
100
AcDbEntity
  8
SK1
100
AcDbLine
 10
-2.500000000000013
 20
-18.0
 30
0.0
 11
-2.500000000000014
 21
17.99999999999998
 31
0.0
  0
LINE
  5
1D50
330
1F
100
AcDbEntity
  8
3
100
AcDbLine
 10
0.0
 20
-8.5
 30
0.0
 11
10.0
 21
-8.499999999999998
 31
0.0
  0
LINE
  5
1D52
330
1F
100
AcDbEntity
  8
SK1
100
AcDbLine
 10
-35.2
 20
-18.0
 30
0.0
 11
-2.500000000000013
 21
-18.0
 31
0.0
  0
LINE
  5
1D53
330
1F
100
AcDbEntity
  8
SK1
100
AcDbLine
 10
-40.0
 20
-15.89999999999998
 30
0.0
 11
-38.17573593129999
 21
-17.72426406869998
 31
0.0
  0
LINE
  5
1D54
330
1F
100
AcDbEntity
  8
SK1
100
AcDbLine
 10
-37.53588450859999
 20
-17.88579489799998
 30
0.0
 11
-36.87304764929999
 21
-17.73894013609998
 31
0.0
  0
ARC
  5
1D55
330
1F
100
AcDbEntity
  8
SK1
100
AcDbCircle
 10
-37.6656702456
 20
-17.29999999999999
 30
0.0
 40
0.5999999999999944
100
AcDbArc
 50
270.0
 51
282.4923677447007
  0
ARC
  5
1D56
330
1F
100
AcDbEntity
  8
SK1
100
AcDbCircle
 10
-37.7514718626
 20
-17.29999999999999
 30
0.0
 40
0.5999999999999944
100
AcDbArc
 50
225.0
 51
270.0
  0
LINE
  5
1D57
330
1F
100
AcDbEntity
  8
SK1
100
AcDbLine
 10
-37.7514718626
 20
-17.89999999999998
 30
0.0
 11
-37.6656702456
 21
-17.89999999999998
 31
0.0
  0
ARC
  5
1D58
330
1F
100
AcDbEntity
  8
SK1
100
AcDbCircle
 10
-36.7
 20
-18.51999999999998
 30
0.0
 40
0.8000000000000035
100
AcDbArc
 50
78.86052882869933
 51
102.4923677447006
  0
LINE
  5
1D59
330
1F
100
AcDbEntity
  8
SK1
100
AcDbLine
 10
-36.54544165180002
 20
-17.73507215809998
 30
0.0
 11
-35.2
 21
-18.0
 31
0.0
  0
LINE
  5
1D5A
330
1F
100
AcDbEntity
  8
SK3
100
AcDbLine
 10
-40.0
 20
-12.0
 30
0.0
 11
-33.9378221735
 21
-8.5
 31
0.0
  0
LINE
  5
1D5B
330
1F
100
AcDbEntity
  8
SK3
100
AcDbLine
 10
-33.9378221735
 20
0.0
 30
0.0
 11
-33.9378221735
 21
-8.5
 31
0.0
  0
LINE
  5
1D60
330
1F
100
AcDbEntity
  8
3
100
AcDbLine
 10
10.0
 20
-8.499999999999998
 30
0.0
 11
10.0
 21
-22.64999999999999
 31
0.0
  0
LINE
  5
1D61
330
1F
100
AcDbEntity
  8
3
100
AcDbLine
 10
7.5
 20
-19.0
 30
0.0
 11
0.5
 21
-19.0
 31
0.0
  0
LINE
  5
1D62
330
1F
100
AcDbEntity
  8
3
100
AcDbLine
 10
0.5
 20
-24.0
 30
0.0
 11
7.5
 21
-24.0
 31
0.0
  0
ARC
  5
1D63
330
1F
100
AcDbEntity
  8
1
100
AcDbCircle
 10
6.973098353900012
 20
-28.5
 30
0.0
 40
1.000000000000012
100
AcDbArc
 50
90.0
 51
164.9999999999996
  0
LINE
  5
1D64
330
1F
100
AcDbEntity
  8
3
100
AcDbLine
 10
0.0
 20
-24.5
 30
0.0
 11
0.5
 21
-24.0
 31
0.0
  0
LINE
  5
1D65
330
1F
100
AcDbEntity
  8
1
100
AcDbLine
 10
0.0
 20
31.50000000000001
 30
0.0
 11
0.0
 21
-31.5
 31
0.0
  0
LINE
  5
1D68
330
1F
100
AcDbEntity
  8
1
100
AcDbLine
 10
0.5
 20
-32.0
 30
0.0
 11
4.232673011999991
 21
-32.0
 31
0.0
  0
ARC
  5
1D69
330
1F
100
AcDbEntity
  8
1
100
AcDbCircle
 10
0.5
 20
-31.5
 30
0.0
 40
0.5
100
AcDbArc
 50
180.0
 51
270.0
  0
LINE
  5
1D6A
330
1F
100
AcDbEntity
  8
SK1
100
AcDbLine
 10
-4.700000000000001
 20
-24.89999999999999
 30
0.0
 11
0.0
 21
-24.89999999999999
 31
0.0
  0
LINE
  5
1D6B
330
1F
100
AcDbEntity
  8
SK1
100
AcDbLine
 10
-5.000000000000013
 20
-24.59999999999999
 30
0.0
 11
-4.700000000000001
 21
-24.89999999999999
 31
0.0
  0
LINE
  5
1D6C
330
1F
100
AcDbEntity
  8
1
100
AcDbLine
 10
5.198598838299999
 20
-31.25881904509999
 30
0.0
 11
6.007172527600004
 21
-28.24118095489998
 31
0.0
  0
ARC
  5
1D6D
330
1F
100
AcDbEntity
  8
1
100
AcDbCircle
 10
4.232673011999991
 20
-31.0
 30
0.0
 40
1.0
100
AcDbArc
 50
270.0
 51
344.9999999999996
  0
LINE
  5
1D6E
330
1F
100
AcDbEntity
  8
3
100
AcDbLine
 10
0.5
 20
-19.0
 30
0.0
 11
0.5
 21
-24.0
 31
0.0
  0
LINE
  5
1D6F
330
1F
100
AcDbEntity
  8
SK1
100
AcDbLine
 10
-2.500000000000014
 20
-18.0
 30
0.0
 11
-1.270082145800017
 21
-17.67044450419998
 31
0.0
  0
LINE
  5
1D7B
330
1F
100
AcDbEntity
  8
3
100
AcDbLine
 10
0.5
 20
-19.0
 30
0.0
 11
0.0
 21
-18.49999999999995
 31
0.0
  0
LINE
  5
1D7C
330
1F
100
AcDbEntity
  8
SK1
100
AcDbLine
 10
-1.114790718800009
 20
-17.64999999999998
 30
0.0
 11
-0.4000000000000057
 21
-17.64999999999998
 31
0.0
  0
ARC
  5
1D7D
330
1F
100
AcDbEntity
  8
SK1
100
AcDbCircle
 10
-1.114790718800009
 20
-18.25
 30
0.0
 40
0.6000000000000087
100
AcDbArc
 50
90.0
 51
104.9999999999994
  0
ARC
  5
1D7E
330
1F
100
AcDbEntity
  8
SK1
100
AcDbCircle
 10
-0.4000000000000057
 20
-18.25
 30
0.0
 40
0.6000000000000087
100
AcDbArc
 50
48.18968510422135
 51
90.0
  0
LINE
  5
1D82
330
1F
100
AcDbEntity
  8
1
100
AcDbLine
 10
9.0
 20
-22.64999999999999
 30
0.0
 11
7.700446416700002
 21
-27.5
 31
0.0
  0
LINE
  5
1D85
330
1F
100
AcDbEntity
  8
1
100
AcDbLine
 10
6.973098353900012
 20
-27.5
 30
0.0
 11
7.700446416700002
 21
-27.5
 31
0.0
  0
LINE
  5
1D8F
330
1F
100
AcDbEntity
  8
1
100
AcDbLine
 10
44.55788383249998
 20
-22.64999999999999
 30
0.0
 11
9.0
 21
-22.64999999999999
 31
0.0
  0
LINE
  5
1D90
330
1F
100
AcDbEntity
  8
3
100
AcDbLine
 10
9.002151547599993
 20
-21.49999999999999
 30
0.0
 11
7.5
 21
-19.0
 31
0.0
  0
LINE
  5
1D91
330
1F
100
AcDbEntity
  8
3
100
AcDbLine
 10
7.5
 20
-19.0
 30
0.0
 11
7.5
 21
-24.0
 31
0.0
  0
LINE
  5
1D92
330
1F
100
AcDbEntity
  8
3
100
AcDbLine
 10
7.5
 20
-24.0
 30
0.0
 11
9.002151547599993
 21
-21.49999999999999
 31
0.0
  0
LINE
  5
1DC7
330
1F
100
AcDbEntity
  8
3
100
AcDbLine
 10
3.995696904899999
 20
0.0
 30
0.0
 11
7.0
 21
-5.0
 31
0.0
  0
LINE
  5
1DC9
330
1F
100
AcDbEntity
  8
SK3
100
AcDbLine
 10
-34.71603545699999
 20
2.800000000000011
 30
0.0
 11
0.0
 21
2.800000000000011
 31
0.0
  0
LINE
  5
1DCA
330
1F
100
AcDbEntity
  8
3
100
AcDbLine
 10
10.0
 20
11.30000000000001
 30
0.0
 11
0.0
 21
11.30000000000001
 31
0.0
  0
LINE
  5
1DCC
330
1F
100
AcDbEntity
  8
SK1
100
AcDbLine
 10
-2.500000000000014
 20
18.0
 30
0.0
 11
-35.2
 21
18.0
 31
0.0
  0
LINE
  5
1DCD
330
1F
100
AcDbEntity
  8
SK1
100
AcDbLine
 10
-38.17573593129999
 20
17.72426406870001
 30
0.0
 11
-40.0
 21
15.9
 31
0.0
  0
LINE
  5
1DCE
330
1F
100
AcDbEntity
  8
SK3
100
AcDbLine
 10
-38.78015035289998
 20
11.29571947790001
 30
0.0
 11
-40.0
 21
12.0
 31
0.0
  0
ARC
  5
1DCF
330
1F
100
AcDbEntity
  8
SK3
100
AcDbCircle
 10
46.1298337551
 20
46.54259299290003
 30
0.0
 40
91.94014792946715
100
AcDbArc
 50
202.5435008476998
 51
208.4161170061002
  0
LINE
  5
1DD0
330
1F
100
AcDbEntity
  8
SK1
100
AcDbLine
 10
-36.87304764929999
 20
17.73894013600001
 30
0.0
 11
-37.53588450859999
 21
17.885794898
 31
0.0
  0
ARC
  5
1DD1
330
1F
100
AcDbEntity
  8
SK1
100
AcDbCircle
 10
-37.6656702456
 20
17.3
 30
0.0
 40
0.6000000000000087
100
AcDbArc
 50
77.50763225529921
 51
90.0
  0
ARC
  5
1DD2
330
1F
100
AcDbEntity
  8
SK1
100
AcDbCircle
 10
-37.7514718626
 20
17.3
 30
0.0
 40
0.6000000000000087
100
AcDbArc
 50
90.0
 51
135.0
  0
LINE
  5
1DD3
330
1F
100
AcDbEntity
  8
SK1
100
AcDbLine
 10
-37.6656702456
 20
17.9
 30
0.0
 11
-37.7514718626
 21
17.9
 31
0.0
  0
ARC
  5
1DD4
330
1F
100
AcDbEntity
  8
SK1
100
AcDbCircle
 10
-36.7
 20
18.52000000000001
 30
0.0
 40
0.7999999999999896
100
AcDbArc
 50
257.5076322552992
 51
281.1394711713005
  0
LINE
  5
1DD5
330
1F
100
AcDbEntity
  8
SK1
100
AcDbLine
 10
-35.2
 20
18.0
 30
0.0
 11
-36.54544165180002
 21
17.73507215809998
 31
0.0
  0
LINE
  5
1DD7
330
1F
100
AcDbEntity
  8
3
100
AcDbLine
 10
0.0
 20
2.800000000000011
 30
0.0
 11
12.64079290569998
 21
2.800000000000011
 31
0.0
  0
LINE
  5
1DDA
330
1F
100
AcDbEntity
  8
3
100
AcDbLine
 10
10.0
 20
27.32960519100737
 30
0.0
 11
10.0
 21
11.30000000000001
 31
0.0
  0
LWPOLYLINE
  5
1DDB
330
1F
100
AcDbEntity
  8
3
100
AcDbPolyline
 90
       13
 70
   128
 43
0.0
 10
12.64079290569998
 20
2.800000000000011
 10
12.62443330289999
 20
3.43612190200001
 10
12.57548373989999
 20
4.07224380410001
 10
12.49352424549999
 20
4.713618509300005
 10
12.3815842045
 20
5.344487608199997
 10
12.09843444089996
 20
6.501404311499996
 10
11.74493794099997
 20
7.590268279300005
 10
11.32926093819998
 20
8.642868002600009
 10
11.1164906922
 20
9.124700048199995
 10
10.90875633089999
 20
9.568541064600012
 10
10.70197398349998
 20
9.989127065900007
 10
10.51178480039999
 20
10.3603161091
 10
10.0
 20
11.30000000000001
  0
LINE
  5
1DDC
330
1F
100
AcDbEntity
  8
3
100
AcDbLine
 10
7.5
 20
24.00000000000001
 30
0.0
 11
0.5
 21
24.00000000000001
 31
0.0
  0
LINE
  5
1DDD
330
1F
100
AcDbEntity
  8
3
100
AcDbLine
 10
0.5
 20
19.0
 30
0.0
 11
7.5
 21
19.0
 31
0.0
  0
ARC
  5
1DDE
330
1F
100
AcDbEntity
  8
1
100
AcDbCircle
 10
6.973098353900012
 20
28.50000000000001
 30
0.0
 40
1.000000000000001
100
AcDbArc
 50
195.0000000000003
 51
270.0
  0
LINE
  5
1DE0
330
1F
100
AcDbEntity
  8
3
100
AcDbLine
 10
0.5
 20
24.00000000000001
 30
0.0
 11
0.5
 21
19.0
 31
0.0
  0
LINE
  5
1DE3
330
1F
100
AcDbEntity
  8
SK1
100
AcDbLine
 10
-1.270082145800017
 20
17.6704445042
 30
0.0
 11
-2.500000000000014
 21
18.0
 31
0.0
  0
LINE
  5
1DEB
330
1F
100
AcDbEntity
  8
3
100
AcDbLine
 10
0.0
 20
18.50000000000001
 30
0.0
 11
0.5
 21
19.0
 31
0.0
  0
LINE
  5
1DEC
330
1F
100
AcDbEntity
  8
SK1
100
AcDbLine
 10
-0.4000000000000057
 20
17.64999999999999
 30
0.0
 11
-1.114790718800009
 21
17.64999999999999
 31
0.0
  0
ARC
  5
1DED
330
1F
100
AcDbEntity
  8
SK1
100
AcDbCircle
 10
-1.114790718800009
 20
18.25
 30
0.0
 40
0.5999999999999944
100
AcDbArc
 50
255.0000000000004
 51
270.0
  0
ARC
  5
1DEE
330
1F
100
AcDbEntity
  8
SK1
100
AcDbCircle
 10
-0.4000000000000057
 20
18.25
 30
0.0
 40
0.5999999999999944
100
AcDbArc
 50
270.0
 51
311.8103148957796
  0
LINE
  5
1DF2
330
1F
100
AcDbEntity
  8
SK1
100
AcDbLine
 10
0.0
 20
24.90000000000001
 30
0.0
 11
-4.700000000000001
 21
24.90000000000001
 31
0.0
  0
LINE
  5
1DF3
330
1F
100
AcDbEntity
  8
SK1
100
AcDbLine
 10
-4.700000000000001
 20
24.90000000000001
 30
0.0
 11
-5.000000000000013
 21
24.6
 31
0.0
  0
LINE
  5
1DF4
330
1F
100
AcDbEntity
  8
3
100
AcDbLine
 10
0.5
 20
24.00000000000001
 30
0.0
 11
0.0
 21
24.50000000000001
 31
0.0
  0
LINE
  5
1DF5
330
1F
100
AcDbEntity
  8
1
100
AcDbLine
 10
4.232673011999991
 20
32.00000000000001
 30
0.0
 11
0.5
 21
32.00000000000001
 31
0.0
  0
ARC
  5
1DF6
330
1F
100
AcDbEntity
  8
1
100
AcDbCircle
 10
0.5
 20
31.50000000000001
 30
0.0
 40
0.5
100
AcDbArc
 50
90.0
 51
180.0
  0
LINE
  5
1DF7
330
1F
100
AcDbEntity
  8
1
100
AcDbLine
 10
6.007172527600004
 20
28.2411809549
 30
0.0
 11
5.198598838299999
 21
31.25881904509999
 31
0.0
  0
ARC
  5
1DF8
330
1F
100
AcDbEntity
  8
1
100
AcDbCircle
 10
4.232673011999991
 20
31.00000000000001
 30
0.0
 40
1.0
100
AcDbArc
 50
15.00000000000038
 51
90.0
  0
LINE
  5
1DF9
330
1F
100
AcDbEntity
  8
3
100
AcDbLine
 10
7.5
 20
19.0
 30
0.0
 11
9.002151547599993
 21
21.49999999999999
 31
0.0
  0
LINE
  5
1DFA
330
1F
100
AcDbEntity
  8
3
100
AcDbLine
 10
7.5
 20
24.00000000000001
 30
0.0
 11
7.5
 21
19.0
 31
0.0
  0
LINE
  5
1DFB
330
1F
100
AcDbEntity
  8
3
100
AcDbLine
 10
9.002151547599993
 20
21.49999999999999
 30
0.0
 11
7.5
 21
24.00000000000001
 31
0.0
  0
LINE
  5
1DFC
330
1F
100
AcDbEntity
  8
1
100
AcDbLine
 10
9.700002440371195
 20
27.50000000000001
 30
0.0
 11
6.973098353900012
 21
27.50000000000001
 31
0.0
  0
LINE
  5
1E04
330
1F
100
AcDbEntity
  8
3
100
AcDbLine
 10
37.35920709429999
 20
0.0
 30
0.0
 11
37.35920709429999
 21
2.800000000000011
 31
0.0
  0
LINE
  5
1E0C
330
1F
100
AcDbEntity
  8
1
100
AcDbLine
 10
27.20828571690001
 20
-1.859249183399994
 30
0.0
 11
27.71429988329998
 21
0.9828069379000226
 31
0.0
  0
CIRCLE
  5
1E0D
330
1F
100
AcDbEntity
  8
1
100
AcDbCircle
 10
25.0
 20
0.0
 30
0.0
 40
4.172000000000017
  0
LINE
  5
1E0E
330
1F
100
AcDbEntity
  8
1
100
AcDbLine
 10
22.2857001168
 20
-0.9828069378999799
 30
0.0
 11
22.79171428319997
 21
1.859249183400008
 31
0.0
  0
LWPOLYLINE
  5
1E10
330
1F
100
AcDbEntity
  8
1
100
AcDbPolyline
 90
       39
 70
   128
 43
0.0
 10
21.11659198649999
 20
3.86272657340001
 10
20.54114591479998
 20
3.305705553099997
 10
20.04446369219999
 20
2.654265628900005
 10
19.62470345729997
 20
1.857516238000001
 10
19.34892060109999
 20
0.9658967848000088
 10
19.25234656289998
 20
0.1493799385000045
 10
19.30146533289998
 20
-0.6981130559999969
 10
19.47811842909999
 20
-1.458642916499981
 10
19.78289134979998
 20
-2.199702702399989
 10
20.2025058911
 20
-2.885176614799988
 10
20.73534648470001
 20
-3.512264297399993
 10
21.3958712303
 20
-4.081939926100004
 10
22.15489549199999
 20
-4.554611054999995
 10
23.03111519649998
 20
-4.926279731999996
 10
23.98032580889999
 20
-5.161515028199985
 10
24.98177470289999
 20
-5.245127798299988
 10
26.01166591649998
 20
-5.162833807599993
 10
27.00036926449998
 20
-4.91566397049999
 10
27.95949536409997
 20
-4.493362575799991
 10
28.79182529759997
 20
-3.937756764899987
 10
29.5340641281
 20
-3.219577629699982
 10
30.0792197264
 20
-2.45269212849999
 10
30.48624055579998
 20
-1.566031243999987
 10
30.69203590429998
 20
-0.7406746467000005
 10
30.74800424899998
 20
0.1377640256000063
 10
30.6602019581
 20
0.9206412854999967
 10
30.43805178709998
 20
1.699514742700016
 10
30.10181086909998
 20
2.413499736800004
 10
29.64762758879999
 20
3.082131565200015
 10
29.0700794553
 20
3.699319518600006
 10
28.38833313109998
 20
4.23317848260001
 10
27.58026125469998
 20
4.684462254799996
 10
26.68840935130001
 20
5.012585693500014
 10
25.71601570690001
 20
5.204076786399993
 10
24.69764018379998
 20
5.237852321000005
 10
23.68812082739997
 20
5.105985635200013
 10
22.68731666739998
 20
4.79978145150001
 10
21.87439680279998
 20
4.398518713400007
 10
21.11659195909998
 20
3.862726615799998
  0
LINE
  5
1E11
330
1F
100
AcDbEntity
  8
3
100
AcDbLine
 10
40.0
 20
-8.5
 30
0.0
 11
44.29999999999998
 21
-8.5
 31
0.0
  0
LINE
  5
1E12
330
1F
100
AcDbEntity
  8
3
100
AcDbLine
 10
6.999999999999999
 20
-5.0
 30
0.0
 11
45.0
 21
-5.0
 31
0.0
  0
LINE
  5
1E22
330
1F
100
AcDbEntity
  8
3
100
AcDbLine
 10
40.0
 20
-22.64999999999999
 30
0.0
 11
40.0
 21
-8.5
 31
0.0
  0
LINE
  5
1E25
330
1F
100
AcDbEntity
  8
1
100
AcDbLine
 10
18.59999999999998
 20
-25.26520467839998
 30
0.0
 11
31.3999939313
 21
-25.26520467839998
 31
0.0
  0
LINE
  5
1E97
330
1F
100
AcDbEntity
  8
1
100
AcDbLine
 10
31.39999999999997
 20
-25.26520467839998
 30
0.0
 11
40.00000000058165
 21
-22.64999999999999
 31
0.0
  0
LINE
  5
1F2D
330
1F
100
AcDbEntity
  8
1
100
AcDbLine
 10
22.2857001168
 20
-0.9828069378999799
 30
0.0
 11
24.49398583370001
 21
-2.842056121299988
 31
0.0
  0
LINE
  5
1F2E
330
1F
100
AcDbEntity
  8
1
100
AcDbLine
 10
27.20828571690001
 20
-1.859249183399994
 30
0.0
 11
24.49398583370001
 21
-2.842056121299988
 31
0.0
  0
LINE
  5
1F41
330
1F
100
AcDbEntity
  8
1
100
AcDbLine
 10
44.55788383249998
 20
-22.64999999999999
 30
0.0
 11
45.0
 21
-21.0
 31
0.0
  0
LINE
  5
1F42
330
1F
100
AcDbEntity
  8
1
100
AcDbLine
 10
45.0
 20
20.99851185199999
 30
0.0
 11
45.0
 21
-20.99999999999999
 31
0.0
  0
LINE
  5
1F44
330
1F
100
AcDbEntity
  8
3
100
AcDbLine
 10
44.29999999999998
 20
-8.5
 30
0.0
 11
45.0
 21
-9.199999999999988
 31
0.0
  0
LINE
  5
1F47
330
1F
100
AcDbEntity
  8
3
100
AcDbLine
 10
41.22961272149999
 20
15.15
 30
0.0
 11
41.5
 21
14.69999999999999
 31
0.0
  0
LINE
  5
1F48
330
1F
100
AcDbEntity
  8
3
100
AcDbLine
 10
41.5
 20
18.89999999999999
 30
0.0
 11
41.22961272149999
 21
18.44999999999999
 31
0.0
  0
LINE
  5
1F49
330
1F
100
AcDbEntity
  8
3
100
AcDbLine
 10
44.29999999999998
 20
11.30000000000001
 30
0.0
 11
40.0
 21
11.30000000000001
 31
0.0
  0
LINE
  5
1F4A
330
1F
100
AcDbEntity
  8
3
100
AcDbLine
 10
45.0
 20
5.0
 30
0.0
 11
7.0
 21
5.0
 31
0.0
  0
LINE
  5
1F4D
330
1F
100
AcDbEntity
  8
1
100
AcDbLine
 10
42.49100326119997
 20
27.50000000000001
 30
0.0
 11
40.29999755989999
 21
27.50000000000001
 31
0.0
  0
LINE
  5
1F4E
330
1F
100
AcDbEntity
  8
3
100
AcDbLine
 10
40.0
 20
11.30000000000001
 30
0.0
 11
40.0
 21
27.32892998470225
 31
0.0
  0
LINE
  5
1F4F
330
1F
100
AcDbEntity
  8
3
100
AcDbLine
 10
41.22961272149999
 20
18.44999999999999
 30
0.0
 11
41.22961272149999
 21
15.15
 31
0.0
  0
LWPOLYLINE
  5
1F50
330
1F
100
AcDbEntity
  8
3
100
AcDbPolyline
 90
       40
 70
   128
 43
0.0
 10
38.34456818339997
 20
16.8
 10
38.33482946199997
 20
16.55072089989999
 10
38.30469678929997
 20
16.3014417997
 10
38.2567223704
 20
16.07360385200002
 10
38.18946802649998
 20
15.85979192319999
 10
38.10469356759998
 20
15.66919614520001
 10
38.00231705589999
 20
15.50360217829998
 10
37.87689241089998
 20
15.36069222990001
 10
37.73515296639999
 20
15.25319085639998
 10
37.5647763131
 20
15.1787985992
 10
37.38053602379999
 20
15.1502930526
 10
37.16631311069996
 20
15.17288775109999
 10
36.9438966699
 20
15.25317956950002
 10
36.70925908129999
 20
15.40120415450002
 10
36.4804978057
 20
15.6206066047
 10
36.33864561539999
 20
15.81018438460001
 10
36.21312790179999
 20
16.0374478515
 10
36.13480202569999
 20
16.23618339540001
 10
36.07732903199999
 20
16.45716151450001
 10
36.0480796379
 20
16.68420784020001
 10
36.0486248981
 20
16.92394393569999
 10
36.0740616125
 20
17.12554172620001
 10
36.12214013829997
 20
17.32368218920001
 10
36.19060754720001
 20
17.5119286098
 10
36.27695084229997
 20
17.68759795350001
 10
36.4268957556
 20
17.9138509375
 10
36.60038345089997
 20
18.10512652000001
 10
36.78469818619999
 20
18.2539225589
 10
36.97880913689999
 20
18.36317631139999
 10
37.21011847989997
 20
18.4362191659
 10
37.44291980999998
 20
18.4454073613
 10
37.6631787188
 20
18.38462356450001
 10
37.87192320519999
 20
18.2439351198
 10
38.00341116379998
 20
18.09489774020001
 10
38.1204625954
 20
17.89986133719998
 10
38.21372329390001
 20
17.67180134280001
 10
38.28566005439997
 20
17.40155412120002
 10
38.32539261099997
 20
17.1485211616
 10
38.34369010159996
 20
16.87510772380001
 10
38.34456818339997
 20
16.8
  0
LINE
  5
1F51
330
1F
100
AcDbEntity
  8
1
100
AcDbLine
 10
22.79171428319997
 20
1.859249183400008
 30
0.0
 11
25.50601416640001
 21
2.842056121300018
 31
0.0
  0
LINE
  5
1F53
330
1F
100
AcDbEntity
  8
1
100
AcDbLine
 10
27.71429988329998
 20
0.9828069379000226
 30
0.0
 11
25.50601416640001
 21
2.842056121300018
 31
0.0
  0
LWPOLYLINE
  5
1F54
330
1F
100
AcDbEntity
  8
3
100
AcDbPolyline
 90
       13
 70
   128
 43
0.0
 10
37.35920709429999
 20
2.800000000000011
 10
37.3755666971
 20
3.43612190200001
 10
37.50647575459999
 20
4.713618509300005
 10
37.61841579549999
 20
5.344487608199997
 10
37.74978628989998
 20
5.931621056000012
 10
38.0719470537
 20
7.057440519200014
 10
38.25506205899997
 20
7.590268279300005
 10
38.46046082149999
 20
8.132354595100011
 10
38.8835093078
 20
9.124700048199995
 10
39.0912436692
 20
9.568541064600012
 10
39.29802601649999
 20
9.989127065900007
 10
39.4882151996
 20
10.3603161091
 10
40.0
 20
11.30000000000001
  0
LINE
  5
1F55
330
1F
100
AcDbEntity
  8
3
100
AcDbLine
 10
37.35882695679999
 20
15.15
 30
0.0
 11
41.22961272149999
 21
15.15
 31
0.0
  0
LWPOLYLINE
  5
1F56
330
1F
100
AcDbEntity
  8
1
100
AcDbPolyline
 90
       24
 70
   128
 43
0.0
 10
26.51733361089998
 20
25.39257640790002
 10
26.50302119029999
 20
25.39503083890001
 10
26.55146533289999
 20
25.38669061889999
 10
26.65991433499999
 20
25.36826096100002
 10
26.8284039005
 20
25.34029146540003
 10
27.03289134979999
 20
25.30743577760002
 10
27.64109944929998
 20
25.21684020350001
 10
27.98534648470001
 20
25.17034005419998
 10
28.4726826378
 20
25.11048702149998
 10
28.92196820559998
 20
25.06157133509999
 10
29.404895492
 20
25.01575815100001
 10
29.83411360779999
 20
24.98097045559999
 10
30.2840895379
 20
24.95053391829999
 10
30.74937585419998
 20
24.92559298600001
 10
31.23032580889999
 20
24.90682420049998
 10
31.72762099099998
 20
24.89493889340001
 10
32.2317747029
 20
24.8907126333
 10
32.74665558239998
 20
24.89453246880001
 10
33.26166591649998
 20
24.90657216500001
 10
33.75954797019999
 20
24.92600867520001
 10
34.25036926449998
 20
24.95264554520001
 10
34.73748796229996
 20
24.98638411460003
 10
35.20949536409997
 20
25.02597323370001
 10
35.33665676729997
 20
25.03836759650001
  0
ARC
  5
1F57
330
1F
100
AcDbEntity
  8
1
100
AcDbCircle
 10
25.0
 20
53.60051563229999
 30
0.0
 40
28.23264789966996
100
AcDbArc
 50
267.4624008218992
 51
272.5375991781006
  0
LINE
  5
1F58
330
1F
100
AcDbEntity
  8
1
100
AcDbLine
 10
23.75
 20
25.39555317130002
 30
0.0
 11
23.49561026539999
 21
25.39555317130002
 31
0.0
  0
LINE
  5
1F59
330
1F
100
AcDbEntity
  8
1
100
AcDbLine
 10
26.51733361089998
 20
25.39555317130002
 30
0.0
 11
26.25
 21
25.39555317130002
 31
0.0
  0
LINE
  5
1F5A
330
1F
100
AcDbEntity
  8
3
100
AcDbLine
 10
41.22961272149999
 20
18.44999999999999
 30
0.0
 11
37.35778972919999
 21
18.44999999999999
 31
0.0
  0
LINE
  5
1F5D
330
1F
100
AcDbEntity
  8
3
100
AcDbLine
 10
41.5
 20
18.89999999999999
 30
0.0
 11
41.5
 21
14.69999999999999
 31
0.0
  0
LINE
  5
1F5F
330
1F
100
AcDbEntity
  8
3
100
AcDbLine
 10
42.5
 20
18.89999999999999
 30
0.0
 11
42.5
 21
14.69999999999999
 31
0.0
  0
LINE
  5
1F65
330
1F
100
AcDbEntity
  8
3
100
AcDbLine
 10
44.29999999999998
 20
-8.5
 30
0.0
 11
44.29999999999998
 21
11.30000000000001
 31
0.0
  0
LINE
  5
1F66
330
1F
100
AcDbEntity
  8
3
100
AcDbLine
 10
45.0
 20
2.800000000000011
 30
0.0
 11
37.35920709429999
 21
2.800000000000011
 31
0.0
  0
LINE
  5
1F69
330
1F
100
AcDbEntity
  8
3
100
AcDbLine
 10
44.29999999999998
 20
11.30000000000001
 30
0.0
 11
45.0
 21
11.99660263360001
 31
0.0
  0
LINE
  5
1F6B
330
1F
100
AcDbEntity
  8
3
100
AcDbLine
 10
42.5
 20
14.69999999999999
 30
0.0
 11
45.0
 21
13.25662432700001
 31
0.0
  0
LINE
  5
1F6C
330
1F
100
AcDbEntity
  8
3
100
AcDbLine
 10
41.5
 20
14.69999999999999
 30
0.0
 11
42.5
 21
14.69999999999999
 31
0.0
  0
LINE
  5
1F6F
330
1F
100
AcDbEntity
  8
3
100
AcDbLine
 10
45.0
 20
20.34337567293618
 30
0.0
 11
42.5
 21
18.89999999999999
 31
0.0
  0
LINE
  5
1F70
330
1F
100
AcDbEntity
  8
3
100
AcDbLine
 10
42.5
 20
18.89999999999999
 30
0.0
 11
41.5
 21
18.89999999999999
 31
0.0
  0
LINE
  5
1F72
330
1F
100
AcDbEntity
  8
1
100
AcDbLine
 10
45.0
 20
20.99851185200001
 30
0.0
 11
43.45692908748907
 21
26.75881904510255
 31
0.0
  0
ARC
  5
1F74
330
1F
100
AcDbEntity
  8
1
100
AcDbCircle
 10
42.49100326119997
 20
26.50000000000001
 30
0.0
 40
1.000000000000026
100
AcDbArc
 50
15.00000000000038
 51
90.0
  0
LINE
  5
1FC4
330
1F
100
AcDbEntity
  8
SK1
100
AcDbLine
 10
-4.999999999999983
 20
18.39999999999998
 30
0.0
 11
-4.999999999999983
 21
24.59999999999999
 31
0.0
  0
LINE
  5
1FC5
330
1F
100
AcDbEntity
  8
SK1
100
AcDbLine
 10
-4.699999999999987
 20
24.9
 30
0.0
 11
-4.699999999999987
 21
18.09999999999998
 31
0.0
  0
LINE
  5
1FC8
330
1F
100
AcDbEntity
  8
SK1
100
AcDbLine
 10
0.0
 20
18.09999999999998
 30
0.0
 11
-4.699999999999987
 21
18.09999999999998
 31
0.0
  0
LINE
  5
1FC9
330
1F
100
AcDbEntity
  8
SK1
100
AcDbLine
 10
-4.699999999999987
 20
18.09999999999998
 30
0.0
 11
-4.999999999999983
 21
18.39999999999998
 31
0.0
  0
LINE
  5
1FCA
330
1F
100
AcDbEntity
  8
SK1
100
AcDbLine
 10
-4.999999999999983
 20
-24.6
 30
0.0
 11
-4.999999999999983
 21
-18.39999999999998
 31
0.0
  0
LINE
  5
1FCB
330
1F
100
AcDbEntity
  8
SK1
100
AcDbLine
 10
-4.699999999999987
 20
-18.1
 30
0.0
 11
-4.699999999999987
 21
-24.9
 31
0.0
  0
LINE
  5
1FCE
330
1F
100
AcDbEntity
  8
SK1
100
AcDbLine
 10
-4.699999999999987
 20
-18.1
 30
0.0
 11
0.0
 21
-18.1
 31
0.0
  0
LINE
  5
1FCF
330
1F
100
AcDbEntity
  8
SK1
100
AcDbLine
 10
-4.999999999999983
 20
-18.39999999999998
 30
0.0
 11
-4.699999999999987
 21
-18.1
 31
0.0
  0
LINE
  5
1FD0
330
1F
100
AcDbEntity
  8
SK4
100
AcDbLine
 10
0.0
 20
0.0
 30
0.0
 11
-40.0
 21
0.0000000000000071
 31
0.0
  0
LINE
  5
1FD1
330
1F
100
AcDbEntity
  8
4
100
AcDbLine
 10
0.0
 20
0.0
 30
0.0
 11
45.0
 21
0.0
 31
0.0
  0
LINE
  5
1FE4
330
1F
100
AcDbEntity
  8
SK3
100
AcDbLine
 10
0.0
 20
11.30000000000001
 30
0.0
 11
-38.78015035289998
 21
11.29571947790001
 31
0.0
  0
LINE
  5
1FE5
330
1F
100
AcDbEntity
  8
SK3
100
AcDbLine
 10
0.0
 20
-8.5
 30
0.0
 11
-33.9378221735
 21
-8.5
 31
0.0
  0
LWPOLYLINE
  5
1FE9
330
1F
100
AcDbEntity
  8
3
100
AcDbPolyline
 90
       18
 70
   128
 43
0.0
 10
10.0
 20
-8.499999999999998
 10
10.0044446139
 20
-8.492154099399995
 10
10.00465576849997
 20
-8.491781239699989
 10
10.04430708529999
 20
-8.42156461479999
 10
10.12419341089999
 20
-8.278865965699992
 10
10.27128318449998
 20
-8.011560336900004
 10
10.53560040929999
 20
-7.514576203699986
 10
10.86938483329997
 20
-6.850130289899992
 10
11.06805003119997
 20
-6.430336688999986
 10
11.2749404118
 20
-5.968857570799996
 10
11.4880724514
 20
-5.460969335099988
 10
11.6999338196
 20
-4.913426544099991
 10
11.91545415069998
 20
-4.295967886699997
 10
12.11665012599999
 20
-3.637403466099995
 10
12.29880279609999
 20
-2.927526330199995
 10
12.4500560525
 20
-2.179700228699985
 10
12.59052116619999
 20
-1.115869583199994
 10
12.64079290569998
 20
0.0
  0
LWPOLYLINE
  5
1FEB
330
1F
100
AcDbEntity
  8
3
100
AcDbPolyline
 90
       16
 70
   128
 43
0.0
 10
40.0
 20
-8.5
 10
39.83303707959999
 20
-8.201767431699991
 10
39.7287168155
 20
-8.011560336900004
 10
39.60600818449997
 20
-7.783667200399987
 10
39.30444480839998
 20
-7.201884564199999
 10
39.13061516669997
 20
-6.850130289899992
 10
38.9319499688
 20
-6.430336688999986
 10
38.51192754859999
 20
-5.460969335099988
 10
38.3000661805
 20
-4.913426544099991
 10
38.08454584929997
 20
-4.295967886699997
 10
37.88334987399997
 20
-3.637403466099995
 10
37.70119720399997
 20
-2.927526330199995
 10
37.54994394759997
 20
-2.179700228699985
 10
37.46938293369999
 20
-1.653937951499982
 10
37.37195371979999
 20
-0.5614613480999822
 10
37.35920709429999
 20
0.0
  0
ENDSEC
  0
SECTION
  2
OBJECTS
  0
DICTIONARY
  5
C
330
0
100
AcDbDictionary
281
     1
  3
ACAD_GROUP
350
D
  3
ACAD_LAYOUT
350
1A
  3
ACAD_MLINESTYLE
350
17
  3
ACAD_PLOTSETTINGS
350
19
  3
ACAD_PLOTSTYLENAME
350
E
  3
AcDbVariableDictionary
350
65A
  0
DICTIONARY
  5
662
330
2
100
AcDbDictionary
280
     1
281
     1
  3
ACAD_LAYERSTATES
360
663
  0
DICTIONARY
  5
D
102
{ACAD_REACTORS
330
C
102
}
330
C
100
AcDbDictionary
281
     1
  0
DICTIONARY
  5
1A
102
{ACAD_REACTORS
330
C
102
}
330
C
100
AcDbDictionary
281
     1
  3
Layout1
350
1E
  3
Layout2
350
26
  3
Model
350
22
  0
DICTIONARY
  5
17
102
{ACAD_REACTORS
330
C
102
}
330
C
100
AcDbDictionary
281
     1
  3
Standard
350
18
  0
DICTIONARY
  5
19
102
{ACAD_REACTORS
330
C
102
}
330
C
100
AcDbDictionary
281
     1
  0
ACDBDICTIONARYWDFLT
  5
E
102
{ACAD_REACTORS
330
C
102
}
330
C
100
AcDbDictionary
281
     1
  3
Normal
350
F
100
AcDbDictionaryWithDefault
340
F
  0
DICTIONARY
  5
65A
102
{ACAD_REACTORS
330
C
102
}
330
C
100
AcDbDictionary
281
     1
  3
DIMASSOC
350
65B
  0
DICTIONARY
  5
663
102
{ACAD_REACTORS
330
662
102
}
330
662
100
AcDbDictionary
281
     1
  0
LAYOUT
  5
1E
102
{ACAD_REACTORS
330
1A
102
}
330
1A
100
AcDbPlotSettings
  1

  2

  4

  6

 40
0.0
 41
0.0
 42
0.0
 43
0.0
 44
0.0
 45
0.0
 46
0.0
 47
0.0
 48
0.0
 49
0.0
140
0.0
141
0.0
142
1.0
143
1.0
 70
   688
 72
     0
 73
     0
 74
     5
  7

 75
    16
147
1.0
148
0.0
149
0.0
100
AcDbLayout
  1
Layout1
 70
     1
 71
     1
 10
0.0
 20
0.0
 11
420.0
 21
297.0
 12
0.0
 22
0.0
 32
0.0
 14
1.000000000000000E+20
 24
1.000000000000000E+20
 34
1.000000000000000E+20
 15
-1.000000000000000E+20
 25
-1.000000000000000E+20
 35
-1.000000000000000E+20
146
0.0
 13
0.0
 23
0.0
 33
0.0
 16
1.0
 26
0.0
 36
0.0
 17
0.0
 27
1.0
 37
0.0
 76
     0
330
1B
  0
LAYOUT
  5
26
102
{ACAD_REACTORS
330
1A
102
}
330
1A
100
AcDbPlotSettings
  1

  2

  4

  6

 40
0.0
 41
0.0
 42
0.0
 43
0.0
 44
0.0
 45
0.0
 46
0.0
 47
0.0
 48
0.0
 49
0.0
140
0.0
141
0.0
142
1.0
143
1.0
 70
   688
 72
     0
 73
     0
 74
     5
  7

 75
    16
147
1.0
148
0.0
149
0.0
100
AcDbLayout
  1
Layout2
 70
     1
 71
     2
 10
0.0
 20
0.0
 11
0.0
 21
0.0
 12
0.0
 22
0.0
 32
0.0
 14
0.0
 24
0.0
 34
0.0
 15
0.0
 25
0.0
 35
0.0
146
0.0
 13
0.0
 23
0.0
 33
0.0
 16
1.0
 26
0.0
 36
0.0
 17
0.0
 27
1.0
 37
0.0
 76
     0
330
23
  0
LAYOUT
  5
22
102
{ACAD_REACTORS
330
1A
102
}
330
1A
100
AcDbPlotSettings
  1

  2

  4

  6

 40
0.0
 41
0.0
 42
0.0
 43
0.0
 44
0.0
 45
0.0
 46
0.0
 47
0.0
 48
0.0
 49
0.0
140
0.0
141
0.0
142
1.0
143
1.0
 70
  1712
 72
     0
 73
     0
 74
     0
  7

 75
     0
147
1.0
148
0.0
149
0.0
100
AcDbLayout
  1
Model
 70
     1
 71
     0
 10
0.0
 20
0.0
 11
0.0
 21
0.0
 12
0.0
 22
0.0
 32
0.0
 14
0.0
 24
0.0
 34
0.0
 15
297.0
 25
210.0
 35
0.0
146
0.0
 13
0.0
 23
0.0
 33
0.0
 16
1.0
 26
0.0
 36
0.0
 17
0.0
 27
1.0
 37
0.0
 76
     0
330
1F
  0
MLINESTYLE
  5
18
102
{ACAD_REACTORS
330
17
102
}
330
17
100
AcDbMlineStyle
  2
STANDARD
 70
     0
  3

 62
   256
 51
90.0
 52
90.0
 71
     2
 49
0.5
 62
   256
  6
BYLAYER
 49
-0.5
 62
   256
  6
BYLAYER
  0
ACDBPLACEHOLDER
  5
F
102
{ACAD_REACTORS
330
E
102
}
330
E
  0
DICTIONARYVAR
  5
65B
102
{ACAD_REACTORS
330
65A
102
}
330
65A
100
DictionaryVariables
280
     0
  1
1
  0
ENDSEC
  0
EOF
