  0
SECTION
  2
HEADER
  9
$ACADVER
  1
AC1015
  9
$ACADMAINTVER
 70
    13
  9
$DWGCODEPAGE
  3
ANSI_1252
  9
$INSBASE
 10
0.0
 20
0.0
 30
0.0
  9
$EXTMIN
 10
-55.06961078651807
 20
-74.91685169102948
 30
-0.0000000000000058
  9
$EXTMAX
 10
96.01921594810107
 20
55.29821451015664
 30
0.0000000000000104
  9
$LIMMIN
 10
0.0
 20
0.0
  9
$LIMMAX
 10
420.0
 20
297.0
  9
$ORTHOMODE
 70
     0
  9
$REGENMODE
 70
     1
  9
$FILLMODE
 70
     1
  9
$QTEXTMODE
 70
     0
  9
$MIRRTEXT
 70
     1
  9
$LTSCALE
 40
1.0
  9
$ATTMODE
 70
     1
  9
$TEXTSIZE
 40
2.5
  9
$TRACEWID
 40
1.0
  9
$TEXTSTYLE
  7
STANDARD
  9
$CLAYER
  8
5
  9
$CELTYPE
  6
ByLayer
  9
$CECOLOR
 62
   256
  9
$CELTSCALE
 40
1.0
  9
$DISPSILH
 70
     0
  9
$DIMSCALE
 40
1.0
  9
$DIMASZ
 40
3.0
  9
$DIMEXO
 40
0.0
  9
$DIMDLI
 40
3.75
  9
$DIMRND
 40
0.0
  9
$DIMDLE
 40
0.0
  9
$DIMEXE
 40
1.0
  9
$DIMTP
 40
0.0
  9
$DIMTM
 40
0.0
  9
$DIMTXT
 40
2.0
  9
$DIMCEN
 40
2.5
  9
$DIMTSZ
 40
0.0
  9
$DIMTOL
 70
     0
  9
$DIMLIM
 70
     0
  9
$DIMTIH
 70
     1
  9
$DIMTOH
 70
     1
  9
$DIMSE1
 70
     0
  9
$DIMSE2
 70
     0
  9
$DIMTAD
 70
     1
  9
$DIMZIN
 70
     0
  9
$DIMBLK
  1

  9
$DIMASO
 70
     1
  9
$DIMSHO
 70
     1
  9
$DIMPOST
  1

  9
$DIMAPOST
  1

  9
$DIMALT
 70
     0
  9
$DIMALTD
 70
     3
  9
$DIMALTF
 40
0.0394
  9
$DIMLFAC
 40
1.0
  9
$DIMTOFL
 70
     1
  9
$DIMTVP
 40
0.0
  9
$DIMTIX
 70
     0
  9
$DIMSOXD
 70
     0
  9
$DIMSAH
 70
     0
  9
$DIMBLK1
  1

  9
$DIMBLK2
  1

  9
$DIMSTYLE
  2
ISO-25
  9
$DIMCLRD
 70
     0
  9
$DIMCLRE
 70
     0
  9
$DIMCLRT
 70
     0
  9
$DIMTFAC
 40
1.0
  9
$DIMGAP
 40
1.524
  9
$DIMJUST
 70
     0
  9
$DIMSD1
 70
     0
  9
$DIMSD2
 70
     0
  9
$DIMTOLJ
 70
     0
  9
$DIMTZIN
 70
     0
  9
$DIMALTZ
 70
     0
  9
$DIMALTTZ
 70
     0
  9
$DIMUPT
 70
     0
  9
$DIMDEC
 70
     2
  9
$DIMTDEC
 70
     2
  9
$DIMALTU
 70
     2
  9
$DIMALTTD
 70
     3
  9
$DIMTXSTY
  7
STANDARD
  9
$DIMAUNIT
 70
     0
  9
$DIMADEC
 70
     0
  9
$DIMALTRND
 40
0.0
  9
$DIMAZIN
 70
     0
  9
$DIMDSEP
 70
    44
  9
$DIMATFIT
 70
     3
  9
$DIMFRAC
 70
     0
  9
$DIMLDRBLK
  1

  9
$DIMLUNIT
 70
     2
  9
$DIMLWD
 70
    -2
  9
$DIMLWE
 70
    -2
  9
$DIMTMOVE
 70
     0
  9
$LUNITS
 70
     2
  9
$LUPREC
 70
     2
  9
$SKETCHINC
 40
1.0
  9
$FILLETRAD
 40
10.0
  9
$AUNITS
 70
     0
  9
$AUPREC
 70
     0
  9
$MENU
  1
.
  9
$ELEVATION
 40
0.0
  9
$PELEVATION
 40
0.0
  9
$THICKNESS
 40
0.0
  9
$LIMCHECK
 70
     0
  9
$CHAMFERA
 40
10.0
  9
$CHAMFERB
 40
10.0
  9
$CHAMFERC
 40
20.0
  9
$CHAMFERD
 40
0.0
  9
$SKPOLY
 70
     0
  9
$TDCREATE
 40
2454378.417631666
  9
$TDUCREATE
 40
2454378.375965000
  9
$TDUPDATE
 40
2454498.330775752
  9
$TDUUPDATE
 40
2454498.289109086
  9
$TDINDWG
 40
0.1669514931
  9
$TDUSRTIMER
 40
0.1669511343
  9
$USRTIMER
 70
     1
  9
$ANGBASE
 50
0.0
  9
$ANGDIR
 70
     0
  9
$PDMODE
 70
     0
  9
$PDSIZE
 40
-1.0
  9
$PLINEWID
 40
0.0
  9
$SPLFRAME
 70
     0
  9
$SPLINETYPE
 70
     6
  9
$SPLINESEGS
 70
     8
  9
$HANDSEED
  5
19BE
  9
$SURFTAB1
 70
     6
  9
$SURFTAB2
 70
     6
  9
$SURFTYPE
 70
     6
  9
$SURFU
 70
     6
  9
$SURFV
 70
     6
  9
$UCSBASE
  2

  9
$UCSNAME
  2

  9
$UCSORG
 10
0.0
 20
0.0
 30
0.0
  9
$UCSXDIR
 10
1.0
 20
0.0
 30
0.0
  9
$UCSYDIR
 10
0.0
 20
1.0
 30
0.0
  9
$UCSORTHOREF
  2

  9
$UCSORTHOVIEW
 70
     0
  9
$UCSORGTOP
 10
0.0
 20
0.0
 30
0.0
  9
$UCSORGBOTTOM
 10
0.0
 20
0.0
 30
0.0
  9
$UCSORGLEFT
 10
0.0
 20
0.0
 30
0.0
  9
$UCSORGRIGHT
 10
0.0
 20
0.0
 30
0.0
  9
$UCSORGFRONT
 10
0.0
 20
0.0
 30
0.0
  9
$UCSORGBACK
 10
0.0
 20
0.0
 30
0.0
  9
$PUCSBASE
  2

  9
$PUCSNAME
  2

  9
$PUCSORG
 10
0.0
 20
0.0
 30
0.0
  9
$PUCSXDIR
 10
1.0
 20
0.0
 30
0.0
  9
$PUCSYDIR
 10
0.0
 20
1.0
 30
0.0
  9
$PUCSORTHOREF
  2

  9
$PUCSORTHOVIEW
 70
     0
  9
$PUCSORGTOP
 10
0.0
 20
0.0
 30
0.0
  9
$PUCSORGBOTTOM
 10
0.0
 20
0.0
 30
0.0
  9
$PUCSORGLEFT
 10
0.0
 20
0.0
 30
0.0
  9
$PUCSORGRIGHT
 10
0.0
 20
0.0
 30
0.0
  9
$PUCSORGFRONT
 10
0.0
 20
0.0
 30
0.0
  9
$PUCSORGBACK
 10
0.0
 20
0.0
 30
0.0
  9
$USERI1
 70
     0
  9
$USERI2
 70
     0
  9
$USERI3
 70
     0
  9
$USERI4
 70
     0
  9
$USERI5
 70
     0
  9
$USERR1
 40
0.0
  9
$USERR2
 40
0.0
  9
$USERR3
 40
0.0
  9
$USERR4
 40
0.0
  9
$USERR5
 40
0.0
  9
$WORLDVIEW
 70
     1
  9
$SHADEDGE
 70
     3
  9
$SHADEDIF
 70
    70
  9
$TILEMODE
 70
     1
  9
$MAXACTVP
 70
    64
  9
$PINSBASE
 10
0.0
 20
0.0
 30
0.0
  9
$PLIMCHECK
 70
     0
  9
$PEXTMIN
 10
1.000000000000000E+20
 20
1.000000000000000E+20
 30
1.000000000000000E+20
  9
$PEXTMAX
 10
-1.000000000000000E+20
 20
-1.000000000000000E+20
 30
-1.000000000000000E+20
  9
$PLIMMIN
 10
0.0
 20
0.0
  9
$PLIMMAX
 10
420.0
 20
297.0
  9
$UNITMODE
 70
     0
  9
$VISRETAIN
 70
     1
  9
$PLINEGEN
 70
     0
  9
$PSLTSCALE
 70
     1
  9
$TREEDEPTH
 70
  3020
  9
$CMLSTYLE
  2
Standard
  9
$CMLJUST
 70
     0
  9
$CMLSCALE
 40
20.0
  9
$PROXYGRAPHICS
 70
     1
  9
$MEASUREMENT
 70
     1
  9
$CELWEIGHT
370
    -1
  9
$ENDCAPS
280
     0
  9
$JOINSTYLE
280
     0
  9
$LWDISPLAY
290
     1
  9
$INSUNITS
 70
     4
  9
$HYPERLINKBASE
  1

  9
$STYLESHEET
  1

  9
$XEDIT
290
     1
  9
$CEPSNTYPE
380
     0
  9
$PSTYLEMODE
290
     1
  9
$FINGERPRINTGUID
  2
{B670D01D-4751-421D-9EC6-3FC415A30308}
  9
$VERSIONGUID
  2
{E76C5BE8-3289-4E7C-9FA8-88EB9CE95856}
  9
$EXTNAMES
290
     1
  9
$PSVPSCALE
 40
0.0
  9
$OLESTARTUP
290
     0
  0
ENDSEC
  0
SECTION
  2
CLASSES
  0
CLASS
  1
ACDBDICTIONARYWDFLT
  2
AcDbDictionaryWithDefault
  3
AutoCAD 2000
 90
        0
280
     0
281
     0
  0
CLASS
  1
ACDBPLACEHOLDER
  2
AcDbPlaceHolder
  3
AutoCAD 2000
 90
        0
280
     0
281
     0
  0
CLASS
  1
LAYOUT
  2
AcDbLayout
  3
AutoCAD 2000
 90
        0
280
     0
281
     0
  0
CLASS
  1
DICTIONARYVAR
  2
AcDbDictionaryVar
  3
AutoCAD 2000
 90
        0
280
     0
281
     0
  0
ENDSEC
  0
SECTION
  2
TABLES
  0
TABLE
  2
VPORT
  5
8
330
0
100
AcDbSymbolTable
 70
     5
  0
VPORT
  5
19BD
330
8
100
AcDbSymbolTableRecord
100
AcDbViewportTableRecord
  2
*Active
 70
     0
 10
0.0
 20
0.0
 11
1.0
 21
1.0
 12
-69.82469706490849
 22
-77.31241562863641
 13
0.0
 23
0.0
 14
10.0
 24
10.0
 15
10.0
 25
10.0
 16
0.0
 26
0.0
 36
1.0
 17
90.29949964569999
 27
67.5030970382
 37
0.0
 40
131.2027911028386
 41
1.558227848101265
 42
50.0
 43
0.0
 44
0.0
 50
0.0
 51
0.0
 71
     0
 72
  2000
 73
     1
 74
     3
 75
     0
 76
     0
 77
     0
 78
     0
281
     0
 65
     1
110
0.0
120
0.0
130
0.0
111
1.0
121
0.0
131
0.0
112
0.0
122
1.0
132
0.0
 79
     0
146
0.0
  0
ENDTAB
  0
TABLE
  2
LTYPE
  5
5
330
0
100
AcDbSymbolTable
 70
    10
  0
LTYPE
  5
14
330
5
100
AcDbSymbolTableRecord
100
AcDbLinetypeTableRecord
  2
ByBlock
 70
     0
  3

 72
    65
 73
     0
 40
0.0
  0
LTYPE
  5
15
330
5
100
AcDbSymbolTableRecord
100
AcDbLinetypeTableRecord
  2
ByLayer
 70
     0
  3

 72
    65
 73
     0
 40
0.0
  0
LTYPE
  5
16
330
5
100
AcDbSymbolTableRecord
100
AcDbLinetypeTableRecord
  2
Continuous
 70
     0
  3
Solid line
 72
    65
 73
     0
 40
0.0
  0
LTYPE
  5
2A
330
5
100
AcDbSymbolTableRecord
100
AcDbLinetypeTableRecord
  2
SLD-Durchgehend
 70
     0
  3
SolidWorks Line Style
 72
    65
 73
     0
 40
0.0
  0
LTYPE
  5
2B
330
5
100
AcDbSymbolTableRecord
100
AcDbLinetypeTableRecord
  2
SLD-Gestrichelt
 70
     0
  3
SolidWorks Line Style
 72
    65
 73
     2
 40
1.905
 49
1.27
 74
     0
 49
-0.635
 74
     0
  0
LTYPE
  5
2C
330
5
100
AcDbSymbolTableRecord
100
AcDbLinetypeTableRecord
  2
SLD-Phantom
 70
     0
  3
SolidWorks Line Style
 72
    65
 73
     6
 40
12.7
 49
6.349999999999997
 74
     0
 49
-1.27
 74
     0
 49
1.27
 74
     0
 49
-1.27
 74
     0
 49
1.27
 74
     0
 49
-1.27
 74
     0
  0
LTYPE
  5
2D
330
5
100
AcDbSymbolTableRecord
100
AcDbLinetypeTableRecord
  2
SLD-Kette
 70
     0
  3
SolidWorks Line Style
 72
    65
 73
     4
 40
10.16
 49
6.349999999999997
 74
     0
 49
-1.27
 74
     0
 49
1.27
 74
     0
 49
-1.27
 74
     0
  0
LTYPE
  5
2E
330
5
100
AcDbSymbolTableRecord
100
AcDbLinetypeTableRecord
  2
SLD-Punktstrich
 70
     0
  3
SolidWorks Line Style
 72
    65
 73
     4
 40
19.05
 49
15.24
 74
     0
 49
-1.27
 74
     0
 49
1.27
 74
     0
 49
-1.27
 74
     0
  0
LTYPE
  5
2F
330
5
100
AcDbSymbolTableRecord
100
AcDbLinetypeTableRecord
  2
SLD-Naht
 70
     0
  3
SolidWorks Line Style
 72
    65
 73
     2
 40
0.635
 49
0.0
 74
     0
 49
-0.635
 74
     0
  0
LTYPE
  5
30
330
5
100
AcDbSymbolTableRecord
100
AcDbLinetypeTableRecord
  2
SLD-Dicke-Dünne-Kette
 70
     0
  3
SolidWorks Line Style
 72
    65
 73
     4
 40
10.16
 49
6.349999999999997
 74
     0
 49
-1.27
 74
     0
 49
1.27
 74
     0
 49
-1.27
 74
     0
  0
LTYPE
  5
2D5
330
5
100
AcDbSymbolTableRecord
100
AcDbLinetypeTableRecord
  2
GEN3A
 70
     0
  3
 - - - - -
 72
    65
 73
     2
 40
3.1
 49
2.5
 74
     0
 49
-0.6
 74
     0
  0
LTYPE
  5
362
330
5
100
AcDbSymbolTableRecord
100
AcDbLinetypeTableRecord
  2
GEN7A
 70
     0
  3
__ . __ . __
 72
    65
 73
     4
 40
7.5
 49
5.0
 74
     0
 49
-1.25
 74
     0
 49
0.0
 74
     0
 49
-1.25
 74
     0
  0
ENDTAB
  0
TABLE
  2
LAYER
  5
2
102
{ACAD_XDICTIONARY
360
296
102
}
330
0
100
AcDbSymbolTable
 70
    15
  0
LAYER
  5
10
330
2
100
AcDbSymbolTableRecord
100
AcDbLayerTableRecord
  2
0
 70
     0
 62
     7
  6
Continuous
370
    -3
390
F
  0
LAYER
  5
31
330
2
100
AcDbSymbolTableRecord
100
AcDbLayerTableRecord
  2
FORMAT
 70
     0
 62
     7
  6
SLD-Durchgehend
370
     0
390
F
  0
LAYER
  5
32
330
2
100
AcDbSymbolTableRecord
100
AcDbLayerTableRecord
  2
VERMASSUNG
 70
     0
 62
     7
  6
SLD-Durchgehend
370
     0
390
F
  0
LAYER
  5
33
330
2
100
AcDbSymbolTableRecord
100
AcDbLayerTableRecord
  2
KOPF__DÜNN
 70
     0
 62
     7
  6
SLD-Durchgehend
370
     0
390
F
  0
LAYER
  5
34
330
2
100
AcDbSymbolTableRecord
100
AcDbLayerTableRecord
  2
KOPF__DICK
 70
     0
 62
     7
  6
SLD-Durchgehend
370
    15
390
F
  0
LAYER
  5
24C
330
2
100
AcDbSymbolTableRecord
100
AcDbLayerTableRecord
  2
Defpoints
 70
     0
 62
     7
  6
Continuous
290
     0
370
    -3
390
F
  0
LAYER
  5
293
330
2
100
AcDbSymbolTableRecord
100
AcDbLayerTableRecord
  2
5
 70
     0
 62
     7
  6
Continuous
370
    -3
390
F
  0
LAYER
  5
2D6
330
2
100
AcDbSymbolTableRecord
100
AcDbLayerTableRecord
  2
3
 70
     0
 62
     1
  6
GEN3A
370
    -3
390
F
  0
LAYER
  5
2D7
330
2
100
AcDbSymbolTableRecord
100
AcDbLayerTableRecord
  2
SK1
 70
     0
 62
     4
  6
Continuous
370
    -3
390
F
  0
LAYER
  5
2D8
330
2
100
AcDbSymbolTableRecord
100
AcDbLayerTableRecord
  2
SK3
 70
     0
 62
     1
  6
GEN3A
370
    -3
390
F
  0
LAYER
  5
35B
330
2
100
AcDbSymbolTableRecord
100
AcDbLayerTableRecord
  2
1
 70
     0
 62
     4
  6
Continuous
370
    -3
390
F
  0
LAYER
  5
361
330
2
100
AcDbSymbolTableRecord
100
AcDbLayerTableRecord
  2
SK4
 70
     0
 62
     2
  6
GEN7A
370
    -3
390
F
  0
LAYER
  5
363
330
2
100
AcDbSymbolTableRecord
100
AcDbLayerTableRecord
  2
4
 70
     0
 62
     2
  6
GEN7A
370
    -3
390
F
  0
LAYER
  5
365
330
2
100
AcDbSymbolTableRecord
100
AcDbLayerTableRecord
  2
2
 70
     0
 62
     7
  6
Continuous
370
    -3
390
F
  0
LAYER
  5
37C
330
2
100
AcDbSymbolTableRecord
100
AcDbLayerTableRecord
  2
SK2
 70
     0
 62
     7
  6
Continuous
370
    -3
390
F
  0
ENDTAB
  0
TABLE
  2
STYLE
  5
3
330
0
100
AcDbSymbolTable
 70
     3
  0
STYLE
  5
11
330
3
100
AcDbSymbolTableRecord
100
AcDbTextStyleTableRecord
  2
STANDARD
 70
     0
 40
0.0
 41
1.0
 50
0.0
 71
     0
 42
2.5
  3
ISOCPEUR.TTF
  4

1001
ACAD
1000
ISOCPEUR
1071
       34
  0
STYLE
  5
35
330
3
100
AcDbSymbolTableRecord
100
AcDbTextStyleTableRecord
  2
SLDTEXTSTYLE0
 70
     0
 40
0.0
 41
1.0
 50
0.0
 71
     0
 42
0.2
  3
ISOCPEUR.TTF
  4

1001
ACAD
1000
ISOCPEUR
1071
       34
  0
STYLE
  5
294
330
3
100
AcDbSymbolTableRecord
100
AcDbTextStyleTableRecord
  2
GENPRESET
 70
     0
 40
0.0
 41
1.0
 50
0.0
 71
     0
 42
3.5
  3
simplex.shx
  4

  0
ENDTAB
  0
TABLE
  2
VIEW
  5
6
330
0
100
AcDbSymbolTable
 70
     0
  0
ENDTAB
  0
TABLE
  2
UCS
  5
7
330
0
100
AcDbSymbolTable
 70
     0
  0
ENDTAB
  0
TABLE
  2
APPID
  5
9
330
0
100
AcDbSymbolTable
 70
     1
  0
APPID
  5
12
330
9
100
AcDbSymbolTableRecord
100
AcDbRegAppTableRecord
  2
ACAD
 70
     0
  0
ENDTAB
  0
TABLE
  2
DIMSTYLE
  5
A
330
0
100
AcDbSymbolTable
 70
     3
100
AcDbDimStyleTable
 71
     2
340
295
340
27
  0
DIMSTYLE
105
27
330
A
100
AcDbSymbolTableRecord
100
AcDbDimStyleTableRecord
  2
ISO-25
 70
     0
 41
2.5
 42
0.625
 43
3.75
 44
1.25
 73
     0
 74
     0
 77
     1
 78
     8
140
2.5
141
2.5
143
0.0393700787
147
0.625
171
     3
172
     1
271
     2
272
     2
274
     3
278
    44
283
     0
284
     8
340
11
  0
DIMSTYLE
105
259
330
A
100
AcDbSymbolTableRecord
100
AcDbDimStyleTableRecord
  2
SLDDIMSTYLE0
 70
     0
 41
3.0
 44
0.0
 73
     0
 74
     0
 77
     2
 78
    12
140
2.0
147
0.5
173
     1
271
     2
272
     3
284
    12
340
35
  0
DIMSTYLE
105
295
102
{ACAD_REACTORS
330
16CC
330
16D2
102
}
330
A
100
AcDbSymbolTableRecord
100
AcDbDimStyleTableRecord
  2
GEN-ISO_TDM
 70
     0
 41
4.57
 42
0.0
 43
8.0
 44
2.0
 47
0.1
 48
0.1
 73
     0
 74
     0
 77
     1
 78
     8
140
4.57
141
2.0
146
0.7
147
1.5
172
     1
178
     7
179
     1
271
     2
272
     2
284
     8
285
     8
286
     8
340
294
  0
ENDTAB
  0
TABLE
  2
BLOCK_RECORD
  5
1
330
0
100
AcDbSymbolTable
 70
    38
  0
BLOCK_RECORD
  5
1F
330
1
100
AcDbSymbolTableRecord
100
AcDbBlockTableRecord
  2
*Model_Space
340
22
  0
BLOCK_RECORD
  5
1B
330
1
100
AcDbSymbolTableRecord
100
AcDbBlockTableRecord
  2
*Paper_Space
340
1E
  0
BLOCK_RECORD
  5
23
330
1
100
AcDbSymbolTableRecord
100
AcDbBlockTableRecord
  2
*Paper_Space0
340
26
  0
BLOCK_RECORD
  5
24D
330
1
100
AcDbSymbolTableRecord
100
AcDbBlockTableRecord
  2
*D1
340
0
  0
BLOCK_RECORD
  5
261
330
1
100
AcDbSymbolTableRecord
100
AcDbBlockTableRecord
  2
*D2
340
0
  0
BLOCK_RECORD
  5
274
330
1
100
AcDbSymbolTableRecord
100
AcDbBlockTableRecord
  2
*D3
340
0
  0
BLOCK_RECORD
  5
398
330
1
100
AcDbSymbolTableRecord
100
AcDbBlockTableRecord
  2
*D4
340
0
  0
BLOCK_RECORD
  5
3A2
330
1
100
AcDbSymbolTableRecord
100
AcDbBlockTableRecord
  2
_None
340
0
  0
BLOCK_RECORD
  5
435
330
1
100
AcDbSymbolTableRecord
100
AcDbBlockTableRecord
  2
*D6
340
0
  0
BLOCK_RECORD
  5
48A
330
1
100
AcDbSymbolTableRecord
100
AcDbBlockTableRecord
  2
*D7
340
0
  0
BLOCK_RECORD
  5
496
330
1
100
AcDbSymbolTableRecord
100
AcDbBlockTableRecord
  2
*D8
340
0
  0
BLOCK_RECORD
  5
4A2
330
1
100
AcDbSymbolTableRecord
100
AcDbBlockTableRecord
  2
*D9
340
0
  0
BLOCK_RECORD
  5
4AE
330
1
100
AcDbSymbolTableRecord
100
AcDbBlockTableRecord
  2
SW_CENTERMARKSYMBOL_0
340
0
102
{BLKREFS
331
539
331
772
331
1531
331
175B
102
}
  0
BLOCK_RECORD
  5
929
330
1
100
AcDbSymbolTableRecord
100
AcDbBlockTableRecord
  2
*D11
340
0
  0
BLOCK_RECORD
  5
935
330
1
100
AcDbSymbolTableRecord
100
AcDbBlockTableRecord
  2
*D12
340
0
  0
BLOCK_RECORD
  5
941
330
1
100
AcDbSymbolTableRecord
100
AcDbBlockTableRecord
  2
*D13
340
0
  0
BLOCK_RECORD
  5
968
330
1
100
AcDbSymbolTableRecord
100
AcDbBlockTableRecord
  2
*D14
340
0
  0
BLOCK_RECORD
  5
9F0
330
1
100
AcDbSymbolTableRecord
100
AcDbBlockTableRecord
  2
*D15
340
0
  0
BLOCK_RECORD
  5
A2A
330
1
100
AcDbSymbolTableRecord
100
AcDbBlockTableRecord
  2
*D16
340
0
  0
BLOCK_RECORD
  5
A33
330
1
100
AcDbSymbolTableRecord
100
AcDbBlockTableRecord
  2
*D17
340
0
  0
BLOCK_RECORD
  5
A3C
330
1
100
AcDbSymbolTableRecord
100
AcDbBlockTableRecord
  2
*D18
340
0
  0
BLOCK_RECORD
  5
E05
330
1
100
AcDbSymbolTableRecord
100
AcDbBlockTableRecord
  2
*D19
340
0
  0
BLOCK_RECORD
  5
E11
330
1
100
AcDbSymbolTableRecord
100
AcDbBlockTableRecord
  2
*D20
340
0
  0
BLOCK_RECORD
  5
E1D
330
1
100
AcDbSymbolTableRecord
100
AcDbBlockTableRecord
  2
*D21
340
0
  0
BLOCK_RECORD
  5
E57
330
1
100
AcDbSymbolTableRecord
100
AcDbBlockTableRecord
  2
A$C2CBA1DD3
340
0
102
{BLKREFS
331
E94
102
}
  0
BLOCK_RECORD
  5
EEC
330
1
100
AcDbSymbolTableRecord
100
AcDbBlockTableRecord
  2
*D23
340
0
  0
BLOCK_RECORD
  5
EF7
330
1
100
AcDbSymbolTableRecord
100
AcDbBlockTableRecord
  2
*D24
340
0
  0
BLOCK_RECORD
  5
F00
330
1
100
AcDbSymbolTableRecord
100
AcDbBlockTableRecord
  2
*D25
340
0
  0
BLOCK_RECORD
  5
1375
330
1
100
AcDbSymbolTableRecord
100
AcDbBlockTableRecord
  2
*D26
340
0
  0
BLOCK_RECORD
  5
1381
330
1
100
AcDbSymbolTableRecord
100
AcDbBlockTableRecord
  2
*D27
340
0
  0
BLOCK_RECORD
  5
138D
330
1
100
AcDbSymbolTableRecord
100
AcDbBlockTableRecord
  2
*D28
340
0
  0
BLOCK_RECORD
  5
1462
330
1
100
AcDbSymbolTableRecord
100
AcDbBlockTableRecord
  2
*D29
340
0
  0
BLOCK_RECORD
  5
146E
330
1
100
AcDbSymbolTableRecord
100
AcDbBlockTableRecord
  2
*D30
340
0
  0
BLOCK_RECORD
  5
147A
330
1
100
AcDbSymbolTableRecord
100
AcDbBlockTableRecord
  2
*D31
340
0
  0
BLOCK_RECORD
  5
18D8
330
1
100
AcDbSymbolTableRecord
100
AcDbBlockTableRecord
  2
*D33
340
0
  0
BLOCK_RECORD
  5
18E4
330
1
100
AcDbSymbolTableRecord
100
AcDbBlockTableRecord
  2
*D34
340
0
  0
BLOCK_RECORD
  5
18F0
330
1
100
AcDbSymbolTableRecord
100
AcDbBlockTableRecord
  2
*D35
340
0
  0
ENDTAB
  0
ENDSEC
  0
SECTION
  2
BLOCKS
  0
BLOCK
  5
20
330
1F
100
AcDbEntity
  8
0
100
AcDbBlockBegin
  2
*Model_Space
 70
     0
 10
0.0
 20
0.0
 30
0.0
  3
*Model_Space
  1

  0
ENDBLK
  5
21
330
1F
100
AcDbEntity
  8
0
100
AcDbBlockEnd
  0
BLOCK
  5
1C
330
1B
100
AcDbEntity
 67
     1
  8
0
100
AcDbBlockBegin
  2
*Paper_Space
 70
     0
 10
0.0
 20
0.0
 30
0.0
  3
*Paper_Space
  1

  0
ENDBLK
  5
1D
330
1B
100
AcDbEntity
 67
     1
  8
0
100
AcDbBlockEnd
  0
BLOCK
  5
24
330
23
100
AcDbEntity
  8
0
100
AcDbBlockBegin
  2
*Paper_Space0
 70
     0
 10
0.0
 20
0.0
 30
0.0
  3
*Paper_Space0
  1

  0
ENDBLK
  5
25
330
23
100
AcDbEntity
  8
0
100
AcDbBlockEnd
  0
BLOCK
  5
257
330
24D
100
AcDbEntity
  8
0
100
AcDbBlockBegin
  2
*D1
 70
     1
 10
0.0
 20
0.0
 30
0.0
  3
*D1
  1

  0
LINE
  5
478
330
24D
100
AcDbEntity
  8
2
 62
     0
370
    -2
100
AcDbLine
 10
-87.0244716539276
 20
-26.41566902687695
 30
0.0
 11
-87.0244716539276
 21
-17.72363367612226
 31
0.0
  0
LINE
  5
479
330
24D
100
AcDbEntity
  8
2
 62
     0
370
    -2
100
AcDbLine
 10
-51.0244716539276
 20
-32.39092980467695
 30
0.0
 11
-51.0244716539276
 21
-17.72363367612226
 31
0.0
  0
LINE
  5
47A
330
24D
100
AcDbEntity
  8
2
 62
     0
370
    -2
100
AcDbLine
 10
-82.45447165392761
 20
-19.72363367612226
 30
0.0
 11
-55.59447165392761
 21
-19.72363367612226
 31
0.0
  0
SOLID
  5
47B
330
24D
100
AcDbEntity
  8
2
 62
     0
100
AcDbTrace
 10
-82.45447165392761
 20
-18.96196700945559
 30
0.0
 11
-82.45447165392761
 21
-20.48530034278893
 31
0.0
 12
-87.0244716539276
 22
-19.72363367612226
 32
0.0
 13
-87.0244716539276
 23
-19.72363367612226
 33
0.0
  0
SOLID
  5
47C
330
24D
100
AcDbEntity
  8
2
 62
     0
100
AcDbTrace
 10
-55.59447165392761
 20
-18.96196700945559
 30
0.0
 11
-55.59447165392761
 21
-20.48530034278893
 31
0.0
 12
-51.0244716539276
 22
-19.72363367612226
 32
0.0
 13
-51.0244716539276
 23
-19.72363367612226
 33
0.0
  0
MTEXT
  5
47D
330
24D
100
AcDbEntity
  8
2
 62
     7
100
AcDbMText
 10
-69.02447165392761
 20
-15.93863367612225
 30
0.0
 40
4.57
 41
0.0
 71
     5
 72
     1
  1
\A1;36
  7
GENPRESET
 73
     1
 44
1.0
  0
POINT
  5
47E
330
24D
100
AcDbEntity
  8
Defpoints
 62
     0
100
AcDbPoint
 10
-87.0244716539276
 20
-26.41566902687695
 30
0.0
  0
POINT
  5
47F
330
24D
100
AcDbEntity
  8
Defpoints
 62
     0
100
AcDbPoint
 10
-51.0244716539276
 20
-32.39092980467695
 30
0.0
  0
POINT
  5
480
330
24D
100
AcDbEntity
  8
Defpoints
 62
     0
100
AcDbPoint
 10
-51.0244716539276
 20
-19.72363367612226
 30
0.0
  0
ENDBLK
  5
258
330
24D
100
AcDbEntity
  8
0
100
AcDbBlockEnd
  0
BLOCK
  5
26B
330
261
100
AcDbEntity
  8
0
100
AcDbBlockBegin
  2
*D2
 70
     1
 10
0.0
 20
0.0
 30
0.0
  3
*D2
  1

  0
LINE
  5
2BA
330
261
100
AcDbEntity
  8
VERMASSUNG
 62
     0
370
    -2
100
AcDbLine
 10
0.0
 20
9.799999999999997
 30
0.0
 11
0.0000000000000003
 21
15.42960572859999
 31
0.0
  0
LINE
  5
2BB
330
261
100
AcDbEntity
  8
VERMASSUNG
 62
     0
370
    -2
100
AcDbLine
 10
26.5
 20
8.074677142099986
 30
0.0
 11
26.5
 21
15.42960572859999
 31
0.0
  0
LINE
  5
2BC
330
261
100
AcDbEntity
  8
VERMASSUNG
 62
     0
370
    -2
100
AcDbLine
 10
3.0
 20
14.42960572859997
 30
0.0
 11
23.5
 21
14.42960572859997
 31
0.0
  0
SOLID
  5
2BD
330
261
100
AcDbEntity
  8
VERMASSUNG
 62
     0
100
AcDbTrace
 10
3.0
 20
14.92960572859999
 30
0.0
 11
3.0
 21
13.92960572859998
 31
0.0
 12
0.0000000000000003
 22
14.42960572859997
 32
0.0
 13
0.0000000000000003
 23
14.42960572859997
 33
0.0
  0
SOLID
  5
2BE
330
261
100
AcDbEntity
  8
VERMASSUNG
 62
     0
100
AcDbTrace
 10
23.5
 20
14.92960572859999
 30
0.0
 11
23.5
 21
13.92960572859998
 31
0.0
 12
26.5
 22
14.42960572859997
 32
0.0
 13
26.5
 23
14.42960572859997
 33
0.0
  0
MTEXT
  5
2BF
330
261
100
AcDbEntity
  8
VERMASSUNG
 62
     0
100
AcDbMText
 10
10.34999999999999
 20
17.95360572859999
 30
0.0
 40
2.0
 41
0.0
 71
     1
 72
     1
  1
\A1;26.50
  7
SLDTEXTSTYLE0
 73
     1
 44
1.0
  0
POINT
  5
2C0
330
261
100
AcDbEntity
  8
Defpoints
 62
     0
100
AcDbPoint
 10
0.0
 20
9.799999999999997
 30
0.0
  0
POINT
  5
2C1
330
261
100
AcDbEntity
  8
Defpoints
 62
     0
100
AcDbPoint
 10
26.5
 20
8.074677142099986
 30
0.0
  0
POINT
  5
2C2
330
261
100
AcDbEntity
  8
Defpoints
 62
     0
100
AcDbPoint
 10
26.5
 20
14.42960572859997
 30
0.0
  0
ENDBLK
  5
26C
330
261
100
AcDbEntity
  8
0
100
AcDbBlockEnd
  0
BLOCK
  5
27F
330
274
100
AcDbEntity
  8
0
100
AcDbBlockBegin
  2
*D3
 70
     1
 10
0.0
 20
0.0
 30
0.0
  3
*D3
  1

  0
LINE
  5
481
330
274
100
AcDbEntity
  8
SK2
 62
     0
370
    -2
100
AcDbLine
 10
-86.82447165392764
 20
-26.21566902687694
 30
0.0
 11
-104.5256577309275
 21
-26.21566902687694
 31
0.0
  0
LINE
  5
482
330
274
100
AcDbEntity
  8
SK2
 62
     0
370
    -2
100
AcDbLine
 10
-86.82447165392764
 20
-46.21566902687695
 30
0.0
 11
-104.5256577309276
 21
-46.21566902687695
 31
0.0
  0
LINE
  5
483
330
274
100
AcDbEntity
  8
SK2
 62
     0
370
    -2
100
AcDbLine
 10
-102.5256577309274
 20
-30.78566902687695
 30
0.0
 11
-102.5256577309276
 21
-41.64566902687695
 31
0.0
  0
SOLID
  5
484
330
274
100
AcDbEntity
  8
SK2
 62
     0
100
AcDbTrace
 10
-103.2873243975942
 20
-30.78566902687695
 30
0.0
 11
-101.7639910642609
 21
-30.78566902687695
 31
0.0
 12
-102.5256577309274
 22
-26.21566902687694
 32
0.0
 13
-102.5256577309274
 23
-26.21566902687694
 33
0.0
  0
SOLID
  5
485
330
274
100
AcDbEntity
  8
SK2
 62
     0
100
AcDbTrace
 10
-103.2873243975942
 20
-41.64566902687695
 30
0.0
 11
-101.7639910642609
 21
-41.64566902687695
 31
0.0
 12
-102.5256577309276
 22
-46.21566902687695
 32
0.0
 13
-102.5256577309276
 23
-46.21566902687695
 33
0.0
  0
MTEXT
  5
486
330
274
100
AcDbEntity
  8
SK2
 62
     7
100
AcDbMText
 10
-106.3106577309274
 20
-36.21566902687696
 30
0.0
 40
4.57
 41
0.0
 71
     5
 72
     1
  1
\A1;MBM %%c20
  7
GENPRESET
 11
0.0000000000000001
 21
1.0
 31
0.0
 73
     1
 44
1.0
  0
POINT
  5
487
330
274
100
AcDbEntity
  8
Defpoints
 62
     0
100
AcDbPoint
 10
-86.82447165392764
 20
-26.21566902687694
 30
0.0
  0
POINT
  5
488
330
274
100
AcDbEntity
  8
Defpoints
 62
     0
100
AcDbPoint
 10
-86.82447165392764
 20
-46.21566902687695
 30
0.0
  0
POINT
  5
489
330
274
100
AcDbEntity
  8
Defpoints
 62
     0
100
AcDbPoint
 10
-102.5256577309276
 20
-46.21566902687695
 30
0.0
  0
ENDBLK
  5
280
330
274
100
AcDbEntity
  8
0
100
AcDbBlockEnd
  0
BLOCK
  5
3A0
330
398
100
AcDbEntity
  8
0
100
AcDbBlockBegin
  2
*D4
 70
     1
 10
0.0
 20
0.0
 30
0.0
  3
*D4
  1

  0
LINE
  5
399
330
398
100
AcDbEntity
  8
SK2
 62
     0
370
    -2
100
AcDbLine
 10
13.49994397087499
 20
11.95
 30
0.0
 11
24.04200736209938
 21
11.94999999999999
 31
0.0
  0
LINE
  5
39A
330
398
100
AcDbEntity
  8
SK2
 62
     0
370
    -2
100
AcDbLine
 10
22.04200736209938
 20
7.379999999999997
 30
0.0
 11
22.04200736209937
 21
-11.94999999999999
 31
0.0
  0
SOLID
  5
39B
330
398
100
AcDbEntity
  8
SK2
 62
     0
100
AcDbTrace
 10
21.28034069543271
 20
7.379999999999997
 30
0.0
 11
22.80367402876604
 21
7.379999999999997
 31
0.0
 12
22.04200736209938
 22
11.94999999999999
 32
0.0
 13
22.04200736209938
 23
11.94999999999999
 33
0.0
  0
MTEXT
  5
39C
330
398
100
AcDbEntity
  8
SK2
 62
     7
100
AcDbMText
 10
18.25700736209937
 20
-2.284999999999993
 30
0.0
 40
4.57
 41
0.0
 71
     5
 72
     1
  1
\A1;ø23.9-31.1
  7
GENPRESET
 11
0.0000000000000001
 21
1.0
 31
0.0
 73
     1
 44
1.0
  0
POINT
  5
39D
330
398
100
AcDbEntity
  8
Defpoints
 62
     0
100
AcDbPoint
 10
13.49994397087499
 20
11.95
 30
0.0
  0
POINT
  5
39E
330
398
100
AcDbEntity
  8
Defpoints
 62
     0
100
AcDbPoint
 10
13.49994397087499
 20
-11.94999999999999
 30
0.0
  0
POINT
  5
39F
330
398
100
AcDbEntity
  8
Defpoints
 62
     0
100
AcDbPoint
 10
22.04200736209937
 20
-11.94999999999999
 30
0.0
  0
ENDBLK
  5
3A1
330
398
100
AcDbEntity
  8
0
100
AcDbBlockEnd
  0
BLOCK
  5
3A3
330
3A2
100
AcDbEntity
  8
0
100
AcDbBlockBegin
  2
_None
 70
     0
 10
0.0
 20
0.0
 30
0.0
  3
_None
  1

  0
ENDBLK
  5
3A4
330
3A2
100
AcDbEntity
  8
0
100
AcDbBlockEnd
  0
BLOCK
  5
43D
330
435
100
AcDbEntity
  8
0
100
AcDbBlockBegin
  2
*D6
 70
     1
 10
0.0
 20
0.0
 30
0.0
  3
*D6
  1

  0
LINE
  5
43F
330
435
100
AcDbEntity
  8
SK2
 62
     0
370
    -2
100
AcDbLine
 10
39.99994397087499
 20
11.95
 30
0.0
 11
50.54200736209939
 21
11.94999999999999
 31
0.0
  0
LINE
  5
440
330
435
100
AcDbEntity
  8
SK2
 62
     0
370
    -2
100
AcDbLine
 10
48.54200736209938
 20
7.379999999999997
 30
0.0
 11
48.54200736209938
 21
-11.94999999999999
 31
0.0
  0
SOLID
  5
441
330
435
100
AcDbEntity
  8
SK2
 62
     0
100
AcDbTrace
 10
47.78034069543271
 20
7.379999999999997
 30
0.0
 11
49.30367402876605
 21
7.379999999999997
 31
0.0
 12
48.54200736209938
 22
11.94999999999999
 32
0.0
 13
48.54200736209938
 23
11.94999999999999
 33
0.0
  0
MTEXT
  5
442
330
435
100
AcDbEntity
  8
SK2
 62
     7
100
AcDbMText
 10
44.75700736209938
 20
-2.284999999999989
 30
0.0
 40
4.57
 41
0.0
 71
     5
 72
     1
  1
\A1;ø23.9-31.1
  7
GENPRESET
 11
0.0000000000000001
 21
1.0
 31
0.0
 73
     1
 44
1.0
  0
POINT
  5
443
330
435
100
AcDbEntity
  8
Defpoints
 62
     0
100
AcDbPoint
 10
39.99994397087499
 20
11.95
 30
0.0
  0
POINT
  5
444
330
435
100
AcDbEntity
  8
Defpoints
 62
     0
100
AcDbPoint
 10
39.99994397087499
 20
-11.94999999999999
 30
0.0
  0
POINT
  5
445
330
435
100
AcDbEntity
  8
Defpoints
 62
     0
100
AcDbPoint
 10
48.54200736209938
 20
-11.94999999999999
 30
0.0
  0
ENDBLK
  5
43E
330
435
100
AcDbEntity
  8
0
100
AcDbBlockEnd
  0
BLOCK
  5
494
330
48A
100
AcDbEntity
  8
0
100
AcDbBlockBegin
  2
*D7
 70
     1
 10
0.0
 20
0.0
 30
0.0
  3
*D7
  1

  0
LINE
  5
48B
330
48A
100
AcDbEntity
  8
VERMASSUNG
 62
     0
370
    -2
100
AcDbLine
 10
129.7599624652999
 20
118.4207422387999
 30
0.0
 11
129.7599624652999
 21
131.47329334735
 31
0.0
  0
LINE
  5
48C
330
48A
100
AcDbEntity
  8
VERMASSUNG
 62
     0
370
    -2
100
AcDbLine
 10
94.1099624653
 20
126.1657422387999
 30
0.0
 11
94.1099624653
 21
131.47329334735
 31
0.0
  0
LINE
  5
48D
330
48A
100
AcDbEntity
  8
VERMASSUNG
 62
     0
370
    -2
100
AcDbLine
 10
126.7599624652999
 20
130.47329334735
 30
0.0
 11
97.10996246530001
 21
130.47329334735
 31
0.0
  0
SOLID
  5
48E
330
48A
100
AcDbEntity
  8
VERMASSUNG
 62
     0
100
AcDbTrace
 10
126.7599624652999
 20
130.9732933473499
 30
0.0
 11
126.7599624652999
 21
129.9732933473499
 31
0.0
 12
129.7599624652999
 22
130.47329334735
 32
0.0
 13
129.7599624652999
 23
130.47329334735
 33
0.0
  0
SOLID
  5
48F
330
48A
100
AcDbEntity
  8
VERMASSUNG
 62
     0
100
AcDbTrace
 10
97.10996246530001
 20
130.9732933473499
 30
0.0
 11
97.10996246530001
 21
129.9732933473499
 31
0.0
 12
94.1099624653
 22
130.47329334735
 32
0.0
 13
94.1099624653
 23
130.47329334735
 33
0.0
  0
MTEXT
  5
490
330
48A
100
AcDbEntity
  8
VERMASSUNG
 62
     0
100
AcDbMText
 10
109.2349624653
 20
133.9972933473499
 30
0.0
 40
2.0
 41
0.0
 71
     1
 72
     1
  1
\A1;17.83
  7
SLDTEXTSTYLE0
 73
     1
 44
1.0
  0
POINT
  5
491
330
48A
100
AcDbEntity
  8
Defpoints
 62
     0
100
AcDbPoint
 10
129.7599624652999
 20
118.4207422387999
 30
0.0
  0
POINT
  5
492
330
48A
100
AcDbEntity
  8
Defpoints
 62
     0
100
AcDbPoint
 10
94.1099624653
 20
126.1657422387999
 30
0.0
  0
POINT
  5
493
330
48A
100
AcDbEntity
  8
Defpoints
 62
     0
100
AcDbPoint
 10
94.1099624653
 20
130.47329334735
 30
0.0
  0
ENDBLK
  5
495
330
48A
100
AcDbEntity
  8
0
100
AcDbBlockEnd
  0
BLOCK
  5
4A0
330
496
100
AcDbEntity
  8
0
100
AcDbBlockBegin
  2
*D8
 70
     1
 10
0.0
 20
0.0
 30
0.0
  3
*D8
  1

  0
LINE
  5
497
330
496
100
AcDbEntity
  8
VERMASSUNG
 62
     0
370
    -2
100
AcDbLine
 10
94.1099624653
 20
126.1657422387999
 30
0.0
 11
94.1099624653
 21
134.4732933473499
 31
0.0
  0
LINE
  5
498
330
496
100
AcDbEntity
  8
VERMASSUNG
 62
     0
370
    -2
100
AcDbLine
 10
140.1099624652997
 20
120.08234397435
 30
0.0
 11
140.1099624652997
 21
134.4732933473499
 31
0.0
  0
LINE
  5
499
330
496
100
AcDbEntity
  8
VERMASSUNG
 62
     0
370
    -2
100
AcDbLine
 10
97.10996246530001
 20
133.4732933473499
 30
0.0
 11
137.1099624652996
 21
133.4732933473499
 31
0.0
  0
SOLID
  5
49A
330
496
100
AcDbEntity
  8
VERMASSUNG
 62
     0
100
AcDbTrace
 10
97.10996246530001
 20
133.9732933473499
 30
0.0
 11
97.10996246530001
 21
132.9732933473499
 31
0.0
 12
94.1099624653
 22
133.4732933473499
 32
0.0
 13
94.1099624653
 23
133.4732933473499
 33
0.0
  0
SOLID
  5
49B
330
496
100
AcDbEntity
  8
VERMASSUNG
 62
     0
100
AcDbTrace
 10
137.1099624652996
 20
133.9732933473499
 30
0.0
 11
137.1099624652996
 21
132.9732933473499
 31
0.0
 12
140.1099624652997
 22
133.4732933473499
 32
0.0
 13
140.1099624652997
 23
133.4732933473499
 33
0.0
  0
MTEXT
  5
49C
330
496
100
AcDbEntity
  8
VERMASSUNG
 62
     0
100
AcDbMText
 10
114.2099624653
 20
136.99729334735
 30
0.0
 40
2.0
 41
0.0
 71
     1
 72
     1
  1
\A1;23.00
  7
SLDTEXTSTYLE0
 73
     1
 44
1.0
  0
POINT
  5
49D
330
496
100
AcDbEntity
  8
Defpoints
 62
     0
100
AcDbPoint
 10
94.1099624653
 20
126.1657422387999
 30
0.0
  0
POINT
  5
49E
330
496
100
AcDbEntity
  8
Defpoints
 62
     0
100
AcDbPoint
 10
140.1099624652997
 20
120.08234397435
 30
0.0
  0
POINT
  5
49F
330
496
100
AcDbEntity
  8
Defpoints
 62
     0
100
AcDbPoint
 10
140.1099624652997
 20
133.4732933473499
 30
0.0
  0
ENDBLK
  5
4A1
330
496
100
AcDbEntity
  8
0
100
AcDbBlockEnd
  0
BLOCK
  5
4AC
330
4A2
100
AcDbEntity
  8
0
100
AcDbBlockBegin
  2
*D9
 70
     1
 10
0.0
 20
0.0
 30
0.0
  3
*D9
  1

  0
LINE
  5
4A3
330
4A2
100
AcDbEntity
  8
VERMASSUNG
 62
     0
370
    -2
100
AcDbLine
 10
94.3099624653
 20
126.3657422387999
 30
0.0
 11
76.69506171390003
 21
126.3657422387999
 31
0.0
  0
LINE
  5
4A4
330
4A2
100
AcDbEntity
  8
VERMASSUNG
 62
     0
370
    -2
100
AcDbLine
 10
94.3099624653
 20
101.3657422387999
 30
0.0
 11
76.69506171390003
 21
101.3657422387999
 31
0.0
  0
LINE
  5
4A5
330
4A2
100
AcDbEntity
  8
VERMASSUNG
 62
     0
370
    -2
100
AcDbLine
 10
77.69506171390003
 20
123.3657422387999
 30
0.0
 11
77.69506171390003
 21
104.3657422387999
 31
0.0
  0
SOLID
  5
4A6
330
4A2
100
AcDbEntity
  8
VERMASSUNG
 62
     0
100
AcDbTrace
 10
77.19506171390003
 20
123.3657422387999
 30
0.0
 11
78.19506171390003
 21
123.3657422387999
 31
0.0
 12
77.69506171390003
 22
126.3657422387999
 32
0.0
 13
77.69506171390003
 23
126.3657422387999
 33
0.0
  0
SOLID
  5
4A7
330
4A2
100
AcDbEntity
  8
VERMASSUNG
 62
     0
100
AcDbTrace
 10
77.19506171390003
 20
104.3657422387999
 30
0.0
 11
78.19506171390003
 21
104.3657422387999
 31
0.0
 12
77.69506171390003
 22
101.3657422387999
 32
0.0
 13
77.69506171390003
 23
101.3657422387999
 33
0.0
  0
MTEXT
  5
4A8
330
4A2
100
AcDbEntity
  8
VERMASSUNG
 62
     0
100
AcDbMText
 10
62.5710617139
 20
114.8664998145574
 30
0.0
 40
2.0
 41
0.0
 71
     1
 72
     1
  1
\A1;MBM %%c12.50
  7
SLDTEXTSTYLE0
 73
     1
 44
1.0
  0
POINT
  5
4A9
330
4A2
100
AcDbEntity
  8
Defpoints
 62
     0
100
AcDbPoint
 10
94.3099624653
 20
126.3657422387999
 30
0.0
  0
POINT
  5
4AA
330
4A2
100
AcDbEntity
  8
Defpoints
 62
     0
100
AcDbPoint
 10
94.3099624653
 20
101.3657422387999
 30
0.0
  0
POINT
  5
4AB
330
4A2
100
AcDbEntity
  8
Defpoints
 62
     0
100
AcDbPoint
 10
77.69506171390003
 20
101.3657422387999
 30
0.0
  0
ENDBLK
  5
4AD
330
4A2
100
AcDbEntity
  8
0
100
AcDbBlockEnd
  0
BLOCK
  5
4B7
330
4AE
100
AcDbEntity
  8
0
100
AcDbBlockBegin
  2
SW_CENTERMARKSYMBOL_0
 70
     0
 10
0.0
 20
0.0
 30
0.0
  3
SW_CENTERMARKSYMBOL_0
  1

  0
LINE
  5
4AF
330
4AE
100
AcDbEntity
  8
VERMASSUNG
100
AcDbLine
 10
0.0
 20
0.0
 30
0.0
 11
0.0
 21
5.0
 31
0.0
  0
LINE
  5
4B0
330
4AE
100
AcDbEntity
  8
VERMASSUNG
100
AcDbLine
 10
0.0
 20
0.0
 30
0.0
 11
-5.0
 21
0.0
 31
0.0
  0
LINE
  5
4B1
330
4AE
100
AcDbEntity
  8
VERMASSUNG
100
AcDbLine
 10
0.0
 20
0.0
 30
0.0
 11
0.0
 21
-5.0
 31
0.0
  0
LINE
  5
4B2
330
4AE
100
AcDbEntity
  8
VERMASSUNG
100
AcDbLine
 10
0.0
 20
0.0
 30
0.0
 11
5.0
 21
0.0
 31
0.0
  0
LINE
  5
4B3
330
4AE
100
AcDbEntity
  8
VERMASSUNG
100
AcDbLine
 10
0.0
 20
5.0
 30
0.0
 11
0.0
 21
9.109999999999999
 31
0.0
  0
LINE
  5
4B4
330
4AE
100
AcDbEntity
  8
VERMASSUNG
100
AcDbLine
 10
-5.0
 20
0.0
 30
0.0
 11
-9.109999999999999
 21
0.0
 31
0.0
  0
LINE
  5
4B5
330
4AE
100
AcDbEntity
  8
VERMASSUNG
100
AcDbLine
 10
0.0
 20
-5.0
 30
0.0
 11
0.0
 21
-9.109999999999999
 31
0.0
  0
LINE
  5
4B6
330
4AE
100
AcDbEntity
  8
VERMASSUNG
100
AcDbLine
 10
5.0
 20
0.0
 30
0.0
 11
9.109999999999999
 21
0.0
 31
0.0
  0
ENDBLK
  5
4B8
330
4AE
100
AcDbEntity
  8
0
100
AcDbBlockEnd
  0
BLOCK
  5
933
330
929
100
AcDbEntity
  8
0
100
AcDbBlockBegin
  2
*D11
 70
     1
 10
0.0
 20
0.0
 30
0.0
  3
*D11
  1

  0
LINE
  5
94D
330
929
100
AcDbEntity
  8
VERMASSUNG
 62
     0
370
    -2
100
AcDbLine
 10
0.2000000000000028
 20
12.49999999999998
 30
0.0
 11
-17.41490075139999
 21
12.49999999999999
 31
0.0
  0
LINE
  5
94E
330
929
100
AcDbEntity
  8
VERMASSUNG
 62
     0
370
    -2
100
AcDbLine
 10
0.2000000000000028
 20
-12.5
 30
0.0
 11
-17.4149007514
 21
-12.49999999999999
 31
0.0
  0
LINE
  5
94F
330
929
100
AcDbEntity
  8
VERMASSUNG
 62
     0
370
    -2
100
AcDbLine
 10
-16.41490075139999
 20
9.499999999999991
 30
0.0
 11
-16.4149007514
 21
-9.499999999999994
 31
0.0
  0
SOLID
  5
950
330
929
100
AcDbEntity
  8
VERMASSUNG
 62
     0
100
AcDbTrace
 10
-16.91490075139999
 20
9.499999999999991
 30
0.0
 11
-15.91490075139998
 21
9.499999999999991
 31
0.0
 12
-16.41490075139999
 22
12.49999999999999
 32
0.0
 13
-16.41490075139999
 23
12.49999999999999
 33
0.0
  0
SOLID
  5
951
330
929
100
AcDbEntity
  8
VERMASSUNG
 62
     0
100
AcDbTrace
 10
-16.9149007514
 20
-9.499999999999994
 30
0.0
 11
-15.9149007514
 21
-9.499999999999994
 31
0.0
 12
-16.4149007514
 22
-12.49999999999999
 32
0.0
 13
-16.4149007514
 23
-12.49999999999999
 33
0.0
  0
MTEXT
  5
952
330
929
100
AcDbEntity
  8
VERMASSUNG
 62
     0
100
AcDbMText
 10
-31.53890075139999
 20
1.000757575757574
 30
0.0
 40
2.0
 41
0.0
 71
     1
 72
     1
  1
\A1;MBM %%c12.50
  7
SLDTEXTSTYLE0
 73
     1
 44
1.0
  0
POINT
  5
953
330
929
100
AcDbEntity
  8
Defpoints
 62
     0
100
AcDbPoint
 10
0.2000000000000028
 20
12.49999999999998
 30
0.0
  0
POINT
  5
954
330
929
100
AcDbEntity
  8
Defpoints
 62
     0
100
AcDbPoint
 10
0.2000000000000028
 20
-12.5
 30
0.0
  0
POINT
  5
955
330
929
100
AcDbEntity
  8
Defpoints
 62
     0
100
AcDbPoint
 10
-16.4149007514
 20
-12.49999999999999
 30
0.0
  0
ENDBLK
  5
934
330
929
100
AcDbEntity
  8
0
100
AcDbBlockEnd
  0
BLOCK
  5
93F
330
935
100
AcDbEntity
  8
0
100
AcDbBlockBegin
  2
*D12
 70
     1
 10
0.0
 20
0.0
 30
0.0
  3
*D12
  1

  0
LINE
  5
956
330
935
100
AcDbEntity
  8
VERMASSUNG
 62
     0
370
    -2
100
AcDbLine
 10
35.64999999999999
 20
4.554999999999992
 30
0.0
 11
35.64999999999999
 21
17.60755110854998
 31
0.0
  0
LINE
  5
957
330
935
100
AcDbEntity
  8
VERMASSUNG
 62
     0
370
    -2
100
AcDbLine
 10
0.0
 20
12.29999999999999
 30
0.0
 11
0.0000000000000003
 21
17.60755110854998
 31
0.0
  0
LINE
  5
958
330
935
100
AcDbEntity
  8
VERMASSUNG
 62
     0
370
    -2
100
AcDbLine
 10
32.64999999999999
 20
16.60755110854999
 30
0.0
 11
3.0
 21
16.60755110854999
 31
0.0
  0
SOLID
  5
959
330
935
100
AcDbEntity
  8
VERMASSUNG
 62
     0
100
AcDbTrace
 10
32.64999999999999
 20
17.10755110854999
 30
0.0
 11
32.64999999999999
 21
16.10755110855
 31
0.0
 12
35.64999999999999
 22
16.60755110854999
 32
0.0
 13
35.64999999999999
 23
16.60755110854999
 33
0.0
  0
SOLID
  5
95A
330
935
100
AcDbEntity
  8
VERMASSUNG
 62
     0
100
AcDbTrace
 10
3.0
 20
17.10755110854999
 30
0.0
 11
3.0
 21
16.10755110855
 31
0.0
 12
0.0000000000000003
 22
16.60755110854999
 32
0.0
 13
0.0000000000000003
 23
16.60755110854999
 33
0.0
  0
MTEXT
  5
95B
330
935
100
AcDbEntity
  8
VERMASSUNG
 62
     0
100
AcDbMText
 10
15.125
 20
20.13155110855
 30
0.0
 40
2.0
 41
0.0
 71
     1
 72
     1
  1
\A1;17.83
  7
SLDTEXTSTYLE0
 73
     1
 44
1.0
  0
POINT
  5
95C
330
935
100
AcDbEntity
  8
Defpoints
 62
     0
100
AcDbPoint
 10
35.64999999999999
 20
4.554999999999992
 30
0.0
  0
POINT
  5
95D
330
935
100
AcDbEntity
  8
Defpoints
 62
     0
100
AcDbPoint
 10
0.0
 20
12.29999999999999
 30
0.0
  0
POINT
  5
95E
330
935
100
AcDbEntity
  8
Defpoints
 62
     0
100
AcDbPoint
 10
0.0000000000000003
 20
16.60755110854999
 30
0.0
  0
ENDBLK
  5
940
330
935
100
AcDbEntity
  8
0
100
AcDbBlockEnd
  0
BLOCK
  5
94B
330
941
100
AcDbEntity
  8
0
100
AcDbBlockBegin
  2
*D13
 70
     1
 10
0.0
 20
0.0
 30
0.0
  3
*D13
  1

  0
LINE
  5
A18
330
941
100
AcDbEntity
  8
2
 62
     0
370
    -2
100
AcDbLine
 10
-82.47180419026618
 20
-20.14998903838178
 30
0.0
 11
-82.47180419026618
 21
-10.84243792983176
 31
0.0
  0
LINE
  5
A19
330
941
100
AcDbEntity
  8
2
 62
     0
370
    -2
100
AcDbLine
 10
-36.47180419026619
 20
-26.23338730283176
 30
0.0
 11
-36.47180419026619
 21
-10.84243792983176
 31
0.0
  0
LINE
  5
A1A
330
941
100
AcDbEntity
  8
2
 62
     0
370
    -2
100
AcDbLine
 10
-77.90180419026619
 20
-12.84243792983176
 30
0.0
 11
-41.04180419026619
 21
-12.84243792983176
 31
0.0
  0
SOLID
  5
A1B
330
941
100
AcDbEntity
  8
2
 62
     0
100
AcDbTrace
 10
-77.90180419026619
 20
-12.08077126316511
 30
0.0
 11
-77.90180419026619
 21
-13.60410459649844
 31
0.0
 12
-82.47180419026618
 22
-12.84243792983176
 32
0.0
 13
-82.47180419026618
 23
-12.84243792983176
 33
0.0
  0
SOLID
  5
A1C
330
941
100
AcDbEntity
  8
2
 62
     0
100
AcDbTrace
 10
-41.04180419026619
 20
-12.08077126316511
 30
0.0
 11
-41.04180419026619
 21
-13.60410459649844
 31
0.0
 12
-36.47180419026619
 22
-12.84243792983176
 32
0.0
 13
-36.47180419026619
 23
-12.84243792983176
 33
0.0
  0
MTEXT
  5
A1D
330
941
100
AcDbEntity
  8
2
 62
     7
100
AcDbMText
 10
-59.47180419026615
 20
-9.057437929831783
 30
0.0
 40
4.57
 41
0.0
 71
     5
 72
     1
  1
\A1;46
  7
GENPRESET
 73
     1
 44
1.0
  0
POINT
  5
A1E
330
941
100
AcDbEntity
  8
Defpoints
 62
     0
100
AcDbPoint
 10
-82.47180419026618
 20
-20.14998903838178
 30
0.0
  0
POINT
  5
A1F
330
941
100
AcDbEntity
  8
Defpoints
 62
     0
100
AcDbPoint
 10
-36.47180419026619
 20
-26.23338730283176
 30
0.0
  0
POINT
  5
A20
330
941
100
AcDbEntity
  8
Defpoints
 62
     0
100
AcDbPoint
 10
-36.47180419026619
 20
-12.84243792983176
 30
0.0
  0
ENDBLK
  5
94C
330
941
100
AcDbEntity
  8
0
100
AcDbBlockEnd
  0
BLOCK
  5
972
330
968
100
AcDbEntity
  8
0
 62
     0
100
AcDbBlockBegin
  2
*D14
 70
     1
 10
0.0
 20
0.0
 30
0.0
  3
*D14
  1

  0
LINE
  5
969
330
968
100
AcDbEntity
  8
SK2
 62
     0
370
    -2
100
AcDbLine
 10
0.1999995677999919
 20
12.5
 30
0.0
 11
-19.38169290102023
 21
12.5
 31
0.0
  0
LINE
  5
96A
330
968
100
AcDbEntity
  8
SK2
 62
     0
370
    -2
100
AcDbLine
 10
0.1999995677999919
 20
-12.5
 30
0.0
 11
-19.38169290102023
 21
-12.49999999999999
 31
0.0
  0
LINE
  5
96B
330
968
100
AcDbEntity
  8
SK2
 62
     0
370
    -2
100
AcDbLine
 10
-16.88169290102024
 20
7.930000000000005
 30
0.0
 11
-16.88169290102024
 21
-7.929999999999994
 31
0.0
  0
SOLID
  5
96C
330
968
100
AcDbEntity
  8
SK2
 62
     0
100
AcDbTrace
 10
-17.64335956768691
 20
7.930000000000005
 30
0.0
 11
-16.12002623435357
 21
7.930000000000005
 31
0.0
 12
-16.88169290102024
 22
12.5
 32
0.0
 13
-16.88169290102024
 23
12.5
 33
0.0
  0
SOLID
  5
96D
330
968
100
AcDbEntity
  8
SK2
 62
     0
100
AcDbTrace
 10
-17.64335956768691
 20
-7.929999999999994
 30
0.0
 11
-16.12002623435357
 21
-7.929999999999994
 31
0.0
 12
-16.88169290102024
 22
-12.49999999999999
 32
0.0
 13
-16.88169290102024
 23
-12.49999999999999
 33
0.0
  0
MTEXT
  5
96E
330
968
100
AcDbEntity
  8
SK2
 62
     7
100
AcDbMText
 10
-22.95169290102023
 20
-13.2747619047619
 30
0.0
 40
4.57
 41
0.0
 71
     1
 72
     1
  1
\A1;MBM%%c25
  7
GENPRESET
 11
0.0000000000000001
 21
1.0
 31
0.0
 73
     1
 44
1.0
  0
POINT
  5
96F
330
968
100
AcDbEntity
  8
Defpoints
 62
     0
100
AcDbPoint
 10
0.1999995677999919
 20
12.5
 30
0.0
  0
POINT
  5
970
330
968
100
AcDbEntity
  8
Defpoints
 62
     0
100
AcDbPoint
 10
0.1999995677999919
 20
-12.5
 30
0.0
  0
POINT
  5
971
330
968
100
AcDbEntity
  8
Defpoints
 62
     0
100
AcDbPoint
 10
-16.88169290102024
 20
-12.49999999999999
 30
0.0
  0
ENDBLK
  5
973
330
968
100
AcDbEntity
  8
0
 62
     0
100
AcDbBlockEnd
  0
BLOCK
  5
9FA
330
9F0
100
AcDbEntity
  8
0
100
AcDbBlockBegin
  2
*D15
 70
     1
 10
0.0
 20
0.0
 30
0.0
  3
*D15
  1

  0
LINE
  5
A21
330
9F0
100
AcDbEntity
  8
SK2
 62
     0
370
    -2
100
AcDbLine
 10
-82.2718046224662
 20
-19.94998903838176
 30
0.0
 11
-101.3534970912864
 21
-19.94998903838176
 31
0.0
  0
LINE
  5
A22
330
9F0
100
AcDbEntity
  8
SK2
 62
     0
370
    -2
100
AcDbLine
 10
-82.2718046224662
 20
-44.94998903838178
 30
0.0
 11
-101.3534970912864
 21
-44.94998903838178
 31
0.0
  0
LINE
  5
A23
330
9F0
100
AcDbEntity
  8
SK2
 62
     0
370
    -2
100
AcDbLine
 10
-99.35349709128644
 20
-24.51998903838176
 30
0.0
 11
-99.35349709128644
 21
-40.37998903838177
 31
0.0
  0
SOLID
  5
A24
330
9F0
100
AcDbEntity
  8
SK2
 62
     0
100
AcDbTrace
 10
-100.1151637579529
 20
-24.51998903838176
 30
0.0
 11
-98.59183042461978
 21
-24.51998903838176
 31
0.0
 12
-99.35349709128644
 22
-19.94998903838176
 32
0.0
 13
-99.35349709128644
 23
-19.94998903838176
 33
0.0
  0
SOLID
  5
A25
330
9F0
100
AcDbEntity
  8
SK2
 62
     0
100
AcDbTrace
 10
-100.1151637579529
 20
-40.37998903838177
 30
0.0
 11
-98.59183042461978
 21
-40.37998903838177
 31
0.0
 12
-99.35349709128644
 22
-44.94998903838178
 32
0.0
 13
-99.35349709128644
 23
-44.94998903838178
 33
0.0
  0
MTEXT
  5
A26
330
9F0
100
AcDbEntity
  8
SK2
 62
     7
100
AcDbMText
 10
-103.1384970912864
 20
-32.44998903838178
 30
0.0
 40
4.57
 41
0.0
 71
     5
 72
     1
  1
\A1;MBM%%c25
  7
GENPRESET
 11
0.0000000000000001
 21
1.0
 31
0.0
 73
     1
 44
1.0
  0
POINT
  5
A27
330
9F0
100
AcDbEntity
  8
Defpoints
 62
     0
100
AcDbPoint
 10
-82.2718046224662
 20
-19.94998903838176
 30
0.0
  0
POINT
  5
A28
330
9F0
100
AcDbEntity
  8
Defpoints
 62
     0
100
AcDbPoint
 10
-82.2718046224662
 20
-44.94998903838178
 30
0.0
  0
POINT
  5
A29
330
9F0
100
AcDbEntity
  8
Defpoints
 62
     0
100
AcDbPoint
 10
-99.35349709128644
 20
-44.94998903838178
 30
0.0
  0
ENDBLK
  5
9FB
330
9F0
100
AcDbEntity
  8
0
100
AcDbBlockEnd
  0
BLOCK
  5
A31
330
A2A
100
AcDbEntity
  8
0
100
AcDbBlockBegin
  2
*D16
 70
     1
 10
0.0
 20
0.0
 30
0.0
  3
*D16
  1

  0
SOLID
  5
A2B
330
A2A
100
AcDbEntity
  8
VERMASSUNG
100
AcDbTrace
 10
110.6236652977
 20
141.7779015398999
 30
0.0
 11
113.6236652977
 21
141.3279015399
 31
0.0
 12
113.6236652977
 22
142.2279015398999
 32
0.0
 13
113.6236652977
 23
142.2279015398999
 33
0.0
  0
SOLID
  5
A2C
330
A2A
100
AcDbEntity
  8
VERMASSUNG
100
AcDbTrace
 10
158.7736652977
 20
141.7779015398999
 30
0.0
 11
155.7736652976999
 21
142.2279015398999
 31
0.0
 12
155.7736652976999
 22
141.3279015399
 32
0.0
 13
155.7736652976999
 23
141.3279015399
 33
0.0
  0
LINE
  5
A2D
330
A2A
100
AcDbEntity
  8
VERMASSUNG
100
AcDbLine
 10
110.6236652977
 20
136.2513347022999
 30
0.0
 11
110.6236652977
 21
142.7779015398999
 31
0.0
  0
LINE
  5
A2E
330
A2A
100
AcDbEntity
  8
VERMASSUNG
100
AcDbLine
 10
158.7736652977
 20
136.2513347022999
 30
0.0
 11
158.7736652977
 21
142.7779015398999
 31
0.0
  0
LINE
  5
A2F
330
A2A
100
AcDbEntity
  8
VERMASSUNG
100
AcDbLine
 10
110.6236652977
 20
141.7779015398999
 30
0.0
 11
158.7736652977
 21
141.7779015398999
 31
0.0
  0
MTEXT
  5
A30
330
A2A
100
AcDbEntity
  8
VERMASSUNG
100
AcDbMText
 10
131.6988128336999
 20
144.3779016563
 30
0.0
 40
2.0
 41
0.0
 71
     1
 72
     1
  1
{48.15}
  7
SLDTEXTSTYLE0
 73
     1
 44
1.0
  0
ENDBLK
  5
A32
330
A2A
100
AcDbEntity
  8
0
100
AcDbBlockEnd
  0
BLOCK
  5
A3A
330
A33
100
AcDbEntity
  8
0
100
AcDbBlockBegin
  2
*D17
 70
     1
 10
0.0
 20
0.0
 30
0.0
  3
*D17
  1

  0
SOLID
  5
A34
330
A33
100
AcDbEntity
  8
VERMASSUNG
100
AcDbTrace
 10
110.6236652977
 20
147.7779015399
 30
0.0
 11
113.6236652977
 21
147.3279015399
 31
0.0
 12
113.6236652977
 22
148.2279015398999
 32
0.0
 13
113.6236652977
 23
148.2279015398999
 33
0.0
  0
SOLID
  5
A35
330
A33
100
AcDbEntity
  8
VERMASSUNG
100
AcDbTrace
 10
171.6236652977
 20
147.7779015399
 30
0.0
 11
168.6236652977
 21
148.2279015398999
 31
0.0
 12
168.6236652977
 22
147.3279015399
 32
0.0
 13
168.6236652977
 23
147.3279015399
 33
0.0
  0
LINE
  5
A36
330
A33
100
AcDbEntity
  8
VERMASSUNG
100
AcDbLine
 10
110.6236652977
 20
136.2513347022999
 30
0.0
 11
110.6236652977
 21
148.7779015399
 31
0.0
  0
LINE
  5
A37
330
A33
100
AcDbEntity
  8
VERMASSUNG
100
AcDbLine
 10
171.6236652977
 20
129.3679364378
 30
0.0
 11
171.6236652977
 21
148.7779015399
 31
0.0
  0
LINE
  5
A38
330
A33
100
AcDbEntity
  8
VERMASSUNG
100
AcDbLine
 10
110.6236652977
 20
147.7779015399
 30
0.0
 11
171.6236652977
 21
147.7779015399
 31
0.0
  0
MTEXT
  5
A39
330
A33
100
AcDbEntity
  8
VERMASSUNG
100
AcDbMText
 10
139.9246573922
 20
150.3779016563
 30
0.0
 40
2.0
 41
0.0
 71
     1
 72
     1
  1
{61}
  7
SLDTEXTSTYLE0
 73
     1
 44
1.0
  0
ENDBLK
  5
A3B
330
A33
100
AcDbEntity
  8
0
100
AcDbBlockEnd
  0
BLOCK
  5
A45
330
A3C
100
AcDbEntity
  8
0
100
AcDbBlockBegin
  2
*D18
 70
     1
 10
0.0
 20
0.0
 30
0.0
  3
*D18
  1

  0
SOLID
  5
A3D
330
A3C
100
AcDbEntity
  8
VERMASSUNG
100
AcDbTrace
 10
88.4973261676
 20
136.5513347022998
 30
0.0
 11
88.0473261676
 21
133.5513347022998
 31
0.0
 12
88.9473261676
 22
133.5513347022998
 32
0.0
 13
88.9473261676
 23
133.5513347022998
 33
0.0
  0
SOLID
  5
A3E
330
A3C
100
AcDbEntity
  8
VERMASSUNG
100
AcDbTrace
 10
88.4973261676
 20
104.5513347023
 30
0.0
 11
88.9473261676
 21
107.5513347023
 31
0.0
 12
88.0473261676
 22
107.5513347023
 32
0.0
 13
88.0473261676
 23
107.5513347023
 33
0.0
  0
LINE
  5
A3F
330
A3C
100
AcDbEntity
  8
VERMASSUNG
100
AcDbLine
 10
110.9236652976999
 20
136.5513347022998
 30
0.0
 11
87.49732616760002
 21
136.5513347022998
 31
0.0
  0
LINE
  5
A40
330
A3C
100
AcDbEntity
  8
VERMASSUNG
100
AcDbLine
 10
110.9236652976999
 20
104.5513347023
 30
0.0
 11
87.49732616760002
 21
104.5513347023
 31
0.0
  0
LINE
  5
A41
330
A3C
100
AcDbEntity
  8
VERMASSUNG
100
AcDbLine
 10
88.4973261676
 20
136.5513347022998
 30
0.0
 11
88.4973261676
 21
104.5513347023
 31
0.0
  0
MTEXT
  5
A42
330
A3C
100
AcDbEntity
  8
VERMASSUNG
100
AcDbMText
 10
85.69732639100001
 20
114.1472950719
 30
0.0
 40
2.0
 41
0.0
 71
     1
 72
     1
  1
{MBM }
  7
SLDTEXTSTYLE0
 11
-0.000000000000007
 21
1.0
 31
0.0
 73
     1
 44
1.0
  0
MTEXT
  5
A43
330
A3C
100
AcDbEntity
  8
VERMASSUNG
100
AcDbMText
 10
85.8973263422
 20
120.5472949102
 30
0.0
 40
2.0
 41
0.0
 71
     1
 72
     1
  1
{%%c}
  7
SLDTEXTSTYLE0
 11
-0.000000000000007
 21
1.0
 31
0.0
 73
     1
 44
1.0
  0
MTEXT
  5
A44
330
A3C
100
AcDbEntity
  8
VERMASSUNG
100
AcDbMText
 10
85.8973260512
 20
124.1561340862
 30
0.0
 40
2.0
 41
0.0
 71
     1
 72
     1
  1
{32}
  7
SLDTEXTSTYLE0
 11
-0.000000000000007
 21
1.0
 31
0.0
 73
     1
 44
1.0
  0
ENDBLK
  5
A46
330
A3C
100
AcDbEntity
  8
0
100
AcDbBlockEnd
  0
BLOCK
  5
E0F
330
E05
100
AcDbEntity
  8
0
100
AcDbBlockBegin
  2
*D19
 70
     1
 10
0.0
 20
0.0
 30
0.0
  3
*D19
  1

  0
LINE
  5
EE3
330
E05
100
AcDbEntity
  8
SK2
 62
     0
370
    -2
100
AcDbLine
 10
-103.0000672613285
 20
-37.45747363963453
 30
0.0
 11
-127.4264063914285
 21
-37.45747363963452
 31
0.0
  0
LINE
  5
EE4
330
E05
100
AcDbEntity
  8
SK2
 62
     0
370
    -2
100
AcDbLine
 10
-103.0000672613285
 20
-69.45747363963453
 30
0.0
 11
-127.4264063914285
 21
-69.45747363963453
 31
0.0
  0
LINE
  5
EE5
330
E05
100
AcDbEntity
  8
SK2
 62
     0
370
    -2
100
AcDbLine
 10
-125.4264063914285
 20
-42.02747363963452
 30
0.0
 11
-125.4264063914285
 21
-64.88747363963452
 31
0.0
  0
SOLID
  5
EE6
330
E05
100
AcDbEntity
  8
SK2
 62
     0
100
AcDbTrace
 10
-126.1880730580952
 20
-42.02747363963452
 30
0.0
 11
-124.6647397247619
 21
-42.02747363963452
 31
0.0
 12
-125.4264063914285
 22
-37.45747363963452
 32
0.0
 13
-125.4264063914285
 23
-37.45747363963452
 33
0.0
  0
SOLID
  5
EE7
330
E05
100
AcDbEntity
  8
SK2
 62
     0
100
AcDbTrace
 10
-126.1880730580952
 20
-64.88747363963452
 30
0.0
 11
-124.6647397247619
 21
-64.88747363963452
 31
0.0
 12
-125.4264063914285
 22
-69.45747363963453
 32
0.0
 13
-125.4264063914285
 23
-69.45747363963453
 33
0.0
  0
MTEXT
  5
EE8
330
E05
100
AcDbEntity
  8
SK2
 62
     7
100
AcDbMText
 10
-129.2114063914286
 20
-53.45747363963454
 30
0.0
 40
4.57
 41
0.0
 71
     5
 72
     1
  1
\A1;MBM %%c32
  7
GENPRESET
 11
0.0000000000000001
 21
1.0
 31
0.0
 73
     1
 44
1.0
  0
POINT
  5
EE9
330
E05
100
AcDbEntity
  8
Defpoints
 62
     0
100
AcDbPoint
 10
-103.0000672613285
 20
-37.45747363963453
 30
0.0
  0
POINT
  5
EEA
330
E05
100
AcDbEntity
  8
Defpoints
 62
     0
100
AcDbPoint
 10
-103.0000672613285
 20
-69.45747363963453
 30
0.0
  0
POINT
  5
EEB
330
E05
100
AcDbEntity
  8
Defpoints
 62
     0
100
AcDbPoint
 10
-125.4264063914285
 20
-69.45747363963453
 30
0.0
  0
ENDBLK
  5
E10
330
E05
100
AcDbEntity
  8
0
100
AcDbBlockEnd
  0
BLOCK
  5
E1B
330
E11
100
AcDbEntity
  8
0
100
AcDbBlockBegin
  2
*D20
 70
     1
 10
0.0
 20
0.0
 30
0.0
  3
*D20
  1

  0
LINE
  5
EDA
330
E11
100
AcDbEntity
  8
2
 62
     0
370
    -2
100
AcDbLine
 10
-103.3000672613286
 20
-37.75747363963451
 30
0.0
 11
-103.3000672613286
 21
-24.23090680203451
 31
0.0
  0
LINE
  5
EDB
330
E11
100
AcDbEntity
  8
2
 62
     0
370
    -2
100
AcDbLine
 10
-42.30006726132861
 20
-44.6408719041345
 30
0.0
 11
-42.30006726132861
 21
-24.23090680203451
 31
0.0
  0
LINE
  5
EDC
330
E11
100
AcDbEntity
  8
2
 62
     0
370
    -2
100
AcDbLine
 10
-98.73006726132864
 20
-26.23090680203451
 30
0.0
 11
-46.87006726132862
 21
-26.23090680203451
 31
0.0
  0
SOLID
  5
EDD
330
E11
100
AcDbEntity
  8
2
 62
     0
100
AcDbTrace
 10
-98.73006726132864
 20
-25.46924013536784
 30
0.0
 11
-98.73006726132864
 21
-26.99257346870117
 31
0.0
 12
-103.3000672613286
 22
-26.23090680203451
 32
0.0
 13
-103.3000672613286
 23
-26.23090680203451
 33
0.0
  0
SOLID
  5
EDE
330
E11
100
AcDbEntity
  8
2
 62
     0
100
AcDbTrace
 10
-46.87006726132862
 20
-25.46924013536784
 30
0.0
 11
-46.87006726132862
 21
-26.99257346870117
 31
0.0
 12
-42.30006726132861
 22
-26.23090680203451
 32
0.0
 13
-42.30006726132861
 23
-26.23090680203451
 33
0.0
  0
MTEXT
  5
EDF
330
E11
100
AcDbEntity
  8
2
 62
     7
100
AcDbMText
 10
-72.80006726132862
 20
-22.4459068020345
 30
0.0
 40
4.57
 41
0.0
 71
     5
 72
     1
  1
\A1;61
  7
GENPRESET
 73
     1
 44
1.0
  0
POINT
  5
EE0
330
E11
100
AcDbEntity
  8
Defpoints
 62
     0
100
AcDbPoint
 10
-103.3000672613286
 20
-37.75747363963451
 30
0.0
  0
POINT
  5
EE1
330
E11
100
AcDbEntity
  8
Defpoints
 62
     0
100
AcDbPoint
 10
-42.30006726132861
 20
-44.6408719041345
 30
0.0
  0
POINT
  5
EE2
330
E11
100
AcDbEntity
  8
Defpoints
 62
     0
100
AcDbPoint
 10
-42.30006726132861
 20
-26.23090680203451
 30
0.0
  0
ENDBLK
  5
E1C
330
E11
100
AcDbEntity
  8
0
100
AcDbBlockEnd
  0
BLOCK
  5
E27
330
E1D
100
AcDbEntity
  8
0
100
AcDbBlockBegin
  2
*D21
 70
     1
 10
0.0
 20
0.0
 30
0.0
  3
*D21
  1

  0
LINE
  5
E3B
330
E1D
100
AcDbEntity
  8
VERMASSUNG
 62
     0
370
    -2
100
AcDbLine
 10
0.0
 20
15.7
 30
0.0
 11
0.0000000000000004
 21
22.2265668376
 31
0.0
  0
LINE
  5
E3C
330
E1D
100
AcDbEntity
  8
VERMASSUNG
 62
     0
370
    -2
100
AcDbLine
 10
48.15000000000001
 20
15.7
 30
0.0
 11
48.15000000000001
 21
22.2265668376
 31
0.0
  0
LINE
  5
E3D
330
E1D
100
AcDbEntity
  8
VERMASSUNG
 62
     0
370
    -2
100
AcDbLine
 10
3.0
 20
21.2265668376
 30
0.0
 11
45.14999999999999
 21
21.2265668376
 31
0.0
  0
SOLID
  5
E3E
330
E1D
100
AcDbEntity
  8
VERMASSUNG
 62
     0
100
AcDbTrace
 10
3.0
 20
21.7265668376
 30
0.0
 11
3.0
 21
20.7265668376
 31
0.0
 12
0.0000000000000003
 22
21.2265668376
 32
0.0
 13
0.0000000000000003
 23
21.2265668376
 33
0.0
  0
SOLID
  5
E3F
330
E1D
100
AcDbEntity
  8
VERMASSUNG
 62
     0
100
AcDbTrace
 10
45.14999999999999
 20
21.7265668376
 30
0.0
 11
45.14999999999999
 21
20.7265668376
 31
0.0
 12
48.15000000000001
 22
21.2265668376
 32
0.0
 13
48.15000000000001
 23
21.2265668376
 33
0.0
  0
MTEXT
  5
E40
330
E1D
100
AcDbEntity
  8
VERMASSUNG
 62
     0
100
AcDbMText
 10
21.27500000000001
 20
24.7505668376
 30
0.0
 40
2.0
 41
0.0
 71
     1
 72
     1
  1
\A1;48.15
  7
SLDTEXTSTYLE0
 73
     1
 44
1.0
  0
POINT
  5
E41
330
E1D
100
AcDbEntity
  8
Defpoints
 62
     0
100
AcDbPoint
 10
0.0
 20
15.7
 30
0.0
  0
POINT
  5
E42
330
E1D
100
AcDbEntity
  8
Defpoints
 62
     0
100
AcDbPoint
 10
48.15000000000001
 20
15.7
 30
0.0
  0
POINT
  5
E43
330
E1D
100
AcDbEntity
  8
Defpoints
 62
     0
100
AcDbPoint
 10
48.15000000000001
 20
21.2265668376
 30
0.0
  0
ENDBLK
  5
E28
330
E1D
100
AcDbEntity
  8
0
100
AcDbBlockEnd
  0
BLOCK
  5
E92
330
E57
100
AcDbEntity
  8
0
100
AcDbBlockBegin
  2
A$C2CBA1DD3
 70
     0
 10
0.0
 20
0.0
 30
0.0
  3
A$C2CBA1DD3
  1

  0
LINE
  5
E58
330
E57
100
AcDbEntity
  8
1
100
AcDbLine
 10
0.0
 20
-15.7
 30
0.0
 11
0.0
 21
15.7
 31
0.0
  0
LINE
  5
E59
330
E57
100
AcDbEntity
  8
SK1
100
AcDbLine
 10
-4.562004200450018
 20
9.0
 30
0.0
 11
-15.0
 21
9.0
 31
0.0
  0
LINE
  5
E5A
330
E57
100
AcDbEntity
  8
SK1
100
AcDbLine
 10
-15.0
 20
-9.0
 30
0.0
 11
-4.562004200450018
 21
-9.0
 31
0.0
  0
LINE
  5
E5B
330
E57
100
AcDbEntity
  8
SK4
100
AcDbLine
 10
0.0
 20
0.0
 30
0.0
 11
-18.0
 21
0.0
 31
0.0
  0
LINE
  5
E5C
330
E57
100
AcDbEntity
  8
SK3
100
AcDbLine
 10
0.0
 20
4.25
 30
0.0
 11
-14.7489234805
 21
4.249999999999999
 31
0.0
  0
LINE
  5
E5D
330
E57
100
AcDbEntity
  8
SK3
100
AcDbLine
 10
-14.7489234805
 20
-4.249999999999999
 30
0.0
 11
0.0
 21
-4.25
 31
0.0
  0
LINE
  5
E5E
330
E57
100
AcDbEntity
  8
SK3
100
AcDbLine
 10
-15.499999281
 20
-5.499999970199993
 30
0.0
 11
-15.499999281
 21
5.499999970200008
 31
0.0
  0
LINE
  5
E5F
330
E57
100
AcDbEntity
  8
SK3
100
AcDbLine
 10
-14.7489234805
 20
-4.250000231000001
 30
0.0
 11
-14.7489234805
 21
4.250000230899997
 31
0.0
  0
LINE
  5
E60
330
E57
100
AcDbEntity
  8
SK1
100
AcDbLine
 10
-15.0
 20
-9.0
 30
0.0
 11
-15.0
 21
9.0
 31
0.0
  0
LINE
  5
E61
330
E57
100
AcDbEntity
  8
SK1
100
AcDbLine
 10
-18.0
 20
-8.299999999999997
 30
0.0
 11
-18.0
 21
8.299999999999997
 31
0.0
  0
ARC
  5
E62
330
E57
100
AcDbEntity
  8
SK1
100
AcDbCircle
 10
-17.4
 20
-8.299999999999997
 30
0.0
 40
0.6000000000000015
100
AcDbArc
 50
180.0
 51
280.0
  0
LINE
  5
E63
330
E57
100
AcDbEntity
  8
SK1
100
AcDbLine
 10
-16.55916554539999
 20
-8.78087357279999
 30
0.0
 11
-15.0
 21
-9.0
 31
0.0
  0
ARC
  5
E64
330
E57
100
AcDbEntity
  8
SK1
100
AcDbCircle
 10
-16.6148347858
 20
-9.176980800299999
 30
0.0
 40
0.4000000000000077
100
AcDbArc
 50
81.99999999999922
 51
100.0
  0
LINE
  5
E65
330
E57
100
AcDbEntity
  8
SK1
100
AcDbLine
 10
-17.29581109339999
 20
-8.890884651799991
 30
0.0
 11
-16.68429405684999
 21
-8.783057699099996
 31
0.0
  0
ARC
  5
E66
330
E57
100
AcDbEntity
  8
SK3
100
AcDbCircle
 10
-17.49999922509999
 20
-6.0
 30
0.0
 40
0.5
100
AcDbArc
 50
90.0
 51
180.0
  0
LINE
  5
E67
330
E57
100
AcDbEntity
  8
SK3
100
AcDbLine
 10
-15.499999281
 20
-5.499999970199993
 30
0.0
 11
-14.7489234805
 21
-4.250000231000001
 31
0.0
  0
LINE
  5
E68
330
E57
100
AcDbEntity
  8
SK3
100
AcDbLine
 10
-17.49999920140001
 20
-5.499999970199993
 30
0.0
 11
-15.499999281
 21
-5.499999970199993
 31
0.0
  0
ARC
  5
E69
330
E57
100
AcDbEntity
  8
SK3
100
AcDbCircle
 10
-17.49999922509999
 20
6.0
 30
0.0
 40
0.5
100
AcDbArc
 50
180.0
 51
270.0
  0
LINE
  5
E6A
330
E57
100
AcDbEntity
  8
SK3
100
AcDbLine
 10
-14.7489234805
 20
4.250000230899997
 30
0.0
 11
-15.499999281
 21
5.499999970200008
 31
0.0
  0
LINE
  5
E6B
330
E57
100
AcDbEntity
  8
SK3
100
AcDbLine
 10
-15.499999281
 20
5.499999970200008
 30
0.0
 11
-17.49999920140001
 21
5.499999970200008
 31
0.0
  0
ARC
  5
E6C
330
E57
100
AcDbEntity
  8
SK1
100
AcDbCircle
 10
-17.4
 20
8.299999999999997
 30
0.0
 40
0.6000000000000015
100
AcDbArc
 50
79.9999999999998
 51
180.0
  0
LINE
  5
E6D
330
E57
100
AcDbEntity
  8
SK1
100
AcDbLine
 10
-15.0
 20
9.0
 30
0.0
 11
-16.55916554539999
 21
8.780873572849996
 31
0.0
  0
ARC
  5
E6E
330
E57
100
AcDbEntity
  8
SK1
100
AcDbCircle
 10
-16.6148347858
 20
9.176980800299999
 30
0.0
 40
0.4000000000000006
100
AcDbArc
 50
259.9999999999998
 51
278.0000000000006
  0
LINE
  5
E6F
330
E57
100
AcDbEntity
  8
SK1
100
AcDbLine
 10
-16.68429405684999
 20
8.783057699099996
 30
0.0
 11
-17.29581109339999
 21
8.890884651799991
 31
0.0
  0
ARC
  5
E70
330
E57
100
AcDbEntity
  8
1
100
AcDbCircle
 10
0.3000000000000114
 20
-15.7
 30
0.0
 40
0.2999999999999971
100
AcDbArc
 50
180.0
 51
270.0
  0
LINE
  5
E71
330
E57
100
AcDbEntity
  8
SK1
100
AcDbLine
 10
-0.1500000000000057
 20
6.714596780950002
 30
0.0
 11
-0.1500000000000057
 21
-6.714596780900007
 31
0.0
  0
LINE
  5
E72
330
E57
100
AcDbEntity
  8
3
100
AcDbLine
 10
0.3499999999999943
 20
-12.22500000000001
 30
0.0
 11
0.3499999999999943
 21
12.22500000000001
 31
0.0
  0
LINE
  5
E73
330
E57
100
AcDbEntity
  8
SK1
100
AcDbLine
 10
-2.949999999999988
 20
-11.975
 30
0.0
 11
-2.949999999999988
 21
11.975
 31
0.0
  0
LINE
  5
E74
330
E57
100
AcDbEntity
  8
SK1
100
AcDbLine
 10
-4.562004200450018
 20
-9.0
 30
0.0
 11
-4.562004200450018
 21
9.0
 31
0.0
  0
CIRCLE
  5
E75
330
E57
100
AcDbEntity
  8
SK1
100
AcDbCircle
 10
-8.950000000000002
 20
0.0
 30
0.0
 40
3.307218168049181
  0
CIRCLE
  5
E76
330
E57
100
AcDbEntity
  8
SK1
100
AcDbCircle
 10
-8.950000000000002
 20
0.0
 30
0.0
 40
2.500000000000003
  0
LWPOLYLINE
  5
E77
330
E57
100
AcDbEntity
  8
SK1
100
AcDbPolyline
 90
       20
 70
   128
 43
0.0
 10
-13.2
 20
0.0
 10
-13.1755844341
 20
0.3749430856000089
 10
-13.08054395474999
 20
0.8249312207999961
 10
-12.91384237159999
 20
1.264671190599994
 10
-12.67796373634999
 20
1.684631310600011
 10
-12.37978947869998
 20
2.073550630799998
 10
-11.7598388307
 20
2.638591057799982
 10
-11.13164869655
 20
3.022225890600012
 10
-10.4256478912
 20
3.306322071249993
 10
-9.69475909274999
 20
3.473681080950001
 10
-8.923505322099998
 20
3.529113110099998
 10
-8.155040296999999
 20
3.465881182499998
 10
-7.387340049149996
 20
3.278302629750001
 10
-6.684701534099986
 20
2.979187721850009
 10
-6.027815841499997
 20
2.552974276149996
 10
-5.580071497549994
 20
2.139848852149992
 10
-5.195983908899988
 20
1.644610373100004
 10
-4.957368162500016
 20
1.201361883350001
 10
-4.788214019549997
 20
0.7101462658499999
 10
-4.699999999999987
 20
0.0
  0
LWPOLYLINE
  5
E78
330
E57
100
AcDbEntity
  8
SK1
100
AcDbPolyline
 90
       21
 70
   128
 43
0.0
 10
-4.699999999999987
 20
0.0
 10
-4.717618049399987
 20
-0.3186218444499929
 10
-4.804289006949995
 20
-0.7714448498000053
 10
-4.963626371749995
 20
-1.215442090999985
 10
-5.190851402750013
 20
-1.6365786459
 10
-5.480609358399988
 20
-2.02786012365
 10
-5.872300312050012
 20
-2.4237432428
 10
-6.325020524600006
 20
-2.767063635699996
 10
-6.910850281400001
 20
-3.090608005849996
 10
-7.555529133749987
 20
-3.330832078
 10
-8.29616863915001
 20
-3.486478686449998
 10
-9.075681355850006
 20
-3.527613471399988
 10
-9.842230362899995
 20
-3.449265866900006
 10
-10.60515687379999
 20
-3.246485432850008
 10
-11.30103776210001
 20
-2.932734283300007
 10
-11.94817793599999
 20
-2.491472318350004
 10
-12.37882248194999
 20
-2.074647504249995
 10
-12.74528025014999
 20
-1.578573348599985
 10
-12.97131453119997
 20
-1.134309863649987
 10
-13.12754886565
 20
-0.644149273300002
 10
-13.2
 20
0.0
  0
ARC
  5
E79
330
E57
100
AcDbEntity
  8
SK1
100
AcDbCircle
 10
-0.2515999391499974
 20
-7.078003247300002
 30
0.0
 40
0.3773417648124474
100
AcDbArc
 50
74.38025216030019
 51
131.8938604266996
  0
ARC
  5
E7A
330
E57
100
AcDbEntity
  8
SK1
100
AcDbCircle
 10
-0.25
 20
-12.22500000000001
 30
0.0
 40
0.600000000000004
100
AcDbArc
 50
65.37568164780068
 51
114.9999999999996
  0
LINE
  5
E7B
330
E57
100
AcDbEntity
  8
SK1
100
AcDbLine
 10
-1.133594219799987
 20
-7.290447517099987
 30
0.0
 11
-0.5035709570499876
 21
-6.797116413149992
 31
0.0
  0
LINE
  5
E7C
330
E57
100
AcDbEntity
  8
SK1
100
AcDbLine
 10
-1.133594219799987
 20
-7.290447517099987
 30
0.0
 11
-2.949999999999988
 21
-7.290447517099987
 31
0.0
  0
ARC
  5
E7D
330
E57
100
AcDbEntity
  8
SK1
100
AcDbCircle
 10
-3.550000000000011
 20
-9.350000000000008
 30
0.0
 40
0.5999999999999967
100
AcDbArc
 50
0.0
 51
104.9999999999994
  0
LINE
  5
E7E
330
E57
100
AcDbEntity
  8
SK1
100
AcDbLine
 10
-2.949999999999988
 20
-11.975
 30
0.0
 11
-1.133594219799987
 21
-11.975
 31
0.0
  0
LINE
  5
E7F
330
E57
100
AcDbEntity
  8
SK1
100
AcDbLine
 10
-1.133594219799987
 20
-11.975
 30
0.0
 11
-0.5035709570499876
 21
-11.68121532774999
 31
0.0
  0
LINE
  5
E80
330
E57
100
AcDbEntity
  8
SK1
100
AcDbLine
 10
-1.133594219799987
 20
-11.975
 30
0.0
 11
-1.133594219799987
 21
-7.290447517099987
 31
0.0
  0
LINE
  5
E81
330
E57
100
AcDbEntity
  8
SK1
100
AcDbLine
 10
-4.562004200450018
 20
-9.0
 30
0.0
 11
-3.705291427049985
 21
-8.7704445042
 31
0.0
  0
LINE
  5
E82
330
E57
100
AcDbEntity
  8
3
100
AcDbLine
 10
0.0
 20
-13.10859421975
 30
0.0
 11
0.2937846721999904
 21
-12.47857095704999
 31
0.0
  0
ARC
  5
E83
330
E57
100
AcDbEntity
  8
3
100
AcDbCircle
 10
-0.25
 20
-12.22500000000001
 30
0.0
 40
0.5999999999999945
100
AcDbArc
 50
335.0
 51
0.0
  0
ARC
  5
E84
330
E57
100
AcDbEntity
  8
3
100
AcDbCircle
 10
-0.25
 20
-12.22500000000001
 30
0.0
 40
0.6000000000000038
100
AcDbArc
 50
0.0
 51
65.37568164780068
  0
LINE
  5
E85
330
E57
100
AcDbEntity
  8
SK1
100
AcDbLine
 10
-0.5035709570499876
 20
6.797116413149992
 30
0.0
 11
-1.133594219799987
 21
7.290447517149995
 31
0.0
  0
ARC
  5
E86
330
E57
100
AcDbEntity
  8
SK1
100
AcDbCircle
 10
-0.2491162109499783
 20
7.088645250249996
 30
0.0
 40
0.386957724655205
100
AcDbArc
 50
228.8846097785
 51
284.8412776345993
  0
ARC
  5
E87
330
E57
100
AcDbEntity
  8
SK1
100
AcDbCircle
 10
-0.25
 20
12.22500000000001
 30
0.0
 40
0.600000000000004
100
AcDbArc
 50
245.0000000000003
 51
294.6243183521993
  0
LINE
  5
E88
330
E57
100
AcDbEntity
  8
SK1
100
AcDbLine
 10
-0.5035709570499876
 20
11.68121532779998
 30
0.0
 11
-1.133594219799987
 21
11.975
 31
0.0
  0
LINE
  5
E89
330
E57
100
AcDbEntity
  8
SK1
100
AcDbLine
 10
-1.133594219799987
 20
11.975
 30
0.0
 11
-2.949999999999988
 21
11.975
 31
0.0
  0
LINE
  5
E8A
330
E57
100
AcDbEntity
  8
SK1
100
AcDbLine
 10
-1.133594219799987
 20
7.290447517149995
 30
0.0
 11
-2.949999999999988
 21
7.290447517149995
 31
0.0
  0
LINE
  5
E8B
330
E57
100
AcDbEntity
  8
SK1
100
AcDbLine
 10
-1.133594219799987
 20
7.290447517149995
 30
0.0
 11
-1.133594219799987
 21
11.975
 31
0.0
  0
ARC
  5
E8C
330
E57
100
AcDbEntity
  8
SK1
100
AcDbCircle
 10
-3.550000000000011
 20
9.350000000000008
 30
0.0
 40
0.5999999999999967
100
AcDbArc
 50
255.0000000000004
 51
0.0
  0
LINE
  5
E8D
330
E57
100
AcDbEntity
  8
SK1
100
AcDbLine
 10
-3.705291427049985
 20
8.770444504249994
 30
0.0
 11
-4.562004200450018
 21
9.0
 31
0.0
  0
LINE
  5
E8E
330
E57
100
AcDbEntity
  8
3
100
AcDbLine
 10
0.2937846721999904
 20
12.47857095704999
 30
0.0
 11
0.0
 21
13.10859421979999
 31
0.0
  0
ARC
  5
E8F
330
E57
100
AcDbEntity
  8
3
100
AcDbCircle
 10
-0.25
 20
12.22500000000001
 30
0.0
 40
0.599999999999988
100
AcDbArc
 50
345.6249999999998
 51
25.00000000000003
  0
ARC
  5
E90
330
E57
100
AcDbEntity
  8
3
100
AcDbCircle
 10
-0.25
 20
12.22500000000001
 30
0.0
 40
0.5999999999999904
100
AcDbArc
 50
294.6243183521993
 51
345.6249999999998
  0
ARC
  5
E91
330
E57
100
AcDbEntity
  8
1
100
AcDbCircle
 10
0.3000000000000114
 20
15.7
 30
0.0
 40
0.2999999999999971
100
AcDbArc
 50
90.0
 51
180.0
  0
ENDBLK
  5
E93
330
E57
100
AcDbEntity
  8
0
100
AcDbBlockEnd
  0
BLOCK
  5
EF5
330
EEC
100
AcDbEntity
  8
0
100
AcDbBlockBegin
  2
*D23
 70
     1
 10
0.0
 20
0.0
 30
0.0
  3
*D23
  1

  0
SOLID
  5
EED
330
EEC
100
AcDbEntity
  8
VERMASSUNG
100
AcDbTrace
 10
83.66461131260001
 20
126.8837240480998
 30
0.0
 11
83.21461131259999
 21
123.8837240480998
 31
0.0
 12
84.11461131260002
 22
123.8837240480998
 32
0.0
 13
84.11461131260002
 23
123.8837240480998
 33
0.0
  0
SOLID
  5
EEE
330
EEC
100
AcDbEntity
  8
VERMASSUNG
100
AcDbTrace
 10
83.66461131260001
 20
84.8837240481
 30
0.0
 11
84.11461131260002
 21
87.88372404809997
 31
0.0
 12
83.21461131259999
 22
87.88372404809997
 32
0.0
 13
83.21461131259999
 23
87.88372404809997
 33
0.0
  0
LINE
  5
EEF
330
EEC
100
AcDbEntity
  8
VERMASSUNG
100
AcDbLine
 10
115.7821680909
 20
126.8837240480998
 30
0.0
 11
82.66461131259999
 21
126.8837240480998
 31
0.0
  0
LINE
  5
EF0
330
EEC
100
AcDbEntity
  8
VERMASSUNG
100
AcDbLine
 10
115.7821680909
 20
84.8837240481
 30
0.0
 11
82.66461131259999
 21
84.8837240481
 31
0.0
  0
LINE
  5
EF1
330
EEC
100
AcDbEntity
  8
VERMASSUNG
100
AcDbLine
 10
83.66461131260001
 20
126.8837240480998
 30
0.0
 11
83.66461131260001
 21
84.8837240481
 31
0.0
  0
MTEXT
  5
EF2
330
EEC
100
AcDbEntity
  8
VERMASSUNG
100
AcDbMText
 10
80.86461153589999
 20
99.38015587569999
 30
0.0
 40
2.0
 41
0.0
 71
     1
 72
     1
  1
{MBM }
  7
SLDTEXTSTYLE0
 11
-0.000000000000007
 21
1.0
 31
0.0
 73
     1
 44
1.0
  0
MTEXT
  5
EF3
330
EEC
100
AcDbEntity
  8
VERMASSUNG
100
AcDbMText
 10
81.06461148719999
 20
105.780155714
 30
0.0
 40
2.0
 41
0.0
 71
     1
 72
     1
  1
{%%c}
  7
SLDTEXTSTYLE0
 11
-0.000000000000007
 21
1.0
 31
0.0
 73
     1
 44
1.0
  0
MTEXT
  5
EF4
330
EEC
100
AcDbEntity
  8
VERMASSUNG
100
AcDbMText
 10
81.0646111962
 20
109.38899489
 30
0.0
 40
2.0
 41
0.0
 71
     1
 72
     1
  1
{42}
  7
SLDTEXTSTYLE0
 11
-0.000000000000007
 21
1.0
 31
0.0
 73
     1
 44
1.0
  0
ENDBLK
  5
EF6
330
EEC
100
AcDbEntity
  8
0
100
AcDbBlockEnd
  0
BLOCK
  5
EFE
330
EF7
100
AcDbEntity
  8
0
100
AcDbBlockBegin
  2
*D24
 70
     1
 10
0.0
 20
0.0
 30
0.0
  3
*D24
  1

  0
SOLID
  5
EF8
330
EF7
100
AcDbEntity
  8
VERMASSUNG
100
AcDbTrace
 10
115.4821680909
 20
135.5019520854
 30
0.0
 11
118.4821680908999
 21
135.0519520854
 31
0.0
 12
118.4821680908999
 22
135.9519520854
 32
0.0
 13
118.4821680908999
 23
135.9519520854
 33
0.0
  0
SOLID
  5
EF9
330
EF7
100
AcDbEntity
  8
VERMASSUNG
100
AcDbTrace
 10
185.0821680909
 20
135.5019520854
 30
0.0
 11
182.0821680909
 21
135.9519520854
 31
0.0
 12
182.0821680909
 22
135.0519520854
 32
0.0
 13
182.0821680909
 23
135.0519520854
 33
0.0
  0
LINE
  5
EFA
330
EF7
100
AcDbEntity
  8
VERMASSUNG
100
AcDbLine
 10
115.4821680909
 20
126.5837240480998
 30
0.0
 11
115.4821680909
 21
136.5019520854
 31
0.0
  0
LINE
  5
EFB
330
EF7
100
AcDbEntity
  8
VERMASSUNG
100
AcDbLine
 10
185.0821680909
 20
125.0837240480999
 30
0.0
 11
185.0821680909
 21
136.5019520854
 31
0.0
  0
LINE
  5
EFC
330
EF7
100
AcDbEntity
  8
VERMASSUNG
100
AcDbLine
 10
115.4821680909
 20
135.5019520854
 30
0.0
 11
185.0821680909
 21
135.5019520854
 31
0.0
  0
MTEXT
  5
EFD
330
EF7
100
AcDbEntity
  8
VERMASSUNG
100
AcDbMText
 10
147.8825971463998
 20
138.1019522018
 30
0.0
 40
2.0
 41
0.0
 71
     1
 72
     1
  1
{69.6}
  7
SLDTEXTSTYLE0
 73
     1
 44
1.0
  0
ENDBLK
  5
EFF
330
EF7
100
AcDbEntity
  8
0
100
AcDbBlockEnd
  0
BLOCK
  5
F07
330
F00
100
AcDbEntity
  8
0
100
AcDbBlockBegin
  2
*D25
 70
     1
 10
0.0
 20
0.0
 30
0.0
  3
*D25
  1

  0
SOLID
  5
F01
330
F00
100
AcDbEntity
  8
VERMASSUNG
100
AcDbTrace
 10
115.4821680909
 20
141.5019520854
 30
0.0
 11
118.4821680908999
 21
141.0519520854
 31
0.0
 12
118.4821680908999
 22
141.9519520853999
 32
0.0
 13
118.4821680908999
 23
141.9519520853999
 33
0.0
  0
SOLID
  5
F02
330
F00
100
AcDbEntity
  8
VERMASSUNG
100
AcDbTrace
 10
201.4821680908999
 20
141.5019520854
 30
0.0
 11
198.4821680909
 21
141.9519520853999
 31
0.0
 12
198.4821680909
 22
141.0519520854
 32
0.0
 13
198.4821680909
 23
141.0519520854
 33
0.0
  0
LINE
  5
F03
330
F00
100
AcDbEntity
  8
VERMASSUNG
100
AcDbLine
 10
115.4821680909
 20
126.5837240480998
 30
0.0
 11
115.4821680909
 21
142.5019520854
 31
0.0
  0
LINE
  5
F04
330
F00
100
AcDbEntity
  8
VERMASSUNG
100
AcDbLine
 10
201.4821680908999
 20
117.2294762176
 30
0.0
 11
201.4821680908999
 21
142.5019520854
 31
0.0
  0
LINE
  5
F05
330
F00
100
AcDbEntity
  8
VERMASSUNG
100
AcDbLine
 10
115.4821680909
 20
141.5019520854
 30
0.0
 11
201.4821680908999
 21
141.5019520854
 31
0.0
  0
MTEXT
  5
F06
330
F00
100
AcDbEntity
  8
VERMASSUNG
100
AcDbMText
 10
157.0825479677
 20
144.1019522018
 30
0.0
 40
2.0
 41
0.0
 71
     1
 72
     1
  1
{86}
  7
SLDTEXTSTYLE0
 73
     1
 44
1.0
  0
ENDBLK
  5
F08
330
F00
100
AcDbEntity
  8
0
100
AcDbBlockEnd
  0
BLOCK
  5
137F
330
1375
100
AcDbEntity
  8
0
100
AcDbBlockBegin
  2
*D26
 70
     1
 10
0.0
 20
0.0
 30
0.0
  3
*D26
  1

  0
LINE
  5
1450
330
1375
100
AcDbEntity
  8
2
 62
     0
370
    -2
100
AcDbLine
 10
-167.3907312159566
 20
-38.64091954295402
 30
0.0
 11
-167.3907312159566
 21
-21.72269150565401
 31
0.0
  0
LINE
  5
1451
330
1375
100
AcDbEntity
  8
2
 62
     0
370
    -2
100
AcDbLine
 10
-81.39073121595664
 20
-47.99516737345402
 30
0.0
 11
-81.39073121595664
 21
-21.72269150565401
 31
0.0
  0
LINE
  5
1452
330
1375
100
AcDbEntity
  8
2
 62
     0
370
    -2
100
AcDbLine
 10
-162.8207312159566
 20
-23.72269150565402
 30
0.0
 11
-85.96073121595665
 21
-23.72269150565402
 31
0.0
  0
SOLID
  5
1453
330
1375
100
AcDbEntity
  8
2
 62
     0
100
AcDbTrace
 10
-162.8207312159566
 20
-22.96102483898735
 30
0.0
 11
-162.8207312159566
 21
-24.48435817232068
 31
0.0
 12
-167.3907312159566
 22
-23.72269150565402
 32
0.0
 13
-167.3907312159566
 23
-23.72269150565402
 33
0.0
  0
SOLID
  5
1454
330
1375
100
AcDbEntity
  8
2
 62
     0
100
AcDbTrace
 10
-85.96073121595665
 20
-22.96102483898735
 30
0.0
 11
-85.96073121595665
 21
-24.48435817232068
 31
0.0
 12
-81.39073121595664
 22
-23.72269150565402
 32
0.0
 13
-81.39073121595664
 23
-23.72269150565402
 33
0.0
  0
MTEXT
  5
1455
330
1375
100
AcDbEntity
  8
2
 62
     7
100
AcDbMText
 10
-124.3907312159566
 20
-19.93769150565402
 30
0.0
 40
4.57
 41
0.0
 71
     5
 72
     1
  1
\A1;86
  7
GENPRESET
 73
     1
 44
1.0
  0
POINT
  5
1456
330
1375
100
AcDbEntity
  8
Defpoints
 62
     0
100
AcDbPoint
 10
-167.3907312159566
 20
-38.64091954295402
 30
0.0
  0
POINT
  5
1457
330
1375
100
AcDbEntity
  8
Defpoints
 62
     0
100
AcDbPoint
 10
-81.39073121595664
 20
-47.99516737345402
 30
0.0
  0
POINT
  5
1458
330
1375
100
AcDbEntity
  8
Defpoints
 62
     0
100
AcDbPoint
 10
-81.39073121595664
 20
-23.72269150565402
 30
0.0
  0
ENDBLK
  5
1380
330
1375
100
AcDbEntity
  8
0
100
AcDbBlockEnd
  0
BLOCK
  5
138B
330
1381
100
AcDbEntity
  8
0
100
AcDbBlockBegin
  2
*D27
 70
     1
 10
0.0
 20
0.0
 30
0.0
  3
*D27
  1

  0
LINE
  5
13A2
330
1381
100
AcDbEntity
  8
VERMASSUNG
 62
     0
370
    -2
100
AcDbLine
 10
0.0
 20
20.69999999999999
 30
0.0
 11
0.0000000000000006
 21
30.61822803730001
 31
0.0
  0
LINE
  5
13A3
330
1381
100
AcDbEntity
  8
VERMASSUNG
 62
     0
370
    -2
100
AcDbLine
 10
69.59999999999999
 20
19.19999999999999
 30
0.0
 11
69.59999999999999
 21
30.61822803730001
 31
0.0
  0
LINE
  5
13A4
330
1381
100
AcDbEntity
  8
VERMASSUNG
 62
     0
370
    -2
100
AcDbLine
 10
3.0
 20
29.61822803730001
 30
0.0
 11
66.60000000000001
 21
29.61822803730001
 31
0.0
  0
SOLID
  5
13A5
330
1381
100
AcDbEntity
  8
VERMASSUNG
 62
     0
100
AcDbTrace
 10
3.0
 20
30.11822803730001
 30
0.0
 11
3.0
 21
29.11822803730001
 31
0.0
 12
0.0000000000000005
 22
29.61822803730001
 32
0.0
 13
0.0000000000000005
 23
29.61822803730001
 33
0.0
  0
SOLID
  5
13A6
330
1381
100
AcDbEntity
  8
VERMASSUNG
 62
     0
100
AcDbTrace
 10
66.60000000000001
 20
30.11822803730001
 30
0.0
 11
66.60000000000001
 21
29.11822803730001
 31
0.0
 12
69.59999999999999
 22
29.61822803730001
 32
0.0
 13
69.59999999999999
 23
29.61822803730001
 33
0.0
  0
MTEXT
  5
13A7
330
1381
100
AcDbEntity
  8
VERMASSUNG
 62
     0
100
AcDbMText
 10
31.89999999999999
 20
33.1422280373
 30
0.0
 40
2.0
 41
0.0
 71
     1
 72
     1
  1
\A1;69.60
  7
SLDTEXTSTYLE0
 73
     1
 44
1.0
  0
POINT
  5
13A8
330
1381
100
AcDbEntity
  8
Defpoints
 62
     0
100
AcDbPoint
 10
0.0
 20
20.69999999999999
 30
0.0
  0
POINT
  5
13A9
330
1381
100
AcDbEntity
  8
Defpoints
 62
     0
100
AcDbPoint
 10
69.59999999999999
 20
19.19999999999999
 30
0.0
  0
POINT
  5
13AA
330
1381
100
AcDbEntity
  8
Defpoints
 62
     0
100
AcDbPoint
 10
69.59999999999999
 20
29.61822803730001
 30
0.0
  0
ENDBLK
  5
138C
330
1381
100
AcDbEntity
  8
0
100
AcDbBlockEnd
  0
BLOCK
  5
1397
330
138D
100
AcDbEntity
  8
0
100
AcDbBlockBegin
  2
*D28
 70
     1
 10
0.0
 20
0.0
 30
0.0
  3
*D28
  1

  0
LINE
  5
1459
330
138D
100
AcDbEntity
  8
SK2
 62
     0
370
    -2
100
AcDbLine
 10
-167.0907312159566
 20
-38.34091954295402
 30
0.0
 11
-197.9402724638778
 21
-38.34091954295402
 31
0.0
  0
LINE
  5
145A
330
138D
100
AcDbEntity
  8
SK2
 62
     0
370
    -2
100
AcDbLine
 10
-167.0907312159566
 20
-80.34091954295401
 30
0.0
 11
-197.9402724638779
 21
-80.34091954295401
 31
0.0
  0
LINE
  5
145B
330
138D
100
AcDbEntity
  8
SK2
 62
     0
370
    -2
100
AcDbLine
 10
-195.9402724638778
 20
-42.91091954295402
 30
0.0
 11
-195.9402724638779
 21
-75.77091954295402
 31
0.0
  0
SOLID
  5
145C
330
138D
100
AcDbEntity
  8
SK2
 62
     0
100
AcDbTrace
 10
-196.7019391305445
 20
-42.91091954295402
 30
0.0
 11
-195.1786057972112
 21
-42.91091954295402
 31
0.0
 12
-195.9402724638778
 22
-38.34091954295402
 32
0.0
 13
-195.9402724638778
 23
-38.34091954295402
 33
0.0
  0
SOLID
  5
145D
330
138D
100
AcDbEntity
  8
SK2
 62
     0
100
AcDbTrace
 10
-196.7019391305445
 20
-75.77091954295402
 30
0.0
 11
-195.1786057972112
 21
-75.77091954295402
 31
0.0
 12
-195.9402724638779
 22
-80.34091954295401
 32
0.0
 13
-195.9402724638779
 23
-80.34091954295401
 33
0.0
  0
MTEXT
  5
145E
330
138D
100
AcDbEntity
  8
SK2
 62
     7
100
AcDbMText
 10
-199.7252724638778
 20
-59.34091954295403
 30
0.0
 40
4.57
 41
0.0
 71
     5
 72
     1
  1
\A1;MBM %%c42
  7
GENPRESET
 11
0.0000000000000001
 21
1.0
 31
0.0
 73
     1
 44
1.0
  0
POINT
  5
145F
330
138D
100
AcDbEntity
  8
Defpoints
 62
     0
100
AcDbPoint
 10
-167.0907312159566
 20
-38.34091954295402
 30
0.0
  0
POINT
  5
1460
330
138D
100
AcDbEntity
  8
Defpoints
 62
     0
100
AcDbPoint
 10
-167.0907312159566
 20
-80.34091954295401
 30
0.0
  0
POINT
  5
1461
330
138D
100
AcDbEntity
  8
Defpoints
 62
     0
100
AcDbPoint
 10
-195.9402724638779
 20
-80.34091954295401
 30
0.0
  0
ENDBLK
  5
1398
330
138D
100
AcDbEntity
  8
0
100
AcDbBlockEnd
  0
BLOCK
  5
146C
330
1462
100
AcDbEntity
  8
0
100
AcDbBlockBegin
  2
*D29
 70
     1
 10
0.0
 20
0.0
 30
0.0
  3
*D29
  1

  0
LINE
  5
1463
330
1462
100
AcDbEntity
  8
VERMASSUNG
 62
     0
370
    -2
100
AcDbLine
 10
150.5206262833999
 20
143.1771868582999
 30
0.0
 11
97.58868166720006
 21
143.1771868582999
 31
0.0
  0
LINE
  5
1464
330
1462
100
AcDbEntity
  8
VERMASSUNG
 62
     0
370
    -2
100
AcDbLine
 10
150.5206262833999
 20
71.1771868583
 30
0.0
 11
97.58868166720004
 21
71.1771868583
 31
0.0
  0
LINE
  5
1465
330
1462
100
AcDbEntity
  8
VERMASSUNG
 62
     0
370
    -2
100
AcDbLine
 10
98.58868166720005
 20
140.1771868582999
 30
0.0
 11
98.58868166720004
 21
74.1771868583
 31
0.0
  0
SOLID
  5
1466
330
1462
100
AcDbEntity
  8
VERMASSUNG
 62
     0
100
AcDbTrace
 10
98.08868166720005
 20
140.1771868582999
 30
0.0
 11
99.08868166720004
 21
140.1771868582999
 31
0.0
 12
98.58868166720005
 22
143.1771868582999
 32
0.0
 13
98.58868166720005
 23
143.1771868582999
 33
0.0
  0
SOLID
  5
1467
330
1462
100
AcDbEntity
  8
VERMASSUNG
 62
     0
100
AcDbTrace
 10
98.08868166720003
 20
74.1771868583
 30
0.0
 11
99.08868166720004
 21
74.1771868583
 31
0.0
 12
98.58868166720004
 22
71.1771868583
 32
0.0
 13
98.58868166720004
 23
71.1771868583
 33
0.0
  0
MTEXT
  5
1468
330
1462
100
AcDbEntity
  8
VERMASSUNG
 62
     0
100
AcDbMText
 10
81.66468166720001
 20
108.1779444340575
 30
0.0
 40
2.0
 41
0.0
 71
     1
 72
     1
  1
\A1;MBM %%c144.00
  7
SLDTEXTSTYLE0
 73
     1
 44
1.0
  0
POINT
  5
1469
330
1462
100
AcDbEntity
  8
Defpoints
 62
     0
100
AcDbPoint
 10
150.5206262833999
 20
143.1771868582999
 30
0.0
  0
POINT
  5
146A
330
1462
100
AcDbEntity
  8
Defpoints
 62
     0
100
AcDbPoint
 10
150.5206262833999
 20
71.1771868583
 30
0.0
  0
POINT
  5
146B
330
1462
100
AcDbEntity
  8
Defpoints
 62
     0
100
AcDbPoint
 10
98.58868166720004
 20
71.1771868583
 30
0.0
  0
ENDBLK
  5
146D
330
1462
100
AcDbEntity
  8
0
100
AcDbBlockEnd
  0
BLOCK
  5
1478
330
146E
100
AcDbEntity
  8
0
100
AcDbBlockBegin
  2
*D30
 70
     1
 10
0.0
 20
0.0
 30
0.0
  3
*D30
  1

  0
LINE
  5
146F
330
146E
100
AcDbEntity
  8
VERMASSUNG
 62
     0
370
    -2
100
AcDbLine
 10
150.0206262833999
 20
142.6771868582999
 30
0.0
 11
150.0206262833999
 21
167.5209269141
 31
0.0
  0
LINE
  5
1470
330
146E
100
AcDbEntity
  8
VERMASSUNG
 62
     0
370
    -2
100
AcDbLine
 10
246.0206262833999
 20
130.3229390276999
 30
0.0
 11
246.0206262833999
 21
167.5209269141
 31
0.0
  0
LINE
  5
1471
330
146E
100
AcDbEntity
  8
VERMASSUNG
 62
     0
370
    -2
100
AcDbLine
 10
153.0206262833999
 20
166.5209269141
 30
0.0
 11
243.0206262833999
 21
166.5209269141
 31
0.0
  0
SOLID
  5
1472
330
146E
100
AcDbEntity
  8
VERMASSUNG
 62
     0
100
AcDbTrace
 10
153.0206262833999
 20
167.0209269141
 30
0.0
 11
153.0206262833999
 21
166.0209269141
 31
0.0
 12
150.0206262833999
 22
166.5209269141
 32
0.0
 13
150.0206262833999
 23
166.5209269141
 33
0.0
  0
SOLID
  5
1473
330
146E
100
AcDbEntity
  8
VERMASSUNG
 62
     0
100
AcDbTrace
 10
243.0206262833999
 20
167.0209269141
 30
0.0
 11
243.0206262833999
 21
166.0209269141
 31
0.0
 12
246.0206262833999
 22
166.5209269141
 32
0.0
 13
246.0206262833999
 23
166.5209269141
 33
0.0
  0
MTEXT
  5
1474
330
146E
100
AcDbEntity
  8
VERMASSUNG
 62
     0
100
AcDbMText
 10
194.6206262833999
 20
170.0449269141
 30
0.0
 40
2.0
 41
0.0
 71
     1
 72
     1
  1
\A1;192.00
  7
SLDTEXTSTYLE0
 73
     1
 44
1.0
  0
POINT
  5
1475
330
146E
100
AcDbEntity
  8
Defpoints
 62
     0
100
AcDbPoint
 10
150.0206262833999
 20
142.6771868582999
 30
0.0
  0
POINT
  5
1476
330
146E
100
AcDbEntity
  8
Defpoints
 62
     0
100
AcDbPoint
 10
246.0206262833999
 20
130.3229390276999
 30
0.0
  0
POINT
  5
1477
330
146E
100
AcDbEntity
  8
Defpoints
 62
     0
100
AcDbPoint
 10
246.0206262833999
 20
166.5209269141
 30
0.0
  0
ENDBLK
  5
1479
330
146E
100
AcDbEntity
  8
0
100
AcDbBlockEnd
  0
BLOCK
  5
1484
330
147A
100
AcDbEntity
  8
0
100
AcDbBlockBegin
  2
*D31
 70
     1
 10
0.0
 20
0.0
 30
0.0
  3
*D31
  1

  0
LINE
  5
147B
330
147A
100
AcDbEntity
  8
VERMASSUNG
 62
     0
370
    -2
100
AcDbLine
 10
150.0206262833999
 20
142.6771868582999
 30
0.0
 11
150.0206262833999
 21
155.5209269141
 31
0.0
  0
LINE
  5
147C
330
147A
100
AcDbEntity
  8
VERMASSUNG
 62
     0
370
    -2
100
AcDbLine
 10
223.5206262833999
 20
113.8491868583
 30
0.0
 11
223.5206262833999
 21
155.5209269141
 31
0.0
  0
LINE
  5
147D
330
147A
100
AcDbEntity
  8
VERMASSUNG
 62
     0
370
    -2
100
AcDbLine
 10
153.0206262833999
 20
154.5209269141
 30
0.0
 11
220.5206262833999
 21
154.5209269141
 31
0.0
  0
SOLID
  5
147E
330
147A
100
AcDbEntity
  8
VERMASSUNG
 62
     0
100
AcDbTrace
 10
153.0206262833999
 20
155.0209269141
 30
0.0
 11
153.0206262833999
 21
154.0209269141
 31
0.0
 12
150.0206262833999
 22
154.5209269141
 32
0.0
 13
150.0206262833999
 23
154.5209269141
 33
0.0
  0
SOLID
  5
147F
330
147A
100
AcDbEntity
  8
VERMASSUNG
 62
     0
100
AcDbTrace
 10
220.5206262833999
 20
155.0209269141
 30
0.0
 11
220.5206262833999
 21
154.0209269141
 31
0.0
 12
223.5206262833999
 22
154.5209269141
 32
0.0
 13
223.5206262833999
 23
154.5209269141
 33
0.0
  0
MTEXT
  5
1480
330
147A
100
AcDbEntity
  8
VERMASSUNG
 62
     0
100
AcDbMText
 10
183.2706262833999
 20
158.0449269141
 30
0.0
 40
2.0
 41
0.0
 71
     1
 72
     1
  1
\A1;147.00
  7
SLDTEXTSTYLE0
 73
     1
 44
1.0
  0
POINT
  5
1481
330
147A
100
AcDbEntity
  8
Defpoints
 62
     0
100
AcDbPoint
 10
150.0206262833999
 20
142.6771868582999
 30
0.0
  0
POINT
  5
1482
330
147A
100
AcDbEntity
  8
Defpoints
 62
     0
100
AcDbPoint
 10
223.5206262833999
 20
113.8491868583
 30
0.0
  0
POINT
  5
1483
330
147A
100
AcDbEntity
  8
Defpoints
 62
     0
100
AcDbPoint
 10
223.5206262833999
 20
154.5209269141
 30
0.0
  0
ENDBLK
  5
1485
330
147A
100
AcDbEntity
  8
0
100
AcDbBlockEnd
  0
BLOCK
  5
18E2
330
18D8
100
AcDbEntity
  8
0
100
AcDbBlockBegin
  2
*D33
 70
     1
 10
0.0
 20
0.0
 30
0.0
  3
*D33
  1

  0
LINE
  5
1932
330
18D8
100
AcDbEntity
  8
2
 62
     0
370
    -2
100
AcDbLine
 10
0.0
 20
35.49999999999998
 30
0.0
 11
0.000000000000001
 21
51.20576649179617
 31
0.0
  0
LINE
  5
1933
330
18D8
100
AcDbEntity
  8
2
 62
     0
370
    -2
100
AcDbLine
 10
96.0
 20
23.14575216939998
 30
0.0
 11
96.0
 21
51.20576649179617
 31
0.0
  0
LINE
  5
1934
330
18D8
100
AcDbEntity
  8
2
 62
     0
370
    -2
100
AcDbLine
 10
4.570000000000001
 20
49.20576649179617
 30
0.0
 11
91.43
 21
49.20576649179617
 31
0.0
  0
SOLID
  5
1935
330
18D8
100
AcDbEntity
  8
2
 62
     0
100
AcDbTrace
 10
4.570000000000001
 20
49.96743315846284
 30
0.0
 11
4.570000000000001
 21
48.44409982512949
 31
0.0
 12
0.0000000000000008
 22
49.20576649179617
 32
0.0
 13
0.0000000000000008
 23
49.20576649179617
 33
0.0
  0
SOLID
  5
1936
330
18D8
100
AcDbEntity
  8
2
 62
     0
100
AcDbTrace
 10
91.43
 20
49.96743315846284
 30
0.0
 11
91.43
 21
48.44409982512949
 31
0.0
 12
96.0
 22
49.20576649179617
 32
0.0
 13
96.0
 23
49.20576649179617
 33
0.0
  0
MTEXT
  5
1937
330
18D8
100
AcDbEntity
  8
2
 62
     7
100
AcDbMText
 10
44.40928571428571
 20
55.27576649179618
 30
0.0
 40
4.57
 41
0.0
 71
     1
 72
     1
  1
\A1;96
  7
GENPRESET
 73
     1
 44
1.0
  0
POINT
  5
1938
330
18D8
100
AcDbEntity
  8
Defpoints
 62
     0
100
AcDbPoint
 10
0.0
 20
35.49999999999998
 30
0.0
  0
POINT
  5
1939
330
18D8
100
AcDbEntity
  8
Defpoints
 62
     0
100
AcDbPoint
 10
96.0
 20
23.14575216939998
 30
0.0
  0
POINT
  5
193A
330
18D8
100
AcDbEntity
  8
Defpoints
 62
     0
100
AcDbPoint
 10
96.0
 20
49.20576649179617
 30
0.0
  0
ENDBLK
  5
18E3
330
18D8
100
AcDbEntity
  8
0
100
AcDbBlockEnd
  0
BLOCK
  5
18EE
330
18E4
100
AcDbEntity
  8
0
100
AcDbBlockBegin
  2
*D34
 70
     1
 10
0.0
 20
0.0
 30
0.0
  3
*D34
  1

  0
LINE
  5
1905
330
18E4
100
AcDbEntity
  8
VERMASSUNG
 62
     0
370
    -2
100
AcDbLine
 10
0.0
 20
35.49999999999998
 30
0.0
 11
0.0000000000000008
 21
48.34374005580001
 31
0.0
  0
LINE
  5
1906
330
18E4
100
AcDbEntity
  8
VERMASSUNG
 62
     0
370
    -2
100
AcDbLine
 10
73.5
 20
6.671999999999997
 30
0.0
 11
73.5
 21
48.34374005580001
 31
0.0
  0
LINE
  5
1907
330
18E4
100
AcDbEntity
  8
VERMASSUNG
 62
     0
370
    -2
100
AcDbLine
 10
3.0
 20
47.34374005580001
 30
0.0
 11
70.5
 21
47.34374005580001
 31
0.0
  0
SOLID
  5
1908
330
18E4
100
AcDbEntity
  8
VERMASSUNG
 62
     0
100
AcDbTrace
 10
3.0
 20
47.84374005580001
 30
0.0
 11
3.0
 21
46.84374005580001
 31
0.0
 12
0.0000000000000007
 22
47.34374005580001
 32
0.0
 13
0.0000000000000007
 23
47.34374005580001
 33
0.0
  0
SOLID
  5
1909
330
18E4
100
AcDbEntity
  8
VERMASSUNG
 62
     0
100
AcDbTrace
 10
70.5
 20
47.84374005580001
 30
0.0
 11
70.5
 21
46.84374005580001
 31
0.0
 12
73.5
 22
47.34374005580001
 32
0.0
 13
73.5
 23
47.34374005580001
 33
0.0
  0
MTEXT
  5
190A
330
18E4
100
AcDbEntity
  8
VERMASSUNG
 62
     0
100
AcDbMText
 10
33.25
 20
50.86774005580001
 30
0.0
 40
2.0
 41
0.0
 71
     1
 72
     1
  1
\A1;147.00
  7
SLDTEXTSTYLE0
 73
     1
 44
1.0
  0
POINT
  5
190B
330
18E4
100
AcDbEntity
  8
Defpoints
 62
     0
100
AcDbPoint
 10
0.0
 20
35.49999999999998
 30
0.0
  0
POINT
  5
190C
330
18E4
100
AcDbEntity
  8
Defpoints
 62
     0
100
AcDbPoint
 10
73.5
 20
6.671999999999997
 30
0.0
  0
POINT
  5
190D
330
18E4
100
AcDbEntity
  8
Defpoints
 62
     0
100
AcDbPoint
 10
73.5
 20
47.34374005580001
 30
0.0
  0
ENDBLK
  5
18EF
330
18E4
100
AcDbEntity
  8
0
100
AcDbBlockEnd
  0
BLOCK
  5
18FA
330
18F0
100
AcDbEntity
  8
0
100
AcDbBlockBegin
  2
*D35
 70
     1
 10
0.0
 20
0.0
 30
0.0
  3
*D35
  1

  0
LINE
  5
1929
330
18F0
100
AcDbEntity
  8
SK2
 62
     0
370
    -2
100
AcDbLine
 10
0.5
 20
35.99999999999998
 30
0.0
 11
-50.99108659215273
 21
36.0
 31
0.0
  0
LINE
  5
192A
330
18F0
100
AcDbEntity
  8
SK2
 62
     0
370
    -2
100
AcDbLine
 10
0.5
 20
-36.0
 30
0.0
 11
-50.99108659215275
 21
-35.99999999999998
 31
0.0
  0
LINE
  5
192B
330
18F0
100
AcDbEntity
  8
SK2
 62
     0
370
    -2
100
AcDbLine
 10
-48.99108659215273
 20
31.42999999999999
 30
0.0
 11
-48.99108659215275
 21
-31.42999999999998
 31
0.0
  0
SOLID
  5
192C
330
18F0
100
AcDbEntity
  8
SK2
 62
     0
100
AcDbTrace
 10
-49.7527532588194
 20
31.42999999999999
 30
0.0
 11
-48.22941992548607
 21
31.42999999999999
 31
0.0
 12
-48.99108659215273
 22
36.0
 32
0.0
 13
-48.99108659215273
 23
36.0
 33
0.0
  0
SOLID
  5
192D
330
18F0
100
AcDbEntity
  8
SK2
 62
     0
100
AcDbTrace
 10
-49.75275325881941
 20
-31.42999999999998
 30
0.0
 11
-48.22941992548607
 21
-31.42999999999998
 31
0.0
 12
-48.99108659215275
 22
-35.99999999999998
 32
0.0
 13
-48.99108659215275
 23
-35.99999999999998
 33
0.0
  0
MTEXT
  5
192E
330
18F0
100
AcDbEntity
  8
SK2
 62
     7
100
AcDbMText
 10
-55.06108659215275
 20
-15.34214285714285
 30
0.0
 40
4.57
 41
0.0
 71
     1
 72
     1
  1
\A1;MBM %%c72
  7
GENPRESET
 11
0.0000000000000001
 21
1.0
 31
0.0
 73
     1
 44
1.0
  0
POINT
  5
192F
330
18F0
100
AcDbEntity
  8
Defpoints
 62
     0
100
AcDbPoint
 10
0.5
 20
35.99999999999998
 30
0.0
  0
POINT
  5
1930
330
18F0
100
AcDbEntity
  8
Defpoints
 62
     0
100
AcDbPoint
 10
0.5
 20
-36.0
 30
0.0
  0
POINT
  5
1931
330
18F0
100
AcDbEntity
  8
Defpoints
 62
     0
100
AcDbPoint
 10
-48.99108659215275
 20
-35.99999999999998
 30
0.0
  0
ENDBLK
  5
18FB
330
18F0
100
AcDbEntity
  8
0
100
AcDbBlockEnd
  0
ENDSEC
  0
SECTION
  2
ENTITIES
  0
MTEXT
  5
36
330
1F
100
AcDbEntity
  8
5
100
AcDbMText
 10
-49.62165361733454
 20
-70.32586767708102
 30
0.0
 40
4.57
 41
0.0
 71
     1
 72
     1
  1
252.720.100
  7
GENPRESET
 73
     1
 44
1.0
  0
MTEXT
  5
37
330
1F
100
AcDbEntity
  8
5
100
AcDbMText
 10
-49.57787044453453
 20
-62.28672888418103
 30
0.0
 40
4.57
 41
0.0
 71
     1
 72
     1
  1
Feinbohrkopf_Fine boring head
  7
GENPRESET
 73
     1
 44
1.0
  0
REGION
  5
2AB
330
1F
100
AcDbEntity
  8
5
100
AcDbModelerGeometry
 70
     1
  1
koo mi n o          
  1
h J1410(1 nl ^ \VL kqoqm QK mk Y-6 Y:= on ohejienf moog 
  1
rn fqfffffffffffffffj:rooh n:rono 
  1
=0;& {rn {n {rn {rn |
  1
3*2/ {rn {rn {m {o |
  1
,7:33 {rn {rn {rn {l {rn {n |
  1
9><: {rn {rn {k {m {rn {j 90-(>-; ;0*=3: 0*+ |
  1
300/ {rn {rn {i {l |
  1
/3>1:r,*-9><: {rn rkiqnifjloklffgjjmm rjlqoiknkjfifinfhjf o o o n n o o 90-(>-;@) V V V V |
  1
<0:;8: {rn {h {g {rn {f 90-(>-; {k {rn |
  1
<0:;8: {rn {no {i {rn {nn 90-(>-; {k {rn |
  1
<0:;8: {rn {i {no {rn {nm 90-(>-; {k {rn |
  1
:;8: {rn {nl {nk {i {nj 90-(>-; |
  1
<0:;8: {rn {g {h {rn {ni -:):-,:; {k {rn |
  1
:;8: {rn {nk {nh {h {ng 90-(>-; |
  1
:;8: {rn {nf {nl {g {mo 90-(>-; |
  1
):-+:' {rn {f {mn |
  1
):-+:' {rn {f {mm |
  1
61+<*-):r<*-): {rn 90-(>-; $ :'><+<*- 1*=, l 0/:1 mg 
  1
 o l oqlfigjomnhmmhnoggk n oqhmihgjfojjnjijimj n nqongknlhimogofofh n nqmhjijkomimihfkmn n 
  1
 nqjjhhfooifjkllfmm n nqginnnojigjoifhom n mqjkkgnlhjikjngfjl n mqgnmoofmlhlingolh n lqokfffiohonmmmllj n 
  1
 lqlloonlmhgjlffngk n lqjhjiljhgilhmngkg n lqflkijnjffnhfgkfk n kqklfnimomimokiofi n kqihhohhmgmkfjfon n 
  1
 kqfjglhmkoiilonmjg n jqlmoknigoglljkill n jqijoooimimfnhomng n iqnnmooijfhfmfnkjk n iqillkinjnnhkjhlfi n 
  1
 iqfknhinkfmmgkfnmf n hqmokikooliljffifi n hqkfmhhkhgfkhifngl n hqhnffflnfkkoglkjn n gqmmhonmnijoikjmjg n 
  1
 gqhgfgkommjlomnifh n fqnlnohigkhjkjhkmm n fqlggifigilfmffjgm l 
  1
 rklqmkihjfihologlfl rjnqhjkjkjfogkmijik o 
  1
 rklqmlglgklohmnilik rjnqkgkoffljkilijmh o 
  1
 rklqmmlokjhgjoimnkn rjoqfgggohlkomhjgjj o 
  1
 rklqjhkijljhgngflgk rjoqlgikolinmjiknjm o 
  1
 rklqfillinnhijkkogl rkfqflmgifinfojknkj o 
  1
 rkkqkgomofnoiofghjj rkfqhnmokfmmnilnji o 
  1
 rkkqfgifkljlglflooh rkfqkikgjnnjfngggig o 
  1
 rkjqgllnnojlofhikjj rkfqlkhogkkljjnhhgi o 
  1
 rkiqihjkjngmogonkh rkfqllnlikoljmfnhmg o 
  1
 rkhqkjkfnnnnjhmkogh rkfqkfihfjkfjlkgkog o 
  1
 rkhqflhmhonhnfkmhff rkfqhnmjjnoljnjfkli o 
  1
 rkgqlkmjnhjfhffhkhn rjoqommohjllmkokomf o 
  1
 rkgqhfinlomjhkfklmi rjoqkoglgkfkgkhommg o 
  1
 rkfqnmmgmfloilnkfkn rjnqoflhhoifnklgkog o 
  1
 rkfqnijlfnnlkkjifnn rjnqghoghohglihlmk o 
  1
 rkgqgifgglhhkmknmom rjmqkflgfmlojffllfg o 
  1
 rkgqjoomnmjmgofjgjg rjmqfiijnjkijnilfjn o 
  1
 rkhqfonhjjhomimilgf rjlqmjlmfkllmkhofnj o 
  1
 rkhqngkfojgjlfgngol rjlqjmlfngghilgmhii o 
  1
 rkiqlnfhnfnmjlfijki rjlqhonhofohnjfjonf o 
  1
 rkjqkgmflflillkhhjk rjlqgmhnmjhnhhinghk o 
  1
 rkkqhimffoolfgmgogm rjkqnnkgnnnjgihgofk o 
  1
 rkkqjljmjfgfnjhhomh rjkqifkmmiignfnnkom o 
  1
 rkkqhofjnmlgmlnhjfg rjjqmjihkojgmgkfkol o 
  1
 rkjqlhkmfhmifkihfkj rjjqjlmgnknohjfgggn o 
  1
 rkiqmniiihnjijonhgj rjjqinloknjljilfofg o 
  1
 rkhqmlgkhmmfnofknmi rjjqkijnknfknfflgoh o 
  1
 rkhqiflgffkjfonghg rjkqhilohgkhhkjkffh o 
  1
 rkhqhlknnhnfggjkhin rjkqlikkmhmkkmkhfil o 
  1
 rkhqhjnknglmjfnkjmg rjkqnfmflmggmnkgigm o 
  1
 o 
  1
 1*33@,*-9><: 
  1
 1*33@,*-9><: 
  1
 1*33=, 
  1
 1*33=, 
  1
 V V 
  1
 o 
  1
 o 
  3
 mi oqlfigjomnhmmhnoggk oqhmihgjfojjnjijimj nqongknlhimogofofh nqmhjijkomimihfkmn nqjjhhfooifjkllfmm nqginnnojigjoifhom mqjkkgnlhjikjngfjl mqgnmoofmlhlingolh lqokfffiohonmmmllj lqlloonlmhgjlffngk lqjhjiljhgilhmngkg lqflkijnjffnhfgkfk kqklfnimomimokiofi kq
  1
ihhohhmgmkfjfon kqfjglhmkoiilonmjg jqlmoknigoglljkill jqijoooimimfnhomng iqnnmooijfhfmfnkjk iqillkinjnnhkjhlfi iqfknhinkfmmgkfnmf hqmokikooliljffifi hqkfmhhkhgfkhifngl hqhnffflnfkkoglkjn gqmmhonmnijoikjmjg gqhgfgkommjlomnifh fqnlnohigkhjkjhkmm 
  1
 Y n Y o " V V |
  1
:;8: {rn {nf {nh {no {ml 90-(>-; |
  1
):-+:' {rn {nn {mk |
  1
,+->687+r<*-): {rn rkhqhjnknglmjfnkjmg rjkqnfmflmggmnkgigm o roqffffffnohkimjmnfi roqoonllioiiihkhngjfkh o V V |
  1
):-+:' {rn {ni {mj |
  1
,+->687+r<*-): {rn rkkqgmhfmljgfgohgmk rjnqhjmgjmjgiglnifl o oqffffffkmijjnoghjl roqoonohoflloomjjmgofg o V V |
  1
/061+ {rn rklqmkihjfihologlfl rjnqhjkjkjfogkmijik o |
  1
/061+ {rn rkhqhjnknglmjfnkjmg rjkqnfmflmggmnkgigm o |
  1
61+<*-):r<*-): {rn 90-(>-; $ :'><+<*- 1*=, l 0/:1 mk 
  1
 o l oqligokiljfljmjmjj n oqikiffjgmifofigklg n nqoigjglohkoojklhk n nqiohihjljnioiinng n 
  1
 nqfhmmojknmiffgfof n mqnfkhjgmkmhhogjlf n mqioinmmijimmmlmmg n lqnlhnlfiiikkokmkj n lqifnmlfgjmonggmhk n 
  1
 kqokoilfionkiiffnk n kqlffkggihjloikjmk n kqgnjjkihfkomhonmj n jqljoknhiinlnnjjjf n jqgnogkngnofmjifjk n 
  1
 iqmmhnfffmkgnlkoni n iqinkmilhmmmoihgkk n hqkgfigmoofjhoomml n hqgihgfiogmnmng n gqmjlnglnofmnkimnl n 
  1
 gqjjhhkmomokmlmfin n gqhimgololoifolglj n fqnknnhijkkiknoojg n fqmjiilgghlkomkimn l 
  1
 rkkqgmhfmljgfgohgmk rjnqhjmgjmjgiglnifl o 
  1
 rkkqgjlhhoofhohngni rjnqkfkilnlfkllogfj o 
  1
 rkkqgffmoinhlologhi rjnqokoiffljilimhmm o 
  1
 rkjqjjjingglmnhjgfj rjoqinhnlifgggkflgn o 
  1
 rkiqlkijomhlfjflolj rjoqjhilkfgjfjnijk o 
  1
 rkhqklonimjmlolngig rjoqinommfjfmlfgifi o 
  1
 rkhqjkfhlhhkkkkhmff rjnqjinmijnihfjniol o 
  1
 rkhqoklgfgkkgmoigki rjmqojhklkjfkfinnfk o 
  1
 rkiqmkoijogljmhffhf rjmqnklljhoihimmmhi o 
  1
 rkjqmglikmjkoflhjlj rjmqlhimgjjghoohjni o 
  1
 rkkqlljiijhkkgkjlmf rjmqjhlmfnjhfkhng o 
  1
 rklqjfhkhhiljkoglgm rjmqffiknholimokofl o 
  1
 rklqogojgohmmgmjjhl rjlqjhlfhljkfnggomj o 
  1
 rkmqgfkokknmmkfimig rjkqkjlofloikglnjlj o 
  1
 rklqolojklmgnlfimoi rjjqklomkmlifhogkjm o 
  1
 rklqifgkkliollikkih rjiqnjnikkihfojoiim o 
  1
 rkkqkkkjnhmilfjnoh rjiqjkfhnfihljnolih o 
  1
 rkjqjnhglnkggholmjn rjiqfoimfigokhngmfj o 
  1
 rkiqilgioimfinifol rjiqhfloinlnonfogli o 
  1
 rkhqhnmlhllmfhnmfgf rjiqjfhfhgfmikioogh o 
  1
 rkgqlijhlgilhmlhflf rjiqmhlnfgjhomknkkg o 
  1
 rkgqhgofhggjglgjnfh rjjqgljmmmnhhkfmkgl o 
  1
 rkfqnimikhnklnjkmgg rjjqlflknhkjnknkjoh o 
  1
 rkfqmjgjkkikljnoohg rjkqgminkmojjnohnfg o 
  1
 rkfqlnnlgiokkjfjihf rjkqimfkljifhfhlkoi o 
  1
 rkfqllijijolhkgohfi rjkqnfjojohkjhlkgng o 
  1
 o 
  1
 1*33@,*-9><: 
  1
 1*33@,*-9><: 
  1
 1*33=, 
  1
 1*33=, 
  1
 V V 
  1
 o 
  1
 o 
  3
 mm oqligokiljfljmjmjj oqikiffjgmifofigklg nqoigjglohkoojklhk nqiohihjljnioiinng nqfhmmojknmiffgfof mqnfkhjgmkmhhogjlf mqioinmmijimmmlmmg lqnlhnlfiiikkokmkj lqifnmlfgjmonggmhk kqokoilfionkiiffnk kqlffkggihjloikjmk kqgnjjkihfkomhonmj jqljoknhiinlnnjjjf jqg
  1
nogkngnofmjifjk iqmmhnfffmkgnlkoni iqinkmilhmmmoihgkk hqkgfigmoofjhoomml hqgihgfiogmnmng gqmjlnglnofmnkimnl gqjjhhkmomokmlmfin gqhimgololoifolglj fqnknnhijkkiknoojg 
  1
 Y n Y o " V V |
  1
/061+ {rn rkfqllijijolhkgohfi rjkqnfjojohkjhlkgng o |
  1
/061+ {rn rkkqgmhfmljgfgohgmk rjnqhjmgjmjgiglnifl o |
  0
REGION
  5
2AC
330
1F
100
AcDbEntity
  8
5
100
AcDbModelerGeometry
 70
     1
  1
koo mi n o          
  1
h J1410(1 nl ^ \VL kqoqm QK mk Y-6 Y:= on ohejienf moog 
  1
rn fqfffffffffffffffj:rooh n:rono 
  1
=0;& {rn {n {rn {rn |
  1
3*2/ {rn {rn {m {o |
  1
,7:33 {rn {rn {rn {l {rn {n |
  1
9><: {rn {rn {k {m {rn {j 90-(>-; ;0*=3: 0*+ |
  1
300/ {rn {rn {i {l |
  1
/3>1:r,*-9><: {rn rfqjilmkmhjlfhmghmk rjmqgjgfojillokgioh o o o n n o o 90-(>-;@) V V V V |
  1
<0:;8: {rn {h {g {rn {f -:):-,:; {k {rn |
  1
<0:;8: {rn {no {i {rn {nn -:):-,:; {k {rn |
  1
<0:;8: {rn {i {no {rn {nm -:):-,:; {k {rn |
  1
:;8: {rn {nl {nk {i {nj 90-(>-; |
  1
<0:;8: {rn {g {h {rn {ni -:):-,:; {k {rn |
  1
:;8: {rn {nh {nl {h {ng 90-(>-; |
  1
:;8: {rn {nk {nf {g {mo 90-(>-; |
  1
):-+:' {rn {f {mn |
  1
):-+:' {rn {f {mm |
  1
,+->687+r<*-): {rn rkfqkignfojookkkhlk rkiqgmgokfnhikfhnlm o n o o V V |
  1
:;8: {rn {nf {nh {no {ml 90-(>-; |
  1
):-+:' {rn {ni {mk |
  1
,+->687+r<*-): {rn rkfqkignfojookkkhlk rjgqggfhimogfiooogl o o n o V V |
  1
):-+:' {rn {nm {mj |
  1
,+->687+r<*-): {rn loqlknhokffmkfgff rkiqgmgokfnhikfhnlm o o rn o V V |
  1
/061+ {rn rkfqkignfojookkkhlk rkiqgmgokfnhikfhnlm o |
  1
/061+ {rn loqlknhokffmkfgff rkiqgmgokfnhikfhnlm o |
  1
,+->687+r<*-): {rn loqlknhokffmkfgff rjgqggfhimogfiooogl o rn o o V V |
  1
/061+ {rn rkfqkignfojookkkhlk rjgqggfhimogfiooogl o |
  1
/061+ {rn loqlknhokffmkfgff rjgqggfhimogfiooogl o |
  0
REGION
  5
2AD
330
1F
100
AcDbEntity
  8
5
100
AcDbModelerGeometry
 70
     1
  1
koo mi n o          
  1
h J1410(1 nl ^ \VL kqoqm QK mk Y-6 Y:= on ohejienf moog 
  1
rn fqfffffffffffffffj:rooh n:rono 
  1
=0;& {rn {n {rn {rn |
  1
3*2/ {rn {rn {m {o |
  1
,7:33 {rn {rn {rn {l {rn {n |
  1
9><: {rn {rn {k {m {rn {j 90-(>-; ;0*=3: 0*+ |
  1
300/ {rn {rn {i {l |
  1
/3>1:r,*-9><: {rn rmjqfgojlofoojjgnog rjlqoiknkjfifinfhjf o o o n n o o 90-(>-;@) V V V V |
  1
<0:;8: {rn {h {g {rn {f 90-(>-; {k {rn |
  1
<0:;8: {rn {no {i {rn {nn 90-(>-; {k {rn |
  1
<0:;8: {rn {i {no {rn {nm 90-(>-; {k {rn |
  1
:;8: {rn {nl {nk {i {nj 90-(>-; |
  1
<0:;8: {rn {g {h {rn {ni -:):-,:; {k {rn |
  1
:;8: {rn {nk {nh {h {ng 90-(>-; |
  1
:;8: {rn {nf {nl {g {mo 90-(>-; |
  1
):-+:' {rn {f {mn |
  1
):-+:' {rn {f {mm |
  1
61+<*-):r<*-): {rn 90-(>-; $ :'><+<*- 1*=, l 0/:1 mg 
  1
 o l oqlfigjomnhmmhnoggk n oqhmihgjfojjnjijimj n nqongknlhimogofofh n nqmhjijkomimihfkmn n 
  1
 nqjjhhfooifjkllfmm n nqginnnojigjoifhom n mqjkkgnlhjikjngfjl n mqgnmoofmlhlingolh n lqokfffiohonmmmllj n 
  1
 lqlloonlmhgjlffngk n lqjhjiljhgilhmngkg n lqflkijnjffnhfgkfk n kqklfnimomimokiofi n kqihhohhmgmkfjfon n 
  1
 kqfjglhmkoiilonmjg n jqlmoknigoglljkill n jqijoooimimfnhomng n iqnnmooijfhfmfnkjk n iqillkinjnnhkjhlfi n 
  1
 iqfknhinkfmmgkfnmf n hqmokikooliljffifi n hqkfmhhkhgfkhifngl n hqhnffflnfkkoglkjn n gqmmhonmnijoikjmjg n 
  1
 gqhgfgkommjlomnifh n fqnlnohigkhjkjhkmm n fqlggifigilfmffjgm l 
  1
 rmlqojhhionloggofhf rjnqhjkjkjfogkmijik o 
  1
 rmlqokflgkhihhggfjn rjnqkgkoffljkilijmh o 
  1
 rmlqolkokimkjilkhmh rjoqfgggohlkomhjgjj o 
  1
 rmlqlgjijkolghinfh rjoqlgikolinmjiknjm o 
  1
 rmlqhhklinilhnniiif rkfqflmgifinfojknkj o 
  1
 rmkqmfnmofjiiihnlkn rkfqhnmokfmmnilnji o 
  1
 rmkqhfhfklffgfijjfl rkfqkikgjnnjfngggig o 
  1
 rmjqikknnoffnjkfokm rkfqlkhogkkljjnhhgi o 
  1
 rmiqkgikjmmgnlhkoji rkfqllnlikoljmfnhmg o 
  1
 rmhqmijfnnjhimfiihk rkfqkfihfjkfjlkgkog o 
  1
 rmhqhkgmhoilmjnjlgi rkfqhnmjjnoljnjfkli o 
  1
 rmgqnjljngojgjhoojh rjoqommohjllmkokomf o 
  1
 rmgqiohnlohngoiifnm rjoqkoglgkfkgkhommg o 
  1
 rmgqfllgmfhiigghjmh rjnqoflhhoifnklgkog o 
  1
 rmgqfhilfnjfjomfkfh rjnqghoghohglihlmk o 
  1
 rmgqigoggkmlkgnlhgf rjmqkflgfmlojffllfg o 
  1
 rmgqlnnmnmfggiigkkk rjmqfiijnjkijnilfjn o 
  1
 rmhqhnmhjinilnfgfhj rjlqmjlmfkllmkhofnj o 
  1
 rmiqffjfoilnkjjklgf rjlqjmlfngghilgmhii o 
  1
 rmiqnlohnfjgjfifnlm rjlqhonhofohnjfjonf o 
  1
 rmjqmflflfgmlfmolk rjlqgmhnmjhnhhinghk o 
  1
 rmkqjhlffojookooiif rjkqnnkgnnnjgihgofk o 
  1
 rmkqlkimioljmnkfinl rjkqifkmmiignfnnkom o 
  1
 rmkqjmojnmgkmgfongk rjjqmjihkojgmgkfkol o 
  1
 rmjqngjmfhhlookojln rjjqjlmgnknohjfgggn o 
  1
 rmiqomhiihinhohklhn rjjqinloknjljilfofg o 
  1
 rmhqokfkhmhjniiihnl rjjqkijnknfknfflgoh o 
  1
 rmhqjokgfffnfjfnlih rjkqhilohgkhhkjkffh o 
  1
 rmhqjkjnnhijfkmhlkg rjkqlikkmhmkkmkhfil o 
  1
 rmhqjimknghgikghnnj rjkqnfmflmggmnkgigm o 
  1
 o 
  1
 1*33@,*-9><: 
  1
 1*33@,*-9><: 
  1
 1*33=, 
  1
 1*33=, 
  1
 V V 
  1
 o 
  1
 o 
  3
 mi oqlfigjomnhmmhnoggk oqhmihgjfojjnjijimj nqongknlhimogofofh nqmhjijkomimihfkmn nqjjhhfooifjkllfmm nqginnnojigjoifhom mqjkkgnlhjikjngfjl mqgnmoofmlhlingolh lqokfffiohonmmmllj lqlloonlmhgjlffngk lqjhjiljhgilhmngkg lqflkijnjffnhfgkfk kqklfnimomimokiofi kq
  1
ihhohhmgmkfjfon kqfjglhmkoiilonmjg jqlmoknigoglljkill jqijoooimimfnhomng iqnnmooijfhfmfnkjk iqillkinjnnhkjhlfi iqfknhinkfmmgkfnmf hqmokikooliljffifi hqkfmhhkhgfkhifngl hqhnffflnfkkoglkjn gqmmhonmnijoikjmjg gqhgfgkommjlomnifh fqnlnohigkhjkjhkmm 
  1
 Y n Y o " V V |
  1
:;8: {rn {nf {nh {no {ml 90-(>-; |
  1
):-+:' {rn {nn {mk |
  1
,+->687+r<*-): {rn rmhqjimknghgikghnnj rjkqnfmflmggmnkgigm o roqffffffnohkimjmnfi roqoonllioiiihkhngjfkh o V V |
  1
):-+:' {rn {ni {mj |
  1
,+->687+r<*-): {rn rmkqilgfmkojolgokn rjnqhjmgjmjgiglnifl o oqffffffkmijjnoghjl roqoonohoflloomjjmgofg o V V |
  1
/061+ {rn rmlqojhhionloggofhf rjnqhjkjkjfogkmijik o |
  1
/061+ {rn rmhqjimknghgikghnnj rjkqnfmflmggmnkgigm o |
  1
61+<*-):r<*-): {rn 90-(>-; $ :'><+<*- 1*=, l 0/:1 mk 
  1
 o l oqligokiljfljmjmjj n oqikiffjgmifofigklg n nqoigjglohkoojklhk n nqiohihjljnioiinng n 
  1
 nqfhmmojknmiffgfof n mqnfkhjgmkmhhogjlf n mqioinmmijimmmlmmg n lqnlhnlfiiikkokmkj n lqifnmlfgjmonggmhk n 
  1
 kqokoilfionkiiffnk n kqlffkggihjloikjmk n kqgnjjkihfkomhonmj n jqljoknhiinlnnjjjf n jqgnogkngnofmjifjk n 
  1
 iqmmhnfffmkgnlkoni n iqinkmilhmmmoihgkk n hqkgfigmoofjhoomml n hqgihgfiogmnmng n gqmjlnglnofmnkimnl n 
  1
 gqjjhhkmomokmlmfin n gqhimgololoifolglj n fqnknnhijkkiknoojg n fqmjiilgghlkomkimn l 
  1
 rmkqilgfmkojolgokn rjnqhjmgjmjgiglnifl o 
  1
 rmkqiikhhojjhikkkol rjnqkfkilnlfkllogfj o 
  1
 rmkqhnomoiilliolkim rjnqokoiffljilimhmm o 
  1
 rmjqliiinfmfmhkgkgn rjoqinhnlifgggkflgn o 
  1
 rmiqnjhjolmoonijimn rjoqjhilkfgjfjnijk o 
  1
 rmhqmknnimfgliokkjk rjoqinommfjfmlfgifi o 
  1
 rmhqliohlgmojonfggj rjnqjinmijnihfjniol o 
  1
 rmiqgjkgfgfoghhfkll rjmqojhklkjfkfinnfk o 
  1
 rmiqojnijnmfjgjmjij rjmqnklljhoihimmmhi o 
  1
 rmjqofkikloonjnonmn rjmqlhimgjjghoohjni o 
  1
 rmkqnkiiiimojknhfnj rjmqjhlmfnjhfkhng o 
  1
 rmlqkogkhgofjfgofig rjmqffiknholimokofl o 
  1
 rmmqgfnjgnngllfgnjf rjlqjhlfhljkfnggomj o 
  1
 rmmqhojokkjgloiggjj rjkqkjlofloikglnjlj o 
  1
 rmmqgknjklhknfighfm rjjqklomkmlifhogkjm o 
  1
 rmlqjofkkkoilflhojl rjiqnjnikkihfojoiim o 
  1
 rmkqmjjjnhhmkjmliji rjiqjkfhnfihljnolih o 
  1
 rmjqlmgglnfkfmhjglg rjiqfoimfigokhngmfj o 
  1
 rmiqkkfioihjihknini rjiqhfloinlnonfogli o 
  1
 rmhqjmllhlhfomgjjhj rjiqjfhfhgfmikioogh o 
  1
 rmgqnhihlfofhgnojmj rjiqmhlnfgjhomknkkg o 
  1
 rmgqjfnfhflngfjhhgl rjjqgljmmmnhhkfmkgl o 
  1
 rmgqfhlikhiolhmighk rjjqlflknhkjnknkjoh o 
  1
 rmfqoifjkjnokogmiik rjkqgminkmojjnohnfg o 
  1
 rmfqnmmlgijojnigmij rjkqimfkljifhfhlkoi o 
  1
 rmfqnkhjijkfgojllgm rjkqnfjojohkjhlkgng o 
  1
 o 
  1
 1*33@,*-9><: 
  1
 1*33@,*-9><: 
  1
 1*33=, 
  1
 1*33=, 
  1
 V V 
  1
 o 
  1
 o 
  3
 mm oqligokiljfljmjmjj oqikiffjgmifofigklg nqoigjglohkoojklhk nqiohihjljnioiinng nqfhmmojknmiffgfof mqnfkhjgmkmhhogjlf mqioinmmijimmmlmmg lqnlhnlfiiikkokmkj lqifnmlfgjmonggmhk kqokoilfionkiiffnk kqlffkggihjloikjmk kqgnjjkihfkomhonmj jqljoknhiinlnnjjjf jqg
  1
nogkngnofmjifjk iqmmhnfffmkgnlkoni iqinkmilhmmmoihgkk hqkgfigmoofjhoomml hqgihgfiogmnmng gqmjlnglnofmnkimnl gqjjhhkmomokmlmfin gqhimgololoifolglj fqnknnhijkkiknoojg 
  1
 Y n Y o " V V |
  1
/061+ {rn rmfqnkhjijkfgojllgm rjkqnfjojohkjhlkgng o |
  1
/061+ {rn rmkqilgfmkojolgokn rjnqhjmgjmjgiglnifl o |
  0
REGION
  5
2AE
330
1F
100
AcDbEntity
  8
5
100
AcDbModelerGeometry
 70
     1
  1
koo hn n o          
  1
h J1410(1 nl ^ \VL kqoqm QK mk Y-6 Y:= on ohejienf moog 
  1
rn fqfffffffffffffffj:rooh n:rono 
  1
=0;& {rn {n {rn {rn |
  1
3*2/ {rn {rn {m {o |
  1
,7:33 {rn {rn {rn {l {rn {n |
  1
9><: {rn {rn {k {m {rn {j 90-(>-; ;0*=3: 0*+ |
  1
300/ {rn {rn {i {l |
  1
/3>1:r,*-9><: {rn rlhqionfolnfgmflfk rjmqjgijggnninnjfoj o o o n n o o 90-(>-;@) V V V V |
  1
<0:;8: {rn {h {g {rn {f -:):-,:; {k {rn |
  1
<0:;8: {rn {no {i {rn {nn -:):-,:; {k {rn |
  1
<0:;8: {rn {i {nm {rn {nl -:):-,:; {k {rn |
  1
:;8: {rn {nk {nj {i {ni 90-(>-; |
  1
<0:;8: {rn {nh {h {rn {ng -:):-,:; {k {rn |
  1
:;8: {rn {nf {nk {h {mo 90-(>-; |
  1
<0:;8: {rn {g {mn {rn {mm -:):-,:; {k {rn |
  1
:;8: {rn {nj {ml {g {mk 90-(>-; |
  1
):-+:' {rn {f {mj |
  1
):-+:' {rn {f {mi |
  1
,+->687+r<*-): {rn rljqjgmfmgmfinjljig rjkqninkinjminghjii o oqmiolomoihhijflglf oqfijjmhmlogjmomljm o V V |
  1
<0:;8: {rn {mh {no {rn {mg -:):-,:; {k {rn |
  1
:;8: {rn {mf {nf {no {lo 90-(>-; |
  1
):-+:' {rn {ng {ln |
  1
,+->687+r<*-): {rn rliqgnmihoofifhjgog rkfqkjmggfjikgomhhk o oqmjmifkglnjlkokkfl roqfihjkiolnooimihlj o V V |
  1
<0:;8: {rn {nm {lm {rn {ll -:):-,:; {k {rn |
  1
:;8: {rn {ml {lk {nm {lj 90-(>-; |
  1
):-+:' {rn {nl {li |
  1
,+->687+r<*-): {rn rlkqlnljnhninlhhlhi rkfqkjmggfjikgomhhk o n o o V V |
  1
/061+ {rn rljqjgmfmgmfinjljig rjkqninkinjminghjii o |
  1
/061+ {rn rlkqlnljnhninlhhlhi rkfqkjmggfjikgomhhk o |
  1
<0:;8: {rn {lh {nh {rn {lg -:):-,:; {k {rn |
  1
:;8: {rn {lf {mf {nh {ko 90-(>-; |
  1
):-+:' {rn {mg {kn |
  1
,+->687+r<*-): {rn rlgqlgfjnhklhnlmjjk rkfqkjmggfjikgomhhk o n o o V V |
  1
/061+ {rn rliqgnmihoofifhjgog rkfqkjmggfjikgomhhk o |
  1
<0:;8: {rn {mn {km {rn {kl -:):-,:; {k {rn |
  1
:;8: {rn {lk {kk {mn {kj 90-(>-; |
  1
):-+:' {rn {mm {ki |
  1
,+->687+r<*-): {rn rlmqijinfmlkfiijini rkfqkjmggfjikgomhhk o roqmimioiiiomnmjnlhm roqfikfomfhomjhikigm o V V |
  1
/061+ {rn rlmqijinfmlkfiijini rkfqkjmggfjikgomhhk o |
  1
<0:;8: {rn {kh {mh {rn {kg -:):-,:; {k {rn |
  1
:;8: {rn {kf {lf {mh {jo 90-(>-; |
  1
):-+:' {rn {lg {jn |
  1
,+->687+r<*-): {rn rlfqhmglkghhljijgnl rjkqninkinjminghjii o oqmhlkfgomkgonoohjk oqfinghmjikjkhgfii o V V |
  1
/061+ {rn rlgqlgfjnhklhnlmjjk rkfqkjmggfjikgomhhk o |
  1
<0:;8: {rn {lm {jm {rn {jl -:):-,:; {k {rn |
  1
:;8: {rn {kk {jk {lm {jj 90-(>-; |
  1
):-+:' {rn {ll {ji |
  1
,+->687+r<*-): {rn rlkqimmljlkiogfhll rjiqihhmnonlnnkgmmf o rn o o V V |
  1
/061+ {rn rlkqimmljlkiogfhll rjiqihhmnonlnnkgmmf o |
  1
<0:;8: {rn {jm {lh {rn {jh -:):-,:; {k {rn |
  1
:;8: {rn {jg {kf {lh {jf 90-(>-; |
  1
):-+:' {rn {kg {io |
  1
,+->687+r<*-): {rn rkoqglfogkogmghioh rkfqkjmggfjikgomhhk o oqmmfjfkhikgmiijolh roqfhlmgilnnkomgijmi o V V |
  1
/061+ {rn rlfqhmglkghhljijgnl rjkqninkinjminghjii o |
  1
<0:;8: {rn {km {kh {rn {in -:):-,:; {k {rn |
  1
:;8: {rn {jk {im {km {il 90-(>-; |
  1
):-+:' {rn {kl {ik |
  1
,+->687+r<*-): {rn rliqmhjhfoilmjhnmni rjiqihhmnonlnnkgmmf o roqmhoiilkmjjoimflmk oqfimihkoknkjjfgkf o V V |
  1
/061+ {rn rliqmhjhfoilmjhnmni rjiqihhmnonlnnkgmmf o |
  1
:;8: {rn {ij {jg {kh {ii 90-(>-; |
  1
):-+:' {rn {jh {ih |
  1
,+->687+r<*-): {rn rkmqjjkhhllliifilhn rkfqkjmggfjikgomhhk o n o o V V |
  1
/061+ {rn rkoqglfogkogmghioh rkfqkjmggfjikgomhhk o |
  1
:;8: {rn {im {ij {jm {ig 90-(>-; |
  1
):-+:' {rn {jl {if |
  1
,+->687+r<*-): {rn rlhqimjjljhjjigkkfi rjnqghijkkjklhmnffn o roqmkfjhmmgonhfinini roqfigljinhmjhjfjmnf o V V |
  1
/061+ {rn rlhqimjjljhjjigkkfi rjnqghijkkjklhmnffn o |
  1
):-+:' {rn {in {ho |
  1
,+->687+r<*-): {rn rkoqjinmmfjgiolimlk rjiqihhmnonlnnkgmmf o roqmiiooiglkhhmfmkkh oqfilfhnnkmikjfmkgh o V V |
  1
/061+ {rn rkmqjjkhhllliifilhn rkfqkjmggfjikgomhhk o |
  1
,+->687+r<*-): {rn rlgqgimgooiogngghil rjiqihhmnonlnnkgmmf o rn o o V V |
  1
/061+ {rn rlgqgimgooiogngghil rjiqihhmnonlnnkgmmf o |
  1
/061+ {rn rkoqjinmmfjgiolimlk rjiqihhmnonlnnkgmmf o |
  0
REGION
  5
2AF
330
1F
100
AcDbEntity
  8
5
100
AcDbModelerGeometry
 70
     1
  1
koo mi n o          
  1
h J1410(1 nl ^ \VL kqoqm QK mk Y-6 Y:= on ohejienf moog 
  1
rn fqfffffffffffffffj:rooh n:rono 
  1
=0;& {rn {n {rn {rn |
  1
3*2/ {rn {rn {m {o |
  1
,7:33 {rn {rn {rn {l {rn {n |
  1
9><: {rn {rn {k {m {rn {j 90-(>-; ;0*=3: 0*+ |
  1
300/ {rn {rn {i {l |
  1
/3>1:r,*-9><: {rn rloqfoflojlnlnimfng rjlqoigfmjkgfghkmlm o o o n n o o 90-(>-;@) V V V V |
  1
<0:;8: {rn {h {g {rn {f -:):-,:; {k {rn |
  1
<0:;8: {rn {no {i {rn {nn -:):-,:; {k {rn |
  1
<0:;8: {rn {i {no {rn {nm -:):-,:; {k {rn |
  1
:;8: {rn {nl {nk {i {nj 90-(>-; |
  1
<0:;8: {rn {g {h {rn {ni -:):-,:; {k {rn |
  1
:;8: {rn {nh {nl {h {ng 90-(>-; |
  1
:;8: {rn {nk {nf {g {mo 90-(>-; |
  1
):-+:' {rn {f {mn |
  1
):-+:' {rn {f {mm |
  1
,+->687+r<*-): {rn rloqonmhhmlmkkoilkm rkfqkhgkokhlmlmimgl o o rn o V V |
  1
:;8: {rn {nf {nh {no {ml 90-(>-; |
  1
):-+:' {rn {ni {mk |
  1
,+->687+r<*-): {rn rlnqgojglglonfnfkfl rkfqkhgkokhlmlmimgl o n o o V V |
  1
):-+:' {rn {nm {mj |
  1
,+->687+r<*-): {rn rloqonmhhmlmkkoilkm rjiqijfkkimkhkmmngn o rn o o V V |
  1
/061+ {rn rloqonmhhmlmkkoilkm rkfqkhgkokhlmlmimgl o |
  1
/061+ {rn rloqonmhhmlmkkoilkm rjiqijfkkimkhkmmngn o |
  1
,+->687+r<*-): {rn rlnqgojglglonfnfkfl rjiqijfkkimkhkmmngn o o n o V V |
  1
/061+ {rn rlnqgojglglonfnfkfl rkfqkhgkokhlmlmimgl o |
  1
/061+ {rn rlnqgojglglonfnfkfl rjiqijfkkimkhkmmngn o |
  0
REGION
  5
2B0
330
1F
100
AcDbEntity
  8
5
100
AcDbModelerGeometry
 70
     1
  1
koo mi n o          
  1
h J1410(1 nl ^ \VL kqoqm QK mk Y-6 Y:= on ohejienf moog 
  1
rn fqfffffffffffffffj:rooh n:rono 
  1
=0;& {rn {n {rn {rn |
  1
3*2/ {rn {rn {m {o |
  1
,7:33 {rn {rn {rn {l {rn {n |
  1
9><: {rn {rn {k {m {rn {j 90-(>-; ;0*=3: 0*+ |
  1
300/ {rn {rn {i {l |
  1
/3>1:r,*-9><: {rn rngqfhmjglfhnfhoklh rjlqoiknkjfifinfhjf o o o n n o o 90-(>-;@) V V V V |
  1
<0:;8: {rn {h {g {rn {f 90-(>-; {k {rn |
  1
<0:;8: {rn {no {i {rn {nn 90-(>-; {k {rn |
  1
<0:;8: {rn {i {no {rn {nm 90-(>-; {k {rn |
  1
:;8: {rn {nl {nk {i {nj 90-(>-; |
  1
<0:;8: {rn {g {h {rn {ni -:):-,:; {k {rn |
  1
:;8: {rn {nk {nh {h {ng 90-(>-; |
  1
:;8: {rn {nf {nl {g {mo 90-(>-; |
  1
):-+:' {rn {f {mn |
  1
):-+:' {rn {f {mm |
  1
61+<*-):r<*-): {rn 90-(>-; $ :'><+<*- 1*=, l 0/:1 mg 
  1
 o l oqlfigjomnhmmhnoggk n oqhmihgjfojjnjijimj n nqongknlhimogofofh n nqmhjijkomimihfkmn n 
  1
 nqjjhhfooifjkllfmm n nqginnnojigjoifhom n mqjkkgnlhjikjngfjl n mqgnmoofmlhlingolh n lqokfffiohonmmmllj n 
  1
 lqlloonlmhgjlffngk n lqjhjiljhgilhmngkg n lqflkijnjffnhfgkfk n kqklfnimomimokiofi n kqihhohhmgmkfjfon n 
  1
 kqfjglhmkoiilonmjg n jqlmoknigoglljkill n jqijoooimimfnhomng n iqnnmooijfhfmfnkjk n iqillkinjnnhkjhlfi n 
  1
 iqfknhinkfmmgkfnmf n hqmokikooliljffifi n hqkfmhhkhgfkhifngl n hqhnffflnfkkoglkjn n gqmmhonmnijoikjmjg n 
  1
 gqhgfgkommjlomnifh n fqnlnohigkhjkjhkmm n fqlggifigilfmffjgm l 
  1
 rniqokfgnlmommfllog rjnqhjkjkjfogkmijik o 
  1
 rniqoknklhglfmonlog rjnqkgkoffljkilijmh o 
  1
 rniqomiofflnhokhoji rjoqfgggohlkomhjgjj o 
  1
 rniqlhhhohnnonhkmff rjoqlgikolinmjiknjm o 
  1
 rniqhiiknkhogjmgffg rkfqflmgifinfojknkj o 
  1
 rnhqmglmimilgoglih rkfqhnmokfmmnilnji o 
  1
 rnhqhgfffhoholhhfmm rkfqkikgjnnjfngggig o 
  1
 rngqilinikoimfinlh rkfqlkhogkkljjnhhgi o 
  1
 rnfqkhgjojljmhgilgj rkfqllnlikoljmfnhmg o 
  1
 rmoqmjhfikikhhofoom rkfqkfihfjkfjlkgkog o 
  1
 rmoqhkolmlholfmhhnk rkfqhnmjjnoljnjfkli o 
  1
 rmnqnkjjhnnmffgmlgi rjoqommohjllmkokomf o 
  1
 rmnqjffnglhgfkhfmkn rjoqkoglgkfkgkhommg o 
  1
 rmnqfmjggmglgmffgji rjnqoflhhoifnklgkog o 
  1
 rmnqfigkkkiiikkngmi rjnqghoghohglihlmk o 
  1
 rmnqihmflhloimminnh rjmqkflgfmlojffllfg o 
  1
 rmnqlolmiioioogohhl rjmqfiijnjkijnilfjn o 
  1
 rmoqhokgofmlkinnlok rjlqmjlmfkllmkhofnj o 
  1
 rnfqfghfjflgjfiihng rjlqjmlfngghilgmhii o 
  1
 rnfqnmmhhmijhlgnkin rjlqhonhofohnjfjonf o 
  1
 rngqmgjffmgfjllmiif rjlqgmhnmjhnhhinghk o 
  1
 rnhqjiiokljhngnmffh rjkqnnkgnnnjgihgofk o 
  1
 rnhqllglnlkmljinfkm rjkqifkmmiignfnnkom o 
  1
 rnhqjnmjijfnklomjnl rjjqmjihkojgmgkfkol o 
  1
 rngqnhhljogonkjmgi rjjqjlmgnknohjfgggn o 
  1
 rnfqonfhmoiggkgih rjjqinloknjljilfofg o 
  1
 rmoqoknjmjgmlohfokn rjjqkijnknfknfflgoh o 
  1
 rmoqkfifjmffnoolifj rjkqhilohgkhhkjkffh o 
  1
 rmoqjlhnhohloglfihi rjkqlikkmhmkkmkhfil o 
  1
 rmoqjjkkhngjhgffkkl rjkqnfmflmggmnkgigm o 
  1
 o 
  1
 1*33@,*-9><: 
  1
 1*33@,*-9><: 
  1
 1*33=, 
  1
 1*33=, 
  1
 V V 
  1
 o 
  1
 o 
  3
 mi oqlfigjomnhmmhnoggk oqhmihgjfojjnjijimj nqongknlhimogofofh nqmhjijkomimihfkmn nqjjhhfooifjkllfmm nqginnnojigjoifhom mqjkkgnlhjikjngfjl mqgnmoofmlhlingolh lqokfffiohonmmmllj lqlloonlmhgjlffngk lqjhjiljhgilhmngkg lqflkijnjffnhfgkfk kqklfnimomimokiofi kq
  1
ihhohhmgmkfjfon kqfjglhmkoiilonmjg jqlmoknigoglljkill jqijoooimimfnhomng iqnnmooijfhfmfnkjk iqillkinjnnhkjhlfi iqfknhinkfmmgkfnmf hqmokikooliljffifi hqkfmhhkhgfkhifngl hqhnffflnfkkoglkjn gqmmhonmnijoikjmjg gqhgfgkommjlomnifh fqnlnohigkhjkjhkmm 
  1
 Y n Y o " V V |
  1
:;8: {rn {nf {nh {no {ml 90-(>-; |
  1
):-+:' {rn {nn {mk |
  1
,+->687+r<*-): {rn rmoqjjkkhngjhgffkkl rjkqnfmflmggmnkgigm o roqffffffnohkimjmnfi roqoonllioiiihkhngjfkh o V V |
  1
):-+:' {rn {ni {mj |
  1
,+->687+r<*-): {rn rnhqilofhhnmnhfmhlf rjnqhjmgjmjgiglnifl o oqffffffkmijjnoghjl roqoonohoflloomjjmgofg o V V |
  1
/061+ {rn rniqokfgnlmommfllog rjnqhjkjkjfogkmijik o |
  1
/061+ {rn rmoqjjkkhngjhgffkkl rjkqnfmflmggmnkgigm o |
  1
61+<*-):r<*-): {rn 90-(>-; $ :'><+<*- 1*=, l 0/:1 mk 
  1
 o l oqligokiljfljmjmjj n oqikiffjgmifofigklg n nqoigjglohkoojklhk n nqiohihjljnioiinng n 
  1
 nqfhmmojknmiffgfof n mqnfkhjgmkmhhogjlf n mqioinmmijimmmlmmg n lqnlhnlfiiikkokmkj n lqifnmlfgjmonggmhk n 
  1
 kqokoilfionkiiffnk n kqlffkggihjloikjmk n kqgnjjkihfkomhonmj n jqljoknhiinlnnjjjf n jqgnogkngnofmjifjk n 
  1
 iqmmhnfffmkgnlkoni n iqinkmilhmmmoihgkk n hqkgfigmoofjhoomml n hqgihgfiogmnmng n gqmjlnglnofmnkimnl n 
  1
 gqjjhhkmomokmlmfin n gqhimgololoifolglj n fqnknnhijkkiknoojg n fqmjiilgghlkomkimn l 
  1
 rnhqilofhhnmnhfmhlf rjnqhjmgjmjgiglnifl o 
  1
 rnhqijigmlimfojihln rjnqkfkilnlfkllogfj o 
  1
 rnhqhommjfhojonjhfn rjnqokoiffljilimhmm o 
  1
 rngqljgihmlikniogn rjoqinhnlifgggkflgn o 
  1
 rnfqnkfjjimhnjhhfj rjoqjhilkfgjfjnijk o 
  1
 rmoqmllmniojjonihgl rjoqinommfjfmlfgifi o 
  1
 rmoqljmhfnmhiklmmnk rjnqjinmijnihfjniol o 
  1
 rnfqgkifjnfgonfnhin rjmqojhklkjfkfinnfk o 
  1
 rnfqoklhoklihmikgfk rjmqnklljhoihimmmhi o 
  1
 rngqogiifiohmfmmkj rjmqlhimgjjghoohjni o 
  1
 rnhqnlghnfmhiglomkk rjmqjhlmfnjhfkhng o 
  1
 rniqkoojlnnihlflmfh rjmqffiknholimokofl o 
  1
 rnjqgglilkmjkgnokgg rjlqjhlfhljkfnggomj o 
  1
 rnjqifhofhijkkgnngl rjkqkjlofloikglnjlj o 
  1
 rnjqglljfignllgnnmn rjjqklomkmlifhogkjm o 
  1
 rniqjonkfhnljlkflgm rjiqnjnikkihfojoiim o 
  1
 rnhqmkhjhohfjfljfgj rjiqjkfhnfihljnolih o 
  1
 rngqlmoggjomoiggnii rjiqfoimfigokhngmfj o 
  1
 rnfqkknijfgmgnjlfkj rjiqhfloinlnonfogli o 
  1
 rmoqjnjkmiginifhfok rjiqjfhfhgfmikioogh o 
  1
 rmnqnighfmnifmmmgjk rjiqmhlnfgjhomknkkg o 
  1
 rmnqjgkolmlfolhonnm rjjqgljmmmnhhkfmkgl o 
  1
 rmnqfijhooihjnlfmol rjjqlflknhkjnknkjoh o 
  1
 rmmqoinjfgnhjkfkffl rjkqgminkmojjnohnfg o 
  1
 rmmqnnkklfjhijgojfk rjkqimfkljifhfhlkoi o 
  1
 rmmqnlfingjifkijhnn rjkqnfjojohkjhlkgng o 
  1
 o 
  1
 1*33@,*-9><: 
  1
 1*33@,*-9><: 
  1
 1*33=, 
  1
 1*33=, 
  1
 V V 
  1
 o 
  1
 o 
  3
 mm oqligokiljfljmjmjj oqikiffjgmifofigklg nqoigjglohkoojklhk nqiohihjljnioiinng nqfhmmojknmiffgfof mqnfkhjgmkmhhogjlf mqioinmmijimmmlmmg lqnlhnlfiiikkokmkj lqifnmlfgjmonggmhk kqokoilfionkiiffnk kqlffkggihjloikjmk kqgnjjkihfkomhonmj jqljoknhiinlnnjjjf jqg
  1
nogkngnofmjifjk iqmmhnfffmkgnlkoni iqinkmilhmmmoihgkk hqkgfigmoofjhoomml hqgihgfiogmnmng gqmjlnglnofmnkimnl gqjjhhkmomokmlmfin gqhimgololoifolglj fqnknnhijkkiknoojg 
  1
 Y n Y o " V V |
  1
/061+ {rn rmmqnlfingjifkijhnn rjkqnfjojohkjhlkgng o |
  1
/061+ {rn rnhqilofhhnmnhfmhlf rjnqhjmgjmjgiglnifl o |
  0
REGION
  5
2B1
330
1F
100
AcDbEntity
  8
5
100
AcDbModelerGeometry
 70
     1
  1
koo ii n o          
  1
h J1410(1 nl ^ \VL kqoqm QK mk Y-6 Y:= on ohejienf moog 
  1
rn fqfffffffffffffffj:rooh n:rono 
  1
=0;& {rn {n {rn {rn |
  1
3*2/ {rn {rn {m {o |
  1
,7:33 {rn {rn {rn {l {rn {n |
  1
9><: {rn {rn {k {m {rn {j 90-(>-; ;0*=3: 0*+ |
  1
300/ {rn {rn {i {l |
  1
/3>1:r,*-9><: {rn rnoqgmgmfokggjiijml rjlqohijiofkjklkkml o o o n n o o 90-(>-;@) V V V V |
  1
<0:;8: {rn {h {g {rn {f 90-(>-; {k {rn |
  1
<0:;8: {rn {no {i {rn {nn 90-(>-; {k {rn |
  1
<0:;8: {rn {i {nm {rn {nl 90-(>-; {k {rn |
  1
:;8: {rn {nk {nj {i {ni 90-(>-; |
  1
<0:;8: {rn {nh {h {rn {ng 90-(>-; {k {rn |
  1
:;8: {rn {nj {nf {h {mo 90-(>-; |
  1
<0:;8: {rn {g {mn {rn {mm 90-(>-; {k {rn |
  1
:;8: {rn {ml {nk {g {mk 90-(>-; |
  1
):-+:' {rn {f {mj |
  1
):-+:' {rn {f {mi |
  1
,+->687+r<*-): {rn rnnqhihgmgkngjnmkog rjoqnnmffjnhlgflfmn o o rn o V V |
  1
<0:;8: {rn {mh {no {rn {mg 90-(>-; {k {rn |
  1
:;8: {rn {nf {mf {no {lo 90-(>-; |
  1
):-+:' {rn {nn {ln |
  1
,+->687+r<*-): {rn rnnqhihgmgkngjnmkog rjmqmfiihjlifnmkgfg o rn o o V V |
  1
<0:;8: {rn {nm {lm {rn {ll 90-(>-; {k {rn |
  1
:;8: {rn {lk {ml {nm {lj 90-(>-; |
  1
):-+:' {rn {mm {li |
  1
,+->687+r<*-): {rn rfqgfjmjkinlfmgfjjm rjoqnnmffjnhlgflfmn o rn o o V V |
  1
/061+ {rn rnnqhihgmgkngjnmkog rjoqnnmffjnhlgflfmn o |
  1
/061+ {rn rnnqhihgmgkngjnmkog rjmqmfiihjlifnmkgfg o |
  1
<0:;8: {rn {lh {nh {rn {lg 90-(>-; {k {rn |
  1
:;8: {rn {mf {lf {nh {ko 90-(>-; |
  1
):-+:' {rn {ng {kn |
  1
,+->687+r<*-): {rn rnlqfjmkfhgjhnfloii rjmqmfiihjlifnmkgfg o o rn o V V |
  1
/061+ {rn rnlqfjmkfhgjhnfloii rjmqmfiihjlifnmkgfg o |
  1
<0:;8: {rn {mn {km {rn {kl 90-(>-; {k {rn |
  1
:;8: {rn {kk {lk {mn {kj 90-(>-; |
  1
):-+:' {rn {ll {ki |
  1
,+->687+r<*-): {rn rfqgfjmjkinlfmgfjjm rjmqmhhnhgkmljhnfnn o o n o V V |
  1
/061+ {rn rfqgfjmjkinlfmgfjjm rjoqnnmffjnhlgflfmn o |
  1
<0:;8: {rn {kh {mh {rn {kg 90-(>-; {k {rn |
  1
:;8: {rn {lf {kf {mh {jo 90-(>-; |
  1
):-+:' {rn {mg {jn |
  1
,+->687+r<*-): {rn rnlqfjmkfhgjhnfloii rjlqgjikkijmnhklfhi o n o o V V |
  1
/061+ {rn rnlqfjmkfhgjhnfloii rjlqgjikkijmnhklfhi o |
  1
<0:;8: {rn {lm {kh {rn {jm 90-(>-; {k {rn |
  1
:;8: {rn {jl {kk {lm {jk 90-(>-; |
  1
):-+:' {rn {kl {jj |
  1
,+->687+r<*-): {rn rhqifnohfooflmlkomh rjmqmhhnhgkmljhnfnn o rn o o V V |
  1
/061+ {rn rfqgfjmjkinlfmgfjjm rjmqmhhnhgkmljhnfnn o |
  1
<0:;8: {rn {km {lh {rn {ji 90-(>-; {k {rn |
  1
:;8: {rn {kf {jh {lh {jg 90-(>-; |
  1
):-+:' {rn {lg {jf |
  1
,+->687+r<*-): {rn rnnqhihgmgkngjnmkog rjlqgjikkijmnhklfhi o o rn o V V |
  1
/061+ {rn rnnqhihgmgkngjnmkog rjlqgjikkijmnhklfhi o |
  1
:;8: {rn {io {jl {km {in 90-(>-; |
  1
):-+:' {rn {jm {im |
  1
,+->687+r<*-): {rn rhqifnohfooflmlkomh rjlqghjfklkihmfigj o o n o V V |
  1
/061+ {rn rhqifnohfooflmlkomh rjmqmhhnhgkmljhnfnn o |
  1
:;8: {rn {jh {io {kh {il 90-(>-; |
  1
):-+:' {rn {kg {ik |
  1
,+->687+r<*-): {rn rnnqhihgmgkngjnmkog rjiqokonmihnifhkfjl o n o o V V |
  1
/061+ {rn rnnqhihgmgkngjnmkog rjiqokonmihnifhkfjl o |
  1
):-+:' {rn {ji {ij |
  1
,+->687+r<*-): {rn rfqgfjmjkinlfmgfjjm rjlqghjfklkihmfigj o n o o V V |
  1
/061+ {rn rhqifnohfooflmlkomh rjlqghjfklkihmfigj o |
  1
,+->687+r<*-): {rn rfqgfjmjkinlfmgfjjm rjiqokonmihnifhkfjl o o n o V V |
  1
/061+ {rn rfqgfjmjkinlfmgfjjm rjiqokonmihnifhkfjl o |
  1
/061+ {rn rfqgfjmjkinlfmgfjjm rjlqghjfklkihmfigj o |
  0
REGION
  5
2B2
330
1F
100
AcDbEntity
  8
5
100
AcDbModelerGeometry
 70
     1
  1
koo mi n o          
  1
h J1410(1 nl ^ \VL kqoqm QK mk Y-6 Y:= on ohejienf moog 
  1
rn fqfffffffffffffffj:rooh n:rono 
  1
=0;& {rn {n {rn {rn |
  1
3*2/ {rn {rn {m {o |
  1
,7:33 {rn {rn {rn {l {rn {n |
  1
9><: {rn {rn {k {m {rn {j -:):-,:; ;0*=3: 0*+ |
  1
300/ {rn {rn {i {l |
  1
/3>1:r,*-9><: {rn rnoqgkofkhmnghionoh rjlqoijllklmfggoj o o o rn rn o o 90-(>-;@) V V V V |
  1
<0:;8: {rn {h {g {rn {f 90-(>-; {k {rn |
  1
<0:;8: {rn {no {i {rn {nn 90-(>-; {k {rn |
  1
<0:;8: {rn {i {no {rn {nm 90-(>-; {k {rn |
  1
:;8: {rn {nl {nk {i {nj 90-(>-; |
  1
<0:;8: {rn {g {h {rn {ni 90-(>-; {k {rn |
  1
:;8: {rn {nk {nh {h {ng 90-(>-; |
  1
:;8: {rn {nf {nl {g {mo 90-(>-; |
  1
):-+:' {rn {f {mn |
  1
):-+:' {rn {f {mm |
  1
,+->687+r<*-): {rn rnkqhknngmgnhhiljom rkfqljholkngijjnfhn o o rn o V V |
  1
:;8: {rn {nh {nf {no {ml 90-(>-; |
  1
):-+:' {rn {nn {mk |
  1
,+->687+r<*-): {rn rnkqhknngmgnhhiljom rjiqhhlilkkhlmofomf o n o o V V |
  1
):-+:' {rn {ni {mj |
  1
,+->687+r<*-): {rn riqfkohnninfhjihnm rkfqljholkngijjnfhn o rn o o V V |
  1
/061+ {rn rnkqhknngmgnhhiljom rkfqljholkngijjnfhn o |
  1
/061+ {rn rnkqhknngmgnhhiljom rjiqhhlilkkhlmofomf o |
  1
,+->687+r<*-): {rn riqfkohnninfhjihnm rjiqhhlilkkhlmofomf o o n o V V |
  1
/061+ {rn riqfkohnninfhjihnm rjiqhhlilkkhlmofomf o |
  1
/061+ {rn riqfkohnninfhjihnm rkfqljholkngijjnfhn o |
  0
REGION
  5
2B3
330
1F
100
AcDbEntity
  8
5
100
AcDbModelerGeometry
 70
     1
  1
koo nn n o          
  1
h J1410(1 nl ^ \VL kqoqm QK mk Y-6 Y:= on ohejienf moog 
  1
rn fqfffffffffffffffj:rooh n:rono 
  1
=0;& {rn {n {rn {rn |
  1
3*2/ {rn {rn {m {o |
  1
,7:33 {rn {rn {rn {l {rn {n |
  1
9><: {rn {rn {k {m {rn {j 90-(>-; ;0*=3: 0*+ |
  1
300/ {rn {rn {i {l |
  1
/3>1:r,*-9><: {rn nmqgfohnljnkimnofg rjlqoijogkgmlokhhfg o o o n n o o 90-(>-;@) V V V V |
  1
<0:;8: {rn {i {i {rn {h 90-(>-; {k {rn |
  1
:;8: {rn {g {g {i {f 90-(>-; |
  1
):-+:' {rn {h {no |
  1
61+<*-):r<*-): {rn 90-(>-; $ :'><+<*- 1*=, l <30,:; ml 
  1
 o l oqkoojgnkjmnohkngg n oqhmihiglnghjgffgin n nqojhklkhohmkfhol n nqklknomhhhhofhofh n 
  1
 nqgoifmlifgglhonh n mqljmfhomjhfinmnjn n mqhnlhonofgokhfhml n mqfgjifgglmmmggjih n lqljjojkfjnhjoihji n 
  1
 lqiffhngmihljfiggf n lqfhllnfokkkifnlfj n kqnfhlimgmimnjgnhi n kqljfofhlmhgfkhkg n kqjfkhggnfmglimhhf n 
  1
 kqfllohoihkgffhinh n jqlmjlmjimoogggkon n jqiklmikikjnoglgmn n iqonjoofjlkgojjgji n iqlkmfomgffhhgnjij n 
  1
 iqikfhmnlikhffhogm n iqfngojijnjjghhmfg n hqofnjnggkhoiliojh l 
  1
 nmqghngmkmoljkjggk rjoqhohifomffjhffjn o 
  1
 nmqiokffnfjiijljhg rjoqhmffhomomjknklg o 
  1
 nmqnmoggminlfgjhhn rjoqhholfmmimgjkink o 
  1
 nnqkioihijimhlllk rjnqnnoojkgooiiflgg o 
  1
 nnqnlgmnnijnfmhjm rjnqhkfomoohkifjfhh o 
  1
 noqflfiimjjligngff rjmqkllkogoomfgohfg o 
  1
 noqhiojggjnnoohggm rjlqmfinhmlnlimhiij o 
  1
 nnqooiohfgiihgklnf rjkqnlmgmkfjlogfkjk o 
  1
 nnqlmoohjmimgjiinf rjkqghjigloofjikmmh o 
  1
 nnqggiokiighkionml rjjqmhoghomimnlhjhg o 
  1
 nmqjmmlhjihkoohmog rjjqkimjogfggkgjonl o 
  1
 nlqngflnjmnjgffgjl rjjqkglmiffjfmmgkfk o 
  1
 nlqhkoniilihmmjknl rjjqlkmgkkljhnjomgk o 
  1
 nkqnmgkjnjikkhnllk rjjqnmfnfkliiljkjnn o 
  1
 nkqkkligngnjhlkmlh rjkqgjlmmlgofnggkmn o 
  1
 nkqihffmihkfknhilm rjkqknmlkhmfijgjok o 
  1
 nkqgjlhkflmghllmnj rjlqhfmfgjoigoiifnm o 
  1
 nkqffnjonglmjmgfig rjlqoffgnlnjohhlhh o 
  1
 nkqgfonhgknlnlhinf rjmqlhlfolffihofmol o 
  1
 nkqilgilfiikklnjfk rjnqhkkikonnjokolk o 
  1
 nkqlohoinkiohihmhm rjnqnkmffnnkmoikgon o 
  1
 nlqhhkhfiggkkikogn rjoqgnifffomnfniikk o 
  1
 nlqmgmgolhfhmkojkh rjoqhonjjnnhffnhlhk o 
  1
 nmqfghiflnokikfjii rjoqhojfjfkhimfgmf o 
  1
 nmqghngmkmoljkjggk rjoqhohifomffjhffjn o 
  1
 o 
  1
 1*33@,*-9><: 
  1
 1*33@,*-9><: 
  1
 1*33=, 
  1
 1*33=, 
  1
 V V 
  1
 o 
  1
 o 
  3
 mn oqkoojgnkjmnohkngg oqhmihiglnghjgffgin nqojhklkhohmkfhol nqklknomhhhhofhofh nqgoifmlifgglhonh mqljmfhomjhfinmnjn mqhnlhonofgokhfhml mqfgjifgglmmmggjih lqljjojkfjnhjoihji lqiffhngmihljfiggf lqfhllnfokkkifnlfj kqnfhlimgmimnjgnhi kqljfofhlmhgfkhkg kqjfkh
  1
ggnfmglimhhf kqfllohoihkgffhinh jqlmjlmjimoogggkon jqiklmikikjnoglgmn iqonjoofjlkgojjgji iqlkmfomgffhhgnjij iqikfhmnlikhffhogm iqfngojijnjjghhmfg 
  1
 Y n Y o " V V |
  1
/061+ {rn nmqghngmkmoljkjggk rjoqhohifomffjhffjn o |
  0
REGION
  5
2B4
330
1F
100
AcDbEntity
  8
5
100
AcDbModelerGeometry
 70
     1
  1
koo nn n o          
  1
h J1410(1 nl ^ \VL kqoqm QK mk Y-6 Y:= on ohejienf moog 
  1
rn fqfffffffffffffffj:rooh n:rono 
  1
=0;& {rn {n {rn {rn |
  1
3*2/ {rn {rn {m {o |
  1
,7:33 {rn {rn {rn {l {rn {n |
  1
9><: {rn {rn {k {m {rn {j 90-(>-; ;0*=3: 0*+ |
  1
300/ {rn {rn {i {l |
  1
/3>1:r,*-9><: {rn nmqggjjmfjoiflihfn rjlqnomokhghgmljlmj o o o n n o o 90-(>-;@) V V V V |
  1
<0:;8: {rn {i {i {rn {h 90-(>-; {k {rn |
  1
:;8: {rn {g {g {i {f 90-(>-; |
  1
):-+:' {rn {h {no |
  1
61+<*-):r<*-): {rn 90-(>-; $ :'><+<*- 1*=, l <30,:; mg 
  1
 o l oqjmgoifhjffkokifih n oqflmofglijffhhnlml n nqloihiinnoohnkhhg n nqhiljkmjkiinmjogl n 
  1
 mqnnnognoonkmogkkg n mqjillgijfimjkjnik n lqoflnkgomngmkggl n lqjiofnfmlfomimlli n lqfhkfokkklhhjkhig n 
  1
 kqmmmiimiinffogokn n kqimoijkgflgjimkgi n jqnhnhjmjiknoghohf n jqgjhnohgjlmjimmmm n iqmifnifjjikfnhhif n 
  1
 iqinofhklnkknfofok n hqojhfikfhomnjoklj n hqkjfhiggmgmmilljf n hqflgljnffjgoflgkm n gqlkmoookkglnihffl n 
  1
 gqjgkiohmfjkmmgjfi n fqnjglfmnhjohhikfk n fqijimfofkfkhflmmn n noqnoogkffjggjfkfl n noqjokghfmojlgjmoi n 
  1
 noqgklkglgogmlgfkh n nnqoiggghmhoijglhi n nnqhjkmognioiokmgh l 
  1
 nmqnhiglglnjkffmjl rkfqkmmlkjgokonkonk o 
  1
 nnqglmonjnogilhlli rkfqjoogoghmlklfggf o 
  1
 nnqmmlliiohhiilfig rkfqilflolfglfglhjn o 
  1
 noqkiohgkjfohjffkl rjoqoffgfnnlooiohk o 
  1
 fqfknnghfoojlkogfl rjoqhjnnhnlmmnklojn o 
  1
 fqjinhlmnigkhigjnl rjnqkknngimkloijkgg o 
  1
 fqmifhmjlklolmnmnn rjmqmlljghhklnhgihk o 
  1
 fqmoofnnokonmjlfoi rjlqnmlmlkgkohgjonh o 
  1
 fqmkojfnhjgjnjfokj rjkqnoollooonillgfl o 
  1
 fqiokmlohklfjokfjl rjkqfglnhmolfnoflm o 
  1
 noqolfmljlmnoonnhm rjjqiogjjmhhifkmmhj o 
  1
 noqjhhfmhnklmfolih rjiqoifoimofkhjloij o 
  1
 nnqmkifjojlnkofjlf rjiqjniolnhgnkfiihf o 
  1
 nmqlnhhiohjnloighg rjiqgojiinkjolnghjm o 
  1
 nlqkmjimkiglgkjojg rjiqgnhngghiogfkmgm o 
  1
 nkqlhhommkiflngjkh rjiqiofkhmjhflhggol o 
  1
 njqoihhmkmfifngknk rjiqnfhlllmiofngkif o 
  1
 njqhmkgmlfkojgflnh rjjqhlnknghkoihikng o 
  1
 niqnfjgmljlohgingi rjkqfilghoggioohnon o 
  1
 niqkflnigikifgijll rjkqnjikghnmjliinkn o 
  1
 niqjfifjfjfgojfmkl rjlqkogmfojifihklfm o 
  1
 niqjfhojjiljokfigj rjmqjfkhmigfmfnlhfg o 
  1
 niqkklokiiljofnhnf rjnqhnhhkhijnlmfooi o 
  1
 njqfhojmnjjgnfonhn rjoqgofhlhfkgjiikij o 
  1
 njqlikhjkfhhkhmhgj rjoqnlkohifliokomgh o 
  1
 nkqigkiijllkghlink rkfqhohngnonnmkkhmg o 
  1
 nkqoijhnhijjmlfhg rkfqjnljjknolhomofn o 
  1
 nlqmkigiglnimholii rkfqlkgngknhnmihnmn o 
  1
 nmqilimfjninojjkkl rkfqlfojonhhnhhlmni o 
  1
 nmqnhiglglnjkffmjl rkfqkmmlkjgokonkonk o 
  1
 o 
  1
 1*33@,*-9><: 
  1
 1*33@,*-9><: 
  1
 1*33=, 
  1
 1*33=, 
  1
 V V 
  1
 o 
  1
 o 
  3
 mi oqjmgoifhjffkokifih oqflmofglijffhhnlml nqloihiinnoohnkhhg nqhiljkmjkiinmjogl mqnnnognoonkmogkkg mqjillgijfimjkjnik lqoflnkgomngmkggl lqjiofnfmlfomimlli lqfhkfokkklhhjkhig kqmmmiimiinffogokn kqimoijkgflgjimkgi jqnhnhjmjiknoghohf jqgjhnohgjlmjimmmm iqm
  1
ifnifjjikfnhhif iqinofhklnkknfofok hqojhfikfhomnjoklj hqkjfhiggmgmmilljf hqflgljnffjgoflgkm gqlkmoookkglnihffl gqjgkiohmfjkmmgjfi fqnjglfmnhjohhikfk fqijimfofkfkhflmmn noqnoogkffjggjfkfl noqjokghfmojlgjmoi noqgklkglgogmlgfkh nnqoiggghmhoijglhi 
  1
 Y n Y o " V V |
  1
/061+ {rn nmqnhiglglnjkffmjl rkfqkmmlkjgokonkonk o |
  0
REGION
  5
2B5
330
1F
100
AcDbEntity
  8
5
100
AcDbModelerGeometry
 70
     1
  1
koo nn n o          
  1
h J1410(1 nl ^ \VL kqoqm QK mk Y-6 Y:= on ohejienf moog 
  1
rn fqfffffffffffffffj:rooh n:rono 
  1
=0;& {rn {n {rn {rn |
  1
3*2/ {rn {rn {m {o |
  1
,7:33 {rn {rn {rn {l {rn {n |
  1
9><: {rn {rn {k {m {rn {j 90-(>-; ;0*=3: 0*+ |
  1
300/ {rn {rn {i {l |
  1
/3>1:r,*-9><: {rn kqjijligimnifhjlom rjlqoijogkgmlokhhfg o o o n n o o 90-(>-;@) V V V V |
  1
<0:;8: {rn {i {i {rn {h 90-(>-; {k {rn |
  1
:;8: {rn {g {g {i {f 90-(>-; |
  1
):-+:' {rn {h {no |
  1
61+<*-):r<*-): {rn 90-(>-; $ :'><+<*- 1*=, l <30,:; ml 
  1
 o l oqkoojgnkjmnohkngg n oqhmihiglnghjgffgin n nqojhklkhohmkfhol n nqklknomhhhhofhofh n 
  1
 nqgoifmlifgglhonh n mqljmfhomjhfinmnjn n mqhnlhonofgokhfhml n mqfgjifgglmmmggjih n lqljjojkfjnhjoihji n 
  1
 lqiffhngmihljfiggf n lqfhllnfokkkifnlfj n kqnfhlimgmimnjgnhi n kqljfofhlmhgfkhkg n kqjfkhggnfmglimhhf n 
  1
 kqfllohoihkgffhinh n jqlmjlmjimoogggkon n jqiklmikikjnoglgmn n iqonjoofjlkgojjgji n iqlkmfomgffhhgnjij n 
  1
 iqikfhmnlikhffhogm n iqfngojijnjjghhmfg n hqofnjnggkhoiliojh l 
  1
 kqjkikhflnoimmlnif rjoqhohifomffjhffjn o 
  1
 kqmhfikhoilhloonok rjoqhmffhomomjknklg o 
  1
 lqhfjjlhhmnoimmolm rjoqhholfmmimgjkink o 
  1
 lqnljllniifgofhhmg rjnqnnoojkgooiiflgg o 
  1
 mqgnmgiihjfoolfjmh rjnqhkfomoohkifjfhh o 
  1
 mqinklnhiiohjgllnk rjmqkllkogoomfgohfg o 
  1
 mqkljmklingogklnkm rjlqmfinhmlnlimhiij o 
  1
 mqigohlkfhlgiohjnl rjkqnlmgmkfjlogfkjk o 
  1
 mqffkhloliffllojnf rjkqghjigloofjikmmh o 
  1
 lqjiohonhfkjlijjji rjjqmhoghomimnlhjhg o 
  1
 kqnfholohgnoglikom rjjqkimjogfggkgjonl o 
  1
 kqgilfholmmfhimgjg rjjqkglmiffjfmmgkfk o 
  1
 jqknkgmnkhklongkjh rjjqlkmgkkljhnjomgk o 
  1
 jqgolnoiihnjkhhiik rjjqnmfnfkliiljkjnn o 
  1
 iqnngllifmmgnoiiff rjkqgjlmmlgofnggkmn o 
  1
 iqljkjgngjikfkoiki rjkqknmlkhmfijgjok o 
  1
 iqjmgkokkljgofikg rjlqhfmfgjoigoiifnm o 
  1
 iqiiinjiflfiojkooi rjlqoffgnlnjohhlhh o 
  1
 iqjikglljmomnkojnj rjmqlhlfolffihofmol o 
  1
 iqlnlmfkhhnjogomil rjnqhkkikonnjokolk o 
  1
 jqfgnhnijihgklhoj rjnqnkmffnnkmoikgon o 
  1
 jqkkfkjnffnjkojnlj rjoqgnifffomnfniikk o 
  1
 kqfjhkjgfoklnifhfk rjoqhonjjnnhffnhlhk o 
  1
 kqiimlkgmnnhmjffgm rjoqhojfjfkhimfgmf o 
  1
 kqjkikhflnoimmlnif rjoqhohifomffjhffjn o 
  1
 o 
  1
 1*33@,*-9><: 
  1
 1*33@,*-9><: 
  1
 1*33=, 
  1
 1*33=, 
  1
 V V 
  1
 o 
  1
 o 
  3
 mn oqkoojgnkjmnohkngg oqhmihiglnghjgffgin nqojhklkhohmkfhol nqklknomhhhhofhofh nqgoifmlifgglhonh mqljmfhomjhfinmnjn mqhnlhonofgokhfhml mqfgjifgglmmmggjih lqljjojkfjnhjoihji lqiffhngmihljfiggf lqfhllnfokkkifnlfj kqnfhlimgmimnjgnhi kqljfofhlmhgfkhkg kqjfkh
  1
ggnfmglimhhf kqfllohoihkgffhinh jqlmjlmjimoogggkon jqiklmikikjnoglgmn iqonjoofjlkgojjgji iqlkmfomgffhhgnjij iqikfhmnlikhffhogm iqfngojijnjjghhmfg 
  1
 Y n Y o " V V |
  1
/061+ {rn kqjkikhflnoimmlnif rjoqhohifomffjhffjn o |
  0
REGION
  5
2B6
330
1F
100
AcDbEntity
  8
5
100
AcDbModelerGeometry
 70
     1
  1
koo nn n o          
  1
h J1410(1 nl ^ \VL kqoqm QK mk Y-6 Y:= on ohejienf moog 
  1
rn fqfffffffffffffffj:rooh n:rono 
  1
=0;& {rn {n {rn {rn |
  1
3*2/ {rn {rn {m {o |
  1
,7:33 {rn {rn {rn {l {rn {n |
  1
9><: {rn {rn {k {m {rn {j 90-(>-; ;0*=3: 0*+ |
  1
300/ {rn {rn {i {l |
  1
/3>1:r,*-9><: {rn kqjiongkinkonlmmlg rjlqnomokhghgmljlmj o o o n n o o 90-(>-;@) V V V V |
  1
<0:;8: {rn {i {i {rn {h 90-(>-; {k {rn |
  1
:;8: {rn {g {g {i {f 90-(>-; |
  1
):-+:' {rn {h {no |
  1
61+<*-):r<*-): {rn 90-(>-; $ :'><+<*- 1*=, l <30,:; mg 
  1
 o l oqjmgoifhjffkokifih n oqflmofglijffhhnlml n nqloihiinnoohnkhhg n nqhiljkmjkiinmjogl n 
  1
 mqnnnognoonkmogkkg n mqjillgijfimjkjnik n lqoflnkgomngmkggl n lqjiofnfmlfomimlli n lqfhkfokkklhhjkhig n 
  1
 kqmmmiimiinffogokn n kqimoijkgflgjimkgi n jqnhnhjmjiknoghohf n jqgjhnohgjlmjimmmm n iqmifnifjjikfnhhif n 
  1
 iqinofhklnkknfofok n hqojhfikfhomnjoklj n hqkjfhiggmgmmilljf n hqflgljnffjgoflgkm n gqlkmoookkglnihffl n 
  1
 gqjgkiohmfjkmmgjfi n fqnjglfmnhjohhikfk n fqijimfofkfkhflmmn n noqnoogkffjggjfkfl n noqjokghfmojlgjmoi n 
  1
 noqgklkglgogmlgfkh n nnqoiggghmhoijglhi n nnqhjkmognioiokmgh l 
  1
 lqgjnkflkmmjhjigin rkfqkmmlkjgokonkonk o 
  1
 lqjoiihomnjhnlhigk rkfqjoogoghmlklfggf o 
  1
 mqgfgomnngkhkokooh rkfqilflolfglfglhjn o 
  1
 mqnljklfifhglilhjm rjoqoffgfnnlooiohk o 
  1
 nqinjgkloohinojmnf rjoqhjnnhnlmmnklojn o 
  1
 nqmlilghmhjjjlmglf rjnqkknngimkloijkgg o 
  1
 oqfkklgokjonogjjlhi rjmqmlljghhklnhgihk o 
  1
 oqghjjiinkhmongmlmk rjlqnmlmlkgkohgjonh o 
  1
 oqfnjmkigijjfmllhnk rjkqnoollooonillgfl o 
  1
 nqmhgggjgjnomifmhf rjkqfglnhmolfnoflm o 
  1
 nqhnlgfokmgohhioki rjjqiogjjmhhifkmmhj o 
  1
 mqmjmjgmmjoliihffi rjiqoifoimofkhjloij o 
  1
 mqfmniojilgkgjfhnm rjiqjniolnhgnkfiihf o 
  1
 lqffmknjgjglgllnoj rjiqgojiinkjolnghjm o 
  1
 jqnoomhfhfofmnkfoj rjiqgnhngghiogfkmgm o 
  1
 iqojnihhjhilfkfhfj rjiqiofkhmjhflhggol o 
  1
 iqhkmlhfkolffkgkin rjiqnfhlllmiofngkif o 
  1
 hqlffkhfokhiijhkff rjjqhlnknghkoihikng o 
  1
 hqghokhgilhgimingn rjkqfilghoggioohnon o 
  1
 gqnihgmlhjkoimfijm rjkqnjikghnmjliinkn o 
  1
 gqmhninkhojnljihji rjlqkogmfojifihklfm o 
  1
 gqmhnhnohkmnminnhi rjmqjfkhmigfmfnlhfg o 
  1
 gqnnhhonhkmnignjnm rjnqhnhhkhijnlmfooi o 
  1
 hqikjnhiiijmiiiolg rjoqgofhlhfkgjiikij o 
  1
 hqolfknoogkjkfmnhi rjoqnlkohifliokomgh o 
  1
 iqljflmokknfjookii rkfqhohngnonnmkkhmg o 
  1
 jqhkolhmhimlnimnmi rkfqjnljjknolhomofn o 
  1
 kqfmnjmlkmllkihfgm rkfqlkgngknhnmihnmn o 
  1
 kqlnofjomignlnghjf rkfqlfojonhhnhhlmni o 
  1
 lqgjnkflkmmjhjigin rkfqkmmlkjgokonkonk o 
  1
 o 
  1
 1*33@,*-9><: 
  1
 1*33@,*-9><: 
  1
 1*33=, 
  1
 1*33=, 
  1
 V V 
  1
 o 
  1
 o 
  3
 mi oqjmgoifhjffkokifih oqflmofglijffhhnlml nqloihiinnoohnkhhg nqhiljkmjkiinmjogl mqnnnognoonkmogkkg mqjillgijfimjkjnik lqoflnkgomngmkggl lqjiofnfmlfomimlli lqfhkfokkklhhjkhig kqmmmiimiinffogokn kqimoijkgflgjimkgi jqnhnhjmjiknoghohf jqgjhnohgjlmjimmmm iqm
  1
ifnifjjikfnhhif iqinofhklnkknfofok hqojhfikfhomnjoklj hqkjfhiggmgmmilljf hqflgljnffjgoflgkm gqlkmoookkglnihffl gqjgkiohmfjkmmgjfi fqnjglfmnhjohhikfk fqijimfofkfkhflmmn noqnoogkffjggjfkfl noqjokghfmojlgjmoi noqgklkglgogmlgfkh nnqoiggghmhoijglhi 
  1
 Y n Y o " V V |
  1
/061+ {rn lqgjnkflkmmjhjigin rkfqkmmlkjgokonkonk o |
  0
REGION
  5
2B7
330
1F
100
AcDbEntity
  8
5
100
AcDbModelerGeometry
 70
     1
  1
koo ki n o          
  1
h J1410(1 nl ^ \VL kqoqm QK mk Y-6 Y:= on ohejienf moog 
  1
rn fqfffffffffffffffj:rooh n:rono 
  1
=0;& {rn {n {rn {rn |
  1
3*2/ {rn {rn {m {o |
  1
,7:33 {rn {rn {rn {l {rn {n |
  1
9><: {rn {rn {k {m {rn {j 90-(>-; ;0*=3: 0*+ |
  1
300/ {rn {rn {i {l |
  1
/3>1:r,*-9><: {rn rmqfohmlhnmihjfhjlm rjnqfnikgnojlhkiimm o o o n n o o 90-(>-;@) V V V V |
  1
<0:;8: {rn {h {g {rn {f -:):-,:; {k {rn |
  1
<0:;8: {rn {no {i {rn {nn -:):-,:; {k {rn |
  1
<0:;8: {rn {i {nm {rn {nl -:):-,:; {k {rn |
  1
:;8: {rn {nk {nj {i {ni 90-(>-; |
  1
<0:;8: {rn {nh {h {rn {ng -:):-,:; {k {rn |
  1
:;8: {rn {nf {nk {h {mo 90-(>-; |
  1
<0:;8: {rn {g {mn {rn {mm -:):-,:; {k {rn |
  1
:;8: {rn {nj {ml {g {mk 90-(>-; |
  1
):-+:' {rn {f {mj |
  1
):-+:' {rn {f {mi |
  1
,+->687+r<*-): {rn rjqfhkjjlomnhgghhf rkfqkifjgfngjhmfolj o n o o V V |
  1
<0:;8: {rn {mh {no {rn {mg -:):-,:; {k {rn |
  1
:;8: {rn {mf {nf {no {lo 90-(>-; |
  1
):-+:' {rn {ng {ln |
  1
,+->687+r<*-): {rn rjqfhkjjlomnhgghhf rjoqhjikonnimojggog o o n o V V |
  1
<0:;8: {rn {nm {mh {rn {lm -:):-,:; {k {rn |
  1
:;8: {rn {ml {ll {nm {lk 90-(>-; |
  1
):-+:' {rn {nl {lj |
  1
,+->687+r<*-): {rn oqmmglkgglgijilomng rkfqkifjgfngjhmfolj o o rn o V V |
  1
/061+ {rn rjqfhkjjlomnhgghhf rkfqkifjgfngjhmfolj o |
  1
/061+ {rn oqmmglkgglgijilomng rkfqkifjgfngjhmfolj o |
  1
<0:;8: {rn {mn {nh {rn {li -:):-,:; {k {rn |
  1
:;8: {rn {lh {mf {nh {lg 90-(>-; |
  1
):-+:' {rn {mg {lf |
  1
,+->687+r<*-): {rn rlqhgfggmohmhjgmkin rjoqhjikonnimojggog o rn o o V V |
  1
/061+ {rn rjqfhkjjlomnhgghhf rjoqhjikonnimojggog o |
  1
:;8: {rn {ll {ko {mn {kn 90-(>-; |
  1
):-+:' {rn {mm {km |
  1
,+->687+r<*-): {rn oqmmglkgglgijilomng rjoqhjikonnimojggog o rn o o V V |
  1
/061+ {rn oqmmglkgglgijilomng rjoqhjikonnimojggog o |
  1
:;8: {rn {ko {lh {mh {kl 90-(>-; |
  1
):-+:' {rn {li {kk |
  1
,+->687+r<*-): {rn rlqhgfggmohmhjgmkin rjiqigljlmhojnlfglf o o n o V V |
  1
/061+ {rn rlqhgfggmohmhjgmkin rjoqhjikonnimojggog o |
  1
):-+:' {rn {lm {kj |
  1
,+->687+r<*-): {rn rmqofmgimmjnnkgmgff rjoqhjikonnimojggog o o rn o V V |
  1
/061+ {rn rmqofmgimmjnnkgmgff rjoqhjikonnimojggog o |
  1
,+->687+r<*-): {rn rmqofmgimmjnnkgmgff rjiqigljlmhojnlfglf o rn o o V V |
  1
/061+ {rn rlqhgfggmohmhjgmkin rjiqigljlmhojnlfglf o |
  1
/061+ {rn rmqofmgimmjnnkgmgff rjiqigljlmhojnlfglf o |
  0
REGION
  5
2B8
330
1F
100
AcDbEntity
  8
5
100
AcDbModelerGeometry
 70
     1
  1
koo li n o          
  1
h J1410(1 nl ^ \VL kqoqm QK mk Y-6 Y:= on ohejienf moog 
  1
rn fqfffffffffffffffj:rooh n:rono 
  1
=0;& {rn {n {rn {rn |
  1
3*2/ {rn {rn {m {o |
  1
,7:33 {rn {rn {rn {l {rn {n |
  1
9><: {rn {rn {k {m {rn {j -:):-,:; ;0*=3: 0*+ |
  1
300/ {rn {rn {i {l |
  1
/3>1:r,*-9><: {rn moqmollfhmhfomkonh rjlqgjoiikkhfjmiknj o o o rn rn o o 90-(>-;@) V V V V |
  1
<0:;8: {rn {h {g {rn {f 90-(>-; {k {rn |
  1
<0:;8: {rn {no {i {rn {nn 90-(>-; {k {rn |
  1
<0:;8: {rn {i {nm {rn {nl 90-(>-; {k {rn |
  1
:;8: {rn {nk {nj {i {ni 90-(>-; |
  1
<0:;8: {rn {nh {h {rn {ng 90-(>-; {k {rn |
  1
:;8: {rn {nj {nf {h {mo 90-(>-; |
  1
<0:;8: {rn {g {nh {rn {mn 90-(>-; {k {rn |
  1
:;8: {rn {mm {nk {g {ml 90-(>-; |
  1
):-+:' {rn {f {mk |
  1
):-+:' {rn {f {mj |
  1
,+->687+r<*-): {rn nhqfoflmmnlgmomkif rkfqkhjnhgonfllgihn o o rn o V V |
  1
<0:;8: {rn {nm {no {rn {mi 90-(>-; {k {rn |
  1
:;8: {rn {nf {mh {no {mg 90-(>-; |
  1
):-+:' {rn {nn {mf |
  1
,+->687+r<*-): {rn nhqfoflmmnlgmomkif rjiqighhnnmkjnkghoj o n o o V V |
  1
:;8: {rn {lo {mm {nm {ln 90-(>-; |
  1
):-+:' {rn {mn {lm |
  1
,+->687+r<*-): {rn nfqjoifgmofihkknfi rkfqkhjnhgonfllgihn o rn o o V V |
  1
/061+ {rn nhqfoflmmnlgmomkif rkfqkhjnhgonfllgihn o |
  1
/061+ {rn nhqfoflmmnlgmomkif rjiqighhnnmkjnkghoj o |
  1
:;8: {rn {mh {lo {nh {ll 90-(>-; |
  1
):-+:' {rn {ng {lk |
  1
,+->687+r<*-): {rn mlqnflgghiomnmjknj rjiqighhnnmkjnkghoj o o n o V V |
  1
/061+ {rn mlqnflgghiomnmjknj rjiqighhnnmkjnkghoj o |
  1
):-+:' {rn {mi {lj |
  1
,+->687+r<*-): {rn nfqjoifgmofihkknfi rjjqlgfnoknhkofngif o o n o V V |
  1
/061+ {rn nfqjoifgmofihkknfi rkfqkhjnhgonfllgihn o |
  1
,+->687+r<*-): {rn mlqnflgghiomnmjknj rjjqlgfnoknhkofngif o rn o o V V |
  1
/061+ {rn mlqnflgghiomnmjknj rjjqlgfnoknhkofngif o |
  1
/061+ {rn nfqjoifgmofihkknfi rjjqlgfnoknhkofngif o |
  0
REGION
  5
2B9
330
1F
100
AcDbEntity
  8
5
100
AcDbModelerGeometry
 70
     1
  1
koo mi n o          
  1
h J1410(1 nl ^ \VL kqoqm QK mk Y-6 Y:= on ohejienf moog 
  1
rn fqfffffffffffffffj:rooh n:rono 
  1
=0;& {rn {n {rn {rn |
  1
3*2/ {rn {rn {m {o |
  1
,7:33 {rn {rn {rn {l {rn {n |
  1
9><: {rn {rn {k {m {rn {j 90-(>-; ;0*=3: 0*+ |
  1
300/ {rn {rn {i {l |
  1
/3>1:r,*-9><: {rn miqgmnifgnijnookgi rjlqoiknkjfifinfhjf o o o n n o o 90-(>-;@) V V V V |
  1
<0:;8: {rn {h {g {rn {f 90-(>-; {k {rn |
  1
<0:;8: {rn {no {i {rn {nn 90-(>-; {k {rn |
  1
<0:;8: {rn {i {no {rn {nm 90-(>-; {k {rn |
  1
:;8: {rn {nl {nk {i {nj 90-(>-; |
  1
<0:;8: {rn {g {h {rn {ni -:):-,:; {k {rn |
  1
:;8: {rn {nk {nh {h {ng 90-(>-; |
  1
:;8: {rn {nf {nl {g {mo 90-(>-; |
  1
):-+:' {rn {f {mn |
  1
):-+:' {rn {f {mm |
  1
61+<*-):r<*-): {rn 90-(>-; $ :'><+<*- 1*=, l 0/:1 mg 
  1
 o l oqlfigjomnhmmhnoggk n oqhmihgjfojjnjijimj n nqongknlhimogofofh n nqmhjijkomimihfkmn n 
  1
 nqjjhhfooifjkllfmm n nqginnnojigjoifhom n mqjkkgnlhjikjngfjl n mqgnmoofmlhlingolh n lqokfffiohonmmmllj n 
  1
 lqlloonlmhgjlffngk n lqjhjiljhgilhmngkg n lqflkijnjffnhfgkfk n kqklfnimomimokiofi n kqihhohhmgmkfjfon n 
  1
 kqfjglhmkoiilonmjg n jqlmoknigoglljkill n jqijoooimimfnhomng n iqnnmooijfhfmfnkjk n iqillkinjnnhkjhlfi n 
  1
 iqfknhinkfmmgkfnmf n hqmokikooliljffifi n hqkfmhhkhgfkhifngl n hqhnffflnfkkoglkjn n gqmmhonmnijoikjmjg n 
  1
 gqhgfgkommjlomnifh n fqnlnohigkhjkjhkmm n fqlggifigilfmffjgm l 
  1
 mfqhkkkigflkhhhinj rjnqhjkjkjfogkmijik o 
  1
 mfqhjmgkkmfhgifinj rjnqkgkoffljkilijmh o 
  1
 mfqhigngmgmoomlgih rjoqfgggohlkomhjgjj o 
  1
 mfqknijhjomigfiimk rjoqlgikolinmjiknjm o 
  1
 mfqomhgihkmgjknfmk rkfqflmgifinfojknkj o 
  1
 mgqjnnonfkfgfghmjl rkfqhnmokfmmnilnji o 
  1
 mgqookmgjoiiifloon rkfqkikgjnnjfngggig o 
  1
 mhqnjgnngohknofjjm rkfqlkhogkkljjnhhgi o 
  1
 miqlnjhhihgkmgkjlh rkfqllnlikoljmfnhmg o 
  1
 mjqjlilnhkgflinfm rkfqkfihfjkfjlkgkog o 
  1
 mjqojlfjgkllnklmlh rkfqhnmjjnoljnjfkli o 
  1
 mkqikghnnoohoggjli rjoqommohjllmkokomf o 
  1
 mkqnfjofglkhjfnign rjoqkoglgkfkgkhommg o 
  1
 mlqgiglffmfghhnoih rjnqoflhhoifnklgkog o 
  1
 mlqgmjglhkhoimfofh rjnqghoghohglihlmk o 
  1
 mkqnmnlkkglogkkgoj rjmqkflgfmlojffllfg o 
  1
 mkqkfnoniohiffonkf rjmqfiijnjkijnilfjn o 
  1
 mjqogfkhmfomkjfjf rjlqmjlmfkllmkhofnj o 
  1
 mjqgoilmmhjnnokmll rjlqjmlfngghilgmhii o 
  1
 miqihnjofkhfigfkim rjlqhonhofohnjfjonf o 
  1
 mhqjogmgfmknhlgmgm rjlqgmhnmjhnhhinghk o 
  1
 mgqmmgmlgjijmjhfmj rjkqnnkgnnnjgihgofk o 
  1
 mgqkjjfighnljogfg rjkqifkmmiignfnnkom o 
  1
 mgqmgnhnimmmhigkof rjjqmjihkojgmgkfkol o 
  1
 mhqiniflnlljingoim rjjqjlmgnknohjfgggn o 
  1
 miqhhkjinkkgjgkmmm rjjqinloknjljilfofg o 
  1
 mjqhjmhjilnlffnggn rjjqkijnknfknfflgoh o 
  1
 mjqmfhlmfnkioihmmh rjkqhilohgkhhkjkffh o 
  1
 mjqmjhnnnkoimlnmhk rjkqlikkmhmkkmkhfil o 
  1
 mjqmlfgnomhfnhnkhf rjkqnfmflmggmnkgigm o 
  1
 o 
  1
 1*33@,*-9><: 
  1
 1*33@,*-9><: 
  1
 1*33=, 
  1
 1*33=, 
  1
 V V 
  1
 o 
  1
 o 
  3
 mi oqlfigjomnhmmhnoggk oqhmihgjfojjnjijimj nqongknlhimogofofh nqmhjijkomimihfkmn nqjjhhfooifjkllfmm nqginnnojigjoifhom mqjkkgnlhjikjngfjl mqgnmoofmlhlingolh lqokfffiohonmmmllj lqlloonlmhgjlffngk lqjhjiljhgilhmngkg lqflkijnjffnhfgkfk kqklfnimomimokiofi kq
  1
ihhohhmgmkfjfon kqfjglhmkoiilonmjg jqlmoknigoglljkill jqijoooimimfnhomng iqnnmooijfhfmfnkjk iqillkinjnnhkjhlfi iqfknhinkfmmgkfnmf hqmokikooliljffifi hqkfmhhkhgfkhifngl hqhnffflnfkkoglkjn gqmmhonmnijoikjmjg gqhgfgkommjlomnifh fqnlnohigkhjkjhkmm 
  1
 Y n Y o " V V |
  1
:;8: {rn {nf {nh {no {ml 90-(>-; |
  1
):-+:' {rn {nn {mk |
  1
,+->687+r<*-): {rn mjqmlfgnomhfnhnkhf rjkqnfmflmggmnkgigm o roqffffffnohkimjmnfi roqoonllioiiihkhngjfkh o V V |
  1
):-+:' {rn {ni {mj |
  1
,+->687+r<*-): {rn mgqnillojonjmhgngl rjnqhjmgjmjgiglnifl o oqffffffkmijjnoghjl roqoonohoflloomjjmgofg o V V |
  1
/061+ {rn mfqhkkkigflkhhhinj rjnqhjkjkjfogkmijik o |
  1
/061+ {rn mjqmlfgnomhfnhnkhf rjkqnfmflmggmnkgigm o |
  1
61+<*-):r<*-): {rn 90-(>-; $ :'><+<*- 1*=, l 0/:1 mk 
  1
 o l oqligokiljfljmjmjj n oqikiffjgmifofigklg n nqoigjglohkoojklhk n nqiohihjljnioiinng n 
  1
 nqfhmmojknmiffgfof n mqnfkhjgmkmhhogjlf n mqioinmmijimmmlmmg n lqnlhnlfiiikkokmkj n lqifnmlfgjmonggmhk n 
  1
 kqokoilfionkiiffnk n kqlffkggihjloikjmk n kqgnjjkihfkomhonmj n jqljoknhiinlnnjjjf n jqgnogkngnofmjifjk n 
  1
 iqmmhnfffmkgnlkoni n iqinkmilhmmmoihgkk n hqkgfigmoofjhoomml n hqgihgfiogmnmng n gqmjlnglnofmnkimnl n 
  1
 gqjjhhkmomokmlmfin n gqhimgololoifolglj n fqnknnhijkkiknoojg n fqmjiilgghlkomkimn l 
  1
 mgqnillojonjmhgngl rjnqhjmgjmjgiglnifl o 
  1
 mgqnlhkjgjogonkmm rjnqkfkilnlfkllogfj o 
  1
 mgqofmommklmojjnol rjnqokoiffljilimhmm o 
  1
 mhqkljiofhhmfnonkn rjoqinhnlifgggkflgn o 
  1
 miqikkhmjgijkfloon rjoqjhilkfgjfjnijk o 
  1
 mjqjinoiiogmojknk rjoqinommfjfmlfgifi o 
  1
 mjqkknkfogioilgig rjnqjinmijnihfjniol o 
  1
 mjqfkhllonjighfnin rjmqojhklkjfkfinnfk o 
  1
 miqhjojhhhifgoiojh rjmqnklljhoihimmmhi o 
  1
 mhqhohjgioiknkgkhm rjmqlhimgjjghoohjni o 
  1
 mgqijjjimgiomkoij rjmqjhlmfnjhfkhng o 
  1
 mfqlflhjofifihhimi rjmqffiknholimokofl o 
  1
 mfqfnoikhggmmioklk rjlqjhlfhljkfnggomj o 
  1
 loqofhngkkgmjgfhlf rjkqkjlofloikglnjlj o 
  1
 mfqfioigjlmligfgom rjjqklomkmlifhogkjm o 
  1
 mfqmfmhgjoonhmnjkn rjiqnjnikkihfojoiim o 
  1
 mgqjkihnnlknnlkflh rjiqjkfhnfihljnolih o 
  1
 mhqkhllfhnnilgmhgj rjiqfoimfigokhngmfj o 
  1
 miqljmimmlogfnifhg rjiqhfloinlnonfogli o 
  1
 mjqmhggjjmhjlhlonf rjiqjfhfhgfmikioogh o 
  1
 mkqimjkgffihgkgoig rjiqmhlnfgjhomknkkg o 
  1
 mkqmnomkfhkihoognn rjjqgljmmmnhhkfmkgl o 
  1
 mlqgmgjgnkinflnhnf rjjqlflknhkjnknkjoh o 
  1
 mlqhlmiglfinjhjfon rjkqgminkmojjnohnfg o 
  1
 mlqihfgkmjiokfolmf rjkqimfkljifhfhlkoi o 
  1
 mlqijkiiljihiojmnm rjkqnfjojohkjhlkgng o 
  1
 o 
  1
 1*33@,*-9><: 
  1
 1*33@,*-9><: 
  1
 1*33=, 
  1
 1*33=, 
  1
 V V 
  1
 o 
  1
 o 
  3
 mm oqligokiljfljmjmjj oqikiffjgmifofigklg nqoigjglohkoojklhk nqiohihjljnioiinng nqfhmmojknmiffgfof mqnfkhjgmkmhhogjlf mqioinmmijimmmlmmg lqnlhnlfiiikkokmkj lqifnmlfgjmonggmhk kqokoilfionkiiffnk kqlffkggihjloikjmk kqgnjjkihfkomhonmj jqljoknhiinlnnjjjf jqg
  1
nogkngnofmjifjk iqmmhnfffmkgnlkoni iqinkmilhmmmoihgkk hqkgfigmoofjhoomml hqgihgfiogmnmng gqmjlnglnofmnkimnl gqjjhhkmomokmlmfin gqhimgololoifolglj fqnknnhijkkiknoojg 
  1
 Y n Y o " V V |
  1
/061+ {rn mlqijkiiljihiojmnm rjkqnfjojohkjhlkgng o |
  1
/061+ {rn mgqnillojonjmhgngl rjnqhjmgjmjgiglnifl o |
  0
LWPOLYLINE
  5
16B1
330
1F
100
AcDbEntity
  8
SK1
100
AcDbPolyline
 90
        3
 70
   128
 43
0.0
 10
59.78285744040005
 20
30.39999999999996
 10
60.19806503360001
 20
30.78938868859999
 10
60.63765184720001
 20
31.19999999999997
  0
LINE
  5
16B4
330
1F
100
AcDbEntity
  8
SK1
100
AcDbLine
 10
88.10000000000002
 20
30.39999999999996
 30
0.0
 11
59.78285744040005
 21
30.39999999999996
 31
0.0
  0
LINE
  5
16B8
330
1F
100
AcDbEntity
  8
3
100
AcDbLine
 10
92.0
 20
12.33548844739999
 30
0.0
 11
42.65000000000003
 21
12.33548844739999
 31
0.0
  0
LINE
  5
16B9
330
1F
100
AcDbEntity
  8
3
100
AcDbLine
 10
42.65000000000003
 20
9.035488447400011
 30
0.0
 11
92.0
 21
9.035488447400013
 31
0.0
  0
LINE
  5
16BA
330
1F
100
AcDbEntity
  8
3
100
AcDbLine
 10
65.72037918660004
 20
5.0
 30
0.0
 11
52.0
 21
5.0
 31
0.0
  0
LINE
  5
16BB
330
1F
100
AcDbEntity
  8
3
100
AcDbLine
 10
52.0
 20
-5.0
 30
0.0
 11
65.7229237468
 21
-5.0
 31
0.0
  0
LINE
  5
16CB
330
1F
100
AcDbEntity
  8
1
100
AcDbLine
 10
95.16284210960005
 20
-32.45000000000001
 30
0.0
 11
51.00000000000001
 21
-32.45000000000001
 31
0.0
  0
DIMENSION
  5
16CC
330
1F
100
AcDbEntity
  8
2
100
AcDbDimension
  2
*D33
 10
96.0
 20
49.20576649179617
 30
0.0
 11
48.0
 21
49.20576649179617
 31
0.0
 70
   160
 42
96.0
  3
GEN-ISO_TDM
100
AcDbAlignedDimension
 13
0.0
 23
35.49999999999998
 33
0.0
 14
96.0
 24
23.14575216939998
 34
0.0
100
AcDbRotatedDimension
  0
LINE
  5
16CE
330
1F
100
AcDbEntity
  8
4
100
AcDbLine
 10
0.0
 20
0.0
 30
0.0
 11
95.99999999999999
 21
0.0
 31
0.0
  0
LINE
  5
16D0
330
1F
100
AcDbEntity
  8
3
100
AcDbLine
 10
0.0
 20
-8.75
 30
0.0
 11
45.0
 21
-8.75
 31
0.0
  0
DIMENSION
  5
16D2
330
1F
100
AcDbEntity
  8
SK2
100
AcDbDimension
  2
*D35
 10
-48.99108659215275
 20
-35.99999999999998
 30
0.0
 11
-48.99108659215274
 21
0.0
 31
0.0
 70
   160
  1
MBM %%c<>
 42
71.99999999999999
  3
GEN-ISO_TDM
100
AcDbAlignedDimension
 13
0.5
 23
35.99999999999998
 33
0.0
 14
0.5
 24
-36.0
 34
0.0
 50
90.0
100
AcDbRotatedDimension
  0
LINE
  5
16D3
330
1F
100
AcDbEntity
  8
3
100
AcDbLine
 10
45.0
 20
8.75
 30
0.0
 11
0.0
 21
8.75
 31
0.0
  0
LINE
  5
16EF
330
1F
100
AcDbEntity
  8
3
100
AcDbLine
 10
45.0
 20
8.75
 30
0.0
 11
45.0
 21
-8.75
 31
0.0
  0
LINE
  5
16F0
330
1F
100
AcDbEntity
  8
3
100
AcDbLine
 10
45.0
 20
-8.75
 30
0.0
 11
50.25753041640001
 21
0.0
 31
0.0
  0
LINE
  5
16F1
330
1F
100
AcDbEntity
  8
3
100
AcDbLine
 10
58.35000000000002
 20
29.10892634759999
 30
0.0
 11
58.35000000000002
 21
-32.45000000000001
 31
0.0
  0
LINE
  5
16FF
330
1F
100
AcDbEntity
  8
1
100
AcDbLine
 10
0.5
 20
-36.0
 30
0.0
 11
47.45000000000006
 21
-36.0
 31
0.0
  0
LINE
  5
1712
330
1F
100
AcDbEntity
  8
3
100
AcDbLine
 10
50.77833865240001
 20
-32.6634285428
 30
0.0
 11
31.65000000000003
 21
-25.70128264240003
 31
0.0
  0
LINE
  5
1713
330
1F
100
AcDbEntity
  8
3
100
AcDbLine
 10
28.35000000000002
 20
-8.746008094399996
 30
0.0
 11
28.35000000000002
 21
-32.0
 31
0.0
  0
LINE
  5
1715
330
1F
100
AcDbEntity
  8
3
100
AcDbLine
 10
31.65000000000003
 20
-29.21306929160002
 30
0.0
 11
48.21911848820002
 21
-35.24373522919998
 31
0.0
  0
LINE
  5
1716
330
1F
100
AcDbEntity
  8
3
100
AcDbLine
 10
28.35000000000002
 20
-32.0
 30
0.0
 11
31.65000000000003
 21
-32.0
 31
0.0
  0
LINE
  5
171C
330
1F
100
AcDbEntity
  8
1
100
AcDbLine
 10
51.00000000000004
 20
-32.45000000000002
 30
0.0
 11
47.45000000000004
 21
-36.0
 31
0.0
  0
LINE
  5
172B
330
1F
100
AcDbEntity
  8
3
100
AcDbLine
 10
31.65000000000002
 20
-32.0
 30
0.0
 11
31.65000000000003
 21
-8.75
 31
0.0
  0
LINE
  5
1736
330
1F
100
AcDbEntity
  8
1
100
AcDbLine
 10
46.84764194220003
 20
35.99999999999998
 30
0.0
 11
0.5
 21
35.99999999999998
 31
0.0
  0
LINE
  5
1748
330
1F
100
AcDbEntity
  8
3
100
AcDbLine
 10
39.35000000000002
 20
13.01557257839999
 30
0.0
 11
39.35000000000002
 21
3.558617222200012
 31
0.0
  0
LINE
  5
1749
330
1F
100
AcDbEntity
  8
3
100
AcDbLine
 10
42.65000000000003
 20
3.55741198779998
 30
0.0
 11
42.64436441340001
 21
13.14004855519999
 31
0.0
  0
LWPOLYLINE
  5
174B
330
1F
100
AcDbEntity
  8
3
100
AcDbPolyline
 90
       20
 70
   128
 43
0.0
 10
41.0
 20
1.98774627580002
 10
41.54063078040002
 20
2.077866372199991
 10
42.02022474480003
 20
2.3349751792
 10
42.39087712439999
 20
2.7296560682
 10
42.60707429700005
 20
3.214106536999992
 10
42.64047288540001
 20
3.719965349599988
 10
42.493543831
 20
4.18816889819999
 10
42.1827766586
 20
4.579039722400011
 10
41.73483789480002
 20
4.857463697199989
 10
41.2015548594
 20
4.992119207599984
 10
40.65302487740001
 20
4.971589287599982
 10
40.14779739580001
 20
4.802978978399977
 10
39.7316516976
 20
4.497086650400007
 10
39.45292025380001
 20
4.075321127999984
 10
39.35024067880005
 20
3.584672014200009
 10
39.43154649860002
 20
3.084829008599996
 10
39.68354812400002
 20
2.627158073999993
 10
40.08480337780002
 20
2.260636477199994
 10
40.59412761419998
 20
2.037957495999961
 10
41.0
 20
1.98774627580002
  0
LWPOLYLINE
  5
174E
330
1F
100
AcDbEntity
  8
3
100
AcDbPolyline
 90
       20
 70
   128
 43
0.0
 10
41.0
 20
11.50822257339999
 10
40.46424587579998
 20
11.58989495439996
 10
39.98654902400005
 20
11.82606162759998
 10
39.61867531079997
 20
12.19113026959999
 10
39.4004895612
 20
12.64554002819997
 10
39.35563558640001
 20
13.14004855519999
 10
39.48897401099998
 20
13.62106817879998
 10
39.78605554739999
 20
14.036472959
 10
40.21468680140003
 20
14.3412473418
 10
40.72841892600002
 20
14.50236429420002
 10
41.2715810738
 20
14.50236429420002
 10
41.78531319840004
 20
14.3412473418
 10
42.2139444526
 20
14.036472959
 10
42.51102598900001
 20
13.62106817879998
 10
42.64436441340001
 20
13.14004855519999
 10
42.59951043880005
 20
12.64554002819997
 10
42.38132468900005
 20
12.19113026959999
 10
42.01345097580002
 20
11.82606162759998
 10
41.53575412420003
 20
11.58989495439996
 10
41.0
 20
11.50822257339999
  0
LINE
  5
1750
330
1F
100
AcDbEntity
  8
3
100
AcDbLine
 10
50.25753041640001
 20
0.0
 30
0.0
 11
45.0
 21
8.75
 31
0.0
  0
LINE
  5
1751
330
1F
100
AcDbEntity
  8
3
100
AcDbLine
 10
48.99569690480001
 20
0.0
 30
0.0
 11
52.0
 21
-5.0
 31
0.0
  0
LINE
  5
1752
330
1F
100
AcDbEntity
  8
3
100
AcDbLine
 10
52.0
 20
5.0
 30
0.0
 11
48.99569690480001
 21
0.0
 31
0.0
  0
LINE
  5
1753
330
1F
100
AcDbEntity
  8
3
100
AcDbLine
 10
52.0
 20
-5.0
 30
0.0
 11
52.0
 21
5.0
 31
0.0
  0
LINE
  5
1754
330
1F
100
AcDbEntity
  8
SK1
100
AcDbLine
 10
58.5
 20
29.99999999999998
 30
0.0
 11
58.5
 21
29.08516868156665
 31
0.0
  0
LINE
  5
1757
330
1F
100
AcDbEntity
  8
1
100
AcDbLine
 10
96.0
 20
23.14575216939998
 30
0.0
 11
51.0
 21
30.27305198399999
 31
0.0
  0
LINE
  5
1758
330
1F
100
AcDbEntity
  8
1
100
AcDbLine
 10
46.83912871060004
 20
35.99999999999998
 30
0.0
 11
51.0
 21
30.27305198399999
 31
0.0
  0
LINE
  5
1759
330
1F
100
AcDbEntity
  8
SK1
100
AcDbLine
 10
59.70000000000005
 20
31.19999999999997
 30
0.0
 11
58.5
 21
29.99999999999998
 31
0.0
  0
LWPOLYLINE
  5
175A
330
1F
100
AcDbEntity
  8
1
100
AcDbPolyline
 90
       29
 70
   128
 43
0.0
 10
69.58362080200004
 20
3.9136123488
 10
70.95882652440002
 20
4.797445707400015
 10
72.83576210180001
 20
5.314248826199985
 10
73.83531120640004
 20
5.341071400600014
 10
74.8535873724
 20
5.199262971199971
 10
75.81515763180004
 20
4.895739845399987
 10
76.73692069320003
 20
4.419056644999983
 10
77.52117911599999
 20
3.820475832999989
 10
78.20747900360004
 20
3.068074030600001
 10
78.70108604380004
 20
2.27751655999998
 10
79.05461673280001
 20
1.380233245400006
 10
79.23716735080001
 20
-0.3565262441999835
 10
78.84559849440001
 20
-1.967534957000026
 10
77.95234794880002
 20
-3.38143504040002
 10
76.58741694180003
 20
-4.510873161200009
 10
74.81759551360005
 20
-5.207290818199993
 10
73.83642407060006
 20
-5.341010563800011
 10
72.81878180900003
 20
-5.312380022799999
 10
71.82876741400002
 20
-5.118352885600017
 10
70.8585368468
 20
-4.750199214600002
 10
70.00034745599998
 20
-4.241906990400025
 10
69.2215305016
 20
-3.570377408000013
 10
68.6221920858
 20
-2.828750698199996
 10
68.15195766419998
 20
-1.961793843200013
 10
67.87801071720003
 20
-1.120475905799992
 10
67.75462556140002
 20
-0.2141253995999932
 10
67.96580678740003
 20
1.449287766999987
 10
68.69599930640004
 20
2.935888858400005
 10
69.58362076880002
 20
3.913612364799973
  0
LINE
  5
175C
330
1F
100
AcDbEntity
  8
1
100
AcDbLine
 10
96.0
 20
23.14575216939998
 30
0.0
 11
96.0
 21
-31.0
 31
0.0
  0
LINE
  5
1765
330
1F
100
AcDbEntity
  8
3
100
AcDbLine
 10
96.0
 20
-25.5
 30
0.0
 11
88.65000000000003
 21
-25.5
 31
0.0
  0
LINE
  5
1766
330
1F
100
AcDbEntity
  8
3
100
AcDbLine
 10
88.64817512180001
 20
-28.5
 30
0.0
 11
96.0
 21
-28.5
 31
0.0
  0
LINE
  5
176D
330
1F
100
AcDbEntity
  8
1
100
AcDbLine
 10
77.45000000000004
 20
-35.45103095520002
 30
0.0
 11
69.55000000000001
 21
-35.45103095520002
 31
0.0
  0
LINE
  5
1771
330
1F
100
AcDbEntity
  8
1
100
AcDbLine
 10
58.34999999961482
 20
-32.45000000000001
 30
0.0
 11
69.55000000000001
 21
-35.45103095520002
 31
0.0
  0
LINE
  5
1809
330
1F
100
AcDbEntity
  8
1
100
AcDbLine
 10
77.45000000000004
 20
-35.45103095520002
 30
0.0
 11
88.64999999971285
 21
-32.45000000000001
 31
0.0
  0
LINE
  5
18A1
330
1F
100
AcDbEntity
  8
1
100
AcDbLine
 10
95.16284210960003
 20
-32.45000000000001
 30
0.0
 11
96.0
 21
-31.0
 31
0.0
  0
LINE
  5
18A8
330
1F
100
AcDbEntity
  8
3
100
AcDbLine
 10
96.0
 20
5.0
 30
0.0
 11
81.26682716860001
 21
5.0
 31
0.0
  0
LINE
  5
18A9
330
1F
100
AcDbEntity
  8
3
100
AcDbLine
 10
81.27818676560002
 20
-5.0
 30
0.0
 11
96.0
 21
-5.0
 31
0.0
  0
LINE
  5
18AA
330
1F
100
AcDbEntity
  8
3
100
AcDbLine
 10
95.13397459620007
 20
1.5
 30
0.0
 11
88.65000000000003
 21
1.5
 31
0.0
  0
LINE
  5
18AB
330
1F
100
AcDbEntity
  8
3
100
AcDbLine
 10
88.64817512180001
 20
-1.5
 30
0.0
 11
95.13397459620007
 21
-1.5
 31
0.0
  0
LINE
  5
18AC
330
1F
100
AcDbEntity
  8
3
100
AcDbLine
 10
86.2706509386
 20
24.68672967519999
 30
0.0
 11
79.55145111894044
 21
12.33548844739999
 31
0.0
  0
LINE
  5
18AD
330
1F
100
AcDbEntity
  8
3
100
AcDbLine
 10
83.3081601253705
 20
12.33548844739999
 30
0.0
 11
89.7293490614
 21
24.13892570879998
 31
0.0
  0
LINE
  5
18AE
330
1F
100
AcDbEntity
  8
3
100
AcDbLine
 10
88.65000000000003
 20
-32.45000000000001
 30
0.0
 11
88.65000000000003
 21
24.30987780579998
 31
0.0
  0
LINE
  5
18B0
330
1F
100
AcDbEntity
  8
1
100
AcDbLine
 10
74.94337567299999
 20
-2.5
 30
0.0
 11
76.38675134580001
 21
0.0
 31
0.0
  0
LINE
  5
18B1
330
1F
100
AcDbEntity
  8
1
100
AcDbLine
 10
74.94337567299999
 20
2.5
 30
0.0
 11
76.38675134580001
 21
0.0
 31
0.0
  0
CIRCLE
  5
18B2
330
1F
100
AcDbEntity
  8
1
100
AcDbCircle
 10
73.5
 20
0.0
 30
0.0
 40
4.172000000000026
  0
CIRCLE
  5
18B5
330
1F
100
AcDbEntity
  8
1
100
AcDbCircle
 10
73.5
 20
0.0
 30
0.0
 40
5.0
  0
LWPOLYLINE
  5
18B6
330
1F
100
AcDbEntity
  8
3
100
AcDbPolyline
 90
       82
 70
   128
 43
0.0
 10
65.72037918660004
 20
5.0
 10
66.70399304760002
 20
4.970733647799988
 10
67.73064593919997
 20
4.897244232799977
 10
68.80795652800003
 20
4.798506285999962
 10
69.91828954160002
 20
4.694655944399983
 10
71.08786442680003
 20
4.601213380800004
 10
72.28243579640002
 20
4.537160098599997
 10
73.51328654420001
 20
4.514147212200015
 10
74.75404954020001
 20
4.5385416668
 10
75.91558502560002
 20
4.601450093399989
 10
77.06847541939999
 20
4.6934768216
 10
78.22012769560001
 20
4.801184262599974
 10
79.3496730796
 20
4.903993448400001
 10
80.18087080740002
 20
4.964186673800014
 10
80.9925347266
 20
4.997191847200014
 10
81.78944285120001
 20
4.989813211599994
 10
82.55848297720001
 20
4.926107415800004
 10
83.45943151540001
 20
4.742566652199997
 10
83.88813539
 20
4.594545628800005
 10
84.29543700279998
 20
4.402222535600003
 10
84.86744203620004
 20
4.011337562400001
 10
85.37276956239997
 20
3.480859016199985
 10
85.71854504480006
 20
2.941932540199985
 10
86.00003629480005
 20
2.298990815999985
 10
86.19837569860004
 20
1.59964794199999
 10
86.32307763040001
 20
0.8212754188000133
 10
86.36492882040005
 20
0.1003238790000012
 10
86.33943185020001
 20
-0.6456267274000141
 10
86.25133368640002
 20
-1.332518758199995
 10
86.09606989140003
 20
-2.001155274799998
 10
85.87873461739997
 20
-2.608544277400028
 10
85.59207982100003
 20
-3.162389878600009
 10
85.22899689659999
 20
-3.656032932000016
 10
84.79584537440002
 20
-4.070131134000035
 10
84.45949292059998
 20
-4.306797041199985
 10
84.09588209920002
 20
-4.503693833400006
 10
83.7018014102
 20
-4.66486052380003
 10
83.28484780640001
 20
-4.790041656200003
 10
82.66178223259998
 20
-4.911957435400012
 10
82.00254170419999
 20
-4.978712744399985
 10
81.30288187939999
 20
-4.999980544000038
 10
80.57586415920003
 20
-4.984288302999999
 10
79.47425541820002
 20
-4.91419785139999
 10
78.32740984579999
 20
-4.811397530799979
 10
77.12515063540002
 20
-4.698540794400003
 10
75.8883239246
 20
-4.599586666199996
 10
74.65761358320003
 20
-4.534974255999998
 10
73.40776938800002
 20
-4.514278139800012
 10
72.12688183260002
 20
-4.543317763400011
 10
70.84679560400002
 20
-4.618383284399982
 10
69.71764727100003
 20
-4.712775896600021
 10
68.60481257380001
 20
-4.817830602000015
 10
67.50098536460001
 20
-4.916184848
 10
66.42485430340002
 20
-4.984258134399993
 10
65.76974264680001
 20
-4.999913482599993
 10
65.13116343540002
 20
-4.986197552200025
 10
64.50604891580002
 20
-4.934190881400013
 10
63.90376959540003
 20
-4.834246477000021
 10
63.08891794900006
 20
-4.585186367000005
 10
62.7044481314
 20
-4.402159706600002
 10
62.3421658716
 20
-4.174625560400016
 10
61.84568269540005
 20
-3.738524706600003
 10
61.4148044886
 20
-3.173518285200003
 10
61.08055147959999
 20
-2.511259441800007
 10
60.94339043560001
 20
-2.130622160600012
 10
60.83006804460001
 20
-1.7232464816
 10
60.69786578500004
 20
-1.000400905400027
 10
60.63746458280002
 20
-0.2202575077999995
 10
60.64960015140002
 20
0.4925608057999967
 10
60.72835224660003
 20
1.21184999159999
 10
60.86777197380001
 20
1.871770146599999
 10
61.07526119139999
 20
2.49816783060001
 10
61.34847346680004
 20
3.062712917999988
 10
61.69151783939998
 20
3.562034566799979
 10
62.12335541720006
 20
4.003536989799982
 10
62.62527668480004
 20
4.357556400199996
 10
63.03784001259998
 20
4.563769177599965
 10
63.48023368180003
 20
4.724566583599994
 10
63.95588692140001
 20
4.845263449399965
 10
64.4555419134
 20
4.927912652799989
 10
65.07488671099998
 20
4.983265604199999
 10
65.72037918660004
 20
5.0
  0
LINE
  5
18B7
330
1F
100
AcDbEntity
  8
1
100
AcDbLine
 10
72.05662432700001
 20
2.5
 30
0.0
 11
70.61324865400002
 21
0.0
 31
0.0
  0
LINE
  5
18B8
330
1F
100
AcDbEntity
  8
1
100
AcDbLine
 10
72.05662432700001
 20
-2.5
 30
0.0
 11
74.94337567299999
 21
-2.5
 31
0.0
  0
LINE
  5
18B9
330
1F
100
AcDbEntity
  8
1
100
AcDbLine
 10
72.05662432700001
 20
-2.5
 30
0.0
 11
70.61324865400002
 21
0.0
 31
0.0
  0
LINE
  5
18BA
330
1F
100
AcDbEntity
  8
1
100
AcDbLine
 10
72.05662432700001
 20
2.5
 30
0.0
 11
74.94337567299999
 21
2.5
 31
0.0
  0
LINE
  5
18C7
330
1F
100
AcDbEntity
  8
3
100
AcDbLine
 10
92.0
 20
9.035488447400013
 30
0.0
 11
92.0
 21
12.33548844739999
 31
0.0
  0
LINE
  5
18C8
330
1F
100
AcDbEntity
  8
SK1
100
AcDbLine
 10
58.5
 20
29.99999999999998
 30
0.0
 11
88.49999999999999
 21
29.99999999999998
 31
0.0
  0
LINE
  5
18CA
330
1F
100
AcDbEntity
  8
SK1
100
AcDbLine
 10
66.5
 20
31.19999999999997
 30
0.0
 11
66.5
 21
30.39999999999996
 31
0.0
  0
LINE
  5
18CB
330
1F
100
AcDbEntity
  8
SK1
100
AcDbLine
 10
66.5
 20
31.19999999999997
 30
0.0
 11
59.70000000000005
 21
31.19999999999997
 31
0.0
  0
LINE
  5
18CC
330
1F
100
AcDbEntity
  8
SK1
100
AcDbLine
 10
88.49999999999999
 20
24.79999999999999
 30
0.0
 11
88.49999999999999
 21
29.99999999999998
 31
0.0
  0
LINE
  5
18CE
330
1F
100
AcDbEntity
  8
SK1
100
AcDbLine
 10
85.55549025400006
 20
24.79999999999999
 30
0.0
 11
88.65000000000003
 21
24.79999999999999
 31
0.0
  0
LINE
  5
18CF
330
1F
100
AcDbEntity
  8
SK1
100
AcDbLine
 10
88.65000000000003
 20
24.30987780579998
 30
0.0
 11
88.65000000000003
 21
24.79999999999999
 31
0.0
  0
LINE
  5
18D0
330
1F
100
AcDbEntity
  8
SK1
100
AcDbLine
 10
88.49999999999999
 20
29.99999999999998
 30
0.0
 11
88.10000000000002
 21
30.39999999999996
 31
0.0
  0
LINE
  5
18D2
330
1F
100
AcDbEntity
  8
3
100
AcDbLine
 10
95.13397459620007
 20
-1.5
 30
0.0
 11
95.13397459620007
 21
1.5
 31
0.0
  0
LINE
  5
18D4
330
1F
100
AcDbEntity
  8
3
100
AcDbLine
 10
95.13397459620007
 20
-1.5
 30
0.0
 11
96.0
 21
-2.0
 31
0.0
  0
LINE
  5
18D5
330
1F
100
AcDbEntity
  8
3
100
AcDbLine
 10
96.0
 20
2.0
 30
0.0
 11
95.13397459620007
 21
1.5
 31
0.0
  0
LINE
  5
197B
330
1F
100
AcDbEntity
  8
1
100
AcDbLine
 10
0.0
 20
-35.49999999999998
 30
0.0
 11
0.0
 21
35.49999999530001
 31
0.0
  0
LINE
  5
197C
330
1F
100
AcDbEntity
  8
SK1
100
AcDbLine
 10
-0.1500000000000057
 20
17.398584916
 30
0.0
 11
-0.1500000000000057
 21
-17.39858491609997
 31
0.0
  0
LINE
  5
197D
330
1F
100
AcDbEntity
  8
SK1
100
AcDbLine
 10
-4.449999999999987
 20
-27.77499999999998
 30
0.0
 11
-4.449999999999971
 21
27.77499999999999
 31
0.0
  0
LINE
  5
197E
330
1F
100
AcDbEntity
  8
SK1
100
AcDbLine
 10
-33.0
 20
-20.0
 30
0.0
 11
-33.0
 21
20.0
 31
0.0
  0
LWPOLYLINE
  5
197F
330
1F
100
AcDbEntity
  8
SK1
100
AcDbPolyline
 90
       21
 70
   128
 43
0.0
 10
-10.69999999999998
 20
0.0
 10
-10.7367619096
 20
-0.6615610988999805
 10
-10.92183636879997
 20
-1.614352295199978
 10
-11.25125521649998
 20
-2.524570066699979
 10
-11.73189765869999
 20
-3.404874486299988
 10
-12.33214945689999
 20
-4.205055380699985
 10
-13.15134605019999
 20
-5.01887614269998
 10
-14.07906239869999
 20
-5.707722395799986
 10
-15.28479455559998
 20
-6.353965223999992
 10
-16.57876407409998
 20
-6.816049297599972
 10
-18.0814739628
 20
-7.106446809499985
 10
-19.61458602819998
 20
-7.161764994099995
 10
-21.16383752289999
 20
-6.972882796999982
 10
-22.6577107177
 20
-6.542188539899996
 10
-24.05379332989999
 20
-5.871453072699977
 10
-25.30559821699998
 20
-4.969942646799978
 10
-26.15757552159998
 20
-4.098449633699985
 10
-26.85596084169998
 20
-3.097224167999981
 10
-27.29849338710001
 20
-2.161932391199981
 10
-27.58561850960001
 20
-1.16440300759997
 10
-27.69999999999999
 20
0.0
  0
CIRCLE
  5
1980
330
1F
100
AcDbEntity
  8
SK1
100
AcDbCircle
 10
-19.19999999999999
 20
0.0
 30
0.0
 40
6.614436336098365
  0
LINE
  5
1981
330
1F
100
AcDbEntity
  8
SK1
100
AcDbLine
 10
-6.5146651995
 20
-20.0
 30
0.0
 11
-6.5146651995
 21
20.0
 31
0.0
  0
LINE
  5
1982
330
1F
100
AcDbEntity
  8
SK1
100
AcDbLine
 10
-40.0
 20
-18.89999999999998
 30
0.0
 11
-40.0
 21
18.89999999999998
 31
0.0
  0
LINE
  5
1983
330
1F
100
AcDbEntity
  8
3
100
AcDbLine
 10
0.5500000000000114
 20
-28.22499999999998
 30
0.0
 11
0.5500000000000114
 21
28.22499999999999
 31
0.0
  0
ARC
  5
1985
330
1F
100
AcDbEntity
  8
SK1
100
AcDbCircle
 10
-39.0
 20
-18.89999999999998
 30
0.0
 40
1.0
100
AcDbArc
 50
180.0
 51
280.0
  0
LINE
  5
1986
330
1F
100
AcDbEntity
  8
SK1
100
AcDbLine
 10
-1.851173468899985
 20
-18.17830093819998
 30
0.0
 11
-4.449999999999987
 21
-18.17830093819998
 31
0.0
  0
LINE
  5
1987
330
1F
100
AcDbEntity
  8
SK1
100
AcDbLine
 10
-4.449999999999987
 20
-27.77499999999998
 30
0.0
 11
-1.851173468899985
 21
-27.77499999999998
 31
0.0
  0
LINE
  5
1988
330
1F
100
AcDbEntity
  8
SK3
100
AcDbLine
 10
-38.70096189439995
 20
-8.75
 30
0.0
 11
0.0
 21
-8.749999999999998
 31
0.0
  0
LINE
  5
1989
330
1F
100
AcDbEntity
  8
SK1
100
AcDbLine
 10
-33.0
 20
-20.0
 30
0.0
 11
-6.5146651995
 21
-20.0
 31
0.0
  0
LINE
  5
198A
330
1F
100
AcDbEntity
  8
SK1
100
AcDbLine
 10
-36.54297852739999
 20
-19.50206684049998
 30
0.0
 11
-33.0
 21
-20.0
 31
0.0
  0
LINE
  5
198B
330
1F
100
AcDbEntity
  8
SK1
100
AcDbLine
 10
-38.82635182239997
 20
-19.88480775299996
 30
0.0
 11
-36.66810703889999
 21
-19.50425096669997
 31
0.0
  0
ARC
  5
198C
330
1F
100
AcDbEntity
  8
SK1
100
AcDbCircle
 10
-36.5986477678
 20
-19.89817406799998
 30
0.0
 40
0.4000000000000015
100
AcDbArc
 50
82.0
 51
100.0
  0
ARC
  5
198F
330
1F
100
AcDbEntity
  8
SK1
100
AcDbCircle
 10
-5.449999999999986
 20
-20.75
 30
0.0
 40
1.0
100
AcDbArc
 50
0.0
 51
104.9999999999998
  0
LINE
  5
1990
330
1F
100
AcDbEntity
  8
SK1
100
AcDbLine
 10
-6.5146651995
 20
-20.0
 30
0.0
 11
-5.7088190451
 21
-19.78407417369996
 31
0.0
  0
ARC
  5
1991
330
1F
100
AcDbEntity
  8
1
100
AcDbCircle
 10
0.5
 20
-35.49999999999998
 30
0.0
 40
0.5
100
AcDbArc
 50
180.0
 51
270.0
  0
LINE
  5
1992
330
1F
100
AcDbEntity
  8
SK1
100
AcDbLine
 10
-1.851173468899985
 20
-27.77499999999998
 30
0.0
 11
-1.851173468899985
 21
-18.17830093819998
 31
0.0
  0
LINE
  5
1993
330
1F
100
AcDbEntity
  8
SK1
100
AcDbLine
 10
-1.851173468899985
 20
-27.77499999999998
 30
0.0
 11
-0.8726182617999993
 21
-27.31869221299998
 31
0.0
  0
ARC
  5
1994
330
1F
100
AcDbEntity
  8
3
100
AcDbCircle
 10
-0.4499999999999888
 20
-28.22499999999998
 30
0.0
 40
1.0
100
AcDbArc
 50
0.0
 51
63.25631604960001
  0
LINE
  5
1995
330
1F
100
AcDbEntity
  8
3
100
AcDbLine
 10
0.0
 20
-29.62617346899998
 30
0.0
 11
0.4563077870000143
 21
-28.64761826179998
 31
0.0
  0
ARC
  5
1996
330
1F
100
AcDbEntity
  8
3
100
AcDbCircle
 10
-0.4499999999999888
 20
-28.22499999999998
 30
0.0
 40
1.000000000000019
100
AcDbArc
 50
335.0
 51
0.0
  0
ARC
  5
1997
330
1F
100
AcDbEntity
  8
SK1
100
AcDbCircle
 10
-0.4499999999999888
 20
-28.22499999999998
 30
0.0
 40
0.9999999999999987
100
AcDbArc
 50
63.25631604960001
 51
115.0
  0
ARC
  5
1998
330
1F
100
AcDbEntity
  8
SK1
100
AcDbCircle
 10
-0.4531704687999821
 20
-17.99930088619999
 30
0.0
 40
0.6728833553660964
100
AcDbArc
 50
63.2207491205
 51
128.5618323545999
  0
LWPOLYLINE
  5
1999
330
1F
100
AcDbEntity
  8
SK1
100
AcDbPolyline
 90
        3
 70
   128
 43
0.0
 10
-1.851173468899985
 20
-18.17830093819998
 10
-0.9741051571999859
 20
-17.54704675289998
 10
-0.8726182617999993
 20
-17.47314923609998
  0
ARC
  5
199B
330
1F
100
AcDbEntity
  8
SK1
100
AcDbCircle
 10
-39.0
 20
18.89999999999998
 30
0.0
 40
1.000000000000021
100
AcDbArc
 50
80.0
 51
180.0
  0
LINE
  5
199C
330
1F
100
AcDbEntity
  8
SK1
100
AcDbLine
 10
-1.851173468899985
 20
27.77499999999999
 30
0.0
 11
-4.449999999999987
 21
27.77499999999999
 31
0.0
  0
LINE
  5
199D
330
1F
100
AcDbEntity
  8
SK1
100
AcDbLine
 10
-1.851173468899985
 20
18.17830093820001
 30
0.0
 11
-4.449999999999987
 21
18.17830093820001
 31
0.0
  0
LINE
  5
199E
330
1F
100
AcDbEntity
  8
SK3
100
AcDbLine
 10
0.0
 20
8.749999999999998
 30
0.0
 11
-38.70096189439996
 21
8.75
 31
0.0
  0
LINE
  5
199F
330
1F
100
AcDbEntity
  8
SK4
100
AcDbLine
 10
-40.0
 20
0.0
 30
0.0
 11
0.0
 21
0.0
 31
0.0
  0
LINE
  5
19A0
330
1F
100
AcDbEntity
  8
SK1
100
AcDbLine
 10
-6.5146651995
 20
20.0
 30
0.0
 11
-33.0
 21
20.0
 31
0.0
  0
LWPOLYLINE
  5
19A1
330
1F
100
AcDbEntity
  8
SK1
100
AcDbPolyline
 90
       20
 70
   128
 43
0.0
 10
-27.69999999999999
 20
0.0
 10
-27.62902988049998
 20
0.918316965100004
 10
-27.40511912710001
 20
1.858215925400017
 10
-27.0416195242
 20
2.750408634700021
 10
-26.52075255379997
 20
3.62387101580002
 10
-25.88203050949998
 20
4.412110349700013
 10
-24.8326061162
 20
5.352805347400021
 10
-23.57115821419998
 20
6.136935065800031
 10
-22.19175888049998
 20
6.705316314500007
 10
-20.72311121069998
 20
7.052002822400027
 10
-19.21412388209999
 20
7.170419509100026
 10
-17.6570848818
 20
7.048810304700012
 10
-16.14353529329999
 20
6.684285698800008
 10
-14.71618009719998
 20
6.078338567200018
 10
-13.4201403543
 20
5.239782596100011
 10
-12.4952760446
 20
4.386881293700013
 10
-11.72322874919996
 20
3.392061540700026
 10
-11.22435777099997
 20
2.462470562900008
 10
-10.8808166528
 20
1.461273520000004
 10
-10.69999999999998
 20
0.0
  0
CIRCLE
  5
19A2
330
1F
100
AcDbEntity
  8
SK1
100
AcDbCircle
 10
-19.19999999999999
 20
0.0
 30
0.0
 40
5.0
  0
LINE
  5
19A5
330
1F
100
AcDbEntity
  8
SK1
100
AcDbLine
 10
-33.0
 20
20.0
 30
0.0
 11
-36.54297852739999
 21
19.5020668404
 31
0.0
  0
LINE
  5
19A6
330
1F
100
AcDbEntity
  8
SK1
100
AcDbLine
 10
-36.66810703889999
 20
19.5042509667
 30
0.0
 11
-38.82635182239997
 21
19.88480775300002
 31
0.0
  0
ARC
  5
19A7
330
1F
100
AcDbEntity
  8
SK1
100
AcDbCircle
 10
-36.5986477678
 20
19.89817406790001
 30
0.0
 40
0.3999999999999733
100
AcDbArc
 50
260.0
 51
278.0
  0
ARC
  5
19A8
330
1F
100
AcDbEntity
  8
SK1
100
AcDbCircle
 10
-5.449999999999986
 20
20.75
 30
0.0
 40
1.0
100
AcDbArc
 50
255.0
 51
0.0
  0
LINE
  5
19A9
330
1F
100
AcDbEntity
  8
SK1
100
AcDbLine
 10
-5.7088190451
 20
19.78407417370002
 30
0.0
 11
-6.5146651995
 21
20.0
 31
0.0
  0
LINE
  5
19AA
330
1F
100
AcDbEntity
  8
SK1
100
AcDbLine
 10
-1.851173468899985
 20
18.17830093820001
 30
0.0
 11
-1.851173468899985
 21
27.77499999999999
 31
0.0
  0
ARC
  5
19AB
330
1F
100
AcDbEntity
  8
SK1
100
AcDbCircle
 10
-0.4523620253000047
 20
18.00713567929999
 30
0.0
 40
0.6795269132650547
100
AcDbArc
 50
231.7966643442999
 51
296.4207541808
  0
LINE
  5
19AC
330
1F
100
AcDbEntity
  8
SK1
100
AcDbLine
 10
-0.8726182617999993
 20
17.47314923610001
 30
0.0
 11
-1.851173468899985
 21
18.17830093820001
 31
0.0
  0
ARC
  5
19AD
330
1F
100
AcDbEntity
  8
SK1
100
AcDbCircle
 10
-0.4499999999999888
 20
28.22499999999999
 30
0.0
 40
1.000000000000011
100
AcDbArc
 50
245.0
 51
296.7436839503999
  0
LINE
  5
19AE
330
1F
100
AcDbEntity
  8
SK1
100
AcDbLine
 10
-0.8726182617999993
 20
27.3186922129
 30
0.0
 11
-1.851173468899985
 21
27.77499999999999
 31
0.0
  0
LINE
  5
19AF
330
1F
100
AcDbEntity
  8
3
100
AcDbLine
 10
0.4563077870000143
 20
28.64761826170001
 30
0.0
 11
0.0
 21
29.62617346890001
 31
0.0
  0
ARC
  5
19B0
330
1F
100
AcDbEntity
  8
3
100
AcDbCircle
 10
-0.4499999999999888
 20
28.22499999999999
 30
0.0
 40
1.000000000000011
100
AcDbArc
 50
345.625
 51
25.0
  0
ARC
  5
19B1
330
1F
100
AcDbEntity
  8
3
100
AcDbCircle
 10
-0.4499999999999888
 20
28.22499999999999
 30
0.0
 40
1.000000000000011
100
AcDbArc
 50
296.7436839503999
 51
345.625
  0
ARC
  5
19B2
330
1F
100
AcDbEntity
  8
1
100
AcDbCircle
 10
0.5
 20
35.5
 30
0.0
 40
0.5
100
AcDbArc
 50
90.0
 51
180.0
  0
LINE
  5
19BA
330
1F
100
AcDbEntity
  8
SK3
100
AcDbLine
 10
-38.70096189439995
 20
8.75
 30
0.0
 11
-38.70096189439995
 21
-8.75
 31
0.0
  0
LINE
  5
19BB
330
1F
100
AcDbEntity
  8
SK3
100
AcDbLine
 10
-38.70096189439995
 20
8.75
 30
0.0
 11
-39.99999999999996
 21
9.5
 31
0.0
  0
LINE
  5
19BC
330
1F
100
AcDbEntity
  8
SK3
100
AcDbLine
 10
-39.99999999999996
 20
-9.5
 30
0.0
 11
-38.70096189439995
 21
-8.75
 31
0.0
  0
ENDSEC
  0
SECTION
  2
OBJECTS
  0
DICTIONARY
  5
C
330
0
100
AcDbDictionary
281
     1
  3
ACAD_GROUP
350
D
  3
ACAD_LAYOUT
350
1A
  3
ACAD_MLINESTYLE
350
17
  3
ACAD_PLOTSETTINGS
350
19
  3
ACAD_PLOTSTYLENAME
350
E
  3
AcDbVariableDictionary
350
290
  0
DICTIONARY
  5
296
330
2
100
AcDbDictionary
280
     1
281
     1
  3
ACAD_LAYERSTATES
360
297
  0
DICTIONARY
  5
D
102
{ACAD_REACTORS
330
C
102
}
330
C
100
AcDbDictionary
281
     1
  0
DICTIONARY
  5
1A
102
{ACAD_REACTORS
330
C
102
}
330
C
100
AcDbDictionary
281
     1
  3
Layout1
350
1E
  3
Layout2
350
26
  3
Model
350
22
  0
DICTIONARY
  5
17
102
{ACAD_REACTORS
330
C
102
}
330
C
100
AcDbDictionary
281
     1
  3
Standard
350
18
  0
DICTIONARY
  5
19
102
{ACAD_REACTORS
330
C
102
}
330
C
100
AcDbDictionary
281
     1
  0
ACDBDICTIONARYWDFLT
  5
E
102
{ACAD_REACTORS
330
C
102
}
330
C
100
AcDbDictionary
281
     1
  3
Normal
350
F
100
AcDbDictionaryWithDefault
340
F
  0
DICTIONARY
  5
290
102
{ACAD_REACTORS
330
C
102
}
330
C
100
AcDbDictionary
281
     1
  3
DIMASSOC
350
291
  0
DICTIONARY
  5
297
102
{ACAD_REACTORS
330
296
102
}
330
296
100
AcDbDictionary
281
     1
  0
LAYOUT
  5
1E
102
{ACAD_REACTORS
330
1A
102
}
330
1A
100
AcDbPlotSettings
  1

  2

  4

  6

 40
0.0
 41
0.0
 42
0.0
 43
0.0
 44
0.0
 45
0.0
 46
0.0
 47
0.0
 48
0.0
 49
0.0
140
0.0
141
0.0
142
1.0
143
1.0
 70
   688
 72
     0
 73
     0
 74
     5
  7

 75
    16
147
1.0
148
0.0
149
0.0
100
AcDbLayout
  1
Layout1
 70
     1
 71
     1
 10
0.0
 20
0.0
 11
420.0
 21
297.0
 12
0.0
 22
0.0
 32
0.0
 14
1.000000000000000E+20
 24
1.000000000000000E+20
 34
1.000000000000000E+20
 15
-1.000000000000000E+20
 25
-1.000000000000000E+20
 35
-1.000000000000000E+20
146
0.0
 13
0.0
 23
0.0
 33
0.0
 16
1.0
 26
0.0
 36
0.0
 17
0.0
 27
1.0
 37
0.0
 76
     0
330
1B
  0
LAYOUT
  5
26
102
{ACAD_REACTORS
330
1A
102
}
330
1A
100
AcDbPlotSettings
  1

  2

  4

  6

 40
0.0
 41
0.0
 42
0.0
 43
0.0
 44
0.0
 45
0.0
 46
0.0
 47
0.0
 48
0.0
 49
0.0
140
0.0
141
0.0
142
1.0
143
1.0
 70
   688
 72
     0
 73
     0
 74
     5
  7

 75
    16
147
1.0
148
0.0
149
0.0
100
AcDbLayout
  1
Layout2
 70
     1
 71
     2
 10
0.0
 20
0.0
 11
0.0
 21
0.0
 12
0.0
 22
0.0
 32
0.0
 14
0.0
 24
0.0
 34
0.0
 15
0.0
 25
0.0
 35
0.0
146
0.0
 13
0.0
 23
0.0
 33
0.0
 16
1.0
 26
0.0
 36
0.0
 17
0.0
 27
1.0
 37
0.0
 76
     0
330
23
  0
LAYOUT
  5
22
102
{ACAD_REACTORS
330
1A
102
}
330
1A
100
AcDbPlotSettings
  1

  2

  4

  6

 40
0.0
 41
0.0
 42
0.0
 43
0.0
 44
0.0
 45
0.0
 46
0.0
 47
0.0
 48
0.0
 49
0.0
140
0.0
141
0.0
142
1.0
143
1.0
 70
  1712
 72
     0
 73
     0
 74
     0
  7

 75
     0
147
1.0
148
0.0
149
0.0
100
AcDbLayout
  1
Model
 70
     1
 71
     0
 10
0.0
 20
0.0
 11
0.0
 21
0.0
 12
0.0
 22
0.0
 32
0.0
 14
0.0
 24
0.0
 34
0.0
 15
297.0
 25
210.0
 35
0.0
146
0.0
 13
0.0
 23
0.0
 33
0.0
 16
1.0
 26
0.0
 36
0.0
 17
0.0
 27
1.0
 37
0.0
 76
     0
330
1F
  0
MLINESTYLE
  5
18
102
{ACAD_REACTORS
330
17
102
}
330
17
100
AcDbMlineStyle
  2
STANDARD
 70
     0
  3

 62
   256
 51
90.0
 52
90.0
 71
     2
 49
0.5
 62
   256
  6
BYLAYER
 49
-0.5
 62
   256
  6
BYLAYER
  0
ACDBPLACEHOLDER
  5
F
102
{ACAD_REACTORS
330
E
102
}
330
E
  0
DICTIONARYVAR
  5
291
102
{ACAD_REACTORS
330
290
102
}
330
290
100
DictionaryVariables
280
     0
  1
1
  0
ENDSEC
  0
EOF
