  0
SECTION
  2
HEADER
  9
$ACADVER
  1
AC1015
  9
$ACADMAINTVER
 70
    13
  9
$DWGCODEPAGE
  3
ANSI_1252
  9
$INSBASE
 10
0.0
 20
0.0
 30
0.0
  9
$EXTMIN
 10
-65.16301040400822
 20
-80.86877097154262
 30
-0.0000000000000058
  9
$EXTMAX
 10
126.0219330241455
 20
64.93978510935903
 30
0.0000000000000104
  9
$LIMMIN
 10
0.0
 20
0.0
  9
$LIMMAX
 10
420.0
 20
297.0
  9
$ORTHOMODE
 70
     0
  9
$REGENMODE
 70
     1
  9
$FILLMODE
 70
     1
  9
$QTEXTMODE
 70
     0
  9
$MIRRTEXT
 70
     1
  9
$LTSCALE
 40
1.0
  9
$ATTMODE
 70
     1
  9
$TEXTSIZE
 40
2.5
  9
$TRACEWID
 40
1.0
  9
$TEXTSTYLE
  7
STANDARD
  9
$CLAYER
  8
5
  9
$CELTYPE
  6
ByLayer
  9
$CECOLOR
 62
   256
  9
$CELTSCALE
 40
1.0
  9
$DISPSILH
 70
     0
  9
$DIMSCALE
 40
1.0
  9
$DIMASZ
 40
3.0
  9
$DIMEXO
 40
0.0
  9
$DIMDLI
 40
3.75
  9
$DIMRND
 40
0.0
  9
$DIMDLE
 40
0.0
  9
$DIMEXE
 40
1.0
  9
$DIMTP
 40
0.0
  9
$DIMTM
 40
0.0
  9
$DIMTXT
 40
2.0
  9
$DIMCEN
 40
2.5
  9
$DIMTSZ
 40
0.0
  9
$DIMTOL
 70
     0
  9
$DIMLIM
 70
     0
  9
$DIMTIH
 70
     1
  9
$DIMTOH
 70
     1
  9
$DIMSE1
 70
     0
  9
$DIMSE2
 70
     0
  9
$DIMTAD
 70
     1
  9
$DIMZIN
 70
     0
  9
$DIMBLK
  1

  9
$DIMASO
 70
     1
  9
$DIMSHO
 70
     1
  9
$DIMPOST
  1

  9
$DIMAPOST
  1

  9
$DIMALT
 70
     0
  9
$DIMALTD
 70
     3
  9
$DIMALTF
 40
0.0394
  9
$DIMLFAC
 40
1.0
  9
$DIMTOFL
 70
     1
  9
$DIMTVP
 40
0.0
  9
$DIMTIX
 70
     0
  9
$DIMSOXD
 70
     0
  9
$DIMSAH
 70
     0
  9
$DIMBLK1
  1

  9
$DIMBLK2
  1

  9
$DIMSTYLE
  2
ISO-25
  9
$DIMCLRD
 70
     0
  9
$DIMCLRE
 70
     0
  9
$DIMCLRT
 70
     0
  9
$DIMTFAC
 40
1.0
  9
$DIMGAP
 40
1.524
  9
$DIMJUST
 70
     0
  9
$DIMSD1
 70
     0
  9
$DIMSD2
 70
     0
  9
$DIMTOLJ
 70
     0
  9
$DIMTZIN
 70
     0
  9
$DIMALTZ
 70
     0
  9
$DIMALTTZ
 70
     0
  9
$DIMUPT
 70
     0
  9
$DIMDEC
 70
     2
  9
$DIMTDEC
 70
     2
  9
$DIMALTU
 70
     2
  9
$DIMALTTD
 70
     3
  9
$DIMTXSTY
  7
STANDARD
  9
$DIMAUNIT
 70
     0
  9
$DIMADEC
 70
     0
  9
$DIMALTRND
 40
0.0
  9
$DIMAZIN
 70
     0
  9
$DIMDSEP
 70
    44
  9
$DIMATFIT
 70
     3
  9
$DIMFRAC
 70
     0
  9
$DIMLDRBLK
  1

  9
$DIMLUNIT
 70
     2
  9
$DIMLWD
 70
    -2
  9
$DIMLWE
 70
    -2
  9
$DIMTMOVE
 70
     0
  9
$LUNITS
 70
     2
  9
$LUPREC
 70
     2
  9
$SKETCHINC
 40
1.0
  9
$FILLETRAD
 40
10.0
  9
$AUNITS
 70
     0
  9
$AUPREC
 70
     0
  9
$MENU
  1
.
  9
$ELEVATION
 40
0.0
  9
$PELEVATION
 40
0.0
  9
$THICKNESS
 40
0.0
  9
$LIMCHECK
 70
     0
  9
$CHAMFERA
 40
10.0
  9
$CHAMFERB
 40
10.0
  9
$CHAMFERC
 40
20.0
  9
$CHAMFERD
 40
0.0
  9
$SKPOLY
 70
     0
  9
$TDCREATE
 40
2454378.417631666
  9
$TDUCREATE
 40
2454378.375965000
  9
$TDUPDATE
 40
2454498.348460497
  9
$TDUUPDATE
 40
2454498.306793830
  9
$TDINDWG
 40
0.1846362384
  9
$TDUSRTIMER
 40
0.1846358796
  9
$USRTIMER
 70
     1
  9
$ANGBASE
 50
0.0
  9
$ANGDIR
 70
     0
  9
$PDMODE
 70
     0
  9
$PDSIZE
 40
-1.0
  9
$PLINEWID
 40
0.0
  9
$SPLFRAME
 70
     0
  9
$SPLINETYPE
 70
     6
  9
$SPLINESEGS
 70
     8
  9
$HANDSEED
  5
1F31
  9
$SURFTAB1
 70
     6
  9
$SURFTAB2
 70
     6
  9
$SURFTYPE
 70
     6
  9
$SURFU
 70
     6
  9
$SURFV
 70
     6
  9
$UCSBASE
  2

  9
$UCSNAME
  2

  9
$UCSORG
 10
0.0
 20
0.0
 30
0.0
  9
$UCSXDIR
 10
1.0
 20
0.0
 30
0.0
  9
$UCSYDIR
 10
0.0
 20
1.0
 30
0.0
  9
$UCSORTHOREF
  2

  9
$UCSORTHOVIEW
 70
     0
  9
$UCSORGTOP
 10
0.0
 20
0.0
 30
0.0
  9
$UCSORGBOTTOM
 10
0.0
 20
0.0
 30
0.0
  9
$UCSORGLEFT
 10
0.0
 20
0.0
 30
0.0
  9
$UCSORGRIGHT
 10
0.0
 20
0.0
 30
0.0
  9
$UCSORGFRONT
 10
0.0
 20
0.0
 30
0.0
  9
$UCSORGBACK
 10
0.0
 20
0.0
 30
0.0
  9
$PUCSBASE
  2

  9
$PUCSNAME
  2

  9
$PUCSORG
 10
0.0
 20
0.0
 30
0.0
  9
$PUCSXDIR
 10
1.0
 20
0.0
 30
0.0
  9
$PUCSYDIR
 10
0.0
 20
1.0
 30
0.0
  9
$PUCSORTHOREF
  2

  9
$PUCSORTHOVIEW
 70
     0
  9
$PUCSORGTOP
 10
0.0
 20
0.0
 30
0.0
  9
$PUCSORGBOTTOM
 10
0.0
 20
0.0
 30
0.0
  9
$PUCSORGLEFT
 10
0.0
 20
0.0
 30
0.0
  9
$PUCSORGRIGHT
 10
0.0
 20
0.0
 30
0.0
  9
$PUCSORGFRONT
 10
0.0
 20
0.0
 30
0.0
  9
$PUCSORGBACK
 10
0.0
 20
0.0
 30
0.0
  9
$USERI1
 70
     0
  9
$USERI2
 70
     0
  9
$USERI3
 70
     0
  9
$USERI4
 70
     0
  9
$USERI5
 70
     0
  9
$USERR1
 40
0.0
  9
$USERR2
 40
0.0
  9
$USERR3
 40
0.0
  9
$USERR4
 40
0.0
  9
$USERR5
 40
0.0
  9
$WORLDVIEW
 70
     1
  9
$SHADEDGE
 70
     3
  9
$SHADEDIF
 70
    70
  9
$TILEMODE
 70
     1
  9
$MAXACTVP
 70
    64
  9
$PINSBASE
 10
0.0
 20
0.0
 30
0.0
  9
$PLIMCHECK
 70
     0
  9
$PEXTMIN
 10
1.000000000000000E+20
 20
1.000000000000000E+20
 30
1.000000000000000E+20
  9
$PEXTMAX
 10
-1.000000000000000E+20
 20
-1.000000000000000E+20
 30
-1.000000000000000E+20
  9
$PLIMMIN
 10
0.0
 20
0.0
  9
$PLIMMAX
 10
420.0
 20
297.0
  9
$UNITMODE
 70
     0
  9
$VISRETAIN
 70
     1
  9
$PLINEGEN
 70
     0
  9
$PSLTSCALE
 70
     1
  9
$TREEDEPTH
 70
  3020
  9
$CMLSTYLE
  2
Standard
  9
$CMLJUST
 70
     0
  9
$CMLSCALE
 40
20.0
  9
$PROXYGRAPHICS
 70
     1
  9
$MEASUREMENT
 70
     1
  9
$CELWEIGHT
370
    -1
  9
$ENDCAPS
280
     0
  9
$JOINSTYLE
280
     0
  9
$LWDISPLAY
290
     1
  9
$INSUNITS
 70
     4
  9
$HYPERLINKBASE
  1

  9
$STYLESHEET
  1

  9
$XEDIT
290
     1
  9
$CEPSNTYPE
380
     0
  9
$PSTYLEMODE
290
     1
  9
$FINGERPRINTGUID
  2
{B670D01D-4751-421D-9EC6-3FC415A30308}
  9
$VERSIONGUID
  2
{27B2DAA7-E81E-45D8-8210-0187A0164E2E}
  9
$EXTNAMES
290
     1
  9
$PSVPSCALE
 40
0.0
  9
$OLESTARTUP
290
     0
  0
ENDSEC
  0
SECTION
  2
CLASSES
  0
CLASS
  1
ACDBDICTIONARYWDFLT
  2
AcDbDictionaryWithDefault
  3
AutoCAD 2000
 90
        0
280
     0
281
     0
  0
CLASS
  1
ACDBPLACEHOLDER
  2
AcDbPlaceHolder
  3
AutoCAD 2000
 90
        0
280
     0
281
     0
  0
CLASS
  1
LAYOUT
  2
AcDbLayout
  3
AutoCAD 2000
 90
        0
280
     0
281
     0
  0
CLASS
  1
DICTIONARYVAR
  2
AcDbDictionaryVar
  3
AutoCAD 2000
 90
        0
280
     0
281
     0
  0
ENDSEC
  0
SECTION
  2
TABLES
  0
TABLE
  2
VPORT
  5
8
330
0
100
AcDbSymbolTable
 70
    13
  0
VPORT
  5
1F30
330
8
100
AcDbSymbolTableRecord
100
AcDbViewportTableRecord
  2
*Active
 70
     0
 10
0.0
 20
0.0
 11
1.0
 21
1.0
 12
-59.87003833563132
 22
-75.46758996929179
 13
0.0
 23
0.0
 14
10.0
 24
10.0
 15
10.0
 25
10.0
 16
0.0
 26
0.0
 36
1.0
 17
90.29949964569999
 27
67.5030970382
 37
0.0
 40
146.9145628274065
 41
1.558227848101265
 42
50.0
 43
0.0
 44
0.0
 50
0.0
 51
0.0
 71
     0
 72
  2000
 73
     1
 74
     3
 75
     0
 76
     0
 77
     0
 78
     0
281
     0
 65
     1
110
0.0
120
0.0
130
0.0
111
1.0
121
0.0
131
0.0
112
0.0
122
1.0
132
0.0
 79
     0
146
0.0
  0
ENDTAB
  0
TABLE
  2
LTYPE
  5
5
330
0
100
AcDbSymbolTable
 70
    10
  0
LTYPE
  5
14
330
5
100
AcDbSymbolTableRecord
100
AcDbLinetypeTableRecord
  2
ByBlock
 70
     0
  3

 72
    65
 73
     0
 40
0.0
  0
LTYPE
  5
15
330
5
100
AcDbSymbolTableRecord
100
AcDbLinetypeTableRecord
  2
ByLayer
 70
     0
  3

 72
    65
 73
     0
 40
0.0
  0
LTYPE
  5
16
330
5
100
AcDbSymbolTableRecord
100
AcDbLinetypeTableRecord
  2
Continuous
 70
     0
  3
Solid line
 72
    65
 73
     0
 40
0.0
  0
LTYPE
  5
2A
330
5
100
AcDbSymbolTableRecord
100
AcDbLinetypeTableRecord
  2
SLD-Durchgehend
 70
     0
  3
SolidWorks Line Style
 72
    65
 73
     0
 40
0.0
  0
LTYPE
  5
2B
330
5
100
AcDbSymbolTableRecord
100
AcDbLinetypeTableRecord
  2
SLD-Gestrichelt
 70
     0
  3
SolidWorks Line Style
 72
    65
 73
     2
 40
1.905
 49
1.27
 74
     0
 49
-0.635
 74
     0
  0
LTYPE
  5
2C
330
5
100
AcDbSymbolTableRecord
100
AcDbLinetypeTableRecord
  2
SLD-Phantom
 70
     0
  3
SolidWorks Line Style
 72
    65
 73
     6
 40
12.7
 49
6.349999999999997
 74
     0
 49
-1.27
 74
     0
 49
1.27
 74
     0
 49
-1.27
 74
     0
 49
1.27
 74
     0
 49
-1.27
 74
     0
  0
LTYPE
  5
2D
330
5
100
AcDbSymbolTableRecord
100
AcDbLinetypeTableRecord
  2
SLD-Kette
 70
     0
  3
SolidWorks Line Style
 72
    65
 73
     4
 40
10.16
 49
6.349999999999997
 74
     0
 49
-1.27
 74
     0
 49
1.27
 74
     0
 49
-1.27
 74
     0
  0
LTYPE
  5
2E
330
5
100
AcDbSymbolTableRecord
100
AcDbLinetypeTableRecord
  2
SLD-Punktstrich
 70
     0
  3
SolidWorks Line Style
 72
    65
 73
     4
 40
19.05
 49
15.24
 74
     0
 49
-1.27
 74
     0
 49
1.27
 74
     0
 49
-1.27
 74
     0
  0
LTYPE
  5
2F
330
5
100
AcDbSymbolTableRecord
100
AcDbLinetypeTableRecord
  2
SLD-Naht
 70
     0
  3
SolidWorks Line Style
 72
    65
 73
     2
 40
0.635
 49
0.0
 74
     0
 49
-0.635
 74
     0
  0
LTYPE
  5
30
330
5
100
AcDbSymbolTableRecord
100
AcDbLinetypeTableRecord
  2
SLD-Dicke-Dünne-Kette
 70
     0
  3
SolidWorks Line Style
 72
    65
 73
     4
 40
10.16
 49
6.349999999999997
 74
     0
 49
-1.27
 74
     0
 49
1.27
 74
     0
 49
-1.27
 74
     0
  0
LTYPE
  5
2D5
330
5
100
AcDbSymbolTableRecord
100
AcDbLinetypeTableRecord
  2
GEN3A
 70
     0
  3
 - - - - -
 72
    65
 73
     2
 40
3.1
 49
2.5
 74
     0
 49
-0.6
 74
     0
  0
LTYPE
  5
362
330
5
100
AcDbSymbolTableRecord
100
AcDbLinetypeTableRecord
  2
GEN7A
 70
     0
  3
__ . __ . __
 72
    65
 73
     4
 40
7.5
 49
5.0
 74
     0
 49
-1.25
 74
     0
 49
0.0
 74
     0
 49
-1.25
 74
     0
  0
ENDTAB
  0
TABLE
  2
LAYER
  5
2
102
{ACAD_XDICTIONARY
360
296
102
}
330
0
100
AcDbSymbolTable
 70
    15
  0
LAYER
  5
10
330
2
100
AcDbSymbolTableRecord
100
AcDbLayerTableRecord
  2
0
 70
     0
 62
     7
  6
Continuous
370
    -3
390
F
  0
LAYER
  5
31
330
2
100
AcDbSymbolTableRecord
100
AcDbLayerTableRecord
  2
FORMAT
 70
     0
 62
     7
  6
SLD-Durchgehend
370
     0
390
F
  0
LAYER
  5
32
330
2
100
AcDbSymbolTableRecord
100
AcDbLayerTableRecord
  2
VERMASSUNG
 70
     0
 62
     7
  6
SLD-Durchgehend
370
     0
390
F
  0
LAYER
  5
33
330
2
100
AcDbSymbolTableRecord
100
AcDbLayerTableRecord
  2
KOPF__DÜNN
 70
     0
 62
     7
  6
SLD-Durchgehend
370
     0
390
F
  0
LAYER
  5
34
330
2
100
AcDbSymbolTableRecord
100
AcDbLayerTableRecord
  2
KOPF__DICK
 70
     0
 62
     7
  6
SLD-Durchgehend
370
    15
390
F
  0
LAYER
  5
24C
330
2
100
AcDbSymbolTableRecord
100
AcDbLayerTableRecord
  2
Defpoints
 70
     0
 62
     7
  6
Continuous
290
     0
370
    -3
390
F
  0
LAYER
  5
293
330
2
100
AcDbSymbolTableRecord
100
AcDbLayerTableRecord
  2
5
 70
     0
 62
     7
  6
Continuous
370
    -3
390
F
  0
LAYER
  5
2D6
330
2
100
AcDbSymbolTableRecord
100
AcDbLayerTableRecord
  2
3
 70
     0
 62
     1
  6
GEN3A
370
    -3
390
F
  0
LAYER
  5
2D7
330
2
100
AcDbSymbolTableRecord
100
AcDbLayerTableRecord
  2
SK1
 70
     0
 62
     4
  6
Continuous
370
    -3
390
F
  0
LAYER
  5
2D8
330
2
100
AcDbSymbolTableRecord
100
AcDbLayerTableRecord
  2
SK3
 70
     0
 62
     1
  6
GEN3A
370
    -3
390
F
  0
LAYER
  5
35B
330
2
100
AcDbSymbolTableRecord
100
AcDbLayerTableRecord
  2
1
 70
     0
 62
     4
  6
Continuous
370
    -3
390
F
  0
LAYER
  5
361
330
2
100
AcDbSymbolTableRecord
100
AcDbLayerTableRecord
  2
SK4
 70
     0
 62
     2
  6
GEN7A
370
    -3
390
F
  0
LAYER
  5
363
330
2
100
AcDbSymbolTableRecord
100
AcDbLayerTableRecord
  2
4
 70
     0
 62
     2
  6
GEN7A
370
    -3
390
F
  0
LAYER
  5
365
330
2
100
AcDbSymbolTableRecord
100
AcDbLayerTableRecord
  2
2
 70
     0
 62
     7
  6
Continuous
370
    -3
390
F
  0
LAYER
  5
37C
330
2
100
AcDbSymbolTableRecord
100
AcDbLayerTableRecord
  2
SK2
 70
     0
 62
     7
  6
Continuous
370
    -3
390
F
  0
ENDTAB
  0
TABLE
  2
STYLE
  5
3
330
0
100
AcDbSymbolTable
 70
     3
  0
STYLE
  5
11
330
3
100
AcDbSymbolTableRecord
100
AcDbTextStyleTableRecord
  2
STANDARD
 70
     0
 40
0.0
 41
1.0
 50
0.0
 71
     0
 42
2.5
  3
ISOCPEUR.TTF
  4

1001
ACAD
1000
ISOCPEUR
1071
       34
  0
STYLE
  5
35
330
3
100
AcDbSymbolTableRecord
100
AcDbTextStyleTableRecord
  2
SLDTEXTSTYLE0
 70
     0
 40
0.0
 41
1.0
 50
0.0
 71
     0
 42
0.2
  3
ISOCPEUR.TTF
  4

1001
ACAD
1000
ISOCPEUR
1071
       34
  0
STYLE
  5
294
330
3
100
AcDbSymbolTableRecord
100
AcDbTextStyleTableRecord
  2
GENPRESET
 70
     0
 40
0.0
 41
1.0
 50
0.0
 71
     0
 42
3.5
  3
simplex.shx
  4

  0
ENDTAB
  0
TABLE
  2
VIEW
  5
6
330
0
100
AcDbSymbolTable
 70
     0
  0
ENDTAB
  0
TABLE
  2
UCS
  5
7
330
0
100
AcDbSymbolTable
 70
     0
  0
ENDTAB
  0
TABLE
  2
APPID
  5
9
330
0
100
AcDbSymbolTable
 70
     1
  0
APPID
  5
12
330
9
100
AcDbSymbolTableRecord
100
AcDbRegAppTableRecord
  2
ACAD
 70
     0
  0
ENDTAB
  0
TABLE
  2
DIMSTYLE
  5
A
330
0
100
AcDbSymbolTable
 70
     3
100
AcDbDimStyleTable
 71
     2
340
295
340
27
  0
DIMSTYLE
105
27
330
A
100
AcDbSymbolTableRecord
100
AcDbDimStyleTableRecord
  2
ISO-25
 70
     0
 41
2.5
 42
0.625
 43
3.75
 44
1.25
 73
     0
 74
     0
 77
     1
 78
     8
140
2.5
141
2.5
143
0.0393700787
147
0.625
171
     3
172
     1
271
     2
272
     2
274
     3
278
    44
283
     0
284
     8
340
11
  0
DIMSTYLE
105
259
330
A
100
AcDbSymbolTableRecord
100
AcDbDimStyleTableRecord
  2
SLDDIMSTYLE0
 70
     0
 41
3.0
 44
0.0
 73
     0
 74
     0
 77
     2
 78
    12
140
2.0
147
0.5
173
     1
271
     2
272
     3
284
    12
340
35
  0
DIMSTYLE
105
295
102
{ACAD_REACTORS
330
1C2C
330
1C37
102
}
330
A
100
AcDbSymbolTableRecord
100
AcDbDimStyleTableRecord
  2
GEN-ISO_TDM
 70
     0
 41
4.57
 42
0.0
 43
8.0
 44
2.0
 47
0.1
 48
0.1
 73
     0
 74
     0
 77
     1
 78
     8
140
4.57
141
2.0
146
0.7
147
1.5
172
     1
178
     7
179
     1
271
     2
272
     2
284
     8
285
     8
286
     8
340
294
  0
ENDTAB
  0
TABLE
  2
BLOCK_RECORD
  5
1
330
0
100
AcDbSymbolTable
 70
    47
  0
BLOCK_RECORD
  5
1F
330
1
100
AcDbSymbolTableRecord
100
AcDbBlockTableRecord
  2
*Model_Space
340
22
  0
BLOCK_RECORD
  5
1B
330
1
100
AcDbSymbolTableRecord
100
AcDbBlockTableRecord
  2
*Paper_Space
340
1E
  0
BLOCK_RECORD
  5
23
330
1
100
AcDbSymbolTableRecord
100
AcDbBlockTableRecord
  2
*Paper_Space0
340
26
  0
BLOCK_RECORD
  5
24D
330
1
100
AcDbSymbolTableRecord
100
AcDbBlockTableRecord
  2
*D1
340
0
  0
BLOCK_RECORD
  5
261
330
1
100
AcDbSymbolTableRecord
100
AcDbBlockTableRecord
  2
*D2
340
0
  0
BLOCK_RECORD
  5
274
330
1
100
AcDbSymbolTableRecord
100
AcDbBlockTableRecord
  2
*D3
340
0
  0
BLOCK_RECORD
  5
398
330
1
100
AcDbSymbolTableRecord
100
AcDbBlockTableRecord
  2
*D4
340
0
  0
BLOCK_RECORD
  5
3A2
330
1
100
AcDbSymbolTableRecord
100
AcDbBlockTableRecord
  2
_None
340
0
  0
BLOCK_RECORD
  5
435
330
1
100
AcDbSymbolTableRecord
100
AcDbBlockTableRecord
  2
*D6
340
0
  0
BLOCK_RECORD
  5
48A
330
1
100
AcDbSymbolTableRecord
100
AcDbBlockTableRecord
  2
*D7
340
0
  0
BLOCK_RECORD
  5
496
330
1
100
AcDbSymbolTableRecord
100
AcDbBlockTableRecord
  2
*D8
340
0
  0
BLOCK_RECORD
  5
4A2
330
1
100
AcDbSymbolTableRecord
100
AcDbBlockTableRecord
  2
*D9
340
0
  0
BLOCK_RECORD
  5
4AE
330
1
100
AcDbSymbolTableRecord
100
AcDbBlockTableRecord
  2
SW_CENTERMARKSYMBOL_0
340
0
102
{BLKREFS
331
539
331
772
331
1531
331
175B
331
1BBE
331
1DE7
102
}
  0
BLOCK_RECORD
  5
929
330
1
100
AcDbSymbolTableRecord
100
AcDbBlockTableRecord
  2
*D11
340
0
  0
BLOCK_RECORD
  5
935
330
1
100
AcDbSymbolTableRecord
100
AcDbBlockTableRecord
  2
*D12
340
0
  0
BLOCK_RECORD
  5
941
330
1
100
AcDbSymbolTableRecord
100
AcDbBlockTableRecord
  2
*D13
340
0
  0
BLOCK_RECORD
  5
968
330
1
100
AcDbSymbolTableRecord
100
AcDbBlockTableRecord
  2
*D14
340
0
  0
BLOCK_RECORD
  5
9F0
330
1
100
AcDbSymbolTableRecord
100
AcDbBlockTableRecord
  2
*D15
340
0
  0
BLOCK_RECORD
  5
A2A
330
1
100
AcDbSymbolTableRecord
100
AcDbBlockTableRecord
  2
*D16
340
0
  0
BLOCK_RECORD
  5
A33
330
1
100
AcDbSymbolTableRecord
100
AcDbBlockTableRecord
  2
*D17
340
0
  0
BLOCK_RECORD
  5
A3C
330
1
100
AcDbSymbolTableRecord
100
AcDbBlockTableRecord
  2
*D18
340
0
  0
BLOCK_RECORD
  5
E05
330
1
100
AcDbSymbolTableRecord
100
AcDbBlockTableRecord
  2
*D19
340
0
  0
BLOCK_RECORD
  5
E11
330
1
100
AcDbSymbolTableRecord
100
AcDbBlockTableRecord
  2
*D20
340
0
  0
BLOCK_RECORD
  5
E1D
330
1
100
AcDbSymbolTableRecord
100
AcDbBlockTableRecord
  2
*D21
340
0
  0
BLOCK_RECORD
  5
E57
330
1
100
AcDbSymbolTableRecord
100
AcDbBlockTableRecord
  2
A$C2CBA1DD3
340
0
102
{BLKREFS
331
E94
102
}
  0
BLOCK_RECORD
  5
EEC
330
1
100
AcDbSymbolTableRecord
100
AcDbBlockTableRecord
  2
*D23
340
0
  0
BLOCK_RECORD
  5
EF7
330
1
100
AcDbSymbolTableRecord
100
AcDbBlockTableRecord
  2
*D24
340
0
  0
BLOCK_RECORD
  5
F00
330
1
100
AcDbSymbolTableRecord
100
AcDbBlockTableRecord
  2
*D25
340
0
  0
BLOCK_RECORD
  5
1375
330
1
100
AcDbSymbolTableRecord
100
AcDbBlockTableRecord
  2
*D26
340
0
  0
BLOCK_RECORD
  5
1381
330
1
100
AcDbSymbolTableRecord
100
AcDbBlockTableRecord
  2
*D27
340
0
  0
BLOCK_RECORD
  5
138D
330
1
100
AcDbSymbolTableRecord
100
AcDbBlockTableRecord
  2
*D28
340
0
  0
BLOCK_RECORD
  5
1462
330
1
100
AcDbSymbolTableRecord
100
AcDbBlockTableRecord
  2
*D29
340
0
  0
BLOCK_RECORD
  5
146E
330
1
100
AcDbSymbolTableRecord
100
AcDbBlockTableRecord
  2
*D30
340
0
  0
BLOCK_RECORD
  5
147A
330
1
100
AcDbSymbolTableRecord
100
AcDbBlockTableRecord
  2
*D31
340
0
  0
BLOCK_RECORD
  5
18D8
330
1
100
AcDbSymbolTableRecord
100
AcDbBlockTableRecord
  2
*D33
340
0
  0
BLOCK_RECORD
  5
18E4
330
1
100
AcDbSymbolTableRecord
100
AcDbBlockTableRecord
  2
*D34
340
0
  0
BLOCK_RECORD
  5
18F0
330
1
100
AcDbSymbolTableRecord
100
AcDbBlockTableRecord
  2
*D35
340
0
  0
BLOCK_RECORD
  5
19D6
330
1
100
AcDbSymbolTableRecord
100
AcDbBlockTableRecord
  2
*D38
340
0
  0
BLOCK_RECORD
  5
19E2
330
1
100
AcDbSymbolTableRecord
100
AcDbBlockTableRecord
  2
*D39
340
0
  0
BLOCK_RECORD
  5
19EE
330
1
100
AcDbSymbolTableRecord
100
AcDbBlockTableRecord
  2
*D40
340
0
  0
BLOCK_RECORD
  5
1E4A
330
1
100
AcDbSymbolTableRecord
100
AcDbBlockTableRecord
  2
*D42
340
0
  0
BLOCK_RECORD
  5
1E56
330
1
100
AcDbSymbolTableRecord
100
AcDbBlockTableRecord
  2
*D43
340
0
  0
BLOCK_RECORD
  5
1E62
330
1
100
AcDbSymbolTableRecord
100
AcDbBlockTableRecord
  2
*D44
340
0
  0
ENDTAB
  0
ENDSEC
  0
SECTION
  2
BLOCKS
  0
BLOCK
  5
20
330
1F
100
AcDbEntity
  8
0
100
AcDbBlockBegin
  2
*Model_Space
 70
     0
 10
0.0
 20
0.0
 30
0.0
  3
*Model_Space
  1

  0
ENDBLK
  5
21
330
1F
100
AcDbEntity
  8
0
100
AcDbBlockEnd
  0
BLOCK
  5
1C
330
1B
100
AcDbEntity
 67
     1
  8
0
100
AcDbBlockBegin
  2
*Paper_Space
 70
     0
 10
0.0
 20
0.0
 30
0.0
  3
*Paper_Space
  1

  0
ENDBLK
  5
1D
330
1B
100
AcDbEntity
 67
     1
  8
0
100
AcDbBlockEnd
  0
BLOCK
  5
24
330
23
100
AcDbEntity
  8
0
100
AcDbBlockBegin
  2
*Paper_Space0
 70
     0
 10
0.0
 20
0.0
 30
0.0
  3
*Paper_Space0
  1

  0
ENDBLK
  5
25
330
23
100
AcDbEntity
  8
0
100
AcDbBlockEnd
  0
BLOCK
  5
257
330
24D
100
AcDbEntity
  8
0
100
AcDbBlockBegin
  2
*D1
 70
     1
 10
0.0
 20
0.0
 30
0.0
  3
*D1
  1

  0
LINE
  5
478
330
24D
100
AcDbEntity
  8
2
 62
     0
370
    -2
100
AcDbLine
 10
-87.0244716539276
 20
-26.41566902687695
 30
0.0
 11
-87.0244716539276
 21
-17.72363367612226
 31
0.0
  0
LINE
  5
479
330
24D
100
AcDbEntity
  8
2
 62
     0
370
    -2
100
AcDbLine
 10
-51.0244716539276
 20
-32.39092980467695
 30
0.0
 11
-51.0244716539276
 21
-17.72363367612226
 31
0.0
  0
LINE
  5
47A
330
24D
100
AcDbEntity
  8
2
 62
     0
370
    -2
100
AcDbLine
 10
-82.45447165392761
 20
-19.72363367612226
 30
0.0
 11
-55.59447165392761
 21
-19.72363367612226
 31
0.0
  0
SOLID
  5
47B
330
24D
100
AcDbEntity
  8
2
 62
     0
100
AcDbTrace
 10
-82.45447165392761
 20
-18.96196700945559
 30
0.0
 11
-82.45447165392761
 21
-20.48530034278893
 31
0.0
 12
-87.0244716539276
 22
-19.72363367612226
 32
0.0
 13
-87.0244716539276
 23
-19.72363367612226
 33
0.0
  0
SOLID
  5
47C
330
24D
100
AcDbEntity
  8
2
 62
     0
100
AcDbTrace
 10
-55.59447165392761
 20
-18.96196700945559
 30
0.0
 11
-55.59447165392761
 21
-20.48530034278893
 31
0.0
 12
-51.0244716539276
 22
-19.72363367612226
 32
0.0
 13
-51.0244716539276
 23
-19.72363367612226
 33
0.0
  0
MTEXT
  5
47D
330
24D
100
AcDbEntity
  8
2
 62
     7
100
AcDbMText
 10
-69.02447165392761
 20
-15.93863367612225
 30
0.0
 40
4.57
 41
0.0
 71
     5
 72
     1
  1
\A1;36
  7
GENPRESET
 73
     1
 44
1.0
  0
POINT
  5
47E
330
24D
100
AcDbEntity
  8
Defpoints
 62
     0
100
AcDbPoint
 10
-87.0244716539276
 20
-26.41566902687695
 30
0.0
  0
POINT
  5
47F
330
24D
100
AcDbEntity
  8
Defpoints
 62
     0
100
AcDbPoint
 10
-51.0244716539276
 20
-32.39092980467695
 30
0.0
  0
POINT
  5
480
330
24D
100
AcDbEntity
  8
Defpoints
 62
     0
100
AcDbPoint
 10
-51.0244716539276
 20
-19.72363367612226
 30
0.0
  0
ENDBLK
  5
258
330
24D
100
AcDbEntity
  8
0
100
AcDbBlockEnd
  0
BLOCK
  5
26B
330
261
100
AcDbEntity
  8
0
100
AcDbBlockBegin
  2
*D2
 70
     1
 10
0.0
 20
0.0
 30
0.0
  3
*D2
  1

  0
LINE
  5
2BA
330
261
100
AcDbEntity
  8
VERMASSUNG
 62
     0
370
    -2
100
AcDbLine
 10
0.0
 20
9.799999999999997
 30
0.0
 11
0.0000000000000003
 21
15.42960572859999
 31
0.0
  0
LINE
  5
2BB
330
261
100
AcDbEntity
  8
VERMASSUNG
 62
     0
370
    -2
100
AcDbLine
 10
26.5
 20
8.074677142099986
 30
0.0
 11
26.5
 21
15.42960572859999
 31
0.0
  0
LINE
  5
2BC
330
261
100
AcDbEntity
  8
VERMASSUNG
 62
     0
370
    -2
100
AcDbLine
 10
3.0
 20
14.42960572859997
 30
0.0
 11
23.5
 21
14.42960572859997
 31
0.0
  0
SOLID
  5
2BD
330
261
100
AcDbEntity
  8
VERMASSUNG
 62
     0
100
AcDbTrace
 10
3.0
 20
14.92960572859999
 30
0.0
 11
3.0
 21
13.92960572859998
 31
0.0
 12
0.0000000000000003
 22
14.42960572859997
 32
0.0
 13
0.0000000000000003
 23
14.42960572859997
 33
0.0
  0
SOLID
  5
2BE
330
261
100
AcDbEntity
  8
VERMASSUNG
 62
     0
100
AcDbTrace
 10
23.5
 20
14.92960572859999
 30
0.0
 11
23.5
 21
13.92960572859998
 31
0.0
 12
26.5
 22
14.42960572859997
 32
0.0
 13
26.5
 23
14.42960572859997
 33
0.0
  0
MTEXT
  5
2BF
330
261
100
AcDbEntity
  8
VERMASSUNG
 62
     0
100
AcDbMText
 10
10.34999999999999
 20
17.95360572859999
 30
0.0
 40
2.0
 41
0.0
 71
     1
 72
     1
  1
\A1;26.50
  7
SLDTEXTSTYLE0
 73
     1
 44
1.0
  0
POINT
  5
2C0
330
261
100
AcDbEntity
  8
Defpoints
 62
     0
100
AcDbPoint
 10
0.0
 20
9.799999999999997
 30
0.0
  0
POINT
  5
2C1
330
261
100
AcDbEntity
  8
Defpoints
 62
     0
100
AcDbPoint
 10
26.5
 20
8.074677142099986
 30
0.0
  0
POINT
  5
2C2
330
261
100
AcDbEntity
  8
Defpoints
 62
     0
100
AcDbPoint
 10
26.5
 20
14.42960572859997
 30
0.0
  0
ENDBLK
  5
26C
330
261
100
AcDbEntity
  8
0
100
AcDbBlockEnd
  0
BLOCK
  5
27F
330
274
100
AcDbEntity
  8
0
100
AcDbBlockBegin
  2
*D3
 70
     1
 10
0.0
 20
0.0
 30
0.0
  3
*D3
  1

  0
LINE
  5
481
330
274
100
AcDbEntity
  8
SK2
 62
     0
370
    -2
100
AcDbLine
 10
-86.82447165392764
 20
-26.21566902687694
 30
0.0
 11
-104.5256577309275
 21
-26.21566902687694
 31
0.0
  0
LINE
  5
482
330
274
100
AcDbEntity
  8
SK2
 62
     0
370
    -2
100
AcDbLine
 10
-86.82447165392764
 20
-46.21566902687695
 30
0.0
 11
-104.5256577309276
 21
-46.21566902687695
 31
0.0
  0
LINE
  5
483
330
274
100
AcDbEntity
  8
SK2
 62
     0
370
    -2
100
AcDbLine
 10
-102.5256577309274
 20
-30.78566902687695
 30
0.0
 11
-102.5256577309276
 21
-41.64566902687695
 31
0.0
  0
SOLID
  5
484
330
274
100
AcDbEntity
  8
SK2
 62
     0
100
AcDbTrace
 10
-103.2873243975942
 20
-30.78566902687695
 30
0.0
 11
-101.7639910642609
 21
-30.78566902687695
 31
0.0
 12
-102.5256577309274
 22
-26.21566902687694
 32
0.0
 13
-102.5256577309274
 23
-26.21566902687694
 33
0.0
  0
SOLID
  5
485
330
274
100
AcDbEntity
  8
SK2
 62
     0
100
AcDbTrace
 10
-103.2873243975942
 20
-41.64566902687695
 30
0.0
 11
-101.7639910642609
 21
-41.64566902687695
 31
0.0
 12
-102.5256577309276
 22
-46.21566902687695
 32
0.0
 13
-102.5256577309276
 23
-46.21566902687695
 33
0.0
  0
MTEXT
  5
486
330
274
100
AcDbEntity
  8
SK2
 62
     7
100
AcDbMText
 10
-106.3106577309274
 20
-36.21566902687696
 30
0.0
 40
4.57
 41
0.0
 71
     5
 72
     1
  1
\A1;MBM %%c20
  7
GENPRESET
 11
0.0000000000000001
 21
1.0
 31
0.0
 73
     1
 44
1.0
  0
POINT
  5
487
330
274
100
AcDbEntity
  8
Defpoints
 62
     0
100
AcDbPoint
 10
-86.82447165392764
 20
-26.21566902687694
 30
0.0
  0
POINT
  5
488
330
274
100
AcDbEntity
  8
Defpoints
 62
     0
100
AcDbPoint
 10
-86.82447165392764
 20
-46.21566902687695
 30
0.0
  0
POINT
  5
489
330
274
100
AcDbEntity
  8
Defpoints
 62
     0
100
AcDbPoint
 10
-102.5256577309276
 20
-46.21566902687695
 30
0.0
  0
ENDBLK
  5
280
330
274
100
AcDbEntity
  8
0
100
AcDbBlockEnd
  0
BLOCK
  5
3A0
330
398
100
AcDbEntity
  8
0
100
AcDbBlockBegin
  2
*D4
 70
     1
 10
0.0
 20
0.0
 30
0.0
  3
*D4
  1

  0
LINE
  5
399
330
398
100
AcDbEntity
  8
SK2
 62
     0
370
    -2
100
AcDbLine
 10
13.49994397087499
 20
11.95
 30
0.0
 11
24.04200736209938
 21
11.94999999999999
 31
0.0
  0
LINE
  5
39A
330
398
100
AcDbEntity
  8
SK2
 62
     0
370
    -2
100
AcDbLine
 10
22.04200736209938
 20
7.379999999999997
 30
0.0
 11
22.04200736209937
 21
-11.94999999999999
 31
0.0
  0
SOLID
  5
39B
330
398
100
AcDbEntity
  8
SK2
 62
     0
100
AcDbTrace
 10
21.28034069543271
 20
7.379999999999997
 30
0.0
 11
22.80367402876604
 21
7.379999999999997
 31
0.0
 12
22.04200736209938
 22
11.94999999999999
 32
0.0
 13
22.04200736209938
 23
11.94999999999999
 33
0.0
  0
MTEXT
  5
39C
330
398
100
AcDbEntity
  8
SK2
 62
     7
100
AcDbMText
 10
18.25700736209937
 20
-2.284999999999993
 30
0.0
 40
4.57
 41
0.0
 71
     5
 72
     1
  1
\A1;ø23.9-31.1
  7
GENPRESET
 11
0.0000000000000001
 21
1.0
 31
0.0
 73
     1
 44
1.0
  0
POINT
  5
39D
330
398
100
AcDbEntity
  8
Defpoints
 62
     0
100
AcDbPoint
 10
13.49994397087499
 20
11.95
 30
0.0
  0
POINT
  5
39E
330
398
100
AcDbEntity
  8
Defpoints
 62
     0
100
AcDbPoint
 10
13.49994397087499
 20
-11.94999999999999
 30
0.0
  0
POINT
  5
39F
330
398
100
AcDbEntity
  8
Defpoints
 62
     0
100
AcDbPoint
 10
22.04200736209937
 20
-11.94999999999999
 30
0.0
  0
ENDBLK
  5
3A1
330
398
100
AcDbEntity
  8
0
100
AcDbBlockEnd
  0
BLOCK
  5
3A3
330
3A2
100
AcDbEntity
  8
0
100
AcDbBlockBegin
  2
_None
 70
     0
 10
0.0
 20
0.0
 30
0.0
  3
_None
  1

  0
ENDBLK
  5
3A4
330
3A2
100
AcDbEntity
  8
0
100
AcDbBlockEnd
  0
BLOCK
  5
43D
330
435
100
AcDbEntity
  8
0
100
AcDbBlockBegin
  2
*D6
 70
     1
 10
0.0
 20
0.0
 30
0.0
  3
*D6
  1

  0
LINE
  5
43F
330
435
100
AcDbEntity
  8
SK2
 62
     0
370
    -2
100
AcDbLine
 10
39.99994397087499
 20
11.95
 30
0.0
 11
50.54200736209939
 21
11.94999999999999
 31
0.0
  0
LINE
  5
440
330
435
100
AcDbEntity
  8
SK2
 62
     0
370
    -2
100
AcDbLine
 10
48.54200736209938
 20
7.379999999999997
 30
0.0
 11
48.54200736209938
 21
-11.94999999999999
 31
0.0
  0
SOLID
  5
441
330
435
100
AcDbEntity
  8
SK2
 62
     0
100
AcDbTrace
 10
47.78034069543271
 20
7.379999999999997
 30
0.0
 11
49.30367402876605
 21
7.379999999999997
 31
0.0
 12
48.54200736209938
 22
11.94999999999999
 32
0.0
 13
48.54200736209938
 23
11.94999999999999
 33
0.0
  0
MTEXT
  5
442
330
435
100
AcDbEntity
  8
SK2
 62
     7
100
AcDbMText
 10
44.75700736209938
 20
-2.284999999999989
 30
0.0
 40
4.57
 41
0.0
 71
     5
 72
     1
  1
\A1;ø23.9-31.1
  7
GENPRESET
 11
0.0000000000000001
 21
1.0
 31
0.0
 73
     1
 44
1.0
  0
POINT
  5
443
330
435
100
AcDbEntity
  8
Defpoints
 62
     0
100
AcDbPoint
 10
39.99994397087499
 20
11.95
 30
0.0
  0
POINT
  5
444
330
435
100
AcDbEntity
  8
Defpoints
 62
     0
100
AcDbPoint
 10
39.99994397087499
 20
-11.94999999999999
 30
0.0
  0
POINT
  5
445
330
435
100
AcDbEntity
  8
Defpoints
 62
     0
100
AcDbPoint
 10
48.54200736209938
 20
-11.94999999999999
 30
0.0
  0
ENDBLK
  5
43E
330
435
100
AcDbEntity
  8
0
100
AcDbBlockEnd
  0
BLOCK
  5
494
330
48A
100
AcDbEntity
  8
0
100
AcDbBlockBegin
  2
*D7
 70
     1
 10
0.0
 20
0.0
 30
0.0
  3
*D7
  1

  0
LINE
  5
48B
330
48A
100
AcDbEntity
  8
VERMASSUNG
 62
     0
370
    -2
100
AcDbLine
 10
129.7599624652999
 20
118.4207422387999
 30
0.0
 11
129.7599624652999
 21
131.47329334735
 31
0.0
  0
LINE
  5
48C
330
48A
100
AcDbEntity
  8
VERMASSUNG
 62
     0
370
    -2
100
AcDbLine
 10
94.1099624653
 20
126.1657422387999
 30
0.0
 11
94.1099624653
 21
131.47329334735
 31
0.0
  0
LINE
  5
48D
330
48A
100
AcDbEntity
  8
VERMASSUNG
 62
     0
370
    -2
100
AcDbLine
 10
126.7599624652999
 20
130.47329334735
 30
0.0
 11
97.10996246530001
 21
130.47329334735
 31
0.0
  0
SOLID
  5
48E
330
48A
100
AcDbEntity
  8
VERMASSUNG
 62
     0
100
AcDbTrace
 10
126.7599624652999
 20
130.9732933473499
 30
0.0
 11
126.7599624652999
 21
129.9732933473499
 31
0.0
 12
129.7599624652999
 22
130.47329334735
 32
0.0
 13
129.7599624652999
 23
130.47329334735
 33
0.0
  0
SOLID
  5
48F
330
48A
100
AcDbEntity
  8
VERMASSUNG
 62
     0
100
AcDbTrace
 10
97.10996246530001
 20
130.9732933473499
 30
0.0
 11
97.10996246530001
 21
129.9732933473499
 31
0.0
 12
94.1099624653
 22
130.47329334735
 32
0.0
 13
94.1099624653
 23
130.47329334735
 33
0.0
  0
MTEXT
  5
490
330
48A
100
AcDbEntity
  8
VERMASSUNG
 62
     0
100
AcDbMText
 10
109.2349624653
 20
133.9972933473499
 30
0.0
 40
2.0
 41
0.0
 71
     1
 72
     1
  1
\A1;17.83
  7
SLDTEXTSTYLE0
 73
     1
 44
1.0
  0
POINT
  5
491
330
48A
100
AcDbEntity
  8
Defpoints
 62
     0
100
AcDbPoint
 10
129.7599624652999
 20
118.4207422387999
 30
0.0
  0
POINT
  5
492
330
48A
100
AcDbEntity
  8
Defpoints
 62
     0
100
AcDbPoint
 10
94.1099624653
 20
126.1657422387999
 30
0.0
  0
POINT
  5
493
330
48A
100
AcDbEntity
  8
Defpoints
 62
     0
100
AcDbPoint
 10
94.1099624653
 20
130.47329334735
 30
0.0
  0
ENDBLK
  5
495
330
48A
100
AcDbEntity
  8
0
100
AcDbBlockEnd
  0
BLOCK
  5
4A0
330
496
100
AcDbEntity
  8
0
100
AcDbBlockBegin
  2
*D8
 70
     1
 10
0.0
 20
0.0
 30
0.0
  3
*D8
  1

  0
LINE
  5
497
330
496
100
AcDbEntity
  8
VERMASSUNG
 62
     0
370
    -2
100
AcDbLine
 10
94.1099624653
 20
126.1657422387999
 30
0.0
 11
94.1099624653
 21
134.4732933473499
 31
0.0
  0
LINE
  5
498
330
496
100
AcDbEntity
  8
VERMASSUNG
 62
     0
370
    -2
100
AcDbLine
 10
140.1099624652997
 20
120.08234397435
 30
0.0
 11
140.1099624652997
 21
134.4732933473499
 31
0.0
  0
LINE
  5
499
330
496
100
AcDbEntity
  8
VERMASSUNG
 62
     0
370
    -2
100
AcDbLine
 10
97.10996246530001
 20
133.4732933473499
 30
0.0
 11
137.1099624652996
 21
133.4732933473499
 31
0.0
  0
SOLID
  5
49A
330
496
100
AcDbEntity
  8
VERMASSUNG
 62
     0
100
AcDbTrace
 10
97.10996246530001
 20
133.9732933473499
 30
0.0
 11
97.10996246530001
 21
132.9732933473499
 31
0.0
 12
94.1099624653
 22
133.4732933473499
 32
0.0
 13
94.1099624653
 23
133.4732933473499
 33
0.0
  0
SOLID
  5
49B
330
496
100
AcDbEntity
  8
VERMASSUNG
 62
     0
100
AcDbTrace
 10
137.1099624652996
 20
133.9732933473499
 30
0.0
 11
137.1099624652996
 21
132.9732933473499
 31
0.0
 12
140.1099624652997
 22
133.4732933473499
 32
0.0
 13
140.1099624652997
 23
133.4732933473499
 33
0.0
  0
MTEXT
  5
49C
330
496
100
AcDbEntity
  8
VERMASSUNG
 62
     0
100
AcDbMText
 10
114.2099624653
 20
136.99729334735
 30
0.0
 40
2.0
 41
0.0
 71
     1
 72
     1
  1
\A1;23.00
  7
SLDTEXTSTYLE0
 73
     1
 44
1.0
  0
POINT
  5
49D
330
496
100
AcDbEntity
  8
Defpoints
 62
     0
100
AcDbPoint
 10
94.1099624653
 20
126.1657422387999
 30
0.0
  0
POINT
  5
49E
330
496
100
AcDbEntity
  8
Defpoints
 62
     0
100
AcDbPoint
 10
140.1099624652997
 20
120.08234397435
 30
0.0
  0
POINT
  5
49F
330
496
100
AcDbEntity
  8
Defpoints
 62
     0
100
AcDbPoint
 10
140.1099624652997
 20
133.4732933473499
 30
0.0
  0
ENDBLK
  5
4A1
330
496
100
AcDbEntity
  8
0
100
AcDbBlockEnd
  0
BLOCK
  5
4AC
330
4A2
100
AcDbEntity
  8
0
100
AcDbBlockBegin
  2
*D9
 70
     1
 10
0.0
 20
0.0
 30
0.0
  3
*D9
  1

  0
LINE
  5
4A3
330
4A2
100
AcDbEntity
  8
VERMASSUNG
 62
     0
370
    -2
100
AcDbLine
 10
94.3099624653
 20
126.3657422387999
 30
0.0
 11
76.69506171390003
 21
126.3657422387999
 31
0.0
  0
LINE
  5
4A4
330
4A2
100
AcDbEntity
  8
VERMASSUNG
 62
     0
370
    -2
100
AcDbLine
 10
94.3099624653
 20
101.3657422387999
 30
0.0
 11
76.69506171390003
 21
101.3657422387999
 31
0.0
  0
LINE
  5
4A5
330
4A2
100
AcDbEntity
  8
VERMASSUNG
 62
     0
370
    -2
100
AcDbLine
 10
77.69506171390003
 20
123.3657422387999
 30
0.0
 11
77.69506171390003
 21
104.3657422387999
 31
0.0
  0
SOLID
  5
4A6
330
4A2
100
AcDbEntity
  8
VERMASSUNG
 62
     0
100
AcDbTrace
 10
77.19506171390003
 20
123.3657422387999
 30
0.0
 11
78.19506171390003
 21
123.3657422387999
 31
0.0
 12
77.69506171390003
 22
126.3657422387999
 32
0.0
 13
77.69506171390003
 23
126.3657422387999
 33
0.0
  0
SOLID
  5
4A7
330
4A2
100
AcDbEntity
  8
VERMASSUNG
 62
     0
100
AcDbTrace
 10
77.19506171390003
 20
104.3657422387999
 30
0.0
 11
78.19506171390003
 21
104.3657422387999
 31
0.0
 12
77.69506171390003
 22
101.3657422387999
 32
0.0
 13
77.69506171390003
 23
101.3657422387999
 33
0.0
  0
MTEXT
  5
4A8
330
4A2
100
AcDbEntity
  8
VERMASSUNG
 62
     0
100
AcDbMText
 10
62.5710617139
 20
114.8664998145574
 30
0.0
 40
2.0
 41
0.0
 71
     1
 72
     1
  1
\A1;MBM %%c12.50
  7
SLDTEXTSTYLE0
 73
     1
 44
1.0
  0
POINT
  5
4A9
330
4A2
100
AcDbEntity
  8
Defpoints
 62
     0
100
AcDbPoint
 10
94.3099624653
 20
126.3657422387999
 30
0.0
  0
POINT
  5
4AA
330
4A2
100
AcDbEntity
  8
Defpoints
 62
     0
100
AcDbPoint
 10
94.3099624653
 20
101.3657422387999
 30
0.0
  0
POINT
  5
4AB
330
4A2
100
AcDbEntity
  8
Defpoints
 62
     0
100
AcDbPoint
 10
77.69506171390003
 20
101.3657422387999
 30
0.0
  0
ENDBLK
  5
4AD
330
4A2
100
AcDbEntity
  8
0
100
AcDbBlockEnd
  0
BLOCK
  5
4B7
330
4AE
100
AcDbEntity
  8
0
100
AcDbBlockBegin
  2
SW_CENTERMARKSYMBOL_0
 70
     0
 10
0.0
 20
0.0
 30
0.0
  3
SW_CENTERMARKSYMBOL_0
  1

  0
LINE
  5
4AF
330
4AE
100
AcDbEntity
  8
VERMASSUNG
100
AcDbLine
 10
0.0
 20
0.0
 30
0.0
 11
0.0
 21
5.0
 31
0.0
  0
LINE
  5
4B0
330
4AE
100
AcDbEntity
  8
VERMASSUNG
100
AcDbLine
 10
0.0
 20
0.0
 30
0.0
 11
-5.0
 21
0.0
 31
0.0
  0
LINE
  5
4B1
330
4AE
100
AcDbEntity
  8
VERMASSUNG
100
AcDbLine
 10
0.0
 20
0.0
 30
0.0
 11
0.0
 21
-5.0
 31
0.0
  0
LINE
  5
4B2
330
4AE
100
AcDbEntity
  8
VERMASSUNG
100
AcDbLine
 10
0.0
 20
0.0
 30
0.0
 11
5.0
 21
0.0
 31
0.0
  0
LINE
  5
4B3
330
4AE
100
AcDbEntity
  8
VERMASSUNG
100
AcDbLine
 10
0.0
 20
5.0
 30
0.0
 11
0.0
 21
9.109999999999999
 31
0.0
  0
LINE
  5
4B4
330
4AE
100
AcDbEntity
  8
VERMASSUNG
100
AcDbLine
 10
-5.0
 20
0.0
 30
0.0
 11
-9.109999999999999
 21
0.0
 31
0.0
  0
LINE
  5
4B5
330
4AE
100
AcDbEntity
  8
VERMASSUNG
100
AcDbLine
 10
0.0
 20
-5.0
 30
0.0
 11
0.0
 21
-9.109999999999999
 31
0.0
  0
LINE
  5
4B6
330
4AE
100
AcDbEntity
  8
VERMASSUNG
100
AcDbLine
 10
5.0
 20
0.0
 30
0.0
 11
9.109999999999999
 21
0.0
 31
0.0
  0
ENDBLK
  5
4B8
330
4AE
100
AcDbEntity
  8
0
100
AcDbBlockEnd
  0
BLOCK
  5
933
330
929
100
AcDbEntity
  8
0
100
AcDbBlockBegin
  2
*D11
 70
     1
 10
0.0
 20
0.0
 30
0.0
  3
*D11
  1

  0
LINE
  5
94D
330
929
100
AcDbEntity
  8
VERMASSUNG
 62
     0
370
    -2
100
AcDbLine
 10
0.2000000000000028
 20
12.49999999999998
 30
0.0
 11
-17.41490075139999
 21
12.49999999999999
 31
0.0
  0
LINE
  5
94E
330
929
100
AcDbEntity
  8
VERMASSUNG
 62
     0
370
    -2
100
AcDbLine
 10
0.2000000000000028
 20
-12.5
 30
0.0
 11
-17.4149007514
 21
-12.49999999999999
 31
0.0
  0
LINE
  5
94F
330
929
100
AcDbEntity
  8
VERMASSUNG
 62
     0
370
    -2
100
AcDbLine
 10
-16.41490075139999
 20
9.499999999999991
 30
0.0
 11
-16.4149007514
 21
-9.499999999999994
 31
0.0
  0
SOLID
  5
950
330
929
100
AcDbEntity
  8
VERMASSUNG
 62
     0
100
AcDbTrace
 10
-16.91490075139999
 20
9.499999999999991
 30
0.0
 11
-15.91490075139998
 21
9.499999999999991
 31
0.0
 12
-16.41490075139999
 22
12.49999999999999
 32
0.0
 13
-16.41490075139999
 23
12.49999999999999
 33
0.0
  0
SOLID
  5
951
330
929
100
AcDbEntity
  8
VERMASSUNG
 62
     0
100
AcDbTrace
 10
-16.9149007514
 20
-9.499999999999994
 30
0.0
 11
-15.9149007514
 21
-9.499999999999994
 31
0.0
 12
-16.4149007514
 22
-12.49999999999999
 32
0.0
 13
-16.4149007514
 23
-12.49999999999999
 33
0.0
  0
MTEXT
  5
952
330
929
100
AcDbEntity
  8
VERMASSUNG
 62
     0
100
AcDbMText
 10
-31.53890075139999
 20
1.000757575757574
 30
0.0
 40
2.0
 41
0.0
 71
     1
 72
     1
  1
\A1;MBM %%c12.50
  7
SLDTEXTSTYLE0
 73
     1
 44
1.0
  0
POINT
  5
953
330
929
100
AcDbEntity
  8
Defpoints
 62
     0
100
AcDbPoint
 10
0.2000000000000028
 20
12.49999999999998
 30
0.0
  0
POINT
  5
954
330
929
100
AcDbEntity
  8
Defpoints
 62
     0
100
AcDbPoint
 10
0.2000000000000028
 20
-12.5
 30
0.0
  0
POINT
  5
955
330
929
100
AcDbEntity
  8
Defpoints
 62
     0
100
AcDbPoint
 10
-16.4149007514
 20
-12.49999999999999
 30
0.0
  0
ENDBLK
  5
934
330
929
100
AcDbEntity
  8
0
100
AcDbBlockEnd
  0
BLOCK
  5
93F
330
935
100
AcDbEntity
  8
0
100
AcDbBlockBegin
  2
*D12
 70
     1
 10
0.0
 20
0.0
 30
0.0
  3
*D12
  1

  0
LINE
  5
956
330
935
100
AcDbEntity
  8
VERMASSUNG
 62
     0
370
    -2
100
AcDbLine
 10
35.64999999999999
 20
4.554999999999992
 30
0.0
 11
35.64999999999999
 21
17.60755110854998
 31
0.0
  0
LINE
  5
957
330
935
100
AcDbEntity
  8
VERMASSUNG
 62
     0
370
    -2
100
AcDbLine
 10
0.0
 20
12.29999999999999
 30
0.0
 11
0.0000000000000003
 21
17.60755110854998
 31
0.0
  0
LINE
  5
958
330
935
100
AcDbEntity
  8
VERMASSUNG
 62
     0
370
    -2
100
AcDbLine
 10
32.64999999999999
 20
16.60755110854999
 30
0.0
 11
3.0
 21
16.60755110854999
 31
0.0
  0
SOLID
  5
959
330
935
100
AcDbEntity
  8
VERMASSUNG
 62
     0
100
AcDbTrace
 10
32.64999999999999
 20
17.10755110854999
 30
0.0
 11
32.64999999999999
 21
16.10755110855
 31
0.0
 12
35.64999999999999
 22
16.60755110854999
 32
0.0
 13
35.64999999999999
 23
16.60755110854999
 33
0.0
  0
SOLID
  5
95A
330
935
100
AcDbEntity
  8
VERMASSUNG
 62
     0
100
AcDbTrace
 10
3.0
 20
17.10755110854999
 30
0.0
 11
3.0
 21
16.10755110855
 31
0.0
 12
0.0000000000000003
 22
16.60755110854999
 32
0.0
 13
0.0000000000000003
 23
16.60755110854999
 33
0.0
  0
MTEXT
  5
95B
330
935
100
AcDbEntity
  8
VERMASSUNG
 62
     0
100
AcDbMText
 10
15.125
 20
20.13155110855
 30
0.0
 40
2.0
 41
0.0
 71
     1
 72
     1
  1
\A1;17.83
  7
SLDTEXTSTYLE0
 73
     1
 44
1.0
  0
POINT
  5
95C
330
935
100
AcDbEntity
  8
Defpoints
 62
     0
100
AcDbPoint
 10
35.64999999999999
 20
4.554999999999992
 30
0.0
  0
POINT
  5
95D
330
935
100
AcDbEntity
  8
Defpoints
 62
     0
100
AcDbPoint
 10
0.0
 20
12.29999999999999
 30
0.0
  0
POINT
  5
95E
330
935
100
AcDbEntity
  8
Defpoints
 62
     0
100
AcDbPoint
 10
0.0000000000000003
 20
16.60755110854999
 30
0.0
  0
ENDBLK
  5
940
330
935
100
AcDbEntity
  8
0
100
AcDbBlockEnd
  0
BLOCK
  5
94B
330
941
100
AcDbEntity
  8
0
100
AcDbBlockBegin
  2
*D13
 70
     1
 10
0.0
 20
0.0
 30
0.0
  3
*D13
  1

  0
LINE
  5
A18
330
941
100
AcDbEntity
  8
2
 62
     0
370
    -2
100
AcDbLine
 10
-82.47180419026618
 20
-20.14998903838178
 30
0.0
 11
-82.47180419026618
 21
-10.84243792983176
 31
0.0
  0
LINE
  5
A19
330
941
100
AcDbEntity
  8
2
 62
     0
370
    -2
100
AcDbLine
 10
-36.47180419026619
 20
-26.23338730283176
 30
0.0
 11
-36.47180419026619
 21
-10.84243792983176
 31
0.0
  0
LINE
  5
A1A
330
941
100
AcDbEntity
  8
2
 62
     0
370
    -2
100
AcDbLine
 10
-77.90180419026619
 20
-12.84243792983176
 30
0.0
 11
-41.04180419026619
 21
-12.84243792983176
 31
0.0
  0
SOLID
  5
A1B
330
941
100
AcDbEntity
  8
2
 62
     0
100
AcDbTrace
 10
-77.90180419026619
 20
-12.08077126316511
 30
0.0
 11
-77.90180419026619
 21
-13.60410459649844
 31
0.0
 12
-82.47180419026618
 22
-12.84243792983176
 32
0.0
 13
-82.47180419026618
 23
-12.84243792983176
 33
0.0
  0
SOLID
  5
A1C
330
941
100
AcDbEntity
  8
2
 62
     0
100
AcDbTrace
 10
-41.04180419026619
 20
-12.08077126316511
 30
0.0
 11
-41.04180419026619
 21
-13.60410459649844
 31
0.0
 12
-36.47180419026619
 22
-12.84243792983176
 32
0.0
 13
-36.47180419026619
 23
-12.84243792983176
 33
0.0
  0
MTEXT
  5
A1D
330
941
100
AcDbEntity
  8
2
 62
     7
100
AcDbMText
 10
-59.47180419026615
 20
-9.057437929831783
 30
0.0
 40
4.57
 41
0.0
 71
     5
 72
     1
  1
\A1;46
  7
GENPRESET
 73
     1
 44
1.0
  0
POINT
  5
A1E
330
941
100
AcDbEntity
  8
Defpoints
 62
     0
100
AcDbPoint
 10
-82.47180419026618
 20
-20.14998903838178
 30
0.0
  0
POINT
  5
A1F
330
941
100
AcDbEntity
  8
Defpoints
 62
     0
100
AcDbPoint
 10
-36.47180419026619
 20
-26.23338730283176
 30
0.0
  0
POINT
  5
A20
330
941
100
AcDbEntity
  8
Defpoints
 62
     0
100
AcDbPoint
 10
-36.47180419026619
 20
-12.84243792983176
 30
0.0
  0
ENDBLK
  5
94C
330
941
100
AcDbEntity
  8
0
100
AcDbBlockEnd
  0
BLOCK
  5
972
330
968
100
AcDbEntity
  8
0
 62
     0
100
AcDbBlockBegin
  2
*D14
 70
     1
 10
0.0
 20
0.0
 30
0.0
  3
*D14
  1

  0
LINE
  5
969
330
968
100
AcDbEntity
  8
SK2
 62
     0
370
    -2
100
AcDbLine
 10
0.1999995677999919
 20
12.5
 30
0.0
 11
-19.38169290102023
 21
12.5
 31
0.0
  0
LINE
  5
96A
330
968
100
AcDbEntity
  8
SK2
 62
     0
370
    -2
100
AcDbLine
 10
0.1999995677999919
 20
-12.5
 30
0.0
 11
-19.38169290102023
 21
-12.49999999999999
 31
0.0
  0
LINE
  5
96B
330
968
100
AcDbEntity
  8
SK2
 62
     0
370
    -2
100
AcDbLine
 10
-16.88169290102024
 20
7.930000000000005
 30
0.0
 11
-16.88169290102024
 21
-7.929999999999994
 31
0.0
  0
SOLID
  5
96C
330
968
100
AcDbEntity
  8
SK2
 62
     0
100
AcDbTrace
 10
-17.64335956768691
 20
7.930000000000005
 30
0.0
 11
-16.12002623435357
 21
7.930000000000005
 31
0.0
 12
-16.88169290102024
 22
12.5
 32
0.0
 13
-16.88169290102024
 23
12.5
 33
0.0
  0
SOLID
  5
96D
330
968
100
AcDbEntity
  8
SK2
 62
     0
100
AcDbTrace
 10
-17.64335956768691
 20
-7.929999999999994
 30
0.0
 11
-16.12002623435357
 21
-7.929999999999994
 31
0.0
 12
-16.88169290102024
 22
-12.49999999999999
 32
0.0
 13
-16.88169290102024
 23
-12.49999999999999
 33
0.0
  0
MTEXT
  5
96E
330
968
100
AcDbEntity
  8
SK2
 62
     7
100
AcDbMText
 10
-22.95169290102023
 20
-13.2747619047619
 30
0.0
 40
4.57
 41
0.0
 71
     1
 72
     1
  1
\A1;MBM%%c25
  7
GENPRESET
 11
0.0000000000000001
 21
1.0
 31
0.0
 73
     1
 44
1.0
  0
POINT
  5
96F
330
968
100
AcDbEntity
  8
Defpoints
 62
     0
100
AcDbPoint
 10
0.1999995677999919
 20
12.5
 30
0.0
  0
POINT
  5
970
330
968
100
AcDbEntity
  8
Defpoints
 62
     0
100
AcDbPoint
 10
0.1999995677999919
 20
-12.5
 30
0.0
  0
POINT
  5
971
330
968
100
AcDbEntity
  8
Defpoints
 62
     0
100
AcDbPoint
 10
-16.88169290102024
 20
-12.49999999999999
 30
0.0
  0
ENDBLK
  5
973
330
968
100
AcDbEntity
  8
0
 62
     0
100
AcDbBlockEnd
  0
BLOCK
  5
9FA
330
9F0
100
AcDbEntity
  8
0
100
AcDbBlockBegin
  2
*D15
 70
     1
 10
0.0
 20
0.0
 30
0.0
  3
*D15
  1

  0
LINE
  5
A21
330
9F0
100
AcDbEntity
  8
SK2
 62
     0
370
    -2
100
AcDbLine
 10
-82.2718046224662
 20
-19.94998903838176
 30
0.0
 11
-101.3534970912864
 21
-19.94998903838176
 31
0.0
  0
LINE
  5
A22
330
9F0
100
AcDbEntity
  8
SK2
 62
     0
370
    -2
100
AcDbLine
 10
-82.2718046224662
 20
-44.94998903838178
 30
0.0
 11
-101.3534970912864
 21
-44.94998903838178
 31
0.0
  0
LINE
  5
A23
330
9F0
100
AcDbEntity
  8
SK2
 62
     0
370
    -2
100
AcDbLine
 10
-99.35349709128644
 20
-24.51998903838176
 30
0.0
 11
-99.35349709128644
 21
-40.37998903838177
 31
0.0
  0
SOLID
  5
A24
330
9F0
100
AcDbEntity
  8
SK2
 62
     0
100
AcDbTrace
 10
-100.1151637579529
 20
-24.51998903838176
 30
0.0
 11
-98.59183042461978
 21
-24.51998903838176
 31
0.0
 12
-99.35349709128644
 22
-19.94998903838176
 32
0.0
 13
-99.35349709128644
 23
-19.94998903838176
 33
0.0
  0
SOLID
  5
A25
330
9F0
100
AcDbEntity
  8
SK2
 62
     0
100
AcDbTrace
 10
-100.1151637579529
 20
-40.37998903838177
 30
0.0
 11
-98.59183042461978
 21
-40.37998903838177
 31
0.0
 12
-99.35349709128644
 22
-44.94998903838178
 32
0.0
 13
-99.35349709128644
 23
-44.94998903838178
 33
0.0
  0
MTEXT
  5
A26
330
9F0
100
AcDbEntity
  8
SK2
 62
     7
100
AcDbMText
 10
-103.1384970912864
 20
-32.44998903838178
 30
0.0
 40
4.57
 41
0.0
 71
     5
 72
     1
  1
\A1;MBM%%c25
  7
GENPRESET
 11
0.0000000000000001
 21
1.0
 31
0.0
 73
     1
 44
1.0
  0
POINT
  5
A27
330
9F0
100
AcDbEntity
  8
Defpoints
 62
     0
100
AcDbPoint
 10
-82.2718046224662
 20
-19.94998903838176
 30
0.0
  0
POINT
  5
A28
330
9F0
100
AcDbEntity
  8
Defpoints
 62
     0
100
AcDbPoint
 10
-82.2718046224662
 20
-44.94998903838178
 30
0.0
  0
POINT
  5
A29
330
9F0
100
AcDbEntity
  8
Defpoints
 62
     0
100
AcDbPoint
 10
-99.35349709128644
 20
-44.94998903838178
 30
0.0
  0
ENDBLK
  5
9FB
330
9F0
100
AcDbEntity
  8
0
100
AcDbBlockEnd
  0
BLOCK
  5
A31
330
A2A
100
AcDbEntity
  8
0
100
AcDbBlockBegin
  2
*D16
 70
     1
 10
0.0
 20
0.0
 30
0.0
  3
*D16
  1

  0
SOLID
  5
A2B
330
A2A
100
AcDbEntity
  8
VERMASSUNG
100
AcDbTrace
 10
110.6236652977
 20
141.7779015398999
 30
0.0
 11
113.6236652977
 21
141.3279015399
 31
0.0
 12
113.6236652977
 22
142.2279015398999
 32
0.0
 13
113.6236652977
 23
142.2279015398999
 33
0.0
  0
SOLID
  5
A2C
330
A2A
100
AcDbEntity
  8
VERMASSUNG
100
AcDbTrace
 10
158.7736652977
 20
141.7779015398999
 30
0.0
 11
155.7736652976999
 21
142.2279015398999
 31
0.0
 12
155.7736652976999
 22
141.3279015399
 32
0.0
 13
155.7736652976999
 23
141.3279015399
 33
0.0
  0
LINE
  5
A2D
330
A2A
100
AcDbEntity
  8
VERMASSUNG
100
AcDbLine
 10
110.6236652977
 20
136.2513347022999
 30
0.0
 11
110.6236652977
 21
142.7779015398999
 31
0.0
  0
LINE
  5
A2E
330
A2A
100
AcDbEntity
  8
VERMASSUNG
100
AcDbLine
 10
158.7736652977
 20
136.2513347022999
 30
0.0
 11
158.7736652977
 21
142.7779015398999
 31
0.0
  0
LINE
  5
A2F
330
A2A
100
AcDbEntity
  8
VERMASSUNG
100
AcDbLine
 10
110.6236652977
 20
141.7779015398999
 30
0.0
 11
158.7736652977
 21
141.7779015398999
 31
0.0
  0
MTEXT
  5
A30
330
A2A
100
AcDbEntity
  8
VERMASSUNG
100
AcDbMText
 10
131.6988128336999
 20
144.3779016563
 30
0.0
 40
2.0
 41
0.0
 71
     1
 72
     1
  1
{48.15}
  7
SLDTEXTSTYLE0
 73
     1
 44
1.0
  0
ENDBLK
  5
A32
330
A2A
100
AcDbEntity
  8
0
100
AcDbBlockEnd
  0
BLOCK
  5
A3A
330
A33
100
AcDbEntity
  8
0
100
AcDbBlockBegin
  2
*D17
 70
     1
 10
0.0
 20
0.0
 30
0.0
  3
*D17
  1

  0
SOLID
  5
A34
330
A33
100
AcDbEntity
  8
VERMASSUNG
100
AcDbTrace
 10
110.6236652977
 20
147.7779015399
 30
0.0
 11
113.6236652977
 21
147.3279015399
 31
0.0
 12
113.6236652977
 22
148.2279015398999
 32
0.0
 13
113.6236652977
 23
148.2279015398999
 33
0.0
  0
SOLID
  5
A35
330
A33
100
AcDbEntity
  8
VERMASSUNG
100
AcDbTrace
 10
171.6236652977
 20
147.7779015399
 30
0.0
 11
168.6236652977
 21
148.2279015398999
 31
0.0
 12
168.6236652977
 22
147.3279015399
 32
0.0
 13
168.6236652977
 23
147.3279015399
 33
0.0
  0
LINE
  5
A36
330
A33
100
AcDbEntity
  8
VERMASSUNG
100
AcDbLine
 10
110.6236652977
 20
136.2513347022999
 30
0.0
 11
110.6236652977
 21
148.7779015399
 31
0.0
  0
LINE
  5
A37
330
A33
100
AcDbEntity
  8
VERMASSUNG
100
AcDbLine
 10
171.6236652977
 20
129.3679364378
 30
0.0
 11
171.6236652977
 21
148.7779015399
 31
0.0
  0
LINE
  5
A38
330
A33
100
AcDbEntity
  8
VERMASSUNG
100
AcDbLine
 10
110.6236652977
 20
147.7779015399
 30
0.0
 11
171.6236652977
 21
147.7779015399
 31
0.0
  0
MTEXT
  5
A39
330
A33
100
AcDbEntity
  8
VERMASSUNG
100
AcDbMText
 10
139.9246573922
 20
150.3779016563
 30
0.0
 40
2.0
 41
0.0
 71
     1
 72
     1
  1
{61}
  7
SLDTEXTSTYLE0
 73
     1
 44
1.0
  0
ENDBLK
  5
A3B
330
A33
100
AcDbEntity
  8
0
100
AcDbBlockEnd
  0
BLOCK
  5
A45
330
A3C
100
AcDbEntity
  8
0
100
AcDbBlockBegin
  2
*D18
 70
     1
 10
0.0
 20
0.0
 30
0.0
  3
*D18
  1

  0
SOLID
  5
A3D
330
A3C
100
AcDbEntity
  8
VERMASSUNG
100
AcDbTrace
 10
88.4973261676
 20
136.5513347022998
 30
0.0
 11
88.0473261676
 21
133.5513347022998
 31
0.0
 12
88.9473261676
 22
133.5513347022998
 32
0.0
 13
88.9473261676
 23
133.5513347022998
 33
0.0
  0
SOLID
  5
A3E
330
A3C
100
AcDbEntity
  8
VERMASSUNG
100
AcDbTrace
 10
88.4973261676
 20
104.5513347023
 30
0.0
 11
88.9473261676
 21
107.5513347023
 31
0.0
 12
88.0473261676
 22
107.5513347023
 32
0.0
 13
88.0473261676
 23
107.5513347023
 33
0.0
  0
LINE
  5
A3F
330
A3C
100
AcDbEntity
  8
VERMASSUNG
100
AcDbLine
 10
110.9236652976999
 20
136.5513347022998
 30
0.0
 11
87.49732616760002
 21
136.5513347022998
 31
0.0
  0
LINE
  5
A40
330
A3C
100
AcDbEntity
  8
VERMASSUNG
100
AcDbLine
 10
110.9236652976999
 20
104.5513347023
 30
0.0
 11
87.49732616760002
 21
104.5513347023
 31
0.0
  0
LINE
  5
A41
330
A3C
100
AcDbEntity
  8
VERMASSUNG
100
AcDbLine
 10
88.4973261676
 20
136.5513347022998
 30
0.0
 11
88.4973261676
 21
104.5513347023
 31
0.0
  0
MTEXT
  5
A42
330
A3C
100
AcDbEntity
  8
VERMASSUNG
100
AcDbMText
 10
85.69732639100001
 20
114.1472950719
 30
0.0
 40
2.0
 41
0.0
 71
     1
 72
     1
  1
{MBM }
  7
SLDTEXTSTYLE0
 11
-0.000000000000007
 21
1.0
 31
0.0
 73
     1
 44
1.0
  0
MTEXT
  5
A43
330
A3C
100
AcDbEntity
  8
VERMASSUNG
100
AcDbMText
 10
85.8973263422
 20
120.5472949102
 30
0.0
 40
2.0
 41
0.0
 71
     1
 72
     1
  1
{%%c}
  7
SLDTEXTSTYLE0
 11
-0.000000000000007
 21
1.0
 31
0.0
 73
     1
 44
1.0
  0
MTEXT
  5
A44
330
A3C
100
AcDbEntity
  8
VERMASSUNG
100
AcDbMText
 10
85.8973260512
 20
124.1561340862
 30
0.0
 40
2.0
 41
0.0
 71
     1
 72
     1
  1
{32}
  7
SLDTEXTSTYLE0
 11
-0.000000000000007
 21
1.0
 31
0.0
 73
     1
 44
1.0
  0
ENDBLK
  5
A46
330
A3C
100
AcDbEntity
  8
0
100
AcDbBlockEnd
  0
BLOCK
  5
E0F
330
E05
100
AcDbEntity
  8
0
100
AcDbBlockBegin
  2
*D19
 70
     1
 10
0.0
 20
0.0
 30
0.0
  3
*D19
  1

  0
LINE
  5
EE3
330
E05
100
AcDbEntity
  8
SK2
 62
     0
370
    -2
100
AcDbLine
 10
-103.0000672613285
 20
-37.45747363963453
 30
0.0
 11
-127.4264063914285
 21
-37.45747363963452
 31
0.0
  0
LINE
  5
EE4
330
E05
100
AcDbEntity
  8
SK2
 62
     0
370
    -2
100
AcDbLine
 10
-103.0000672613285
 20
-69.45747363963453
 30
0.0
 11
-127.4264063914285
 21
-69.45747363963453
 31
0.0
  0
LINE
  5
EE5
330
E05
100
AcDbEntity
  8
SK2
 62
     0
370
    -2
100
AcDbLine
 10
-125.4264063914285
 20
-42.02747363963452
 30
0.0
 11
-125.4264063914285
 21
-64.88747363963452
 31
0.0
  0
SOLID
  5
EE6
330
E05
100
AcDbEntity
  8
SK2
 62
     0
100
AcDbTrace
 10
-126.1880730580952
 20
-42.02747363963452
 30
0.0
 11
-124.6647397247619
 21
-42.02747363963452
 31
0.0
 12
-125.4264063914285
 22
-37.45747363963452
 32
0.0
 13
-125.4264063914285
 23
-37.45747363963452
 33
0.0
  0
SOLID
  5
EE7
330
E05
100
AcDbEntity
  8
SK2
 62
     0
100
AcDbTrace
 10
-126.1880730580952
 20
-64.88747363963452
 30
0.0
 11
-124.6647397247619
 21
-64.88747363963452
 31
0.0
 12
-125.4264063914285
 22
-69.45747363963453
 32
0.0
 13
-125.4264063914285
 23
-69.45747363963453
 33
0.0
  0
MTEXT
  5
EE8
330
E05
100
AcDbEntity
  8
SK2
 62
     7
100
AcDbMText
 10
-129.2114063914286
 20
-53.45747363963454
 30
0.0
 40
4.57
 41
0.0
 71
     5
 72
     1
  1
\A1;MBM %%c32
  7
GENPRESET
 11
0.0000000000000001
 21
1.0
 31
0.0
 73
     1
 44
1.0
  0
POINT
  5
EE9
330
E05
100
AcDbEntity
  8
Defpoints
 62
     0
100
AcDbPoint
 10
-103.0000672613285
 20
-37.45747363963453
 30
0.0
  0
POINT
  5
EEA
330
E05
100
AcDbEntity
  8
Defpoints
 62
     0
100
AcDbPoint
 10
-103.0000672613285
 20
-69.45747363963453
 30
0.0
  0
POINT
  5
EEB
330
E05
100
AcDbEntity
  8
Defpoints
 62
     0
100
AcDbPoint
 10
-125.4264063914285
 20
-69.45747363963453
 30
0.0
  0
ENDBLK
  5
E10
330
E05
100
AcDbEntity
  8
0
100
AcDbBlockEnd
  0
BLOCK
  5
E1B
330
E11
100
AcDbEntity
  8
0
100
AcDbBlockBegin
  2
*D20
 70
     1
 10
0.0
 20
0.0
 30
0.0
  3
*D20
  1

  0
LINE
  5
EDA
330
E11
100
AcDbEntity
  8
2
 62
     0
370
    -2
100
AcDbLine
 10
-103.3000672613286
 20
-37.75747363963451
 30
0.0
 11
-103.3000672613286
 21
-24.23090680203451
 31
0.0
  0
LINE
  5
EDB
330
E11
100
AcDbEntity
  8
2
 62
     0
370
    -2
100
AcDbLine
 10
-42.30006726132861
 20
-44.6408719041345
 30
0.0
 11
-42.30006726132861
 21
-24.23090680203451
 31
0.0
  0
LINE
  5
EDC
330
E11
100
AcDbEntity
  8
2
 62
     0
370
    -2
100
AcDbLine
 10
-98.73006726132864
 20
-26.23090680203451
 30
0.0
 11
-46.87006726132862
 21
-26.23090680203451
 31
0.0
  0
SOLID
  5
EDD
330
E11
100
AcDbEntity
  8
2
 62
     0
100
AcDbTrace
 10
-98.73006726132864
 20
-25.46924013536784
 30
0.0
 11
-98.73006726132864
 21
-26.99257346870117
 31
0.0
 12
-103.3000672613286
 22
-26.23090680203451
 32
0.0
 13
-103.3000672613286
 23
-26.23090680203451
 33
0.0
  0
SOLID
  5
EDE
330
E11
100
AcDbEntity
  8
2
 62
     0
100
AcDbTrace
 10
-46.87006726132862
 20
-25.46924013536784
 30
0.0
 11
-46.87006726132862
 21
-26.99257346870117
 31
0.0
 12
-42.30006726132861
 22
-26.23090680203451
 32
0.0
 13
-42.30006726132861
 23
-26.23090680203451
 33
0.0
  0
MTEXT
  5
EDF
330
E11
100
AcDbEntity
  8
2
 62
     7
100
AcDbMText
 10
-72.80006726132862
 20
-22.4459068020345
 30
0.0
 40
4.57
 41
0.0
 71
     5
 72
     1
  1
\A1;61
  7
GENPRESET
 73
     1
 44
1.0
  0
POINT
  5
EE0
330
E11
100
AcDbEntity
  8
Defpoints
 62
     0
100
AcDbPoint
 10
-103.3000672613286
 20
-37.75747363963451
 30
0.0
  0
POINT
  5
EE1
330
E11
100
AcDbEntity
  8
Defpoints
 62
     0
100
AcDbPoint
 10
-42.30006726132861
 20
-44.6408719041345
 30
0.0
  0
POINT
  5
EE2
330
E11
100
AcDbEntity
  8
Defpoints
 62
     0
100
AcDbPoint
 10
-42.30006726132861
 20
-26.23090680203451
 30
0.0
  0
ENDBLK
  5
E1C
330
E11
100
AcDbEntity
  8
0
100
AcDbBlockEnd
  0
BLOCK
  5
E27
330
E1D
100
AcDbEntity
  8
0
100
AcDbBlockBegin
  2
*D21
 70
     1
 10
0.0
 20
0.0
 30
0.0
  3
*D21
  1

  0
LINE
  5
E3B
330
E1D
100
AcDbEntity
  8
VERMASSUNG
 62
     0
370
    -2
100
AcDbLine
 10
0.0
 20
15.7
 30
0.0
 11
0.0000000000000004
 21
22.2265668376
 31
0.0
  0
LINE
  5
E3C
330
E1D
100
AcDbEntity
  8
VERMASSUNG
 62
     0
370
    -2
100
AcDbLine
 10
48.15000000000001
 20
15.7
 30
0.0
 11
48.15000000000001
 21
22.2265668376
 31
0.0
  0
LINE
  5
E3D
330
E1D
100
AcDbEntity
  8
VERMASSUNG
 62
     0
370
    -2
100
AcDbLine
 10
3.0
 20
21.2265668376
 30
0.0
 11
45.14999999999999
 21
21.2265668376
 31
0.0
  0
SOLID
  5
E3E
330
E1D
100
AcDbEntity
  8
VERMASSUNG
 62
     0
100
AcDbTrace
 10
3.0
 20
21.7265668376
 30
0.0
 11
3.0
 21
20.7265668376
 31
0.0
 12
0.0000000000000003
 22
21.2265668376
 32
0.0
 13
0.0000000000000003
 23
21.2265668376
 33
0.0
  0
SOLID
  5
E3F
330
E1D
100
AcDbEntity
  8
VERMASSUNG
 62
     0
100
AcDbTrace
 10
45.14999999999999
 20
21.7265668376
 30
0.0
 11
45.14999999999999
 21
20.7265668376
 31
0.0
 12
48.15000000000001
 22
21.2265668376
 32
0.0
 13
48.15000000000001
 23
21.2265668376
 33
0.0
  0
MTEXT
  5
E40
330
E1D
100
AcDbEntity
  8
VERMASSUNG
 62
     0
100
AcDbMText
 10
21.27500000000001
 20
24.7505668376
 30
0.0
 40
2.0
 41
0.0
 71
     1
 72
     1
  1
\A1;48.15
  7
SLDTEXTSTYLE0
 73
     1
 44
1.0
  0
POINT
  5
E41
330
E1D
100
AcDbEntity
  8
Defpoints
 62
     0
100
AcDbPoint
 10
0.0
 20
15.7
 30
0.0
  0
POINT
  5
E42
330
E1D
100
AcDbEntity
  8
Defpoints
 62
     0
100
AcDbPoint
 10
48.15000000000001
 20
15.7
 30
0.0
  0
POINT
  5
E43
330
E1D
100
AcDbEntity
  8
Defpoints
 62
     0
100
AcDbPoint
 10
48.15000000000001
 20
21.2265668376
 30
0.0
  0
ENDBLK
  5
E28
330
E1D
100
AcDbEntity
  8
0
100
AcDbBlockEnd
  0
BLOCK
  5
E92
330
E57
100
AcDbEntity
  8
0
100
AcDbBlockBegin
  2
A$C2CBA1DD3
 70
     0
 10
0.0
 20
0.0
 30
0.0
  3
A$C2CBA1DD3
  1

  0
LINE
  5
E58
330
E57
100
AcDbEntity
  8
1
100
AcDbLine
 10
0.0
 20
-15.7
 30
0.0
 11
0.0
 21
15.7
 31
0.0
  0
LINE
  5
E59
330
E57
100
AcDbEntity
  8
SK1
100
AcDbLine
 10
-4.562004200450018
 20
9.0
 30
0.0
 11
-15.0
 21
9.0
 31
0.0
  0
LINE
  5
E5A
330
E57
100
AcDbEntity
  8
SK1
100
AcDbLine
 10
-15.0
 20
-9.0
 30
0.0
 11
-4.562004200450018
 21
-9.0
 31
0.0
  0
LINE
  5
E5B
330
E57
100
AcDbEntity
  8
SK4
100
AcDbLine
 10
0.0
 20
0.0
 30
0.0
 11
-18.0
 21
0.0
 31
0.0
  0
LINE
  5
E5C
330
E57
100
AcDbEntity
  8
SK3
100
AcDbLine
 10
0.0
 20
4.25
 30
0.0
 11
-14.7489234805
 21
4.249999999999999
 31
0.0
  0
LINE
  5
E5D
330
E57
100
AcDbEntity
  8
SK3
100
AcDbLine
 10
-14.7489234805
 20
-4.249999999999999
 30
0.0
 11
0.0
 21
-4.25
 31
0.0
  0
LINE
  5
E5E
330
E57
100
AcDbEntity
  8
SK3
100
AcDbLine
 10
-15.499999281
 20
-5.499999970199993
 30
0.0
 11
-15.499999281
 21
5.499999970200008
 31
0.0
  0
LINE
  5
E5F
330
E57
100
AcDbEntity
  8
SK3
100
AcDbLine
 10
-14.7489234805
 20
-4.250000231000001
 30
0.0
 11
-14.7489234805
 21
4.250000230899997
 31
0.0
  0
LINE
  5
E60
330
E57
100
AcDbEntity
  8
SK1
100
AcDbLine
 10
-15.0
 20
-9.0
 30
0.0
 11
-15.0
 21
9.0
 31
0.0
  0
LINE
  5
E61
330
E57
100
AcDbEntity
  8
SK1
100
AcDbLine
 10
-18.0
 20
-8.299999999999997
 30
0.0
 11
-18.0
 21
8.299999999999997
 31
0.0
  0
ARC
  5
E62
330
E57
100
AcDbEntity
  8
SK1
100
AcDbCircle
 10
-17.4
 20
-8.299999999999997
 30
0.0
 40
0.6000000000000015
100
AcDbArc
 50
180.0
 51
280.0
  0
LINE
  5
E63
330
E57
100
AcDbEntity
  8
SK1
100
AcDbLine
 10
-16.55916554539999
 20
-8.78087357279999
 30
0.0
 11
-15.0
 21
-9.0
 31
0.0
  0
ARC
  5
E64
330
E57
100
AcDbEntity
  8
SK1
100
AcDbCircle
 10
-16.6148347858
 20
-9.176980800299999
 30
0.0
 40
0.4000000000000077
100
AcDbArc
 50
81.99999999999922
 51
100.0
  0
LINE
  5
E65
330
E57
100
AcDbEntity
  8
SK1
100
AcDbLine
 10
-17.29581109339999
 20
-8.890884651799991
 30
0.0
 11
-16.68429405684999
 21
-8.783057699099996
 31
0.0
  0
ARC
  5
E66
330
E57
100
AcDbEntity
  8
SK3
100
AcDbCircle
 10
-17.49999922509999
 20
-6.0
 30
0.0
 40
0.5
100
AcDbArc
 50
90.0
 51
180.0
  0
LINE
  5
E67
330
E57
100
AcDbEntity
  8
SK3
100
AcDbLine
 10
-15.499999281
 20
-5.499999970199993
 30
0.0
 11
-14.7489234805
 21
-4.250000231000001
 31
0.0
  0
LINE
  5
E68
330
E57
100
AcDbEntity
  8
SK3
100
AcDbLine
 10
-17.49999920140001
 20
-5.499999970199993
 30
0.0
 11
-15.499999281
 21
-5.499999970199993
 31
0.0
  0
ARC
  5
E69
330
E57
100
AcDbEntity
  8
SK3
100
AcDbCircle
 10
-17.49999922509999
 20
6.0
 30
0.0
 40
0.5
100
AcDbArc
 50
180.0
 51
270.0
  0
LINE
  5
E6A
330
E57
100
AcDbEntity
  8
SK3
100
AcDbLine
 10
-14.7489234805
 20
4.250000230899997
 30
0.0
 11
-15.499999281
 21
5.499999970200008
 31
0.0
  0
LINE
  5
E6B
330
E57
100
AcDbEntity
  8
SK3
100
AcDbLine
 10
-15.499999281
 20
5.499999970200008
 30
0.0
 11
-17.49999920140001
 21
5.499999970200008
 31
0.0
  0
ARC
  5
E6C
330
E57
100
AcDbEntity
  8
SK1
100
AcDbCircle
 10
-17.4
 20
8.299999999999997
 30
0.0
 40
0.6000000000000015
100
AcDbArc
 50
79.9999999999998
 51
180.0
  0
LINE
  5
E6D
330
E57
100
AcDbEntity
  8
SK1
100
AcDbLine
 10
-15.0
 20
9.0
 30
0.0
 11
-16.55916554539999
 21
8.780873572849996
 31
0.0
  0
ARC
  5
E6E
330
E57
100
AcDbEntity
  8
SK1
100
AcDbCircle
 10
-16.6148347858
 20
9.176980800299999
 30
0.0
 40
0.4000000000000006
100
AcDbArc
 50
259.9999999999998
 51
278.0000000000006
  0
LINE
  5
E6F
330
E57
100
AcDbEntity
  8
SK1
100
AcDbLine
 10
-16.68429405684999
 20
8.783057699099996
 30
0.0
 11
-17.29581109339999
 21
8.890884651799991
 31
0.0
  0
ARC
  5
E70
330
E57
100
AcDbEntity
  8
1
100
AcDbCircle
 10
0.3000000000000114
 20
-15.7
 30
0.0
 40
0.2999999999999971
100
AcDbArc
 50
180.0
 51
270.0
  0
LINE
  5
E71
330
E57
100
AcDbEntity
  8
SK1
100
AcDbLine
 10
-0.1500000000000057
 20
6.714596780950002
 30
0.0
 11
-0.1500000000000057
 21
-6.714596780900007
 31
0.0
  0
LINE
  5
E72
330
E57
100
AcDbEntity
  8
3
100
AcDbLine
 10
0.3499999999999943
 20
-12.22500000000001
 30
0.0
 11
0.3499999999999943
 21
12.22500000000001
 31
0.0
  0
LINE
  5
E73
330
E57
100
AcDbEntity
  8
SK1
100
AcDbLine
 10
-2.949999999999988
 20
-11.975
 30
0.0
 11
-2.949999999999988
 21
11.975
 31
0.0
  0
LINE
  5
E74
330
E57
100
AcDbEntity
  8
SK1
100
AcDbLine
 10
-4.562004200450018
 20
-9.0
 30
0.0
 11
-4.562004200450018
 21
9.0
 31
0.0
  0
CIRCLE
  5
E75
330
E57
100
AcDbEntity
  8
SK1
100
AcDbCircle
 10
-8.950000000000002
 20
0.0
 30
0.0
 40
3.307218168049181
  0
CIRCLE
  5
E76
330
E57
100
AcDbEntity
  8
SK1
100
AcDbCircle
 10
-8.950000000000002
 20
0.0
 30
0.0
 40
2.500000000000003
  0
LWPOLYLINE
  5
E77
330
E57
100
AcDbEntity
  8
SK1
100
AcDbPolyline
 90
       20
 70
   128
 43
0.0
 10
-13.2
 20
0.0
 10
-13.1755844341
 20
0.3749430856000089
 10
-13.08054395474999
 20
0.8249312207999961
 10
-12.91384237159999
 20
1.264671190599994
 10
-12.67796373634999
 20
1.684631310600011
 10
-12.37978947869998
 20
2.073550630799998
 10
-11.7598388307
 20
2.638591057799982
 10
-11.13164869655
 20
3.022225890600012
 10
-10.4256478912
 20
3.306322071249993
 10
-9.69475909274999
 20
3.473681080950001
 10
-8.923505322099998
 20
3.529113110099998
 10
-8.155040296999999
 20
3.465881182499998
 10
-7.387340049149996
 20
3.278302629750001
 10
-6.684701534099986
 20
2.979187721850009
 10
-6.027815841499997
 20
2.552974276149996
 10
-5.580071497549994
 20
2.139848852149992
 10
-5.195983908899988
 20
1.644610373100004
 10
-4.957368162500016
 20
1.201361883350001
 10
-4.788214019549997
 20
0.7101462658499999
 10
-4.699999999999987
 20
0.0
  0
LWPOLYLINE
  5
E78
330
E57
100
AcDbEntity
  8
SK1
100
AcDbPolyline
 90
       21
 70
   128
 43
0.0
 10
-4.699999999999987
 20
0.0
 10
-4.717618049399987
 20
-0.3186218444499929
 10
-4.804289006949995
 20
-0.7714448498000053
 10
-4.963626371749995
 20
-1.215442090999985
 10
-5.190851402750013
 20
-1.6365786459
 10
-5.480609358399988
 20
-2.02786012365
 10
-5.872300312050012
 20
-2.4237432428
 10
-6.325020524600006
 20
-2.767063635699996
 10
-6.910850281400001
 20
-3.090608005849996
 10
-7.555529133749987
 20
-3.330832078
 10
-8.29616863915001
 20
-3.486478686449998
 10
-9.075681355850006
 20
-3.527613471399988
 10
-9.842230362899995
 20
-3.449265866900006
 10
-10.60515687379999
 20
-3.246485432850008
 10
-11.30103776210001
 20
-2.932734283300007
 10
-11.94817793599999
 20
-2.491472318350004
 10
-12.37882248194999
 20
-2.074647504249995
 10
-12.74528025014999
 20
-1.578573348599985
 10
-12.97131453119997
 20
-1.134309863649987
 10
-13.12754886565
 20
-0.644149273300002
 10
-13.2
 20
0.0
  0
ARC
  5
E79
330
E57
100
AcDbEntity
  8
SK1
100
AcDbCircle
 10
-0.2515999391499974
 20
-7.078003247300002
 30
0.0
 40
0.3773417648124474
100
AcDbArc
 50
74.38025216030019
 51
131.8938604266996
  0
ARC
  5
E7A
330
E57
100
AcDbEntity
  8
SK1
100
AcDbCircle
 10
-0.25
 20
-12.22500000000001
 30
0.0
 40
0.600000000000004
100
AcDbArc
 50
65.37568164780068
 51
114.9999999999996
  0
LINE
  5
E7B
330
E57
100
AcDbEntity
  8
SK1
100
AcDbLine
 10
-1.133594219799987
 20
-7.290447517099987
 30
0.0
 11
-0.5035709570499876
 21
-6.797116413149992
 31
0.0
  0
LINE
  5
E7C
330
E57
100
AcDbEntity
  8
SK1
100
AcDbLine
 10
-1.133594219799987
 20
-7.290447517099987
 30
0.0
 11
-2.949999999999988
 21
-7.290447517099987
 31
0.0
  0
ARC
  5
E7D
330
E57
100
AcDbEntity
  8
SK1
100
AcDbCircle
 10
-3.550000000000011
 20
-9.350000000000008
 30
0.0
 40
0.5999999999999967
100
AcDbArc
 50
0.0
 51
104.9999999999994
  0
LINE
  5
E7E
330
E57
100
AcDbEntity
  8
SK1
100
AcDbLine
 10
-2.949999999999988
 20
-11.975
 30
0.0
 11
-1.133594219799987
 21
-11.975
 31
0.0
  0
LINE
  5
E7F
330
E57
100
AcDbEntity
  8
SK1
100
AcDbLine
 10
-1.133594219799987
 20
-11.975
 30
0.0
 11
-0.5035709570499876
 21
-11.68121532774999
 31
0.0
  0
LINE
  5
E80
330
E57
100
AcDbEntity
  8
SK1
100
AcDbLine
 10
-1.133594219799987
 20
-11.975
 30
0.0
 11
-1.133594219799987
 21
-7.290447517099987
 31
0.0
  0
LINE
  5
E81
330
E57
100
AcDbEntity
  8
SK1
100
AcDbLine
 10
-4.562004200450018
 20
-9.0
 30
0.0
 11
-3.705291427049985
 21
-8.7704445042
 31
0.0
  0
LINE
  5
E82
330
E57
100
AcDbEntity
  8
3
100
AcDbLine
 10
0.0
 20
-13.10859421975
 30
0.0
 11
0.2937846721999904
 21
-12.47857095704999
 31
0.0
  0
ARC
  5
E83
330
E57
100
AcDbEntity
  8
3
100
AcDbCircle
 10
-0.25
 20
-12.22500000000001
 30
0.0
 40
0.5999999999999945
100
AcDbArc
 50
335.0
 51
0.0
  0
ARC
  5
E84
330
E57
100
AcDbEntity
  8
3
100
AcDbCircle
 10
-0.25
 20
-12.22500000000001
 30
0.0
 40
0.6000000000000038
100
AcDbArc
 50
0.0
 51
65.37568164780068
  0
LINE
  5
E85
330
E57
100
AcDbEntity
  8
SK1
100
AcDbLine
 10
-0.5035709570499876
 20
6.797116413149992
 30
0.0
 11
-1.133594219799987
 21
7.290447517149995
 31
0.0
  0
ARC
  5
E86
330
E57
100
AcDbEntity
  8
SK1
100
AcDbCircle
 10
-0.2491162109499783
 20
7.088645250249996
 30
0.0
 40
0.386957724655205
100
AcDbArc
 50
228.8846097785
 51
284.8412776345993
  0
ARC
  5
E87
330
E57
100
AcDbEntity
  8
SK1
100
AcDbCircle
 10
-0.25
 20
12.22500000000001
 30
0.0
 40
0.600000000000004
100
AcDbArc
 50
245.0000000000003
 51
294.6243183521993
  0
LINE
  5
E88
330
E57
100
AcDbEntity
  8
SK1
100
AcDbLine
 10
-0.5035709570499876
 20
11.68121532779998
 30
0.0
 11
-1.133594219799987
 21
11.975
 31
0.0
  0
LINE
  5
E89
330
E57
100
AcDbEntity
  8
SK1
100
AcDbLine
 10
-1.133594219799987
 20
11.975
 30
0.0
 11
-2.949999999999988
 21
11.975
 31
0.0
  0
LINE
  5
E8A
330
E57
100
AcDbEntity
  8
SK1
100
AcDbLine
 10
-1.133594219799987
 20
7.290447517149995
 30
0.0
 11
-2.949999999999988
 21
7.290447517149995
 31
0.0
  0
LINE
  5
E8B
330
E57
100
AcDbEntity
  8
SK1
100
AcDbLine
 10
-1.133594219799987
 20
7.290447517149995
 30
0.0
 11
-1.133594219799987
 21
11.975
 31
0.0
  0
ARC
  5
E8C
330
E57
100
AcDbEntity
  8
SK1
100
AcDbCircle
 10
-3.550000000000011
 20
9.350000000000008
 30
0.0
 40
0.5999999999999967
100
AcDbArc
 50
255.0000000000004
 51
0.0
  0
LINE
  5
E8D
330
E57
100
AcDbEntity
  8
SK1
100
AcDbLine
 10
-3.705291427049985
 20
8.770444504249994
 30
0.0
 11
-4.562004200450018
 21
9.0
 31
0.0
  0
LINE
  5
E8E
330
E57
100
AcDbEntity
  8
3
100
AcDbLine
 10
0.2937846721999904
 20
12.47857095704999
 30
0.0
 11
0.0
 21
13.10859421979999
 31
0.0
  0
ARC
  5
E8F
330
E57
100
AcDbEntity
  8
3
100
AcDbCircle
 10
-0.25
 20
12.22500000000001
 30
0.0
 40
0.599999999999988
100
AcDbArc
 50
345.6249999999998
 51
25.00000000000003
  0
ARC
  5
E90
330
E57
100
AcDbEntity
  8
3
100
AcDbCircle
 10
-0.25
 20
12.22500000000001
 30
0.0
 40
0.5999999999999904
100
AcDbArc
 50
294.6243183521993
 51
345.6249999999998
  0
ARC
  5
E91
330
E57
100
AcDbEntity
  8
1
100
AcDbCircle
 10
0.3000000000000114
 20
15.7
 30
0.0
 40
0.2999999999999971
100
AcDbArc
 50
90.0
 51
180.0
  0
ENDBLK
  5
E93
330
E57
100
AcDbEntity
  8
0
100
AcDbBlockEnd
  0
BLOCK
  5
EF5
330
EEC
100
AcDbEntity
  8
0
100
AcDbBlockBegin
  2
*D23
 70
     1
 10
0.0
 20
0.0
 30
0.0
  3
*D23
  1

  0
SOLID
  5
EED
330
EEC
100
AcDbEntity
  8
VERMASSUNG
100
AcDbTrace
 10
83.66461131260001
 20
126.8837240480998
 30
0.0
 11
83.21461131259999
 21
123.8837240480998
 31
0.0
 12
84.11461131260002
 22
123.8837240480998
 32
0.0
 13
84.11461131260002
 23
123.8837240480998
 33
0.0
  0
SOLID
  5
EEE
330
EEC
100
AcDbEntity
  8
VERMASSUNG
100
AcDbTrace
 10
83.66461131260001
 20
84.8837240481
 30
0.0
 11
84.11461131260002
 21
87.88372404809997
 31
0.0
 12
83.21461131259999
 22
87.88372404809997
 32
0.0
 13
83.21461131259999
 23
87.88372404809997
 33
0.0
  0
LINE
  5
EEF
330
EEC
100
AcDbEntity
  8
VERMASSUNG
100
AcDbLine
 10
115.7821680909
 20
126.8837240480998
 30
0.0
 11
82.66461131259999
 21
126.8837240480998
 31
0.0
  0
LINE
  5
EF0
330
EEC
100
AcDbEntity
  8
VERMASSUNG
100
AcDbLine
 10
115.7821680909
 20
84.8837240481
 30
0.0
 11
82.66461131259999
 21
84.8837240481
 31
0.0
  0
LINE
  5
EF1
330
EEC
100
AcDbEntity
  8
VERMASSUNG
100
AcDbLine
 10
83.66461131260001
 20
126.8837240480998
 30
0.0
 11
83.66461131260001
 21
84.8837240481
 31
0.0
  0
MTEXT
  5
EF2
330
EEC
100
AcDbEntity
  8
VERMASSUNG
100
AcDbMText
 10
80.86461153589999
 20
99.38015587569999
 30
0.0
 40
2.0
 41
0.0
 71
     1
 72
     1
  1
{MBM }
  7
SLDTEXTSTYLE0
 11
-0.000000000000007
 21
1.0
 31
0.0
 73
     1
 44
1.0
  0
MTEXT
  5
EF3
330
EEC
100
AcDbEntity
  8
VERMASSUNG
100
AcDbMText
 10
81.06461148719999
 20
105.780155714
 30
0.0
 40
2.0
 41
0.0
 71
     1
 72
     1
  1
{%%c}
  7
SLDTEXTSTYLE0
 11
-0.000000000000007
 21
1.0
 31
0.0
 73
     1
 44
1.0
  0
MTEXT
  5
EF4
330
EEC
100
AcDbEntity
  8
VERMASSUNG
100
AcDbMText
 10
81.0646111962
 20
109.38899489
 30
0.0
 40
2.0
 41
0.0
 71
     1
 72
     1
  1
{42}
  7
SLDTEXTSTYLE0
 11
-0.000000000000007
 21
1.0
 31
0.0
 73
     1
 44
1.0
  0
ENDBLK
  5
EF6
330
EEC
100
AcDbEntity
  8
0
100
AcDbBlockEnd
  0
BLOCK
  5
EFE
330
EF7
100
AcDbEntity
  8
0
100
AcDbBlockBegin
  2
*D24
 70
     1
 10
0.0
 20
0.0
 30
0.0
  3
*D24
  1

  0
SOLID
  5
EF8
330
EF7
100
AcDbEntity
  8
VERMASSUNG
100
AcDbTrace
 10
115.4821680909
 20
135.5019520854
 30
0.0
 11
118.4821680908999
 21
135.0519520854
 31
0.0
 12
118.4821680908999
 22
135.9519520854
 32
0.0
 13
118.4821680908999
 23
135.9519520854
 33
0.0
  0
SOLID
  5
EF9
330
EF7
100
AcDbEntity
  8
VERMASSUNG
100
AcDbTrace
 10
185.0821680909
 20
135.5019520854
 30
0.0
 11
182.0821680909
 21
135.9519520854
 31
0.0
 12
182.0821680909
 22
135.0519520854
 32
0.0
 13
182.0821680909
 23
135.0519520854
 33
0.0
  0
LINE
  5
EFA
330
EF7
100
AcDbEntity
  8
VERMASSUNG
100
AcDbLine
 10
115.4821680909
 20
126.5837240480998
 30
0.0
 11
115.4821680909
 21
136.5019520854
 31
0.0
  0
LINE
  5
EFB
330
EF7
100
AcDbEntity
  8
VERMASSUNG
100
AcDbLine
 10
185.0821680909
 20
125.0837240480999
 30
0.0
 11
185.0821680909
 21
136.5019520854
 31
0.0
  0
LINE
  5
EFC
330
EF7
100
AcDbEntity
  8
VERMASSUNG
100
AcDbLine
 10
115.4821680909
 20
135.5019520854
 30
0.0
 11
185.0821680909
 21
135.5019520854
 31
0.0
  0
MTEXT
  5
EFD
330
EF7
100
AcDbEntity
  8
VERMASSUNG
100
AcDbMText
 10
147.8825971463998
 20
138.1019522018
 30
0.0
 40
2.0
 41
0.0
 71
     1
 72
     1
  1
{69.6}
  7
SLDTEXTSTYLE0
 73
     1
 44
1.0
  0
ENDBLK
  5
EFF
330
EF7
100
AcDbEntity
  8
0
100
AcDbBlockEnd
  0
BLOCK
  5
F07
330
F00
100
AcDbEntity
  8
0
100
AcDbBlockBegin
  2
*D25
 70
     1
 10
0.0
 20
0.0
 30
0.0
  3
*D25
  1

  0
SOLID
  5
F01
330
F00
100
AcDbEntity
  8
VERMASSUNG
100
AcDbTrace
 10
115.4821680909
 20
141.5019520854
 30
0.0
 11
118.4821680908999
 21
141.0519520854
 31
0.0
 12
118.4821680908999
 22
141.9519520853999
 32
0.0
 13
118.4821680908999
 23
141.9519520853999
 33
0.0
  0
SOLID
  5
F02
330
F00
100
AcDbEntity
  8
VERMASSUNG
100
AcDbTrace
 10
201.4821680908999
 20
141.5019520854
 30
0.0
 11
198.4821680909
 21
141.9519520853999
 31
0.0
 12
198.4821680909
 22
141.0519520854
 32
0.0
 13
198.4821680909
 23
141.0519520854
 33
0.0
  0
LINE
  5
F03
330
F00
100
AcDbEntity
  8
VERMASSUNG
100
AcDbLine
 10
115.4821680909
 20
126.5837240480998
 30
0.0
 11
115.4821680909
 21
142.5019520854
 31
0.0
  0
LINE
  5
F04
330
F00
100
AcDbEntity
  8
VERMASSUNG
100
AcDbLine
 10
201.4821680908999
 20
117.2294762176
 30
0.0
 11
201.4821680908999
 21
142.5019520854
 31
0.0
  0
LINE
  5
F05
330
F00
100
AcDbEntity
  8
VERMASSUNG
100
AcDbLine
 10
115.4821680909
 20
141.5019520854
 30
0.0
 11
201.4821680908999
 21
141.5019520854
 31
0.0
  0
MTEXT
  5
F06
330
F00
100
AcDbEntity
  8
VERMASSUNG
100
AcDbMText
 10
157.0825479677
 20
144.1019522018
 30
0.0
 40
2.0
 41
0.0
 71
     1
 72
     1
  1
{86}
  7
SLDTEXTSTYLE0
 73
     1
 44
1.0
  0
ENDBLK
  5
F08
330
F00
100
AcDbEntity
  8
0
100
AcDbBlockEnd
  0
BLOCK
  5
137F
330
1375
100
AcDbEntity
  8
0
100
AcDbBlockBegin
  2
*D26
 70
     1
 10
0.0
 20
0.0
 30
0.0
  3
*D26
  1

  0
LINE
  5
1450
330
1375
100
AcDbEntity
  8
2
 62
     0
370
    -2
100
AcDbLine
 10
-167.3907312159566
 20
-38.64091954295402
 30
0.0
 11
-167.3907312159566
 21
-21.72269150565401
 31
0.0
  0
LINE
  5
1451
330
1375
100
AcDbEntity
  8
2
 62
     0
370
    -2
100
AcDbLine
 10
-81.39073121595664
 20
-47.99516737345402
 30
0.0
 11
-81.39073121595664
 21
-21.72269150565401
 31
0.0
  0
LINE
  5
1452
330
1375
100
AcDbEntity
  8
2
 62
     0
370
    -2
100
AcDbLine
 10
-162.8207312159566
 20
-23.72269150565402
 30
0.0
 11
-85.96073121595665
 21
-23.72269150565402
 31
0.0
  0
SOLID
  5
1453
330
1375
100
AcDbEntity
  8
2
 62
     0
100
AcDbTrace
 10
-162.8207312159566
 20
-22.96102483898735
 30
0.0
 11
-162.8207312159566
 21
-24.48435817232068
 31
0.0
 12
-167.3907312159566
 22
-23.72269150565402
 32
0.0
 13
-167.3907312159566
 23
-23.72269150565402
 33
0.0
  0
SOLID
  5
1454
330
1375
100
AcDbEntity
  8
2
 62
     0
100
AcDbTrace
 10
-85.96073121595665
 20
-22.96102483898735
 30
0.0
 11
-85.96073121595665
 21
-24.48435817232068
 31
0.0
 12
-81.39073121595664
 22
-23.72269150565402
 32
0.0
 13
-81.39073121595664
 23
-23.72269150565402
 33
0.0
  0
MTEXT
  5
1455
330
1375
100
AcDbEntity
  8
2
 62
     7
100
AcDbMText
 10
-124.3907312159566
 20
-19.93769150565402
 30
0.0
 40
4.57
 41
0.0
 71
     5
 72
     1
  1
\A1;86
  7
GENPRESET
 73
     1
 44
1.0
  0
POINT
  5
1456
330
1375
100
AcDbEntity
  8
Defpoints
 62
     0
100
AcDbPoint
 10
-167.3907312159566
 20
-38.64091954295402
 30
0.0
  0
POINT
  5
1457
330
1375
100
AcDbEntity
  8
Defpoints
 62
     0
100
AcDbPoint
 10
-81.39073121595664
 20
-47.99516737345402
 30
0.0
  0
POINT
  5
1458
330
1375
100
AcDbEntity
  8
Defpoints
 62
     0
100
AcDbPoint
 10
-81.39073121595664
 20
-23.72269150565402
 30
0.0
  0
ENDBLK
  5
1380
330
1375
100
AcDbEntity
  8
0
100
AcDbBlockEnd
  0
BLOCK
  5
138B
330
1381
100
AcDbEntity
  8
0
100
AcDbBlockBegin
  2
*D27
 70
     1
 10
0.0
 20
0.0
 30
0.0
  3
*D27
  1

  0
LINE
  5
13A2
330
1381
100
AcDbEntity
  8
VERMASSUNG
 62
     0
370
    -2
100
AcDbLine
 10
0.0
 20
20.69999999999999
 30
0.0
 11
0.0000000000000006
 21
30.61822803730001
 31
0.0
  0
LINE
  5
13A3
330
1381
100
AcDbEntity
  8
VERMASSUNG
 62
     0
370
    -2
100
AcDbLine
 10
69.59999999999999
 20
19.19999999999999
 30
0.0
 11
69.59999999999999
 21
30.61822803730001
 31
0.0
  0
LINE
  5
13A4
330
1381
100
AcDbEntity
  8
VERMASSUNG
 62
     0
370
    -2
100
AcDbLine
 10
3.0
 20
29.61822803730001
 30
0.0
 11
66.60000000000001
 21
29.61822803730001
 31
0.0
  0
SOLID
  5
13A5
330
1381
100
AcDbEntity
  8
VERMASSUNG
 62
     0
100
AcDbTrace
 10
3.0
 20
30.11822803730001
 30
0.0
 11
3.0
 21
29.11822803730001
 31
0.0
 12
0.0000000000000005
 22
29.61822803730001
 32
0.0
 13
0.0000000000000005
 23
29.61822803730001
 33
0.0
  0
SOLID
  5
13A6
330
1381
100
AcDbEntity
  8
VERMASSUNG
 62
     0
100
AcDbTrace
 10
66.60000000000001
 20
30.11822803730001
 30
0.0
 11
66.60000000000001
 21
29.11822803730001
 31
0.0
 12
69.59999999999999
 22
29.61822803730001
 32
0.0
 13
69.59999999999999
 23
29.61822803730001
 33
0.0
  0
MTEXT
  5
13A7
330
1381
100
AcDbEntity
  8
VERMASSUNG
 62
     0
100
AcDbMText
 10
31.89999999999999
 20
33.1422280373
 30
0.0
 40
2.0
 41
0.0
 71
     1
 72
     1
  1
\A1;69.60
  7
SLDTEXTSTYLE0
 73
     1
 44
1.0
  0
POINT
  5
13A8
330
1381
100
AcDbEntity
  8
Defpoints
 62
     0
100
AcDbPoint
 10
0.0
 20
20.69999999999999
 30
0.0
  0
POINT
  5
13A9
330
1381
100
AcDbEntity
  8
Defpoints
 62
     0
100
AcDbPoint
 10
69.59999999999999
 20
19.19999999999999
 30
0.0
  0
POINT
  5
13AA
330
1381
100
AcDbEntity
  8
Defpoints
 62
     0
100
AcDbPoint
 10
69.59999999999999
 20
29.61822803730001
 30
0.0
  0
ENDBLK
  5
138C
330
1381
100
AcDbEntity
  8
0
100
AcDbBlockEnd
  0
BLOCK
  5
1397
330
138D
100
AcDbEntity
  8
0
100
AcDbBlockBegin
  2
*D28
 70
     1
 10
0.0
 20
0.0
 30
0.0
  3
*D28
  1

  0
LINE
  5
1459
330
138D
100
AcDbEntity
  8
SK2
 62
     0
370
    -2
100
AcDbLine
 10
-167.0907312159566
 20
-38.34091954295402
 30
0.0
 11
-197.9402724638778
 21
-38.34091954295402
 31
0.0
  0
LINE
  5
145A
330
138D
100
AcDbEntity
  8
SK2
 62
     0
370
    -2
100
AcDbLine
 10
-167.0907312159566
 20
-80.34091954295401
 30
0.0
 11
-197.9402724638779
 21
-80.34091954295401
 31
0.0
  0
LINE
  5
145B
330
138D
100
AcDbEntity
  8
SK2
 62
     0
370
    -2
100
AcDbLine
 10
-195.9402724638778
 20
-42.91091954295402
 30
0.0
 11
-195.9402724638779
 21
-75.77091954295402
 31
0.0
  0
SOLID
  5
145C
330
138D
100
AcDbEntity
  8
SK2
 62
     0
100
AcDbTrace
 10
-196.7019391305445
 20
-42.91091954295402
 30
0.0
 11
-195.1786057972112
 21
-42.91091954295402
 31
0.0
 12
-195.9402724638778
 22
-38.34091954295402
 32
0.0
 13
-195.9402724638778
 23
-38.34091954295402
 33
0.0
  0
SOLID
  5
145D
330
138D
100
AcDbEntity
  8
SK2
 62
     0
100
AcDbTrace
 10
-196.7019391305445
 20
-75.77091954295402
 30
0.0
 11
-195.1786057972112
 21
-75.77091954295402
 31
0.0
 12
-195.9402724638779
 22
-80.34091954295401
 32
0.0
 13
-195.9402724638779
 23
-80.34091954295401
 33
0.0
  0
MTEXT
  5
145E
330
138D
100
AcDbEntity
  8
SK2
 62
     7
100
AcDbMText
 10
-199.7252724638778
 20
-59.34091954295403
 30
0.0
 40
4.57
 41
0.0
 71
     5
 72
     1
  1
\A1;MBM %%c42
  7
GENPRESET
 11
0.0000000000000001
 21
1.0
 31
0.0
 73
     1
 44
1.0
  0
POINT
  5
145F
330
138D
100
AcDbEntity
  8
Defpoints
 62
     0
100
AcDbPoint
 10
-167.0907312159566
 20
-38.34091954295402
 30
0.0
  0
POINT
  5
1460
330
138D
100
AcDbEntity
  8
Defpoints
 62
     0
100
AcDbPoint
 10
-167.0907312159566
 20
-80.34091954295401
 30
0.0
  0
POINT
  5
1461
330
138D
100
AcDbEntity
  8
Defpoints
 62
     0
100
AcDbPoint
 10
-195.9402724638779
 20
-80.34091954295401
 30
0.0
  0
ENDBLK
  5
1398
330
138D
100
AcDbEntity
  8
0
100
AcDbBlockEnd
  0
BLOCK
  5
146C
330
1462
100
AcDbEntity
  8
0
100
AcDbBlockBegin
  2
*D29
 70
     1
 10
0.0
 20
0.0
 30
0.0
  3
*D29
  1

  0
LINE
  5
1463
330
1462
100
AcDbEntity
  8
VERMASSUNG
 62
     0
370
    -2
100
AcDbLine
 10
150.5206262833999
 20
143.1771868582999
 30
0.0
 11
97.58868166720006
 21
143.1771868582999
 31
0.0
  0
LINE
  5
1464
330
1462
100
AcDbEntity
  8
VERMASSUNG
 62
     0
370
    -2
100
AcDbLine
 10
150.5206262833999
 20
71.1771868583
 30
0.0
 11
97.58868166720004
 21
71.1771868583
 31
0.0
  0
LINE
  5
1465
330
1462
100
AcDbEntity
  8
VERMASSUNG
 62
     0
370
    -2
100
AcDbLine
 10
98.58868166720005
 20
140.1771868582999
 30
0.0
 11
98.58868166720004
 21
74.1771868583
 31
0.0
  0
SOLID
  5
1466
330
1462
100
AcDbEntity
  8
VERMASSUNG
 62
     0
100
AcDbTrace
 10
98.08868166720005
 20
140.1771868582999
 30
0.0
 11
99.08868166720004
 21
140.1771868582999
 31
0.0
 12
98.58868166720005
 22
143.1771868582999
 32
0.0
 13
98.58868166720005
 23
143.1771868582999
 33
0.0
  0
SOLID
  5
1467
330
1462
100
AcDbEntity
  8
VERMASSUNG
 62
     0
100
AcDbTrace
 10
98.08868166720003
 20
74.1771868583
 30
0.0
 11
99.08868166720004
 21
74.1771868583
 31
0.0
 12
98.58868166720004
 22
71.1771868583
 32
0.0
 13
98.58868166720004
 23
71.1771868583
 33
0.0
  0
MTEXT
  5
1468
330
1462
100
AcDbEntity
  8
VERMASSUNG
 62
     0
100
AcDbMText
 10
81.66468166720001
 20
108.1779444340575
 30
0.0
 40
2.0
 41
0.0
 71
     1
 72
     1
  1
\A1;MBM %%c144.00
  7
SLDTEXTSTYLE0
 73
     1
 44
1.0
  0
POINT
  5
1469
330
1462
100
AcDbEntity
  8
Defpoints
 62
     0
100
AcDbPoint
 10
150.5206262833999
 20
143.1771868582999
 30
0.0
  0
POINT
  5
146A
330
1462
100
AcDbEntity
  8
Defpoints
 62
     0
100
AcDbPoint
 10
150.5206262833999
 20
71.1771868583
 30
0.0
  0
POINT
  5
146B
330
1462
100
AcDbEntity
  8
Defpoints
 62
     0
100
AcDbPoint
 10
98.58868166720004
 20
71.1771868583
 30
0.0
  0
ENDBLK
  5
146D
330
1462
100
AcDbEntity
  8
0
100
AcDbBlockEnd
  0
BLOCK
  5
1478
330
146E
100
AcDbEntity
  8
0
100
AcDbBlockBegin
  2
*D30
 70
     1
 10
0.0
 20
0.0
 30
0.0
  3
*D30
  1

  0
LINE
  5
146F
330
146E
100
AcDbEntity
  8
VERMASSUNG
 62
     0
370
    -2
100
AcDbLine
 10
150.0206262833999
 20
142.6771868582999
 30
0.0
 11
150.0206262833999
 21
167.5209269141
 31
0.0
  0
LINE
  5
1470
330
146E
100
AcDbEntity
  8
VERMASSUNG
 62
     0
370
    -2
100
AcDbLine
 10
246.0206262833999
 20
130.3229390276999
 30
0.0
 11
246.0206262833999
 21
167.5209269141
 31
0.0
  0
LINE
  5
1471
330
146E
100
AcDbEntity
  8
VERMASSUNG
 62
     0
370
    -2
100
AcDbLine
 10
153.0206262833999
 20
166.5209269141
 30
0.0
 11
243.0206262833999
 21
166.5209269141
 31
0.0
  0
SOLID
  5
1472
330
146E
100
AcDbEntity
  8
VERMASSUNG
 62
     0
100
AcDbTrace
 10
153.0206262833999
 20
167.0209269141
 30
0.0
 11
153.0206262833999
 21
166.0209269141
 31
0.0
 12
150.0206262833999
 22
166.5209269141
 32
0.0
 13
150.0206262833999
 23
166.5209269141
 33
0.0
  0
SOLID
  5
1473
330
146E
100
AcDbEntity
  8
VERMASSUNG
 62
     0
100
AcDbTrace
 10
243.0206262833999
 20
167.0209269141
 30
0.0
 11
243.0206262833999
 21
166.0209269141
 31
0.0
 12
246.0206262833999
 22
166.5209269141
 32
0.0
 13
246.0206262833999
 23
166.5209269141
 33
0.0
  0
MTEXT
  5
1474
330
146E
100
AcDbEntity
  8
VERMASSUNG
 62
     0
100
AcDbMText
 10
194.6206262833999
 20
170.0449269141
 30
0.0
 40
2.0
 41
0.0
 71
     1
 72
     1
  1
\A1;192.00
  7
SLDTEXTSTYLE0
 73
     1
 44
1.0
  0
POINT
  5
1475
330
146E
100
AcDbEntity
  8
Defpoints
 62
     0
100
AcDbPoint
 10
150.0206262833999
 20
142.6771868582999
 30
0.0
  0
POINT
  5
1476
330
146E
100
AcDbEntity
  8
Defpoints
 62
     0
100
AcDbPoint
 10
246.0206262833999
 20
130.3229390276999
 30
0.0
  0
POINT
  5
1477
330
146E
100
AcDbEntity
  8
Defpoints
 62
     0
100
AcDbPoint
 10
246.0206262833999
 20
166.5209269141
 30
0.0
  0
ENDBLK
  5
1479
330
146E
100
AcDbEntity
  8
0
100
AcDbBlockEnd
  0
BLOCK
  5
1484
330
147A
100
AcDbEntity
  8
0
100
AcDbBlockBegin
  2
*D31
 70
     1
 10
0.0
 20
0.0
 30
0.0
  3
*D31
  1

  0
LINE
  5
147B
330
147A
100
AcDbEntity
  8
VERMASSUNG
 62
     0
370
    -2
100
AcDbLine
 10
150.0206262833999
 20
142.6771868582999
 30
0.0
 11
150.0206262833999
 21
155.5209269141
 31
0.0
  0
LINE
  5
147C
330
147A
100
AcDbEntity
  8
VERMASSUNG
 62
     0
370
    -2
100
AcDbLine
 10
223.5206262833999
 20
113.8491868583
 30
0.0
 11
223.5206262833999
 21
155.5209269141
 31
0.0
  0
LINE
  5
147D
330
147A
100
AcDbEntity
  8
VERMASSUNG
 62
     0
370
    -2
100
AcDbLine
 10
153.0206262833999
 20
154.5209269141
 30
0.0
 11
220.5206262833999
 21
154.5209269141
 31
0.0
  0
SOLID
  5
147E
330
147A
100
AcDbEntity
  8
VERMASSUNG
 62
     0
100
AcDbTrace
 10
153.0206262833999
 20
155.0209269141
 30
0.0
 11
153.0206262833999
 21
154.0209269141
 31
0.0
 12
150.0206262833999
 22
154.5209269141
 32
0.0
 13
150.0206262833999
 23
154.5209269141
 33
0.0
  0
SOLID
  5
147F
330
147A
100
AcDbEntity
  8
VERMASSUNG
 62
     0
100
AcDbTrace
 10
220.5206262833999
 20
155.0209269141
 30
0.0
 11
220.5206262833999
 21
154.0209269141
 31
0.0
 12
223.5206262833999
 22
154.5209269141
 32
0.0
 13
223.5206262833999
 23
154.5209269141
 33
0.0
  0
MTEXT
  5
1480
330
147A
100
AcDbEntity
  8
VERMASSUNG
 62
     0
100
AcDbMText
 10
183.2706262833999
 20
158.0449269141
 30
0.0
 40
2.0
 41
0.0
 71
     1
 72
     1
  1
\A1;147.00
  7
SLDTEXTSTYLE0
 73
     1
 44
1.0
  0
POINT
  5
1481
330
147A
100
AcDbEntity
  8
Defpoints
 62
     0
100
AcDbPoint
 10
150.0206262833999
 20
142.6771868582999
 30
0.0
  0
POINT
  5
1482
330
147A
100
AcDbEntity
  8
Defpoints
 62
     0
100
AcDbPoint
 10
223.5206262833999
 20
113.8491868583
 30
0.0
  0
POINT
  5
1483
330
147A
100
AcDbEntity
  8
Defpoints
 62
     0
100
AcDbPoint
 10
223.5206262833999
 20
154.5209269141
 30
0.0
  0
ENDBLK
  5
1485
330
147A
100
AcDbEntity
  8
0
100
AcDbBlockEnd
  0
BLOCK
  5
18E2
330
18D8
100
AcDbEntity
  8
0
100
AcDbBlockBegin
  2
*D33
 70
     1
 10
0.0
 20
0.0
 30
0.0
  3
*D33
  1

  0
LINE
  5
19C4
330
18D8
100
AcDbEntity
  8
2
 62
     0
370
    -2
100
AcDbLine
 10
-217.6112810775615
 20
-60.46523990641147
 30
0.0
 11
-217.6112810775615
 21
-44.75947341461528
 31
0.0
  0
LINE
  5
19C5
330
18D8
100
AcDbEntity
  8
2
 62
     0
370
    -2
100
AcDbLine
 10
-121.6112810775615
 20
-72.81948773701147
 30
0.0
 11
-121.6112810775615
 21
-44.75947341461528
 31
0.0
  0
LINE
  5
19C6
330
18D8
100
AcDbEntity
  8
2
 62
     0
370
    -2
100
AcDbLine
 10
-213.0412810775616
 20
-46.75947341461529
 30
0.0
 11
-126.1812810775615
 21
-46.75947341461529
 31
0.0
  0
SOLID
  5
19C7
330
18D8
100
AcDbEntity
  8
2
 62
     0
100
AcDbTrace
 10
-213.0412810775616
 20
-45.99780674794861
 30
0.0
 11
-213.0412810775616
 21
-47.52114008128195
 31
0.0
 12
-217.6112810775615
 22
-46.75947341461529
 32
0.0
 13
-217.6112810775615
 23
-46.75947341461529
 33
0.0
  0
SOLID
  5
19C8
330
18D8
100
AcDbEntity
  8
2
 62
     0
100
AcDbTrace
 10
-126.1812810775615
 20
-45.99780674794861
 30
0.0
 11
-126.1812810775615
 21
-47.52114008128195
 31
0.0
 12
-121.6112810775615
 22
-46.75947341461529
 32
0.0
 13
-121.6112810775615
 23
-46.75947341461529
 33
0.0
  0
MTEXT
  5
19C9
330
18D8
100
AcDbEntity
  8
2
 62
     7
100
AcDbMText
 10
-173.2019953632758
 20
-40.68947341461528
 30
0.0
 40
4.57
 41
0.0
 71
     1
 72
     1
  1
\A1;96
  7
GENPRESET
 73
     1
 44
1.0
  0
POINT
  5
19CA
330
18D8
100
AcDbEntity
  8
Defpoints
 62
     0
100
AcDbPoint
 10
-217.6112810775615
 20
-60.46523990641147
 30
0.0
  0
POINT
  5
19CB
330
18D8
100
AcDbEntity
  8
Defpoints
 62
     0
100
AcDbPoint
 10
-121.6112810775615
 20
-72.81948773701147
 30
0.0
  0
POINT
  5
19CC
330
18D8
100
AcDbEntity
  8
Defpoints
 62
     0
100
AcDbPoint
 10
-121.6112810775615
 20
-46.75947341461529
 30
0.0
  0
ENDBLK
  5
18E3
330
18D8
100
AcDbEntity
  8
0
100
AcDbBlockEnd
  0
BLOCK
  5
18EE
330
18E4
100
AcDbEntity
  8
0
100
AcDbBlockBegin
  2
*D34
 70
     1
 10
0.0
 20
0.0
 30
0.0
  3
*D34
  1

  0
LINE
  5
1905
330
18E4
100
AcDbEntity
  8
VERMASSUNG
 62
     0
370
    -2
100
AcDbLine
 10
0.0
 20
35.49999999999998
 30
0.0
 11
0.0000000000000008
 21
48.34374005580001
 31
0.0
  0
LINE
  5
1906
330
18E4
100
AcDbEntity
  8
VERMASSUNG
 62
     0
370
    -2
100
AcDbLine
 10
73.5
 20
6.671999999999997
 30
0.0
 11
73.5
 21
48.34374005580001
 31
0.0
  0
LINE
  5
1907
330
18E4
100
AcDbEntity
  8
VERMASSUNG
 62
     0
370
    -2
100
AcDbLine
 10
3.0
 20
47.34374005580001
 30
0.0
 11
70.5
 21
47.34374005580001
 31
0.0
  0
SOLID
  5
1908
330
18E4
100
AcDbEntity
  8
VERMASSUNG
 62
     0
100
AcDbTrace
 10
3.0
 20
47.84374005580001
 30
0.0
 11
3.0
 21
46.84374005580001
 31
0.0
 12
0.0000000000000007
 22
47.34374005580001
 32
0.0
 13
0.0000000000000007
 23
47.34374005580001
 33
0.0
  0
SOLID
  5
1909
330
18E4
100
AcDbEntity
  8
VERMASSUNG
 62
     0
100
AcDbTrace
 10
70.5
 20
47.84374005580001
 30
0.0
 11
70.5
 21
46.84374005580001
 31
0.0
 12
73.5
 22
47.34374005580001
 32
0.0
 13
73.5
 23
47.34374005580001
 33
0.0
  0
MTEXT
  5
190A
330
18E4
100
AcDbEntity
  8
VERMASSUNG
 62
     0
100
AcDbMText
 10
33.25
 20
50.86774005580001
 30
0.0
 40
2.0
 41
0.0
 71
     1
 72
     1
  1
\A1;147.00
  7
SLDTEXTSTYLE0
 73
     1
 44
1.0
  0
POINT
  5
190B
330
18E4
100
AcDbEntity
  8
Defpoints
 62
     0
100
AcDbPoint
 10
0.0
 20
35.49999999999998
 30
0.0
  0
POINT
  5
190C
330
18E4
100
AcDbEntity
  8
Defpoints
 62
     0
100
AcDbPoint
 10
73.5
 20
6.671999999999997
 30
0.0
  0
POINT
  5
190D
330
18E4
100
AcDbEntity
  8
Defpoints
 62
     0
100
AcDbPoint
 10
73.5
 20
47.34374005580001
 30
0.0
  0
ENDBLK
  5
18EF
330
18E4
100
AcDbEntity
  8
0
100
AcDbBlockEnd
  0
BLOCK
  5
18FA
330
18F0
100
AcDbEntity
  8
0
100
AcDbBlockBegin
  2
*D35
 70
     1
 10
0.0
 20
0.0
 30
0.0
  3
*D35
  1

  0
LINE
  5
19CD
330
18F0
100
AcDbEntity
  8
SK2
 62
     0
370
    -2
100
AcDbLine
 10
-217.1112810775615
 20
-59.96523990641147
 30
0.0
 11
-268.6023676697143
 21
-59.96523990641146
 31
0.0
  0
LINE
  5
19CE
330
18F0
100
AcDbEntity
  8
SK2
 62
     0
370
    -2
100
AcDbLine
 10
-217.1112810775615
 20
-131.9652399064114
 30
0.0
 11
-268.6023676697144
 21
-131.9652399064114
 31
0.0
  0
LINE
  5
19CF
330
18F0
100
AcDbEntity
  8
SK2
 62
     0
370
    -2
100
AcDbLine
 10
-266.6023676697143
 20
-64.53523990641146
 30
0.0
 11
-266.6023676697143
 21
-127.3952399064114
 31
0.0
  0
SOLID
  5
19D0
330
18F0
100
AcDbEntity
  8
SK2
 62
     0
100
AcDbTrace
 10
-267.364034336381
 20
-64.53523990641146
 30
0.0
 11
-265.8407010030476
 21
-64.53523990641146
 31
0.0
 12
-266.6023676697143
 22
-59.96523990641146
 32
0.0
 13
-266.6023676697143
 23
-59.96523990641146
 33
0.0
  0
SOLID
  5
19D1
330
18F0
100
AcDbEntity
  8
SK2
 62
     0
100
AcDbTrace
 10
-267.364034336381
 20
-127.3952399064114
 30
0.0
 11
-265.8407010030476
 21
-127.3952399064114
 31
0.0
 12
-266.6023676697144
 22
-131.9652399064114
 32
0.0
 13
-266.6023676697144
 23
-131.9652399064114
 33
0.0
  0
MTEXT
  5
19D2
330
18F0
100
AcDbEntity
  8
SK2
 62
     7
100
AcDbMText
 10
-272.6723676697143
 20
-111.3073827635543
 30
0.0
 40
4.57
 41
0.0
 71
     1
 72
     1
  1
\A1;MBM %%c72
  7
GENPRESET
 11
0.0000000000000001
 21
1.0
 31
0.0
 73
     1
 44
1.0
  0
POINT
  5
19D3
330
18F0
100
AcDbEntity
  8
Defpoints
 62
     0
100
AcDbPoint
 10
-217.1112810775615
 20
-59.96523990641147
 30
0.0
  0
POINT
  5
19D4
330
18F0
100
AcDbEntity
  8
Defpoints
 62
     0
100
AcDbPoint
 10
-217.1112810775615
 20
-131.9652399064114
 30
0.0
  0
POINT
  5
19D5
330
18F0
100
AcDbEntity
  8
Defpoints
 62
     0
100
AcDbPoint
 10
-266.6023676697144
 20
-131.9652399064114
 30
0.0
  0
ENDBLK
  5
18FB
330
18F0
100
AcDbEntity
  8
0
100
AcDbBlockEnd
  0
BLOCK
  5
19E0
330
19D6
100
AcDbEntity
  8
0
100
AcDbBlockBegin
  2
*D38
 70
     1
 10
0.0
 20
0.0
 30
0.0
  3
*D38
  1

  0
LINE
  5
19D7
330
19D6
100
AcDbEntity
  8
VERMASSUNG
 62
     0
370
    -2
100
AcDbLine
 10
157.9852669404999
 20
162.6626653363
 30
0.0
 11
93.34056468170006
 21
162.6626653363
 31
0.0
  0
LINE
  5
19D8
330
19D6
100
AcDbEntity
  8
VERMASSUNG
 62
     0
370
    -2
100
AcDbLine
 10
157.9852669404999
 20
68.6626653363
 30
0.0
 11
93.34056468170002
 21
68.66266533630001
 31
0.0
  0
LINE
  5
19D9
330
19D6
100
AcDbEntity
  8
VERMASSUNG
 62
     0
370
    -2
100
AcDbLine
 10
94.34056468170004
 20
159.6626653362999
 30
0.0
 11
94.34056468170004
 21
71.6626653363
 31
0.0
  0
SOLID
  5
19DA
330
19D6
100
AcDbEntity
  8
VERMASSUNG
 62
     0
100
AcDbTrace
 10
93.84056468170005
 20
159.6626653362999
 30
0.0
 11
94.84056468170004
 21
159.6626653362999
 31
0.0
 12
94.34056468170005
 22
162.6626653363
 32
0.0
 13
94.34056468170005
 23
162.6626653363
 33
0.0
  0
SOLID
  5
19DB
330
19D6
100
AcDbEntity
  8
VERMASSUNG
 62
     0
100
AcDbTrace
 10
93.84056468170003
 20
71.6626653363
 30
0.0
 11
94.84056468170003
 21
71.6626653363
 31
0.0
 12
94.34056468170004
 22
68.66266533630001
 32
0.0
 13
94.34056468170004
 23
68.66266533630001
 33
0.0
  0
MTEXT
  5
19DC
330
19D6
100
AcDbEntity
  8
VERMASSUNG
 62
     0
100
AcDbMText
 10
77.81656468170002
 20
116.6634229120575
 30
0.0
 40
2.0
 41
0.0
 71
     1
 72
     1
  1
\A1;MBM %%c188.00
  7
SLDTEXTSTYLE0
 73
     1
 44
1.0
  0
POINT
  5
19DD
330
19D6
100
AcDbEntity
  8
Defpoints
 62
     0
100
AcDbPoint
 10
157.9852669404999
 20
162.6626653363
 30
0.0
  0
POINT
  5
19DE
330
19D6
100
AcDbEntity
  8
Defpoints
 62
     0
100
AcDbPoint
 10
157.9852669404999
 20
68.6626653363
 30
0.0
  0
POINT
  5
19DF
330
19D6
100
AcDbEntity
  8
Defpoints
 62
     0
100
AcDbPoint
 10
94.34056468170004
 20
68.66266533630001
 30
0.0
  0
ENDBLK
  5
19E1
330
19D6
100
AcDbEntity
  8
0
100
AcDbBlockEnd
  0
BLOCK
  5
19EC
330
19E2
100
AcDbEntity
  8
0
100
AcDbBlockBegin
  2
*D39
 70
     1
 10
0.0
 20
0.0
 30
0.0
  3
*D39
  1

  0
LINE
  5
19E3
330
19E2
100
AcDbEntity
  8
VERMASSUNG
 62
     0
370
    -2
100
AcDbLine
 10
157.4852669404999
 20
162.1626653362999
 30
0.0
 11
157.4852669404999
 21
195.5609007389
 31
0.0
  0
LINE
  5
19E4
330
19E2
100
AcDbEntity
  8
VERMASSUNG
 62
     0
370
    -2
100
AcDbLine
 10
283.4852669404999
 20
152.8084175059
 30
0.0
 11
283.4852669404999
 21
195.5609007389
 31
0.0
  0
LINE
  5
19E5
330
19E2
100
AcDbEntity
  8
VERMASSUNG
 62
     0
370
    -2
100
AcDbLine
 10
160.4852669405
 20
194.5609007388999
 30
0.0
 11
280.4852669404999
 21
194.5609007388999
 31
0.0
  0
SOLID
  5
19E6
330
19E2
100
AcDbEntity
  8
VERMASSUNG
 62
     0
100
AcDbTrace
 10
160.4852669405
 20
195.0609007388999
 30
0.0
 11
160.4852669405
 21
194.0609007388999
 31
0.0
 12
157.4852669404999
 22
194.5609007388999
 32
0.0
 13
157.4852669404999
 23
194.5609007388999
 33
0.0
  0
SOLID
  5
19E7
330
19E2
100
AcDbEntity
  8
VERMASSUNG
 62
     0
100
AcDbTrace
 10
280.4852669404999
 20
195.0609007388999
 30
0.0
 11
280.4852669404999
 21
194.0609007388999
 31
0.0
 12
283.4852669404999
 22
194.5609007388999
 32
0.0
 13
283.4852669404999
 23
194.5609007388999
 33
0.0
  0
MTEXT
  5
19E8
330
19E2
100
AcDbEntity
  8
VERMASSUNG
 62
     0
100
AcDbMText
 10
216.8852669405
 20
198.0849007388999
 30
0.0
 40
2.0
 41
0.0
 71
     1
 72
     1
  1
\A1;252.00
  7
SLDTEXTSTYLE0
 73
     1
 44
1.0
  0
POINT
  5
19E9
330
19E2
100
AcDbEntity
  8
Defpoints
 62
     0
100
AcDbPoint
 10
157.4852669404999
 20
162.1626653362999
 30
0.0
  0
POINT
  5
19EA
330
19E2
100
AcDbEntity
  8
Defpoints
 62
     0
100
AcDbPoint
 10
283.4852669404999
 20
152.8084175059
 30
0.0
  0
POINT
  5
19EB
330
19E2
100
AcDbEntity
  8
Defpoints
 62
     0
100
AcDbPoint
 10
283.4852669404999
 20
194.5609007388999
 30
0.0
  0
ENDBLK
  5
19ED
330
19E2
100
AcDbEntity
  8
0
100
AcDbBlockEnd
  0
BLOCK
  5
19F8
330
19EE
100
AcDbEntity
  8
0
100
AcDbBlockBegin
  2
*D40
 70
     1
 10
0.0
 20
0.0
 30
0.0
  3
*D40
  1

  0
LINE
  5
19EF
330
19EE
100
AcDbEntity
  8
VERMASSUNG
 62
     0
370
    -2
100
AcDbLine
 10
157.4852669404999
 20
162.1626653362999
 30
0.0
 11
157.4852669404999
 21
183.5609007388999
 31
0.0
  0
LINE
  5
19F0
330
19EE
100
AcDbEntity
  8
VERMASSUNG
 62
     0
370
    -2
100
AcDbLine
 10
260.9852669404999
 20
165.3626653363
 30
0.0
 11
260.9852669404999
 21
183.5609007388999
 31
0.0
  0
LINE
  5
19F1
330
19EE
100
AcDbEntity
  8
VERMASSUNG
 62
     0
370
    -2
100
AcDbLine
 10
160.4852669405
 20
182.5609007388999
 30
0.0
 11
257.9852669404999
 21
182.5609007388999
 31
0.0
  0
SOLID
  5
19F2
330
19EE
100
AcDbEntity
  8
VERMASSUNG
 62
     0
100
AcDbTrace
 10
160.4852669405
 20
183.0609007389
 30
0.0
 11
160.4852669405
 21
182.0609007388999
 31
0.0
 12
157.4852669404999
 22
182.5609007388999
 32
0.0
 13
157.4852669404999
 23
182.5609007388999
 33
0.0
  0
SOLID
  5
19F3
330
19EE
100
AcDbEntity
  8
VERMASSUNG
 62
     0
100
AcDbTrace
 10
257.9852669404999
 20
183.0609007389
 30
0.0
 11
257.9852669404999
 21
182.0609007388999
 31
0.0
 12
260.9852669404999
 22
182.5609007388999
 32
0.0
 13
260.9852669404999
 23
182.5609007388999
 33
0.0
  0
MTEXT
  5
19F4
330
19EE
100
AcDbEntity
  8
VERMASSUNG
 62
     0
100
AcDbMText
 10
205.6352669405
 20
186.0849007388999
 30
0.0
 40
2.0
 41
0.0
 71
     1
 72
     1
  1
\A1;207.00
  7
SLDTEXTSTYLE0
 73
     1
 44
1.0
  0
POINT
  5
19F5
330
19EE
100
AcDbEntity
  8
Defpoints
 62
     0
100
AcDbPoint
 10
157.4852669404999
 20
162.1626653362999
 30
0.0
  0
POINT
  5
19F6
330
19EE
100
AcDbEntity
  8
Defpoints
 62
     0
100
AcDbPoint
 10
260.9852669404999
 20
165.3626653363
 30
0.0
  0
POINT
  5
19F7
330
19EE
100
AcDbEntity
  8
Defpoints
 62
     0
100
AcDbPoint
 10
260.9852669404999
 20
182.5609007388999
 30
0.0
  0
ENDBLK
  5
19F9
330
19EE
100
AcDbEntity
  8
0
100
AcDbBlockEnd
  0
BLOCK
  5
1E54
330
1E4A
100
AcDbEntity
  8
0
100
AcDbBlockBegin
  2
*D42
 70
     1
 10
0.0
 20
0.0
 30
0.0
  3
*D42
  1

  0
LINE
  5
1E9B
330
1E4A
100
AcDbEntity
  8
2
 62
     0
370
    -2
100
AcDbLine
 10
0.0
 20
46.5
 30
0.0
 11
0.0000000000000009
 21
60.8458908911669
 31
0.0
  0
LINE
  5
1E9C
330
1E4A
100
AcDbEntity
  8
2
 62
     0
370
    -2
100
AcDbLine
 10
125.9999999999999
 20
37.14575216960003
 30
0.0
 11
125.9999999999999
 21
60.8458908911669
 31
0.0
  0
LINE
  5
1E9D
330
1E4A
100
AcDbEntity
  8
2
 62
     0
370
    -2
100
AcDbLine
 10
4.570000000000001
 20
58.8458908911669
 30
0.0
 11
121.4299999999999
 21
58.8458908911669
 31
0.0
  0
SOLID
  5
1E9E
330
1E4A
100
AcDbEntity
  8
2
 62
     0
100
AcDbTrace
 10
4.570000000000001
 20
59.60755755783357
 30
0.0
 11
4.570000000000001
 21
58.08422422450023
 31
0.0
 12
0.0000000000000008
 22
58.8458908911669
 32
0.0
 13
0.0000000000000008
 23
58.8458908911669
 33
0.0
  0
SOLID
  5
1E9F
330
1E4A
100
AcDbEntity
  8
2
 62
     0
100
AcDbTrace
 10
121.4299999999999
 20
59.60755755783357
 30
0.0
 11
121.4299999999999
 21
58.08422422450023
 31
0.0
 12
125.9999999999999
 22
58.8458908911669
 32
0.0
 13
125.9999999999999
 23
58.8458908911669
 33
0.0
  0
MTEXT
  5
1EA0
330
1E4A
100
AcDbEntity
  8
2
 62
     7
100
AcDbMText
 10
57.66833333333332
 20
64.91589089116691
 30
0.0
 40
4.57
 41
0.0
 71
     1
 72
     1
  1
\A1;126
  7
GENPRESET
 73
     1
 44
1.0
  0
POINT
  5
1EA1
330
1E4A
100
AcDbEntity
  8
Defpoints
 62
     0
100
AcDbPoint
 10
0.0
 20
46.5
 30
0.0
  0
POINT
  5
1EA2
330
1E4A
100
AcDbEntity
  8
Defpoints
 62
     0
100
AcDbPoint
 10
125.9999999999999
 20
37.14575216960003
 30
0.0
  0
POINT
  5
1EA3
330
1E4A
100
AcDbEntity
  8
Defpoints
 62
     0
100
AcDbPoint
 10
125.9999999999999
 20
58.8458908911669
 30
0.0
  0
ENDBLK
  5
1E55
330
1E4A
100
AcDbEntity
  8
0
100
AcDbBlockEnd
  0
BLOCK
  5
1E60
330
1E56
100
AcDbEntity
  8
0
100
AcDbBlockBegin
  2
*D43
 70
     1
 10
0.0
 20
0.0
 30
0.0
  3
*D43
  1

  0
LINE
  5
1E77
330
1E56
100
AcDbEntity
  8
VERMASSUNG
 62
     0
370
    -2
100
AcDbLine
 10
0.0
 20
46.5
 30
0.0
 11
0.0000000000000013
 21
67.89823540259999
 31
0.0
  0
LINE
  5
1E78
330
1E56
100
AcDbEntity
  8
VERMASSUNG
 62
     0
370
    -2
100
AcDbLine
 10
103.4999999999999
 20
49.69999999999998
 30
0.0
 11
103.4999999999999
 21
67.89823540259999
 31
0.0
  0
LINE
  5
1E79
330
1E56
100
AcDbEntity
  8
VERMASSUNG
 62
     0
370
    -2
100
AcDbLine
 10
3.000000000000001
 20
66.89823540259999
 30
0.0
 11
100.4999999999999
 21
66.89823540259999
 31
0.0
  0
SOLID
  5
1E7A
330
1E56
100
AcDbEntity
  8
VERMASSUNG
 62
     0
100
AcDbTrace
 10
3.000000000000001
 20
67.39823540259999
 30
0.0
 11
3.000000000000001
 21
66.3982354026
 31
0.0
 12
0.0000000000000012
 22
66.89823540259999
 32
0.0
 13
0.0000000000000012
 23
66.89823540259999
 33
0.0
  0
SOLID
  5
1E7B
330
1E56
100
AcDbEntity
  8
VERMASSUNG
 62
     0
100
AcDbTrace
 10
100.4999999999999
 20
67.39823540259999
 30
0.0
 11
100.4999999999999
 21
66.3982354026
 31
0.0
 12
103.4999999999999
 22
66.89823540259999
 32
0.0
 13
103.4999999999999
 23
66.89823540259999
 33
0.0
  0
MTEXT
  5
1E7C
330
1E56
100
AcDbEntity
  8
VERMASSUNG
 62
     0
100
AcDbMText
 10
48.15
 20
70.4222354026
 30
0.0
 40
2.0
 41
0.0
 71
     1
 72
     1
  1
\A1;207.00
  7
SLDTEXTSTYLE0
 73
     1
 44
1.0
  0
POINT
  5
1E7D
330
1E56
100
AcDbEntity
  8
Defpoints
 62
     0
100
AcDbPoint
 10
0.0
 20
46.5
 30
0.0
  0
POINT
  5
1E7E
330
1E56
100
AcDbEntity
  8
Defpoints
 62
     0
100
AcDbPoint
 10
103.4999999999999
 20
49.69999999999998
 30
0.0
  0
POINT
  5
1E7F
330
1E56
100
AcDbEntity
  8
Defpoints
 62
     0
100
AcDbPoint
 10
103.4999999999999
 20
66.89823540259999
 30
0.0
  0
ENDBLK
  5
1E61
330
1E56
100
AcDbEntity
  8
0
100
AcDbBlockEnd
  0
BLOCK
  5
1E6C
330
1E62
100
AcDbEntity
  8
0
100
AcDbBlockBegin
  2
*D44
 70
     1
 10
0.0
 20
0.0
 30
0.0
  3
*D44
  1

  0
LINE
  5
1F26
330
1E62
100
AcDbEntity
  8
SK2
 62
     0
370
    -2
100
AcDbLine
 10
0.5
 20
47.0
 30
0.0
 11
-61.067147425281
 21
47.00000000000001
 31
0.0
  0
LINE
  5
1F27
330
1E62
100
AcDbEntity
  8
SK2
 62
     0
370
    -2
100
AcDbLine
 10
0.5
 20
-47.0
 30
0.0
 11
-61.06714742528101
 21
-46.99999999999998
 31
0.0
  0
LINE
  5
1F28
330
1E62
100
AcDbEntity
  8
SK2
 62
     0
370
    -2
100
AcDbLine
 10
-59.067147425281
 20
42.43000000000002
 30
0.0
 11
-59.06714742528102
 21
-42.42999999999997
 31
0.0
  0
SOLID
  5
1F29
330
1E62
100
AcDbEntity
  8
SK2
 62
     0
100
AcDbTrace
 10
-59.82881409194767
 20
42.43000000000002
 30
0.0
 11
-58.30548075861432
 21
42.43000000000002
 31
0.0
 12
-59.067147425281
 22
47.00000000000001
 32
0.0
 13
-59.067147425281
 23
47.00000000000001
 33
0.0
  0
SOLID
  5
1F2A
330
1E62
100
AcDbEntity
  8
SK2
 62
     0
100
AcDbTrace
 10
-59.82881409194768
 20
-42.42999999999997
 30
0.0
 11
-58.30548075861434
 21
-42.42999999999997
 31
0.0
 12
-59.06714742528102
 22
-46.99999999999998
 32
0.0
 13
-59.06714742528102
 23
-46.99999999999998
 33
0.0
  0
MTEXT
  5
1F2B
330
1E62
100
AcDbEntity
  8
SK2
 62
     7
100
AcDbMText
 10
-65.13714742528101
 20
-15.45095238095238
 30
0.0
 40
4.57
 41
0.0
 71
     1
 72
     1
  1
\A1;MBM %%c94
  7
GENPRESET
 11
0.0000000000000001
 21
1.0
 31
0.0
 73
     1
 44
1.0
  0
POINT
  5
1F2C
330
1E62
100
AcDbEntity
  8
Defpoints
 62
     0
100
AcDbPoint
 10
0.5
 20
47.0
 30
0.0
  0
POINT
  5
1F2D
330
1E62
100
AcDbEntity
  8
Defpoints
 62
     0
100
AcDbPoint
 10
0.5
 20
-47.0
 30
0.0
  0
POINT
  5
1F2E
330
1E62
100
AcDbEntity
  8
Defpoints
 62
     0
100
AcDbPoint
 10
-59.06714742528102
 20
-46.99999999999998
 30
0.0
  0
ENDBLK
  5
1E6D
330
1E62
100
AcDbEntity
  8
0
100
AcDbBlockEnd
  0
ENDSEC
  0
SECTION
  2
ENTITIES
  0
MTEXT
  5
36
330
1F
100
AcDbEntity
  8
5
100
AcDbMText
 10
-59.28362374022666
 20
-76.29084989556014
 30
0.0
 40
4.57
 41
0.0
 71
     1
 72
     1
  1
252.940.100
  7
GENPRESET
 73
     1
 44
1.0
  0
MTEXT
  5
37
330
1F
100
AcDbEntity
  8
5
100
AcDbMText
 10
-59.23984056742665
 20
-68.25171110266015
 30
0.0
 40
4.57
 41
0.0
 71
     1
 72
     1
  1
Feinbohrkopf_Fine boring head
  7
GENPRESET
 73
     1
 44
1.0
  0
REGION
  5
2AB
330
1F
100
AcDbEntity
  8
5
100
AcDbModelerGeometry
 70
     1
  1
koo mi n o          
  1
h J1410(1 nl ^ \VL kqoqm QK mk Y-6 Y:= on ogemnekh moog 
  1
rn fqfffffffffffffffj:rooh n:rono 
  1
=0;& {rn {n {rn {rn |
  1
3*2/ {rn {rn {m {o |
  1
,7:33 {rn {rn {rn {l {rn {n |
  1
9><: {rn {rn {k {m {rn {j 90-(>-; ;0*=3: 0*+ |
  1
300/ {rn {rn {i {l |
  1
/3>1:r,*-9><: {rn rjjqglnjoojimghhili rjfqomfnmgnggofgggn o o o n n o o 90-(>-;@) V V V V |
  1
<0:;8: {rn {h {g {rn {f 90-(>-; {k {rn |
  1
<0:;8: {rn {no {i {rn {nn 90-(>-; {k {rn |
  1
<0:;8: {rn {i {no {rn {nm 90-(>-; {k {rn |
  1
:;8: {rn {nl {nk {i {nj 90-(>-; |
  1
<0:;8: {rn {g {h {rn {ni -:):-,:; {k {rn |
  1
:;8: {rn {nk {nh {h {ng 90-(>-; |
  1
:;8: {rn {nf {nl {g {mo 90-(>-; |
  1
):-+:' {rn {f {mn |
  1
):-+:' {rn {f {mm |
  1
61+<*-):r<*-): {rn 90-(>-; $ :'><+<*- 1*=, l 0/:1 mg 
  1
 o l oqlfigjomnhmmhnoggk n oqhmihgjfojjnjijimj n nqongknlhimogofofh n nqmhjijkomimihfkmn n 
  1
 nqjjhhfooifjkllfmm n nqginnnojigjoifhom n mqjkkgnlhjikjngfjl n mqgnmoofmlhlingolh n lqokfffiohonmmmllj n 
  1
 lqlloonlmhgjlffngk n lqjhjiljhgilhmngkg n lqflkijnjffnhfgkfk n kqklfnimomimokiofi n kqihhohhmgmkfjfon n 
  1
 kqfjglhmkoiilonmjg n jqlmoknigoglljkill n jqijoooimimfnhomng n iqnnmooijfhfmfnkjk n iqillkinjnnhkjhlfi n 
  1
 iqfknhinkfmmgkfnmf n hqmokikooliljffifi n hqkfmhhkhgfkhifngl n hqhnffflnfkkoglkjn n gqmmhonmnijoikjmjg n 
  1
 gqhgfgkommjlomnifh n fqnlnohigkhjkjhkmm n fqlggifigilfmffjgm l 
  1
 rjmqfoghmfhflmoojoh rjhqhnfjmgnmifojigi o 
  1
 rjmqfooljkklonogkhf rjhqkkfognjhlnnjikf o 
  1
 rjmqggjonjfohfjkmjj rjiqfjlhgfjjghjkfhh o 
  1
 rjlqmliimlhonognkfg rjiqljnlgjglnoklmhk o 
  1
 rjlqimjllnmffklinfg rjjqgfhgjnglhjllmih o 
  1
 rjkqnkmnhfmmgffogif rjjqihholnkkonnoigm o 
  1
 rjkqikgfnliinmgjnmn rjjqkmfglllhhiihff o 
  1
 rjjqkfjogoijlgigjh rjjqlnmoiiijlffifog o 
  1
 rjiqllhkmnfklifljgj rjjqmfilkimjlhhogkf o 
  1
 rjhqnniggnmlginimom rjjqkinhhhhnlgmhjl o 
  1
 rjhqjffmkomfkglkfnk rjjqihhjllmjlilgjjg o 
  1
 rjgqookkghhmoggfjgj rjjqfghojhjjogglnjn o 
  1
 rjgqkjgnoolgolgikkn rjiqlhllihniifkflj o 
  1
 rjgqhgkhffkmfmohojj rjhqojghjmfoffnhjl o 
  1
 rjgqgmhlinmjhlkfomj rjhqgljgjloomnjmlim o 
  1
 rjgqjlngjlgfhnlllnh rjgqkjgghkjmkkhmjm o 
  1
 rjgqnimngmijofghfhm rjgqflnkfhigliklohl o 
  1
 rjhqjilhmjgmjjngjol rjfqmngmhijjofjoolh o 
  1
 rjiqgkighjfhighlfng rjfqkggfonofkginggh o 
  1
 rjjqfgnigfmkgmggii rjfqiiiifnmfoohknkn o 
  1
 rjjqnkkfofkgimlfgig rjfqhfmnohflimkoffi o 
  1
 rjkqkmkfionimhmonfh rioqohfhfllhhnjhmni o 
  1
 rjkqnfhmloonkkifnkm rioqijfmogfoolfojmk o 
  1
 rjkqlhnkgmjojmofhnl rinqmmnhmmgonlmgjmj o 
  1
 rjjqolimihlfmliooi rinqkfhhfilmiohgool o 
  1
 rjjqghgilhmhflflgff rinqjhgomlhjknngmm o 
  1
 rjiqfookkmknlfgimkn rinqklonmkniokhmfmg o 
  1
 rjhqljjgifjgnfnogfj rioqhmgoioifjflknng o 
  1
 rjhqlfioghlmnhkighi rioqlmfkofkimhmhogj o 
  1
 rjhqknllggkkggoiikl rioqnjhfnjnooimhgok o 
  1
 o 
  1
 1*33@,*-9><: 
  1
 1*33@,*-9><: 
  1
 1*33=, 
  1
 1*33=, 
  1
 V V 
  1
 o 
  1
 o 
  3
 mi oqlfigjomnhmmhnoggk oqhmihgjfojjnjijimj nqongknlhimogofofh nqmhjijkomimihfkmn nqjjhhfooifjkllfmm nqginnnojigjoifhom mqjkkgnlhjikjngfjl mqgnmoofmlhlingolh lqokfffiohonmmmllj lqlloonlmhgjlffngk lqjhjiljhgilhmngkg lqflkijnjffnhfgkfk kqklfnimomimokiofi kq
  1
ihhohhmgmkfjfon kqfjglhmkoiilonmjg jqlmoknigoglljkill jqijoooimimfnhomng iqnnmooijfhfmfnkjk iqillkinjnnhkjhlfi iqfknhinkfmmgkfnmf hqmokikooliljffifi hqkfmhhkhgfkhifngl hqhnffflnfkkoglkjn gqmmhonmnijoikjmjg gqhgfgkommjlomnifh fqnlnohigkhjkjhkmm 
  1
 Y n Y o " V V |
  1
:;8: {rn {nf {nh {no {ml 90-(>-; |
  1
):-+:' {rn {nn {mk |
  1
,+->687+r<*-): {rn rjhqknllggkkggoiikl rioqnjhfnjnooimhgok o roqffffffnohkimjmnfi roqoonllioiiihkhngjfkh o V V |
  1
):-+:' {rn {ni {mj |
  1
,+->687+r<*-): {rn rjkqkgfgflhnmiffflf rjhqhnhglkgojlnognj o oqffffffkmijjnoghjl roqoonohoflloomjjmgofg o V V |
  1
/061+ {rn rjmqfoghmfhflmoojoh rjhqhnfjmgnmifojigi o |
  1
/061+ {rn rjhqknllggkkggoiikl rioqnjhfnjnooimhgok o |
  1
61+<*-):r<*-): {rn 90-(>-; $ :'><+<*- 1*=, l 0/:1 mk 
  1
 o l oqligokiljfljmjmjj n oqikiffjgmifofigklg n nqoigjglohkoojklhk n nqiohihjljnioiinng n 
  1
 nqfhmmojknmiffgfof n mqnfkhjgmkmhhogjlf n mqioinmmijimmmlmmg n lqnlhnlfiiikkokmkj n lqifnmlfgjmonggmhk n 
  1
 kqokoilfionkiiffnk n kqlffkggihjloikjmk n kqgnjjkihfkomhonmj n jqljoknhiinlnnjjjf n jqgnogkngnofmjifjk n 
  1
 iqmmhnfffmkgnlkoni n iqinkmilhmmmoihgkk n hqkgfigmoofjhoomml n hqgihgfiogmnmng n gqmjlnglnofmnkimnl n 
  1
 gqjjhhkmomokmlmfin n gqhimgololoifolglj n fqnknnhijkkiknoojg n fqmjiilgghlkomkimn l 
  1
 rjkqkgfgflhnmiffflf rjhqhnhglkgojlnognj o 
  1
 rjkqjnjhkomnffilfln rjhqkjfinlinmgnoonh o 
  1
 rjkqjinnhimfjfmmffn rjhqoojignjhkgkngkk o 
  1
 rjjqmnhjggfjjoigon rjiqjgmnnfmohlmgjol o 
  1
 rjiqoogkhmgimkgjnkf rjiqjknllmohhffjiim o 
  1
 rjhqofmnlmikjfmlfgm rjiqjhjmnngnoghhgng o 
  1
 rjhqmnnhohgihllfknl rjhqjmimkhlgiklohmj o 
  1
 rjiqhojgigjhnofgfin rjgqommknignlkkolni o 
  1
 rjjqfomimofjgnhmofl rjgqnogllfmginonlfg o 
  1
 rjkqfkjinmiilgmfij rjgqlknmihgojkgiilg o 
  1
 rjlqffhiljgihhlhkkk rjgqjlgmhlhfhfjofmm o 
  1
 rjlqmjfkkhhjglookfi rjgqfinlffmjkiglmnj o 
  1
 rjmqhkmjjogkjhnhigh rjfqjlgfjjhihiihnkh o 
  1
 rjmqjjionkmkjlgglgl rioqkngohjmgllnoijh o 
  1
 rjmqifmjnlkokmgglm rinqlfjmmkjggnghjhk o 
  1
 rjlqlioknlhmimjijgn rimqnniimigfhjmfhgk o 
  1
 rjkqnoikghlgigklngj rimqjnkhongfnfgfkgf o 
  1
 rjjqnhfgoninnjfjlii rimqghnmhfomlnfhknh o 
  1
 rjiqloojhiknfoinnkk rimqhjgokljmgiiffjg o 
  1
 rjhqlhklklkjmiojnol rimqjimfinnkkflfmof o 
  1
 rjgqomhhoghionloojk rimqmlgngohgghmojh o 
  1
 rjgqkkmfkgfgnmhhlnn rinqgoomoklfjfhnioj o 
  1
 rjgqgmkinhmiiokikol rinqljglffiifgflimf o 
  1
 rjgqfmojnkhiikomnfm rioqhfnnmkmhljgilm o 
  1
 rjgqfhlljinihkghhfl rioqjfkknhfnikjmjmg o 
  1
 rjgqffgjljniolhmfn rioqnioolmfikmnlfk o 
  1
 o 
  1
 1*33@,*-9><: 
  1
 1*33@,*-9><: 
  1
 1*33=, 
  1
 1*33=, 
  1
 V V 
  1
 o 
  1
 o 
  3
 mm oqligokiljfljmjmjj oqikiffjgmifofigklg nqoigjglohkoojklhk nqiohihjljnioiinng nqfhmmojknmiffgfof mqnfkhjgmkmhhogjlf mqioinmmijimmmlmmg lqnlhnlfiiikkokmkj lqifnmlfgjmonggmhk kqokoilfionkiiffnk kqlffkggihjloikjmk kqgnjjkihfkomhonmj jqljoknhiinlnnjjjf jqg
  1
nogkngnofmjifjk iqmmhnfffmkgnlkoni iqinkmilhmmmoihgkk hqkgfigmoofjhoomml hqgihgfiogmnmng gqmjlnglnofmnkimnl gqjjhhkmomokmlmfin gqhimgololoifolglj fqnknnhijkkiknoojg 
  1
 Y n Y o " V V |
  1
/061+ {rn rjgqffgjljniolhmfn rioqnioolmfikmnlfk o |
  1
/061+ {rn rjkqkgfgflhnmiffflf rjhqhnhglkgojlnognj o |
  0
REGION
  5
2AC
330
1F
100
AcDbEntity
  8
5
100
AcDbModelerGeometry
 70
     1
  1
koo mi n o          
  1
h J1410(1 nl ^ \VL kqoqm QK mk Y-6 Y:= on ogemnekh moog 
  1
rn fqfffffffffffffffj:rooh n:rono 
  1
=0;& {rn {n {rn {rn |
  1
3*2/ {rn {rn {m {o |
  1
,7:33 {rn {rn {rn {l {rn {n |
  1
9><: {rn {rn {k {m {rn {j 90-(>-; ;0*=3: 0*+ |
  1
300/ {rn {rn {i {l |
  1
/3>1:r,*-9><: {rn rnfqmmjmnmghigikfgh rjgqgmlgghgjnjmhhmf o o o n n o o 90-(>-;@) V V V V |
  1
<0:;8: {rn {h {g {rn {f -:):-,:; {k {rn |
  1
<0:;8: {rn {no {i {rn {nn -:):-,:; {k {rn |
  1
<0:;8: {rn {i {no {rn {nm -:):-,:; {k {rn |
  1
:;8: {rn {nl {nk {i {nj 90-(>-; |
  1
<0:;8: {rn {g {h {rn {ni -:):-,:; {k {rn |
  1
:;8: {rn {nh {nl {h {ng 90-(>-; |
  1
:;8: {rn {nk {nf {g {mo 90-(>-; |
  1
):-+:' {rn {f {mn |
  1
):-+:' {rn {f {mm |
  1
,+->687+r<*-): {rn rjfqnlonioimllligkf rjmqhflolnlfkfhimjk o n o o V V |
  1
:;8: {rn {nf {nh {no {ml 90-(>-; |
  1
):-+:' {rn {ni {mk |
  1
,+->687+r<*-): {rn rjfqnlonioimllligkf rikqgjkhkklogohfmoj o o n o V V |
  1
):-+:' {rn {nm {mj |
  1
,+->687+r<*-): {rn moqihfhlkgifioighj rjmqhflolnlfkfhimjk o o rn o V V |
  1
/061+ {rn rjfqnlonioimllligkf rjmqhflolnlfkfhimjk o |
  1
/061+ {rn moqihfhlkgifioighj rjmqhflolnlfkfhimjk o |
  1
,+->687+r<*-): {rn moqihfhlkgifioighj rikqgjkhkklogohfmoj o rn o o V V |
  1
/061+ {rn rjfqnlonioimllligkf rikqgjkhkklogohfmoj o |
  1
/061+ {rn moqihfhlkgifioighj rikqgjkhkklogohfmoj o |
  0
REGION
  5
2AD
330
1F
100
AcDbEntity
  8
5
100
AcDbModelerGeometry
 70
     1
  1
koo mi n o          
  1
h J1410(1 nl ^ \VL kqoqm QK mk Y-6 Y:= on ogemnekh moog 
  1
rn fqfffffffffffffffj:rooh n:rono 
  1
=0;& {rn {n {rn {rn |
  1
3*2/ {rn {rn {m {o |
  1
,7:33 {rn {rn {rn {l {rn {n |
  1
9><: {rn {rn {k {m {rn {j 90-(>-; ;0*=3: 0*+ |
  1
300/ {rn {rn {i {l |
  1
/3>1:r,*-9><: {rn rljqikmjonomlkjommm rjfqomfnmgnggofgggn o o o n n o o 90-(>-;@) V V V V |
  1
<0:;8: {rn {h {g {rn {f 90-(>-; {k {rn |
  1
<0:;8: {rn {no {i {rn {nn 90-(>-; {k {rn |
  1
<0:;8: {rn {i {no {rn {nm 90-(>-; {k {rn |
  1
:;8: {rn {nl {nk {i {nj 90-(>-; |
  1
<0:;8: {rn {g {h {rn {ni -:):-,:; {k {rn |
  1
:;8: {rn {nk {nh {h {ng 90-(>-; |
  1
:;8: {rn {nf {nl {g {mo 90-(>-; |
  1
):-+:' {rn {f {mn |
  1
):-+:' {rn {f {mm |
  1
61+<*-):r<*-): {rn 90-(>-; $ :'><+<*- 1*=, l 0/:1 mg 
  1
 o l oqlfigjomnhmmhnoggk n oqhmihgjfojjnjijimj n nqongknlhimogofofh n nqmhjijkomimihfkmn n 
  1
 nqjjhhfooifjkllfmm n nqginnnojigjoifhom n mqjkkgnlhjikjngfjl n mqgnmoofmlhlingolh n lqokfffiohonmmmllj n 
  1
 lqlloonlmhgjlffngk n lqjhjiljhgilhmngkg n lqflkijnjffnhfgkfk n kqklfnimomimokiofi n kqihhohhmgmkfjfon n 
  1
 kqfjglhmkoiilonmjg n jqlmoknigoglljkill n jqijoooimimfnhomng n iqnnmooijfhfmfnkjk n iqillkinjnnhkjhlfi n 
  1
 iqfknhinkfmmgkfnmf n hqmokikooliljffifi n hqkfmhhkhgfkhifngl n hqhnffflnfkkoglkjn n gqmmhonmnijoikjmjg n 
  1
 gqhgfgkommjlomnifh n fqnlnohigkhjkjhkmm n fqlggifigilfmffjgm l 
  1
 rlmqhnfhlomjlhhlofl rjhqhnfjmgnmifojigi o 
  1
 rlmqhnnljkgfoignoij rjhqkkfognjhlnnjikf o 
  1
 rlmqifioniligjmigkn rjiqfjlhgfjjghjkfhh o 
  1
 rllqokhimkninijkogj rjiqljnlgjglnoklmhk o 
  1
 rllqklillnhioooghgk rjjqgfhgjnglhjllmih o 
  1
 rllqfjlnhfigfjilkji rjjqihholnkkonnoigm o 
  1
 rlkqkjffnknmngjhhoh rjjqkmfglllhhiihff o 
  1
 rljqloiognnnkkknnji rjjqlnmoiiijlffifog o 
  1
 rliqnkgkmmkokmiinhn rjjqmfilkimjlhhogkf o 
  1
 rliqfmhggniffngghgg rjjqkinhhhhnlgmhjl o 
  1
 rlhqknomkohjjkohj rjjqihhjllmjlilgjjg o 
  1
 rlhqgnjkggngnkimnhm rjjqfghojhjjogglnjn o 
  1
 rlgqmifnoogkofjfomh rjiqlhllihniifkflj o 
  1
 rlgqjfjhffggfhhfikn rjhqojghjmfoffnhjl o 
  1
 rlgqilglinhnhfmninm rjhqgljgjloomnjmlim o 
  1
 rlgqlkmgjkljhhojfol rjgqkjgghkjmkkhmjm o 
  1
 rlhqfhlnglnnnjiojjf rjgqflnkfhigliklohl o 
  1
 rlhqlhkhmimgiofnogf rjfqmngmhijjofjoolh o 
  1
 rliqijhghiklhkkijok rjfqkggfonofkginggh o 
  1
 rljqhfmigfhogginmki rjfqiiiifnmfoohknkn o 
  1
 rlkqfjjfoffkignmkjk rjfqhfmnohflimkoffi o 
  1
 rlkqmljfioimlmfmhgl rioqohfhfllhhnjhmni o 
  1
 rlkqoogmlokhjoknhmg rioqijfmogfoolfojmk o 
  1
 rlkqngmkgmfijhgmmff rinqmmnhmmgonlmgjmj o 
  1
 rlkqgkhmihgjmflmiki rinqkfhhfilmiohgool o 
  1
 rljqigfilhhlffiikgi rinqjhgomlhjknngmm o 
  1
 rliqhnnkkmghkjjggmh rinqklonmkniokhmfmg o 
  1
 rlhqniighookmkglkgn rioqhmgoioifjflknng o 
  1
 rlhqmohoghhgmlnfkim rioqlmfkofkimhmhogj o 
  1
 rlhqmmklggfoflhfmmf rioqnjhfnjnooimhgok o 
  1
 o 
  1
 1*33@,*-9><: 
  1
 1*33@,*-9><: 
  1
 1*33=, 
  1
 1*33=, 
  1
 V V 
  1
 o 
  1
 o 
  3
 mi oqlfigjomnhmmhnoggk oqhmihgjfojjnjijimj nqongknlhimogofofh nqmhjijkomimihfkmn nqjjhhfooifjkllfmm nqginnnojigjoifhom mqjkkgnlhjikjngfjl mqgnmoofmlhlingolh lqokfffiohonmmmllj lqlloonlmhgjlffngk lqjhjiljhgilhmngkg lqflkijnjffnhfgkfk kqklfnimomimokiofi kq
  1
ihhohhmgmkfjfon kqfjglhmkoiilonmjg jqlmoknigoglljkill jqijoooimimfnhomng iqnnmooijfhfmfnkjk iqillkinjnnhkjhlfi iqfknhinkfmmgkfnmf hqmokikooliljffifi hqkfmhhkhgfkhifngl hqhnffflnfkkoglkjn gqmmhonmnijoikjmjg gqhgfgkommjlomnifh fqnlnohigkhjkjhkmm 
  1
 Y n Y o " V V |
  1
:;8: {rn {nf {nh {no {ml 90-(>-; |
  1
):-+:' {rn {nn {mk |
  1
,+->687+r<*-): {rn rlhqmmklggfoflhfmmf rioqnjhfnjnooimhgok o roqffffffnohkimjmnfi roqoonllioiiihkhngjfkh o V V |
  1
):-+:' {rn {ni {mj |
  1
,+->687+r<*-): {rn rlkqloogfknhlmhmjmj rjhqhnhglkgojlnognj o oqffffffkmijjnoghjl roqoonohoflloomjjmgofg o V V |
  1
/061+ {rn rlmqhnfhlomjlhhlofl rjhqhnfjmgnmifojigi o |
  1
/061+ {rn rlhqmmklggfoflhfmmf rioqnjhfnjnooimhgok o |
  1
61+<*-):r<*-): {rn 90-(>-; $ :'><+<*- 1*=, l 0/:1 mk 
  1
 o l oqligokiljfljmjmjj n oqikiffjgmifofigklg n nqoigjglohkoojklhk n nqiohihjljnioiinng n 
  1
 nqfhmmojknmiffgfof n mqnfkhjgmkmhhogjlf n mqioinmmijimmmlmmg n lqnlhnlfiiikkokmkj n lqifnmlfgjmonggmhk n 
  1
 kqokoilfionkiiffnk n kqlffkggihjloikjmk n kqgnjjkihfkomhonmj n jqljoknhiinlnnjjjf n jqgnogkngnofmjifjk n 
  1
 iqmmhnfffmkgnlkoni n iqinkmilhmmmoihgkk n hqkgfigmoofjhoomml n hqgihgfiogmnmng n gqmjlnglnofmnkimnl n 
  1
 gqjjhhkmomokmlmfin n gqhimgololoifolglj n fqnknnhijkkiknoojg n fqmjiilgghlkomkimn l 
  1
 rlkqloogfknhlmhmjmj rjhqhnhglkgojlnognj o 
  1
 rlkqlmihkoigojlijnh rjhqkjfinlinmgnoonh o 
  1
 rlkqlhmnhihjikfjjhh rjhqoojignjhkgkngkk o 
  1
 rljqomgjgfknjikojfi rjiqjgmnnfmohlmgjol o 
  1
 rljqgnfkhllmlojhhli rjiqjknllmohhffjiim o 
  1
 rliqfolnllnoikfijig rjiqjhjmnngnoghhgng o 
  1
 rlhqommhoglmhfnm rjhqjmimkhlgiklohmj o 
  1
 rliqjnigifolnihnjkh rjgqommknignlkkolni o 
  1
 rljqhnlimnknghkkig rjgqnogllfmginonlfg o 
  1
 rlkqhjiinlnmkkommli rjgqlknmihgojkgiilg o 
  1
 rllqgogililmglnool rjgqjlgmhlhfhfjofmm o 
  1
 rllqohokkgmngghlogm rjgqfinlffmjkiglmnj o 
  1
 rlmqjjljjnloimfomhk rjfqjlgfjjhihiihnkh o 
  1
 rlmqlihonkhojfiofif rioqkngohjmgllnoijh o 
  1
 rlmqjoljnlgikgiofoi rinqlfjmmkjggnghjhk o 
  1
 rllqnhnknkngigmfnig rimqnniimigfhjmfhgk o 
  1
 rllqfnhkghgkhknjhhn rimqjnkhongfnfgfkgf o 
  1
 rlkqffogomohmnihfjm rimqghnmhfomlnfhknh o 
  1
 rliqnnnjhighfillhln rimqhjgokljmgiiffjg o 
  1
 rlhqngjlklfnlnhhif rimqjimfinnkkflfmof o 
  1
 rlhqglghofmmohomik rimqmlgngohgghmojh o 
  1
 rlgqmjlfkfkkngkfgfg rinqgoomoklfjfhnioj o 
  1
 rlgqiljinhhmiingfgf rinqljglffiifgflimf o 
  1
 rlgqhlnjnjmmifhkhhg rioqhfnnmkmhljgilm o 
  1
 rlgqhgkljiimgoiolg rioqjfkknhfnikjmjmg o 
  1
 rlgqgofjljimofkjkfi rioqnioolmfikmnlfk o 
  1
 o 
  1
 1*33@,*-9><: 
  1
 1*33@,*-9><: 
  1
 1*33=, 
  1
 1*33=, 
  1
 V V 
  1
 o 
  1
 o 
  3
 mm oqligokiljfljmjmjj oqikiffjgmifofigklg nqoigjglohkoojklhk nqiohihjljnioiinng nqfhmmojknmiffgfof mqnfkhjgmkmhhogjlf mqioinmmijimmmlmmg lqnlhnlfiiikkokmkj lqifnmlfgjmonggmhk kqokoilfionkiiffnk kqlffkggihjloikjmk kqgnjjkihfkomhonmj jqljoknhiinlnnjjjf jqg
  1
nogkngnofmjifjk iqmmhnfffmkgnlkoni iqinkmilhmmmoihgkk hqkgfigmoofjhoomml hqgihgfiogmnmng gqmjlnglnofmnkimnl gqjjhhkmomokmlmfin gqhimgololoifolglj fqnknnhijkkiknoojg 
  1
 Y n Y o " V V |
  1
/061+ {rn rlgqgofjljimofkjkfi rioqnioolmfikmnlfk o |
  1
/061+ {rn rlkqloogfknhlmhmjmj rjhqhnhglkgojlnognj o |
  0
REGION
  5
2AE
330
1F
100
AcDbEntity
  8
5
100
AcDbModelerGeometry
 70
     1
  1
koo hn n o          
  1
h J1410(1 nl ^ \VL kqoqm QK mk Y-6 Y:= on ogemnekh moog 
  1
rn fqfffffffffffffffj:rooh n:rono 
  1
=0;& {rn {n {rn {rn |
  1
3*2/ {rn {rn {m {o |
  1
,7:33 {rn {rn {rn {l {rn {n |
  1
9><: {rn {rn {k {m {rn {j 90-(>-; ;0*=3: 0*+ |
  1
300/ {rn {rn {i {l |
  1
/3>1:r,*-9><: {rn rkhqmilghllmnngiojk rjgqjjnjhollkjfjomh o o o n n o o 90-(>-;@) V V V V |
  1
<0:;8: {rn {h {g {rn {f -:):-,:; {k {rn |
  1
<0:;8: {rn {no {i {rn {nn -:):-,:; {k {rn |
  1
<0:;8: {rn {i {nm {rn {nl -:):-,:; {k {rn |
  1
:;8: {rn {nk {nj {i {ni 90-(>-; |
  1
<0:;8: {rn {nh {h {rn {ng -:):-,:; {k {rn |
  1
:;8: {rn {nf {nk {h {mo 90-(>-; |
  1
<0:;8: {rn {g {mn {rn {mm -:):-,:; {k {rn |
  1
:;8: {rn {nj {ml {g {mk 90-(>-; |
  1
):-+:' {rn {f {mj |
  1
):-+:' {rn {f {mi |
  1
,+->687+r<*-): {rn rkjqmkkgfgknfokjigl rioqnmikklhkkiiiigg o oqmiolomoihhijflglf oqfijjmhmlogjmomljm o V V |
  1
<0:;8: {rn {mh {no {rn {mg -:):-,:; {k {rn |
  1
:;8: {rn {mf {nf {no {lo 90-(>-; |
  1
):-+:' {rn {ng {ln |
  1
,+->687+r<*-): {rn rkiqkhkikomnfgihfmm rjjqknhghnhglmgngfi o oqmjmifkglnjlkokkfl roqfihjkiolnooimihlj o V V |
  1
<0:;8: {rn {nm {lm {rn {ll -:):-,:; {k {rn |
  1
:;8: {rn {ml {lk {nm {lj 90-(>-; |
  1
):-+:' {rn {nl {li |
  1
,+->687+r<*-): {rn rklqfhjkghmgkmifkfn rjjqknhghnhglmgngfi o n o o V V |
  1
/061+ {rn rkjqmkkgfgknfokjigl rioqnmikklhkkiiiigg o |
  1
/061+ {rn rklqfhjkghmgkmifkfn rjjqknhghnhglmgngfi o |
  1
<0:;8: {rn {lh {nh {rn {lg -:):-,:; {k {rn |
  1
:;8: {rn {lf {mf {nh {ko 90-(>-; |
  1
):-+:' {rn {mg {kn |
  1
,+->687+r<*-): {rn rkgqojnkghjioomkiig rjjqknhghnhglmgngfi o n o o V V |
  1
/061+ {rn rkiqkhkikomnfgihfmm rjjqknhghnhglmgngfi o |
  1
<0:;8: {rn {mn {km {rn {kl -:):-,:; {k {rn |
  1
:;8: {rn {lk {kk {mn {kj 90-(>-; |
  1
):-+:' {rn {mm {ki |
  1
,+->687+r<*-): {rn rkmqlngnimkhmjjhhln rjjqknhghnhglmgngfi o roqmimioiiiomnmjnlhm roqfikfomfhomjhikigm o V V |
  1
/061+ {rn rkmqlngnimkhmjjhhln rjjqknhghnhglmgngfi o |
  1
<0:;8: {rn {kh {mh {rn {kg -:):-,:; {k {rn |
  1
:;8: {rn {kf {lf {mh {jo 90-(>-; |
  1
):-+:' {rn {lg {jn |
  1
,+->687+r<*-): {rn rkfqlfolnggfikjhfmh rioqnmikklhkkiiiigg o oqmhlkfgomkgonoohjk oqfinghmjikjkhgfii o V V |
  1
/061+ {rn rkgqojnkghjioomkiig rjjqknhghnhglmgngfi o |
  1
<0:;8: {rn {lm {jm {rn {jl -:):-,:; {k {rn |
  1
:;8: {rn {kk {jk {lm {jj 90-(>-; |
  1
):-+:' {rn {ll {ji |
  1
,+->687+r<*-): {rn rkkqmgklmljglhgfkkk rimqikmnfmlkfimhljn o rn o o V V |
  1
/061+ {rn rkkqmgklmljglhgfkkk rimqikmnfmlkfimhljn o |
  1
<0:;8: {rn {jm {lh {rn {jh -:):-,:; {k {rn |
  1
:;8: {rn {jg {kf {lh {jf 90-(>-; |
  1
):-+:' {rn {kg {io |
  1
,+->687+r<*-): {rn rjoqjonojkmojhigngj rjjqknhghnhglmgngfi o oqmmfjfkhikgmiijolh roqfhlmgilnnkomgijmi o V V |
  1
/061+ {rn rkfqlfolnggfikjhfmh rioqnmikklhkkiiiigg o |
  1
<0:;8: {rn {km {kh {rn {in -:):-,:; {k {rn |
  1
:;8: {rn {jk {im {km {il 90-(>-; |
  1
):-+:' {rn {kl {ik |
  1
,+->687+r<*-): {rn rkjqflhhiohjjkilll rimqikmnfmlkfimhljn o roqmhoiilkmjjoimflmk oqfimihkoknkjjfgkf o V V |
  1
/061+ {rn rkjqflhhiohjjkilll rimqikmnfmlkfimhljn o |
  1
:;8: {rn {ij {jg {kh {ii 90-(>-; |
  1
):-+:' {rn {jh {ih |
  1
,+->687+r<*-): {rn rjmqmnihklkjfjggkgi rjjqknhghnhglmgngfi o n o o V V |
  1
/061+ {rn rjoqjonojkmojhigngj rjjqknhghnhglmgngfi o |
  1
:;8: {rn {im {ij {jm {ig 90-(>-; |
  1
):-+:' {rn {jl {if |
  1
,+->687+r<*-): {rn rkhqmghjojghgjhiin rjhqgknjmihimmonnnl o roqmkfjhmmgonhfinini roqfigljinhmjhjfjmnf o V V |
  1
/061+ {rn rkhqmghjojghgjhiin rjhqgknjmihimmonnnl o |
  1
):-+:' {rn {in {ho |
  1
,+->687+r<*-): {rn rjoqmmlnffhogfmglkg rimqikmnfmlkfimhljn o roqmiiooiglkhhmfmkkh oqfilfhnnkmikjfmkgh o V V |
  1
/061+ {rn rjmqmnihklkjfjggkgi rjjqknhghnhglmgngfi o |
  1
,+->687+r<*-): {rn rkgqjmkhhohlnogoghg rimqikmnfmlkfimhljn o rn o o V V |
  1
/061+ {rn rkgqjmkhhohlnogoghg rimqikmnfmlkfimhljn o |
  1
/061+ {rn rjoqmmlnffhogfmglkg rimqikmnfmlkfimhljn o |
  0
REGION
  5
2AF
330
1F
100
AcDbEntity
  8
5
100
AcDbModelerGeometry
 70
     1
  1
koo mi n o          
  1
h J1410(1 nl ^ \VL kqoqm QK mk Y-6 Y:= on ogemnekh moog 
  1
rn fqfffffffffffffffj:rooh n:rono 
  1
=0;& {rn {n {rn {rn |
  1
3*2/ {rn {rn {m {o |
  1
,7:33 {rn {rn {rn {l {rn {n |
  1
9><: {rn {rn {k {m {rn {j 90-(>-; ;0*=3: 0*+ |
  1
300/ {rn {rn {i {l |
  1
/3>1:r,*-9><: {rn rkoqjhnmhjkliojjolm rjfqollfohhogljlljk o o o n n o o 90-(>-;@) V V V V |
  1
<0:;8: {rn {h {g {rn {f -:):-,:; {k {rn |
  1
<0:;8: {rn {no {i {rn {nn -:):-,:; {k {rn |
  1
<0:;8: {rn {i {no {rn {nm -:):-,:; {k {rn |
  1
:;8: {rn {nl {nk {i {nj 90-(>-; |
  1
<0:;8: {rn {g {h {rn {ni -:):-,:; {k {rn |
  1
:;8: {rn {nh {nl {h {ng 90-(>-; |
  1
:;8: {rn {nk {nf {g {mo 90-(>-; |
  1
):-+:' {rn {f {mn |
  1
):-+:' {rn {f {mm |
  1
,+->687+r<*-): {rn rlfqihkhkmkkhmfgkji rjjqkkllgifjogojkok o o rn o V V |
  1
:;8: {rn {nf {nh {no {ml 90-(>-; |
  1
):-+:' {rn {ni {mk |
  1
,+->687+r<*-): {rn rknqkihgogkmkgnniog rjjqkkllgifjogojkok o n o o V V |
  1
):-+:' {rn {nm {mj |
  1
,+->687+r<*-): {rn rlfqihkhkmkkhmfgkji rimqimkkmgkijfonlol o rn o o V V |
  1
/061+ {rn rlfqihkhkmkkhmfgkji rjjqkkllgifjogojkok o |
  1
/061+ {rn rlfqihkhkmkkhmfgkji rimqimkkmgkijfonlol o |
  1
,+->687+r<*-): {rn rknqkihgogkmkgnniog rimqimkkmgkijfonlol o o n o V V |
  1
/061+ {rn rknqkihgogkmkgnniog rjjqkkllgifjogojkok o |
  1
/061+ {rn rknqkihgogkmkgnniog rimqimkkmgkijfonlol o |
  0
REGION
  5
2B0
330
1F
100
AcDbEntity
  8
5
100
AcDbModelerGeometry
 70
     1
  1
koo mi n o          
  1
h J1410(1 nl ^ \VL kqoqm QK mk Y-6 Y:= on ogemnekh moog 
  1
rn fqfffffffffffffffj:rooh n:rono 
  1
=0;& {rn {n {rn {rn |
  1
3*2/ {rn {rn {m {o |
  1
,7:33 {rn {rn {rn {l {rn {n |
  1
9><: {rn {rn {k {m {rn {j 90-(>-; ;0*=3: 0*+ |
  1
300/ {rn {rn {i {l |
  1
/3>1:r,*-9><: {rn rmgqilkjjkofkgimjjn rjfqomfnmgnggofgggn o o o n n o o 90-(>-;@) V V V V |
  1
<0:;8: {rn {h {g {rn {f 90-(>-; {k {rn |
  1
<0:;8: {rn {no {i {rn {nn 90-(>-; {k {rn |
  1
<0:;8: {rn {i {no {rn {nm 90-(>-; {k {rn |
  1
:;8: {rn {nl {nk {i {nj 90-(>-; |
  1
<0:;8: {rn {g {h {rn {ni -:):-,:; {k {rn |
  1
:;8: {rn {nk {nh {h {ng 90-(>-; |
  1
:;8: {rn {nf {nl {g {mo 90-(>-; |
  1
):-+:' {rn {f {mn |
  1
):-+:' {rn {f {mm |
  1
61+<*-):r<*-): {rn 90-(>-; $ :'><+<*- 1*=, l 0/:1 mg 
  1
 o l oqlfigjomnhmmhnoggk n oqhmihgjfojjnjijimj n nqongknlhimogofofh n nqmhjijkomimihfkmn n 
  1
 nqjjhhfooifjkllfmm n nqginnnojigjoifhom n mqjkkgnlhjikjngfjl n mqgnmoofmlhlingolh n lqokfffiohonmmmllj n 
  1
 lqlloonlmhgjlffngk n lqjhjiljhgilhmngkg n lqflkijnjffnhfgkfk n kqklfnimomimokiofi n kqihhohhmgmkfjfon n 
  1
 kqfjglhmkoiilonmjg n jqlmoknigoglljkill n jqijoooimimfnhomng n iqnnmooijfhfmfnkjk n iqillkinjnnhkjhlfi n 
  1
 iqfknhinkfmmgkfnmf n hqmokikooliljffifi n hqkfmhhkhgfkhifngl n hqhnffflnfkkoglkjn n gqmmhonmnijoikjmjg n 
  1
 gqhgfgkommjlomnifh n fqnlnohigkhjkjhkmm n fqlggifigilfmffjgm l 
  1
 rmjqhnnhgllmjngjkmm rjhqhnfjmgnmifojigi o 
  1
 rmjqholkohfimoflkmm rjhqkkfognjhlnnjikf o 
  1
 rmjqiggoifklfflfnh rjiqfjlhgfjjghjkfhh o 
  1
 rmiqolfihhmlloiiknl rjiqljnlgjglnoklmhk o 
  1
 rmiqkmglgkglnkmnnnl rjjqgfhgjnglhjllmih o 
  1
 rmiqfkjmlmhiofhjhgk rjjqihholnkkonnoigm o 
  1
 rmhqkjnfihnflmhooli rjjqkmfglllhhiihff o 
  1
 rmgqmfgnlkngjgjlkgj rjjqlnmoiiijlffifog o 
  1
 rmfqnkokhjkhjihgj rjjqmfilkimjlhhogkf o 
  1
 rmfqfnfflkhhoionnnh rjjqkinhhhhnlgmhjl o 
  1
 rloqkommflgmignfgmf rjjqihhjllmjlilgjjg o 
  1
 rloqgohjknmjmghkjon rjjqfghojhjjogglnjn o 
  1
 rlnqminnjlfnmlhnlji rjiqlhllihniifkflj o 
  1
 rlnqjghgjmfinnfnfh rjhqojghjmfoffnhjl o 
  1
 rlnqiloknkhgflllfk rjhqgljgjloomnjmlim o 
  1
 rlnqllkfohkmfnngmlm rjgqkjgghkjmkkhmjm o 
  1
 rloqfijmlingmfhmggh rjgqflnkfhigliklohl o 
  1
 rloqliihhfljhjolkng rjfqmngmhijjofjoolh o 
  1
 rmfqikffmfjoggjggll rjfqkggfonofkginggh o 
  1
 rmgqhgkhkmhgomhljhj rjfqiiiifnmfoohknkn o 
  1
 rmhqfkhfilongmmkhgl rjfqhfmnohflimkoffi o 
  1
 rmhqmmgonlifkhojnnm rioqohfhfllhhnjhmni o 
  1
 rmhqooomgljkikjkojh rioqijfmogfoolfojmk o 
  1
 rmhqnhkjliolhnfkimg rinqmmnhmmgonlmgjmj o 
  1
 rmhqglflmofmklkkfhj rinqkfhhfilmiohgool o 
  1
 rmgqignifognnlhggnk rinqjhgomlhjknngmm o 
  1
 rmfqholkfjfkjfhnnji rinqklonmkniokhmfmg o 
  1
 rloqnjgfmlnnlgfjgn rioqhmgoioifjflknng o 
  1
 rloqnffnkogjlhlnhfn rioqlmfkofkimhmhogj o 
  1
 rloqmnikknfgohfnjjg rioqnjhfnjnooimhgok o 
  1
 o 
  1
 1*33@,*-9><: 
  1
 1*33@,*-9><: 
  1
 1*33=, 
  1
 1*33=, 
  1
 V V 
  1
 o 
  1
 o 
  3
 mi oqlfigjomnhmmhnoggk oqhmihgjfojjnjijimj nqongknlhimogofofh nqmhjijkomimihfkmn nqjjhhfooifjkllfmm nqginnnojigjoifhom mqjkkgnlhjikjngfjl mqgnmoofmlhlingolh lqokfffiohonmmmllj lqlloonlmhgjlffngk lqjhjiljhgilhmngkg lqflkijnjffnhfgkfk kqklfnimomimokiofi kq
  1
ihhohhmgmkfjfon kqfjglhmkoiilonmjg jqlmoknigoglljkill jqijoooimimfnhomng iqnnmooijfhfmfnkjk iqillkinjnnhkjhlfi iqfknhinkfmmgkfnmf hqmokikooliljffifi hqkfmhhkhgfkhifngl hqhnffflnfkkoglkjn gqmmhonmnijoikjmjg gqhgfgkommjlomnifh fqnlnohigkhjkjhkmm 
  1
 Y n Y o " V V |
  1
:;8: {rn {nf {nh {no {ml 90-(>-; |
  1
):-+:' {rn {nn {mk |
  1
,+->687+r<*-): {rn rloqmnikknfgohfnjjg rioqnjhfnjnooimhgok o roqffffffnohkimjmnfi roqoonllioiiihkhngjfkh o V V |
  1
):-+:' {rn {ni {mj |
  1
,+->687+r<*-): {rn rmhqmfmfkhmkkigkgjk rjhqhnhglkgojlnognj o oqffffffkmijjnoghjl roqoonohoflloomjjmgofg o V V |
  1
/061+ {rn rmjqhnnhgllmjngjkmm rjhqhnfjmgnmifojigi o |
  1
/061+ {rn rloqmnikknfgohfnjjg rioqnjhfnjnooimhgok o |
  1
61+<*-):r<*-): {rn 90-(>-; $ :'><+<*- 1*=, l 0/:1 mk 
  1
 o l oqligokiljfljmjmjj n oqikiffjgmifofigklg n nqoigjglohkoojklhk n nqiohihjljnioiinng n 
  1
 nqfhmmojknmiffgfof n mqnfkhjgmkmhhogjlf n mqioinmmijimmmlmmg n lqnlhnlfiiikkokmkj n lqifnmlfgjmonggmhk n 
  1
 kqokoilfionkiiffnk n kqlffkggihjloikjmk n kqgnjjkihfkomhonmj n jqljoknhiinlnnjjjf n jqgnogkngnofmjifjk n 
  1
 iqmmhnfffmkgnlkoni n iqinkmilhmmmoihgkk n hqkgfigmoofjhoomml n hqgihgfiogmnmng n gqmjlnglnofmnkimnl n 
  1
 gqjjhhkmomokmlmfin n gqhimgololoifolglj n fqnknnhijkkiknoojg n fqmjiilgghlkomkimn l 
  1
 rmhqmfmfkhmkkigkgjk rjhqhnhglkgojlnognj o 
  1
 rmhqlnghflhjnfkggki rjhqkjfinlinmgnoonh o 
  1
 rmhqlikmmfgmhfohfoi rjhqoojignjhkgkngkk o 
  1
 rmgqomoikmkghojmfmj rjiqjgmnnfmohlmgjol o 
  1
 rmgqgnnjmilfkkhooik rjiqjknllmohhffjiim o 
  1
 rmfqgfjnginhhfoggfh rjiqjhjmnngnoghhgng o 
  1
 rloqonkhinlfflmklmg rjhqjmimkhlgiklohmj o 
  1
 rmfqjogfmmnologlghi rjgqommknignlkkolni o 
  1
 rmgqhojihkkfonjhoog rjgqnogllfmginonlfg o 
  1
 rmhqhkgiiinfjgnkjij rjgqlknmihgojkgiilg o 
  1
 rmiqgooigflffhmmljf rjgqjlgmhlhfhfjofmm o 
  1
 rmiqoimjonmfomgjknn rjgqfinlffmjkiglmnj o 
  1
 rmjqjkjioklhhhomiol rjfqjlgfjjhihiihnkh o 
  1
 rmjqljfoihhhhlhlmfg rioqkngohjmgllnoijh o 
  1
 rmjqkfjjiiflimhlmlj rinqlfjmmkjggnghjhk o 
  1
 rmiqnilkihmjgmknkfi rimqnniimigfhjmfhgk o 
  1
 rmiqfofjkofnggmgn rimqjnkhongfnfgfkgf o 
  1
 rmhqfgmgjjnkljgomgn rimqghnmhfomlnfhknh o 
  1
 rmfqnolimffjnokiojf rimqhjgokljmgiiffjg o 
  1
 rloqnhhlfifgkjfoong rimqjimfinnkkflfmof o 
  1
 rloqglohimmfmnnkfif rimqmlgngohgghmojh o 
  1
 rlnqmkioomjnlmimmmi rinqgoomoklfjfhnioj o 
  1
 rlnqimhihohfgolnlng rinqljglffiifgflimf o 
  1
 rlnqhmljigmfglghnoh rioqhfnnmkmhljgilm o 
  1
 rlnqhhikofiffkhmhog rioqjfkknhfnikjmjmg o 
  1
 rlnqgonjggifmljhgmj rioqnioolmfikmnlfk o 
  1
 o 
  1
 1*33@,*-9><: 
  1
 1*33@,*-9><: 
  1
 1*33=, 
  1
 1*33=, 
  1
 V V 
  1
 o 
  1
 o 
  3
 mm oqligokiljfljmjmjj oqikiffjgmifofigklg nqoigjglohkoojklhk nqiohihjljnioiinng nqfhmmojknmiffgfof mqnfkhjgmkmhhogjlf mqioinmmijimmmlmmg lqnlhnlfiiikkokmkj lqifnmlfgjmonggmhk kqokoilfionkiiffnk kqlffkggihjloikjmk kqgnjjkihfkomhonmj jqljoknhiinlnnjjjf jqg
  1
nogkngnofmjifjk iqmmhnfffmkgnlkoni iqinkmilhmmmoihgkk hqkgfigmoofjhoomml hqgihgfiogmnmng gqmjlnglnofmnkimnl gqjjhhkmomokmlmfin gqhimgololoifolglj fqnknnhijkkiknoojg 
  1
 Y n Y o " V V |
  1
/061+ {rn rlnqgonjggifmljhgmj rioqnioolmfikmnlfk o |
  1
/061+ {rn rmhqmfmfkhmkkigkgjk rjhqhnhglkgojlnognj o |
  0
REGION
  5
2B1
330
1F
100
AcDbEntity
  8
5
100
AcDbModelerGeometry
 70
     1
  1
koo ii n o          
  1
h J1410(1 nl ^ \VL kqoqm QK mk Y-6 Y:= on ogemnekh moog 
  1
rn fqfffffffffffffffj:rooh n:rono 
  1
=0;& {rn {n {rn {rn |
  1
3*2/ {rn {rn {m {o |
  1
,7:33 {rn {rn {rn {l {rn {n |
  1
9><: {rn {rn {k {m {rn {j 90-(>-; ;0*=3: 0*+ |
  1
300/ {rn {rn {i {l |
  1
/3>1:r,*-9><: {rn rmoqkfomioinnkjgilg rjfqoknjklnilfnljkj o o o n n o o 90-(>-;@) V V V V |
  1
<0:;8: {rn {h {g {rn {f 90-(>-; {k {rn |
  1
<0:;8: {rn {no {i {rn {nn 90-(>-; {k {rn |
  1
<0:;8: {rn {i {nm {rn {nl 90-(>-; {k {rn |
  1
:;8: {rn {nk {nj {i {ni 90-(>-; |
  1
<0:;8: {rn {nh {h {rn {ng 90-(>-; {k {rn |
  1
:;8: {rn {nj {nf {h {mo 90-(>-; |
  1
<0:;8: {rn {g {mn {rn {mm 90-(>-; {k {rn |
  1
:;8: {rn {ml {nk {g {mk 90-(>-; |
  1
):-+:' {rn {f {mj |
  1
):-+:' {rn {f {mi |
  1
,+->687+r<*-): {rn rmnqkmfhfgjknkokjml rjiqohhfhhlfmlhlokl o o rn o V V |
  1
<0:;8: {rn {mh {no {rn {mg 90-(>-; {k {rn |
  1
:;8: {rn {nf {mf {no {lo 90-(>-; |
  1
):-+:' {rn {nn {ln |
  1
,+->687+r<*-): {rn rmnqkmfhfgjknkokjml rjgqminijhjghiokom o rn o o V V |
  1
<0:;8: {rn {nm {lm {rn {ll 90-(>-; {k {rn |
  1
:;8: {rn {lk {ml {nm {lj 90-(>-; |
  1
):-+:' {rn {mm {li |
  1
,+->687+r<*-): {rn rnfqjjhmmkhligmnoh rjiqohhfhhlfmlhlokl o rn o o V V |
  1
/061+ {rn rmnqkmfhfgjknkokjml rjiqohhfhhlfmlhlokl o |
  1
/061+ {rn rmnqkmfhfgjknkokjml rjgqminijhjghiokom o |
  1
<0:;8: {rn {lh {nh {rn {lg 90-(>-; {k {rn |
  1
:;8: {rn {mf {lf {nh {ko 90-(>-; |
  1
):-+:' {rn {ng {kn |
  1
,+->687+r<*-): {rn rmlqinkkihfgoogjng rjgqminijhjghiokom o o rn o V V |
  1
/061+ {rn rmlqinkkihfgoogjng rjgqminijhjghiokom o |
  1
<0:;8: {rn {mn {km {rn {kl 90-(>-; {k {rn |
  1
:;8: {rn {kk {lk {mn {kj 90-(>-; |
  1
):-+:' {rn {ll {ki |
  1
,+->687+r<*-): {rn rnfqjjhmmkhligmnoh rjgqmkmnioikmojnoll o o n o V V |
  1
/061+ {rn rnfqjjhmmkhligmnoh rjiqohhfhhlfmlhlokl o |
  1
<0:;8: {rn {kh {mh {rn {kg 90-(>-; {k {rn |
  1
:;8: {rn {lf {kf {mh {jo 90-(>-; |
  1
):-+:' {rn {mg {jn |
  1
,+->687+r<*-): {rn rmlqinkkihfgoogjng rjfqgmnkmghkommlofg o n o o V V |
  1
/061+ {rn rmlqinkkihfgoogjng rjfqgmnkmghkommlofg o |
  1
<0:;8: {rn {lm {kh {rn {jm 90-(>-; {k {rn |
  1
:;8: {rn {jl {kk {lm {jk 90-(>-; |
  1
):-+:' {rn {kl {jj |
  1
,+->687+r<*-): {rn rnhqljlokfnlmmnjjnh rjgqmkmnioikmojnoll o rn o o V V |
  1
/061+ {rn rnfqjjhmmkhligmnoh rjgqmkmnioikmojnoll o |
  1
<0:;8: {rn {km {lh {rn {ji 90-(>-; {k {rn |
  1
:;8: {rn {kf {jh {lh {jg 90-(>-; |
  1
):-+:' {rn {lg {jf |
  1
,+->687+r<*-): {rn rmnqkmfhfgjknkokjml rjfqgmnkmghkommlofg o o rn o V V |
  1
/061+ {rn rmnqkmfhfgjknkokjml rjfqgmnkmghkommlofg o |
  1
:;8: {rn {io {jl {km {in 90-(>-; |
  1
):-+:' {rn {jm {im |
  1
,+->687+r<*-): {rn rnhqljlokfnlmmnjjnh rjfqgkofmjigjhhjfhn o o n o V V |
  1
/061+ {rn rnhqljlokfnlmmnjjnh rjgqmkmnioikmojnoll o |
  1
:;8: {rn {jh {io {kh {il 90-(>-; |
  1
):-+:' {rn {kg {ik |
  1
,+->687+r<*-): {rn rmnqkmfhfgjknkokjml rimqoojnogfljkjkohj o n o o V V |
  1
/061+ {rn rmnqkmfhfgjknkokjml rimqoojnogfljkjkohj o |
  1
):-+:' {rn {ji {ij |
  1
,+->687+r<*-): {rn rnfqjjhmmkhligmnoh rjfqgkofmjigjhhjfhn o n o o V V |
  1
/061+ {rn rnhqljlokfnlmmnjjnh rjfqgkofmjigjhhjfhn o |
  1
,+->687+r<*-): {rn rnfqjjhmmkhligmnoh rimqoojnogfljkjkohj o o n o V V |
  1
/061+ {rn rnfqjjhmmkhligmnoh rimqoojnogfljkjkohj o |
  1
/061+ {rn rnfqjjhmmkhligmnoh rjfqgkofmjigjhhjfhn o |
  0
REGION
  5
2B2
330
1F
100
AcDbEntity
  8
5
100
AcDbModelerGeometry
 70
     1
  1
koo mi n o          
  1
h J1410(1 nl ^ \VL kqoqm QK mk Y-6 Y:= on ogemnekh moog 
  1
rn fqfffffffffffffffj:rooh n:rono 
  1
=0;& {rn {n {rn {rn |
  1
3*2/ {rn {rn {m {o |
  1
,7:33 {rn {rn {rn {l {rn {n |
  1
9><: {rn {rn {k {m {rn {j -:):-,:; ;0*=3: 0*+ |
  1
300/ {rn {rn {i {l |
  1
/3>1:r,*-9><: {rn rmoqjomfnhlknijmmmn rjfqololnijkgljfimm o o o rn rn o o 90-(>-;@) V V V V |
  1
<0:;8: {rn {h {g {rn {f 90-(>-; {k {rn |
  1
<0:;8: {rn {no {i {rn {nn 90-(>-; {k {rn |
  1
<0:;8: {rn {i {no {rn {nm 90-(>-; {k {rn |
  1
:;8: {rn {nl {nk {i {nj 90-(>-; |
  1
<0:;8: {rn {g {h {rn {ni 90-(>-; {k {rn |
  1
:;8: {rn {nk {nh {h {ng 90-(>-; |
  1
:;8: {rn {nf {nl {g {mo 90-(>-; |
  1
):-+:' {rn {f {mn |
  1
):-+:' {rn {f {mm |
  1
,+->687+r<*-): {rn rmkqkolnjmfkoijjini rjjqlmmonikojolnofl o o rn o V V |
  1
:;8: {rn {nh {nf {no {ml 90-(>-; |
  1
):-+:' {rn {nn {mk |
  1
,+->687+r<*-): {rn rmkqkolnjmfkoijjini rimqhlginiifniggnjn o n o o V V |
  1
):-+:' {rn {ni {mj |
  1
,+->687+r<*-): {rn rniqiomignhkmikggmi rjjqlmmonikojolnofl o rn o o V V |
  1
/061+ {rn rmkqkolnjmfkoijjini rjjqlmmonikojolnofl o |
  1
/061+ {rn rmkqkolnjmfkoijjini rimqhlginiifniggnjn o |
  1
,+->687+r<*-): {rn rniqiomignhkmikggmi rimqhlginiifniggnjn o o n o V V |
  1
/061+ {rn rniqiomignhkmikggmi rimqhlginiifniggnjn o |
  1
/061+ {rn rniqiomignhkmikggmi rjjqlmmonikojolnofl o |
  0
REGION
  5
2B3
330
1F
100
AcDbEntity
  8
5
100
AcDbModelerGeometry
 70
     1
  1
koo nn n o          
  1
h J1410(1 nl ^ \VL kqoqm QK mk Y-6 Y:= on ogemnekh moog 
  1
rn fqfffffffffffffffj:rooh n:rono 
  1
=0;& {rn {n {rn {rn |
  1
3*2/ {rn {rn {m {o |
  1
,7:33 {rn {rn {rn {l {rn {n |
  1
9><: {rn {rn {k {m {rn {j 90-(>-; ;0*=3: 0*+ |
  1
300/ {rn {rn {i {l |
  1
/3>1:r,*-9><: {rn lqmmghkllfnhmgfglm rjfqolooihoknjmifm o o o n n o o 90-(>-;@) V V V V |
  1
<0:;8: {rn {i {i {rn {h 90-(>-; {k {rn |
  1
:;8: {rn {g {g {i {f 90-(>-; |
  1
):-+:' {rn {h {no |
  1
61+<*-):r<*-): {rn 90-(>-; $ :'><+<*- 1*=, l <30,:; ml 
  1
 o l oqkoojgnkjmnohkngg n oqhmihiglnghjgffgin n nqojhklkhohmkfhol n nqklknomhhhhofhofh n 
  1
 nqgoifmlifgglhonh n mqljmfhomjhfinmnjn n mqhnlhonofgokhfhml n mqfgjifgglmmmggjih n lqljjojkfjnhjoihji n 
  1
 lqiffhngmihljfiggf n lqfhllnfokkkifnlfj n kqnfhlimgmimnjgnhi n kqljfofhlmhgfkhkg n kqjfkhggnfmglimhhf n 
  1
 kqfllohoihkgffhinh n jqlmjlmjimoogggkon n jqiklmikikjnoglgmn n iqonjoofjlkgojjgji n iqlkmfomgffhhgnjij n 
  1
 iqikfhmnlikhffhogm n iqfngojijnjjghhmfg n hqofnjnggkhoiliojh l 
  1
 lqmofgjkogoijlhiff rjiqihmihmjngojfohl o 
  1
 mqfklomngllhinkill rjiqifkfjmkmnomoji o 
  1
 mqkjgfnmkfnoflijim rjiqhljlhkkgnlllhli o 
  1
 nqhfghoiklfgknmmjg rjhqohjolhonfnkgjn o 
  1
 nqkhimknjmfoljkoji rjhqhnkoommflnhjoff o 
  1
 nqmhhifmklohgfhgkl rjgqlfglfommnkjffm o 
  1
 nqofginglggnnjhihm rjfqminnjkjlmnoihgh o 
  1
 nqlkknofhklgfmmokl rioqofhgohnhnjigjhi o 
  1
 nqijgnojnlffikjokg rioqgkoiijmmgokllkf o 
  1
 mqmmkohijikjigoogj rinqmljgjmkgoinih o 
  1
 mqgiokojjjnnnjoflm rinqkmhkfnmoifiknlj o 
  1
 lqjmhlkjofloohhlgg rinqkkgmjmnhhhohini o 
  1
 kqohgnfimkklllmfgi rinqlohgmijhjimfkoi o 
  1
 kqkiikgnkknjhfmnfl rinqofknhijgkgllill o 
  1
 kqhgnhnnifmgkmnmmg rioqgngmoiomhiihjkl o 
  1
 jqonhfjiimijmjjnhj rioqlhhlmfjnjoiknim o 
  1
 jqnfnhhfmojgknnon rjfqhjhfihmgijkiolk o 
  1
 jqlmfjlnhofiligjlj rjfqoikhfjlifmjmgfm o 
  1
 jqmmgmogmfomkjjokj rjgqllgggimnjngglmj o 
  1
 kqfhiiifjknjlfkhfl rjhqhofimmllljnfkim o 
  1
 kqikjofnllhghjnjhf rjhqnohfhlliojklfml o 
  1
 kqnnmgmihinjhnfiij rjiqhgnfgnmkolfjhii o 
  1
 lqimogllihklkgklmk rjiqiiijlllfglfikfi o 
  1
 lqlmjhmmfgnhjhkjnm rjiqihofknifkhhhknm o 
  1
 lqmofgjkogoijlhiff rjiqihmihmjngojfohl o 
  1
 o 
  1
 1*33@,*-9><: 
  1
 1*33@,*-9><: 
  1
 1*33=, 
  1
 1*33=, 
  1
 V V 
  1
 o 
  1
 o 
  3
 mn oqkoojgnkjmnohkngg oqhmihiglnghjgffgin nqojhklkhohmkfhol nqklknomhhhhofhofh nqgoifmlifgglhonh mqljmfhomjhfinmnjn mqhnlhonofgokhfhml mqfgjifgglmmmggjih lqljjojkfjnhjoihji lqiffhngmihljfiggf lqfhllnfokkkifnlfj kqnfhlimgmimnjgnhi kqljfofhlmhgfkhkg kqjfkh
  1
ggnfmglimhhf kqfllohoihkgffhinh jqlmjlmjimoogggkon jqiklmikikjnoglgmn iqonjoofjlkgojjgji iqlkmfomgffhhgnjij iqikfhmnlikhffhogm iqfngojijnjjghhmfg 
  1
 Y n Y o " V V |
  1
/061+ {rn lqmofgjkogoijlhiff rjiqihmihmjngojfohl o |
  0
REGION
  5
2B4
330
1F
100
AcDbEntity
  8
5
100
AcDbModelerGeometry
 70
     1
  1
koo nn n o          
  1
h J1410(1 nl ^ \VL kqoqm QK mk Y-6 Y:= on ogemnekh moog 
  1
rn fqfffffffffffffffj:rooh n:rono 
  1
=0;& {rn {n {rn {rn |
  1
3*2/ {rn {rn {m {o |
  1
,7:33 {rn {rn {rn {l {rn {n |
  1
9><: {rn {rn {k {m {rn {j 90-(>-; ;0*=3: 0*+ |
  1
300/ {rn {rn {i {l |
  1
/3>1:r,*-9><: {rn lqmmljjflgkokkihig rjfqoiholoofihnkkkh o o o n n o o 90-(>-;@) V V V V |
  1
<0:;8: {rn {i {i {rn {h 90-(>-; {k {rn |
  1
:;8: {rn {g {g {i {f 90-(>-; |
  1
):-+:' {rn {h {no |
  1
61+<*-):r<*-): {rn 90-(>-; $ :'><+<*- 1*=, l <30,:; mg 
  1
 o l oqjmgoifhjffkokifih n oqflmofglijffhhnlml n nqloihiinnoohnkhhg n nqhiljkmjkiinmjogl n 
  1
 mqnnnognoonkmogkkg n mqjillgijfimjkjnik n lqoflnkgomngmkggl n lqjiofnfmlfomimlli n lqfhkfokkklhhjkhig n 
  1
 kqmmmiimiinffogokn n kqimoijkgflgjimkgi n jqnhnhjmjiknoghohf n jqgjhnohgjlmjimmmm n iqmifnifjjikfnhhif n 
  1
 iqinofhklnkknfofok n hqojhfikfhomnjoklj n hqkjfhiggmgmmilljf n hqflgljnffjgoflgkm n gqlkmoookkglnihffl n 
  1
 gqjgkiohmfjkmmgjfi n fqnjglfmnhjohhikfk n fqijimfofkfkhflmmn n noqnoogkffjggjfkfl n noqjokghfmojlgjmoi n 
  1
 noqgklkglgogmlgfkh n nnqoiggghmhoijglhi n nnqhjkmognioiokmgh l 
  1
 mqjnkgignfmiohnlf rjjqlghlmgommkflnli o 
  1
 mqnhookkfgjhkjmmnl rjjqkijhfofknfnfon o 
  1
 nqjinlfjfjkhhngjlh rjjqiokmgimomkimghl o 
  1
 oqhfggnkkihgihgmgnh rjiqoikghllkgjlfgim o 
  1
 oqmhfmnhhhhiknfhkgi rjiqhninjljkoimmnhl o 
  1
 roqnoomlhfjkknjmilng rjhqkoinigkinjkkin o 
  1
 roqlfmmkkhhfgjffflmf rjgqnfgjiffinijhhfi o 
  1
 roqkinojfogmhiihmlg rjfqoggmnhojfmiknlf o 
  1
 roqkmnlhgliklhimoff rioqoijlnmmmonnlonj o 
  1
 roqojhhlflhgfkninfnhf rioqfkgnjkmjhjggkkm o 
  1
 oqlhhmijnfgnofojhji rinqjhljlkffjkmnlfh o 
  1
 oqfnjfjhomolfgmjmjj rimqolkokklnlmlmngh o 
  1
 nqjgkfgokogjnhkmkm rimqkgnonlffffhjgon o 
  1
 mqijjhfoimgknkhilk rimqhhoikliighfhghk o 
  1
 lqhilijkjiofjmfklj rimqhgmnhofhflhlkok o 
  1
 kqhnjojmlkikmiklmj rimqjhkkjkhfhgjhfmj o 
  1
 jqkojhjknhkomimffn rimqnimlnjkhflfhjfn o 
  1
 iqoimgjlgnhifhmomf rinqifikoofjfnjjjk o 
  1
 iqjllgjlkohgfkohnn rioqfmggjlnokkgimmm o 
  1
 iqglnnfgjmkofkkngm rioqnmnkiflklgkjmil o 
  1
 iqflkfgfkhjnihnmgi rjfqlhlmhmhggnjljnk o 
  1
 iqfljogjjnmnjhjhoj rjgqjjfhofnnnlfmfm o 
  1
 iqhgnohijnmnffiokm rjhqigmhmfgifgognmg o 
  1
 iqlogjjnkljmfgojih rjiqhhkhmonihokjjgh o 
  1
 jqhomhgkgjkjgoihoj rjiqoffojfnjkjnfkof o 
  1
 jqommifjmnnfgnkffi rjjqihmnilmmfhmlgj o 
  1
 kqkolhkhjlmlkhiiji rjjqkhgjlilmmngnmnl o 
  1
 lqjgkgfgnfllhgmjnn rjjqlnlniilgfhkimkl o 
  1
 mqfhklmjolgnillmgg rjjqljjkglffomjmllg o 
  1
 mqjnkgignfmiohnlf rjjqlghlmgommkflnli o 
  1
 o 
  1
 1*33@,*-9><: 
  1
 1*33@,*-9><: 
  1
 1*33=, 
  1
 1*33=, 
  1
 V V 
  1
 o 
  1
 o 
  3
 mi oqjmgoifhjffkokifih oqflmofglijffhhnlml nqloihiinnoohnkhhg nqhiljkmjkiinmjogl mqnnnognoonkmogkkg mqjillgijfimjkjnik lqoflnkgomngmkggl lqjiofnfmlfomimlli lqfhkfokkklhhjkhig kqmmmiimiinffogokn kqimoijkgflgjimkgi jqnhnhjmjiknoghohf jqgjhnohgjlmjimmmm iqm
  1
ifnifjjikfnhhif iqinofhklnkknfofok hqojhfikfhomnjoklj hqkjfhiggmgmmilljf hqflgljnffjgoflgkm gqlkmoookkglnihffl gqjgkiohmfjkmmgjfi fqnjglfmnhjohhikfk fqijimfofkfkhflmmn noqnoogkffjggjfkfl noqjokghfmojlgjmoi noqgklkglgogmlgfkh nnqoiggghmhoijglhi 
  1
 Y n Y o " V V |
  1
/061+ {rn mqjnkgignfmiohnlf rjjqlghlmgommkflnli o |
  0
REGION
  5
2B5
330
1F
100
AcDbEntity
  8
5
100
AcDbModelerGeometry
 70
     1
  1
koo nn n o          
  1
h J1410(1 nl ^ \VL kqoqm QK mk Y-6 Y:= on ogemnekh moog 
  1
rn fqfffffffffffffffj:rooh n:rono 
  1
=0;& {rn {n {rn {rn |
  1
3*2/ {rn {rn {m {o |
  1
,7:33 {rn {rn {rn {l {rn {n |
  1
9><: {rn {rn {k {m {rn {j 90-(>-; ;0*=3: 0*+ |
  1
300/ {rn {rn {i {l |
  1
/3>1:r,*-9><: {rn rjqofiionjonnfkjgkm rjfqolooihoknjmifm o o o n n o o 90-(>-;@) V V V V |
  1
<0:;8: {rn {i {i {rn {h 90-(>-; {k {rn |
  1
:;8: {rn {g {g {i {f 90-(>-; |
  1
):-+:' {rn {h {no |
  1
61+<*-):r<*-): {rn 90-(>-; $ :'><+<*- 1*=, l <30,:; ml 
  1
 o l oqkoojgnkjmnohkngg n oqhmihiglnghjgffgin n nqojhklkhohmkfhol n nqklknomhhhhofhofh n 
  1
 nqgoifmlifgglhonh n mqljmfhomjhfinmnjn n mqhnlhonofgokhfhml n mqfgjifgglmmmggjih n lqljjojkfjnhjoihji n 
  1
 lqiffhngmihljfiggf n lqfhllnfokkkifnlfj n kqnfhlimgmimnjgnhi n kqljfofhlmhgfkhkg n kqjfkhggnfmglimhhf n 
  1
 kqfllohoihkgffhinh n jqlmjlmjimoogggkon n jqiklmikikjnoglgmn n iqonjoofjlkgojjgji n iqlkmfomgffhhgnjij n 
  1
 iqikfhmnlikhffhogm n iqfngojijnjjghhmfg n hqofnjnggkhoiliojh l 
  1
 rjqnnjkfognmmifhfhj rjiqihmihmjngojfohl o 
  1
 rjqlgmlmlojfnimnokn rjiqifkfjmkmnomoji o 
  1
 rjqgiiklmkongmffnnm rjiqhljlhkkgnlllhli o 
  1
 riqjmiilgkjlogmlkni rjhqohjolhonfnkgjn o 
  1
 riqgkfnollilgggning rjhqhnkoommflnhjoff o 
  1
 rhqokhijmkimnllhgl rjgqlfglfommnkjffm o 
  1
 rhqmmihmijokgohgoom rjfqminnjkjlmnoihgh o 
  1
 riqfgnmljnkfolnliln rioqofhgohnhnjigjhi o 
  1
 riqiihmlfhjmfjfoimi rioqgkoiijmmgokllkf o 
  1
 riqnonmiglmgljjjjgf rinqmljgjmkgoinih o 
  1
 rjqkikflflkngogkhkm rinqkmhkfnmoifiknlj o 
  1
 rkqhfhfffhfffnjgmgi rinqkkgmjmnhhhohini o 
  1
 rkqmkhnkgikgjfomigh rinqlohgmijhjimfkoi o 
  1
 rlqgjggilkjnlkklkgn rinqofknhijgkgllill o 
  1
 rlqjklillmooognkkki rioqgngmoiomhiihjkl o 
  1
 rlqlohlggmiilfgokfg rioqlhhlmfjnjoiknim o 
  1
 rlqnlljijighogmkiik rjfqhjhfihmgijkiolk o 
  1
 rmqffjgnlnglmgihnlf rjfqoikhfjlifmjmgfm o 
  1
 rlqofhnliiomihgoimf rjgqllgggimnjngglmj o 
  1
 rlqlkgihjljnlgkoggn rjhqhofimmllljnfkim o 
  1
 rlqigomjljjjokgkofj rjhqnohfhlliojklfml o 
  1
 rkqmnmjngnlnljnioof rjiqhgnfgnmkolfjhii o 
  1
 rkqhokjnnmngjhjnlj rjiqiiijlllfglfikfi o 
  1
 rkqfffimnfnnniinnim rjiqihofknifkhhhknm o 
  1
 rjqnnjkfognmmifhfhj rjiqihmihmjngojfohl o 
  1
 o 
  1
 1*33@,*-9><: 
  1
 1*33@,*-9><: 
  1
 1*33=, 
  1
 1*33=, 
  1
 V V 
  1
 o 
  1
 o 
  3
 mn oqkoojgnkjmnohkngg oqhmihiglnghjgffgin nqojhklkhohmkfhol nqklknomhhhhofhofh nqgoifmlifgglhonh mqljmfhomjhfinmnjn mqhnlhonofgokhfhml mqfgjifgglmmmggjih lqljjojkfjnhjoihji lqiffhngmihljfiggf lqfhllnfokkkifnlfj kqnfhlimgmimnjgnhi kqljfofhlmhgfkhkg kqjfkh
  1
ggnfmglimhhf kqfllohoihkgffhinh jqlmjlmjimoogggkon jqiklmikikjnoglgmn iqonjoofjlkgojjgji iqlkmfomgffhhgnjij iqikfhmnlikhffhogm iqfngojijnjjghhmfg 
  1
 Y n Y o " V V |
  1
/061+ {rn rjqnnjkfognmmifhfhj rjiqihmihmjngojfohl o |
  0
REGION
  5
2B6
330
1F
100
AcDbEntity
  8
5
100
AcDbModelerGeometry
 70
     1
  1
koo nn n o          
  1
h J1410(1 nl ^ \VL kqoqm QK mk Y-6 Y:= on ogemnekh moog 
  1
rn fqfffffffffffffffj:rooh n:rono 
  1
=0;& {rn {n {rn {rn |
  1
3*2/ {rn {rn {m {o |
  1
,7:33 {rn {rn {rn {l {rn {n |
  1
9><: {rn {rn {k {m {rn {j 90-(>-; ;0*=3: 0*+ |
  1
300/ {rn {rn {i {l |
  1
/3>1:r,*-9><: {rn rjqnonhgjjogghggfoi rjfqoiholoofihnkkkh o o o n n o o 90-(>-;@) V V V V |
  1
<0:;8: {rn {i {i {rn {h 90-(>-; {k {rn |
  1
:;8: {rn {g {g {i {f 90-(>-; |
  1
):-+:' {rn {h {no |
  1
61+<*-):r<*-): {rn 90-(>-; $ :'><+<*- 1*=, l <30,:; mg 
  1
 o l oqjmgoifhjffkokifih n oqflmofglijffhhnlml n nqloihiinnoohnkhhg n nqhiljkmjkiinmjogl n 
  1
 mqnnnognoonkmogkkg n mqjillgijfimjkjnik n lqoflnkgomngmkggl n lqjiofnfmlfomimlli n lqfhkfokkklhhjkhig n 
  1
 kqmmmiimiinffogokn n kqimoijkgflgjimkgi n jqnhnhjmjiknoghohf n jqgjhnohgjlmjimmmm n iqmifnifjjikfnhhif n 
  1
 iqinofhklnkknfofok n hqojhfikfhomnjoklj n hqkjfhiggmgmmilljf n hqflgljnffjgoflgkm n gqlkmoookkglnihffl n 
  1
 gqjgkiohmfjkmmgjfi n fqnjglfmnhjohhikfk n fqijimfofkfkhflmmn n noqnoogkffjggjfkfl n noqjokghfmojlgjmoi n 
  1
 noqgklkglgogmlgfkh n nnqoiggghmhoijglhi n nnqhjkmognioiokmgh l 
  1
 rjqgnokhihoolnikmgk rjjqlghlmgommkflnli o 
  1
 riqnjjmfffohnhglkin rjjqkijhfofknfnfon o 
  1
 riqhilfkgflgnjnhnlh rjjqiokmgimomkimghl o 
  1
 rhqjmijlokmjojjhlfm rjiqoikghllkgjlfgim o 
  1
 rgqokinmhnnjmgnjfmj rjiqhninjljkoimmnhl o 
  1
 rgqkmjjgmgkhllggloi rjhqkoinigkinjkkin o 
  1
 rgqhnhjgfihmhgljioh rjgqnfgjiffinijhhfi o 
  1
 rgqhgikolfhjifomfnm rjfqoggmnhojfmiknlf o 
  1
 rgqhkihmlmjhmffhhhl rioqoijlnmmmonnlonj o 
  1
 rgqlglogkmhngijngii rioqfkgnjkmjhjggkkm o 
  1
 rhqfkgohfifkgnkjofg rinqjhljlkffjkmnlfh o 
  1
 rhqkoflghghmjmjlnkg rimqolkokklnlmlmngh o 
  1
 riqhkolikkgkkoinklm rimqkgnonlffffhjgon o 
  1
 rjqiifjjkmikjoggok rimqhhoikliighfhghk o 
  1
 rkqjinifollnfhoimlf rimqhgmnhofhflhlkok o 
  1
 rlqinomfmjkikfhnlkf rimqjhkkjkhfhgjhfmj o 
  1
 rmqfnfjfohnggfhmigl rimqnimlnjkhflfhjfn o 
  1
 rmqmimkfnohjmmilikj rinqifikoofjfnjjjk o 
  1
 rnqhfnkfnkgjomfkfil rioqfmggjlnokkgimmm o 
  1
 rnqkfknkiliggmfnkfm rioqnmnkiflklgkjmil o 
  1
 rnqlfoljjknhhjiklgg rjfqlhlmhmhggnjljnk o 
  1
 rnqlfomjflgohijffif rjgqjjfhofnnnlfmfm o 
  1
 rnqjkkmiglgohmlfilm rjhqigmhmfgifgognmg o 
  1
 rmqonihflkjhimjjnoh rjiqhhkhmonihokjjgh o 
  1
 rmqimmjioolglkmgfif rjiqoffojfnjkjnfkof o 
  1
 rlqlomikfigofkmoihg rjjqihmnilmmfhmlgj o 
  1
 rlqfmnjfhliojhjfong rjjqkhgjlilmmngnmnl o 
  1
 rkqhkokkiiffjkjlnil rjjqlnlniilgfhkimkl o 
  1
 rjqljnonfgjkhiomlgi rjjqljjkglffomjmllg o 
  1
 rjqgnokhihoolnikmgk rjjqlghlmgommkflnli o 
  1
 o 
  1
 1*33@,*-9><: 
  1
 1*33@,*-9><: 
  1
 1*33=, 
  1
 1*33=, 
  1
 V V 
  1
 o 
  1
 o 
  3
 mi oqjmgoifhjffkokifih oqflmofglijffhhnlml nqloihiinnoohnkhhg nqhiljkmjkiinmjogl mqnnnognoonkmogkkg mqjillgijfimjkjnik lqoflnkgomngmkggl lqjiofnfmlfomimlli lqfhkfokkklhhjkhig kqmmmiimiinffogokn kqimoijkgflgjimkgi jqnhnhjmjiknoghohf jqgjhnohgjlmjimmmm iqm
  1
ifnifjjikfnhhif iqinofhklnkknfofok hqojhfikfhomnjoklj hqkjfhiggmgmmilljf hqflgljnffjgoflgkm gqlkmoookkglnihffl gqjgkiohmfjkmmgjfi fqnjglfmnhjohhikfk fqijimfofkfkhflmmn noqnoogkffjggjfkfl noqjokghfmojlgjmoi noqgklkglgogmlgfkh nnqoiggghmhoijglhi 
  1
 Y n Y o " V V |
  1
/061+ {rn rjqgnokhihoolnikmgk rjjqlghlmgommkflnli o |
  0
REGION
  5
2B7
330
1F
100
AcDbEntity
  8
5
100
AcDbModelerGeometry
 70
     1
  1
koo ki n o          
  1
h J1410(1 nl ^ \VL kqoqm QK mk Y-6 Y:= on ogemnekh moog 
  1
rn fqfffffffffffffffj:rooh n:rono 
  1
=0;& {rn {n {rn {rn |
  1
3*2/ {rn {rn {m {o |
  1
,7:33 {rn {rn {rn {l {rn {n |
  1
9><: {rn {rn {k {m {rn {j 90-(>-; ;0*=3: 0*+ |
  1
300/ {rn {rn {i {l |
  1
/3>1:r,*-9><: {rn rnmqjifmohmkfijngig rjhqggnkilmhmmmjhkk o o o n n o o 90-(>-;@) V V V V |
  1
<0:;8: {rn {h {g {rn {f -:):-,:; {k {rn |
  1
<0:;8: {rn {no {i {rn {nn -:):-,:; {k {rn |
  1
<0:;8: {rn {i {nm {rn {nl -:):-,:; {k {rn |
  1
:;8: {rn {nk {nj {i {ni 90-(>-; |
  1
<0:;8: {rn {nh {h {rn {ng -:):-,:; {k {rn |
  1
:;8: {rn {nf {nk {h {mo 90-(>-; |
  1
<0:;8: {rn {g {mn {rn {mm -:):-,:; {k {rn |
  1
:;8: {rn {nj {ml {g {mk 90-(>-; |
  1
):-+:' {rn {f {mj |
  1
):-+:' {rn {f {mi |
  1
,+->687+r<*-): {rn rnjqilijmlnkkigogfl rjjqklkjhnkokmognjh o n o o V V |
  1
<0:;8: {rn {mh {no {rn {mg -:):-,:; {k {rn |
  1
:;8: {rn {mf {nf {no {lo 90-(>-; |
  1
):-+:' {rn {ng {ln |
  1
,+->687+r<*-): {rn rnjqilijmlnkkigogfl rjiqhmnlgllgojlhfmf o o n o V V |
  1
<0:;8: {rn {nm {mh {rn {lm -:):-,:; {k {rn |
  1
:;8: {rn {ml {ll {nm {lk 90-(>-; |
  1
):-+:' {rn {nl {lj |
  1
,+->687+r<*-): {rn rfqkllimnmgkmljgnml rjjqklkjhnkokmognjh o o rn o V V |
  1
/061+ {rn rnjqilijmlnkkigogfl rjjqklkjhnkokmognjh o |
  1
/061+ {rn rfqkllimnmgkmljgnml rjjqklkjhnkokmognjh o |
  1
<0:;8: {rn {mn {nh {rn {li -:):-,:; {k {rn |
  1
:;8: {rn {lh {mf {nh {lg 90-(>-; |
  1
):-+:' {rn {mg {lf |
  1
,+->687+r<*-): {rn rnlqkjngjmnfjijoli rjiqhmnlgllgojlhfmf o rn o o V V |
  1
/061+ {rn rnjqilijmlnkkigogfl rjiqhmnlgllgojlhfmf o |
  1
:;8: {rn {ll {ko {mn {kn 90-(>-; |
  1
):-+:' {rn {mm {km |
  1
,+->687+r<*-): {rn rfqkllimnmgkmljgnml rjiqhmnlgllgojlhfmf o rn o o V V |
  1
/061+ {rn rfqkllimnmgkmljgnml rjiqhmnlgllgojlhfmf o |
  1
:;8: {rn {ko {lh {mh {kl 90-(>-; |
  1
):-+:' {rn {li {kk |
  1
,+->687+r<*-): {rn rnlqkjngjmnfjijoli rimqikgjnkfmlingfin o o n o V V |
  1
/061+ {rn rnlqkjngjmnfjijoli rjiqhmnlgllgojlhfmf o |
  1
):-+:' {rn {lm {kj |
  1
,+->687+r<*-): {rn rnnqhjkglmlhkokokok rjiqhmnlgllgojlhfmf o o rn o V V |
  1
/061+ {rn rnnqhjkglmlhkokokok rjiqhmnlgllgojlhfmf o |
  1
,+->687+r<*-): {rn rnnqhjkglmlhkokokok rimqikgjnkfmlingfin o rn o o V V |
  1
/061+ {rn rnlqkjngjmnfjijoli rimqikgjnkfmlingfin o |
  1
/061+ {rn rnnqhjkglmlhkokokok rimqikgjnkfmlingfin o |
  0
REGION
  5
2B8
330
1F
100
AcDbEntity
  8
5
100
AcDbModelerGeometry
 70
     1
  1
koo li n o          
  1
h J1410(1 nl ^ \VL kqoqm QK mk Y-6 Y:= on ogemnekh moog 
  1
rn fqfffffffffffffffj:rooh n:rono 
  1
=0;& {rn {n {rn {rn |
  1
3*2/ {rn {rn {m {o |
  1
,7:33 {rn {rn {rn {l {rn {n |
  1
9><: {rn {rn {k {m {rn {j -:):-,:; ;0*=3: 0*+ |
  1
300/ {rn {rn {i {l |
  1
/3>1:r,*-9><: {rn noqjknkmhnjinlnfol rjfqgnjikiifgoojjlh o o o rn rn o o 90-(>-;@) V V V V |
  1
<0:;8: {rn {h {g {rn {f 90-(>-; {k {rn |
  1
<0:;8: {rn {no {i {rn {nn 90-(>-; {k {rn |
  1
<0:;8: {rn {i {nm {rn {nl 90-(>-; {k {rn |
  1
:;8: {rn {nk {nj {i {ni 90-(>-; |
  1
<0:;8: {rn {nh {h {rn {ng 90-(>-; {k {rn |
  1
:;8: {rn {nj {nf {h {mo 90-(>-; |
  1
<0:;8: {rn {g {nh {rn {mn 90-(>-; {k {rn |
  1
:;8: {rn {mm {nk {g {ml 90-(>-; |
  1
):-+:' {rn {f {mk |
  1
):-+:' {rn {f {mj |
  1
,+->687+r<*-): {rn gqmkhljmonjlnoljj rjjqkkoniomlhgnhhfl o o rn o V V |
  1
<0:;8: {rn {nm {no {rn {mi 90-(>-; {k {rn |
  1
:;8: {rn {nf {mh {no {mg 90-(>-; |
  1
):-+:' {rn {nn {mf |
  1
,+->687+r<*-): {rn gqmkhljmonjlnoljj rimqijmiflkilimhgmh o n o o V V |
  1
:;8: {rn {lo {mm {nm {ln 90-(>-; |
  1
):-+:' {rn {mn {lm |
  1
,+->687+r<*-): {rn fqgkjonnfhlgjmognm rjjqkkoniomlhgnhhfl o rn o o V V |
  1
/061+ {rn gqmkhljmonjlnoljj rjjqkkoniomlhgnhhfl o |
  1
/061+ {rn gqmkhljmonjlnoljj rimqijmiflkilimhgmh o |
  1
:;8: {rn {mh {lo {nh {ll 90-(>-; |
  1
):-+:' {rn {ng {lk |
  1
,+->687+r<*-): {rn nlqjlnfnhkhfmlll rimqijmiflkilimhgmh o o n o V V |
  1
/061+ {rn nlqjlnfnhkhfmlll rimqijmiflkilimhgmh o |
  1
):-+:' {rn {mi {lj |
  1
,+->687+r<*-): {rn fqgkjonnfhlgjmognm rinqljkogilfmjhoffn o o n o V V |
  1
/061+ {rn fqgkjonnfhlgjmognm rjjqkkoniomlhgnhhfl o |
  1
,+->687+r<*-): {rn nlqjlnfnhkhfmlll rinqljkogilfmjhoffn o rn o o V V |
  1
/061+ {rn nlqjlnfnhkhfmlll rinqljkogilfmjhoffn o |
  1
/061+ {rn fqgkjonnfhlgjmognm rinqljkogilfmjhoffn o |
  0
REGION
  5
2B9
330
1F
100
AcDbEntity
  8
5
100
AcDbModelerGeometry
 70
     1
  1
koo mi n o          
  1
h J1410(1 nl ^ \VL kqoqm QK mk Y-6 Y:= on ogemnekh moog 
  1
rn fqfffffffffffffffj:rooh n:rono 
  1
=0;& {rn {n {rn {rn |
  1
3*2/ {rn {rn {m {o |
  1
,7:33 {rn {rn {rn {l {rn {n |
  1
9><: {rn {rn {k {m {rn {j 90-(>-; ;0*=3: 0*+ |
  1
300/ {rn {rn {i {l |
  1
/3>1:r,*-9><: {rn nhqnjfhmgokmmoglhn rjfqomfnmgnggofgggn o o o n n o o 90-(>-;@) V V V V |
  1
<0:;8: {rn {h {g {rn {f 90-(>-; {k {rn |
  1
<0:;8: {rn {no {i {rn {nn 90-(>-; {k {rn |
  1
<0:;8: {rn {i {no {rn {nm 90-(>-; {k {rn |
  1
:;8: {rn {nl {nk {i {nj 90-(>-; |
  1
<0:;8: {rn {g {h {rn {ni -:):-,:; {k {rn |
  1
:;8: {rn {nk {nh {h {ng 90-(>-; |
  1
:;8: {rn {nf {nl {g {mo 90-(>-; |
  1
):-+:' {rn {f {mn |
  1
):-+:' {rn {f {mm |
  1
61+<*-):r<*-): {rn 90-(>-; $ :'><+<*- 1*=, l 0/:1 mg 
  1
 o l oqlfigjomnhmmhnoggk n oqhmihgjfojjnjijimj n nqongknlhimogofofh n nqmhjijkomimihfkmn n 
  1
 nqjjhhfooifjkllfmm n nqginnnojigjoifhom n mqjkkgnlhjikjngfjl n mqgnmoofmlhlingolh n lqokfffiohonmmmllj n 
  1
 lqlloonlmhgjlffngk n lqjhjiljhgilhmngkg n lqflkijnjffnhfgkfk n kqklfnimomimokiofi n kqihhohhmgmkfjfon n 
  1
 kqfjglhmkoiilonmjg n jqlmoknigoglljkill n jqijoooimimfnhomng n iqnnmooijfhfmfnkjk n iqillkinjnnhkjhlfi n 
  1
 iqfknhinkfmmgkfnmf n hqmokikooliljffifi n hqkfmhhkhgfkhifngl n hqhnffflnfkkoglkjn n gqmmhonmnijoikjmjg n 
  1
 gqhgfgkommjlomnifh n fqnlnohigkhjkjhkmm n fqlggifigilfmffjgm l 
  1
 moqogmkfggnnggjj rjhqhnfjmgnmifojigi o 
  1
 moqofoghknhkfhhj rjhqkkfognjhlnnjikf o 
  1
 moqnoimnmifhnlnhjl rjiqfjlhgfjjghjkfhh o 
  1
 nfqhjkiokfokookjof rjiqljnlgjglnoklmhk o 
  1
 nfqlijgfhlojikfgn rjjqgfhgjnglhjllmih o 
  1
 ngqgkfokflhiofjnlg rjjqihholnkkonnoigm o 
  1
 ngqlkmlnkfklgooggi rjjqkmfglllhhiihff o 
  1
 nhqkfinkhfjnmnhklg rjjqlnmoiiijlffifog o 
  1
 niqijlgoiiinlfmkml rjjqmfilkimjlhhogkf o 
  1
 njqghklkhliikifgoi rjjqkinhhhhnlgmhjl o 
  1
 njqlfnfgglnomjnnmm rjjqihhjllmjlilgjjg o 
  1
 nkqfgihkoggknfikmm rjjqfghojhjjogglnjn o 
  1
 nkqjllnmgmmkiffjih rjiqlhllihniifkflj o 
  1
 nkqmoikmfnhjghgfjm rjhqojghjmfoffnhjl o 
  1
 nkqnilgihlkhhlifgm rjhqgljgjloomnjmlim o 
  1
 nkqkjflhkhohfjmifn rjgqkjgghkjmkkhmjm o 
  1
 nkqgmfokjfjkofgolj rjgqflnkfhigliklohl o 
  1
 njqkmhjomhhfjihkhi rjfqmngmhijjofjoolh o 
  1
 niqnkkljmimgmnmnng rjfqkggfonofkginggh o 
  1
 nhqoofjlfljihfhlkh rjfqiiiifnmfoohknkn o 
  1
 nhqgkilnfnnggkinig rjfqhfmnohflimkoffi o 
  1
 ngqjiimigkkmlijgnn rioqohfhfllhhnjhmni o 
  1
 ngqhflffgjfoinigii rioqijfmogfoolfojmk o 
  1
 ngqinfhkioffghimfj rinqmmnhmmgonlmgjmj o 
  1
 nhqfjkfinmnmhmjfkg rinqkfhhfilmiohgool o 
  1
 nhqnnmjfnlmjifmnog rinqjhgomlhjknngmm o 
  1
 niqofohginfnoffhih rinqklonmkniokhmfmg o 
  1
 njqiljljfomlnhjnnl rioqhmgoioifjflknng o 
  1
 njqjfjnknmglllfni rioqlmfkofkimhmhogj o 
  1
 njqjhhgkonjimhflij rioqnjhfnjnooimhgok o 
  1
 o 
  1
 1*33@,*-9><: 
  1
 1*33@,*-9><: 
  1
 1*33=, 
  1
 1*33=, 
  1
 V V 
  1
 o 
  1
 o 
  3
 mi oqlfigjomnhmmhnoggk oqhmihgjfojjnjijimj nqongknlhimogofofh nqmhjijkomimihfkmn nqjjhhfooifjkllfmm nqginnnojigjoifhom mqjkkgnlhjikjngfjl mqgnmoofmlhlingolh lqokfffiohonmmmllj lqlloonlmhgjlffngk lqjhjiljhgilhmngkg lqflkijnjffnhfgkfk kqklfnimomimokiofi kq
  1
ihhohhmgmkfjfon kqfjglhmkoiilonmjg jqlmoknigoglljkill jqijoooimimfnhomng iqnnmooijfhfmfnkjk iqillkinjnnhkjhlfi iqfknhinkfmmgkfnmf hqmokikooliljffifi hqkfmhhkhgfkhifngl hqhnffflnfkkoglkjn gqmmhonmnijoikjmjg gqhgfgkommjlomnifh fqnlnohigkhjkjhkmm 
  1
 Y n Y o " V V |
  1
:;8: {rn {nf {nh {no {ml 90-(>-; |
  1
):-+:' {rn {nn {mk |
  1
,+->687+r<*-): {rn njqjhhgkonjimhflij rioqnjhfnjnooimhgok o roqffffffnohkimjmnfi roqoonllioiiihkhngjfkh o V V |
  1
):-+:' {rn {ni {mj |
  1
,+->687+r<*-): {rn ngqjonllkgfmlgioif rjhqhnhglkgojlnognj o oqffffffkmijjnoghjl roqoonohoflloomjjmgofg o V V |
  1
/061+ {rn moqogmkfggnnggjj rjhqhnfjmgnmifojigi o |
  1
/061+ {rn njqjhhgkonjimhflij rioqnjhfnjnooimhgok o |
  1
61+<*-):r<*-): {rn 90-(>-; $ :'><+<*- 1*=, l 0/:1 mk 
  1
 o l oqligokiljfljmjmjj n oqikiffjgmifofigklg n nqoigjglohkoojklhk n nqiohihjljnioiinng n 
  1
 nqfhmmojknmiffgfof n mqnfkhjgmkmhhogjlf n mqioinmmijimmmlmmg n lqnlhnlfiiikkokmkj n lqifnmlfgjmonggmhk n 
  1
 kqokoilfionkiiffnk n kqlffkggihjloikjmk n kqgnjjkihfkomhonmj n jqljoknhiinlnnjjjf n jqgnogkngnofmjifjk n 
  1
 iqmmhnfffmkgnlkoni n iqinkmilhmmmoihgkk n hqkgfigmoofjhoomml n hqgihgfiogmnmng n gqmjlnglnofmnkimnl n 
  1
 gqjjhhkmomokmlmfin n gqhimgololoifolglj n fqnknnhijkkiknoojg n fqmjiilgghlkomkimn l 
  1
 ngqjonllkgfmlgioif rjhqhnhglkgojlnognj o 
  1
 ngqkhjkgglgjnmmnoj rjhqkjfinlinmgnoonh o 
  1
 ngqkloojmlofnimfgg rjhqoojignjhkgkngkk o 
  1
 nhqhhlilfijoongomi rjiqjgmnnfmohlmgjol o 
  1
 niqfgmhjjhkmiooggh rjiqjknllmohhffjiim o 
  1
 njqgffofjfjfnimomj rjiqjhjmnngnoghhgng o 
  1
 njqhhfjmohlhhkijii rjhqjmimkhlgiklohmj o 
  1
 niqmgjlioollfghokh rjgqommknignlkkolni o 
  1
 nhqoggiohikifnlfkl rjgqnogllfmginonlfg o 
  1
 ngqokjinjfknmjiljg rjgqlknmihgojkgiilg o 
  1
 ngqffljfmhlhlkgjli rjgqjlgmhlhfhfjofmm o 
  1
 nfqhlnhgogkihgjjnm rjgqfinlffmjkiglmnj o 
  1
 moqmkgihhhjfliglm rjfqjlgfjjhihiihnkh o 
  1
 moqkljmnkljfifhimj rioqkngohjmgllnoijh o 
  1
 moqmfghnjmoohfhigh rinqlfjmmkjggnghjhk o 
  1
 nfqilognkghggmfkmi rimqnniimigfhjmfhgk o 
  1
 ngqggkhknmngmkmgml rimqjnkhongfnfgfkgf o 
  1
 nhqgnnkmifflkfoih rimqghnmhfomlnfhknh o 
  1
 niqifoijmngiomkgil rimqhjgokljmgiiffjg o 
  1
 njqiniggjnjmkgofok rimqjimfinnkkflfmof o 
  1
 nkqfiljnfgkkfjjfjk rimqmlgngohgghmojh o 
  1
 nkqjkgmhfimlgogifi rinqgoomoklfjfhnioj o 
  1
 nkqniiinnllfolfioj rinqljglffiifgflimf o 
  1
 nkqohohnlglgiglhgh rioqhfnnmkmhljgilm o 
  1
 nkqonhghmklhjfgmnk rioqjfkknhfnikjmjmg o 
  1
 nlqffmiflkkkhnlofg rioqnioolmfikmnlfk o 
  1
 o 
  1
 1*33@,*-9><: 
  1
 1*33@,*-9><: 
  1
 1*33=, 
  1
 1*33=, 
  1
 V V 
  1
 o 
  1
 o 
  3
 mm oqligokiljfljmjmjj oqikiffjgmifofigklg nqoigjglohkoojklhk nqiohihjljnioiinng nqfhmmojknmiffgfof mqnfkhjgmkmhhogjlf mqioinmmijimmmlmmg lqnlhnlfiiikkokmkj lqifnmlfgjmonggmhk kqokoilfionkiiffnk kqlffkggihjloikjmk kqgnjjkihfkomhonmj jqljoknhiinlnnjjjf jqg
  1
nogkngnofmjifjk iqmmhnfffmkgnlkoni iqinkmilhmmmoihgkk hqkgfigmoofjhoomml hqgihgfiogmnmng gqmjlnglnofmnkimnl gqjjhhkmomokmlmfin gqhimgololoifolglj fqnknnhijkkiknoojg 
  1
 Y n Y o " V V |
  1
/061+ {rn nlqffmiflkkkhnlofg rioqnioolmfikmnlfk o |
  1
/061+ {rn ngqjonllkgfmlgioif rjhqhnhglkgojlnognj o |
  0
LINE
  5
1C25
330
1F
100
AcDbEntity
  8
3
100
AcDbLine
 10
51.64999999999998
 20
-36.07336694879998
 30
0.0
 11
79.23611009660004
 21
-46.1138899032
 31
0.0
  0
LINE
  5
1C26
330
1F
100
AcDbEntity
  8
3
100
AcDbLine
 10
80.3647765696
 20
-43.01290425459998
 30
0.0
 11
51.64999999999998
 21
-32.56158029959999
 31
0.0
  0
LINE
  5
1C28
330
1F
100
AcDbEntity
  8
1
100
AcDbLine
 10
0.5
 20
-47.0
 30
0.0
 11
78.34999999999995
 21
-47.0
 31
0.0
  0
LINE
  5
1C29
330
1F
100
AcDbEntity
  8
1
100
AcDbLine
 10
79.02905703440001
 20
47.0
 30
0.0
 11
0.5
 21
47.0
 31
0.0
  0
LINE
  5
1C2A
330
1F
100
AcDbEntity
  8
3
100
AcDbLine
 10
74.0
 20
10.5
 30
0.0
 11
0.0
 21
10.5
 31
0.0
  0
LINE
  5
1C2B
330
1F
100
AcDbEntity
  8
4
100
AcDbLine
 10
125.9999999999999
 20
0.0
 30
0.0
 11
0.0
 21
0.0
 31
0.0
  0
DIMENSION
  5
1C2C
330
1F
100
AcDbEntity
  8
2
100
AcDbDimension
  2
*D42
 10
125.9999999999999
 20
58.8458908911669
 30
0.0
 11
62.99999999999999
 21
58.8458908911669
 31
0.0
 70
   160
 42
125.9999999999999
  3
GEN-ISO_TDM
100
AcDbAlignedDimension
 13
0.0
 23
46.5
 33
0.0
 14
125.9999999999999
 24
37.14575216960003
 34
0.0
100
AcDbRotatedDimension
  0
DIMENSION
  5
1C37
330
1F
100
AcDbEntity
  8
SK2
100
AcDbDimension
  2
*D44
 10
-59.06714742528102
 20
-46.99999999999998
 30
0.0
 11
-59.06714742528101
 21
0.0
 31
0.0
 70
   160
  1
MBM %%c<>
 42
94.0
  3
GEN-ISO_TDM
100
AcDbAlignedDimension
 13
0.5
 23
47.0
 33
0.0
 14
0.5
 24
-47.0
 34
0.0
 50
90.0
100
AcDbRotatedDimension
  0
LINE
  5
1C3A
330
1F
100
AcDbEntity
  8
3
100
AcDbLine
 10
0.0
 20
-10.5
 30
0.0
 11
74.0
 21
-10.49999999999999
 31
0.0
  0
LINE
  5
1C50
330
1F
100
AcDbEntity
  8
3
100
AcDbLine
 10
51.64999999999998
 20
-42.99999999999999
 30
0.0
 11
51.64999999999998
 21
-10.5
 31
0.0
  0
LINE
  5
1C51
330
1F
100
AcDbEntity
  8
3
100
AcDbLine
 10
48.34999999999997
 20
-10.49672744059998
 30
0.0
 11
48.34999999999997
 21
-43.0
 31
0.0
  0
LINE
  5
1C70
330
1F
100
AcDbEntity
  8
3
100
AcDbLine
 10
48.34999999999997
 20
-43.0
 30
0.0
 11
51.64999999999998
 21
-43.0
 31
0.0
  0
LINE
  5
1C89
330
1F
100
AcDbEntity
  8
3
100
AcDbLine
 10
116.2706509384
 20
38.68672967539998
 30
0.0
 11
103.8729810635396
 21
15.89731792999998
 31
0.0
  0
LINE
  5
1C8A
330
1F
100
AcDbEntity
  8
3
100
AcDbLine
 10
107.6296900700785
 20
15.89731792999998
 30
0.0
 11
119.7293490614
 21
38.1389257088
 31
0.0
  0
LINE
  5
1C8B
330
1F
100
AcDbEntity
  8
3
100
AcDbLine
 10
118.6499999999999
 20
-44.35
 30
0.0
 11
118.6499999999999
 21
38.30987780600003
 31
0.0
  0
LINE
  5
1C8D
330
1F
100
AcDbEntity
  8
1
100
AcDbLine
 10
125.9999999999999
 20
37.14575216960003
 30
0.0
 11
125.9999999999999
 21
-43.5
 31
0.0
  0
LINE
  5
1C8F
330
1F
100
AcDbEntity
  8
3
100
AcDbLine
 10
88.34999999999997
 20
43.10892634780003
 30
0.0
 11
88.34999999999997
 21
-44.34999999999999
 31
0.0
  0
LINE
  5
1C92
330
1F
100
AcDbEntity
  8
3
100
AcDbLine
 10
125.9999999999999
 20
5.0
 30
0.0
 11
111.2668271685999
 21
5.0
 31
0.0
  0
LINE
  5
1C93
330
1F
100
AcDbEntity
  8
3
100
AcDbLine
 10
111.2781867655999
 20
-5.0
 30
0.0
 11
125.9999999999999
 21
-5.0
 31
0.0
  0
LINE
  5
1C94
330
1F
100
AcDbEntity
  8
3
100
AcDbLine
 10
72.64551899793397
 20
12.59731793
 30
0.0
 11
121.9999999999999
 21
12.59731793
 31
0.0
  0
LINE
  5
1CB3
330
1F
100
AcDbEntity
  8
1
100
AcDbLine
 10
125.509252271
 20
-44.34999999999999
 30
0.0
 11
81.01676666253478
 21
-44.34999999999999
 31
0.0
  0
LINE
  5
1CB9
330
1F
100
AcDbEntity
  8
3
100
AcDbLine
 10
84.33079737759999
 20
-44.34999999999999
 30
0.0
 11
80.39897858400001
 21
-42.91893499259998
 31
0.0
  0
LINE
  5
1CBF
330
1F
100
AcDbEntity
  8
3
100
AcDbLine
 10
79.23611009660004
 20
-46.1138899032
 30
0.0
 11
80.39897858400001
 21
-42.91893499259998
 31
0.0
  0
LINE
  5
1CC0
330
1F
100
AcDbEntity
  8
1
100
AcDbLine
 10
81.01676666253478
 20
-44.34999999999999
 30
0.0
 11
78.34999999999997
 21
-47.0
 31
0.0
  0
LINE
  5
1CC1
330
1F
100
AcDbEntity
  8
1
100
AcDbLine
 10
107.45
 20
-47.35103095519997
 30
0.0
 11
99.55000000000005
 21
-47.35103095519997
 31
0.0
  0
LINE
  5
1CC8
330
1F
100
AcDbEntity
  8
1
100
AcDbLine
 10
88.35000000096298
 20
-44.35
 30
0.0
 11
99.55000000000005
 21
-47.35103095519997
 31
0.0
  0
LINE
  5
1D62
330
1F
100
AcDbEntity
  8
1
100
AcDbLine
 10
107.45
 20
-47.35103095519997
 30
0.0
 11
118.6499999997132
 21
-44.34999999999999
 31
0.0
  0
LINE
  5
1DCF
330
1F
100
AcDbEntity
  8
3
100
AcDbLine
 10
121.9999999999999
 20
15.89731792999998
 30
0.0
 11
72.64999999999997
 21
15.89731792999998
 31
0.0
  0
LINE
  5
1DD0
330
1F
100
AcDbEntity
  8
3
100
AcDbLine
 10
95.72037918660004
 20
5.0
 30
0.0
 11
82.0
 21
5.0
 31
0.0
  0
LINE
  5
1DD1
330
1F
100
AcDbEntity
  8
3
100
AcDbLine
 10
82.0
 20
-5.0
 30
0.0
 11
95.72292374680001
 21
-5.0
 31
0.0
  0
LINE
  5
1DD2
330
1F
100
AcDbEntity
  8
3
100
AcDbLine
 10
80.30903649959999
 20
0.0
 30
0.0
 11
74.0
 21
10.5
 31
0.0
  0
LINE
  5
1DD3
330
1F
100
AcDbEntity
  8
3
100
AcDbLine
 10
69.34999999999996
 20
17.48967565240002
 30
0.0
 11
69.34999999999996
 21
4.27059299359999
 31
0.0
  0
LINE
  5
1DD4
330
1F
100
AcDbEntity
  8
3
100
AcDbLine
 10
72.64999999999997
 20
4.269438397600026
 30
0.0
 11
72.64296139079999
 21
17.35059494020001
 31
0.0
  0
LINE
  5
1DD5
330
1F
100
AcDbEntity
  8
3
100
AcDbLine
 10
74.0
 20
10.5
 30
0.0
 11
74.0
 21
-10.5
 31
0.0
  0
LINE
  5
1DD7
330
1F
100
AcDbEntity
  8
3
100
AcDbLine
 10
82.0
 20
-5.0
 30
0.0
 11
82.0
 21
5.0
 31
0.0
  0
LINE
  5
1DD8
330
1F
100
AcDbEntity
  8
3
100
AcDbLine
 10
78.99569690480001
 20
0.0
 30
0.0
 11
82.0
 21
-5.0
 31
0.0
  0
LINE
  5
1DD9
330
1F
100
AcDbEntity
  8
3
100
AcDbLine
 10
74.0
 20
-10.5
 30
0.0
 11
80.30903649959999
 21
0.0
 31
0.0
  0
LWPOLYLINE
  5
1DDA
330
1F
100
AcDbEntity
  8
3
100
AcDbPolyline
 90
       20
 70
   128
 43
0.0
 10
71.0
 20
2.71032463420002
 10
71.54232613319999
 20
2.799836602200002
 10
72.02345401219997
 20
3.055826003600003
 10
72.39342378840001
 20
3.4483122524
 10
72.60790590440001
 20
3.929771518200027
 10
72.64000876699999
 20
4.435727747000015
 10
72.4904825008
 20
4.907616130200011
 10
72.17604265260002
 20
5.301990853599988
 10
71.72626131160001
 20
5.581486434400005
 10
71.19299929960004
 20
5.715407953399989
 10
70.64321325499998
 20
5.691858791800001
 10
70.13640919
 20
5.516680111599981
 10
69.72202668400001
 20
5.203040916600002
 10
69.4479727236
 20
4.776330592800007
 10
69.35006125600001
 20
4.283719294800022
 10
69.43662396159999
 20
3.783358998599993
 10
69.69518588159997
 20
3.328316194600034
 10
70.1016666964
 20
2.969111516000026
 10
70.61271983000001
 20
2.7553742188
 10
71.0
 20
2.71032463420002
  0
LINE
  5
1DDB
330
1F
100
AcDbEntity
  8
3
100
AcDbLine
 10
82.0
 20
5.0
 30
0.0
 11
78.99569690480001
 21
0.0
 31
0.0
  0
LWPOLYLINE
  5
1DDF
330
1F
100
AcDbEntity
  8
3
100
AcDbPolyline
 90
       18
 70
   128
 43
0.0
 10
71.0
 20
15.98232564720001
 10
70.40395125060001
 20
16.08411363260001
 10
69.88840218780001
 20
16.3757305572
 10
69.5229805692
 20
16.81779193940002
 10
69.35703860900003
 20
17.35059494020001
 10
69.41298768859997
 20
17.9021815618
 10
69.68327157480001
 20
18.39805697460002
 10
70.13138693120004
 20
18.77125045620002
 10
70.69681329560001
 20
18.9713601592
 10
71.30318670439999
 20
18.9713601592
 10
71.86861306859999
 20
18.77125045620002
 10
72.316728425
 20
18.39805697460002
 10
72.58701231119999
 20
17.9021815618
 10
72.64296139079999
 20
17.35059494020001
 10
72.47701943060002
 20
16.81779193940002
 10
72.11159781200001
 20
16.3757305572
 10
71.59604874920001
 20
16.08411363260001
 10
71.0
 20
15.98232564720001
  0
LINE
  5
1DE0
330
1F
100
AcDbEntity
  8
1
100
AcDbLine
 10
102.0566243269999
 20
-2.5
 30
0.0
 11
100.6132486539999
 21
0.0
 31
0.0
  0
LINE
  5
1DE1
330
1F
100
AcDbEntity
  8
1
100
AcDbLine
 10
102.0566243269999
 20
2.5
 30
0.0
 11
100.6132486539999
 21
0.0
 31
0.0
  0
CIRCLE
  5
1DE2
330
1F
100
AcDbEntity
  8
1
100
AcDbCircle
 10
103.4999999999999
 20
0.0
 30
0.0
 40
4.172000000000026
  0
LWPOLYLINE
  5
1DE3
330
1F
100
AcDbEntity
  8
1
100
AcDbPolyline
 90
       20
 70
   128
 43
0.0
 10
99.55481163139992
 20
3.951236866200019
 10
100.9316628
 20
4.861161939600009
 10
102.796346024
 20
5.393772016200017
 10
104.7965118847999
 20
5.294412182000002
 10
106.6679093758
 20
4.533693778200017
 10
108.1425144818
 20
3.203795961599979
 10
109.0202330591999
 20
1.519120740200008
 10
109.2435577007999
 20
-0.2568541862000018
 10
108.8722644435999
 20
-1.935086010999981
 10
107.9754148534
 20
-3.409468577199987
 10
106.6019035707999
 20
-4.574328432599997
 10
104.8362019764
 20
-5.285568083799972
 10
102.8536941306
 20
-5.400195956999965
 10
100.909753758
 20
-4.850749423999985
 10
99.27912502060005
 20
-3.687976783200014
 10
98.19299928760001
 20
-2.089497631600011
 10
97.75982080060003
 20
-0.3170855709999785
 10
97.9465560182
 20
1.407097958799994
 10
98.67808970619998
 20
2.957862238000018
 10
99.55481161200006
 20
3.951236876200027
  0
LWPOLYLINE
  5
1DE5
330
1F
100
AcDbEntity
  8
3
100
AcDbPolyline
 90
       82
 70
   128
 43
0.0
 10
95.72037918660004
 20
5.0
 10
96.7039930474
 20
4.97073364800002
 10
97.73064593919997
 20
4.897244232800034
 10
98.80795652800006
 20
4.798506286000019
 10
99.91828954160006
 20
4.694655944400011
 10
101.0878644268
 20
4.601213380800004
 10
102.2824357963999
 20
4.537160098599997
 10
103.5132865441999
 20
4.514147212200015
 10
104.7540495402
 20
4.5385416668
 10
105.9155850256
 20
4.601450093599993
 10
107.0684754191999
 20
4.6934768216
 10
108.2201276954
 20
4.801184262600003
 10
109.3496730796
 20
4.903993448400001
 10
110.1808708073999
 20
4.964186673800014
 10
110.9925347263999
 20
4.997191847200014
 10
111.7894428512
 20
4.989813211599994
 10
112.5584829771999
 20
4.926107415800004
 10
113.4594315154
 20
4.7425666524
 10
113.8881353898
 20
4.594545628800005
 10
114.2954370027999
 20
4.402222535600003
 10
114.8674420362
 20
4.011337562400001
 10
115.3727695623999
 20
3.480859016200014
 10
115.7185450448
 20
2.941932540399989
 10
116.0000362947999
 20
2.298990816200017
 10
116.1983756985999
 20
1.599647942199993
 10
116.3230776303999
 20
0.8212754188000133
 10
116.3649288203999
 20
0.1003238790000012
 10
116.3394318499999
 20
-0.6456267273999857
 10
116.2513336863999
 20
-1.332518758199995
 10
116.0960698913999
 20
-2.001155274599994
 10
115.8787346173999
 20
-2.608544277399971
 10
115.5920798209999
 20
-3.162389878599981
 10
115.2289968966
 20
-3.656032931999988
 10
114.7958453741999
 20
-4.070131133999979
 10
114.4594929206
 20
-4.306797041199985
 10
114.095882099
 20
-4.503693833200003
 10
113.7018014101999
 20
-4.664860523799973
 10
113.2848478063999
 20
-4.790041656200003
 10
112.6617822325999
 20
-4.911957435399983
 10
112.0025417041999
 20
-4.978712744199981
 10
111.3028818794
 20
-4.999980543799978
 10
110.5758641591999
 20
-4.984288302799996
 10
109.4742554181999
 20
-4.91419785139999
 10
108.3274098458
 20
-4.811397530799979
 10
107.1251506354
 20
-4.698540794400003
 10
105.8883239246
 20
-4.599586665999993
 10
104.6576135832
 20
-4.534974255999998
 10
103.407769388
 20
-4.514278139800012
 10
102.1268818325999
 20
-4.543317763200008
 10
100.8467956038
 20
-4.618383284399982
 10
99.71764727100001
 20
-4.712775896599993
 10
98.6048125738
 20
-4.817830601799983
 10
97.50098536459995
 20
-4.916184847799996
 10
96.42485430340002
 20
-4.984258134399993
 10
95.76974264680002
 20
-4.999913482599993
 10
95.13116343540003
 20
-4.986197551999964
 10
94.50604891580002
 20
-4.934190881400013
 10
93.90376959539997
 20
-4.834246476999965
 10
93.088917949
 20
-4.585186366999977
 10
92.70444813140001
 20
-4.402159706600002
 10
92.3421658716
 20
-4.174625560399988
 10
91.84568269539999
 20
-3.738524706600003
 10
91.41480448859999
 20
-3.173518285199975
 10
91.0805514796
 20
-2.511259441600003
 10
90.94339043560006
 20
-2.130622160599983
 10
90.83006804459996
 20
-1.723246481399996
 10
90.69786578499998
 20
-1.000400905199967
 10
90.63746458279997
 20
-0.2202575077999995
 10
90.64960015139996
 20
0.4925608058000251
 10
90.72835224660002
 20
1.21184999159999
 10
90.86777197380001
 20
1.871770146599999
 10
91.07526119139999
 20
2.49816783060001
 10
91.34847346679999
 20
3.062712918000016
 10
91.69151783940003
 20
3.562034566800008
 10
92.12335541719999
 20
4.003536989800039
 10
92.62527668480004
 20
4.357556400199996
 10
93.03784001259998
 20
4.563769177600022
 10
93.48023368179998
 20
4.724566583799997
 10
93.9558869214
 20
4.845263449400022
 10
94.45554191340006
 20
4.927912652800017
 10
95.07488671099997
 20
4.983265604200028
 10
95.72037918660004
 20
5.0
  0
LINE
  5
1DE8
330
1F
100
AcDbEntity
  8
1
100
AcDbLine
 10
104.9433756727999
 20
-2.5
 30
0.0
 11
106.3867513457999
 21
0.0
 31
0.0
  0
LINE
  5
1DE9
330
1F
100
AcDbEntity
  8
1
100
AcDbLine
 10
102.0566243269999
 20
-2.5
 30
0.0
 11
104.9433756727999
 21
-2.5
 31
0.0
  0
LINE
  5
1DEA
330
1F
100
AcDbEntity
  8
1
100
AcDbLine
 10
104.9433756727999
 20
2.5
 30
0.0
 11
106.3867513457999
 21
0.0
 31
0.0
  0
LINE
  5
1DEB
330
1F
100
AcDbEntity
  8
1
100
AcDbLine
 10
102.0566243269999
 20
2.5
 30
0.0
 11
104.9433756727999
 21
2.5
 31
0.0
  0
LINE
  5
1E17
330
1F
100
AcDbEntity
  8
1
100
AcDbLine
 10
125.509252271
 20
-44.34999999999999
 30
0.0
 11
125.9999999999999
 21
-43.5
 31
0.0
  0
LINE
  5
1E23
330
1F
100
AcDbEntity
  8
3
100
AcDbLine
 10
125.9999999999999
 20
-37.4
 30
0.0
 11
118.6499999999999
 21
-37.4
 31
0.0
  0
LINE
  5
1E24
330
1F
100
AcDbEntity
  8
3
100
AcDbLine
 10
118.6481751217999
 20
-40.4
 30
0.0
 11
125.9999999999999
 21
-40.4
 31
0.0
  0
LINE
  5
1E28
330
1F
100
AcDbEntity
  8
3
100
AcDbLine
 10
125.1339745961999
 20
-1.5
 30
0.0
 11
125.9999999999999
 21
-2.0
 31
0.0
  0
LINE
  5
1E2A
330
1F
100
AcDbEntity
  8
3
100
AcDbLine
 10
125.1339745961999
 20
1.5
 30
0.0
 11
118.6499999999999
 21
1.5
 31
0.0
  0
LINE
  5
1E2B
330
1F
100
AcDbEntity
  8
3
100
AcDbLine
 10
118.6481751217999
 20
-1.5
 30
0.0
 11
125.1339745961999
 21
-1.5
 31
0.0
  0
LINE
  5
1E2D
330
1F
100
AcDbEntity
  8
3
100
AcDbLine
 10
125.1339745961999
 20
-1.5
 30
0.0
 11
125.1339745961999
 21
1.5
 31
0.0
  0
LINE
  5
1E2E
330
1F
100
AcDbEntity
  8
3
100
AcDbLine
 10
125.9999999999999
 20
2.0
 30
0.0
 11
125.1339745961999
 21
1.5
 31
0.0
  0
LINE
  5
1E2F
330
1F
100
AcDbEntity
  8
3
100
AcDbLine
 10
121.9999999999999
 20
12.59731793
 30
0.0
 11
121.9999999999999
 21
15.89731792999998
 31
0.0
  0
LINE
  5
1E30
330
1F
100
AcDbEntity
  8
SK1
100
AcDbLine
 10
118.4999999999999
 20
44.5
 30
0.0
 11
118.1
 21
44.89999999999997
 31
0.0
  0
LINE
  5
1E33
330
1F
100
AcDbEntity
  8
SK1
100
AcDbLine
 10
112.3986144968
 20
39.30000000000001
 30
0.0
 11
118.6499999999999
 21
39.30000000000001
 31
0.0
  0
LINE
  5
1E36
330
1F
100
AcDbEntity
  8
1
100
AcDbLine
 10
125.9999999999999
 20
37.1457521696228
 30
0.0
 11
81.00000000001868
 21
44.2730519841743
 31
0.0
  0
LINE
  5
1E3A
330
1F
100
AcDbEntity
  8
1
100
AcDbLine
 10
79.0187562946
 20
47.0
 30
0.0
 11
81.0
 21
44.27305198420003
 31
0.0
  0
LINE
  5
1E3B
330
1F
100
AcDbEntity
  8
SK1
100
AcDbLine
 10
118.1
 20
44.89999999999997
 30
0.0
 11
89.78285744039999
 21
44.89999999999997
 31
0.0
  0
LINE
  5
1E3C
330
1F
100
AcDbEntity
  8
SK1
100
AcDbLine
 10
88.49999999999999
 20
44.5
 30
0.0
 11
118.4999999999999
 21
44.5
 31
0.0
  0
LINE
  5
1E3D
330
1F
100
AcDbEntity
  8
SK1
100
AcDbLine
 10
88.49999999999999
 20
44.5
 30
0.0
 11
88.49999999999999
 21
43.0851686816
 31
0.0
  0
LINE
  5
1E3F
330
1F
100
AcDbEntity
  8
SK1
100
AcDbLine
 10
89.69999999999998
 20
45.69999999999999
 30
0.0
 11
88.49999999999999
 21
44.5
 31
0.0
  0
LWPOLYLINE
  5
1E40
330
1F
100
AcDbEntity
  8
SK1
100
AcDbPolyline
 90
        3
 70
   128
 43
0.0
 10
89.78285744039999
 20
44.89999999999997
 10
90.19806503360001
 20
45.28938868860001
 10
90.63765184720001
 20
45.69999999999999
  0
LINE
  5
1E41
330
1F
100
AcDbEntity
  8
SK1
100
AcDbLine
 10
89.69999999999998
 20
45.69999999999999
 30
0.0
 11
96.5
 21
45.69999999999999
 31
0.0
  0
LINE
  5
1E42
330
1F
100
AcDbEntity
  8
SK1
100
AcDbLine
 10
96.5
 20
45.69999999999999
 30
0.0
 11
96.5
 21
44.89999999999997
 31
0.0
  0
LINE
  5
1E44
330
1F
100
AcDbEntity
  8
SK1
100
AcDbLine
 10
118.4999999999999
 20
39.30000000000001
 30
0.0
 11
118.4999999999999
 21
44.5
 31
0.0
  0
LINE
  5
1E45
330
1F
100
AcDbEntity
  8
SK1
100
AcDbLine
 10
118.6499999999999
 20
38.30987780600003
 30
0.0
 11
118.6499999999999
 21
39.30000000000001
 31
0.0
  0
LINE
  5
1EE2
330
1F
100
AcDbEntity
  8
3
100
AcDbLine
 10
0.5500000000000114
 20
-37.72499999999999
 30
0.0
 11
0.5500000000000114
 21
37.725
 31
0.0
  0
LINE
  5
1EE3
330
1F
100
AcDbEntity
  8
1
100
AcDbLine
 10
0.0
 20
-46.5
 30
0.0
 11
0.0
 21
46.4999999951
 31
0.0
  0
LINE
  5
1EE4
330
1F
100
AcDbEntity
  8
SK1
100
AcDbLine
 10
-50.0
 20
-23.9
 30
0.0
 11
-50.0
 21
23.89999999979998
 31
0.0
  0
LINE
  5
1EE5
330
1F
100
AcDbEntity
  8
SK1
100
AcDbLine
 10
-42.99999999999998
 20
-25.0
 30
0.0
 11
-42.99999999999998
 21
24.99999999999998
 31
0.0
  0
LINE
  5
1EE6
330
1F
100
AcDbEntity
  8
SK1
100
AcDbLine
 10
-7.014665199499972
 20
-25.0
 30
0.0
 11
-7.014665199499972
 21
24.99999999999998
 31
0.0
  0
LINE
  5
1EE7
330
1F
100
AcDbEntity
  8
SK1
100
AcDbLine
 10
-0.1499999999999773
 20
24.9621896526
 30
0.0
 11
-0.1499999999999773
 21
-24.9621896526
 31
0.0
  0
LINE
  5
1EE8
330
1F
100
AcDbEntity
  8
SK1
100
AcDbLine
 10
-4.949999999999987
 20
-37.275
 30
0.0
 11
-4.949999999999987
 21
37.27499999999999
 31
0.0
  0
ARC
  5
1EE9
330
1F
100
AcDbEntity
  8
SK1
100
AcDbCircle
 10
-48.99999999999998
 20
-23.9
 30
0.0
 40
1.000000000000009
100
AcDbArc
 50
180.0
 51
280.0
  0
LINE
  5
1EEA
330
1F
100
AcDbEntity
  8
SK1
100
AcDbLine
 10
-42.99999999999998
 20
-25.0
 30
0.0
 11
-7.014665199499972
 21
-25.0
 31
0.0
  0
LINE
  5
1EEB
330
1F
100
AcDbEntity
  8
SK1
100
AcDbLine
 10
-46.54297852739998
 20
-24.5020668404
 30
0.0
 11
-42.99999999999998
 21
-25.0
 31
0.0
  0
LINE
  5
1EEC
330
1F
100
AcDbEntity
  8
SK1
100
AcDbLine
 10
-48.82635182229996
 20
-24.88480775299998
 30
0.0
 11
-46.66810703879997
 21
-24.5042509667
 31
0.0
  0
ARC
  5
1EED
330
1F
100
AcDbEntity
  8
SK1
100
AcDbCircle
 10
-46.59864776779996
 20
-24.89817406790001
 30
0.0
 40
0.3999999999999891
100
AcDbArc
 50
81.99999999999922
 51
100.0
  0
ARC
  5
1EEE
330
1F
100
AcDbEntity
  8
1
100
AcDbCircle
 10
0.5
 20
-46.5
 30
0.0
 40
0.5
100
AcDbArc
 50
180.0
 51
270.0
  0
LINE
  5
1EEF
330
1F
100
AcDbEntity
  8
SK1
100
AcDbLine
 10
-1.851173468899985
 20
-37.275
 30
0.0
 11
-1.851173468899985
 21
-25.6987475376
 31
0.0
  0
LINE
  5
1EF0
330
1F
100
AcDbEntity
  8
SK1
100
AcDbLine
 10
-4.949999999999987
 20
-37.275
 30
0.0
 11
-1.851173468899985
 21
-37.275
 31
0.0
  0
LINE
  5
1EF1
330
1F
100
AcDbEntity
  8
SK1
100
AcDbLine
 10
-1.851173468899985
 20
-37.275
 30
0.0
 11
-0.8726182616999833
 21
-36.81869221299999
 31
0.0
  0
ARC
  5
1EF2
330
1F
100
AcDbEntity
  8
3
100
AcDbCircle
 10
-0.4499999999999888
 20
-37.72499999999999
 30
0.0
 40
1.0
100
AcDbArc
 50
0.0
 51
63.2563160495995
  0
ARC
  5
1EF3
330
1F
100
AcDbEntity
  8
3
100
AcDbCircle
 10
-0.4499999999999888
 20
-37.72499999999999
 30
0.0
 40
1.0
100
AcDbArc
 50
335.0
 51
0.0
  0
LINE
  5
1EF4
330
1F
100
AcDbEntity
  8
3
100
AcDbLine
 10
0.0
 20
-39.1261734689
 30
0.0
 11
0.4563077871000303
 21
-38.14761826179999
 31
0.0
  0
ARC
  5
1EF5
330
1F
100
AcDbEntity
  8
SK1
100
AcDbCircle
 10
-0.4499999999999888
 20
-37.72499999999999
 30
0.0
 40
1.000000000000011
100
AcDbArc
 50
63.2563160495995
 51
114.9999999999996
  0
LINE
  5
1EF6
330
1F
100
AcDbEntity
  8
SK1
100
AcDbLine
 10
-1.851173468899985
 20
-25.6987475376
 30
0.0
 11
-4.949999999999987
 21
-25.6987475376
 31
0.0
  0
LINE
  5
1EF7
330
1F
100
AcDbEntity
  8
SK1
100
AcDbLine
 10
-7.014665199499972
 20
-25.0
 30
0.0
 11
-6.2088190451
 21
-24.7840741737
 31
0.0
  0
ARC
  5
1EF8
330
1F
100
AcDbEntity
  8
SK1
100
AcDbCircle
 10
-5.949999999999986
 20
-25.75
 30
0.0
 40
1.000000000000001
100
AcDbArc
 50
0.0
 51
104.9999999999994
  0
LINE
  5
1EF9
330
1F
100
AcDbEntity
  8
SK1
100
AcDbLine
 10
-0.8726182616999833
 20
-25.03230105830001
 30
0.0
 11
-1.851173468899985
 21
-25.6987475376
 31
0.0
  0
ARC
  5
1EFA
330
1F
100
AcDbEntity
  8
SK1
100
AcDbCircle
 10
-0.4524841351999953
 20
-25.6035378082
 30
0.0
 40
0.7091009157199242
100
AcDbArc
 50
64.74965595420046
 51
126.3337981472995
  0
ARC
  5
1EFD
330
1F
100
AcDbEntity
  8
SK1
100
AcDbCircle
 10
-48.99999999999998
 20
23.89999999999999
 30
0.0
 40
1.0
100
AcDbArc
 50
79.9999999999998
 51
180.0
  0
LINE
  5
1EFE
330
1F
100
AcDbEntity
  8
SK4
100
AcDbLine
 10
0.0
 20
0.0
 30
0.0
 11
-50.0
 21
0.0
 31
0.0
  0
LINE
  5
1EFF
330
1F
100
AcDbEntity
  8
SK1
100
AcDbLine
 10
-7.014665199499972
 20
24.99999999999998
 30
0.0
 11
-42.99999999999998
 21
24.99999999999998
 31
0.0
  0
LINE
  5
1F00
330
1F
100
AcDbEntity
  8
SK3
100
AcDbLine
 10
-48.7009618944
 20
10.5
 30
0.0
 11
0.0
 21
10.5
 31
0.0
  0
LINE
  5
1F01
330
1F
100
AcDbEntity
  8
SK3
100
AcDbLine
 10
-48.70096189439999
 20
-10.5
 30
0.0
 11
0.0
 21
-10.5
 31
0.0
  0
CIRCLE
  5
1F02
330
1F
100
AcDbEntity
  8
SK1
100
AcDbCircle
 10
-24.19999999999999
 20
0.0
 30
0.0
 40
8.608464784597673
  0
LWPOLYLINE
  5
1F03
330
1F
100
AcDbEntity
  8
SK1
100
AcDbPolyline
 90
       20
 70
   128
 43
0.0
 10
-35.19999999999999
 20
0.0
 10
-35.11820153319998
 20
1.115927303700004
 10
-34.84133301369998
 20
2.32020729709998
 10
-34.38557223639998
 20
3.464774431000008
 10
-33.73006136019998
 20
4.584770632000001
 10
-32.92400312509998
 20
5.597454314699985
 10
-31.48687555429997
 20
6.893406860300004
 10
-29.84915045749998
 20
7.905362168400002
 10
-28.05891086579999
 20
8.637618374699997
 10
-26.15296598989997
 20
9.082915692499991
 10
-24.19511939009999
 20
9.232682157599995
 10
-22.17900975529996
 20
9.072171360499991
 10
-20.219863175
 20
8.598332923500008
 10
-18.37289261619996
 20
7.8131002975
 10
-16.69626607859996
 20
6.727337349400002
 10
-15.50621173339999
 20
5.629393390900006
 10
-14.5125310194
 20
4.348874626299988
 10
-13.87339428229998
 20
3.158380575299998
 10
-13.43270225999998
 20
1.876033396999998
 10
-13.19999999999998
 20
0.0
  0
LWPOLYLINE
  5
1F04
330
1F
100
AcDbEntity
  8
SK1
100
AcDbPolyline
 90
       21
 70
   128
 43
0.0
 10
-13.19999999999998
 20
0.0
 10
-13.24674655409998
 20
-0.8442422677000108
 10
-13.48266666999998
 20
-2.062409881000005
 10
-13.90262814039997
 20
-3.226260051299988
 10
-14.51573557909997
 20
-4.353048810700001
 10
-15.28120348129997
 20
-5.3778673419
 10
-16.32967102529996
 20
-6.425058817299996
 10
-17.51719095609995
 20
-7.31292951040001
 10
-19.06915662029996
 20
-8.152576392399991
 10
-20.73588691429998
 20
-8.756116210400007
 10
-22.68045809829998
 20
-9.141901801200006
 10
-24.66638079949996
 20
-9.224249978799987
 10
-26.67387618969998
 20
-8.991671750799994
 10
-28.61166566189998
 20
-8.447048440499997
 10
-30.42570622309998
 20
-7.592125379799995
 10
-32.05541505439998
 20
-6.438311007900011
 10
-33.16628132619998
 20
-5.321211652199991
 10
-34.08017765419998
 20
-4.034765516800006
 10
-34.65907143079998
 20
-2.83857609879999
 10
-35.03949044499998
 20
-1.560532743700008
 10
-35.19999999999999
 20
0.0
  0
CIRCLE
  5
1F0B
330
1F
100
AcDbEntity
  8
SK1
100
AcDbCircle
 10
-24.19999999999999
 20
0.0
 30
0.0
 40
6.250000000000013
  0
LINE
  5
1F0C
330
1F
100
AcDbEntity
  8
SK1
100
AcDbLine
 10
-42.99999999999998
 20
24.99999999999998
 30
0.0
 11
-46.54297852739998
 21
24.50206684039999
 31
0.0
  0
LINE
  5
1F0D
330
1F
100
AcDbEntity
  8
SK1
100
AcDbLine
 10
-46.66810703879997
 20
24.5042509667
 30
0.0
 11
-48.82635182229996
 21
24.884807753
 31
0.0
  0
ARC
  5
1F0E
330
1F
100
AcDbEntity
  8
SK1
100
AcDbCircle
 10
-46.59864776779996
 20
24.8981740679
 30
0.0
 40
0.4000000000000172
100
AcDbArc
 50
259.9999999999998
 51
278.0000000000006
  0
LINE
  5
1F0F
330
1F
100
AcDbEntity
  8
SK1
100
AcDbLine
 10
-1.851173468899985
 20
25.6987475376
 30
0.0
 11
-1.851173468899985
 21
37.27499999999999
 31
0.0
  0
LINE
  5
1F10
330
1F
100
AcDbEntity
  8
SK1
100
AcDbLine
 10
-1.851173468899985
 20
25.6987475376
 30
0.0
 11
-4.949999999999987
 21
25.6987475376
 31
0.0
  0
LINE
  5
1F11
330
1F
100
AcDbEntity
  8
SK1
100
AcDbLine
 10
-6.2088190451
 20
24.7840741737
 30
0.0
 11
-7.014665199499972
 21
24.99999999999998
 31
0.0
  0
ARC
  5
1F12
330
1F
100
AcDbEntity
  8
SK1
100
AcDbCircle
 10
-5.949999999999986
 20
25.74999999999998
 30
0.0
 40
1.000000000000001
100
AcDbArc
 50
255.0000000000004
 51
0.0
  0
LWPOLYLINE
  5
1F13
330
1F
100
AcDbEntity
  8
SK1
100
AcDbPolyline
 90
        3
 70
   128
 43
0.0
 10
-1.851173468899985
 20
25.6987475376
 10
-1.477509368199974
 20
25.44535737889999
 10
-0.8726182616999833
 20
25.03230105830001
  0
ARC
  5
1F14
330
1F
100
AcDbEntity
  8
SK1
100
AcDbCircle
 10
-0.4520821650999949
 20
25.60768079930001
 30
0.0
 40
0.7126797702787469
100
AcDbArc
 50
233.8375119386999
 51
295.0790339597995
  0
LINE
  5
1F15
330
1F
100
AcDbEntity
  8
SK1
100
AcDbLine
 10
-1.851173468899985
 20
37.27499999999999
 30
0.0
 11
-4.949999999999987
 21
37.27499999999999
 31
0.0
  0
ARC
  5
1F16
330
1F
100
AcDbEntity
  8
3
100
AcDbCircle
 10
-0.4499999999999888
 20
37.725
 30
0.0
 40
0.9999999999999982
100
AcDbArc
 50
345.6249999999998
 51
25.00000000000003
  0
LINE
  5
1F17
330
1F
100
AcDbEntity
  8
SK1
100
AcDbLine
 10
-0.8726182616999833
 20
36.81869221289999
 30
0.0
 11
-1.851173468899985
 21
37.27499999999999
 31
0.0
  0
ARC
  5
1F18
330
1F
100
AcDbEntity
  8
3
100
AcDbCircle
 10
-0.4499999999999888
 20
37.725
 30
0.0
 40
0.9999999999999987
100
AcDbArc
 50
296.7436839504005
 51
345.6249999999998
  0
ARC
  5
1F19
330
1F
100
AcDbEntity
  8
SK1
100
AcDbCircle
 10
-0.4499999999999888
 20
37.725
 30
0.0
 40
0.9999999999999996
100
AcDbArc
 50
245.0000000000003
 51
296.7436839504005
  0
LINE
  5
1F1A
330
1F
100
AcDbEntity
  8
3
100
AcDbLine
 10
0.4563077871000303
 20
38.1476182617
 30
0.0
 11
0.0
 21
39.1261734689
 31
0.0
  0
ARC
  5
1F1B
330
1F
100
AcDbEntity
  8
1
100
AcDbCircle
 10
0.5
 20
46.49999999999997
 30
0.0
 40
0.5
100
AcDbArc
 50
90.0
 51
180.0
  0
LINE
  5
1F23
330
1F
100
AcDbEntity
  8
SK3
100
AcDbLine
 10
-48.70096189439999
 20
10.5
 30
0.0
 11
-48.70096189439999
 21
-10.5
 31
0.0
  0
LINE
  5
1F24
330
1F
100
AcDbEntity
  8
SK3
100
AcDbLine
 10
-48.70096189439999
 20
10.5
 30
0.0
 11
-50.0
 21
11.25
 31
0.0
  0
LINE
  5
1F25
330
1F
100
AcDbEntity
  8
SK3
100
AcDbLine
 10
-50.0
 20
-11.25
 30
0.0
 11
-48.70096189439999
 21
-10.5
 31
0.0
  0
ENDSEC
  0
SECTION
  2
OBJECTS
  0
DICTIONARY
  5
C
330
0
100
AcDbDictionary
281
     1
  3
ACAD_GROUP
350
D
  3
ACAD_LAYOUT
350
1A
  3
ACAD_MLINESTYLE
350
17
  3
ACAD_PLOTSETTINGS
350
19
  3
ACAD_PLOTSTYLENAME
350
E
  3
AcDbVariableDictionary
350
290
  0
DICTIONARY
  5
296
330
2
100
AcDbDictionary
280
     1
281
     1
  3
ACAD_LAYERSTATES
360
297
  0
DICTIONARY
  5
D
102
{ACAD_REACTORS
330
C
102
}
330
C
100
AcDbDictionary
281
     1
  0
DICTIONARY
  5
1A
102
{ACAD_REACTORS
330
C
102
}
330
C
100
AcDbDictionary
281
     1
  3
Layout1
350
1E
  3
Layout2
350
26
  3
Model
350
22
  0
DICTIONARY
  5
17
102
{ACAD_REACTORS
330
C
102
}
330
C
100
AcDbDictionary
281
     1
  3
Standard
350
18
  0
DICTIONARY
  5
19
102
{ACAD_REACTORS
330
C
102
}
330
C
100
AcDbDictionary
281
     1
  0
ACDBDICTIONARYWDFLT
  5
E
102
{ACAD_REACTORS
330
C
102
}
330
C
100
AcDbDictionary
281
     1
  3
Normal
350
F
100
AcDbDictionaryWithDefault
340
F
  0
DICTIONARY
  5
290
102
{ACAD_REACTORS
330
C
102
}
330
C
100
AcDbDictionary
281
     1
  3
DIMASSOC
350
291
  0
DICTIONARY
  5
297
102
{ACAD_REACTORS
330
296
102
}
330
296
100
AcDbDictionary
281
     1
  0
LAYOUT
  5
1E
102
{ACAD_REACTORS
330
1A
102
}
330
1A
100
AcDbPlotSettings
  1

  2

  4

  6

 40
0.0
 41
0.0
 42
0.0
 43
0.0
 44
0.0
 45
0.0
 46
0.0
 47
0.0
 48
0.0
 49
0.0
140
0.0
141
0.0
142
1.0
143
1.0
 70
   688
 72
     0
 73
     0
 74
     5
  7

 75
    16
147
1.0
148
0.0
149
0.0
100
AcDbLayout
  1
Layout1
 70
     1
 71
     1
 10
0.0
 20
0.0
 11
420.0
 21
297.0
 12
0.0
 22
0.0
 32
0.0
 14
1.000000000000000E+20
 24
1.000000000000000E+20
 34
1.000000000000000E+20
 15
-1.000000000000000E+20
 25
-1.000000000000000E+20
 35
-1.000000000000000E+20
146
0.0
 13
0.0
 23
0.0
 33
0.0
 16
1.0
 26
0.0
 36
0.0
 17
0.0
 27
1.0
 37
0.0
 76
     0
330
1B
  0
LAYOUT
  5
26
102
{ACAD_REACTORS
330
1A
102
}
330
1A
100
AcDbPlotSettings
  1

  2

  4

  6

 40
0.0
 41
0.0
 42
0.0
 43
0.0
 44
0.0
 45
0.0
 46
0.0
 47
0.0
 48
0.0
 49
0.0
140
0.0
141
0.0
142
1.0
143
1.0
 70
   688
 72
     0
 73
     0
 74
     5
  7

 75
    16
147
1.0
148
0.0
149
0.0
100
AcDbLayout
  1
Layout2
 70
     1
 71
     2
 10
0.0
 20
0.0
 11
0.0
 21
0.0
 12
0.0
 22
0.0
 32
0.0
 14
0.0
 24
0.0
 34
0.0
 15
0.0
 25
0.0
 35
0.0
146
0.0
 13
0.0
 23
0.0
 33
0.0
 16
1.0
 26
0.0
 36
0.0
 17
0.0
 27
1.0
 37
0.0
 76
     0
330
23
  0
LAYOUT
  5
22
102
{ACAD_REACTORS
330
1A
102
}
330
1A
100
AcDbPlotSettings
  1

  2

  4

  6

 40
0.0
 41
0.0
 42
0.0
 43
0.0
 44
0.0
 45
0.0
 46
0.0
 47
0.0
 48
0.0
 49
0.0
140
0.0
141
0.0
142
1.0
143
1.0
 70
  1712
 72
     0
 73
     0
 74
     0
  7

 75
     0
147
1.0
148
0.0
149
0.0
100
AcDbLayout
  1
Model
 70
     1
 71
     0
 10
0.0
 20
0.0
 11
0.0
 21
0.0
 12
0.0
 22
0.0
 32
0.0
 14
0.0
 24
0.0
 34
0.0
 15
297.0
 25
210.0
 35
0.0
146
0.0
 13
0.0
 23
0.0
 33
0.0
 16
1.0
 26
0.0
 36
0.0
 17
0.0
 27
1.0
 37
0.0
 76
     0
330
1F
  0
MLINESTYLE
  5
18
102
{ACAD_REACTORS
330
17
102
}
330
17
100
AcDbMlineStyle
  2
STANDARD
 70
     0
  3

 62
   256
 51
90.0
 52
90.0
 71
     2
 49
0.5
 62
   256
  6
BYLAYER
 49
-0.5
 62
   256
  6
BYLAYER
  0
ACDBPLACEHOLDER
  5
F
102
{ACAD_REACTORS
330
E
102
}
330
E
  0
DICTIONARYVAR
  5
291
102
{ACAD_REACTORS
330
290
102
}
330
290
100
DictionaryVariables
280
     0
  1
1
  0
ENDSEC
  0
EOF
