  0
SECTION
  2
HEADER
  9
$ACADVER
  1
AC1015
  9
$ACADMAINTVER
 70
    13
  9
$DWGCODEPAGE
  3
ANSI_1252
  9
$INSBASE
 10
0.0
 20
0.0
 30
0.0
  9
$EXTMIN
 10
-44.08634232698363
 20
-76.12919044509124
 30
-0.0000000000000206
  9
$EXTMAX
 10
89.5001089404808
 20
64.35362529416067
 30
0.0000000000000099
  9
$LIMMIN
 10
0.0
 20
0.0
  9
$LIMMAX
 10
420.0
 20
297.0
  9
$ORTHOMODE
 70
     0
  9
$REGENMODE
 70
     1
  9
$FILLMODE
 70
     1
  9
$QTEXTMODE
 70
     0
  9
$MIRRTEXT
 70
     1
  9
$LTSCALE
 40
1.0
  9
$ATTMODE
 70
     1
  9
$TEXTSIZE
 40
2.5
  9
$TRACEWID
 40
1.0
  9
$TEXTSTYLE
  7
STANDARD
  9
$CLAYER
  8
5
  9
$CELTYPE
  6
ByLayer
  9
$CECOLOR
 62
   256
  9
$CELTSCALE
 40
1.0
  9
$DISPSILH
 70
     0
  9
$DIMSCALE
 40
1.0
  9
$DIMASZ
 40
3.0
  9
$DIMEXO
 40
0.0
  9
$DIMDLI
 40
3.75
  9
$DIMRND
 40
0.0
  9
$DIMDLE
 40
0.0
  9
$DIMEXE
 40
1.0
  9
$DIMTP
 40
0.0
  9
$DIMTM
 40
0.0
  9
$DIMTXT
 40
2.0
  9
$DIMCEN
 40
2.5
  9
$DIMTSZ
 40
0.0
  9
$DIMTOL
 70
     0
  9
$DIMLIM
 70
     0
  9
$DIMTIH
 70
     1
  9
$DIMTOH
 70
     1
  9
$DIMSE1
 70
     0
  9
$DIMSE2
 70
     0
  9
$DIMTAD
 70
     1
  9
$DIMZIN
 70
     0
  9
$DIMBLK
  1

  9
$DIMASO
 70
     1
  9
$DIMSHO
 70
     1
  9
$DIMPOST
  1

  9
$DIMAPOST
  1

  9
$DIMALT
 70
     0
  9
$DIMALTD
 70
     3
  9
$DIMALTF
 40
0.0394
  9
$DIMLFAC
 40
1.0
  9
$DIMTOFL
 70
     1
  9
$DIMTVP
 40
0.0
  9
$DIMTIX
 70
     0
  9
$DIMSOXD
 70
     0
  9
$DIMSAH
 70
     0
  9
$DIMBLK1
  1

  9
$DIMBLK2
  1

  9
$DIMSTYLE
  2
ISO-25
  9
$DIMCLRD
 70
     0
  9
$DIMCLRE
 70
     0
  9
$DIMCLRT
 70
     0
  9
$DIMTFAC
 40
1.0
  9
$DIMGAP
 40
1.524
  9
$DIMJUST
 70
     0
  9
$DIMSD1
 70
     0
  9
$DIMSD2
 70
     0
  9
$DIMTOLJ
 70
     0
  9
$DIMTZIN
 70
     0
  9
$DIMALTZ
 70
     0
  9
$DIMALTTZ
 70
     0
  9
$DIMUPT
 70
     0
  9
$DIMDEC
 70
     2
  9
$DIMTDEC
 70
     2
  9
$DIMALTU
 70
     2
  9
$DIMALTTD
 70
     3
  9
$DIMTXSTY
  7
STANDARD
  9
$DIMAUNIT
 70
     0
  9
$DIMADEC
 70
     0
  9
$DIMALTRND
 40
0.0
  9
$DIMAZIN
 70
     0
  9
$DIMDSEP
 70
    44
  9
$DIMATFIT
 70
     3
  9
$DIMFRAC
 70
     0
  9
$DIMLDRBLK
  1

  9
$DIMLUNIT
 70
     2
  9
$DIMLWD
 70
    -2
  9
$DIMLWE
 70
    -2
  9
$DIMTMOVE
 70
     0
  9
$LUNITS
 70
     2
  9
$LUPREC
 70
     2
  9
$SKETCHINC
 40
1.0
  9
$FILLETRAD
 40
10.0
  9
$AUNITS
 70
     0
  9
$AUPREC
 70
     0
  9
$MENU
  1
.
  9
$ELEVATION
 40
0.0
  9
$PELEVATION
 40
0.0
  9
$THICKNESS
 40
0.0
  9
$LIMCHECK
 70
     0
  9
$CHAMFERA
 40
10.0
  9
$CHAMFERB
 40
10.0
  9
$CHAMFERC
 40
20.0
  9
$CHAMFERD
 40
0.0
  9
$SKPOLY
 70
     0
  9
$TDCREATE
 40
2454378.417631666
  9
$TDUCREATE
 40
2454378.375965000
  9
$TDUPDATE
 40
2454502.584094224
  9
$TDUUPDATE
 40
2454502.542427558
  9
$TDINDWG
 40
0.3119557060
  9
$TDUSRTIMER
 40
0.3119551736
  9
$USRTIMER
 70
     1
  9
$ANGBASE
 50
0.0
  9
$ANGDIR
 70
     0
  9
$PDMODE
 70
     0
  9
$PDSIZE
 40
-1.0
  9
$PLINEWID
 40
0.0
  9
$SPLFRAME
 70
     0
  9
$SPLINETYPE
 70
     6
  9
$SPLINESEGS
 70
     8
  9
$HANDSEED
  5
28F6
  9
$SURFTAB1
 70
     6
  9
$SURFTAB2
 70
     6
  9
$SURFTYPE
 70
     6
  9
$SURFU
 70
     6
  9
$SURFV
 70
     6
  9
$UCSBASE
  2

  9
$UCSNAME
  2

  9
$UCSORG
 10
0.0
 20
0.0
 30
0.0
  9
$UCSXDIR
 10
1.0
 20
0.0
 30
0.0
  9
$UCSYDIR
 10
0.0
 20
1.0
 30
0.0
  9
$UCSORTHOREF
  2

  9
$UCSORTHOVIEW
 70
     0
  9
$UCSORGTOP
 10
0.0
 20
0.0
 30
0.0
  9
$UCSORGBOTTOM
 10
0.0
 20
0.0
 30
0.0
  9
$UCSORGLEFT
 10
0.0
 20
0.0
 30
0.0
  9
$UCSORGRIGHT
 10
0.0
 20
0.0
 30
0.0
  9
$UCSORGFRONT
 10
0.0
 20
0.0
 30
0.0
  9
$UCSORGBACK
 10
0.0
 20
0.0
 30
0.0
  9
$PUCSBASE
  2

  9
$PUCSNAME
  2

  9
$PUCSORG
 10
0.0
 20
0.0
 30
0.0
  9
$PUCSXDIR
 10
1.0
 20
0.0
 30
0.0
  9
$PUCSYDIR
 10
0.0
 20
1.0
 30
0.0
  9
$PUCSORTHOREF
  2

  9
$PUCSORTHOVIEW
 70
     0
  9
$PUCSORGTOP
 10
0.0
 20
0.0
 30
0.0
  9
$PUCSORGBOTTOM
 10
0.0
 20
0.0
 30
0.0
  9
$PUCSORGLEFT
 10
0.0
 20
0.0
 30
0.0
  9
$PUCSORGRIGHT
 10
0.0
 20
0.0
 30
0.0
  9
$PUCSORGFRONT
 10
0.0
 20
0.0
 30
0.0
  9
$PUCSORGBACK
 10
0.0
 20
0.0
 30
0.0
  9
$USERI1
 70
     0
  9
$USERI2
 70
     0
  9
$USERI3
 70
     0
  9
$USERI4
 70
     0
  9
$USERI5
 70
     0
  9
$USERR1
 40
0.0
  9
$USERR2
 40
0.0
  9
$USERR3
 40
0.0
  9
$USERR4
 40
0.0
  9
$USERR5
 40
0.0
  9
$WORLDVIEW
 70
     1
  9
$SHADEDGE
 70
     3
  9
$SHADEDIF
 70
    70
  9
$TILEMODE
 70
     1
  9
$MAXACTVP
 70
    64
  9
$PINSBASE
 10
0.0
 20
0.0
 30
0.0
  9
$PLIMCHECK
 70
     0
  9
$PEXTMIN
 10
1.000000000000000E+20
 20
1.000000000000000E+20
 30
1.000000000000000E+20
  9
$PEXTMAX
 10
-1.000000000000000E+20
 20
-1.000000000000000E+20
 30
-1.000000000000000E+20
  9
$PLIMMIN
 10
0.0
 20
0.0
  9
$PLIMMAX
 10
420.0
 20
297.0
  9
$UNITMODE
 70
     0
  9
$VISRETAIN
 70
     1
  9
$PLINEGEN
 70
     0
  9
$PSLTSCALE
 70
     1
  9
$TREEDEPTH
 70
  3020
  9
$CMLSTYLE
  2
Standard
  9
$CMLJUST
 70
     0
  9
$CMLSCALE
 40
20.0
  9
$PROXYGRAPHICS
 70
     1
  9
$MEASUREMENT
 70
     1
  9
$CELWEIGHT
370
    -1
  9
$ENDCAPS
280
     0
  9
$JOINSTYLE
280
     0
  9
$LWDISPLAY
290
     1
  9
$INSUNITS
 70
     4
  9
$HYPERLINKBASE
  1

  9
$STYLESHEET
  1

  9
$XEDIT
290
     1
  9
$CEPSNTYPE
380
     0
  9
$PSTYLEMODE
290
     1
  9
$FINGERPRINTGUID
  2
{B670D01D-4751-421D-9EC6-3FC415A30308}
  9
$VERSIONGUID
  2
{E28114CC-01E1-4923-A343-F36FCFD19D15}
  9
$EXTNAMES
290
     1
  9
$PSVPSCALE
 40
0.0
  9
$OLESTARTUP
290
     0
  0
ENDSEC
  0
SECTION
  2
CLASSES
  0
CLASS
  1
ACDBDICTIONARYWDFLT
  2
AcDbDictionaryWithDefault
  3
AutoCAD 2000
 90
        0
280
     0
281
     0
  0
CLASS
  1
ACDBPLACEHOLDER
  2
AcDbPlaceHolder
  3
AutoCAD 2000
 90
        0
280
     0
281
     0
  0
CLASS
  1
LAYOUT
  2
AcDbLayout
  3
AutoCAD 2000
 90
        0
280
     0
281
     0
  0
CLASS
  1
DICTIONARYVAR
  2
AcDbDictionaryVar
  3
AutoCAD 2000
 90
        0
280
     0
281
     0
  0
ENDSEC
  0
SECTION
  2
TABLES
  0
TABLE
  2
VPORT
  5
8
330
0
100
AcDbSymbolTable
 70
     2
  0
VPORT
  5
28F5
330
8
100
AcDbSymbolTableRecord
100
AcDbViewportTableRecord
  2
*Active
 70
     0
 10
0.0
 20
0.0
 11
1.0
 21
1.0
 12
-67.59261633895142
 22
-73.39087961366527
 13
0.0
 23
0.0
 14
10.0
 24
10.0
 15
10.0
 25
10.0
 16
0.0
 26
0.0
 36
1.0
 17
90.29949964569999
 27
67.5030970382
 37
0.0
 40
141.5484249610414
 41
1.558227848101265
 42
50.0
 43
0.0
 44
0.0
 50
0.0
 51
0.0
 71
     0
 72
  2000
 73
     1
 74
     3
 75
     0
 76
     0
 77
     0
 78
     0
281
     0
 65
     1
110
0.0
120
0.0
130
0.0
111
1.0
121
0.0
131
0.0
112
0.0
122
1.0
132
0.0
 79
     0
146
0.0
  0
ENDTAB
  0
TABLE
  2
LTYPE
  5
5
330
0
100
AcDbSymbolTable
 70
    10
  0
LTYPE
  5
14
330
5
100
AcDbSymbolTableRecord
100
AcDbLinetypeTableRecord
  2
ByBlock
 70
     0
  3

 72
    65
 73
     0
 40
0.0
  0
LTYPE
  5
15
330
5
100
AcDbSymbolTableRecord
100
AcDbLinetypeTableRecord
  2
ByLayer
 70
     0
  3

 72
    65
 73
     0
 40
0.0
  0
LTYPE
  5
16
330
5
100
AcDbSymbolTableRecord
100
AcDbLinetypeTableRecord
  2
Continuous
 70
     0
  3
Solid line
 72
    65
 73
     0
 40
0.0
  0
LTYPE
  5
2A
330
5
100
AcDbSymbolTableRecord
100
AcDbLinetypeTableRecord
  2
SLD-Durchgehend
 70
     0
  3
SolidWorks Line Style
 72
    65
 73
     0
 40
0.0
  0
LTYPE
  5
2B
330
5
100
AcDbSymbolTableRecord
100
AcDbLinetypeTableRecord
  2
SLD-Gestrichelt
 70
     0
  3
SolidWorks Line Style
 72
    65
 73
     2
 40
1.905
 49
1.27
 74
     0
 49
-0.635
 74
     0
  0
LTYPE
  5
2C
330
5
100
AcDbSymbolTableRecord
100
AcDbLinetypeTableRecord
  2
SLD-Phantom
 70
     0
  3
SolidWorks Line Style
 72
    65
 73
     6
 40
12.7
 49
6.349999999999997
 74
     0
 49
-1.27
 74
     0
 49
1.27
 74
     0
 49
-1.27
 74
     0
 49
1.27
 74
     0
 49
-1.27
 74
     0
  0
LTYPE
  5
2D
330
5
100
AcDbSymbolTableRecord
100
AcDbLinetypeTableRecord
  2
SLD-Kette
 70
     0
  3
SolidWorks Line Style
 72
    65
 73
     4
 40
10.16
 49
6.349999999999997
 74
     0
 49
-1.27
 74
     0
 49
1.27
 74
     0
 49
-1.27
 74
     0
  0
LTYPE
  5
2E
330
5
100
AcDbSymbolTableRecord
100
AcDbLinetypeTableRecord
  2
SLD-Punktstrich
 70
     0
  3
SolidWorks Line Style
 72
    65
 73
     4
 40
19.05
 49
15.24
 74
     0
 49
-1.27
 74
     0
 49
1.27
 74
     0
 49
-1.27
 74
     0
  0
LTYPE
  5
2F
330
5
100
AcDbSymbolTableRecord
100
AcDbLinetypeTableRecord
  2
SLD-Naht
 70
     0
  3
SolidWorks Line Style
 72
    65
 73
     2
 40
0.635
 49
0.0
 74
     0
 49
-0.635
 74
     0
  0
LTYPE
  5
30
330
5
100
AcDbSymbolTableRecord
100
AcDbLinetypeTableRecord
  2
SLD-Dicke-Dünne-Kette
 70
     0
  3
SolidWorks Line Style
 72
    65
 73
     4
 40
10.16
 49
6.349999999999997
 74
     0
 49
-1.27
 74
     0
 49
1.27
 74
     0
 49
-1.27
 74
     0
  0
LTYPE
  5
2D5
330
5
100
AcDbSymbolTableRecord
100
AcDbLinetypeTableRecord
  2
GEN3A
 70
     0
  3
 - - - - -
 72
    65
 73
     2
 40
3.1
 49
2.5
 74
     0
 49
-0.6
 74
     0
  0
LTYPE
  5
362
330
5
100
AcDbSymbolTableRecord
100
AcDbLinetypeTableRecord
  2
GEN7A
 70
     0
  3
__ . __ . __
 72
    65
 73
     4
 40
7.5
 49
5.0
 74
     0
 49
-1.25
 74
     0
 49
0.0
 74
     0
 49
-1.25
 74
     0
  0
ENDTAB
  0
TABLE
  2
LAYER
  5
2
102
{ACAD_XDICTIONARY
360
296
102
}
330
0
100
AcDbSymbolTable
 70
    15
  0
LAYER
  5
10
330
2
100
AcDbSymbolTableRecord
100
AcDbLayerTableRecord
  2
0
 70
     0
 62
     7
  6
Continuous
370
    -3
390
F
  0
LAYER
  5
31
330
2
100
AcDbSymbolTableRecord
100
AcDbLayerTableRecord
  2
FORMAT
 70
     0
 62
     7
  6
SLD-Durchgehend
370
     0
390
F
  0
LAYER
  5
32
330
2
100
AcDbSymbolTableRecord
100
AcDbLayerTableRecord
  2
VERMASSUNG
 70
     0
 62
     7
  6
SLD-Durchgehend
370
     0
390
F
  0
LAYER
  5
33
330
2
100
AcDbSymbolTableRecord
100
AcDbLayerTableRecord
  2
KOPF__DÜNN
 70
     0
 62
     7
  6
SLD-Durchgehend
370
     0
390
F
  0
LAYER
  5
34
330
2
100
AcDbSymbolTableRecord
100
AcDbLayerTableRecord
  2
KOPF__DICK
 70
     0
 62
     7
  6
SLD-Durchgehend
370
    15
390
F
  0
LAYER
  5
24C
330
2
100
AcDbSymbolTableRecord
100
AcDbLayerTableRecord
  2
Defpoints
 70
     0
 62
     7
  6
Continuous
290
     0
370
    -3
390
F
  0
LAYER
  5
293
330
2
100
AcDbSymbolTableRecord
100
AcDbLayerTableRecord
  2
5
 70
     0
 62
     7
  6
Continuous
370
    -3
390
F
  0
LAYER
  5
2D6
330
2
100
AcDbSymbolTableRecord
100
AcDbLayerTableRecord
  2
3
 70
     0
 62
     1
  6
GEN3A
370
    -3
390
F
  0
LAYER
  5
2D7
330
2
100
AcDbSymbolTableRecord
100
AcDbLayerTableRecord
  2
SK1
 70
     0
 62
     4
  6
Continuous
370
    -3
390
F
  0
LAYER
  5
2D8
330
2
100
AcDbSymbolTableRecord
100
AcDbLayerTableRecord
  2
SK3
 70
     0
 62
     1
  6
GEN3A
370
    -3
390
F
  0
LAYER
  5
35B
330
2
100
AcDbSymbolTableRecord
100
AcDbLayerTableRecord
  2
1
 70
     0
 62
     4
  6
Continuous
370
    -3
390
F
  0
LAYER
  5
361
330
2
100
AcDbSymbolTableRecord
100
AcDbLayerTableRecord
  2
SK4
 70
     0
 62
     2
  6
GEN7A
370
    -3
390
F
  0
LAYER
  5
363
330
2
100
AcDbSymbolTableRecord
100
AcDbLayerTableRecord
  2
4
 70
     0
 62
     2
  6
GEN7A
370
    -3
390
F
  0
LAYER
  5
365
330
2
100
AcDbSymbolTableRecord
100
AcDbLayerTableRecord
  2
2
 70
     0
 62
     7
  6
Continuous
370
    -3
390
F
  0
LAYER
  5
37C
330
2
100
AcDbSymbolTableRecord
100
AcDbLayerTableRecord
  2
SK2
 70
     0
 62
     7
  6
Continuous
370
    -3
390
F
  0
ENDTAB
  0
TABLE
  2
STYLE
  5
3
330
0
100
AcDbSymbolTable
 70
     3
  0
STYLE
  5
11
330
3
100
AcDbSymbolTableRecord
100
AcDbTextStyleTableRecord
  2
STANDARD
 70
     0
 40
0.0
 41
1.0
 50
0.0
 71
     0
 42
2.5
  3
ISOCPEUR.TTF
  4

1001
ACAD
1000
ISOCPEUR
1071
       34
  0
STYLE
  5
35
330
3
100
AcDbSymbolTableRecord
100
AcDbTextStyleTableRecord
  2
SLDTEXTSTYLE0
 70
     0
 40
0.0
 41
1.0
 50
0.0
 71
     0
 42
0.2
  3
ISOCPEUR.TTF
  4

1001
ACAD
1000
ISOCPEUR
1071
       34
  0
STYLE
  5
294
330
3
100
AcDbSymbolTableRecord
100
AcDbTextStyleTableRecord
  2
GENPRESET
 70
     0
 40
0.0
 41
1.0
 50
0.0
 71
     0
 42
3.5
  3
simplex.shx
  4

  0
ENDTAB
  0
TABLE
  2
VIEW
  5
6
330
0
100
AcDbSymbolTable
 70
     0
  0
ENDTAB
  0
TABLE
  2
UCS
  5
7
330
0
100
AcDbSymbolTable
 70
     0
  0
ENDTAB
  0
TABLE
  2
APPID
  5
9
330
0
100
AcDbSymbolTable
 70
     1
  0
APPID
  5
12
330
9
100
AcDbSymbolTableRecord
100
AcDbRegAppTableRecord
  2
ACAD
 70
     0
  0
ENDTAB
  0
TABLE
  2
DIMSTYLE
  5
A
330
0
100
AcDbSymbolTable
 70
     3
100
AcDbDimStyleTable
 71
     2
340
295
340
27
  0
DIMSTYLE
105
27
330
A
100
AcDbSymbolTableRecord
100
AcDbDimStyleTableRecord
  2
ISO-25
 70
     0
 41
2.5
 42
0.625
 43
3.75
 44
1.25
 73
     0
 74
     0
 77
     1
 78
     8
140
2.5
141
2.5
143
0.0393700787
147
0.625
171
     3
172
     1
271
     2
272
     2
274
     3
278
    44
283
     0
284
     8
340
11
  0
DIMSTYLE
105
259
330
A
100
AcDbSymbolTableRecord
100
AcDbDimStyleTableRecord
  2
SLDDIMSTYLE0
 70
     0
 41
3.0
 44
0.0
 73
     0
 74
     0
 77
     2
 78
    12
140
2.0
147
0.5
173
     1
271
     2
272
     3
284
    12
340
35
  0
DIMSTYLE
105
295
102
{ACAD_REACTORS
330
27C5
330
27C6
330
283B
102
}
330
A
100
AcDbSymbolTableRecord
100
AcDbDimStyleTableRecord
  2
GEN-ISO_TDM
 70
     0
 41
4.57
 42
0.0
 43
8.0
 44
2.0
 47
0.1
 48
0.1
 73
     0
 74
     0
 77
     1
 78
     8
140
4.57
141
2.0
146
0.7
147
1.5
172
     1
178
     7
179
     1
271
     2
272
     2
284
     8
285
     8
286
     8
340
294
  0
ENDTAB
  0
TABLE
  2
BLOCK_RECORD
  5
1
330
0
100
AcDbSymbolTable
 70
    56
  0
BLOCK_RECORD
  5
1F
330
1
100
AcDbSymbolTableRecord
100
AcDbBlockTableRecord
  2
*Model_Space
340
22
  0
BLOCK_RECORD
  5
1B
330
1
100
AcDbSymbolTableRecord
100
AcDbBlockTableRecord
  2
*Paper_Space
340
1E
  0
BLOCK_RECORD
  5
23
330
1
100
AcDbSymbolTableRecord
100
AcDbBlockTableRecord
  2
*Paper_Space0
340
26
  0
BLOCK_RECORD
  5
24D
330
1
100
AcDbSymbolTableRecord
100
AcDbBlockTableRecord
  2
*D1
340
0
  0
BLOCK_RECORD
  5
261
330
1
100
AcDbSymbolTableRecord
100
AcDbBlockTableRecord
  2
*D2
340
0
  0
BLOCK_RECORD
  5
274
330
1
100
AcDbSymbolTableRecord
100
AcDbBlockTableRecord
  2
*D3
340
0
  0
BLOCK_RECORD
  5
398
330
1
100
AcDbSymbolTableRecord
100
AcDbBlockTableRecord
  2
*D4
340
0
  0
BLOCK_RECORD
  5
3A2
330
1
100
AcDbSymbolTableRecord
100
AcDbBlockTableRecord
  2
_None
340
0
  0
BLOCK_RECORD
  5
435
330
1
100
AcDbSymbolTableRecord
100
AcDbBlockTableRecord
  2
*D6
340
0
  0
BLOCK_RECORD
  5
48A
330
1
100
AcDbSymbolTableRecord
100
AcDbBlockTableRecord
  2
*D7
340
0
  0
BLOCK_RECORD
  5
496
330
1
100
AcDbSymbolTableRecord
100
AcDbBlockTableRecord
  2
*D8
340
0
  0
BLOCK_RECORD
  5
4A2
330
1
100
AcDbSymbolTableRecord
100
AcDbBlockTableRecord
  2
*D9
340
0
  0
BLOCK_RECORD
  5
4AE
330
1
100
AcDbSymbolTableRecord
100
AcDbBlockTableRecord
  2
SW_CENTERMARKSYMBOL_0
340
0
102
{BLKREFS
331
539
331
772
331
1531
331
175B
331
1BBE
331
1DE7
102
}
  0
BLOCK_RECORD
  5
929
330
1
100
AcDbSymbolTableRecord
100
AcDbBlockTableRecord
  2
*D11
340
0
  0
BLOCK_RECORD
  5
935
330
1
100
AcDbSymbolTableRecord
100
AcDbBlockTableRecord
  2
*D12
340
0
  0
BLOCK_RECORD
  5
941
330
1
100
AcDbSymbolTableRecord
100
AcDbBlockTableRecord
  2
*D13
340
0
  0
BLOCK_RECORD
  5
968
330
1
100
AcDbSymbolTableRecord
100
AcDbBlockTableRecord
  2
*D14
340
0
  0
BLOCK_RECORD
  5
9F0
330
1
100
AcDbSymbolTableRecord
100
AcDbBlockTableRecord
  2
*D15
340
0
  0
BLOCK_RECORD
  5
A2A
330
1
100
AcDbSymbolTableRecord
100
AcDbBlockTableRecord
  2
*D16
340
0
  0
BLOCK_RECORD
  5
A33
330
1
100
AcDbSymbolTableRecord
100
AcDbBlockTableRecord
  2
*D17
340
0
  0
BLOCK_RECORD
  5
A3C
330
1
100
AcDbSymbolTableRecord
100
AcDbBlockTableRecord
  2
*D18
340
0
  0
BLOCK_RECORD
  5
E05
330
1
100
AcDbSymbolTableRecord
100
AcDbBlockTableRecord
  2
*D19
340
0
  0
BLOCK_RECORD
  5
E11
330
1
100
AcDbSymbolTableRecord
100
AcDbBlockTableRecord
  2
*D20
340
0
  0
BLOCK_RECORD
  5
E1D
330
1
100
AcDbSymbolTableRecord
100
AcDbBlockTableRecord
  2
*D21
340
0
  0
BLOCK_RECORD
  5
E57
330
1
100
AcDbSymbolTableRecord
100
AcDbBlockTableRecord
  2
A$C2CBA1DD3
340
0
102
{BLKREFS
331
E94
102
}
  0
BLOCK_RECORD
  5
EEC
330
1
100
AcDbSymbolTableRecord
100
AcDbBlockTableRecord
  2
*D23
340
0
  0
BLOCK_RECORD
  5
EF7
330
1
100
AcDbSymbolTableRecord
100
AcDbBlockTableRecord
  2
*D24
340
0
  0
BLOCK_RECORD
  5
F00
330
1
100
AcDbSymbolTableRecord
100
AcDbBlockTableRecord
  2
*D25
340
0
  0
BLOCK_RECORD
  5
1375
330
1
100
AcDbSymbolTableRecord
100
AcDbBlockTableRecord
  2
*D26
340
0
  0
BLOCK_RECORD
  5
1381
330
1
100
AcDbSymbolTableRecord
100
AcDbBlockTableRecord
  2
*D27
340
0
  0
BLOCK_RECORD
  5
138D
330
1
100
AcDbSymbolTableRecord
100
AcDbBlockTableRecord
  2
*D28
340
0
  0
BLOCK_RECORD
  5
1462
330
1
100
AcDbSymbolTableRecord
100
AcDbBlockTableRecord
  2
*D29
340
0
  0
BLOCK_RECORD
  5
146E
330
1
100
AcDbSymbolTableRecord
100
AcDbBlockTableRecord
  2
*D30
340
0
  0
BLOCK_RECORD
  5
147A
330
1
100
AcDbSymbolTableRecord
100
AcDbBlockTableRecord
  2
*D31
340
0
  0
BLOCK_RECORD
  5
18D8
330
1
100
AcDbSymbolTableRecord
100
AcDbBlockTableRecord
  2
*D32
340
0
  0
BLOCK_RECORD
  5
18E4
330
1
100
AcDbSymbolTableRecord
100
AcDbBlockTableRecord
  2
*D33
340
0
  0
BLOCK_RECORD
  5
18F0
330
1
100
AcDbSymbolTableRecord
100
AcDbBlockTableRecord
  2
*D34
340
0
  0
BLOCK_RECORD
  5
19D6
330
1
100
AcDbSymbolTableRecord
100
AcDbBlockTableRecord
  2
*D35
340
0
  0
BLOCK_RECORD
  5
19E2
330
1
100
AcDbSymbolTableRecord
100
AcDbBlockTableRecord
  2
*D36
340
0
  0
BLOCK_RECORD
  5
19EE
330
1
100
AcDbSymbolTableRecord
100
AcDbBlockTableRecord
  2
*D37
340
0
  0
BLOCK_RECORD
  5
1E4A
330
1
100
AcDbSymbolTableRecord
100
AcDbBlockTableRecord
  2
*D38
340
0
  0
BLOCK_RECORD
  5
1E56
330
1
100
AcDbSymbolTableRecord
100
AcDbBlockTableRecord
  2
*D39
340
0
  0
BLOCK_RECORD
  5
1E62
330
1
100
AcDbSymbolTableRecord
100
AcDbBlockTableRecord
  2
*D40
340
0
  0
BLOCK_RECORD
  5
1F48
330
1
100
AcDbSymbolTableRecord
100
AcDbBlockTableRecord
  2
*D41
340
0
  0
BLOCK_RECORD
  5
1F53
330
1
100
AcDbSymbolTableRecord
100
AcDbBlockTableRecord
  2
*D42
340
0
  0
BLOCK_RECORD
  5
1F5C
330
1
100
AcDbSymbolTableRecord
100
AcDbBlockTableRecord
  2
*D43
340
0
  0
BLOCK_RECORD
  5
2273
330
1
100
AcDbSymbolTableRecord
100
AcDbBlockTableRecord
  2
*D44
340
0
  0
BLOCK_RECORD
  5
227F
330
1
100
AcDbSymbolTableRecord
100
AcDbBlockTableRecord
  2
*D45
340
0
  0
BLOCK_RECORD
  5
228B
330
1
100
AcDbSymbolTableRecord
100
AcDbBlockTableRecord
  2
*D46
340
0
  0
BLOCK_RECORD
  5
232B
330
1
100
AcDbSymbolTableRecord
100
AcDbBlockTableRecord
  2
*D47
340
0
  0
BLOCK_RECORD
  5
2336
330
1
100
AcDbSymbolTableRecord
100
AcDbBlockTableRecord
  2
*D48
340
0
  0
BLOCK_RECORD
  5
233F
330
1
100
AcDbSymbolTableRecord
100
AcDbBlockTableRecord
  2
*D49
340
0
  0
BLOCK_RECORD
  5
27C8
330
1
100
AcDbSymbolTableRecord
100
AcDbBlockTableRecord
  2
*D50
340
0
  0
BLOCK_RECORD
  5
27D4
330
1
100
AcDbSymbolTableRecord
100
AcDbBlockTableRecord
  2
*D51
340
0
  0
BLOCK_RECORD
  5
27E0
330
1
100
AcDbSymbolTableRecord
100
AcDbBlockTableRecord
  2
*D52
340
0
  0
BLOCK_RECORD
  5
282B
330
1
100
AcDbSymbolTableRecord
100
AcDbBlockTableRecord
  2
*D53
340
0
  0
BLOCK_RECORD
  5
283C
330
1
100
AcDbSymbolTableRecord
100
AcDbBlockTableRecord
  2
*D54
340
0
  0
BLOCK_RECORD
  5
28DC
330
1
100
AcDbSymbolTableRecord
100
AcDbBlockTableRecord
  2
A$C747F7E33
340
0
  0
ENDTAB
  0
ENDSEC
  0
SECTION
  2
BLOCKS
  0
BLOCK
  5
20
330
1F
100
AcDbEntity
  8
0
100
AcDbBlockBegin
  2
*Model_Space
 70
     0
 10
0.0
 20
0.0
 30
0.0
  3
*Model_Space
  1

  0
ENDBLK
  5
21
330
1F
100
AcDbEntity
  8
0
100
AcDbBlockEnd
  0
BLOCK
  5
1C
330
1B
100
AcDbEntity
 67
     1
  8
0
100
AcDbBlockBegin
  2
*Paper_Space
 70
     0
 10
0.0
 20
0.0
 30
0.0
  3
*Paper_Space
  1

  0
ENDBLK
  5
1D
330
1B
100
AcDbEntity
 67
     1
  8
0
100
AcDbBlockEnd
  0
BLOCK
  5
24
330
23
100
AcDbEntity
  8
0
100
AcDbBlockBegin
  2
*Paper_Space0
 70
     0
 10
0.0
 20
0.0
 30
0.0
  3
*Paper_Space0
  1

  0
ENDBLK
  5
25
330
23
100
AcDbEntity
  8
0
100
AcDbBlockEnd
  0
BLOCK
  5
257
330
24D
100
AcDbEntity
  8
0
100
AcDbBlockBegin
  2
*D1
 70
     1
 10
0.0
 20
0.0
 30
0.0
  3
*D1
  1

  0
LINE
  5
478
330
24D
100
AcDbEntity
  8
2
 62
     0
370
    -2
100
AcDbLine
 10
-87.0244716539276
 20
-26.41566902687695
 30
0.0
 11
-87.0244716539276
 21
-17.72363367612226
 31
0.0
  0
LINE
  5
479
330
24D
100
AcDbEntity
  8
2
 62
     0
370
    -2
100
AcDbLine
 10
-51.0244716539276
 20
-32.39092980467695
 30
0.0
 11
-51.0244716539276
 21
-17.72363367612226
 31
0.0
  0
LINE
  5
47A
330
24D
100
AcDbEntity
  8
2
 62
     0
370
    -2
100
AcDbLine
 10
-82.45447165392761
 20
-19.72363367612226
 30
0.0
 11
-55.59447165392761
 21
-19.72363367612226
 31
0.0
  0
SOLID
  5
47B
330
24D
100
AcDbEntity
  8
2
 62
     0
100
AcDbTrace
 10
-82.45447165392761
 20
-18.96196700945559
 30
0.0
 11
-82.45447165392761
 21
-20.48530034278893
 31
0.0
 12
-87.0244716539276
 22
-19.72363367612226
 32
0.0
 13
-87.0244716539276
 23
-19.72363367612226
 33
0.0
  0
SOLID
  5
47C
330
24D
100
AcDbEntity
  8
2
 62
     0
100
AcDbTrace
 10
-55.59447165392761
 20
-18.96196700945559
 30
0.0
 11
-55.59447165392761
 21
-20.48530034278893
 31
0.0
 12
-51.0244716539276
 22
-19.72363367612226
 32
0.0
 13
-51.0244716539276
 23
-19.72363367612226
 33
0.0
  0
MTEXT
  5
47D
330
24D
100
AcDbEntity
  8
2
 62
     7
100
AcDbMText
 10
-69.02447165392761
 20
-15.93863367612225
 30
0.0
 40
4.57
 41
0.0
 71
     5
 72
     1
  1
\A1;36
  7
GENPRESET
 73
     1
 44
1.0
  0
POINT
  5
47E
330
24D
100
AcDbEntity
  8
Defpoints
 62
     0
100
AcDbPoint
 10
-87.0244716539276
 20
-26.41566902687695
 30
0.0
  0
POINT
  5
47F
330
24D
100
AcDbEntity
  8
Defpoints
 62
     0
100
AcDbPoint
 10
-51.0244716539276
 20
-32.39092980467695
 30
0.0
  0
POINT
  5
480
330
24D
100
AcDbEntity
  8
Defpoints
 62
     0
100
AcDbPoint
 10
-51.0244716539276
 20
-19.72363367612226
 30
0.0
  0
ENDBLK
  5
258
330
24D
100
AcDbEntity
  8
0
100
AcDbBlockEnd
  0
BLOCK
  5
26B
330
261
100
AcDbEntity
  8
0
100
AcDbBlockBegin
  2
*D2
 70
     1
 10
0.0
 20
0.0
 30
0.0
  3
*D2
  1

  0
LINE
  5
2BA
330
261
100
AcDbEntity
  8
VERMASSUNG
 62
     0
370
    -2
100
AcDbLine
 10
0.0
 20
9.799999999999997
 30
0.0
 11
0.0000000000000003
 21
15.42960572859999
 31
0.0
  0
LINE
  5
2BB
330
261
100
AcDbEntity
  8
VERMASSUNG
 62
     0
370
    -2
100
AcDbLine
 10
26.5
 20
8.074677142099986
 30
0.0
 11
26.5
 21
15.42960572859999
 31
0.0
  0
LINE
  5
2BC
330
261
100
AcDbEntity
  8
VERMASSUNG
 62
     0
370
    -2
100
AcDbLine
 10
3.0
 20
14.42960572859997
 30
0.0
 11
23.5
 21
14.42960572859997
 31
0.0
  0
SOLID
  5
2BD
330
261
100
AcDbEntity
  8
VERMASSUNG
 62
     0
100
AcDbTrace
 10
3.0
 20
14.92960572859999
 30
0.0
 11
3.0
 21
13.92960572859998
 31
0.0
 12
0.0000000000000003
 22
14.42960572859997
 32
0.0
 13
0.0000000000000003
 23
14.42960572859997
 33
0.0
  0
SOLID
  5
2BE
330
261
100
AcDbEntity
  8
VERMASSUNG
 62
     0
100
AcDbTrace
 10
23.5
 20
14.92960572859999
 30
0.0
 11
23.5
 21
13.92960572859998
 31
0.0
 12
26.5
 22
14.42960572859997
 32
0.0
 13
26.5
 23
14.42960572859997
 33
0.0
  0
MTEXT
  5
2BF
330
261
100
AcDbEntity
  8
VERMASSUNG
 62
     0
100
AcDbMText
 10
10.34999999999999
 20
17.95360572859999
 30
0.0
 40
2.0
 41
0.0
 71
     1
 72
     1
  1
\A1;26.50
  7
SLDTEXTSTYLE0
 73
     1
 44
1.0
  0
POINT
  5
2C0
330
261
100
AcDbEntity
  8
Defpoints
 62
     0
100
AcDbPoint
 10
0.0
 20
9.799999999999997
 30
0.0
  0
POINT
  5
2C1
330
261
100
AcDbEntity
  8
Defpoints
 62
     0
100
AcDbPoint
 10
26.5
 20
8.074677142099986
 30
0.0
  0
POINT
  5
2C2
330
261
100
AcDbEntity
  8
Defpoints
 62
     0
100
AcDbPoint
 10
26.5
 20
14.42960572859997
 30
0.0
  0
ENDBLK
  5
26C
330
261
100
AcDbEntity
  8
0
100
AcDbBlockEnd
  0
BLOCK
  5
27F
330
274
100
AcDbEntity
  8
0
100
AcDbBlockBegin
  2
*D3
 70
     1
 10
0.0
 20
0.0
 30
0.0
  3
*D3
  1

  0
LINE
  5
481
330
274
100
AcDbEntity
  8
SK2
 62
     0
370
    -2
100
AcDbLine
 10
-86.82447165392764
 20
-26.21566902687694
 30
0.0
 11
-104.5256577309275
 21
-26.21566902687694
 31
0.0
  0
LINE
  5
482
330
274
100
AcDbEntity
  8
SK2
 62
     0
370
    -2
100
AcDbLine
 10
-86.82447165392764
 20
-46.21566902687695
 30
0.0
 11
-104.5256577309276
 21
-46.21566902687695
 31
0.0
  0
LINE
  5
483
330
274
100
AcDbEntity
  8
SK2
 62
     0
370
    -2
100
AcDbLine
 10
-102.5256577309274
 20
-30.78566902687695
 30
0.0
 11
-102.5256577309276
 21
-41.64566902687695
 31
0.0
  0
SOLID
  5
484
330
274
100
AcDbEntity
  8
SK2
 62
     0
100
AcDbTrace
 10
-103.2873243975942
 20
-30.78566902687695
 30
0.0
 11
-101.7639910642609
 21
-30.78566902687695
 31
0.0
 12
-102.5256577309274
 22
-26.21566902687694
 32
0.0
 13
-102.5256577309274
 23
-26.21566902687694
 33
0.0
  0
SOLID
  5
485
330
274
100
AcDbEntity
  8
SK2
 62
     0
100
AcDbTrace
 10
-103.2873243975942
 20
-41.64566902687695
 30
0.0
 11
-101.7639910642609
 21
-41.64566902687695
 31
0.0
 12
-102.5256577309276
 22
-46.21566902687695
 32
0.0
 13
-102.5256577309276
 23
-46.21566902687695
 33
0.0
  0
MTEXT
  5
486
330
274
100
AcDbEntity
  8
SK2
 62
     7
100
AcDbMText
 10
-106.3106577309274
 20
-36.21566902687696
 30
0.0
 40
4.57
 41
0.0
 71
     5
 72
     1
  1
\A1;MBM %%c20
  7
GENPRESET
 11
0.0000000000000001
 21
1.0
 31
0.0
 73
     1
 44
1.0
  0
POINT
  5
487
330
274
100
AcDbEntity
  8
Defpoints
 62
     0
100
AcDbPoint
 10
-86.82447165392764
 20
-26.21566902687694
 30
0.0
  0
POINT
  5
488
330
274
100
AcDbEntity
  8
Defpoints
 62
     0
100
AcDbPoint
 10
-86.82447165392764
 20
-46.21566902687695
 30
0.0
  0
POINT
  5
489
330
274
100
AcDbEntity
  8
Defpoints
 62
     0
100
AcDbPoint
 10
-102.5256577309276
 20
-46.21566902687695
 30
0.0
  0
ENDBLK
  5
280
330
274
100
AcDbEntity
  8
0
100
AcDbBlockEnd
  0
BLOCK
  5
3A0
330
398
100
AcDbEntity
  8
0
100
AcDbBlockBegin
  2
*D4
 70
     1
 10
0.0
 20
0.0
 30
0.0
  3
*D4
  1

  0
LINE
  5
399
330
398
100
AcDbEntity
  8
SK2
 62
     0
370
    -2
100
AcDbLine
 10
13.49994397087499
 20
11.95
 30
0.0
 11
24.04200736209938
 21
11.94999999999999
 31
0.0
  0
LINE
  5
39A
330
398
100
AcDbEntity
  8
SK2
 62
     0
370
    -2
100
AcDbLine
 10
22.04200736209938
 20
7.379999999999997
 30
0.0
 11
22.04200736209937
 21
-11.94999999999999
 31
0.0
  0
SOLID
  5
39B
330
398
100
AcDbEntity
  8
SK2
 62
     0
100
AcDbTrace
 10
21.28034069543271
 20
7.379999999999997
 30
0.0
 11
22.80367402876604
 21
7.379999999999997
 31
0.0
 12
22.04200736209938
 22
11.94999999999999
 32
0.0
 13
22.04200736209938
 23
11.94999999999999
 33
0.0
  0
MTEXT
  5
39C
330
398
100
AcDbEntity
  8
SK2
 62
     7
100
AcDbMText
 10
18.25700736209937
 20
-2.284999999999993
 30
0.0
 40
4.57
 41
0.0
 71
     5
 72
     1
  1
\A1;ø23.9-31.1
  7
GENPRESET
 11
0.0000000000000001
 21
1.0
 31
0.0
 73
     1
 44
1.0
  0
POINT
  5
39D
330
398
100
AcDbEntity
  8
Defpoints
 62
     0
100
AcDbPoint
 10
13.49994397087499
 20
11.95
 30
0.0
  0
POINT
  5
39E
330
398
100
AcDbEntity
  8
Defpoints
 62
     0
100
AcDbPoint
 10
13.49994397087499
 20
-11.94999999999999
 30
0.0
  0
POINT
  5
39F
330
398
100
AcDbEntity
  8
Defpoints
 62
     0
100
AcDbPoint
 10
22.04200736209937
 20
-11.94999999999999
 30
0.0
  0
ENDBLK
  5
3A1
330
398
100
AcDbEntity
  8
0
100
AcDbBlockEnd
  0
BLOCK
  5
3A3
330
3A2
100
AcDbEntity
  8
0
100
AcDbBlockBegin
  2
_None
 70
     0
 10
0.0
 20
0.0
 30
0.0
  3
_None
  1

  0
ENDBLK
  5
3A4
330
3A2
100
AcDbEntity
  8
0
100
AcDbBlockEnd
  0
BLOCK
  5
43D
330
435
100
AcDbEntity
  8
0
100
AcDbBlockBegin
  2
*D6
 70
     1
 10
0.0
 20
0.0
 30
0.0
  3
*D6
  1

  0
LINE
  5
43F
330
435
100
AcDbEntity
  8
SK2
 62
     0
370
    -2
100
AcDbLine
 10
39.99994397087499
 20
11.95
 30
0.0
 11
50.54200736209939
 21
11.94999999999999
 31
0.0
  0
LINE
  5
440
330
435
100
AcDbEntity
  8
SK2
 62
     0
370
    -2
100
AcDbLine
 10
48.54200736209938
 20
7.379999999999997
 30
0.0
 11
48.54200736209938
 21
-11.94999999999999
 31
0.0
  0
SOLID
  5
441
330
435
100
AcDbEntity
  8
SK2
 62
     0
100
AcDbTrace
 10
47.78034069543271
 20
7.379999999999997
 30
0.0
 11
49.30367402876605
 21
7.379999999999997
 31
0.0
 12
48.54200736209938
 22
11.94999999999999
 32
0.0
 13
48.54200736209938
 23
11.94999999999999
 33
0.0
  0
MTEXT
  5
442
330
435
100
AcDbEntity
  8
SK2
 62
     7
100
AcDbMText
 10
44.75700736209938
 20
-2.284999999999989
 30
0.0
 40
4.57
 41
0.0
 71
     5
 72
     1
  1
\A1;ø23.9-31.1
  7
GENPRESET
 11
0.0000000000000001
 21
1.0
 31
0.0
 73
     1
 44
1.0
  0
POINT
  5
443
330
435
100
AcDbEntity
  8
Defpoints
 62
     0
100
AcDbPoint
 10
39.99994397087499
 20
11.95
 30
0.0
  0
POINT
  5
444
330
435
100
AcDbEntity
  8
Defpoints
 62
     0
100
AcDbPoint
 10
39.99994397087499
 20
-11.94999999999999
 30
0.0
  0
POINT
  5
445
330
435
100
AcDbEntity
  8
Defpoints
 62
     0
100
AcDbPoint
 10
48.54200736209938
 20
-11.94999999999999
 30
0.0
  0
ENDBLK
  5
43E
330
435
100
AcDbEntity
  8
0
100
AcDbBlockEnd
  0
BLOCK
  5
494
330
48A
100
AcDbEntity
  8
0
100
AcDbBlockBegin
  2
*D7
 70
     1
 10
0.0
 20
0.0
 30
0.0
  3
*D7
  1

  0
LINE
  5
48B
330
48A
100
AcDbEntity
  8
VERMASSUNG
 62
     0
370
    -2
100
AcDbLine
 10
129.7599624652999
 20
118.4207422387999
 30
0.0
 11
129.7599624652999
 21
131.47329334735
 31
0.0
  0
LINE
  5
48C
330
48A
100
AcDbEntity
  8
VERMASSUNG
 62
     0
370
    -2
100
AcDbLine
 10
94.1099624653
 20
126.1657422387999
 30
0.0
 11
94.1099624653
 21
131.47329334735
 31
0.0
  0
LINE
  5
48D
330
48A
100
AcDbEntity
  8
VERMASSUNG
 62
     0
370
    -2
100
AcDbLine
 10
126.7599624652999
 20
130.47329334735
 30
0.0
 11
97.10996246530001
 21
130.47329334735
 31
0.0
  0
SOLID
  5
48E
330
48A
100
AcDbEntity
  8
VERMASSUNG
 62
     0
100
AcDbTrace
 10
126.7599624652999
 20
130.9732933473499
 30
0.0
 11
126.7599624652999
 21
129.9732933473499
 31
0.0
 12
129.7599624652999
 22
130.47329334735
 32
0.0
 13
129.7599624652999
 23
130.47329334735
 33
0.0
  0
SOLID
  5
48F
330
48A
100
AcDbEntity
  8
VERMASSUNG
 62
     0
100
AcDbTrace
 10
97.10996246530001
 20
130.9732933473499
 30
0.0
 11
97.10996246530001
 21
129.9732933473499
 31
0.0
 12
94.1099624653
 22
130.47329334735
 32
0.0
 13
94.1099624653
 23
130.47329334735
 33
0.0
  0
MTEXT
  5
490
330
48A
100
AcDbEntity
  8
VERMASSUNG
 62
     0
100
AcDbMText
 10
109.2349624653
 20
133.9972933473499
 30
0.0
 40
2.0
 41
0.0
 71
     1
 72
     1
  1
\A1;17.83
  7
SLDTEXTSTYLE0
 73
     1
 44
1.0
  0
POINT
  5
491
330
48A
100
AcDbEntity
  8
Defpoints
 62
     0
100
AcDbPoint
 10
129.7599624652999
 20
118.4207422387999
 30
0.0
  0
POINT
  5
492
330
48A
100
AcDbEntity
  8
Defpoints
 62
     0
100
AcDbPoint
 10
94.1099624653
 20
126.1657422387999
 30
0.0
  0
POINT
  5
493
330
48A
100
AcDbEntity
  8
Defpoints
 62
     0
100
AcDbPoint
 10
94.1099624653
 20
130.47329334735
 30
0.0
  0
ENDBLK
  5
495
330
48A
100
AcDbEntity
  8
0
100
AcDbBlockEnd
  0
BLOCK
  5
4A0
330
496
100
AcDbEntity
  8
0
100
AcDbBlockBegin
  2
*D8
 70
     1
 10
0.0
 20
0.0
 30
0.0
  3
*D8
  1

  0
LINE
  5
497
330
496
100
AcDbEntity
  8
VERMASSUNG
 62
     0
370
    -2
100
AcDbLine
 10
94.1099624653
 20
126.1657422387999
 30
0.0
 11
94.1099624653
 21
134.4732933473499
 31
0.0
  0
LINE
  5
498
330
496
100
AcDbEntity
  8
VERMASSUNG
 62
     0
370
    -2
100
AcDbLine
 10
140.1099624652997
 20
120.08234397435
 30
0.0
 11
140.1099624652997
 21
134.4732933473499
 31
0.0
  0
LINE
  5
499
330
496
100
AcDbEntity
  8
VERMASSUNG
 62
     0
370
    -2
100
AcDbLine
 10
97.10996246530001
 20
133.4732933473499
 30
0.0
 11
137.1099624652994
 21
133.4732933473499
 31
0.0
  0
SOLID
  5
49A
330
496
100
AcDbEntity
  8
VERMASSUNG
 62
     0
100
AcDbTrace
 10
97.10996246530001
 20
133.9732933473499
 30
0.0
 11
97.10996246530001
 21
132.9732933473499
 31
0.0
 12
94.1099624653
 22
133.4732933473499
 32
0.0
 13
94.1099624653
 23
133.4732933473499
 33
0.0
  0
SOLID
  5
49B
330
496
100
AcDbEntity
  8
VERMASSUNG
 62
     0
100
AcDbTrace
 10
137.1099624652994
 20
133.9732933473499
 30
0.0
 11
137.1099624652994
 21
132.9732933473499
 31
0.0
 12
140.1099624652997
 22
133.4732933473499
 32
0.0
 13
140.1099624652997
 23
133.4732933473499
 33
0.0
  0
MTEXT
  5
49C
330
496
100
AcDbEntity
  8
VERMASSUNG
 62
     0
100
AcDbMText
 10
114.2099624653
 20
136.99729334735
 30
0.0
 40
2.0
 41
0.0
 71
     1
 72
     1
  1
\A1;23.00
  7
SLDTEXTSTYLE0
 73
     1
 44
1.0
  0
POINT
  5
49D
330
496
100
AcDbEntity
  8
Defpoints
 62
     0
100
AcDbPoint
 10
94.1099624653
 20
126.1657422387999
 30
0.0
  0
POINT
  5
49E
330
496
100
AcDbEntity
  8
Defpoints
 62
     0
100
AcDbPoint
 10
140.1099624652997
 20
120.08234397435
 30
0.0
  0
POINT
  5
49F
330
496
100
AcDbEntity
  8
Defpoints
 62
     0
100
AcDbPoint
 10
140.1099624652997
 20
133.4732933473499
 30
0.0
  0
ENDBLK
  5
4A1
330
496
100
AcDbEntity
  8
0
100
AcDbBlockEnd
  0
BLOCK
  5
4AC
330
4A2
100
AcDbEntity
  8
0
100
AcDbBlockBegin
  2
*D9
 70
     1
 10
0.0
 20
0.0
 30
0.0
  3
*D9
  1

  0
LINE
  5
4A3
330
4A2
100
AcDbEntity
  8
VERMASSUNG
 62
     0
370
    -2
100
AcDbLine
 10
94.3099624653
 20
126.3657422387999
 30
0.0
 11
76.69506171390003
 21
126.3657422387999
 31
0.0
  0
LINE
  5
4A4
330
4A2
100
AcDbEntity
  8
VERMASSUNG
 62
     0
370
    -2
100
AcDbLine
 10
94.3099624653
 20
101.3657422387999
 30
0.0
 11
76.69506171390003
 21
101.3657422387999
 31
0.0
  0
LINE
  5
4A5
330
4A2
100
AcDbEntity
  8
VERMASSUNG
 62
     0
370
    -2
100
AcDbLine
 10
77.69506171390003
 20
123.3657422387999
 30
0.0
 11
77.69506171390003
 21
104.3657422387999
 31
0.0
  0
SOLID
  5
4A6
330
4A2
100
AcDbEntity
  8
VERMASSUNG
 62
     0
100
AcDbTrace
 10
77.19506171390003
 20
123.3657422387999
 30
0.0
 11
78.19506171390003
 21
123.3657422387999
 31
0.0
 12
77.69506171390003
 22
126.3657422387999
 32
0.0
 13
77.69506171390003
 23
126.3657422387999
 33
0.0
  0
SOLID
  5
4A7
330
4A2
100
AcDbEntity
  8
VERMASSUNG
 62
     0
100
AcDbTrace
 10
77.19506171390003
 20
104.3657422387999
 30
0.0
 11
78.19506171390003
 21
104.3657422387999
 31
0.0
 12
77.69506171390003
 22
101.3657422387999
 32
0.0
 13
77.69506171390003
 23
101.3657422387999
 33
0.0
  0
MTEXT
  5
4A8
330
4A2
100
AcDbEntity
  8
VERMASSUNG
 62
     0
100
AcDbMText
 10
62.5710617139
 20
114.8664998145574
 30
0.0
 40
2.0
 41
0.0
 71
     1
 72
     1
  1
\A1;MBM %%c12.50
  7
SLDTEXTSTYLE0
 73
     1
 44
1.0
  0
POINT
  5
4A9
330
4A2
100
AcDbEntity
  8
Defpoints
 62
     0
100
AcDbPoint
 10
94.3099624653
 20
126.3657422387999
 30
0.0
  0
POINT
  5
4AA
330
4A2
100
AcDbEntity
  8
Defpoints
 62
     0
100
AcDbPoint
 10
94.3099624653
 20
101.3657422387999
 30
0.0
  0
POINT
  5
4AB
330
4A2
100
AcDbEntity
  8
Defpoints
 62
     0
100
AcDbPoint
 10
77.69506171390003
 20
101.3657422387999
 30
0.0
  0
ENDBLK
  5
4AD
330
4A2
100
AcDbEntity
  8
0
100
AcDbBlockEnd
  0
BLOCK
  5
4B7
330
4AE
100
AcDbEntity
  8
0
100
AcDbBlockBegin
  2
SW_CENTERMARKSYMBOL_0
 70
     0
 10
0.0
 20
0.0
 30
0.0
  3
SW_CENTERMARKSYMBOL_0
  1

  0
LINE
  5
4AF
330
4AE
100
AcDbEntity
  8
VERMASSUNG
100
AcDbLine
 10
0.0
 20
0.0
 30
0.0
 11
0.0
 21
5.0
 31
0.0
  0
LINE
  5
4B0
330
4AE
100
AcDbEntity
  8
VERMASSUNG
100
AcDbLine
 10
0.0
 20
0.0
 30
0.0
 11
-5.0
 21
0.0
 31
0.0
  0
LINE
  5
4B1
330
4AE
100
AcDbEntity
  8
VERMASSUNG
100
AcDbLine
 10
0.0
 20
0.0
 30
0.0
 11
0.0
 21
-5.0
 31
0.0
  0
LINE
  5
4B2
330
4AE
100
AcDbEntity
  8
VERMASSUNG
100
AcDbLine
 10
0.0
 20
0.0
 30
0.0
 11
5.0
 21
0.0
 31
0.0
  0
LINE
  5
4B3
330
4AE
100
AcDbEntity
  8
VERMASSUNG
100
AcDbLine
 10
0.0
 20
5.0
 30
0.0
 11
0.0
 21
9.109999999999999
 31
0.0
  0
LINE
  5
4B4
330
4AE
100
AcDbEntity
  8
VERMASSUNG
100
AcDbLine
 10
-5.0
 20
0.0
 30
0.0
 11
-9.109999999999999
 21
0.0
 31
0.0
  0
LINE
  5
4B5
330
4AE
100
AcDbEntity
  8
VERMASSUNG
100
AcDbLine
 10
0.0
 20
-5.0
 30
0.0
 11
0.0
 21
-9.109999999999999
 31
0.0
  0
LINE
  5
4B6
330
4AE
100
AcDbEntity
  8
VERMASSUNG
100
AcDbLine
 10
5.0
 20
0.0
 30
0.0
 11
9.109999999999999
 21
0.0
 31
0.0
  0
ENDBLK
  5
4B8
330
4AE
100
AcDbEntity
  8
0
100
AcDbBlockEnd
  0
BLOCK
  5
933
330
929
100
AcDbEntity
  8
0
100
AcDbBlockBegin
  2
*D11
 70
     1
 10
0.0
 20
0.0
 30
0.0
  3
*D11
  1

  0
LINE
  5
94D
330
929
100
AcDbEntity
  8
VERMASSUNG
 62
     0
370
    -2
100
AcDbLine
 10
0.2000000000000028
 20
12.49999999999998
 30
0.0
 11
-17.41490075139999
 21
12.49999999999999
 31
0.0
  0
LINE
  5
94E
330
929
100
AcDbEntity
  8
VERMASSUNG
 62
     0
370
    -2
100
AcDbLine
 10
0.2000000000000028
 20
-12.5
 30
0.0
 11
-17.4149007514
 21
-12.49999999999999
 31
0.0
  0
LINE
  5
94F
330
929
100
AcDbEntity
  8
VERMASSUNG
 62
     0
370
    -2
100
AcDbLine
 10
-16.41490075139999
 20
9.499999999999991
 30
0.0
 11
-16.4149007514
 21
-9.499999999999994
 31
0.0
  0
SOLID
  5
950
330
929
100
AcDbEntity
  8
VERMASSUNG
 62
     0
100
AcDbTrace
 10
-16.91490075139999
 20
9.499999999999991
 30
0.0
 11
-15.91490075139998
 21
9.499999999999991
 31
0.0
 12
-16.41490075139999
 22
12.49999999999999
 32
0.0
 13
-16.41490075139999
 23
12.49999999999999
 33
0.0
  0
SOLID
  5
951
330
929
100
AcDbEntity
  8
VERMASSUNG
 62
     0
100
AcDbTrace
 10
-16.9149007514
 20
-9.499999999999994
 30
0.0
 11
-15.9149007514
 21
-9.499999999999994
 31
0.0
 12
-16.4149007514
 22
-12.49999999999999
 32
0.0
 13
-16.4149007514
 23
-12.49999999999999
 33
0.0
  0
MTEXT
  5
952
330
929
100
AcDbEntity
  8
VERMASSUNG
 62
     0
100
AcDbMText
 10
-31.53890075139999
 20
1.000757575757574
 30
0.0
 40
2.0
 41
0.0
 71
     1
 72
     1
  1
\A1;MBM %%c12.50
  7
SLDTEXTSTYLE0
 73
     1
 44
1.0
  0
POINT
  5
953
330
929
100
AcDbEntity
  8
Defpoints
 62
     0
100
AcDbPoint
 10
0.2000000000000028
 20
12.49999999999998
 30
0.0
  0
POINT
  5
954
330
929
100
AcDbEntity
  8
Defpoints
 62
     0
100
AcDbPoint
 10
0.2000000000000028
 20
-12.5
 30
0.0
  0
POINT
  5
955
330
929
100
AcDbEntity
  8
Defpoints
 62
     0
100
AcDbPoint
 10
-16.4149007514
 20
-12.49999999999999
 30
0.0
  0
ENDBLK
  5
934
330
929
100
AcDbEntity
  8
0
100
AcDbBlockEnd
  0
BLOCK
  5
93F
330
935
100
AcDbEntity
  8
0
100
AcDbBlockBegin
  2
*D12
 70
     1
 10
0.0
 20
0.0
 30
0.0
  3
*D12
  1

  0
LINE
  5
956
330
935
100
AcDbEntity
  8
VERMASSUNG
 62
     0
370
    -2
100
AcDbLine
 10
35.64999999999999
 20
4.554999999999992
 30
0.0
 11
35.64999999999999
 21
17.60755110854998
 31
0.0
  0
LINE
  5
957
330
935
100
AcDbEntity
  8
VERMASSUNG
 62
     0
370
    -2
100
AcDbLine
 10
0.0
 20
12.29999999999999
 30
0.0
 11
0.0000000000000003
 21
17.60755110854998
 31
0.0
  0
LINE
  5
958
330
935
100
AcDbEntity
  8
VERMASSUNG
 62
     0
370
    -2
100
AcDbLine
 10
32.64999999999999
 20
16.60755110854999
 30
0.0
 11
3.0
 21
16.60755110854999
 31
0.0
  0
SOLID
  5
959
330
935
100
AcDbEntity
  8
VERMASSUNG
 62
     0
100
AcDbTrace
 10
32.64999999999999
 20
17.10755110854999
 30
0.0
 11
32.64999999999999
 21
16.10755110855
 31
0.0
 12
35.64999999999999
 22
16.60755110854999
 32
0.0
 13
35.64999999999999
 23
16.60755110854999
 33
0.0
  0
SOLID
  5
95A
330
935
100
AcDbEntity
  8
VERMASSUNG
 62
     0
100
AcDbTrace
 10
3.0
 20
17.10755110854999
 30
0.0
 11
3.0
 21
16.10755110855
 31
0.0
 12
0.0000000000000003
 22
16.60755110854999
 32
0.0
 13
0.0000000000000003
 23
16.60755110854999
 33
0.0
  0
MTEXT
  5
95B
330
935
100
AcDbEntity
  8
VERMASSUNG
 62
     0
100
AcDbMText
 10
15.125
 20
20.13155110855
 30
0.0
 40
2.0
 41
0.0
 71
     1
 72
     1
  1
\A1;17.83
  7
SLDTEXTSTYLE0
 73
     1
 44
1.0
  0
POINT
  5
95C
330
935
100
AcDbEntity
  8
Defpoints
 62
     0
100
AcDbPoint
 10
35.64999999999999
 20
4.554999999999992
 30
0.0
  0
POINT
  5
95D
330
935
100
AcDbEntity
  8
Defpoints
 62
     0
100
AcDbPoint
 10
0.0
 20
12.29999999999999
 30
0.0
  0
POINT
  5
95E
330
935
100
AcDbEntity
  8
Defpoints
 62
     0
100
AcDbPoint
 10
0.0000000000000003
 20
16.60755110854999
 30
0.0
  0
ENDBLK
  5
940
330
935
100
AcDbEntity
  8
0
100
AcDbBlockEnd
  0
BLOCK
  5
94B
330
941
100
AcDbEntity
  8
0
100
AcDbBlockBegin
  2
*D13
 70
     1
 10
0.0
 20
0.0
 30
0.0
  3
*D13
  1

  0
LINE
  5
A18
330
941
100
AcDbEntity
  8
2
 62
     0
370
    -2
100
AcDbLine
 10
-82.47180419026618
 20
-20.14998903838178
 30
0.0
 11
-82.47180419026618
 21
-10.84243792983176
 31
0.0
  0
LINE
  5
A19
330
941
100
AcDbEntity
  8
2
 62
     0
370
    -2
100
AcDbLine
 10
-36.47180419026619
 20
-26.23338730283176
 30
0.0
 11
-36.47180419026619
 21
-10.84243792983176
 31
0.0
  0
LINE
  5
A1A
330
941
100
AcDbEntity
  8
2
 62
     0
370
    -2
100
AcDbLine
 10
-77.90180419026619
 20
-12.84243792983176
 30
0.0
 11
-41.04180419026619
 21
-12.84243792983176
 31
0.0
  0
SOLID
  5
A1B
330
941
100
AcDbEntity
  8
2
 62
     0
100
AcDbTrace
 10
-77.90180419026619
 20
-12.08077126316511
 30
0.0
 11
-77.90180419026619
 21
-13.60410459649844
 31
0.0
 12
-82.47180419026618
 22
-12.84243792983176
 32
0.0
 13
-82.47180419026618
 23
-12.84243792983176
 33
0.0
  0
SOLID
  5
A1C
330
941
100
AcDbEntity
  8
2
 62
     0
100
AcDbTrace
 10
-41.04180419026619
 20
-12.08077126316511
 30
0.0
 11
-41.04180419026619
 21
-13.60410459649844
 31
0.0
 12
-36.47180419026619
 22
-12.84243792983176
 32
0.0
 13
-36.47180419026619
 23
-12.84243792983176
 33
0.0
  0
MTEXT
  5
A1D
330
941
100
AcDbEntity
  8
2
 62
     7
100
AcDbMText
 10
-59.47180419026615
 20
-9.057437929831783
 30
0.0
 40
4.57
 41
0.0
 71
     5
 72
     1
  1
\A1;46
  7
GENPRESET
 73
     1
 44
1.0
  0
POINT
  5
A1E
330
941
100
AcDbEntity
  8
Defpoints
 62
     0
100
AcDbPoint
 10
-82.47180419026618
 20
-20.14998903838178
 30
0.0
  0
POINT
  5
A1F
330
941
100
AcDbEntity
  8
Defpoints
 62
     0
100
AcDbPoint
 10
-36.47180419026619
 20
-26.23338730283176
 30
0.0
  0
POINT
  5
A20
330
941
100
AcDbEntity
  8
Defpoints
 62
     0
100
AcDbPoint
 10
-36.47180419026619
 20
-12.84243792983176
 30
0.0
  0
ENDBLK
  5
94C
330
941
100
AcDbEntity
  8
0
100
AcDbBlockEnd
  0
BLOCK
  5
972
330
968
100
AcDbEntity
  8
0
 62
     0
100
AcDbBlockBegin
  2
*D14
 70
     1
 10
0.0
 20
0.0
 30
0.0
  3
*D14
  1

  0
LINE
  5
969
330
968
100
AcDbEntity
  8
SK2
 62
     0
370
    -2
100
AcDbLine
 10
0.1999995677999919
 20
12.5
 30
0.0
 11
-19.38169290102023
 21
12.5
 31
0.0
  0
LINE
  5
96A
330
968
100
AcDbEntity
  8
SK2
 62
     0
370
    -2
100
AcDbLine
 10
0.1999995677999919
 20
-12.5
 30
0.0
 11
-19.38169290102023
 21
-12.49999999999999
 31
0.0
  0
LINE
  5
96B
330
968
100
AcDbEntity
  8
SK2
 62
     0
370
    -2
100
AcDbLine
 10
-16.88169290102024
 20
7.930000000000005
 30
0.0
 11
-16.88169290102024
 21
-7.929999999999994
 31
0.0
  0
SOLID
  5
96C
330
968
100
AcDbEntity
  8
SK2
 62
     0
100
AcDbTrace
 10
-17.64335956768691
 20
7.930000000000005
 30
0.0
 11
-16.12002623435357
 21
7.930000000000005
 31
0.0
 12
-16.88169290102024
 22
12.5
 32
0.0
 13
-16.88169290102024
 23
12.5
 33
0.0
  0
SOLID
  5
96D
330
968
100
AcDbEntity
  8
SK2
 62
     0
100
AcDbTrace
 10
-17.64335956768691
 20
-7.929999999999994
 30
0.0
 11
-16.12002623435357
 21
-7.929999999999994
 31
0.0
 12
-16.88169290102024
 22
-12.49999999999999
 32
0.0
 13
-16.88169290102024
 23
-12.49999999999999
 33
0.0
  0
MTEXT
  5
96E
330
968
100
AcDbEntity
  8
SK2
 62
     7
100
AcDbMText
 10
-22.95169290102023
 20
-13.2747619047619
 30
0.0
 40
4.57
 41
0.0
 71
     1
 72
     1
  1
\A1;MBM%%c25
  7
GENPRESET
 11
0.0000000000000001
 21
1.0
 31
0.0
 73
     1
 44
1.0
  0
POINT
  5
96F
330
968
100
AcDbEntity
  8
Defpoints
 62
     0
100
AcDbPoint
 10
0.1999995677999919
 20
12.5
 30
0.0
  0
POINT
  5
970
330
968
100
AcDbEntity
  8
Defpoints
 62
     0
100
AcDbPoint
 10
0.1999995677999919
 20
-12.5
 30
0.0
  0
POINT
  5
971
330
968
100
AcDbEntity
  8
Defpoints
 62
     0
100
AcDbPoint
 10
-16.88169290102024
 20
-12.49999999999999
 30
0.0
  0
ENDBLK
  5
973
330
968
100
AcDbEntity
  8
0
 62
     0
100
AcDbBlockEnd
  0
BLOCK
  5
9FA
330
9F0
100
AcDbEntity
  8
0
100
AcDbBlockBegin
  2
*D15
 70
     1
 10
0.0
 20
0.0
 30
0.0
  3
*D15
  1

  0
LINE
  5
A21
330
9F0
100
AcDbEntity
  8
SK2
 62
     0
370
    -2
100
AcDbLine
 10
-82.2718046224662
 20
-19.94998903838176
 30
0.0
 11
-101.3534970912864
 21
-19.94998903838176
 31
0.0
  0
LINE
  5
A22
330
9F0
100
AcDbEntity
  8
SK2
 62
     0
370
    -2
100
AcDbLine
 10
-82.2718046224662
 20
-44.94998903838178
 30
0.0
 11
-101.3534970912864
 21
-44.94998903838178
 31
0.0
  0
LINE
  5
A23
330
9F0
100
AcDbEntity
  8
SK2
 62
     0
370
    -2
100
AcDbLine
 10
-99.35349709128644
 20
-24.51998903838176
 30
0.0
 11
-99.35349709128644
 21
-40.37998903838177
 31
0.0
  0
SOLID
  5
A24
330
9F0
100
AcDbEntity
  8
SK2
 62
     0
100
AcDbTrace
 10
-100.1151637579529
 20
-24.51998903838176
 30
0.0
 11
-98.59183042461978
 21
-24.51998903838176
 31
0.0
 12
-99.35349709128644
 22
-19.94998903838176
 32
0.0
 13
-99.35349709128644
 23
-19.94998903838176
 33
0.0
  0
SOLID
  5
A25
330
9F0
100
AcDbEntity
  8
SK2
 62
     0
100
AcDbTrace
 10
-100.1151637579529
 20
-40.37998903838177
 30
0.0
 11
-98.59183042461978
 21
-40.37998903838177
 31
0.0
 12
-99.35349709128644
 22
-44.94998903838178
 32
0.0
 13
-99.35349709128644
 23
-44.94998903838178
 33
0.0
  0
MTEXT
  5
A26
330
9F0
100
AcDbEntity
  8
SK2
 62
     7
100
AcDbMText
 10
-103.1384970912864
 20
-32.44998903838178
 30
0.0
 40
4.57
 41
0.0
 71
     5
 72
     1
  1
\A1;MBM%%c25
  7
GENPRESET
 11
0.0000000000000001
 21
1.0
 31
0.0
 73
     1
 44
1.0
  0
POINT
  5
A27
330
9F0
100
AcDbEntity
  8
Defpoints
 62
     0
100
AcDbPoint
 10
-82.2718046224662
 20
-19.94998903838176
 30
0.0
  0
POINT
  5
A28
330
9F0
100
AcDbEntity
  8
Defpoints
 62
     0
100
AcDbPoint
 10
-82.2718046224662
 20
-44.94998903838178
 30
0.0
  0
POINT
  5
A29
330
9F0
100
AcDbEntity
  8
Defpoints
 62
     0
100
AcDbPoint
 10
-99.35349709128644
 20
-44.94998903838178
 30
0.0
  0
ENDBLK
  5
9FB
330
9F0
100
AcDbEntity
  8
0
100
AcDbBlockEnd
  0
BLOCK
  5
A31
330
A2A
100
AcDbEntity
  8
0
100
AcDbBlockBegin
  2
*D16
 70
     1
 10
0.0
 20
0.0
 30
0.0
  3
*D16
  1

  0
SOLID
  5
A2B
330
A2A
100
AcDbEntity
  8
VERMASSUNG
100
AcDbTrace
 10
110.6236652977
 20
141.7779015398999
 30
0.0
 11
113.6236652977
 21
141.3279015399
 31
0.0
 12
113.6236652977
 22
142.2279015398999
 32
0.0
 13
113.6236652977
 23
142.2279015398999
 33
0.0
  0
SOLID
  5
A2C
330
A2A
100
AcDbEntity
  8
VERMASSUNG
100
AcDbTrace
 10
158.7736652977
 20
141.7779015398999
 30
0.0
 11
155.7736652976999
 21
142.2279015398999
 31
0.0
 12
155.7736652976999
 22
141.3279015399
 32
0.0
 13
155.7736652976999
 23
141.3279015399
 33
0.0
  0
LINE
  5
A2D
330
A2A
100
AcDbEntity
  8
VERMASSUNG
100
AcDbLine
 10
110.6236652977
 20
136.2513347022999
 30
0.0
 11
110.6236652977
 21
142.7779015398999
 31
0.0
  0
LINE
  5
A2E
330
A2A
100
AcDbEntity
  8
VERMASSUNG
100
AcDbLine
 10
158.7736652977
 20
136.2513347022999
 30
0.0
 11
158.7736652977
 21
142.7779015398999
 31
0.0
  0
LINE
  5
A2F
330
A2A
100
AcDbEntity
  8
VERMASSUNG
100
AcDbLine
 10
110.6236652977
 20
141.7779015398999
 30
0.0
 11
158.7736652977
 21
141.7779015398999
 31
0.0
  0
MTEXT
  5
A30
330
A2A
100
AcDbEntity
  8
VERMASSUNG
100
AcDbMText
 10
131.6988128336999
 20
144.3779016563
 30
0.0
 40
2.0
 41
0.0
 71
     1
 72
     1
  1
{48.15}
  7
SLDTEXTSTYLE0
 73
     1
 44
1.0
  0
ENDBLK
  5
A32
330
A2A
100
AcDbEntity
  8
0
100
AcDbBlockEnd
  0
BLOCK
  5
A3A
330
A33
100
AcDbEntity
  8
0
100
AcDbBlockBegin
  2
*D17
 70
     1
 10
0.0
 20
0.0
 30
0.0
  3
*D17
  1

  0
SOLID
  5
A34
330
A33
100
AcDbEntity
  8
VERMASSUNG
100
AcDbTrace
 10
110.6236652977
 20
147.7779015399
 30
0.0
 11
113.6236652977
 21
147.3279015399
 31
0.0
 12
113.6236652977
 22
148.2279015398999
 32
0.0
 13
113.6236652977
 23
148.2279015398999
 33
0.0
  0
SOLID
  5
A35
330
A33
100
AcDbEntity
  8
VERMASSUNG
100
AcDbTrace
 10
171.6236652977
 20
147.7779015399
 30
0.0
 11
168.6236652977
 21
148.2279015398999
 31
0.0
 12
168.6236652977
 22
147.3279015399
 32
0.0
 13
168.6236652977
 23
147.3279015399
 33
0.0
  0
LINE
  5
A36
330
A33
100
AcDbEntity
  8
VERMASSUNG
100
AcDbLine
 10
110.6236652977
 20
136.2513347022999
 30
0.0
 11
110.6236652977
 21
148.7779015399
 31
0.0
  0
LINE
  5
A37
330
A33
100
AcDbEntity
  8
VERMASSUNG
100
AcDbLine
 10
171.6236652977
 20
129.3679364378
 30
0.0
 11
171.6236652977
 21
148.7779015399
 31
0.0
  0
LINE
  5
A38
330
A33
100
AcDbEntity
  8
VERMASSUNG
100
AcDbLine
 10
110.6236652977
 20
147.7779015399
 30
0.0
 11
171.6236652977
 21
147.7779015399
 31
0.0
  0
MTEXT
  5
A39
330
A33
100
AcDbEntity
  8
VERMASSUNG
100
AcDbMText
 10
139.9246573922
 20
150.3779016563
 30
0.0
 40
2.0
 41
0.0
 71
     1
 72
     1
  1
{61}
  7
SLDTEXTSTYLE0
 73
     1
 44
1.0
  0
ENDBLK
  5
A3B
330
A33
100
AcDbEntity
  8
0
100
AcDbBlockEnd
  0
BLOCK
  5
A45
330
A3C
100
AcDbEntity
  8
0
100
AcDbBlockBegin
  2
*D18
 70
     1
 10
0.0
 20
0.0
 30
0.0
  3
*D18
  1

  0
SOLID
  5
A3D
330
A3C
100
AcDbEntity
  8
VERMASSUNG
100
AcDbTrace
 10
88.4973261676
 20
136.5513347022998
 30
0.0
 11
88.0473261676
 21
133.5513347022998
 31
0.0
 12
88.9473261676
 22
133.5513347022998
 32
0.0
 13
88.9473261676
 23
133.5513347022998
 33
0.0
  0
SOLID
  5
A3E
330
A3C
100
AcDbEntity
  8
VERMASSUNG
100
AcDbTrace
 10
88.4973261676
 20
104.5513347023
 30
0.0
 11
88.9473261676
 21
107.5513347023
 31
0.0
 12
88.0473261676
 22
107.5513347023
 32
0.0
 13
88.0473261676
 23
107.5513347023
 33
0.0
  0
LINE
  5
A3F
330
A3C
100
AcDbEntity
  8
VERMASSUNG
100
AcDbLine
 10
110.9236652976999
 20
136.5513347022998
 30
0.0
 11
87.49732616760002
 21
136.5513347022998
 31
0.0
  0
LINE
  5
A40
330
A3C
100
AcDbEntity
  8
VERMASSUNG
100
AcDbLine
 10
110.9236652976999
 20
104.5513347023
 30
0.0
 11
87.49732616760002
 21
104.5513347023
 31
0.0
  0
LINE
  5
A41
330
A3C
100
AcDbEntity
  8
VERMASSUNG
100
AcDbLine
 10
88.4973261676
 20
136.5513347022998
 30
0.0
 11
88.4973261676
 21
104.5513347023
 31
0.0
  0
MTEXT
  5
A42
330
A3C
100
AcDbEntity
  8
VERMASSUNG
100
AcDbMText
 10
85.69732639100001
 20
114.1472950719
 30
0.0
 40
2.0
 41
0.0
 71
     1
 72
     1
  1
{MBM }
  7
SLDTEXTSTYLE0
 11
-0.000000000000007
 21
1.0
 31
0.0
 73
     1
 44
1.0
  0
MTEXT
  5
A43
330
A3C
100
AcDbEntity
  8
VERMASSUNG
100
AcDbMText
 10
85.8973263422
 20
120.5472949102
 30
0.0
 40
2.0
 41
0.0
 71
     1
 72
     1
  1
{%%c}
  7
SLDTEXTSTYLE0
 11
-0.000000000000007
 21
1.0
 31
0.0
 73
     1
 44
1.0
  0
MTEXT
  5
A44
330
A3C
100
AcDbEntity
  8
VERMASSUNG
100
AcDbMText
 10
85.8973260512
 20
124.1561340862
 30
0.0
 40
2.0
 41
0.0
 71
     1
 72
     1
  1
{32}
  7
SLDTEXTSTYLE0
 11
-0.000000000000007
 21
1.0
 31
0.0
 73
     1
 44
1.0
  0
ENDBLK
  5
A46
330
A3C
100
AcDbEntity
  8
0
100
AcDbBlockEnd
  0
BLOCK
  5
E0F
330
E05
100
AcDbEntity
  8
0
100
AcDbBlockBegin
  2
*D19
 70
     1
 10
0.0
 20
0.0
 30
0.0
  3
*D19
  1

  0
LINE
  5
EE3
330
E05
100
AcDbEntity
  8
SK2
 62
     0
370
    -2
100
AcDbLine
 10
-103.0000672613285
 20
-37.45747363963453
 30
0.0
 11
-127.4264063914285
 21
-37.45747363963452
 31
0.0
  0
LINE
  5
EE4
330
E05
100
AcDbEntity
  8
SK2
 62
     0
370
    -2
100
AcDbLine
 10
-103.0000672613285
 20
-69.45747363963453
 30
0.0
 11
-127.4264063914285
 21
-69.45747363963453
 31
0.0
  0
LINE
  5
EE5
330
E05
100
AcDbEntity
  8
SK2
 62
     0
370
    -2
100
AcDbLine
 10
-125.4264063914285
 20
-42.02747363963452
 30
0.0
 11
-125.4264063914285
 21
-64.88747363963452
 31
0.0
  0
SOLID
  5
EE6
330
E05
100
AcDbEntity
  8
SK2
 62
     0
100
AcDbTrace
 10
-126.1880730580952
 20
-42.02747363963452
 30
0.0
 11
-124.6647397247619
 21
-42.02747363963452
 31
0.0
 12
-125.4264063914285
 22
-37.45747363963452
 32
0.0
 13
-125.4264063914285
 23
-37.45747363963452
 33
0.0
  0
SOLID
  5
EE7
330
E05
100
AcDbEntity
  8
SK2
 62
     0
100
AcDbTrace
 10
-126.1880730580952
 20
-64.88747363963452
 30
0.0
 11
-124.6647397247619
 21
-64.88747363963452
 31
0.0
 12
-125.4264063914285
 22
-69.45747363963453
 32
0.0
 13
-125.4264063914285
 23
-69.45747363963453
 33
0.0
  0
MTEXT
  5
EE8
330
E05
100
AcDbEntity
  8
SK2
 62
     7
100
AcDbMText
 10
-129.2114063914286
 20
-53.45747363963454
 30
0.0
 40
4.57
 41
0.0
 71
     5
 72
     1
  1
\A1;MBM %%c32
  7
GENPRESET
 11
0.0000000000000001
 21
1.0
 31
0.0
 73
     1
 44
1.0
  0
POINT
  5
EE9
330
E05
100
AcDbEntity
  8
Defpoints
 62
     0
100
AcDbPoint
 10
-103.0000672613285
 20
-37.45747363963453
 30
0.0
  0
POINT
  5
EEA
330
E05
100
AcDbEntity
  8
Defpoints
 62
     0
100
AcDbPoint
 10
-103.0000672613285
 20
-69.45747363963453
 30
0.0
  0
POINT
  5
EEB
330
E05
100
AcDbEntity
  8
Defpoints
 62
     0
100
AcDbPoint
 10
-125.4264063914285
 20
-69.45747363963453
 30
0.0
  0
ENDBLK
  5
E10
330
E05
100
AcDbEntity
  8
0
100
AcDbBlockEnd
  0
BLOCK
  5
E1B
330
E11
100
AcDbEntity
  8
0
100
AcDbBlockBegin
  2
*D20
 70
     1
 10
0.0
 20
0.0
 30
0.0
  3
*D20
  1

  0
LINE
  5
EDA
330
E11
100
AcDbEntity
  8
2
 62
     0
370
    -2
100
AcDbLine
 10
-103.3000672613286
 20
-37.75747363963451
 30
0.0
 11
-103.3000672613286
 21
-24.23090680203451
 31
0.0
  0
LINE
  5
EDB
330
E11
100
AcDbEntity
  8
2
 62
     0
370
    -2
100
AcDbLine
 10
-42.30006726132861
 20
-44.6408719041345
 30
0.0
 11
-42.30006726132861
 21
-24.23090680203451
 31
0.0
  0
LINE
  5
EDC
330
E11
100
AcDbEntity
  8
2
 62
     0
370
    -2
100
AcDbLine
 10
-98.73006726132864
 20
-26.23090680203451
 30
0.0
 11
-46.87006726132862
 21
-26.23090680203451
 31
0.0
  0
SOLID
  5
EDD
330
E11
100
AcDbEntity
  8
2
 62
     0
100
AcDbTrace
 10
-98.73006726132864
 20
-25.46924013536784
 30
0.0
 11
-98.73006726132864
 21
-26.99257346870117
 31
0.0
 12
-103.3000672613286
 22
-26.23090680203451
 32
0.0
 13
-103.3000672613286
 23
-26.23090680203451
 33
0.0
  0
SOLID
  5
EDE
330
E11
100
AcDbEntity
  8
2
 62
     0
100
AcDbTrace
 10
-46.87006726132862
 20
-25.46924013536784
 30
0.0
 11
-46.87006726132862
 21
-26.99257346870117
 31
0.0
 12
-42.30006726132861
 22
-26.23090680203451
 32
0.0
 13
-42.30006726132861
 23
-26.23090680203451
 33
0.0
  0
MTEXT
  5
EDF
330
E11
100
AcDbEntity
  8
2
 62
     7
100
AcDbMText
 10
-72.80006726132862
 20
-22.4459068020345
 30
0.0
 40
4.57
 41
0.0
 71
     5
 72
     1
  1
\A1;61
  7
GENPRESET
 73
     1
 44
1.0
  0
POINT
  5
EE0
330
E11
100
AcDbEntity
  8
Defpoints
 62
     0
100
AcDbPoint
 10
-103.3000672613286
 20
-37.75747363963451
 30
0.0
  0
POINT
  5
EE1
330
E11
100
AcDbEntity
  8
Defpoints
 62
     0
100
AcDbPoint
 10
-42.30006726132861
 20
-44.6408719041345
 30
0.0
  0
POINT
  5
EE2
330
E11
100
AcDbEntity
  8
Defpoints
 62
     0
100
AcDbPoint
 10
-42.30006726132861
 20
-26.23090680203451
 30
0.0
  0
ENDBLK
  5
E1C
330
E11
100
AcDbEntity
  8
0
100
AcDbBlockEnd
  0
BLOCK
  5
E27
330
E1D
100
AcDbEntity
  8
0
100
AcDbBlockBegin
  2
*D21
 70
     1
 10
0.0
 20
0.0
 30
0.0
  3
*D21
  1

  0
LINE
  5
E3B
330
E1D
100
AcDbEntity
  8
VERMASSUNG
 62
     0
370
    -2
100
AcDbLine
 10
0.0
 20
15.7
 30
0.0
 11
0.0000000000000004
 21
22.2265668376
 31
0.0
  0
LINE
  5
E3C
330
E1D
100
AcDbEntity
  8
VERMASSUNG
 62
     0
370
    -2
100
AcDbLine
 10
48.15000000000001
 20
15.7
 30
0.0
 11
48.15000000000001
 21
22.2265668376
 31
0.0
  0
LINE
  5
E3D
330
E1D
100
AcDbEntity
  8
VERMASSUNG
 62
     0
370
    -2
100
AcDbLine
 10
3.0
 20
21.2265668376
 30
0.0
 11
45.14999999999999
 21
21.2265668376
 31
0.0
  0
SOLID
  5
E3E
330
E1D
100
AcDbEntity
  8
VERMASSUNG
 62
     0
100
AcDbTrace
 10
3.0
 20
21.7265668376
 30
0.0
 11
3.0
 21
20.7265668376
 31
0.0
 12
0.0000000000000003
 22
21.2265668376
 32
0.0
 13
0.0000000000000003
 23
21.2265668376
 33
0.0
  0
SOLID
  5
E3F
330
E1D
100
AcDbEntity
  8
VERMASSUNG
 62
     0
100
AcDbTrace
 10
45.14999999999999
 20
21.7265668376
 30
0.0
 11
45.14999999999999
 21
20.7265668376
 31
0.0
 12
48.15000000000001
 22
21.2265668376
 32
0.0
 13
48.15000000000001
 23
21.2265668376
 33
0.0
  0
MTEXT
  5
E40
330
E1D
100
AcDbEntity
  8
VERMASSUNG
 62
     0
100
AcDbMText
 10
21.27500000000001
 20
24.7505668376
 30
0.0
 40
2.0
 41
0.0
 71
     1
 72
     1
  1
\A1;48.15
  7
SLDTEXTSTYLE0
 73
     1
 44
1.0
  0
POINT
  5
E41
330
E1D
100
AcDbEntity
  8
Defpoints
 62
     0
100
AcDbPoint
 10
0.0
 20
15.7
 30
0.0
  0
POINT
  5
E42
330
E1D
100
AcDbEntity
  8
Defpoints
 62
     0
100
AcDbPoint
 10
48.15000000000001
 20
15.7
 30
0.0
  0
POINT
  5
E43
330
E1D
100
AcDbEntity
  8
Defpoints
 62
     0
100
AcDbPoint
 10
48.15000000000001
 20
21.2265668376
 30
0.0
  0
ENDBLK
  5
E28
330
E1D
100
AcDbEntity
  8
0
100
AcDbBlockEnd
  0
BLOCK
  5
E92
330
E57
100
AcDbEntity
  8
0
100
AcDbBlockBegin
  2
A$C2CBA1DD3
 70
     0
 10
0.0
 20
0.0
 30
0.0
  3
A$C2CBA1DD3
  1

  0
LINE
  5
E58
330
E57
100
AcDbEntity
  8
1
100
AcDbLine
 10
0.0
 20
-15.7
 30
0.0
 11
0.0
 21
15.7
 31
0.0
  0
LINE
  5
E59
330
E57
100
AcDbEntity
  8
SK1
100
AcDbLine
 10
-4.562004200450018
 20
9.0
 30
0.0
 11
-15.0
 21
9.0
 31
0.0
  0
LINE
  5
E5A
330
E57
100
AcDbEntity
  8
SK1
100
AcDbLine
 10
-15.0
 20
-9.0
 30
0.0
 11
-4.562004200450018
 21
-9.0
 31
0.0
  0
LINE
  5
E5B
330
E57
100
AcDbEntity
  8
SK4
100
AcDbLine
 10
0.0
 20
0.0
 30
0.0
 11
-18.0
 21
0.0
 31
0.0
  0
LINE
  5
E5C
330
E57
100
AcDbEntity
  8
SK3
100
AcDbLine
 10
0.0
 20
4.25
 30
0.0
 11
-14.7489234805
 21
4.249999999999999
 31
0.0
  0
LINE
  5
E5D
330
E57
100
AcDbEntity
  8
SK3
100
AcDbLine
 10
-14.7489234805
 20
-4.249999999999999
 30
0.0
 11
0.0
 21
-4.25
 31
0.0
  0
LINE
  5
E5E
330
E57
100
AcDbEntity
  8
SK3
100
AcDbLine
 10
-15.499999281
 20
-5.499999970199993
 30
0.0
 11
-15.499999281
 21
5.499999970200008
 31
0.0
  0
LINE
  5
E5F
330
E57
100
AcDbEntity
  8
SK3
100
AcDbLine
 10
-14.7489234805
 20
-4.250000231000001
 30
0.0
 11
-14.7489234805
 21
4.250000230899997
 31
0.0
  0
LINE
  5
E60
330
E57
100
AcDbEntity
  8
SK1
100
AcDbLine
 10
-15.0
 20
-9.0
 30
0.0
 11
-15.0
 21
9.0
 31
0.0
  0
LINE
  5
E61
330
E57
100
AcDbEntity
  8
SK1
100
AcDbLine
 10
-18.0
 20
-8.299999999999997
 30
0.0
 11
-18.0
 21
8.299999999999997
 31
0.0
  0
ARC
  5
E62
330
E57
100
AcDbEntity
  8
SK1
100
AcDbCircle
 10
-17.4
 20
-8.299999999999997
 30
0.0
 40
0.6000000000000015
100
AcDbArc
 50
180.0
 51
280.0
  0
LINE
  5
E63
330
E57
100
AcDbEntity
  8
SK1
100
AcDbLine
 10
-16.55916554539999
 20
-8.78087357279999
 30
0.0
 11
-15.0
 21
-9.0
 31
0.0
  0
ARC
  5
E64
330
E57
100
AcDbEntity
  8
SK1
100
AcDbCircle
 10
-16.6148347858
 20
-9.176980800299999
 30
0.0
 40
0.4000000000000077
100
AcDbArc
 50
81.99999999999922
 51
100.0
  0
LINE
  5
E65
330
E57
100
AcDbEntity
  8
SK1
100
AcDbLine
 10
-17.29581109339999
 20
-8.890884651799991
 30
0.0
 11
-16.68429405684999
 21
-8.783057699099996
 31
0.0
  0
ARC
  5
E66
330
E57
100
AcDbEntity
  8
SK3
100
AcDbCircle
 10
-17.49999922509999
 20
-6.0
 30
0.0
 40
0.5
100
AcDbArc
 50
90.0
 51
180.0
  0
LINE
  5
E67
330
E57
100
AcDbEntity
  8
SK3
100
AcDbLine
 10
-15.499999281
 20
-5.499999970199993
 30
0.0
 11
-14.7489234805
 21
-4.250000231000001
 31
0.0
  0
LINE
  5
E68
330
E57
100
AcDbEntity
  8
SK3
100
AcDbLine
 10
-17.49999920140001
 20
-5.499999970199993
 30
0.0
 11
-15.499999281
 21
-5.499999970199993
 31
0.0
  0
ARC
  5
E69
330
E57
100
AcDbEntity
  8
SK3
100
AcDbCircle
 10
-17.49999922509999
 20
6.0
 30
0.0
 40
0.5
100
AcDbArc
 50
180.0
 51
270.0
  0
LINE
  5
E6A
330
E57
100
AcDbEntity
  8
SK3
100
AcDbLine
 10
-14.7489234805
 20
4.250000230899997
 30
0.0
 11
-15.499999281
 21
5.499999970200008
 31
0.0
  0
LINE
  5
E6B
330
E57
100
AcDbEntity
  8
SK3
100
AcDbLine
 10
-15.499999281
 20
5.499999970200008
 30
0.0
 11
-17.49999920140001
 21
5.499999970200008
 31
0.0
  0
ARC
  5
E6C
330
E57
100
AcDbEntity
  8
SK1
100
AcDbCircle
 10
-17.4
 20
8.299999999999997
 30
0.0
 40
0.6000000000000015
100
AcDbArc
 50
79.9999999999998
 51
180.0
  0
LINE
  5
E6D
330
E57
100
AcDbEntity
  8
SK1
100
AcDbLine
 10
-15.0
 20
9.0
 30
0.0
 11
-16.55916554539999
 21
8.780873572849996
 31
0.0
  0
ARC
  5
E6E
330
E57
100
AcDbEntity
  8
SK1
100
AcDbCircle
 10
-16.6148347858
 20
9.176980800299999
 30
0.0
 40
0.4000000000000006
100
AcDbArc
 50
259.9999999999998
 51
278.0000000000006
  0
LINE
  5
E6F
330
E57
100
AcDbEntity
  8
SK1
100
AcDbLine
 10
-16.68429405684999
 20
8.783057699099996
 30
0.0
 11
-17.29581109339999
 21
8.890884651799991
 31
0.0
  0
ARC
  5
E70
330
E57
100
AcDbEntity
  8
1
100
AcDbCircle
 10
0.3000000000000114
 20
-15.7
 30
0.0
 40
0.2999999999999971
100
AcDbArc
 50
180.0
 51
270.0
  0
LINE
  5
E71
330
E57
100
AcDbEntity
  8
SK1
100
AcDbLine
 10
-0.1500000000000057
 20
6.714596780950002
 30
0.0
 11
-0.1500000000000057
 21
-6.714596780900007
 31
0.0
  0
LINE
  5
E72
330
E57
100
AcDbEntity
  8
3
100
AcDbLine
 10
0.3499999999999943
 20
-12.22500000000001
 30
0.0
 11
0.3499999999999943
 21
12.22500000000001
 31
0.0
  0
LINE
  5
E73
330
E57
100
AcDbEntity
  8
SK1
100
AcDbLine
 10
-2.949999999999988
 20
-11.975
 30
0.0
 11
-2.949999999999988
 21
11.975
 31
0.0
  0
LINE
  5
E74
330
E57
100
AcDbEntity
  8
SK1
100
AcDbLine
 10
-4.562004200450018
 20
-9.0
 30
0.0
 11
-4.562004200450018
 21
9.0
 31
0.0
  0
CIRCLE
  5
E75
330
E57
100
AcDbEntity
  8
SK1
100
AcDbCircle
 10
-8.950000000000002
 20
0.0
 30
0.0
 40
3.307218168049181
  0
CIRCLE
  5
E76
330
E57
100
AcDbEntity
  8
SK1
100
AcDbCircle
 10
-8.950000000000002
 20
0.0
 30
0.0
 40
2.500000000000003
  0
LWPOLYLINE
  5
E77
330
E57
100
AcDbEntity
  8
SK1
100
AcDbPolyline
 90
       20
 70
   128
 43
0.0
 10
-13.2
 20
0.0
 10
-13.1755844341
 20
0.3749430856000089
 10
-13.08054395474999
 20
0.8249312207999961
 10
-12.91384237159999
 20
1.264671190599994
 10
-12.67796373634999
 20
1.684631310600011
 10
-12.37978947869998
 20
2.073550630799998
 10
-11.7598388307
 20
2.638591057799982
 10
-11.13164869655
 20
3.022225890600012
 10
-10.4256478912
 20
3.306322071249993
 10
-9.69475909274999
 20
3.473681080950001
 10
-8.923505322099998
 20
3.529113110099998
 10
-8.155040296999999
 20
3.465881182499998
 10
-7.387340049149996
 20
3.278302629750001
 10
-6.684701534099986
 20
2.979187721850009
 10
-6.027815841499997
 20
2.552974276149996
 10
-5.580071497549994
 20
2.139848852149992
 10
-5.195983908899988
 20
1.644610373100004
 10
-4.957368162500016
 20
1.201361883350001
 10
-4.788214019549997
 20
0.7101462658499999
 10
-4.699999999999987
 20
0.0
  0
LWPOLYLINE
  5
E78
330
E57
100
AcDbEntity
  8
SK1
100
AcDbPolyline
 90
       21
 70
   128
 43
0.0
 10
-4.699999999999987
 20
0.0
 10
-4.717618049399987
 20
-0.3186218444499929
 10
-4.804289006949995
 20
-0.7714448498000053
 10
-4.963626371749995
 20
-1.215442090999985
 10
-5.190851402750013
 20
-1.6365786459
 10
-5.480609358399988
 20
-2.02786012365
 10
-5.872300312050012
 20
-2.4237432428
 10
-6.325020524600006
 20
-2.767063635699996
 10
-6.910850281400001
 20
-3.090608005849996
 10
-7.555529133749987
 20
-3.330832078
 10
-8.29616863915001
 20
-3.486478686449998
 10
-9.075681355850006
 20
-3.527613471399988
 10
-9.842230362899995
 20
-3.449265866900006
 10
-10.60515687379999
 20
-3.246485432850008
 10
-11.30103776210001
 20
-2.932734283300007
 10
-11.94817793599999
 20
-2.491472318350004
 10
-12.37882248194999
 20
-2.074647504249995
 10
-12.74528025014999
 20
-1.578573348599985
 10
-12.97131453119997
 20
-1.134309863649987
 10
-13.12754886565
 20
-0.644149273300002
 10
-13.2
 20
0.0
  0
ARC
  5
E79
330
E57
100
AcDbEntity
  8
SK1
100
AcDbCircle
 10
-0.2515999391499974
 20
-7.078003247300002
 30
0.0
 40
0.3773417648124474
100
AcDbArc
 50
74.38025216030019
 51
131.8938604266996
  0
ARC
  5
E7A
330
E57
100
AcDbEntity
  8
SK1
100
AcDbCircle
 10
-0.25
 20
-12.22500000000001
 30
0.0
 40
0.600000000000004
100
AcDbArc
 50
65.37568164780068
 51
114.9999999999996
  0
LINE
  5
E7B
330
E57
100
AcDbEntity
  8
SK1
100
AcDbLine
 10
-1.133594219799987
 20
-7.290447517099987
 30
0.0
 11
-0.5035709570499876
 21
-6.797116413149992
 31
0.0
  0
LINE
  5
E7C
330
E57
100
AcDbEntity
  8
SK1
100
AcDbLine
 10
-1.133594219799987
 20
-7.290447517099987
 30
0.0
 11
-2.949999999999988
 21
-7.290447517099987
 31
0.0
  0
ARC
  5
E7D
330
E57
100
AcDbEntity
  8
SK1
100
AcDbCircle
 10
-3.550000000000011
 20
-9.350000000000008
 30
0.0
 40
0.5999999999999967
100
AcDbArc
 50
0.0
 51
104.9999999999994
  0
LINE
  5
E7E
330
E57
100
AcDbEntity
  8
SK1
100
AcDbLine
 10
-2.949999999999988
 20
-11.975
 30
0.0
 11
-1.133594219799987
 21
-11.975
 31
0.0
  0
LINE
  5
E7F
330
E57
100
AcDbEntity
  8
SK1
100
AcDbLine
 10
-1.133594219799987
 20
-11.975
 30
0.0
 11
-0.5035709570499876
 21
-11.68121532774999
 31
0.0
  0
LINE
  5
E80
330
E57
100
AcDbEntity
  8
SK1
100
AcDbLine
 10
-1.133594219799987
 20
-11.975
 30
0.0
 11
-1.133594219799987
 21
-7.290447517099987
 31
0.0
  0
LINE
  5
E81
330
E57
100
AcDbEntity
  8
SK1
100
AcDbLine
 10
-4.562004200450018
 20
-9.0
 30
0.0
 11
-3.705291427049985
 21
-8.7704445042
 31
0.0
  0
LINE
  5
E82
330
E57
100
AcDbEntity
  8
3
100
AcDbLine
 10
0.0
 20
-13.10859421975
 30
0.0
 11
0.2937846721999904
 21
-12.47857095704999
 31
0.0
  0
ARC
  5
E83
330
E57
100
AcDbEntity
  8
3
100
AcDbCircle
 10
-0.25
 20
-12.22500000000001
 30
0.0
 40
0.5999999999999945
100
AcDbArc
 50
335.0
 51
0.0
  0
ARC
  5
E84
330
E57
100
AcDbEntity
  8
3
100
AcDbCircle
 10
-0.25
 20
-12.22500000000001
 30
0.0
 40
0.6000000000000038
100
AcDbArc
 50
0.0
 51
65.37568164780068
  0
LINE
  5
E85
330
E57
100
AcDbEntity
  8
SK1
100
AcDbLine
 10
-0.5035709570499876
 20
6.797116413149992
 30
0.0
 11
-1.133594219799987
 21
7.290447517149995
 31
0.0
  0
ARC
  5
E86
330
E57
100
AcDbEntity
  8
SK1
100
AcDbCircle
 10
-0.2491162109499783
 20
7.088645250249996
 30
0.0
 40
0.386957724655205
100
AcDbArc
 50
228.8846097785
 51
284.8412776345993
  0
ARC
  5
E87
330
E57
100
AcDbEntity
  8
SK1
100
AcDbCircle
 10
-0.25
 20
12.22500000000001
 30
0.0
 40
0.600000000000004
100
AcDbArc
 50
245.0000000000003
 51
294.6243183521993
  0
LINE
  5
E88
330
E57
100
AcDbEntity
  8
SK1
100
AcDbLine
 10
-0.5035709570499876
 20
11.68121532779998
 30
0.0
 11
-1.133594219799987
 21
11.975
 31
0.0
  0
LINE
  5
E89
330
E57
100
AcDbEntity
  8
SK1
100
AcDbLine
 10
-1.133594219799987
 20
11.975
 30
0.0
 11
-2.949999999999988
 21
11.975
 31
0.0
  0
LINE
  5
E8A
330
E57
100
AcDbEntity
  8
SK1
100
AcDbLine
 10
-1.133594219799987
 20
7.290447517149995
 30
0.0
 11
-2.949999999999988
 21
7.290447517149995
 31
0.0
  0
LINE
  5
E8B
330
E57
100
AcDbEntity
  8
SK1
100
AcDbLine
 10
-1.133594219799987
 20
7.290447517149995
 30
0.0
 11
-1.133594219799987
 21
11.975
 31
0.0
  0
ARC
  5
E8C
330
E57
100
AcDbEntity
  8
SK1
100
AcDbCircle
 10
-3.550000000000011
 20
9.350000000000008
 30
0.0
 40
0.5999999999999967
100
AcDbArc
 50
255.0000000000004
 51
0.0
  0
LINE
  5
E8D
330
E57
100
AcDbEntity
  8
SK1
100
AcDbLine
 10
-3.705291427049985
 20
8.770444504249994
 30
0.0
 11
-4.562004200450018
 21
9.0
 31
0.0
  0
LINE
  5
E8E
330
E57
100
AcDbEntity
  8
3
100
AcDbLine
 10
0.2937846721999904
 20
12.47857095704999
 30
0.0
 11
0.0
 21
13.10859421979999
 31
0.0
  0
ARC
  5
E8F
330
E57
100
AcDbEntity
  8
3
100
AcDbCircle
 10
-0.25
 20
12.22500000000001
 30
0.0
 40
0.599999999999988
100
AcDbArc
 50
345.6249999999998
 51
25.00000000000003
  0
ARC
  5
E90
330
E57
100
AcDbEntity
  8
3
100
AcDbCircle
 10
-0.25
 20
12.22500000000001
 30
0.0
 40
0.5999999999999904
100
AcDbArc
 50
294.6243183521993
 51
345.6249999999998
  0
ARC
  5
E91
330
E57
100
AcDbEntity
  8
1
100
AcDbCircle
 10
0.3000000000000114
 20
15.7
 30
0.0
 40
0.2999999999999971
100
AcDbArc
 50
90.0
 51
180.0
  0
ENDBLK
  5
E93
330
E57
100
AcDbEntity
  8
0
100
AcDbBlockEnd
  0
BLOCK
  5
EF5
330
EEC
100
AcDbEntity
  8
0
100
AcDbBlockBegin
  2
*D23
 70
     1
 10
0.0
 20
0.0
 30
0.0
  3
*D23
  1

  0
SOLID
  5
EED
330
EEC
100
AcDbEntity
  8
VERMASSUNG
100
AcDbTrace
 10
83.66461131260001
 20
126.8837240480997
 30
0.0
 11
83.21461131259999
 21
123.8837240480998
 31
0.0
 12
84.11461131260002
 22
123.8837240480998
 32
0.0
 13
84.11461131260002
 23
123.8837240480998
 33
0.0
  0
SOLID
  5
EEE
330
EEC
100
AcDbEntity
  8
VERMASSUNG
100
AcDbTrace
 10
83.66461131260001
 20
84.8837240481
 30
0.0
 11
84.11461131260002
 21
87.88372404809997
 31
0.0
 12
83.21461131259999
 22
87.88372404809997
 32
0.0
 13
83.21461131259999
 23
87.88372404809997
 33
0.0
  0
LINE
  5
EEF
330
EEC
100
AcDbEntity
  8
VERMASSUNG
100
AcDbLine
 10
115.7821680909
 20
126.8837240480997
 30
0.0
 11
82.66461131259999
 21
126.8837240480997
 31
0.0
  0
LINE
  5
EF0
330
EEC
100
AcDbEntity
  8
VERMASSUNG
100
AcDbLine
 10
115.7821680909
 20
84.8837240481
 30
0.0
 11
82.66461131259999
 21
84.8837240481
 31
0.0
  0
LINE
  5
EF1
330
EEC
100
AcDbEntity
  8
VERMASSUNG
100
AcDbLine
 10
83.66461131260001
 20
126.8837240480997
 30
0.0
 11
83.66461131260001
 21
84.8837240481
 31
0.0
  0
MTEXT
  5
EF2
330
EEC
100
AcDbEntity
  8
VERMASSUNG
100
AcDbMText
 10
80.86461153589999
 20
99.38015587569999
 30
0.0
 40
2.0
 41
0.0
 71
     1
 72
     1
  1
{MBM }
  7
SLDTEXTSTYLE0
 11
-0.000000000000007
 21
1.0
 31
0.0
 73
     1
 44
1.0
  0
MTEXT
  5
EF3
330
EEC
100
AcDbEntity
  8
VERMASSUNG
100
AcDbMText
 10
81.06461148719999
 20
105.780155714
 30
0.0
 40
2.0
 41
0.0
 71
     1
 72
     1
  1
{%%c}
  7
SLDTEXTSTYLE0
 11
-0.000000000000007
 21
1.0
 31
0.0
 73
     1
 44
1.0
  0
MTEXT
  5
EF4
330
EEC
100
AcDbEntity
  8
VERMASSUNG
100
AcDbMText
 10
81.0646111962
 20
109.38899489
 30
0.0
 40
2.0
 41
0.0
 71
     1
 72
     1
  1
{42}
  7
SLDTEXTSTYLE0
 11
-0.000000000000007
 21
1.0
 31
0.0
 73
     1
 44
1.0
  0
ENDBLK
  5
EF6
330
EEC
100
AcDbEntity
  8
0
100
AcDbBlockEnd
  0
BLOCK
  5
EFE
330
EF7
100
AcDbEntity
  8
0
100
AcDbBlockBegin
  2
*D24
 70
     1
 10
0.0
 20
0.0
 30
0.0
  3
*D24
  1

  0
SOLID
  5
EF8
330
EF7
100
AcDbEntity
  8
VERMASSUNG
100
AcDbTrace
 10
115.4821680909
 20
135.5019520854
 30
0.0
 11
118.4821680908999
 21
135.0519520854
 31
0.0
 12
118.4821680908999
 22
135.9519520854
 32
0.0
 13
118.4821680908999
 23
135.9519520854
 33
0.0
  0
SOLID
  5
EF9
330
EF7
100
AcDbEntity
  8
VERMASSUNG
100
AcDbTrace
 10
185.0821680909
 20
135.5019520854
 30
0.0
 11
182.0821680909
 21
135.9519520854
 31
0.0
 12
182.0821680909
 22
135.0519520854
 32
0.0
 13
182.0821680909
 23
135.0519520854
 33
0.0
  0
LINE
  5
EFA
330
EF7
100
AcDbEntity
  8
VERMASSUNG
100
AcDbLine
 10
115.4821680909
 20
126.5837240480998
 30
0.0
 11
115.4821680909
 21
136.5019520854
 31
0.0
  0
LINE
  5
EFB
330
EF7
100
AcDbEntity
  8
VERMASSUNG
100
AcDbLine
 10
185.0821680909
 20
125.0837240480999
 30
0.0
 11
185.0821680909
 21
136.5019520854
 31
0.0
  0
LINE
  5
EFC
330
EF7
100
AcDbEntity
  8
VERMASSUNG
100
AcDbLine
 10
115.4821680909
 20
135.5019520854
 30
0.0
 11
185.0821680909
 21
135.5019520854
 31
0.0
  0
MTEXT
  5
EFD
330
EF7
100
AcDbEntity
  8
VERMASSUNG
100
AcDbMText
 10
147.8825971463994
 20
138.1019522018
 30
0.0
 40
2.0
 41
0.0
 71
     1
 72
     1
  1
{69.6}
  7
SLDTEXTSTYLE0
 73
     1
 44
1.0
  0
ENDBLK
  5
EFF
330
EF7
100
AcDbEntity
  8
0
100
AcDbBlockEnd
  0
BLOCK
  5
F07
330
F00
100
AcDbEntity
  8
0
100
AcDbBlockBegin
  2
*D25
 70
     1
 10
0.0
 20
0.0
 30
0.0
  3
*D25
  1

  0
SOLID
  5
F01
330
F00
100
AcDbEntity
  8
VERMASSUNG
100
AcDbTrace
 10
115.4821680909
 20
141.5019520854
 30
0.0
 11
118.4821680908999
 21
141.0519520854
 31
0.0
 12
118.4821680908999
 22
141.9519520853999
 32
0.0
 13
118.4821680908999
 23
141.9519520853999
 33
0.0
  0
SOLID
  5
F02
330
F00
100
AcDbEntity
  8
VERMASSUNG
100
AcDbTrace
 10
201.4821680908999
 20
141.5019520854
 30
0.0
 11
198.4821680909
 21
141.9519520853999
 31
0.0
 12
198.4821680909
 22
141.0519520854
 32
0.0
 13
198.4821680909
 23
141.0519520854
 33
0.0
  0
LINE
  5
F03
330
F00
100
AcDbEntity
  8
VERMASSUNG
100
AcDbLine
 10
115.4821680909
 20
126.5837240480998
 30
0.0
 11
115.4821680909
 21
142.5019520854
 31
0.0
  0
LINE
  5
F04
330
F00
100
AcDbEntity
  8
VERMASSUNG
100
AcDbLine
 10
201.4821680908999
 20
117.2294762176
 30
0.0
 11
201.4821680908999
 21
142.5019520854
 31
0.0
  0
LINE
  5
F05
330
F00
100
AcDbEntity
  8
VERMASSUNG
100
AcDbLine
 10
115.4821680909
 20
141.5019520854
 30
0.0
 11
201.4821680908999
 21
141.5019520854
 31
0.0
  0
MTEXT
  5
F06
330
F00
100
AcDbEntity
  8
VERMASSUNG
100
AcDbMText
 10
157.0825479677
 20
144.1019522018
 30
0.0
 40
2.0
 41
0.0
 71
     1
 72
     1
  1
{86}
  7
SLDTEXTSTYLE0
 73
     1
 44
1.0
  0
ENDBLK
  5
F08
330
F00
100
AcDbEntity
  8
0
100
AcDbBlockEnd
  0
BLOCK
  5
137F
330
1375
100
AcDbEntity
  8
0
100
AcDbBlockBegin
  2
*D26
 70
     1
 10
0.0
 20
0.0
 30
0.0
  3
*D26
  1

  0
LINE
  5
1450
330
1375
100
AcDbEntity
  8
2
 62
     0
370
    -2
100
AcDbLine
 10
-167.3907312159566
 20
-38.64091954295402
 30
0.0
 11
-167.3907312159566
 21
-21.72269150565401
 31
0.0
  0
LINE
  5
1451
330
1375
100
AcDbEntity
  8
2
 62
     0
370
    -2
100
AcDbLine
 10
-81.39073121595663
 20
-47.99516737345403
 30
0.0
 11
-81.39073121595663
 21
-21.72269150565401
 31
0.0
  0
LINE
  5
1452
330
1375
100
AcDbEntity
  8
2
 62
     0
370
    -2
100
AcDbLine
 10
-162.8207312159565
 20
-23.72269150565402
 30
0.0
 11
-85.96073121595665
 21
-23.72269150565402
 31
0.0
  0
SOLID
  5
1453
330
1375
100
AcDbEntity
  8
2
 62
     0
100
AcDbTrace
 10
-162.8207312159565
 20
-22.96102483898735
 30
0.0
 11
-162.8207312159565
 21
-24.48435817232068
 31
0.0
 12
-167.3907312159566
 22
-23.72269150565402
 32
0.0
 13
-167.3907312159566
 23
-23.72269150565402
 33
0.0
  0
SOLID
  5
1454
330
1375
100
AcDbEntity
  8
2
 62
     0
100
AcDbTrace
 10
-85.96073121595665
 20
-22.96102483898735
 30
0.0
 11
-85.96073121595665
 21
-24.48435817232068
 31
0.0
 12
-81.39073121595663
 22
-23.72269150565402
 32
0.0
 13
-81.39073121595663
 23
-23.72269150565402
 33
0.0
  0
MTEXT
  5
1455
330
1375
100
AcDbEntity
  8
2
 62
     7
100
AcDbMText
 10
-124.3907312159564
 20
-19.93769150565402
 30
0.0
 40
4.57
 41
0.0
 71
     5
 72
     1
  1
\A1;86
  7
GENPRESET
 73
     1
 44
1.0
  0
POINT
  5
1456
330
1375
100
AcDbEntity
  8
Defpoints
 62
     0
100
AcDbPoint
 10
-167.3907312159566
 20
-38.64091954295402
 30
0.0
  0
POINT
  5
1457
330
1375
100
AcDbEntity
  8
Defpoints
 62
     0
100
AcDbPoint
 10
-81.39073121595663
 20
-47.99516737345403
 30
0.0
  0
POINT
  5
1458
330
1375
100
AcDbEntity
  8
Defpoints
 62
     0
100
AcDbPoint
 10
-81.39073121595663
 20
-23.72269150565402
 30
0.0
  0
ENDBLK
  5
1380
330
1375
100
AcDbEntity
  8
0
100
AcDbBlockEnd
  0
BLOCK
  5
138B
330
1381
100
AcDbEntity
  8
0
100
AcDbBlockBegin
  2
*D27
 70
     1
 10
0.0
 20
0.0
 30
0.0
  3
*D27
  1

  0
LINE
  5
13A2
330
1381
100
AcDbEntity
  8
VERMASSUNG
 62
     0
370
    -2
100
AcDbLine
 10
0.0
 20
20.69999999999998
 30
0.0
 11
0.0000000000000006
 21
30.61822803730001
 31
0.0
  0
LINE
  5
13A3
330
1381
100
AcDbEntity
  8
VERMASSUNG
 62
     0
370
    -2
100
AcDbLine
 10
69.59999999999999
 20
19.19999999999999
 30
0.0
 11
69.59999999999999
 21
30.61822803730001
 31
0.0
  0
LINE
  5
13A4
330
1381
100
AcDbEntity
  8
VERMASSUNG
 62
     0
370
    -2
100
AcDbLine
 10
3.0
 20
29.61822803730001
 30
0.0
 11
66.60000000000001
 21
29.61822803730001
 31
0.0
  0
SOLID
  5
13A5
330
1381
100
AcDbEntity
  8
VERMASSUNG
 62
     0
100
AcDbTrace
 10
3.0
 20
30.11822803730001
 30
0.0
 11
3.0
 21
29.11822803730001
 31
0.0
 12
0.0000000000000005
 22
29.61822803730001
 32
0.0
 13
0.0000000000000005
 23
29.61822803730001
 33
0.0
  0
SOLID
  5
13A6
330
1381
100
AcDbEntity
  8
VERMASSUNG
 62
     0
100
AcDbTrace
 10
66.60000000000001
 20
30.11822803730001
 30
0.0
 11
66.60000000000001
 21
29.11822803730001
 31
0.0
 12
69.59999999999999
 22
29.61822803730001
 32
0.0
 13
69.59999999999999
 23
29.61822803730001
 33
0.0
  0
MTEXT
  5
13A7
330
1381
100
AcDbEntity
  8
VERMASSUNG
 62
     0
100
AcDbMText
 10
31.89999999999999
 20
33.1422280373
 30
0.0
 40
2.0
 41
0.0
 71
     1
 72
     1
  1
\A1;69.60
  7
SLDTEXTSTYLE0
 73
     1
 44
1.0
  0
POINT
  5
13A8
330
1381
100
AcDbEntity
  8
Defpoints
 62
     0
100
AcDbPoint
 10
0.0
 20
20.69999999999998
 30
0.0
  0
POINT
  5
13A9
330
1381
100
AcDbEntity
  8
Defpoints
 62
     0
100
AcDbPoint
 10
69.59999999999999
 20
19.19999999999999
 30
0.0
  0
POINT
  5
13AA
330
1381
100
AcDbEntity
  8
Defpoints
 62
     0
100
AcDbPoint
 10
69.59999999999999
 20
29.61822803730001
 30
0.0
  0
ENDBLK
  5
138C
330
1381
100
AcDbEntity
  8
0
100
AcDbBlockEnd
  0
BLOCK
  5
1397
330
138D
100
AcDbEntity
  8
0
100
AcDbBlockBegin
  2
*D28
 70
     1
 10
0.0
 20
0.0
 30
0.0
  3
*D28
  1

  0
LINE
  5
1459
330
138D
100
AcDbEntity
  8
SK2
 62
     0
370
    -2
100
AcDbLine
 10
-167.0907312159565
 20
-38.34091954295402
 30
0.0
 11
-197.9402724638778
 21
-38.34091954295402
 31
0.0
  0
LINE
  5
145A
330
138D
100
AcDbEntity
  8
SK2
 62
     0
370
    -2
100
AcDbLine
 10
-167.0907312159565
 20
-80.34091954295401
 30
0.0
 11
-197.9402724638779
 21
-80.34091954295401
 31
0.0
  0
LINE
  5
145B
330
138D
100
AcDbEntity
  8
SK2
 62
     0
370
    -2
100
AcDbLine
 10
-195.9402724638778
 20
-42.91091954295402
 30
0.0
 11
-195.9402724638779
 21
-75.77091954295402
 31
0.0
  0
SOLID
  5
145C
330
138D
100
AcDbEntity
  8
SK2
 62
     0
100
AcDbTrace
 10
-196.7019391305445
 20
-42.91091954295402
 30
0.0
 11
-195.178605797211
 21
-42.91091954295402
 31
0.0
 12
-195.9402724638778
 22
-38.34091954295402
 32
0.0
 13
-195.9402724638778
 23
-38.34091954295402
 33
0.0
  0
SOLID
  5
145D
330
138D
100
AcDbEntity
  8
SK2
 62
     0
100
AcDbTrace
 10
-196.7019391305445
 20
-75.77091954295402
 30
0.0
 11
-195.178605797211
 21
-75.77091954295402
 31
0.0
 12
-195.9402724638779
 22
-80.34091954295401
 32
0.0
 13
-195.9402724638779
 23
-80.34091954295401
 33
0.0
  0
MTEXT
  5
145E
330
138D
100
AcDbEntity
  8
SK2
 62
     7
100
AcDbMText
 10
-199.7252724638778
 20
-59.34091954295404
 30
0.0
 40
4.57
 41
0.0
 71
     5
 72
     1
  1
\A1;MBM %%c42
  7
GENPRESET
 11
0.0000000000000001
 21
1.0
 31
0.0
 73
     1
 44
1.0
  0
POINT
  5
145F
330
138D
100
AcDbEntity
  8
Defpoints
 62
     0
100
AcDbPoint
 10
-167.0907312159565
 20
-38.34091954295402
 30
0.0
  0
POINT
  5
1460
330
138D
100
AcDbEntity
  8
Defpoints
 62
     0
100
AcDbPoint
 10
-167.0907312159565
 20
-80.34091954295401
 30
0.0
  0
POINT
  5
1461
330
138D
100
AcDbEntity
  8
Defpoints
 62
     0
100
AcDbPoint
 10
-195.9402724638779
 20
-80.34091954295401
 30
0.0
  0
ENDBLK
  5
1398
330
138D
100
AcDbEntity
  8
0
100
AcDbBlockEnd
  0
BLOCK
  5
146C
330
1462
100
AcDbEntity
  8
0
100
AcDbBlockBegin
  2
*D29
 70
     1
 10
0.0
 20
0.0
 30
0.0
  3
*D29
  1

  0
LINE
  5
1463
330
1462
100
AcDbEntity
  8
VERMASSUNG
 62
     0
370
    -2
100
AcDbLine
 10
150.5206262833999
 20
143.1771868582998
 30
0.0
 11
97.58868166720006
 21
143.1771868582998
 31
0.0
  0
LINE
  5
1464
330
1462
100
AcDbEntity
  8
VERMASSUNG
 62
     0
370
    -2
100
AcDbLine
 10
150.5206262833999
 20
71.1771868583
 30
0.0
 11
97.58868166720006
 21
71.1771868583
 31
0.0
  0
LINE
  5
1465
330
1462
100
AcDbEntity
  8
VERMASSUNG
 62
     0
370
    -2
100
AcDbLine
 10
98.58868166720005
 20
140.1771868582999
 30
0.0
 11
98.58868166720005
 21
74.1771868583
 31
0.0
  0
SOLID
  5
1466
330
1462
100
AcDbEntity
  8
VERMASSUNG
 62
     0
100
AcDbTrace
 10
98.08868166720005
 20
140.1771868582999
 30
0.0
 11
99.08868166720004
 21
140.1771868582999
 31
0.0
 12
98.58868166720005
 22
143.1771868582998
 32
0.0
 13
98.58868166720005
 23
143.1771868582998
 33
0.0
  0
SOLID
  5
1467
330
1462
100
AcDbEntity
  8
VERMASSUNG
 62
     0
100
AcDbTrace
 10
98.08868166720005
 20
74.1771868583
 30
0.0
 11
99.08868166720004
 21
74.1771868583
 31
0.0
 12
98.58868166720005
 22
71.1771868583
 32
0.0
 13
98.58868166720005
 23
71.1771868583
 33
0.0
  0
MTEXT
  5
1468
330
1462
100
AcDbEntity
  8
VERMASSUNG
 62
     0
100
AcDbMText
 10
81.66468166720001
 20
108.1779444340575
 30
0.0
 40
2.0
 41
0.0
 71
     1
 72
     1
  1
\A1;MBM %%c144.00
  7
SLDTEXTSTYLE0
 73
     1
 44
1.0
  0
POINT
  5
1469
330
1462
100
AcDbEntity
  8
Defpoints
 62
     0
100
AcDbPoint
 10
150.5206262833999
 20
143.1771868582998
 30
0.0
  0
POINT
  5
146A
330
1462
100
AcDbEntity
  8
Defpoints
 62
     0
100
AcDbPoint
 10
150.5206262833999
 20
71.1771868583
 30
0.0
  0
POINT
  5
146B
330
1462
100
AcDbEntity
  8
Defpoints
 62
     0
100
AcDbPoint
 10
98.58868166720005
 20
71.1771868583
 30
0.0
  0
ENDBLK
  5
146D
330
1462
100
AcDbEntity
  8
0
100
AcDbBlockEnd
  0
BLOCK
  5
1478
330
146E
100
AcDbEntity
  8
0
100
AcDbBlockBegin
  2
*D30
 70
     1
 10
0.0
 20
0.0
 30
0.0
  3
*D30
  1

  0
LINE
  5
146F
330
146E
100
AcDbEntity
  8
VERMASSUNG
 62
     0
370
    -2
100
AcDbLine
 10
150.0206262833999
 20
142.6771868582999
 30
0.0
 11
150.0206262833999
 21
167.5209269140998
 31
0.0
  0
LINE
  5
1470
330
146E
100
AcDbEntity
  8
VERMASSUNG
 62
     0
370
    -2
100
AcDbLine
 10
246.0206262833999
 20
130.3229390276999
 30
0.0
 11
246.0206262833999
 21
167.5209269140998
 31
0.0
  0
LINE
  5
1471
330
146E
100
AcDbEntity
  8
VERMASSUNG
 62
     0
370
    -2
100
AcDbLine
 10
153.0206262833999
 20
166.5209269140999
 30
0.0
 11
243.0206262833999
 21
166.5209269140999
 31
0.0
  0
SOLID
  5
1472
330
146E
100
AcDbEntity
  8
VERMASSUNG
 62
     0
100
AcDbTrace
 10
153.0206262833999
 20
167.0209269140999
 30
0.0
 11
153.0206262833999
 21
166.0209269141
 31
0.0
 12
150.0206262833999
 22
166.5209269140999
 32
0.0
 13
150.0206262833999
 23
166.5209269140999
 33
0.0
  0
SOLID
  5
1473
330
146E
100
AcDbEntity
  8
VERMASSUNG
 62
     0
100
AcDbTrace
 10
243.0206262833999
 20
167.0209269140999
 30
0.0
 11
243.0206262833999
 21
166.0209269141
 31
0.0
 12
246.0206262833999
 22
166.5209269140999
 32
0.0
 13
246.0206262833999
 23
166.5209269140999
 33
0.0
  0
MTEXT
  5
1474
330
146E
100
AcDbEntity
  8
VERMASSUNG
 62
     0
100
AcDbMText
 10
194.6206262833999
 20
170.0449269141
 30
0.0
 40
2.0
 41
0.0
 71
     1
 72
     1
  1
\A1;192.00
  7
SLDTEXTSTYLE0
 73
     1
 44
1.0
  0
POINT
  5
1475
330
146E
100
AcDbEntity
  8
Defpoints
 62
     0
100
AcDbPoint
 10
150.0206262833999
 20
142.6771868582999
 30
0.0
  0
POINT
  5
1476
330
146E
100
AcDbEntity
  8
Defpoints
 62
     0
100
AcDbPoint
 10
246.0206262833999
 20
130.3229390276999
 30
0.0
  0
POINT
  5
1477
330
146E
100
AcDbEntity
  8
Defpoints
 62
     0
100
AcDbPoint
 10
246.0206262833999
 20
166.5209269140999
 30
0.0
  0
ENDBLK
  5
1479
330
146E
100
AcDbEntity
  8
0
100
AcDbBlockEnd
  0
BLOCK
  5
1484
330
147A
100
AcDbEntity
  8
0
100
AcDbBlockBegin
  2
*D31
 70
     1
 10
0.0
 20
0.0
 30
0.0
  3
*D31
  1

  0
LINE
  5
147B
330
147A
100
AcDbEntity
  8
VERMASSUNG
 62
     0
370
    -2
100
AcDbLine
 10
150.0206262833999
 20
142.6771868582999
 30
0.0
 11
150.0206262833999
 21
155.5209269140999
 31
0.0
  0
LINE
  5
147C
330
147A
100
AcDbEntity
  8
VERMASSUNG
 62
     0
370
    -2
100
AcDbLine
 10
223.5206262833999
 20
113.8491868583
 30
0.0
 11
223.5206262833999
 21
155.5209269140999
 31
0.0
  0
LINE
  5
147D
330
147A
100
AcDbEntity
  8
VERMASSUNG
 62
     0
370
    -2
100
AcDbLine
 10
153.0206262833999
 20
154.5209269140999
 30
0.0
 11
220.5206262833999
 21
154.5209269140999
 31
0.0
  0
SOLID
  5
147E
330
147A
100
AcDbEntity
  8
VERMASSUNG
 62
     0
100
AcDbTrace
 10
153.0206262833999
 20
155.0209269140998
 30
0.0
 11
153.0206262833999
 21
154.0209269140999
 31
0.0
 12
150.0206262833999
 22
154.5209269140999
 32
0.0
 13
150.0206262833999
 23
154.5209269140999
 33
0.0
  0
SOLID
  5
147F
330
147A
100
AcDbEntity
  8
VERMASSUNG
 62
     0
100
AcDbTrace
 10
220.5206262833999
 20
155.0209269140998
 30
0.0
 11
220.5206262833999
 21
154.0209269140999
 31
0.0
 12
223.5206262833999
 22
154.5209269140999
 32
0.0
 13
223.5206262833999
 23
154.5209269140999
 33
0.0
  0
MTEXT
  5
1480
330
147A
100
AcDbEntity
  8
VERMASSUNG
 62
     0
100
AcDbMText
 10
183.2706262833999
 20
158.0449269140999
 30
0.0
 40
2.0
 41
0.0
 71
     1
 72
     1
  1
\A1;147.00
  7
SLDTEXTSTYLE0
 73
     1
 44
1.0
  0
POINT
  5
1481
330
147A
100
AcDbEntity
  8
Defpoints
 62
     0
100
AcDbPoint
 10
150.0206262833999
 20
142.6771868582999
 30
0.0
  0
POINT
  5
1482
330
147A
100
AcDbEntity
  8
Defpoints
 62
     0
100
AcDbPoint
 10
223.5206262833999
 20
113.8491868583
 30
0.0
  0
POINT
  5
1483
330
147A
100
AcDbEntity
  8
Defpoints
 62
     0
100
AcDbPoint
 10
223.5206262833999
 20
154.5209269140999
 30
0.0
  0
ENDBLK
  5
1485
330
147A
100
AcDbEntity
  8
0
100
AcDbBlockEnd
  0
BLOCK
  5
18E2
330
18D8
100
AcDbEntity
  8
0
100
AcDbBlockBegin
  2
*D32
 70
     1
 10
0.0
 20
0.0
 30
0.0
  3
*D32
  1

  0
LINE
  5
19C4
330
18D8
100
AcDbEntity
  8
2
 62
     0
370
    -2
100
AcDbLine
 10
-217.6112810775614
 20
-60.46523990641147
 30
0.0
 11
-217.6112810775614
 21
-44.75947341461528
 31
0.0
  0
LINE
  5
19C5
330
18D8
100
AcDbEntity
  8
2
 62
     0
370
    -2
100
AcDbLine
 10
-121.6112810775614
 20
-72.81948773701147
 30
0.0
 11
-121.6112810775614
 21
-44.75947341461528
 31
0.0
  0
LINE
  5
19C6
330
18D8
100
AcDbEntity
  8
2
 62
     0
370
    -2
100
AcDbLine
 10
-213.0412810775616
 20
-46.75947341461529
 30
0.0
 11
-126.1812810775615
 21
-46.75947341461529
 31
0.0
  0
SOLID
  5
19C7
330
18D8
100
AcDbEntity
  8
2
 62
     0
100
AcDbTrace
 10
-213.0412810775616
 20
-45.99780674794859
 30
0.0
 11
-213.0412810775616
 21
-47.52114008128195
 31
0.0
 12
-217.6112810775614
 22
-46.75947341461529
 32
0.0
 13
-217.6112810775614
 23
-46.75947341461529
 33
0.0
  0
SOLID
  5
19C8
330
18D8
100
AcDbEntity
  8
2
 62
     0
100
AcDbTrace
 10
-126.1812810775615
 20
-45.99780674794859
 30
0.0
 11
-126.1812810775615
 21
-47.52114008128195
 31
0.0
 12
-121.6112810775614
 22
-46.75947341461529
 32
0.0
 13
-121.6112810775614
 23
-46.75947341461529
 33
0.0
  0
MTEXT
  5
19C9
330
18D8
100
AcDbEntity
  8
2
 62
     7
100
AcDbMText
 10
-173.2019953632756
 20
-40.68947341461528
 30
0.0
 40
4.57
 41
0.0
 71
     1
 72
     1
  1
\A1;96
  7
GENPRESET
 73
     1
 44
1.0
  0
POINT
  5
19CA
330
18D8
100
AcDbEntity
  8
Defpoints
 62
     0
100
AcDbPoint
 10
-217.6112810775614
 20
-60.46523990641147
 30
0.0
  0
POINT
  5
19CB
330
18D8
100
AcDbEntity
  8
Defpoints
 62
     0
100
AcDbPoint
 10
-121.6112810775614
 20
-72.81948773701147
 30
0.0
  0
POINT
  5
19CC
330
18D8
100
AcDbEntity
  8
Defpoints
 62
     0
100
AcDbPoint
 10
-121.6112810775614
 20
-46.75947341461529
 30
0.0
  0
ENDBLK
  5
18E3
330
18D8
100
AcDbEntity
  8
0
100
AcDbBlockEnd
  0
BLOCK
  5
18EE
330
18E4
100
AcDbEntity
  8
0
100
AcDbBlockBegin
  2
*D33
 70
     1
 10
0.0
 20
0.0
 30
0.0
  3
*D33
  1

  0
LINE
  5
1905
330
18E4
100
AcDbEntity
  8
VERMASSUNG
 62
     0
370
    -2
100
AcDbLine
 10
0.0
 20
35.49999999999998
 30
0.0
 11
0.0000000000000008
 21
48.34374005580001
 31
0.0
  0
LINE
  5
1906
330
18E4
100
AcDbEntity
  8
VERMASSUNG
 62
     0
370
    -2
100
AcDbLine
 10
73.5
 20
6.671999999999997
 30
0.0
 11
73.5
 21
48.34374005580001
 31
0.0
  0
LINE
  5
1907
330
18E4
100
AcDbEntity
  8
VERMASSUNG
 62
     0
370
    -2
100
AcDbLine
 10
3.0
 20
47.34374005580001
 30
0.0
 11
70.5
 21
47.34374005580001
 31
0.0
  0
SOLID
  5
1908
330
18E4
100
AcDbEntity
  8
VERMASSUNG
 62
     0
100
AcDbTrace
 10
3.0
 20
47.84374005580001
 30
0.0
 11
3.0
 21
46.84374005580001
 31
0.0
 12
0.0000000000000007
 22
47.34374005580001
 32
0.0
 13
0.0000000000000007
 23
47.34374005580001
 33
0.0
  0
SOLID
  5
1909
330
18E4
100
AcDbEntity
  8
VERMASSUNG
 62
     0
100
AcDbTrace
 10
70.5
 20
47.84374005580001
 30
0.0
 11
70.5
 21
46.84374005580001
 31
0.0
 12
73.5
 22
47.34374005580001
 32
0.0
 13
73.5
 23
47.34374005580001
 33
0.0
  0
MTEXT
  5
190A
330
18E4
100
AcDbEntity
  8
VERMASSUNG
 62
     0
100
AcDbMText
 10
33.25
 20
50.8677400558
 30
0.0
 40
2.0
 41
0.0
 71
     1
 72
     1
  1
\A1;147.00
  7
SLDTEXTSTYLE0
 73
     1
 44
1.0
  0
POINT
  5
190B
330
18E4
100
AcDbEntity
  8
Defpoints
 62
     0
100
AcDbPoint
 10
0.0
 20
35.49999999999998
 30
0.0
  0
POINT
  5
190C
330
18E4
100
AcDbEntity
  8
Defpoints
 62
     0
100
AcDbPoint
 10
73.5
 20
6.671999999999997
 30
0.0
  0
POINT
  5
190D
330
18E4
100
AcDbEntity
  8
Defpoints
 62
     0
100
AcDbPoint
 10
73.5
 20
47.34374005580001
 30
0.0
  0
ENDBLK
  5
18EF
330
18E4
100
AcDbEntity
  8
0
100
AcDbBlockEnd
  0
BLOCK
  5
18FA
330
18F0
100
AcDbEntity
  8
0
100
AcDbBlockBegin
  2
*D34
 70
     1
 10
0.0
 20
0.0
 30
0.0
  3
*D34
  1

  0
LINE
  5
19CD
330
18F0
100
AcDbEntity
  8
SK2
 62
     0
370
    -2
100
AcDbLine
 10
-217.1112810775615
 20
-59.96523990641147
 30
0.0
 11
-268.6023676697143
 21
-59.96523990641145
 31
0.0
  0
LINE
  5
19CE
330
18F0
100
AcDbEntity
  8
SK2
 62
     0
370
    -2
100
AcDbLine
 10
-217.1112810775615
 20
-131.9652399064114
 30
0.0
 11
-268.6023676697144
 21
-131.9652399064114
 31
0.0
  0
LINE
  5
19CF
330
18F0
100
AcDbEntity
  8
SK2
 62
     0
370
    -2
100
AcDbLine
 10
-266.6023676697143
 20
-64.53523990641146
 30
0.0
 11
-266.6023676697143
 21
-127.3952399064114
 31
0.0
  0
SOLID
  5
19D0
330
18F0
100
AcDbEntity
  8
SK2
 62
     0
100
AcDbTrace
 10
-267.364034336381
 20
-64.53523990641146
 30
0.0
 11
-265.8407010030476
 21
-64.53523990641146
 31
0.0
 12
-266.6023676697143
 22
-59.96523990641145
 32
0.0
 13
-266.6023676697143
 23
-59.96523990641145
 33
0.0
  0
SOLID
  5
19D1
330
18F0
100
AcDbEntity
  8
SK2
 62
     0
100
AcDbTrace
 10
-267.364034336381
 20
-127.3952399064114
 30
0.0
 11
-265.8407010030476
 21
-127.3952399064114
 31
0.0
 12
-266.6023676697144
 22
-131.9652399064114
 32
0.0
 13
-266.6023676697144
 23
-131.9652399064114
 33
0.0
  0
MTEXT
  5
19D2
330
18F0
100
AcDbEntity
  8
SK2
 62
     7
100
AcDbMText
 10
-272.6723676697143
 20
-111.3073827635542
 30
0.0
 40
4.57
 41
0.0
 71
     1
 72
     1
  1
\A1;MBM %%c72
  7
GENPRESET
 11
0.0000000000000001
 21
1.0
 31
0.0
 73
     1
 44
1.0
  0
POINT
  5
19D3
330
18F0
100
AcDbEntity
  8
Defpoints
 62
     0
100
AcDbPoint
 10
-217.1112810775615
 20
-59.96523990641147
 30
0.0
  0
POINT
  5
19D4
330
18F0
100
AcDbEntity
  8
Defpoints
 62
     0
100
AcDbPoint
 10
-217.1112810775615
 20
-131.9652399064114
 30
0.0
  0
POINT
  5
19D5
330
18F0
100
AcDbEntity
  8
Defpoints
 62
     0
100
AcDbPoint
 10
-266.6023676697144
 20
-131.9652399064114
 30
0.0
  0
ENDBLK
  5
18FB
330
18F0
100
AcDbEntity
  8
0
100
AcDbBlockEnd
  0
BLOCK
  5
19E0
330
19D6
100
AcDbEntity
  8
0
100
AcDbBlockBegin
  2
*D35
 70
     1
 10
0.0
 20
0.0
 30
0.0
  3
*D35
  1

  0
LINE
  5
19D7
330
19D6
100
AcDbEntity
  8
VERMASSUNG
 62
     0
370
    -2
100
AcDbLine
 10
157.9852669404998
 20
162.6626653363
 30
0.0
 11
93.34056468170006
 21
162.6626653363
 31
0.0
  0
LINE
  5
19D8
330
19D6
100
AcDbEntity
  8
VERMASSUNG
 62
     0
370
    -2
100
AcDbLine
 10
157.9852669404998
 20
68.6626653363
 30
0.0
 11
93.34056468170002
 21
68.66266533630001
 31
0.0
  0
LINE
  5
19D9
330
19D6
100
AcDbEntity
  8
VERMASSUNG
 62
     0
370
    -2
100
AcDbLine
 10
94.34056468170004
 20
159.6626653362999
 30
0.0
 11
94.34056468170004
 21
71.66266533629998
 31
0.0
  0
SOLID
  5
19DA
330
19D6
100
AcDbEntity
  8
VERMASSUNG
 62
     0
100
AcDbTrace
 10
93.84056468170005
 20
159.6626653362999
 30
0.0
 11
94.84056468170004
 21
159.6626653362999
 31
0.0
 12
94.34056468170004
 22
162.6626653363
 32
0.0
 13
94.34056468170004
 23
162.6626653363
 33
0.0
  0
SOLID
  5
19DB
330
19D6
100
AcDbEntity
  8
VERMASSUNG
 62
     0
100
AcDbTrace
 10
93.84056468170005
 20
71.66266533629998
 30
0.0
 11
94.84056468170004
 21
71.66266533629998
 31
0.0
 12
94.34056468170004
 22
68.66266533630001
 32
0.0
 13
94.34056468170004
 23
68.66266533630001
 33
0.0
  0
MTEXT
  5
19DC
330
19D6
100
AcDbEntity
  8
VERMASSUNG
 62
     0
100
AcDbMText
 10
77.81656468170002
 20
116.6634229120574
 30
0.0
 40
2.0
 41
0.0
 71
     1
 72
     1
  1
\A1;MBM %%c188.00
  7
SLDTEXTSTYLE0
 73
     1
 44
1.0
  0
POINT
  5
19DD
330
19D6
100
AcDbEntity
  8
Defpoints
 62
     0
100
AcDbPoint
 10
157.9852669404998
 20
162.6626653363
 30
0.0
  0
POINT
  5
19DE
330
19D6
100
AcDbEntity
  8
Defpoints
 62
     0
100
AcDbPoint
 10
157.9852669404998
 20
68.6626653363
 30
0.0
  0
POINT
  5
19DF
330
19D6
100
AcDbEntity
  8
Defpoints
 62
     0
100
AcDbPoint
 10
94.34056468170004
 20
68.66266533630001
 30
0.0
  0
ENDBLK
  5
19E1
330
19D6
100
AcDbEntity
  8
0
100
AcDbBlockEnd
  0
BLOCK
  5
19EC
330
19E2
100
AcDbEntity
  8
0
100
AcDbBlockBegin
  2
*D36
 70
     1
 10
0.0
 20
0.0
 30
0.0
  3
*D36
  1

  0
LINE
  5
19E3
330
19E2
100
AcDbEntity
  8
VERMASSUNG
 62
     0
370
    -2
100
AcDbLine
 10
157.4852669404998
 20
162.1626653362999
 30
0.0
 11
157.4852669404998
 21
195.5609007389
 31
0.0
  0
LINE
  5
19E4
330
19E2
100
AcDbEntity
  8
VERMASSUNG
 62
     0
370
    -2
100
AcDbLine
 10
283.4852669404998
 20
152.8084175058999
 30
0.0
 11
283.4852669404998
 21
195.5609007389
 31
0.0
  0
LINE
  5
19E5
330
19E2
100
AcDbEntity
  8
VERMASSUNG
 62
     0
370
    -2
100
AcDbLine
 10
160.4852669405
 20
194.5609007388999
 30
0.0
 11
280.4852669404999
 21
194.5609007388999
 31
0.0
  0
SOLID
  5
19E6
330
19E2
100
AcDbEntity
  8
VERMASSUNG
 62
     0
100
AcDbTrace
 10
160.4852669405
 20
195.0609007388999
 30
0.0
 11
160.4852669405
 21
194.0609007388999
 31
0.0
 12
157.4852669404998
 22
194.5609007388999
 32
0.0
 13
157.4852669404998
 23
194.5609007388999
 33
0.0
  0
SOLID
  5
19E7
330
19E2
100
AcDbEntity
  8
VERMASSUNG
 62
     0
100
AcDbTrace
 10
280.4852669404999
 20
195.0609007388999
 30
0.0
 11
280.4852669404999
 21
194.0609007388999
 31
0.0
 12
283.4852669404998
 22
194.5609007388999
 32
0.0
 13
283.4852669404998
 23
194.5609007388999
 33
0.0
  0
MTEXT
  5
19E8
330
19E2
100
AcDbEntity
  8
VERMASSUNG
 62
     0
100
AcDbMText
 10
216.8852669405
 20
198.0849007388999
 30
0.0
 40
2.0
 41
0.0
 71
     1
 72
     1
  1
\A1;252.00
  7
SLDTEXTSTYLE0
 73
     1
 44
1.0
  0
POINT
  5
19E9
330
19E2
100
AcDbEntity
  8
Defpoints
 62
     0
100
AcDbPoint
 10
157.4852669404998
 20
162.1626653362999
 30
0.0
  0
POINT
  5
19EA
330
19E2
100
AcDbEntity
  8
Defpoints
 62
     0
100
AcDbPoint
 10
283.4852669404998
 20
152.8084175058999
 30
0.0
  0
POINT
  5
19EB
330
19E2
100
AcDbEntity
  8
Defpoints
 62
     0
100
AcDbPoint
 10
283.4852669404998
 20
194.5609007388999
 30
0.0
  0
ENDBLK
  5
19ED
330
19E2
100
AcDbEntity
  8
0
100
AcDbBlockEnd
  0
BLOCK
  5
19F8
330
19EE
100
AcDbEntity
  8
0
100
AcDbBlockBegin
  2
*D37
 70
     1
 10
0.0
 20
0.0
 30
0.0
  3
*D37
  1

  0
LINE
  5
19EF
330
19EE
100
AcDbEntity
  8
VERMASSUNG
 62
     0
370
    -2
100
AcDbLine
 10
157.4852669404998
 20
162.1626653362999
 30
0.0
 11
157.4852669404998
 21
183.5609007388999
 31
0.0
  0
LINE
  5
19F0
330
19EE
100
AcDbEntity
  8
VERMASSUNG
 62
     0
370
    -2
100
AcDbLine
 10
260.9852669404999
 20
165.3626653363
 30
0.0
 11
260.9852669404999
 21
183.5609007388999
 31
0.0
  0
LINE
  5
19F1
330
19EE
100
AcDbEntity
  8
VERMASSUNG
 62
     0
370
    -2
100
AcDbLine
 10
160.4852669405
 20
182.5609007388999
 30
0.0
 11
257.9852669404999
 21
182.5609007388999
 31
0.0
  0
SOLID
  5
19F2
330
19EE
100
AcDbEntity
  8
VERMASSUNG
 62
     0
100
AcDbTrace
 10
160.4852669405
 20
183.0609007389
 30
0.0
 11
160.4852669405
 21
182.0609007388999
 31
0.0
 12
157.4852669404998
 22
182.5609007388999
 32
0.0
 13
157.4852669404998
 23
182.5609007388999
 33
0.0
  0
SOLID
  5
19F3
330
19EE
100
AcDbEntity
  8
VERMASSUNG
 62
     0
100
AcDbTrace
 10
257.9852669404999
 20
183.0609007389
 30
0.0
 11
257.9852669404999
 21
182.0609007388999
 31
0.0
 12
260.9852669404999
 22
182.5609007388999
 32
0.0
 13
260.9852669404999
 23
182.5609007388999
 33
0.0
  0
MTEXT
  5
19F4
330
19EE
100
AcDbEntity
  8
VERMASSUNG
 62
     0
100
AcDbMText
 10
205.6352669405
 20
186.0849007388999
 30
0.0
 40
2.0
 41
0.0
 71
     1
 72
     1
  1
\A1;207.00
  7
SLDTEXTSTYLE0
 73
     1
 44
1.0
  0
POINT
  5
19F5
330
19EE
100
AcDbEntity
  8
Defpoints
 62
     0
100
AcDbPoint
 10
157.4852669404998
 20
162.1626653362999
 30
0.0
  0
POINT
  5
19F6
330
19EE
100
AcDbEntity
  8
Defpoints
 62
     0
100
AcDbPoint
 10
260.9852669404999
 20
165.3626653363
 30
0.0
  0
POINT
  5
19F7
330
19EE
100
AcDbEntity
  8
Defpoints
 62
     0
100
AcDbPoint
 10
260.9852669404999
 20
182.5609007388999
 30
0.0
  0
ENDBLK
  5
19F9
330
19EE
100
AcDbEntity
  8
0
100
AcDbBlockEnd
  0
BLOCK
  5
1E54
330
1E4A
100
AcDbEntity
  8
0
100
AcDbBlockBegin
  2
*D38
 70
     1
 10
0.0
 20
0.0
 30
0.0
  3
*D38
  1

  0
LINE
  5
1F36
330
1E4A
100
AcDbEntity
  8
2
 62
     0
370
    -2
100
AcDbLine
 10
-250.3926859071272
 20
-56.94719200976226
 30
0.0
 11
-250.3926859071272
 21
-42.60130111859536
 31
0.0
  0
LINE
  5
1F37
330
1E4A
100
AcDbEntity
  8
2
 62
     0
370
    -2
100
AcDbLine
 10
-124.3926859071273
 20
-66.30143984016223
 30
0.0
 11
-124.3926859071273
 21
-42.60130111859536
 31
0.0
  0
LINE
  5
1F38
330
1E4A
100
AcDbEntity
  8
2
 62
     0
370
    -2
100
AcDbLine
 10
-245.822685907127
 20
-44.60130111859537
 30
0.0
 11
-128.9626859071273
 21
-44.60130111859537
 31
0.0
  0
SOLID
  5
1F39
330
1E4A
100
AcDbEntity
  8
2
 62
     0
100
AcDbTrace
 10
-245.822685907127
 20
-43.8396344519287
 30
0.0
 11
-245.822685907127
 21
-45.36296778526202
 31
0.0
 12
-250.3926859071272
 22
-44.60130111859537
 32
0.0
 13
-250.3926859071272
 23
-44.60130111859537
 33
0.0
  0
SOLID
  5
1F3A
330
1E4A
100
AcDbEntity
  8
2
 62
     0
100
AcDbTrace
 10
-128.9626859071273
 20
-43.8396344519287
 30
0.0
 11
-128.9626859071273
 21
-45.36296778526202
 31
0.0
 12
-124.3926859071273
 22
-44.60130111859537
 32
0.0
 13
-124.3926859071273
 23
-44.60130111859537
 33
0.0
  0
MTEXT
  5
1F3B
330
1E4A
100
AcDbEntity
  8
2
 62
     7
100
AcDbMText
 10
-187.3926859071272
 20
-40.81630111859536
 30
0.0
 40
4.57
 41
0.0
 71
     5
 72
     1
  1
\A1;126
  7
GENPRESET
 73
     1
 44
1.0
  0
POINT
  5
1F3C
330
1E4A
100
AcDbEntity
  8
Defpoints
 62
     0
100
AcDbPoint
 10
-250.3926859071272
 20
-56.94719200976226
 30
0.0
  0
POINT
  5
1F3D
330
1E4A
100
AcDbEntity
  8
Defpoints
 62
     0
100
AcDbPoint
 10
-124.3926859071273
 20
-66.30143984016223
 30
0.0
  0
POINT
  5
1F3E
330
1E4A
100
AcDbEntity
  8
Defpoints
 62
     0
100
AcDbPoint
 10
-124.3926859071273
 20
-44.60130111859537
 30
0.0
  0
ENDBLK
  5
1E55
330
1E4A
100
AcDbEntity
  8
0
100
AcDbBlockEnd
  0
BLOCK
  5
1E60
330
1E56
100
AcDbEntity
  8
0
100
AcDbBlockBegin
  2
*D39
 70
     1
 10
0.0
 20
0.0
 30
0.0
  3
*D39
  1

  0
LINE
  5
1E77
330
1E56
100
AcDbEntity
  8
VERMASSUNG
 62
     0
370
    -2
100
AcDbLine
 10
0.0
 20
46.5
 30
0.0
 11
0.0000000000000013
 21
67.89823540259999
 31
0.0
  0
LINE
  5
1E78
330
1E56
100
AcDbEntity
  8
VERMASSUNG
 62
     0
370
    -2
100
AcDbLine
 10
103.4999999999999
 20
49.69999999999998
 30
0.0
 11
103.4999999999999
 21
67.89823540259999
 31
0.0
  0
LINE
  5
1E79
330
1E56
100
AcDbEntity
  8
VERMASSUNG
 62
     0
370
    -2
100
AcDbLine
 10
3.000000000000001
 20
66.89823540259999
 30
0.0
 11
100.4999999999999
 21
66.89823540259999
 31
0.0
  0
SOLID
  5
1E7A
330
1E56
100
AcDbEntity
  8
VERMASSUNG
 62
     0
100
AcDbTrace
 10
3.000000000000001
 20
67.39823540259999
 30
0.0
 11
3.000000000000001
 21
66.3982354026
 31
0.0
 12
0.0000000000000012
 22
66.89823540259999
 32
0.0
 13
0.0000000000000012
 23
66.89823540259999
 33
0.0
  0
SOLID
  5
1E7B
330
1E56
100
AcDbEntity
  8
VERMASSUNG
 62
     0
100
AcDbTrace
 10
100.4999999999999
 20
67.39823540259999
 30
0.0
 11
100.4999999999999
 21
66.3982354026
 31
0.0
 12
103.4999999999999
 22
66.89823540259999
 32
0.0
 13
103.4999999999999
 23
66.89823540259999
 33
0.0
  0
MTEXT
  5
1E7C
330
1E56
100
AcDbEntity
  8
VERMASSUNG
 62
     0
100
AcDbMText
 10
48.15
 20
70.42223540260001
 30
0.0
 40
2.0
 41
0.0
 71
     1
 72
     1
  1
\A1;207.00
  7
SLDTEXTSTYLE0
 73
     1
 44
1.0
  0
POINT
  5
1E7D
330
1E56
100
AcDbEntity
  8
Defpoints
 62
     0
100
AcDbPoint
 10
0.0
 20
46.5
 30
0.0
  0
POINT
  5
1E7E
330
1E56
100
AcDbEntity
  8
Defpoints
 62
     0
100
AcDbPoint
 10
103.4999999999999
 20
49.69999999999998
 30
0.0
  0
POINT
  5
1E7F
330
1E56
100
AcDbEntity
  8
Defpoints
 62
     0
100
AcDbPoint
 10
103.4999999999999
 20
66.89823540259999
 30
0.0
  0
ENDBLK
  5
1E61
330
1E56
100
AcDbEntity
  8
0
100
AcDbBlockEnd
  0
BLOCK
  5
1E6C
330
1E62
100
AcDbEntity
  8
0
100
AcDbBlockBegin
  2
*D40
 70
     1
 10
0.0
 20
0.0
 30
0.0
  3
*D40
  1

  0
LINE
  5
1F3F
330
1E62
100
AcDbEntity
  8
SK2
 62
     0
370
    -2
100
AcDbLine
 10
-249.892685907127
 20
-56.44719200976226
 30
0.0
 11
-311.4598333324081
 21
-56.44719200976224
 31
0.0
  0
LINE
  5
1F40
330
1E62
100
AcDbEntity
  8
SK2
 62
     0
370
    -2
100
AcDbLine
 10
-249.892685907127
 20
-150.4471920097619
 30
0.0
 11
-311.4598333324081
 21
-150.4471920097619
 31
0.0
  0
LINE
  5
1F41
330
1E62
100
AcDbEntity
  8
SK2
 62
     0
370
    -2
100
AcDbLine
 10
-309.4598333324081
 20
-61.01719200976224
 30
0.0
 11
-309.4598333324081
 21
-145.877192009762
 31
0.0
  0
SOLID
  5
1F42
330
1E62
100
AcDbEntity
  8
SK2
 62
     0
100
AcDbTrace
 10
-310.2214999990748
 20
-61.01719200976224
 30
0.0
 11
-308.6981666657415
 21
-61.01719200976224
 31
0.0
 12
-309.4598333324081
 22
-56.44719200976224
 32
0.0
 13
-309.4598333324081
 23
-56.44719200976224
 33
0.0
  0
SOLID
  5
1F43
330
1E62
100
AcDbEntity
  8
SK2
 62
     0
100
AcDbTrace
 10
-310.2214999990748
 20
-145.877192009762
 30
0.0
 11
-308.6981666657416
 21
-145.877192009762
 31
0.0
 12
-309.4598333324081
 22
-150.4471920097619
 32
0.0
 13
-309.4598333324081
 23
-150.4471920097619
 33
0.0
  0
MTEXT
  5
1F44
330
1E62
100
AcDbEntity
  8
SK2
 62
     7
100
AcDbMText
 10
-313.2448333324081
 20
-103.4471920097622
 30
0.0
 40
4.57
 41
0.0
 71
     5
 72
     1
  1
\A1;MBM %%c94
  7
GENPRESET
 11
0.0000000000000001
 21
1.0
 31
0.0
 73
     1
 44
1.0
  0
POINT
  5
1F45
330
1E62
100
AcDbEntity
  8
Defpoints
 62
     0
100
AcDbPoint
 10
-249.892685907127
 20
-56.44719200976226
 30
0.0
  0
POINT
  5
1F46
330
1E62
100
AcDbEntity
  8
Defpoints
 62
     0
100
AcDbPoint
 10
-249.892685907127
 20
-150.4471920097619
 30
0.0
  0
POINT
  5
1F47
330
1E62
100
AcDbEntity
  8
Defpoints
 62
     0
100
AcDbPoint
 10
-309.4598333324081
 20
-150.4471920097619
 30
0.0
  0
ENDBLK
  5
1E6D
330
1E62
100
AcDbEntity
  8
0
100
AcDbBlockEnd
  0
BLOCK
  5
1F51
330
1F48
100
AcDbEntity
  8
0
100
AcDbBlockBegin
  2
*D41
 70
     1
 10
0.0
 20
0.0
 30
0.0
  3
*D41
  1

  0
SOLID
  5
1F49
330
1F48
100
AcDbEntity
  8
VERMASSUNG
100
AcDbTrace
 10
87.60256198040002
 20
139.1750887985
 30
0.0
 11
87.1525619804
 21
136.1750887985
 31
0.0
 12
88.05256198040002
 22
136.1750887985
 32
0.0
 13
88.05256198040002
 23
136.1750887985
 33
0.0
  0
SOLID
  5
1F4A
330
1F48
100
AcDbEntity
  8
VERMASSUNG
100
AcDbTrace
 10
87.60256198040002
 20
67.1750887985
 30
0.0
 11
88.05256198040002
 21
70.1750887985
 31
0.0
 12
87.1525619804
 22
70.1750887985
 32
0.0
 13
87.1525619804
 23
70.1750887985
 33
0.0
  0
LINE
  5
1F4B
330
1F48
100
AcDbEntity
  8
VERMASSUNG
100
AcDbLine
 10
129.5552361721999
 20
139.1750887985
 30
0.0
 11
86.6025619804
 21
139.1750887985
 31
0.0
  0
LINE
  5
1F4C
330
1F48
100
AcDbEntity
  8
VERMASSUNG
100
AcDbLine
 10
129.5552361721999
 20
67.1750887985
 30
0.0
 11
86.6025619804
 21
67.1750887985
 31
0.0
  0
LINE
  5
1F4D
330
1F48
100
AcDbEntity
  8
VERMASSUNG
100
AcDbLine
 10
87.60256198040002
 20
139.1750887985
 30
0.0
 11
87.60256198040002
 21
67.1750887985
 31
0.0
  0
MTEXT
  5
1F4E
330
1F48
100
AcDbEntity
  8
VERMASSUNG
100
AcDbMText
 10
84.8025622037
 20
96.7710491681
 30
0.0
 40
2.0
 41
0.0
 71
     1
 72
     1
  1
{MBM }
  7
SLDTEXTSTYLE0
 11
-0.000000000000007
 21
1.0
 31
0.0
 73
     1
 44
1.0
  0
MTEXT
  5
1F4F
330
1F48
100
AcDbEntity
  8
VERMASSUNG
100
AcDbMText
 10
85.002562155
 20
103.1710490065
 30
0.0
 40
2.0
 41
0.0
 71
     1
 72
     1
  1
{%%c}
  7
SLDTEXTSTYLE0
 11
-0.000000000000007
 21
1.0
 31
0.0
 73
     1
 44
1.0
  0
MTEXT
  5
1F50
330
1F48
100
AcDbEntity
  8
VERMASSUNG
100
AcDbMText
 10
85.0025618639
 20
106.7798881825
 30
0.0
 40
2.0
 41
0.0
 71
     1
 72
     1
  1
{72}
  7
SLDTEXTSTYLE0
 11
-0.000000000000007
 21
1.0
 31
0.0
 73
     1
 44
1.0
  0
ENDBLK
  5
1F52
330
1F48
100
AcDbEntity
  8
0
100
AcDbBlockEnd
  0
BLOCK
  5
1F5A
330
1F53
100
AcDbEntity
  8
0
100
AcDbBlockBegin
  2
*D42
 70
     1
 10
0.0
 20
0.0
 30
0.0
  3
*D42
  1

  0
SOLID
  5
1F54
330
1F53
100
AcDbEntity
  8
VERMASSUNG
100
AcDbTrace
 10
215.2612816427
 20
155.4368283739998
 30
0.0
 11
212.2612816426999
 21
155.886828374
 31
0.0
 12
212.2612816426999
 22
154.9868283739999
 32
0.0
 13
212.2612816426999
 23
154.9868283739999
 33
0.0
  0
SOLID
  5
1F55
330
1F53
100
AcDbEntity
  8
VERMASSUNG
100
AcDbTrace
 10
125.7612816426999
 20
155.4368283739998
 30
0.0
 11
128.7612816426999
 21
154.9868283739999
 31
0.0
 12
128.7612816426999
 22
155.886828374
 32
0.0
 13
128.7612816426999
 23
155.886828374
 33
0.0
  0
LINE
  5
1F56
330
1F53
100
AcDbEntity
  8
VERMASSUNG
100
AcDbLine
 10
215.2612816427
 20
130.8292024166
 30
0.0
 11
215.2612816427
 21
156.4368283739999
 31
0.0
  0
LINE
  5
1F57
330
1F53
100
AcDbEntity
  8
VERMASSUNG
100
AcDbLine
 10
125.7612816426999
 20
130.6750887985
 30
0.0
 11
125.7612816426999
 21
156.4368283739999
 31
0.0
  0
LINE
  5
1F58
330
1F53
100
AcDbEntity
  8
VERMASSUNG
100
AcDbLine
 10
215.2612816427
 20
155.4368283739998
 30
0.0
 11
125.7612816426999
 21
155.4368283739998
 31
0.0
  0
MTEXT
  5
1F59
330
1F53
100
AcDbEntity
  8
VERMASSUNG
100
AcDbMText
 10
168.1117106982
 20
158.0368284904
 30
0.0
 40
2.0
 41
0.0
 71
     1
 72
     1
  1
{89.5}
  7
SLDTEXTSTYLE0
 73
     1
 44
1.0
  0
ENDBLK
  5
1F5B
330
1F53
100
AcDbEntity
  8
0
100
AcDbBlockEnd
  0
BLOCK
  5
1F63
330
1F5C
100
AcDbEntity
  8
0
100
AcDbBlockBegin
  2
*D43
 70
     1
 10
0.0
 20
0.0
 30
0.0
  3
*D43
  1

  0
SOLID
  5
1F5D
330
1F5C
100
AcDbEntity
  8
VERMASSUNG
100
AcDbTrace
 10
95.7612816427
 20
161.436828374
 30
0.0
 11
98.76128164269999
 21
160.986828374
 31
0.0
 12
98.76128164269999
 22
161.886828374
 32
0.0
 13
98.76128164269999
 23
161.886828374
 33
0.0
  0
SOLID
  5
1F5E
330
1F5C
100
AcDbEntity
  8
VERMASSUNG
100
AcDbTrace
 10
215.2612816427
 20
161.436828374
 30
0.0
 11
212.2612816426999
 21
161.886828374
 31
0.0
 12
212.2612816426999
 22
160.986828374
 32
0.0
 13
212.2612816426999
 23
160.986828374
 33
0.0
  0
LINE
  5
1F5F
330
1F5C
100
AcDbEntity
  8
VERMASSUNG
100
AcDbLine
 10
95.7612816427
 20
117.2750887985
 30
0.0
 11
95.7612816427
 21
162.4368283739999
 31
0.0
  0
LINE
  5
1F60
330
1F5C
100
AcDbEntity
  8
VERMASSUNG
100
AcDbLine
 10
215.2612816427
 20
130.8292024166
 30
0.0
 11
215.2612816427
 21
162.4368283739999
 31
0.0
  0
LINE
  5
1F61
330
1F5C
100
AcDbEntity
  8
VERMASSUNG
100
AcDbLine
 10
95.7612816427
 20
161.436828374
 30
0.0
 11
215.2612816427
 21
161.436828374
 31
0.0
  0
MTEXT
  5
1F62
330
1F5C
100
AcDbEntity
  8
VERMASSUNG
100
AcDbMText
 10
152.8115699383999
 20
164.0368284904
 30
0.0
 40
2.0
 41
0.0
 71
     1
 72
     1
  1
{119.5}
  7
SLDTEXTSTYLE0
 73
     1
 44
1.0
  0
ENDBLK
  5
1F64
330
1F5C
100
AcDbEntity
  8
0
100
AcDbBlockEnd
  0
BLOCK
  5
227D
330
2273
100
AcDbEntity
  8
0
100
AcDbBlockBegin
  2
*D44
 70
     1
 10
0.0
 20
0.0
 30
0.0
  3
*D44
  1

  0
LINE
  5
2297
330
2273
100
AcDbEntity
  8
VERMASSUNG
 62
     0
370
    -2
100
AcDbLine
 10
-29.9999993295
 20
14.09999999995001
 30
0.0
 11
-29.99999932949998
 21
59.26173957545
 31
0.0
  0
LINE
  5
2298
330
2273
100
AcDbEntity
  8
VERMASSUNG
 62
     0
370
    -2
100
AcDbLine
 10
89.50000067049998
 20
27.65411361805
 30
0.0
 11
89.50000067049998
 21
59.26173957545
 31
0.0
  0
LINE
  5
2299
330
2273
100
AcDbEntity
  8
VERMASSUNG
 62
     0
370
    -2
100
AcDbLine
 10
-26.99999932949999
 20
58.26173957544999
 30
0.0
 11
86.50000067049999
 21
58.26173957544999
 31
0.0
  0
SOLID
  5
229A
330
2273
100
AcDbEntity
  8
VERMASSUNG
 62
     0
100
AcDbTrace
 10
-26.99999932949999
 20
58.76173957544999
 30
0.0
 11
-26.99999932949999
 21
57.76173957544999
 31
0.0
 12
-29.99999932949998
 22
58.26173957544999
 32
0.0
 13
-29.99999932949998
 23
58.26173957544999
 33
0.0
  0
SOLID
  5
229B
330
2273
100
AcDbEntity
  8
VERMASSUNG
 62
     0
100
AcDbTrace
 10
86.50000067049999
 20
58.76173957544999
 30
0.0
 11
86.50000067049999
 21
57.76173957544999
 31
0.0
 12
89.50000067049998
 22
58.26173957544999
 32
0.0
 13
89.50000067049998
 23
58.26173957544999
 33
0.0
  0
MTEXT
  5
229C
330
2273
100
AcDbEntity
  8
VERMASSUNG
 62
     0
100
AcDbMText
 10
26.5500006705
 20
61.78573957544999
 30
0.0
 40
2.0
 41
0.0
 71
     1
 72
     1
  1
\A1;119.50
  7
SLDTEXTSTYLE0
 73
     1
 44
1.0
  0
POINT
  5
229D
330
2273
100
AcDbEntity
  8
Defpoints
 62
     0
100
AcDbPoint
 10
-29.9999993295
 20
14.09999999995001
 30
0.0
  0
POINT
  5
229E
330
2273
100
AcDbEntity
  8
Defpoints
 62
     0
100
AcDbPoint
 10
89.50000067049998
 20
27.65411361805
 30
0.0
  0
POINT
  5
229F
330
2273
100
AcDbEntity
  8
Defpoints
 62
     0
100
AcDbPoint
 10
89.50000067049998
 20
58.26173957544999
 30
0.0
  0
ENDBLK
  5
227E
330
2273
100
AcDbEntity
  8
0
100
AcDbBlockEnd
  0
BLOCK
  5
2289
330
227F
100
AcDbEntity
  8
0
100
AcDbBlockBegin
  2
*D45
 70
     1
 10
0.0
 20
0.0
 30
0.0
  3
*D45
  1

  0
LINE
  5
22A0
330
227F
100
AcDbEntity
  8
VERMASSUNG
 62
     0
370
    -2
100
AcDbLine
 10
89.50000067049998
 20
27.65411361805
 30
0.0
 11
89.50000067049998
 21
53.26173957544999
 31
0.0
  0
LINE
  5
22A1
330
227F
100
AcDbEntity
  8
VERMASSUNG
 62
     0
370
    -2
100
AcDbLine
 10
0.0000006705000004
 20
27.49999999995001
 30
0.0
 11
0.000000670500002
 21
53.26173957544999
 31
0.0
  0
LINE
  5
22A2
330
227F
100
AcDbEntity
  8
VERMASSUNG
 62
     0
370
    -2
100
AcDbLine
 10
86.50000067049999
 20
52.26173957544999
 30
0.0
 11
3.000000670500001
 21
52.26173957544999
 31
0.0
  0
SOLID
  5
22A3
330
227F
100
AcDbEntity
  8
VERMASSUNG
 62
     0
100
AcDbTrace
 10
86.50000067049999
 20
52.76173957544999
 30
0.0
 11
86.50000067049999
 21
51.76173957545
 31
0.0
 12
89.50000067049998
 22
52.26173957544999
 32
0.0
 13
89.50000067049998
 23
52.26173957544999
 33
0.0
  0
SOLID
  5
22A4
330
227F
100
AcDbEntity
  8
VERMASSUNG
 62
     0
100
AcDbTrace
 10
3.000000670500001
 20
52.76173957544999
 30
0.0
 11
3.000000670500001
 21
51.76173957545
 31
0.0
 12
0.0000006705000019
 22
52.26173957544999
 32
0.0
 13
0.0000006705000019
 23
52.26173957544999
 33
0.0
  0
MTEXT
  5
22A5
330
227F
100
AcDbEntity
  8
VERMASSUNG
 62
     0
100
AcDbMText
 10
41.8500006705
 20
55.78573957545
 30
0.0
 40
2.0
 41
0.0
 71
     1
 72
     1
  1
\A1;89.50
  7
SLDTEXTSTYLE0
 73
     1
 44
1.0
  0
POINT
  5
22A6
330
227F
100
AcDbEntity
  8
Defpoints
 62
     0
100
AcDbPoint
 10
89.50000067049998
 20
27.65411361805
 30
0.0
  0
POINT
  5
22A7
330
227F
100
AcDbEntity
  8
Defpoints
 62
     0
100
AcDbPoint
 10
0.0000006705000004
 20
27.49999999995001
 30
0.0
  0
POINT
  5
22A8
330
227F
100
AcDbEntity
  8
Defpoints
 62
     0
100
AcDbPoint
 10
0.0000006705000019
 20
52.26173957544999
 30
0.0
  0
ENDBLK
  5
228A
330
227F
100
AcDbEntity
  8
0
100
AcDbBlockEnd
  0
BLOCK
  5
2295
330
228B
100
AcDbEntity
  8
0
100
AcDbBlockBegin
  2
*D46
 70
     1
 10
0.0
 20
0.0
 30
0.0
  3
*D46
  1

  0
LINE
  5
2822
330
228B
100
AcDbEntity
  8
SK2
 62
     0
370
    -2
100
AcDbLine
 10
3.793955199999984
 20
35.99999999995002
 30
0.0
 11
-40.15871899179997
 21
35.99999999995002
 31
0.0
  0
LINE
  5
2823
330
228B
100
AcDbEntity
  8
SK2
 62
     0
370
    -2
100
AcDbLine
 10
3.793955199999984
 20
-36.00000000004999
 30
0.0
 11
-40.15871899179999
 21
-36.00000000004998
 31
0.0
  0
LINE
  5
2824
330
228B
100
AcDbEntity
  8
SK2
 62
     0
370
    -2
100
AcDbLine
 10
-38.15871899179997
 20
31.42999999995002
 30
0.0
 11
-38.15871899179999
 21
-31.43000000004998
 31
0.0
  0
SOLID
  5
2825
330
228B
100
AcDbEntity
  8
SK2
 62
     0
100
AcDbTrace
 10
-38.92038565846664
 20
31.42999999995002
 30
0.0
 11
-37.39705232513331
 21
31.42999999995002
 31
0.0
 12
-38.15871899179997
 22
35.99999999995002
 32
0.0
 13
-38.15871899179997
 23
35.99999999995002
 33
0.0
  0
SOLID
  5
2826
330
228B
100
AcDbEntity
  8
SK2
 62
     0
100
AcDbTrace
 10
-38.92038565846664
 20
-31.43000000004998
 30
0.0
 11
-37.39705232513331
 21
-31.43000000004998
 31
0.0
 12
-38.15871899179999
 22
-36.00000000004998
 32
0.0
 13
-38.15871899179999
 23
-36.00000000004998
 33
0.0
  0
MTEXT
  5
2827
330
228B
100
AcDbEntity
  8
SK2
 62
     7
100
AcDbMText
 10
-44.22871899179999
 20
-15.34214285719285
 30
0.0
 40
4.57
 41
0.0
 71
     1
 72
     1
  1
\A1;MBM %%c72
  7
GENPRESET
 11
0.0000000000000001
 21
1.0
 31
0.0
 73
     1
 44
1.0
  0
POINT
  5
2828
330
228B
100
AcDbEntity
  8
Defpoints
 62
     0
100
AcDbPoint
 10
3.793955199999984
 20
35.99999999995002
 30
0.0
  0
POINT
  5
2829
330
228B
100
AcDbEntity
  8
Defpoints
 62
     0
100
AcDbPoint
 10
3.793955199999984
 20
-36.00000000004999
 30
0.0
  0
POINT
  5
282A
330
228B
100
AcDbEntity
  8
Defpoints
 62
     0
100
AcDbPoint
 10
-38.15871899179999
 20
-36.00000000004998
 30
0.0
  0
ENDBLK
  5
2296
330
228B
100
AcDbEntity
  8
0
100
AcDbBlockEnd
  0
BLOCK
  5
2334
330
232B
100
AcDbEntity
  8
0
100
AcDbBlockBegin
  2
*D47
 70
     1
 10
0.0
 20
0.0
 30
0.0
  3
*D47
  1

  0
SOLID
  5
232C
330
232B
100
AcDbEntity
  8
VERMASSUNG
100
AcDbTrace
 10
87.60256198040002
 20
139.1750887985
 30
0.0
 11
87.1525619804
 21
136.1750887985
 31
0.0
 12
88.05256198040002
 22
136.1750887985
 32
0.0
 13
88.05256198040002
 23
136.1750887985
 33
0.0
  0
SOLID
  5
232D
330
232B
100
AcDbEntity
  8
VERMASSUNG
100
AcDbTrace
 10
87.60256198040002
 20
67.1750887985
 30
0.0
 11
88.05256198040002
 21
70.1750887985
 31
0.0
 12
87.1525619804
 22
70.1750887985
 32
0.0
 13
87.1525619804
 23
70.1750887985
 33
0.0
  0
LINE
  5
232E
330
232B
100
AcDbEntity
  8
VERMASSUNG
100
AcDbLine
 10
129.5552361721999
 20
139.1750887985
 30
0.0
 11
86.6025619804
 21
139.1750887985
 31
0.0
  0
LINE
  5
232F
330
232B
100
AcDbEntity
  8
VERMASSUNG
100
AcDbLine
 10
129.5552361721999
 20
67.1750887985
 30
0.0
 11
86.6025619804
 21
67.1750887985
 31
0.0
  0
LINE
  5
2330
330
232B
100
AcDbEntity
  8
VERMASSUNG
100
AcDbLine
 10
87.60256198040002
 20
139.1750887985
 30
0.0
 11
87.60256198040002
 21
67.1750887985
 31
0.0
  0
MTEXT
  5
2331
330
232B
100
AcDbEntity
  8
VERMASSUNG
100
AcDbMText
 10
84.8025622037
 20
96.7710491681
 30
0.0
 40
2.0
 41
0.0
 71
     1
 72
     1
  1
{MBM }
  7
SLDTEXTSTYLE0
 11
-0.000000000000007
 21
1.0
 31
0.0
 73
     1
 44
1.0
  0
MTEXT
  5
2332
330
232B
100
AcDbEntity
  8
VERMASSUNG
100
AcDbMText
 10
85.002562155
 20
103.1710490065
 30
0.0
 40
2.0
 41
0.0
 71
     1
 72
     1
  1
{%%c}
  7
SLDTEXTSTYLE0
 11
-0.000000000000007
 21
1.0
 31
0.0
 73
     1
 44
1.0
  0
MTEXT
  5
2333
330
232B
100
AcDbEntity
  8
VERMASSUNG
100
AcDbMText
 10
85.0025618639
 20
106.7798881825
 30
0.0
 40
2.0
 41
0.0
 71
     1
 72
     1
  1
{72}
  7
SLDTEXTSTYLE0
 11
-0.000000000000007
 21
1.0
 31
0.0
 73
     1
 44
1.0
  0
ENDBLK
  5
2335
330
232B
100
AcDbEntity
  8
0
100
AcDbBlockEnd
  0
BLOCK
  5
233D
330
2336
100
AcDbEntity
  8
0
100
AcDbBlockBegin
  2
*D48
 70
     1
 10
0.0
 20
0.0
 30
0.0
  3
*D48
  1

  0
SOLID
  5
2337
330
2336
100
AcDbEntity
  8
VERMASSUNG
100
AcDbTrace
 10
215.2612816427
 20
155.4368283739998
 30
0.0
 11
212.2612816426999
 21
155.886828374
 31
0.0
 12
212.2612816426999
 22
154.9868283739999
 32
0.0
 13
212.2612816426999
 23
154.9868283739999
 33
0.0
  0
SOLID
  5
2338
330
2336
100
AcDbEntity
  8
VERMASSUNG
100
AcDbTrace
 10
125.7612816426999
 20
155.4368283739998
 30
0.0
 11
128.7612816426999
 21
154.9868283739999
 31
0.0
 12
128.7612816426999
 22
155.886828374
 32
0.0
 13
128.7612816426999
 23
155.886828374
 33
0.0
  0
LINE
  5
2339
330
2336
100
AcDbEntity
  8
VERMASSUNG
100
AcDbLine
 10
215.2612816427
 20
130.8292024166
 30
0.0
 11
215.2612816427
 21
156.4368283739999
 31
0.0
  0
LINE
  5
233A
330
2336
100
AcDbEntity
  8
VERMASSUNG
100
AcDbLine
 10
125.7612816426999
 20
130.6750887985
 30
0.0
 11
125.7612816426999
 21
156.4368283739999
 31
0.0
  0
LINE
  5
233B
330
2336
100
AcDbEntity
  8
VERMASSUNG
100
AcDbLine
 10
215.2612816427
 20
155.4368283739998
 30
0.0
 11
125.7612816426999
 21
155.4368283739998
 31
0.0
  0
MTEXT
  5
233C
330
2336
100
AcDbEntity
  8
VERMASSUNG
100
AcDbMText
 10
168.1117106982
 20
158.0368284904
 30
0.0
 40
2.0
 41
0.0
 71
     1
 72
     1
  1
{89.5}
  7
SLDTEXTSTYLE0
 73
     1
 44
1.0
  0
ENDBLK
  5
233E
330
2336
100
AcDbEntity
  8
0
100
AcDbBlockEnd
  0
BLOCK
  5
2346
330
233F
100
AcDbEntity
  8
0
100
AcDbBlockBegin
  2
*D49
 70
     1
 10
0.0
 20
0.0
 30
0.0
  3
*D49
  1

  0
SOLID
  5
2340
330
233F
100
AcDbEntity
  8
VERMASSUNG
100
AcDbTrace
 10
95.7612816427
 20
161.436828374
 30
0.0
 11
98.76128164269999
 21
160.986828374
 31
0.0
 12
98.76128164269999
 22
161.886828374
 32
0.0
 13
98.76128164269999
 23
161.886828374
 33
0.0
  0
SOLID
  5
2341
330
233F
100
AcDbEntity
  8
VERMASSUNG
100
AcDbTrace
 10
215.2612816427
 20
161.436828374
 30
0.0
 11
212.2612816426999
 21
161.886828374
 31
0.0
 12
212.2612816426999
 22
160.986828374
 32
0.0
 13
212.2612816426999
 23
160.986828374
 33
0.0
  0
LINE
  5
2342
330
233F
100
AcDbEntity
  8
VERMASSUNG
100
AcDbLine
 10
95.7612816427
 20
117.2750887985
 30
0.0
 11
95.7612816427
 21
162.4368283739999
 31
0.0
  0
LINE
  5
2343
330
233F
100
AcDbEntity
  8
VERMASSUNG
100
AcDbLine
 10
215.2612816427
 20
130.8292024166
 30
0.0
 11
215.2612816427
 21
162.4368283739999
 31
0.0
  0
LINE
  5
2344
330
233F
100
AcDbEntity
  8
VERMASSUNG
100
AcDbLine
 10
95.7612816427
 20
161.436828374
 30
0.0
 11
215.2612816427
 21
161.436828374
 31
0.0
  0
MTEXT
  5
2345
330
233F
100
AcDbEntity
  8
VERMASSUNG
100
AcDbMText
 10
152.8115699383999
 20
164.0368284904
 30
0.0
 40
2.0
 41
0.0
 71
     1
 72
     1
  1
{119.5}
  7
SLDTEXTSTYLE0
 73
     1
 44
1.0
  0
ENDBLK
  5
2347
330
233F
100
AcDbEntity
  8
0
100
AcDbBlockEnd
  0
BLOCK
  5
27D2
330
27C8
100
AcDbEntity
  8
0
100
AcDbBlockBegin
  2
*D50
 70
     1
 10
0.0
 20
0.0
 30
0.0
  3
*D50
  1

  0
LINE
  5
2807
330
27C8
100
AcDbEntity
  8
2
 62
     0
370
    -2
100
AcDbLine
 10
-30.0
 20
14.11060732654999
 30
0.0
 11
-30.0
 21
60.27234690204998
 31
0.0
  0
LINE
  5
2808
330
27C8
100
AcDbEntity
  8
2
 62
     0
370
    -2
100
AcDbLine
 10
89.50000000000001
 20
27.66472094464998
 30
0.0
 11
89.50000000000001
 21
60.27234690204998
 31
0.0
  0
LINE
  5
2809
330
27C8
100
AcDbEntity
  8
2
 62
     0
370
    -2
100
AcDbLine
 10
-25.42999999999999
 20
58.27234690204996
 30
0.0
 11
84.93
 21
58.27234690204996
 31
0.0
  0
SOLID
  5
280A
330
27C8
100
AcDbEntity
  8
2
 62
     0
100
AcDbTrace
 10
-25.42999999999999
 20
59.03401356871665
 30
0.0
 11
-25.42999999999999
 21
57.5106802353833
 31
0.0
 12
-30.0
 22
58.27234690204996
 32
0.0
 13
-30.0
 23
58.27234690204996
 33
0.0
  0
SOLID
  5
280B
330
27C8
100
AcDbEntity
  8
2
 62
     0
100
AcDbTrace
 10
84.93
 20
59.03401356871665
 30
0.0
 11
84.93
 21
57.5106802353833
 31
0.0
 12
89.50000000000001
 22
58.27234690204996
 32
0.0
 13
89.50000000000001
 23
58.27234690204996
 33
0.0
  0
MTEXT
  5
280C
330
27C8
100
AcDbEntity
  8
2
 62
     7
100
AcDbMText
 10
21.48047619047618
 20
64.34234690204998
 30
0.0
 40
4.57
 41
0.0
 71
     1
 72
     1
  1
\A1;119.5
  7
GENPRESET
 73
     1
 44
1.0
  0
POINT
  5
280D
330
27C8
100
AcDbEntity
  8
Defpoints
 62
     0
100
AcDbPoint
 10
-30.0
 20
14.11060732654999
 30
0.0
  0
POINT
  5
280E
330
27C8
100
AcDbEntity
  8
Defpoints
 62
     0
100
AcDbPoint
 10
89.50000000000001
 20
27.66472094464998
 30
0.0
  0
POINT
  5
280F
330
27C8
100
AcDbEntity
  8
Defpoints
 62
     0
100
AcDbPoint
 10
89.50000000000001
 20
58.27234690204996
 30
0.0
  0
ENDBLK
  5
27D3
330
27C8
100
AcDbEntity
  8
0
100
AcDbBlockEnd
  0
BLOCK
  5
27DE
330
27D4
100
AcDbEntity
  8
0
100
AcDbBlockBegin
  2
*D51
 70
     1
 10
0.0
 20
0.0
 30
0.0
  3
*D51
  1

  0
LINE
  5
2819
330
27D4
100
AcDbEntity
  8
2
 62
     0
370
    -2
100
AcDbLine
 10
89.50000000000001
 20
27.66472094464998
 30
0.0
 11
89.50000000000001
 21
50.50154723786744
 31
0.0
  0
LINE
  5
281A
330
27D4
100
AcDbEntity
  8
2
 62
     0
370
    -2
100
AcDbLine
 10
0.0
 20
27.51060732655
 30
0.0
 11
0.0000000000000014
 21
50.50154723786744
 31
0.0
  0
LINE
  5
281B
330
27D4
100
AcDbEntity
  8
2
 62
     0
370
    -2
100
AcDbLine
 10
84.93
 20
48.50154723786744
 30
0.0
 11
4.570000000000001
 21
48.50154723786744
 31
0.0
  0
SOLID
  5
281C
330
27D4
100
AcDbEntity
  8
2
 62
     0
100
AcDbTrace
 10
84.93
 20
49.26321390453411
 30
0.0
 11
84.93
 21
47.73988057120077
 31
0.0
 12
89.50000000000001
 22
48.50154723786744
 32
0.0
 13
89.50000000000001
 23
48.50154723786744
 33
0.0
  0
SOLID
  5
281D
330
27D4
100
AcDbEntity
  8
2
 62
     0
100
AcDbTrace
 10
4.570000000000001
 20
49.26321390453411
 30
0.0
 11
4.570000000000001
 21
47.73988057120077
 31
0.0
 12
0.0000000000000013
 22
48.50154723786744
 32
0.0
 13
0.0000000000000013
 23
48.50154723786744
 33
0.0
  0
MTEXT
  5
281E
330
27D4
100
AcDbEntity
  8
2
 62
     7
100
AcDbMText
 10
37.78619047619047
 20
54.57154723786745
 30
0.0
 40
4.57
 41
0.0
 71
     1
 72
     1
  1
\A1;89.5
  7
GENPRESET
 73
     1
 44
1.0
  0
POINT
  5
281F
330
27D4
100
AcDbEntity
  8
Defpoints
 62
     0
100
AcDbPoint
 10
89.50000000000001
 20
27.66472094464998
 30
0.0
  0
POINT
  5
2820
330
27D4
100
AcDbEntity
  8
Defpoints
 62
     0
100
AcDbPoint
 10
0.0
 20
27.51060732655
 30
0.0
  0
POINT
  5
2821
330
27D4
100
AcDbEntity
  8
Defpoints
 62
     0
100
AcDbPoint
 10
0.0000000000000013
 20
48.50154723786744
 30
0.0
  0
ENDBLK
  5
27DF
330
27D4
100
AcDbEntity
  8
0
100
AcDbBlockEnd
  0
BLOCK
  5
27EA
330
27E0
100
AcDbEntity
  8
0
100
AcDbBlockBegin
  2
*D52
 70
     1
 10
0.0
 20
0.0
 30
0.0
  3
*D52
  1

  0
LINE
  5
27FE
330
27E0
100
AcDbEntity
  8
VERMASSUNG
 62
     0
370
    -2
100
AcDbLine
 10
3.793954529499983
 20
36.01060732655
 30
0.0
 11
-39.15871966229998
 21
36.01060732655001
 31
0.0
  0
LINE
  5
27FF
330
27E0
100
AcDbEntity
  8
VERMASSUNG
 62
     0
370
    -2
100
AcDbLine
 10
3.793954529499983
 20
-35.98939267345
 30
0.0
 11
-39.15871966229999
 21
-35.98939267345
 31
0.0
  0
LINE
  5
2800
330
27E0
100
AcDbEntity
  8
VERMASSUNG
 62
     0
370
    -2
100
AcDbLine
 10
-38.15871966229998
 20
33.01060732655001
 30
0.0
 11
-38.15871966229999
 21
-32.98939267345
 31
0.0
  0
SOLID
  5
2801
330
27E0
100
AcDbEntity
  8
VERMASSUNG
 62
     0
100
AcDbTrace
 10
-38.65871966229996
 20
33.01060732655001
 30
0.0
 11
-37.65871966229996
 21
33.01060732655001
 31
0.0
 12
-38.15871966229998
 22
36.01060732655001
 32
0.0
 13
-38.15871966229998
 23
36.01060732655001
 33
0.0
  0
SOLID
  5
2802
330
27E0
100
AcDbEntity
  8
VERMASSUNG
 62
     0
100
AcDbTrace
 10
-38.65871966229999
 20
-32.98939267345
 30
0.0
 11
-37.65871966229999
 21
-32.98939267345
 31
0.0
 12
-38.15871966229999
 22
-35.98939267345
 32
0.0
 13
-38.15871966229999
 23
-35.98939267345
 33
0.0
  0
MTEXT
  5
2803
330
27E0
100
AcDbEntity
  8
VERMASSUNG
 62
     0
100
AcDbMText
 10
-53.6827196623
 20
1.011364902307563
 30
0.0
 40
2.0
 41
0.0
 71
     1
 72
     1
  1
\A1;MBM %%c72.00
  7
SLDTEXTSTYLE0
 73
     1
 44
1.0
  0
POINT
  5
2804
330
27E0
100
AcDbEntity
  8
Defpoints
 62
     0
100
AcDbPoint
 10
3.793954529499983
 20
36.01060732655
 30
0.0
  0
POINT
  5
2805
330
27E0
100
AcDbEntity
  8
Defpoints
 62
     0
100
AcDbPoint
 10
3.793954529499983
 20
-35.98939267345
 30
0.0
  0
POINT
  5
2806
330
27E0
100
AcDbEntity
  8
Defpoints
 62
     0
100
AcDbPoint
 10
-38.15871966229999
 20
-35.98939267345
 30
0.0
  0
ENDBLK
  5
27EB
330
27E0
100
AcDbEntity
  8
0
100
AcDbBlockEnd
  0
BLOCK
  5
2834
330
282B
100
AcDbEntity
  8
0
100
AcDbBlockBegin
  2
*D53
 70
     1
 10
0.0
 20
0.0
 30
0.0
  3
*D53
  1

  0
SOLID
  5
282C
330
282B
100
AcDbEntity
  8
VERMASSUNG
100
AcDbTrace
 10
87.76003337690003
 20
130.6750887985
 30
0.0
 11
87.31003337690003
 21
127.6750887985
 31
0.0
 12
88.21003337689999
 22
127.6750887985
 32
0.0
 13
88.21003337689999
 23
127.6750887985
 33
0.0
  0
SOLID
  5
282D
330
282B
100
AcDbEntity
  8
VERMASSUNG
100
AcDbTrace
 10
87.76003337690003
 20
75.6750887985
 30
0.0
 11
88.21003337689999
 21
78.67508879849999
 31
0.0
 12
87.31003337690003
 22
78.67508879849999
 32
0.0
 13
87.31003337690003
 23
78.67508879849999
 33
0.0
  0
LINE
  5
282E
330
282B
100
AcDbEntity
  8
VERMASSUNG
100
AcDbLine
 10
125.7612816426999
 20
130.6750887985
 30
0.0
 11
86.76003337690003
 21
130.6750887985
 31
0.0
  0
LINE
  5
282F
330
282B
100
AcDbEntity
  8
VERMASSUNG
100
AcDbLine
 10
125.7612816426999
 20
75.6750887985
 30
0.0
 11
86.76003337690003
 21
75.6750887985
 31
0.0
  0
LINE
  5
2830
330
282B
100
AcDbEntity
  8
VERMASSUNG
100
AcDbLine
 10
87.76003337690003
 20
130.6750887985
 30
0.0
 11
87.76003337690003
 21
75.6750887985
 31
0.0
  0
MTEXT
  5
2831
330
282B
100
AcDbEntity
  8
VERMASSUNG
100
AcDbMText
 10
84.96003360020003
 20
96.7710491681
 30
0.0
 40
2.0
 41
0.0
 71
     1
 72
     1
  1
{MBM }
  7
SLDTEXTSTYLE0
 11
-0.000000000000007
 21
1.0
 31
0.0
 73
     1
 44
1.0
  0
MTEXT
  5
2832
330
282B
100
AcDbEntity
  8
VERMASSUNG
100
AcDbMText
 10
85.16003355149999
 20
103.1710490065
 30
0.0
 40
2.0
 41
0.0
 71
     1
 72
     1
  1
{%%c}
  7
SLDTEXTSTYLE0
 11
-0.000000000000007
 21
1.0
 31
0.0
 73
     1
 44
1.0
  0
MTEXT
  5
2833
330
282B
100
AcDbEntity
  8
VERMASSUNG
100
AcDbMText
 10
85.1600332605
 20
106.7798881825
 30
0.0
 40
2.0
 41
0.0
 71
     1
 72
     1
  1
{55}
  7
SLDTEXTSTYLE0
 11
-0.000000000000007
 21
1.0
 31
0.0
 73
     1
 44
1.0
  0
ENDBLK
  5
2835
330
282B
100
AcDbEntity
  8
0
100
AcDbBlockEnd
  0
BLOCK
  5
2846
330
283C
100
AcDbEntity
  8
0
100
AcDbBlockBegin
  2
*D54
 70
     1
 10
0.0
 20
0.0
 30
0.0
  3
*D54
  1

  0
LINE
  5
2851
330
283C
100
AcDbEntity
  8
SK2
 62
     0
370
    -2
100
AcDbLine
 10
0.0
 20
27.5
 30
0.0
 11
-40.00124826579997
 21
27.50000000000001
 31
0.0
  0
LINE
  5
2852
330
283C
100
AcDbEntity
  8
SK2
 62
     0
370
    -2
100
AcDbLine
 10
0.0
 20
-27.50000000000001
 30
0.0
 11
-40.00124826579999
 21
-27.5
 31
0.0
  0
LINE
  5
2853
330
283C
100
AcDbEntity
  8
SK2
 62
     0
370
    -2
100
AcDbLine
 10
-38.00124826579997
 20
22.93
 30
0.0
 11
-38.00124826579999
 21
-22.93
 31
0.0
  0
SOLID
  5
2854
330
283C
100
AcDbEntity
  8
SK2
 62
     0
100
AcDbTrace
 10
-38.76291493246664
 20
22.93
 30
0.0
 11
-37.23958159913331
 21
22.93
 31
0.0
 12
-38.00124826579997
 22
27.5
 32
0.0
 13
-38.00124826579997
 23
27.5
 33
0.0
  0
SOLID
  5
2855
330
283C
100
AcDbEntity
  8
SK2
 62
     0
100
AcDbTrace
 10
-38.76291493246664
 20
-22.93
 30
0.0
 11
-37.23958159913332
 21
-22.93
 31
0.0
 12
-38.00124826579999
 22
-27.5
 32
0.0
 13
-38.00124826579999
 23
-27.5
 33
0.0
  0
MTEXT
  5
2856
330
283C
100
AcDbEntity
  8
SK2
 62
     7
100
AcDbMText
 10
-44.07124826579997
 20
-15.34214285714284
 30
0.0
 40
4.57
 41
0.0
 71
     1
 72
     1
  1
\A1;MBM %%c55
  7
GENPRESET
 11
0.0000000000000001
 21
1.0
 31
0.0
 73
     1
 44
1.0
  0
POINT
  5
2857
330
283C
100
AcDbEntity
  8
Defpoints
 62
     0
100
AcDbPoint
 10
0.0
 20
27.5
 30
0.0
  0
POINT
  5
2858
330
283C
100
AcDbEntity
  8
Defpoints
 62
     0
100
AcDbPoint
 10
0.0
 20
-27.50000000000001
 30
0.0
  0
POINT
  5
2859
330
283C
100
AcDbEntity
  8
Defpoints
 62
     0
100
AcDbPoint
 10
-38.00124826579999
 20
-27.5
 30
0.0
  0
ENDBLK
  5
2847
330
283C
100
AcDbEntity
  8
0
100
AcDbBlockEnd
  0
BLOCK
  5
28E9
330
28DC
100
AcDbEntity
  8
0
100
AcDbBlockBegin
  2
A$C747F7E33
 70
     0
 10
0.0
 20
0.0
 30
0.0
  3
A$C747F7E33
  1

  0
LINE
  5
28DD
330
28DC
100
AcDbEntity
  8
1
100
AcDbLine
 10
16.61465405516026
 20
-23.37667643634
 30
0.0
 11
16.61465405516026
 21
23.37332356366002
 31
0.0
  0
LINE
  5
28DE
330
28DC
100
AcDbEntity
  8
1
100
AcDbLine
 10
11.80118753466026
 20
-14.60166642833996
 30
0.0
 11
11.80118753466026
 21
14.59831355566
 31
0.0
  0
LINE
  5
28DF
330
28DC
100
AcDbEntity
  8
1
100
AcDbLine
 10
13.80118753466026
 20
-16.10281278024
 30
0.0
 11
13.80118753466026
 21
16.09945990756
 31
0.0
  0
ELLIPSE
  5
28E0
330
28DC
100
AcDbEntity
  8
1
100
AcDbEllipse
 10
19.96401896056027
 20
16.62332356366003
 30
0.0
 11
-0.0000000000004263
 21
39.99999999999996
 31
0.0
210
0.0
220
0.0
230
1.0
 40
0.2679491924
 41
2.528988505541168
 42
2.823768949661912
  0
LINE
  5
28E1
330
28DC
100
AcDbEntity
  8
1
100
AcDbLine
 10
6.614654055162557
 20
-23.37667643634
 30
0.0
 11
16.61465405516026
 21
-23.37667643634
 31
0.0
  0
ARC
  5
28E2
330
28DC
100
AcDbEntity
  8
1
100
AcDbCircle
 10
36.80118753466025
 20
16.62332356366003
 30
0.0
 40
40.0
100
AcDbArc
 50
231.3178125464994
 51
234.9003678045998
  0
LINE
  5
28E3
330
28DC
100
AcDbEntity
  8
1
100
AcDbLine
 10
11.80118753466026
 20
-14.60166642833996
 30
0.0
 11
6.614654055166101
 21
-14.60166642833996
 31
0.0
  0
LINE
  5
28E4
330
28DC
100
AcDbEntity
  8
1
100
AcDbLine
 10
16.61465405516026
 20
23.37332356366002
 30
0.0
 11
6.614654055181428
 21
23.37332356366002
 31
0.0
  0
ARC
  5
28E5
330
28DC
100
AcDbEntity
  8
1
100
AcDbCircle
 10
36.80118753466025
 20
-16.62667643634
 30
0.0
 40
40.0
100
AcDbArc
 50
125.0996321954001
 51
128.6821874535
  0
LINE
  5
28E6
330
28DC
100
AcDbEntity
  8
1
100
AcDbLine
 10
6.614654055177887
 20
14.59831355566
 30
0.0
 11
11.80118753466026
 21
14.59831355566
 31
0.0
  0
ELLIPSE
  5
28E7
330
28DC
100
AcDbEntity
  8
1
100
AcDbEllipse
 10
19.96401896056027
 20
-16.62667643634
 30
0.0
 11
-0.0000000000003979
 21
39.99999999999996
 31
0.0
210
0.0
220
0.0
230
1.0
 40
0.2679491924
 41
0.3178237039278808
 42
0.6126041480486244
  0
LINE
  5
28E8
330
28DC
100
AcDbEntity
  8
1
100
AcDbLine
 10
6.614654055181441
 20
23.40310584785583
 30
0.0
 11
6.614654055156122
 21
-39.32800237851327
 31
0.0
  0
ENDBLK
  5
28EA
330
28DC
100
AcDbEntity
  8
0
100
AcDbBlockEnd
  0
ENDSEC
  0
SECTION
  2
ENTITIES
  0
MTEXT
  5
36
330
1F
100
AcDbEntity
  8
5
100
AcDbMText
 10
-39.45169067555932
 20
-71.53841147556271
 30
0.0
 40
4.57
 41
0.0
 71
     1
 72
     1
  1
256.550.000
  7
GENPRESET
 73
     1
 44
1.0
  0
MTEXT
  5
37
330
1F
100
AcDbEntity
  8
5
100
AcDbMText
 10
-39.40790750275931
 20
-63.49927268266274
 30
0.0
 40
4.57
 41
0.0
 71
     1
 72
     1
  1
Feinbohrkopf_Fine boring head
  7
GENPRESET
 73
     1
 44
1.0
  0
REGION
  5
2AB
330
1F
100
AcDbEntity
  8
5
100
AcDbModelerGeometry
 70
     1
  1
koo mi n o          
  1
h J1410(1 nl ^ \VL kqoqm QK mk K*: Y:= oj nkeoneoj moog 
  1
rn fqfffffffffffffffj:rooh n:rono 
  1
=0;& {rn {n {rn {rn |
  1
3*2/ {rn {rn {m {o |
  1
,7:33 {rn {rn {rn {l {rn {n |
  1
9><: {rn {rn {k {m {rn {j 90-(>-; ;0*=3: 0*+ |
  1
300/ {rn {rn {i {l |
  1
/3>1:r,*-9><: {rn rljqfffjihkfgmnomfh rjkqmhiigfhignonkil o o o n n o o 90-(>-;@) V V V V |
  1
<0:;8: {rn {h {g {rn {f 90-(>-; {k {rn |
  1
<0:;8: {rn {no {i {rn {nn 90-(>-; {k {rn |
  1
<0:;8: {rn {i {no {rn {nm 90-(>-; {k {rn |
  1
:;8: {rn {nl {nk {i {nj 90-(>-; |
  1
<0:;8: {rn {g {h {rn {ni -:):-,:; {k {rn |
  1
:;8: {rn {nk {nh {h {ng 90-(>-; |
  1
:;8: {rn {nf {nl {g {mo 90-(>-; |
  1
):-+:' {rn {f {mn |
  1
):-+:' {rn {f {mm |
  1
61+<*-):r<*-): {rn 90-(>-; $ :'><+<*- 1*=, l 0/:1 mg 
  1
 o l oqlfigjomnhmmhnoggk n oqhmihgjfojjnjijimj n nqongknlhimogofofh n nqmhjijkomimihfkmn n 
  1
 nqjjhhfooifjkllfmm n nqginnnojigjoifhom n mqjkkgnlhjikjngfjl n mqgnmoofmlhlingolh n lqokfffiohonmmmllj n 
  1
 lqlloonlmhgjlffngk n lqjhjiljhgilhmngkg n lqflkijnjffnhfgkfk n kqklfnimomimokiofi n kqihhohhmgmkfjfon n 
  1
 kqfjglhmkoiilonmjg n jqlmoknigoglljkill n jqijoooimimfnhomng n iqnnmooijfhfmfnkjk n iqillkinjnnhkjhlfi n 
  1
 iqfknhinkfmmgkfnmf n hqmokikooliljffifi n hqkfmhhkhgfkhifngl n hqhnffflnfkkoglkjn n gqmmhonmnijoikjmjg n 
  1
 gqhgfgkommjlomnifh n fqnlnohigkhjkjhkmm n fqlggifigilfmffjgm l 
  1
 rllqohihfihmgjllnig rjmqfihogfhoifogmig o 
  1
 rllqoigkmnlijkknnlf rjmqifiiklnjlnngmln o 
  1
 rllqojlogmgklmgifni rjmqmonljnnlghjhjjf o 
  1
 rllqkokifoiliknknjf rjnqjfgfkhknnokjgji o 
  1
 rllqhfllfgmlkhiggjg rjnqnkjknlknhjljgkf o 
  1
 rlkqlnomkiniklmljl rjoqfmkjflomonnlmik o 
  1
 rlkqgnifgojfiinhhgm rjoqihhlfkfjhihojhm o 
  1
 rljqiilnkhjgfmonml rjoqjjfimgmllfffkf o 
  1
 rliqjojkggghfomimkj rjoqjklfohgllhhlklm o 
  1
 rlhqmgkfkgnhlfkggim rjoqhofllfmflglonnm o 
  1
 rlhqhihlohmlonihjhj rjoqfmjofkglliknnk o 
  1
 rlgqnhmjjkijimmmmki rjnqmlkinfnloggjhll o 
  1
 rlgqiminihlnjhnfnon rjnqimofmghkifjnflm o 
  1
 rlgqfjmgiilikjlfhni rjmqloilnkkgffmonnm o 
  1
 rlgqffjkmgnfmignigi rjlqoglknkjgmnjkfkk o 
  1
 rlgqifffmoglmkijfhg rjlqhoiklinokkhjnom o 
  1
 rlgqllomkfjgilmoill rjkqnhfojfmilikjijj o 
  1
 rlhqhlnhfmhiogjnnik rjkqkijglgnlofjminf o 
  1
 rlhqonkfkmfnmmoijhg rjkqhlikimihkgikkh o 
  1
 rliqnkfhjinglimnlmn rjkqfnkmjmghoohihml o 
  1
 rljqlnmfhikmnjhmjmf rjjqolfiifjnimkljhg o 
  1
 rlkqjflomhofgojmgjg rjjqlmhljkfjhnjfhfg o 
  1
 rlkqlijmfifkfgongom rjjqfoihhokgolflnoi o 
  1
 rlkqjlfjkfkkojkmlhl rjiqkifmgklgnllnnoh o 
  1
 rljqmokllklmhifmhm rjiqhkjljhfoiogojgj o 
  1
 rliqokihokmnkhmiji rjiqgmjjgjllknmogom o 
  1
 rlhqoigjoflkflngfom rjiqihhigjhkokhjjnn o 
  1
 rlhqjmlflijnhmkljjj rjjqfhjimmmhjflihon o 
  1
 rlhqjiknjkmjhohfjlh rjjqjhifhnokmhmfiih o 
  1
 rlhqjgnkjjlgknlflok rjjqkojkhiigoilolgi o 
  1
 o 
  1
 1*33@,*-9><: 
  1
 1*33@,*-9><: 
  1
 1*33=, 
  1
 1*33=, 
  1
 V V 
  1
 o 
  1
 o 
  3
 mi oqlfigjomnhmmhnoggk oqhmihgjfojjnjijimj nqongknlhimogofofh nqmhjijkomimihfkmn nqjjhhfooifjkllfmm nqginnnojigjoifhom mqjkkgnlhjikjngfjl mqgnmoofmlhlingolh lqokfffiohonmmmllj lqlloonlmhgjlffngk lqjhjiljhgilhmngkg lqflkijnjffnhfgkfk kqklfnimomimokiofi kq
  1
ihhohhmgmkfjfon kqfjglhmkoiilonmjg jqlmoknigoglljkill jqijoooimimfnhomng iqnnmooijfhfmfnkjk iqillkinjnnhkjhlfi iqfknhinkfmmgkfnmf hqmokikooliljffifi hqkfmhhkhgfkhifngl hqhnffflnfkkoglkjn gqmmhonmnijoikjmjg gqhgfgkommjlomnifh fqnlnohigkhjkjhkmm 
  1
 Y n Y o " V V |
  1
:;8: {rn {nf {nh {no {ml 90-(>-; |
  1
):-+:' {rn {nn {mk |
  1
,+->687+r<*-): {rn rlhqjgnkjjlgknlflok rjjqkojkhiigoilolgi o roqffffffnohkimjmnfi roqoonllioiiihkhngjfkh o V V |
  1
):-+:' {rn {ni {mj |
  1
,+->687+r<*-): {rn rlkqijhfioikgolmjff rjmqfijlfilgjlnllfh o oqffffffkmijjnoghjl roqoonohoflloomjjmgofg o V V |
  1
/061+ {rn rllqohihfihmgjllnig rjmqfihogfhoifogmig o |
  1
/061+ {rn rlhqjgnkjjlgknlflok rjjqkojkhiigoilolgi o |
  1
61+<*-):r<*-): {rn 90-(>-; $ :'><+<*- 1*=, l 0/:1 mk 
  1
 o l oqligokiljfljmjmjj n oqikiffjgmifofigklg n nqoigjglohkoojklhk n nqiohihjljnioiinng n 
  1
 nqfhmmojknmiffgfof n mqnfkhjgmkmhhogjlf n mqioinmmijimmmlmmg n lqnlhnlfiiikkokmkj n lqifnmlfgjmonggmhk n 
  1
 kqokoilfionkiiffnk n kqlffkggihjloikjmk n kqgnjjkihfkomhonmj n jqljoknhiinlnnjjjf n jqgnogkngnofmjifjk n 
  1
 iqmmhnfffmkgnlkoni n iqinkmilhmmmoihgkk n hqkgfigmoofjhoomml n hqgihgfiogmnmng n gqmjlnglnofmnkimnl n 
  1
 gqjjhhkmomokmlmfin n gqhimgololoifolglj n fqnknnhijkkiknoojg n fqmjiilgghlkomkimn l 
  1
 rlkqijhfioikgolmjff rjmqfijlfilgjlnllfh o 
  1
 rlkqiglgohnjjmfijfn rjmqhohnhjnfmgnmjff o 
  1
 rlkqhmfmklmlnmjjijn rjmqmjlmklnjkgkkkmi o 
  1
 rljqlgjijjgfokooih rjnqgmfigohghllnogj o 
  1
 rliqnhijlfhfhgnhgn rjnqhgggflijhffgmkk o 
  1
 rlhqmionffjgnmjiikl rjnqgmmhhllfoggok o 
  1
 rlhqlhfhhkgomihmohk rjmqhhlgogfiikllloh o 
  1
 rliqghlfljjoiklnimn rjlqmiffhglflkkmgfg o 
  1
 rliqohoighgfljokhjk rjlqljjfoogiinolfg o 
  1
 rljqnnlihfjffnimln rjlqjgggmflgjkgfmm o 
  1
 rlkqnijhomgolohonok rjlqhgjgljlhhfjljok o 
  1
 rllqkmhjnkiflillnjh rjkqmogfioglkigjhfh o 
  1
 rlmqfnoinhhgnojolkg rjkqhgijnhlkhiifhmf o 
  1
 rlmqhmkognngohmnokl rjjqiijiligillnlmlf o 
  1
 rlmqgiojgollfimofgn rjiqikmhginignfonji o 
  1
 rllqjmgkgoiinjgfmkm rjhqliknggkhhjlmlii o 
  1
 rlkqmhkjjklmmnhjgkj rjhqhimmilkhnffmohn o 
  1
 rljqlkhgigjkifmgomi rjgqnnggkoiolnfffff o 
  1
 rliqkigiklljklflgoj rjgqoojiojnogihmjk o 
  1
 rlhqjkmknolghflhhik rjhqgnojmmhmkfknhfn o 
  1
 rlgqnfjhhjifjkimhnk rjhqkgjhkmlighmlnjm o 
  1
 rlgqinnonjfniioffhm rjhqokhhijfhjfhkngh o 
  1
 rlgqffmigkmonlhfoil rjiqiojfinmkfgfimnn o 
  1
 rlfqoggjgnhonhlkgjl rjiqolgigjgjljggfom o 
  1
 rlfqnknkmlnomgmokjk rjjqgknfhfkfikjjnn o 
  1
 rlfqniiiomofjhojjhn rjjqkohjfkjkkmnijmm o 
  1
 o 
  1
 1*33@,*-9><: 
  1
 1*33@,*-9><: 
  1
 1*33=, 
  1
 1*33=, 
  1
 V V 
  1
 o 
  1
 o 
  3
 mm oqligokiljfljmjmjj oqikiffjgmifofigklg nqoigjglohkoojklhk nqiohihjljnioiinng nqfhmmojknmiffgfof mqnfkhjgmkmhhogjlf mqioinmmijimmmlmmg lqnlhnlfiiikkokmkj lqifnmlfgjmonggmhk kqokoilfionkiiffnk kqlffkggihjloikjmk kqgnjjkihfkomhonmj jqljoknhiinlnnjjjf jqg
  1
nogkngnofmjifjk iqmmhnfffmkgnlkoni iqinkmilhmmmoihgkk hqkgfigmoofjhoomml hqgihgfiogmnmng gqmjlnglnofmnkimnl gqjjhhkmomokmlmfin gqhimgololoifolglj fqnknnhijkkiknoojg 
  1
 Y n Y o " V V |
  1
/061+ {rn rlfqniiiomofjhojjhn rjjqkohjfkjkkmnijmm o |
  1
/061+ {rn rlkqijhfioikgolmjff rjmqfijlfilgjlnllfh o |
  0
REGION
  5
2AC
330
1F
100
AcDbEntity
  8
5
100
AcDbModelerGeometry
 70
     1
  1
koo mi n o          
  1
h J1410(1 nl ^ \VL kqoqm QK mk K*: Y:= oj nkeoneoj moog 
  1
rn fqfffffffffffffffj:rooh n:rono 
  1
=0;& {rn {n {rn {rn |
  1
3*2/ {rn {rn {m {o |
  1
,7:33 {rn {rn {rn {l {rn {n |
  1
9><: {rn {rn {k {m {rn {j 90-(>-; ;0*=3: 0*+ |
  1
300/ {rn {rn {i {l |
  1
/3>1:r,*-9><: {rn oqioihmonghgomljmkg rjkqohnkkfklnjlolnn o o o n n o o 90-(>-;@) V V V V |
  1
<0:;8: {rn {h {g {rn {f -:):-,:; {k {rn |
  1
<0:;8: {rn {no {i {rn {nn -:):-,:; {k {rn |
  1
<0:;8: {rn {i {no {rn {nm -:):-,:; {k {rn |
  1
:;8: {rn {nl {nk {i {nj 90-(>-; |
  1
<0:;8: {rn {g {h {rn {ni -:):-,:; {k {rn |
  1
:;8: {rn {nh {nl {h {ng 90-(>-; |
  1
:;8: {rn {nk {nf {g {mo 90-(>-; |
  1
):-+:' {rn {f {mn |
  1
):-+:' {rn {f {mm |
  1
,+->687+r<*-): {rn rlfqmfgmmhjjgiifjn rkgqokojfmfhkfhggli o n o o V V |
  1
:;8: {rn {nf {nh {no {ml 90-(>-; |
  1
):-+:' {rn {ni {mk |
  1
,+->687+r<*-): {rn rlfqmfgmmhjjgiifjn rioqnomlojgggognhgh o o n o V V |
  1
):-+:' {rn {nm {mj |
  1
,+->687+r<*-): {rn koqjnniihflkmhkmnj rkgqokojfmfhkfhggli o o rn o V V |
  1
/061+ {rn rlfqmfgmmhjjgiifjn rkgqokojfmfhkfhggli o |
  1
/061+ {rn koqjnniihflkmhkmnj rkgqokojfmfhkfhggli o |
  1
,+->687+r<*-): {rn koqjnniihflkmhkmnj rioqnomlojgggognhgh o rn o o V V |
  1
/061+ {rn rlfqmfgmmhjjgiifjn rioqnomlojgggognhgh o |
  1
/061+ {rn koqjnniihflkmhkmnj rioqnomlojgggognhgh o |
  0
REGION
  5
2AD
330
1F
100
AcDbEntity
  8
5
100
AcDbModelerGeometry
 70
     1
  1
koo mi n o          
  1
h J1410(1 nl ^ \VL kqoqm QK mk K*: Y:= oj nkeoneoj moog 
  1
rn fqfffffffffffffffj:rooh n:rono 
  1
=0;& {rn {n {rn {rn |
  1
3*2/ {rn {rn {m {o |
  1
,7:33 {rn {rn {rn {l {rn {n |
  1
9><: {rn {rn {k {m {rn {j 90-(>-; ;0*=3: 0*+ |
  1
300/ {rn {rn {i {l |
  1
/3>1:r,*-9><: {rn rnjqgnojihfjghgmggl rjkqmhiigfhignonkil o o o n n o o 90-(>-;@) V V V V |
  1
<0:;8: {rn {h {g {rn {f 90-(>-; {k {rn |
  1
<0:;8: {rn {no {i {rn {nn 90-(>-; {k {rn |
  1
<0:;8: {rn {i {no {rn {nm 90-(>-; {k {rn |
  1
:;8: {rn {nl {nk {i {nj 90-(>-; |
  1
<0:;8: {rn {g {h {rn {ni -:):-,:; {k {rn |
  1
:;8: {rn {nk {nh {h {ng 90-(>-; |
  1
:;8: {rn {nf {nl {g {mo 90-(>-; |
  1
):-+:' {rn {f {mn |
  1
):-+:' {rn {f {mm |
  1
61+<*-):r<*-): {rn 90-(>-; $ :'><+<*- 1*=, l 0/:1 mg 
  1
 o l oqlfigjomnhmmhnoggk n oqhmihgjfojjnjijimj n nqongknlhimogofofh n nqmhjijkomimihfkmn n 
  1
 nqjjhhfooifjkllfmm n nqginnnojigjoifhom n mqjkkgnlhjikjngfjl n mqgnmoofmlhlingolh n lqokfffiohonmmmllj n 
  1
 lqlloonlmhgjlffngk n lqjhjiljhgilhmngkg n lqflkijnjffnhfgkfk n kqklfnimomimokiofi n kqihhohhmgmkfjfon n 
  1
 kqfjglhmkoiilonmjg n jqlmoknigoglljkill n jqijoooimimfnhomng n iqnnmooijfhfmfnkjk n iqillkinjnnhkjhlfi n 
  1
 iqfknhinkfmmgkfnmf n hqmokikooliljffifi n hqkfmhhkhgfkhifngl n hqhnffflnfkkoglkjn n gqmmhonmnijoikjmjg n 
  1
 gqhgfgkommjlomnifh n fqnlnohigkhjkjhkmm n fqlggifigilfmffjgm l 
  1
 rnmqgghhfhngfnojhjk rjmqfihogfhoifogmig o 
  1
 rnmqghfkmngmionlhmi rjmqifiiklnjlnngmln o 
  1
 rnmqgikogllolgjfjom rjmqmonljnnlghjhjjf o 
  1
 rnlqmnjifnofifgihkj rjnqjfgfkhknnokjgji o 
  1
 rnlqioklfgifjlknkkj rjnqnkjknlknhjljgkf o 
  1
 rnkqnmnmkiimkgfinni rjoqfmkjflomonnlmik o 
  1
 rnkqimhfgnojhnfolig rjoqihhlfkfjhihojhm o 
  1
 rnjqkhknkgokfhhlgnh rjoqjjfimgmllfffkf o 
  1
 rniqlnikgfllfjfgglm rjoqjklfohgllhhlklm o 
  1
 rnhqofjfkgilkjmnkkf rjoqhofllfmflglonnm o 
  1
 rnhqjhglohifohkonin rjoqfmjofkglliknnk o 
  1
 rnhqfgljjjnnihfkglm rjnqmlkinfnloggjhll o 
  1
 rngqklhnihhhimfnigh rjnqimofmghkifjnflm o 
  1
 rngqhilgiigmjnnmlom rjmqloilnkkgffmonnm o 
  1
 rngqgoikmgijlmjkmhm rjlqoglknkjgmnjkfkk o 
  1
 rngqjnofmnmflolgjik rjlqhoiklinokkhjnom o 
  1
 rngqnknmjookigflmnf rjkqnhfojfmilikjijj o 
  1
 rnhqjkmhflmmnkmlhj rjkqkijglgnlofjminf o 
  1
 rniqgmjfkllhmhhfnij rjkqhlikimihkgikkh o 
  1
 rnjqfiohjiikknflfoh rjkqfnkmjmghoohihml o 
  1
 rnjqnmlfhiggmnkjnnj rjjqolfiifjnimkljhg o 
  1
 rnkqkokomhjjgimjkkk rjjqlmhljkfjhnjfhfg o 
  1
 rnkqnhimfhknolhklgf rjjqfoihhokgolflnoi o 
  1
 rnkqljojkffonnnkfi rjiqkifmgklgnllnnoh o 
  1
 rnjqonjllkhggmijloh rjiqhkjljhfoiogojgj o 
  1
 rnjqgjhhokihjmffnki rjiqgmjjgjllknmogom o 
  1
 rniqghfjofgofgfnkgg rjiqihhigjhkokhjjnn o 
  1
 rnhqllkflifhhgninkm rjjqfhjimmmhjflihon o 
  1
 rnhqlhjnjkhnhijmnml rjjqjhifhnokmhmfiih o 
  1
 rnhqlfmkjjgkkhnngf rjjqkojkhiigoilolgi o 
  1
 o 
  1
 1*33@,*-9><: 
  1
 1*33@,*-9><: 
  1
 1*33=, 
  1
 1*33=, 
  1
 V V 
  1
 o 
  1
 o 
  3
 mi oqlfigjomnhmmhnoggk oqhmihgjfojjnjijimj nqongknlhimogofofh nqmhjijkomimihfkmn nqjjhhfooifjkllfmm nqginnnojigjoifhom mqjkkgnlhjikjngfjl mqgnmoofmlhlingolh lqokfffiohonmmmllj lqlloonlmhgjlffngk lqjhjiljhgilhmngkg lqflkijnjffnhfgkfk kqklfnimomimokiofi kq
  1
ihhohhmgmkfjfon kqfjglhmkoiilonmjg jqlmoknigoglljkill jqijoooimimfnhomng iqnnmooijfhfmfnkjk iqillkinjnnhkjhlfi iqfknhinkfmmgkfnmf hqmokikooliljffifi hqkfmhhkhgfkhifngl hqhnffflnfkkoglkjn gqmmhonmnijoikjmjg gqhgfgkommjlomnifh fqnlnohigkhjkjhkmm 
  1
 Y n Y o " V V |
  1
:;8: {rn {nf {nh {no {ml 90-(>-; |
  1
):-+:' {rn {nn {mk |
  1
,+->687+r<*-): {rn rnhqlfmkjjgkkhnngf rjjqkojkhiigoilolgi o roqffffffnohkimjmnfi roqoonllioiiihkhngjfkh o V V |
  1
):-+:' {rn {ni {mj |
  1
,+->687+r<*-): {rn rnkqkigfinnogiojngj rjmqfijlfilgjlnllfh o oqffffffkmijjnoghjl roqoonohoflloomjjmgofg o V V |
  1
/061+ {rn rnmqgghhfhngfnojhjk rjmqfihogfhoifogmig o |
  1
/061+ {rn rnhqlfmkjjgkkhnngf rjjqkojkhiigoilolgi o |
  1
61+<*-):r<*-): {rn 90-(>-; $ :'><+<*- 1*=, l 0/:1 mk 
  1
 o l oqligokiljfljmjmjj n oqikiffjgmifofigklg n nqoigjglohkoojklhk n nqiohihjljnioiinng n 
  1
 nqfhmmojknmiffgfof n mqnfkhjgmkmhhogjlf n mqioinmmijimmmlmmg n lqnlhnlfiiikkokmkj n lqifnmlfgjmonggmhk n 
  1
 kqokoilfionkiiffnk n kqlffkggihjloikjmk n kqgnjjkihfkomhonmj n jqljoknhiinlnnjjjf n jqgnogkngnofmjifjk n 
  1
 iqmmhnfffmkgnlkoni n iqinkmilhmmmoihgkk n hqkgfigmoofjhoomml n hqgihgfiogmnmng n gqmjlnglnofmnkimnl n 
  1
 gqjjhhkmomokmlmfin n gqhimgololoifolglj n fqnknnhijkkiknoojg n fqmjiilgghlkomkimn l 
  1
 rnkqkigfinnogiojngj rjmqfijlfilgjlnllfh o 
  1
 rnkqkfkgohinjgifnhg rjmqhohnhjnfmgnmjff o 
  1
 rnkqjkomklifngmgmlg rjmqmjlmklnjkgkkkmi o 
  1
 rnjqnfiijiljofhlmjh rjnqgmfigohghllnogj o 
  1
 rnjqfghjkomjglfolfi rjnqhgggflijhffgmkk o 
  1
 rnhqohnmoookngmfmmf rjnqgmmhhllfoggok o 
  1
 rnhqnfohhjmilmkkii rjmqhhlgogfiikllloh o 
  1
 rniqigkfljfihookmog rjlqmiffhglflkkmgfg o 
  1
 rnjqggniggljkohhlk rjlqljjfoogiinolfg o 
  1
 rnkqfmkigoojfhlkgfh rjlqjgggmflgjkgfmm o 
  1
 rnlqfhiholmilikmif rjlqhgjgljlhhfjljok o 
  1
 rnlqmlgjnjnjkmojhkl rjkqmogfioglkigjhfh o 
  1
 rnmqhmningmknimmflk rjkqhgijnhlkhiifhmf o 
  1
 rnmqjljogniknmflil rjjqiijiligillnlmlf o 
  1
 rnmqihnjgogoonfljih rjiqikmhginignfonji o 
  1
 rnlqllfkgnnmmningmg rjhqliknggkhhjlmlii o 
  1
 rnkqogjjjkhgmhkgklm rjhqhimmilkhnffmohn o 
  1
 rnjqnjggifoohjooinl rjgqnnggkoiolnfffff o 
  1
 rniqmhfiklgnkfiilfn rjgqoojiojnogihmjk o 
  1
 rnhqljlknogkgjnolj rjhqgnojmmhmkfknhfn o 
  1
 rngqooihhinjioljlon rjhqkgjhkmlighmlnjm o 
  1
 rngqkmmonilhhngmjjg rjhqokhhijfhjfhkngh o 
  1
 rngqgoligkiinfjnij rjiqiojfinmkfgfimnn o 
  1
 rngqgffjgmnimlohklf rjiqolgigjgjljggfom o 
  1
 rngqfjmkmljillflok rjjqgknfhfkfikjjnn o 
  1
 rngqfhhiomjjimhgnjh rjjqkohjfkjkkmnijmm o 
  1
 o 
  1
 1*33@,*-9><: 
  1
 1*33@,*-9><: 
  1
 1*33=, 
  1
 1*33=, 
  1
 V V 
  1
 o 
  1
 o 
  3
 mm oqligokiljfljmjmjj oqikiffjgmifofigklg nqoigjglohkoojklhk nqiohihjljnioiinng nqfhmmojknmiffgfof mqnfkhjgmkmhhogjlf mqioinmmijimmmlmmg lqnlhnlfiiikkokmkj lqifnmlfgjmonggmhk kqokoilfionkiiffnk kqlffkggihjloikjmk kqgnjjkihfkomhonmj jqljoknhiinlnnjjjf jqg
  1
nogkngnofmjifjk iqmmhnfffmkgnlkoni iqinkmilhmmmoihgkk hqkgfigmoofjhoomml hqgihgfiogmnmng gqmjlnglnofmnkimnl gqjjhhkmomokmlmfin gqhimgololoifolglj fqnknnhijkkiknoojg 
  1
 Y n Y o " V V |
  1
/061+ {rn rngqfhhiomjjimhgnjh rjjqkohjfkjkkmnijmm o |
  1
/061+ {rn rnkqkigfinnogiojngj rjmqfijlfilgjlnllfh o |
  0
REGION
  5
2AE
330
1F
100
AcDbEntity
  8
5
100
AcDbModelerGeometry
 70
     1
  1
koo hn n o          
  1
h J1410(1 nl ^ \VL kqoqm QK mk K*: Y:= oj nkeoneoj moog 
  1
rn fqfffffffffffffffj:rooh n:rono 
  1
=0;& {rn {n {rn {rn |
  1
3*2/ {rn {rn {m {o |
  1
,7:33 {rn {rn {rn {l {rn {n |
  1
9><: {rn {rn {k {m {rn {j 90-(>-; ;0*=3: 0*+ |
  1
300/ {rn {rn {i {l |
  1
/3>1:r,*-9><: {rn rmhqklnfkomjijnghnj rjlqhffnlnfnkjfhiof o o o n n o o 90-(>-;@) V V V V |
  1
<0:;8: {rn {h {g {rn {f -:):-,:; {k {rn |
  1
<0:;8: {rn {no {i {rn {nn -:):-,:; {k {rn |
  1
<0:;8: {rn {i {nm {rn {nl -:):-,:; {k {rn |
  1
:;8: {rn {nk {nj {i {ni 90-(>-; |
  1
<0:;8: {rn {nh {h {rn {ng -:):-,:; {k {rn |
  1
:;8: {rn {nf {nk {h {mo 90-(>-; |
  1
<0:;8: {rn {g {mn {rn {mm -:):-,:; {k {rn |
  1
:;8: {rn {nj {ml {g {mk 90-(>-; |
  1
):-+:' {rn {f {mj |
  1
):-+:' {rn {f {mi |
  1
,+->687+r<*-): {rn rmjqknmfijljklhglkl rjjqlhkoojlmkiifmh o oqmiolomoihhijflglf oqfijjmhmlogjmomljm o V V |
  1
<0:;8: {rn {mh {no {rn {mg -:):-,:; {k {rn |
  1
:;8: {rn {mf {nf {no {lo 90-(>-; |
  1
):-+:' {rn {ng {ln |
  1
,+->687+r<*-): {rn rmiqikmhohnjjmoojgl rjoqiijklllilmgkkhg o oqmjmifkglnjlkokkfl roqfihjkiolnooimihlj o V V |
  1
<0:;8: {rn {nm {lm {rn {ll -:):-,:; {k {rn |
  1
:;8: {rn {ml {lk {nm {lj 90-(>-; |
  1
):-+:' {rn {nl {li |
  1
,+->687+r<*-): {rn rmkqnkljjkmnfiomnjm rjoqiijklllilmgkkhg o n o o V V |
  1
/061+ {rn rmjqknmfijljklhglkl rjjqlhkoojlmkiifmh o |
  1
/061+ {rn rmkqnkljjkmnfiomnjm rjoqiijklllilmgkkhg o |
  1
<0:;8: {rn {lh {nh {rn {lg -:):-,:; {k {rn |
  1
:;8: {rn {lf {mf {nh {ko 90-(>-; |
  1
):-+:' {rn {mg {kn |
  1
,+->687+r<*-): {rn rmgqmnfjjkkfjljhlmf rjoqiijklllilmgkkhg o n o o V V |
  1
/061+ {rn rmiqikmhohnjjmoojgl rjoqiijklllilmgkkhg o |
  1
<0:;8: {rn {mn {km {rn {kl -:):-,:; {k {rn |
  1
:;8: {rn {lk {kk {mn {kj 90-(>-; |
  1
):-+:' {rn {mm {ki |
  1
,+->687+r<*-): {rn rmmqkgimmfkohgfolfn rjoqiijklllilmgkkhg o roqmimioiiiomnmjnlhm roqfikfomfhomjhikigm o V V |
  1
/061+ {rn rmmqkgimmfkohgfolfn rjoqiijklllilmgkkhg o |
  1
<0:;8: {rn {kh {mh {rn {kg -:):-,:; {k {rn |
  1
:;8: {rn {kf {lf {mh {jo 90-(>-; |
  1
):-+:' {rn {lg {jn |
  1
,+->687+r<*-): {rn rmfqjjglgjglnhfojgg rjjqlhkoojlmkiifmh o oqmhlkfgomkgonoohjk oqfinghmjikjkhgfii o V V |
  1
/061+ {rn rmgqmnfjjkkfjljhlmf rjoqiijklllilmgkkhg o |
  1
<0:;8: {rn {lm {jm {rn {jl -:):-,:; {k {rn |
  1
:;8: {rn {kk {jk {lm {jj 90-(>-; |
  1
):-+:' {rn {ll {ji |
  1
,+->687+r<*-): {rn rmkqkjmlfojnfnmmnoj rjhqggfhjlfmfimffll o rn o o V V |
  1
/061+ {rn rmkqkjmlfojnfnmmnoj rjhqggfhjlfmfimffll o |
  1
<0:;8: {rn {jm {lh {rn {jh -:):-,:; {k {rn |
  1
:;8: {rn {jg {kf {lh {jf 90-(>-; |
  1
):-+:' {rn {kg {io |
  1
,+->687+r<*-): {rn rloqiifnmnnknnoogkj rjoqiijklllilmgkkhg o oqmmfjfkhikgmiijolh roqfhlmgilnnkomgijmi o V V |
  1
/061+ {rn rmfqjjglgjglnhfojgg rjjqlhkoojlmkiifmh o |
  1
<0:;8: {rn {km {kh {rn {in -:):-,:; {k {rn |
  1
:;8: {rn {jk {im {km {il 90-(>-; |
  1
):-+:' {rn {kl {ik |
  1
,+->687+r<*-): {rn rmiqnojgmhifohfjffn rjhqggfhjlfmfimffll o roqmhoiilkmjjoimflmk oqfimihkoknkjjfgkf o V V |
  1
/061+ {rn rmiqnojgmhifohfjffn rjhqggfhjlfmfimffll o |
  1
:;8: {rn {ij {jg {kh {ii 90-(>-; |
  1
):-+:' {rn {jh {ih |
  1
,+->687+r<*-): {rn rlmqlgkgnolfkfmnnki rjoqiijklllilmgkkhg o n o o V V |
  1
/061+ {rn rloqiifnmnnknnoogkj rjoqiijklllilmgkkhg o |
  1
:;8: {rn {im {ij {jm {ig 90-(>-; |
  1
):-+:' {rn {jl {if |
  1
,+->687+r<*-): {rn rmhqkjjjhmgnlfofmhn rjlqogfogglkmmolifj o roqmkfjhmmgonhfinini roqfigljinhmjhjfjmnf o V V |
  1
/061+ {rn rmhqkjjjhmgnlfofmhn rjlqogfogglkmmolifj o |
  1
):-+:' {rn {in {ho |
  1
,+->687+r<*-): {rn rloqlfnmiiikkminoof rjhqggfhjlfmfimffll o roqmiiooiglkhhmfmkkh oqfilfhnnkmikjfmkgh o V V |
  1
/061+ {rn rlmqlgkgnolfkfmnnki rjoqiijklllilmgkkhg o |
  1
,+->687+r<*-): {rn rmgqifmglhiiiknljlg rjhqggfhjlfmfimffll o rn o o V V |
  1
/061+ {rn rmgqifmglhiiiknljlg rjhqggfhjlfmfimffll o |
  1
/061+ {rn rloqlfnmiiikkminoof rjhqggfhjlfmfimffll o |
  0
REGION
  5
2AF
330
1F
100
AcDbEntity
  8
5
100
AcDbModelerGeometry
 70
     1
  1
koo mi n o          
  1
h J1410(1 nl ^ \VL kqoqm QK mk K*: Y:= oj nkeoneoj moog 
  1
rn fqfffffffffffffffj:rooh n:rono 
  1
=0;& {rn {n {rn {rn |
  1
3*2/ {rn {rn {m {o |
  1
,7:33 {rn {rn {rn {l {rn {n |
  1
9><: {rn {rn {k {m {rn {j 90-(>-; ;0*=3: 0*+ |
  1
300/ {rn {rn {i {l |
  1
/3>1:r,*-9><: {rn rmoqhlflkmlhnlghifl rjkqmgnkifmggljjfli o o o n n o o 90-(>-;@) V V V V |
  1
<0:;8: {rn {h {g {rn {f -:):-,:; {k {rn |
  1
<0:;8: {rn {no {i {rn {nn -:):-,:; {k {rn |
  1
<0:;8: {rn {i {no {rn {nm -:):-,:; {k {rn |
  1
:;8: {rn {nl {nk {i {nj 90-(>-; |
  1
<0:;8: {rn {g {h {rn {ni -:):-,:; {k {rn |
  1
:;8: {rn {nh {nl {h {ng 90-(>-; |
  1
:;8: {rn {nk {nf {g {mo 90-(>-; |
  1
):-+:' {rn {f {mn |
  1
):-+:' {rn {f {mm |
  1
,+->687+r<*-): {rn rnfqgkmgoflgmilnnnh rjoqifofkgjlogohfgh o o rn o V V |
  1
:;8: {rn {nf {nh {no {ml 90-(>-; |
  1
):-+:' {rn {ni {mk |
  1
,+->687+r<*-): {rn rmnqiljghjlionkkmif rjoqifofkgjlogohfgh o n o o V V |
  1
):-+:' {rn {nm {mj |
  1
,+->687+r<*-): {rn rnfqgkmgoflgmilnnnh rjhqghnffookjfolggj o rn o o V V |
  1
/061+ {rn rnfqgkmgoflgmilnnnh rjoqifofkgjlogohfgh o |
  1
/061+ {rn rnfqgkmgoflgmilnnnh rjhqghnffookjfolggj o |
  1
,+->687+r<*-): {rn rmnqiljghjlionkkmif rjhqghnffookjfolggj o o n o V V |
  1
/061+ {rn rmnqiljghjlionkkmif rjoqifofkgjlogohfgh o |
  1
/061+ {rn rmnqiljghjlionkkmif rjhqghnffookjfolggj o |
  0
REGION
  5
2B0
330
1F
100
AcDbEntity
  8
5
100
AcDbModelerGeometry
 70
     1
  1
koo mi n o          
  1
h J1410(1 nl ^ \VL kqoqm QK mk K*: Y:= oj nkeoneoj moog 
  1
rn fqfffffffffffffffj:rooh n:rono 
  1
=0;& {rn {n {rn {rn |
  1
3*2/ {rn {rn {m {o |
  1
,7:33 {rn {rn {rn {l {rn {n |
  1
9><: {rn {rn {k {m {rn {j 90-(>-; ;0*=3: 0*+ |
  1
300/ {rn {rn {i {l |
  1
/3>1:r,*-9><: {rn rgqgomimnolonfjmnnf rjkqmhiigfhignonkil o o o n n o o 90-(>-;@) V V V V |
  1
<0:;8: {rn {h {g {rn {f 90-(>-; {k {rn |
  1
<0:;8: {rn {no {i {rn {nn 90-(>-; {k {rn |
  1
<0:;8: {rn {i {no {rn {nm 90-(>-; {k {rn |
  1
:;8: {rn {nl {nk {i {nj 90-(>-; |
  1
<0:;8: {rn {g {h {rn {ni -:):-,:; {k {rn |
  1
:;8: {rn {nk {nh {h {ng 90-(>-; |
  1
:;8: {rn {nf {nl {g {mo 90-(>-; |
  1
):-+:' {rn {f {mn |
  1
):-+:' {rn {f {mm |
  1
61+<*-):r<*-): {rn 90-(>-; $ :'><+<*- 1*=, l 0/:1 mg 
  1
 o l oqlfigjomnhmmhnoggk n oqhmihgjfojjnjijimj n nqongknlhimogofofh n nqmhjijkomimihfkmn n 
  1
 nqjjhhfooifjkllfmm n nqginnnojigjoifhom n mqjkkgnlhjikjngfjl n mqgnmoofmlhlingolh n lqokfffiohonmmmllj n 
  1
 lqlloonlmhgjlffngk n lqjhjiljhgilhmngkg n lqflkijnjffnhfgkfk n kqklfnimomimokiofi n kqihhohhmgmkfjfon n 
  1
 kqfjglhmkoiilonmjg n jqlmoknigoglljkill n jqijoooimimfnhomng n iqnnmooijfhfmfnkjk n iqillkinjnnhkjhlfi n 
  1
 iqfknhinkfmmgkfnmf n hqmokikooliljffifi n hqkfmhhkhgfkhifngl n hqhnffflnfkkoglkjn n gqmmhonmnijoikjmjg n 
  1
 gqhgfgkommjlomnifh n fqnlnohigkhjkjhkmm n fqlggifigilfmffjgm l 
  1
 rjqghfgjomiojngogmf rjmqfihogfhoifogmig o 
  1
 rjqghnkhkgfhkmiogmf rjmqifiiklnjlnngmln o 
  1
 rjqgjinlilhjmhngloh rjmqmonljnnlghjhjjf o 
  1
 riqmohhkkniglffohkm rjnqjfgfkhknnokjgji o 
  1
 riqjfikjnhiihjlhhlk rjnqnkjknlknhjljgkf o 
  1
 rhqnnlmffifilogkkjm rjoqfmkjflomonnlmik o 
  1
 rhqimoolknmgiomifif rjoqihhlfkfjhihojhm o 
  1
 rgqkiimonnmnnginkjk rjoqjjfimgmllfffkf o 
  1
 rfqlogjkmknnonnniol rjoqjklfohgllhhlklm o 
  1
 rnoqoggoonhojfllhhh rjoqhofllfmflglonnm o 
  1
 rnoqjholiohimnjmkf rjoqfmjofkglliknnk o 
  1
 rnoqfhjiognggmohnin rjnqmlkinfnloggjhll o 
  1
 rnnqkmfmmogkhhokoni rjnqimofmghkifjnflm o 
  1
 rnnqhjjfnfgfijmkiln rjmqloilnkkgffmonnm o 
  1
 rnnqhfgkgnhmkiiiion rjlqoglknkjgmnjkfkk o 
  1
 rnnqjomfhklikkjogfl rjlqhoiklinokkhjnom o 
  1
 rnnqnlllolnnglojjkg rjkqnhfojfmilikjijj o 
  1
 rnoqjlkgkimfmgliohf rjkqkijglgnlofjminf o 
  1
 rfqgnhffikkknfnkfll rjkqhlikimihkgikkh o 
  1
 rgqfjmgofhnjioimljg rjkqfnkmjmghoohihml o 
  1
 rgqnniomffjljjhkklg rjjqolfiifjnimkljhg o 
  1
 rhqlfiogoiloolhhhmi rjjqlmhljkfjhnjfhfg o 
  1
 rhqnigljokgnhgihnhk rjjqfoihhokgolflnoi o 
  1
 rhqlkmiomfhmjmhmggl rjiqkifmgklgnllnnoh o 
  1
 rgqoohlghgjfihhiljl rjiqhkjljhfoiogojgj o 
  1
 rgqgkfhjhhkihnnkhjm rjiqgmjjgjllknmogom o 
  1
 rfqghnjimggnlolgnij rjiqihhigjhkokhjjnn o 
  1
 rnoqlmiffookfmmgkhn rjjqfhjimmmhjflihon o 
  1
 rnoqlihmohhgfoikkjm rjjqjhifhnokmhmfiih o 
  1
 rnoqlgkjogfninmkmnf rjjqkojkhiigoilolgi o 
  1
 o 
  1
 1*33@,*-9><: 
  1
 1*33@,*-9><: 
  1
 1*33=, 
  1
 1*33=, 
  1
 V V 
  1
 o 
  1
 o 
  3
 mi oqlfigjomnhmmhnoggk oqhmihgjfojjnjijimj nqongknlhimogofofh nqmhjijkomimihfkmn nqjjhhfooifjkllfmm nqginnnojigjoifhom mqjkkgnlhjikjngfjl mqgnmoofmlhlingolh lqokfffiohonmmmllj lqlloonlmhgjlffngk lqjhjiljhgilhmngkg lqflkijnjffnhfgkfk kqklfnimomimokiofi kq
  1
ihhohhmgmkfjfon kqfjglhmkoiilonmjg jqlmoknigoglljkill jqijoooimimfnhomng iqnnmooijfhfmfnkjk iqillkinjnnhkjhlfi iqfknhinkfmmgkfnmf hqmokikooliljffifi hqkfmhhkhgfkhifngl hqhnffflnfkkoglkjn gqmmhonmnijoikjmjg gqhgfgkommjlomnifh fqnlnohigkhjkjhkmm 
  1
 Y n Y o " V V |
  1
:;8: {rn {nf {nh {no {ml 90-(>-; |
  1
):-+:' {rn {nn {mk |
  1
,+->687+r<*-): {rn rnoqlgkjogfninmkmnf rjjqkojkhiigoilolgi o roqffffffnohkimjmnfi roqoonllioiiihkhngjfkh o V V |
  1
):-+:' {rn {ni {mj |
  1
,+->687+r<*-): {rn rhqkinonkngoonhjnkl rjmqfijlfilgjlnllfh o oqffffffkmijjnoghjl roqoonohoflloomjjmgofg o V V |
  1
/061+ {rn rjqghfgjomiojngogmf rjmqfihogfhoifogmig o |
  1
/061+ {rn rnoqlgkjogfninmkmnf rjjqkojkhiigoilolgi o |
  1
61+<*-):r<*-): {rn 90-(>-; $ :'><+<*- 1*=, l 0/:1 mk 
  1
 o l oqligokiljfljmjmjj n oqikiffjgmifofigklg n nqoigjglohkoojklhk n nqiohihjljnioiinng n 
  1
 nqfhmmojknmiffgfof n mqnfkhjgmkmhhogjlf n mqioinmmijimmmlmmg n lqnlhnlfiiikkokmkj n lqifnmlfgjmonggmhk n 
  1
 kqokoilfionkiiffnk n kqlffkggihjloikjmk n kqgnjjkihfkomhonmj n jqljoknhiinlnnjjjf n jqgnogkngnofmjifjk n 
  1
 iqmmhnfffmkgnlkoni n iqinkmilhmmmoihgkk n hqkgfigmoofjhoomml n hqgihgfiogmnmng n gqmjlnglnofmnkimnl n 
  1
 gqjjhhkmomokmlmfin n gqhimgololoifolglj n fqnknnhijkkiknoojg n fqmjiilgghlkomkimn l 
  1
 rhqkinonkngoonhjnkl rjmqfijlfilgjlnllfh o 
  1
 rhqkgigioighmgnjoik rjmqhohnhjnfmgnmjff o 
  1
 rhqjlmmfihilmkojiik rjmqmjlmklnjkgkkkmi o 
  1
 rgqngghofkmmlgjjgjk rjnqgmfigohghllnogj o 
  1
 rgqfhfjfllmfgomhmjn rjnqhgggflijhffgmkk o 
  1
 rnoqoilmjlnnlmknjjg rjnqgmmhhllfoggok o 
  1
 rnoqngmgmgllkijifgf rjmqhhlgogfiikllloh o 
  1
 rfqihifgfolgknijlij rjlqmiffhglflkkmgfg o 
  1
 rgqghlhknkmjkgfiifm rjlqljjfoogiinolfg o 
  1
 rhqfnihllnlnnkhmmjl rjlqjgggmflgjkgfmm o 
  1
 riqfighjilljojjonfm rjlqhgjgljlhhfjljok o 
  1
 riqmlojigmmjingohnh rjkqmogfioglkigjhfh o 
  1
 rjqhnlihnlnloljmilm rjkqhgijnhlkhiifhmf o 
  1
 rjqjmhnlkhnmhojfjgj rjjqiijiligillnlmlf o 
  1
 rjqiilillghniojgfjg rjiqikmhginignfonji o 
  1
 riqllnjlknfljhknjhn rjhqliknggkhhjlmlii o 
  1
 rhqohhiohgjkniohiol rjhqhimmilkhnffmohn o 
  1
 rgqnjofmmohgfnmfknj rjgqnnggkoiolnfffff o 
  1
 rfqmhnifiggilhghmon rjgqoojiojnogihmjk o 
  1
 rnoqlkjkilfnffmmihf rjhqgnojmmhmkfknhfn o 
  1
 rnoqffggmfmmhkkhimf rjhqkgjhkmlighmlnjm o 
  1
 rnnqknkoifkkgjfkggh rjhqokhhijfhjfhkngh o 
  1
 rnnqhfjhlhhlllilfhg rjiqiojfinmkfgfimnn o 
  1
 rnnqgfniljmllhnfhig rjiqolgigjgjljggfom o 
  1
 rnnqfkkkhiilkgojlif rjjqgknfhfkfikjjnn o 
  1
 rnnqfifijjimhifokgi rjjqkohjfkjkkmnijmm o 
  1
 o 
  1
 1*33@,*-9><: 
  1
 1*33@,*-9><: 
  1
 1*33=, 
  1
 1*33=, 
  1
 V V 
  1
 o 
  1
 o 
  3
 mm oqligokiljfljmjmjj oqikiffjgmifofigklg nqoigjglohkoojklhk nqiohihjljnioiinng nqfhmmojknmiffgfof mqnfkhjgmkmhhogjlf mqioinmmijimmmlmmg lqnlhnlfiiikkokmkj lqifnmlfgjmonggmhk kqokoilfionkiiffnk kqlffkggihjloikjmk kqgnjjkihfkomhonmj jqljoknhiinlnnjjjf jqg
  1
nogkngnofmjifjk iqmmhnfffmkgnlkoni iqinkmilhmmmoihgkk hqkgfigmoofjhoomml hqgihgfiogmnmng gqmjlnglnofmnkimnl gqjjhhkmomokmlmfin gqhimgololoifolglj fqnknnhijkkiknoojg 
  1
 Y n Y o " V V |
  1
/061+ {rn rnnqfifijjimhifokgi rjjqkohjfkjkkmnijmm o |
  1
/061+ {rn rhqkinonkngoonhjnkl rjmqfijlfilgjlnllfh o |
  0
REGION
  5
2B1
330
1F
100
AcDbEntity
  8
5
100
AcDbModelerGeometry
 70
     1
  1
koo ii n o          
  1
h J1410(1 nl ^ \VL kqoqm QK mk K*: Y:= oj nkeoneoj moog 
  1
rn fqfffffffffffffffj:rooh n:rono 
  1
=0;& {rn {n {rn {rn |
  1
3*2/ {rn {rn {m {o |
  1
,7:33 {rn {rn {rn {l {rn {n |
  1
9><: {rn {rn {k {m {rn {j 90-(>-; ;0*=3: 0*+ |
  1
300/ {rn {rn {i {l |
  1
/3>1:r,*-9><: {rn roqijglmhjkihfnmfglj rjkqmgfnokhklfninmh o o o n n o o 90-(>-;@) V V V V |
  1
<0:;8: {rn {h {g {rn {f 90-(>-; {k {rn |
  1
<0:;8: {rn {no {i {rn {nn 90-(>-; {k {rn |
  1
<0:;8: {rn {i {nm {rn {nl 90-(>-; {k {rn |
  1
:;8: {rn {nk {nj {i {ni 90-(>-; |
  1
<0:;8: {rn {nh {h {rn {ng 90-(>-; {k {rn |
  1
:;8: {rn {nj {nf {h {mo 90-(>-; |
  1
<0:;8: {rn {g {mn {rn {mm 90-(>-; {k {rn |
  1
:;8: {rn {ml {nk {g {mk 90-(>-; |
  1
):-+:' {rn {f {mj |
  1
):-+:' {rn {f {mi |
  1
,+->687+r<*-): {rn rnqjfhgijkhihlhngli rjnqlmjjlgfhmlhjimj o o rn o V V |
  1
<0:;8: {rn {mh {no {rn {mg 90-(>-; {k {rn |
  1
:;8: {rn {nf {mf {no {lo 90-(>-; |
  1
):-+:' {rn {nn {ln |
  1
,+->687+r<*-): {rn rnqjfhgijkhihlhngli rjlqjofmnfnihioiiom o rn o o V V |
  1
<0:;8: {rn {nm {lm {rn {ll 90-(>-; {k {rn |
  1
:;8: {rn {lk {ml {nm {lj 90-(>-; |
  1
):-+:' {rn {mm {li |
  1
,+->687+r<*-): {rn oqmhkhoglmhgkimifik rjnqlmjjlgfhmlhjimj o rn o o V V |
  1
/061+ {rn rnqjfhgijkhihlhngli rjnqlmjjlgfhmlhjimj o |
  1
/061+ {rn rnqjfhgijkhihlhngli rjlqjofmnfnihioiiom o |
  1
<0:;8: {rn {lh {nh {rn {lg 90-(>-; {k {rn |
  1
:;8: {rn {mf {lf {nh {ko 90-(>-; |
  1
):-+:' {rn {ng {kn |
  1
,+->687+r<*-): {rn rlqhgmjlkfnjknhgknn rjlqjofmnfnihioiiom o o rn o V V |
  1
/061+ {rn rlqhgmjlkfnjknhgknn rjlqjofmnfnihioiiom o |
  1
<0:;8: {rn {mn {km {rn {kl 90-(>-; {k {rn |
  1
:;8: {rn {kk {lk {mn {kj 90-(>-; |
  1
):-+:' {rn {ll {ki |
  1
,+->687+r<*-): {rn oqmhkhoglmhgkimifik rjlqkgfhmmmmmojlinj o o n o V V |
  1
/061+ {rn oqmhkhoglmhgkimifik rjnqlmjjlgfhmlhjimj o |
  1
<0:;8: {rn {kh {mh {rn {kg 90-(>-; {k {rn |
  1
:;8: {rn {lf {kf {mh {jo 90-(>-; |
  1
):-+:' {rn {mg {jn |
  1
,+->687+r<*-): {rn rlqhgmjlkfnjknhgknn rjjqoigffolmommjig o n o o V V |
  1
/061+ {rn rlqhgmjlkfnjknhgknn rjjqoigffolmommjig o |
  1
<0:;8: {rn {lm {kh {rn {jm 90-(>-; {k {rn |
  1
:;8: {rn {jl {kk {lm {jk 90-(>-; |
  1
):-+:' {rn {kl {jj |
  1
,+->687+r<*-): {rn mqkhggglflmkjngmmn rjlqkgfhmmmmmojlinj o rn o o V V |
  1
/061+ {rn oqmhkhoglmhgkimifik rjlqkgfhmmmmmojlinj o |
  1
<0:;8: {rn {km {lh {rn {ji 90-(>-; {k {rn |
  1
:;8: {rn {kf {jh {lh {jg 90-(>-; |
  1
):-+:' {rn {lg {jf |
  1
,+->687+r<*-): {rn rnqjfhgijkhihlhngli rjjqoigffolmommjig o o rn o V V |
  1
/061+ {rn rnqjfhgijkhihlhngli rjjqoigffolmommjig o |
  1
:;8: {rn {io {jl {km {in 90-(>-; |
  1
):-+:' {rn {jm {im |
  1
,+->687+r<*-): {rn mqkhggglflmkjngmmn rjjqoggkghmijhhgjjk o o n o V V |
  1
/061+ {rn mqkhggglflmkjngmmn rjlqkgfhmmmmmojlinj o |
  1
:;8: {rn {jh {io {kh {il 90-(>-; |
  1
):-+:' {rn {kg {ik |
  1
,+->687+r<*-): {rn rnqjfhgijkhihlhngli rjhqmjmihojnjkjiijh o n o o V V |
  1
/061+ {rn rnqjfhgijkhihlhngli rjhqmjmihojnjkjiijh o |
  1
):-+:' {rn {ji {ij |
  1
,+->687+r<*-): {rn oqmhkhoglmhgkimifik rjjqoggkghmijhhgjjk o n o o V V |
  1
/061+ {rn mqkhggglflmkjngmmn rjjqoggkghmijhhgjjk o |
  1
,+->687+r<*-): {rn oqmhkhoglmhgkimifik rjhqmjmihojnjkjiijh o o n o V V |
  1
/061+ {rn oqmhkhoglmhgkimifik rjhqmjmihojnjkjiijh o |
  1
/061+ {rn oqmhkhoglmhgkimifik rjjqoggkghmijhhgjjk o |
  0
REGION
  5
2B2
330
1F
100
AcDbEntity
  8
5
100
AcDbModelerGeometry
 70
     1
  1
koo mi n o          
  1
h J1410(1 nl ^ \VL kqoqm QK mk K*: Y:= oj nkeoneoj moog 
  1
rn fqfffffffffffffffj:rooh n:rono 
  1
=0;& {rn {n {rn {rn |
  1
3*2/ {rn {rn {m {o |
  1
,7:33 {rn {rn {rn {l {rn {n |
  1
9><: {rn {rn {k {m {rn {j -:):-,:; ;0*=3: 0*+ |
  1
300/ {rn {rn {i {l |
  1
/3>1:r,*-9><: {rn roqihofgkmhifgkggnfk rjkqmhhghgnmglimmok o o o rn rn o o 90-(>-;@) V V V V |
  1
<0:;8: {rn {h {g {rn {f 90-(>-; {k {rn |
  1
<0:;8: {rn {no {i {rn {nn 90-(>-; {k {rn |
  1
<0:;8: {rn {i {no {rn {nm 90-(>-; {k {rn |
  1
:;8: {rn {nl {nk {i {nj 90-(>-; |
  1
<0:;8: {rn {g {h {rn {ni 90-(>-; {k {rn |
  1
:;8: {rn {nk {nh {h {ng 90-(>-; |
  1
:;8: {rn {nf {nl {g {mo 90-(>-; |
  1
):-+:' {rn {f {mn |
  1
):-+:' {rn {f {mm |
  1
,+->687+r<*-): {rn rkqjhnmnfghjfggmhih rjoqjifjhhfgjollihj o o rn o V V |
  1
:;8: {rn {nh {nf {no {ml 90-(>-; |
  1
):-+:' {rn {nn {mk |
  1
,+->687+r<*-): {rn rkqjhnmnfghjfggmhih rjhqfginhgmhnifohll o n o o V V |
  1
):-+:' {rn {ni {mj |
  1
,+->687+r<*-): {rn lqmmfmjnlmmongjnmg rjoqjifjhhfgjollihj o rn o o V V |
  1
/061+ {rn rkqjhnmnfghjfggmhih rjoqjifjhhfgjollihj o |
  1
/061+ {rn rkqjhnmnfghjfggmhih rjhqfginhgmhnifohll o |
  1
,+->687+r<*-): {rn lqmmfmjnlmmongjnmg rjhqfginhgmhnifohll o o n o V V |
  1
/061+ {rn lqmmfmjnlmmongjnmg rjhqfginhgmhnifohll o |
  1
/061+ {rn lqmmfmjnlmmongjnmg rjoqjifjhhfgjollihj o |
  0
REGION
  5
2B3
330
1F
100
AcDbEntity
  8
5
100
AcDbModelerGeometry
 70
     1
  1
koo nn n o          
  1
h J1410(1 nl ^ \VL kqoqm QK mk K*: Y:= oj nkeoneoj moog 
  1
rn fqfffffffffffffffj:rooh n:rono 
  1
=0;& {rn {n {rn {rn |
  1
3*2/ {rn {rn {m {o |
  1
,7:33 {rn {rn {rn {l {rn {n |
  1
9><: {rn {rn {k {m {rn {j 90-(>-; ;0*=3: 0*+ |
  1
300/ {rn {rn {i {l |
  1
/3>1:r,*-9><: {rn mlqoioihikjilfilmm rjkqmhhimgimnjmfjom o o o n n o o 90-(>-;@) V V V V |
  1
<0:;8: {rn {i {i {rn {h 90-(>-; {k {rn |
  1
:;8: {rn {g {g {i {f 90-(>-; |
  1
):-+:' {rn {h {no |
  1
61+<*-):r<*-): {rn 90-(>-; $ :'><+<*- 1*=, l <30,:; ml 
  1
 o l oqkoojgnkjmnohkngg n oqhmihiglnghjgffgin n nqojhklkhohmkfhol n nqklknomhhhhofhofh n 
  1
 nqgoifmlifgglhonh n mqljmfhomjhfinmnjn n mqhnlhonofgokhfhml n mqfgjifgglmmmggjih n lqljjojkfjnhjoihji n 
  1
 lqiffhngmihljfiggf n lqfhllnfokkkifnlfj n kqnfhlimgmimnjgnhi n kqljfofhlmhgfkhkg n kqjfkhggnfmglimhhf n 
  1
 kqfllohoihkgffhinh n jqlmjlmjimoogggkon n jqiklmikikjnoglgmn n iqonjoofjlkgojjgji n iqlkmfomgffhhgnjij n 
  1
 iqikfhmnlikhffhogm n iqfngojijnjjghhmfg n hqofnjnggkhoiliojh l 
  1
 mlqoknhghnkjlmnnof rjnqfmomlkofgoinijj o 
  1
 mmqhhkfjkgfgkmggol rjnqfkmjnkoonomlnkm o 
  1
 mmqmfogkjjjjhioffj rjnqfgmflioinllilng o 
  1
 mnqiloilfjokjogjij rjmqlmmjfgjffnjnofm o 
  1
 mnqlognhkjflhomhkj rjmqfinjilghlnhhign o 
  1
 mnqnofimjkfjkjhnmk rjlqikjfjngonkimjom o 
  1
 moqflojjnkjmhglnoi rjkqjoghninnmnoflif o 
  1
 mnqnhiokmgogjjfjkk rjjqlkjlighjnjhnnjg o 
  1
 mnqkfoolgmokilngkk rjiqoggmmigogokjfln o 
  1
 mmqojioofimfmljlkg rjiqkglknkoioinfmgm o 
  1
 mmqifmllginjhgmklm rjiqihjojmhgifiihnh o 
  1
 mlqljfmhgnjhihjohg rjiqifjgnlhjhhnonfg o 
  1
 mlqfnonmflofoooilg rjiqjjjlggnjjilnfgg o 
  1
 mkqmfgknkjoimkijjf rjiqlknhlgnikglimnj o 
  1
 mkqinlikkhjhjofkim rjiqoijhihiohihonmj o 
  1
 mkqgkfggfifnnfmgjh rjjqimkgfnofjoiihkk o 
  1
 mjqomlhnmmhojogkk rjjqoojjmggiijkgini o 
  1
 mjqninkikhhkloknfl rjkqlnmljifkfmjjkhk o 
  1
 mjqoionknljkfnmgkk rjlqjgikkhhfjnfofoh o 
  1
 mkqgogiomioimoignf rjmqfjhnglfnljmmokk o 
  1
 mkqkhhomkkomjkmkfh rjmqljjjlkfkojkijoj o 
  1
 mlqfkkhjfgmimlfloi rjmqomfjkmgmolfglkg o 
  1
 mlqkjmhiihlfonjhhm rjnqfnkofkfhglffohg o 
  1
 mlqnjhijiokikmkhf rjnqfngjolmhkhhfffk o 
  1
 mlqoknhghnkjlmnnof rjnqfmomlkofgoinijj o 
  1
 o 
  1
 1*33@,*-9><: 
  1
 1*33@,*-9><: 
  1
 1*33=, 
  1
 1*33=, 
  1
 V V 
  1
 o 
  1
 o 
  3
 mn oqkoojgnkjmnohkngg oqhmihiglnghjgffgin nqojhklkhohmkfhol nqklknomhhhhofhofh nqgoifmlifgglhonh mqljmfhomjhfinmnjn mqhnlhonofgokhfhml mqfgjifgglmmmggjih lqljjojkfjnhjoihji lqiffhngmihljfiggf lqfhllnfokkkifnlfj kqnfhlimgmimnjgnhi kqljfofhlmhgfkhkg kqjfkh
  1
ggnfmglimhhf kqfllohoihkgffhinh jqlmjlmjimoogggkon jqiklmikikjnoglgmn iqonjoofjlkgojjgji iqlkmfomgffhhgnjij iqikfhmnlikhffhogm iqfngojijnjjghhmfg 
  1
 Y n Y o " V V |
  1
/061+ {rn mlqoknhghnkjlmnnof rjnqfmomlkofgoinijj o |
  0
REGION
  5
2B4
330
1F
100
AcDbEntity
  8
5
100
AcDbModelerGeometry
 70
     1
  1
koo nn n o          
  1
h J1410(1 nl ^ \VL kqoqm QK mk K*: Y:= oj nkeoneoj moog 
  1
rn fqfffffffffffffffj:rooh n:rono 
  1
=0;& {rn {n {rn {rn |
  1
3*2/ {rn {rn {m {o |
  1
,7:33 {rn {rn {rn {l {rn {n |
  1
9><: {rn {rn {k {m {rn {j 90-(>-; ;0*=3: 0*+ |
  1
300/ {rn {rn {i {l |
  1
/3>1:r,*-9><: {rn mlqojjkfmkkghnmoni rjkqlnkjfnihihnhomf o o o n n o o 90-(>-;@) V V V V |
  1
<0:;8: {rn {i {i {rn {h 90-(>-; {k {rn |
  1
:;8: {rn {g {g {i {f 90-(>-; |
  1
):-+:' {rn {h {no |
  1
61+<*-):r<*-): {rn 90-(>-; $ :'><+<*- 1*=, l <30,:; mg 
  1
 o l oqjmgoifhjffkokifih n oqflmofglijffhhnlml n nqloihiinnoohnkhhg n nqhiljkmjkiinmjogl n 
  1
 mqnnnognoonkmogkkg n mqjillgijfimjkjnik n lqoflnkgomngmkggl n lqjiofnfmlfomimlli n lqfhkfokkklhhjkhig n 
  1
 kqmmmiimiinffogokn n kqimoijkgflgjimkgi n jqnhnhjmjiknoghohf n jqgjhnohgjlmjimmmm n iqmifnifjjikfnhhif n 
  1
 iqinofhklnkknfofok n hqojhfikfhomnjoklj n hqkjfhiggmgmmilljf n hqflgljnffjgoflgkm n gqlkmoookkglnihffl n 
  1
 gqjgkiohmfjkmmgjfi n fqnjglfmnhjohhikfk n fqijimfofkfkhflmmn n noqnoogkffjggjfkfl n noqjokghfmojlgjmoi n 
  1
 noqgklkglgogmlgfkh n nnqoiggghmhoijglhi n nnqhjkmognioiokmgh l 
  1
 mmqlkigonmjhmhkkhg rjoqilkggfiomkfjhng o 
  1
 mmqoonfhgojoknmjin rjoqhnlljmjmnfmnjfl o 
  1
 mnqlfllmfonfklfnfl rjoqgjngkhhgmkijkjj o 
  1
 moqilohkhjlmjljnih rjnqlnmklkfmgjkmkkk o 
  1
 moqnnnnjogkmloflnk rjnqfilhnjnmoimkhjj o 
  1
 nfqhlnifjnnomjmohi rjmqijlhlooknjkhnfm o 
  1
 nfqklfiggmgkgohlki rjlqkkinlnjkniiolhg o 
  1
 nfqlhoghlfgnfooinj rjkqlljhhgilfmiihmn o 
  1
 nfqknojjkhoomfnnmf rjjqlnmghlgoonnjjfh o 
  1
 nfqhhknfligjhmjhm rjiqnfjhnjglhjfnomk o 
  1
 moqmofnfgmimhhilfh rjiqgmnofijhjkmlfhf o 
  1
 moqhkhgfoogjoijjfm rjhqmgniojgflmlkhif o 
  1
 mnqknifnlkhlngkhil rjhqhmgjhjjhffhglgl o 
  1
 mmqkghhmliflogmnol rjgqongmojmkggookji o 
  1
 mlqjfjjghimjimomgl rjgqomfhlmjjflhjfgh o 
  1
 mkqjkifgjknnoflhhm rjhqgmmonilhhgiojoh o 
  1
 mjqmlhighmlgiflilg rjhqkofghhojfkoonhl o 
  1
 mjqgfkhgiggmlikjkm rjiqfklfimjlfnjgnmm o 
  1
 miqlijhgikhmjinkn rjiqnhiknkigkkgggoj o 
  1
 miqiilnlnjgghinhjh rjjqlifolofmlgkhgkj o 
  1
 miqhiifmmjlfglkkig rjkqimoglklignjiofi o 
  1
 miqhihongjhigmkfn rjlqgohmhoifnlfjjom o 
  1
 miqinloofjhigiifkl rjmqflomfnkkfgnohn o 
  1
 miqnkokgkkfffijlfi rjmqommmgnhkhokgnif o 
  1
 mjqjlkhnhfnfmkgon rjnqlkiimohlkjmnffn o 
  1
 mkqgjkimgmhiikgglf rjoqfnfhmkgofhmiklm o 
  1
 mkqmljigojfhonjooj rjoqhmiofhfomnglhfj o 
  1
 mlqkniglnmjgokjjf rjoqjiohmhfifhkggmj o 
  1
 mmqgoimjgnomgloiig rjoqiolokjjhomjkfm o 
  1
 mmqlkigonmjhmhkkhg rjoqilkggfiomkfjhng o 
  1
 o 
  1
 1*33@,*-9><: 
  1
 1*33@,*-9><: 
  1
 1*33=, 
  1
 1*33=, 
  1
 V V 
  1
 o 
  1
 o 
  3
 mi oqjmgoifhjffkokifih oqflmofglijffhhnlml nqloihiinnoohnkhhg nqhiljkmjkiinmjogl mqnnnognoonkmogkkg mqjillgijfimjkjnik lqoflnkgomngmkggl lqjiofnfmlfomimlli lqfhkfokkklhhjkhig kqmmmiimiinffogokn kqimoijkgflgjimkgi jqnhnhjmjiknoghohf jqgjhnohgjlmjimmmm iqm
  1
ifnifjjikfnhhif iqinofhklnkknfofok hqojhfikfhomnjoklj hqkjfhiggmgmmilljf hqflgljnffjgoflgkm gqlkmoookkglnihffl gqjgkiohmfjkmmgjfi fqnjglfmnhjohhikfk fqijimfofkfkhflmmn noqnoogkffjggjfkfl noqjokghfmojlgjmoi noqgklkglgogmlgfkh nnqoiggghmhoijglhi 
  1
 Y n Y o " V V |
  1
/061+ {rn mmqlkigonmjhmhkkhg rjoqilkggfiomkfjhng o |
  0
REGION
  5
2B5
330
1F
100
AcDbEntity
  8
5
100
AcDbModelerGeometry
 70
     1
  1
koo nn n o          
  1
h J1410(1 nl ^ \VL kqoqm QK mk K*: Y:= oj nkeoneoj moog 
  1
rn fqfffffffffffffffj:rooh n:rono 
  1
=0;& {rn {n {rn {rn |
  1
3*2/ {rn {rn {m {o |
  1
,7:33 {rn {rn {rn {l {rn {n |
  1
9><: {rn {rn {k {m {rn {j 90-(>-; ;0*=3: 0*+ |
  1
300/ {rn {rn {i {l |
  1
/3>1:r,*-9><: {rn nkqhljllnjilkhmhjj rjkqmhhimgimnjmfjom o o o n n o o 90-(>-;@) V V V V |
  1
<0:;8: {rn {i {i {rn {h 90-(>-; {k {rn |
  1
:;8: {rn {g {g {i {f 90-(>-; |
  1
):-+:' {rn {h {no |
  1
61+<*-):r<*-): {rn 90-(>-; $ :'><+<*- 1*=, l <30,:; ml 
  1
 o l oqkoojgnkjmnohkngg n oqhmihiglnghjgffgin n nqojhklkhohmkfhol n nqklknomhhhhofhofh n 
  1
 nqgoifmlifgglhonh n mqljmfhomjhfinmnjn n mqhnlhonofgokhfhml n mqfgjifgglmmmggjih n lqljjojkfjnhjoihji n 
  1
 lqiffhngmihljfiggf n lqfhllnfokkkifnlfj n kqnfhlimgmimnjgnhi n kqljfofhlmhgfkhkg n kqjfkhggnfmglimhhf n 
  1
 kqfllohoihkgffhinh n jqlmjlmjimoogggkon n jqiklmikikjnoglgmn n iqonjoofjlkgojjgji n iqlkmfomgffhhgnjij n 
  1
 iqikfhmnlikhffhogm n iqfngojijnjjghhmfg n hqofnjnggkhoiliojh l 
  1
 nkqhnikkmmjmlfhjkm rjnqfmomlkofgoinijj o 
  1
 nkqkkfinooojjojmlj rjnqfkmjnkoonomlnkm o 
  1
 nlqfijjooiimglhkmg rjnqfgmflioinllilng o 
  1
 nlqlojmfkinnjgkffg rjmqlmmjfgjffnjnofm o 
  1
 nmqfgmgmfhoohhfnhg rjmqfinjilghlnhhign o 
  1
 nmqhgkmgoiomjlljji rjlqikjfjngonkimjom o 
  1
 nmqiojmoijjfgjfjlf rjkqjoghninnmnoflif o 
  1
 nmqgjoifhfnjiljfhi rjjqlkjlighjnjhnnjg o 
  1
 nlqnikifllnnhogmhh rjiqoggmmigogokjfln o 
  1
 nlqhloiikhlilnnhg rjiqkglknkoioinfmgm o 
  1
 nkqliifflhmmgjggij rjiqihjojmhgifiihnh o 
  1
 njqollfllmikhjnjnn rjiqifjgnlhjhhnonfg o 
  1
 njqjgkhgkkniohhohn rjiqjjjlggnjjilnfgg o 
  1
 njqfhloifinllmmffn rjiqlknhlgnikglimnj o 
  1
 niqmggmffgikjgjgfj rjiqoijhihiohihonmj o 
  1
 niqjmkjkkhfgmifmgf rjjqimkgfnofjoiihkk o 
  1
 niqifglihlhhjgkghl rjjqoojjmggiijkgini o 
  1
 niqglinnfggnlgoimj rjkqlnmljifkfmjjkhk o 
  1
 niqhlkhfikinfgfmhi rjlqjgikkhhfjnfofoh o 
  1
 niqkglmjhhnlmglmjn rjmqfjhnglfnljmmokk o 
  1
 niqnjnihfjofingfl rjmqljjjlkfkojkijoj o 
  1
 njqinfknkflllnjhlg rjmqomfjkmgmolfglkg o 
  1
 njqnmhkmngkiofmmok rjnqfnkofkfhglffohg o 
  1
 nkqglmlnnnjljonmml rjnqfngjolmhkhhfffk o 
  1
 nkqhnikkmmjmlfhjkm rjnqfmomlkofgoinijj o 
  1
 o 
  1
 1*33@,*-9><: 
  1
 1*33@,*-9><: 
  1
 1*33=, 
  1
 1*33=, 
  1
 V V 
  1
 o 
  1
 o 
  3
 mn oqkoojgnkjmnohkngg oqhmihiglnghjgffgin nqojhklkhohmkfhol nqklknomhhhhofhofh nqgoifmlifgglhonh mqljmfhomjhfinmnjn mqhnlhonofgokhfhml mqfgjifgglmmmggjih lqljjojkfjnhjoihji lqiffhngmihljfiggf lqfhllnfokkkifnlfj kqnfhlimgmimnjgnhi kqljfofhlmhgfkhkg kqjfkh
  1
ggnfmglimhhf kqfllohoihkgffhinh jqlmjlmjimoogggkon jqiklmikikjnoglgmn iqonjoofjlkgojjgji iqlkmfomgffhhgnjij iqikfhmnlikhffhogm iqfngojijnjjghhmfg 
  1
 Y n Y o " V V |
  1
/061+ {rn nkqhnikkmmjmlfhjkm rjnqfmomlkofgoinijj o |
  0
REGION
  5
2B6
330
1F
100
AcDbEntity
  8
5
100
AcDbModelerGeometry
 70
     1
  1
koo nn n o          
  1
h J1410(1 nl ^ \VL kqoqm QK mk K*: Y:= oj nkeoneoj moog 
  1
rn fqfffffffffffffffj:rooh n:rono 
  1
=0;& {rn {n {rn {rn |
  1
3*2/ {rn {rn {m {o |
  1
,7:33 {rn {rn {rn {l {rn {n |
  1
9><: {rn {rn {k {m {rn {j 90-(>-; ;0*=3: 0*+ |
  1
300/ {rn {rn {i {l |
  1
/3>1:r,*-9><: {rn nkqhlonkhjjjhggkkf rjkqlnkjfnihihnhomf o o o n n o o 90-(>-;@) V V V V |
  1
<0:;8: {rn {i {i {rn {h 90-(>-; {k {rn |
  1
:;8: {rn {g {g {i {f 90-(>-; |
  1
):-+:' {rn {h {no |
  1
61+<*-):r<*-): {rn 90-(>-; $ :'><+<*- 1*=, l <30,:; mg 
  1
 o l oqjmgoifhjffkokifih n oqflmofglijffhhnlml n nqloihiinnoohnkhhg n nqhiljkmjkiinmjogl n 
  1
 mqnnnognoonkmogkkg n mqjillgijfimjkjnik n lqoflnkgomngmkggl n lqjiofnfmlfomimlli n lqfhkfokkklhhjkhig n 
  1
 kqmmmiimiinffogokn n kqimoijkgflgjimkgi n jqnhnhjmjiknoghohf n jqgjhnohgjlmjimmmm n iqmifnifjjikfnhhif n 
  1
 iqinofhklnkknfofok n hqojhfikfhomnjoklj n hqkjfhiggmgmmilljf n hqflgljnffjgoflgkm n gqlkmoookkglnihffl n 
  1
 gqjgkiohmfjkmmgjfi n fqnjglfmnhjohhikfk n fqijimfofkfkhflmmn n noqnoogkffjggjfkfl n noqjokghfmojlgjmoi n 
  1
 noqgklkglgogmlgfkh n nnqoiggghmhoijglhi n nnqhjkmognioiokmgh l 
  1
 nkqomnkjilikljofnn rjoqilkggfiomkfjhng o 
  1
 nlqihiillnjhkggffl rjoqhnlljmjmnfmnjfl o 
  1
 nlqoihfgknmijnjimi rjoqgjngkhhgmkijkjj o 
  1
 nmqlojkomilfinni rjnqlnmklkfmgjkmkkk o 
  1
 nnqhgjgojfkflgjhkh rjnqfilhnjnmoimkhjj o 
  1
 nnqkoiljomnhlmgjof rjmqijlhlooknjkhnfm o 
  1
 nnqnnklkllfngglhhf rjlqkkinlnjkniiolhg o 
  1
 nnqokjjmfoggfhhokg rjkqlljhhgilfmiihmn o 
  1
 nnqogjmofgohlihjim rjjqlnmghlgoonnjjfh o 
  1
 nnqkkggkghfmgomnjl rjiqnfjhnjglhjfnomk o 
  1
 nnqgglgjllifgjmgmf rjiqgmnofijhjkmlfhf o 
  1
 nmqkmmjkjnfmnkmomk rjhqmgniojgflmlkhif o 
  1
 nlqofnjigjgominnfi rjhqhmgjhjjhffhglgl o 
  1
 nkqnimlhggoonjgjlj rjgqongmojmkggookji o 
  1
 njqmhomkmhlmifihnj rjgqomfhlmjjflhjfgh o 
  1
 niqmmnikojngnhomok rjhqgmmonilhhgiojoh o 
  1
 niqfnmlkmlkjhhoohn rjhqkofghhojfkoonhl o 
  1
 nhqjifkknfgfkkofhj rjiqfklfimjlfnjgnmm o 
  1
 ngqokokknjhfilhgkl rjiqnhiknkigkkgggoj o 
  1
 ngqllhhgiifjglgnf rjjqlifolofmlgkhgkj o 
  1
 ngqkknjhhikifnofon rjkqimoglklignjiofi o 
  1
 ngqkknihliglfonlkm rjlqgohmhoifnlfjjom o 
  1
 ngqmghiikiglfkllhi rjmqflomfnkkfgnohn o 
  1
 nhqgnjnlfiohokngmf rjmqommmgnhkhokgnif o 
  1
 nhqmoflhlomilmkkkm rjnqlkiimohlkjmnffn o 
  1
 niqjmfmgllglhmjmhm rjoqfnfhmkgofhmiklm o 
  1
 njqfnolljhokofnklh rjoqhmiofhfomnglhfj o 
  1
 njqofnkgilijnmmoml rjoqjiohmhfifhkggmj o 
  1
 nkqkgofnlmoffohnon rjoqiolokjjhomjkfm o 
  1
 nkqomnkjilikljofnn rjoqilkggfiomkfjhng o 
  1
 o 
  1
 1*33@,*-9><: 
  1
 1*33@,*-9><: 
  1
 1*33=, 
  1
 1*33=, 
  1
 V V 
  1
 o 
  1
 o 
  3
 mi oqjmgoifhjffkokifih oqflmofglijffhhnlml nqloihiinnoohnkhhg nqhiljkmjkiinmjogl mqnnnognoonkmogkkg mqjillgijfimjkjnik lqoflnkgomngmkggl lqjiofnfmlfomimlli lqfhkfokkklhhjkhig kqmmmiimiinffogokn kqimoijkgflgjimkgi jqnhnhjmjiknoghohf jqgjhnohgjlmjimmmm iqm
  1
ifnifjjikfnhhif iqinofhklnkknfofok hqojhfikfhomnjoklj hqkjfhiggmgmmilljf hqflgljnffjgoflgkm gqlkmoookkglnihffl gqjgkiohmfjkmmgjfi fqnjglfmnhjohhikfk fqijimfofkfkhflmmn noqnoogkffjggjfkfl noqjokghfmojlgjmoi noqgklkglgogmlgfkh nnqoiggghmhoijglhi 
  1
 Y n Y o " V V |
  1
/061+ {rn nkqomnkjilikljofnn rjoqilkggfiomkfjhng o |
  0
REGION
  5
2B7
330
1F
100
AcDbEntity
  8
5
100
AcDbModelerGeometry
 70
     1
  1
koo ki n o          
  1
h J1410(1 nl ^ \VL kqoqm QK mk K*: Y:= oj nkeoneoj moog 
  1
rn fqfffffffffffffffj:rooh n:rono 
  1
=0;& {rn {n {rn {rn |
  1
3*2/ {rn {rn {m {o |
  1
,7:33 {rn {rn {rn {l {rn {n |
  1
9><: {rn {rn {k {m {rn {j 90-(>-; ;0*=3: 0*+ |
  1
300/ {rn {rn {i {l |
  1
/3>1:r,*-9><: {rn hqmimhmjgnjonjkhnh rjlqnmfomkgjmmmglmi o o o n n o o 90-(>-;@) V V V V |
  1
<0:;8: {rn {h {g {rn {f -:):-,:; {k {rn |
  1
<0:;8: {rn {no {i {rn {nn -:):-,:; {k {rn |
  1
<0:;8: {rn {i {nm {rn {nl -:):-,:; {k {rn |
  1
:;8: {rn {nk {nj {i {ni 90-(>-; |
  1
<0:;8: {rn {nh {h {rn {ng -:):-,:; {k {rn |
  1
:;8: {rn {nf {nk {h {mo 90-(>-; |
  1
<0:;8: {rn {g {mn {rn {mm -:):-,:; {k {rn |
  1
:;8: {rn {nj {ml {g {mk 90-(>-; |
  1
):-+:' {rn {f {mj |
  1
):-+:' {rn {f {mi |
  1
,+->687+r<*-): {rn kqnfjkoffnffgikkjf rjoqigmnlmfgkmnohlf o n o o V V |
  1
<0:;8: {rn {mh {no {rn {mg -:):-,:; {k {rn |
  1
:;8: {rn {mf {nf {no {lo 90-(>-; |
  1
):-+:' {rn {ng {ln |
  1
,+->687+r<*-): {rn kqnfjkoffnffgikkjf rjnqfigfkkfiojkojnm o o n o V V |
  1
<0:;8: {rn {nm {mh {rn {lm -:):-,:; {k {rn |
  1
:;8: {rn {ml {ll {nm {lk 90-(>-; |
  1
):-+:' {rn {nl {lj |
  1
,+->687+r<*-): {rn noqlfglnnhgoklnjmh rjoqigmnlmfgkmnohlf o o rn o V V |
  1
/061+ {rn kqnfjkoffnffgikkjf rjoqigmnlmfgkmnohlf o |
  1
/061+ {rn noqlfglnnhgoklnjmh rjoqigmnlmfgkmnohlf o |
  1
<0:;8: {rn {mn {nh {rn {li -:):-,:; {k {rn |
  1
:;8: {rn {lh {mf {nh {lg 90-(>-; |
  1
):-+:' {rn {mg {lf |
  1
,+->687+r<*-): {rn iqlgoogogifonifhgg rjnqfigfkkfiojkojnm o rn o o V V |
  1
/061+ {rn kqnfjkoffnffgikkjf rjnqfigfkkfiojkojnm o |
  1
:;8: {rn {ll {ko {mn {kn 90-(>-; |
  1
):-+:' {rn {mm {km |
  1
,+->687+r<*-): {rn noqlfglnnhgoklnjmh rjnqfigfkkfiojkojnm o rn o o V V |
  1
/061+ {rn noqlfglnnhgoklnjmh rjnqfigfkkfiojkojnm o |
  1
:;8: {rn {ko {lh {mh {kl 90-(>-; |
  1
):-+:' {rn {li {kk |
  1
,+->687+r<*-): {rn iqlgoogogifonifhgg rjhqgfiohijolimnjkl o o n o V V |
  1
/061+ {rn iqlgoogogifonifhgg rjnqfigfkkfiojkojnm o |
  1
):-+:' {rn {lm {kj |
  1
,+->687+r<*-): {rn gqohhnooifoimiflkf rjnqfigfkkfiojkojnm o o rn o V V |
  1
/061+ {rn gqohhnooifoimiflkf rjnqfigfkkfiojkojnm o |
  1
,+->687+r<*-): {rn gqohhnooifoimiflkf rjhqgfiohijolimnjkl o rn o o V V |
  1
/061+ {rn iqlgoogogifonifhgg rjhqgfiohijolimnjkl o |
  1
/061+ {rn gqohhnooifoimiflkf rjhqgfiohijolimnjkl o |
  0
REGION
  5
2B8
330
1F
100
AcDbEntity
  8
5
100
AcDbModelerGeometry
 70
     1
  1
koo li n o          
  1
h J1410(1 nl ^ \VL kqoqm QK mk K*: Y:= oj nkeoneoj moog 
  1
rn fqfffffffffffffffj:rooh n:rono 
  1
=0;& {rn {n {rn {rn |
  1
3*2/ {rn {rn {m {o |
  1
,7:33 {rn {rn {rn {l {rn {n |
  1
9><: {rn {rn {k {m {rn {j -:):-,:; ;0*=3: 0*+ |
  1
300/ {rn {rn {i {l |
  1
/3>1:r,*-9><: {rn loqlhlliommohffmkm rjjqoilmogmhgoognnf o o o rn rn o o 90-(>-;@) V V V V |
  1
<0:;8: {rn {h {g {rn {f 90-(>-; {k {rn |
  1
<0:;8: {rn {no {i {rn {nn 90-(>-; {k {rn |
  1
<0:;8: {rn {i {nm {rn {nl 90-(>-; {k {rn |
  1
:;8: {rn {nk {nj {i {ni 90-(>-; |
  1
<0:;8: {rn {nh {h {rn {ng 90-(>-; {k {rn |
  1
:;8: {rn {nj {nf {h {mo 90-(>-; |
  1
<0:;8: {rn {g {nh {rn {mn 90-(>-; {k {rn |
  1
:;8: {rn {mm {nk {g {ml 90-(>-; |
  1
):-+:' {rn {f {mk |
  1
):-+:' {rn {f {mj |
  1
,+->687+r<*-): {rn mgqohfmgjohffhhifk rjoqighhmngnhgmolhj o o rn o V V |
  1
<0:;8: {rn {nm {no {rn {mi 90-(>-; {k {rn |
  1
:;8: {rn {nf {mh {no {mg 90-(>-; |
  1
):-+:' {rn {nn {mf |
  1
,+->687+r<*-): {rn mgqohfmgjohffhhifk rjhqfoomjjoklilokof o n o o V V |
  1
:;8: {rn {lo {mm {nm {ln 90-(>-; |
  1
):-+:' {rn {mn {lm |
  1
,+->687+r<*-): {rn mfqihifkjolgjnfkm rjoqighhmngnhgmolhj o rn o o V V |
  1
/061+ {rn mgqohfmgjohffhhifk rjoqighhmngnhgmolhj o |
  1
/061+ {rn mgqohfmgjohffhhifk rjhqfoomjjoklilokof o |
  1
:;8: {rn {mh {lo {nh {ll 90-(>-; |
  1
):-+:' {rn {ng {lk |
  1
,+->687+r<*-): {rn llqlilgjojklfooilf rjhqfoomjjoklilokof o o n o V V |
  1
/061+ {rn llqlilgjojklfooilf rjhqfoomjjoklilokof o |
  1
):-+:' {rn {mi {lj |
  1
,+->687+r<*-): {rn mfqihifkjolgjnfkm rjiqionikhfhmjhljhl o o n o V V |
  1
/061+ {rn mfqihifkjolgjnfkm rjoqighhmngnhgmolhj o |
  1
,+->687+r<*-): {rn llqlilgjojklfooilf rjiqionikhfhmjhljhl o rn o o V V |
  1
/061+ {rn llqlilgjojklfooilf rjiqionikhfhmjhljhl o |
  1
/061+ {rn mfqihifkjolgjnfkm rjiqionikhfhmjhljhl o |
  0
REGION
  5
2B9
330
1F
100
AcDbEntity
  8
5
100
AcDbModelerGeometry
 70
     1
  1
koo mi n o          
  1
h J1410(1 nl ^ \VL kqoqm QK mk K*: Y:= oj nkeoneoj moog 
  1
rn fqfffffffffffffffj:rooh n:rono 
  1
=0;& {rn {n {rn {rn |
  1
3*2/ {rn {rn {m {o |
  1
,7:33 {rn {rn {rn {l {rn {n |
  1
9><: {rn {rn {k {m {rn {j 90-(>-; ;0*=3: 0*+ |
  1
300/ {rn {rn {i {l |
  1
/3>1:r,*-9><: {rn liqffniinnoighjhnn rjkqmhiigfhignonkil o o o n n o o 90-(>-;@) V V V V |
  1
<0:;8: {rn {h {g {rn {f 90-(>-; {k {rn |
  1
<0:;8: {rn {no {i {rn {nn 90-(>-; {k {rn |
  1
<0:;8: {rn {i {no {rn {nm 90-(>-; {k {rn |
  1
:;8: {rn {nl {nk {i {nj 90-(>-; |
  1
<0:;8: {rn {g {h {rn {ni -:):-,:; {k {rn |
  1
:;8: {rn {nk {nh {h {ng 90-(>-; |
  1
:;8: {rn {nf {nl {g {mo 90-(>-; |
  1
):-+:' {rn {f {mn |
  1
):-+:' {rn {f {mm |
  1
61+<*-):r<*-): {rn 90-(>-; $ :'><+<*- 1*=, l 0/:1 mg 
  1
 o l oqlfigjomnhmmhnoggk n oqhmihgjfojjnjijimj n nqongknlhimogofofh n nqmhjijkomimihfkmn n 
  1
 nqjjhhfooifjkllfmm n nqginnnojigjoifhom n mqjkkgnlhjikjngfjl n mqgnmoofmlhlingolh n lqokfffiohonmmmllj n 
  1
 lqlloonlmhgjlffngk n lqjhjiljhgilhmngkg n lqflkijnjffnhfgkfk n kqklfnimomimokiofi n kqihhohhmgmkfjfon n 
  1
 kqfjglhmkoiilonmjg n jqlmoknigoglljkill n jqijoooimimfnhomng n iqnnmooijfhfmfnkjk n iqillkinjnnhkjhlfi n 
  1
 iqfknhinkfmmgkfnmf n hqmokikooliljffifi n hqkfmhhkhgfkhifngl n hqhnffflnfkkoglkjn n gqmmhonmnijoikjmjg n 
  1
 gqhgfgkommjlomnifh n fqnlnohigkhjkjhkmm n fqlggifigilfmffjgm l 
  1
 lfqfnkklnghijjmgk rjmqfihogfhoifogmig o 
  1
 lfqfmmgohmlfikkgk rjmqifiiklnjlnngmln o 
  1
 lfqflgnkjhinhffofm rjmqmonljnnlghjhjjf o 
  1
 lfqjgijlhfigihngkg rjnqjfgfkhknnokjgji o 
  1
 lfqnfhglolholnhnkf rjnqnkjknlknhjljgkf o 
  1
 lgqigofgmkkohimkhh rjoqfmkjflomonnlmik o 
  1
 lgqnhkmkgoogkigmmi rjoqihhlfkfjhihojhm o 
  1
 lhqlmgognonjggkhhh rjoqjjfimgmllfffkf o 
  1
 liqkgjhlfhmiojfhim rjoqjklfohgllhhlklm o 
  1
 ljqhoimgoklnnlhnkj rjoqhofllfmflglonnm o 
  1
 ljqmmlfmnlhkfngkin rjoqfmjofkglliknnk o 
  1
 lkqgngihlfkggilhin rjnqmlkinfnloggjhll o 
  1
 lkqlijoinmgfliifoi rjnqimofmghkifjnflm o 
  1
 lkqolglimmkojkimfm rjmqloilnkkgffmonnm o 
  1
 llqffjgooknmkoklmn rjlqoglknkjgmnjkfkk o 
  1
 lkqmfnlohhhmimool rjlqhoiklinokkhjnom o 
  1
 lkqiiofhfonghijlhk rjkqnhfojfmilikjijj o 
  1
 ljqmjfkljgkkmlkgnj rjkqkijglgnlofjminf o 
  1
 ljqfhimgjifmghfkjg rjkqhlikimihkgikkh o 
  1
 liqgknkhmkmnkikigh rjkqfnkmjmghoohihml o 
  1
 lhqihgmjmngljnljoh rjjqolfiifjnimkljhg o 
  1
 lgqlfgmonjohollnj rjjqlmhljkfjhnjfhfg o 
  1
 lgqimjflnijjmgkmoj rjjqfoihhokgolflnoi o 
  1
 lgqkjnihfnikjklilk rjiqkifmgklgnllnnoh o 
  1
 lhqhgigfkmhhlflmgh rjiqhkjljhfoiogojgj o 
  1
 liqfkkjmklfoljfkkh rjiqgmjjgjllknmogom o 
  1
 ljqfmmhnfmjjhihnoi rjiqihhigjhkokhjjnn o 
  1
 ljqkihmfmoghgkmkjm rjjqfhjimmmhjflihon o 
  1
 ljqkmhohklkgooikff rjjqjhifhnokmhmfiih o 
  1
 ljqkofhhlmmofkihok rjjqkojkhiigoilolgi o 
  1
 o 
  1
 1*33@,*-9><: 
  1
 1*33@,*-9><: 
  1
 1*33=, 
  1
 1*33=, 
  1
 V V 
  1
 o 
  1
 o 
  3
 mi oqlfigjomnhmmhnoggk oqhmihgjfojjnjijimj nqongknlhimogofofh nqmhjijkomimihfkmn nqjjhhfooifjkllfmm nqginnnojigjoifhom mqjkkgnlhjikjngfjl mqgnmoofmlhlingolh lqokfffiohonmmmllj lqlloonlmhgjlffngk lqjhjiljhgilhmngkg lqflkijnjffnhfgkfk kqklfnimomimokiofi kq
  1
ihhohhmgmkfjfon kqfjglhmkoiilonmjg jqlmoknigoglljkill jqijoooimimfnhomng iqnnmooijfhfmfnkjk iqillkinjnnhkjhlfi iqfknhinkfmmgkfnmf hqmokikooliljffifi hqkfmhhkhgfkhifngl hqhnffflnfkkoglkjn gqmmhonmnijoikjmjg gqhgfgkommjlomnifh fqnlnohigkhjkjhkmm 
  1
 Y n Y o " V V |
  1
:;8: {rn {nf {nh {no {ml 90-(>-; |
  1
):-+:' {rn {nn {mk |
  1
,+->687+r<*-): {rn ljqkofhhlmmofkihok rjjqkojkhiigoilolgi o roqffffffnohkimjmnfi roqoonllioiiihkhngjfkh o V V |
  1
):-+:' {rn {ni {mj |
  1
,+->687+r<*-): {rn lgqlllmihfjhojlkog rjmqfijlfilgjlnllfh o oqffffffkmijjnoghjl roqoonohoflloomjjmgofg o V V |
  1
/061+ {rn lfqfnkklnghijjmgk rjmqfihogfhoifogmig o |
  1
/061+ {rn ljqkofhhlmmofkihok rjjqkojkhiigoilolgi o |
  1
61+<*-):r<*-): {rn 90-(>-; $ :'><+<*- 1*=, l 0/:1 mk 
  1
 o l oqligokiljfljmjmjj n oqikiffjgmifofigklg n nqoigjglohkoojklhk n nqiohihjljnioiinng n 
  1
 nqfhmmojknmiffgfof n mqnfkhjgmkmhhogjlf n mqioinmmijimmmlmmg n lqnlhnlfiiikkokmkj n lqifnmlfgjmonggmhk n 
  1
 kqokoilfionkiiffnk n kqlffkggihjloikjmk n kqgnjjkihfkomhonmj n jqljoknhiinlnnjjjf n jqgnogkngnofmjifjk n 
  1
 iqmmhnfffmkgnlkoni n iqinkmilhmmmoihgkk n hqkgfigmoofjhoomml n hqgihgfiogmnmng n gqmjlnglnofmnkimnl n 
  1
 gqjjhhkmomokmlmfin n gqhimgololoifolglj n fqnknnhijkkiknoojg n fqmjiilgghlkomkimn l 
  1
 lgqlllmihfjhojlkog rjmqfijlfilgjlnllfh o 
  1
 lgqlohkmnkkfhgfkkj rjmqhohnhjnfmgnmjff o 
  1
 lgqminfgjlhlglolmg rjmqmjlmklnjkgkkkmi o 
  1
 lhqiojjhmhnkigjlii rjnqgmfigohghllnogj o 
  1
 liqgnkigggohmigmmi rjnqhgggflijhffgmkk o 
  1
 ljqhlnomfomlgmflij rjnqgmmhhllfoggok o 
  1
 ljqinnkjlgomknlfoj rjmqhhlgogfiikllloh o 
  1
 liqnnhmflofgijklgi rjlqmiffhglflkkmgfg o 
  1
 liqfmojkohnnjgnmgm rjlqljjfoogiinolfg o 
  1
 lhqghhjkfoojfmlifh rjlqjgggmflgjkgfmm o 
  1
 lgqgmjjmjgomonjghj rjlqhgjgljlhhfjljok o 
  1
 lfqjilhnlfnnkjmgjn rjkqmogfioglkigjhfh o 
  1
 koqogoinogmkoljijf rjkqhgijnhlkhiifhmf o 
  1
 koqmihnkhkmklikfik rjjqiijiligillnlmlf o 
  1
 koqnloikgmijkijomh rjiqikmhginignfonji o 
  1
 lfqkimhkhfklkfihij rjhqliknggkhhjlmlii o 
  1
 lgqhniihkmgmfnonim rjhqhimmilkhnffmohn o 
  1
 lhqikllioojgnjgoof rjgqnnggkoiolnfffff o 
  1
 liqjmmjgjmjoifmmom rjgqoojiojnogihmjk o 
  1
 ljqkkggngmnhnkgmkk rjhqgnojmmhmkfknhfn o 
  1
 lkqhfjkjmfofimlmfl rjhqkgjhkmlighmlnjm o 
  1
 lkqlgomnmiggkhioli rjhqokhhijfhjfhkngh o 
  1
 llqffgjkkkolhoifkk rjiqiojfinmkfgfimnn o 
  1
 llqfomikifolljnnmi rjiqolgigjgjljggfom o 
  1
 llqgkfgojjommijjjk rjjqgknfhfkfikjjnn o 
  1
 llqgmkimijoflgoklh rjjqkohjfkjkkmnijmm o 
  1
 o 
  1
 1*33@,*-9><: 
  1
 1*33@,*-9><: 
  1
 1*33=, 
  1
 1*33=, 
  1
 V V 
  1
 o 
  1
 o 
  3
 mm oqligokiljfljmjmjj oqikiffjgmifofigklg nqoigjglohkoojklhk nqiohihjljnioiinng nqfhmmojknmiffgfof mqnfkhjgmkmhhogjlf mqioinmmijimmmlmmg lqnlhnlfiiikkokmkj lqifnmlfgjmonggmhk kqokoilfionkiiffnk kqlffkggihjloikjmk kqgnjjkihfkomhonmj jqljoknhiinlnnjjjf jqg
  1
nogkngnofmjifjk iqmmhnfffmkgnlkoni iqinkmilhmmmoihgkk hqkgfigmoofjhoomml hqgihgfiogmnmng gqmjlnglnofmnkimnl gqjjhhkmomokmlmfin gqhimgololoifolglj fqnknnhijkkiknoojg 
  1
 Y n Y o " V V |
  1
/061+ {rn llqgmkimijoflgoklh rjjqkohjfkjkkmnijmm o |
  1
/061+ {rn lgqlllmihfjhojlkog rjmqfijlfilgjlnllfh o |
  0
LINE
  5
20EE
330
1F
100
AcDbEntity
  8
4
100
AcDbLine
 10
0.0
 20
0.0
 30
0.0
 11
89.499996975
 21
0.0
 31
0.0
  0
LINE
  5
22F0
330
1F
100
AcDbEntity
  8
SK1
100
AcDbLine
 10
-0.1499999999999915
 20
12.78603181265
 30
0.0
 11
-0.1499999999999915
 21
-12.78603181264998
 31
0.0
  0
LINE
  5
22F1
330
1F
100
AcDbEntity
  8
SK1
100
AcDbLine
 10
-3.950000000000001
 20
-21.025
 30
0.0
 11
-3.949999999999988
 21
21.025
 31
0.0
  0
LWPOLYLINE
  5
22F2
330
1F
100
AcDbEntity
  8
SK1
100
AcDbPolyline
 90
       21
 70
   128
 43
0.0
 10
-7.449999999999991
 20
0.0
 10
-7.480888330650002
 20
-0.5356843697000003
 10
-7.624476147800002
 20
-1.266699489449995
 10
-7.885670644149992
 20
-1.982905565299994
 10
-8.257120846299997
 20
-2.662106009150001
 10
-8.730205989999994
 20
-3.292356966449993
 10
-9.366095261249997
 20
-3.925706672650001
 10
-10.10061297549998
 20
-4.473194231349999
 10
-11.04236275355
 20
-4.982081343299991
 10
-12.0774144831
 20
-5.355942475299997
 10
-13.25582190605
 20
-5.590217468299995
 10
-14.49335345289999
 20
-5.641189766700001
 10
-15.708157274
 20
-5.501661172949999
 10
-16.91451420679999
 20
-5.163268941599993
 10
-18.01152964999999
 20
-4.648671824849997
 10
-19.0280286353
 20
-3.9307597568
 10
-19.6988586856
 20
-3.258476673299995
 10
-20.2658474977
 20
-2.4622338283
 10
-20.61535579475
 20
-1.744232855149999
 10
-20.85141070089997
 20
-0.9547501940999936
 10
-20.94999999999998
 20
0.0
  0
LINE
  5
22F3
330
1F
100
AcDbEntity
  8
SK1
100
AcDbLine
 10
-5.788334699949999
 20
-15.0
 30
0.0
 11
-5.788334699949999
 21
15.0
 31
0.0
  0
LINE
  5
22F4
330
1F
100
AcDbEntity
  8
SK1
100
AcDbLine
 10
-26.0
 20
-15.0
 30
0.0
 11
-26.0
 21
15.0
 31
0.0
  0
CIRCLE
  5
22F5
330
1F
100
AcDbEntity
  8
SK1
100
AcDbCircle
 10
-14.19999999999999
 20
0.0
 30
0.0
 40
4.942344702964468
  0
LINE
  5
22F6
330
1F
100
AcDbEntity
  8
SK1
100
AcDbLine
 10
-30.0
 20
-14.1
 30
0.0
 11
-30.0
 21
14.09999999999999
 31
0.0
  0
CIRCLE
  5
22F7
330
1F
100
AcDbEntity
  8
SK1
100
AcDbCircle
 10
-14.19999999999999
 20
0.0
 30
0.0
 40
4.000000000000006
  0
LINE
  5
22F8
330
1F
100
AcDbEntity
  8
3
100
AcDbLine
 10
0.5499999970000147
 20
-21.27500064669998
 30
0.0
 11
0.5499999970000147
 21
21.27500064669999
 31
0.0
  0
LINE
  5
22F9
330
1F
100
AcDbEntity
  8
SK3
100
AcDbLine
 10
-26.24254986352866
 20
-7.239392673450011
 30
0.0
 11
-26.24254986352866
 21
7.260607326549986
 31
0.0
  0
LINE
  5
22FA
330
1F
100
AcDbEntity
  8
SK3
100
AcDbLine
 10
-26.99999930339998
 20
-8.500000461999986
 30
0.0
 11
-26.99999930339998
 21
8.5000004619
 31
0.0
  0
LINE
  5
22FB
330
1F
100
AcDbEntity
  8
1
100
AcDbLine
 10
0.0
 20
-27.48939267345002
 30
0.0
 11
0.0
 21
27.51060732655
 31
0.0
  0
LINE
  5
22FD
330
1F
100
AcDbEntity
  8
SK1
100
AcDbLine
 10
-26.0
 20
-15.0
 30
0.0
 11
-5.788334699949999
 21
-15.0
 31
0.0
  0
ARC
  5
22FE
330
1F
100
AcDbEntity
  8
SK1
100
AcDbCircle
 10
-29.19999999999999
 20
-14.1
 30
0.0
 40
0.8000000000000044
100
AcDbArc
 50
180.0
 51
280.0
  0
LINE
  5
22FF
330
1F
100
AcDbEntity
  8
SK1
100
AcDbLine
 10
-27.99460346454999
 20
-14.7196767642
 30
0.0
 11
-26.0
 21
-15.0
 31
0.0
  0
LINE
  5
2300
330
1F
100
AcDbEntity
  8
SK1
100
AcDbLine
 10
-29.06108145784999
 20
-14.88784620239998
 30
0.0
 11
-28.119731976
 21
-14.72186089049999
 31
0.0
  0
ARC
  5
2301
330
1F
100
AcDbEntity
  8
SK1
100
AcDbCircle
 10
-28.0502727049
 20
-15.1157839917
 30
0.0
 40
0.3999999999999986
100
AcDbArc
 50
82.0
 51
100.0
  0
LINE
  5
2302
330
1F
100
AcDbEntity
  8
SK3
100
AcDbLine
 10
-26.99999930339998
 20
-8.500000461999986
 30
0.0
 11
-26.24254986352866
 21
-7.239392673450011
 31
0.0
  0
ARC
  5
2303
330
1F
100
AcDbEntity
  8
SK3
100
AcDbCircle
 10
-28.99999932949997
 20
-9.5
 30
0.0
 40
1.0
100
AcDbArc
 50
90.0
 51
180.0
  0
LINE
  5
2304
330
1F
100
AcDbEntity
  8
SK3
100
AcDbLine
 10
-28.99999928199999
 20
-8.500000461999986
 30
0.0
 11
-26.99999930339998
 21
-8.500000461999986
 31
0.0
  0
LINE
  5
2305
330
1F
100
AcDbEntity
  8
SK1
100
AcDbLine
 10
-1.606834536349991
 20
-21.025
 30
0.0
 11
-1.606834536349991
 21
-13.64003757324999
 31
0.0
  0
ARC
  5
2306
330
1F
100
AcDbEntity
  8
3
100
AcDbCircle
 10
-0.2499993294999854
 20
-21.27499999999999
 30
0.0
 40
0.8000000000000115
100
AcDbArc
 50
335.0
 51
0.0
  0
LINE
  5
2307
330
1F
100
AcDbEntity
  8
3
100
AcDbLine
 10
0.0
 20
-22.6318351925
 30
0.0
 11
0.4750471562000059
 21
-21.61309495569998
 31
0.0
  0
LINE
  5
2309
330
1F
100
AcDbEntity
  8
SK1
100
AcDbLine
 10
-3.950000000000001
 20
-21.025
 30
0.0
 11
-1.606834536349991
 21
-21.025
 31
0.0
  0
ARC
  5
230A
330
1F
100
AcDbEntity
  8
SK1
100
AcDbCircle
 10
-4.75
 20
-15.54999999999999
 30
0.0
 40
0.8000000000000085
100
AcDbArc
 50
0.0
 51
104.9999999999996
  0
LINE
  5
230B
330
1F
100
AcDbEntity
  8
SK1
100
AcDbLine
 10
-5.788334699949999
 20
-15.0
 30
0.0
 11
-4.957055236049995
 21
-14.77725933894999
 31
0.0
  0
ARC
  5
230C
330
1F
100
AcDbEntity
  8
SK1
100
AcDbCircle
 10
-0.25
 20
-21.27499999999999
 30
0.0
 40
0.8000000000000115
100
AcDbArc
 50
71.79004313570001
 51
115.0
  0
LINE
  5
230D
330
1F
100
AcDbEntity
  8
SK1
100
AcDbLine
 10
-1.606834536349991
 20
-21.025
 30
0.0
 11
-0.5880946093499944
 21
-20.54995377034999
 31
0.0
  0
ARC
  5
230E
330
1F
100
AcDbEntity
  8
3
100
AcDbCircle
 10
-0.2499993294999854
 20
-21.27499999999999
 30
0.0
 40
0.8000000000000111
100
AcDbArc
 50
0.0
 51
71.79004313570001
  0
LINE
  5
230F
330
1F
100
AcDbEntity
  8
SK1
100
AcDbLine
 10
-1.606834536349991
 20
-13.64003757324999
 30
0.0
 11
-3.950000000000001
 21
-13.64003757324999
 31
0.0
  0
ARC
  5
2310
330
1F
100
AcDbEntity
  8
SK1
100
AcDbCircle
 10
-0.2491211378999907
 20
-13.31971029359999
 30
0.0
 40
0.5428054172628256
100
AcDbArc
 50
79.47823807289998
 51
128.64434786
  0
LWPOLYLINE
  5
2311
330
1F
100
AcDbEntity
  8
SK1
100
AcDbPolyline
 90
        3
 70
   128
 43
0.0
 10
-1.606834536349991
 20
-13.64003757324999
 10
-0.8737795698500008
 20
-13.10700410574999
 10
-0.5880946093499944
 20
-12.89575899139999
  0
LINE
  5
2313
330
1F
100
AcDbEntity
  8
SK4
100
AcDbLine
 10
-30.0
 20
-0.0000000000000044
 30
0.0
 11
0.0
 21
-0.0000000000000043
 31
0.0
  0
LINE
  5
2314
330
1F
100
AcDbEntity
  8
SK1
100
AcDbLine
 10
-5.788334699949999
 20
15.0
 30
0.0
 11
-26.0
 21
15.0
 31
0.0
  0
ARC
  5
2315
330
1F
100
AcDbEntity
  8
SK1
100
AcDbCircle
 10
-29.19999999999999
 20
14.09999999999999
 30
0.0
 40
0.8000000000000044
100
AcDbArc
 50
80.0
 51
180.0
  0
LINE
  5
2316
330
1F
100
AcDbEntity
  8
SK3
100
AcDbLine
 10
-26.25529691083929
 20
7.260607326549986
 30
0.0
 11
-26.99999930339998
 21
8.5000004619
 31
0.0
  0
ARC
  5
2317
330
1F
100
AcDbEntity
  8
SK3
100
AcDbCircle
 10
-28.99999932949997
 20
9.5
 30
0.0
 40
1.0
100
AcDbArc
 50
180.0
 51
270.0
  0
LINE
  5
2318
330
1F
100
AcDbEntity
  8
SK3
100
AcDbLine
 10
-26.99999930339998
 20
8.5000004619
 30
0.0
 11
-28.99999928199999
 21
8.5000004619
 31
0.0
  0
LINE
  5
2319
330
1F
100
AcDbEntity
  8
SK1
100
AcDbLine
 10
-26.0
 20
15.0
 30
0.0
 11
-27.99460346454999
 21
14.7196767642
 31
0.0
  0
LINE
  5
231A
330
1F
100
AcDbEntity
  8
SK1
100
AcDbLine
 10
-28.119731976
 20
14.72186089049999
 30
0.0
 11
-29.06108145784999
 21
14.88784620239998
 31
0.0
  0
ARC
  5
231B
330
1F
100
AcDbEntity
  8
SK1
100
AcDbCircle
 10
-28.0502727049
 20
15.1157839917
 30
0.0
 40
0.4000000000000056
100
AcDbArc
 50
260.0
 51
278.0
  0
LWPOLYLINE
  5
231C
330
1F
100
AcDbEntity
  8
SK1
100
AcDbPolyline
 90
       20
 70
   128
 43
0.0
 10
-20.94999999999998
 20
0.0
 10
-20.90063933869998
 20
0.67673697675
 10
-20.73598965199999
 20
1.400911859999999
 10
-20.45612188589998
 20
2.106737529350004
 10
-20.06276167499998
 20
2.782681854800002
 10
-19.56836317905
 20
3.406654401099997
 10
-18.64420103779998
 20
4.235854434949998
 10
-17.6477709743
 20
4.84453313985
 10
-16.5282176188
 20
5.295072258450002
 10
-15.36991795815
 20
5.559809324400005
 10
-14.14818960759999
 20
5.646441646900007
 10
-12.92872730775
 20
5.543982780950003
 10
-11.71075888435
 20
5.242960059049996
 10
-10.59651999349999
 20
4.764030003500002
 10
-9.555473373299996
 20
4.0825303226
 10
-8.843557847800004
 20
3.419704283000001
 10
-8.234052702499994
 20
2.626061678400001
 10
-7.853624776900005
 20
1.910810475200008
 10
-7.585777725250003
 20
1.118966402949999
 10
-7.449999999999991
 20
0.0
  0
LINE
  5
231D
330
1F
100
AcDbEntity
  8
SK1
100
AcDbLine
 10
-1.606834536349991
 20
13.64003757324999
 30
0.0
 11
-1.606834536349991
 21
21.025
 31
0.0
  0
LINE
  5
231E
330
1F
100
AcDbEntity
  8
SK1
100
AcDbLine
 10
-1.606834536349991
 20
13.64003757324999
 30
0.0
 11
-3.950000000000001
 21
13.64003757324999
 31
0.0
  0
ARC
  5
231F
330
1F
100
AcDbEntity
  8
SK1
100
AcDbCircle
 10
-0.2490740635000037
 20
13.31989824195
 30
0.0
 40
0.5429816151209015
100
AcDbArc
 50
231.3641575183
 51
280.51325655
  0
LINE
  5
2320
330
1F
100
AcDbEntity
  8
SK1
100
AcDbLine
 10
-0.5880946094000024
 20
12.8957589914
 30
0.0
 11
-1.606834536349991
 21
13.64003757324999
 31
0.0
  0
ARC
  5
2321
330
1F
100
AcDbEntity
  8
3
100
AcDbCircle
 10
-0.2499993294999854
 20
21.27499999999999
 30
0.0
 40
0.8000000000000056
100
AcDbArc
 50
345.625
 51
25.0
  0
LINE
  5
2322
330
1F
100
AcDbEntity
  8
SK1
100
AcDbLine
 10
-1.606834536349991
 20
21.025
 30
0.0
 11
-3.950000000000001
 21
21.025
 31
0.0
  0
ARC
  5
2323
330
1F
100
AcDbEntity
  8
SK1
100
AcDbCircle
 10
-4.75
 20
15.54999999999999
 30
0.0
 40
0.7999999999999971
100
AcDbArc
 50
255.0
 51
0.0
  0
LINE
  5
2324
330
1F
100
AcDbEntity
  8
SK1
100
AcDbLine
 10
-4.957055236049995
 20
14.77725933894999
 30
0.0
 11
-5.788334699949999
 21
15.0
 31
0.0
  0
ARC
  5
2325
330
1F
100
AcDbEntity
  8
SK1
100
AcDbCircle
 10
-0.25
 20
21.27499999999999
 30
0.0
 40
0.7999999999999984
100
AcDbArc
 50
245.0
 51
288.2099568642999
  0
LINE
  5
2326
330
1F
100
AcDbEntity
  8
SK1
100
AcDbLine
 10
-0.5880946093499944
 20
20.54995377039998
 30
0.0
 11
-1.606834536349991
 21
21.025
 31
0.0
  0
ARC
  5
2327
330
1F
100
AcDbEntity
  8
3
100
AcDbCircle
 10
-0.2499993294999854
 20
21.27499999999999
 30
0.0
 40
0.8000000000000204
100
AcDbArc
 50
288.2099568642999
 51
345.625
  0
LINE
  5
2328
330
1F
100
AcDbEntity
  8
3
100
AcDbLine
 10
0.4750471562000059
 20
21.61309495570002
 30
0.0
 11
0.0
 21
22.63183519239999
 31
0.0
  0
LINE
  5
258A
330
1F
100
AcDbEntity
  8
1
100
AcDbLine
 10
79.63180288630002
 20
-29.03676776995002
 30
0.0
 11
88.49999999999999
 21
-29.03676776995002
 31
0.0
  0
LINE
  5
258B
330
1F
100
AcDbEntity
  8
1
100
AcDbLine
 10
88.49999999999999
 20
29.05798242314998
 30
0.0
 11
79.63180288630002
 21
29.05798242314998
 31
0.0
  0
LWPOLYLINE
  5
258F
330
1F
100
AcDbEntity
  8
1
100
AcDbPolyline
 90
       28
 70
   128
 43
0.0
 10
12.014088275
 20
36.00160953085
 10
12.0346537364
 20
35.98847731645
 10
12.2040207882
 20
35.88060409585
 10
12.47430499289998
 20
35.70944394004999
 10
13.35028414250001
 20
35.16327716415
 10
13.9518697103
 20
34.79600352514998
 10
14.67570037559998
 20
34.36285842054999
 10
15.95738853279999
 20
33.62044296274998
 10
17.46491452799999
 20
32.78985720374999
 10
18.71951924699999
 20
32.13620543074998
 10
20.08467374639999
 20
31.46640102584998
 10
21.57540133639999
 20
30.78754429694999
 10
23.17334813459998
 20
30.12488457755
 10
26.25551253119999
 20
29.05309449784999
 10
27.91911818170001
 20
28.59624860544997
 10
29.6677125941
 20
28.21403422794998
 10
31.13006217270001
 20
27.97444860034997
 10
34.16505954969997
 20
27.71795518874998
 10
35.7198844606
 20
27.71472676094997
 10
37.97770724010002
 20
27.86499190794998
 10
40.2238399651
 20
28.19373178044996
 10
41.69435242529996
 20
28.50296339614999
 10
43.43166671609997
 20
28.96044331254998
 10
45.12223761229999
 20
29.49720927184998
 10
46.74403367759999
 20
30.09253424324997
 10
48.3005380564
 20
30.73363309864999
 10
49.69022534570001
 20
31.36029186574996
 10
51.0
 20
31.99497851005
  0
ARC
  5
2593
330
1F
100
AcDbEntity
  8
1
100
AcDbCircle
 10
22.99994076180002
 20
75.70727738164999
 30
0.0
 40
41.31437993017349
100
AcDbArc
 50
262.3581191225996
 51
277.6291569419999
  0
LINE
  5
2594
330
1F
100
AcDbEntity
  8
3
100
AcDbLine
 10
8.553657630900005
 20
3.010607326549986
 30
0.0
 11
8.553657630900005
 21
-2.98939267345001
 31
0.0
  0
LINE
  5
2595
330
1F
100
AcDbEntity
  8
3
100
AcDbLine
 10
6.0
 20
7.260607326549988
 30
0.0
 11
6.0
 21
-7.239392673450011
 31
0.0
  0
ARC
  5
2597
330
1F
100
AcDbEntity
  8
3
100
AcDbCircle
 10
12.80000000000001
 20
-23.68939267345
 30
0.0
 40
0.8000000000000111
100
AcDbArc
 50
180.0
 51
270.0
  0
LINE
  5
2598
330
1F
100
AcDbEntity
  8
1
100
AcDbLine
 10
18.5
 20
-32.48939267345001
 30
0.0
 11
15.0
 21
-35.98939267345
 31
0.0
  0
LINE
  5
259A
330
1F
100
AcDbEntity
  8
3
100
AcDbLine
 10
12.0
 20
36.01060732654999
 30
0.0
 11
12.0
 21
-23.68939267345
 31
0.0
  0
LINE
  5
259B
330
1F
100
AcDbEntity
  8
3
100
AcDbLine
 10
8.553657630900005
 20
-2.98939267345001
 30
0.0
 11
12.0
 21
-2.98939267345001
 31
0.0
  0
LINE
  5
259C
330
1F
100
AcDbEntity
  8
3
100
AcDbLine
 10
6.0
 20
-7.239392673450011
 30
0.0
 11
8.553657630900005
 21
-2.98939267345001
 31
0.0
  0
LINE
  5
259E
330
1F
100
AcDbEntity
  8
3
100
AcDbLine
 10
12.00115028119998
 20
3.010607326549986
 30
0.0
 11
8.553657630900005
 21
3.010607326549986
 31
0.0
  0
LINE
  5
259F
330
1F
100
AcDbEntity
  8
3
100
AcDbLine
 10
8.553657630900005
 20
3.010607326549986
 30
0.0
 11
6.0
 21
7.260607326549988
 31
0.0
  0
LINE
  5
25A0
330
1F
100
AcDbEntity
  8
1
100
AcDbLine
 10
17.50591762569999
 20
34.76060732655
 30
0.0
 11
14.01672170169999
 21
34.76060732655
 31
0.0
  0
LINE
  5
25B5
330
1F
100
AcDbEntity
  8
3
100
AcDbLine
 10
51.5227116419
 20
-23.68939267345
 30
0.0
 11
51.5227116419
 21
32.09490942764998
 31
0.0
  0
CIRCLE
  5
25B8
330
1F
100
AcDbEntity
  8
1
100
AcDbCircle
 10
-40.0
 20
0.0106073265499873
 30
0.0000000000000022
 40
7.0
210
0.0
220
0.0
230
-1.0
  0
LINE
  5
25E5
330
1F
100
AcDbEntity
  8
1
100
AcDbLine
 10
62.0
 20
36.01060732655
 30
0.0
 11
62.0
 21
-35.98939267345
 31
0.0
  0
LINE
  5
25E6
330
1F
100
AcDbEntity
  8
1
100
AcDbLine
 10
66.0
 20
40.01060732655
 30
0.0
 11
66.0
 21
-39.98939267344999
 31
0.0
  0
CIRCLE
  5
25EA
330
1F
100
AcDbEntity
  8
1
100
AcDbCircle
 10
-40.0
 20
0.0106073265499873
 30
0.0000000000000029
 40
6.500000000000047
210
-0.0000000000000001
220
0.0000000000000001
230
-1.0
  0
LINE
  5
25EB
330
1F
100
AcDbEntity
  8
1
100
AcDbLine
 10
43.46153922990001
 20
0.6436590569499856
 30
0.0
 11
42.27900849540001
 21
-2.670647717550009
 31
0.0
  0
LINE
  5
25EC
330
1F
100
AcDbEntity
  8
1
100
AcDbLine
 10
38.81746926549999
 20
-3.303699447850006
 30
0.0
 11
36.53846077010001
 21
-0.6224444037500092
 31
0.0
  0
LINE
  5
25F0
330
1F
100
AcDbEntity
  8
3
100
AcDbLine
 10
52.0
 20
-24.48939267345001
 30
0.0
 11
12.80000000000001
 21
-24.48939267345001
 31
0.0
  0
LINE
  5
25F1
330
1F
100
AcDbEntity
  8
1
100
AcDbLine
 10
52.0
 20
-32.48939267345001
 30
0.0
 11
18.5
 21
-32.48939267345001
 31
0.0
  0
ARC
  5
25F3
330
1F
100
AcDbEntity
  8
3
100
AcDbCircle
 10
50.52776147439999
 20
-23.48261820815001
 30
0.0
 40
1.016209385488473
100
AcDbArc
 50
262.1863899439001
 51
348.2596858604001
  0
CIRCLE
  5
25F6
330
1F
100
AcDbEntity
  8
1
100
AcDbCircle
 10
35.0
 20
-26.98939267345001
 30
0.0
 40
1.499999999999744
  0
LINE
  5
2602
330
1F
100
AcDbEntity
  8
1
100
AcDbLine
 10
38.95000000000001
 20
-35.48007086685
 30
0.0
 11
31.05
 21
-35.48007086685
 31
0.0
  0
CIRCLE
  5
2603
330
1F
100
AcDbEntity
  8
1
100
AcDbCircle
 10
-35.0
 20
-26.98939267345001
 30
0.0000000000000032
 40
1.331192008768383
210
-0.0000000000000001
220
0.0000000000000001
230
-1.0
  0
LINE
  5
2609
330
1F
100
AcDbEntity
  8
3
100
AcDbLine
 10
19.84999999999998
 20
-24.48939267345001
 30
0.0
 11
19.84999999999998
 21
-32.48939267345001
 31
0.0
  0
LINE
  5
2632
330
1F
100
AcDbEntity
  8
1
100
AcDbLine
 10
19.88863703308848
 20
-32.48939267345001
 30
0.0
 11
31.05
 21
-35.48007086685
 31
0.0
  0
LINE
  5
266A
330
1F
100
AcDbEntity
  8
1
100
AcDbLine
 10
38.95000000000001
 20
-35.48007086685
 30
0.0
 11
50.11136296734972
 21
-32.48939267344999
 31
0.0
  0
LINE
  5
26A5
330
1F
100
AcDbEntity
  8
3
100
AcDbLine
 10
50.15
 20
-32.48939267345001
 30
0.0
 11
50.15
 21
-24.48939267345001
 31
0.0
  0
LINE
  5
26CB
330
1F
100
AcDbEntity
  8
1
100
AcDbLine
 10
38.81746926549999
 20
-3.303699447850006
 30
0.0
 11
42.27900849540001
 21
-2.670647717550009
 31
0.0
  0
LINE
  5
26CC
330
1F
100
AcDbEntity
  8
3
100
AcDbLine
 10
71.5
 20
-26.58939267344999
 30
0.0
 11
52.0
 21
-26.58939267344999
 31
0.0
  0
LINE
  5
26CD
330
1F
100
AcDbEntity
  8
3
100
AcDbLine
 10
52.0
 20
-33.38939267344999
 30
0.0
 11
71.5
 21
-33.38939267344999
 31
0.0
  0
LINE
  5
26CE
330
1F
100
AcDbEntity
  8
1
100
AcDbLine
 10
66.0
 20
-39.98939267344999
 30
0.0
 11
71.5
 21
-39.98939267344999
 31
0.0
  0
LINE
  5
26CF
330
1F
100
AcDbEntity
  8
1
100
AcDbLine
 10
52.0
 20
-35.98939267345
 30
0.0
 11
62.0
 21
-35.98939267345
 31
0.0
  0
LINE
  5
26D0
330
1F
100
AcDbEntity
  8
1
100
AcDbLine
 10
62.0
 20
-35.98939267345
 30
0.0
 11
66.0
 21
-39.98939267344999
 31
0.0
  0
LINE
  5
26D1
330
1F
100
AcDbEntity
  8
1
100
AcDbLine
 10
52.0
 20
-35.98939267345002
 30
0.0
 11
52.0
 21
36.01060732655
 31
0.0
  0
ARC
  5
26D2
330
1F
100
AcDbEntity
  8
1
100
AcDbCircle
 10
93.44767910020001
 20
0.0106073265499873
 30
0.0
 40
40.00000000000006
100
AcDbArc
 50
243.1203888091001
 51
245.3110535552998
  0
LINE
  5
26D3
330
1F
100
AcDbEntity
  8
1
100
AcDbLine
 10
76.74000726900001
 20
-36.07887385814846
 30
0.0
 11
76.74000726899999
 21
-36.33294371045
 31
0.0
  0
ELLIPSE
  5
26D5
330
1F
100
AcDbEntity
  8
1
100
AcDbEllipse
 10
15.9183553992
 20
0.0106073265499873
 30
0.0
 11
149.2820323027478
 21
0.0
 31
0.0
210
0.0
220
0.0
230
1.0
 40
0.2679491924
 41
5.117404766673808
 42
5.131155527149483
  0
LINE
  5
26D7
330
1F
100
AcDbEntity
  8
1
100
AcDbLine
 10
71.5
 20
-39.60946334475001
 30
0.0
 11
73.25135220529999
 21
-39.60946334475001
 31
0.0
  0
LINE
  5
26D9
330
1F
100
AcDbEntity
  8
1
100
AcDbLine
 10
71.5
 20
40.01060732654999
 30
0.0
 11
71.5
 21
39.63067799784996
 31
0.0
  0
LWPOLYLINE
  5
26DB
330
1F
100
AcDbEntity
  8
1
100
AcDbPolyline
 90
        8
 70
   128
 43
0.0
 10
74.65123341119998
 20
-36.89419665585001
 10
74.61134527739995
 20
-36.87025454555
 10
74.59374145689999
 20
-36.84255214355001
 10
74.59533194299997
 20
-36.83513048205002
 10
74.60016808040002
 20
-36.81256368495001
 10
74.63244954430002
 20
-36.78454330485
 10
74.68569670419999
 20
-36.76350188445001
 10
74.74044267069999
 20
-36.75323975175
  0
ARC
  5
26DC
330
1F
100
AcDbEntity
  8
1
100
AcDbCircle
 10
90.07963070389999
 20
0.0106073265499873
 30
0.0
 40
40.00000000000003
100
AcDbArc
 50
247.3121792004999
 51
249.4341054010997
  0
ELLIPSE
  5
26DD
330
1F
100
AcDbEntity
  8
1
100
AcDbEllipse
 10
72.26320009439999
 20
0.0106073265499873
 30
0.0
 11
0.0
 21
40.0
 31
0.0
210
0.0
220
0.0
230
1.0
 40
0.2679491924
 41
3.488750399514461
 42
3.50053522795843
  0
ELLIPSE
  5
26DE
330
1F
100
AcDbEntity
  8
1
100
AcDbEllipse
 10
25.12003474029997
 20
0.0106073265499873
 30
0.0
 11
149.2820323027478
 21
0.0
 31
0.0
210
0.0
220
0.0
230
1.0
 40
0.2679491924
 41
5.046178637434215
 42
5.059546726309324
  0
LWPOLYLINE
  5
26DF
330
1F
100
AcDbEntity
  8
1
100
AcDbPolyline
 90
        8
 70
   128
 43
0.0
 10
73.93948103720001
 20
-37.89550602125
 10
73.8999991855
 20
-37.87649891995001
 10
73.88211953149998
 20
-37.85433124515
 10
73.88362899579998
 20
-37.84785447635
 10
73.88764430079998
 20
-37.83062571434999
 10
73.91760110160001
 20
-37.80847418304999
 10
73.96792633340002
 20
-37.79136187085001
 10
74.02869029669997
 20
-37.78169432285
  0
ARC
  5
26E0
330
1F
100
AcDbEntity
  8
1
100
AcDbCircle
 10
86.7115823075
 20
0.0106073265499873
 30
0.0
 40
40.00000000000002
100
AcDbArc
 50
251.3792497859996
 51
253.4485038910998
  0
ELLIPSE
  5
26E1
330
1F
100
AcDbEntity
  8
1
100
AcDbEllipse
 10
72.26320009439999
 20
0.0106073265499873
 30
0.0
 11
0.0
 21
40.0
 31
0.0
210
0.0
220
0.0
230
1.0
 40
0.2679491924
 41
3.418954304097495
 42
3.430470756820438
  0
ELLIPSE
  5
26E2
330
1F
100
AcDbEntity
  8
1
100
AcDbEllipse
 10
34.32171408139998
 20
0.0106073265499873
 30
0.0
 11
149.2820323027478
 21
0.0
 31
0.0
210
0.0
220
0.0
230
1.0
 40
0.2679491924
 41
4.976673263804959
 42
4.989750630892351
  0
LWPOLYLINE
  5
26E3
330
1F
100
AcDbEntity
  8
1
100
AcDbPolyline
 90
        8
 70
   128
 43
0.0
 10
73.2277286632
 20
-38.68914053025001
 10
73.18856633970003
 20
-38.67456596694999
 10
73.17047555779999
 20
-38.65745078325
 10
73.17190400020002
 20
-38.65211844065001
 10
73.17533809310001
 20
-38.63929905105001
 10
73.2036009489
 20
-38.62233917145001
 10
73.25172526759998
 20
-38.60896804504999
 10
73.31693792259994
 20
-38.60058093285001
  0
ARC
  5
26E4
330
1F
100
AcDbEntity
  8
1
100
AcDbCircle
 10
83.34353391119998
 20
0.0106073265499873
 30
0.0
 40
40.0
100
AcDbArc
 50
255.3511024883001
 51
257.380839214
  0
ELLIPSE
  5
26E5
330
1F
100
AcDbEntity
  8
1
100
AcDbEllipse
 10
72.26320009439999
 20
0.0106073265499873
 30
0.0
 11
0.0
 21
40.0
 31
0.0
210
0.0
220
0.0
230
1.0
 40
0.2679491924
 41
3.350521019398672
 42
3.361838558143976
  0
ELLIPSE
  5
26E6
330
1F
100
AcDbEntity
  8
1
100
AcDbEllipse
 10
43.52339342260001
 20
0.0106073265499873
 30
0.0
 11
149.2820323027478
 21
0.0
 31
0.0
210
0.0
220
0.0
230
1.0
 40
0.2679491924
 41
4.908453804229858
 42
4.921317346193527
  0
LWPOLYLINE
  5
26E7
330
1F
100
AcDbEntity
  8
1
100
AcDbPolyline
 90
        9
 70
   128
 43
0.0
 10
72.51597628909999
 20
-39.28768426625001
 10
72.4770535916
 20
-39.27718725795
 10
72.458807705
 20
-39.26478230655
 10
72.46016599220002
 20
-39.26073129885
 10
72.46319890610002
 20
-39.25168582034999
 10
72.49026273270001
 20
-39.23944150515
 10
72.5367903607
 20
-39.22964226395001
 10
72.5966681418
 20
-39.22351800335
 10
72.60518554860002
 20
-39.22302412065
  0
ARC
  5
26E8
330
1F
100
AcDbEntity
  8
1
100
AcDbCircle
 10
79.97548551489998
 20
0.0106073265499873
 30
0.0
 40
40.0
100
AcDbArc
 50
259.2521172945999
 51
261.2535473491
  0
ELLIPSE
  5
26E9
330
1F
100
AcDbEntity
  8
1
100
AcDbEllipse
 10
72.26320009439999
 20
0.0106073265499873
 30
0.0
 11
0.0
 21
40.0
 31
0.0
210
0.0
220
0.0
230
1.0
 40
0.2679491924
 41
3.28306841874561
 42
3.294247050218236
  0
ELLIPSE
  5
26EA
330
1F
100
AcDbEntity
  8
1
100
AcDbEllipse
 10
52.72507276369998
 20
0.0106073265499873
 30
0.0
 11
149.2820323027479
 21
0.0
 31
0.0
210
0.0
220
0.0
230
1.0
 40
0.2679491924
 41
4.850325976803079
 42
4.853864745540453
  0
LINE
  5
26EB
330
1F
100
AcDbEntity
  8
1
100
AcDbLine
 10
73.8929977729
 20
-39.15290777835001
 30
0.0
 11
73.8929977729
 21
-39.52422975245001
 31
0.0
  0
LINE
  5
26EC
330
1F
100
AcDbEntity
  8
1
100
AcDbLine
 10
74.60475014689999
 20
-38.6494948960223
 30
0.0
 11
74.60475014689999
 21
-39.02314292015001
 31
0.0
  0
LINE
  5
26ED
330
1F
100
AcDbEntity
  8
1
100
AcDbLine
 10
75.3165025209
 20
-37.99817983641796
 30
0.0
 11
75.3165025209
 21
-38.33195592445001
 31
0.0
  0
LINE
  5
26EE
330
1F
100
AcDbEntity
  8
1
100
AcDbLine
 10
76.028254895
 20
-37.14531916267294
 30
0.0
 11
76.028254895
 21
-37.44014484045
 31
0.0
  0
ELLIPSE
  5
26FF
330
1F
100
AcDbEntity
  8
1
100
AcDbEllipse
 10
72.26320009439999
 20
0.0106073265499873
 30
0.0
 11
0.0
 21
40.0
 31
0.0
210
0.0
220
0.0
230
1.0
 40
0.2679491924
 41
3.560359200354618
 42
3.572496057898258
  0
LWPOLYLINE
  5
2701
330
1F
100
AcDbEntity
  8
1
100
AcDbPolyline
 90
        8
 70
   128
 43
0.0
 10
76.07473815930001
 20
-34.19189786405
 10
76.03373069229999
 20
-34.15567940305
 10
76.01693124349998
 20
-34.11461002335001
 10
76.01860185149998
 20
-34.10631494565001
 10
76.02624812329998
 20
-34.06834887545001
 10
76.06608078489999
 20
-34.02534095655001
 10
76.11602977270002
 20
-34.00005877385001
 10
76.1639474188
 20
-33.98777170415002
  0
ELLIPSE
  5
2702
330
1F
100
AcDbEntity
  8
1
100
AcDbEllipse
 10
6.716676058100005
 20
0.0106073265499873
 30
0.0
 11
149.2820323027478
 21
0.0
 31
0.0
210
0.0
220
0.0
230
1.0
 40
0.2679491924
 41
5.190880538167368
 42
5.205128504431329
  0
LWPOLYLINE
  5
2706
330
1F
100
AcDbEntity
  8
1
100
AcDbPolyline
 90
        8
 70
   128
 43
0.0
 10
75.3629857853
 20
-35.66773158804999
 10
75.32259433169997
 20
-35.63815015085001
 10
75.30534398
 20
-35.60423978135
 10
75.30699799770001
 20
-35.59616418125001
 10
75.3129908562
 20
-35.56690456035001
 10
75.3484447177
 20
-35.53206284435001
 10
75.40549954579998
 20
-35.50693131885001
 10
75.45219504470001
 20
-35.49701189685001
  0
ARC
  5
2708
330
1F
100
AcDbEntity
  8
1
100
AcDbCircle
 10
77.6093114521
 20
-30.21687047115001
 30
0.0
 40
0.1664538406092389
100
AcDbArc
 50
97.54607356220013
 51
228.1438025935001
  0
LINE
  5
2709
330
1F
100
AcDbEntity
  8
1
100
AcDbLine
 10
78.87526439110001
 20
-31.37263847545427
 30
0.0
 11
78.87526439110001
 21
-31.47061551495001
 31
0.0
  0
ARC
  5
270B
330
1F
100
AcDbEntity
  8
1
100
AcDbCircle
 10
103.5518242892
 20
0.0106073265499873
 30
0.0
 40
40.00000000000009
100
AcDbArc
 50
229.3573266650003
 51
231.9088732272
  0
ELLIPSE
  5
270C
330
1F
100
AcDbEntity
  8
1
100
AcDbEllipse
 10
72.26320009439999
 20
0.0106073265499873
 30
0.0
 11
0.0
 21
40.0
 31
0.0
210
0.0
220
0.0
230
1.0
 40
0.2679491924
 41
3.792434149095681
 42
3.8064082315692
  0
ELLIPSE
  5
270D
330
1F
100
AcDbEntity
  8
1
100
AcDbEllipse
 10
-11.68668262409995
 20
0.0106073265499873
 30
0.0
 11
149.2820323027478
 21
0.0
 31
0.0
210
0.0
220
0.0
230
1.0
 40
0.2679491924
 41
5.347485816027757
 42
5.363230475890564
  0
LWPOLYLINE
  5
270E
330
1F
100
AcDbEntity
  8
1
100
AcDbPolyline
 90
        8
 70
   128
 43
0.0
 10
76.7864905333
 20
-32.43268223855
 10
76.73998648380003
 20
-32.37972427895
 10
76.72845225360001
 20
-32.33070429745001
 10
76.7282101326
 20
-32.32967529385
 10
76.7454194142
 20
-32.27165690865001
 10
76.78603473550001
 20
-32.22819174165
 10
76.83644687430001
 20
-32.20110025255002
 10
76.87569979279999
 20
-32.18996275235001
  0
ARC
  5
270F
330
1F
100
AcDbEntity
  8
1
100
AcDbCircle
 10
100.1837758927999
 20
0.0106073265499873
 30
0.0
 40
40.00000000000009
100
AcDbArc
 50
234.2018042660001
 51
236.5982254237998
  0
ELLIPSE
  5
2710
330
1F
100
AcDbEntity
  8
1
100
AcDbEllipse
 10
72.26320009439999
 20
0.0106073265499873
 30
0.0
 11
0.0
 21
40.0
 31
0.0
210
0.0
220
0.0
230
1.0
 40
0.2679491924
 41
3.711374879555865
 42
3.724563595954093
  0
ELLIPSE
  5
2711
330
1F
100
AcDbEntity
  8
1
100
AcDbEllipse
 10
-2.485003283000009
 20
0.0106073265499873
 30
0.0
 11
149.2820323027478
 21
0.0
 31
0.0
210
0.0
220
0.0
230
1.0
 40
0.2679491924
 41
5.267276936386596
 42
5.282171206350738
  0
ARC
  5
2712
330
1F
100
AcDbEntity
  8
1
100
AcDbCircle
 10
96.81572749650001
 20
0.0106073265499873
 30
0.0
 40
40.00000000000007
100
AcDbArc
 50
238.7666545384995
 51
241.0465289501996
  0
ELLIPSE
  5
2713
330
1F
100
AcDbEntity
  8
1
100
AcDbEllipse
 10
72.26320009439999
 20
0.0106073265499873
 30
0.0
 11
0.0
 21
40.0
 31
0.0
210
0.0
220
0.0
230
1.0
 40
0.2679491924
 41
3.634332177636461
 42
3.646926053290008
  0
LINE
  5
2714
330
1F
100
AcDbEntity
  8
1
100
AcDbLine
 10
77.45175964300002
 20
-34.78064315135613
 30
0.0
 11
77.451759643
 21
-34.98991765475001
 31
0.0
  0
LINE
  5
2715
330
1F
100
AcDbEntity
  8
1
100
AcDbLine
 10
78.1635120171
 20
-33.22346588520851
 30
0.0
 11
78.1635120171
 21
-33.38262520395
 31
0.0
  0
ELLIPSE
  5
271F
330
1F
100
AcDbEntity
  8
1
100
AcDbEllipse
 10
72.26320009439999
 20
0.0106073265499873
 30
0.0
 11
0.0
 21
40.0
 31
0.0
210
0.0
220
0.0
230
1.0
 40
0.2679491924
 41
3.878854698285098
 42
3.899633419016056
  0
ELLIPSE
  5
2720
330
1F
100
AcDbEntity
  8
1
100
AcDbEllipse
 10
-20.88836196529999
 20
0.0106073265499873
 30
0.0
 11
149.2820323027478
 21
0.0
 31
0.0
210
0.0
220
0.0
230
1.0
 40
0.2679491924
 41
5.432759082594968
 42
5.449651025079993
  0
LINE
  5
2723
330
1F
100
AcDbEntity
  8
3
100
AcDbLine
 10
68.50215154759999
 20
-15.98939267345
 30
0.0
 11
67.0
 21
-13.48939267345
 31
0.0
  0
LINE
  5
2724
330
1F
100
AcDbEntity
  8
3
100
AcDbLine
 10
67.0
 20
-18.48939267345001
 30
0.0
 11
68.50215154759999
 21
-15.98939267345
 31
0.0
  0
LINE
  5
2725
330
1F
100
AcDbEntity
  8
3
100
AcDbLine
 10
71.5
 20
-11.58939267345
 30
0.0
 11
56.0
 21
-11.58939267345
 31
0.0
  0
LINE
  5
2726
330
1F
100
AcDbEntity
  8
3
100
AcDbLine
 10
56.0
 20
-18.38939267345
 30
0.0
 11
71.5
 21
-18.38939267345
 31
0.0
  0
LINE
  5
2729
330
1F
100
AcDbEntity
  8
3
100
AcDbLine
 10
56.0
 20
-20.98939267345001
 30
0.0
 11
56.0
 21
-10.98939267345
 31
0.0
  0
LINE
  5
272C
330
1F
100
AcDbEntity
  8
3
100
AcDbLine
 10
67.0
 20
-13.48939267345
 30
0.0
 11
52.0
 21
-13.48939267345
 31
0.0
  0
LINE
  5
272D
330
1F
100
AcDbEntity
  8
3
100
AcDbLine
 10
52.0
 20
-18.48939267345001
 30
0.0
 11
67.0
 21
-18.48939267345001
 31
0.0
  0
LINE
  5
2732
330
1F
100
AcDbEntity
  8
3
100
AcDbLine
 10
52.0
 20
-20.98939267345001
 30
0.0
 11
56.0
 21
-20.98939267345001
 31
0.0
  0
LINE
  5
2733
330
1F
100
AcDbEntity
  8
3
100
AcDbLine
 10
67.0
 20
-18.48939267345001
 30
0.0
 11
67.0
 21
-13.48939267345
 31
0.0
  0
LINE
  5
2735
330
1F
100
AcDbEntity
  8
3
100
AcDbLine
 10
56.0
 20
-10.98939267345
 30
0.0
 11
52.0
 21
-10.98939267345
 31
0.0
  0
LWPOLYLINE
  5
2737
330
1F
100
AcDbEntity
  8
1
100
AcDbPolyline
 90
        3
 70
   128
 43
0.0
 10
51.0
 20
31.99497851005
 10
51.3504861568
 20
32.10071968004998
 10
51.5227116419
 20
32.09490942764998
  0
LINE
  5
2739
330
1F
100
AcDbEntity
  8
1
100
AcDbLine
 10
52.0
 20
34.76060732655
 30
0.0
 11
38.3449511631
 21
34.76060732655
 31
0.0
  0
LINE
  5
273B
330
1F
100
AcDbEntity
  8
1
100
AcDbLine
 10
43.46153922990001
 20
0.6436590569499856
 30
0.0
 11
41.1825307345
 21
3.324914101049984
 31
0.0
  0
LINE
  5
273D
330
1F
100
AcDbEntity
  8
1
100
AcDbLine
 10
41.1825307345
 20
3.324914101049984
 30
0.0
 11
37.72099150470001
 21
2.691862370649984
 31
0.0
  0
LINE
  5
273E
330
1F
100
AcDbEntity
  8
1
100
AcDbLine
 10
36.53846077010001
 20
-0.6224444037500092
 30
0.0
 11
37.72099150470001
 21
2.691862370649984
 31
0.0
  0
ARC
  5
2740
330
1F
100
AcDbEntity
  8
1
100
AcDbCircle
 10
35.0000050867
 20
72.52111306435002
 30
0.0
 40
37.90881131441835
100
AcDbArc
 50
264.9423377122995
 51
275.0621702881002
  0
ARC
  5
2744
330
1F
100
AcDbEntity
  8
1
100
AcDbCircle
 10
23.10279153163253
 20
32.85509243867702
 30
0.0
 40
3.999999999999993
100
AcDbArc
 50
133.5889602498999
 51
155.0105123987997
  0
ARC
  5
2746
330
1F
100
AcDbEntity
  8
1
100
AcDbCircle
 10
23.10279153163253
 20
32.85509243867702
 30
0.0
 40
4.00000000000002
100
AcDbArc
 50
25.2410140575901
 51
46.41103975009936
  0
LINE
  5
2747
330
1F
100
AcDbEntity
  8
1
100
AcDbLine
 10
31.6580300313
 20
34.76060732655
 30
0.0
 11
28.4848703753
 21
34.76060732655
 31
0.0
  0
LINE
  5
2748
330
1F
100
AcDbEntity
  8
3
100
AcDbLine
 10
68.50215154759999
 20
16.01060732654998
 30
0.0
 11
67.0
 21
18.51060732654998
 31
0.0
  0
LINE
  5
2749
330
1F
100
AcDbEntity
  8
3
100
AcDbLine
 10
67.0
 20
13.51060732654998
 30
0.0
 11
68.50215154759999
 21
16.01060732654998
 31
0.0
  0
LINE
  5
274A
330
1F
100
AcDbEntity
  8
3
100
AcDbLine
 10
71.5
 20
18.41060732654998
 30
0.0
 11
56.0
 21
18.41060732654998
 31
0.0
  0
LINE
  5
274B
330
1F
100
AcDbEntity
  8
3
100
AcDbLine
 10
56.0
 20
11.61060732654999
 30
0.0
 11
71.5
 21
11.61060732654999
 31
0.0
  0
LINE
  5
274E
330
1F
100
AcDbEntity
  8
3
100
AcDbLine
 10
67.0
 20
18.51060732654998
 30
0.0
 11
52.0
 21
18.51060732654998
 31
0.0
  0
LINE
  5
274F
330
1F
100
AcDbEntity
  8
3
100
AcDbLine
 10
52.0
 20
13.51060732654998
 30
0.0
 11
67.0
 21
13.51060732654998
 31
0.0
  0
LINE
  5
2753
330
1F
100
AcDbEntity
  8
3
100
AcDbLine
 10
56.0
 20
11.01060732654998
 30
0.0
 11
56.0
 21
21.01060732654997
 31
0.0
  0
LINE
  5
2757
330
1F
100
AcDbEntity
  8
3
100
AcDbLine
 10
52.0
 20
11.01060732654998
 30
0.0
 11
56.0
 21
11.01060732654998
 31
0.0
  0
LINE
  5
2758
330
1F
100
AcDbEntity
  8
3
100
AcDbLine
 10
56.0
 20
21.01060732654997
 30
0.0
 11
52.0
 21
21.01060732654997
 31
0.0
  0
LINE
  5
2759
330
1F
100
AcDbEntity
  8
3
100
AcDbLine
 10
67.0
 20
13.51060732654998
 30
0.0
 11
67.0
 21
18.51060732654998
 31
0.0
  0
LINE
  5
275C
330
1F
100
AcDbEntity
  8
3
100
AcDbLine
 10
71.5
 20
33.41060732654998
 30
0.0
 11
52.0
 21
33.41060732654998
 31
0.0
  0
LINE
  5
275D
330
1F
100
AcDbEntity
  8
3
100
AcDbLine
 10
52.0
 20
26.61060732654997
 30
0.0
 11
71.5
 21
26.61060732654997
 31
0.0
  0
LINE
  5
275E
330
1F
100
AcDbEntity
  8
1
100
AcDbLine
 10
71.5
 20
40.01060732655
 30
0.0
 11
66.0
 21
40.01060732655
 31
0.0
  0
ARC
  5
2760
330
1F
100
AcDbEntity
  8
1
100
AcDbCircle
 10
50.85756177149995
 20
31.16569803734998
 30
0.0
 40
1.142741509673546
100
AcDbArc
 50
358.6799331655999
 51
54.40408273720005
  0
LINE
  5
2762
330
1F
100
AcDbEntity
  8
1
100
AcDbLine
 10
62.0
 20
36.01060732655
 30
0.0
 11
52.0
 21
36.01060732655
 31
0.0
  0
LINE
  5
2763
330
1F
100
AcDbEntity
  8
1
100
AcDbLine
 10
66.0
 20
40.01060732655
 30
0.0
 11
62.0
 21
36.01060732655
 31
0.0
  0
ELLIPSE
  5
2764
330
1F
100
AcDbEntity
  8
1
100
AcDbEllipse
 10
-2.485003283000009
 20
0.0106073265499873
 30
0.0
 11
149.2820323027478
 21
0.0
 31
0.0
210
0.0
220
0.0
230
1.0
 40
0.2679491924
 41
1.001014100828865
 42
1.015908370793005
  0
ELLIPSE
  5
2767
330
1F
100
AcDbEntity
  8
1
100
AcDbEllipse
 10
72.26320009439999
 20
0.0106073265499873
 30
0.0
 11
0.0
 21
40.0
 31
0.0
210
0.0
220
0.0
230
1.0
 40
0.2679491924
 41
5.700214364815362
 42
5.71340308121359
  0
ARC
  5
2768
330
1F
100
AcDbEntity
  8
1
100
AcDbCircle
 10
100.1837758927999
 20
0.0106073265499873
 30
0.0
 40
40.00000000000013
100
AcDbArc
 50
123.4017745762002
 51
125.7981957339997
  0
LWPOLYLINE
  5
2769
330
1F
100
AcDbEntity
  8
1
100
AcDbPolyline
 90
        8
 70
   128
 43
0.0
 10
76.87569979279999
 20
32.21117740544994
 10
76.81899774989997
 20
32.22974036774997
 10
76.77546117489999
 20
32.25785949934999
 10
76.74304734479999
 20
32.29693215304997
 10
76.72827473419999
 20
32.34811148794998
 10
76.72919458739997
 20
32.35181300254998
 10
76.7426664953
 20
32.40602432954998
 10
76.7864905333
 20
32.45389689165
  0
ELLIPSE
  5
276A
330
1F
100
AcDbEntity
  8
1
100
AcDbEllipse
 10
-11.68668262409995
 20
0.0106073265499873
 30
0.0
 11
149.2820323027478
 21
0.0
 31
0.0
210
0.0
220
0.0
230
1.0
 40
0.2679491924
 41
0.9199548312890437
 42
0.9356994911518468
  0
ELLIPSE
  5
276B
330
1F
100
AcDbEntity
  8
1
100
AcDbEllipse
 10
72.26320009439999
 20
0.0106073265499873
 30
0.0
 11
0.0
 21
40.0
 31
0.0
210
0.0
220
0.0
230
1.0
 40
0.2679491924
 41
5.618369729200247
 42
5.632343811673766
  0
ARC
  5
276C
330
1F
100
AcDbEntity
  8
1
100
AcDbCircle
 10
103.5518242892
 20
0.0106073265499873
 30
0.0
 40
40.00000000000015
100
AcDbArc
 50
128.0911267727999
 51
130.6426733349995
  0
ARC
  5
276D
330
1F
100
AcDbEntity
  8
1
100
AcDbCircle
 10
77.60660791060002
 20
30.23725056154997
 30
0.0
 40
0.165291456186504
100
AcDbArc
 50
130.9651261935002
 51
263.3449976508001
  0
ELLIPSE
  5
276E
330
1F
100
AcDbEntity
  8
1
100
AcDbEllipse
 10
-20.88836196529999
 20
0.0106073265499873
 30
0.0
 11
149.2820323027478
 21
0.0
 31
0.0
210
0.0
220
0.0
230
1.0
 40
0.2679491924
 41
0.833534282099619
 42
0.8504262245846405
  0
ELLIPSE
  5
276F
330
1F
100
AcDbEntity
  8
1
100
AcDbEllipse
 10
72.26320009439999
 20
0.0106073265499873
 30
0.0
 11
0.0
 21
40.0
 31
0.0
210
0.0
220
0.0
230
1.0
 40
0.2679491924
 41
5.525144541753379
 42
5.545923262484341
  0
LINE
  5
2770
330
1F
100
AcDbEntity
  8
1
100
AcDbLine
 10
78.1635120171
 20
33.40383985714999
 30
0.0
 11
78.1635120171
 21
33.22412089800241
 31
0.0
  0
LINE
  5
2771
330
1F
100
AcDbEntity
  8
1
100
AcDbLine
 10
78.87526439110001
 20
31.49183016804999
 30
0.0
 11
78.87526439110001
 21
31.36899123795807
 31
0.0
  0
ELLIPSE
  5
277B
330
1F
100
AcDbEntity
  8
1
100
AcDbEllipse
 10
15.9183553992
 20
0.0106073265499873
 30
0.0
 11
149.2820323027478
 21
0.0
 31
0.0
210
0.0
220
0.0
230
1.0
 40
0.2679491924
 41
1.152029780030114
 42
1.165780540505789
  0
ARC
  5
277C
330
1F
100
AcDbEntity
  8
1
100
AcDbCircle
 10
93.44767910020001
 20
0.0106073265499873
 30
0.0
 40
40.00000000000009
100
AcDbArc
 50
114.6889464447002
 51
116.8796111908996
  0
ELLIPSE
  5
277D
330
1F
100
AcDbEntity
  8
1
100
AcDbEllipse
 10
6.716676058100005
 20
0.0106073265499873
 30
0.0
 11
149.2820323027478
 21
0.0
 31
0.0
210
0.0
220
0.0
230
1.0
 40
0.2679491924
 41
1.078056802748269
 42
1.092304769012232
  0
LWPOLYLINE
  5
277E
330
1F
100
AcDbEntity
  8
1
100
AcDbPolyline
 90
        8
 70
   128
 43
0.0
 10
76.1639474188
 20
34.00898635734998
 10
76.10636199439999
 20
34.02495582074998
 10
76.06176540660001
 20
34.04968577364996
 10
76.02982483619998
 20
34.08338448724999
 10
76.01646747300001
 20
34.12588528235
 10
76.01690599040002
 20
34.12732907274996
 10
76.03057944419998
 20
34.17234804024996
 10
76.07473815930001
 20
34.21311251714998
  0
ELLIPSE
  5
2782
330
1F
100
AcDbEntity
  8
1
100
AcDbEllipse
 10
15.9183553992
 20
0.0106073265499873
 30
0.0
 11
149.2820323027478
 21
0.0
 31
0.0
210
0.0
220
0.0
230
1.0
 40
0.2679491924
 41
1.152029780030114
 42
1.165780540505789
  0
ARC
  5
2783
330
1F
100
AcDbEntity
  8
1
100
AcDbCircle
 10
79.97548551489998
 20
0.0106073265499873
 30
0.0
 40
40.00000000000003
100
AcDbArc
 50
98.74645265089974
 51
100.7478827054
  0
LINE
  5
2784
330
1F
100
AcDbEntity
  8
1
100
AcDbLine
 10
73.8929977729
 20
39.54544440564996
 30
0.0
 11
73.8929977729
 21
39.17412243154997
 31
0.0
  0
LWPOLYLINE
  5
2786
330
1F
100
AcDbEntity
  8
1
100
AcDbPolyline
 90
        9
 70
   128
 43
0.0
 10
72.60518554860002
 20
39.24423877384997
 10
72.5448731626
 20
39.24971147044999
 10
72.4972366554
 20
39.25869837885
 10
72.4669499677
 20
39.27026904354995
 10
72.45870411090002
 20
39.28194937005
 10
72.4578035742
 20
39.28322498794996
 10
72.47168995979999
 20
39.29604636344999
 10
72.50732333169998
 20
39.30714746314999
 10
72.51597628909999
 20
39.30889891934997
  0
ELLIPSE
  5
2787
330
1F
100
AcDbEntity
  8
1
100
AcDbEllipse
 10
43.52339342260001
 20
0.0106073265499873
 30
0.0
 11
149.2820323027478
 21
0.0
 31
0.0
210
0.0
220
0.0
230
1.0
 40
0.2679491924
 41
1.361867960986061
 42
1.374731502949732
  0
ELLIPSE
  5
2788
330
1F
100
AcDbEntity
  8
1
100
AcDbEllipse
 10
72.26320009439999
 20
0.0106073265499873
 30
0.0
 11
0.0
 21
40.0
 31
0.0
210
0.0
220
0.0
230
1.0
 40
0.2679491924
 41
6.0629394026255
 42
6.074256941370806
  0
ARC
  5
2789
330
1F
100
AcDbEntity
  8
1
100
AcDbCircle
 10
83.34353391119998
 20
0.0106073265499873
 30
0.0
 40
40.00000000000005
100
AcDbArc
 50
102.6191607859999
 51
104.6488975116998
  0
LWPOLYLINE
  5
278A
330
1F
100
AcDbEntity
  8
1
100
AcDbPolyline
 90
        9
 70
   128
 43
0.0
 10
73.31693792259994
 20
38.62179558604998
 10
73.2569603867
 20
38.62919403845001
 10
73.20968086979998
 20
38.64127160284999
 10
73.17916952500002
 20
38.65694511524996
 10
73.17030577
 20
38.67332833904999
 10
73.1695210435
 20
38.67477877964997
 10
73.18341022939998
 20
38.69265473944997
 10
73.2198456948
 20
38.70817117494999
 10
73.2277286632
 20
38.71035518344999
  0
ELLIPSE
  5
278B
330
1F
100
AcDbEntity
  8
1
100
AcDbEllipse
 10
34.32171408139998
 20
0.0106073265499873
 30
0.0
 11
149.2820323027478
 21
0.0
 31
0.0
210
0.0
220
0.0
230
1.0
 40
0.2679491924
 41
1.293434676287241
 42
1.306512043374634
  0
ELLIPSE
  5
278C
330
1F
100
AcDbEntity
  8
1
100
AcDbEllipse
 10
72.26320009439999
 20
0.0106073265499873
 30
0.0
 11
0.0
 21
40.0
 31
0.0
210
0.0
220
0.0
230
1.0
 40
0.2679491924
 41
5.994307203949036
 42
6.005823656671982
  0
ARC
  5
278D
330
1F
100
AcDbEntity
  8
1
100
AcDbCircle
 10
86.7115823075
 20
0.0106073265499873
 30
0.0
 40
40.00000000000003
100
AcDbArc
 50
106.5514961089
 51
108.6207502140001
  0
LWPOLYLINE
  5
278E
330
1F
100
AcDbEntity
  8
1
100
AcDbPolyline
 90
        9
 70
   128
 43
0.0
 10
74.02869029669997
 20
37.80290897595
 10
73.96914962529999
 20
37.81228965694998
 10
73.92234207280002
 20
37.82746987544999
 10
73.89154814029999
 20
37.84735034074997
 10
73.88184837149998
 20
37.86904747564998
 10
73.88123744770002
 20
37.87041403354999
 10
73.89513533959997
 20
37.89389516104996
 10
73.93270688060001
 20
37.91432185614999
 10
73.93948103720001
 20
37.91672067444997
  0
ELLIPSE
  5
278F
330
1F
100
AcDbEntity
  8
1
100
AcDbEllipse
 10
25.12003474029997
 20
0.0106073265499873
 30
0.0
 11
149.2820323027478
 21
0.0
 31
0.0
210
0.0
220
0.0
230
1.0
 40
0.2679491924
 41
1.223638580870268
 42
1.237006669745374
  0
ELLIPSE
  5
2790
330
1F
100
AcDbEntity
  8
1
100
AcDbEllipse
 10
72.26320009439999
 20
0.0106073265499873
 30
0.0
 11
0.0
 21
40.0
 31
0.0
210
0.0
220
0.0
230
1.0
 40
0.2679491924
 41
5.924242732811037
 42
5.936027561255007
  0
ARC
  5
2791
330
1F
100
AcDbEntity
  8
1
100
AcDbCircle
 10
90.07963070389999
 20
0.0106073265499873
 30
0.0
 40
40.00000000000003
100
AcDbArc
 50
110.5658945989002
 51
112.6878207995
  0
LWPOLYLINE
  5
2792
330
1F
100
AcDbEntity
  8
1
100
AcDbPolyline
 90
        8
 70
   128
 43
0.0
 10
74.74044267069999
 20
36.77445440484999
 10
74.68144364459998
 20
36.78589843985
 10
74.635231742
 20
36.80420545194996
 10
74.6041023105
 20
36.82844258394999
 10
74.5933215618
 20
36.85629233854999
 10
74.5929605307
 20
36.85722498505
 10
74.60688278640001
 20
36.88709580495
 10
74.65123341119998
 20
36.91541130894996
  0
LWPOLYLINE
  5
2793
330
1F
100
AcDbEntity
  8
1
100
AcDbPolyline
 90
        8
 70
   128
 43
0.0
 10
75.45219504470001
 20
35.51822655005
 10
75.39384613790002
 20
35.53184974694996
 10
75.34836564369998
 20
35.55332844524996
 10
75.31685282480001
 20
35.58213782544999
 10
75.30470004979999
 20
35.61731099684996
 10
75.30471337979999
 20
35.61727241664996
 10
75.31868119250002
 20
35.65468165054996
 10
75.3629857853
 20
35.68894624114998
  0
LINE
  5
2794
330
1F
100
AcDbEntity
  8
1
100
AcDbLine
 10
74.60475014689999
 20
39.04435757324996
 30
0.0
 11
74.60475014689999
 21
38.64949489602224
 31
0.0
  0
LINE
  5
2795
330
1F
100
AcDbEntity
  8
1
100
AcDbLine
 10
75.3165025209
 20
38.35317057755
 30
0.0
 11
75.3165025209
 21
37.99817983641795
 31
0.0
  0
LINE
  5
2796
330
1F
100
AcDbEntity
  8
1
100
AcDbLine
 10
76.028254895
 20
37.46135949364997
 30
0.0
 11
76.02825489499998
 21
37.1453191626729
 31
0.0
  0
ARC
  5
2799
330
1F
100
AcDbEntity
  8
1
100
AcDbCircle
 10
90.07963070389999
 20
0.0106073265499873
 30
0.0
 40
40.00000000000003
100
AcDbArc
 50
110.5658945989002
 51
112.6878207995
  0
ELLIPSE
  5
279A
330
1F
100
AcDbEntity
  8
1
100
AcDbEllipse
 10
72.26320009439999
 20
0.0106073265499873
 30
0.0
 11
0.0
 21
40.0
 31
0.0
210
0.0
220
0.0
230
1.0
 40
0.2679491924
 41
5.924242732811037
 42
5.936027561255007
  0
ELLIPSE
  5
279B
330
1F
100
AcDbEntity
  8
1
100
AcDbEllipse
 10
25.12003474029997
 20
0.0106073265499873
 30
0.0
 11
149.2820323027478
 21
0.0
 31
0.0
210
0.0
220
0.0
230
1.0
 40
0.2679491924
 41
1.223638580870268
 42
1.237006669745374
  0
LWPOLYLINE
  5
279C
330
1F
100
AcDbEntity
  8
1
100
AcDbPolyline
 90
        8
 70
   128
 43
0.0
 10
74.02869029669997
 20
37.80290897595
 10
73.96914962529999
 20
37.81228965694998
 10
73.92234207280002
 20
37.82746987544999
 10
73.89154814029999
 20
37.84735034074997
 10
73.88123744770002
 20
37.87041403354999
 10
73.89513533959997
 20
37.89389516104996
 10
73.93270688060001
 20
37.91432185614999
 10
73.93948103720001
 20
37.91672067444997
  0
ARC
  5
279D
330
1F
100
AcDbEntity
  8
1
100
AcDbCircle
 10
86.7115823075
 20
0.0106073265499873
 30
0.0
 40
40.00000000000003
100
AcDbArc
 50
106.5514961089
 51
108.6207502140001
  0
ELLIPSE
  5
279E
330
1F
100
AcDbEntity
  8
1
100
AcDbEllipse
 10
72.26320009439999
 20
0.0106073265499873
 30
0.0
 11
0.0
 21
40.0
 31
0.0
210
0.0
220
0.0
230
1.0
 40
0.2679491924
 41
5.994307203949036
 42
6.005823656671982
  0
LINE
  5
27A5
330
1F
100
AcDbEntity
  8
1
100
AcDbLine
 10
73.25135220529999
 20
39.63067799784997
 30
0.0
 11
71.5
 21
39.63067799784997
 31
0.0
  0
ELLIPSE
  5
27A9
330
1F
100
AcDbEntity
  8
1
100
AcDbEllipse
 10
52.72507276369998
 20
0.0106073265499873
 30
0.0
 11
149.2820323027479
 21
0.0
 31
0.0
210
0.0
220
0.0
230
1.0
 40
0.2679491924
 41
1.429320561639134
 42
1.432859330376512
  0
ELLIPSE
  5
27AA
330
1F
100
AcDbEntity
  8
1
100
AcDbEllipse
 10
72.26320009439999
 20
0.0106073265499873
 30
0.0
 11
0.0
 21
40.0
 31
0.0
210
0.0
220
0.0
230
1.0
 40
0.2679491924
 41
6.130530910551244
 42
6.141709542023872
  0
ELLIPSE
  5
27AD
330
1F
100
AcDbEntity
  8
1
100
AcDbEllipse
 10
72.26320009439999
 20
0.0106073265499873
 30
0.0
 11
0.0
 21
40.0
 31
0.0
210
0.0
220
0.0
230
1.0
 40
0.2679491924
 41
5.852281902871204
 42
5.864418760414847
  0
ELLIPSE
  5
27AE
330
1F
100
AcDbEntity
  8
1
100
AcDbEllipse
 10
72.26320009439999
 20
0.0106073265499873
 30
0.0
 11
0.0
 21
40.0
 31
0.0
210
0.0
220
0.0
230
1.0
 40
0.2679491924
 41
5.77785190747945
 42
5.790445783132996
  0
ARC
  5
27AF
330
1F
100
AcDbEntity
  8
1
100
AcDbCircle
 10
96.81572749650001
 20
0.0106073265499873
 30
0.0
 40
40.00000000000007
100
AcDbArc
 50
118.9534710498002
 51
121.2333454615004
  0
LINE
  5
27B0
330
1F
100
AcDbEntity
  8
1
100
AcDbLine
 10
76.74000726899999
 20
36.35415836364998
 30
0.0
 11
76.74000726900001
 21
36.07887385814843
 31
0.0
  0
LINE
  5
27B1
330
1F
100
AcDbEntity
  8
1
100
AcDbLine
 10
77.451759643
 20
35.01113230794996
 30
0.0
 11
77.45175964300002
 21
34.78064315135616
 31
0.0
  0
LINE
  5
27B5
330
1F
100
AcDbEntity
  8
1
100
AcDbLine
 10
89.50000000000001
 20
27.66472094464998
 30
0.0
 11
89.50000000000001
 21
-27.64350629145001
 31
0.0
  0
LINE
  5
27B8
330
1F
100
AcDbEntity
  8
1
100
AcDbLine
 10
88.49999999999999
 20
29.05798242314998
 30
0.0
 11
88.49999999999999
 21
-29.03676776995002
 31
0.0
  0
LINE
  5
27BB
330
1F
100
AcDbEntity
  8
1
100
AcDbLine
 10
88.49999999999999
 20
-29.03676776995002
 30
0.0
 11
89.50000000000001
 21
-27.64350629145001
 31
0.0
  0
LINE
  5
27BD
330
1F
100
AcDbEntity
  8
1
100
AcDbLine
 10
89.50000000000001
 20
27.66472094464998
 30
0.0
 11
88.49999999999999
 21
29.05798242314998
 31
0.0
  0
LINE
  5
27BF
330
1F
100
AcDbEntity
  8
1
100
AcDbLine
 10
12.014088275
 20
36.01060732655
 30
0.0
 11
3.793954529499983
 21
36.01060732655
 31
0.0
  0
LINE
  5
27C0
330
1F
100
AcDbEntity
  8
1
100
AcDbLine
 10
2.854261908699982
 20
35.35262746994999
 30
0.0
 11
0.0
 21
27.51060732655
 31
0.0
  0
ARC
  5
27C1
330
1F
100
AcDbEntity
  8
1
100
AcDbCircle
 10
3.793954529499983
 20
35.01060732655
 30
0.0
 40
1.000000000000021
100
AcDbArc
 50
90.0
 51
159.9999999999998
  0
LINE
  5
27C2
330
1F
100
AcDbEntity
  8
1
100
AcDbLine
 10
0.0
 20
-27.48939267345001
 30
0.0
 11
2.854261908699982
 21
-35.33141281675
 31
0.0
  0
ARC
  5
27C3
330
1F
100
AcDbEntity
  8
1
100
AcDbCircle
 10
3.793954529499983
 20
-34.98939267345001
 30
0.0
 40
1.000000000000019
100
AcDbArc
 50
200.0
 51
270.0
  0
LINE
  5
27C4
330
1F
100
AcDbEntity
  8
1
100
AcDbLine
 10
3.793954529499983
 20
-35.98939267345
 30
0.0
 11
15.0
 21
-35.98939267345
 31
0.0
  0
DIMENSION
  5
27C5
330
1F
100
AcDbEntity
  8
2
100
AcDbDimension
  2
*D50
 10
89.50000000000001
 20
58.27234690204996
 30
0.0
 11
29.75
 21
58.27234690204996
 31
0.0
 70
   160
 71
     5
 42
119.5
  3
GEN-ISO_TDM
100
AcDbAlignedDimension
 13
-30.0
 23
14.11060732654999
 33
0.0
 14
89.50000000000001
 24
27.66472094464998
 34
0.0
100
AcDbRotatedDimension
  0
DIMENSION
  5
27C6
330
1F
100
AcDbEntity
  8
2
100
AcDbDimension
  2
*D51
 10
0.0000000000000013
 20
48.50154723786744
 30
0.0
 11
44.75
 21
48.50154723786744
 31
0.0
 70
   160
 71
     5
 42
89.50000000000001
  3
GEN-ISO_TDM
100
AcDbAlignedDimension
 13
89.50000000000001
 23
27.66472094464998
 33
0.0
 14
0.0
 24
27.51060732655
 34
0.0
100
AcDbRotatedDimension
  0
DIMENSION
  5
283B
330
1F
100
AcDbEntity
  8
SK2
100
AcDbDimension
  2
*D54
 10
-38.00124826579999
 20
-27.5
 30
0.0
 11
-38.00124826579999
 21
-0.0000000000000186
 31
0.0
 70
   160
  1
MBM %%c<>
 71
     5
 42
55.0
  3
GEN-ISO_TDM
100
AcDbAlignedDimension
 13
0.0
 23
27.5
 33
0.0
 14
0.0
 24
-27.50000000000001
 34
0.0
 50
90.0
100
AcDbRotatedDimension
  0
LINE
  5
285B
330
1F
100
AcDbEntity
  8
1
100
AcDbLine
 10
20.3448715415933
 20
35.75231133419421
 30
0.0
 11
25.86071152167184
 21
35.75231133419421
 31
0.0
  0
LINE
  5
28A1
330
1F
100
AcDbEntity
  8
1
100
AcDbLine
 10
78.87526439110001
 20
31.36899123795807
 30
0.0
 11
78.87526439110001
 21
29.76665652492264
 31
0.0
  0
LINE
  5
28A2
330
1F
100
AcDbEntity
  8
1
100
AcDbLine
 10
78.1635120171
 20
33.22412089800239
 30
0.0
 11
78.1635120171
 21
31.95400337502362
 31
0.0
  0
LINE
  5
28A3
330
1F
100
AcDbEntity
  8
1
100
AcDbLine
 10
77.45175964300002
 20
34.78064315135616
 30
0.0
 11
77.45175964300002
 21
33.79265612780414
 31
0.0
  0
LINE
  5
28A4
330
1F
100
AcDbEntity
  8
1
100
AcDbLine
 10
76.74000726900001
 20
36.07887385814843
 30
0.0
 11
76.74000726900001
 21
35.33710268339226
 31
0.0
  0
LINE
  5
28A5
330
1F
100
AcDbEntity
  8
1
100
AcDbLine
 10
76.02825489499998
 20
37.1453191626729
 30
0.0
 11
76.02825489499998
 21
36.62459249712346
 31
0.0
  0
LINE
  5
28A6
330
1F
100
AcDbEntity
  8
1
100
AcDbLine
 10
75.3165025209
 20
37.99817983641794
 30
0.0
 11
75.3165025209
 21
37.68148107315912
 31
0.0
  0
LINE
  5
28A7
330
1F
100
AcDbEntity
  8
1
100
AcDbLine
 10
74.60475014689999
 20
38.64949489602224
 30
0.0
 11
74.60475014689999
 21
38.52675628359639
 31
0.0
  0
LINE
  5
28A8
330
1F
100
AcDbEntity
  8
1
100
AcDbLine
 10
74.60475014689999
 20
-38.64949489602228
 30
0.0
 11
74.60475014689999
 21
-38.50554163049642
 31
0.0
  0
LINE
  5
28A9
330
1F
100
AcDbEntity
  8
1
100
AcDbLine
 10
75.3165025209
 20
-37.99817983641796
 30
0.0
 11
75.3165025209
 21
-37.66026642005914
 31
0.0
  0
LINE
  5
28AA
330
1F
100
AcDbEntity
  8
1
100
AcDbLine
 10
76.028254895
 20
-37.14531916267294
 30
0.0
 11
76.028254895
 21
-36.60337784402347
 31
0.0
  0
LINE
  5
28AB
330
1F
100
AcDbEntity
  8
1
100
AcDbLine
 10
76.74000726900001
 20
-36.07887385814847
 30
0.0
 11
76.74000726900001
 21
-35.31588803029228
 31
0.0
  0
LINE
  5
28AC
330
1F
100
AcDbEntity
  8
1
100
AcDbLine
 10
77.45175964300002
 20
-34.78064315135613
 30
0.0
 11
77.45175964300002
 21
-33.77144147470417
 31
0.0
  0
LINE
  5
28AD
330
1F
100
AcDbEntity
  8
1
100
AcDbLine
 10
78.1635120171
 20
-33.22346588520853
 30
0.0
 11
78.1635120171
 21
-31.93278872192364
 31
0.0
  0
LINE
  5
28AE
330
1F
100
AcDbEntity
  8
1
100
AcDbLine
 10
78.87526439110001
 20
-31.37263847545427
 30
0.0
 11
78.87526439110001
 21
-29.74544187182266
 31
0.0
  0
LINE
  5
28AF
330
1F
100
AcDbEntity
  8
1
100
AcDbLine
 10
71.5
 20
-39.60946334475001
 30
0.0
 11
71.5
 21
-39.98939267344999
 31
0.0
  0
LINE
  5
28B0
330
1F
100
AcDbEntity
  8
3
100
AcDbLine
 10
71.5
 20
39.63067799784996
 30
0.0
 11
71.5
 21
-39.60946334475001
 31
0.0
  0
LINE
  5
28B1
330
1F
100
AcDbEntity
  8
3
100
AcDbLine
 10
6.0
 20
7.260607326549988
 30
0.0
 11
0.0
 21
7.260607326549988
 31
0.0
  0
LINE
  5
28B2
330
1F
100
AcDbEntity
  8
3
100
AcDbLine
 10
6.0
 20
-7.239392673450011
 30
0.0
 11
0.0
 21
-7.239392673450011
 31
0.0
  0
LINE
  5
28B4
330
1F
100
AcDbEntity
  8
SK3
100
AcDbLine
 10
0.0
 20
7.260607326549988
 30
0.0
 11
-26.25529691083929
 21
7.260607326549988
 31
0.0
  0
LINE
  5
28B5
330
1F
100
AcDbEntity
  8
SK3
100
AcDbLine
 10
0.0
 20
-7.239392673450011
 30
0.0
 11
-26.24254986352866
 21
-7.239392673450011
 31
0.0
  0
ENDSEC
  0
SECTION
  2
OBJECTS
  0
DICTIONARY
  5
C
330
0
100
AcDbDictionary
281
     1
  3
ACAD_GROUP
350
D
  3
ACAD_LAYOUT
350
1A
  3
ACAD_MLINESTYLE
350
17
  3
ACAD_PLOTSETTINGS
350
19
  3
ACAD_PLOTSTYLENAME
350
E
  3
AcDbVariableDictionary
350
290
  0
DICTIONARY
  5
296
330
2
100
AcDbDictionary
280
     1
281
     1
  3
ACAD_LAYERSTATES
360
297
  0
DICTIONARY
  5
D
102
{ACAD_REACTORS
330
C
102
}
330
C
100
AcDbDictionary
281
     1
  0
DICTIONARY
  5
1A
102
{ACAD_REACTORS
330
C
102
}
330
C
100
AcDbDictionary
281
     1
  3
Layout1
350
1E
  3
Layout2
350
26
  3
Model
350
22
  0
DICTIONARY
  5
17
102
{ACAD_REACTORS
330
C
102
}
330
C
100
AcDbDictionary
281
     1
  3
Standard
350
18
  0
DICTIONARY
  5
19
102
{ACAD_REACTORS
330
C
102
}
330
C
100
AcDbDictionary
281
     1
  0
ACDBDICTIONARYWDFLT
  5
E
102
{ACAD_REACTORS
330
C
102
}
330
C
100
AcDbDictionary
281
     1
  3
Normal
350
F
100
AcDbDictionaryWithDefault
340
F
  0
DICTIONARY
  5
290
102
{ACAD_REACTORS
330
C
102
}
330
C
100
AcDbDictionary
281
     1
  3
DIMASSOC
350
291
  0
DICTIONARY
  5
297
102
{ACAD_REACTORS
330
296
102
}
330
296
100
AcDbDictionary
281
     1
  0
LAYOUT
  5
1E
102
{ACAD_REACTORS
330
1A
102
}
330
1A
100
AcDbPlotSettings
  1

  2

  4

  6

 40
0.0
 41
0.0
 42
0.0
 43
0.0
 44
0.0
 45
0.0
 46
0.0
 47
0.0
 48
0.0
 49
0.0
140
0.0
141
0.0
142
1.0
143
1.0
 70
   688
 72
     0
 73
     0
 74
     5
  7

 75
    16
147
1.0
148
0.0
149
0.0
100
AcDbLayout
  1
Layout1
 70
     1
 71
     1
 10
0.0
 20
0.0
 11
420.0
 21
297.0
 12
0.0
 22
0.0
 32
0.0
 14
1.000000000000000E+20
 24
1.000000000000000E+20
 34
1.000000000000000E+20
 15
-1.000000000000000E+20
 25
-1.000000000000000E+20
 35
-1.000000000000000E+20
146
0.0
 13
0.0
 23
0.0
 33
0.0
 16
1.0
 26
0.0
 36
0.0
 17
0.0
 27
1.0
 37
0.0
 76
     0
330
1B
  0
LAYOUT
  5
26
102
{ACAD_REACTORS
330
1A
102
}
330
1A
100
AcDbPlotSettings
  1

  2

  4

  6

 40
0.0
 41
0.0
 42
0.0
 43
0.0
 44
0.0
 45
0.0
 46
0.0
 47
0.0
 48
0.0
 49
0.0
140
0.0
141
0.0
142
1.0
143
1.0
 70
   688
 72
     0
 73
     0
 74
     5
  7

 75
    16
147
1.0
148
0.0
149
0.0
100
AcDbLayout
  1
Layout2
 70
     1
 71
     2
 10
0.0
 20
0.0
 11
0.0
 21
0.0
 12
0.0
 22
0.0
 32
0.0
 14
0.0
 24
0.0
 34
0.0
 15
0.0
 25
0.0
 35
0.0
146
0.0
 13
0.0
 23
0.0
 33
0.0
 16
1.0
 26
0.0
 36
0.0
 17
0.0
 27
1.0
 37
0.0
 76
     0
330
23
  0
LAYOUT
  5
22
102
{ACAD_REACTORS
330
1A
102
}
330
1A
100
AcDbPlotSettings
  1

  2

  4

  6

 40
0.0
 41
0.0
 42
0.0
 43
0.0
 44
0.0
 45
0.0
 46
0.0
 47
0.0
 48
0.0
 49
0.0
140
0.0
141
0.0
142
1.0
143
1.0
 70
  1712
 72
     0
 73
     0
 74
     0
  7

 75
     0
147
1.0
148
0.0
149
0.0
100
AcDbLayout
  1
Model
 70
     1
 71
     0
 10
0.0
 20
0.0
 11
0.0
 21
0.0
 12
0.0
 22
0.0
 32
0.0
 14
0.0
 24
0.0
 34
0.0
 15
297.0
 25
210.0
 35
0.0
146
0.0
 13
0.0
 23
0.0
 33
0.0
 16
1.0
 26
0.0
 36
0.0
 17
0.0
 27
1.0
 37
0.0
 76
     0
330
1F
  0
MLINESTYLE
  5
18
102
{ACAD_REACTORS
330
17
102
}
330
17
100
AcDbMlineStyle
  2
STANDARD
 70
     0
  3

 62
   256
 51
90.0
 52
90.0
 71
     2
 49
0.5
 62
   256
  6
BYLAYER
 49
-0.5
 62
   256
  6
BYLAYER
  0
ACDBPLACEHOLDER
  5
F
102
{ACAD_REACTORS
330
E
102
}
330
E
  0
DICTIONARYVAR
  5
291
102
{ACAD_REACTORS
330
290
102
}
330
290
100
DictionaryVariables
280
     0
  1
1
  0
ENDSEC
  0
EOF
