  0
SECTION
  2
HEADER
  9
$ACADVER
  1
AC1015
  9
$ACADMAINTVER
 70
     6
  9
$DWGCODEPAGE
  3
ANSI_1252
  9
$INSBASE
 10
0.0
 20
0.0
 30
0.0
  9
$EXTMIN
 10
0.0
 20
0.0
 30
0.0
  9
$EXTMAX
 10
297.0
 20
210.0
 30
0.0
  9
$LIMMIN
 10
0.0
 20
0.0
  9
$LIMMAX
 10
297.0
 20
210.0
  9
$ORTHOMODE
 70
     0
  9
$REGENMODE
 70
     1
  9
$FILLMODE
 70
     1
  9
$QTEXTMODE
 70
     0
  9
$MIRRTEXT
 70
     1
  9
$LTSCALE
 40
1.0
  9
$ATTMODE
 70
     1
  9
$TEXTSIZE
 40
2.0
  9
$TRACEWID
 40
1.0
  9
$TEXTSTYLE
  7
Standard
  9
$CLAYER
  8
0
  9
$CELTYPE
  6
ByLayer
  9
$CECOLOR
 62
   256
  9
$CELTSCALE
 40
1.0
  9
$DISPSILH
 70
     0
  9
$DIMSCALE
 40
1.0
  9
$DIMASZ
 40
3.0
  9
$DIMEXO
 40
0.0
  9
$DIMDLI
 40
3.75
  9
$DIMRND
 40
0.0
  9
$DIMDLE
 40
0.0
  9
$DIMEXE
 40
1.0
  9
$DIMTP
 40
0.0
  9
$DIMTM
 40
0.0
  9
$DIMTXT
 40
2.0
  9
$DIMCEN
 40
2.5
  9
$DIMTSZ
 40
0.0
  9
$DIMTOL
 70
     0
  9
$DIMLIM
 70
     0
  9
$DIMTIH
 70
     1
  9
$DIMTOH
 70
     1
  9
$DIMSE1
 70
     0
  9
$DIMSE2
 70
     0
  9
$DIMTAD
 70
     1
  9
$DIMZIN
 70
     0
  9
$DIMBLK
  1

  9
$DIMASO
 70
     1
  9
$DIMSHO
 70
     1
  9
$DIMPOST
  1

  9
$DIMAPOST
  1

  9
$DIMALT
 70
     0
  9
$DIMALTD
 70
     3
  9
$DIMALTF
 40
0.0393700787
  9
$DIMLFAC
 40
1.0
  9
$DIMTOFL
 70
     1
  9
$DIMTVP
 40
0.0
  9
$DIMTIX
 70
     0
  9
$DIMSOXD
 70
     0
  9
$DIMSAH
 70
     0
  9
$DIMBLK1
  1

  9
$DIMBLK2
  1

  9
$DIMSTYLE
  2
ISO-25
  9
$DIMCLRD
 70
     0
  9
$DIMCLRE
 70
     0
  9
$DIMCLRT
 70
     0
  9
$DIMTFAC
 40
1.0
  9
$DIMGAP
 40
1.524
  9
$DIMJUST
 70
     0
  9
$DIMSD1
 70
     0
  9
$DIMSD2
 70
     0
  9
$DIMTOLJ
 70
     0
  9
$DIMTZIN
 70
     0
  9
$DIMALTZ
 70
     0
  9
$DIMALTTZ
 70
     0
  9
$DIMUPT
 70
     0
  9
$DIMDEC
 70
     2
  9
$DIMTDEC
 70
     2
  9
$DIMALTU
 70
     2
  9
$DIMALTTD
 70
     3
  9
$DIMTXSTY
  7
Standard
  9
$DIMAUNIT
 70
     0
  9
$DIMADEC
 70
     0
  9
$DIMALTRND
 40
0.0
  9
$DIMAZIN
 70
     0
  9
$DIMDSEP
 70
    44
  9
$DIMATFIT
 70
     3
  9
$DIMFRAC
 70
     0
  9
$DIMLDRBLK
  1

  9
$DIMLUNIT
 70
     2
  9
$DIMLWD
 70
    -2
  9
$DIMLWE
 70
    -2
  9
$DIMTMOVE
 70
     0
  9
$LUNITS
 70
     2
  9
$LUPREC
 70
     2
  9
$SKETCHINC
 40
1.0
  9
$FILLETRAD
 40
10.0
  9
$AUNITS
 70
     0
  9
$AUPREC
 70
     0
  9
$MENU
  1
.
  9
$ELEVATION
 40
0.0
  9
$PELEVATION
 40
0.0
  9
$THICKNESS
 40
0.0
  9
$LIMCHECK
 70
     0
  9
$CHAMFERA
 40
10.0
  9
$CHAMFERB
 40
10.0
  9
$CHAMFERC
 40
20.0
  9
$CHAMFERD
 40
0.0
  9
$SKPOLY
 70
     0
  9
$TDCREATE
 40
2455828.470731609
  9
$TDUCREATE
 40
2455828.387398276
  9
$TDUPDATE
 40
2455828.47073162
  9
$TDUUPDATE
 40
2455828.387398287
  9
$TDINDWG
 40
0.0000000116
  9
$TDUSRTIMER
 40
0.0000000116
  9
$USRTIMER
 70
     1
  9
$ANGBASE
 50
0.0
  9
$ANGDIR
 70
     0
  9
$PDMODE
 70
     0
  9
$PDSIZE
 40
-1.0
  9
$PLINEWID
 40
0.0
  9
$SPLFRAME
 70
     0
  9
$SPLINETYPE
 70
     6
  9
$SPLINESEGS
 70
     8
  9
$HANDSEED
  5
167
  9
$SURFTAB1
 70
     6
  9
$SURFTAB2
 70
     6
  9
$SURFTYPE
 70
     6
  9
$SURFU
 70
     6
  9
$SURFV
 70
     6
  9
$UCSBASE
  2

  9
$UCSNAME
  2

  9
$UCSORG
 10
0.0
 20
0.0
 30
0.0
  9
$UCSXDIR
 10
1.0
 20
0.0
 30
0.0
  9
$UCSYDIR
 10
0.0
 20
1.0
 30
0.0
  9
$UCSORTHOREF
  2

  9
$UCSORTHOVIEW
 70
     0
  9
$UCSORGTOP
 10
0.0
 20
0.0
 30
0.0
  9
$UCSORGBOTTOM
 10
0.0
 20
0.0
 30
0.0
  9
$UCSORGLEFT
 10
0.0
 20
0.0
 30
0.0
  9
$UCSORGRIGHT
 10
0.0
 20
0.0
 30
0.0
  9
$UCSORGFRONT
 10
0.0
 20
0.0
 30
0.0
  9
$UCSORGBACK
 10
0.0
 20
0.0
 30
0.0
  9
$PUCSBASE
  2

  9
$PUCSNAME
  2

  9
$PUCSORG
 10
0.0
 20
0.0
 30
0.0
  9
$PUCSXDIR
 10
1.0
 20
0.0
 30
0.0
  9
$PUCSYDIR
 10
0.0
 20
1.0
 30
0.0
  9
$PUCSORTHOREF
  2

  9
$PUCSORTHOVIEW
 70
     0
  9
$PUCSORGTOP
 10
0.0
 20
0.0
 30
0.0
  9
$PUCSORGBOTTOM
 10
0.0
 20
0.0
 30
0.0
  9
$PUCSORGLEFT
 10
0.0
 20
0.0
 30
0.0
  9
$PUCSORGRIGHT
 10
0.0
 20
0.0
 30
0.0
  9
$PUCSORGFRONT
 10
0.0
 20
0.0
 30
0.0
  9
$PUCSORGBACK
 10
0.0
 20
0.0
 30
0.0
  9
$USERI1
 70
     0
  9
$USERI2
 70
     0
  9
$USERI3
 70
     0
  9
$USERI4
 70
     0
  9
$USERI5
 70
     0
  9
$USERR1
 40
0.0
  9
$USERR2
 40
0.0
  9
$USERR3
 40
0.0
  9
$USERR4
 40
0.0
  9
$USERR5
 40
0.0
  9
$WORLDVIEW
 70
     1
  9
$SHADEDGE
 70
     3
  9
$SHADEDIF
 70
    70
  9
$TILEMODE
 70
     1
  9
$MAXACTVP
 70
    64
  9
$PINSBASE
 10
0.0
 20
0.0
 30
0.0
  9
$PLIMCHECK
 70
     0
  9
$PEXTMIN
 10
1.0000000000E+20
 20
1.0000000000E+20
 30
1.0000000000E+20
  9
$PEXTMAX
 10
-1.0000000000E+20
 20
-1.0000000000E+20
 30
-1.0000000000E+20
  9
$PLIMMIN
 10
0.0
 20
0.0
  9
$PLIMMAX
 10
420.0
 20
297.0
  9
$UNITMODE
 70
     0
  9
$VISRETAIN
 70
     1
  9
$PLINEGEN
 70
     0
  9
$PSLTSCALE
 70
     1
  9
$TREEDEPTH
 70
  3020
  9
$CMLSTYLE
  2
Standard
  9
$CMLJUST
 70
     0
  9
$CMLSCALE
 40
20.0
  9
$PROXYGRAPHICS
 70
     1
  9
$MEASUREMENT
 70
     1
  9
$CELWEIGHT
370
    -1
  9
$ENDCAPS
280
     0
  9
$JOINSTYLE
280
     0
  9
$LWDISPLAY
290
     1
  9
$INSUNITS
 70
     4
  9
$HYPERLINKBASE
  1

  9
$STYLESHEET
  1

  9
$XEDIT
290
     1
  9
$CEPSNTYPE
380
     0
  9
$PSTYLEMODE
290
     1
  9
$FINGERPRINTGUID
  2
{BE3F1A17-E32D-404D-AA52-747D6F0473C6}
  9
$VERSIONGUID
  2
{FAEB1C32-E019-11D5-929B-00C0DF256EC4}
  9
$EXTNAMES
290
     1
  9
$PSVPSCALE
 40
0.0
  9
$OLESTARTUP
290
     0
  0
ENDSEC
  0
SECTION
  2
CLASSES
  0
CLASS
  1
ACDBDICTIONARYWDFLT
  2
AcDbDictionaryWithDefault
  3
ObjectDBX Classes
 90
        0
280
     0
281
     0
  0
CLASS
  1
VISUALSTYLE
  2
AcDbVisualStyle
  3
ObjectDBX Classes
 90
     4095
280
     0
281
     0
  0
CLASS
  1
DICTIONARYVAR
  2
AcDbDictionaryVar
  3
ObjectDBX Classes
 90
        0
280
     0
281
     0
  0
CLASS
  1
ACDBPLACEHOLDER
  2
AcDbPlaceHolder
  3
ObjectDBX Classes
 90
        0
280
     0
281
     0
  0
CLASS
  1
LAYOUT
  2
AcDbLayout
  3
ObjectDBX Classes
 90
        0
280
     0
281
     0
  0
ENDSEC
  0
SECTION
  2
TABLES
  0
TABLE
  2
VPORT
  5
8
330
0
100
AcDbSymbolTable
 70
     1
  0
VPORT
  5
29
330
8
100
AcDbSymbolTableRecord
100
AcDbViewportTableRecord
  2
*Active
 70
     0
 10
0.0
 20
0.0
 11
1.0
 21
1.0
 12
148.5
 22
105.0
 13
0.0
 23
0.0
 14
10.0
 24
10.0
 15
10.0
 25
10.0
 16
0.0
 26
0.0
 36
1.0
 17
0.0
 27
0.0
 37
0.0
 40
210.0
 41
1.4142857143
 42
50.0
 43
0.0
 44
0.0
 50
0.0
 51
0.0
 71
     0
 72
  2000
 73
     1
 74
     3
 75
     0
 76
     0
 77
     0
 78
     0
281
     0
 65
     1
110
0.0
120
0.0
130
0.0
111
1.0
121
0.0
131
0.0
112
0.0
122
1.0
132
0.0
 79
     0
146
0.0
  0
ENDTAB
  0
TABLE
  2
LTYPE
  5
5
330
0
100
AcDbSymbolTable
 70
     6
  0
LTYPE
  5
14
330
5
100
AcDbSymbolTableRecord
100
AcDbLinetypeTableRecord
  2
ByBlock
 70
     0
  3

 72
    65
 73
     0
 40
0.0
  0
LTYPE
  5
15
330
5
100
AcDbSymbolTableRecord
100
AcDbLinetypeTableRecord
  2
ByLayer
 70
     0
  3

 72
    65
 73
     0
 40
0.0
  0
LTYPE
  5
16
330
5
100
AcDbSymbolTableRecord
100
AcDbLinetypeTableRecord
  2
Continuous
 70
     0
  3
Solid line
 72
    65
 73
     0
 40
0.0
  0
LTYPE
  5
3B
330
5
100
AcDbSymbolTableRecord
100
AcDbLinetypeTableRecord
  2
HIDDEN
 70
     0
  3
Hidden __ __ __ __ __ __ __ __ __ __ __ __ __ __
 72
    65
 73
     2
 40
1.905
 49
1.27
 74
     0
 49
-0.635
 74
     0
  0
LTYPE
  5
3C
330
5
100
AcDbSymbolTableRecord
100
AcDbLinetypeTableRecord
  2
PHANTOM
 70
     0
  3
Phantom ______  __  __  ______  __  __  ______
 72
    65
 73
     6
 40
12.7
 49
6.35
 74
     0
 49
-1.27
 74
     0
 49
1.27
 74
     0
 49
-1.27
 74
     0
 49
1.27
 74
     0
 49
-1.27
 74
     0
  0
LTYPE
  5
3D
330
5
100
AcDbSymbolTableRecord
100
AcDbLinetypeTableRecord
  2
CENTER
 70
     0
  3
Center ____ _ ____ _ ____ _ ____ _ ____ _ ____
 72
    65
 73
     4
 40
10.16
 49
6.35
 74
     0
 49
-1.27
 74
     0
 49
1.27
 74
     0
 49
-1.27
 74
     0
  0
LTYPE
  5
3E
330
5
100
AcDbSymbolTableRecord
100
AcDbLinetypeTableRecord
  2
CENTERX2
 70
     0
  3
Center (2x) ________  __  ________  __  _____
 72
    65
 73
     4
 40
20.32
 49
12.7
 74
     0
 49
-2.54
 74
     0
 49
2.54
 74
     0
 49
-2.54
 74
     0
  0
LTYPE
  5
3F
330
5
100
AcDbSymbolTableRecord
100
AcDbLinetypeTableRecord
  2
DOT2
 70
     0
  3
Dot (.5x) ........................................
 72
    65
 73
     2
 40
0.635
 49
0.0
 74
     0
 49
-0.635
 74
     0
  0
ENDTAB
  0
TABLE
  2
LAYER
  5
2
330
0
100
AcDbSymbolTable
 70
     5
  0
LAYER
  5
10
330
2
100
AcDbSymbolTableRecord
100
AcDbLayerTableRecord
  2
0
 70
     0
 62
     7
  6
Continuous
370
    -3
390
F
  0
LAYER
  5
40
330
2
100
AcDbSymbolTableRecord
100
AcDbLayerTableRecord
  2
FORMAT
 70
     0
 62
     7
  6
Continuous
370
    -3
390
F
  0
LAYER
  5
41
330
2
100
AcDbSymbolTableRecord
100
AcDbLayerTableRecord
  2
VERMASSUNG
 70
     0
 62
     7
  6
Continuous
370
    -3
390
F
  0
LAYER
  5
42
330
2
100
AcDbSymbolTableRecord
100
AcDbLayerTableRecord
  2
KOPF_DÜNN
 70
     0
 62
     7
  6
Continuous
370
    -3
390
F
  0
LAYER
  5
43
330
2
100
AcDbSymbolTableRecord
100
AcDbLayerTableRecord
  2
KOPF_DICK
 70
     0
 62
     7
  6
Continuous
370
    15
390
F
  0
ENDTAB
  0
TABLE
  2
STYLE
  5
3
330
0
100
AcDbSymbolTable
 70
     2
  0
STYLE
  5
11
330
3
100
AcDbSymbolTableRecord
100
AcDbTextStyleTableRecord
  2
Standard
 70
     0
 40
0.0
 41
1.0
 50
0.0
 71
     0
 42
2.5
  3
txt
  4

  0
STYLE
  5
44
330
3
100
AcDbSymbolTableRecord
100
AcDbTextStyleTableRecord
  2
SLDTEXTSTYLE0
 70
     0
 40
0.0
 41
0.7
 50
0.0
 71
     0
 42
0.2
  3
TXT
  4

  0
ENDTAB
  0
TABLE
  2
VIEW
  5
6
330
0
100
AcDbSymbolTable
 70
     0
  0
ENDTAB
  0
TABLE
  2
UCS
  5
7
330
0
100
AcDbSymbolTable
 70
     0
  0
ENDTAB
  0
TABLE
  2
APPID
  5
9
330
0
100
AcDbSymbolTable
 70
     1
  0
APPID
  5
12
330
9
100
AcDbSymbolTableRecord
100
AcDbRegAppTableRecord
  2
ACAD
 70
     0
  0
ENDTAB
  0
TABLE
  2
DIMSTYLE
  5
A
330
0
100
AcDbSymbolTable
 70
     2
100
AcDbDimStyleTable
  0
DIMSTYLE
105
27
330
A
100
AcDbSymbolTableRecord
100
AcDbDimStyleTableRecord
  2
ISO-25
 70
     0
 41
2.5
 42
0.625
 43
3.75
 44
1.25
 73
     0
 74
     0
 77
     1
 78
     8
140
2.5
141
2.5
143
0.0393700787
147
0.625
171
     3
172
     1
271
     2
272
     2
274
     3
278
    44
283
     0
284
     8
340
11
  0
DIMSTYLE
105
13D
102
{ACAD_REACTORS
330
13C
330
147
330
152
102
}
330
A
100
AcDbSymbolTableRecord
100
AcDbDimStyleTableRecord
  2
SLDDIMSTYLE0
 70
     0
 41
3.0
 44
0.0
 45
0.000000001
 73
     0
 74
     0
 77
     1
 78
    12
140
2.0
147
0.5
173
     1
271
     2
272
     3
284
    12
340
44
  0
ENDTAB
  0
TABLE
  2
BLOCK_RECORD
  5
1
330
0
100
AcDbSymbolTable
 70
     4
  0
BLOCK_RECORD
  5
1F
330
1
100
AcDbSymbolTableRecord
100
AcDbBlockTableRecord
  2
*Model_Space
340
22
  0
BLOCK_RECORD
  5
1B
330
1
100
AcDbSymbolTableRecord
100
AcDbBlockTableRecord
  2
*Paper_Space
340
1E
  0
BLOCK_RECORD
  5
23
330
1
100
AcDbSymbolTableRecord
100
AcDbBlockTableRecord
  2
*Paper_Space0
340
26
  0
BLOCK_RECORD
  5
13E
330
1
100
AcDbSymbolTableRecord
100
AcDbBlockTableRecord
  2
*D1
340
0
  0
BLOCK_RECORD
  5
148
330
1
100
AcDbSymbolTableRecord
100
AcDbBlockTableRecord
  2
*D2
340
0
  0
BLOCK_RECORD
  5
153
330
1
100
AcDbSymbolTableRecord
100
AcDbBlockTableRecord
  2
*D3
340
0
  0
ENDTAB
  0
ENDSEC
  0
SECTION
  2
BLOCKS
  0
BLOCK
  5
20
330
1F
100
AcDbEntity
  8
0
100
AcDbBlockBegin
  2
*Model_Space
 70
     0
 10
0.0
 20
0.0
 30
0.0
  3
*Model_Space
  1

  0
ENDBLK
  5
21
330
1F
100
AcDbEntity
  8
0
100
AcDbBlockEnd
  0
BLOCK
  5
1C
330
1B
100
AcDbEntity
 67
     1
  8
0
100
AcDbBlockBegin
  2
*Paper_Space
 70
     0
 10
0.0
 20
0.0
 30
0.0
  3
*Paper_Space
  1

  0
ENDBLK
  5
1D
330
1B
100
AcDbEntity
 67
     1
  8
0
100
AcDbBlockEnd
  0
BLOCK
  5
24
330
23
100
AcDbEntity
  8
0
100
AcDbBlockBegin
  2
*Paper_Space0
 70
     0
 10
0.0
 20
0.0
 30
0.0
  3
*Paper_Space0
  1

  0
ENDBLK
  5
25
330
23
100
AcDbEntity
  8
0
100
AcDbBlockEnd
  0
BLOCK
  5
13F
330
13E
100
AcDbEntity
  8
0
100
AcDbBlockBegin
  2
*D1
 70
     1
 10
0.0
 20
0.0
 30
0.0
  3
*D1
  1

  0
SOLID
  5
141
330
13E
100
AcDbEntity
  8
VERMASSUNG
100
AcDbTrace
 10
189.5257714764
 20
146.4041684151
 30
0.0
 11
186.5257714764
 21
146.8541684151
 31
0.0
 12
186.5257714764
 22
145.9541684151
 32
0.0
 13
186.5257714764
 23
145.9541684151
 33
0.0
  0
SOLID
  5
142
330
13E
100
AcDbEntity
  8
VERMASSUNG
100
AcDbTrace
 10
88.5257206688
 20
146.4041684151
 30
0.0
 11
91.5257206688
 21
145.9541684151
 31
0.0
 12
91.5257206688
 22
146.8541684151
 32
0.0
 13
91.5257206688
 23
146.8541684151
 33
0.0
  0
LINE
  5
143
330
13E
100
AcDbEntity
  8
VERMASSUNG
100
AcDbLine
 10
189.5257714764
 20
135.7878755271
 30
0.0
 11
189.5257714764
 21
147.4041684151
 31
0.0
  0
LINE
  5
144
330
13E
100
AcDbEntity
  8
VERMASSUNG
100
AcDbLine
 10
88.5257206688
 20
119.5137614679
 30
0.0
 11
88.5257206688
 21
147.4041684151
 31
0.0
  0
LINE
  5
145
330
13E
100
AcDbEntity
  8
VERMASSUNG
100
AcDbLine
 10
189.5257714764
 20
146.4041684151
 30
0.0
 11
88.5257206688
 21
146.4041684151
 31
0.0
  0
MTEXT
  5
146
330
13E
100
AcDbEntity
  8
VERMASSUNG
100
AcDbMText
 10
135.341252422
 20
148.982304011
 30
0.0
 40
2.0
 41
0.0
 71
     1
 72
     1
  1
101
  7
SLDTEXTSTYLE0
 73
     1
 44
1.0
  0
ENDBLK
  5
140
330
13E
100
AcDbEntity
  8
0
100
AcDbBlockEnd
  0
BLOCK
  5
149
330
148
100
AcDbEntity
  8
0
100
AcDbBlockBegin
  2
*D2
 70
     1
 10
0.0
 20
0.0
 30
0.0
  3
*D2
  1

  0
SOLID
  5
14B
330
148
100
AcDbEntity
  8
VERMASSUNG
100
AcDbTrace
 10
81.4340811781
 20
121.3137614679
 30
0.0
 11
80.9840811781
 21
118.3137614679
 31
0.0
 12
81.8840811781
 22
118.3137614679
 32
0.0
 13
81.8840811781
 23
118.3137614679
 33
0.0
  0
SOLID
  5
14C
330
148
100
AcDbEntity
  8
VERMASSUNG
100
AcDbTrace
 10
81.4340811781
 20
105.3137614679
 30
0.0
 11
81.8840811781
 21
108.3137614679
 31
0.0
 12
80.9840811781
 22
108.3137614679
 32
0.0
 13
80.9840811781
 23
108.3137614679
 33
0.0
  0
LINE
  5
14D
330
148
100
AcDbEntity
  8
VERMASSUNG
100
AcDbLine
 10
99.8257206688
 20
121.3137614679
 30
0.0
 11
80.4340811781
 21
121.3137614679
 31
0.0
  0
LINE
  5
14E
330
148
100
AcDbEntity
  8
VERMASSUNG
100
AcDbLine
 10
90.0257206688
 20
105.3137614679
 30
0.0
 11
80.4340811781
 21
105.3137614679
 31
0.0
  0
LINE
  5
14F
330
148
100
AcDbEntity
  8
VERMASSUNG
100
AcDbLine
 10
81.4340811781
 20
121.3137614679
 30
0.0
 11
81.4340811781
 21
105.3137614679
 31
0.0
  0
MTEXT
  5
150
330
148
100
AcDbEntity
  8
VERMASSUNG
100
AcDbMText
 10
78.8559456404
 20
110.3067880206
 30
0.0
 40
2.0
 41
0.0
 71
     1
 72
     1
  1
%%c
  7
SLDTEXTSTYLE0
 11
-7.044195017643634E-15
 21
1.0
 31
0.0
 73
     1
 44
1.0
  0
MTEXT
  5
151
330
148
100
AcDbEntity
  8
VERMASSUNG
100
AcDbMText
 10
78.8559455821
 20
113.9142512991
 30
0.0
 40
2.0
 41
0.0
 71
     1
 72
     1
  1
16
  7
SLDTEXTSTYLE0
 11
-7.044195017643634E-15
 21
1.0
 31
0.0
 73
     1
 44
1.0
  0
ENDBLK
  5
14A
330
148
100
AcDbEntity
  8
0
100
AcDbBlockEnd
  0
BLOCK
  5
154
330
153
100
AcDbEntity
  8
0
100
AcDbBlockBegin
  2
*D3
 70
     1
 10
0.0
 20
0.0
 30
0.0
  3
*D3
  1

  0
SOLID
  5
156
330
153
100
AcDbEntity
  8
VERMASSUNG
100
AcDbTrace
 10
201.3789871547
 20
134.3137614679
 30
0.0
 11
200.9289871547
 21
131.3137614679
 31
0.0
 12
201.8289871547
 22
131.3137614679
 32
0.0
 13
201.8289871547
 23
131.3137614679
 33
0.0
  0
SOLID
  5
157
330
153
100
AcDbEntity
  8
VERMASSUNG
100
AcDbTrace
 10
201.3789871547
 20
92.3137614679
 30
0.0
 11
201.8289871547
 21
95.3137614679
 31
0.0
 12
200.9289871547
 22
95.3137614679
 32
0.0
 13
200.9289871547
 23
95.3137614679
 33
0.0
  0
LINE
  5
158
330
153
100
AcDbEntity
  8
VERMASSUNG
100
AcDbLine
 10
188.8037206688
 20
134.3137614679
 30
0.0
 11
202.3789871547
 21
134.3137614679
 31
0.0
  0
LINE
  5
159
330
153
100
AcDbEntity
  8
VERMASSUNG
100
AcDbLine
 10
188.8037206688
 20
92.3137614679
 30
0.0
 11
202.3789871547
 21
92.3137614679
 31
0.0
  0
LINE
  5
15A
330
153
100
AcDbEntity
  8
VERMASSUNG
100
AcDbLine
 10
201.3789871547
 20
134.3137614679
 30
0.0
 11
201.3789871547
 21
92.3137614679
 31
0.0
  0
MTEXT
  5
15B
330
153
100
AcDbEntity
  8
VERMASSUNG
100
AcDbMText
 10
198.800851617
 20
109.6061717238
 30
0.0
 40
2.0
 41
0.0
 71
     1
 72
     1
  1
%%c
  7
SLDTEXTSTYLE0
 11
-7.044195017643634E-15
 21
1.0
 31
0.0
 73
     1
 44
1.0
  0
MTEXT
  5
15C
330
153
100
AcDbEntity
  8
VERMASSUNG
100
AcDbMText
 10
198.8008515588
 20
113.2136350023
 30
0.0
 40
2.0
 41
0.0
 71
     1
 72
     1
  1
42
  7
SLDTEXTSTYLE0
 11
-7.044195017643634E-15
 21
1.0
 31
0.0
 73
     1
 44
1.0
  0
ENDBLK
  5
155
330
153
100
AcDbEntity
  8
0
100
AcDbBlockEnd
  0
ENDSEC
  0
SECTION
  2
ENTITIES
  0
MTEXT
  5
45
330
1F
100
AcDbEntity
  8
KOPF_DÜNN
100
AcDbMText
 10
13.8892156294
 20
23.8442973028
 30
0.0
 40
3.0
 41
0.0
 71
     1
 72
     1
  1
271.048.088
  7
SLDTEXTSTYLE0
 73
     1
 44
1.0
  0
MTEXT
  5
46
330
1F
100
AcDbEntity
  8
VERMASSUNG
100
AcDbMText
 10
13.9329988022
 20
28.8834360957
 30
0.0
 40
3.0
 41
0.0
 71
     1
 72
     1
  1
Ausdrehstahl_Boring bar
  7
SLDTEXTSTYLE0
 73
     1
 44
1.0
  0
MTEXT
  5
47
330
1F
100
AcDbEntity
  8
VERMASSUNG
100
AcDbMText
 10
98.8601118557
 20
13.8365368761
 30
0.0
 40
2.0
 41
0.0
 71
     1
 72
     1
  1
Datum: 30.07.2007
  7
SLDTEXTSTYLE0
 73
     1
 44
1.0
  0
MTEXT
  5
48
330
1F
100
AcDbEntity
  8
VERMASSUNG
100
AcDbMText
 10
13.933048693
 20
18.0482802738
 30
0.0
 40
2.0
 41
0.0
 71
     1
 72
     1
  1
verstellbar_adjustable
  7
SLDTEXTSTYLE0
 73
     1
 44
1.0
  0
MTEXT
  5
49
330
1F
100
AcDbEntity
  8
VERMASSUNG
100
AcDbMText
 10
13.9808475933
 20
13.9090974274
 30
0.0
 40
2.0
 41
0.0
 71
     1
 72
     1
  1
Gewicht: 198g
  7
SLDTEXTSTYLE0
 73
     1
 44
1.0
  0
ARC
  5
4A
330
1F
100
AcDbEntity
  8
0
  6
Continuous
 62
     7
370
    15
100
AcDbCircle
 10
173.5257206688
 20
101.3137614679
 30
0.0
 40
4.000000000000008
100
AcDbArc
 50
30.0
 51
90.0
  0
ARC
  5
4B
330
1F
100
AcDbEntity
  8
0
  6
Continuous
 62
     7
370
    15
100
AcDbCircle
 10
173.5257206688
 20
125.3137614679
 30
0.0
 40
4.000000000000022
100
AcDbArc
 50
270.0
 51
330.0
  0
SPLINE
  5
4C
330
1F
100
AcDbEntity
  8
0
  6
Continuous
 62
     7
370
    15
100
AcDbSpline
210
0.0
220
0.0
230
1.0
 70
    24
 71
     1
 72
     4
 73
     2
 74
     0
 42
0.00000001
 43
0.00000001
 40
0.0
 40
0.0
 40
1.0
 40
1.0
 10
178.2257206688153
 20
92.31376146788973
 30
0.0
 10
188.8044881785396
 20
92.31376146788973
 30
0.0
  0
SPLINE
  5
4D
330
1F
100
AcDbEntity
  8
0
  6
Continuous
 62
     7
370
    15
100
AcDbSpline
210
0.0
220
0.0
230
1.0
 70
    24
 71
     1
 72
     4
 73
     2
 74
     0
 42
0.00000001
 43
0.00000001
 40
0.0
 40
0.0
 40
1.0
 40
1.0
 10
178.2257206688153
 20
125.4544002634634
 30
0.0
 10
176.9898222839531
 20
123.3137614678897
 30
0.0
  0
SPLINE
  5
4E
330
1F
100
AcDbEntity
  8
0
  6
Continuous
 62
     7
370
    15
100
AcDbSpline
210
0.0
220
0.0
230
1.0
 70
    24
 71
     1
 72
     4
 73
     2
 74
     0
 42
0.00000001
 43
0.00000001
 40
0.0
 40
0.0
 40
1.0
 40
1.0
 10
176.9898222839531
 20
103.3137614678897
 30
0.0
 10
178.2257206688153
 20
101.173122672316
 30
0.0
  0
SPLINE
  5
4F
330
1F
100
AcDbEntity
  8
0
  6
Continuous
 62
     7
370
    15
100
AcDbSpline
210
0.0
220
0.0
230
1.0
 70
    24
 71
     1
 72
     4
 73
     2
 74
     0
 42
0.00000001
 43
0.00000001
 40
0.0
 40
0.0
 40
1.0
 40
1.0
 10
188.8044881785396
 20
134.3137614678897
 30
0.0
 10
178.2257206688153
 20
134.3137614678897
 30
0.0
  0
SPLINE
  5
50
330
1F
100
AcDbEntity
  8
0
  6
Continuous
 62
     7
370
    15
100
AcDbSpline
210
0.0
220
0.0
230
1.0
 70
    24
 71
     1
 72
     4
 73
     2
 74
     0
 42
0.00000001
 43
0.00000001
 40
0.0
 40
0.0
 40
1.0
 40
1.0
 10
90.02572066881531
 20
105.3137614678897
 30
0.0
 10
173.5257206688153
 20
105.3137614678897
 30
0.0
  0
SPLINE
  5
51
330
1F
100
AcDbEntity
  8
0
  6
Continuous
 62
     7
370
    15
100
AcDbSpline
210
0.0
220
0.0
230
1.0
 70
    24
 71
     1
 72
     4
 73
     2
 74
     0
 42
0.00000001
 43
0.00000001
 40
0.0
 40
0.0
 40
1.0
 40
1.0
 10
102.7257206688153
 20
121.3137614678897
 30
0.0
 10
99.82572066881531
 20
121.3137614678897
 30
0.0
  0
SPLINE
  5
52
330
1F
100
AcDbEntity
  8
0
  6
Continuous
 62
     7
370
    15
100
AcDbSpline
210
0.0
220
0.0
230
1.0
 70
    24
 71
     1
 72
     4
 73
     2
 74
     0
 42
0.00000001
 43
0.00000001
 40
0.0
 40
0.0
 40
1.0
 40
1.0
 10
117.2257206688153
 20
121.3137614678897
 30
0.0
 10
114.3257206688153
 20
121.3137614678897
 30
0.0
  0
SPLINE
  5
53
330
1F
100
AcDbEntity
  8
0
  6
Continuous
 62
     7
370
    15
100
AcDbSpline
210
0.0
220
0.0
230
1.0
 70
    24
 71
     1
 72
     4
 73
     2
 74
     0
 42
0.00000001
 43
0.00000001
 40
0.0
 40
0.0
 40
1.0
 40
1.0
 10
131.7257206688153
 20
121.3137614678897
 30
0.0
 10
128.8257206688153
 20
121.3137614678897
 30
0.0
  0
SPLINE
  5
54
330
1F
100
AcDbEntity
  8
0
  6
Continuous
 62
     7
370
    15
100
AcDbSpline
210
0.0
220
0.0
230
1.0
 70
    24
 71
     1
 72
     4
 73
     2
 74
     0
 42
0.00000001
 43
0.00000001
 40
0.0
 40
0.0
 40
1.0
 40
1.0
 10
146.2257206688153
 20
121.3137614678897
 30
0.0
 10
143.3257206688153
 20
121.3137614678897
 30
0.0
  0
SPLINE
  5
55
330
1F
100
AcDbEntity
  8
0
  6
Continuous
 62
     7
370
    15
100
AcDbSpline
210
0.0
220
0.0
230
1.0
 70
    24
 71
     1
 72
     4
 73
     2
 74
     0
 42
0.00000001
 43
0.00000001
 40
0.0
 40
0.0
 40
1.0
 40
1.0
 10
173.5257206688153
 20
121.3137614678897
 30
0.0
 10
157.8257206688153
 20
121.3137614678897
 30
0.0
  0
SPLINE
  5
56
330
1F
100
AcDbEntity
  8
0
  6
Continuous
 62
     7
370
    15
100
AcDbSpline
210
0.0
220
0.0
230
1.0
 70
    24
 71
     1
 72
     4
 73
     2
 74
     0
 42
0.00000001
 43
0.00000001
 40
0.0
 40
0.0
 40
1.0
 40
1.0
 10
88.52572066881531
 20
106.8137614678897
 30
0.0
 10
90.02572066881531
 20
105.3137614678897
 30
0.0
  0
SPLINE
  5
57
330
1F
100
AcDbEntity
  8
0
  6
Continuous
 62
     7
370
    15
100
AcDbSpline
210
0.0
220
0.0
230
1.0
 70
     8
 71
     3
 72
    23
 73
    19
 74
     0
 42
0.00000001
 43
0.00000001
 40
0.0
 40
0.0
 40
0.0
 40
0.0
 40
0.0866677597929969
 40
0.1681346530250503
 40
0.2446266841148305
 40
0.3164168573254076
 40
0.3842036027344039
 40
0.4477514113878809
 40
0.5080999959196146
 40
0.5652747124951399
 40
0.6202036972292699
 40
0.6732014409505087
 40
0.7251327398721995
 40
0.776860275345884
 40
0.829417793363884
 40
0.8835315781222304
 40
0.9402644188870598
 40
1.0
 40
1.0
 40
1.0
 40
1.0
 10
184.9254414905238
 20
120.0573512114795
 30
0.0
 10
184.9640512242807
 20
120.0568172722706
 30
0.0
 10
185.0389537509423
 20
120.0557814351401
 30
0.0
 10
185.1476921803138
 20
120.0476887962324
 30
0.0
 10
185.2492537600105
 20
120.034673193646
 30
0.0
 10
185.3438393153185
 20
120.0164416237667
 30
0.0
 10
185.4312261023854
 20
119.992587905505
 30
0.0
 10
185.5115171041911
 20
119.9632552046765
 30
0.0
 10
185.5847154591969
 20
119.9290599056413
 30
0.0
 10
185.6505272842113
 20
119.8891597019046
 30
0.0
 10
185.709103067962
 20
119.8443885312401
 30
0.0
 10
185.7595654011278
 20
119.7938502561996
 30
0.0
 10
185.8024202494182
 20
119.7385559669621
 30
0.0
 10
185.8377498522029
 20
119.6783470549305
 30
0.0
 10
185.8645375085129
 20
119.6128348557751
 30
0.0
 10
185.8837612587362
 20
119.5424874063133
 30
0.0
 10
185.8955586566324
 20
119.4672019006222
 30
0.0
 10
185.8970383424989
 20
119.4153008900768
 30
0.0
 10
185.8977972597545
 20
119.3886813396846
 30
0.0
  0
SPLINE
  5
58
330
1F
100
AcDbEntity
  8
0
  6
Continuous
 62
     7
370
    15
100
AcDbSpline
210
0.0
220
0.0
230
1.0
 70
     8
 71
     3
 72
    23
 73
    19
 74
     0
 42
0.00000001
 43
0.00000001
 40
0.0
 40
0.0
 40
0.0
 40
0.0
 40
0.0592940561976212
 40
0.1155957239221517
 40
0.1695801296682377
 40
0.2221270213102981
 40
0.2737308829830075
 40
0.325538020931855
 40
0.3786209593631409
 40
0.4336019530819613
 40
0.4910509470574093
 40
0.5512552459825575
 40
0.6149319908325149
 40
0.6825566669609299
 40
0.7544687356235443
 40
0.8313710662400156
 40
0.9129414582625662
 40
1.0
 40
1.0
 40
1.0
 40
1.0
 10
183.9490793110366
 20
119.3886813396846
 30
0.0
 10
183.9498318961232
 20
119.415169588452
 30
0.0
 10
183.9512990856439
 20
119.4668093056184
 30
0.0
 10
183.9632013316262
 20
119.5417968558373
 30
0.0
 10
183.9822233961286
 20
119.6121349980488
 30
0.0
 10
184.0096204119925
 20
119.6774557609883
 30
0.0
 10
184.0448458418426
 20
119.7377450480858
 30
0.0
 10
184.0876946489401
 20
119.7932092175717
 30
0.0
 10
184.1386971734331
 20
119.8434298478273
 30
0.0
 10
184.1971584189272
 20
119.8889021807596
 30
0.0
 10
184.2632036392241
 20
119.9289769843673
 30
0.0
 10
184.3366590013214
 20
119.9633490224889
 30
0.0
 10
184.4171527879359
 20
119.992497200633
 30
0.0
 10
184.5047570255898
 20
120.016507922524
 30
0.0
 10
184.5997606281993
 20
120.0346973850402
 30
0.0
 10
184.7018596251619
 20
120.0476594682173
 30
0.0
 10
184.8112612093257
 20
120.055796247492
 30
0.0
 10
184.8865644639626
 20
120.0568217647518
 30
0.0
 10
184.9254414905238
 20
120.0573512114795
 30
0.0
  0
SPLINE
  5
59
330
1F
100
AcDbEntity
  8
0
  6
Continuous
 62
     7
370
    15
100
AcDbSpline
210
0.0
220
0.0
230
1.0
 70
     8
 71
     3
 72
    23
 73
    19
 74
     0
 42
0.00000001
 43
0.00000001
 40
0.0
 40
0.0
 40
0.0
 40
0.0
 40
0.0869696237113498
 40
0.1687160911435895
 40
0.245507313601541
 40
0.3176514674899429
 40
0.3853609488672387
 40
0.4491918801087296
 40
0.5095419572709401
 40
0.5669745460140927
 40
0.622142463247941
 40
0.6749333526875596
 40
0.7268659360509812
 40
0.7784886475613952
 40
0.8308864624302728
 40
0.8844237978147471
 40
0.9408617939744738
 40
1.0
 40
1.0
 40
1.0
 40
1.0
 10
184.9254414905238
 20
118.7240178781462
 30
0.0
 10
184.8867008109619
 20
118.7245967671691
 30
0.0
 10
184.8115461104468
 20
118.7257197787331
 30
0.0
 10
184.7023826259645
 20
118.7332016130548
 30
0.0
 10
184.6003690499789
 20
118.7461527546201
 30
0.0
 10
184.5056815226153
 20
118.7651119257114
 30
0.0
 10
184.417883561199
 20
118.7883323026859
 30
0.0
 10
184.3374579846609
 20
118.8176363547973
 30
0.0
 10
184.264107895207
 20
118.852027296206
 30
0.0
 10
184.1979085191639
 20
118.8917456387363
 30
0.0
 10
184.1393208762773
 20
118.9366347317997
 30
0.0
 10
184.0878141102972
 20
118.9861617987226
 30
0.0
 10
184.0454712673991
 20
119.0417113723418
 30
0.0
 10
184.0095087831092
 20
119.1013490056289
 30
0.0
 10
183.9823468663499
 20
119.1663343888568
 30
0.0
 10
183.9630743927206
 20
119.2361952035759
 30
0.0
 10
183.9513440105349
 20
119.3108288959933
 30
0.0
 10
183.9498458778406
 20
119.3623294554768
 30
0.0
 10
183.9490793110366
 20
119.3886813396846
 30
0.0
  0
SPLINE
  5
5A
330
1F
100
AcDbEntity
  8
0
  6
Continuous
 62
     7
370
    15
100
AcDbSpline
210
0.0
220
0.0
230
1.0
 70
     8
 71
     3
 72
    23
 73
    19
 74
     0
 42
0.00000001
 43
0.00000001
 40
0.0
 40
0.0
 40
0.0
 40
0.0
 40
0.0592833497870527
 40
0.1158598625438498
 40
0.1695285953913521
 40
0.2219388067159525
 40
0.2735352627752696
 40
0.3255953050354236
 40
0.3783011166957056
 40
0.4333662763574784
 40
0.4906827352741435
 40
0.551180930510894
 40
0.614886281093957
 40
0.6827619428388789
 40
0.7547884297644812
 40
0.8314700929191774
 40
0.9131173814038436
 40
1.0
 40
1.0
 40
1.0
 40
1.0
 10
185.8977972597545
 20
119.3886813396846
 30
0.0
 10
185.8970282208467
 20
119.362330343772
 30
0.0
 10
185.8955252568192
 20
119.3108315203201
 30
0.0
 10
185.8838292528372
 20
119.2361854748639
 30
0.0
 10
185.8644485416566
 20
119.1664183711199
 30
0.0
 10
185.8377805831378
 20
119.1013831294164
 30
0.0
 10
185.8022582525068
 20
119.041590447347
 30
0.0
 10
185.7598437886159
 20
118.9863081108986
 30
0.0
 10
185.7088017263574
 20
118.9366156485641
 30
0.0
 10
185.6505698532207
 20
118.891768198476
 30
0.0
 10
185.5847054842957
 20
118.8519113408072
 30
0.0
 10
185.5115105984015
 20
118.817748534059
 30
0.0
 10
185.4312991385778
 20
118.7882360082614
 30
0.0
 10
185.3437147246823
 20
118.7651833271584
 30
0.0
 10
185.2493186906256
 20
118.7461369867792
 30
0.0
 10
185.1476991004229
 20
118.7332046474183
 30
0.0
 10
185.0389369856968
 20
118.725718206062
 30
0.0
 10
184.9640487819765
 20
118.7245962716349
 30
0.0
 10
184.9254414905238
 20
118.7240178781462
 30
0.0
  0
LINE
  5
5B
330
1F
100
AcDbEntity
  8
0
  6
Continuous
 62
     7
370
    15
100
AcDbLine
 10
185.7319318751
 20
115.8109569807
 30
0.0
 11
185.916627388
 21
115.644290314
 31
0.0
  0
SPLINE
  5
5C
330
1F
100
AcDbEntity
  8
0
  6
Continuous
 62
     7
370
    15
100
AcDbSpline
210
0.0
220
0.0
230
1.0
 70
     8
 71
     3
 72
    15
 73
    11
 74
     0
 42
0.00000001
 43
0.00000001
 40
0.0
 40
0.0
 40
0.0
 40
0.0
 40
0.1445650079119795
 40
0.2805363913210647
 40
0.4071401527390107
 40
0.5261190361585806
 40
0.6421058599885034
 40
0.7589092560722744
 40
0.8780579302083565
 40
1.0
 40
1.0
 40
1.0
 40
1.0
 10
185.8977972597546
 20
116.2857165960949
 30
0.0
 10
185.8974005749552
 20
116.260855485724
 30
0.0
 10
185.896630786168
 20
116.2126111263979
 30
0.0
 10
185.8888799724499
 20
116.1429448070765
 30
0.0
 10
185.8766286249359
 20
116.0784364955874
 30
0.0
 10
185.8593548510839
 20
116.0186136804706
 30
0.0
 10
185.836254439028
 20
115.9625750364566
 30
0.0
 10
185.8069871239074
 20
115.9095266150491
 30
0.0
 10
185.7726996002206
 20
115.8582782026049
 30
0.0
 10
185.7456256807381
 20
115.8268520941128
 30
0.0
 10
185.7319318751392
 20
115.8109569807103
 30
0.0
  0
SPLINE
  5
5D
330
1F
100
AcDbEntity
  8
0
  6
Continuous
 62
     7
370
    15
100
AcDbSpline
210
0.0
220
0.0
230
1.0
 70
     8
 71
     3
 72
    23
 73
    19
 74
     0
 42
0.00000001
 43
0.00000001
 40
0.0
 40
0.0
 40
0.0
 40
0.0
 40
0.0746554421410058
 40
0.1455505618430356
 40
0.2126587759098872
 40
0.2768962727498168
 40
0.3385164718699882
 40
0.3981820786596401
 40
0.4568374063783352
 40
0.514732900893363
 40
0.5721227750896526
 40
0.6290014951774713
 40
0.6862035808566874
 40
0.7443710756204309
 40
0.8040683804469398
 40
0.8663906962652379
 40
0.9315174970058623
 40
1.0
 40
1.0
 40
1.0
 40
1.0
 10
185.1425889264212
 20
116.9804281345564
 30
0.0
 10
185.1715951567946
 20
116.9799678598497
 30
0.0
 10
185.2281466017626
 20
116.9790704940283
 30
0.0
 10
185.3103299143973
 20
116.9698529356772
 30
0.0
 10
185.3877433342812
 20
116.95620448374
 30
0.0
 10
185.460145141296
 20
116.9362954497216
 30
0.0
 10
185.5273254540351
 20
116.909965996752
 30
0.0
 10
185.5900227426178
 20
116.8788235473296
 30
0.0
 10
185.6474955645133
 20
116.84138363484
 30
0.0
 10
185.6998220498106
 20
116.7984261638287
 30
0.0
 10
185.7463153139144
 20
116.750186712405
 30
0.0
 10
185.78726908503
 20
116.6974702108119
 30
0.0
 10
185.8212812243587
 20
116.6396838387524
 30
0.0
 10
185.8495680535626
 20
116.5777106503
 30
0.0
 10
185.8711304333777
 20
116.5109854607395
 30
0.0
 10
185.8867083407882
 20
116.4398928863195
 30
0.0
 10
185.8959614544056
 20
116.364218514638
 30
0.0
 10
185.8971751635531
 20
116.3123184062261
 30
0.0
 10
185.8977972597546
 20
116.2857165960949
 30
0.0
  0
SPLINE
  5
5E
330
1F
100
AcDbEntity
  8
0
  6
Continuous
 62
     7
370
    15
100
AcDbSpline
210
0.0
220
0.0
230
1.0
 70
     8
 71
     3
 72
    15
 73
    11
 74
     0
 42
0.00000001
 43
0.00000001
 40
0.0
 40
0.0
 40
0.0
 40
0.0
 40
0.1138257326179722
 40
0.227705386137323
 40
0.34172870406609
 40
0.457373643924516
 40
0.5778010111389742
 40
0.7082159784460405
 40
0.8485535160615247
 40
1.0
 40
1.0
 40
1.0
 40
1.0
 10
184.6417876443699
 20
116.8550274935308
 30
0.0
 10
184.6587069860991
 20
116.8654894041224
 30
0.0
 10
184.692553684495
 20
116.8864181812645
 30
0.0
 10
184.7464963117754
 20
116.9121994730209
 30
0.0
 10
184.8024283852165
 20
116.9340684344449
 30
0.0
 10
184.8611601088978
 20
116.9513280147454
 30
0.0
 10
184.9238050446178
 20
116.9647884270888
 30
0.0
 10
184.9916080726181
 20
116.9736050649377
 30
0.0
 10
185.0651673510594
 20
116.9793203028265
 30
0.0
 10
185.1161349138381
 20
116.9800496019008
 30
0.0
 10
185.1425889264212
 20
116.9804281345564
 30
0.0
  0
LINE
  5
5F
330
1F
100
AcDbEntity
  8
0
  6
Continuous
 62
     7
370
    15
100
AcDbLine
 10
184.4510825162
 20
117.0140819807
 30
0.0
 11
184.6417876444
 21
116.8550274935
 31
0.0
  0
LINE
  5
60
330
1F
100
AcDbEntity
  8
0
  6
Continuous
 62
     7
370
    15
100
AcDbLine
 10
184.3741594392
 20
116.9299473653
 30
0.0
 11
184.4510825162
 21
117.0140819807
 31
0.0
  0
LINE
  5
61
330
1F
100
AcDbEntity
  8
0
  6
Continuous
 62
     7
370
    15
100
AcDbLine
 10
184.5564511059
 20
116.7793063397
 30
0.0
 11
184.3741594392
 21
116.9299473653
 31
0.0
  0
SPLINE
  5
62
330
1F
100
AcDbEntity
  8
0
  6
Continuous
 62
     7
370
    15
100
AcDbSpline
210
0.0
220
0.0
230
1.0
 70
     8
 71
     3
 72
    15
 73
    11
 74
     0
 42
0.00000001
 43
0.00000001
 40
0.0
 40
0.0
 40
0.0
 40
0.0
 40
0.1403613678925674
 40
0.2729911849240512
 40
0.3997046194445439
 40
0.5206883265883107
 40
0.6385435053577637
 40
0.7572108286350446
 40
0.8775299389297806
 40
1.0
 40
1.0
 40
1.0
 40
1.0
 10
184.3849767469341
 20
116.298937749941
 30
0.0
 10
184.385558636991
 20
116.3233951994278
 30
0.0
 10
184.3866903647485
 20
116.3709629042447
 30
0.0
 10
184.394211666955
 20
116.4403051130028
 30
0.0
 10
184.407370430794
 20
116.5053537212376
 30
0.0
 10
184.4259161370119
 20
116.5663835766671
 30
0.0
 10
184.44970751974
 20
116.6240870654018
 30
0.0
 10
184.4797037187558
 20
116.6786511308312
 30
0.0
 10
184.5147771834467
 20
116.7311334203758
 30
0.0
 10
184.5424779948254
 20
116.7631541391492
 30
0.0
 10
184.5564511059084
 20
116.7793063396846
 30
0.0
  0
SPLINE
  5
63
330
1F
100
AcDbEntity
  8
0
  6
Continuous
 62
     7
370
    15
100
AcDbSpline
210
0.0
220
0.0
230
1.0
 70
     8
 71
     3
 72
    23
 73
    19
 74
     0
 42
0.00000001
 43
0.00000001
 40
0.0
 40
0.0
 40
0.0
 40
0.0
 40
0.0741616272249798
 40
0.1445878049908748
 40
0.2113142299987958
 40
0.2752190918922832
 40
0.3367501428625261
 40
0.396175416223533
 40
0.45462969258529
 40
0.5128409438794409
 40
0.5703342074201091
 40
0.6273792529976987
 40
0.6844968626457187
 40
0.7430428852326559
 40
0.8029949687690098
 40
0.8655723797160643
 40
0.930946552336257
 40
1.0
 40
1.0
 40
1.0
 40
1.0
 10
185.1417876443699
 20
115.595812749941
 30
0.0
 10
185.1127826400501
 20
115.5962824116218
 30
0.0
 10
185.0562335854343
 20
115.5971980785786
 30
0.0
 10
184.9740091729495
 20
115.6062886533658
 30
0.0
 10
184.8965962109418
 20
115.6204061571969
 30
0.0
 10
184.8242105856129
 20
115.6409472804861
 30
0.0
 10
184.7566322502957
 20
115.6668747795103
 30
0.0
 10
184.6939611652769
 20
115.6986789315773
 30
0.0
 10
184.6362683455387
 20
115.7365271084263
 30
0.0
 10
184.5839134905177
 20
115.7802651913338
 30
0.0
 10
184.5366913234022
 20
115.8287460319354
 30
0.0
 10
184.496026528882
 20
115.8823641421718
 30
0.0
 10
184.4618530890293
 20
115.940739561729
 30
0.0
 10
184.4331190426423
 20
116.0032599106797
 30
0.0
 10
184.4116743625287
 20
116.0708873607481
 30
0.0
 10
184.3960595227677
 20
116.1427615914851
 30
0.0
 10
184.386799281198
 20
116.2193701450519
 30
0.0
 10
184.385595243169
 20
116.2719356435762
 30
0.0
 10
184.3849767469341
 20
116.298937749941
 30
0.0
  0
SPLINE
  5
64
330
1F
100
AcDbEntity
  8
0
  6
Continuous
 62
     7
370
    15
100
AcDbSpline
210
0.0
220
0.0
230
1.0
 70
     8
 71
     3
 72
    15
 73
    11
 74
     0
 42
0.00000001
 43
0.00000001
 40
0.0
 40
0.0
 40
0.0
 40
0.0
 40
0.1108744649420503
 40
0.2233300706365655
 40
0.33736500148547
 40
0.4556561916665529
 40
0.5792558067940562
 40
0.7109610223870124
 40
0.8507980240008989
 40
0.9999999999999999
 40
0.9999999999999999
 40
0.9999999999999999
 40
0.9999999999999999
 10
185.6437908494981
 20
115.732030698659
 30
0.0
 10
185.6277054497343
 20
115.7208816605128
 30
0.0
 10
185.5953052621227
 20
115.6984245918089
 30
0.0
 10
185.542548936185
 20
115.670600133797
 30
0.0
 10
185.4863651361729
 20
115.6471256174434
 30
0.0
 10
185.4263359507861
 20
115.6284965728153
 30
0.0
 10
185.3621175901156
 20
115.6134129748844
 30
0.0
 10
185.2930813115335
 20
115.6034201640251
 30
0.0
 10
185.2191098578807
 20
115.5967343868083
 30
0.0
 10
185.1681124936323
 20
115.5961265271922
 30
0.0
 10
185.1417876443699
 20
115.595812749941
 30
0.0
  0
LINE
  5
65
330
1F
100
AcDbEntity
  8
0
  6
Continuous
 62
     7
370
    15
100
AcDbLine
 10
185.8601370033
 20
115.5593544166
 30
0.0
 11
185.6437908495
 21
115.7320306987
 31
0.0
  0
LINE
  5
66
330
1F
100
AcDbEntity
  8
0
  6
Continuous
 62
     7
370
    15
100
AcDbLine
 10
185.916627388
 20
115.644290314
 30
0.0
 11
185.8601370033
 21
115.5593544166
 31
0.0
  0
LINE
  5
67
330
1F
100
AcDbEntity
  8
0
  6
Continuous
 62
     7
370
    15
100
AcDbLine
 10
186.3721562341
 20
117.7137614679
 30
0.0
 11
189.8721562341
 21
117.7137614679
 31
0.0
  0
LINE
  5
68
330
1F
100
AcDbEntity
  8
0
  6
Continuous
 62
     7
370
    15
100
AcDbLine
 10
189.8721562341
 20
94.9845767896
 30
0.0
 11
189.8721562341
 21
117.7137614679
 31
0.0
  0
SPLINE
  5
69
330
1F
100
AcDbEntity
  8
0
  6
Continuous
 62
     7
370
    15
100
AcDbSpline
210
0.0
220
0.0
230
1.0
 70
     8
 71
     3
 72
     8
 73
     4
 74
     0
 42
0.00000001
 43
0.00000001
 40
0.0
 40
0.0
 40
0.0
 40
0.0
 40
1.0
 40
1.0
 40
1.0
 40
1.0
 10
189.8721562341135
 20
94.98457678958398
 30
0.0
 10
189.7235758966923
 20
94.81796514850369
 30
0.0
 10
189.5747585968246
 20
94.65155263625252
 30
0.0
 10
189.4257206688153
 20
94.4853255264739
 30
0.0
  0
LINE
  5
6A
330
1F
100
AcDbEntity
  8
0
  6
Continuous
 62
     7
370
    15
100
AcDbLine
 10
189.4257206688
 20
94.4853255265
 30
0.0
 11
178.2257206688
 21
94.4853255265
 31
0.0
  0
LINE
  5
6B
330
1F
100
AcDbEntity
  8
0
  6
Continuous
 62
     7
370
    15
100
AcDbLine
 10
178.2257206688
 20
94.4853255265
 30
0.0
 11
178.2257206688
 21
105.5095888426
 31
0.0
  0
SPLINE
  5
6C
330
1F
100
AcDbEntity
  8
0
  6
Continuous
 62
     7
370
    15
100
AcDbSpline
210
0.0
220
0.0
230
1.0
 70
     8
 71
     3
 72
    10
 73
     6
 74
     0
 42
0.00000001
 43
0.00000001
 40
0.0
 40
0.0
 40
0.0
 40
0.0
 40
0.5
 40
0.5
 40
1.0
 40
1.0
 40
1.0
 40
1.0
 10
178.2257206688153
 20
105.5095888426469
 30
0.0
 10
177.9762077539331
 20
106.1818969186818
 30
0.0
 10
177.7431216453529
 20
106.860202573555
 30
0.0
 10
177.325035367795
 20
108.2343705043809
 30
0.0
 10
177.1395654405221
 20
108.9325315661603
 30
0.0
 10
176.9898222839531
 20
109.6381662779919
 30
0.0
  0
SPLINE
  5
6D
330
1F
100
AcDbEntity
  8
0
  6
Continuous
 62
     7
370
    15
100
AcDbSpline
210
0.0
220
0.0
230
1.0
 70
     8
 71
     3
 72
    18
 73
    14
 74
     0
 42
0.00000001
 43
0.00000001
 40
0.0
 40
0.0
 40
0.0
 40
0.0
 40
0.2499999999999989
 40
0.2499999999999989
 40
0.3749999999999987
 40
0.3749999999999987
 40
0.4374999999999988
 40
0.4374999999999988
 40
0.499999999999999
 40
0.499999999999999
 40
0.7499999999999996
 40
0.7499999999999996
 40
1.0
 40
1.0
 40
1.0
 40
1.0
 10
176.9898222839531
 20
109.6381662779919
 30
0.0
 10
176.8586959310513
 20
110.2560730215346
 30
0.0
 10
176.7258970223007
 20
110.8737197685709
 30
0.0
 10
176.580098218044
 20
111.8084907771055
 30
0.0
 10
176.5405544682525
 20
112.1214888329636
 30
0.0
 10
176.5010728673528
 20
112.5940690884688
 30
0.0
 10
176.4911998884249
 20
112.752106886161
 30
0.0
 10
176.4787091690194
 20
113.0693102983837
 30
0.0
 10
176.4761648520368
 20
113.2320105109202
 30
0.0
 10
176.4815567414291
 20
113.9984248024901
 30
0.0
 10
176.5438740559595
 20
114.6026506056581
 30
0.0
 10
176.7360064959827
 20
115.8007389167458
 30
0.0
 10
176.863678745456
 20
116.3949304317334
 30
0.0
 10
176.9898222839531
 20
116.9893566577875
 30
0.0
  0
SPLINE
  5
6E
330
1F
100
AcDbEntity
  8
0
  6
Continuous
 62
     7
370
    15
100
AcDbSpline
210
0.0
220
0.0
230
1.0
 70
     8
 71
     3
 72
     8
 73
     4
 74
     0
 42
0.00000001
 43
0.00000001
 40
0.0
 40
0.0
 40
0.0
 40
0.0
 40
1.0
 40
1.0
 40
1.0
 40
1.0
 10
176.9898222839531
 20
116.9893566577875
 30
0.0
 10
177.2893778483254
 20
118.4009524140583
 30
0.0
 10
177.7253134451387
 20
119.769595799931
 30
0.0
 10
178.2257206688153
 20
121.1179340931325
 30
0.0
  0
LINE
  5
6F
330
1F
100
AcDbEntity
  8
0
  6
Continuous
 62
     7
370
    15
100
AcDbLine
 10
178.2257206688
 20
121.1179340931
 30
0.0
 11
178.2257206688
 21
132.1421974093
 31
0.0
  0
LINE
  5
70
330
1F
100
AcDbEntity
  8
0
  6
Continuous
 62
     7
370
    15
100
AcDbLine
 10
178.2257206688
 20
132.1421974093
 30
0.0
 11
189.4257206688
 21
132.1421974093
 31
0.0
  0
SPLINE
  5
71
330
1F
100
AcDbEntity
  8
0
  6
Continuous
 62
     7
370
    15
100
AcDbSpline
210
0.0
220
0.0
230
1.0
 70
     8
 71
     3
 72
     8
 73
     4
 74
     0
 42
0.00000001
 43
0.00000001
 40
0.0
 40
0.0
 40
0.0
 40
0.0
 40
1.0
 40
1.0
 40
1.0
 40
1.0
 10
189.4257206688153
 20
132.1421974093056
 30
0.0
 10
189.5747539854706
 20
131.975975442728
 30
0.0
 10
189.7235711884823
 20
131.8095630668612
 30
0.0
 10
189.8721562341135
 20
131.6429461461955
 30
0.0
  0
LINE
  5
72
330
1F
100
AcDbEntity
  8
0
  6
Continuous
 62
     7
370
    15
100
AcDbLine
 10
189.8721562341
 20
117.9137614679
 30
0.0
 11
189.8721562341
 21
131.6429461462
 31
0.0
  0
LINE
  5
73
330
1F
100
AcDbEntity
  8
0
  6
Continuous
 62
     7
370
    15
100
AcDbLine
 10
189.8721562341
 20
117.9137614679
 30
0.0
 11
186.3721562341
 21
117.9137614679
 31
0.0
  0
LINE
  5
74
330
1F
100
AcDbEntity
  8
0
  6
Continuous
 62
     7
370
    15
100
AcDbLine
 10
186.3721562341
 20
117.9137614679
 30
0.0
 11
186.3721562341
 21
117.7137614679
 31
0.0
  0
SPLINE
  5
75
330
1F
100
AcDbEntity
  8
0
  6
Continuous
 62
     7
370
    15
100
AcDbSpline
210
0.0
220
0.0
230
1.0
 70
     8
 71
     3
 72
    23
 73
    19
 74
     0
 42
0.00000001
 43
0.00000001
 40
0.0
 40
0.0
 40
0.0
 40
0.0
 40
0.0677765958275599
 40
0.1322881594609998
 40
0.1948305235305437
 40
0.255650051257816
 40
0.3152616818316574
 40
0.3744916055493827
 40
0.43435986326125
 40
0.494721868952866
 40
0.5554411759740874
 40
0.6156452507914992
 40
0.6756116494233748
 40
0.7366334191855165
 40
0.7989998045710524
 40
0.8632885296676914
 40
0.930353881145308
 40
1.0
 40
1.0
 40
1.0
 40
1.0
 10
185.2363389264212
 20
118.518889673018
 30
0.0
 10
185.2605402507464
 20
118.5184145847036
 30
0.0
 10
185.3077770382009
 20
118.5174872947163
 30
0.0
 10
185.3768526892331
 20
118.5083831789017
 30
0.0
 10
185.4423933036605
 20
118.4937534020285
 30
0.0
 10
185.5043475536922
 20
118.472742745559
 30
0.0
 10
185.5629061672877
 20
118.4463215373088
 30
0.0
 10
185.6177488994928
 20
118.4135037362735
 30
0.0
 10
185.6691353400321
 20
118.3750578977469
 30
0.0
 10
185.7163108291606
 20
118.3307972779576
 30
0.0
 10
185.7592840036891
 20
118.2822559755869
 30
0.0
 10
185.7960408621641
 20
118.2290239818892
 30
0.0
 10
185.8277168529191
 20
118.1725244147611
 30
0.0
 10
185.8532983103727
 20
118.112153073911
 30
0.0
 10
185.8733476805479
 20
118.0481398396214
 30
0.0
 10
185.8878223840432
 20
117.980435199245
 30
0.0
 10
185.896225498827
 20
117.9090607109294
 30
0.0
 10
185.8972667871472
 20
117.8602580495013
 30
0.0
 10
185.8977972597545
 20
117.8353960832744
 30
0.0
  0
SPLINE
  5
76
330
1F
100
AcDbEntity
  8
0
  6
Continuous
 62
     7
370
    15
100
AcDbSpline
210
0.0
220
0.0
230
1.0
 70
     8
 71
     3
 72
    23
 73
    19
 74
     0
 42
0.00000001
 43
0.00000001
 40
0.0
 40
0.0
 40
0.0
 40
0.0
 40
0.0708501634005573
 40
0.1385503409748547
 40
0.2035510793055047
 40
0.2663610424777482
 40
0.3276954972242919
 40
0.3880478379767513
 40
0.4477316543071733
 40
0.5083051969514711
 40
0.5681774228515528
 40
0.627187792138876
 40
0.6860641417733352
 40
0.7451791265433843
 40
0.8057139203025647
 40
0.867702884827676
 40
0.9323113763429445
 40
1.0
 40
1.0
 40
1.0
 40
1.0
 10
184.6157459777033
 20
117.8690499294282
 30
0.0
 10
184.6162884335606
 20
117.8929780237221
 30
0.0
 10
184.6173492277831
 20
117.9397703734384
 30
0.0
 10
184.6255210178018
 20
118.0081246144278
 30
0.0
 10
184.6386564675251
 20
118.0728875478081
 30
0.0
 10
184.6569759958809
 20
118.1341892872266
 30
0.0
 10
184.6812027335787
 20
118.1917016072114
 30
0.0
 10
184.7104204769128
 20
118.2456474635888
 30
0.0
 10
184.7452951230862
 20
118.2958287966522
 30
0.0
 10
184.7851304038687
 20
118.3419224737839
 30
0.0
 10
184.8291343047487
 20
118.383742341532
 30
0.0
 10
184.8771038797163
 20
118.4200330357883
 30
0.0
 10
184.928615201082
 20
118.4505943639134
 30
0.0
 10
184.9836176849051
 20
118.475497821798
 30
0.0
 10
185.0417818484682
 20
118.495354940863
 30
0.0
 10
185.1036522354033
 20
118.5086419795613
 30
0.0
 10
185.1687795368083
 20
118.5174170330104
 30
0.0
 10
185.2134722854058
 20
118.5183912326
 30
0.0
 10
185.2363389264212
 20
118.518889673018
 30
0.0
  0
SPLINE
  5
77
330
1F
100
AcDbEntity
  8
0
  6
Continuous
 62
     7
370
    15
100
AcDbSpline
210
0.0
220
0.0
230
1.0
 70
     8
 71
     3
 72
    15
 73
    11
 74
     0
 42
0.00000001
 43
0.00000001
 40
0.0
 40
0.0
 40
0.0
 40
0.0
 40
0.118448846930616
 40
0.2381023968662213
 40
0.35790725808183
 40
0.4812348986488386
 40
0.605962351649317
 40
0.7330677587568702
 40
0.8644714209938675
 40
1.0
 40
1.0
 40
1.0
 40
1.0
 10
184.7451530289853
 20
117.5004601858385
 30
0.0
 10
184.7350013076076
 20
117.5125429640952
 30
0.0
 10
184.714594615141
 20
117.5368314104439
 30
0.0
 10
184.688826099942
 20
117.5770499660712
 30
0.0
 10
184.6665104076939
 20
117.6199422990616
 30
0.0
 10
184.648254277164
 20
117.6654622517177
 30
0.0
 10
184.6337684846704
 20
117.7133249874843
 30
0.0
 10
184.6234115311997
 20
117.7633282874247
 30
0.0
 10
184.6167458511686
 20
117.81545076449
 30
0.0
 10
184.6160826848388
 20
117.8510004242478
 30
0.0
 10
184.6157459777033
 20
117.8690499294282
 30
0.0
  0
LINE
  5
78
330
1F
100
AcDbEntity
  8
0
  6
Continuous
 62
     7
370
    15
100
AcDbLine
 10
184.2311305931
 20
117.5781845448
 30
0.0
 11
184.745153029
 21
117.5004601858
 31
0.0
  0
LINE
  5
79
330
1F
100
AcDbEntity
  8
0
  6
Continuous
 62
     7
370
    15
100
AcDbLine
 10
184.2311305931
 20
118.4191300576
 30
0.0
 11
184.2311305931
 21
117.5781845448
 31
0.0
  0
LINE
  5
7A
330
1F
100
AcDbEntity
  8
0
  6
Continuous
 62
     7
370
    15
100
AcDbLine
 10
184.0003613623
 20
118.4191300576
 30
0.0
 11
184.2311305931
 21
118.4191300576
 31
0.0
  0
LINE
  5
7B
330
1F
100
AcDbEntity
  8
0
  6
Continuous
 62
     7
370
    15
100
AcDbLine
 10
184.0003613623
 20
117.393489032
 30
0.0
 11
184.0003613623
 21
118.4191300576
 31
0.0
  0
LINE
  5
7C
330
1F
100
AcDbEntity
  8
0
  6
Continuous
 62
     7
370
    15
100
AcDbLine
 10
185.0163870033
 20
117.236838391
 30
0.0
 11
184.0003613623
 21
117.393489032
 31
0.0
  0
LINE
  5
7D
330
1F
100
AcDbEntity
  8
0
  6
Continuous
 62
     7
370
    15
100
AcDbLine
 10
185.0163870033
 20
117.4636012115
 30
0.0
 11
185.0163870033
 21
117.236838391
 31
0.0
  0
SPLINE
  5
7E
330
1F
100
AcDbEntity
  8
0
  6
Continuous
 62
     7
370
    15
100
AcDbSpline
210
0.0
220
0.0
230
1.0
 70
     8
 71
     3
 72
    15
 73
    11
 74
     0
 42
0.00000001
 43
0.00000001
 40
0.0
 40
0.0
 40
0.0
 40
0.0
 40
0.1310276624941691
 40
0.25760352130028
 40
0.3810891622239783
 40
0.5032974335679412
 40
0.6255019721648821
 40
0.7476505058680535
 40
0.8715602375327506
 40
1.0
 40
1.0
 40
1.0
 40
1.0
 10
184.8465152084725
 20
117.8317903140436
 30
0.0
 10
184.8470594589369
 20
117.8134628955842
 30
0.0
 10
184.8481294683795
 20
117.7774307521298
 30
0.0
 10
184.8564125135303
 20
117.7246661149431
 30
0.0
 10
184.8694591503558
 20
117.6741700094181
 30
0.0
 10
184.8885752543764
 20
117.6262920536656
 30
0.0
 10
184.9124710675401
 20
117.5808109350975
 30
0.0
 10
184.9421873113666
 20
117.5386478273183
 30
0.0
 10
184.9762596844015
 20
117.4986914619183
 30
0.0
 10
185.0028521064843
 20
117.4754371111357
 30
0.0
 10
185.0163870033443
 20
117.4636012114795
 30
0.0
  0
SPLINE
  5
7F
330
1F
100
AcDbEntity
  8
0
  6
Continuous
 62
     7
370
    15
100
AcDbSpline
210
0.0
220
0.0
230
1.0
 70
     8
 71
     3
 72
    23
 73
    19
 74
     0
 42
0.00000001
 43
0.00000001
 40
0.0
 40
0.0
 40
0.0
 40
0.0
 40
0.0684933746122987
 40
0.1338115656163999
 40
0.1966093370406626
 40
0.2572033901352096
 40
0.3160514642318362
 40
0.3747308325370113
 40
0.4325684730013631
 40
0.4914977148206846
 40
0.5510039313978926
 40
0.6100891820725785
 40
0.6697350603823717
 40
0.7308411522193269
 40
0.7941051597533559
 40
0.8596884221483995
 40
0.9279617475538904
 40
1.0
 40
1.0
 40
1.0
 40
1.0
 10
185.2575729007802
 20
118.2624794166077
 30
0.0
 10
185.2422043233763
 20
118.2620326495084
 30
0.0
 10
185.2121796178431
 20
118.2611598263288
 30
0.0
 10
185.1682438501283
 20
118.2561598853752
 30
0.0
 10
185.1269159174326
 20
118.2466693119794
 30
0.0
 10
185.0877461677887
 20
118.2346225421427
 30
0.0
 10
185.0513750016626
 20
118.2177844383321
 30
0.0
 10
185.0173691144921
 20
118.1978651438301
 30
0.0
 10
184.9856215455065
 20
118.1744064988064
 30
0.0
 10
184.9569229885043
 20
118.1470550364496
 30
0.0
 10
184.9309022739645
 20
118.1167830831108
 30
0.0
 10
184.9084210254842
 20
118.0836080695367
 30
0.0
 10
184.8889396653331
 20
118.0481808834903
 30
0.0
 10
184.8732939558967
 20
118.0098564429962
 30
0.0
 10
184.8614584638074
 20
117.9688383784331
 30
0.0
 10
184.8525856638105
 20
117.9254539734676
 30
0.0
 10
184.8472865428835
 20
117.8794651469895
 30
0.0
 10
184.8467768784863
 20
117.8479636806353
 30
0.0
 10
184.8465152084725
 20
117.8317903140436
 30
0.0
  0
SPLINE
  5
80
330
1F
100
AcDbEntity
  8
0
  6
Continuous
 62
     7
370
    15
100
AcDbSpline
210
0.0
220
0.0
230
1.0
 70
     8
 71
     3
 72
    23
 73
    19
 74
     0
 42
0.00000001
 43
0.00000001
 40
0.0
 40
0.0
 40
0.0
 40
0.0
 40
0.071025774691256
 40
0.1389477128778537
 40
0.204110346722837
 40
0.2669602857933056
 40
0.3284479901596874
 40
0.388767175584703
 40
0.4493218687299842
 40
0.5098177708971838
 40
0.5701487535422207
 40
0.6293244564847588
 40
0.687944336526472
 40
0.7471891506798859
 40
0.8075525637917172
 40
0.8693433428242541
 40
0.9331234019578382
 40
0.9999999999999999
 40
0.9999999999999999
 40
0.9999999999999999
 40
0.9999999999999999
 10
185.6670280289853
 20
117.8289858268641
 30
0.0
 10
185.6668092086939
 20
117.8448974241957
 30
0.0
 10
185.6663811305891
 20
117.8760252797815
 30
0.0
 10
185.6604333814458
 20
117.9214223005232
 30
0.0
 10
185.6516915468287
 20
117.9644274043749
 30
0.0
 10
185.6398890973374
 20
118.0052668641849
 30
0.0
 10
185.6236157296054
 20
118.0433620013794
 30
0.0
 10
185.6042824768536
 20
118.0793720696155
 30
0.0
 10
185.5815554316685
 20
118.1131392303815
 30
0.0
 10
185.5548878220329
 20
118.1438518174608
 30
0.0
 10
185.5259526950012
 20
118.1720089946517
 30
0.0
 10
185.4940096213821
 20
118.1960372624193
 30
0.0
 10
185.4601204518478
 20
118.2167038172059
 30
0.0
 10
185.4239042934865
 20
118.2336833103291
 30
0.0
 10
185.3852346737148
 20
118.2463611250061
 30
0.0
 10
185.3445911765537
 20
118.2555605897383
 30
0.0
 10
185.3018064065835
 20
118.2613168409324
 30
0.0
 10
185.2725485380942
 20
118.2620858165223
 30
0.0
 10
185.2575729007802
 20
118.2624794166077
 30
0.0
  0
SPLINE
  5
81
330
1F
100
AcDbEntity
  8
0
  6
Continuous
 62
     7
370
    15
100
AcDbSpline
210
0.0
220
0.0
230
1.0
 70
     8
 71
     3
 72
    23
 73
    19
 74
     0
 42
0.00000001
 43
0.00000001
 40
0.0
 40
0.0
 40
0.0
 40
0.0
 40
0.0655921808551891
 40
0.129180073737303
 40
0.190191274976732
 40
0.2506144568036646
 40
0.3096228071024329
 40
0.3685479623801412
 40
0.4275609311855671
 40
0.4872215302799701
 40
0.5470418024542752
 40
0.6075731404211644
 40
0.6686780780604444
 40
0.7305586307198295
 40
0.7948583107869067
 40
0.8607655216233974
 40
0.9290889025281003
 40
1.0
 40
1.0
 40
1.0
 40
1.0
 10
185.3609382853956
 20
117.4419665960949
 30
0.0
 10
185.3725866697258
 20
117.4442293357073
 30
0.0
 10
185.3955275008901
 20
117.4486856728221
 30
0.0
 10
185.4287927541929
 20
117.4576641294212
 30
0.0
 10
185.4600354700297
 20
117.4698600126452
 30
0.0
 10
185.4891030390673
 20
117.4847758204924
 30
0.0
 10
185.5167403641732
 20
117.5015207235734
 30
0.0
 10
185.541964178998
 20
117.521334842362
 30
0.0
 10
185.5653248157051
 20
117.5434488778882
 30
0.0
 10
185.5865218798807
 20
117.5678712464895
 30
0.0
 10
185.6054557681864
 20
117.594429685126
 30
0.0
 10
185.6217812402665
 20
117.6229469184292
 30
0.0
 10
185.6360094135408
 20
117.6530037521183
 30
0.0
 10
185.6470018311623
 20
117.6850824017372
 30
0.0
 10
185.6566018624402
 20
117.7185343405205
 30
0.0
 10
185.6620757074209
 20
117.7540743700114
 30
0.0
 10
185.6665312238547
 20
117.7909467697437
 30
0.0
 10
185.6668603880683
 20
117.8161500044761
 30
0.0
 10
185.6670280289853
 20
117.8289858268641
 30
0.0
  0
LINE
  5
82
330
1F
100
AcDbEntity
  8
0
  6
Continuous
 62
     7
370
    15
100
AcDbLine
 10
185.3609382854
 20
117.1855563397
 30
0.0
 11
185.3609382854
 21
117.4419665961
 31
0.0
  0
SPLINE
  5
83
330
1F
100
AcDbEntity
  8
0
  6
Continuous
 62
     7
370
    15
100
AcDbSpline
210
0.0
220
0.0
230
1.0
 70
     8
 71
     3
 72
    23
 73
    19
 74
     0
 42
0.00000001
 43
0.00000001
 40
0.0
 40
0.0
 40
0.0
 40
0.0
 40
0.0713028631544238
 40
0.1399434112272512
 40
0.2062879644383231
 40
0.2705573465272089
 40
0.3329058063923434
 40
0.394530443442408
 40
0.4557801856819167
 40
0.5170780424160731
 40
0.5778597038374629
 40
0.6371419817418811
 40
0.6961266817804158
 40
0.7548028749470304
 40
0.8135982777820885
 40
0.8737322941205731
 40
0.9358928076660878
 40
1.0
 40
1.0
 40
1.0
 40
1.0
 10
185.8977972597545
 20
117.8353960832744
 30
0.0
 10
185.8973320777818
 20
117.8132072690483
 30
0.0
 10
185.8964190828583
 20
117.7696581292732
 30
0.0
 10
185.8893479010134
 20
117.7058040344939
 30
0.0
 10
185.8785977943202
 20
117.6446660523256
 30
0.0
 10
185.8617667711501
 20
117.5869531476744
 30
0.0
 10
185.8415335973937
 20
117.531917852643
 30
0.0
 10
185.8160120847141
 20
117.4801553465293
 30
0.0
 10
185.7864924835687
 20
117.4309363187068
 30
0.0
 10
185.7518234853599
 20
117.3855402600973
 30
0.0
 10
185.7142077620811
 20
117.3433679288179
 30
0.0
 10
185.6724456157868
 20
117.3063319553024
 30
0.0
 10
185.627956218117
 20
117.273781580746
 30
0.0
 10
185.5805214672608
 20
117.2459385187506
 30
0.0
 10
185.5299624086574
 20
117.2233503710066
 30
0.0
 10
185.4763264054469
 20
117.2059131208304
 30
0.0
 10
185.4198369136007
 20
117.192264109192
 30
0.0
 10
185.3807719174657
 20
117.1878151262892
 30
0.0
 10
185.3609382853956
 20
117.1855563396846
 30
0.0
  0
SPLINE
  5
84
330
1F
100
AcDbEntity
  8
0
  6
Continuous
 62
     7
370
    15
100
AcDbSpline
210
0.0
220
0.0
230
1.0
 70
     8
 71
     3
 72
    15
 73
    11
 74
     0
 42
0.00000001
 43
0.00000001
 40
0.0
 40
0.0
 40
0.0
 40
0.0
 40
0.1531773058053812
 40
0.2973501974275811
 40
0.4338256551584885
 40
0.5629720294948142
 40
0.6840248260165152
 40
0.7968619277653766
 40
0.902468679734611
 40
1.0
 40
1.0
 40
1.0
 40
1.0
 10
185.1578132853956
 20
116.7496589037872
 30
0.0
 10
185.1400467698437
 20
116.7495559380541
 30
0.0
 10
185.1055581301646
 20
116.7493560593522
 30
0.0
 10
185.0553187315136
 20
116.7463573730964
 30
0.0
 10
185.0079760858337
 20
116.7421358279037
 30
0.0
 10
184.9635409442088
 20
116.7358681429505
 30
0.0
 10
184.9223136928484
 20
116.727254525099
 30
0.0
 10
184.884054332102
 20
116.7179139419708
 30
0.0
 10
184.8491757737404
 20
116.7064664019279
 30
0.0
 10
184.8276185424739
 20
116.6969407327692
 30
0.0
 10
184.8172684136007
 20
116.6923672371205
 30
0.0
  0
SPLINE
  5
85
330
1F
100
AcDbEntity
  8
0
  6
Continuous
 62
     7
370
    15
100
AcDbSpline
210
0.0
220
0.0
230
1.0
 70
     8
 71
     3
 72
    23
 73
    19
 74
     0
 42
0.00000001
 43
0.00000001
 40
0.0
 40
0.0
 40
0.0
 40
0.0
 40
0.0680596193819705
 40
0.1321003924298182
 40
0.1931643596428783
 40
0.251722907341496
 40
0.3081377628645044
 40
0.3636564409524367
 40
0.4187830708303008
 40
0.4742528944262425
 40
0.5305540454736875
 40
0.5884501520310464
 40
0.6486441713806883
 40
0.7112939621973364
 40
0.7772776714525642
 40
0.8472232328561352
 40
0.9215208404809972
 40
1.0
 40
1.0
 40
1.0
 40
1.0
 10
185.6926690546263
 20
116.2865178781461
 30
0.0
 10
185.6923382434859
 20
116.3048330291926
 30
0.0
 10
185.6916961552423
 20
116.340381841581
 30
0.0
 10
185.6851891830224
 20
116.3920457604056
 30
0.0
 10
185.6743336194182
 20
116.4403046636721
 30
0.0
 10
185.659708784002
 20
116.4854398753138
 30
0.0
 10
185.6403077348338
 20
116.5271351845773
 30
0.0
 10
185.6164677979553
 20
116.5653362832569
 30
0.0
 10
185.588792121287
 20
116.6005631599755
 30
0.0
 10
185.556445514471
 20
116.6318790332237
 30
0.0
 10
185.5201343113513
 20
116.6596844603721
 30
0.0
 10
185.4797782608362
 20
116.6838053693477
 30
0.0
 10
185.4355248003972
 20
116.7041199390653
 30
0.0
 10
185.3875758541784
 20
116.7211222553528
 30
0.0
 10
185.3355851298402
 20
116.733727244917
 30
0.0
 10
185.2797361445429
 20
116.7428462024537
 30
0.0
 10
185.2200276340831
 20
116.7484969629183
 30
0.0
 10
185.1789263866487
 20
116.749264586789
 30
0.0
 10
185.1578132853956
 20
116.7496589037872
 30
0.0
  0
SPLINE
  5
86
330
1F
100
AcDbEntity
  8
0
  6
Continuous
 62
     7
370
    15
100
AcDbSpline
210
0.0
220
0.0
230
1.0
 70
     8
 71
     3
 72
    15
 73
    11
 74
     0
 42
0.00000001
 43
0.00000001
 40
0.0
 40
0.0
 40
0.0
 40
0.0
 40
0.1219705252910379
 40
0.2404757357030002
 40
0.3592792820665022
 40
0.4774166533797468
 40
0.5987001228359919
 40
0.7242067579350201
 40
0.8587683072928302
 40
1.0
 40
1.0
 40
1.0
 40
1.0
 10
185.5632620033443
 20
115.9491781345564
 30
0.0
 10
185.5737954847385
 20
115.9600430904124
 30
0.0
 10
185.5945631798988
 20
115.9814643169474
 30
0.0
 10
185.621228881544
 20
116.0172917238665
 30
0.0
 10
185.6436875070305
 20
116.0552942606489
 30
0.0
 10
185.6618714029411
 20
116.0958980316042
 30
0.0
 10
185.6760553667289
 20
116.1389601200319
 30
0.0
 10
185.6854369517824
 20
116.1853650589085
 30
0.0
 10
185.6916124883916
 20
116.2348017156833
 30
0.0
 10
185.6923112327665
 20
116.269003431033
 30
0.0
 10
185.6926690546263
 20
116.2865178781461
 30
0.0
  0
LINE
  5
87
330
1F
100
AcDbEntity
  8
0
  6
Continuous
 62
     7
370
    15
100
AcDbLine
 10
184.8172684136
 20
116.6923672371
 30
0.0
 11
185.5632620033
 21
115.9491781346
 31
0.0
  0
SPLINE
  5
88
330
1F
100
AcDbEntity
  8
0
  6
Continuous
 62
     7
370
    15
100
AcDbSpline
210
0.0
220
0.0
230
1.0
 70
     8
 71
     3
 72
    23
 73
    19
 74
     0
 42
0.00000001
 43
0.00000001
 40
0.0
 40
0.0
 40
0.0
 40
0.0
 40
0.0984390142048077
 40
0.1898891054737543
 40
0.2745059724415639
 40
0.3528911536107983
 40
0.4243767882144422
 40
0.4905466715740981
 40
0.5505865979202018
 40
0.6056156797702045
 40
0.6569862395491187
 40
0.7058457439829716
 40
0.7530890255640088
 40
0.799704085952987
 40
0.8468976387195274
 40
0.8953137043859203
 40
0.9461208110602313
 40
1.0
 40
1.0
 40
1.0
 40
1.0
 10
184.9254414905238
 20
119.8009409550692
 30
0.0
 10
184.8939194781438
 20
119.8006177649574
 30
0.0
 10
184.8331134371456
 20
119.7999943304204
 30
0.0
 10
184.745290864185
 20
119.7956880886915
 30
0.0
 10
184.6641257563601
 20
119.7882168203105
 30
0.0
 10
184.5897685804892
 20
119.7775165858723
 30
0.0
 10
184.5218955283027
 20
119.7639699283226
 30
0.0
 10
184.460680228091
 20
119.7475446548984
 30
0.0
 10
184.4061969255905
 20
119.7273552888003
 30
0.0
 10
184.3578531784072
 20
119.704691594224
 30
0.0
 10
184.3157135321736
 20
119.6780466599054
 30
0.0
 10
184.2792374330016
 20
119.6478453027123
 30
0.0
 10
184.248364241093
 20
119.6139057710195
 30
0.0
 10
184.2233743262256
 20
119.5761150337156
 30
0.0
 10
184.203351869966
 20
119.535005648535
 30
0.0
 10
184.1900573054155
 20
119.4898958022434
 30
0.0
 10
184.1812888501344
 20
119.4415058448155
 30
0.0
 10
184.1803379461979
 20
119.4079531857955
 30
0.0
 10
184.1798485418058
 20
119.3906845448128
 30
0.0
  0
SPLINE
  5
89
330
1F
100
AcDbEntity
  8
0
  6
Continuous
 62
     7
370
    15
100
AcDbSpline
210
0.0
220
0.0
230
1.0
 70
     8
 71
     3
 72
    23
 73
    19
 74
     0
 42
0.00000001
 43
0.00000001
 40
0.0
 40
0.0
 40
0.0
 40
0.0
 40
0.0540660825395642
 40
0.1049789540849693
 40
0.1536871753678173
 40
0.2008647203973482
 40
0.2474106367341129
 40
0.2948177935911996
 40
0.3435260148740532
 40
0.3947219046464358
 40
0.4495647299166509
 40
0.5098129199390845
 40
0.5754055611567538
 40
0.6475493948594531
 40
0.7253782469020759
 40
0.8102886288834225
 40
0.9016379660377544
 40
1.0
 40
1.0
 40
1.0
 40
1.0
 10
185.6670280289853
 20
119.3906845448128
 30
0.0
 10
185.6664752977031
 20
119.4079399572728
 30
0.0
 10
185.665402071215
 20
119.4414444219439
 30
0.0
 10
185.6575040630956
 20
119.4900331988786
 30
0.0
 10
185.6433024760723
 20
119.5348303164457
 30
0.0
 10
185.6239619737055
 20
119.5760952423691
 30
0.0
 10
185.5993384515706
 20
119.6140264087039
 30
0.0
 10
185.5684449736233
 20
119.6477004030235
 30
0.0
 10
185.532405275783
 20
119.6780674129166
 30
0.0
 10
185.4906285870001
 20
119.7046736240054
 30
0.0
 10
185.4425979522292
 20
119.7274645342132
 30
0.0
 10
185.3884158683846
 20
119.7473709259743
 30
0.0
 10
185.3274389793714
 20
119.7641798417372
 30
0.0
 10
185.2598810138012
 20
119.7773497952514
 30
0.0
 10
185.1857045507097
 20
119.7883117508499
 30
0.0
 10
185.1049199304145
 20
119.7956502408952
 30
0.0
 10
185.017370360311
 20
119.8000037682947
 30
0.0
 10
184.956830402005
 20
119.8006209546953
 30
0.0
 10
184.9254414905238
 20
119.8009409550692
 30
0.0
  0
SPLINE
  5
8A
330
1F
100
AcDbEntity
  8
0
  6
Continuous
 62
     7
370
    15
100
AcDbSpline
210
0.0
220
0.0
230
1.0
 70
     8
 71
     3
 72
    23
 73
    19
 74
     0
 42
0.00000001
 43
0.00000001
 40
0.0
 40
0.0
 40
0.0
 40
0.0
 40
0.0976640283990158
 40
0.1887248836851065
 40
0.2733793992072379
 40
0.351319078582575
 40
0.4231548269670129
 40
0.4893575888833869
 40
0.5496915715910117
 40
0.6051725023397568
 40
0.6567946586947461
 40
0.7055722398885371
 40
0.7530469039567428
 40
0.7995421412649695
 40
0.8469668329628464
 40
0.8952194610872376
 40
0.9462754047244933
 40
1.0
 40
1.0
 40
1.0
 40
1.0
 10
184.9254414905238
 20
118.9804281345564
 30
0.0
 10
184.9565617919439
 20
118.9807655330704
 30
0.0
 10
185.0166983167425
 20
118.9814175182111
 30
0.0
 10
185.1037472574343
 20
118.985555325618
 30
0.0
 10
185.1842081524701
 20
118.9936165446693
 30
0.0
 10
185.2581487294553
 20
119.004367806181
 30
0.0
 10
185.3257519191674
 20
119.0175751835155
 30
0.0
 10
185.386620400293
 20
119.0348532897209
 30
0.0
 10
185.4412130572251
 20
119.0546628139774
 30
0.0
 10
185.4893005164102
 20
119.077990475008
 30
0.0
 10
185.5315520769714
 20
119.1043637949207
 30
0.0
 10
185.5676682535407
 20
119.1348630402526
 30
0.0
 10
185.5983855923423
 20
119.1686075844043
 30
0.0
 10
185.6236286374274
 20
119.2061093354701
 30
0.0
 10
185.6434155449047
 20
119.2470716470459
 30
0.0
 10
185.6568958147808
 20
119.2919818348794
 30
0.0
 10
185.665549007398
 20
119.3401370059531
 30
0.0
 10
185.6665267213363
 20
119.373551686112
 30
0.0
 10
185.6670280289853
 20
119.3906845448128
 30
0.0
  0
SPLINE
  5
8B
330
1F
100
AcDbEntity
  8
0
  6
Continuous
 62
     7
370
    15
100
AcDbSpline
210
0.0
220
0.0
230
1.0
 70
     8
 71
     3
 72
    23
 73
    19
 74
     0
 42
0.00000001
 43
0.00000001
 40
0.0
 40
0.0
 40
0.0
 40
0.0
 40
0.0535316358029324
 40
0.104404204806922
 40
0.1526084953969189
 40
0.1996835345689524
 40
0.2462464380955081
 40
0.2938317657427627
 40
0.3427542231215191
 40
0.3945440397209177
 40
0.4498257028701527
 40
0.5103347576822719
 40
0.5767016629155589
 40
0.648279403062817
 40
0.7263523419851265
 40
0.811118358850785
 40
0.9022692150936801
 40
0.9999999999999999
 40
0.9999999999999999
 40
0.9999999999999999
 40
0.9999999999999999
 10
184.1798485418058
 20
119.3906845448128
 30
0.0
 10
184.1803664149762
 20
119.373557591561
 30
0.0
 10
184.1813764371011
 20
119.3401544289601
 30
0.0
 10
184.1898076331736
 20
119.2918781243083
 30
0.0
 10
184.2041007729017
 20
119.2472754595507
 30
0.0
 10
184.2230773424842
 20
119.2058737385066
 30
0.0
 10
184.248975718753
 20
119.1686234319268
 30
0.0
 10
184.2800082451221
 20
119.1348469674369
 30
0.0
 10
184.316543365799
 20
119.1043506887923
 30
0.0
 10
184.3591111223056
 20
119.0781034789154
 30
0.0
 10
184.4073571483518
 20
119.0545591610833
 30
0.0
 10
184.4622743390149
 20
119.0348726648285
 30
0.0
 10
184.5234083501604
 20
119.0176301999898
 30
0.0
 10
184.5912575405133
 20
119.0043195615485
 30
0.0
 10
184.6654760446372
 20
118.9936280911666
 30
0.0
 10
184.7463347031263
 20
118.9855534150175
 30
0.0
 10
184.8337843732367
 20
118.9814186492511
 30
0.0
 10
184.8941877094578
 20
118.9807658860625
 30
0.0
 10
184.9254414905238
 20
118.9804281345564
 30
0.0
  0
SPLINE
  5
8C
330
1F
100
AcDbEntity
  8
0
  6
Continuous
 62
     7
370
    15
100
AcDbSpline
210
0.0
220
0.0
230
1.0
 70
     8
 71
     3
 72
    15
 73
    11
 74
     0
 42
0.00000001
 43
0.00000001
 40
0.0
 40
0.0
 40
0.0
 40
0.0
 40
0.1621229105026591
 40
0.3101601963180694
 40
0.4454873620925175
 40
0.5671948750483865
 40
0.6805807150185207
 40
0.7899548354035412
 40
0.897097935451938
 40
1.0
 40
1.0
 40
1.0
 40
1.0
 10
185.1409863623186
 20
115.8265819807102
 30
0.0
 10
185.159153470159
 20
115.826680081705
 30
0.0
 10
185.1939092842312
 20
115.8268677604464
 30
0.0
 10
185.2437551844305
 20
115.8298024823796
 30
0.0
 10
185.288951702878
 20
115.8340503050726
 30
0.0
 10
185.3300434499723
 20
115.8400230329084
 30
0.0
 10
185.3678385427941
 20
115.8480221773877
 30
0.0
 10
185.4032988863246
 20
115.8585520636176
 30
0.0
 10
185.4368665795858
 20
115.8711212978525
 30
0.0
 10
185.4579709532983
 20
115.8815627973187
 30
0.0
 10
185.4683100802674
 20
115.8866781345564
 30
0.0
  0
SPLINE
  5
8D
330
1F
100
AcDbEntity
  8
0
  6
Continuous
 62
     7
370
    15
100
AcDbSpline
210
0.0
220
0.0
230
1.0
 70
     8
 71
     3
 72
    23
 73
    19
 74
     0
 42
0.00000001
 43
0.00000001
 40
0.0
 40
0.0
 40
0.0
 40
0.0
 40
0.0681750046767775
 40
0.1324612497147498
 40
0.1927945771157826
 40
0.2506593605894897
 40
0.3066076469023076
 40
0.3610302807152401
 40
0.4146174994879621
 40
0.4690053083836771
 40
0.5242892943603712
 40
0.5813918798092406
 40
0.6415266480094067
 40
0.7046229927108474
 40
0.7720311668568196
 40
0.8429976097388724
 40
0.9191787900525366
 40
1.0
 40
1.0
 40
1.0
 40
1.0
 10
184.5901049520622
 20
116.2893223653256
 30
0.0
 10
184.5903933441564
 20
116.2706022621371
 30
0.0
 10
184.590953678217
 20
116.2342298661997
 30
0.0
 10
184.5980222060934
 20
116.1816783343659
 30
0.0
 10
184.6088503182039
 20
116.1327503888799
 30
0.0
 10
184.6233657208162
 20
116.0870903726112
 30
0.0
 10
184.6433049025352
 20
116.0453290715986
 30
0.0
 10
184.6668172632079
 20
116.0068358145068
 30
0.0
 10
184.6953899117006
 20
115.9724482230183
 30
0.0
 10
184.7279516022719
 20
115.9415544071303
 30
0.0
 10
184.7646353085837
 20
115.9139727542498
 30
0.0
 10
184.8060668866815
 20
115.8908338040417
 30
0.0
 10
184.8513919159528
 20
115.8708354690039
 30
0.0
 10
184.9010917837391
 20
115.8541802656997
 30
0.0
 10
184.9551570714987
 20
115.8423322308313
 30
0.0
 10
185.0132919929137
 20
115.8327645849318
 30
0.0
 10
185.0757334244431
 20
115.8279033925091
 30
0.0
 10
185.1188110130804
 20
115.8270310450602
 30
0.0
 10
185.1409863623186
 20
115.8265819807102
 30
0.0
  0
SPLINE
  5
8E
330
1F
100
AcDbEntity
  8
0
  6
Continuous
 62
     7
370
    15
100
AcDbSpline
210
0.0
220
0.0
230
1.0
 70
     8
 71
     3
 72
    15
 73
    11
 74
     0
 42
0.00000001
 43
0.00000001
 40
0.0
 40
0.0
 40
0.0
 40
0.0
 40
0.1200646636296487
 40
0.238916204440677
 40
0.3585231651925995
 40
0.4792065622357614
 40
0.604264654997693
 40
0.7312014965036461
 40
0.8634227487813788
 40
1.0
 40
1.0
 40
1.0
 40
1.0
 10
184.7247203366776
 20
116.6254601858384
 30
0.0
 10
184.7139997327473
 20
116.6150475397008
 30
0.0
 10
184.6926668449274
 20
116.5943274558878
 30
0.0
 10
184.6660722043014
 20
116.5584015350906
 30
0.0
 10
184.6424578730911
 20
116.5204448065847
 30
0.0
 10
184.6237225166722
 20
116.478966459876
 30
0.0
 10
184.6084672864976
 20
116.4351662273617
 30
0.0
 10
184.5976399364945
 20
116.3885778332773
 30
0.0
 10
184.5911315806045
 20
116.3397231145675
 30
0.0
 10
184.5904508388172
 20
116.3063031435561
 30
0.0
 10
184.5901049520622
 20
116.2893223653256
 30
0.0
  0
LINE
  5
8F
330
1F
100
AcDbEntity
  8
0
  6
Continuous
 62
     7
370
    15
100
AcDbLine
 10
185.4683100803
 20
115.8866781346
 30
0.0
 11
184.7247203367
 21
116.6254601858
 31
0.0
  0
SPLINE
  5
90
330
1F
100
AcDbEntity
  8
0
  6
Continuous
 62
     7
370
    15
100
AcDbSpline
210
0.0
220
0.0
230
1.0
 70
     8
 71
     3
 72
     8
 73
     4
 74
     0
 42
0.00000001
 43
0.00000001
 40
0.0000002842550487
 40
0.0000002842550487
 40
0.0000002842550487
 40
0.0000002842550487
 40
0.0003279628354297
 40
0.0003279628354297
 40
0.0003279628354297
 40
0.0003279628354297
 10
190.1027206688153
 20
95.17560900495096
 30
0.0
 10
190.0258698275576
 20
95.11192521107998
 30
0.0
 10
189.9490149746222
 20
95.04824787156831
 30
0.0
 10
189.8721562341135
 20
94.98457678958397
 30
0.0
  0
LINE
  5
91
330
1F
100
AcDbEntity
  8
0
  6
Continuous
 62
     7
370
    15
100
AcDbLine
 10
190.1027206688
 20
95.0107457878
 30
0.0
 11
190.1027206688
 21
95.175609005
 31
0.0
  0
SPLINE
  5
92
330
1F
100
AcDbEntity
  8
0
  6
Continuous
 62
     7
370
    15
100
AcDbSpline
210
0.0
220
0.0
230
1.0
 70
     8
 71
     3
 72
     8
 73
     4
 74
     0
 42
0.00000001
 43
0.00000001
 40
0.0000003546175854
 40
0.0000003546175854
 40
0.0000003546175854
 40
0.0000003546175854
 40
0.001211675871501
 40
0.001211675871501
 40
0.001211675871501
 40
0.001211675871501
 10
189.4257206688153
 20
94.08543835412138
 30
0.0
 10
189.6534368169037
 20
94.39185917060766
 30
0.0
 10
189.8791816060838
 20
94.70025108766912
 30
0.0
 10
190.1027206688153
 20
95.01074578781807
 30
0.0
  0
LINE
  5
93
330
1F
100
AcDbEntity
  8
0
  6
Continuous
 62
     7
370
    15
100
AcDbLine
 10
189.4257206688
 20
94.0854383541
 30
0.0
 11
189.4257206688
 21
94.4853255265
 31
0.0
  0
ELLIPSE
  5
94
330
1F
100
AcDbEntity
  8
0
  6
Continuous
 62
     7
370
    15
100
AcDbEllipse
 10
188.6597206688
 20
113.3137614679
 30
0.0
 11
36.37306695894679
 21
0.0
 31
0.0
210
0.0
220
0.0
230
1.0
 40
0.5773502692
 41
4.718327475200518
 42
4.733450075751366
  0
SPLINE
  5
95
330
1F
100
AcDbEntity
  8
0
  6
Continuous
 62
     7
370
    15
100
AcDbSpline
210
0.0
220
0.0
230
1.0
 70
     8
 71
     3
 72
    11
 73
     7
 74
     0
 42
0.00000001
 43
0.00000001
 40
0.0
 40
0.0
 40
0.0
 40
0.0
 40
0.2882405100287969
 40
0.6104447857744176
 40
0.9326552928898972
 40
1.0
 40
1.0
 40
1.0
 40
1.0
 10
188.8044881785396
 20
92.31376662366797
 30
0.0
 10
188.8054539526157
 20
92.31377351000152
 30
0.0
 10
188.8074992992221
 20
92.31378809409456
 30
0.0
 10
188.8302499524972
 20
92.31393330744032
 30
0.0
 10
188.8561742149938
 20
92.31406211056806
 30
0.0
 10
188.8728396216841
 20
92.31412149136081
 30
0.0
 10
188.8757206688153
 20
92.31413175686865
 30
0.0
  0
LINE
  5
96
330
1F
100
AcDbEntity
  8
0
  6
Continuous
 62
     7
370
    15
100
AcDbLine
 10
178.2257206688
 20
92.3137614679
 30
0.0
 11
178.2257206688
 21
94.4853255265
 31
0.0
  0
ELLIPSE
  5
97
330
1F
100
AcDbEntity
  8
0
  6
Continuous
 62
     7
370
    15
100
AcDbEllipse
 10
174.8033142083
 20
113.3137614679
 30
0.0
 11
36.37306695894682
 21
0.0
 31
0.0
210
0.0
220
0.0
230
1.0
 40
0.5773502692
 41
5.109646447451391
 42
5.126102064754772
  0
SPLINE
  5
98
330
1F
100
AcDbEntity
  8
0
  6
Continuous
 62
     7
370
    15
100
AcDbSpline
210
0.0
220
0.0
230
1.0
 70
     8
 71
     3
 72
    10
 73
     6
 74
     0
 42
0.00000001
 43
0.00000001
 40
0.0
 40
0.0
 40
0.0
 40
0.0
 40
0.5
 40
0.5
 40
1.0
 40
1.0
 40
1.0
 40
1.0
 10
188.8757206688153
 20
93.84635869992093
 30
0.0
 10
188.8300949002499
 20
93.85701504402815
 30
0.0
 10
188.803635896129
 20
93.87703407421958
 30
0.0
 10
188.8038058682312
 20
93.91771745839905
 30
0.0
 10
188.830152539335
 20
93.93808729970294
 30
0.0
 10
188.8757206688153
 20
93.94912551805375
 30
0.0
  0
ELLIPSE
  5
99
330
1F
100
AcDbEntity
  8
0
  6
Continuous
 62
     7
370
    15
100
AcDbEllipse
 10
202.5161271294
 20
113.3137614679
 30
0.0
 11
36.37306695894679
 21
0.0
 31
0.0
210
0.0
220
0.0
230
1.0
 40
0.5773502692
 41
4.327977188941471
 42
4.344235942834468
  0
LINE
  5
9A
330
1F
100
AcDbEntity
  8
0
  6
Continuous
 62
     7
370
    15
100
AcDbLine
 10
189.4257206688
 20
93.3263301424
 30
0.0
 11
189.4257206688
 21
93.7208949199
 31
0.0
  0
ELLIPSE
  5
9B
330
1F
100
AcDbEntity
  8
0
  6
Continuous
 62
     7
370
    15
100
AcDbEllipse
 10
178.2674158234
 20
113.3137614679
 30
0.0
 11
36.37306695894679
 21
0.0
 31
0.0
210
0.0
220
0.0
230
1.0
 40
0.5773502692
 41
5.008343229934528
 42
5.02419053783688
  0
SPLINE
  5
9C
330
1F
100
AcDbEntity
  8
0
  6
Continuous
 62
     7
370
    15
100
AcDbSpline
210
0.0
220
0.0
230
1.0
 70
     8
 71
     3
 72
    10
 73
     6
 74
     0
 42
0.00000001
 43
0.00000001
 40
0.0
 40
0.0
 40
0.0
 40
0.0
 40
0.5
 40
0.5
 40
1.0
 40
1.0
 40
1.0
 40
1.0
 10
188.8757206688153
 20
93.15238899730282
 30
0.0
 10
188.8308471027604
 20
93.15993886505682
 30
0.0
 10
188.8036425839687
 20
93.17434853911337
 30
0.0
 10
188.8037991083231
 20
93.20408555845253
 30
0.0
 10
188.8308836729703
 20
93.21885876223662
 30
0.0
 10
188.8757206688153
 20
93.22675183225059
 30
0.0
  0
ELLIPSE
  5
9D
330
1F
100
AcDbEntity
  8
0
  6
Continuous
 62
     7
370
    15
100
AcDbEllipse
 10
199.0520255142
 20
113.3137614679
 30
0.0
 11
36.37306695894679
 21
0.0
 31
0.0
210
0.0
220
0.0
230
1.0
 40
0.5773502692
 41
4.428828378015803
 42
4.444543094120874
  0
LINE
  5
9E
330
1F
100
AcDbEntity
  8
0
  6
Continuous
 62
     7
370
    15
100
AcDbLine
 10
189.4257206688
 20
92.7889858974
 30
0.0
 11
189.4257206688
 21
93.0625536436
 31
0.0
  0
ELLIPSE
  5
9F
330
1F
100
AcDbEntity
  8
0
  6
Continuous
 62
     7
370
    15
100
AcDbEllipse
 10
181.7315174385
 20
113.3137614679
 30
0.0
 11
36.37306695894679
 21
0.0
 31
0.0
210
0.0
220
0.0
230
1.0
 40
0.5773502692
 41
4.910088976524063
 42
4.925534960365868
  0
SPLINE
  5
A0
330
1F
100
AcDbEntity
  8
0
  6
Continuous
 62
     7
370
    15
100
AcDbSpline
210
0.0
220
0.0
230
1.0
 70
     8
 71
     3
 72
    26
 73
    22
 74
     0
 42
0.00000001
 43
0.00000001
 40
0.0
 40
0.0
 40
0.0
 40
0.0
 40
0.0000487576123425
 40
0.0000487576123425
 40
0.0000487576123425
 40
0.0000974732753424
 40
0.0000974732753424
 40
0.0000974732753424
 40
0.0001468120731414
 40
0.0001468120731414
 40
0.0001468120731414
 40
0.000196806128557
 40
0.000196806128557
 40
0.000196806128557
 40
0.0002469562607871
 40
0.0002469562607871
 40
0.0002469562607871
 40
0.0002966445999292
 40
0.0002966445999292
 40
0.0002966445999292
 40
0.0003040724092167
 40
0.0003040724092167
 40
0.0003040724092167
 40
0.0003040724092167
 10
188.8757206688153
 20
92.67442743635762
 30
0.0
 10
188.8617071782881
 20
92.67594656477266
 30
0.0
 10
188.8489420562
 20
92.67794365584224
 30
0.0
 10
188.8384627292438
 20
92.68025443449135
 30
0.0
 10
188.8279887780416
 20
92.68256402774203
 30
0.0
 10
188.8195072255523
 20
92.68524993317162
 30
0.0
 10
188.8136668290549
 20
92.68809920508566
 30
0.0
 10
188.8077523993539
 20
92.6909845945351
 30
0.0
 10
188.8043837214819
 20
92.69411603117169
 30
0.0
 10
188.8038111849303
 20
92.69724349109737
 30
0.0
 10
188.8032312291563
 20
92.70041147825309
 30
0.0
 10
188.8055053923256
 20
92.70366258491653
 30
0.0
 10
188.8104561704366
 20
92.7067261979978
 30
0.0
 10
188.8154210477217
 20
92.70979853585192
 30
0.0
 10
188.8232202208718
 20
92.71276785093245
 30
0.0
 10
188.8332319587265
 20
92.71537199365338
 30
0.0
 10
188.8431506367378
 20
92.7179519306752
 30
0.0
 10
188.8555256138017
 20
92.72024547046362
 30
0.0
 10
188.8693313577633
 20
92.72203838914112
 30
0.0
 10
188.871425501903
 20
92.72231035059077
 30
0.0
 10
188.8735567059742
 20
92.72257176636073
 30
0.0
 10
188.8757206688153
 20
92.72282203485658
 30
0.0
  0
ELLIPSE
  5
A1
330
1F
100
AcDbEntity
  8
0
  6
Continuous
 62
     7
370
    15
100
AcDbEllipse
 10
195.5879238991
 20
113.3137614679
 30
0.0
 11
36.37306695894679
 21
0.0
 31
0.0
210
0.0
220
0.0
230
1.0
 40
0.5773502692
 41
4.526787486292649
 42
4.542151245580206
  0
LINE
  5
A2
330
1F
100
AcDbEntity
  8
0
  6
Continuous
 62
     7
370
    15
100
AcDbLine
 10
189.4257206688
 20
92.4562588983
 30
0.0
 11
189.4257206688
 21
92.6173265789
 31
0.0
  0
ELLIPSE
  5
A3
330
1F
100
AcDbEntity
  8
0
  6
Continuous
 62
     7
370
    15
100
AcDbEllipse
 10
185.1956190537
 20
113.3137614679
 30
0.0
 11
36.37306695894682
 21
0.0
 31
0.0
210
0.0
220
0.0
230
1.0
 40
0.5773502692
 41
4.813738954512945
 42
4.828950379502064
  0
SPLINE
  5
A4
330
1F
100
AcDbEntity
  8
0
  6
Continuous
 62
     7
370
    15
100
AcDbSpline
210
0.0
220
0.0
230
1.0
 70
     8
 71
     3
 72
    26
 73
    22
 74
     0
 42
0.00000001
 43
0.00000001
 40
0.0
 40
0.0
 40
0.0
 40
0.0
 40
0.000048440582973
 40
0.000048440582973
 40
0.000048440582973
 40
0.0000968712893125
 40
0.0000968712893125
 40
0.0000968712893125
 40
0.0001454472478788
 40
0.0001454472478788
 40
0.0001454472478788
 40
0.0001941881097793
 40
0.0001941881097793
 40
0.0001941881097793
 40
0.0002429815836801
 40
0.0002429815836801
 40
0.0002429815836801
 40
0.0002916761740825
 40
0.0002916761740825
 40
0.0002916761740825
 40
0.0003010515356212
 40
0.0003010515356212
 40
0.0003010515356212
 40
0.0003010515356212
 10
188.8757206688153
 20
92.39766052549182
 30
0.0
 10
188.8617511067991
 20
92.39838364555885
 30
0.0
 10
188.8489916090286
 20
92.39933750155252
 30
0.0
 10
188.8384944777863
 20
92.40045116487117
 30
0.0
 10
188.8279986147701
 20
92.40156469364096
 30
0.0
 10
188.8194746398089
 20
92.40286898944038
 30
0.0
 10
188.8136152871224
 20
92.40426418495134
 30
0.0
 10
188.8077384903617
 20
92.40566353414538
 30
0.0
 10
188.8043801487752
 20
92.40719303764153
 30
0.0
 10
188.8038105840064
 20
92.4087303506495
 30
0.0
 10
188.8032391299129
 20
92.41027276313643
 30
0.0
 10
188.8054593778047
 20
92.41186556870178
 30
0.0
 10
188.810289374393
 20
92.41337467391809
 30
0.0
 10
188.8151242404703
 20
92.41488530057873
 30
0.0
 10
188.8227086987524
 20
92.4163535910986
 30
0.0
 10
188.8324204478985
 20
92.41764954965603
 30
0.0
 10
188.8421122367335
 20
92.4189428446628
 30
0.0
 10
188.8541925840593
 20
92.42009992079028
 30
0.0
 10
188.8676613182125
 20
92.42101392094405
 30
0.0
 10
188.8702908256604
 20
92.42119236163376
 30
0.0
 10
188.8729801895329
 20
92.42136235031269
 30
0.0
 10
188.8757206688153
 20
92.42152325922909
 30
0.0
  0
ELLIPSE
  5
A5
330
1F
100
AcDbEntity
  8
0
  6
Continuous
 62
     7
370
    15
100
AcDbEllipse
 10
192.123822284
 20
113.3137614679
 30
0.0
 11
36.37306695894679
 21
0.0
 31
0.0
210
0.0
220
0.0
230
1.0
 40
0.5773502692
 41
4.622970231584803
 42
4.638142227137611
  0
LINE
  5
A6
330
1F
100
AcDbEntity
  8
0
  6
Continuous
 62
     7
370
    15
100
AcDbLine
 10
189.4257206688
 20
92.318418778
 30
0.0
 11
189.4257206688
 21
92.3716169767
 31
0.0
  0
SPLINE
  5
A7
330
1F
100
AcDbEntity
  8
0
  6
Continuous
 62
     7
370
    15
100
AcDbSpline
210
0.0
220
0.0
230
1.0
 70
     8
 71
     3
 72
     8
 73
     4
 74
     0
 42
0.00000001
 43
0.00000001
 40
0.0000004922935257
 40
0.0000004922935257
 40
0.0000004922935257
 40
0.0000004922935257
 40
0.0003281708739067
 40
0.0003281708739067
 40
0.0003281708739067
 40
0.0003281708739067
 10
189.8721562341135
 20
131.6429461461955
 30
0.0
 10
189.9490149746222
 20
131.5792750642111
 30
0.0
 10
190.0258698275576
 20
131.5155977246995
 30
0.0
 10
190.1027206688153
 20
131.4519139308285
 30
0.0
  0
LINE
  5
A8
330
1F
100
AcDbEntity
  8
0
  6
Continuous
 62
     7
370
    15
100
AcDbLine
 10
189.4257206688
 20
132.1421974093
 30
0.0
 11
189.4257206688
 21
132.5420845817
 31
0.0
  0
SPLINE
  5
A9
330
1F
100
AcDbEntity
  8
0
  6
Continuous
 62
     7
370
    15
100
AcDbSpline
210
0.0
220
0.0
230
1.0
 70
     8
 71
     3
 72
     8
 73
     4
 74
     0
 42
0.00000001
 43
0.00000001
 40
0.0000003612453246
 40
0.0000003612453246
 40
0.0000003612453246
 40
0.0000003612453246
 40
0.0012116824992402
 40
0.0012116824992402
 40
0.0012116824992402
 40
0.0012116824992402
 10
190.1027206688153
 20
131.6167771479614
 30
0.0
 10
189.8791816060838
 20
131.9272718481103
 30
0.0
 10
189.6534368169037
 20
132.2356637651718
 30
0.0
 10
189.4257206688153
 20
132.5420845816581
 30
0.0
  0
LINE
  5
AA
330
1F
100
AcDbEntity
  8
0
  6
Continuous
 62
     7
370
    15
100
AcDbLine
 10
190.1027206688
 20
131.4519139308
 30
0.0
 11
190.1027206688
 21
131.616777148
 31
0.0
  0
ELLIPSE
  5
AB
330
1F
100
AcDbEntity
  8
0
  6
Continuous
 62
     7
370
    15
100
AcDbEllipse
 10
185.1956190537
 20
113.3137614679
 30
0.0
 11
36.37306695894682
 21
0.0
 31
0.0
210
0.0
220
0.0
230
1.0
 40
0.5773502692
 41
1.45423492767753
 42
1.469446352666649
  0
LINE
  5
AC
330
1F
100
AcDbEntity
  8
0
  6
Continuous
 62
     7
370
    15
100
AcDbLine
 10
189.4257206688
 20
134.0101963569
 30
0.0
 11
189.4257206688
 21
134.1712640375
 31
0.0
  0
ELLIPSE
  5
AD
330
1F
100
AcDbEntity
  8
0
  6
Continuous
 62
     7
370
    15
100
AcDbEllipse
 10
195.5879238991
 20
113.3137614679
 30
0.0
 11
36.37306695894679
 21
0.0
 31
0.0
210
0.0
220
0.0
230
1.0
 40
0.5773502692
 41
1.741034061599388
 42
1.756397820886945
  0
SPLINE
  5
AE
330
1F
100
AcDbEntity
  8
0
  6
Continuous
 62
     7
370
    15
100
AcDbSpline
210
0.0
220
0.0
230
1.0
 70
     8
 71
     3
 72
    26
 73
    22
 74
     0
 42
0.00000001
 43
0.00000001
 40
0.0
 40
0.0
 40
0.0
 40
0.0
 40
0.0000488425784467
 40
0.0000488425784467
 40
0.0000488425784467
 40
0.000097639342295
 40
0.000097639342295
 40
0.000097639342295
 40
0.0001471108983134
 40
0.0001471108983134
 40
0.0001471108983134
 40
0.0001971865888259
 40
0.0001971865888259
 40
0.0001971865888259
 40
0.0002472866715895
 40
0.0002472866715895
 40
0.0002472866715895
 40
0.0002968379579362
 40
0.0002968379579362
 40
0.0002968379579362
 40
0.0003040706419665
 40
0.0003040706419665
 40
0.0003040706419665
 40
0.0003040706419665
 10
188.8757206688153
 20
133.9047009009229
 30
0.0
 10
188.8616912248118
 20
133.9063234462742
 30
0.0
 10
188.8489175470116
 20
133.9084460011569
 30
0.0
 10
188.8384345229017
 20
133.9108743523467
 30
0.0
 10
188.8279574039338
 20
133.9133013356337
 30
0.0
 10
188.819476595002
 20
133.9160990658835
 30
0.0
 10
188.8136392205732
 20
133.9190301130023
 30
0.0
 10
188.8077220891043
 20
133.9220012075168
 30
0.0
 10
188.8043585567224
 20
133.9251897612895
 30
0.0
 10
188.8038048831459
 20
133.9283335724821
 30
0.0
 10
188.803244638455
 20
133.9315146950869
 30
0.0
 10
188.805547857195
 20
133.9347377656165
 30
0.0
 10
188.8105405607391
 20
133.9377379831204
 30
0.0
 10
188.8155345394385
 20
133.9407389668912
 30
0.0
 10
188.8233632119883
 20
133.9436011286308
 30
0.0
 10
188.8334012040528
 20
133.9460862747569
 30
0.0
 10
188.8433290621089
 20
133.9485441545629
 30
0.0
 10
188.8557019669449
 20
133.9507026760758
 30
0.0
 10
188.8694922819509
 20
133.9523798192162
 30
0.0
 10
188.8715347239636
 20
133.9526282158344
 30
0.0
 10
188.8736121836345
 20
133.9528669296915
 30
0.0
 10
188.8757206688153
 20
133.9530954994219
 30
0.0
  0
ELLIPSE
  5
AF
330
1F
100
AcDbEntity
  8
0
  6
Continuous
 62
     7
370
    15
100
AcDbEllipse
 10
181.7315174385
 20
113.3137614679
 30
0.0
 11
36.37306695894679
 21
0.0
 31
0.0
210
0.0
220
0.0
230
1.0
 40
0.5773502692
 41
1.357650346813727
 42
1.373096330655532
  0
LINE
  5
B0
330
1F
100
AcDbEntity
  8
0
  6
Continuous
 62
     7
370
    15
100
AcDbLine
 10
189.4257206688
 20
133.5649692921
 30
0.0
 11
189.4257206688
 21
133.8385370383
 31
0.0
  0
ELLIPSE
  5
B1
330
1F
100
AcDbEntity
  8
0
  6
Continuous
 62
     7
370
    15
100
AcDbEllipse
 10
199.0520255142
 20
113.3137614679
 30
0.0
 11
36.37306695894679
 21
0.0
 31
0.0
210
0.0
220
0.0
230
1.0
 40
0.5773502692
 41
1.838642213058722
 42
1.854356929163792
  0
SPLINE
  5
B2
330
1F
100
AcDbEntity
  8
0
  6
Continuous
 62
     7
370
    15
100
AcDbSpline
210
0.0
220
0.0
230
1.0
 70
     8
 71
     3
 72
    10
 73
     6
 74
     0
 42
0.00000001
 43
0.00000001
 40
0.0
 40
0.0
 40
0.0
 40
0.0
 40
0.5
 40
0.5
 40
1.0
 40
1.0
 40
1.0
 40
1.0
 10
188.8757206688153
 20
133.4007711035289
 30
0.0
 10
188.830891632796
 20
133.4086627723013
 30
0.0
 10
188.8037080551896
 20
133.4235103452694
 30
0.0
 10
188.8037332916531
 20
133.4532579031559
 30
0.0
 10
188.8308406178712
 20
133.4675829796559
 30
0.0
 10
188.8757206688153
 20
133.4751339384767
 30
0.0
  0
ELLIPSE
  5
B3
330
1F
100
AcDbEntity
  8
0
  6
Continuous
 62
     7
370
    15
100
AcDbEllipse
 10
178.2674158234
 20
113.3137614679
 30
0.0
 11
36.37306695894679
 21
0.0
 31
0.0
210
0.0
220
0.0
230
1.0
 40
0.5773502692
 41
1.258994769342717
 42
1.274842077245068
  0
LINE
  5
B4
330
1F
100
AcDbEntity
  8
0
  6
Continuous
 62
     7
370
    15
100
AcDbLine
 10
189.4257206688
 20
132.9066280158
 30
0.0
 11
189.4257206688
 21
133.3011927934
 31
0.0
  0
ELLIPSE
  5
B5
330
1F
100
AcDbEntity
  8
0
  6
Continuous
 62
     7
370
    15
100
AcDbEllipse
 10
202.5161271294
 20
113.3137614679
 30
0.0
 11
36.37306695894679
 21
0.0
 31
0.0
210
0.0
220
0.0
230
1.0
 40
0.5773502692
 41
1.938949364345129
 42
1.955208118238124
  0
SPLINE
  5
B6
330
1F
100
AcDbEntity
  8
0
  6
Continuous
 62
     7
370
    15
100
AcDbSpline
210
0.0
220
0.0
230
1.0
 70
     8
 71
     3
 72
    10
 73
     6
 74
     0
 42
0.00000001
 43
0.00000001
 40
0.0
 40
0.0
 40
0.0
 40
0.0
 40
0.5
 40
0.5
 40
1.0
 40
1.0
 40
1.0
 40
1.0
 10
188.8757206688153
 20
132.6783974177257
 30
0.0
 10
188.8301627110144
 20
132.6894331721348
 30
0.0
 10
188.8037292474123
 20
132.7098860724725
 30
0.0
 10
188.803712094559
 20
132.7505919390376
 30
0.0
 10
188.8300855512747
 20
132.7705057082068
 30
0.0
 10
188.8757206688153
 20
132.7811642358586
 30
0.0
  0
ELLIPSE
  5
B7
330
1F
100
AcDbEntity
  8
0
  6
Continuous
 62
     7
370
    15
100
AcDbEllipse
 10
174.8033142083
 20
113.3137614679
 30
0.0
 11
36.37306695894682
 21
0.0
 31
0.0
210
0.0
220
0.0
230
1.0
 40
0.5773502692
 41
1.157083242424825
 42
1.173538859728205
  0
SPLINE
  5
B8
330
1F
100
AcDbEntity
  8
0
  6
Continuous
 62
     7
370
    15
100
AcDbSpline
210
0.0
220
0.0
230
1.0
 70
     8
 71
     3
 72
    11
 73
     7
 74
     0
 42
0.00000001
 43
0.00000001
 40
0.0
 40
0.0
 40
0.0
 40
0.0
 40
0.3220191072570491
 40
0.6440382301371141
 40
0.9660556000175377
 40
0.9999999999999999
 40
0.9999999999999999
 40
0.9999999999999999
 40
0.9999999999999999
 10
188.8757206688153
 20
134.3133911789108
 30
0.0
 10
188.8624066230514
 20
134.3134453962199
 30
0.0
 10
188.8357785308778
 20
134.3135538308406
 30
0.0
 10
188.8121672580337
 20
134.3137041672825
 30
0.0
 10
188.8016040435023
 20
134.3137756480749
 30
0.0
 10
188.8042370918914
 20
134.3137579954592
 30
0.0
 10
188.8044881785396
 20
134.3137563121115
 30
0.0
  0
ELLIPSE
  5
B9
330
1F
100
AcDbEntity
  8
0
  6
Continuous
 62
     7
370
    15
100
AcDbEllipse
 10
188.6597206688
 20
113.3137614679
 30
0.0
 11
36.37306695894679
 21
0.0
 31
0.0
210
0.0
220
0.0
230
1.0
 40
0.5773502692
 41
1.549735231428228
 42
1.564857831979076
  0
LINE
  5
BA
330
1F
100
AcDbEntity
  8
0
  6
Continuous
 62
     7
370
    15
100
AcDbLine
 10
189.4257206688
 20
134.2559059591
 30
0.0
 11
189.4257206688
 21
134.3091041578
 31
0.0
  0
ELLIPSE
  5
BB
330
1F
100
AcDbEntity
  8
0
  6
Continuous
 62
     7
370
    15
100
AcDbEllipse
 10
192.123822284
 20
113.3137614679
 30
0.0
 11
36.37306695894679
 21
0.0
 31
0.0
210
0.0
220
0.0
230
1.0
 40
0.5773502692
 41
1.645043080041983
 42
1.660215075594791
  0
SPLINE
  5
BC
330
1F
100
AcDbEntity
  8
0
  6
Continuous
 62
     7
370
    15
100
AcDbSpline
210
0.0
220
0.0
230
1.0
 70
     8
 71
     3
 72
    26
 73
    22
 74
     0
 42
0.00000001
 43
0.00000001
 40
0.0
 40
0.0
 40
0.0
 40
0.0
 40
0.0000484812145792
 40
0.0000484812145792
 40
0.0000484812145792
 40
0.0000969506894089
 40
0.0000969506894089
 40
0.0000969506894089
 40
0.0001455892512794
 40
0.0001455892512794
 40
0.0001455892512794
 40
0.0001943683238241
 40
0.0001943683238241
 40
0.0001943683238241
 40
0.0002431388524696
 40
0.0002431388524696
 40
0.0002431388524696
 40
0.0002917702161382
 40
0.0002917702161382
 40
0.0002917702161382
 40
0.0003010505780395
 40
0.0003010505780395
 40
0.0003010505780395
 40
0.0003010505780395
 10
188.8757206688153
 20
134.2059996765504
 30
0.0
 10
188.8617434061063
 20
134.206820360075
 30
0.0
 10
188.8489797171964
 20
134.2078926683732
 30
0.0
 10
188.8384807829658
 20
134.2091175944229
 30
0.0
 10
188.8279833756558
 20
134.2103423423246
 30
0.0
 10
188.8194597794034
 20
134.2117528572161
 30
0.0
 10
188.8136019237513
 20
134.2132246229553
 30
0.0
 10
188.8077239037132
 20
134.214701454926
 30
0.0
 10
188.8043680597459
 20
134.2162802645163
 30
0.0
 10
188.8038075367855
 20
134.2178273599179
 30
0.0
 10
188.8032454435474
 20
134.2193787894318
 30
0.0
 10
188.8054794455332
 20
134.2209411048748
 30
0.0
 10
188.8103291559285
 20
134.2223872347001
 30
0.0
 10
188.8151777704709
 20
134.2238330377543
 30
0.0
 10
188.82277613314
 20
134.225202967826
 30
0.0
 10
188.8325002888594
 20
134.2263899735593
 30
0.0
 10
188.8421967273494
 20
134.227573595913
 30
0.0
 10
188.8542765552818
 20
134.2286085427066
 30
0.0
 10
188.8677386613529
 20
134.2294168806729
 30
0.0
 10
188.87034360821
 20
134.2295732958306
 30
0.0
 10
188.8730071104924
 20
134.2297219457209
 30
0.0
 10
188.8757206688153
 20
134.2298624102877
 30
0.0
  0
LINE
  5
BD
330
1F
100
AcDbEntity
  8
0
  6
Continuous
 62
     7
370
    15
100
AcDbLine
 10
178.2257206688
 20
132.1421974093
 30
0.0
 11
178.2257206688
 21
134.3137614679
 31
0.0
  0
LINE
  5
BE
330
1F
100
AcDbEntity
  8
0
  6
Continuous
 62
     7
370
    15
100
AcDbLine
 10
189.8721562341
 20
117.7137614679
 30
0.0
 11
189.8721562341
 21
117.9137614679
 31
0.0
  0
LINE
  5
BF
330
1F
100
AcDbEntity
  8
0
  6
Continuous
 62
     7
370
    15
100
AcDbLine
 10
190.1027206688
 20
131.4519139308
 30
0.0
 11
190.1027206688
 21
95.175609005
 31
0.0
  0
LINE
  5
C0
330
1F
100
AcDbEntity
  8
0
  6
Continuous
 62
     7
370
    15
100
AcDbLine
 10
90.0257206688
 20
105.3137614679
 30
0.0
 11
90.0257206688
 21
119.5137614679
 31
0.0
  0
LINE
  5
C1
330
1F
100
AcDbEntity
  8
0
  6
Continuous
 62
     7
370
    15
100
AcDbLine
 10
98.0257206688
 20
119.5137614679
 30
0.0
 11
90.0257206688
 21
119.5137614679
 31
0.0
  0
LINE
  5
C2
330
1F
100
AcDbEntity
  8
0
  6
Continuous
 62
     7
370
    15
100
AcDbLine
 10
99.8257206688
 20
121.3137614679
 30
0.0
 11
98.0257206688
 21
119.5137614679
 31
0.0
  0
LINE
  5
C3
330
1F
100
AcDbEntity
  8
0
  6
Continuous
 62
     7
370
    15
100
AcDbLine
 10
104.5257206688
 20
119.5137614679
 30
0.0
 11
102.7257206688
 21
121.3137614679
 31
0.0
  0
LINE
  5
C4
330
1F
100
AcDbEntity
  8
0
  6
Continuous
 62
     7
370
    15
100
AcDbLine
 10
112.5257206688
 20
119.5137614679
 30
0.0
 11
104.5257206688
 21
119.5137614679
 31
0.0
  0
LINE
  5
C5
330
1F
100
AcDbEntity
  8
0
  6
Continuous
 62
     7
370
    15
100
AcDbLine
 10
114.3257206688
 20
121.3137614679
 30
0.0
 11
112.5257206688
 21
119.5137614679
 31
0.0
  0
LINE
  5
C6
330
1F
100
AcDbEntity
  8
0
  6
Continuous
 62
     7
370
    15
100
AcDbLine
 10
119.0257206688
 20
119.5137614679
 30
0.0
 11
117.2257206688
 21
121.3137614679
 31
0.0
  0
LINE
  5
C7
330
1F
100
AcDbEntity
  8
0
  6
Continuous
 62
     7
370
    15
100
AcDbLine
 10
127.0257206688
 20
119.5137614679
 30
0.0
 11
119.0257206688
 21
119.5137614679
 31
0.0
  0
LINE
  5
C8
330
1F
100
AcDbEntity
  8
0
  6
Continuous
 62
     7
370
    15
100
AcDbLine
 10
128.8257206688
 20
121.3137614679
 30
0.0
 11
127.0257206688
 21
119.5137614679
 31
0.0
  0
LINE
  5
C9
330
1F
100
AcDbEntity
  8
0
  6
Continuous
 62
     7
370
    15
100
AcDbLine
 10
133.5257206688
 20
119.5137614679
 30
0.0
 11
131.7257206688
 21
121.3137614679
 31
0.0
  0
LINE
  5
CA
330
1F
100
AcDbEntity
  8
0
  6
Continuous
 62
     7
370
    15
100
AcDbLine
 10
141.5257206688
 20
119.5137614679
 30
0.0
 11
133.5257206688
 21
119.5137614679
 31
0.0
  0
LINE
  5
CB
330
1F
100
AcDbEntity
  8
0
  6
Continuous
 62
     7
370
    15
100
AcDbLine
 10
143.3257206688
 20
121.3137614679
 30
0.0
 11
141.5257206688
 21
119.5137614679
 31
0.0
  0
LINE
  5
CC
330
1F
100
AcDbEntity
  8
0
  6
Continuous
 62
     7
370
    15
100
AcDbLine
 10
148.0257206688
 20
119.5137614679
 30
0.0
 11
146.2257206688
 21
121.3137614679
 31
0.0
  0
LINE
  5
CD
330
1F
100
AcDbEntity
  8
0
  6
Continuous
 62
     7
370
    15
100
AcDbLine
 10
156.0257206688
 20
119.5137614679
 30
0.0
 11
148.0257206688
 21
119.5137614679
 31
0.0
  0
LINE
  5
CE
330
1F
100
AcDbEntity
  8
0
  6
Continuous
 62
     7
370
    15
100
AcDbLine
 10
157.8257206688
 20
121.3137614679
 30
0.0
 11
156.0257206688
 21
119.5137614679
 31
0.0
  0
LINE
  5
CF
330
1F
100
AcDbEntity
  8
0
  6
Continuous
 62
     7
370
    15
100
AcDbLine
 10
88.5257206688
 20
106.8137614679
 30
0.0
 11
88.5257206688
 21
119.5137614679
 31
0.0
  0
SPLINE
  5
D0
330
1F
100
AcDbEntity
  8
0
  6
Continuous
 62
     7
370
    15
100
AcDbSpline
210
0.0
220
0.0
230
1.0
 70
    24
 71
     3
 72
    10
 73
     6
 74
     0
 42
0.00000001
 43
0.00000001
 40
0.0
 40
0.0
 40
0.0
 40
0.0
 40
0.5
 40
0.5
 40
1.0
 40
1.0
 40
1.0
 40
1.0
 10
90.02572066881531
 20
119.5137614678897
 30
0.0
 10
89.71778325001236
 20
119.5137614678897
 30
0.0
 10
89.42766372039762
 20
119.5137614678897
 30
0.0
 10
88.91575989095685
 20
119.5137614678897
 30
0.0
 10
88.6921539502351
 20
119.5137614678897
 30
0.0
 10
88.52572066881531
 20
119.5137614678897
 30
0.0
  0
SPLINE
  5
D1
330
1F
100
AcDbEntity
  8
0
  6
Continuous
 62
     7
370
    15
100
AcDbSpline
210
0.0
220
0.0
230
1.0
 70
     8
 71
     3
 72
     8
 73
     4
 74
     0
 42
0.00000001
 43
0.00000001
 40
0.0000002868910206
 40
0.0000002868910206
 40
0.0000002868910206
 40
0.0000002868910206
 40
0.0009710130404842
 40
0.0009710130404842
 40
0.0009710130404842
 40
0.0009710130404842
 10
190.1027206688153
 20
94.2963981118656
 30
0.0
 10
189.8771469492958
 20
94.10441801393928
 30
0.0
 10
189.6514775581566
 20
93.91258772401993
 30
0.0
 10
189.4257206688153
 20
93.72089491993778
 30
0.0
  0
LINE
  5
D2
330
1F
100
AcDbEntity
  8
0
  6
Continuous
 62
     7
370
    15
100
AcDbLine
 10
190.1027206688
 20
95.0107457878
 30
0.0
 11
190.1027206688
 21
94.2963981119
 31
0.0
  0
SPLINE
  5
D3
330
1F
100
AcDbEntity
  8
0
  6
Continuous
 62
     7
370
    15
100
AcDbSpline
210
0.0
220
0.0
230
1.0
 70
     8
 71
     3
 72
     8
 73
     4
 74
     0
 42
0.00000001
 43
0.00000001
 40
0.0000002866581828
 40
0.0000002866581828
 40
0.0000002866581828
 40
0.0000002866581828
 40
0.0009710128076464
 40
0.0009710128076464
 40
0.0009710128076464
 40
0.0009710128076464
 10
189.4257206688153
 20
132.9066280158417
 30
0.0
 10
189.6514775581566
 20
132.7149352117595
 30
0.0
 10
189.8771469492958
 20
132.5231049218402
 30
0.0
 10
190.1027206688153
 20
132.3311248239139
 30
0.0
  0
LINE
  5
D4
330
1F
100
AcDbEntity
  8
0
  6
Continuous
 62
     7
370
    15
100
AcDbLine
 10
190.1027206688
 20
132.3311248239
 30
0.0
 11
190.1027206688
 21
131.616777148
 31
0.0
  0
SPLINE
  5
D5
330
1F
100
AcDbEntity
  8
0
  6
Continuous
 62
     7
370
    15
100
AcDbSpline
210
0.0
220
0.0
230
1.0
 70
     8
 71
     3
 72
     8
 73
     4
 74
     0
 42
0.00000001
 43
0.00000001
 40
0.0000003429807436
 40
0.0000003429807436
 40
0.0000003429807436
 40
0.0000003429807436
 40
0.0011534015794876
 40
0.0011534015794876
 40
0.0011534015794876
 40
0.0011534015794876
 10
190.1027206688153
 20
132.4535851018398
 30
0.0
 10
189.8785996009084
 20
132.7377566257827
 30
0.0
 10
189.6528788857291
 20
133.0202551043885
 30
0.0
 10
189.4257206688153
 20
133.3011927934072
 30
0.0
  0
LINE
  5
D6
330
1F
100
AcDbEntity
  8
0
  6
Continuous
 62
     7
370
    15
100
AcDbLine
 10
190.1027206688
 20
132.3311248239
 30
0.0
 11
190.1027206688
 21
132.4535851018
 31
0.0
  0
LINE
  5
D7
330
1F
100
AcDbEntity
  8
0
  6
Continuous
 62
     7
370
    15
100
AcDbLine
 10
190.1027206688
 20
94.1739378339
 30
0.0
 11
190.1027206688
 21
94.2963981119
 31
0.0
  0
SPLINE
  5
D8
330
1F
100
AcDbEntity
  8
0
  6
Continuous
 62
     7
370
    15
100
AcDbSpline
210
0.0
220
0.0
230
1.0
 70
     8
 71
     3
 72
     8
 73
     4
 74
     0
 42
0.00000001
 43
0.00000001
 40
0.0000003383940663
 40
0.0000003383940663
 40
0.0000003383940663
 40
0.0000003383940663
 40
0.0011533969928103
 40
0.0011533969928103
 40
0.0011533969928103
 40
0.0011533969928103
 10
189.4257206688153
 20
93.32633014237231
 30
0.0
 10
189.6528788857291
 20
93.60726783139098
 30
0.0
 10
189.8785996009084
 20
93.88976630999674
 30
0.0
 10
190.1027206688153
 20
94.1739378339397
 30
0.0
  0
SPLINE
  5
D9
330
1F
100
AcDbEntity
  8
0
  6
Continuous
 62
     7
370
    15
100
AcDbSpline
210
0.0
220
0.0
230
1.0
 70
     8
 71
     3
 72
     8
 73
     4
 74
     0
 42
0.00000001
 43
0.00000001
 40
0.0000002906279213
 40
0.0000002906279213
 40
0.0000002906279213
 40
0.0000002906279213
 40
0.0009833001544588
 40
0.0009833001544588
 40
0.0009833001544588
 40
0.0009833001544588
 10
190.1027206688153
 20
93.65854223071796
 30
0.0
 10
189.8772297747553
 20
93.45961343005023
 30
0.0
 10
189.6515579717578
 20
93.26095779918859
 30
0.0
 10
189.4257206688153
 20
93.06255364363743
 30
0.0
  0
SPLINE
  5
DA
330
1F
100
AcDbEntity
  8
0
  6
Continuous
 62
     7
370
    15
100
AcDbSpline
210
0.0
220
0.0
230
1.0
 70
     8
 71
     3
 72
     8
 73
     4
 74
     0
 42
0.00000001
 43
0.00000001
 40
0.0000002901820075
 40
0.0000002901820075
 40
0.0000002901820075
 40
0.0000002901820075
 40
0.0009832997085451
 40
0.0009832997085451
 40
0.0009832997085451
 40
0.0009832997085451
 10
189.4257206688153
 20
133.5649692921421
 30
0.0
 10
189.6515579717578
 20
133.3665651365909
 30
0.0
 10
189.8772297747553
 20
133.1679095057293
 30
0.0
 10
190.1027206688153
 20
132.9689807050615
 30
0.0
  0
LINE
  5
DB
330
1F
100
AcDbEntity
  8
0
  6
Continuous
 62
     7
370
    15
100
AcDbLine
 10
190.1027206688
 20
132.9689807051
 30
0.0
 11
190.1027206688
 21
132.4535851018
 31
0.0
  0
LINE
  5
DC
330
1F
100
AcDbEntity
  8
0
  6
Continuous
 62
     7
370
    15
100
AcDbLine
 10
190.1027206688
 20
94.1739378339
 30
0.0
 11
190.1027206688
 21
93.6585422307
 31
0.0
  0
SPLINE
  5
DD
330
1F
100
AcDbEntity
  8
0
  6
Continuous
 62
     7
370
    15
100
AcDbSpline
210
0.0
220
0.0
230
1.0
 70
     8
 71
     3
 72
     8
 73
     4
 74
     0
 42
0.00000001
 43
0.00000001
 40
0.0000003288932813
 40
0.0000003288932813
 40
0.0000003288932813
 40
0.0000003288932813
 40
0.0011080603113195
 40
0.0011080603113195
 40
0.0011080603113195
 40
0.0011080603113195
 10
190.1027206688153
 20
133.0537035775433
 30
0.0
 10
189.878185958713
 20
133.3166101646761
 30
0.0
 10
189.6524814347713
 20
133.5781903560495
 30
0.0
 10
189.4257206688153
 20
133.8385370383332
 30
0.0
  0
LINE
  5
DE
330
1F
100
AcDbEntity
  8
0
  6
Continuous
 62
     7
370
    15
100
AcDbLine
 10
190.1027206688
 20
132.9689807051
 30
0.0
 11
190.1027206688
 21
133.0537035775
 31
0.0
  0
LINE
  5
DF
330
1F
100
AcDbEntity
  8
0
  6
Continuous
 62
     7
370
    15
100
AcDbLine
 10
190.1027206688
 20
93.5738193582
 30
0.0
 11
190.1027206688
 21
93.6585422307
 31
0.0
  0
SPLINE
  5
E0
330
1F
100
AcDbEntity
  8
0
  6
Continuous
 62
     7
370
    15
100
AcDbSpline
210
0.0
220
0.0
230
1.0
 70
     8
 71
     3
 72
     8
 73
     4
 74
     0
 42
0.00000001
 43
0.00000001
 40
0.0000003256638934
 40
0.0000003256638934
 40
0.0000003256638934
 40
0.0000003256638934
 40
0.0011080570819316
 40
0.0011080570819316
 40
0.0011080570819316
 40
0.0011080570819316
 10
189.4257206688153
 20
92.7889858974463
 30
0.0
 10
189.6524814347713
 20
93.04933257972999
 30
0.0
 10
189.878185958713
 20
93.31091277110338
 30
0.0
 10
190.1027206688153
 20
93.57381935823614
 30
0.0
  0
SPLINE
  5
E1
330
1F
100
AcDbEntity
  8
0
  6
Continuous
 62
     7
370
    15
100
AcDbSpline
210
0.0
220
0.0
230
1.0
 70
     8
 71
     3
 72
     8
 73
     4
 74
     0
 42
0.00000001
 43
0.00000001
 40
0.0000002954386231
 40
0.0000002954386231
 40
0.0000002954386231
 40
0.0000002954386231
 40
0.0009990997905802
 40
0.0009990997905802
 40
0.0009990997905802
 40
0.0009990997905802
 10
190.1027206688153
 20
93.23902168109488
 30
0.0
 10
189.8773374786993
 20
93.03137905411654
 30
0.0
 10
189.6516624393707
 20
92.82415821443476
 30
0.0
 10
189.4257206688153
 20
92.61732657885001
 30
0.0
  0
SPLINE
  5
E2
330
1F
100
AcDbEntity
  8
0
  6
Continuous
 62
     7
370
    15
100
AcDbSpline
210
0.0
220
0.0
230
1.0
 70
     8
 71
     3
 72
     8
 73
     4
 74
     0
 42
0.00000001
 43
0.00000001
 40
0.0000002947080346
 40
0.0000002947080346
 40
0.0000002947080346
 40
0.0000002947080346
 40
0.0009990990599917
 40
0.0009990990599917
 40
0.0009990990599917
 40
0.0009990990599917
 10
189.4257206688153
 20
134.0101963569295
 30
0.0
 10
189.6516624393707
 20
133.8033647213447
 30
0.0
 10
189.8773374786993
 20
133.5961438816629
 30
0.0
 10
190.1027206688153
 20
133.3885012546846
 30
0.0
  0
LINE
  5
E3
330
1F
100
AcDbEntity
  8
0
  6
Continuous
 62
     7
370
    15
100
AcDbLine
 10
190.1027206688
 20
133.3885012547
 30
0.0
 11
190.1027206688
 21
133.0537035775
 31
0.0
  0
LINE
  5
E4
330
1F
100
AcDbEntity
  8
0
  6
Continuous
 62
     7
370
    15
100
AcDbLine
 10
190.1027206688
 20
93.5738193582
 30
0.0
 11
190.1027206688
 21
93.2390216811
 31
0.0
  0
SPLINE
  5
E5
330
1F
100
AcDbEntity
  8
0
  6
Continuous
 62
     7
370
    15
100
AcDbSpline
210
0.0
220
0.0
230
1.0
 70
     8
 71
     3
 72
     8
 73
     4
 74
     0
 42
0.00000001
 43
0.00000001
 40
0.0000003177348667
 40
0.0000003177348667
 40
0.0000003177348667
 40
0.0000003177348667
 40
0.0010719123683619
 40
0.0010719123683619
 40
0.0010719123683619
 40
0.0010719123683619
 10
190.1027206688153
 20
133.4383181150867
 30
0.0
 10
189.8778817057801
 20
133.6836488095812
 30
0.0
 10
189.6521884432638
 20
133.927939100633
 30
0.0
 10
189.4257206688153
 20
134.1712640375137
 30
0.0
  0
LINE
  5
E6
330
1F
100
AcDbEntity
  8
0
  6
Continuous
 62
     7
370
    15
100
AcDbLine
 10
190.1027206688
 20
133.3885012547
 30
0.0
 11
190.1027206688
 21
133.4383181151
 31
0.0
  0
LINE
  5
E7
330
1F
100
AcDbEntity
  8
0
  6
Continuous
 62
     7
370
    15
100
AcDbLine
 10
190.1027206688
 20
93.1892048207
 30
0.0
 11
190.1027206688
 21
93.2390216811
 31
0.0
  0
SPLINE
  5
E8
330
1F
100
AcDbEntity
  8
0
  6
Continuous
 62
     7
370
    15
100
AcDbSpline
210
0.0
220
0.0
230
1.0
 70
     8
 71
     3
 72
     8
 73
     4
 74
     0
 42
0.00000001
 43
0.00000001
 40
0.0000003154491
 40
0.0000003154491
 40
0.0000003154491
 40
0.0000003154491
 40
0.0010719100825952
 40
0.0010719100825952
 40
0.0010719100825952
 40
0.0010719100825952
 10
189.4257206688153
 20
92.45625889826579
 30
0.0
 10
189.6521884432638
 20
92.69958383514646
 30
0.0
 10
189.8778817057801
 20
92.94387412619831
 30
0.0
 10
190.1027206688153
 20
93.18920482069284
 30
0.0
  0
SPLINE
  5
E9
330
1F
100
AcDbEntity
  8
0
  6
Continuous
 62
     7
370
    15
100
AcDbSpline
210
0.0
220
0.0
230
1.0
 70
     8
 71
     3
 72
     8
 73
     4
 74
     0
 42
0.00000001
 43
0.00000001
 40
0.0000003003044877
 40
0.0000003003044877
 40
0.0000003003044877
 40
0.0000003003044877
 40
0.00101867425394
 40
0.00101867425394
 40
0.00101867425394
 40
0.00101867425394
 10
189.4257206688153
 20
134.2559059591176
 30
0.0
 10
189.6517958829586
 20
134.0389150551803
 30
0.0
 10
189.8774752535356
 20
133.8213728690498
 30
0.0
 10
190.1027206688153
 20
133.6032343973121
 30
0.0
  0
LINE
  5
EA
330
1F
100
AcDbEntity
  8
0
  6
Continuous
 62
     7
370
    15
100
AcDbLine
 10
190.1027206688
 20
133.6032343973
 30
0.0
 11
190.1027206688
 21
133.4383181151
 31
0.0
  0
SPLINE
  5
EB
330
1F
100
AcDbEntity
  8
0
  6
Continuous
 62
     7
370
    15
100
AcDbSpline
210
0.0
220
0.0
230
1.0
 70
     8
 71
     3
 72
     8
 73
     4
 74
     0
 42
0.00000001
 43
0.00000001
 40
0.0000003014110893
 40
0.0000003014110893
 40
0.0000003014110893
 40
0.0000003014110893
 40
0.0010186753605416
 40
0.0010186753605416
 40
0.0010186753605416
 40
0.0010186753605416
 10
190.1027206688153
 20
93.02428853846739
 30
0.0
 10
189.8774752535356
 20
92.80615006672967
 30
0.0
 10
189.6517958829586
 20
92.58860788059916
 30
0.0
 10
189.4257206688153
 20
92.37161697666191
 30
0.0
  0
LINE
  5
EC
330
1F
100
AcDbEntity
  8
0
  6
Continuous
 62
     7
370
    15
100
AcDbLine
 10
190.1027206688
 20
93.1892048207
 30
0.0
 11
190.1027206688
 21
93.0242885385
 31
0.0
  0
SPLINE
  5
ED
330
1F
100
AcDbEntity
  8
0
  6
Continuous
 62
     7
370
    15
100
AcDbSpline
210
0.0
220
0.0
230
1.0
 70
     8
 71
     3
 72
     8
 73
     4
 74
     0
 42
0.00000001
 43
0.00000001
 40
0.000000307130569
 40
0.000000307130569
 40
0.000000307130569
 40
0.000000307130569
 40
0.0010426188725569
 40
0.0010426188725569
 40
0.0010426188725569
 40
0.0010426188725569
 10
189.4257206688153
 20
92.31841877798189
 30
0.0
 10
189.6519667996155
 20
92.54746657189325
 30
0.0
 10
189.8776520244932
 20
92.7772555917454
 30
0.0
 10
190.1027206688153
 20
93.00784494092647
 30
0.0
  0
LINE
  5
EE
330
1F
100
AcDbEntity
  8
0
  6
Continuous
 62
     7
370
    15
100
AcDbLine
 10
190.1027206688
 20
93.0078449409
 30
0.0
 11
190.1027206688
 21
93.0242885385
 31
0.0
  0
SPLINE
  5
EF
330
1F
100
AcDbEntity
  8
0
  6
Continuous
 62
     7
370
    15
100
AcDbSpline
210
0.0
220
0.0
230
1.0
 70
     8
 71
     3
 72
     8
 73
     4
 74
     0
 42
0.00000001
 43
0.00000001
 40
0.0000003087377773
 40
0.0000003087377773
 40
0.0000003087377773
 40
0.0000003087377773
 40
0.0010426204797652
 40
0.0010426204797652
 40
0.0010426204797652
 40
0.0010426204797652
 10
190.1027206688153
 20
133.619677994853
 30
0.0
 10
189.8776520244932
 20
133.8502673440341
 30
0.0
 10
189.6519667996155
 20
134.0800563638863
 30
0.0
 10
189.4257206688153
 20
134.3091041577976
 30
0.0
  0
LINE
  5
F0
330
1F
100
AcDbEntity
  8
0
  6
Continuous
 62
     7
370
    15
100
AcDbLine
 10
190.1027206688
 20
133.6032343973
 30
0.0
 11
190.1027206688
 21
133.6196779949
 31
0.0
  0
SPLINE
  5
F1
330
1F
100
AcDbEntity
  8
0
  6
HIDDEN
 62
     7
370
     0
100
AcDbSpline
210
0.0
220
0.0
230
1.0
 70
     8
 71
     3
 72
     9
 73
     5
 74
     0
 42
0.00000001
 43
0.00000001
 40
0.0
 40
0.0
 40
0.0
 40
0.0
 40
0.7966780122522624
 40
1.0
 40
1.0
 40
1.0
 40
1.0
 10
188.8077255363566
 20
92.41153678567987
 30
0.0
 10
188.8055538765044
 20
92.41092009582904
 30
0.0
 10
188.8028279824558
 20
92.41014601917404
 30
0.0
 10
188.8041937804583
 20
92.40938590154238
 30
0.0
 10
188.8044714772231
 20
92.40923135291459
 30
0.0
  0
SPLINE
  5
F2
330
1F
100
AcDbEntity
  8
0
  6
HIDDEN
 62
     7
370
     0
100
AcDbSpline
210
0.0
220
0.0
230
1.0
 70
     8
 71
     3
 72
     9
 73
     5
 74
     0
 42
0.00000001
 43
0.00000001
 40
0.0
 40
0.0
 40
0.0
 40
0.0
 40
0.7948738768163202
 40
1.0
 40
1.0
 40
1.0
 40
1.0
 10
188.8077628589809
 20
134.220592896135
 30
0.0
 10
188.8055770024282
 20
134.2200014864966
 30
0.0
 10
188.8028270610645
 20
134.219257456965
 30
0.0
 10
188.8042005665853
 20
134.218472146839
 30
0.0
 10
188.8044823084479
 20
134.2183110592173
 30
0.0
  0
LINE
  5
F3
330
1F
100
AcDbEntity
  8
0
  6
HIDDEN
 62
     7
370
     0
100
AcDbLine
 10
188.7257206688
 20
131.1637614679
 30
0.0
 11
188.7257206688
 21
129.9137614679
 31
0.0
  0
SPLINE
  5
F4
330
1F
100
AcDbEntity
  8
0
  6
HIDDEN
 62
     7
370
     0
100
AcDbSpline
210
0.0
220
0.0
230
1.0
 70
     8
 71
     3
 72
    14
 73
    10
 74
     0
 42
0.00000001
 43
0.00000001
 40
0.0
 40
0.0
 40
0.0
 40
0.0
 40
0.25
 40
0.25
 40
0.5
 40
0.5
 40
0.75
 40
0.75
 40
1.0
 40
1.0
 40
1.0
 40
1.0
 10
188.8757206688153
 20
130.806153375232
 30
0.0
 10
188.8451851863728
 20
130.7888615170863
 30
0.0
 10
188.8265564502392
 20
130.763258857677
 30
0.0
 10
188.8051229832624
 20
130.7071896615205
 30
0.0
 10
188.8022259618749
 20
130.6767479168041
 30
0.0
 10
188.8064825604188
 20
130.6141014075321
 30
0.0
 10
188.8136316681534
 20
130.5822099813155
 30
0.0
 10
188.836629898254
 20
130.5191942248582
 30
0.0
 10
188.8522007007799
 20
130.4872264137513
 30
0.0
 10
188.8757206688153
 20
130.4592270339066
 30
0.0
  0
ELLIPSE
  5
F5
330
1F
100
AcDbEntity
  8
0
  6
HIDDEN
 62
     7
370
     0
100
AcDbEllipse
 10
190.3917714764
 20
129.9137614679
 30
0.0
 11
2.165063509461106
 21
0.0
 31
0.0
210
0.0
220
0.0
230
1.0
 40
0.5773502692
 41
1.704702997419881
 42
2.346521364372606
  0
ELLIPSE
  5
F6
330
1F
100
AcDbEntity
  8
0
  6
HIDDEN
 62
     7
370
     0
100
AcDbEllipse
 10
186.9276698612
 20
129.9137614679
 30
0.0
 11
2.165063509461106
 21
0.0
 31
0.0
210
0.0
220
0.0
230
1.0
 40
0.5773502692
 41
0.0
 42
0.4515630575236473
  0
LINE
  5
F7
330
1F
100
AcDbEntity
  8
0
  6
HIDDEN
 62
     7
370
     0
100
AcDbLine
 10
188.7257206688
 20
129.9137614679
 30
0.0
 11
188.7257206688
 21
113.9137614679
 31
0.0
  0
LINE
  5
F8
330
1F
100
AcDbEntity
  8
0
  6
HIDDEN
 62
     7
370
     0
100
AcDbLine
 10
189.0927333707
 20
129.9137614679
 30
0.0
 11
189.0927333707
 21
113.9137614679
 31
0.0
  0
ELLIPSE
  5
F9
330
1F
100
AcDbEntity
  8
0
  6
HIDDEN
 62
     7
370
     0
100
AcDbEllipse
 10
190.3917714764
 20
113.9137614679
 30
0.0
 11
2.165063509461106
 21
0.0
 31
0.0
210
0.0
220
0.0
230
1.0
 40
0.5773502692
 41
3.936663942807002
 42
4.578482309759713
  0
SPLINE
  5
FA
330
1F
100
AcDbEntity
  8
0
  6
HIDDEN
 62
     7
370
     0
100
AcDbSpline
210
0.0
220
0.0
230
1.0
 70
     8
 71
     3
 72
    14
 73
    10
 74
     0
 42
0.00000001
 43
0.00000001
 40
0.0
 40
0.0
 40
0.0
 40
0.0
 40
0.2499999999999999
 40
0.2499999999999999
 40
0.4999999999999998
 40
0.4999999999999998
 40
0.7499999999999999
 40
0.7499999999999999
 40
1.0
 40
1.0
 40
1.0
 40
1.0
 10
188.8757206688153
 20
113.3682959018729
 30
0.0
 10
188.8521563959035
 20
113.3402437792242
 30
0.0
 10
188.8367508813626
 20
113.3086322859327
 30
0.0
 10
188.813584503825
 20
113.245211555988
 30
0.0
 10
188.8065322806367
 20
113.2136768567435
 30
0.0
 10
188.8022162608795
 20
113.1511042424273
 30
0.0
 10
188.8050316832327
 20
113.1206335658705
 30
0.0
 10
188.8265652070052
 20
113.0641799516901
 30
0.0
 10
188.8452274584361
 20
113.0386374805575
 30
0.0
 10
188.8757206688153
 20
113.0213695605475
 30
0.0
  0
SPLINE
  5
FB
330
1F
100
AcDbEntity
  8
0
  6
HIDDEN
 62
     7
370
     0
100
AcDbSpline
210
0.0
220
0.0
230
1.0
 70
    24
 71
     1
 72
     4
 73
     2
 74
     0
 42
0.00000001
 43
0.00000001
 40
0.0
 40
0.0
 40
1.0
 40
1.0
 10
188.8099600657849
 20
113.1284051431321
 30
0.0
 10
188.8072900608854
 20
113.1659910446569
 30
0.0
  0
LINE
  5
FC
330
1F
100
AcDbEntity
  8
0
  6
HIDDEN
 62
     7
370
     0
100
AcDbLine
 10
188.7257206688
 20
113.9137614679
 30
0.0
 11
188.7257206688
 21
112.6637614679
 31
0.0
  0
ELLIPSE
  5
FD
330
1F
100
AcDbEntity
  8
0
  6
HIDDEN
 62
     7
370
     0
100
AcDbEllipse
 10
186.9276698612
 20
113.9137614679
 30
0.0
 11
2.165063509461106
 21
0.0
 31
0.0
210
0.0
220
0.0
230
1.0
 40
0.5773502692
 41
5.83162224965596
 42
6.283185307179586
  0
SPLINE
  5
FE
330
1F
100
AcDbEntity
  8
0
  6
HIDDEN
 62
     7
370
     0
100
AcDbSpline
210
0.0
220
0.0
230
1.0
 70
     8
 71
     3
 72
    32
 73
    28
 74
     0
 42
0.00000001
 43
0.00000001
 40
0.0
 40
0.0
 40
0.0
 40
0.0
 40
0.1249999999999943
 40
0.1249999999999943
 40
0.2499999999999887
 40
0.2499999999999887
 40
0.3124999999999896
 40
0.3124999999999896
 40
0.3749999999999906
 40
0.3749999999999906
 40
0.4374999999999915
 40
0.4374999999999915
 40
0.4999999999999925
 40
0.4999999999999925
 40
0.5624999999999933
 40
0.5624999999999933
 40
0.6249999999999943
 40
0.6249999999999943
 40
0.6874999999999952
 40
0.6874999999999952
 40
0.7499999999999962
 40
0.7499999999999962
 40
0.8124999999999971
 40
0.8124999999999971
 40
0.8749999999999981
 40
0.8749999999999981
 40
1.0
 40
1.0
 40
1.0
 40
1.0
 10
176.5257206688153
 20
114.4786175301392
 30
0.0
 10
176.3098522729715
 20
114.490993251876
 30
0.0
 10
176.0942713494769
 20
114.4965066545332
 30
0.0
 10
175.6641577007889
 20
114.4837466036159
 30
0.0
 10
175.445751196316
 20
114.4663815224147
 30
0.0
 10
175.1383986909007
 20
114.3931711420281
 30
0.0
 10
175.0387860935371
 20
114.3600148306037
 30
0.0
 10
174.860321048581
 20
114.2698975481731
 30
0.0
 10
174.7789136492787
 20
114.2110603674364
 30
0.0
 10
174.6479495908653
 20
114.0666641116775
 30
0.0
 10
174.5969923604643
 20
113.9795957283108
 30
0.0
 10
174.5301232390121
 20
113.788985433705
 30
0.0
 10
174.5130933325912
 20
113.6831920551038
 30
0.0
 10
174.5126479364784
 20
113.4695924656261
 30
0.0
 10
174.5291353574667
 20
113.359653868806
 30
0.0
 10
174.595336961829
 20
113.1527682384224
 30
0.0
 10
174.6454759763573
 20
113.0549580314983
 30
0.0
 10
174.7764681019497
 20
112.8851148997396
 30
0.0
 10
174.8566852135511
 20
112.8137665638233
 30
0.0
 10
175.0376880293495
 20
112.6991625273991
 30
0.0
 10
175.135717692459
 20
112.6569581737152
 30
0.0
 10
175.3401900890359
 20
112.5926527183377
 30
0.0
 10
175.4470993293681
 20
112.5705593200372
 30
0.0
 10
175.6602945391198
 20
112.5400162661079
 30
0.0
 10
175.7676816793386
 20
112.5312900907796
 30
0.0
 10
176.0914312304405
 20
112.5178195091688
 30
0.0
 10
176.3093653942495
 20
112.5254946786607
 30
0.0
 10
176.5257206688153
 20
112.5423793029527
 30
0.0
  0
SPLINE
  5
FF
330
1F
100
AcDbEntity
  8
0
  6
HIDDEN
 62
     7
370
     0
100
AcDbSpline
210
0.0
220
0.0
230
1.0
 70
     8
 71
     3
 72
    22
 73
    18
 74
     0
 42
0.00000001
 43
0.00000001
 40
0.0
 40
0.0
 40
0.0
 40
0.0
 40
0.124999999999998
 40
0.124999999999998
 40
0.2499999999999959
 40
0.2499999999999959
 40
0.3749999999999938
 40
0.3749999999999938
 40
0.4999999999999917
 40
0.4999999999999917
 40
0.5624999999999906
 40
0.5624999999999906
 40
0.6249999999999895
 40
0.6249999999999895
 40
0.749999999999993
 40
0.749999999999993
 40
1.0
 40
1.0
 40
1.0
 40
1.0
 10
176.5257206688153
 20
112.5423793029527
 30
0.0
 10
176.5811963262408
 20
112.5459400246066
 30
0.0
 10
176.639182654673
 20
112.5708125278707
 30
0.0
 10
176.7602787825693
 20
112.659929631467
 30
0.0
 10
176.8218171373497
 20
112.7230579863119
 30
0.0
 10
176.9406556168925
 20
112.8782889557965
 30
0.0
 10
176.997931624444
 20
112.9695698310381
 30
0.0
 10
177.0886999495024
 20
113.1726285224836
 30
0.0
 10
177.1209869852596
 20
113.2864714391981
 30
0.0
 10
177.1209028368122
 20
113.4605805599804
 30
0.0
 10
177.1129449570297
 20
113.5198872152192
 30
0.0
 10
177.0852298257451
 20
113.6342454571442
 30
0.0
 10
177.0658048985699
 20
113.6898528472297
 30
0.0
 10
176.9973599730538
 20
113.8540772278128
 30
0.0
 10
176.9405632001358
 20
113.9566789356862
 30
0.0
 10
176.7621506857823
 20
114.2441175102482
 30
0.0
 10
176.6366997132953
 20
114.3997275349033
 30
0.0
 10
176.5257206688153
 20
114.4786175301392
 30
0.0
  0
LINE
  5
100
330
1F
100
AcDbEntity
  8
0
  6
HIDDEN
 62
     7
370
     0
100
AcDbLine
 10
188.2257206688
 20
115.5637614679
 30
0.0
 11
188.2257206688
 21
121.0637614679
 31
0.0
  0
SPLINE
  5
101
330
1F
100
AcDbEntity
  8
0
  6
HIDDEN
 62
     7
370
     0
100
AcDbSpline
210
0.0
220
0.0
230
1.0
 70
     8
 71
     3
 72
    12
 73
     8
 74
     0
 42
0.00000001
 43
0.00000001
 40
0.0
 40
0.0
 40
0.0
 40
0.0
 40
0.4999999999999998
 40
0.4999999999999998
 40
0.7499999999999999
 40
0.7499999999999999
 40
1.0
 40
1.0
 40
1.0
 40
1.0
 10
188.8757206688153
 20
116.3023493687465
 30
0.0
 10
188.8220917923838
 20
116.3312166572598
 30
0.0
 10
188.8025342130558
 20
116.3815410028224
 30
0.0
 10
188.8043923734303
 20
116.4548656740508
 30
0.0
 10
188.8103955204706
 20
116.479801542534
 30
0.0
 10
188.8335233183488
 20
116.5272208966113
 30
0.0
 10
188.8504238784677
 20
116.5501015064805
 30
0.0
 10
188.8757206688153
 20
116.5678756275725
 30
0.0
  0
SPLINE
  5
102
330
1F
100
AcDbEntity
  8
0
  6
HIDDEN
 62
     7
370
     0
100
AcDbSpline
210
0.0
220
0.0
230
1.0
 70
     8
 71
     3
 72
    12
 73
     8
 74
     0
 42
0.00000001
 43
0.00000001
 40
0.0
 40
0.0
 40
0.0
 40
0.0
 40
0.2500000000000001
 40
0.2500000000000001
 40
0.5000000000000002
 40
0.5000000000000002
 40
1.0
 40
1.0
 40
1.0
 40
1.0
 10
188.8757206688153
 20
120.0596473082069
 30
0.0
 10
188.8504363683459
 20
120.0774126536163
 30
0.0
 10
188.8335134355439
 20
120.10031670102
 30
0.0
 10
188.8103904069791
 20
120.147737482215
 30
0.0
 10
188.8043810064688
 20
120.1727454384897
 30
0.0
 10
188.8025523257846
 20
120.2459892934277
 30
0.0
 10
188.8220482299052
 20
120.29628282976
 30
0.0
 10
188.8757206688153
 20
120.325173567033
 30
0.0
  0
ELLIPSE
  5
103
330
1F
100
AcDbEntity
  8
0
  6
HIDDEN
 62
     7
370
     0
100
AcDbEllipse
 10
192.123822284
 20
118.3137614679
 30
0.0
 11
4.763139720814479
 21
0.0
 31
0.0
210
0.0
220
0.0
230
1.0
 40
0.5773502692
 41
2.009008554302171
 42
2.321186902537082
  0
ELLIPSE
  5
104
330
1F
100
AcDbEntity
  8
0
  6
HIDDEN
 62
     7
370
     0
100
AcDbEllipse
 10
188.6597206688
 20
118.3137614679
 30
0.0
 11
4.763139720814479
 21
0.0
 31
0.0
210
0.0
220
0.0
230
1.0
 40
0.5773502692
 41
1.263008219584027
 42
1.525432530240413
  0
SPLINE
  5
105
330
1F
100
AcDbEntity
  8
0
  6
HIDDEN
 62
     7
370
     0
100
AcDbSpline
210
0.0
220
0.0
230
1.0
 70
     8
 71
     3
 72
    11
 73
     7
 74
     0
 42
0.00000001
 43
0.00000001
 40
0.0
 40
0.0
 40
0.0
 40
0.0
 40
0.3221325877469751
 40
0.6442661041980146
 40
0.9662969065133827
 40
0.9999999999999999
 40
0.9999999999999999
 40
0.9999999999999999
 40
0.9999999999999999
 10
188.8757206688153
 20
121.0609323762972
 30
0.0
 10
188.8624037387133
 20
121.061346870643
 30
0.0
 10
188.8357698401167
 20
121.0621758605296
 30
0.0
 10
188.8121600459986
 20
121.0633242862577
 30
0.0
 10
188.8016019782894
 20
121.06386986718
 30
0.0
 10
188.8042333229494
 20
121.0637351434671
 30
0.0
 10
188.8044826229348
 20
121.0637223794153
 30
0.0
  0
SPLINE
  5
106
330
1F
100
AcDbEntity
  8
0
  6
HIDDEN
 62
     7
370
     0
100
AcDbSpline
210
0.0
220
0.0
230
1.0
 70
    24
 71
     1
 72
     4
 73
     2
 74
     0
 42
0.00000001
 43
0.00000001
 40
0.0
 40
0.0
 40
1.0
 40
1.0
 10
188.806388722494
 20
116.4526860002121
 30
0.0
 10
188.807415043416
 20
116.4270540273452
 30
0.0
  0
SPLINE
  5
107
330
1F
100
AcDbEntity
  8
0
  6
HIDDEN
 62
     7
370
     0
100
AcDbSpline
210
0.0
220
0.0
230
1.0
 70
     8
 71
     3
 72
    11
 73
     7
 74
     0
 42
0.00000001
 43
0.00000001
 40
0.0
 40
0.0
 40
0.0
 40
0.0
 40
0.2881035063659496
 40
0.6098619833830471
 40
0.9319825876717013
 40
1.0
 40
1.0
 40
1.0
 40
1.0
 10
188.8044826229348
 20
115.5638005563642
 30
0.0
 10
188.8054500256005
 20
115.563853221667
 30
0.0
 10
188.8074978386101
 20
115.563964704399
 30
0.0
 10
188.8302159438667
 20
115.5650722245753
 30
0.0
 10
188.8561238275435
 20
115.5660566207558
 30
0.0
 10
188.8728113364165
 20
115.5665112913383
 30
0.0
 10
188.8757206688153
 20
115.5665905594823
 30
0.0
  0
ELLIPSE
  5
108
330
1F
100
AcDbEntity
  8
0
  6
HIDDEN
 62
     7
370
     0
100
AcDbEllipse
 10
188.6597206688
 20
118.3137614679
 30
0.0
 11
4.763139720814479
 21
0.0
 31
0.0
210
0.0
220
0.0
230
1.0
 40
0.5773502692
 41
4.757752776939181
 42
5.020177087595567
  0
ELLIPSE
  5
109
330
1F
100
AcDbEntity
  8
0
  6
HIDDEN
 62
     7
370
     0
100
AcDbEllipse
 10
192.123822284
 20
118.3137614679
 30
0.0
 11
4.763139720814479
 21
0.0
 31
0.0
210
0.0
220
0.0
230
1.0
 40
0.5773502692
 41
3.961998404642523
 42
4.274176752877425
  0
ELLIPSE
  5
10A
330
1F
100
AcDbEntity
  8
0
  6
HIDDEN
 62
     7
370
     0
100
AcDbEllipse
 10
185.1956190537
 20
118.3137614679
 30
0.0
 11
4.763139720814451
 21
0.0
 31
0.0
210
0.0
220
0.0
230
1.0
 40
0.5773502692
 41
5.595348192057421
 42
6.971022422301787
  0
LINE
  5
10B
330
1F
100
AcDbEntity
  8
0
  6
HIDDEN
 62
     7
370
     0
100
AcDbLine
 10
187.8351612664
 20
116.2137614679
 30
0.0
 11
187.8351612664
 21
120.4137614679
 31
0.0
  0
LINE
  5
10C
330
1F
100
AcDbEntity
  8
0
  6
HIDDEN
 62
     7
370
     0
100
AcDbLine
 10
89.8247587745
 20
111.8137614679
 30
0.0
 11
89.8247587745
 21
114.8137614679
 31
0.0
  0
LINE
  5
10D
330
1F
100
AcDbEntity
  8
0
  6
HIDDEN
 62
     7
370
     0
100
AcDbLine
 10
174.2257206688
 20
116.2137614679
 30
0.0
 11
174.2257206688
 21
120.4137614679
 31
0.0
  0
SPLINE
  5
10E
330
1F
100
AcDbEntity
  8
0
  6
HIDDEN
 62
     7
370
     0
100
AcDbSpline
210
0.0
220
0.0
230
1.0
 70
     8
 71
     3
 72
    16
 73
    12
 74
     0
 42
0.00000001
 43
0.00000001
 40
0.0
 40
0.0
 40
0.0
 40
0.0
 40
0.2500000000000002
 40
0.2500000000000002
 40
0.3750000000000002
 40
0.3750000000000002
 40
0.5000000000000002
 40
0.5000000000000002
 40
0.7500000000000001
 40
0.7500000000000001
 40
1.0
 40
1.0
 40
1.0
 40
1.0
 10
190.1027206688153
 20
114.4142856954027
 30
0.0
 10
189.9938729226409
 20
114.2560606333765
 30
0.0
 10
189.900817531707
 20
114.0877854194125
 30
0.0
 10
189.7989225130947
 20
113.8113881577824
 30
0.0
 10
189.7712138710347
 20
113.7139772500195
 30
0.0
 10
189.7340841709734
 20
113.5171706319862
 30
0.0
 10
189.7243293138538
 20
113.4173906827471
 30
0.0
 10
189.7238833176658
 20
113.1135476747958
 30
0.0
 10
189.7634637417615
 20
112.9133050288484
 30
0.0
 10
189.9000339953759
 20
112.5408932844007
 30
0.0
 10
189.9936274211549
 20
112.3718191723359
 30
0.0
 10
190.1027206688153
 20
112.2132372403768
 30
0.0
  0
LINE
  5
10F
330
1F
100
AcDbEntity
  8
0
  6
HIDDEN
 62
     7
370
     0
100
AcDbLine
 10
188.7101762122
 20
112.5137614679
 30
0.0
 11
188.7101762122
 21
114.1137614679
 31
0.0
  0
SPLINE
  5
110
330
1F
100
AcDbEntity
  8
0
  6
HIDDEN
 62
     7
370
     0
100
AcDbSpline
210
0.0
220
0.0
230
1.0
 70
     8
 71
     3
 72
    10
 73
     6
 74
     0
 42
0.00000001
 43
0.00000001
 40
0.0
 40
0.0
 40
0.0
 40
0.0
 40
0.5
 40
0.5
 40
1.0
 40
1.0
 40
1.0
 40
1.0
 10
188.8757206688153
 20
114.2006134327577
 30
0.0
 10
189.0743878995322
 20
114.3003134719042
 30
0.0
 10
189.2772840416815
 20
114.3862450097085
 30
0.0
 10
189.6872077654728
 20
114.5446569333808
 30
0.0
 10
189.8944311387308
 20
114.6167805372202
 30
0.0
 10
190.1027206688153
 20
114.684413802211
 30
0.0
  0
SPLINE
  5
111
330
1F
100
AcDbEntity
  8
0
  6
HIDDEN
 62
     7
370
     0
100
AcDbSpline
210
0.0
220
0.0
230
1.0
 70
     8
 71
     3
 72
    11
 73
     7
 74
     0
 42
0.00000001
 43
0.00000001
 40
0.0
 40
0.0
 40
0.0
 40
0.0
 40
0.203090100079423
 40
0.4926567556725012
 40
0.7882046016835793
 40
1.0
 40
1.0
 40
1.0
 40
1.0
 10
188.8052430474438
 20
114.1683943388035
 30
0.0
 10
188.8053125818891
 20
114.1684193818712
 30
0.0
 10
188.8054812588175
 20
114.1684801314422
 30
0.0
 10
188.8219951518274
 20
114.1753634030847
 30
0.0
 10
188.8469457026892
 20
114.186458961153
 30
0.0
 10
188.8672460784501
 20
114.1964447623877
 30
0.0
 10
188.8757206688153
 20
114.2006134327576
 30
0.0
  0
SPLINE
  5
112
330
1F
100
AcDbEntity
  8
0
  6
HIDDEN
 62
     7
370
     0
100
AcDbSpline
210
0.0
220
0.0
230
1.0
 70
     8
 71
     3
 72
    11
 73
     7
 74
     0
 42
0.00000001
 43
0.00000001
 40
0.0
 40
0.0
 40
0.0
 40
0.0
 40
0.2712240979262299
 40
0.6022788778431359
 40
0.9103039860338821
 40
1.0
 40
1.0
 40
1.0
 40
1.0
 10
188.8757206688153
 20
112.4269095030219
 30
0.0
 10
188.8649059191112
 20
112.4321958993149
 30
0.0
 10
188.8408907399078
 20
112.4439348445322
 30
0.0
 10
188.8154681641042
 20
112.4549317329124
 30
0.0
 10
188.8028858226487
 20
112.4600980554122
 30
0.0
 10
188.8048092636219
 20
112.4593069997259
 30
0.0
 10
188.8052430474438
 20
112.4591285969759
 30
0.0
  0
SPLINE
  5
113
330
1F
100
AcDbEntity
  8
0
  6
HIDDEN
 62
     7
370
     0
100
AcDbSpline
210
0.0
220
0.0
230
1.0
 70
     8
 71
     3
 72
    10
 73
     6
 74
     0
 42
0.00000001
 43
0.00000001
 40
0.0
 40
0.0
 40
0.0
 40
0.0
 40
0.5
 40
0.5
 40
1.0
 40
1.0
 40
1.0
 40
1.0
 10
190.1027206688153
 20
111.9431091335684
 30
0.0
 10
189.8943810046902
 20
112.0107586774805
 30
0.0
 10
189.6873452613471
 20
112.0828174386036
 30
0.0
 10
189.2774904278749
 20
112.2411936030779
 30
0.0
 10
189.0745570590227
 20
112.3271245721305
 30
0.0
 10
188.8757206688153
 20
112.4269095030217
 30
0.0
  0
LINE
  5
114
330
1F
100
AcDbEntity
  8
0
  6
HIDDEN
 62
     7
370
     0
100
AcDbLine
 10
176.5257206688
 20
114.4786175301
 30
0.0
 11
176.5257206688
 21
114.8137614679
 31
0.0
  0
LINE
  5
115
330
1F
100
AcDbEntity
  8
0
  6
HIDDEN
 62
     7
370
     0
100
AcDbLine
 10
176.5257206688
 20
111.8137614679
 30
0.0
 11
176.5257206688
 21
112.542379303
 31
0.0
  0
LINE
  5
116
330
1F
100
AcDbEntity
  8
0
  6
HIDDEN
 62
     7
370
     0
100
AcDbLine
 10
187.7257206688
 20
112.5137614679
 30
0.0
 11
187.7257206688
 21
114.1137614679
 31
0.0
  0
SPLINE
  5
117
330
1F
100
AcDbEntity
  8
0
  6
HIDDEN
 62
     7
370
     0
100
AcDbSpline
210
0.0
220
0.0
230
1.0
 70
    24
 71
     1
 72
     4
 73
     2
 74
     0
 42
0.00000001
 43
0.00000001
 40
0.0
 40
0.0
 40
1.0
 40
1.0
 10
190.1027206688153
 20
131.1637614678897
 30
0.0
 10
188.7257206688153
 20
131.1637614678897
 30
0.0
  0
SPLINE
  5
118
330
1F
100
AcDbEntity
  8
0
  6
HIDDEN
 62
     7
370
     0
100
AcDbSpline
210
0.0
220
0.0
230
1.0
 70
    24
 71
     1
 72
     4
 73
     2
 74
     0
 42
0.00000001
 43
0.00000001
 40
0.0
 40
0.0
 40
1.0
 40
1.0
 10
188.7257206688153
 20
112.6637614678897
 30
0.0
 10
190.1027206688153
 20
112.6637614678897
 30
0.0
  0
SPLINE
  5
119
330
1F
100
AcDbEntity
  8
0
  6
HIDDEN
 62
     7
370
     0
100
AcDbSpline
210
0.0
220
0.0
230
1.0
 70
    24
 71
     1
 72
     4
 73
     2
 74
     0
 42
0.00000001
 43
0.00000001
 40
0.0
 40
0.0
 40
1.0
 40
1.0
 10
188.8037206688153
 20
132.7301973317965
 30
0.0
 10
188.8037206688153
 20
130.6615318911226
 30
0.0
  0
SPLINE
  5
11A
330
1F
100
AcDbEntity
  8
0
  6
HIDDEN
 62
     7
370
     0
100
AcDbSpline
210
0.0
220
0.0
230
1.0
 70
    24
 71
     1
 72
     4
 73
     2
 74
     0
 42
0.00000001
 43
0.00000001
 40
0.0
 40
0.0
 40
1.0
 40
1.0
 10
188.8037206688153
 20
113.1642989704704
 30
0.0
 10
188.8037206688153
 20
93.89723221471667
 30
0.0
  0
SPLINE
  5
11B
330
1F
100
AcDbEntity
  8
0
  6
HIDDEN
 62
     7
370
     0
100
AcDbSpline
210
0.0
220
0.0
230
1.0
 70
    24
 71
     1
 72
     4
 73
     2
 74
     0
 42
0.00000001
 43
0.00000001
 40
0.0
 40
0.0
 40
1.0
 40
1.0
 10
188.7257206688153
 20
115.5367712052064
 30
0.0
 10
175.6576856971738
 20
114.4786070012066
 30
0.0
  0
SPLINE
  5
11C
330
1F
100
AcDbEntity
  8
0
  6
HIDDEN
 62
     7
370
     0
100
AcDbSpline
210
0.0
220
0.0
230
1.0
 70
    24
 71
     1
 72
     4
 73
     2
 74
     0
 42
0.00000001
 43
0.00000001
 40
0.0
 40
0.0
 40
1.0
 40
1.0
 10
176.5297013193115
 20
112.5426711452821
 30
0.0
 10
188.7257206688153
 20
113.5302252140415
 30
0.0
  0
SPLINE
  5
11D
330
1F
100
AcDbEntity
  8
0
  6
HIDDEN
 62
     7
370
     0
100
AcDbSpline
210
0.0
220
0.0
230
1.0
 70
    24
 71
     1
 72
     4
 73
     2
 74
     0
 42
0.00000001
 43
0.00000001
 40
0.0
 40
0.0
 40
1.0
 40
1.0
 10
188.8037206688153
 20
133.4383356063277
 30
0.0
 10
188.8037206688153
 20
132.7301973317965
 30
0.0
  0
SPLINE
  5
11E
330
1F
100
AcDbEntity
  8
0
  6
HIDDEN
 62
     7
370
     0
100
AcDbSpline
210
0.0
220
0.0
230
1.0
 70
    24
 71
     1
 72
     4
 73
     2
 74
     0
 42
0.00000001
 43
0.00000001
 40
0.0
 40
0.0
 40
1.0
 40
1.0
 10
188.8037206688153
 20
113.1659910446569
 30
0.0
 10
188.8037206688153
 20
113.1642989704704
 30
0.0
  0
SPLINE
  5
11F
330
1F
100
AcDbEntity
  8
0
  6
HIDDEN
 62
     7
370
     0
100
AcDbSpline
210
0.0
220
0.0
230
1.0
 70
    24
 71
     1
 72
     4
 73
     2
 74
     0
 42
0.00000001
 43
0.00000001
 40
0.0
 40
0.0
 40
1.0
 40
1.0
 10
188.8037206688153
 20
93.89723221471667
 30
0.0
 10
188.8037206688153
 20
93.18912270736934
 30
0.0
  0
SPLINE
  5
120
330
1F
100
AcDbEntity
  8
0
  6
HIDDEN
 62
     7
370
     0
100
AcDbSpline
210
0.0
220
0.0
230
1.0
 70
    24
 71
     1
 72
     4
 73
     2
 74
     0
 42
0.00000001
 43
0.00000001
 40
0.0
 40
0.0
 40
1.0
 40
1.0
 10
188.8037206688153
 20
133.9292641329395
 30
0.0
 10
188.8037206688153
 20
133.4383356063277
 30
0.0
  0
SPLINE
  5
121
330
1F
100
AcDbEntity
  8
0
  6
HIDDEN
 62
     7
370
     0
100
AcDbSpline
210
0.0
220
0.0
230
1.0
 70
    24
 71
     1
 72
     4
 73
     2
 74
     0
 42
0.00000001
 43
0.00000001
 40
0.0
 40
0.0
 40
1.0
 40
1.0
 10
188.8037206688153
 20
130.6615318911226
 30
0.0
 10
188.8037206688153
 20
113.1659910446569
 30
0.0
  0
SPLINE
  5
122
330
1F
100
AcDbEntity
  8
0
  6
HIDDEN
 62
     7
370
     0
100
AcDbSpline
210
0.0
220
0.0
230
1.0
 70
    24
 71
     1
 72
     4
 73
     2
 74
     0
 42
0.00000001
 43
0.00000001
 40
0.0
 40
0.0
 40
1.0
 40
1.0
 10
188.8037206688153
 20
93.18912270736936
 30
0.0
 10
188.8037206688153
 20
92.698218320625
 30
0.0
  0
SPLINE
  5
123
330
1F
100
AcDbEntity
  8
0
  6
HIDDEN
 62
     7
370
     0
100
AcDbSpline
210
0.0
220
0.0
230
1.0
 70
    24
 71
     1
 72
     4
 73
     2
 74
     0
 42
0.00000001
 43
0.00000001
 40
0.0
 40
0.0
 40
1.0
 40
1.0
 10
188.2257206688153
 20
115.5637614678897
 30
0.0
 10
188.8044826229348
 20
115.5637614678897
 30
0.0
  0
SPLINE
  5
124
330
1F
100
AcDbEntity
  8
0
  6
HIDDEN
 62
     7
370
     0
100
AcDbSpline
210
0.0
220
0.0
230
1.0
 70
    24
 71
     1
 72
     4
 73
     2
 74
     0
 42
0.00000001
 43
0.00000001
 40
0.0
 40
0.0
 40
1.0
 40
1.0
 10
188.8044826229348
 20
121.0637614678897
 30
0.0
 10
188.2257206688153
 20
121.0637614678897
 30
0.0
  0
SPLINE
  5
125
330
1F
100
AcDbEntity
  8
0
  6
HIDDEN
 62
     7
370
     0
100
AcDbSpline
210
0.0
220
0.0
230
1.0
 70
    24
 71
     1
 72
     4
 73
     2
 74
     0
 42
0.00000001
 43
0.00000001
 40
0.0
 40
0.0
 40
1.0
 40
1.0
 10
188.2257206688153
 20
121.0637614678897
 30
0.0
 10
187.8351612664474
 20
120.4137614678897
 30
0.0
  0
SPLINE
  5
126
330
1F
100
AcDbEntity
  8
0
  6
HIDDEN
 62
     7
370
     0
100
AcDbSpline
210
0.0
220
0.0
230
1.0
 70
    24
 71
     1
 72
     4
 73
     2
 74
     0
 42
0.00000001
 43
0.00000001
 40
0.0
 40
0.0
 40
1.0
 40
1.0
 10
187.8351612664474
 20
116.2137614678897
 30
0.0
 10
188.2257206688153
 20
115.5637614678897
 30
0.0
  0
SPLINE
  5
127
330
1F
100
AcDbEntity
  8
0
  6
HIDDEN
 62
     7
370
     0
100
AcDbSpline
210
0.0
220
0.0
230
1.0
 70
    24
 71
     1
 72
     4
 73
     2
 74
     0
 42
0.00000001
 43
0.00000001
 40
0.0
 40
0.0
 40
1.0
 40
1.0
 10
88.52572066881531
 20
111.0637614678897
 30
0.0
 10
89.82475877449195
 20
111.8137614678897
 30
0.0
  0
SPLINE
  5
128
330
1F
100
AcDbEntity
  8
0
  6
HIDDEN
 62
     7
370
     0
100
AcDbSpline
210
0.0
220
0.0
230
1.0
 70
    24
 71
     1
 72
     4
 73
     2
 74
     0
 42
0.00000001
 43
0.00000001
 40
0.0
 40
0.0
 40
1.0
 40
1.0
 10
89.82475877449195
 20
114.8137614678897
 30
0.0
 10
88.52572066881531
 20
115.5637614678897
 30
0.0
  0
SPLINE
  5
129
330
1F
100
AcDbEntity
  8
0
  6
HIDDEN
 62
     7
370
     0
100
AcDbSpline
210
0.0
220
0.0
230
1.0
 70
    24
 71
     1
 72
     4
 73
     2
 74
     0
 42
0.00000001
 43
0.00000001
 40
0.0
 40
0.0
 40
1.0
 40
1.0
 10
188.8037206688153
 20
92.69821832062503
 30
0.0
 10
188.8037206688153
 20
92.40921187656215
 30
0.0
  0
SPLINE
  5
12A
330
1F
100
AcDbEntity
  8
0
  6
HIDDEN
 62
     7
370
     0
100
AcDbSpline
210
0.0
220
0.0
230
1.0
 70
    24
 71
     1
 72
     4
 73
     2
 74
     0
 42
0.00000001
 43
0.00000001
 40
0.0
 40
0.0
 40
1.0
 40
1.0
 10
188.8037206688153
 20
134.2182915828649
 30
0.0
 10
188.8037206688153
 20
133.9292641329395
 30
0.0
  0
SPLINE
  5
12B
330
1F
100
AcDbEntity
  8
0
  6
HIDDEN
 62
     7
370
     0
100
AcDbSpline
210
0.0
220
0.0
230
1.0
 70
    24
 71
     1
 72
     4
 73
     2
 74
     0
 42
0.00000001
 43
0.00000001
 40
0.0
 40
0.0
 40
1.0
 40
1.0
 10
174.2257206688153
 20
116.2137614678897
 30
0.0
 10
187.8351612664474
 20
116.2137614678897
 30
0.0
  0
SPLINE
  5
12C
330
1F
100
AcDbEntity
  8
0
  6
HIDDEN
 62
     7
370
     0
100
AcDbSpline
210
0.0
220
0.0
230
1.0
 70
    24
 71
     1
 72
     4
 73
     2
 74
     0
 42
0.00000001
 43
0.00000001
 40
0.0
 40
0.0
 40
1.0
 40
1.0
 10
187.8351612664474
 20
120.4137614678897
 30
0.0
 10
174.2257206688153
 20
120.4137614678897
 30
0.0
  0
SPLINE
  5
12D
330
1F
100
AcDbEntity
  8
0
  6
HIDDEN
 62
     7
370
     0
100
AcDbSpline
210
0.0
220
0.0
230
1.0
 70
    24
 71
     1
 72
     4
 73
     2
 74
     0
 42
0.00000001
 43
0.00000001
 40
0.0
 40
0.0
 40
1.0
 40
1.0
 10
174.2257206688153
 20
120.4137614678897
 30
0.0
 10
172.9639133688574
 20
118.3137614678897
 30
0.0
  0
SPLINE
  5
12E
330
1F
100
AcDbEntity
  8
0
  6
HIDDEN
 62
     7
370
     0
100
AcDbSpline
210
0.0
220
0.0
230
1.0
 70
    24
 71
     1
 72
     4
 73
     2
 74
     0
 42
0.00000001
 43
0.00000001
 40
0.0
 40
0.0
 40
1.0
 40
1.0
 10
172.9639133688574
 20
118.3137614678897
 30
0.0
 10
174.2257206688153
 20
116.2137614678897
 30
0.0
  0
SPLINE
  5
12F
330
1F
100
AcDbEntity
  8
0
  6
HIDDEN
 62
     7
370
     0
100
AcDbSpline
210
0.0
220
0.0
230
1.0
 70
    24
 71
     1
 72
     4
 73
     2
 74
     0
 42
0.00000001
 43
0.00000001
 40
0.0
 40
0.0
 40
1.0
 40
1.0
 10
188.8051330656774
 20
114.1685848328107
 30
0.0
 10
188.7101762121925
 20
114.1137614678897
 30
0.0
  0
SPLINE
  5
130
330
1F
100
AcDbEntity
  8
0
  6
HIDDEN
 62
     7
370
     0
100
AcDbSpline
210
0.0
220
0.0
230
1.0
 70
    24
 71
     1
 72
     4
 73
     2
 74
     0
 42
0.00000001
 43
0.00000001
 40
0.0
 40
0.0
 40
1.0
 40
1.0
 10
188.7101762121925
 20
112.5137614678898
 30
0.0
 10
188.8051330656774
 20
112.4589381029688
 30
0.0
  0
SPLINE
  5
131
330
1F
100
AcDbEntity
  8
0
  6
HIDDEN
 62
     7
370
     0
100
AcDbSpline
210
0.0
220
0.0
230
1.0
 70
    24
 71
     1
 72
     4
 73
     2
 74
     0
 42
0.00000001
 43
0.00000001
 40
0.0
 40
0.0
 40
1.0
 40
1.0
 10
89.82475877449195
 20
111.8137614678897
 30
0.0
 10
176.5257206688153
 20
111.8137614678897
 30
0.0
  0
SPLINE
  5
132
330
1F
100
AcDbEntity
  8
0
  6
HIDDEN
 62
     7
370
     0
100
AcDbSpline
210
0.0
220
0.0
230
1.0
 70
    24
 71
     1
 72
     4
 73
     2
 74
     0
 42
0.00000001
 43
0.00000001
 40
0.0
 40
0.0
 40
1.0
 40
1.0
 10
176.5257206688153
 20
114.8137614678897
 30
0.0
 10
89.82475877449195
 20
114.8137614678897
 30
0.0
  0
SPLINE
  5
133
330
1F
100
AcDbEntity
  8
0
  6
HIDDEN
 62
     7
370
     0
100
AcDbSpline
210
0.0
220
0.0
230
1.0
 70
    24
 71
     1
 72
     4
 73
     2
 74
     0
 42
0.00000001
 43
0.00000001
 40
0.0
 40
0.0
 40
1.0
 40
1.0
 10
176.5257206688153
 20
111.8137614678897
 30
0.0
 10
177.4270115973566
 20
113.3137614678897
 30
0.0
  0
SPLINE
  5
134
330
1F
100
AcDbEntity
  8
0
  6
HIDDEN
 62
     7
370
     0
100
AcDbSpline
210
0.0
220
0.0
230
1.0
 70
    24
 71
     1
 72
     4
 73
     2
 74
     0
 42
0.00000001
 43
0.00000001
 40
0.0
 40
0.0
 40
1.0
 40
1.0
 10
177.4270115973566
 20
113.3137614678897
 30
0.0
 10
176.5257206688153
 20
114.8137614678897
 30
0.0
  0
SPLINE
  5
135
330
1F
100
AcDbEntity
  8
0
  6
HIDDEN
 62
     7
370
     0
100
AcDbSpline
210
0.0
220
0.0
230
1.0
 70
    24
 71
     1
 72
     4
 73
     2
 74
     0
 42
0.00000001
 43
0.00000001
 40
0.0
 40
0.0
 40
1.0
 40
1.0
 10
187.7257206688153
 20
112.5137614678898
 30
0.0
 10
188.7101762121925
 20
112.5137614678898
 30
0.0
  0
SPLINE
  5
136
330
1F
100
AcDbEntity
  8
0
  6
HIDDEN
 62
     7
370
     0
100
AcDbSpline
210
0.0
220
0.0
230
1.0
 70
    24
 71
     1
 72
     4
 73
     2
 74
     0
 42
0.00000001
 43
0.00000001
 40
0.0
 40
0.0
 40
1.0
 40
1.0
 10
188.7101762121925
 20
114.1137614678897
 30
0.0
 10
187.7257206688153
 20
114.1137614678897
 30
0.0
  0
SPLINE
  5
137
330
1F
100
AcDbEntity
  8
0
  6
HIDDEN
 62
     7
370
     0
100
AcDbSpline
210
0.0
220
0.0
230
1.0
 70
    24
 71
     1
 72
     4
 73
     2
 74
     0
 42
0.00000001
 43
0.00000001
 40
0.0
 40
0.0
 40
1.0
 40
1.0
 10
187.7257206688153
 20
114.1137614678897
 30
0.0
 10
187.2450321735932
 20
113.3137614678897
 30
0.0
  0
SPLINE
  5
138
330
1F
100
AcDbEntity
  8
0
  6
HIDDEN
 62
     7
370
     0
100
AcDbSpline
210
0.0
220
0.0
230
1.0
 70
    24
 71
     1
 72
     4
 73
     2
 74
     0
 42
0.00000001
 43
0.00000001
 40
0.0
 40
0.0
 40
1.0
 40
1.0
 10
187.2450321735932
 20
113.3137614678897
 30
0.0
 10
187.7257206688153
 20
112.5137614678898
 30
0.0
  0
SPLINE
  5
139
330
1F
100
AcDbEntity
  8
0
  6
HIDDEN
 62
     7
370
     0
100
AcDbSpline
210
0.0
220
0.0
230
1.0
 70
    24
 71
     1
 72
     4
 73
     2
 74
     0
 42
0.00000001
 43
0.00000001
 40
0.0
 40
0.0
 40
1.0
 40
1.0
 10
188.8037206688153
 20
134.3137614678897
 30
0.0
 10
188.8037206688153
 20
134.2182915828649
 30
0.0
  0
SPLINE
  5
13A
330
1F
100
AcDbEntity
  8
0
  6
HIDDEN
 62
     7
370
     0
100
AcDbSpline
210
0.0
220
0.0
230
1.0
 70
    24
 71
     1
 72
     4
 73
     2
 74
     0
 42
0.00000001
 43
0.00000001
 40
0.0
 40
0.0
 40
1.0
 40
1.0
 10
188.8037206688153
 20
92.40921187656217
 30
0.0
 10
188.8037206688153
 20
92.31376146788973
 30
0.0
  0
LINE
  5
13B
330
1F
100
AcDbEntity
  8
VERMASSUNG
100
AcDbLine
 10
189.5257714764
 20
90.6953544448
 30
0.0
 11
189.5257714764
 21
135.7878755271
 31
0.0
  0
DIMENSION
  5
13C
330
1F
100
AcDbEntity
  8
VERMASSUNG
100
AcDbDimension
  2
*D1
 10
88.5257206688
 20
146.4041684151
 30
0.0
 11
137.0398194957
 21
146.4041684151
 31
0.0
 70
   160
 71
     2
 42
-1.0
  3
SLDDIMSTYLE0
100
AcDbAlignedDimension
 13
189.5257714764
 23
135.7878755271
 33
0.0
 14
88.5257206688
 24
119.5137614679
 34
0.0
100
AcDbRotatedDimension
  0
DIMENSION
  5
147
330
1F
100
AcDbEntity
  8
VERMASSUNG
100
AcDbDimension
  2
*D2
 10
81.4340811781
 20
105.3137614679
 30
0.0
 11
81.4340811781
 21
113.3103517485
 31
0.0
 70
   160
  1
%%c<>
 71
     2
 42
-1.0
  3
SLDDIMSTYLE0
100
AcDbAlignedDimension
 13
99.8257206688
 23
121.3137614679
 33
0.0
 14
90.0257206688
 24
105.3137614679
 34
0.0
 50
90.0
100
AcDbRotatedDimension
  0
DIMENSION
  5
152
330
1F
100
AcDbEntity
  8
VERMASSUNG
100
AcDbDimension
  2
*D3
 10
201.3789871547
 20
92.3137614679
 30
0.0
 11
201.3789871547
 21
112.9092951232
 31
0.0
 70
   160
  1
%%c<>
 71
     2
 42
-1.0
  3
SLDDIMSTYLE0
100
AcDbAlignedDimension
 13
188.8037206688
 23
134.3137614679
 33
0.0
 14
188.8037206688
 24
92.3137614679
 34
0.0
 50
90.0
100
AcDbRotatedDimension
  0
LINE
  5
15D
330
1F
100
AcDbEntity
  8
VERMASSUNG
  6
CENTERX2
 62
     7
370
     0
100
AcDbLine
 10
186.7257206688
 20
113.9137614679
 30
0.0
 11
192.1027206688
 21
113.9137614679
 31
0.0
  0
LINE
  5
15E
330
1F
100
AcDbEntity
  8
VERMASSUNG
  6
CENTERX2
 62
     7
370
     0
100
AcDbLine
 10
188.9477206688
 20
144.5730714113
 30
0.0
 11
188.9477206688
 21
115.795141581
 31
0.0
  0
LINE
  5
15F
330
1F
100
AcDbEntity
  8
VERMASSUNG
  6
CENTERX2
 62
     7
370
     0
100
AcDbLine
 10
86.5257206688
 20
113.3137614679
 30
0.0
 11
192.2595205137
 21
113.3137614679
 31
0.0
  0
LINE
  5
160
330
1F
100
AcDbEntity
  8
VERMASSUNG
  6
CENTERX2
 62
     7
370
     0
100
AcDbLine
 10
191.2010003171
 20
114.7339302045
 30
0.0
 11
172.3152129582
 21
113.2046823726
 31
0.0
  0
OLE2FRAME
  5
161
330
1F
100
AcDbEntity
  8
0
100
AcDbOle2Frame
 70
     2
  3
Bitmap
 10
13.8511154363
 20
38.264191557
 30
0.0
 11
51.6290888628
 21
31.9806341108
 31
0.0
 71
     2
 72
     0
 73
     1
 90
    12928
310
80552BED0767C5B32B40DDAF6807D121434000000000000000006FFBDDFB85D0
310
4940DDAF6807D121434000000000000000006FFBDDFB85D04940416F4BD60AFB
310
3F4000000000000000002BED0767C5B32B40416F4BD60AFB3F40000000000000
310
0000000000000100000000010000010000000100000000000100000000320000
310
D0CF11E0A1B11AE1000000000000000000000000000000003E000300FEFF0900
310
0600000000000000000000000100000001000000000000000010000002000000
310
01000000FEFFFFFF0000000000000000FFFFFFFFFFFFFFFFFFFFFFFFFFFFFFFF
310
FFFFFFFFFFFFFFFFFFFFFFFFFFFFFFFFFFFFFFFFFFFFFFFFFFFFFFFFFFFFFFFF
310
FFFFFFFFFFFFFFFFFFFFFFFFFFFFFFFFFFFFFFFFFFFFFFFFFFFFFFFFFFFFFFFF
310
FFFFFFFFFFFFFFFFFFFFFFFFFFFFFFFFFFFFFFFFFFFFFFFFFFFFFFFFFFFFFFFF
310
FFFFFFFFFFFFFFFFFFFFFFFFFFFFFFFFFFFFFFFFFFFFFFFFFFFFFFFFFFFFFFFF
310
FFFFFFFFFFFFFFFFFFFFFFFFFFFFFFFFFFFFFFFFFFFFFFFFFFFFFFFFFFFFFFFF
310
FFFFFFFFFFFFFFFFFFFFFFFFFFFFFFFFFFFFFFFFFFFFFFFFFFFFFFFFFFFFFFFF
310
FFFFFFFFFFFFFFFFFFFFFFFFFFFFFFFFFFFFFFFFFFFFFFFFFFFFFFFFFFFFFFFF
310
FFFFFFFFFFFFFFFFFFFFFFFFFFFFFFFFFFFFFFFFFFFFFFFFFFFFFFFFFFFFFFFF
310
FFFFFFFFFFFFFFFFFFFFFFFFFFFFFFFFFFFFFFFFFFFFFFFFFFFFFFFFFFFFFFFF
310
FFFFFFFFFFFFFFFFFFFFFFFFFFFFFFFFFFFFFFFFFFFFFFFFFFFFFFFFFFFFFFFF
310
FFFFFFFFFFFFFFFFFFFFFFFFFFFFFFFFFFFFFFFFFFFFFFFFFFFFFFFFFFFFFFFF
310
FFFFFFFFFFFFFFFFFFFFFFFFFFFFFFFFFFFFFFFFFFFFFFFFFFFFFFFFFFFFFFFF
310
FFFFFFFFFFFFFFFFFFFFFFFFFFFFFFFFFFFFFFFFFFFFFFFFFFFFFFFFFFFFFFFF
310
FDFFFFFFFEFFFFFFFEFFFFFFFEFFFFFF05000000060000000700000008000000
310
090000000A0000000B0000000C0000000D0000000E0000000F00000010000000
310
11000000120000001300000014000000150000001600000017000000FEFFFFFF
310
FFFFFFFFFFFFFFFFFFFFFFFFFFFFFFFFFFFFFFFFFFFFFFFFFFFFFFFFFFFFFFFF
310
FFFFFFFFFFFFFFFFFFFFFFFFFFFFFFFFFFFFFFFFFFFFFFFFFFFFFFFFFFFFFFFF
310
FFFFFFFFFFFFFFFFFFFFFFFFFFFFFFFFFFFFFFFFFFFFFFFFFFFFFFFFFFFFFFFF
310
FFFFFFFFFFFFFFFFFFFFFFFFFFFFFFFFFFFFFFFFFFFFFFFFFFFFFFFFFFFFFFFF
310
FFFFFFFFFFFFFFFFFFFFFFFFFFFFFFFFFFFFFFFFFFFFFFFFFFFFFFFFFFFFFFFF
310
FFFFFFFFFFFFFFFFFFFFFFFFFFFFFFFFFFFFFFFFFFFFFFFFFFFFFFFFFFFFFFFF
310
FFFFFFFFFFFFFFFFFFFFFFFFFFFFFFFFFFFFFFFFFFFFFFFFFFFFFFFFFFFFFFFF
310
FFFFFFFFFFFFFFFFFFFFFFFFFFFFFFFFFFFFFFFFFFFFFFFFFFFFFFFFFFFFFFFF
310
FFFFFFFFFFFFFFFFFFFFFFFFFFFFFFFFFFFFFFFFFFFFFFFFFFFFFFFFFFFFFFFF
310
FFFFFFFFFFFFFFFFFFFFFFFFFFFFFFFFFFFFFFFFFFFFFFFFFFFFFFFFFFFFFFFF
310
FFFFFFFFFFFFFFFFFFFFFFFFFFFFFFFFFFFFFFFFFFFFFFFFFFFFFFFFFFFFFFFF
310
FFFFFFFFFFFFFFFFFFFFFFFFFFFFFFFFFFFFFFFFFFFFFFFFFFFFFFFFFFFFFFFF
310
FFFFFFFFFFFFFFFFFFFFFFFFFFFFFFFFFFFFFFFFFFFFFFFFFFFFFFFFFFFFFFFF
310
52006F006F007400200045006E00740072007900000000000000000000000000
310
0000000000000000000000000000000000000000000000000000000000000000
310
16000500FFFFFFFFFFFFFFFF020000000A00030000000000C000000000000046
310
000000000000000000000000809D22ABD179CC0103000000C000000000000000
310
01004F006C006500000000000000000000000000000000000000000000000000
310
0000000000000000000000000000000000000000000000000000000000000000
310
0A000200FFFFFFFFFFFFFFFFFFFFFFFF00000000000000000000000000000000
310
0000000000000000000000000000000000000000000000001400000000000000
310
010043006F006D0070004F0062006A0000000000000000000000000000000000
310
0000000000000000000000000000000000000000000000000000000000000000
310
120002010100000003000000FFFFFFFF00000000000000000000000000000000
310
0000000000000000000000000000000000000000010000004D00000000000000
310
01004F006C006500310030004E00610074006900760065000000000000000000
310
0000000000000000000000000000000000000000000000000000000000000000
310
1A000200FFFFFFFFFFFFFFFFFFFFFFFF00000000000000000000000000000000
310
0000000000000000000000000000000000000000040000002426000000000000
310
FEFFFFFF02000000FEFFFFFFFFFFFFFFFFFFFFFFFFFFFFFFFFFFFFFFFFFFFFFF
310
FFFFFFFFFFFFFFFFFFFFFFFFFFFFFFFFFFFFFFFFFFFFFFFFFFFFFFFFFFFFFFFF
310
FFFFFFFFFFFFFFFFFFFFFFFFFFFFFFFFFFFFFFFFFFFFFFFFFFFFFFFFFFFFFFFF
310
FFFFFFFFFFFFFFFFFFFFFFFFFFFFFFFFFFFFFFFFFFFFFFFFFFFFFFFFFFFFFFFF
310
FFFFFFFFFFFFFFFFFFFFFFFFFFFFFFFFFFFFFFFFFFFFFFFFFFFFFFFFFFFFFFFF
310
FFFFFFFFFFFFFFFFFFFFFFFFFFFFFFFFFFFFFFFFFFFFFFFFFFFFFFFFFFFFFFFF
310
FFFFFFFFFFFFFFFFFFFFFFFFFFFFFFFFFFFFFFFFFFFFFFFFFFFFFFFFFFFFFFFF
310
FFFFFFFFFFFFFFFFFFFFFFFFFFFFFFFFFFFFFFFFFFFFFFFFFFFFFFFFFFFFFFFF
310
FFFFFFFFFFFFFFFFFFFFFFFFFFFFFFFFFFFFFFFFFFFFFFFFFFFFFFFFFFFFFFFF
310
FFFFFFFFFFFFFFFFFFFFFFFFFFFFFFFFFFFFFFFFFFFFFFFFFFFFFFFFFFFFFFFF
310
FFFFFFFFFFFFFFFFFFFFFFFFFFFFFFFFFFFFFFFFFFFFFFFFFFFFFFFFFFFFFFFF
310
FFFFFFFFFFFFFFFFFFFFFFFFFFFFFFFFFFFFFFFFFFFFFFFFFFFFFFFFFFFFFFFF
310
FFFFFFFFFFFFFFFFFFFFFFFFFFFFFFFFFFFFFFFFFFFFFFFFFFFFFFFFFFFFFFFF
310
FFFFFFFFFFFFFFFFFFFFFFFFFFFFFFFFFFFFFFFFFFFFFFFFFFFFFFFFFFFFFFFF
310
FFFFFFFFFFFFFFFFFFFFFFFFFFFFFFFFFFFFFFFFFFFFFFFFFFFFFFFFFFFFFFFF
310
FFFFFFFFFFFFFFFFFFFFFFFFFFFFFFFFFFFFFFFFFFFFFFFFFFFFFFFFFFFFFFFF
310
0100000200000000000000000000000000000000780115000000000000000000
310
C00C571940035819400C57194004571940035819000000000000000000000000
310
0100FEFF030A0000FFFFFFFF0A00030000000000C00000000000004607000000
310
5042727573680007000000504272757368000700000050427275736800F439B2
310
710000000000000000000000000D571900000000000000002E7C3E3ECA181ABD
310
E5E96D380000803F0FD32347DDDE2147000000000000803F0000000000000000
310
0000000003000000000000002000000068DBFD7FC01157190000000000000000
310
0000000000007F43000000000000000000000000000000000000000000000000
310
000000000000000040000000900D571900000000000000002A3C3E3EA0261ABD
310
E5E96D380000803FDCD22347DEDE2147000000000000803F0000000000000000
310
0000000003000000000000009800000068DBFD7F000000000000000000000000
310
0000000000007F43000000000000000000000000000000000000000000000000
310
000000000000000040000000100E5719000000000000000061FC3D3E19501ABD
310
E5E96D380000803FA8D22347E3DE2147000000000000803F0000000000000000
310
0000000000000000000000000000000000000000000000000000000000000000
310
0000000000007F43000000000000000000000000000000000000000000000000
310
20260000424D0E260000000000003E00000028000000B40200006E0000000100
310
01000000000000000000130B0000130B00000200000002000000000000FFFFFF
310
FFFFFFFFFFFFFFFFFFFFFFFFFFFFFFFFFFFFFFFFFFFFFFFFFFFFFFFFFFFFFFFF
310
FFFFFFFFFFFFFFFFFFFFFFFFFFFFFFFFFFFFFFFFFFFFFFFFFFFFFFFFFFFFFFFF
310
FFFFFFFFFFFFFFFFFFFFFFFFFFFFFFFFFFFFFFFFFFFFFFFFF000FFFFFFFFFFFF
310
FFFFFFFFFFFFFFFFFFFFFFFFFFFFFFFFFFFFFFFFFFFFFFFFFFFFFFFFFFFFFFFF
310
FFFFFFFFFFFFFFFFFFFFFFFFFFFFFFFFFFFFFFFFFFFFFFFFFFFFFFFFFFFFFFFF
310
FFFFFFFFFFFFFFFFFFFFFFFFFFFFFFFFF000FFFFFFFFFFFFFFFFFFFFFFFFFFFF
310
FFFFFFFFFFFFFFFFFFFFFFFFFFFFFFFFFFFFFFFFFFFFFFFFFFFFFFFFFFFFFFFF
310
FFFFFFFFFFFFFFFFFFFFFFFFFFFFFFFFFFFFFFFFFFFFFFFFFFFFFFFFFFFFFFFF
310
FFFFFFFFFFFFFFFFF000FFFFFFFFFFFFFFFFFFFFFFFFFFFFFFFFFFFFFFFFFFFF
310
FFFFFFFFFFFFFFFFFFFFFFFFFFFFFFFFFFFFFFFFFFFFFFFFFFFFFFFFFFFFFFFF
310
FFFFFFFFFFFFFFFFFFFFFFFFFFFFFFFFFFFFFFFFFFFFFFFFFFFFFFFFFFFFFFFF
310
F000FFFFFFFFFFFFFFFFFFFFFFFFFFFFFFFFFFFFFFFFFFFFFFFFFFFFFFFFFFFF
310
FFFFFFFFFFFFFFFFFFFFFFFFFFFFFFFFFFFFFFFFFFFFFFFFFFFFFFFFFFFFFFFF
310
FFFFFFFFFFFFFFFFFFFFFFFFFFFFFFFFFFFFFFFFFFFFFFFFF000FFFFFFFFFFFF
310
FFFFFFFFFFFFFFFFFFFFFFFFFFFFFFFFFFFFFFFFFFFFFFFFFFFFFFFFFFFFFFFF
310
FFFFFFFFFFFFFFFFFFFFFFFFFFFFFFFFFFFFFFFFFFFFFFFFFFFFFFFFFFFFFFFF
310
FFFFFFFFFFFFFFFFFFFFFFFFFFFFFFFFF000FFFFFFFFFFFFFFFFFFFFFFFFFFFF
310
FFFFFFFFFFFFFFFFFFFFFFFFFFFFFFFFFFFFFFFFFFFFFFFFFFFFFFFFFFFFFFFF
310
FFFFFFFFFFFFFFFFFFFFFFFFFFFFFFFFFFFFFFFFFFFFFFFFFFFFFFFFFFFFFFFF
310
FFFFFFFFFFFFFFFFF000FFFFFFFFFFFFFFFFFFFFFFFFFFFFFFFFFFFFFFFFFFFF
310
FFFFFFFFFFFFFFFFFFFFFFFFFFFFFFFFFFFFFFFFFFFFFFFFFFFFFFFFFFFFFFFF
310
FFFFFFFFFFFFFFFFFFFFFFFFFFFFFFFFFFFFFFFFFFFFFFFFFFFFFFFFFFFFFFFF
310
F000FFFFFFFFFFFFFFFFFFFFFFFFFFFFFFFFFFFFFFFFFFFFFFFFFFFFFFFFFFFF
310
FFFFFFFFFFFFFFFFFFFFFFFFFFFFFFFFFFFFFFFFFFFFFFFFFFFFFFFFFFFFFFFF
310
FFFFFFFFFFFFFFFFFFFFFFFFFFFFFFFFFFFFFFFFFFFFFFFFF000FFFFFFFFFFFF
310
FFFFFFFFFFFFFFFFFFFFFFFFFFFFFFFFFFFFFFFFFFFFFFFFFFFFFFFFFFFFFFFF
310
FFFFFFFFFFFFFFFFFFFFFFFFFFFFFFFFFFFFFFFFFFFFFFFFFFFFFFFFFFFFFFFF
310
FFFFFFFFFFFFFFFFFFFFFFFFFFFFFFFFF000FFFFFFFFFFFFFFFFFFFFFFFFFFFF
310
FFFFFFFFFFFFFFFFFFFFFFFFFFFFFFFFFFFFFFFFFFFFFFFFFFFFFFFFFFFFFFFF
310
FFFFFFFFFFFFFFFFFFFFFFFFFFFFFFFFFFFFFFFFFFFFFFFFFFFFFFFFFFFFFFFF
310
FFFFFFFFFFFFFFFFF000FFFFFFFFFFFFFFFFFFFFFFFFFFFFFFFFFFFFFFFFFFFF
310
FFFFFFFFFFFFFFFFFFFFFFFFFFFFFFFFFFFFFFFFFFFFFFFFFFFFFFFFFFFFFFFF
310
FFFFFFFFFFFFFFFFFFFFFFFFFFFFFFFFFFFFFFFFFFFFFFFFFFFFFFFFFFFFFFFF
310
F000FFFFFFFFFFFFFFFFFFFFFFFFFFFFFFFFFFFFFFFFFFFFFFFFFFFFFFFFFFFF
310
FFFFFFFFFFFFFFFFFFFFFFFFFFFFFFFFFFFFFFFFFFFFFFFFFFFFFFFFFFFFFFFF
310
FFFFFFFFFFFFFFFFFFFFFFFFFFFFFFFFFFFFFFFFFFFFFFFFF000FFFFFFFFFFFF
310
FFFFFFFFFFFFFFFFFFFFFFFFFFFFFFFFFFFFFFFFFFFFFFFFFFFFFFFFFFFFFFFF
310
FFFFFFFFFFFFFFFFFFFFFFFFFFFFFFFFFFFFFFFFFFFFFFFFFFFFFFFFFFFFFFFF
310
FFFFFFFFFFFFFFFFFFFFFFFFFFFFFFFFF000FFFFFFFFFFFFFFFFFFFFFFFFFFFF
310
FFFFFFFFFFFFFFFFFFFFFFFFFFFFFFFFFFFFFFFFFFFFFFFFFFFFFFFFFFFFFFFF
310
FFFFFFFFFFFFFFFFFFFFFFFFFFFFFFFFFFFFFFFFFFFFFFFFFFFFFFFFFFFFFFFF
310
FFFFFFFFFFFFFFFFF000FFFFFFFFFFFFFFFFFFFFFFFFFFFFFFFFFFFFFFFFFFFF
310
FFFFFFFFFFFFFFFFFFFFFFFFFFFFFFFFFFFFFFFFFFFFFFFFFFFFFFFFFFFFFFFF
310
FFFFFFFFFFFFFFFFFFFFFFFFFFFFFFFFFFFFFFFFFFFFFFFFFFFFFFFFFFFFFFFF
310
F000FFFFFFFFFFFFFFFFFFFFFFFFFFFFFFFFFFFFFFFFFFFFFFFFFFFFFFFFFFFF
310
FFFFFFFFFFFFFFFFFFFFFFFFFFFFFFFFFFFFFFFFFFFFFFFFFFFFFFFFFFFFFFFF
310
FFFFFFFFFFFFFFFFFFFFFFFFFFFFFFFFFFFFFFFFFFFFFFFFF000FFFFFFFFFFFF
310
FFFFFFFFFFFFFFFFFFFFFFFFFFFFFFFFFFFFFFFFFFFFFFFFFFFFFFFFFFFFFFFF
310
FFFFFFFFFFFFFFFFFFFFFFFFFFFFFFFFFFFFFFFFFFFFFFFFFFFFFFFFFFFFFFFF
310
FFFFFFFFFFFFFFFFFFFFFFFFFFFFFFFFF000FFFFFFFFFFFFFFFFFFFFFFFFFFFF
310
FFFFFFFFFFFFFFFFFFFFFFFFFFFFFFFFFFFFFFFFFFFFFFFFFFFFFFFFFFFFFFFF
310
FFFFFFFFFFFFFFFFFFFFFFFFFFFFFFFFFFFFFFFFFFFFFFFFFFFFFFFFFFFFFFFF
310
FFFFFFFFFFFFFFFFF000FFFFF80003FFFFFFFFFFFFFFFFFFFFFFFFFFFFFFFFFF
310
FFFFF00007FFFFFFFFFF00007FFFFFF800000000000000007FFFFFFFFFFFFFFF
310
FFFFFFFC001FFFFFFFFFFFFFFC001FFFFFFFFFFFFFFFFFFFFFFFFFFE0007FFFF
310
F000FFFF8000007FFFFFFFF8000FFFFFC0007FFFFF80007FFFFF0000007FFFFF
310
FFF8000007FFFFF800000000000000007FFFFFF0001FFFFFFFFFFFC00001FFFF
310
FFFFFFFFC00001FFFFFFFF000000000003FFFFE000007FFFF000FFFE0000000F
310
FFFFFFF0000FFFFF80007FFFFF80007FFFFC0000001FFFFFFFC0000001FFFFF8
310
00000000000000007FFFFFF0001FFFFFFFFFFE0000003FFFFFFFFFFE0000003F
310
FFFFFF000000000003FFFF0000000FFFF000FFF800000003FFFFFFF00007FFFF
310
80007FFFFF80007FFFF000000007FFFFFF000000003FFFF80000000000000000
310
7FFFFFF0001FFFFFFFFFF80000000FFFFFFFFFF80000000FFFFFFF0000000000
310
03FFFC00000003FFF000FFE000000000FFFFFFF00007FFFF80003FFFFF80007F
310
FFC000000001FFFFFC000000001FFFF800000000000000007FFFFFF0001FFFFF
310
FFFFE000000003FFFFFFFFE000000003FFFFFF000000000003FFF000000000FF
310
F000FF80000000007FFFFFF00007FFFF80003FFFFF80007FFF8000000000FFFF
310
F80000000007FFF800000000000000007FFFFFF0001FFFFFFFFFC000000001FF
310
FFFFFFC000000001FFFFFF000000000003FFC0000000007FF000FF0000000000
310
3FFFFFE00007FFFF00003FFFFF80007FFE00000000003FFFF00000000003FFF8
310
00000000000000007FFFFFF0001FFFFFFFFF8000000000FFFFFFFF8000000000
310
FFFFFF000000000003FF80000000003FF000FE00000000001FFFFFE00003FFFF
310
00003FFFFF80007FFC00000000001FFFE00000000001FFF8000001FFFE000000
310
7FFFFFF0001FFFFFFFFE00000000003FFFFFFE00000000003FFFFF0000000000
310
03FF00000000001FF000FC00000000000FFFFFE00003FFFF00001FFFFF80007F
310
F800000000001FFFC00000000000FFF8000001FFFE0000007FFFFFF0001FFFFF
310
FFFC00000000001FFFFFFC00000000001FFFFF000000000003FE00000000000F
310
F000F8000000000007FFFFE00003FFFF00001FFFFF80007FF800000000000FFF
310
800000000000FFF8000001FFFE0000007FFFFFF0001FFFFFFFF800000000000F
310
FFFFF800000000000FFFFF000000000003FC000000000007F000F80000000000
310
03FFFFC00003FFFE00001FFFFF80007FF0000000000007FF0000000000007FF8
310
000001FFFE0000007FFFFFF0001FFFFFFFF0000000000007FFFFF00000000000
310
07FFFF000000000003F8000000000003F000F0000000000003FFFFC00001FFFE
310
00001FFFFF80007FE0000000000007FE0000000000003FF8000001FFFE000000
310
7FFFFFF0001FFFFFFFF0000000000007FFFFF0000000000007FFFF0000000000
310
03F800001F800003F000E00001FFF00001FFFFC00001FFFE00000FFFFF80007F
310
E00001FFE00003FE00001FFF00003FF8000001FFFE0000007FFFFFF0001FFFFF
310
FFE000003E000003FFFFE000003E000003FFFF000000000003F00001FFF80001
310
F000E00007FFFC0001FFFFC00001FFFE00000FFFFF80007FC0000FFFFC0003FC
310
0000FFFFC0001FF8000001FFFE0000007FFFFFF0001FFFFFFFC00003FFE00001
310
FFFFC00003FFE00001FFFF0001FFFFFFFFF00007FFFE0001F000E0000FFFFF00
310
00FFFF800001FFFC00000FFFFF80007FC0001FFFFE0001FC0001FFFFE0001FF8
310
000001FFFE0000007FFFFFF0001FFFFFFF80000FFFF80000FFFF80000FFFF800
310
00FFFF0003FFFFFFFFE0000FFFFF8000F000C0003FFFFF8000FFFF800000FFFC
310
000007FFFF80007F80003FFFFF0001FC0003FFFFF0001FF8000001FFFE000000
310
7FFFFFF0001FFFFFFF80003FFFFE0000FFFF80003FFFFE0000FFFF0003FFFFFF
310
FFE0003FFFFF8000F000C0003FFFFF8000FFFF800000FFFC000007FFFF80007F
310
80007FFFFF8001F80007FFFFF8000FF8000001FFFE0000007FFFFFF0001FFFFF
310
FF00007FFFFF00007FFF00007FFFFF00007FFF0003FFFFFFFFE0003FFFFFC000
310
F000C0007FFFFFC000FFFF000000FFFC000007FFFF80007F8000FFFFFF8000F8
310
000FFFFFF8000FF8000001FFFE0000007FFFFFF0001FFFFFFF0000FFFFFF8000
310
7FFF0000FFFFFF80007FFF0003FFFFFFFFC0007FFFFFC00070008000FFFFFFC0
310
00FFFF000000FFF8000007FFFF80007F8000FFFFFF8000F8000FFFFFF8000FF8
310
000001FFFE0000007FFFFFF0001FFFFFFE0001FFFFFFC0003FFE0001FFFFFFC0
310
003FFF0003FFFFFFFFC0007FFFFFE00070008000FFFFFFC0007FFF0000007FF8
310
000003FFFF80007F0001FFFFFF8000F8000FFFFFF8000FF8000001FFFE000000
310
7FFFFFF0001FFFFFFE0001FFFFFFC0003FFE0001FFFFFFC0003FFF0003FFFFFF
310
FFC000FFFFFFE00070008000FFFFFFC0007FFF0000007FF8000003FFFF80007F
310
0001FFFFFF8000F8001FFFFFF8000FF8000001FFFE0000007FFFFFF0001FFFFF
310
FE0003FFFFFFE0003FFE0003FFFFFFE0003FFF0003FFFFFFFFC000FFFFFFE000
310
70008000FFFFFFC0007FFE0000007FF8000003FFFF80007F0001FFFFFF8000F0
310
001FFFFFF8000FF8000001FFFE0000007FFFFFF0001FFFFFFC0003FFFFFFE000
310
1FFC0003FFFFFFE0001FFF0003FFFFFFFFC000FFFFFFC00070008000FFFFFF80
310
007FFE0000007FF0000003FFFF80007F0001FFFFFF0000F0001FFFFFF8000FF8
310
000001FFFE0000007FFFFFF0001FFFFFFC0007FFFFFFF0001FFC0007FFFFFFF0
310
001FFF0003FFFFFFFFC000FFFFFFC00070008001FFFFFF0000FFFE0000003FF0
310
000001FFFF80007F0001FFFFFF0000F8001FFFFFF0000FF8000001FFFE000000
310
7FFFFFF0001FFFFFFC0007FFFFFFF0001FFC0007FFFFFFF0001FFF0003FFFFFF
310
FFC001FFFFFF80007000FFFFFFFFFE0000FFFE0008003FF0008001FFFF80007F
310
FFFFFFFFFC0000FFFFFFFFFFE0000FF8000001FFFE0000007FFFFFF0001FFFFF
310
F8000FFFFFFFF8000FF8000FFFFFFFF8000FFF0003FFFFFFFFFFFFFFFFFF0000
310
7000FFFFFFFFFC0000FFFC0008003FF0008001FFFF80007FFFFFFFFFF80001FF
310
FFFFFFFF80000FF8000001FFFE0000007FFFFFF0001FFFFFF8000FFFFFFFF800
310
0FF8000FFFFFFFF8000FFF0003FFFFFFFFFFFFFFFFFE0000F000FFFFFFFFE000
310
00FFFC000C003FE000C001FFFF80007FFFFFFFFFC00001FFFFFFFFFE00001FF8
310
000001FFFE0000007FFFFFF0001FFFFFF8000FFFFFFFF8000FF8000FFFFFFFF8
310
000FFF0003FFFFFFFFFFFFFFFFF00000F000FFFFFFFE000001FFFC000C001FE0
310
00C000FFFF80007FFFFFFFFE000001FFFFFFFFE000001FF80FFFFFFFFFFFFFC0
310
7FFFFFF0001FFFFFF8000FFFFFFFF8000FF8000FFFFFFFF8000FFF0003FFFFFF
310
FFFFFFFFFF800000F000FFFFFFC0000001FFFC001C001FE001C000FFFF80007F
310
FFFFFF80000003FFFFFFF80000001FF80FFFFFFFFFFFFFC07FFFFFF0001FFFFF
310
F8001FFFFFFFFC000FF8001FFFFFFFFC000FFF0003FFFFFFFFFFFFFFF0000001
310
F000FFFFF800000001FFF8001C001FE001C000FFFF80007FFFFFF800000003FF
310
FFFF800000003FF80FFFFFFFFFFFFFC07FFFFFF0001FFFFFF8001FFFFFFFFC00
310
0FF8001FFFFFFFFC000FFF0003FFFFFFFFFFFFFE00000001F000FFFFC0000000
310
03FFF8001E001FC001E000FFFF80007FFFFF8000000007FFFFFC000000003FF8
310
0FFFFFFFFFFFFFC07FFFFFF0001FFFFFF8001FFFFFFFFC000FF8001FFFFFFFFC
310
000FFF0003FFFFFFFFFFFFE000000003F000FFFE0000000007FFF8001E000FC0
310
01E0007FFF80007FFFFE0000000007FFFFE0000000007FF80FFFFFFFFFFFFFC0
310
7FFFFFF0001FFFFFF0001FFFFFFFFC0007F0001FFFFFFFFC0007FF0003FFFFFF
310
FFFFFF0000000003F000FFF80000000007FFF8001E000FC003E0007FFF80007F
310
FFF0000000000FFFFF8000000000FFF80FFFFFFFFFFFFFC07FFFFFF0001FFFFF
310
F0001FFFFFFFFC0007F0001FFFFFFFFC0007FF0003FFFFFFFFFFFC0000000007
310
F000FFE0000000000FFFF0003E000FC003E0007FFF80007FFFC0000000001FFF
310
FE0000000001FFF80FFFFFFFFFFFFFC07FFFFFF0001FFFFFF0001FFFFFFFFC00
310
07F0001FFFFFFFFC0007FF0003FFFFFFFFFFF0000000000FF000FFC000000000
310
1FFFF0003F000F8003F0003FFF80007FFF80000000003FFFF80000000003FFF8
310
0FFFFFFFFFFFFFC07FFFFFF0001FFFFFF0001FFFFFFFFC0007F0001FFFFFFFFC
310
0007FF0003FFFFFFFFFFE0000000001FF000FF00000000007FFFF0003F000780
310
03F0003FFF80007FFF00000000007FFFF00000000007FFF80FFFFFFFFFFFFFC0
310
7FFFFFF0001FFFFFF0001FFFFFFFFC0007F0001FFFFFFFFC0007FF0003FFFFFF
310
FFFF80000000007FF000FE0000000000FFFFE0003F00078007F0003FFF80007F
310
FE0000000001FFFFE0000000001FFFF80FFFFFFFFFFFFFC07FFFFFF0001FFFFF
310
F0001FFFFFFFFC0007F0001FFFFFFFFC0007FF0003FFFFFFFFFF0000000000FF
310
F000FC0000000003FFFFE0007F00078007F0003FFF80007FFC0000000007FFFF
310
C0000000007FFFF80FFFFFFFFFFFFFC07FFFFFF0001FFFFFF8001FFFFFFFFC00
310
0FF8001FFFFFFFFC000FFF0003FFFFFFFFFE0000000003FFF000FC000000000F
310
FFFFE0007F80070007F8001FFF80007FF8000000001FFFFF8000000001FFFFF8
310
0FFFFFFFFFFFFFC07FFFFFF0001FFFFFF8001FFFFFFFFC000FF8001FFFFFFFFC
310
000FFF0003FFFFFFFFFC000000000FFFF000F8000000007FFFFFE0007F800700
310
07F8001FFF80007FF000000000FFFFFF800000000FFFFFF80FFFFFFFFFFFFFC0
310
7FFFFFF0001FFFFFF8000FFFFFFFF8000FF8000FFFFFFFF8000FFF0003FFFFFF
310
FFFC000000007FFFF000F800000007FFFFFFC0007F8003000FF8001FFF80007F
310
F000000007FFFFFF000000007FFFFFF80FFFFFFFFFFFFFC07FFFFFF0001FFFFF
310
F8000FFFFFFFF8000FF8000FFFFFFFF8000FFF0003FFFFFFFFF80000000FFFFF
310
F000F0000000FFFFFFFFC000FF8003000FF8001FFF80007FE0000000FFFFFFFF
310
0000000FFFFFFFF8000001FFFE0000007FFFFFF0001FFFFFF8000FFFFFFFF800
310
0FF8000FFFFFFFF8000FFF0003FFFFFFFFF8000000FFFFFFF000F000000FFFFF
310
FFFFC000FFC002000FF8000FFF80007FE000001FFFFFFFFE000001FFFFFFFFF8
310
000001FFFE0000007FFFFFF0001FFFFFF8000FFFFFFFF8000FF8000FFFFFFFF8
310
000FFF0003FFFFFFFFF000001FFFFFFFF000E00000FFFFFFFFFFC000FFC00200
310
0FFC000FFF80007FE00001FFFFFFFFFE00001FFFFFFFFFF8000001FFFE000000
310
7FFFFFF0001FFFFFFC000FFFFFFFF8001FFC000FFFFFFFF8001FFF0003FFFFFF
310
FFF00001FFFFFFFFF000E00007FFFFFFFFFF8000FFC000001FFC000FFF80007F
310
C0000FFFFFFFFFFE0000FFFFFFFFFFF8000001FFFE0000007FFFFFF0001FFFFF
310
FC0007FFFFFFF0001FFC0007FFFFFFF0001FFF0003FFFFFFFFF00007FFFFFFFF
310
F000E0001FFFFFFFFFFF8000FFC000001FFC000FFF80007FC0003FFFFFFFFFFE
310
0001FFFFFFFFFFF8000001FFFE0000007FFFFFF0001FFFFFFC0007FFFFFFF000
310
1FFC0007FFFFFFF0001FFF0003FFFFFFFFF0001FFFFFFFFFF000E0003FFFFF00
310
03FF8001FFE000001FFC0007FF80007FC0007FFFFF0007FC0003FFFFF0003FF8
310
000001FFFE0000007FFFFFF0001FFFFFFC0003FFFFFFE0001FFC0003FFFFFFE0
310
001FFF0003FFFFFFFFF0003FFFFFFFFFF000E0003FFFFF0001FF8001FFE00000
310
1FFE0007FF80007FC0007FFFFE0003FC0007FFFFE0003FF8000001FFFE000000
310
7FFFFFF0001FFFFFFE0003FFFFFFE0003FFE0003FFFFFFE0003FFF0003FFFFFF
310
FFF0003FFFFF8001F000E0003FFFFF0001FF0001FFE000001FFE0007FF80007F
310
C0007FFFFE0003FC0007FFFFE0003FF8000001FFFE0000007FFFFFF0001FFFFF
310
FE0001FFFFFFC0003FFE0001FFFFFFC0003FFF0003FFFFFFFFF0003FFFFF0001
310
F000E0003FFFFF0003FF0001FFE000003FFE0007FF80007FC0007FFFFE0003FC
310
0007FFFFE0003FF8000001FFFE0000007FFFFFF0001FFFFFFF0001FFFFFFC000
310
7FFF0001FFFFFFC0007FFF0003FFFFFFFFF0003FFFFF0001F000E0003FFFFE00
310
03FF0003FFF000003FFE0003FF80007FC0007FFFFC0003FE0007FFFFE0003FF8
310
000001FFFE0000007FFFFFF0001FFFFFFF0000FFFFFF80007FFF0000FFFFFF80
310
007FFF0003FFFFFFFFF0003FFFFF0001F000E0003FFFFE0003FF0003FFF00000
310
3FFF0003FF80007FC0007FFFFC0007FE0007FFFFC0003FF8000001FFFE000000
310
7FFFFFF0001FFFFFFF80007FFFFF0000FFFF80007FFFFF0000FFFF0003FFFFFF
310
FFF0003FFFFF0003F000E0003FFFFC0003FE0003FFF000003FFF0003FF80007F
310
E0003FFFF80007FE0003FFFFC0007FF8000001FFFE0000007FFFFFF0001FFFFF
310
FF80003FFFFE0000FFFF80003FFFFE0000FFFF0003FFFFFFFFF0001FFFFE0003
310
F000F0001FFFF80003FE0003FFF000007FFF0001FF80007FE0003FFFF00007FE
310
0001FFFF80007FF8000001FFFE0000007FFFFFF0001FFFFFFFC0000FFFF80001
310
FFFFC0000FFFF80001FFFF0003FFFFFFFFF0001FFFFC0003F000F0000FFFF000
310
07FE0007FFF800007FFF0001FF80007FE0001FFFE00007FF0000FFFE00007FF8
310
000001FFFE0000007FFFFFF0001FFFFFFFC00003FFE00001FFFFC00003FFE000
310
01FFFF0003FFFFFFFFF8000FFFF80003F000F00003FFC00007FC0007FFF80000
310
7FFF8001FF80007FF00007FF80000FFF00007FF80000FFF8000001FFFE000000
310
7F80000000000001FFE000003E000003FFFFE000003E000003FFFF0003FFFFFF
310
FFF80003FFE00007F000F800000000000FFC0007FFF800007FFF8001FF80007F
310
F000000000000FFF000000000000FFF8000001FFFE0000007F80000000000001
310
FFF0000000000007FFFFF0000000000007FFFF0003FFFFFFFFFC00007E000007
310
F000F800000000000FFC0007FFF80000FFFF8000FF80007FF800000000001FFF
310
800000000001FFF8000001FFFE0000007F80000000000001FFF800000000000F
310
FFFFF800000000000FFFFF0003FFFFFFFFFC00000000000FF000FC0000000000
310
1FFC0007FFFC0000FFFF8000FF80007FF800000000003FFFC00000000001FFF8
310
000001FFFE0000007F80000000000001FFF800000000000FFFFFF80000000000
310
0FFFFF0003FFFFFFFFFE00000000001FF000FE00000000003FF8000FFFFC0000
310
FFFF8000FF80007FFC00000000003FFFC00000000003FFF8000001FFFE000000
310
7F80000000000001FFFC00000000001FFFFFFC00000000001FFFFF0003FFFFFF
310
FFFF00000000001FF000FF00000000003FF8000FFFFC0000FFFFC000FF80007F
310
FE00000000007FFFE00000000007FFF8000001FFFE0000007F80000000000001
310
FFFE00000000003FFFFFFE00000000003FFFFF0003FFFFFFFFFF80000000003F
310
F000FF80000000007FF8000FFFFC0001FFFFC0007F80007FFF0000000000FFFF
310
F0000000000FFFF800000000000000007F80000000000001FFFF8000000000FF
310
FFFFFF8000000000FFFFFF0003FFFFFFFFFFC0000000007FF000FFC000000000
310
FFF8000FFFFE0001FFFFC0007F80007FFF8000000001FFFFF8000000001FFFF8
310
00000000000000007F80000000000001FFFFC000000001FFFFFFFFC000000001
310
FFFFFF0003FFFFFFFFFFE000000000FFF000FFE000000003FFF0001FFFFE0001
310
FFFFC0007F80007FFFC000000007FFFFFE000000003FFFF80000000000000000
310
7F80000000000001FFFFE000000003FFFFFFFFE000000003FFFFFF0003FFFFFF
310
FFFFF000000003FFF000FFF80000000FFFF0001FFFFE0001FFFFE0007F80007F
310
FFF00000000FFFFFFF00000000FFFFF800000000000000007F80000000000001
310
FFFFF80000000FFFFFFFFFF80000000FFFFFFF0003FFFFFFFFFFFC0000000FFF
310
F000FFFE0000003FFFF0001FFFFE0003FFFFE0003F80007FFFFC0000003FFFFF
310
FFC0000003FFFFF800000000000000007F80000000000001FFFFFE0000003FFF
310
FFFFFFFE0000003FFFFFFF0003FFFFFFFFFFFF0000003FFFF000FFFF800000FF
310
FFF0001FFFFF0003FFFFE0003F80007FFFFF000001FFFFFFFFF800001FFFFFF8
310
00000000000000007F80000000000001FFFFFFC00001FFFFFFFFFFFFC00001FF
310
FFFFFF0003FFFFFFFFFFFFC00000FFFFF000FFFFF8000FFFFFFFFFFFFFFFFFFF
310
FFFFFFFFFFFFFFFFFFFFF0001FFFFFFFFFFF0000FFFFFFF80000000000000000
310
7FFFFFFFFFFFFFFFFFFFFFFC001FFFFFFFFFFFFFFC001FFFFFFFFFFFFFFFFFFF
310
FFFFFFFC001FFFFFF000FFFFFFFFFFFFFFFFFFFFFFFFFFFFFFFFFFFFFFFFFFFF
310
FFFFFFFFFFFFFFFFFFFFFFFFFFFFFFFFFFFFFFFFFFFFFFFFFFFFFFFFFFFFFFFF
310
FFFFFFFFFFFFFFFFFFFFFFFFFFFFFFFFFFFFFFFFFFFFFFFFFFFFFFFFFFFFFFFF
310
F000FFFFFFFFFFFFFFFFFFFFFFFFFFFFFFFFFFFFFFFFFFFFFFFFFFFFFFFFFFFF
310
FFFFFFFFFFFFFFFFFFFFFFFFFFFFFFFFFFFFFFFFFFFFFFFFFFFFFFFFFFFFFFFF
310
FFFFFFFFFFFFFFFFFFFFFFFFFFFFFFFFFFFFFFFFFFFFFFFFF000FFFFFFFFFFFF
310
FFFFFFFFFFFFFFFFFFFFFFFFFFFFFFFFFFFFFFFFFFFFFFFFFFFFFFFFFFFFFFFF
310
FFFFFFFFFFFFFFFFFFFFFFFFFFFFFFFFFFFFFFFFFFFFFFFFFFFFFFFFFFFFFFFF
310
FFFFFFFFFFFFFFFFFFFFFFFFFFFFFFFFF000FFFFFFFFFFFFFFFFFFFFFFFFFFFF
310
FFFFFFFFFFFFFFFFFFFFFFFFFFFFFFFFFFFFFFFFFFFFFFFFFFFFFFFFFFFFFFFF
310
FFFFFFFFFFFFFFFFFFFFFFFFFFFFFFFFFFFFFFFFFFFFFFFFFFFFFFFFFFFFFFFF
310
FFFFFFFFFFFFFFFFF000FFFFFFFFFFFFFFFFFFFFFFFFFFFFFFFFFFFFFFFFFFFF
310
FFFFFFFFFFFFFFFFFFFFFFFFFFFFFFFFFFFFFFFFFFFFFFFFFFFFFFFFFFFFFFFF
310
FFFFFFFFFFFFFFFFFFFFFFFFFFFFFFFFFFFFFFFFFFFFFFFFFFFFFFFFFFFFFFFF
310
F000FFFFFFFFFFFFFFFFFFFFFFFFFFFFFFFFFFFFFFFFFFFFFFFFFFFFFFFFFFFF
310
FFFFFFFFFFFFFFFFFFFFFFFFFFFFFFFFFFFFFFFFFFFFFFFFFFFFFFFFFFFFFFFF
310
FFFFFFFFFFFFFFFFFFFFFFFFFFFFFFFFFFFFFFFFFFFFFFFFF000FFFFFFFFFFFF
310
FFFFFFFFFFFFFFFFFFFFFFFFFFFFFFFFFFFFFFFFFFFFFFFFFFFFFFFFFFFFFFFF
310
FFFFFFFFFFFFFFFFFFFFFFFFFFFFFFFFFFFFFFFFFFFFFFFFFFFFFFFFFFFFFFFF
310
FFFFFFFFFFFFFFFFFFFFFFFFFFFFFFFFF000FFFFFFFFFFFFFFFFFFFFFFFFFFFF
310
FFFFFFFFFFFFFFFFFFFFFFFFFFFFFFFFFFFFFFFFFFFFFFFFFFFFFFFFFFFFFFFF
310
FFFFFFFFFFFFFFFFFFFFFFFFFFFFFFFFFFFFFFFFFFFFFFFFFFFFFFFFFFFFFFFF
310
FFFFFFFFFFFFFFFFF000FFFFFFFFFFFFFFFFFFFFFFFFFFFFFFFFFFFFFFFFFFFF
310
FFFFFFFFFFFFFFFFFFFFFFFFFFFFFFFFFFFFFFFFFFFFFFFFFFFFFFFFFFFFFFFF
310
FFFFFFFFFFFFFFFFFFFFFFFFFFFFFFFFFFFFFFFFFFFFFFFFFFFFFFFFFFFFFFFF
310
F000FFFFFFFFFFFFFFFFFFFFFFFFFFFFFFFFFFFFFFFFFFFFFFFFFFFFFFFFFFFF
310
FFFFFFFFFFFFFFFFFFFFFFFFFFFFFFFFFFFFFFFFFFFFFFFFFFFFFFFFFFFFFFFF
310
FFFFFFFFFFFFFFFFFFFFFFFFFFFFFFFFFFFFFFFFFFFFFFFFF000FFFFFFFFFFFF
310
FFFFFFFFFFFFFFFFFFFFFFFFFFFFFFFFFFFFFFFFFFFFFFFFFFFFFFFFFFFFFFFF
310
FFFFFFFFFFFFFFFFFFFFFFFFFFFFFFFFFFFFFFFFFFFFFFFFFFFFFFFFFFFFFFFF
310
FFFFFFFFFFFFFFFFFFFFFFFFFFFFFFFFF000FFFFFFFFFFFFFFFFFFFFFFFFFFFF
310
FFFFFFFFFFFFFFFFFFFFFFFFFFFFFFFFFFFFFFFFFFFFFFFFFFFFFFFFFFFFFFFF
310
FFFFFFFFFFFFFFFFFFFFFFFFFFFFFFFFFFFFFFFFFFFFFFFFFFFFFFFFFFFFFFFF
310
FFFFFFFFFFFFFFFFF000FFFFFFFFFFFFFFFFFFFFFFFFFFFFFFFFFFFFFFFFFFFF
310
FFFFFFFFFFFFFFFFFFFFFFFFFFFFFFFFFFFFFFFFFFFFFFFFFFFFFFFFFFFFFFFF
310
FFFFFFFFFFFFFFFFFFFFFFFFFFFFFFFFFFFFFFFFFFFFFFFFFFFFFFFFFFFFFFFF
310
F000FFFFFFFFFFFFFFFFFFFFFFFFFFFFFFFFFFFFFFFFFFFFFFFFFFFFFFFFFFFF
310
FFFFFFFFFFFFFFFFFFFFFFFFFFFFFFFFFFFFFFFFFFFFFFFFFFFFFFFFFFFFFFFF
310
FFFFFFFFFFFFFFFFFFFFFFFFFFFFFFFFFFFFFFFFFFFFFFFFF000FFFFFFFFFFFF
310
FFFFFFFFFFFFFFFFFFFFFFFFFFFFFFFFFFFFFFFFFFFFFFFFFFFFFFFFFFFFFFFF
310
FFFFFFFFFFFFFFFFFFFFFFFFFFFFFFFFFFFFFFFFFFFFFFFFFFFFFFFFFFFFFFFF
310
FFFFFFFFFFFFFFFFFFFFFFFFFFFFFFFFF000FFFFFFFFFFFFFFFFFFFFFFFFFFFF
310
FFFFFFFFFFFFFFFFFFFFFFFFFFFFFFFFFFFFFFFFFFFFFFFFFFFFFFFFFFFFFFFF
310
FFFFFFFFFFFFFFFFFFFFFFFFFFFFFFFFFFFFFFFFFFFFFFFFFFFFFFFFFFFFFFFF
310
FFFFFFFFFFFFFFFFF000FFFFFFFFFFFFFFFFFFFFFFFFFFFFFFFFFFFFFFFFFFFF
310
FFFFFFFFFFFFFFFFFFFFFFFFFFFFFFFFFFFFFFFFFFFFFFFFFFFFFFFFFFFFFFFF
310
FFFFFFFFFFFFFFFFFFFFFFFFFFFFFFFFFFFFFFFFFFFFFFFFFFFFFFFFFFFFFFFF
310
F000FFFFFFFFFFFFFFFFFFFFFFFFFFFFFFFFFFFFFFFFFFFFFFFFFFFFFFFFFFFF
310
FFFFFFFFFFFFFFFFFFFFFFFFFFFFFFFFFFFFFFFFFFFFFFFFFFFFFFFFFFFFFFFF
310
FFFFFFFFFFFFFFFFFFFFFFFFFFFFFFFFFFFFFFFFFFFFFFFFF000FFFFFFFFFFFF
310
FFFFFFFFFFFFFFFFFFFFFFFFFFFFFFFFFFFFFFFFFFFFFFFFFFFFFFFFFFFFFFFF
310
FFFFFFFFFFFFFFFFFFFFFFFFFFFFFFFFFFFFFFFFFFFFFFFFFFFFFFFFFFFFFFFF
310
FFFFFFFFFFFFFFFFFFFFFFFFFFFFFFFFF000FFFFFFFFFFFFFFFFFFFFFFFFFFFF
310
FFFFFFFFFFFFFFFFFFFFFFFFFFFFFFFFFFFFFFFFFFFFFFFFFFFFFFFFFFFFFFFF
310
FFFFFFFFFFFFFFFFFFFFFFFFFFFFFFFFFFFFFFFFFFFFFFFFFFFFFFFFFFFFFFFF
310
FFFFFFFFFFFFFFFFF000FFFFFFFFFFFFFFFFFFFFFFFFFFFFFFFFFFFFFFFFFFFF
310
FFFFFFFFFFFFFFFFFFFFFFFFFFFFFFFFFFFFFFFFFFFFFFFFFFFFFFFFFFFFFFFF
310
FFFFFFFFFFFFFFFFFFFFFFFFFFFFFFFFFFFFFFFFFFFFFFFFFFFFFFFFFFFFFFFF
310
F000FFFFFFFFFFFFFFFFFFFFFFFFFFFFFFFFFFFFFFFFFFFFFFFFFFFFFFFFFFFF
310
FFFFFFFFFFFFFFFFFFFFFFFFFFFFFFFFFFFFFFFFFFFFFFFFFFFFFFFFFFFFFFFF
310
FFFFFFFFFFFFFFFFFFFFFFFFFFFFFFFFFFFFFFFFFFFFFFFFF000FFFFFFFFFFFF
310
FFFFFFFFFFFFFFFFFFFFFFFFFFFFFFFFFFFFFFFFFFFFFFFFFFFFFFFFFFFFFFFF
310
FFFFFFFFFFFFFFFFFFFFFFFFFFFFFFFFFFFFFFFFFFFFFFFFFFFFFFFFFFFFFFFF
310
FFFFFFFFFFFFFFFFFFFFFFFFFFFFFFFFF0000000000000000000000000000000
310
000000000000803F64D6234700E22147000000000000803F0000000000000000
310
0000000003000000000000002000000068DBFD7FC03957190000000000000000
310
0000000000007F43000000000000000000000000000000000000000000000000
310
000000000000000040000000103557190000000000000000B398423E6B2834BD
310
E5E96D380000803F60D62347CCE12147000000000000803F0000000000000000
310
0000000000000000000000000000000000000000000000000000000000000000
310
0000000000007F43000000000000000000000000000000000000000000000000
310
000000000000000040000000903557190000000000000000108F423E656332BD
310
E5E96D380000803F58D6234799E12147000000000000803F0000000000000000
310
0000000003000000000000002000000068DBFD7F403757190000000000000000
310
0000000000007F43000000000000000000000000000000000000000000000000
310
0000000000000000400000001036571900000000000000009F81423E5CA330BD
310
E5E96D380000803F4DD6234767E12147000000000000803F0000000000000000
310
0000000003000000000000002000000068DBFD7FC03757190000000000000000
310
0000000000007F43000000000000000000000000000000000000000000000000
  1
OLE
  0
ENDSEC
  0
SECTION
  2
OBJECTS
  0
DICTIONARY
  5
C
330
0
100
AcDbDictionary
281
     1
  3
ACAD_GROUP
350
D
  3
ACAD_LAYOUT
350
1A
  3
ACAD_MLEADERSTYLE
350
163
  3
ACAD_MLINESTYLE
350
17
  3
ACAD_PLOTSETTINGS
350
19
  3
ACAD_PLOTSTYLENAME
350
E
  3
ACAD_TABLESTYLE
350
162
  3
ACAD_VISUALSTYLE
350
2A
  3
AcDbVariableDictionary
350
164
  0
DICTIONARY
  5
D
102
{ACAD_REACTORS
330
C
102
}
330
C
100
AcDbDictionary
281
     1
  0
DICTIONARY
  5
1A
102
{ACAD_REACTORS
330
C
102
}
330
C
100
AcDbDictionary
281
     1
  3
Layout1
350
1E
  3
Layout2
350
26
  3
Model
350
22
  0
DICTIONARY
  5
163
102
{ACAD_REACTORS
330
C
102
}
330
C
100
AcDbDictionary
281
     1
  0
DICTIONARY
  5
17
102
{ACAD_REACTORS
330
C
102
}
330
C
100
AcDbDictionary
281
     1
  3
Standard
350
18
  0
DICTIONARY
  5
19
102
{ACAD_REACTORS
330
C
102
}
330
C
100
AcDbDictionary
281
     1
  0
ACDBDICTIONARYWDFLT
  5
E
102
{ACAD_REACTORS
330
C
102
}
330
C
100
AcDbDictionary
281
     1
  3
Normal
350
F
100
AcDbDictionaryWithDefault
340
F
  0
DICTIONARY
  5
162
102
{ACAD_REACTORS
330
C
102
}
330
C
100
AcDbDictionary
281
     1
  0
DICTIONARY
  5
2A
102
{ACAD_REACTORS
330
C
102
}
330
C
100
AcDbDictionary
281
     1
  3
2dWireframe
350
2F
  3
3D Hidden
350
31
  3
3dWireframe
350
30
  3
Basic
350
32
  3
Brighten
350
36
  3
ColorChange
350
3A
  3
Conceptual
350
34
  3
Dim
350
35
  3
Facepattern
350
39
  3
Flat
350
2B
  3
FlatWithEdges
350
2C
  3
Gouraud
350
2D
  3
GouraudWithEdges
350
2E
  3
Linepattern
350
38
  3
Realistic
350
33
  3
Thicken
350
37
  0
DICTIONARY
  5
164
102
{ACAD_REACTORS
330
C
102
}
330
C
100
AcDbDictionary
281
     1
  3
PSOLHEIGHT
350
166
  3
PSOLWIDTH
350
165
  0
LAYOUT
  5
1E
102
{ACAD_REACTORS
330
1A
102
}
330
1A
100
AcDbPlotSettings
  1

  2
none_device
  4

  6

 40
0.0
 41
0.0
 42
0.0
 43
0.0
 44
0.0
 45
0.0
 46
0.0
 47
0.0
 48
0.0
 49
0.0
140
0.0
141
0.0
142
1.0
143
1.0
 70
   688
 72
     0
 73
     0
 74
     5
  7

 75
    16
147
1.0
148
0.0
149
0.0
100
AcDbLayout
  1
Layout1
 70
     1
 71
     1
 10
0.0
 20
0.0
 11
420.0
 21
297.0
 12
0.0
 22
0.0
 32
0.0
 14
1.0000000000E+20
 24
1.0000000000E+20
 34
1.0000000000E+20
 15
-1.0000000000E+20
 25
-1.0000000000E+20
 35
-1.0000000000E+20
146
0.0
 13
0.0
 23
0.0
 33
0.0
 16
1.0
 26
0.0
 36
0.0
 17
0.0
 27
1.0
 37
0.0
 76
     0
330
1B
  0
LAYOUT
  5
26
102
{ACAD_REACTORS
330
1A
102
}
330
1A
100
AcDbPlotSettings
  1

  2
none_device
  4

  6

 40
0.0
 41
0.0
 42
0.0
 43
0.0
 44
0.0
 45
0.0
 46
0.0
 47
0.0
 48
0.0
 49
0.0
140
0.0
141
0.0
142
1.0
143
1.0
 70
   688
 72
     0
 73
     0
 74
     5
  7

 75
    16
147
1.0
148
0.0
149
0.0
100
AcDbLayout
  1
Layout2
 70
     1
 71
     2
 10
0.0
 20
0.0
 11
0.0
 21
0.0
 12
0.0
 22
0.0
 32
0.0
 14
0.0
 24
0.0
 34
0.0
 15
0.0
 25
0.0
 35
0.0
146
0.0
 13
0.0
 23
0.0
 33
0.0
 16
1.0
 26
0.0
 36
0.0
 17
0.0
 27
1.0
 37
0.0
 76
     0
330
23
  0
LAYOUT
  5
22
102
{ACAD_REACTORS
330
1A
102
}
330
1A
100
AcDbPlotSettings
  1

  2
none_device
  4

  6

 40
0.0
 41
0.0
 42
0.0
 43
0.0
 44
0.0
 45
0.0
 46
0.0
 47
0.0
 48
0.0
 49
0.0
140
0.0
141
0.0
142
1.0
143
1.0
 70
  1712
 72
     0
 73
     0
 74
     0
  7

 75
     0
147
1.0
148
0.0
149
0.0
100
AcDbLayout
  1
Model
 70
     1
 71
     0
 10
0.0
 20
0.0
 11
297.0
 21
210.0
 12
0.0
 22
0.0
 32
0.0
 14
0.0
 24
0.0
 34
0.0
 15
297.0
 25
210.0
 35
0.0
146
0.0
 13
0.0
 23
0.0
 33
0.0
 16
1.0
 26
0.0
 36
0.0
 17
0.0
 27
1.0
 37
0.0
 76
     0
330
1F
331
29
  0
MLINESTYLE
  5
18
102
{ACAD_REACTORS
330
17
102
}
330
17
100
AcDbMlineStyle
  2
Standard
 70
     0
  3

 62
   256
 51
90.0
 52
90.0
 71
     2
 49
0.5
 62
   256
  6
BYLAYER
 49
-0.5
 62
   256
  6
BYLAYER
  0
ACDBPLACEHOLDER
  5
F
102
{ACAD_REACTORS
330
E
102
}
330
E
  0
VISUALSTYLE
  5
2F
102
{ACAD_REACTORS
330
2A
102
}
330
2A
100
AcDbVisualStyle
  2
2dWireframe
 70
     4
 71
     0
 72
     2
 73
     0
 90
        0
 40
-0.6
 41
-30.0
 62
     5
 63
     7
 74
     1
 91
        4
 64
     7
 65
   257
 75
     1
175
     1
 42
1.0
 92
        0
 66
   257
 43
1.0
 76
     1
 77
     6
 78
     2
 67
     7
 79
     5
170
     0
171
     0
290
     0
174
     0
 93
        1
 44
0.0
173
     0
291
     0
 45
0.0
1001
ACAD
1000
AcDbSavedByObjectVersion
1070
     0
  0
VISUALSTYLE
  5
31
102
{ACAD_REACTORS
330
2A
102
}
330
2A
100
AcDbVisualStyle
  2
3D Hidden
 70
     6
 71
     1
 72
     2
 73
     2
 90
        0
 40
-0.6
 41
-30.0
 62
     5
 63
     7
 74
     2
 91
        2
 64
     7
 65
   257
 75
     2
175
     1
 42
40.0
 92
        0
 66
   257
 43
1.0
 76
     1
 77
     6
 78
     2
 67
     7
 79
     3
170
     0
171
     0
290
     0
174
     0
 93
        1
 44
0.0
173
     0
291
     0
 45
0.0
1001
ACAD
1000
AcDbSavedByObjectVersion
1070
     0
  0
VISUALSTYLE
  5
30
102
{ACAD_REACTORS
330
2A
102
}
330
2A
100
AcDbVisualStyle
  2
3dWireframe
 70
     5
 71
     0
 72
     2
 73
     0
 90
        0
 40
-0.6
 41
-30.0
 62
     5
 63
     7
 74
     1
 91
        4
 64
     7
 65
   257
 75
     1
175
     1
 42
1.0
 92
        0
 66
   257
 43
1.0
 76
     1
 77
     6
 78
     2
 67
     7
 79
     5
170
     0
171
     0
290
     0
174
     0
 93
        1
 44
0.0
173
     0
291
     0
 45
0.0
1001
ACAD
1000
AcDbSavedByObjectVersion
1070
     0
  0
VISUALSTYLE
  5
32
102
{ACAD_REACTORS
330
2A
102
}
330
2A
100
AcDbVisualStyle
  2
Basic
 70
     7
 71
     1
 72
     0
 73
     1
 90
        0
 40
-0.6
 41
-30.0
 62
     5
 63
     7
 74
     0
 91
        4
 64
     7
 65
   257
 75
     1
175
     1
 42
1.0
 92
        8
 66
     7
 43
1.0
 76
     1
 77
     6
 78
     2
 67
     7
 79
     5
170
     0
171
     0
290
     0
174
     0
 93
        1
 44
0.0
173
     0
291
     1
 45
0.0
1001
ACAD
1000
AcDbSavedByObjectVersion
1070
     0
  0
VISUALSTYLE
  5
36
102
{ACAD_REACTORS
330
2A
102
}
330
2A
100
AcDbVisualStyle
  2
Brighten
 70
    12
 71
     2
 72
     2
 73
     0
 90
        0
 40
-0.6
 41
-30.0
 62
     5
 63
     7
 74
     1
 91
        4
 64
     7
 65
   257
 75
     1
175
     1
 42
1.0
 92
        8
 66
     7
 43
1.0
 76
     1
 77
     6
 78
     2
 67
     7
 79
     5
170
     0
171
     0
290
     0
174
     0
 93
        1
 44
50.0
173
     0
291
     1
 45
0.0
1001
ACAD
1000
AcDbSavedByObjectVersion
1070
     0
  0
VISUALSTYLE
  5
3A
102
{ACAD_REACTORS
330
2A
102
}
330
2A
100
AcDbVisualStyle
  2
ColorChange
 70
    16
 71
     2
 72
     2
 73
     3
 90
        0
 40
-0.6
 41
-30.0
 62
     5
 63
     8
 74
     1
 91
        4
 64
     7
 65
   257
 75
     1
175
     1
 42
1.0
 92
        8
 66
     8
 43
1.0
 76
     1
 77
     6
 78
     2
 67
     7
 79
     5
170
     0
171
     0
290
     0
174
     0
 93
        1
 44
0.0
173
     0
291
     1
 45
0.0
1001
ACAD
1000
AcDbSavedByObjectVersion
1070
     0
  0
VISUALSTYLE
  5
34
102
{ACAD_REACTORS
330
2A
102
}
330
2A
100
AcDbVisualStyle
  2
Conceptual
 70
     9
 71
     3
 72
     2
 73
     0
 90
        0
 40
-0.6
 41
-30.0
 62
     5
 63
     7
 74
     2
 91
        2
 64
     7
 65
   257
 75
     1
175
     1
 42
40.0
 92
        8
 66
     7
 43
1.0
 76
     1
 77
     6
 78
     2
 67
     7
 79
     3
170
     0
171
     0
290
     0
174
     0
 93
        1
 44
0.0
173
     0
291
     0
 45
0.0
1001
ACAD
1000
AcDbSavedByObjectVersion
1070
     0
  0
VISUALSTYLE
  5
35
102
{ACAD_REACTORS
330
2A
102
}
330
2A
100
AcDbVisualStyle
  2
Dim
 70
    11
 71
     2
 72
     2
 73
     0
 90
        0
 40
-0.6
 41
-30.0
 62
     5
 63
     7
 74
     1
 91
        4
 64
     7
 65
   257
 75
     1
175
     1
 42
1.0
 92
        8
 66
     7
 43
1.0
 76
     1
 77
     6
 78
     2
 67
     7
 79
     5
170
     0
171
     0
290
     0
174
     0
 93
        1
 44
-50.0
173
     0
291
     1
 45
0.0
1001
ACAD
1000
AcDbSavedByObjectVersion
1070
     0
  0
VISUALSTYLE
  5
39
102
{ACAD_REACTORS
330
2A
102
}
330
2A
100
AcDbVisualStyle
  2
Facepattern
 70
    15
 71
     2
 72
     2
 73
     0
 90
        0
 40
-0.6
 41
-30.0
 62
     5
 63
     7
 74
     1
 91
        4
 64
     7
 65
   257
 75
     1
175
     1
 42
1.0
 92
        8
 66
     7
 43
1.0
 76
     1
 77
     6
 78
     2
 67
     7
 79
     5
170
     0
171
     0
290
     0
174
     0
 93
        1
 44
0.0
173
     0
291
     1
 45
0.0
1001
ACAD
1000
AcDbSavedByObjectVersion
1070
     0
  0
VISUALSTYLE
  5
2B
102
{ACAD_REACTORS
330
2A
102
}
330
2A
100
AcDbVisualStyle
  2
Flat
 70
     0
 71
     2
 72
     1
 73
     1
 90
        2
 40
-0.6
 41
30.0
 62
     5
 63
     7
 74
     0
 91
        4
 64
     7
 65
   257
 75
     1
175
     1
 42
1.0
 92
        8
 66
     7
 43
1.0
 76
     1
 77
     6
 78
     2
 67
     7
 79
     5
170
     0
171
     0
290
     0
174
     0
 93
       13
 44
0.0
173
     0
291
     1
 45
0.0
1001
ACAD
1000
AcDbSavedByObjectVersion
1070
     0
  0
VISUALSTYLE
  5
2C
102
{ACAD_REACTORS
330
2A
102
}
330
2A
100
AcDbVisualStyle
  2
FlatWithEdges
 70
     1
 71
     2
 72
     1
 73
     1
 90
        2
 40
-0.6
 41
30.0
 62
     5
 63
     7
 74
     1
 91
        4
 64
     7
 65
   257
 75
     1
175
     1
 42
1.0
 92
        0
 66
   257
 43
1.0
 76
     1
 77
     6
 78
     2
 67
     7
 79
     5
170
     0
171
     0
290
     0
174
     0
 93
       13
 44
0.0
173
     0
291
     1
 45
0.0
1001
ACAD
1000
AcDbSavedByObjectVersion
1070
     0
  0
VISUALSTYLE
  5
2D
102
{ACAD_REACTORS
330
2A
102
}
330
2A
100
AcDbVisualStyle
  2
Gouraud
 70
     2
 71
     2
 72
     2
 73
     1
 90
        2
 40
-0.6
 41
30.0
 62
     5
 63
     7
 74
     0
 91
        4
 64
     7
 65
   257
 75
     1
175
     1
 42
1.0
 92
        0
 66
     7
 43
1.0
 76
     1
 77
     6
 78
     2
 67
     7
 79
     5
170
     0
171
     0
290
     0
174
     0
 93
       13
 44
0.0
173
     0
291
     1
 45
0.0
1001
ACAD
1000
AcDbSavedByObjectVersion
1070
     0
  0
VISUALSTYLE
  5
2E
102
{ACAD_REACTORS
330
2A
102
}
330
2A
100
AcDbVisualStyle
  2
GouraudWithEdges
 70
     3
 71
     2
 72
     2
 73
     1
 90
        2
 40
-0.6
 41
30.0
 62
     5
 63
     7
 74
     1
 91
        4
 64
     7
 65
   257
 75
     1
175
     1
 42
1.0
 92
        0
 66
   257
 43
1.0
 76
     1
 77
     6
 78
     2
 67
     7
 79
     5
170
     0
171
     0
290
     0
174
     0
 93
       13
 44
0.0
173
     0
291
     1
 45
0.0
1001
ACAD
1000
AcDbSavedByObjectVersion
1070
     0
  0
VISUALSTYLE
  5
38
102
{ACAD_REACTORS
330
2A
102
}
330
2A
100
AcDbVisualStyle
  2
Linepattern
 70
    14
 71
     2
 72
     2
 73
     0
 90
        0
 40
-0.6
 41
-30.0
 62
     5
 63
     7
 74
     1
 91
        4
 64
     7
 65
   257
 75
     7
175
     7
 42
1.0
 92
        8
 66
     7
 43
1.0
 76
     1
 77
     6
 78
     2
 67
     7
 79
     5
170
     0
171
     0
290
     0
174
     0
 93
        1
 44
0.0
173
     0
291
     1
 45
0.0
1001
ACAD
1000
AcDbSavedByObjectVersion
1070
     0
  0
VISUALSTYLE
  5
33
102
{ACAD_REACTORS
330
2A
102
}
330
2A
100
AcDbVisualStyle
  2
Realistic
 70
     8
 71
     2
 72
     2
 73
     0
 90
        0
 40
-0.6
 41
-30.0
 62
     5
 63
     7
 74
     1
 91
        0
 64
     7
 65
   257
 75
     1
175
     1
 42
1.0
 92
        8
 66
     8
 43
1.0
 76
     1
 77
     6
 78
     2
 67
     7
 79
     5
170
     0
171
     0
290
     0
174
     0
 93
       13
 44
0.0
173
     0
291
     0
 45
0.0
1001
ACAD
1000
AcDbSavedByObjectVersion
1070
     0
  0
VISUALSTYLE
  5
37
102
{ACAD_REACTORS
330
2A
102
}
330
2A
100
AcDbVisualStyle
  2
Thicken
 70
    13
 71
     2
 72
     2
 73
     0
 90
        0
 40
-0.6
 41
-30.0
 62
     5
 63
     7
 74
     1
 91
        4
 64
     7
 65
   257
 75
     1
175
     1
 42
1.0
 92
       12
 66
     7
 43
1.0
 76
     1
 77
     6
 78
     2
 67
     7
 79
     5
170
     0
171
     0
290
     0
174
     0
 93
        1
 44
0.0
173
     0
291
     1
 45
0.0
1001
ACAD
1000
AcDbSavedByObjectVersion
1070
     0
  0
DICTIONARYVAR
  5
166
102
{ACAD_REACTORS
330
164
102
}
330
164
100
DictionaryVariables
280
     0
  1
80.000000
  0
DICTIONARYVAR
  5
165
102
{ACAD_REACTORS
330
164
102
}
330
164
100
DictionaryVariables
280
     0
  1
5.000000
  0
ENDSEC
  0
EOF
