  0
SECTION
  2
HEADER
  9
$ACADVER
  1
AC1015
  9
$ACADMAINTVER
 70
     6
  9
$DWGCODEPAGE
  3
ANSI_1252
  9
$INSBASE
 10
0.0
 20
0.0
 30
0.0
  9
$EXTMIN
 10
0.0
 20
0.0
 30
0.0
  9
$EXTMAX
 10
297.0
 20
210.0
 30
0.0
  9
$LIMMIN
 10
0.0
 20
0.0
  9
$LIMMAX
 10
297.0
 20
210.0
  9
$ORTHOMODE
 70
     0
  9
$REGENMODE
 70
     1
  9
$FILLMODE
 70
     1
  9
$QTEXTMODE
 70
     0
  9
$MIRRTEXT
 70
     1
  9
$LTSCALE
 40
1.0
  9
$ATTMODE
 70
     1
  9
$TEXTSIZE
 40
2.0
  9
$TRACEWID
 40
1.0
  9
$TEXTSTYLE
  7
Standard
  9
$CLAYER
  8
0
  9
$CELTYPE
  6
ByLayer
  9
$CECOLOR
 62
   256
  9
$CELTSCALE
 40
1.0
  9
$DISPSILH
 70
     0
  9
$DIMSCALE
 40
1.0
  9
$DIMASZ
 40
3.0
  9
$DIMEXO
 40
0.0
  9
$DIMDLI
 40
3.75
  9
$DIMRND
 40
0.0
  9
$DIMDLE
 40
0.0
  9
$DIMEXE
 40
1.0
  9
$DIMTP
 40
0.0
  9
$DIMTM
 40
0.0
  9
$DIMTXT
 40
2.0
  9
$DIMCEN
 40
2.5
  9
$DIMTSZ
 40
0.0
  9
$DIMTOL
 70
     0
  9
$DIMLIM
 70
     0
  9
$DIMTIH
 70
     1
  9
$DIMTOH
 70
     1
  9
$DIMSE1
 70
     0
  9
$DIMSE2
 70
     0
  9
$DIMTAD
 70
     1
  9
$DIMZIN
 70
     0
  9
$DIMBLK
  1

  9
$DIMASO
 70
     1
  9
$DIMSHO
 70
     1
  9
$DIMPOST
  1

  9
$DIMAPOST
  1

  9
$DIMALT
 70
     0
  9
$DIMALTD
 70
     3
  9
$DIMALTF
 40
0.0393700787
  9
$DIMLFAC
 40
1.0
  9
$DIMTOFL
 70
     1
  9
$DIMTVP
 40
0.0
  9
$DIMTIX
 70
     0
  9
$DIMSOXD
 70
     0
  9
$DIMSAH
 70
     0
  9
$DIMBLK1
  1

  9
$DIMBLK2
  1

  9
$DIMSTYLE
  2
ISO-25
  9
$DIMCLRD
 70
     0
  9
$DIMCLRE
 70
     0
  9
$DIMCLRT
 70
     0
  9
$DIMTFAC
 40
1.0
  9
$DIMGAP
 40
1.524
  9
$DIMJUST
 70
     0
  9
$DIMSD1
 70
     0
  9
$DIMSD2
 70
     0
  9
$DIMTOLJ
 70
     0
  9
$DIMTZIN
 70
     0
  9
$DIMALTZ
 70
     0
  9
$DIMALTTZ
 70
     0
  9
$DIMUPT
 70
     0
  9
$DIMDEC
 70
     2
  9
$DIMTDEC
 70
     3
  9
$DIMALTU
 70
     2
  9
$DIMALTTD
 70
     3
  9
$DIMTXSTY
  7
Standard
  9
$DIMAUNIT
 70
     0
  9
$DIMADEC
 70
     2
  9
$DIMALTRND
 40
0.0
  9
$DIMAZIN
 70
     0
  9
$DIMDSEP
 70
    44
  9
$DIMATFIT
 70
     3
  9
$DIMFRAC
 70
     0
  9
$DIMLDRBLK
  1

  9
$DIMLUNIT
 70
     2
  9
$DIMLWD
 70
    -2
  9
$DIMLWE
 70
    -2
  9
$DIMTMOVE
 70
     0
  9
$LUNITS
 70
     2
  9
$LUPREC
 70
     2
  9
$SKETCHINC
 40
1.0
  9
$FILLETRAD
 40
10.0
  9
$AUNITS
 70
     0
  9
$AUPREC
 70
     2
  9
$MENU
  1
.
  9
$ELEVATION
 40
0.0
  9
$PELEVATION
 40
0.0
  9
$THICKNESS
 40
0.0
  9
$LIMCHECK
 70
     0
  9
$CHAMFERA
 40
10.0
  9
$CHAMFERB
 40
10.0
  9
$CHAMFERC
 40
20.0
  9
$CHAMFERD
 40
0.0
  9
$SKPOLY
 70
     0
  9
$TDCREATE
 40
2455988.693406759
  9
$TDUCREATE
 40
2455988.651740093
  9
$TDUPDATE
 40
2455988.693406771
  9
$TDUUPDATE
 40
2455988.651740104
  9
$TDINDWG
 40
0.0000000116
  9
$TDUSRTIMER
 40
0.0000000116
  9
$USRTIMER
 70
     1
  9
$ANGBASE
 50
0.0
  9
$ANGDIR
 70
     0
  9
$PDMODE
 70
     0
  9
$PDSIZE
 40
-1.0
  9
$PLINEWID
 40
0.0
  9
$SPLFRAME
 70
     0
  9
$SPLINETYPE
 70
     6
  9
$SPLINESEGS
 70
     8
  9
$HANDSEED
  5
148
  9
$SURFTAB1
 70
     6
  9
$SURFTAB2
 70
     6
  9
$SURFTYPE
 70
     6
  9
$SURFU
 70
     6
  9
$SURFV
 70
     6
  9
$UCSBASE
  2

  9
$UCSNAME
  2

  9
$UCSORG
 10
0.0
 20
0.0
 30
0.0
  9
$UCSXDIR
 10
1.0
 20
0.0
 30
0.0
  9
$UCSYDIR
 10
0.0
 20
1.0
 30
0.0
  9
$UCSORTHOREF
  2

  9
$UCSORTHOVIEW
 70
     0
  9
$UCSORGTOP
 10
0.0
 20
0.0
 30
0.0
  9
$UCSORGBOTTOM
 10
0.0
 20
0.0
 30
0.0
  9
$UCSORGLEFT
 10
0.0
 20
0.0
 30
0.0
  9
$UCSORGRIGHT
 10
0.0
 20
0.0
 30
0.0
  9
$UCSORGFRONT
 10
0.0
 20
0.0
 30
0.0
  9
$UCSORGBACK
 10
0.0
 20
0.0
 30
0.0
  9
$PUCSBASE
  2

  9
$PUCSNAME
  2

  9
$PUCSORG
 10
0.0
 20
0.0
 30
0.0
  9
$PUCSXDIR
 10
1.0
 20
0.0
 30
0.0
  9
$PUCSYDIR
 10
0.0
 20
1.0
 30
0.0
  9
$PUCSORTHOREF
  2

  9
$PUCSORTHOVIEW
 70
     0
  9
$PUCSORGTOP
 10
0.0
 20
0.0
 30
0.0
  9
$PUCSORGBOTTOM
 10
0.0
 20
0.0
 30
0.0
  9
$PUCSORGLEFT
 10
0.0
 20
0.0
 30
0.0
  9
$PUCSORGRIGHT
 10
0.0
 20
0.0
 30
0.0
  9
$PUCSORGFRONT
 10
0.0
 20
0.0
 30
0.0
  9
$PUCSORGBACK
 10
0.0
 20
0.0
 30
0.0
  9
$USERI1
 70
     0
  9
$USERI2
 70
     0
  9
$USERI3
 70
     0
  9
$USERI4
 70
     0
  9
$USERI5
 70
     0
  9
$USERR1
 40
0.0
  9
$USERR2
 40
0.0
  9
$USERR3
 40
0.0
  9
$USERR4
 40
0.0
  9
$USERR5
 40
0.0
  9
$WORLDVIEW
 70
     1
  9
$SHADEDGE
 70
     3
  9
$SHADEDIF
 70
    70
  9
$TILEMODE
 70
     1
  9
$MAXACTVP
 70
    64
  9
$PINSBASE
 10
0.0
 20
0.0
 30
0.0
  9
$PLIMCHECK
 70
     0
  9
$PEXTMIN
 10
1.0000000000E+20
 20
1.0000000000E+20
 30
1.0000000000E+20
  9
$PEXTMAX
 10
-1.0000000000E+20
 20
-1.0000000000E+20
 30
-1.0000000000E+20
  9
$PLIMMIN
 10
0.0
 20
0.0
  9
$PLIMMAX
 10
420.0
 20
297.0
  9
$UNITMODE
 70
     0
  9
$VISRETAIN
 70
     1
  9
$PLINEGEN
 70
     0
  9
$PSLTSCALE
 70
     1
  9
$TREEDEPTH
 70
  3020
  9
$CMLSTYLE
  2
Standard
  9
$CMLJUST
 70
     0
  9
$CMLSCALE
 40
20.0
  9
$PROXYGRAPHICS
 70
     1
  9
$MEASUREMENT
 70
     1
  9
$CELWEIGHT
370
    -1
  9
$ENDCAPS
280
     0
  9
$JOINSTYLE
280
     0
  9
$LWDISPLAY
290
     1
  9
$INSUNITS
 70
     4
  9
$HYPERLINKBASE
  1

  9
$STYLESHEET
  1

  9
$XEDIT
290
     1
  9
$CEPSNTYPE
380
     0
  9
$PSTYLEMODE
290
     1
  9
$FINGERPRINTGUID
  2
{E343B073-2F57-496B-B8FF-D0897C804753}
  9
$VERSIONGUID
  2
{FAEB1C32-E019-11D5-929B-00C0DF256EC4}
  9
$EXTNAMES
290
     1
  9
$PSVPSCALE
 40
0.0
  9
$OLESTARTUP
290
     0
  0
ENDSEC
  0
SECTION
  2
CLASSES
  0
CLASS
  1
ACDBDICTIONARYWDFLT
  2
AcDbDictionaryWithDefault
  3
ObjectDBX Classes
 90
        0
280
     0
281
     0
  0
CLASS
  1
VISUALSTYLE
  2
AcDbVisualStyle
  3
ObjectDBX Classes
 90
     4095
280
     0
281
     0
  0
CLASS
  1
MATERIAL
  2
AcDbMaterial
  3
ObjectDBX Classes
 90
     1153
280
     0
281
     0
  0
CLASS
  1
ACDBPLACEHOLDER
  2
AcDbPlaceHolder
  3
ObjectDBX Classes
 90
        0
280
     0
281
     0
  0
CLASS
  1
LAYOUT
  2
AcDbLayout
  3
ObjectDBX Classes
 90
        0
280
     0
281
     0
  0
ENDSEC
  0
SECTION
  2
TABLES
  0
TABLE
  2
VPORT
  5
8
330
0
100
AcDbSymbolTable
 70
     1
  0
VPORT
  5
29
330
8
100
AcDbSymbolTableRecord
100
AcDbViewportTableRecord
  2
*Active
 70
     0
 10
0.0
 20
0.0
 11
1.0
 21
1.0
 12
148.5
 22
105.0
 13
0.0
 23
0.0
 14
10.0
 24
10.0
 15
10.0
 25
10.0
 16
0.0
 26
0.0
 36
1.0
 17
0.0
 27
0.0
 37
0.0
 40
210.0
 41
1.4142857143
 42
50.0
 43
0.0
 44
0.0
 50
0.0
 51
0.0
 71
     0
 72
  2000
 73
     1
 74
     3
 75
     0
 76
     0
 77
     0
 78
     0
281
     0
 65
     1
110
0.0
120
0.0
130
0.0
111
1.0
121
0.0
131
0.0
112
0.0
122
1.0
132
0.0
 79
     0
146
0.0
  0
ENDTAB
  0
TABLE
  2
LTYPE
  5
5
330
0
100
AcDbSymbolTable
 70
     6
  0
LTYPE
  5
14
330
5
100
AcDbSymbolTableRecord
100
AcDbLinetypeTableRecord
  2
ByBlock
 70
     0
  3

 72
    65
 73
     0
 40
0.0
  0
LTYPE
  5
15
330
5
100
AcDbSymbolTableRecord
100
AcDbLinetypeTableRecord
  2
ByLayer
 70
     0
  3

 72
    65
 73
     0
 40
0.0
  0
LTYPE
  5
16
330
5
100
AcDbSymbolTableRecord
100
AcDbLinetypeTableRecord
  2
Continuous
 70
     0
  3
Solid line
 72
    65
 73
     0
 40
0.0
  0
LTYPE
  5
3F
330
5
100
AcDbSymbolTableRecord
100
AcDbLinetypeTableRecord
  2
HIDDEN
 70
     0
  3
Hidden __ __ __ __ __ __ __ __ __ __ __ __ __ __
 72
    65
 73
     2
 40
1.905
 49
1.27
 74
     0
 49
-0.635
 74
     0
  0
LTYPE
  5
40
330
5
100
AcDbSymbolTableRecord
100
AcDbLinetypeTableRecord
  2
PHANTOM
 70
     0
  3
Phantom ______  __  __  ______  __  __  ______
 72
    65
 73
     6
 40
12.7
 49
6.35
 74
     0
 49
-1.27
 74
     0
 49
1.27
 74
     0
 49
-1.27
 74
     0
 49
1.27
 74
     0
 49
-1.27
 74
     0
  0
LTYPE
  5
41
330
5
100
AcDbSymbolTableRecord
100
AcDbLinetypeTableRecord
  2
CENTER
 70
     0
  3
Center ____ _ ____ _ ____ _ ____ _ ____ _ ____
 72
    65
 73
     4
 40
10.16
 49
6.35
 74
     0
 49
-1.27
 74
     0
 49
1.27
 74
     0
 49
-1.27
 74
     0
  0
LTYPE
  5
42
330
5
100
AcDbSymbolTableRecord
100
AcDbLinetypeTableRecord
  2
CENTERX2
 70
     0
  3
Center (2x) ________  __  ________  __  _____
 72
    65
 73
     4
 40
20.32
 49
12.7
 74
     0
 49
-2.54
 74
     0
 49
2.54
 74
     0
 49
-2.54
 74
     0
  0
LTYPE
  5
43
330
5
100
AcDbSymbolTableRecord
100
AcDbLinetypeTableRecord
  2
DOT2
 70
     0
  3
Dot (.5x) ........................................
 72
    65
 73
     2
 40
0.635
 49
0.0
 74
     0
 49
-0.635
 74
     0
  0
ENDTAB
  0
TABLE
  2
LAYER
  5
2
330
0
100
AcDbSymbolTable
 70
     5
  0
LAYER
  5
10
330
2
100
AcDbSymbolTableRecord
100
AcDbLayerTableRecord
  2
0
 70
     0
 62
     7
  6
Continuous
370
    -3
390
F
  0
LAYER
  5
44
330
2
100
AcDbSymbolTableRecord
100
AcDbLayerTableRecord
  2
FORMAT
 70
     0
 62
     7
  6
Continuous
370
    -3
390
F
  0
LAYER
  5
45
330
2
100
AcDbSymbolTableRecord
100
AcDbLayerTableRecord
  2
VERMASSUNG
 70
     0
 62
     7
  6
Continuous
370
    -3
390
F
  0
LAYER
  5
46
330
2
100
AcDbSymbolTableRecord
100
AcDbLayerTableRecord
  2
KOPF_DÜNN
 70
     0
 62
     7
  6
Continuous
370
    -3
390
F
  0
LAYER
  5
47
330
2
100
AcDbSymbolTableRecord
100
AcDbLayerTableRecord
  2
KOPF_DICK
 70
     0
 62
     7
  6
Continuous
370
    15
390
F
  0
ENDTAB
  0
TABLE
  2
STYLE
  5
3
330
0
100
AcDbSymbolTable
 70
     2
  0
STYLE
  5
11
330
3
100
AcDbSymbolTableRecord
100
AcDbTextStyleTableRecord
  2
Standard
 70
     0
 40
0.0
 41
1.0
 50
0.0
 71
     0
 42
2.5
  3
txt
  4

  0
STYLE
  5
48
330
3
100
AcDbSymbolTableRecord
100
AcDbTextStyleTableRecord
  2
SLDTEXTSTYLE0
 70
     0
 40
0.0
 41
0.7
 50
0.0
 71
     0
 42
0.2
  3
TXT
  4

  0
ENDTAB
  0
TABLE
  2
VIEW
  5
6
330
0
100
AcDbSymbolTable
 70
     0
  0
ENDTAB
  0
TABLE
  2
UCS
  5
7
330
0
100
AcDbSymbolTable
 70
     0
  0
ENDTAB
  0
TABLE
  2
APPID
  5
9
330
0
100
AcDbSymbolTable
 70
     1
  0
APPID
  5
12
330
9
100
AcDbSymbolTableRecord
100
AcDbRegAppTableRecord
  2
ACAD
 70
     0
  0
ENDTAB
  0
TABLE
  2
DIMSTYLE
  5
A
330
0
100
AcDbSymbolTable
 70
     4
100
AcDbDimStyleTable
  0
DIMSTYLE
105
27
330
A
100
AcDbSymbolTableRecord
100
AcDbDimStyleTableRecord
  2
ISO-25
 70
     0
 41
2.5
 42
0.625
 43
3.75
 44
1.25
 73
     0
 74
     0
 77
     1
 78
     8
140
2.5
141
2.5
143
0.0393700787
147
0.625
171
     3
172
     1
178
     0
271
     2
272
     2
274
     3
278
    44
283
     0
284
     8
340
11
  0
DIMSTYLE
105
11B
102
{ACAD_REACTORS
330
11A
102
}
330
A
100
AcDbSymbolTableRecord
100
AcDbDimStyleTableRecord
  2
SLDDIMSTYLE0
 70
     0
 41
3.0
 44
0.0
 45
0.000000001
 73
     0
 74
     0
 77
     1
 78
    12
 79
     3
140
2.0
147
0.5
173
     1
178
     0
271
     2
272
     3
276
     2
284
    12
340
48
  0
DIMSTYLE
105
127
102
{ACAD_REACTORS
330
126
330
13C
102
}
330
A
100
AcDbSymbolTableRecord
100
AcDbDimStyleTableRecord
  2
SLDDIMSTYLE1
 70
     0
 41
3.0
 44
0.0
 45
0.000000001
 73
     0
 74
     0
 77
     1
 78
    12
 79
     3
140
2.0
147
0.5
173
     1
178
     0
271
     2
272
     3
276
     2
284
    12
340
48
  0
DIMSTYLE
105
132
102
{ACAD_REACTORS
330
131
102
}
330
A
100
AcDbSymbolTableRecord
100
AcDbDimStyleTableRecord
  2
SLDDIMSTYLE2
 70
     0
 41
3.0
 44
0.0
 45
0.000000001
 73
     0
 74
     0
 77
     1
 78
    12
 79
     3
140
2.0
147
0.5
173
     1
178
     0
271
     0
272
     3
276
     2
284
    12
340
48
  0
ENDTAB
  0
TABLE
  2
BLOCK_RECORD
  5
1
330
0
100
AcDbSymbolTable
 70
     5
  0
BLOCK_RECORD
  5
1F
330
1
100
AcDbSymbolTableRecord
100
AcDbBlockTableRecord
  2
*Model_Space
340
22
  0
BLOCK_RECORD
  5
1B
330
1
100
AcDbSymbolTableRecord
100
AcDbBlockTableRecord
  2
*Paper_Space
340
1E
  0
BLOCK_RECORD
  5
23
330
1
100
AcDbSymbolTableRecord
100
AcDbBlockTableRecord
  2
*Paper_Space0
340
26
  0
BLOCK_RECORD
  5
11C
330
1
100
AcDbSymbolTableRecord
100
AcDbBlockTableRecord
  2
*D1
340
0
  0
BLOCK_RECORD
  5
128
330
1
100
AcDbSymbolTableRecord
100
AcDbBlockTableRecord
  2
*D2
340
0
  0
BLOCK_RECORD
  5
133
330
1
100
AcDbSymbolTableRecord
100
AcDbBlockTableRecord
  2
*D3
340
0
  0
BLOCK_RECORD
  5
13D
330
1
100
AcDbSymbolTableRecord
100
AcDbBlockTableRecord
  2
*D4
340
0
  0
ENDTAB
  0
ENDSEC
  0
SECTION
  2
BLOCKS
  0
BLOCK
  5
20
330
1F
100
AcDbEntity
  8
0
100
AcDbBlockBegin
  2
*Model_Space
 70
     0
 10
0.0
 20
0.0
 30
0.0
  3
*Model_Space
  1

  0
ENDBLK
  5
21
330
1F
100
AcDbEntity
  8
0
100
AcDbBlockEnd
  0
BLOCK
  5
1C
330
1B
100
AcDbEntity
 67
     1
  8
0
100
AcDbBlockBegin
  2
*Paper_Space
 70
     0
 10
0.0
 20
0.0
 30
0.0
  3
*Paper_Space
  1

  0
ENDBLK
  5
1D
330
1B
100
AcDbEntity
 67
     1
  8
0
100
AcDbBlockEnd
  0
BLOCK
  5
24
330
23
100
AcDbEntity
  8
0
100
AcDbBlockBegin
  2
*Paper_Space0
 70
     0
 10
0.0
 20
0.0
 30
0.0
  3
*Paper_Space0
  1

  0
ENDBLK
  5
25
330
23
100
AcDbEntity
  8
0
100
AcDbBlockEnd
  0
BLOCK
  5
11D
330
11C
100
AcDbEntity
  8
0
100
AcDbBlockBegin
  2
*D1
 70
     1
 10
0.0
 20
0.0
 30
0.0
  3
*D1
  1

  0
SOLID
  5
11F
330
11C
100
AcDbEntity
  8
VERMASSUNG
100
AcDbTrace
 10
189.6392948901
 20
108.1401553676
 30
0.0
 11
189.1892948901
 21
105.1401553676
 31
0.0
 12
190.0892948901
 22
105.1401553676
 32
0.0
 13
190.0892948901
 23
105.1401553676
 33
0.0
  0
LINE
  5
120
330
11C
100
AcDbEntity
  8
VERMASSUNG
100
AcDbLine
 10
183.0836569005
 20
108.1401553676
 30
0.0
 11
190.6392948901
 21
108.1401553676
 31
0.0
  0
LINE
  5
121
330
11C
100
AcDbEntity
  8
VERMASSUNG
100
AcDbLine
 10
189.6392948901
 20
98.3901553676
 30
0.0
 11
189.6392948901
 21
108.1401553676
 31
0.0
  0
LINE
  5
122
330
11C
100
AcDbEntity
  8
VERMASSUNG
100
AcDbLine
 10
189.6392948901
 20
108.1401553676
 30
0.0
 11
189.6392948901
 21
89.6415857161
 31
0.0
  0
MTEXT
  5
123
330
11C
100
AcDbEntity
  8
VERMASSUNG
100
AcDbMText
 10
187.0611594106
 20
91.2290857161
 30
0.0
 40
2.0
 41
0.0
 71
     1
 72
     1
  1
%%c
  7
SLDTEXTSTYLE0
 11
-7.044195017643634E-15
 21
1.0
 31
0.0
 73
     1
 44
1.0
  0
MTEXT
  5
124
330
11C
100
AcDbEntity
  8
VERMASSUNG
100
AcDbMText
 10
187.061159527
 20
94.8373435115
 30
0.0
 40
2.0
 41
0.0
 71
     1
 72
     1
  1
9.75
  7
SLDTEXTSTYLE0
 11
-7.044195017643634E-15
 21
1.0
 31
0.0
 73
     1
 44
1.0
  0
MTEXT
  5
125
330
11C
100
AcDbEntity
  8
VERMASSUNG
100
AcDbMText
 10
187.061159527
 20
99.6352601755
 30
0.0
 40
2.0
 41
0.0
 71
     1
 72
     1
  1
-15.1
  7
SLDTEXTSTYLE0
 11
-7.044195017643634E-15
 21
1.0
 31
0.0
 73
     1
 44
1.0
  0
ENDBLK
  5
11E
330
11C
100
AcDbEntity
  8
0
100
AcDbBlockEnd
  0
BLOCK
  5
129
330
128
100
AcDbEntity
  8
0
100
AcDbBlockBegin
  2
*D2
 70
     1
 10
0.0
 20
0.0
 30
0.0
  3
*D2
  1

  0
SOLID
  5
12B
330
128
100
AcDbEntity
  8
VERMASSUNG
100
AcDbTrace
 10
183.0836569005
 20
121.4383866577
 30
0.0
 11
180.0836569005
 21
121.8883866577
 31
0.0
 12
180.0836569005
 22
120.9883866577
 32
0.0
 13
180.0836569005
 23
120.9883866577
 33
0.0
  0
SOLID
  5
12C
330
128
100
AcDbEntity
  8
VERMASSUNG
100
AcDbTrace
 10
108.0836569005
 20
121.4383866577
 30
0.0
 11
111.0836569005
 21
120.9883866577
 31
0.0
 12
111.0836569005
 22
121.8883866577
 32
0.0
 13
111.0836569005
 23
121.8883866577
 33
0.0
  0
LINE
  5
12D
330
128
100
AcDbEntity
  8
VERMASSUNG
100
AcDbLine
 10
183.0836569005
 20
108.1401553676
 30
0.0
 11
183.0836569005
 21
122.4383866577
 31
0.0
  0
LINE
  5
12E
330
128
100
AcDbEntity
  8
VERMASSUNG
100
AcDbLine
 10
108.0836569005
 20
109.4651553676
 30
0.0
 11
108.0836569005
 21
122.4383866577
 31
0.0
  0
LINE
  5
12F
330
128
100
AcDbEntity
  8
VERMASSUNG
100
AcDbLine
 10
183.0836569005
 20
121.4383866577
 30
0.0
 11
108.0836569005
 21
121.4383866577
 31
0.0
  0
MTEXT
  5
130
330
128
100
AcDbEntity
  8
VERMASSUNG
100
AcDbMText
 10
141.862073759
 20
124.0165220208
 30
0.0
 40
2.0
 41
0.0
 71
     1
 72
     1
  1
75
  7
SLDTEXTSTYLE0
 73
     1
 44
1.0
  0
ENDBLK
  5
12A
330
128
100
AcDbEntity
  8
0
100
AcDbBlockEnd
  0
BLOCK
  5
134
330
133
100
AcDbEntity
  8
0
100
AcDbBlockBegin
  2
*D3
 70
     1
 10
0.0
 20
0.0
 30
0.0
  3
*D3
  1

  0
SOLID
  5
136
330
133
100
AcDbEntity
  8
VERMASSUNG
100
AcDbTrace
 10
183.0836569005
 20
114.4718533427
 30
0.0
 11
180.0836569005
 21
114.9218533427
 31
0.0
 12
180.0836569005
 22
114.0218533427
 32
0.0
 13
180.0836569005
 23
114.0218533427
 33
0.0
  0
SOLID
  5
137
330
133
100
AcDbEntity
  8
VERMASSUNG
100
AcDbTrace
 10
152.992994026
 20
114.4718533427
 30
0.0
 11
155.992994026
 21
114.0218533427
 31
0.0
 12
155.992994026
 22
114.9218533427
 32
0.0
 13
155.992994026
 23
114.9218533427
 33
0.0
  0
LINE
  5
138
330
133
100
AcDbEntity
  8
VERMASSUNG
100
AcDbLine
 10
183.0836569005
 20
108.1401553676
 30
0.0
 11
183.0836569005
 21
115.4718533427
 31
0.0
  0
LINE
  5
139
330
133
100
AcDbEntity
  8
VERMASSUNG
100
AcDbLine
 10
152.992994026
 20
108.1401553676
 30
0.0
 11
152.992994026
 21
115.4718533427
 31
0.0
  0
LINE
  5
13A
330
133
100
AcDbEntity
  8
VERMASSUNG
100
AcDbLine
 10
183.0836569005
 20
114.4718533427
 30
0.0
 11
152.992994026
 21
114.4718533427
 31
0.0
  0
MTEXT
  5
13B
330
133
100
AcDbEntity
  8
VERMASSUNG
100
AcDbMText
 10
167.112227608
 20
117.0499887058
 30
0.0
 40
2.0
 41
0.0
 71
     1
 72
     1
  1
30
  7
SLDTEXTSTYLE0
 73
     1
 44
1.0
  0
ENDBLK
  5
135
330
133
100
AcDbEntity
  8
0
100
AcDbBlockEnd
  0
BLOCK
  5
13E
330
13D
100
AcDbEntity
  8
0
100
AcDbBlockBegin
  2
*D4
 70
     1
 10
0.0
 20
0.0
 30
0.0
  3
*D4
  1

  0
SOLID
  5
140
330
13D
100
AcDbEntity
  8
VERMASSUNG
100
AcDbTrace
 10
101.7755999218
 20
111.2651553676
 30
0.0
 11
101.3255999218
 21
108.2651553676
 31
0.0
 12
102.2255999218
 22
108.2651553676
 32
0.0
 13
102.2255999218
 23
108.2651553676
 33
0.0
  0
SOLID
  5
141
330
13D
100
AcDbEntity
  8
VERMASSUNG
100
AcDbTrace
 10
101.7755999218
 20
95.2651553676
 30
0.0
 11
102.2255999218
 21
98.2651553676
 31
0.0
 12
101.3255999218
 22
98.2651553676
 32
0.0
 13
101.3255999218
 23
98.2651553676
 33
0.0
  0
LINE
  5
142
330
13D
100
AcDbEntity
  8
VERMASSUNG
100
AcDbLine
 10
119.3836569005
 20
111.2651553676
 30
0.0
 11
100.7755999218
 21
111.2651553676
 31
0.0
  0
LINE
  5
143
330
13D
100
AcDbEntity
  8
VERMASSUNG
100
AcDbLine
 10
109.4586569005
 20
95.2651553676
 30
0.0
 11
100.7755999218
 21
95.2651553676
 31
0.0
  0
LINE
  5
144
330
13D
100
AcDbEntity
  8
VERMASSUNG
100
AcDbLine
 10
101.7755999218
 20
111.2651553676
 30
0.0
 11
101.7755999218
 21
95.2651553676
 31
0.0
  0
MTEXT
  5
145
330
13D
100
AcDbEntity
  8
VERMASSUNG
100
AcDbMText
 10
99.1974644423
 20
99.7468306761
 30
0.0
 40
2.0
 41
0.0
 71
     1
 72
     1
  1
%%c
  7
SLDTEXTSTYLE0
 11
-7.044195017643634E-15
 21
1.0
 31
0.0
 73
     1
 44
1.0
  0
MTEXT
  5
146
330
13D
100
AcDbEntity
  8
VERMASSUNG
100
AcDbMText
 10
99.1974645587
 20
103.3550884714
 30
0.0
 40
2.0
 41
0.0
 71
     1
 72
     1
  1
16
  7
SLDTEXTSTYLE0
 11
-7.044195017643634E-15
 21
1.0
 31
0.0
 73
     1
 44
1.0
  0
ENDBLK
  5
13F
330
13D
100
AcDbEntity
  8
0
100
AcDbBlockEnd
  0
ENDSEC
  0
SECTION
  2
ENTITIES
  0
MTEXT
  5
49
330
1F
100
AcDbEntity
  8
KOPF_DÜNN
100
AcDbMText
 10
13.8892156294
 20
23.8442973028
 30
0.0
 40
3.0
 41
0.0
 71
     1
 72
     1
  1
272.010.006
  7
SLDTEXTSTYLE0
 73
     1
 44
1.0
  0
MTEXT
  5
4A
330
1F
100
AcDbEntity
  8
VERMASSUNG
100
AcDbMText
 10
13.9329988022
 20
28.8834360957
 30
0.0
 40
3.0
 41
0.0
 71
     1
 72
     1
  1
Ausdrehstahl_Boring bar ø9.75-15.1
  7
SLDTEXTSTYLE0
 73
     1
 44
1.0
  0
MTEXT
  5
4B
330
1F
100
AcDbEntity
  8
VERMASSUNG
100
AcDbMText
 10
98.8601118557
 20
13.8365368179
 30
0.0
 40
2.0
 41
0.0
 71
     1
 72
     1
  1
Datum: 08.02.2008
  7
SLDTEXTSTYLE0
 73
     1
 44
1.0
  0
MTEXT
  5
4C
330
1F
100
AcDbEntity
  8
VERMASSUNG
100
AcDbMText
 10
13.933048693
 20
18.0482802738
 30
0.0
 40
2.0
 41
0.0
 71
     1
 72
     1
  1
mit Innenkühlung_with spindel coolant feed
  7
SLDTEXTSTYLE0
 73
     1
 44
1.0
  0
MTEXT
  5
4D
330
1F
100
AcDbEntity
  8
VERMASSUNG
100
AcDbMText
 10
13.9808475933
 20
13.9090973692
 30
0.0
 40
2.0
 41
0.0
 71
     1
 72
     1
  1
Gewicht: 71g
  7
SLDTEXTSTYLE0
 73
     1
 44
1.0
  0
LINE
  5
4E
330
1F
100
AcDbEntity
  8
0
  6
Continuous
 62
     7
370
    15
100
AcDbLine
 10
180.3279408447
 20
103.710248598
 30
0.0
 11
180.3279408447
 21
103.6096697881
 31
0.0
  0
LINE
  5
4F
330
1F
100
AcDbEntity
  8
0
  6
Continuous
 62
     7
370
    15
100
AcDbLine
 10
178.1443781395
 20
104.3748464738
 30
0.0
 11
178.1443781395
 21
104.2576345628
 31
0.0
  0
LINE
  5
50
330
1F
100
AcDbEntity
  8
0
  6
Continuous
 62
     7
370
    15
100
AcDbLine
 10
181.5443781395
 20
104.2576345628
 30
0.0
 11
181.5443781395
 21
104.3748464738
 31
0.0
  0
LINE
  5
51
330
1F
100
AcDbEntity
  8
0
  6
Continuous
 62
     7
370
    15
100
AcDbLine
 10
179.1691392672
 20
103.8867012634
 30
0.0
 11
179.1691392672
 21
104.0346770159
 31
0.0
  0
LINE
  5
52
330
1F
100
AcDbEntity
  8
0
  6
Continuous
 62
     7
370
    15
100
AcDbLine
 10
180.5196170118
 20
104.7765436147
 30
0.0
 11
180.5196170118
 21
104.6285678622
 31
0.0
  0
LINE
  5
53
330
1F
100
AcDbEntity
  8
0
  6
Continuous
 62
     7
370
    15
100
AcDbLine
 10
179.3608154343
 20
104.9555170046
 30
0.0
 11
179.3608154343
 21
105.1060134816
 31
0.0
  0
LINE
  5
54
330
1F
100
AcDbEntity
  8
0
  6
Continuous
 62
     7
370
    15
100
AcDbLine
 10
176.8465743451
 20
100.9581781644
 30
0.0
 11
177.0563077128
 21
100.7452952481
 31
0.0
  0
LINE
  5
55
330
1F
100
AcDbEntity
  8
0
  6
Continuous
 62
     7
370
    15
100
AcDbLine
 10
182.8713784444
 20
101.8210724429
 30
0.0
 11
182.9707394558
 21
101.9219255505
 31
0.0
  0
LINE
  5
56
330
1F
100
AcDbEntity
  8
0
  6
Continuous
 62
     7
370
    15
100
AcDbLine
 10
109.4586569005
 20
95.2651553676
 30
0.0
 11
145.1605414416
 21
95.2651553676
 31
0.0
  0
LINE
  5
57
330
1F
100
AcDbEntity
  8
0
  6
Continuous
 62
     7
370
    15
100
AcDbLine
 10
122.2836569005
 20
111.2651553676
 30
0.0
 11
119.3836569005
 21
111.2651553676
 31
0.0
  0
LINE
  5
58
330
1F
100
AcDbEntity
  8
0
  6
Continuous
 62
     7
370
    15
100
AcDbLine
 10
145.1605414416
 20
111.2651553676
 30
0.0
 11
133.8836569005
 21
111.2651553676
 31
0.0
  0
LINE
  5
59
330
1F
100
AcDbEntity
  8
0
  6
Continuous
 62
     7
370
    15
100
AcDbLine
 10
108.0836569005
 20
96.6401553676
 30
0.0
 11
109.4586569005
 21
95.2651553676
 31
0.0
  0
ARC
  5
5A
330
1F
100
AcDbEntity
  8
0
  6
Continuous
 62
     7
370
    15
100
AcDbCircle
 10
160.0836569005
 20
69.2401553676
 30
0.0
 40
30.0
100
AcDbArc
 50
90.0
 51
119.830589676
  0
ARC
  5
5B
330
1F
100
AcDbEntity
  8
0
  6
Continuous
 62
     7
370
    15
100
AcDbCircle
 10
160.0836569005
 20
137.2901553676
 30
0.0
 40
30.0
100
AcDbArc
 50
240.169410324
 51
270.0
  0
LINE
  5
5C
330
1F
100
AcDbEntity
  8
0
  6
Continuous
 62
     7
370
    15
100
AcDbLine
 10
160.0836569005
 20
99.2401553676
 30
0.0
 11
176.8431984988
 21
99.2401553676
 31
0.0
  0
LINE
  5
5D
330
1F
100
AcDbEntity
  8
0
  6
Continuous
 62
     7
370
    15
100
AcDbLine
 10
176.5836569005
 20
107.2901553676
 30
0.0
 11
160.0836569005
 21
107.2901553676
 31
0.0
  0
ARC
  5
5E
330
1F
100
AcDbEntity
  8
0
  6
Continuous
 62
     7
370
    15
100
AcDbCircle
 10
176.9836569005
 20
98.8651553676
 30
0.0
 40
0.4000000000000206
100
AcDbArc
 50
80.0
 51
110.3326922875
  0
ARC
  5
5F
330
1F
100
AcDbEntity
  8
0
  6
Continuous
 62
     7
370
    15
100
AcDbCircle
 10
177.1499090903
 20
96.2401553676
 30
0.0
 40
3.000000000000003
100
AcDbArc
 50
80.0
 51
89.7670393573
  0
LINE
  5
60
330
1F
100
AcDbEntity
  8
0
  6
Continuous
 62
     7
370
    15
100
AcDbLine
 10
177.0531161715
 20
99.2590784688
 30
0.0
 11
177.1608064754
 21
99.2400897627
 31
0.0
  0
LINE
  5
61
330
1F
100
AcDbEntity
  8
0
  6
Continuous
 62
     7
370
    15
100
AcDbLine
 10
177.6708536233
 20
99.1945786266
 30
0.0
 11
179.6298431723
 21
98.8491559142
 31
0.0
  0
LINE
  5
62
330
1F
100
AcDbEntity
  8
0
  6
Continuous
 62
     7
370
    15
100
AcDbLine
 10
181.9601378442
 20
100.0883332675
 30
0.0
 11
182.525876646
 21
100.5667626717
 31
0.0
  0
CIRCLE
  5
63
330
1F
100
AcDbEntity
  8
0
  6
Continuous
 62
     7
370
    15
100
AcDbCircle
 10
179.8352572925
 20
104.3926728339
 30
0.0
 40
1.690941028489895
  0
CIRCLE
  5
64
330
1F
100
AcDbEntity
  8
0
  6
Continuous
 62
     7
370
    15
100
AcDbCircle
 10
179.8379751998
 20
104.4254641755
 30
0.0
 40
1.094065009864157
  0
CIRCLE
  5
65
330
1F
100
AcDbEntity
  8
0
  6
Continuous
 62
     7
370
    15
100
AcDbCircle
 10
179.8384504457
 20
104.4258247098
 30
0.0
 40
1.04523853330835
  0
SPLINE
  5
66
330
1F
100
AcDbEntity
  8
0
  6
Continuous
 62
     7
370
    15
100
AcDbSpline
210
0.0
220
0.0
230
1.0
 70
     8
 71
     3
 72
    16
 73
    12
 74
     0
 42
0.00000001
 43
0.00000001
 40
0.0
 40
0.0
 40
0.0
 40
0.0
 40
0.1242194589698042
 40
0.2489993218720861
 40
0.3727377574601047
 40
0.4952944629269062
 40
0.6171957750166287
 40
0.739103118177373
 40
0.8616668233223292
 40
0.9853929371716469
 40
1.0
 40
1.0
 40
1.0
 40
1.0
 10
179.7347356378264
 20
105.2830608743547
 30
0.0
 10
179.7201440046626
 20
105.3014833892882
 30
0.0
 10
179.6908949096101
 20
105.3384115305285
 30
0.0
 10
179.6270636442555
 20
105.3714278828831
 30
0.0
 10
179.5573348938581
 20
105.3824139884811
 30
0.0
 10
179.4882386352449
 20
105.3692581239177
 30
0.0
 10
179.4278859280725
 20
105.3341535024837
 30
0.0
 10
179.3825261936419
 20
105.2810090196977
 30
0.0
 10
179.3571307405431
 20
105.2156362649819
 30
0.0
 10
179.3550769868365
 20
105.1657021492733
 30
0.0
 10
179.359050316858
 20
105.1400842727364
 30
0.0
 10
179.3594698740652
 20
105.1373791954651
 30
0.0
  0
SPLINE
  5
67
330
1F
100
AcDbEntity
  8
0
  6
Continuous
 62
     7
370
    15
100
AcDbSpline
210
0.0
220
0.0
230
1.0
 70
     8
 71
     3
 72
    12
 73
     8
 74
     0
 42
0.00000001
 43
0.00000001
 40
0.0
 40
0.0
 40
0.0
 40
0.0
 40
0.2093653562127147
 40
0.4192620302417735
 40
0.6249526976743707
 40
0.8281707878026945
 40
1.0
 40
1.0
 40
1.0
 40
1.0
 10
179.3594698740652
 20
105.1373791954651
 30
0.0
 10
179.3590705422797
 20
105.0967604398048
 30
0.0
 10
179.3582708653027
 20
105.0154198480656
 30
0.0
 10
179.3067373403935
 20
104.9032826257123
 30
0.0
 10
179.2246205588318
 20
104.816672432672
 30
0.0
 10
179.1246863208163
 20
104.7639458478401
 30
0.0
 10
179.0536118744074
 20
104.75615987109
 30
0.0
 10
179.0210488721992
 20
104.7525926990484
 30
0.0
  0
SPLINE
  5
68
330
1F
100
AcDbEntity
  8
0
  6
Continuous
 62
     7
370
    15
100
AcDbSpline
210
0.0
220
0.0
230
1.0
 70
     8
 71
     3
 72
    16
 73
    12
 74
     0
 42
0.00000001
 43
0.00000001
 40
0.0
 40
0.0
 40
0.0
 40
0.0
 40
0.1231896672980222
 40
0.2479795154961616
 40
0.3717274745391644
 40
0.4942903479747892
 40
0.6161927293767957
 40
0.7380955470920493
 40
0.8606497678263932
 40
0.9843631542990893
 40
1.0
 40
1.0
 40
1.0
 40
1.0
 10
179.0210488721992
 20
104.7525926990484
 30
0.0
 10
178.998278167425
 20
104.7497054848493
 30
0.0
 10
178.9524409761958
 20
104.743893552778
 30
0.0
 10
178.8927170113442
 20
104.7069044607491
 30
0.0
 10
178.848768142737
 20
104.6534657229529
 30
0.0
 10
178.8258347360941
 20
104.5881534171479
 30
0.0
 10
178.8260667011372
 20
104.5189766977183
 30
0.0
 10
178.8491881222024
 20
104.4532312808401
 30
0.0
 10
178.8926399182011
 20
104.3981009528601
 30
0.0
 10
178.9345137046543
 20
104.3705297118882
 30
0.0
 10
178.958568177184
 20
104.3606598102962
 30
0.0
 10
178.9612673910246
 20
104.3595522834133
 30
0.0
  0
SPLINE
  5
69
330
1F
100
AcDbEntity
  8
0
  6
Continuous
 62
     7
370
    15
100
AcDbSpline
210
0.0
220
0.0
230
1.0
 70
     8
 71
     3
 72
    12
 73
     8
 74
     0
 42
0.00000001
 43
0.00000001
 40
0.0
 40
0.0
 40
0.0
 40
0.0
 40
0.2093652529605557
 40
0.4192619297278818
 40
0.6249525996332905
 40
0.8281706892237437
 40
1.0
 40
1.0
 40
1.0
 40
1.0
 10
178.9612673910246
 20
104.3595522834133
 30
0.0
 10
178.9958954465975
 20
104.3383952835932
 30
0.0
 10
179.0652394528111
 20
104.2960275819505
 30
0.0
 10
179.1367461041734
 20
104.1952466846224
 30
0.0
 10
179.1721061427666
 20
104.0820515813738
 30
0.0
 10
179.1701222330625
 20
103.971376444606
 30
0.0
 10
179.1430805965624
 20
103.9078037055746
 30
0.0
 10
179.1306913738734
 20
103.8786776273209
 30
0.0
  0
SPLINE
  5
6A
330
1F
100
AcDbEntity
  8
0
  6
Continuous
 62
     7
370
    15
100
AcDbSpline
210
0.0
220
0.0
230
1.0
 70
     8
 71
     3
 72
    16
 73
    12
 74
     0
 42
0.00000001
 43
0.00000001
 40
0.0
 40
0.0
 40
0.0
 40
0.0
 40
0.1243654221088452
 40
0.2491438717989342
 40
0.3728809614207555
 40
0.4954367981749028
 40
0.617337965070347
 40
0.7392459561097317
 40
0.8618110113605026
 40
0.9855389335649439
 40
1.0
 40
1.0
 40
1.0
 40
1.0
 10
179.1306913738734
 20
103.8786776273209
 30
0.0
 10
179.1223133073245
 20
103.8579070801127
 30
0.0
 10
179.105529349993
 20
103.8162970050365
 30
0.0
 10
179.1096121719421
 20
103.7473197103456
 30
0.0
 10
179.135574790586
 20
103.6836188469284
 30
0.0
 10
179.181944095029
 20
103.6316793872568
 30
0.0
 10
179.242734833116
 20
103.5973221978301
 30
0.0
 10
179.311402405397
 20
103.5839524552587
 30
0.0
 10
179.3803956017959
 20
103.5929774798973
 30
0.0
 10
179.4242041343615
 20
103.6143307294766
 30
0.0
 10
179.4440942183591
 20
103.6294430055383
 30
0.0
 10
179.44617565646
 20
103.6310244602567
 30
0.0
  0
SPLINE
  5
6B
330
1F
100
AcDbEntity
  8
0
  6
Continuous
 62
     7
370
    15
100
AcDbSpline
210
0.0
220
0.0
230
1.0
 70
     8
 71
     3
 72
    12
 73
     8
 74
     0
 42
0.00000001
 43
0.00000001
 40
0.0
 40
0.0
 40
0.0
 40
0.0
 40
0.2092378396812833
 40
0.4191378956981894
 40
0.6248316181529084
 40
0.8280490456278388
 40
1.0
 40
1.0
 40
1.0
 40
1.0
 10
179.44617565646
 20
103.6310244602567
 30
0.0
 10
179.4811801539872
 20
103.6494625160919
 30
0.0
 10
179.5512999346917
 20
103.6863969823208
 30
0.0
 10
179.6743130280799
 20
103.696253465097
 30
0.0
 10
179.7917965029115
 20
103.6699796103868
 30
0.0
 10
179.8897803819951
 20
103.6138750143768
 30
0.0
 10
179.9338309437107
 20
103.5599473853928
 30
0.0
 10
179.9540206411749
 20
103.5352307308997
 30
0.0
  0
SPLINE
  5
6C
330
1F
100
AcDbEntity
  8
0
  6
Continuous
 62
     7
370
    15
100
AcDbSpline
210
0.0
220
0.0
230
1.0
 70
     8
 71
     3
 72
    16
 73
    12
 74
     0
 42
0.00000001
 43
0.00000001
 40
0.0
 40
0.0
 40
0.0
 40
0.0
 40
0.124219458969677
 40
0.2489993218719549
 40
0.3727377574600824
 40
0.4952944629270118
 40
0.6171957750166381
 40
0.7391031181774186
 40
0.8616668233223703
 40
0.9853929371716869
 40
0.9999999999999999
 40
0.9999999999999999
 40
0.9999999999999999
 40
0.9999999999999999
 10
179.9540206411749
 20
103.5352307308997
 30
0.0
 10
179.9686122743386
 20
103.5180232437345
 30
0.0
 10
179.9978613693911
 20
103.4835306395097
 30
0.0
 10
180.0616926347456
 20
103.4531767161016
 30
0.0
 10
180.1314213851431
 20
103.4438592354559
 30
0.0
 10
180.2005176437563
 20
103.4575417601539
 30
0.0
 10
180.2608703509287
 20
103.4920337705738
 30
0.0
 10
180.3062300853594
 20
103.5434689209084
 30
0.0
 10
180.3316255384581
 20
103.6061378232808
 30
0.0
 10
180.3336792921649
 20
103.6535807630438
 30
0.0
 10
180.3297059621432
 20
103.677769391017
 30
0.0
 10
180.3292864049361
 20
103.6803235491519
 30
0.0
  0
SPLINE
  5
6D
330
1F
100
AcDbEntity
  8
0
  6
Continuous
 62
     7
370
    15
100
AcDbSpline
210
0.0
220
0.0
230
1.0
 70
     8
 71
     3
 72
    12
 73
     8
 74
     0
 42
0.00000001
 43
0.00000001
 40
0.0
 40
0.0
 40
0.0
 40
0.0
 40
0.2093653562126445
 40
0.4192620302416496
 40
0.6249526976741504
 40
0.8281707878026362
 40
1.0
 40
1.0
 40
1.0
 40
1.0
 10
180.3292864049361
 20
103.6803235491519
 30
0.0
 10
180.3296857367216
 20
103.7189140781808
 30
0.0
 10
180.3304854136985
 20
103.7961930695166
 30
0.0
 10
180.3820189386077
 20
103.9052863246992
 30
0.0
 10
180.4641357201693
 20
103.9924757521104
 30
0.0
 10
180.5640699581849
 20
104.0488781106347
 30
0.0
 10
180.6351444045939
 20
104.0604137934341
 30
0.0
 10
180.6677074068021
 20
104.065698906206
 30
0.0
  0
SPLINE
  5
6E
330
1F
100
AcDbEntity
  8
0
  6
Continuous
 62
     7
370
    15
100
AcDbSpline
210
0.0
220
0.0
230
1.0
 70
     8
 71
     3
 72
    16
 73
    12
 74
     0
 42
0.00000001
 43
0.00000001
 40
0.0
 40
0.0
 40
0.0
 40
0.0
 40
0.1231896672979469
 40
0.2479795154961001
 40
0.3717274745391667
 40
0.4942903479748094
 40
0.6161927293768262
 40
0.738095547092144
 40
0.8606497678265529
 40
0.9843631542993312
 40
1.0
 40
1.0
 40
1.0
 40
1.0
 10
180.6677074068021
 20
104.065698906206
 30
0.0
 10
180.6904781115763
 20
104.0697914080429
 30
0.0
 10
180.7363153028054
 20
104.078029571559
 30
0.0
 10
180.796039267657
 20
104.1176819576136
 30
0.0
 10
180.8399881362644
 20
104.1727983631942
 30
0.0
 10
180.8629215429072
 20
104.2386468098199
 30
0.0
 10
180.8626895778641
 20
104.3072201990384
 30
0.0
 10
180.8395681567989
 20
104.3712650194866
 30
0.0
 10
180.7961163608002
 20
104.4236990160411
 30
0.0
 10
180.7542425743469
 20
104.4487738233635
 30
0.0
 10
180.7301881018172
 20
104.4572044401476
 30
0.0
 10
180.7274888879767
 20
104.4581504612037
 30
0.0
  0
SPLINE
  5
6F
330
1F
100
AcDbEntity
  8
0
  6
Continuous
 62
     7
370
    15
100
AcDbSpline
210
0.0
220
0.0
230
1.0
 70
     8
 71
     3
 72
    12
 73
     8
 74
     0
 42
0.00000001
 43
0.00000001
 40
0.0
 40
0.0
 40
0.0
 40
0.0
 40
0.2093652529605212
 40
0.4192619297277897
 40
0.6249525996332131
 40
0.828170689223663
 40
1.0
 40
1.0
 40
1.0
 40
1.0
 10
180.7274888879767
 20
104.4581504612037
 30
0.0
 10
180.6928608324038
 20
104.4772792353451
 30
0.0
 10
180.6235168261902
 20
104.5155853374629
 30
0.0
 10
180.552010174828
 20
104.6133222664278
 30
0.0
 10
180.5166501362347
 20
104.7270966022366
 30
0.0
 10
180.5186340459385
 20
104.8414475120098
 30
0.0
 10
180.5456756824388
 20
104.9087699579975
 30
0.0
 10
180.5580649051279
 20
104.9396139779335
 30
0.0
  0
SPLINE
  5
70
330
1F
100
AcDbEntity
  8
0
  6
Continuous
 62
     7
370
    15
100
AcDbSpline
210
0.0
220
0.0
230
1.0
 70
     8
 71
     3
 72
    16
 73
    12
 74
     0
 42
0.00000001
 43
0.00000001
 40
0.0
 40
0.0
 40
0.0
 40
0.0
 40
0.1243654221088524
 40
0.2491438717989221
 40
0.3728809614208081
 40
0.4954367981749812
 40
0.6173379650704978
 40
0.7392459561097833
 40
0.8618110113606475
 40
0.9855389335651159
 40
1.0
 40
1.0
 40
1.0
 40
1.0
 10
180.5580649051279
 20
104.9396139779335
 30
0.0
 10
180.5664429716768
 20
104.961600933073
 30
0.0
 10
180.5832269290082
 20
105.0056478638005
 30
0.0
 10
180.5791441070592
 20
105.0772874601461
 30
0.0
 10
180.5531814884152
 20
105.1426556661365
 30
0.0
 10
180.5068121839722
 20
105.1951204418985
 30
0.0
 10
180.4460214458852
 20
105.2288637049117
 30
0.0
 10
180.3773538736042
 20
105.2405228770956
 30
0.0
 10
180.3083606772053
 20
105.2287929349518
 30
0.0
 10
180.2645521446395
 20
105.2049492581974
 30
0.0
 10
180.2446620606422
 20
105.1884091567557
 30
0.0
 10
180.2425806225413
 20
105.1866782843603
 30
0.0
  0
SPLINE
  5
71
330
1F
100
AcDbEntity
  8
0
  6
Continuous
 62
     7
370
    15
100
AcDbSpline
210
0.0
220
0.0
230
1.0
 70
     8
 71
     3
 72
    12
 73
     8
 74
     0
 42
0.00000001
 43
0.00000001
 40
0.0
 40
0.0
 40
0.0
 40
0.0
 40
0.2092378396813611
 40
0.4191378956982327
 40
0.6248316181529369
 40
0.8280490456279562
 40
1.0
 40
1.0
 40
1.0
 40
1.0
 10
180.2425806225413
 20
105.1866782843603
 30
0.0
 10
180.2075761250141
 20
105.1662131785051
 30
0.0
 10
180.1374563443096
 20
105.1252181968304
 30
0.0
 10
180.0144432509213
 20
105.1123162748923
 30
0.0
 10
179.8969597760898
 20
105.1391671278278
 30
0.0
 10
179.7989758970061
 20
105.1989466482502
 30
0.0
 10
179.7549253352905
 20
105.2566251034041
 30
0.0
 10
179.7347356378264
 20
105.2830608743547
 30
0.0
  0
LINE
  5
72
330
1F
100
AcDbEntity
  8
0
  6
Continuous
 62
     7
370
    15
100
AcDbLine
 10
180.3292864049
 20
103.6429316121
 30
0.0
 11
180.3292864049
 21
103.6803235492
 31
0.0
  0
ARC
  5
73
330
1F
100
AcDbEntity
  8
0
  6
Continuous
 62
     7
370
    15
100
AcDbCircle
 10
179.8628557831
 20
104.2673099647
 30
0.0
 40
1.681550192088746
100
AcDbArc
 50
278.4370625448
 51
359.6703263715
  0
ARC
  5
74
330
1F
100
AcDbEntity
  8
0
  6
Continuous
 62
     7
370
    15
100
AcDbCircle
 10
179.8094990838
 20
104.2610160379
 30
0.0
 40
1.665124377784858
100
AcDbArc
 50
180.1163543005
 51
231.0301918498
  0
ARC
  5
75
330
1F
100
AcDbEntity
  8
0
  6
Continuous
 62
     7
370
    15
100
AcDbCircle
 10
178.8186329128
 20
103.8867728613
 30
0.0
 40
0.3505063616713282
100
AcDbArc
 50
332.9119192747
 51
359.9882962074
  0
ARC
  5
76
330
1F
100
AcDbEntity
  8
0
  6
Continuous
 62
     7
370
    15
100
AcDbCircle
 10
180.6579363049
 20
104.1147353779
 30
0.0
 40
0.2043960329003901
100
AcDbArc
 50
23.9500492262
 51
70.1058569277
  0
LINE
  5
77
330
1F
100
AcDbEntity
  8
0
  6
Continuous
 62
     7
370
    15
100
AcDbLine
 10
180.727488888
 20
104.3069336517
 30
0.0
 11
180.727488888
 21
104.4581504612
 31
0.0
  0
ARC
  5
78
330
1F
100
AcDbEntity
  8
0
  6
Continuous
 62
     7
370
    15
100
AcDbCircle
 10
179.0317548059
 20
104.3958069883
 30
0.0
 40
0.2055534612845487
100
AcDbArc
 50
92.9855127743
 51
156.2031764264
  0
ARC
  5
79
330
1F
100
AcDbEntity
  8
0
  6
Continuous
 62
     7
370
    15
100
AcDbCircle
 10
180.8742805615
 20
104.6297957675
 30
0.0
 40
0.3546656752513146
100
AcDbArc
 50
180.1983669012
 51
245.5507262933
  0
ARC
  5
7A
330
1F
100
AcDbEntity
  8
0
  6
Continuous
 62
     7
370
    15
100
AcDbCircle
 10
179.0035659674
 20
104.9579109149
 30
0.0
 40
0.3572574875129987
100
AcDbArc
 50
272.8049710124
 51
359.6160696823
  0
ARC
  5
7B
330
1F
100
AcDbEntity
  8
0
  6
Continuous
 62
     7
370
    15
100
AcDbCircle
 10
180.3739411804
 20
104.875291699
 30
0.0
 40
0.2071471777900826
100
AcDbArc
 50
22.5046363735
 51
129.356317221
  0
LINE
  5
7C
330
1F
100
AcDbEntity
  8
0
  6
Continuous
 62
     7
370
    15
100
AcDbLine
 10
180.2425806225
 20
105.0354614749
 30
0.0
 11
180.2425806225
 21
105.1866782844
 31
0.0
  0
ARC
  5
7D
330
1F
100
AcDbEntity
  8
0
  6
Continuous
 62
     7
370
    15
100
AcDbCircle
 10
179.562814163
 20
105.0164224381
 30
0.0
 40
0.2069088322880996
100
AcDbArc
 50
33.8082380498
 51
167.4929165349
  0
ARC
  5
7E
330
1F
100
AcDbEntity
  8
0
  6
Continuous
 62
     7
370
    15
100
AcDbCircle
 10
180.0362420956
 20
105.3349962511
 30
0.0
 40
0.3637260918307008
100
AcDbArc
 50
214.0101788575
 51
304.5615319776
  0
LINE
  5
7F
330
1F
100
AcDbEntity
  8
0
  6
Continuous
 62
     7
370
    15
100
AcDbLine
 10
177.2031161715
 20
100.8445463562
 30
0.0
 11
182.7531161715
 21
101.8082937422
 31
0.0
  0
LINE
  5
80
330
1F
100
AcDbEntity
  8
0
  6
Continuous
 62
     7
370
    15
100
AcDbLine
 10
177.1336569005
 20
101.1923825515
 30
0.0
 11
177.2031161715
 21
100.8445463562
 31
0.0
  0
LINE
  5
81
330
1F
100
AcDbEntity
  8
0
  6
Continuous
 62
     7
370
    15
100
AcDbLine
 10
177.2207976241
 20
101.2859187381
 30
0.0
 11
177.1336569005
 21
101.1923825515
 31
0.0
  0
SPLINE
  5
82
330
1F
100
AcDbEntity
  8
0
  6
Continuous
 62
     7
370
    15
100
AcDbSpline
210
0.0
220
0.0
230
1.0
 70
     8
 71
     3
 72
    11
 73
     7
 74
     0
 42
0.00000001
 43
0.00000001
 40
0.0
 40
0.0
 40
0.0
 40
0.0
 40
0.0074552814711504
 40
0.3066092506034601
 40
0.6526506519390399
 40
1.0
 40
1.0
 40
1.0
 40
1.0
 10
177.6630525287351
 20
101.8182764298033
 30
0.0
 10
177.6620661151669
 20
101.816965516419
 30
0.0
 10
177.6214984282037
 20
101.7630523044321
 30
0.0
 10
177.5293225791264
 20
101.6442908731927
 30
0.0
 10
177.3762114743584
 20
101.457637954652
 30
0.0
 10
177.2726673461453
 20
101.3432304128374
 30
0.0
 10
177.2207976241138
 20
101.2859187381473
 30
0.0
  0
LINE
  5
83
330
1F
100
AcDbEntity
  8
0
  6
Continuous
 62
     7
370
    15
100
AcDbLine
 10
177.1336569005
 20
101.1923825515
 30
0.0
 11
176.7336569005
 21
101.2324848804
 31
0.0
  0
LINE
  5
84
330
1F
100
AcDbEntity
  8
0
  6
Continuous
 62
     7
370
    15
100
AcDbLine
 10
176.7336569005
 20
106.7824848804
 30
0.0
 11
176.7336569005
 21
101.2324848804
 31
0.0
  0
ARC
  5
85
330
1F
100
AcDbEntity
  8
0
  6
Continuous
 62
     7
370
    15
100
AcDbCircle
 10
177.1317962435
 20
101.2362639661
 30
0.0
 40
0.3981572779548129
100
AcDbArc
 50
180.5438275858
 51
280.3187985039
  0
ARC
  5
86
330
1F
100
AcDbEntity
  8
0
  6
Continuous
 62
     7
370
    15
100
AcDbCircle
 10
177.1335996684
 20
100.821796442
 30
0.0
 40
0.108749616372216
100
AcDbArc
 50
224.7054036285
 51
279.9398730723
  0
LINE
  5
87
330
1F
100
AcDbEntity
  8
0
  6
Continuous
 62
     7
370
    15
100
AcDbLine
 10
177.1523714412
 20
100.7146792184
 30
0.0
 11
178.1411618185
 21
100.8863808655
 31
0.0
  0
SPLINE
  5
88
330
1F
100
AcDbEntity
  8
0
  6
Continuous
 62
     7
370
    15
100
AcDbSpline
210
0.0
220
0.0
230
1.0
 70
     8
 71
     3
 72
    12
 73
     8
 74
     0
 42
0.00000001
 43
0.00000001
 40
0.0
 40
0.0
 40
0.0
 40
0.0
 40
0.0481906270125632
 40
0.4227687915308509
 40
0.5661203835287627
 40
0.9912408780624059
 40
1.0
 40
1.0
 40
1.0
 40
1.0
 10
182.7076457264519
 20
102.1394462574635
 30
0.0
 10
182.7000644826873
 20
102.145186797623
 30
0.0
 10
182.6335554234909
 20
102.1955476535905
 30
0.0
 10
182.5383894368506
 20
102.2723085830633
 30
0.0
 10
182.3845214618124
 20
102.4038890946218
 30
0.0
 10
182.2932099554447
 20
102.4870507173655
 30
0.0
 10
182.2313265773394
 20
102.5462469204045
 30
0.0
 10
182.230077281373
 20
102.5474419679269
 30
0.0
  0
SPLINE
  5
89
330
1F
100
AcDbEntity
  8
0
  6
Continuous
 62
     7
370
    15
100
AcDbSpline
210
0.0
220
0.0
230
1.0
 70
     8
 71
     3
 72
    10
 73
     6
 74
     0
 42
0.00000001
 43
0.00000001
 40
0.0
 40
0.0
 40
0.0
 40
0.0
 40
0.3658097627759489
 40
0.9379269162050651
 40
1.0
 40
1.0
 40
1.0
 40
1.0
 10
182.707645726451
 20
102.1394462574641
 30
0.0
 10
182.7088124629256
 20
102.1302976562758
 30
0.0
 10
182.7118039455349
 20
102.1068408758032
 30
0.0
 10
182.7063109137139
 20
102.0824884047012
 30
0.0
 10
182.7020577787794
 20
102.0675311830318
 30
0.0
 10
182.7016414917007
 20
102.0660672045289
 30
0.0
  0
ARC
  5
8A
330
1F
100
AcDbEntity
  8
0
  6
Continuous
 62
     7
370
    15
100
AcDbCircle
 10
178.5290052577
 20
102.8850400431
 30
0.0
 40
0.99539319474513
100
AcDbArc
 50
180.5438275747
 51
280.3187985309
  0
SPLINE
  5
8B
330
1F
100
AcDbEntity
  8
0
  6
Continuous
 62
     7
370
    15
100
AcDbSpline
210
0.0
220
0.0
230
1.0
 70
     8
 71
     3
 72
    10
 73
     6
 74
     0
 42
0.00000001
 43
0.00000001
 40
0.0
 40
0.0
 40
0.0
 40
0.0
 40
0.0620730837953904
 40
0.634190237212113
 40
1.0
 40
1.0
 40
1.0
 40
1.0
 10
182.7872260336046
 20
102.1665133461708
 30
0.0
 10
182.7856798652483
 20
102.1656740924287
 30
0.0
 10
182.7698829236967
 20
102.1570995783676
 30
0.0
 10
182.7439938648521
 20
102.144620515949
 30
0.0
 10
182.7178444913561
 20
102.1408980799823
 30
0.0
 10
182.7076457264519
 20
102.1394462574635
 30
0.0
  0
LINE
  5
8C
330
1F
100
AcDbEntity
  8
0
  6
Continuous
 62
     7
370
    15
100
AcDbLine
 10
182.6836569005
 20
107.7061299376
 30
0.0
 11
183.0836569005
 21
107.7462322664
 31
0.0
  0
LINE
  5
8D
330
1F
100
AcDbEntity
  8
0
  6
Continuous
 62
     7
370
    15
100
AcDbLine
 10
183.0836569005
 20
102.1962322664
 30
0.0
 11
183.0836569005
 21
107.7462322664
 31
0.0
  0
LINE
  5
8E
330
1F
100
AcDbEntity
  8
0
  6
Continuous
 62
     7
370
    15
100
AcDbLine
 10
182.5965161768
 20
107.5951210212
 30
0.0
 11
182.6836569005
 21
107.7061299376
 31
0.0
  0
ARC
  5
8F
330
1F
100
AcDbEntity
  8
0
  6
Continuous
 62
     7
370
    15
100
AcDbCircle
 10
182.6879658516
 20
102.1985915879
 30
0.0
 40
0.3956980825405046
100
AcDbArc
 50
279.4767018403
 51
359.6583759916
  0
LINE
  5
90
330
1F
100
AcDbEntity
  8
0
  6
Continuous
 62
     7
370
    15
100
AcDbLine
 10
178.7073050781
 20
101.9057460187
 30
0.0
 11
181.4573050781
 21
102.3832785073
 31
0.0
  0
LINE
  5
91
330
1F
100
AcDbEntity
  8
0
  6
Continuous
 62
     7
370
    15
100
AcDbLine
 10
181.1100087228
 20
107.0729711281
 30
0.0
 11
178.3600087228
 21
106.5954386395
 31
0.0
  0
ARC
  5
92
330
1F
100
AcDbEntity
  8
0
  6
Continuous
 62
     7
370
    15
100
AcDbCircle
 10
181.2883085427
 20
106.0936771034
 30
0.0
 40
0.9953931949452386
100
AcDbArc
 50
0.5438275897
 51
100.3187985
  0
LINE
  5
93
330
1F
100
AcDbEntity
  8
0
  6
Continuous
 62
     7
370
    15
100
AcDbLine
 10
182.2836569005
 20
103.3531248177
 30
0.0
 11
182.2836569005
 21
106.1031248177
 31
0.0
  0
ARC
  5
94
330
1F
100
AcDbEntity
  8
0
  6
Continuous
 62
     7
370
    15
100
AcDbCircle
 10
181.2944292784
 20
103.3590231215
 30
0.0
 40
0.9892452063524905
100
AcDbArc
 50
279.4767018403
 51
359.6583759873
  0
LINE
  5
95
330
1F
100
AcDbEntity
  8
0
  6
Continuous
 62
     7
370
    15
100
AcDbLine
 10
177.5336569005
 20
105.6255923291
 30
0.0
 11
177.5336569002
 21
102.8755923291
 31
0.0
  0
ARC
  5
96
330
1F
100
AcDbEntity
  8
0
  6
Continuous
 62
     7
370
    15
100
AcDbCircle
 10
178.5228845226
 20
105.6196940253
 30
0.0
 40
0.9892452063524212
100
AcDbArc
 50
99.4767018403
 51
179.6583759873
  0
CIRCLE
  5
97
330
1F
100
AcDbEntity
  8
0
  6
Continuous
 62
     7
370
    15
100
AcDbCircle
 10
179.8885807343
 20
104.4854992155
 30
0.0
 40
1.904927743387189
  0
ARC
  5
98
330
1F
100
AcDbEntity
  8
0
  6
Continuous
 62
     7
370
    15
100
AcDbCircle
 10
179.9086569005
 20
104.3347803694
 30
0.0
 40
1.925942864074236
100
AcDbArc
 50
2.6623496989
 51
177.3376503065
  0
SPLINE
  5
99
330
1F
100
AcDbEntity
  8
0
  6
Continuous
 62
     7
370
    15
100
AcDbSpline
210
0.0
220
0.0
230
1.0
 70
     8
 71
     3
 72
    12
 73
     8
 74
     0
 42
0.00000001
 43
0.00000001
 40
0.0
 40
0.0
 40
0.0
 40
0.0
 40
0.0087591219375928
 40
0.4338796164712513
 40
0.57723120846917
 40
0.9518093729874666
 40
1.0
 40
1.0
 40
1.0
 40
1.0
 10
177.5872365195654
 20
106.3840618922489
 30
0.0
 10
177.585987223599
 20
106.3849315607233
 30
0.0
 10
177.5241038454937
 20
106.428010242223
 30
0.0
 10
177.4327923391261
 20
106.4957594788535
 30
0.0
 10
177.2789243640879
 20
106.6184771304378
 30
0.0
 10
177.1837583774476
 20
106.6989973739338
 30
0.0
 10
177.1172493182512
 20
106.7585562825033
 30
0.0
 10
177.1096680744866
 20
106.7653452915448
 30
0.0
  0
SPLINE
  5
9A
330
1F
100
AcDbEntity
  8
0
  6
Continuous
 62
     7
370
    15
100
AcDbSpline
210
0.0
220
0.0
230
1.0
 70
     8
 71
     3
 72
    10
 73
     6
 74
     0
 42
0.00000001
 43
0.00000001
 40
0.0
 40
0.0
 40
0.0
 40
0.0
 40
0.0620730837952746
 40
0.6341902372119128
 40
1.0
 40
1.0
 40
1.0
 40
1.0
 10
177.0300877673339
 20
106.7527659601193
 30
0.0
 10
177.0316339356902
 20
106.7532962591694
 30
0.0
 10
177.0474308772417
 20
106.7587142352036
 30
0.0
 10
177.0733199360862
 20
106.7662124122058
 30
0.0
 10
177.0994693095824
 20
106.765588593132
 30
0.0
 10
177.1096680744866
 20
106.7653452915448
 30
0.0
  0
SPLINE
  5
9B
330
1F
100
AcDbEntity
  8
0
  6
Continuous
 62
     7
370
    15
100
AcDbSpline
210
0.0
220
0.0
230
1.0
 70
     8
 71
     3
 72
    11
 73
     7
 74
     0
 42
0.00000001
 43
0.00000001
 40
0.0
 40
0.0
 40
0.0
 40
0.0
 40
0.3473493480609742
 40
0.6933907493965141
 40
0.992544718528845
 40
1.0
 40
1.0
 40
1.0
 40
1.0
 10
182.5965161768248
 20
107.5951210211869
 30
0.0
 10
182.5446464547933
 20
107.5306790864004
 30
0.0
 10
182.44110232658
 20
107.4020378734439
 30
0.0
 10
182.287991221812
 20
107.2292936538013
 30
0.0
 10
182.1958153727348
 20
107.1316910504522
 30
0.0
 10
182.1552476857716
 20
107.0903798786859
 30
0.0
 10
182.1542612722033
 20
107.0893753870966
 30
0.0
  0
SPLINE
  5
9C
330
1F
100
AcDbEntity
  8
0
  6
Continuous
 62
     7
370
    15
100
AcDbSpline
210
0.0
220
0.0
230
1.0
 70
     8
 71
     3
 72
    10
 73
     6
 74
     0
 42
0.00000001
 43
0.00000001
 40
0.0
 40
0.0
 40
0.0
 40
0.0
 40
0.3658097627759464
 40
0.9379269162051312
 40
1.0
 40
1.0
 40
1.0
 40
1.0
 10
177.1096680744874
 20
106.765345291544
 30
0.0
 10
177.1085013380128
 20
106.7761890168384
 30
0.0
 10
177.1055098554035
 20
106.8039920523515
 30
0.0
 10
177.1110028872245
 20
106.83332540887
 30
0.0
 10
177.1152560221591
 20
106.8514391685663
 30
0.0
 10
177.1156723092377
 20
106.8532121017612
 30
0.0
  0
LINE
  5
9D
330
1F
100
AcDbEntity
  8
0
  6
Continuous
 62
     7
370
    15
100
AcDbLine
 10
182.6141976294
 20
108.1341707906
 30
0.0
 11
177.0641976294
 21
107.1704234045
 31
0.0
  0
LINE
  5
9E
330
1F
100
AcDbEntity
  8
0
  6
Continuous
 62
     7
370
    15
100
AcDbLine
 10
182.6836569005
 20
107.7061299376
 30
0.0
 11
182.6141976294
 21
108.1341707906
 31
0.0
  0
ARC
  5
9F
330
1F
100
AcDbEntity
  8
0
  6
Continuous
 62
     7
370
    15
100
AcDbCircle
 10
177.1293479493
 20
106.7801255588
 30
0.0
 40
0.3956980825555713
100
AcDbArc
 50
99.4767018421
 51
179.6583759855
  0
ARC
  5
A0
330
1F
100
AcDbEntity
  8
0
  6
Continuous
 62
     7
370
    15
100
AcDbCircle
 10
182.6855175574
 20
107.7424531807
 30
0.0
 40
0.3981572780013799
100
AcDbArc
 50
0.5438275937
 51
100.318798496
  0
LINE
  5
A1
330
1F
100
AcDbEntity
  8
0
  6
Continuous
 62
     7
370
    15
100
AcDbLine
 10
145.1605414416
 20
95.2651553676
 30
0.0
 11
145.1605414416
 21
111.2651553676
 31
0.0
  0
LINE
  5
A2
330
1F
100
AcDbEntity
  8
0
  6
Continuous
 62
     7
370
    15
100
AcDbLine
 10
109.4586569005
 20
95.2651553676
 30
0.0
 11
109.4586569005
 21
109.4651553676
 31
0.0
  0
LINE
  5
A3
330
1F
100
AcDbEntity
  8
0
  6
Continuous
 62
     7
370
    15
100
AcDbLine
 10
117.5836569005
 20
109.4651553676
 30
0.0
 11
109.4586569005
 21
109.4651553676
 31
0.0
  0
LINE
  5
A4
330
1F
100
AcDbEntity
  8
0
  6
Continuous
 62
     7
370
    15
100
AcDbLine
 10
119.3836569005
 20
111.2651553676
 30
0.0
 11
117.5836569005
 21
109.4651553676
 31
0.0
  0
LINE
  5
A5
330
1F
100
AcDbEntity
  8
0
  6
Continuous
 62
     7
370
    15
100
AcDbLine
 10
124.0836569005
 20
109.4651553676
 30
0.0
 11
122.2836569005
 21
111.2651553676
 31
0.0
  0
LINE
  5
A6
330
1F
100
AcDbEntity
  8
0
  6
Continuous
 62
     7
370
    15
100
AcDbLine
 10
132.0836569005
 20
109.4651553676
 30
0.0
 11
124.0836569005
 21
109.4651553676
 31
0.0
  0
LINE
  5
A7
330
1F
100
AcDbEntity
  8
0
  6
Continuous
 62
     7
370
    15
100
AcDbLine
 10
133.8836569005
 20
111.2651553676
 30
0.0
 11
132.0836569005
 21
109.4651553676
 31
0.0
  0
LINE
  5
A8
330
1F
100
AcDbEntity
  8
0
  6
Continuous
 62
     7
370
    15
100
AcDbLine
 10
108.0836569005
 20
96.6401553676
 30
0.0
 11
108.0836569005
 21
109.4651553676
 31
0.0
  0
SPLINE
  5
A9
330
1F
100
AcDbEntity
  8
0
  6
Continuous
 62
     7
370
    15
100
AcDbSpline
210
0.0
220
0.0
230
1.0
 70
    24
 71
     3
 72
    10
 73
     6
 74
     0
 42
0.00000001
 43
0.00000001
 40
0.0
 40
0.0
 40
0.0
 40
0.0
 40
0.5
 40
0.5
 40
1.0
 40
1.0
 40
1.0
 40
1.0
 10
109.4586569004693
 20
109.4651553676054
 30
0.0
 10
109.186416713152
 20
109.4651553676054
 30
0.0
 10
108.9280526049641
 20
109.4651553676054
 30
0.0
 10
108.4619865871487
 20
109.4651553676054
 30
0.0
 10
108.253396084021
 20
109.4651553676054
 30
0.0
 10
108.0836569004692
 20
109.4651553676054
 30
0.0
  0
SPLINE
  5
AA
330
1F
100
AcDbEntity
  8
0
  6
Continuous
 62
     7
370
    15
100
AcDbSpline
210
0.0
220
0.0
230
1.0
 70
     8
 71
     3
 72
    22
 73
    18
 74
     0
 42
0.00000001
 43
0.00000001
 40
0.0
 40
0.0
 40
0.0
 40
0.0
 40
0.125
 40
0.125
 40
0.25
 40
0.25
 40
0.375
 40
0.375
 40
0.5
 40
0.5
 40
0.625
 40
0.625
 40
0.75
 40
0.75
 40
0.875
 40
0.875
 40
1.0
 40
1.0
 40
1.0
 40
1.0
 10
177.933480614724
 20
100.6413576292385
 30
0.0
 10
177.83755411266
 20
100.5597509614163
 30
0.0
 10
177.7280411543627
 20
100.4981336670448
 30
0.0
 10
177.4903311850694
 20
100.418252052842
 30
0.0
 10
177.3643818031694
 20
100.4011750796102
 30
0.0
 10
177.1141287417782
 20
100.4136469026247
 30
0.0
 10
176.9894307150404
 20
100.4434879473173
 30
0.0
 10
176.7608372284239
 20
100.5448341068707
 30
0.0
 10
176.6550465138853
 20
100.6173555607346
 30
0.0
 10
176.4796728042434
 20
100.7926862086241
 30
0.0
 10
176.4081196745218
 20
100.8974989520214
 30
0.0
 10
176.3104718850617
 20
101.1222657582713
 30
0.0
 10
176.2832782430881
 20
101.2444367024416
 30
0.0
 10
176.2769107240069
 20
101.4882575285617
 30
0.0
 10
176.2974719730684
 20
101.6110446644666
 30
0.0
 10
176.3837708909768
 20
101.8416095640924
 30
0.0
 10
176.4487967990856
 20
101.9485087245918
 30
0.0
 10
176.5331208664379
 20
102.0417173775246
 30
0.0
  0
SPLINE
  5
AB
330
1F
100
AcDbEntity
  8
0
  6
Continuous
 62
     7
370
    15
100
AcDbSpline
210
0.0
220
0.0
230
1.0
 70
     8
 71
     3
 72
     8
 73
     4
 74
     0
 42
0.00000001
 43
0.00000001
 40
0.0
 40
0.0
 40
0.0
 40
0.0
 40
1.0
 40
1.0
 40
1.0
 40
1.0
 10
179.4313985760311
 20
99.14343966793137
 30
0.0
 10
178.8447558280719
 20
99.24682111344016
 30
0.0
 10
178.2577849855026
 20
99.35779147269989
 30
0.0
 10
177.6708536232746
 20
99.47812147393044
 30
0.0
  0
SPLINE
  5
AC
330
1F
100
AcDbEntity
  8
0
  6
Continuous
 62
     7
370
    15
100
AcDbSpline
210
0.0
220
0.0
230
1.0
 70
     8
 71
     3
 72
     8
 73
     4
 74
     0
 42
0.00000001
 43
0.00000001
 40
0.0
 40
0.0
 40
0.0
 40
0.0
 40
1.0
 40
1.0
 40
1.0
 40
1.0
 10
177.6708536232746
 20
99.47812147393078
 30
0.0
 10
177.5346953395509
 20
99.50603602664071
 30
0.0
 10
177.3977265115465
 20
99.52524469911793
 30
0.0
 10
177.2600389014782
 20
99.5361129020871
 30
0.0
  0
SPLINE
  5
AD
330
1F
100
AcDbEntity
  8
0
  6
Continuous
 62
     7
370
    15
100
AcDbSpline
210
0.0
220
0.0
230
1.0
 70
     8
 71
     3
 72
     8
 73
     4
 74
     0
 42
0.00000001
 43
0.00000001
 40
0.0
 40
0.0
 40
0.0
 40
0.0
 40
1.0
 40
1.0
 40
1.0
 40
1.0
 10
177.2600389014782
 20
99.5361129020871
 30
0.0
 10
177.1910296591786
 20
99.5510190894643
 30
0.0
 10
177.1220550090593
 20
99.56607070057082
 30
0.0
 10
177.053116171536
 20
99.58127432722435
 30
0.0
  0
SPLINE
  5
AE
330
1F
100
AcDbEntity
  8
0
  6
Continuous
 62
     7
370
    15
100
AcDbSpline
210
0.0
220
0.0
230
1.0
 70
     8
 71
     3
 72
     8
 73
     4
 74
     0
 42
0.00000001
 43
0.00000001
 40
0.0
 40
0.0
 40
0.0
 40
0.0
 40
1.0
 40
1.0
 40
1.0
 40
1.0
 10
177.053116171536
 20
99.58127432722435
 30
0.0
 10
176.9691650117182
 20
99.59978873995391
 30
0.0
 10
176.882208507899
 20
99.59242271466448
 30
0.0
 10
176.805788095149
 20
99.56067440052605
 30
0.0
  0
SPLINE
  5
AF
330
1F
100
AcDbEntity
  8
0
  6
Continuous
 62
     7
370
    15
100
AcDbSpline
210
0.0
220
0.0
230
1.0
 70
     8
 71
     3
 72
    50
 73
    46
 74
     0
 42
0.00000001
 43
0.00000001
 40
0.0
 40
0.0
 40
0.0
 40
0.0
 40
0.1249999999999999
 40
0.1249999999999999
 40
0.1874999999999998
 40
0.1874999999999998
 40
0.2499999999999997
 40
0.2499999999999997
 40
0.3749999999999996
 40
0.3749999999999996
 40
0.4374999999999999
 40
0.4374999999999999
 40
0.5000000000000002
 40
0.5000000000000002
 40
0.5312500000000001
 40
0.5312500000000001
 40
0.5624999999999999
 40
0.5624999999999999
 40
0.5937499999999998
 40
0.5937499999999998
 40
0.6249999999999997
 40
0.6249999999999997
 40
0.6406249999999996
 40
0.6406249999999996
 40
0.6562499999999993
 40
0.6562499999999993
 40
0.6718749999999992
 40
0.6718749999999992
 40
0.6874999999999991
 40
0.6874999999999991
 40
0.703124999999999
 40
0.703124999999999
 40
0.7187499999999989
 40
0.7187499999999989
 40
0.7499999999999988
 40
0.7499999999999988
 40
0.7812499999999986
 40
0.7812499999999986
 40
0.8124999999999984
 40
0.8124999999999984
 40
0.8749999999999989
 40
0.8749999999999989
 40
0.9374999999999994
 40
0.9374999999999994
 40
1.0
 40
1.0
 40
1.0
 40
1.0
 10
176.805788095149
 20
99.5606744005255
 30
0.0
 10
175.8559591551023
 20
99.61411619712061
 30
0.0
 10
174.930207531042
 20
99.70476577256467
 30
0.0
 10
173.5741999337688
 20
99.93772248266934
 30
0.0
 10
173.1276074048193
 20
100.0317821917495
 30
0.0
 10
172.2438751368607
 20
100.2608064799005
 30
0.0
 10
171.8047040203517
 20
100.3966230542247
 30
0.0
 10
170.5159685849792
 20
100.8696495215277
 30
0.0
 10
169.6959248583569
 20
101.2714516526825
 30
0.0
 10
168.5004817590287
 20
102.0118608064733
 30
0.0
 10
168.1060098165859
 20
102.2829689652303
 30
0.0
 10
167.3448112445484
 20
102.8577934769615
 30
0.0
 10
166.9756969271581
 20
103.1624162242397
 30
0.0
 10
166.4401594219753
 20
103.6479316072792
 30
0.0
 10
166.2648925868698
 20
103.8145402725389
 30
0.0
 10
165.9283323238052
 20
104.1525380593977
 30
0.0
 10
165.7661878357221
 20
104.3245941582717
 30
0.0
 10
165.4578146137935
 20
104.6768552523782
 30
0.0
 10
165.3108381399061
 20
104.8580462131751
 30
0.0
 10
165.0496007639815
 20
105.2215188459835
 30
0.0
 10
164.9327639211772
 20
105.4071153288719
 30
0.0
 10
164.8001672656874
 20
105.682517449789
 30
0.0
 10
164.7633110612811
 20
105.7733629992286
 30
0.0
 10
164.7083386608862
 20
105.9533250579994
 30
0.0
 10
164.6904455211572
 20
106.042778480718
 30
0.0
 10
164.6796254018699
 20
106.2122435636083
 30
0.0
 10
164.6864816007303
 20
106.2938409494462
 30
0.0
 10
164.7276234689026
 20
106.4466059052142
 30
0.0
 10
164.761211533037
 20
106.5160473522359
 30
0.0
 10
164.8529191924932
 20
106.6430313403966
 30
0.0
 10
164.9114789276632
 20
106.7005067672483
 30
0.0
 10
165.0448063845859
 20
106.8009463752539
 30
0.0
 10
165.1200863193272
 20
106.8447738782743
 30
0.0
 10
165.3672064172024
 20
106.9617886236691
 30
0.0
 10
165.554891333986
 20
107.018513214183
 30
0.0
 10
165.9521066235349
 20
107.1081587717385
 30
0.0
 10
166.1645430162999
 20
107.1412943404626
 30
0.0
 10
166.596975072277
 20
107.1929100411444
 30
0.0
 10
166.8180421853714
 20
107.2115730094415
 30
0.0
 10
167.4920771017626
 20
107.2553247933287
 30
0.0
 10
167.9578974811541
 20
107.2685861372328
 30
0.0
 10
168.8987634054505
 20
107.2846616979809
 30
0.0
 10
169.3723707138028
 20
107.2871345184052
 30
0.0
 10
170.3248063148644
 20
107.2897977282654
 30
0.0
 10
170.8036561271229
 20
107.2898645174805
 30
0.0
 10
171.2849737264819
 20
107.2898645174805
 30
0.0
  0
SPLINE
  5
B0
330
1F
100
AcDbEntity
  8
0
  6
Continuous
 62
     7
370
    15
100
AcDbSpline
210
0.0
220
0.0
230
1.0
 70
     8
 71
     3
 72
    36
 73
    32
 74
     0
 42
0.00000001
 43
0.00000001
 40
0.0
 40
0.0
 40
0.0
 40
0.0
 40
0.1250000000000009
 40
0.1250000000000009
 40
0.1875000000000014
 40
0.1875000000000014
 40
0.2500000000000018
 40
0.2500000000000018
 40
0.3125000000000023
 40
0.3125000000000023
 40
0.3437500000000018
 40
0.3437500000000018
 40
0.3750000000000014
 40
0.3750000000000014
 40
0.406250000000001
 40
0.406250000000001
 40
0.4375000000000006
 40
0.4375000000000006
 40
0.4999999999999997
 40
0.4999999999999997
 40
0.5624999999999988
 40
0.5624999999999988
 40
0.6249999999999979
 40
0.6249999999999979
 40
0.687499999999997
 40
0.687499999999997
 40
0.7499999999999961
 40
0.7499999999999961
 40
0.8749999999999981
 40
0.8749999999999981
 40
1.0
 40
1.0
 40
1.0
 40
1.0
 10
173.0344606991536
 20
105.5403775448088
 30
0.0
 10
172.594040220334
 20
105.4971265246135
 30
0.0
 10
172.1579089382253
 20
105.4435187724858
 30
0.0
 10
171.5152286465779
 20
105.3246978065573
 30
0.0
 10
171.3021838066479
 20
105.2784064595302
 30
0.0
 10
170.8854572821457
 20
105.1650067856871
 30
0.0
 10
170.6822772403011
 20
105.0982915457051
 30
0.0
 10
170.2993211588108
 20
104.9310197286359
 30
0.0
 10
170.1213056250655
 20
104.8323367496192
 30
0.0
 10
169.8965698012592
 20
104.6383964999137
 30
0.0
 10
169.8309888005372
 20
104.5675863720004
 30
0.0
 10
169.7253377876475
 20
104.4077656059214
 30
0.0
 10
169.6873426967071
 20
104.3212663459907
 30
0.0
 10
169.6487313952588
 20
104.1355123949592
 30
0.0
 10
169.6489744725918
 20
104.0365406689775
 30
0.0
 10
169.6881381362578
 20
103.8406188823291
 30
0.0
 10
169.7269390245829
 20
103.7425790838507
 30
0.0
 10
169.8843908440303
 20
103.4645843276158
 30
0.0
 10
170.0413146473105
 20
103.3009689071507
 30
0.0
 10
170.3900680683564
 20
103.029092496554
 30
0.0
 10
170.5847844602967
 20
102.9183726868263
 30
0.0
 10
170.9864967671064
 20
102.744489710911
 30
0.0
 10
171.1926298909128
 20
102.6812858546599
 30
0.0
 10
171.614984520033
 20
102.5944514256684
 30
0.0
 10
171.8276184880196
 20
102.5719751797748
 30
0.0
 10
172.2490517041874
 20
102.5626010856772
 30
0.0
 10
172.459229184846
 20
102.5755381641657
 30
0.0
 10
173.0906015111824
 20
102.6610194395258
 30
0.0
 10
173.4984414959491
 20
102.7779786409817
 30
0.0
 10
174.2946405112081
 20
103.0905075983792
 30
0.0
 10
174.6860776622193
 20
103.2883717585063
 30
0.0
 10
175.0685816588868
 20
103.5062565850757
 30
0.0
  0
LINE
  5
B1
330
1F
100
AcDbEntity
  8
0
  6
Continuous
 62
     7
370
    15
100
AcDbLine
 10
176.5836569005
 20
107.2901553676
 30
0.0
 11
176.5836569005
 21
107.2898645175
 31
0.0
  0
LINE
  5
B2
330
1F
100
AcDbEntity
  8
0
  6
Continuous
 62
     7
370
    15
100
AcDbLine
 10
171.2849737265
 20
107.2898645175
 30
0.0
 11
176.5836569005
 21
107.2898645175
 31
0.0
  0
SPLINE
  5
B3
330
1F
100
AcDbEntity
  8
0
  6
Continuous
 62
     7
370
    15
100
AcDbSpline
210
0.0
220
0.0
230
1.0
 70
     8
 71
     3
 72
     9
 73
     5
 74
     0
 42
0.00000001
 43
0.00000001
 40
0.0
 40
0.0
 40
0.0
 40
0.0
 40
0.6725582071460133
 40
1.0
 40
1.0
 40
1.0
 40
1.0
 10
176.805788095149
 20
99.56067440052605
 30
0.0
 10
176.8200676132454
 20
99.43925368640045
 30
0.0
 10
176.8412992597328
 20
99.25871806459776
 30
0.0
 10
176.8427300110541
 20
99.25160364043991
 30
0.0
 10
176.8431984988319
 20
99.24927408063854
 30
0.0
  0
ELLIPSE
  5
B4
330
1F
100
AcDbEntity
  8
0
  6
Continuous
 62
     7
370
    15
100
AcDbEllipse
 10
171.6261622403
 20
103.8144722056
 30
0.0
 11
4.604962356705557
 21
1.042196587586503
 31
0.0
210
0.0
220
0.0
230
0.9999999999999999
 40
0.3131117837
 41
5.483192041844493
 42
7.473238113136255
  0
LINE
  5
B5
330
1F
100
AcDbEntity
  8
0
  6
Continuous
 62
     7
370
    15
100
AcDbLine
 10
176.7459353566
 20
106.9419061989
 30
0.0
 11
176.7594672701
 21
106.9263953449
 31
0.0
  0
SPLINE
  5
B6
330
1F
100
AcDbEntity
  8
0
  6
Continuous
 62
     7
370
    15
100
AcDbSpline
210
0.0
220
0.0
230
1.0
 70
     8
 71
     3
 72
     8
 73
     4
 74
     0
 42
0.00000001
 43
0.00000001
 40
0.0
 40
0.0
 40
0.0
 40
0.0
 40
1.0
 40
1.0
 40
1.0
 40
1.0
 10
176.5836569004692
 20
107.2648234439584
 30
0.0
 10
176.5836569004692
 20
107.1393317103096
 30
0.0
 10
176.6441700848064
 20
107.0175144593796
 30
0.0
 10
176.7459353565465
 20
106.9419061988739
 30
0.0
  0
SPLINE
  5
B7
330
1F
100
AcDbEntity
  8
0
  6
Continuous
 62
     7
370
    15
100
AcDbSpline
210
0.0
220
0.0
230
1.0
 70
     8
 71
     3
 72
    11
 73
     7
 74
     0
 42
0.00000001
 43
0.00000001
 40
0.0
 40
0.0
 40
0.0
 40
0.0
 40
0.0162338060709696
 40
0.4267745867320701
 40
0.8492114182783205
 40
1.0
 40
1.0
 40
1.0
 40
1.0
 10
177.1611524842079
 20
99.24212491916565
 30
0.0
 10
177.1609504147146
 20
99.24146790966132
 30
0.0
 10
177.1556381592824
 20
99.2241956225301
 30
0.0
 10
177.1750581196397
 20
99.28770346303016
 30
0.0
 10
177.2108613474711
 20
99.40227570854506
 30
0.0
 10
177.2497968154514
 20
99.5082389649319
 30
0.0
 10
177.2600389014782
 20
99.5361129020871
 30
0.0
  0
ELLIPSE
  5
B8
330
1F
100
AcDbEntity
  8
0
  6
Continuous
 62
     7
370
    15
100
AcDbEllipse
 10
190.3168489871
 20
104.9595238439
 30
0.0
 11
10.74926354299364
 21
6.142705992460349
 31
0.0
210
0.0
220
0.0
230
1.0
 40
0.0138087437
 41
3.673308256331562
 42
3.789139866258626
  0
SPLINE
  5
B9
330
1F
100
AcDbEntity
  8
0
  6
Continuous
 62
     7
370
    15
100
AcDbSpline
210
0.0
220
0.0
230
1.0
 70
     8
 71
     3
 72
     8
 73
     4
 74
     0
 42
0.00000001
 43
0.00000001
 40
0.0000000000000001
 40
0.0000000000000001
 40
0.0000000000000001
 40
0.0000000000000001
 40
0.0000076394975604
 40
0.0000076394975604
 40
0.0000076394975604
 40
0.0000076394975604
 10
181.8004073581406
 20
99.97388442212537
 30
0.0
 10
181.7985344636357
 20
99.97284068715668
 30
0.0
 10
181.7966560089035
 20
99.97180307051654
 30
0.0
 10
181.7947720306069
 20
99.97077162187031
 30
0.0
  0
LINE
  5
BA
330
1F
100
AcDbEntity
  8
0
  6
Continuous
 62
     7
370
    15
100
AcDbLine
 10
179.908906506
 20
99.0593142794
 30
0.0
 11
179.431398576
 21
99.1434396679
 31
0.0
  0
ELLIPSE
  5
BB
330
1F
100
AcDbEntity
  8
0
  6
Continuous
 62
     7
370
    15
100
AcDbEllipse
 10
190.7960734913
 20
105.2335361207
 30
0.0
 11
11.16923329983507
 21
6.382699247038544
 31
0.0
210
0.0
220
0.0
230
0.9999999999999998
 40
0.0138087437
 41
2.908350989301589
 42
3.652214111137655
  0
ARC
  5
BC
330
1F
100
AcDbEntity
  8
0
  6
Continuous
 62
     7
370
    15
100
AcDbCircle
 10
177.2955524149
 20
101.3924674727
 30
0.0
 40
0.985453390633634
100
AcDbArc
 50
310.3417145009
 51
337.3817226822
  0
LINE
  5
BD
330
1F
100
AcDbEntity
  8
0
  6
Continuous
 62
     7
370
    15
100
AcDbLine
 10
182.8713784444
 20
101.8237434087
 30
0.0
 11
178.2052122006
 21
101.0134721438
 31
0.0
  0
LINE
  5
BE
330
1F
100
AcDbEntity
  8
0
  6
Continuous
 62
     7
370
    15
100
AcDbLine
 10
182.8713784444
 20
101.3080545943
 30
0.0
 11
182.8713784444
 21
101.8237434087
 31
0.0
  0
ELLIPSE
  5
BF
330
1F
100
AcDbEntity
  8
0
  6
Continuous
 62
     7
370
    15
100
AcDbEllipse
 10
181.8638686189
 20
101.3165626253
 30
0.0
 11
0.9881030613275072
 21
-0.2011806586970266
 31
0.0
210
0.0
220
0.0
230
1.0
 40
0.9782018681
 41
5.441176382158712
 42
6.479777610237933
  0
LINE
  5
C0
330
1F
100
AcDbEntity
  8
0
  6
Continuous
 62
     7
370
    15
100
AcDbLine
 10
179.908906506
 20
99.0593142794
 30
0.0
 11
182.3751053686
 21
100.461543215
 31
0.0
  0
ARC
  5
C1
330
1F
100
AcDbEntity
  8
0
  6
Continuous
 62
     7
370
    15
100
AcDbCircle
 10
177.2632898495
 20
100.9653916572
 30
0.0
 40
0.9841173867201661
100
AcDbArc
 50
122.5598744655
 51
169.1389837757
  0
ARC
  5
C2
330
1F
100
AcDbEntity
  8
0
  6
Continuous
 62
     7
370
    15
100
AcDbCircle
 10
177.2717129257
 20
101.3731300622
 30
0.0
 40
0.996256607618929
100
AcDbArc
 50
121.8537699756
 51
137.8480181274
  0
SPLINE
  5
C3
330
1F
100
AcDbEntity
  8
0
  6
Continuous
 62
     7
370
    15
100
AcDbSpline
210
0.0
220
0.0
230
1.0
 70
     8
 71
     3
 72
     9
 73
     5
 74
     0
 42
0.00000001
 43
0.00000001
 40
0.0
 40
0.0
 40
0.0
 40
0.0
 40
0.3456369144990558
 40
0.9999999999999999
 40
0.9999999999999999
 40
0.9999999999999999
 40
0.9999999999999999
 10
181.9573131725118
 20
100.0914808483513
 30
0.0
 10
181.9394460039897
 20
100.0748143139704
 30
0.0
 10
181.8877525425202
 20
100.0265945385885
 30
0.0
 10
181.8349556775846
 20
99.99473326404417
 30
0.0
 10
181.8004073581406
 20
99.97388442212537
 30
0.0
  0
LINE
  5
C4
330
1F
100
AcDbEntity
  8
0
  6
Continuous
 62
     7
370
    15
100
AcDbLine
 10
176.5836569005
 20
107.2898645175
 30
0.0
 11
176.5836569005
 21
107.264823444
 31
0.0
  0
LINE
  5
C5
330
1F
100
AcDbEntity
  8
0
  6
Continuous
 62
     7
370
    15
100
AcDbLine
 10
176.7459353566
 20
106.8793371275
 30
0.0
 11
176.7459353566
 21
106.9419061989
 31
0.0
  0
LINE
  5
C6
330
1F
100
AcDbEntity
  8
0
  6
HIDDEN
 62
     7
370
     0
100
AcDbLine
 10
145.1605414416
 20
111.2651553676
 30
0.0
 11
145.1605414416
 21
95.2651553676
 31
0.0
  0
LINE
  5
C7
330
1F
100
AcDbEntity
  8
0
  6
HIDDEN
 62
     7
370
     0
100
AcDbLine
 10
109.4586569005
 20
109.4651553676
 30
0.0
 11
117.5836569005
 21
109.4651553676
 31
0.0
  0
LINE
  5
C8
330
1F
100
AcDbEntity
  8
0
  6
HIDDEN
 62
     7
370
     0
100
AcDbLine
 10
109.4586569005
 20
109.4651553676
 30
0.0
 11
109.4586569005
 21
95.2651553676
 31
0.0
  0
LINE
  5
C9
330
1F
100
AcDbEntity
  8
0
  6
HIDDEN
 62
     7
370
     0
100
AcDbLine
 10
117.5836569005
 20
109.4651553676
 30
0.0
 11
119.3836569005
 21
111.2651553676
 31
0.0
  0
LINE
  5
CA
330
1F
100
AcDbEntity
  8
0
  6
HIDDEN
 62
     7
370
     0
100
AcDbLine
 10
122.2836569005
 20
111.2651553676
 30
0.0
 11
124.0836569005
 21
109.4651553676
 31
0.0
  0
LINE
  5
CB
330
1F
100
AcDbEntity
  8
0
  6
HIDDEN
 62
     7
370
     0
100
AcDbLine
 10
132.0836569005
 20
109.4651553676
 30
0.0
 11
133.8836569005
 21
111.2651553676
 31
0.0
  0
LINE
  5
CC
330
1F
100
AcDbEntity
  8
0
  6
HIDDEN
 62
     7
370
     0
100
AcDbLine
 10
124.0836569005
 20
109.4651553676
 30
0.0
 11
132.0836569005
 21
109.4651553676
 31
0.0
  0
SPLINE
  5
CD
330
1F
100
AcDbEntity
  8
0
  6
HIDDEN
 62
     7
370
     0
100
AcDbSpline
210
0.0
220
0.0
230
1.0
 70
    24
 71
     3
 72
    10
 73
     6
 74
     0
 42
0.00000001
 43
0.00000001
 40
0.0
 40
0.0
 40
0.0
 40
0.0
 40
0.4999999999999998
 40
0.4999999999999998
 40
1.0
 40
1.0
 40
1.0
 40
1.0
 10
108.0836569004692
 20
109.4651553676054
 30
0.0
 10
108.2550884227505
 20
109.4651553676054
 30
0.0
 10
108.4652040665421
 20
109.4651553676054
 30
0.0
 10
108.9311902590439
 20
109.4651553676054
 30
0.0
 10
109.1875399337191
 20
109.4651553676054
 30
0.0
 10
109.4586569004692
 20
109.4651553676054
 30
0.0
  0
LINE
  5
CE
330
1F
100
AcDbEntity
  8
0
  6
HIDDEN
 62
     7
370
     0
100
AcDbLine
 10
108.0836569005
 20
109.4651553676
 30
0.0
 11
108.0836569005
 21
96.6401553676
 31
0.0
  0
LINE
  5
CF
330
1F
100
AcDbEntity
  8
0
  6
HIDDEN
 62
     7
370
     0
100
AcDbLine
 10
176.5836569005
 20
106.7635928676
 30
0.0
 11
176.5836569005
 21
107.2901553676
 31
0.0
  0
SPLINE
  5
D0
330
1F
100
AcDbEntity
  8
0
  6
HIDDEN
 62
     7
370
     0
100
AcDbSpline
210
0.0
220
0.0
230
1.0
 70
     8
 71
     3
 72
    25
 73
    21
 74
     0
 42
0.00000001
 43
0.00000001
 40
0.0
 40
0.0
 40
0.0
 40
0.0
 40
0.0131455251579636
 40
0.0782186914962495
 40
0.1410240324478374
 40
0.1469105425446102
 40
0.2056218732358969
 40
0.2689284219647619
 40
0.3340612369952741
 40
0.3975237121448508
 40
0.4628293602323793
 40
0.5262413698862248
 40
0.5914958880539487
 40
0.654846318626379
 40
0.7200357735724172
 40
0.7833549584381294
 40
0.8485105922496798
 40
0.9118272656649203
 40
0.9769796403347766
 40
1.0
 40
1.0
 40
1.0
 40
1.0
 10
176.8431984988319
 20
99.24927408063854
 30
0.0
 10
176.8435912052471
 20
99.24641003145138
 30
0.0
 10
176.8459278925664
 20
99.2293683250829
 30
0.0
 10
176.8340745012609
 20
99.31834689085183
 30
0.0
 10
176.8196180371177
 20
99.4228185220152
 30
0.0
 10
176.8001588576705
 20
99.62331238453456
 30
0.0
 10
176.7815803064408
 20
99.79672532091686
 30
0.0
 10
176.7500632364684
 20
100.1935434748092
 30
0.0
 10
176.7189468976178
 20
100.6722873334833
 30
0.0
 10
176.6895100018761
 20
101.2339190215733
 30
0.0
 10
176.6635417093394
 20
101.8473938816852
 30
0.0
 10
176.6411050202985
 20
102.5072271419699
 30
0.0
 10
176.6228835668041
 20
103.1822074365939
 30
0.0
 10
176.6085100939525
 20
103.8655891098713
 30
0.0
 10
176.5980250644636
 20
104.5255762034476
 30
0.0
 10
176.5908110550728
 20
105.1554834666129
 30
0.0
 10
176.5864631642906
 20
105.7265092309232
 30
0.0
 10
176.5842599748466
 20
106.2314817520649
 30
0.0
 10
176.5836976331647
 20
106.5638001883413
 30
0.0
 10
176.5836653333787
 20
106.722229693242
 30
0.0
 10
176.5836569004692
 20
106.7635928676054
 30
0.0
  0
LINE
  5
D1
330
1F
100
AcDbEntity
  8
0
  6
HIDDEN
 62
     7
370
     0
100
AcDbLine
 10
109.3826950061
 20
104.7651553676
 30
0.0
 11
109.3826950061
 21
101.7651553676
 31
0.0
  0
LINE
  5
D2
330
1F
100
AcDbEntity
  8
0
  6
HIDDEN
 62
     7
370
     0
100
AcDbLine
 10
108.0836569005
 20
101.0151553676
 30
0.0
 11
108.0836569005
 21
105.5049671934
 31
0.0
  0
SPLINE
  5
D3
330
1F
100
AcDbEntity
  8
0
  6
HIDDEN
 62
     7
370
     0
100
AcDbSpline
210
0.0
220
0.0
230
1.0
 70
     8
 71
     3
 72
    24
 73
    20
 74
     0
 42
0.00000001
 43
0.00000001
 40
0.0
 40
0.0
 40
0.0
 40
0.0
 40
0.1250000000000001
 40
0.1250000000000001
 40
0.2500000000000001
 40
0.2500000000000001
 40
0.3750000000000002
 40
0.3750000000000002
 40
0.4375000000000002
 40
0.4375000000000002
 40
0.5000000000000002
 40
0.5000000000000002
 40
0.6250000000000001
 40
0.6250000000000001
 40
0.7500000000000001
 40
0.7500000000000001
 40
0.875
 40
0.875
 40
1.0
 40
1.0
 40
1.0
 40
1.0
 10
167.0836569004684
 20
101.9471730255535
 30
0.0
 10
167.1391301462953
 20
102.0946444471341
 30
0.0
 10
167.1916887416471
 20
102.2486226694303
 30
0.0
 10
167.2906170283185
 20
102.5713602629152
 30
0.0
 10
167.3374658632021
 20
102.7424647319553
 30
0.0
 10
167.4178079594674
 20
103.0813160090509
 30
0.0
 10
167.452305477934
 20
103.2534333181338
 30
0.0
 10
167.4889802029955
 20
103.4911454636341
 30
0.0
 10
167.498915222106
 20
103.5685082028105
 30
0.0
 10
167.5126886576326
 20
103.7102542461393
 30
0.0
 10
167.5166684851273
 20
103.7751983670603
 30
0.0
 10
167.5193280275877
 20
103.9515147385082
 30
0.0
 10
167.5081444580394
 20
104.039346010176
 30
0.0
 10
167.4628308411829
 20
104.1461956345235
 30
0.0
 10
167.4289211637995
 20
104.1658928347387
 30
0.0
 10
167.3476835489606
 20
104.1521468659436
 30
0.0
 10
167.2997170333104
 20
104.1189892961598
 30
0.0
 10
167.1964871698187
 20
104.0145008166773
 30
0.0
 10
167.1414596568799
 20
103.9438074267748
 30
0.0
 10
167.0836569004683
 20
103.8572184356516
 30
0.0
  0
SPLINE
  5
D4
330
1F
100
AcDbEntity
  8
0
  6
HIDDEN
 62
     7
370
     0
100
AcDbSpline
210
0.0
220
0.0
230
1.0
 70
     8
 71
     3
 72
     8
 73
     4
 74
     0
 42
0.00000001
 43
0.00000001
 40
0.0
 40
0.0
 40
0.0
 40
0.0
 40
1.0
 40
1.0
 40
1.0
 40
1.0
 10
166.3212487032762
 20
101.8682870630095
 30
0.0
 10
166.5755325750314
 20
101.8908308150479
 30
0.0
 10
166.8298041625649
 20
101.9167936278159
 30
0.0
 10
167.0836569004684
 20
101.9471730255557
 30
0.0
  0
LWPOLYLINE
  5
D5
330
1F
100
AcDbEntity
  8
0
  6
HIDDEN
 62
     7
370
     0
100
AcDbPolyline
 90
       18
 70
   128
 43
0.0
 10
166.3212487033
 20
101.868287063
 10
166.4473105482
 20
101.5645289879
 10
166.5813717437
 20
101.3056353674
 10
166.7159713906
 20
101.1060143914
 10
166.8436186234
 20
100.9767755535
 10
166.9572094989
 20
100.9251113743
 10
167.0504223513
 20
100.9538971172
 10
167.1180696118
 20
101.0615307709
 10
167.1563865116
 20
101.2420222068
 10
167.1632406029
 20
101.4853265464
 10
167.1382504353
 20
101.7779031889
 10
167.082806785
 20
102.1034693853
 10
166.9999952539
 20
102.4439064209
 10
166.8944245469
 20
102.7802679751
 10
166.7719699837
 20
103.0938345399
 10
166.6394465204
 20
103.3671552154
 10
166.5042294766
 20
103.5850189036
 10
166.373844078
 20
103.7353008506
  0
SPLINE
  5
D6
330
1F
100
AcDbEntity
  8
0
  6
HIDDEN
 62
     7
370
     0
100
AcDbSpline
210
0.0
220
0.0
230
1.0
 70
     8
 71
     3
 72
     8
 73
     4
 74
     0
 42
0.00000001
 43
0.00000001
 40
0.0
 40
0.0
 40
0.0
 40
0.0
 40
1.0
 40
1.0
 40
1.0
 40
1.0
 10
167.0836569004692
 20
103.8572184356497
 30
0.0
 10
166.8465111011919
 20
103.8199606121218
 30
0.0
 10
166.6099744430803
 20
103.7790624253391
 30
0.0
 10
166.3738440779744
 20
103.7353008506361
 30
0.0
  0
SPLINE
  5
D7
330
1F
100
AcDbEntity
  8
0
  6
HIDDEN
 62
     7
370
     0
100
AcDbSpline
210
0.0
220
0.0
230
1.0
 70
     8
 71
     3
 72
     8
 73
     4
 74
     0
 42
0.00000001
 43
0.00000001
 40
0.0
 40
0.0
 40
0.0
 40
0.0
 40
1.0
 40
1.0
 40
1.0
 40
1.0
 10
177.053116171536
 20
106.2503245266556
 30
0.0
 10
176.9953531346385
 20
106.2394124637074
 30
0.0
 10
176.9362255809122
 20
106.2422570933076
 30
0.0
 10
176.8797705279434
 20
106.2585179843544
 30
0.0
  0
LINE
  5
D8
330
1F
100
AcDbEntity
  8
0
  6
HIDDEN
 62
     7
370
     0
100
AcDbLine
 10
176.8797705279
 20
106.7550038913
 30
0.0
 11
176.8797705279
 21
106.2585179844
 31
0.0
  0
SPLINE
  5
D9
330
1F
100
AcDbEntity
  8
0
  6
HIDDEN
 62
     7
370
     0
100
AcDbSpline
210
0.0
220
0.0
230
1.0
 70
     8
 71
     3
 72
    10
 73
     6
 74
     0
 42
0.00000001
 43
0.00000001
 40
0.0
 40
0.0
 40
0.0
 40
0.0
 40
0.4281553784762569
 40
0.6977615574096716
 40
1.0
 40
1.0
 40
1.0
 40
1.0
 10
176.7594672701105
 20
106.9263953449167
 30
0.0
 10
176.7766473514549
 20
106.9055043098772
 30
0.0
 10
176.8046455990956
 20
106.8714583492801
 30
0.0
 10
176.8448118552875
 20
106.8363044188303
 30
0.0
 10
176.8676825980748
 20
106.78311580174
 30
0.0
 10
176.8797705279437
 20
106.7550038912877
 30
0.0
  0
LINE
  5
DA
330
1F
100
AcDbEntity
  8
0
  6
HIDDEN
 62
     7
370
     0
100
AcDbLine
 10
176.5836569005
 20
106.7635928676
 30
0.0
 11
176.5836569005
 21
107.264823444
 31
0.0
  0
SPLINE
  5
DB
330
1F
100
AcDbEntity
  8
0
  6
HIDDEN
 62
     7
370
     0
100
AcDbSpline
210
0.0
220
0.0
230
1.0
 70
     8
 71
     3
 72
    16
 73
    12
 74
     0
 42
0.00000001
 43
0.00000001
 40
0.0
 40
0.0
 40
0.0
 40
0.0
 40
0.0127518264845794
 40
0.0292660717967349
 40
0.0598057709451545
 40
0.1643655879486599
 40
0.3520246535107203
 40
0.5382597551883482
 40
0.544431631541379
 40
0.7734260850789306
 40
1.0
 40
1.0
 40
1.0
 40
1.0
 10
177.6708536232746
 20
100.0592436396654
 30
0.0
 10
177.6591040478206
 20
100.0599426255484
 30
0.0
 10
177.6321381916563
 20
100.0615468326839
 30
0.0
 10
177.5848700652347
 20
100.047822529406
 30
0.0
 10
177.4957079921093
 20
99.99081879475624
 30
0.0
 10
177.3889804834324
 20
99.83559534834691
 30
0.0
 10
177.2894552970296
 20
99.62162605107302
 30
0.0
 10
177.2504758073931
 20
99.50620688885391
 30
0.0
 10
177.1957601655459
 20
99.36235298667634
 30
0.0
 10
177.1716671663117
 20
99.27309909427456
 30
0.0
 10
177.1646449413484
 20
99.25241300757018
 30
0.0
 10
177.1611524842079
 20
99.24212491916565
 30
0.0
  0
ELLIPSE
  5
DC
330
1F
100
AcDbEntity
  8
0
  6
HIDDEN
 62
     7
370
     0
100
AcDbEllipse
 10
182.7882572204
 20
103.0832662576
 30
0.0
 11
0.1042593541977226
 21
4.816225410367181
 31
0.0
210
0.0
220
0.0
230
1.0
 40
0.120890004
 41
0.516422123107891
 42
1.687414122976459
  0
SPLINE
  5
DD
330
1F
100
AcDbEntity
  8
0
  6
HIDDEN
 62
     7
370
     0
100
AcDbSpline
210
0.0
220
0.0
230
1.0
 70
     8
 71
     3
 72
     8
 73
     4
 74
     0
 42
0.00000001
 43
0.00000001
 40
0.0
 40
0.0
 40
0.0
 40
0.0
 40
1.0
 40
1.0
 40
1.0
 40
1.0
 10
182.5914296455203
 20
107.2776379016908
 30
0.0
 10
180.7444267257125
 20
106.9398975468922
 30
0.0
 10
178.8980556550456
 20
106.5988535663466
 30
0.0
 10
177.053116171536
 20
106.2503245266556
 30
0.0
  0
LINE
  5
DE
330
1F
100
AcDbEntity
  8
0
  6
HIDDEN
 62
     7
370
     0
100
AcDbLine
 10
181.0946511958
 20
99.5896311589
 30
0.0
 11
177.6708536233
 21
100.0592436397
 31
0.0
  0
SPLINE
  5
DF
330
1F
100
AcDbEntity
  8
0
  6
HIDDEN
 62
     7
370
     0
100
AcDbSpline
210
0.0
220
0.0
230
1.0
 70
     8
 71
     3
 72
    12
 73
     8
 74
     0
 42
0.00000001
 43
0.00000001
 40
0.0
 40
0.0
 40
0.0
 40
0.0
 40
0.4999999999999992
 40
0.4999999999999992
 40
0.7499999999999997
 40
0.7499999999999997
 40
1.0
 40
1.0
 40
1.0
 40
1.0
 10
182.1978473737662
 20
102.5353991683793
 30
0.0
 10
182.1004141975002
 20
102.0642507346027
 30
0.0
 10
182.0182625857312
 20
101.6092235121801
 30
0.0
 10
181.9168365134916
 20
100.9526210371539
 30
0.0
 10
181.8873107413669
 20
100.741727988572
 30
0.0
 10
181.8373219885079
 20
100.3424762648496
 30
0.0
 10
181.81668162642
 20
100.1529719745041
 30
0.0
 10
181.8004073581406
 20
99.97388442212548
 30
0.0
  0
SPLINE
  5
E0
330
1F
100
AcDbEntity
  8
0
  6
HIDDEN
 62
     7
370
     0
100
AcDbSpline
210
0.0
220
0.0
230
1.0
 70
     8
 71
     3
 72
    38
 73
    34
 74
     0
 42
0.00000001
 43
0.00000001
 40
-0.0625000000000001
 40
-0.0625000000000001
 40
0.0
 40
0.0
 40
0.0624999999999999
 40
0.0624999999999999
 40
0.1249999999999998
 40
0.1249999999999998
 40
0.1874999999999998
 40
0.1874999999999998
 40
0.2499999999999998
 40
0.2499999999999998
 40
0.3124999999999997
 40
0.3124999999999997
 40
0.3749999999999997
 40
0.3749999999999997
 40
0.4374999999999997
 40
0.4374999999999997
 40
0.4999999999999997
 40
0.4999999999999997
 40
0.5624999999999997
 40
0.5624999999999997
 40
0.6249999999999997
 40
0.6249999999999997
 40
0.6874999999999998
 40
0.6874999999999998
 40
0.7499999999999998
 40
0.7499999999999998
 40
0.8124999999999998
 40
0.8124999999999998
 40
0.8749999999999998
 40
0.8749999999999998
 40
0.9374999999999999
 40
0.9374999999999999
 40
1.0
 40
1.0
 40
1.0625
 40
1.0625
 10
179.495018640247
 20
104.5897291450243
 30
0.0
 10
179.2469400047399
 20
104.4582245457031
 30
0.0
 10
179.1402318558677
 20
104.3670698824891
 30
0.0
 10
178.968910004681
 20
104.1509008798599
 30
0.0
 10
178.9048225542811
 20
104.0259457391118
 30
0.0
 10
178.8265588329341
 20
103.7636119475757
 30
0.0
 10
178.8118212517912
 20
103.6235113139722
 30
0.0
 10
178.8344307875585
 20
103.3501103247333
 30
0.0
 10
178.8721766442187
 20
103.2136999203665
 30
0.0
 10
178.9955699445657
 20
102.9672537863711
 30
0.0
 10
179.081980364509
 20
102.8553552200471
 30
0.0
 10
179.2907226052817
 20
102.6736810734734
 30
0.0
 10
179.4121426693586
 20
102.6040034466892
 30
0.0
 10
179.6750752939701
 20
102.5156860016129
 30
0.0
 10
179.8127112583606
 20
102.4981598682296
 30
0.0
 10
180.0859267801254
 20
102.5176988517566
 30
0.0
 10
180.2193608444887
 20
102.5550239892808
 30
0.0
 10
180.4601182931438
 20
102.6801896608122
 30
0.0
 10
180.5683346569245
 20
102.7691369728372
 30
0.0
 10
180.7380352031059
 20
102.9835965787116
 30
0.0
 10
180.8009584172669
 20
103.1112100023792
 30
0.0
 10
180.8705297884818
 20
103.3798871217496
 30
0.0
 10
180.877870316018
 20
103.5210711166704
 30
0.0
 10
180.8415472424997
 20
103.7952897569694
 30
0.0
 10
180.7987519880194
 20
103.92566344176
 30
0.0
 10
180.674455583054
 20
104.1622137551432
 30
0.0
 10
180.5926035381692
 20
104.2686627558631
 30
0.0
 10
180.3998646879147
 20
104.4457729787983
 30
0.0
 10
180.2872565121313
 20
104.5179155313091
 30
0.0
 10
180.0408177279538
 20
104.6144663408237
 30
0.0
 10
179.9045134171964
 20
104.6389565837359
 30
0.0
 10
179.6330964854468
 20
104.6268059482201
 30
0.0
 10
179.495018640247
 20
104.5897291450243
 30
0.0
 10
179.2469400047399
 20
104.4582245457031
 30
0.0
  0
ELLIPSE
  5
E1
330
1F
100
AcDbEntity
  8
0
  6
HIDDEN
 62
     7
370
     0
100
AcDbEllipse
 10
166.0837510797
 20
103.2651553676
 30
0.0
 11
-0.4666681935639191
 21
1.49454855062136
 31
0.0
210
0.0
220
0.0
230
1.0
 40
0.2737874074
 41
2.683330575266663
 42
4.945910291796102
  0
LINE
  5
E2
330
1F
100
AcDbEntity
  8
0
  6
HIDDEN
 62
     7
370
     0
100
AcDbLine
 10
167.0836569005
 20
101.9471730256
 30
0.0
 11
167.0836569005
 21
104.7651553676
 31
0.0
  0
ARC
  5
E3
330
1F
100
AcDbEntity
  8
0
  6
HIDDEN
 62
     7
370
     0
100
AcDbCircle
 10
177.2823004232
 20
100.9730983873
 30
0.0
 40
0.988058950427327
100
AcDbArc
 50
269.8532957179
 51
123.7295946683
  0
ARC
  5
E4
330
1F
100
AcDbEntity
  8
0
  6
HIDDEN
 62
     7
370
     0
100
AcDbCircle
 10
177.2706691053
 20
100.9746723092
 30
0.0
 40
0.989671484476783
100
AcDbArc
 50
169.7471609081
 51
270.526922784
  0
LINE
  5
E5
330
1F
100
AcDbEntity
  8
0
  6
HIDDEN
 62
     7
370
     0
100
AcDbLine
 10
178.2518210136
 20
100.7594830056
 30
0.0
 11
178.2518210136
 21
100.966124337
 31
0.0
  0
ELLIPSE
  5
E6
330
1F
100
AcDbEntity
  8
0
  6
HIDDEN
 62
     7
370
     0
100
AcDbEllipse
 10
177.2797705279
 20
100.6316291753
 30
0.0
 11
0.9939277096389105
 21
0.2889804660132
 31
0.0
210
0.0
220
0.0
230
1.0
 40
0.3807697882
 41
0.1267256260919165
 42
0.278338391280777
  0
ELLIPSE
  5
E7
330
1F
100
AcDbEntity
  8
0
  6
HIDDEN
 62
     7
370
     0
100
AcDbEllipse
 10
177.2797705279
 20
100.6316291753
 30
0.0
 11
-0.8913500669656003
 21
1.707021392749368
 31
0.0
210
0.0
220
0.0
230
1.0
 40
0.2655594297
 41
5.594387443677731
 42
5.746000208866509
  0
LINE
  5
E8
330
1F
100
AcDbEntity
  8
0
  6
HIDDEN
 62
     7
370
     0
100
AcDbLine
 10
176.8797705279
 20
102.0999207562
 30
0.0
 11
176.8797705279
 21
101.8932794248
 31
0.0
  0
ARC
  5
E9
330
1F
100
AcDbEntity
  8
0
  6
HIDDEN
 62
     7
370
     0
100
AcDbCircle
 10
177.2825683193
 20
100.9836368248
 30
0.0
 40
0.9948345190378101
100
AcDbArc
 50
346.9784396178
 51
113.8841864719
  0
SPLINE
  5
EA
330
1F
100
AcDbEntity
  8
0
  6
HIDDEN
 62
     7
370
     0
100
AcDbSpline
210
0.0
220
0.0
230
1.0
 70
     8
 71
     3
 72
    12
 73
     8
 74
     0
 42
0.00000001
 43
0.00000001
 40
0.0
 40
0.0
 40
0.0
 40
0.0
 40
0.2621247268814308
 40
0.4841093040232644
 40
0.6634407964239231
 40
0.8428640989466698
 40
0.9999999999999999
 40
0.9999999999999999
 40
0.9999999999999999
 40
0.9999999999999999
 10
182.2947143170794
 20
100.8203859494379
 30
0.0
 10
182.2965172611399
 20
100.7595452056876
 30
0.0
 10
182.2998470576253
 20
100.6471804911351
 30
0.0
 10
182.2499260323683
 20
100.4685993947295
 30
0.0
 10
182.16623831026
 20
100.311251041249
 30
0.0
 10
182.065665264266
 20
100.1813043389323
 30
0.0
 10
181.9918000519828
 20
100.1200703461929
 30
0.0
 10
181.9573131725118
 20
100.0914808483513
 30
0.0
  0
LINE
  5
EB
330
1F
100
AcDbEntity
  8
0
  6
HIDDEN
 62
     7
370
     0
100
AcDbLine
 10
182.737543273
 20
101.7450618328
 30
0.0
 11
182.8713784444
 21
101.8237434087
 31
0.0
  0
LINE
  5
EC
330
1F
100
AcDbEntity
  8
0
  6
HIDDEN
 62
     7
370
     0
100
AcDbLine
 10
176.7459353566
 20
102.2193482232
 30
0.0
 11
176.7459353566
 21
106.8793371275
 31
0.0
  0
LINE
  5
ED
330
1F
100
AcDbEntity
  8
0
  6
HIDDEN
 62
     7
370
     0
100
AcDbLine
 10
176.8797705279
 20
106.7550038913
 30
0.0
 11
176.8797705279
 21
102.0999207562
 31
0.0
  0
LINE
  5
EE
330
1F
100
AcDbEntity
  8
0
  6
HIDDEN
 62
     7
370
     0
100
AcDbLine
 10
182.5914296455
 20
101.5130481363
 30
0.0
 11
182.737543273
 21
101.7450618328
 31
0.0
  0
LINE
  5
EF
330
1F
100
AcDbEntity
  8
0
  6
HIDDEN
 62
     7
370
     0
100
AcDbLine
 10
178.2518210136
 20
100.966124337
 30
0.0
 11
182.737543273
 21
101.7450618328
 31
0.0
  0
ARC
  5
F0
330
1F
100
AcDbEntity
  8
0
  6
HIDDEN
 62
     7
370
     0
100
AcDbCircle
 10
178.9897264972
 20
103.0124820231
 30
0.0
 40
0.995393194945273
100
AcDbArc
 50
180.5438275897
 51
280.3187985
  0
LINE
  5
F1
330
1F
100
AcDbEntity
  8
0
  6
HIDDEN
 62
     7
370
     0
100
AcDbLine
 10
179.1680263172
 20
102.0331879984
 30
0.0
 11
180.8680263172
 21
102.3283899005
 31
0.0
  0
ARC
  5
F2
330
1F
100
AcDbEntity
  8
0
  6
HIDDEN
 62
     7
370
     0
100
AcDbCircle
 10
180.7051505174
 20
103.3041345147
 30
0.0
 40
0.9892452063524672
100
AcDbArc
 50
279.4767018403
 51
359.6583759873
  0
LINE
  5
F3
330
1F
100
AcDbEntity
  8
0
  6
HIDDEN
 62
     7
370
     0
100
AcDbLine
 10
181.6943781395
 20
103.2982362109
 30
0.0
 11
181.6943781395
 21
104.9982362109
 31
0.0
  0
ARC
  5
F4
330
1F
100
AcDbEntity
  8
0
  6
HIDDEN
 62
     7
370
     0
100
AcDbCircle
 10
180.6990297818
 20
104.9887884966
 30
0.0
 40
0.9953931949452096
100
AcDbArc
 50
0.5438275897
 51
100.3187985
  0
LINE
  5
F5
330
1F
100
AcDbEntity
  8
0
  6
HIDDEN
 62
     7
370
     0
100
AcDbLine
 10
180.5207299618
 20
105.9680825213
 30
0.0
 11
178.8207299618
 21
105.6728806192
 31
0.0
  0
ARC
  5
F6
330
1F
100
AcDbEntity
  8
0
  6
HIDDEN
 62
     7
370
     0
100
AcDbCircle
 10
178.9836057616
 20
104.697136005
 30
0.0
 40
0.9892452063524214
100
AcDbArc
 50
99.4767018403
 51
179.6583759873
  0
LINE
  5
F7
330
1F
100
AcDbEntity
  8
0
  6
HIDDEN
 62
     7
370
     0
100
AcDbLine
 10
177.9943781395
 20
104.7030343088
 30
0.0
 11
177.9943781395
 21
103.0030343088
 31
0.0
  0
LINE
  5
F8
330
1F
100
AcDbEntity
  8
0
  6
HIDDEN
 62
     7
370
     0
100
AcDbLine
 10
176.8797705279
 20
106.2585179844
 30
0.0
 11
176.8797705279
 21
101.8932794248
 31
0.0
  0
LINE
  5
F9
330
1F
100
AcDbEntity
  8
0
  6
HIDDEN
 62
     7
370
     0
100
AcDbLine
 10
178.2518210136
 20
100.7594830056
 30
0.0
 11
182.5914296455
 21
101.5130481363
 31
0.0
  0
LINE
  5
FA
330
1F
100
AcDbEntity
  8
0
  6
HIDDEN
 62
     7
370
     0
100
AcDbLine
 10
182.5914296455
 20
101.5130481363
 30
0.0
 11
182.5914296455
 21
107.2776379017
 31
0.0
  0
LINE
  5
FB
330
1F
100
AcDbEntity
  8
0
  6
HIDDEN
 62
     7
370
     0
100
AcDbLine
 10
177.9943781395
 20
103.0030343088
 30
0.0
 11
177.9943781395
 21
102.9509398555
 31
0.0
  0
ARC
  5
FC
330
1F
100
AcDbEntity
  8
0
  6
HIDDEN
 62
     7
370
     0
100
AcDbCircle
 10
178.9897264972
 20
102.9603875698
 30
0.0
 40
0.9953931949452414
100
AcDbArc
 50
180.5438275897
 51
280.3187985
  0
LINE
  5
FD
330
1F
100
AcDbEntity
  8
0
  6
HIDDEN
 62
     7
370
     0
100
AcDbLine
 10
181.6943781395
 20
103.2461417576
 30
0.0
 11
181.6943781395
 21
103.2982362109
 31
0.0
  0
ARC
  5
FE
330
1F
100
AcDbEntity
  8
0
  6
HIDDEN
 62
     7
370
     0
100
AcDbCircle
 10
180.7051505174
 20
103.2520400614
 30
0.0
 40
0.9892452063524501
100
AcDbArc
 50
279.4767018403
 51
359.6583759873
  0
ARC
  5
FF
330
1F
100
AcDbEntity
  8
0
  6
HIDDEN
 62
     7
370
     0
100
AcDbCircle
 10
178.9836057616
 20
104.6450415517
 30
0.0
 40
0.9892452063524344
100
AcDbArc
 50
99.4767018403
 51
179.6583759873
  0
LINE
  5
100
330
1F
100
AcDbEntity
  8
0
  6
HIDDEN
 62
     7
370
     0
100
AcDbLine
 10
180.5207299618
 20
105.915988068
 30
0.0
 11
178.8207299618
 21
105.6207861659
 31
0.0
  0
ARC
  5
101
330
1F
100
AcDbEntity
  8
0
  6
HIDDEN
 62
     7
370
     0
100
AcDbCircle
 10
180.6990297818
 20
104.9366940433
 30
0.0
 40
0.9953931949452095
100
AcDbArc
 50
0.5438275897
 51
100.3187985
  0
CIRCLE
  5
102
330
1F
100
AcDbEntity
  8
0
  6
HIDDEN
 62
     7
370
     0
100
AcDbCircle
 10
179.841326537
 20
103.9637557871
 30
0.0
 40
1.344708909655401
  0
LINE
  5
103
330
1F
100
AcDbEntity
  8
0
  6
HIDDEN
 62
     7
370
     0
100
AcDbLine
 10
181.6943781395
 20
103.2461417576
 30
0.0
 11
181.6943781395
 21
104.9461417576
 31
0.0
  0
LINE
  5
104
330
1F
100
AcDbEntity
  8
0
  6
HIDDEN
 62
     7
370
     0
100
AcDbLine
 10
177.9943781395
 20
104.6509398555
 30
0.0
 11
177.9943781395
 21
102.9509398555
 31
0.0
  0
LINE
  5
105
330
1F
100
AcDbEntity
  8
0
  6
HIDDEN
 62
     7
370
     0
100
AcDbLine
 10
179.1680263172
 20
101.9810935451
 30
0.0
 11
180.8680263172
 21
102.2762954472
 31
0.0
  0
CIRCLE
  5
106
330
1F
100
AcDbEntity
  8
0
  6
HIDDEN
 62
     7
370
     0
100
AcDbCircle
 10
179.837196129
 20
103.9043937459
 30
0.0
 40
1.020449862128174
  0
LINE
  5
107
330
1F
100
AcDbEntity
  8
0
  6
HIDDEN
 62
     7
370
     0
100
AcDbLine
 10
177.9943781395
 20
104.6509398555
 30
0.0
 11
177.9943781395
 21
104.7030343088
 31
0.0
  0
LINE
  5
108
330
1F
100
AcDbEntity
  8
0
  6
HIDDEN
 62
     7
370
     0
100
AcDbLine
 10
181.6943781395
 20
104.9982362109
 30
0.0
 11
181.6943781395
 21
104.9461417576
 31
0.0
  0
ELLIPSE
  5
109
330
1F
100
AcDbEntity
  8
0
  6
HIDDEN
 62
     7
370
     0
100
AcDbEllipse
 10
182.8483894762
 20
104.5248062225
 30
0.0
 11
0.1179499282645508
 21
5.370322771373381
 31
0.0
210
0.0
220
0.0
230
1.0
 40
0.1217270572
 41
1.952956046842548
 42
2.334671916975097
  0
LINE
  5
10A
330
1F
100
AcDbEntity
  8
0
  6
HIDDEN
 62
     7
370
     0
100
AcDbLine
 10
108.0836569005
 20
101.0151553676
 30
0.0
 11
109.3826950061
 21
101.7651553676
 31
0.0
  0
LINE
  5
10B
330
1F
100
AcDbEntity
  8
0
  6
HIDDEN
 62
     7
370
     0
100
AcDbLine
 10
109.3826950061
 20
104.7651553676
 30
0.0
 11
108.0836569005
 21
105.5151553676
 31
0.0
  0
LINE
  5
10C
330
1F
100
AcDbEntity
  8
0
  6
HIDDEN
 62
     7
370
     0
100
AcDbLine
 10
171.0312262669
 20
105.2043262142
 30
0.0
 11
167.3629887219
 21
104.1524760243
 31
0.0
  0
LINE
  5
10D
330
1F
100
AcDbEntity
  8
0
  6
HIDDEN
 62
     7
370
     0
100
AcDbLine
 10
167.0045029442
 20
100.9287835741
 30
0.0
 11
173.3664609066
 21
102.7530456642
 31
0.0
  0
LWPOLYLINE
  5
10E
330
1F
100
AcDbEntity
  8
0
  6
HIDDEN
 62
     7
370
     0
100
AcDbPolyline
 90
        3
 70
   128
 43
0.0
 10
176.7632573472
 20
106.9313529756
 10
176.7238451852
 20
106.9610207385
 10
176.6935770131
 20
106.9897399378
  0
LINE
  5
10F
330
1F
100
AcDbEntity
  8
0
  6
HIDDEN
 62
     7
370
     0
100
AcDbLine
 10
176.5849466198
 20
107.2330600089
 30
0.0
 11
176.5836569005
 21
107.2651553676
 31
0.0
  0
LINE
  5
110
330
1F
100
AcDbEntity
  8
0
  6
HIDDEN
 62
     7
370
     0
100
AcDbLine
 10
109.3826950061
 20
101.7651553676
 30
0.0
 11
166.5138691584
 21
101.7651553676
 31
0.0
  0
LINE
  5
111
330
1F
100
AcDbEntity
  8
0
  6
HIDDEN
 62
     7
370
     0
100
AcDbLine
 10
167.0836569005
 20
104.7651553676
 30
0.0
 11
109.3826950061
 21
104.7651553676
 31
0.0
  0
LINE
  5
112
330
1F
100
AcDbEntity
  8
0
  6
HIDDEN
 62
     7
370
     0
100
AcDbLine
 10
167.4791670034
 20
104.1069160183
 30
0.0
 11
167.0836569005
 21
104.7651553676
 31
0.0
  0
LINE
  5
113
330
1F
100
AcDbEntity
  8
0
  6
HIDDEN
 62
     7
370
     0
100
AcDbLine
 10
176.2797705279
 20
101.3911391905
 30
0.0
 11
176.2797705279
 21
100.9698504288
 31
0.0
  0
LINE
  5
114
330
1F
100
AcDbEntity
  8
0
  6
HIDDEN
 62
     7
370
     0
100
AcDbLine
 10
178.2797705279
 20
100.9698504288
 30
0.0
 11
178.2797705279
 21
100.9906882101
 31
0.0
  0
LINE
  5
115
330
1F
100
AcDbEntity
  8
0
  6
HIDDEN
 62
     7
370
     0
100
AcDbLine
 10
178.8193781395
 20
103.8921051488
 30
0.0
 11
178.8193781395
 21
103.5779676875
 31
0.0
  0
LINE
  5
116
330
1F
100
AcDbEntity
  8
0
  6
HIDDEN
 62
     7
370
     0
100
AcDbLine
 10
180.8693781395
 20
103.5131235721
 30
0.0
 11
180.8693781395
 21
103.8921051488
 31
0.0
  0
LINE
  5
117
330
1F
100
AcDbEntity
  8
VERMASSUNG
100
AcDbLine
 10
182.3803761754
 20
103.2651553676
 30
0.0
 11
182.9161655861
 21
103.2651553676
 31
0.0
  0
LINE
  5
118
330
1F
100
AcDbEntity
  8
VERMASSUNG
100
AcDbLine
 10
152.992994026
 20
108.1401553676
 30
0.0
 11
152.992994026
 21
98.3901553676
 31
0.0
  0
POINT
  5
119
330
1F
100
AcDbEntity
  8
VERMASSUNG
100
AcDbPoint
 10
183.0836569005
 20
108.1401553676
 30
0.0
  0
DIMENSION
  5
11A
330
1F
100
AcDbEntity
  8
VERMASSUNG
100
AcDbDimension
  2
*D1
 10
189.6392948901
 20
98.3901553676
 30
0.0
 11
189.6392948901
 21
98.1313517943
 31
0.0
 70
   160
  1
%%c<>-15.1
 71
     2
 42
-1.0
  3
SLDDIMSTYLE0
100
AcDbAlignedDimension
 13
183.0836569005
 23
108.1401553676
 33
0.0
 14
183.0836569005
 24
98.3901553676
 34
0.0
 50
90.0
100
AcDbRotatedDimension
  0
DIMENSION
  5
126
330
1F
100
AcDbEntity
  8
VERMASSUNG
100
AcDbDimension
  2
*D2
 10
108.0836569005
 20
121.4383866577
 30
0.0
 11
143.2607646696
 21
121.4383866577
 31
0.0
 70
   160
 71
     2
 42
-1.0
  3
SLDDIMSTYLE1
100
AcDbAlignedDimension
 13
183.0836569005
 23
108.1401553676
 33
0.0
 14
108.0836569005
 24
109.4651553676
 34
0.0
100
AcDbRotatedDimension
  0
DIMENSION
  5
131
330
1F
100
AcDbEntity
  8
VERMASSUNG
100
AcDbDimension
  2
*D3
 10
152.992994026
 20
114.4718533427
 30
0.0
 11
168.5109185186
 21
114.4718533427
 31
0.0
 70
   160
 71
     2
 42
-1.0
  3
SLDDIMSTYLE2
100
AcDbAlignedDimension
 13
183.0836569005
 23
108.1401553676
 33
0.0
 14
152.992994026
 24
108.1401553676
 34
0.0
100
AcDbRotatedDimension
  0
DIMENSION
  5
13C
330
1F
100
AcDbEntity
  8
VERMASSUNG
100
AcDbDimension
  2
*D4
 10
101.7755999218
 20
95.2651553676
 30
0.0
 11
101.7755999218
 21
102.7504387398
 31
0.0
 70
   160
  1
%%c<>
 71
     2
 42
-1.0
  3
SLDDIMSTYLE1
100
AcDbAlignedDimension
 13
119.3836569005
 23
111.2651553676
 33
0.0
 14
109.4586569005
 24
95.2651553676
 34
0.0
 50
90.0
100
AcDbRotatedDimension
  0
OLE2FRAME
  5
147
330
1F
100
AcDbEntity
  8
0
100
AcDbOle2Frame
 70
     2
  3
Paintbrush-Bild
 10
13.8511154363
 20
38.264191557
 30
0.0
 11
51.6290888628
 21
31.9806341108
 31
0.0
 71
     2
 72
     0
 73
     1
 90
    12928
310
80552BED0767C5B32B40DDAF6807D121434000000000000000006FFBDDFB85D0
310
4940DDAF6807D121434000000000000000006FFBDDFB85D04940416F4BD60AFB
310
3F4000000000000000002BED0767C5B32B40416F4BD60AFB3F40000000000000
310
0000000000000100000000010000010000000100000000000100000000320000
310
D0CF11E0A1B11AE1000000000000000000000000000000003E000300FEFF0900
310
0600000000000000000000000100000001000000000000000010000002000000
310
01000000FEFFFFFF0000000000000000FFFFFFFFFFFFFFFFFFFFFFFFFFFFFFFF
310
FFFFFFFFFFFFFFFFFFFFFFFFFFFFFFFFFFFFFFFFFFFFFFFFFFFFFFFFFFFFFFFF
310
FFFFFFFFFFFFFFFFFFFFFFFFFFFFFFFFFFFFFFFFFFFFFFFFFFFFFFFFFFFFFFFF
310
FFFFFFFFFFFFFFFFFFFFFFFFFFFFFFFFFFFFFFFFFFFFFFFFFFFFFFFFFFFFFFFF
310
FFFFFFFFFFFFFFFFFFFFFFFFFFFFFFFFFFFFFFFFFFFFFFFFFFFFFFFFFFFFFFFF
310
FFFFFFFFFFFFFFFFFFFFFFFFFFFFFFFFFFFFFFFFFFFFFFFFFFFFFFFFFFFFFFFF
310
FFFFFFFFFFFFFFFFFFFFFFFFFFFFFFFFFFFFFFFFFFFFFFFFFFFFFFFFFFFFFFFF
310
FFFFFFFFFFFFFFFFFFFFFFFFFFFFFFFFFFFFFFFFFFFFFFFFFFFFFFFFFFFFFFFF
310
FFFFFFFFFFFFFFFFFFFFFFFFFFFFFFFFFFFFFFFFFFFFFFFFFFFFFFFFFFFFFFFF
310
FFFFFFFFFFFFFFFFFFFFFFFFFFFFFFFFFFFFFFFFFFFFFFFFFFFFFFFFFFFFFFFF
310
FFFFFFFFFFFFFFFFFFFFFFFFFFFFFFFFFFFFFFFFFFFFFFFFFFFFFFFFFFFFFFFF
310
FFFFFFFFFFFFFFFFFFFFFFFFFFFFFFFFFFFFFFFFFFFFFFFFFFFFFFFFFFFFFFFF
310
FFFFFFFFFFFFFFFFFFFFFFFFFFFFFFFFFFFFFFFFFFFFFFFFFFFFFFFFFFFFFFFF
310
FFFFFFFFFFFFFFFFFFFFFFFFFFFFFFFFFFFFFFFFFFFFFFFFFFFFFFFFFFFFFFFF
310
FDFFFFFFFEFFFFFFFEFFFFFFFEFFFFFF05000000060000000700000008000000
310
090000000A0000000B0000000C0000000D0000000E0000000F00000010000000
310
11000000120000001300000014000000150000001600000017000000FEFFFFFF
310
FFFFFFFFFFFFFFFFFFFFFFFFFFFFFFFFFFFFFFFFFFFFFFFFFFFFFFFFFFFFFFFF
310
FFFFFFFFFFFFFFFFFFFFFFFFFFFFFFFFFFFFFFFFFFFFFFFFFFFFFFFFFFFFFFFF
310
FFFFFFFFFFFFFFFFFFFFFFFFFFFFFFFFFFFFFFFFFFFFFFFFFFFFFFFFFFFFFFFF
310
FFFFFFFFFFFFFFFFFFFFFFFFFFFFFFFFFFFFFFFFFFFFFFFFFFFFFFFFFFFFFFFF
310
FFFFFFFFFFFFFFFFFFFFFFFFFFFFFFFFFFFFFFFFFFFFFFFFFFFFFFFFFFFFFFFF
310
FFFFFFFFFFFFFFFFFFFFFFFFFFFFFFFFFFFFFFFFFFFFFFFFFFFFFFFFFFFFFFFF
310
FFFFFFFFFFFFFFFFFFFFFFFFFFFFFFFFFFFFFFFFFFFFFFFFFFFFFFFFFFFFFFFF
310
FFFFFFFFFFFFFFFFFFFFFFFFFFFFFFFFFFFFFFFFFFFFFFFFFFFFFFFFFFFFFFFF
310
FFFFFFFFFFFFFFFFFFFFFFFFFFFFFFFFFFFFFFFFFFFFFFFFFFFFFFFFFFFFFFFF
310
FFFFFFFFFFFFFFFFFFFFFFFFFFFFFFFFFFFFFFFFFFFFFFFFFFFFFFFFFFFFFFFF
310
FFFFFFFFFFFFFFFFFFFFFFFFFFFFFFFFFFFFFFFFFFFFFFFFFFFFFFFFFFFFFFFF
310
FFFFFFFFFFFFFFFFFFFFFFFFFFFFFFFFFFFFFFFFFFFFFFFFFFFFFFFFFFFFFFFF
310
FFFFFFFFFFFFFFFFFFFFFFFFFFFFFFFFFFFFFFFFFFFFFFFFFFFFFFFFFFFFFFFF
310
52006F006F007400200045006E00740072007900000000000000000000000000
310
0000000000000000000000000000000000000000000000000000000000000000
310
16000500FFFFFFFFFFFFFFFF020000000A00030000000000C000000000000046
310
00000000000000000000000030A5755AC1F7CC0103000000C000000000000000
310
01004F006C006500000000000000000000000000000000000000000000000000
310
0000000000000000000000000000000000000000000000000000000000000000
310
0A000200FFFFFFFFFFFFFFFFFFFFFFFF00000000000000000000000000000000
310
0000000000000000000000000000000000000000000000001400000000000000
310
010043006F006D0070004F0062006A0000000000000000000000000000000000
310
0000000000000000000000000000000000000000000000000000000000000000
310
120002010100000003000000FFFFFFFF00000000000000000000000000000000
310
0000000000000000000000000000000000000000010000004D00000000000000
310
01004F006C006500310030004E00610074006900760065000000000000000000
310
0000000000000000000000000000000000000000000000000000000000000000
310
1A000200FFFFFFFFFFFFFFFFFFFFFFFF00000000000000000000000000000000
310
0000000000000000000000000000000000000000040000002426000000000000
310
FEFFFFFF02000000FEFFFFFFFFFFFFFFFFFFFFFFFFFFFFFFFFFFFFFFFFFFFFFF
310
FFFFFFFFFFFFFFFFFFFFFFFFFFFFFFFFFFFFFFFFFFFFFFFFFFFFFFFFFFFFFFFF
310
FFFFFFFFFFFFFFFFFFFFFFFFFFFFFFFFFFFFFFFFFFFFFFFFFFFFFFFFFFFFFFFF
310
FFFFFFFFFFFFFFFFFFFFFFFFFFFFFFFFFFFFFFFFFFFFFFFFFFFFFFFFFFFFFFFF
310
FFFFFFFFFFFFFFFFFFFFFFFFFFFFFFFFFFFFFFFFFFFFFFFFFFFFFFFFFFFFFFFF
310
FFFFFFFFFFFFFFFFFFFFFFFFFFFFFFFFFFFFFFFFFFFFFFFFFFFFFFFFFFFFFFFF
310
FFFFFFFFFFFFFFFFFFFFFFFFFFFFFFFFFFFFFFFFFFFFFFFFFFFFFFFFFFFFFFFF
310
FFFFFFFFFFFFFFFFFFFFFFFFFFFFFFFFFFFFFFFFFFFFFFFFFFFFFFFFFFFFFFFF
310
FFFFFFFFFFFFFFFFFFFFFFFFFFFFFFFFFFFFFFFFFFFFFFFFFFFFFFFFFFFFFFFF
310
FFFFFFFFFFFFFFFFFFFFFFFFFFFFFFFFFFFFFFFFFFFFFFFFFFFFFFFFFFFFFFFF
310
FFFFFFFFFFFFFFFFFFFFFFFFFFFFFFFFFFFFFFFFFFFFFFFFFFFFFFFFFFFFFFFF
310
FFFFFFFFFFFFFFFFFFFFFFFFFFFFFFFFFFFFFFFFFFFFFFFFFFFFFFFFFFFFFFFF
310
FFFFFFFFFFFFFFFFFFFFFFFFFFFFFFFFFFFFFFFFFFFFFFFFFFFFFFFFFFFFFFFF
310
FFFFFFFFFFFFFFFFFFFFFFFFFFFFFFFFFFFFFFFFFFFFFFFFFFFFFFFFFFFFFFFF
310
FFFFFFFFFFFFFFFFFFFFFFFFFFFFFFFFFFFFFFFFFFFFFFFFFFFFFFFFFFFFFFFF
310
FFFFFFFFFFFFFFFFFFFFFFFFFFFFFFFFFFFFFFFFFFFFFFFFFFFFFFFFFFFFFFFF
310
0100000200000000000000000000000000000000000000000000000000000000
310
0000000000000000000000000000000000000000000000000000000000000000
310
0100FEFF030A0000FFFFFFFF0A00030000000000C00000000000004607000000
310
5042727573680007000000504272757368000700000050427275736800F439B2
310
7100000000000000000000000000000000000000000000000000000000000000
310
0000000000000000000000000000000000000000000000000000000000000000
310
0000000000000000000000000000000000000000000000000000000000000000
310
0000000000000000000000000000000000000000000000000000000000000000
310
0000000000000000000000000000000000000000000000000000000000000000
310
0000000000000000000000000000000000000000000000000000000000000000
310
0000000000000000000000000000000000000000000000000000000000000000
310
0000000000000000000000000000000000000000000000000000000000000000
310
0000000000000000000000000000000000000000000000000000000000000000
310
0000000000000000000000000000000000000000000000000000000000000000
310
0000000000000000000000000000000000000000000000000000000000000000
310
0000000000000000000000000000000000000000000000000000000000000000
310
20260000424D0E260000000000003E00000028000000B40200006E0000000100
310
01000000000000000000130B0000130B00000200000002000000000000FFFFFF
310
FFFFFFFFFFFFFFFFFFFFFFFFFFFFFFFFFFFFFFFFFFFFFFFFFFFFFFFFFFFFFFFF
310
FFFFFFFFFFFFFFFFFFFFFFFFFFFFFFFFFFFFFFFFFFFFFFFFFFFFFFFFFFFFFFFF
310
FFFFFFFFFFFFFFFFFFFFFFFFFFFFFFFFFFFFFFFFFFFFFFFFF000FFFFFFFFFFFF
310
FFFFFFFFFFFFFFFFFFFFFFFFFFFFFFFFFFFFFFFFFFFFFFFFFFFFFFFFFFFFFFFF
310
FFFFFFFFFFFFFFFFFFFFFFFFFFFFFFFFFFFFFFFFFFFFFFFFFFFFFFFFFFFFFFFF
310
FFFFFFFFFFFFFFFFFFFFFFFFFFFFFFFFF000FFFFFFFFFFFFFFFFFFFFFFFFFFFF
310
FFFFFFFFFFFFFFFFFFFFFFFFFFFFFFFFFFFFFFFFFFFFFFFFFFFFFFFFFFFFFFFF
310
FFFFFFFFFFFFFFFFFFFFFFFFFFFFFFFFFFFFFFFFFFFFFFFFFFFFFFFFFFFFFFFF
310
FFFFFFFFFFFFFFFFF000FFFFFFFFFFFFFFFFFFFFFFFFFFFFFFFFFFFFFFFFFFFF
310
FFFFFFFFFFFFFFFFFFFFFFFFFFFFFFFFFFFFFFFFFFFFFFFFFFFFFFFFFFFFFFFF
310
FFFFFFFFFFFFFFFFFFFFFFFFFFFFFFFFFFFFFFFFFFFFFFFFFFFFFFFFFFFFFFFF
310
F000FFFFFFFFFFFFFFFFFFFFFFFFFFFFFFFFFFFFFFFFFFFFFFFFFFFFFFFFFFFF
310
FFFFFFFFFFFFFFFFFFFFFFFFFFFFFFFFFFFFFFFFFFFFFFFFFFFFFFFFFFFFFFFF
310
FFFFFFFFFFFFFFFFFFFFFFFFFFFFFFFFFFFFFFFFFFFFFFFFF000FFFFFFFFFFFF
310
FFFFFFFFFFFFFFFFFFFFFFFFFFFFFFFFFFFFFFFFFFFFFFFFFFFFFFFFFFFFFFFF
310
FFFFFFFFFFFFFFFFFFFFFFFFFFFFFFFFFFFFFFFFFFFFFFFFFFFFFFFFFFFFFFFF
310
FFFFFFFFFFFFFFFFFFFFFFFFFFFFFFFFF000FFFFFFFFFFFFFFFFFFFFFFFFFFFF
310
FFFFFFFFFFFFFFFFFFFFFFFFFFFFFFFFFFFFFFFFFFFFFFFFFFFFFFFFFFFFFFFF
310
FFFFFFFFFFFFFFFFFFFFFFFFFFFFFFFFFFFFFFFFFFFFFFFFFFFFFFFFFFFFFFFF
310
FFFFFFFFFFFFFFFFF000FFFFFFFFFFFFFFFFFFFFFFFFFFFFFFFFFFFFFFFFFFFF
310
FFFFFFFFFFFFFFFFFFFFFFFFFFFFFFFFFFFFFFFFFFFFFFFFFFFFFFFFFFFFFFFF
310
FFFFFFFFFFFFFFFFFFFFFFFFFFFFFFFFFFFFFFFFFFFFFFFFFFFFFFFFFFFFFFFF
310
F000FFFFFFFFFFFFFFFFFFFFFFFFFFFFFFFFFFFFFFFFFFFFFFFFFFFFFFFFFFFF
310
FFFFFFFFFFFFFFFFFFFFFFFFFFFFFFFFFFFFFFFFFFFFFFFFFFFFFFFFFFFFFFFF
310
FFFFFFFFFFFFFFFFFFFFFFFFFFFFFFFFFFFFFFFFFFFFFFFFF000FFFFFFFFFFFF
310
FFFFFFFFFFFFFFFFFFFFFFFFFFFFFFFFFFFFFFFFFFFFFFFFFFFFFFFFFFFFFFFF
310
FFFFFFFFFFFFFFFFFFFFFFFFFFFFFFFFFFFFFFFFFFFFFFFFFFFFFFFFFFFFFFFF
310
FFFFFFFFFFFFFFFFFFFFFFFFFFFFFFFFF000FFFFFFFFFFFFFFFFFFFFFFFFFFFF
310
FFFFFFFFFFFFFFFFFFFFFFFFFFFFFFFFFFFFFFFFFFFFFFFFFFFFFFFFFFFFFFFF
310
FFFFFFFFFFFFFFFFFFFFFFFFFFFFFFFFFFFFFFFFFFFFFFFFFFFFFFFFFFFFFFFF
310
FFFFFFFFFFFFFFFFF000FFFFFFFFFFFFFFFFFFFFFFFFFFFFFFFFFFFFFFFFFFFF
310
FFFFFFFFFFFFFFFFFFFFFFFFFFFFFFFFFFFFFFFFFFFFFFFFFFFFFFFFFFFFFFFF
310
FFFFFFFFFFFFFFFFFFFFFFFFFFFFFFFFFFFFFFFFFFFFFFFFFFFFFFFFFFFFFFFF
310
F000FFFFFFFFFFFFFFFFFFFFFFFFFFFFFFFFFFFFFFFFFFFFFFFFFFFFFFFFFFFF
310
FFFFFFFFFFFFFFFFFFFFFFFFFFFFFFFFFFFFFFFFFFFFFFFFFFFFFFFFFFFFFFFF
310
FFFFFFFFFFFFFFFFFFFFFFFFFFFFFFFFFFFFFFFFFFFFFFFFF000FFFFFFFFFFFF
310
FFFFFFFFFFFFFFFFFFFFFFFFFFFFFFFFFFFFFFFFFFFFFFFFFFFFFFFFFFFFFFFF
310
FFFFFFFFFFFFFFFFFFFFFFFFFFFFFFFFFFFFFFFFFFFFFFFFFFFFFFFFFFFFFFFF
310
FFFFFFFFFFFFFFFFFFFFFFFFFFFFFFFFF000FFFFFFFFFFFFFFFFFFFFFFFFFFFF
310
FFFFFFFFFFFFFFFFFFFFFFFFFFFFFFFFFFFFFFFFFFFFFFFFFFFFFFFFFFFFFFFF
310
FFFFFFFFFFFFFFFFFFFFFFFFFFFFFFFFFFFFFFFFFFFFFFFFFFFFFFFFFFFFFFFF
310
FFFFFFFFFFFFFFFFF000FFFFFFFFFFFFFFFFFFFFFFFFFFFFFFFFFFFFFFFFFFFF
310
FFFFFFFFFFFFFFFFFFFFFFFFFFFFFFFFFFFFFFFFFFFFFFFFFFFFFFFFFFFFFFFF
310
FFFFFFFFFFFFFFFFFFFFFFFFFFFFFFFFFFFFFFFFFFFFFFFFFFFFFFFFFFFFFFFF
310
F000FFFFFFFFFFFFFFFFFFFFFFFFFFFFFFFFFFFFFFFFFFFFFFFFFFFFFFFFFFFF
310
FFFFFFFFFFFFFFFFFFFFFFFFFFFFFFFFFFFFFFFFFFFFFFFFFFFFFFFFFFFFFFFF
310
FFFFFFFFFFFFFFFFFFFFFFFFFFFFFFFFFFFFFFFFFFFFFFFFF000FFFFFFFFFFFF
310
FFFFFFFFFFFFFFFFFFFFFFFFFFFFFFFFFFFFFFFFFFFFFFFFFFFFFFFFFFFFFFFF
310
FFFFFFFFFFFFFFFFFFFFFFFFFFFFFFFFFFFFFFFFFFFFFFFFFFFFFFFFFFFFFFFF
310
FFFFFFFFFFFFFFFFFFFFFFFFFFFFFFFFF000FFFFFFFFFFFFFFFFFFFFFFFFFFFF
310
FFFFFFFFFFFFFFFFFFFFFFFFFFFFFFFFFFFFFFFFFFFFFFFFFFFFFFFFFFFFFFFF
310
FFFFFFFFFFFFFFFFFFFFFFFFFFFFFFFFFFFFFFFFFFFFFFFFFFFFFFFFFFFFFFFF
310
FFFFFFFFFFFFFFFFF000FFFFF80003FFFFFFFFFFFFFFFFFFFFFFFFFFFFFFFFFF
310
FFFFF00007FFFFFFFFFF00007FFFFFF800000000000000007FFFFFFFFFFFFFFF
310
FFFFFFFC001FFFFFFFFFFFFFFC001FFFFFFFFFFFFFFFFFFFFFFFFFFE0007FFFF
310
F000FFFF8000007FFFFFFFF8000FFFFFC0007FFFFF80007FFFFF0000007FFFFF
310
FFF8000007FFFFF800000000000000007FFFFFF0001FFFFFFFFFFFC00001FFFF
310
FFFFFFFFC00001FFFFFFFF000000000003FFFFE000007FFFF000FFFE0000000F
310
FFFFFFF0000FFFFF80007FFFFF80007FFFFC0000001FFFFFFFC0000001FFFFF8
310
00000000000000007FFFFFF0001FFFFFFFFFFE0000003FFFFFFFFFFE0000003F
310
FFFFFF000000000003FFFF0000000FFFF000FFF800000003FFFFFFF00007FFFF
310
80007FFFFF80007FFFF000000007FFFFFF000000003FFFF80000000000000000
310
7FFFFFF0001FFFFFFFFFF80000000FFFFFFFFFF80000000FFFFFFF0000000000
310
03FFFC00000003FFF000FFE000000000FFFFFFF00007FFFF80003FFFFF80007F
310
FFC000000001FFFFFC000000001FFFF800000000000000007FFFFFF0001FFFFF
310
FFFFE000000003FFFFFFFFE000000003FFFFFF000000000003FFF000000000FF
310
F000FF80000000007FFFFFF00007FFFF80003FFFFF80007FFF8000000000FFFF
310
F80000000007FFF800000000000000007FFFFFF0001FFFFFFFFFC000000001FF
310
FFFFFFC000000001FFFFFF000000000003FFC0000000007FF000FF0000000000
310
3FFFFFE00007FFFF00003FFFFF80007FFE00000000003FFFF00000000003FFF8
310
00000000000000007FFFFFF0001FFFFFFFFF8000000000FFFFFFFF8000000000
310
FFFFFF000000000003FF80000000003FF000FE00000000001FFFFFE00003FFFF
310
00003FFFFF80007FFC00000000001FFFE00000000001FFF8000001FFFE000000
310
7FFFFFF0001FFFFFFFFE00000000003FFFFFFE00000000003FFFFF0000000000
310
03FF00000000001FF000FC00000000000FFFFFE00003FFFF00001FFFFF80007F
310
F800000000001FFFC00000000000FFF8000001FFFE0000007FFFFFF0001FFFFF
310
FFFC00000000001FFFFFFC00000000001FFFFF000000000003FE00000000000F
310
F000F8000000000007FFFFE00003FFFF00001FFFFF80007FF800000000000FFF
310
800000000000FFF8000001FFFE0000007FFFFFF0001FFFFFFFF800000000000F
310
FFFFF800000000000FFFFF000000000003FC000000000007F000F80000000000
310
03FFFFC00003FFFE00001FFFFF80007FF0000000000007FF0000000000007FF8
310
000001FFFE0000007FFFFFF0001FFFFFFFF0000000000007FFFFF00000000000
310
07FFFF000000000003F8000000000003F000F0000000000003FFFFC00001FFFE
310
00001FFFFF80007FE0000000000007FE0000000000003FF8000001FFFE000000
310
7FFFFFF0001FFFFFFFF0000000000007FFFFF0000000000007FFFF0000000000
310
03F800001F800003F000E00001FFF00001FFFFC00001FFFE00000FFFFF80007F
310
E00001FFE00003FE00001FFF00003FF8000001FFFE0000007FFFFFF0001FFFFF
310
FFE000003E000003FFFFE000003E000003FFFF000000000003F00001FFF80001
310
F000E00007FFFC0001FFFFC00001FFFE00000FFFFF80007FC0000FFFFC0003FC
310
0000FFFFC0001FF8000001FFFE0000007FFFFFF0001FFFFFFFC00003FFE00001
310
FFFFC00003FFE00001FFFF0001FFFFFFFFF00007FFFE0001F000E0000FFFFF00
310
00FFFF800001FFFC00000FFFFF80007FC0001FFFFE0001FC0001FFFFE0001FF8
310
000001FFFE0000007FFFFFF0001FFFFFFF80000FFFF80000FFFF80000FFFF800
310
00FFFF0003FFFFFFFFE0000FFFFF8000F000C0003FFFFF8000FFFF800000FFFC
310
000007FFFF80007F80003FFFFF0001FC0003FFFFF0001FF8000001FFFE000000
310
7FFFFFF0001FFFFFFF80003FFFFE0000FFFF80003FFFFE0000FFFF0003FFFFFF
310
FFE0003FFFFF8000F000C0003FFFFF8000FFFF800000FFFC000007FFFF80007F
310
80007FFFFF8001F80007FFFFF8000FF8000001FFFE0000007FFFFFF0001FFFFF
310
FF00007FFFFF00007FFF00007FFFFF00007FFF0003FFFFFFFFE0003FFFFFC000
310
F000C0007FFFFFC000FFFF000000FFFC000007FFFF80007F8000FFFFFF8000F8
310
000FFFFFF8000FF8000001FFFE0000007FFFFFF0001FFFFFFF0000FFFFFF8000
310
7FFF0000FFFFFF80007FFF0003FFFFFFFFC0007FFFFFC00070008000FFFFFFC0
310
00FFFF000000FFF8000007FFFF80007F8000FFFFFF8000F8000FFFFFF8000FF8
310
000001FFFE0000007FFFFFF0001FFFFFFE0001FFFFFFC0003FFE0001FFFFFFC0
310
003FFF0003FFFFFFFFC0007FFFFFE00070008000FFFFFFC0007FFF0000007FF8
310
000003FFFF80007F0001FFFFFF8000F8000FFFFFF8000FF8000001FFFE000000
310
7FFFFFF0001FFFFFFE0001FFFFFFC0003FFE0001FFFFFFC0003FFF0003FFFFFF
310
FFC000FFFFFFE00070008000FFFFFFC0007FFF0000007FF8000003FFFF80007F
310
0001FFFFFF8000F8001FFFFFF8000FF8000001FFFE0000007FFFFFF0001FFFFF
310
FE0003FFFFFFE0003FFE0003FFFFFFE0003FFF0003FFFFFFFFC000FFFFFFE000
310
70008000FFFFFFC0007FFE0000007FF8000003FFFF80007F0001FFFFFF8000F0
310
001FFFFFF8000FF8000001FFFE0000007FFFFFF0001FFFFFFC0003FFFFFFE000
310
1FFC0003FFFFFFE0001FFF0003FFFFFFFFC000FFFFFFC00070008000FFFFFF80
310
007FFE0000007FF0000003FFFF80007F0001FFFFFF0000F0001FFFFFF8000FF8
310
000001FFFE0000007FFFFFF0001FFFFFFC0007FFFFFFF0001FFC0007FFFFFFF0
310
001FFF0003FFFFFFFFC000FFFFFFC00070008001FFFFFF0000FFFE0000003FF0
310
000001FFFF80007F0001FFFFFF0000F8001FFFFFF0000FF8000001FFFE000000
310
7FFFFFF0001FFFFFFC0007FFFFFFF0001FFC0007FFFFFFF0001FFF0003FFFFFF
310
FFC001FFFFFF80007000FFFFFFFFFE0000FFFE0008003FF0008001FFFF80007F
310
FFFFFFFFFC0000FFFFFFFFFFE0000FF8000001FFFE0000007FFFFFF0001FFFFF
310
F8000FFFFFFFF8000FF8000FFFFFFFF8000FFF0003FFFFFFFFFFFFFFFFFF0000
310
7000FFFFFFFFFC0000FFFC0008003FF0008001FFFF80007FFFFFFFFFF80001FF
310
FFFFFFFF80000FF8000001FFFE0000007FFFFFF0001FFFFFF8000FFFFFFFF800
310
0FF8000FFFFFFFF8000FFF0003FFFFFFFFFFFFFFFFFE0000F000FFFFFFFFE000
310
00FFFC000C003FE000C001FFFF80007FFFFFFFFFC00001FFFFFFFFFE00001FF8
310
000001FFFE0000007FFFFFF0001FFFFFF8000FFFFFFFF8000FF8000FFFFFFFF8
310
000FFF0003FFFFFFFFFFFFFFFFF00000F000FFFFFFFE000001FFFC000C001FE0
310
00C000FFFF80007FFFFFFFFE000001FFFFFFFFE000001FF80FFFFFFFFFFFFFC0
310
7FFFFFF0001FFFFFF8000FFFFFFFF8000FF8000FFFFFFFF8000FFF0003FFFFFF
310
FFFFFFFFFF800000F000FFFFFFC0000001FFFC001C001FE001C000FFFF80007F
310
FFFFFF80000003FFFFFFF80000001FF80FFFFFFFFFFFFFC07FFFFFF0001FFFFF
310
F8001FFFFFFFFC000FF8001FFFFFFFFC000FFF0003FFFFFFFFFFFFFFF0000001
310
F000FFFFF800000001FFF8001C001FE001C000FFFF80007FFFFFF800000003FF
310
FFFF800000003FF80FFFFFFFFFFFFFC07FFFFFF0001FFFFFF8001FFFFFFFFC00
310
0FF8001FFFFFFFFC000FFF0003FFFFFFFFFFFFFE00000001F000FFFFC0000000
310
03FFF8001E001FC001E000FFFF80007FFFFF8000000007FFFFFC000000003FF8
310
0FFFFFFFFFFFFFC07FFFFFF0001FFFFFF8001FFFFFFFFC000FF8001FFFFFFFFC
310
000FFF0003FFFFFFFFFFFFE000000003F000FFFE0000000007FFF8001E000FC0
310
01E0007FFF80007FFFFE0000000007FFFFE0000000007FF80FFFFFFFFFFFFFC0
310
7FFFFFF0001FFFFFF0001FFFFFFFFC0007F0001FFFFFFFFC0007FF0003FFFFFF
310
FFFFFF0000000003F000FFF80000000007FFF8001E000FC003E0007FFF80007F
310
FFF0000000000FFFFF8000000000FFF80FFFFFFFFFFFFFC07FFFFFF0001FFFFF
310
F0001FFFFFFFFC0007F0001FFFFFFFFC0007FF0003FFFFFFFFFFFC0000000007
310
F000FFE0000000000FFFF0003E000FC003E0007FFF80007FFFC0000000001FFF
310
FE0000000001FFF80FFFFFFFFFFFFFC07FFFFFF0001FFFFFF0001FFFFFFFFC00
310
07F0001FFFFFFFFC0007FF0003FFFFFFFFFFF0000000000FF000FFC000000000
310
1FFFF0003F000F8003F0003FFF80007FFF80000000003FFFF80000000003FFF8
310
0FFFFFFFFFFFFFC07FFFFFF0001FFFFFF0001FFFFFFFFC0007F0001FFFFFFFFC
310
0007FF0003FFFFFFFFFFE0000000001FF000FF00000000007FFFF0003F000780
310
03F0003FFF80007FFF00000000007FFFF00000000007FFF80FFFFFFFFFFFFFC0
310
7FFFFFF0001FFFFFF0001FFFFFFFFC0007F0001FFFFFFFFC0007FF0003FFFFFF
310
FFFF80000000007FF000FE0000000000FFFFE0003F00078007F0003FFF80007F
310
FE0000000001FFFFE0000000001FFFF80FFFFFFFFFFFFFC07FFFFFF0001FFFFF
310
F0001FFFFFFFFC0007F0001FFFFFFFFC0007FF0003FFFFFFFFFF0000000000FF
310
F000FC0000000003FFFFE0007F00078007F0003FFF80007FFC0000000007FFFF
310
C0000000007FFFF80FFFFFFFFFFFFFC07FFFFFF0001FFFFFF8001FFFFFFFFC00
310
0FF8001FFFFFFFFC000FFF0003FFFFFFFFFE0000000003FFF000FC000000000F
310
FFFFE0007F80070007F8001FFF80007FF8000000001FFFFF8000000001FFFFF8
310
0FFFFFFFFFFFFFC07FFFFFF0001FFFFFF8001FFFFFFFFC000FF8001FFFFFFFFC
310
000FFF0003FFFFFFFFFC000000000FFFF000F8000000007FFFFFE0007F800700
310
07F8001FFF80007FF000000000FFFFFF800000000FFFFFF80FFFFFFFFFFFFFC0
310
7FFFFFF0001FFFFFF8000FFFFFFFF8000FF8000FFFFFFFF8000FFF0003FFFFFF
310
FFFC000000007FFFF000F800000007FFFFFFC0007F8003000FF8001FFF80007F
310
F000000007FFFFFF000000007FFFFFF80FFFFFFFFFFFFFC07FFFFFF0001FFFFF
310
F8000FFFFFFFF8000FF8000FFFFFFFF8000FFF0003FFFFFFFFF80000000FFFFF
310
F000F0000000FFFFFFFFC000FF8003000FF8001FFF80007FE0000000FFFFFFFF
310
0000000FFFFFFFF8000001FFFE0000007FFFFFF0001FFFFFF8000FFFFFFFF800
310
0FF8000FFFFFFFF8000FFF0003FFFFFFFFF8000000FFFFFFF000F000000FFFFF
310
FFFFC000FFC002000FF8000FFF80007FE000001FFFFFFFFE000001FFFFFFFFF8
310
000001FFFE0000007FFFFFF0001FFFFFF8000FFFFFFFF8000FF8000FFFFFFFF8
310
000FFF0003FFFFFFFFF000001FFFFFFFF000E00000FFFFFFFFFFC000FFC00200
310
0FFC000FFF80007FE00001FFFFFFFFFE00001FFFFFFFFFF8000001FFFE000000
310
7FFFFFF0001FFFFFFC000FFFFFFFF8001FFC000FFFFFFFF8001FFF0003FFFFFF
310
FFF00001FFFFFFFFF000E00007FFFFFFFFFF8000FFC000001FFC000FFF80007F
310
C0000FFFFFFFFFFE0000FFFFFFFFFFF8000001FFFE0000007FFFFFF0001FFFFF
310
FC0007FFFFFFF0001FFC0007FFFFFFF0001FFF0003FFFFFFFFF00007FFFFFFFF
310
F000E0001FFFFFFFFFFF8000FFC000001FFC000FFF80007FC0003FFFFFFFFFFE
310
0001FFFFFFFFFFF8000001FFFE0000007FFFFFF0001FFFFFFC0007FFFFFFF000
310
1FFC0007FFFFFFF0001FFF0003FFFFFFFFF0001FFFFFFFFFF000E0003FFFFF00
310
03FF8001FFE000001FFC0007FF80007FC0007FFFFF0007FC0003FFFFF0003FF8
310
000001FFFE0000007FFFFFF0001FFFFFFC0003FFFFFFE0001FFC0003FFFFFFE0
310
001FFF0003FFFFFFFFF0003FFFFFFFFFF000E0003FFFFF0001FF8001FFE00000
310
1FFE0007FF80007FC0007FFFFE0003FC0007FFFFE0003FF8000001FFFE000000
310
7FFFFFF0001FFFFFFE0003FFFFFFE0003FFE0003FFFFFFE0003FFF0003FFFFFF
310
FFF0003FFFFF8001F000E0003FFFFF0001FF0001FFE000001FFE0007FF80007F
310
C0007FFFFE0003FC0007FFFFE0003FF8000001FFFE0000007FFFFFF0001FFFFF
310
FE0001FFFFFFC0003FFE0001FFFFFFC0003FFF0003FFFFFFFFF0003FFFFF0001
310
F000E0003FFFFF0003FF0001FFE000003FFE0007FF80007FC0007FFFFE0003FC
310
0007FFFFE0003FF8000001FFFE0000007FFFFFF0001FFFFFFF0001FFFFFFC000
310
7FFF0001FFFFFFC0007FFF0003FFFFFFFFF0003FFFFF0001F000E0003FFFFE00
310
03FF0003FFF000003FFE0003FF80007FC0007FFFFC0003FE0007FFFFE0003FF8
310
000001FFFE0000007FFFFFF0001FFFFFFF0000FFFFFF80007FFF0000FFFFFF80
310
007FFF0003FFFFFFFFF0003FFFFF0001F000E0003FFFFE0003FF0003FFF00000
310
3FFF0003FF80007FC0007FFFFC0007FE0007FFFFC0003FF8000001FFFE000000
310
7FFFFFF0001FFFFFFF80007FFFFF0000FFFF80007FFFFF0000FFFF0003FFFFFF
310
FFF0003FFFFF0003F000E0003FFFFC0003FE0003FFF000003FFF0003FF80007F
310
E0003FFFF80007FE0003FFFFC0007FF8000001FFFE0000007FFFFFF0001FFFFF
310
FF80003FFFFE0000FFFF80003FFFFE0000FFFF0003FFFFFFFFF0001FFFFE0003
310
F000F0001FFFF80003FE0003FFF000007FFF0001FF80007FE0003FFFF00007FE
310
0001FFFF80007FF8000001FFFE0000007FFFFFF0001FFFFFFFC0000FFFF80001
310
FFFFC0000FFFF80001FFFF0003FFFFFFFFF0001FFFFC0003F000F0000FFFF000
310
07FE0007FFF800007FFF0001FF80007FE0001FFFE00007FF0000FFFE00007FF8
310
000001FFFE0000007FFFFFF0001FFFFFFFC00003FFE00001FFFFC00003FFE000
310
01FFFF0003FFFFFFFFF8000FFFF80003F000F00003FFC00007FC0007FFF80000
310
7FFF8001FF80007FF00007FF80000FFF00007FF80000FFF8000001FFFE000000
310
7F80000000000001FFE000003E000003FFFFE000003E000003FFFF0003FFFFFF
310
FFF80003FFE00007F000F800000000000FFC0007FFF800007FFF8001FF80007F
310
F000000000000FFF000000000000FFF8000001FFFE0000007F80000000000001
310
FFF0000000000007FFFFF0000000000007FFFF0003FFFFFFFFFC00007E000007
310
F000F800000000000FFC0007FFF80000FFFF8000FF80007FF800000000001FFF
310
800000000001FFF8000001FFFE0000007F80000000000001FFF800000000000F
310
FFFFF800000000000FFFFF0003FFFFFFFFFC00000000000FF000FC0000000000
310
1FFC0007FFFC0000FFFF8000FF80007FF800000000003FFFC00000000001FFF8
310
000001FFFE0000007F80000000000001FFF800000000000FFFFFF80000000000
310
0FFFFF0003FFFFFFFFFE00000000001FF000FE00000000003FF8000FFFFC0000
310
FFFF8000FF80007FFC00000000003FFFC00000000003FFF8000001FFFE000000
310
7F80000000000001FFFC00000000001FFFFFFC00000000001FFFFF0003FFFFFF
310
FFFF00000000001FF000FF00000000003FF8000FFFFC0000FFFFC000FF80007F
310
FE00000000007FFFE00000000007FFF8000001FFFE0000007F80000000000001
310
FFFE00000000003FFFFFFE00000000003FFFFF0003FFFFFFFFFF80000000003F
310
F000FF80000000007FF8000FFFFC0001FFFFC0007F80007FFF0000000000FFFF
310
F0000000000FFFF800000000000000007F80000000000001FFFF8000000000FF
310
FFFFFF8000000000FFFFFF0003FFFFFFFFFFC0000000007FF000FFC000000000
310
FFF8000FFFFE0001FFFFC0007F80007FFF8000000001FFFFF8000000001FFFF8
310
00000000000000007F80000000000001FFFFC000000001FFFFFFFFC000000001
310
FFFFFF0003FFFFFFFFFFE000000000FFF000FFE000000003FFF0001FFFFE0001
310
FFFFC0007F80007FFFC000000007FFFFFE000000003FFFF80000000000000000
310
7F80000000000001FFFFE000000003FFFFFFFFE000000003FFFFFF0003FFFFFF
310
FFFFF000000003FFF000FFF80000000FFFF0001FFFFE0001FFFFE0007F80007F
310
FFF00000000FFFFFFF00000000FFFFF800000000000000007F80000000000001
310
FFFFF80000000FFFFFFFFFF80000000FFFFFFF0003FFFFFFFFFFFC0000000FFF
310
F000FFFE0000003FFFF0001FFFFE0003FFFFE0003F80007FFFFC0000003FFFFF
310
FFC0000003FFFFF800000000000000007F80000000000001FFFFFE0000003FFF
310
FFFFFFFE0000003FFFFFFF0003FFFFFFFFFFFF0000003FFFF000FFFF800000FF
310
FFF0001FFFFF0003FFFFE0003F80007FFFFF000001FFFFFFFFF800001FFFFFF8
310
00000000000000007F80000000000001FFFFFFC00001FFFFFFFFFFFFC00001FF
310
FFFFFF0003FFFFFFFFFFFFC00000FFFFF000FFFFF8000FFFFFFFFFFFFFFFFFFF
310
FFFFFFFFFFFFFFFFFFFFF0001FFFFFFFFFFF0000FFFFFFF80000000000000000
310
7FFFFFFFFFFFFFFFFFFFFFFC001FFFFFFFFFFFFFFC001FFFFFFFFFFFFFFFFFFF
310
FFFFFFFC001FFFFFF000FFFFFFFFFFFFFFFFFFFFFFFFFFFFFFFFFFFFFFFFFFFF
310
FFFFFFFFFFFFFFFFFFFFFFFFFFFFFFFFFFFFFFFFFFFFFFFFFFFFFFFFFFFFFFFF
310
FFFFFFFFFFFFFFFFFFFFFFFFFFFFFFFFFFFFFFFFFFFFFFFFFFFFFFFFFFFFFFFF
310
F000FFFFFFFFFFFFFFFFFFFFFFFFFFFFFFFFFFFFFFFFFFFFFFFFFFFFFFFFFFFF
310
FFFFFFFFFFFFFFFFFFFFFFFFFFFFFFFFFFFFFFFFFFFFFFFFFFFFFFFFFFFFFFFF
310
FFFFFFFFFFFFFFFFFFFFFFFFFFFFFFFFFFFFFFFFFFFFFFFFF000FFFFFFFFFFFF
310
FFFFFFFFFFFFFFFFFFFFFFFFFFFFFFFFFFFFFFFFFFFFFFFFFFFFFFFFFFFFFFFF
310
FFFFFFFFFFFFFFFFFFFFFFFFFFFFFFFFFFFFFFFFFFFFFFFFFFFFFFFFFFFFFFFF
310
FFFFFFFFFFFFFFFFFFFFFFFFFFFFFFFFF000FFFFFFFFFFFFFFFFFFFFFFFFFFFF
310
FFFFFFFFFFFFFFFFFFFFFFFFFFFFFFFFFFFFFFFFFFFFFFFFFFFFFFFFFFFFFFFF
310
FFFFFFFFFFFFFFFFFFFFFFFFFFFFFFFFFFFFFFFFFFFFFFFFFFFFFFFFFFFFFFFF
310
FFFFFFFFFFFFFFFFF000FFFFFFFFFFFFFFFFFFFFFFFFFFFFFFFFFFFFFFFFFFFF
310
FFFFFFFFFFFFFFFFFFFFFFFFFFFFFFFFFFFFFFFFFFFFFFFFFFFFFFFFFFFFFFFF
310
FFFFFFFFFFFFFFFFFFFFFFFFFFFFFFFFFFFFFFFFFFFFFFFFFFFFFFFFFFFFFFFF
310
F000FFFFFFFFFFFFFFFFFFFFFFFFFFFFFFFFFFFFFFFFFFFFFFFFFFFFFFFFFFFF
310
FFFFFFFFFFFFFFFFFFFFFFFFFFFFFFFFFFFFFFFFFFFFFFFFFFFFFFFFFFFFFFFF
310
FFFFFFFFFFFFFFFFFFFFFFFFFFFFFFFFFFFFFFFFFFFFFFFFF000FFFFFFFFFFFF
310
FFFFFFFFFFFFFFFFFFFFFFFFFFFFFFFFFFFFFFFFFFFFFFFFFFFFFFFFFFFFFFFF
310
FFFFFFFFFFFFFFFFFFFFFFFFFFFFFFFFFFFFFFFFFFFFFFFFFFFFFFFFFFFFFFFF
310
FFFFFFFFFFFFFFFFFFFFFFFFFFFFFFFFF000FFFFFFFFFFFFFFFFFFFFFFFFFFFF
310
FFFFFFFFFFFFFFFFFFFFFFFFFFFFFFFFFFFFFFFFFFFFFFFFFFFFFFFFFFFFFFFF
310
FFFFFFFFFFFFFFFFFFFFFFFFFFFFFFFFFFFFFFFFFFFFFFFFFFFFFFFFFFFFFFFF
310
FFFFFFFFFFFFFFFFF000FFFFFFFFFFFFFFFFFFFFFFFFFFFFFFFFFFFFFFFFFFFF
310
FFFFFFFFFFFFFFFFFFFFFFFFFFFFFFFFFFFFFFFFFFFFFFFFFFFFFFFFFFFFFFFF
310
FFFFFFFFFFFFFFFFFFFFFFFFFFFFFFFFFFFFFFFFFFFFFFFFFFFFFFFFFFFFFFFF
310
F000FFFFFFFFFFFFFFFFFFFFFFFFFFFFFFFFFFFFFFFFFFFFFFFFFFFFFFFFFFFF
310
FFFFFFFFFFFFFFFFFFFFFFFFFFFFFFFFFFFFFFFFFFFFFFFFFFFFFFFFFFFFFFFF
310
FFFFFFFFFFFFFFFFFFFFFFFFFFFFFFFFFFFFFFFFFFFFFFFFF000FFFFFFFFFFFF
310
FFFFFFFFFFFFFFFFFFFFFFFFFFFFFFFFFFFFFFFFFFFFFFFFFFFFFFFFFFFFFFFF
310
FFFFFFFFFFFFFFFFFFFFFFFFFFFFFFFFFFFFFFFFFFFFFFFFFFFFFFFFFFFFFFFF
310
FFFFFFFFFFFFFFFFFFFFFFFFFFFFFFFFF000FFFFFFFFFFFFFFFFFFFFFFFFFFFF
310
FFFFFFFFFFFFFFFFFFFFFFFFFFFFFFFFFFFFFFFFFFFFFFFFFFFFFFFFFFFFFFFF
310
FFFFFFFFFFFFFFFFFFFFFFFFFFFFFFFFFFFFFFFFFFFFFFFFFFFFFFFFFFFFFFFF
310
FFFFFFFFFFFFFFFFF000FFFFFFFFFFFFFFFFFFFFFFFFFFFFFFFFFFFFFFFFFFFF
310
FFFFFFFFFFFFFFFFFFFFFFFFFFFFFFFFFFFFFFFFFFFFFFFFFFFFFFFFFFFFFFFF
310
FFFFFFFFFFFFFFFFFFFFFFFFFFFFFFFFFFFFFFFFFFFFFFFFFFFFFFFFFFFFFFFF
310
F000FFFFFFFFFFFFFFFFFFFFFFFFFFFFFFFFFFFFFFFFFFFFFFFFFFFFFFFFFFFF
310
FFFFFFFFFFFFFFFFFFFFFFFFFFFFFFFFFFFFFFFFFFFFFFFFFFFFFFFFFFFFFFFF
310
FFFFFFFFFFFFFFFFFFFFFFFFFFFFFFFFFFFFFFFFFFFFFFFFF000FFFFFFFFFFFF
310
FFFFFFFFFFFFFFFFFFFFFFFFFFFFFFFFFFFFFFFFFFFFFFFFFFFFFFFFFFFFFFFF
310
FFFFFFFFFFFFFFFFFFFFFFFFFFFFFFFFFFFFFFFFFFFFFFFFFFFFFFFFFFFFFFFF
310
FFFFFFFFFFFFFFFFFFFFFFFFFFFFFFFFF000FFFFFFFFFFFFFFFFFFFFFFFFFFFF
310
FFFFFFFFFFFFFFFFFFFFFFFFFFFFFFFFFFFFFFFFFFFFFFFFFFFFFFFFFFFFFFFF
310
FFFFFFFFFFFFFFFFFFFFFFFFFFFFFFFFFFFFFFFFFFFFFFFFFFFFFFFFFFFFFFFF
310
FFFFFFFFFFFFFFFFF000FFFFFFFFFFFFFFFFFFFFFFFFFFFFFFFFFFFFFFFFFFFF
310
FFFFFFFFFFFFFFFFFFFFFFFFFFFFFFFFFFFFFFFFFFFFFFFFFFFFFFFFFFFFFFFF
310
FFFFFFFFFFFFFFFFFFFFFFFFFFFFFFFFFFFFFFFFFFFFFFFFFFFFFFFFFFFFFFFF
310
F000FFFFFFFFFFFFFFFFFFFFFFFFFFFFFFFFFFFFFFFFFFFFFFFFFFFFFFFFFFFF
310
FFFFFFFFFFFFFFFFFFFFFFFFFFFFFFFFFFFFFFFFFFFFFFFFFFFFFFFFFFFFFFFF
310
FFFFFFFFFFFFFFFFFFFFFFFFFFFFFFFFFFFFFFFFFFFFFFFFF000FFFFFFFFFFFF
310
FFFFFFFFFFFFFFFFFFFFFFFFFFFFFFFFFFFFFFFFFFFFFFFFFFFFFFFFFFFFFFFF
310
FFFFFFFFFFFFFFFFFFFFFFFFFFFFFFFFFFFFFFFFFFFFFFFFFFFFFFFFFFFFFFFF
310
FFFFFFFFFFFFFFFFFFFFFFFFFFFFFFFFF000FFFFFFFFFFFFFFFFFFFFFFFFFFFF
310
FFFFFFFFFFFFFFFFFFFFFFFFFFFFFFFFFFFFFFFFFFFFFFFFFFFFFFFFFFFFFFFF
310
FFFFFFFFFFFFFFFFFFFFFFFFFFFFFFFFFFFFFFFFFFFFFFFFFFFFFFFFFFFFFFFF
310
FFFFFFFFFFFFFFFFF000FFFFFFFFFFFFFFFFFFFFFFFFFFFFFFFFFFFFFFFFFFFF
310
FFFFFFFFFFFFFFFFFFFFFFFFFFFFFFFFFFFFFFFFFFFFFFFFFFFFFFFFFFFFFFFF
310
FFFFFFFFFFFFFFFFFFFFFFFFFFFFFFFFFFFFFFFFFFFFFFFFFFFFFFFFFFFFFFFF
310
F000FFFFFFFFFFFFFFFFFFFFFFFFFFFFFFFFFFFFFFFFFFFFFFFFFFFFFFFFFFFF
310
FFFFFFFFFFFFFFFFFFFFFFFFFFFFFFFFFFFFFFFFFFFFFFFFFFFFFFFFFFFFFFFF
310
FFFFFFFFFFFFFFFFFFFFFFFFFFFFFFFFFFFFFFFFFFFFFFFFF000FFFFFFFFFFFF
310
FFFFFFFFFFFFFFFFFFFFFFFFFFFFFFFFFFFFFFFFFFFFFFFFFFFFFFFFFFFFFFFF
310
FFFFFFFFFFFFFFFFFFFFFFFFFFFFFFFFFFFFFFFFFFFFFFFFFFFFFFFFFFFFFFFF
310
FFFFFFFFFFFFFFFFFFFFFFFFFFFFFFFFF0000000000000000000000000000000
310
0000000000000000000000000000000000000000000000000000000000000000
310
0000000000000000000000000000000000000000000000000000000000000000
310
0000000000000000000000000000000000000000000000000000000000000000
310
0000000000000000000000000000000000000000000000000000000000000000
310
0000000000000000000000000000000000000000000000000000000000000000
310
0000000000000000000000000000000000000000000000000000000000000000
310
0000000000000000000000000000000000000000000000000000000000000000
310
0000000000000000000000000000000000000000000000000000000000000000
310
0000000000000000000000000000000000000000000000000000000000000000
310
0000000000000000000000000000000000000000000000000000000000000000
310
0000000000000000000000000000000000000000000000000000000000000000
310
0000000000000000000000000000000000000000000000000000000000000000
310
0000000000000000000000000000000000000000000000000000000000000000
310
0000000000000000000000000000000000000000000000000000000000000000
310
0000000000000000000000000000000000000000000000000000000000000000
  1
OLE
  0
ENDSEC
  0
SECTION
  2
OBJECTS
  0
DICTIONARY
  5
C
330
0
100
AcDbDictionary
281
     1
  3
ACAD_GROUP
350
D
  3
ACAD_LAYOUT
350
1A
  3
ACAD_MLINESTYLE
350
17
  3
ACAD_PLOTSETTINGS
350
19
  3
ACAD_PLOTSTYLENAME
350
E
  0
DICTIONARY
  5
D
102
{ACAD_REACTORS
330
C
102
}
330
C
100
AcDbDictionary
281
     1
  0
DICTIONARY
  5
1A
102
{ACAD_REACTORS
330
C
102
}
330
C
100
AcDbDictionary
281
     1
  3
Layout1
350
1E
  3
Layout2
350
26
  3
Model
350
22
  0
DICTIONARY
  5
17
102
{ACAD_REACTORS
330
C
102
}
330
C
100
AcDbDictionary
281
     1
  3
Standard
350
18
  0
DICTIONARY
  5
19
102
{ACAD_REACTORS
330
C
102
}
330
C
100
AcDbDictionary
281
     1
  0
ACDBDICTIONARYWDFLT
  5
E
102
{ACAD_REACTORS
330
C
102
}
330
C
100
AcDbDictionary
281
     1
  3
Normal
350
F
100
AcDbDictionaryWithDefault
340
F
  0
LAYOUT
  5
1E
102
{ACAD_REACTORS
330
1A
102
}
330
1A
100
AcDbPlotSettings
  1

  2
none_device
  4

  6

 40
0.0
 41
0.0
 42
0.0
 43
0.0
 44
0.0
 45
0.0
 46
0.0
 47
0.0
 48
0.0
 49
0.0
140
0.0
141
0.0
142
1.0
143
1.0
 70
   688
 72
     0
 73
     0
 74
     5
  7

 75
    16
147
1.0
148
0.0
149
0.0
100
AcDbLayout
  1
Layout1
 70
     1
 71
     1
 10
0.0
 20
0.0
 11
420.0
 21
297.0
 12
0.0
 22
0.0
 32
0.0
 14
1.0000000000E+20
 24
1.0000000000E+20
 34
1.0000000000E+20
 15
-1.0000000000E+20
 25
-1.0000000000E+20
 35
-1.0000000000E+20
146
0.0
 13
0.0
 23
0.0
 33
0.0
 16
1.0
 26
0.0
 36
0.0
 17
0.0
 27
1.0
 37
0.0
 76
     0
330
1B
  0
LAYOUT
  5
26
102
{ACAD_REACTORS
330
1A
102
}
330
1A
100
AcDbPlotSettings
  1

  2
none_device
  4

  6

 40
0.0
 41
0.0
 42
0.0
 43
0.0
 44
0.0
 45
0.0
 46
0.0
 47
0.0
 48
0.0
 49
0.0
140
0.0
141
0.0
142
1.0
143
1.0
 70
   688
 72
     0
 73
     0
 74
     5
  7

 75
    16
147
1.0
148
0.0
149
0.0
100
AcDbLayout
  1
Layout2
 70
     1
 71
     2
 10
0.0
 20
0.0
 11
0.0
 21
0.0
 12
0.0
 22
0.0
 32
0.0
 14
0.0
 24
0.0
 34
0.0
 15
0.0
 25
0.0
 35
0.0
146
0.0
 13
0.0
 23
0.0
 33
0.0
 16
1.0
 26
0.0
 36
0.0
 17
0.0
 27
1.0
 37
0.0
 76
     0
330
23
  0
LAYOUT
  5
22
102
{ACAD_REACTORS
330
1A
102
}
330
1A
100
AcDbPlotSettings
  1

  2
none_device
  4

  6

 40
0.0
 41
0.0
 42
0.0
 43
0.0
 44
0.0
 45
0.0
 46
0.0
 47
0.0
 48
0.0
 49
0.0
140
0.0
141
0.0
142
1.0
143
1.0
 70
  1712
 72
     0
 73
     0
 74
     0
  7

 75
     0
147
1.0
148
0.0
149
0.0
100
AcDbLayout
  1
Model
 70
     1
 71
     0
 10
0.0
 20
0.0
 11
297.0
 21
210.0
 12
0.0
 22
0.0
 32
0.0
 14
0.0
 24
0.0
 34
0.0
 15
297.0
 25
210.0
 35
0.0
146
0.0
 13
0.0
 23
0.0
 33
0.0
 16
1.0
 26
0.0
 36
0.0
 17
0.0
 27
1.0
 37
0.0
 76
     0
330
1F
331
29
  0
MLINESTYLE
  5
18
102
{ACAD_REACTORS
330
17
102
}
330
17
100
AcDbMlineStyle
  2
Standard
 70
     0
  3

 62
   256
 51
90.0
 52
90.0
 71
     2
 49
0.5
 62
   256
  6
BYLAYER
 49
-0.5
 62
   256
  6
BYLAYER
  0
ACDBPLACEHOLDER
  5
F
102
{ACAD_REACTORS
330
E
102
}
330
E
  0
ENDSEC
  0
EOF
