  0
SECTION
  2
HEADER
  9
$ACADVER
  1
AC1015
  9
$ACADMAINTVER
 70
     6
  9
$DWGCODEPAGE
  3
ANSI_1252
  9
$INSBASE
 10
0.0
 20
0.0
 30
0.0
  9
$EXTMIN
 10
0.0
 20
0.0
 30
0.0
  9
$EXTMAX
 10
297.0
 20
210.0
 30
0.0
  9
$LIMMIN
 10
0.0
 20
0.0
  9
$LIMMAX
 10
297.0
 20
210.0
  9
$ORTHOMODE
 70
     0
  9
$REGENMODE
 70
     1
  9
$FILLMODE
 70
     1
  9
$QTEXTMODE
 70
     0
  9
$MIRRTEXT
 70
     1
  9
$LTSCALE
 40
1.0
  9
$ATTMODE
 70
     1
  9
$TEXTSIZE
 40
2.0
  9
$TRACEWID
 40
1.0
  9
$TEXTSTYLE
  7
Standard
  9
$CLAYER
  8
0
  9
$CELTYPE
  6
ByLayer
  9
$CECOLOR
 62
   256
  9
$CELTSCALE
 40
1.0
  9
$DISPSILH
 70
     0
  9
$DIMSCALE
 40
1.0
  9
$DIMASZ
 40
3.0
  9
$DIMEXO
 40
0.0
  9
$DIMDLI
 40
3.75
  9
$DIMRND
 40
0.0
  9
$DIMDLE
 40
0.0
  9
$DIMEXE
 40
1.0
  9
$DIMTP
 40
0.0
  9
$DIMTM
 40
0.0
  9
$DIMTXT
 40
2.0
  9
$DIMCEN
 40
2.5
  9
$DIMTSZ
 40
0.0
  9
$DIMTOL
 70
     0
  9
$DIMLIM
 70
     0
  9
$DIMTIH
 70
     1
  9
$DIMTOH
 70
     1
  9
$DIMSE1
 70
     0
  9
$DIMSE2
 70
     0
  9
$DIMTAD
 70
     1
  9
$DIMZIN
 70
     0
  9
$DIMBLK
  1

  9
$DIMASO
 70
     1
  9
$DIMSHO
 70
     1
  9
$DIMPOST
  1

  9
$DIMAPOST
  1

  9
$DIMALT
 70
     0
  9
$DIMALTD
 70
     3
  9
$DIMALTF
 40
0.0393700787
  9
$DIMLFAC
 40
1.0
  9
$DIMTOFL
 70
     1
  9
$DIMTVP
 40
0.0
  9
$DIMTIX
 70
     0
  9
$DIMSOXD
 70
     0
  9
$DIMSAH
 70
     0
  9
$DIMBLK1
  1

  9
$DIMBLK2
  1

  9
$DIMSTYLE
  2
ISO-25
  9
$DIMCLRD
 70
     0
  9
$DIMCLRE
 70
     0
  9
$DIMCLRT
 70
     0
  9
$DIMTFAC
 40
1.0
  9
$DIMGAP
 40
1.524
  9
$DIMJUST
 70
     0
  9
$DIMSD1
 70
     0
  9
$DIMSD2
 70
     0
  9
$DIMTOLJ
 70
     0
  9
$DIMTZIN
 70
     0
  9
$DIMALTZ
 70
     0
  9
$DIMALTTZ
 70
     0
  9
$DIMUPT
 70
     0
  9
$DIMDEC
 70
     2
  9
$DIMTDEC
 70
     3
  9
$DIMALTU
 70
     2
  9
$DIMALTTD
 70
     3
  9
$DIMTXSTY
  7
Standard
  9
$DIMAUNIT
 70
     0
  9
$DIMADEC
 70
     2
  9
$DIMALTRND
 40
0.0
  9
$DIMAZIN
 70
     0
  9
$DIMDSEP
 70
    44
  9
$DIMATFIT
 70
     3
  9
$DIMFRAC
 70
     0
  9
$DIMLDRBLK
  1

  9
$DIMLUNIT
 70
     2
  9
$DIMLWD
 70
    -2
  9
$DIMLWE
 70
    -2
  9
$DIMTMOVE
 70
     0
  9
$LUNITS
 70
     2
  9
$LUPREC
 70
     2
  9
$SKETCHINC
 40
1.0
  9
$FILLETRAD
 40
10.0
  9
$AUNITS
 70
     0
  9
$AUPREC
 70
     2
  9
$MENU
  1
.
  9
$ELEVATION
 40
0.0
  9
$PELEVATION
 40
0.0
  9
$THICKNESS
 40
0.0
  9
$LIMCHECK
 70
     0
  9
$CHAMFERA
 40
10.0
  9
$CHAMFERB
 40
10.0
  9
$CHAMFERC
 40
20.0
  9
$CHAMFERD
 40
0.0
  9
$SKPOLY
 70
     0
  9
$TDCREATE
 40
2456518.433458576
  9
$TDUCREATE
 40
2456518.350125243
  9
$TDUPDATE
 40
2456518.433459306
  9
$TDUUPDATE
 40
2456518.350125972
  9
$TDINDWG
 40
0.0000000116
  9
$TDUSRTIMER
 40
0.0000000116
  9
$USRTIMER
 70
     1
  9
$ANGBASE
 50
0.0
  9
$ANGDIR
 70
     0
  9
$PDMODE
 70
     0
  9
$PDSIZE
 40
-1.0
  9
$PLINEWID
 40
0.0
  9
$SPLFRAME
 70
     0
  9
$SPLINETYPE
 70
     6
  9
$SPLINESEGS
 70
     8
  9
$HANDSEED
  5
14C
  9
$SURFTAB1
 70
     6
  9
$SURFTAB2
 70
     6
  9
$SURFTYPE
 70
     6
  9
$SURFU
 70
     6
  9
$SURFV
 70
     6
  9
$UCSBASE
  2

  9
$UCSNAME
  2

  9
$UCSORG
 10
0.0
 20
0.0
 30
0.0
  9
$UCSXDIR
 10
1.0
 20
0.0
 30
0.0
  9
$UCSYDIR
 10
0.0
 20
1.0
 30
0.0
  9
$UCSORTHOREF
  2

  9
$UCSORTHOVIEW
 70
     0
  9
$UCSORGTOP
 10
0.0
 20
0.0
 30
0.0
  9
$UCSORGBOTTOM
 10
0.0
 20
0.0
 30
0.0
  9
$UCSORGLEFT
 10
0.0
 20
0.0
 30
0.0
  9
$UCSORGRIGHT
 10
0.0
 20
0.0
 30
0.0
  9
$UCSORGFRONT
 10
0.0
 20
0.0
 30
0.0
  9
$UCSORGBACK
 10
0.0
 20
0.0
 30
0.0
  9
$PUCSBASE
  2

  9
$PUCSNAME
  2

  9
$PUCSORG
 10
0.0
 20
0.0
 30
0.0
  9
$PUCSXDIR
 10
1.0
 20
0.0
 30
0.0
  9
$PUCSYDIR
 10
0.0
 20
1.0
 30
0.0
  9
$PUCSORTHOREF
  2

  9
$PUCSORTHOVIEW
 70
     0
  9
$PUCSORGTOP
 10
0.0
 20
0.0
 30
0.0
  9
$PUCSORGBOTTOM
 10
0.0
 20
0.0
 30
0.0
  9
$PUCSORGLEFT
 10
0.0
 20
0.0
 30
0.0
  9
$PUCSORGRIGHT
 10
0.0
 20
0.0
 30
0.0
  9
$PUCSORGFRONT
 10
0.0
 20
0.0
 30
0.0
  9
$PUCSORGBACK
 10
0.0
 20
0.0
 30
0.0
  9
$USERI1
 70
     0
  9
$USERI2
 70
     0
  9
$USERI3
 70
     0
  9
$USERI4
 70
     0
  9
$USERI5
 70
     0
  9
$USERR1
 40
0.0
  9
$USERR2
 40
0.0
  9
$USERR3
 40
0.0
  9
$USERR4
 40
0.0
  9
$USERR5
 40
0.0
  9
$WORLDVIEW
 70
     1
  9
$SHADEDGE
 70
     3
  9
$SHADEDIF
 70
    70
  9
$TILEMODE
 70
     1
  9
$MAXACTVP
 70
    64
  9
$PINSBASE
 10
0.0
 20
0.0
 30
0.0
  9
$PLIMCHECK
 70
     0
  9
$PEXTMIN
 10
1.0000000000E+20
 20
1.0000000000E+20
 30
1.0000000000E+20
  9
$PEXTMAX
 10
-1.0000000000E+20
 20
-1.0000000000E+20
 30
-1.0000000000E+20
  9
$PLIMMIN
 10
0.0
 20
0.0
  9
$PLIMMAX
 10
420.0
 20
297.0
  9
$UNITMODE
 70
     0
  9
$VISRETAIN
 70
     1
  9
$PLINEGEN
 70
     0
  9
$PSLTSCALE
 70
     1
  9
$TREEDEPTH
 70
  3020
  9
$CMLSTYLE
  2
Standard
  9
$CMLJUST
 70
     0
  9
$CMLSCALE
 40
20.0
  9
$PROXYGRAPHICS
 70
     1
  9
$MEASUREMENT
 70
     1
  9
$CELWEIGHT
370
    -1
  9
$ENDCAPS
280
     0
  9
$JOINSTYLE
280
     0
  9
$LWDISPLAY
290
     1
  9
$INSUNITS
 70
     4
  9
$HYPERLINKBASE
  1

  9
$STYLESHEET
  1

  9
$XEDIT
290
     1
  9
$CEPSNTYPE
380
     0
  9
$PSTYLEMODE
290
     1
  9
$FINGERPRINTGUID
  2
{D6C2CAAD-4A43-487C-9225-13FE8DD7C2D0}
  9
$VERSIONGUID
  2
{FAEB1C32-E019-11D5-929B-00C0DF256EC4}
  9
$EXTNAMES
290
     1
  9
$PSVPSCALE
 40
0.0
  9
$OLESTARTUP
290
     0
  0
ENDSEC
  0
SECTION
  2
CLASSES
  0
CLASS
  1
ACDBDICTIONARYWDFLT
  2
AcDbDictionaryWithDefault
  3
ObjectDBX Classes
 90
        0
280
     0
281
     0
  0
CLASS
  1
VISUALSTYLE
  2
AcDbVisualStyle
  3
ObjectDBX Classes
 90
     4095
280
     0
281
     0
  0
CLASS
  1
MATERIAL
  2
AcDbMaterial
  3
ObjectDBX Classes
 90
     1153
280
     0
281
     0
  0
CLASS
  1
ACDBPLACEHOLDER
  2
AcDbPlaceHolder
  3
ObjectDBX Classes
 90
        0
280
     0
281
     0
  0
CLASS
  1
LAYOUT
  2
AcDbLayout
  3
ObjectDBX Classes
 90
        0
280
     0
281
     0
  0
ENDSEC
  0
SECTION
  2
TABLES
  0
TABLE
  2
VPORT
  5
8
330
0
100
AcDbSymbolTable
 70
     1
  0
VPORT
  5
29
330
8
100
AcDbSymbolTableRecord
100
AcDbViewportTableRecord
  2
*Active
 70
     0
 10
0.0
 20
0.0
 11
1.0
 21
1.0
 12
148.5
 22
105.0
 13
0.0
 23
0.0
 14
10.0
 24
10.0
 15
10.0
 25
10.0
 16
0.0
 26
0.0
 36
1.0
 17
0.0
 27
0.0
 37
0.0
 40
210.0
 41
1.4142857143
 42
50.0
 43
0.0
 44
0.0
 50
0.0
 51
0.0
 71
     0
 72
  2000
 73
     1
 74
     3
 75
     0
 76
     0
 77
     0
 78
     0
281
     0
 65
     1
110
0.0
120
0.0
130
0.0
111
1.0
121
0.0
131
0.0
112
0.0
122
1.0
132
0.0
 79
     0
146
0.0
  0
ENDTAB
  0
TABLE
  2
LTYPE
  5
5
330
0
100
AcDbSymbolTable
 70
     6
  0
LTYPE
  5
14
330
5
100
AcDbSymbolTableRecord
100
AcDbLinetypeTableRecord
  2
ByBlock
 70
     0
  3

 72
    65
 73
     0
 40
0.0
  0
LTYPE
  5
15
330
5
100
AcDbSymbolTableRecord
100
AcDbLinetypeTableRecord
  2
ByLayer
 70
     0
  3

 72
    65
 73
     0
 40
0.0
  0
LTYPE
  5
16
330
5
100
AcDbSymbolTableRecord
100
AcDbLinetypeTableRecord
  2
Continuous
 70
     0
  3
Solid line
 72
    65
 73
     0
 40
0.0
  0
LTYPE
  5
3F
330
5
100
AcDbSymbolTableRecord
100
AcDbLinetypeTableRecord
  2
HIDDEN
 70
     0
  3
Hidden __ __ __ __ __ __ __ __ __ __ __ __ __ __
 72
    65
 73
     2
 40
1.905
 49
1.27
 74
     0
 49
-0.635
 74
     0
  0
LTYPE
  5
40
330
5
100
AcDbSymbolTableRecord
100
AcDbLinetypeTableRecord
  2
PHANTOM
 70
     0
  3
Phantom ______  __  __  ______  __  __  ______
 72
    65
 73
     6
 40
12.7
 49
6.35
 74
     0
 49
-1.27
 74
     0
 49
1.27
 74
     0
 49
-1.27
 74
     0
 49
1.27
 74
     0
 49
-1.27
 74
     0
  0
LTYPE
  5
41
330
5
100
AcDbSymbolTableRecord
100
AcDbLinetypeTableRecord
  2
CENTER
 70
     0
  3
Center ____ _ ____ _ ____ _ ____ _ ____ _ ____
 72
    65
 73
     4
 40
10.16
 49
6.35
 74
     0
 49
-1.27
 74
     0
 49
1.27
 74
     0
 49
-1.27
 74
     0
  0
LTYPE
  5
42
330
5
100
AcDbSymbolTableRecord
100
AcDbLinetypeTableRecord
  2
CENTERX2
 70
     0
  3
Center (2x) ________  __  ________  __  _____
 72
    65
 73
     4
 40
20.32
 49
12.7
 74
     0
 49
-2.54
 74
     0
 49
2.54
 74
     0
 49
-2.54
 74
     0
  0
LTYPE
  5
43
330
5
100
AcDbSymbolTableRecord
100
AcDbLinetypeTableRecord
  2
DOT2
 70
     0
  3
Dot (.5x) ........................................
 72
    65
 73
     2
 40
0.635
 49
0.0
 74
     0
 49
-0.635
 74
     0
  0
ENDTAB
  0
TABLE
  2
LAYER
  5
2
330
0
100
AcDbSymbolTable
 70
     5
  0
LAYER
  5
10
330
2
100
AcDbSymbolTableRecord
100
AcDbLayerTableRecord
  2
0
 70
     0
 62
     7
  6
Continuous
370
    -3
390
F
  0
LAYER
  5
44
330
2
100
AcDbSymbolTableRecord
100
AcDbLayerTableRecord
  2
FORMAT
 70
     0
 62
     7
  6
Continuous
370
    -3
390
F
  0
LAYER
  5
45
330
2
100
AcDbSymbolTableRecord
100
AcDbLayerTableRecord
  2
VERMASSUNG
 70
     0
 62
     7
  6
Continuous
370
    -3
390
F
  0
LAYER
  5
46
330
2
100
AcDbSymbolTableRecord
100
AcDbLayerTableRecord
  2
KOPF_DÜNN
 70
     0
 62
     7
  6
Continuous
370
    -3
390
F
  0
LAYER
  5
47
330
2
100
AcDbSymbolTableRecord
100
AcDbLayerTableRecord
  2
KOPF_DICK
 70
     0
 62
     7
  6
Continuous
370
    15
390
F
  0
ENDTAB
  0
TABLE
  2
STYLE
  5
3
330
0
100
AcDbSymbolTable
 70
     2
  0
STYLE
  5
11
330
3
100
AcDbSymbolTableRecord
100
AcDbTextStyleTableRecord
  2
Standard
 70
     0
 40
0.0
 41
1.0
 50
0.0
 71
     0
 42
2.0
  3
txt
  4

  0
STYLE
  5
48
330
3
100
AcDbSymbolTableRecord
100
AcDbTextStyleTableRecord
  2
SLDTEXTSTYLE0
 70
     0
 40
0.0
 41
0.7
 50
0.0
 71
     0
 42
0.2
  3
TXT
  4

  0
ENDTAB
  0
TABLE
  2
VIEW
  5
6
330
0
100
AcDbSymbolTable
 70
     0
  0
ENDTAB
  0
TABLE
  2
UCS
  5
7
330
0
100
AcDbSymbolTable
 70
     0
  0
ENDTAB
  0
TABLE
  2
APPID
  5
9
330
0
100
AcDbSymbolTable
 70
     1
  0
APPID
  5
12
330
9
100
AcDbSymbolTableRecord
100
AcDbRegAppTableRecord
  2
ACAD
 70
     0
  0
ENDTAB
  0
TABLE
  2
DIMSTYLE
  5
A
330
0
100
AcDbSymbolTable
 70
     3
100
AcDbDimStyleTable
  0
DIMSTYLE
105
27
330
A
100
AcDbSymbolTableRecord
100
AcDbDimStyleTableRecord
  2
ISO-25
 70
     0
 41
2.5
 42
0.625
 43
3.75
 44
1.25
 73
     0
 74
     0
 77
     1
 78
     8
140
2.5
141
2.5
143
0.0393700787
147
0.625
171
     3
172
     1
178
     0
271
     2
272
     2
274
     3
278
    44
283
     0
284
     8
340
11
  0
DIMSTYLE
105
129
102
{ACAD_REACTORS
330
128
102
}
330
A
100
AcDbSymbolTableRecord
100
AcDbDimStyleTableRecord
  2
SLDDIMSTYLE0
 70
     0
 41
3.0
 44
0.0
 45
0.000000001
 73
     0
 74
     0
 77
     1
 78
    12
 79
     3
140
2.0
147
0.5
173
     1
178
     0
271
     2
272
     3
276
     2
284
    12
340
48
  0
DIMSTYLE
105
134
102
{ACAD_REACTORS
330
133
330
13E
102
}
330
A
100
AcDbSymbolTableRecord
100
AcDbDimStyleTableRecord
  2
SLDDIMSTYLE1
 70
     0
 41
3.0
 44
0.0
 45
0.000000001
 73
     0
 74
     0
 77
     1
 78
    12
 79
     3
140
2.0
147
0.5
173
     1
178
     0
271
     2
272
     3
276
     2
284
    12
340
48
  0
ENDTAB
  0
TABLE
  2
BLOCK_RECORD
  5
1
330
0
100
AcDbSymbolTable
 70
     4
  0
BLOCK_RECORD
  5
1F
330
1
100
AcDbSymbolTableRecord
100
AcDbBlockTableRecord
  2
*Model_Space
340
22
  0
BLOCK_RECORD
  5
1B
330
1
100
AcDbSymbolTableRecord
100
AcDbBlockTableRecord
  2
*Paper_Space
340
1E
  0
BLOCK_RECORD
  5
23
330
1
100
AcDbSymbolTableRecord
100
AcDbBlockTableRecord
  2
*Paper_Space0
340
26
  0
BLOCK_RECORD
  5
12A
330
1
100
AcDbSymbolTableRecord
100
AcDbBlockTableRecord
  2
_D
340
0
  0
BLOCK_RECORD
  5
135
330
1
100
AcDbSymbolTableRecord
100
AcDbBlockTableRecord
  2
_D_1
340
0
  0
BLOCK_RECORD
  5
13F
330
1
100
AcDbSymbolTableRecord
100
AcDbBlockTableRecord
  2
_D_2
340
0
  0
ENDTAB
  0
ENDSEC
  0
SECTION
  2
BLOCKS
  0
BLOCK
  5
20
330
1F
100
AcDbEntity
  8
0
100
AcDbBlockBegin
  2
*Model_Space
 70
     0
 10
0.0
 20
0.0
 30
0.0
  3
*Model_Space
  1

  0
ENDBLK
  5
21
330
1F
100
AcDbEntity
  8
0
100
AcDbBlockEnd
  0
BLOCK
  5
1C
330
1B
100
AcDbEntity
 67
     1
  8
0
100
AcDbBlockBegin
  2
*Paper_Space
 70
     0
 10
0.0
 20
0.0
 30
0.0
  3
*Paper_Space
  1

  0
ENDBLK
  5
1D
330
1B
100
AcDbEntity
 67
     1
  8
0
100
AcDbBlockEnd
  0
BLOCK
  5
24
330
23
100
AcDbEntity
  8
0
100
AcDbBlockBegin
  2
*Paper_Space0
 70
     0
 10
0.0
 20
0.0
 30
0.0
  3
*Paper_Space0
  1

  0
ENDBLK
  5
25
330
23
100
AcDbEntity
  8
0
100
AcDbBlockEnd
  0
BLOCK
  5
12B
330
12A
100
AcDbEntity
  8
0
100
AcDbBlockBegin
  2
_D
 70
     0
 10
0.0
 20
0.0
 30
0.0
  3
_D
  1

  0
SOLID
  5
12D
330
12A
100
AcDbEntity
  8
VERMASSUNG
100
AcDbTrace
 10
202.2850826551
 20
118.9410643983
 30
0.0
 11
201.8350826551
 21
115.9410643983
 31
0.0
 12
202.7350826551
 22
115.9410643983
 32
0.0
 13
202.7350826551
 23
115.9410643983
 33
0.0
  0
LINE
  5
12E
330
12A
100
AcDbEntity
  8
VERMASSUNG
100
AcDbLine
 10
195.7049118647
 20
118.9410643983
 30
0.0
 11
203.2850826551
 21
118.9410643983
 31
0.0
  0
LINE
  5
12F
330
12A
100
AcDbEntity
  8
VERMASSUNG
100
AcDbLine
 10
202.2850826551
 20
118.9410643983
 30
0.0
 11
202.2850826551
 21
99.3612844689
 31
0.0
  0
MTEXT
  5
130
330
12A
100
AcDbEntity
  8
VERMASSUNG
100
AcDbMText
 10
199.7069471756
 20
100.9487844689
 30
0.0
 40
2.0
 41
0.0
 71
     1
 72
     1
  1
%%c
  7
SLDTEXTSTYLE0
 11
-7.044195017643634E-15
 21
1.0
 31
0.0
 73
     1
 44
1.0
  0
MTEXT
  5
131
330
12A
100
AcDbEntity
  8
VERMASSUNG
100
AcDbMText
 10
199.706947292
 20
104.5584568007
 30
0.0
 40
2.0
 41
0.0
 71
     1
 72
     1
  1
19.75
  7
SLDTEXTSTYLE0
 11
-7.044195017643634E-15
 21
1.0
 31
0.0
 73
     1
 44
1.0
  0
MTEXT
  5
132
330
12A
100
AcDbEntity
  8
VERMASSUNG
100
AcDbMText
 10
199.706947292
 20
110.3561839363
 30
0.0
 40
2.0
 41
0.0
 71
     1
 72
     1
  1
-25.1
  7
SLDTEXTSTYLE0
 11
-7.044195017643634E-15
 21
1.0
 31
0.0
 73
     1
 44
1.0
  0
ENDBLK
  5
12C
330
12A
100
AcDbEntity
  8
0
100
AcDbBlockEnd
  0
BLOCK
  5
136
330
135
100
AcDbEntity
  8
0
100
AcDbBlockBegin
  2
_D_1
 70
     0
 10
0.0
 20
0.0
 30
0.0
  3
_D_1
  1

  0
SOLID
  5
138
330
135
100
AcDbEntity
  8
VERMASSUNG
100
AcDbTrace
 10
195.7049118647
 20
126.7879179412
 30
0.0
 11
192.7049118647
 21
127.2379179412
 31
0.0
 12
192.7049118647
 22
126.3379179412
 32
0.0
 13
192.7049118647
 23
126.3379179412
 33
0.0
  0
SOLID
  5
139
330
135
100
AcDbEntity
  8
VERMASSUNG
100
AcDbTrace
 10
90.7049118647
 20
126.7879179412
 30
0.0
 11
93.7049118647
 21
126.3379179412
 31
0.0
 12
93.7049118647
 22
127.2379179412
 32
0.0
 13
93.7049118647
 23
127.2379179412
 33
0.0
  0
LINE
  5
13A
330
135
100
AcDbEntity
  8
VERMASSUNG
100
AcDbLine
 10
195.7049118647
 20
118.9410643983
 30
0.0
 11
195.7049118647
 21
127.7879179412
 31
0.0
  0
LINE
  5
13B
330
135
100
AcDbEntity
  8
VERMASSUNG
100
AcDbLine
 10
90.7049118647
 20
115.3960643983
 30
0.0
 11
90.7049118647
 21
127.7879179412
 31
0.0
  0
LINE
  5
13C
330
135
100
AcDbEntity
  8
VERMASSUNG
100
AcDbLine
 10
195.7049118647
 20
126.7879179412
 30
0.0
 11
90.7049118647
 21
126.7879179412
 31
0.0
  0
MTEXT
  5
13D
330
135
100
AcDbEntity
  8
VERMASSUNG
100
AcDbMText
 10
138.0540761998
 20
129.3660533044
 30
0.0
 40
2.0
 41
0.0
 71
     1
 72
     1
  1
105
  7
SLDTEXTSTYLE0
 73
     1
 44
1.0
  0
ENDBLK
  5
137
330
135
100
AcDbEntity
  8
0
100
AcDbBlockEnd
  0
BLOCK
  5
140
330
13F
100
AcDbEntity
  8
0
100
AcDbBlockBegin
  2
_D_2
 70
     0
 10
0.0
 20
0.0
 30
0.0
  3
_D_2
  1

  0
SOLID
  5
142
330
13F
100
AcDbEntity
  8
VERMASSUNG
100
AcDbTrace
 10
84.266854886
 20
117.0660643983
 30
0.0
 11
83.816854886
 21
114.0660643983
 31
0.0
 12
84.716854886
 22
114.0660643983
 32
0.0
 13
84.716854886
 23
114.0660643983
 33
0.0
  0
SOLID
  5
143
330
13F
100
AcDbEntity
  8
VERMASSUNG
100
AcDbTrace
 10
84.266854886
 20
101.0660643983
 30
0.0
 11
84.716854886
 21
104.0660643983
 31
0.0
 12
83.816854886
 22
104.0660643983
 32
0.0
 13
83.816854886
 23
104.0660643983
 33
0.0
  0
LINE
  5
144
330
13F
100
AcDbEntity
  8
VERMASSUNG
100
AcDbLine
 10
101.8749118647
 20
117.0660643983
 30
0.0
 11
83.266854886
 21
117.0660643983
 31
0.0
  0
LINE
  5
145
330
13F
100
AcDbEntity
  8
VERMASSUNG
100
AcDbLine
 10
92.0799118647
 20
101.0660643983
 30
0.0
 11
83.266854886
 21
101.0660643983
 31
0.0
  0
LINE
  5
146
330
13F
100
AcDbEntity
  8
VERMASSUNG
100
AcDbLine
 10
84.266854886
 20
117.0660643983
 30
0.0
 11
84.266854886
 21
101.0660643983
 31
0.0
  0
MTEXT
  5
147
330
13F
100
AcDbEntity
  8
VERMASSUNG
100
AcDbMText
 10
81.6887194065
 20
105.5474081245
 30
0.0
 40
2.0
 41
0.0
 71
     1
 72
     1
  1
%%c
  7
SLDTEXTSTYLE0
 11
-7.044195017643634E-15
 21
1.0
 31
0.0
 73
     1
 44
1.0
  0
MTEXT
  5
148
330
13F
100
AcDbEntity
  8
VERMASSUNG
100
AcDbMText
 10
81.6887195229
 20
109.1570804562
 30
0.0
 40
2.0
 41
0.0
 71
     1
 72
     1
  1
16
  7
SLDTEXTSTYLE0
 11
-7.044195017643634E-15
 21
1.0
 31
0.0
 73
     1
 44
1.0
  0
ENDBLK
  5
141
330
13F
100
AcDbEntity
  8
0
100
AcDbBlockEnd
  0
ENDSEC
  0
SECTION
  2
ENTITIES
  0
MTEXT
  5
49
330
1F
100
AcDbEntity
  8
KOPF_DÜNN
100
AcDbMText
 10
13.8892156294
 20
23.8442973028
 30
0.0
 40
3.0
 41
0.0
 71
     1
 72
     1
  1
272.020.006
  7
SLDTEXTSTYLE0
 73
     1
 44
1.0
  0
MTEXT
  5
4A
330
1F
100
AcDbEntity
  8
VERMASSUNG
100
AcDbMText
 10
13.9329988022
 20
28.8834360957
 30
0.0
 40
3.0
 41
0.0
 71
     1
 72
     1
  1
Ausdrehstahl_Boring bar ø19.75-25.1
  7
SLDTEXTSTYLE0
 73
     1
 44
1.0
  0
MTEXT
  5
4B
330
1F
100
AcDbEntity
  8
VERMASSUNG
100
AcDbMText
 10
98.8601118557
 20
13.8365368179
 30
0.0
 40
2.0
 41
0.0
 71
     1
 72
     1
  1
Datum: 03.08.2006
  7
SLDTEXTSTYLE0
 73
     1
 44
1.0
  0
MTEXT
  5
4C
330
1F
100
AcDbEntity
  8
VERMASSUNG
100
AcDbMText
 10
13.933048693
 20
18.0482802738
 30
0.0
 40
2.0
 41
0.0
 71
     1
 72
     1
  1
mit Innenkühlung_with spindel coolant feed
  7
SLDTEXTSTYLE0
 73
     1
 44
1.0
  0
MTEXT
  5
4D
330
1F
100
AcDbEntity
  8
VERMASSUNG
100
AcDbMText
 10
13.9808475933
 20
13.9090973692
 30
0.0
 40
2.0
 41
0.0
 71
     1
 72
     1
  1
Gewicht: 145g
  7
SLDTEXTSTYLE0
 73
     1
 44
1.0
  0
LINE
  5
4E
330
1F
100
AcDbEntity
  8
0
  6
Continuous
 62
     7
370
    15
100
AcDbLine
 10
172.9549118647
 20
100.8160643983
 30
0.0
 11
181.163535487
 21
100.8160643983
 31
0.0
  0
LINE
  5
4F
330
1F
100
AcDbEntity
  8
0
  6
Continuous
 62
     7
370
    15
100
AcDbLine
 10
181.9324033958
 20
117.3160643983
 30
0.0
 11
172.9549118647
 21
117.3160643983
 31
0.0
  0
LINE
  5
50
330
1F
100
AcDbEntity
  8
0
  6
Continuous
 62
     7
370
    15
100
AcDbLine
 10
172.9549118647
 20
117.3160643983
 30
0.0
 11
172.7049118647
 21
117.0660643983
 31
0.0
  0
LINE
  5
51
330
1F
100
AcDbEntity
  8
0
  6
Continuous
 62
     7
370
    15
100
AcDbLine
 10
172.7049118647
 20
101.0660643983
 30
0.0
 11
172.9549118647
 21
100.8160643983
 31
0.0
  0
LINE
  5
52
330
1F
100
AcDbEntity
  8
0
  6
Continuous
 62
     7
370
    15
100
AcDbLine
 10
90.7049118647
 20
102.4410643983
 30
0.0
 11
92.0799118647
 21
101.0660643983
 31
0.0
  0
LINE
  5
53
330
1F
100
AcDbEntity
  8
0
  6
Continuous
 62
     7
370
    15
100
AcDbLine
 10
92.0799118647
 20
101.0660643983
 30
0.0
 11
172.7049118647
 21
101.0660643983
 31
0.0
  0
LINE
  5
54
330
1F
100
AcDbEntity
  8
0
  6
Continuous
 62
     7
370
    15
100
AcDbLine
 10
105.0349118647
 20
117.0660643983
 30
0.0
 11
101.8749118647
 21
117.0660643983
 31
0.0
  0
LINE
  5
55
330
1F
100
AcDbEntity
  8
0
  6
Continuous
 62
     7
370
    15
100
AcDbLine
 10
119.5349118647
 20
117.0660643983
 30
0.0
 11
116.3749118647
 21
117.0660643983
 31
0.0
  0
LINE
  5
56
330
1F
100
AcDbEntity
  8
0
  6
Continuous
 62
     7
370
    15
100
AcDbLine
 10
134.0349118647
 20
117.0660643983
 30
0.0
 11
130.8749118647
 21
117.0660643983
 31
0.0
  0
LINE
  5
57
330
1F
100
AcDbEntity
  8
0
  6
Continuous
 62
     7
370
    15
100
AcDbLine
 10
148.5349118647
 20
117.0660643983
 30
0.0
 11
145.3749118647
 21
117.0660643983
 31
0.0
  0
LINE
  5
58
330
1F
100
AcDbEntity
  8
0
  6
Continuous
 62
     7
370
    15
100
AcDbLine
 10
172.7049118647
 20
117.0660643983
 30
0.0
 11
159.8749118647
 21
117.0660643983
 31
0.0
  0
LINE
  5
59
330
1F
100
AcDbEntity
  8
0
  6
Continuous
 62
     7
370
    15
100
AcDbLine
 10
192.9465249835
 20
114.4597148041
 30
0.0
 11
192.9465249835
 21
114.3841791296
 31
0.0
  0
LINE
  5
5A
330
1F
100
AcDbEntity
  8
0
  6
Continuous
 62
     7
370
    15
100
AcDbLine
 10
191.787723406
 20
114.7149086565
 30
0.0
 11
191.787723406
 21
114.7891791544
 31
0.0
  0
LINE
  5
5B
330
1F
100
AcDbEntity
  8
0
  6
Continuous
 62
     7
370
    15
100
AcDbLine
 10
193.1382011506
 20
115.5396236651
 30
0.0
 11
193.1382011506
 21
115.4653531672
 31
0.0
  0
LINE
  5
5C
330
1F
100
AcDbEntity
  8
0
  6
Continuous
 62
     7
370
    15
100
AcDbLine
 10
191.979399573
 20
115.7960826941
 30
0.0
 11
191.979399573
 21
115.8716183687
 31
0.0
  0
LINE
  5
5D
330
1F
100
AcDbEntity
  8
0
  6
Continuous
 62
     7
370
    15
100
AcDbLine
 10
190.7629622783
 20
115.1489607326
 30
0.0
 11
190.7629622783
 21
115.0901309118
 31
0.0
  0
LINE
  5
5E
330
1F
100
AcDbEntity
  8
0
  6
Continuous
 62
     7
370
    15
100
AcDbLine
 10
194.1629622783
 20
115.0901309118
 30
0.0
 11
194.1629622783
 21
115.1489607326
 31
0.0
  0
SPLINE
  5
5F
330
1F
100
AcDbEntity
  8
0
  6
Continuous
 62
     7
370
    15
100
AcDbSpline
210
0.0
220
0.0
230
1.0
 70
     8
 71
     3
 72
    56
 73
    52
 74
     0
 42
0.00000001
 43
0.00000001
 12
1.0
 22
0.0
 32
0.0
 13
1.0
 23
0.0
 33
0.0
 40
0.0
 40
0.0
 40
0.0
 40
0.0
 40
0.1249999999999989
 40
0.1249999999999989
 40
0.1874999999999989
 40
0.1874999999999989
 40
0.2187499999999989
 40
0.2187499999999989
 40
0.2499999999999989
 40
0.2499999999999989
 40
0.3124999999999978
 40
0.3124999999999978
 40
0.3749999999999968
 40
0.3749999999999968
 40
0.4374999999999959
 40
0.4374999999999959
 40
0.4687499999999954
 40
0.4687499999999954
 40
0.4999999999999949
 40
0.4999999999999949
 40
0.5312499999999944
 40
0.5312499999999944
 40
0.5624999999999939
 40
0.5624999999999939
 40
0.5781249999999939
 40
0.5781249999999939
 40
0.5937499999999939
 40
0.5937499999999939
 40
0.6093749999999939
 40
0.6093749999999939
 40
0.6249999999999939
 40
0.6249999999999939
 40
0.656249999999994
 40
0.656249999999994
 40
0.6874999999999942
 40
0.6874999999999942
 40
0.7031249999999943
 40
0.7031249999999943
 40
0.7187499999999943
 40
0.7187499999999943
 40
0.7499999999999946
 40
0.7499999999999946
 40
0.7812499999999948
 40
0.7812499999999948
 40
0.8124999999999949
 40
0.8124999999999949
 40
0.8749999999999966
 40
0.8749999999999966
 40
0.9374999999999983
 40
0.9374999999999983
 40
1.0
 40
1.0
 40
1.0
 40
1.0
 10
185.3759206442824
 20
103.4473206656317
 30
0.0
 10
184.3418292771011
 20
104.0324233586165
 30
0.0
 10
183.3606119399937
 20
104.7223037314707
 30
0.0
 10
181.911338946544
 20
105.8766287604873
 30
0.0
 10
181.4320891943899
 20
106.2812127409647
 30
0.0
 10
180.713147693612
 20
106.913595846486
 30
0.0
 10
180.4727702616713
 20
107.1293282998694
 30
0.0
 10
179.9958992855864
 20
107.5644900913241
 30
0.0
 10
179.759260460132
 20
107.7840151115874
 30
0.0
 10
179.0537560226255
 20
108.4474195041647
 30
0.0
 10
178.5891811174496
 20
108.8960018276052
 30
0.0
 10
177.6691228294146
 20
109.8033316710522
 30
0.0
 10
177.2135832250128
 20
110.2620191077176
 30
0.0
 10
176.3135984269978
 20
111.1917324420489
 30
0.0
 10
175.8747188526796
 20
111.6568495202777
 30
0.0
 10
175.2480144168003
 20
112.3520904485911
 30
0.0
 10
175.0441259776863
 20
112.5838145595924
 30
0.0
 10
174.6496138869755
 20
113.0485987195854
 30
0.0
 10
174.4589629554773
 20
113.2817627262712
 30
0.0
 10
174.1033442220931
 20
113.7425143325047
 30
0.0
 10
173.9373866949962
 20
113.9710992204857
 30
0.0
 10
173.6389445214882
 20
114.4263675108907
 30
0.0
 10
173.5060272869594
 20
114.6542396136167
 30
0.0
 10
173.3509278593317
 20
114.9841720401438
 30
0.0
 10
173.3063488314851
 20
115.0925912875809
 30
0.0
 10
173.2343651704082
 20
115.3063275045042
 30
0.0
 10
173.2069071418053
 20
115.4123544396683
 30
0.0
 10
173.1739069094358
 20
115.6159655525461
 30
0.0
 10
173.1681162164683
 20
115.7139218289144
 30
0.0
 10
173.1803355245572
 20
115.9021354585411
 30
0.0
 10
173.1986687664787
 20
115.9931588860188
 30
0.0
 10
173.2915420323315
 20
116.2485808184223
 30
0.0
 10
173.4024999142804
 20
116.3942680609978
 30
0.0
 10
173.7137576059429
 20
116.6442060752696
 30
0.0
 10
173.9062607593025
 20
116.7432246772206
 30
0.0
 10
174.2362824994658
 20
116.866769649714
 30
0.0
 10
174.3538412103586
 20
116.9038136701593
 30
0.0
 10
174.5966603034061
 20
116.9697273857605
 30
0.0
 10
174.7222873353508
 20
116.9987858371703
 30
0.0
 10
175.1098262700061
 20
117.0768921804581
 30
0.0
 10
175.3822913042163
 20
117.1170022266188
 30
0.0
 10
175.9488599257851
 20
117.1820747587933
 30
0.0
 10
176.2429242434589
 20
117.2068645063067
 30
0.0
 10
176.8369045710341
 20
117.2458872101108
 30
0.0
 10
177.1384735738339
 20
117.2602703680118
 30
0.0
 10
178.0545203291308
 20
117.2938099558755
 30
0.0
 10
178.680188589926
 20
117.3036544692974
 30
0.0
 10
179.9554576134802
 20
117.3147033488988
 30
0.0
 10
180.6010876097964
 20
117.3156717041043
 30
0.0
 10
181.8946453444397
 20
117.3162779227419
 30
0.0
 10
182.5445357899034
 20
117.3158564423688
 30
0.0
 10
183.1974349495391
 20
117.3158564423688
 30
0.0
  0
ELLIPSE
  5
60
330
1F
100
AcDbEntity
  8
0
  6
Continuous
 62
     7
370
    15
100
AcDbEllipse
 10
195.5751518589
 20
109.0660643983
 30
0.0
 11
14.43106877738126
 21
8.243271831036822
 31
0.0
210
0.0
220
0.0
230
1.0
 40
0.0230835902
 41
3.181981922108553
 42
3.914389924683779
  0
LINE
  5
61
330
1F
100
AcDbEntity
  8
0
  6
Continuous
 62
     7
370
    15
100
AcDbLine
 10
183.1974349495
 20
117.3158564424
 30
0.0
 11
183.6991301597
 21
117.3158564424
 31
0.0
  0
LINE
  5
62
330
1F
100
AcDbEntity
  8
0
  6
Continuous
 62
     7
370
    15
100
AcDbLine
 10
172.9549118647
 20
100.8160643983
 30
0.0
 11
172.9549118647
 21
117.3160643983
 31
0.0
  0
SPLINE
  5
63
330
1F
100
AcDbEntity
  8
0
  6
Continuous
 62
     7
370
    15
100
AcDbSpline
210
0.0
220
0.0
230
1.0
 70
     8
 71
     3
 72
    60
 73
    56
 74
     0
 42
0.00000001
 43
0.00000001
 12
1.0
 22
0.0
 32
0.0
 13
1.0
 23
0.0
 33
0.0
 40
-0.0312500000000028
 40
-0.0312500000000028
 40
0.0
 40
0.0
 40
0.0624999999999986
 40
0.0624999999999986
 40
0.093749999999998
 40
0.093749999999998
 40
0.1249999999999973
 40
0.1249999999999973
 40
0.1562499999999966
 40
0.1562499999999966
 40
0.1874999999999959
 40
0.1874999999999959
 40
0.2187499999999952
 40
0.2187499999999952
 40
0.2499999999999946
 40
0.2499999999999946
 40
0.2812499999999939
 40
0.2812499999999939
 40
0.3124999999999932
 40
0.3124999999999932
 40
0.3437499999999925
 40
0.3437499999999925
 40
0.3749999999999918
 40
0.3749999999999918
 40
0.4374999999999903
 40
0.4374999999999903
 40
0.4999999999999888
 40
0.4999999999999888
 40
0.5624999999999875
 40
0.5624999999999875
 40
0.5937499999999859
 40
0.5937499999999859
 40
0.6249999999999843
 40
0.6249999999999843
 40
0.6562499999999827
 40
0.6562499999999827
 40
0.6874999999999811
 40
0.6874999999999811
 40
0.7031249999999805
 40
0.7031249999999805
 40
0.7187499999999798
 40
0.7187499999999798
 40
0.749999999999981
 40
0.749999999999981
 40
0.7812499999999822
 40
0.7812499999999822
 40
0.8124999999999835
 40
0.8124999999999835
 40
0.8749999999999889
 40
0.8749999999999889
 40
0.9374999999999944
 40
0.9374999999999944
 40
0.9687499999999972
 40
0.9687499999999972
 40
1.0
 40
1.0
 40
1.062499999999999
 40
1.062499999999999
 10
182.2613716357134
 20
112.9114836357903
 30
0.0
 10
181.9320888138029
 20
112.7213721099207
 30
0.0
 10
181.7361802225584
 20
112.5769187405849
 30
0.0
 10
181.4980964021318
 20
112.3119129273383
 30
0.0
 10
181.4285871510783
 20
112.2149394726989
 30
0.0
 10
181.3227161286485
 20
112.0070355856263
 30
0.0
 10
181.2854265966708
 20
111.8933683174778
 30
0.0
 10
181.2557674594042
 20
111.658575180974
 30
0.0
 10
181.2632249934084
 20
111.5330791606735
 30
0.0
 10
181.327610109875
 20
111.2863336273605
 30
0.0
 10
181.3849243866106
 20
111.162995113501
 30
0.0
 10
181.5385618945919
 20
110.9357340646312
 30
0.0
 10
181.6353966610221
 20
110.8306103229126
 30
0.0
 10
181.8496212494817
 20
110.6494492510375
 30
0.0
 10
181.9688926287419
 20
110.5716425698118
 30
0.0
 10
182.2133592329276
 20
110.4464626677339
 30
0.0
 10
182.3412679928086
 20
110.3974337358015
 30
0.0
 10
182.5989034016821
 20
110.3260021818457
 30
0.0
 10
182.727296983441
 20
110.3036800089117
 30
0.0
 10
182.9841374729314
 20
110.2817407748791
 30
0.0
 10
183.1134435828767
 20
110.2823902509905
 30
0.0
 10
183.3649003551099
 20
110.3040283513062
 30
0.0
 10
183.4879130110115
 20
110.3248267626125
 30
0.0
 10
183.8508605464586
 20
110.4135172868523
 30
0.0
 10
184.0860752836385
 20
110.5088137541013
 30
0.0
 10
184.5257151991213
 20
110.7489154381153
 30
0.0
 10
184.7332252154916
 20
110.8942430092845
 30
0.0
 10
185.1277066517157
 20
111.2314382197766
 30
0.0
 10
185.3099151816296
 20
111.4190351919851
 30
0.0
 10
185.5568123784872
 20
111.7278219665428
 30
0.0
 10
185.6347508171672
 20
111.83549251482
 30
0.0
 10
185.7790604543842
 20
112.0625789468628
 30
0.0
 10
185.8455916245012
 20
112.182258536572
 30
0.0
 10
185.9555436959104
 20
112.4301480278705
 30
0.0
 10
186.0006706881062
 20
112.55945534271
 30
0.0
 10
186.0430976001693
 20
112.8348928756849
 30
0.0
 10
186.0379376245017
 20
112.9791181492092
 30
0.0
 10
185.9459998283865
 20
113.170487836344
 30
0.0
 10
185.9029315973917
 20
113.2264583693819
 30
0.0
 10
185.7968169222488
 20
113.321777908141
 30
0.0
 10
185.7370229800781
 20
113.3589065010317
 30
0.0
 10
185.5450741342947
 20
113.4503328384537
 30
0.0
 10
185.4074487425275
 20
113.4828043240039
 30
0.0
 10
185.1285447330936
 20
113.5239942269656
 30
0.0
 10
184.9890010963721
 20
113.5314780260964
 30
0.0
 10
184.7121267865769
 20
113.5324709090738
 30
0.0
 10
184.5743321337914
 20
113.5257005010394
 30
0.0
 10
184.1626315549021
 20
113.4901959833669
 30
0.0
 10
183.8889613161687
 20
113.4461522222418
 30
0.0
 10
183.3611495393068
 20
113.3300276138075
 30
0.0
 10
183.1052219456626
 20
113.2576283643765
 30
0.0
 10
182.7351361693948
 20
113.1249715208403
 30
0.0
 10
182.6141075451653
 20
113.0766613251067
 30
0.0
 10
182.3775725764865
 20
112.970136491372
 30
0.0
 10
182.2613716357134
 20
112.9114836357903
 30
0.0
 10
181.9320888138029
 20
112.7213721099207
 30
0.0
  0
ELLIPSE
  5
64
330
1F
100
AcDbEntity
  8
0
  6
Continuous
 62
     7
370
    15
100
AcDbEllipse
 10
193.8738605224
 20
107.510988297
 30
0.0
 11
9.002961182915982
 21
5.138100029062542
 31
0.0
210
0.0
220
0.0
230
1.0
 40
0.0451040694
 41
1.644790487616806
 42
2.648790420089694
  0
SPLINE
  5
65
330
1F
100
AcDbEntity
  8
0
  6
Continuous
 62
     7
370
    15
100
AcDbSpline
210
0.0
220
0.0
230
1.0
 70
     8
 71
     3
 72
     8
 73
     4
 74
     0
 42
0.00000001
 43
0.00000001
 12
1.0
 22
0.0
 32
0.0
 13
1.0
 23
0.0
 33
0.0
 40
0.0
 40
0.0
 40
0.0
 40
0.0
 40
1.0
 40
1.0
 40
1.0
 40
1.0
 10
185.8325166026425
 20
103.1763781462721
 30
0.0
 10
185.6794926366242
 20
103.2717931539378
 30
0.0
 10
185.5271566093652
 20
103.3617493387119
 30
0.0
 10
185.3759206442824
 20
103.4473206656318
 30
0.0
  0
LINE
  5
66
330
1F
100
AcDbEntity
  8
0
  6
Continuous
 62
     7
370
    15
100
AcDbLine
 10
172.7049118647
 20
101.0660643983
 30
0.0
 11
172.7049118647
 21
117.0660643983
 31
0.0
  0
LINE
  5
67
330
1F
100
AcDbEntity
  8
0
  6
Continuous
 62
     7
370
    15
100
AcDbLine
 10
90.7049118647
 20
102.4410643983
 30
0.0
 11
90.7049118647
 21
115.3960643983
 31
0.0
  0
SPLINE
  5
68
330
1F
100
AcDbEntity
  8
0
  6
Continuous
 62
     7
370
    15
100
AcDbSpline
210
0.0
220
0.0
230
1.0
 70
    24
 71
     3
 72
    12
 73
     8
 74
     0
 42
0.00000001
 43
0.00000001
 12
1.0
 22
0.0
 32
0.0
 13
1.0
 23
0.0
 33
0.0
 40
0.0
 40
0.0
 40
0.0
 40
0.0
 40
0.5000000000000002
 40
0.5000000000000002
 40
0.7500000000000001
 40
0.7500000000000001
 40
1.0
 40
1.0
 40
1.0
 40
1.0
 10
92.07991186468153
 20
115.3960643982779
 30
0.0
 10
91.79651506649361
 20
115.3960643982779
 30
0.0
 10
91.53207850947534
 20
115.3960643982779
 30
0.0
 10
91.18078877721389
 20
115.3960643982779
 30
0.0
 10
91.07134117290846
 20
115.3960643982779
 30
0.0
 10
90.8719344050456
 20
115.3960643982779
 30
0.0
 10
90.78167092173472
 20
115.3960643982779
 30
0.0
 10
90.70491186468158
 20
115.3960643982779
 30
0.0
  0
LINE
  5
69
330
1F
100
AcDbEntity
  8
0
  6
Continuous
 62
     7
370
    15
100
AcDbLine
 10
92.0799118647
 20
101.0660643983
 30
0.0
 11
92.0799118647
 21
115.3960643983
 31
0.0
  0
LINE
  5
6A
330
1F
100
AcDbEntity
  8
0
  6
Continuous
 62
     7
370
    15
100
AcDbLine
 10
100.2049118647
 20
115.3960643983
 30
0.0
 11
92.0799118647
 21
115.3960643983
 31
0.0
  0
LINE
  5
6B
330
1F
100
AcDbEntity
  8
0
  6
Continuous
 62
     7
370
    15
100
AcDbLine
 10
101.8749118647
 20
117.0660643983
 30
0.0
 11
100.2049118647
 21
115.3960643983
 31
0.0
  0
LINE
  5
6C
330
1F
100
AcDbEntity
  8
0
  6
Continuous
 62
     7
370
    15
100
AcDbLine
 10
106.7049118647
 20
115.3960643983
 30
0.0
 11
105.0349118647
 21
117.0660643983
 31
0.0
  0
LINE
  5
6D
330
1F
100
AcDbEntity
  8
0
  6
Continuous
 62
     7
370
    15
100
AcDbLine
 10
114.7049118647
 20
115.3960643983
 30
0.0
 11
106.7049118647
 21
115.3960643983
 31
0.0
  0
LINE
  5
6E
330
1F
100
AcDbEntity
  8
0
  6
Continuous
 62
     7
370
    15
100
AcDbLine
 10
116.3749118647
 20
117.0660643983
 30
0.0
 11
114.7049118647
 21
115.3960643983
 31
0.0
  0
LINE
  5
6F
330
1F
100
AcDbEntity
  8
0
  6
Continuous
 62
     7
370
    15
100
AcDbLine
 10
121.2049118647
 20
115.3960643983
 30
0.0
 11
119.5349118647
 21
117.0660643983
 31
0.0
  0
LINE
  5
70
330
1F
100
AcDbEntity
  8
0
  6
Continuous
 62
     7
370
    15
100
AcDbLine
 10
129.2049118647
 20
115.3960643983
 30
0.0
 11
121.2049118647
 21
115.3960643983
 31
0.0
  0
LINE
  5
71
330
1F
100
AcDbEntity
  8
0
  6
Continuous
 62
     7
370
    15
100
AcDbLine
 10
130.8749118647
 20
117.0660643983
 30
0.0
 11
129.2049118647
 21
115.3960643983
 31
0.0
  0
LINE
  5
72
330
1F
100
AcDbEntity
  8
0
  6
Continuous
 62
     7
370
    15
100
AcDbLine
 10
135.7049118647
 20
115.3960643983
 30
0.0
 11
134.0349118647
 21
117.0660643983
 31
0.0
  0
LINE
  5
73
330
1F
100
AcDbEntity
  8
0
  6
Continuous
 62
     7
370
    15
100
AcDbLine
 10
143.7049118647
 20
115.3960643983
 30
0.0
 11
135.7049118647
 21
115.3960643983
 31
0.0
  0
LINE
  5
74
330
1F
100
AcDbEntity
  8
0
  6
Continuous
 62
     7
370
    15
100
AcDbLine
 10
145.3749118647
 20
117.0660643983
 30
0.0
 11
143.7049118647
 21
115.3960643983
 31
0.0
  0
LINE
  5
75
330
1F
100
AcDbEntity
  8
0
  6
Continuous
 62
     7
370
    15
100
AcDbLine
 10
150.2049118647
 20
115.3960643983
 30
0.0
 11
148.5349118647
 21
117.0660643983
 31
0.0
  0
LINE
  5
76
330
1F
100
AcDbEntity
  8
0
  6
Continuous
 62
     7
370
    15
100
AcDbLine
 10
158.2049118647
 20
115.3960643983
 30
0.0
 11
150.2049118647
 21
115.3960643983
 31
0.0
  0
LINE
  5
77
330
1F
100
AcDbEntity
  8
0
  6
Continuous
 62
     7
370
    15
100
AcDbLine
 10
159.8749118647
 20
117.0660643983
 30
0.0
 11
158.2049118647
 21
115.3960643983
 31
0.0
  0
SPLINE
  5
78
330
1F
100
AcDbEntity
  8
0
  6
Continuous
 62
     7
370
    15
100
AcDbSpline
210
0.0
220
0.0
230
1.0
 70
     8
 71
     3
 72
     8
 73
     4
 74
     0
 42
0.00000001
 43
0.00000001
 12
1.0
 22
0.0
 32
0.0
 13
1.0
 23
0.0
 33
0.0
 40
0.0
 40
0.0
 40
0.0
 40
0.0
 40
1.0
 40
1.0
 40
1.0
 40
1.0
 10
185.3759206442825
 20
102.9316414360741
 30
0.0
 10
185.5327887275558
 20
103.0163876820837
 30
0.0
 10
185.6845999674489
 20
103.0977037976852
 30
0.0
 10
185.832516602637
 20
103.1763781462751
 30
0.0
  0
SPLINE
  5
79
330
1F
100
AcDbEntity
  8
0
  6
Continuous
 62
     7
370
    15
100
AcDbSpline
210
0.0
220
0.0
230
1.0
 70
     8
 71
     3
 72
    14
 73
    10
 74
     0
 42
0.00000001
 43
0.00000001
 12
1.0
 22
0.0
 32
0.0
 13
1.0
 23
0.0
 33
0.0
 40
0.0
 40
0.0
 40
0.0
 40
0.0
 40
0.25
 40
0.25
 40
0.5
 40
0.5
 40
0.75
 40
0.75
 40
1.0
 40
1.0
 40
1.0
 40
1.0
 10
185.4179514065742
 20
116.8048882635539
 30
0.0
 10
185.2637941224959
 20
116.7778096111513
 30
0.0
 10
185.1095282658398
 20
116.7690171953799
 30
0.0
 10
184.8007871923997
 20
116.786693650954
 30
0.0
 10
184.6451664188295
 20
116.8139258619308
 30
0.0
 10
184.3491942047208
 20
116.9019738814372
 30
0.0
 10
184.2060710425059
 20
116.9631417176351
 30
0.0
 10
183.9357680928805
 20
117.1183047018831
 30
0.0
 10
183.8119139521385
 20
117.2101110478823
 30
0.0
 10
183.6991301597297
 20
117.3158564423687
 30
0.0
  0
LINE
  5
7A
330
1F
100
AcDbEntity
  8
0
  6
Continuous
 62
     7
370
    15
100
AcDbLine
 10
189.3549118647
 20
117.4964390028
 30
0.0
 11
185.4179514066
 21
116.8048882636
 31
0.0
  0
ARC
  5
7B
330
1F
100
AcDbEntity
  8
0
  6
Continuous
 62
     7
370
    15
100
AcDbCircle
 10
189.9635594546
 20
112.1824567682
 30
0.0
 40
0.998472007035461
100
AcDbArc
 50
127.5590697668
 51
334.4067457257
  0
LINE
  5
7C
330
1F
100
AcDbEntity
  8
0
  6
Continuous
 62
     7
370
    15
100
AcDbLine
 10
195.4803549525
 20
112.5620163442
 30
0.0
 11
195.4481409415
 21
112.5563577598
 31
0.0
  0
LINE
  5
7D
330
1F
100
AcDbEntity
  8
0
  6
Continuous
 62
     7
370
    15
100
AcDbLine
 10
195.4803549525
 20
110.1175426009
 30
0.0
 11
195.4803549525
 21
112.5620163442
 31
0.0
  0
ELLIPSE
  5
7E
330
1F
100
AcDbEntity
  8
0
  6
Continuous
 62
     7
370
    15
100
AcDbEllipse
 10
193.4653353016
 20
110.134755413
 30
0.0
 11
1.868639352156748
 21
-0.7633212359937859
 31
0.0
210
0.0
220
0.0
230
1.0
 40
0.9877670049
 41
5.62809832276419
 42
6.666699550843436
  0
LINE
  5
7F
330
1F
100
AcDbEntity
  8
0
  6
Continuous
 62
     7
370
    15
100
AcDbLine
 10
192.97718661
 20
107.536104782
 30
0.0
 11
194.4878088009
 21
108.4049440855
 31
0.0
  0
ARC
  5
80
330
1F
100
AcDbEntity
  8
0
  6
Continuous
 62
     7
370
    15
100
AcDbCircle
 10
189.9583894999
 20
111.9905053515
 30
0.0
 40
0.9954949867508427
100
AcDbArc
 50
127.3158629952
 51
174.4246674461
  0
LINE
  5
81
330
1F
100
AcDbEntity
  8
0
  6
Continuous
 62
     7
370
    15
100
AcDbLine
 10
195.4662623273
 20
112.563793143
 30
0.0
 11
195.4803549525
 21
112.5620163442
 31
0.0
  0
CIRCLE
  5
82
330
1F
100
AcDbEntity
  8
0
  6
Continuous
 62
     7
370
    15
100
AcDbCircle
 10
192.4604632559
 20
115.1532615874
 30
0.0
 40
1.697528916776702
  0
CIRCLE
  5
83
330
1F
100
AcDbEntity
  8
0
  6
Continuous
 62
     7
370
    15
100
AcDbCircle
 10
192.4612242697
 20
115.1714371298
 30
0.0
 40
1.098462107191814
  0
CIRCLE
  5
84
330
1F
100
AcDbEntity
  8
0
  6
Continuous
 62
     7
370
    15
100
AcDbCircle
 10
192.4613032701
 20
115.1713068548
 30
0.0
 40
1.04853201141042
  0
SPLINE
  5
85
330
1F
100
AcDbEntity
  8
0
  6
Continuous
 62
     7
370
    15
100
AcDbSpline
210
0.0
220
0.0
230
1.0
 70
     8
 71
     3
 72
    16
 73
    12
 74
     0
 42
0.00000001
 43
0.00000001
 12
1.0
 22
0.0
 32
0.0
 13
1.0
 23
0.0
 33
0.0
 40
0.0
 40
0.0
 40
0.0
 40
0.0
 40
0.1242194589697878
 40
0.248999321872046
 40
0.3727377574601347
 40
0.4952944629268176
 40
0.6171957750165858
 40
0.739103118177329
 40
0.8616668233223013
 40
0.9853929371716306
 40
1.0
 40
1.0
 40
1.0
 40
1.0
 10
192.3533197766019
 20
116.0501957142241
 30
0.0
 10
192.3387281434382
 20
116.0685216203747
 30
0.0
 10
192.3094790483856
 20
116.105256108208
 30
0.0
 10
192.2456477830311
 20
116.1379757586365
 30
0.0
 10
192.1759190326336
 20
116.1486636826603
 30
0.0
 10
192.1068227740205
 20
116.1352214951276
 30
0.0
 10
192.0464700668481
 20
116.0998670821751
 30
0.0
 10
192.0011103324174
 20
116.0465436935566
 30
0.0
 10
191.9757148793187
 20
115.9811040721733
 30
0.0
 10
191.9736611256116
 20
115.9312274051645
 30
0.0
 10
191.9776344556336
 20
115.9056775293739
 30
0.0
 10
191.9780540128408
 20
115.9029796325288
 30
0.0
  0
SPLINE
  5
86
330
1F
100
AcDbEntity
  8
0
  6
Continuous
 62
     7
370
    15
100
AcDbSpline
210
0.0
220
0.0
230
1.0
 70
     8
 71
     3
 72
    12
 73
     8
 74
     0
 42
0.00000001
 43
0.00000001
 12
1.0
 22
0.0
 32
0.0
 13
1.0
 23
0.0
 33
0.0
 40
0.0
 40
0.0
 40
0.0
 40
0.0
 40
0.2093653562126986
 40
0.4192620302416901
 40
0.6249526976742491
 40
0.8281707878026323
 40
1.0
 40
1.0
 40
1.0
 40
1.0
 10
191.9780540128407
 20
115.9029796325288
 30
0.0
 10
191.9776546810552
 20
115.862408063735
 30
0.0
 10
191.9768550040782
 20
115.7811619654776
 30
0.0
 10
191.9253214791691
 20
115.668503827511
 30
0.0
 10
191.8432046976074
 20
115.5807445906638
 30
0.0
 10
191.7432704595919
 20
115.5264716650779
 30
0.0
 10
191.6721960131829
 20
115.517640138254
 30
0.0
 10
191.6396330109747
 20
115.5135939438479
 30
0.0
  0
SPLINE
  5
87
330
1F
100
AcDbEntity
  8
0
  6
Continuous
 62
     7
370
    15
100
AcDbSpline
210
0.0
220
0.0
230
1.0
 70
     8
 71
     3
 72
    16
 73
    12
 74
     0
 42
0.00000001
 43
0.00000001
 12
1.0
 22
0.0
 32
0.0
 13
1.0
 23
0.0
 33
0.0
 40
0.0
 40
0.0
 40
0.0
 40
0.0
 40
0.1231896672979864
 40
0.2479795154961088
 40
0.3717274745391773
 40
0.4942903479747879
 40
0.61619272937681
 40
0.7380955470921005
 40
0.860649767826404
 40
0.9843631542991632
 40
1.0
 40
1.0
 40
1.0
 40
1.0
 10
191.6396330109747
 20
115.5135939438479
 30
0.0
 10
191.6168623062006
 20
115.5103662068832
 30
0.0
 10
191.5710251149714
 20
115.5038688060359
 30
0.0
 10
191.5113011501197
 20
115.4657733461903
 30
0.0
 10
191.4673522815126
 20
115.4112892033189
 30
0.0
 10
191.4444188748697
 20
115.3450850941804
 30
0.0
 10
191.4446508399127
 20
115.2752622559582
 30
0.0
 10
191.467772260978
 20
115.2091900074296
 30
0.0
 10
191.5112240569767
 20
115.1541093254098
 30
0.0
 10
191.5530978434297
 20
115.1268554460726
 30
0.0
 10
191.5771523159596
 20
115.1172381903725
 30
0.0
 10
191.5798515298002
 20
115.1161590135308
 30
0.0
  0
SPLINE
  5
88
330
1F
100
AcDbEntity
  8
0
  6
Continuous
 62
     7
370
    15
100
AcDbSpline
210
0.0
220
0.0
230
1.0
 70
     8
 71
     3
 72
    12
 73
     8
 74
     0
 42
0.00000001
 43
0.00000001
 12
1.0
 22
0.0
 32
0.0
 13
1.0
 23
0.0
 33
0.0
 40
0.0
 40
0.0
 40
0.0
 40
0.0
 40
0.2093652529605462
 40
0.4192619297279044
 40
0.6249525996333057
 40
0.828170689223777
 40
1.0
 40
1.0
 40
1.0
 40
1.0
 10
191.5798515298002
 20
115.1161590135308
 30
0.0
 10
191.614479585373
 20
115.0952742289701
 30
0.0
 10
191.6838235915867
 20
115.0534516487995
 30
0.0
 10
191.755330242949
 20
114.9522811448859
 30
0.0
 10
191.7906902815421
 20
114.8376296074213
 30
0.0
 10
191.7887063718381
 20
114.7247380937388
 30
0.0
 10
191.761664735338
 20
114.6594747639908
 30
0.0
 10
191.749275512649
 20
114.6295741355407
 30
0.0
  0
SPLINE
  5
89
330
1F
100
AcDbEntity
  8
0
  6
Continuous
 62
     7
370
    15
100
AcDbSpline
210
0.0
220
0.0
230
1.0
 70
     8
 71
     3
 72
    16
 73
    12
 74
     0
 42
0.00000001
 43
0.00000001
 12
1.0
 22
0.0
 32
0.0
 13
1.0
 23
0.0
 33
0.0
 40
0.0
 40
0.0
 40
0.0
 40
0.0
 40
0.1243654221088744
 40
0.2491438717989908
 40
0.3728809614208793
 40
0.4954367981749394
 40
0.6173379650704348
 40
0.7392459561098398
 40
0.8618110113606074
 40
0.9855389335649887
 40
1.0
 40
1.0
 40
1.0
 40
1.0
 10
191.749275512649
 20
114.6295741355407
 30
0.0
 10
191.7408974461
 20
114.6082534538705
 30
0.0
 10
191.7241134887685
 20
114.5655412828295
 30
0.0
 10
191.7281963107177
 20
114.4950880061862
 30
0.0
 10
191.7541589293617
 20
114.4302257119035
 30
0.0
 10
191.8005282338046
 20
114.3775518322898
 30
0.0
 10
191.8613189718916
 20
114.3429538288055
 30
0.0
 10
191.9299865441726
 20
114.3298653955526
 30
0.0
 10
191.9989797405715
 20
114.3396840572438
 30
0.0
 10
192.0427882731372
 20
114.3619188325099
 30
0.0
 10
192.0626783571346
 20
114.3775696934032
 30
0.0
 10
192.0647597952355
 20
114.3792075094214
 30
0.0
  0
SPLINE
  5
8A
330
1F
100
AcDbEntity
  8
0
  6
Continuous
 62
     7
370
    15
100
AcDbSpline
210
0.0
220
0.0
230
1.0
 70
     8
 71
     3
 72
    12
 73
     8
 74
     0
 42
0.00000001
 43
0.00000001
 12
1.0
 22
0.0
 32
0.0
 13
1.0
 23
0.0
 33
0.0
 40
0.0
 40
0.0
 40
0.0
 40
0.0
 40
0.2092378396813118
 40
0.4191378956981803
 40
0.6248316181528932
 40
0.8280490456278722
 40
1.0
 40
1.0
 40
1.0
 40
1.0
 10
192.0647597952355
 20
114.3792075094214
 30
0.0
 10
192.0997642927627
 20
114.3983753029972
 30
0.0
 10
192.1698840734672
 20
114.4367715542526
 30
0.0
 10
192.2928971668555
 20
114.4475180617942
 30
0.0
 10
192.410380641687
 20
114.4207933784776
 30
0.0
 10
192.5083645207706
 20
114.3631035995165
 30
0.0
 10
192.5524150824863
 20
114.3075966172284
 30
0.0
 10
192.5726047799505
 20
114.2821560976095
 30
0.0
  0
SPLINE
  5
8B
330
1F
100
AcDbEntity
  8
0
  6
Continuous
 62
     7
370
    15
100
AcDbSpline
210
0.0
220
0.0
230
1.0
 70
     8
 71
     3
 72
    16
 73
    12
 74
     0
 42
0.00000001
 43
0.00000001
 12
1.0
 22
0.0
 32
0.0
 13
1.0
 23
0.0
 33
0.0
 40
0.0
 40
0.0
 40
0.0
 40
0.0
 40
0.1242194589697346
 40
0.2489993218719954
 40
0.3727377574600736
 40
0.4952944629268115
 40
0.6171957750166672
 40
0.7391031181773041
 40
0.8616668233222763
 40
0.9853929371716097
 40
1.0
 40
1.0
 40
1.0
 40
1.0
 10
192.5726047799505
 20
114.2821560976095
 30
0.0
 10
192.5871964131142
 20
114.2644400259474
 30
0.0
 10
192.6164455081667
 20
114.2289279582997
 30
0.0
 10
192.6802767735212
 20
114.1975446073675
 30
0.0
 10
192.7500055239188
 20
114.1876941827579
 30
0.0
 10
192.8191017825318
 20
114.201400706236
 30
0.0
 10
192.8794544897044
 20
114.2364476436442
 30
0.0
 10
192.9248142241349
 20
114.2889131013509
 30
0.0
 10
192.9502096772337
 20
114.3529956324241
 30
0.0
 10
192.9522634309406
 20
114.4016219535164
 30
0.0
 10
192.9482901009188
 20
114.4264544752765
 30
0.0
 10
192.9478705437116
 20
114.4290766243101
 30
0.0
  0
SPLINE
  5
8C
330
1F
100
AcDbEntity
  8
0
  6
Continuous
 62
     7
370
    15
100
AcDbSpline
210
0.0
220
0.0
230
1.0
 70
     8
 71
     3
 72
    12
 73
     8
 74
     0
 42
0.00000001
 43
0.00000001
 12
1.0
 22
0.0
 32
0.0
 13
1.0
 23
0.0
 33
0.0
 40
0.0
 40
0.0
 40
0.0
 40
0.0
 40
0.2093653562126306
 40
0.4192620302416563
 40
0.6249526976742091
 40
0.8281707878025478
 40
1.0
 40
1.0
 40
1.0
 40
1.0
 10
192.9478705437116
 20
114.4290766243101
 30
0.0
 10
192.9482698754972
 20
114.4686302060401
 30
0.0
 10
192.9490695524742
 20
114.547837746769
 30
0.0
 10
193.0006030773832
 20
114.6589680874201
 30
0.0
 10
193.082719858945
 20
114.7470180477432
 30
0.0
 10
193.1826540969604
 20
114.8031358806047
 30
0.0
 10
193.2537285433694
 20
114.8138494220873
 30
0.0
 10
193.2862915455777
 20
114.8187578679856
 30
0.0
  0
SPLINE
  5
8D
330
1F
100
AcDbEntity
  8
0
  6
Continuous
 62
     7
370
    15
100
AcDbSpline
210
0.0
220
0.0
230
1.0
 70
     8
 71
     3
 72
    16
 73
    12
 74
     0
 42
0.00000001
 43
0.00000001
 12
1.0
 22
0.0
 32
0.0
 13
1.0
 23
0.0
 33
0.0
 40
0.0
 40
0.0
 40
0.0
 40
0.0
 40
0.1231896672979048
 40
0.2479795154960648
 40
0.3717274745391153
 40
0.4942903479747941
 40
0.6161927293767092
 40
0.7380955470920755
 40
0.8606497678264157
 40
0.9843631542991557
 40
0.9999999999999999
 40
0.9999999999999999
 40
0.9999999999999999
 40
0.9999999999999999
 10
193.2862915455777
 20
114.8187578679856
 30
0.0
 10
193.3090622503518
 20
114.8225905507708
 30
0.0
 10
193.354899441581
 20
114.8303057012455
 30
0.0
 10
193.4146234064326
 20
114.8697378947791
 30
0.0
 10
193.4585722750398
 20
114.9250640757519
 30
0.0
 10
193.4815056816828
 20
114.9915372792862
 30
0.0
 10
193.4812737166396
 20
115.0610573000912
 30
0.0
 10
193.4581522955743
 20
115.1262760024037
 30
0.0
 10
193.4147004995758
 20
115.1800033689368
 30
0.0
 10
193.3728267131224
 20
115.2060042634638
 30
0.0
 10
193.3487722405928
 20
115.2148991278428
 30
0.0
 10
193.3460730267522
 20
115.2158972433081
 30
0.0
  0
SPLINE
  5
8E
330
1F
100
AcDbEntity
  8
0
  6
Continuous
 62
     7
370
    15
100
AcDbSpline
210
0.0
220
0.0
230
1.0
 70
     8
 71
     3
 72
    12
 73
     8
 74
     0
 42
0.00000001
 43
0.00000001
 12
1.0
 22
0.0
 32
0.0
 13
1.0
 23
0.0
 33
0.0
 40
0.0
 40
0.0
 40
0.0
 40
0.0
 40
0.2093652529604467
 40
0.4192619297278034
 40
0.6249525996332281
 40
0.8281706892237015
 40
0.9999999999999999
 40
0.9999999999999999
 40
0.9999999999999999
 40
0.9999999999999999
 10
193.3460730267522
 20
115.2158972433081
 30
0.0
 10
193.3114449711794
 20
115.2357640412832
 30
0.0
 10
193.2421009649657
 20
115.2755480643662
 30
0.0
 10
193.1705943136035
 20
115.3751907703658
 30
0.0
 10
193.1352342750103
 20
115.4901330303976
 30
0.0
 10
193.1372181847142
 20
115.6048694510107
 30
0.0
 10
193.1642598212144
 20
115.6720147958726
 30
0.0
 10
193.1766490439034
 20
115.7027776762929
 30
0.0
  0
SPLINE
  5
8F
330
1F
100
AcDbEntity
  8
0
  6
Continuous
 62
     7
370
    15
100
AcDbSpline
210
0.0
220
0.0
230
1.0
 70
     8
 71
     3
 72
    16
 73
    12
 74
     0
 42
0.00000001
 43
0.00000001
 12
1.0
 22
0.0
 32
0.0
 13
1.0
 23
0.0
 33
0.0
 40
0.0
 40
0.0
 40
0.0
 40
0.0
 40
0.1243654221088857
 40
0.2491438717989805
 40
0.372880961420845
 40
0.4954367981749023
 40
0.6173379650704431
 40
0.739245956109796
 40
0.8618110113606052
 40
0.9855389335649235
 40
1.0
 40
1.0
 40
1.0
 40
1.0
 10
193.1766490439034
 20
115.7027776762929
 30
0.0
 10
193.1850271104523
 20
115.7247088851691
 30
0.0
 10
193.2018110677838
 20
115.7686441382321
 30
0.0
 10
193.1977282458347
 20
115.8404336504826
 30
0.0
 10
193.1717656271908
 20
115.9061328005408
 30
0.0
 10
193.1253963227478
 20
115.9590703415107
 30
0.0
 10
193.0646055846607
 20
115.9933602092387
 30
0.0
 10
192.9959380123798
 20
116.0055900902474
 30
0.0
 10
192.9269448159809
 20
115.994413803631
 30
0.0
 10
192.8831362834152
 20
115.9709290582634
 30
0.0
 10
192.8632461994178
 20
115.9545615576499
 30
0.0
 10
192.8611647613168
 20
115.9528487474174
 30
0.0
  0
SPLINE
  5
90
330
1F
100
AcDbEntity
  8
0
  6
Continuous
 62
     7
370
    15
100
AcDbSpline
210
0.0
220
0.0
230
1.0
 70
     8
 71
     3
 72
    12
 73
     8
 74
     0
 42
0.00000001
 43
0.00000001
 12
1.0
 22
0.0
 32
0.0
 13
1.0
 23
0.0
 33
0.0
 40
0.0
 40
0.0
 40
0.0
 40
0.0
 40
0.2092378396812482
 40
0.4191378956981713
 40
0.6248316181529088
 40
0.8280490456278781
 40
1.0
 40
1.0
 40
1.0
 40
1.0
 10
192.8611647613168
 20
115.9528487474174
 30
0.0
 10
192.8261602637896
 20
115.9326635573308
 30
0.0
 10
192.7560404830851
 20
115.8922292930978
 30
0.0
 10
192.6330273896969
 20
115.8799542494339
 30
0.0
 10
192.5155439148654
 20
115.9069685338829
 30
0.0
 10
192.4175600357817
 20
115.9665027938573
 30
0.0
 10
192.3735094740661
 20
116.0238923530037
 30
0.0
 10
192.3533197766019
 20
116.0501957142241
 30
0.0
  0
LINE
  5
91
330
1F
100
AcDbEntity
  8
0
  6
Continuous
 62
     7
370
    15
100
AcDbLine
 10
192.9478705437
 20
114.3907363771
 30
0.0
 11
192.9478705437
 21
114.4290766243
 31
0.0
  0
ARC
  5
92
330
1F
100
AcDbEntity
  8
0
  6
Continuous
 62
     7
370
    15
100
AcDbCircle
 10
191.4297409409
 20
114.7149264868
 30
0.0
 40
0.3579824655268565
100
AcDbArc
 50
333.2015973696
 51
359.9971462262
  0
ARC
  5
93
330
1F
100
AcDbEntity
  8
0
  6
Continuous
 62
     7
370
    15
100
AcDbCircle
 10
193.2751623139
 20
114.9473192411
 30
0.0
 40
0.2053149150794418
100
AcDbArc
 50
9.6291021083
 51
69.7952891538
  0
LINE
  5
94
330
1F
100
AcDbEntity
  8
0
  6
Continuous
 62
     7
370
    15
100
AcDbLine
 10
193.3460730268
 20
115.1400000267
 30
0.0
 11
193.3460730268
 21
115.2158972433
 31
0.0
  0
ARC
  5
95
330
1F
100
AcDbEntity
  8
0
  6
Continuous
 62
     7
370
    15
100
AcDbCircle
 10
191.6511215215
 20
115.2321617861
 30
0.0
 40
0.2057082227159148
100
AcDbArc
 50
93.2015532493
 51
170.5524339762
  0
ARC
  5
96
330
1F
100
AcDbEntity
  8
0
  6
Continuous
 62
     7
370
    15
100
AcDbCircle
 10
193.4972308696
 20
115.4656589575
 30
0.0
 40
0.3590298491986479
100
AcDbArc
 50
180.0487995465
 51
245.1011579895
  0
ARC
  5
97
330
1F
100
AcDbEntity
  8
0
  6
Continuous
 62
     7
370
    15
100
AcDbCircle
 10
191.6197184264
 20
115.7966788594
 30
0.0
 40
0.3596816406720123
100
AcDbArc
 50
273.1739329859
 51
359.9050333287
  0
ARC
  5
98
330
1F
100
AcDbEntity
  8
0
  6
Continuous
 62
     7
370
    15
100
AcDbCircle
 10
192.9926355999
 20
115.7182486409
 30
0.0
 40
0.2060853916644377
100
AcDbArc
 50
10.5164006166
 51
129.6386427468
  0
LINE
  5
99
330
1F
100
AcDbEntity
  8
0
  6
Continuous
 62
     7
370
    15
100
AcDbLine
 10
192.8611647613
 20
115.8769515308
 30
0.0
 11
192.8611647613
 21
115.9528487474
 31
0.0
  0
ARC
  5
9A
330
1F
100
AcDbEntity
  8
0
  6
Continuous
 62
     7
370
    15
100
AcDbCircle
 10
192.4656300332
 20
115.0933223628
 30
0.0
 40
1.697335245440843
100
AcDbArc
 50
259.8926784063
 51
359.8922683185
  0
ARC
  5
9B
330
1F
100
AcDbEntity
  8
0
  6
Continuous
 62
     7
370
    15
100
AcDbCircle
 10
192.4580075159
 20
115.0923403934
 30
0.0
 40
1.69504667764908
100
AcDbArc
 50
180.074684672
 51
260.1405110246
  0
ARC
  5
9C
330
1F
100
AcDbEntity
  8
0
  6
Continuous
 62
     7
370
    15
100
AcDbCircle
 10
192.1811712161
 20
115.8604800059
 30
0.0
 40
0.2062914398768178
100
AcDbArc
 50
33.4370190755
 51
159.1828606747
  0
ARC
  5
9D
330
1F
100
AcDbEntity
  8
0
  6
Continuous
 62
     7
370
    15
100
AcDbCircle
 10
192.654685752
 20
116.1734331816
 30
0.0
 40
0.3612962088560842
100
AcDbArc
 50
213.4752278009
 51
304.8545488577
  0
LINE
  5
9E
330
1F
100
AcDbEntity
  8
0
  6
Continuous
 62
     7
370
    15
100
AcDbLine
 10
189.8243711357
 20
111.5610991266
 30
0.0
 11
195.3743711357
 21
112.535989945
 31
0.0
  0
LINE
  5
9F
330
1F
100
AcDbEntity
  8
0
  6
Continuous
 62
     7
370
    15
100
AcDbLine
 10
189.7549118647
 20
111.9333954749
 30
0.0
 11
189.8243711357
 21
111.5610991266
 31
0.0
  0
LINE
  5
A0
330
1F
100
AcDbEntity
  8
0
  6
Continuous
 62
     7
370
    15
100
AcDbLine
 10
189.8420525883
 20
112.0324656955
 30
0.0
 11
189.7549118647
 21
111.9333954749
 31
0.0
  0
SPLINE
  5
A1
330
1F
100
AcDbEntity
  8
0
  6
Continuous
 62
     7
370
    15
100
AcDbSpline
210
0.0
220
0.0
230
1.0
 70
     8
 71
     3
 72
    11
 73
     7
 74
     0
 42
0.00000001
 43
0.00000001
 12
1.0
 22
0.0
 32
0.0
 13
1.0
 23
0.0
 33
0.0
 40
0.0
 40
0.0
 40
0.0
 40
0.0
 40
0.0074552814711508
 40
0.3066092506034601
 40
0.652650651939037
 40
1.0
 40
1.0
 40
1.0
 40
1.0
 10
190.2843074929475
 20
112.5641973766265
 30
0.0
 10
190.2833210793793
 20
112.5629493900116
 30
0.0
 10
190.2427533924159
 20
112.5116241325772
 30
0.0
 10
190.150577543339
 20
112.396881336332
 30
0.0
 10
189.9974664385708
 20
112.2116145263293
 30
0.0
 10
189.8939223103577
 20
112.0922570206829
 30
0.0
 10
189.8420525883262
 20
112.0324656955051
 30
0.0
  0
LINE
  5
A2
330
1F
100
AcDbEntity
  8
0
  6
Continuous
 62
     7
370
    15
100
AcDbLine
 10
189.7549118647
 20
111.9333954749
 30
0.0
 11
189.3549118647
 21
111.9535232315
 31
0.0
  0
LINE
  5
A3
330
1F
100
AcDbEntity
  8
0
  6
Continuous
 62
     7
370
    15
100
AcDbLine
 10
189.3549118647
 20
117.5676957007
 30
0.0
 11
189.3549118647
 21
111.9535232315
 31
0.0
  0
SPLINE
  5
A4
330
1F
100
AcDbEntity
  8
0
  6
Continuous
 62
     7
370
    15
100
AcDbSpline
210
0.0
220
0.0
230
1.0
 70
     8
 71
     3
 72
    12
 73
     8
 74
     0
 42
0.00000001
 43
0.00000001
 12
1.0
 22
0.0
 32
0.0
 13
1.0
 23
0.0
 33
0.0
 40
0.0
 40
0.0
 40
0.0
 40
0.0
 40
0.0481906270125617
 40
0.4227687915308488
 40
0.5661203835287627
 40
0.9912408780624057
 40
1.0
 40
1.0
 40
1.0
 40
1.0
 10
195.3289006906643
 20
112.8898096364141
 30
0.0
 10
195.3213194468997
 20
112.8958837296759
 30
0.0
 10
195.2548103877033
 20
112.9491707945501
 30
0.0
 10
195.1596444010629
 20
113.0277772527372
 30
0.0
 10
195.0057764260249
 20
113.1586206878419
 30
0.0
 10
194.9144649196573
 20
113.2388163937442
 30
0.0
 10
194.8525815415518
 20
113.294589890128
 30
0.0
 10
194.8513322455855
 20
113.295715840362
 30
0.0
  0
SPLINE
  5
A5
330
1F
100
AcDbEntity
  8
0
  6
Continuous
 62
     7
370
    15
100
AcDbSpline
210
0.0
220
0.0
230
1.0
 70
     8
 71
     3
 72
    10
 73
     6
 74
     0
 42
0.00000001
 43
0.00000001
 12
1.0
 22
0.0
 32
0.0
 13
1.0
 23
0.0
 33
0.0
 40
0.0
 40
0.0
 40
0.0
 40
0.0
 40
0.3658097627759549
 40
0.9379269162050771
 40
1.0
 40
1.0
 40
1.0
 40
1.0
 10
195.3289006906634
 20
112.8898096364148
 30
0.0
 10
195.330067427138
 20
112.8801232912669
 30
0.0
 10
195.3330589097473
 20
112.8552877489761
 30
0.0
 10
195.3275658779265
 20
112.8293844389984
 30
0.0
 10
195.3233127429918
 20
112.8134499038066
 30
0.0
 10
195.3228964559131
 20
112.8118902681009
 30
0.0
  0
ARC
  5
A6
330
1F
100
AcDbEntity
  8
0
  6
Continuous
 62
     7
370
    15
100
AcDbCircle
 10
189.75444314
 20
111.9544643526
 30
0.0
 40
0.3995323837042998
100
AcDbArc
 50
180.1349635748
 51
280.0800897005
  0
SPLINE
  5
A7
330
1F
100
AcDbEntity
  8
0
  6
Continuous
 62
     7
370
    15
100
AcDbSpline
210
0.0
220
0.0
230
1.0
 70
     8
 71
     3
 72
    10
 73
     6
 74
     0
 42
0.00000001
 43
0.00000001
 12
1.0
 22
0.0
 32
0.0
 13
1.0
 23
0.0
 33
0.0
 40
0.0
 40
0.0
 40
0.0
 40
0.0
 40
0.0620730837953951
 40
0.6341902372121185
 40
1.0
 40
1.0
 40
1.0
 40
1.0
 10
195.408480997817
 20
112.9134978290095
 30
0.0
 10
195.4069348294607
 20
112.9127276011007
 30
0.0
 10
195.3911378879092
 20
112.9048583123483
 30
0.0
 10
195.3652488290646
 20
112.8935042202558
 30
0.0
 10
195.3390994555685
 20
112.8908462835074
 30
0.0
 10
195.3289006906643
 20
112.8898096364141
 30
0.0
  0
ARC
  5
A8
330
1F
100
AcDbEntity
  8
0
  6
Continuous
 62
     7
370
    15
100
AcDbCircle
 10
191.1537400524
 20
113.6179820886
 30
0.0
 40
0.9988309590978007
100
AcDbArc
 50
180.1349635615
 51
280.0800897288
  0
LINE
  5
A9
330
1F
100
AcDbEntity
  8
0
  6
Continuous
 62
     7
370
    15
100
AcDbLine
 10
195.3049118647
 20
118.5224587624
 30
0.0
 11
195.7049118647
 21
118.5425865191
 31
0.0
  0
LINE
  5
AA
330
1F
100
AcDbEntity
  8
0
  6
Continuous
 62
     7
370
    15
100
AcDbLine
 10
195.7049118647
 20
112.9284140499
 30
0.0
 11
195.7049118647
 21
118.5425865191
 31
0.0
  0
LINE
  5
AB
330
1F
100
AcDbEntity
  8
0
  6
Continuous
 62
     7
370
    15
100
AcDbLine
 10
195.217771141
 20
118.4146188054
 30
0.0
 11
195.3049118647
 21
118.5224587624
 31
0.0
  0
ARC
  5
AC
330
1F
100
AcDbEntity
  8
0
  6
Continuous
 62
     7
370
    15
100
AcDbCircle
 10
193.9076255728
 20
114.1001521738
 30
0.0
 40
0.9972873735972897
100
AcDbArc
 50
279.8691938001
 51
359.9156105033
  0
ARC
  5
AD
330
1F
100
AcDbEntity
  8
0
  6
Continuous
 62
     7
370
    15
100
AcDbCircle
 10
195.3059973479
 20
112.9290016013
 30
0.0
 40
0.3989149494387972
100
AcDbArc
 50
279.8691938001
 51
359.9156105054
  0
LINE
  5
AE
330
1F
100
AcDbEntity
  8
0
  6
Continuous
 62
     7
370
    15
100
AcDbLine
 10
191.3285600423
 20
112.6345690238
 30
0.0
 11
194.0785600423
 21
113.1176230329
 31
0.0
  0
LINE
  5
AF
330
1F
100
AcDbEntity
  8
0
  6
Continuous
 62
     7
370
    15
100
AcDbLine
 10
193.731263687
 20
117.8615407267
 30
0.0
 11
190.981263687
 21
117.3784867176
 31
0.0
  0
ARC
  5
B0
330
1F
100
AcDbEntity
  8
0
  6
Continuous
 62
     7
370
    15
100
AcDbCircle
 10
193.9060836765
 20
116.8781276617
 30
0.0
 40
0.9988309592896727
100
AcDbArc
 50
0.1349635767
 51
100.0800896985
  0
LINE
  5
B1
330
1F
100
AcDbEntity
  8
0
  6
Continuous
 62
     7
370
    15
100
AcDbLine
 10
194.9049118647
 20
114.0986832951
 30
0.0
 11
194.9049118647
 21
116.8804804645
 31
0.0
  0
LINE
  5
B2
330
1F
100
AcDbEntity
  8
0
  6
Continuous
 62
     7
370
    15
100
AcDbLine
 10
190.1549118647
 20
116.3974264554
 30
0.0
 11
190.1549118644
 21
113.615629286
 31
0.0
  0
ARC
  5
B3
330
1F
100
AcDbEntity
  8
0
  6
Continuous
 62
     7
370
    15
100
AcDbCircle
 10
191.1521981565
 20
116.3959575767
 30
0.0
 40
0.9972873735972555
100
AcDbArc
 50
99.8691938001
 51
179.9156105033
  0
CIRCLE
  5
B4
330
1F
100
AcDbEntity
  8
0
  6
Continuous
 62
     7
370
    15
100
AcDbCircle
 10
192.5245295215
 20
115.2469545217
 30
0.0
 40
1.919617972231668
  0
ARC
  5
B5
330
1F
100
AcDbEntity
  8
0
  6
Continuous
 62
     7
370
    15
100
AcDbCircle
 10
192.5299118647
 20
115.1770149812
 30
0.0
 40
1.925008359440585
100
AcDbArc
 50
0.1688535069
 51
179.8311464931
  0
SPLINE
  5
B6
330
1F
100
AcDbEntity
  8
0
  6
Continuous
 62
     7
370
    15
100
AcDbSpline
210
0.0
220
0.0
230
1.0
 70
     8
 71
     3
 72
    12
 73
     8
 74
     0
 42
0.00000001
 43
0.00000001
 12
1.0
 22
0.0
 32
0.0
 13
1.0
 23
0.0
 33
0.0
 40
0.0
 40
0.0
 40
0.0
 40
0.0
 40
0.0087591219375937
 40
0.4338796164712517
 40
0.5772312084691724
 40
0.9518093729874678
 40
0.9999999999999999
 40
0.9999999999999999
 40
0.9999999999999999
 40
0.9999999999999999
 10
190.2084914837778
 20
117.1766970933146
 30
0.0
 10
190.2072421878115
 20
117.1776597325771
 30
0.0
 10
190.1453588097067
 20
117.2253436850343
 30
0.0
 10
190.0540473033383
 20
117.2978037614744
 30
0.0
 10
189.9001793283004
 20
117.4241988392495
 30
0.0
 10
189.8050133416599
 20
117.5046921344325
 30
0.0
 10
189.7385042824637
 20
117.562595793141
 30
0.0
 10
189.730923038699
 20
117.5691961233342
 30
0.0
  0
SPLINE
  5
B7
330
1F
100
AcDbEntity
  8
0
  6
Continuous
 62
     7
370
    15
100
AcDbSpline
210
0.0
220
0.0
230
1.0
 70
     8
 71
     3
 72
    10
 73
     6
 74
     0
 42
0.00000001
 43
0.00000001
 12
1.0
 22
0.0
 32
0.0
 13
1.0
 23
0.0
 33
0.0
 40
0.0
 40
0.0
 40
0.0
 40
0.0
 40
0.0620730837953016
 40
0.634190237211919
 40
1.0
 40
1.0
 40
1.0
 40
1.0
 10
189.6513427315463
 20
117.5527794798194
 30
0.0
 10
189.6528888999026
 20
117.5533946403037
 30
0.0
 10
189.6686858414541
 20
117.5596796313114
 30
0.0
 10
189.6945749002987
 20
117.5685337676092
 30
0.0
 10
189.7207242737948
 20
117.5690102758433
 30
0.0
 10
189.730923038699
 20
117.5691961233342
 30
0.0
  0
SPLINE
  5
B8
330
1F
100
AcDbEntity
  8
0
  6
Continuous
 62
     7
370
    15
100
AcDbSpline
210
0.0
220
0.0
230
1.0
 70
     8
 71
     3
 72
    11
 73
     7
 74
     0
 42
0.00000001
 43
0.00000001
 12
1.0
 22
0.0
 32
0.0
 13
1.0
 23
0.0
 33
0.0
 40
0.0
 40
0.0
 40
0.0
 40
0.0
 40
0.3473493480609733
 40
0.6933907493965129
 40
0.9925447185288427
 40
0.9999999999999999
 40
0.9999999999999999
 40
0.9999999999999999
 40
0.9999999999999999
 10
195.2177711410372
 20
118.4146188054172
 30
0.0
 10
195.1659014190057
 20
118.3512487319736
 30
0.0
 10
195.0623572907925
 20
118.2247472056006
 30
0.0
 10
194.9092461860243
 20
118.046461309532
 30
0.0
 10
194.8170703369474
 20
117.9423383388746
 30
0.0
 10
194.776502649984
 20
117.8973381704237
 30
0.0
 10
194.7755162364158
 20
117.8962439799471
 30
0.0
  0
SPLINE
  5
B9
330
1F
100
AcDbEntity
  8
0
  6
Continuous
 62
     7
370
    15
100
AcDbSpline
210
0.0
220
0.0
230
1.0
 70
     8
 71
     3
 72
    10
 73
     6
 74
     0
 42
0.00000001
 43
0.00000001
 12
1.0
 22
0.0
 32
0.0
 13
1.0
 23
0.0
 33
0.0
 40
0.0
 40
0.0
 40
0.0
 40
0.0
 40
0.3658097627759241
 40
0.9379269162050843
 40
1.0
 40
1.0
 40
1.0
 40
1.0
 10
189.7309230386998
 20
117.5691961233335
 30
0.0
 10
189.7297563022252
 20
117.5797332680837
 30
0.0
 10
189.7267648196159
 20
117.6067502388889
 30
0.0
 10
189.7322578514369
 20
117.6351535046614
 30
0.0
 10
189.7365109863715
 20
117.6526723375979
 30
0.0
 10
189.7369272734502
 20
117.654387040728
 30
0.0
  0
LINE
  5
BA
330
1F
100
AcDbEntity
  8
0
  6
Continuous
 62
     7
370
    15
100
AcDbLine
 10
195.2354525936
 20
118.9350106239
 30
0.0
 11
189.6854525936
 21
117.9601198055
 31
0.0
  0
LINE
  5
BB
330
1F
100
AcDbEntity
  8
0
  6
Continuous
 62
     7
370
    15
100
AcDbLine
 10
195.3049118647
 20
118.5224587624
 30
0.0
 11
195.2354525936
 21
118.9350106239
 31
0.0
  0
ARC
  5
BC
330
1F
100
AcDbEntity
  8
0
  6
Continuous
 62
     7
370
    15
100
AcDbCircle
 10
189.7538263814
 20
117.5671081492
 30
0.0
 40
0.3989149494462748
100
AcDbArc
 50
99.869193801
 51
179.9156105024
  0
ARC
  5
BD
330
1F
100
AcDbEntity
  8
0
  6
Continuous
 62
     7
370
    15
100
AcDbCircle
 10
195.3053805894
 20
118.5416453979
 30
0.0
 40
0.3995323837275319
100
AcDbArc
 50
0.1349635787
 51
100.0800896965
  0
ELLIPSE
  5
BE
330
1F
100
AcDbEntity
  8
0
  6
HIDDEN
 62
     7
370
     0
100
AcDbEllipse
 10
195.5751518589
 20
109.0660643983
 30
0.0
 11
14.43106877738126
 21
8.243271831036822
 31
0.0
210
0.0
220
0.0
230
1.0
 40
0.0230835902
 41
2.342425432295062
 42
3.181981922108553
  0
SPLINE
  5
BF
330
1F
100
AcDbEntity
  8
0
  6
HIDDEN
 62
     7
370
     0
100
AcDbSpline
210
0.0
220
0.0
230
1.0
 70
     8
 71
     3
 72
    24
 73
    20
 74
     0
 42
0.00000001
 43
0.00000001
 12
1.0
 22
0.0
 32
0.0
 13
1.0
 23
0.0
 33
0.0
 40
0.0
 40
0.0
 40
0.0
 40
0.0
 40
0.2499999999999994
 40
0.2499999999999994
 40
0.3749999999999994
 40
0.3749999999999994
 40
0.4999999999999994
 40
0.4999999999999994
 40
0.6249999999999994
 40
0.6249999999999994
 40
0.7499999999999996
 40
0.7499999999999996
 40
0.8749999999999996
 40
0.8749999999999996
 40
0.9374999999999997
 40
0.9374999999999997
 40
0.9687499999999999
 40
0.9687499999999999
 40
1.0
 40
1.0
 40
1.0
 40
1.0
 10
183.6991301597295
 20
117.3158564423688
 30
0.0
 10
183.6802178940347
 20
117.3111369930045
 30
0.0
 10
183.6900056668889
 20
117.227320336203
 30
0.0
 10
183.7491667858286
 20
116.9848030012403
 30
0.0
 10
183.7767346667714
 20
116.8835599780589
 30
0.0
 10
183.8474879155381
 20
116.647442687309
 30
0.0
 10
183.8907203314882
 20
116.5121638354824
 30
0.0
 10
183.9958113002261
 20
116.2085432662266
 30
0.0
 10
184.0575833734766
 20
116.0401840492607
 30
0.0
 10
184.2060658962135
 20
115.6708343440924
 30
0.0
 10
184.2917041682984
 20
115.4720220618231
 30
0.0
 10
184.4962571756044
 20
115.0530915669224
 30
0.0
 10
184.6138669315681
 20
114.8326680394198
 30
0.0
 10
184.8363249216418
 20
114.50236382119
 30
0.0
 10
184.9188622833329
 20
114.3910901005579
 30
0.0
 10
185.0650794225455
 20
114.2333640990259
 30
0.0
 10
185.1174393970692
 20
114.182421333272
 30
0.0
 10
185.2358372694675
 20
114.0880519246822
 30
0.0
 10
185.2999453252916
 20
114.0452757300482
 30
0.0
 10
185.3759206442819
 20
114.0150858600865
 30
0.0
  0
SPLINE
  5
C0
330
1F
100
AcDbEntity
  8
0
  6
HIDDEN
 62
     7
370
     0
100
AcDbSpline
210
0.0
220
0.0
230
1.0
 70
     8
 71
     3
 72
    14
 73
    10
 74
     0
 42
0.00000001
 43
0.00000001
 12
1.0
 22
0.0
 32
0.0
 13
1.0
 23
0.0
 33
0.0
 40
0.0
 40
0.0
 40
0.0
 40
0.0
 40
0.25
 40
0.25
 40
0.5
 40
0.5
 40
0.75
 40
0.75
 40
1.0
 40
1.0
 40
1.0
 40
1.0
 10
178.7049118646816
 20
110.2379302889327
 30
0.0
 10
178.7218262430937
 20
110.1161185072092
 30
0.0
 10
178.7365585963486
 20
109.9822019151902
 30
0.0
 10
178.7585005902084
 20
109.6925075128437
 30
0.0
 10
178.7654444544557
 20
109.5375806405129
 30
0.0
 10
178.7677916511921
 20
109.2225445101856
 30
0.0
 10
178.7630852105588
 20
109.0588837771088
 30
0.0
 10
178.7419293184983
 20
108.7376991167051
 30
0.0
 10
178.7255828849435
 20
108.5786905007189
 30
0.0
 10
178.7049118646816
 20
108.4212530656065
 30
0.0
  0
SPLINE
  5
C1
330
1F
100
AcDbEntity
  8
0
  6
HIDDEN
 62
     7
370
     0
100
AcDbSpline
210
0.0
220
0.0
230
1.0
 70
     8
 71
     3
 72
    14
 73
    10
 74
     0
 42
0.00000001
 43
0.00000001
 12
1.0
 22
0.0
 32
0.0
 13
1.0
 23
0.0
 33
0.0
 40
0.0
 40
0.0
 40
0.0
 40
0.0
 40
0.1097199939062685
 40
0.2202662449633595
 40
0.3596697115073916
 40
0.5071095556529394
 40
0.6868999168108302
 40
0.8665956952150351
 40
1.0
 40
1.0
 40
1.0
 40
1.0
 10
177.7322482127984
 20
108.5745440856017
 30
0.0
 10
177.8073328593397
 20
108.6420393648504
 30
0.0
 10
177.9580675847007
 20
108.777538203153
 30
0.0
 10
178.0672756926136
 20
109.1041306621596
 30
0.0
 10
178.0868438023274
 20
109.4724678197125
 30
0.0
 10
178.0784607210719
 20
109.875619880326
 30
0.0
 10
178.0781360946751
 20
110.235472882695
 30
0.0
 10
178.1061314828043
 20
110.4836893794519
 30
0.0
 10
178.1619884496823
 20
110.5241146026608
 30
0.0
 10
178.1857877401771
 20
110.541338803763
 30
0.0
  0
SPLINE
  5
C2
330
1F
100
AcDbEntity
  8
0
  6
HIDDEN
 62
     7
370
     0
100
AcDbSpline
210
0.0
220
0.0
230
1.0
 70
     8
 71
     3
 72
    14
 73
    10
 74
     0
 42
0.00000001
 43
0.00000001
 12
1.0
 22
0.0
 32
0.0
 13
1.0
 23
0.0
 33
0.0
 40
0.0
 40
0.0
 40
0.0
 40
0.0
 40
0.25
 40
0.25
 40
0.5
 40
0.5
 40
0.75
 40
0.75
 40
1.0
 40
1.0
 40
1.0
 40
1.0
 10
178.2065957777828
 20
110.5648806106542
 30
0.0
 10
178.2294250944445
 20
110.5687645881218
 30
0.0
 10
178.2552983690496
 20
110.5630745136552
 30
0.0
 10
178.3149058708455
 20
110.5344474452432
 30
0.0
 10
178.3490469487017
 20
110.5110520096978
 30
0.0
 10
178.4266471586533
 20
110.4501251115298
 30
0.0
 10
178.4698693952883
 20
110.4127206646619
 30
0.0
 10
178.572584663679
 20
110.328712985147
 30
0.0
 10
178.6324390473625
 20
110.281665671469
 30
0.0
 10
178.7049118646817
 20
110.2379302889328
 30
0.0
  0
LWPOLYLINE
  5
C3
330
1F
100
AcDbEntity
  8
0
  6
HIDDEN
 62
     7
370
     0
100
AcDbPolyline
 90
       13
 70
   128
 43
0.0
 10
177.7322482128
 20
108.5745440856
 10
177.9458543867
 20
108.2270385348
 10
178.1640326409
 20
107.9168233106
 10
178.370377734
 20
107.6672240904
 10
178.5493741829
 20
107.4970087182
 10
178.6875629015
 20
107.4189760142
 10
178.7745532148
 20
107.4389934071
 10
178.8038041546
 20
107.5555557507
 10
178.7731162866
 20
107.7598984989
 10
178.6847970903
 20
108.0366567286
 10
178.5454874556
 20
108.3650204579
 10
178.3656623409
 20
108.7202993884
 10
178.1588431414
 20
109.075779416
  0
SPLINE
  5
C4
330
1F
100
AcDbEntity
  8
0
  6
HIDDEN
 62
     7
370
     0
100
AcDbSpline
210
0.0
220
0.0
230
1.0
 70
     8
 71
     3
 72
    12
 73
     8
 74
     0
 42
0.00000001
 43
0.00000001
 12
1.0
 22
0.0
 32
0.0
 13
1.0
 23
0.0
 33
0.0
 40
0.0
 40
0.0
 40
0.0
 40
0.0
 40
0.5000000000000138
 40
0.5000000000000138
 40
0.7500000000000069
 40
0.7500000000000069
 40
1.0
 40
1.0
 40
1.0
 40
1.0
 10
178.7049118646816
 20
108.4212530656065
 30
0.0
 10
178.6480581123447
 20
108.5458244984624
 30
0.0
 10
178.5812709052921
 20
108.6747401357188
 30
0.0
 10
178.4508883931515
 20
108.8512484491089
 30
0.0
 10
178.4027092056936
 20
108.9063839539871
 30
0.0
 10
178.2912890673176
 20
109.0037239277653
 30
0.0
 10
178.2276172705323
 20
109.0453023311321
 30
0.0
 10
178.1588431414469
 20
109.0757794160031
 30
0.0
  0
LINE
  5
C5
330
1F
100
AcDbEntity
  8
0
  6
HIDDEN
 62
     7
370
     0
100
AcDbLine
 10
92.0039499704
 20
107.5660643983
 30
0.0
 11
92.0039499704
 21
110.5660643983
 31
0.0
  0
LINE
  5
C6
330
1F
100
AcDbEntity
  8
0
  6
HIDDEN
 62
     7
370
     0
100
AcDbLine
 10
178.7049118647
 20
107.8858966799
 30
0.0
 11
178.7049118647
 21
107.5804713781
 31
0.0
  0
ELLIPSE
  5
C7
330
1F
100
AcDbEntity
  8
0
  6
HIDDEN
 62
     7
370
     0
100
AcDbEllipse
 10
177.796301067
 20
109.0660643983
 30
0.0
 11
-0.9010773069911977
 21
1.491012803846019
 31
0.0
210
0.0
220
0.0
230
1.0
 40
0.1819529889
 41
1.795122206947888
 42
3.17078017666373
  0
LINE
  5
C8
330
1F
100
AcDbEntity
  8
0
  6
HIDDEN
 62
     7
370
     0
100
AcDbLine
 10
178.7049118647
 20
110.2379302889
 30
0.0
 11
178.7049118647
 21
108.4212530656
 31
0.0
  0
ELLIPSE
  5
C9
330
1F
100
AcDbEntity
  8
0
  6
HIDDEN
 62
     7
370
     0
100
AcDbEllipse
 10
177.796301067
 20
109.0660643983
 30
0.0
 11
-0.9010773069911977
 21
1.491012803846019
 31
0.0
210
0.0
220
0.0
230
1.0
 40
0.1819529889
 41
3.697295468030422
 42
4.609344412880653
  0
SPLINE
  5
CA
330
1F
100
AcDbEntity
  8
0
  6
HIDDEN
 62
     7
370
     0
100
AcDbSpline
210
0.0
220
0.0
230
1.0
 70
     8
 71
     3
 72
     8
 73
     4
 74
     0
 42
0.00000001
 43
0.00000001
 12
1.0
 22
0.0
 32
0.0
 13
1.0
 23
0.0
 33
0.0
 40
0.0
 40
0.0
 40
0.0
 40
0.0
 40
1.0
 40
1.0
 40
1.0
 40
1.0
 10
178.7049118646816
 20
107.8858966799363
 30
0.0
 10
178.726051645293
 20
107.7530773900022
 30
0.0
 10
178.726051645293
 20
107.6512689560462
 30
0.0
 10
178.7049118646816
 20
107.5804713780681
 30
0.0
  0
LINE
  5
CB
330
1F
100
AcDbEntity
  8
0
  6
HIDDEN
 62
     7
370
     0
100
AcDbLine
 10
189.3794687769
 20
117.5007525719
 30
0.0
 11
189.3549118647
 21
117.4964390028
 31
0.0
  0
LINE
  5
CC
330
1F
100
AcDbEntity
  8
0
  6
HIDDEN
 62
     7
370
     0
100
AcDbLine
 10
189.3794687769
 20
112.9921208602
 30
0.0
 11
189.3794687769
 21
117.5007525719
 31
0.0
  0
LINE
  5
CD
330
1F
100
AcDbEntity
  8
0
  6
HIDDEN
 62
     7
370
     0
100
AcDbLine
 10
189.3549118647
 20
112.9739707984
 30
0.0
 11
189.3794687769
 21
112.9921208602
 31
0.0
  0
LINE
  5
CE
330
1F
100
AcDbEntity
  8
0
  6
HIDDEN
 62
     7
370
     0
100
AcDbLine
 10
195.4481409415
 20
112.5563577598
 30
0.0
 11
190.864064775
 21
111.7511372615
 31
0.0
  0
ELLIPSE
  5
CF
330
1F
100
AcDbEntity
  8
0
  6
HIDDEN
 62
     7
370
     0
100
AcDbEllipse
 10
189.9629622783
 20
111.7689142197
 30
0.0
 11
0.9992225856419453
 21
0.1348790817300056
 31
0.0
210
0.0
220
0.0
230
1.0
 40
0.2922888529
 41
5.795260566795051
 42
5.894685585355719
  0
ELLIPSE
  5
D0
330
1F
100
AcDbEntity
  8
0
  6
HIDDEN
 62
     7
370
     0
100
AcDbEllipse
 10
189.9629622783
 20
111.7689142197
 30
0.0
 11
-0.81856109004525
 21
1.153270047372601
 31
0.0
210
0.0
220
0.0
230
1.0
 40
0.4980789051
 41
5.847882534760126
 42
5.947307553320843
  0
LINE
  5
D1
330
1F
100
AcDbEntity
  8
0
  6
HIDDEN
 62
     7
370
     0
100
AcDbLine
 10
189.4629622783
 20
112.9865574164
 30
0.0
 11
189.4629622783
 21
112.8558238023
 31
0.0
  0
ARC
  5
D2
330
1F
100
AcDbEntity
  8
0
  6
HIDDEN
 62
     7
370
     0
100
AcDbCircle
 10
189.9634244446
 20
111.9916489723
 30
0.0
 40
0.9986293189515784
100
AcDbArc
 50
340.1390014682
 51
120.076051807
  0
LINE
  5
D3
330
1F
100
AcDbEntity
  8
0
  6
HIDDEN
 62
     7
370
     0
100
AcDbLine
 10
190.9026548991
 20
111.6523752332
 30
0.0
 11
190.9026548991
 21
111.7831088473
 31
0.0
  0
ARC
  5
D4
330
1F
100
AcDbEntity
  8
0
  6
HIDDEN
 62
     7
370
     0
100
AcDbCircle
 10
189.9636612952
 20
111.9923743886
 30
0.0
 40
0.9972185599318325
100
AcDbArc
 50
269.9598375651
 51
127.6218565532
  0
ARC
  5
D5
330
1F
100
AcDbEntity
  8
0
  6
HIDDEN
 62
     7
370
     0
100
AcDbCircle
 10
189.9604627681
 20
111.9925182625
 30
0.0
 40
0.9973653208688986
100
AcDbArc
 50
174.5513278982
 51
270.1435898458
  0
LINE
  5
D6
330
1F
100
AcDbEntity
  8
0
  6
HIDDEN
 62
     7
370
     0
100
AcDbLine
 10
190.9026548991
 20
111.7831088473
 30
0.0
 11
195.3968614511
 21
112.5725432083
 31
0.0
  0
LINE
  5
D7
330
1F
100
AcDbEntity
  8
0
  6
HIDDEN
 62
     7
370
     0
100
AcDbLine
 10
195.3968614511
 20
112.5725432083
 30
0.0
 11
195.4662623273
 21
112.563793143
 31
0.0
  0
ELLIPSE
  5
D8
330
1F
100
AcDbEntity
  8
0
  6
HIDDEN
 62
     7
370
     0
100
AcDbEllipse
 10
189.4616421578
 20
107.8708887763
 30
0.0
 11
-0.07659116960888922
 21
9.630018987594255
 31
0.0
210
0.0
220
0.0
230
1.0
 40
0.1208653966
 41
6.216344712783924
 42
6.287982060252874
  0
LINE
  5
D9
330
1F
100
AcDbEntity
  8
0
  6
HIDDEN
 62
     7
370
     0
100
AcDbLine
 10
189.4629622783
 20
117.4800222196
 30
0.0
 11
189.4629622783
 21
112.9865574164
 31
0.0
  0
ELLIPSE
  5
DA
330
1F
100
AcDbEntity
  8
0
  6
HIDDEN
 62
     7
370
     0
100
AcDbEllipse
 10
195.3981815715
 20
108.9136775632
 30
0.0
 11
0.1264740424181809
 21
9.665180551043266
 31
0.0
210
0.0
220
0.0
230
1.0
 40
0.1199746352
 41
0.2683442296052799
 42
1.191509518964549
  0
LINE
  5
DB
330
1F
100
AcDbEntity
  8
0
  6
HIDDEN
 62
     7
370
     0
100
AcDbLine
 10
195.2126846097
 20
112.4094578264
 30
0.0
 11
195.3968614511
 21
112.5725432083
 31
0.0
  0
ARC
  5
DC
330
1F
100
AcDbEntity
  8
0
  6
HIDDEN
 62
     7
370
     0
100
AcDbCircle
 10
192.4633257652
 20
114.969311222
 30
0.0
 40
1.353033700687118
100
AcDbArc
 50
269.9846077233
 51
306.7140313942
  0
ARC
  5
DD
330
1F
100
AcDbEntity
  8
0
  6
HIDDEN
 62
     7
370
     0
100
AcDbCircle
 10
192.4651911178
 20
114.9646077582
 30
0.0
 40
1.348332030218226
100
AcDbArc
 50
316.1911014499
 51
269.9052880503
  0
LINE
  5
DE
330
1F
100
AcDbEntity
  8
0
  6
HIDDEN
 62
     7
370
     0
100
AcDbLine
 10
190.9026548991
 20
111.6523752332
 30
0.0
 11
195.2126846097
 21
112.4094578264
 31
0.0
  0
LINE
  5
DF
330
1F
100
AcDbEntity
  8
0
  6
HIDDEN
 62
     7
370
     0
100
AcDbLine
 10
189.4629622783
 20
117.2270029364
 30
0.0
 11
195.2126846097
 21
118.2369761813
 31
0.0
  0
LINE
  5
E0
330
1F
100
AcDbEntity
  8
0
  6
HIDDEN
 62
     7
370
     0
100
AcDbLine
 10
195.2126846097
 20
112.4094578264
 30
0.0
 11
195.2126846097
 21
118.2369761813
 31
0.0
  0
ARC
  5
E1
330
1F
100
AcDbEntity
  8
0
  6
HIDDEN
 62
     7
370
     0
100
AcDbCircle
 10
192.4664993306
 20
114.9324573291
 30
0.0
 40
1.020748226693141
100
AcDbArc
 50
269.8014607622
 51
73.3389850672
  0
ARC
  5
E2
330
1F
100
AcDbEntity
  8
0
  6
HIDDEN
 62
     7
370
     0
100
AcDbCircle
 10
192.4603436896
 20
114.9328275185
 30
0.0
 40
1.021115645447352
100
AcDbArc
 50
89.304123907
 51
270.1469316844
  0
SPLINE
  5
E3
330
1F
100
AcDbEntity
  8
0
  6
HIDDEN
 62
     7
370
     0
100
AcDbSpline
210
0.0
220
0.0
230
1.0
 70
     8
 71
     3
 72
    46
 73
    42
 74
     0
 42
0.00000001
 43
0.00000001
 12
1.0
 22
0.0
 32
0.0
 13
1.0
 23
0.0
 33
0.0
 40
-0.0312499999999973
 40
-0.0312499999999973
 40
0.0
 40
0.0
 40
0.062500000000009
 40
0.062500000000009
 40
0.0937500000000114
 40
0.0937500000000114
 40
0.1250000000000137
 40
0.1250000000000137
 40
0.2500000000000182
 40
0.2500000000000182
 40
0.3125000000000206
 40
0.3125000000000206
 40
0.375000000000023
 40
0.375000000000023
 40
0.4375000000000253
 40
0.4375000000000253
 40
0.4687500000000243
 40
0.4687500000000243
 40
0.5000000000000233
 40
0.5000000000000233
 40
0.5312500000000222
 40
0.5312500000000222
 40
0.5625000000000212
 40
0.5625000000000212
 40
0.625000000000019
 40
0.625000000000019
 40
0.6875000000000169
 40
0.6875000000000169
 40
0.7500000000000148
 40
0.7500000000000148
 40
0.8125000000000127
 40
0.8125000000000127
 40
0.8750000000000104
 40
0.8750000000000104
 40
0.9062500000000079
 40
0.9062500000000079
 40
0.9375000000000052
 40
0.9375000000000052
 40
0.9687500000000027
 40
0.9687500000000027
 40
1.0
 40
1.0
 40
1.062500000000009
 40
1.062500000000009
 10
192.5449070121062
 20
113.4025312305625
 30
0.0
 10
192.2990728106162
 20
113.4052527927739
 30
0.0
 10
192.1433996598519
 20
113.4491779083326
 30
0.0
 10
191.9436568887209
 20
113.5559534300985
 30
0.0
 10
191.8818354611893
 20
113.5987818973559
 30
0.0
 10
191.7722120763657
 20
113.6924613943239
 30
0.0
 10
191.7238406173676
 20
113.7434731083909
 30
0.0
 10
191.510017020965
 20
114.0156143813852
 30
0.0
 10
191.4365131471013
 20
114.2734674003488
 30
0.0
 10
191.4387186139307
 20
114.6454004351402
 30
0.0
 10
191.4586741205896
 20
114.7693886982313
 30
0.0
 10
191.5357978241842
 20
115.0051599100273
 30
0.0
 10
191.5932815262627
 20
115.1198555358167
 30
0.0
 10
191.7563169399248
 20
115.333043118068
 30
0.0
 10
191.8621804927564
 20
115.4318573758929
 30
0.0
 10
192.0662273573249
 20
115.543021338382
 30
0.0
 10
192.1415774958086
 20
115.5732682922787
 30
0.0
 10
192.3009379152353
 20
115.613018379467
 30
0.0
 10
192.3827636044401
 20
115.6220104588503
 30
0.0
 10
192.5437569956252
 20
115.6186766275476
 30
0.0
 10
192.6202213220115
 20
115.6065876590218
 30
0.0
 10
192.7626193194231
 20
115.5676437432661
 30
0.0
 10
192.8275135635775
 20
115.541275975691
 30
0.0
 10
193.0088781761232
 20
115.4464605032072
 30
0.0
 10
193.108209949043
 20
115.3647117333331
 30
0.0
 10
193.2740678920736
 20
115.178302965761
 30
0.0
 10
193.3399302104479
 20
115.0734398728992
 30
0.0
 10
193.4373596301851
 20
114.8492315729331
 30
0.0
 10
193.469825456604
 20
114.7267756105499
 30
0.0
 10
193.4946258676771
 20
114.4748211565658
 30
0.0
 10
193.4879453781398
 20
114.345150586643
 30
0.0
 10
193.4238453640544
 20
114.0782585204299
 30
0.0
 10
193.3668533358835
 20
113.945631672034
 30
0.0
 10
193.2355211280876
 20
113.7632345090611
 30
0.0
 10
193.1849964692624
 20
113.706434337463
 30
0.0
 10
193.0682957279763
 20
113.6025507940042
 30
0.0
 10
193.0025505304183
 20
113.5562553168914
 30
0.0
 10
192.8615982914772
 20
113.480957084268
 30
0.0
 10
192.7839396430715
 20
113.4508792254504
 30
0.0
 10
192.6256881942313
 20
113.4119425078941
 30
0.0
 10
192.5449070121062
 20
113.4025312305625
 30
0.0
 10
192.2990728106162
 20
113.4052527927739
 30
0.0
  0
SPLINE
  5
E4
330
1F
100
AcDbEntity
  8
0
  6
HIDDEN
 62
     7
370
     0
100
AcDbSpline
210
0.0
220
0.0
230
1.0
 70
     8
 71
     3
 72
    14
 73
    10
 74
     0
 42
0.00000001
 43
0.00000001
 12
1.0
 22
0.0
 32
0.0
 13
1.0
 23
0.0
 33
0.0
 40
0.0
 40
0.0
 40
0.0
 40
0.0
 40
0.5000000000000034
 40
0.5000000000000034
 40
0.6250000000000027
 40
0.6250000000000027
 40
0.7500000000000019
 40
0.7500000000000019
 40
1.0
 40
1.0
 40
1.0
 40
1.0
 10
185.8968651772833
 20
113.9096007130103
 30
0.0
 10
186.7523946803595
 20
113.7660135838493
 30
0.0
 10
187.5743057831648
 20
113.5536715198009
 30
0.0
 10
188.5415349414564
 20
113.1357918294051
 30
0.0
 10
188.7319693079296
 20
113.0444413963398
 30
0.0
 10
189.1063940383546
 20
112.8438650355936
 30
0.0
 10
189.2899696412901
 20
112.734715968195
 30
0.0
 10
189.8200003934006
 20
112.3846132931347
 30
0.0
 10
190.1492349638738
 20
112.1191169668626
 30
0.0
 10
190.4558810403624
 20
111.8192237899307
 30
0.0
  0
ELLIPSE
  5
E5
330
1F
100
AcDbEntity
  8
0
  6
HIDDEN
 62
     7
370
     0
100
AcDbEllipse
 10
201.5399826817
 20
112.4708696608
 30
0.0
 11
19.33583383070049
 21
11.04421409138683
 31
0.0
210
0.0
220
0.0
230
1.0
 40
0.0219583238
 41
2.450261416396442
 42
2.500633159566457
  0
SPLINE
  5
E6
330
1F
100
AcDbEntity
  8
0
  6
HIDDEN
 62
     7
370
     0
100
AcDbSpline
210
0.0
220
0.0
230
1.0
 70
     8
 71
     3
 72
     8
 73
     4
 74
     0
 42
0.00000001
 43
0.00000001
 12
1.0
 22
0.0
 32
0.0
 13
1.0
 23
0.0
 33
0.0
 40
0.0
 40
0.0
 40
0.0
 40
0.0
 40
1.0
 40
1.0
 40
1.0
 40
1.0
 10
185.8223266107361
 20
113.9165543435112
 30
0.0
 10
185.8474805036888
 20
113.9160591856261
 30
0.0
 10
185.8725635537793
 20
113.913679357102
 30
0.0
 10
185.8968651772833
 20
113.9096007130104
 30
0.0
  0
SPLINE
  5
E7
330
1F
100
AcDbEntity
  8
0
  6
HIDDEN
 62
     7
370
     0
100
AcDbSpline
210
0.0
220
0.0
230
1.0
 70
     8
 71
     3
 72
     8
 73
     4
 74
     0
 42
0.00000001
 43
0.00000001
 12
1.0
 22
0.0
 32
0.0
 13
1.0
 23
0.0
 33
0.0
 40
0.0
 40
0.0
 40
0.0
 40
0.0
 40
1.0
 40
1.0
 40
1.0
 40
1.0
 10
185.3759206442824
 20
114.0150858600868
 30
0.0
 10
185.5183469424845
 20
113.9584907515836
 30
0.0
 10
185.6652706262102
 20
113.9196460124342
 30
0.0
 10
185.8223266107362
 20
113.9165543435112
 30
0.0
  0
SPLINE
  5
E8
330
1F
100
AcDbEntity
  8
0
  6
HIDDEN
 62
     7
370
     0
100
AcDbSpline
210
0.0
220
0.0
230
1.0
 70
     8
 71
     3
 72
     8
 73
     4
 74
     0
 42
0.00000001
 43
0.00000001
 12
1.0
 22
0.0
 32
0.0
 13
1.0
 23
0.0
 33
0.0
 40
0.0
 40
0.0
 40
0.0
 40
0.0
 40
1.0
 40
1.0
 40
1.0
 40
1.0
 10
185.8968651772833
 20
103.8725702385473
 30
0.0
 10
185.7287224893825
 20
103.7698549224259
 30
0.0
 10
185.5556247470647
 20
103.6648438690266
 30
0.0
 10
185.3759206442825
 20
103.556772008073
 30
0.0
  0
LINE
  5
E9
330
1F
100
AcDbEntity
  8
0
  6
HIDDEN
 62
     7
370
     0
100
AcDbLine
 10
186.4890789078
 20
108.3339561592
 30
0.0
 11
186.4890789078
 21
104.233127999
 31
0.0
  0
SPLINE
  5
EA
330
1F
100
AcDbEntity
  8
0
  6
HIDDEN
 62
     7
370
     0
100
AcDbSpline
210
0.0
220
0.0
230
1.0
 70
     8
 71
     3
 72
     8
 73
     4
 74
     0
 42
0.00000001
 43
0.00000001
 12
1.0
 22
0.0
 32
0.0
 13
1.0
 23
0.0
 33
0.0
 40
0.0
 40
0.0
 40
0.0
 40
0.0
 40
0.0001487427176947
 40
0.0001487427176947
 40
0.0001487427176947
 40
0.0001487427176947
 10
193.5012703116011
 20
108.3339561591975
 30
0.0
 10
193.4603007301187
 20
108.3061382428044
 30
0.0
 10
193.4182685634754
 20
108.2798251718752
 30
0.0
 10
193.3753450825995
 20
108.2551249421302
 30
0.0
  0
ELLIPSE
  5
EB
330
1F
100
AcDbEntity
  8
0
  6
HIDDEN
 62
     7
370
     0
100
AcDbEllipse
 10
195.5751518589
 20
109.0660643983
 30
0.0
 11
14.69345184606061
 21
8.393149500691862
 31
0.0
210
0.0
220
0.0
230
1.0
 40
0.0230835902
 41
1.70787659946778
 42
2.22421707624688
  0
SPLINE
  5
EC
330
1F
100
AcDbEntity
  8
0
  6
HIDDEN
 62
     7
370
     0
100
AcDbSpline
210
0.0
220
0.0
230
1.0
 70
     8
 71
     3
 72
    20
 73
    16
 74
     0
 42
0.00000001
 43
0.00000001
 12
1.0
 22
0.0
 32
0.0
 13
1.0
 23
0.0
 33
0.0
 40
0.0
 40
0.0
 40
0.0
 40
0.0
 40
0.0624999999999979
 40
0.0624999999999979
 40
0.1249999999999958
 40
0.1249999999999958
 40
0.2499999999999947
 40
0.2499999999999947
 40
0.3749999999999936
 40
0.3749999999999936
 40
0.4999999999999925
 40
0.4999999999999925
 40
0.7499999999999962
 40
0.7499999999999962
 40
1.0
 40
1.0
 40
1.0
 40
1.0
 10
186.4890789078029
 20
108.3339561591976
 30
0.0
 10
186.4890789078029
 20
108.4508963948118
 30
0.0
 10
186.5030099401739
 20
108.5653225247924
 30
0.0
 10
186.5554226737093
 20
108.78974417451
 30
0.0
 10
186.5944945655326
 20
108.9007289475186
 30
0.0
 10
186.7382524239814
 20
109.2162190332098
 30
0.0
 10
186.8697691883172
 20
109.408340595398
 30
0.0
 10
187.1680329630582
 20
109.7625523292857
 30
0.0
 10
187.3328751820758
 20
109.9227278459433
 30
0.0
 10
187.6809704311191
 20
110.2232383382425
 30
0.0
 10
187.8650441944649
 20
110.363728812803
 30
0.0
 10
188.4321278010055
 20
110.7618534973782
 30
0.0
 10
188.8261512009087
 20
110.9950041029957
 30
0.0
 10
189.630090749909
 20
111.4291908401752
 30
0.0
 10
190.0404108789556
 20
111.629410649561
 30
0.0
 10
190.4558810403624
 20
111.8192237899307
 30
0.0
  0
LINE
  5
ED
330
1F
100
AcDbEntity
  8
0
  6
HIDDEN
 62
     7
370
     0
100
AcDbLine
 10
190.4558810404
 20
111.8192237899
 30
0.0
 11
194.3678454295
 21
112.5063838196
 31
0.0
  0
LINE
  5
EE
330
1F
100
AcDbEntity
  8
0
  6
HIDDEN
 62
     7
370
     0
100
AcDbLine
 10
194.3678454295
 20
112.5063838196
 30
0.0
 11
194.3678454295
 21
109.9677172889
 31
0.0
  0
ELLIPSE
  5
EF
330
1F
100
AcDbEntity
  8
0
  6
HIDDEN
 62
     7
370
     0
100
AcDbEllipse
 10
192.3528257786
 20
109.9849301009
 30
0.0
 11
1.868639352156748
 21
-0.7633212359937859
 31
0.0
210
0.0
220
0.0
230
1.0
 40
0.9877670049
 41
5.702338613546486
 42
6.666699550843429
  0
ARC
  5
F0
330
1F
100
AcDbEntity
  8
0
  6
HIDDEN
 62
     7
370
     0
100
AcDbCircle
 10
192.7446671903
 20
114.3193755355
 30
0.0
 40
0.2059958849257217
100
AcDbArc
 50
213.3559219666
 51
9.4449408492
  0
LINE
  5
F1
330
1F
100
AcDbEntity
  8
0
  6
HIDDEN
 62
     7
370
     0
100
AcDbLine
 10
192.9478705437
 20
114.3531794077
 30
0.0
 11
192.9478705437
 21
114.3907363771
 31
0.0
  0
ARC
  5
F2
330
1F
100
AcDbEntity
  8
0
  6
HIDDEN
 62
     7
370
     0
100
AcDbCircle
 10
191.9332983559
 20
114.4615553041
 30
0.0
 40
0.205726988038037
100
AcDbArc
 50
153.4443111121
 51
309.7179781186
  0
LINE
  5
F3
330
1F
100
AcDbEntity
  8
0
  6
HIDDEN
 62
     7
370
     0
100
AcDbLine
 10
192.0647597952
 20
114.3033102928
 30
0.0
 11
192.0647597952
 21
114.3792075094
 31
0.0
  0
ARC
  5
F4
330
1F
100
AcDbEntity
  8
0
  6
HIDDEN
 62
     7
370
     0
100
AcDbCircle
 10
193.3061628393
 20
114.3836746316
 30
0.0
 40
0.3595877191831688
100
AcDbArc
 50
93.1678544223
 51
184.8648736394
  0
LINE
  5
F5
330
1F
100
AcDbEntity
  8
0
  6
HIDDEN
 62
     7
370
     0
100
AcDbLine
 10
191.5798515298
 20
115.040261797
 30
0.0
 11
191.5798515298
 21
115.1161590135
 31
0.0
  0
ARC
  5
F6
330
1F
100
AcDbEntity
  8
0
  6
HIDDEN
 62
     7
370
     0
100
AcDbCircle
 10
191.428693687
 20
114.7146028662
 30
0.0
 40
0.3590298491992838
100
AcDbArc
 50
0.0487995465
 51
65.1011579895
  0
ARC
  5
F7
330
1F
100
AcDbEntity
  8
0
  6
HIDDEN
 62
     7
370
     0
100
AcDbCircle
 10
193.2749492165
 20
114.9478384248
 30
0.0
 40
0.2054388962116065
100
AcDbArc
 50
273.164922535
 51
9.4764033323
  0
ARC
  5
F8
330
1F
100
AcDbEntity
  8
0
  6
HIDDEN
 62
     7
370
     0
100
AcDbCircle
 10
191.6505412275
 20
115.2327335742
 30
0.0
 40
0.2050424794699465
100
AcDbArc
 50
170.683427077
 51
249.8330765591
  0
ARC
  5
F9
330
1F
100
AcDbEntity
  8
0
  6
HIDDEN
 62
     7
370
     0
100
AcDbCircle
 10
193.4961836157
 20
115.4653353369
 30
0.0
 40
0.357982465525893
100
AcDbArc
 50
153.2015973696
 51
179.9971462262
  0
LINE
  5
FA
330
1F
100
AcDbEntity
  8
0
  6
HIDDEN
 62
     7
370
     0
100
AcDbLine
 10
191.9780540128
 20
115.827082416
 30
0.0
 11
191.9780540128
 21
115.9029796325
 31
0.0
  0
LINE
  5
FB
330
1F
100
AcDbEntity
  8
0
  6
HIDDEN
 62
     7
370
     0
100
AcDbLine
 10
191.979399573
 20
115.7960826941
 30
0.0
 11
191.9780540128
 21
115.827082416
 31
0.0
  0
LWPOLYLINE
  5
FC
330
1F
100
AcDbEntity
  8
0
  6
HIDDEN
 62
     7
370
     0
100
AcDbPolyline
 90
        3
 70
   128
 43
0.0
 10
193.1952593141
 20
115.7558627221
 10
193.1970135399
 20
115.6933765904
 10
193.1766490439
 20
115.6267326822
  0
ARC
  5
FD
330
1F
100
AcDbEntity
  8
0
  6
HIDDEN
 62
     7
370
     0
100
AcDbCircle
 10
192.4629622783
 20
115.0853507756
 30
0.0
 40
1.70000672048737
100
AcDbArc
 50
0.1611064167
 51
179.8388935833
  0
LWPOLYLINE
  5
FE
330
1F
100
AcDbEntity
  8
0
  6
HIDDEN
 62
     7
370
     0
100
AcDbPolyline
 90
        3
 70
   128
 43
0.0
 10
191.9780540128
 20
115.827082416
 10
191.9782002145
 20
115.8967455466
 10
191.9883466034
 20
115.9337932169
  0
ARC
  5
FF
330
1F
100
AcDbEntity
  8
0
  6
HIDDEN
 62
     7
370
     0
100
AcDbCircle
 10
192.2712388046
 20
114.0068286421
 30
0.0
 40
0.3612962088561216
100
AcDbArc
 50
33.4752278009
 51
124.8545488577
  0
CIRCLE
  5
100
330
1F
100
AcDbEntity
  8
0
  6
HIDDEN
 62
     7
370
     0
100
AcDbCircle
 10
192.4610596653
 20
114.9887937329
 30
0.0
 40
1.248257816324694
  0
CIRCLE
  5
101
330
1F
100
AcDbEntity
  8
0
  6
HIDDEN
 62
     7
370
     0
100
AcDbCircle
 10
192.4610596653
 20
114.690285314
 30
0.0
 40
1.248257816324722
  0
CIRCLE
  5
102
330
1F
100
AcDbEntity
  8
0
  6
HIDDEN
 62
     7
370
     0
100
AcDbCircle
 10
192.4616119248
 20
114.6475527877
 30
0.0
 40
0.7737932510294442
  0
ARC
  5
103
330
1F
100
AcDbEntity
  8
0
  6
HIDDEN
 62
     7
370
     0
100
AcDbCircle
 10
192.5299118647
 20
115.1883611552
 30
0.0
 40
1.925008359440585
100
AcDbArc
 50
180.1688535069
 51
359.8311464931
  0
ARC
  5
104
330
1F
100
AcDbEntity
  8
0
  6
HIDDEN
 62
     7
370
     0
100
AcDbCircle
 10
192.5299118647
 20
115.0365565812
 30
0.0
 40
1.400005909124512
100
AcDbArc
 50
0.1664694018
 51
179.8335305982
  0
ARC
  5
105
330
1F
100
AcDbEntity
  8
0
  6
HIDDEN
 62
     7
370
     0
100
AcDbCircle
 10
195.3050381541
 20
118.3349022833
 30
0.0
 40
0.1076467543246278
100
AcDbArc
 50
0.1349635767
 51
100.0800896985
  0
LINE
  5
106
330
1F
100
AcDbEntity
  8
0
  6
HIDDEN
 62
     7
370
     0
100
AcDbLine
 10
195.2861973239
 20
118.4408874088
 30
0.0
 11
189.7361973239
 21
117.4659965904
 31
0.0
  0
ARC
  5
107
330
1F
100
AcDbEntity
  8
0
  6
HIDDEN
 62
     7
370
     0
100
AcDbCircle
 10
189.7546194009
 20
117.3601067278
 30
0.0
 40
0.1074803978572663
100
AcDbArc
 50
99.8691938
 51
179.9156105033
  0
LINE
  5
108
330
1F
100
AcDbEntity
  8
0
  6
HIDDEN
 62
     7
370
     0
100
AcDbLine
 10
195.4126846097
 20
112.7209833821
 30
0.0
 11
195.4126846097
 21
118.3351558513
 31
0.0
  0
ARC
  5
109
330
1F
100
AcDbEntity
  8
0
  6
HIDDEN
 62
     7
370
     0
100
AcDbCircle
 10
195.3052043285
 20
112.7211416872
 30
0.0
 40
0.1074803978573324
100
AcDbArc
 50
279.8691938001
 51
359.9156105033
  0
LINE
  5
10A
330
1F
100
AcDbEntity
  8
0
  6
HIDDEN
 62
     7
370
     0
100
AcDbLine
 10
189.6471391196
 20
117.3602650329
 30
0.0
 11
189.6471391196
 21
111.7460925637
 31
0.0
  0
LINE
  5
10B
330
1F
100
AcDbEntity
  8
0
  6
HIDDEN
 62
     7
370
     0
100
AcDbLine
 10
189.7736264055
 20
111.6403610062
 30
0.0
 11
195.3236264055
 21
112.6152518246
 31
0.0
  0
ARC
  5
10C
330
1F
100
AcDbEntity
  8
0
  6
HIDDEN
 62
     7
370
     0
100
AcDbCircle
 10
189.7547855753
 20
111.7463461317
 30
0.0
 40
0.1076467543246563
100
AcDbArc
 50
180.1349635767
 51
280.0800896986
  0
LINE
  5
10D
330
1F
100
AcDbEntity
  8
0
  6
HIDDEN
 62
     7
370
     0
100
AcDbLine
 10
182.1516106951
 20
112.8481131272
 30
0.0
 11
178.1781571802
 21
110.5540386707
 31
0.0
  0
LINE
  5
10E
330
1F
100
AcDbEntity
  8
0
  6
HIDDEN
 62
     7
370
     0
100
AcDbLine
 10
178.7566598618
 20
107.4239357345
 30
0.0
 11
184.3780892953
 21
110.6694695312
 31
0.0
  0
LINE
  5
10F
330
1F
100
AcDbEntity
  8
0
  6
HIDDEN
 62
     7
370
     0
100
AcDbLine
 10
90.7049118647
 20
106.8160643983
 30
0.0
 11
92.0039499704
 21
107.5660643983
 31
0.0
  0
LINE
  5
110
330
1F
100
AcDbEntity
  8
0
  6
HIDDEN
 62
     7
370
     0
100
AcDbLine
 10
92.0039499704
 20
110.5660643983
 30
0.0
 11
90.7049118647
 21
111.3160643983
 31
0.0
  0
LINE
  5
111
330
1F
100
AcDbEntity
  8
0
  6
HIDDEN
 62
     7
370
     0
100
AcDbLine
 10
92.0039499704
 20
107.5660643983
 30
0.0
 11
178.6623264708
 21
107.5660643983
 31
0.0
  0
LINE
  5
112
330
1F
100
AcDbEntity
  8
0
  6
HIDDEN
 62
     7
370
     0
100
AcDbLine
 10
178.2245000019
 20
110.5660643983
 30
0.0
 11
92.0039499704
 21
110.5660643983
 31
0.0
  0
LINE
  5
113
330
1F
100
AcDbEntity
  8
0
  6
HIDDEN
 62
     7
370
     0
100
AcDbLine
 10
188.9629622783
 20
112.1830934058
 30
0.0
 11
188.9629622783
 21
111.9913507718
 31
0.0
  0
LINE
  5
114
330
1F
100
AcDbEntity
  8
0
  6
HIDDEN
 62
     7
370
     0
100
AcDbLine
 10
190.9629622783
 20
111.9913507718
 30
0.0
 11
190.9629622783
 21
111.9930938866
 31
0.0
  0
LINE
  5
115
330
1F
100
AcDbEntity
  8
0
  6
HIDDEN
 62
     7
370
     0
100
AcDbLine
 10
191.4379622783
 20
114.9328147962
 30
0.0
 11
191.4379622783
 21
114.5145509163
 31
0.0
  0
LINE
  5
116
330
1F
100
AcDbEntity
  8
0
  6
HIDDEN
 62
     7
370
     0
100
AcDbLine
 10
193.4879622783
 20
114.4853551724
 30
0.0
 11
193.4879622783
 21
114.9328147962
 31
0.0
  0
LINE
  5
117
330
1F
100
AcDbEntity
  8
0
  6
HIDDEN
 62
     7
370
     0
100
AcDbLine
 10
192.9507868764
 20
114.3187706632
 30
0.0
 11
192.9507868764
 21
114.3951178464
 31
0.0
  0
LINE
  5
118
330
1F
100
AcDbEntity
  8
0
  6
HIDDEN
 62
     7
370
     0
100
AcDbLine
 10
191.7273052879
 20
114.539445086
 30
0.0
 11
191.7273052879
 21
114.4613122757
 31
0.0
  0
LINE
  5
119
330
1F
100
AcDbEntity
  8
0
  6
HIDDEN
 62
     7
370
     0
100
AcDbLine
 10
193.4804438668
 20
114.9475892992
 30
0.0
 11
193.4804438668
 21
115.0257221095
 31
0.0
  0
LINE
  5
11A
330
1F
100
AcDbEntity
  8
0
  6
HIDDEN
 62
     7
370
     0
100
AcDbLine
 10
191.4454806898
 20
115.3108053347
 30
0.0
 11
191.4454806898
 21
115.2326725244
 31
0.0
  0
LINE
  5
11B
330
1F
100
AcDbEntity
  8
0
  6
HIDDEN
 62
     7
370
     0
100
AcDbLine
 10
193.1986192687
 20
115.7189495479
 30
0.0
 11
193.1986192687
 21
115.7970823582
 31
0.0
  0
LINE
  5
11C
330
1F
100
AcDbEntity
  8
0
  6
HIDDEN
 62
     7
370
     0
100
AcDbLine
 10
191.9751376802
 20
115.9378383437
 30
0.0
 11
191.9751376802
 21
115.8614911605
 31
0.0
  0
SPLINE
  5
11D
330
1F
100
AcDbEntity
  8
0
  6
HIDDEN
 62
     7
370
     0
100
AcDbSpline
210
0.0
220
0.0
230
1.0
 70
     8
 71
     3
 72
    15
 73
    11
 74
     0
 42
0.00000001
 43
0.00000001
 12
1.0
 22
0.0
 32
0.0
 13
1.0
 23
0.0
 33
0.0
 40
0.0
 40
0.0
 40
0.0
 40
0.0
 40
0.0696208848335616
 40
0.2187374515037601
 40
0.3682747675188809
 40
0.517880982956994
 40
0.6675724305533351
 40
0.8173401280943935
 40
0.9671469260181839
 40
1.0
 40
1.0
 40
1.0
 40
1.0
 10
192.2594577427819
 20
113.8557468832714
 30
0.0
 10
192.2081962736954
 20
113.8669101199128
 30
0.0
 10
192.0471411084941
 20
113.9019831865552
 30
0.0
 10
191.7946424292094
 20
114.0274560187855
 30
0.0
 10
191.5424525849629
 20
114.2567020826241
 30
0.0
 10
191.3671186334917
 20
114.5491064424528
 30
0.0
 10
191.2810419922303
 20
114.8802406200102
 30
0.0
 10
191.3001302293217
 20
115.2173217921074
 30
0.0
 10
191.3670817002983
 20
115.4660082984269
 30
0.0
 10
191.4495679787627
 20
115.5757644350435
 30
0.0
 10
191.4644039018399
 20
115.5955050953133
 30
0.0
  0
SPLINE
  5
11E
330
1F
100
AcDbEntity
  8
0
  6
HIDDEN
 62
     7
370
     0
100
AcDbSpline
210
0.0
220
0.0
230
1.0
 70
     8
 71
     3
 72
    16
 73
    12
 74
     0
 42
0.00000001
 43
0.00000001
 12
1.0
 22
0.0
 32
0.0
 13
1.0
 23
0.0
 33
0.0
 40
0.0
 40
0.0
 40
0.0
 40
0.0
 40
0.11889127333205
 40
0.2405793429041114
 40
0.3623263365229749
 40
0.4840976678655557
 40
0.6058452374393454
 40
0.7275382644965589
 40
0.8491646215853308
 40
0.964569597432668
 40
1.0
 40
1.0
 40
1.0
 40
1.0
 10
193.4052977053721
 20
115.6929971275024
 30
0.0
 10
193.4637644737757
 20
115.5993499695374
 30
0.0
 10
193.5820733818229
 20
115.4098526994969
 30
0.0
 10
193.6469924400658
 20
115.0753322232477
 30
0.0
 10
193.6198489740495
 20
114.7364821430973
 30
0.0
 10
193.4947121806829
 20
114.418564755036
 30
0.0
 10
193.2840137347117
 20
114.1496877938871
 30
0.0
 10
193.0047028202427
 20
113.9516514459699
 30
0.0
 10
192.6860865300168
 20
113.8439776308192
 30
0.0
 10
192.4301247576568
 20
113.8303164086467
 30
0.0
 10
192.2919210380265
 20
113.850909645059
 30
0.0
 10
192.2594577427819
 20
113.8557468832714
 30
0.0
  0
LINE
  5
11F
330
1F
100
AcDbEntity
  8
0
  6
HIDDEN
 62
     7
370
     0
100
AcDbLine
 10
191.2129622783
 20
114.9855440205
 30
0.0
 11
191.2129622783
 21
114.6870356016
 31
0.0
  0
LINE
  5
120
330
1F
100
AcDbEntity
  8
0
  6
HIDDEN
 62
     7
370
     0
100
AcDbLine
 10
193.7129622783
 20
114.6870356016
 30
0.0
 11
193.7129622783
 21
114.9855440205
 31
0.0
  0
LINE
  5
121
330
1F
100
AcDbEntity
  8
0
  6
HIDDEN
 62
     7
370
     0
100
AcDbLine
 10
190.6049118647
 20
115.2480548753
 30
0.0
 11
190.6049118647
 21
115.1826880682
 31
0.0
  0
LINE
  5
122
330
1F
100
AcDbEntity
  8
0
  6
HIDDEN
 62
     7
370
     0
100
AcDbLine
 10
194.4549118647
 20
115.1826880682
 30
0.0
 11
194.4549118647
 21
115.2480548753
 31
0.0
  0
SPLINE
  5
123
330
1F
100
AcDbEntity
  8
0
  6
HIDDEN
 62
     7
370
     0
100
AcDbSpline
210
0.0
220
0.0
230
1.0
 70
     8
 71
     3
 72
    20
 73
    16
 74
     0
 42
0.00000001
 43
0.00000001
 12
1.0
 22
0.0
 32
0.0
 13
1.0
 23
0.0
 33
0.0
 40
0.0
 40
0.0
 40
0.0
 40
0.0
 40
0.043108285232962
 40
0.1273960879139779
 40
0.2115979403792216
 40
0.2956042167382656
 40
0.3793659394717455
 40
0.4629025987932854
 40
0.5462912821705143
 40
0.6296426829550636
 40
0.7130395766112834
 40
0.7965918439657943
 40
0.8803723236107159
 40
0.9643951844009419
 40
1.0
 40
1.0
 40
1.0
 40
1.0
 10
193.9176248606821
 20
115.0939677695803
 30
0.0
 10
193.9205310805044
 20
115.0312934579952
 30
0.0
 10
193.9291197087456
 20
114.8460747218404
 30
0.0
 10
193.8371552434434
 20
114.5456208105206
 30
0.0
 10
193.6546796705038
 20
114.2239174490864
 30
0.0
 10
193.388828669153
 20
113.9618308841353
 30
0.0
 10
193.0646558537296
 20
113.7777687459728
 30
0.0
 10
192.7033032856525
 20
113.6843820079842
 30
0.0
 10
192.3304540155537
 20
113.6878536869239
 30
0.0
 10
191.9717881875357
 20
113.7876120449388
 30
0.0
 10
191.6520596532914
 20
113.9764914221377
 30
0.0
 10
191.3926942681327
 20
114.2414452236155
 30
0.0
 10
191.2128303258775
 20
114.5642345380917
 30
0.0
 10
191.1376285136424
 20
114.8542708519652
 30
0.0
 10
191.1316817896488
 20
115.0277656857306
 30
0.0
 10
191.1299118646816
 20
115.0794029970121
 30
0.0
  0
LINE
  5
124
330
1F
100
AcDbEntity
  8
0
  6
HIDDEN
 62
     7
370
     0
100
AcDbLine
 10
191.1299118647
 20
115.079402997
 30
0.0
 11
191.1299118647
 21
115.0406242075
 31
0.0
  0
LINE
  5
125
330
1F
100
AcDbEntity
  8
0
  6
HIDDEN
 62
     7
370
     0
100
AcDbLine
 10
193.9299118647
 20
115.0406242075
 30
0.0
 11
193.9299118647
 21
115.079402997
 31
0.0
  0
LINE
  5
126
330
1F
100
AcDbEntity
  8
VERMASSUNG
100
AcDbLine
 10
165.0016311396
 20
109.0660643983
 30
0.0
 11
165.5374205503
 21
109.0660643983
 31
0.0
  0
POINT
  5
127
330
1F
100
AcDbEntity
  8
VERMASSUNG
100
AcDbPoint
 10
195.7049118647
 20
118.9410643983
 30
0.0
  0
DIMENSION
  5
128
330
1F
100
AcDbEntity
  8
VERMASSUNG
100
AcDbDimension
  2
_D
 10
202.2850826551
 20
99.1910643983
 30
0.0
 11
202.2850826551
 21
108.5513477704
 31
0.0
 70
   160
  1
%%c<>-25.1
 71
     2
 42
-1.0
  3
SLDDIMSTYLE0
100
AcDbAlignedDimension
 13
195.7049118647
 23
118.9410643983
 33
0.0
 14
195.7049118647
 24
99.1910643983
 34
0.0
 50
90.0
100
AcDbRotatedDimension
  0
DIMENSION
  5
133
330
1F
100
AcDbEntity
  8
VERMASSUNG
100
AcDbDimension
  2
_D_1
 10
90.7049118647
 20
126.7879179412
 30
0.0
 11
139.9528627415
 21
126.7879179412
 31
0.0
 70
   160
  1
<>
 71
     2
 42
-1.0
  3
SLDDIMSTYLE1
100
AcDbAlignedDimension
 13
195.7049118647
 23
118.9410643983
 33
0.0
 14
90.7049118647
 24
115.3960643983
 34
0.0
100
AcDbRotatedDimension
  0
DIMENSION
  5
13E
330
1F
100
AcDbEntity
  8
VERMASSUNG
100
AcDbDimension
  2
_D_2
 10
84.266854886
 20
101.0660643983
 30
0.0
 11
84.266854886
 21
108.5513477704
 31
0.0
 70
   160
  1
%%c<>
 71
     2
 42
-1.0
  3
SLDDIMSTYLE1
100
AcDbAlignedDimension
 13
101.8749118647
 23
117.0660643983
 33
0.0
 14
92.0799118647
 24
101.0660643983
 34
0.0
 50
90.0
100
AcDbRotatedDimension
  0
LINE
  5
149
330
1F
100
AcDbEntity
  8
VERMASSUNG
  6
CENTERX2
 62
     7
370
     0
100
AcDbLine
 10
88.7049118647
 20
109.0660643983
 30
0.0
 11
196.3368737945
 21
109.0660643983
 31
0.0
  0
LINE
  5
14A
330
1F
100
AcDbEntity
  8
VERMASSUNG
  6
CENTERX2
 62
     7
370
     0
100
AcDbLine
 10
188.3585610005
 20
114.6996467493
 30
0.0
 11
175.2078883143
 21
107.1071023339
 31
0.0
  0
OLE2FRAME
  5
14B
330
1F
100
AcDbEntity
  8
0
100
AcDbOle2Frame
 70
     2
  3
Paintbrush-Bild
 10
13.8511154363
 20
38.264191557
 30
0.0
 11
51.6290888628
 21
31.9806341108
 31
0.0
 71
     2
 72
     0
 73
     1
 90
    12928
310
80552BED0767C5B32B40DDAF6807D121434000000000000000006FFBDDFB85D0
310
4940DDAF6807D121434000000000000000006FFBDDFB85D04940416F4BD60AFB
310
3F4000000000000000002BED0767C5B32B40416F4BD60AFB3F40000000000000
310
0000000000000100000000010000010000000100000000000100000000320000
310
D0CF11E0A1B11AE1000000000000000000000000000000003E000300FEFF0900
310
0600000000000000000000000100000001000000000000000010000002000000
310
01000000FEFFFFFF0000000000000000FFFFFFFFFFFFFFFFFFFFFFFFFFFFFFFF
310
FFFFFFFFFFFFFFFFFFFFFFFFFFFFFFFFFFFFFFFFFFFFFFFFFFFFFFFFFFFFFFFF
310
FFFFFFFFFFFFFFFFFFFFFFFFFFFFFFFFFFFFFFFFFFFFFFFFFFFFFFFFFFFFFFFF
310
FFFFFFFFFFFFFFFFFFFFFFFFFFFFFFFFFFFFFFFFFFFFFFFFFFFFFFFFFFFFFFFF
310
FFFFFFFFFFFFFFFFFFFFFFFFFFFFFFFFFFFFFFFFFFFFFFFFFFFFFFFFFFFFFFFF
310
FFFFFFFFFFFFFFFFFFFFFFFFFFFFFFFFFFFFFFFFFFFFFFFFFFFFFFFFFFFFFFFF
310
FFFFFFFFFFFFFFFFFFFFFFFFFFFFFFFFFFFFFFFFFFFFFFFFFFFFFFFFFFFFFFFF
310
FFFFFFFFFFFFFFFFFFFFFFFFFFFFFFFFFFFFFFFFFFFFFFFFFFFFFFFFFFFFFFFF
310
FFFFFFFFFFFFFFFFFFFFFFFFFFFFFFFFFFFFFFFFFFFFFFFFFFFFFFFFFFFFFFFF
310
FFFFFFFFFFFFFFFFFFFFFFFFFFFFFFFFFFFFFFFFFFFFFFFFFFFFFFFFFFFFFFFF
310
FFFFFFFFFFFFFFFFFFFFFFFFFFFFFFFFFFFFFFFFFFFFFFFFFFFFFFFFFFFFFFFF
310
FFFFFFFFFFFFFFFFFFFFFFFFFFFFFFFFFFFFFFFFFFFFFFFFFFFFFFFFFFFFFFFF
310
FFFFFFFFFFFFFFFFFFFFFFFFFFFFFFFFFFFFFFFFFFFFFFFFFFFFFFFFFFFFFFFF
310
FFFFFFFFFFFFFFFFFFFFFFFFFFFFFFFFFFFFFFFFFFFFFFFFFFFFFFFFFFFFFFFF
310
FDFFFFFFFEFFFFFFFEFFFFFFFEFFFFFF05000000060000000700000008000000
310
090000000A0000000B0000000C0000000D0000000E0000000F00000010000000
310
11000000120000001300000014000000150000001600000017000000FEFFFFFF
310
FFFFFFFFFFFFFFFFFFFFFFFFFFFFFFFFFFFFFFFFFFFFFFFFFFFFFFFFFFFFFFFF
310
FFFFFFFFFFFFFFFFFFFFFFFFFFFFFFFFFFFFFFFFFFFFFFFFFFFFFFFFFFFFFFFF
310
FFFFFFFFFFFFFFFFFFFFFFFFFFFFFFFFFFFFFFFFFFFFFFFFFFFFFFFFFFFFFFFF
310
FFFFFFFFFFFFFFFFFFFFFFFFFFFFFFFFFFFFFFFFFFFFFFFFFFFFFFFFFFFFFFFF
310
FFFFFFFFFFFFFFFFFFFFFFFFFFFFFFFFFFFFFFFFFFFFFFFFFFFFFFFFFFFFFFFF
310
FFFFFFFFFFFFFFFFFFFFFFFFFFFFFFFFFFFFFFFFFFFFFFFFFFFFFFFFFFFFFFFF
310
FFFFFFFFFFFFFFFFFFFFFFFFFFFFFFFFFFFFFFFFFFFFFFFFFFFFFFFFFFFFFFFF
310
FFFFFFFFFFFFFFFFFFFFFFFFFFFFFFFFFFFFFFFFFFFFFFFFFFFFFFFFFFFFFFFF
310
FFFFFFFFFFFFFFFFFFFFFFFFFFFFFFFFFFFFFFFFFFFFFFFFFFFFFFFFFFFFFFFF
310
FFFFFFFFFFFFFFFFFFFFFFFFFFFFFFFFFFFFFFFFFFFFFFFFFFFFFFFFFFFFFFFF
310
FFFFFFFFFFFFFFFFFFFFFFFFFFFFFFFFFFFFFFFFFFFFFFFFFFFFFFFFFFFFFFFF
310
FFFFFFFFFFFFFFFFFFFFFFFFFFFFFFFFFFFFFFFFFFFFFFFFFFFFFFFFFFFFFFFF
310
FFFFFFFFFFFFFFFFFFFFFFFFFFFFFFFFFFFFFFFFFFFFFFFFFFFFFFFFFFFFFFFF
310
52006F006F007400200045006E00740072007900000000000000000000000000
310
0000000000000000000000000000000000000000000000000000000000000000
310
16000500FFFFFFFFFFFFFFFF020000000A00030000000000C000000000000046
310
0000000000000000000000004094A27CFE97CE0103000000C000000000000000
310
01004F006C006500000000000000000000000000000000000000000000000000
310
0000000000000000000000000000000000000000000000000000000000000000
310
0A000200FFFFFFFFFFFFFFFFFFFFFFFF00000000000000000000000000000000
310
0000000000000000000000000000000000000000000000001400000000000000
310
010043006F006D0070004F0062006A0000000000000000000000000000000000
310
0000000000000000000000000000000000000000000000000000000000000000
310
120002010100000003000000FFFFFFFF00000000000000000000000000000000
310
0000000000000000000000000000000000000000010000004D00000000000000
310
01004F006C006500310030004E00610074006900760065000000000000000000
310
0000000000000000000000000000000000000000000000000000000000000000
310
1A000200FFFFFFFFFFFFFFFFFFFFFFFF00000000000000000000000000000000
310
0000000000000000000000000000000000000000040000002426000000000000
310
FEFFFFFF02000000FEFFFFFFFFFFFFFFFFFFFFFFFFFFFFFFFFFFFFFFFFFFFFFF
310
FFFFFFFFFFFFFFFFFFFFFFFFFFFFFFFFFFFFFFFFFFFFFFFFFFFFFFFFFFFFFFFF
310
FFFFFFFFFFFFFFFFFFFFFFFFFFFFFFFFFFFFFFFFFFFFFFFFFFFFFFFFFFFFFFFF
310
FFFFFFFFFFFFFFFFFFFFFFFFFFFFFFFFFFFFFFFFFFFFFFFFFFFFFFFFFFFFFFFF
310
FFFFFFFFFFFFFFFFFFFFFFFFFFFFFFFFFFFFFFFFFFFFFFFFFFFFFFFFFFFFFFFF
310
FFFFFFFFFFFFFFFFFFFFFFFFFFFFFFFFFFFFFFFFFFFFFFFFFFFFFFFFFFFFFFFF
310
FFFFFFFFFFFFFFFFFFFFFFFFFFFFFFFFFFFFFFFFFFFFFFFFFFFFFFFFFFFFFFFF
310
FFFFFFFFFFFFFFFFFFFFFFFFFFFFFFFFFFFFFFFFFFFFFFFFFFFFFFFFFFFFFFFF
310
FFFFFFFFFFFFFFFFFFFFFFFFFFFFFFFFFFFFFFFFFFFFFFFFFFFFFFFFFFFFFFFF
310
FFFFFFFFFFFFFFFFFFFFFFFFFFFFFFFFFFFFFFFFFFFFFFFFFFFFFFFFFFFFFFFF
310
FFFFFFFFFFFFFFFFFFFFFFFFFFFFFFFFFFFFFFFFFFFFFFFFFFFFFFFFFFFFFFFF
310
FFFFFFFFFFFFFFFFFFFFFFFFFFFFFFFFFFFFFFFFFFFFFFFFFFFFFFFFFFFFFFFF
310
FFFFFFFFFFFFFFFFFFFFFFFFFFFFFFFFFFFFFFFFFFFFFFFFFFFFFFFFFFFFFFFF
310
FFFFFFFFFFFFFFFFFFFFFFFFFFFFFFFFFFFFFFFFFFFFFFFFFFFFFFFFFFFFFFFF
310
FFFFFFFFFFFFFFFFFFFFFFFFFFFFFFFFFFFFFFFFFFFFFFFFFFFFFFFFFFFFFFFF
310
FFFFFFFFFFFFFFFFFFFFFFFFFFFFFFFFFFFFFFFFFFFFFFFFFFFFFFFFFFFFFFFF
310
0100000200000000000000000000000000000000000000000000000000000000
310
0000000000000000000000000000000000000000000000000000000000000000
310
0100FEFF030A0000FFFFFFFF0A00030000000000C00000000000004607000000
310
5042727573680007000000504272757368000700000050427275736800F439B2
310
7100000000000000000000000000000000000000000000000000000000000000
310
0000000000000000000000000000000000000000000000000000000000000000
310
0000000000000000000000000000000000000000000000000000000000000000
310
0000000000000000000000000000000000000000000000000000000000000000
310
0000000000000000000000000000000000000000000000000000000000000000
310
0000000000000000000000000000000000000000000000000000000000000000
310
0000000000000000000000000000000000000000000000000000000000000000
310
0000000000000000000000000000000000000000000000000000000000000000
310
0000000000000000000000000000000000000000000000000000000000000000
310
0000000000000000000000000000000000000000000000000000000000000000
310
0000000000000000000000000000000000000000000000000000000000000000
310
0000000000000000000000000000000000000000000000000000000000000000
310
20260000424D0E260000000000003E00000028000000B40200006E0000000100
310
01000000000000000000130B0000130B00000200000002000000000000FFFFFF
310
FFFFFFFFFFFFFFFFFFFFFFFFFFFFFFFFFFFFFFFFFFFFFFFFFFFFFFFFFFFFFFFF
310
FFFFFFFFFFFFFFFFFFFFFFFFFFFFFFFFFFFFFFFFFFFFFFFFFFFFFFFFFFFFFFFF
310
FFFFFFFFFFFFFFFFFFFFFFFFFFFFFFFFFFFFFFFFFFFFFFFFF000FFFFFFFFFFFF
310
FFFFFFFFFFFFFFFFFFFFFFFFFFFFFFFFFFFFFFFFFFFFFFFFFFFFFFFFFFFFFFFF
310
FFFFFFFFFFFFFFFFFFFFFFFFFFFFFFFFFFFFFFFFFFFFFFFFFFFFFFFFFFFFFFFF
310
FFFFFFFFFFFFFFFFFFFFFFFFFFFFFFFFF000FFFFFFFFFFFFFFFFFFFFFFFFFFFF
310
FFFFFFFFFFFFFFFFFFFFFFFFFFFFFFFFFFFFFFFFFFFFFFFFFFFFFFFFFFFFFFFF
310
FFFFFFFFFFFFFFFFFFFFFFFFFFFFFFFFFFFFFFFFFFFFFFFFFFFFFFFFFFFFFFFF
310
FFFFFFFFFFFFFFFFF000FFFFFFFFFFFFFFFFFFFFFFFFFFFFFFFFFFFFFFFFFFFF
310
FFFFFFFFFFFFFFFFFFFFFFFFFFFFFFFFFFFFFFFFFFFFFFFFFFFFFFFFFFFFFFFF
310
FFFFFFFFFFFFFFFFFFFFFFFFFFFFFFFFFFFFFFFFFFFFFFFFFFFFFFFFFFFFFFFF
310
F000FFFFFFFFFFFFFFFFFFFFFFFFFFFFFFFFFFFFFFFFFFFFFFFFFFFFFFFFFFFF
310
FFFFFFFFFFFFFFFFFFFFFFFFFFFFFFFFFFFFFFFFFFFFFFFFFFFFFFFFFFFFFFFF
310
FFFFFFFFFFFFFFFFFFFFFFFFFFFFFFFFFFFFFFFFFFFFFFFFF000FFFFFFFFFFFF
310
FFFFFFFFFFFFFFFFFFFFFFFFFFFFFFFFFFFFFFFFFFFFFFFFFFFFFFFFFFFFFFFF
310
FFFFFFFFFFFFFFFFFFFFFFFFFFFFFFFFFFFFFFFFFFFFFFFFFFFFFFFFFFFFFFFF
310
FFFFFFFFFFFFFFFFFFFFFFFFFFFFFFFFF000FFFFFFFFFFFFFFFFFFFFFFFFFFFF
310
FFFFFFFFFFFFFFFFFFFFFFFFFFFFFFFFFFFFFFFFFFFFFFFFFFFFFFFFFFFFFFFF
310
FFFFFFFFFFFFFFFFFFFFFFFFFFFFFFFFFFFFFFFFFFFFFFFFFFFFFFFFFFFFFFFF
310
FFFFFFFFFFFFFFFFF000FFFFFFFFFFFFFFFFFFFFFFFFFFFFFFFFFFFFFFFFFFFF
310
FFFFFFFFFFFFFFFFFFFFFFFFFFFFFFFFFFFFFFFFFFFFFFFFFFFFFFFFFFFFFFFF
310
FFFFFFFFFFFFFFFFFFFFFFFFFFFFFFFFFFFFFFFFFFFFFFFFFFFFFFFFFFFFFFFF
310
F000FFFFFFFFFFFFFFFFFFFFFFFFFFFFFFFFFFFFFFFFFFFFFFFFFFFFFFFFFFFF
310
FFFFFFFFFFFFFFFFFFFFFFFFFFFFFFFFFFFFFFFFFFFFFFFFFFFFFFFFFFFFFFFF
310
FFFFFFFFFFFFFFFFFFFFFFFFFFFFFFFFFFFFFFFFFFFFFFFFF000FFFFFFFFFFFF
310
FFFFFFFFFFFFFFFFFFFFFFFFFFFFFFFFFFFFFFFFFFFFFFFFFFFFFFFFFFFFFFFF
310
FFFFFFFFFFFFFFFFFFFFFFFFFFFFFFFFFFFFFFFFFFFFFFFFFFFFFFFFFFFFFFFF
310
FFFFFFFFFFFFFFFFFFFFFFFFFFFFFFFFF000FFFFFFFFFFFFFFFFFFFFFFFFFFFF
310
FFFFFFFFFFFFFFFFFFFFFFFFFFFFFFFFFFFFFFFFFFFFFFFFFFFFFFFFFFFFFFFF
310
FFFFFFFFFFFFFFFFFFFFFFFFFFFFFFFFFFFFFFFFFFFFFFFFFFFFFFFFFFFFFFFF
310
FFFFFFFFFFFFFFFFF000FFFFFFFFFFFFFFFFFFFFFFFFFFFFFFFFFFFFFFFFFFFF
310
FFFFFFFFFFFFFFFFFFFFFFFFFFFFFFFFFFFFFFFFFFFFFFFFFFFFFFFFFFFFFFFF
310
FFFFFFFFFFFFFFFFFFFFFFFFFFFFFFFFFFFFFFFFFFFFFFFFFFFFFFFFFFFFFFFF
310
F000FFFFFFFFFFFFFFFFFFFFFFFFFFFFFFFFFFFFFFFFFFFFFFFFFFFFFFFFFFFF
310
FFFFFFFFFFFFFFFFFFFFFFFFFFFFFFFFFFFFFFFFFFFFFFFFFFFFFFFFFFFFFFFF
310
FFFFFFFFFFFFFFFFFFFFFFFFFFFFFFFFFFFFFFFFFFFFFFFFF000FFFFFFFFFFFF
310
FFFFFFFFFFFFFFFFFFFFFFFFFFFFFFFFFFFFFFFFFFFFFFFFFFFFFFFFFFFFFFFF
310
FFFFFFFFFFFFFFFFFFFFFFFFFFFFFFFFFFFFFFFFFFFFFFFFFFFFFFFFFFFFFFFF
310
FFFFFFFFFFFFFFFFFFFFFFFFFFFFFFFFF000FFFFFFFFFFFFFFFFFFFFFFFFFFFF
310
FFFFFFFFFFFFFFFFFFFFFFFFFFFFFFFFFFFFFFFFFFFFFFFFFFFFFFFFFFFFFFFF
310
FFFFFFFFFFFFFFFFFFFFFFFFFFFFFFFFFFFFFFFFFFFFFFFFFFFFFFFFFFFFFFFF
310
FFFFFFFFFFFFFFFFF000FFFFFFFFFFFFFFFFFFFFFFFFFFFFFFFFFFFFFFFFFFFF
310
FFFFFFFFFFFFFFFFFFFFFFFFFFFFFFFFFFFFFFFFFFFFFFFFFFFFFFFFFFFFFFFF
310
FFFFFFFFFFFFFFFFFFFFFFFFFFFFFFFFFFFFFFFFFFFFFFFFFFFFFFFFFFFFFFFF
310
F000FFFFFFFFFFFFFFFFFFFFFFFFFFFFFFFFFFFFFFFFFFFFFFFFFFFFFFFFFFFF
310
FFFFFFFFFFFFFFFFFFFFFFFFFFFFFFFFFFFFFFFFFFFFFFFFFFFFFFFFFFFFFFFF
310
FFFFFFFFFFFFFFFFFFFFFFFFFFFFFFFFFFFFFFFFFFFFFFFFF000FFFFFFFFFFFF
310
FFFFFFFFFFFFFFFFFFFFFFFFFFFFFFFFFFFFFFFFFFFFFFFFFFFFFFFFFFFFFFFF
310
FFFFFFFFFFFFFFFFFFFFFFFFFFFFFFFFFFFFFFFFFFFFFFFFFFFFFFFFFFFFFFFF
310
FFFFFFFFFFFFFFFFFFFFFFFFFFFFFFFFF000FFFFFFFFFFFFFFFFFFFFFFFFFFFF
310
FFFFFFFFFFFFFFFFFFFFFFFFFFFFFFFFFFFFFFFFFFFFFFFFFFFFFFFFFFFFFFFF
310
FFFFFFFFFFFFFFFFFFFFFFFFFFFFFFFFFFFFFFFFFFFFFFFFFFFFFFFFFFFFFFFF
310
FFFFFFFFFFFFFFFFF000FFFFF80003FFFFFFFFFFFFFFFFFFFFFFFFFFFFFFFFFF
310
FFFFF00007FFFFFFFFFF00007FFFFFF800000000000000007FFFFFFFFFFFFFFF
310
FFFFFFFC001FFFFFFFFFFFFFFC001FFFFFFFFFFFFFFFFFFFFFFFFFFE0007FFFF
310
F000FFFF8000007FFFFFFFF8000FFFFFC0007FFFFF80007FFFFF0000007FFFFF
310
FFF8000007FFFFF800000000000000007FFFFFF0001FFFFFFFFFFFC00001FFFF
310
FFFFFFFFC00001FFFFFFFF000000000003FFFFE000007FFFF000FFFE0000000F
310
FFFFFFF0000FFFFF80007FFFFF80007FFFFC0000001FFFFFFFC0000001FFFFF8
310
00000000000000007FFFFFF0001FFFFFFFFFFE0000003FFFFFFFFFFE0000003F
310
FFFFFF000000000003FFFF0000000FFFF000FFF800000003FFFFFFF00007FFFF
310
80007FFFFF80007FFFF000000007FFFFFF000000003FFFF80000000000000000
310
7FFFFFF0001FFFFFFFFFF80000000FFFFFFFFFF80000000FFFFFFF0000000000
310
03FFFC00000003FFF000FFE000000000FFFFFFF00007FFFF80003FFFFF80007F
310
FFC000000001FFFFFC000000001FFFF800000000000000007FFFFFF0001FFFFF
310
FFFFE000000003FFFFFFFFE000000003FFFFFF000000000003FFF000000000FF
310
F000FF80000000007FFFFFF00007FFFF80003FFFFF80007FFF8000000000FFFF
310
F80000000007FFF800000000000000007FFFFFF0001FFFFFFFFFC000000001FF
310
FFFFFFC000000001FFFFFF000000000003FFC0000000007FF000FF0000000000
310
3FFFFFE00007FFFF00003FFFFF80007FFE00000000003FFFF00000000003FFF8
310
00000000000000007FFFFFF0001FFFFFFFFF8000000000FFFFFFFF8000000000
310
FFFFFF000000000003FF80000000003FF000FE00000000001FFFFFE00003FFFF
310
00003FFFFF80007FFC00000000001FFFE00000000001FFF8000001FFFE000000
310
7FFFFFF0001FFFFFFFFE00000000003FFFFFFE00000000003FFFFF0000000000
310
03FF00000000001FF000FC00000000000FFFFFE00003FFFF00001FFFFF80007F
310
F800000000001FFFC00000000000FFF8000001FFFE0000007FFFFFF0001FFFFF
310
FFFC00000000001FFFFFFC00000000001FFFFF000000000003FE00000000000F
310
F000F8000000000007FFFFE00003FFFF00001FFFFF80007FF800000000000FFF
310
800000000000FFF8000001FFFE0000007FFFFFF0001FFFFFFFF800000000000F
310
FFFFF800000000000FFFFF000000000003FC000000000007F000F80000000000
310
03FFFFC00003FFFE00001FFFFF80007FF0000000000007FF0000000000007FF8
310
000001FFFE0000007FFFFFF0001FFFFFFFF0000000000007FFFFF00000000000
310
07FFFF000000000003F8000000000003F000F0000000000003FFFFC00001FFFE
310
00001FFFFF80007FE0000000000007FE0000000000003FF8000001FFFE000000
310
7FFFFFF0001FFFFFFFF0000000000007FFFFF0000000000007FFFF0000000000
310
03F800001F800003F000E00001FFF00001FFFFC00001FFFE00000FFFFF80007F
310
E00001FFE00003FE00001FFF00003FF8000001FFFE0000007FFFFFF0001FFFFF
310
FFE000003E000003FFFFE000003E000003FFFF000000000003F00001FFF80001
310
F000E00007FFFC0001FFFFC00001FFFE00000FFFFF80007FC0000FFFFC0003FC
310
0000FFFFC0001FF8000001FFFE0000007FFFFFF0001FFFFFFFC00003FFE00001
310
FFFFC00003FFE00001FFFF0001FFFFFFFFF00007FFFE0001F000E0000FFFFF00
310
00FFFF800001FFFC00000FFFFF80007FC0001FFFFE0001FC0001FFFFE0001FF8
310
000001FFFE0000007FFFFFF0001FFFFFFF80000FFFF80000FFFF80000FFFF800
310
00FFFF0003FFFFFFFFE0000FFFFF8000F000C0003FFFFF8000FFFF800000FFFC
310
000007FFFF80007F80003FFFFF0001FC0003FFFFF0001FF8000001FFFE000000
310
7FFFFFF0001FFFFFFF80003FFFFE0000FFFF80003FFFFE0000FFFF0003FFFFFF
310
FFE0003FFFFF8000F000C0003FFFFF8000FFFF800000FFFC000007FFFF80007F
310
80007FFFFF8001F80007FFFFF8000FF8000001FFFE0000007FFFFFF0001FFFFF
310
FF00007FFFFF00007FFF00007FFFFF00007FFF0003FFFFFFFFE0003FFFFFC000
310
F000C0007FFFFFC000FFFF000000FFFC000007FFFF80007F8000FFFFFF8000F8
310
000FFFFFF8000FF8000001FFFE0000007FFFFFF0001FFFFFFF0000FFFFFF8000
310
7FFF0000FFFFFF80007FFF0003FFFFFFFFC0007FFFFFC00070008000FFFFFFC0
310
00FFFF000000FFF8000007FFFF80007F8000FFFFFF8000F8000FFFFFF8000FF8
310
000001FFFE0000007FFFFFF0001FFFFFFE0001FFFFFFC0003FFE0001FFFFFFC0
310
003FFF0003FFFFFFFFC0007FFFFFE00070008000FFFFFFC0007FFF0000007FF8
310
000003FFFF80007F0001FFFFFF8000F8000FFFFFF8000FF8000001FFFE000000
310
7FFFFFF0001FFFFFFE0001FFFFFFC0003FFE0001FFFFFFC0003FFF0003FFFFFF
310
FFC000FFFFFFE00070008000FFFFFFC0007FFF0000007FF8000003FFFF80007F
310
0001FFFFFF8000F8001FFFFFF8000FF8000001FFFE0000007FFFFFF0001FFFFF
310
FE0003FFFFFFE0003FFE0003FFFFFFE0003FFF0003FFFFFFFFC000FFFFFFE000
310
70008000FFFFFFC0007FFE0000007FF8000003FFFF80007F0001FFFFFF8000F0
310
001FFFFFF8000FF8000001FFFE0000007FFFFFF0001FFFFFFC0003FFFFFFE000
310
1FFC0003FFFFFFE0001FFF0003FFFFFFFFC000FFFFFFC00070008000FFFFFF80
310
007FFE0000007FF0000003FFFF80007F0001FFFFFF0000F0001FFFFFF8000FF8
310
000001FFFE0000007FFFFFF0001FFFFFFC0007FFFFFFF0001FFC0007FFFFFFF0
310
001FFF0003FFFFFFFFC000FFFFFFC00070008001FFFFFF0000FFFE0000003FF0
310
000001FFFF80007F0001FFFFFF0000F8001FFFFFF0000FF8000001FFFE000000
310
7FFFFFF0001FFFFFFC0007FFFFFFF0001FFC0007FFFFFFF0001FFF0003FFFFFF
310
FFC001FFFFFF80007000FFFFFFFFFE0000FFFE0008003FF0008001FFFF80007F
310
FFFFFFFFFC0000FFFFFFFFFFE0000FF8000001FFFE0000007FFFFFF0001FFFFF
310
F8000FFFFFFFF8000FF8000FFFFFFFF8000FFF0003FFFFFFFFFFFFFFFFFF0000
310
7000FFFFFFFFFC0000FFFC0008003FF0008001FFFF80007FFFFFFFFFF80001FF
310
FFFFFFFF80000FF8000001FFFE0000007FFFFFF0001FFFFFF8000FFFFFFFF800
310
0FF8000FFFFFFFF8000FFF0003FFFFFFFFFFFFFFFFFE0000F000FFFFFFFFE000
310
00FFFC000C003FE000C001FFFF80007FFFFFFFFFC00001FFFFFFFFFE00001FF8
310
000001FFFE0000007FFFFFF0001FFFFFF8000FFFFFFFF8000FF8000FFFFFFFF8
310
000FFF0003FFFFFFFFFFFFFFFFF00000F000FFFFFFFE000001FFFC000C001FE0
310
00C000FFFF80007FFFFFFFFE000001FFFFFFFFE000001FF80FFFFFFFFFFFFFC0
310
7FFFFFF0001FFFFFF8000FFFFFFFF8000FF8000FFFFFFFF8000FFF0003FFFFFF
310
FFFFFFFFFF800000F000FFFFFFC0000001FFFC001C001FE001C000FFFF80007F
310
FFFFFF80000003FFFFFFF80000001FF80FFFFFFFFFFFFFC07FFFFFF0001FFFFF
310
F8001FFFFFFFFC000FF8001FFFFFFFFC000FFF0003FFFFFFFFFFFFFFF0000001
310
F000FFFFF800000001FFF8001C001FE001C000FFFF80007FFFFFF800000003FF
310
FFFF800000003FF80FFFFFFFFFFFFFC07FFFFFF0001FFFFFF8001FFFFFFFFC00
310
0FF8001FFFFFFFFC000FFF0003FFFFFFFFFFFFFE00000001F000FFFFC0000000
310
03FFF8001E001FC001E000FFFF80007FFFFF8000000007FFFFFC000000003FF8
310
0FFFFFFFFFFFFFC07FFFFFF0001FFFFFF8001FFFFFFFFC000FF8001FFFFFFFFC
310
000FFF0003FFFFFFFFFFFFE000000003F000FFFE0000000007FFF8001E000FC0
310
01E0007FFF80007FFFFE0000000007FFFFE0000000007FF80FFFFFFFFFFFFFC0
310
7FFFFFF0001FFFFFF0001FFFFFFFFC0007F0001FFFFFFFFC0007FF0003FFFFFF
310
FFFFFF0000000003F000FFF80000000007FFF8001E000FC003E0007FFF80007F
310
FFF0000000000FFFFF8000000000FFF80FFFFFFFFFFFFFC07FFFFFF0001FFFFF
310
F0001FFFFFFFFC0007F0001FFFFFFFFC0007FF0003FFFFFFFFFFFC0000000007
310
F000FFE0000000000FFFF0003E000FC003E0007FFF80007FFFC0000000001FFF
310
FE0000000001FFF80FFFFFFFFFFFFFC07FFFFFF0001FFFFFF0001FFFFFFFFC00
310
07F0001FFFFFFFFC0007FF0003FFFFFFFFFFF0000000000FF000FFC000000000
310
1FFFF0003F000F8003F0003FFF80007FFF80000000003FFFF80000000003FFF8
310
0FFFFFFFFFFFFFC07FFFFFF0001FFFFFF0001FFFFFFFFC0007F0001FFFFFFFFC
310
0007FF0003FFFFFFFFFFE0000000001FF000FF00000000007FFFF0003F000780
310
03F0003FFF80007FFF00000000007FFFF00000000007FFF80FFFFFFFFFFFFFC0
310
7FFFFFF0001FFFFFF0001FFFFFFFFC0007F0001FFFFFFFFC0007FF0003FFFFFF
310
FFFF80000000007FF000FE0000000000FFFFE0003F00078007F0003FFF80007F
310
FE0000000001FFFFE0000000001FFFF80FFFFFFFFFFFFFC07FFFFFF0001FFFFF
310
F0001FFFFFFFFC0007F0001FFFFFFFFC0007FF0003FFFFFFFFFF0000000000FF
310
F000FC0000000003FFFFE0007F00078007F0003FFF80007FFC0000000007FFFF
310
C0000000007FFFF80FFFFFFFFFFFFFC07FFFFFF0001FFFFFF8001FFFFFFFFC00
310
0FF8001FFFFFFFFC000FFF0003FFFFFFFFFE0000000003FFF000FC000000000F
310
FFFFE0007F80070007F8001FFF80007FF8000000001FFFFF8000000001FFFFF8
310
0FFFFFFFFFFFFFC07FFFFFF0001FFFFFF8001FFFFFFFFC000FF8001FFFFFFFFC
310
000FFF0003FFFFFFFFFC000000000FFFF000F8000000007FFFFFE0007F800700
310
07F8001FFF80007FF000000000FFFFFF800000000FFFFFF80FFFFFFFFFFFFFC0
310
7FFFFFF0001FFFFFF8000FFFFFFFF8000FF8000FFFFFFFF8000FFF0003FFFFFF
310
FFFC000000007FFFF000F800000007FFFFFFC0007F8003000FF8001FFF80007F
310
F000000007FFFFFF000000007FFFFFF80FFFFFFFFFFFFFC07FFFFFF0001FFFFF
310
F8000FFFFFFFF8000FF8000FFFFFFFF8000FFF0003FFFFFFFFF80000000FFFFF
310
F000F0000000FFFFFFFFC000FF8003000FF8001FFF80007FE0000000FFFFFFFF
310
0000000FFFFFFFF8000001FFFE0000007FFFFFF0001FFFFFF8000FFFFFFFF800
310
0FF8000FFFFFFFF8000FFF0003FFFFFFFFF8000000FFFFFFF000F000000FFFFF
310
FFFFC000FFC002000FF8000FFF80007FE000001FFFFFFFFE000001FFFFFFFFF8
310
000001FFFE0000007FFFFFF0001FFFFFF8000FFFFFFFF8000FF8000FFFFFFFF8
310
000FFF0003FFFFFFFFF000001FFFFFFFF000E00000FFFFFFFFFFC000FFC00200
310
0FFC000FFF80007FE00001FFFFFFFFFE00001FFFFFFFFFF8000001FFFE000000
310
7FFFFFF0001FFFFFFC000FFFFFFFF8001FFC000FFFFFFFF8001FFF0003FFFFFF
310
FFF00001FFFFFFFFF000E00007FFFFFFFFFF8000FFC000001FFC000FFF80007F
310
C0000FFFFFFFFFFE0000FFFFFFFFFFF8000001FFFE0000007FFFFFF0001FFFFF
310
FC0007FFFFFFF0001FFC0007FFFFFFF0001FFF0003FFFFFFFFF00007FFFFFFFF
310
F000E0001FFFFFFFFFFF8000FFC000001FFC000FFF80007FC0003FFFFFFFFFFE
310
0001FFFFFFFFFFF8000001FFFE0000007FFFFFF0001FFFFFFC0007FFFFFFF000
310
1FFC0007FFFFFFF0001FFF0003FFFFFFFFF0001FFFFFFFFFF000E0003FFFFF00
310
03FF8001FFE000001FFC0007FF80007FC0007FFFFF0007FC0003FFFFF0003FF8
310
000001FFFE0000007FFFFFF0001FFFFFFC0003FFFFFFE0001FFC0003FFFFFFE0
310
001FFF0003FFFFFFFFF0003FFFFFFFFFF000E0003FFFFF0001FF8001FFE00000
310
1FFE0007FF80007FC0007FFFFE0003FC0007FFFFE0003FF8000001FFFE000000
310
7FFFFFF0001FFFFFFE0003FFFFFFE0003FFE0003FFFFFFE0003FFF0003FFFFFF
310
FFF0003FFFFF8001F000E0003FFFFF0001FF0001FFE000001FFE0007FF80007F
310
C0007FFFFE0003FC0007FFFFE0003FF8000001FFFE0000007FFFFFF0001FFFFF
310
FE0001FFFFFFC0003FFE0001FFFFFFC0003FFF0003FFFFFFFFF0003FFFFF0001
310
F000E0003FFFFF0003FF0001FFE000003FFE0007FF80007FC0007FFFFE0003FC
310
0007FFFFE0003FF8000001FFFE0000007FFFFFF0001FFFFFFF0001FFFFFFC000
310
7FFF0001FFFFFFC0007FFF0003FFFFFFFFF0003FFFFF0001F000E0003FFFFE00
310
03FF0003FFF000003FFE0003FF80007FC0007FFFFC0003FE0007FFFFE0003FF8
310
000001FFFE0000007FFFFFF0001FFFFFFF0000FFFFFF80007FFF0000FFFFFF80
310
007FFF0003FFFFFFFFF0003FFFFF0001F000E0003FFFFE0003FF0003FFF00000
310
3FFF0003FF80007FC0007FFFFC0007FE0007FFFFC0003FF8000001FFFE000000
310
7FFFFFF0001FFFFFFF80007FFFFF0000FFFF80007FFFFF0000FFFF0003FFFFFF
310
FFF0003FFFFF0003F000E0003FFFFC0003FE0003FFF000003FFF0003FF80007F
310
E0003FFFF80007FE0003FFFFC0007FF8000001FFFE0000007FFFFFF0001FFFFF
310
FF80003FFFFE0000FFFF80003FFFFE0000FFFF0003FFFFFFFFF0001FFFFE0003
310
F000F0001FFFF80003FE0003FFF000007FFF0001FF80007FE0003FFFF00007FE
310
0001FFFF80007FF8000001FFFE0000007FFFFFF0001FFFFFFFC0000FFFF80001
310
FFFFC0000FFFF80001FFFF0003FFFFFFFFF0001FFFFC0003F000F0000FFFF000
310
07FE0007FFF800007FFF0001FF80007FE0001FFFE00007FF0000FFFE00007FF8
310
000001FFFE0000007FFFFFF0001FFFFFFFC00003FFE00001FFFFC00003FFE000
310
01FFFF0003FFFFFFFFF8000FFFF80003F000F00003FFC00007FC0007FFF80000
310
7FFF8001FF80007FF00007FF80000FFF00007FF80000FFF8000001FFFE000000
310
7F80000000000001FFE000003E000003FFFFE000003E000003FFFF0003FFFFFF
310
FFF80003FFE00007F000F800000000000FFC0007FFF800007FFF8001FF80007F
310
F000000000000FFF000000000000FFF8000001FFFE0000007F80000000000001
310
FFF0000000000007FFFFF0000000000007FFFF0003FFFFFFFFFC00007E000007
310
F000F800000000000FFC0007FFF80000FFFF8000FF80007FF800000000001FFF
310
800000000001FFF8000001FFFE0000007F80000000000001FFF800000000000F
310
FFFFF800000000000FFFFF0003FFFFFFFFFC00000000000FF000FC0000000000
310
1FFC0007FFFC0000FFFF8000FF80007FF800000000003FFFC00000000001FFF8
310
000001FFFE0000007F80000000000001FFF800000000000FFFFFF80000000000
310
0FFFFF0003FFFFFFFFFE00000000001FF000FE00000000003FF8000FFFFC0000
310
FFFF8000FF80007FFC00000000003FFFC00000000003FFF8000001FFFE000000
310
7F80000000000001FFFC00000000001FFFFFFC00000000001FFFFF0003FFFFFF
310
FFFF00000000001FF000FF00000000003FF8000FFFFC0000FFFFC000FF80007F
310
FE00000000007FFFE00000000007FFF8000001FFFE0000007F80000000000001
310
FFFE00000000003FFFFFFE00000000003FFFFF0003FFFFFFFFFF80000000003F
310
F000FF80000000007FF8000FFFFC0001FFFFC0007F80007FFF0000000000FFFF
310
F0000000000FFFF800000000000000007F80000000000001FFFF8000000000FF
310
FFFFFF8000000000FFFFFF0003FFFFFFFFFFC0000000007FF000FFC000000000
310
FFF8000FFFFE0001FFFFC0007F80007FFF8000000001FFFFF8000000001FFFF8
310
00000000000000007F80000000000001FFFFC000000001FFFFFFFFC000000001
310
FFFFFF0003FFFFFFFFFFE000000000FFF000FFE000000003FFF0001FFFFE0001
310
FFFFC0007F80007FFFC000000007FFFFFE000000003FFFF80000000000000000
310
7F80000000000001FFFFE000000003FFFFFFFFE000000003FFFFFF0003FFFFFF
310
FFFFF000000003FFF000FFF80000000FFFF0001FFFFE0001FFFFE0007F80007F
310
FFF00000000FFFFFFF00000000FFFFF800000000000000007F80000000000001
310
FFFFF80000000FFFFFFFFFF80000000FFFFFFF0003FFFFFFFFFFFC0000000FFF
310
F000FFFE0000003FFFF0001FFFFE0003FFFFE0003F80007FFFFC0000003FFFFF
310
FFC0000003FFFFF800000000000000007F80000000000001FFFFFE0000003FFF
310
FFFFFFFE0000003FFFFFFF0003FFFFFFFFFFFF0000003FFFF000FFFF800000FF
310
FFF0001FFFFF0003FFFFE0003F80007FFFFF000001FFFFFFFFF800001FFFFFF8
310
00000000000000007F80000000000001FFFFFFC00001FFFFFFFFFFFFC00001FF
310
FFFFFF0003FFFFFFFFFFFFC00000FFFFF000FFFFF8000FFFFFFFFFFFFFFFFFFF
310
FFFFFFFFFFFFFFFFFFFFF0001FFFFFFFFFFF0000FFFFFFF80000000000000000
310
7FFFFFFFFFFFFFFFFFFFFFFC001FFFFFFFFFFFFFFC001FFFFFFFFFFFFFFFFFFF
310
FFFFFFFC001FFFFFF000FFFFFFFFFFFFFFFFFFFFFFFFFFFFFFFFFFFFFFFFFFFF
310
FFFFFFFFFFFFFFFFFFFFFFFFFFFFFFFFFFFFFFFFFFFFFFFFFFFFFFFFFFFFFFFF
310
FFFFFFFFFFFFFFFFFFFFFFFFFFFFFFFFFFFFFFFFFFFFFFFFFFFFFFFFFFFFFFFF
310
F000FFFFFFFFFFFFFFFFFFFFFFFFFFFFFFFFFFFFFFFFFFFFFFFFFFFFFFFFFFFF
310
FFFFFFFFFFFFFFFFFFFFFFFFFFFFFFFFFFFFFFFFFFFFFFFFFFFFFFFFFFFFFFFF
310
FFFFFFFFFFFFFFFFFFFFFFFFFFFFFFFFFFFFFFFFFFFFFFFFF000FFFFFFFFFFFF
310
FFFFFFFFFFFFFFFFFFFFFFFFFFFFFFFFFFFFFFFFFFFFFFFFFFFFFFFFFFFFFFFF
310
FFFFFFFFFFFFFFFFFFFFFFFFFFFFFFFFFFFFFFFFFFFFFFFFFFFFFFFFFFFFFFFF
310
FFFFFFFFFFFFFFFFFFFFFFFFFFFFFFFFF000FFFFFFFFFFFFFFFFFFFFFFFFFFFF
310
FFFFFFFFFFFFFFFFFFFFFFFFFFFFFFFFFFFFFFFFFFFFFFFFFFFFFFFFFFFFFFFF
310
FFFFFFFFFFFFFFFFFFFFFFFFFFFFFFFFFFFFFFFFFFFFFFFFFFFFFFFFFFFFFFFF
310
FFFFFFFFFFFFFFFFF000FFFFFFFFFFFFFFFFFFFFFFFFFFFFFFFFFFFFFFFFFFFF
310
FFFFFFFFFFFFFFFFFFFFFFFFFFFFFFFFFFFFFFFFFFFFFFFFFFFFFFFFFFFFFFFF
310
FFFFFFFFFFFFFFFFFFFFFFFFFFFFFFFFFFFFFFFFFFFFFFFFFFFFFFFFFFFFFFFF
310
F000FFFFFFFFFFFFFFFFFFFFFFFFFFFFFFFFFFFFFFFFFFFFFFFFFFFFFFFFFFFF
310
FFFFFFFFFFFFFFFFFFFFFFFFFFFFFFFFFFFFFFFFFFFFFFFFFFFFFFFFFFFFFFFF
310
FFFFFFFFFFFFFFFFFFFFFFFFFFFFFFFFFFFFFFFFFFFFFFFFF000FFFFFFFFFFFF
310
FFFFFFFFFFFFFFFFFFFFFFFFFFFFFFFFFFFFFFFFFFFFFFFFFFFFFFFFFFFFFFFF
310
FFFFFFFFFFFFFFFFFFFFFFFFFFFFFFFFFFFFFFFFFFFFFFFFFFFFFFFFFFFFFFFF
310
FFFFFFFFFFFFFFFFFFFFFFFFFFFFFFFFF000FFFFFFFFFFFFFFFFFFFFFFFFFFFF
310
FFFFFFFFFFFFFFFFFFFFFFFFFFFFFFFFFFFFFFFFFFFFFFFFFFFFFFFFFFFFFFFF
310
FFFFFFFFFFFFFFFFFFFFFFFFFFFFFFFFFFFFFFFFFFFFFFFFFFFFFFFFFFFFFFFF
310
FFFFFFFFFFFFFFFFF000FFFFFFFFFFFFFFFFFFFFFFFFFFFFFFFFFFFFFFFFFFFF
310
FFFFFFFFFFFFFFFFFFFFFFFFFFFFFFFFFFFFFFFFFFFFFFFFFFFFFFFFFFFFFFFF
310
FFFFFFFFFFFFFFFFFFFFFFFFFFFFFFFFFFFFFFFFFFFFFFFFFFFFFFFFFFFFFFFF
310
F000FFFFFFFFFFFFFFFFFFFFFFFFFFFFFFFFFFFFFFFFFFFFFFFFFFFFFFFFFFFF
310
FFFFFFFFFFFFFFFFFFFFFFFFFFFFFFFFFFFFFFFFFFFFFFFFFFFFFFFFFFFFFFFF
310
FFFFFFFFFFFFFFFFFFFFFFFFFFFFFFFFFFFFFFFFFFFFFFFFF000FFFFFFFFFFFF
310
FFFFFFFFFFFFFFFFFFFFFFFFFFFFFFFFFFFFFFFFFFFFFFFFFFFFFFFFFFFFFFFF
310
FFFFFFFFFFFFFFFFFFFFFFFFFFFFFFFFFFFFFFFFFFFFFFFFFFFFFFFFFFFFFFFF
310
FFFFFFFFFFFFFFFFFFFFFFFFFFFFFFFFF000FFFFFFFFFFFFFFFFFFFFFFFFFFFF
310
FFFFFFFFFFFFFFFFFFFFFFFFFFFFFFFFFFFFFFFFFFFFFFFFFFFFFFFFFFFFFFFF
310
FFFFFFFFFFFFFFFFFFFFFFFFFFFFFFFFFFFFFFFFFFFFFFFFFFFFFFFFFFFFFFFF
310
FFFFFFFFFFFFFFFFF000FFFFFFFFFFFFFFFFFFFFFFFFFFFFFFFFFFFFFFFFFFFF
310
FFFFFFFFFFFFFFFFFFFFFFFFFFFFFFFFFFFFFFFFFFFFFFFFFFFFFFFFFFFFFFFF
310
FFFFFFFFFFFFFFFFFFFFFFFFFFFFFFFFFFFFFFFFFFFFFFFFFFFFFFFFFFFFFFFF
310
F000FFFFFFFFFFFFFFFFFFFFFFFFFFFFFFFFFFFFFFFFFFFFFFFFFFFFFFFFFFFF
310
FFFFFFFFFFFFFFFFFFFFFFFFFFFFFFFFFFFFFFFFFFFFFFFFFFFFFFFFFFFFFFFF
310
FFFFFFFFFFFFFFFFFFFFFFFFFFFFFFFFFFFFFFFFFFFFFFFFF000FFFFFFFFFFFF
310
FFFFFFFFFFFFFFFFFFFFFFFFFFFFFFFFFFFFFFFFFFFFFFFFFFFFFFFFFFFFFFFF
310
FFFFFFFFFFFFFFFFFFFFFFFFFFFFFFFFFFFFFFFFFFFFFFFFFFFFFFFFFFFFFFFF
310
FFFFFFFFFFFFFFFFFFFFFFFFFFFFFFFFF000FFFFFFFFFFFFFFFFFFFFFFFFFFFF
310
FFFFFFFFFFFFFFFFFFFFFFFFFFFFFFFFFFFFFFFFFFFFFFFFFFFFFFFFFFFFFFFF
310
FFFFFFFFFFFFFFFFFFFFFFFFFFFFFFFFFFFFFFFFFFFFFFFFFFFFFFFFFFFFFFFF
310
FFFFFFFFFFFFFFFFF000FFFFFFFFFFFFFFFFFFFFFFFFFFFFFFFFFFFFFFFFFFFF
310
FFFFFFFFFFFFFFFFFFFFFFFFFFFFFFFFFFFFFFFFFFFFFFFFFFFFFFFFFFFFFFFF
310
FFFFFFFFFFFFFFFFFFFFFFFFFFFFFFFFFFFFFFFFFFFFFFFFFFFFFFFFFFFFFFFF
310
F000FFFFFFFFFFFFFFFFFFFFFFFFFFFFFFFFFFFFFFFFFFFFFFFFFFFFFFFFFFFF
310
FFFFFFFFFFFFFFFFFFFFFFFFFFFFFFFFFFFFFFFFFFFFFFFFFFFFFFFFFFFFFFFF
310
FFFFFFFFFFFFFFFFFFFFFFFFFFFFFFFFFFFFFFFFFFFFFFFFF000FFFFFFFFFFFF
310
FFFFFFFFFFFFFFFFFFFFFFFFFFFFFFFFFFFFFFFFFFFFFFFFFFFFFFFFFFFFFFFF
310
FFFFFFFFFFFFFFFFFFFFFFFFFFFFFFFFFFFFFFFFFFFFFFFFFFFFFFFFFFFFFFFF
310
FFFFFFFFFFFFFFFFFFFFFFFFFFFFFFFFF000FFFFFFFFFFFFFFFFFFFFFFFFFFFF
310
FFFFFFFFFFFFFFFFFFFFFFFFFFFFFFFFFFFFFFFFFFFFFFFFFFFFFFFFFFFFFFFF
310
FFFFFFFFFFFFFFFFFFFFFFFFFFFFFFFFFFFFFFFFFFFFFFFFFFFFFFFFFFFFFFFF
310
FFFFFFFFFFFFFFFFF000FFFFFFFFFFFFFFFFFFFFFFFFFFFFFFFFFFFFFFFFFFFF
310
FFFFFFFFFFFFFFFFFFFFFFFFFFFFFFFFFFFFFFFFFFFFFFFFFFFFFFFFFFFFFFFF
310
FFFFFFFFFFFFFFFFFFFFFFFFFFFFFFFFFFFFFFFFFFFFFFFFFFFFFFFFFFFFFFFF
310
F000FFFFFFFFFFFFFFFFFFFFFFFFFFFFFFFFFFFFFFFFFFFFFFFFFFFFFFFFFFFF
310
FFFFFFFFFFFFFFFFFFFFFFFFFFFFFFFFFFFFFFFFFFFFFFFFFFFFFFFFFFFFFFFF
310
FFFFFFFFFFFFFFFFFFFFFFFFFFFFFFFFFFFFFFFFFFFFFFFFF000FFFFFFFFFFFF
310
FFFFFFFFFFFFFFFFFFFFFFFFFFFFFFFFFFFFFFFFFFFFFFFFFFFFFFFFFFFFFFFF
310
FFFFFFFFFFFFFFFFFFFFFFFFFFFFFFFFFFFFFFFFFFFFFFFFFFFFFFFFFFFFFFFF
310
FFFFFFFFFFFFFFFFFFFFFFFFFFFFFFFFF0000000000000000000000000000000
310
0000000000000000000000000000000000000000000000000000000000000000
310
0000000000000000000000000000000000000000000000000000000000000000
310
0000000000000000000000000000000000000000000000000000000000000000
310
0000000000000000000000000000000000000000000000000000000000000000
310
0000000000000000000000000000000000000000000000000000000000000000
310
0000000000000000000000000000000000000000000000000000000000000000
310
0000000000000000000000000000000000000000000000000000000000000000
310
0000000000000000000000000000000000000000000000000000000000000000
310
0000000000000000000000000000000000000000000000000000000000000000
310
0000000000000000000000000000000000000000000000000000000000000000
310
0000000000000000000000000000000000000000000000000000000000000000
310
0000000000000000000000000000000000000000000000000000000000000000
310
0000000000000000000000000000000000000000000000000000000000000000
310
0000000000000000000000000000000000000000000000000000000000000000
310
0000000000000000000000000000000000000000000000000000000000000000
  1
OLE
  0
ENDSEC
  0
SECTION
  2
OBJECTS
  0
DICTIONARY
  5
C
330
0
100
AcDbDictionary
281
     1
  3
ACAD_GROUP
350
D
  3
ACAD_LAYOUT
350
1A
  3
ACAD_MLINESTYLE
350
17
  3
ACAD_PLOTSETTINGS
350
19
  3
ACAD_PLOTSTYLENAME
350
E
  0
DICTIONARY
  5
D
102
{ACAD_REACTORS
330
C
102
}
330
C
100
AcDbDictionary
281
     1
  0
DICTIONARY
  5
1A
102
{ACAD_REACTORS
330
C
102
}
330
C
100
AcDbDictionary
281
     1
  3
Layout1
350
1E
  3
Layout2
350
26
  3
Model
350
22
  0
DICTIONARY
  5
17
102
{ACAD_REACTORS
330
C
102
}
330
C
100
AcDbDictionary
281
     1
  3
Standard
350
18
  0
DICTIONARY
  5
19
102
{ACAD_REACTORS
330
C
102
}
330
C
100
AcDbDictionary
281
     1
  0
ACDBDICTIONARYWDFLT
  5
E
102
{ACAD_REACTORS
330
C
102
}
330
C
100
AcDbDictionary
281
     1
  3
Normal
350
F
100
AcDbDictionaryWithDefault
340
F
  0
LAYOUT
  5
1E
102
{ACAD_REACTORS
330
1A
102
}
330
1A
100
AcDbPlotSettings
  1

  2
none_device
  4

  6

 40
0.0
 41
0.0
 42
0.0
 43
0.0
 44
0.0
 45
0.0
 46
0.0
 47
0.0
 48
0.0
 49
0.0
140
0.0
141
0.0
142
1.0
143
1.0
 70
   688
 72
     0
 73
     0
 74
     5
  7

 75
    16
147
1.0
148
0.0
149
0.0
100
AcDbLayout
  1
Layout1
 70
     1
 71
     1
 10
0.0
 20
0.0
 11
420.0
 21
297.0
 12
0.0
 22
0.0
 32
0.0
 14
1.0000000000E+20
 24
1.0000000000E+20
 34
1.0000000000E+20
 15
-1.0000000000E+20
 25
-1.0000000000E+20
 35
-1.0000000000E+20
146
0.0
 13
0.0
 23
0.0
 33
0.0
 16
1.0
 26
0.0
 36
0.0
 17
0.0
 27
1.0
 37
0.0
 76
     0
330
1B
  0
LAYOUT
  5
26
102
{ACAD_REACTORS
330
1A
102
}
330
1A
100
AcDbPlotSettings
  1

  2
none_device
  4

  6

 40
0.0
 41
0.0
 42
0.0
 43
0.0
 44
0.0
 45
0.0
 46
0.0
 47
0.0
 48
0.0
 49
0.0
140
0.0
141
0.0
142
1.0
143
1.0
 70
   688
 72
     0
 73
     0
 74
     5
  7

 75
    16
147
1.0
148
0.0
149
0.0
100
AcDbLayout
  1
Layout2
 70
     1
 71
     2
 10
0.0
 20
0.0
 11
0.0
 21
0.0
 12
0.0
 22
0.0
 32
0.0
 14
0.0
 24
0.0
 34
0.0
 15
0.0
 25
0.0
 35
0.0
146
0.0
 13
0.0
 23
0.0
 33
0.0
 16
1.0
 26
0.0
 36
0.0
 17
0.0
 27
1.0
 37
0.0
 76
     0
330
23
  0
LAYOUT
  5
22
102
{ACAD_REACTORS
330
1A
102
}
330
1A
100
AcDbPlotSettings
  1

  2
none_device
  4

  6

 40
0.0
 41
0.0
 42
0.0
 43
0.0
 44
0.0
 45
0.0
 46
0.0
 47
0.0
 48
0.0
 49
0.0
140
0.0
141
0.0
142
1.0
143
1.0
 70
  1712
 72
     0
 73
     0
 74
     0
  7

 75
     0
147
1.0
148
0.0
149
0.0
100
AcDbLayout
  1
Model
 70
     1
 71
     0
 10
0.0
 20
0.0
 11
297.0
 21
210.0
 12
0.0
 22
0.0
 32
0.0
 14
0.0
 24
0.0
 34
0.0
 15
297.0
 25
210.0
 35
0.0
146
0.0
 13
0.0
 23
0.0
 33
0.0
 16
1.0
 26
0.0
 36
0.0
 17
0.0
 27
1.0
 37
0.0
 76
     0
330
1F
331
29
  0
MLINESTYLE
  5
18
102
{ACAD_REACTORS
330
17
102
}
330
17
100
AcDbMlineStyle
  2
Standard
 70
     0
  3

 62
   256
 51
90.0
 52
90.0
 71
     2
 49
0.5
 62
   256
  6
BYLAYER
 49
-0.5
 62
   256
  6
BYLAYER
  0
ACDBPLACEHOLDER
  5
F
102
{ACAD_REACTORS
330
E
102
}
330
E
  0
ENDSEC
  0
EOF
