  0
SECTION
  2
HEADER
  9
$ACADVER
  1
AC1015
  9
$ACADMAINTVER
 70
     6
  9
$DWGCODEPAGE
  3
ANSI_1252
  9
$INSBASE
 10
0.0
 20
0.0
 30
0.0
  9
$EXTMIN
 10
0.0
 20
0.0
 30
0.0
  9
$EXTMAX
 10
297.0
 20
210.0
 30
0.0
  9
$LIMMIN
 10
0.0
 20
0.0
  9
$LIMMAX
 10
297.0
 20
210.0
  9
$ORTHOMODE
 70
     0
  9
$REGENMODE
 70
     1
  9
$FILLMODE
 70
     1
  9
$QTEXTMODE
 70
     0
  9
$MIRRTEXT
 70
     1
  9
$LTSCALE
 40
1.0
  9
$ATTMODE
 70
     1
  9
$TEXTSIZE
 40
2.0
  9
$TRACEWID
 40
1.0
  9
$TEXTSTYLE
  7
Standard
  9
$CLAYER
  8
0
  9
$CELTYPE
  6
ByLayer
  9
$CECOLOR
 62
   256
  9
$CELTSCALE
 40
1.0
  9
$DISPSILH
 70
     0
  9
$DIMSCALE
 40
1.0
  9
$DIMASZ
 40
3.0
  9
$DIMEXO
 40
0.0
  9
$DIMDLI
 40
3.75
  9
$DIMRND
 40
0.0
  9
$DIMDLE
 40
0.0
  9
$DIMEXE
 40
1.0
  9
$DIMTP
 40
0.0
  9
$DIMTM
 40
0.0
  9
$DIMTXT
 40
2.0
  9
$DIMCEN
 40
2.5
  9
$DIMTSZ
 40
0.0
  9
$DIMTOL
 70
     0
  9
$DIMLIM
 70
     0
  9
$DIMTIH
 70
     1
  9
$DIMTOH
 70
     1
  9
$DIMSE1
 70
     0
  9
$DIMSE2
 70
     0
  9
$DIMTAD
 70
     1
  9
$DIMZIN
 70
     0
  9
$DIMBLK
  1

  9
$DIMASO
 70
     1
  9
$DIMSHO
 70
     1
  9
$DIMPOST
  1

  9
$DIMAPOST
  1

  9
$DIMALT
 70
     0
  9
$DIMALTD
 70
     3
  9
$DIMALTF
 40
0.0393700787
  9
$DIMLFAC
 40
1.0
  9
$DIMTOFL
 70
     1
  9
$DIMTVP
 40
0.0
  9
$DIMTIX
 70
     0
  9
$DIMSOXD
 70
     0
  9
$DIMSAH
 70
     0
  9
$DIMBLK1
  1

  9
$DIMBLK2
  1

  9
$DIMSTYLE
  2
ISO-25
  9
$DIMCLRD
 70
     0
  9
$DIMCLRE
 70
     0
  9
$DIMCLRT
 70
     0
  9
$DIMTFAC
 40
1.0
  9
$DIMGAP
 40
1.524
  9
$DIMJUST
 70
     0
  9
$DIMSD1
 70
     0
  9
$DIMSD2
 70
     0
  9
$DIMTOLJ
 70
     0
  9
$DIMTZIN
 70
     0
  9
$DIMALTZ
 70
     0
  9
$DIMALTTZ
 70
     0
  9
$DIMUPT
 70
     0
  9
$DIMDEC
 70
     2
  9
$DIMTDEC
 70
     3
  9
$DIMALTU
 70
     2
  9
$DIMALTTD
 70
     3
  9
$DIMTXSTY
  7
Standard
  9
$DIMAUNIT
 70
     0
  9
$DIMADEC
 70
     2
  9
$DIMALTRND
 40
0.0
  9
$DIMAZIN
 70
     0
  9
$DIMDSEP
 70
    44
  9
$DIMATFIT
 70
     3
  9
$DIMFRAC
 70
     0
  9
$DIMLDRBLK
  1

  9
$DIMLUNIT
 70
     2
  9
$DIMLWD
 70
    -2
  9
$DIMLWE
 70
    -2
  9
$DIMTMOVE
 70
     0
  9
$LUNITS
 70
     2
  9
$LUPREC
 70
     2
  9
$SKETCHINC
 40
1.0
  9
$FILLETRAD
 40
10.0
  9
$AUNITS
 70
     0
  9
$AUPREC
 70
     2
  9
$MENU
  1
.
  9
$ELEVATION
 40
0.0
  9
$PELEVATION
 40
0.0
  9
$THICKNESS
 40
0.0
  9
$LIMCHECK
 70
     0
  9
$CHAMFERA
 40
10.0
  9
$CHAMFERB
 40
10.0
  9
$CHAMFERC
 40
20.0
  9
$CHAMFERD
 40
0.0
  9
$SKPOLY
 70
     0
  9
$TDCREATE
 40
2455988.710884479
  9
$TDUCREATE
 40
2455988.669217812
  9
$TDUPDATE
 40
2455988.710884491
  9
$TDUUPDATE
 40
2455988.669217824
  9
$TDINDWG
 40
0.0000000116
  9
$TDUSRTIMER
 40
0.0000000116
  9
$USRTIMER
 70
     1
  9
$ANGBASE
 50
0.0
  9
$ANGDIR
 70
     0
  9
$PDMODE
 70
     0
  9
$PDSIZE
 40
-1.0
  9
$PLINEWID
 40
0.0
  9
$SPLFRAME
 70
     0
  9
$SPLINETYPE
 70
     6
  9
$SPLINESEGS
 70
     8
  9
$HANDSEED
  5
175
  9
$SURFTAB1
 70
     6
  9
$SURFTAB2
 70
     6
  9
$SURFTYPE
 70
     6
  9
$SURFU
 70
     6
  9
$SURFV
 70
     6
  9
$UCSBASE
  2

  9
$UCSNAME
  2

  9
$UCSORG
 10
0.0
 20
0.0
 30
0.0
  9
$UCSXDIR
 10
1.0
 20
0.0
 30
0.0
  9
$UCSYDIR
 10
0.0
 20
1.0
 30
0.0
  9
$UCSORTHOREF
  2

  9
$UCSORTHOVIEW
 70
     0
  9
$UCSORGTOP
 10
0.0
 20
0.0
 30
0.0
  9
$UCSORGBOTTOM
 10
0.0
 20
0.0
 30
0.0
  9
$UCSORGLEFT
 10
0.0
 20
0.0
 30
0.0
  9
$UCSORGRIGHT
 10
0.0
 20
0.0
 30
0.0
  9
$UCSORGFRONT
 10
0.0
 20
0.0
 30
0.0
  9
$UCSORGBACK
 10
0.0
 20
0.0
 30
0.0
  9
$PUCSBASE
  2

  9
$PUCSNAME
  2

  9
$PUCSORG
 10
0.0
 20
0.0
 30
0.0
  9
$PUCSXDIR
 10
1.0
 20
0.0
 30
0.0
  9
$PUCSYDIR
 10
0.0
 20
1.0
 30
0.0
  9
$PUCSORTHOREF
  2

  9
$PUCSORTHOVIEW
 70
     0
  9
$PUCSORGTOP
 10
0.0
 20
0.0
 30
0.0
  9
$PUCSORGBOTTOM
 10
0.0
 20
0.0
 30
0.0
  9
$PUCSORGLEFT
 10
0.0
 20
0.0
 30
0.0
  9
$PUCSORGRIGHT
 10
0.0
 20
0.0
 30
0.0
  9
$PUCSORGFRONT
 10
0.0
 20
0.0
 30
0.0
  9
$PUCSORGBACK
 10
0.0
 20
0.0
 30
0.0
  9
$USERI1
 70
     0
  9
$USERI2
 70
     0
  9
$USERI3
 70
     0
  9
$USERI4
 70
     0
  9
$USERI5
 70
     0
  9
$USERR1
 40
0.0
  9
$USERR2
 40
0.0
  9
$USERR3
 40
0.0
  9
$USERR4
 40
0.0
  9
$USERR5
 40
0.0
  9
$WORLDVIEW
 70
     1
  9
$SHADEDGE
 70
     3
  9
$SHADEDIF
 70
    70
  9
$TILEMODE
 70
     1
  9
$MAXACTVP
 70
    64
  9
$PINSBASE
 10
0.0
 20
0.0
 30
0.0
  9
$PLIMCHECK
 70
     0
  9
$PEXTMIN
 10
1.0000000000E+20
 20
1.0000000000E+20
 30
1.0000000000E+20
  9
$PEXTMAX
 10
-1.0000000000E+20
 20
-1.0000000000E+20
 30
-1.0000000000E+20
  9
$PLIMMIN
 10
0.0
 20
0.0
  9
$PLIMMAX
 10
420.0
 20
297.0
  9
$UNITMODE
 70
     0
  9
$VISRETAIN
 70
     1
  9
$PLINEGEN
 70
     0
  9
$PSLTSCALE
 70
     1
  9
$TREEDEPTH
 70
  3020
  9
$CMLSTYLE
  2
Standard
  9
$CMLJUST
 70
     0
  9
$CMLSCALE
 40
20.0
  9
$PROXYGRAPHICS
 70
     1
  9
$MEASUREMENT
 70
     1
  9
$CELWEIGHT
370
    -1
  9
$ENDCAPS
280
     0
  9
$JOINSTYLE
280
     0
  9
$LWDISPLAY
290
     1
  9
$INSUNITS
 70
     4
  9
$HYPERLINKBASE
  1

  9
$STYLESHEET
  1

  9
$XEDIT
290
     1
  9
$CEPSNTYPE
380
     0
  9
$PSTYLEMODE
290
     1
  9
$FINGERPRINTGUID
  2
{7CF6EE71-1ED9-49D8-9409-7DDEDAB74ED4}
  9
$VERSIONGUID
  2
{FAEB1C32-E019-11D5-929B-00C0DF256EC4}
  9
$EXTNAMES
290
     1
  9
$PSVPSCALE
 40
0.0
  9
$OLESTARTUP
290
     0
  0
ENDSEC
  0
SECTION
  2
CLASSES
  0
CLASS
  1
ACDBDICTIONARYWDFLT
  2
AcDbDictionaryWithDefault
  3
ObjectDBX Classes
 90
        0
280
     0
281
     0
  0
CLASS
  1
VISUALSTYLE
  2
AcDbVisualStyle
  3
ObjectDBX Classes
 90
     4095
280
     0
281
     0
  0
CLASS
  1
MATERIAL
  2
AcDbMaterial
  3
ObjectDBX Classes
 90
     1153
280
     0
281
     0
  0
CLASS
  1
ACDBPLACEHOLDER
  2
AcDbPlaceHolder
  3
ObjectDBX Classes
 90
        0
280
     0
281
     0
  0
CLASS
  1
LAYOUT
  2
AcDbLayout
  3
ObjectDBX Classes
 90
        0
280
     0
281
     0
  0
ENDSEC
  0
SECTION
  2
TABLES
  0
TABLE
  2
VPORT
  5
8
330
0
100
AcDbSymbolTable
 70
     1
  0
VPORT
  5
29
330
8
100
AcDbSymbolTableRecord
100
AcDbViewportTableRecord
  2
*Active
 70
     0
 10
0.0
 20
0.0
 11
1.0
 21
1.0
 12
148.5
 22
105.0
 13
0.0
 23
0.0
 14
10.0
 24
10.0
 15
10.0
 25
10.0
 16
0.0
 26
0.0
 36
1.0
 17
0.0
 27
0.0
 37
0.0
 40
210.0
 41
1.4142857143
 42
50.0
 43
0.0
 44
0.0
 50
0.0
 51
0.0
 71
     0
 72
  2000
 73
     1
 74
     3
 75
     0
 76
     0
 77
     0
 78
     0
281
     0
 65
     1
110
0.0
120
0.0
130
0.0
111
1.0
121
0.0
131
0.0
112
0.0
122
1.0
132
0.0
 79
     0
146
0.0
  0
ENDTAB
  0
TABLE
  2
LTYPE
  5
5
330
0
100
AcDbSymbolTable
 70
     6
  0
LTYPE
  5
14
330
5
100
AcDbSymbolTableRecord
100
AcDbLinetypeTableRecord
  2
ByBlock
 70
     0
  3

 72
    65
 73
     0
 40
0.0
  0
LTYPE
  5
15
330
5
100
AcDbSymbolTableRecord
100
AcDbLinetypeTableRecord
  2
ByLayer
 70
     0
  3

 72
    65
 73
     0
 40
0.0
  0
LTYPE
  5
16
330
5
100
AcDbSymbolTableRecord
100
AcDbLinetypeTableRecord
  2
Continuous
 70
     0
  3
Solid line
 72
    65
 73
     0
 40
0.0
  0
LTYPE
  5
3F
330
5
100
AcDbSymbolTableRecord
100
AcDbLinetypeTableRecord
  2
HIDDEN
 70
     0
  3
Hidden __ __ __ __ __ __ __ __ __ __ __ __ __ __
 72
    65
 73
     2
 40
1.905
 49
1.27
 74
     0
 49
-0.635
 74
     0
  0
LTYPE
  5
40
330
5
100
AcDbSymbolTableRecord
100
AcDbLinetypeTableRecord
  2
PHANTOM
 70
     0
  3
Phantom ______  __  __  ______  __  __  ______
 72
    65
 73
     6
 40
12.7
 49
6.35
 74
     0
 49
-1.27
 74
     0
 49
1.27
 74
     0
 49
-1.27
 74
     0
 49
1.27
 74
     0
 49
-1.27
 74
     0
  0
LTYPE
  5
41
330
5
100
AcDbSymbolTableRecord
100
AcDbLinetypeTableRecord
  2
CENTER
 70
     0
  3
Center ____ _ ____ _ ____ _ ____ _ ____ _ ____
 72
    65
 73
     4
 40
10.16
 49
6.35
 74
     0
 49
-1.27
 74
     0
 49
1.27
 74
     0
 49
-1.27
 74
     0
  0
LTYPE
  5
42
330
5
100
AcDbSymbolTableRecord
100
AcDbLinetypeTableRecord
  2
CENTERX2
 70
     0
  3
Center (2x) ________  __  ________  __  _____
 72
    65
 73
     4
 40
20.32
 49
12.7
 74
     0
 49
-2.54
 74
     0
 49
2.54
 74
     0
 49
-2.54
 74
     0
  0
LTYPE
  5
43
330
5
100
AcDbSymbolTableRecord
100
AcDbLinetypeTableRecord
  2
DOT2
 70
     0
  3
Dot (.5x) ........................................
 72
    65
 73
     2
 40
0.635
 49
0.0
 74
     0
 49
-0.635
 74
     0
  0
ENDTAB
  0
TABLE
  2
LAYER
  5
2
330
0
100
AcDbSymbolTable
 70
     5
  0
LAYER
  5
10
330
2
100
AcDbSymbolTableRecord
100
AcDbLayerTableRecord
  2
0
 70
     0
 62
     7
  6
Continuous
370
    -3
390
F
  0
LAYER
  5
44
330
2
100
AcDbSymbolTableRecord
100
AcDbLayerTableRecord
  2
FORMAT
 70
     0
 62
     7
  6
Continuous
370
    -3
390
F
  0
LAYER
  5
45
330
2
100
AcDbSymbolTableRecord
100
AcDbLayerTableRecord
  2
VERMASSUNG
 70
     0
 62
     7
  6
Continuous
370
    -3
390
F
  0
LAYER
  5
46
330
2
100
AcDbSymbolTableRecord
100
AcDbLayerTableRecord
  2
KOPF_DÜNN
 70
     0
 62
     7
  6
Continuous
370
    -3
390
F
  0
LAYER
  5
47
330
2
100
AcDbSymbolTableRecord
100
AcDbLayerTableRecord
  2
KOPF_DICK
 70
     0
 62
     7
  6
Continuous
370
    15
390
F
  0
ENDTAB
  0
TABLE
  2
STYLE
  5
3
330
0
100
AcDbSymbolTable
 70
     2
  0
STYLE
  5
11
330
3
100
AcDbSymbolTableRecord
100
AcDbTextStyleTableRecord
  2
Standard
 70
     0
 40
0.0
 41
1.0
 50
0.0
 71
     0
 42
2.5
  3
txt
  4

  0
STYLE
  5
48
330
3
100
AcDbSymbolTableRecord
100
AcDbTextStyleTableRecord
  2
SLDTEXTSTYLE0
 70
     0
 40
0.0
 41
0.7
 50
0.0
 71
     0
 42
0.2
  3
TXT
  4

  0
ENDTAB
  0
TABLE
  2
VIEW
  5
6
330
0
100
AcDbSymbolTable
 70
     0
  0
ENDTAB
  0
TABLE
  2
UCS
  5
7
330
0
100
AcDbSymbolTable
 70
     0
  0
ENDTAB
  0
TABLE
  2
APPID
  5
9
330
0
100
AcDbSymbolTable
 70
     1
  0
APPID
  5
12
330
9
100
AcDbSymbolTableRecord
100
AcDbRegAppTableRecord
  2
ACAD
 70
     0
  0
ENDTAB
  0
TABLE
  2
DIMSTYLE
  5
A
330
0
100
AcDbSymbolTable
 70
     3
100
AcDbDimStyleTable
  0
DIMSTYLE
105
27
330
A
100
AcDbSymbolTableRecord
100
AcDbDimStyleTableRecord
  2
ISO-25
 70
     0
 41
2.5
 42
0.625
 43
3.75
 44
1.25
 73
     0
 74
     0
 77
     1
 78
     8
140
2.5
141
2.5
143
0.0393700787
147
0.625
171
     3
172
     1
178
     0
271
     2
272
     2
274
     3
278
    44
283
     0
284
     8
340
11
  0
DIMSTYLE
105
152
102
{ACAD_REACTORS
330
151
102
}
330
A
100
AcDbSymbolTableRecord
100
AcDbDimStyleTableRecord
  2
SLDDIMSTYLE0
 70
     0
 41
3.0
 44
0.0
 45
0.000000001
 73
     0
 74
     0
 77
     1
 78
    12
 79
     3
140
2.0
147
0.5
173
     1
178
     0
271
     2
272
     3
276
     2
284
    12
340
48
  0
DIMSTYLE
105
15D
102
{ACAD_REACTORS
330
15C
330
167
102
}
330
A
100
AcDbSymbolTableRecord
100
AcDbDimStyleTableRecord
  2
SLDDIMSTYLE1
 70
     0
 41
3.0
 44
0.0
 45
0.000000001
 73
     0
 74
     0
 77
     1
 78
    12
 79
     3
140
2.0
147
0.5
173
     1
178
     0
271
     2
272
     3
276
     2
284
    12
340
48
  0
ENDTAB
  0
TABLE
  2
BLOCK_RECORD
  5
1
330
0
100
AcDbSymbolTable
 70
     4
  0
BLOCK_RECORD
  5
1F
330
1
100
AcDbSymbolTableRecord
100
AcDbBlockTableRecord
  2
*Model_Space
340
22
  0
BLOCK_RECORD
  5
1B
330
1
100
AcDbSymbolTableRecord
100
AcDbBlockTableRecord
  2
*Paper_Space
340
1E
  0
BLOCK_RECORD
  5
23
330
1
100
AcDbSymbolTableRecord
100
AcDbBlockTableRecord
  2
*Paper_Space0
340
26
  0
BLOCK_RECORD
  5
153
330
1
100
AcDbSymbolTableRecord
100
AcDbBlockTableRecord
  2
*D1
340
0
  0
BLOCK_RECORD
  5
15E
330
1
100
AcDbSymbolTableRecord
100
AcDbBlockTableRecord
  2
*D2
340
0
  0
BLOCK_RECORD
  5
168
330
1
100
AcDbSymbolTableRecord
100
AcDbBlockTableRecord
  2
*D3
340
0
  0
ENDTAB
  0
ENDSEC
  0
SECTION
  2
BLOCKS
  0
BLOCK
  5
20
330
1F
100
AcDbEntity
  8
0
100
AcDbBlockBegin
  2
*Model_Space
 70
     0
 10
0.0
 20
0.0
 30
0.0
  3
*Model_Space
  1

  0
ENDBLK
  5
21
330
1F
100
AcDbEntity
  8
0
100
AcDbBlockEnd
  0
BLOCK
  5
1C
330
1B
100
AcDbEntity
 67
     1
  8
0
100
AcDbBlockBegin
  2
*Paper_Space
 70
     0
 10
0.0
 20
0.0
 30
0.0
  3
*Paper_Space
  1

  0
ENDBLK
  5
1D
330
1B
100
AcDbEntity
 67
     1
  8
0
100
AcDbBlockEnd
  0
BLOCK
  5
24
330
23
100
AcDbEntity
  8
0
100
AcDbBlockBegin
  2
*Paper_Space0
 70
     0
 10
0.0
 20
0.0
 30
0.0
  3
*Paper_Space0
  1

  0
ENDBLK
  5
25
330
23
100
AcDbEntity
  8
0
100
AcDbBlockEnd
  0
BLOCK
  5
154
330
153
100
AcDbEntity
  8
0
100
AcDbBlockBegin
  2
*D1
 70
     1
 10
0.0
 20
0.0
 30
0.0
  3
*D1
  1

  0
SOLID
  5
156
330
153
100
AcDbEntity
  8
VERMASSUNG
100
AcDbTrace
 10
212.0912033468
 20
120.7453882715
 30
0.0
 11
211.6412033468
 21
117.7453882715
 31
0.0
 12
212.5412033468
 22
117.7453882715
 32
0.0
 13
212.5412033468
 23
117.7453882715
 33
0.0
  0
LINE
  5
157
330
153
100
AcDbEntity
  8
VERMASSUNG
100
AcDbLine
 10
203.9724775149
 20
120.7453882715
 30
0.0
 11
213.0912033468
 21
120.7453882715
 31
0.0
  0
LINE
  5
158
330
153
100
AcDbEntity
  8
VERMASSUNG
100
AcDbLine
 10
212.0912033468
 20
120.7453882715
 30
0.0
 11
212.0912033468
 21
99.3508746645
 31
0.0
  0
MTEXT
  5
159
330
153
100
AcDbEntity
  8
VERMASSUNG
100
AcDbMText
 10
209.5130678673
 20
100.9383746645
 30
0.0
 40
2.0
 41
0.0
 71
     1
 72
     1
  1
%%c
  7
SLDTEXTSTYLE0
 11
-7.044195017643634E-15
 21
1.0
 31
0.0
 73
     1
 44
1.0
  0
MTEXT
  5
15A
330
153
100
AcDbEntity
  8
VERMASSUNG
100
AcDbMText
 10
209.5130679837
 20
104.546710235
 30
0.0
 40
2.0
 41
0.0
 71
     1
 72
     1
  1
21.75
  7
SLDTEXTSTYLE0
 11
-7.044195017643634E-15
 21
1.0
 31
0.0
 73
     1
 44
1.0
  0
MTEXT
  5
15B
330
153
100
AcDbEntity
  8
VERMASSUNG
100
AcDbMText
 10
209.5130679837
 20
110.3449652685
 30
0.0
 40
2.0
 41
0.0
 71
     1
 72
     1
  1
-27.1
  7
SLDTEXTSTYLE0
 11
-7.044195017643634E-15
 21
1.0
 31
0.0
 73
     1
 44
1.0
  0
ENDBLK
  5
155
330
153
100
AcDbEntity
  8
0
100
AcDbBlockEnd
  0
BLOCK
  5
15F
330
15E
100
AcDbEntity
  8
0
100
AcDbBlockBegin
  2
*D2
 70
     1
 10
0.0
 20
0.0
 30
0.0
  3
*D2
  1

  0
SOLID
  5
161
330
15E
100
AcDbEntity
  8
VERMASSUNG
100
AcDbTrace
 10
203.9724775149
 20
128.1898838038
 30
0.0
 11
200.9724775149
 21
128.6398838038
 31
0.0
 12
200.9724775149
 22
127.7398838038
 32
0.0
 13
200.9724775149
 23
127.7398838038
 33
0.0
  0
SOLID
  5
162
330
15E
100
AcDbEntity
  8
VERMASSUNG
100
AcDbTrace
 10
93.9724775149
 20
128.1898838038
 30
0.0
 11
96.9724775149
 21
127.7398838038
 31
0.0
 12
96.9724775149
 22
128.6398838038
 32
0.0
 13
96.9724775149
 23
128.6398838038
 33
0.0
  0
LINE
  5
163
330
15E
100
AcDbEntity
  8
VERMASSUNG
100
AcDbLine
 10
203.9724775149
 20
120.7453882715
 30
0.0
 11
203.9724775149
 21
129.1898838038
 31
0.0
  0
LINE
  5
164
330
15E
100
AcDbEntity
  8
VERMASSUNG
100
AcDbLine
 10
93.9724775149
 20
116.0703882715
 30
0.0
 11
93.9724775149
 21
129.1898838038
 31
0.0
  0
LINE
  5
165
330
15E
100
AcDbEntity
  8
VERMASSUNG
100
AcDbLine
 10
203.9724775149
 20
128.1898838038
 30
0.0
 11
93.9724775149
 21
128.1898838038
 31
0.0
  0
MTEXT
  5
166
330
15E
100
AcDbEntity
  8
VERMASSUNG
100
AcDbMText
 10
143.8656259566
 20
130.7680191669
 30
0.0
 40
2.0
 41
0.0
 71
     1
 72
     1
  1
110
  7
SLDTEXTSTYLE0
 73
     1
 44
1.0
  0
ENDBLK
  5
160
330
15E
100
AcDbEntity
  8
0
100
AcDbBlockEnd
  0
BLOCK
  5
169
330
168
100
AcDbEntity
  8
0
100
AcDbBlockBegin
  2
*D3
 70
     1
 10
0.0
 20
0.0
 30
0.0
  3
*D3
  1

  0
SOLID
  5
16B
330
168
100
AcDbEntity
  8
VERMASSUNG
100
AcDbTrace
 10
87.6644205363
 20
117.8703882715
 30
0.0
 11
87.2144205363
 21
114.8703882715
 31
0.0
 12
88.1144205363
 22
114.8703882715
 32
0.0
 13
88.1144205363
 23
114.8703882715
 33
0.0
  0
SOLID
  5
16C
330
168
100
AcDbEntity
  8
VERMASSUNG
100
AcDbTrace
 10
87.6644205363
 20
101.8703882715
 30
0.0
 11
88.1144205363
 21
104.8703882715
 31
0.0
 12
87.2144205363
 22
104.8703882715
 32
0.0
 13
87.2144205363
 23
104.8703882715
 33
0.0
  0
LINE
  5
16D
330
168
100
AcDbEntity
  8
VERMASSUNG
100
AcDbLine
 10
105.2724775149
 20
117.8703882715
 30
0.0
 11
86.6644205363
 21
117.8703882715
 31
0.0
  0
LINE
  5
16E
330
168
100
AcDbEntity
  8
VERMASSUNG
100
AcDbLine
 10
95.3474775149
 20
101.8703882715
 30
0.0
 11
86.6644205363
 21
101.8703882715
 31
0.0
  0
LINE
  5
16F
330
168
100
AcDbEntity
  8
VERMASSUNG
100
AcDbLine
 10
87.6644205363
 20
117.8703882715
 30
0.0
 11
87.6644205363
 21
101.8703882715
 31
0.0
  0
MTEXT
  5
170
330
168
100
AcDbEntity
  8
VERMASSUNG
100
AcDbMText
 10
85.0862850567
 20
106.9527950132
 30
0.0
 40
2.0
 41
0.0
 71
     1
 72
     1
  1
%%c
  7
SLDTEXTSTYLE0
 11
-7.044195017643634E-15
 21
1.0
 31
0.0
 73
     1
 44
1.0
  0
MTEXT
  5
171
330
168
100
AcDbEntity
  8
VERMASSUNG
100
AcDbMText
 10
85.0862851731
 20
110.5611305836
 30
0.0
 40
2.0
 41
0.0
 71
     1
 72
     1
  1
16
  7
SLDTEXTSTYLE0
 11
-7.044195017643634E-15
 21
1.0
 31
0.0
 73
     1
 44
1.0
  0
ENDBLK
  5
16A
330
168
100
AcDbEntity
  8
0
100
AcDbBlockEnd
  0
ENDSEC
  0
SECTION
  2
ENTITIES
  0
MTEXT
  5
49
330
1F
100
AcDbEntity
  8
KOPF_DÜNN
100
AcDbMText
 10
13.8892156294
 20
23.8442973028
 30
0.0
 40
3.0
 41
0.0
 71
     1
 72
     1
  1
272.022.009
  7
SLDTEXTSTYLE0
 73
     1
 44
1.0
  0
MTEXT
  5
4A
330
1F
100
AcDbEntity
  8
VERMASSUNG
100
AcDbMText
 10
13.9329988022
 20
28.8834360957
 30
0.0
 40
3.0
 41
0.0
 71
     1
 72
     1
  1
Ausdrehstahl_Boring bar ø21.75-27.1
  7
SLDTEXTSTYLE0
 73
     1
 44
1.0
  0
MTEXT
  5
4B
330
1F
100
AcDbEntity
  8
VERMASSUNG
100
AcDbMText
 10
98.8601118557
 20
13.8365368179
 30
0.0
 40
2.0
 41
0.0
 71
     1
 72
     1
  1
Datum: 04.08.2006
  7
SLDTEXTSTYLE0
 73
     1
 44
1.0
  0
MTEXT
  5
4C
330
1F
100
AcDbEntity
  8
VERMASSUNG
100
AcDbMText
 10
13.933048693
 20
18.0482802738
 30
0.0
 40
2.0
 41
0.0
 71
     1
 72
     1
  1
mit Innenkühlung_with spindel coolant feed
  7
SLDTEXTSTYLE0
 73
     1
 44
1.0
  0
MTEXT
  5
4D
330
1F
100
AcDbEntity
  8
VERMASSUNG
100
AcDbMText
 10
13.9808475933
 20
13.9090973692
 30
0.0
 40
2.0
 41
0.0
 71
     1
 72
     1
  1
Gewicht: 153g
  7
SLDTEXTSTYLE0
 73
     1
 44
1.0
  0
LINE
  5
4E
330
1F
100
AcDbEntity
  8
0
  6
Continuous
 62
     7
370
    15
100
AcDbLine
 10
199.9143470634
 20
113.956146302
 30
0.0
 11
199.9143470634
 21
113.7961403275
 31
0.0
  0
LINE
  5
4F
330
1F
100
AcDbEntity
  8
0
  6
Continuous
 62
     7
370
    15
100
AcDbLine
 10
196.5029708195
 20
115.0657380381
 30
0.0
 11
196.5029708195
 21
114.9648987947
 31
0.0
  0
LINE
  5
50
330
1F
100
AcDbEntity
  8
0
  6
Continuous
 62
     7
370
    15
100
AcDbLine
 10
201.7529708195
 20
114.9648987947
 30
0.0
 11
201.7529708195
 21
115.0657380381
 31
0.0
  0
LINE
  5
51
330
1F
100
AcDbEntity
  8
0
  6
Continuous
 62
     7
370
    15
100
AcDbLine
 10
198.0271093179
 20
114.2993825008
 30
0.0
 11
198.0271093179
 21
114.4843080823
 31
0.0
  0
LINE
  5
52
330
1F
100
AcDbEntity
  8
0
  6
Continuous
 62
     7
370
    15
100
AcDbLine
 10
200.2241378004
 20
115.7021842945
 30
0.0
 11
200.2241378004
 21
115.5173796603
 31
0.0
  0
LINE
  5
53
330
1F
100
AcDbEntity
  8
0
  6
Continuous
 62
     7
370
    15
100
AcDbLine
 10
198.3369000549
 20
116.0487310619
 30
0.0
 11
198.3369000549
 21
116.2368773703
 31
0.0
  0
LINE
  5
54
330
1F
100
AcDbEntity
  8
0
  6
Continuous
 62
     7
370
    15
100
AcDbLine
 10
194.6528609728
 20
109.7063619886
 30
0.0
 11
194.8474775149
 21
109.5990344783
 31
0.0
  0
LINE
  5
55
330
1F
100
AcDbEntity
  8
0
  6
Continuous
 62
     7
370
    15
100
AcDbLine
 10
203.6479206028
 20
111.1641207683
 30
0.0
 11
203.7670940571
 21
111.2298427774
 31
0.0
  0
LINE
  5
56
330
1F
100
AcDbEntity
  8
0
  6
Continuous
 62
     7
370
    15
100
AcDbLine
 10
176.2224775149
 20
118.1203882715
 30
0.0
 11
175.9724775149
 21
117.8703882715
 31
0.0
  0
LINE
  5
57
330
1F
100
AcDbEntity
  8
0
  6
Continuous
 62
     7
370
    15
100
AcDbLine
 10
175.9724775149
 20
101.8703882715
 30
0.0
 11
176.2224775149
 21
101.6203882715
 31
0.0
  0
LINE
  5
58
330
1F
100
AcDbEntity
  8
0
  6
Continuous
 62
     7
370
    15
100
AcDbLine
 10
176.2224775149
 20
101.6203882715
 30
0.0
 11
191.00036254
 21
101.6203882715
 31
0.0
  0
LINE
  5
59
330
1F
100
AcDbEntity
  8
0
  6
Continuous
 62
     7
370
    15
100
AcDbLine
 10
191.8003197032
 20
118.1203882715
 30
0.0
 11
176.2224775149
 21
118.1203882715
 31
0.0
  0
LINE
  5
5A
330
1F
100
AcDbEntity
  8
0
  6
Continuous
 62
     7
370
    15
100
AcDbLine
 10
95.3474775149
 20
101.8703882715
 30
0.0
 11
175.9724775149
 21
101.8703882715
 31
0.0
  0
LINE
  5
5B
330
1F
100
AcDbEntity
  8
0
  6
Continuous
 62
     7
370
    15
100
AcDbLine
 10
108.1724775149
 20
117.8703882715
 30
0.0
 11
105.2724775149
 21
117.8703882715
 31
0.0
  0
LINE
  5
5C
330
1F
100
AcDbEntity
  8
0
  6
Continuous
 62
     7
370
    15
100
AcDbLine
 10
122.6724775149
 20
117.8703882715
 30
0.0
 11
119.7724775149
 21
117.8703882715
 31
0.0
  0
LINE
  5
5D
330
1F
100
AcDbEntity
  8
0
  6
Continuous
 62
     7
370
    15
100
AcDbLine
 10
137.1724775149
 20
117.8703882715
 30
0.0
 11
134.2724775149
 21
117.8703882715
 31
0.0
  0
LINE
  5
5E
330
1F
100
AcDbEntity
  8
0
  6
Continuous
 62
     7
370
    15
100
AcDbLine
 10
151.6724775149
 20
117.8703882715
 30
0.0
 11
148.7724775149
 21
117.8703882715
 31
0.0
  0
LINE
  5
5F
330
1F
100
AcDbEntity
  8
0
  6
Continuous
 62
     7
370
    15
100
AcDbLine
 10
175.9724775149
 20
117.8703882715
 30
0.0
 11
163.2724775149
 21
117.8703882715
 31
0.0
  0
LINE
  5
60
330
1F
100
AcDbEntity
  8
0
  6
Continuous
 62
     7
370
    15
100
AcDbLine
 10
93.9724775149
 20
103.2453882715
 30
0.0
 11
95.3474775149
 21
101.8703882715
 31
0.0
  0
LINE
  5
61
330
1F
100
AcDbEntity
  8
0
  6
Continuous
 62
     7
370
    15
100
AcDbLine
 10
194.4474775149
 20
118.5408737802
 30
0.0
 11
192.3212642362
 21
118.1659650124
 31
0.0
  0
CIRCLE
  5
62
330
1F
100
AcDbEntity
  8
0
  6
Continuous
 62
     7
370
    15
100
AcDbCircle
 10
199.1193414755
 20
115.0844325465
 30
0.0
 40
2.617146416866658
  0
CIRCLE
  5
63
330
1F
100
AcDbEntity
  8
0
  6
Continuous
 62
     7
370
    15
100
AcDbCircle
 10
199.121433877
 20
115.1161142975
 30
0.0
 40
1.793743596811911
  0
ARC
  5
64
330
1F
100
AcDbEntity
  8
0
  6
Continuous
 62
     7
370
    15
100
AcDbCircle
 10
199.1413453191
 20
115.1111136686
 30
0.0
 40
1.662572533022429
100
AcDbArc
 50
291.073226601
 51
349.7770426809
  0
ARC
  5
65
330
1F
100
AcDbEntity
  8
0
  6
Continuous
 62
     7
370
    15
100
AcDbCircle
 10
199.1525495388
 20
115.1034082445
 30
0.0
 40
1.650188117180592
100
AcDbArc
 50
349.9712911947
 51
50.4978742147
  0
ARC
  5
66
330
1F
100
AcDbEntity
  8
0
  6
Continuous
 62
     7
370
    15
100
AcDbCircle
 10
199.1278511446
 20
115.0753417471
 30
0.0
 40
1.687555501373166
100
AcDbArc
 50
50.4569956012
 51
108.5582048832
  0
LINE
  5
67
330
1F
100
AcDbEntity
  8
0
  6
Continuous
 62
     7
370
    15
100
AcDbLine
 10
198.5109978276
 20
116.6461483294
 30
0.0
 11
198.5907564613
 21
116.6751457574
 31
0.0
  0
ARC
  5
68
330
1F
100
AcDbEntity
  8
0
  6
Continuous
 62
     7
370
    15
100
AcDbCircle
 10
199.1150074892
 20
115.0965014368
 30
0.0
 40
1.663199676245118
100
AcDbArc
 50
111.2944661806
 51
167.8232505698
  0
LINE
  5
69
330
1F
100
AcDbEntity
  8
0
  6
Continuous
 62
     7
370
    15
100
AcDbLine
 10
197.4686423874
 20
115.3304389335
 30
0.0
 11
197.4892271958
 21
115.4473170588
 31
0.0
  0
ARC
  5
6A
330
1F
100
AcDbEntity
  8
0
  6
Continuous
 62
     7
370
    15
100
AcDbCircle
 10
199.1030777385
 20
115.1048244605
 30
0.0
 40
1.649933576688957
100
AcDbArc
 50
172.1406626963
 51
228.3285027131
  0
LINE
  5
6B
330
1F
100
AcDbEntity
  8
0
  6
Continuous
 62
     7
370
    15
100
AcDbLine
 10
198.0978835842
 20
113.7961135916
 30
0.0
 11
198.0061048062
 21
113.8723751945
 31
0.0
  0
ARC
  5
6C
330
1F
100
AcDbEntity
  8
0
  6
Continuous
 62
     7
370
    15
100
AcDbCircle
 10
199.1280881445
 20
115.1332153387
 30
0.0
 40
1.687946242632232
100
AcDbArc
 50
232.3866179207
 51
288.3423218761
  0
LINE
  5
6D
330
1F
100
AcDbEntity
  8
0
  6
Continuous
 62
     7
370
    15
100
AcDbLine
 10
199.7391412534
 20
113.5597312372
 30
0.0
 11
199.6592741409
 21
113.5310280977
 31
0.0
  0
SPLINE
  5
6E
330
1F
100
AcDbEntity
  8
0
  6
Continuous
 62
     7
370
    15
100
AcDbSpline
210
0.0
220
0.0
230
1.0
 70
     8
 71
     3
 72
    11
 73
     7
 74
     0
 42
0.00000001
 43
0.00000001
 40
0.0
 40
0.0
 40
0.0
 40
0.0
 40
0.2657596322624909
 40
0.553002938595425
 40
0.8418208483438518
 40
0.9999999999999999
 40
0.9999999999999999
 40
0.9999999999999999
 40
0.9999999999999999
 10
198.0978835842409
 20
113.7961135916471
 30
0.0
 10
198.1295234163107
 20
113.7816330269287
 30
0.0
 10
198.1953608046389
 20
113.7515013068717
 30
0.0
 10
198.3069494848037
 20
113.7476325252154
 30
0.0
 10
198.3997911405781
 20
113.7722218204808
 30
0.0
 10
198.4476421333356
 20
113.8025956272887
 30
0.0
 10
198.4645751964221
 20
113.8133440267935
 30
0.0
  0
SPLINE
  5
6F
330
1F
100
AcDbEntity
  8
0
  6
Continuous
 62
     7
370
    15
100
AcDbSpline
210
0.0
220
0.0
230
1.0
 70
     8
 71
     3
 72
    12
 73
     8
 74
     0
 42
0.00000001
 43
0.00000001
 40
0.0
 40
0.0
 40
0.0
 40
0.0
 40
0.205790461420419
 40
0.4120344203360228
 40
0.6141302471427977
 40
0.8132633242113029
 40
0.9999999999999999
 40
0.9999999999999999
 40
0.9999999999999999
 40
0.9999999999999999
 10
198.4645751964221
 20
113.8133440267935
 30
0.0
 10
198.5206016792223
 20
113.8456852369475
 30
0.0
 10
198.6327781095812
 20
113.9104389271176
 30
0.0
 10
198.8326064692088
 20
113.9330754249288
 30
0.0
 10
199.025202464928
 20
113.8954961385143
 30
0.0
 10
199.1929267482675
 20
113.8048555241705
 30
0.0
 10
199.2690179729506
 20
113.7121048432364
 30
0.0
 10
199.3058413369195
 20
113.6672193508999
 30
0.0
  0
SPLINE
  5
70
330
1F
100
AcDbEntity
  8
0
  6
Continuous
 62
     7
370
    15
100
AcDbSpline
210
0.0
220
0.0
230
1.0
 70
     8
 71
     3
 72
    11
 73
     7
 74
     0
 42
0.00000001
 43
0.00000001
 40
0.0
 40
0.0
 40
0.0
 40
0.0
 40
0.2802371411013398
 40
0.5612869875923796
 40
0.8399906057824602
 40
0.9999999999999999
 40
0.9999999999999999
 40
0.9999999999999999
 40
0.9999999999999999
 10
199.3058413369195
 20
113.6672193508999
 30
0.0
 10
199.3296214788174
 20
113.6388105996891
 30
0.0
 10
199.377250726525
 20
113.5819107100965
 30
0.0
 10
199.4810086133105
 20
113.5322591759751
 30
0.0
 10
199.579078359944
 20
113.5176582621898
 30
0.0
 10
199.6378417071293
 20
113.5274549906277
 30
0.0
 10
199.6592741409058
 20
113.5310280977349
 30
0.0
  0
LINE
  5
71
330
1F
100
AcDbEntity
  8
0
  6
Continuous
 62
     7
370
    15
100
AcDbLine
 10
199.9184828792
 20
113.8886459115
 30
0.0
 11
199.9218347797
 21
113.9557868863
 31
0.0
  0
SPLINE
  5
72
330
1F
100
AcDbEntity
  8
0
  6
Continuous
 62
     7
370
    15
100
AcDbSpline
210
0.0
220
0.0
230
1.0
 70
     8
 71
     3
 72
    12
 73
     8
 74
     0
 42
0.00000001
 43
0.00000001
 40
0.0
 40
0.0
 40
0.0
 40
0.0
 40
0.0691664444109849
 40
0.3109104753445454
 40
0.5477866285250366
 40
0.7811853479600779
 40
1.0
 40
1.0
 40
1.0
 40
1.0
 10
199.9252256203787
 20
114.0237078611503
 30
0.0
 10
199.9255157978857
 20
114.0418584310322
 30
0.0
 10
199.9268201764382
 20
114.1234471603333
 30
0.0
 10
199.9945858245986
 20
114.2608299321551
 30
0.0
 10
200.1210592249917
 20
114.407546553129
 30
0.0
 10
200.2869126387961
 20
114.5071193290902
 30
0.0
 10
200.4081947218579
 20
114.5272801968109
 30
0.0
 10
200.466880064835
 20
114.5370355325293
 30
0.0
  0
SPLINE
  5
73
330
1F
100
AcDbEntity
  8
0
  6
Continuous
 62
     7
370
    15
100
AcDbSpline
210
0.0
220
0.0
230
1.0
 70
     8
 71
     3
 72
    11
 73
     7
 74
     0
 42
0.00000001
 43
0.00000001
 40
0.0
 40
0.0
 40
0.0
 40
0.0
 40
0.252478226533554
 40
0.5068902417933159
 40
0.7591786113117057
 40
1.0
 40
1.0
 40
1.0
 40
1.0
 10
200.466880064835
 20
114.5370355325293
 30
0.0
 10
200.504142403227
 20
114.5435748481552
 30
0.0
 10
200.578952480819
 20
114.5567035655274
 30
0.0
 10
200.6755698860915
 20
114.621465979256
 30
0.0
 10
200.7481195868636
 20
114.7100537043936
 30
0.0
 10
200.7678755371764
 20
114.781264445825
 30
0.0
 10
200.7775238057616
 20
114.8160418343387
 30
0.0
  0
SPLINE
  5
74
330
1F
100
AcDbEntity
  8
0
  6
Continuous
 62
     7
370
    15
100
AcDbSpline
210
0.0
220
0.0
230
1.0
 70
     8
 71
     3
 72
    11
 73
     7
 74
     0
 42
0.00000001
 43
0.00000001
 40
0.0
 40
0.0
 40
0.0
 40
0.0
 40
0.2423611237745264
 40
0.5166847928458101
 40
0.7923341374633323
 40
1.0
 40
1.0
 40
1.0
 40
1.0
 10
199.7391412534233
 20
113.559731237187
 30
0.0
 10
199.7672090906901
 20
113.5770760964888
 30
0.0
 10
199.8270463470038
 20
113.6140532522954
 30
0.0
 10
199.8903200472595
 20
113.7017264817577
 30
0.0
 10
199.9227363175784
 20
113.7983634388608
 30
0.0
 10
199.9197611977773
 20
113.8615126246589
 30
0.0
 10
199.918482879176
 20
113.8886459114729
 30
0.0
  0
SPLINE
  5
75
330
1F
100
AcDbEntity
  8
0
  6
Continuous
 62
     7
370
    15
100
AcDbSpline
210
0.0
220
0.0
230
1.0
 70
     8
 71
     3
 72
    11
 73
     7
 74
     0
 42
0.00000001
 43
0.00000001
 40
0.0
 40
0.0
 40
0.0
 40
0.0
 40
0.2928993220619752
 40
0.5864344719079687
 40
0.8775178868033122
 40
1.0
 40
1.0
 40
1.0
 40
1.0
 10
197.9645848312339
 20
114.2280304616649
 30
0.0
 10
197.9509319862401
 20
114.1938061843753
 30
0.0
 10
197.9235966585661
 20
114.1252833355089
 30
0.0
 10
197.930528246909
 20
114.0122566917534
 30
0.0
 10
197.9640216018015
 20
113.9269053548647
 30
0.0
 10
197.9964891687225
 20
113.8848348506397
 30
0.0
 10
198.0061048062375
 20
113.8723751945255
 30
0.0
  0
SPLINE
  5
76
330
1F
100
AcDbEntity
  8
0
  6
Continuous
 62
     7
370
    15
100
AcDbSpline
210
0.0
220
0.0
230
1.0
 70
     8
 71
     3
 72
    11
 73
     7
 74
     0
 42
0.00000001
 43
0.00000001
 40
0.0
 40
0.0
 40
0.0
 40
0.0
 40
0.2669010467950267
 40
0.5546143410792445
 40
0.8439070439786351
 40
1.0
 40
1.0
 40
1.0
 40
1.0
 10
197.4686423873898
 20
115.3304389335001
 30
0.0
 10
197.4720399621223
 20
115.2958864328579
 30
0.0
 10
197.479100045603
 20
115.2240871176944
 30
0.0
 10
197.533057000367
 20
115.1258031257194
 30
0.0
 10
197.6024168743828
 20
115.0580461153525
 30
0.0
 10
197.6537317190128
 20
115.0317579448278
 30
0.0
 10
197.6717158763956
 20
115.0225448097316
 30
0.0
  0
SPLINE
  5
77
330
1F
100
AcDbEntity
  8
0
  6
Continuous
 62
     7
370
    15
100
AcDbSpline
210
0.0
220
0.0
230
1.0
 70
     8
 71
     3
 72
    12
 73
     8
 74
     0
 42
0.00000001
 43
0.00000001
 40
0.0
 40
0.0
 40
0.0
 40
0.0
 40
0.2058401281338151
 40
0.4120619935510052
 40
0.6141387330969524
 40
0.8132772113524641
 40
1.0
 40
1.0
 40
1.0
 40
1.0
 10
197.6717158763956
 20
115.0225448097316
 30
0.0
 10
197.7292166488425
 20
114.9899787305605
 30
0.0
 10
197.8443248308087
 20
114.9247861773541
 30
0.0
 10
197.9659449341405
 20
114.763629097397
 30
0.0
 10
198.0292318954502
 20
114.5797644973268
 30
0.0
 10
198.0318080419321
 20
114.391774867829
 30
0.0
 10
197.9865066874954
 20
114.2814284070809
 30
0.0
 10
197.964584831234
 20
114.2280304616649
 30
0.0
  0
ARC
  5
78
330
1F
100
AcDbEntity
  8
0
  6
Continuous
 62
     7
370
    15
100
AcDbCircle
 10
199.1374884134
 20
114.978726533
 30
0.0
 40
2.61551895856365
100
AcDbArc
 50
259.7515729036
 51
359.6970869832
  0
ARC
  5
79
330
1F
100
AcDbEntity
  8
0
  6
Continuous
 62
     7
370
    15
100
AcDbCircle
 10
199.1111342684
 20
114.9759142471
 30
0.0
 40
2.608186710491099
100
AcDbArc
 50
180.2419845203
 51
260.3102926574
  0
ARC
  5
7A
330
1F
100
AcDbEntity
  8
0
  6
Continuous
 62
     7
370
    15
100
AcDbCircle
 10
197.4513104761
 20
114.2994540388
 30
0.0
 40
0.575798846265227
100
AcDbArc
 50
333.0512956478
 51
359.9928814986
  0
ARC
  5
7B
330
1F
100
AcDbEntity
  8
0
  6
Continuous
 62
     7
370
    15
100
AcDbCircle
 10
200.4500401756
 20
114.6769615876
 30
0.0
 40
0.3329893222381147
100
AcDbArc
 50
22.7666237022
 51
67.1155124946
  0
SPLINE
  5
7C
330
1F
100
AcDbEntity
  8
0
  6
Continuous
 62
     7
370
    15
100
AcDbSpline
210
0.0
220
0.0
230
1.0
 70
     8
 71
     3
 72
    12
 73
     8
 74
     0
 42
0.00000001
 43
0.00000001
 40
0.0
 40
0.0
 40
0.0
 40
0.0
 40
0.0091681771491573
 40
0.2573268097002668
 40
0.5054934687429588
 40
0.7549925359452857
 40
0.9999999999999999
 40
0.9999999999999999
 40
0.9999999999999999
 40
0.9999999999999999
 10
200.7775238057616
 20
114.8160418343387
 30
0.0
 10
200.7777567333647
 20
114.8173813428834
 30
0.0
 10
200.7842944033964
 20
114.8549778525017
 30
0.0
 10
200.7838876809311
 20
114.9314512692067
 30
0.0
 10
200.745922911936
 20
115.0357159389792
 30
0.0
 10
200.6764991036779
 20
115.1230975658641
 30
0.0
 10
200.6116575438514
 20
115.1565662057732
 30
0.0
 10
200.5795312419033
 20
115.1731485278887
 30
0.0
  0
ARC
  5
7D
330
1F
100
AcDbEntity
  8
0
  6
Continuous
 62
     7
370
    15
100
AcDbCircle
 10
197.8022991482
 20
115.1354803752
 30
0.0
 40
0.3341484840832455
100
AcDbArc
 50
93.0762585812
 51
164.1544392797
  0
SPLINE
  5
7E
330
1F
100
AcDbEntity
  8
0
  6
Continuous
 62
     7
370
    15
100
AcDbSpline
210
0.0
220
0.0
230
1.0
 70
     8
 71
     3
 72
    11
 73
     7
 74
     0
 42
0.00000001
 43
0.00000001
 40
0.0
 40
0.0
 40
0.0
 40
0.0
 40
0.2908641666076782
 40
0.5839560789892073
 40
0.874598805361769
 40
1.0
 40
1.0
 40
1.0
 40
1.0
 10
197.7843670534639
 20
115.6586578448815
 30
0.0
 10
197.747116924058
 20
115.6536986138662
 30
0.0
 10
197.6723313643125
 20
115.6437421687931
 30
0.0
 10
197.5754999436724
 20
115.5824413559405
 30
0.0
 10
197.5164039869585
 20
115.5112884758347
 30
0.0
 10
197.4955214664213
 20
115.4621331350382
 30
0.0
 10
197.4892271958163
 20
115.4473170587841
 30
0.0
  0
SPLINE
  5
7F
330
1F
100
AcDbEntity
  8
0
  6
Continuous
 62
     7
370
    15
100
AcDbSpline
210
0.0
220
0.0
230
1.0
 70
     8
 71
     3
 72
    12
 73
     8
 74
     0
 42
0.00000001
 43
0.00000001
 40
0.0
 40
0.0
 40
0.0
 40
0.0
 40
0.2058435564095163
 40
0.4120691620553177
 40
0.6141397217727101
 40
0.8132604579561334
 40
1.0
 40
1.0
 40
1.0
 40
1.0
 10
200.5795312419033
 20
115.1731485278887
 30
0.0
 10
200.5220298959742
 20
115.2029968992151
 30
0.0
 10
200.4069204806136
 20
115.2627490409665
 30
0.0
 10
200.2853007517745
 20
115.4195371943735
 30
0.0
 10
200.2220165627456
 20
115.603721517358
 30
0.0
 10
200.2194386372252
 20
115.7963240545298
 30
0.0
 10
200.2647389242884
 20
115.9117848754485
 30
0.0
 10
200.286662287065
 20
115.9676628759554
 30
0.0
  0
SPLINE
  5
80
330
1F
100
AcDbEntity
  8
0
  6
Continuous
 62
     7
370
    15
100
AcDbSpline
210
0.0
220
0.0
230
1.0
 70
     8
 71
     3
 72
    11
 73
     7
 74
     0
 42
0.00000001
 43
0.00000001
 40
0.0
 40
0.0
 40
0.0
 40
0.0
 40
0.2535086227483997
 40
0.5075674742604583
 40
0.7595056251924451
 40
1.0
 40
1.0
 40
1.0
 40
1.0
 10
200.286662287065
 20
115.9676628759554
 30
0.0
 10
200.300323325274
 20
116.0034898351506
 30
0.0
 10
200.327675052345
 20
116.0752215143024
 30
0.0
 10
200.3206232262528
 20
116.1915271118488
 30
0.0
 10
200.2802049693892
 20
116.2985242555822
 30
0.0
 10
200.2278262429531
 20
116.3510449448459
 30
0.0
 10
200.2022455016149
 20
116.3766950180411
 30
0.0
  0
SPLINE
  5
81
330
1F
100
AcDbEntity
  8
0
  6
Continuous
 62
     7
370
    15
100
AcDbSpline
210
0.0
220
0.0
230
1.0
 70
     8
 71
     3
 72
    11
 73
     7
 74
     0
 42
0.00000001
 43
0.00000001
 40
0.0
 40
0.0
 40
0.0
 40
0.0
 40
0.2431090893442795
 40
0.5182793655622118
 40
0.7947794085752011
 40
1.0
 40
1.0
 40
1.0
 40
1.0
 10
198.5109978276145
 20
116.6461483294398
 30
0.0
 10
198.4829961204853
 20
116.6284244318392
 30
0.0
 10
198.4232998456785
 20
116.590639211926
 30
0.0
 10
198.3603574643861
 20
116.5002070662795
 30
0.0
 10
198.3284539412298
 20
116.4004373098728
 30
0.0
 10
198.3314765570775
 20
116.3349472962404
 30
0.0
 10
198.332764239123
 20
116.3070475170546
 30
0.0
  0
SPLINE
  5
82
330
1F
100
AcDbEntity
  8
0
  6
Continuous
 62
     7
370
    15
100
AcDbSpline
210
0.0
220
0.0
230
1.0
 70
     8
 71
     3
 72
    12
 73
     8
 74
     0
 42
0.00000001
 43
0.00000001
 40
0.0
 40
0.0
 40
0.0
 40
0.0
 40
0.2058179564998881
 40
0.4120215045907235
 40
0.6140779969167756
 40
0.8132130006453858
 40
1.0
 40
1.0
 40
1.0
 40
1.0
 10
198.332764239123
 20
116.3070475170546
 30
0.0
 10
198.334223007727
 20
116.2407796407843
 30
0.0
 10
198.3371432778789
 20
116.1081197380661
 30
0.0
 10
198.2589387570027
 20
115.9221663370346
 30
0.0
 10
198.1296635490103
 20
115.7760508689438
 30
0.0
 10
197.9645324860939
 20
115.6809880446731
 30
0.0
 10
197.8431273670003
 20
115.6659407599332
 30
0.0
 10
197.7843670534639
 20
115.6586578448816
 30
0.0
  0
ARC
  5
83
330
1F
100
AcDbEntity
  8
0
  6
Continuous
 62
     7
370
    15
100
AcDbCircle
 10
200.8045481502
 20
115.5187606944
 30
0.0
 40
0.5804119929061975
100
AcDbArc
 50
180.1363298892
 51
247.1894825062
  0
ARC
  5
84
330
1F
100
AcDbEntity
  8
0
  6
Continuous
 62
     7
370
    15
100
AcDbCircle
 10
197.7541075583
 20
116.0511588188
 30
0.0
 40
0.5827975532176168
100
AcDbArc
 50
272.9761986277
 51
359.7613225698
  0
ARC
  5
85
330
1F
100
AcDbEntity
  8
0
  6
Continuous
 62
     7
370
    15
100
AcDbCircle
 10
199.9872984685
 20
115.9234592579
 30
0.0
 40
0.3359534994908379
100
AcDbArc
 50
17.5220694785
 51
126.6685862155
  0
SPLINE
  5
86
330
1F
100
AcDbEntity
  8
0
  6
Continuous
 62
     7
370
    15
100
AcDbSpline
210
0.0
220
0.0
230
1.0
 70
     8
 71
     3
 72
    12
 73
     8
 74
     0
 42
0.00000001
 43
0.00000001
 40
0.0
 40
0.0
 40
0.0
 40
0.0
 40
0.0091735205189792
 40
0.257677521552479
 40
0.5061895192299273
 40
0.7560357430218946
 40
1.0
 40
1.0
 40
1.0
 40
1.0
 10
200.2022455016149
 20
116.3766950180411
 30
0.0
 10
200.2011896420069
 20
116.3775618290801
 30
0.0
 10
200.171531313304
 20
116.401909920929
 30
0.0
 10
200.1041430162544
 20
116.4395382754544
 30
0.0
 10
199.9929625216423
 20
116.4583509493987
 30
0.0
 10
199.8805659590029
 20
116.441462276132
 30
0.0
 10
199.8177204084
 20
116.4018965649812
 30
0.0
 10
199.7866719218768
 20
116.3823493506173
 30
0.0
  0
SPLINE
  5
87
330
1F
100
AcDbEntity
  8
0
  6
Continuous
 62
     7
370
    15
100
AcDbSpline
210
0.0
220
0.0
230
1.0
 70
     8
 71
     3
 72
    12
 73
     8
 74
     0
 42
0.00000001
 43
0.00000001
 40
0.0
 40
0.0
 40
0.0
 40
0.0
 40
0.2057532787804067
 40
0.4119604088044412
 40
0.6140154573248972
 40
0.8131414684041051
 40
1.0
 40
1.0
 40
1.0
 40
1.0
 10
199.7866719218768
 20
116.3823493506173
 30
0.0
 10
199.7306539359814
 20
116.3472949353968
 30
0.0
 10
199.6184943995372
 20
116.277108781814
 30
0.0
 10
199.4186962681249
 20
116.2500910879732
 30
0.0
 10
199.2261238424317
 20
116.287964244286
 30
0.0
 10
199.0583705119414
 20
116.3831983247574
 30
0.0
 10
198.9822543087039
 20
116.4810858572282
 30
0.0
 10
198.9454057813794
 20
116.5284740776276
 30
0.0
  0
SPLINE
  5
88
330
1F
100
AcDbEntity
  8
0
  6
Continuous
 62
     7
370
    15
100
AcDbSpline
210
0.0
220
0.0
230
1.0
 70
     8
 71
     3
 72
    11
 73
     7
 74
     0
 42
0.00000001
 43
0.00000001
 40
0.0
 40
0.0
 40
0.0
 40
0.0
 40
0.2794069064555912
 40
0.5596240257155486
 40
0.8375007392219601
 40
1.0
 40
1.0
 40
1.0
 40
1.0
 10
198.9454057813794
 20
116.5284740776276
 30
0.0
 10
198.9216233879628
 20
116.5584735690731
 30
0.0
 10
198.8739896379106
 20
116.6185595432715
 30
0.0
 10
198.7702235782725
 20
116.6716637509849
 30
0.0
 10
198.6717328663632
 20
116.6882728195094
 30
0.0
 10
198.6125828777844
 20
116.6786840316254
 30
0.0
 10
198.5907564613123
 20
116.6751457574373
 30
0.0
  0
ARC
  5
89
330
1F
100
AcDbEntity
  8
0
  6
Continuous
 62
     7
370
    15
100
AcDbCircle
 10
198.6655320557
 20
116.1526367537
 30
0.0
 40
0.3362570872799557
100
AcDbArc
 50
33.6621293545
 51
158.108129679
  0
ARC
  5
8A
330
1F
100
AcDbEntity
  8
0
  6
Continuous
 62
     7
370
    15
100
AcDbCircle
 10
199.4356141239
 20
116.6666181541
 30
0.0
 40
0.5895959146237907
100
AcDbArc
 50
213.753978084
 51
306.5426511313
  0
LINE
  5
8B
330
1F
100
AcDbEntity
  8
0
  6
Continuous
 62
     7
370
    15
100
AcDbLine
 10
203.5724775149
 20
111.5437641952
 30
0.0
 11
203.641936786
 21
111.1858153774
 31
0.0
  0
LINE
  5
8C
330
1F
100
AcDbEntity
  8
0
  6
Continuous
 62
     7
370
    15
100
AcDbLine
 10
194.916936786
 20
109.6623345887
 30
0.0
 11
203.641936786
 21
111.1858153774
 31
0.0
  0
LINE
  5
8D
330
1F
100
AcDbEntity
  8
0
  6
Continuous
 62
     7
370
    15
100
AcDbLine
 10
194.8474775149
 20
110.0202834064
 30
0.0
 11
194.916936786
 21
109.6623345887
 31
0.0
  0
LINE
  5
8E
330
1F
100
AcDbEntity
  8
0
  6
Continuous
 62
     7
370
    15
100
AcDbLine
 10
195.140297838
 20
110.3423283401
 30
0.0
 11
194.8474775149
 21
110.0202834064
 31
0.0
  0
LINE
  5
8F
330
1F
100
AcDbEntity
  8
0
  6
Continuous
 62
     7
370
    15
100
AcDbLine
 10
195.140297838
 20
110.3423283401
 30
0.0
 11
195.2513084044
 21
110.3617120037
 31
0.0
  0
LINE
  5
90
330
1F
100
AcDbEntity
  8
0
  6
Continuous
 62
     7
370
    15
100
AcDbLine
 10
203.4228351481
 20
111.6560830538
 30
0.0
 11
203.5724775149
 21
111.5437641952
 31
0.0
  0
ARC
  5
91
330
1F
100
AcDbEntity
  8
0
  6
Continuous
 62
     7
370
    15
100
AcDbCircle
 10
194.8462823263
 20
110.0548381591
 30
0.0
 40
0.3988121179907685
100
AcDbArc
 50
180.3468266876
 51
280.2045134256
  0
LINE
  5
92
330
1F
100
AcDbEntity
  8
0
  6
Continuous
 62
     7
370
    15
100
AcDbLine
 10
194.8474775149
 20
110.0202834064
 30
0.0
 11
194.4474775149
 21
110.0524240574
 31
0.0
  0
LINE
  5
93
330
1F
100
AcDbEntity
  8
0
  6
Continuous
 62
     7
370
    15
100
AcDbLine
 10
194.8474775149
 20
109.5990344783
 30
0.0
 11
194.916936786
 21
109.6623345887
 31
0.0
  0
LINE
  5
94
330
1F
100
AcDbEntity
  8
0
  6
Continuous
 62
     7
370
    15
100
AcDbLine
 10
203.637672523
 20
111.1819292393
 30
0.0
 11
203.641936786
 21
111.1858153774
 31
0.0
  0
LINE
  5
95
330
1F
100
AcDbEntity
  8
0
  6
Continuous
 62
     7
370
    15
100
AcDbLine
 10
194.9349322217
 20
109.6031170022
 30
0.0
 11
196.7772475332
 21
109.9248054818
 31
0.0
  0
LINE
  5
96
330
1F
100
AcDbEntity
  8
0
  6
Continuous
 62
     7
370
    15
100
AcDbLine
 10
194.9349322217
 20
109.6031170022
 30
0.0
 11
194.8474775149
 21
109.5990344783
 31
0.0
  0
LINE
  5
97
330
1F
100
AcDbEntity
  8
0
  6
Continuous
 62
     7
370
    15
100
AcDbLine
 10
194.4474775149
 20
118.8258002552
 30
0.0
 11
194.4474775149
 21
110.0524240574
 31
0.0
  0
LINE
  5
98
330
1F
100
AcDbEntity
  8
0
  6
Continuous
 62
     7
370
    15
100
AcDbLine
 10
194.8474775149
 20
118.7936596043
 30
0.0
 11
194.4474775149
 21
118.8258002552
 31
0.0
  0
LINE
  5
99
330
1F
100
AcDbEntity
  8
0
  6
Continuous
 62
     7
370
    15
100
AcDbLine
 10
194.9971198818
 20
118.6572927304
 30
0.0
 11
194.8474775149
 21
118.7936596043
 31
0.0
  0
LINE
  5
9A
330
1F
100
AcDbEntity
  8
0
  6
Continuous
 62
     7
370
    15
100
AcDbLine
 10
195.140297838
 20
110.4539544102
 30
0.0
 11
195.140297838
 21
110.3423283401
 31
0.0
  0
SPLINE
  5
9B
330
1F
100
AcDbEntity
  8
0
  6
Continuous
 62
     7
370
    15
100
AcDbSpline
210
0.0
220
0.0
230
1.0
 70
     8
 71
     3
 72
     9
 73
     5
 74
     0
 42
0.00000001
 43
0.00000001
 40
0.0
 40
0.0
 40
0.0
 40
0.0
 40
0.0433040437557981
 40
1.0
 40
1.0
 40
1.0
 40
1.0
 10
195.6203617096156
 20
110.9165046891754
 30
0.0
 10
195.6193638860899
 20
110.9152027739138
 30
0.0
 10
195.596321614765
 20
110.8851382545593
 30
0.0
 10
195.5720437724056
 20
110.8541199140352
 30
0.0
 10
195.5488172587941
 20
110.8244447930864
 30
0.0
  0
SPLINE
  5
9C
330
1F
100
AcDbEntity
  8
0
  6
Continuous
 62
     7
370
    15
100
AcDbSpline
210
0.0
220
0.0
230
1.0
 70
     8
 71
     3
 72
    14
 73
    10
 74
     0
 42
0.00000001
 43
0.00000001
 40
0.0
 40
0.0
 40
0.0
 40
0.0
 40
0.3240421732223008
 40
0.4390834530314487
 40
0.5550339035678944
 40
0.632017577380653
 40
0.7091777148392747
 40
0.8120429782633984
 40
1.0
 40
1.0
 40
1.0
 40
1.0
 10
195.251308404426
 20
110.3617120037234
 30
0.0
 10
195.3289029216444
 20
110.3786524564871
 30
0.0
 10
195.4340450030523
 20
110.4016070997713
 30
0.0
 10
195.5517851401832
 20
110.4683343507011
 30
0.0
 10
195.6072506514453
 20
110.5202421167853
 30
0.0
 10
195.63620045646
 20
110.580020447803
 30
0.0
 10
195.6412870373516
 20
110.6429041136121
 30
0.0
 10
195.6167282894272
 20
110.7298694937647
 30
0.0
 10
195.5754774650247
 20
110.7873168484691
 30
0.0
 10
195.5488172587941
 20
110.8244447930864
 30
0.0
  0
SPLINE
  5
9D
330
1F
100
AcDbEntity
  8
0
  6
Continuous
 62
     7
370
    15
100
AcDbSpline
210
0.0
220
0.0
230
1.0
 70
     8
 71
     3
 72
    14
 73
    10
 74
     0
 42
0.00000001
 43
0.00000001
 40
0.0
 40
0.0
 40
0.0
 40
0.0
 40
0.1215026613259932
 40
0.2571357003576276
 40
0.3367055246585098
 40
0.4166989189530753
 40
0.5090573836363396
 40
0.6599898335533531
 40
0.9999999999999999
 40
0.9999999999999999
 40
0.9999999999999999
 40
0.9999999999999999
 10
195.5488172587941
 20
110.8244447930864
 30
0.0
 10
195.5222663116138
 20
110.8371982143892
 30
0.0
 10
195.4660766255292
 20
110.8641882398163
 30
0.0
 10
195.3849610744621
 20
110.8835546961224
 30
0.0
 10
195.3124488766409
 20
110.875719260922
 30
0.0
 10
195.2568641439044
 20
110.8469726873296
 30
0.0
 10
195.2043554672621
 20
110.7873185320849
 30
0.0
 10
195.1491996613899
 20
110.6554157351882
 30
0.0
 10
195.143940295789
 20
110.5363885749782
 30
0.0
 10
195.1402978379664
 20
110.4539544101579
 30
0.0
  0
ARC
  5
9E
330
1F
100
AcDbEntity
  8
0
  6
Continuous
 62
     7
370
    15
100
AcDbCircle
 10
196.6444895429
 20
112.1827392629
 30
0.0
 40
0.9970302948264107
100
AcDbArc
 50
180.3468266756
 51
280.2045134532
  0
LINE
  5
9F
330
1F
100
AcDbEntity
  8
0
  6
Continuous
 62
     7
370
    15
100
AcDbLine
 10
196.8211256926
 20
111.2014803371
 30
0.0
 11
201.9461256926
 21
112.0963616027
 31
0.0
  0
SPLINE
  5
A0
330
1F
100
AcDbEntity
  8
0
  6
Continuous
 62
     7
370
    15
100
AcDbSpline
210
0.0
220
0.0
230
1.0
 70
     8
 71
     3
 72
    11
 73
     7
 74
     0
 42
0.00000001
 43
0.00000001
 40
0.0
 40
0.0
 40
0.0
 40
0.0
 40
0.3360297136122416
 40
0.6712269697200561
 40
0.9920227009422985
 40
0.9999999999999999
 40
0.9999999999999999
 40
0.9999999999999999
 40
0.9999999999999999
 10
203.4228351481183
 20
111.6560830537758
 30
0.0
 10
203.3636835458402
 20
111.7017587485316
 30
0.0
 10
203.2455268795015
 20
111.7929969841366
 30
0.0
 10
203.0601376818786
 20
111.9507019299556
 30
0.0
 10
202.9459015497851
 20
112.0538453738925
 30
0.0
 10
202.8936703592527
 20
112.1026970846528
 30
0.0
 10
202.8924030295491
 20
112.1038824151706
 30
0.0
  0
LINE
  5
A1
330
1F
100
AcDbEntity
  8
0
  6
Continuous
 62
     7
370
    15
100
AcDbLine
 10
203.5724775149
 20
111.5437641952
 30
0.0
 11
203.9724775149
 21
111.5759048461
 31
0.0
  0
ARC
  5
A2
330
1F
100
AcDbEntity
  8
0
  6
Continuous
 62
     7
370
    15
100
AcDbCircle
 10
203.5752453596
 20
111.5774119943
 30
0.0
 40
0.3972350144356609
100
AcDbArc
 50
279.6651090934
 51
359.7826137323
  0
LINE
  5
A3
330
1F
100
AcDbEntity
  8
0
  6
Continuous
 62
     7
370
    15
100
AcDbLine
 10
201.5988293373
 20
119.2002247643
 30
0.0
 11
196.4738293373
 21
118.3053434987
 31
0.0
  0
ARC
  5
A4
330
1F
100
AcDbEntity
  8
0
  6
Continuous
 62
     7
370
    15
100
AcDbCircle
 10
201.7754654865
 20
118.2189658382
 30
0.0
 40
0.9970302950234898
100
AcDbArc
 50
0.3468266908
 51
100.2045134225
  0
LINE
  5
A5
330
1F
100
AcDbEntity
  8
0
  6
Continuous
 62
     7
370
    15
100
AcDbLine
 10
202.7724775149
 20
113.0715852744
 30
0.0
 11
202.7724775149
 21
118.2250010926
 31
0.0
  0
ARC
  5
A6
330
1F
100
AcDbEntity
  8
0
  6
Continuous
 62
     7
370
    15
100
AcDbCircle
 10
201.7793971267
 20
113.0753531449
 30
0.0
 40
0.9930875360895497
100
AcDbArc
 50
279.6651090934
 51
359.7826137289
  0
LINE
  5
A7
330
1F
100
AcDbEntity
  8
0
  6
Continuous
 62
     7
370
    15
100
AcDbLine
 10
195.6474775149
 20
117.330119827
 30
0.0
 11
195.6474775146
 21
112.1767040087
 31
0.0
  0
ARC
  5
A8
330
1F
100
AcDbEntity
  8
0
  6
Continuous
 62
     7
370
    15
100
AcDbCircle
 10
196.6405579032
 20
117.3263519565
 30
0.0
 40
0.9930875360896351
100
AcDbArc
 50
99.6651090934
 51
179.7826137289
  0
CIRCLE
  5
A9
330
1F
100
AcDbEntity
  8
0
  6
Continuous
 62
     7
370
    15
100
AcDbCircle
 10
199.1904747316
 20
115.1969730829
 30
0.0
 40
3.030499699755862
  0
LINE
  5
AA
330
1F
100
AcDbEntity
  8
0
  6
Continuous
 62
     7
370
    15
100
AcDbLine
 10
203.2796571919
 20
119.9480382805
 30
0.0
 11
203.5724775149
 21
120.3171403931
 31
0.0
  0
LINE
  5
AB
330
1F
100
AcDbEntity
  8
0
  6
Continuous
 62
     7
370
    15
100
AcDbLine
 10
203.5724775149
 20
120.3171403931
 30
0.0
 11
203.9724775149
 21
120.349281044
 31
0.0
  0
LINE
  5
AC
330
1F
100
AcDbEntity
  8
0
  6
Continuous
 62
     7
370
    15
100
AcDbLine
 10
203.9724775149
 20
111.5759048461
 30
0.0
 11
203.9724775149
 21
120.349281044
 31
0.0
  0
LINE
  5
AD
330
1F
100
AcDbEntity
  8
0
  6
Continuous
 62
     7
370
    15
100
AcDbLine
 10
203.2796571919
 20
119.8364122104
 30
0.0
 11
203.2796571919
 21
119.9480382805
 31
0.0
  0
ARC
  5
AE
330
1F
100
AcDbEntity
  8
0
  6
Continuous
 62
     7
370
    15
100
AcDbCircle
 10
199.2099775149
 20
115.0160092568
 30
0.0
 40
3.050730495801103
100
AcDbArc
 50
1.9689889695
 51
178.0310110244
  0
SPLINE
  5
AF
330
1F
100
AcDbEntity
  8
0
  6
Continuous
 62
     7
370
    15
100
AcDbSpline
210
0.0
220
0.0
230
1.0
 70
     8
 71
     3
 72
    11
 73
     7
 74
     0
 42
0.00000001
 43
0.00000001
 40
0.0
 40
0.0
 40
0.0
 40
0.0
 40
0.0079772990479748
 40
0.328773030273359
 40
0.6639702863844621
 40
1.0
 40
1.0
 40
1.0
 40
1.0
 10
195.5275520003214
 20
118.223584382599
 30
0.0
 10
195.5262846706202
 20
118.2245051856706
 30
0.0
 10
195.4740534801249
 20
118.2624547741631
 30
0.0
 10
195.3598173479831
 20
118.3491566047848
 30
0.0
 10
195.1744281503804
 20
118.4995438750091
 30
0.0
 10
195.0562714840389
 20
118.6046663208674
 30
0.0
 10
194.9971198817595
 20
118.6572927303674
 30
0.0
  0
SPLINE
  5
B0
330
1F
100
AcDbEntity
  8
0
  6
Continuous
 62
     7
370
    15
100
AcDbSpline
210
0.0
220
0.0
230
1.0
 70
     8
 71
     3
 72
    14
 73
    10
 74
     0
 42
0.00000001
 43
0.00000001
 40
0.0
 40
0.0
 40
0.0
 40
0.0
 40
0.1215026613286273
 40
0.257135700359854
 40
0.3367055246604961
 40
0.4166989189548203
 40
0.5090573836378051
 40
0.6599898335543568
 40
1.0
 40
1.0
 40
1.0
 40
1.0
 10
202.8711377710813
 20
119.4659218275064
 30
0.0
 10
202.8976887182624
 20
119.4531684062037
 30
0.0
 10
202.953878404348
 20
119.4261783807769
 30
0.0
 10
203.0349939554156
 20
119.4068119244703
 30
0.0
 10
203.1075061532368
 20
119.4146473596708
 30
0.0
 10
203.1630908859734
 20
119.4433939332631
 30
0.0
 10
203.2155995626157
 20
119.5030480885078
 30
0.0
 10
203.2707553684878
 20
119.6349508854046
 30
0.0
 10
203.2760147340888
 20
119.7539780456145
 30
0.0
 10
203.2796571919113
 20
119.8364122104349
 30
0.0
  0
SPLINE
  5
B1
330
1F
100
AcDbEntity
  8
0
  6
Continuous
 62
     7
370
    15
100
AcDbSpline
210
0.0
220
0.0
230
1.0
 70
     8
 71
     3
 72
     9
 73
     5
 74
     0
 42
0.00000001
 43
0.00000001
 40
0.0
 40
0.0
 40
0.0
 40
0.0
 40
0.9566959562428224
 40
1.0
 40
1.0
 40
1.0
 40
1.0
 10
202.8711377710813
 20
119.4659218275064
 30
0.0
 10
202.8479112574707
 20
119.4407751515606
 30
0.0
 10
202.8236334151122
 20
119.4144902323219
 30
0.0
 10
202.8005911437878
 20
119.3901678238896
 30
0.0
 10
202.7995933202621
 20
119.3891145652506
 30
0.0
  0
LINE
  5
B2
330
1F
100
AcDbEntity
  8
0
  6
Continuous
 62
     7
370
    15
100
AcDbLine
 10
194.8474775149
 20
118.7936596043
 30
0.0
 11
194.7780182439
 21
119.2158897239
 31
0.0
  0
LINE
  5
B3
330
1F
100
AcDbEntity
  8
0
  6
Continuous
 62
     7
370
    15
100
AcDbLine
 10
203.5030182439
 20
120.7393705127
 30
0.0
 11
194.7780182439
 21
119.2158897239
 31
0.0
  0
LINE
  5
B4
330
1F
100
AcDbEntity
  8
0
  6
Continuous
 62
     7
370
    15
100
AcDbLine
 10
203.5724775149
 20
120.3171403931
 30
0.0
 11
203.5030182439
 21
120.7393705127
 31
0.0
  0
LINE
  5
B5
330
1F
100
AcDbEntity
  8
0
  6
Continuous
 62
     7
370
    15
100
AcDbLine
 10
203.2796571919
 20
119.9480382805
 30
0.0
 11
203.1686466255
 21
119.9286546169
 31
0.0
  0
ARC
  5
B6
330
1F
100
AcDbEntity
  8
0
  6
Continuous
 62
     7
370
    15
100
AcDbCircle
 10
194.8447096702
 20
118.824293107
 30
0.0
 40
0.3972350144476026
100
AcDbArc
 50
99.6651090949
 51
179.7826137274
  0
SPLINE
  5
B7
330
1F
100
AcDbEntity
  8
0
  6
Continuous
 62
     7
370
    15
100
AcDbSpline
210
0.0
220
0.0
230
1.0
 70
     8
 71
     3
 72
    14
 73
    10
 74
     0
 42
0.00000001
 43
0.00000001
 40
0.0
 40
0.0
 40
0.0
 40
0.0
 40
0.3240421732228622
 40
0.4390834530321931
 40
0.5550339035688532
 40
0.632017577381742
 40
0.7091777148404963
 40
0.8120429782647969
 40
1.0
 40
1.0
 40
1.0
 40
1.0
 10
203.1686466254518
 20
119.9286546168693
 30
0.0
 10
203.0910521082334
 20
119.9117141641057
 30
0.0
 10
202.9859100268255
 20
119.8887595208214
 30
0.0
 10
202.8681698896945
 20
119.8220322698916
 30
0.0
 10
202.8127043784325
 20
119.7701245038075
 30
0.0
 10
202.7837545734178
 20
119.7103461727897
 30
0.0
 10
202.7786679925261
 20
119.6474625069806
 30
0.0
 10
202.8032267404507
 20
119.5604971268287
 30
0.0
 10
202.8444775648517
 20
119.5030497721238
 30
0.0
 10
202.8711377710813
 20
119.4659218275064
 30
0.0
  0
ARC
  5
B8
330
1F
100
AcDbEntity
  8
0
  6
Continuous
 62
     7
370
    15
100
AcDbCircle
 10
203.5736727035
 20
120.3468669422
 30
0.0
 40
0.398812118027959
100
AcDbArc
 50
0.3468266939
 51
100.2045134193
  0
LINE
  5
B9
330
1F
100
AcDbEntity
  8
0
  6
Continuous
 62
     7
370
    15
100
AcDbLine
 10
176.2224775149
 20
101.6203882715
 30
0.0
 11
176.2224775149
 21
118.1203882715
 31
0.0
  0
LINE
  5
BA
330
1F
100
AcDbEntity
  8
0
  6
Continuous
 62
     7
370
    15
100
AcDbLine
 10
175.9724775149
 20
101.8703882715
 30
0.0
 11
175.9724775149
 21
117.8703882715
 31
0.0
  0
LINE
  5
BB
330
1F
100
AcDbEntity
  8
0
  6
Continuous
 62
     7
370
    15
100
AcDbLine
 10
189.68315074
 20
118.1186939603
 30
0.0
 11
191.8003197032
 21
118.1186939603
 31
0.0
  0
SPLINE
  5
BC
330
1F
100
AcDbEntity
  8
0
  6
Continuous
 62
     7
370
    15
100
AcDbSpline
210
0.0
220
0.0
230
1.0
 70
     8
 71
     3
 72
    54
 73
    50
 74
     0
 42
0.00000001
 43
0.00000001
 40
0.0
 40
0.0
 40
0.0
 40
0.0
 40
0.1250000000000008
 40
0.1250000000000008
 40
0.1875000000000017
 40
0.1875000000000017
 40
0.2187500000000022
 40
0.2187500000000022
 40
0.2500000000000026
 40
0.2500000000000026
 40
0.3125000000000026
 40
0.3125000000000026
 40
0.3750000000000026
 40
0.3750000000000026
 40
0.4062500000000025
 40
0.4062500000000025
 40
0.4375000000000025
 40
0.4375000000000025
 40
0.4687500000000024
 40
0.4687500000000024
 40
0.5000000000000024
 40
0.5000000000000024
 40
0.5312500000000023
 40
0.5312500000000023
 40
0.5625000000000022
 40
0.5625000000000022
 40
0.593750000000002
 40
0.593750000000002
 40
0.609375000000002
 40
0.609375000000002
 40
0.625000000000002
 40
0.625000000000002
 40
0.640625000000002
 40
0.640625000000002
 40
0.6562500000000019
 40
0.6562500000000019
 40
0.6875000000000018
 40
0.6875000000000018
 40
0.7187500000000017
 40
0.7187500000000017
 40
0.7500000000000014
 40
0.7500000000000014
 40
0.8125000000000011
 40
0.8125000000000011
 40
0.8750000000000008
 40
0.8750000000000008
 40
0.9375000000000003
 40
0.9375000000000003
 40
1.0
 40
1.0
 40
1.0
 40
1.0
 10
191.800319703164
 20
104.183795609174
 30
0.0
 10
190.6352592413796
 20
104.6972026337166
 30
0.0
 10
189.5251972845226
 20
105.3131661873505
 30
0.0
 10
187.9056252713196
 20
106.3758324547809
 30
0.0
 10
187.3733030521165
 20
106.7529781332502
 30
0.0
 10
186.5815736938707
 20
107.3506864514251
 30
0.0
 10
186.3187929280367
 20
107.555257400885
 30
0.0
 10
185.7947903274338
 20
107.9747836188953
 30
0.0
 10
185.5329162739194
 20
108.1903072022839
 30
0.0
 10
184.7570488445703
 20
108.8450624706395
 30
0.0
 10
184.2507452350987
 20
109.2937952151732
 30
0.0
 10
183.2570967984915
 20
110.212639739321
 30
0.0
 10
182.7696650744418
 20
110.6826546989562
 30
0.0
 10
182.0539352576391
 20
111.4051270803038
 30
0.0
 10
181.8176601687142
 20
111.6492828068376
 30
0.0
 10
181.357801336322
 20
112.1375917425844
 30
0.0
 10
181.1334246737945
 20
112.3825032464102
 30
0.0
 10
180.6978718291425
 20
112.8746739401704
 30
0.0
 10
180.4866590133624
 20
113.1219165583218
 30
0.0
 10
180.0812576215934
 20
113.6203897815647
 30
0.0
 10
179.8869598184172
 20
113.8718833645617
 30
0.0
 10
179.5304235116948
 20
114.370266506684
 30
0.0
 10
179.3669683731482
 20
114.618374048275
 30
0.0
 10
179.082511706307
 20
115.114662675146
 30
0.0
 10
178.9627660622324
 20
115.3613461139541
 30
0.0
 10
178.7958005263958
 20
115.8374381328155
 30
0.0
 10
178.7479436093445
 20
116.071832922305
 30
0.0
 10
178.7531953157445
 20
116.3936077392846
 30
0.0
 10
178.7674027570943
 20
116.4965388671048
 30
0.0
 10
178.8234906907665
 20
116.6937613743598
 30
0.0
 10
178.8651176403654
 20
116.7864118434974
 30
0.0
 10
178.9730560533818
 20
116.9575731693713
 30
0.0
 10
179.039532715385
 20
117.0367003105253
 30
0.0
 10
179.1964796276492
 20
117.1835117076865
 30
0.0
 10
179.2865643784973
 20
117.250596701916
 30
0.0
 10
179.5804547931692
 20
117.4317264164504
 30
0.0
 10
179.8112399542246
 20
117.528674853095
 30
0.0
 10
180.3187296515132
 20
117.6893379280582
 30
0.0
 10
180.5899422010182
 20
117.7516184054379
 30
0.0
 10
181.1571842380179
 20
117.8544376046918
 30
0.0
 10
181.4533441550368
 20
117.8947861956591
 30
0.0
 10
182.371312089959
 20
117.9943111092501
 30
0.0
 10
183.0040213367994
 20
118.031082304884
 30
0.0
 10
184.2947796251618
 20
118.0816363414976
 30
0.0
 10
184.9535062500474
 20
118.0946409863667
 30
0.0
 10
186.2924111990613
 20
118.1111791929793
 30
0.0
 10
186.9679546591784
 20
118.1144789157025
 30
0.0
 10
188.3216073652414
 20
118.1182649524418
 30
0.0
 10
189.0011087692244
 20
118.1186939602767
 30
0.0
 10
189.6831507400244
 20
118.1186939602767
 30
0.0
  0
ELLIPSE
  5
BD
330
1F
100
AcDbEntity
  8
0
  6
Continuous
 62
     7
370
    15
100
AcDbEllipse
 10
205.4326751409
 20
109.8703882715
 30
0.0
 11
14.43232259794248
 21
8.249996544840611
 31
0.0
210
0.0
220
0.0
230
0.9999999999999998
 40
0.0005232068
 41
3.142507937254961
 42
3.475804160146331
  0
ELLIPSE
  5
BE
330
1F
100
AcDbEntity
  8
0
  6
Continuous
 62
     7
370
    15
100
AcDbEllipse
 10
201.733053282
 20
107.7388686298
 30
0.0
 11
10.79829105393375
 21
6.172271035568642
 31
0.0
210
0.0
220
0.0
230
1.0
 40
0.0010222726
 41
1.669644772238346
 42
2.381715682570285
  0
SPLINE
  5
BF
330
1F
100
AcDbEntity
  8
0
  6
Continuous
 62
     7
370
    15
100
AcDbSpline
210
0.0
220
0.0
230
1.0
 70
     8
 71
     3
 72
     8
 73
     4
 74
     0
 42
0.00000001
 43
0.00000001
 40
0.0
 40
0.0
 40
0.0
 40
0.0
 40
1.0
 40
1.0
 40
1.0
 40
1.0
 10
192.9134779666844
 20
103.6191644337044
 30
0.0
 10
193.2398059362581
 20
103.4953519239549
 30
0.0
 10
193.5687931078353
 20
103.3797858122098
 30
0.0
 10
193.9008015420318
 20
103.272065083362
 30
0.0
  0
SPLINE
  5
C0
330
1F
100
AcDbEntity
  8
0
  6
Continuous
 62
     7
370
    15
100
AcDbSpline
210
0.0
220
0.0
230
1.0
 70
     8
 71
     3
 72
     8
 73
     4
 74
     0
 42
0.00000001
 43
0.00000001
 40
0.0
 40
0.0
 40
0.0
 40
0.0
 40
1.0
 40
1.0
 40
1.0
 40
1.0
 10
192.9134779666845
 20
103.6191644337044
 30
0.0
 10
192.7153948267015
 20
103.7201830761669
 30
0.0
 10
192.5180023518804
 20
103.8235990379496
 30
0.0
 10
192.3212642361648
 20
103.9294913901215
 30
0.0
  0
SPLINE
  5
C1
330
1F
100
AcDbEntity
  8
0
  6
Continuous
 62
     7
370
    15
100
AcDbSpline
210
0.0
220
0.0
230
1.0
 70
     8
 71
     3
 72
     8
 73
     4
 74
     0
 42
0.00000001
 43
0.00000001
 40
0.0
 40
0.0
 40
0.0
 40
0.0
 40
1.0
 40
1.0
 40
1.0
 40
1.0
 10
192.3212642361648
 20
103.9294913901216
 30
0.0
 10
192.1479947823221
 20
104.0227519662952
 30
0.0
 10
191.9741786952361
 20
104.1071811923797
 30
0.0
 10
191.800319703164
 20
104.183795609174
 30
0.0
  0
SPLINE
  5
C2
330
1F
100
AcDbEntity
  8
0
  6
Continuous
 62
     7
370
    15
100
AcDbSpline
210
0.0
220
0.0
230
1.0
 70
     8
 71
     3
 72
    34
 73
    30
 74
     0
 42
0.00000001
 43
0.00000001
 40
0.0
 40
0.0
 40
0.0
 40
0.0
 40
0.0625000000000021
 40
0.0625000000000021
 40
0.1250000000000041
 40
0.1250000000000041
 40
0.2500000000000037
 40
0.2500000000000037
 40
0.3125000000000035
 40
0.3125000000000035
 40
0.3750000000000033
 40
0.3750000000000033
 40
0.4375000000000031
 40
0.4375000000000031
 40
0.5000000000000029
 40
0.5000000000000029
 40
0.5625000000000027
 40
0.5625000000000027
 40
0.6250000000000023
 40
0.6250000000000023
 40
0.6875000000000021
 40
0.6875000000000021
 40
0.7500000000000019
 40
0.7500000000000019
 40
0.875000000000001
 40
0.875000000000001
 40
0.9375000000000004
 40
0.9375000000000004
 40
1.0
 40
1.0
 40
1.0
 40
1.0
 10
196.8027158844435
 20
109.9888103893642
 30
0.0
 10
196.7619432884462
 20
109.8607526798258
 30
0.0
 10
196.7052469370399
 20
109.7389867694343
 30
0.0
 10
196.5640392551145
 20
109.5142692119467
 30
0.0
 10
196.4779600620595
 20
109.4095601887217
 30
0.0
 10
196.1895023306389
 20
109.13720584329
 30
0.0
 10
195.9479113971541
 20
109.0036133753219
 30
0.0
 10
195.5613439870442
 20
108.9014308570144
 30
0.0
 10
195.4296084761436
 20
108.8831819257606
 30
0.0
 10
195.1600309307561
 20
108.8785238351047
 30
0.0
 10
195.0251059316007
 20
108.8924599190579
 30
0.0
 10
194.7621590602122
 20
108.9514263623866
 30
0.0
 10
194.6315182364467
 20
108.9974424751693
 30
0.0
 10
194.3883613680205
 20
109.1171172218091
 30
0.0
 10
194.2736479509556
 20
109.1913639014512
 30
0.0
 10
194.0637629648866
 20
109.366350798797
 30
0.0
 10
193.9714674621869
 20
109.4643797735105
 30
0.0
 10
193.8117644781886
 20
109.6811883517187
 30
0.0
 10
193.745511440079
 20
109.7992559261409
 30
0.0
 10
193.6455023096517
 20
110.0436084202926
 30
0.0
 10
193.6106223530684
 20
110.1730065969271
 30
0.0
 10
193.5747906686616
 20
110.4312970660199
 30
0.0
 10
193.573149690638
 20
110.561914164298
 30
0.0
 10
193.6179264617616
 20
110.9512730254291
 30
0.0
 10
193.7140966726346
 20
111.2004267799562
 30
0.0
 10
193.9413920972284
 20
111.5214621452883
 30
0.0
 10
194.0322062714643
 20
111.6210030040165
 30
0.0
 10
194.2334290901339
 20
111.7934262186246
 30
0.0
 10
194.3462826492683
 20
111.8686381370715
 30
0.0
 10
194.4668784089541
 20
111.929207878758
 30
0.0
  0
ELLIPSE
  5
C3
330
1F
100
AcDbEntity
  8
0
  6
Continuous
 62
     7
370
    15
100
AcDbEllipse
 10
198.9244755495
 20
110.5474463624
 30
0.0
 11
14.43287135988805
 21
2.537027342532411
 31
0.0
210
0.0
220
0.0
230
1.0
 40
0.0126200975
 41
4.562627401819171
 42
4.622665613796388
  0
SPLINE
  5
C4
330
1F
100
AcDbEntity
  8
0
  6
Continuous
 62
     7
370
    15
100
AcDbSpline
210
0.0
220
0.0
230
1.0
 70
     8
 71
     3
 72
    58
 73
    54
 74
     0
 42
0.00000001
 43
0.00000001
 40
-0.0625000000000046
 40
-0.0625000000000046
 40
0.0
 40
0.0
 40
0.0624999999999955
 40
0.0624999999999955
 40
0.0937499999999932
 40
0.0937499999999932
 40
0.1249999999999909
 40
0.1249999999999909
 40
0.1406249999999896
 40
0.1406249999999896
 40
0.1562499999999883
 40
0.1562499999999883
 40
0.1874999999999866
 40
0.1874999999999866
 40
0.2187499999999849
 40
0.2187499999999849
 40
0.2499999999999832
 40
0.2499999999999832
 40
0.3124999999999823
 40
0.3124999999999823
 40
0.3749999999999815
 40
0.3749999999999815
 40
0.4374999999999807
 40
0.4374999999999807
 40
0.4999999999999799
 40
0.4999999999999799
 40
0.5624999999999791
 40
0.5624999999999791
 40
0.5937499999999788
 40
0.5937499999999788
 40
0.6249999999999784
 40
0.6249999999999784
 40
0.6406249999999788
 40
0.6406249999999788
 40
0.6562499999999792
 40
0.6562499999999792
 40
0.6718749999999797
 40
0.6718749999999797
 40
0.68749999999998
 40
0.68749999999998
 40
0.7031249999999805
 40
0.7031249999999805
 40
0.7187499999999809
 40
0.7187499999999809
 40
0.7499999999999817
 40
0.7499999999999817
 40
0.8124999999999863
 40
0.8124999999999863
 40
0.8749999999999909
 40
0.8749999999999909
 40
0.9374999999999954
 40
0.9374999999999954
 40
1.0
 40
1.0
 40
1.062499999999996
 40
1.062499999999996
 10
187.7080540117964
 20
114.8162299149228
 30
0.0
 10
187.1831219430012
 20
114.5714500712324
 30
0.0
 10
186.9426711137668
 20
114.4302266638227
 30
0.0
 10
186.6400229130676
 20
114.1606605478461
 30
0.0
 10
186.5482715162443
 20
114.0593346628337
 30
0.0
 10
186.406001345054
 20
113.8355438681415
 30
0.0
 10
186.3545598207616
 20
113.7108522900465
 30
0.0
 10
186.3257077530386
 20
113.5122438070048
 30
0.0
 10
186.3240331806397
 20
113.4426038856335
 30
0.0
 10
186.3389338138662
 20
113.303399377104
 30
0.0
 10
186.3551874721342
 20
113.2338811723155
 30
0.0
 10
186.4315430017357
 20
113.0251915166024
 30
0.0
 10
186.5173902938756
 20
112.893877497791
 30
0.0
 10
186.7304794980651
 20
112.6645202070734
 30
0.0
 10
186.857801407843
 20
112.565726295518
 30
0.0
 10
187.1256425042959
 20
112.4042496643761
 30
0.0
 10
187.269835765194
 20
112.339241225747
 30
0.0
 10
187.7039515967024
 20
112.1905199361485
 30
0.0
 10
188.005263040608
 20
112.1482785977428
 30
0.0
 10
188.5894316088763
 20
112.1470049558643
 30
0.0
 10
188.8793399900923
 20
112.1878918506396
 30
0.0
 10
189.4386463505316
 20
112.3317058998612
 30
0.0
 10
189.7070522709458
 20
112.4336589854802
 30
0.0
 10
190.2283514537608
 20
112.6873625826517
 30
0.0
 10
190.4824703954618
 20
112.8404535531221
 30
0.0
 10
190.9617380851096
 20
113.1844023012339
 30
0.0
 10
191.1891980582444
 20
113.3755717551639
 30
0.0
 10
191.5073237813167
 20
113.6968030317967
 30
0.0
 10
191.6098648738835
 20
113.810240572633
 30
0.0
 10
191.7997687098431
 20
114.0496458858654
 30
0.0
 10
191.8883175188241
 20
114.1763396547506
 30
0.0
 10
191.9966983151448
 20
114.3788989519255
 30
0.0
 10
192.0287806124951
 20
114.4485671010183
 30
0.0
 10
192.0786486062524
 20
114.5951905953676
 30
0.0
 10
192.0962937014617
 20
114.6717912696808
 30
0.0
 10
192.1008869873266
 20
114.8274801827554
 30
0.0
 10
192.0862062226637
 20
114.9062468488696
 30
0.0
 10
192.0140865435539
 20
115.0438296479924
 30
0.0
 10
191.9572262998105
 20
115.1017307429199
 30
0.0
 10
191.8277738101908
 20
115.1909206376202
 30
0.0
 10
191.7551478064755
 20
115.2239548490087
 30
0.0
 10
191.6071954706447
 20
115.2759423104126
 30
0.0
 10
191.5301927103097
 20
115.2953538832721
 30
0.0
 10
191.2993668100632
 20
115.3408388328664
 30
0.0
 10
191.144552936079
 20
115.3552029283419
 30
0.0
 10
190.6790365774368
 20
115.376957959233
 30
0.0
 10
190.3658627025635
 20
115.3621944132485
 30
0.0
 10
189.7524556956735
 20
115.3057726998052
 30
0.0
 10
189.4502755957006
 20
115.2629361866794
 30
0.0
 10
188.8547737480317
 20
115.152055908139
 30
0.0
 10
188.5614503354644
 20
115.0839461478748
 30
0.0
 10
187.9860635847901
 20
114.9152899967524
 30
0.0
 10
187.7080540117964
 20
114.8162299149228
 30
0.0
 10
187.1831219430012
 20
114.5714500712324
 30
0.0
  0
LINE
  5
C5
330
1F
100
AcDbEntity
  8
0
  6
Continuous
 62
     7
370
    15
100
AcDbLine
 10
95.3474775149
 20
101.8703882715
 30
0.0
 11
95.3474775149
 21
116.0703882715
 31
0.0
  0
LINE
  5
C6
330
1F
100
AcDbEntity
  8
0
  6
Continuous
 62
     7
370
    15
100
AcDbLine
 10
103.4724775149
 20
116.0703882715
 30
0.0
 11
95.3474775149
 21
116.0703882715
 31
0.0
  0
LINE
  5
C7
330
1F
100
AcDbEntity
  8
0
  6
Continuous
 62
     7
370
    15
100
AcDbLine
 10
105.2724775149
 20
117.8703882715
 30
0.0
 11
103.4724775149
 21
116.0703882715
 31
0.0
  0
LINE
  5
C8
330
1F
100
AcDbEntity
  8
0
  6
Continuous
 62
     7
370
    15
100
AcDbLine
 10
109.9724775149
 20
116.0703882715
 30
0.0
 11
108.1724775149
 21
117.8703882715
 31
0.0
  0
LINE
  5
C9
330
1F
100
AcDbEntity
  8
0
  6
Continuous
 62
     7
370
    15
100
AcDbLine
 10
117.9724775149
 20
116.0703882715
 30
0.0
 11
109.9724775149
 21
116.0703882715
 31
0.0
  0
LINE
  5
CA
330
1F
100
AcDbEntity
  8
0
  6
Continuous
 62
     7
370
    15
100
AcDbLine
 10
119.7724775149
 20
117.8703882715
 30
0.0
 11
117.9724775149
 21
116.0703882715
 31
0.0
  0
LINE
  5
CB
330
1F
100
AcDbEntity
  8
0
  6
Continuous
 62
     7
370
    15
100
AcDbLine
 10
124.4724775149
 20
116.0703882715
 30
0.0
 11
122.6724775149
 21
117.8703882715
 31
0.0
  0
LINE
  5
CC
330
1F
100
AcDbEntity
  8
0
  6
Continuous
 62
     7
370
    15
100
AcDbLine
 10
132.4724775149
 20
116.0703882715
 30
0.0
 11
124.4724775149
 21
116.0703882715
 31
0.0
  0
LINE
  5
CD
330
1F
100
AcDbEntity
  8
0
  6
Continuous
 62
     7
370
    15
100
AcDbLine
 10
134.2724775149
 20
117.8703882715
 30
0.0
 11
132.4724775149
 21
116.0703882715
 31
0.0
  0
LINE
  5
CE
330
1F
100
AcDbEntity
  8
0
  6
Continuous
 62
     7
370
    15
100
AcDbLine
 10
138.9724775149
 20
116.0703882715
 30
0.0
 11
137.1724775149
 21
117.8703882715
 31
0.0
  0
LINE
  5
CF
330
1F
100
AcDbEntity
  8
0
  6
Continuous
 62
     7
370
    15
100
AcDbLine
 10
146.9724775149
 20
116.0703882715
 30
0.0
 11
138.9724775149
 21
116.0703882715
 31
0.0
  0
LINE
  5
D0
330
1F
100
AcDbEntity
  8
0
  6
Continuous
 62
     7
370
    15
100
AcDbLine
 10
148.7724775149
 20
117.8703882715
 30
0.0
 11
146.9724775149
 21
116.0703882715
 31
0.0
  0
LINE
  5
D1
330
1F
100
AcDbEntity
  8
0
  6
Continuous
 62
     7
370
    15
100
AcDbLine
 10
153.4724775149
 20
116.0703882715
 30
0.0
 11
151.6724775149
 21
117.8703882715
 31
0.0
  0
LINE
  5
D2
330
1F
100
AcDbEntity
  8
0
  6
Continuous
 62
     7
370
    15
100
AcDbLine
 10
161.4724775149
 20
116.0703882715
 30
0.0
 11
153.4724775149
 21
116.0703882715
 31
0.0
  0
LINE
  5
D3
330
1F
100
AcDbEntity
  8
0
  6
Continuous
 62
     7
370
    15
100
AcDbLine
 10
163.2724775149
 20
117.8703882715
 30
0.0
 11
161.4724775149
 21
116.0703882715
 31
0.0
  0
LINE
  5
D4
330
1F
100
AcDbEntity
  8
0
  6
Continuous
 62
     7
370
    15
100
AcDbLine
 10
93.9724775149
 20
103.2453882715
 30
0.0
 11
93.9724775149
 21
116.0703882715
 31
0.0
  0
SPLINE
  5
D5
330
1F
100
AcDbEntity
  8
0
  6
Continuous
 62
     7
370
    15
100
AcDbSpline
210
0.0
220
0.0
230
1.0
 70
    24
 71
     3
 72
    10
 73
     6
 74
     0
 42
0.00000001
 43
0.00000001
 40
0.0
 40
0.0
 40
0.0
 40
0.0
 40
0.5
 40
0.5
 40
1.0
 40
1.0
 40
1.0
 40
1.0
 10
95.3474775149389
 20
116.0703882714706
 30
0.0
 10
95.07523732762169
 20
116.0703882714706
 30
0.0
 10
94.81687321943369
 20
116.0703882714706
 30
0.0
 10
94.35080720161831
 20
116.0703882714706
 30
0.0
 10
94.14221669849063
 20
116.0703882714706
 30
0.0
 10
93.97247751493889
 20
116.0703882714706
 30
0.0
  0
SPLINE
  5
D6
330
1F
100
AcDbEntity
  8
0
  6
Continuous
 62
     7
370
    15
100
AcDbSpline
210
0.0
220
0.0
230
1.0
 70
     8
 71
     3
 72
     8
 73
     4
 74
     0
 42
0.00000001
 43
0.00000001
 40
0.0
 40
0.0
 40
0.0
 40
0.0
 40
1.0
 40
1.0
 40
1.0
 40
1.0
 10
191.8003197031746
 20
102.0743932953891
 30
0.0
 10
191.9726620823976
 20
102.1725657043597
 30
0.0
 10
192.1469146551177
 20
102.2718319358032
 30
0.0
 10
192.3212642361648
 20
102.3711537165345
 30
0.0
  0
LINE
  5
D7
330
1F
100
AcDbEntity
  8
0
  6
Continuous
 62
     7
370
    15
100
AcDbLine
 10
192.9134779667
 20
102.7086592892
 30
0.0
 11
192.9134779667
 21
103.6191644337
 31
0.0
  0
ELLIPSE
  5
D8
330
1F
100
AcDbEntity
  8
0
  6
Continuous
 62
     7
370
    15
100
AcDbEllipse
 10
211.7585119199
 20
113.4864460654
 30
0.0
 11
20.50769711836898
 21
11.72288267354597
 31
0.0
210
0.0
220
0.0
230
1.0
 40
0.0004976935
 41
3.465832454574483
 42
3.546758439014535
  0
ELLIPSE
  5
D9
330
1F
100
AcDbEntity
  8
0
  6
Continuous
 62
     7
370
    15
100
AcDbEllipse
 10
205.4326751409
 20
109.8703882715
 30
0.0
 11
14.69472846353656
 21
8.399996482120656
 31
0.0
210
0.0
220
0.0
230
1.0
 40
0.0005232068
 41
3.69238880753587
 42
3.809776918283559
  0
ARC
  5
DA
330
1F
100
AcDbEntity
  8
0
  6
Continuous
 62
     7
370
    15
100
AcDbCircle
 10
195.211889327
 20
109.9257328999
 30
0.0
 40
1.634471658431998
100
AcDbArc
 50
117.8838889557
 51
172.080775831
  0
LINE
  5
DB
330
1F
100
AcDbEntity
  8
0
  6
Continuous
 62
     7
370
    15
100
AcDbLine
 10
203.6479206028
 20
111.1837186665
 30
0.0
 11
197.6631352596
 21
110.1387094407
 31
0.0
  0
LINE
  5
DC
330
1F
100
AcDbEntity
  8
0
  6
Continuous
 62
     7
370
    15
100
AcDbLine
 10
203.6479206028
 20
109.9833166593
 30
0.0
 11
203.6479206028
 21
111.1837186665
 31
0.0
  0
ELLIPSE
  5
DD
330
1F
100
AcDbEntity
  8
0
  6
Continuous
 62
     7
370
    15
100
AcDbEllipse
 10
201.6329009518
 20
110.0004270677
 30
0.0
 11
1.947284583039647
 21
-0.5269891811421417
 31
0.0
210
0.0
220
0.0
230
0.9999999999999999
 40
0.9830576678
 41
5.504603794413024
 42
6.543205022492264
  0
LINE
  5
DE
330
1F
100
AcDbEntity
  8
0
  6
Continuous
 62
     7
370
    15
100
AcDbLine
 10
200.661117461
 20
107.1407272393
 30
0.0
 11
202.6553744511
 21
108.2809068516
 31
0.0
  0
SPLINE
  5
DF
330
1F
100
AcDbEntity
  8
0
  6
Continuous
 62
     7
370
    15
100
AcDbSpline
210
0.0
220
0.0
230
1.0
 70
     8
 71
     3
 72
     8
 73
     4
 74
     0
 42
0.00000001
 43
0.00000001
 40
0.0
 40
0.0
 40
0.0
 40
0.0
 40
1.0
 40
1.0
 40
1.0
 40
1.0
 10
191.800319703164
 20
118.1186939602763
 30
0.0
 10
191.9753314119895
 20
118.1186939602763
 30
0.0
 10
192.1489788633499
 20
118.1339397674067
 30
0.0
 10
192.3212642361648
 20
118.1644070318745
 30
0.0
  0
LINE
  5
E0
330
1F
100
AcDbEntity
  8
0
  6
Continuous
 62
     7
370
    15
100
AcDbLine
 10
192.3212642362
 20
118.1644070319
 30
0.0
 11
194.4474775149
 21
118.5401994059
 31
0.0
  0
ARC
  5
E1
330
1F
100
AcDbEntity
  8
0
  6
HIDDEN
 62
     7
370
     0
100
AcDbCircle
 10
199.5853727593
 20
113.6625783966
 30
0.0
 40
0.3351164801281899
100
AcDbArc
 50
213.4744228104
 51
6.2727952465
  0
ARC
  5
E2
330
1F
100
AcDbEntity
  8
0
  6
HIDDEN
 62
     7
370
     0
100
AcDbCircle
 10
198.2636922254
 20
113.8903867901
 30
0.0
 40
0.3337732884172258
100
AcDbArc
 50
153.655159155
 51
307.0028355104
  0
ARC
  5
E3
330
1F
100
AcDbEntity
  8
0
  6
HIDDEN
 62
     7
370
     0
100
AcDbCircle
 10
200.4968930081
 20
113.7661197133
 30
0.0
 40
0.5822691188320189
100
AcDbArc
 50
92.9546086181
 51
186.6001335262
  0
ARC
  5
E4
330
1F
100
AcDbEntity
  8
0
  6
HIDDEN
 62
     7
370
     0
100
AcDbCircle
 10
199.1279708195
 20
114.944901821
 30
0.0
 40
2.625076166315091
100
AcDbArc
 50
0.4364647737
 51
179.5635352263
  0
ARC
  5
E5
330
1F
100
AcDbEntity
  8
0
  6
HIDDEN
 62
     7
370
     0
100
AcDbCircle
 10
197.4466989681
 20
114.2980014666
 30
0.0
 40
0.5804119929063931
100
AcDbArc
 50
0.1363298892
 51
67.1894825062
  0
ARC
  5
E6
330
1F
100
AcDbEntity
  8
0
  6
HIDDEN
 62
     7
370
     0
100
AcDbCircle
 10
200.4503373013
 20
114.6790966
 30
0.0
 40
0.3318943186370688
100
AcDbArc
 50
272.8570041008
 51
22.4466147735
  0
ARC
  5
E7
330
1F
100
AcDbEntity
  8
0
  6
HIDDEN
 62
     7
370
     0
100
AcDbCircle
 10
197.7994131528
 20
115.1380453073
 30
0.0
 40
0.3306760753474675
100
AcDbArc
 50
164.4454382536
 51
247.2835873848
  0
ARC
  5
E8
330
1F
100
AcDbEntity
  8
0
  6
HIDDEN
 62
     7
370
     0
100
AcDbCircle
 10
200.7999366422
 20
115.5173081223
 30
0.0
 40
0.575798846263605
100
AcDbArc
 50
153.0512956478
 51
179.9928814987
  0
LINE
  5
E9
330
1F
100
AcDbEntity
  8
0
  6
HIDDEN
 62
     7
370
     0
100
AcDbLine
 10
198.3369000549
 20
116.0487310619
 30
0.0
 11
198.3327642391
 21
116.1175681491
 31
0.0
  0
ARC
  5
EA
330
1F
100
AcDbEntity
  8
0
  6
HIDDEN
 62
     7
370
     0
100
AcDbCircle
 10
199.9935745363
 20
115.9273123711
 30
0.0
 40
0.3288134096437881
100
AcDbArc
 50
333.0433490506
 51
17.2110702499
  0
LWPOLYLINE
  5
EB
330
1F
100
AcDbEntity
  8
0
  6
HIDDEN
 62
     7
370
     0
100
AcDbPolyline
 90
        3
 70
   128
 43
0.0
 10
198.3327642391
 20
116.1175681491
 10
198.3381897562
 20
116.2280229197
 10
198.3535227469
 20
116.2780122695
  0
ARC
  5
EC
330
1F
100
AcDbEntity
  8
0
  6
HIDDEN
 62
     7
370
     0
100
AcDbCircle
 10
198.8156329944
 20
113.150144007
 30
0.0
 40
0.5895959146238063
100
AcDbArc
 50
33.753978084
 51
126.5426511313
  0
CIRCLE
  5
ED
330
1F
100
AcDbEntity
  8
0
  6
HIDDEN
 62
     7
370
     0
100
AcDbCircle
 10
199.1211020925
 20
114.5895694498
 30
0.0
 40
1.994076364107633
  0
ARC
  5
EE
330
1F
100
AcDbEntity
  8
0
  6
HIDDEN
 62
     7
370
     0
100
AcDbCircle
 10
199.1403040487
 20
113.8656394874
 30
0.0
 40
1.983529795384827
100
AcDbArc
 50
259.5540505434
 51
34.1569790909
  0
ARC
  5
EF
330
1F
100
AcDbEntity
  8
0
  6
HIDDEN
 62
     7
370
     0
100
AcDbCircle
 10
199.1278112949
 20
113.8721406118
 30
0.0
 40
1.987703741318164
100
AcDbArc
 50
39.8521451455
 51
259.9421665782
  0
CIRCLE
  5
F0
330
1F
100
AcDbEntity
  8
0
  6
HIDDEN
 62
     7
370
     0
100
AcDbCircle
 10
199.1210707135
 20
113.8642254112
 30
0.0
 40
1.893396018857161
  0
LINE
  5
F1
330
1F
100
AcDbEntity
  8
0
  6
HIDDEN
 62
     7
370
     0
100
AcDbLine
 10
194.8474775149
 20
109.5990344783
 30
0.0
 11
194.4474775149
 21
110.0524240574
 31
0.0
  0
LINE
  5
F2
330
1F
100
AcDbEntity
  8
0
  6
HIDDEN
 62
     7
370
     0
100
AcDbLine
 10
203.5724775149
 20
111.122515267
 30
0.0
 11
203.637672523
 21
111.1819292393
 31
0.0
  0
LINE
  5
F3
330
1F
100
AcDbEntity
  8
0
  6
HIDDEN
 62
     7
370
     0
100
AcDbLine
 10
203.4850228082
 20
111.0960566871
 30
0.0
 11
203.5724775149
 21
111.122515267
 31
0.0
  0
LINE
  5
F4
330
1F
100
AcDbEntity
  8
0
  6
HIDDEN
 62
     7
370
     0
100
AcDbLine
 10
196.7772475332
 20
109.9248054818
 30
0.0
 11
203.4850228082
 21
111.0960566871
 31
0.0
  0
LINE
  5
F5
330
1F
100
AcDbEntity
  8
0
  6
HIDDEN
 62
     7
370
     0
100
AcDbLine
 10
203.5724775149
 20
111.122515267
 30
0.0
 11
203.9724775149
 21
111.5759048461
 31
0.0
  0
ARC
  5
F6
330
1F
100
AcDbEntity
  8
0
  6
HIDDEN
 62
     7
370
     0
100
AcDbCircle
 10
199.2099775149
 20
115.0610037104
 30
0.0
 40
3.049516114628237
100
AcDbArc
 50
178.8759200042
 51
1.1240799897
  0
LINE
  5
F7
330
1F
100
AcDbEntity
  8
0
  6
HIDDEN
 62
     7
370
     0
100
AcDbLine
 10
203.4850228082
 20
119.6935536775
 30
0.0
 11
203.5724775149
 21
119.8958914649
 31
0.0
  0
LINE
  5
F8
330
1F
100
AcDbEntity
  8
0
  6
HIDDEN
 62
     7
370
     0
100
AcDbLine
 10
194.9349322217
 20
118.2006139926
 30
0.0
 11
194.8474775149
 21
118.3724106762
 31
0.0
  0
LINE
  5
F9
330
1F
100
AcDbEntity
  8
0
  6
HIDDEN
 62
     7
370
     0
100
AcDbLine
 10
194.8474775149
 20
118.3724106762
 30
0.0
 11
194.7780182439
 21
119.2158897239
 31
0.0
  0
LINE
  5
FA
330
1F
100
AcDbEntity
  8
0
  6
HIDDEN
 62
     7
370
     0
100
AcDbLine
 10
194.8474775149
 20
118.3724106762
 30
0.0
 11
194.4474775149
 21
118.8258002552
 31
0.0
  0
LINE
  5
FB
330
1F
100
AcDbEntity
  8
0
  6
HIDDEN
 62
     7
370
     0
100
AcDbLine
 10
203.5724775149
 20
119.8958914649
 30
0.0
 11
203.5030182439
 21
120.7393705127
 31
0.0
  0
LINE
  5
FC
330
1F
100
AcDbEntity
  8
0
  6
HIDDEN
 62
     7
370
     0
100
AcDbLine
 10
203.5724775149
 20
119.8958914649
 30
0.0
 11
203.9724775149
 21
120.349281044
 31
0.0
  0
LINE
  5
FD
330
1F
100
AcDbEntity
  8
0
  6
HIDDEN
 62
     7
370
     0
100
AcDbLine
 10
197.0099775149
 20
114.844106049
 30
0.0
 11
197.0492207614
 21
114.4344530202
 31
0.0
  0
LINE
  5
FE
330
1F
100
AcDbEntity
  8
0
  6
HIDDEN
 62
     7
370
     0
100
AcDbLine
 10
201.4099775149
 20
114.844106049
 30
0.0
 11
201.4083317533
 21
114.9283582666
 31
0.0
  0
CIRCLE
  5
FF
330
1F
100
AcDbEntity
  8
0
  6
HIDDEN
 62
     7
370
     0
100
AcDbCircle
 10
199.1951922953
 20
114.6451186624
 30
0.0
 40
2.185217147874573
  0
LINE
  5
100
330
1F
100
AcDbEntity
  8
0
  6
HIDDEN
 62
     7
370
     0
100
AcDbLine
 10
203.4850228082
 20
119.6935536775
 30
0.0
 11
194.9349322217
 21
118.2006139926
 31
0.0
  0
LINE
  5
101
330
1F
100
AcDbEntity
  8
0
  6
HIDDEN
 62
     7
370
     0
100
AcDbLine
 10
203.4850228082
 20
111.0960566871
 30
0.0
 11
203.4850228082
 21
119.6935536775
 31
0.0
  0
LINE
  5
102
330
1F
100
AcDbEntity
  8
0
  6
HIDDEN
 62
     7
370
     0
100
AcDbLine
 10
194.9349322217
 20
118.2006139926
 30
0.0
 11
194.9349322217
 21
109.6031170022
 31
0.0
  0
ELLIPSE
  5
103
330
1F
100
AcDbEntity
  8
0
  6
HIDDEN
 62
     7
370
     0
100
AcDbEllipse
 10
205.4326751409
 20
109.8703882715
 30
0.0
 11
14.43232259794248
 21
8.249996544840611
 31
0.0
210
0.0
220
0.0
230
0.9999999999999998
 40
0.0005232068
 41
2.806782982220164
 42
3.142507937254961
  0
ELLIPSE
  5
104
330
1F
100
AcDbEntity
  8
0
  6
HIDDEN
 62
     7
370
     0
100
AcDbEllipse
 10
192.9986196963
 20
116.4733022155
 30
0.0
 11
-0.2715540491162756
 21
17.17823796609446
 31
0.0
210
0.0
220
0.0
230
1.0
 40
0.0843028544
 41
4.443343955021088
 42
4.527026800873184
  0
SPLINE
  5
105
330
1F
100
AcDbEntity
  8
0
  6
HIDDEN
 62
     7
370
     0
100
AcDbSpline
210
0.0
220
0.0
230
1.0
 70
     8
 71
     3
 72
    12
 73
     8
 74
     0
 42
0.00000001
 43
0.00000001
 40
0.0
 40
0.0
 40
0.0
 40
0.0
 40
0.2209402867357717
 40
0.4413438644889337
 40
0.6510915743806659
 40
0.8627654042245274
 40
1.0
 40
1.0
 40
1.0
 40
1.0
 10
181.9724775149389
 20
110.5688250685239
 30
0.0
 10
182.0115977599393
 20
110.4030606125691
 30
0.0
 10
182.0897432188927
 20
110.0719343763046
 30
0.0
 10
182.2120851068205
 20
109.6232863208864
 30
0.0
 10
182.3200698880507
 20
109.2893254361881
 30
0.0
 10
182.3871452414184
 20
109.086834712201
 30
0.0
 10
182.3624590439263
 20
109.051918002304
 30
0.0
 10
182.3527493319064
 20
109.0381843684429
 30
0.0
  0
SPLINE
  5
106
330
1F
100
AcDbEntity
  8
0
  6
HIDDEN
 62
     7
370
     0
100
AcDbSpline
210
0.0
220
0.0
230
1.0
 70
     8
 71
     3
 72
    12
 73
     8
 74
     0
 42
0.00000001
 43
0.00000001
 40
0.0
 40
0.0
 40
0.0
 40
0.0
 40
0.0306263718734247
 40
0.3312006442334199
 40
0.6304622612841568
 40
0.9281928673865051
 40
1.0
 40
1.0
 40
1.0
 40
1.0
 10
182.3443615015332
 20
109.0135213955755
 30
0.0
 10
182.3434500897551
 20
109.0103071452238
 30
0.0
 10
182.3335938727239
 20
108.9755475010977
 30
0.0
 10
182.2420175442311
 20
109.0521828535803
 30
0.0
 10
182.1258767372482
 20
109.268707469146
 30
0.0
 10
182.0311502113406
 20
109.5405289373283
 30
0.0
 10
181.9820236054568
 20
109.7130021593915
 30
0.0
 10
181.972477514939
 20
109.7465164834549
 30
0.0
  0
SPLINE
  5
107
330
1F
100
AcDbEntity
  8
0
  6
HIDDEN
 62
     7
370
     0
100
AcDbSpline
210
0.0
220
0.0
230
1.0
 70
     8
 71
     3
 72
    12
 73
     8
 74
     0
 42
0.00000001
 43
0.00000001
 40
0.0
 40
0.0
 40
0.0
 40
0.0
 40
0.1411915094440535
 40
0.2829390495034065
 40
0.4865579670450679
 40
0.7684943588742064
 40
0.9999999999999999
 40
0.9999999999999999
 40
0.9999999999999999
 40
0.9999999999999999
 10
180.1462299541307
 20
108.8951316524365
 30
0.0
 10
180.2256048470996
 20
108.876549141275
 30
0.0
 10
180.3846672217387
 20
108.8393109385947
 30
0.0
 10
180.5962461456897
 20
108.6991153423099
 30
0.0
 10
180.7732560444119
 20
108.5170460886685
 30
0.0
 10
180.9092624875765
 20
108.3691283362131
 30
0.0
 10
180.9657475401986
 20
108.3818772059069
 30
0.0
 10
180.99121605949
 20
108.3876255378756
 30
0.0
  0
SPLINE
  5
108
330
1F
100
AcDbEntity
  8
0
  6
HIDDEN
 62
     7
370
     0
100
AcDbSpline
210
0.0
220
0.0
230
1.0
 70
     8
 71
     3
 72
    24
 73
    20
 74
     0
 42
0.00000001
 43
0.00000001
 40
0.0
 40
0.0
 40
0.0
 40
0.0
 40
0.1249999999999981
 40
0.1249999999999981
 40
0.2499999999999961
 40
0.2499999999999961
 40
0.3749999999999942
 40
0.3749999999999942
 40
0.4999999999999922
 40
0.4999999999999922
 40
0.6249999999999902
 40
0.6249999999999902
 40
0.7499999999999883
 40
0.7499999999999883
 40
0.8124999999999912
 40
0.8124999999999912
 40
0.8749999999999941
 40
0.8749999999999941
 40
1.0
 40
1.0
 40
1.0
 40
1.0
 10
181.0104082825706
 20
108.3860671019954
 30
0.0
 10
181.0325772939125
 20
108.4058160350246
 30
0.0
 10
181.0490213418173
 20
108.4434494671148
 30
0.0
 10
181.0735585464447
 20
108.5544070660196
 30
0.0
 10
181.0813132038419
 20
108.6275991890519
 30
0.0
 10
181.0900875446447
 20
108.8021404614361
 30
0.0
 10
181.0911115027355
 20
108.9055158055376
 30
0.0
 10
181.0908337619425
 20
109.1306737880093
 30
0.0
 10
181.0893456971004
 20
109.2557506704921
 30
0.0
 10
181.0938856386382
 20
109.51497298419
 30
0.0
 10
181.0989715173768
 20
109.651074062786
 30
0.0
 10
181.1458950475678
 20
109.9232442967528
 30
0.0
 10
181.1922056018928
 20
110.0578059848399
 30
0.0
 10
181.3173580606663
 20
110.2183703922423
 30
0.0
 10
181.3679950414959
 20
110.2658136210863
 30
0.0
 10
181.4762275668359
 20
110.3469463508432
 30
0.0
 10
181.53465365472
 20
110.3818652813777
 30
0.0
 10
181.7162093918796
 20
110.4760894273146
 30
0.0
 10
181.8433647747821
 20
110.5247756934868
 30
0.0
 10
181.9724775149387
 20
110.5688250685241
 30
0.0
  0
LWPOLYLINE
  5
109
330
1F
100
AcDbEntity
  8
0
  6
HIDDEN
 62
     7
370
     0
100
AcDbPolyline
 90
       13
 70
   128
 43
0.0
 10
180.1462299541
 20
108.8951316524
 10
180.3278388386
 20
108.6023198555
 10
180.49000001
 20
108.3860474371
 10
180.6202896379
 20
108.2628839117
 10
180.7087257009
 20
108.2422653408
 10
180.7485327506
 20
108.3257713973
 10
180.7366610061
 20
108.5070043408
 10
180.6740200103
 20
108.7720791742
 10
180.5654089461
 20
109.1006874305
 10
180.4191489513
 20
109.4676530872
 10
180.2464456023
 20
109.8448614045
 10
180.060530409
 20
110.2034129106
 10
179.8756470946
 20
110.5158375081
  0
SPLINE
  5
10A
330
1F
100
AcDbEntity
  8
0
  6
HIDDEN
 62
     7
370
     0
100
AcDbSpline
210
0.0
220
0.0
230
1.0
 70
     8
 71
     3
 72
    36
 73
    32
 74
     0
 42
0.00000001
 43
0.00000001
 40
0.0
 40
0.0
 40
0.0
 40
0.0
 40
0.0625000000000007
 40
0.0625000000000007
 40
0.1250000000000013
 40
0.1250000000000013
 40
0.1875000000000019
 40
0.1875000000000019
 40
0.2500000000000026
 40
0.2500000000000026
 40
0.3125000000000033
 40
0.3125000000000033
 40
0.3750000000000039
 40
0.3750000000000039
 40
0.5000000000000031
 40
0.5000000000000031
 40
0.5625000000000028
 40
0.5625000000000028
 40
0.6250000000000024
 40
0.6250000000000024
 40
0.6875000000000021
 40
0.6875000000000021
 40
0.7500000000000017
 40
0.7500000000000017
 40
0.8125000000000013
 40
0.8125000000000013
 40
0.875000000000001
 40
0.875000000000001
 40
0.9375000000000006
 40
0.9375000000000006
 40
1.0
 40
1.0
 40
1.0
 40
1.0
 10
181.9724775149389
 20
109.7465164834548
 30
0.0
 10
181.8624439283344
 20
109.7331836118143
 30
0.0
 10
181.752456975563
 20
109.722926640488
 30
0.0
 10
181.5326828979654
 20
109.7155134953138
 30
0.0
 10
181.4228877384443
 20
109.7178211140431
 30
0.0
 10
181.203790848361
 20
109.754834988334
 30
0.0
 10
181.0947206989015
 20
109.7921894432898
 30
0.0
 10
180.9075270653405
 20
109.9216843132305
 30
0.0
 10
180.8334038624304
 20
110.0092647313205
 30
0.0
 10
180.7124302684227
 20
110.1959782537322
 30
0.0
 10
180.664148176485
 20
110.2954782533305
 30
0.0
 10
180.5804792866647
 20
110.491026798613
 30
0.0
 10
180.5457699858253
 20
110.5860584054711
 30
0.0
 10
180.4536273025862
 20
110.8586143406957
 30
0.0
 10
180.4098344936016
 20
111.0189995148609
 30
0.0
 10
180.3635402800624
 20
111.1974117937471
 30
0.0
 10
180.3516204745155
 20
111.2459677166125
 30
0.0
 10
180.3332772187452
 20
111.3209055752778
 30
0.0
 10
180.3269899571232
 20
111.3467816522473
 30
0.0
 10
180.3190958131525
 20
111.3730607622217
 30
0.0
 10
180.3174020659839
 20
111.3738419470584
 30
0.0
 10
180.3164830174779
 20
111.3500878882046
 30
0.0
 10
180.3172807497662
 20
111.3259921905376
 30
0.0
 10
180.3173983901981
 20
111.2533980106364
 30
0.0
 10
180.3168446500673
 20
111.2047855421082
 30
0.0
 10
180.3058718619411
 20
111.0879039177749
 30
0.0
 10
180.2957023779827
 20
111.0177297160133
 30
0.0
 10
180.2437875882009
 20
110.8642979722586
 30
0.0
 10
180.198899654319
 20
110.7805770157616
 30
0.0
 10
180.0623845495832
 20
110.6333788977869
 30
0.0
 10
179.9721441255335
 20
110.5696544205978
 30
0.0
 10
179.8756470946456
 20
110.5158375080789
 30
0.0
  0
LINE
  5
10B
330
1F
100
AcDbEntity
  8
0
  6
HIDDEN
 62
     7
370
     0
100
AcDbLine
 10
95.2715156206
 20
108.3703882715
 30
0.0
 11
95.2715156206
 21
111.3703882715
 31
0.0
  0
ELLIPSE
  5
10C
330
1F
100
AcDbEntity
  8
0
  6
HIDDEN
 62
     7
370
     0
100
AcDbEllipse
 10
195.2279708195
 20
109.6167965072
 30
0.0
 11
-1.430047854952761
 21
2.435993301043893
 31
0.0
210
0.0
220
0.0
230
1.0
 40
0.3378833126
 41
5.60681419787825
 42
5.714069593693358
  0
LINE
  5
10D
330
1F
100
AcDbEntity
  8
0
  6
HIDDEN
 62
     7
370
     0
100
AcDbLine
 10
194.6279708195
 20
111.8189650977
 30
0.0
 11
194.6279708195
 21
111.4710323453
 31
0.0
  0
ARC
  5
10E
330
1F
100
AcDbEntity
  8
0
  6
HIDDEN
 62
     7
370
     0
100
AcDbCircle
 10
195.2312823125
 20
109.9410699401
 30
0.0
 40
1.644618411308795
100
AcDbArc
 50
349.0304888872
 51
111.520851226
  0
LINE
  5
10F
330
1F
100
AcDbEntity
  8
0
  6
HIDDEN
 62
     7
370
     0
100
AcDbLine
 10
196.8458512099
 20
109.6281210718
 30
0.0
 11
196.8458512099
 21
109.9760538242
 31
0.0
  0
ELLIPSE
  5
110
330
1F
100
AcDbEntity
  8
0
  6
HIDDEN
 62
     7
370
     0
100
AcDbEllipse
 10
195.2279708195
 20
109.6167965072
 30
0.0
 11
1.649515915895848
 21
0.3297021919773472
 31
0.0
210
0.0
220
0.0
230
1.0
 40
0.1212170443
 41
0.1734117093056943
 42
0.2789593080026798
  0
ARC
  5
111
330
1F
100
AcDbEntity
  8
0
  6
HIDDEN
 62
     7
370
     0
100
AcDbCircle
 10
195.2324452845
 20
109.9339113439
 30
0.0
 40
1.63700415210302
100
AcDbArc
 50
269.8433917958
 51
118.653719666
  0
ARC
  5
112
330
1F
100
AcDbEntity
  8
0
  6
HIDDEN
 62
     7
370
     0
100
AcDbCircle
 10
195.2189505153
 20
109.9368642524
 30
0.0
 40
1.639975752715378
100
AcDbArc
 50
172.4999555599
 51
270.315143662
  0
LINE
  5
113
330
1F
100
AcDbEntity
  8
0
  6
HIDDEN
 62
     7
370
     0
100
AcDbLine
 10
181.9724775149
 20
110.5688250685
 30
0.0
 11
181.9724775149
 21
109.7465164835
 31
0.0
  0
LINE
  5
114
330
1F
100
AcDbEntity
  8
0
  6
HIDDEN
 62
     7
370
     0
100
AcDbLine
 10
181.9724775149
 20
108.3703882715
 30
0.0
 11
181.9724775149
 21
109.7465164835
 31
0.0
  0
SPLINE
  5
115
330
1F
100
AcDbEntity
  8
0
  6
HIDDEN
 62
     7
370
     0
100
AcDbSpline
210
0.0
220
0.0
230
1.0
 70
     8
 71
     3
 72
    10
 73
     6
 74
     0
 42
0.00000001
 43
0.00000001
 40
0.0
 40
0.0
 40
0.0
 40
0.0
 40
0.4999999999999998
 40
0.4999999999999998
 40
1.0
 40
1.0
 40
1.0
 40
1.0
 10
202.3568562049873
 20
108.701334223406
 30
0.0
 10
202.2810402077597
 20
108.4717815599983
 30
0.0
 10
202.1662263939992
 20
108.2620690890089
 30
0.0
 10
201.8636654270269
 20
107.8906986880944
 30
0.0
 10
201.6814359011474
 20
107.7359195530147
 30
0.0
 10
201.4716898782363
 20
107.6159810250522
 30
0.0
  0
ELLIPSE
  5
116
330
1F
100
AcDbEntity
  8
0
  6
HIDDEN
 62
     7
370
     0
100
AcDbEllipse
 10
200.4402322019
 20
109.3304544479
 30
0.0
 11
1.947284583039618
 21
-0.526989181142156
 31
0.0
210
0.0
220
0.0
230
1.0
 40
0.9830576678
 41
6.229409607157211
 42
6.543205022492272
  0
ELLIPSE
  5
117
330
1F
100
AcDbEntity
  8
0
  6
HIDDEN
 62
     7
370
     0
100
AcDbEllipse
 10
179.9131914485
 20
109.8703882715
 30
0.0
 11
-0.7196745857420693
 21
1.495634464669336
 31
0.0
210
0.0
220
0.0
230
0.9999999999999999
 40
0.158901134
 41
2.202293791062968
 42
5.080901390672355
  0
LINE
  5
118
330
1F
100
AcDbEntity
  8
0
  6
HIDDEN
 62
     7
370
     0
100
AcDbLine
 10
203.4919842104
 20
111.1365416117
 30
0.0
 11
203.6479206028
 21
111.1837186665
 31
0.0
  0
LINE
  5
119
330
1F
100
AcDbEntity
  8
0
  6
HIDDEN
 62
     7
370
     0
100
AcDbLine
 10
194.4720344271
 20
113.3298102732
 30
0.0
 11
194.4720344271
 21
118.5445396574
 31
0.0
  0
ELLIPSE
  5
11A
330
1F
100
AcDbEntity
  8
0
  6
HIDDEN
 62
     7
370
     0
100
AcDbEllipse
 10
194.656459696
 20
109.844151942
 30
0.0
 11
-0.1510611330556344
 21
8.705313922996041
 31
0.0
210
0.0
220
0.0
230
1.0
 40
0.121580963
 41
6.168066926689752
 42
6.314784987247512
  0
LINE
  5
11B
330
1F
100
AcDbEntity
  8
0
  6
HIDDEN
 62
     7
370
     0
100
AcDbLine
 10
194.6279708195
 20
118.493956693
 30
0.0
 11
194.6279708195
 21
111.8189650977
 31
0.0
  0
LINE
  5
11C
330
1F
100
AcDbEntity
  8
0
  6
HIDDEN
 62
     7
370
     0
100
AcDbLine
 10
194.4474775149
 20
118.5401994059
 30
0.0
 11
194.4720344271
 21
118.5445396574
 31
0.0
  0
SPLINE
  5
11D
330
1F
100
AcDbEntity
  8
0
  6
HIDDEN
 62
     7
370
     0
100
AcDbSpline
210
0.0
220
0.0
230
1.0
 70
     8
 71
     3
 72
     8
 73
     4
 74
     0
 42
0.00000001
 43
0.00000001
 40
0.0000003969492179
 40
0.0000003969492179
 40
0.0000003969492179
 40
0.0000003969492179
 40
0.0010385160522523
 40
0.0010385160522523
 40
0.0010385160522523
 40
0.0010385160522523
 10
192.3212642361648
 20
102.3797894657044
 30
0.0
 10
192.1469153692042
 20
102.2797836671997
 30
0.0
 10
191.9726596384928
 20
102.1798310046599
 30
0.0
 10
191.800319703164
 20
102.0809715927585
 30
0.0
  0
SPLINE
  5
11E
330
1F
100
AcDbEntity
  8
0
  6
HIDDEN
 62
     7
370
     0
100
AcDbSpline
210
0.0
220
0.0
230
1.0
 70
     8
 71
     3
 72
    36
 73
    32
 74
     0
 42
0.00000001
 43
0.00000001
 40
0.0
 40
0.0
 40
0.0
 40
0.0
 40
0.1250000000000008
 40
0.1250000000000008
 40
0.1875000000000023
 40
0.1875000000000023
 40
0.2500000000000038
 40
0.2500000000000038
 40
0.3750000000000103
 40
0.3750000000000103
 40
0.4375000000000134
 40
0.4375000000000134
 40
0.468750000000015
 40
0.468750000000015
 40
0.5000000000000167
 40
0.5000000000000167
 40
0.5625000000000145
 40
0.5625000000000145
 40
0.6250000000000123
 40
0.6250000000000123
 40
0.6875000000000102
 40
0.6875000000000102
 40
0.7500000000000081
 40
0.7500000000000081
 40
0.8125000000000059
 40
0.8125000000000059
 40
0.875000000000004
 40
0.875000000000004
 40
0.937500000000002
 40
0.937500000000002
 40
1.0
 40
1.0
 40
1.0
 40
1.0
 10
200.7771907351478
 20
113.6741406847243
 30
0.0
 10
200.7854313140821
 20
113.9614787585825
 30
0.0
 10
200.7285111068279
 20
114.2378729016279
 30
0.0
 10
200.5727269866021
 20
114.6092496173035
 30
0.0
 10
200.5081373281545
 20
114.7276231836648
 30
0.0
 10
200.3579002157161
 20
114.9463131251636
 30
0.0
 10
200.2726926168806
 20
115.0465744585406
 30
0.0
 10
199.9840553964284
 20
115.3198907376268
 30
0.0
 10
199.7458948152089
 20
115.4670306919937
 30
0.0
 10
199.327386055646
 20
115.5803669092392
 30
0.0
 10
199.1779007463715
 20
115.5993848859197
 30
0.0
 10
198.9490625401286
 20
115.5912299087331
 30
0.0
 10
198.8730586569174
 20
115.5825381330306
 30
0.0
 10
198.7216223692713
 20
115.5528032606855
 30
0.0
 10
198.6453075518059
 20
115.5313687274926
 30
0.0
 10
198.4262441073269
 20
115.4505172243678
 30
0.0
 10
198.2898867759505
 20
115.3734131285351
 30
0.0
 10
198.0515044566573
 20
115.1909267201213
 30
0.0
 10
197.9473664519644
 20
115.084629399848
 30
0.0
 10
197.77113898493
 20
114.8545391129259
 30
0.0
 10
197.6986961534208
 20
114.730465810778
 30
0.0
 10
197.5843741581443
 20
114.4725523791392
 30
0.0
 10
197.5429038072157
 20
114.3402534597562
 30
0.0
 10
197.4884817510241
 20
114.0688602551866
 30
0.0
 10
197.4756970590115
 20
113.9281177019361
 30
0.0
 10
197.4809181832592
 20
113.6485896614487
 30
0.0
 10
197.4984963575636
 20
113.5099758214384
 30
0.0
 10
197.5650780964855
 20
113.2355758356901
 30
0.0
 10
197.6147879569771
 20
113.0993691334923
 30
0.0
 10
197.7434268635596
 20
112.8448411181772
 30
0.0
 10
197.8225712983446
 20
112.7247005340002
 30
0.0
 10
197.9183081261103
 20
112.6131509712357
 30
0.0
  0
SPLINE
  5
11F
330
1F
100
AcDbEntity
  8
0
  6
HIDDEN
 62
     7
370
     0
100
AcDbSpline
210
0.0
220
0.0
230
1.0
 70
     8
 71
     3
 72
     8
 73
     4
 74
     0
 42
0.00000001
 43
0.00000001
 40
0.0
 40
0.0
 40
0.0
 40
0.0
 40
1.0
 40
1.0
 40
1.0
 40
1.0
 10
200.7771907351477
 20
113.6741406847243
 30
0.0
 10
201.3343160608692
 20
113.8637269303254
 30
0.0
 10
201.893876129881
 20
114.0462354139372
 30
0.0
 10
202.4552518528654
 20
114.2234658188599
 30
0.0
  0
SPLINE
  5
120
330
1F
100
AcDbEntity
  8
0
  6
HIDDEN
 62
     7
370
     0
100
AcDbSpline
210
0.0
220
0.0
230
1.0
 70
     8
 71
     3
 72
     8
 73
     4
 74
     0
 42
0.00000001
 43
0.00000001
 40
0.0
 40
0.0
 40
0.0
 40
0.0
 40
1.0
 40
1.0
 40
1.0
 40
1.0
 10
203.1850228081544
 20
119.3433230802948
 30
0.0
 10
200.3321789409773
 20
118.8301132156629
 30
0.0
 10
197.4797361691334
 20
118.3147282142611
 30
0.0
 10
194.6279708194662
 20
117.7956695578385
 30
0.0
  0
LINE
  5
121
330
1F
100
AcDbEntity
  8
0
  6
HIDDEN
 62
     7
370
     0
100
AcDbLine
 10
192.9134779667
 20
108.7013342234
 30
0.0
 11
192.9134779667
 21
103.6191644337
 31
0.0
  0
SPLINE
  5
122
330
1F
100
AcDbEntity
  8
0
  6
HIDDEN
 62
     7
370
     0
100
AcDbSpline
210
0.0
220
0.0
230
1.0
 70
     8
 71
     3
 72
    20
 73
    16
 74
     0
 42
0.00000001
 43
0.00000001
 40
0.0
 40
0.0
 40
0.0
 40
0.0
 40
0.0624999999999999
 40
0.0624999999999999
 40
0.1249999999999999
 40
0.1249999999999999
 40
0.2499999999999999
 40
0.2499999999999999
 40
0.3749999999999999
 40
0.3749999999999999
 40
0.4999999999999999
 40
0.4999999999999999
 40
0.75
 40
0.75
 40
1.0
 40
1.0
 40
1.0
 40
1.0
 10
192.9134779666845
 20
108.701334223406
 30
0.0
 10
192.9134779666845
 20
108.8415527863953
 30
0.0
 10
192.9337327077017
 20
108.9781377810984
 30
0.0
 10
193.0090386962651
 20
109.2450655044357
 30
0.0
 10
193.0643387781607
 20
109.3747822857933
 30
0.0
 10
193.262708002355
 20
109.738929519994
 30
0.0
 10
193.4412584872236
 20
109.9580403172793
 30
0.0
 10
193.8297121498134
 20
110.3520424979689
 30
0.0
 10
194.0419358439736
 20
110.5297645532607
 30
0.0
 10
194.4870831737641
 20
110.8630339715001
 30
0.0
 10
194.7188425058928
 20
111.0171658544954
 30
0.0
 10
195.4243346837425
 20
111.4514471350503
 30
0.0
 10
195.9116701952776
 20
111.7068056641854
 30
0.0
 10
196.9033263795021
 20
112.1834050543762
 30
0.0
 10
197.4080701011074
 20
112.4037961476634
 30
0.0
 10
197.9183081261103
 20
112.6131509712357
 30
0.0
  0
ELLIPSE
  5
123
330
1F
100
AcDbEntity
  8
0
  6
HIDDEN
 62
     7
370
     0
100
AcDbEllipse
 10
203.5139407843
 20
109.9013305458
 30
0.0
 11
0.1781565915179897
 21
10.26676435720978
 31
0.0
210
0.0
220
0.0
230
1.0
 40
0.121580963
 41
0.4056825727052681
 42
1.138378145628652
  0
ELLIPSE
  5
124
330
1F
100
AcDbEntity
  8
0
  6
HIDDEN
 62
     7
370
     0
100
AcDbEllipse
 10
211.7585119199
 20
113.4864460654
 30
0.0
 11
20.50769711836898
 21
11.72288267354597
 31
0.0
210
0.0
220
0.0
230
1.0
 40
0.0004976935
 41
2.735857871792764
 42
2.816783856233551
  0
LINE
  5
125
330
1F
100
AcDbEntity
  8
0
  6
HIDDEN
 62
     7
370
     0
100
AcDbLine
 10
203.1850228082
 20
110.7350100284
 30
0.0
 11
203.4919842104
 21
111.1365416117
 31
0.0
  0
LINE
  5
126
330
1F
100
AcDbEntity
  8
0
  6
HIDDEN
 62
     7
370
     0
100
AcDbLine
 10
196.8458512099
 20
109.9760538242
 30
0.0
 11
203.4919842104
 21
111.1365416117
 31
0.0
  0
CIRCLE
  5
127
330
1F
100
AcDbEntity
  8
0
  6
HIDDEN
 62
     7
370
     0
100
AcDbCircle
 10
199.1249302362
 20
114.5658065471
 30
0.0
 40
2.09381701442
  0
LINE
  5
128
330
1F
100
AcDbEntity
  8
0
  6
HIDDEN
 62
     7
370
     0
100
AcDbLine
 10
196.8458512099
 20
109.6281210718
 30
0.0
 11
203.1850228082
 21
110.7350100284
 31
0.0
  0
LINE
  5
129
330
1F
100
AcDbEntity
  8
0
  6
HIDDEN
 62
     7
370
     0
100
AcDbLine
 10
203.1850228082
 20
110.7350100284
 30
0.0
 11
203.1850228082
 21
119.3433230803
 31
0.0
  0
ARC
  5
12A
330
1F
100
AcDbEntity
  8
0
  6
HIDDEN
 62
     7
370
     0
100
AcDbCircle
 10
199.1289859448
 20
114.5149896987
 30
0.0
 40
1.660005533175385
100
AcDbArc
 50
269.9649625274
 51
305.3324839951
  0
ARC
  5
12B
330
1F
100
AcDbEntity
  8
0
  6
HIDDEN
 62
     7
370
     0
100
AcDbCircle
 10
199.135013226
 20
114.49981359
 30
0.0
 40
1.644844190138633
100
AcDbArc
 50
317.3954520395
 51
269.7546871559
  0
ARC
  5
12C
330
1F
100
AcDbEntity
  8
0
  6
HIDDEN
 62
     7
370
     0
100
AcDbCircle
 10
199.1266311889
 20
113.7394584807
 30
0.0
 40
1.651851455194361
100
AcDbArc
 50
222.98802712
 51
357.7338095512
  0
ELLIPSE
  5
12D
330
1F
100
AcDbEntity
  8
0
  6
HIDDEN
 62
     7
370
     0
100
AcDbEllipse
 10
205.4326751409
 20
109.8703882715
 30
0.0
 11
14.69472846353656
 21
8.399996482120656
 31
0.0
210
0.0
220
0.0
230
1.0
 40
0.0005232068
 41
1.843424434944928
 42
2.590198334830605
  0
LINE
  5
12E
330
1F
100
AcDbEntity
  8
0
  6
HIDDEN
 62
     7
370
     0
100
AcDbLine
 10
202.4552518529
 20
114.2234658189
 30
0.0
 11
202.4552518529
 21
109.3133440395
 31
0.0
  0
LINE
  5
12F
330
1F
100
AcDbEntity
  8
0
  6
HIDDEN
 62
     7
370
     0
100
AcDbLine
 10
199.9208462025
 20
113.6598585336
 30
0.0
 11
199.9208462025
 21
113.8501332036
 31
0.0
  0
LINE
  5
130
330
1F
100
AcDbEntity
  8
0
  6
HIDDEN
 62
     7
370
     0
100
AcDbLine
 10
197.9288565531
 20
114.0818875438
 30
0.0
 11
197.9288565531
 21
113.8894341089
 31
0.0
  0
LINE
  5
131
330
1F
100
AcDbEntity
  8
0
  6
HIDDEN
 62
     7
370
     0
100
AcDbLine
 10
199.9143470634
 20
113.7961403275
 30
0.0
 11
199.9143470634
 21
113.7680310991
 31
0.0
  0
LINE
  5
132
330
1F
100
AcDbEntity
  8
0
  6
HIDDEN
 62
     7
370
     0
100
AcDbLine
 10
200.7826132085
 20
114.6788055053
 30
0.0
 11
200.7826132085
 21
114.8736478466
 31
0.0
  0
LINE
  5
133
330
1F
100
AcDbEntity
  8
0
  6
HIDDEN
 62
     7
370
     0
100
AcDbLine
 10
197.4686339098
 20
115.3328143679
 30
0.0
 11
197.4686339098
 21
115.1379566558
 31
0.0
  0
LINE
  5
134
330
1F
100
AcDbEntity
  8
0
  6
HIDDEN
 62
     7
370
     0
100
AcDbLine
 10
200.3223905652
 20
115.9273280522
 30
0.0
 11
200.3223905652
 21
116.1221703936
 31
0.0
  0
LINE
  5
135
330
1F
100
AcDbEntity
  8
0
  6
HIDDEN
 62
     7
370
     0
100
AcDbLine
 10
198.3304009158
 20
116.3472049883
 30
0.0
 11
198.3304009158
 21
116.1569036275
 31
0.0
  0
SPLINE
  5
136
330
1F
100
AcDbEntity
  8
0
  6
HIDDEN
 62
     7
370
     0
100
AcDbSpline
210
0.0
220
0.0
230
1.0
 70
     8
 71
     3
 72
    19
 73
    15
 74
     0
 42
0.00000001
 43
0.00000001
 40
0.0
 40
0.0
 40
0.0
 40
0.0
 40
0.0339204674168787
 40
0.1257856168317613
 40
0.2180471252072402
 40
0.3108298809773426
 40
0.4042953103343918
 40
0.498472702869887
 40
0.5932206038276622
 40
0.6882335964192021
 40
0.7829960849141491
 40
0.8771840384892374
 40
0.9706502340036798
 40
1.0
 40
1.0
 40
1.0
 40
1.0
 10
198.8104628147456
 20
112.9487605104394
 30
0.0
 10
198.7592584355845
 20
112.9590875223525
 30
0.0
 10
198.5693797308451
 20
112.9973826775327
 30
0.0
 10
198.2553059228785
 20
113.1230479231918
 30
0.0
 10
197.9059490351762
 20
113.3642695123326
 30
0.0
 10
197.62361321748
 20
113.679592088804
 30
0.0
 10
197.4235919663235
 20
114.0509106096721
 30
0.0
 10
197.3172596843297
 20
114.4589586010471
 30
0.0
 10
197.3113800365175
 20
114.8818188018877
 30
0.0
 10
197.4077367154283
 20
115.2951067964721
 30
0.0
 10
197.6005208725891
 20
115.6770282386483
 30
0.0
 10
197.8825816785457
 20
115.9968422034547
 30
0.0
 10
198.1460289241068
 20
116.2059131987429
 30
0.0
 10
198.32247253537
 20
116.272924042999
 30
0.0
 10
198.3646378910649
 20
116.2889378621633
 30
0.0
  0
ARC
  5
137
330
1F
100
AcDbEntity
  8
0
  6
HIDDEN
 62
     7
370
     0
100
AcDbCircle
 10
199.1513395596
 20
114.6871662176
 30
0.0
 40
1.771511038027138
100
AcDbArc
 50
258.9058681741
 51
100.0543111314
  0
LINE
  5
138
330
1F
100
AcDbEntity
  8
0
  6
HIDDEN
 62
     7
370
     0
100
AcDbLine
 10
197.1279708195
 20
114.575214112
 30
0.0
 11
197.1279708195
 21
113.8654312971
 31
0.0
  0
LINE
  5
139
330
1F
100
AcDbEntity
  8
0
  6
HIDDEN
 62
     7
370
     0
100
AcDbLine
 10
201.1279708195
 20
113.8654312971
 30
0.0
 11
201.1279708195
 21
114.575214112
 31
0.0
  0
LINE
  5
13A
330
1F
100
AcDbEntity
  8
0
  6
HIDDEN
 62
     7
370
     0
100
AcDbLine
 10
203.5724775149
 20
111.122515267
 30
0.0
 11
203.6479206028
 21
111.1641207683
 31
0.0
  0
LINE
  5
13B
330
1F
100
AcDbEntity
  8
0
  6
HIDDEN
 62
     7
370
     0
100
AcDbLine
 10
196.1599775149
 20
115.2008525507
 30
0.0
 11
196.1599775149
 21
115.0408034846
 31
0.0
  0
LINE
  5
13C
330
1F
100
AcDbEntity
  8
0
  6
HIDDEN
 62
     7
370
     0
100
AcDbLine
 10
202.2599775149
 20
115.0408034846
 30
0.0
 11
202.2599775149
 21
115.2008525507
 31
0.0
  0
SPLINE
  5
13D
330
1F
100
AcDbEntity
  8
0
  6
HIDDEN
 62
     7
370
     0
100
AcDbSpline
210
0.0
220
0.0
230
1.0
 70
     8
 71
     3
 72
    21
 73
    17
 74
     0
 42
0.00000001
 43
0.00000001
 40
0.0
 40
0.0
 40
0.0
 40
0.0
 40
0.0710532854899479
 40
0.143566764069901
 40
0.2159869300094445
 40
0.2882266126992111
 40
0.3602397765752826
 40
0.4320256233003142
 40
0.5036222187983216
 40
0.5750953753318319
 40
0.6465265785374612
 40
0.7179757209556625
 40
0.7895289172228105
 40
0.8612594325903016
 40
0.9332149120777273
 40
1.0
 40
1.0
 40
1.0
 40
1.0
 10
201.4073927809944
 20
114.9268300573877
 30
0.0
 10
201.4042281847933
 20
114.7740321600811
 30
0.0
 10
201.3978339577982
 20
114.4652962652985
 30
0.0
 10
201.2602163638525
 20
114.0166334229498
 30
0.0
 10
201.0340865325445
 20
113.6034068413628
 30
0.0
 10
200.7212343945218
 20
113.24776507091
 30
0.0
 10
200.3390524141709
 20
112.9664214315704
 30
0.0
 10
199.9048770518511
 20
112.7722925074024
 30
0.0
 10
199.4391999777277
 20
112.6740802526222
 30
0.0
 10
198.9635455515073
 20
112.6759500063882
 30
0.0
 10
198.4997322142818
 20
112.7774490988347
 30
0.0
 10
198.0690867187884
 20
112.9736651222131
 30
0.0
 10
197.6903190097938
 20
113.2553174427041
 30
0.0
 10
197.3833526929558
 20
113.6101889137462
 30
0.0
 10
197.1572257180291
 20
114.0099930412407
 30
0.0
 10
197.0863368460146
 20
114.3002898986129
 30
0.0
 10
197.0522133042231
 20
114.4400291364229
 30
0.0
  0
LINE
  5
13E
330
1F
100
AcDbEntity
  8
0
  6
HIDDEN
 62
     7
370
     0
100
AcDbLine
 10
197.0099775149
 20
114.844106049
 30
0.0
 11
197.0099775149
 21
114.6483353398
 31
0.0
  0
LINE
  5
13F
330
1F
100
AcDbEntity
  8
0
  6
HIDDEN
 62
     7
370
     0
100
AcDbLine
 10
201.4099775149
 20
114.6483353398
 30
0.0
 11
201.4099775149
 21
114.844106049
 31
0.0
  0
LINE
  5
140
330
1F
100
AcDbEntity
  8
0
  6
HIDDEN
 62
     7
370
     0
100
AcDbLine
 10
187.4455879774
 20
114.6938399931
 30
0.0
 11
180.3157337821
 21
111.3691343803
 31
0.0
  0
LINE
  5
141
330
1F
100
AcDbEntity
  8
0
  6
HIDDEN
 62
     7
370
     0
100
AcDbLine
 10
182.3478041692
 20
109.0065706068
 30
0.0
 11
189.9009899561
 21
112.5286789827
 31
0.0
  0
LINE
  5
142
330
1F
100
AcDbEntity
  8
0
  6
HIDDEN
 62
     7
370
     0
100
AcDbLine
 10
180.7079263293
 20
108.2418830116
 30
0.0
 11
180.9962376969
 21
108.3763248103
 31
0.0
  0
LINE
  5
143
330
1F
100
AcDbEntity
  8
0
  6
HIDDEN
 62
     7
370
     0
100
AcDbLine
 10
93.9724775149
 20
107.6203882715
 30
0.0
 11
95.2715156206
 21
108.3703882715
 31
0.0
  0
LINE
  5
144
330
1F
100
AcDbEntity
  8
0
  6
HIDDEN
 62
     7
370
     0
100
AcDbLine
 10
95.2715156206
 20
111.3703882715
 30
0.0
 11
93.9724775149
 21
112.1203882715
 31
0.0
  0
LINE
  5
145
330
1F
100
AcDbEntity
  8
0
  6
HIDDEN
 62
     7
370
     0
100
AcDbLine
 10
193.5779708195
 20
110.5150616361
 30
0.0
 11
193.5779708195
 21
109.9308556203
 31
0.0
  0
LINE
  5
146
330
1F
100
AcDbEntity
  8
0
  6
HIDDEN
 62
     7
370
     0
100
AcDbLine
 10
196.8779708195
 20
109.9308556203
 30
0.0
 11
196.8779708195
 21
109.9489481234
 31
0.0
  0
LINE
  5
147
330
1F
100
AcDbEntity
  8
0
  6
HIDDEN
 62
     7
370
     0
100
AcDbLine
 10
181.9724775149
 20
108.3703882715
 30
0.0
 11
182.3681644995
 21
109.0289220013
 31
0.0
  0
LINE
  5
148
330
1F
100
AcDbEntity
  8
0
  6
HIDDEN
 62
     7
370
     0
100
AcDbLine
 10
180.9640596965
 20
108.3703882715
 30
0.0
 11
181.9724775149
 21
108.3703882715
 31
0.0
  0
LINE
  5
149
330
1F
100
AcDbEntity
  8
0
  6
HIDDEN
 62
     7
370
     0
100
AcDbLine
 10
95.2715156206
 20
108.3703882715
 30
0.0
 11
180.6126529357
 21
108.3703882715
 31
0.0
  0
LINE
  5
14A
330
1F
100
AcDbEntity
  8
0
  6
HIDDEN
 62
     7
370
     0
100
AcDbLine
 10
180.3203240739
 20
111.3703882715
 30
0.0
 11
95.2715156206
 21
111.3703882715
 31
0.0
  0
ARC
  5
14B
330
1F
100
AcDbEntity
  8
0
  6
HIDDEN
 62
     7
370
     0
100
AcDbCircle
 10
191.8003197032
 20
121.1203882715
 30
0.0
 40
3.0
100
AcDbArc
 50
270.0
 51
280.0
  0
LINE
  5
14C
330
1F
100
AcDbEntity
  8
0
  6
HIDDEN
 62
     7
370
     0
100
AcDbLine
 10
194.4850357699
 20
118.5474963139
 30
0.0
 11
194.4474775149
 21
118.5408737802
 31
0.0
  0
LINE
  5
14D
330
1F
100
AcDbEntity
  8
0
  6
HIDDEN
 62
     7
370
     0
100
AcDbLine
 10
197.4779708195
 20
114.4889267894
 30
0.0
 11
197.4779708195
 21
113.8248188206
 31
0.0
  0
LINE
  5
14E
330
1F
100
AcDbEntity
  8
0
  6
HIDDEN
 62
     7
370
     0
100
AcDbLine
 10
200.7779708195
 20
113.7289571338
 30
0.0
 11
200.7779708195
 21
114.4889267894
 31
0.0
  0
LINE
  5
14F
330
1F
100
AcDbEntity
  8
VERMASSUNG
100
AcDbLine
 10
168.2691967899
 20
109.8703882715
 30
0.0
 11
168.8049862006
 21
109.8703882715
 31
0.0
  0
POINT
  5
150
330
1F
100
AcDbEntity
  8
VERMASSUNG
100
AcDbPoint
 10
203.9724775149
 20
120.7453882715
 30
0.0
  0
DIMENSION
  5
151
330
1F
100
AcDbEntity
  8
VERMASSUNG
100
AcDbDimension
  2
*D1
 10
212.0912033468
 20
98.9953882715
 30
0.0
 11
212.0912033468
 21
108.5407974833
 31
0.0
 70
   160
  1
%%c<>-27.1
 71
     2
 42
-1.0
  3
SLDDIMSTYLE0
100
AcDbAlignedDimension
 13
203.9724775149
 23
120.7453882715
 33
0.0
 14
203.9724775149
 24
98.9953882715
 34
0.0
 50
90.0
100
AcDbRotatedDimension
  0
DIMENSION
  5
15C
330
1F
100
AcDbEntity
  8
VERMASSUNG
100
AcDbDimension
  2
*D2
 10
93.9724775149
 20
128.1898838038
 30
0.0
 11
145.5655689097
 21
128.1898838038
 31
0.0
 70
   160
 71
     2
 42
-1.0
  3
SLDDIMSTYLE1
100
AcDbAlignedDimension
 13
203.9724775149
 23
120.7453882715
 33
0.0
 14
93.9724775149
 24
116.0703882715
 34
0.0
100
AcDbRotatedDimension
  0
DIMENSION
  5
167
330
1F
100
AcDbEntity
  8
VERMASSUNG
100
AcDbDimension
  2
*D3
 10
87.6644205363
 20
101.8703882715
 30
0.0
 11
87.6644205363
 21
109.9561473622
 31
0.0
 70
   160
  1
%%c<>
 71
     2
 42
-1.0
  3
SLDDIMSTYLE1
100
AcDbAlignedDimension
 13
105.2724775149
 23
117.8703882715
 33
0.0
 14
95.3474775149
 24
101.8703882715
 34
0.0
 50
90.0
100
AcDbRotatedDimension
  0
LINE
  5
172
330
1F
100
AcDbEntity
  8
VERMASSUNG
  6
CENTERX2
 62
     7
370
     0
100
AcDbLine
 10
91.9724775149
 20
109.8703882715
 30
0.0
 11
205.4070383219
 21
109.8703882715
 31
0.0
  0
LINE
  5
173
330
1F
100
AcDbEntity
  8
VERMASSUNG
  6
CENTERX2
 62
     7
370
     0
100
AcDbLine
 10
194.5524761761
 20
116.3527695073
 30
0.0
 11
177.2138192449
 21
108.2676209982
 31
0.0
  0
OLE2FRAME
  5
174
330
1F
100
AcDbEntity
  8
0
100
AcDbOle2Frame
 70
     2
  3
Paintbrush-Bild
 10
13.8511154363
 20
38.264191557
 30
0.0
 11
51.6290888628
 21
31.9806341108
 31
0.0
 71
     2
 72
     0
 73
     1
 90
    12928
310
80552BED0767C5B32B40DDAF6807D121434000000000000000006FFBDDFB85D0
310
4940DDAF6807D121434000000000000000006FFBDDFB85D04940416F4BD60AFB
310
3F4000000000000000002BED0767C5B32B40416F4BD60AFB3F40000000000000
310
0000000000000100000000010000010000000100000000000100000000320000
310
D0CF11E0A1B11AE1000000000000000000000000000000003E000300FEFF0900
310
0600000000000000000000000100000001000000000000000010000002000000
310
01000000FEFFFFFF0000000000000000FFFFFFFFFFFFFFFFFFFFFFFFFFFFFFFF
310
FFFFFFFFFFFFFFFFFFFFFFFFFFFFFFFFFFFFFFFFFFFFFFFFFFFFFFFFFFFFFFFF
310
FFFFFFFFFFFFFFFFFFFFFFFFFFFFFFFFFFFFFFFFFFFFFFFFFFFFFFFFFFFFFFFF
310
FFFFFFFFFFFFFFFFFFFFFFFFFFFFFFFFFFFFFFFFFFFFFFFFFFFFFFFFFFFFFFFF
310
FFFFFFFFFFFFFFFFFFFFFFFFFFFFFFFFFFFFFFFFFFFFFFFFFFFFFFFFFFFFFFFF
310
FFFFFFFFFFFFFFFFFFFFFFFFFFFFFFFFFFFFFFFFFFFFFFFFFFFFFFFFFFFFFFFF
310
FFFFFFFFFFFFFFFFFFFFFFFFFFFFFFFFFFFFFFFFFFFFFFFFFFFFFFFFFFFFFFFF
310
FFFFFFFFFFFFFFFFFFFFFFFFFFFFFFFFFFFFFFFFFFFFFFFFFFFFFFFFFFFFFFFF
310
FFFFFFFFFFFFFFFFFFFFFFFFFFFFFFFFFFFFFFFFFFFFFFFFFFFFFFFFFFFFFFFF
310
FFFFFFFFFFFFFFFFFFFFFFFFFFFFFFFFFFFFFFFFFFFFFFFFFFFFFFFFFFFFFFFF
310
FFFFFFFFFFFFFFFFFFFFFFFFFFFFFFFFFFFFFFFFFFFFFFFFFFFFFFFFFFFFFFFF
310
FFFFFFFFFFFFFFFFFFFFFFFFFFFFFFFFFFFFFFFFFFFFFFFFFFFFFFFFFFFFFFFF
310
FFFFFFFFFFFFFFFFFFFFFFFFFFFFFFFFFFFFFFFFFFFFFFFFFFFFFFFFFFFFFFFF
310
FFFFFFFFFFFFFFFFFFFFFFFFFFFFFFFFFFFFFFFFFFFFFFFFFFFFFFFFFFFFFFFF
310
FDFFFFFFFEFFFFFFFEFFFFFFFEFFFFFF05000000060000000700000008000000
310
090000000A0000000B0000000C0000000D0000000E0000000F00000010000000
310
11000000120000001300000014000000150000001600000017000000FEFFFFFF
310
FFFFFFFFFFFFFFFFFFFFFFFFFFFFFFFFFFFFFFFFFFFFFFFFFFFFFFFFFFFFFFFF
310
FFFFFFFFFFFFFFFFFFFFFFFFFFFFFFFFFFFFFFFFFFFFFFFFFFFFFFFFFFFFFFFF
310
FFFFFFFFFFFFFFFFFFFFFFFFFFFFFFFFFFFFFFFFFFFFFFFFFFFFFFFFFFFFFFFF
310
FFFFFFFFFFFFFFFFFFFFFFFFFFFFFFFFFFFFFFFFFFFFFFFFFFFFFFFFFFFFFFFF
310
FFFFFFFFFFFFFFFFFFFFFFFFFFFFFFFFFFFFFFFFFFFFFFFFFFFFFFFFFFFFFFFF
310
FFFFFFFFFFFFFFFFFFFFFFFFFFFFFFFFFFFFFFFFFFFFFFFFFFFFFFFFFFFFFFFF
310
FFFFFFFFFFFFFFFFFFFFFFFFFFFFFFFFFFFFFFFFFFFFFFFFFFFFFFFFFFFFFFFF
310
FFFFFFFFFFFFFFFFFFFFFFFFFFFFFFFFFFFFFFFFFFFFFFFFFFFFFFFFFFFFFFFF
310
FFFFFFFFFFFFFFFFFFFFFFFFFFFFFFFFFFFFFFFFFFFFFFFFFFFFFFFFFFFFFFFF
310
FFFFFFFFFFFFFFFFFFFFFFFFFFFFFFFFFFFFFFFFFFFFFFFFFFFFFFFFFFFFFFFF
310
FFFFFFFFFFFFFFFFFFFFFFFFFFFFFFFFFFFFFFFFFFFFFFFFFFFFFFFFFFFFFFFF
310
FFFFFFFFFFFFFFFFFFFFFFFFFFFFFFFFFFFFFFFFFFFFFFFFFFFFFFFFFFFFFFFF
310
FFFFFFFFFFFFFFFFFFFFFFFFFFFFFFFFFFFFFFFFFFFFFFFFFFFFFFFFFFFFFFFF
310
52006F006F007400200045006E00740072007900000000000000000000000000
310
0000000000000000000000000000000000000000000000000000000000000000
310
16000500FFFFFFFFFFFFFFFF020000000A00030000000000C000000000000046
310
00000000000000000000000020E275DEC4F7CC0103000000C000000000000000
310
01004F006C006500000000000000000000000000000000000000000000000000
310
0000000000000000000000000000000000000000000000000000000000000000
310
0A000200FFFFFFFFFFFFFFFFFFFFFFFF00000000000000000000000000000000
310
0000000000000000000000000000000000000000000000001400000000000000
310
010043006F006D0070004F0062006A0000000000000000000000000000000000
310
0000000000000000000000000000000000000000000000000000000000000000
310
120002010100000003000000FFFFFFFF00000000000000000000000000000000
310
0000000000000000000000000000000000000000010000004D00000000000000
310
01004F006C006500310030004E00610074006900760065000000000000000000
310
0000000000000000000000000000000000000000000000000000000000000000
310
1A000200FFFFFFFFFFFFFFFFFFFFFFFF00000000000000000000000000000000
310
0000000000000000000000000000000000000000040000002426000000000000
310
FEFFFFFF02000000FEFFFFFFFFFFFFFFFFFFFFFFFFFFFFFFFFFFFFFFFFFFFFFF
310
FFFFFFFFFFFFFFFFFFFFFFFFFFFFFFFFFFFFFFFFFFFFFFFFFFFFFFFFFFFFFFFF
310
FFFFFFFFFFFFFFFFFFFFFFFFFFFFFFFFFFFFFFFFFFFFFFFFFFFFFFFFFFFFFFFF
310
FFFFFFFFFFFFFFFFFFFFFFFFFFFFFFFFFFFFFFFFFFFFFFFFFFFFFFFFFFFFFFFF
310
FFFFFFFFFFFFFFFFFFFFFFFFFFFFFFFFFFFFFFFFFFFFFFFFFFFFFFFFFFFFFFFF
310
FFFFFFFFFFFFFFFFFFFFFFFFFFFFFFFFFFFFFFFFFFFFFFFFFFFFFFFFFFFFFFFF
310
FFFFFFFFFFFFFFFFFFFFFFFFFFFFFFFFFFFFFFFFFFFFFFFFFFFFFFFFFFFFFFFF
310
FFFFFFFFFFFFFFFFFFFFFFFFFFFFFFFFFFFFFFFFFFFFFFFFFFFFFFFFFFFFFFFF
310
FFFFFFFFFFFFFFFFFFFFFFFFFFFFFFFFFFFFFFFFFFFFFFFFFFFFFFFFFFFFFFFF
310
FFFFFFFFFFFFFFFFFFFFFFFFFFFFFFFFFFFFFFFFFFFFFFFFFFFFFFFFFFFFFFFF
310
FFFFFFFFFFFFFFFFFFFFFFFFFFFFFFFFFFFFFFFFFFFFFFFFFFFFFFFFFFFFFFFF
310
FFFFFFFFFFFFFFFFFFFFFFFFFFFFFFFFFFFFFFFFFFFFFFFFFFFFFFFFFFFFFFFF
310
FFFFFFFFFFFFFFFFFFFFFFFFFFFFFFFFFFFFFFFFFFFFFFFFFFFFFFFFFFFFFFFF
310
FFFFFFFFFFFFFFFFFFFFFFFFFFFFFFFFFFFFFFFFFFFFFFFFFFFFFFFFFFFFFFFF
310
FFFFFFFFFFFFFFFFFFFFFFFFFFFFFFFFFFFFFFFFFFFFFFFFFFFFFFFFFFFFFFFF
310
FFFFFFFFFFFFFFFFFFFFFFFFFFFFFFFFFFFFFFFFFFFFFFFFFFFFFFFFFFFFFFFF
310
0100000200000000000000000000000000000000000000000000000000000000
310
0000000000000000000000000000000000000000000000000000000000000000
310
0100FEFF030A0000FFFFFFFF0A00030000000000C00000000000004607000000
310
5042727573680007000000504272757368000700000050427275736800F439B2
310
7100000000000000000000000000000000000000000000000000000000000000
310
0000000000000000000000000000000000000000000000000000000000000000
310
0000000000000000000000000000000000000000000000000000000000000000
310
0000000000000000000000000000000000000000000000000000000000000000
310
0000000000000000000000000000000000000000000000000000000000000000
310
0000000000000000000000000000000000000000000000000000000000000000
310
0000000000000000000000000000000000000000000000000000000000000000
310
0000000000000000000000000000000000000000000000000000000000000000
310
0000000000000000000000000000000000000000000000000000000000000000
310
0000000000000000000000000000000000000000000000000000000000000000
310
0000000000000000000000000000000000000000000000000000000000000000
310
0000000000000000000000000000000000000000000000000000000000000000
310
20260000424D0E260000000000003E00000028000000B40200006E0000000100
310
01000000000000000000130B0000130B00000200000002000000000000FFFFFF
310
FFFFFFFFFFFFFFFFFFFFFFFFFFFFFFFFFFFFFFFFFFFFFFFFFFFFFFFFFFFFFFFF
310
FFFFFFFFFFFFFFFFFFFFFFFFFFFFFFFFFFFFFFFFFFFFFFFFFFFFFFFFFFFFFFFF
310
FFFFFFFFFFFFFFFFFFFFFFFFFFFFFFFFFFFFFFFFFFFFFFFFF000FFFFFFFFFFFF
310
FFFFFFFFFFFFFFFFFFFFFFFFFFFFFFFFFFFFFFFFFFFFFFFFFFFFFFFFFFFFFFFF
310
FFFFFFFFFFFFFFFFFFFFFFFFFFFFFFFFFFFFFFFFFFFFFFFFFFFFFFFFFFFFFFFF
310
FFFFFFFFFFFFFFFFFFFFFFFFFFFFFFFFF000FFFFFFFFFFFFFFFFFFFFFFFFFFFF
310
FFFFFFFFFFFFFFFFFFFFFFFFFFFFFFFFFFFFFFFFFFFFFFFFFFFFFFFFFFFFFFFF
310
FFFFFFFFFFFFFFFFFFFFFFFFFFFFFFFFFFFFFFFFFFFFFFFFFFFFFFFFFFFFFFFF
310
FFFFFFFFFFFFFFFFF000FFFFFFFFFFFFFFFFFFFFFFFFFFFFFFFFFFFFFFFFFFFF
310
FFFFFFFFFFFFFFFFFFFFFFFFFFFFFFFFFFFFFFFFFFFFFFFFFFFFFFFFFFFFFFFF
310
FFFFFFFFFFFFFFFFFFFFFFFFFFFFFFFFFFFFFFFFFFFFFFFFFFFFFFFFFFFFFFFF
310
F000FFFFFFFFFFFFFFFFFFFFFFFFFFFFFFFFFFFFFFFFFFFFFFFFFFFFFFFFFFFF
310
FFFFFFFFFFFFFFFFFFFFFFFFFFFFFFFFFFFFFFFFFFFFFFFFFFFFFFFFFFFFFFFF
310
FFFFFFFFFFFFFFFFFFFFFFFFFFFFFFFFFFFFFFFFFFFFFFFFF000FFFFFFFFFFFF
310
FFFFFFFFFFFFFFFFFFFFFFFFFFFFFFFFFFFFFFFFFFFFFFFFFFFFFFFFFFFFFFFF
310
FFFFFFFFFFFFFFFFFFFFFFFFFFFFFFFFFFFFFFFFFFFFFFFFFFFFFFFFFFFFFFFF
310
FFFFFFFFFFFFFFFFFFFFFFFFFFFFFFFFF000FFFFFFFFFFFFFFFFFFFFFFFFFFFF
310
FFFFFFFFFFFFFFFFFFFFFFFFFFFFFFFFFFFFFFFFFFFFFFFFFFFFFFFFFFFFFFFF
310
FFFFFFFFFFFFFFFFFFFFFFFFFFFFFFFFFFFFFFFFFFFFFFFFFFFFFFFFFFFFFFFF
310
FFFFFFFFFFFFFFFFF000FFFFFFFFFFFFFFFFFFFFFFFFFFFFFFFFFFFFFFFFFFFF
310
FFFFFFFFFFFFFFFFFFFFFFFFFFFFFFFFFFFFFFFFFFFFFFFFFFFFFFFFFFFFFFFF
310
FFFFFFFFFFFFFFFFFFFFFFFFFFFFFFFFFFFFFFFFFFFFFFFFFFFFFFFFFFFFFFFF
310
F000FFFFFFFFFFFFFFFFFFFFFFFFFFFFFFFFFFFFFFFFFFFFFFFFFFFFFFFFFFFF
310
FFFFFFFFFFFFFFFFFFFFFFFFFFFFFFFFFFFFFFFFFFFFFFFFFFFFFFFFFFFFFFFF
310
FFFFFFFFFFFFFFFFFFFFFFFFFFFFFFFFFFFFFFFFFFFFFFFFF000FFFFFFFFFFFF
310
FFFFFFFFFFFFFFFFFFFFFFFFFFFFFFFFFFFFFFFFFFFFFFFFFFFFFFFFFFFFFFFF
310
FFFFFFFFFFFFFFFFFFFFFFFFFFFFFFFFFFFFFFFFFFFFFFFFFFFFFFFFFFFFFFFF
310
FFFFFFFFFFFFFFFFFFFFFFFFFFFFFFFFF000FFFFFFFFFFFFFFFFFFFFFFFFFFFF
310
FFFFFFFFFFFFFFFFFFFFFFFFFFFFFFFFFFFFFFFFFFFFFFFFFFFFFFFFFFFFFFFF
310
FFFFFFFFFFFFFFFFFFFFFFFFFFFFFFFFFFFFFFFFFFFFFFFFFFFFFFFFFFFFFFFF
310
FFFFFFFFFFFFFFFFF000FFFFFFFFFFFFFFFFFFFFFFFFFFFFFFFFFFFFFFFFFFFF
310
FFFFFFFFFFFFFFFFFFFFFFFFFFFFFFFFFFFFFFFFFFFFFFFFFFFFFFFFFFFFFFFF
310
FFFFFFFFFFFFFFFFFFFFFFFFFFFFFFFFFFFFFFFFFFFFFFFFFFFFFFFFFFFFFFFF
310
F000FFFFFFFFFFFFFFFFFFFFFFFFFFFFFFFFFFFFFFFFFFFFFFFFFFFFFFFFFFFF
310
FFFFFFFFFFFFFFFFFFFFFFFFFFFFFFFFFFFFFFFFFFFFFFFFFFFFFFFFFFFFFFFF
310
FFFFFFFFFFFFFFFFFFFFFFFFFFFFFFFFFFFFFFFFFFFFFFFFF000FFFFFFFFFFFF
310
FFFFFFFFFFFFFFFFFFFFFFFFFFFFFFFFFFFFFFFFFFFFFFFFFFFFFFFFFFFFFFFF
310
FFFFFFFFFFFFFFFFFFFFFFFFFFFFFFFFFFFFFFFFFFFFFFFFFFFFFFFFFFFFFFFF
310
FFFFFFFFFFFFFFFFFFFFFFFFFFFFFFFFF000FFFFFFFFFFFFFFFFFFFFFFFFFFFF
310
FFFFFFFFFFFFFFFFFFFFFFFFFFFFFFFFFFFFFFFFFFFFFFFFFFFFFFFFFFFFFFFF
310
FFFFFFFFFFFFFFFFFFFFFFFFFFFFFFFFFFFFFFFFFFFFFFFFFFFFFFFFFFFFFFFF
310
FFFFFFFFFFFFFFFFF000FFFFFFFFFFFFFFFFFFFFFFFFFFFFFFFFFFFFFFFFFFFF
310
FFFFFFFFFFFFFFFFFFFFFFFFFFFFFFFFFFFFFFFFFFFFFFFFFFFFFFFFFFFFFFFF
310
FFFFFFFFFFFFFFFFFFFFFFFFFFFFFFFFFFFFFFFFFFFFFFFFFFFFFFFFFFFFFFFF
310
F000FFFFFFFFFFFFFFFFFFFFFFFFFFFFFFFFFFFFFFFFFFFFFFFFFFFFFFFFFFFF
310
FFFFFFFFFFFFFFFFFFFFFFFFFFFFFFFFFFFFFFFFFFFFFFFFFFFFFFFFFFFFFFFF
310
FFFFFFFFFFFFFFFFFFFFFFFFFFFFFFFFFFFFFFFFFFFFFFFFF000FFFFFFFFFFFF
310
FFFFFFFFFFFFFFFFFFFFFFFFFFFFFFFFFFFFFFFFFFFFFFFFFFFFFFFFFFFFFFFF
310
FFFFFFFFFFFFFFFFFFFFFFFFFFFFFFFFFFFFFFFFFFFFFFFFFFFFFFFFFFFFFFFF
310
FFFFFFFFFFFFFFFFFFFFFFFFFFFFFFFFF000FFFFFFFFFFFFFFFFFFFFFFFFFFFF
310
FFFFFFFFFFFFFFFFFFFFFFFFFFFFFFFFFFFFFFFFFFFFFFFFFFFFFFFFFFFFFFFF
310
FFFFFFFFFFFFFFFFFFFFFFFFFFFFFFFFFFFFFFFFFFFFFFFFFFFFFFFFFFFFFFFF
310
FFFFFFFFFFFFFFFFF000FFFFF80003FFFFFFFFFFFFFFFFFFFFFFFFFFFFFFFFFF
310
FFFFF00007FFFFFFFFFF00007FFFFFF800000000000000007FFFFFFFFFFFFFFF
310
FFFFFFFC001FFFFFFFFFFFFFFC001FFFFFFFFFFFFFFFFFFFFFFFFFFE0007FFFF
310
F000FFFF8000007FFFFFFFF8000FFFFFC0007FFFFF80007FFFFF0000007FFFFF
310
FFF8000007FFFFF800000000000000007FFFFFF0001FFFFFFFFFFFC00001FFFF
310
FFFFFFFFC00001FFFFFFFF000000000003FFFFE000007FFFF000FFFE0000000F
310
FFFFFFF0000FFFFF80007FFFFF80007FFFFC0000001FFFFFFFC0000001FFFFF8
310
00000000000000007FFFFFF0001FFFFFFFFFFE0000003FFFFFFFFFFE0000003F
310
FFFFFF000000000003FFFF0000000FFFF000FFF800000003FFFFFFF00007FFFF
310
80007FFFFF80007FFFF000000007FFFFFF000000003FFFF80000000000000000
310
7FFFFFF0001FFFFFFFFFF80000000FFFFFFFFFF80000000FFFFFFF0000000000
310
03FFFC00000003FFF000FFE000000000FFFFFFF00007FFFF80003FFFFF80007F
310
FFC000000001FFFFFC000000001FFFF800000000000000007FFFFFF0001FFFFF
310
FFFFE000000003FFFFFFFFE000000003FFFFFF000000000003FFF000000000FF
310
F000FF80000000007FFFFFF00007FFFF80003FFFFF80007FFF8000000000FFFF
310
F80000000007FFF800000000000000007FFFFFF0001FFFFFFFFFC000000001FF
310
FFFFFFC000000001FFFFFF000000000003FFC0000000007FF000FF0000000000
310
3FFFFFE00007FFFF00003FFFFF80007FFE00000000003FFFF00000000003FFF8
310
00000000000000007FFFFFF0001FFFFFFFFF8000000000FFFFFFFF8000000000
310
FFFFFF000000000003FF80000000003FF000FE00000000001FFFFFE00003FFFF
310
00003FFFFF80007FFC00000000001FFFE00000000001FFF8000001FFFE000000
310
7FFFFFF0001FFFFFFFFE00000000003FFFFFFE00000000003FFFFF0000000000
310
03FF00000000001FF000FC00000000000FFFFFE00003FFFF00001FFFFF80007F
310
F800000000001FFFC00000000000FFF8000001FFFE0000007FFFFFF0001FFFFF
310
FFFC00000000001FFFFFFC00000000001FFFFF000000000003FE00000000000F
310
F000F8000000000007FFFFE00003FFFF00001FFFFF80007FF800000000000FFF
310
800000000000FFF8000001FFFE0000007FFFFFF0001FFFFFFFF800000000000F
310
FFFFF800000000000FFFFF000000000003FC000000000007F000F80000000000
310
03FFFFC00003FFFE00001FFFFF80007FF0000000000007FF0000000000007FF8
310
000001FFFE0000007FFFFFF0001FFFFFFFF0000000000007FFFFF00000000000
310
07FFFF000000000003F8000000000003F000F0000000000003FFFFC00001FFFE
310
00001FFFFF80007FE0000000000007FE0000000000003FF8000001FFFE000000
310
7FFFFFF0001FFFFFFFF0000000000007FFFFF0000000000007FFFF0000000000
310
03F800001F800003F000E00001FFF00001FFFFC00001FFFE00000FFFFF80007F
310
E00001FFE00003FE00001FFF00003FF8000001FFFE0000007FFFFFF0001FFFFF
310
FFE000003E000003FFFFE000003E000003FFFF000000000003F00001FFF80001
310
F000E00007FFFC0001FFFFC00001FFFE00000FFFFF80007FC0000FFFFC0003FC
310
0000FFFFC0001FF8000001FFFE0000007FFFFFF0001FFFFFFFC00003FFE00001
310
FFFFC00003FFE00001FFFF0001FFFFFFFFF00007FFFE0001F000E0000FFFFF00
310
00FFFF800001FFFC00000FFFFF80007FC0001FFFFE0001FC0001FFFFE0001FF8
310
000001FFFE0000007FFFFFF0001FFFFFFF80000FFFF80000FFFF80000FFFF800
310
00FFFF0003FFFFFFFFE0000FFFFF8000F000C0003FFFFF8000FFFF800000FFFC
310
000007FFFF80007F80003FFFFF0001FC0003FFFFF0001FF8000001FFFE000000
310
7FFFFFF0001FFFFFFF80003FFFFE0000FFFF80003FFFFE0000FFFF0003FFFFFF
310
FFE0003FFFFF8000F000C0003FFFFF8000FFFF800000FFFC000007FFFF80007F
310
80007FFFFF8001F80007FFFFF8000FF8000001FFFE0000007FFFFFF0001FFFFF
310
FF00007FFFFF00007FFF00007FFFFF00007FFF0003FFFFFFFFE0003FFFFFC000
310
F000C0007FFFFFC000FFFF000000FFFC000007FFFF80007F8000FFFFFF8000F8
310
000FFFFFF8000FF8000001FFFE0000007FFFFFF0001FFFFFFF0000FFFFFF8000
310
7FFF0000FFFFFF80007FFF0003FFFFFFFFC0007FFFFFC00070008000FFFFFFC0
310
00FFFF000000FFF8000007FFFF80007F8000FFFFFF8000F8000FFFFFF8000FF8
310
000001FFFE0000007FFFFFF0001FFFFFFE0001FFFFFFC0003FFE0001FFFFFFC0
310
003FFF0003FFFFFFFFC0007FFFFFE00070008000FFFFFFC0007FFF0000007FF8
310
000003FFFF80007F0001FFFFFF8000F8000FFFFFF8000FF8000001FFFE000000
310
7FFFFFF0001FFFFFFE0001FFFFFFC0003FFE0001FFFFFFC0003FFF0003FFFFFF
310
FFC000FFFFFFE00070008000FFFFFFC0007FFF0000007FF8000003FFFF80007F
310
0001FFFFFF8000F8001FFFFFF8000FF8000001FFFE0000007FFFFFF0001FFFFF
310
FE0003FFFFFFE0003FFE0003FFFFFFE0003FFF0003FFFFFFFFC000FFFFFFE000
310
70008000FFFFFFC0007FFE0000007FF8000003FFFF80007F0001FFFFFF8000F0
310
001FFFFFF8000FF8000001FFFE0000007FFFFFF0001FFFFFFC0003FFFFFFE000
310
1FFC0003FFFFFFE0001FFF0003FFFFFFFFC000FFFFFFC00070008000FFFFFF80
310
007FFE0000007FF0000003FFFF80007F0001FFFFFF0000F0001FFFFFF8000FF8
310
000001FFFE0000007FFFFFF0001FFFFFFC0007FFFFFFF0001FFC0007FFFFFFF0
310
001FFF0003FFFFFFFFC000FFFFFFC00070008001FFFFFF0000FFFE0000003FF0
310
000001FFFF80007F0001FFFFFF0000F8001FFFFFF0000FF8000001FFFE000000
310
7FFFFFF0001FFFFFFC0007FFFFFFF0001FFC0007FFFFFFF0001FFF0003FFFFFF
310
FFC001FFFFFF80007000FFFFFFFFFE0000FFFE0008003FF0008001FFFF80007F
310
FFFFFFFFFC0000FFFFFFFFFFE0000FF8000001FFFE0000007FFFFFF0001FFFFF
310
F8000FFFFFFFF8000FF8000FFFFFFFF8000FFF0003FFFFFFFFFFFFFFFFFF0000
310
7000FFFFFFFFFC0000FFFC0008003FF0008001FFFF80007FFFFFFFFFF80001FF
310
FFFFFFFF80000FF8000001FFFE0000007FFFFFF0001FFFFFF8000FFFFFFFF800
310
0FF8000FFFFFFFF8000FFF0003FFFFFFFFFFFFFFFFFE0000F000FFFFFFFFE000
310
00FFFC000C003FE000C001FFFF80007FFFFFFFFFC00001FFFFFFFFFE00001FF8
310
000001FFFE0000007FFFFFF0001FFFFFF8000FFFFFFFF8000FF8000FFFFFFFF8
310
000FFF0003FFFFFFFFFFFFFFFFF00000F000FFFFFFFE000001FFFC000C001FE0
310
00C000FFFF80007FFFFFFFFE000001FFFFFFFFE000001FF80FFFFFFFFFFFFFC0
310
7FFFFFF0001FFFFFF8000FFFFFFFF8000FF8000FFFFFFFF8000FFF0003FFFFFF
310
FFFFFFFFFF800000F000FFFFFFC0000001FFFC001C001FE001C000FFFF80007F
310
FFFFFF80000003FFFFFFF80000001FF80FFFFFFFFFFFFFC07FFFFFF0001FFFFF
310
F8001FFFFFFFFC000FF8001FFFFFFFFC000FFF0003FFFFFFFFFFFFFFF0000001
310
F000FFFFF800000001FFF8001C001FE001C000FFFF80007FFFFFF800000003FF
310
FFFF800000003FF80FFFFFFFFFFFFFC07FFFFFF0001FFFFFF8001FFFFFFFFC00
310
0FF8001FFFFFFFFC000FFF0003FFFFFFFFFFFFFE00000001F000FFFFC0000000
310
03FFF8001E001FC001E000FFFF80007FFFFF8000000007FFFFFC000000003FF8
310
0FFFFFFFFFFFFFC07FFFFFF0001FFFFFF8001FFFFFFFFC000FF8001FFFFFFFFC
310
000FFF0003FFFFFFFFFFFFE000000003F000FFFE0000000007FFF8001E000FC0
310
01E0007FFF80007FFFFE0000000007FFFFE0000000007FF80FFFFFFFFFFFFFC0
310
7FFFFFF0001FFFFFF0001FFFFFFFFC0007F0001FFFFFFFFC0007FF0003FFFFFF
310
FFFFFF0000000003F000FFF80000000007FFF8001E000FC003E0007FFF80007F
310
FFF0000000000FFFFF8000000000FFF80FFFFFFFFFFFFFC07FFFFFF0001FFFFF
310
F0001FFFFFFFFC0007F0001FFFFFFFFC0007FF0003FFFFFFFFFFFC0000000007
310
F000FFE0000000000FFFF0003E000FC003E0007FFF80007FFFC0000000001FFF
310
FE0000000001FFF80FFFFFFFFFFFFFC07FFFFFF0001FFFFFF0001FFFFFFFFC00
310
07F0001FFFFFFFFC0007FF0003FFFFFFFFFFF0000000000FF000FFC000000000
310
1FFFF0003F000F8003F0003FFF80007FFF80000000003FFFF80000000003FFF8
310
0FFFFFFFFFFFFFC07FFFFFF0001FFFFFF0001FFFFFFFFC0007F0001FFFFFFFFC
310
0007FF0003FFFFFFFFFFE0000000001FF000FF00000000007FFFF0003F000780
310
03F0003FFF80007FFF00000000007FFFF00000000007FFF80FFFFFFFFFFFFFC0
310
7FFFFFF0001FFFFFF0001FFFFFFFFC0007F0001FFFFFFFFC0007FF0003FFFFFF
310
FFFF80000000007FF000FE0000000000FFFFE0003F00078007F0003FFF80007F
310
FE0000000001FFFFE0000000001FFFF80FFFFFFFFFFFFFC07FFFFFF0001FFFFF
310
F0001FFFFFFFFC0007F0001FFFFFFFFC0007FF0003FFFFFFFFFF0000000000FF
310
F000FC0000000003FFFFE0007F00078007F0003FFF80007FFC0000000007FFFF
310
C0000000007FFFF80FFFFFFFFFFFFFC07FFFFFF0001FFFFFF8001FFFFFFFFC00
310
0FF8001FFFFFFFFC000FFF0003FFFFFFFFFE0000000003FFF000FC000000000F
310
FFFFE0007F80070007F8001FFF80007FF8000000001FFFFF8000000001FFFFF8
310
0FFFFFFFFFFFFFC07FFFFFF0001FFFFFF8001FFFFFFFFC000FF8001FFFFFFFFC
310
000FFF0003FFFFFFFFFC000000000FFFF000F8000000007FFFFFE0007F800700
310
07F8001FFF80007FF000000000FFFFFF800000000FFFFFF80FFFFFFFFFFFFFC0
310
7FFFFFF0001FFFFFF8000FFFFFFFF8000FF8000FFFFFFFF8000FFF0003FFFFFF
310
FFFC000000007FFFF000F800000007FFFFFFC0007F8003000FF8001FFF80007F
310
F000000007FFFFFF000000007FFFFFF80FFFFFFFFFFFFFC07FFFFFF0001FFFFF
310
F8000FFFFFFFF8000FF8000FFFFFFFF8000FFF0003FFFFFFFFF80000000FFFFF
310
F000F0000000FFFFFFFFC000FF8003000FF8001FFF80007FE0000000FFFFFFFF
310
0000000FFFFFFFF8000001FFFE0000007FFFFFF0001FFFFFF8000FFFFFFFF800
310
0FF8000FFFFFFFF8000FFF0003FFFFFFFFF8000000FFFFFFF000F000000FFFFF
310
FFFFC000FFC002000FF8000FFF80007FE000001FFFFFFFFE000001FFFFFFFFF8
310
000001FFFE0000007FFFFFF0001FFFFFF8000FFFFFFFF8000FF8000FFFFFFFF8
310
000FFF0003FFFFFFFFF000001FFFFFFFF000E00000FFFFFFFFFFC000FFC00200
310
0FFC000FFF80007FE00001FFFFFFFFFE00001FFFFFFFFFF8000001FFFE000000
310
7FFFFFF0001FFFFFFC000FFFFFFFF8001FFC000FFFFFFFF8001FFF0003FFFFFF
310
FFF00001FFFFFFFFF000E00007FFFFFFFFFF8000FFC000001FFC000FFF80007F
310
C0000FFFFFFFFFFE0000FFFFFFFFFFF8000001FFFE0000007FFFFFF0001FFFFF
310
FC0007FFFFFFF0001FFC0007FFFFFFF0001FFF0003FFFFFFFFF00007FFFFFFFF
310
F000E0001FFFFFFFFFFF8000FFC000001FFC000FFF80007FC0003FFFFFFFFFFE
310
0001FFFFFFFFFFF8000001FFFE0000007FFFFFF0001FFFFFFC0007FFFFFFF000
310
1FFC0007FFFFFFF0001FFF0003FFFFFFFFF0001FFFFFFFFFF000E0003FFFFF00
310
03FF8001FFE000001FFC0007FF80007FC0007FFFFF0007FC0003FFFFF0003FF8
310
000001FFFE0000007FFFFFF0001FFFFFFC0003FFFFFFE0001FFC0003FFFFFFE0
310
001FFF0003FFFFFFFFF0003FFFFFFFFFF000E0003FFFFF0001FF8001FFE00000
310
1FFE0007FF80007FC0007FFFFE0003FC0007FFFFE0003FF8000001FFFE000000
310
7FFFFFF0001FFFFFFE0003FFFFFFE0003FFE0003FFFFFFE0003FFF0003FFFFFF
310
FFF0003FFFFF8001F000E0003FFFFF0001FF0001FFE000001FFE0007FF80007F
310
C0007FFFFE0003FC0007FFFFE0003FF8000001FFFE0000007FFFFFF0001FFFFF
310
FE0001FFFFFFC0003FFE0001FFFFFFC0003FFF0003FFFFFFFFF0003FFFFF0001
310
F000E0003FFFFF0003FF0001FFE000003FFE0007FF80007FC0007FFFFE0003FC
310
0007FFFFE0003FF8000001FFFE0000007FFFFFF0001FFFFFFF0001FFFFFFC000
310
7FFF0001FFFFFFC0007FFF0003FFFFFFFFF0003FFFFF0001F000E0003FFFFE00
310
03FF0003FFF000003FFE0003FF80007FC0007FFFFC0003FE0007FFFFE0003FF8
310
000001FFFE0000007FFFFFF0001FFFFFFF0000FFFFFF80007FFF0000FFFFFF80
310
007FFF0003FFFFFFFFF0003FFFFF0001F000E0003FFFFE0003FF0003FFF00000
310
3FFF0003FF80007FC0007FFFFC0007FE0007FFFFC0003FF8000001FFFE000000
310
7FFFFFF0001FFFFFFF80007FFFFF0000FFFF80007FFFFF0000FFFF0003FFFFFF
310
FFF0003FFFFF0003F000E0003FFFFC0003FE0003FFF000003FFF0003FF80007F
310
E0003FFFF80007FE0003FFFFC0007FF8000001FFFE0000007FFFFFF0001FFFFF
310
FF80003FFFFE0000FFFF80003FFFFE0000FFFF0003FFFFFFFFF0001FFFFE0003
310
F000F0001FFFF80003FE0003FFF000007FFF0001FF80007FE0003FFFF00007FE
310
0001FFFF80007FF8000001FFFE0000007FFFFFF0001FFFFFFFC0000FFFF80001
310
FFFFC0000FFFF80001FFFF0003FFFFFFFFF0001FFFFC0003F000F0000FFFF000
310
07FE0007FFF800007FFF0001FF80007FE0001FFFE00007FF0000FFFE00007FF8
310
000001FFFE0000007FFFFFF0001FFFFFFFC00003FFE00001FFFFC00003FFE000
310
01FFFF0003FFFFFFFFF8000FFFF80003F000F00003FFC00007FC0007FFF80000
310
7FFF8001FF80007FF00007FF80000FFF00007FF80000FFF8000001FFFE000000
310
7F80000000000001FFE000003E000003FFFFE000003E000003FFFF0003FFFFFF
310
FFF80003FFE00007F000F800000000000FFC0007FFF800007FFF8001FF80007F
310
F000000000000FFF000000000000FFF8000001FFFE0000007F80000000000001
310
FFF0000000000007FFFFF0000000000007FFFF0003FFFFFFFFFC00007E000007
310
F000F800000000000FFC0007FFF80000FFFF8000FF80007FF800000000001FFF
310
800000000001FFF8000001FFFE0000007F80000000000001FFF800000000000F
310
FFFFF800000000000FFFFF0003FFFFFFFFFC00000000000FF000FC0000000000
310
1FFC0007FFFC0000FFFF8000FF80007FF800000000003FFFC00000000001FFF8
310
000001FFFE0000007F80000000000001FFF800000000000FFFFFF80000000000
310
0FFFFF0003FFFFFFFFFE00000000001FF000FE00000000003FF8000FFFFC0000
310
FFFF8000FF80007FFC00000000003FFFC00000000003FFF8000001FFFE000000
310
7F80000000000001FFFC00000000001FFFFFFC00000000001FFFFF0003FFFFFF
310
FFFF00000000001FF000FF00000000003FF8000FFFFC0000FFFFC000FF80007F
310
FE00000000007FFFE00000000007FFF8000001FFFE0000007F80000000000001
310
FFFE00000000003FFFFFFE00000000003FFFFF0003FFFFFFFFFF80000000003F
310
F000FF80000000007FF8000FFFFC0001FFFFC0007F80007FFF0000000000FFFF
310
F0000000000FFFF800000000000000007F80000000000001FFFF8000000000FF
310
FFFFFF8000000000FFFFFF0003FFFFFFFFFFC0000000007FF000FFC000000000
310
FFF8000FFFFE0001FFFFC0007F80007FFF8000000001FFFFF8000000001FFFF8
310
00000000000000007F80000000000001FFFFC000000001FFFFFFFFC000000001
310
FFFFFF0003FFFFFFFFFFE000000000FFF000FFE000000003FFF0001FFFFE0001
310
FFFFC0007F80007FFFC000000007FFFFFE000000003FFFF80000000000000000
310
7F80000000000001FFFFE000000003FFFFFFFFE000000003FFFFFF0003FFFFFF
310
FFFFF000000003FFF000FFF80000000FFFF0001FFFFE0001FFFFE0007F80007F
310
FFF00000000FFFFFFF00000000FFFFF800000000000000007F80000000000001
310
FFFFF80000000FFFFFFFFFF80000000FFFFFFF0003FFFFFFFFFFFC0000000FFF
310
F000FFFE0000003FFFF0001FFFFE0003FFFFE0003F80007FFFFC0000003FFFFF
310
FFC0000003FFFFF800000000000000007F80000000000001FFFFFE0000003FFF
310
FFFFFFFE0000003FFFFFFF0003FFFFFFFFFFFF0000003FFFF000FFFF800000FF
310
FFF0001FFFFF0003FFFFE0003F80007FFFFF000001FFFFFFFFF800001FFFFFF8
310
00000000000000007F80000000000001FFFFFFC00001FFFFFFFFFFFFC00001FF
310
FFFFFF0003FFFFFFFFFFFFC00000FFFFF000FFFFF8000FFFFFFFFFFFFFFFFFFF
310
FFFFFFFFFFFFFFFFFFFFF0001FFFFFFFFFFF0000FFFFFFF80000000000000000
310
7FFFFFFFFFFFFFFFFFFFFFFC001FFFFFFFFFFFFFFC001FFFFFFFFFFFFFFFFFFF
310
FFFFFFFC001FFFFFF000FFFFFFFFFFFFFFFFFFFFFFFFFFFFFFFFFFFFFFFFFFFF
310
FFFFFFFFFFFFFFFFFFFFFFFFFFFFFFFFFFFFFFFFFFFFFFFFFFFFFFFFFFFFFFFF
310
FFFFFFFFFFFFFFFFFFFFFFFFFFFFFFFFFFFFFFFFFFFFFFFFFFFFFFFFFFFFFFFF
310
F000FFFFFFFFFFFFFFFFFFFFFFFFFFFFFFFFFFFFFFFFFFFFFFFFFFFFFFFFFFFF
310
FFFFFFFFFFFFFFFFFFFFFFFFFFFFFFFFFFFFFFFFFFFFFFFFFFFFFFFFFFFFFFFF
310
FFFFFFFFFFFFFFFFFFFFFFFFFFFFFFFFFFFFFFFFFFFFFFFFF000FFFFFFFFFFFF
310
FFFFFFFFFFFFFFFFFFFFFFFFFFFFFFFFFFFFFFFFFFFFFFFFFFFFFFFFFFFFFFFF
310
FFFFFFFFFFFFFFFFFFFFFFFFFFFFFFFFFFFFFFFFFFFFFFFFFFFFFFFFFFFFFFFF
310
FFFFFFFFFFFFFFFFFFFFFFFFFFFFFFFFF000FFFFFFFFFFFFFFFFFFFFFFFFFFFF
310
FFFFFFFFFFFFFFFFFFFFFFFFFFFFFFFFFFFFFFFFFFFFFFFFFFFFFFFFFFFFFFFF
310
FFFFFFFFFFFFFFFFFFFFFFFFFFFFFFFFFFFFFFFFFFFFFFFFFFFFFFFFFFFFFFFF
310
FFFFFFFFFFFFFFFFF000FFFFFFFFFFFFFFFFFFFFFFFFFFFFFFFFFFFFFFFFFFFF
310
FFFFFFFFFFFFFFFFFFFFFFFFFFFFFFFFFFFFFFFFFFFFFFFFFFFFFFFFFFFFFFFF
310
FFFFFFFFFFFFFFFFFFFFFFFFFFFFFFFFFFFFFFFFFFFFFFFFFFFFFFFFFFFFFFFF
310
F000FFFFFFFFFFFFFFFFFFFFFFFFFFFFFFFFFFFFFFFFFFFFFFFFFFFFFFFFFFFF
310
FFFFFFFFFFFFFFFFFFFFFFFFFFFFFFFFFFFFFFFFFFFFFFFFFFFFFFFFFFFFFFFF
310
FFFFFFFFFFFFFFFFFFFFFFFFFFFFFFFFFFFFFFFFFFFFFFFFF000FFFFFFFFFFFF
310
FFFFFFFFFFFFFFFFFFFFFFFFFFFFFFFFFFFFFFFFFFFFFFFFFFFFFFFFFFFFFFFF
310
FFFFFFFFFFFFFFFFFFFFFFFFFFFFFFFFFFFFFFFFFFFFFFFFFFFFFFFFFFFFFFFF
310
FFFFFFFFFFFFFFFFFFFFFFFFFFFFFFFFF000FFFFFFFFFFFFFFFFFFFFFFFFFFFF
310
FFFFFFFFFFFFFFFFFFFFFFFFFFFFFFFFFFFFFFFFFFFFFFFFFFFFFFFFFFFFFFFF
310
FFFFFFFFFFFFFFFFFFFFFFFFFFFFFFFFFFFFFFFFFFFFFFFFFFFFFFFFFFFFFFFF
310
FFFFFFFFFFFFFFFFF000FFFFFFFFFFFFFFFFFFFFFFFFFFFFFFFFFFFFFFFFFFFF
310
FFFFFFFFFFFFFFFFFFFFFFFFFFFFFFFFFFFFFFFFFFFFFFFFFFFFFFFFFFFFFFFF
310
FFFFFFFFFFFFFFFFFFFFFFFFFFFFFFFFFFFFFFFFFFFFFFFFFFFFFFFFFFFFFFFF
310
F000FFFFFFFFFFFFFFFFFFFFFFFFFFFFFFFFFFFFFFFFFFFFFFFFFFFFFFFFFFFF
310
FFFFFFFFFFFFFFFFFFFFFFFFFFFFFFFFFFFFFFFFFFFFFFFFFFFFFFFFFFFFFFFF
310
FFFFFFFFFFFFFFFFFFFFFFFFFFFFFFFFFFFFFFFFFFFFFFFFF000FFFFFFFFFFFF
310
FFFFFFFFFFFFFFFFFFFFFFFFFFFFFFFFFFFFFFFFFFFFFFFFFFFFFFFFFFFFFFFF
310
FFFFFFFFFFFFFFFFFFFFFFFFFFFFFFFFFFFFFFFFFFFFFFFFFFFFFFFFFFFFFFFF
310
FFFFFFFFFFFFFFFFFFFFFFFFFFFFFFFFF000FFFFFFFFFFFFFFFFFFFFFFFFFFFF
310
FFFFFFFFFFFFFFFFFFFFFFFFFFFFFFFFFFFFFFFFFFFFFFFFFFFFFFFFFFFFFFFF
310
FFFFFFFFFFFFFFFFFFFFFFFFFFFFFFFFFFFFFFFFFFFFFFFFFFFFFFFFFFFFFFFF
310
FFFFFFFFFFFFFFFFF000FFFFFFFFFFFFFFFFFFFFFFFFFFFFFFFFFFFFFFFFFFFF
310
FFFFFFFFFFFFFFFFFFFFFFFFFFFFFFFFFFFFFFFFFFFFFFFFFFFFFFFFFFFFFFFF
310
FFFFFFFFFFFFFFFFFFFFFFFFFFFFFFFFFFFFFFFFFFFFFFFFFFFFFFFFFFFFFFFF
310
F000FFFFFFFFFFFFFFFFFFFFFFFFFFFFFFFFFFFFFFFFFFFFFFFFFFFFFFFFFFFF
310
FFFFFFFFFFFFFFFFFFFFFFFFFFFFFFFFFFFFFFFFFFFFFFFFFFFFFFFFFFFFFFFF
310
FFFFFFFFFFFFFFFFFFFFFFFFFFFFFFFFFFFFFFFFFFFFFFFFF000FFFFFFFFFFFF
310
FFFFFFFFFFFFFFFFFFFFFFFFFFFFFFFFFFFFFFFFFFFFFFFFFFFFFFFFFFFFFFFF
310
FFFFFFFFFFFFFFFFFFFFFFFFFFFFFFFFFFFFFFFFFFFFFFFFFFFFFFFFFFFFFFFF
310
FFFFFFFFFFFFFFFFFFFFFFFFFFFFFFFFF000FFFFFFFFFFFFFFFFFFFFFFFFFFFF
310
FFFFFFFFFFFFFFFFFFFFFFFFFFFFFFFFFFFFFFFFFFFFFFFFFFFFFFFFFFFFFFFF
310
FFFFFFFFFFFFFFFFFFFFFFFFFFFFFFFFFFFFFFFFFFFFFFFFFFFFFFFFFFFFFFFF
310
FFFFFFFFFFFFFFFFF000FFFFFFFFFFFFFFFFFFFFFFFFFFFFFFFFFFFFFFFFFFFF
310
FFFFFFFFFFFFFFFFFFFFFFFFFFFFFFFFFFFFFFFFFFFFFFFFFFFFFFFFFFFFFFFF
310
FFFFFFFFFFFFFFFFFFFFFFFFFFFFFFFFFFFFFFFFFFFFFFFFFFFFFFFFFFFFFFFF
310
F000FFFFFFFFFFFFFFFFFFFFFFFFFFFFFFFFFFFFFFFFFFFFFFFFFFFFFFFFFFFF
310
FFFFFFFFFFFFFFFFFFFFFFFFFFFFFFFFFFFFFFFFFFFFFFFFFFFFFFFFFFFFFFFF
310
FFFFFFFFFFFFFFFFFFFFFFFFFFFFFFFFFFFFFFFFFFFFFFFFF000FFFFFFFFFFFF
310
FFFFFFFFFFFFFFFFFFFFFFFFFFFFFFFFFFFFFFFFFFFFFFFFFFFFFFFFFFFFFFFF
310
FFFFFFFFFFFFFFFFFFFFFFFFFFFFFFFFFFFFFFFFFFFFFFFFFFFFFFFFFFFFFFFF
310
FFFFFFFFFFFFFFFFFFFFFFFFFFFFFFFFF000FFFFFFFFFFFFFFFFFFFFFFFFFFFF
310
FFFFFFFFFFFFFFFFFFFFFFFFFFFFFFFFFFFFFFFFFFFFFFFFFFFFFFFFFFFFFFFF
310
FFFFFFFFFFFFFFFFFFFFFFFFFFFFFFFFFFFFFFFFFFFFFFFFFFFFFFFFFFFFFFFF
310
FFFFFFFFFFFFFFFFF000FFFFFFFFFFFFFFFFFFFFFFFFFFFFFFFFFFFFFFFFFFFF
310
FFFFFFFFFFFFFFFFFFFFFFFFFFFFFFFFFFFFFFFFFFFFFFFFFFFFFFFFFFFFFFFF
310
FFFFFFFFFFFFFFFFFFFFFFFFFFFFFFFFFFFFFFFFFFFFFFFFFFFFFFFFFFFFFFFF
310
F000FFFFFFFFFFFFFFFFFFFFFFFFFFFFFFFFFFFFFFFFFFFFFFFFFFFFFFFFFFFF
310
FFFFFFFFFFFFFFFFFFFFFFFFFFFFFFFFFFFFFFFFFFFFFFFFFFFFFFFFFFFFFFFF
310
FFFFFFFFFFFFFFFFFFFFFFFFFFFFFFFFFFFFFFFFFFFFFFFFF000FFFFFFFFFFFF
310
FFFFFFFFFFFFFFFFFFFFFFFFFFFFFFFFFFFFFFFFFFFFFFFFFFFFFFFFFFFFFFFF
310
FFFFFFFFFFFFFFFFFFFFFFFFFFFFFFFFFFFFFFFFFFFFFFFFFFFFFFFFFFFFFFFF
310
FFFFFFFFFFFFFFFFFFFFFFFFFFFFFFFFF0000000000000000000000000000000
310
0000000000000000000000000000000000000000000000000000000000000000
310
0000000000000000000000000000000000000000000000000000000000000000
310
0000000000000000000000000000000000000000000000000000000000000000
310
0000000000000000000000000000000000000000000000000000000000000000
310
0000000000000000000000000000000000000000000000000000000000000000
310
0000000000000000000000000000000000000000000000000000000000000000
310
0000000000000000000000000000000000000000000000000000000000000000
310
0000000000000000000000000000000000000000000000000000000000000000
310
0000000000000000000000000000000000000000000000000000000000000000
310
0000000000000000000000000000000000000000000000000000000000000000
310
0000000000000000000000000000000000000000000000000000000000000000
310
0000000000000000000000000000000000000000000000000000000000000000
310
0000000000000000000000000000000000000000000000000000000000000000
310
0000000000000000000000000000000000000000000000000000000000000000
310
0000000000000000000000000000000000000000000000000000000000000000
  1
OLE
  0
ENDSEC
  0
SECTION
  2
OBJECTS
  0
DICTIONARY
  5
C
330
0
100
AcDbDictionary
281
     1
  3
ACAD_GROUP
350
D
  3
ACAD_LAYOUT
350
1A
  3
ACAD_MLINESTYLE
350
17
  3
ACAD_PLOTSETTINGS
350
19
  3
ACAD_PLOTSTYLENAME
350
E
  0
DICTIONARY
  5
D
102
{ACAD_REACTORS
330
C
102
}
330
C
100
AcDbDictionary
281
     1
  0
DICTIONARY
  5
1A
102
{ACAD_REACTORS
330
C
102
}
330
C
100
AcDbDictionary
281
     1
  3
Layout1
350
1E
  3
Layout2
350
26
  3
Model
350
22
  0
DICTIONARY
  5
17
102
{ACAD_REACTORS
330
C
102
}
330
C
100
AcDbDictionary
281
     1
  3
Standard
350
18
  0
DICTIONARY
  5
19
102
{ACAD_REACTORS
330
C
102
}
330
C
100
AcDbDictionary
281
     1
  0
ACDBDICTIONARYWDFLT
  5
E
102
{ACAD_REACTORS
330
C
102
}
330
C
100
AcDbDictionary
281
     1
  3
Normal
350
F
100
AcDbDictionaryWithDefault
340
F
  0
LAYOUT
  5
1E
102
{ACAD_REACTORS
330
1A
102
}
330
1A
100
AcDbPlotSettings
  1

  2
none_device
  4

  6

 40
0.0
 41
0.0
 42
0.0
 43
0.0
 44
0.0
 45
0.0
 46
0.0
 47
0.0
 48
0.0
 49
0.0
140
0.0
141
0.0
142
1.0
143
1.0
 70
   688
 72
     0
 73
     0
 74
     5
  7

 75
    16
147
1.0
148
0.0
149
0.0
100
AcDbLayout
  1
Layout1
 70
     1
 71
     1
 10
0.0
 20
0.0
 11
420.0
 21
297.0
 12
0.0
 22
0.0
 32
0.0
 14
1.0000000000E+20
 24
1.0000000000E+20
 34
1.0000000000E+20
 15
-1.0000000000E+20
 25
-1.0000000000E+20
 35
-1.0000000000E+20
146
0.0
 13
0.0
 23
0.0
 33
0.0
 16
1.0
 26
0.0
 36
0.0
 17
0.0
 27
1.0
 37
0.0
 76
     0
330
1B
  0
LAYOUT
  5
26
102
{ACAD_REACTORS
330
1A
102
}
330
1A
100
AcDbPlotSettings
  1

  2
none_device
  4

  6

 40
0.0
 41
0.0
 42
0.0
 43
0.0
 44
0.0
 45
0.0
 46
0.0
 47
0.0
 48
0.0
 49
0.0
140
0.0
141
0.0
142
1.0
143
1.0
 70
   688
 72
     0
 73
     0
 74
     5
  7

 75
    16
147
1.0
148
0.0
149
0.0
100
AcDbLayout
  1
Layout2
 70
     1
 71
     2
 10
0.0
 20
0.0
 11
0.0
 21
0.0
 12
0.0
 22
0.0
 32
0.0
 14
0.0
 24
0.0
 34
0.0
 15
0.0
 25
0.0
 35
0.0
146
0.0
 13
0.0
 23
0.0
 33
0.0
 16
1.0
 26
0.0
 36
0.0
 17
0.0
 27
1.0
 37
0.0
 76
     0
330
23
  0
LAYOUT
  5
22
102
{ACAD_REACTORS
330
1A
102
}
330
1A
100
AcDbPlotSettings
  1

  2
none_device
  4

  6

 40
0.0
 41
0.0
 42
0.0
 43
0.0
 44
0.0
 45
0.0
 46
0.0
 47
0.0
 48
0.0
 49
0.0
140
0.0
141
0.0
142
1.0
143
1.0
 70
  1712
 72
     0
 73
     0
 74
     0
  7

 75
     0
147
1.0
148
0.0
149
0.0
100
AcDbLayout
  1
Model
 70
     1
 71
     0
 10
0.0
 20
0.0
 11
297.0
 21
210.0
 12
0.0
 22
0.0
 32
0.0
 14
0.0
 24
0.0
 34
0.0
 15
297.0
 25
210.0
 35
0.0
146
0.0
 13
0.0
 23
0.0
 33
0.0
 16
1.0
 26
0.0
 36
0.0
 17
0.0
 27
1.0
 37
0.0
 76
     0
330
1F
331
29
  0
MLINESTYLE
  5
18
102
{ACAD_REACTORS
330
17
102
}
330
17
100
AcDbMlineStyle
  2
Standard
 70
     0
  3

 62
   256
 51
90.0
 52
90.0
 71
     2
 49
0.5
 62
   256
  6
BYLAYER
 49
-0.5
 62
   256
  6
BYLAYER
  0
ACDBPLACEHOLDER
  5
F
102
{ACAD_REACTORS
330
E
102
}
330
E
  0
ENDSEC
  0
EOF
