  0
SECTION
  2
HEADER
  9
$ACADVER
  1
AC1015
  9
$ACADMAINTVER
 70
     6
  9
$DWGCODEPAGE
  3
ANSI_1252
  9
$INSBASE
 10
0.0
 20
0.0
 30
0.0
  9
$EXTMIN
 10
0.0
 20
0.0
 30
0.0
  9
$EXTMAX
 10
297.0
 20
210.0
 30
0.0
  9
$LIMMIN
 10
0.0
 20
0.0
  9
$LIMMAX
 10
297.0
 20
210.0
  9
$ORTHOMODE
 70
     0
  9
$REGENMODE
 70
     1
  9
$FILLMODE
 70
     1
  9
$QTEXTMODE
 70
     0
  9
$MIRRTEXT
 70
     1
  9
$LTSCALE
 40
1.0
  9
$ATTMODE
 70
     1
  9
$TEXTSIZE
 40
2.0
  9
$TRACEWID
 40
1.0
  9
$TEXTSTYLE
  7
Standard
  9
$CLAYER
  8
0
  9
$CELTYPE
  6
ByLayer
  9
$CECOLOR
 62
   256
  9
$CELTSCALE
 40
1.0
  9
$DISPSILH
 70
     0
  9
$DIMSCALE
 40
1.0
  9
$DIMASZ
 40
3.0
  9
$DIMEXO
 40
0.0
  9
$DIMDLI
 40
3.75
  9
$DIMRND
 40
0.0
  9
$DIMDLE
 40
0.0
  9
$DIMEXE
 40
1.0
  9
$DIMTP
 40
0.0
  9
$DIMTM
 40
0.0
  9
$DIMTXT
 40
2.0
  9
$DIMCEN
 40
2.5
  9
$DIMTSZ
 40
0.0
  9
$DIMTOL
 70
     0
  9
$DIMLIM
 70
     0
  9
$DIMTIH
 70
     1
  9
$DIMTOH
 70
     1
  9
$DIMSE1
 70
     0
  9
$DIMSE2
 70
     0
  9
$DIMTAD
 70
     1
  9
$DIMZIN
 70
     0
  9
$DIMBLK
  1

  9
$DIMASO
 70
     1
  9
$DIMSHO
 70
     1
  9
$DIMPOST
  1

  9
$DIMAPOST
  1

  9
$DIMALT
 70
     0
  9
$DIMALTD
 70
     3
  9
$DIMALTF
 40
0.0393700787
  9
$DIMLFAC
 40
1.0
  9
$DIMTOFL
 70
     1
  9
$DIMTVP
 40
0.0
  9
$DIMTIX
 70
     0
  9
$DIMSOXD
 70
     0
  9
$DIMSAH
 70
     0
  9
$DIMBLK1
  1

  9
$DIMBLK2
  1

  9
$DIMSTYLE
  2
ISO-25
  9
$DIMCLRD
 70
     0
  9
$DIMCLRE
 70
     0
  9
$DIMCLRT
 70
     0
  9
$DIMTFAC
 40
1.0
  9
$DIMGAP
 40
1.524
  9
$DIMJUST
 70
     0
  9
$DIMSD1
 70
     0
  9
$DIMSD2
 70
     0
  9
$DIMTOLJ
 70
     0
  9
$DIMTZIN
 70
     0
  9
$DIMALTZ
 70
     0
  9
$DIMALTTZ
 70
     0
  9
$DIMUPT
 70
     0
  9
$DIMDEC
 70
     2
  9
$DIMTDEC
 70
     3
  9
$DIMALTU
 70
     2
  9
$DIMALTTD
 70
     3
  9
$DIMTXSTY
  7
Standard
  9
$DIMAUNIT
 70
     0
  9
$DIMADEC
 70
     2
  9
$DIMALTRND
 40
0.0
  9
$DIMAZIN
 70
     0
  9
$DIMDSEP
 70
    44
  9
$DIMATFIT
 70
     3
  9
$DIMFRAC
 70
     0
  9
$DIMLDRBLK
  1

  9
$DIMLUNIT
 70
     2
  9
$DIMLWD
 70
    -2
  9
$DIMLWE
 70
    -2
  9
$DIMTMOVE
 70
     0
  9
$LUNITS
 70
     2
  9
$LUPREC
 70
     2
  9
$SKETCHINC
 40
1.0
  9
$FILLETRAD
 40
10.0
  9
$AUNITS
 70
     0
  9
$AUPREC
 70
     2
  9
$MENU
  1
.
  9
$ELEVATION
 40
0.0
  9
$PELEVATION
 40
0.0
  9
$THICKNESS
 40
0.0
  9
$LIMCHECK
 70
     0
  9
$CHAMFERA
 40
10.0
  9
$CHAMFERB
 40
10.0
  9
$CHAMFERC
 40
20.0
  9
$CHAMFERD
 40
0.0
  9
$SKPOLY
 70
     0
  9
$TDCREATE
 40
2455988.711671701
  9
$TDUCREATE
 40
2455988.670005035
  9
$TDUPDATE
 40
2455988.711671713
  9
$TDUUPDATE
 40
2455988.670005046
  9
$TDINDWG
 40
0.0000000116
  9
$TDUSRTIMER
 40
0.0000000116
  9
$USRTIMER
 70
     1
  9
$ANGBASE
 50
0.0
  9
$ANGDIR
 70
     0
  9
$PDMODE
 70
     0
  9
$PDSIZE
 40
-1.0
  9
$PLINEWID
 40
0.0
  9
$SPLFRAME
 70
     0
  9
$SPLINETYPE
 70
     6
  9
$SPLINESEGS
 70
     8
  9
$HANDSEED
  5
14F
  9
$SURFTAB1
 70
     6
  9
$SURFTAB2
 70
     6
  9
$SURFTYPE
 70
     6
  9
$SURFU
 70
     6
  9
$SURFV
 70
     6
  9
$UCSBASE
  2

  9
$UCSNAME
  2

  9
$UCSORG
 10
0.0
 20
0.0
 30
0.0
  9
$UCSXDIR
 10
1.0
 20
0.0
 30
0.0
  9
$UCSYDIR
 10
0.0
 20
1.0
 30
0.0
  9
$UCSORTHOREF
  2

  9
$UCSORTHOVIEW
 70
     0
  9
$UCSORGTOP
 10
0.0
 20
0.0
 30
0.0
  9
$UCSORGBOTTOM
 10
0.0
 20
0.0
 30
0.0
  9
$UCSORGLEFT
 10
0.0
 20
0.0
 30
0.0
  9
$UCSORGRIGHT
 10
0.0
 20
0.0
 30
0.0
  9
$UCSORGFRONT
 10
0.0
 20
0.0
 30
0.0
  9
$UCSORGBACK
 10
0.0
 20
0.0
 30
0.0
  9
$PUCSBASE
  2

  9
$PUCSNAME
  2

  9
$PUCSORG
 10
0.0
 20
0.0
 30
0.0
  9
$PUCSXDIR
 10
1.0
 20
0.0
 30
0.0
  9
$PUCSYDIR
 10
0.0
 20
1.0
 30
0.0
  9
$PUCSORTHOREF
  2

  9
$PUCSORTHOVIEW
 70
     0
  9
$PUCSORGTOP
 10
0.0
 20
0.0
 30
0.0
  9
$PUCSORGBOTTOM
 10
0.0
 20
0.0
 30
0.0
  9
$PUCSORGLEFT
 10
0.0
 20
0.0
 30
0.0
  9
$PUCSORGRIGHT
 10
0.0
 20
0.0
 30
0.0
  9
$PUCSORGFRONT
 10
0.0
 20
0.0
 30
0.0
  9
$PUCSORGBACK
 10
0.0
 20
0.0
 30
0.0
  9
$USERI1
 70
     0
  9
$USERI2
 70
     0
  9
$USERI3
 70
     0
  9
$USERI4
 70
     0
  9
$USERI5
 70
     0
  9
$USERR1
 40
0.0
  9
$USERR2
 40
0.0
  9
$USERR3
 40
0.0
  9
$USERR4
 40
0.0
  9
$USERR5
 40
0.0
  9
$WORLDVIEW
 70
     1
  9
$SHADEDGE
 70
     3
  9
$SHADEDIF
 70
    70
  9
$TILEMODE
 70
     1
  9
$MAXACTVP
 70
    64
  9
$PINSBASE
 10
0.0
 20
0.0
 30
0.0
  9
$PLIMCHECK
 70
     0
  9
$PEXTMIN
 10
1.0000000000E+20
 20
1.0000000000E+20
 30
1.0000000000E+20
  9
$PEXTMAX
 10
-1.0000000000E+20
 20
-1.0000000000E+20
 30
-1.0000000000E+20
  9
$PLIMMIN
 10
0.0
 20
0.0
  9
$PLIMMAX
 10
420.0
 20
297.0
  9
$UNITMODE
 70
     0
  9
$VISRETAIN
 70
     1
  9
$PLINEGEN
 70
     0
  9
$PSLTSCALE
 70
     1
  9
$TREEDEPTH
 70
  3020
  9
$CMLSTYLE
  2
Standard
  9
$CMLJUST
 70
     0
  9
$CMLSCALE
 40
20.0
  9
$PROXYGRAPHICS
 70
     1
  9
$MEASUREMENT
 70
     1
  9
$CELWEIGHT
370
    -1
  9
$ENDCAPS
280
     0
  9
$JOINSTYLE
280
     0
  9
$LWDISPLAY
290
     1
  9
$INSUNITS
 70
     4
  9
$HYPERLINKBASE
  1

  9
$STYLESHEET
  1

  9
$XEDIT
290
     1
  9
$CEPSNTYPE
380
     0
  9
$PSTYLEMODE
290
     1
  9
$FINGERPRINTGUID
  2
{40F14A8A-3CC6-4AE5-8FAA-4EB3004AEF0D}
  9
$VERSIONGUID
  2
{FAEB1C32-E019-11D5-929B-00C0DF256EC4}
  9
$EXTNAMES
290
     1
  9
$PSVPSCALE
 40
0.0
  9
$OLESTARTUP
290
     0
  0
ENDSEC
  0
SECTION
  2
CLASSES
  0
CLASS
  1
ACDBDICTIONARYWDFLT
  2
AcDbDictionaryWithDefault
  3
ObjectDBX Classes
 90
        0
280
     0
281
     0
  0
CLASS
  1
VISUALSTYLE
  2
AcDbVisualStyle
  3
ObjectDBX Classes
 90
     4095
280
     0
281
     0
  0
CLASS
  1
MATERIAL
  2
AcDbMaterial
  3
ObjectDBX Classes
 90
     1153
280
     0
281
     0
  0
CLASS
  1
ACDBPLACEHOLDER
  2
AcDbPlaceHolder
  3
ObjectDBX Classes
 90
        0
280
     0
281
     0
  0
CLASS
  1
LAYOUT
  2
AcDbLayout
  3
ObjectDBX Classes
 90
        0
280
     0
281
     0
  0
ENDSEC
  0
SECTION
  2
TABLES
  0
TABLE
  2
VPORT
  5
8
330
0
100
AcDbSymbolTable
 70
     1
  0
VPORT
  5
29
330
8
100
AcDbSymbolTableRecord
100
AcDbViewportTableRecord
  2
*Active
 70
     0
 10
0.0
 20
0.0
 11
1.0
 21
1.0
 12
148.5
 22
105.0
 13
0.0
 23
0.0
 14
10.0
 24
10.0
 15
10.0
 25
10.0
 16
0.0
 26
0.0
 36
1.0
 17
0.0
 27
0.0
 37
0.0
 40
210.0
 41
1.4142857143
 42
50.0
 43
0.0
 44
0.0
 50
0.0
 51
0.0
 71
     0
 72
  2000
 73
     1
 74
     3
 75
     0
 76
     0
 77
     0
 78
     0
281
     0
 65
     1
110
0.0
120
0.0
130
0.0
111
1.0
121
0.0
131
0.0
112
0.0
122
1.0
132
0.0
 79
     0
146
0.0
  0
ENDTAB
  0
TABLE
  2
LTYPE
  5
5
330
0
100
AcDbSymbolTable
 70
     6
  0
LTYPE
  5
14
330
5
100
AcDbSymbolTableRecord
100
AcDbLinetypeTableRecord
  2
ByBlock
 70
     0
  3

 72
    65
 73
     0
 40
0.0
  0
LTYPE
  5
15
330
5
100
AcDbSymbolTableRecord
100
AcDbLinetypeTableRecord
  2
ByLayer
 70
     0
  3

 72
    65
 73
     0
 40
0.0
  0
LTYPE
  5
16
330
5
100
AcDbSymbolTableRecord
100
AcDbLinetypeTableRecord
  2
Continuous
 70
     0
  3
Solid line
 72
    65
 73
     0
 40
0.0
  0
LTYPE
  5
3F
330
5
100
AcDbSymbolTableRecord
100
AcDbLinetypeTableRecord
  2
HIDDEN
 70
     0
  3
Hidden __ __ __ __ __ __ __ __ __ __ __ __ __ __
 72
    65
 73
     2
 40
1.905
 49
1.27
 74
     0
 49
-0.635
 74
     0
  0
LTYPE
  5
40
330
5
100
AcDbSymbolTableRecord
100
AcDbLinetypeTableRecord
  2
PHANTOM
 70
     0
  3
Phantom ______  __  __  ______  __  __  ______
 72
    65
 73
     6
 40
12.7
 49
6.35
 74
     0
 49
-1.27
 74
     0
 49
1.27
 74
     0
 49
-1.27
 74
     0
 49
1.27
 74
     0
 49
-1.27
 74
     0
  0
LTYPE
  5
41
330
5
100
AcDbSymbolTableRecord
100
AcDbLinetypeTableRecord
  2
CENTER
 70
     0
  3
Center ____ _ ____ _ ____ _ ____ _ ____ _ ____
 72
    65
 73
     4
 40
10.16
 49
6.35
 74
     0
 49
-1.27
 74
     0
 49
1.27
 74
     0
 49
-1.27
 74
     0
  0
LTYPE
  5
42
330
5
100
AcDbSymbolTableRecord
100
AcDbLinetypeTableRecord
  2
CENTERX2
 70
     0
  3
Center (2x) ________  __  ________  __  _____
 72
    65
 73
     4
 40
20.32
 49
12.7
 74
     0
 49
-2.54
 74
     0
 49
2.54
 74
     0
 49
-2.54
 74
     0
  0
LTYPE
  5
43
330
5
100
AcDbSymbolTableRecord
100
AcDbLinetypeTableRecord
  2
DOT2
 70
     0
  3
Dot (.5x) ........................................
 72
    65
 73
     2
 40
0.635
 49
0.0
 74
     0
 49
-0.635
 74
     0
  0
ENDTAB
  0
TABLE
  2
LAYER
  5
2
330
0
100
AcDbSymbolTable
 70
     5
  0
LAYER
  5
10
330
2
100
AcDbSymbolTableRecord
100
AcDbLayerTableRecord
  2
0
 70
     0
 62
     7
  6
Continuous
370
    -3
390
F
  0
LAYER
  5
44
330
2
100
AcDbSymbolTableRecord
100
AcDbLayerTableRecord
  2
FORMAT
 70
     0
 62
     7
  6
Continuous
370
    -3
390
F
  0
LAYER
  5
45
330
2
100
AcDbSymbolTableRecord
100
AcDbLayerTableRecord
  2
VERMASSUNG
 70
     0
 62
     7
  6
Continuous
370
    -3
390
F
  0
LAYER
  5
46
330
2
100
AcDbSymbolTableRecord
100
AcDbLayerTableRecord
  2
KOPF_DÜNN
 70
     0
 62
     7
  6
Continuous
370
    -3
390
F
  0
LAYER
  5
47
330
2
100
AcDbSymbolTableRecord
100
AcDbLayerTableRecord
  2
KOPF_DICK
 70
     0
 62
     7
  6
Continuous
370
    15
390
F
  0
ENDTAB
  0
TABLE
  2
STYLE
  5
3
330
0
100
AcDbSymbolTable
 70
     2
  0
STYLE
  5
11
330
3
100
AcDbSymbolTableRecord
100
AcDbTextStyleTableRecord
  2
Standard
 70
     0
 40
0.0
 41
1.0
 50
0.0
 71
     0
 42
2.5
  3
txt
  4

  0
STYLE
  5
48
330
3
100
AcDbSymbolTableRecord
100
AcDbTextStyleTableRecord
  2
SLDTEXTSTYLE0
 70
     0
 40
0.0
 41
0.7
 50
0.0
 71
     0
 42
0.2
  3
TXT
  4

  0
ENDTAB
  0
TABLE
  2
VIEW
  5
6
330
0
100
AcDbSymbolTable
 70
     0
  0
ENDTAB
  0
TABLE
  2
UCS
  5
7
330
0
100
AcDbSymbolTable
 70
     0
  0
ENDTAB
  0
TABLE
  2
APPID
  5
9
330
0
100
AcDbSymbolTable
 70
     1
  0
APPID
  5
12
330
9
100
AcDbSymbolTableRecord
100
AcDbRegAppTableRecord
  2
ACAD
 70
     0
  0
ENDTAB
  0
TABLE
  2
DIMSTYLE
  5
A
330
0
100
AcDbSymbolTable
 70
     3
100
AcDbDimStyleTable
  0
DIMSTYLE
105
27
330
A
100
AcDbSymbolTableRecord
100
AcDbDimStyleTableRecord
  2
ISO-25
 70
     0
 41
2.5
 42
0.625
 43
3.75
 44
1.25
 73
     0
 74
     0
 77
     1
 78
     8
140
2.5
141
2.5
143
0.0393700787
147
0.625
171
     3
172
     1
178
     0
271
     2
272
     2
274
     3
278
    44
283
     0
284
     8
340
11
  0
DIMSTYLE
105
12C
102
{ACAD_REACTORS
330
12B
102
}
330
A
100
AcDbSymbolTableRecord
100
AcDbDimStyleTableRecord
  2
SLDDIMSTYLE0
 70
     0
 41
3.0
 44
0.0
 45
0.000000001
 73
     0
 74
     0
 77
     1
 78
    12
 79
     3
140
2.0
147
0.5
173
     1
178
     0
271
     2
272
     3
276
     2
284
    12
340
48
  0
DIMSTYLE
105
137
102
{ACAD_REACTORS
330
136
330
141
102
}
330
A
100
AcDbSymbolTableRecord
100
AcDbDimStyleTableRecord
  2
SLDDIMSTYLE1
 70
     0
 41
3.0
 44
0.0
 45
0.000000001
 73
     0
 74
     0
 77
     1
 78
    12
 79
     3
140
2.0
147
0.5
173
     1
178
     0
271
     2
272
     3
276
     2
284
    12
340
48
  0
ENDTAB
  0
TABLE
  2
BLOCK_RECORD
  5
1
330
0
100
AcDbSymbolTable
 70
     4
  0
BLOCK_RECORD
  5
1F
330
1
100
AcDbSymbolTableRecord
100
AcDbBlockTableRecord
  2
*Model_Space
340
22
  0
BLOCK_RECORD
  5
1B
330
1
100
AcDbSymbolTableRecord
100
AcDbBlockTableRecord
  2
*Paper_Space
340
1E
  0
BLOCK_RECORD
  5
23
330
1
100
AcDbSymbolTableRecord
100
AcDbBlockTableRecord
  2
*Paper_Space0
340
26
  0
BLOCK_RECORD
  5
12D
330
1
100
AcDbSymbolTableRecord
100
AcDbBlockTableRecord
  2
*D1
340
0
  0
BLOCK_RECORD
  5
138
330
1
100
AcDbSymbolTableRecord
100
AcDbBlockTableRecord
  2
*D2
340
0
  0
BLOCK_RECORD
  5
142
330
1
100
AcDbSymbolTableRecord
100
AcDbBlockTableRecord
  2
*D3
340
0
  0
ENDTAB
  0
ENDSEC
  0
SECTION
  2
BLOCKS
  0
BLOCK
  5
20
330
1F
100
AcDbEntity
  8
0
100
AcDbBlockBegin
  2
*Model_Space
 70
     0
 10
0.0
 20
0.0
 30
0.0
  3
*Model_Space
  1

  0
ENDBLK
  5
21
330
1F
100
AcDbEntity
  8
0
100
AcDbBlockEnd
  0
BLOCK
  5
1C
330
1B
100
AcDbEntity
 67
     1
  8
0
100
AcDbBlockBegin
  2
*Paper_Space
 70
     0
 10
0.0
 20
0.0
 30
0.0
  3
*Paper_Space
  1

  0
ENDBLK
  5
1D
330
1B
100
AcDbEntity
 67
     1
  8
0
100
AcDbBlockEnd
  0
BLOCK
  5
24
330
23
100
AcDbEntity
  8
0
100
AcDbBlockBegin
  2
*Paper_Space0
 70
     0
 10
0.0
 20
0.0
 30
0.0
  3
*Paper_Space0
  1

  0
ENDBLK
  5
25
330
23
100
AcDbEntity
  8
0
100
AcDbBlockEnd
  0
BLOCK
  5
12E
330
12D
100
AcDbEntity
  8
0
100
AcDbBlockBegin
  2
*D1
 70
     1
 10
0.0
 20
0.0
 30
0.0
  3
*D1
  1

  0
SOLID
  5
130
330
12D
100
AcDbEntity
  8
VERMASSUNG
100
AcDbTrace
 10
216.1175130694
 20
127.9499075975
 30
0.0
 11
215.6675130694
 21
124.9499075975
 31
0.0
 12
216.5675130694
 22
124.9499075975
 32
0.0
 13
216.5675130694
 23
124.9499075975
 33
0.0
  0
LINE
  5
131
330
12D
100
AcDbEntity
  8
VERMASSUNG
100
AcDbLine
 10
208.0717639371
 20
127.9499075975
 30
0.0
 11
217.1175130694
 21
127.9499075975
 31
0.0
  0
LINE
  5
132
330
12D
100
AcDbEntity
  8
VERMASSUNG
100
AcDbLine
 10
216.1175130694
 20
127.9499075975
 30
0.0
 11
216.1175130694
 21
105.569197034
 31
0.0
  0
MTEXT
  5
133
330
12D
100
AcDbEntity
  8
VERMASSUNG
100
AcDbMText
 10
213.5393775899
 20
107.156697034
 30
0.0
 40
2.0
 41
0.0
 71
     1
 72
     1
  1
%%c
  7
SLDTEXTSTYLE0
 11
-7.044195017643634E-15
 21
1.0
 31
0.0
 73
     1
 44
1.0
  0
MTEXT
  5
134
330
12D
100
AcDbEntity
  8
VERMASSUNG
100
AcDbMText
 10
213.5393777063
 20
110.7655592324
 30
0.0
 40
2.0
 41
0.0
 71
     1
 72
     1
  1
24.75
  7
SLDTEXTSTYLE0
 11
-7.044195017643634E-15
 21
1.0
 31
0.0
 73
     1
 44
1.0
  0
MTEXT
  5
135
330
12D
100
AcDbEntity
  8
VERMASSUNG
100
AcDbMText
 10
213.5393777063
 20
117.1646462422
 30
0.0
 40
2.0
 41
0.0
 71
     1
 72
     1
  1
-30.1
  7
SLDTEXTSTYLE0
 11
-7.044195017643634E-15
 21
1.0
 31
0.0
 73
     1
 44
1.0
  0
ENDBLK
  5
12F
330
12D
100
AcDbEntity
  8
0
100
AcDbBlockEnd
  0
BLOCK
  5
139
330
138
100
AcDbEntity
  8
0
100
AcDbBlockBegin
  2
*D2
 70
     1
 10
0.0
 20
0.0
 30
0.0
  3
*D2
  1

  0
SOLID
  5
13B
330
138
100
AcDbEntity
  8
VERMASSUNG
100
AcDbTrace
 10
208.0717639371
 20
134.2816055726
 30
0.0
 11
205.0717639371
 21
134.7316055726
 31
0.0
 12
205.0717639371
 22
133.8316055726
 32
0.0
 13
205.0717639371
 23
133.8316055726
 33
0.0
  0
SOLID
  5
13C
330
138
100
AcDbEntity
  8
VERMASSUNG
100
AcDbTrace
 10
93.0717639371
 20
134.2816055726
 30
0.0
 11
96.0717639371
 21
133.8316055726
 31
0.0
 12
96.0717639371
 22
134.7316055726
 32
0.0
 13
96.0717639371
 23
134.7316055726
 33
0.0
  0
LINE
  5
13D
330
138
100
AcDbEntity
  8
VERMASSUNG
100
AcDbLine
 10
208.0717639371
 20
127.9499075975
 30
0.0
 11
208.0717639371
 21
135.2816055726
 31
0.0
  0
LINE
  5
13E
330
138
100
AcDbEntity
  8
VERMASSUNG
100
AcDbLine
 10
93.0717639371
 20
121.7749075975
 30
0.0
 11
93.0717639371
 21
135.2816055726
 31
0.0
  0
LINE
  5
13F
330
138
100
AcDbEntity
  8
VERMASSUNG
100
AcDbLine
 10
208.0717639371
 20
134.2816055726
 30
0.0
 11
93.0717639371
 21
134.2816055726
 31
0.0
  0
MTEXT
  5
140
330
138
100
AcDbEntity
  8
VERMASSUNG
100
AcDbMText
 10
145.3105732112
 20
136.8597409358
 30
0.0
 40
2.0
 41
0.0
 71
     1
 72
     1
  1
115
  7
SLDTEXTSTYLE0
 73
     1
 44
1.0
  0
ENDBLK
  5
13A
330
138
100
AcDbEntity
  8
0
100
AcDbBlockEnd
  0
BLOCK
  5
143
330
142
100
AcDbEntity
  8
0
100
AcDbBlockBegin
  2
*D3
 70
     1
 10
0.0
 20
0.0
 30
0.0
  3
*D3
  1

  0
SOLID
  5
145
330
142
100
AcDbEntity
  8
VERMASSUNG
100
AcDbTrace
 10
86.7637069585
 20
123.5749075975
 30
0.0
 11
86.3137069585
 21
120.5749075975
 31
0.0
 12
87.2137069585
 22
120.5749075975
 32
0.0
 13
87.2137069585
 23
120.5749075975
 33
0.0
  0
SOLID
  5
146
330
142
100
AcDbEntity
  8
VERMASSUNG
100
AcDbTrace
 10
86.7637069585
 20
107.5749075975
 30
0.0
 11
87.2137069585
 21
110.5749075975
 31
0.0
 12
86.3137069585
 22
110.5749075975
 32
0.0
 13
86.3137069585
 23
110.5749075975
 33
0.0
  0
LINE
  5
147
330
142
100
AcDbEntity
  8
VERMASSUNG
100
AcDbLine
 10
104.3717639371
 20
123.5749075975
 30
0.0
 11
85.7637069585
 21
123.5749075975
 31
0.0
  0
LINE
  5
148
330
142
100
AcDbEntity
  8
VERMASSUNG
100
AcDbLine
 10
94.4467639371
 20
107.5749075975
 30
0.0
 11
85.7637069585
 21
107.5749075975
 31
0.0
  0
LINE
  5
149
330
142
100
AcDbEntity
  8
VERMASSUNG
100
AcDbLine
 10
86.7637069585
 20
123.5749075975
 30
0.0
 11
86.7637069585
 21
107.5749075975
 31
0.0
  0
MTEXT
  5
14A
330
142
100
AcDbEntity
  8
VERMASSUNG
100
AcDbMText
 10
84.1855714789
 20
112.0578062072
 30
0.0
 40
2.0
 41
0.0
 71
     1
 72
     1
  1
%%c
  7
SLDTEXTSTYLE0
 11
-7.044195017643634E-15
 21
1.0
 31
0.0
 73
     1
 44
1.0
  0
MTEXT
  5
14B
330
142
100
AcDbEntity
  8
VERMASSUNG
100
AcDbMText
 10
84.1855715953
 20
115.6666684056
 30
0.0
 40
2.0
 41
0.0
 71
     1
 72
     1
  1
16
  7
SLDTEXTSTYLE0
 11
-7.044195017643634E-15
 21
1.0
 31
0.0
 73
     1
 44
1.0
  0
ENDBLK
  5
144
330
142
100
AcDbEntity
  8
0
100
AcDbBlockEnd
  0
ENDSEC
  0
SECTION
  2
ENTITIES
  0
MTEXT
  5
49
330
1F
100
AcDbEntity
  8
KOPF_DÜNN
100
AcDbMText
 10
13.8892156294
 20
23.8442973028
 30
0.0
 40
3.0
 41
0.0
 71
     1
 72
     1
  1
272.025.006
  7
SLDTEXTSTYLE0
 73
     1
 44
1.0
  0
MTEXT
  5
4A
330
1F
100
AcDbEntity
  8
VERMASSUNG
100
AcDbMText
 10
13.9329988022
 20
28.8834360957
 30
0.0
 40
3.0
 41
0.0
 71
     1
 72
     1
  1
Ausdrehstahl_Boring bar ø24.75-30.1
  7
SLDTEXTSTYLE0
 73
     1
 44
1.0
  0
MTEXT
  5
4B
330
1F
100
AcDbEntity
  8
VERMASSUNG
100
AcDbMText
 10
98.8601118557
 20
13.8365368179
 30
0.0
 40
2.0
 41
0.0
 71
     1
 72
     1
  1
Datum: 04.08.2006
  7
SLDTEXTSTYLE0
 73
     1
 44
1.0
  0
MTEXT
  5
4C
330
1F
100
AcDbEntity
  8
VERMASSUNG
100
AcDbMText
 10
13.933048693
 20
18.0482802738
 30
0.0
 40
2.0
 41
0.0
 71
     1
 72
     1
  1
mit Innenkühlung_with spindel coolant feed
  7
SLDTEXTSTYLE0
 73
     1
 44
1.0
  0
MTEXT
  5
4D
330
1F
100
AcDbEntity
  8
VERMASSUNG
100
AcDbMText
 10
13.9808475933
 20
13.9090973692
 30
0.0
 40
2.0
 41
0.0
 71
     1
 72
     1
  1
Gewicht: 167g
  7
SLDTEXTSTYLE0
 73
     1
 44
1.0
  0
LINE
  5
4E
330
1F
100
AcDbEntity
  8
0
  6
Continuous
 62
     7
370
    15
100
AcDbLine
 10
205.313377056
 20
123.4685580034
 30
0.0
 11
205.313377056
 21
123.3930223288
 31
0.0
  0
LINE
  5
4F
330
1F
100
AcDbEntity
  8
0
  6
Continuous
 62
     7
370
    15
100
AcDbLine
 10
204.1545754784
 20
123.7237518557
 30
0.0
 11
204.1545754784
 21
123.7980223537
 31
0.0
  0
LINE
  5
50
330
1F
100
AcDbEntity
  8
0
  6
Continuous
 62
     7
370
    15
100
AcDbLine
 10
205.505053223
 20
124.5484668644
 30
0.0
 11
205.505053223
 21
124.4741963665
 31
0.0
  0
LINE
  5
51
330
1F
100
AcDbEntity
  8
0
  6
Continuous
 62
     7
370
    15
100
AcDbLine
 10
204.3462516455
 20
124.8049258934
 30
0.0
 11
204.3462516455
 21
124.8804615679
 31
0.0
  0
LINE
  5
52
330
1F
100
AcDbEntity
  8
0
  6
Continuous
 62
     7
370
    15
100
AcDbLine
 10
203.1298143507
 20
124.1578039318
 30
0.0
 11
203.1298143507
 21
124.0989741111
 31
0.0
  0
LINE
  5
53
330
1F
100
AcDbEntity
  8
0
  6
Continuous
 62
     7
370
    15
100
AcDbLine
 10
206.5298143507
 20
124.0989741111
 30
0.0
 11
206.5298143507
 21
124.1578039318
 31
0.0
  0
LINE
  5
54
330
1F
100
AcDbEntity
  8
0
  6
Continuous
 62
     7
370
    15
100
AcDbLine
 10
179.0717639371
 20
106.5749075975
 30
0.0
 11
189.5851349478
 21
106.5749075975
 31
0.0
  0
LINE
  5
55
330
1F
100
AcDbEntity
  8
0
  6
Continuous
 62
     7
370
    15
100
AcDbLine
 10
190.7954524877
 20
124.5749075975
 30
0.0
 11
179.0717639371
 21
124.5749075975
 31
0.0
  0
LINE
  5
56
330
1F
100
AcDbEntity
  8
0
  6
Continuous
 62
     7
370
    15
100
AcDbLine
 10
179.0717639371
 20
124.5749075975
 30
0.0
 11
178.0717639371
 21
123.5749075975
 31
0.0
  0
LINE
  5
57
330
1F
100
AcDbEntity
  8
0
  6
Continuous
 62
     7
370
    15
100
AcDbLine
 10
178.0717639371
 20
107.5749075975
 30
0.0
 11
179.0717639371
 21
106.5749075975
 31
0.0
  0
LINE
  5
58
330
1F
100
AcDbEntity
  8
0
  6
Continuous
 62
     7
370
    15
100
AcDbLine
 10
94.4467639371
 20
107.5749075975
 30
0.0
 11
178.0717639371
 21
107.5749075975
 31
0.0
  0
LINE
  5
59
330
1F
100
AcDbEntity
  8
0
  6
Continuous
 62
     7
370
    15
100
AcDbLine
 10
107.2717639371
 20
123.5749075975
 30
0.0
 11
104.3717639371
 21
123.5749075975
 31
0.0
  0
LINE
  5
5A
330
1F
100
AcDbEntity
  8
0
  6
Continuous
 62
     7
370
    15
100
AcDbLine
 10
121.7717639371
 20
123.5749075975
 30
0.0
 11
118.8717639371
 21
123.5749075975
 31
0.0
  0
LINE
  5
5B
330
1F
100
AcDbEntity
  8
0
  6
Continuous
 62
     7
370
    15
100
AcDbLine
 10
136.2717639371
 20
123.5749075975
 30
0.0
 11
133.3717639371
 21
123.5749075975
 31
0.0
  0
LINE
  5
5C
330
1F
100
AcDbEntity
  8
0
  6
Continuous
 62
     7
370
    15
100
AcDbLine
 10
150.7717639371
 20
123.5749075975
 30
0.0
 11
147.8717639371
 21
123.5749075975
 31
0.0
  0
LINE
  5
5D
330
1F
100
AcDbEntity
  8
0
  6
Continuous
 62
     7
370
    15
100
AcDbLine
 10
178.0717639371
 20
123.5749075975
 30
0.0
 11
162.3717639371
 21
123.5749075975
 31
0.0
  0
LINE
  5
5E
330
1F
100
AcDbEntity
  8
0
  6
Continuous
 62
     7
370
    15
100
AcDbLine
 10
93.0717639371
 20
108.9499075975
 30
0.0
 11
94.4467639371
 21
107.5749075975
 31
0.0
  0
LINE
  5
5F
330
1F
100
AcDbEntity
  8
0
  6
Continuous
 62
     7
370
    15
100
AcDbLine
 10
196.1510035917
 20
125.4729559181
 30
0.0
 11
191.3163970207
 21
124.6204843385
 31
0.0
  0
LINE
  5
60
330
1F
100
AcDbEntity
  8
0
  6
Continuous
 62
     7
370
    15
100
AcDbLine
 10
196.9622271389
 20
125.6159965168
 30
0.0
 11
196.1510035917
 21
125.4729559181
 31
0.0
  0
ARC
  5
61
330
1F
100
AcDbEntity
  8
0
  6
Continuous
 62
     7
370
    15
100
AcDbCircle
 10
190.7954524877
 20
127.5749075975
 30
0.0
 40
3.000000000000017
100
AcDbArc
 50
270.0
 51
280.0
  0
CIRCLE
  5
62
330
1F
100
AcDbEntity
  8
0
  6
Continuous
 62
     7
370
    15
100
AcDbCircle
 10
204.8273215521
 20
124.1622477481
 30
0.0
 40
1.697670810186452
  0
CIRCLE
  5
63
330
1F
100
AcDbEntity
  8
0
  6
Continuous
 62
     7
370
    15
100
AcDbCircle
 10
204.8280763422
 20
124.1802803291
 30
0.0
 40
1.098462107191824
  0
CIRCLE
  5
64
330
1F
100
AcDbEntity
  8
0
  6
Continuous
 62
     7
370
    15
100
AcDbCircle
 10
204.8282141109
 20
124.1804101144
 30
0.0
 40
1.048798308327095
  0
SPLINE
  5
65
330
1F
100
AcDbEntity
  8
0
  6
Continuous
 62
     7
370
    15
100
AcDbSpline
210
0.0
220
0.0
230
1.0
 70
     8
 71
     3
 72
    16
 73
    12
 74
     0
 42
0.00000001
 43
0.00000001
 40
0.0
 40
0.0
 40
0.0
 40
0.0
 40
0.1242194589697587
 40
0.2489993218720141
 40
0.3727377574601329
 40
0.4952944629268146
 40
0.61719577501664
 40
0.7391031181773212
 40
0.8616668233223003
 40
0.985392937171611
 40
1.0
 40
1.0
 40
1.0
 40
1.0
 10
204.7201718490594
 20
125.0590389134822
 30
0.0
 10
204.7055802158956
 20
125.0773648196327
 30
0.0
 10
204.6763311208431
 20
125.114099307466
 30
0.0
 10
204.6124998554886
 20
125.1468189578945
 30
0.0
 10
204.542771105091
 20
125.1575068819184
 30
0.0
 10
204.4736748464779
 20
125.1440646943857
 30
0.0
 10
204.4133221393055
 20
125.1087102814332
 30
0.0
 10
204.367962404875
 20
125.0553868928147
 30
0.0
 10
204.3425669517761
 20
124.9899472714314
 30
0.0
 10
204.3405131980693
 20
124.9400706044226
 30
0.0
 10
204.3444865280911
 20
124.914520728632
 30
0.0
 10
204.3449060852982
 20
124.9118228317869
 30
0.0
  0
SPLINE
  5
66
330
1F
100
AcDbEntity
  8
0
  6
Continuous
 62
     7
370
    15
100
AcDbSpline
210
0.0
220
0.0
230
1.0
 70
     8
 71
     3
 72
    12
 73
     8
 74
     0
 42
0.00000001
 43
0.00000001
 40
0.0
 40
0.0
 40
0.0
 40
0.0
 40
0.2093653562126868
 40
0.4192620302417105
 40
0.6249526976742531
 40
0.8281707878026409
 40
1.0
 40
1.0
 40
1.0
 40
1.0
 10
204.3449060852982
 20
124.9118228317869
 30
0.0
 10
204.3445067535127
 20
124.8712512629931
 30
0.0
 10
204.3437070765357
 20
124.7900051647356
 30
0.0
 10
204.2921735516265
 20
124.6773470267691
 30
0.0
 10
204.2100567700648
 20
124.5895877899219
 30
0.0
 10
204.1101225320494
 20
124.535314864336
 30
0.0
 10
204.0390480856404
 20
124.526483337512
 30
0.0
 10
204.0064850834322
 20
124.522437143106
 30
0.0
  0
SPLINE
  5
67
330
1F
100
AcDbEntity
  8
0
  6
Continuous
 62
     7
370
    15
100
AcDbSpline
210
0.0
220
0.0
230
1.0
 70
     8
 71
     3
 72
    16
 73
    12
 74
     0
 42
0.00000001
 43
0.00000001
 40
0.0
 40
0.0
 40
0.0
 40
0.0
 40
0.1231896672979388
 40
0.2479795154961116
 40
0.3717274745391618
 40
0.4942903479747926
 40
0.6161927293767869
 40
0.7380955470921189
 40
0.8606497678263918
 40
0.9843631542991867
 40
1.0
 40
1.0
 40
1.0
 40
1.0
 10
204.0064850834322
 20
124.522437143106
 30
0.0
 10
203.983714378658
 20
124.5192094061412
 30
0.0
 10
203.9378771874289
 20
124.512712005294
 30
0.0
 10
203.8781532225773
 20
124.4746165454484
 30
0.0
 10
203.83420435397
 20
124.420132402577
 30
0.0
 10
203.8112709473271
 20
124.3539282934385
 30
0.0
 10
203.8115029123701
 20
124.2841054552162
 30
0.0
 10
203.8346243334355
 20
124.2180332066877
 30
0.0
 10
203.878076129434
 20
124.1629525246678
 30
0.0
 10
203.9199499158873
 20
124.1356986453307
 30
0.0
 10
203.9440043884171
 20
124.1260813896306
 30
0.0
 10
203.9467036022576
 20
124.1250022127889
 30
0.0
  0
SPLINE
  5
68
330
1F
100
AcDbEntity
  8
0
  6
Continuous
 62
     7
370
    15
100
AcDbSpline
210
0.0
220
0.0
230
1.0
 70
     8
 71
     3
 72
    12
 73
     8
 74
     0
 42
0.00000001
 43
0.00000001
 40
0.0
 40
0.0
 40
0.0
 40
0.0
 40
0.2093652529605573
 40
0.4192619297278772
 40
0.6249525996332902
 40
0.8281706892237507
 40
1.0
 40
1.0
 40
1.0
 40
1.0
 10
203.9467036022576
 20
124.1250022127889
 30
0.0
 10
203.9813316578305
 20
124.1041174282282
 30
0.0
 10
204.0506756640441
 20
124.0622948480575
 30
0.0
 10
204.1221823154064
 20
123.961124344144
 30
0.0
 10
204.1575423539996
 20
123.8464728066794
 30
0.0
 10
204.1555584442956
 20
123.7335812929968
 30
0.0
 10
204.1285168077954
 20
123.6683179632489
 30
0.0
 10
204.1161275851065
 20
123.6384173347987
 30
0.0
  0
SPLINE
  5
69
330
1F
100
AcDbEntity
  8
0
  6
Continuous
 62
     7
370
    15
100
AcDbSpline
210
0.0
220
0.0
230
1.0
 70
     8
 71
     3
 72
    16
 73
    12
 74
     0
 42
0.00000001
 43
0.00000001
 40
0.0
 40
0.0
 40
0.0
 40
0.0
 40
0.1243654221088629
 40
0.2491438717989597
 40
0.3728809614208266
 40
0.4954367981748938
 40
0.6173379650704245
 40
0.7392459561098331
 40
0.8618110113605781
 40
0.9855389335649353
 40
0.9999999999999999
 40
0.9999999999999999
 40
0.9999999999999999
 40
0.9999999999999999
 10
204.1161275851065
 20
123.6384173347987
 30
0.0
 10
204.1077495185575
 20
123.6170966531286
 30
0.0
 10
204.090965561226
 20
123.5743844820876
 30
0.0
 10
204.0950483831751
 20
123.5039312054443
 30
0.0
 10
204.1210110018191
 20
123.4390689111616
 30
0.0
 10
204.1673803062621
 20
123.3863950315479
 30
0.0
 10
204.228171044349
 20
123.3517970280636
 30
0.0
 10
204.2968386166301
 20
123.3387085948106
 30
0.0
 10
204.3658318130289
 20
123.3485272565019
 30
0.0
 10
204.4096403455946
 20
123.370762031768
 30
0.0
 10
204.4295304295921
 20
123.3864128926613
 30
0.0
 10
204.431611867693
 20
123.3880507086795
 30
0.0
  0
SPLINE
  5
6A
330
1F
100
AcDbEntity
  8
0
  6
Continuous
 62
     7
370
    15
100
AcDbSpline
210
0.0
220
0.0
230
1.0
 70
     8
 71
     3
 72
    12
 73
     8
 74
     0
 42
0.00000001
 43
0.00000001
 40
0.0
 40
0.0
 40
0.0
 40
0.0
 40
0.2092378396812771
 40
0.4191378956981821
 40
0.6248316181528994
 40
0.8280490456279136
 40
0.9999999999999999
 40
0.9999999999999999
 40
0.9999999999999999
 40
0.9999999999999999
 10
204.431611867693
 20
123.3880507086795
 30
0.0
 10
204.4666163652202
 20
123.4072185022553
 30
0.0
 10
204.5367361459247
 20
123.4456147535107
 30
0.0
 10
204.6597492393129
 20
123.4563612610523
 30
0.0
 10
204.7772327141444
 20
123.4296365777357
 30
0.0
 10
204.8752165932281
 20
123.3719467987746
 30
0.0
 10
204.9192671549437
 20
123.3164398164865
 30
0.0
 10
204.9394568524079
 20
123.2909992968676
 30
0.0
  0
SPLINE
  5
6B
330
1F
100
AcDbEntity
  8
0
  6
Continuous
 62
     7
370
    15
100
AcDbSpline
210
0.0
220
0.0
230
1.0
 70
     8
 71
     3
 72
    16
 73
    12
 74
     0
 42
0.00000001
 43
0.00000001
 40
0.0
 40
0.0
 40
0.0
 40
0.0
 40
0.1242194589697584
 40
0.2489993218720373
 40
0.3727377574601573
 40
0.4952944629268405
 40
0.617195775016666
 40
0.7391031181773665
 40
0.8616668233223372
 40
0.9853929371716521
 40
1.0
 40
1.0
 40
1.0
 40
1.0
 10
204.9394568524079
 20
123.2909992968676
 30
0.0
 10
204.9540484855716
 20
123.2732832252055
 30
0.0
 10
204.9832975806242
 20
123.2377711575578
 30
0.0
 10
205.0471288459787
 20
123.2063878066256
 30
0.0
 10
205.1168575963761
 20
123.196537382016
 30
0.0
 10
205.1859538549894
 20
123.2102439054941
 30
0.0
 10
205.2463065621618
 20
123.2452908429022
 30
0.0
 10
205.2916662965924
 20
123.297756300609
 30
0.0
 10
205.3170617496911
 20
123.3618388316822
 30
0.0
 10
205.3191155033981
 20
123.4104651527744
 30
0.0
 10
205.3151421733763
 20
123.4352976745346
 30
0.0
 10
205.3147226161691
 20
123.4379198235681
 30
0.0
  0
SPLINE
  5
6C
330
1F
100
AcDbEntity
  8
0
  6
Continuous
 62
     7
370
    15
100
AcDbSpline
210
0.0
220
0.0
230
1.0
 70
     8
 71
     3
 72
    12
 73
     8
 74
     0
 42
0.00000001
 43
0.00000001
 40
0.0
 40
0.0
 40
0.0
 40
0.0
 40
0.209365356212672
 40
0.419262030241688
 40
0.6249526976742102
 40
0.8281707878025736
 40
1.0
 40
1.0
 40
1.0
 40
1.0
 10
205.3147226161691
 20
123.4379198235681
 30
0.0
 10
205.3151219479546
 20
123.4774734052981
 30
0.0
 10
205.3159216249316
 20
123.556680946027
 30
0.0
 10
205.3674551498407
 20
123.6678112866782
 30
0.0
 10
205.4495719314024
 20
123.7558612470013
 30
0.0
 10
205.5495061694179
 20
123.8119790798627
 30
0.0
 10
205.6205806158269
 20
123.8226926213453
 30
0.0
 10
205.6531436180351
 20
123.8276010672437
 30
0.0
  0
SPLINE
  5
6D
330
1F
100
AcDbEntity
  8
0
  6
Continuous
 62
     7
370
    15
100
AcDbSpline
210
0.0
220
0.0
230
1.0
 70
     8
 71
     3
 72
    16
 73
    12
 74
     0
 42
0.00000001
 43
0.00000001
 40
0.0
 40
0.0
 40
0.0
 40
0.0
 40
0.1231896672979438
 40
0.2479795154961221
 40
0.3717274745391642
 40
0.4942903479748119
 40
0.6161927293768156
 40
0.7380955470921565
 40
0.8606497678264389
 40
0.9843631542992398
 40
1.0
 40
1.0
 40
1.0
 40
1.0
 10
205.6531436180351
 20
123.8276010672437
 30
0.0
 10
205.6759143228093
 20
123.8314337500289
 30
0.0
 10
205.7217515140384
 20
123.8391489005035
 30
0.0
 10
205.78147547889
 20
123.8785810940372
 30
0.0
 10
205.8254243474973
 20
123.93390727501
 30
0.0
 10
205.8483577541402
 20
124.0003804785443
 30
0.0
 10
205.8481257890971
 20
124.0699004993493
 30
0.0
 10
205.8250043680318
 20
124.1351192016618
 30
0.0
 10
205.7815525720332
 20
124.1888465681949
 30
0.0
 10
205.73967878558
 20
124.2148474627219
 30
0.0
 10
205.7156243130502
 20
124.2237423271009
 30
0.0
 10
205.7129250992097
 20
124.2247404425661
 30
0.0
  0
SPLINE
  5
6E
330
1F
100
AcDbEntity
  8
0
  6
Continuous
 62
     7
370
    15
100
AcDbSpline
210
0.0
220
0.0
230
1.0
 70
     8
 71
     3
 72
    12
 73
     8
 74
     0
 42
0.00000001
 43
0.00000001
 40
0.0
 40
0.0
 40
0.0
 40
0.0
 40
0.2093652529605284
 40
0.4192619297278376
 40
0.6249525996332396
 40
0.8281706892236851
 40
1.0
 40
1.0
 40
1.0
 40
1.0
 10
205.7129250992097
 20
124.2247404425661
 30
0.0
 10
205.6782970436368
 20
124.2446072405413
 30
0.0
 10
205.6089530374232
 20
124.2843912636243
 30
0.0
 10
205.5374463860609
 20
124.3840339696239
 30
0.0
 10
205.5020863474678
 20
124.4989762296557
 30
0.0
 10
205.5040702571717
 20
124.6137126502688
 30
0.0
 10
205.5311118936718
 20
124.6808579951307
 30
0.0
 10
205.5435011163609
 20
124.711620875551
 30
0.0
  0
SPLINE
  5
6F
330
1F
100
AcDbEntity
  8
0
  6
Continuous
 62
     7
370
    15
100
AcDbSpline
210
0.0
220
0.0
230
1.0
 70
     8
 71
     3
 72
    16
 73
    12
 74
     0
 42
0.00000001
 43
0.00000001
 40
0.0
 40
0.0
 40
0.0
 40
0.0
 40
0.1243654221088644
 40
0.2491438717989632
 40
0.3728809614208308
 40
0.4954367981749158
 40
0.6173379650704272
 40
0.7392459561098369
 40
0.8618110113605828
 40
0.9855389335649635
 40
0.9999999999999999
 40
0.9999999999999999
 40
0.9999999999999999
 40
0.9999999999999999
 10
205.5435011163609
 20
124.711620875551
 30
0.0
 10
205.5518791829098
 20
124.7335520844272
 30
0.0
 10
205.5686631402413
 20
124.7774873374902
 30
0.0
 10
205.5645803182922
 20
124.8492768497407
 30
0.0
 10
205.5386176996482
 20
124.9149759997989
 30
0.0
 10
205.4922483952053
 20
124.9679135407688
 30
0.0
 10
205.4314576571182
 20
125.0022034084967
 30
0.0
 10
205.3627900848373
 20
125.0144332895055
 30
0.0
 10
205.2937968884383
 20
125.003257002889
 30
0.0
 10
205.2499883558728
 20
124.9797722575215
 30
0.0
 10
205.2300982718752
 20
124.9634047569079
 30
0.0
 10
205.2280168337743
 20
124.9616919466755
 30
0.0
  0
SPLINE
  5
70
330
1F
100
AcDbEntity
  8
0
  6
Continuous
 62
     7
370
    15
100
AcDbSpline
210
0.0
220
0.0
230
1.0
 70
     8
 71
     3
 72
    12
 73
     8
 74
     0
 42
0.00000001
 43
0.00000001
 40
0.0
 40
0.0
 40
0.0
 40
0.0
 40
0.2092378396812664
 40
0.4191378956981672
 40
0.6248316181528765
 40
0.8280490456278798
 40
1.0
 40
1.0
 40
1.0
 40
1.0
 10
205.2280168337743
 20
124.9616919466755
 30
0.0
 10
205.1930123362471
 20
124.9415067565888
 30
0.0
 10
205.1228925555426
 20
124.9010724923559
 30
0.0
 10
204.9998794621544
 20
124.888797448692
 30
0.0
 10
204.8823959873229
 20
124.915811733141
 30
0.0
 10
204.7844121082392
 20
124.9753459931154
 30
0.0
 10
204.7403615465236
 20
125.0327355522617
 30
0.0
 10
204.7201718490594
 20
125.0590389134822
 30
0.0
  0
LINE
  5
71
330
1F
100
AcDbEntity
  8
0
  6
Continuous
 62
     7
370
    15
100
AcDbLine
 10
205.3147226162
 20
123.3995795763
 30
0.0
 11
205.3147226162
 21
123.4379198236
 31
0.0
  0
ARC
  5
72
330
1F
100
AcDbEntity
  8
0
  6
Continuous
 62
     7
370
    15
100
AcDbCircle
 10
203.7965930133
 20
123.723769686
 30
0.0
 40
0.3579824655267945
100
AcDbArc
 50
333.2015973696
 51
359.9971462262
  0
ARC
  5
73
330
1F
100
AcDbEntity
  8
0
  6
Continuous
 62
     7
370
    15
100
AcDbCircle
 10
205.6420143864
 20
123.9561624403
 30
0.0
 40
0.2053149150781725
100
AcDbArc
 50
9.6291021081
 51
69.795289154
  0
LINE
  5
74
330
1F
100
AcDbEntity
  8
0
  6
Continuous
 62
     7
370
    15
100
AcDbLine
 10
205.7129250992
 20
124.148843226
 30
0.0
 11
205.7129250992
 21
124.2247404426
 31
0.0
  0
ARC
  5
75
330
1F
100
AcDbEntity
  8
0
  6
Continuous
 62
     7
370
    15
100
AcDbCircle
 10
204.0179735939
 20
124.2410049853
 30
0.0
 40
0.2057082227159447
100
AcDbArc
 50
93.2015532493
 51
170.5524339762
  0
ARC
  5
76
330
1F
100
AcDbEntity
  8
0
  6
Continuous
 62
     7
370
    15
100
AcDbCircle
 10
205.864082942
 20
124.4745021567
 30
0.0
 40
0.359029849198847
100
AcDbArc
 50
180.0487995465
 51
245.1011579895
  0
ARC
  5
77
330
1F
100
AcDbEntity
  8
0
  6
Continuous
 62
     7
370
    15
100
AcDbCircle
 10
203.9865704989
 20
124.8055220586
 30
0.0
 40
0.3596816406720776
100
AcDbArc
 50
273.1739329859
 51
359.9050333287
  0
ARC
  5
78
330
1F
100
AcDbEntity
  8
0
  6
Continuous
 62
     7
370
    15
100
AcDbCircle
 10
205.3594876723
 20
124.7270918402
 30
0.0
 40
0.206085391664555
100
AcDbArc
 50
10.5164006167
 51
129.6386427468
  0
LINE
  5
79
330
1F
100
AcDbEntity
  8
0
  6
Continuous
 62
     7
370
    15
100
AcDbLine
 10
205.2280168338
 20
124.8857947301
 30
0.0
 11
205.2280168338
 21
124.9616919467
 31
0.0
  0
ARC
  5
7A
330
1F
100
AcDbEntity
  8
0
  6
Continuous
 62
     7
370
    15
100
AcDbCircle
 10
204.8326526711
 20
124.1019615136
 30
0.0
 40
1.697164308851399
100
AcDbArc
 50
259.8858006282
 51
359.8991460965
  0
ARC
  5
7B
330
1F
100
AcDbEntity
  8
0
  6
Continuous
 62
     7
370
    15
100
AcDbCircle
 10
204.8247228857
 20
124.1010684473
 30
0.0
 40
1.694909828882477
100
AcDbArc
 50
180.0707982547
 51
260.1443974419
  0
ARC
  5
7C
330
1F
100
AcDbEntity
  8
0
  6
Continuous
 62
     7
370
    15
100
AcDbCircle
 10
204.5480232885
 20
124.8693232052
 30
0.0
 40
0.2062914398768415
100
AcDbArc
 50
33.4370190755
 51
159.1828606747
  0
ARC
  5
7D
330
1F
100
AcDbEntity
  8
0
  6
Continuous
 62
     7
370
    15
100
AcDbCircle
 10
205.0215378244
 20
125.1822763808
 30
0.0
 40
0.361296208856117
100
AcDbArc
 50
213.4752278009
 51
304.8545488577
  0
LINE
  5
7E
330
1F
100
AcDbEntity
  8
0
  6
Continuous
 62
     7
370
    15
100
AcDbLine
 10
202.1912232082
 20
120.5699423259
 30
0.0
 11
207.7412232082
 21
121.5448331442
 31
0.0
  0
LINE
  5
7F
330
1F
100
AcDbEntity
  8
0
  6
Continuous
 62
     7
370
    15
100
AcDbLine
 10
202.1217639371
 20
120.9422386741
 30
0.0
 11
202.1912232082
 21
120.5699423259
 31
0.0
  0
LINE
  5
80
330
1F
100
AcDbEntity
  8
0
  6
Continuous
 62
     7
370
    15
100
AcDbLine
 10
202.2089046608
 20
121.0413088948
 30
0.0
 11
202.1217639371
 21
120.9422386741
 31
0.0
  0
SPLINE
  5
81
330
1F
100
AcDbEntity
  8
0
  6
Continuous
 62
     7
370
    15
100
AcDbSpline
210
0.0
220
0.0
230
1.0
 70
     8
 71
     3
 72
    11
 73
     7
 74
     0
 42
0.00000001
 43
0.00000001
 40
0.0
 40
0.0
 40
0.0
 40
0.0
 40
0.0074552814711512
 40
0.3066092506034599
 40
0.6526506519390376
 40
1.0
 40
1.0
 40
1.0
 40
1.0
 10
202.6511595654049
 20
121.5730405758845
 30
0.0
 10
202.6501731518366
 20
121.5717925892696
 30
0.0
 10
202.6096054648733
 20
121.5204673318352
 30
0.0
 10
202.5174296157963
 20
121.40572453559
 30
0.0
 10
202.3643185110282
 20
121.2204577255873
 30
0.0
 10
202.260774382815
 20
121.1011002199409
 30
0.0
 10
202.2089046607836
 20
121.0413088947631
 30
0.0
  0
LINE
  5
82
330
1F
100
AcDbEntity
  8
0
  6
Continuous
 62
     7
370
    15
100
AcDbLine
 10
202.1217639371
 20
120.9422386741
 30
0.0
 11
201.7217639371
 21
120.9623664307
 31
0.0
  0
LINE
  5
83
330
1F
100
AcDbEntity
  8
0
  6
Continuous
 62
     7
370
    15
100
AcDbLine
 10
201.7217639371
 20
126.5765388999
 30
0.0
 11
201.7217639371
 21
120.9623664307
 31
0.0
  0
SPLINE
  5
84
330
1F
100
AcDbEntity
  8
0
  6
Continuous
 62
     7
370
    15
100
AcDbSpline
210
0.0
220
0.0
230
1.0
 70
     8
 71
     3
 72
    12
 73
     8
 74
     0
 42
0.00000001
 43
0.00000001
 40
0.0
 40
0.0
 40
0.0
 40
0.0
 40
0.0481906270125628
 40
0.4227687915308467
 40
0.5661203835287613
 40
0.9912408780624049
 40
0.9999999999999999
 40
0.9999999999999999
 40
0.9999999999999999
 40
0.9999999999999999
 10
207.6957527631217
 20
121.8986528356721
 30
0.0
 10
207.688171519357
 20
121.9047269289339
 30
0.0
 10
207.6216624601608
 20
121.9580139938082
 30
0.0
 10
207.5264964735203
 20
122.0366204519952
 30
0.0
 10
207.3726284984823
 20
122.1674638870999
 30
0.0
 10
207.2813169921144
 20
122.2476595930022
 30
0.0
 10
207.2194336140092
 20
122.303433089386
 30
0.0
 10
207.2181843180428
 20
122.30455903962
 30
0.0
  0
SPLINE
  5
85
330
1F
100
AcDbEntity
  8
0
  6
Continuous
 62
     7
370
    15
100
AcDbSpline
210
0.0
220
0.0
230
1.0
 70
     8
 71
     3
 72
    10
 73
     6
 74
     0
 42
0.00000001
 43
0.00000001
 40
0.0
 40
0.0
 40
0.0
 40
0.0
 40
0.3658097627759576
 40
0.9379269162050847
 40
0.9999999999999999
 40
0.9999999999999999
 40
0.9999999999999999
 40
0.9999999999999999
 10
207.6957527631208
 20
121.8986528356728
 30
0.0
 10
207.6969194995955
 20
121.8889664905249
 30
0.0
 10
207.6999109822047
 20
121.8641309482341
 30
0.0
 10
207.6944179503836
 20
121.8382276382564
 30
0.0
 10
207.6901648154492
 20
121.8222931030646
 30
0.0
 10
207.6897485283705
 20
121.8207334673589
 30
0.0
  0
ARC
  5
86
330
1F
100
AcDbEntity
  8
0
  6
Continuous
 62
     7
370
    15
100
AcDbCircle
 10
202.1212952124
 20
120.9633075519
 30
0.0
 40
0.3995323837042745
100
AcDbArc
 50
180.1349635748
 51
280.0800897005
  0
SPLINE
  5
87
330
1F
100
AcDbEntity
  8
0
  6
Continuous
 62
     7
370
    15
100
AcDbSpline
210
0.0
220
0.0
230
1.0
 70
     8
 71
     3
 72
    10
 73
     6
 74
     0
 42
0.00000001
 43
0.00000001
 40
0.0
 40
0.0
 40
0.0
 40
0.0
 40
0.0620730837953937
 40
0.6341902372121142
 40
1.0
 40
1.0
 40
1.0
 40
1.0
 10
207.7753330702743
 20
121.9223410282675
 30
0.0
 10
207.7737869019181
 20
121.9215708003588
 30
0.0
 10
207.7579899603665
 20
121.9137015116063
 30
0.0
 10
207.7321009015219
 20
121.9023474195138
 30
0.0
 10
207.7059515280258
 20
121.8996894827654
 30
0.0
 10
207.6957527631217
 20
121.8986528356721
 30
0.0
  0
ARC
  5
88
330
1F
100
AcDbEntity
  8
0
  6
Continuous
 62
     7
370
    15
100
AcDbCircle
 10
203.5205921249
 20
122.6268252878
 30
0.0
 40
0.9988309590978658
100
AcDbArc
 50
180.1349635615
 51
280.0800897288
  0
LINE
  5
89
330
1F
100
AcDbEntity
  8
0
  6
Continuous
 62
     7
370
    15
100
AcDbLine
 10
207.6717639371
 20
127.5313019617
 30
0.0
 11
208.0717639371
 21
127.5514297183
 31
0.0
  0
LINE
  5
8A
330
1F
100
AcDbEntity
  8
0
  6
Continuous
 62
     7
370
    15
100
AcDbLine
 10
208.0717639371
 20
121.9372572491
 30
0.0
 11
208.0717639371
 21
127.5514297183
 31
0.0
  0
LINE
  5
8B
330
1F
100
AcDbEntity
  8
0
  6
Continuous
 62
     7
370
    15
100
AcDbLine
 10
207.5846232135
 20
127.4234620047
 30
0.0
 11
207.6717639371
 21
127.5313019617
 31
0.0
  0
ARC
  5
8C
330
1F
100
AcDbEntity
  8
0
  6
Continuous
 62
     7
370
    15
100
AcDbCircle
 10
206.2744776453
 20
123.1089953731
 30
0.0
 40
0.9972873735973181
100
AcDbArc
 50
279.8691938001
 51
359.9156105033
  0
ARC
  5
8D
330
1F
100
AcDbEntity
  8
0
  6
Continuous
 62
     7
370
    15
100
AcDbCircle
 10
207.6728494204
 20
121.9378448006
 30
0.0
 40
0.3989149494388825
100
AcDbArc
 50
279.8691938001
 51
359.9156105054
  0
LINE
  5
8E
330
1F
100
AcDbEntity
  8
0
  6
Continuous
 62
     7
370
    15
100
AcDbLine
 10
203.6954121148
 20
121.6434122231
 30
0.0
 11
206.4454121148
 21
122.1264662322
 31
0.0
  0
LINE
  5
8F
330
1F
100
AcDbEntity
  8
0
  6
Continuous
 62
     7
370
    15
100
AcDbLine
 10
206.0981157595
 20
126.870383926
 30
0.0
 11
203.3481157595
 21
126.3873299169
 31
0.0
  0
ARC
  5
90
330
1F
100
AcDbEntity
  8
0
  6
Continuous
 62
     7
370
    15
100
AcDbCircle
 10
206.2729357489
 20
125.8869708609
 30
0.0
 40
0.9988309592897581
100
AcDbArc
 50
0.1349635767
 51
100.0800896985
  0
LINE
  5
91
330
1F
100
AcDbEntity
  8
0
  6
Continuous
 62
     7
370
    15
100
AcDbLine
 10
207.2717639371
 20
123.1075264944
 30
0.0
 11
207.2717639371
 21
125.8893236638
 31
0.0
  0
LINE
  5
92
330
1F
100
AcDbEntity
  8
0
  6
Continuous
 62
     7
370
    15
100
AcDbLine
 10
202.5217639371
 20
125.4062696547
 30
0.0
 11
202.5217639368
 21
122.6244724852
 31
0.0
  0
ARC
  5
93
330
1F
100
AcDbEntity
  8
0
  6
Continuous
 62
     7
370
    15
100
AcDbCircle
 10
203.519050229
 20
125.404800776
 30
0.0
 40
0.9972873735973022
100
AcDbArc
 50
99.8691938001
 51
179.9156105033
  0
CIRCLE
  5
94
330
1F
100
AcDbEntity
  8
0
  6
Continuous
 62
     7
370
    15
100
AcDbCircle
 10
204.8916841445
 20
124.2557170688
 30
0.0
 40
1.919920570644236
  0
ARC
  5
95
330
1F
100
AcDbEntity
  8
0
  6
Continuous
 62
     7
370
    15
100
AcDbCircle
 10
204.8967639371
 20
124.1864731771
 30
0.0
 40
1.925006645255575
100
AcDbArc
 50
0.1505488639
 51
179.8494511361
  0
SPLINE
  5
96
330
1F
100
AcDbEntity
  8
0
  6
Continuous
 62
     7
370
    15
100
AcDbSpline
210
0.0
220
0.0
230
1.0
 70
     8
 71
     3
 72
    12
 73
     8
 74
     0
 42
0.00000001
 43
0.00000001
 40
0.0
 40
0.0
 40
0.0
 40
0.0
 40
0.0087591219375922
 40
0.4338796164712507
 40
0.5772312084691699
 40
0.9518093729874662
 40
1.0
 40
1.0
 40
1.0
 40
1.0
 10
202.5753435562352
 20
126.1855402925726
 30
0.0
 10
202.5740942602689
 20
126.1865029318352
 30
0.0
 10
202.5122108821634
 20
126.2341868842922
 30
0.0
 10
202.4208993757958
 20
126.3066469607325
 30
0.0
 10
202.2670314007577
 20
126.4330420385075
 30
0.0
 10
202.1718654141174
 20
126.5135353336906
 30
0.0
 10
202.105356354921
 20
126.5714389923991
 30
0.0
 10
202.0977751111564
 20
126.5780393225923
 30
0.0
  0
SPLINE
  5
97
330
1F
100
AcDbEntity
  8
0
  6
Continuous
 62
     7
370
    15
100
AcDbSpline
210
0.0
220
0.0
230
1.0
 70
     8
 71
     3
 72
    10
 73
     6
 74
     0
 42
0.00000001
 43
0.00000001
 40
0.0
 40
0.0
 40
0.0
 40
0.0
 40
0.0620730837952885
 40
0.6341902372119168
 40
1.0
 40
1.0
 40
1.0
 40
1.0
 10
202.0181948040037
 20
126.5616226790774
 30
0.0
 10
202.01974097236
 20
126.5622378395617
 30
0.0
 10
202.0355379139116
 20
126.5685228305694
 30
0.0
 10
202.061426972756
 20
126.5773769668673
 30
0.0
 10
202.0875763462521
 20
126.5778534751013
 30
0.0
 10
202.0977751111564
 20
126.5780393225923
 30
0.0
  0
SPLINE
  5
98
330
1F
100
AcDbEntity
  8
0
  6
Continuous
 62
     7
370
    15
100
AcDbSpline
210
0.0
220
0.0
230
1.0
 70
     8
 71
     3
 72
    11
 73
     7
 74
     0
 42
0.00000001
 43
0.00000001
 40
0.0
 40
0.0
 40
0.0
 40
0.0
 40
0.3473493480609745
 40
0.6933907493965135
 40
0.9925447185288429
 40
1.0
 40
1.0
 40
1.0
 40
1.0
 10
207.5846232134946
 20
127.4234620046752
 30
0.0
 10
207.532753491463
 20
127.3600919312316
 30
0.0
 10
207.4292093632497
 20
127.2335904048586
 30
0.0
 10
207.2760982584819
 20
127.05530450879
 30
0.0
 10
207.1839224094045
 20
126.9511815381326
 30
0.0
 10
207.1433547224413
 20
126.9061813696817
 30
0.0
 10
207.1423683088731
 20
126.9050871792051
 30
0.0
  0
SPLINE
  5
99
330
1F
100
AcDbEntity
  8
0
  6
Continuous
 62
     7
370
    15
100
AcDbSpline
210
0.0
220
0.0
230
1.0
 70
     8
 71
     3
 72
    10
 73
     6
 74
     0
 42
0.00000001
 43
0.00000001
 40
0.0
 40
0.0
 40
0.0
 40
0.0
 40
0.3658097627759576
 40
0.9379269162051335
 40
1.0
 40
1.0
 40
1.0
 40
1.0
 10
202.0977751111572
 20
126.5780393225915
 30
0.0
 10
202.0966083746826
 20
126.5885764673417
 30
0.0
 10
202.0936168920733
 20
126.6155934381469
 30
0.0
 10
202.0991099238942
 20
126.6439967039194
 30
0.0
 10
202.1033630588288
 20
126.6615155368559
 30
0.0
 10
202.1037793459075
 20
126.663230239986
 30
0.0
  0
LINE
  5
9A
330
1F
100
AcDbEntity
  8
0
  6
Continuous
 62
     7
370
    15
100
AcDbLine
 10
207.6023046661
 20
127.9438538232
 30
0.0
 11
202.0523046661
 21
126.9689630048
 31
0.0
  0
LINE
  5
9B
330
1F
100
AcDbEntity
  8
0
  6
Continuous
 62
     7
370
    15
100
AcDbLine
 10
207.6717639371
 20
127.5313019617
 30
0.0
 11
207.6023046661
 21
127.9438538232
 31
0.0
  0
ARC
  5
9C
330
1F
100
AcDbEntity
  8
0
  6
Continuous
 62
     7
370
    15
100
AcDbCircle
 10
202.1206784539
 20
126.5759513485
 30
0.0
 40
0.3989149494460995
100
AcDbArc
 50
99.8691938009
 51
179.9156105024
  0
ARC
  5
9D
330
1F
100
AcDbEntity
  8
0
  6
Continuous
 62
     7
370
    15
100
AcDbCircle
 10
207.6722326618
 20
127.5504885972
 30
0.0
 40
0.3995323837275011
100
AcDbArc
 50
0.1349635787
 51
100.0800896965
  0
SPLINE
  5
9E
330
1F
100
AcDbEntity
  8
0
  6
Continuous
 62
     7
370
    15
100
AcDbSpline
210
0.0
220
0.0
230
1.0
 70
     8
 71
     3
 72
    56
 73
    52
 74
     0
 42
0.00000001
 43
0.00000001
 40
-0.0624999999999987
 40
-0.0624999999999987
 40
0.0
 40
0.0
 40
0.0624999999999988
 40
0.0624999999999988
 40
0.0937499999999982
 40
0.0937499999999982
 40
0.1249999999999976
 40
0.1249999999999976
 40
0.156249999999997
 40
0.156249999999997
 40
0.1874999999999964
 40
0.1874999999999964
 40
0.2187499999999958
 40
0.2187499999999958
 40
0.2499999999999952
 40
0.2499999999999952
 40
0.2812499999999946
 40
0.2812499999999946
 40
0.3124999999999939
 40
0.3124999999999939
 40
0.3437499999999933
 40
0.3437499999999933
 40
0.3749999999999928
 40
0.3749999999999928
 40
0.4374999999999943
 40
0.4374999999999943
 40
0.4999999999999959
 40
0.4999999999999959
 40
0.5624999999999974
 40
0.5624999999999974
 40
0.5937499999999983
 40
0.5937499999999983
 40
0.6249999999999991
 40
0.6249999999999991
 40
0.65625
 40
0.65625
 40
0.6875000000000008
 40
0.6875000000000008
 40
0.7187500000000017
 40
0.7187500000000017
 40
0.7500000000000024
 40
0.7500000000000024
 40
0.7812500000000033
 40
0.7812500000000033
 40
0.8125000000000042
 40
0.8125000000000042
 40
0.8750000000000028
 40
0.8750000000000028
 40
0.9375000000000013
 40
0.9375000000000013
 40
1.0
 40
1.0
 40
1.062499999999999
 40
1.062499999999999
 10
193.5588216410893
 20
121.3029072637469
 30
0.0
 10
193.1427134882643
 20
121.0626671097014
 30
0.0
 10
192.9575641169507
 20
120.9248384245268
 30
0.0
 10
192.7315042579004
 20
120.6733207367104
 30
0.0
 10
192.664916633026
 20
120.5811106336506
 30
0.0
 10
192.561821154328
 20
120.3838078095757
 30
0.0
 10
192.5241731961975
 20
120.2761580256968
 30
0.0
 10
192.4894521155369
 20
120.0511285812743
 30
0.0
 10
192.4923959436766
 20
119.9308589332927
 30
0.0
 10
192.5445955644747
 20
119.6927558658483
 30
0.0
 10
192.5945014359735
 20
119.5721447137645
 30
0.0
 10
192.7334376879096
 20
119.3476692995094
 30
0.0
 10
192.8230530585657
 20
119.2424041937664
 30
0.0
 10
193.0242028667639
 20
119.058919325106
 30
0.0
 10
193.1374174596959
 20
118.9789300900783
 30
0.0
 10
193.3707972575219
 20
118.8478758362643
 30
0.0
 10
193.4934996204754
 20
118.7950986148738
 30
0.0
 10
193.7413411650072
 20
118.7146424555494
 30
0.0
 10
193.865203651414
 20
118.6870999288034
 30
0.0
 10
194.1134256557307
 20
118.6532744736404
 30
0.0
 10
194.238617401076
 20
118.6471977207194
 30
0.0
 10
194.4824489298358
 20
118.6544274829762
 30
0.0
 10
194.6019051631362
 20
118.6675163680735
 30
0.0
 10
194.9546485253016
 20
118.7318268448805
 30
0.0
 10
195.1838084875943
 20
118.8090913320235
 30
0.0
 10
195.6119622606826
 20
119.0134220510739
 30
0.0
 10
195.8138802969613
 20
119.1407428427875
 30
0.0
 10
196.1960377065016
 20
119.4437186304013
 30
0.0
 10
196.3712967336146
 20
119.6152554960649
 30
0.0
 10
196.6050967684394
 20
119.90271918926
 30
0.0
 10
196.6782271573804
 20
120.00374762279
 30
0.0
 10
196.8116870709232
 20
120.2188300302063
 30
0.0
 10
196.8719944759867
 20
120.332985143024
 30
0.0
 10
196.9681320015002
 20
120.5705841050623
 30
0.0
 10
197.0054469493715
 20
120.6965817744359
 30
0.0
 10
197.0338283957846
 20
120.9583023427769
 30
0.0
 10
197.0234545715872
 20
121.0947352013321
 30
0.0
 10
196.9194608718052
 20
121.3436516351767
 30
0.0
 10
196.8238887812754
 20
121.4506916350077
 30
0.0
 10
196.5977892041095
 20
121.6029735976368
 30
0.0
 10
196.4678582677229
 20
121.6534529307527
 30
0.0
 10
196.2064861030559
 20
121.7233257640674
 30
0.0
 10
196.0712635568762
 20
121.7436556504009
 30
0.0
 10
195.80410091991
 20
121.7662957756518
 30
0.0
 10
195.6711858919575
 20
121.7686880850164
 30
0.0
 10
195.2742403471264
 20
121.7575947730714
 30
0.0
 10
195.0104634957578
 20
121.7257445297923
 30
0.0
 10
194.5037272101753
 20
121.6297626883323
 30
0.0
 10
194.2587919524877
 20
121.5653314137673
 30
0.0
 10
193.7874532407182
 20
121.4024871230625
 30
0.0
 10
193.5588216410893
 20
121.3029072637469
 30
0.0
 10
193.1427134882643
 20
121.0626671097014
 30
0.0
  0
SPLINE
  5
9F
330
1F
100
AcDbEntity
  8
0
  6
Continuous
 62
     7
370
    15
100
AcDbSpline
210
0.0
220
0.0
230
1.0
 70
     8
 71
     3
 72
     8
 73
     4
 74
     0
 42
0.00000001
 43
0.00000001
 40
0.0
 40
0.0
 40
0.0
 40
0.0
 40
1.0
 40
1.0
 40
1.0
 40
1.0
 10
191.3163970207091
 20
115.2598861277798
 30
0.0
 10
191.1451073014347
 20
115.4346796285286
 30
0.0
 10
190.9715143693928
 20
115.6079601420565
 30
0.0
 10
190.7954524877083
 20
115.7796210099421
 30
0.0
  0
SPLINE
  5
A0
330
1F
100
AcDbEntity
  8
0
  6
Continuous
 62
     7
370
    15
100
AcDbSpline
210
0.0
220
0.0
230
1.0
 70
     8
 71
     3
 72
    36
 73
    32
 74
     0
 42
0.00000001
 43
0.00000001
 40
0.0
 40
0.0
 40
0.0
 40
0.0
 40
0.1250000000000001
 40
0.1250000000000001
 40
0.2500000000000002
 40
0.2500000000000002
 40
0.3125000000000003
 40
0.3125000000000003
 40
0.3750000000000003
 40
0.3750000000000003
 40
0.4375000000000003
 40
0.4375000000000003
 40
0.5000000000000003
 40
0.5000000000000003
 40
0.5625000000000003
 40
0.5625000000000003
 40
0.5937500000000004
 40
0.5937500000000004
 40
0.6250000000000004
 40
0.6250000000000004
 40
0.6562500000000004
 40
0.6562500000000004
 40
0.6875000000000004
 40
0.6875000000000004
 40
0.7187500000000004
 40
0.7187500000000004
 40
0.7500000000000004
 40
0.7500000000000004
 40
0.8750000000000002
 40
0.8750000000000002
 40
1.0
 40
1.0
 40
1.0
 40
1.0
 10
190.7954524877083
 20
115.7796210099421
 30
0.0
 10
190.2798818454376
 20
116.2823039476784
 30
0.0
 10
189.7772364224605
 20
116.788347967316
 30
0.0
 10
188.8011051419515
 20
117.8084319714196
 30
0.0
 10
188.3272982116129
 20
118.3222813664035
 30
0.0
 10
187.6493372268692
 20
119.1054881655774
 30
0.0
 10
187.4294277291814
 20
119.3682271859445
 30
0.0
 10
187.0122766463286
 20
119.8912051509067
 30
0.0
 10
186.8140961621139
 20
120.1523998391532
 30
0.0
 10
186.4463598730704
 20
120.6763474698077
 30
0.0
 10
186.2784988860862
 20
120.936850720715
 30
0.0
 10
185.9923693810555
 20
121.4482337201235
 30
0.0
 10
185.8729365956378
 20
121.7002580068341
 30
0.0
 10
185.7049795108383
 20
122.1986071299864
 30
0.0
 10
185.659825682358
 20
122.4372070195182
 30
0.0
 10
185.669927998632
 20
122.7718518242249
 30
0.0
 10
185.6866281724804
 20
122.8800799121763
 30
0.0
 10
185.7467464538805
 20
123.0818152761574
 30
0.0
 10
185.7900859501422
 20
123.1763907271724
 30
0.0
 10
185.9032877187029
 20
123.3539326428588
 30
0.0
 10
185.973924381604
 20
123.4374992493336
 30
0.0
 10
186.1371741242864
 20
123.5898729286952
 30
0.0
 10
186.2296348015651
 20
123.6589925498244
 30
0.0
 10
186.4337236536781
 20
123.7855709618582
 30
0.0
 10
186.5460801910102
 20
123.8433113956608
 30
0.0
 10
186.7841408636921
 20
123.947387399862
 30
0.0
 10
186.9095547294413
 20
123.9937462068956
 30
0.0
 10
187.5633223962591
 20
124.2034200109896
 30
0.0
 10
188.1755024228598
 20
124.3039785674769
 30
0.0
 10
189.4455089896233
 20
124.4440578331931
 30
0.0
 10
190.1101971436093
 20
124.4837501898268
 30
0.0
 10
190.7954524877083
 20
124.5107732875096
 30
0.0
  0
SPLINE
  5
A1
330
1F
100
AcDbEntity
  8
0
  6
Continuous
 62
     7
370
    15
100
AcDbSpline
210
0.0
220
0.0
230
1.0
 70
     8
 71
     3
 72
     8
 73
     4
 74
     0
 42
0.00000001
 43
0.00000001
 40
0.0
 40
0.0
 40
0.0
 40
0.0
 40
1.0
 40
1.0
 40
1.0
 40
1.0
 10
190.7954524877084
 20
124.5107732875092
 30
0.0
 10
190.9716179717586
 20
124.5177203870464
 30
0.0
 10
191.1450889635728
 20
124.539841817926
 30
0.0
 10
191.3163970207091
 20
124.5762719788626
 30
0.0
  0
SPLINE
  5
A2
330
1F
100
AcDbEntity
  8
0
  6
Continuous
 62
     7
370
    15
100
AcDbSpline
210
0.0
220
0.0
230
1.0
 70
     8
 71
     3
 72
    10
 73
     6
 74
     0
 42
0.00000001
 43
0.00000001
 40
0.0
 40
0.0
 40
0.0
 40
0.0
 40
0.5
 40
0.5
 40
1.0
 40
1.0
 40
1.0
 40
1.0
 10
191.3163970207091
 20
124.5762719788629
 30
0.0
 10
192.1316832534707
 20
124.7496497473429
 30
0.0
 10
192.9645166719318
 20
124.9040270194788
 30
0.0
 10
194.6532836095127
 20
125.2094477351338
 30
0.0
 10
195.5094834787724
 20
125.3598138980197
 30
0.0
 10
196.3763108210112
 20
125.5126758426121
 30
0.0
  0
ELLIPSE
  5
A3
330
1F
100
AcDbEntity
  8
0
  6
Continuous
 62
     7
370
    15
100
AcDbEllipse
 10
207.0524903989
 20
115.8823651777
 30
0.0
 11
10.80355341949926
 21
6.165720034875151
 31
0.0
210
0.0
220
0.0
230
1.0
 40
0.0451040694
 41
1.644790487616802
 42
2.719775991481425
  0
SPLINE
  5
A4
330
1F
100
AcDbEntity
  8
0
  6
Continuous
 62
     7
370
    15
100
AcDbSpline
210
0.0
220
0.0
230
1.0
 70
     8
 71
     3
 72
    12
 73
     8
 74
     0
 42
0.00000001
 43
0.00000001
 40
0.0
 40
0.0
 40
0.0
 40
0.0
 40
0.5000000000000026
 40
0.5000000000000026
 40
0.7500000000000012
 40
0.7500000000000012
 40
1.0
 40
1.0
 40
1.0
 40
1.0
 10
192.1921748422097
 20
114.3819577027094
 30
0.0
 10
192.9830841656717
 20
113.6539261149103
 30
0.0
 10
193.7793920952422
 20
112.956903214234
 30
0.0
 10
194.996525401746
 20
111.9695937691903
 30
0.0
 10
195.4061065197472
 20
111.6503181807387
 30
0.0
 10
196.2364050600574
 20
111.0344665448941
 30
0.0
 10
196.6578666333602
 20
110.7375042112968
 30
0.0
 10
197.0820454846404
 20
110.4565942309999
 30
0.0
  0
SPLINE
  5
A5
330
1F
100
AcDbEntity
  8
0
  6
Continuous
 62
     7
370
    15
100
AcDbSpline
210
0.0
220
0.0
230
1.0
 70
     8
 71
     3
 72
     8
 73
     4
 74
     0
 42
0.00000001
 43
0.00000001
 40
0.0
 40
0.0
 40
0.0
 40
0.0
 40
1.0
 40
1.0
 40
1.0
 40
1.0
 10
192.1921748422096
 20
114.3819577027094
 30
0.0
 10
191.8975090649881
 20
114.6722837967862
 30
0.0
 10
191.6055074908361
 20
114.964861818144
 30
0.0
 10
191.3163970207091
 20
115.2598861277798
 30
0.0
  0
ELLIPSE
  5
A6
330
1F
100
AcDbEntity
  8
0
  6
Continuous
 62
     7
370
    15
100
AcDbEllipse
 10
205.3068982626
 20
115.5749075975
 30
0.0
 11
16.0928282123536
 21
9.192497072187194
 31
0.0
210
0.0
220
0.0
230
1.0
 40
0.0230835902
 41
3.746696917699996
 42
4.162805463000572
  0
LINE
  5
A7
330
1F
100
AcDbEntity
  8
0
  6
Continuous
 62
     7
370
    15
100
AcDbLine
 10
192.1921748422
 20
107.8032889073
 30
0.0
 11
192.1921748422
 21
114.3819577027
 31
0.0
  0
ELLIPSE
  5
A8
330
1F
100
AcDbEntity
  8
0
  6
Continuous
 62
     7
370
    15
100
AcDbEllipse
 10
212.1724422045
 20
119.4938519629
 30
0.0
 11
22.25562145186476
 21
12.71193423585349
 31
0.0
210
0.0
220
0.0
230
1.0
 40
0.0219583238
 41
3.485792263724599
 42
3.585344029352741
  0
SPLINE
  5
A9
330
1F
100
AcDbEntity
  8
0
  6
Continuous
 62
     7
370
    15
100
AcDbSpline
210
0.0
220
0.0
230
1.0
 70
     8
 71
     3
 72
     8
 73
     4
 74
     0
 42
0.00000001
 43
0.00000001
 40
0.0
 40
0.0
 40
0.0
 40
0.0
 40
1.0
 40
1.0
 40
1.0
 40
1.0
 10
190.7954524877083
 20
107.1046258554747
 30
0.0
 10
190.9731144803997
 20
107.1931165313568
 30
0.0
 10
191.1462024411599
 20
107.278766027816
 30
0.0
 10
191.3163970207091
 20
107.3626182882083
 30
0.0
  0
ELLIPSE
  5
AA
330
1F
100
AcDbEntity
  8
0
  6
Continuous
 62
     7
370
    15
100
AcDbEllipse
 10
205.3068982626
 20
115.5749075975
 30
0.0
 11
15.74298412078091
 21
8.99266017931369
 31
0.0
210
0.0
220
0.0
230
1.0
 40
0.0230835902
 41
3.181981922108539
 42
3.526783866833956
  0
LINE
  5
AB
330
1F
100
AcDbEntity
  8
0
  6
Continuous
 62
     7
370
    15
100
AcDbLine
 10
179.0717639371
 20
106.5749075975
 30
0.0
 11
179.0717639371
 21
124.5749075975
 31
0.0
  0
LINE
  5
AC
330
1F
100
AcDbEntity
  8
0
  6
Continuous
 62
     7
370
    15
100
AcDbLine
 10
178.0717639371
 20
107.5749075975
 30
0.0
 11
178.0717639371
 21
123.5749075975
 31
0.0
  0
LINE
  5
AD
330
1F
100
AcDbEntity
  8
0
  6
Continuous
 62
     7
370
    15
100
AcDbLine
 10
94.4467639371
 20
107.5749075975
 30
0.0
 11
94.4467639371
 21
121.7749075975
 31
0.0
  0
LINE
  5
AE
330
1F
100
AcDbEntity
  8
0
  6
Continuous
 62
     7
370
    15
100
AcDbLine
 10
102.5717639371
 20
121.7749075975
 30
0.0
 11
94.4467639371
 21
121.7749075975
 31
0.0
  0
LINE
  5
AF
330
1F
100
AcDbEntity
  8
0
  6
Continuous
 62
     7
370
    15
100
AcDbLine
 10
104.3717639371
 20
123.5749075975
 30
0.0
 11
102.5717639371
 21
121.7749075975
 31
0.0
  0
LINE
  5
B0
330
1F
100
AcDbEntity
  8
0
  6
Continuous
 62
     7
370
    15
100
AcDbLine
 10
109.0717639371
 20
121.7749075975
 30
0.0
 11
107.2717639371
 21
123.5749075975
 31
0.0
  0
LINE
  5
B1
330
1F
100
AcDbEntity
  8
0
  6
Continuous
 62
     7
370
    15
100
AcDbLine
 10
117.0717639371
 20
121.7749075975
 30
0.0
 11
109.0717639371
 21
121.7749075975
 31
0.0
  0
LINE
  5
B2
330
1F
100
AcDbEntity
  8
0
  6
Continuous
 62
     7
370
    15
100
AcDbLine
 10
118.8717639371
 20
123.5749075975
 30
0.0
 11
117.0717639371
 21
121.7749075975
 31
0.0
  0
LINE
  5
B3
330
1F
100
AcDbEntity
  8
0
  6
Continuous
 62
     7
370
    15
100
AcDbLine
 10
123.5717639371
 20
121.7749075975
 30
0.0
 11
121.7717639371
 21
123.5749075975
 31
0.0
  0
LINE
  5
B4
330
1F
100
AcDbEntity
  8
0
  6
Continuous
 62
     7
370
    15
100
AcDbLine
 10
131.5717639371
 20
121.7749075975
 30
0.0
 11
123.5717639371
 21
121.7749075975
 31
0.0
  0
LINE
  5
B5
330
1F
100
AcDbEntity
  8
0
  6
Continuous
 62
     7
370
    15
100
AcDbLine
 10
133.3717639371
 20
123.5749075975
 30
0.0
 11
131.5717639371
 21
121.7749075975
 31
0.0
  0
LINE
  5
B6
330
1F
100
AcDbEntity
  8
0
  6
Continuous
 62
     7
370
    15
100
AcDbLine
 10
138.0717639371
 20
121.7749075975
 30
0.0
 11
136.2717639371
 21
123.5749075975
 31
0.0
  0
LINE
  5
B7
330
1F
100
AcDbEntity
  8
0
  6
Continuous
 62
     7
370
    15
100
AcDbLine
 10
146.0717639371
 20
121.7749075975
 30
0.0
 11
138.0717639371
 21
121.7749075975
 31
0.0
  0
LINE
  5
B8
330
1F
100
AcDbEntity
  8
0
  6
Continuous
 62
     7
370
    15
100
AcDbLine
 10
147.8717639371
 20
123.5749075975
 30
0.0
 11
146.0717639371
 21
121.7749075975
 31
0.0
  0
LINE
  5
B9
330
1F
100
AcDbEntity
  8
0
  6
Continuous
 62
     7
370
    15
100
AcDbLine
 10
152.5717639371
 20
121.7749075975
 30
0.0
 11
150.7717639371
 21
123.5749075975
 31
0.0
  0
LINE
  5
BA
330
1F
100
AcDbEntity
  8
0
  6
Continuous
 62
     7
370
    15
100
AcDbLine
 10
160.5717639371
 20
121.7749075975
 30
0.0
 11
152.5717639371
 21
121.7749075975
 31
0.0
  0
LINE
  5
BB
330
1F
100
AcDbEntity
  8
0
  6
Continuous
 62
     7
370
    15
100
AcDbLine
 10
162.3717639371
 20
123.5749075975
 30
0.0
 11
160.5717639371
 21
121.7749075975
 31
0.0
  0
LINE
  5
BC
330
1F
100
AcDbEntity
  8
0
  6
Continuous
 62
     7
370
    15
100
AcDbLine
 10
93.0717639371
 20
108.9499075975
 30
0.0
 11
93.0717639371
 21
121.7749075975
 31
0.0
  0
SPLINE
  5
BD
330
1F
100
AcDbEntity
  8
0
  6
Continuous
 62
     7
370
    15
100
AcDbSpline
210
0.0
220
0.0
230
1.0
 70
    24
 71
     3
 72
    10
 73
     6
 74
     0
 42
0.00000001
 43
0.00000001
 40
0.0
 40
0.0
 40
0.0
 40
0.0
 40
0.5
 40
0.5
 40
1.0
 40
1.0
 40
1.0
 40
1.0
 10
94.4467639371391
 20
121.7749075975359
 30
0.0
 10
94.17452374982189
 20
121.7749075975359
 30
0.0
 10
93.91615964163388
 20
121.7749075975359
 30
0.0
 10
93.4500936238185
 20
121.7749075975359
 30
0.0
 10
93.24150312069082
 20
121.7749075975359
 30
0.0
 10
93.07176393713908
 20
121.7749075975359
 30
0.0
  0
LINE
  5
BE
330
1F
100
AcDbEntity
  8
0
  6
Continuous
 62
     7
370
    15
100
AcDbLine
 10
196.376310821
 20
125.5126758426
 30
0.0
 11
201.7217639371
 21
126.455004891
 31
0.0
  0
ARC
  5
BF
330
1F
100
AcDbEntity
  8
0
  6
Continuous
 62
     7
370
    15
100
AcDbCircle
 10
202.330660416
 20
121.1916071323
 30
0.0
 40
0.9983803012250654
100
AcDbArc
 50
127.581138134
 51
334.3846773585
  0
LINE
  5
C0
330
1F
100
AcDbEntity
  8
0
  6
Continuous
 62
     7
370
    15
100
AcDbLine
 10
207.847207025
 20
121.5708595435
 30
0.0
 11
207.814993014
 21
121.565200959
 31
0.0
  0
LINE
  5
C1
330
1F
100
AcDbEntity
  8
0
  6
Continuous
 62
     7
370
    15
100
AcDbLine
 10
207.847207025
 20
118.1301911021
 30
0.0
 11
207.847207025
 21
121.5708595435
 31
0.0
  0
ELLIPSE
  5
C2
330
1F
100
AcDbEntity
  8
0
  6
Continuous
 62
     7
370
    15
100
AcDbEllipse
 10
205.832187374
 20
118.1474039142
 30
0.0
 11
1.868639352156777
 21
-0.7633212359937717
 31
0.0
210
0.0
220
0.0
230
1.0
 40
0.9877670049
 41
5.628098322764186
 42
6.66669955084342
  0
LINE
  5
C3
330
1F
100
AcDbEntity
  8
0
  6
Continuous
 62
     7
370
    15
100
AcDbLine
 10
205.976481704
 20
115.9125049596
 30
0.0
 11
206.8546608733
 21
116.4175925867
 31
0.0
  0
ARC
  5
C4
330
1F
100
AcDbEntity
  8
0
  6
Continuous
 62
     7
370
    15
100
AcDbCircle
 10
202.3251385084
 20
120.9906872455
 30
0.0
 40
0.9953893492467116
100
AcDbArc
 50
127.3130385284
 51
174.1751269438
  0
LINE
  5
C5
330
1F
100
AcDbEntity
  8
0
  6
Continuous
 62
     7
370
    15
100
AcDbLine
 10
207.8331143997
 20
121.5726363422
 30
0.0
 11
207.847207025
 21
121.5708595435
 31
0.0
  0
ARC
  5
C6
330
1F
100
AcDbEntity
  8
0
  6
HIDDEN
 62
     7
370
     0
100
AcDbCircle
 10
205.1115192628
 20
123.3282187347
 30
0.0
 40
0.2059958849257427
100
AcDbArc
 50
213.3559219666
 51
9.4449408492
  0
LINE
  5
C7
330
1F
100
AcDbEntity
  8
0
  6
HIDDEN
 62
     7
370
     0
100
AcDbLine
 10
205.3147226162
 20
123.362022607
 30
0.0
 11
205.3147226162
 21
123.3995795763
 31
0.0
  0
ARC
  5
C8
330
1F
100
AcDbEntity
  8
0
  6
HIDDEN
 62
     7
370
     0
100
AcDbCircle
 10
204.3001504284
 20
123.4703985033
 30
0.0
 40
0.2057269880379967
100
AcDbArc
 50
153.4443111121
 51
309.7179781186
  0
LINE
  5
C9
330
1F
100
AcDbEntity
  8
0
  6
HIDDEN
 62
     7
370
     0
100
AcDbLine
 10
204.4316118677
 20
123.3121534921
 30
0.0
 11
204.4316118677
 21
123.3880507087
 31
0.0
  0
ARC
  5
CA
330
1F
100
AcDbEntity
  8
0
  6
HIDDEN
 62
     7
370
     0
100
AcDbCircle
 10
205.6730149118
 20
123.3925178308
 30
0.0
 40
0.3595877191831303
100
AcDbArc
 50
93.1678544223
 51
184.8648736394
  0
LINE
  5
CB
330
1F
100
AcDbEntity
  8
0
  6
HIDDEN
 62
     7
370
     0
100
AcDbLine
 10
203.9467036023
 20
124.0491049962
 30
0.0
 11
203.9467036023
 21
124.1250022128
 31
0.0
  0
ARC
  5
CC
330
1F
100
AcDbEntity
  8
0
  6
HIDDEN
 62
     7
370
     0
100
AcDbCircle
 10
203.7955457595
 20
123.7234460655
 30
0.0
 40
0.3590298491987901
100
AcDbArc
 50
0.0487995465
 51
65.1011579895
  0
ARC
  5
CD
330
1F
100
AcDbEntity
  8
0
  6
HIDDEN
 62
     7
370
     0
100
AcDbCircle
 10
205.6418012889
 20
123.9566816241
 30
0.0
 40
0.2054388962114945
100
AcDbArc
 50
273.164922535
 51
9.4764033323
  0
ARC
  5
CE
330
1F
100
AcDbEntity
  8
0
  6
HIDDEN
 62
     7
370
     0
100
AcDbCircle
 10
204.0173933
 20
124.2415767734
 30
0.0
 40
0.2050424794688511
100
AcDbArc
 50
170.6834270768
 51
249.8330765594
  0
ARC
  5
CF
330
1F
100
AcDbEntity
  8
0
  6
HIDDEN
 62
     7
370
     0
100
AcDbCircle
 10
205.8630356881
 20
124.4741785362
 30
0.0
 40
0.3579824655270555
100
AcDbArc
 50
153.2015973696
 51
179.9971462262
  0
LINE
  5
D0
330
1F
100
AcDbEntity
  8
0
  6
HIDDEN
 62
     7
370
     0
100
AcDbLine
 10
204.3449060853
 20
124.8359256152
 30
0.0
 11
204.3449060853
 21
124.9118228318
 31
0.0
  0
LINE
  5
D1
330
1F
100
AcDbEntity
  8
0
  6
HIDDEN
 62
     7
370
     0
100
AcDbLine
 10
204.3462516455
 20
124.8049258934
 30
0.0
 11
204.3449060853
 21
124.8359256152
 31
0.0
  0
LWPOLYLINE
  5
D2
330
1F
100
AcDbEntity
  8
0
  6
HIDDEN
 62
     7
370
     0
100
AcDbPolyline
 90
        3
 70
   128
 43
0.0
 10
205.5621113865
 20
124.7647059213
 10
205.5638656124
 20
124.7022197897
 10
205.5435011164
 20
124.6355758815
  0
ARC
  5
D3
330
1F
100
AcDbEntity
  8
0
  6
HIDDEN
 62
     7
370
     0
100
AcDbCircle
 10
204.8298143507
 20
124.0938680801
 30
0.0
 40
1.700007668086346
100
AcDbArc
 50
0.1720900857
 51
179.8279099143
  0
LWPOLYLINE
  5
D4
330
1F
100
AcDbEntity
  8
0
  6
HIDDEN
 62
     7
370
     0
100
AcDbPolyline
 90
        3
 70
   128
 43
0.0
 10
204.3449060853
 20
124.8359256152
 10
204.3450522869
 20
124.9055887459
 10
204.3551986758
 20
124.9426364162
  0
ARC
  5
D5
330
1F
100
AcDbEntity
  8
0
  6
HIDDEN
 62
     7
370
     0
100
AcDbCircle
 10
204.6380908771
 20
123.0156718414
 30
0.0
 40
0.3612962088561403
100
AcDbArc
 50
33.4752278009
 51
124.8545488577
  0
CIRCLE
  5
D6
330
1F
100
AcDbEntity
  8
0
  6
HIDDEN
 62
     7
370
     0
100
AcDbCircle
 10
204.8278370989
 20
123.997524113
 30
0.0
 40
1.248133821625948
  0
CIRCLE
  5
D7
330
1F
100
AcDbEntity
  8
0
  6
HIDDEN
 62
     7
370
     0
100
AcDbCircle
 10
204.8278370989
 20
123.699015694
 30
0.0
 40
1.248133821625938
  0
CIRCLE
  5
D8
330
1F
100
AcDbEntity
  8
0
  6
HIDDEN
 62
     7
370
     0
100
AcDbCircle
 10
204.8284639973
 20
123.656395987
 30
0.0
 40
0.7737932510293827
  0
ARC
  5
D9
330
1F
100
AcDbEntity
  8
0
  6
HIDDEN
 62
     7
370
     0
100
AcDbCircle
 10
204.8967639371
 20
124.1970469664
 30
0.0
 40
1.92500790204483
100
AcDbArc
 50
180.164169042
 51
359.835830958
  0
CIRCLE
  5
DA
330
1F
100
AcDbEntity
  8
0
  6
HIDDEN
 62
     7
370
     0
100
AcDbCircle
 10
204.893058376
 20
124.0872335687
 30
0.0
 40
1.396294806061148
  0
CIRCLE
  5
DB
330
1F
100
AcDbEntity
  8
0
  6
HIDDEN
 62
     7
370
     0
100
AcDbCircle
 10
204.893058376
 20
124.0484547792
 30
0.0
 40
1.396294806061148
  0
ARC
  5
DC
330
1F
100
AcDbEntity
  8
0
  6
HIDDEN
 62
     7
370
     0
100
AcDbCircle
 10
207.6718902265
 20
127.3437454825
 30
0.0
 40
0.1076467543247133
100
AcDbArc
 50
0.1349635767
 51
100.0800896985
  0
LINE
  5
DD
330
1F
100
AcDbEntity
  8
0
  6
HIDDEN
 62
     7
370
     0
100
AcDbLine
 10
207.6530493964
 20
127.4497306081
 30
0.0
 11
202.1030493964
 21
126.4748397897
 31
0.0
  0
ARC
  5
DE
330
1F
100
AcDbEntity
  8
0
  6
HIDDEN
 62
     7
370
     0
100
AcDbCircle
 10
202.1214714734
 20
126.3689499271
 30
0.0
 40
0.1074803978573698
100
AcDbArc
 50
99.8691938001
 51
179.9156105033
  0
LINE
  5
DF
330
1F
100
AcDbEntity
  8
0
  6
HIDDEN
 62
     7
370
     0
100
AcDbLine
 10
207.7795366822
 20
121.7298265814
 30
0.0
 11
207.7795366822
 21
127.3439990506
 31
0.0
  0
ARC
  5
E0
330
1F
100
AcDbEntity
  8
0
  6
HIDDEN
 62
     7
370
     0
100
AcDbCircle
 10
207.6720564009
 20
121.7299848865
 30
0.0
 40
0.107480397857318
100
AcDbArc
 50
279.8691938
 51
359.9156105033
  0
LINE
  5
E1
330
1F
100
AcDbEntity
  8
0
  6
HIDDEN
 62
     7
370
     0
100
AcDbLine
 10
202.0139911921
 20
126.3691082322
 30
0.0
 11
202.0139911921
 21
120.754935763
 31
0.0
  0
LINE
  5
E2
330
1F
100
AcDbEntity
  8
0
  6
HIDDEN
 62
     7
370
     0
100
AcDbLine
 10
202.1404784779
 20
120.6492042055
 30
0.0
 11
207.6904784779
 21
121.6240950238
 31
0.0
  0
ARC
  5
E3
330
1F
100
AcDbEntity
  8
0
  6
HIDDEN
 62
     7
370
     0
100
AcDbCircle
 10
202.1216376478
 20
120.755189331
 30
0.0
 40
0.1076467543246487
100
AcDbArc
 50
180.1349635767
 51
280.0800896985
  0
ELLIPSE
  5
E4
330
1F
100
AcDbEntity
  8
0
  6
HIDDEN
 62
     7
370
     0
100
AcDbEllipse
 10
205.3068982626
 20
115.5749075975
 30
0.0
 11
15.74298412078091
 21
8.99266017931369
 31
0.0
210
0.0
220
0.0
230
1.0
 40
0.0230835902
 41
2.730031490145168
 42
3.181981922108539
  0
SPLINE
  5
E5
330
1F
100
AcDbEntity
  8
0
  6
HIDDEN
 62
     7
370
     0
100
AcDbSpline
210
0.0
220
0.0
230
1.0
 70
     8
 71
     3
 72
    20
 73
    16
 74
     0
 42
0.00000001
 43
0.00000001
 40
0.0
 40
0.0
 40
0.0
 40
0.0
 40
0.1249999999999998
 40
0.1249999999999998
 40
0.2499999999999996
 40
0.2499999999999996
 40
0.3749999999999993
 40
0.3749999999999993
 40
0.4999999999999991
 40
0.4999999999999991
 40
0.7499999999999989
 40
0.7499999999999989
 40
0.8749999999999994
 40
0.8749999999999994
 40
1.0
 40
1.0
 40
1.0
 40
1.0
 10
187.0717639371391
 20
116.5828035561958
 30
0.0
 10
187.0892553475661
 20
116.4782301946197
 30
0.0
 10
187.1057233638079
 20
116.3696605154917
 30
0.0
 10
187.1358019020653
 20
116.1449637273836
 30
0.0
 10
187.1495296479759
 20
116.0275132033453
 30
0.0
 10
187.1720731574136
 20
115.7922273803565
 30
0.0
 10
187.180928305715
 20
115.6744966468937
 30
0.0
 10
187.1928573308275
 20
115.4387872356915
 30
0.0
 10
187.1958292997044
 20
115.3205944255815
 30
0.0
 10
187.1951522933975
 20
114.9806556330054
 30
0.0
 10
187.1810596027567
 20
114.7633689102385
 30
0.0
 10
187.1524847854243
 20
114.4922581756473
 30
0.0
 10
187.1417860282946
 20
114.4093529596439
 30
0.0
 10
187.121747978363
 20
114.2691599969719
 30
0.0
 10
187.1126697384548
 20
114.2130638187292
 30
0.0
 10
187.1053752030829
 20
114.1727204970506
 30
0.0
  0
SPLINE
  5
E6
330
1F
100
AcDbEntity
  8
0
  6
HIDDEN
 62
     7
370
     0
100
AcDbSpline
210
0.0
220
0.0
230
1.0
 70
     8
 71
     3
 72
    11
 73
     7
 74
     0
 42
0.00000001
 43
0.00000001
 40
0.0
 40
0.0
 40
0.0
 40
0.0
 40
0.0231906772766767
 40
0.4427467164410244
 40
0.9153304220464039
 40
1.0
 40
1.0
 40
1.0
 40
1.0
 10
187.0886531024596
 20
114.1066452056317
 30
0.0
 10
187.0883315896459
 20
114.1053378757088
 30
0.0
 10
187.0821934014043
 20
114.0803788793088
 30
0.0
 10
187.082179597578
 20
114.1623119085588
 30
0.0
 10
187.0774395310395
 20
114.2891219809883
 30
0.0
 10
187.0725125475548
 20
114.3931101581679
 30
0.0
 10
187.0717639371391
 20
114.4089102177345
 30
0.0
  0
SPLINE
  5
E7
330
1F
100
AcDbEntity
  8
0
  6
HIDDEN
 62
     7
370
     0
100
AcDbSpline
210
0.0
220
0.0
230
1.0
 70
     8
 71
     3
 72
    32
 73
    28
 74
     0
 42
0.00000001
 43
0.00000001
 40
0.0
 40
0.0
 40
0.0
 40
0.0
 40
0.0625000000000003
 40
0.0625000000000003
 40
0.1250000000000007
 40
0.1250000000000007
 40
0.1875000000000011
 40
0.1875000000000011
 40
0.2500000000000014
 40
0.2500000000000014
 40
0.3750000000000019
 40
0.3750000000000019
 40
0.4375000000000024
 40
0.4375000000000024
 40
0.5000000000000029
 40
0.5000000000000029
 40
0.5625000000000033
 40
0.5625000000000033
 40
0.6250000000000038
 40
0.6250000000000038
 40
0.7500000000000026
 40
0.7500000000000026
 40
0.8750000000000014
 40
0.8750000000000014
 40
0.9375000000000008
 40
0.9375000000000008
 40
1.0
 40
1.0
 40
1.0
 40
1.0
 10
185.7963756635536
 20
115.2446786273558
 30
0.0
 10
185.862993815819
 20
115.3056669565929
 30
0.0
 10
185.9195456826662
 20
115.3745044879492
 30
0.0
 10
186.0081917097201
 20
115.5320053261753
 30
0.0
 10
186.0388489091833
 20
115.6187991875087
 30
0.0
 10
186.0799740655762
 20
115.7939220533261
 30
0.0
 10
186.0914077706247
 20
115.8838946010507
 30
0.0
 10
186.1057780378093
 20
116.0570588313796
 30
0.0
 10
186.1088920324841
 20
116.1415403639484
 30
0.0
 10
186.1147108250934
 20
116.3877860979787
 30
0.0
 10
186.1141874776835
 20
116.5354985304837
 30
0.0
 10
186.121799665837
 20
116.7225440797595
 30
0.0
 10
186.1255235191401
 20
116.7783592702054
 30
0.0
 10
186.1366308608897
 20
116.8771116047898
 30
0.0
 10
186.1441170864449
 20
116.920314998638
 30
0.0
 10
186.1633437308635
 20
116.9904387528833
 30
0.0
 10
186.175064867091
 20
117.0177813591243
 30
0.0
 10
186.2037052318369
 20
117.0572864186034
 30
0.0
 10
186.2207541803454
 20
117.0692941873829
 30
0.0
 10
186.2793768882364
 20
117.0813904010356
 30
0.0
 10
186.3296024499377
 20
117.0575727614123
 30
0.0
 10
186.457930267774
 20
116.9584381421076
 30
0.0
 10
186.5363527617758
 20
116.8808240491925
 30
0.0
 10
186.6973751657947
 20
116.7544528445833
 30
0.0
 10
186.7598851127651
 20
116.7105255877159
 30
0.0
 10
186.9026194122308
 20
116.6352291289662
 30
0.0
 10
186.984650632295
 20
116.6037373303284
 30
0.0
 10
187.0717639371391
 20
116.5828035561957
 30
0.0
  0
LWPOLYLINE
  5
E8
330
1F
100
AcDbEntity
  8
0
  6
HIDDEN
 62
     7
370
     0
100
AcDbPolyline
 90
       12
 70
   128
 43
0.0
 10
185.7963756636
 20
115.2446786274
 10
186.0179671608
 20
114.8693765646
 10
186.2455199036
 20
114.5269659652
 10
186.4597641031
 20
114.2464430957
 10
186.6425569741
 20
114.0515634002
 10
186.7784191161
 20
113.9588298248
 10
186.8558453511
 20
113.9760953023
 10
186.8682790137
 20
114.1018977449
 10
186.8146671873
 20
114.3255838575
 10
186.6995498681
 20
114.6282112879
 10
186.5326755056
 20
114.9841527172
 10
186.3281754776
 20
115.363266051
  0
SPLINE
  5
E9
330
1F
100
AcDbEntity
  8
0
  6
HIDDEN
 62
     7
370
     0
100
AcDbSpline
210
0.0
220
0.0
230
1.0
 70
     8
 71
     3
 72
    22
 73
    18
 74
     0
 42
0.00000001
 43
0.00000001
 40
0.0
 40
0.0
 40
0.0
 40
0.0
 40
0.125
 40
0.125
 40
0.25
 40
0.25
 40
0.375
 40
0.375
 40
0.5000000000000001
 40
0.5000000000000001
 40
0.6250000000000001
 40
0.6250000000000001
 40
0.75
 40
0.75
 40
0.875
 40
0.875
 40
1.0
 40
1.0
 40
1.0
 40
1.0
 10
187.0717639371391
 20
114.4089102177345
 30
0.0
 10
187.0559244421449
 20
114.3210618775234
 30
0.0
 10
187.0526882393117
 20
114.2497657612679
 30
0.0
 10
187.0483448303212
 20
114.140523348841
 30
0.0
 10
187.0479148274552
 20
114.1039098261969
 30
0.0
 10
187.0416926245404
 20
114.0693317956506
 30
0.0
 10
187.0359421829708
 20
114.0713977718598
 30
0.0
 10
187.0152255820296
 20
114.1133699030132
 30
0.0
 10
186.9999677677352
 20
114.1539660529271
 30
0.0
 10
186.9581290637401
 20
114.2679308774737
 30
0.0
 10
186.9312337396219
 20
114.3422490965534
 30
0.0
 10
186.8639229711041
 20
114.5165546542447
 30
0.0
 10
186.8240904198994
 20
114.615545781351
 30
0.0
 10
186.7255343164096
 20
114.8314182352961
 30
0.0
 10
186.6692015862116
 20
114.9442354719881
 30
0.0
 10
186.526082876063
 20
115.1686397326523
 30
0.0
 10
186.4402830102313
 20
115.2781807595473
 30
0.0
 10
186.3281754776121
 20
115.3632660510368
 30
0.0
  0
LINE
  5
EA
330
1F
100
AcDbEntity
  8
0
  6
HIDDEN
 62
     7
370
     0
100
AcDbLine
 10
94.3708020428
 20
114.0749075975
 30
0.0
 11
94.3708020428
 21
117.0749075975
 31
0.0
  0
ELLIPSE
  5
EB
330
1F
100
AcDbEntity
  8
0
  6
HIDDEN
 62
     7
370
     0
100
AcDbEllipse
 10
207.7710931995
 20
115.5974508622
 30
0.0
 11
0.1298218444724171
 21
11.94419405455078
 31
0.0
210
0.0
220
0.0
230
1.0
 40
0.1223313345
 41
0.2195759382476736
 42
1.002234417007246
  0
LINE
  5
EC
330
1F
100
AcDbEntity
  8
0
  6
HIDDEN
 62
     7
370
     0
100
AcDbLine
 10
207.5795366822
 20
127.2583228688
 30
0.0
 11
201.8298143507
 21
126.2416970625
 31
0.0
  0
ELLIPSE
  5
ED
330
1F
100
AcDbEntity
  8
0
  6
HIDDEN
 62
     7
370
     0
100
AcDbEllipse
 10
201.8831924943
 20
115.554323348
 30
0.0
 11
-0.1185402949352863
 21
10.90624071584399
 31
0.0
210
0.0
220
0.0
230
1.0
 40
0.1223313345
 41
6.234430787484498
 42
6.296933977050978
  0
LINE
  5
EE
330
1F
100
AcDbEntity
  8
0
  6
HIDDEN
 62
     7
370
     0
100
AcDbLine
 10
201.7217639371
 20
126.455004891
 30
0.0
 11
201.7463208493
 21
126.4593339331
 31
0.0
  0
LINE
  5
EF
330
1F
100
AcDbEntity
  8
0
  6
HIDDEN
 62
     7
370
     0
100
AcDbLine
 10
192.1921748422
 20
114.7730747643
 30
0.0
 11
192.1921748422
 21
114.3819577027
 31
0.0
  0
SPLINE
  5
F0
330
1F
100
AcDbEntity
  8
0
  6
HIDDEN
 62
     7
370
     0
100
AcDbSpline
210
0.0
220
0.0
230
1.0
 70
     8
 71
     3
 72
    26
 73
    22
 74
     0
 42
0.00000001
 43
0.00000001
 40
0.0
 40
0.0
 40
0.0
 40
0.0
 40
0.03125
 40
0.03125
 40
0.0625
 40
0.0625
 40
0.0937499999999999
 40
0.0937499999999999
 40
0.1249999999999999
 40
0.1249999999999999
 40
0.1874999999999999
 40
0.1874999999999999
 40
0.2499999999999999
 40
0.2499999999999999
 40
0.3749999999999998
 40
0.3749999999999998
 40
0.4999999999999999
 40
0.4999999999999999
 40
0.7499999999999999
 40
0.7499999999999999
 40
1.0
 40
1.0
 40
1.0
 40
1.0
 10
192.1921748422097
 20
114.7730747642575
 30
0.0
 10
192.1921748422097
 20
114.9504801224421
 30
0.0
 10
192.221405347264
 20
115.1226099324433
 30
0.0
 10
192.3289910325234
 20
115.4580034863185
 30
0.0
 10
192.4061631018676
 20
115.6170696552996
 30
0.0
 10
192.5887968869536
 20
115.9149185880861
 30
0.0
 10
192.6958610640511
 20
116.0563068728217
 30
0.0
 10
192.9258403761506
 20
116.3209590431134
 30
0.0
 10
193.0488255844821
 20
116.4446684760248
 30
0.0
 10
193.4342849556623
 20
116.7980110063175
 30
0.0
 10
193.7143822032341
 20
117.0111693478218
 30
0.0
 10
194.2917567365742
 20
117.4060584814416
 30
0.0
 10
194.5885109314652
 20
117.5872018455873
 30
0.0
 10
195.4936514209767
 20
118.1005674902753
 30
0.0
 10
196.1166156954253
 20
118.4033313949522
 30
0.0
 10
197.3820727192307
 20
118.9693971416119
 30
0.0
 10
198.0250472525336
 20
119.2317254212263
 30
0.0
 10
199.9728835748143
 20
119.9804924760658
 30
0.0
 10
201.2899302006706
 20
120.4272507443707
 30
0.0
 10
203.938717573513
 20
121.2693635121903
 30
0.0
 10
205.271666979094
 20
121.6635947649678
 30
0.0
 10
206.6097164042398
 20
122.0418356969955
 30
0.0
  0
SPLINE
  5
F1
330
1F
100
AcDbEntity
  8
0
  6
HIDDEN
 62
     7
370
     0
100
AcDbSpline
210
0.0
220
0.0
230
1.0
 70
     8
 71
     3
 72
    42
 73
    38
 74
     0
 42
0.00000001
 43
0.00000001
 40
-0.0624999999999983
 40
-0.0624999999999983
 40
0.0
 40
0.0
 40
0.0625000000000018
 40
0.0625000000000018
 40
0.1250000000000037
 40
0.1250000000000037
 40
0.1875000000000055
 40
0.1875000000000055
 40
0.2500000000000073
 40
0.2500000000000073
 40
0.3125000000000092
 40
0.3125000000000092
 40
0.375000000000011
 40
0.375000000000011
 40
0.4375000000000128
 40
0.4375000000000128
 40
0.5000000000000147
 40
0.5000000000000147
 40
0.5312500000000135
 40
0.5312500000000135
 40
0.5625000000000124
 40
0.5625000000000124
 40
0.5937500000000114
 40
0.5937500000000114
 40
0.6250000000000103
 40
0.6250000000000103
 40
0.6875000000000085
 40
0.6875000000000085
 40
0.7500000000000069
 40
0.7500000000000069
 40
0.8125000000000051
 40
0.8125000000000051
 40
0.8750000000000034
 40
0.8750000000000034
 40
0.9375000000000017
 40
0.9375000000000017
 40
1.0
 40
1.0
 40
1.062500000000002
 40
1.062500000000002
 10
204.4269159273444
 20
122.3942420115725
 30
0.0
 10
204.7380694136147
 20
122.3048172135649
 30
0.0
 10
204.9129899953137
 20
122.2980963504446
 30
0.0
 10
205.2506694539209
 20
122.3830549263386
 30
0.0
 10
205.4054781439313
 20
122.4739895583324
 30
0.0
 10
205.6405495331391
 20
122.7012580296909
 30
0.0
 10
205.7219293971188
 20
122.834141712335
 30
0.0
 10
205.8263732772238
 20
123.0996843102431
 30
0.0
 10
205.8504938265533
 20
123.2336368494239
 30
0.0
 10
205.85807838481
 20
123.4908903233609
 30
0.0
 10
205.8418369312338
 20
123.6131052527469
 30
0.0
 10
205.7768230062702
 20
123.8463952722376
 30
0.0
 10
205.7279754430303
 20
123.9562442443062
 30
0.0
 10
205.6010659426749
 20
124.1567605117448
 30
0.0
 10
205.5218418973245
 20
124.2495306367341
 30
0.0
 10
205.3283120415257
 20
124.4089649404623
 30
0.0
 10
205.2130380561665
 20
124.4773663059865
 30
0.0
 10
205.0027575153702
 20
124.5410007914378
 30
0.0
 10
204.9254234693164
 20
124.5555353821103
 30
0.0
 10
204.7610588972993
 20
124.5625816294477
 30
0.0
 10
204.6744035856873
 20
124.5547503830176
 30
0.0
 10
204.5048387372526
 20
124.5133406520741
 30
0.0
 10
204.4241497248372
 20
124.4802423763626
 30
0.0
 10
204.2821443056363
 20
124.40009027909
 30
0.0
 10
204.2202118301945
 20
124.3533327016639
 30
0.0
 10
204.0578177236216
 20
124.2027664674923
 30
0.0
 10
203.9810077581689
 20
124.0904643399356
 30
0.0
 10
203.868826278784
 20
123.8587339287728
 30
0.0
 10
203.8339544674682
 20
123.7396078976918
 30
0.0
 10
203.7995584030894
 20
123.4942107206281
 30
0.0
 10
203.8008190700429
 20
123.3707410123442
 30
0.0
 10
203.8405727452686
 20
123.1258742907376
 30
0.0
 10
203.8798425709144
 20
123.002849733749
 30
0.0
 10
204.0000646851009
 20
122.7720940794562
 30
0.0
 10
204.0826806185525
 20
122.6612018084585
 30
0.0
 10
204.2953318431176
 20
122.4731076595009
 30
0.0
 10
204.4269159273444
 20
122.3942420115725
 30
0.0
 10
204.7380694136147
 20
122.3048172135649
 30
0.0
  0
ELLIPSE
  5
F2
330
1F
100
AcDbEntity
  8
0
  6
HIDDEN
 62
     7
370
     0
100
AcDbEllipse
 10
212.1724422045
 20
119.4938519629
 30
0.0
 11
22.25562145186476
 21
12.71193423585349
 31
0.0
210
0.0
220
0.0
230
1.0
 40
0.0219583238
 41
2.672758344643174
 42
2.772310110271398
  0
ELLIPSE
  5
F3
330
1F
100
AcDbEntity
  8
0
  6
HIDDEN
 62
     7
370
     0
100
AcDbEllipse
 10
185.9036321326
 20
115.5749075975
 30
0.0
 11
-0.8899716393243295
 21
1.493928082380947
 31
0.0
210
0.0
220
0.0
230
1.0
 40
0.151498192
 41
1.70275973642054
 42
4.480814685483553
  0
LINE
  5
F4
330
1F
100
AcDbEntity
  8
0
  6
HIDDEN
 62
     7
370
     0
100
AcDbLine
 10
187.0717639371
 20
116.5828035562
 30
0.0
 11
187.0717639371
 21
114.4089102177
 31
0.0
  0
LINE
  5
F5
330
1F
100
AcDbEntity
  8
0
  6
HIDDEN
 62
     7
370
     0
100
AcDbLine
 10
187.0717639371
 20
114.0749075975
 30
0.0
 11
187.0717639371
 21
114.4089102177
 31
0.0
  0
SPLINE
  5
F6
330
1F
100
AcDbEntity
  8
0
  6
HIDDEN
 62
     7
370
     0
100
AcDbSpline
210
0.0
220
0.0
230
1.0
 70
     8
 71
     3
 72
     8
 73
     4
 74
     0
 42
0.00000001
 43
0.00000001
 40
0.0
 40
0.0
 40
0.0
 40
0.0
 40
1.0
 40
1.0
 40
1.0
 40
1.0
 10
191.3163970207091
 20
107.8152662122506
 30
0.0
 10
191.1462024411599
 20
107.7048197851142
 30
0.0
 10
190.9731144803997
 20
107.5928674326087
 30
0.0
 10
190.7954524877083
 20
107.4785344222424
 30
0.0
  0
LINE
  5
F7
330
1F
100
AcDbEntity
  8
0
  6
HIDDEN
 62
     7
370
     0
100
AcDbLine
 10
201.7463208493
 20
122.0009640595
 30
0.0
 11
201.7463208493
 21
126.4593339331
 31
0.0
  0
LINE
  5
F8
330
1F
100
AcDbEntity
  8
0
  6
HIDDEN
 62
     7
370
     0
100
AcDbLine
 10
201.7217639371
 20
121.9828139977
 30
0.0
 11
201.7463208493
 21
122.0009640595
 31
0.0
  0
LINE
  5
F9
330
1F
100
AcDbEntity
  8
0
  6
HIDDEN
 62
     7
370
     0
100
AcDbLine
 10
207.814993014
 20
121.565200959
 30
0.0
 11
203.2309168475
 21
120.7599804607
 31
0.0
  0
ELLIPSE
  5
FA
330
1F
100
AcDbEntity
  8
0
  6
HIDDEN
 62
     7
370
     0
100
AcDbEllipse
 10
202.3298143507
 20
120.777757419
 30
0.0
 11
0.9992225856419736
 21
0.1348790817300056
 31
0.0
210
0.0
220
0.0
230
1.0
 40
0.2922888529
 41
5.795260566794988
 42
5.894685585355749
  0
ELLIPSE
  5
FB
330
1F
100
AcDbEntity
  8
0
  6
HIDDEN
 62
     7
370
     0
100
AcDbEllipse
 10
202.3298143507
 20
120.777757419
 30
0.0
 11
-0.81856109004525
 21
1.153270047372601
 31
0.0
210
0.0
220
0.0
230
1.0
 40
0.4980789051
 41
5.847882534760123
 42
5.947307553320838
  0
LINE
  5
FC
330
1F
100
AcDbEntity
  8
0
  6
HIDDEN
 62
     7
370
     0
100
AcDbLine
 10
201.8298143507
 20
121.9954006157
 30
0.0
 11
201.8298143507
 21
121.8646670016
 31
0.0
  0
ARC
  5
FD
330
1F
100
AcDbEntity
  8
0
  6
HIDDEN
 62
     7
370
     0
100
AcDbCircle
 10
202.330276517
 20
121.0004921716
 30
0.0
 40
0.998629318951563
100
AcDbArc
 50
340.1390014682
 51
120.076051807
  0
LINE
  5
FE
330
1F
100
AcDbEntity
  8
0
  6
HIDDEN
 62
     7
370
     0
100
AcDbLine
 10
203.2695069715
 20
120.6612184325
 30
0.0
 11
203.2695069715
 21
120.7919520466
 31
0.0
  0
ARC
  5
FF
330
1F
100
AcDbEntity
  8
0
  6
HIDDEN
 62
     7
370
     0
100
AcDbCircle
 10
202.330241583
 20
120.992409539
 30
0.0
 40
0.9971259318568273
100
AcDbArc
 50
269.9754508365
 51
127.6062432818
  0
ARC
  5
100
330
1F
100
AcDbEntity
  8
0
  6
HIDDEN
 62
     7
370
     0
100
AcDbCircle
 10
202.327736361
 20
120.9930217501
 30
0.0
 40
0.997740215357382
100
AcDbArc
 50
174.3236354552
 51
270.1193297886
  0
LINE
  5
101
330
1F
100
AcDbEntity
  8
0
  6
HIDDEN
 62
     7
370
     0
100
AcDbLine
 10
203.2695069715
 20
120.7919520466
 30
0.0
 11
207.7637135235
 21
121.5813864076
 31
0.0
  0
LINE
  5
102
330
1F
100
AcDbEntity
  8
0
  6
HIDDEN
 62
     7
370
     0
100
AcDbLine
 10
207.7637135235
 20
121.5813864076
 30
0.0
 11
207.8331143997
 21
121.5726363422
 31
0.0
  0
LINE
  5
103
330
1F
100
AcDbEntity
  8
0
  6
HIDDEN
 62
     7
370
     0
100
AcDbLine
 10
201.8298143507
 20
126.4483112653
 30
0.0
 11
201.8298143507
 21
121.9954006157
 31
0.0
  0
LINE
  5
104
330
1F
100
AcDbEntity
  8
0
  6
HIDDEN
 62
     7
370
     0
100
AcDbLine
 10
207.5795366822
 20
121.4183010256
 30
0.0
 11
207.7637135235
 21
121.5813864076
 31
0.0
  0
CIRCLE
  5
105
330
1F
100
AcDbEntity
  8
0
  6
HIDDEN
 62
     7
370
     0
100
AcDbCircle
 10
204.828836296
 20
123.9730830031
 30
0.0
 40
1.248343147012081
  0
LINE
  5
106
330
1F
100
AcDbEntity
  8
0
  6
HIDDEN
 62
     7
370
     0
100
AcDbLine
 10
203.2695069715
 20
120.6612184325
 30
0.0
 11
207.5795366822
 21
121.4183010256
 31
0.0
  0
LINE
  5
107
330
1F
100
AcDbEntity
  8
0
  6
HIDDEN
 62
     7
370
     0
100
AcDbLine
 10
207.5795366822
 20
121.4183010256
 30
0.0
 11
207.5795366822
 21
127.2583228688
 31
0.0
  0
ARC
  5
108
330
1F
100
AcDbEntity
  8
0
  6
HIDDEN
 62
     7
370
     0
100
AcDbCircle
 10
204.8333140051
 20
123.9500127456
 30
0.0
 40
1.020744740752531
100
AcDbArc
 50
269.803559292
 51
72.5391233986
  0
ARC
  5
109
330
1F
100
AcDbEntity
  8
0
  6
HIDDEN
 62
     7
370
     0
100
AcDbCircle
 10
204.8268532389
 20
123.950361583
 30
0.0
 40
1.021091872391196
100
AcDbArc
 50
90.302739246
 51
270.1661549279
  0
ELLIPSE
  5
10A
330
1F
100
AcDbEntity
  8
0
  6
HIDDEN
 62
     7
370
     0
100
AcDbEllipse
 10
205.3068982626
 20
115.5749075975
 30
0.0
 11
16.0928282123536
 21
9.192497072187194
 31
0.0
210
0.0
220
0.0
230
1.0
 40
0.0230835902
 41
1.698452057912768
 42
2.510118439278913
  0
LINE
  5
10B
330
1F
100
AcDbEntity
  8
0
  6
HIDDEN
 62
     7
370
     0
100
AcDbLine
 10
206.6097164042
 20
122.041835697
 30
0.0
 11
206.6097164042
 21
117.963534175
 31
0.0
  0
ELLIPSE
  5
10C
330
1F
100
AcDbEntity
  8
0
  6
HIDDEN
 62
     7
370
     0
100
AcDbEllipse
 10
204.5946967533
 20
117.9807469871
 30
0.0
 11
1.868639352156748
 21
-0.7633212359938001
 31
0.0
210
0.0
220
0.0
230
1.0
 40
0.9877670049
 41
5.628098322764203
 42
6.666699550843441
  0
LINE
  5
10D
330
1F
100
AcDbEntity
  8
0
  6
HIDDEN
 62
     7
370
     0
100
AcDbLine
 10
205.6171702526
 20
116.2509356596
 30
0.0
 11
203.0476623419
 21
114.7730747643
 31
0.0
  0
LINE
  5
10E
330
1F
100
AcDbEntity
  8
0
  6
HIDDEN
 62
     7
370
     0
100
AcDbLine
 10
205.3176389488
 20
123.3276138624
 30
0.0
 11
205.3176389488
 21
123.4039610456
 31
0.0
  0
LINE
  5
10F
330
1F
100
AcDbEntity
  8
0
  6
HIDDEN
 62
     7
370
     0
100
AcDbLine
 10
204.0941573604
 20
123.5482882853
 30
0.0
 11
204.0941573604
 21
123.470155475
 31
0.0
  0
LINE
  5
110
330
1F
100
AcDbEntity
  8
0
  6
HIDDEN
 62
     7
370
     0
100
AcDbLine
 10
205.8472959392
 20
123.9564324985
 30
0.0
 11
205.8472959392
 21
124.0345653088
 31
0.0
  0
LINE
  5
111
330
1F
100
AcDbEntity
  8
0
  6
HIDDEN
 62
     7
370
     0
100
AcDbLine
 10
203.8123327623
 20
124.319648534
 30
0.0
 11
203.8123327623
 21
124.2415157237
 31
0.0
  0
LINE
  5
112
330
1F
100
AcDbEntity
  8
0
  6
HIDDEN
 62
     7
370
     0
100
AcDbLine
 10
205.5654713411
 20
124.7277927472
 30
0.0
 11
205.5654713411
 21
124.8059255575
 31
0.0
  0
LINE
  5
113
330
1F
100
AcDbEntity
  8
0
  6
HIDDEN
 62
     7
370
     0
100
AcDbLine
 10
204.3419897526
 20
124.946681543
 30
0.0
 11
204.3419897526
 21
124.8703343598
 31
0.0
  0
SPLINE
  5
114
330
1F
100
AcDbEntity
  8
0
  6
HIDDEN
 62
     7
370
     0
100
AcDbSpline
210
0.0
220
0.0
230
1.0
 70
     8
 71
     3
 72
    14
 73
    10
 74
     0
 42
0.00000001
 43
0.00000001
 40
0.0
 40
0.0
 40
0.0
 40
0.0
 40
0.0720450392246048
 40
0.226465305478672
 40
0.3813640369848682
 40
0.536340192045323
 40
0.691409861152383
 40
0.8465586420427678
 40
1.0
 40
1.0
 40
1.0
 40
1.0
 10
204.6263098152394
 20
122.8645900825295
 30
0.0
 10
204.5726494168134
 20
122.8763820526918
 30
0.0
 10
204.4039741179664
 20
122.9134487564337
 30
0.0
 10
204.1407080120352
 20
123.0487854604432
 30
0.0
 10
203.8829682842147
 20
123.2962944157267
 30
0.0
 10
203.711035842546
 20
123.6110580354873
 30
0.0
 10
203.6430733178833
 20
123.9610943703162
 30
0.0
 10
203.6767859869322
 20
124.3188571426351
 30
0.0
 10
203.7853184729938
 20
124.5281676176126
 30
0.0
 10
203.8392844620107
 20
124.6322437998106
 30
0.0
  0
SPLINE
  5
115
330
1F
100
AcDbEntity
  8
0
  6
HIDDEN
 62
     7
370
     0
100
AcDbSpline
210
0.0
220
0.0
230
1.0
 70
     8
 71
     3
 72
    16
 73
    12
 74
     0
 42
0.00000001
 43
0.00000001
 40
0.0
 40
0.0
 40
0.0
 40
0.0
 40
0.0490354848059901
 40
0.1804133736755538
 40
0.3118658242343572
 40
0.4433629465961269
 40
0.5748442125093318
 40
0.706269337617389
 40
0.8376193291613626
 40
0.9622643904202901
 40
1.0
 40
1.0
 40
1.0
 40
1.0
 10
205.8082222791065
 20
124.6290085381007
 30
0.0
 10
205.8346049870444
 20
124.5936916011407
 30
0.0
 10
205.9316733318277
 20
124.4637520732651
 30
0.0
 10
206.002090797974
 20
124.1843819019595
 30
0.0
 10
206.0054249504346
 20
123.8295969633246
 30
0.0
 10
205.8954129089169
 20
123.487551703639
 30
0.0
 10
205.6893680944219
 20
123.1945308200044
 30
0.0
 10
205.4041094437987
 20
122.9758589414214
 30
0.0
 10
205.0724221038045
 20
122.855140310343
 30
0.0
 10
204.804314130941
 20
122.8382269979757
 30
0.0
 10
204.6598758067058
 20
122.8596188374916
 30
0.0
 10
204.6263098152394
 20
122.8645900825295
 30
0.0
  0
LINE
  5
116
330
1F
100
AcDbEntity
  8
0
  6
HIDDEN
 62
     7
370
     0
100
AcDbLine
 10
203.5798143507
 20
123.9943872198
 30
0.0
 11
203.5798143507
 21
123.6958788009
 31
0.0
  0
LINE
  5
117
330
1F
100
AcDbEntity
  8
0
  6
HIDDEN
 62
     7
370
     0
100
AcDbLine
 10
206.0798143507
 20
123.6958788009
 30
0.0
 11
206.0798143507
 21
123.9943872198
 31
0.0
  0
LINE
  5
118
330
1F
100
AcDbEntity
  8
0
  6
HIDDEN
 62
     7
370
     0
100
AcDbLine
 10
202.9717639371
 20
124.2568980745
 30
0.0
 11
202.9717639371
 21
124.1915312675
 31
0.0
  0
LINE
  5
119
330
1F
100
AcDbEntity
  8
0
  6
HIDDEN
 62
     7
370
     0
100
AcDbLine
 10
206.8217639371
 20
124.1915312675
 30
0.0
 11
206.8217639371
 21
124.2568980745
 31
0.0
  0
LINE
  5
11A
330
1F
100
AcDbEntity
  8
0
  6
HIDDEN
 62
     7
370
     0
100
AcDbLine
 10
203.4967639371
 20
124.0882461963
 30
0.0
 11
203.4967639371
 21
124.0494674068
 31
0.0
  0
LINE
  5
11B
330
1F
100
AcDbEntity
  8
0
  6
HIDDEN
 62
     7
370
     0
100
AcDbLine
 10
206.2967639371
 20
124.0494674068
 30
0.0
 11
206.2967639371
 21
124.0882461963
 31
0.0
  0
LINE
  5
11C
330
1F
100
AcDbEntity
  8
0
  6
HIDDEN
 62
     7
370
     0
100
AcDbLine
 10
193.3507675647
 20
121.1827871867
 30
0.0
 11
186.2175648582
 21
117.064430684
 31
0.0
  0
LINE
  5
11D
330
1F
100
AcDbEntity
  8
0
  6
HIDDEN
 62
     7
370
     0
100
AcDbLine
 10
187.0901775607
 20
114.1041322475
 30
0.0
 11
195.6200209434
 21
119.0288396206
 31
0.0
  0
LINE
  5
11E
330
1F
100
AcDbEntity
  8
0
  6
HIDDEN
 62
     7
370
     0
100
AcDbLine
 10
186.8383622123
 20
113.9587465883
 30
0.0
 11
187.0403185308
 21
114.0753461231
 31
0.0
  0
LINE
  5
11F
330
1F
100
AcDbEntity
  8
0
  6
HIDDEN
 62
     7
370
     0
100
AcDbLine
 10
93.0717639371
 20
113.3249075975
 30
0.0
 11
94.3708020428
 21
114.0749075975
 31
0.0
  0
LINE
  5
120
330
1F
100
AcDbEntity
  8
0
  6
HIDDEN
 62
     7
370
     0
100
AcDbLine
 10
94.3708020428
 20
117.0749075975
 30
0.0
 11
93.0717639371
 21
117.8249075975
 31
0.0
  0
LINE
  5
121
330
1F
100
AcDbEntity
  8
0
  6
HIDDEN
 62
     7
370
     0
100
AcDbLine
 10
187.0378091213
 20
114.0749075975
 30
0.0
 11
187.0717639371
 21
114.0749075975
 31
0.0
  0
LINE
  5
122
330
1F
100
AcDbEntity
  8
0
  6
HIDDEN
 62
     7
370
     0
100
AcDbLine
 10
94.3708020428
 20
114.0749075975
 30
0.0
 11
186.7696575364
 21
114.0749075975
 31
0.0
  0
LINE
  5
123
330
1F
100
AcDbEntity
  8
0
  6
HIDDEN
 62
     7
370
     0
100
AcDbLine
 10
186.2637292294
 20
117.0749075975
 30
0.0
 11
94.3708020428
 21
117.0749075975
 31
0.0
  0
LINE
  5
124
330
1F
100
AcDbEntity
  8
0
  6
HIDDEN
 62
     7
370
     0
100
AcDbLine
 10
187.0717639371
 20
114.0749075975
 30
0.0
 11
187.0940044615
 21
114.111922046
 31
0.0
  0
LINE
  5
125
330
1F
100
AcDbEntity
  8
0
  6
HIDDEN
 62
     7
370
     0
100
AcDbLine
 10
201.3298143507
 20
121.1919366051
 30
0.0
 11
201.3298143507
 21
120.9914783968
 31
0.0
  0
LINE
  5
126
330
1F
100
AcDbEntity
  8
0
  6
HIDDEN
 62
     7
370
     0
100
AcDbLine
 10
203.3298143507
 20
120.9914783968
 30
0.0
 11
203.3298143507
 21
121.0019370859
 31
0.0
  0
LINE
  5
127
330
1F
100
AcDbEntity
  8
0
  6
HIDDEN
 62
     7
370
     0
100
AcDbLine
 10
203.8048143507
 20
123.9503735697
 30
0.0
 11
203.8048143507
 21
123.4458927494
 31
0.0
  0
LINE
  5
128
330
1F
100
AcDbEntity
  8
0
  6
HIDDEN
 62
     7
370
     0
100
AcDbLine
 10
205.8548143507
 20
123.398857509
 30
0.0
 11
205.8548143507
 21
123.9503735697
 31
0.0
  0
LINE
  5
129
330
1F
100
AcDbEntity
  8
VERMASSUNG
100
AcDbLine
 10
167.3684832121
 20
115.5749075975
 30
0.0
 11
208.0717639371
 21
115.5749075975
 31
0.0
  0
POINT
  5
12A
330
1F
100
AcDbEntity
  8
VERMASSUNG
100
AcDbPoint
 10
208.0717639371
 20
127.9499075975
 30
0.0
  0
DIMENSION
  5
12B
330
1F
100
AcDbEntity
  8
VERMASSUNG
100
AcDbDimension
  2
*D1
 10
216.1175130694
 20
103.1999075975
 30
0.0
 11
216.1175130694
 21
115.0601909697
 31
0.0
 70
   160
  1
%%c<>-30.1
 71
     2
 42
-1.0
  3
SLDDIMSTYLE0
100
AcDbAlignedDimension
 13
208.0717639371
 23
127.9499075975
 33
0.0
 14
208.0717639371
 24
103.1999075975
 34
0.0
 50
90.0
100
AcDbRotatedDimension
  0
DIMENSION
  5
136
330
1F
100
AcDbEntity
  8
VERMASSUNG
100
AcDbDimension
  2
*D2
 10
93.0717639371
 20
134.2816055726
 30
0.0
 11
147.0099958498
 21
134.2816055726
 31
0.0
 70
   160
 71
     2
 42
-1.0
  3
SLDDIMSTYLE1
100
AcDbAlignedDimension
 13
208.0717639371
 23
127.9499075975
 33
0.0
 14
93.0717639371
 24
121.7749075975
 34
0.0
100
AcDbRotatedDimension
  0
DIMENSION
  5
141
330
1F
100
AcDbEntity
  8
VERMASSUNG
100
AcDbDimension
  2
*D3
 10
86.7637069585
 20
107.5749075975
 30
0.0
 11
86.7637069585
 21
115.0601909697
 31
0.0
 70
   160
  1
%%c<>
 71
     2
 42
-1.0
  3
SLDDIMSTYLE1
100
AcDbAlignedDimension
 13
104.3717639371
 23
123.5749075975
 33
0.0
 14
94.4467639371
 24
107.5749075975
 34
0.0
 50
90.0
100
AcDbRotatedDimension
  0
LINE
  5
14C
330
1F
100
AcDbEntity
  8
VERMASSUNG
  6
CENTERX2
 62
     7
370
     0
100
AcDbLine
 10
91.0717639371
 20
115.5749075975
 30
0.0
 11
168.8050736822
 21
115.5749075975
 31
0.0
  0
LINE
  5
14D
330
1F
100
AcDbEntity
  8
VERMASSUNG
  6
CENTERX2
 62
     7
370
     0
100
AcDbLine
 10
199.305859215
 20
122.8889101465
 30
0.0
 11
183.3120675862
 21
113.6548902443
 31
0.0
  0
OLE2FRAME
  5
14E
330
1F
100
AcDbEntity
  8
0
100
AcDbOle2Frame
 70
     2
  3
Paintbrush-Bild
 10
13.8511154363
 20
38.264191557
 30
0.0
 11
51.6290888628
 21
31.9806341108
 31
0.0
 71
     2
 72
     0
 73
     1
 90
    12928
310
80552BED0767C5B32B40DDAF6807D121434000000000000000006FFBDDFB85D0
310
4940DDAF6807D121434000000000000000006FFBDDFB85D04940416F4BD60AFB
310
3F4000000000000000002BED0767C5B32B40416F4BD60AFB3F40000000000000
310
0000000000000100000000010000010000000100000000000100000000320000
310
D0CF11E0A1B11AE1000000000000000000000000000000003E000300FEFF0900
310
0600000000000000000000000100000001000000000000000010000002000000
310
01000000FEFFFFFF0000000000000000FFFFFFFFFFFFFFFFFFFFFFFFFFFFFFFF
310
FFFFFFFFFFFFFFFFFFFFFFFFFFFFFFFFFFFFFFFFFFFFFFFFFFFFFFFFFFFFFFFF
310
FFFFFFFFFFFFFFFFFFFFFFFFFFFFFFFFFFFFFFFFFFFFFFFFFFFFFFFFFFFFFFFF
310
FFFFFFFFFFFFFFFFFFFFFFFFFFFFFFFFFFFFFFFFFFFFFFFFFFFFFFFFFFFFFFFF
310
FFFFFFFFFFFFFFFFFFFFFFFFFFFFFFFFFFFFFFFFFFFFFFFFFFFFFFFFFFFFFFFF
310
FFFFFFFFFFFFFFFFFFFFFFFFFFFFFFFFFFFFFFFFFFFFFFFFFFFFFFFFFFFFFFFF
310
FFFFFFFFFFFFFFFFFFFFFFFFFFFFFFFFFFFFFFFFFFFFFFFFFFFFFFFFFFFFFFFF
310
FFFFFFFFFFFFFFFFFFFFFFFFFFFFFFFFFFFFFFFFFFFFFFFFFFFFFFFFFFFFFFFF
310
FFFFFFFFFFFFFFFFFFFFFFFFFFFFFFFFFFFFFFFFFFFFFFFFFFFFFFFFFFFFFFFF
310
FFFFFFFFFFFFFFFFFFFFFFFFFFFFFFFFFFFFFFFFFFFFFFFFFFFFFFFFFFFFFFFF
310
FFFFFFFFFFFFFFFFFFFFFFFFFFFFFFFFFFFFFFFFFFFFFFFFFFFFFFFFFFFFFFFF
310
FFFFFFFFFFFFFFFFFFFFFFFFFFFFFFFFFFFFFFFFFFFFFFFFFFFFFFFFFFFFFFFF
310
FFFFFFFFFFFFFFFFFFFFFFFFFFFFFFFFFFFFFFFFFFFFFFFFFFFFFFFFFFFFFFFF
310
FFFFFFFFFFFFFFFFFFFFFFFFFFFFFFFFFFFFFFFFFFFFFFFFFFFFFFFFFFFFFFFF
310
FDFFFFFFFEFFFFFFFEFFFFFFFEFFFFFF05000000060000000700000008000000
310
090000000A0000000B0000000C0000000D0000000E0000000F00000010000000
310
11000000120000001300000014000000150000001600000017000000FEFFFFFF
310
FFFFFFFFFFFFFFFFFFFFFFFFFFFFFFFFFFFFFFFFFFFFFFFFFFFFFFFFFFFFFFFF
310
FFFFFFFFFFFFFFFFFFFFFFFFFFFFFFFFFFFFFFFFFFFFFFFFFFFFFFFFFFFFFFFF
310
FFFFFFFFFFFFFFFFFFFFFFFFFFFFFFFFFFFFFFFFFFFFFFFFFFFFFFFFFFFFFFFF
310
FFFFFFFFFFFFFFFFFFFFFFFFFFFFFFFFFFFFFFFFFFFFFFFFFFFFFFFFFFFFFFFF
310
FFFFFFFFFFFFFFFFFFFFFFFFFFFFFFFFFFFFFFFFFFFFFFFFFFFFFFFFFFFFFFFF
310
FFFFFFFFFFFFFFFFFFFFFFFFFFFFFFFFFFFFFFFFFFFFFFFFFFFFFFFFFFFFFFFF
310
FFFFFFFFFFFFFFFFFFFFFFFFFFFFFFFFFFFFFFFFFFFFFFFFFFFFFFFFFFFFFFFF
310
FFFFFFFFFFFFFFFFFFFFFFFFFFFFFFFFFFFFFFFFFFFFFFFFFFFFFFFFFFFFFFFF
310
FFFFFFFFFFFFFFFFFFFFFFFFFFFFFFFFFFFFFFFFFFFFFFFFFFFFFFFFFFFFFFFF
310
FFFFFFFFFFFFFFFFFFFFFFFFFFFFFFFFFFFFFFFFFFFFFFFFFFFFFFFFFFFFFFFF
310
FFFFFFFFFFFFFFFFFFFFFFFFFFFFFFFFFFFFFFFFFFFFFFFFFFFFFFFFFFFFFFFF
310
FFFFFFFFFFFFFFFFFFFFFFFFFFFFFFFFFFFFFFFFFFFFFFFFFFFFFFFFFFFFFFFF
310
FFFFFFFFFFFFFFFFFFFFFFFFFFFFFFFFFFFFFFFFFFFFFFFFFFFFFFFFFFFFFFFF
310
52006F006F007400200045006E00740072007900000000000000000000000000
310
0000000000000000000000000000000000000000000000000000000000000000
310
16000500FFFFFFFFFFFFFFFF020000000A00030000000000C000000000000046
310
000000000000000000000000204D0007C5F7CC0103000000C000000000000000
310
01004F006C006500000000000000000000000000000000000000000000000000
310
0000000000000000000000000000000000000000000000000000000000000000
310
0A000200FFFFFFFFFFFFFFFFFFFFFFFF00000000000000000000000000000000
310
0000000000000000000000000000000000000000000000001400000000000000
310
010043006F006D0070004F0062006A0000000000000000000000000000000000
310
0000000000000000000000000000000000000000000000000000000000000000
310
120002010100000003000000FFFFFFFF00000000000000000000000000000000
310
0000000000000000000000000000000000000000010000004D00000000000000
310
01004F006C006500310030004E00610074006900760065000000000000000000
310
0000000000000000000000000000000000000000000000000000000000000000
310
1A000200FFFFFFFFFFFFFFFFFFFFFFFF00000000000000000000000000000000
310
0000000000000000000000000000000000000000040000002426000000000000
310
FEFFFFFF02000000FEFFFFFFFFFFFFFFFFFFFFFFFFFFFFFFFFFFFFFFFFFFFFFF
310
FFFFFFFFFFFFFFFFFFFFFFFFFFFFFFFFFFFFFFFFFFFFFFFFFFFFFFFFFFFFFFFF
310
FFFFFFFFFFFFFFFFFFFFFFFFFFFFFFFFFFFFFFFFFFFFFFFFFFFFFFFFFFFFFFFF
310
FFFFFFFFFFFFFFFFFFFFFFFFFFFFFFFFFFFFFFFFFFFFFFFFFFFFFFFFFFFFFFFF
310
FFFFFFFFFFFFFFFFFFFFFFFFFFFFFFFFFFFFFFFFFFFFFFFFFFFFFFFFFFFFFFFF
310
FFFFFFFFFFFFFFFFFFFFFFFFFFFFFFFFFFFFFFFFFFFFFFFFFFFFFFFFFFFFFFFF
310
FFFFFFFFFFFFFFFFFFFFFFFFFFFFFFFFFFFFFFFFFFFFFFFFFFFFFFFFFFFFFFFF
310
FFFFFFFFFFFFFFFFFFFFFFFFFFFFFFFFFFFFFFFFFFFFFFFFFFFFFFFFFFFFFFFF
310
FFFFFFFFFFFFFFFFFFFFFFFFFFFFFFFFFFFFFFFFFFFFFFFFFFFFFFFFFFFFFFFF
310
FFFFFFFFFFFFFFFFFFFFFFFFFFFFFFFFFFFFFFFFFFFFFFFFFFFFFFFFFFFFFFFF
310
FFFFFFFFFFFFFFFFFFFFFFFFFFFFFFFFFFFFFFFFFFFFFFFFFFFFFFFFFFFFFFFF
310
FFFFFFFFFFFFFFFFFFFFFFFFFFFFFFFFFFFFFFFFFFFFFFFFFFFFFFFFFFFFFFFF
310
FFFFFFFFFFFFFFFFFFFFFFFFFFFFFFFFFFFFFFFFFFFFFFFFFFFFFFFFFFFFFFFF
310
FFFFFFFFFFFFFFFFFFFFFFFFFFFFFFFFFFFFFFFFFFFFFFFFFFFFFFFFFFFFFFFF
310
FFFFFFFFFFFFFFFFFFFFFFFFFFFFFFFFFFFFFFFFFFFFFFFFFFFFFFFFFFFFFFFF
310
FFFFFFFFFFFFFFFFFFFFFFFFFFFFFFFFFFFFFFFFFFFFFFFFFFFFFFFFFFFFFFFF
310
0100000200000000000000000000000000000000000000000000000000000000
310
0000000000000000000000000000000000000000000000000000000000000000
310
0100FEFF030A0000FFFFFFFF0A00030000000000C00000000000004607000000
310
5042727573680007000000504272757368000700000050427275736800F439B2
310
7100000000000000000000000000000000000000000000000000000000000000
310
0000000000000000000000000000000000000000000000000000000000000000
310
0000000000000000000000000000000000000000000000000000000000000000
310
0000000000000000000000000000000000000000000000000000000000000000
310
0000000000000000000000000000000000000000000000000000000000000000
310
0000000000000000000000000000000000000000000000000000000000000000
310
0000000000000000000000000000000000000000000000000000000000000000
310
0000000000000000000000000000000000000000000000000000000000000000
310
0000000000000000000000000000000000000000000000000000000000000000
310
0000000000000000000000000000000000000000000000000000000000000000
310
0000000000000000000000000000000000000000000000000000000000000000
310
0000000000000000000000000000000000000000000000000000000000000000
310
20260000424D0E260000000000003E00000028000000B40200006E0000000100
310
01000000000000000000130B0000130B00000200000002000000000000FFFFFF
310
FFFFFFFFFFFFFFFFFFFFFFFFFFFFFFFFFFFFFFFFFFFFFFFFFFFFFFFFFFFFFFFF
310
FFFFFFFFFFFFFFFFFFFFFFFFFFFFFFFFFFFFFFFFFFFFFFFFFFFFFFFFFFFFFFFF
310
FFFFFFFFFFFFFFFFFFFFFFFFFFFFFFFFFFFFFFFFFFFFFFFFF000FFFFFFFFFFFF
310
FFFFFFFFFFFFFFFFFFFFFFFFFFFFFFFFFFFFFFFFFFFFFFFFFFFFFFFFFFFFFFFF
310
FFFFFFFFFFFFFFFFFFFFFFFFFFFFFFFFFFFFFFFFFFFFFFFFFFFFFFFFFFFFFFFF
310
FFFFFFFFFFFFFFFFFFFFFFFFFFFFFFFFF000FFFFFFFFFFFFFFFFFFFFFFFFFFFF
310
FFFFFFFFFFFFFFFFFFFFFFFFFFFFFFFFFFFFFFFFFFFFFFFFFFFFFFFFFFFFFFFF
310
FFFFFFFFFFFFFFFFFFFFFFFFFFFFFFFFFFFFFFFFFFFFFFFFFFFFFFFFFFFFFFFF
310
FFFFFFFFFFFFFFFFF000FFFFFFFFFFFFFFFFFFFFFFFFFFFFFFFFFFFFFFFFFFFF
310
FFFFFFFFFFFFFFFFFFFFFFFFFFFFFFFFFFFFFFFFFFFFFFFFFFFFFFFFFFFFFFFF
310
FFFFFFFFFFFFFFFFFFFFFFFFFFFFFFFFFFFFFFFFFFFFFFFFFFFFFFFFFFFFFFFF
310
F000FFFFFFFFFFFFFFFFFFFFFFFFFFFFFFFFFFFFFFFFFFFFFFFFFFFFFFFFFFFF
310
FFFFFFFFFFFFFFFFFFFFFFFFFFFFFFFFFFFFFFFFFFFFFFFFFFFFFFFFFFFFFFFF
310
FFFFFFFFFFFFFFFFFFFFFFFFFFFFFFFFFFFFFFFFFFFFFFFFF000FFFFFFFFFFFF
310
FFFFFFFFFFFFFFFFFFFFFFFFFFFFFFFFFFFFFFFFFFFFFFFFFFFFFFFFFFFFFFFF
310
FFFFFFFFFFFFFFFFFFFFFFFFFFFFFFFFFFFFFFFFFFFFFFFFFFFFFFFFFFFFFFFF
310
FFFFFFFFFFFFFFFFFFFFFFFFFFFFFFFFF000FFFFFFFFFFFFFFFFFFFFFFFFFFFF
310
FFFFFFFFFFFFFFFFFFFFFFFFFFFFFFFFFFFFFFFFFFFFFFFFFFFFFFFFFFFFFFFF
310
FFFFFFFFFFFFFFFFFFFFFFFFFFFFFFFFFFFFFFFFFFFFFFFFFFFFFFFFFFFFFFFF
310
FFFFFFFFFFFFFFFFF000FFFFFFFFFFFFFFFFFFFFFFFFFFFFFFFFFFFFFFFFFFFF
310
FFFFFFFFFFFFFFFFFFFFFFFFFFFFFFFFFFFFFFFFFFFFFFFFFFFFFFFFFFFFFFFF
310
FFFFFFFFFFFFFFFFFFFFFFFFFFFFFFFFFFFFFFFFFFFFFFFFFFFFFFFFFFFFFFFF
310
F000FFFFFFFFFFFFFFFFFFFFFFFFFFFFFFFFFFFFFFFFFFFFFFFFFFFFFFFFFFFF
310
FFFFFFFFFFFFFFFFFFFFFFFFFFFFFFFFFFFFFFFFFFFFFFFFFFFFFFFFFFFFFFFF
310
FFFFFFFFFFFFFFFFFFFFFFFFFFFFFFFFFFFFFFFFFFFFFFFFF000FFFFFFFFFFFF
310
FFFFFFFFFFFFFFFFFFFFFFFFFFFFFFFFFFFFFFFFFFFFFFFFFFFFFFFFFFFFFFFF
310
FFFFFFFFFFFFFFFFFFFFFFFFFFFFFFFFFFFFFFFFFFFFFFFFFFFFFFFFFFFFFFFF
310
FFFFFFFFFFFFFFFFFFFFFFFFFFFFFFFFF000FFFFFFFFFFFFFFFFFFFFFFFFFFFF
310
FFFFFFFFFFFFFFFFFFFFFFFFFFFFFFFFFFFFFFFFFFFFFFFFFFFFFFFFFFFFFFFF
310
FFFFFFFFFFFFFFFFFFFFFFFFFFFFFFFFFFFFFFFFFFFFFFFFFFFFFFFFFFFFFFFF
310
FFFFFFFFFFFFFFFFF000FFFFFFFFFFFFFFFFFFFFFFFFFFFFFFFFFFFFFFFFFFFF
310
FFFFFFFFFFFFFFFFFFFFFFFFFFFFFFFFFFFFFFFFFFFFFFFFFFFFFFFFFFFFFFFF
310
FFFFFFFFFFFFFFFFFFFFFFFFFFFFFFFFFFFFFFFFFFFFFFFFFFFFFFFFFFFFFFFF
310
F000FFFFFFFFFFFFFFFFFFFFFFFFFFFFFFFFFFFFFFFFFFFFFFFFFFFFFFFFFFFF
310
FFFFFFFFFFFFFFFFFFFFFFFFFFFFFFFFFFFFFFFFFFFFFFFFFFFFFFFFFFFFFFFF
310
FFFFFFFFFFFFFFFFFFFFFFFFFFFFFFFFFFFFFFFFFFFFFFFFF000FFFFFFFFFFFF
310
FFFFFFFFFFFFFFFFFFFFFFFFFFFFFFFFFFFFFFFFFFFFFFFFFFFFFFFFFFFFFFFF
310
FFFFFFFFFFFFFFFFFFFFFFFFFFFFFFFFFFFFFFFFFFFFFFFFFFFFFFFFFFFFFFFF
310
FFFFFFFFFFFFFFFFFFFFFFFFFFFFFFFFF000FFFFFFFFFFFFFFFFFFFFFFFFFFFF
310
FFFFFFFFFFFFFFFFFFFFFFFFFFFFFFFFFFFFFFFFFFFFFFFFFFFFFFFFFFFFFFFF
310
FFFFFFFFFFFFFFFFFFFFFFFFFFFFFFFFFFFFFFFFFFFFFFFFFFFFFFFFFFFFFFFF
310
FFFFFFFFFFFFFFFFF000FFFFFFFFFFFFFFFFFFFFFFFFFFFFFFFFFFFFFFFFFFFF
310
FFFFFFFFFFFFFFFFFFFFFFFFFFFFFFFFFFFFFFFFFFFFFFFFFFFFFFFFFFFFFFFF
310
FFFFFFFFFFFFFFFFFFFFFFFFFFFFFFFFFFFFFFFFFFFFFFFFFFFFFFFFFFFFFFFF
310
F000FFFFFFFFFFFFFFFFFFFFFFFFFFFFFFFFFFFFFFFFFFFFFFFFFFFFFFFFFFFF
310
FFFFFFFFFFFFFFFFFFFFFFFFFFFFFFFFFFFFFFFFFFFFFFFFFFFFFFFFFFFFFFFF
310
FFFFFFFFFFFFFFFFFFFFFFFFFFFFFFFFFFFFFFFFFFFFFFFFF000FFFFFFFFFFFF
310
FFFFFFFFFFFFFFFFFFFFFFFFFFFFFFFFFFFFFFFFFFFFFFFFFFFFFFFFFFFFFFFF
310
FFFFFFFFFFFFFFFFFFFFFFFFFFFFFFFFFFFFFFFFFFFFFFFFFFFFFFFFFFFFFFFF
310
FFFFFFFFFFFFFFFFFFFFFFFFFFFFFFFFF000FFFFFFFFFFFFFFFFFFFFFFFFFFFF
310
FFFFFFFFFFFFFFFFFFFFFFFFFFFFFFFFFFFFFFFFFFFFFFFFFFFFFFFFFFFFFFFF
310
FFFFFFFFFFFFFFFFFFFFFFFFFFFFFFFFFFFFFFFFFFFFFFFFFFFFFFFFFFFFFFFF
310
FFFFFFFFFFFFFFFFF000FFFFF80003FFFFFFFFFFFFFFFFFFFFFFFFFFFFFFFFFF
310
FFFFF00007FFFFFFFFFF00007FFFFFF800000000000000007FFFFFFFFFFFFFFF
310
FFFFFFFC001FFFFFFFFFFFFFFC001FFFFFFFFFFFFFFFFFFFFFFFFFFE0007FFFF
310
F000FFFF8000007FFFFFFFF8000FFFFFC0007FFFFF80007FFFFF0000007FFFFF
310
FFF8000007FFFFF800000000000000007FFFFFF0001FFFFFFFFFFFC00001FFFF
310
FFFFFFFFC00001FFFFFFFF000000000003FFFFE000007FFFF000FFFE0000000F
310
FFFFFFF0000FFFFF80007FFFFF80007FFFFC0000001FFFFFFFC0000001FFFFF8
310
00000000000000007FFFFFF0001FFFFFFFFFFE0000003FFFFFFFFFFE0000003F
310
FFFFFF000000000003FFFF0000000FFFF000FFF800000003FFFFFFF00007FFFF
310
80007FFFFF80007FFFF000000007FFFFFF000000003FFFF80000000000000000
310
7FFFFFF0001FFFFFFFFFF80000000FFFFFFFFFF80000000FFFFFFF0000000000
310
03FFFC00000003FFF000FFE000000000FFFFFFF00007FFFF80003FFFFF80007F
310
FFC000000001FFFFFC000000001FFFF800000000000000007FFFFFF0001FFFFF
310
FFFFE000000003FFFFFFFFE000000003FFFFFF000000000003FFF000000000FF
310
F000FF80000000007FFFFFF00007FFFF80003FFFFF80007FFF8000000000FFFF
310
F80000000007FFF800000000000000007FFFFFF0001FFFFFFFFFC000000001FF
310
FFFFFFC000000001FFFFFF000000000003FFC0000000007FF000FF0000000000
310
3FFFFFE00007FFFF00003FFFFF80007FFE00000000003FFFF00000000003FFF8
310
00000000000000007FFFFFF0001FFFFFFFFF8000000000FFFFFFFF8000000000
310
FFFFFF000000000003FF80000000003FF000FE00000000001FFFFFE00003FFFF
310
00003FFFFF80007FFC00000000001FFFE00000000001FFF8000001FFFE000000
310
7FFFFFF0001FFFFFFFFE00000000003FFFFFFE00000000003FFFFF0000000000
310
03FF00000000001FF000FC00000000000FFFFFE00003FFFF00001FFFFF80007F
310
F800000000001FFFC00000000000FFF8000001FFFE0000007FFFFFF0001FFFFF
310
FFFC00000000001FFFFFFC00000000001FFFFF000000000003FE00000000000F
310
F000F8000000000007FFFFE00003FFFF00001FFFFF80007FF800000000000FFF
310
800000000000FFF8000001FFFE0000007FFFFFF0001FFFFFFFF800000000000F
310
FFFFF800000000000FFFFF000000000003FC000000000007F000F80000000000
310
03FFFFC00003FFFE00001FFFFF80007FF0000000000007FF0000000000007FF8
310
000001FFFE0000007FFFFFF0001FFFFFFFF0000000000007FFFFF00000000000
310
07FFFF000000000003F8000000000003F000F0000000000003FFFFC00001FFFE
310
00001FFFFF80007FE0000000000007FE0000000000003FF8000001FFFE000000
310
7FFFFFF0001FFFFFFFF0000000000007FFFFF0000000000007FFFF0000000000
310
03F800001F800003F000E00001FFF00001FFFFC00001FFFE00000FFFFF80007F
310
E00001FFE00003FE00001FFF00003FF8000001FFFE0000007FFFFFF0001FFFFF
310
FFE000003E000003FFFFE000003E000003FFFF000000000003F00001FFF80001
310
F000E00007FFFC0001FFFFC00001FFFE00000FFFFF80007FC0000FFFFC0003FC
310
0000FFFFC0001FF8000001FFFE0000007FFFFFF0001FFFFFFFC00003FFE00001
310
FFFFC00003FFE00001FFFF0001FFFFFFFFF00007FFFE0001F000E0000FFFFF00
310
00FFFF800001FFFC00000FFFFF80007FC0001FFFFE0001FC0001FFFFE0001FF8
310
000001FFFE0000007FFFFFF0001FFFFFFF80000FFFF80000FFFF80000FFFF800
310
00FFFF0003FFFFFFFFE0000FFFFF8000F000C0003FFFFF8000FFFF800000FFFC
310
000007FFFF80007F80003FFFFF0001FC0003FFFFF0001FF8000001FFFE000000
310
7FFFFFF0001FFFFFFF80003FFFFE0000FFFF80003FFFFE0000FFFF0003FFFFFF
310
FFE0003FFFFF8000F000C0003FFFFF8000FFFF800000FFFC000007FFFF80007F
310
80007FFFFF8001F80007FFFFF8000FF8000001FFFE0000007FFFFFF0001FFFFF
310
FF00007FFFFF00007FFF00007FFFFF00007FFF0003FFFFFFFFE0003FFFFFC000
310
F000C0007FFFFFC000FFFF000000FFFC000007FFFF80007F8000FFFFFF8000F8
310
000FFFFFF8000FF8000001FFFE0000007FFFFFF0001FFFFFFF0000FFFFFF8000
310
7FFF0000FFFFFF80007FFF0003FFFFFFFFC0007FFFFFC00070008000FFFFFFC0
310
00FFFF000000FFF8000007FFFF80007F8000FFFFFF8000F8000FFFFFF8000FF8
310
000001FFFE0000007FFFFFF0001FFFFFFE0001FFFFFFC0003FFE0001FFFFFFC0
310
003FFF0003FFFFFFFFC0007FFFFFE00070008000FFFFFFC0007FFF0000007FF8
310
000003FFFF80007F0001FFFFFF8000F8000FFFFFF8000FF8000001FFFE000000
310
7FFFFFF0001FFFFFFE0001FFFFFFC0003FFE0001FFFFFFC0003FFF0003FFFFFF
310
FFC000FFFFFFE00070008000FFFFFFC0007FFF0000007FF8000003FFFF80007F
310
0001FFFFFF8000F8001FFFFFF8000FF8000001FFFE0000007FFFFFF0001FFFFF
310
FE0003FFFFFFE0003FFE0003FFFFFFE0003FFF0003FFFFFFFFC000FFFFFFE000
310
70008000FFFFFFC0007FFE0000007FF8000003FFFF80007F0001FFFFFF8000F0
310
001FFFFFF8000FF8000001FFFE0000007FFFFFF0001FFFFFFC0003FFFFFFE000
310
1FFC0003FFFFFFE0001FFF0003FFFFFFFFC000FFFFFFC00070008000FFFFFF80
310
007FFE0000007FF0000003FFFF80007F0001FFFFFF0000F0001FFFFFF8000FF8
310
000001FFFE0000007FFFFFF0001FFFFFFC0007FFFFFFF0001FFC0007FFFFFFF0
310
001FFF0003FFFFFFFFC000FFFFFFC00070008001FFFFFF0000FFFE0000003FF0
310
000001FFFF80007F0001FFFFFF0000F8001FFFFFF0000FF8000001FFFE000000
310
7FFFFFF0001FFFFFFC0007FFFFFFF0001FFC0007FFFFFFF0001FFF0003FFFFFF
310
FFC001FFFFFF80007000FFFFFFFFFE0000FFFE0008003FF0008001FFFF80007F
310
FFFFFFFFFC0000FFFFFFFFFFE0000FF8000001FFFE0000007FFFFFF0001FFFFF
310
F8000FFFFFFFF8000FF8000FFFFFFFF8000FFF0003FFFFFFFFFFFFFFFFFF0000
310
7000FFFFFFFFFC0000FFFC0008003FF0008001FFFF80007FFFFFFFFFF80001FF
310
FFFFFFFF80000FF8000001FFFE0000007FFFFFF0001FFFFFF8000FFFFFFFF800
310
0FF8000FFFFFFFF8000FFF0003FFFFFFFFFFFFFFFFFE0000F000FFFFFFFFE000
310
00FFFC000C003FE000C001FFFF80007FFFFFFFFFC00001FFFFFFFFFE00001FF8
310
000001FFFE0000007FFFFFF0001FFFFFF8000FFFFFFFF8000FF8000FFFFFFFF8
310
000FFF0003FFFFFFFFFFFFFFFFF00000F000FFFFFFFE000001FFFC000C001FE0
310
00C000FFFF80007FFFFFFFFE000001FFFFFFFFE000001FF80FFFFFFFFFFFFFC0
310
7FFFFFF0001FFFFFF8000FFFFFFFF8000FF8000FFFFFFFF8000FFF0003FFFFFF
310
FFFFFFFFFF800000F000FFFFFFC0000001FFFC001C001FE001C000FFFF80007F
310
FFFFFF80000003FFFFFFF80000001FF80FFFFFFFFFFFFFC07FFFFFF0001FFFFF
310
F8001FFFFFFFFC000FF8001FFFFFFFFC000FFF0003FFFFFFFFFFFFFFF0000001
310
F000FFFFF800000001FFF8001C001FE001C000FFFF80007FFFFFF800000003FF
310
FFFF800000003FF80FFFFFFFFFFFFFC07FFFFFF0001FFFFFF8001FFFFFFFFC00
310
0FF8001FFFFFFFFC000FFF0003FFFFFFFFFFFFFE00000001F000FFFFC0000000
310
03FFF8001E001FC001E000FFFF80007FFFFF8000000007FFFFFC000000003FF8
310
0FFFFFFFFFFFFFC07FFFFFF0001FFFFFF8001FFFFFFFFC000FF8001FFFFFFFFC
310
000FFF0003FFFFFFFFFFFFE000000003F000FFFE0000000007FFF8001E000FC0
310
01E0007FFF80007FFFFE0000000007FFFFE0000000007FF80FFFFFFFFFFFFFC0
310
7FFFFFF0001FFFFFF0001FFFFFFFFC0007F0001FFFFFFFFC0007FF0003FFFFFF
310
FFFFFF0000000003F000FFF80000000007FFF8001E000FC003E0007FFF80007F
310
FFF0000000000FFFFF8000000000FFF80FFFFFFFFFFFFFC07FFFFFF0001FFFFF
310
F0001FFFFFFFFC0007F0001FFFFFFFFC0007FF0003FFFFFFFFFFFC0000000007
310
F000FFE0000000000FFFF0003E000FC003E0007FFF80007FFFC0000000001FFF
310
FE0000000001FFF80FFFFFFFFFFFFFC07FFFFFF0001FFFFFF0001FFFFFFFFC00
310
07F0001FFFFFFFFC0007FF0003FFFFFFFFFFF0000000000FF000FFC000000000
310
1FFFF0003F000F8003F0003FFF80007FFF80000000003FFFF80000000003FFF8
310
0FFFFFFFFFFFFFC07FFFFFF0001FFFFFF0001FFFFFFFFC0007F0001FFFFFFFFC
310
0007FF0003FFFFFFFFFFE0000000001FF000FF00000000007FFFF0003F000780
310
03F0003FFF80007FFF00000000007FFFF00000000007FFF80FFFFFFFFFFFFFC0
310
7FFFFFF0001FFFFFF0001FFFFFFFFC0007F0001FFFFFFFFC0007FF0003FFFFFF
310
FFFF80000000007FF000FE0000000000FFFFE0003F00078007F0003FFF80007F
310
FE0000000001FFFFE0000000001FFFF80FFFFFFFFFFFFFC07FFFFFF0001FFFFF
310
F0001FFFFFFFFC0007F0001FFFFFFFFC0007FF0003FFFFFFFFFF0000000000FF
310
F000FC0000000003FFFFE0007F00078007F0003FFF80007FFC0000000007FFFF
310
C0000000007FFFF80FFFFFFFFFFFFFC07FFFFFF0001FFFFFF8001FFFFFFFFC00
310
0FF8001FFFFFFFFC000FFF0003FFFFFFFFFE0000000003FFF000FC000000000F
310
FFFFE0007F80070007F8001FFF80007FF8000000001FFFFF8000000001FFFFF8
310
0FFFFFFFFFFFFFC07FFFFFF0001FFFFFF8001FFFFFFFFC000FF8001FFFFFFFFC
310
000FFF0003FFFFFFFFFC000000000FFFF000F8000000007FFFFFE0007F800700
310
07F8001FFF80007FF000000000FFFFFF800000000FFFFFF80FFFFFFFFFFFFFC0
310
7FFFFFF0001FFFFFF8000FFFFFFFF8000FF8000FFFFFFFF8000FFF0003FFFFFF
310
FFFC000000007FFFF000F800000007FFFFFFC0007F8003000FF8001FFF80007F
310
F000000007FFFFFF000000007FFFFFF80FFFFFFFFFFFFFC07FFFFFF0001FFFFF
310
F8000FFFFFFFF8000FF8000FFFFFFFF8000FFF0003FFFFFFFFF80000000FFFFF
310
F000F0000000FFFFFFFFC000FF8003000FF8001FFF80007FE0000000FFFFFFFF
310
0000000FFFFFFFF8000001FFFE0000007FFFFFF0001FFFFFF8000FFFFFFFF800
310
0FF8000FFFFFFFF8000FFF0003FFFFFFFFF8000000FFFFFFF000F000000FFFFF
310
FFFFC000FFC002000FF8000FFF80007FE000001FFFFFFFFE000001FFFFFFFFF8
310
000001FFFE0000007FFFFFF0001FFFFFF8000FFFFFFFF8000FF8000FFFFFFFF8
310
000FFF0003FFFFFFFFF000001FFFFFFFF000E00000FFFFFFFFFFC000FFC00200
310
0FFC000FFF80007FE00001FFFFFFFFFE00001FFFFFFFFFF8000001FFFE000000
310
7FFFFFF0001FFFFFFC000FFFFFFFF8001FFC000FFFFFFFF8001FFF0003FFFFFF
310
FFF00001FFFFFFFFF000E00007FFFFFFFFFF8000FFC000001FFC000FFF80007F
310
C0000FFFFFFFFFFE0000FFFFFFFFFFF8000001FFFE0000007FFFFFF0001FFFFF
310
FC0007FFFFFFF0001FFC0007FFFFFFF0001FFF0003FFFFFFFFF00007FFFFFFFF
310
F000E0001FFFFFFFFFFF8000FFC000001FFC000FFF80007FC0003FFFFFFFFFFE
310
0001FFFFFFFFFFF8000001FFFE0000007FFFFFF0001FFFFFFC0007FFFFFFF000
310
1FFC0007FFFFFFF0001FFF0003FFFFFFFFF0001FFFFFFFFFF000E0003FFFFF00
310
03FF8001FFE000001FFC0007FF80007FC0007FFFFF0007FC0003FFFFF0003FF8
310
000001FFFE0000007FFFFFF0001FFFFFFC0003FFFFFFE0001FFC0003FFFFFFE0
310
001FFF0003FFFFFFFFF0003FFFFFFFFFF000E0003FFFFF0001FF8001FFE00000
310
1FFE0007FF80007FC0007FFFFE0003FC0007FFFFE0003FF8000001FFFE000000
310
7FFFFFF0001FFFFFFE0003FFFFFFE0003FFE0003FFFFFFE0003FFF0003FFFFFF
310
FFF0003FFFFF8001F000E0003FFFFF0001FF0001FFE000001FFE0007FF80007F
310
C0007FFFFE0003FC0007FFFFE0003FF8000001FFFE0000007FFFFFF0001FFFFF
310
FE0001FFFFFFC0003FFE0001FFFFFFC0003FFF0003FFFFFFFFF0003FFFFF0001
310
F000E0003FFFFF0003FF0001FFE000003FFE0007FF80007FC0007FFFFE0003FC
310
0007FFFFE0003FF8000001FFFE0000007FFFFFF0001FFFFFFF0001FFFFFFC000
310
7FFF0001FFFFFFC0007FFF0003FFFFFFFFF0003FFFFF0001F000E0003FFFFE00
310
03FF0003FFF000003FFE0003FF80007FC0007FFFFC0003FE0007FFFFE0003FF8
310
000001FFFE0000007FFFFFF0001FFFFFFF0000FFFFFF80007FFF0000FFFFFF80
310
007FFF0003FFFFFFFFF0003FFFFF0001F000E0003FFFFE0003FF0003FFF00000
310
3FFF0003FF80007FC0007FFFFC0007FE0007FFFFC0003FF8000001FFFE000000
310
7FFFFFF0001FFFFFFF80007FFFFF0000FFFF80007FFFFF0000FFFF0003FFFFFF
310
FFF0003FFFFF0003F000E0003FFFFC0003FE0003FFF000003FFF0003FF80007F
310
E0003FFFF80007FE0003FFFFC0007FF8000001FFFE0000007FFFFFF0001FFFFF
310
FF80003FFFFE0000FFFF80003FFFFE0000FFFF0003FFFFFFFFF0001FFFFE0003
310
F000F0001FFFF80003FE0003FFF000007FFF0001FF80007FE0003FFFF00007FE
310
0001FFFF80007FF8000001FFFE0000007FFFFFF0001FFFFFFFC0000FFFF80001
310
FFFFC0000FFFF80001FFFF0003FFFFFFFFF0001FFFFC0003F000F0000FFFF000
310
07FE0007FFF800007FFF0001FF80007FE0001FFFE00007FF0000FFFE00007FF8
310
000001FFFE0000007FFFFFF0001FFFFFFFC00003FFE00001FFFFC00003FFE000
310
01FFFF0003FFFFFFFFF8000FFFF80003F000F00003FFC00007FC0007FFF80000
310
7FFF8001FF80007FF00007FF80000FFF00007FF80000FFF8000001FFFE000000
310
7F80000000000001FFE000003E000003FFFFE000003E000003FFFF0003FFFFFF
310
FFF80003FFE00007F000F800000000000FFC0007FFF800007FFF8001FF80007F
310
F000000000000FFF000000000000FFF8000001FFFE0000007F80000000000001
310
FFF0000000000007FFFFF0000000000007FFFF0003FFFFFFFFFC00007E000007
310
F000F800000000000FFC0007FFF80000FFFF8000FF80007FF800000000001FFF
310
800000000001FFF8000001FFFE0000007F80000000000001FFF800000000000F
310
FFFFF800000000000FFFFF0003FFFFFFFFFC00000000000FF000FC0000000000
310
1FFC0007FFFC0000FFFF8000FF80007FF800000000003FFFC00000000001FFF8
310
000001FFFE0000007F80000000000001FFF800000000000FFFFFF80000000000
310
0FFFFF0003FFFFFFFFFE00000000001FF000FE00000000003FF8000FFFFC0000
310
FFFF8000FF80007FFC00000000003FFFC00000000003FFF8000001FFFE000000
310
7F80000000000001FFFC00000000001FFFFFFC00000000001FFFFF0003FFFFFF
310
FFFF00000000001FF000FF00000000003FF8000FFFFC0000FFFFC000FF80007F
310
FE00000000007FFFE00000000007FFF8000001FFFE0000007F80000000000001
310
FFFE00000000003FFFFFFE00000000003FFFFF0003FFFFFFFFFF80000000003F
310
F000FF80000000007FF8000FFFFC0001FFFFC0007F80007FFF0000000000FFFF
310
F0000000000FFFF800000000000000007F80000000000001FFFF8000000000FF
310
FFFFFF8000000000FFFFFF0003FFFFFFFFFFC0000000007FF000FFC000000000
310
FFF8000FFFFE0001FFFFC0007F80007FFF8000000001FFFFF8000000001FFFF8
310
00000000000000007F80000000000001FFFFC000000001FFFFFFFFC000000001
310
FFFFFF0003FFFFFFFFFFE000000000FFF000FFE000000003FFF0001FFFFE0001
310
FFFFC0007F80007FFFC000000007FFFFFE000000003FFFF80000000000000000
310
7F80000000000001FFFFE000000003FFFFFFFFE000000003FFFFFF0003FFFFFF
310
FFFFF000000003FFF000FFF80000000FFFF0001FFFFE0001FFFFE0007F80007F
310
FFF00000000FFFFFFF00000000FFFFF800000000000000007F80000000000001
310
FFFFF80000000FFFFFFFFFF80000000FFFFFFF0003FFFFFFFFFFFC0000000FFF
310
F000FFFE0000003FFFF0001FFFFE0003FFFFE0003F80007FFFFC0000003FFFFF
310
FFC0000003FFFFF800000000000000007F80000000000001FFFFFE0000003FFF
310
FFFFFFFE0000003FFFFFFF0003FFFFFFFFFFFF0000003FFFF000FFFF800000FF
310
FFF0001FFFFF0003FFFFE0003F80007FFFFF000001FFFFFFFFF800001FFFFFF8
310
00000000000000007F80000000000001FFFFFFC00001FFFFFFFFFFFFC00001FF
310
FFFFFF0003FFFFFFFFFFFFC00000FFFFF000FFFFF8000FFFFFFFFFFFFFFFFFFF
310
FFFFFFFFFFFFFFFFFFFFF0001FFFFFFFFFFF0000FFFFFFF80000000000000000
310
7FFFFFFFFFFFFFFFFFFFFFFC001FFFFFFFFFFFFFFC001FFFFFFFFFFFFFFFFFFF
310
FFFFFFFC001FFFFFF000FFFFFFFFFFFFFFFFFFFFFFFFFFFFFFFFFFFFFFFFFFFF
310
FFFFFFFFFFFFFFFFFFFFFFFFFFFFFFFFFFFFFFFFFFFFFFFFFFFFFFFFFFFFFFFF
310
FFFFFFFFFFFFFFFFFFFFFFFFFFFFFFFFFFFFFFFFFFFFFFFFFFFFFFFFFFFFFFFF
310
F000FFFFFFFFFFFFFFFFFFFFFFFFFFFFFFFFFFFFFFFFFFFFFFFFFFFFFFFFFFFF
310
FFFFFFFFFFFFFFFFFFFFFFFFFFFFFFFFFFFFFFFFFFFFFFFFFFFFFFFFFFFFFFFF
310
FFFFFFFFFFFFFFFFFFFFFFFFFFFFFFFFFFFFFFFFFFFFFFFFF000FFFFFFFFFFFF
310
FFFFFFFFFFFFFFFFFFFFFFFFFFFFFFFFFFFFFFFFFFFFFFFFFFFFFFFFFFFFFFFF
310
FFFFFFFFFFFFFFFFFFFFFFFFFFFFFFFFFFFFFFFFFFFFFFFFFFFFFFFFFFFFFFFF
310
FFFFFFFFFFFFFFFFFFFFFFFFFFFFFFFFF000FFFFFFFFFFFFFFFFFFFFFFFFFFFF
310
FFFFFFFFFFFFFFFFFFFFFFFFFFFFFFFFFFFFFFFFFFFFFFFFFFFFFFFFFFFFFFFF
310
FFFFFFFFFFFFFFFFFFFFFFFFFFFFFFFFFFFFFFFFFFFFFFFFFFFFFFFFFFFFFFFF
310
FFFFFFFFFFFFFFFFF000FFFFFFFFFFFFFFFFFFFFFFFFFFFFFFFFFFFFFFFFFFFF
310
FFFFFFFFFFFFFFFFFFFFFFFFFFFFFFFFFFFFFFFFFFFFFFFFFFFFFFFFFFFFFFFF
310
FFFFFFFFFFFFFFFFFFFFFFFFFFFFFFFFFFFFFFFFFFFFFFFFFFFFFFFFFFFFFFFF
310
F000FFFFFFFFFFFFFFFFFFFFFFFFFFFFFFFFFFFFFFFFFFFFFFFFFFFFFFFFFFFF
310
FFFFFFFFFFFFFFFFFFFFFFFFFFFFFFFFFFFFFFFFFFFFFFFFFFFFFFFFFFFFFFFF
310
FFFFFFFFFFFFFFFFFFFFFFFFFFFFFFFFFFFFFFFFFFFFFFFFF000FFFFFFFFFFFF
310
FFFFFFFFFFFFFFFFFFFFFFFFFFFFFFFFFFFFFFFFFFFFFFFFFFFFFFFFFFFFFFFF
310
FFFFFFFFFFFFFFFFFFFFFFFFFFFFFFFFFFFFFFFFFFFFFFFFFFFFFFFFFFFFFFFF
310
FFFFFFFFFFFFFFFFFFFFFFFFFFFFFFFFF000FFFFFFFFFFFFFFFFFFFFFFFFFFFF
310
FFFFFFFFFFFFFFFFFFFFFFFFFFFFFFFFFFFFFFFFFFFFFFFFFFFFFFFFFFFFFFFF
310
FFFFFFFFFFFFFFFFFFFFFFFFFFFFFFFFFFFFFFFFFFFFFFFFFFFFFFFFFFFFFFFF
310
FFFFFFFFFFFFFFFFF000FFFFFFFFFFFFFFFFFFFFFFFFFFFFFFFFFFFFFFFFFFFF
310
FFFFFFFFFFFFFFFFFFFFFFFFFFFFFFFFFFFFFFFFFFFFFFFFFFFFFFFFFFFFFFFF
310
FFFFFFFFFFFFFFFFFFFFFFFFFFFFFFFFFFFFFFFFFFFFFFFFFFFFFFFFFFFFFFFF
310
F000FFFFFFFFFFFFFFFFFFFFFFFFFFFFFFFFFFFFFFFFFFFFFFFFFFFFFFFFFFFF
310
FFFFFFFFFFFFFFFFFFFFFFFFFFFFFFFFFFFFFFFFFFFFFFFFFFFFFFFFFFFFFFFF
310
FFFFFFFFFFFFFFFFFFFFFFFFFFFFFFFFFFFFFFFFFFFFFFFFF000FFFFFFFFFFFF
310
FFFFFFFFFFFFFFFFFFFFFFFFFFFFFFFFFFFFFFFFFFFFFFFFFFFFFFFFFFFFFFFF
310
FFFFFFFFFFFFFFFFFFFFFFFFFFFFFFFFFFFFFFFFFFFFFFFFFFFFFFFFFFFFFFFF
310
FFFFFFFFFFFFFFFFFFFFFFFFFFFFFFFFF000FFFFFFFFFFFFFFFFFFFFFFFFFFFF
310
FFFFFFFFFFFFFFFFFFFFFFFFFFFFFFFFFFFFFFFFFFFFFFFFFFFFFFFFFFFFFFFF
310
FFFFFFFFFFFFFFFFFFFFFFFFFFFFFFFFFFFFFFFFFFFFFFFFFFFFFFFFFFFFFFFF
310
FFFFFFFFFFFFFFFFF000FFFFFFFFFFFFFFFFFFFFFFFFFFFFFFFFFFFFFFFFFFFF
310
FFFFFFFFFFFFFFFFFFFFFFFFFFFFFFFFFFFFFFFFFFFFFFFFFFFFFFFFFFFFFFFF
310
FFFFFFFFFFFFFFFFFFFFFFFFFFFFFFFFFFFFFFFFFFFFFFFFFFFFFFFFFFFFFFFF
310
F000FFFFFFFFFFFFFFFFFFFFFFFFFFFFFFFFFFFFFFFFFFFFFFFFFFFFFFFFFFFF
310
FFFFFFFFFFFFFFFFFFFFFFFFFFFFFFFFFFFFFFFFFFFFFFFFFFFFFFFFFFFFFFFF
310
FFFFFFFFFFFFFFFFFFFFFFFFFFFFFFFFFFFFFFFFFFFFFFFFF000FFFFFFFFFFFF
310
FFFFFFFFFFFFFFFFFFFFFFFFFFFFFFFFFFFFFFFFFFFFFFFFFFFFFFFFFFFFFFFF
310
FFFFFFFFFFFFFFFFFFFFFFFFFFFFFFFFFFFFFFFFFFFFFFFFFFFFFFFFFFFFFFFF
310
FFFFFFFFFFFFFFFFFFFFFFFFFFFFFFFFF000FFFFFFFFFFFFFFFFFFFFFFFFFFFF
310
FFFFFFFFFFFFFFFFFFFFFFFFFFFFFFFFFFFFFFFFFFFFFFFFFFFFFFFFFFFFFFFF
310
FFFFFFFFFFFFFFFFFFFFFFFFFFFFFFFFFFFFFFFFFFFFFFFFFFFFFFFFFFFFFFFF
310
FFFFFFFFFFFFFFFFF000FFFFFFFFFFFFFFFFFFFFFFFFFFFFFFFFFFFFFFFFFFFF
310
FFFFFFFFFFFFFFFFFFFFFFFFFFFFFFFFFFFFFFFFFFFFFFFFFFFFFFFFFFFFFFFF
310
FFFFFFFFFFFFFFFFFFFFFFFFFFFFFFFFFFFFFFFFFFFFFFFFFFFFFFFFFFFFFFFF
310
F000FFFFFFFFFFFFFFFFFFFFFFFFFFFFFFFFFFFFFFFFFFFFFFFFFFFFFFFFFFFF
310
FFFFFFFFFFFFFFFFFFFFFFFFFFFFFFFFFFFFFFFFFFFFFFFFFFFFFFFFFFFFFFFF
310
FFFFFFFFFFFFFFFFFFFFFFFFFFFFFFFFFFFFFFFFFFFFFFFFF000FFFFFFFFFFFF
310
FFFFFFFFFFFFFFFFFFFFFFFFFFFFFFFFFFFFFFFFFFFFFFFFFFFFFFFFFFFFFFFF
310
FFFFFFFFFFFFFFFFFFFFFFFFFFFFFFFFFFFFFFFFFFFFFFFFFFFFFFFFFFFFFFFF
310
FFFFFFFFFFFFFFFFFFFFFFFFFFFFFFFFF000FFFFFFFFFFFFFFFFFFFFFFFFFFFF
310
FFFFFFFFFFFFFFFFFFFFFFFFFFFFFFFFFFFFFFFFFFFFFFFFFFFFFFFFFFFFFFFF
310
FFFFFFFFFFFFFFFFFFFFFFFFFFFFFFFFFFFFFFFFFFFFFFFFFFFFFFFFFFFFFFFF
310
FFFFFFFFFFFFFFFFF000FFFFFFFFFFFFFFFFFFFFFFFFFFFFFFFFFFFFFFFFFFFF
310
FFFFFFFFFFFFFFFFFFFFFFFFFFFFFFFFFFFFFFFFFFFFFFFFFFFFFFFFFFFFFFFF
310
FFFFFFFFFFFFFFFFFFFFFFFFFFFFFFFFFFFFFFFFFFFFFFFFFFFFFFFFFFFFFFFF
310
F000FFFFFFFFFFFFFFFFFFFFFFFFFFFFFFFFFFFFFFFFFFFFFFFFFFFFFFFFFFFF
310
FFFFFFFFFFFFFFFFFFFFFFFFFFFFFFFFFFFFFFFFFFFFFFFFFFFFFFFFFFFFFFFF
310
FFFFFFFFFFFFFFFFFFFFFFFFFFFFFFFFFFFFFFFFFFFFFFFFF000FFFFFFFFFFFF
310
FFFFFFFFFFFFFFFFFFFFFFFFFFFFFFFFFFFFFFFFFFFFFFFFFFFFFFFFFFFFFFFF
310
FFFFFFFFFFFFFFFFFFFFFFFFFFFFFFFFFFFFFFFFFFFFFFFFFFFFFFFFFFFFFFFF
310
FFFFFFFFFFFFFFFFFFFFFFFFFFFFFFFFF0000000000000000000000000000000
310
0000000000000000000000000000000000000000000000000000000000000000
310
0000000000000000000000000000000000000000000000000000000000000000
310
0000000000000000000000000000000000000000000000000000000000000000
310
0000000000000000000000000000000000000000000000000000000000000000
310
0000000000000000000000000000000000000000000000000000000000000000
310
0000000000000000000000000000000000000000000000000000000000000000
310
0000000000000000000000000000000000000000000000000000000000000000
310
0000000000000000000000000000000000000000000000000000000000000000
310
0000000000000000000000000000000000000000000000000000000000000000
310
0000000000000000000000000000000000000000000000000000000000000000
310
0000000000000000000000000000000000000000000000000000000000000000
310
0000000000000000000000000000000000000000000000000000000000000000
310
0000000000000000000000000000000000000000000000000000000000000000
310
0000000000000000000000000000000000000000000000000000000000000000
310
0000000000000000000000000000000000000000000000000000000000000000
  1
OLE
  0
ENDSEC
  0
SECTION
  2
OBJECTS
  0
DICTIONARY
  5
C
330
0
100
AcDbDictionary
281
     1
  3
ACAD_GROUP
350
D
  3
ACAD_LAYOUT
350
1A
  3
ACAD_MLINESTYLE
350
17
  3
ACAD_PLOTSETTINGS
350
19
  3
ACAD_PLOTSTYLENAME
350
E
  0
DICTIONARY
  5
D
102
{ACAD_REACTORS
330
C
102
}
330
C
100
AcDbDictionary
281
     1
  0
DICTIONARY
  5
1A
102
{ACAD_REACTORS
330
C
102
}
330
C
100
AcDbDictionary
281
     1
  3
Layout1
350
1E
  3
Layout2
350
26
  3
Model
350
22
  0
DICTIONARY
  5
17
102
{ACAD_REACTORS
330
C
102
}
330
C
100
AcDbDictionary
281
     1
  3
Standard
350
18
  0
DICTIONARY
  5
19
102
{ACAD_REACTORS
330
C
102
}
330
C
100
AcDbDictionary
281
     1
  0
ACDBDICTIONARYWDFLT
  5
E
102
{ACAD_REACTORS
330
C
102
}
330
C
100
AcDbDictionary
281
     1
  3
Normal
350
F
100
AcDbDictionaryWithDefault
340
F
  0
LAYOUT
  5
1E
102
{ACAD_REACTORS
330
1A
102
}
330
1A
100
AcDbPlotSettings
  1

  2
none_device
  4

  6

 40
0.0
 41
0.0
 42
0.0
 43
0.0
 44
0.0
 45
0.0
 46
0.0
 47
0.0
 48
0.0
 49
0.0
140
0.0
141
0.0
142
1.0
143
1.0
 70
   688
 72
     0
 73
     0
 74
     5
  7

 75
    16
147
1.0
148
0.0
149
0.0
100
AcDbLayout
  1
Layout1
 70
     1
 71
     1
 10
0.0
 20
0.0
 11
420.0
 21
297.0
 12
0.0
 22
0.0
 32
0.0
 14
1.0000000000E+20
 24
1.0000000000E+20
 34
1.0000000000E+20
 15
-1.0000000000E+20
 25
-1.0000000000E+20
 35
-1.0000000000E+20
146
0.0
 13
0.0
 23
0.0
 33
0.0
 16
1.0
 26
0.0
 36
0.0
 17
0.0
 27
1.0
 37
0.0
 76
     0
330
1B
  0
LAYOUT
  5
26
102
{ACAD_REACTORS
330
1A
102
}
330
1A
100
AcDbPlotSettings
  1

  2
none_device
  4

  6

 40
0.0
 41
0.0
 42
0.0
 43
0.0
 44
0.0
 45
0.0
 46
0.0
 47
0.0
 48
0.0
 49
0.0
140
0.0
141
0.0
142
1.0
143
1.0
 70
   688
 72
     0
 73
     0
 74
     5
  7

 75
    16
147
1.0
148
0.0
149
0.0
100
AcDbLayout
  1
Layout2
 70
     1
 71
     2
 10
0.0
 20
0.0
 11
0.0
 21
0.0
 12
0.0
 22
0.0
 32
0.0
 14
0.0
 24
0.0
 34
0.0
 15
0.0
 25
0.0
 35
0.0
146
0.0
 13
0.0
 23
0.0
 33
0.0
 16
1.0
 26
0.0
 36
0.0
 17
0.0
 27
1.0
 37
0.0
 76
     0
330
23
  0
LAYOUT
  5
22
102
{ACAD_REACTORS
330
1A
102
}
330
1A
100
AcDbPlotSettings
  1

  2
none_device
  4

  6

 40
0.0
 41
0.0
 42
0.0
 43
0.0
 44
0.0
 45
0.0
 46
0.0
 47
0.0
 48
0.0
 49
0.0
140
0.0
141
0.0
142
1.0
143
1.0
 70
  1712
 72
     0
 73
     0
 74
     0
  7

 75
     0
147
1.0
148
0.0
149
0.0
100
AcDbLayout
  1
Model
 70
     1
 71
     0
 10
0.0
 20
0.0
 11
297.0
 21
210.0
 12
0.0
 22
0.0
 32
0.0
 14
0.0
 24
0.0
 34
0.0
 15
297.0
 25
210.0
 35
0.0
146
0.0
 13
0.0
 23
0.0
 33
0.0
 16
1.0
 26
0.0
 36
0.0
 17
0.0
 27
1.0
 37
0.0
 76
     0
330
1F
331
29
  0
MLINESTYLE
  5
18
102
{ACAD_REACTORS
330
17
102
}
330
17
100
AcDbMlineStyle
  2
Standard
 70
     0
  3

 62
   256
 51
90.0
 52
90.0
 71
     2
 49
0.5
 62
   256
  6
BYLAYER
 49
-0.5
 62
   256
  6
BYLAYER
  0
ACDBPLACEHOLDER
  5
F
102
{ACAD_REACTORS
330
E
102
}
330
E
  0
ENDSEC
  0
EOF
