  0
SECTION
  2
HEADER
  9
$ACADVER
  1
AC1015
  9
$ACADMAINTVER
 70
     6
  9
$DWGCODEPAGE
  3
ANSI_1252
  9
$INSBASE
 10
0.0
 20
0.0
 30
0.0
  9
$EXTMIN
 10
0.0
 20
0.0
 30
0.0
  9
$EXTMAX
 10
297.0
 20
210.0
 30
0.0
  9
$LIMMIN
 10
0.0
 20
0.0
  9
$LIMMAX
 10
297.0
 20
210.0
  9
$ORTHOMODE
 70
     0
  9
$REGENMODE
 70
     1
  9
$FILLMODE
 70
     1
  9
$QTEXTMODE
 70
     0
  9
$MIRRTEXT
 70
     1
  9
$LTSCALE
 40
1.0
  9
$ATTMODE
 70
     1
  9
$TEXTSIZE
 40
2.0
  9
$TRACEWID
 40
1.0
  9
$TEXTSTYLE
  7
Standard
  9
$CLAYER
  8
0
  9
$CELTYPE
  6
ByLayer
  9
$CECOLOR
 62
   256
  9
$CELTSCALE
 40
1.0
  9
$DISPSILH
 70
     0
  9
$DIMSCALE
 40
1.0
  9
$DIMASZ
 40
3.0
  9
$DIMEXO
 40
0.0
  9
$DIMDLI
 40
3.75
  9
$DIMRND
 40
0.0
  9
$DIMDLE
 40
0.0
  9
$DIMEXE
 40
1.0
  9
$DIMTP
 40
0.0
  9
$DIMTM
 40
0.0
  9
$DIMTXT
 40
2.0
  9
$DIMCEN
 40
2.5
  9
$DIMTSZ
 40
0.0
  9
$DIMTOL
 70
     0
  9
$DIMLIM
 70
     0
  9
$DIMTIH
 70
     1
  9
$DIMTOH
 70
     1
  9
$DIMSE1
 70
     0
  9
$DIMSE2
 70
     0
  9
$DIMTAD
 70
     1
  9
$DIMZIN
 70
     0
  9
$DIMBLK
  1

  9
$DIMASO
 70
     1
  9
$DIMSHO
 70
     1
  9
$DIMPOST
  1

  9
$DIMAPOST
  1

  9
$DIMALT
 70
     0
  9
$DIMALTD
 70
     3
  9
$DIMALTF
 40
0.0393700787
  9
$DIMLFAC
 40
1.0
  9
$DIMTOFL
 70
     1
  9
$DIMTVP
 40
0.0
  9
$DIMTIX
 70
     0
  9
$DIMSOXD
 70
     0
  9
$DIMSAH
 70
     0
  9
$DIMBLK1
  1

  9
$DIMBLK2
  1

  9
$DIMSTYLE
  2
ISO-25
  9
$DIMCLRD
 70
     0
  9
$DIMCLRE
 70
     0
  9
$DIMCLRT
 70
     0
  9
$DIMTFAC
 40
1.0
  9
$DIMGAP
 40
1.524
  9
$DIMJUST
 70
     0
  9
$DIMSD1
 70
     0
  9
$DIMSD2
 70
     0
  9
$DIMTOLJ
 70
     0
  9
$DIMTZIN
 70
     0
  9
$DIMALTZ
 70
     0
  9
$DIMALTTZ
 70
     0
  9
$DIMUPT
 70
     0
  9
$DIMDEC
 70
     2
  9
$DIMTDEC
 70
     3
  9
$DIMALTU
 70
     2
  9
$DIMALTTD
 70
     3
  9
$DIMTXSTY
  7
Standard
  9
$DIMAUNIT
 70
     0
  9
$DIMADEC
 70
     2
  9
$DIMALTRND
 40
0.0
  9
$DIMAZIN
 70
     0
  9
$DIMDSEP
 70
    44
  9
$DIMATFIT
 70
     3
  9
$DIMFRAC
 70
     0
  9
$DIMLDRBLK
  1

  9
$DIMLUNIT
 70
     2
  9
$DIMLWD
 70
    -2
  9
$DIMLWE
 70
    -2
  9
$DIMTMOVE
 70
     0
  9
$LUNITS
 70
     2
  9
$LUPREC
 70
     2
  9
$SKETCHINC
 40
1.0
  9
$FILLETRAD
 40
10.0
  9
$AUNITS
 70
     0
  9
$AUPREC
 70
     2
  9
$MENU
  1
.
  9
$ELEVATION
 40
0.0
  9
$PELEVATION
 40
0.0
  9
$THICKNESS
 40
0.0
  9
$LIMCHECK
 70
     0
  9
$CHAMFERA
 40
10.0
  9
$CHAMFERB
 40
10.0
  9
$CHAMFERC
 40
20.0
  9
$CHAMFERD
 40
0.0
  9
$SKPOLY
 70
     0
  9
$TDCREATE
 40
2455988.722516678
  9
$TDUCREATE
 40
2455988.680850012
  9
$TDUPDATE
 40
2455988.72251669
  9
$TDUUPDATE
 40
2455988.680850023
  9
$TDINDWG
 40
0.0000000116
  9
$TDUSRTIMER
 40
0.0000000116
  9
$USRTIMER
 70
     1
  9
$ANGBASE
 50
0.0
  9
$ANGDIR
 70
     0
  9
$PDMODE
 70
     0
  9
$PDSIZE
 40
-1.0
  9
$PLINEWID
 40
0.0
  9
$SPLFRAME
 70
     0
  9
$SPLINETYPE
 70
     6
  9
$SPLINESEGS
 70
     8
  9
$HANDSEED
  5
174
  9
$SURFTAB1
 70
     6
  9
$SURFTAB2
 70
     6
  9
$SURFTYPE
 70
     6
  9
$SURFU
 70
     6
  9
$SURFV
 70
     6
  9
$UCSBASE
  2

  9
$UCSNAME
  2

  9
$UCSORG
 10
0.0
 20
0.0
 30
0.0
  9
$UCSXDIR
 10
1.0
 20
0.0
 30
0.0
  9
$UCSYDIR
 10
0.0
 20
1.0
 30
0.0
  9
$UCSORTHOREF
  2

  9
$UCSORTHOVIEW
 70
     0
  9
$UCSORGTOP
 10
0.0
 20
0.0
 30
0.0
  9
$UCSORGBOTTOM
 10
0.0
 20
0.0
 30
0.0
  9
$UCSORGLEFT
 10
0.0
 20
0.0
 30
0.0
  9
$UCSORGRIGHT
 10
0.0
 20
0.0
 30
0.0
  9
$UCSORGFRONT
 10
0.0
 20
0.0
 30
0.0
  9
$UCSORGBACK
 10
0.0
 20
0.0
 30
0.0
  9
$PUCSBASE
  2

  9
$PUCSNAME
  2

  9
$PUCSORG
 10
0.0
 20
0.0
 30
0.0
  9
$PUCSXDIR
 10
1.0
 20
0.0
 30
0.0
  9
$PUCSYDIR
 10
0.0
 20
1.0
 30
0.0
  9
$PUCSORTHOREF
  2

  9
$PUCSORTHOVIEW
 70
     0
  9
$PUCSORGTOP
 10
0.0
 20
0.0
 30
0.0
  9
$PUCSORGBOTTOM
 10
0.0
 20
0.0
 30
0.0
  9
$PUCSORGLEFT
 10
0.0
 20
0.0
 30
0.0
  9
$PUCSORGRIGHT
 10
0.0
 20
0.0
 30
0.0
  9
$PUCSORGFRONT
 10
0.0
 20
0.0
 30
0.0
  9
$PUCSORGBACK
 10
0.0
 20
0.0
 30
0.0
  9
$USERI1
 70
     0
  9
$USERI2
 70
     0
  9
$USERI3
 70
     0
  9
$USERI4
 70
     0
  9
$USERI5
 70
     0
  9
$USERR1
 40
0.0
  9
$USERR2
 40
0.0
  9
$USERR3
 40
0.0
  9
$USERR4
 40
0.0
  9
$USERR5
 40
0.0
  9
$WORLDVIEW
 70
     1
  9
$SHADEDGE
 70
     3
  9
$SHADEDIF
 70
    70
  9
$TILEMODE
 70
     1
  9
$MAXACTVP
 70
    64
  9
$PINSBASE
 10
0.0
 20
0.0
 30
0.0
  9
$PLIMCHECK
 70
     0
  9
$PEXTMIN
 10
1.0000000000E+20
 20
1.0000000000E+20
 30
1.0000000000E+20
  9
$PEXTMAX
 10
-1.0000000000E+20
 20
-1.0000000000E+20
 30
-1.0000000000E+20
  9
$PLIMMIN
 10
0.0
 20
0.0
  9
$PLIMMAX
 10
420.0
 20
297.0
  9
$UNITMODE
 70
     0
  9
$VISRETAIN
 70
     1
  9
$PLINEGEN
 70
     0
  9
$PSLTSCALE
 70
     1
  9
$TREEDEPTH
 70
  3020
  9
$CMLSTYLE
  2
Standard
  9
$CMLJUST
 70
     0
  9
$CMLSCALE
 40
20.0
  9
$PROXYGRAPHICS
 70
     1
  9
$MEASUREMENT
 70
     1
  9
$CELWEIGHT
370
    -1
  9
$ENDCAPS
280
     0
  9
$JOINSTYLE
280
     0
  9
$LWDISPLAY
290
     1
  9
$INSUNITS
 70
     4
  9
$HYPERLINKBASE
  1

  9
$STYLESHEET
  1

  9
$XEDIT
290
     1
  9
$CEPSNTYPE
380
     0
  9
$PSTYLEMODE
290
     1
  9
$FINGERPRINTGUID
  2
{49474431-F0FD-404C-A40E-03FE084DD0C6}
  9
$VERSIONGUID
  2
{FAEB1C32-E019-11D5-929B-00C0DF256EC4}
  9
$EXTNAMES
290
     1
  9
$PSVPSCALE
 40
0.0
  9
$OLESTARTUP
290
     0
  0
ENDSEC
  0
SECTION
  2
CLASSES
  0
CLASS
  1
ACDBDICTIONARYWDFLT
  2
AcDbDictionaryWithDefault
  3
ObjectDBX Classes
 90
        0
280
     0
281
     0
  0
CLASS
  1
VISUALSTYLE
  2
AcDbVisualStyle
  3
ObjectDBX Classes
 90
     4095
280
     0
281
     0
  0
CLASS
  1
MATERIAL
  2
AcDbMaterial
  3
ObjectDBX Classes
 90
     1153
280
     0
281
     0
  0
CLASS
  1
ACDBPLACEHOLDER
  2
AcDbPlaceHolder
  3
ObjectDBX Classes
 90
        0
280
     0
281
     0
  0
CLASS
  1
LAYOUT
  2
AcDbLayout
  3
ObjectDBX Classes
 90
        0
280
     0
281
     0
  0
ENDSEC
  0
SECTION
  2
TABLES
  0
TABLE
  2
VPORT
  5
8
330
0
100
AcDbSymbolTable
 70
     1
  0
VPORT
  5
29
330
8
100
AcDbSymbolTableRecord
100
AcDbViewportTableRecord
  2
*Active
 70
     0
 10
0.0
 20
0.0
 11
1.0
 21
1.0
 12
148.5
 22
105.0
 13
0.0
 23
0.0
 14
10.0
 24
10.0
 15
10.0
 25
10.0
 16
0.0
 26
0.0
 36
1.0
 17
0.0
 27
0.0
 37
0.0
 40
210.0
 41
1.4142857143
 42
50.0
 43
0.0
 44
0.0
 50
0.0
 51
0.0
 71
     0
 72
  2000
 73
     1
 74
     3
 75
     0
 76
     0
 77
     0
 78
     0
281
     0
 65
     1
110
0.0
120
0.0
130
0.0
111
1.0
121
0.0
131
0.0
112
0.0
122
1.0
132
0.0
 79
     0
146
0.0
  0
ENDTAB
  0
TABLE
  2
LTYPE
  5
5
330
0
100
AcDbSymbolTable
 70
     6
  0
LTYPE
  5
14
330
5
100
AcDbSymbolTableRecord
100
AcDbLinetypeTableRecord
  2
ByBlock
 70
     0
  3

 72
    65
 73
     0
 40
0.0
  0
LTYPE
  5
15
330
5
100
AcDbSymbolTableRecord
100
AcDbLinetypeTableRecord
  2
ByLayer
 70
     0
  3

 72
    65
 73
     0
 40
0.0
  0
LTYPE
  5
16
330
5
100
AcDbSymbolTableRecord
100
AcDbLinetypeTableRecord
  2
Continuous
 70
     0
  3
Solid line
 72
    65
 73
     0
 40
0.0
  0
LTYPE
  5
3F
330
5
100
AcDbSymbolTableRecord
100
AcDbLinetypeTableRecord
  2
HIDDEN
 70
     0
  3
Hidden __ __ __ __ __ __ __ __ __ __ __ __ __ __
 72
    65
 73
     2
 40
1.905
 49
1.27
 74
     0
 49
-0.635
 74
     0
  0
LTYPE
  5
40
330
5
100
AcDbSymbolTableRecord
100
AcDbLinetypeTableRecord
  2
PHANTOM
 70
     0
  3
Phantom ______  __  __  ______  __  __  ______
 72
    65
 73
     6
 40
12.7
 49
6.35
 74
     0
 49
-1.27
 74
     0
 49
1.27
 74
     0
 49
-1.27
 74
     0
 49
1.27
 74
     0
 49
-1.27
 74
     0
  0
LTYPE
  5
41
330
5
100
AcDbSymbolTableRecord
100
AcDbLinetypeTableRecord
  2
CENTER
 70
     0
  3
Center ____ _ ____ _ ____ _ ____ _ ____ _ ____
 72
    65
 73
     4
 40
10.16
 49
6.35
 74
     0
 49
-1.27
 74
     0
 49
1.27
 74
     0
 49
-1.27
 74
     0
  0
LTYPE
  5
42
330
5
100
AcDbSymbolTableRecord
100
AcDbLinetypeTableRecord
  2
CENTERX2
 70
     0
  3
Center (2x) ________  __  ________  __  _____
 72
    65
 73
     4
 40
20.32
 49
12.7
 74
     0
 49
-2.54
 74
     0
 49
2.54
 74
     0
 49
-2.54
 74
     0
  0
LTYPE
  5
43
330
5
100
AcDbSymbolTableRecord
100
AcDbLinetypeTableRecord
  2
DOT2
 70
     0
  3
Dot (.5x) ........................................
 72
    65
 73
     2
 40
0.635
 49
0.0
 74
     0
 49
-0.635
 74
     0
  0
ENDTAB
  0
TABLE
  2
LAYER
  5
2
330
0
100
AcDbSymbolTable
 70
     5
  0
LAYER
  5
10
330
2
100
AcDbSymbolTableRecord
100
AcDbLayerTableRecord
  2
0
 70
     0
 62
     7
  6
Continuous
370
    -3
390
F
  0
LAYER
  5
44
330
2
100
AcDbSymbolTableRecord
100
AcDbLayerTableRecord
  2
FORMAT
 70
     0
 62
     7
  6
Continuous
370
    -3
390
F
  0
LAYER
  5
45
330
2
100
AcDbSymbolTableRecord
100
AcDbLayerTableRecord
  2
VERMASSUNG
 70
     0
 62
     7
  6
Continuous
370
    -3
390
F
  0
LAYER
  5
46
330
2
100
AcDbSymbolTableRecord
100
AcDbLayerTableRecord
  2
KOPF_DÜNN
 70
     0
 62
     7
  6
Continuous
370
    -3
390
F
  0
LAYER
  5
47
330
2
100
AcDbSymbolTableRecord
100
AcDbLayerTableRecord
  2
KOPF_DICK
 70
     0
 62
     7
  6
Continuous
370
    15
390
F
  0
ENDTAB
  0
TABLE
  2
STYLE
  5
3
330
0
100
AcDbSymbolTable
 70
     2
  0
STYLE
  5
11
330
3
100
AcDbSymbolTableRecord
100
AcDbTextStyleTableRecord
  2
Standard
 70
     0
 40
0.0
 41
1.0
 50
0.0
 71
     0
 42
2.5
  3
txt
  4

  0
STYLE
  5
48
330
3
100
AcDbSymbolTableRecord
100
AcDbTextStyleTableRecord
  2
SLDTEXTSTYLE0
 70
     0
 40
0.0
 41
0.7
 50
0.0
 71
     0
 42
0.2
  3
TXT
  4

  0
ENDTAB
  0
TABLE
  2
VIEW
  5
6
330
0
100
AcDbSymbolTable
 70
     0
  0
ENDTAB
  0
TABLE
  2
UCS
  5
7
330
0
100
AcDbSymbolTable
 70
     0
  0
ENDTAB
  0
TABLE
  2
APPID
  5
9
330
0
100
AcDbSymbolTable
 70
     1
  0
APPID
  5
12
330
9
100
AcDbSymbolTableRecord
100
AcDbRegAppTableRecord
  2
ACAD
 70
     0
  0
ENDTAB
  0
TABLE
  2
DIMSTYLE
  5
A
330
0
100
AcDbSymbolTable
 70
     3
100
AcDbDimStyleTable
  0
DIMSTYLE
105
27
330
A
100
AcDbSymbolTableRecord
100
AcDbDimStyleTableRecord
  2
ISO-25
 70
     0
 41
2.5
 42
0.625
 43
3.75
 44
1.25
 73
     0
 74
     0
 77
     1
 78
     8
140
2.5
141
2.5
143
0.0393700787
147
0.625
171
     3
172
     1
178
     0
271
     2
272
     2
274
     3
278
    44
283
     0
284
     8
340
11
  0
DIMSTYLE
105
151
102
{ACAD_REACTORS
330
150
102
}
330
A
100
AcDbSymbolTableRecord
100
AcDbDimStyleTableRecord
  2
SLDDIMSTYLE0
 70
     0
 41
3.0
 44
0.0
 45
0.000000001
 73
     0
 74
     0
 77
     1
 78
    12
 79
     3
140
2.0
147
0.5
173
     1
178
     0
271
     2
272
     3
276
     2
284
    12
340
48
  0
DIMSTYLE
105
15C
102
{ACAD_REACTORS
330
15B
330
166
102
}
330
A
100
AcDbSymbolTableRecord
100
AcDbDimStyleTableRecord
  2
SLDDIMSTYLE1
 70
     0
 41
3.0
 44
0.0
 45
0.000000001
 73
     0
 74
     0
 77
     1
 78
    12
 79
     3
140
2.0
147
0.5
173
     1
178
     0
271
     2
272
     3
276
     2
284
    12
340
48
  0
ENDTAB
  0
TABLE
  2
BLOCK_RECORD
  5
1
330
0
100
AcDbSymbolTable
 70
     4
  0
BLOCK_RECORD
  5
1F
330
1
100
AcDbSymbolTableRecord
100
AcDbBlockTableRecord
  2
*Model_Space
340
22
  0
BLOCK_RECORD
  5
1B
330
1
100
AcDbSymbolTableRecord
100
AcDbBlockTableRecord
  2
*Paper_Space
340
1E
  0
BLOCK_RECORD
  5
23
330
1
100
AcDbSymbolTableRecord
100
AcDbBlockTableRecord
  2
*Paper_Space0
340
26
  0
BLOCK_RECORD
  5
152
330
1
100
AcDbSymbolTableRecord
100
AcDbBlockTableRecord
  2
*D1
340
0
  0
BLOCK_RECORD
  5
15D
330
1
100
AcDbSymbolTableRecord
100
AcDbBlockTableRecord
  2
*D2
340
0
  0
BLOCK_RECORD
  5
167
330
1
100
AcDbSymbolTableRecord
100
AcDbBlockTableRecord
  2
*D3
340
0
  0
ENDTAB
  0
ENDSEC
  0
SECTION
  2
BLOCKS
  0
BLOCK
  5
20
330
1F
100
AcDbEntity
  8
0
100
AcDbBlockBegin
  2
*Model_Space
 70
     0
 10
0.0
 20
0.0
 30
0.0
  3
*Model_Space
  1

  0
ENDBLK
  5
21
330
1F
100
AcDbEntity
  8
0
100
AcDbBlockEnd
  0
BLOCK
  5
1C
330
1B
100
AcDbEntity
 67
     1
  8
0
100
AcDbBlockBegin
  2
*Paper_Space
 70
     0
 10
0.0
 20
0.0
 30
0.0
  3
*Paper_Space
  1

  0
ENDBLK
  5
1D
330
1B
100
AcDbEntity
 67
     1
  8
0
100
AcDbBlockEnd
  0
BLOCK
  5
24
330
23
100
AcDbEntity
  8
0
100
AcDbBlockBegin
  2
*Paper_Space0
 70
     0
 10
0.0
 20
0.0
 30
0.0
  3
*Paper_Space0
  1

  0
ENDBLK
  5
25
330
23
100
AcDbEntity
  8
0
100
AcDbBlockEnd
  0
BLOCK
  5
153
330
152
100
AcDbEntity
  8
0
100
AcDbBlockBegin
  2
*D1
 70
     1
 10
0.0
 20
0.0
 30
0.0
  3
*D1
  1

  0
SOLID
  5
155
330
152
100
AcDbEntity
  8
VERMASSUNG
100
AcDbTrace
 10
216.2504937784
 20
129.4499075975
 30
0.0
 11
215.8004937784
 21
126.4499075975
 31
0.0
 12
216.7004937784
 22
126.4499075975
 32
0.0
 13
216.7004937784
 23
126.4499075975
 33
0.0
  0
LINE
  5
156
330
152
100
AcDbEntity
  8
VERMASSUNG
100
AcDbLine
 10
208.0717639371
 20
129.4499075975
 30
0.0
 11
217.2504937784
 21
129.4499075975
 31
0.0
  0
LINE
  5
157
330
152
100
AcDbEntity
  8
VERMASSUNG
100
AcDbLine
 10
216.2504937784
 20
129.4499075975
 30
0.0
 11
216.2504937784
 21
105.8560344504
 31
0.0
  0
MTEXT
  5
158
330
152
100
AcDbEntity
  8
VERMASSUNG
100
AcDbMText
 10
213.6723582989
 20
107.4435344504
 30
0.0
 40
2.0
 41
0.0
 71
     1
 72
     1
  1
%%c
  7
SLDTEXTSTYLE0
 11
-7.044195017643634E-15
 21
1.0
 31
0.0
 73
     1
 44
1.0
  0
MTEXT
  5
159
330
152
100
AcDbEntity
  8
VERMASSUNG
100
AcDbMText
 10
213.6723584153
 20
111.0518700209
 30
0.0
 40
2.0
 41
0.0
 71
     1
 72
     1
  1
27.75
  7
SLDTEXTSTYLE0
 11
-7.044195017643634E-15
 21
1.0
 31
0.0
 73
     1
 44
1.0
  0
MTEXT
  5
15A
330
152
100
AcDbEntity
  8
VERMASSUNG
100
AcDbMText
 10
213.6723584153
 20
117.2502525712
 30
0.0
 40
2.0
 41
0.0
 71
     1
 72
     1
  1
-33.1
  7
SLDTEXTSTYLE0
 11
-7.044195017643634E-15
 21
1.0
 31
0.0
 73
     1
 44
1.0
  0
ENDBLK
  5
154
330
152
100
AcDbEntity
  8
0
100
AcDbBlockEnd
  0
BLOCK
  5
15E
330
15D
100
AcDbEntity
  8
0
100
AcDbBlockBegin
  2
*D2
 70
     1
 10
0.0
 20
0.0
 30
0.0
  3
*D2
  1

  0
SOLID
  5
160
330
15D
100
AcDbEntity
  8
VERMASSUNG
100
AcDbTrace
 10
208.0717639371
 20
137.9224361503
 30
0.0
 11
205.0717639371
 21
138.3724361503
 31
0.0
 12
205.0717639371
 22
137.4724361503
 32
0.0
 13
205.0717639371
 23
137.4724361503
 33
0.0
  0
SOLID
  5
161
330
15D
100
AcDbEntity
  8
VERMASSUNG
100
AcDbTrace
 10
93.0717639371
 20
137.9224361503
 30
0.0
 11
96.0717639371
 21
137.4724361503
 31
0.0
 12
96.0717639371
 22
138.3724361503
 32
0.0
 13
96.0717639371
 23
138.3724361503
 33
0.0
  0
LINE
  5
162
330
15D
100
AcDbEntity
  8
VERMASSUNG
100
AcDbLine
 10
208.0717639371
 20
129.4499075975
 30
0.0
 11
208.0717639371
 21
138.9224361503
 31
0.0
  0
LINE
  5
163
330
15D
100
AcDbEntity
  8
VERMASSUNG
100
AcDbLine
 10
93.0717639371
 20
121.7749075975
 30
0.0
 11
93.0717639371
 21
138.9224361503
 31
0.0
  0
LINE
  5
164
330
15D
100
AcDbEntity
  8
VERMASSUNG
100
AcDbLine
 10
208.0717639371
 20
137.9224361503
 30
0.0
 11
93.0717639371
 21
137.9224361503
 31
0.0
  0
MTEXT
  5
165
330
15D
100
AcDbEntity
  8
VERMASSUNG
100
AcDbMText
 10
145.3100528968
 20
140.5005715134
 30
0.0
 40
2.0
 41
0.0
 71
     1
 72
     1
  1
115
  7
SLDTEXTSTYLE0
 73
     1
 44
1.0
  0
ENDBLK
  5
15F
330
15D
100
AcDbEntity
  8
0
100
AcDbBlockEnd
  0
BLOCK
  5
168
330
167
100
AcDbEntity
  8
0
100
AcDbBlockBegin
  2
*D3
 70
     1
 10
0.0
 20
0.0
 30
0.0
  3
*D3
  1

  0
SOLID
  5
16A
330
167
100
AcDbEntity
  8
VERMASSUNG
100
AcDbTrace
 10
86.7637069585
 20
123.5749075975
 30
0.0
 11
86.3137069585
 21
120.5749075975
 31
0.0
 12
87.2137069585
 22
120.5749075975
 32
0.0
 13
87.2137069585
 23
120.5749075975
 33
0.0
  0
SOLID
  5
16B
330
167
100
AcDbEntity
  8
VERMASSUNG
100
AcDbTrace
 10
86.7637069585
 20
107.5749075975
 30
0.0
 11
87.2137069585
 21
110.5749075975
 31
0.0
 12
86.3137069585
 22
110.5749075975
 32
0.0
 13
86.3137069585
 23
110.5749075975
 33
0.0
  0
LINE
  5
16C
330
167
100
AcDbEntity
  8
VERMASSUNG
100
AcDbLine
 10
104.3717639371
 20
123.5749075975
 30
0.0
 11
85.7637069585
 21
123.5749075975
 31
0.0
  0
LINE
  5
16D
330
167
100
AcDbEntity
  8
VERMASSUNG
100
AcDbLine
 10
94.4467639371
 20
107.5749075975
 30
0.0
 11
85.7637069585
 21
107.5749075975
 31
0.0
  0
LINE
  5
16E
330
167
100
AcDbEntity
  8
VERMASSUNG
100
AcDbLine
 10
86.7637069585
 20
123.5749075975
 30
0.0
 11
86.7637069585
 21
107.5749075975
 31
0.0
  0
MTEXT
  5
16F
330
167
100
AcDbEntity
  8
VERMASSUNG
100
AcDbMText
 10
84.1855714789
 20
112.0568386207
 30
0.0
 40
2.0
 41
0.0
 71
     1
 72
     1
  1
%%c
  7
SLDTEXTSTYLE0
 11
-7.044195017643634E-15
 21
1.0
 31
0.0
 73
     1
 44
1.0
  0
MTEXT
  5
170
330
167
100
AcDbEntity
  8
VERMASSUNG
100
AcDbMText
 10
84.1855715953
 20
115.6651741912
 30
0.0
 40
2.0
 41
0.0
 71
     1
 72
     1
  1
16
  7
SLDTEXTSTYLE0
 11
-7.044195017643634E-15
 21
1.0
 31
0.0
 73
     1
 44
1.0
  0
ENDBLK
  5
169
330
167
100
AcDbEntity
  8
0
100
AcDbBlockEnd
  0
ENDSEC
  0
SECTION
  2
ENTITIES
  0
MTEXT
  5
49
330
1F
100
AcDbEntity
  8
KOPF_DÜNN
100
AcDbMText
 10
13.8892156294
 20
23.8442973028
 30
0.0
 40
3.0
 41
0.0
 71
     1
 72
     1
  1
272.028.009
  7
SLDTEXTSTYLE0
 73
     1
 44
1.0
  0
MTEXT
  5
4A
330
1F
100
AcDbEntity
  8
VERMASSUNG
100
AcDbMText
 10
13.9329988022
 20
28.8834360957
 30
0.0
 40
3.0
 41
0.0
 71
     1
 72
     1
  1
Ausdrehstahl_Boring bar ø27.75-33.1
  7
SLDTEXTSTYLE0
 73
     1
 44
1.0
  0
MTEXT
  5
4B
330
1F
100
AcDbEntity
  8
VERMASSUNG
100
AcDbMText
 10
98.8601118557
 20
13.8365368179
 30
0.0
 40
2.0
 41
0.0
 71
     1
 72
     1
  1
Datum: 04.08.2006
  7
SLDTEXTSTYLE0
 73
     1
 44
1.0
  0
MTEXT
  5
4C
330
1F
100
AcDbEntity
  8
VERMASSUNG
100
AcDbMText
 10
13.933048693
 20
18.0482802738
 30
0.0
 40
2.0
 41
0.0
 71
     1
 72
     1
  1
mit Innenkühlung_with spindel coolant feed
  7
SLDTEXTSTYLE0
 73
     1
 44
1.0
  0
MTEXT
  5
4D
330
1F
100
AcDbEntity
  8
VERMASSUNG
100
AcDbMText
 10
13.9808475933
 20
13.9090973692
 30
0.0
 40
2.0
 41
0.0
 71
     1
 72
     1
  1
Gewicht: 174g
  7
SLDTEXTSTYLE0
 73
     1
 44
1.0
  0
LINE
  5
4E
330
1F
100
AcDbEntity
  8
0
  6
Continuous
 62
     7
370
    15
100
AcDbLine
 10
204.0136334856
 20
122.660665628
 30
0.0
 11
204.0136334856
 21
122.5006596536
 31
0.0
  0
LINE
  5
4F
330
1F
100
AcDbEntity
  8
0
  6
Continuous
 62
     7
370
    15
100
AcDbLine
 10
200.6022572417
 20
123.7702573641
 30
0.0
 11
200.6022572417
 21
123.6694181207
 31
0.0
  0
LINE
  5
50
330
1F
100
AcDbEntity
  8
0
  6
Continuous
 62
     7
370
    15
100
AcDbLine
 10
205.8522572417
 20
123.6694181207
 30
0.0
 11
205.8522572417
 21
123.7702573641
 31
0.0
  0
LINE
  5
51
330
1F
100
AcDbEntity
  8
0
  6
Continuous
 62
     7
370
    15
100
AcDbLine
 10
202.1263957401
 20
123.0039018269
 30
0.0
 11
202.1263957401
 21
123.1888274084
 31
0.0
  0
LINE
  5
52
330
1F
100
AcDbEntity
  8
0
  6
Continuous
 62
     7
370
    15
100
AcDbLine
 10
204.3234242226
 20
124.4067036205
 30
0.0
 11
204.3234242226
 21
124.2218989864
 31
0.0
  0
LINE
  5
53
330
1F
100
AcDbEntity
  8
0
  6
Continuous
 62
     7
370
    15
100
AcDbLine
 10
202.4361864771
 20
124.753250388
 30
0.0
 11
202.4361864771
 21
124.9413966963
 31
0.0
  0
LINE
  5
54
330
1F
100
AcDbEntity
  8
0
  6
Continuous
 62
     7
370
    15
100
AcDbLine
 10
198.752147395
 20
118.4108813147
 30
0.0
 11
198.9467639371
 21
118.3035538043
 31
0.0
  0
LINE
  5
55
330
1F
100
AcDbEntity
  8
0
  6
Continuous
 62
     7
370
    15
100
AcDbLine
 10
207.747207025
 20
119.8686400943
 30
0.0
 11
207.8663804793
 21
119.9343621034
 31
0.0
  0
LINE
  5
56
330
1F
100
AcDbEntity
  8
0
  6
Continuous
 62
     7
370
    15
100
AcDbLine
 10
180.0717639371
 20
105.5749075975
 30
0.0
 11
186.7901356465
 21
105.5749075975
 31
0.0
  0
LINE
  5
57
330
1F
100
AcDbEntity
  8
0
  6
Continuous
 62
     7
370
    15
100
AcDbLine
 10
189.6611961238
 20
125.5749075975
 30
0.0
 11
180.0717639371
 21
125.5749075975
 31
0.0
  0
LINE
  5
58
330
1F
100
AcDbEntity
  8
0
  6
Continuous
 62
     7
370
    15
100
AcDbLine
 10
180.0717639371
 20
125.5749075975
 30
0.0
 11
178.0717639371
 21
123.5749075975
 31
0.0
  0
LINE
  5
59
330
1F
100
AcDbEntity
  8
0
  6
Continuous
 62
     7
370
    15
100
AcDbLine
 10
178.0717639371
 20
107.5749075975
 30
0.0
 11
180.0717639371
 21
105.5749075975
 31
0.0
  0
LINE
  5
5A
330
1F
100
AcDbEntity
  8
0
  6
Continuous
 62
     7
370
    15
100
AcDbLine
 10
93.0717639371
 20
108.9499075975
 30
0.0
 11
94.4467639371
 21
107.5749075975
 31
0.0
  0
LINE
  5
5B
330
1F
100
AcDbEntity
  8
0
  6
Continuous
 62
     7
370
    15
100
AcDbLine
 10
94.4467639371
 20
107.5749075975
 30
0.0
 11
178.0717639371
 21
107.5749075975
 31
0.0
  0
LINE
  5
5C
330
1F
100
AcDbEntity
  8
0
  6
Continuous
 62
     7
370
    15
100
AcDbLine
 10
107.2717639371
 20
123.5749075975
 30
0.0
 11
104.3717639371
 21
123.5749075975
 31
0.0
  0
LINE
  5
5D
330
1F
100
AcDbEntity
  8
0
  6
Continuous
 62
     7
370
    15
100
AcDbLine
 10
121.7717639371
 20
123.5749075975
 30
0.0
 11
118.8717639371
 21
123.5749075975
 31
0.0
  0
LINE
  5
5E
330
1F
100
AcDbEntity
  8
0
  6
Continuous
 62
     7
370
    15
100
AcDbLine
 10
136.2717639371
 20
123.5749075975
 30
0.0
 11
133.3717639371
 21
123.5749075975
 31
0.0
  0
LINE
  5
5F
330
1F
100
AcDbEntity
  8
0
  6
Continuous
 62
     7
370
    15
100
AcDbLine
 10
150.7717639371
 20
123.5749075975
 30
0.0
 11
147.8717639371
 21
123.5749075975
 31
0.0
  0
LINE
  5
60
330
1F
100
AcDbEntity
  8
0
  6
Continuous
 62
     7
370
    15
100
AcDbLine
 10
178.0717639371
 20
123.5749075975
 30
0.0
 11
162.3717639371
 21
123.5749075975
 31
0.0
  0
LINE
  5
61
330
1F
100
AcDbEntity
  8
0
  6
Continuous
 62
     7
370
    15
100
AcDbLine
 10
198.5467639371
 20
127.0953931063
 30
0.0
 11
190.1821406568
 21
125.6204843385
 31
0.0
  0
ARC
  5
62
330
1F
100
AcDbEntity
  8
0
  6
Continuous
 62
     7
370
    15
100
AcDbCircle
 10
189.6611961238
 20
128.5749075975
 30
0.0
 40
3.000000000000008
100
AcDbArc
 50
270.0
 51
280.0
  0
CIRCLE
  5
63
330
1F
100
AcDbEntity
  8
0
  6
Continuous
 62
     7
370
    15
100
AcDbCircle
 10
203.218210635
 20
123.78784113
 30
0.0
 40
2.615980720558504
  0
CIRCLE
  5
64
330
1F
100
AcDbEntity
  8
0
  6
Continuous
 62
     7
370
    15
100
AcDbCircle
 10
203.2205102167
 20
123.8202724471
 30
0.0
 40
1.793351879419487
  0
ARC
  5
65
330
1F
100
AcDbEntity
  8
0
  6
Continuous
 62
     7
370
    15
100
AcDbCircle
 10
203.2406317413
 20
123.8156329947
 30
0.0
 40
1.662572533022427
100
AcDbArc
 50
291.073226601
 51
349.7770426809
  0
ARC
  5
66
330
1F
100
AcDbEntity
  8
0
  6
Continuous
 62
     7
370
    15
100
AcDbCircle
 10
203.251835961
 20
123.8079275706
 30
0.0
 40
1.650188117180556
100
AcDbArc
 50
349.9712911947
 51
50.4978742147
  0
ARC
  5
67
330
1F
100
AcDbEntity
  8
0
  6
Continuous
 62
     7
370
    15
100
AcDbCircle
 10
203.2271375668
 20
123.7798610732
 30
0.0
 40
1.687555501373239
100
AcDbArc
 50
50.4569956012
 51
108.5582048832
  0
LINE
  5
68
330
1F
100
AcDbEntity
  8
0
  6
Continuous
 62
     7
370
    15
100
AcDbLine
 10
202.6102842498
 20
125.3506676555
 30
0.0
 11
202.6900428835
 21
125.3796650835
 31
0.0
  0
ARC
  5
69
330
1F
100
AcDbEntity
  8
0
  6
Continuous
 62
     7
370
    15
100
AcDbCircle
 10
203.2142939114
 20
123.8010207629
 30
0.0
 40
1.663199676244821
100
AcDbArc
 50
111.2944661806
 51
167.8232505698
  0
LINE
  5
6A
330
1F
100
AcDbEntity
  8
0
  6
Continuous
 62
     7
370
    15
100
AcDbLine
 10
201.5679288096
 20
124.0349582596
 30
0.0
 11
201.588513618
 21
124.1518363848
 31
0.0
  0
ARC
  5
6B
330
1F
100
AcDbEntity
  8
0
  6
Continuous
 62
     7
370
    15
100
AcDbCircle
 10
203.2023641607
 20
123.8093437866
 30
0.0
 40
1.649933576689196
100
AcDbArc
 50
172.1406626963
 51
228.3285027131
  0
LINE
  5
6C
330
1F
100
AcDbEntity
  8
0
  6
Continuous
 62
     7
370
    15
100
AcDbLine
 10
202.1971700064
 20
122.5006329177
 30
0.0
 11
202.1053912284
 21
122.5768945206
 31
0.0
  0
ARC
  5
6D
330
1F
100
AcDbEntity
  8
0
  6
Continuous
 62
     7
370
    15
100
AcDbCircle
 10
203.2273745667
 20
123.8377346648
 30
0.0
 40
1.687946242632297
100
AcDbArc
 50
232.3866179207
 51
288.342321876
  0
LINE
  5
6E
330
1F
100
AcDbEntity
  8
0
  6
Continuous
 62
     7
370
    15
100
AcDbLine
 10
203.8384276756
 20
122.2642505633
 30
0.0
 11
203.7585605631
 21
122.2355474238
 31
0.0
  0
SPLINE
  5
6F
330
1F
100
AcDbEntity
  8
0
  6
Continuous
 62
     7
370
    15
100
AcDbSpline
210
0.0
220
0.0
230
1.0
 70
     8
 71
     3
 72
    11
 73
     7
 74
     0
 42
0.00000001
 43
0.00000001
 40
0.0
 40
0.0
 40
0.0
 40
0.0
 40
0.2657596322624909
 40
0.553002938595425
 40
0.8418208483438518
 40
1.0
 40
1.0
 40
1.0
 40
1.0
 10
202.197170006441
 20
122.5006329177125
 30
0.0
 10
202.2288098385108
 20
122.4861523529941
 30
0.0
 10
202.2946472268391
 20
122.4560206329371
 30
0.0
 10
202.4062359070039
 20
122.4521518512807
 30
0.0
 10
202.4990775627783
 20
122.4767411465462
 30
0.0
 10
202.5469285555358
 20
122.5071149533541
 30
0.0
 10
202.5638616186223
 20
122.5178633528589
 30
0.0
  0
SPLINE
  5
70
330
1F
100
AcDbEntity
  8
0
  6
Continuous
 62
     7
370
    15
100
AcDbSpline
210
0.0
220
0.0
230
1.0
 70
     8
 71
     3
 72
    12
 73
     8
 74
     0
 42
0.00000001
 43
0.00000001
 40
0.0
 40
0.0
 40
0.0
 40
0.0
 40
0.2057904614204195
 40
0.4120344203360232
 40
0.6141302471427981
 40
0.8132633242113029
 40
0.9999999999999999
 40
0.9999999999999999
 40
0.9999999999999999
 40
0.9999999999999999
 10
202.5638616186224
 20
122.5178633528589
 30
0.0
 10
202.6198881014226
 20
122.5502045630129
 30
0.0
 10
202.7320645317813
 20
122.6149582531829
 30
0.0
 10
202.9318928914091
 20
122.6375947509942
 30
0.0
 10
203.1244888871281
 20
122.6000154645797
 30
0.0
 10
203.2922131704678
 20
122.5093748502359
 30
0.0
 10
203.3683043951509
 20
122.4166241693018
 30
0.0
 10
203.4051277591197
 20
122.3717386769653
 30
0.0
  0
SPLINE
  5
71
330
1F
100
AcDbEntity
  8
0
  6
Continuous
 62
     7
370
    15
100
AcDbSpline
210
0.0
220
0.0
230
1.0
 70
     8
 71
     3
 72
    11
 73
     7
 74
     0
 42
0.00000001
 43
0.00000001
 40
0.0
 40
0.0
 40
0.0
 40
0.0
 40
0.280237141101341
 40
0.5612869875923799
 40
0.8399906057824604
 40
1.0
 40
1.0
 40
1.0
 40
1.0
 10
203.4051277591197
 20
122.3717386769653
 30
0.0
 10
203.4289079010176
 20
122.3433299257544
 30
0.0
 10
203.4765371487252
 20
122.2864300361618
 30
0.0
 10
203.5802950355107
 20
122.2367785020405
 30
0.0
 10
203.6783647821441
 20
122.2221775882552
 30
0.0
 10
203.7371281293295
 20
122.2319743166931
 30
0.0
 10
203.758560563106
 20
122.2355474238003
 30
0.0
  0
LINE
  5
72
330
1F
100
AcDbEntity
  8
0
  6
Continuous
 62
     7
370
    15
100
AcDbLine
 10
204.0177693014
 20
122.5931652375
 30
0.0
 11
204.0211212019
 21
122.6603062123
 31
0.0
  0
SPLINE
  5
73
330
1F
100
AcDbEntity
  8
0
  6
Continuous
 62
     7
370
    15
100
AcDbSpline
210
0.0
220
0.0
230
1.0
 70
     8
 71
     3
 72
    12
 73
     8
 74
     0
 42
0.00000001
 43
0.00000001
 40
0.0
 40
0.0
 40
0.0
 40
0.0
 40
0.0691664444109849
 40
0.3109104753445462
 40
0.5477866285250367
 40
0.7811853479600779
 40
1.0
 40
1.0
 40
1.0
 40
1.0
 10
204.0245120425789
 20
122.7282271872156
 30
0.0
 10
204.0248022200859
 20
122.7463777570975
 30
0.0
 10
204.0261065986383
 20
122.8279664863986
 30
0.0
 10
204.0938722467988
 20
122.9653492582205
 30
0.0
 10
204.2203456471919
 20
123.1120658791944
 30
0.0
 10
204.3861990609963
 20
123.2116386551556
 30
0.0
 10
204.5074811440581
 20
123.2317995228762
 30
0.0
 10
204.5661664870352
 20
123.2415548585947
 30
0.0
  0
SPLINE
  5
74
330
1F
100
AcDbEntity
  8
0
  6
Continuous
 62
     7
370
    15
100
AcDbSpline
210
0.0
220
0.0
230
1.0
 70
     8
 71
     3
 72
    11
 73
     7
 74
     0
 42
0.00000001
 43
0.00000001
 40
0.0
 40
0.0
 40
0.0
 40
0.0
 40
0.252478226533554
 40
0.5068902417933159
 40
0.7591786113117057
 40
1.0
 40
1.0
 40
1.0
 40
1.0
 10
204.5661664870352
 20
123.2415548585947
 30
0.0
 10
204.6034288254272
 20
123.2480941742206
 30
0.0
 10
204.6782389030192
 20
123.2612228915928
 30
0.0
 10
204.7748563082917
 20
123.3259853053214
 30
0.0
 10
204.8474060090638
 20
123.414573030459
 30
0.0
 10
204.8671619593765
 20
123.4857837718904
 30
0.0
 10
204.8768102279618
 20
123.5205611604041
 30
0.0
  0
SPLINE
  5
75
330
1F
100
AcDbEntity
  8
0
  6
Continuous
 62
     7
370
    15
100
AcDbSpline
210
0.0
220
0.0
230
1.0
 70
     8
 71
     3
 72
    11
 73
     7
 74
     0
 42
0.00000001
 43
0.00000001
 40
0.0
 40
0.0
 40
0.0
 40
0.0
 40
0.2423611237745264
 40
0.5166847928458111
 40
0.7923341374633323
 40
1.0
 40
1.0
 40
1.0
 40
1.0
 10
203.8384276756235
 20
122.2642505632524
 30
0.0
 10
203.8664955128902
 20
122.2815954225542
 30
0.0
 10
203.926332769204
 20
122.3185725783608
 30
0.0
 10
203.9896064694597
 20
122.4062458078231
 30
0.0
 10
204.0220227397785
 20
122.5028827649261
 30
0.0
 10
204.0190476199775
 20
122.5660319507243
 30
0.0
 10
204.0177693013761
 20
122.5931652375383
 30
0.0
  0
SPLINE
  5
76
330
1F
100
AcDbEntity
  8
0
  6
Continuous
 62
     7
370
    15
100
AcDbSpline
210
0.0
220
0.0
230
1.0
 70
     8
 71
     3
 72
    11
 73
     7
 74
     0
 42
0.00000001
 43
0.00000001
 40
0.0
 40
0.0
 40
0.0
 40
0.0
 40
0.2928993220619751
 40
0.5864344719079687
 40
0.8775178868033122
 40
1.0
 40
1.0
 40
1.0
 40
1.0
 10
202.0638712534341
 20
122.9325497877302
 30
0.0
 10
202.0502184084403
 20
122.8983255104407
 30
0.0
 10
202.0228830807663
 20
122.8298026615743
 30
0.0
 10
202.0298146691092
 20
122.7167760178188
 30
0.0
 10
202.0633080240017
 20
122.63142468093
 30
0.0
 10
202.0957755909227
 20
122.5893541767051
 30
0.0
 10
202.1053912284377
 20
122.5768945205909
 30
0.0
  0
SPLINE
  5
77
330
1F
100
AcDbEntity
  8
0
  6
Continuous
 62
     7
370
    15
100
AcDbSpline
210
0.0
220
0.0
230
1.0
 70
     8
 71
     3
 72
    11
 73
     7
 74
     0
 42
0.00000001
 43
0.00000001
 40
0.0
 40
0.0
 40
0.0
 40
0.0
 40
0.2669010467950265
 40
0.5546143410792438
 40
0.8439070439786343
 40
1.0
 40
1.0
 40
1.0
 40
1.0
 10
201.56792880959
 20
124.0349582595655
 30
0.0
 10
201.5713263843224
 20
124.0004057589233
 30
0.0
 10
201.5783864678033
 20
123.9286064437598
 30
0.0
 10
201.6323434225672
 20
123.8303224517848
 30
0.0
 10
201.701703296583
 20
123.7625654414179
 30
0.0
 10
201.753018141213
 20
123.7362772708932
 30
0.0
 10
201.7710022985958
 20
123.7270641357969
 30
0.0
  0
SPLINE
  5
78
330
1F
100
AcDbEntity
  8
0
  6
Continuous
 62
     7
370
    15
100
AcDbSpline
210
0.0
220
0.0
230
1.0
 70
     8
 71
     3
 72
    12
 73
     8
 74
     0
 42
0.00000001
 43
0.00000001
 40
0.0
 40
0.0
 40
0.0
 40
0.0
 40
0.2058401281338147
 40
0.4120619935510049
 40
0.6141387330969522
 40
0.813277211352464
 40
1.0
 40
1.0
 40
1.0
 40
1.0
 10
201.7710022985958
 20
123.7270641357969
 30
0.0
 10
201.8285030710427
 20
123.6944980566258
 30
0.0
 10
201.9436112530089
 20
123.6293055034194
 30
0.0
 10
202.0652313563407
 20
123.4681484234624
 30
0.0
 10
202.1285183176505
 20
123.2842838233922
 30
0.0
 10
202.1310944641322
 20
123.0962941938943
 30
0.0
 10
202.0857931096956
 20
122.9859477331463
 30
0.0
 10
202.0638712534341
 20
122.9325497877302
 30
0.0
  0
ARC
  5
79
330
1F
100
AcDbEntity
  8
0
  6
Continuous
 62
     7
370
    15
100
AcDbCircle
 10
203.2372840919
 20
123.6826329867
 30
0.0
 40
2.615006540471343
100
AcDbArc
 50
259.7382038157
 51
359.7104560711
  0
ARC
  5
7A
330
1F
100
AcDbEntity
  8
0
  6
Continuous
 62
     7
370
    15
100
AcDbCircle
 10
203.2100355035
 20
123.6801071864
 30
0.0
 40
2.607800168575679
100
AcDbArc
 50
180.2348493085
 51
260.3174278692
  0
ARC
  5
7B
330
1F
100
AcDbEntity
  8
0
  6
Continuous
 62
     7
370
    15
100
AcDbCircle
 10
201.5505968983
 20
123.0039733648
 30
0.0
 40
0.5757988462651966
100
AcDbArc
 50
333.0512956478
 51
359.9928814986
  0
ARC
  5
7C
330
1F
100
AcDbEntity
  8
0
  6
Continuous
 62
     7
370
    15
100
AcDbCircle
 10
204.5493480837
 20
123.3815092195
 30
0.0
 40
0.3329548891237526
100
AcDbArc
 50
22.1135357289
 51
67.1170246392
  0
SPLINE
  5
7D
330
1F
100
AcDbEntity
  8
0
  6
Continuous
 62
     7
370
    15
100
AcDbSpline
210
0.0
220
0.0
230
1.0
 70
     8
 71
     3
 72
    12
 73
     8
 74
     0
 42
0.00000001
 43
0.00000001
 40
0.0
 40
0.0
 40
0.0
 40
0.0
 40
0.0091681771491573
 40
0.2573268097002666
 40
0.5054934687429599
 40
0.754992535945285
 40
0.9999999999999999
 40
0.9999999999999999
 40
0.9999999999999999
 40
0.9999999999999999
 10
204.8768102279618
 20
123.5205611604041
 30
0.0
 10
204.8770431555649
 20
123.5219006689488
 30
0.0
 10
204.8835808255964
 20
123.5594971785671
 30
0.0
 10
204.8831741031314
 20
123.6359705952721
 30
0.0
 10
204.8452093341363
 20
123.7402352650446
 30
0.0
 10
204.7757855258781
 20
123.8276168919295
 30
0.0
 10
204.7109439660516
 20
123.8610855318386
 30
0.0
 10
204.6788176641035
 20
123.8776678539541
 30
0.0
  0
ARC
  5
7E
330
1F
100
AcDbEntity
  8
0
  6
Continuous
 62
     7
370
    15
100
AcDbCircle
 10
201.9015855704
 20
123.8399997012
 30
0.0
 40
0.3341484840831431
100
AcDbArc
 50
93.0762585812
 51
164.1544392798
  0
SPLINE
  5
7F
330
1F
100
AcDbEntity
  8
0
  6
Continuous
 62
     7
370
    15
100
AcDbSpline
210
0.0
220
0.0
230
1.0
 70
     8
 71
     3
 72
    11
 73
     7
 74
     0
 42
0.00000001
 43
0.00000001
 40
0.0
 40
0.0
 40
0.0
 40
0.0
 40
0.290864166607678
 40
0.5839560789892093
 40
0.8745988053617691
 40
1.0
 40
1.0
 40
1.0
 40
1.0
 10
201.8836534756641
 20
124.3631771709469
 30
0.0
 10
201.8464033462582
 20
124.3582179399315
 30
0.0
 10
201.7716177865127
 20
124.3482614948585
 30
0.0
 10
201.6747863658726
 20
124.2869606820059
 30
0.0
 10
201.6156904091588
 20
124.2158078019001
 30
0.0
 10
201.5948078886215
 20
124.1666524611035
 30
0.0
 10
201.5885136180165
 20
124.1518363848495
 30
0.0
  0
SPLINE
  5
80
330
1F
100
AcDbEntity
  8
0
  6
Continuous
 62
     7
370
    15
100
AcDbSpline
210
0.0
220
0.0
230
1.0
 70
     8
 71
     3
 72
    12
 73
     8
 74
     0
 42
0.00000001
 43
0.00000001
 40
0.0
 40
0.0
 40
0.0
 40
0.0
 40
0.2058435564095155
 40
0.4120691620553175
 40
0.61413972177271
 40
0.8132604579561333
 40
1.0
 40
1.0
 40
1.0
 40
1.0
 10
204.6788176641035
 20
123.8776678539541
 30
0.0
 10
204.6213163181744
 20
123.9075162252805
 30
0.0
 10
204.5062069028138
 20
123.9672683670319
 30
0.0
 10
204.3845871739748
 20
124.1240565204388
 30
0.0
 10
204.3213029849458
 20
124.3082408434234
 30
0.0
 10
204.3187250594254
 20
124.5008433805952
 30
0.0
 10
204.3640253464886
 20
124.6163042015139
 30
0.0
 10
204.3859487092652
 20
124.6721822020207
 30
0.0
  0
SPLINE
  5
81
330
1F
100
AcDbEntity
  8
0
  6
Continuous
 62
     7
370
    15
100
AcDbSpline
210
0.0
220
0.0
230
1.0
 70
     8
 71
     3
 72
    11
 73
     7
 74
     0
 42
0.00000001
 43
0.00000001
 40
0.0
 40
0.0
 40
0.0
 40
0.0
 40
0.2535086227483978
 40
0.5075674742604563
 40
0.7595056251924467
 40
0.9999999999999999
 40
0.9999999999999999
 40
0.9999999999999999
 40
0.9999999999999999
 10
204.3859487092652
 20
124.6721822020207
 30
0.0
 10
204.3996097474743
 20
124.708009161216
 30
0.0
 10
204.4269614745452
 20
124.7797408403677
 30
0.0
 10
204.419909648453
 20
124.8960464379142
 30
0.0
 10
204.3794913915894
 20
125.0030435816475
 30
0.0
 10
204.3271126651533
 20
125.0555642709112
 30
0.0
 10
204.3015319238151
 20
125.0812143441065
 30
0.0
  0
SPLINE
  5
82
330
1F
100
AcDbEntity
  8
0
  6
Continuous
 62
     7
370
    15
100
AcDbSpline
210
0.0
220
0.0
230
1.0
 70
     8
 71
     3
 72
    11
 73
     7
 74
     0
 42
0.00000001
 43
0.00000001
 40
0.0
 40
0.0
 40
0.0
 40
0.0
 40
0.2431090893442804
 40
0.5182793655622085
 40
0.7947794085752016
 40
1.0
 40
1.0
 40
1.0
 40
1.0
 10
202.6102842498147
 20
125.3506676555052
 30
0.0
 10
202.5822825426855
 20
125.3329437579045
 30
0.0
 10
202.5225862678786
 20
125.2951585379914
 30
0.0
 10
202.4596438865863
 20
125.2047263923449
 30
0.0
 10
202.4277403634301
 20
125.1049566359382
 30
0.0
 10
202.4307629792777
 20
125.0394666223058
 30
0.0
 10
202.4320506613232
 20
125.01156684312
 30
0.0
  0
SPLINE
  5
83
330
1F
100
AcDbEntity
  8
0
  6
Continuous
 62
     7
370
    15
100
AcDbSpline
210
0.0
220
0.0
230
1.0
 70
     8
 71
     3
 72
    12
 73
     8
 74
     0
 42
0.00000001
 43
0.00000001
 40
0.0
 40
0.0
 40
0.0
 40
0.0
 40
0.205817956499889
 40
0.4120215045907235
 40
0.6140779969167762
 40
0.813213000645386
 40
1.0
 40
1.0
 40
1.0
 40
1.0
 10
202.4320506613232
 20
125.01156684312
 30
0.0
 10
202.4335094299272
 20
124.9452989668497
 30
0.0
 10
202.4364297000792
 20
124.8126390641315
 30
0.0
 10
202.3582251792029
 20
124.6266856630999
 30
0.0
 10
202.2289499712105
 20
124.4805701950092
 30
0.0
 10
202.0638189082941
 20
124.3855073707385
 30
0.0
 10
201.9424137892005
 20
124.3704600859985
 30
0.0
 10
201.8836534756641
 20
124.3631771709469
 30
0.0
  0
ARC
  5
84
330
1F
100
AcDbEntity
  8
0
  6
Continuous
 62
     7
370
    15
100
AcDbCircle
 10
204.9038345724
 20
124.2232800205
 30
0.0
 40
0.5804119929060617
100
AcDbArc
 50
180.1363298892
 51
247.1894825062
  0
ARC
  5
85
330
1F
100
AcDbEntity
  8
0
  6
Continuous
 62
     7
370
    15
100
AcDbCircle
 10
201.8533939805
 20
124.7556781448
 30
0.0
 40
0.5827975532177363
100
AcDbArc
 50
272.9761986277
 51
359.7613225698
  0
ARC
  5
86
330
1F
100
AcDbEntity
  8
0
  6
Continuous
 62
     7
370
    15
100
AcDbCircle
 10
204.0865848907
 20
124.627978584
 30
0.0
 40
0.3359534994908778
100
AcDbArc
 50
17.5220694785
 51
126.6685862155
  0
SPLINE
  5
87
330
1F
100
AcDbEntity
  8
0
  6
Continuous
 62
     7
370
    15
100
AcDbSpline
210
0.0
220
0.0
230
1.0
 70
     8
 71
     3
 72
    12
 73
     8
 74
     0
 42
0.00000001
 43
0.00000001
 40
0.0
 40
0.0
 40
0.0
 40
0.0
 40
0.009173520518978
 40
0.2576775215524778
 40
0.5061895192299263
 40
0.7560357430218936
 40
0.9999999999999999
 40
0.9999999999999999
 40
0.9999999999999999
 40
0.9999999999999999
 10
204.3015319238151
 20
125.0812143441065
 30
0.0
 10
204.300476064207
 20
125.0820811551454
 30
0.0
 10
204.270817735504
 20
125.1064292469944
 30
0.0
 10
204.2034294384547
 20
125.1440576015197
 30
0.0
 10
204.0922489438424
 20
125.1628702754641
 30
0.0
 10
203.9798523812031
 20
125.1459816021973
 30
0.0
 10
203.9170068306002
 20
125.1064158910465
 30
0.0
 10
203.885958344077
 20
125.0868686766827
 30
0.0
  0
SPLINE
  5
88
330
1F
100
AcDbEntity
  8
0
  6
Continuous
 62
     7
370
    15
100
AcDbSpline
210
0.0
220
0.0
230
1.0
 70
     8
 71
     3
 72
    12
 73
     8
 74
     0
 42
0.00000001
 43
0.00000001
 40
0.0
 40
0.0
 40
0.0
 40
0.0
 40
0.2057532787804064
 40
0.411960408804441
 40
0.6140154573248972
 40
0.8131414684041055
 40
0.9999999999999999
 40
0.9999999999999999
 40
0.9999999999999999
 40
0.9999999999999999
 10
203.885958344077
 20
125.0868686766827
 30
0.0
 10
203.8299403581815
 20
125.0518142614622
 30
0.0
 10
203.7177808217374
 20
124.9816281078793
 30
0.0
 10
203.5179826903251
 20
124.9546104140386
 30
0.0
 10
203.3254102646318
 20
124.9924835703514
 30
0.0
 10
203.1576569341416
 20
125.0877176508228
 30
0.0
 10
203.0815407309041
 20
125.1856051832936
 30
0.0
 10
203.0446922035796
 20
125.232993403693
 30
0.0
  0
SPLINE
  5
89
330
1F
100
AcDbEntity
  8
0
  6
Continuous
 62
     7
370
    15
100
AcDbSpline
210
0.0
220
0.0
230
1.0
 70
     8
 71
     3
 72
    11
 73
     7
 74
     0
 42
0.00000001
 43
0.00000001
 40
0.0
 40
0.0
 40
0.0
 40
0.0
 40
0.27940690645559
 40
0.5596240257155478
 40
0.8375007392219598
 40
1.0
 40
1.0
 40
1.0
 40
1.0
 10
203.0446922035796
 20
125.232993403693
 30
0.0
 10
203.020909810163
 20
125.2629928951385
 30
0.0
 10
202.9732760601108
 20
125.3230788693369
 30
0.0
 10
202.8695100004727
 20
125.3761830770503
 30
0.0
 10
202.7710192885634
 20
125.3927921455747
 30
0.0
 10
202.7118692999846
 20
125.3832033576908
 30
0.0
 10
202.6900428835125
 20
125.3796650835026
 30
0.0
  0
ARC
  5
8A
330
1F
100
AcDbEntity
  8
0
  6
Continuous
 62
     7
370
    15
100
AcDbCircle
 10
202.7648184779
 20
124.8571560798
 30
0.0
 40
0.3362570872799284
100
AcDbArc
 50
33.6621293545
 51
158.108129679
  0
ARC
  5
8B
330
1F
100
AcDbEntity
  8
0
  6
Continuous
 62
     7
370
    15
100
AcDbCircle
 10
203.5349005461
 20
125.3711374801
 30
0.0
 40
0.5895959146238383
100
AcDbArc
 50
213.753978084
 51
306.5426511313
  0
LINE
  5
8C
330
1F
100
AcDbEntity
  8
0
  6
Continuous
 62
     7
370
    15
100
AcDbLine
 10
207.6717639371
 20
120.2482835213
 30
0.0
 11
207.7412232082
 21
119.8903347035
 31
0.0
  0
LINE
  5
8D
330
1F
100
AcDbEntity
  8
0
  6
Continuous
 62
     7
370
    15
100
AcDbLine
 10
199.0162232082
 20
118.3668539148
 30
0.0
 11
207.7412232082
 21
119.8903347035
 31
0.0
  0
LINE
  5
8E
330
1F
100
AcDbEntity
  8
0
  6
Continuous
 62
     7
370
    15
100
AcDbLine
 10
198.9467639371
 20
118.7248027325
 30
0.0
 11
199.0162232082
 21
118.3668539148
 31
0.0
  0
LINE
  5
8F
330
1F
100
AcDbEntity
  8
0
  6
Continuous
 62
     7
370
    15
100
AcDbLine
 10
199.2395842602
 20
119.0468476661
 30
0.0
 11
198.9467639371
 21
118.7248027325
 31
0.0
  0
LINE
  5
90
330
1F
100
AcDbEntity
  8
0
  6
Continuous
 62
     7
370
    15
100
AcDbLine
 10
199.2395842602
 20
119.0468476661
 30
0.0
 11
199.3505948266
 21
119.0662313298
 31
0.0
  0
LINE
  5
91
330
1F
100
AcDbEntity
  8
0
  6
Continuous
 62
     7
370
    15
100
AcDbLine
 10
207.5221215703
 20
120.3606023798
 30
0.0
 11
207.6717639371
 21
120.2482835213
 31
0.0
  0
ARC
  5
92
330
1F
100
AcDbEntity
  8
0
  6
Continuous
 62
     7
370
    15
100
AcDbCircle
 10
198.9455687485
 20
118.7593574852
 30
0.0
 40
0.3988121179908253
100
AcDbArc
 50
180.3468266876
 51
280.2045134256
  0
LINE
  5
93
330
1F
100
AcDbEntity
  8
0
  6
Continuous
 62
     7
370
    15
100
AcDbLine
 10
198.9467639371
 20
118.7248027325
 30
0.0
 11
198.5467639371
 21
118.7569433834
 31
0.0
  0
LINE
  5
94
330
1F
100
AcDbEntity
  8
0
  6
Continuous
 62
     7
370
    15
100
AcDbLine
 10
198.9467639371
 20
118.3035538043
 30
0.0
 11
199.0162232082
 21
118.3668539148
 31
0.0
  0
LINE
  5
95
330
1F
100
AcDbEntity
  8
0
  6
Continuous
 62
     7
370
    15
100
AcDbLine
 10
207.7369589452
 20
119.8864485654
 30
0.0
 11
207.7412232082
 21
119.8903347035
 31
0.0
  0
LINE
  5
96
330
1F
100
AcDbEntity
  8
0
  6
Continuous
 62
     7
370
    15
100
AcDbLine
 10
199.0342186439
 20
118.3076363283
 30
0.0
 11
200.8728455733
 21
118.6286807758
 31
0.0
  0
LINE
  5
97
330
1F
100
AcDbEntity
  8
0
  6
Continuous
 62
     7
370
    15
100
AcDbLine
 10
199.0342186439
 20
118.3076363283
 30
0.0
 11
198.9467639371
 21
118.3035538043
 31
0.0
  0
LINE
  5
98
330
1F
100
AcDbEntity
  8
0
  6
Continuous
 62
     7
370
    15
100
AcDbLine
 10
198.5467639371
 20
127.5303195813
 30
0.0
 11
198.5467639371
 21
118.7569433834
 31
0.0
  0
LINE
  5
99
330
1F
100
AcDbEntity
  8
0
  6
Continuous
 62
     7
370
    15
100
AcDbLine
 10
198.9467639371
 20
127.4981789304
 30
0.0
 11
198.5467639371
 21
127.5303195813
 31
0.0
  0
LINE
  5
9A
330
1F
100
AcDbEntity
  8
0
  6
Continuous
 62
     7
370
    15
100
AcDbLine
 10
199.096406304
 20
127.3618120564
 30
0.0
 11
198.9467639371
 21
127.4981789304
 31
0.0
  0
LINE
  5
9B
330
1F
100
AcDbEntity
  8
0
  6
Continuous
 62
     7
370
    15
100
AcDbLine
 10
199.2395842602
 20
119.1584737362
 30
0.0
 11
199.2395842602
 21
119.0468476661
 31
0.0
  0
SPLINE
  5
9C
330
1F
100
AcDbEntity
  8
0
  6
Continuous
 62
     7
370
    15
100
AcDbSpline
210
0.0
220
0.0
230
1.0
 70
     8
 71
     3
 72
     9
 73
     5
 74
     0
 42
0.00000001
 43
0.00000001
 40
0.0
 40
0.0
 40
0.0
 40
0.0
 40
0.0433040437558576
 40
1.0
 40
1.0
 40
1.0
 40
1.0
 10
199.7196481318158
 20
119.6210240152408
 30
0.0
 10
199.7186503082901
 20
119.6197220999791
 30
0.0
 10
199.6956080369651
 20
119.5896575806247
 30
0.0
 10
199.6713301946058
 20
119.5586392401006
 30
0.0
 10
199.6481036809943
 20
119.5289641191517
 30
0.0
  0
SPLINE
  5
9D
330
1F
100
AcDbEntity
  8
0
  6
Continuous
 62
     7
370
    15
100
AcDbSpline
210
0.0
220
0.0
230
1.0
 70
     8
 71
     3
 72
    14
 73
    10
 74
     0
 42
0.00000001
 43
0.00000001
 40
0.0
 40
0.0
 40
0.0
 40
0.0
 40
0.3240421732222951
 40
0.4390834530314411
 40
0.5550339035678983
 40
0.6320175773806567
 40
0.7091777148392754
 40
0.8120429782633926
 40
1.0
 40
1.0
 40
1.0
 40
1.0
 10
199.3505948266261
 20
119.0662313297888
 30
0.0
 10
199.4281893438445
 20
119.0831717825524
 30
0.0
 10
199.5333314252525
 20
119.1061264258367
 30
0.0
 10
199.6510715623834
 20
119.1728536767665
 30
0.0
 10
199.7065370736455
 20
119.2247614428506
 30
0.0
 10
199.7354868786602
 20
119.2845397738684
 30
0.0
 10
199.7405734595518
 20
119.3474234396775
 30
0.0
 10
199.7160147116274
 20
119.43438881983
 30
0.0
 10
199.6747638872249
 20
119.4918361745345
 30
0.0
 10
199.6481036809943
 20
119.5289641191517
 30
0.0
  0
SPLINE
  5
9E
330
1F
100
AcDbEntity
  8
0
  6
Continuous
 62
     7
370
    15
100
AcDbSpline
210
0.0
220
0.0
230
1.0
 70
     8
 71
     3
 72
    14
 73
    10
 74
     0
 42
0.00000001
 43
0.00000001
 40
0.0
 40
0.0
 40
0.0
 40
0.0
 40
0.1215026613259931
 40
0.2571357003576085
 40
0.3367055246585092
 40
0.4166989189530745
 40
0.5090573836363388
 40
0.6599898335533522
 40
1.0
 40
1.0
 40
1.0
 40
1.0
 10
199.6481036809943
 20
119.5289641191517
 30
0.0
 10
199.621552733814
 20
119.5417175404545
 30
0.0
 10
199.5653630477294
 20
119.5687075658816
 30
0.0
 10
199.4842474966624
 20
119.5880740221878
 30
0.0
 10
199.4117352988411
 20
119.5802385869874
 30
0.0
 10
199.3561505661046
 20
119.551492013395
 30
0.0
 10
199.3036418894623
 20
119.4918378581503
 30
0.0
 10
199.2484860835901
 20
119.3599350612535
 30
0.0
 10
199.2432267179891
 20
119.2409079010436
 30
0.0
 10
199.2395842601666
 20
119.1584737362232
 30
0.0
  0
ARC
  5
9F
330
1F
100
AcDbEntity
  8
0
  6
Continuous
 62
     7
370
    15
100
AcDbCircle
 10
200.7437759651
 20
120.8872585889
 30
0.0
 40
0.9970302948264004
100
AcDbArc
 50
180.3468266756
 51
280.2045134532
  0
LINE
  5
A0
330
1F
100
AcDbEntity
  8
0
  6
Continuous
 62
     7
370
    15
100
AcDbLine
 10
200.9204121148
 20
119.9059996632
 30
0.0
 11
206.0454121148
 21
120.8008809288
 31
0.0
  0
SPLINE
  5
A1
330
1F
100
AcDbEntity
  8
0
  6
Continuous
 62
     7
370
    15
100
AcDbSpline
210
0.0
220
0.0
230
1.0
 70
     8
 71
     3
 72
    11
 73
     7
 74
     0
 42
0.00000001
 43
0.00000001
 40
0.0
 40
0.0
 40
0.0
 40
0.0
 40
0.3360297136122451
 40
0.671226969720065
 40
0.9920227009423113
 40
1.0
 40
1.0
 40
1.0
 40
1.0
 10
207.5221215703185
 20
120.3606023798412
 30
0.0
 10
207.4629699680404
 20
120.406278074597
 30
0.0
 10
207.3448133017017
 20
120.4975163102019
 30
0.0
 10
207.1594241040787
 20
120.655221256021
 30
0.0
 10
207.0451879719854
 20
120.7583646999578
 30
0.0
 10
206.9929567814529
 20
120.8072164107182
 30
0.0
 10
206.9916894517493
 20
120.808401741236
 30
0.0
  0
LINE
  5
A2
330
1F
100
AcDbEntity
  8
0
  6
Continuous
 62
     7
370
    15
100
AcDbLine
 10
207.6717639371
 20
120.2482835213
 30
0.0
 11
208.0717639371
 21
120.2804241722
 31
0.0
  0
ARC
  5
A3
330
1F
100
AcDbEntity
  8
0
  6
Continuous
 62
     7
370
    15
100
AcDbCircle
 10
207.6745317818
 20
120.2819313204
 30
0.0
 40
0.3972350144356324
100
AcDbArc
 50
279.6651090934
 51
359.7826137323
  0
LINE
  5
A4
330
1F
100
AcDbEntity
  8
0
  6
Continuous
 62
     7
370
    15
100
AcDbLine
 10
205.6981157595
 20
127.9047440903
 30
0.0
 11
200.5731157595
 21
127.0098628247
 31
0.0
  0
ARC
  5
A5
330
1F
100
AcDbEntity
  8
0
  6
Continuous
 62
     7
370
    15
100
AcDbCircle
 10
205.8747519087
 20
126.9234851643
 30
0.0
 40
0.997030295023486
100
AcDbArc
 50
0.3468266908
 51
100.2045134225
  0
LINE
  5
A6
330
1F
100
AcDbEntity
  8
0
  6
Continuous
 62
     7
370
    15
100
AcDbLine
 10
206.8717639371
 20
121.7761046004
 30
0.0
 11
206.8717639371
 21
126.9295204187
 31
0.0
  0
ARC
  5
A7
330
1F
100
AcDbEntity
  8
0
  6
Continuous
 62
     7
370
    15
100
AcDbCircle
 10
205.8786835489
 20
121.7798724709
 30
0.0
 40
0.9930875360895637
100
AcDbArc
 50
279.6651090934
 51
359.7826137289
  0
LINE
  5
A8
330
1F
100
AcDbEntity
  8
0
  6
Continuous
 62
     7
370
    15
100
AcDbLine
 10
199.7467639371
 20
126.0346391531
 30
0.0
 11
199.7467639368
 21
120.8812233348
 31
0.0
  0
ARC
  5
A9
330
1F
100
AcDbEntity
  8
0
  6
Continuous
 62
     7
370
    15
100
AcDbCircle
 10
200.7398443254
 20
126.0308712826
 30
0.0
 40
0.993087536089521
100
AcDbArc
 50
99.6651090934
 51
179.7826137289
  0
CIRCLE
  5
AA
330
1F
100
AcDbEntity
  8
0
  6
Continuous
 62
     7
370
    15
100
AcDbCircle
 10
203.2888315065
 20
123.9014656901
 30
0.0
 40
3.029570087553826
  0
LINE
  5
AB
330
1F
100
AcDbEntity
  8
0
  6
Continuous
 62
     7
370
    15
100
AcDbLine
 10
207.3789436141
 20
128.6525576066
 30
0.0
 11
207.6717639371
 21
129.0216597191
 31
0.0
  0
LINE
  5
AC
330
1F
100
AcDbEntity
  8
0
  6
Continuous
 62
     7
370
    15
100
AcDbLine
 10
207.6717639371
 20
129.0216597191
 30
0.0
 11
208.0717639371
 21
129.0538003701
 31
0.0
  0
LINE
  5
AD
330
1F
100
AcDbEntity
  8
0
  6
Continuous
 62
     7
370
    15
100
AcDbLine
 10
208.0717639371
 20
120.2804241722
 30
0.0
 11
208.0717639371
 21
129.0538003701
 31
0.0
  0
LINE
  5
AE
330
1F
100
AcDbEntity
  8
0
  6
Continuous
 62
     7
370
    15
100
AcDbLine
 10
207.3789436141
 20
128.5409315365
 30
0.0
 11
207.3789436141
 21
128.6525576066
 31
0.0
  0
ARC
  5
AF
330
1F
100
AcDbEntity
  8
0
  6
Continuous
 62
     7
370
    15
100
AcDbCircle
 10
203.3092639371
 20
123.7209196488
 30
0.0
 40
3.050717084421994
100
AcDbArc
 50
1.9616488084
 51
178.038351201
  0
SPLINE
  5
B0
330
1F
100
AcDbEntity
  8
0
  6
Continuous
 62
     7
370
    15
100
AcDbSpline
210
0.0
220
0.0
230
1.0
 70
     8
 71
     3
 72
    11
 73
     7
 74
     0
 42
0.00000001
 43
0.00000001
 40
0.0
 40
0.0
 40
0.0
 40
0.0
 40
0.0079772990479748
 40
0.3287730302733603
 40
0.6639702863844634
 40
1.0
 40
1.0
 40
1.0
 40
1.0
 10
199.6268384225216
 20
126.9281037086643
 30
0.0
 10
199.6255710928204
 20
126.929024511736
 30
0.0
 10
199.5733399023248
 20
126.9669741002284
 30
0.0
 10
199.4591037701834
 20
127.0536759308501
 30
0.0
 10
199.2737145725806
 20
127.2040632010745
 30
0.0
 10
199.1555579062391
 20
127.3091856469327
 30
0.0
 10
199.0964063039597
 20
127.3618120564328
 30
0.0
  0
SPLINE
  5
B1
330
1F
100
AcDbEntity
  8
0
  6
Continuous
 62
     7
370
    15
100
AcDbSpline
210
0.0
220
0.0
230
1.0
 70
     8
 71
     3
 72
    14
 73
    10
 74
     0
 42
0.00000001
 43
0.00000001
 40
0.0
 40
0.0
 40
0.0
 40
0.0
 40
0.1215026613286248
 40
0.2571357003598482
 40
0.3367055246605072
 40
0.4166989189548299
 40
0.5090573836378126
 40
0.6599898335543614
 40
1.0
 40
1.0
 40
1.0
 40
1.0
 10
206.9704241932815
 20
128.1704411535718
 30
0.0
 10
206.9969751404625
 20
128.157687732269
 30
0.0
 10
207.0531648265481
 20
128.1306977068423
 30
0.0
 10
207.1342803776158
 20
128.1113312505357
 30
0.0
 10
207.206792575437
 20
128.1191666857361
 30
0.0
 10
207.2623773081735
 20
128.1479132593285
 30
0.0
 10
207.3148859848159
 20
128.2075674145732
 30
0.0
 10
207.370041790688
 20
128.33947021147
 30
0.0
 10
207.3753011562889
 20
128.4584973716799
 30
0.0
 10
207.3789436141115
 20
128.5409315365003
 30
0.0
  0
SPLINE
  5
B2
330
1F
100
AcDbEntity
  8
0
  6
Continuous
 62
     7
370
    15
100
AcDbSpline
210
0.0
220
0.0
230
1.0
 70
     8
 71
     3
 72
     9
 73
     5
 74
     0
 42
0.00000001
 43
0.00000001
 40
0.0
 40
0.0
 40
0.0
 40
0.0
 40
0.9566959562428191
 40
1.0
 40
1.0
 40
1.0
 40
1.0
 10
206.9704241932815
 20
128.1704411535718
 30
0.0
 10
206.9471976796708
 20
128.1452944776259
 30
0.0
 10
206.9229198373123
 20
128.1190095583872
 30
0.0
 10
206.899877565988
 20
128.094687149955
 30
0.0
 10
206.8988797424624
 20
128.0936338913159
 30
0.0
  0
LINE
  5
B3
330
1F
100
AcDbEntity
  8
0
  6
Continuous
 62
     7
370
    15
100
AcDbLine
 10
198.9467639371
 20
127.4981789304
 30
0.0
 11
198.8773046661
 21
127.92040905
 31
0.0
  0
LINE
  5
B4
330
1F
100
AcDbEntity
  8
0
  6
Continuous
 62
     7
370
    15
100
AcDbLine
 10
207.6023046661
 20
129.4438898387
 30
0.0
 11
198.8773046661
 21
127.92040905
 31
0.0
  0
LINE
  5
B5
330
1F
100
AcDbEntity
  8
0
  6
Continuous
 62
     7
370
    15
100
AcDbLine
 10
207.6717639371
 20
129.0216597191
 30
0.0
 11
207.6023046661
 21
129.4438898387
 31
0.0
  0
LINE
  5
B6
330
1F
100
AcDbEntity
  8
0
  6
Continuous
 62
     7
370
    15
100
AcDbLine
 10
207.3789436141
 20
128.6525576066
 30
0.0
 11
207.2679330477
 21
128.6331739429
 31
0.0
  0
ARC
  5
B7
330
1F
100
AcDbEntity
  8
0
  6
Continuous
 62
     7
370
    15
100
AcDbCircle
 10
198.9439960924
 20
127.5288124331
 30
0.0
 40
0.3972350144474988
100
AcDbArc
 50
99.6651090948
 51
179.7826137275
  0
SPLINE
  5
B8
330
1F
100
AcDbEntity
  8
0
  6
Continuous
 62
     7
370
    15
100
AcDbSpline
210
0.0
220
0.0
230
1.0
 70
     8
 71
     3
 72
    14
 73
    10
 74
     0
 42
0.00000001
 43
0.00000001
 40
0.0
 40
0.0
 40
0.0
 40
0.0
 40
0.3240421732228597
 40
0.4390834530322065
 40
0.5550339035688542
 40
0.6320175773817506
 40
0.7091777148405025
 40
0.812042978264798
 40
1.0
 40
1.0
 40
1.0
 40
1.0
 10
207.267933047652
 20
128.6331739429347
 30
0.0
 10
207.1903385304337
 20
128.6162334901711
 30
0.0
 10
207.0851964490257
 20
128.5932788468868
 30
0.0
 10
206.9674563118947
 20
128.526551595957
 30
0.0
 10
206.9119908006327
 20
128.4746438298728
 30
0.0
 10
206.8830409956179
 20
128.4148654988551
 30
0.0
 10
206.8779544147263
 20
128.351981833046
 30
0.0
 10
206.9025131626508
 20
128.265016452894
 30
0.0
 10
206.9437639870518
 20
128.2075690981891
 30
0.0
 10
206.9704241932815
 20
128.1704411535718
 30
0.0
  0
ARC
  5
B9
330
1F
100
AcDbEntity
  8
0
  6
Continuous
 62
     7
370
    15
100
AcDbCircle
 10
207.6729591257
 20
129.0513862683
 30
0.0
 40
0.3988121180280557
100
AcDbArc
 50
0.346826694
 51
100.2045134193
  0
SPLINE
  5
BA
330
1F
100
AcDbEntity
  8
0
  6
Continuous
 62
     7
370
    15
100
AcDbSpline
210
0.0
220
0.0
230
1.0
 70
     8
 71
     3
 72
    12
 73
     8
 74
     0
 42
0.00000001
 43
0.00000001
 40
0.0
 40
0.0
 40
0.0
 40
0.0
 40
0.4999999999999973
 40
0.4999999999999973
 40
0.7499999999999987
 40
0.7499999999999987
 40
1.0
 40
1.0
 40
1.0
 40
1.0
 10
191.057918478286
 20
114.6686806684289
 30
0.0
 10
191.8230435477377
 20
113.957011931372
 30
0.0
 10
192.5964591216062
 20
113.2647234081655
 30
0.0
 10
193.7816080374537
 20
112.2676800949548
 30
0.0
 10
194.182105874068
 20
111.9413913601815
 30
0.0
 10
194.988670293524
 20
111.3102612608852
 30
0.0
 10
195.3934428591791
 20
111.0063760839011
 30
0.0
 10
195.8011699197692
 20
110.715030592317
 30
0.0
  0
ELLIPSE
  5
BB
330
1F
100
AcDbEntity
  8
0
  6
Continuous
 62
     7
370
    15
100
AcDbEllipse
 10
204.28384789
 20
115.5749075975
 30
0.0
 11
17.84359884732979
 21
10.19999572757466
 31
0.0
210
0.0
220
0.0
230
1.0
 40
0.0005232068
 41
3.87721252947826
 42
4.216682042346008
  0
LINE
  5
BC
330
1F
100
AcDbEntity
  8
0
  6
Continuous
 62
     7
370
    15
100
AcDbLine
 10
191.0579184783
 20
108.0062136571
 30
0.0
 11
191.0579184783
 21
114.6686806684
 31
0.0
  0
SPLINE
  5
BD
330
1F
100
AcDbEntity
  8
0
  6
Continuous
 62
     7
370
    15
100
AcDbSpline
210
0.0
220
0.0
230
1.0
 70
     8
 71
     3
 72
    52
 73
    48
 74
     0
 42
0.00000001
 43
0.00000001
 40
-0.0624999999999967
 40
-0.0624999999999967
 40
0.0
 40
0.0
 40
0.0625000000000028
 40
0.0625000000000028
 40
0.0937500000000042
 40
0.0937500000000042
 40
0.1250000000000057
 40
0.1250000000000057
 40
0.1562500000000071
 40
0.1562500000000071
 40
0.1875000000000086
 40
0.1875000000000086
 40
0.21875000000001
 40
0.21875000000001
 40
0.2500000000000115
 40
0.2500000000000115
 40
0.2812500000000129
 40
0.2812500000000129
 40
0.3125000000000144
 40
0.3125000000000144
 40
0.3750000000000143
 40
0.3750000000000143
 40
0.4062500000000143
 40
0.4062500000000143
 40
0.4375000000000143
 40
0.4375000000000143
 40
0.5000000000000141
 40
0.5000000000000141
 40
0.562500000000014
 40
0.562500000000014
 40
0.6250000000000139
 40
0.6250000000000139
 40
0.6562500000000138
 40
0.6562500000000138
 40
0.6875000000000135
 40
0.6875000000000135
 40
0.7187500000000134
 40
0.7187500000000134
 40
0.7500000000000132
 40
0.7500000000000132
 40
0.81250000000001
 40
0.81250000000001
 40
0.8750000000000067
 40
0.8750000000000067
 40
0.9375000000000033
 40
0.9375000000000033
 40
1.0
 40
1.0
 40
1.062500000000003
 40
1.062500000000003
 10
191.3995437978758
 20
122.2839859787868
 30
0.0
 10
190.9826715958365
 20
122.062331097165
 30
0.0
 10
190.7962810951235
 20
121.9314596584162
 30
0.0
 10
190.5756568986772
 20
121.6864252413504
 30
0.0
 10
190.5137770992803
 20
121.5982274909892
 30
0.0
 10
190.4204194581355
 20
121.4033245629091
 30
0.0
 10
190.390223629201
 20
121.2984083043264
 30
0.0
 10
190.3730309438924
 20
121.0757548554972
 30
0.0
 10
190.3865984916678
 20
120.9593206425535
 30
0.0
 10
190.4600592908368
 20
120.7278663927872
 30
0.0
 10
190.520210376635
 20
120.6126804061306
 30
0.0
 10
190.6757098975064
 20
120.3992232476258
 30
0.0
 10
190.770079836624
 20
120.3013908217614
 30
0.0
 10
190.9797511573113
 20
120.1277832152003
 30
0.0
 10
191.0924159830125
 20
120.0538602144207
 30
0.0
 10
191.3274564341377
 20
119.9285615703951
 30
0.0
 10
191.45058632662
 20
119.8771802166901
 30
0.0
 10
191.6956591085981
 20
119.7978150317031
 30
0.0
 10
191.8191195483702
 20
119.7690225122331
 30
0.0
 10
192.1927234782782
 20
119.7118638399065
 30
0.0
 10
192.4352517549804
 20
119.7138380241597
 30
0.0
 10
192.7903223296767
 20
119.7643590479311
 30
0.0
 10
192.9078319598808
 20
119.7895140917265
 30
0.0
 10
193.1352316794544
 20
119.8537417996778
 30
0.0
 10
193.2458501982203
 20
119.8928655239463
 30
0.0
 10
193.5696725894225
 20
120.0297690146983
 30
0.0
 10
193.7770434399376
 20
120.148241410402
 30
0.0
 10
194.1614577493717
 20
120.4303868575092
 30
0.0
 10
194.3377443178223
 20
120.5921599143964
 30
0.0
 10
194.6505588042072
 20
120.9645012154891
 30
0.0
 10
194.7907014179565
 20
121.1778625623441
 30
0.0
 10
194.9158726306511
 20
121.5340013494035
 30
0.0
 10
194.9433577469243
 20
121.6603943261778
 30
0.0
 10
194.9396295697092
 20
121.9184557346542
 30
0.0
 10
194.9054774473341
 20
122.0494132802399
 30
0.0
 10
194.7584147334221
 20
122.2748400335011
 30
0.0
 10
194.6504108679323
 20
122.3636557057199
 30
0.0
 10
194.4152427898393
 20
122.4951122512971
 30
0.0
 10
194.2857964843786
 20
122.5409080581597
 30
0.0
 10
193.8971125447484
 20
122.6406265888031
 30
0.0
 10
193.6279426866865
 20
122.6617168587692
 30
0.0
 10
193.1046759786137
 20
122.662890061928
 30
0.0
 10
192.8467984727563
 20
122.641742423074
 30
0.0
 10
192.3384573926543
 20
122.5661459961658
 30
0.0
 10
192.0920622963773
 20
122.5118700895751
 30
0.0
 10
191.6232156222426
 20
122.3707082311542
 30
0.0
 10
191.3995437978758
 20
122.2839859787868
 30
0.0
 10
190.9826715958365
 20
122.062331097165
 30
0.0
  0
SPLINE
  5
BE
330
1F
100
AcDbEntity
  8
0
  6
Continuous
 62
     7
370
    15
100
AcDbSpline
210
0.0
220
0.0
230
1.0
 70
     8
 71
     3
 72
     8
 73
     4
 74
     0
 42
0.00000001
 43
0.00000001
 40
0.0
 40
0.0
 40
0.0
 40
0.0
 40
1.0
 40
1.0
 40
1.0
 40
1.0
 10
190.1821406567856
 20
115.5416682453049
 30
0.0
 10
190.0107642187783
 20
115.7147769157435
 30
0.0
 10
189.8371519643346
 20
115.8867772775656
 30
0.0
 10
189.6611961237847
 20
116.0576326351091
 30
0.0
  0
SPLINE
  5
BF
330
1F
100
AcDbEntity
  8
0
  6
Continuous
 62
     7
370
    15
100
AcDbSpline
210
0.0
220
0.0
230
1.0
 70
     8
 71
     3
 72
    42
 73
    38
 74
     0
 42
0.00000001
 43
0.00000001
 40
0.0
 40
0.0
 40
0.0
 40
0.0
 40
0.0625000000000007
 40
0.0625000000000007
 40
0.1250000000000014
 40
0.1250000000000014
 40
0.2500000000000014
 40
0.2500000000000014
 40
0.3125000000000006
 40
0.3125000000000006
 40
0.3749999999999999
 40
0.3749999999999999
 40
0.4374999999999992
 40
0.4374999999999992
 40
0.4999999999999984
 40
0.4999999999999984
 40
0.5624999999999977
 40
0.5624999999999977
 40
0.5937499999999976
 40
0.5937499999999976
 40
0.6249999999999973
 40
0.6249999999999973
 40
0.6562499999999971
 40
0.6562499999999971
 40
0.6874999999999969
 40
0.6874999999999969
 40
0.7187499999999967
 40
0.7187499999999967
 40
0.7499999999999963
 40
0.7499999999999963
 40
0.8124999999999972
 40
0.8124999999999972
 40
0.8749999999999982
 40
0.8749999999999982
 40
0.9374999999999991
 40
0.9374999999999991
 40
1.0
 40
1.0
 40
1.0
 40
1.0
 10
189.6611961237847
 20
116.0576326351091
 30
0.0
 10
189.3706290046274
 20
116.3397770008708
 30
0.0
 10
189.0805767384919
 20
116.6253218847161
 30
0.0
 10
188.5096110851963
 20
117.1952365809529
 30
0.0
 10
188.2278372536437
 20
117.480422338621
 30
0.0
 10
187.3945192688283
 20
118.336953162093
 30
0.0
 10
186.8543512545724
 20
118.9089157118958
 30
0.0
 10
186.078858771292
 20
119.7742396830104
 30
0.0
 10
185.8262289202742
 20
120.0641527060833
 30
0.0
 10
185.3457590509327
 20
120.6388203036472
 30
0.0
 10
185.1167910273486
 20
120.9246946002013
 30
0.0
 10
184.6898053059196
 20
121.4955472517009
 30
0.0
 10
184.4907691204639
 20
121.7821622881319
 30
0.0
 10
184.1487598595901
 20
122.3422815578511
 30
0.0
 10
184.0042339965129
 20
122.6170931693176
 30
0.0
 10
183.7956695230953
 20
123.1578018841293
 30
0.0
 10
183.7354894056559
 20
123.4150282655639
 30
0.0
 10
183.7368089145658
 20
123.7762670826585
 30
0.0
 10
183.753008960596
 20
123.8922925389239
 30
0.0
 10
183.8175448327482
 20
124.1077571566206
 30
0.0
 10
183.8658098097589
 20
124.2084074828527
 30
0.0
 10
183.9949290443023
 20
124.3965706101922
 30
0.0
 10
184.0766691422241
 20
124.4845326889584
 30
0.0
 10
184.2659343681367
 20
124.6428470147715
 30
0.0
 10
184.3737524113861
 20
124.7140423445222
 30
0.0
 10
184.612816532737
 20
124.8434079303669
 30
0.0
 10
184.7446582913119
 20
124.9016742374614
 30
0.0
 10
185.0220819081321
 20
125.0050395534156
 30
0.0
 10
185.1683814877119
 20
125.0505991027296
 30
0.0
 10
185.6263437365952
 20
125.1731559177305
 30
0.0
 10
185.9592252298486
 20
125.236558769869
 30
0.0
 10
186.6518273810048
 20
125.3384725737038
 30
0.0
 10
187.0094648032837
 20
125.3768567497619
 30
0.0
 10
187.7417354405872
 20
125.4386348854248
 30
0.0
 10
188.1164332290977
 20
125.4619125597468
 30
0.0
 10
188.8798523149495
 20
125.4989794349264
 30
0.0
 10
189.2699720734732
 20
125.5127485989392
 30
0.0
 10
189.6611961237847
 20
125.5234056568797
 30
0.0
  0
SPLINE
  5
C0
330
1F
100
AcDbEntity
  8
0
  6
Continuous
 62
     7
370
    15
100
AcDbSpline
210
0.0
220
0.0
230
1.0
 70
     8
 71
     3
 72
     8
 73
     4
 74
     0
 42
0.00000001
 43
0.00000001
 40
0.0
 40
0.0
 40
0.0
 40
0.0
 40
1.0
 40
1.0
 40
1.0
 40
1.0
 10
189.6611961237848
 20
125.5234056568794
 30
0.0
 10
189.8372317451171
 20
125.5282009188645
 30
0.0
 10
190.0107339479889
 20
125.5483614417108
 30
0.0
 10
190.1821406567856
 20
125.5831307411476
 30
0.0
  0
SPLINE
  5
C1
330
1F
100
AcDbEntity
  8
0
  6
Continuous
 62
     7
370
    15
100
AcDbSpline
210
0.0
220
0.0
230
1.0
 70
     8
 71
     3
 72
    10
 73
     6
 74
     0
 42
0.00000001
 43
0.00000001
 40
0.0
 40
0.0
 40
0.0
 40
0.0
 40
0.5
 40
0.5
 40
1.0
 40
1.0
 40
1.0
 40
1.0
 10
190.1821406567855
 20
125.5831307411479
 30
0.0
 10
190.850189405621
 20
125.7186422806301
 30
0.0
 10
191.5260470651633
 20
125.8449456925119
 30
0.0
 10
192.8887319551076
 20
126.0936698468432
 30
0.0
 10
193.5756346992339
 20
126.2158709182476
 30
0.0
 10
194.2673977932347
 20
126.338252655332
 30
0.0
  0
SPLINE
  5
C2
330
1F
100
AcDbEntity
  8
0
  6
Continuous
 62
     7
370
    15
100
AcDbSpline
210
0.0
220
0.0
230
1.0
 70
     8
 71
     3
 72
    36
 73
    32
 74
     0
 42
0.00000001
 43
0.00000001
 40
0.0
 40
0.0
 40
0.0
 40
0.0
 40
0.0625000000000043
 40
0.0625000000000043
 40
0.1250000000000085
 40
0.1250000000000085
 40
0.1875000000000128
 40
0.1875000000000128
 40
0.250000000000017
 40
0.250000000000017
 40
0.3750000000000195
 40
0.3750000000000195
 40
0.4375000000000177
 40
0.4375000000000177
 40
0.5000000000000158
 40
0.5000000000000158
 40
0.5625000000000139
 40
0.5625000000000139
 40
0.6250000000000121
 40
0.6250000000000121
 40
0.6875000000000102
 40
0.6875000000000102
 40
0.7500000000000083
 40
0.7500000000000083
 40
0.8125000000000063
 40
0.8125000000000063
 40
0.8750000000000042
 40
0.8750000000000042
 40
0.9375000000000022
 40
0.9375000000000022
 40
1.0
 40
1.0
 40
1.0
 40
1.0
 10
200.9020023066437
 20
118.6933297154296
 30
0.0
 10
200.8611414465053
 20
118.5649947877383
 30
0.0
 10
200.804613328314
 20
118.4436348191824
 30
0.0
 10
200.6632555392751
 20
118.2186754595147
 30
0.0
 10
200.5771571556444
 20
118.1139794295656
 30
0.0
 10
200.3848315801465
 20
117.93242208796
 30
0.0
 10
200.2764068083486
 20
117.85317696257
 30
0.0
 10
200.0436800030943
 20
117.7242735978563
 30
0.0
 10
199.9209012870114
 20
117.6749380496637
 30
0.0
 10
199.5331132048237
 20
117.571868501321
 30
0.0
 10
199.2550926603903
 20
117.567510646796
 30
0.0
 10
198.8603877415668
 20
117.6562627020593
 30
0.0
 10
198.729756137112
 20
117.7023742322104
 30
0.0
 10
198.4865648387135
 20
117.8222740780436
 30
0.0
 10
198.3717436344842
 20
117.8967281134469
 30
0.0
 10
198.1620548105662
 20
118.0718487449577
 30
0.0
 10
198.0698158021035
 20
118.169967752473
 30
0.0
 10
197.9102093907472
 20
118.3870572476951
 30
0.0
 10
197.8441018433549
 20
118.5051367226328
 30
0.0
 10
197.7442998338179
 20
118.749665431006
 30
0.0
 10
197.7095441541911
 20
118.879147527862
 30
0.0
 10
197.6739862232867
 20
119.1374910774737
 30
0.0
 10
197.6725065456272
 20
119.2683663880501
 30
0.0
 10
197.7026291926442
 20
119.5276403292227
 30
0.0
 10
197.733622884145
 20
119.6531052354951
 30
0.0
 10
197.8271055333321
 20
119.8962410617162
 30
0.0
 10
197.8898161786103
 20
120.0130324220878
 30
0.0
 10
198.0410806713868
 20
120.2264174291103
 30
0.0
 10
198.1317560105729
 20
120.3258484012909
 30
0.0
 10
198.3338817685791
 20
120.49884372881
 30
0.0
 10
198.4448837798789
 20
120.5728132724732
 30
0.0
 10
198.5661648311542
 20
120.6337272048233
 30
0.0
  0
ELLIPSE
  5
C3
330
1F
100
AcDbEntity
  8
0
  6
Continuous
 62
     7
370
    15
100
AcDbEllipse
 10
203.0237619717
 20
119.2519656884
 30
0.0
 11
14.43287135988942
 21
2.537027342532667
 31
0.0
210
0.0
220
0.0
230
1.0
 40
0.0126200975
 41
4.562627401819203
 42
4.62266561379639
  0
ELLIPSE
  5
C4
330
1F
100
AcDbEntity
  8
0
  6
Continuous
 62
     7
370
    15
100
AcDbEllipse
 10
205.8323397042
 20
116.4433879558
 30
0.0
 11
10.79829105393347
 21
6.172271035568484
 31
0.0
210
0.0
220
0.0
230
1.0
 40
0.0010222726
 41
1.669644772238344
 42
2.761802323915752
  0
SPLINE
  5
C5
330
1F
100
AcDbEntity
  8
0
  6
Continuous
 62
     7
370
    15
100
AcDbSpline
210
0.0
220
0.0
230
1.0
 70
     8
 71
     3
 72
     8
 73
     4
 74
     0
 42
0.00000001
 43
0.00000001
 40
0.0
 40
0.0
 40
0.0
 40
0.0
 40
1.0
 40
1.0
 40
1.0
 40
1.0
 10
191.0579184782861
 20
114.6686806684289
 30
0.0
 10
190.7635774453915
 20
114.9583033080546
 30
0.0
 10
190.4716065063076
 20
115.2492765435587
 30
0.0
 10
190.1821406567855
 20
115.5416682453049
 30
0.0
  0
ELLIPSE
  5
C6
330
1F
100
AcDbEntity
  8
0
  6
Continuous
 62
     7
370
    15
100
AcDbEllipse
 10
211.7574422272
 20
119.8470616218
 30
0.0
 11
24.22860633291234
 21
13.84987830397866
 31
0.0
210
0.0
220
0.0
230
1.0
 40
0.0004976935
 41
3.613686336558225
 42
3.687820501465577
  0
SPLINE
  5
C7
330
1F
100
AcDbEntity
  8
0
  6
Continuous
 62
     7
370
    15
100
AcDbSpline
210
0.0
220
0.0
230
1.0
 70
     8
 71
     3
 72
     8
 73
     4
 74
     0
 42
0.00000001
 43
0.00000001
 40
0.0
 40
0.0
 40
0.0
 40
0.0
 40
1.0
 40
1.0
 40
1.0
 40
1.0
 10
189.6611961237848
 20
107.2094497879237
 30
0.0
 10
189.8425708224841
 20
107.3129378446386
 30
0.0
 10
190.0152130692614
 20
107.4114196389546
 30
0.0
 10
190.1821406567856
 20
107.5066252533389
 30
0.0
  0
ELLIPSE
  5
C8
330
1F
100
AcDbEntity
  8
0
  6
Continuous
 62
     7
370
    15
100
AcDbEllipse
 10
204.28384789
 20
115.5749075975
 30
0.0
 11
17.49372435980402
 21
9.999995811162934
 31
0.0
210
0.0
220
0.0
230
1.0
 40
0.0005232068
 41
3.142507937254891
 42
3.722356227313605
  0
LINE
  5
C9
330
1F
100
AcDbEntity
  8
0
  6
Continuous
 62
     7
370
    15
100
AcDbLine
 10
180.0717639371
 20
105.5749075975
 30
0.0
 11
180.0717639371
 21
125.5749075975
 31
0.0
  0
LINE
  5
CA
330
1F
100
AcDbEntity
  8
0
  6
Continuous
 62
     7
370
    15
100
AcDbLine
 10
178.0717639371
 20
107.5749075975
 30
0.0
 11
178.0717639371
 21
123.5749075975
 31
0.0
  0
LINE
  5
CB
330
1F
100
AcDbEntity
  8
0
  6
Continuous
 62
     7
370
    15
100
AcDbLine
 10
93.0717639371
 20
108.9499075975
 30
0.0
 11
93.0717639371
 21
121.7749075975
 31
0.0
  0
SPLINE
  5
CC
330
1F
100
AcDbEntity
  8
0
  6
Continuous
 62
     7
370
    15
100
AcDbSpline
210
0.0
220
0.0
230
1.0
 70
    24
 71
     3
 72
    10
 73
     6
 74
     0
 42
0.00000001
 43
0.00000001
 40
0.0
 40
0.0
 40
0.0
 40
0.0
 40
0.5
 40
0.5
 40
1.0
 40
1.0
 40
1.0
 40
1.0
 10
94.4467639371391
 20
121.7749075975359
 30
0.0
 10
94.17452374982189
 20
121.7749075975359
 30
0.0
 10
93.91615964163388
 20
121.7749075975359
 30
0.0
 10
93.4500936238185
 20
121.7749075975359
 30
0.0
 10
93.24150312069082
 20
121.7749075975359
 30
0.0
 10
93.07176393713908
 20
121.7749075975359
 30
0.0
  0
LINE
  5
CD
330
1F
100
AcDbEntity
  8
0
  6
Continuous
 62
     7
370
    15
100
AcDbLine
 10
94.4467639371
 20
107.5749075975
 30
0.0
 11
94.4467639371
 21
121.7749075975
 31
0.0
  0
LINE
  5
CE
330
1F
100
AcDbEntity
  8
0
  6
Continuous
 62
     7
370
    15
100
AcDbLine
 10
102.5717639371
 20
121.7749075975
 30
0.0
 11
94.4467639371
 21
121.7749075975
 31
0.0
  0
LINE
  5
CF
330
1F
100
AcDbEntity
  8
0
  6
Continuous
 62
     7
370
    15
100
AcDbLine
 10
104.3717639371
 20
123.5749075975
 30
0.0
 11
102.5717639371
 21
121.7749075975
 31
0.0
  0
LINE
  5
D0
330
1F
100
AcDbEntity
  8
0
  6
Continuous
 62
     7
370
    15
100
AcDbLine
 10
109.0717639371
 20
121.7749075975
 30
0.0
 11
107.2717639371
 21
123.5749075975
 31
0.0
  0
LINE
  5
D1
330
1F
100
AcDbEntity
  8
0
  6
Continuous
 62
     7
370
    15
100
AcDbLine
 10
117.0717639371
 20
121.7749075975
 30
0.0
 11
109.0717639371
 21
121.7749075975
 31
0.0
  0
LINE
  5
D2
330
1F
100
AcDbEntity
  8
0
  6
Continuous
 62
     7
370
    15
100
AcDbLine
 10
118.8717639371
 20
123.5749075975
 30
0.0
 11
117.0717639371
 21
121.7749075975
 31
0.0
  0
LINE
  5
D3
330
1F
100
AcDbEntity
  8
0
  6
Continuous
 62
     7
370
    15
100
AcDbLine
 10
123.5717639371
 20
121.7749075975
 30
0.0
 11
121.7717639371
 21
123.5749075975
 31
0.0
  0
LINE
  5
D4
330
1F
100
AcDbEntity
  8
0
  6
Continuous
 62
     7
370
    15
100
AcDbLine
 10
131.5717639371
 20
121.7749075975
 30
0.0
 11
123.5717639371
 21
121.7749075975
 31
0.0
  0
LINE
  5
D5
330
1F
100
AcDbEntity
  8
0
  6
Continuous
 62
     7
370
    15
100
AcDbLine
 10
133.3717639371
 20
123.5749075975
 30
0.0
 11
131.5717639371
 21
121.7749075975
 31
0.0
  0
LINE
  5
D6
330
1F
100
AcDbEntity
  8
0
  6
Continuous
 62
     7
370
    15
100
AcDbLine
 10
138.0717639371
 20
121.7749075975
 30
0.0
 11
136.2717639371
 21
123.5749075975
 31
0.0
  0
LINE
  5
D7
330
1F
100
AcDbEntity
  8
0
  6
Continuous
 62
     7
370
    15
100
AcDbLine
 10
146.0717639371
 20
121.7749075975
 30
0.0
 11
138.0717639371
 21
121.7749075975
 31
0.0
  0
LINE
  5
D8
330
1F
100
AcDbEntity
  8
0
  6
Continuous
 62
     7
370
    15
100
AcDbLine
 10
147.8717639371
 20
123.5749075975
 30
0.0
 11
146.0717639371
 21
121.7749075975
 31
0.0
  0
LINE
  5
D9
330
1F
100
AcDbEntity
  8
0
  6
Continuous
 62
     7
370
    15
100
AcDbLine
 10
152.5717639371
 20
121.7749075975
 30
0.0
 11
150.7717639371
 21
123.5749075975
 31
0.0
  0
LINE
  5
DA
330
1F
100
AcDbEntity
  8
0
  6
Continuous
 62
     7
370
    15
100
AcDbLine
 10
160.5717639371
 20
121.7749075975
 30
0.0
 11
152.5717639371
 21
121.7749075975
 31
0.0
  0
LINE
  5
DB
330
1F
100
AcDbEntity
  8
0
  6
Continuous
 62
     7
370
    15
100
AcDbLine
 10
162.3717639371
 20
123.5749075975
 30
0.0
 11
160.5717639371
 21
121.7749075975
 31
0.0
  0
ARC
  5
DC
330
1F
100
AcDbEntity
  8
0
  6
Continuous
 62
     7
370
    15
100
AcDbCircle
 10
199.3111930935
 20
118.6302320977
 30
0.0
 40
1.63449756130705
100
AcDbArc
 50
117.8840963687
 51
171.9648722729
  0
LINE
  5
DD
330
1F
100
AcDbEntity
  8
0
  6
Continuous
 62
     7
370
    15
100
AcDbLine
 10
207.747207025
 20
119.8882379926
 30
0.0
 11
201.7624216818
 21
118.8432287668
 31
0.0
  0
LINE
  5
DE
330
1F
100
AcDbEntity
  8
0
  6
Continuous
 62
     7
370
    15
100
AcDbLine
 10
207.747207025
 20
118.6878359853
 30
0.0
 11
207.747207025
 21
119.8882379926
 31
0.0
  0
ELLIPSE
  5
DF
330
1F
100
AcDbEntity
  8
0
  6
Continuous
 62
     7
370
    15
100
AcDbEllipse
 10
205.732187374
 20
118.7049463938
 30
0.0
 11
1.947284583039617
 21
-0.52698918114217
 31
0.0
210
0.0
220
0.0
230
0.9999999999999998
 40
0.9830576678
 41
5.504603794413031
 42
6.54320502249228
  0
LINE
  5
E0
330
1F
100
AcDbEntity
  8
0
  6
Continuous
 62
     7
370
    15
100
AcDbLine
 10
204.7604038832
 20
115.8452465654
 30
0.0
 11
206.7546608733
 21
116.9854261777
 31
0.0
  0
SPLINE
  5
E1
330
1F
100
AcDbEntity
  8
0
  6
Continuous
 62
     7
370
    15
100
AcDbSpline
210
0.0
220
0.0
230
1.0
 70
     8
 71
     3
 72
     8
 73
     4
 74
     0
 42
0.00000001
 43
0.00000001
 40
0.0
 40
0.0
 40
0.0
 40
0.0
 40
1.0
 40
1.0
 40
1.0
 40
1.0
 10
194.2673977932347
 20
126.338252655332
 30
0.0
 10
195.6938147524199
 20
126.5906040553785
 30
0.0
 10
197.1202724904087
 20
126.8427290415476
 30
0.0
 10
198.5467633235386
 20
127.0946702754096
 30
0.0
  0
ARC
  5
E2
330
1F
100
AcDbEntity
  8
0
  6
HIDDEN
 62
     7
370
     0
100
AcDbCircle
 10
203.6846591815
 20
122.3670977227
 30
0.0
 40
0.3351164801281977
100
AcDbArc
 50
213.4744228104
 51
6.2727952465
  0
ARC
  5
E3
330
1F
100
AcDbEntity
  8
0
  6
HIDDEN
 62
     7
370
     0
100
AcDbCircle
 10
202.3629786476
 20
122.5949061162
 30
0.0
 40
0.3337732884172194
100
AcDbArc
 50
153.655159155
 51
307.0028355104
  0
ARC
  5
E4
330
1F
100
AcDbEntity
  8
0
  6
HIDDEN
 62
     7
370
     0
100
AcDbCircle
 10
204.5961794303
 20
122.4706390393
 30
0.0
 40
0.5822691188321003
100
AcDbArc
 50
92.9546086181
 51
186.6001335262
  0
ARC
  5
E5
330
1F
100
AcDbEntity
  8
0
  6
HIDDEN
 62
     7
370
     0
100
AcDbCircle
 10
203.2272572417
 20
123.6500029554
 30
0.0
 40
2.625071798759787
100
AcDbArc
 50
0.4237663797
 51
179.5762336203
  0
ARC
  5
E6
330
1F
100
AcDbEntity
  8
0
  6
HIDDEN
 62
     7
370
     0
100
AcDbCircle
 10
201.5459853903
 20
123.0025207927
 30
0.0
 40
0.5804119929064785
100
AcDbArc
 50
0.1363298892
 51
67.1894825062
  0
ARC
  5
E7
330
1F
100
AcDbEntity
  8
0
  6
HIDDEN
 62
     7
370
     0
100
AcDbCircle
 10
204.5496149327
 20
123.383634189
 30
0.0
 40
0.3319129971290446
100
AcDbArc
 50
272.8583625828
 51
21.791039483
  0
ARC
  5
E8
330
1F
100
AcDbEntity
  8
0
  6
HIDDEN
 62
     7
370
     0
100
AcDbCircle
 10
201.898699575
 20
123.8425646334
 30
0.0
 40
0.3306760753473952
100
AcDbArc
 50
164.4454382536
 51
247.2835873848
  0
ARC
  5
E9
330
1F
100
AcDbEntity
  8
0
  6
HIDDEN
 62
     7
370
     0
100
AcDbCircle
 10
204.8992230644
 20
124.2218274484
 30
0.0
 40
0.5757988462636344
100
AcDbArc
 50
153.0512956478
 51
179.9928814987
  0
LINE
  5
EA
330
1F
100
AcDbEntity
  8
0
  6
HIDDEN
 62
     7
370
     0
100
AcDbLine
 10
202.4361864771
 20
124.753250388
 30
0.0
 11
202.4320506613
 21
124.8220874752
 31
0.0
  0
ARC
  5
EB
330
1F
100
AcDbEntity
  8
0
  6
HIDDEN
 62
     7
370
     0
100
AcDbCircle
 10
204.0928609585
 20
124.6318316972
 30
0.0
 40
0.3288134096442382
100
AcDbArc
 50
333.0433490506
 51
17.2110702499
  0
LWPOLYLINE
  5
EC
330
1F
100
AcDbEntity
  8
0
  6
HIDDEN
 62
     7
370
     0
100
AcDbPolyline
 90
        3
 70
   128
 43
0.0
 10
202.4320506613
 20
124.8220874752
 10
202.4374761784
 20
124.9325422457
 10
202.4528091691
 20
124.9825315955
  0
ARC
  5
ED
330
1F
100
AcDbEntity
  8
0
  6
HIDDEN
 62
     7
370
     0
100
AcDbCircle
 10
202.9149194166
 20
121.8546633331
 30
0.0
 40
0.5895959146237351
100
AcDbArc
 50
33.753978084
 51
126.5426511313
  0
ARC
  5
EE
330
1F
100
AcDbEntity
  8
0
  6
HIDDEN
 62
     7
370
     0
100
AcDbCircle
 10
203.2273007176
 20
123.3162948758
 30
0.0
 40
2.017138779192706
100
AcDbArc
 50
260.0845742318
 51
295.5195659857
  0
ARC
  5
EF
330
1F
100
AcDbEntity
  8
0
  6
HIDDEN
 62
     7
370
     0
100
AcDbCircle
 10
203.232646169
 20
123.2916885793
 30
0.0
 40
1.993843128227176
100
AcDbArc
 50
306.5542622715
 51
259.811501098
  0
ARC
  5
F0
330
1F
100
AcDbEntity
  8
0
  6
HIDDEN
 62
     7
370
     0
100
AcDbCircle
 10
203.2400665071
 20
122.5698479625
 30
0.0
 40
1.983310474773044
100
AcDbArc
 50
259.5388981025
 51
34.1721315319
  0
ARC
  5
F1
330
1F
100
AcDbEntity
  8
0
  6
HIDDEN
 62
     7
370
     0
100
AcDbCircle
 10
203.2268778961
 20
122.5767873782
 30
0.0
 40
1.98779084750779
100
AcDbArc
 50
39.8452649136
 51
259.9490468101
  0
CIRCLE
  5
F2
330
1F
100
AcDbEntity
  8
0
  6
HIDDEN
 62
     7
370
     0
100
AcDbCircle
 10
203.2201353819
 20
122.5683634954
 30
0.0
 40
1.892982539387266
  0
LINE
  5
F3
330
1F
100
AcDbEntity
  8
0
  6
HIDDEN
 62
     7
370
     0
100
AcDbLine
 10
198.9467639371
 20
118.3035538043
 30
0.0
 11
198.5467639371
 21
118.7569433834
 31
0.0
  0
LINE
  5
F4
330
1F
100
AcDbEntity
  8
0
  6
HIDDEN
 62
     7
370
     0
100
AcDbLine
 10
207.6717639371
 20
119.8270345931
 30
0.0
 11
207.7369589452
 21
119.8864485654
 31
0.0
  0
LINE
  5
F5
330
1F
100
AcDbEntity
  8
0
  6
HIDDEN
 62
     7
370
     0
100
AcDbLine
 10
207.5843092304
 20
119.8005760132
 30
0.0
 11
207.6717639371
 21
119.8270345931
 31
0.0
  0
LINE
  5
F6
330
1F
100
AcDbEntity
  8
0
  6
HIDDEN
 62
     7
370
     0
100
AcDbLine
 10
200.8728455733
 20
118.6286807758
 30
0.0
 11
207.5843092304
 21
119.8005760132
 31
0.0
  0
LINE
  5
F7
330
1F
100
AcDbEntity
  8
0
  6
HIDDEN
 62
     7
370
     0
100
AcDbLine
 10
207.6717639371
 20
119.8270345931
 30
0.0
 11
208.0717639371
 21
120.2804241722
 31
0.0
  0
ARC
  5
F8
330
1F
100
AcDbEntity
  8
0
  6
HIDDEN
 62
     7
370
     0
100
AcDbCircle
 10
203.3092639371
 20
123.7666188936
 30
0.0
 40
3.049494813269849
100
AcDbArc
 50
178.8965055489
 51
1.1034944605
  0
LINE
  5
F9
330
1F
100
AcDbEntity
  8
0
  6
HIDDEN
 62
     7
370
     0
100
AcDbLine
 10
207.5843092304
 20
128.3980730035
 30
0.0
 11
207.6717639371
 21
128.600410791
 31
0.0
  0
LINE
  5
FA
330
1F
100
AcDbEntity
  8
0
  6
HIDDEN
 62
     7
370
     0
100
AcDbLine
 10
199.0342186439
 20
126.9051333186
 30
0.0
 11
198.9467639371
 21
127.0769300022
 31
0.0
  0
LINE
  5
FB
330
1F
100
AcDbEntity
  8
0
  6
HIDDEN
 62
     7
370
     0
100
AcDbLine
 10
198.9467639371
 20
127.0769300022
 30
0.0
 11
198.8773046661
 21
127.92040905
 31
0.0
  0
LINE
  5
FC
330
1F
100
AcDbEntity
  8
0
  6
HIDDEN
 62
     7
370
     0
100
AcDbLine
 10
198.9467639371
 20
127.0769300022
 30
0.0
 11
198.5467639371
 21
127.5303195813
 31
0.0
  0
LINE
  5
FD
330
1F
100
AcDbEntity
  8
0
  6
HIDDEN
 62
     7
370
     0
100
AcDbLine
 10
207.6717639371
 20
128.600410791
 30
0.0
 11
207.6023046661
 21
129.4438898387
 31
0.0
  0
LINE
  5
FE
330
1F
100
AcDbEntity
  8
0
  6
HIDDEN
 62
     7
370
     0
100
AcDbLine
 10
207.6717639371
 20
128.600410791
 30
0.0
 11
208.0717639371
 21
129.0538003701
 31
0.0
  0
LWPOLYLINE
  5
FF
330
1F
100
AcDbEntity
  8
0
  6
HIDDEN
 62
     7
370
     0
100
AcDbPolyline
 90
        3
 70
   128
 43
0.0
 10
201.1092639371
 20
123.548625375
 10
201.1731919388
 20
123.0272547215
 10
201.1831032113
 20
122.9889350365
  0
LINE
  5
100
330
1F
100
AcDbEntity
  8
0
  6
HIDDEN
 62
     7
370
     0
100
AcDbLine
 10
205.5092639371
 20
123.548625375
 30
0.0
 11
205.5084319032
 21
123.6085366503
 31
0.0
  0
CIRCLE
  5
101
330
1F
100
AcDbEntity
  8
0
  6
HIDDEN
 62
     7
370
     0
100
AcDbCircle
 10
203.2935790312
 20
123.3496288896
 30
0.0
 40
2.184317475908455
  0
LINE
  5
102
330
1F
100
AcDbEntity
  8
0
  6
HIDDEN
 62
     7
370
     0
100
AcDbLine
 10
207.5843092304
 20
128.3980730035
 30
0.0
 11
199.0342186439
 21
126.9051333186
 31
0.0
  0
LINE
  5
103
330
1F
100
AcDbEntity
  8
0
  6
HIDDEN
 62
     7
370
     0
100
AcDbLine
 10
207.5843092304
 20
119.8005760132
 30
0.0
 11
207.5843092304
 21
128.3980730035
 31
0.0
  0
LINE
  5
104
330
1F
100
AcDbEntity
  8
0
  6
HIDDEN
 62
     7
370
     0
100
AcDbLine
 10
199.0342186439
 20
126.9051333186
 30
0.0
 11
199.0342186439
 21
118.3076363283
 31
0.0
  0
ELLIPSE
  5
105
330
1F
100
AcDbEntity
  8
0
  6
HIDDEN
 62
     7
370
     0
100
AcDbEllipse
 10
197.0979061185
 20
125.1778215416
 30
0.0
 11
-0.2715540491162756
 21
17.17823796609446
 31
0.0
210
0.0
220
0.0
230
1.0
 40
0.0843028544
 41
4.443343955021088
 42
4.527026800873185
  0
ELLIPSE
  5
106
330
1F
100
AcDbEntity
  8
0
  6
HIDDEN
 62
     7
370
     0
100
AcDbEllipse
 10
204.28384789
 20
115.5749075975
 30
0.0
 11
17.49372435980402
 21
9.999995811162934
 31
0.0
210
0.0
220
0.0
230
1.0
 40
0.0005232068
 41
2.560230915044968
 42
3.142507937254891
  0
SPLINE
  5
107
330
1F
100
AcDbEntity
  8
0
  6
HIDDEN
 62
     7
370
     0
100
AcDbSpline
210
0.0
220
0.0
230
1.0
 70
     8
 71
     3
 72
    20
 73
    16
 74
     0
 42
0.00000001
 43
0.00000001
 40
0.0
 40
0.0
 40
0.0
 40
0.0
 40
0.1250000000000001
 40
0.1250000000000001
 40
0.2500000000000001
 40
0.2500000000000001
 40
0.3750000000000002
 40
0.3750000000000002
 40
0.5000000000000002
 40
0.5000000000000002
 40
0.7500000000000002
 40
0.7500000000000002
 40
0.8750000000000001
 40
0.8750000000000001
 40
1.0
 40
1.0
 40
1.0
 40
1.0
 10
183.0717639371391
 20
116.5096015173098
 30
0.0
 10
183.0975890594688
 20
116.4073815251512
 30
0.0
 10
183.1233916153979
 20
116.3042665506295
 30
0.0
 10
183.1753813674537
 20
116.0963835462326
 30
0.0
 10
183.2018971416207
 20
115.9903242901988
 30
0.0
 10
183.2536883236237
 20
115.7843613875578
 30
0.0
 10
183.2790080763772
 20
115.6843395098025
 30
0.0
 10
183.3282745669869
 20
115.4903414040498
 30
0.0
 10
183.3521683681662
 20
115.3966980390954
 30
0.0
 10
183.4161461066827
 20
115.138720807081
 30
0.0
 10
183.4503015811454
 20
114.9911799395056
 30
0.0
 10
183.4622725549512
 20
114.820479102799
 30
0.0
 10
183.4596274422595
 20
114.7709631578741
 30
0.0
 10
183.4424096836294
 20
114.6921615792608
 30
0.0
 10
183.4281246130499
 20
114.6621845719246
 30
0.0
 10
183.4101031276009
 20
114.6431911192004
 30
0.0
  0
SPLINE
  5
108
330
1F
100
AcDbEntity
  8
0
  6
HIDDEN
 62
     7
370
     0
100
AcDbSpline
210
0.0
220
0.0
230
1.0
 70
     8
 71
     3
 72
    11
 73
     7
 74
     0
 42
0.00000001
 43
0.00000001
 40
0.0
 40
0.0
 40
0.0
 40
0.0
 40
0.272889500957605
 40
0.6062369989566997
 40
0.9389642026844072
 40
0.9999999999999999
 40
0.9999999999999999
 40
0.9999999999999999
 40
0.9999999999999999
 10
183.3872868055916
 20
114.6430055493653
 30
0.0
 10
183.3619502350805
 20
114.6339691729818
 30
0.0
 10
183.3056638392443
 20
114.613894433276
 30
0.0
 10
183.1991314895676
 20
114.7851397721183
 30
0.0
 10
183.1200098781282
 20
115.002065692113
 30
0.0
 10
183.0782387332163
 20
115.1450810212628
 30
0.0
 10
183.0717639371391
 20
115.1672493169632
 30
0.0
  0
SPLINE
  5
109
330
1F
100
AcDbEntity
  8
0
  6
HIDDEN
 62
     7
370
     0
100
AcDbSpline
210
0.0
220
0.0
230
1.0
 70
     8
 71
     3
 72
    36
 73
    32
 74
     0
 42
0.00000001
 43
0.00000001
 40
0.0
 40
0.0
 40
0.0
 40
0.0
 40
0.0624999999999997
 40
0.0624999999999997
 40
0.1249999999999994
 40
0.1249999999999994
 40
0.1874999999999992
 40
0.1874999999999992
 40
0.2499999999999989
 40
0.2499999999999989
 40
0.3124999999999986
 40
0.3124999999999986
 40
0.3749999999999983
 40
0.3749999999999983
 40
0.4374999999999982
 40
0.4374999999999982
 40
0.499999999999998
 40
0.499999999999998
 40
0.6249999999999984
 40
0.6249999999999984
 40
0.6874999999999987
 40
0.6874999999999987
 40
0.749999999999999
 40
0.749999999999999
 40
0.8124999999999992
 40
0.8124999999999992
 40
0.8749999999999996
 40
0.8749999999999996
 40
0.9374999999999998
 40
0.9374999999999998
 40
1.0
 40
1.0
 40
1.0
 40
1.0
 10
180.9724765726443
 20
115.007342030746
 30
0.0
 10
181.074562453671
 20
115.0557788110486
 30
0.0
 10
181.1741666310195
 20
115.1115918594125
 30
0.0
 10
181.3470691098028
 20
115.2571114747221
 30
0.0
 10
181.4173669526923
 20
115.3503439122005
 30
0.0
 10
181.5015162339609
 20
115.5618011800959
 30
0.0
 10
181.5189746552905
 20
115.6775387494109
 30
0.0
 10
181.535423450065
 20
115.9035575627532
 30
0.0
 10
181.5347385878454
 20
116.0150124734745
 30
0.0
 10
181.5302411653571
 20
116.2265484084916
 30
0.0
 10
181.52601726833
 20
116.3290346397279
 30
0.0
 10
181.5195921210183
 20
116.5167401461536
 30
0.0
 10
181.5172552634328
 20
116.6026124262712
 30
0.0
 10
181.5172358079806
 20
116.7579596873718
 30
0.0
 10
181.5195414030116
 20
116.8248022384752
 30
0.0
 10
181.5303361328876
 20
116.9364465241993
 30
0.0
 10
181.5389862278274
 20
116.9816123057135
 30
0.0
 10
181.5753170819379
 20
117.0775282897578
 30
0.0
 10
181.6138916878323
 20
117.0908749852773
 30
0.0
 10
181.6974773024076
 20
117.0377178493513
 30
0.0
 10
181.7300883347423
 20
117.0075989362028
 30
0.0
 10
181.8054369332357
 20
116.9281676898581
 30
0.0
 10
181.8485681664904
 20
116.8781236288541
 30
0.0
 10
181.9545413090721
 20
116.7649448538159
 30
0.0
 10
182.0171846897514
 20
116.7015166529437
 30
0.0
 10
182.1787912651316
 20
116.5879955555055
 30
0.0
 10
182.2803250676614
 20
116.5414236205059
 30
0.0
 10
182.5005134825794
 20
116.4919825990094
 30
0.0
 10
182.616080186697
 20
116.48588129793
 30
0.0
 10
182.8445300813001
 20
116.4887912823298
 30
0.0
 10
182.9589112582944
 20
116.4978395852474
 30
0.0
 10
183.0717639371391
 20
116.5096015173098
 30
0.0
  0
LWPOLYLINE
  5
10A
330
1F
100
AcDbEntity
  8
0
  6
HIDDEN
 62
     7
370
     0
100
AcDbPolyline
 90
       13
 70
   128
 43
0.0
 10
180.9724765726
 20
115.0073420307
 10
181.1809291264
 20
114.6408766017
 10
181.3899936982
 20
114.3161522058
 10
181.5827233495
 20
114.0594912577
 10
181.7434952633
 20
113.8916988956
 10
181.859277142
 20
113.8263765002
 10
181.9206836154
 20
113.8688191561
 10
181.9227370267
 20
114.0155864284
 10
181.8652709245
 20
114.2547812467
 10
181.7529435565
 20
114.5670142909
 10
181.5948602672
 20
114.9269757052
 10
181.4038354124
 20
115.3054867344
 10
181.1953536168
 20
115.6718649771
  0
SPLINE
  5
10B
330
1F
100
AcDbEntity
  8
0
  6
HIDDEN
 62
     7
370
     0
100
AcDbSpline
210
0.0
220
0.0
230
1.0
 70
     8
 71
     3
 72
    38
 73
    34
 74
     0
 42
0.00000001
 43
0.00000001
 40
0.0
 40
0.0
 40
0.0
 40
0.0
 40
0.0624999999999996
 40
0.0624999999999996
 40
0.1249999999999991
 40
0.1249999999999991
 40
0.1874999999999987
 40
0.1874999999999987
 40
0.2499999999999982
 40
0.2499999999999982
 40
0.3124999999999978
 40
0.3124999999999978
 40
0.3749999999999973
 40
0.3749999999999973
 40
0.4374999999999969
 40
0.4374999999999969
 40
0.4999999999999964
 40
0.4999999999999964
 40
0.6249999999999956
 40
0.6249999999999956
 40
0.6874999999999951
 40
0.6874999999999951
 40
0.7499999999999947
 40
0.7499999999999947
 40
0.8124999999999942
 40
0.8124999999999942
 40
0.8749999999999937
 40
0.8749999999999937
 40
0.9062499999999934
 40
0.9062499999999934
 40
0.9374999999999932
 40
0.9374999999999932
 40
1.0
 40
1.0
 40
1.0
 40
1.0
 10
183.071763937139
 20
115.1672493169632
 30
0.0
 10
182.9706545002405
 20
115.124791370475
 30
0.0
 10
182.8711324989217
 20
115.0793403665797
 30
0.0
 10
182.6814639074345
 20
114.9729183667339
 30
0.0
 10
182.5917592675839
 20
114.9115423078849
 30
0.0
 10
182.4499086673555
 20
114.7644680131844
 30
0.0
 10
182.4017696931098
 20
114.6790373858769
 30
0.0
 10
182.3482273058998
 20
114.5165703176176
 30
0.0
 10
182.3393568835891
 20
114.4403730716224
 30
0.0
 10
182.3323415822652
 20
114.3087046510641
 30
0.0
 10
182.3345662604728
 20
114.2520831923863
 30
0.0
 10
182.3404558053867
 20
114.1623934751006
 30
0.0
 10
182.3443686618822
 20
114.1282506152664
 30
0.0
 10
182.3497864740726
 20
114.0836348370258
 30
0.0
 10
182.3513052134564
 20
114.0734257141913
 30
0.0
 10
182.3497838070782
 20
114.0767311306311
 30
0.0
 10
182.3466790949167
 20
114.0906983109309
 30
0.0
 10
182.3286557483107
 20
114.1668287353376
 30
0.0
 10
182.304584425554
 20
114.2653972760684
 30
0.0
 10
182.2466404330238
 20
114.4662369828682
 30
0.0
 10
182.2233691355721
 20
114.5430286235279
 30
0.0
 10
182.1694381057389
 20
114.7070181643023
 30
0.0
 10
182.1385125287253
 20
114.7954049599359
 30
0.0
 10
182.0655319309035
 20
114.9807832105239
 30
0.0
 10
182.0246895803496
 20
115.0753058039592
 30
0.0
 10
181.9257922272115
 20
115.2630094846714
 30
0.0
 10
181.8670048830362
 20
115.3576747086712
 30
0.0
 10
181.7550392746518
 20
115.4788447198018
 30
0.0
 10
181.7128688013753
 20
115.5161288388041
 30
0.0
 10
181.6220721785911
 20
115.5774566754885
 30
0.0
 10
181.5731065280493
 20
115.6019922850496
 30
0.0
 10
181.4159772868639
 20
115.6579938799608
 30
0.0
 10
181.3059252964804
 20
115.6700757422398
 30
0.0
 10
181.1953536168058
 20
115.6718649771079
 30
0.0
  0
LINE
  5
10C
330
1F
100
AcDbEntity
  8
0
  6
HIDDEN
 62
     7
370
     0
100
AcDbLine
 10
94.3708020428
 20
114.0749075975
 30
0.0
 11
94.3708020428
 21
117.0749075975
 31
0.0
  0
LINE
  5
10D
330
1F
100
AcDbEntity
  8
0
  6
HIDDEN
 62
     7
370
     0
100
AcDbLine
 10
198.7272572417
 20
120.5234844237
 30
0.0
 11
198.7272572417
 21
120.1755516713
 31
0.0
  0
ARC
  5
10E
330
1F
100
AcDbEntity
  8
0
  6
HIDDEN
 62
     7
370
     0
100
AcDbCircle
 10
199.3305687347
 20
118.6455892662
 30
0.0
 40
1.644618411308795
100
AcDbArc
 50
349.0304888872
 51
111.520851226
  0
LINE
  5
10F
330
1F
100
AcDbEntity
  8
0
  6
HIDDEN
 62
     7
370
     0
100
AcDbLine
 10
200.9451376321
 20
118.3326403979
 30
0.0
 11
200.9451376321
 21
118.6805731503
 31
0.0
  0
ELLIPSE
  5
110
330
1F
100
AcDbEntity
  8
0
  6
HIDDEN
 62
     7
370
     0
100
AcDbEllipse
 10
199.3272572417
 20
118.3213158333
 30
0.0
 11
1.649515915895847
 21
0.3297021919773613
 31
0.0
210
0.0
220
0.0
230
1.0
 40
0.1212170443
 41
0.1734117093056121
 42
0.2789593080025335
  0
ELLIPSE
  5
111
330
1F
100
AcDbEntity
  8
0
  6
HIDDEN
 62
     7
370
     0
100
AcDbEllipse
 10
199.3272572417
 20
118.3213158333
 30
0.0
 11
-1.430047854952761
 21
2.435993301043893
 31
0.0
210
0.0
220
0.0
230
1.0
 40
0.3378833126
 41
5.606814197878277
 42
5.714069593693377
  0
ARC
  5
112
330
1F
100
AcDbEntity
  8
0
  6
HIDDEN
 62
     7
370
     0
100
AcDbCircle
 10
199.3317317067
 20
118.63843067
 30
0.0
 40
1.637004152103037
100
AcDbArc
 50
269.8433917958
 51
118.653719666
  0
ARC
  5
113
330
1F
100
AcDbEntity
  8
0
  6
HIDDEN
 62
     7
370
     0
100
AcDbCircle
 10
199.3182272619
 20
118.6413590305
 30
0.0
 40
1.639951258421298
100
AcDbArc
 50
172.3841584574
 51
270.3154864146
  0
ELLIPSE
  5
114
330
1F
100
AcDbEntity
  8
0
  6
HIDDEN
 62
     7
370
     0
100
AcDbEllipse
 10
204.2672414903
 20
117.8820241601
 30
0.0
 11
1.947284583039647
 21
-0.5269891811421701
 31
0.0
210
0.0
220
0.0
230
0.9999999999999999
 40
0.9830576678
 41
5.504603794413028
 42
6.543205022492276
  0
LINE
  5
115
330
1F
100
AcDbEntity
  8
0
  6
HIDDEN
 62
     7
370
     0
100
AcDbLine
 10
183.0717639371
 20
116.5096015173
 30
0.0
 11
183.0717639371
 21
115.167249317
 31
0.0
  0
LINE
  5
116
330
1F
100
AcDbEntity
  8
0
  6
HIDDEN
 62
     7
370
     0
100
AcDbLine
 10
183.0717639371
 20
114.0749075975
 30
0.0
 11
183.0717639371
 21
115.167249317
 31
0.0
  0
ELLIPSE
  5
117
330
1F
100
AcDbEntity
  8
0
  6
HIDDEN
 62
     7
370
     0
100
AcDbEllipse
 10
180.9479792226
 20
115.5749075975
 30
0.0
 11
-0.8200282761697224
 21
1.494632848193632
 31
0.0
210
0.0
220
0.0
230
1.0
 40
0.1546019273
 41
1.874219097637126
 42
4.692452744617312
  0
SPLINE
  5
118
330
1F
100
AcDbEntity
  8
0
  6
HIDDEN
 62
     7
370
     0
100
AcDbSpline
210
0.0
220
0.0
230
1.0
 70
     8
 71
     3
 72
    38
 73
    34
 74
     0
 42
0.00000001
 43
0.00000001
 40
0.0
 40
0.0
 40
0.0
 40
0.0
 40
0.0624999999999977
 40
0.0624999999999977
 40
0.1249999999999953
 40
0.1249999999999953
 40
0.2499999999999908
 40
0.2499999999999908
 40
0.312499999999989
 40
0.312499999999989
 40
0.3749999999999871
 40
0.3749999999999871
 40
0.4062499999999878
 40
0.4062499999999878
 40
0.4374999999999885
 40
0.4374999999999885
 40
0.4999999999999899
 40
0.4999999999999899
 40
0.5624999999999913
 40
0.5624999999999913
 40
0.6249999999999928
 40
0.6249999999999928
 40
0.687499999999994
 40
0.687499999999994
 40
0.7499999999999951
 40
0.7499999999999951
 40
0.8124999999999963
 40
0.8124999999999963
 40
0.8749999999999976
 40
0.8749999999999976
 40
0.9374999999999988
 40
0.9374999999999988
 40
1.0
 40
1.0
 40
1.0
 40
1.0
 10
204.7564747252192
 20
121.5066368129253
 30
0.0
 10
204.8192379236841
 20
121.6737989252971
 30
0.0
 10
204.854841926454
 20
121.8411923612713
 30
0.0
 10
204.8842872491398
 20
122.1749442758391
 30
0.0
 10
204.8773267332128
 20
122.339126400675
 30
0.0
 10
204.8050085855185
 20
122.8075307181506
 30
0.0
 10
204.6875868794691
 20
123.0986468136291
 30
0.0
 10
204.4317480704337
 20
123.4717533902231
 30
0.0
 10
204.3316588725209
 20
123.5877109067372
 30
0.0
 10
204.100680266314
 20
123.7946222064699
 30
0.0
 10
203.9718216528696
 20
123.8846161007265
 30
0.0
 10
203.7487719885442
 20
123.9932148152995
 30
0.0
 10
203.6704866927005
 20
124.0242909907025
 30
0.0
 10
203.5056592098103
 20
124.0736701297033
 30
0.0
 10
203.4178190170798
 20
124.0922136707598
 30
0.0
 10
203.1453673403661
 20
124.1222173088681
 30
0.0
 10
202.9489492592294
 20
124.1063245674608
 30
0.0
 10
202.5800349408492
 20
123.9951851444829
 30
0.0
 10
202.4086939404276
 20
123.9008116380213
 30
0.0
 10
202.1261892902192
 20
123.6776079624909
 30
0.0
 10
202.0094921391668
 20
123.5470106480682
 30
0.0
 10
201.8215010878892
 20
123.2714870347207
 30
0.0
 10
201.7491814796782
 20
123.1260415073376
 30
0.0
 10
201.6404115617995
 20
122.8210017311132
 30
0.0
 10
201.6057988328577
 20
122.6661870867681
 30
0.0
 10
201.5720854885723
 20
122.3515833794552
 30
0.0
 10
201.5733821156745
 20
122.1899615765607
 30
0.0
 10
201.6141694765863
 20
121.871501706022
 30
0.0
 10
201.6530834453414
 20
121.7151949086418
 30
0.0
 10
201.7715276235905
 20
121.4101861616277
 30
0.0
 10
201.8523517448035
 20
121.2604023012299
 30
0.0
 10
202.0533343317963
 20
120.9883088521012
 30
0.0
 10
202.1761490821253
 20
120.8622866919359
 30
0.0
 10
202.3176091025746
 20
120.7570710150204
 30
0.0
  0
SPLINE
  5
119
330
1F
100
AcDbEntity
  8
0
  6
HIDDEN
 62
     7
370
     0
100
AcDbSpline
210
0.0
220
0.0
230
1.0
 70
     8
 71
     3
 72
     8
 73
     4
 74
     0
 42
0.00000001
 43
0.00000001
 40
0.0
 40
0.0
 40
0.0
 40
0.0
 40
1.0
 40
1.0
 40
1.0
 40
1.0
 10
204.7564747252192
 20
121.5066368129253
 30
0.0
 10
205.2642227365909
 20
121.6573011966365
 30
0.0
 10
205.7728638980784
 20
121.805212864495
 30
0.0
 10
206.2822611411832
 20
121.9507942657876
 30
0.0
  0
ELLIPSE
  5
11A
330
1F
100
AcDbEntity
  8
0
  6
HIDDEN
 62
     7
370
     0
100
AcDbEllipse
 10
207.5695179894
 20
115.6144140692
 30
0.0
 11
0.2274667419031005
 21
13.10839760865932
 31
0.0
210
0.0
220
0.0
230
1.0
 40
0.121580963
 41
0.3198697156131146
 42
1.068391912752558
  0
SPLINE
  5
11B
330
1F
100
AcDbEntity
  8
0
  6
HIDDEN
 62
     7
370
     0
100
AcDbSpline
210
0.0
220
0.0
230
1.0
 70
     8
 71
     3
 72
     8
 73
     4
 74
     0
 42
0.00000001
 43
0.00000001
 40
0.0003120167934645
 40
0.0003120167934645
 40
0.0003120167934645
 40
0.0003120167934645
 40
0.0090047865640365
 40
0.0090047865640365
 40
0.0090047865640365
 40
0.0090047865640365
 10
207.2843092303546
 20
128.0666025857184
 30
0.0
 10
204.4318142689677
 20
127.5623432847637
 30
0.0
 10
201.5794439301839
 20
127.0573916546872
 30
0.0
 10
198.7272572416663
 20
126.5514252737721
 30
0.0
  0
ELLIPSE
  5
11C
330
1F
100
AcDbEntity
  8
0
  6
HIDDEN
 62
     7
370
     0
100
AcDbEllipse
 10
198.8146148313
 20
115.5400525715
 30
0.0
 11
-0.2006850742372421
 21
11.5650302334987
 31
0.0
210
0.0
220
0.0
230
1.0
 40
0.121580963
 41
6.202960580193109
 42
6.31355897791511
  0
LINE
  5
11D
330
1F
100
AcDbEntity
  8
0
  6
HIDDEN
 62
     7
370
     0
100
AcDbLine
 10
198.5467639371
 20
127.0946668686
 30
0.0
 11
198.5713208493
 21
127.0990075108
 31
0.0
  0
SPLINE
  5
11E
330
1F
100
AcDbEntity
  8
0
  6
HIDDEN
 62
     7
370
     0
100
AcDbSpline
210
0.0
220
0.0
230
1.0
 70
     8
 71
     3
 72
    24
 73
    20
 74
     0
 42
0.00000001
 43
0.00000001
 40
0.0
 40
0.0
 40
0.0
 40
0.0
 40
0.0312500000000009
 40
0.0312500000000009
 40
0.0625000000000018
 40
0.0625000000000018
 40
0.1250000000000023
 40
0.1250000000000023
 40
0.1875000000000028
 40
0.1875000000000028
 40
0.2500000000000033
 40
0.2500000000000033
 40
0.3750000000000018
 40
0.3750000000000018
 40
0.5000000000000002
 40
0.5000000000000002
 40
0.7500000000000001
 40
0.7500000000000001
 40
1.0
 40
1.0
 40
1.0
 40
1.0
 10
191.0579184782861
 20
114.1553419677433
 30
0.0
 10
191.057918478286
 20
114.2986988100804
 30
0.0
 10
191.0753659063457
 20
114.4389252408023
 30
0.0
 10
191.1409483994005
 20
114.7138721368523
 30
0.0
 10
191.1898138891444
 20
114.8497410747813
 30
0.0
 10
191.3691398893305
 20
115.2353435029273
 30
0.0
 10
191.5331307142855
 20
115.470129867604
 30
0.0
 10
191.9034340945531
 20
115.9017056044369
 30
0.0
 10
192.1078839086939
 20
116.0968195453899
 30
0.0
 10
192.5393625228451
 20
116.4628587384938
 30
0.0
 10
192.7675437108415
 20
116.6340569019435
 30
0.0
 10
193.4688069807966
 20
117.1182657479052
 30
0.0
 10
193.9558039593678
 20
117.4019245428783
 30
0.0
 10
194.9492018987743
 20
117.9302640675111
 30
0.0
 10
195.4560951092414
 20
118.1739559827077
 30
0.0
 10
196.9956362773148
 20
118.8671433093987
 30
0.0
 10
198.0479842970839
 20
119.2799766756668
 30
0.0
 10
200.171287577491
 20
120.053995310828
 30
0.0
 10
201.2417934356558
 20
120.4137156590525
 30
0.0
 10
202.3176091025746
 20
120.7570710150204
 30
0.0
  0
ELLIPSE
  5
11F
330
1F
100
AcDbEntity
  8
0
  6
HIDDEN
 62
     7
370
     0
100
AcDbEllipse
 10
211.7574422272
 20
119.8470616218
 30
0.0
 11
24.22860633291234
 21
13.84987830397866
 31
0.0
210
0.0
220
0.0
230
1.0
 40
0.0004976935
 41
2.594795809334559
 42
2.668929974243933
  0
LINE
  5
120
330
1F
100
AcDbEntity
  8
0
  6
HIDDEN
 62
     7
370
     0
100
AcDbLine
 10
207.5912706326
 20
119.8410609378
 30
0.0
 11
207.747207025
 21
119.8882379926
 31
0.0
  0
LINE
  5
121
330
1F
100
AcDbEntity
  8
0
  6
HIDDEN
 62
     7
370
     0
100
AcDbLine
 10
198.5713208493
 20
122.0343295992
 30
0.0
 11
198.5713208493
 21
127.0990075108
 31
0.0
  0
LINE
  5
122
330
1F
100
AcDbEntity
  8
0
  6
HIDDEN
 62
     7
370
     0
100
AcDbLine
 10
198.7272572417
 20
127.0698417974
 30
0.0
 11
198.7272572417
 21
120.5234844237
 31
0.0
  0
SPLINE
  5
123
330
1F
100
AcDbEntity
  8
0
  6
HIDDEN
 62
     7
370
     0
100
AcDbSpline
210
0.0
220
0.0
230
1.0
 70
     8
 71
     3
 72
     8
 73
     4
 74
     0
 42
0.00000001
 43
0.00000001
 40
0.0
 40
0.0
 40
0.0
 40
0.0
 40
1.0
 40
1.0
 40
1.0
 40
1.0
 10
190.1821406567856
 20
107.5211842274992
 30
0.0
 10
190.0152130692614
 20
107.4255471676305
 30
0.0
 10
189.8425708224841
 20
107.3266529107334
 30
0.0
 10
189.6611961237848
 20
107.2227813988172
 30
0.0
  0
LINE
  5
124
330
1F
100
AcDbEntity
  8
0
  6
HIDDEN
 62
     7
370
     0
100
AcDbLine
 10
207.2843092304
 20
119.4395293545
 30
0.0
 11
207.5912706326
 21
119.8410609378
 31
0.0
  0
LINE
  5
125
330
1F
100
AcDbEntity
  8
0
  6
HIDDEN
 62
     7
370
     0
100
AcDbLine
 10
200.9451376321
 20
118.6805731503
 30
0.0
 11
207.5912706326
 21
119.8410609378
 31
0.0
  0
CIRCLE
  5
126
330
1F
100
AcDbEntity
  8
0
  6
HIDDEN
 62
     7
370
     0
100
AcDbCircle
 10
203.2242080577
 20
123.2711931046
 30
0.0
 40
2.094684257369042
  0
LINE
  5
127
330
1F
100
AcDbEntity
  8
0
  6
HIDDEN
 62
     7
370
     0
100
AcDbLine
 10
200.9451376321
 20
118.3326403979
 30
0.0
 11
207.2843092304
 21
119.4395293545
 31
0.0
  0
LINE
  5
128
330
1F
100
AcDbEntity
  8
0
  6
HIDDEN
 62
     7
370
     0
100
AcDbLine
 10
207.2843092304
 20
119.4395293545
 30
0.0
 11
207.2843092304
 21
128.0666025857
 31
0.0
  0
ARC
  5
129
330
1F
100
AcDbEntity
  8
0
  6
HIDDEN
 62
     7
370
     0
100
AcDbCircle
 10
203.228464079
 20
123.2185956936
 30
0.0
 40
1.659092330484514
100
AcDbArc
 50
269.9583225766
 51
309.6830046704
  0
ARC
  5
12A
330
1F
100
AcDbEntity
  8
0
  6
HIDDEN
 62
     7
370
     0
100
AcDbCircle
 10
203.2342964416
 20
123.2043345759
 30
0.0
 40
1.644845836230581
100
AcDbArc
 50
317.3628515433
 51
269.7547991011
  0
ARC
  5
12B
330
1F
100
AcDbEntity
  8
0
  6
HIDDEN
 62
     7
370
     0
100
AcDbCircle
 10
203.2266037454
 20
122.1419279851
 30
0.0
 40
1.656532549703339
100
AcDbArc
 50
236.7198417039
 51
337.4489403569
  0
ELLIPSE
  5
12C
330
1F
100
AcDbEntity
  8
0
  6
HIDDEN
 62
     7
370
     0
100
AcDbEllipse
 10
204.28384789
 20
115.5749075975
 30
0.0
 11
17.84359884732979
 21
10.19999572757466
 31
0.0
210
0.0
220
0.0
230
1.0
 40
0.0005232068
 41
1.711337950592581
 42
2.405374612874508
  0
LINE
  5
12D
330
1F
100
AcDbEntity
  8
0
  6
HIDDEN
 62
     7
370
     0
100
AcDbLine
 10
206.2822611412
 20
121.9507942658
 30
0.0
 11
206.2822611412
 21
117.8649137517
 31
0.0
  0
LINE
  5
12E
330
1F
100
AcDbEntity
  8
0
  6
HIDDEN
 62
     7
370
     0
100
AcDbLine
 10
205.2897149895
 20
116.162503944
 30
0.0
 11
201.7790428476
 21
114.1553419677
 31
0.0
  0
LINE
  5
12F
330
1F
100
AcDbEntity
  8
0
  6
HIDDEN
 62
     7
370
     0
100
AcDbLine
 10
204.0201326247
 20
122.3643778596
 30
0.0
 11
204.0201326247
 21
122.5546525296
 31
0.0
  0
LINE
  5
130
330
1F
100
AcDbEntity
  8
0
  6
HIDDEN
 62
     7
370
     0
100
AcDbLine
 10
202.0281429753
 20
122.7864068699
 30
0.0
 11
202.0281429753
 21
122.5939534349
 31
0.0
  0
LINE
  5
131
330
1F
100
AcDbEntity
  8
0
  6
HIDDEN
 62
     7
370
     0
100
AcDbLine
 10
204.0136334856
 20
122.5006596536
 30
0.0
 11
204.0136334856
 21
122.4725504252
 31
0.0
  0
LINE
  5
132
330
1F
100
AcDbEntity
  8
0
  6
HIDDEN
 62
     7
370
     0
100
AcDbLine
 10
204.8818996307
 20
123.3833248313
 30
0.0
 11
204.8818996307
 21
123.5781671727
 31
0.0
  0
LINE
  5
133
330
1F
100
AcDbEntity
  8
0
  6
HIDDEN
 62
     7
370
     0
100
AcDbLine
 10
201.567920332
 20
124.037333694
 30
0.0
 11
201.567920332
 21
123.8424759819
 31
0.0
  0
LINE
  5
134
330
1F
100
AcDbEntity
  8
0
  6
HIDDEN
 62
     7
370
     0
100
AcDbLine
 10
204.4216769874
 20
124.6318473783
 30
0.0
 11
204.4216769874
 21
124.8266897196
 31
0.0
  0
LINE
  5
135
330
1F
100
AcDbEntity
  8
0
  6
HIDDEN
 62
     7
370
     0
100
AcDbLine
 10
202.429687338
 20
125.0517243144
 30
0.0
 11
202.429687338
 21
124.8614229536
 31
0.0
  0
SPLINE
  5
136
330
1F
100
AcDbEntity
  8
0
  6
HIDDEN
 62
     7
370
     0
100
AcDbSpline
210
0.0
220
0.0
230
1.0
 70
     8
 71
     3
 72
    19
 73
    15
 74
     0
 42
0.00000001
 43
0.00000001
 40
0.0
 40
0.0
 40
0.0
 40
0.0
 40
0.0347945426944474
 40
0.1290391458733594
 40
0.2237099265944243
 40
0.3189380025409048
 40
0.4148921216267489
 40
0.5115903329286893
 40
0.6088588687821614
 40
0.7063323460987436
 40
0.8034614928044607
 40
0.8999353587112819
 40
0.9956403484941342
 40
1.0
 40
1.0
 40
1.0
 40
1.0
 10
202.9097492369459
 20
121.6532798365047
 30
0.0
 10
202.8571118772223
 20
121.6639359079261
 30
0.0
 10
202.6619008063538
 20
121.7034550465063
 30
0.0
 10
202.3395292796041
 20
121.8346409194088
 30
0.0
 10
201.9833206973154
 20
122.0871364899817
 30
0.0
 10
201.6992276925952
 20
122.4169185978183
 30
0.0
 10
201.5035406844567
 20
122.8040510696201
 30
0.0
 10
201.4081114152885
 20
123.2272437638367
 30
0.0
 10
201.4195214007564
 20
123.6624726557692
 30
0.0
 10
201.5387680660791
 20
124.0826795009466
 30
0.0
 10
201.7578018862139
 20
124.4657953213163
 30
0.0
 10
202.068983348817
 20
124.7737522688638
 30
0.0
 10
202.3173147231039
 20
124.9565915659898
 30
0.0
 10
202.4640222869985
 20
125.0036852055945
 30
0.0
 10
202.4704140937708
 20
125.0057369978577
 30
0.0
  0
ARC
  5
137
330
1F
100
AcDbEntity
  8
0
  6
HIDDEN
 62
     7
370
     0
100
AcDbCircle
 10
203.2496453544
 20
123.3946967207
 30
0.0
 40
1.774277919370733
100
AcDbArc
 50
258.9556539937
 51
100.2727671816
  0
LINE
  5
138
330
1F
100
AcDbEntity
  8
0
  6
HIDDEN
 62
     7
370
     0
100
AcDbLine
 10
201.2272572417
 20
123.279733438
 30
0.0
 11
201.2272572417
 21
122.5699506231
 31
0.0
  0
LINE
  5
139
330
1F
100
AcDbEntity
  8
0
  6
HIDDEN
 62
     7
370
     0
100
AcDbLine
 10
205.2272572417
 20
122.5699506231
 30
0.0
 11
205.2272572417
 21
123.279733438
 31
0.0
  0
LINE
  5
13A
330
1F
100
AcDbEntity
  8
0
  6
HIDDEN
 62
     7
370
     0
100
AcDbLine
 10
207.6717639371
 20
119.8270345931
 30
0.0
 11
207.747207025
 21
119.8686400943
 31
0.0
  0
LINE
  5
13B
330
1F
100
AcDbEntity
  8
0
  6
HIDDEN
 62
     7
370
     0
100
AcDbLine
 10
200.2592639371
 20
123.9053718767
 30
0.0
 11
200.2592639371
 21
123.7453228106
 31
0.0
  0
LINE
  5
13C
330
1F
100
AcDbEntity
  8
0
  6
HIDDEN
 62
     7
370
     0
100
AcDbLine
 10
206.3592639371
 20
123.7453228106
 30
0.0
 11
206.3592639371
 21
123.9053718767
 31
0.0
  0
SPLINE
  5
13D
330
1F
100
AcDbEntity
  8
0
  6
HIDDEN
 62
     7
370
     0
100
AcDbSpline
210
0.0
220
0.0
230
1.0
 70
     8
 71
     3
 72
    21
 73
    17
 74
     0
 42
0.00000001
 43
0.00000001
 40
0.0
 40
0.0
 40
0.0
 40
0.0
 40
0.0255316319112071
 40
0.1021691467616099
 40
0.1787868540708711
 40
0.2552569346995435
 40
0.3315013410385863
 40
0.4074932652199532
 40
0.4832553024179395
 40
0.5588483049585794
 40
0.6343576107879045
 40
0.7098600428466855
 40
0.7854419673738059
 40
0.8611919775410033
 40
0.9371742870290636
 40
1.0
 40
1.0
 40
1.0
 40
1.0
 10
205.4964309396401
 20
123.608615039698
 30
0.0
 10
205.5012516353621
 20
123.5554961468431
 30
0.0
 10
205.5205424652794
 20
123.3429319057958
 30
0.0
 10
205.4436705103551
 20
122.9708805946671
 30
0.0
 10
205.2679102960213
 20
122.5218634496346
 30
0.0
 10
204.9884362157202
 20
122.1227699332476
 30
0.0
 10
204.6286337574073
 20
121.7939182490652
 30
0.0
 10
204.2039743705274
 20
121.5513445675516
 30
0.0
 10
203.7362364077228
 20
121.4067388350147
 30
0.0
 10
203.2482765101771
 20
121.366787153127
 30
0.0
 10
202.7638660406353
 20
121.4330087829803
 30
0.0
 10
202.3066671343418
 20
121.6018901331657
 30
0.0
 10
201.8976023910161
 20
121.8647423618011
 30
0.0
 10
201.5598524585567
 20
122.2098732046291
 30
0.0
 10
201.3112735546485
 20
122.5931240306475
 30
0.0
 10
201.2275357040672
 20
122.8718829414089
 30
0.0
 10
201.1896352277674
 20
122.9980516383281
 30
0.0
  0
LINE
  5
13E
330
1F
100
AcDbEntity
  8
0
  6
HIDDEN
 62
     7
370
     0
100
AcDbLine
 10
201.1092639371
 20
123.548625375
 30
0.0
 11
201.1092639371
 21
123.3528546659
 31
0.0
  0
LINE
  5
13F
330
1F
100
AcDbEntity
  8
0
  6
HIDDEN
 62
     7
370
     0
100
AcDbLine
 10
205.5092639371
 20
123.3528546659
 30
0.0
 11
205.5092639371
 21
123.548625375
 31
0.0
  0
LINE
  5
140
330
1F
100
AcDbEntity
  8
0
  6
HIDDEN
 62
     7
370
     0
100
AcDbLine
 10
191.1911076969
 20
122.173158538
 30
0.0
 11
181.5908026554
 21
117.0685858006
 31
0.0
  0
LINE
  5
141
330
1F
100
AcDbEntity
  8
0
  6
HIDDEN
 62
     7
370
     0
100
AcDbLine
 10
183.3940882267
 20
114.6296995948
 30
0.0
 11
193.6000280966
 21
120.0562940826
 31
0.0
  0
LINE
  5
142
330
1F
100
AcDbEntity
  8
0
  6
HIDDEN
 62
     7
370
     0
100
AcDbLine
 10
181.8926865823
 20
113.8313901797
 30
0.0
 11
182.3557421675
 21
114.0776012018
 31
0.0
  0
LINE
  5
143
330
1F
100
AcDbEntity
  8
0
  6
HIDDEN
 62
     7
370
     0
100
AcDbLine
 10
93.0717639371
 20
113.3249075975
 30
0.0
 11
94.3708020428
 21
114.0749075975
 31
0.0
  0
LINE
  5
144
330
1F
100
AcDbEntity
  8
0
  6
HIDDEN
 62
     7
370
     0
100
AcDbLine
 10
94.3708020428
 20
117.0749075975
 30
0.0
 11
93.0717639371
 21
117.8249075975
 31
0.0
  0
LINE
  5
145
330
1F
100
AcDbEntity
  8
0
  6
HIDDEN
 62
     7
370
     0
100
AcDbLine
 10
197.6772572417
 20
119.2195844395
 30
0.0
 11
197.6772572417
 21
118.6353749464
 31
0.0
  0
LINE
  5
146
330
1F
100
AcDbEntity
  8
0
  6
HIDDEN
 62
     7
370
     0
100
AcDbLine
 10
200.9772572417
 20
118.6353749464
 30
0.0
 11
200.9772572417
 21
118.6534674495
 31
0.0
  0
LINE
  5
147
330
1F
100
AcDbEntity
  8
0
  6
HIDDEN
 62
     7
370
     0
100
AcDbLine
 10
183.0717639371
 20
114.0749075975
 30
0.0
 11
183.4300662456
 21
114.671222778
 31
0.0
  0
LINE
  5
148
330
1F
100
AcDbEntity
  8
0
  6
HIDDEN
 62
     7
370
     0
100
AcDbLine
 10
182.3476888467
 20
114.0749075975
 30
0.0
 11
183.0717639371
 21
114.0749075975
 31
0.0
  0
LINE
  5
149
330
1F
100
AcDbEntity
  8
0
  6
HIDDEN
 62
     7
370
     0
100
AcDbLine
 10
94.3708020428
 20
114.0749075975
 30
0.0
 11
181.7455433701
 21
114.0749075975
 31
0.0
  0
LINE
  5
14A
330
1F
100
AcDbEntity
  8
0
  6
HIDDEN
 62
     7
370
     0
100
AcDbLine
 10
181.6201805374
 20
117.0749075975
 30
0.0
 11
94.3708020428
 21
117.0749075975
 31
0.0
  0
LINE
  5
14B
330
1F
100
AcDbEntity
  8
0
  6
HIDDEN
 62
     7
370
     0
100
AcDbLine
 10
198.5868777381
 20
127.1024662517
 30
0.0
 11
198.5467639371
 21
127.0953931063
 31
0.0
  0
LINE
  5
14C
330
1F
100
AcDbEntity
  8
0
  6
HIDDEN
 62
     7
370
     0
100
AcDbLine
 10
201.5772572417
 20
123.1934461154
 30
0.0
 11
201.5772572417
 21
122.2900266701
 31
0.0
  0
LINE
  5
14D
330
1F
100
AcDbEntity
  8
0
  6
HIDDEN
 62
     7
370
     0
100
AcDbLine
 10
204.8772572417
 20
122.1840902538
 30
0.0
 11
204.8772572417
 21
123.1934461154
 31
0.0
  0
LINE
  5
14E
330
1F
100
AcDbEntity
  8
VERMASSUNG
100
AcDbLine
 10
167.3684832121
 20
115.5749075975
 30
0.0
 11
167.9042726228
 21
115.5749075975
 31
0.0
  0
POINT
  5
14F
330
1F
100
AcDbEntity
  8
VERMASSUNG
100
AcDbPoint
 10
208.0717639371
 20
129.4499075975
 30
0.0
  0
DIMENSION
  5
150
330
1F
100
AcDbEntity
  8
VERMASSUNG
100
AcDbDimension
  2
*D1
 10
216.2504937784
 20
101.6999075975
 30
0.0
 11
216.2504937784
 21
115.2460210276
 31
0.0
 70
   160
  1
%%c<>-33.1
 71
     2
 42
-1.0
  3
SLDDIMSTYLE0
100
AcDbAlignedDimension
 13
208.0717639371
 23
129.4499075975
 33
0.0
 14
208.0717639371
 24
101.6999075975
 34
0.0
 50
90.0
100
AcDbRotatedDimension
  0
DIMENSION
  5
15B
330
1F
100
AcDbEntity
  8
VERMASSUNG
100
AcDbDimension
  2
*D2
 10
93.0717639371
 20
137.9224361503
 30
0.0
 11
147.0099958498
 21
137.9224361503
 31
0.0
 70
   160
 71
     2
 42
-1.0
  3
SLDDIMSTYLE1
100
AcDbAlignedDimension
 13
208.0717639371
 23
129.4499075975
 33
0.0
 14
93.0717639371
 24
121.7749075975
 34
0.0
100
AcDbRotatedDimension
  0
DIMENSION
  5
166
330
1F
100
AcDbEntity
  8
VERMASSUNG
100
AcDbDimension
  2
*D3
 10
86.7637069585
 20
107.5749075975
 30
0.0
 11
86.7637069585
 21
115.0601909697
 31
0.0
 70
   160
  1
%%c<>
 71
     2
 42
-1.0
  3
SLDDIMSTYLE1
100
AcDbAlignedDimension
 13
104.3717639371
 23
123.5749075975
 33
0.0
 14
94.4467639371
 24
107.5749075975
 34
0.0
 50
90.0
100
AcDbRotatedDimension
  0
LINE
  5
171
330
1F
100
AcDbEntity
  8
VERMASSUNG
  6
CENTERX2
 62
     7
370
     0
100
AcDbLine
 10
91.0717639371
 20
115.5749075975
 30
0.0
 11
209.0800804294
 21
115.5749075975
 31
0.0
  0
LINE
  5
172
330
1F
100
AcDbEntity
  8
VERMASSUNG
  6
CENTERX2
 62
     7
370
     0
100
AcDbLine
 10
197.2623240549
 20
123.7024264612
 30
0.0
 11
178.4363828525
 21
113.6924959639
 31
0.0
  0
OLE2FRAME
  5
173
330
1F
100
AcDbEntity
  8
0
100
AcDbOle2Frame
 70
     2
  3
Paintbrush-Bild
 10
13.8511154363
 20
38.264191557
 30
0.0
 11
51.6290888628
 21
31.9806341108
 31
0.0
 71
     2
 72
     0
 73
     1
 90
    12928
310
80552BED0767C5B32B40DDAF6807D121434000000000000000006FFBDDFB85D0
310
4940DDAF6807D121434000000000000000006FFBDDFB85D04940416F4BD60AFB
310
3F4000000000000000002BED0767C5B32B40416F4BD60AFB3F40000000000000
310
0000000000000100000000010000010000000100000000000100000000320000
310
D0CF11E0A1B11AE1000000000000000000000000000000003E000300FEFF0900
310
0600000000000000000000000100000001000000000000000010000002000000
310
01000000FEFFFFFF0000000000000000FFFFFFFFFFFFFFFFFFFFFFFFFFFFFFFF
310
FFFFFFFFFFFFFFFFFFFFFFFFFFFFFFFFFFFFFFFFFFFFFFFFFFFFFFFFFFFFFFFF
310
FFFFFFFFFFFFFFFFFFFFFFFFFFFFFFFFFFFFFFFFFFFFFFFFFFFFFFFFFFFFFFFF
310
FFFFFFFFFFFFFFFFFFFFFFFFFFFFFFFFFFFFFFFFFFFFFFFFFFFFFFFFFFFFFFFF
310
FFFFFFFFFFFFFFFFFFFFFFFFFFFFFFFFFFFFFFFFFFFFFFFFFFFFFFFFFFFFFFFF
310
FFFFFFFFFFFFFFFFFFFFFFFFFFFFFFFFFFFFFFFFFFFFFFFFFFFFFFFFFFFFFFFF
310
FFFFFFFFFFFFFFFFFFFFFFFFFFFFFFFFFFFFFFFFFFFFFFFFFFFFFFFFFFFFFFFF
310
FFFFFFFFFFFFFFFFFFFFFFFFFFFFFFFFFFFFFFFFFFFFFFFFFFFFFFFFFFFFFFFF
310
FFFFFFFFFFFFFFFFFFFFFFFFFFFFFFFFFFFFFFFFFFFFFFFFFFFFFFFFFFFFFFFF
310
FFFFFFFFFFFFFFFFFFFFFFFFFFFFFFFFFFFFFFFFFFFFFFFFFFFFFFFFFFFFFFFF
310
FFFFFFFFFFFFFFFFFFFFFFFFFFFFFFFFFFFFFFFFFFFFFFFFFFFFFFFFFFFFFFFF
310
FFFFFFFFFFFFFFFFFFFFFFFFFFFFFFFFFFFFFFFFFFFFFFFFFFFFFFFFFFFFFFFF
310
FFFFFFFFFFFFFFFFFFFFFFFFFFFFFFFFFFFFFFFFFFFFFFFFFFFFFFFFFFFFFFFF
310
FFFFFFFFFFFFFFFFFFFFFFFFFFFFFFFFFFFFFFFFFFFFFFFFFFFFFFFFFFFFFFFF
310
FDFFFFFFFEFFFFFFFEFFFFFFFEFFFFFF05000000060000000700000008000000
310
090000000A0000000B0000000C0000000D0000000E0000000F00000010000000
310
11000000120000001300000014000000150000001600000017000000FEFFFFFF
310
FFFFFFFFFFFFFFFFFFFFFFFFFFFFFFFFFFFFFFFFFFFFFFFFFFFFFFFFFFFFFFFF
310
FFFFFFFFFFFFFFFFFFFFFFFFFFFFFFFFFFFFFFFFFFFFFFFFFFFFFFFFFFFFFFFF
310
FFFFFFFFFFFFFFFFFFFFFFFFFFFFFFFFFFFFFFFFFFFFFFFFFFFFFFFFFFFFFFFF
310
FFFFFFFFFFFFFFFFFFFFFFFFFFFFFFFFFFFFFFFFFFFFFFFFFFFFFFFFFFFFFFFF
310
FFFFFFFFFFFFFFFFFFFFFFFFFFFFFFFFFFFFFFFFFFFFFFFFFFFFFFFFFFFFFFFF
310
FFFFFFFFFFFFFFFFFFFFFFFFFFFFFFFFFFFFFFFFFFFFFFFFFFFFFFFFFFFFFFFF
310
FFFFFFFFFFFFFFFFFFFFFFFFFFFFFFFFFFFFFFFFFFFFFFFFFFFFFFFFFFFFFFFF
310
FFFFFFFFFFFFFFFFFFFFFFFFFFFFFFFFFFFFFFFFFFFFFFFFFFFFFFFFFFFFFFFF
310
FFFFFFFFFFFFFFFFFFFFFFFFFFFFFFFFFFFFFFFFFFFFFFFFFFFFFFFFFFFFFFFF
310
FFFFFFFFFFFFFFFFFFFFFFFFFFFFFFFFFFFFFFFFFFFFFFFFFFFFFFFFFFFFFFFF
310
FFFFFFFFFFFFFFFFFFFFFFFFFFFFFFFFFFFFFFFFFFFFFFFFFFFFFFFFFFFFFFFF
310
FFFFFFFFFFFFFFFFFFFFFFFFFFFFFFFFFFFFFFFFFFFFFFFFFFFFFFFFFFFFFFFF
310
FFFFFFFFFFFFFFFFFFFFFFFFFFFFFFFFFFFFFFFFFFFFFFFFFFFFFFFFFFFFFFFF
310
52006F006F007400200045006E00740072007900000000000000000000000000
310
0000000000000000000000000000000000000000000000000000000000000000
310
16000500FFFFFFFFFFFFFFFF020000000A00030000000000C000000000000046
310
00000000000000000000000000A17D35C7F7CC0103000000C000000000000000
310
01004F006C006500000000000000000000000000000000000000000000000000
310
0000000000000000000000000000000000000000000000000000000000000000
310
0A000200FFFFFFFFFFFFFFFFFFFFFFFF00000000000000000000000000000000
310
0000000000000000000000000000000000000000000000001400000000000000
310
010043006F006D0070004F0062006A0000000000000000000000000000000000
310
0000000000000000000000000000000000000000000000000000000000000000
310
120002010100000003000000FFFFFFFF00000000000000000000000000000000
310
0000000000000000000000000000000000000000010000004D00000000000000
310
01004F006C006500310030004E00610074006900760065000000000000000000
310
0000000000000000000000000000000000000000000000000000000000000000
310
1A000200FFFFFFFFFFFFFFFFFFFFFFFF00000000000000000000000000000000
310
0000000000000000000000000000000000000000040000002426000000000000
310
FEFFFFFF02000000FEFFFFFFFFFFFFFFFFFFFFFFFFFFFFFFFFFFFFFFFFFFFFFF
310
FFFFFFFFFFFFFFFFFFFFFFFFFFFFFFFFFFFFFFFFFFFFFFFFFFFFFFFFFFFFFFFF
310
FFFFFFFFFFFFFFFFFFFFFFFFFFFFFFFFFFFFFFFFFFFFFFFFFFFFFFFFFFFFFFFF
310
FFFFFFFFFFFFFFFFFFFFFFFFFFFFFFFFFFFFFFFFFFFFFFFFFFFFFFFFFFFFFFFF
310
FFFFFFFFFFFFFFFFFFFFFFFFFFFFFFFFFFFFFFFFFFFFFFFFFFFFFFFFFFFFFFFF
310
FFFFFFFFFFFFFFFFFFFFFFFFFFFFFFFFFFFFFFFFFFFFFFFFFFFFFFFFFFFFFFFF
310
FFFFFFFFFFFFFFFFFFFFFFFFFFFFFFFFFFFFFFFFFFFFFFFFFFFFFFFFFFFFFFFF
310
FFFFFFFFFFFFFFFFFFFFFFFFFFFFFFFFFFFFFFFFFFFFFFFFFFFFFFFFFFFFFFFF
310
FFFFFFFFFFFFFFFFFFFFFFFFFFFFFFFFFFFFFFFFFFFFFFFFFFFFFFFFFFFFFFFF
310
FFFFFFFFFFFFFFFFFFFFFFFFFFFFFFFFFFFFFFFFFFFFFFFFFFFFFFFFFFFFFFFF
310
FFFFFFFFFFFFFFFFFFFFFFFFFFFFFFFFFFFFFFFFFFFFFFFFFFFFFFFFFFFFFFFF
310
FFFFFFFFFFFFFFFFFFFFFFFFFFFFFFFFFFFFFFFFFFFFFFFFFFFFFFFFFFFFFFFF
310
FFFFFFFFFFFFFFFFFFFFFFFFFFFFFFFFFFFFFFFFFFFFFFFFFFFFFFFFFFFFFFFF
310
FFFFFFFFFFFFFFFFFFFFFFFFFFFFFFFFFFFFFFFFFFFFFFFFFFFFFFFFFFFFFFFF
310
FFFFFFFFFFFFFFFFFFFFFFFFFFFFFFFFFFFFFFFFFFFFFFFFFFFFFFFFFFFFFFFF
310
FFFFFFFFFFFFFFFFFFFFFFFFFFFFFFFFFFFFFFFFFFFFFFFFFFFFFFFFFFFFFFFF
310
0100000200000000000000000000000000000000000000000000000000000000
310
0000000000000000000000000000000000000000000000000000000000000000
310
0100FEFF030A0000FFFFFFFF0A00030000000000C00000000000004607000000
310
5042727573680007000000504272757368000700000050427275736800F439B2
310
7100000000000000000000000000000000000000000000000000000000000000
310
0000000000000000000000000000000000000000000000000000000000000000
310
0000000000000000000000000000000000000000000000000000000000000000
310
0000000000000000000000000000000000000000000000000000000000000000
310
0000000000000000000000000000000000000000000000000000000000000000
310
0000000000000000000000000000000000000000000000000000000000000000
310
0000000000000000000000000000000000000000000000000000000000000000
310
0000000000000000000000000000000000000000000000000000000000000000
310
0000000000000000000000000000000000000000000000000000000000000000
310
0000000000000000000000000000000000000000000000000000000000000000
310
0000000000000000000000000000000000000000000000000000000000000000
310
0000000000000000000000000000000000000000000000000000000000000000
310
20260000424D0E260000000000003E00000028000000B40200006E0000000100
310
01000000000000000000130B0000130B00000200000002000000000000FFFFFF
310
FFFFFFFFFFFFFFFFFFFFFFFFFFFFFFFFFFFFFFFFFFFFFFFFFFFFFFFFFFFFFFFF
310
FFFFFFFFFFFFFFFFFFFFFFFFFFFFFFFFFFFFFFFFFFFFFFFFFFFFFFFFFFFFFFFF
310
FFFFFFFFFFFFFFFFFFFFFFFFFFFFFFFFFFFFFFFFFFFFFFFFF000FFFFFFFFFFFF
310
FFFFFFFFFFFFFFFFFFFFFFFFFFFFFFFFFFFFFFFFFFFFFFFFFFFFFFFFFFFFFFFF
310
FFFFFFFFFFFFFFFFFFFFFFFFFFFFFFFFFFFFFFFFFFFFFFFFFFFFFFFFFFFFFFFF
310
FFFFFFFFFFFFFFFFFFFFFFFFFFFFFFFFF000FFFFFFFFFFFFFFFFFFFFFFFFFFFF
310
FFFFFFFFFFFFFFFFFFFFFFFFFFFFFFFFFFFFFFFFFFFFFFFFFFFFFFFFFFFFFFFF
310
FFFFFFFFFFFFFFFFFFFFFFFFFFFFFFFFFFFFFFFFFFFFFFFFFFFFFFFFFFFFFFFF
310
FFFFFFFFFFFFFFFFF000FFFFFFFFFFFFFFFFFFFFFFFFFFFFFFFFFFFFFFFFFFFF
310
FFFFFFFFFFFFFFFFFFFFFFFFFFFFFFFFFFFFFFFFFFFFFFFFFFFFFFFFFFFFFFFF
310
FFFFFFFFFFFFFFFFFFFFFFFFFFFFFFFFFFFFFFFFFFFFFFFFFFFFFFFFFFFFFFFF
310
F000FFFFFFFFFFFFFFFFFFFFFFFFFFFFFFFFFFFFFFFFFFFFFFFFFFFFFFFFFFFF
310
FFFFFFFFFFFFFFFFFFFFFFFFFFFFFFFFFFFFFFFFFFFFFFFFFFFFFFFFFFFFFFFF
310
FFFFFFFFFFFFFFFFFFFFFFFFFFFFFFFFFFFFFFFFFFFFFFFFF000FFFFFFFFFFFF
310
FFFFFFFFFFFFFFFFFFFFFFFFFFFFFFFFFFFFFFFFFFFFFFFFFFFFFFFFFFFFFFFF
310
FFFFFFFFFFFFFFFFFFFFFFFFFFFFFFFFFFFFFFFFFFFFFFFFFFFFFFFFFFFFFFFF
310
FFFFFFFFFFFFFFFFFFFFFFFFFFFFFFFFF000FFFFFFFFFFFFFFFFFFFFFFFFFFFF
310
FFFFFFFFFFFFFFFFFFFFFFFFFFFFFFFFFFFFFFFFFFFFFFFFFFFFFFFFFFFFFFFF
310
FFFFFFFFFFFFFFFFFFFFFFFFFFFFFFFFFFFFFFFFFFFFFFFFFFFFFFFFFFFFFFFF
310
FFFFFFFFFFFFFFFFF000FFFFFFFFFFFFFFFFFFFFFFFFFFFFFFFFFFFFFFFFFFFF
310
FFFFFFFFFFFFFFFFFFFFFFFFFFFFFFFFFFFFFFFFFFFFFFFFFFFFFFFFFFFFFFFF
310
FFFFFFFFFFFFFFFFFFFFFFFFFFFFFFFFFFFFFFFFFFFFFFFFFFFFFFFFFFFFFFFF
310
F000FFFFFFFFFFFFFFFFFFFFFFFFFFFFFFFFFFFFFFFFFFFFFFFFFFFFFFFFFFFF
310
FFFFFFFFFFFFFFFFFFFFFFFFFFFFFFFFFFFFFFFFFFFFFFFFFFFFFFFFFFFFFFFF
310
FFFFFFFFFFFFFFFFFFFFFFFFFFFFFFFFFFFFFFFFFFFFFFFFF000FFFFFFFFFFFF
310
FFFFFFFFFFFFFFFFFFFFFFFFFFFFFFFFFFFFFFFFFFFFFFFFFFFFFFFFFFFFFFFF
310
FFFFFFFFFFFFFFFFFFFFFFFFFFFFFFFFFFFFFFFFFFFFFFFFFFFFFFFFFFFFFFFF
310
FFFFFFFFFFFFFFFFFFFFFFFFFFFFFFFFF000FFFFFFFFFFFFFFFFFFFFFFFFFFFF
310
FFFFFFFFFFFFFFFFFFFFFFFFFFFFFFFFFFFFFFFFFFFFFFFFFFFFFFFFFFFFFFFF
310
FFFFFFFFFFFFFFFFFFFFFFFFFFFFFFFFFFFFFFFFFFFFFFFFFFFFFFFFFFFFFFFF
310
FFFFFFFFFFFFFFFFF000FFFFFFFFFFFFFFFFFFFFFFFFFFFFFFFFFFFFFFFFFFFF
310
FFFFFFFFFFFFFFFFFFFFFFFFFFFFFFFFFFFFFFFFFFFFFFFFFFFFFFFFFFFFFFFF
310
FFFFFFFFFFFFFFFFFFFFFFFFFFFFFFFFFFFFFFFFFFFFFFFFFFFFFFFFFFFFFFFF
310
F000FFFFFFFFFFFFFFFFFFFFFFFFFFFFFFFFFFFFFFFFFFFFFFFFFFFFFFFFFFFF
310
FFFFFFFFFFFFFFFFFFFFFFFFFFFFFFFFFFFFFFFFFFFFFFFFFFFFFFFFFFFFFFFF
310
FFFFFFFFFFFFFFFFFFFFFFFFFFFFFFFFFFFFFFFFFFFFFFFFF000FFFFFFFFFFFF
310
FFFFFFFFFFFFFFFFFFFFFFFFFFFFFFFFFFFFFFFFFFFFFFFFFFFFFFFFFFFFFFFF
310
FFFFFFFFFFFFFFFFFFFFFFFFFFFFFFFFFFFFFFFFFFFFFFFFFFFFFFFFFFFFFFFF
310
FFFFFFFFFFFFFFFFFFFFFFFFFFFFFFFFF000FFFFFFFFFFFFFFFFFFFFFFFFFFFF
310
FFFFFFFFFFFFFFFFFFFFFFFFFFFFFFFFFFFFFFFFFFFFFFFFFFFFFFFFFFFFFFFF
310
FFFFFFFFFFFFFFFFFFFFFFFFFFFFFFFFFFFFFFFFFFFFFFFFFFFFFFFFFFFFFFFF
310
FFFFFFFFFFFFFFFFF000FFFFFFFFFFFFFFFFFFFFFFFFFFFFFFFFFFFFFFFFFFFF
310
FFFFFFFFFFFFFFFFFFFFFFFFFFFFFFFFFFFFFFFFFFFFFFFFFFFFFFFFFFFFFFFF
310
FFFFFFFFFFFFFFFFFFFFFFFFFFFFFFFFFFFFFFFFFFFFFFFFFFFFFFFFFFFFFFFF
310
F000FFFFFFFFFFFFFFFFFFFFFFFFFFFFFFFFFFFFFFFFFFFFFFFFFFFFFFFFFFFF
310
FFFFFFFFFFFFFFFFFFFFFFFFFFFFFFFFFFFFFFFFFFFFFFFFFFFFFFFFFFFFFFFF
310
FFFFFFFFFFFFFFFFFFFFFFFFFFFFFFFFFFFFFFFFFFFFFFFFF000FFFFFFFFFFFF
310
FFFFFFFFFFFFFFFFFFFFFFFFFFFFFFFFFFFFFFFFFFFFFFFFFFFFFFFFFFFFFFFF
310
FFFFFFFFFFFFFFFFFFFFFFFFFFFFFFFFFFFFFFFFFFFFFFFFFFFFFFFFFFFFFFFF
310
FFFFFFFFFFFFFFFFFFFFFFFFFFFFFFFFF000FFFFFFFFFFFFFFFFFFFFFFFFFFFF
310
FFFFFFFFFFFFFFFFFFFFFFFFFFFFFFFFFFFFFFFFFFFFFFFFFFFFFFFFFFFFFFFF
310
FFFFFFFFFFFFFFFFFFFFFFFFFFFFFFFFFFFFFFFFFFFFFFFFFFFFFFFFFFFFFFFF
310
FFFFFFFFFFFFFFFFF000FFFFF80003FFFFFFFFFFFFFFFFFFFFFFFFFFFFFFFFFF
310
FFFFF00007FFFFFFFFFF00007FFFFFF800000000000000007FFFFFFFFFFFFFFF
310
FFFFFFFC001FFFFFFFFFFFFFFC001FFFFFFFFFFFFFFFFFFFFFFFFFFE0007FFFF
310
F000FFFF8000007FFFFFFFF8000FFFFFC0007FFFFF80007FFFFF0000007FFFFF
310
FFF8000007FFFFF800000000000000007FFFFFF0001FFFFFFFFFFFC00001FFFF
310
FFFFFFFFC00001FFFFFFFF000000000003FFFFE000007FFFF000FFFE0000000F
310
FFFFFFF0000FFFFF80007FFFFF80007FFFFC0000001FFFFFFFC0000001FFFFF8
310
00000000000000007FFFFFF0001FFFFFFFFFFE0000003FFFFFFFFFFE0000003F
310
FFFFFF000000000003FFFF0000000FFFF000FFF800000003FFFFFFF00007FFFF
310
80007FFFFF80007FFFF000000007FFFFFF000000003FFFF80000000000000000
310
7FFFFFF0001FFFFFFFFFF80000000FFFFFFFFFF80000000FFFFFFF0000000000
310
03FFFC00000003FFF000FFE000000000FFFFFFF00007FFFF80003FFFFF80007F
310
FFC000000001FFFFFC000000001FFFF800000000000000007FFFFFF0001FFFFF
310
FFFFE000000003FFFFFFFFE000000003FFFFFF000000000003FFF000000000FF
310
F000FF80000000007FFFFFF00007FFFF80003FFFFF80007FFF8000000000FFFF
310
F80000000007FFF800000000000000007FFFFFF0001FFFFFFFFFC000000001FF
310
FFFFFFC000000001FFFFFF000000000003FFC0000000007FF000FF0000000000
310
3FFFFFE00007FFFF00003FFFFF80007FFE00000000003FFFF00000000003FFF8
310
00000000000000007FFFFFF0001FFFFFFFFF8000000000FFFFFFFF8000000000
310
FFFFFF000000000003FF80000000003FF000FE00000000001FFFFFE00003FFFF
310
00003FFFFF80007FFC00000000001FFFE00000000001FFF8000001FFFE000000
310
7FFFFFF0001FFFFFFFFE00000000003FFFFFFE00000000003FFFFF0000000000
310
03FF00000000001FF000FC00000000000FFFFFE00003FFFF00001FFFFF80007F
310
F800000000001FFFC00000000000FFF8000001FFFE0000007FFFFFF0001FFFFF
310
FFFC00000000001FFFFFFC00000000001FFFFF000000000003FE00000000000F
310
F000F8000000000007FFFFE00003FFFF00001FFFFF80007FF800000000000FFF
310
800000000000FFF8000001FFFE0000007FFFFFF0001FFFFFFFF800000000000F
310
FFFFF800000000000FFFFF000000000003FC000000000007F000F80000000000
310
03FFFFC00003FFFE00001FFFFF80007FF0000000000007FF0000000000007FF8
310
000001FFFE0000007FFFFFF0001FFFFFFFF0000000000007FFFFF00000000000
310
07FFFF000000000003F8000000000003F000F0000000000003FFFFC00001FFFE
310
00001FFFFF80007FE0000000000007FE0000000000003FF8000001FFFE000000
310
7FFFFFF0001FFFFFFFF0000000000007FFFFF0000000000007FFFF0000000000
310
03F800001F800003F000E00001FFF00001FFFFC00001FFFE00000FFFFF80007F
310
E00001FFE00003FE00001FFF00003FF8000001FFFE0000007FFFFFF0001FFFFF
310
FFE000003E000003FFFFE000003E000003FFFF000000000003F00001FFF80001
310
F000E00007FFFC0001FFFFC00001FFFE00000FFFFF80007FC0000FFFFC0003FC
310
0000FFFFC0001FF8000001FFFE0000007FFFFFF0001FFFFFFFC00003FFE00001
310
FFFFC00003FFE00001FFFF0001FFFFFFFFF00007FFFE0001F000E0000FFFFF00
310
00FFFF800001FFFC00000FFFFF80007FC0001FFFFE0001FC0001FFFFE0001FF8
310
000001FFFE0000007FFFFFF0001FFFFFFF80000FFFF80000FFFF80000FFFF800
310
00FFFF0003FFFFFFFFE0000FFFFF8000F000C0003FFFFF8000FFFF800000FFFC
310
000007FFFF80007F80003FFFFF0001FC0003FFFFF0001FF8000001FFFE000000
310
7FFFFFF0001FFFFFFF80003FFFFE0000FFFF80003FFFFE0000FFFF0003FFFFFF
310
FFE0003FFFFF8000F000C0003FFFFF8000FFFF800000FFFC000007FFFF80007F
310
80007FFFFF8001F80007FFFFF8000FF8000001FFFE0000007FFFFFF0001FFFFF
310
FF00007FFFFF00007FFF00007FFFFF00007FFF0003FFFFFFFFE0003FFFFFC000
310
F000C0007FFFFFC000FFFF000000FFFC000007FFFF80007F8000FFFFFF8000F8
310
000FFFFFF8000FF8000001FFFE0000007FFFFFF0001FFFFFFF0000FFFFFF8000
310
7FFF0000FFFFFF80007FFF0003FFFFFFFFC0007FFFFFC00070008000FFFFFFC0
310
00FFFF000000FFF8000007FFFF80007F8000FFFFFF8000F8000FFFFFF8000FF8
310
000001FFFE0000007FFFFFF0001FFFFFFE0001FFFFFFC0003FFE0001FFFFFFC0
310
003FFF0003FFFFFFFFC0007FFFFFE00070008000FFFFFFC0007FFF0000007FF8
310
000003FFFF80007F0001FFFFFF8000F8000FFFFFF8000FF8000001FFFE000000
310
7FFFFFF0001FFFFFFE0001FFFFFFC0003FFE0001FFFFFFC0003FFF0003FFFFFF
310
FFC000FFFFFFE00070008000FFFFFFC0007FFF0000007FF8000003FFFF80007F
310
0001FFFFFF8000F8001FFFFFF8000FF8000001FFFE0000007FFFFFF0001FFFFF
310
FE0003FFFFFFE0003FFE0003FFFFFFE0003FFF0003FFFFFFFFC000FFFFFFE000
310
70008000FFFFFFC0007FFE0000007FF8000003FFFF80007F0001FFFFFF8000F0
310
001FFFFFF8000FF8000001FFFE0000007FFFFFF0001FFFFFFC0003FFFFFFE000
310
1FFC0003FFFFFFE0001FFF0003FFFFFFFFC000FFFFFFC00070008000FFFFFF80
310
007FFE0000007FF0000003FFFF80007F0001FFFFFF0000F0001FFFFFF8000FF8
310
000001FFFE0000007FFFFFF0001FFFFFFC0007FFFFFFF0001FFC0007FFFFFFF0
310
001FFF0003FFFFFFFFC000FFFFFFC00070008001FFFFFF0000FFFE0000003FF0
310
000001FFFF80007F0001FFFFFF0000F8001FFFFFF0000FF8000001FFFE000000
310
7FFFFFF0001FFFFFFC0007FFFFFFF0001FFC0007FFFFFFF0001FFF0003FFFFFF
310
FFC001FFFFFF80007000FFFFFFFFFE0000FFFE0008003FF0008001FFFF80007F
310
FFFFFFFFFC0000FFFFFFFFFFE0000FF8000001FFFE0000007FFFFFF0001FFFFF
310
F8000FFFFFFFF8000FF8000FFFFFFFF8000FFF0003FFFFFFFFFFFFFFFFFF0000
310
7000FFFFFFFFFC0000FFFC0008003FF0008001FFFF80007FFFFFFFFFF80001FF
310
FFFFFFFF80000FF8000001FFFE0000007FFFFFF0001FFFFFF8000FFFFFFFF800
310
0FF8000FFFFFFFF8000FFF0003FFFFFFFFFFFFFFFFFE0000F000FFFFFFFFE000
310
00FFFC000C003FE000C001FFFF80007FFFFFFFFFC00001FFFFFFFFFE00001FF8
310
000001FFFE0000007FFFFFF0001FFFFFF8000FFFFFFFF8000FF8000FFFFFFFF8
310
000FFF0003FFFFFFFFFFFFFFFFF00000F000FFFFFFFE000001FFFC000C001FE0
310
00C000FFFF80007FFFFFFFFE000001FFFFFFFFE000001FF80FFFFFFFFFFFFFC0
310
7FFFFFF0001FFFFFF8000FFFFFFFF8000FF8000FFFFFFFF8000FFF0003FFFFFF
310
FFFFFFFFFF800000F000FFFFFFC0000001FFFC001C001FE001C000FFFF80007F
310
FFFFFF80000003FFFFFFF80000001FF80FFFFFFFFFFFFFC07FFFFFF0001FFFFF
310
F8001FFFFFFFFC000FF8001FFFFFFFFC000FFF0003FFFFFFFFFFFFFFF0000001
310
F000FFFFF800000001FFF8001C001FE001C000FFFF80007FFFFFF800000003FF
310
FFFF800000003FF80FFFFFFFFFFFFFC07FFFFFF0001FFFFFF8001FFFFFFFFC00
310
0FF8001FFFFFFFFC000FFF0003FFFFFFFFFFFFFE00000001F000FFFFC0000000
310
03FFF8001E001FC001E000FFFF80007FFFFF8000000007FFFFFC000000003FF8
310
0FFFFFFFFFFFFFC07FFFFFF0001FFFFFF8001FFFFFFFFC000FF8001FFFFFFFFC
310
000FFF0003FFFFFFFFFFFFE000000003F000FFFE0000000007FFF8001E000FC0
310
01E0007FFF80007FFFFE0000000007FFFFE0000000007FF80FFFFFFFFFFFFFC0
310
7FFFFFF0001FFFFFF0001FFFFFFFFC0007F0001FFFFFFFFC0007FF0003FFFFFF
310
FFFFFF0000000003F000FFF80000000007FFF8001E000FC003E0007FFF80007F
310
FFF0000000000FFFFF8000000000FFF80FFFFFFFFFFFFFC07FFFFFF0001FFFFF
310
F0001FFFFFFFFC0007F0001FFFFFFFFC0007FF0003FFFFFFFFFFFC0000000007
310
F000FFE0000000000FFFF0003E000FC003E0007FFF80007FFFC0000000001FFF
310
FE0000000001FFF80FFFFFFFFFFFFFC07FFFFFF0001FFFFFF0001FFFFFFFFC00
310
07F0001FFFFFFFFC0007FF0003FFFFFFFFFFF0000000000FF000FFC000000000
310
1FFFF0003F000F8003F0003FFF80007FFF80000000003FFFF80000000003FFF8
310
0FFFFFFFFFFFFFC07FFFFFF0001FFFFFF0001FFFFFFFFC0007F0001FFFFFFFFC
310
0007FF0003FFFFFFFFFFE0000000001FF000FF00000000007FFFF0003F000780
310
03F0003FFF80007FFF00000000007FFFF00000000007FFF80FFFFFFFFFFFFFC0
310
7FFFFFF0001FFFFFF0001FFFFFFFFC0007F0001FFFFFFFFC0007FF0003FFFFFF
310
FFFF80000000007FF000FE0000000000FFFFE0003F00078007F0003FFF80007F
310
FE0000000001FFFFE0000000001FFFF80FFFFFFFFFFFFFC07FFFFFF0001FFFFF
310
F0001FFFFFFFFC0007F0001FFFFFFFFC0007FF0003FFFFFFFFFF0000000000FF
310
F000FC0000000003FFFFE0007F00078007F0003FFF80007FFC0000000007FFFF
310
C0000000007FFFF80FFFFFFFFFFFFFC07FFFFFF0001FFFFFF8001FFFFFFFFC00
310
0FF8001FFFFFFFFC000FFF0003FFFFFFFFFE0000000003FFF000FC000000000F
310
FFFFE0007F80070007F8001FFF80007FF8000000001FFFFF8000000001FFFFF8
310
0FFFFFFFFFFFFFC07FFFFFF0001FFFFFF8001FFFFFFFFC000FF8001FFFFFFFFC
310
000FFF0003FFFFFFFFFC000000000FFFF000F8000000007FFFFFE0007F800700
310
07F8001FFF80007FF000000000FFFFFF800000000FFFFFF80FFFFFFFFFFFFFC0
310
7FFFFFF0001FFFFFF8000FFFFFFFF8000FF8000FFFFFFFF8000FFF0003FFFFFF
310
FFFC000000007FFFF000F800000007FFFFFFC0007F8003000FF8001FFF80007F
310
F000000007FFFFFF000000007FFFFFF80FFFFFFFFFFFFFC07FFFFFF0001FFFFF
310
F8000FFFFFFFF8000FF8000FFFFFFFF8000FFF0003FFFFFFFFF80000000FFFFF
310
F000F0000000FFFFFFFFC000FF8003000FF8001FFF80007FE0000000FFFFFFFF
310
0000000FFFFFFFF8000001FFFE0000007FFFFFF0001FFFFFF8000FFFFFFFF800
310
0FF8000FFFFFFFF8000FFF0003FFFFFFFFF8000000FFFFFFF000F000000FFFFF
310
FFFFC000FFC002000FF8000FFF80007FE000001FFFFFFFFE000001FFFFFFFFF8
310
000001FFFE0000007FFFFFF0001FFFFFF8000FFFFFFFF8000FF8000FFFFFFFF8
310
000FFF0003FFFFFFFFF000001FFFFFFFF000E00000FFFFFFFFFFC000FFC00200
310
0FFC000FFF80007FE00001FFFFFFFFFE00001FFFFFFFFFF8000001FFFE000000
310
7FFFFFF0001FFFFFFC000FFFFFFFF8001FFC000FFFFFFFF8001FFF0003FFFFFF
310
FFF00001FFFFFFFFF000E00007FFFFFFFFFF8000FFC000001FFC000FFF80007F
310
C0000FFFFFFFFFFE0000FFFFFFFFFFF8000001FFFE0000007FFFFFF0001FFFFF
310
FC0007FFFFFFF0001FFC0007FFFFFFF0001FFF0003FFFFFFFFF00007FFFFFFFF
310
F000E0001FFFFFFFFFFF8000FFC000001FFC000FFF80007FC0003FFFFFFFFFFE
310
0001FFFFFFFFFFF8000001FFFE0000007FFFFFF0001FFFFFFC0007FFFFFFF000
310
1FFC0007FFFFFFF0001FFF0003FFFFFFFFF0001FFFFFFFFFF000E0003FFFFF00
310
03FF8001FFE000001FFC0007FF80007FC0007FFFFF0007FC0003FFFFF0003FF8
310
000001FFFE0000007FFFFFF0001FFFFFFC0003FFFFFFE0001FFC0003FFFFFFE0
310
001FFF0003FFFFFFFFF0003FFFFFFFFFF000E0003FFFFF0001FF8001FFE00000
310
1FFE0007FF80007FC0007FFFFE0003FC0007FFFFE0003FF8000001FFFE000000
310
7FFFFFF0001FFFFFFE0003FFFFFFE0003FFE0003FFFFFFE0003FFF0003FFFFFF
310
FFF0003FFFFF8001F000E0003FFFFF0001FF0001FFE000001FFE0007FF80007F
310
C0007FFFFE0003FC0007FFFFE0003FF8000001FFFE0000007FFFFFF0001FFFFF
310
FE0001FFFFFFC0003FFE0001FFFFFFC0003FFF0003FFFFFFFFF0003FFFFF0001
310
F000E0003FFFFF0003FF0001FFE000003FFE0007FF80007FC0007FFFFE0003FC
310
0007FFFFE0003FF8000001FFFE0000007FFFFFF0001FFFFFFF0001FFFFFFC000
310
7FFF0001FFFFFFC0007FFF0003FFFFFFFFF0003FFFFF0001F000E0003FFFFE00
310
03FF0003FFF000003FFE0003FF80007FC0007FFFFC0003FE0007FFFFE0003FF8
310
000001FFFE0000007FFFFFF0001FFFFFFF0000FFFFFF80007FFF0000FFFFFF80
310
007FFF0003FFFFFFFFF0003FFFFF0001F000E0003FFFFE0003FF0003FFF00000
310
3FFF0003FF80007FC0007FFFFC0007FE0007FFFFC0003FF8000001FFFE000000
310
7FFFFFF0001FFFFFFF80007FFFFF0000FFFF80007FFFFF0000FFFF0003FFFFFF
310
FFF0003FFFFF0003F000E0003FFFFC0003FE0003FFF000003FFF0003FF80007F
310
E0003FFFF80007FE0003FFFFC0007FF8000001FFFE0000007FFFFFF0001FFFFF
310
FF80003FFFFE0000FFFF80003FFFFE0000FFFF0003FFFFFFFFF0001FFFFE0003
310
F000F0001FFFF80003FE0003FFF000007FFF0001FF80007FE0003FFFF00007FE
310
0001FFFF80007FF8000001FFFE0000007FFFFFF0001FFFFFFFC0000FFFF80001
310
FFFFC0000FFFF80001FFFF0003FFFFFFFFF0001FFFFC0003F000F0000FFFF000
310
07FE0007FFF800007FFF0001FF80007FE0001FFFE00007FF0000FFFE00007FF8
310
000001FFFE0000007FFFFFF0001FFFFFFFC00003FFE00001FFFFC00003FFE000
310
01FFFF0003FFFFFFFFF8000FFFF80003F000F00003FFC00007FC0007FFF80000
310
7FFF8001FF80007FF00007FF80000FFF00007FF80000FFF8000001FFFE000000
310
7F80000000000001FFE000003E000003FFFFE000003E000003FFFF0003FFFFFF
310
FFF80003FFE00007F000F800000000000FFC0007FFF800007FFF8001FF80007F
310
F000000000000FFF000000000000FFF8000001FFFE0000007F80000000000001
310
FFF0000000000007FFFFF0000000000007FFFF0003FFFFFFFFFC00007E000007
310
F000F800000000000FFC0007FFF80000FFFF8000FF80007FF800000000001FFF
310
800000000001FFF8000001FFFE0000007F80000000000001FFF800000000000F
310
FFFFF800000000000FFFFF0003FFFFFFFFFC00000000000FF000FC0000000000
310
1FFC0007FFFC0000FFFF8000FF80007FF800000000003FFFC00000000001FFF8
310
000001FFFE0000007F80000000000001FFF800000000000FFFFFF80000000000
310
0FFFFF0003FFFFFFFFFE00000000001FF000FE00000000003FF8000FFFFC0000
310
FFFF8000FF80007FFC00000000003FFFC00000000003FFF8000001FFFE000000
310
7F80000000000001FFFC00000000001FFFFFFC00000000001FFFFF0003FFFFFF
310
FFFF00000000001FF000FF00000000003FF8000FFFFC0000FFFFC000FF80007F
310
FE00000000007FFFE00000000007FFF8000001FFFE0000007F80000000000001
310
FFFE00000000003FFFFFFE00000000003FFFFF0003FFFFFFFFFF80000000003F
310
F000FF80000000007FF8000FFFFC0001FFFFC0007F80007FFF0000000000FFFF
310
F0000000000FFFF800000000000000007F80000000000001FFFF8000000000FF
310
FFFFFF8000000000FFFFFF0003FFFFFFFFFFC0000000007FF000FFC000000000
310
FFF8000FFFFE0001FFFFC0007F80007FFF8000000001FFFFF8000000001FFFF8
310
00000000000000007F80000000000001FFFFC000000001FFFFFFFFC000000001
310
FFFFFF0003FFFFFFFFFFE000000000FFF000FFE000000003FFF0001FFFFE0001
310
FFFFC0007F80007FFFC000000007FFFFFE000000003FFFF80000000000000000
310
7F80000000000001FFFFE000000003FFFFFFFFE000000003FFFFFF0003FFFFFF
310
FFFFF000000003FFF000FFF80000000FFFF0001FFFFE0001FFFFE0007F80007F
310
FFF00000000FFFFFFF00000000FFFFF800000000000000007F80000000000001
310
FFFFF80000000FFFFFFFFFF80000000FFFFFFF0003FFFFFFFFFFFC0000000FFF
310
F000FFFE0000003FFFF0001FFFFE0003FFFFE0003F80007FFFFC0000003FFFFF
310
FFC0000003FFFFF800000000000000007F80000000000001FFFFFE0000003FFF
310
FFFFFFFE0000003FFFFFFF0003FFFFFFFFFFFF0000003FFFF000FFFF800000FF
310
FFF0001FFFFF0003FFFFE0003F80007FFFFF000001FFFFFFFFF800001FFFFFF8
310
00000000000000007F80000000000001FFFFFFC00001FFFFFFFFFFFFC00001FF
310
FFFFFF0003FFFFFFFFFFFFC00000FFFFF000FFFFF8000FFFFFFFFFFFFFFFFFFF
310
FFFFFFFFFFFFFFFFFFFFF0001FFFFFFFFFFF0000FFFFFFF80000000000000000
310
7FFFFFFFFFFFFFFFFFFFFFFC001FFFFFFFFFFFFFFC001FFFFFFFFFFFFFFFFFFF
310
FFFFFFFC001FFFFFF000FFFFFFFFFFFFFFFFFFFFFFFFFFFFFFFFFFFFFFFFFFFF
310
FFFFFFFFFFFFFFFFFFFFFFFFFFFFFFFFFFFFFFFFFFFFFFFFFFFFFFFFFFFFFFFF
310
FFFFFFFFFFFFFFFFFFFFFFFFFFFFFFFFFFFFFFFFFFFFFFFFFFFFFFFFFFFFFFFF
310
F000FFFFFFFFFFFFFFFFFFFFFFFFFFFFFFFFFFFFFFFFFFFFFFFFFFFFFFFFFFFF
310
FFFFFFFFFFFFFFFFFFFFFFFFFFFFFFFFFFFFFFFFFFFFFFFFFFFFFFFFFFFFFFFF
310
FFFFFFFFFFFFFFFFFFFFFFFFFFFFFFFFFFFFFFFFFFFFFFFFF000FFFFFFFFFFFF
310
FFFFFFFFFFFFFFFFFFFFFFFFFFFFFFFFFFFFFFFFFFFFFFFFFFFFFFFFFFFFFFFF
310
FFFFFFFFFFFFFFFFFFFFFFFFFFFFFFFFFFFFFFFFFFFFFFFFFFFFFFFFFFFFFFFF
310
FFFFFFFFFFFFFFFFFFFFFFFFFFFFFFFFF000FFFFFFFFFFFFFFFFFFFFFFFFFFFF
310
FFFFFFFFFFFFFFFFFFFFFFFFFFFFFFFFFFFFFFFFFFFFFFFFFFFFFFFFFFFFFFFF
310
FFFFFFFFFFFFFFFFFFFFFFFFFFFFFFFFFFFFFFFFFFFFFFFFFFFFFFFFFFFFFFFF
310
FFFFFFFFFFFFFFFFF000FFFFFFFFFFFFFFFFFFFFFFFFFFFFFFFFFFFFFFFFFFFF
310
FFFFFFFFFFFFFFFFFFFFFFFFFFFFFFFFFFFFFFFFFFFFFFFFFFFFFFFFFFFFFFFF
310
FFFFFFFFFFFFFFFFFFFFFFFFFFFFFFFFFFFFFFFFFFFFFFFFFFFFFFFFFFFFFFFF
310
F000FFFFFFFFFFFFFFFFFFFFFFFFFFFFFFFFFFFFFFFFFFFFFFFFFFFFFFFFFFFF
310
FFFFFFFFFFFFFFFFFFFFFFFFFFFFFFFFFFFFFFFFFFFFFFFFFFFFFFFFFFFFFFFF
310
FFFFFFFFFFFFFFFFFFFFFFFFFFFFFFFFFFFFFFFFFFFFFFFFF000FFFFFFFFFFFF
310
FFFFFFFFFFFFFFFFFFFFFFFFFFFFFFFFFFFFFFFFFFFFFFFFFFFFFFFFFFFFFFFF
310
FFFFFFFFFFFFFFFFFFFFFFFFFFFFFFFFFFFFFFFFFFFFFFFFFFFFFFFFFFFFFFFF
310
FFFFFFFFFFFFFFFFFFFFFFFFFFFFFFFFF000FFFFFFFFFFFFFFFFFFFFFFFFFFFF
310
FFFFFFFFFFFFFFFFFFFFFFFFFFFFFFFFFFFFFFFFFFFFFFFFFFFFFFFFFFFFFFFF
310
FFFFFFFFFFFFFFFFFFFFFFFFFFFFFFFFFFFFFFFFFFFFFFFFFFFFFFFFFFFFFFFF
310
FFFFFFFFFFFFFFFFF000FFFFFFFFFFFFFFFFFFFFFFFFFFFFFFFFFFFFFFFFFFFF
310
FFFFFFFFFFFFFFFFFFFFFFFFFFFFFFFFFFFFFFFFFFFFFFFFFFFFFFFFFFFFFFFF
310
FFFFFFFFFFFFFFFFFFFFFFFFFFFFFFFFFFFFFFFFFFFFFFFFFFFFFFFFFFFFFFFF
310
F000FFFFFFFFFFFFFFFFFFFFFFFFFFFFFFFFFFFFFFFFFFFFFFFFFFFFFFFFFFFF
310
FFFFFFFFFFFFFFFFFFFFFFFFFFFFFFFFFFFFFFFFFFFFFFFFFFFFFFFFFFFFFFFF
310
FFFFFFFFFFFFFFFFFFFFFFFFFFFFFFFFFFFFFFFFFFFFFFFFF000FFFFFFFFFFFF
310
FFFFFFFFFFFFFFFFFFFFFFFFFFFFFFFFFFFFFFFFFFFFFFFFFFFFFFFFFFFFFFFF
310
FFFFFFFFFFFFFFFFFFFFFFFFFFFFFFFFFFFFFFFFFFFFFFFFFFFFFFFFFFFFFFFF
310
FFFFFFFFFFFFFFFFFFFFFFFFFFFFFFFFF000FFFFFFFFFFFFFFFFFFFFFFFFFFFF
310
FFFFFFFFFFFFFFFFFFFFFFFFFFFFFFFFFFFFFFFFFFFFFFFFFFFFFFFFFFFFFFFF
310
FFFFFFFFFFFFFFFFFFFFFFFFFFFFFFFFFFFFFFFFFFFFFFFFFFFFFFFFFFFFFFFF
310
FFFFFFFFFFFFFFFFF000FFFFFFFFFFFFFFFFFFFFFFFFFFFFFFFFFFFFFFFFFFFF
310
FFFFFFFFFFFFFFFFFFFFFFFFFFFFFFFFFFFFFFFFFFFFFFFFFFFFFFFFFFFFFFFF
310
FFFFFFFFFFFFFFFFFFFFFFFFFFFFFFFFFFFFFFFFFFFFFFFFFFFFFFFFFFFFFFFF
310
F000FFFFFFFFFFFFFFFFFFFFFFFFFFFFFFFFFFFFFFFFFFFFFFFFFFFFFFFFFFFF
310
FFFFFFFFFFFFFFFFFFFFFFFFFFFFFFFFFFFFFFFFFFFFFFFFFFFFFFFFFFFFFFFF
310
FFFFFFFFFFFFFFFFFFFFFFFFFFFFFFFFFFFFFFFFFFFFFFFFF000FFFFFFFFFFFF
310
FFFFFFFFFFFFFFFFFFFFFFFFFFFFFFFFFFFFFFFFFFFFFFFFFFFFFFFFFFFFFFFF
310
FFFFFFFFFFFFFFFFFFFFFFFFFFFFFFFFFFFFFFFFFFFFFFFFFFFFFFFFFFFFFFFF
310
FFFFFFFFFFFFFFFFFFFFFFFFFFFFFFFFF000FFFFFFFFFFFFFFFFFFFFFFFFFFFF
310
FFFFFFFFFFFFFFFFFFFFFFFFFFFFFFFFFFFFFFFFFFFFFFFFFFFFFFFFFFFFFFFF
310
FFFFFFFFFFFFFFFFFFFFFFFFFFFFFFFFFFFFFFFFFFFFFFFFFFFFFFFFFFFFFFFF
310
FFFFFFFFFFFFFFFFF000FFFFFFFFFFFFFFFFFFFFFFFFFFFFFFFFFFFFFFFFFFFF
310
FFFFFFFFFFFFFFFFFFFFFFFFFFFFFFFFFFFFFFFFFFFFFFFFFFFFFFFFFFFFFFFF
310
FFFFFFFFFFFFFFFFFFFFFFFFFFFFFFFFFFFFFFFFFFFFFFFFFFFFFFFFFFFFFFFF
310
F000FFFFFFFFFFFFFFFFFFFFFFFFFFFFFFFFFFFFFFFFFFFFFFFFFFFFFFFFFFFF
310
FFFFFFFFFFFFFFFFFFFFFFFFFFFFFFFFFFFFFFFFFFFFFFFFFFFFFFFFFFFFFFFF
310
FFFFFFFFFFFFFFFFFFFFFFFFFFFFFFFFFFFFFFFFFFFFFFFFF000FFFFFFFFFFFF
310
FFFFFFFFFFFFFFFFFFFFFFFFFFFFFFFFFFFFFFFFFFFFFFFFFFFFFFFFFFFFFFFF
310
FFFFFFFFFFFFFFFFFFFFFFFFFFFFFFFFFFFFFFFFFFFFFFFFFFFFFFFFFFFFFFFF
310
FFFFFFFFFFFFFFFFFFFFFFFFFFFFFFFFF000FFFFFFFFFFFFFFFFFFFFFFFFFFFF
310
FFFFFFFFFFFFFFFFFFFFFFFFFFFFFFFFFFFFFFFFFFFFFFFFFFFFFFFFFFFFFFFF
310
FFFFFFFFFFFFFFFFFFFFFFFFFFFFFFFFFFFFFFFFFFFFFFFFFFFFFFFFFFFFFFFF
310
FFFFFFFFFFFFFFFFF000FFFFFFFFFFFFFFFFFFFFFFFFFFFFFFFFFFFFFFFFFFFF
310
FFFFFFFFFFFFFFFFFFFFFFFFFFFFFFFFFFFFFFFFFFFFFFFFFFFFFFFFFFFFFFFF
310
FFFFFFFFFFFFFFFFFFFFFFFFFFFFFFFFFFFFFFFFFFFFFFFFFFFFFFFFFFFFFFFF
310
F000FFFFFFFFFFFFFFFFFFFFFFFFFFFFFFFFFFFFFFFFFFFFFFFFFFFFFFFFFFFF
310
FFFFFFFFFFFFFFFFFFFFFFFFFFFFFFFFFFFFFFFFFFFFFFFFFFFFFFFFFFFFFFFF
310
FFFFFFFFFFFFFFFFFFFFFFFFFFFFFFFFFFFFFFFFFFFFFFFFF000FFFFFFFFFFFF
310
FFFFFFFFFFFFFFFFFFFFFFFFFFFFFFFFFFFFFFFFFFFFFFFFFFFFFFFFFFFFFFFF
310
FFFFFFFFFFFFFFFFFFFFFFFFFFFFFFFFFFFFFFFFFFFFFFFFFFFFFFFFFFFFFFFF
310
FFFFFFFFFFFFFFFFFFFFFFFFFFFFFFFFF0000000000000000000000000000000
310
0000000000000000000000000000000000000000000000000000000000000000
310
0000000000000000000000000000000000000000000000000000000000000000
310
0000000000000000000000000000000000000000000000000000000000000000
310
0000000000000000000000000000000000000000000000000000000000000000
310
0000000000000000000000000000000000000000000000000000000000000000
310
0000000000000000000000000000000000000000000000000000000000000000
310
0000000000000000000000000000000000000000000000000000000000000000
310
0000000000000000000000000000000000000000000000000000000000000000
310
0000000000000000000000000000000000000000000000000000000000000000
310
0000000000000000000000000000000000000000000000000000000000000000
310
0000000000000000000000000000000000000000000000000000000000000000
310
0000000000000000000000000000000000000000000000000000000000000000
310
0000000000000000000000000000000000000000000000000000000000000000
310
0000000000000000000000000000000000000000000000000000000000000000
310
0000000000000000000000000000000000000000000000000000000000000000
  1
OLE
  0
ENDSEC
  0
SECTION
  2
OBJECTS
  0
DICTIONARY
  5
C
330
0
100
AcDbDictionary
281
     1
  3
ACAD_GROUP
350
D
  3
ACAD_LAYOUT
350
1A
  3
ACAD_MLINESTYLE
350
17
  3
ACAD_PLOTSETTINGS
350
19
  3
ACAD_PLOTSTYLENAME
350
E
  0
DICTIONARY
  5
D
102
{ACAD_REACTORS
330
C
102
}
330
C
100
AcDbDictionary
281
     1
  0
DICTIONARY
  5
1A
102
{ACAD_REACTORS
330
C
102
}
330
C
100
AcDbDictionary
281
     1
  3
Layout1
350
1E
  3
Layout2
350
26
  3
Model
350
22
  0
DICTIONARY
  5
17
102
{ACAD_REACTORS
330
C
102
}
330
C
100
AcDbDictionary
281
     1
  3
Standard
350
18
  0
DICTIONARY
  5
19
102
{ACAD_REACTORS
330
C
102
}
330
C
100
AcDbDictionary
281
     1
  0
ACDBDICTIONARYWDFLT
  5
E
102
{ACAD_REACTORS
330
C
102
}
330
C
100
AcDbDictionary
281
     1
  3
Normal
350
F
100
AcDbDictionaryWithDefault
340
F
  0
LAYOUT
  5
1E
102
{ACAD_REACTORS
330
1A
102
}
330
1A
100
AcDbPlotSettings
  1

  2
none_device
  4

  6

 40
0.0
 41
0.0
 42
0.0
 43
0.0
 44
0.0
 45
0.0
 46
0.0
 47
0.0
 48
0.0
 49
0.0
140
0.0
141
0.0
142
1.0
143
1.0
 70
   688
 72
     0
 73
     0
 74
     5
  7

 75
    16
147
1.0
148
0.0
149
0.0
100
AcDbLayout
  1
Layout1
 70
     1
 71
     1
 10
0.0
 20
0.0
 11
420.0
 21
297.0
 12
0.0
 22
0.0
 32
0.0
 14
1.0000000000E+20
 24
1.0000000000E+20
 34
1.0000000000E+20
 15
-1.0000000000E+20
 25
-1.0000000000E+20
 35
-1.0000000000E+20
146
0.0
 13
0.0
 23
0.0
 33
0.0
 16
1.0
 26
0.0
 36
0.0
 17
0.0
 27
1.0
 37
0.0
 76
     0
330
1B
  0
LAYOUT
  5
26
102
{ACAD_REACTORS
330
1A
102
}
330
1A
100
AcDbPlotSettings
  1

  2
none_device
  4

  6

 40
0.0
 41
0.0
 42
0.0
 43
0.0
 44
0.0
 45
0.0
 46
0.0
 47
0.0
 48
0.0
 49
0.0
140
0.0
141
0.0
142
1.0
143
1.0
 70
   688
 72
     0
 73
     0
 74
     5
  7

 75
    16
147
1.0
148
0.0
149
0.0
100
AcDbLayout
  1
Layout2
 70
     1
 71
     2
 10
0.0
 20
0.0
 11
0.0
 21
0.0
 12
0.0
 22
0.0
 32
0.0
 14
0.0
 24
0.0
 34
0.0
 15
0.0
 25
0.0
 35
0.0
146
0.0
 13
0.0
 23
0.0
 33
0.0
 16
1.0
 26
0.0
 36
0.0
 17
0.0
 27
1.0
 37
0.0
 76
     0
330
23
  0
LAYOUT
  5
22
102
{ACAD_REACTORS
330
1A
102
}
330
1A
100
AcDbPlotSettings
  1

  2
none_device
  4

  6

 40
0.0
 41
0.0
 42
0.0
 43
0.0
 44
0.0
 45
0.0
 46
0.0
 47
0.0
 48
0.0
 49
0.0
140
0.0
141
0.0
142
1.0
143
1.0
 70
  1712
 72
     0
 73
     0
 74
     0
  7

 75
     0
147
1.0
148
0.0
149
0.0
100
AcDbLayout
  1
Model
 70
     1
 71
     0
 10
0.0
 20
0.0
 11
297.0
 21
210.0
 12
0.0
 22
0.0
 32
0.0
 14
0.0
 24
0.0
 34
0.0
 15
297.0
 25
210.0
 35
0.0
146
0.0
 13
0.0
 23
0.0
 33
0.0
 16
1.0
 26
0.0
 36
0.0
 17
0.0
 27
1.0
 37
0.0
 76
     0
330
1F
331
29
  0
MLINESTYLE
  5
18
102
{ACAD_REACTORS
330
17
102
}
330
17
100
AcDbMlineStyle
  2
Standard
 70
     0
  3

 62
   256
 51
90.0
 52
90.0
 71
     2
 49
0.5
 62
   256
  6
BYLAYER
 49
-0.5
 62
   256
  6
BYLAYER
  0
ACDBPLACEHOLDER
  5
F
102
{ACAD_REACTORS
330
E
102
}
330
E
  0
ENDSEC
  0
EOF
