  0
SECTION
  2
HEADER
  9
$ACADVER
  1
AC1015
  9
$ACADMAINTVER
 70
     6
  9
$DWGCODEPAGE
  3
ANSI_1252
  9
$INSBASE
 10
0.0
 20
0.0
 30
0.0
  9
$EXTMIN
 10
0.0
 20
0.0
 30
0.0
  9
$EXTMAX
 10
297.0
 20
210.0
 30
0.0
  9
$LIMMIN
 10
0.0
 20
0.0
  9
$LIMMAX
 10
297.0
 20
210.0
  9
$ORTHOMODE
 70
     0
  9
$REGENMODE
 70
     1
  9
$FILLMODE
 70
     1
  9
$QTEXTMODE
 70
     0
  9
$MIRRTEXT
 70
     1
  9
$LTSCALE
 40
1.0
  9
$ATTMODE
 70
     1
  9
$TEXTSIZE
 40
2.0
  9
$TRACEWID
 40
1.0
  9
$TEXTSTYLE
  7
Standard
  9
$CLAYER
  8
0
  9
$CELTYPE
  6
ByLayer
  9
$CECOLOR
 62
   256
  9
$CELTSCALE
 40
1.0
  9
$DISPSILH
 70
     0
  9
$DIMSCALE
 40
1.0
  9
$DIMASZ
 40
3.0
  9
$DIMEXO
 40
0.0
  9
$DIMDLI
 40
3.75
  9
$DIMRND
 40
0.0
  9
$DIMDLE
 40
0.0
  9
$DIMEXE
 40
1.0
  9
$DIMTP
 40
0.0
  9
$DIMTM
 40
0.0
  9
$DIMTXT
 40
2.0
  9
$DIMCEN
 40
2.5
  9
$DIMTSZ
 40
0.0
  9
$DIMTOL
 70
     0
  9
$DIMLIM
 70
     0
  9
$DIMTIH
 70
     1
  9
$DIMTOH
 70
     1
  9
$DIMSE1
 70
     0
  9
$DIMSE2
 70
     0
  9
$DIMTAD
 70
     1
  9
$DIMZIN
 70
     0
  9
$DIMBLK
  1

  9
$DIMASO
 70
     1
  9
$DIMSHO
 70
     1
  9
$DIMPOST
  1

  9
$DIMAPOST
  1

  9
$DIMALT
 70
     0
  9
$DIMALTD
 70
     3
  9
$DIMALTF
 40
0.0393700787
  9
$DIMLFAC
 40
1.0
  9
$DIMTOFL
 70
     1
  9
$DIMTVP
 40
0.0
  9
$DIMTIX
 70
     0
  9
$DIMSOXD
 70
     0
  9
$DIMSAH
 70
     0
  9
$DIMBLK1
  1

  9
$DIMBLK2
  1

  9
$DIMSTYLE
  2
ISO-25
  9
$DIMCLRD
 70
     0
  9
$DIMCLRE
 70
     0
  9
$DIMCLRT
 70
     0
  9
$DIMTFAC
 40
1.0
  9
$DIMGAP
 40
1.524
  9
$DIMJUST
 70
     0
  9
$DIMSD1
 70
     0
  9
$DIMSD2
 70
     0
  9
$DIMTOLJ
 70
     0
  9
$DIMTZIN
 70
     0
  9
$DIMALTZ
 70
     0
  9
$DIMALTTZ
 70
     0
  9
$DIMUPT
 70
     0
  9
$DIMDEC
 70
     2
  9
$DIMTDEC
 70
     3
  9
$DIMALTU
 70
     2
  9
$DIMALTTD
 70
     3
  9
$DIMTXSTY
  7
Standard
  9
$DIMAUNIT
 70
     0
  9
$DIMADEC
 70
     2
  9
$DIMALTRND
 40
0.0
  9
$DIMAZIN
 70
     0
  9
$DIMDSEP
 70
    44
  9
$DIMATFIT
 70
     3
  9
$DIMFRAC
 70
     0
  9
$DIMLDRBLK
  1

  9
$DIMLUNIT
 70
     2
  9
$DIMLWD
 70
    -2
  9
$DIMLWE
 70
    -2
  9
$DIMTMOVE
 70
     0
  9
$LUNITS
 70
     2
  9
$LUPREC
 70
     2
  9
$SKETCHINC
 40
1.0
  9
$FILLETRAD
 40
10.0
  9
$AUNITS
 70
     0
  9
$AUPREC
 70
     2
  9
$MENU
  1
.
  9
$ELEVATION
 40
0.0
  9
$PELEVATION
 40
0.0
  9
$THICKNESS
 40
0.0
  9
$LIMCHECK
 70
     0
  9
$CHAMFERA
 40
0.0
  9
$CHAMFERB
 40
0.0
  9
$CHAMFERC
 40
0.0
  9
$CHAMFERD
 40
0.0
  9
$SKPOLY
 70
     0
  9
$TDCREATE
 40
2458170.639972107
  9
$TDUCREATE
 40
2458170.59830544
  9
$TDUPDATE
 40
2458170.639973472
  9
$TDUUPDATE
 40
2458170.598306805
  9
$TDINDWG
 40
0.0000000116
  9
$TDUSRTIMER
 40
0.0000000116
  9
$USRTIMER
 70
     1
  9
$ANGBASE
 50
0.0
  9
$ANGDIR
 70
     0
  9
$PDMODE
 70
     0
  9
$PDSIZE
 40
-1.0
  9
$PLINEWID
 40
0.0
  9
$SPLFRAME
 70
     0
  9
$SPLINETYPE
 70
     6
  9
$SPLINESEGS
 70
     8
  9
$HANDSEED
  5
1EA
  9
$SURFTAB1
 70
     6
  9
$SURFTAB2
 70
     6
  9
$SURFTYPE
 70
     6
  9
$SURFU
 70
     6
  9
$SURFV
 70
     6
  9
$UCSBASE
  2

  9
$UCSNAME
  2

  9
$UCSORG
 10
0.0
 20
0.0
 30
0.0
  9
$UCSXDIR
 10
1.0
 20
0.0
 30
0.0
  9
$UCSYDIR
 10
0.0
 20
1.0
 30
0.0
  9
$UCSORTHOREF
  2

  9
$UCSORTHOVIEW
 70
     0
  9
$UCSORGTOP
 10
0.0
 20
0.0
 30
0.0
  9
$UCSORGBOTTOM
 10
0.0
 20
0.0
 30
0.0
  9
$UCSORGLEFT
 10
0.0
 20
0.0
 30
0.0
  9
$UCSORGRIGHT
 10
0.0
 20
0.0
 30
0.0
  9
$UCSORGFRONT
 10
0.0
 20
0.0
 30
0.0
  9
$UCSORGBACK
 10
0.0
 20
0.0
 30
0.0
  9
$PUCSBASE
  2

  9
$PUCSNAME
  2

  9
$PUCSORG
 10
0.0
 20
0.0
 30
0.0
  9
$PUCSXDIR
 10
1.0
 20
0.0
 30
0.0
  9
$PUCSYDIR
 10
0.0
 20
1.0
 30
0.0
  9
$PUCSORTHOREF
  2

  9
$PUCSORTHOVIEW
 70
     0
  9
$PUCSORGTOP
 10
0.0
 20
0.0
 30
0.0
  9
$PUCSORGBOTTOM
 10
0.0
 20
0.0
 30
0.0
  9
$PUCSORGLEFT
 10
0.0
 20
0.0
 30
0.0
  9
$PUCSORGRIGHT
 10
0.0
 20
0.0
 30
0.0
  9
$PUCSORGFRONT
 10
0.0
 20
0.0
 30
0.0
  9
$PUCSORGBACK
 10
0.0
 20
0.0
 30
0.0
  9
$USERI1
 70
     0
  9
$USERI2
 70
     0
  9
$USERI3
 70
     0
  9
$USERI4
 70
     0
  9
$USERI5
 70
     0
  9
$USERR1
 40
0.0
  9
$USERR2
 40
0.0
  9
$USERR3
 40
0.0
  9
$USERR4
 40
0.0
  9
$USERR5
 40
0.0
  9
$WORLDVIEW
 70
     1
  9
$SHADEDGE
 70
     3
  9
$SHADEDIF
 70
    70
  9
$TILEMODE
 70
     1
  9
$MAXACTVP
 70
    64
  9
$PINSBASE
 10
0.0
 20
0.0
 30
0.0
  9
$PLIMCHECK
 70
     0
  9
$PEXTMIN
 10
1.0000000000E+20
 20
1.0000000000E+20
 30
1.0000000000E+20
  9
$PEXTMAX
 10
-1.0000000000E+20
 20
-1.0000000000E+20
 30
-1.0000000000E+20
  9
$PLIMMIN
 10
0.0
 20
0.0
  9
$PLIMMAX
 10
420.0
 20
297.0
  9
$UNITMODE
 70
     0
  9
$VISRETAIN
 70
     1
  9
$PLINEGEN
 70
     0
  9
$PSLTSCALE
 70
     1
  9
$TREEDEPTH
 70
  3020
  9
$CMLSTYLE
  2
Standard
  9
$CMLJUST
 70
     0
  9
$CMLSCALE
 40
20.0
  9
$PROXYGRAPHICS
 70
     1
  9
$MEASUREMENT
 70
     1
  9
$CELWEIGHT
370
    -1
  9
$ENDCAPS
280
     0
  9
$JOINSTYLE
280
     0
  9
$LWDISPLAY
290
     1
  9
$INSUNITS
 70
     4
  9
$HYPERLINKBASE
  1

  9
$STYLESHEET
  1

  9
$XEDIT
290
     1
  9
$CEPSNTYPE
380
     0
  9
$PSTYLEMODE
290
     1
  9
$FINGERPRINTGUID
  2
{94360000-AB43-4BCB-BBB2-9368FA99B6F8}
  9
$VERSIONGUID
  2
{FAEB1C32-E019-11D5-929B-00C0DF256EC4}
  9
$EXTNAMES
290
     1
  9
$PSVPSCALE
 40
0.0
  9
$OLESTARTUP
290
     0
  0
ENDSEC
  0
SECTION
  2
CLASSES
  0
CLASS
  1
ACDBDICTIONARYWDFLT
  2
AcDbDictionaryWithDefault
  3
ObjectDBX Classes
 90
        0
280
     0
281
     0
  0
CLASS
  1
VISUALSTYLE
  2
AcDbVisualStyle
  3
ObjectDBX Classes
 90
     4095
280
     0
281
     0
  0
CLASS
  1
MATERIAL
  2
AcDbMaterial
  3
ObjectDBX Classes
 90
     1153
280
     0
281
     0
  0
CLASS
  1
SCALE
  2
AcDbScale
  3
ObjectDBX Classes
 90
     1153
280
     0
281
     0
  0
CLASS
  1
TABLESTYLE
  2
AcDbTableStyle
  3
ObjectDBX Classes
 90
     4095
280
     0
281
     0
  0
CLASS
  1
MLEADERSTYLE
  2
AcDbMLeaderStyle
  3
ACDB_MLEADERSTYLE_CLASS
 90
     4095
280
     0
281
     0
  0
CLASS
  1
SUN
  2
AcDbSun
  3
SCENEOE
 90
     1153
280
     0
281
     0
  0
CLASS
  1
ACDBPLACEHOLDER
  2
AcDbPlaceHolder
  3
ObjectDBX Classes
 90
        0
280
     0
281
     0
  0
CLASS
  1
LAYOUT
  2
AcDbLayout
  3
ObjectDBX Classes
 90
        0
280
     0
281
     0
  0
ENDSEC
  0
SECTION
  2
TABLES
  0
TABLE
  2
VPORT
  5
8
330
0
100
AcDbSymbolTable
 70
     1
  0
VPORT
  5
29
330
8
100
AcDbSymbolTableRecord
100
AcDbViewportTableRecord
  2
*Active
 70
     0
 10
0.0
 20
0.0
 11
1.0
 21
1.0
 12
148.5
 22
105.0
 13
0.0
 23
0.0
 14
10.0
 24
10.0
 15
10.0
 25
10.0
 16
0.0
 26
0.0
 36
1.0
 17
0.0
 27
0.0
 37
0.0
 40
210.0
 41
1.4142857143
 42
50.0
 43
0.0
 44
0.0
 50
0.0
 51
0.0
 71
     0
 72
  2000
 73
     1
 74
     3
 75
     0
 76
     0
 77
     0
 78
     0
281
     0
 65
     1
110
0.0
120
0.0
130
0.0
111
1.0
121
0.0
131
0.0
112
0.0
122
1.0
132
0.0
 79
     0
146
0.0
  0
ENDTAB
  0
TABLE
  2
LTYPE
  5
5
330
0
100
AcDbSymbolTable
 70
     6
  0
LTYPE
  5
14
330
5
100
AcDbSymbolTableRecord
100
AcDbLinetypeTableRecord
  2
ByBlock
 70
     0
  3

 72
    65
 73
     0
 40
0.0
  0
LTYPE
  5
15
330
5
100
AcDbSymbolTableRecord
100
AcDbLinetypeTableRecord
  2
ByLayer
 70
     0
  3

 72
    65
 73
     0
 40
0.0
  0
LTYPE
  5
16
330
5
100
AcDbSymbolTableRecord
100
AcDbLinetypeTableRecord
  2
Continuous
 70
     0
  3
Solid line
 72
    65
 73
     0
 40
0.0
  0
LTYPE
  5
6E
330
5
100
AcDbSymbolTableRecord
100
AcDbLinetypeTableRecord
  2
HIDDEN
 70
     0
  3
Hidden __ __ __ __ __ __ __ __ __ __ __ __ __ __
 72
    65
 73
     2
 40
1.905
 49
1.27
 74
     0
 49
-0.635
 74
     0
  0
LTYPE
  5
6F
330
5
100
AcDbSymbolTableRecord
100
AcDbLinetypeTableRecord
  2
PHANTOM
 70
     0
  3
Phantom ______  __  __  ______  __  __  ______
 72
    65
 73
     6
 40
12.7
 49
6.35
 74
     0
 49
-1.27
 74
     0
 49
1.27
 74
     0
 49
-1.27
 74
     0
 49
1.27
 74
     0
 49
-1.27
 74
     0
  0
LTYPE
  5
70
330
5
100
AcDbSymbolTableRecord
100
AcDbLinetypeTableRecord
  2
CENTER
 70
     0
  3
Center ____ _ ____ _ ____ _ ____ _ ____ _ ____
 72
    65
 73
     4
 40
10.16
 49
6.35
 74
     0
 49
-1.27
 74
     0
 49
1.27
 74
     0
 49
-1.27
 74
     0
  0
LTYPE
  5
71
330
5
100
AcDbSymbolTableRecord
100
AcDbLinetypeTableRecord
  2
CENTERX2
 70
     0
  3
Center (2x) ________  __  ________  __  _____
 72
    65
 73
     4
 40
20.32
 49
12.7
 74
     0
 49
-2.54
 74
     0
 49
2.54
 74
     0
 49
-2.54
 74
     0
  0
LTYPE
  5
72
330
5
100
AcDbSymbolTableRecord
100
AcDbLinetypeTableRecord
  2
DOT2
 70
     0
  3
Dot (.5x) ........................................
 72
    65
 73
     2
 40
0.635
 49
0.0
 74
     0
 49
-0.635
 74
     0
  0
ENDTAB
  0
TABLE
  2
LAYER
  5
2
330
0
100
AcDbSymbolTable
 70
     5
  0
LAYER
  5
10
330
2
100
AcDbSymbolTableRecord
100
AcDbLayerTableRecord
  2
0
 70
     0
 62
     7
  6
Continuous
370
    -3
390
F
  0
LAYER
  5
73
330
2
100
AcDbSymbolTableRecord
100
AcDbLayerTableRecord
  2
FORMAT
 70
     0
 62
     7
  6
Continuous
370
    -3
390
F
  0
LAYER
  5
74
330
2
100
AcDbSymbolTableRecord
100
AcDbLayerTableRecord
  2
VERMASSUNG
 70
     0
 62
     7
  6
Continuous
370
    -3
390
F
  0
LAYER
  5
75
330
2
100
AcDbSymbolTableRecord
100
AcDbLayerTableRecord
  2
KOPF_DÜNN
 70
     0
 62
     7
  6
Continuous
370
    -3
390
F
  0
LAYER
  5
76
330
2
100
AcDbSymbolTableRecord
100
AcDbLayerTableRecord
  2
KOPF_DICK
 70
     0
 62
     7
  6
Continuous
370
    25
390
F
  0
ENDTAB
  0
TABLE
  2
STYLE
  5
3
330
0
100
AcDbSymbolTable
 70
     2
  0
STYLE
  5
11
330
3
100
AcDbSymbolTableRecord
100
AcDbTextStyleTableRecord
  2
Standard
 70
     0
 40
0.0
 41
1.0
 50
0.0
 71
     0
 42
2.0
  3
txt
  4

  0
STYLE
  5
77
330
3
100
AcDbSymbolTableRecord
100
AcDbTextStyleTableRecord
  2
SLDTEXTSTYLE0
 70
     0
 40
0.0
 41
0.7
 50
0.0
 71
     0
 42
2.0
  3
TXT
  4

  0
ENDTAB
  0
TABLE
  2
VIEW
  5
6
330
0
100
AcDbSymbolTable
 70
     0
  0
ENDTAB
  0
TABLE
  2
UCS
  5
7
330
0
100
AcDbSymbolTable
 70
     0
  0
ENDTAB
  0
TABLE
  2
APPID
  5
9
330
0
100
AcDbSymbolTable
 70
     1
  0
APPID
  5
12
330
9
100
AcDbSymbolTableRecord
100
AcDbRegAppTableRecord
  2
ACAD
 70
     0
  0
ENDTAB
  0
TABLE
  2
DIMSTYLE
  5
A
330
0
100
AcDbSymbolTable
 70
     4
100
AcDbDimStyleTable
  0
DIMSTYLE
105
27
330
A
100
AcDbSymbolTableRecord
100
AcDbDimStyleTableRecord
  2
ISO-25
 70
     0
 41
2.5
 42
0.625
 43
3.75
 44
1.25
 73
     0
 74
     0
 77
     1
 78
     8
140
2.5
141
2.5
143
0.0393700787
147
0.625
171
     3
172
     1
178
     0
271
     2
272
     2
274
     3
278
    44
283
     0
284
     8
340
11
  0
DIMSTYLE
105
109
102
{ACAD_REACTORS
330
108
102
}
330
A
100
AcDbSymbolTableRecord
100
AcDbDimStyleTableRecord
  2
SLDDIMSTYLE0
 70
     0
 41
3.0
 44
0.0
 45
0.000000001
 73
     0
 74
     0
 76
     1
 77
     1
 78
    12
 79
     3
140
2.0
147
0.5
173
     1
178
     0
271
     2
272
     3
276
     2
282
     1
284
    12
340
77
  0
DIMSTYLE
105
115
102
{ACAD_REACTORS
330
114
102
}
330
A
100
AcDbSymbolTableRecord
100
AcDbDimStyleTableRecord
  2
SLDDIMSTYLE1
 70
     0
 41
3.0
 44
0.0
 73
     0
 74
     0
 77
     1
 78
    12
 79
     3
140
2.0
147
0.5
173
     1
178
     0
179
     2
272
     3
276
     2
284
    12
340
77
  0
DIMSTYLE
105
120
102
{ACAD_REACTORS
330
11F
330
12B
102
}
330
A
100
AcDbSymbolTableRecord
100
AcDbDimStyleTableRecord
  2
SLDDIMSTYLE2
 70
     0
 41
3.0
 44
0.0
 45
0.000000001
 73
     0
 74
     0
 77
     1
 78
    12
 79
     3
140
2.0
147
0.5
173
     1
178
     0
271
     2
272
     3
276
     2
284
    12
340
77
  0
ENDTAB
  0
TABLE
  2
BLOCK_RECORD
  5
1
330
0
100
AcDbSymbolTable
 70
     6
  0
BLOCK_RECORD
  5
1F
330
1
100
AcDbSymbolTableRecord
100
AcDbBlockTableRecord
  2
*Model_Space
340
22
  0
BLOCK_RECORD
  5
1B
330
1
100
AcDbSymbolTableRecord
100
AcDbBlockTableRecord
  2
*Paper_Space
340
1E
  0
BLOCK_RECORD
  5
23
330
1
100
AcDbSymbolTableRecord
100
AcDbBlockTableRecord
  2
*Paper_Space0
340
26
  0
BLOCK_RECORD
  5
10A
330
1
100
AcDbSymbolTableRecord
100
AcDbBlockTableRecord
  2
_D
340
0
  0
BLOCK_RECORD
  5
116
330
1
100
AcDbSymbolTableRecord
100
AcDbBlockTableRecord
  2
_D_1
340
0
  0
BLOCK_RECORD
  5
121
330
1
100
AcDbSymbolTableRecord
100
AcDbBlockTableRecord
  2
_D_2
340
0
  0
BLOCK_RECORD
  5
12C
330
1
100
AcDbSymbolTableRecord
100
AcDbBlockTableRecord
  2
_D_3
340
0
  0
BLOCK_RECORD
  5
156
330
1
100
AcDbSymbolTableRecord
100
AcDbBlockTableRecord
  2
SW_CENTERMARKSYMBOL_0
340
0
102
{BLKREFS
331
161
102
}
  0
ENDTAB
  0
ENDSEC
  0
SECTION
  2
BLOCKS
  0
BLOCK
  5
20
330
1F
100
AcDbEntity
  8
0
100
AcDbBlockBegin
  2
*Model_Space
 70
     0
 10
0.0
 20
0.0
 30
0.0
  3
*Model_Space
  1

  0
ENDBLK
  5
21
330
1F
100
AcDbEntity
  8
0
100
AcDbBlockEnd
  0
BLOCK
  5
1C
330
1B
100
AcDbEntity
 67
     1
  8
0
100
AcDbBlockBegin
  2
*Paper_Space
 70
     0
 10
0.0
 20
0.0
 30
0.0
  3
*Paper_Space
  1

  0
ENDBLK
  5
1D
330
1B
100
AcDbEntity
 67
     1
  8
0
100
AcDbBlockEnd
  0
BLOCK
  5
24
330
23
100
AcDbEntity
  8
0
100
AcDbBlockBegin
  2
*Paper_Space0
 70
     0
 10
0.0
 20
0.0
 30
0.0
  3
*Paper_Space0
  1

  0
ENDBLK
  5
25
330
23
100
AcDbEntity
  8
0
100
AcDbBlockEnd
  0
BLOCK
  5
10B
330
10A
100
AcDbEntity
  8
0
100
AcDbBlockBegin
  2
_D
 70
     0
 10
0.0
 20
0.0
 30
0.0
  3
_D
  1

  0
SOLID
  5
10D
330
10A
100
AcDbEntity
  8
VERMASSUNG
100
AcDbTrace
 10
261.0775747287
 20
147.5391205529
 30
0.0
 11
260.6275747287
 21
144.5391205529
 31
0.0
 12
261.5275747287
 22
144.5391205529
 32
0.0
 13
261.5275747287
 23
144.5391205529
 33
0.0
  0
LINE
  5
10E
330
10A
100
AcDbEntity
  8
VERMASSUNG
100
AcDbLine
 10
239.9479788603
 20
147.5391205529
 30
0.0
 11
262.0775747287
 21
147.5391205529
 31
0.0
  0
LINE
  5
10F
330
10A
100
AcDbEntity
  8
VERMASSUNG
100
AcDbLine
 10
261.0775747287
 20
147.5391205529
 30
0.0
 11
261.0775747287
 21
115.2357738919
 31
0.0
  0
MTEXT
  5
110
330
10A
100
AcDbEntity
  8
VERMASSUNG
100
AcDbMText
 10
254.4994396995
 20
115.2357738919
 30
0.0
 40
2.0
 41
0.0
 71
     1
 72
     1
  1
%%c
  7
SLDTEXTSTYLE0
 11
6.123233995736766E-17
 21
1.0
 31
0.0
 73
     1
 44
1.0
  0
MTEXT
  5
111
330
10A
100
AcDbEntity
  8
VERMASSUNG
100
AcDbMText
 10
254.2994397482
 20
118.8457739062
 30
0.0
 40
2.0
 41
0.0
 71
     1
 72
     1
  1
47.75 min.
  7
SLDTEXTSTYLE0
 11
6.123233995736766E-17
 21
1.0
 31
0.0
 73
     1
 44
1.0
  0
MTEXT
  5
112
330
10A
100
AcDbEntity
  8
VERMASSUNG
100
AcDbMText
 10
258.4994394238
 20
115.835773804
 30
0.0
 40
2.0
 41
0.0
 71
     1
 72
     1
  1
%%c
  7
SLDTEXTSTYLE0
 11
6.123233995736766E-17
 21
1.0
 31
0.0
 73
     1
 44
1.0
  0
MTEXT
  5
113
330
10A
100
AcDbEntity
  8
VERMASSUNG
100
AcDbMText
 10
258.2994394725
 20
119.4457738183
 30
0.0
 40
2.0
 41
0.0
 71
     1
 72
     1
  1
53.1 max.
  7
SLDTEXTSTYLE0
 11
6.123233995736766E-17
 21
1.0
 31
0.0
 73
     1
 44
1.0
  0
ENDBLK
  5
10C
330
10A
100
AcDbEntity
  8
0
100
AcDbBlockEnd
  0
BLOCK
  5
117
330
116
100
AcDbEntity
  8
0
100
AcDbBlockBegin
  2
_D_1
 70
     0
 10
0.0
 20
0.0
 30
0.0
  3
_D_1
  1

  0
ARC
  5
119
330
116
100
AcDbEntity
  8
VERMASSUNG
100
AcDbCircle
 10
236.8253259295
 20
147.5391205529
 30
0.0
 40
15.02832265733292
100
AcDbArc
 50
270.0
 51
0.0
  0
SOLID
  5
11A
330
116
100
AcDbEntity
  8
VERMASSUNG
100
AcDbTrace
 10
236.8253259295
 20
132.5107978956
 30
0.0
 11
239.8550402057
 21
132.3580516856
 31
0.0
 12
239.766518661
 22
133.2536877367
 32
0.0
 13
239.766518661
 23
133.2536877367
 33
0.0
  0
SOLID
  5
11B
330
116
100
AcDbEntity
  8
VERMASSUNG
100
AcDbTrace
 10
251.8536485868
 20
147.5391205529
 30
0.0
 11
251.1107587457
 21
144.5979278214
 31
0.0
 12
252.0063947968
 22
144.5094062767
 32
0.0
 13
252.0063947968
 23
144.5094062767
 33
0.0
  0
LINE
  5
11C
330
116
100
AcDbEntity
  8
VERMASSUNG
100
AcDbLine
 10
236.8253259295
 20
138.3147589271
 30
0.0
 11
236.8253259295
 21
131.5107978956
 31
0.0
  0
LINE
  5
11D
330
116
100
AcDbEntity
  8
VERMASSUNG
100
AcDbLine
 10
239.9479788603
 20
147.5391205529
 30
0.0
 11
252.8536485868
 21
147.5391205529
 31
0.0
  0
MTEXT
  5
11E
330
116
100
AcDbEntity
  8
VERMASSUNG
100
AcDbMText
 10
244.2147241627
 20
137.3212953899
 30
0.0
 40
2.0
 41
0.0
 71
     1
 72
     1
  1
90°
  7
SLDTEXTSTYLE0
 11
0.7071067811865378
 21
0.7071067811865572
 31
0.0
 73
     1
 44
1.0
  0
ENDBLK
  5
118
330
116
100
AcDbEntity
  8
0
100
AcDbBlockEnd
  0
BLOCK
  5
122
330
121
100
AcDbEntity
  8
0
100
AcDbBlockBegin
  2
_D_2
 70
     0
 10
0.0
 20
0.0
 30
0.0
  3
_D_2
  1

  0
SOLID
  5
124
330
121
100
AcDbEntity
  8
VERMASSUNG
100
AcDbTrace
 10
111.8253259295
 20
131.6641205529
 30
0.0
 11
111.3753259295
 21
128.6641205529
 31
0.0
 12
112.2753259295
 22
128.6641205529
 32
0.0
 13
112.2753259295
 23
128.6641205529
 33
0.0
  0
SOLID
  5
125
330
121
100
AcDbEntity
  8
VERMASSUNG
100
AcDbTrace
 10
111.8253259295
 20
115.6641205529
 30
0.0
 11
112.2753259295
 21
118.6641205529
 31
0.0
 12
111.3753259295
 22
118.6641205529
 32
0.0
 13
111.3753259295
 23
118.6641205529
 33
0.0
  0
LINE
  5
126
330
121
100
AcDbEntity
  8
VERMASSUNG
100
AcDbLine
 10
191.1253259295
 20
131.6641205529
 30
0.0
 11
110.8253259295
 21
131.6641205529
 31
0.0
  0
LINE
  5
127
330
121
100
AcDbEntity
  8
VERMASSUNG
100
AcDbLine
 10
123.2003259295
 20
115.6641205529
 30
0.0
 11
110.8253259295
 21
115.6641205529
 31
0.0
  0
LINE
  5
128
330
121
100
AcDbEntity
  8
VERMASSUNG
100
AcDbLine
 10
111.8253259295
 20
131.6641205529
 30
0.0
 11
111.8253259295
 21
115.6641205529
 31
0.0
  0
MTEXT
  5
129
330
121
100
AcDbEntity
  8
VERMASSUNG
100
AcDbMText
 10
109.2471906246
 20
120.6591204888
 30
0.0
 40
2.0
 41
0.0
 71
     1
 72
     1
  1
%%c
  7
SLDTEXTSTYLE0
 11
-7.044195017643634E-15
 21
1.0
 31
0.0
 73
     1
 44
1.0
  0
MTEXT
  5
12A
330
121
100
AcDbEntity
  8
VERMASSUNG
100
AcDbMText
 10
109.0471906733
 20
124.2691205031
 30
0.0
 40
2.0
 41
0.0
 71
     1
 72
     1
  1
16
  7
SLDTEXTSTYLE0
 11
-7.044195017643634E-15
 21
1.0
 31
0.0
 73
     1
 44
1.0
  0
ENDBLK
  5
123
330
121
100
AcDbEntity
  8
0
100
AcDbBlockEnd
  0
BLOCK
  5
12D
330
12C
100
AcDbEntity
  8
0
100
AcDbBlockBegin
  2
_D_3
 70
     0
 10
0.0
 20
0.0
 30
0.0
  3
_D_3
  1

  0
SOLID
  5
12F
330
12C
100
AcDbEntity
  8
VERMASSUNG
100
AcDbTrace
 10
236.8253259295
 20
155.2450262851
 30
0.0
 11
233.8253259295
 21
155.6950262851
 31
0.0
 12
233.8253259295
 22
154.7950262851
 32
0.0
 13
233.8253259295
 23
154.7950262851
 33
0.0
  0
SOLID
  5
130
330
12C
100
AcDbEntity
  8
VERMASSUNG
100
AcDbTrace
 10
121.8253259295
 20
155.2450262851
 30
0.0
 11
124.8253259295
 21
154.7950262851
 31
0.0
 12
124.8253259295
 22
155.6950262851
 32
0.0
 13
124.8253259295
 23
155.6950262851
 33
0.0
  0
LINE
  5
131
330
12C
100
AcDbEntity
  8
VERMASSUNG
100
AcDbLine
 10
236.8253259295
 20
147.1406426737
 30
0.0
 11
236.8253259295
 21
156.2450262851
 31
0.0
  0
LINE
  5
132
330
12C
100
AcDbEntity
  8
VERMASSUNG
100
AcDbLine
 10
121.8253259295
 20
129.8641205529
 30
0.0
 11
121.8253259295
 21
156.2450262851
 31
0.0
  0
LINE
  5
133
330
12C
100
AcDbEntity
  8
VERMASSUNG
100
AcDbLine
 10
236.8253259295
 20
155.2450262851
 30
0.0
 11
121.8253259295
 21
155.2450262851
 31
0.0
  0
MTEXT
  5
134
330
12C
100
AcDbEntity
  8
VERMASSUNG
100
AcDbMText
 10
177.625325907
 20
157.8231618811
 30
0.0
 40
2.0
 41
0.0
 71
     1
 72
     1
  1
115
  7
SLDTEXTSTYLE0
 73
     1
 44
1.0
  0
ENDBLK
  5
12E
330
12C
100
AcDbEntity
  8
0
100
AcDbBlockEnd
  0
BLOCK
  5
157
330
156
100
AcDbEntity
  8
0
100
AcDbBlockBegin
  2
SW_CENTERMARKSYMBOL_0
 70
     0
 10
0.0
 20
0.0
 30
0.0
  3
SW_CENTERMARKSYMBOL_0
  1

  0
LINE
  5
159
330
156
100
AcDbEntity
  8
VERMASSUNG
 62
     0
100
AcDbLine
 10
0.0
 20
0.0
 30
0.0
 11
0.0
 21
2.5
 31
0.0
  0
LINE
  5
15A
330
156
100
AcDbEntity
  8
VERMASSUNG
 62
     0
100
AcDbLine
 10
0.0
 20
0.0
 30
0.0
 11
-2.5
 21
0.0
 31
0.0
  0
LINE
  5
15B
330
156
100
AcDbEntity
  8
VERMASSUNG
 62
     0
100
AcDbLine
 10
0.0
 20
0.0
 30
0.0
 11
0.0
 21
-2.5
 31
0.0
  0
LINE
  5
15C
330
156
100
AcDbEntity
  8
VERMASSUNG
 62
     0
100
AcDbLine
 10
0.0
 20
0.0
 30
0.0
 11
2.5
 21
0.0
 31
0.0
  0
LINE
  5
15D
330
156
100
AcDbEntity
  8
VERMASSUNG
 62
     0
100
AcDbLine
 10
0.0
 20
5.0
 30
0.0
 11
0.0
 21
25.2436689784
 31
0.0
  0
LINE
  5
15E
330
156
100
AcDbEntity
  8
VERMASSUNG
 62
     0
100
AcDbLine
 10
-5.0
 20
0.0
 30
0.0
 11
-13.0
 21
0.0
 31
0.0
  0
LINE
  5
15F
330
156
100
AcDbEntity
  8
VERMASSUNG
 62
     0
100
AcDbLine
 10
0.0
 20
-5.0
 30
0.0
 11
0.0
 21
-13.0
 31
0.0
  0
LINE
  5
160
330
156
100
AcDbEntity
  8
VERMASSUNG
 62
     0
100
AcDbLine
 10
5.0
 20
0.0
 30
0.0
 11
13.0
 21
0.0
 31
0.0
  0
ENDBLK
  5
158
330
156
100
AcDbEntity
  8
0
100
AcDbBlockEnd
  0
ENDSEC
  0
SECTION
  2
ENTITIES
  0
MTEXT
  5
78
330
1F
100
AcDbEntity
  8
KOPF_DÜNN
100
AcDbMText
 10
13.8892156294
 20
23.8442973028
 30
0.0
 40
3.0
 41
0.0
 71
     1
 72
     1
  1
272.048.009
  7
SLDTEXTSTYLE0
 73
     1
 44
1.0
  0
MTEXT
  5
79
330
1F
100
AcDbEntity
  8
VERMASSUNG
100
AcDbMText
 10
13.9329988022
 20
28.8834360957
 30
0.0
 40
3.0
 41
0.0
 71
     1
 72
     1
  1
Ausdrehstahl_Boring bars ø47.75-53.1
  7
SLDTEXTSTYLE0
 73
     1
 44
1.0
  0
MTEXT
  5
7A
330
1F
100
AcDbEntity
  8
VERMASSUNG
100
AcDbMText
 10
98.8601118557
 20
13.8365368761
 30
0.0
 40
2.0
 41
0.0
 71
     1
 72
     1
  1
Datum: 20.02.2018
  7
SLDTEXTSTYLE0
 73
     1
 44
1.0
  0
MTEXT
  5
7B
330
1F
100
AcDbEntity
  8
VERMASSUNG
100
AcDbMText
 10
13.933048693
 20
18.0482802738
 30
0.0
 40
2.0
 41
0.0
 71
     1
 72
     1
  1
ø16 / 90°
  7
SLDTEXTSTYLE0
 73
     1
 44
1.0
  0
MTEXT
  5
7C
330
1F
100
AcDbEntity
  8
VERMASSUNG
100
AcDbMText
 10
13.9808475933
 20
13.9090974274
 30
0.0
 40
2.0
 41
0.0
 71
     1
 72
     1
  1
Gewicht: 195g
  7
SLDTEXTSTYLE0
 73
     1
 44
1.0
  0
LINE
  5
7D
330
1F
100
AcDbEntity
  8
0
  6
Continuous
 62
     7
370
    25
100
AcDbLine
 10
232.767195478
 20
140.7118004248
 30
0.0
 11
232.767195478
 21
140.5939951872
 31
0.0
  0
LINE
  5
7E
330
1F
100
AcDbEntity
  8
0
  6
Continuous
 62
     7
370
    25
100
AcDbLine
 10
230.8799577325
 20
141.12852666
 30
0.0
 11
230.8799577325
 21
141.2443344296
 31
0.0
  0
LINE
  5
7F
330
1F
100
AcDbEntity
  8
0
  6
Continuous
 62
     7
370
    25
100
AcDbLine
 10
229.355819234
 20
141.8400354214
 30
0.0
 11
229.355819234
 21
141.7768858681
 31
0.0
  0
LINE
  5
80
330
1F
100
AcDbEntity
  8
0
  6
Continuous
 62
     7
370
    25
100
AcDbLine
 10
234.605819234
 20
141.7768858681
 30
0.0
 11
234.605819234
 21
141.8400354214
 31
0.0
  0
LINE
  5
81
330
1F
100
AcDbEntity
  8
0
  6
Continuous
 62
     7
370
    25
100
AcDbLine
 10
233.0769862149
 20
142.4695454062
 30
0.0
 11
233.0769862149
 21
142.3538133786
 31
0.0
  0
LINE
  5
82
330
1F
100
AcDbEntity
  8
0
  6
Continuous
 62
     7
370
    25
100
AcDbLine
 10
231.1897484694
 20
142.8883448514
 30
0.0
 11
231.1897484694
 21
143.0061695684
 31
0.0
  0
LINE
  5
83
330
1F
100
AcDbEntity
  8
0
  6
Continuous
 62
     7
370
    25
100
AcDbLine
 10
215.2448757451
 20
113.1641205529
 30
0.0
 11
216.314092954
 21
113.1641205529
 31
0.0
  0
LINE
  5
84
330
1F
100
AcDbEntity
  8
0
  6
Continuous
 62
     7
370
    25
100
AcDbLine
 10
223.9060475853
 20
144.4861032096
 30
0.0
 11
214.8253259295
 21
133.6641205529
 31
0.0
  0
LINE
  5
85
330
1F
100
AcDbEntity
  8
0
  6
Continuous
 62
     7
370
    25
100
AcDbLine
 10
214.8253259295
 20
113.6641205529
 30
0.0
 11
215.2448757451
 21
113.1641205529
 31
0.0
  0
LINE
  5
86
330
1F
100
AcDbEntity
  8
0
  6
Continuous
 62
     7
370
    25
100
AcDbLine
 10
208.8253259295
 20
113.6641205529
 30
0.0
 11
214.8253259295
 21
113.6641205529
 31
0.0
  0
LINE
  5
87
330
1F
100
AcDbEntity
  8
0
  6
Continuous
 62
     7
370
    25
100
AcDbLine
 10
214.8253259295
 20
133.6641205529
 30
0.0
 11
208.8253259295
 21
133.6641205529
 31
0.0
  0
LINE
  5
88
330
1F
100
AcDbEntity
  8
0
  6
Continuous
 62
     7
370
    25
100
AcDbLine
 10
208.8253259295
 20
133.6641205529
 30
0.0
 11
206.8253259295
 21
131.6641205529
 31
0.0
  0
LINE
  5
89
330
1F
100
AcDbEntity
  8
0
  6
Continuous
 62
     7
370
    25
100
AcDbLine
 10
206.8253259295
 20
115.6641205529
 30
0.0
 11
208.8253259295
 21
113.6641205529
 31
0.0
  0
LINE
  5
8A
330
1F
100
AcDbEntity
  8
0
  6
Continuous
 62
     7
370
    25
100
AcDbLine
 10
121.8253259295
 20
117.0391205529
 30
0.0
 11
123.2003259295
 21
115.6641205529
 31
0.0
  0
LINE
  5
8B
330
1F
100
AcDbEntity
  8
0
  6
Continuous
 62
     7
370
    25
100
AcDbLine
 10
123.2003259295
 20
115.6641205529
 30
0.0
 11
206.8253259295
 21
115.6641205529
 31
0.0
  0
LINE
  5
8C
330
1F
100
AcDbEntity
  8
0
  6
Continuous
 62
     7
370
    25
100
AcDbLine
 10
136.0253259295
 20
131.6641205529
 30
0.0
 11
133.1253259295
 21
131.6641205529
 31
0.0
  0
LINE
  5
8D
330
1F
100
AcDbEntity
  8
0
  6
Continuous
 62
     7
370
    25
100
AcDbLine
 10
150.5253259295
 20
131.6641205529
 30
0.0
 11
147.6253259295
 21
131.6641205529
 31
0.0
  0
LINE
  5
8E
330
1F
100
AcDbEntity
  8
0
  6
Continuous
 62
     7
370
    25
100
AcDbLine
 10
165.0253259295
 20
131.6641205529
 30
0.0
 11
162.1253259295
 21
131.6641205529
 31
0.0
  0
LINE
  5
8F
330
1F
100
AcDbEntity
  8
0
  6
Continuous
 62
     7
370
    25
100
AcDbLine
 10
179.5253259295
 20
131.6641205529
 30
0.0
 11
176.6253259295
 21
131.6641205529
 31
0.0
  0
LINE
  5
90
330
1F
100
AcDbEntity
  8
0
  6
Continuous
 62
     7
370
    25
100
AcDbLine
 10
206.8253259295
 20
131.6641205529
 30
0.0
 11
191.1253259295
 21
131.6641205529
 31
0.0
  0
LINE
  5
91
330
1F
100
AcDbEntity
  8
0
  6
Continuous
 62
     7
370
    25
100
AcDbLine
 10
227.3003259295
 20
145.0846060617
 30
0.0
 11
223.9060475853
 21
144.4861032096
 31
0.0
  0
CIRCLE
  5
92
330
1F
100
AcDbEntity
  8
0
  6
Continuous
 62
     7
370
    25
100
AcDbCircle
 10
231.9772713688
 20
141.8468903329
 30
0.0
 40
2.621448664223587
  0
CIRCLE
  5
93
330
1F
100
AcDbEntity
  8
0
  6
Continuous
 62
     7
370
    25
100
AcDbCircle
 10
231.9781732103
 20
141.8685954571
 30
0.0
 40
1.797383558940017
  0
ARC
  5
94
330
1F
100
AcDbEntity
  8
0
  6
Continuous
 62
     7
370
    25
100
AcDbCircle
 10
231.9860643966
 20
141.8667867982
 30
0.0
 40
1.67012093166819
100
AcDbArc
 50
291.2724522123
 51
349.9134005164
  0
ARC
  5
95
330
1F
100
AcDbEntity
  8
0
  6
Continuous
 62
     7
370
    25
100
AcDbCircle
 10
231.9904584266
 20
141.863782891
 30
0.0
 40
1.665270158637913
100
AcDbArc
 50
349.9886789141
 51
50.2590927083
  0
ARC
  5
96
330
1F
100
AcDbEntity
  8
0
  6
Continuous
 62
     7
370
    25
100
AcDbCircle
 10
231.9807723004
 20
141.852841358
 30
0.0
 40
1.679876143223373
100
AcDbArc
 50
50.2436430564
 51
108.648779539
  0
LINE
  5
97
330
1F
100
AcDbEntity
  8
0
  6
Continuous
 62
     7
370
    25
100
AcDbLine
 10
231.3638462422
 20
143.4153471774
 30
0.0
 11
231.4436048759
 21
143.4445181514
 31
0.0
  0
ARC
  5
98
330
1F
100
AcDbEntity
  8
0
  6
Continuous
 62
     7
370
    25
100
AcDbCircle
 10
231.9757353224
 20
141.861090319
 30
0.0
 40
1.670366016288831
100
AcDbArc
 50
111.4888625167
 51
167.9662589118
  0
LINE
  5
99
330
1F
100
AcDbEntity
  8
0
  6
Continuous
 62
     7
370
    25
100
AcDbLine
 10
230.321490802
 20
142.0917634269
 30
0.0
 11
230.3420756104
 21
142.209341053
 31
0.0
  0
ARC
  5
9A
330
1F
100
AcDbEntity
  8
0
  6
Continuous
 62
     7
370
    25
100
AcDbCircle
 10
231.9710567562
 20
141.8643349932
 30
0.0
 40
1.665170120418478
100
AcDbArc
 50
172.1500238473
 51
228.097747775
  0
LINE
  5
9B
330
1F
100
AcDbEntity
  8
0
  6
Continuous
 62
     7
370
    25
100
AcDbLine
 10
230.9507319988
 20
140.5482553416
 30
0.0
 11
230.8589532208
 21
140.6249733606
 31
0.0
  0
ARC
  5
9C
330
1F
100
AcDbEntity
  8
0
  6
Continuous
 62
     7
370
    25
100
AcDbCircle
 10
231.9808652461
 20
141.8754029839
 30
0.0
 40
1.680028384157165
100
AcDbArc
 50
232.1813519841
 51
288.4344342728
  0
LINE
  5
9D
330
1F
100
AcDbEntity
  8
0
  6
Continuous
 62
     7
370
    25
100
AcDbLine
 10
232.591989668
 20
140.3104582686
 30
0.0
 11
232.5121225555
 21
140.2815833445
 31
0.0
  0
SPLINE
  5
9E
330
1F
100
AcDbEntity
  8
0
  6
Continuous
 62
     7
370
    25
100
AcDbSpline
210
0.0
220
0.0
230
1.0
 70
     8
 71
     3
 72
    11
 73
     7
 74
     0
 42
0.000000001
 43
0.00000001
 40
0.0
 40
0.0
 40
0.0
 40
0.0
 40
0.2657596322628067
 40
0.5530029385956857
 40
0.841820848343849
 40
1.0
 40
1.0
 40
1.0
 40
1.0
 10
230.9507319988043
 20
140.5482553416229
 30
0.0
 10
230.9823718308741
 20
140.5337574936732
 30
0.0
 10
231.0482092192025
 20
140.5035898099989
 30
0.0
 10
231.1597978993672
 20
140.5002340590171
 30
0.0
 10
231.2526395551417
 20
140.5256103626866
 30
0.0
 10
231.3004905478992
 20
140.5566349491447
 30
0.0
 10
231.3174236109857
 20
140.5676136404833
 30
0.0
  0
SPLINE
  5
9F
330
1F
100
AcDbEntity
  8
0
  6
Continuous
 62
     7
370
    25
100
AcDbSpline
210
0.0
220
0.0
230
1.0
 70
     8
 71
     3
 72
    12
 73
     8
 74
     0
 42
0.000000001
 43
0.00000001
 40
0.0
 40
0.0
 40
0.0
 40
0.0
 40
0.2057904614204021
 40
0.4120344203360333
 40
0.6141302471427661
 40
0.8132633242114119
 40
1.0
 40
1.0
 40
1.0
 40
1.0
 10
231.3174236109857
 20
140.5676136404833
 30
0.0
 10
231.3734500937859
 20
140.6006647636114
 30
0.0
 10
231.4856265241447
 20
140.6668398441547
 30
0.0
 10
231.6854548837725
 20
140.6904444352584
 30
0.0
 10
231.8780508794916
 20
140.6525824112031
 30
0.0
 10
232.0457751628313
 20
140.5605258239558
 30
0.0
 10
232.1218663875143
 20
140.4662498740686
 30
0.0
 10
232.1586897514831
 20
140.4206262475511
 30
0.0
  0
SPLINE
  5
A0
330
1F
100
AcDbEntity
  8
0
  6
Continuous
 62
     7
370
    25
100
AcDbSpline
210
0.0
220
0.0
230
1.0
 70
     8
 71
     3
 72
    11
 73
     7
 74
     0
 42
0.000000001
 43
0.00000001
 40
0.0
 40
0.0
 40
0.0
 40
0.0
 40
0.2802371411012889
 40
0.5612869875923419
 40
0.8399906057824543
 40
0.9999999999999999
 40
0.9999999999999999
 40
0.9999999999999999
 40
0.9999999999999999
 10
232.1586897514831
 20
140.4206262475511
 30
0.0
 10
232.182469893381
 20
140.3917462070865
 30
0.0
 10
232.2300991410886
 20
140.333902372218
 30
0.0
 10
232.3338570278742
 20
140.2832985769437
 30
0.0
 10
232.4319267745075
 20
140.2682450424925
 30
0.0
 10
232.4906901216929
 20
140.2780186647759
 30
0.0
 10
232.5121225554694
 20
140.2815833445019
 30
0.0
  0
SPLINE
  5
A1
330
1F
100
AcDbEntity
  8
0
  6
Continuous
 62
     7
370
    25
100
AcDbSpline
210
0.0
220
0.0
230
1.0
 70
     8
 71
     3
 72
    12
 73
     8
 74
     0
 42
0.000000001
 43
0.00000001
 40
0.0
 40
0.0
 40
0.0
 40
0.0
 40
0.2058585741213683
 40
0.4121026961457658
 40
0.6141937841966234
 40
0.8133180967416284
 40
0.9999999999999999
 40
0.9999999999999999
 40
0.9999999999999999
 40
0.9999999999999999
 10
232.7713312937394
 20
140.6433884491276
 30
0.0
 10
232.7698733301294
 20
140.7078453339283
 30
0.0
 10
232.7669546723221
 20
140.8368798233824
 30
0.0
 10
232.8451843933441
 20
141.0204040806936
 30
0.0
 10
232.9744939593069
 20
141.167663138201
 30
0.0
 10
233.1396259539566
 20
141.2670282443681
 30
0.0
 10
233.2609990820336
 20
141.2863305440264
 30
0.0
 10
233.3197284793986
 20
141.2956704403005
 30
0.0
  0
SPLINE
  5
A2
330
1F
100
AcDbEntity
  8
0
  6
Continuous
 62
     7
370
    25
100
AcDbSpline
210
0.0
220
0.0
230
1.0
 70
     8
 71
     3
 72
    11
 73
     7
 74
     0
 42
0.000000001
 43
0.00000001
 40
0.0
 40
0.0
 40
0.0
 40
0.0
 40
0.2524782265335688
 40
0.5068902417933577
 40
0.7591786113117048
 40
1.0
 40
1.0
 40
1.0
 40
1.0
 10
233.3197284793986
 20
141.2956704403005
 30
0.0
 10
233.3569908177906
 20
141.3019488276585
 30
0.0
 10
233.4318008953826
 20
141.3145536899854
 30
0.0
 10
233.5284183006551
 20
141.3790489760441
 30
0.0
 10
233.6009680014273
 20
141.4677423254383
 30
0.0
 10
233.62072395174
 20
141.5393274829304
 30
0.0
 10
233.6303722203251
 20
141.5742877260605
 30
0.0
  0
SPLINE
  5
A3
330
1F
100
AcDbEntity
  8
0
  6
Continuous
 62
     7
370
    25
100
AcDbSpline
210
0.0
220
0.0
230
1.0
 70
     8
 71
     3
 72
    11
 73
     7
 74
     0
 42
0.000000001
 43
0.00000001
 40
0.0
 40
0.0
 40
0.0
 40
0.0
 40
0.242361123774516
 40
0.5166847928455734
 40
0.7923341374632047
 40
0.9999999999999999
 40
0.9999999999999999
 40
0.9999999999999999
 40
0.9999999999999999
 10
232.5919896679869
 20
140.3104582686193
 30
0.0
 10
232.6200575052537
 20
140.3279592914776
 30
0.0
 10
232.6798947615675
 20
140.3652693692217
 30
0.0
 10
232.7431684618228
 20
140.4539467063086
 30
0.0
 10
232.7755847321419
 20
140.5518124893627
 30
0.0
 10
232.7726096123408
 20
140.6158664206577
 30
0.0
 10
232.7713312937394
 20
140.6433884491276
 30
0.0
  0
LINE
  5
A4
330
1F
100
AcDbEntity
  8
0
  6
Continuous
 62
     7
370
    25
100
AcDbLine
 10
230.7875443612
 20
140.7781637596
 30
0.0
 11
230.8174332458
 21
140.8660890991
 31
0.0
  0
SPLINE
  5
A5
330
1F
100
AcDbEntity
  8
0
  6
Continuous
 62
     7
370
    25
100
AcDbSpline
210
0.0
220
0.0
230
1.0
 70
     8
 71
     3
 72
    15
 73
    11
 74
     0
 42
0.000000001
 43
0.00000001
 40
0.0
 40
0.0
 40
0.0
 40
0.0
 40
0.1444230050362505
 40
0.2929851582974107
 40
0.4376782044244691
 40
0.5866350295855268
 40
0.7301147348682887
 40
0.8778346674678222
 40
0.9387601700853171
 40
1.0
 40
1.0
 40
1.0
 40
1.0
 10
230.8174332457976
 20
140.9847767133449
 30
0.0
 10
230.8098856154999
 20
140.9680966517883
 30
0.0
 10
230.7945740406093
 20
140.9342584798547
 30
0.0
 10
230.7830215211841
 20
140.8795402008942
 30
0.0
 10
230.7803385703478
 20
140.8231365435201
 30
0.0
 10
230.78749596244
 20
140.7674481984116
 30
0.0
 10
230.8041432819432
 20
140.7132238955894
 30
0.0
 10
230.8247971637861
 20
140.6725666417305
 30
0.0
 10
230.8441052721374
 20
140.6435006533914
 30
0.0
 10
230.8539954222386
 20
140.6311597091187
 30
0.0
 10
230.8589532208012
 20
140.6249733605649
 30
0.0
  0
SPLINE
  5
A6
330
1F
100
AcDbEntity
  8
0
  6
Continuous
 62
     7
370
    25
100
AcDbSpline
210
0.0
220
0.0
230
1.0
 70
     8
 71
     3
 72
    11
 73
     7
 74
     0
 42
0.000000001
 43
0.00000001
 40
0.0
 40
0.0
 40
0.0
 40
0.0
 40
0.2669010467949463
 40
0.5546143410791624
 40
0.843907043978423
 40
0.9999999999999999
 40
0.9999999999999999
 40
0.9999999999999999
 40
0.9999999999999999
 10
230.3214908019535
 20
142.0917634269074
 30
0.0
 10
230.3248883766859
 20
142.0570737622381
 30
0.0
 10
230.3319484601666
 20
141.9849894233274
 30
0.0
 10
230.3859054149306
 20
141.8866544683327
 30
0.0
 10
230.4552652889464
 20
141.8191302261539
 30
0.0
 10
230.5065801335765
 20
141.7931509924207
 30
0.0
 10
230.5245642909593
 20
141.7840461294613
 30
0.0
  0
SPLINE
  5
A7
330
1F
100
AcDbEntity
  8
0
  6
Continuous
 62
     7
370
    25
100
AcDbSpline
210
0.0
220
0.0
230
1.0
 70
     8
 71
     3
 72
    12
 73
     8
 74
     0
 42
0.000000001
 43
0.00000001
 40
0.0
 40
0.0
 40
0.0
 40
0.0
 40
0.2058401281337375
 40
0.4120619935509326
 40
0.6141387330969971
 40
0.813277211352448
 40
1.0
 40
1.0
 40
1.0
 40
1.0
 10
230.5245642909593
 20
141.7840461294613
 30
0.0
 10
230.5820650634062
 20
141.7518010646527
 30
0.0
 10
230.6971732453724
 20
141.6872511355028
 30
0.0
 10
230.818793348704
 20
141.5259587624187
 30
0.0
 10
230.882080310014
 20
141.3409324458258
 30
0.0
 10
230.8846564564956
 20
141.1509417945068
 30
0.0
 10
230.839355102059
 20
141.0389640541023
 30
0.0
 10
230.8174332457976
 20
140.9847767133449
 30
0.0
  0
ARC
  5
A8
330
1F
100
AcDbEntity
  8
0
  6
Continuous
 62
     7
370
    25
100
AcDbCircle
 10
230.2978064297
 20
141.1285545485
 30
0.0
 40
0.5821513035194588
100
AcDbArc
 50
333.2014884131
 51
359.9972551827
  0
ARC
  5
A9
330
1F
100
AcDbEntity
  8
0
  6
Continuous
 62
     7
370
    25
100
AcDbCircle
 10
233.3015497891
 20
141.509680465
 30
0.0
 40
0.3339916086661198
100
AcDbArc
 50
11.7180099882
 51
66.9386819083
  0
SPLINE
  5
AA
330
1F
100
AcDbEntity
  8
0
  6
Continuous
 62
     7
370
    25
100
AcDbSpline
210
0.0
220
0.0
230
1.0
 70
     8
 71
     3
 72
    12
 73
     8
 74
     0
 42
0.000000001
 43
0.00000001
 40
0.0
 40
0.0
 40
0.0
 40
0.0
 40
0.0091681771491523
 40
0.2573268097002889
 40
0.5054934687430773
 40
0.7549925359449788
 40
1.0
 40
1.0
 40
1.0
 40
1.0
 10
233.6303722203251
 20
141.5742877260605
 30
0.0
 10
233.6306051479282
 20
141.5756352926877
 30
0.0
 10
233.6371428179588
 20
141.6134579716555
 30
0.0
 10
233.636736095495
 20
141.6904917178374
 30
0.0
 10
233.5987713264993
 20
141.7958041782854
 30
0.0
 10
233.5293475182417
 20
141.8843640931293
 30
0.0
 10
233.464505958415
 20
141.9186222297257
 30
0.0
 10
233.4323796564669
 20
141.9355957146853
 30
0.0
  0
ARC
  5
AB
330
1F
100
AcDbEntity
  8
0
  6
Continuous
 62
     7
370
    25
100
AcDbCircle
 10
230.6558242704
 20
141.9713681157
 30
0.0
 40
0.3344423974096857
100
AcDbArc
 50
93.1896576745
 51
170.1893639451
  0
SPLINE
  5
AC
330
1F
100
AcDbEntity
  8
0
  6
Continuous
 62
     7
370
    25
100
AcDbSpline
210
0.0
220
0.0
230
1.0
 70
     8
 71
     3
 72
    11
 73
     7
 74
     0
 42
0.000000001
 43
0.00000001
 40
0.0
 40
0.0
 40
0.0
 40
0.0
 40
0.290864166607658
 40
0.5839560789892457
 40
0.8745988053617162
 40
1.0
 40
1.0
 40
1.0
 40
1.0
 10
230.6372154680274
 20
142.4239714287647
 30
0.0
 10
230.5999653386216
 20
142.4186821231819
 30
0.0
 10
230.5251797788762
 20
142.4080630009134
 30
0.0
 10
230.428348358236
 20
142.3457374084294
 30
0.0
 10
230.3692524015223
 20
142.2738121943187
 30
0.0
 10
230.348369880985
 20
142.2242728677173
 30
0.0
 10
230.3420756103799
 20
142.209341053013
 30
0.0
  0
SPLINE
  5
AD
330
1F
100
AcDbEntity
  8
0
  6
Continuous
 62
     7
370
    25
100
AcDbSpline
210
0.0
220
0.0
230
1.0
 70
     8
 71
     3
 72
    12
 73
     8
 74
     0
 42
0.000000001
 43
0.00000001
 40
0.0
 40
0.0
 40
0.0
 40
0.0
 40
0.2058435564095026
 40
0.4120691620554133
 40
0.6141397217727373
 40
0.8132604579561133
 40
1.0
 40
1.0
 40
1.0
 40
1.0
 10
233.4323796564669
 20
141.9355957146853
 30
0.0
 10
233.3748783105378
 20
141.9661389823112
 30
0.0
 10
233.2597688951771
 20
142.0272822064013
 30
0.0
 10
233.1381491663381
 20
142.1858390545656
 30
0.0
 10
233.0748649773092
 20
142.3710642732676
 30
0.0
 10
233.0722870517888
 20
142.5639424885349
 30
0.0
 10
233.117587338852
 20
142.6791228570324
 30
0.0
 10
233.1395107016286
 20
142.7348651308018
 30
0.0
  0
SPLINE
  5
AE
330
1F
100
AcDbEntity
  8
0
  6
Continuous
 62
     7
370
    25
100
AcDbSpline
210
0.0
220
0.0
230
1.0
 70
     8
 71
     3
 72
    15
 73
    11
 74
     0
 42
0.000000001
 43
0.00000001
 40
0.0
 40
0.0
 40
0.0
 40
0.0
 40
0.1249626702015042
 40
0.253506787523108
 40
0.3787030943824486
 40
0.5075886164187747
 40
0.6317356957294954
 40
0.7595517005243347
 40
0.8781644097821655
 40
0.9999999999999999
 40
0.9999999999999999
 40
0.9999999999999999
 40
0.9999999999999999
 10
233.1395107016286
 20
142.7348651308018
 30
0.0
 10
233.147058550513
 20
142.7520471729712
 30
0.0
 10
233.1623705706571
 20
142.7869036969752
 30
0.0
 10
233.1739229167636
 20
142.8429703924872
 30
0.0
 10
233.1766054168443
 20
142.9005755807787
 30
0.0
 10
233.1694460780406
 20
142.9572518067476
 30
0.0
 10
233.1527996947048
 20
143.0122889768465
 30
0.0
 10
233.1276662168258
 20
143.0622144482605
 30
0.0
 10
233.0952479894345
 20
143.1074552689389
 30
0.0
 10
233.0685976776042
 20
143.1318967029713
 30
0.0
 10
233.0550939161785
 20
143.1442812220035
 30
0.0
  0
SPLINE
  5
AF
330
1F
100
AcDbEntity
  8
0
  6
Continuous
 62
     7
370
    25
100
AcDbSpline
210
0.0
220
0.0
230
1.0
 70
     8
 71
     3
 72
    11
 73
     7
 74
     0
 42
0.000000001
 43
0.00000001
 40
0.0
 40
0.0
 40
0.0
 40
0.0
 40
0.2431090893442995
 40
0.5182793655622743
 40
0.7947794085751863
 40
1.0
 40
1.0
 40
1.0
 40
1.0
 10
231.3638462421781
 20
143.415347177447
 30
0.0
 10
231.3358445350489
 20
143.3975695618868
 30
0.0
 10
231.276148260242
 20
143.3596698217388
 30
0.0
 10
231.2132058789497
 20
143.2691758355559
 30
0.0
 10
231.1813023557935
 20
143.1694568299367
 30
0.0
 10
231.1843249716411
 20
143.1040975405453
 30
0.0
 10
231.1856126536866
 20
143.0762534519488
 30
0.0
  0
SPLINE
  5
B0
330
1F
100
AcDbEntity
  8
0
  6
Continuous
 62
     7
370
    25
100
AcDbSpline
210
0.0
220
0.0
230
1.0
 70
     8
 71
     3
 72
    12
 73
     8
 74
     0
 42
0.000000001
 43
0.00000001
 40
0.0
 40
0.0
 40
0.0
 40
0.0
 40
0.2058179564998773
 40
0.4120215045906533
 40
0.6140779969168286
 40
0.8132130006451932
 40
1.0
 40
1.0
 40
1.0
 40
1.0
 10
231.1856126536866
 20
143.0762534519488
 30
0.0
 10
231.1870714222907
 20
143.0101044431165
 30
0.0
 10
231.1899916924426
 20
142.8776824979677
 30
0.0
 10
231.1117871715666
 20
142.691442749648
 30
0.0
 10
230.9825119635739
 20
142.5443882813725
 30
0.0
 10
230.8173809006576
 20
142.447877768464
 30
0.0
 10
230.695975781564
 20
142.4317683962281
 30
0.0
 10
230.6372154680275
 20
142.4239714287647
 30
0.0
  0
ARC
  5
B1
330
1F
100
AcDbEntity
  8
0
  6
Continuous
 62
     7
370
    25
100
AcDbCircle
 10
231.9847515276
 20
141.7820375937
 30
0.0
 40
2.621072769268991
100
AcDbArc
 50
259.8975618057
 51
359.8873849191
  0
ARC
  5
B2
330
1F
100
AcDbEntity
  8
0
  6
Continuous
 62
     7
370
    25
100
AcDbCircle
 10
231.9740652755
 20
141.7810529277
 30
0.0
 40
2.618249357501106
100
AcDbArc
 50
180.0911888029
 51
260.1240068937
  0
ARC
  5
B3
330
1F
100
AcDbEntity
  8
0
  6
Continuous
 62
     7
370
    25
100
AcDbCircle
 10
233.6609460422
 20
142.3543517654
 30
0.0
 40
0.5839600754732672
100
AcDbArc
 50
180.0528243197
 51
246.9578899869
  0
ARC
  5
B4
330
1F
100
AcDbEntity
  8
0
  6
Continuous
 62
     7
370
    25
100
AcDbCircle
 10
230.6048544206
 20
142.8892912958
 30
0.0
 40
0.5848948146325254
100
AcDbArc
 50
273.1716792205
 51
359.9072870941
  0
SPLINE
  5
B5
330
1F
100
AcDbEntity
  8
0
  6
Continuous
 62
     7
370
    25
100
AcDbSpline
210
0.0
220
0.0
230
1.0
 70
     8
 71
     3
 72
    12
 73
     8
 74
     0
 42
0.000000001
 43
0.00000001
 40
0.0
 40
0.0
 40
0.0
 40
0.0
 40
0.0091735205190352
 40
0.2576775215525215
 40
0.5061895192299481
 40
0.756035743021825
 40
1.0
 40
1.0
 40
1.0
 40
1.0
 10
233.0550939161785
 20
143.1442812220035
 30
0.0
 10
233.0540380565704
 20
143.1451532620235
 30
0.0
 10
233.0243797278675
 20
143.1696482321486
 30
0.0
 10
232.9569914308181
 20
143.2076044265628
 30
0.0
 10
232.8458109362058
 20
143.226953459986
 30
0.0
 10
232.7334143735665
 20
143.2106178194468
 30
0.0
 10
232.6705688229636
 20
143.1714023888379
 30
0.0
 10
232.6395203364404
 20
143.1520282285818
 30
0.0
  0
SPLINE
  5
B6
330
1F
100
AcDbEntity
  8
0
  6
Continuous
 62
     7
370
    25
100
AcDbSpline
210
0.0
220
0.0
230
1.0
 70
     8
 71
     3
 72
    12
 73
     8
 74
     0
 42
0.000000001
 43
0.00000001
 40
0.0
 40
0.0
 40
0.0
 40
0.0
 40
0.2057532787804795
 40
0.4119604088043266
 40
0.6140154573249592
 40
0.8131414684042574
 40
1.0
 40
1.0
 40
1.0
 40
1.0
 10
232.6395203364404
 20
143.1520282285818
 30
0.0
 10
232.583502350545
 20
143.1172794991156
 30
0.0
 10
232.4713428141008
 20
143.047705391324
 30
0.0
 10
232.2715446826885
 20
143.021353296211
 30
0.0
 10
232.0789722569953
 20
143.0593888335547
 30
0.0
 10
231.9112189265049
 20
143.1543137087536
 30
0.0
 10
231.8351027232676
 20
143.2518146064436
 30
0.0
 10
231.7982541959432
 20
143.2990156535253
 30
0.0
  0
SPLINE
  5
B7
330
1F
100
AcDbEntity
  8
0
  6
Continuous
 62
     7
370
    25
100
AcDbSpline
210
0.0
220
0.0
230
1.0
 70
     8
 71
     3
 72
    11
 73
     7
 74
     0
 42
0.000000001
 43
0.00000001
 40
0.0
 40
0.0
 40
0.0
 40
0.0
 40
0.2794069064557501
 40
0.5596240257159107
 40
0.8375007392219309
 40
1.0
 40
1.0
 40
1.0
 40
1.0
 10
231.7982541959432
 20
143.2990156535253
 30
0.0
 10
231.7744718025265
 20
143.3288927960996
 30
0.0
 10
231.7268380524743
 20
143.3887337177734
 30
0.0
 10
231.6230719928361
 20
143.4414980123141
 30
0.0
 10
231.5245812809268
 20
143.4578370802139
 30
0.0
 10
231.465431292348
 20
143.448108141428
 30
0.0
 10
231.4436048758759
 20
143.4445181513895
 30
0.0
  0
ARC
  5
B8
330
1F
100
AcDbEntity
  8
0
  6
Continuous
 62
     7
370
    25
100
AcDbCircle
 10
232.8402934832
 20
142.7651130057
 30
0.0
 40
0.335098012693396
100
AcDbArc
 50
9.9403324016
 51
126.8088683713
  0
ARC
  5
B9
330
1F
100
AcDbEntity
  8
0
  6
Continuous
 62
     7
370
    25
100
AcDbCircle
 10
231.5183142864
 20
142.9955334235
 30
0.0
 40
0.3354581068814185
100
AcDbArc
 50
33.4361523761
 51
160.9020379852
  0
ARC
  5
BA
330
1F
100
AcDbEntity
  8
0
  6
Continuous
 62
     7
370
    25
100
AcDbCircle
 10
232.2883410784
 20
143.5044533368
 30
0.0
 40
0.5875483023101478
100
AcDbArc
 50
213.4754893771
 51
306.705548474
  0
LINE
  5
BB
330
1F
100
AcDbEntity
  8
0
  6
Continuous
 62
     7
370
    25
100
AcDbLine
 10
236.4253259295
 20
138.2946311705
 30
0.0
 11
236.4947852006
 21
137.9223348222
 31
0.0
  0
LINE
  5
BC
330
1F
100
AcDbEntity
  8
0
  6
Continuous
 62
     7
370
    25
100
AcDbLine
 10
227.7697852006
 20
136.3897361933
 30
0.0
 11
236.4947852006
 21
137.9223348222
 31
0.0
  0
LINE
  5
BD
330
1F
100
AcDbEntity
  8
0
  6
Continuous
 62
     7
370
    25
100
AcDbLine
 10
227.7003259295
 20
136.7620325416
 30
0.0
 11
227.7697852006
 21
136.3897361933
 31
0.0
  0
LINE
  5
BE
330
1F
100
AcDbEntity
  8
0
  6
Continuous
 62
     7
370
    25
100
AcDbLine
 10
227.9931462525
 20
137.0949397381
 30
0.0
 11
227.7003259295
 21
136.7620325416
 31
0.0
  0
LINE
  5
BF
330
1F
100
AcDbEntity
  8
0
  6
Continuous
 62
     7
370
    25
100
AcDbLine
 10
227.9931462525
 20
137.0949397381
 30
0.0
 11
228.104156819
 21
137.1144394105
 31
0.0
  0
LINE
  5
C0
330
1F
100
AcDbEntity
  8
0
  6
Continuous
 62
     7
370
    25
100
AcDbLine
 10
236.2756835627
 20
138.4121883002
 30
0.0
 11
236.4253259295
 21
138.2946311705
 31
0.0
  0
LINE
  5
C1
330
1F
100
AcDbEntity
  8
0
  6
Continuous
 62
     7
370
    25
100
AcDbLine
 10
227.7003259295
 20
136.7620325416
 30
0.0
 11
227.3003259295
 21
136.7821602982
 31
0.0
  0
ARC
  5
C2
330
1F
100
AcDbEntity
  8
0
  6
Continuous
 62
     7
370
    25
100
AcDbCircle
 10
227.6998572048
 20
136.7831014193
 30
0.0
 40
0.3995323837042629
100
AcDbArc
 50
180.1349635748
 51
280.0800897005
  0
LINE
  5
C3
330
1F
100
AcDbEntity
  8
0
  6
Continuous
 62
     7
370
    25
100
AcDbLine
 10
227.3003259295
 20
145.6080440448
 30
0.0
 11
227.3003259295
 21
136.7821602982
 31
0.0
  0
LINE
  5
C4
330
1F
100
AcDbEntity
  8
0
  6
Continuous
 62
     7
370
    25
100
AcDbLine
 10
227.7003259295
 20
145.5879162882
 30
0.0
 11
227.3003259295
 21
145.6080440448
 31
0.0
  0
LINE
  5
C5
330
1F
100
AcDbEntity
  8
0
  6
Continuous
 62
     7
370
    25
100
AcDbLine
 10
227.8499682963
 20
145.4552993327
 30
0.0
 11
227.7003259295
 21
145.5879162882
 31
0.0
  0
LINE
  5
C6
330
1F
100
AcDbEntity
  8
0
  6
Continuous
 62
     7
370
    25
100
AcDbLine
 10
227.9931462525
 20
137.2072338761
 30
0.0
 11
227.9931462525
 21
137.0949397381
 31
0.0
  0
SPLINE
  5
C7
330
1F
100
AcDbEntity
  8
0
  6
Continuous
 62
     7
370
    25
100
AcDbSpline
210
0.0
220
0.0
230
1.0
 70
     8
 71
     3
 72
    10
 73
     6
 74
     0
 42
0.000000001
 43
0.00000001
 40
0.0
 40
0.0
 40
0.0
 40
0.0
 40
0.0432830963008711
 40
0.5206779836929887
 40
1.0
 40
1.0
 40
1.0
 40
1.0
 10
228.4732101241792
 20
137.6696564042782
 30
0.0
 10
228.4722120454034
 20
137.6683936892056
 30
0.0
 10
228.4602055650699
 20
137.6532037422245
 30
0.0
 10
228.4367151109459
 20
137.6236147588515
 30
0.0
 10
228.4133644977149
 20
137.594518853844
 30
0.0
 10
228.4016656733577
 20
137.5799415971858
 30
0.0
  0
SPLINE
  5
C8
330
1F
100
AcDbEntity
  8
0
  6
Continuous
 62
     7
370
    25
100
AcDbSpline
210
0.0
220
0.0
230
1.0
 70
     8
 71
     3
 72
    14
 73
    10
 74
     0
 42
0.000000001
 43
0.00000001
 40
0.0
 40
0.0
 40
0.0
 40
0.0
 40
0.3240421732223257
 40
0.4390834530314658
 40
0.5550339035678554
 40
0.632017577380627
 40
0.7091777148392563
 40
0.8120429782633714
 40
0.9999999999999999
 40
0.9999999999999999
 40
0.9999999999999999
 40
0.9999999999999999
 10
228.1041568189896
 20
137.1144394105078
 30
0.0
 10
228.181751336208
 20
137.1314812497422
 30
0.0
 10
228.2868934176159
 20
137.1545732736681
 30
0.0
 10
228.4046335547467
 20
137.2216998787691
 30
0.0
 10
228.4600990660089
 20
137.2739183062788
 30
0.0
 10
228.4890488710236
 20
137.3340544030595
 30
0.0
 10
228.4941354519151
 20
137.3973144196681
 30
0.0
 10
228.4695767039908
 20
137.4848002766397
 30
0.0
 10
228.4283258795884
 20
137.5425914465082
 30
0.0
 10
228.4016656733577
 20
137.5799415971858
 30
0.0
  0
SPLINE
  5
C9
330
1F
100
AcDbEntity
  8
0
  6
Continuous
 62
     7
370
    25
100
AcDbSpline
210
0.0
220
0.0
230
1.0
 70
     8
 71
     3
 72
    14
 73
    10
 74
     0
 42
0.000000001
 43
0.00000001
 40
0.0
 40
0.0
 40
0.0
 40
0.0
 40
0.1215026613260167
 40
0.2571357003576102
 40
0.3367055246584963
 40
0.4166989189530824
 40
0.5090573836362844
 40
0.6599898335532967
 40
1.0
 40
1.0
 40
1.0
 40
1.0
 10
228.4016656733577
 20
137.5799415971858
 30
0.0
 10
228.3751147261774
 20
137.5927713461048
 30
0.0
 10
228.3189250400928
 20
137.619922903426
 30
0.0
 10
228.2378094890258
 20
137.6394052655278
 30
0.0
 10
228.1652972912045
 20
137.631522936237
 30
0.0
 10
228.1097125584679
 20
137.6026043180315
 30
0.0
 10
228.0572038818257
 20
137.5425931402002
 30
0.0
 10
228.0020480759534
 20
137.4099009217194
 30
0.0
 10
227.9967887103525
 20
137.2901613989852
 30
0.0
 10
227.99314625253
 20
137.2072338760973
 30
0.0
  0
ARC
  5
CA
330
1F
100
AcDbEntity
  8
0
  6
Continuous
 62
     7
370
    25
100
AcDbCircle
 10
229.4991541172
 20
138.9215065994
 30
0.0
 40
0.9988309590978767
100
AcDbArc
 50
180.1349635615
 51
280.0800897288
  0
LINE
  5
CB
330
1F
100
AcDbEntity
  8
0
  6
Continuous
 62
     7
370
    25
100
AcDbLine
 10
229.6739741072
 20
137.9380935347
 30
0.0
 11
234.7989741072
 21
138.8383305516
 31
0.0
  0
SPLINE
  5
CC
330
1F
100
AcDbEntity
  8
0
  6
Continuous
 62
     7
370
    25
100
AcDbSpline
210
0.0
220
0.0
230
1.0
 70
     8
 71
     3
 72
    11
 73
     7
 74
     0
 42
0.000000001
 43
0.00000001
 40
0.0
 40
0.0
 40
0.0
 40
0.0
 40
0.3360297136123452
 40
0.671226969720046
 40
0.9920227009419896
 40
1.0
 40
1.0
 40
1.0
 40
1.0
 10
236.2756835626818
 20
138.4121883002477
 30
0.0
 10
236.2165319604009
 20
138.459457107912
 30
0.0
 10
236.0983752940563
 20
138.5538776226625
 30
0.0
 10
235.9129860964758
 20
138.7111369872914
 30
0.0
 10
235.7987499642772
 20
138.8117759212363
 30
0.0
 10
235.7465187738196
 20
138.8588499900924
 30
0.0
 10
235.7452514441178
 20
138.859992188176
 30
0.0
  0
LINE
  5
CD
330
1F
100
AcDbEntity
  8
0
  6
Continuous
 62
     7
370
    25
100
AcDbLine
 10
236.4253259295
 20
138.2946311705
 30
0.0
 11
236.8253259295
 21
138.3147589271
 31
0.0
  0
ARC
  5
CE
330
1F
100
AcDbEntity
  8
0
  6
Continuous
 62
     7
370
    25
100
AcDbCircle
 10
236.4264114128
 20
138.3153464785
 30
0.0
 40
0.3989149494387972
100
AcDbArc
 50
279.8691938001
 51
359.9156105054
  0
LINE
  5
CF
330
1F
100
AcDbEntity
  8
0
  6
Continuous
 62
     7
370
    25
100
AcDbLine
 10
234.4516777518
 20
145.9847094372
 30
0.0
 11
229.3266777518
 21
145.0844724202
 31
0.0
  0
ARC
  5
D0
330
1F
100
AcDbEntity
  8
0
  6
Continuous
 62
     7
370
    25
100
AcDbCircle
 10
234.6264977413
 20
145.0012963722
 30
0.0
 40
0.9988309592897581
100
AcDbArc
 50
0.1349635767
 51
100.0800896985
  0
LINE
  5
D1
330
1F
100
AcDbEntity
  8
0
  6
Continuous
 62
     7
370
    25
100
AcDbLine
 10
235.6253259295
 20
139.8193908138
 30
0.0
 11
235.6253259295
 21
145.003649175
 31
0.0
  0
ARC
  5
D2
330
1F
100
AcDbEntity
  8
0
  6
Continuous
 62
     7
370
    25
100
AcDbCircle
 10
234.6280396376
 20
139.8208596925
 30
0.0
 40
0.9972873735973401
100
AcDbArc
 50
279.8691938001
 51
359.9156105033
  0
LINE
  5
D3
330
1F
100
AcDbEntity
  8
0
  6
Continuous
 62
     7
370
    25
100
AcDbLine
 10
228.5003259295
 20
144.103412158
 30
0.0
 11
228.5003259292
 21
138.9191537968
 31
0.0
  0
ARC
  5
D4
330
1F
100
AcDbEntity
  8
0
  6
Continuous
 62
     7
370
    25
100
AcDbCircle
 10
229.4976122214
 20
144.1019432794
 30
0.0
 40
0.9972873735973681
100
AcDbArc
 50
99.8691938001
 51
179.9156105033
  0
CIRCLE
  5
D5
330
1F
100
AcDbEntity
  8
0
  6
Continuous
 62
     7
370
    25
100
AcDbCircle
 10
232.0548128133
 20
141.9598786857
 30
0.0
 40
3.041987264912733
  0
LINE
  5
D6
330
1F
100
AcDbEntity
  8
0
  6
Continuous
 62
     7
370
    25
100
AcDbLine
 10
236.1325056065
 20
146.7581386396
 30
0.0
 11
236.4253259295
 21
147.1205149171
 31
0.0
  0
LINE
  5
D7
330
1F
100
AcDbEntity
  8
0
  6
Continuous
 62
     7
370
    25
100
AcDbLine
 10
236.4253259295
 20
147.1205149171
 30
0.0
 11
236.8253259295
 21
147.1406426737
 31
0.0
  0
LINE
  5
D8
330
1F
100
AcDbEntity
  8
0
  6
Continuous
 62
     7
370
    25
100
AcDbLine
 10
236.8253259295
 20
138.3147589271
 30
0.0
 11
236.8253259295
 21
147.1406426737
 31
0.0
  0
LINE
  5
D9
330
1F
100
AcDbEntity
  8
0
  6
Continuous
 62
     7
370
    25
100
AcDbLine
 10
236.1325056065
 20
146.6458445016
 30
0.0
 11
236.1325056065
 21
146.7581386396
 31
0.0
  0
ARC
  5
DA
330
1F
100
AcDbEntity
  8
0
  6
Continuous
 62
     7
370
    25
100
AcDbCircle
 10
232.0628259295
 20
141.8526018743
 30
0.0
 40
3.050012041549648
100
AcDbArc
 50
0.1610008564
 51
179.8389991436
  0
SPLINE
  5
DB
330
1F
100
AcDbEntity
  8
0
  6
Continuous
 62
     7
370
    25
100
AcDbSpline
210
0.0
220
0.0
230
1.0
 70
     8
 71
     3
 72
    11
 73
     7
 74
     0
 42
0.000000001
 43
0.00000001
 40
0.0
 40
0.0
 40
0.0
 40
0.0
 40
0.0079772990479544
 40
0.3287730302731454
 40
0.6639702863843708
 40
1.0
 40
1.0
 40
1.0
 40
1.0
 10
228.3804004148849
 20
145.0163197991377
 30
0.0
 10
228.3791330851838
 20
145.0172963395892
 30
0.0
 10
228.3269018946884
 20
145.0575430648908
 30
0.0
 10
228.2126657625467
 20
145.1478856053754
 30
0.0
 10
228.027276564944
 20
145.3005623498508
 30
0.0
 10
227.9091198986025
 20
145.4036777104408
 30
0.0
 10
227.8499682963231
 20
145.4552993327104
 30
0.0
  0
SPLINE
  5
DC
330
1F
100
AcDbEntity
  8
0
  6
Continuous
 62
     7
370
    25
100
AcDbSpline
210
0.0
220
0.0
230
1.0
 70
     8
 71
     3
 72
    14
 73
    10
 74
     0
 42
0.000000001
 43
0.00000001
 40
0.0
 40
0.0
 40
0.0
 40
0.0
 40
0.1215026613286065
 40
0.2571357003598572
 40
0.3367055246605151
 40
0.4166989189548184
 40
0.5090573836378629
 40
0.6599898335543631
 40
1.0
 40
1.0
 40
1.0
 40
1.0
 10
235.7239861856447
 20
146.2731367804968
 30
0.0
 10
235.7505371328258
 20
146.260307031578
 30
0.0
 10
235.8067268189114
 20
146.2331554742571
 30
0.0
 10
235.887842369979
 20
146.2136731121548
 30
0.0
 10
235.9603545678003
 20
146.2215554414455
 30
0.0
 10
236.0159393005368
 20
146.2504740596511
 30
0.0
 10
236.068447977179
 20
146.3104852374824
 30
0.0
 10
236.1236037830513
 20
146.4431774559632
 30
0.0
 10
236.1288631486522
 20
146.5629169786974
 30
0.0
 10
236.1325056064747
 20
146.6458445015852
 30
0.0
  0
SPLINE
  5
DD
330
1F
100
AcDbEntity
  8
0
  6
Continuous
 62
     7
370
    25
100
AcDbSpline
210
0.0
220
0.0
230
1.0
 70
     8
 71
     3
 72
     9
 73
     5
 74
     0
 42
0.000000001
 43
0.00000001
 40
0.0
 40
0.0
 40
0.0
 40
0.0
 40
0.9566959562426404
 40
1.0
 40
1.0
 40
1.0
 40
1.0
 10
235.7239861856447
 20
146.2731367804968
 30
0.0
 10
235.700759672034
 20
146.2469797776576
 30
0.0
 10
235.6764818296755
 20
146.2196387999221
 30
0.0
 10
235.6534395583512
 20
146.1940805559402
 30
0.0
 10
235.6524417348256
 20
146.1929737806244
 30
0.0
  0
LINE
  5
DE
330
1F
100
AcDbEntity
  8
0
  6
Continuous
 62
     7
370
    25
100
AcDbLine
 10
227.7003259295
 20
145.5879162882
 30
0.0
 11
227.6308666584
 21
146.0004681497
 31
0.0
  0
LINE
  5
DF
330
1F
100
AcDbEntity
  8
0
  6
Continuous
 62
     7
370
    25
100
AcDbLine
 10
236.3558666584
 20
147.5330667786
 30
0.0
 11
227.6308666584
 21
146.0004681497
 31
0.0
  0
LINE
  5
E0
330
1F
100
AcDbEntity
  8
0
  6
Continuous
 62
     7
370
    25
100
AcDbLine
 10
236.4253259295
 20
147.1205149171
 30
0.0
 11
236.3558666584
 21
147.5330667786
 31
0.0
  0
LINE
  5
E1
330
1F
100
AcDbEntity
  8
0
  6
Continuous
 62
     7
370
    25
100
AcDbLine
 10
236.1325056065
 20
146.7581386396
 30
0.0
 11
236.02149504
 21
146.7386389672
 31
0.0
  0
ARC
  5
E2
330
1F
100
AcDbEntity
  8
0
  6
Continuous
 62
     7
370
    25
100
AcDbCircle
 10
227.6992404463
 20
145.6074564933
 30
0.0
 40
0.3989149494463217
100
AcDbArc
 50
99.869193801
 51
179.9156105024
  0
SPLINE
  5
E3
330
1F
100
AcDbEntity
  8
0
  6
Continuous
 62
     7
370
    25
100
AcDbSpline
210
0.0
220
0.0
230
1.0
 70
     8
 71
     3
 72
    14
 73
    10
 74
     0
 42
0.000000001
 43
0.00000001
 40
0.0
 40
0.0
 40
0.0
 40
0.0
 40
0.3240421732228857
 40
0.4390834530322483
 40
0.5550339035688564
 40
0.6320175773817578
 40
0.7091777148405357
 40
0.8120429782648098
 40
1.0
 40
1.0
 40
1.0
 40
1.0
 10
236.0214950400152
 20
146.7386389671748
 30
0.0
 10
235.9439005227968
 20
146.7215971279404
 30
0.0
 10
235.8387584413889
 20
146.6985051040146
 30
0.0
 10
235.721018304258
 20
146.6313784989136
 30
0.0
 10
235.6655527929959
 20
146.5791600714038
 30
0.0
 10
235.6366029879811
 20
146.5190239746231
 30
0.0
 10
235.6315164070896
 20
146.4557639580145
 30
0.0
 10
235.6560751550141
 20
146.3682781010434
 30
0.0
 10
235.6973259794151
 20
146.3104869311746
 30
0.0
 10
235.7239861856447
 20
146.2731367804968
 30
0.0
  0
ARC
  5
E4
330
1F
100
AcDbEntity
  8
0
  6
Continuous
 62
     7
370
    25
100
AcDbCircle
 10
236.4257946542
 20
147.1397015525
 30
0.0
 40
0.3995323837273441
100
AcDbArc
 50
0.1349635787
 51
100.0800896966
  0
LINE
  5
E5
330
1F
100
AcDbEntity
  8
0
  6
Continuous
 62
     7
370
    25
100
AcDbLine
 10
215.2448757451
 20
113.1641205529
 30
0.0
 11
215.2448757451
 21
130.5405336232
 31
0.0
  0
SPLINE
  5
E6
330
1F
100
AcDbEntity
  8
0
  6
Continuous
 62
     7
370
    25
100
AcDbSpline
210
0.0
220
0.0
230
1.0
 70
     8
 71
     3
 72
    28
 73
    24
 74
     0
 42
0.000000001
 43
0.00000001
 40
0.0
 40
0.0
 40
0.0
 40
0.0
 40
0.0624999999999996
 40
0.0624999999999996
 40
0.1249999999999992
 40
0.1249999999999992
 40
0.1874999999999988
 40
0.1874999999999988
 40
0.2499999999999984
 40
0.2499999999999984
 40
0.3749999999999977
 40
0.3749999999999977
 40
0.499999999999997
 40
0.499999999999997
 40
0.5624999999999967
 40
0.5624999999999967
 40
0.6249999999999964
 40
0.6249999999999964
 40
0.7499999999999976
 40
0.7499999999999976
 40
0.8749999999999988
 40
0.8749999999999988
 40
1.0
 40
1.0
 40
1.0
 40
1.0
 10
215.2448757450911
 20
130.540533623181
 30
0.0
 10
215.3771510118032
 20
130.2854649548999
 30
0.0
 10
215.5360020860673
 20
130.023746182811
 30
0.0
 10
215.8818508696485
 20
129.5049403358773
 30
0.0
 10
216.0698208478535
 20
129.2458797237711
 30
0.0
 10
216.4677128122895
 20
128.7264874796703
 30
0.0
 10
216.6777108437551
 20
128.4661741089418
 30
0.0
 10
217.1150727662338
 20
127.9431155271003
 30
0.0
 10
217.3422360317319
 20
127.6807194052687
 30
0.0
 10
218.034380639129
 20
126.9008019734319
 30
0.0
 10
218.5133709644284
 20
126.3859512274075
 30
0.0
 10
219.4952536569461
 20
125.3599285075611
 30
0.0
 10
219.9983331725483
 20
124.8488618822705
 30
0.0
 10
220.7688393544903
 20
124.0841169069587
 30
0.0
 10
221.0283283191227
 20
123.8296035021426
 30
0.0
 10
221.5469860598381
 20
123.326931200456
 30
0.0
 10
221.8068799189574
 20
123.0780504323098
 30
0.0
 10
222.5886427307569
 20
122.3389345766454
 30
0.0
 10
223.1125272842579
 20
121.8561449560379
 30
0.0
 10
224.1695181842377
 20
120.9136616172571
 30
0.0
 10
224.702633979642
 20
120.4539921393288
 30
0.0
 10
225.7839240474556
 20
119.5633350881775
 30
0.0
 10
226.3339870173447
 20
119.1310596316961
 30
0.0
 10
226.8892206222018
 20
118.7211307486959
 30
0.0
  0
ELLIPSE
  5
E7
330
1F
100
AcDbEntity
  8
0
  6
Continuous
 62
     7
370
    25
100
AcDbEllipse
 10
234.6561501546
 20
123.6641205529
 30
0.0
 11
18.36681480757722
 21
10.49143687586569
 31
0.0
210
0.0
220
0.0
230
1.0
 40
0.0230835902
 41
3.181981922108538
 42
4.262625187531079
  0
LINE
  5
E8
330
1F
100
AcDbEntity
  8
0
  6
Continuous
 62
     7
370
    25
100
AcDbLine
 10
223.9060475853
 20
144.4859974969
 30
0.0
 11
223.9060475853
 21
144.4861032096
 31
0.0
  0
SPLINE
  5
E9
330
1F
100
AcDbEntity
  8
0
  6
Continuous
 62
     7
370
    25
100
AcDbSpline
210
0.0
220
0.0
230
1.0
 70
     8
 71
     3
 72
     8
 73
     4
 74
     0
 42
0.000000001
 43
0.00000001
 40
0.0
 40
0.0
 40
0.0
 40
0.0
 40
1.0
 40
1.0
 40
1.0
 40
1.0
 10
220.2400624591492
 20
140.1110215464695
 30
0.0
 10
221.4610598770464
 20
141.5701779796887
 30
0.0
 10
222.6832650479829
 20
143.0283282390369
 30
0.0
 10
223.9060475852899
 20
144.4859974969412
 30
0.0
  0
SPLINE
  5
EA
330
1F
100
AcDbEntity
  8
0
  6
Continuous
 62
     7
370
    25
100
AcDbSpline
210
0.0
220
0.0
230
1.0
 70
     8
 71
     3
 72
    20
 73
    16
 74
     0
 42
0.000000001
 43
0.00000001
 40
0.0
 40
0.0
 40
0.0
 40
0.0
 40
0.1249999999999999
 40
0.1249999999999999
 40
0.1874999999999998
 40
0.1874999999999998
 40
0.2499999999999998
 40
0.2499999999999998
 40
0.4999999999999994
 40
0.4999999999999994
 40
0.749999999999999
 40
0.749999999999999
 40
0.8749999999999996
 40
0.8749999999999996
 40
1.0
 40
1.0
 40
1.0
 40
1.0
 10
215.2448757450911
 20
130.540533623181
 30
0.0
 10
215.1517609615788
 20
130.895052453227
 30
0.0
 10
215.0989431137181
 20
131.2526281813533
 30
0.0
 10
215.0884338700167
 20
131.7972743581939
 30
0.0
 10
215.0963764265557
 20
131.980242333672
 30
0.0
 10
215.136371672444
 20
132.3501536734654
 30
0.0
 10
215.1686887258147
 20
132.5380453112747
 30
0.0
 10
215.3894276690968
 20
133.4769781741643
 30
0.0
 10
215.7532470812632
 20
134.2262655269451
 30
0.0
 10
216.7668136391101
 20
135.8209762868612
 30
0.0
 10
217.3874489599133
 20
136.6295509503535
 30
0.0
 10
218.4203369220866
 20
137.9172276940174
 30
0.0
 10
218.775527183998
 20
138.3500372114964
 30
0.0
 10
219.4982358559717
 20
139.2233203042338
 30
0.0
 10
219.8663282790585
 20
139.6643894527403
 30
0.0
 10
220.2400624591492
 20
140.1110215464695
 30
0.0
  0
LINE
  5
EB
330
1F
100
AcDbEntity
  8
0
  6
Continuous
 62
     7
370
    25
100
AcDbLine
 10
214.8253259295
 20
113.6641205529
 30
0.0
 11
214.8253259295
 21
133.6641205529
 31
0.0
  0
SPLINE
  5
EC
330
1F
100
AcDbEntity
  8
0
  6
Continuous
 62
     7
370
    25
100
AcDbSpline
210
0.0
220
0.0
230
1.0
 70
    11
 71
     3
 72
    56
 73
    52
 74
     0
 42
0.000000001
 43
0.00000001
 40
0.0
 40
0.0
 40
0.0
 40
0.0
 40
0.0625000000000035
 40
0.0625000000000035
 40
0.0937500000000046
 40
0.0937500000000046
 40
0.1250000000000057
 40
0.1250000000000057
 40
0.1562500000000068
 40
0.1562500000000068
 40
0.187500000000008
 40
0.187500000000008
 40
0.2187500000000091
 40
0.2187500000000091
 40
0.2500000000000102
 40
0.2500000000000102
 40
0.2812500000000113
 40
0.2812500000000113
 40
0.3125000000000124
 40
0.3125000000000124
 40
0.3437500000000136
 40
0.3437500000000136
 40
0.3750000000000147
 40
0.3750000000000147
 40
0.4062500000000158
 40
0.4062500000000158
 40
0.4375000000000169
 40
0.4375000000000169
 40
0.5000000000000169
 40
0.5000000000000169
 40
0.5625000000000168
 40
0.5625000000000168
 40
0.6250000000000165
 40
0.6250000000000165
 40
0.656250000000016
 40
0.656250000000016
 40
0.6875000000000154
 40
0.6875000000000154
 40
0.7187500000000148
 40
0.7187500000000148
 40
0.7500000000000142
 40
0.7500000000000142
 40
0.7812500000000137
 40
0.7812500000000137
 40
0.812500000000013
 40
0.812500000000013
 40
0.8750000000000087
 40
0.8750000000000087
 40
0.9375000000000044
 40
0.9375000000000044
 40
1.0
 40
1.0
 40
1.0
 40
1.0
 10
220.2044190060608
 20
133.0395339730374
 30
0.0
 10
220.0367928389357
 20
132.8719078059122
 30
0.0
 10
219.8954327872999
 20
132.6914698902166
 30
0.0
 10
219.7354104761373
 20
132.3913321923376
 30
0.0
 10
219.6906140814214
 20
132.2851036696575
 30
0.0
 10
219.6261321537848
 20
132.066213121444
 30
0.0
 10
219.6060048705734
 20
131.9534232551327
 30
0.0
 10
219.5960192902961
 20
131.7182288114895
 30
0.0
 10
219.606435489529
 20
131.5990930006959
 30
0.0
 10
219.6635132143022
 20
131.3596595832755
 30
0.0
 10
219.7106300383101
 20
131.2396714133347
 30
0.0
 10
219.8414693555584
 20
131.0134734879123
 30
0.0
 10
219.9257501372491
 20
130.9066193976236
 30
0.0
 10
220.1212939517929
 20
130.7209644293436
 30
0.0
 10
220.2334787491171
 20
130.6412819301714
 30
0.0
 10
220.469850744442
 20
130.5176038567042
 30
0.0
 10
220.5943215696808
 20
130.4731203081172
 30
0.0
 10
220.8438406437294
 20
130.4180198712584
 30
0.0
 10
220.9686525383737
 20
130.4073249304207
 30
0.0
 10
221.2109450687766
 20
130.4139547629259
 30
0.0
 10
221.3309809780504
 20
130.4314677744292
 30
0.0
 10
221.560164723437
 20
130.4887770507644
 30
0.0
 10
221.6698821573983
 20
130.5283547971033
 30
0.0
 10
221.8819152990443
 20
130.625732239503
 30
0.0
 10
221.9848492667819
 20
130.6840662139952
 30
0.0
 10
222.1801188541743
 20
130.8141156364685
 30
0.0
 10
222.2727910395378
 20
130.8858477266938
 30
0.0
 10
222.538600052842
 20
131.1183923451406
 30
0.0
 10
222.7009735477506
 20
131.2979463877215
 30
0.0
 10
222.9924832896127
 20
131.6895875701138
 30
0.0
 10
223.1211700506362
 20
131.900117086247
 30
0.0
 10
223.3424878165372
 20
132.3507775319688
 30
0.0
 10
223.4356800935443
 20
132.5906261909845
 30
0.0
 10
223.5253368297132
 20
132.9686383744511
 30
0.0
 10
223.5464953087495
 20
133.0968987239995
 30
0.0
 10
223.5598794352096
 20
133.3561339091031
 30
0.0
 10
223.5523666536241
 20
133.4904909637442
 30
0.0
 10
223.4796221898808
 20
133.747081265175
 30
0.0
 10
223.410125454191
 20
133.8693984154888
 30
0.0
 10
223.2047993136533
 20
134.0465192287417
 30
0.0
 10
223.0750718063785
 20
134.0992124894685
 30
0.0
 10
222.8102546941664
 20
134.152781386716
 30
0.0
 10
222.6754365363951
 20
134.1558602739298
 30
0.0
 10
222.4103890144447
 20
134.1383467030275
 30
0.0
 10
222.2786158162529
 20
134.1171175603013
 30
0.0
 10
221.8959603282633
 20
134.0321121356913
 30
0.0
 10
221.6521857354163
 20
133.947083275878
 30
0.0
 10
221.1840481908515
 20
133.7413473059093
 30
0.0
 10
220.9658356661531
 20
133.6225981605109
 30
0.0
 10
220.5600519529752
 20
133.3556727502871
 30
0.0
 10
220.372045173186
 20
133.2071601401625
 30
0.0
 10
220.2044190060608
 20
133.0395339730374
 30
0.0
  0
SPLINE
  5
ED
330
1F
100
AcDbEntity
  8
0
  6
Continuous
 62
     7
370
    25
100
AcDbSpline
210
0.0
220
0.0
230
1.0
 70
     8
 71
     3
 72
     8
 73
     4
 74
     0
 42
0.000000001
 43
0.00000001
 40
0.0
 40
0.0
 40
0.0
 40
0.0
 40
1.0
 40
1.0
 40
1.0
 40
1.0
 10
235.5098251073001
 20
124.0526849441204
 30
0.0
 10
235.6733842881289
 20
124.1472194384575
 30
0.0
 10
235.8206535416869
 20
124.2627954098807
 30
0.0
 10
235.9516874028756
 20
124.3993966027431
 30
0.0
  0
ELLIPSE
  5
EE
330
1F
100
AcDbEntity
  8
0
  6
Continuous
 62
     7
370
    25
100
AcDbEllipse
 10
237.0860189018
 20
124.3109340168
 30
0.0
 11
10.80355341949925
 21
6.165720034875136
 31
0.0
210
0.0
220
0.0
230
1.0
 40
0.0451040694
 41
1.691430199814143
 42
2.778174119190371
  0
LINE
  5
EF
330
1F
100
AcDbEntity
  8
0
  6
Continuous
 62
     7
370
    25
100
AcDbLine
 10
208.8253259295
 20
113.6641205529
 30
0.0
 11
208.8253259295
 21
133.6641205529
 31
0.0
  0
LINE
  5
F0
330
1F
100
AcDbEntity
  8
0
  6
Continuous
 62
     7
370
    25
100
AcDbLine
 10
206.8253259295
 20
115.6641205529
 30
0.0
 11
206.8253259295
 21
131.6641205529
 31
0.0
  0
LINE
  5
F1
330
1F
100
AcDbEntity
  8
0
  6
Continuous
 62
     7
370
    25
100
AcDbLine
 10
121.8253259295
 20
117.0391205529
 30
0.0
 11
121.8253259295
 21
129.8641205529
 31
0.0
  0
SPLINE
  5
F2
330
1F
100
AcDbEntity
  8
0
  6
Continuous
 62
     7
370
    25
100
AcDbSpline
210
0.0
220
0.0
230
1.0
 70
    24
 71
     3
 72
    10
 73
     6
 74
     0
 42
0.000000001
 43
0.00000001
 40
0.0
 40
0.0
 40
0.0
 40
0.0
 40
0.5
 40
0.5
 40
1.0
 40
1.0
 40
1.0
 40
1.0
 10
123.2003259295025
 20
129.8641205529194
 30
0.0
 10
122.9280857421852
 20
129.8641205529194
 30
0.0
 10
122.6697216339973
 20
129.8641205529194
 30
0.0
 10
122.2036556161819
 20
129.8641205529194
 30
0.0
 10
121.9950651130542
 20
129.8641205529194
 30
0.0
 10
121.8253259295025
 20
129.8641205529194
 30
0.0
  0
LINE
  5
F3
330
1F
100
AcDbEntity
  8
0
  6
Continuous
 62
     7
370
    25
100
AcDbLine
 10
123.2003259295
 20
115.6641205529
 30
0.0
 11
123.2003259295
 21
129.8641205529
 31
0.0
  0
LINE
  5
F4
330
1F
100
AcDbEntity
  8
0
  6
Continuous
 62
     7
370
    25
100
AcDbLine
 10
131.3253259295
 20
129.8641205529
 30
0.0
 11
123.2003259295
 21
129.8641205529
 31
0.0
  0
LINE
  5
F5
330
1F
100
AcDbEntity
  8
0
  6
Continuous
 62
     7
370
    25
100
AcDbLine
 10
133.1253259295
 20
131.6641205529
 30
0.0
 11
131.3253259295
 21
129.8641205529
 31
0.0
  0
LINE
  5
F6
330
1F
100
AcDbEntity
  8
0
  6
Continuous
 62
     7
370
    25
100
AcDbLine
 10
137.8253259295
 20
129.8641205529
 30
0.0
 11
136.0253259295
 21
131.6641205529
 31
0.0
  0
LINE
  5
F7
330
1F
100
AcDbEntity
  8
0
  6
Continuous
 62
     7
370
    25
100
AcDbLine
 10
145.8253259295
 20
129.8641205529
 30
0.0
 11
137.8253259295
 21
129.8641205529
 31
0.0
  0
LINE
  5
F8
330
1F
100
AcDbEntity
  8
0
  6
Continuous
 62
     7
370
    25
100
AcDbLine
 10
147.6253259295
 20
131.6641205529
 30
0.0
 11
145.8253259295
 21
129.8641205529
 31
0.0
  0
LINE
  5
F9
330
1F
100
AcDbEntity
  8
0
  6
Continuous
 62
     7
370
    25
100
AcDbLine
 10
152.3253259295
 20
129.8641205529
 30
0.0
 11
150.5253259295
 21
131.6641205529
 31
0.0
  0
LINE
  5
FA
330
1F
100
AcDbEntity
  8
0
  6
Continuous
 62
     7
370
    25
100
AcDbLine
 10
160.3253259295
 20
129.8641205529
 30
0.0
 11
152.3253259295
 21
129.8641205529
 31
0.0
  0
LINE
  5
FB
330
1F
100
AcDbEntity
  8
0
  6
Continuous
 62
     7
370
    25
100
AcDbLine
 10
162.1253259295
 20
131.6641205529
 30
0.0
 11
160.3253259295
 21
129.8641205529
 31
0.0
  0
LINE
  5
FC
330
1F
100
AcDbEntity
  8
0
  6
Continuous
 62
     7
370
    25
100
AcDbLine
 10
166.8253259295
 20
129.8641205529
 30
0.0
 11
165.0253259295
 21
131.6641205529
 31
0.0
  0
LINE
  5
FD
330
1F
100
AcDbEntity
  8
0
  6
Continuous
 62
     7
370
    25
100
AcDbLine
 10
174.8253259295
 20
129.8641205529
 30
0.0
 11
166.8253259295
 21
129.8641205529
 31
0.0
  0
LINE
  5
FE
330
1F
100
AcDbEntity
  8
0
  6
Continuous
 62
     7
370
    25
100
AcDbLine
 10
176.6253259295
 20
131.6641205529
 30
0.0
 11
174.8253259295
 21
129.8641205529
 31
0.0
  0
LINE
  5
FF
330
1F
100
AcDbEntity
  8
0
  6
Continuous
 62
     7
370
    25
100
AcDbLine
 10
181.3253259295
 20
129.8641205529
 30
0.0
 11
179.5253259295
 21
131.6641205529
 31
0.0
  0
LINE
  5
100
330
1F
100
AcDbEntity
  8
0
  6
Continuous
 62
     7
370
    25
100
AcDbLine
 10
189.3253259295
 20
129.8641205529
 30
0.0
 11
181.3253259295
 21
129.8641205529
 31
0.0
  0
LINE
  5
101
330
1F
100
AcDbEntity
  8
0
  6
Continuous
 62
     7
370
    25
100
AcDbLine
 10
191.1253259295
 20
131.6641205529
 30
0.0
 11
189.3253259295
 21
129.8641205529
 31
0.0
  0
LINE
  5
102
330
1F
100
AcDbEntity
  8
0
  6
Continuous
 62
     7
370
    25
100
AcDbLine
 10
223.9060475853
 20
144.4859974969
 30
0.0
 11
227.3003259295
 21
145.084601017
 31
0.0
  0
ARC
  5
103
330
1F
100
AcDbEntity
  8
0
  6
Continuous
 62
     7
370
    25
100
AcDbCircle
 10
228.0828103879
 20
137.2151154945
 30
0.0
 40
1.647148766335715
100
AcDbArc
 50
117.3964753407
 51
342.8185779345
  0
LINE
  5
104
330
1F
100
AcDbEntity
  8
0
  6
Continuous
 62
     7
370
    25
100
AcDbLine
 10
236.5007690173
 20
125.7650676804
 30
0.0
 11
236.5007690173
 21
137.9234327265
 31
0.0
  0
ELLIPSE
  5
105
330
1F
100
AcDbEntity
  8
0
  6
Continuous
 62
     7
370
    25
100
AcDbEllipse
 10
234.4857493664
 20
125.7822804924
 30
0.0
 11
1.868639352156748
 21
-0.7633212359937859
 31
0.0
210
0.0
220
0.0
230
1.0
 40
0.9877670049
 41
5.910582487808081
 42
6.666699550843438
  0
ARC
  5
106
330
1F
100
AcDbEntity
  8
0
  6
Continuous
 62
     7
370
    25
100
AcDbCircle
 10
228.0740568708
 20
136.874910816
 30
0.0
 40
1.643377154835091
100
AcDbArc
 50
118.0873839224
 51
174.0065319437
  0
LINE
  5
107
330
1F
100
AcDbEntity
  8
VERMASSUNG
100
AcDbLine
 10
236.0363554629
 20
147.5391205529
 30
0.0
 11
239.9479788603
 21
147.5391205529
 31
0.0
  0
DIMENSION
  5
108
330
1F
100
AcDbEntity
  8
VERMASSUNG
100
AcDbDimension
  2
_D
 10
261.0775747287
 20
147.5391205529
 30
0.0
 11
261.0775747287
 21
123.0407734856
 31
0.0
 70
   160
  1
%%c47.75 min.\P%%c53.1 max.
 71
     2
 42
-1.0
  3
SLDDIMSTYLE0
100
AcDbAlignedDimension
 13
216.314092954
 23
113.1641205529
 33
0.0
 14
239.9479788603
 24
147.5391205529
 34
0.0
 50
90.0
100
AcDbRotatedDimension
  0
DIMENSION
  5
114
330
1F
100
AcDbEntity
  8
VERMASSUNG
100
AcDbDimension
  2
_D_1
 10
239.9479788603
 20
147.5391205529
 30
0.0
 11
247.4519547904
 21
136.9124916921
 31
0.0
 70
   162
  1
<>
 71
     1
 42
-1.0
  3
SLDDIMSTYLE1
100
AcDb2LineAngularDimension
 13
236.8253259295
 23
138.3147589271
 33
0.0
 14
236.8253259295
 24
147.1406426737
 34
0.0
 15
236.0363554629
 25
147.5391205529
 35
0.0
 16
247.4519547904
 26
136.9124916921
 36
0.0
  0
DIMENSION
  5
11F
330
1F
100
AcDbEntity
  8
VERMASSUNG
100
AcDbDimension
  2
_D_2
 10
111.8253259295
 20
115.6641205529
 30
0.0
 11
111.8253259295
 21
123.6641205529
 31
0.0
 70
   160
  1
%%c<>
 71
     2
 42
-1.0
  3
SLDDIMSTYLE2
100
AcDbAlignedDimension
 13
191.1253259295
 23
131.6641205529
 33
0.0
 14
123.2003259295
 24
115.6641205529
 34
0.0
 50
90.0
100
AcDbRotatedDimension
  0
DIMENSION
  5
12B
330
1F
100
AcDbEntity
  8
VERMASSUNG
100
AcDbDimension
  2
_D_3
 10
121.8253259295
 20
155.2450262851
 30
0.0
 11
179.3253259295
 21
155.2450262851
 31
0.0
 70
   160
  1
<>
 71
     2
 42
-1.0
  3
SLDDIMSTYLE2
100
AcDbAlignedDimension
 13
236.8253259295
 23
147.1406426737
 33
0.0
 14
121.8253259295
 24
129.8641205529
 34
0.0
100
AcDbRotatedDimension
  0
LINE
  5
135
330
1F
100
AcDbEntity
  8
VERMASSUNG
  6
CENTERX2
370
    18
100
AcDbLine
 10
242.3373638046
 20
123.6641205529
 30
0.0
 11
123.2003259295
 21
123.6641205529
 31
0.0
  0
LINE
  5
136
330
1F
100
AcDbEntity
  8
VERMASSUNG
  6
CENTERX2
370
    18
100
AcDbLine
 10
123.2003259295
 20
123.6641205529
 30
0.0
 11
119.8253259295
 21
123.6641205529
 31
0.0
  0
LINE
  5
137
330
1F
100
AcDbEntity
  8
0
  6
Continuous
 62
     7
370
    25
100
AcDbLine
 10
70.1775278097
 20
146.8567120488
 30
0.0
 11
66.9670482145
 21
147.5391205529
 31
0.0
  0
LINE
  5
138
330
1F
100
AcDbEntity
  8
0
  6
Continuous
 62
     7
370
    25
100
AcDbLine
 10
65.9910738411
 20
136.3836824189
 30
0.0
 11
66.1924530566
 21
136.3907147361
 31
0.0
  0
LINE
  5
139
330
1F
100
AcDbEntity
  8
0
  6
Continuous
 62
     7
370
    25
100
AcDbLine
 10
66.1256884835
 20
137.9223348222
 30
0.0
 11
66.1600211438
 21
138.3147589271
 31
0.0
  0
LINE
  5
13A
330
1F
100
AcDbEntity
  8
0
  6
Continuous
 62
     7
370
    25
100
AcDbLine
 10
69.4053630363
 20
138.0308283022
 30
0.0
 11
66.1600211438
 21
138.3147589271
 31
0.0
  0
LINE
  5
13B
330
1F
100
AcDbEntity
  8
0
  6
Continuous
 62
     7
370
    25
100
AcDbLine
 10
69.4053630363
 20
138.0308283022
 30
0.0
 11
66.428718164
 21
137.9323592146
 31
0.0
  0
LINE
  5
13C
330
1F
100
AcDbEntity
  8
0
  6
Continuous
 62
     7
370
    25
100
AcDbLine
 10
66.3270351834
 20
137.9289954843
 30
0.0
 11
66.1256884835
 21
137.9223348222
 31
0.0
  0
LINE
  5
13D
330
1F
100
AcDbEntity
  8
0
  6
Continuous
 62
     7
370
    25
100
AcDbLine
 10
70.1775278097
 20
146.8567120488
 30
0.0
 11
66.9321859172
 21
147.1406426737
 31
0.0
  0
LINE
  5
13E
330
1F
100
AcDbEntity
  8
0
  6
Continuous
 62
     7
370
    25
100
AcDbLine
 10
70.8779951085
 20
146.6908065195
 30
0.0
 11
70.1775278097
 21
146.8567120488
 31
0.0
  0
LINE
  5
13F
330
1F
100
AcDbEntity
  8
0
  6
Continuous
 62
     7
370
    25
100
AcDbLine
 10
70.1213098637
 20
138.0418545953
 30
0.0
 11
70.8779951085
 21
146.6908065195
 31
0.0
  0
LINE
  5
140
330
1F
100
AcDbEntity
  8
0
  6
Continuous
 62
     7
370
    25
100
AcDbLine
 10
70.1213098637
 20
138.0418545953
 30
0.0
 11
69.4053630363
 21
138.0308283022
 31
0.0
  0
LINE
  5
141
330
1F
100
AcDbEntity
  8
0
  6
Continuous
 62
     7
370
    25
100
AcDbLine
 10
66.1600211438
 20
138.3147589271
 30
0.0
 11
66.9321859172
 21
147.1406426737
 31
0.0
  0
LINE
  5
142
330
1F
100
AcDbEntity
  8
0
  6
Continuous
 62
     7
370
    25
100
AcDbLine
 10
66.9321859172
 20
147.1406426737
 30
0.0
 11
66.9670482145
 21
147.5391205529
 31
0.0
  0
LINE
  5
143
330
1F
100
AcDbEntity
  8
0
  6
Continuous
 62
     7
370
    25
100
AcDbLine
 10
70.116699491
 20
137.9891577943
 30
0.0
 11
70.1213098637
 21
138.0418545953
 31
0.0
  0
LINE
  5
144
330
1F
100
AcDbEntity
  8
0
  6
Continuous
 62
     7
370
    25
100
AcDbLine
 10
66.1929501776
 20
136.3963968555
 30
0.0
 11
65.9916034775
 21
136.3897361933
 31
0.0
  0
LINE
  5
145
330
1F
100
AcDbEntity
  8
0
  6
Continuous
 62
     7
370
    25
100
AcDbLine
 10
65.9916034775
 20
136.3897361933
 30
0.0
 11
66.1256884835
 21
137.9223348222
 31
0.0
  0
LINE
  5
146
330
1F
100
AcDbEntity
  8
0
  6
Continuous
 62
     7
370
    25
100
AcDbLine
 10
65.9910738411
 20
136.3836824189
 30
0.0
 11
65.9916034775
 21
136.3897361933
 31
0.0
  0
LINE
  5
147
330
1F
100
AcDbEntity
  8
0
  6
Continuous
 62
     7
370
    25
100
AcDbLine
 10
67.6037639366
 20
137.9504560879
 30
0.0
 11
66.327192675
 21
137.9307956211
 31
0.0
  0
LINE
  5
148
330
1F
100
AcDbEntity
  8
0
  6
Continuous
 62
     7
370
    25
100
AcDbLine
 10
70.0895333269
 20
137.678647118
 30
0.0
 11
67.6037639366
 21
137.9504560879
 31
0.0
  0
LINE
  5
149
330
1F
100
AcDbEntity
  8
0
  6
Continuous
 62
     7
370
    25
100
AcDbLine
 10
70.116699491
 20
137.9891577943
 30
0.0
 11
70.0895333269
 21
137.678647118
 31
0.0
  0
ELLIPSE
  5
14A
330
1F
100
AcDbEntity
  8
0
  6
Continuous
 62
     7
370
    25
100
AcDbEllipse
 10
66.4707108853
 20
123.7075444425
 30
0.0
 11
22.92526723519714
 21
-2.005700991380579
 31
0.0
210
0.0
220
0.0
230
1.0
 40
0.9997656063
 41
1.072514158255752
 42
1.466867681299132
  0
LINE
  5
14B
330
1F
100
AcDbEntity
  8
0
  6
Continuous
 62
     7
370
    25
100
AcDbLine
 10
79.1884970417
 20
142.8819307844
 30
0.0
 11
77.6730542601
 21
125.5603405287
 31
0.0
  0
LINE
  5
14C
330
1F
100
AcDbEntity
  8
0
  6
Continuous
 62
     7
370
    25
100
AcDbLine
 10
65.2628293966
 20
125.7650676804
 30
0.0
 11
66.327192675
 21
137.9307956211
 31
0.0
  0
SPLINE
  5
14D
330
1F
100
AcDbEntity
  8
0
  6
Continuous
 62
     7
370
    25
100
AcDbSpline
210
0.0
220
0.0
230
1.0
 70
     8
 71
     3
 72
     8
 73
     4
 74
     0
 42
0.000000001
 43
0.00000001
 40
0.0
 40
0.0
 40
0.0
 40
0.0
 40
1.0
 40
1.0
 40
1.0
 40
1.0
 10
65.0999162628865
 20
124.0526849441204
 30
0.0
 10
65.11677845498227
 20
124.1472194384575
 30
0.0
 10
65.13139760340466
 20
124.2627954098807
 30
0.0
 10
65.14334865920425
 20
124.3993966027431
 30
0.0
  0
LINE
  5
14E
330
1F
100
AcDbEntity
  8
0
  6
Continuous
 62
     7
370
    25
100
AcDbLine
 10
65.1433486592
 20
124.3993966027
 30
0.0
 11
65.2628293966
 21
125.7650676804
 31
0.0
  0
LINE
  5
14F
330
1F
100
AcDbEntity
  8
0
  6
Continuous
 62
     7
370
    25
100
AcDbLine
 10
77.6730542601
 20
125.5603405287
 30
0.0
 11
77.5232213048
 21
123.8477420133
 31
0.0
  0
SPLINE
  5
150
330
1F
100
AcDbEntity
  8
0
  6
Continuous
 62
     7
370
    25
100
AcDbSpline
210
0.0
220
0.0
230
1.0
 70
    11
 71
     3
 72
    56
 73
    52
 74
     0
 42
0.000000001
 43
0.00000001
 40
0.0
 40
0.0
 40
0.0
 40
0.0
 40
0.0625000000000035
 40
0.0625000000000035
 40
0.0937500000000046
 40
0.0937500000000046
 40
0.1250000000000057
 40
0.1250000000000057
 40
0.1562500000000068
 40
0.1562500000000068
 40
0.187500000000008
 40
0.187500000000008
 40
0.2187500000000091
 40
0.2187500000000091
 40
0.2500000000000102
 40
0.2500000000000102
 40
0.2812500000000113
 40
0.2812500000000113
 40
0.3125000000000124
 40
0.3125000000000124
 40
0.3437500000000136
 40
0.3437500000000136
 40
0.3750000000000147
 40
0.3750000000000147
 40
0.4062500000000158
 40
0.4062500000000158
 40
0.4375000000000169
 40
0.4375000000000169
 40
0.5000000000000169
 40
0.5000000000000169
 40
0.5625000000000168
 40
0.5625000000000168
 40
0.6250000000000165
 40
0.6250000000000165
 40
0.656250000000016
 40
0.656250000000016
 40
0.6875000000000154
 40
0.6875000000000154
 40
0.7187500000000148
 40
0.7187500000000148
 40
0.7500000000000142
 40
0.7500000000000142
 40
0.7812500000000137
 40
0.7812500000000137
 40
0.812500000000013
 40
0.812500000000013
 40
0.8750000000000087
 40
0.8750000000000087
 40
0.9375000000000044
 40
0.9375000000000044
 40
1.0
 40
1.0
 40
1.0
 40
1.0
 10
64.75465403129441
 20
133.0395339730374
 30
0.0
 10
64.62455057824548
 20
132.8719078059122
 30
0.0
 10
64.48749146064989
 20
132.6914698902166
 30
0.0
 10
64.27372108353285
 20
132.3913321923376
 30
0.0
 10
64.20035556182086
 20
132.2851036696575
 30
0.0
 10
64.05666254796375
 20
132.066213121444
 30
0.0
 10
63.98613471796941
 20
131.9534232551327
 30
0.0
 10
63.85037103484147
 20
131.7182288114895
 30
0.0
 10
63.78708350026329
 20
131.5990930006959
 30
0.0
 10
63.6757158975236
 20
131.3596595832755
 30
0.0
 10
63.62805677889763
 20
131.2396714133347
 30
0.0
 10
63.55927915906036
 20
131.0134734879123
 30
0.0
 10
63.53812214658271
 20
130.9066193976236
 30
0.0
 10
63.52701543665182
 20
130.7209644293436
 30
0.0
 10
63.53700035631501
 20
130.6412819301714
 30
0.0
 10
63.58379791825327
 20
130.5176038567042
 30
0.0
 10
63.62040342020404
 20
130.4731203081172
 30
0.0
 10
63.71117654178241
 20
130.4180198712584
 30
0.0
 10
63.76514352804516
 20
130.4073249304207
 30
0.0
 10
63.88142957947795
 20
130.4139547629259
 30
0.0
 10
63.94501812676505
 20
130.4314677744292
 30
0.0
 10
64.07443375081803
 20
130.4887770507644
 30
0.0
 10
64.14046116616696
 20
130.5283547971033
 30
0.0
 10
64.27350318684807
 20
130.625732239503
 30
0.0
 10
64.34097994839112
 20
130.6840662139952
 30
0.0
 10
64.47287448518411
 20
130.8141156364685
 30
0.0
 10
64.537480033528
 20
130.8858477266938
 30
0.0
 10
64.72694321283456
 20
131.1183923451406
 30
0.0
 10
64.8483428531188
 20
131.2979463877215
 30
0.0
 10
65.07400251475462
 20
131.6895875701138
 30
0.0
 10
65.177755308854
 20
131.900117086247
 30
0.0
 10
65.36908662071036
 20
132.3507775319688
 30
0.0
 10
65.45643145117486
 20
132.5906261909845
 30
0.0
 10
65.57251617716535
 20
132.9686383744511
 30
0.0
 10
65.60847193957402
 20
133.0968987239995
 30
0.0
 10
65.67383479207137
 20
133.3561339091031
 30
0.0
 10
65.70402871396578
 20
133.4904909637442
 30
0.0
 10
65.75223013305364
 20
133.747081265175
 30
0.0
 10
65.76985388836
 20
133.8693984154888
 30
0.0
 10
65.78156811817523
 20
134.0465192287417
 30
0.0
 10
65.77591613733624
 20
134.0992124894685
 30
0.0
 10
65.75036769003792
 20
134.152781386716
 30
0.0
 10
65.730944440028
 20
134.1558602739298
 30
0.0
 10
65.68398285405408
 20
134.1383467030275
 30
0.0
 10
65.6560619288177
 20
134.1171175603013
 30
0.0
 10
65.56340182050758
 20
134.0321121356913
 30
0.0
 10
65.4889078498073
 20
133.947083275878
 30
0.0
 10
65.31529235489256
 20
133.7413473059093
 30
0.0
 10
65.21832464286425
 20
133.6225981605109
 30
0.0
 10
65.00318762760793
 20
133.3556727502871
 30
0.0
 10
64.88475748434333
 20
133.2071601401625
 30
0.0
 10
64.75465403129441
 20
133.0395339730374
 30
0.0
  0
SPLINE
  5
151
330
1F
100
AcDbEntity
  8
0
  6
Continuous
 62
     7
370
    25
100
AcDbSpline
210
0.0
220
0.0
230
1.0
 70
     8
 71
     3
 72
    28
 73
    24
 74
     0
 42
0.000000001
 43
0.00000001
 40
0.0
 40
0.0
 40
0.0
 40
0.0
 40
0.0624999999999996
 40
0.0624999999999996
 40
0.1249999999999992
 40
0.1249999999999992
 40
0.1874999999999988
 40
0.1874999999999988
 40
0.2499999999999984
 40
0.2499999999999984
 40
0.3749999999999977
 40
0.3749999999999977
 40
0.499999999999997
 40
0.499999999999997
 40
0.5624999999999967
 40
0.5624999999999967
 40
0.6249999999999964
 40
0.6249999999999964
 40
0.7499999999999976
 40
0.7499999999999976
 40
0.8749999999999988
 40
0.8749999999999988
 40
1.0
 40
1.0
 40
1.0
 40
1.0
 10
59.03200295389563
 20
130.540533623181
 30
0.0
 10
58.81096356889045
 20
130.2854649548999
 30
0.0
 10
58.60602338968084
 20
130.023746182811
 30
0.0
 10
58.2357024684734
 20
129.5049403358773
 30
0.0
 10
58.06846835306863
 20
129.2458797237711
 30
0.0
 10
57.76307080847464
 20
128.7264874796703
 30
0.0
 10
57.62497076176792
 20
128.4661741089418
 30
0.0
 10
57.3741168846765
 20
127.9431155271003
 30
0.0
 10
57.26166618291248
 20
127.6807194052687
 30
0.0
 10
56.96285308152845
 20
126.9008019734319
 30
0.0
 10
56.8123939023289
 20
126.3859512274075
 30
0.0
 10
56.59161560659044
 20
125.3599285075611
 30
0.0
 10
56.5215997820367
 20
124.8488618822705
 30
0.0
 10
56.47234220115811
 20
124.0841169069587
 30
0.0
 10
56.4653440918979
 20
123.8296035021426
 30
0.0
 10
56.46945432705387
 20
123.326931200456
 30
0.0
 10
56.48050422318549
 20
123.0780504323098
 30
0.0
 10
56.5392864988838
 20
122.3389345766454
 30
0.0
 10
56.61261563996757
 20
121.8561449560379
 30
0.0
 10
56.82219605477516
 20
120.9136616172571
 30
0.0
 10
56.95851464349604
 20
120.4539921393288
 30
0.0
 10
57.28927846905826
 20
119.5633350881775
 30
0.0
 10
57.48457786238804
 20
119.1310596316961
 30
0.0
 10
57.70330967133263
 20
118.7211307486959
 30
0.0
  0
SPLINE
  5
152
330
1F
100
AcDbEntity
  8
0
  6
Continuous
 62
     7
370
    25
100
AcDbSpline
210
0.0
220
0.0
230
1.0
 70
     8
 71
     3
 72
    14
 73
    10
 74
     0
 42
0.000000001
 43
0.00000001
 40
0.0
 40
0.0
 40
0.0
 40
0.0
 40
0.1333134882780185
 40
0.2693113636393243
 40
0.4248529311401261
 40
0.5854005569901829
 40
0.7346842360128782
 40
0.8875233244139648
 40
0.9999999999999999
 40
0.9999999999999999
 40
0.9999999999999999
 40
0.9999999999999999
 10
59.03200295389562
 20
130.540533623181
 30
0.0
 10
59.44422463466184
 20
130.8639034740922
 30
0.0
 10
60.27696845078136
 20
131.517154518931
 30
0.0
 10
61.5851448550346
 20
132.5819992228887
 30
0.0
 10
62.90676478848946
 20
133.7390736107166
 30
0.0
 10
64.11560749491754
 20
134.964847948869
 30
0.0
 10
65.10152467161906
 20
136.2299797428686
 30
0.0
 10
65.80168486261329
 20
137.4066302706987
 30
0.0
 10
66.06622654461903
 20
138.1917186103826
 30
0.0
 10
66.17837505965181
 20
138.5245451456852
 30
0.0
  0
ELLIPSE
  5
153
330
1F
100
AcDbEntity
  8
0
  6
Continuous
 62
     7
370
    25
100
AcDbEllipse
 10
53.0897711353
 20
124.3109340168
 30
0.0
 11
12.05873346465699
 21
0.4167919375467477
 31
0.0
210
0.0
220
0.0
230
1.0
 40
0.5117358313
 41
5.087235539351951
 42
6.173979458728215
  0
ARC
  5
154
330
1F
100
AcDbEntity
  8
0
  6
Continuous
 62
     7
370
    25
100
AcDbCircle
 10
66.9670482145
 20
123.6641205529
 30
0.0
 40
10.5
100
AcDbArc
 50
208.083701732
 51
355.0
  0
LINE
  5
155
330
1F
100
AcDbEntity
  8
0
  6
Continuous
 62
     7
370
    25
100
AcDbLine
 10
77.5232213048
 20
123.8477420133
 30
0.0
 11
77.4270925444
 21
122.7489852541
 31
0.0
  0
INSERT
  5
161
330
1F
100
AcDbEntity
  8
VERMASSUNG
100
AcDbBlockReference
  2
SW_CENTERMARKSYMBOL_0
 10
66.9670482145
 20
123.6641205529
 30
0.0
  0
LINE
  5
162
330
1F
100
AcDbEntity
  8
0
  6
Continuous
 62
     7
370
    25
100
AcDbLine
 10
273.7939527307
 20
36.3192654744
 30
0.0
 11
273.7615504226
 21
35.872881874
 31
0.0
  0
LINE
  5
163
330
1F
100
AcDbEntity
  8
0
  6
Continuous
 62
     7
370
    25
100
AcDbLine
 10
278.985522318
 20
35.324016725
 30
0.0
 11
279.0301757954
 21
35.939175989
 31
0.0
  0
LINE
  5
164
330
1F
100
AcDbEntity
  8
0
  6
Continuous
 62
     7
370
    25
100
AcDbLine
 10
275.5381290036
 20
35.7183955013
 30
0.0
 11
275.5448466354
 21
35.8109395478
 31
0.0
  0
LINE
  5
165
330
1F
100
AcDbEntity
  8
0
  6
Continuous
 62
     7
370
    25
100
AcDbLine
 10
277.4622640437
 20
35.8653624708
 30
0.0
 11
277.4441572504
 21
35.6159180323
 31
0.0
  0
LINE
  5
166
330
1F
100
AcDbEntity
  8
0
  6
Continuous
 62
     7
370
    25
100
AcDbLine
 10
275.332048593
 20
36.0460282687
 30
0.0
 11
275.3827155915
 21
36.7440315447
 31
0.0
  0
LINE
  5
167
330
1F
100
AcDbEntity
  8
0
  6
Continuous
 62
     7
370
    25
100
AcDbLine
 10
277.3022782285
 20
36.8280077626
 30
0.0
 11
277.2192190351
 21
35.6837602083
 31
0.0
  0
LINE
  5
168
330
1F
100
AcDbEntity
  8
0
  6
Continuous
 62
     7
370
    25
100
AcDbLine
 10
269.409884521
 20
36.412011575
 30
0.0
 11
269.471201114
 21
35.5522583961
 31
0.0
  0
LINE
  5
169
330
1F
100
AcDbEntity
  8
0
  6
Continuous
 62
     7
370
    25
100
AcDbLine
 10
283.1021311487
 20
33.559930816
 30
0.0
 11
283.6995559162
 21
36.281063537
 31
0.0
  0
LINE
  5
16A
330
1F
100
AcDbEntity
  8
0
  6
Continuous
 62
     7
370
    25
100
AcDbLine
 10
246.4760791283
 20
26.2665411319
 30
0.0
 11
250.5397981022
 21
23.9206061028
 31
0.0
  0
LINE
  5
16B
330
1F
100
AcDbEntity
  8
0
  6
Continuous
 62
     7
370
    25
100
AcDbLine
 10
250.1265187136
 20
42.8093461049
 30
0.0
 11
249.9060014207
 21
42.6258798547
 31
0.0
  0
LINE
  5
16C
330
1F
100
AcDbEntity
  8
0
  6
Continuous
 62
     7
370
    25
100
AcDbLine
 10
244.5236304013
 20
33.3023295578
 30
0.0
 11
244.4750291433
 21
33.0196182932
 31
0.0
  0
LINE
  5
16D
330
1F
100
AcDbEntity
  8
0
  6
Continuous
 62
     7
370
    25
100
AcDbLine
 10
242.1867516047
 20
29.3200518349
 30
0.0
 11
245.1251476714
 21
27.6237518923
 31
0.0
  0
LINE
  5
16E
330
1F
100
AcDbEntity
  8
0
  6
Continuous
 62
     7
370
    25
100
AcDbLine
 10
255.1243349978
 20
44.9447291399
 30
0.0
 11
252.1859389311
 21
46.6410290825
 31
0.0
  0
LINE
  5
16F
330
1F
100
AcDbEntity
  8
0
  6
Continuous
 62
     7
370
    25
100
AcDbLine
 10
247.1851960205
 20
46.1452850233
 30
0.0
 11
245.7712123076
 21
45.3287442222
 31
0.0
  0
LINE
  5
170
330
1F
100
AcDbEntity
  8
0
  6
Continuous
 62
     7
370
    25
100
AcDbLine
 10
240.115277456
 20
35.5313161232
 30
0.0
 11
240.115277456
 21
33.8984998996
 31
0.0
  0
LINE
  5
171
330
1F
100
AcDbEntity
  8
0
  6
Continuous
 62
     7
370
    25
100
AcDbLine
 10
182.6406521982
 20
66.0046218471
 30
0.0
 11
240.186426555
 21
32.7841534284
 31
0.0
  0
LINE
  5
172
330
1F
100
AcDbEntity
  8
0
  6
Continuous
 62
     7
370
    25
100
AcDbLine
 10
248.1857764161
 20
46.6409352265
 30
0.0
 11
190.6400020593
 21
79.8614036452
 31
0.0
  0
LINE
  5
173
330
1F
100
AcDbEntity
  8
0
  6
Continuous
 62
     7
370
    25
100
AcDbLine
 10
186.6394077309
 20
79.4648083978
 30
0.0
 11
185.6672939283
 21
78.903436597
 31
0.0
  0
LINE
  5
174
330
1F
100
AcDbEntity
  8
0
  6
Continuous
 62
     7
370
    25
100
AcDbLine
 10
180.9834728793
 20
70.7899414526
 30
0.0
 11
180.9834728793
 21
69.6673802988
 31
0.0
  0
LINE
  5
175
330
1F
100
AcDbEntity
  8
0
  6
Continuous
 62
     7
370
    25
100
AcDbLine
 10
274.2687460717
 20
35.4480231476
 30
0.0
 11
274.4802852674
 21
35.2983330178
 31
0.0
  0
LWPOLYLINE
  5
176
330
1F
100
AcDbEntity
  8
0
  6
Continuous
 62
     7
370
    25
100
AcDbPolyline
 90
       21
 70
   128
 43
0.0
 10
276.9820920167
 20
34.7522004651
 10
277.3128521898
 20
34.7859022111
 10
277.9189289257
 20
34.9210414071
 10
278.422315325
 20
35.1385160276
 10
278.7887064366
 20
35.4235055363
 10
278.9931333116
 20
35.7565883695
 10
279.0216645964
 20
36.1150654822
 10
278.872355931
 20
36.4745072519
 10
278.5553824543
 20
36.8104183158
 10
278.0923453849
 20
37.0999068901
 10
277.5147999337
 20
37.3232448068
 10
276.862104869
 20
37.4652119561
 10
276.1787402807
 20
37.5161335112
 10
275.5112763362
 20
37.4725392524
 10
274.9051996004
 20
37.3374000563
 10
274.401813201
 20
37.1199254359
 10
274.0354220894
 20
36.8349359271
 10
273.8309952144
 20
36.501853094
 10
273.8024639296
 20
36.1433759812
 10
273.951772595
 20
35.7839342115
 10
274.2687460717
 20
35.4480231476
  0
LWPOLYLINE
  5
177
330
1F
100
AcDbEntity
  8
0
  6
Continuous
 62
     7
370
    25
100
AcDbPolyline
 90
       21
 70
   128
 43
0.0
 10
274.9593352998
 20
35.8959655081
 10
275.3505683841
 20
35.6628173294
 10
275.8473697062
 20
35.4982149981
 10
276.4011088914
 20
35.4182709374
 10
276.95758209
 20
35.430810629
 10
277.4623178282
 20
35.5346066004
 10
277.8659090552
 20
35.7194985787
 10
278.1288494498
 20
35.967388049
 10
278.2254005741
 20
36.2540098627
 10
278.1461113313
 20
36.5513074796
 10
277.898743105
 20
36.8301793377
 10
277.5075100207
 20
37.0633275165
 10
277.0107086985
 20
37.2279298477
 10
276.4569695133
 20
37.3078739084
 10
275.9004963147
 20
37.2953342169
 10
275.3957605765
 20
37.1915382455
 10
274.9921693495
 20
37.0066462671
 10
274.729228955
 20
36.7587567969
 10
274.6326778307
 20
36.4721349832
 10
274.7119670735
 20
36.1748373662
 10
274.9593352998
 20
35.8959655081
  0
LINE
  5
178
330
1F
100
AcDbEntity
  8
0
  6
Continuous
 62
     7
370
    25
100
AcDbLine
 10
278.9786722497
 20
35.2642173453
 30
0.0
 11
278.985522318
 21
35.324016725
 31
0.0
  0
ARC
  5
179
330
1F
100
AcDbEntity
  8
0
  6
Continuous
 62
     7
370
    25
100
AcDbCircle
 10
276.5735642905
 20
38.4338479838
 30
0.0
 40
2.956821958851821
100
AcDbArc
 50
254.0826109796
 51
286.0400686413
  0
LWPOLYLINE
  5
17A
330
1F
100
AcDbEntity
  8
0
  6
Continuous
 62
     7
370
    25
100
AcDbPolyline
 90
        9
 70
   128
 43
0.0
 10
277.3905623681
 20
35.5921389491
 10
277.5611361682
 20
35.6555939987
 10
277.712270527
 20
35.731197288
 10
277.8413702891
 20
35.8176506192
 10
277.9462186593
 20
35.9134694867
 10
278.0250152671
 20
36.0170085673
 10
278.076407082
 20
36.1264899728
 10
278.0995116457
 20
36.2400337783
 10
278.0939322255
 20
36.3556903026
  0
ARC
  5
17B
330
1F
100
AcDbEntity
  8
0
  6
Continuous
 62
     7
370
    25
100
AcDbCircle
 10
276.958301795
 20
35.914117144
 30
0.0
 40
1.218459408101857
100
AcDbArc
 50
21.247836617
 51
80.1502818725
  0
LINE
  5
17C
330
1F
100
AcDbEntity
  8
0
  6
Continuous
 62
     7
370
    25
100
AcDbLine
 10
277.0897121018
 20
37.1373502579
 30
0.0
 11
277.1667369661
 21
37.1146162521
 31
0.0
  0
ARC
  5
17D
330
1F
100
AcDbEntity
  8
0
  6
Continuous
 62
     7
370
    25
100
AcDbCircle
 10
276.2820874449
 20
34.2672866876
 30
0.0
 40
2.981530225252692
100
AcDbArc
 50
74.2836058796
 51
104.9199301977
  0
LINE
  5
17E
330
1F
100
AcDbEntity
  8
0
  6
Continuous
 62
     7
370
    25
100
AcDbLine
 10
275.4167404562
 20
37.1171059822
 30
0.0
 11
275.5144360505
 21
37.1482993257
 31
0.0
  0
ARC
  5
17F
330
1F
100
AcDbEntity
  8
0
  6
Continuous
 62
     7
370
    25
100
AcDbCircle
 10
275.5440238222
 20
36.3405051532
 30
0.0
 40
0.7869624532598541
100
AcDbArc
 50
99.3079108315
 51
175.3906552729
  0
LINE
  5
180
330
1F
100
AcDbEntity
  8
0
  6
Continuous
 62
     7
370
    25
100
AcDbLine
 10
274.7702561395
 20
36.3404461426
 30
0.0
 11
274.7596065747
 21
36.4037466318
 31
0.0
  0
ARC
  5
181
330
1F
100
AcDbEntity
  8
0
  6
Continuous
 62
     7
370
    25
100
AcDbCircle
 10
275.9177182081
 20
36.8451999141
 30
0.0
 40
1.253573120576933
100
AcDbArc
 50
203.7440751929
 51
259.3366924672
  0
LINE
  5
182
330
1F
100
AcDbEntity
  8
0
  6
Continuous
 62
     7
370
    25
100
AcDbLine
 10
275.7626526442
 20
35.5903961382
 30
0.0
 11
275.6857604127
 21
35.613274125
 31
0.0
  0
SPLINE
  5
183
330
1F
100
AcDbEntity
  8
0
  6
Continuous
 62
     7
370
    25
100
AcDbSpline
210
0.0
220
0.0
230
1.0
 70
     8
 71
     3
 72
    12
 73
     8
 74
     0
 42
0.000000001
 43
0.00000001
 40
0.0
 40
0.0
 40
0.0
 40
0.0
 40
0.2058585741213722
 40
0.4121026961457381
 40
0.6141937841966579
 40
0.8133180967416339
 40
1.0
 40
1.0
 40
1.0
 40
1.0
 10
276.1248835122448
 20
35.59756071871004
 30
0.0
 10
276.1694304766261
 20
35.61184944061797
 30
0.0
 10
276.2586078363985
 20
35.64045364546038
 30
0.0
 10
276.4436958494805
 20
35.65740549109599
 30
0.0
 10
276.6392593985997
 20
35.65511491513539
 30
0.0
 10
276.8262870921914
 20
35.63472785749716
 30
0.0
 10
276.9257596410894
 20
35.60673201033013
 30
0.0
 10
276.9738919002122
 20
35.5931855255448
 30
0.0
  0
SPLINE
  5
184
330
1F
100
AcDbEntity
  8
0
  6
Continuous
 62
     7
370
    25
100
AcDbSpline
210
0.0
220
0.0
230
1.0
 70
     8
 71
     3
 72
    11
 73
     7
 74
     0
 42
0.000000001
 43
0.00000001
 40
0.0
 40
0.0
 40
0.0
 40
0.0
 40
0.2524782265335688
 40
0.5068902417933574
 40
0.7591786113117045
 40
1.0
 40
1.0
 40
1.0
 40
1.0
 10
276.9738919002122
 20
35.5931855255448
 30
0.0
 10
277.0046798426478
 20
35.58474297376696
 30
0.0
 10
277.0664915394414
 20
35.56779320676812
 30
0.0
 10
277.1804154160169
 20
35.56022755900073
 30
0.0
 10
277.2944314702088
 20
35.56706595182637
 30
0.0
 10
277.3590193869387
 20
35.58391186400393
 30
0.0
 10
277.3905623680712
 20
35.59213894914431
 30
0.0
  0
SPLINE
  5
185
330
1F
100
AcDbEntity
  8
0
  6
Continuous
 62
     7
370
    25
100
AcDbSpline
210
0.0
220
0.0
230
1.0
 70
     8
 71
     3
 72
    11
 73
     7
 74
     0
 42
0.000000001
 43
0.00000001
 40
0.0
 40
0.0
 40
0.0
 40
0.0
 40
0.242361123774505
 40
0.516684792845644
 40
0.7923341374632386
 40
1.0
 40
1.0
 40
1.0
 40
1.0
 10
275.762652644227
 20
35.59039613819201
 30
0.0
 10
275.7948746942324
 20
35.58402047679744
 30
0.0
 10
275.8635682329189
 20
35.57042833282816
 30
0.0
 10
275.971013841832
 20
35.56702829253713
 30
0.0
 10
276.0631371652391
 20
35.57666557258346
 30
0.0
 10
276.1063264070332
 20
35.59128093951847
 30
0.0
 10
276.1248835122448
 20
35.59756071871004
 30
0.0
  0
SPLINE
  5
186
330
1F
100
AcDbEntity
  8
0
  6
Continuous
 62
     7
370
    25
100
AcDbSpline
210
0.0
220
0.0
230
1.0
 70
     8
 71
     3
 72
    11
 73
     7
 74
     0
 42
0.000000001
 43
0.00000001
 40
0.0
 40
0.0
 40
0.0
 40
0.0
 40
0.1666531523519442
 40
0.4920547769420914
 40
0.8147399207715562
 40
1.0
 40
1.0
 40
1.0
 40
1.0
 10
275.5328227100956
 20
35.75084481263438
 30
0.0
 10
275.5313918525169
 20
35.7432198400121
 30
0.0
 10
275.5271671481127
 20
35.72070658928809
 30
0.0
 10
275.5616894547665
 20
35.67914662544511
 30
0.0
 10
275.6195217837991
 20
35.63979875790221
 30
0.0
 10
275.6680580472012
 20
35.620362869963
 30
0.0
 10
275.6857604127225
 20
35.61327412500381
 30
0.0
  0
SPLINE
  5
187
330
1F
100
AcDbEntity
  8
0
  6
Continuous
 62
     7
370
    25
100
AcDbSpline
210
0.0
220
0.0
230
1.0
 70
     8
 71
     3
 72
    11
 73
     7
 74
     0
 42
0.000000001
 43
0.00000001
 40
0.0
 40
0.0
 40
0.0
 40
0.0
 40
0.2657596322626505
 40
0.5530029385955909
 40
0.8418208483438142
 40
1.0
 40
1.0
 40
1.0
 40
1.0
 10
274.7702561395408
 20
36.34044614262925
 30
0.0
 10
274.7823773527551
 20
36.32157221475867
 30
0.0
 10
274.8075996427988
 20
36.28229861445148
 30
0.0
 10
274.8841318809719
 20
36.22730182145558
 30
0.0
 10
274.9677246017527
 20
36.18802595073353
 30
0.0
 10
275.023498058686
 20
36.17166730252697
 30
0.0
 10
275.0432346495149
 20
36.16587845665082
 30
0.0
  0
SPLINE
  5
188
330
1F
100
AcDbEntity
  8
0
  6
Continuous
 62
     7
370
    25
100
AcDbSpline
210
0.0
220
0.0
230
1.0
 70
     8
 71
     3
 72
    11
 73
     7
 74
     0
 42
0.000000001
 43
0.00000001
 40
0.0
 40
0.0
 40
0.0
 40
0.0
 40
0.2530428402387006
 40
0.50664330736371
 40
0.7551431730163475
 40
1.0
 40
1.0
 40
1.0
 40
1.0
 10
275.0432346495149
 20
36.16587845665082
 30
0.0
 10
275.1063019645132
 20
36.14611614871883
 30
0.0
 10
275.2325755750496
 20
36.10654798293966
 30
0.0
 10
275.3893722104982
 20
36.02022804167772
 30
0.0
 10
275.5032166050074
 20
35.92895925490653
 30
0.0
 10
275.5288666872106
 20
35.8722799297621
 30
0.0
 10
275.541597025795
 20
35.84414953259192
 30
0.0
  0
LINE
  5
189
330
1F
100
AcDbEntity
  8
0
  6
Continuous
 62
     7
370
    25
100
AcDbLine
 10
275.5381928274
 20
35.811467113
 30
0.0
 11
275.53416386
 21
35.7727865227
 31
0.0
  0
SPLINE
  5
18A
330
1F
100
AcDbEntity
  8
0
  6
Continuous
 62
     7
370
    25
100
AcDbSpline
210
0.0
220
0.0
230
1.0
 70
     8
 71
     3
 72
    12
 73
     8
 74
     0
 42
0.000000001
 43
0.00000001
 40
0.0
 40
0.0
 40
0.0
 40
0.0
 40
0.0091681771491208
 40
0.2573268097002563
 40
0.5054934687430122
 40
0.7549925359450707
 40
1.0
 40
1.0
 40
1.0
 40
1.0
 10
277.3905623680712
 20
35.59213894914431
 30
0.0
 10
277.391679946259
 20
35.59249704134676
 30
0.0
 10
277.4230474498521
 20
35.60254775508542
 30
0.0
 10
277.4772309379446
 20
35.627064184952
 30
0.0
 10
277.5248529472682
 20
35.6714547743814
 30
0.0
 10
277.5383842180006
 20
35.7194544066541
 30
0.0
 10
277.5167584720426
 20
35.7483221525747
 30
0.0
 10
277.5060438123959
 20
35.76262492265745
 30
0.0
  0
ARC
  5
18B
330
1F
100
AcDbEntity
  8
0
  6
Continuous
 62
     7
370
    25
100
AcDbCircle
 10
275.5374421744
 20
35.3803687534
 30
0.0
 40
0.589544980836704
100
AcDbArc
 50
64.5289112172
 51
98.5095430882
  0
ARC
  5
18C
330
1F
100
AcDbEntity
  8
0
  6
Continuous
 62
     7
370
    25
100
AcDbCircle
 10
276.2196952997
 20
36.7635820194
 30
0.0
 40
0.9528632865793953
100
AcDbArc
 50
243.2611958729
 51
296.1739655894
  0
ARC
  5
18D
330
1F
100
AcDbEntity
  8
0
  6
Continuous
 62
     7
370
    25
100
AcDbCircle
 10
276.8780989842
 20
35.5242718724
 30
0.0
 40
0.4519569787501782
100
AcDbArc
 50
39.1933009166
 51
121.7904756389
  0
ARC
  5
18E
330
1F
100
AcDbEntity
  8
0
  6
Continuous
 62
     7
370
    25
100
AcDbCircle
 10
277.404266569
 20
35.6735136794
 30
0.0
 40
0.1853310042254638
100
AcDbArc
 50
176.8306308457
 51
215.1901875335
  0
SPLINE
  5
18F
330
1F
100
AcDbEntity
  8
0
  6
Continuous
 62
     7
370
    25
100
AcDbSpline
210
0.0
220
0.0
230
1.0
 70
     8
 71
     3
 72
    12
 73
     8
 74
     0
 42
0.000000001
 43
0.00000001
 40
0.0
 40
0.0
 40
0.0
 40
0.0
 40
0.2058435564095031
 40
0.4120691620554134
 40
0.6141397217727375
 40
0.8132604579561133
 40
1.0
 40
1.0
 40
1.0
 40
1.0
 10
277.5060438123959
 20
35.76262492265744
 30
0.0
 10
277.48698157242
 20
35.78837645466938
 30
0.0
 10
277.4488217126178
 20
35.8399273139865
 30
0.0
 10
277.4749402001701
 20
35.93009175743299
 30
0.0
 10
277.5611655291569
 20
36.0192548078598
 30
0.0
 10
277.6957281544987
 20
36.0988637904313
 30
0.0
 10
277.809205114295
 20
36.13422748826145
 30
0.0
 10
277.8641230125618
 20
36.15134197531909
 30
0.0
  0
SPLINE
  5
190
330
1F
100
AcDbEntity
  8
0
  6
Continuous
 62
     7
370
    25
100
AcDbSpline
210
0.0
220
0.0
230
1.0
 70
     8
 71
     3
 72
    11
 73
     7
 74
     0
 42
0.000000001
 43
0.00000001
 40
0.0
 40
0.0
 40
0.0
 40
0.0
 40
0.280367701270032
 40
0.5613439276939005
 40
0.8399747666501978
 40
1.0
 40
1.0
 40
1.0
 40
1.0
 10
277.8641230125618
 20
36.15134197531909
 30
0.0
 10
277.8991022438042
 20
36.16248288904875
 30
0.0
 10
277.9691366270956
 20
36.18478889734708
 30
0.0
 10
278.0457017318352
 20
36.23704259641549
 30
0.0
 10
278.0891939390094
 20
36.28856720490086
 30
0.0
 10
278.090394332833
 20
36.32072432064627
 30
0.0
 10
278.0908322460728
 20
36.33245549291516
 30
0.0
  0
SPLINE
  5
191
330
1F
100
AcDbEntity
  8
0
  6
Continuous
 62
     7
370
    25
100
AcDbSpline
210
0.0
220
0.0
230
1.0
 70
     8
 71
     3
 72
    11
 73
     7
 74
     0
 42
0.000000001
 43
0.00000001
 40
0.0
 40
0.0
 40
0.0
 40
0.0
 40
0.2928993220618905
 40
0.5864344719078811
 40
0.877517886803334
 40
0.9999999999999999
 40
0.9999999999999999
 40
0.9999999999999999
 40
0.9999999999999999
 10
274.9846669094434
 20
36.51054365822736
 30
0.0
 10
274.9504545333587
 20
36.5090990753357
 30
0.0
 10
274.8819555127371
 20
36.50620677364227
 30
0.0
 10
274.8059924635297
 20
36.47504609289722
 30
0.0
 10
274.7687199659682
 20
36.43765462079753
 30
0.0
 10
274.761688903445
 20
36.41149430535944
 30
0.0
 10
274.7596065746788
 20
36.40374663177666
 30
0.0
  0
SPLINE
  5
192
330
1F
100
AcDbEntity
  8
0
  6
Continuous
 62
     7
370
    25
100
AcDbSpline
210
0.0
220
0.0
230
1.0
 70
     8
 71
     3
 72
    11
 73
     7
 74
     0
 42
0.000000001
 43
0.00000001
 40
0.0
 40
0.0
 40
0.0
 40
0.0
 40
0.2669010467949465
 40
0.5546143410791629
 40
0.8439070439784235
 40
1.0
 40
1.0
 40
1.0
 40
1.0
 10
275.4167404561665
 20
37.11710598215991
 30
0.0
 10
275.3946136071747
 20
37.10295690716017
 30
0.0
 10
275.3486345152185
 20
37.07355544919631
 30
0.0
 10
275.3172545303199
 20
37.01008180874712
 30
0.0
 10
275.3185525180396
 20
36.94912973448967
 30
0.0
 10
275.3364675003103
 20
36.91220248988885
 30
0.0
 10
275.3427461096093
 20
36.89926071088895
 30
0.0
  0
SPLINE
  5
193
330
1F
100
AcDbEntity
  8
0
  6
Continuous
 62
     7
370
    25
100
AcDbSpline
210
0.0
220
0.0
230
1.0
 70
     8
 71
     3
 72
    12
 73
     8
 74
     0
 42
0.000000001
 43
0.00000001
 40
0.0
 40
0.0
 40
0.0
 40
0.0
 40
0.2058401281337412
 40
0.4120619935509401
 40
0.614138733096979
 40
0.8132772113524441
 40
1.0
 40
1.0
 40
1.0
 40
1.0
 10
275.3427461096093
 20
36.89926071088895
 30
0.0
 10
275.3606045917439
 20
36.85692819943899
 30
0.0
 10
275.3963546751554
 20
36.77218466950513
 30
0.0
 10
275.3683021441883
 20
36.6553607470397
 30
0.0
 10
275.2822194205303
 20
36.56816704567962
 30
0.0
 10
275.1496973532671
 20
36.51671790147476
 30
0.0
 10
275.0384842387662
 20
36.51255711268136
 30
0.0
 10
274.9846669094434
 20
36.51054365822736
 30
0.0
  0
SPLINE
  5
194
330
1F
100
AcDbEntity
  8
0
  6
Continuous
 62
     7
370
    25
100
AcDbSpline
210
0.0
220
0.0
230
1.0
 70
     8
 71
     3
 72
    12
 73
     8
 74
     0
 42
0.000000001
 43
0.00000001
 40
0.0
 40
0.0
 40
0.0
 40
0.0
 40
0.0091735205190355
 40
0.2576775215525217
 40
0.5061895192299483
 40
0.7560357430218244
 40
1.0
 40
1.0
 40
1.0
 40
1.0
 10
278.0939322255397
 20
36.35569030258677
 30
0.0
 10
278.0938022454624
 20
36.35641434279882
 30
0.0
 10
278.0901511995982
 20
36.37675210592468
 30
0.0
 10
278.0693395602405
 20
36.41545080113766
 30
0.0
 10
278.0044049113073
 20
36.46077897086012
 30
0.0
 10
277.9133774974827
 20
36.49101377613958
 30
0.0
 10
277.8412094855734
 20
36.49435614254063
 30
0.0
 10
277.8055552901103
 20
36.49600741963445
 30
0.0
  0
SPLINE
  5
195
330
1F
100
AcDbEntity
  8
0
  6
Continuous
 62
     7
370
    25
100
AcDbSpline
210
0.0
220
0.0
230
1.0
 70
     8
 71
     3
 72
    12
 73
     8
 74
     0
 42
0.000000001
 43
0.00000001
 40
0.0
 40
0.0
 40
0.0
 40
0.0
 40
0.2289250702702882
 40
0.4583551041961521
 40
0.6831654520807318
 40
0.9047168963597918
 40
1.0
 40
1.0
 40
1.0
 40
1.0
 10
277.8055552901103
 20
36.49600741963445
 30
0.0
 10
277.7414054477899
 20
36.49918002149752
 30
0.0
 10
277.6129642612207
 20
36.50553222335904
 30
0.0
 10
277.4525750243371
 20
36.56534549991938
 30
0.0
 10
277.3450702303305
 20
36.65790894432074
 30
0.0
 10
277.297173357936
 20
36.75191049834545
 30
0.0
 10
277.3062202373198
 20
36.81000791541391
 30
0.0
 10
277.3089409467614
 20
36.82747981754111
 30
0.0
  0
LINE
  5
196
330
1F
100
AcDbEntity
  8
0
  6
Continuous
 62
     7
370
    25
100
AcDbLine
 10
277.3146261023
 20
36.8890996655
 30
0.0
 11
277.3169459684
 21
36.9245344192
 31
0.0
  0
SPLINE
  5
197
330
1F
100
AcDbEntity
  8
0
  6
Continuous
 62
     7
370
    25
100
AcDbSpline
210
0.0
220
0.0
230
1.0
 70
     8
 71
     3
 72
    10
 73
     6
 74
     0
 42
0.000000001
 43
0.00000001
 40
0.0
 40
0.0
 40
0.0
 40
0.0
 40
0.3888701151462716
 40
0.7744923421638507
 40
1.0
 40
1.0
 40
1.0
 40
1.0
 10
277.3193962448484
 20
36.96196112471097
 30
0.0
 10
277.3108104258488
 20
36.98570257206472
 30
0.0
 10
277.2937104976019
 20
37.03298717546102
 30
0.0
 10
277.233120483734
 20
37.08427173803894
 30
0.0
 10
277.184630009139
 20
37.10643717821176
 30
0.0
 10
277.1667369660653
 20
37.11461625212414
 30
0.0
  0
SPLINE
  5
198
330
1F
100
AcDbEntity
  8
0
  6
Continuous
 62
     7
370
    25
100
AcDbSpline
210
0.0
220
0.0
230
1.0
 70
     8
 71
     3
 72
    11
 73
     7
 74
     0
 42
0.000000001
 43
0.00000001
 40
0.0
 40
0.0
 40
0.0
 40
0.0
 40
0.2431090893442996
 40
0.5182793655622744
 40
0.7947794085751866
 40
1.0
 40
1.0
 40
1.0
 40
1.0
 10
277.089712101831
 20
37.13735025792887
 30
0.0
 10
277.0573412323192
 20
37.14198175754682
 30
0.0
 10
276.9883304283277
 20
37.15185555819355
 30
0.0
 10
276.8798345324054
 20
37.13963878075607
 30
0.0
 10
276.7867633497514
 20
37.1090322374268
 30
0.0
 10
276.7426846651719
 20
37.07768141461496
 30
0.0
 10
276.7239064500158
 20
37.06432546940698
 30
0.0
  0
SPLINE
  5
199
330
1F
100
AcDbEntity
  8
0
  6
Continuous
 62
     7
370
    25
100
AcDbSpline
210
0.0
220
0.0
230
1.0
 70
     8
 71
     3
 72
    12
 73
     8
 74
     0
 42
0.000000001
 43
0.00000001
 40
0.0
 40
0.0
 40
0.0
 40
0.0
 40
0.2058179564998852
 40
0.412021504590688
 40
0.6140779969168245
 40
0.8132130006452699
 40
0.9999999999999999
 40
0.9999999999999999
 40
0.9999999999999999
 40
0.9999999999999999
 10
276.7239064500158
 20
37.06432546940698
 30
0.0
 10
276.6781635424739
 20
37.03345875177941
 30
0.0
 10
276.5865920299086
 20
36.97166748898115
 30
0.0
 10
276.3996016939143
 20
36.9280524804382
 30
0.0
 10
276.204207105982
 20
36.93230080938867
 30
0.0
 10
276.019198573476
 20
36.98083512660085
 30
0.0
 10
275.9219611441454
 20
37.04004342113957
 30
0.0
 10
275.874898039413
 20
37.06870035074046
 30
0.0
  0
SPLINE
  5
19A
330
1F
100
AcDbEntity
  8
0
  6
Continuous
 62
     7
370
    25
100
AcDbSpline
210
0.0
220
0.0
230
1.0
 70
     8
 71
     3
 72
    11
 73
     7
 74
     0
 42
0.000000001
 43
0.00000001
 40
0.0
 40
0.0
 40
0.0
 40
0.0
 40
0.290864166607659
 40
0.5839560789892466
 40
0.874598805361717
 40
0.9999999999999999
 40
0.9999999999999999
 40
0.9999999999999999
 40
0.9999999999999999
 10
275.874898039413
 20
37.06870035074044
 30
0.0
 10
275.8448181164646
 20
37.08678358666205
 30
0.0
 10
275.7844278866676
 20
37.12308855907368
 30
0.0
 10
275.6718868834141
 20
37.15182985839981
 30
0.0
 10
275.5792409250452
 20
37.1571048922962
 30
0.0
 10
275.5294451593897
 20
37.15033873568533
 30
0.0
 10
275.5144360505294
 20
37.14829932571138
 30
0.0
  0
LINE
  5
19B
330
1F
100
AcDbEntity
  8
0
  6
Continuous
 62
     7
370
    25
100
AcDbLine
 10
277.0478256985
 20
33.1574583797
 30
0.0
 11
276.8336875476
 21
33.193020412
 31
0.0
  0
LINE
  5
19C
330
1F
100
AcDbEntity
  8
0
  6
Continuous
 62
     7
370
    25
100
AcDbLine
 10
269.5804699984
 20
36.238473703
 30
0.0
 11
276.8336875476
 21
33.193020412
 31
0.0
  0
LINE
  5
19D
330
1F
100
AcDbEntity
  8
0
  6
Continuous
 62
     7
370
    25
100
AcDbLine
 10
269.7946081493
 20
36.2029116706
 30
0.0
 11
269.5804699984
 21
36.238473703
 31
0.0
  0
LINE
  5
19E
330
1F
100
AcDbEntity
  8
0
  6
Continuous
 62
     7
370
    25
100
AcDbLine
 10
270.2370643216
 20
36.0569214406
 30
0.0
 11
269.7946081493
 21
36.2029116706
 31
0.0
  0
LINE
  5
19F
330
1F
100
AcDbEntity
  8
0
  6
Continuous
 62
     7
370
    25
100
AcDbLine
 10
270.2370643216
 20
36.0569214406
 30
0.0
 11
270.3293489965
 21
36.0181733037
 31
0.0
  0
LINE
  5
1A0
330
1F
100
AcDbEntity
  8
0
  6
Continuous
 62
     7
370
    25
100
AcDbLine
 10
277.0251380098
 20
33.1873168606
 30
0.0
 11
277.0478256985
 21
33.1574583797
 31
0.0
  0
LINE
  5
1A1
330
1F
100
AcDbEntity
  8
0
  6
Continuous
 62
     7
370
    25
100
AcDbLine
 10
276.8612889015
 20
30.5876733246
 30
0.0
 11
276.8362378096
 21
32.9522960709
 31
0.0
  0
LINE
  5
1A2
330
1F
100
AcDbEntity
  8
0
  6
Continuous
 62
     7
370
    25
100
AcDbLine
 10
276.8353820577
 20
33.0330722129
 30
0.0
 11
276.8336875476
 21
33.193020412
 31
0.0
  0
LINE
  5
1A3
330
1F
100
AcDbEntity
  8
0
  6
Continuous
 62
     7
370
    25
100
AcDbLine
 10
276.8072458519
 20
30.0432738645
 30
0.0
 11
276.8612889015
 21
30.5876733246
 31
0.0
  0
LINE
  5
1A4
330
1F
100
AcDbEntity
  8
0
  6
Continuous
 62
     7
370
    25
100
AcDbLine
 10
276.3751031501
 20
30.2247202921
 30
0.0
 11
276.8072458519
 21
30.0432738645
 31
0.0
  0
LINE
  5
1A5
330
1F
100
AcDbEntity
  8
0
  6
Continuous
 62
     7
370
    25
100
AcDbLine
 10
269.5882022268
 20
35.5086131781
 30
0.0
 11
269.5804699984
 21
36.238473703
 31
0.0
  0
LINE
  5
1A6
330
1F
100
AcDbEntity
  8
0
  6
Continuous
 62
     7
370
    25
100
AcDbLine
 10
277.0478256985
 20
33.1574583797
 30
0.0
 11
277.3449008842
 21
33.1902474387
 31
0.0
  0
ARC
  5
1A7
330
1F
100
AcDbEntity
  8
0
  6
Continuous
 62
     7
370
    25
100
AcDbCircle
 10
277.0926854361
 20
33.816824597
 30
0.0
 40
0.6754343547335101
100
AcDbArc
 50
247.4522145297
 51
291.9262128518
  0
LINE
  5
1A8
330
1F
100
AcDbEntity
  8
0
  6
Continuous
 62
     7
370
    25
100
AcDbLine
 10
276.8612889015
 20
30.5876733246
 30
0.0
 11
277.3449008842
 21
33.1902474387
 31
0.0
  0
SPLINE
  5
1A9
330
1F
100
AcDbEntity
  8
0
  6
Continuous
 62
     7
370
    25
100
AcDbSpline
210
0.0
220
0.0
230
1.0
 70
     8
 71
     3
 72
    11
 73
     7
 74
     0
 42
0.000000001
 43
0.00000001
 40
0.0
 40
0.0
 40
0.0
 40
0.0
 40
0.3360297136122731
 40
0.6712269697200064
 40
0.9920227009419812
 40
1.0
 40
1.0
 40
1.0
 40
1.0
 10
277.025138009823
 20
33.18731686059741
 30
0.0
 10
277.01673560517
 20
33.20691319701793
 30
0.0
 10
276.9999516114186
 20
33.24605732320773
 30
0.0
 10
276.9800608157852
 20
33.39624227376075
 30
0.0
 10
276.9704461446941
 20
33.52518213057395
 30
0.0
 10
276.9667995090388
 20
33.59446008009873
 30
0.0
 10
276.966711027623
 20
33.59614102978313
 30
0.0
  0
LINE
  5
1AA
330
1F
100
AcDbEntity
  8
0
  6
Continuous
 62
     7
370
    25
100
AcDbLine
 10
282.8253739865
 20
35.9886386996
 30
0.0
 11
283.2886679457
 21
36.129715871
 31
0.0
  0
LINE
  5
1AB
330
1F
100
AcDbEntity
  8
0
  6
Continuous
 62
     7
370
    25
100
AcDbLine
 10
283.2886679457
 20
36.129715871
 30
0.0
 11
283.5857431314
 21
36.1625049301
 31
0.0
  0
LINE
  5
1AC
330
1F
100
AcDbEntity
  8
0
  6
Continuous
 62
     7
370
    25
100
AcDbLine
 10
277.3449008842
 20
33.1902474387
 30
0.0
 11
283.5857431314
 21
36.1625049301
 31
0.0
  0
LINE
  5
1AD
330
1F
100
AcDbEntity
  8
0
  6
Continuous
 62
     7
370
    25
100
AcDbLine
 10
282.74597004
 20
35.9508218529
 30
0.0
 11
282.8253739865
 21
35.9886386996
 31
0.0
  0
LINE
  5
1AE
330
1F
100
AcDbEntity
  8
0
  6
Continuous
 62
     7
370
    25
100
AcDbLine
 10
283.1021311487
 20
33.559930816
 30
0.0
 11
283.5857431314
 21
36.1625049301
 31
0.0
  0
LINE
  5
1AF
330
1F
100
AcDbEntity
  8
0
  6
Continuous
 62
     7
370
    25
100
AcDbLine
 10
282.9229784076
 20
32.9559467352
 30
0.0
 11
283.1021311487
 21
33.559930816
 31
0.0
  0
LINE
  5
1B0
330
1F
100
AcDbEntity
  8
0
  6
Continuous
 62
     7
370
    25
100
AcDbLine
 10
276.8072458519
 20
30.0432738645
 30
0.0
 11
282.9229784076
 21
32.9559467352
 31
0.0
  0
LINE
  5
1B1
330
1F
100
AcDbEntity
  8
0
  6
Continuous
 62
     7
370
    25
100
AcDbLine
 10
281.0899521787
 20
36.742158741
 30
0.0
 11
276.8294662257
 21
38.5310353158
 31
0.0
  0
LWPOLYLINE
  5
1B2
330
1F
100
AcDbEntity
  8
0
  6
Continuous
 62
     7
370
    25
100
AcDbPolyline
 90
        9
 70
   128
 43
0.0
 10
281.2261323997
 20
35.9326830626
 10
281.3618346784
 20
36.0149712633
 10
281.4575810772
 20
36.1127104782
 10
281.5088324521
 20
36.221267088
 10
281.5131590788
 20
36.3354946426
 10
281.4703558406
 20
36.4499778435
 10
281.3824519527
 20
36.5592892729
 10
281.2536147615
 20
36.6582466961
 10
281.0899521787
 20
36.742158741
  0
LINE
  5
1B3
330
1F
100
AcDbEntity
  8
0
  6
Continuous
 62
     7
370
    25
100
AcDbLine
 10
277.5603081571
 20
34.1868011551
 30
0.0
 11
281.2261323997
 21
35.9326830626
 31
0.0
  0
ARC
  5
1B4
330
1F
100
AcDbEntity
  8
0
  6
Continuous
 62
     7
370
    25
100
AcDbCircle
 10
276.9297695374
 20
35.753244054
 30
0.0
 40
1.688585889564352
100
AcDbArc
 50
247.4522145518
 51
291.9262127972
  0
LINE
  5
1B5
330
1F
100
AcDbEntity
  8
0
  6
Continuous
 62
     7
370
    25
100
AcDbLine
 10
272.0217888627
 20
35.9826101635
 30
0.0
 11
276.2822748157
 21
34.1937335886
 31
0.0
  0
LWPOLYLINE
  5
1B6
330
1F
100
AcDbEntity
  8
0
  6
Continuous
 62
     7
370
    25
100
AcDbPolyline
 90
        9
 70
   128
 43
0.0
 10
271.8856086415
 20
36.7920858418
 10
271.7499063628
 20
36.7097976411
 10
271.654159964
 20
36.6120584262
 10
271.602908589
 20
36.5035018163
 10
271.5985819623
 20
36.3892742618
 10
271.6413852005
 20
36.2747910608
 10
271.7292890884
 20
36.1654796314
 10
271.8581262797
 20
36.0665222082
 10
272.0217888627
 20
35.9826101635
  0
LINE
  5
1B7
330
1F
100
AcDbEntity
  8
0
  6
Continuous
 62
     7
370
    25
100
AcDbLine
 10
275.5514328844
 20
38.5379677493
 30
0.0
 11
271.8856086415
 21
36.7920858418
 31
0.0
  0
ARC
  5
1B8
330
1F
100
AcDbEntity
  8
0
  6
Continuous
 62
     7
370
    25
100
AcDbCircle
 10
276.181971504
 20
36.9715248504
 30
0.0
 40
1.688585889564421
100
AcDbArc
 50
67.4522145518
 51
111.9262127972
  0
LWPOLYLINE
  5
1B9
330
1F
100
AcDbEntity
  8
0
  6
Continuous
 62
     7
370
    25
100
AcDbPolyline
 90
       27
 70
   128
 43
0.0
 10
274.3991948381
 20
37.6074068226
 10
273.9477016565
 20
37.326354316
 10
273.6477857689
 20
36.9892793847
 10
273.5168771967
 20
36.6157715987
 10
273.5625838702
 20
36.2275378727
 10
273.7822494837
 20
35.8471409397
 10
274.1631078701
 20
35.4966880869
 10
274.6830249244
 20
35.1965463601
 10
275.3117849573
 20
34.9641589056
 10
276.0128467211
 20
34.8130312375
 10
276.7454670543
 20
34.7519463466
 10
277.4670687261
 20
34.7844542646
 10
278.1357148702
 20
34.9086657496
 10
278.7125462033
 20
35.1173620815
 10
279.1640393849
 20
35.3984145882
 10
279.4639552724
 20
35.7354895194
 10
279.5948638447
 20
36.1089973055
 10
279.5491571712
 20
36.4972310315
 10
279.3294915577
 20
36.8776279644
 10
278.9486331713
 20
37.2280808173
 10
278.428716117
 20
37.528222544
 10
277.7999560841
 20
37.7606099986
 10
277.0988943203
 20
37.9117376667
 10
276.3662739871
 20
37.9728225576
 10
275.6446723153
 20
37.9403146396
 10
274.9760261712
 20
37.8161031545
 10
274.3991948381
 20
37.6074068226
  0
LINE
  5
1BA
330
1F
100
AcDbEntity
  8
0
  6
Continuous
 62
     7
370
    25
100
AcDbLine
 10
273.7906624493
 20
36.2739376037
 30
0.0
 11
273.6241740617
 21
36.0844382793
 31
0.0
  0
LWPOLYLINE
  5
1BB
330
1F
100
AcDbEntity
  8
0
  6
Continuous
 62
     7
370
    25
100
AcDbPolyline
 90
        3
 70
   128
 43
0.0
 10
279.4166943005
 20
35.6639680264
 10
279.2586188785
 20
35.901265366
 10
279.0162475509
 20
36.1439131455
  0
SPLINE
  5
1BC
330
1F
100
AcDbEntity
  8
0
  6
Continuous
 62
     7
370
    25
100
AcDbSpline
210
0.0
220
0.0
230
1.0
 70
     8
 71
     3
 72
     9
 73
     5
 74
     0
 42
0.000000001
 43
0.00000001
 40
0.0
 40
0.0
 40
0.0
 40
0.0
 40
0.0433040437556707
 40
1.0
 40
1.0
 40
1.0
 40
1.0
 10
270.9829067925425
 20
36.09941763638339
 30
0.0
 10
270.9813085066901
 20
36.0986675554602
 30
0.0
 10
270.9444000400949
 20
36.08134628801846
 30
0.0
 10
270.9058039760966
 20
36.06711208888208
 30
0.0
 10
270.8688792777425
 20
36.05349428812792
 30
0.0
  0
SPLINE
  5
1BD
330
1F
100
AcDbEntity
  8
0
  6
Continuous
 62
     7
370
    25
100
AcDbSpline
210
0.0
220
0.0
230
1.0
 70
     8
 71
     3
 72
    14
 73
    10
 74
     0
 42
0.000000001
 43
0.00000001
 40
0.0
 40
0.0
 40
0.0
 40
0.0
 40
0.3240421732223234
 40
0.4390834530314647
 40
0.5550339035678655
 40
0.6320175773806271
 40
0.7091777148392593
 40
0.8120429782633778
 40
1.0
 40
1.0
 40
1.0
 40
1.0
 10
270.3293489964986
 20
36.01817330367819
 30
0.0
 10
270.3962670058931
 20
35.99223801892103
 30
0.0
 10
270.4869422113541
 20
35.95709520317797
 30
0.0
 10
270.617662738402
 20
35.93163915938483
 30
0.0
 10
270.6938067817325
 20
35.9265833032427
 30
0.0
 10
270.7568000270001
 20
35.93501766767906
 30
0.0
 10
270.8051283695635
 20
35.95424512694802
 30
0.0
 10
270.8496245550913
 20
35.99373236882985
 30
0.0
 10
270.8613203455336
 20
36.03003322328507
 30
0.0
 10
270.8688792777425
 20
36.05349428812792
 30
0.0
  0
LWPOLYLINE
  5
1BE
330
1F
100
AcDbEntity
  8
0
  6
Continuous
 62
     7
370
    25
100
AcDbPolyline
 90
        9
 70
   128
 43
0.0
 10
269.52599791
 20
36.5622639743
 10
269.4717169986
 20
36.5293486941
 10
269.433418439
 20
36.4902530081
 10
269.4129178891
 20
36.4468303642
 10
269.4111872384
 20
36.4011393423
 10
269.4283085337
 20
36.3553460619
 10
269.4634700888
 20
36.3116214901
 10
269.5150049653
 20
36.2720385208
 10
269.5804699984
 20
36.238473703
  0
LINE
  5
1BF
330
1F
100
AcDbEntity
  8
0
  6
Continuous
 62
     7
370
    25
100
AcDbLine
 10
269.7946081493
 20
36.2029116706
 30
0.0
 11
269.52599791
 21
36.5622639743
 31
0.0
  0
LINE
  5
1C0
330
1F
100
AcDbEntity
  8
0
  6
Continuous
 62
     7
370
    25
100
AcDbLine
 10
275.7668401572
 20
39.5345214657
 30
0.0
 11
269.52599791
 21
36.5622639743
 31
0.0
  0
LINE
  5
1C1
330
1F
100
AcDbEntity
  8
0
  6
Continuous
 62
     7
370
    25
100
AcDbLine
 10
276.0354503965
 20
39.1751691619
 30
0.0
 11
275.7668401572
 21
39.5345214657
 31
0.0
  0
LINE
  5
1C2
330
1F
100
AcDbEntity
  8
0
  6
Continuous
 62
     7
370
    25
100
AcDbLine
 10
276.0474891803
 20
38.9986082768
 30
0.0
 11
276.0354503965
 21
39.1751691619
 31
0.0
  0
LINE
  5
1C3
330
1F
100
AcDbEntity
  8
0
  6
Continuous
 62
     7
370
    25
100
AcDbLine
 10
270.316468268
 20
36.0947382874
 30
0.0
 11
270.2370643216
 21
36.0569214406
 31
0.0
  0
SPLINE
  5
1C4
330
1F
100
AcDbEntity
  8
0
  6
Continuous
 62
     7
370
    25
100
AcDbSpline
210
0.0
220
0.0
230
1.0
 70
     8
 71
     3
 72
    14
 73
    10
 74
     0
 42
0.000000001
 43
0.00000001
 40
0.0
 40
0.0
 40
0.0
 40
0.0
 40
0.1215026613260199
 40
0.2571357003576155
 40
0.3367055246584991
 40
0.4166989189530999
 40
0.5090573836363036
 40
0.6599898335533189
 40
1.0
 40
1.0
 40
1.0
 40
1.0
 10
270.8688792777425
 20
36.05349428812792
 30
0.0
 10
270.8591769254059
 20
36.0686531155714
 30
0.0
 10
270.8386438676444
 20
36.10073369445534
 30
0.0
 10
270.7950626217807
 20
36.14040638838964
 30
0.0
 10
270.7382151064896
 20
36.16735166120388
 30
0.0
 10
270.6784622140056
 20
36.18030276741899
 30
0.0
 10
270.5988986618891
 20
36.1815272983876
 30
0.0
 10
270.4660700500367
 20
36.15935589552198
 30
0.0
 10
270.3776824884541
 20
36.1211785907887
 30
0.0
 10
270.3164682680466
 20
36.094738287372
 30
0.0
  0
SPLINE
  5
1C5
330
1F
100
AcDbEntity
  8
0
  6
Continuous
 62
     7
370
    25
100
AcDbSpline
210
0.0
220
0.0
230
1.0
 70
     8
 71
     3
 72
    14
 73
    10
 74
     0
 42
0.000000001
 43
0.00000001
 40
0.0
 40
0.0
 40
0.0
 40
0.0
 40
0.1215026613286074
 40
0.2571357003598592
 40
0.3367055246605177
 40
0.4166989189548349
 40
0.5090573836378591
 40
0.6599898335543605
 40
0.9999999999999999
 40
0.9999999999999999
 40
0.9999999999999999
 40
0.9999999999999999
 10
282.1935590302995
 20
35.99206585210604
 30
0.0
 10
282.2032613826367
 20
35.97690702466224
 30
0.0
 10
282.2237944403992
 20
35.94482644577801
 30
0.0
 10
282.2673756862628
 20
35.90515375184334
 30
0.0
 10
282.3242232015539
 20
35.87820847902908
 30
0.0
 10
282.383976094038
 20
35.86525737281396
 30
0.0
 10
282.4635396461545
 20
35.86403284184538
 30
0.0
 10
282.5963682580069
 20
35.886204244711
 30
0.0
 10
282.6847558195894
 20
35.92438154944426
 30
0.0
 10
282.745970039997
 20
35.95082185286098
 30
0.0
  0
SPLINE
  5
1C6
330
1F
100
AcDbEntity
  8
0
  6
Continuous
 62
     7
370
    25
100
AcDbSpline
210
0.0
220
0.0
230
1.0
 70
     8
 71
     3
 72
     9
 73
     5
 74
     0
 42
0.000000001
 43
0.00000001
 40
0.0
 40
0.0
 40
0.0
 40
0.0
 40
0.9566959562427503
 40
1.0
 40
1.0
 40
1.0
 40
1.0
 10
282.1935590302995
 20
35.99206585210604
 30
0.0
 10
282.1586396109388
 20
36.00607335675347
 30
0.0
 10
282.1221395932134
 20
36.02071489940452
 30
0.0
 10
282.0877738392714
 20
36.03842277944758
 30
0.0
 10
282.0862856631589
 20
36.0391896022598
 30
0.0
  0
LINE
  5
1C7
330
1F
100
AcDbEntity
  8
0
  6
Continuous
 62
     7
370
    25
100
AcDbLine
 10
276.0354503965
 20
39.1751691619
 30
0.0
 11
276.2780534938
 21
39.5317484923
 31
0.0
  0
LINE
  5
1C8
330
1F
100
AcDbEntity
  8
0
  6
Continuous
 62
     7
370
    25
100
AcDbLine
 10
283.531271043
 20
36.4862952014
 30
0.0
 11
276.2780534938
 21
39.5317484923
 31
0.0
  0
LINE
  5
1C9
330
1F
100
AcDbEntity
  8
0
  6
Continuous
 62
     7
370
    25
100
AcDbLine
 10
283.2886679457
 20
36.129715871
 30
0.0
 11
283.531271043
 21
36.4862952014
 31
0.0
  0
LINE
  5
1CA
330
1F
100
AcDbEntity
  8
0
  6
Continuous
 62
     7
370
    25
100
AcDbLine
 10
282.8253739865
 20
35.9886386996
 30
0.0
 11
282.7330893115
 21
36.0273868366
 31
0.0
  0
SPLINE
  5
1CB
330
1F
100
AcDbEntity
  8
0
  6
Continuous
 62
     7
370
    25
100
AcDbSpline
210
0.0
220
0.0
230
1.0
 70
     8
 71
     3
 72
    14
 73
    10
 74
     0
 42
0.000000001
 43
0.00000001
 40
0.0
 40
0.0
 40
0.0
 40
0.0
 40
0.3240421732228839
 40
0.4390834530322313
 40
0.5550339035688591
 40
0.6320175773817601
 40
0.7091777148405375
 40
0.8120429782648109
 40
1.0
 40
1.0
 40
1.0
 40
1.0
 10
282.7330893115451
 20
36.02738683655478
 30
0.0
 10
282.6661713021505
 20
36.05332212131195
 30
0.0
 10
282.5754960966896
 20
36.08846493705502
 30
0.0
 10
282.4447755696416
 20
36.11392098084816
 30
0.0
 10
282.3686315263111
 20
36.11897683699027
 30
0.0
 10
282.3056382810435
 20
36.11054247255393
 30
0.0
 10
282.2573099384801
 20
36.09131501328494
 30
0.0
 10
282.2128137529527
 20
36.05182777140329
 30
0.0
 10
282.2011179625092
 20
36.01552691694852
 30
0.0
 10
282.1935590302995
 20
35.99206585210604
 30
0.0
  0
LWPOLYLINE
  5
1CC
330
1F
100
AcDbEntity
  8
0
  6
Continuous
 62
     7
370
    25
100
AcDbPolyline
 90
        9
 70
   128
 43
0.0
 10
283.5857431314
 20
36.1625049301
 10
283.6400240429
 20
36.1954202104
 10
283.6783226024
 20
36.2345158963
 10
283.6988231524
 20
36.2779385402
 10
283.700553803
 20
36.323629562
 10
283.6834325077
 20
36.3694228424
 10
283.6482709526
 20
36.4131474141
 10
283.5967360761
 20
36.4527303833
 10
283.531271043
 20
36.4862952014
  0
SPLINE
  5
1CD
330
1F
100
AcDbEntity
  8
0
  6
Continuous
 62
     7
370
    25
100
AcDbSpline
210
0.0
220
0.0
230
1.0
 70
     8
 71
     3
 72
    11
 73
     7
 74
     0
 42
0.000000001
 43
0.00000001
 40
0.0
 40
0.0
 40
0.0
 40
0.0
 40
0.0079772990479514
 40
0.328773030273163
 40
0.6639702863843705
 40
1.0
 40
1.0
 40
1.0
 40
1.0
 10
276.1121559233407
 20
38.67574486340075
 30
0.0
 10
276.1119503042904
 20
38.67581209104977
 30
0.0
 10
276.1034760076832
 20
38.67858278295378
 30
0.0
 10
276.0865806869953
 20
38.70722229670995
 30
0.0
 10
276.0634494895598
 20
38.81276653202143
 30
0.0
 10
276.052813680265
 20
38.93660983162847
 30
0.0
 10
276.0474891803378
 20
38.99860827682965
 30
0.0
  0
ARC
  5
1CE
330
1F
100
AcDbEntity
  8
0
  6
Continuous
 62
     7
370
    25
100
AcDbCircle
 10
276.0190556051
 20
38.9079443055
 30
0.0
 40
0.675434356401089
100
AcDbArc
 50
67.4522145717
 51
111.9262127773
  0
ELLIPSE
  5
1CF
330
1F
100
AcDbEntity
  8
0
  6
Continuous
 62
     7
370
    25
100
AcDbEllipse
 10
265.4514962411
 20
27.4362932425
 30
0.0
 11
20.35992705137721
 21
-3.471610629598147
 31
0.0
210
0.0
220
0.0
230
1.0
 40
0.3959246366
 41
2.094267113142106
 42
4.658440242760294
  0
ELLIPSE
  5
1D0
330
1F
100
AcDbEntity
  8
0
  6
Continuous
 62
     7
370
    25
100
AcDbEllipse
 10
267.6270390961
 20
38.0398059369
 30
0.0
 11
11.58777004797156
 21
-4.13610702493235
 31
0.0
210
0.0
220
0.0
230
1.0
 40
0.7539133724
 41
3.780210447375873
 42
4.866954366752111
  0
LINE
  5
1D1
330
1F
100
AcDbEntity
  8
0
  6
Continuous
 62
     7
370
    25
100
AcDbLine
 10
265.1089155611
 20
19.1644247636
 30
0.0
 11
262.9811401571
 21
19.5742224833
 31
0.0
  0
LWPOLYLINE
  5
1D2
330
1F
100
AcDbEntity
  8
0
  6
Continuous
 62
     7
370
    25
100
AcDbPolyline
 90
       25
 70
   128
 43
0.0
 10
246.4760791283
 20
26.2665411319
 10
246.0655262003
 20
26.5439027322
 10
245.4906219361
 20
27.1057356084
 10
245.0208506327
 20
27.8067499925
 10
244.664133414
 20
28.6351256189
 10
244.4264851242
 20
29.5768946999
 10
244.3119129077
 20
30.6161774461
 10
244.3223486423
 20
31.7354498259
 10
244.4576163641
 20
32.9158390498
 10
244.715435235
 20
34.1374417966
 10
245.0914580009
 20
35.379659817
 10
245.579344294
 20
36.621547254
 10
246.1708675419
 20
37.8421638247
 10
246.8560536811
 20
39.0209279081
 10
247.6233493363
 20
40.137963586
 10
248.4598166296
 20
41.1744357832
 10
249.3513513343
 20
42.1128678586
 10
250.2829206961
 20
42.9374362902
 10
251.2388169096
 20
43.6342374861
 10
252.2029219786
 20
44.1915222219
 10
253.1589794918
 20
44.5998937521
 10
254.0908687331
 20
44.8524662551
 10
254.9828765036
 20
44.9449809395
 10
255.8199620721
 20
44.8758778541
 10
256.5880107869
 20
44.6463221917
  0
SPLINE
  5
1D3
330
1F
100
AcDbEntity
  8
0
  6
Continuous
 62
     7
370
    25
100
AcDbSpline
210
0.0
220
0.0
230
1.0
 70
     8
 71
     3
 72
    28
 73
    24
 74
     0
 42
0.000000001
 43
0.00000001
 40
0.0
 40
0.0
 40
0.0
 40
0.0
 40
0.0624999999999996
 40
0.0624999999999996
 40
0.1249999999999992
 40
0.1249999999999992
 40
0.1874999999999988
 40
0.1874999999999988
 40
0.2499999999999984
 40
0.2499999999999984
 40
0.3749999999999977
 40
0.3749999999999977
 40
0.499999999999997
 40
0.499999999999997
 40
0.5624999999999967
 40
0.5624999999999967
 40
0.6249999999999964
 40
0.6249999999999964
 40
0.7499999999999976
 40
0.7499999999999976
 40
0.8749999999999988
 40
0.8749999999999988
 40
1.0
 40
1.0
 40
1.0
 40
1.0
 10
256.5880107868609
 20
44.64632219166282
 30
0.0
 10
256.5011827399264
 20
44.66869450525679
 30
0.0
 10
256.4284442932295
 20
44.66435820850129
 30
0.0
 10
256.3061451808788
 20
44.61378482702359
 30
0.0
 10
256.2558765115684
 20
44.56785860730972
 30
0.0
 10
256.1699628399014
 20
44.44278903197224
 30
0.0
 10
256.1343845223109
 20
44.36357033431462
 30
0.0
 10
256.0737878333504
 20
44.17635521753559
 30
0.0
 10
256.0488744417164
 20
44.06833567733366
 30
0.0
 10
255.9868096823512
 20
43.71142707477147
 30
0.0
 10
255.9614525356804
 20
43.42859317886504
 30
0.0
 10
255.9302408230345
 20
42.78923253450069
 30
0.0
 10
255.9245930836117
 20
42.43242474472741
 30
0.0
 10
255.9286668718877
 20
41.84594982057592
 30
0.0
 10
255.9321851239741
 20
41.64184621043599
 30
0.0
 10
255.9434885363115
 20
41.22157896995204
 30
0.0
 10
255.9512759676205
 20
41.00487241239895
 30
0.0
 10
255.9814319195006
 20
40.33604544466792
 30
0.0
 10
256.010490425222
 20
39.86524072742021
 30
0.0
 10
256.0914594982428
 20
38.87791627140552
 30
0.0
 10
256.1433938873834
 20
38.36134760507282
 30
0.0
 10
256.2781917861834
 20
37.28630863040162
 30
0.0
 10
256.361480135653
 20
36.7258441752893
 30
0.0
 10
256.4642260898165
 20
36.15325748427161
 30
0.0
  0
SPLINE
  5
1D4
330
1F
100
AcDbEntity
  8
0
  6
Continuous
 62
     7
370
    25
100
AcDbSpline
210
0.0
220
0.0
230
1.0
 70
    11
 71
     3
 72
    56
 73
    52
 74
     0
 42
0.000000001
 43
0.00000001
 40
0.0
 40
0.0
 40
0.0
 40
0.0
 40
0.0625000000000035
 40
0.0625000000000035
 40
0.0937500000000046
 40
0.0937500000000046
 40
0.1250000000000057
 40
0.1250000000000057
 40
0.1562500000000068
 40
0.1562500000000068
 40
0.187500000000008
 40
0.187500000000008
 40
0.2187500000000091
 40
0.2187500000000091
 40
0.2500000000000102
 40
0.2500000000000102
 40
0.2812500000000113
 40
0.2812500000000113
 40
0.3125000000000124
 40
0.3125000000000124
 40
0.3437500000000136
 40
0.3437500000000136
 40
0.3750000000000147
 40
0.3750000000000147
 40
0.4062500000000158
 40
0.4062500000000158
 40
0.4375000000000169
 40
0.4375000000000169
 40
0.5000000000000169
 40
0.5000000000000169
 40
0.5625000000000168
 40
0.5625000000000168
 40
0.6250000000000165
 40
0.6250000000000165
 40
0.656250000000016
 40
0.656250000000016
 40
0.6875000000000154
 40
0.6875000000000154
 40
0.7187500000000148
 40
0.7187500000000148
 40
0.7500000000000142
 40
0.7500000000000142
 40
0.7812500000000137
 40
0.7812500000000137
 40
0.812500000000013
 40
0.812500000000013
 40
0.8750000000000087
 40
0.8750000000000087
 40
0.9375000000000044
 40
0.9375000000000044
 40
1.0
 40
1.0
 40
1.0
 40
1.0
 10
261.8619975518516
 20
38.96914043872432
 30
0.0
 10
261.6249383528946
 20
39.07537521790605
 30
0.0
 10
261.3973928280225
 20
39.17133783845831
 30
0.0
 10
261.0720105651984
 20
39.28869440659337
 30
0.0
 10
260.9652198219795
 20
39.32352350545828
 30
0.0
 10
260.7648452227043
 20
39.37782449046826
 30
0.0
 10
260.6708586049408
 20
39.3975880997798
 30
0.0
 10
260.4974901474151
 20
39.41651351637252
 30
0.0
 10
260.4206137728326
 20
39.415306715295
 30
0.0
 10
260.2916688259737
 20
39.38520585718745
 30
0.0
 10
260.2401410031104
 20
39.35590853631115
 30
0.0
 10
260.172712284626
 20
39.26632421928309
 30
0.0
 10
260.1567505450425
 20
39.20557775346056
 30
0.0
 10
260.1637430152938
 20
39.05903994614777
 30
0.0
 10
260.1867256107212
 20
38.9725658431128
 30
0.0
 10
260.2664122470653
 20
38.78737982548136
 30
0.0
 10
260.3229717927944
 20
38.68852207853935
 30
0.0
 10
260.4604465295404
 20
38.4900552002862
 30
0.0
 10
260.5411394014254
 20
38.39067451366073
 30
0.0
 10
260.7171540922266
 20
38.19952373770396
 30
0.0
 10
260.814415866853
 20
38.10575083098179
 30
0.0
 10
261.0169970252751
 20
37.92991783687251
 30
0.0
 10
261.1225646596639
 20
37.84737245256894
 30
0.0
 10
261.3413509818135
 20
37.69193529152138
 30
0.0
 10
261.4553846373522
 20
37.61863186373118
 30
0.0
 10
261.6854199152771
 20
37.48431145572776
 30
0.0
 10
261.801671293402
 20
37.42301055706415
 30
0.0
 10
262.1540605258421
 20
37.25472747791247
 30
0.0
 10
262.3958398062753
 20
37.16261288631476
 30
0.0
 10
262.8789004573895
 20
37.01922662314142
 30
0.0
 10
263.1187625872558
 20
36.9679167769949
 30
0.0
 10
263.5939229375039
 20
36.90530556436892
 30
0.0
 10
263.8294184417784
 20
36.89385067554858
 30
0.0
 10
264.1601103062028
 20
36.9167706222719
 30
0.0
 10
264.265765373132
 20
36.93113069278146
 30
0.0
 10
264.4585363370211
 20
36.97811665542446
 30
0.0
 10
264.5482287826534
 20
37.01137392848599
 30
0.0
 10
264.6782274211752
 20
37.10645128950662
 30
0.0
 10
264.7155770945408
 20
37.17035998028709
 30
0.0
 10
264.6956329163522
 20
37.31691123127138
 30
0.0
 10
264.6411614782345
 20
37.39599120167517
 30
0.0
 10
264.4917864329195
 20
37.54681901198136
 30
0.0
 10
264.3986327013598
 20
37.61896902137507
 30
0.0
 10
264.198831836504
 20
37.75835943570724
 30
0.0
 10
264.0906428437036
 20
37.82628254246627
 30
0.0
 10
263.7599566411085
 20
38.02344526564908
 30
0.0
 10
263.5274574900548
 20
38.14907328504825
 30
0.0
 10
263.0509569582662
 20
38.39795080924957
 30
0.0
 10
262.8126890763407
 20
38.51773025840077
 30
0.0
 10
262.3370118934175
 20
38.75008093396767
 30
0.0
 10
262.0990567508086
 20
38.86290565954261
 30
0.0
 10
261.8619975518516
 20
38.96914043872432
 30
0.0
  0
SPLINE
  5
1D5
330
1F
100
AcDbEntity
  8
0
  6
Continuous
 62
     7
370
    25
100
AcDbSpline
210
0.0
220
0.0
230
1.0
 70
     8
 71
     3
 72
    20
 73
    16
 74
     0
 42
0.000000001
 43
0.00000001
 40
0.0
 40
0.0
 40
0.0
 40
0.0
 40
0.1249999999999999
 40
0.1249999999999999
 40
0.1874999999999998
 40
0.1874999999999998
 40
0.2499999999999998
 40
0.2499999999999998
 40
0.4999999999999994
 40
0.4999999999999994
 40
0.749999999999999
 40
0.749999999999999
 40
0.8749999999999996
 40
0.8749999999999996
 40
1.0
 40
1.0
 40
1.0
 40
1.0
 10
256.5880107868609
 20
44.64632219166283
 30
0.0
 10
256.7728513607944
 20
44.45828798551939
 30
0.0
 10
256.9883477245502
 20
44.25512377748883
 30
0.0
 10
257.3660395720552
 20
43.92783522327464
 30
0.0
 10
257.5010337038444
 20
43.81502652750595
 30
0.0
 10
257.790881430233
 20
43.58263518173039
 30
0.0
 10
257.9465924890426
 20
43.46243470283805
 30
0.0
 10
258.7666042871375
 20
42.85661799904216
 30
0.0
 10
259.5536896288162
 20
42.35554345020634
 30
0.0
 10
261.3980202074215
 20
41.45229355155413
 30
0.0
 10
262.4086242790563
 20
41.07415754749999
 30
0.0
 10
264.0495113187361
 20
40.67773176504319
 30
0.0
 10
264.6067113063164
 20
40.57667317179721
 30
0.0
 10
265.7352479058616
 20
40.43970843914693
 30
0.0
 10
266.3074115402107
 20
40.40355675288158
 30
0.0
 10
266.8874980954855
 20
40.40140744464532
 30
0.0
  0
SPLINE
  5
1D6
330
1F
100
AcDbEntity
  8
0
  6
Continuous
 62
     7
370
    25
100
AcDbSpline
210
0.0
220
0.0
230
1.0
 70
     8
 71
     3
 72
     8
 73
     4
 74
     0
 42
0.000000001
 43
0.00000001
 40
0.0
 40
0.0
 40
0.0
 40
0.0
 40
1.0
 40
1.0
 40
1.0
 40
1.0
 10
266.3298921050048
 20
28.77102266446344
 30
0.0
 10
266.512391892896
 20
28.72907783945548
 30
0.0
 10
266.6982515338828
 20
28.70420338182101
 30
0.0
 10
266.8874980954855
 20
28.69671746438537
 30
0.0
  0
SPLINE
  5
1D7
330
1F
100
AcDbEntity
  8
0
  6
Continuous
 62
     7
370
    25
100
AcDbSpline
210
0.0
220
0.0
230
1.0
 70
     8
 71
     3
 72
     8
 73
     4
 74
     0
 42
0.000000001
 43
0.00000001
 40
0.0
 40
0.0
 40
0.0
 40
0.0
 40
1.0
 40
1.0
 40
1.0
 40
1.0
 10
266.8874980954855
 20
40.40140744464532
 30
0.0
 10
268.7826530582332
 20
40.39438560948405
 30
0.0
 10
270.6779505589777
 20
40.38653191949225
 30
0.0
 10
272.5733162000153
 20
40.37828056127804
 30
0.0
  0
ARC
  5
1D8
330
1F
100
AcDbEntity
  8
0
  6
Continuous
 62
     7
370
    25
100
AcDbCircle
 10
260.3883506281
 20
30.3591849894
 30
0.0
 40
16.13540975071985
100
AcDbArc
 50
130.5151263802
 51
169.4902501525
  0
ELLIPSE
  5
1D9
330
1F
100
AcDbEntity
  8
0
  6
Continuous
 62
     7
370
    25
100
AcDbEllipse
 10
266.8287699451
 20
29.7608275809
 30
0.0
 11
1.995915714797263
 21
-0.1532094796200631
 31
0.0
210
0.0
220
0.0
230
1.0
 40
0.5290708229
 41
4.782383108218966
 42
5.538500171254381
  0
ELLIPSE
  5
1DA
330
1F
100
AcDbEntity
  8
0
  6
Continuous
 62
     7
370
    25
100
AcDbEllipse
 10
265.609078936
 20
20.16434422
 30
0.0
 11
1.99591571479732
 21
-0.1532094796200632
 31
0.0
210
0.0
220
0.0
230
1.0
 40
0.5290708229
 41
4.499898943175094
 42
5.538500171254384
  0
LINE
  5
1DB
330
1F
100
AcDbEntity
  8
0
  6
Continuous
 62
     7
370
    25
100
AcDbLine
 10
272.5733162
 20
40.3782805613
 30
0.0
 11
275.2136688384
 21
39.2710686285
 31
0.0
  0
LWPOLYLINE
  5
1DC
330
1F
100
AcDbEntity
  8
0
  6
Continuous
 62
     7
370
    25
100
AcDbPolyline
 90
       13
 70
   128
 43
0.0
 10
271.1541241093
 20
35.4184971085
 10
270.6441180238
 20
35.3556668457
 10
270.1064947553
 20
35.385591268
 10
269.598551624
 20
35.5050811733
 10
269.1744227829
 20
35.7014018984
 10
268.8793098579
 20
35.953630518
 10
268.7446645753
 20
36.2348857105
 10
268.784836786
 20
36.5151926408
 10
268.9955451278
 20
36.7646775351
 10
269.3543333119
 20
36.9567514851
 10
269.8229634074
 20
37.0709441664
 10
270.351491057
 20
37.0950854685
 10
270.6017040098
 20
37.0745787206
  0
LINE
  5
1DD
330
1F
100
AcDbEntity
  8
0
  6
Continuous
 62
     7
370
    25
100
AcDbLine
 10
276.8439014333
 20
33.02949513
 30
0.0
 11
271.1541241093
 21
35.4184971085
 31
0.0
  0
LINE
  5
1DE
330
1F
100
AcDbEntity
  8
0
  6
Continuous
 62
     7
370
    25
100
AcDbLine
 10
268.2414327083
 20
28.932491697
 30
0.0
 11
276.8439014333
 21
33.02949513
 31
0.0
  0
LINE
  5
1DF
330
1F
100
AcDbEntity
  8
0
  6
Continuous
 62
     7
370
    25
100
AcDbLine
 10
276.7475398023
 20
32.0588019457
 30
0.0
 11
276.8439014333
 21
33.02949513
 31
0.0
  0
LINE
  5
1E0
330
1F
100
AcDbEntity
  8
0
  6
Continuous
 62
     7
370
    25
100
AcDbLine
 10
276.3382873473
 20
30.043419155
 30
0.0
 11
276.7475398023
 21
32.0588019457
 31
0.0
  0
LINE
  5
1E1
330
1F
100
AcDbEntity
  8
0
  6
Continuous
 62
     7
370
    25
100
AcDbLine
 10
276.5578515522
 20
30.1479885908
 30
0.0
 11
276.3382873473
 21
30.043419155
 31
0.0
  0
ELLIPSE
  5
1E2
330
1F
100
AcDbEntity
  8
0
  6
Continuous
 62
     7
370
    25
100
AcDbEllipse
 10
266.6665033828
 20
27.1756158509
 30
0.0
 11
13.55341789307226
 21
18.70845597773918
 31
0.0
210
0.0
220
0.0
230
1.0
 40
0.5088778303
 41
4.964798313963063
 42
5.345733073665883
  0
LINE
  5
1E3
330
1F
100
AcDbEntity
  8
0
  6
Continuous
 62
     7
370
    25
100
AcDbLine
 10
279.26995563
 20
25.169330854
 30
0.0
 11
267.0217416992
 21
19.336008336
 31
0.0
  0
LWPOLYLINE
  5
1E4
330
1F
100
AcDbEntity
  8
0
  6
Continuous
 62
     7
370
    25
100
AcDbPolyline
 90
       19
 70
   128
 43
0.0
 10
240.115277456
 20
33.8984998996
 10
240.1757714214
 20
34.9992219521
 10
240.3562182489
 20
36.1509551909
 10
240.6535304435
 20
37.3339931408
 10
241.0626209109
 20
38.5280936947
 10
241.5764899999
 20
39.7128254608
 10
242.1863452679
 20
40.8679173503
 10
242.8817519221
 20
41.9736054206
 10
243.6508113619
 20
43.0109710423
 10
244.4803647671
 20
43.9622646021
 10
245.3562182489
 20
44.8112092033
 10
246.2633857115
 20
45.5432791685
 10
247.1863452679
 20
46.1459485776
 10
248.1093048243
 20
46.6089055898
 10
249.0164722868
 20
46.9242288825
 10
249.8923257686
 20
47.0865231865
 10
250.7218791738
 20
47.0930116015
 10
251.4909386136
 20
46.9435831087
 10
252.1859389311
 20
46.6410290825
  0
ARC
  5
1E5
330
1F
100
AcDbEntity
  8
0
  6
Continuous
 62
     7
370
    25
100
AcDbCircle
 10
245.1458697616
 20
33.4167091333
 30
0.0
 40
5.053610717825265
100
AcDbArc
 50
174.5293440494
 51
234.1584755573
  0
ARC
  5
1E6
330
1F
100
AcDbEntity
  8
0
  6
Continuous
 62
     7
370
    25
100
AcDbCircle
 10
252.3324714209
 20
35.0097450657
 30
0.0
 40
12.22832223746789
100
AcDbArc
 50
122.4499382802
 51
177.5554382525
  0
LWPOLYLINE
  5
1E7
330
1F
100
AcDbEntity
  8
0
  6
Continuous
 62
     7
370
    25
100
AcDbPolyline
 90
       24
 70
   128
 43
0.0
 10
182.6406521982
 20
66.0046218471
 10
182.3979230321
 20
66.1628873776
 10
181.9031247629
 20
66.6280460522
 10
181.5071496565
 20
67.2247331484
 10
181.2182581817
 20
67.9405011283
 10
181.0424769269
 20
68.7604182979
 10
180.9834728793
 20
69.6673802988
 10
181.0424769269
 20
70.642466923
 10
181.2182581817
 20
71.6653368095
 10
181.5071496565
 20
72.7146517864
 10
181.9031247629
 20
73.768522009
 10
182.3979230321
 20
74.8049626052
 10
182.9812224372
 20
75.8023523035
 10
183.6408547221
 20
76.7398844766
 10
184.3630592441
 20
77.5980011897
 10
185.1327700362
 20
78.3588012005
 10
185.9339300991
 20
79.0064133984
 10
186.7498263677
 20
79.5273278926
 10
187.5634383638
 20
79.9106778437
 10
188.3577932615
 20
80.1484661573
 10
189.116319959
 20
80.235732312
 10
189.8231947692
 20
80.1706558416
 10
190.4636715194
 20
79.9545943115
 10
190.6400020593
 20
79.8614036452
  0
ARC
  5
1E8
330
1F
100
AcDbEntity
  8
0
  6
Continuous
 62
     7
370
    25
100
AcDbCircle
 10
191.0641809943
 20
70.3791762695
 30
0.0
 40
10.08907350233515
100
AcDbArc
 50
122.3387541468
 51
177.6666223859
  0
OLE2FRAME
  5
1E9
330
1F
100
AcDbEntity
  8
0
100
AcDbOle2Frame
 70
     2
  3
Paintbrush-Bild
 10
13.8511154363
 20
38.264191557
 30
0.0
 11
51.6290888628
 21
31.9806341108
 31
0.0
 71
     2
 72
     0
 73
     1
 90
    12928
310
80552BED0767C5B32B40DDAF6807D121434000000000000000006FFBDDFB85D0
310
4940DDAF6807D121434000000000000000006FFBDDFB85D04940416F4BD60AFB
310
3F4000000000000000002BED0767C5B32B40416F4BD60AFB3F40000000000000
310
0000000000000100000000010000010000000100000000000100000000320000
310
D0CF11E0A1B11AE1000000000000000000000000000000003E000300FEFF0900
310
0600000000000000000000000100000001000000000000000010000002000000
310
01000000FEFFFFFF0000000000000000FFFFFFFFFFFFFFFFFFFFFFFFFFFFFFFF
310
FFFFFFFFFFFFFFFFFFFFFFFFFFFFFFFFFFFFFFFFFFFFFFFFFFFFFFFFFFFFFFFF
310
FFFFFFFFFFFFFFFFFFFFFFFFFFFFFFFFFFFFFFFFFFFFFFFFFFFFFFFFFFFFFFFF
310
FFFFFFFFFFFFFFFFFFFFFFFFFFFFFFFFFFFFFFFFFFFFFFFFFFFFFFFFFFFFFFFF
310
FFFFFFFFFFFFFFFFFFFFFFFFFFFFFFFFFFFFFFFFFFFFFFFFFFFFFFFFFFFFFFFF
310
FFFFFFFFFFFFFFFFFFFFFFFFFFFFFFFFFFFFFFFFFFFFFFFFFFFFFFFFFFFFFFFF
310
FFFFFFFFFFFFFFFFFFFFFFFFFFFFFFFFFFFFFFFFFFFFFFFFFFFFFFFFFFFFFFFF
310
FFFFFFFFFFFFFFFFFFFFFFFFFFFFFFFFFFFFFFFFFFFFFFFFFFFFFFFFFFFFFFFF
310
FFFFFFFFFFFFFFFFFFFFFFFFFFFFFFFFFFFFFFFFFFFFFFFFFFFFFFFFFFFFFFFF
310
FFFFFFFFFFFFFFFFFFFFFFFFFFFFFFFFFFFFFFFFFFFFFFFFFFFFFFFFFFFFFFFF
310
FFFFFFFFFFFFFFFFFFFFFFFFFFFFFFFFFFFFFFFFFFFFFFFFFFFFFFFFFFFFFFFF
310
FFFFFFFFFFFFFFFFFFFFFFFFFFFFFFFFFFFFFFFFFFFFFFFFFFFFFFFFFFFFFFFF
310
FFFFFFFFFFFFFFFFFFFFFFFFFFFFFFFFFFFFFFFFFFFFFFFFFFFFFFFFFFFFFFFF
310
FFFFFFFFFFFFFFFFFFFFFFFFFFFFFFFFFFFFFFFFFFFFFFFFFFFFFFFFFFFFFFFF
310
FDFFFFFFFEFFFFFFFEFFFFFFFEFFFFFF05000000060000000700000008000000
310
090000000A0000000B0000000C0000000D0000000E0000000F00000010000000
310
11000000120000001300000014000000150000001600000017000000FEFFFFFF
310
FFFFFFFFFFFFFFFFFFFFFFFFFFFFFFFFFFFFFFFFFFFFFFFFFFFFFFFFFFFFFFFF
310
FFFFFFFFFFFFFFFFFFFFFFFFFFFFFFFFFFFFFFFFFFFFFFFFFFFFFFFFFFFFFFFF
310
FFFFFFFFFFFFFFFFFFFFFFFFFFFFFFFFFFFFFFFFFFFFFFFFFFFFFFFFFFFFFFFF
310
FFFFFFFFFFFFFFFFFFFFFFFFFFFFFFFFFFFFFFFFFFFFFFFFFFFFFFFFFFFFFFFF
310
FFFFFFFFFFFFFFFFFFFFFFFFFFFFFFFFFFFFFFFFFFFFFFFFFFFFFFFFFFFFFFFF
310
FFFFFFFFFFFFFFFFFFFFFFFFFFFFFFFFFFFFFFFFFFFFFFFFFFFFFFFFFFFFFFFF
310
FFFFFFFFFFFFFFFFFFFFFFFFFFFFFFFFFFFFFFFFFFFFFFFFFFFFFFFFFFFFFFFF
310
FFFFFFFFFFFFFFFFFFFFFFFFFFFFFFFFFFFFFFFFFFFFFFFFFFFFFFFFFFFFFFFF
310
FFFFFFFFFFFFFFFFFFFFFFFFFFFFFFFFFFFFFFFFFFFFFFFFFFFFFFFFFFFFFFFF
310
FFFFFFFFFFFFFFFFFFFFFFFFFFFFFFFFFFFFFFFFFFFFFFFFFFFFFFFFFFFFFFFF
310
FFFFFFFFFFFFFFFFFFFFFFFFFFFFFFFFFFFFFFFFFFFFFFFFFFFFFFFFFFFFFFFF
310
FFFFFFFFFFFFFFFFFFFFFFFFFFFFFFFFFFFFFFFFFFFFFFFFFFFFFFFFFFFFFFFF
310
FFFFFFFFFFFFFFFFFFFFFFFFFFFFFFFFFFFFFFFFFFFFFFFFFFFFFFFFFFFFFFFF
310
52006F006F007400200045006E00740072007900000000000000000000000000
310
0000000000000000000000000000000000000000000000000000000000000000
310
16000500FFFFFFFFFFFFFFFF020000000A00030000000000C000000000000046
310
000000000000000000000000B0B5F81B56AAD30103000000C000000000000000
310
01004F006C006500000000000000000000000000000000000000000000000000
310
0000000000000000000000000000000000000000000000000000000000000000
310
0A000200FFFFFFFFFFFFFFFFFFFFFFFF00000000000000000000000000000000
310
0000000000000000000000000000000000000000000000001400000000000000
310
010043006F006D0070004F0062006A0000000000000000000000000000000000
310
0000000000000000000000000000000000000000000000000000000000000000
310
120002010100000003000000FFFFFFFF00000000000000000000000000000000
310
0000000000000000000000000000000000000000010000004D00000000000000
310
01004F006C006500310030004E00610074006900760065000000000000000000
310
0000000000000000000000000000000000000000000000000000000000000000
310
1A000200FFFFFFFFFFFFFFFFFFFFFFFF00000000000000000000000000000000
310
0000000000000000000000000000000000000000040000002426000000000000
310
FEFFFFFF02000000FEFFFFFFFFFFFFFFFFFFFFFFFFFFFFFFFFFFFFFFFFFFFFFF
310
FFFFFFFFFFFFFFFFFFFFFFFFFFFFFFFFFFFFFFFFFFFFFFFFFFFFFFFFFFFFFFFF
310
FFFFFFFFFFFFFFFFFFFFFFFFFFFFFFFFFFFFFFFFFFFFFFFFFFFFFFFFFFFFFFFF
310
FFFFFFFFFFFFFFFFFFFFFFFFFFFFFFFFFFFFFFFFFFFFFFFFFFFFFFFFFFFFFFFF
310
FFFFFFFFFFFFFFFFFFFFFFFFFFFFFFFFFFFFFFFFFFFFFFFFFFFFFFFFFFFFFFFF
310
FFFFFFFFFFFFFFFFFFFFFFFFFFFFFFFFFFFFFFFFFFFFFFFFFFFFFFFFFFFFFFFF
310
FFFFFFFFFFFFFFFFFFFFFFFFFFFFFFFFFFFFFFFFFFFFFFFFFFFFFFFFFFFFFFFF
310
FFFFFFFFFFFFFFFFFFFFFFFFFFFFFFFFFFFFFFFFFFFFFFFFFFFFFFFFFFFFFFFF
310
FFFFFFFFFFFFFFFFFFFFFFFFFFFFFFFFFFFFFFFFFFFFFFFFFFFFFFFFFFFFFFFF
310
FFFFFFFFFFFFFFFFFFFFFFFFFFFFFFFFFFFFFFFFFFFFFFFFFFFFFFFFFFFFFFFF
310
FFFFFFFFFFFFFFFFFFFFFFFFFFFFFFFFFFFFFFFFFFFFFFFFFFFFFFFFFFFFFFFF
310
FFFFFFFFFFFFFFFFFFFFFFFFFFFFFFFFFFFFFFFFFFFFFFFFFFFFFFFFFFFFFFFF
310
FFFFFFFFFFFFFFFFFFFFFFFFFFFFFFFFFFFFFFFFFFFFFFFFFFFFFFFFFFFFFFFF
310
FFFFFFFFFFFFFFFFFFFFFFFFFFFFFFFFFFFFFFFFFFFFFFFFFFFFFFFFFFFFFFFF
310
FFFFFFFFFFFFFFFFFFFFFFFFFFFFFFFFFFFFFFFFFFFFFFFFFFFFFFFFFFFFFFFF
310
FFFFFFFFFFFFFFFFFFFFFFFFFFFFFFFFFFFFFFFFFFFFFFFFFFFFFFFFFFFFFFFF
310
0100000200000000000000000000000000000000000000000000000000000000
310
0000000000000000000000000000000000000000000000000000000000000000
310
0100FEFF030A0000FFFFFFFF0A00030000000000C00000000000004607000000
310
5042727573680007000000504272757368000700000050427275736800F439B2
310
7100000000000000000000000000000000000000000000000000000000000000
310
0000000000000000000000000000000000000000000000000000000000000000
310
0000000000000000000000000000000000000000000000000000000000000000
310
0000000000000000000000000000000000000000000000000000000000000000
310
0000000000000000000000000000000000000000000000000000000000000000
310
0000000000000000000000000000000000000000000000000000000000000000
310
0000000000000000000000000000000000000000000000000000000000000000
310
0000000000000000000000000000000000000000000000000000000000000000
310
0000000000000000000000000000000000000000000000000000000000000000
310
0000000000000000000000000000000000000000000000000000000000000000
310
0000000000000000000000000000000000000000000000000000000000000000
310
0000000000000000000000000000000000000000000000000000000000000000
310
20260000424D0E260000000000003E00000028000000B40200006E0000000100
310
01000000000000000000130B0000130B00000200000002000000000000FFFFFF
310
FFFFFFFFFFFFFFFFFFFFFFFFFFFFFFFFFFFFFFFFFFFFFFFFFFFFFFFFFFFFFFFF
310
FFFFFFFFFFFFFFFFFFFFFFFFFFFFFFFFFFFFFFFFFFFFFFFFFFFFFFFFFFFFFFFF
310
FFFFFFFFFFFFFFFFFFFFFFFFFFFFFFFFFFFFFFFFFFFFFFFFF000FFFFFFFFFFFF
310
FFFFFFFFFFFFFFFFFFFFFFFFFFFFFFFFFFFFFFFFFFFFFFFFFFFFFFFFFFFFFFFF
310
FFFFFFFFFFFFFFFFFFFFFFFFFFFFFFFFFFFFFFFFFFFFFFFFFFFFFFFFFFFFFFFF
310
FFFFFFFFFFFFFFFFFFFFFFFFFFFFFFFFF000FFFFFFFFFFFFFFFFFFFFFFFFFFFF
310
FFFFFFFFFFFFFFFFFFFFFFFFFFFFFFFFFFFFFFFFFFFFFFFFFFFFFFFFFFFFFFFF
310
FFFFFFFFFFFFFFFFFFFFFFFFFFFFFFFFFFFFFFFFFFFFFFFFFFFFFFFFFFFFFFFF
310
FFFFFFFFFFFFFFFFF000FFFFFFFFFFFFFFFFFFFFFFFFFFFFFFFFFFFFFFFFFFFF
310
FFFFFFFFFFFFFFFFFFFFFFFFFFFFFFFFFFFFFFFFFFFFFFFFFFFFFFFFFFFFFFFF
310
FFFFFFFFFFFFFFFFFFFFFFFFFFFFFFFFFFFFFFFFFFFFFFFFFFFFFFFFFFFFFFFF
310
F000FFFFFFFFFFFFFFFFFFFFFFFFFFFFFFFFFFFFFFFFFFFFFFFFFFFFFFFFFFFF
310
FFFFFFFFFFFFFFFFFFFFFFFFFFFFFFFFFFFFFFFFFFFFFFFFFFFFFFFFFFFFFFFF
310
FFFFFFFFFFFFFFFFFFFFFFFFFFFFFFFFFFFFFFFFFFFFFFFFF000FFFFFFFFFFFF
310
FFFFFFFFFFFFFFFFFFFFFFFFFFFFFFFFFFFFFFFFFFFFFFFFFFFFFFFFFFFFFFFF
310
FFFFFFFFFFFFFFFFFFFFFFFFFFFFFFFFFFFFFFFFFFFFFFFFFFFFFFFFFFFFFFFF
310
FFFFFFFFFFFFFFFFFFFFFFFFFFFFFFFFF000FFFFFFFFFFFFFFFFFFFFFFFFFFFF
310
FFFFFFFFFFFFFFFFFFFFFFFFFFFFFFFFFFFFFFFFFFFFFFFFFFFFFFFFFFFFFFFF
310
FFFFFFFFFFFFFFFFFFFFFFFFFFFFFFFFFFFFFFFFFFFFFFFFFFFFFFFFFFFFFFFF
310
FFFFFFFFFFFFFFFFF000FFFFFFFFFFFFFFFFFFFFFFFFFFFFFFFFFFFFFFFFFFFF
310
FFFFFFFFFFFFFFFFFFFFFFFFFFFFFFFFFFFFFFFFFFFFFFFFFFFFFFFFFFFFFFFF
310
FFFFFFFFFFFFFFFFFFFFFFFFFFFFFFFFFFFFFFFFFFFFFFFFFFFFFFFFFFFFFFFF
310
F000FFFFFFFFFFFFFFFFFFFFFFFFFFFFFFFFFFFFFFFFFFFFFFFFFFFFFFFFFFFF
310
FFFFFFFFFFFFFFFFFFFFFFFFFFFFFFFFFFFFFFFFFFFFFFFFFFFFFFFFFFFFFFFF
310
FFFFFFFFFFFFFFFFFFFFFFFFFFFFFFFFFFFFFFFFFFFFFFFFF000FFFFFFFFFFFF
310
FFFFFFFFFFFFFFFFFFFFFFFFFFFFFFFFFFFFFFFFFFFFFFFFFFFFFFFFFFFFFFFF
310
FFFFFFFFFFFFFFFFFFFFFFFFFFFFFFFFFFFFFFFFFFFFFFFFFFFFFFFFFFFFFFFF
310
FFFFFFFFFFFFFFFFFFFFFFFFFFFFFFFFF000FFFFFFFFFFFFFFFFFFFFFFFFFFFF
310
FFFFFFFFFFFFFFFFFFFFFFFFFFFFFFFFFFFFFFFFFFFFFFFFFFFFFFFFFFFFFFFF
310
FFFFFFFFFFFFFFFFFFFFFFFFFFFFFFFFFFFFFFFFFFFFFFFFFFFFFFFFFFFFFFFF
310
FFFFFFFFFFFFFFFFF000FFFFFFFFFFFFFFFFFFFFFFFFFFFFFFFFFFFFFFFFFFFF
310
FFFFFFFFFFFFFFFFFFFFFFFFFFFFFFFFFFFFFFFFFFFFFFFFFFFFFFFFFFFFFFFF
310
FFFFFFFFFFFFFFFFFFFFFFFFFFFFFFFFFFFFFFFFFFFFFFFFFFFFFFFFFFFFFFFF
310
F000FFFFFFFFFFFFFFFFFFFFFFFFFFFFFFFFFFFFFFFFFFFFFFFFFFFFFFFFFFFF
310
FFFFFFFFFFFFFFFFFFFFFFFFFFFFFFFFFFFFFFFFFFFFFFFFFFFFFFFFFFFFFFFF
310
FFFFFFFFFFFFFFFFFFFFFFFFFFFFFFFFFFFFFFFFFFFFFFFFF000FFFFFFFFFFFF
310
FFFFFFFFFFFFFFFFFFFFFFFFFFFFFFFFFFFFFFFFFFFFFFFFFFFFFFFFFFFFFFFF
310
FFFFFFFFFFFFFFFFFFFFFFFFFFFFFFFFFFFFFFFFFFFFFFFFFFFFFFFFFFFFFFFF
310
FFFFFFFFFFFFFFFFFFFFFFFFFFFFFFFFF000FFFFFFFFFFFFFFFFFFFFFFFFFFFF
310
FFFFFFFFFFFFFFFFFFFFFFFFFFFFFFFFFFFFFFFFFFFFFFFFFFFFFFFFFFFFFFFF
310
FFFFFFFFFFFFFFFFFFFFFFFFFFFFFFFFFFFFFFFFFFFFFFFFFFFFFFFFFFFFFFFF
310
FFFFFFFFFFFFFFFFF000FFFFFFFFFFFFFFFFFFFFFFFFFFFFFFFFFFFFFFFFFFFF
310
FFFFFFFFFFFFFFFFFFFFFFFFFFFFFFFFFFFFFFFFFFFFFFFFFFFFFFFFFFFFFFFF
310
FFFFFFFFFFFFFFFFFFFFFFFFFFFFFFFFFFFFFFFFFFFFFFFFFFFFFFFFFFFFFFFF
310
F000FFFFFFFFFFFFFFFFFFFFFFFFFFFFFFFFFFFFFFFFFFFFFFFFFFFFFFFFFFFF
310
FFFFFFFFFFFFFFFFFFFFFFFFFFFFFFFFFFFFFFFFFFFFFFFFFFFFFFFFFFFFFFFF
310
FFFFFFFFFFFFFFFFFFFFFFFFFFFFFFFFFFFFFFFFFFFFFFFFF000FFFFFFFFFFFF
310
FFFFFFFFFFFFFFFFFFFFFFFFFFFFFFFFFFFFFFFFFFFFFFFFFFFFFFFFFFFFFFFF
310
FFFFFFFFFFFFFFFFFFFFFFFFFFFFFFFFFFFFFFFFFFFFFFFFFFFFFFFFFFFFFFFF
310
FFFFFFFFFFFFFFFFFFFFFFFFFFFFFFFFF000FFFFFFFFFFFFFFFFFFFFFFFFFFFF
310
FFFFFFFFFFFFFFFFFFFFFFFFFFFFFFFFFFFFFFFFFFFFFFFFFFFFFFFFFFFFFFFF
310
FFFFFFFFFFFFFFFFFFFFFFFFFFFFFFFFFFFFFFFFFFFFFFFFFFFFFFFFFFFFFFFF
310
FFFFFFFFFFFFFFFFF000FFFFF80003FFFFFFFFFFFFFFFFFFFFFFFFFFFFFFFFFF
310
FFFFF00007FFFFFFFFFF00007FFFFFF800000000000000007FFFFFFFFFFFFFFF
310
FFFFFFFC001FFFFFFFFFFFFFFC001FFFFFFFFFFFFFFFFFFFFFFFFFFE0007FFFF
310
F000FFFF8000007FFFFFFFF8000FFFFFC0007FFFFF80007FFFFF0000007FFFFF
310
FFF8000007FFFFF800000000000000007FFFFFF0001FFFFFFFFFFFC00001FFFF
310
FFFFFFFFC00001FFFFFFFF000000000003FFFFE000007FFFF000FFFE0000000F
310
FFFFFFF0000FFFFF80007FFFFF80007FFFFC0000001FFFFFFFC0000001FFFFF8
310
00000000000000007FFFFFF0001FFFFFFFFFFE0000003FFFFFFFFFFE0000003F
310
FFFFFF000000000003FFFF0000000FFFF000FFF800000003FFFFFFF00007FFFF
310
80007FFFFF80007FFFF000000007FFFFFF000000003FFFF80000000000000000
310
7FFFFFF0001FFFFFFFFFF80000000FFFFFFFFFF80000000FFFFFFF0000000000
310
03FFFC00000003FFF000FFE000000000FFFFFFF00007FFFF80003FFFFF80007F
310
FFC000000001FFFFFC000000001FFFF800000000000000007FFFFFF0001FFFFF
310
FFFFE000000003FFFFFFFFE000000003FFFFFF000000000003FFF000000000FF
310
F000FF80000000007FFFFFF00007FFFF80003FFFFF80007FFF8000000000FFFF
310
F80000000007FFF800000000000000007FFFFFF0001FFFFFFFFFC000000001FF
310
FFFFFFC000000001FFFFFF000000000003FFC0000000007FF000FF0000000000
310
3FFFFFE00007FFFF00003FFFFF80007FFE00000000003FFFF00000000003FFF8
310
00000000000000007FFFFFF0001FFFFFFFFF8000000000FFFFFFFF8000000000
310
FFFFFF000000000003FF80000000003FF000FE00000000001FFFFFE00003FFFF
310
00003FFFFF80007FFC00000000001FFFE00000000001FFF8000001FFFE000000
310
7FFFFFF0001FFFFFFFFE00000000003FFFFFFE00000000003FFFFF0000000000
310
03FF00000000001FF000FC00000000000FFFFFE00003FFFF00001FFFFF80007F
310
F800000000001FFFC00000000000FFF8000001FFFE0000007FFFFFF0001FFFFF
310
FFFC00000000001FFFFFFC00000000001FFFFF000000000003FE00000000000F
310
F000F8000000000007FFFFE00003FFFF00001FFFFF80007FF800000000000FFF
310
800000000000FFF8000001FFFE0000007FFFFFF0001FFFFFFFF800000000000F
310
FFFFF800000000000FFFFF000000000003FC000000000007F000F80000000000
310
03FFFFC00003FFFE00001FFFFF80007FF0000000000007FF0000000000007FF8
310
000001FFFE0000007FFFFFF0001FFFFFFFF0000000000007FFFFF00000000000
310
07FFFF000000000003F8000000000003F000F0000000000003FFFFC00001FFFE
310
00001FFFFF80007FE0000000000007FE0000000000003FF8000001FFFE000000
310
7FFFFFF0001FFFFFFFF0000000000007FFFFF0000000000007FFFF0000000000
310
03F800001F800003F000E00001FFF00001FFFFC00001FFFE00000FFFFF80007F
310
E00001FFE00003FE00001FFF00003FF8000001FFFE0000007FFFFFF0001FFFFF
310
FFE000003E000003FFFFE000003E000003FFFF000000000003F00001FFF80001
310
F000E00007FFFC0001FFFFC00001FFFE00000FFFFF80007FC0000FFFFC0003FC
310
0000FFFFC0001FF8000001FFFE0000007FFFFFF0001FFFFFFFC00003FFE00001
310
FFFFC00003FFE00001FFFF0001FFFFFFFFF00007FFFE0001F000E0000FFFFF00
310
00FFFF800001FFFC00000FFFFF80007FC0001FFFFE0001FC0001FFFFE0001FF8
310
000001FFFE0000007FFFFFF0001FFFFFFF80000FFFF80000FFFF80000FFFF800
310
00FFFF0003FFFFFFFFE0000FFFFF8000F000C0003FFFFF8000FFFF800000FFFC
310
000007FFFF80007F80003FFFFF0001FC0003FFFFF0001FF8000001FFFE000000
310
7FFFFFF0001FFFFFFF80003FFFFE0000FFFF80003FFFFE0000FFFF0003FFFFFF
310
FFE0003FFFFF8000F000C0003FFFFF8000FFFF800000FFFC000007FFFF80007F
310
80007FFFFF8001F80007FFFFF8000FF8000001FFFE0000007FFFFFF0001FFFFF
310
FF00007FFFFF00007FFF00007FFFFF00007FFF0003FFFFFFFFE0003FFFFFC000
310
F000C0007FFFFFC000FFFF000000FFFC000007FFFF80007F8000FFFFFF8000F8
310
000FFFFFF8000FF8000001FFFE0000007FFFFFF0001FFFFFFF0000FFFFFF8000
310
7FFF0000FFFFFF80007FFF0003FFFFFFFFC0007FFFFFC00070008000FFFFFFC0
310
00FFFF000000FFF8000007FFFF80007F8000FFFFFF8000F8000FFFFFF8000FF8
310
000001FFFE0000007FFFFFF0001FFFFFFE0001FFFFFFC0003FFE0001FFFFFFC0
310
003FFF0003FFFFFFFFC0007FFFFFE00070008000FFFFFFC0007FFF0000007FF8
310
000003FFFF80007F0001FFFFFF8000F8000FFFFFF8000FF8000001FFFE000000
310
7FFFFFF0001FFFFFFE0001FFFFFFC0003FFE0001FFFFFFC0003FFF0003FFFFFF
310
FFC000FFFFFFE00070008000FFFFFFC0007FFF0000007FF8000003FFFF80007F
310
0001FFFFFF8000F8001FFFFFF8000FF8000001FFFE0000007FFFFFF0001FFFFF
310
FE0003FFFFFFE0003FFE0003FFFFFFE0003FFF0003FFFFFFFFC000FFFFFFE000
310
70008000FFFFFFC0007FFE0000007FF8000003FFFF80007F0001FFFFFF8000F0
310
001FFFFFF8000FF8000001FFFE0000007FFFFFF0001FFFFFFC0003FFFFFFE000
310
1FFC0003FFFFFFE0001FFF0003FFFFFFFFC000FFFFFFC00070008000FFFFFF80
310
007FFE0000007FF0000003FFFF80007F0001FFFFFF0000F0001FFFFFF8000FF8
310
000001FFFE0000007FFFFFF0001FFFFFFC0007FFFFFFF0001FFC0007FFFFFFF0
310
001FFF0003FFFFFFFFC000FFFFFFC00070008001FFFFFF0000FFFE0000003FF0
310
000001FFFF80007F0001FFFFFF0000F8001FFFFFF0000FF8000001FFFE000000
310
7FFFFFF0001FFFFFFC0007FFFFFFF0001FFC0007FFFFFFF0001FFF0003FFFFFF
310
FFC001FFFFFF80007000FFFFFFFFFE0000FFFE0008003FF0008001FFFF80007F
310
FFFFFFFFFC0000FFFFFFFFFFE0000FF8000001FFFE0000007FFFFFF0001FFFFF
310
F8000FFFFFFFF8000FF8000FFFFFFFF8000FFF0003FFFFFFFFFFFFFFFFFF0000
310
7000FFFFFFFFFC0000FFFC0008003FF0008001FFFF80007FFFFFFFFFF80001FF
310
FFFFFFFF80000FF8000001FFFE0000007FFFFFF0001FFFFFF8000FFFFFFFF800
310
0FF8000FFFFFFFF8000FFF0003FFFFFFFFFFFFFFFFFE0000F000FFFFFFFFE000
310
00FFFC000C003FE000C001FFFF80007FFFFFFFFFC00001FFFFFFFFFE00001FF8
310
000001FFFE0000007FFFFFF0001FFFFFF8000FFFFFFFF8000FF8000FFFFFFFF8
310
000FFF0003FFFFFFFFFFFFFFFFF00000F000FFFFFFFE000001FFFC000C001FE0
310
00C000FFFF80007FFFFFFFFE000001FFFFFFFFE000001FF80FFFFFFFFFFFFFC0
310
7FFFFFF0001FFFFFF8000FFFFFFFF8000FF8000FFFFFFFF8000FFF0003FFFFFF
310
FFFFFFFFFF800000F000FFFFFFC0000001FFFC001C001FE001C000FFFF80007F
310
FFFFFF80000003FFFFFFF80000001FF80FFFFFFFFFFFFFC07FFFFFF0001FFFFF
310
F8001FFFFFFFFC000FF8001FFFFFFFFC000FFF0003FFFFFFFFFFFFFFF0000001
310
F000FFFFF800000001FFF8001C001FE001C000FFFF80007FFFFFF800000003FF
310
FFFF800000003FF80FFFFFFFFFFFFFC07FFFFFF0001FFFFFF8001FFFFFFFFC00
310
0FF8001FFFFFFFFC000FFF0003FFFFFFFFFFFFFE00000001F000FFFFC0000000
310
03FFF8001E001FC001E000FFFF80007FFFFF8000000007FFFFFC000000003FF8
310
0FFFFFFFFFFFFFC07FFFFFF0001FFFFFF8001FFFFFFFFC000FF8001FFFFFFFFC
310
000FFF0003FFFFFFFFFFFFE000000003F000FFFE0000000007FFF8001E000FC0
310
01E0007FFF80007FFFFE0000000007FFFFE0000000007FF80FFFFFFFFFFFFFC0
310
7FFFFFF0001FFFFFF0001FFFFFFFFC0007F0001FFFFFFFFC0007FF0003FFFFFF
310
FFFFFF0000000003F000FFF80000000007FFF8001E000FC003E0007FFF80007F
310
FFF0000000000FFFFF8000000000FFF80FFFFFFFFFFFFFC07FFFFFF0001FFFFF
310
F0001FFFFFFFFC0007F0001FFFFFFFFC0007FF0003FFFFFFFFFFFC0000000007
310
F000FFE0000000000FFFF0003E000FC003E0007FFF80007FFFC0000000001FFF
310
FE0000000001FFF80FFFFFFFFFFFFFC07FFFFFF0001FFFFFF0001FFFFFFFFC00
310
07F0001FFFFFFFFC0007FF0003FFFFFFFFFFF0000000000FF000FFC000000000
310
1FFFF0003F000F8003F0003FFF80007FFF80000000003FFFF80000000003FFF8
310
0FFFFFFFFFFFFFC07FFFFFF0001FFFFFF0001FFFFFFFFC0007F0001FFFFFFFFC
310
0007FF0003FFFFFFFFFFE0000000001FF000FF00000000007FFFF0003F000780
310
03F0003FFF80007FFF00000000007FFFF00000000007FFF80FFFFFFFFFFFFFC0
310
7FFFFFF0001FFFFFF0001FFFFFFFFC0007F0001FFFFFFFFC0007FF0003FFFFFF
310
FFFF80000000007FF000FE0000000000FFFFE0003F00078007F0003FFF80007F
310
FE0000000001FFFFE0000000001FFFF80FFFFFFFFFFFFFC07FFFFFF0001FFFFF
310
F0001FFFFFFFFC0007F0001FFFFFFFFC0007FF0003FFFFFFFFFF0000000000FF
310
F000FC0000000003FFFFE0007F00078007F0003FFF80007FFC0000000007FFFF
310
C0000000007FFFF80FFFFFFFFFFFFFC07FFFFFF0001FFFFFF8001FFFFFFFFC00
310
0FF8001FFFFFFFFC000FFF0003FFFFFFFFFE0000000003FFF000FC000000000F
310
FFFFE0007F80070007F8001FFF80007FF8000000001FFFFF8000000001FFFFF8
310
0FFFFFFFFFFFFFC07FFFFFF0001FFFFFF8001FFFFFFFFC000FF8001FFFFFFFFC
310
000FFF0003FFFFFFFFFC000000000FFFF000F8000000007FFFFFE0007F800700
310
07F8001FFF80007FF000000000FFFFFF800000000FFFFFF80FFFFFFFFFFFFFC0
310
7FFFFFF0001FFFFFF8000FFFFFFFF8000FF8000FFFFFFFF8000FFF0003FFFFFF
310
FFFC000000007FFFF000F800000007FFFFFFC0007F8003000FF8001FFF80007F
310
F000000007FFFFFF000000007FFFFFF80FFFFFFFFFFFFFC07FFFFFF0001FFFFF
310
F8000FFFFFFFF8000FF8000FFFFFFFF8000FFF0003FFFFFFFFF80000000FFFFF
310
F000F0000000FFFFFFFFC000FF8003000FF8001FFF80007FE0000000FFFFFFFF
310
0000000FFFFFFFF8000001FFFE0000007FFFFFF0001FFFFFF8000FFFFFFFF800
310
0FF8000FFFFFFFF8000FFF0003FFFFFFFFF8000000FFFFFFF000F000000FFFFF
310
FFFFC000FFC002000FF8000FFF80007FE000001FFFFFFFFE000001FFFFFFFFF8
310
000001FFFE0000007FFFFFF0001FFFFFF8000FFFFFFFF8000FF8000FFFFFFFF8
310
000FFF0003FFFFFFFFF000001FFFFFFFF000E00000FFFFFFFFFFC000FFC00200
310
0FFC000FFF80007FE00001FFFFFFFFFE00001FFFFFFFFFF8000001FFFE000000
310
7FFFFFF0001FFFFFFC000FFFFFFFF8001FFC000FFFFFFFF8001FFF0003FFFFFF
310
FFF00001FFFFFFFFF000E00007FFFFFFFFFF8000FFC000001FFC000FFF80007F
310
C0000FFFFFFFFFFE0000FFFFFFFFFFF8000001FFFE0000007FFFFFF0001FFFFF
310
FC0007FFFFFFF0001FFC0007FFFFFFF0001FFF0003FFFFFFFFF00007FFFFFFFF
310
F000E0001FFFFFFFFFFF8000FFC000001FFC000FFF80007FC0003FFFFFFFFFFE
310
0001FFFFFFFFFFF8000001FFFE0000007FFFFFF0001FFFFFFC0007FFFFFFF000
310
1FFC0007FFFFFFF0001FFF0003FFFFFFFFF0001FFFFFFFFFF000E0003FFFFF00
310
03FF8001FFE000001FFC0007FF80007FC0007FFFFF0007FC0003FFFFF0003FF8
310
000001FFFE0000007FFFFFF0001FFFFFFC0003FFFFFFE0001FFC0003FFFFFFE0
310
001FFF0003FFFFFFFFF0003FFFFFFFFFF000E0003FFFFF0001FF8001FFE00000
310
1FFE0007FF80007FC0007FFFFE0003FC0007FFFFE0003FF8000001FFFE000000
310
7FFFFFF0001FFFFFFE0003FFFFFFE0003FFE0003FFFFFFE0003FFF0003FFFFFF
310
FFF0003FFFFF8001F000E0003FFFFF0001FF0001FFE000001FFE0007FF80007F
310
C0007FFFFE0003FC0007FFFFE0003FF8000001FFFE0000007FFFFFF0001FFFFF
310
FE0001FFFFFFC0003FFE0001FFFFFFC0003FFF0003FFFFFFFFF0003FFFFF0001
310
F000E0003FFFFF0003FF0001FFE000003FFE0007FF80007FC0007FFFFE0003FC
310
0007FFFFE0003FF8000001FFFE0000007FFFFFF0001FFFFFFF0001FFFFFFC000
310
7FFF0001FFFFFFC0007FFF0003FFFFFFFFF0003FFFFF0001F000E0003FFFFE00
310
03FF0003FFF000003FFE0003FF80007FC0007FFFFC0003FE0007FFFFE0003FF8
310
000001FFFE0000007FFFFFF0001FFFFFFF0000FFFFFF80007FFF0000FFFFFF80
310
007FFF0003FFFFFFFFF0003FFFFF0001F000E0003FFFFE0003FF0003FFF00000
310
3FFF0003FF80007FC0007FFFFC0007FE0007FFFFC0003FF8000001FFFE000000
310
7FFFFFF0001FFFFFFF80007FFFFF0000FFFF80007FFFFF0000FFFF0003FFFFFF
310
FFF0003FFFFF0003F000E0003FFFFC0003FE0003FFF000003FFF0003FF80007F
310
E0003FFFF80007FE0003FFFFC0007FF8000001FFFE0000007FFFFFF0001FFFFF
310
FF80003FFFFE0000FFFF80003FFFFE0000FFFF0003FFFFFFFFF0001FFFFE0003
310
F000F0001FFFF80003FE0003FFF000007FFF0001FF80007FE0003FFFF00007FE
310
0001FFFF80007FF8000001FFFE0000007FFFFFF0001FFFFFFFC0000FFFF80001
310
FFFFC0000FFFF80001FFFF0003FFFFFFFFF0001FFFFC0003F000F0000FFFF000
310
07FE0007FFF800007FFF0001FF80007FE0001FFFE00007FF0000FFFE00007FF8
310
000001FFFE0000007FFFFFF0001FFFFFFFC00003FFE00001FFFFC00003FFE000
310
01FFFF0003FFFFFFFFF8000FFFF80003F000F00003FFC00007FC0007FFF80000
310
7FFF8001FF80007FF00007FF80000FFF00007FF80000FFF8000001FFFE000000
310
7F80000000000001FFE000003E000003FFFFE000003E000003FFFF0003FFFFFF
310
FFF80003FFE00007F000F800000000000FFC0007FFF800007FFF8001FF80007F
310
F000000000000FFF000000000000FFF8000001FFFE0000007F80000000000001
310
FFF0000000000007FFFFF0000000000007FFFF0003FFFFFFFFFC00007E000007
310
F000F800000000000FFC0007FFF80000FFFF8000FF80007FF800000000001FFF
310
800000000001FFF8000001FFFE0000007F80000000000001FFF800000000000F
310
FFFFF800000000000FFFFF0003FFFFFFFFFC00000000000FF000FC0000000000
310
1FFC0007FFFC0000FFFF8000FF80007FF800000000003FFFC00000000001FFF8
310
000001FFFE0000007F80000000000001FFF800000000000FFFFFF80000000000
310
0FFFFF0003FFFFFFFFFE00000000001FF000FE00000000003FF8000FFFFC0000
310
FFFF8000FF80007FFC00000000003FFFC00000000003FFF8000001FFFE000000
310
7F80000000000001FFFC00000000001FFFFFFC00000000001FFFFF0003FFFFFF
310
FFFF00000000001FF000FF00000000003FF8000FFFFC0000FFFFC000FF80007F
310
FE00000000007FFFE00000000007FFF8000001FFFE0000007F80000000000001
310
FFFE00000000003FFFFFFE00000000003FFFFF0003FFFFFFFFFF80000000003F
310
F000FF80000000007FF8000FFFFC0001FFFFC0007F80007FFF0000000000FFFF
310
F0000000000FFFF800000000000000007F80000000000001FFFF8000000000FF
310
FFFFFF8000000000FFFFFF0003FFFFFFFFFFC0000000007FF000FFC000000000
310
FFF8000FFFFE0001FFFFC0007F80007FFF8000000001FFFFF8000000001FFFF8
310
00000000000000007F80000000000001FFFFC000000001FFFFFFFFC000000001
310
FFFFFF0003FFFFFFFFFFE000000000FFF000FFE000000003FFF0001FFFFE0001
310
FFFFC0007F80007FFFC000000007FFFFFE000000003FFFF80000000000000000
310
7F80000000000001FFFFE000000003FFFFFFFFE000000003FFFFFF0003FFFFFF
310
FFFFF000000003FFF000FFF80000000FFFF0001FFFFE0001FFFFE0007F80007F
310
FFF00000000FFFFFFF00000000FFFFF800000000000000007F80000000000001
310
FFFFF80000000FFFFFFFFFF80000000FFFFFFF0003FFFFFFFFFFFC0000000FFF
310
F000FFFE0000003FFFF0001FFFFE0003FFFFE0003F80007FFFFC0000003FFFFF
310
FFC0000003FFFFF800000000000000007F80000000000001FFFFFE0000003FFF
310
FFFFFFFE0000003FFFFFFF0003FFFFFFFFFFFF0000003FFFF000FFFF800000FF
310
FFF0001FFFFF0003FFFFE0003F80007FFFFF000001FFFFFFFFF800001FFFFFF8
310
00000000000000007F80000000000001FFFFFFC00001FFFFFFFFFFFFC00001FF
310
FFFFFF0003FFFFFFFFFFFFC00000FFFFF000FFFFF8000FFFFFFFFFFFFFFFFFFF
310
FFFFFFFFFFFFFFFFFFFFF0001FFFFFFFFFFF0000FFFFFFF80000000000000000
310
7FFFFFFFFFFFFFFFFFFFFFFC001FFFFFFFFFFFFFFC001FFFFFFFFFFFFFFFFFFF
310
FFFFFFFC001FFFFFF000FFFFFFFFFFFFFFFFFFFFFFFFFFFFFFFFFFFFFFFFFFFF
310
FFFFFFFFFFFFFFFFFFFFFFFFFFFFFFFFFFFFFFFFFFFFFFFFFFFFFFFFFFFFFFFF
310
FFFFFFFFFFFFFFFFFFFFFFFFFFFFFFFFFFFFFFFFFFFFFFFFFFFFFFFFFFFFFFFF
310
F000FFFFFFFFFFFFFFFFFFFFFFFFFFFFFFFFFFFFFFFFFFFFFFFFFFFFFFFFFFFF
310
FFFFFFFFFFFFFFFFFFFFFFFFFFFFFFFFFFFFFFFFFFFFFFFFFFFFFFFFFFFFFFFF
310
FFFFFFFFFFFFFFFFFFFFFFFFFFFFFFFFFFFFFFFFFFFFFFFFF000FFFFFFFFFFFF
310
FFFFFFFFFFFFFFFFFFFFFFFFFFFFFFFFFFFFFFFFFFFFFFFFFFFFFFFFFFFFFFFF
310
FFFFFFFFFFFFFFFFFFFFFFFFFFFFFFFFFFFFFFFFFFFFFFFFFFFFFFFFFFFFFFFF
310
FFFFFFFFFFFFFFFFFFFFFFFFFFFFFFFFF000FFFFFFFFFFFFFFFFFFFFFFFFFFFF
310
FFFFFFFFFFFFFFFFFFFFFFFFFFFFFFFFFFFFFFFFFFFFFFFFFFFFFFFFFFFFFFFF
310
FFFFFFFFFFFFFFFFFFFFFFFFFFFFFFFFFFFFFFFFFFFFFFFFFFFFFFFFFFFFFFFF
310
FFFFFFFFFFFFFFFFF000FFFFFFFFFFFFFFFFFFFFFFFFFFFFFFFFFFFFFFFFFFFF
310
FFFFFFFFFFFFFFFFFFFFFFFFFFFFFFFFFFFFFFFFFFFFFFFFFFFFFFFFFFFFFFFF
310
FFFFFFFFFFFFFFFFFFFFFFFFFFFFFFFFFFFFFFFFFFFFFFFFFFFFFFFFFFFFFFFF
310
F000FFFFFFFFFFFFFFFFFFFFFFFFFFFFFFFFFFFFFFFFFFFFFFFFFFFFFFFFFFFF
310
FFFFFFFFFFFFFFFFFFFFFFFFFFFFFFFFFFFFFFFFFFFFFFFFFFFFFFFFFFFFFFFF
310
FFFFFFFFFFFFFFFFFFFFFFFFFFFFFFFFFFFFFFFFFFFFFFFFF000FFFFFFFFFFFF
310
FFFFFFFFFFFFFFFFFFFFFFFFFFFFFFFFFFFFFFFFFFFFFFFFFFFFFFFFFFFFFFFF
310
FFFFFFFFFFFFFFFFFFFFFFFFFFFFFFFFFFFFFFFFFFFFFFFFFFFFFFFFFFFFFFFF
310
FFFFFFFFFFFFFFFFFFFFFFFFFFFFFFFFF000FFFFFFFFFFFFFFFFFFFFFFFFFFFF
310
FFFFFFFFFFFFFFFFFFFFFFFFFFFFFFFFFFFFFFFFFFFFFFFFFFFFFFFFFFFFFFFF
310
FFFFFFFFFFFFFFFFFFFFFFFFFFFFFFFFFFFFFFFFFFFFFFFFFFFFFFFFFFFFFFFF
310
FFFFFFFFFFFFFFFFF000FFFFFFFFFFFFFFFFFFFFFFFFFFFFFFFFFFFFFFFFFFFF
310
FFFFFFFFFFFFFFFFFFFFFFFFFFFFFFFFFFFFFFFFFFFFFFFFFFFFFFFFFFFFFFFF
310
FFFFFFFFFFFFFFFFFFFFFFFFFFFFFFFFFFFFFFFFFFFFFFFFFFFFFFFFFFFFFFFF
310
F000FFFFFFFFFFFFFFFFFFFFFFFFFFFFFFFFFFFFFFFFFFFFFFFFFFFFFFFFFFFF
310
FFFFFFFFFFFFFFFFFFFFFFFFFFFFFFFFFFFFFFFFFFFFFFFFFFFFFFFFFFFFFFFF
310
FFFFFFFFFFFFFFFFFFFFFFFFFFFFFFFFFFFFFFFFFFFFFFFFF000FFFFFFFFFFFF
310
FFFFFFFFFFFFFFFFFFFFFFFFFFFFFFFFFFFFFFFFFFFFFFFFFFFFFFFFFFFFFFFF
310
FFFFFFFFFFFFFFFFFFFFFFFFFFFFFFFFFFFFFFFFFFFFFFFFFFFFFFFFFFFFFFFF
310
FFFFFFFFFFFFFFFFFFFFFFFFFFFFFFFFF000FFFFFFFFFFFFFFFFFFFFFFFFFFFF
310
FFFFFFFFFFFFFFFFFFFFFFFFFFFFFFFFFFFFFFFFFFFFFFFFFFFFFFFFFFFFFFFF
310
FFFFFFFFFFFFFFFFFFFFFFFFFFFFFFFFFFFFFFFFFFFFFFFFFFFFFFFFFFFFFFFF
310
FFFFFFFFFFFFFFFFF000FFFFFFFFFFFFFFFFFFFFFFFFFFFFFFFFFFFFFFFFFFFF
310
FFFFFFFFFFFFFFFFFFFFFFFFFFFFFFFFFFFFFFFFFFFFFFFFFFFFFFFFFFFFFFFF
310
FFFFFFFFFFFFFFFFFFFFFFFFFFFFFFFFFFFFFFFFFFFFFFFFFFFFFFFFFFFFFFFF
310
F000FFFFFFFFFFFFFFFFFFFFFFFFFFFFFFFFFFFFFFFFFFFFFFFFFFFFFFFFFFFF
310
FFFFFFFFFFFFFFFFFFFFFFFFFFFFFFFFFFFFFFFFFFFFFFFFFFFFFFFFFFFFFFFF
310
FFFFFFFFFFFFFFFFFFFFFFFFFFFFFFFFFFFFFFFFFFFFFFFFF000FFFFFFFFFFFF
310
FFFFFFFFFFFFFFFFFFFFFFFFFFFFFFFFFFFFFFFFFFFFFFFFFFFFFFFFFFFFFFFF
310
FFFFFFFFFFFFFFFFFFFFFFFFFFFFFFFFFFFFFFFFFFFFFFFFFFFFFFFFFFFFFFFF
310
FFFFFFFFFFFFFFFFFFFFFFFFFFFFFFFFF000FFFFFFFFFFFFFFFFFFFFFFFFFFFF
310
FFFFFFFFFFFFFFFFFFFFFFFFFFFFFFFFFFFFFFFFFFFFFFFFFFFFFFFFFFFFFFFF
310
FFFFFFFFFFFFFFFFFFFFFFFFFFFFFFFFFFFFFFFFFFFFFFFFFFFFFFFFFFFFFFFF
310
FFFFFFFFFFFFFFFFF000FFFFFFFFFFFFFFFFFFFFFFFFFFFFFFFFFFFFFFFFFFFF
310
FFFFFFFFFFFFFFFFFFFFFFFFFFFFFFFFFFFFFFFFFFFFFFFFFFFFFFFFFFFFFFFF
310
FFFFFFFFFFFFFFFFFFFFFFFFFFFFFFFFFFFFFFFFFFFFFFFFFFFFFFFFFFFFFFFF
310
F000FFFFFFFFFFFFFFFFFFFFFFFFFFFFFFFFFFFFFFFFFFFFFFFFFFFFFFFFFFFF
310
FFFFFFFFFFFFFFFFFFFFFFFFFFFFFFFFFFFFFFFFFFFFFFFFFFFFFFFFFFFFFFFF
310
FFFFFFFFFFFFFFFFFFFFFFFFFFFFFFFFFFFFFFFFFFFFFFFFF000FFFFFFFFFFFF
310
FFFFFFFFFFFFFFFFFFFFFFFFFFFFFFFFFFFFFFFFFFFFFFFFFFFFFFFFFFFFFFFF
310
FFFFFFFFFFFFFFFFFFFFFFFFFFFFFFFFFFFFFFFFFFFFFFFFFFFFFFFFFFFFFFFF
310
FFFFFFFFFFFFFFFFFFFFFFFFFFFFFFFFF000FFFFFFFFFFFFFFFFFFFFFFFFFFFF
310
FFFFFFFFFFFFFFFFFFFFFFFFFFFFFFFFFFFFFFFFFFFFFFFFFFFFFFFFFFFFFFFF
310
FFFFFFFFFFFFFFFFFFFFFFFFFFFFFFFFFFFFFFFFFFFFFFFFFFFFFFFFFFFFFFFF
310
FFFFFFFFFFFFFFFFF000FFFFFFFFFFFFFFFFFFFFFFFFFFFFFFFFFFFFFFFFFFFF
310
FFFFFFFFFFFFFFFFFFFFFFFFFFFFFFFFFFFFFFFFFFFFFFFFFFFFFFFFFFFFFFFF
310
FFFFFFFFFFFFFFFFFFFFFFFFFFFFFFFFFFFFFFFFFFFFFFFFFFFFFFFFFFFFFFFF
310
F000FFFFFFFFFFFFFFFFFFFFFFFFFFFFFFFFFFFFFFFFFFFFFFFFFFFFFFFFFFFF
310
FFFFFFFFFFFFFFFFFFFFFFFFFFFFFFFFFFFFFFFFFFFFFFFFFFFFFFFFFFFFFFFF
310
FFFFFFFFFFFFFFFFFFFFFFFFFFFFFFFFFFFFFFFFFFFFFFFFF000FFFFFFFFFFFF
310
FFFFFFFFFFFFFFFFFFFFFFFFFFFFFFFFFFFFFFFFFFFFFFFFFFFFFFFFFFFFFFFF
310
FFFFFFFFFFFFFFFFFFFFFFFFFFFFFFFFFFFFFFFFFFFFFFFFFFFFFFFFFFFFFFFF
310
FFFFFFFFFFFFFFFFFFFFFFFFFFFFFFFFF0000000000000000000000000000000
310
0000000000000000000000000000000000000000000000000000000000000000
310
0000000000000000000000000000000000000000000000000000000000000000
310
0000000000000000000000000000000000000000000000000000000000000000
310
0000000000000000000000000000000000000000000000000000000000000000
310
0000000000000000000000000000000000000000000000000000000000000000
310
0000000000000000000000000000000000000000000000000000000000000000
310
0000000000000000000000000000000000000000000000000000000000000000
310
0000000000000000000000000000000000000000000000000000000000000000
310
0000000000000000000000000000000000000000000000000000000000000000
310
0000000000000000000000000000000000000000000000000000000000000000
310
0000000000000000000000000000000000000000000000000000000000000000
310
0000000000000000000000000000000000000000000000000000000000000000
310
0000000000000000000000000000000000000000000000000000000000000000
310
0000000000000000000000000000000000000000000000000000000000000000
310
0000000000000000000000000000000000000000000000000000000000000000
  1
OLE
  0
ENDSEC
  0
SECTION
  2
OBJECTS
  0
DICTIONARY
  5
C
330
0
100
AcDbDictionary
281
     1
  3
ACAD_GROUP
350
D
  3
ACAD_LAYOUT
350
1A
  3
ACAD_MLINESTYLE
350
17
  3
ACAD_PLOTSETTINGS
350
19
  3
ACAD_PLOTSTYLENAME
350
E
  3
ACAD_SCALELIST
350
47
  0
DICTIONARY
  5
D
102
{ACAD_REACTORS
330
C
102
}
330
C
100
AcDbDictionary
281
     1
  0
DICTIONARY
  5
1A
102
{ACAD_REACTORS
330
C
102
}
330
C
100
AcDbDictionary
281
     1
  3
Layout1
350
1E
  3
Layout2
350
26
  3
Model
350
22
  0
DICTIONARY
  5
17
102
{ACAD_REACTORS
330
C
102
}
330
C
100
AcDbDictionary
281
     1
  3
Standard
350
18
  0
DICTIONARY
  5
19
102
{ACAD_REACTORS
330
C
102
}
330
C
100
AcDbDictionary
281
     1
  0
ACDBDICTIONARYWDFLT
  5
E
102
{ACAD_REACTORS
330
C
102
}
330
C
100
AcDbDictionary
281
     1
  3
Normal
350
F
100
AcDbDictionaryWithDefault
340
F
  0
DICTIONARY
  5
47
102
{ACAD_REACTORS
330
C
102
}
330
C
100
AcDbDictionary
281
     1
  3
A0
350
48
  3
A1
350
49
  3
A2
350
4A
  3
A3
350
4B
  3
A4
350
4C
  3
A5
350
4D
  3
A6
350
4E
  3
A7
350
4F
  3
A8
350
50
  3
A9
350
51
  3
B0
350
52
  3
B1
350
53
  3
B2
350
54
  3
B3
350
55
  3
B4
350
56
  3
B5
350
57
  3
B6
350
58
  3
B7
350
59
  3
B8
350
5A
  3
B9
350
5B
  3
C0
350
5C
  3
C1
350
5D
  3
C2
350
5E
  3
C3
350
5F
  3
C4
350
60
  3
C5
350
61
  3
C6
350
62
  3
C7
350
63
  3
C8
350
64
  3
C9
350
65
  3
D0
350
66
  3
D1
350
67
  3
D2
350
68
  0
LAYOUT
  5
1E
102
{ACAD_REACTORS
330
1A
102
}
330
1A
100
AcDbPlotSettings
  1

  2
none_device
  4

  6

 40
0.0
 41
0.0
 42
0.0
 43
0.0
 44
0.0
 45
0.0
 46
0.0
 47
0.0
 48
0.0
 49
0.0
140
0.0
141
0.0
142
1.0
143
1.0
 70
   688
 72
     1
 73
     0
 74
     5
  7

 75
    16
147
1.0
148
0.0
149
0.0
100
AcDbLayout
  1
Layout1
 70
     1
 71
     1
 10
0.0
 20
0.0
 11
420.0
 21
297.0
 12
0.0
 22
0.0
 32
0.0
 14
1.0000000000E+20
 24
1.0000000000E+20
 34
1.0000000000E+20
 15
-1.0000000000E+20
 25
-1.0000000000E+20
 35
-1.0000000000E+20
146
0.0
 13
0.0
 23
0.0
 33
0.0
 16
1.0
 26
0.0
 36
0.0
 17
0.0
 27
1.0
 37
0.0
 76
     0
330
1B
  0
LAYOUT
  5
26
102
{ACAD_REACTORS
330
1A
102
}
330
1A
100
AcDbPlotSettings
  1

  2
none_device
  4

  6

 40
0.0
 41
0.0
 42
0.0
 43
0.0
 44
0.0
 45
0.0
 46
0.0
 47
0.0
 48
0.0
 49
0.0
140
0.0
141
0.0
142
1.0
143
1.0
 70
   688
 72
     1
 73
     0
 74
     5
  7

 75
    16
147
1.0
148
0.0
149
0.0
100
AcDbLayout
  1
Layout2
 70
     1
 71
     2
 10
0.0
 20
0.0
 11
0.0
 21
0.0
 12
0.0
 22
0.0
 32
0.0
 14
0.0
 24
0.0
 34
0.0
 15
0.0
 25
0.0
 35
0.0
146
0.0
 13
0.0
 23
0.0
 33
0.0
 16
1.0
 26
0.0
 36
0.0
 17
0.0
 27
1.0
 37
0.0
 76
     0
330
23
  0
LAYOUT
  5
22
102
{ACAD_REACTORS
330
1A
102
}
330
1A
100
AcDbPlotSettings
  1

  2
none_device
  4
Letter_(8.50_x_11.00_Inches)
  6

 40
6.35
 41
6.35
 42
6.35000508
 43
6.35000508
 44
215.9
 45
279.4
 46
0.0
 47
0.0
 48
0.0
 49
0.0
140
0.0
141
0.0
142
1.0
143
1.0
 70
  1712
 72
     1
 73
     0
 74
     0
  7

 75
     0
147
1.0
148
0.0
149
0.0
100
AcDbLayout
  1
Model
 70
     1
 71
     0
 10
0.0
 20
0.0
 11
297.0
 21
210.0
 12
0.0
 22
0.0
 32
0.0
 14
0.0
 24
0.0
 34
0.0
 15
297.0
 25
210.0
 35
0.0
146
0.0
 13
0.0
 23
0.0
 33
0.0
 16
1.0
 26
0.0
 36
0.0
 17
0.0
 27
1.0
 37
0.0
 76
     0
330
1F
331
29
  0
MLINESTYLE
  5
18
102
{ACAD_REACTORS
330
17
102
}
330
17
100
AcDbMlineStyle
  2
Standard
 70
     0
  3

 62
   256
 51
90.0
 52
90.0
 71
     2
 49
0.5
 62
   256
  6
BYLAYER
 49
-0.5
 62
   256
  6
BYLAYER
  0
ACDBPLACEHOLDER
  5
F
102
{ACAD_REACTORS
330
E
102
}
330
E
  0
SCALE
  5
48
102
{ACAD_REACTORS
330
47
102
}
330
47
100
AcDbScale
 70
     0
300
1:1
140
1.0
141
1.0
290
     1
  0
SCALE
  5
49
102
{ACAD_REACTORS
330
47
102
}
330
47
100
AcDbScale
 70
     0
300
1:2
140
1.0
141
2.0
290
     0
  0
SCALE
  5
4A
102
{ACAD_REACTORS
330
47
102
}
330
47
100
AcDbScale
 70
     0
300
1:4
140
1.0
141
4.0
290
     0
  0
SCALE
  5
4B
102
{ACAD_REACTORS
330
47
102
}
330
47
100
AcDbScale
 70
     0
300
1:5
140
1.0
141
5.0
290
     0
  0
SCALE
  5
4C
102
{ACAD_REACTORS
330
47
102
}
330
47
100
AcDbScale
 70
     0
300
1:8
140
1.0
141
8.0
290
     0
  0
SCALE
  5
4D
102
{ACAD_REACTORS
330
47
102
}
330
47
100
AcDbScale
 70
     0
300
1:10
140
1.0
141
10.0
290
     0
  0
SCALE
  5
4E
102
{ACAD_REACTORS
330
47
102
}
330
47
100
AcDbScale
 70
     0
300
1:16
140
1.0
141
16.0
290
     0
  0
SCALE
  5
4F
102
{ACAD_REACTORS
330
47
102
}
330
47
100
AcDbScale
 70
     0
300
1:20
140
1.0
141
20.0
290
     0
  0
SCALE
  5
50
102
{ACAD_REACTORS
330
47
102
}
330
47
100
AcDbScale
 70
     0
300
1:30
140
1.0
141
30.0
290
     0
  0
SCALE
  5
51
102
{ACAD_REACTORS
330
47
102
}
330
47
100
AcDbScale
 70
     0
300
1:40
140
1.0
141
40.0
290
     0
  0
SCALE
  5
52
102
{ACAD_REACTORS
330
47
102
}
330
47
100
AcDbScale
 70
     0
300
1:50
140
1.0
141
50.0
290
     0
  0
SCALE
  5
53
102
{ACAD_REACTORS
330
47
102
}
330
47
100
AcDbScale
 70
     0
300
1:100
140
1.0
141
100.0
290
     0
  0
SCALE
  5
54
102
{ACAD_REACTORS
330
47
102
}
330
47
100
AcDbScale
 70
     0
300
2:1
140
2.0
141
1.0
290
     0
  0
SCALE
  5
55
102
{ACAD_REACTORS
330
47
102
}
330
47
100
AcDbScale
 70
     0
300
4:1
140
4.0
141
1.0
290
     0
  0
SCALE
  5
56
102
{ACAD_REACTORS
330
47
102
}
330
47
100
AcDbScale
 70
     0
300
8:1
140
8.0
141
1.0
290
     0
  0
SCALE
  5
57
102
{ACAD_REACTORS
330
47
102
}
330
47
100
AcDbScale
 70
     0
300
10:1
140
10.0
141
1.0
290
     0
  0
SCALE
  5
58
102
{ACAD_REACTORS
330
47
102
}
330
47
100
AcDbScale
 70
     0
300
100:1
140
100.0
141
1.0
290
     0
  0
SCALE
  5
59
102
{ACAD_REACTORS
330
47
102
}
330
47
100
AcDbScale
 70
     0
300
1/128" = 1'-0"
140
0.0078125
141
12.0
290
     0
  0
SCALE
  5
5A
102
{ACAD_REACTORS
330
47
102
}
330
47
100
AcDbScale
 70
     0
300
1/64" = 1'-0"
140
0.015625
141
12.0
290
     0
  0
SCALE
  5
5B
102
{ACAD_REACTORS
330
47
102
}
330
47
100
AcDbScale
 70
     0
300
1/32" = 1'-0"
140
0.03125
141
12.0
290
     0
  0
SCALE
  5
5C
102
{ACAD_REACTORS
330
47
102
}
330
47
100
AcDbScale
 70
     0
300
1/16" = 1'-0"
140
0.0625
141
12.0
290
     0
  0
SCALE
  5
5D
102
{ACAD_REACTORS
330
47
102
}
330
47
100
AcDbScale
 70
     0
300
3/32" = 1'-0"
140
0.09375
141
12.0
290
     0
  0
SCALE
  5
5E
102
{ACAD_REACTORS
330
47
102
}
330
47
100
AcDbScale
 70
     0
300
1/8" = 1'-0"
140
0.125
141
12.0
290
     0
  0
SCALE
  5
5F
102
{ACAD_REACTORS
330
47
102
}
330
47
100
AcDbScale
 70
     0
300
3/16" = 1'-0"
140
0.1875
141
12.0
290
     0
  0
SCALE
  5
60
102
{ACAD_REACTORS
330
47
102
}
330
47
100
AcDbScale
 70
     0
300
1/4" = 1'-0"
140
0.25
141
12.0
290
     0
  0
SCALE
  5
61
102
{ACAD_REACTORS
330
47
102
}
330
47
100
AcDbScale
 70
     0
300
3/8" = 1'-0"
140
0.375
141
12.0
290
     0
  0
SCALE
  5
62
102
{ACAD_REACTORS
330
47
102
}
330
47
100
AcDbScale
 70
     0
300
1/2" = 1'-0"
140
0.5
141
12.0
290
     0
  0
SCALE
  5
63
102
{ACAD_REACTORS
330
47
102
}
330
47
100
AcDbScale
 70
     0
300
3/4" = 1'-0"
140
0.75
141
12.0
290
     0
  0
SCALE
  5
64
102
{ACAD_REACTORS
330
47
102
}
330
47
100
AcDbScale
 70
     0
300
1" = 1'-0"
140
1.0
141
12.0
290
     0
  0
SCALE
  5
65
102
{ACAD_REACTORS
330
47
102
}
330
47
100
AcDbScale
 70
     0
300
1-1/2" = 1'-0"
140
1.5
141
12.0
290
     0
  0
SCALE
  5
66
102
{ACAD_REACTORS
330
47
102
}
330
47
100
AcDbScale
 70
     0
300
3" = 1'-0"
140
3.0
141
12.0
290
     0
  0
SCALE
  5
67
102
{ACAD_REACTORS
330
47
102
}
330
47
100
AcDbScale
 70
     0
300
6" = 1'-0"
140
6.0
141
12.0
290
     0
  0
SCALE
  5
68
102
{ACAD_REACTORS
330
47
102
}
330
47
100
AcDbScale
 70
     0
300
1'-0" = 1'-0"
140
12.0
141
12.0
290
     0
  0
ENDSEC
  0
EOF
