  0
SECTION
  2
HEADER
  9
$ACADVER
  1
AC1014
  9
$ACADMAINTVER
 70
     9
  9
$DWGCODEPAGE
  3
ANSI_1252
  9
$INSBASE
 10
0.0
 20
0.0
 30
0.0
  9
$EXTMIN
 10
-44.89767329956009
 20
-46.64583717623997
 30
-0.0000000000000053
  9
$EXTMAX
 10
158.9712140913026
 20
49.70272783867881
 30
0.0000000000000099
  9
$LIMMIN
 10
0.0
 20
0.0
  9
$LIMMAX
 10
420.0
 20
297.0
  9
$ORTHOMODE
 70
     0
  9
$REGENMODE
 70
     1
  9
$FILLMODE
 70
     1
  9
$QTEXTMODE
 70
     0
  9
$MIRRTEXT
 70
     1
  9
$DRAGMODE
 70
     2
  9
$LTSCALE
 40
1.0
  9
$OSMODE
 70
    37
  9
$ATTMODE
 70
     1
  9
$TEXTSIZE
 40
2.5
  9
$TRACEWID
 40
1.0
  9
$TEXTSTYLE
  7
STANDARD
  9
$CLAYER
  8
2
  9
$CELTYPE
  6
BYLAYER
  9
$CECOLOR
 62
   256
  9
$CELTSCALE
 40
1.0
  9
$DELOBJ
 70
     1
  9
$DISPSILH
 70
     0
  9
$DIMSCALE
 40
1.0
  9
$DIMASZ
 40
4.57
  9
$DIMEXO
 40
0.0
  9
$DIMDLI
 40
2.299999999999998
  9
$DIMRND
 40
0.0
  9
$DIMDLE
 40
0.0
  9
$DIMEXE
 40
2.5
  9
$DIMTP
 40
0.1
  9
$DIMTM
 40
0.1
  9
$DIMTXT
 40
4.57
  9
$DIMCEN
 40
2.0
  9
$DIMTSZ
 40
0.0
  9
$DIMTOL
 70
     0
  9
$DIMLIM
 70
     0
  9
$DIMTIH
 70
     0
  9
$DIMTOH
 70
     0
  9
$DIMSE1
 70
     0
  9
$DIMSE2
 70
     0
  9
$DIMTAD
 70
     1
  9
$DIMZIN
 70
     8
  9
$DIMBLK
  1

  9
$DIMASO
 70
     1
  9
$DIMSHO
 70
     1
  9
$DIMPOST
  1

  9
$DIMAPOST
  1

  9
$DIMALT
 70
     0
  9
$DIMALTD
 70
     2
  9
$DIMALTF
 40
25.4
  9
$DIMLFAC
 40
1.0
  9
$DIMTOFL
 70
     1
  9
$DIMTVP
 40
0.0
  9
$DIMTIX
 70
     0
  9
$DIMSOXD
 70
     0
  9
$DIMSAH
 70
     0
  9
$DIMBLK1
  1

  9
$DIMBLK2
  1

  9
$DIMSTYLE
  2
GEN-ISO_TDM
  9
$DIMCLRD
 70
     0
  9
$DIMCLRE
 70
     0
  9
$DIMCLRT
 70
     7
  9
$DIMTFAC
 40
0.7
  9
$DIMGAP
 40
1.5
  9
$DIMJUST
 70
     0
  9
$DIMSD1
 70
     0
  9
$DIMSD2
 70
     0
  9
$DIMTOLJ
 70
     1
  9
$DIMTZIN
 70
     8
  9
$DIMALTZ
 70
     8
  9
$DIMALTTZ
 70
     8
  9
$DIMFIT
 70
     3
  9
$DIMUPT
 70
     0
  9
$DIMUNIT
 70
     2
  9
$DIMDEC
 70
     2
  9
$DIMTDEC
 70
     2
  9
$DIMALTU
 70
     2
  9
$DIMALTTD
 70
     2
  9
$DIMTXSTY
  7
GENPRESET
  9
$DIMAUNIT
 70
     0
  9
$LUNITS
 70
     2
  9
$LUPREC
 70
     2
  9
$SKETCHINC
 40
1.0
  9
$FILLETRAD
 40
10.0
  9
$AUNITS
 70
     0
  9
$AUPREC
 70
     0
  9
$MENU
  1
.
  9
$ELEVATION
 40
0.0
  9
$PELEVATION
 40
0.0
  9
$THICKNESS
 40
0.0
  9
$LIMCHECK
 70
     0
  9
$BLIPMODE
 70
     0
  9
$CHAMFERA
 40
10.0
  9
$CHAMFERB
 40
10.0
  9
$CHAMFERC
 40
20.0
  9
$CHAMFERD
 40
0.0
  9
$SKPOLY
 70
     0
  9
$TDCREATE
 40
2454356.432454675
  9
$TDUPDATE
 40
2454505.475812859
  9
$TDINDWG
 40
0.1958573958
  9
$TDUSRTIMER
 40
0.1958568519
  9
$USRTIMER
 70
     1
  9
$ANGBASE
 50
0.0
  9
$ANGDIR
 70
     0
  9
$PDMODE
 70
     0
  9
$PDSIZE
 40
-1.0
  9
$PLINEWID
 40
0.0
  9
$COORDS
 70
     1
  9
$SPLFRAME
 70
     0
  9
$SPLINETYPE
 70
     6
  9
$SPLINESEGS
 70
     8
  9
$ATTDIA
 70
     0
  9
$ATTREQ
 70
     1
  9
$HANDLING
 70
 22529
  9
$HANDSEED
  5
156B
  9
$SURFTAB1
 70
     6
  9
$SURFTAB2
 70
     6
  9
$SURFTYPE
 70
     6
  9
$SURFU
 70
     6
  9
$SURFV
 70
     6
  9
$UCSNAME
  2

  9
$UCSORG
 10
0.0
 20
0.0
 30
0.0
  9
$UCSXDIR
 10
1.0
 20
0.0
 30
0.0
  9
$UCSYDIR
 10
0.0
 20
1.0
 30
0.0
  9
$PUCSNAME
  2

  9
$PUCSORG
 10
0.0
 20
0.0
 30
0.0
  9
$PUCSXDIR
 10
1.0
 20
0.0
 30
0.0
  9
$PUCSYDIR
 10
0.0
 20
1.0
 30
0.0
  9
$USERI1
 70
     0
  9
$USERI2
 70
     0
  9
$USERI3
 70
     0
  9
$USERI4
 70
     0
  9
$USERI5
 70
     0
  9
$USERR1
 40
0.0
  9
$USERR2
 40
0.0
  9
$USERR3
 40
0.0
  9
$USERR4
 40
0.0
  9
$USERR5
 40
0.0
  9
$WORLDVIEW
 70
     1
  9
$SHADEDGE
 70
     3
  9
$SHADEDIF
 70
    70
  9
$TILEMODE
 70
     1
  9
$MAXACTVP
 70
    64
  9
$PINSBASE
 10
0.0
 20
0.0
 30
0.0
  9
$PLIMCHECK
 70
     0
  9
$PEXTMIN
 10
1.000000000000000E+20
 20
1.000000000000000E+20
 30
1.000000000000000E+20
  9
$PEXTMAX
 10
-1.000000000000000E+20
 20
-1.000000000000000E+20
 30
-1.000000000000000E+20
  9
$PLIMMIN
 10
0.0
 20
0.0
  9
$PLIMMAX
 10
420.0
 20
297.0
  9
$UNITMODE
 70
     0
  9
$VISRETAIN
 70
     1
  9
$PLINEGEN
 70
     0
  9
$PSLTSCALE
 70
     1
  9
$TREEDEPTH
 70
  3020
  9
$PICKSTYLE
 70
     1
  9
$CMLSTYLE
  2
STANDARD
  9
$CMLJUST
 70
     0
  9
$CMLSCALE
 40
20.0
  9
$PROXYGRAPHICS
 70
     1
  9
$MEASUREMENT
 70
     1
  0
ENDSEC
  0
SECTION
  2
CLASSES
  0
CLASS
  1
ACDBDICTIONARYWDFLT
  2
AcDbDictionaryWithDefault
  3
AutoCAD 2000
 90
        0
280
     0
281
     0
  0
CLASS
  1
ACDBPLACEHOLDER
  2
AcDbPlaceHolder
  3
AutoCAD 2000
 90
        0
280
     0
281
     0
  0
CLASS
  1
LAYOUT
  2
AcDbLayout
  3
AutoCAD 2000
 90
        0
280
     0
281
     0
  0
CLASS
  1
DICTIONARYVAR
  2
AcDbDictionaryVar
  3
AutoCAD 2000
 90
        0
280
     0
281
     0
  0
CLASS
  1
LONG_TRANSACTION
  2
AcDbLongTransaction
  3
AutoCAD 2000
 90
        0
280
     0
281
     0
  0
CLASS
  1
LWPOLYLINE
  2
AcDbPolyline
  3
AutoCAD 2000
 90
        0
280
     0
281
     1
  0
CLASS
  1
HATCH
  2
AcDbHatch
  3
AutoCAD 2000
 90
        0
280
     0
281
     1
  0
CLASS
  1
XRECORD
  2
AcDbXrecord
  3
AutoCAD 2000
 90
        0
280
     0
281
     0
  0
ENDSEC
  0
SECTION
  2
TABLES
  0
TABLE
  2
VPORT
  5
8
330
0
100
AcDbSymbolTable
 70
    10
  0
VPORT
  5
1543
330
8
100
AcDbSymbolTableRecord
100
AcDbViewportTableRecord
  2
*ACTIVE
 70
     0
 10
0.0
 20
0.0
 11
1.0
 21
1.0
 12
-90.09447285152864
 22
-84.7313249046806
 13
0.0
 23
0.0
 14
10.0
 24
10.0
 15
10.0
 25
10.0
 16
0.0
 26
0.0
 36
1.0
 17
147.1312432473999
 27
86.25977023590001
 37
0.0
 40
131.4706998253632
 41
1.558227848101265
 42
50.0
 43
0.0
 44
0.0
 50
0.0
 51
0.0
 71
     0
 72
  2000
 73
     1
 74
     3
 75
     0
 76
     0
 77
     0
 78
     0
  0
ENDTAB
  0
TABLE
  2
LTYPE
  5
5
330
0
100
AcDbSymbolTable
 70
    12
  0
LTYPE
  5
14
330
5
100
AcDbSymbolTableRecord
100
AcDbLinetypeTableRecord
  2
BYBLOCK
 70
     0
  3

 72
    65
 73
     0
 40
0.0
  0
LTYPE
  5
15
330
5
100
AcDbSymbolTableRecord
100
AcDbLinetypeTableRecord
  2
BYLAYER
 70
     0
  3

 72
    65
 73
     0
 40
0.0
  0
LTYPE
  5
16
330
5
100
AcDbSymbolTableRecord
100
AcDbLinetypeTableRecord
  2
CONTINUOUS
 70
     0
  3
Solid line
 72
    65
 73
     0
 40
0.0
  0
LTYPE
  5
2A
330
5
100
AcDbSymbolTableRecord
100
AcDbLinetypeTableRecord
  2
SLD-DURCHGEHEND
 70
     0
  3
SolidWorks Line Style
 72
    65
 73
     0
 40
0.0
  0
LTYPE
  5
2B
330
5
100
AcDbSymbolTableRecord
100
AcDbLinetypeTableRecord
  2
SLD-GESTRICHELT
 70
     0
  3
SolidWorks Line Style
 72
    65
 73
     2
 40
1.905
 49
1.27
 74
     0
 49
-0.635
 74
     0
  0
LTYPE
  5
2C
330
5
100
AcDbSymbolTableRecord
100
AcDbLinetypeTableRecord
  2
SLD-PHANTOM
 70
     0
  3
SolidWorks Line Style
 72
    65
 73
     6
 40
12.7
 49
6.349999999999997
 74
     0
 49
-1.27
 74
     0
 49
1.27
 74
     0
 49
-1.27
 74
     0
 49
1.27
 74
     0
 49
-1.27
 74
     0
  0
LTYPE
  5
2D
330
5
100
AcDbSymbolTableRecord
100
AcDbLinetypeTableRecord
  2
SLD-KETTE
 70
     0
  3
SolidWorks Line Style
 72
    65
 73
     4
 40
10.16
 49
6.349999999999997
 74
     0
 49
-1.27
 74
     0
 49
1.27
 74
     0
 49
-1.27
 74
     0
  0
LTYPE
  5
2E
330
5
100
AcDbSymbolTableRecord
100
AcDbLinetypeTableRecord
  2
SLD-PUNKTSTRICH
 70
     0
  3
SolidWorks Line Style
 72
    65
 73
     4
 40
19.05
 49
15.24
 74
     0
 49
-1.27
 74
     0
 49
1.27
 74
     0
 49
-1.27
 74
     0
  0
LTYPE
  5
2F
330
5
100
AcDbSymbolTableRecord
100
AcDbLinetypeTableRecord
  2
SLD-NAHT
 70
     0
  3
SolidWorks Line Style
 72
    65
 73
     2
 40
0.635
 49
0.0
 74
     0
 49
-0.635
 74
     0
  0
LTYPE
  5
30
330
5
100
AcDbSymbolTableRecord
100
AcDbLinetypeTableRecord
  2
SLD-DICKE-DÜNNE-KETTE
 70
     0
  3
SolidWorks Line Style
 72
    65
 73
     4
 40
10.16
 49
6.349999999999997
 74
     0
 49
-1.27
 74
     0
 49
1.27
 74
     0
 49
-1.27
 74
     0
  0
LTYPE
  5
1CF
330
5
100
AcDbSymbolTableRecord
100
AcDbLinetypeTableRecord
  2
GEN7A
 70
     0
  3
__ . __ . __
 72
    65
 73
     4
 40
7.5
 49
5.0
 74
     0
 49
-1.25
 74
     0
 49
0.0
 74
     0
 49
-1.25
 74
     0
  0
LTYPE
  5
1D3
330
5
100
AcDbSymbolTableRecord
100
AcDbLinetypeTableRecord
  2
GEN3A
 70
     0
  3
 - - - - -
 72
    65
 73
     2
 40
3.1
 49
2.5
 74
     0
 49
-0.6
 74
     0
  0
LTYPE
  5
91C
330
5
100
AcDbSymbolTableRecord
100
AcDbLinetypeTableRecord
  2
GEN7
 70
     0
  3
____ . ____ . ____ . ____ . ____ . ____ . ____
 72
    65
 73
     4
 40
15.0
 49
10.0
 74
     0
 49
-2.5
 74
     0
 49
0.0
 74
     0
 49
-2.5
 74
     0
  0
LTYPE
  5
91D
330
5
100
AcDbSymbolTableRecord
100
AcDbLinetypeTableRecord
  2
HIDDEN
 70
     0
  3
_ 
 72
    65
 73
     3
 40
4.5
 49
1.5
 74
     0
 49
-1.5
 74
     0
 49
1.5
 74
     0
  0
ENDTAB
  0
TABLE
  2
LAYER
  5
2
102
{ACAD_XDICTIONARY
360
26A
102
}
330
0
100
AcDbSymbolTable
 70
    17
  0
LAYER
  5
10
330
2
100
AcDbSymbolTableRecord
100
AcDbLayerTableRecord
  2
0
 70
     0
 62
     7
  6
CONTINUOUS
  0
LAYER
  5
31
330
2
100
AcDbSymbolTableRecord
100
AcDbLayerTableRecord
  2
FORMAT
 70
     0
 62
     7
  6
SLD-DURCHGEHEND
  0
LAYER
  5
32
330
2
100
AcDbSymbolTableRecord
100
AcDbLayerTableRecord
  2
VERMASSUNG
 70
     0
 62
     7
  6
SLD-DURCHGEHEND
  0
LAYER
  5
33
330
2
100
AcDbSymbolTableRecord
100
AcDbLayerTableRecord
  2
KOPF__DÜNN
 70
     0
 62
     7
  6
SLD-DURCHGEHEND
  0
LAYER
  5
34
330
2
100
AcDbSymbolTableRecord
100
AcDbLayerTableRecord
  2
KOPF__DICK
 70
     0
 62
     7
  6
SLD-DURCHGEHEND
  0
LAYER
  5
EA
330
2
100
AcDbSymbolTableRecord
100
AcDbLayerTableRecord
  2
DEFPOINTS
 70
     0
 62
     7
  6
CONTINUOUS
  0
LAYER
  5
1CC
330
2
100
AcDbSymbolTableRecord
100
AcDbLayerTableRecord
  2
SK1
 70
     0
 62
     4
  6
CONTINUOUS
  0
LAYER
  5
1CE
330
2
100
AcDbSymbolTableRecord
100
AcDbLayerTableRecord
  2
SK4
 70
     0
 62
     2
  6
GEN7A
  0
LAYER
  5
1D2
330
2
100
AcDbSymbolTableRecord
100
AcDbLayerTableRecord
  2
SK3
 70
     0
 62
     1
  6
GEN3A
  0
LAYER
  5
1D4
330
2
100
AcDbSymbolTableRecord
100
AcDbLayerTableRecord
  2
4
 70
     0
 62
     2
  6
GEN7A
  0
LAYER
  5
1D5
330
2
100
AcDbSymbolTableRecord
100
AcDbLayerTableRecord
  2
1
 70
     0
 62
     4
  6
CONTINUOUS
  0
LAYER
  5
1D6
330
2
100
AcDbSymbolTableRecord
100
AcDbLayerTableRecord
  2
3
 70
     0
 62
     1
  6
GEN3A
  0
LAYER
  5
1D8
330
2
100
AcDbSymbolTableRecord
100
AcDbLayerTableRecord
  2
SK2
 70
     0
 62
     7
  6
CONTINUOUS
  0
LAYER
  5
207
330
2
100
AcDbSymbolTableRecord
100
AcDbLayerTableRecord
  2
2
 70
     0
 62
     7
  6
CONTINUOUS
  0
LAYER
  5
245
330
2
100
AcDbSymbolTableRecord
100
AcDbLayerTableRecord
  2
5
 70
     0
 62
     7
  6
CONTINUOUS
  0
LAYER
  5
91E
330
2
100
AcDbSymbolTableRecord
100
AcDbLayerTableRecord
  2
HILFSLINIE
 70
     0
 62
     3
  6
CONTINUOUS
  0
LAYER
  5
91F
330
2
100
AcDbSymbolTableRecord
100
AcDbLayerTableRecord
  2
MITTELLINIE
 70
     0
 62
     4
  6
GEN7
  0
ENDTAB
  0
TABLE
  2
STYLE
  5
3
330
0
100
AcDbSymbolTable
 70
     3
  0
STYLE
  5
11
330
3
100
AcDbSymbolTableRecord
100
AcDbTextStyleTableRecord
  2
STANDARD
 70
     0
 40
0.0
 41
1.0
 50
0.0
 71
     0
 42
2.5
  3
ISOCPEUR.TTF
  4

1001
ACAD
1000
ISOCPEUR
1071
       34
  0
STYLE
  5
35
330
3
100
AcDbSymbolTableRecord
100
AcDbTextStyleTableRecord
  2
SLDTEXTSTYLE0
 70
     0
 40
0.0
 41
1.0
 50
0.0
 71
     0
 42
0.2
  3
ISOCPEUR.TTF
  4

1001
ACAD
1000
ISOCPEUR
1071
       34
  0
STYLE
  5
1DA
330
3
100
AcDbSymbolTableRecord
100
AcDbTextStyleTableRecord
  2
GENPRESET
 70
     0
 40
0.0
 41
1.0
 50
0.0
 71
     0
 42
3.5
  3
simplex.shx
  4

  0
ENDTAB
  0
TABLE
  2
VIEW
  5
6
330
0
100
AcDbSymbolTable
 70
     0
  0
ENDTAB
  0
TABLE
  2
UCS
  5
7
330
0
100
AcDbSymbolTable
 70
     0
  0
ENDTAB
  0
TABLE
  2
APPID
  5
9
330
0
100
AcDbSymbolTable
 70
     1
  0
APPID
  5
12
330
9
100
AcDbSymbolTableRecord
100
AcDbRegAppTableRecord
  2
ACAD
 70
     0
  0
ENDTAB
  0
TABLE
  2
DIMSTYLE
  5
A
330
0
100
AcDbSymbolTable
 70
     9
  0
DIMSTYLE
105
27
330
A
100
AcDbSymbolTableRecord
100
AcDbDimStyleTableRecord
  2
ISO-25
 70
     0
  3

  4

  5

  6

  7

 40
1.0
 41
2.5
 42
0.625
 43
3.75
 44
1.25
 45
0.0
 46
0.0
 47
0.0
 48
0.0
140
2.5
141
2.5
142
0.0
143
0.0393700787
144
1.0
145
0.0
146
1.0
147
0.625
 71
     0
 72
     0
 73
     0
 74
     0
 75
     0
 76
     0
 77
     1
 78
     8
170
     0
171
     3
172
     1
173
     0
174
     0
175
     0
176
     0
177
     0
178
     0
270
     2
271
     2
272
     2
273
     2
274
     3
340
11
275
     0
280
     0
281
     0
282
     0
283
     0
284
     8
285
     0
286
     0
287
     3
288
     0
  0
DIMSTYLE
105
F8
330
A
100
AcDbSymbolTableRecord
100
AcDbDimStyleTableRecord
  2
SLDDIMSTYLE0
 70
     0
  3

  4

  5

  6

  7

 40
1.0
 41
3.0
 42
0.0625
 43
0.38
 44
0.0
 45
0.0
 46
0.0
 47
0.0
 48
0.0
140
2.0
141
0.09
142
0.0
143
25.4
144
0.5
145
0.0
146
1.0
147
0.5
 71
     0
 72
     0
 73
     0
 74
     0
 75
     0
 76
     0
 77
     2
 78
    12
170
     0
171
     2
172
     0
173
     1
174
     0
175
     0
176
     0
177
     0
178
     0
270
     2
271
     2
272
     3
273
     2
274
     2
340
35
275
     0
280
     0
281
     0
282
     0
283
     1
284
    12
285
     0
286
     0
287
     3
288
     0
  0
DIMSTYLE
105
158
330
A
100
AcDbSymbolTableRecord
100
AcDbDimStyleTableRecord
  2
SLDDIMSTYLE1
 70
     0
  3

  4

  5

  6
DOT
  7
DOT
 40
1.0
 41
1.0
 42
0.0625
 43
0.38
 44
0.0
 45
0.0
 46
0.0
 47
0.0
 48
0.0
140
3.0
141
0.09
142
0.0
143
25.4
144
1.0
145
0.0
146
1.0
147
0.75
 71
     0
 72
     0
 73
     1
 74
     1
 75
     0
 76
     0
 77
     0
 78
     0
170
     0
171
     2
172
     0
173
     1
174
     0
175
     0
176
     0
177
     0
178
     0
270
     2
271
     0
272
     0
273
     2
274
     2
340
11
275
     0
280
     0
281
     0
282
     0
283
     1
284
     0
285
     0
286
     0
287
     3
288
     0
  0
DIMSTYLE
105
1D9
102
{ACAD_REACTORS
330
130A
330
1308
330
14AC
102
}
330
A
100
AcDbSymbolTableRecord
100
AcDbDimStyleTableRecord
  2
GEN-ISO_TDM
 70
     0
  3

  4

  5

  6

  7

 40
1.0
 41
4.57
 42
0.0
 43
2.299999999999998
 44
2.5
 45
0.0
 46
0.0
 47
0.1
 48
0.1
140
4.57
141
2.0
142
0.0
143
25.4
144
1.0
145
0.0
146
0.7
147
1.5
 71
     0
 72
     0
 73
     0
 74
     0
 75
     0
 76
     0
 77
     1
 78
     8
170
     0
171
     2
172
     1
173
     0
174
     0
175
     0
176
     0
177
     0
178
     7
270
     2
271
     2
272
     2
273
     2
274
     2
340
1DA
275
     0
280
     0
281
     0
282
     0
283
     1
284
     8
285
     8
286
     8
287
     3
288
     0
  0
DIMSTYLE
105
920
330
A
100
AcDbSymbolTableRecord
100
AcDbDimStyleTableRecord
  2
GEN-ISO
 70
     0
  3

  4

  5

  6

  7

 40
1.0
 41
2.5
 42
0.0
 43
8.0
 44
2.0
 45
0.0
 46
0.0
 47
0.1
 48
0.1
140
2.0
141
2.0
142
0.0
143
25.4
144
1.0
145
0.0
146
0.7
147
1.5
 71
     0
 72
     0
 73
     0
 74
     0
 75
     0
 76
     0
 77
     1
 78
     8
170
     0
171
     2
172
     1
173
     0
174
     0
175
     0
176
     0
177
     0
178
     2
270
     2
271
     2
272
     2
273
     2
274
     2
340
11
275
     0
280
     0
281
     0
282
     0
283
     1
284
     8
285
     8
286
     8
287
     3
288
     0
  0
DIMSTYLE
105
921
330
A
100
AcDbSymbolTableRecord
100
AcDbDimStyleTableRecord
  2
GEN-ISO_1_5
 70
     0
  3

  4

  5

  6

  7

 40
1.0
 41
2.5
 42
0.0
 43
8.0
 44
2.0
 45
0.0
 46
0.0
 47
0.1
 48
0.1
140
2.0
141
2.0
142
0.0
143
25.4
144
5.0
145
0.0
146
0.7
147
1.5
 71
     0
 72
     0
 73
     0
 74
     0
 75
     0
 76
     0
 77
     1
 78
     8
170
     0
171
     2
172
     1
173
     0
174
     0
175
     0
176
     0
177
     0
178
     2
270
     2
271
     2
272
     2
273
     2
274
     2
340
11
275
     0
280
     0
281
     0
282
     0
283
     1
284
     8
285
     8
286
     8
287
     3
288
     0
  0
DIMSTYLE
105
922
330
A
100
AcDbSymbolTableRecord
100
AcDbDimStyleTableRecord
  2
GEN-ISO_2_1
 70
     0
  3

  4

  5

  6

  7

 40
1.0
 41
2.5
 42
0.0
 43
8.0
 44
2.0
 45
0.0
 46
0.0
 47
0.1
 48
0.1
140
2.0
141
2.0
142
0.0
143
25.4
144
0.5
145
0.0
146
0.7
147
1.5
 71
     0
 72
     0
 73
     0
 74
     0
 75
     0
 76
     0
 77
     1
 78
     8
170
     0
171
     2
172
     1
173
     0
174
     0
175
     0
176
     0
177
     0
178
     2
270
     2
271
     2
272
     2
273
     2
274
     2
340
11
275
     0
280
     0
281
     0
282
     0
283
     1
284
     8
285
     8
286
     8
287
     3
288
     0
  0
DIMSTYLE
105
923
330
A
100
AcDbSymbolTableRecord
100
AcDbDimStyleTableRecord
  2
GEN-ISO_5_1
 70
     0
  3

  4

  5

  6

  7

 40
1.0
 41
2.5
 42
0.0
 43
8.0
 44
2.0
 45
0.0
 46
0.0
 47
0.1
 48
0.1
140
2.0
141
2.0
142
0.0
143
25.4
144
0.2
145
0.0
146
0.7
147
1.5
 71
     0
 72
     0
 73
     0
 74
     0
 75
     0
 76
     0
 77
     1
 78
     8
170
     0
171
     2
172
     1
173
     0
174
     0
175
     0
176
     0
177
     0
178
     2
270
     2
271
     2
272
     2
273
     2
274
     2
340
11
275
     0
280
     0
281
     0
282
     0
283
     1
284
     8
285
     8
286
     8
287
     3
288
     0
  0
DIMSTYLE
105
924
330
A
100
AcDbSymbolTableRecord
100
AcDbDimStyleTableRecord
  2
GEN-ISO_10_1
 70
     0
  3

  4

  5

  6

  7

 40
1.0
 41
2.5
 42
0.0
 43
8.0
 44
2.0
 45
0.0
 46
0.0
 47
0.1
 48
0.1
140
2.0
141
2.0
142
0.0
143
25.4
144
0.1
145
0.0
146
0.7
147
1.5
 71
     0
 72
     0
 73
     0
 74
     0
 75
     0
 76
     0
 77
     1
 78
     8
170
     0
171
     2
172
     1
173
     0
174
     0
175
     0
176
     0
177
     0
178
     2
270
     2
271
     2
272
     2
273
     2
274
     2
340
11
275
     0
280
     0
281
     0
282
     0
283
     1
284
     8
285
     8
286
     8
287
     3
288
     0
  0
ENDTAB
  0
TABLE
  2
BLOCK_RECORD
  5
1
330
0
100
AcDbSymbolTable
 70
    51
  0
BLOCK_RECORD
  5
1F
102
{ACAD_XDICTIONARY
360
1567
102
}
330
1
100
AcDbSymbolTableRecord
100
AcDbBlockTableRecord
  2
*MODEL_SPACE
  0
BLOCK_RECORD
  5
1B
102
{ACAD_XDICTIONARY
360
1565
102
}
330
1
100
AcDbSymbolTableRecord
100
AcDbBlockTableRecord
  2
*PAPER_SPACE
  0
BLOCK_RECORD
  5
3B
330
1
100
AcDbSymbolTableRecord
100
AcDbBlockTableRecord
  2
SW_TABLEANNOTATION_0
  0
BLOCK_RECORD
  5
EB
330
1
100
AcDbSymbolTableRecord
100
AcDbBlockTableRecord
  2
*D2
  0
BLOCK_RECORD
  5
102
330
1
100
AcDbSymbolTableRecord
100
AcDbBlockTableRecord
  2
*D3
  0
BLOCK_RECORD
  5
118
330
1
100
AcDbSymbolTableRecord
100
AcDbBlockTableRecord
  2
*D4
  0
BLOCK_RECORD
  5
12D
330
1
100
AcDbSymbolTableRecord
100
AcDbBlockTableRecord
  2
*D5
  0
BLOCK_RECORD
  5
140
330
1
100
AcDbSymbolTableRecord
100
AcDbBlockTableRecord
  2
*D6
  0
BLOCK_RECORD
  5
152
330
1
100
AcDbSymbolTableRecord
100
AcDbBlockTableRecord
  2
SW_NOTE_0
  0
BLOCK_RECORD
  5
159
330
1
100
AcDbSymbolTableRecord
100
AcDbBlockTableRecord
  2
_DOT
  0
BLOCK_RECORD
  5
15F
330
1
100
AcDbSymbolTableRecord
100
AcDbBlockTableRecord
  2
SW_NOTE_1
  0
BLOCK_RECORD
  5
367
330
1
100
AcDbSymbolTableRecord
100
AcDbBlockTableRecord
  2
*D10
  0
BLOCK_RECORD
  5
374
330
1
100
AcDbSymbolTableRecord
100
AcDbBlockTableRecord
  2
*D11
  0
BLOCK_RECORD
  5
381
330
1
100
AcDbSymbolTableRecord
100
AcDbBlockTableRecord
  2
*D12
  0
BLOCK_RECORD
  5
3D2
330
1
100
AcDbSymbolTableRecord
100
AcDbBlockTableRecord
  2
*D13
  0
BLOCK_RECORD
  5
3DE
330
1
100
AcDbSymbolTableRecord
100
AcDbBlockTableRecord
  2
*D14
  0
BLOCK_RECORD
  5
3EB
330
1
100
AcDbSymbolTableRecord
100
AcDbBlockTableRecord
  2
*D15
  0
BLOCK_RECORD
  5
478
330
1
100
AcDbSymbolTableRecord
100
AcDbBlockTableRecord
  2
*D16
  0
BLOCK_RECORD
  5
482
330
1
100
AcDbSymbolTableRecord
100
AcDbBlockTableRecord
  2
*D17
  0
BLOCK_RECORD
  5
48C
330
1
100
AcDbSymbolTableRecord
100
AcDbBlockTableRecord
  2
*D18
  0
BLOCK_RECORD
  5
591
330
1
100
AcDbSymbolTableRecord
100
AcDbBlockTableRecord
  2
*D19
  0
BLOCK_RECORD
  5
59D
330
1
100
AcDbSymbolTableRecord
100
AcDbBlockTableRecord
  2
*D20
  0
BLOCK_RECORD
  5
5A9
330
1
100
AcDbSymbolTableRecord
100
AcDbBlockTableRecord
  2
*D21
  0
BLOCK_RECORD
  5
624
330
1
100
AcDbSymbolTableRecord
100
AcDbBlockTableRecord
  2
*D22
  0
BLOCK_RECORD
  5
634
330
1
100
AcDbSymbolTableRecord
100
AcDbBlockTableRecord
  2
*D23
  0
BLOCK_RECORD
  5
689
330
1
100
AcDbSymbolTableRecord
100
AcDbBlockTableRecord
  2
*D24
  0
BLOCK_RECORD
  5
693
330
1
100
AcDbSymbolTableRecord
100
AcDbBlockTableRecord
  2
*D25
  0
BLOCK_RECORD
  5
69D
330
1
100
AcDbSymbolTableRecord
100
AcDbBlockTableRecord
  2
*D26
  0
BLOCK_RECORD
  5
6A7
330
1
100
AcDbSymbolTableRecord
100
AcDbBlockTableRecord
  2
*D27
  0
BLOCK_RECORD
  5
6B0
330
1
100
AcDbSymbolTableRecord
100
AcDbBlockTableRecord
  2
*D28
  0
BLOCK_RECORD
  5
7D9
330
1
100
AcDbSymbolTableRecord
100
AcDbBlockTableRecord
  2
*D29
  0
BLOCK_RECORD
  5
7E5
330
1
100
AcDbSymbolTableRecord
100
AcDbBlockTableRecord
  2
*D30
  0
BLOCK_RECORD
  5
7F1
330
1
100
AcDbSymbolTableRecord
100
AcDbBlockTableRecord
  2
*D31
  0
BLOCK_RECORD
  5
7FD
330
1
100
AcDbSymbolTableRecord
100
AcDbBlockTableRecord
  2
*D32
  0
BLOCK_RECORD
  5
809
330
1
100
AcDbSymbolTableRecord
100
AcDbBlockTableRecord
  2
*D33
  0
BLOCK_RECORD
  5
8E7
330
1
100
AcDbSymbolTableRecord
100
AcDbBlockTableRecord
  2
*D34
  0
BLOCK_RECORD
  5
8F2
330
1
100
AcDbSymbolTableRecord
100
AcDbBlockTableRecord
  2
*D35
  0
BLOCK_RECORD
  5
900
330
1
100
AcDbSymbolTableRecord
100
AcDbBlockTableRecord
  2
*D36
  0
BLOCK_RECORD
  5
90C
330
1
100
AcDbSymbolTableRecord
100
AcDbBlockTableRecord
  2
*D37
  0
BLOCK_RECORD
  5
D47
330
1
100
AcDbSymbolTableRecord
100
AcDbBlockTableRecord
  2
*D38
  0
BLOCK_RECORD
  5
D52
330
1
100
AcDbSymbolTableRecord
100
AcDbBlockTableRecord
  2
*D39
  0
BLOCK_RECORD
  5
D60
330
1
100
AcDbSymbolTableRecord
100
AcDbBlockTableRecord
  2
*D40
  0
BLOCK_RECORD
  5
D6C
330
1
100
AcDbSymbolTableRecord
100
AcDbBlockTableRecord
  2
*D41
  0
BLOCK_RECORD
  5
E2B
330
1
100
AcDbSymbolTableRecord
100
AcDbBlockTableRecord
  2
*D42
  0
BLOCK_RECORD
  5
E39
330
1
100
AcDbSymbolTableRecord
100
AcDbBlockTableRecord
  2
*D43
  0
BLOCK_RECORD
  5
E44
330
1
100
AcDbSymbolTableRecord
100
AcDbBlockTableRecord
  2
*D44
  0
BLOCK_RECORD
  5
E50
330
1
100
AcDbSymbolTableRecord
100
AcDbBlockTableRecord
  2
*D45
  0
BLOCK_RECORD
  5
130C
330
1
100
AcDbSymbolTableRecord
100
AcDbBlockTableRecord
  2
*D46
  0
BLOCK_RECORD
  5
131A
330
1
100
AcDbSymbolTableRecord
100
AcDbBlockTableRecord
  2
*D47
  0
BLOCK_RECORD
  5
1325
330
1
100
AcDbSymbolTableRecord
100
AcDbBlockTableRecord
  2
*D48
  0
BLOCK_RECORD
  5
1331
330
1
100
AcDbSymbolTableRecord
100
AcDbBlockTableRecord
  2
*D49
  0
BLOCK_RECORD
  5
14AD
330
1
100
AcDbSymbolTableRecord
100
AcDbBlockTableRecord
  2
*D50
  0
ENDTAB
  0
ENDSEC
  0
SECTION
  2
BLOCKS
  0
BLOCK
  5
20
330
1F
100
AcDbEntity
  8
0
100
AcDbBlockBegin
  2
*MODEL_SPACE
 70
     0
 10
0.0
 20
0.0
 30
0.0
  3
*MODEL_SPACE
  1

  0
ENDBLK
  5
21
330
1F
100
AcDbEntity
  8
0
100
AcDbBlockEnd
  0
BLOCK
  5
1C
330
1B
100
AcDbEntity
 67
     1
  8
0
100
AcDbBlockBegin
  2
*PAPER_SPACE
 70
     0
 10
0.0
 20
0.0
 30
0.0
  3
*PAPER_SPACE
  1

  0
ENDBLK
  5
1D
330
1B
100
AcDbEntity
 67
     1
  8
0
100
AcDbBlockEnd
  0
BLOCK
  5
3C
330
3B
100
AcDbEntity
  8
0
100
AcDbBlockBegin
  2
SW_TABLEANNOTATION_0
 70
     0
 10
0.0
 20
0.0
 30
0.0
  3
SW_TABLEANNOTATION_0
  1

  0
LINE
  5
3E
330
3B
100
AcDbEntity
  8
0
  6
SLD-DURCHGEHEND
 62
     7
100
AcDbLine
 10
0.0
 20
0.0
 30
0.0
 11
0.0
 21
-10.9613963039
 31
0.0
  0
LINE
  5
3F
330
3B
100
AcDbEntity
  8
0
  6
SLD-DURCHGEHEND
 62
     7
100
AcDbLine
 10
0.0
 20
-10.9613963039
 30
0.0
 11
125.0044361962
 21
-10.9613963039
 31
0.0
  0
LINE
  5
40
330
3B
100
AcDbEntity
  8
0
  6
SLD-DURCHGEHEND
 62
     7
100
AcDbLine
 10
125.0044361962
 20
-10.9613963039
 30
0.0
 11
125.0044361962
 21
0.0
 31
0.0
  0
LINE
  5
41
330
3B
100
AcDbEntity
  8
0
  6
SLD-DURCHGEHEND
 62
     7
100
AcDbLine
 10
125.0044361962
 20
0.0
 30
0.0
 11
0.0
 21
0.0
 31
0.0
  0
LINE
  5
42
330
3B
100
AcDbEntity
  8
0
  6
SLD-DURCHGEHEND
 62
     7
100
AcDbLine
 10
15.9651052694
 20
-7.3075975359
 30
0.0
 11
15.9651052694
 21
-10.9613963039
 31
0.0
  0
LINE
  5
43
330
3B
100
AcDbEntity
  8
0
  6
SLD-DURCHGEHEND
 62
     7
100
AcDbLine
 10
34.1012448998
 20
-7.3075975359
 30
0.0
 11
34.1012448998
 21
-10.9613963039
 31
0.0
  0
LINE
  5
44
330
3B
100
AcDbEntity
  8
0
  6
SLD-DURCHGEHEND
 62
     7
100
AcDbLine
 10
92.65864564180001
 20
-7.3075975359
 30
0.0
 11
92.65864564180001
 21
-10.9613963039
 31
0.0
  0
LINE
  5
45
330
3B
100
AcDbEntity
  8
0
  6
SLD-DURCHGEHEND
 62
     7
100
AcDbLine
 10
15.9651052694
 20
0.0
 30
0.0
 11
15.9651052694
 21
-7.3075975359
 31
0.0
  0
LINE
  5
46
330
3B
100
AcDbEntity
  8
0
  6
SLD-DURCHGEHEND
 62
     7
100
AcDbLine
 10
34.1012448998
 20
0.0
 30
0.0
 11
34.1012448998
 21
-7.3075975359
 31
0.0
  0
LINE
  5
47
330
3B
100
AcDbEntity
  8
0
  6
SLD-DURCHGEHEND
 62
     7
100
AcDbLine
 10
92.65864564180001
 20
0.0
 30
0.0
 11
92.65864564180001
 21
-7.3075975359
 31
0.0
  0
LINE
  5
48
330
3B
100
AcDbEntity
  8
0
  6
SLD-DURCHGEHEND
 62
     7
100
AcDbLine
 10
0.0
 20
-3.653798768
 30
0.0
 11
125.0044361962
 21
-3.653798768
 31
0.0
  0
LINE
  5
49
330
3B
100
AcDbEntity
  8
0
  6
SLD-DURCHGEHEND
 62
     7
100
AcDbLine
 10
0.0
 20
-7.3075975359
 30
0.0
 11
125.0044361962
 21
-7.3075975359
 31
0.0
  0
MTEXT
  5
4A
330
3B
100
AcDbEntity
  8
0
  6
SLD-DURCHGEHEND
 62
     7
100
AcDbMText
 10
5.2825527975
 20
-8.199412802799997
 30
0.0
 40
2.0
 41
0.0
 71
     1
 72
     1
  1
{POS.}
  7
SLDTEXTSTYLE0
1001
ACAD
1000
MTEXTBEGIN
1070
    73
1070
     1
1070
    44
1040
1.0
1070
    74
1070
     0
1000
MTEXTEND
  0
MTEXT
  5
4B
330
3B
100
AcDbEntity
  8
0
  6
SLD-DURCHGEHEND
 62
     7
100
AcDbMText
 10
21.1331751904
 20
-8.199412802799997
 30
0.0
 40
2.0
 41
0.0
 71
     1
 72
     1
  1
{MENGE}
  7
SLDTEXTSTYLE0
1001
ACAD
1000
MTEXTBEGIN
1070
    73
1070
     1
1070
    44
1040
1.0
1070
    74
1070
     0
1000
MTEXTEND
  0
MTEXT
  5
4C
330
3B
100
AcDbEntity
  8
0
  6
SLD-DURCHGEHEND
 62
     7
100
AcDbMText
 10
56.07994649560001
 20
-7.9344970446
 30
0.0
 40
2.0
 41
0.0
 71
     1
 72
     1
  1
{Bezeichnung}
  7
SLDTEXTSTYLE0
1001
ACAD
1000
MTEXTBEGIN
1070
    73
1070
     1
1070
    44
1040
1.0
1070
    74
1070
     0
1000
MTEXTEND
  0
MTEXT
  5
4D
330
3B
100
AcDbEntity
  8
0
  6
SLD-DURCHGEHEND
 62
     7
100
AcDbMText
 10
97.73154207979999
 20
-7.9344970446
 30
0.0
 40
2.0
 41
0.0
 71
     1
 72
     1
  1
{Zeichnungsnummer}
  7
SLDTEXTSTYLE0
1001
ACAD
1000
MTEXTBEGIN
1070
    73
1070
     1
1070
    44
1040
1.0
1070
    74
1070
     0
1000
MTEXTEND
  0
MTEXT
  5
4E
330
3B
100
AcDbEntity
  8
0
  6
SLD-DURCHGEHEND
 62
     7
100
AcDbMText
 10
7.2825526596
 20
-0.8918152668999999
 30
0.0
 40
2.0
 41
0.0
 71
     1
 72
     1
  1
{2}
  7
SLDTEXTSTYLE0
1001
ACAD
1000
MTEXTBEGIN
1070
    73
1070
     1
1070
    44
1040
1.0
1070
    74
1070
     0
1000
MTEXTEND
  0
MTEXT
  5
4F
330
3B
100
AcDbEntity
  8
0
  6
SLD-DURCHGEHEND
 62
     7
100
AcDbMText
 10
24.53317506079999
 20
-0.8918152668999999
 30
0.0
 40
2.0
 41
0.0
 71
     1
 72
     1
  1
{1}
  7
SLDTEXTSTYLE0
1001
ACAD
1000
MTEXTBEGIN
1070
    73
1070
     1
1070
    44
1040
1.0
1070
    74
1070
     0
1000
MTEXTEND
  0
MTEXT
  5
50
330
3B
100
AcDbEntity
  8
0
  6
SLD-DURCHGEHEND
 62
     7
100
AcDbMText
 10
54.27994675939999
 20
-0.8918152668999999
 30
0.0
 40
2.0
 41
0.0
 71
     1
 72
     1
  1
{Klemmschraube}
  7
SLDTEXTSTYLE0
1001
ACAD
1000
MTEXTBEGIN
1070
    73
1070
     1
1070
    44
1040
1.0
1070
    74
1070
     0
1000
MTEXTEND
  0
MTEXT
  5
51
330
3B
100
AcDbEntity
  8
0
  6
SLD-DURCHGEHEND
 62
     7
100
AcDbMText
 10
99.33154122440001
 20
-0.8918152668999999
 30
0.0
 40
2.0
 41
0.0
 71
     1
 72
     1
  1
{MB1-ER1.001.006}
  7
SLDTEXTSTYLE0
1001
ACAD
1000
MTEXTBEGIN
1070
    73
1070
     1
1070
    44
1040
1.0
1070
    74
1070
     0
1000
MTEXTEND
  0
MTEXT
  5
52
330
3B
100
AcDbEntity
  8
0
  6
SLD-DURCHGEHEND
 62
     7
100
AcDbMText
 10
7.4825526109
 20
-4.545614034799998
 30
0.0
 40
2.0
 41
0.0
 71
     1
 72
     1
  1
{1}
  7
SLDTEXTSTYLE0
1001
ACAD
1000
MTEXTBEGIN
1070
    73
1070
     1
1070
    44
1040
1.0
1070
    74
1070
     0
1000
MTEXTEND
  0
MTEXT
  5
53
330
3B
100
AcDbEntity
  8
0
  6
SLD-DURCHGEHEND
 62
     7
100
AcDbMText
 10
24.53317506079999
 20
-4.545614034799998
 30
0.0
 40
2.0
 41
0.0
 71
     1
 72
     1
  1
{1}
  7
SLDTEXTSTYLE0
1001
ACAD
1000
MTEXTBEGIN
1070
    73
1070
     1
1070
    44
1040
1.0
1070
    74
1070
     0
1000
MTEXTEND
  0
MTEXT
  5
54
330
3B
100
AcDbEntity
  8
0
  6
SLD-DURCHGEHEND
 62
     7
100
AcDbMText
 10
57.4799459801
 20
-4.545614034799998
 30
0.0
 40
2.0
 41
0.0
 71
     1
 72
     1
  1
{Reduktion}
  7
SLDTEXTSTYLE0
1001
ACAD
1000
MTEXTBEGIN
1070
    73
1070
     1
1070
    44
1040
1.0
1070
    74
1070
     0
1000
MTEXTEND
  0
MTEXT
  5
55
330
3B
100
AcDbEntity
  8
0
  6
SLD-DURCHGEHEND
 62
     7
100
AcDbMText
 10
98.8315411425
 20
-4.545614034799998
 30
0.0
 40
2.0
 41
0.0
 71
     1
 72
     1
  1
{MB2-MB1.K01.030}
  7
SLDTEXTSTYLE0
1001
ACAD
1000
MTEXTBEGIN
1070
    73
1070
     1
1070
    44
1040
1.0
1070
    74
1070
     0
1000
MTEXTEND
  0
ENDBLK
  5
3D
330
3B
100
AcDbEntity
  8
0
100
AcDbBlockEnd
  0
BLOCK
  5
F6
330
EB
100
AcDbEntity
  8
0
100
AcDbBlockBegin
  2
*D2
 70
     1
 10
0.0
 20
0.0
 30
0.0
  3
*D2
  1

  0
LINE
  5
2BE
330
EB
100
AcDbEntity
  8
SK2
 62
     0
100
AcDbLine
 10
-35.75706422459251
 20
-34.28342027447055
 30
0.0
 11
-24.85382283068201
 21
-34.28342027447055
 31
0.0
  0
LINE
  5
2BF
330
EB
100
AcDbEntity
  8
SK2
 62
     0
100
AcDbLine
 10
-35.75706422459251
 20
-54.28342027447055
 30
0.0
 11
-24.85382283068202
 21
-54.28342027447055
 31
0.0
  0
LINE
  5
2C0
330
EB
100
AcDbEntity
  8
SK2
 62
     0
100
AcDbLine
 10
-27.35382283068201
 20
-38.85342027447055
 30
0.0
 11
-27.35382283068202
 21
-49.71342027447056
 31
0.0
  0
SOLID
  5
2C1
330
EB
100
AcDbEntity
  8
SK2
 62
     0
100
AcDbTrace
 10
-28.11548949734868
 20
-38.85342027447055
 30
0.0
 11
-26.59215616401535
 21
-38.85342027447055
 31
0.0
 12
-27.35382283068201
 22
-34.28342027447055
 32
0.0
 13
-27.35382283068201
 23
-34.28342027447055
 33
0.0
  0
SOLID
  5
2C2
330
EB
100
AcDbEntity
  8
SK2
 62
     0
100
AcDbTrace
 10
-28.11548949734868
 20
-49.71342027447056
 30
0.0
 11
-26.59215616401535
 21
-49.71342027447056
 31
0.0
 12
-27.35382283068202
 22
-54.28342027447055
 32
0.0
 13
-27.35382283068202
 23
-54.28342027447055
 33
0.0
  0
MTEXT
  5
2C3
330
EB
100
AcDbEntity
  8
SK2
 62
     7
100
AcDbMText
 10
-31.13882283068201
 20
-44.28342027447055
 30
0.0
 40
4.57
 41
0.0
 71
     5
 72
     1
  1
\A1;MBM %%c20
  7
GENPRESET
 11
0.0000000000000001
 21
1.0
 31
0.0
1001
ACAD
1000
MTEXTBEGIN
1070
    73
1070
     1
1070
    44
1040
1.0
1070
    74
1070
     0
1000
MTEXTEND
  0
POINT
  5
2C4
330
EB
100
AcDbEntity
  8
DEFPOINTS
 62
     0
100
AcDbPoint
 10
-35.75706422459251
 20
-34.28342027447055
 30
0.0
  0
POINT
  5
2C5
330
EB
100
AcDbEntity
  8
DEFPOINTS
 62
     0
100
AcDbPoint
 10
-35.75706422459251
 20
-54.28342027447055
 30
0.0
  0
POINT
  5
2C6
330
EB
100
AcDbEntity
  8
DEFPOINTS
 62
     0
100
AcDbPoint
 10
-27.35382283068202
 20
-54.28342027447055
 30
0.0
  0
ENDBLK
  5
F7
330
EB
100
AcDbEntity
  8
0
100
AcDbBlockEnd
  0
BLOCK
  5
10D
330
102
100
AcDbEntity
  8
0
100
AcDbBlockBegin
  2
*D3
 70
     1
 10
0.0
 20
0.0
 30
0.0
  3
*D3
  1

  0
LINE
  5
2B5
330
102
100
AcDbEntity
  8
SK2
 62
     0
100
AcDbLine
 10
-65.3570642245925
 20
-31.78342027447055
 30
0.0
 11
-84.23814400939248
 21
-31.78342027447055
 31
0.0
  0
LINE
  5
2B6
330
102
100
AcDbEntity
  8
SK2
 62
     0
100
AcDbLine
 10
-65.3570642245925
 20
-56.78342027447055
 30
0.0
 11
-84.23814400939251
 21
-56.78342027447055
 31
0.0
  0
LINE
  5
2B7
330
102
100
AcDbEntity
  8
SK2
 62
     0
100
AcDbLine
 10
-81.73814400939251
 20
-36.35342027447055
 30
0.0
 11
-81.73814400939251
 21
-52.21342027447055
 31
0.0
  0
SOLID
  5
2B8
330
102
100
AcDbEntity
  8
SK2
 62
     0
100
AcDbTrace
 10
-82.49981067605919
 20
-36.35342027447055
 30
0.0
 11
-80.97647734272584
 21
-36.35342027447055
 31
0.0
 12
-81.73814400939248
 22
-31.78342027447055
 32
0.0
 13
-81.73814400939248
 23
-31.78342027447055
 33
0.0
  0
SOLID
  5
2B9
330
102
100
AcDbEntity
  8
SK2
 62
     0
100
AcDbTrace
 10
-82.49981067605919
 20
-52.21342027447055
 30
0.0
 11
-80.97647734272584
 21
-52.21342027447055
 31
0.0
 12
-81.73814400939251
 22
-56.78342027447055
 32
0.0
 13
-81.73814400939251
 23
-56.78342027447055
 33
0.0
  0
MTEXT
  5
2BA
330
102
100
AcDbEntity
  8
SK2
 62
     7
100
AcDbMText
 10
-85.5231440093925
 20
-44.28342027447055
 30
0.0
 40
4.57
 41
0.0
 71
     5
 72
     1
  1
\A1;MBM %%c25
  7
GENPRESET
 11
0.0000000000000001
 21
1.0
 31
0.0
1001
ACAD
1000
MTEXTBEGIN
1070
    73
1070
     1
1070
    44
1040
1.0
1070
    74
1070
     0
1000
MTEXTEND
  0
POINT
  5
2BB
330
102
100
AcDbEntity
  8
DEFPOINTS
 62
     0
100
AcDbPoint
 10
-65.3570642245925
 20
-31.78342027447055
 30
0.0
  0
POINT
  5
2BC
330
102
100
AcDbEntity
  8
DEFPOINTS
 62
     0
100
AcDbPoint
 10
-65.3570642245925
 20
-56.78342027447055
 30
0.0
  0
POINT
  5
2BD
330
102
100
AcDbEntity
  8
DEFPOINTS
 62
     0
100
AcDbPoint
 10
-81.73814400939251
 20
-56.78342027447055
 30
0.0
  0
ENDBLK
  5
10E
330
102
100
AcDbEntity
  8
0
100
AcDbBlockEnd
  0
BLOCK
  5
122
330
118
100
AcDbEntity
  8
0
100
AcDbBlockBegin
  2
*D4
 70
     1
 10
0.0
 20
0.0
 30
0.0
  3
*D4
  1

  0
LINE
  5
19E
330
118
100
AcDbEntity
  8
VERMASSUNG
 62
     0
100
AcDbLine
 10
-14.0
 20
6.400000000000002
 30
0.0
 11
-13.99999999999999
 21
22.12270181429999
 31
0.0
  0
LINE
  5
19F
330
118
100
AcDbEntity
  8
VERMASSUNG
 62
     0
100
AcDbLine
 10
29.99999999999998
 20
9.799999999999997
 30
0.0
 11
29.99999999999998
 21
22.12270181429999
 31
0.0
  0
LINE
  5
1A0
330
118
100
AcDbEntity
  8
VERMASSUNG
 62
     0
100
AcDbLine
 10
-10.99999999999999
 20
21.1227018143
 30
0.0
 11
26.99999999999998
 21
21.1227018143
 31
0.0
  0
SOLID
  5
1A1
330
118
100
AcDbEntity
  8
VERMASSUNG
 62
     0
100
AcDbTrace
 10
-10.99999999999999
 20
21.62270181429998
 30
0.0
 11
-10.99999999999999
 21
20.6227018143
 31
0.0
 12
-13.99999999999999
 22
21.1227018143
 32
0.0
 13
-13.99999999999999
 23
21.1227018143
 33
0.0
  0
SOLID
  5
1A2
330
118
100
AcDbEntity
  8
VERMASSUNG
 62
     0
100
AcDbTrace
 10
26.99999999999998
 20
21.62270181429998
 30
0.0
 11
26.99999999999998
 21
20.6227018143
 31
0.0
 12
29.99999999999998
 22
21.1227018143
 32
0.0
 13
29.99999999999998
 23
21.1227018143
 33
0.0
  0
MTEXT
  5
1A3
330
118
100
AcDbEntity
  8
VERMASSUNG
 62
     0
100
AcDbMText
 10
4.132005232599996
 20
25.04670181429998
 30
0.0
 40
2.0
 41
0.0
 71
     1
 72
     1
  1
\A1;(22.00)
  7
SLDTEXTSTYLE0
1001
ACAD
1000
MTEXTBEGIN
1070
    73
1070
     1
1070
    44
1040
1.0
1070
    74
1070
     0
1000
MTEXTEND
  0
POINT
  5
1A4
330
118
100
AcDbEntity
  8
DEFPOINTS
 62
     0
100
AcDbPoint
 10
-14.0
 20
6.400000000000002
 30
0.0
  0
POINT
  5
1A5
330
118
100
AcDbEntity
  8
DEFPOINTS
 62
     0
100
AcDbPoint
 10
29.99999999999998
 20
9.799999999999997
 30
0.0
  0
POINT
  5
1A6
330
118
100
AcDbEntity
  8
DEFPOINTS
 62
     0
100
AcDbPoint
 10
29.99999999999998
 20
21.1227018143
 30
0.0
  0
ENDBLK
  5
123
330
118
100
AcDbEntity
  8
0
100
AcDbBlockEnd
  0
BLOCK
  5
137
330
12D
100
AcDbEntity
  8
0
100
AcDbBlockBegin
  2
*D5
 70
     1
 10
0.0
 20
0.0
 30
0.0
  3
*D5
  1

  0
LINE
  5
2AC
330
12D
100
AcDbEntity
  8
2
 62
     0
100
AcDbLine
 10
-65.55706422459251
 20
-31.98342027447055
 30
0.0
 11
-65.55706422459251
 21
-17.13625959967053
 31
0.0
  0
LINE
  5
2AD
330
12D
100
AcDbEntity
  8
2
 62
     0
100
AcDbLine
 10
-35.55706422459252
 20
-34.48342027447056
 30
0.0
 11
-35.55706422459252
 21
-17.13625959967053
 31
0.0
  0
LINE
  5
2AE
330
12D
100
AcDbEntity
  8
2
 62
     0
100
AcDbLine
 10
-60.9870642245925
 20
-19.63625959967053
 30
0.0
 11
-40.12706422459252
 21
-19.63625959967053
 31
0.0
  0
SOLID
  5
2AF
330
12D
100
AcDbEntity
  8
2
 62
     0
100
AcDbTrace
 10
-60.9870642245925
 20
-18.87459293300388
 30
0.0
 11
-60.9870642245925
 21
-20.39792626633721
 31
0.0
 12
-65.55706422459251
 22
-19.63625959967053
 32
0.0
 13
-65.55706422459251
 23
-19.63625959967053
 33
0.0
  0
SOLID
  5
2B0
330
12D
100
AcDbEntity
  8
2
 62
     0
100
AcDbTrace
 10
-40.12706422459252
 20
-18.87459293300388
 30
0.0
 11
-40.12706422459252
 21
-20.39792626633721
 31
0.0
 12
-35.55706422459252
 22
-19.63625959967053
 32
0.0
 13
-35.55706422459252
 23
-19.63625959967053
 33
0.0
  0
MTEXT
  5
2B1
330
12D
100
AcDbEntity
  8
2
 62
     7
100
AcDbMText
 10
-51.61674168844252
 20
-15.85125959967053
 30
0.0
 40
4.57
 41
0.0
 71
     5
 72
     1
  1
\A1;30
  7
GENPRESET
1001
ACAD
1000
MTEXTBEGIN
1070
    73
1070
     1
1070
    44
1040
1.0
1070
    74
1070
     0
1000
MTEXTEND
  0
POINT
  5
2B2
330
12D
100
AcDbEntity
  8
DEFPOINTS
 62
     0
100
AcDbPoint
 10
-65.55706422459251
 20
-31.98342027447055
 30
0.0
  0
POINT
  5
2B3
330
12D
100
AcDbEntity
  8
DEFPOINTS
 62
     0
100
AcDbPoint
 10
-35.55706422459252
 20
-34.48342027447056
 30
0.0
  0
POINT
  5
2B4
330
12D
100
AcDbEntity
  8
DEFPOINTS
 62
     0
100
AcDbPoint
 10
-35.55706422459252
 20
-19.63625959967053
 30
0.0
  0
ENDBLK
  5
138
330
12D
100
AcDbEntity
  8
0
100
AcDbBlockEnd
  0
BLOCK
  5
14A
330
140
100
AcDbEntity
  8
0
100
AcDbBlockBegin
  2
*D6
 70
     1
 10
0.0
 20
0.0
 30
0.0
  3
*D6
  1

  0
LINE
  5
2A3
330
140
100
AcDbEntity
  8
2
 62
     0
100
AcDbLine
 10
-50.55706422459253
 20
-32.61675360777055
 30
0.0
 11
-50.55706422459253
 21
-26.35587322322054
 31
0.0
  0
LINE
  5
2A4
330
140
100
AcDbEntity
  8
2
 62
     0
100
AcDbLine
 10
-35.55706422459252
 20
-34.48342027447056
 30
0.0
 11
-35.55706422459252
 21
-26.35587322322054
 31
0.0
  0
LINE
  5
2A5
330
140
100
AcDbEntity
  8
2
 62
     0
100
AcDbLine
 10
-45.98706422459253
 20
-28.85587322322054
 30
0.0
 11
-40.12706422459252
 21
-28.85587322322054
 31
0.0
  0
SOLID
  5
2A6
330
140
100
AcDbEntity
  8
2
 62
     0
100
AcDbTrace
 10
-45.98706422459253
 20
-28.09420655655388
 30
0.0
 11
-45.98706422459253
 21
-29.6175398898872
 31
0.0
 12
-50.55706422459253
 22
-28.85587322322054
 32
0.0
 13
-50.55706422459253
 23
-28.85587322322054
 33
0.0
  0
SOLID
  5
2A7
330
140
100
AcDbEntity
  8
2
 62
     0
100
AcDbTrace
 10
-40.12706422459252
 20
-28.09420655655388
 30
0.0
 11
-40.12706422459252
 21
-29.6175398898872
 31
0.0
 12
-35.55706422459252
 22
-28.85587322322054
 32
0.0
 13
-35.55706422459252
 23
-28.85587322322054
 33
0.0
  0
MTEXT
  5
2A8
330
140
100
AcDbEntity
  8
2
 62
     7
100
AcDbMText
 10
-40.7072104416425
 20
-25.07087322322055
 30
0.0
 40
4.57
 41
0.0
 71
     5
 72
     1
  1
\A1;15
  7
GENPRESET
1001
ACAD
1000
MTEXTBEGIN
1070
    73
1070
     1
1070
    44
1040
1.0
1070
    74
1070
     0
1000
MTEXTEND
  0
POINT
  5
2A9
330
140
100
AcDbEntity
  8
DEFPOINTS
 62
     0
100
AcDbPoint
 10
-50.55706422459253
 20
-32.61675360777055
 30
0.0
  0
POINT
  5
2AA
330
140
100
AcDbEntity
  8
DEFPOINTS
 62
     0
100
AcDbPoint
 10
-35.55706422459252
 20
-34.48342027447056
 30
0.0
  0
POINT
  5
2AB
330
140
100
AcDbEntity
  8
DEFPOINTS
 62
     0
100
AcDbPoint
 10
-35.55706422459252
 20
-28.85587322322054
 30
0.0
  0
ENDBLK
  5
14B
330
140
100
AcDbEntity
  8
0
100
AcDbBlockEnd
  0
BLOCK
  5
153
330
152
100
AcDbEntity
  8
0
100
AcDbBlockBegin
  2
SW_NOTE_0
 70
     0
 10
0.0
 20
0.0
 30
0.0
  3
SW_NOTE_0
  1

  0
CIRCLE
  5
155
330
152
100
AcDbEntity
  8
VERMASSUNG
100
AcDbCircle
 10
0.0
 20
-2.5534572435
 30
0.0
 40
2.553457243478399
  0
MTEXT
  5
156
330
152
100
AcDbEntity
  8
VERMASSUNG
100
AcDbMText
 10
-0.5000000237
 20
-1.8196512234
 30
0.0
 40
2.0
 41
0.0
 71
     1
 72
     1
  1
{1}
  7
SLDTEXTSTYLE0
1001
ACAD
1000
MTEXTBEGIN
1070
    73
1070
     1
1070
    44
1040
1.0
1070
    74
1070
     0
1000
MTEXTEND
  0
ENDBLK
  5
154
330
152
100
AcDbEntity
  8
0
100
AcDbBlockEnd
  0
BLOCK
  5
15A
330
159
100
AcDbEntity
  8
0
100
AcDbBlockBegin
  2
_DOT
 70
     0
 10
0.0
 20
0.0
 30
0.0
  3
_DOT
  1

  0
LWPOLYLINE
  5
15C
330
159
100
AcDbEntity
  8
0
  6
BYBLOCK
 62
     0
100
AcDbPolyline
 90
        2
 70
     1
 43
0.5
 10
-0.25
 20
0.0
 42
1.0
 10
0.25
 20
0.0
 42
1.0
  0
LINE
  5
15D
330
159
100
AcDbEntity
  8
0
  6
BYBLOCK
 62
     0
100
AcDbLine
 10
-0.5
 20
0.0
 30
0.0
 11
-1.0
 21
0.0
 31
0.0
  0
ENDBLK
  5
15B
330
159
100
AcDbEntity
  8
0
100
AcDbBlockEnd
  0
BLOCK
  5
160
330
15F
100
AcDbEntity
  8
0
100
AcDbBlockBegin
  2
SW_NOTE_1
 70
     0
 10
0.0
 20
0.0
 30
0.0
  3
SW_NOTE_1
  1

  0
CIRCLE
  5
162
330
15F
100
AcDbEntity
  8
VERMASSUNG
100
AcDbCircle
 10
0.0
 20
2.5534572435
 30
0.0
 40
2.553457243478404
  0
MTEXT
  5
163
330
15F
100
AcDbEntity
  8
VERMASSUNG
100
AcDbMText
 10
-0.699999975
 20
3.2872632636
 30
0.0
 40
2.0
 41
0.0
 71
     1
 72
     1
  1
{2}
  7
SLDTEXTSTYLE0
1001
ACAD
1000
MTEXTBEGIN
1070
    73
1070
     1
1070
    44
1040
1.0
1070
    74
1070
     0
1000
MTEXTEND
  0
ENDBLK
  5
161
330
15F
100
AcDbEntity
  8
0
100
AcDbBlockEnd
  0
BLOCK
  5
372
330
367
100
AcDbEntity
  8
0
100
AcDbBlockBegin
  2
*D10
 70
     1
 10
0.0
 20
0.0
 30
0.0
  3
*D10
  1

  0
LINE
  5
368
330
367
100
AcDbEntity
  8
VERMASSUNG
 62
     0
100
AcDbLine
 10
200.9330800821
 20
115.9764271046998
 30
0.0
 11
200.9330800821
 21
119.2391185914249
 31
0.0
  0
LINE
  5
369
330
367
100
AcDbEntity
  8
VERMASSUNG
 62
     0
100
AcDbLine
 10
171.4330800820999
 20
114.6124568704496
 30
0.0
 11
171.4330800820999
 21
119.2391185914249
 31
0.0
  0
LINE
  5
36A
330
367
100
AcDbEntity
  8
VERMASSUNG
 62
     0
100
AcDbLine
 10
197.9330800820999
 20
118.2391185914249
 30
0.0
 11
190.912158349525
 21
118.2391185914249
 31
0.0
  0
LINE
  5
36B
330
367
100
AcDbEntity
  8
VERMASSUNG
 62
     0
100
AcDbLine
 10
174.4330800820999
 20
118.2391185914249
 30
0.0
 11
181.8641583495249
 21
118.2391185914249
 31
0.0
  0
MTEXT
  5
36C
330
367
100
AcDbEntity
  8
VERMASSUNG
 62
     0
100
AcDbMText
 10
186.3881583495249
 20
118.2391185914249
 30
0.0
 40
2.0
 41
0.0
 71
     5
 72
     1
  1
\A1;7.38
1001
ACAD
1000
MTEXTBEGIN
1070
    73
1070
     1
1070
    44
1040
1.0
1070
    74
1070
     0
1000
MTEXTEND
  0
SOLID
  5
36D
330
367
100
AcDbEntity
  8
VERMASSUNG
 62
     0
100
AcDbTrace
 10
197.9330800820999
 20
118.7391185914246
 30
0.0
 11
197.9330800820999
 21
117.7391185914246
 31
0.0
 12
200.9330800821
 22
118.2391185914249
 32
0.0
 13
200.9330800821
 23
118.2391185914249
 33
0.0
  0
SOLID
  5
36E
330
367
100
AcDbEntity
  8
VERMASSUNG
 62
     0
100
AcDbTrace
 10
174.4330800820999
 20
118.7391185914246
 30
0.0
 11
174.4330800820999
 21
117.7391185914246
 31
0.0
 12
171.4330800820999
 22
118.2391185914249
 32
0.0
 13
171.4330800820999
 23
118.2391185914249
 33
0.0
  0
POINT
  5
36F
330
367
100
AcDbEntity
  8
DEFPOINTS
 62
     0
100
AcDbPoint
 10
200.9330800821
 20
115.9764271046998
 30
0.0
  0
POINT
  5
370
330
367
100
AcDbEntity
  8
DEFPOINTS
 62
     0
100
AcDbPoint
 10
171.4330800820999
 20
114.6124568704496
 30
0.0
  0
POINT
  5
371
330
367
100
AcDbEntity
  8
DEFPOINTS
 62
     0
100
AcDbPoint
 10
171.4330800820999
 20
118.2391185914249
 30
0.0
  0
ENDBLK
  5
373
330
367
100
AcDbEntity
  8
0
100
AcDbBlockEnd
  0
BLOCK
  5
37F
330
374
100
AcDbEntity
  8
0
100
AcDbBlockBegin
  2
*D11
 70
     1
 10
0.0
 20
0.0
 30
0.0
  3
*D11
  1

  0
LINE
  5
375
330
374
100
AcDbEntity
  8
VERMASSUNG
 62
     0
100
AcDbLine
 10
200.6330800820999
 20
111.9764271046999
 30
0.0
 11
204.1353230119498
 21
111.9764271046999
 31
0.0
  0
LINE
  5
376
330
374
100
AcDbEntity
  8
VERMASSUNG
 62
     0
100
AcDbLine
 10
200.6330800820999
 20
107.9764271046999
 30
0.0
 11
204.1353230119498
 21
107.9764271046999
 31
0.0
  0
LINE
  5
377
330
374
100
AcDbEntity
  8
VERMASSUNG
 62
     0
100
AcDbLine
 10
203.13532301195
 20
114.9764271046999
 30
0.0
 11
203.13532301195
 21
117.9764271046998
 31
0.0
  0
LINE
  5
378
330
374
100
AcDbEntity
  8
VERMASSUNG
 62
     0
100
AcDbLine
 10
203.13532301195
 20
104.9764271046998
 30
0.0
 11
203.13532301195
 21
101.9764271046998
 31
0.0
  0
MTEXT
  5
379
330
374
100
AcDbEntity
  8
VERMASSUNG
 62
     0
100
AcDbMText
 10
203.13532301195
 20
109.9220117259
 30
0.0
 40
2.0
 41
0.0
 71
     5
 72
     1
  1
\A1;%%c1.00
1001
ACAD
1000
MTEXTBEGIN
1070
    73
1070
     1
1070
    44
1040
1.0
1070
    74
1070
     0
1000
MTEXTEND
  0
SOLID
  5
37A
330
374
100
AcDbEntity
  8
VERMASSUNG
 62
     0
100
AcDbTrace
 10
202.6353230119499
 20
114.9764271046999
 30
0.0
 11
203.6353230119499
 21
114.9764271046999
 31
0.0
 12
203.13532301195
 22
111.9764271046999
 32
0.0
 13
203.13532301195
 23
111.9764271046999
 33
0.0
  0
SOLID
  5
37B
330
374
100
AcDbEntity
  8
VERMASSUNG
 62
     0
100
AcDbTrace
 10
202.6353230119499
 20
104.9764271046998
 30
0.0
 11
203.6353230119499
 21
104.9764271046998
 31
0.0
 12
203.13532301195
 22
107.9764271046999
 32
0.0
 13
203.13532301195
 23
107.9764271046999
 33
0.0
  0
POINT
  5
37C
330
374
100
AcDbEntity
  8
DEFPOINTS
 62
     0
100
AcDbPoint
 10
200.6330800820999
 20
111.9764271046999
 30
0.0
  0
POINT
  5
37D
330
374
100
AcDbEntity
  8
DEFPOINTS
 62
     0
100
AcDbPoint
 10
200.6330800820999
 20
107.9764271046999
 30
0.0
  0
POINT
  5
37E
330
374
100
AcDbEntity
  8
DEFPOINTS
 62
     0
100
AcDbPoint
 10
203.13532301195
 20
107.9764271046999
 30
0.0
  0
ENDBLK
  5
380
330
374
100
AcDbEntity
  8
0
100
AcDbBlockEnd
  0
BLOCK
  5
38C
330
381
100
AcDbEntity
  8
0
100
AcDbBlockBegin
  2
*D12
 70
     1
 10
0.0
 20
0.0
 30
0.0
  3
*D12
  1

  0
LINE
  5
382
330
381
100
AcDbEntity
  8
VERMASSUNG
 62
     0
100
AcDbLine
 10
172.4330800820996
 20
114.9764271046999
 30
0.0
 11
168.16399863605
 21
114.9764271046999
 31
0.0
  0
LINE
  5
383
330
381
100
AcDbEntity
  8
VERMASSUNG
 62
     0
100
AcDbLine
 10
172.4330800820996
 20
104.9764271046998
 30
0.0
 11
168.16399863605
 21
104.9764271046998
 31
0.0
  0
LINE
  5
384
330
381
100
AcDbEntity
  8
VERMASSUNG
 62
     0
100
AcDbLine
 10
169.16399863605
 20
117.9764271046998
 30
0.0
 11
169.16399863605
 21
120.9764271046998
 31
0.0
  0
LINE
  5
385
330
381
100
AcDbEntity
  8
VERMASSUNG
 62
     0
100
AcDbLine
 10
169.16399863605
 20
101.9764271046998
 30
0.0
 11
169.16399863605
 21
98.9764271047
 31
0.0
  0
MTEXT
  5
386
330
381
100
AcDbEntity
  8
VERMASSUNG
 62
     0
100
AcDbMText
 10
169.16399863605
 20
109.9220117259
 30
0.0
 40
2.0
 41
0.0
 71
     5
 72
     1
  1
\A1;%%c2.50
1001
ACAD
1000
MTEXTBEGIN
1070
    73
1070
     1
1070
    44
1040
1.0
1070
    74
1070
     0
1000
MTEXTEND
  0
SOLID
  5
387
330
381
100
AcDbEntity
  8
VERMASSUNG
 62
     0
100
AcDbTrace
 10
168.6639986360499
 20
117.9764271046998
 30
0.0
 11
169.6639986360499
 21
117.9764271046998
 31
0.0
 12
169.16399863605
 22
114.9764271046999
 32
0.0
 13
169.16399863605
 23
114.9764271046999
 33
0.0
  0
SOLID
  5
388
330
381
100
AcDbEntity
  8
VERMASSUNG
 62
     0
100
AcDbTrace
 10
168.6639986360499
 20
101.9764271046998
 30
0.0
 11
169.6639986360499
 21
101.9764271046998
 31
0.0
 12
169.16399863605
 22
104.9764271046998
 32
0.0
 13
169.16399863605
 23
104.9764271046998
 33
0.0
  0
POINT
  5
389
330
381
100
AcDbEntity
  8
DEFPOINTS
 62
     0
100
AcDbPoint
 10
172.4330800820996
 20
114.9764271046999
 30
0.0
  0
POINT
  5
38A
330
381
100
AcDbEntity
  8
DEFPOINTS
 62
     0
100
AcDbPoint
 10
172.4330800820996
 20
104.9764271046998
 30
0.0
  0
POINT
  5
38B
330
381
100
AcDbEntity
  8
DEFPOINTS
 62
     0
100
AcDbPoint
 10
169.16399863605
 20
104.9764271046998
 30
0.0
  0
ENDBLK
  5
38D
330
381
100
AcDbEntity
  8
0
100
AcDbBlockEnd
  0
BLOCK
  5
3DC
330
3D2
100
AcDbEntity
  8
0
100
AcDbBlockBegin
  2
*D13
 70
     1
 10
0.0
 20
0.0
 30
0.0
  3
*D13
  1

  0
LINE
  5
46D
330
3D2
100
AcDbEntity
  8
SK2
 62
     0
100
AcDbLine
 10
-94.38622541728959
 20
-28.83717084997194
 30
0.0
 11
-100.1553068633395
 21
-28.83717084997194
 31
0.0
  0
LINE
  5
46E
330
3D2
100
AcDbEntity
  8
SK2
 62
     0
100
AcDbLine
 10
-94.38622541728959
 20
-38.83717084997192
 30
0.0
 11
-100.1553068633395
 21
-38.83717084997192
 31
0.0
  0
LINE
  5
46F
330
3D2
100
AcDbEntity
  8
SK2
 62
     0
100
AcDbLine
 10
-97.6553068633396
 20
-24.26717084997193
 30
0.0
 11
-97.6553068633396
 21
-19.69717084997192
 31
0.0
  0
LINE
  5
470
330
3D2
100
AcDbEntity
  8
SK2
 62
     0
100
AcDbLine
 10
-97.65530686333963
 20
-43.40717084997192
 30
0.0
 11
-97.65530686333963
 21
-47.97717084997191
 31
0.0
  0
LINE
  5
471
330
3D2
100
AcDbEntity
  8
SK2
 62
     0
100
AcDbLine
 10
-97.6553068633396
 20
-28.83717084997194
 30
0.0
 11
-97.65530686333963
 21
-38.83717084997192
 31
0.0
  0
SOLID
  5
472
330
3D2
100
AcDbEntity
  8
SK2
 62
     0
100
AcDbTrace
 10
-98.41697353000627
 20
-24.26717084997193
 30
0.0
 11
-96.89364019667294
 21
-24.26717084997193
 31
0.0
 12
-97.6553068633396
 22
-28.83717084997194
 32
0.0
 13
-97.6553068633396
 23
-28.83717084997194
 33
0.0
  0
SOLID
  5
473
330
3D2
100
AcDbEntity
  8
SK2
 62
     0
100
AcDbTrace
 10
-98.41697353000627
 20
-43.40717084997192
 30
0.0
 11
-96.89364019667294
 21
-43.40717084997192
 31
0.0
 12
-97.65530686333963
 22
-38.83717084997192
 32
0.0
 13
-97.65530686333963
 23
-38.83717084997192
 33
0.0
  0
MTEXT
  5
474
330
3D2
100
AcDbEntity
  8
SK2
 62
     7
100
AcDbMText
 10
-101.4403068633396
 20
-33.83717084997194
 30
0.0
 40
4.57
 41
0.0
 71
     5
 72
     1
  1
\A1;%%c10
  7
GENPRESET
 11
0.0000000000000001
 21
1.0
 31
0.0
1001
ACAD
1000
MTEXTBEGIN
1070
    73
1070
     1
1070
    44
1040
1.0
1070
    74
1070
     0
1000
MTEXTEND
  0
POINT
  5
475
330
3D2
100
AcDbEntity
  8
DEFPOINTS
 62
     0
100
AcDbPoint
 10
-94.38622541728959
 20
-28.83717084997194
 30
0.0
  0
POINT
  5
476
330
3D2
100
AcDbEntity
  8
DEFPOINTS
 62
     0
100
AcDbPoint
 10
-94.38622541728959
 20
-38.83717084997192
 30
0.0
  0
POINT
  5
477
330
3D2
100
AcDbEntity
  8
DEFPOINTS
 62
     0
100
AcDbPoint
 10
-97.65530686333963
 20
-38.83717084997192
 30
0.0
  0
ENDBLK
  5
3DD
330
3D2
100
AcDbEntity
  8
0
100
AcDbBlockEnd
  0
BLOCK
  5
3E9
330
3DE
100
AcDbEntity
  8
0
100
AcDbBlockBegin
  2
*D14
 70
     1
 10
0.0
 20
0.0
 30
0.0
  3
*D14
  1

  0
LINE
  5
459
330
3DE
100
AcDbEntity
  8
SK2
 62
     0
100
AcDbLine
 10
-58.60156964909322
 20
-32.6186440730799
 30
0.0
 11
-47.66626403515804
 21
-32.61864407307991
 31
0.0
  0
LINE
  5
45A
330
3DE
100
AcDbEntity
  8
SK2
 62
     0
100
AcDbLine
 10
-58.60156964909322
 20
-36.6186440730799
 30
0.0
 11
-47.66626403515804
 21
-36.6186440730799
 31
0.0
  0
LINE
  5
45B
330
3DE
100
AcDbEntity
  8
SK2
 62
     0
100
AcDbLine
 10
-50.16626403515804
 20
-41.18864407307991
 30
0.0
 11
-50.16626403515804
 21
-45.75864407307991
 31
0.0
  0
LINE
  5
45C
330
3DE
100
AcDbEntity
  8
SK2
 62
     0
100
AcDbLine
 10
-50.16626403515804
 20
-28.04864407307991
 30
0.0
 11
-50.16626403515804
 21
-13.07959645403226
 31
0.0
  0
LINE
  5
45D
330
3DE
100
AcDbEntity
  8
SK2
 62
     0
100
AcDbLine
 10
-50.16626403515804
 20
-36.6186440730799
 30
0.0
 11
-50.16626403515804
 21
-32.6186440730799
 31
0.0
  0
SOLID
  5
45E
330
3DE
100
AcDbEntity
  8
SK2
 62
     0
100
AcDbTrace
 10
-50.92793070182471
 20
-41.18864407307991
 30
0.0
 11
-49.40459736849136
 21
-41.18864407307991
 31
0.0
 12
-50.16626403515804
 22
-36.6186440730799
 32
0.0
 13
-50.16626403515804
 23
-36.6186440730799
 33
0.0
  0
SOLID
  5
45F
330
3DE
100
AcDbEntity
  8
SK2
 62
     0
100
AcDbTrace
 10
-50.92793070182471
 20
-28.04864407307991
 30
0.0
 11
-49.40459736849136
 21
-28.04864407307991
 31
0.0
 12
-50.16626403515804
 22
-32.6186440730799
 32
0.0
 13
-50.16626403515804
 23
-32.6186440730799
 33
0.0
  0
MTEXT
  5
460
330
3DE
100
AcDbEntity
  8
SK2
 62
     7
100
AcDbMText
 10
-53.95126403515804
 20
-18.27912026355607
 30
0.0
 40
4.57
 41
0.0
 71
     5
 72
     1
  1
\A1;%%c4
  7
GENPRESET
 11
0.0000000000000001
 21
1.0
 31
0.0
1001
ACAD
1000
MTEXTBEGIN
1070
    73
1070
     1
1070
    44
1040
1.0
1070
    74
1070
     0
1000
MTEXTEND
  0
POINT
  5
461
330
3DE
100
AcDbEntity
  8
DEFPOINTS
 62
     0
100
AcDbPoint
 10
-58.60156964909322
 20
-32.6186440730799
 30
0.0
  0
POINT
  5
462
330
3DE
100
AcDbEntity
  8
DEFPOINTS
 62
     0
100
AcDbPoint
 10
-58.60156964909322
 20
-36.6186440730799
 30
0.0
  0
POINT
  5
463
330
3DE
100
AcDbEntity
  8
DEFPOINTS
 62
     0
100
AcDbPoint
 10
-50.16626403515804
 20
-36.6186440730799
 30
0.0
  0
ENDBLK
  5
3EA
330
3DE
100
AcDbEntity
  8
0
100
AcDbBlockEnd
  0
BLOCK
  5
3F5
330
3EB
100
AcDbEntity
  8
0
100
AcDbBlockBegin
  2
*D15
 70
     1
 10
0.0
 20
0.0
 30
0.0
  3
*D15
  1

  0
LINE
  5
464
330
3EB
100
AcDbEntity
  8
2
 62
     0
100
AcDbLine
 10
-58.30156964909321
 20
-28.61864407307992
 30
0.0
 11
-58.30156964909321
 21
-23.85595258635491
 31
0.0
  0
LINE
  5
465
330
3EB
100
AcDbEntity
  8
2
 62
     0
100
AcDbLine
 10
-87.80156964909322
 20
-29.98261430732991
 30
0.0
 11
-87.80156964909322
 21
-23.85595258635491
 31
0.0
  0
LINE
  5
466
330
3EB
100
AcDbEntity
  8
2
 62
     0
100
AcDbLine
 10
-62.87156964909321
 20
-26.35595258635492
 30
0.0
 11
-83.23156964909321
 21
-26.35595258635492
 31
0.0
  0
SOLID
  5
467
330
3EB
100
AcDbEntity
  8
2
 62
     0
100
AcDbTrace
 10
-62.87156964909321
 20
-25.59428591968825
 30
0.0
 11
-62.87156964909321
 21
-27.11761925302158
 31
0.0
 12
-58.30156964909321
 22
-26.35595258635492
 32
0.0
 13
-58.30156964909321
 23
-26.35595258635492
 33
0.0
  0
SOLID
  5
468
330
3EB
100
AcDbEntity
  8
2
 62
     0
100
AcDbTrace
 10
-83.23156964909321
 20
-25.59428591968825
 30
0.0
 11
-83.23156964909321
 21
-27.11761925302158
 31
0.0
 12
-87.80156964909322
 22
-26.35595258635492
 32
0.0
 13
-87.80156964909322
 23
-26.35595258635492
 33
0.0
  0
MTEXT
  5
469
330
3EB
100
AcDbEntity
  8
2
 62
     7
100
AcDbMText
 10
-72.8464913816682
 20
-22.57095258635489
 30
0.0
 40
4.57
 41
0.0
 71
     5
 72
     1
  1
\A1;29.5
  7
GENPRESET
1001
ACAD
1000
MTEXTBEGIN
1070
    73
1070
     1
1070
    44
1040
1.0
1070
    74
1070
     0
1000
MTEXTEND
  0
POINT
  5
46A
330
3EB
100
AcDbEntity
  8
DEFPOINTS
 62
     0
100
AcDbPoint
 10
-58.30156964909321
 20
-28.61864407307992
 30
0.0
  0
POINT
  5
46B
330
3EB
100
AcDbEntity
  8
DEFPOINTS
 62
     0
100
AcDbPoint
 10
-87.80156964909322
 20
-29.98261430732991
 30
0.0
  0
POINT
  5
46C
330
3EB
100
AcDbEntity
  8
DEFPOINTS
 62
     0
100
AcDbPoint
 10
-87.80156964909322
 20
-26.35595258635492
 30
0.0
  0
ENDBLK
  5
3F6
330
3EB
100
AcDbEntity
  8
0
100
AcDbBlockEnd
  0
BLOCK
  5
480
330
478
100
AcDbEntity
  8
0
100
AcDbBlockBegin
  2
*D16
 70
     1
 10
0.0
 20
0.0
 30
0.0
  3
*D16
  1

  0
SOLID
  5
479
330
478
100
AcDbEntity
  8
VERMASSUNG
100
AcDbTrace
 10
224.0749913859999
 20
112.9475326546
 30
0.0
 11
223.6249913859999
 21
109.9475326545999
 31
0.0
 12
224.5249913859999
 22
109.9475326545999
 32
0.0
 13
224.5249913859999
 23
109.9475326545999
 33
0.0
  0
SOLID
  5
47A
330
478
100
AcDbEntity
  8
VERMASSUNG
100
AcDbTrace
 10
224.0749913859999
 20
96.94753265460001
 30
0.0
 11
224.5249913859999
 21
99.94753265459999
 31
0.0
 12
223.6249913859999
 22
99.94753265459999
 32
0.0
 13
223.6249913859999
 23
99.94753265459999
 33
0.0
  0
LINE
  5
47B
330
478
100
AcDbEntity
  8
VERMASSUNG
100
AcDbLine
 10
192.6308932238
 20
112.9475326546
 30
0.0
 11
225.074991386
 21
112.9475326546
 31
0.0
  0
LINE
  5
47C
330
478
100
AcDbEntity
  8
VERMASSUNG
100
AcDbLine
 10
209.2558932238
 20
96.94753265460001
 30
0.0
 11
225.074991386
 21
96.94753265460001
 31
0.0
  0
LINE
  5
47D
330
478
100
AcDbEntity
  8
VERMASSUNG
100
AcDbLine
 10
224.0749913859999
 20
112.9475326546
 30
0.0
 11
224.0749913859999
 21
96.94753265460001
 31
0.0
  0
MTEXT
  5
47E
330
478
100
AcDbEntity
  8
VERMASSUNG
100
AcDbMText
 10
221.4749913277996
 20
101.9445699235
 30
0.0
 40
2.0
 41
0.0
 71
     1
 72
     1
  1
{%%c}
  7
SLDTEXTSTYLE0
 11
-0.000000000000007
 21
1.0
 31
0.0
1001
ACAD
1000
MTEXTBEGIN
1070
    73
1070
     1
1070
    44
1040
1.0
1070
    74
1070
     0
1000
MTEXTEND
  0
MTEXT
  5
47F
330
478
100
AcDbEntity
  8
VERMASSUNG
100
AcDbMText
 10
221.4749912695999
 20
105.5524795745
 30
0.0
 40
2.0
 41
0.0
 71
     1
 72
     1
  1
{16}
  7
SLDTEXTSTYLE0
 11
-0.000000000000007
 21
1.0
 31
0.0
1001
ACAD
1000
MTEXTBEGIN
1070
    73
1070
     1
1070
    44
1040
1.0
1070
    74
1070
     0
1000
MTEXTEND
  0
ENDBLK
  5
481
330
478
100
AcDbEntity
  8
0
100
AcDbBlockEnd
  0
BLOCK
  5
48A
330
482
100
AcDbEntity
  8
0
100
AcDbBlockBegin
  2
*D17
 70
     1
 10
0.0
 20
0.0
 30
0.0
  3
*D17
  1

  0
SOLID
  5
483
330
482
100
AcDbEntity
  8
VERMASSUNG
100
AcDbTrace
 10
218.074991386
 20
109.9475326545999
 30
0.0
 11
217.6249913859999
 21
106.9475326545999
 31
0.0
 12
218.5249913859999
 22
106.9475326545999
 32
0.0
 13
218.5249913859999
 23
106.9475326545999
 33
0.0
  0
SOLID
  5
484
330
482
100
AcDbEntity
  8
VERMASSUNG
100
AcDbTrace
 10
218.074991386
 20
99.94753265459999
 30
0.0
 11
218.5249913859999
 21
102.9475326545999
 31
0.0
 12
217.6249913859999
 22
102.9475326545999
 32
0.0
 13
217.6249913859999
 23
102.9475326545999
 33
0.0
  0
LINE
  5
485
330
482
100
AcDbEntity
  8
VERMASSUNG
100
AcDbLine
 10
210.8558932238
 20
109.9475326545999
 30
0.0
 11
219.0749913859999
 21
109.9475326545999
 31
0.0
  0
LINE
  5
486
330
482
100
AcDbEntity
  8
VERMASSUNG
100
AcDbLine
 10
210.8558932238
 20
99.94753265459999
 30
0.0
 11
219.0749913859999
 21
99.94753265459999
 31
0.0
  0
LINE
  5
487
330
482
100
AcDbEntity
  8
VERMASSUNG
100
AcDbLine
 10
218.074991386
 20
109.9475326545999
 30
0.0
 11
218.074991386
 21
99.94753265459999
 31
0.0
  0
MTEXT
  5
488
330
482
100
AcDbEntity
  8
VERMASSUNG
100
AcDbMText
 10
215.4749913277999
 20
101.9445699235
 30
0.0
 40
2.0
 41
0.0
 71
     1
 72
     1
  1
{%%c}
  7
SLDTEXTSTYLE0
 11
-0.000000000000007
 21
1.0
 31
0.0
1001
ACAD
1000
MTEXTBEGIN
1070
    73
1070
     1
1070
    44
1040
1.0
1070
    74
1070
     0
1000
MTEXTEND
  0
MTEXT
  5
489
330
482
100
AcDbEntity
  8
VERMASSUNG
100
AcDbMText
 10
215.4749912695999
 20
105.5524795745
 30
0.0
 40
2.0
 41
0.0
 71
     1
 72
     1
  1
{10}
  7
SLDTEXTSTYLE0
 11
-0.000000000000007
 21
1.0
 31
0.0
1001
ACAD
1000
MTEXTBEGIN
1070
    73
1070
     1
1070
    44
1040
1.0
1070
    74
1070
     0
1000
MTEXTEND
  0
ENDBLK
  5
48B
330
482
100
AcDbEntity
  8
0
100
AcDbBlockEnd
  0
BLOCK
  5
493
330
48C
100
AcDbEntity
  8
0
100
AcDbBlockBegin
  2
*D18
 70
     1
 10
0.0
 20
0.0
 30
0.0
  3
*D18
  1

  0
SOLID
  5
48D
330
48C
100
AcDbEntity
  8
VERMASSUNG
100
AcDbTrace
 10
83.2558932238
 20
123.5341415624999
 30
0.0
 11
86.25589322379999
 21
123.0841415625
 31
0.0
 12
86.25589322379999
 22
123.9841415624999
 32
0.0
 13
86.25589322379999
 23
123.9841415624999
 33
0.0
  0
SOLID
  5
48E
330
48C
100
AcDbEntity
  8
VERMASSUNG
100
AcDbTrace
 10
211.2558932238
 20
123.5341415624999
 30
0.0
 11
208.2558932238
 21
123.9841415624999
 31
0.0
 12
208.2558932238
 22
123.0841415625
 32
0.0
 13
208.2558932238
 23
123.0841415625
 33
0.0
  0
LINE
  5
48F
330
48C
100
AcDbEntity
  8
VERMASSUNG
100
AcDbLine
 10
83.2558932238
 20
111.5475326546
 30
0.0
 11
83.2558932238
 21
124.5341415625
 31
0.0
  0
LINE
  5
490
330
48C
100
AcDbEntity
  8
VERMASSUNG
100
AcDbLine
 10
211.2558932238
 20
111.7928321162
 30
0.0
 11
211.2558932238
 21
124.5341415625
 31
0.0
  0
LINE
  5
491
330
48C
100
AcDbEntity
  8
VERMASSUNG
100
AcDbLine
 10
83.2558932238
 20
123.5341415624999
 30
0.0
 11
211.2558932238
 21
123.5341415624999
 31
0.0
  0
MTEXT
  5
492
330
48C
100
AcDbEntity
  8
VERMASSUNG
100
AcDbMText
 10
145.3570752567
 20
126.1341416789
 30
0.0
 40
2.0
 41
0.0
 71
     1
 72
     1
  1
{128}
  7
SLDTEXTSTYLE0
1001
ACAD
1000
MTEXTBEGIN
1070
    73
1070
     1
1070
    44
1040
1.0
1070
    74
1070
     0
1000
MTEXTEND
  0
ENDBLK
  5
494
330
48C
100
AcDbEntity
  8
0
100
AcDbBlockEnd
  0
BLOCK
  5
59B
330
591
100
AcDbEntity
  8
0
100
AcDbBlockBegin
  2
*D19
 70
     1
 10
0.0
 20
0.0
 30
0.0
  3
*D19
  1

  0
LINE
  5
675
330
591
100
AcDbEntity
  8
SK2
 62
     0
100
AcDbLine
 10
-75.21060031354581
 20
-48.56586858911708
 30
0.0
 11
-63.1730446365162
 21
-48.56586858911708
 31
0.0
  0
LINE
  5
676
330
591
100
AcDbEntity
  8
SK2
 62
     0
100
AcDbLine
 10
-75.21060031354581
 20
-58.56586858911708
 30
0.0
 11
-63.1730446365162
 21
-58.56586858911708
 31
0.0
  0
LINE
  5
677
330
591
100
AcDbEntity
  8
SK2
 62
     0
100
AcDbLine
 10
-65.6730446365162
 20
-43.99586858911709
 30
0.0
 11
-65.6730446365162
 21
-39.42586858911708
 31
0.0
  0
LINE
  5
678
330
591
100
AcDbEntity
  8
SK2
 62
     0
100
AcDbLine
 10
-65.6730446365162
 20
-63.13586858911708
 30
0.0
 11
-65.6730446365162
 21
-67.7058685891171
 31
0.0
  0
LINE
  5
679
330
591
100
AcDbEntity
  8
SK2
 62
     0
100
AcDbLine
 10
-65.6730446365162
 20
-48.56586858911708
 30
0.0
 11
-65.6730446365162
 21
-58.56586858911708
 31
0.0
  0
SOLID
  5
67A
330
591
100
AcDbEntity
  8
SK2
 62
     0
100
AcDbTrace
 10
-66.43471130318286
 20
-43.99586858911709
 30
0.0
 11
-64.91137796984952
 21
-43.99586858911709
 31
0.0
 12
-65.6730446365162
 22
-48.56586858911708
 32
0.0
 13
-65.6730446365162
 23
-48.56586858911708
 33
0.0
  0
SOLID
  5
67B
330
591
100
AcDbEntity
  8
SK2
 62
     0
100
AcDbTrace
 10
-66.43471130318286
 20
-63.13586858911708
 30
0.0
 11
-64.91137796984952
 21
-63.13586858911708
 31
0.0
 12
-65.6730446365162
 22
-58.56586858911708
 32
0.0
 13
-65.6730446365162
 23
-58.56586858911708
 33
0.0
  0
MTEXT
  5
67C
330
591
100
AcDbEntity
  8
SK2
 62
     7
100
AcDbMText
 10
-69.45804463651618
 20
-53.56586858911709
 30
0.0
 40
4.57
 41
0.0
 71
     5
 72
     1
  1
\A1;%%c10
  7
GENPRESET
 11
0.0000000000000001
 21
1.0
 31
0.0
1001
ACAD
1000
MTEXTBEGIN
1070
    73
1070
     1
1070
    44
1040
1.0
1070
    74
1070
     0
1000
MTEXTEND
  0
POINT
  5
67D
330
591
100
AcDbEntity
  8
DEFPOINTS
 62
     0
100
AcDbPoint
 10
-75.21060031354581
 20
-48.56586858911708
 30
0.0
  0
POINT
  5
67E
330
591
100
AcDbEntity
  8
DEFPOINTS
 62
     0
100
AcDbPoint
 10
-75.21060031354581
 20
-58.56586858911708
 30
0.0
  0
POINT
  5
67F
330
591
100
AcDbEntity
  8
DEFPOINTS
 62
     0
100
AcDbPoint
 10
-65.6730446365162
 20
-58.56586858911708
 30
0.0
  0
ENDBLK
  5
59C
330
591
100
AcDbEntity
  8
0
100
AcDbBlockEnd
  0
BLOCK
  5
5A7
330
59D
100
AcDbEntity
  8
0
100
AcDbBlockBegin
  2
*D20
 70
     1
 10
0.0
 20
0.0
 30
0.0
  3
*D20
  1

  0
LINE
  5
66C
330
59D
100
AcDbEntity
  8
2
 62
     0
100
AcDbLine
 10
-202.8106003135456
 20
-46.9658685891171
 30
0.0
 11
-202.8106003135456
 21
-32.47925968121708
 31
0.0
  0
LINE
  5
66D
330
59D
100
AcDbEntity
  8
2
 62
     0
100
AcDbLine
 10
-74.81060031354584
 20
-46.72056912751708
 30
0.0
 11
-74.81060031354584
 21
-32.47925968121708
 31
0.0
  0
LINE
  5
66E
330
59D
100
AcDbEntity
  8
2
 62
     0
100
AcDbLine
 10
-198.2406003135458
 20
-34.97925968121708
 30
0.0
 11
-79.38060031354584
 21
-34.97925968121708
 31
0.0
  0
SOLID
  5
66F
330
59D
100
AcDbEntity
  8
2
 62
     0
100
AcDbTrace
 10
-198.2406003135458
 20
-34.21759301455042
 30
0.0
 11
-198.2406003135458
 21
-35.74092634788375
 31
0.0
 12
-202.8106003135456
 22
-34.97925968121708
 32
0.0
 13
-202.8106003135456
 23
-34.97925968121708
 33
0.0
  0
SOLID
  5
670
330
59D
100
AcDbEntity
  8
2
 62
     0
100
AcDbTrace
 10
-79.38060031354584
 20
-34.21759301455042
 30
0.0
 11
-79.38060031354584
 21
-35.74092634788375
 31
0.0
 12
-74.81060031354584
 22
-34.97925968121708
 32
0.0
 13
-74.81060031354584
 23
-34.97925968121708
 33
0.0
  0
MTEXT
  5
671
330
59D
100
AcDbEntity
  8
2
 62
     7
100
AcDbMText
 10
-138.8106003135457
 20
-31.19425968121708
 30
0.0
 40
4.57
 41
0.0
 71
     5
 72
     1
  1
\A1;128
  7
GENPRESET
1001
ACAD
1000
MTEXTBEGIN
1070
    73
1070
     1
1070
    44
1040
1.0
1070
    74
1070
     0
1000
MTEXTEND
  0
POINT
  5
672
330
59D
100
AcDbEntity
  8
DEFPOINTS
 62
     0
100
AcDbPoint
 10
-202.8106003135456
 20
-46.9658685891171
 30
0.0
  0
POINT
  5
673
330
59D
100
AcDbEntity
  8
DEFPOINTS
 62
     0
100
AcDbPoint
 10
-74.81060031354584
 20
-46.72056912751708
 30
0.0
  0
POINT
  5
674
330
59D
100
AcDbEntity
  8
DEFPOINTS
 62
     0
100
AcDbPoint
 10
-74.81060031354584
 20
-34.97925968121708
 30
0.0
  0
ENDBLK
  5
5A8
330
59D
100
AcDbEntity
  8
0
100
AcDbBlockEnd
  0
BLOCK
  5
5B3
330
5A9
100
AcDbEntity
  8
0
100
AcDbBlockBegin
  2
*D21
 70
     1
 10
0.0
 20
0.0
 30
0.0
  3
*D21
  1

  0
LINE
  5
613
330
5A9
100
AcDbEntity
  8
SK2
 62
     0
100
AcDbLine
 10
74.37872966883806
 20
7.999999999999999
 30
0.0
 11
113.4928112522329
 21
7.999999999999986
 31
0.0
  0
LINE
  5
614
330
5A9
100
AcDbEntity
  8
SK2
 62
     0
100
AcDbLine
 10
91.00372966883806
 20
-8.0
 30
0.0
 11
113.4928112522329
 21
-8.000000000000008
 31
0.0
  0
LINE
  5
615
330
5A9
100
AcDbEntity
  8
SK2
 62
     0
100
AcDbLine
 10
110.9928112522329
 20
3.429999999999988
 30
0.0
 11
110.9928112522329
 21
-3.430000000000004
 31
0.0
  0
SOLID
  5
616
330
5A9
100
AcDbEntity
  8
SK2
 62
     0
100
AcDbTrace
 10
110.2311445855661
 20
3.429999999999988
 30
0.0
 11
111.7544779188996
 21
3.429999999999988
 31
0.0
 12
110.9928112522329
 22
7.999999999999986
 32
0.0
 13
110.9928112522329
 23
7.999999999999986
 33
0.0
  0
SOLID
  5
617
330
5A9
100
AcDbEntity
  8
SK2
 62
     0
100
AcDbTrace
 10
110.2311445855661
 20
-3.430000000000004
 30
0.0
 11
111.7544779188996
 21
-3.430000000000004
 31
0.0
 12
110.9928112522329
 22
-8.000000000000005
 32
0.0
 13
110.9928112522329
 23
-8.000000000000005
 33
0.0
  0
MTEXT
  5
618
330
5A9
100
AcDbEntity
  8
SK2
 62
     7
100
AcDbMText
 10
104.9228112522329
 20
-5.222857142857143
 30
0.0
 40
4.57
 41
0.0
 71
     1
 72
     1
  1
\A1;%%c16
  7
GENPRESET
 11
0.0000000000000001
 21
1.0
 31
0.0
1001
ACAD
1000
MTEXTBEGIN
1070
    73
1070
     1
1070
    44
1040
1.0
1070
    74
1070
     0
1000
MTEXTEND
  0
POINT
  5
619
330
5A9
100
AcDbEntity
  8
DEFPOINTS
 62
     0
100
AcDbPoint
 10
74.37872966883806
 20
7.999999999999999
 30
0.0
  0
POINT
  5
61A
330
5A9
100
AcDbEntity
  8
DEFPOINTS
 62
     0
100
AcDbPoint
 10
91.00372966883806
 20
-8.0
 30
0.0
  0
POINT
  5
61B
330
5A9
100
AcDbEntity
  8
DEFPOINTS
 62
     0
100
AcDbPoint
 10
110.9928112522329
 20
-8.000000000000005
 30
0.0
  0
ENDBLK
  5
5B4
330
5A9
100
AcDbEntity
  8
0
100
AcDbBlockEnd
  0
BLOCK
  5
62C
330
624
100
AcDbEntity
  8
0
100
AcDbBlockBegin
  2
*D22
 70
     1
 10
0.0
 20
0.0
 30
0.0
  3
*D22
  1

  0
SOLID
  5
625
330
624
100
AcDbEntity
  8
VERMASSUNG
100
AcDbTrace
 10
224.0749913859999
 20
112.9475326546
 30
0.0
 11
223.6249913859999
 21
109.9475326545999
 31
0.0
 12
224.5249913859999
 22
109.9475326545999
 32
0.0
 13
224.5249913859999
 23
109.9475326545999
 33
0.0
  0
SOLID
  5
626
330
624
100
AcDbEntity
  8
VERMASSUNG
100
AcDbTrace
 10
224.0749913859999
 20
96.94753265460001
 30
0.0
 11
224.5249913859999
 21
99.94753265459999
 31
0.0
 12
223.6249913859999
 22
99.94753265459999
 32
0.0
 13
223.6249913859999
 23
99.94753265459999
 33
0.0
  0
LINE
  5
627
330
624
100
AcDbEntity
  8
VERMASSUNG
100
AcDbLine
 10
192.6308932238
 20
112.9475326546
 30
0.0
 11
225.074991386
 21
112.9475326546
 31
0.0
  0
LINE
  5
628
330
624
100
AcDbEntity
  8
VERMASSUNG
100
AcDbLine
 10
209.2558932238
 20
96.94753265460001
 30
0.0
 11
225.074991386
 21
96.94753265460001
 31
0.0
  0
LINE
  5
629
330
624
100
AcDbEntity
  8
VERMASSUNG
100
AcDbLine
 10
224.0749913859999
 20
112.9475326546
 30
0.0
 11
224.0749913859999
 21
96.94753265460001
 31
0.0
  0
MTEXT
  5
62A
330
624
100
AcDbEntity
  8
VERMASSUNG
100
AcDbMText
 10
221.4749913277996
 20
101.9445699235
 30
0.0
 40
2.0
 41
0.0
 71
     1
 72
     1
  1
{%%c}
  7
SLDTEXTSTYLE0
 11
-0.000000000000007
 21
1.0
 31
0.0
1001
ACAD
1000
MTEXTBEGIN
1070
    73
1070
     1
1070
    44
1040
1.0
1070
    74
1070
     0
1000
MTEXTEND
  0
MTEXT
  5
62B
330
624
100
AcDbEntity
  8
VERMASSUNG
100
AcDbMText
 10
221.4749912695999
 20
105.5524795745
 30
0.0
 40
2.0
 41
0.0
 71
     1
 72
     1
  1
{16}
  7
SLDTEXTSTYLE0
 11
-0.000000000000007
 21
1.0
 31
0.0
1001
ACAD
1000
MTEXTBEGIN
1070
    73
1070
     1
1070
    44
1040
1.0
1070
    74
1070
     0
1000
MTEXTEND
  0
ENDBLK
  5
62D
330
624
100
AcDbEntity
  8
0
100
AcDbBlockEnd
  0
BLOCK
  5
63E
330
634
100
AcDbEntity
  8
0
100
AcDbBlockBegin
  2
*D23
 70
     1
 10
0.0
 20
0.0
 30
0.0
  3
*D23
  1

  0
LINE
  5
680
330
634
100
AcDbEntity
  8
SK2
 62
     0
100
AcDbLine
 10
-76.81060031354585
 20
-45.5658685891171
 30
0.0
 11
-55.4273690753814
 21
-45.5658685891171
 31
0.0
  0
LINE
  5
681
330
634
100
AcDbEntity
  8
SK2
 62
     0
100
AcDbLine
 10
-76.81060031354583
 20
-61.56586858911708
 30
0.0
 11
-55.4273690753814
 21
-61.56586858911708
 31
0.0
  0
LINE
  5
682
330
634
100
AcDbEntity
  8
SK2
 62
     0
100
AcDbLine
 10
-57.9273690753814
 20
-50.13586858911708
 30
0.0
 11
-57.9273690753814
 21
-56.99586858911708
 31
0.0
  0
SOLID
  5
683
330
634
100
AcDbEntity
  8
SK2
 62
     0
100
AcDbTrace
 10
-58.68903574204807
 20
-50.13586858911708
 30
0.0
 11
-57.16570240871472
 21
-50.13586858911708
 31
0.0
 12
-57.9273690753814
 22
-45.5658685891171
 32
0.0
 13
-57.9273690753814
 23
-45.5658685891171
 33
0.0
  0
SOLID
  5
684
330
634
100
AcDbEntity
  8
SK2
 62
     0
100
AcDbTrace
 10
-58.68903574204807
 20
-56.99586858911708
 30
0.0
 11
-57.16570240871472
 21
-56.99586858911708
 31
0.0
 12
-57.9273690753814
 22
-61.56586858911708
 32
0.0
 13
-57.9273690753814
 23
-61.56586858911708
 33
0.0
  0
MTEXT
  5
685
330
634
100
AcDbEntity
  8
SK2
 62
     7
100
AcDbMText
 10
-61.71236907538141
 20
-53.56586858911708
 30
0.0
 40
4.57
 41
0.0
 71
     5
 72
     1
  1
\A1;%%c16
  7
GENPRESET
 11
0.0000000000000001
 21
1.0
 31
0.0
1001
ACAD
1000
MTEXTBEGIN
1070
    73
1070
     1
1070
    44
1040
1.0
1070
    74
1070
     0
1000
MTEXTEND
  0
POINT
  5
686
330
634
100
AcDbEntity
  8
DEFPOINTS
 62
     0
100
AcDbPoint
 10
-76.81060031354585
 20
-45.5658685891171
 30
0.0
  0
POINT
  5
687
330
634
100
AcDbEntity
  8
DEFPOINTS
 62
     0
100
AcDbPoint
 10
-76.81060031354583
 20
-61.56586858911708
 30
0.0
  0
POINT
  5
688
330
634
100
AcDbEntity
  8
DEFPOINTS
 62
     0
100
AcDbPoint
 10
-57.9273690753814
 20
-61.56586858911708
 30
0.0
  0
ENDBLK
  5
63F
330
634
100
AcDbEntity
  8
0
100
AcDbBlockEnd
  0
BLOCK
  5
691
330
689
100
AcDbEntity
  8
0
100
AcDbBlockBegin
  2
*D24
 70
     1
 10
0.0
 20
0.0
 30
0.0
  3
*D24
  1

  0
SOLID
  5
68A
330
689
100
AcDbEntity
  8
VERMASSUNG
100
AcDbTrace
 10
68.5661396304
 20
119.1083822096999
 30
0.0
 11
68.1161396304
 21
116.1083822096999
 31
0.0
 12
69.0161396304
 22
116.1083822096999
 32
0.0
 13
69.0161396304
 23
116.1083822096999
 33
0.0
  0
SOLID
  5
68B
330
689
100
AcDbEntity
  8
VERMASSUNG
100
AcDbTrace
 10
68.5661396304
 20
103.1083822097
 30
0.0
 11
69.0161396304
 21
106.1083822097
 31
0.0
 12
68.1161396304
 22
106.1083822097
 32
0.0
 13
68.1161396304
 23
106.1083822097
 33
0.0
  0
LINE
  5
68C
330
689
100
AcDbEntity
  8
VERMASSUNG
100
AcDbLine
 10
169.588973306
 20
119.1083822096999
 30
0.0
 11
67.5661396304
 21
119.1083822096999
 31
0.0
  0
LINE
  5
68D
330
689
100
AcDbEntity
  8
VERMASSUNG
100
AcDbLine
 10
75.68897330600001
 20
103.1083822097
 30
0.0
 11
67.5661396304
 21
103.1083822097
 31
0.0
  0
LINE
  5
68E
330
689
100
AcDbEntity
  8
VERMASSUNG
100
AcDbLine
 10
68.5661396304
 20
119.1083822096999
 30
0.0
 11
68.5661396304
 21
103.1083822097
 31
0.0
  0
MTEXT
  5
68F
330
689
100
AcDbEntity
  8
VERMASSUNG
100
AcDbMText
 10
65.9661395722
 20
108.1054194786
 30
0.0
 40
2.0
 41
0.0
 71
     1
 72
     1
  1
{%%c}
  7
SLDTEXTSTYLE0
 11
-0.000000000000007
 21
1.0
 31
0.0
1001
ACAD
1000
MTEXTBEGIN
1070
    73
1070
     1
1070
    44
1040
1.0
1070
    74
1070
     0
1000
MTEXTEND
  0
MTEXT
  5
690
330
689
100
AcDbEntity
  8
VERMASSUNG
100
AcDbMText
 10
65.96613951399999
 20
111.7133291295999
 30
0.0
 40
2.0
 41
0.0
 71
     1
 72
     1
  1
{16}
  7
SLDTEXTSTYLE0
 11
-0.000000000000007
 21
1.0
 31
0.0
1001
ACAD
1000
MTEXTBEGIN
1070
    73
1070
     1
1070
    44
1040
1.0
1070
    74
1070
     0
1000
MTEXTEND
  0
ENDBLK
  5
692
330
689
100
AcDbEntity
  8
0
100
AcDbBlockEnd
  0
BLOCK
  5
69B
330
693
100
AcDbEntity
  8
0
100
AcDbBlockBegin
  2
*D25
 70
     1
 10
0.0
 20
0.0
 30
0.0
  3
*D25
  1

  0
SOLID
  5
694
330
693
100
AcDbEntity
  8
VERMASSUNG
100
AcDbTrace
 10
237.1956701924
 20
123.1083822096999
 30
0.0
 11
236.7456701924
 21
120.1083822096999
 31
0.0
 12
237.6456701924
 22
120.1083822096999
 32
0.0
 13
237.6456701924
 23
120.1083822096999
 33
0.0
  0
SOLID
  5
695
330
693
100
AcDbEntity
  8
VERMASSUNG
100
AcDbTrace
 10
237.1956701924
 20
99.10838220969999
 30
0.0
 11
237.6456701924
 21
102.1083822096997
 31
0.0
 12
236.7456701924
 22
102.1083822096997
 32
0.0
 13
236.7456701924
 23
102.1083822096997
 33
0.0
  0
LINE
  5
696
330
693
100
AcDbEntity
  8
VERMASSUNG
100
AcDbLine
 10
218.1889733059998
 20
123.1083822096999
 30
0.0
 11
238.1956701924
 21
123.1083822096999
 31
0.0
  0
LINE
  5
697
330
693
100
AcDbEntity
  8
VERMASSUNG
100
AcDbLine
 10
218.1889733059998
 20
99.10838220969999
 30
0.0
 11
238.1956701924
 21
99.10838220969999
 31
0.0
  0
LINE
  5
698
330
693
100
AcDbEntity
  8
VERMASSUNG
100
AcDbLine
 10
237.1956701924
 20
123.1083822096999
 30
0.0
 11
237.1956701924
 21
99.10838220969999
 31
0.0
  0
MTEXT
  5
699
330
693
100
AcDbEntity
  8
VERMASSUNG
100
AcDbMText
 10
234.5956701341
 20
107.8052787188999
 30
0.0
 40
2.0
 41
0.0
 71
     1
 72
     1
  1
{%%c}
  7
SLDTEXTSTYLE0
 11
-0.000000000000007
 21
1.0
 31
0.0
1001
ACAD
1000
MTEXTBEGIN
1070
    73
1070
     1
1070
    44
1040
1.0
1070
    74
1070
     0
1000
MTEXTEND
  0
MTEXT
  5
69A
330
693
100
AcDbEntity
  8
VERMASSUNG
100
AcDbMText
 10
234.5956700758999
 20
111.4131883698
 30
0.0
 40
2.0
 41
0.0
 71
     1
 72
     1
  1
{24}
  7
SLDTEXTSTYLE0
 11
-0.000000000000007
 21
1.0
 31
0.0
1001
ACAD
1000
MTEXTBEGIN
1070
    73
1070
     1
1070
    44
1040
1.0
1070
    74
1070
     0
1000
MTEXTEND
  0
ENDBLK
  5
69C
330
693
100
AcDbEntity
  8
0
100
AcDbBlockEnd
  0
BLOCK
  5
6A5
330
69D
100
AcDbEntity
  8
0
100
AcDbBlockBegin
  2
*D26
 70
     1
 10
0.0
 20
0.0
 30
0.0
  3
*D26
  1

  0
SOLID
  5
69E
330
69D
100
AcDbEntity
  8
VERMASSUNG
100
AcDbTrace
 10
231.1956701924
 20
119.1083822096999
 30
0.0
 11
230.7456701923999
 21
116.1083822096999
 31
0.0
 12
231.6456701924
 22
116.1083822096999
 32
0.0
 13
231.6456701924
 23
116.1083822096999
 33
0.0
  0
SOLID
  5
69F
330
69D
100
AcDbEntity
  8
VERMASSUNG
100
AcDbTrace
 10
231.1956701924
 20
103.1083822097
 30
0.0
 11
231.6456701924
 21
106.1083822097
 31
0.0
 12
230.7456701923999
 22
106.1083822097
 32
0.0
 13
230.7456701923999
 23
106.1083822097
 33
0.0
  0
LINE
  5
6A0
330
69D
100
AcDbEntity
  8
VERMASSUNG
100
AcDbLine
 10
221.7889733059999
 20
119.1083822096999
 30
0.0
 11
232.1956701924
 21
119.1083822096999
 31
0.0
  0
LINE
  5
6A1
330
69D
100
AcDbEntity
  8
VERMASSUNG
100
AcDbLine
 10
221.7889733059999
 20
103.1083822097
 30
0.0
 11
232.1956701924
 21
103.1083822097
 31
0.0
  0
LINE
  5
6A2
330
69D
100
AcDbEntity
  8
VERMASSUNG
100
AcDbLine
 10
231.1956701924
 20
119.1083822096999
 30
0.0
 11
231.1956701924
 21
103.1083822097
 31
0.0
  0
MTEXT
  5
6A3
330
69D
100
AcDbEntity
  8
VERMASSUNG
100
AcDbMText
 10
228.5956701341
 20
108.1054194786
 30
0.0
 40
2.0
 41
0.0
 71
     1
 72
     1
  1
{%%c}
  7
SLDTEXTSTYLE0
 11
-0.000000000000007
 21
1.0
 31
0.0
1001
ACAD
1000
MTEXTBEGIN
1070
    73
1070
     1
1070
    44
1040
1.0
1070
    74
1070
     0
1000
MTEXTEND
  0
MTEXT
  5
6A4
330
69D
100
AcDbEntity
  8
VERMASSUNG
100
AcDbMText
 10
228.5956700758999
 20
111.7133291295999
 30
0.0
 40
2.0
 41
0.0
 71
     1
 72
     1
  1
{16}
  7
SLDTEXTSTYLE0
 11
-0.000000000000007
 21
1.0
 31
0.0
1001
ACAD
1000
MTEXTBEGIN
1070
    73
1070
     1
1070
    44
1040
1.0
1070
    74
1070
     0
1000
MTEXTEND
  0
ENDBLK
  5
6A6
330
69D
100
AcDbEntity
  8
0
100
AcDbBlockEnd
  0
BLOCK
  5
6AE
330
6A7
100
AcDbEntity
  8
0
100
AcDbBlockBegin
  2
*D27
 70
     1
 10
0.0
 20
0.0
 30
0.0
  3
*D27
  1

  0
SOLID
  5
6A8
330
6A7
100
AcDbEntity
  8
VERMASSUNG
100
AcDbTrace
 10
74.18897330600001
 20
137.632050987
 30
0.0
 11
77.188973306
 21
137.182050987
 31
0.0
 12
77.188973306
 22
138.082050987
 32
0.0
 13
77.188973306
 23
138.082050987
 33
0.0
  0
SOLID
  5
6A9
330
6A7
100
AcDbEntity
  8
VERMASSUNG
100
AcDbTrace
 10
222.1889733059998
 20
137.632050987
 30
0.0
 11
219.188973306
 21
138.082050987
 31
0.0
 12
219.188973306
 22
137.182050987
 32
0.0
 13
219.188973306
 23
137.182050987
 33
0.0
  0
LINE
  5
6AA
330
6A7
100
AcDbEntity
  8
VERMASSUNG
100
AcDbLine
 10
74.18897330600001
 20
117.7083822096999
 30
0.0
 11
74.18897330600001
 21
138.632050987
 31
0.0
  0
LINE
  5
6AB
330
6A7
100
AcDbEntity
  8
VERMASSUNG
100
AcDbLine
 10
222.1889733059998
 20
120.7989811329
 30
0.0
 11
222.1889733059998
 21
138.632050987
 31
0.0
  0
LINE
  5
6AC
330
6A7
100
AcDbEntity
  8
VERMASSUNG
100
AcDbLine
 10
74.18897330600001
 20
137.632050987
 30
0.0
 11
222.1889733059998
 21
137.632050987
 31
0.0
  0
MTEXT
  5
6AD
330
6A7
100
AcDbEntity
  8
VERMASSUNG
100
AcDbMText
 10
146.1890716632
 20
140.2320511035
 30
0.0
 40
2.0
 41
0.0
 71
     1
 72
     1
  1
{148}
  7
SLDTEXTSTYLE0
1001
ACAD
1000
MTEXTBEGIN
1070
    73
1070
     1
1070
    44
1040
1.0
1070
    74
1070
     0
1000
MTEXTEND
  0
ENDBLK
  5
6AF
330
6A7
100
AcDbEntity
  8
0
100
AcDbBlockEnd
  0
BLOCK
  5
6B7
330
6B0
100
AcDbEntity
  8
0
100
AcDbBlockBegin
  2
*D28
 70
     1
 10
0.0
 20
0.0
 30
0.0
  3
*D28
  1

  0
SOLID
  5
6B1
330
6B0
100
AcDbEntity
  8
VERMASSUNG
100
AcDbTrace
 10
178.1889733059996
 20
131.632050987
 30
0.0
 11
181.1889733059999
 21
131.1820509869999
 31
0.0
 12
181.1889733059999
 22
132.082050987
 32
0.0
 13
181.1889733059999
 23
132.082050987
 33
0.0
  0
SOLID
  5
6B2
330
6B0
100
AcDbEntity
  8
VERMASSUNG
100
AcDbTrace
 10
222.1889733059998
 20
131.632050987
 30
0.0
 11
219.188973306
 21
132.082050987
 31
0.0
 12
219.188973306
 22
131.1820509869999
 32
0.0
 13
219.188973306
 23
131.1820509869999
 33
0.0
  0
LINE
  5
6B3
330
6B0
100
AcDbEntity
  8
VERMASSUNG
100
AcDbLine
 10
178.1889733059996
 20
122.1083822096999
 30
0.0
 11
178.1889733059996
 21
132.632050987
 31
0.0
  0
LINE
  5
6B4
330
6B0
100
AcDbEntity
  8
VERMASSUNG
100
AcDbLine
 10
222.1889733059998
 20
120.7989811329
 30
0.0
 11
222.1889733059998
 21
132.632050987
 31
0.0
  0
LINE
  5
6B5
330
6B0
100
AcDbEntity
  8
VERMASSUNG
100
AcDbLine
 10
178.1889733059996
 20
131.632050987
 30
0.0
 11
222.1889733059998
 21
131.632050987
 31
0.0
  0
MTEXT
  5
6B6
330
6B0
100
AcDbEntity
  8
VERMASSUNG
100
AcDbMText
 10
198.5902960985998
 20
134.2320511035
 30
0.0
 40
2.0
 41
0.0
 71
     1
 72
     1
  1
{44}
  7
SLDTEXTSTYLE0
1001
ACAD
1000
MTEXTBEGIN
1070
    73
1070
     1
1070
    44
1040
1.0
1070
    74
1070
     0
1000
MTEXTEND
  0
ENDBLK
  5
6B8
330
6B0
100
AcDbEntity
  8
0
100
AcDbBlockEnd
  0
BLOCK
  5
7E3
330
7D9
100
AcDbEntity
  8
0
100
AcDbBlockBegin
  2
*D29
 70
     1
 10
0.0
 20
0.0
 30
0.0
  3
*D29
  1

  0
LINE
  5
8D5
330
7D9
100
AcDbEntity
  8
SK2
 62
     0
100
AcDbLine
 10
-73.12069722273438
 20
-31.186081596468
 30
0.0
 11
-49.29038374159331
 21
-31.186081596468
 31
0.0
  0
LINE
  5
8D6
330
7D9
100
AcDbEntity
  8
SK2
 62
     0
100
AcDbLine
 10
-73.12069722273438
 20
-55.186081596468
 30
0.0
 11
-49.29038374159333
 21
-55.186081596468
 31
0.0
  0
LINE
  5
8D7
330
7D9
100
AcDbEntity
  8
SK2
 62
     0
100
AcDbLine
 10
-51.79038374159331
 20
-35.75608159646801
 30
0.0
 11
-51.79038374159333
 21
-50.616081596468
 31
0.0
  0
SOLID
  5
8D8
330
7D9
100
AcDbEntity
  8
SK2
 62
     0
100
AcDbTrace
 10
-52.55205040825996
 20
-35.75608159646801
 30
0.0
 11
-51.02871707492663
 21
-35.75608159646801
 31
0.0
 12
-51.79038374159331
 22
-31.186081596468
 32
0.0
 13
-51.79038374159331
 23
-31.186081596468
 33
0.0
  0
SOLID
  5
8D9
330
7D9
100
AcDbEntity
  8
SK2
 62
     0
100
AcDbTrace
 10
-52.55205040825996
 20
-50.616081596468
 30
0.0
 11
-51.02871707492664
 21
-50.616081596468
 31
0.0
 12
-51.79038374159333
 22
-55.186081596468
 32
0.0
 13
-51.79038374159333
 23
-55.186081596468
 33
0.0
  0
MTEXT
  5
8DA
330
7D9
100
AcDbEntity
  8
SK2
 62
     7
100
AcDbMText
 10
-55.57538374159332
 20
-43.186081596468
 30
0.0
 40
4.57
 41
0.0
 71
     5
 72
     1
  1
\A1;%%c24
  7
GENPRESET
 11
0.0000000000000001
 21
1.0
 31
0.0
1001
ACAD
1000
MTEXTBEGIN
1070
    73
1070
     1
1070
    44
1040
1.0
1070
    74
1070
     0
1000
MTEXTEND
  0
POINT
  5
8DB
330
7D9
100
AcDbEntity
  8
DEFPOINTS
 62
     0
100
AcDbPoint
 10
-73.12069722273438
 20
-31.186081596468
 30
0.0
  0
POINT
  5
8DC
330
7D9
100
AcDbEntity
  8
DEFPOINTS
 62
     0
100
AcDbPoint
 10
-73.12069722273438
 20
-55.186081596468
 30
0.0
  0
POINT
  5
8DD
330
7D9
100
AcDbEntity
  8
DEFPOINTS
 62
     0
100
AcDbPoint
 10
-51.79038374159333
 20
-55.186081596468
 30
0.0
  0
ENDBLK
  5
7E4
330
7D9
100
AcDbEntity
  8
0
100
AcDbBlockEnd
  0
BLOCK
  5
7EF
330
7E5
100
AcDbEntity
  8
0
100
AcDbBlockBegin
  2
*D30
 70
     1
 10
0.0
 20
0.0
 30
0.0
  3
*D30
  1

  0
LINE
  5
8CC
330
7E5
100
AcDbEntity
  8
SK2
 62
     0
100
AcDbLine
 10
-69.5206972227344
 20
-35.186081596468
 30
0.0
 11
-57.61400033633439
 21
-35.186081596468
 31
0.0
  0
LINE
  5
8CD
330
7E5
100
AcDbEntity
  8
SK2
 62
     0
100
AcDbLine
 10
-69.5206972227344
 20
-51.186081596468
 30
0.0
 11
-57.6140003363344
 21
-51.186081596468
 31
0.0
  0
LINE
  5
8CE
330
7E5
100
AcDbEntity
  8
SK2
 62
     0
100
AcDbLine
 10
-60.11400033633439
 20
-39.756081596468
 30
0.0
 11
-60.11400033633439
 21
-46.61608159646799
 31
0.0
  0
SOLID
  5
8CF
330
7E5
100
AcDbEntity
  8
SK2
 62
     0
100
AcDbTrace
 10
-60.87566700300106
 20
-39.756081596468
 30
0.0
 11
-59.35233366966772
 21
-39.756081596468
 31
0.0
 12
-60.11400033633439
 22
-35.186081596468
 32
0.0
 13
-60.11400033633439
 23
-35.186081596468
 33
0.0
  0
SOLID
  5
8D0
330
7E5
100
AcDbEntity
  8
SK2
 62
     0
100
AcDbTrace
 10
-60.87566700300106
 20
-46.61608159646799
 30
0.0
 11
-59.35233366966772
 21
-46.61608159646799
 31
0.0
 12
-60.1140003363344
 22
-51.186081596468
 32
0.0
 13
-60.1140003363344
 23
-51.186081596468
 33
0.0
  0
MTEXT
  5
8D1
330
7E5
100
AcDbEntity
  8
SK2
 62
     7
100
AcDbMText
 10
-63.89900033633439
 20
-43.186081596468
 30
0.0
 40
4.57
 41
0.0
 71
     5
 72
     1
  1
\A1;%%c16
  7
GENPRESET
 11
0.0000000000000001
 21
1.0
 31
0.0
1001
ACAD
1000
MTEXTBEGIN
1070
    73
1070
     1
1070
    44
1040
1.0
1070
    74
1070
     0
1000
MTEXTEND
  0
POINT
  5
8D2
330
7E5
100
AcDbEntity
  8
DEFPOINTS
 62
     0
100
AcDbPoint
 10
-69.5206972227344
 20
-35.186081596468
 30
0.0
  0
POINT
  5
8D3
330
7E5
100
AcDbEntity
  8
DEFPOINTS
 62
     0
100
AcDbPoint
 10
-69.5206972227344
 20
-51.186081596468
 30
0.0
  0
POINT
  5
8D4
330
7E5
100
AcDbEntity
  8
DEFPOINTS
 62
     0
100
AcDbPoint
 10
-60.1140003363344
 20
-51.186081596468
 30
0.0
  0
ENDBLK
  5
7F0
330
7E5
100
AcDbEntity
  8
0
100
AcDbBlockEnd
  0
BLOCK
  5
7FB
330
7F1
100
AcDbEntity
  8
0
100
AcDbBlockBegin
  2
*D31
 70
     1
 10
0.0
 20
0.0
 30
0.0
  3
*D31
  1

  0
LINE
  5
8C3
330
7F1
100
AcDbEntity
  8
2
 62
     0
100
AcDbLine
 10
-113.1206972227343
 20
-32.186081596468
 30
0.0
 11
-113.1206972227343
 21
-20.16241281916796
 31
0.0
  0
LINE
  5
8C4
330
7F1
100
AcDbEntity
  8
2
 62
     0
100
AcDbLine
 10
-69.12069722273438
 20
-33.49548267326798
 30
0.0
 11
-69.12069722273438
 21
-20.16241281916796
 31
0.0
  0
LINE
  5
8C5
330
7F1
100
AcDbEntity
  8
2
 62
     0
100
AcDbLine
 10
-108.5506972227342
 20
-22.66241281916796
 30
0.0
 11
-73.69069722273437
 21
-22.66241281916796
 31
0.0
  0
SOLID
  5
8C6
330
7F1
100
AcDbEntity
  8
2
 62
     0
100
AcDbTrace
 10
-108.5506972227342
 20
-21.90074615250132
 30
0.0
 11
-108.5506972227342
 21
-23.42407948583464
 31
0.0
 12
-113.1206972227343
 22
-22.66241281916796
 32
0.0
 13
-113.1206972227343
 23
-22.66241281916796
 33
0.0
  0
SOLID
  5
8C7
330
7F1
100
AcDbEntity
  8
2
 62
     0
100
AcDbTrace
 10
-73.69069722273437
 20
-21.90074615250132
 30
0.0
 11
-73.69069722273437
 21
-23.42407948583464
 31
0.0
 12
-69.12069722273438
 22
-22.66241281916796
 32
0.0
 13
-69.12069722273438
 23
-22.66241281916796
 33
0.0
  0
MTEXT
  5
8C8
330
7F1
100
AcDbEntity
  8
2
 62
     7
100
AcDbMText
 10
-91.12069722273435
 20
-18.87741281916798
 30
0.0
 40
4.57
 41
0.0
 71
     5
 72
     1
  1
\A1;44
  7
GENPRESET
1001
ACAD
1000
MTEXTBEGIN
1070
    73
1070
     1
1070
    44
1040
1.0
1070
    74
1070
     0
1000
MTEXTEND
  0
POINT
  5
8C9
330
7F1
100
AcDbEntity
  8
DEFPOINTS
 62
     0
100
AcDbPoint
 10
-113.1206972227343
 20
-32.186081596468
 30
0.0
  0
POINT
  5
8CA
330
7F1
100
AcDbEntity
  8
DEFPOINTS
 62
     0
100
AcDbPoint
 10
-69.12069722273438
 20
-33.49548267326798
 30
0.0
  0
POINT
  5
8CB
330
7F1
100
AcDbEntity
  8
DEFPOINTS
 62
     0
100
AcDbPoint
 10
-69.12069722273438
 20
-22.66241281916796
 30
0.0
  0
ENDBLK
  5
7FC
330
7F1
100
AcDbEntity
  8
0
100
AcDbBlockEnd
  0
BLOCK
  5
807
330
7FD
100
AcDbEntity
  8
0
100
AcDbBlockBegin
  2
*D32
 70
     1
 10
0.0
 20
0.0
 30
0.0
  3
*D32
  1

  0
LINE
  5
8DE
330
7FD
100
AcDbEntity
  8
2
 62
     0
100
AcDbLine
 10
-217.1206972227341
 20
-36.58608159646799
 30
0.0
 11
-217.1206972227341
 21
-12.66241281916799
 31
0.0
  0
LINE
  5
8DF
330
7FD
100
AcDbEntity
  8
2
 62
     0
100
AcDbLine
 10
-69.12069722273438
 20
-33.49548267326798
 30
0.0
 11
-69.12069722273438
 21
-12.66241281916799
 31
0.0
  0
LINE
  5
8E0
330
7FD
100
AcDbEntity
  8
2
 62
     0
100
AcDbLine
 10
-212.5506972227343
 20
-15.16241281916799
 30
0.0
 11
-73.69069722273437
 21
-15.16241281916799
 31
0.0
  0
SOLID
  5
8E1
330
7FD
100
AcDbEntity
  8
2
 62
     0
100
AcDbTrace
 10
-212.5506972227343
 20
-14.40074615250132
 30
0.0
 11
-212.5506972227343
 21
-15.92407948583465
 31
0.0
 12
-217.1206972227341
 22
-15.16241281916799
 32
0.0
 13
-217.1206972227341
 23
-15.16241281916799
 33
0.0
  0
SOLID
  5
8E2
330
7FD
100
AcDbEntity
  8
2
 62
     0
100
AcDbTrace
 10
-73.69069722273437
 20
-14.40074615250132
 30
0.0
 11
-73.69069722273437
 21
-15.92407948583465
 31
0.0
 12
-69.12069722273438
 22
-15.16241281916799
 32
0.0
 13
-69.12069722273438
 23
-15.16241281916799
 33
0.0
  0
MTEXT
  5
8E3
330
7FD
100
AcDbEntity
  8
2
 62
     7
100
AcDbMText
 10
-143.1206972227343
 20
-11.37741281916799
 30
0.0
 40
4.57
 41
0.0
 71
     5
 72
     1
  1
\A1;148
  7
GENPRESET
1001
ACAD
1000
MTEXTBEGIN
1070
    73
1070
     1
1070
    44
1040
1.0
1070
    74
1070
     0
1000
MTEXTEND
  0
POINT
  5
8E4
330
7FD
100
AcDbEntity
  8
DEFPOINTS
 62
     0
100
AcDbPoint
 10
-217.1206972227341
 20
-36.58608159646799
 30
0.0
  0
POINT
  5
8E5
330
7FD
100
AcDbEntity
  8
DEFPOINTS
 62
     0
100
AcDbPoint
 10
-69.12069722273438
 20
-33.49548267326798
 30
0.0
  0
POINT
  5
8E6
330
7FD
100
AcDbEntity
  8
DEFPOINTS
 62
     0
100
AcDbPoint
 10
-69.12069722273438
 20
-15.16241281916799
 30
0.0
  0
ENDBLK
  5
808
330
7FD
100
AcDbEntity
  8
0
100
AcDbBlockEnd
  0
BLOCK
  5
813
330
809
100
AcDbEntity
  8
0
100
AcDbBlockBegin
  2
*D33
 70
     1
 10
0.0
 20
0.0
 30
0.0
  3
*D33
  1

  0
LINE
  5
8BA
330
809
100
AcDbEntity
  8
SK2
 62
     0
100
AcDbLine
 10
-121.7206972227343
 20
-35.186081596468
 30
0.0
 11
-225.2435308983343
 21
-35.18608159646796
 31
0.0
  0
LINE
  5
8BB
330
809
100
AcDbEntity
  8
SK2
 62
     0
100
AcDbLine
 10
-215.6206972227343
 20
-51.186081596468
 30
0.0
 11
-225.2435308983343
 21
-51.186081596468
 31
0.0
  0
LINE
  5
8BC
330
809
100
AcDbEntity
  8
SK2
 62
     0
100
AcDbLine
 10
-222.7435308983343
 20
-39.75608159646796
 30
0.0
 11
-222.7435308983343
 21
-46.61608159646799
 31
0.0
  0
SOLID
  5
8BD
330
809
100
AcDbEntity
  8
SK2
 62
     0
100
AcDbTrace
 10
-223.505197565001
 20
-39.75608159646796
 30
0.0
 11
-221.9818642316675
 21
-39.75608159646796
 31
0.0
 12
-222.7435308983343
 22
-35.18608159646796
 32
0.0
 13
-222.7435308983343
 23
-35.18608159646796
 33
0.0
  0
SOLID
  5
8BE
330
809
100
AcDbEntity
  8
SK2
 62
     0
100
AcDbTrace
 10
-223.505197565001
 20
-46.61608159646799
 30
0.0
 11
-221.9818642316675
 21
-46.61608159646799
 31
0.0
 12
-222.7435308983343
 22
-51.186081596468
 32
0.0
 13
-222.7435308983343
 23
-51.186081596468
 33
0.0
  0
MTEXT
  5
8BF
330
809
100
AcDbEntity
  8
SK2
 62
     7
100
AcDbMText
 10
-226.5285308983343
 20
-43.186081596468
 30
0.0
 40
4.57
 41
0.0
 71
     5
 72
     1
  1
\A1;%%c16
  7
GENPRESET
 11
0.0000000000000001
 21
1.0
 31
0.0
1001
ACAD
1000
MTEXTBEGIN
1070
    73
1070
     1
1070
    44
1040
1.0
1070
    74
1070
     0
1000
MTEXTEND
  0
POINT
  5
8C0
330
809
100
AcDbEntity
  8
DEFPOINTS
 62
     0
100
AcDbPoint
 10
-121.7206972227343
 20
-35.186081596468
 30
0.0
  0
POINT
  5
8C1
330
809
100
AcDbEntity
  8
DEFPOINTS
 62
     0
100
AcDbPoint
 10
-215.6206972227343
 20
-51.186081596468
 30
0.0
  0
POINT
  5
8C2
330
809
100
AcDbEntity
  8
DEFPOINTS
 62
     0
100
AcDbPoint
 10
-222.7435308983343
 20
-51.186081596468
 30
0.0
  0
ENDBLK
  5
814
330
809
100
AcDbEntity
  8
0
100
AcDbBlockEnd
  0
BLOCK
  5
8F0
330
8E7
100
AcDbEntity
  8
0
100
AcDbBlockBegin
  2
*D34
 70
     1
 10
0.0
 20
0.0
 30
0.0
  3
*D34
  1

  0
LINE
  5
8E8
330
8E7
100
AcDbEntity
  8
VERMASSUNG
 62
     0
100
AcDbLine
 10
161.1616581975634
 20
99.96549251936578
 30
0.0
 11
169.9550376122348
 21
99.96549251936578
 31
0.0
  0
LINE
  5
8E9
330
8E7
100
AcDbEntity
  8
VERMASSUNG
 62
     0
100
AcDbLine
 10
167.9550376122348
 20
102.4654925193657
 30
0.0
 11
167.9550376122348
 21
89.21549251936577
 31
0.0
  0
LINE
  5
8EA
330
8E7
100
AcDbEntity
  8
VERMASSUNG
 62
     0
100
AcDbLine
 10
167.9550376122348
 20
99.96549251936578
 30
0.0
 11
167.9550376122348
 21
94.21549251936577
 31
0.0
  0
SOLID
  5
8EB
330
8E7
100
AcDbEntity
  8
VERMASSUNG
 62
     0
100
AcDbTrace
 10
167.5383709455683
 20
102.4654925193657
 30
0.0
 11
168.3717042789016
 21
102.4654925193657
 31
0.0
 12
167.9550376122348
 22
99.96549251936578
 32
0.0
 13
167.9550376122348
 23
99.96549251936578
 33
0.0
  0
MTEXT
  5
8EC
330
8E7
100
AcDbEntity
  8
VERMASSUNG
 62
     2
100
AcDbMText
 10
165.4550376122348
 20
97.09049251936578
 30
0.0
 40
2.0
 41
0.0
 71
     5
 72
     1
  1
\A1;%%c2.88-11.2
 11
0.0000000000000001
 21
1.0
 31
0.0
1001
ACAD
1000
MTEXTBEGIN
1070
    73
1070
     1
1070
    44
1040
1.0
1070
    74
1070
     0
1000
MTEXTEND
  0
POINT
  5
8ED
330
8E7
100
AcDbEntity
  8
DEFPOINTS
 62
     0
100
AcDbPoint
 10
161.1616581975634
 20
99.96549251936578
 30
0.0
  0
POINT
  5
8EE
330
8E7
100
AcDbEntity
  8
DEFPOINTS
 62
     0
100
AcDbPoint
 10
161.1616581975634
 20
94.21549251936577
 30
0.0
  0
POINT
  5
8EF
330
8E7
100
AcDbEntity
  8
DEFPOINTS
 62
     0
100
AcDbPoint
 10
167.9550376122348
 20
94.21549251936577
 30
0.0
  0
ENDBLK
  5
8F1
330
8E7
100
AcDbEntity
  8
0
100
AcDbBlockEnd
  0
BLOCK
  5
8FE
330
8F2
100
AcDbEntity
  8
0
100
AcDbBlockBegin
  2
*D35
 70
     1
 10
0.0
 20
0.0
 30
0.0
  3
*D35
  1

  0
LINE
  5
8F3
330
8F2
100
AcDbEntity
  8
VERMASSUNG
 62
     0
100
AcDbLine
 10
74.99222319756381
 20
99.69229251936576
 30
0.0
 11
69.02345036258147
 21
99.69229251936576
 31
0.0
  0
LINE
  5
8F4
330
8F2
100
AcDbEntity
  8
VERMASSUNG
 62
     0
100
AcDbLine
 10
74.99222319756381
 20
94.69229251936571
 30
0.0
 11
69.02345036258146
 21
94.69229251936571
 31
0.0
  0
LINE
  5
8F5
330
8F2
100
AcDbEntity
  8
VERMASSUNG
 62
     0
100
AcDbLine
 10
71.02345036258147
 20
102.1922925193657
 30
0.0
 11
71.02345036258147
 21
104.6922925193657
 31
0.0
  0
LINE
  5
8F6
330
8F2
100
AcDbEntity
  8
VERMASSUNG
 62
     0
100
AcDbLine
 10
71.02345036258146
 20
92.19229251936571
 30
0.0
 11
71.02345036258146
 21
81.89229251936572
 31
0.0
  0
LINE
  5
8F7
330
8F2
100
AcDbEntity
  8
VERMASSUNG
 62
     0
100
AcDbLine
 10
71.02345036258147
 20
99.69229251936576
 30
0.0
 11
71.02345036258146
 21
94.69229251936571
 31
0.0
  0
SOLID
  5
8F8
330
8F2
100
AcDbEntity
  8
VERMASSUNG
 62
     0
100
AcDbTrace
 10
70.6067836959148
 20
102.1922925193657
 30
0.0
 11
71.44011702924814
 21
102.1922925193657
 31
0.0
 12
71.02345036258147
 22
99.69229251936576
 32
0.0
 13
71.02345036258147
 23
99.69229251936576
 33
0.0
  0
SOLID
  5
8F9
330
8F2
100
AcDbEntity
  8
VERMASSUNG
 62
     0
100
AcDbTrace
 10
70.60678369591478
 20
92.19229251936571
 30
0.0
 11
71.44011702924813
 21
92.19229251936571
 31
0.0
 12
71.02345036258146
 22
94.69229251936571
 32
0.0
 13
71.02345036258146
 23
94.69229251936571
 33
0.0
  0
MTEXT
  5
8FA
330
8F2
100
AcDbEntity
  8
VERMASSUNG
 62
     2
100
AcDbMText
 10
68.52345036258142
 20
85.79229251936572
 30
0.0
 40
2.0
 41
0.0
 71
     5
 72
     1
  1
\A1;%%c2.5
 11
0.0000000000000001
 21
1.0
 31
0.0
1001
ACAD
1000
MTEXTBEGIN
1070
    73
1070
     1
1070
    44
1040
1.0
1070
    74
1070
     0
1000
MTEXTEND
  0
POINT
  5
8FB
330
8F2
100
AcDbEntity
  8
DEFPOINTS
 62
     0
100
AcDbPoint
 10
74.99222319756381
 20
99.69229251936576
 30
0.0
  0
POINT
  5
8FC
330
8F2
100
AcDbEntity
  8
DEFPOINTS
 62
     0
100
AcDbPoint
 10
74.99222319756381
 20
94.69229251936571
 30
0.0
  0
POINT
  5
8FD
330
8F2
100
AcDbEntity
  8
DEFPOINTS
 62
     0
100
AcDbPoint
 10
71.02345036258146
 20
94.69229251936571
 30
0.0
  0
ENDBLK
  5
8FF
330
8F2
100
AcDbEntity
  8
0
100
AcDbBlockEnd
  0
BLOCK
  5
90A
330
900
100
AcDbEntity
  8
0
100
AcDbBlockBegin
  2
*D36
 70
     1
 10
0.0
 20
0.0
 30
0.0
  3
*D36
  1

  0
LINE
  5
901
330
900
100
AcDbEntity
  8
VERMASSUNG
 62
     0
100
AcDbLine
 10
74.49223319756376
 20
99.19228551936576
 30
0.0
 11
74.49223319756376
 21
105.3976287891769
 31
0.0
  0
LINE
  5
902
330
900
100
AcDbEntity
  8
VERMASSUNG
 62
     0
100
AcDbLine
 10
159.4922271975637
 20
100.8433325193657
 30
0.0
 11
159.4922271975637
 21
105.3976287891769
 31
0.0
  0
LINE
  5
903
330
900
100
AcDbEntity
  8
VERMASSUNG
 62
     0
100
AcDbLine
 10
76.99223319756376
 20
103.3976287891769
 30
0.0
 11
156.9922271975634
 21
103.3976287891769
 31
0.0
  0
SOLID
  5
904
330
900
100
AcDbEntity
  8
VERMASSUNG
 62
     0
100
AcDbTrace
 10
76.99223319756376
 20
103.8142954558435
 30
0.0
 11
76.99223319756376
 21
102.9809621225102
 31
0.0
 12
74.49223319756376
 22
103.3976287891769
 32
0.0
 13
74.49223319756376
 23
103.3976287891769
 33
0.0
  0
SOLID
  5
905
330
900
100
AcDbEntity
  8
VERMASSUNG
 62
     0
100
AcDbTrace
 10
156.9922271975634
 20
103.8142954558435
 30
0.0
 11
156.9922271975634
 21
102.9809621225102
 31
0.0
 12
159.4922271975637
 22
103.3976287891769
 32
0.0
 13
159.4922271975637
 23
103.3976287891769
 33
0.0
  0
MTEXT
  5
906
330
900
100
AcDbEntity
  8
VERMASSUNG
 62
     2
100
AcDbMText
 10
116.9922301975637
 20
105.8976287891769
 30
0.0
 40
2.0
 41
0.0
 71
     5
 72
     1
  1
\A1;42.5
1001
ACAD
1000
MTEXTBEGIN
1070
    73
1070
     1
1070
    44
1040
1.0
1070
    74
1070
     0
1000
MTEXTEND
  0
POINT
  5
907
330
900
100
AcDbEntity
  8
DEFPOINTS
 62
     0
100
AcDbPoint
 10
74.49223319756376
 20
99.19228551936576
 30
0.0
  0
POINT
  5
908
330
900
100
AcDbEntity
  8
DEFPOINTS
 62
     0
100
AcDbPoint
 10
159.4922271975637
 20
100.8433325193657
 30
0.0
  0
POINT
  5
909
330
900
100
AcDbEntity
  8
DEFPOINTS
 62
     0
100
AcDbPoint
 10
159.4922271975637
 20
103.3976287891769
 30
0.0
  0
ENDBLK
  5
90B
330
900
100
AcDbEntity
  8
0
100
AcDbBlockEnd
  0
BLOCK
  5
91A
330
90C
100
AcDbEntity
  8
0
100
AcDbBlockBegin
  2
*D37
 70
     1
 10
0.0
 20
0.0
 30
0.0
  3
*D37
  1

  0
LINE
  5
90D
330
90C
100
AcDbEntity
  8
VERMASSUNG
 62
     0
100
AcDbLine
 10
159.3623011975636
 20
97.28113051936579
 30
0.0
 11
159.0853672627879
 21
91.99694516443432
 31
0.0
  0
LINE
  5
90E
330
90C
100
AcDbEntity
  8
VERMASSUNG
 62
     0
100
AcDbLine
 10
161.1616581975634
 20
99.96549251936578
 30
0.0
 11
167.4824664969678
 21
99.96549251936585
 31
0.0
  0
ARC
  5
90F
330
90C
100
AcDbEntity
  8
VERMASSUNG
 62
     0
100
AcDbCircle
 10
159.5029834183961
 20
99.96549251936578
 30
0.0
 40
5.979483078571567
100
AcDbArc
 50
218.7336697629005
 51
242.866826690447
  0
ARC
  5
910
330
90C
100
AcDbEntity
  8
VERMASSUNG
 62
     0
100
AcDbCircle
 10
159.5029834183961
 20
99.96549251936578
 30
0.0
 40
5.979483078571567
100
AcDbArc
 50
24.13315692754654
 51
48.26631385509275
  0
ARC
  5
911
330
90C
100
AcDbEntity
  8
VERMASSUNG
 62
     0
100
AcDbCircle
 10
159.5029834183961
 20
99.96549251936578
 30
0.0
 40
5.979483078571567
100
AcDbArc
 50
266.9999836179932
 51
0.0000000000002398
  0
SOLID
  5
912
330
90C
100
AcDbEntity
  8
VERMASSUNG
 62
     0
100
AcDbTrace
 10
156.8842878599751
 20
95.04640159504127
 30
0.0
 11
156.6676698891751
 21
94.24171463778966
 31
0.0
 12
159.19003974633
 22
93.99420420401559
 32
0.0
 13
159.19003974633
 23
93.99420420401559
 33
0.0
  0
SOLID
  5
913
330
90C
100
AcDbEntity
  8
VERMASSUNG
 62
     0
100
AcDbTrace
 10
165.3673066300249
 20
102.4973592844536
 30
0.0
 11
164.552385509831
 21
102.3231524754404
 31
0.0
 12
165.4824664969678
 22
99.96549251936578
 32
0.0
 13
165.4824664969678
 23
99.96549251936578
 33
0.0
  0
MTEXT
  5
914
330
90C
100
AcDbEntity
  8
VERMASSUNG
 62
     2
100
AcDbMText
 10
161.8981011557593
 20
97.44156432739302
 30
0.0
 40
2.0
 41
0.0
 71
     5
 72
     1
  1
\A1;93°
 11
0.7253744694194331
 21
0.6883544719942453
 31
0.0
1001
ACAD
1000
MTEXTBEGIN
1070
    73
1070
     1
1070
    44
1040
1.0
1070
    74
1070
     0
1000
MTEXTEND
  0
POINT
  5
915
330
90C
100
AcDbEntity
  8
DEFPOINTS
 62
     0
100
AcDbPoint
 10
162.3101796775886
 20
94.68592179351125
 30
0.0
  0
POINT
  5
916
330
90C
100
AcDbEntity
  8
DEFPOINTS
 62
     0
100
AcDbPoint
 10
159.2922271975635
 20
99.96549251936578
 30
0.0
  0
POINT
  5
917
330
90C
100
AcDbEntity
  8
DEFPOINTS
 62
     0
100
AcDbPoint
 10
159.3623011975636
 20
97.28113051936579
 30
0.0
  0
POINT
  5
918
330
90C
100
AcDbEntity
  8
DEFPOINTS
 62
     0
100
AcDbPoint
 10
159.4919531975638
 20
99.75502451936579
 30
0.0
  0
POINT
  5
919
330
90C
100
AcDbEntity
  8
DEFPOINTS
 62
     0
100
AcDbPoint
 10
161.1616581975634
 20
99.96549251936578
 30
0.0
  0
ENDBLK
  5
91B
330
90C
100
AcDbEntity
  8
0
100
AcDbBlockEnd
  0
BLOCK
  5
D50
330
D47
100
AcDbEntity
  8
0
100
AcDbBlockBegin
  2
*D38
 70
     1
 10
0.0
 20
0.0
 30
0.0
  3
*D38
  1

  0
LINE
  5
E20
330
D47
100
AcDbEntity
  8
SK2
 62
     0
100
AcDbLine
 10
-73.00119474769812
 20
-36.70392233590092
 30
0.0
 11
-64.41115680739031
 21
-36.70392233590092
 31
0.0
  0
LINE
  5
E21
330
D47
100
AcDbEntity
  8
SK2
 62
     0
100
AcDbLine
 10
-73.17235758330396
 20
-42.45392233590091
 30
0.0
 11
-64.41115680739031
 21
-42.45392233590091
 31
0.0
  0
LINE
  5
E22
330
D47
100
AcDbEntity
  8
SK2
 62
     0
100
AcDbLine
 10
-66.91115680739031
 20
-47.02392233590092
 30
0.0
 11
-66.91115680739031
 21
-51.59392233590093
 31
0.0
  0
LINE
  5
E23
330
D47
100
AcDbEntity
  8
SK2
 62
     0
100
AcDbLine
 10
-66.91115680739031
 20
-32.13392233590091
 30
0.0
 11
-66.9111568073903
 21
10.47274433076575
 31
0.0
  0
LINE
  5
E24
330
D47
100
AcDbEntity
  8
SK2
 62
     0
100
AcDbLine
 10
-66.91115680739031
 20
-42.45392233590091
 30
0.0
 11
-66.91115680739031
 21
-36.70392233590092
 31
0.0
  0
SOLID
  5
E25
330
D47
100
AcDbEntity
  8
SK2
 62
     0
100
AcDbTrace
 10
-67.67282347405698
 20
-47.02392233590092
 30
0.0
 11
-66.14949014072364
 21
-47.02392233590092
 31
0.0
 12
-66.91115680739031
 22
-42.45392233590091
 32
0.0
 13
-66.91115680739031
 23
-42.45392233590091
 33
0.0
  0
SOLID
  5
E26
330
D47
100
AcDbEntity
  8
SK2
 62
     0
100
AcDbTrace
 10
-67.67282347405698
 20
-32.13392233590091
 30
0.0
 11
-66.14949014072364
 21
-32.13392233590091
 31
0.0
 12
-66.91115680739031
 22
-36.70392233590092
 32
0.0
 13
-66.91115680739031
 23
-36.70392233590092
 33
0.0
  0
MTEXT
  5
E27
330
D47
100
AcDbEntity
  8
SK2
 62
     7
100
AcDbMText
 10
-70.6961568073903
 20
-7.457493764472352
 30
0.0
 40
4.57
 41
0.0
 71
     5
 72
     1
  1
\A1;%%c5.8-11.2
  7
GENPRESET
 11
0.0000000000000001
 21
1.0
 31
0.0
1001
ACAD
1000
MTEXTBEGIN
1070
    73
1070
     1
1070
    44
1040
1.0
1070
    74
1070
     0
1000
MTEXTEND
  0
POINT
  5
E28
330
D47
100
AcDbEntity
  8
DEFPOINTS
 62
     0
100
AcDbPoint
 10
-73.00119474769812
 20
-36.70392233590092
 30
0.0
  0
POINT
  5
E29
330
D47
100
AcDbEntity
  8
DEFPOINTS
 62
     0
100
AcDbPoint
 10
-73.17235758330396
 20
-42.45392233590091
 30
0.0
  0
POINT
  5
E2A
330
D47
100
AcDbEntity
  8
DEFPOINTS
 62
     0
100
AcDbPoint
 10
-66.91115680739031
 20
-42.45392233590091
 30
0.0
  0
ENDBLK
  5
D51
330
D47
100
AcDbEntity
  8
0
100
AcDbBlockEnd
  0
BLOCK
  5
D5E
330
D52
100
AcDbEntity
  8
0
100
AcDbBlockBegin
  2
*D39
 70
     1
 10
0.0
 20
0.0
 30
0.0
  3
*D39
  1

  0
LINE
  5
E15
330
D52
100
AcDbEntity
  8
SK2
 62
     0
100
AcDbLine
 10
-157.501198747698
 20
-36.97712233590095
 30
0.0
 11
-163.9699715826803
 21
-36.97712233590095
 31
0.0
  0
LINE
  5
E16
330
D52
100
AcDbEntity
  8
SK2
 62
     0
100
AcDbLine
 10
-157.501198747698
 20
-41.97712233590095
 30
0.0
 11
-163.9699715826803
 21
-41.97712233590095
 31
0.0
  0
LINE
  5
E17
330
D52
100
AcDbEntity
  8
SK2
 62
     0
100
AcDbLine
 10
-161.4699715826803
 20
-46.54712233590095
 30
0.0
 11
-161.4699715826803
 21
-51.11712233590097
 31
0.0
  0
LINE
  5
E18
330
D52
100
AcDbEntity
  8
SK2
 62
     0
100
AcDbLine
 10
-161.4699715826803
 20
-32.40712233590095
 30
0.0
 11
-161.4699715826803
 21
-17.65569376447237
 31
0.0
  0
LINE
  5
E19
330
D52
100
AcDbEntity
  8
SK2
 62
     0
100
AcDbLine
 10
-161.4699715826803
 20
-41.97712233590095
 30
0.0
 11
-161.4699715826803
 21
-36.97712233590095
 31
0.0
  0
SOLID
  5
E1A
330
D52
100
AcDbEntity
  8
SK2
 62
     0
100
AcDbTrace
 10
-162.2316382493469
 20
-46.54712233590095
 30
0.0
 11
-160.7083049160136
 21
-46.54712233590095
 31
0.0
 12
-161.4699715826803
 22
-41.97712233590095
 32
0.0
 13
-161.4699715826803
 23
-41.97712233590095
 33
0.0
  0
SOLID
  5
E1B
330
D52
100
AcDbEntity
  8
SK2
 62
     0
100
AcDbTrace
 10
-162.2316382493469
 20
-32.40712233590095
 30
0.0
 11
-160.7083049160136
 21
-32.40712233590095
 31
0.0
 12
-161.4699715826803
 22
-36.97712233590095
 32
0.0
 13
-161.4699715826803
 23
-36.97712233590095
 33
0.0
  0
MTEXT
  5
E1C
330
D52
100
AcDbEntity
  8
SK2
 62
     7
100
AcDbMText
 10
-165.2549715826803
 20
-22.74640805018667
 30
0.0
 40
4.57
 41
0.0
 71
     5
 72
     1
  1
\A1;%%c5
  7
GENPRESET
 11
0.0000000000000001
 21
1.0
 31
0.0
1001
ACAD
1000
MTEXTBEGIN
1070
    73
1070
     1
1070
    44
1040
1.0
1070
    74
1070
     0
1000
MTEXTEND
  0
POINT
  5
E1D
330
D52
100
AcDbEntity
  8
DEFPOINTS
 62
     0
100
AcDbPoint
 10
-157.501198747698
 20
-36.97712233590095
 30
0.0
  0
POINT
  5
E1E
330
D52
100
AcDbEntity
  8
DEFPOINTS
 62
     0
100
AcDbPoint
 10
-157.501198747698
 20
-41.97712233590095
 30
0.0
  0
POINT
  5
E1F
330
D52
100
AcDbEntity
  8
DEFPOINTS
 62
     0
100
AcDbPoint
 10
-161.4699715826803
 20
-41.97712233590095
 30
0.0
  0
ENDBLK
  5
D5F
330
D52
100
AcDbEntity
  8
0
100
AcDbBlockEnd
  0
BLOCK
  5
D6A
330
D60
100
AcDbEntity
  8
0
100
AcDbBlockBegin
  2
*D40
 70
     1
 10
0.0
 20
0.0
 30
0.0
  3
*D40
  1

  0
LINE
  5
E0C
330
D60
100
AcDbEntity
  8
2
 62
     0
100
AcDbLine
 10
-158.0011887476979
 20
-37.47712933590095
 30
0.0
 11
-158.0011887476979
 21
-30.77178606608976
 31
0.0
  0
LINE
  5
E0D
330
D60
100
AcDbEntity
  8
2
 62
     0
100
AcDbLine
 10
-73.00119474769812
 20
-35.82608233590096
 30
0.0
 11
-73.00119474769812
 21
-30.77178606608976
 31
0.0
  0
LINE
  5
E0E
330
D60
100
AcDbEntity
  8
2
 62
     0
100
AcDbLine
 10
-153.431188747698
 20
-33.27178606608976
 30
0.0
 11
-77.57119474769813
 21
-33.27178606608976
 31
0.0
  0
SOLID
  5
E0F
330
D60
100
AcDbEntity
  8
2
 62
     0
100
AcDbTrace
 10
-153.431188747698
 20
-32.51011939942308
 30
0.0
 11
-153.431188747698
 21
-34.03345273275643
 31
0.0
 12
-158.0011887476979
 22
-33.27178606608976
 32
0.0
 13
-158.0011887476979
 23
-33.27178606608976
 33
0.0
  0
SOLID
  5
E10
330
D60
100
AcDbEntity
  8
2
 62
     0
100
AcDbTrace
 10
-77.57119474769813
 20
-32.51011939942308
 30
0.0
 11
-77.57119474769813
 21
-34.03345273275643
 31
0.0
 12
-73.00119474769812
 22
-33.27178606608976
 32
0.0
 13
-73.00119474769812
 23
-33.27178606608976
 33
0.0
  0
MTEXT
  5
E11
330
D60
100
AcDbEntity
  8
2
 62
     7
100
AcDbMText
 10
-115.5011917476981
 20
-29.48678606608975
 30
0.0
 40
4.57
 41
0.0
 71
     5
 72
     1
  1
\A1;85
  7
GENPRESET
1001
ACAD
1000
MTEXTBEGIN
1070
    73
1070
     1
1070
    44
1040
1.0
1070
    74
1070
     0
1000
MTEXTEND
  0
POINT
  5
E12
330
D60
100
AcDbEntity
  8
DEFPOINTS
 62
     0
100
AcDbPoint
 10
-158.0011887476979
 20
-37.47712933590095
 30
0.0
  0
POINT
  5
E13
330
D60
100
AcDbEntity
  8
DEFPOINTS
 62
     0
100
AcDbPoint
 10
-73.00119474769812
 20
-35.82608233590096
 30
0.0
  0
POINT
  5
E14
330
D60
100
AcDbEntity
  8
DEFPOINTS
 62
     0
100
AcDbPoint
 10
-73.00119474769812
 20
-33.27178606608976
 30
0.0
  0
ENDBLK
  5
D6B
330
D60
100
AcDbEntity
  8
0
100
AcDbBlockEnd
  0
BLOCK
  5
D7A
330
D6C
100
AcDbEntity
  8
0
100
AcDbBlockBegin
  2
*D41
 70
     1
 10
0.0
 20
0.0
 30
0.0
  3
*D41
  1

  0
LINE
  5
D98
330
D6C
100
AcDbEntity
  8
VERMASSUNG
 62
     0
100
AcDbLine
 10
49.8679882807168
 20
0.088838000000024
 30
0.0
 11
49.59105434594114
 21
-5.195347354931431
 31
0.0
  0
LINE
  5
D99
330
D6C
100
AcDbEntity
  8
VERMASSUNG
 62
     0
100
AcDbLine
 10
51.66734528071682
 20
2.773200000000016
 30
0.0
 11
57.98815358012085
 21
2.773199999999998
 31
0.0
  0
ARC
  5
D9A
330
D6C
100
AcDbEntity
  8
VERMASSUNG
 62
     0
100
AcDbCircle
 10
50.00867050154928
 20
2.77320000000002
 30
0.0
 40
5.979483078571566
100
AcDbArc
 50
218.7336697629009
 51
242.8668266904471
  0
ARC
  5
D9B
330
D6C
100
AcDbEntity
  8
VERMASSUNG
 62
     0
100
AcDbCircle
 10
50.00867050154928
 20
2.77320000000002
 30
0.0
 40
5.979483078571566
100
AcDbArc
 50
24.13315692754613
 51
48.26631385509244
  0
ARC
  5
D9C
330
D6C
100
AcDbEntity
  8
VERMASSUNG
 62
     0
100
AcDbCircle
 10
50.00867050154928
 20
2.77320000000002
 30
0.0
 40
5.979483078571566
100
AcDbArc
 50
266.9999836179935
 51
359.9999999999998
  0
SOLID
  5
D9D
330
D6C
100
AcDbEntity
  8
VERMASSUNG
 62
     0
100
AcDbTrace
 10
47.38997494312822
 20
-2.145890924324449
 30
0.0
 11
47.17335697232826
 21
-2.950577881576123
 31
0.0
 12
49.69572682948324
 22
-3.198088315350154
 32
0.0
 13
49.69572682948324
 23
-3.198088315350154
 33
0.0
  0
SOLID
  5
D9E
330
D6C
100
AcDbEntity
  8
VERMASSUNG
 62
     0
100
AcDbTrace
 10
55.872993713178
 20
5.305066765087936
 30
0.0
 11
55.05807259298421
 21
5.130859956074683
 31
0.0
 12
55.98815358012085
 22
2.773200000000004
 32
0.0
 13
55.98815358012085
 23
2.773200000000004
 33
0.0
  0
MTEXT
  5
D9F
330
D6C
100
AcDbEntity
  8
VERMASSUNG
 62
     2
100
AcDbMText
 10
52.40378823891231
 20
0.2492718080272631
 30
0.0
 40
2.0
 41
0.0
 71
     5
 72
     1
  1
\A1;93°
 11
0.7253744694194331
 21
0.6883544719942453
 31
0.0
1001
ACAD
1000
MTEXTBEGIN
1070
    73
1070
     1
1070
    44
1040
1.0
1070
    74
1070
     0
1000
MTEXTEND
  0
POINT
  5
DA0
330
D6C
100
AcDbEntity
  8
DEFPOINTS
 62
     0
100
AcDbPoint
 10
52.81586676074171
 20
-2.50637072585447
 30
0.0
  0
POINT
  5
DA1
330
D6C
100
AcDbEntity
  8
DEFPOINTS
 62
     0
100
AcDbPoint
 10
49.79791428071674
 20
2.77320000000002
 30
0.0
  0
POINT
  5
DA2
330
D6C
100
AcDbEntity
  8
DEFPOINTS
 62
     0
100
AcDbPoint
 10
49.8679882807168
 20
0.088838000000024
 30
0.0
  0
POINT
  5
DA3
330
D6C
100
AcDbEntity
  8
DEFPOINTS
 62
     0
100
AcDbPoint
 10
49.99764028071686
 20
2.562732000000028
 30
0.0
  0
POINT
  5
DA4
330
D6C
100
AcDbEntity
  8
DEFPOINTS
 62
     0
100
AcDbPoint
 10
51.66734528071682
 20
2.773200000000016
 30
0.0
  0
ENDBLK
  5
D7B
330
D6C
100
AcDbEntity
  8
0
100
AcDbBlockEnd
  0
BLOCK
  5
E37
330
E2B
100
AcDbEntity
  8
0
100
AcDbBlockBegin
  2
*D42
 70
     1
 10
0.0
 20
0.0
 30
0.0
  3
*D42
  1

  0
LINE
  5
E2C
330
E2B
100
AcDbEntity
  8
VERMASSUNG
 62
     0
100
AcDbLine
 10
57.27216490080833
 20
111.2601691557909
 30
0.0
 11
51.72140058577864
 21
111.2601691557909
 31
0.0
  0
LINE
  5
E2D
330
E2B
100
AcDbEntity
  8
VERMASSUNG
 62
     0
100
AcDbLine
 10
57.27216490080833
 20
105.2601691557909
 30
0.0
 11
51.72140058577864
 21
105.2601691557909
 31
0.0
  0
LINE
  5
E2E
330
E2B
100
AcDbEntity
  8
VERMASSUNG
 62
     0
100
AcDbLine
 10
53.72140058577865
 20
113.7601691557909
 30
0.0
 11
53.72140058577865
 21
116.2601691557909
 31
0.0
  0
LINE
  5
E2F
330
E2B
100
AcDbEntity
  8
VERMASSUNG
 62
     0
100
AcDbLine
 10
53.72140058577864
 20
102.7601691557909
 30
0.0
 11
53.72140058577864
 21
100.2601691557909
 31
0.0
  0
LINE
  5
E30
330
E2B
100
AcDbEntity
  8
VERMASSUNG
 62
     0
100
AcDbLine
 10
53.72140058577864
 20
111.2601691557909
 30
0.0
 11
53.72140058577864
 21
105.2601691557909
 31
0.0
  0
SOLID
  5
E31
330
E2B
100
AcDbEntity
  8
VERMASSUNG
 62
     0
100
AcDbTrace
 10
53.30473391911198
 20
113.7601691557909
 30
0.0
 11
54.13806725244532
 21
113.7601691557909
 31
0.0
 12
53.72140058577864
 22
111.2601691557909
 32
0.0
 13
53.72140058577864
 23
111.2601691557909
 33
0.0
  0
SOLID
  5
E32
330
E2B
100
AcDbEntity
  8
VERMASSUNG
 62
     0
100
AcDbTrace
 10
53.30473391911198
 20
102.7601691557909
 30
0.0
 11
54.1380672524453
 21
102.7601691557909
 31
0.0
 12
53.72140058577864
 22
105.2601691557909
 32
0.0
 13
53.72140058577864
 23
105.2601691557909
 33
0.0
  0
MTEXT
  5
E33
330
E2B
100
AcDbEntity
  8
VERMASSUNG
 62
     2
100
AcDbMText
 10
51.22140058577862
 20
108.2601691557909
 30
0.0
 40
2.0
 41
0.0
 71
     5
 72
     1
  1
\A1;%%c3
 11
0.0000000000000001
 21
1.0
 31
0.0
1001
ACAD
1000
MTEXTBEGIN
1070
    73
1070
     1
1070
    44
1040
1.0
1070
    74
1070
     0
1000
MTEXTEND
  0
POINT
  5
E34
330
E2B
100
AcDbEntity
  8
DEFPOINTS
 62
     0
100
AcDbPoint
 10
57.27216490080833
 20
111.2601691557909
 30
0.0
  0
POINT
  5
E35
330
E2B
100
AcDbEntity
  8
DEFPOINTS
 62
     0
100
AcDbPoint
 10
57.27216490080833
 20
105.2601691557909
 30
0.0
  0
POINT
  5
E36
330
E2B
100
AcDbEntity
  8
DEFPOINTS
 62
     0
100
AcDbPoint
 10
53.72140058577864
 20
105.2601691557909
 30
0.0
  0
ENDBLK
  5
E38
330
E2B
100
AcDbEntity
  8
0
100
AcDbBlockEnd
  0
BLOCK
  5
E42
330
E39
100
AcDbEntity
  8
0
100
AcDbBlockBegin
  2
*D43
 70
     1
 10
0.0
 20
0.0
 30
0.0
  3
*D43
  1

  0
LINE
  5
E3A
330
E39
100
AcDbEntity
  8
VERMASSUNG
 62
     0
100
AcDbLine
 10
153.4415999008081
 20
112.0749391557908
 30
0.0
 11
162.2349793154794
 21
112.0749391557908
 31
0.0
  0
LINE
  5
E3B
330
E39
100
AcDbEntity
  8
VERMASSUNG
 62
     0
100
AcDbLine
 10
160.2349793154795
 20
114.5749391557909
 30
0.0
 11
160.2349793154795
 21
99.32493915579096
 31
0.0
  0
LINE
  5
E3C
330
E39
100
AcDbEntity
  8
VERMASSUNG
 62
     0
100
AcDbLine
 10
160.2349793154795
 20
112.0749391557908
 30
0.0
 11
160.2349793154795
 21
104.3249391557909
 31
0.0
  0
SOLID
  5
E3D
330
E39
100
AcDbEntity
  8
VERMASSUNG
 62
     0
100
AcDbTrace
 10
159.8183126488128
 20
114.5749391557909
 30
0.0
 11
160.651645982146
 21
114.5749391557909
 31
0.0
 12
160.2349793154795
 22
112.0749391557908
 32
0.0
 13
160.2349793154795
 23
112.0749391557908
 33
0.0
  0
MTEXT
  5
E3E
330
E39
100
AcDbEntity
  8
VERMASSUNG
 62
     2
100
AcDbMText
 10
157.7349793154795
 20
108.199939155791
 30
0.0
 40
2.0
 41
0.0
 71
     5
 72
     1
  1
\A1;{\Fsimplex8.shx;%%c3.88-13.2}
 11
0.0000000000000001
 21
1.0
 31
0.0
1001
ACAD
1000
MTEXTBEGIN
1070
    73
1070
     1
1070
    44
1040
1.0
1070
    74
1070
     0
1000
MTEXTEND
  0
POINT
  5
E3F
330
E39
100
AcDbEntity
  8
DEFPOINTS
 62
     0
100
AcDbPoint
 10
153.4415999008081
 20
112.0749391557908
 30
0.0
  0
POINT
  5
E40
330
E39
100
AcDbEntity
  8
DEFPOINTS
 62
     0
100
AcDbPoint
 10
153.4415999008083
 20
104.3249391557909
 30
0.0
  0
POINT
  5
E41
330
E39
100
AcDbEntity
  8
DEFPOINTS
 62
     0
100
AcDbPoint
 10
160.2349793154795
 20
104.3249391557909
 30
0.0
  0
ENDBLK
  5
E43
330
E39
100
AcDbEntity
  8
0
100
AcDbBlockEnd
  0
BLOCK
  5
E4E
330
E44
100
AcDbEntity
  8
0
100
AcDbBlockBegin
  2
*D44
 70
     1
 10
0.0
 20
0.0
 30
0.0
  3
*D44
  1

  0
LINE
  5
E45
330
E44
100
AcDbEntity
  8
VERMASSUNG
 62
     0
100
AcDbLine
 10
56.77216490080833
 20
110.7601691557908
 30
0.0
 11
56.77216490080833
 21
117.5070754256021
 31
0.0
  0
LINE
  5
E46
330
E44
100
AcDbEntity
  8
VERMASSUNG
 62
     0
100
AcDbLine
 10
151.7721689008081
 20
112.952779155791
 30
0.0
 11
151.7721689008081
 21
117.5070754256021
 31
0.0
  0
LINE
  5
E47
330
E44
100
AcDbEntity
  8
VERMASSUNG
 62
     0
100
AcDbLine
 10
59.27216490080833
 20
115.5070754256021
 30
0.0
 11
149.2721689008081
 21
115.5070754256021
 31
0.0
  0
SOLID
  5
E48
330
E44
100
AcDbEntity
  8
VERMASSUNG
 62
     0
100
AcDbTrace
 10
59.27216490080833
 20
115.9237420922687
 30
0.0
 11
59.27216490080833
 21
115.0904087589354
 31
0.0
 12
56.77216490080833
 22
115.5070754256021
 32
0.0
 13
56.77216490080833
 23
115.5070754256021
 33
0.0
  0
SOLID
  5
E49
330
E44
100
AcDbEntity
  8
VERMASSUNG
 62
     0
100
AcDbTrace
 10
149.2721689008081
 20
115.9237420922687
 30
0.0
 11
149.2721689008081
 21
115.0904087589354
 31
0.0
 12
151.7721689008081
 22
115.5070754256021
 32
0.0
 13
151.7721689008081
 23
115.5070754256021
 33
0.0
  0
MTEXT
  5
E4A
330
E44
100
AcDbEntity
  8
VERMASSUNG
 62
     2
100
AcDbMText
 10
104.2721669008082
 20
118.007075425602
 30
0.0
 40
2.0
 41
0.0
 71
     5
 72
     1
  1
\A1;47.5
1001
ACAD
1000
MTEXTBEGIN
1070
    73
1070
     1
1070
    44
1040
1.0
1070
    74
1070
     0
1000
MTEXTEND
  0
POINT
  5
E4B
330
E44
100
AcDbEntity
  8
DEFPOINTS
 62
     0
100
AcDbPoint
 10
56.77216490080833
 20
110.7601691557908
 30
0.0
  0
POINT
  5
E4C
330
E44
100
AcDbEntity
  8
DEFPOINTS
 62
     0
100
AcDbPoint
 10
151.7721689008081
 20
112.952779155791
 30
0.0
  0
POINT
  5
E4D
330
E44
100
AcDbEntity
  8
DEFPOINTS
 62
     0
100
AcDbPoint
 10
151.7721689008081
 20
115.5070754256021
 30
0.0
  0
ENDBLK
  5
E4F
330
E44
100
AcDbEntity
  8
0
100
AcDbBlockEnd
  0
BLOCK
  5
E5E
330
E50
100
AcDbEntity
  8
0
100
AcDbBlockBegin
  2
*D45
 70
     1
 10
0.0
 20
0.0
 30
0.0
  3
*D45
  1

  0
LINE
  5
E51
330
E50
100
AcDbEntity
  8
VERMASSUNG
 62
     0
100
AcDbLine
 10
151.6422429008081
 20
109.3905771557909
 30
0.0
 11
151.3653089660325
 21
104.1063918008595
 31
0.0
  0
LINE
  5
E52
330
E50
100
AcDbEntity
  8
VERMASSUNG
 62
     0
100
AcDbLine
 10
153.4415999008081
 20
112.074939155791
 30
0.0
 11
159.7624082002123
 21
112.074939155791
 31
0.0
  0
ARC
  5
E53
330
E50
100
AcDbEntity
  8
VERMASSUNG
 62
     0
100
AcDbCircle
 10
151.7829251216406
 20
112.074939155791
 30
0.0
 40
5.979483078571562
100
AcDbArc
 50
218.7336697629005
 51
242.8668266904468
  0
ARC
  5
E54
330
E50
100
AcDbEntity
  8
VERMASSUNG
 62
     0
100
AcDbCircle
 10
151.7829251216406
 20
112.074939155791
 30
0.0
 40
5.979483078571562
100
AcDbArc
 50
24.13315692754646
 51
48.26631385509275
  0
ARC
  5
E55
330
E50
100
AcDbEntity
  8
VERMASSUNG
 62
     0
100
AcDbCircle
 10
151.7829251216406
 20
112.074939155791
 30
0.0
 40
5.979483078571562
100
AcDbArc
 50
266.9999836179932
 51
0.0000000000002398
  0
SOLID
  5
E56
330
E50
100
AcDbEntity
  8
VERMASSUNG
 62
     0
100
AcDbTrace
 10
149.1642295632195
 20
107.1558482314665
 30
0.0
 11
148.9476115924196
 21
106.3511612742148
 31
0.0
 12
151.4699814495746
 22
106.1036508404407
 32
0.0
 13
151.4699814495746
 23
106.1036508404407
 33
0.0
  0
SOLID
  5
E57
330
E50
100
AcDbEntity
  8
VERMASSUNG
 62
     0
100
AcDbTrace
 10
157.6472483332693
 20
114.6068059208789
 30
0.0
 11
156.8323272130755
 21
114.4325991118656
 31
0.0
 12
157.7624082002123
 22
112.074939155791
 32
0.0
 13
157.7624082002123
 23
112.074939155791
 33
0.0
  0
MTEXT
  5
E58
330
E50
100
AcDbEntity
  8
VERMASSUNG
 62
     2
100
AcDbMText
 10
154.1780428590038
 20
109.5510109638182
 30
0.0
 40
2.0
 41
0.0
 71
     5
 72
     1
  1
\A1;93°
 11
0.7253744694194371
 21
0.6883544719942411
 31
0.0
1001
ACAD
1000
MTEXTBEGIN
1070
    73
1070
     1
1070
    44
1040
1.0
1070
    74
1070
     0
1000
MTEXTEND
  0
POINT
  5
E59
330
E50
100
AcDbEntity
  8
DEFPOINTS
 62
     0
100
AcDbPoint
 10
154.590121380833
 20
106.7953684299365
 30
0.0
  0
POINT
  5
E5A
330
E50
100
AcDbEntity
  8
DEFPOINTS
 62
     0
100
AcDbPoint
 10
151.5721689008081
 20
112.074939155791
 30
0.0
  0
POINT
  5
E5B
330
E50
100
AcDbEntity
  8
DEFPOINTS
 62
     0
100
AcDbPoint
 10
151.6422429008081
 20
109.3905771557909
 30
0.0
  0
POINT
  5
E5C
330
E50
100
AcDbEntity
  8
DEFPOINTS
 62
     0
100
AcDbPoint
 10
151.7718949008083
 20
111.8644711557909
 30
0.0
  0
POINT
  5
E5D
330
E50
100
AcDbEntity
  8
DEFPOINTS
 62
     0
100
AcDbPoint
 10
153.4415999008081
 20
112.074939155791
 30
0.0
  0
ENDBLK
  5
E5F
330
E50
100
AcDbEntity
  8
0
100
AcDbBlockEnd
  0
BLOCK
  5
1318
330
130C
100
AcDbEntity
  8
0
100
AcDbBlockBegin
  2
*D46
 70
     1
 10
0.0
 20
0.0
 30
0.0
  3
*D46
  1

  0
LINE
  5
13EB
330
130C
100
AcDbEntity
  8
SK2
 62
     0
100
AcDbLine
 10
-34.49951697052671
 20
3.0
 30
0.0
 11
-41.31194795222306
 21
3.000000000000002
 31
0.0
  0
LINE
  5
13EC
330
130C
100
AcDbEntity
  8
SK2
 62
     0
100
AcDbLine
 10
-34.49951697052671
 20
-3.0
 30
0.0
 11
-41.31194795222306
 21
-2.999999999999997
 31
0.0
  0
LINE
  5
13ED
330
130C
100
AcDbEntity
  8
SK2
 62
     0
100
AcDbLine
 10
-38.81194795222306
 20
-7.569999999999998
 30
0.0
 11
-38.81194795222306
 21
-12.13999999999999
 31
0.0
  0
LINE
  5
13EE
330
130C
100
AcDbEntity
  8
SK2
 62
     0
100
AcDbLine
 10
-38.81194795222306
 20
7.570000000000002
 30
0.0
 11
-38.81194795222306
 21
22.10380952380952
 31
0.0
  0
LINE
  5
13EF
330
130C
100
AcDbEntity
  8
SK2
 62
     0
100
AcDbLine
 10
-38.81194795222306
 20
-2.999999999999998
 30
0.0
 11
-38.81194795222306
 21
3.000000000000001
 31
0.0
  0
SOLID
  5
13F0
330
130C
100
AcDbEntity
  8
SK2
 62
     0
100
AcDbTrace
 10
-39.57361461888973
 20
-7.569999999999998
 30
0.0
 11
-38.05028128555639
 21
-7.569999999999998
 31
0.0
 12
-38.81194795222306
 22
-2.999999999999998
 32
0.0
 13
-38.81194795222306
 23
-2.999999999999998
 33
0.0
  0
SOLID
  5
13F1
330
130C
100
AcDbEntity
  8
SK2
 62
     0
100
AcDbTrace
 10
-39.57361461888973
 20
7.570000000000002
 30
0.0
 11
-38.05028128555639
 21
7.570000000000002
 31
0.0
 12
-38.81194795222306
 22
3.000000000000001
 32
0.0
 13
-38.81194795222306
 23
3.000000000000001
 33
0.0
  0
MTEXT
  5
13F2
330
130C
100
AcDbEntity
  8
SK2
 62
     7
100
AcDbMText
 10
-42.59694795222307
 20
17.12190476190476
 30
0.0
 40
4.57
 41
0.0
 71
     5
 72
     1
  1
\A1;%%c6
  7
GENPRESET
 11
0.0000000000000001
 21
1.0
 31
0.0
1001
ACAD
1000
MTEXTBEGIN
1070
    73
1070
     1
1070
    44
1040
1.0
1070
    74
1070
     0
1000
MTEXTEND
  0
POINT
  5
13F3
330
130C
100
AcDbEntity
  8
DEFPOINTS
 62
     0
100
AcDbPoint
 10
-34.49951697052671
 20
3.0
 30
0.0
  0
POINT
  5
13F4
330
130C
100
AcDbEntity
  8
DEFPOINTS
 62
     0
100
AcDbPoint
 10
-34.49951697052671
 20
-3.0
 30
0.0
  0
POINT
  5
13F5
330
130C
100
AcDbEntity
  8
DEFPOINTS
 62
     0
100
AcDbPoint
 10
-38.81194795222306
 20
-2.999999999999998
 30
0.0
  0
ENDBLK
  5
1319
330
130C
100
AcDbEntity
  8
0
100
AcDbBlockEnd
  0
BLOCK
  5
1323
330
131A
100
AcDbEntity
  8
0
100
AcDbBlockBegin
  2
*D47
 70
     1
 10
0.0
 20
0.0
 30
0.0
  3
*D47
  1

  0
LINE
  5
14D2
330
131A
100
AcDbEntity
  8
SK2
 62
     0
100
AcDbLine
 10
80.21488888662531
 20
3.814770000000001
 30
0.0
 11
91.97707103336043
 21
3.814769999999997
 31
0.0
  0
LINE
  5
14D3
330
131A
100
AcDbEntity
  8
SK2
 62
     0
100
AcDbLine
 10
80.1959255926935
 20
-3.935229999999998
 30
0.0
 11
91.97707103336043
 21
-3.935230000000002
 31
0.0
  0
LINE
  5
14D4
330
131A
100
AcDbEntity
  8
SK2
 62
     0
100
AcDbLine
 10
89.47707103336043
 20
-8.50523
 30
0.0
 11
89.47707103336043
 21
-13.07523
 31
0.0
  0
LINE
  5
14D5
330
131A
100
AcDbEntity
  8
SK2
 62
     0
100
AcDbLine
 10
89.47707103336043
 20
8.384769999999999
 30
0.0
 11
89.47707103336044
 21
49.45406339477727
 31
0.0
  0
LINE
  5
14D6
330
131A
100
AcDbEntity
  8
SK2
 62
     0
100
AcDbLine
 10
89.47707103336043
 20
-3.935230000000001
 30
0.0
 11
89.47707103336043
 21
3.814769999999998
 31
0.0
  0
SOLID
  5
14D7
330
131A
100
AcDbEntity
  8
SK2
 62
     0
100
AcDbTrace
 10
88.71540436669375
 20
-8.50523
 30
0.0
 11
90.2387377000271
 21
-8.50523
 31
0.0
 12
89.47707103336043
 22
-3.935230000000001
 32
0.0
 13
89.47707103336043
 23
-3.935230000000001
 33
0.0
  0
SOLID
  5
14D8
330
131A
100
AcDbEntity
  8
SK2
 62
     0
100
AcDbTrace
 10
88.71540436669375
 20
8.384769999999999
 30
0.0
 11
90.2387377000271
 21
8.384769999999999
 31
0.0
 12
89.47707103336043
 22
3.814769999999998
 32
0.0
 13
89.47707103336043
 23
3.814769999999998
 33
0.0
  0
MTEXT
  5
14D9
330
131A
100
AcDbEntity
  8
SK2
 62
     7
100
AcDbMText
 10
85.66750114088732
 20
31.32024619047621
 30
0.0
 40
4.57
 41
0.0
 71
     5
 72
     1
  1
\A1;{\fProxy 1|b1|i1|c0|p46;%%c7.8-13.2}
  7
GENPRESET
 11
0.0000000000000001
 21
1.0
 31
0.0
1001
ACAD
1000
MTEXTBEGIN
1070
    73
1070
     1
1070
    44
1040
1.0
1070
    74
1070
     0
1000
MTEXTEND
  0
POINT
  5
14DA
330
131A
100
AcDbEntity
  8
DEFPOINTS
 62
     0
100
AcDbPoint
 10
80.21488888662531
 20
3.814770000000001
 30
0.0
  0
POINT
  5
14DB
330
131A
100
AcDbEntity
  8
DEFPOINTS
 62
     0
100
AcDbPoint
 10
80.1959255926935
 20
-3.935229999999998
 30
0.0
  0
POINT
  5
14DC
330
131A
100
AcDbEntity
  8
DEFPOINTS
 62
     0
100
AcDbPoint
 10
89.47707103336043
 20
-3.935230000000001
 30
0.0
  0
ENDBLK
  5
1324
330
131A
100
AcDbEntity
  8
0
100
AcDbBlockEnd
  0
BLOCK
  5
132F
330
1325
100
AcDbEntity
  8
0
100
AcDbBlockBegin
  2
*D48
 70
     1
 10
0.0
 20
0.0
 30
0.0
  3
*D48
  1

  0
LINE
  5
13CB
330
1325
100
AcDbEntity
  8
2
 62
     0
100
AcDbLine
 10
-34.99951697052671
 20
2.5
 30
0.0
 11
-34.99951697052671
 21
9.746906269811162
 31
0.0
  0
LINE
  5
13CC
330
1325
100
AcDbEntity
  8
2
 62
     0
100
AcDbLine
 10
60.00048702947322
 20
3.814769999999995
 30
0.0
 11
60.00048702947322
 21
9.746906269811162
 31
0.0
  0
LINE
  5
13CD
330
1325
100
AcDbEntity
  8
2
 62
     0
100
AcDbLine
 10
-30.42951697052671
 20
7.246906269811161
 30
0.0
 11
55.43048702947322
 21
7.246906269811161
 31
0.0
  0
SOLID
  5
13CE
330
1325
100
AcDbEntity
  8
2
 62
     0
100
AcDbTrace
 10
-30.42951697052671
 20
8.008572936477829
 30
0.0
 11
-30.42951697052671
 21
6.485239603144495
 31
0.0
 12
-34.99951697052671
 22
7.246906269811161
 32
0.0
 13
-34.99951697052671
 23
7.246906269811161
 33
0.0
  0
SOLID
  5
13CF
330
1325
100
AcDbEntity
  8
2
 62
     0
100
AcDbTrace
 10
55.43048702947322
 20
8.008572936477829
 30
0.0
 11
55.43048702947322
 21
6.485239603144495
 31
0.0
 12
60.00048702947322
 22
7.246906269811161
 32
0.0
 13
60.00048702947322
 23
7.246906269811161
 33
0.0
  0
MTEXT
  5
13D0
330
1325
100
AcDbEntity
  8
2
 62
     7
100
AcDbMText
 10
12.50048502947325
 20
11.03190626981116
 30
0.0
 40
4.57
 41
0.0
 71
     5
 72
     1
  1
\A1;95
  7
GENPRESET
1001
ACAD
1000
MTEXTBEGIN
1070
    73
1070
     1
1070
    44
1040
1.0
1070
    74
1070
     0
1000
MTEXTEND
  0
POINT
  5
13D1
330
1325
100
AcDbEntity
  8
DEFPOINTS
 62
     0
100
AcDbPoint
 10
-34.99951697052671
 20
2.5
 30
0.0
  0
POINT
  5
13D2
330
1325
100
AcDbEntity
  8
DEFPOINTS
 62
     0
100
AcDbPoint
 10
60.00048702947322
 20
3.814769999999995
 30
0.0
  0
POINT
  5
13D3
330
1325
100
AcDbEntity
  8
DEFPOINTS
 62
     0
100
AcDbPoint
 10
60.00048702947322
 20
7.246906269811161
 30
0.0
  0
ENDBLK
  5
1330
330
1325
100
AcDbEntity
  8
0
100
AcDbBlockEnd
  0
BLOCK
  5
133F
330
1331
100
AcDbEntity
  8
0
100
AcDbBlockBegin
  2
*D49
 70
     1
 10
0.0
 20
0.0
 30
0.0
  3
*D49
  1

  0
LINE
  5
135D
330
1331
100
AcDbEntity
  8
VERMASSUNG
 62
     0
100
AcDbLine
 10
59.8705610294732
 20
1.130407999999998
 30
0.0
 11
59.59362709469752
 21
-4.153777354931435
 31
0.0
  0
LINE
  5
135E
330
1331
100
AcDbEntity
  8
VERMASSUNG
 62
     0
100
AcDbLine
 10
61.66991802947322
 20
3.814769999999991
 30
0.0
 11
67.99072632887726
 21
3.814770000000001
 31
0.0
  0
ARC
  5
135F
330
1331
100
AcDbEntity
  8
VERMASSUNG
 62
     0
100
AcDbCircle
 10
60.01124325030573
 20
3.814769999999988
 30
0.0
 40
5.979483078571535
100
AcDbArc
 50
218.7336697629
 51
242.8668266904465
  0
ARC
  5
1360
330
1331
100
AcDbEntity
  8
VERMASSUNG
 62
     0
100
AcDbCircle
 10
60.01124325030573
 20
3.814769999999988
 30
0.0
 40
5.979483078571535
100
AcDbArc
 50
24.13315692754654
 51
48.26631385509292
  0
ARC
  5
1361
330
1331
100
AcDbEntity
  8
VERMASSUNG
 62
     0
100
AcDbCircle
 10
60.01124325030573
 20
3.814769999999988
 30
0.0
 40
5.979483078571535
100
AcDbArc
 50
266.9999836179929
 51
0.0000000000000799
  0
SOLID
  5
1362
330
1331
100
AcDbEntity
  8
VERMASSUNG
 62
     0
100
AcDbTrace
 10
57.39254769188462
 20
-1.104320924324422
 30
0.0
 11
57.17592972108465
 21
-1.909007881576098
 31
0.0
 12
59.69829957823964
 22
-2.156518315350155
 32
0.0
 13
59.69829957823964
 23
-2.156518315350155
 33
0.0
  0
SOLID
  5
1363
330
1331
100
AcDbEntity
  8
VERMASSUNG
 62
     0
100
AcDbTrace
 10
65.87556646193438
 20
6.346636765087929
 30
0.0
 11
65.06064534174062
 21
6.172429956074682
 31
0.0
 12
65.99072632887724
 22
3.814769999999998
 32
0.0
 13
65.99072632887724
 23
3.814769999999998
 33
0.0
  0
MTEXT
  5
1364
330
1331
100
AcDbEntity
  8
VERMASSUNG
 62
     2
100
AcDbMText
 10
62.40636098766874
 20
1.290841808027258
 30
0.0
 40
2.0
 41
0.0
 71
     5
 72
     1
  1
\A1;93°
 11
0.7253744694194371
 21
0.6883544719942411
 31
0.0
1001
ACAD
1000
MTEXTBEGIN
1070
    73
1070
     1
1070
    44
1040
1.0
1070
    74
1070
     0
1000
MTEXTEND
  0
POINT
  5
1365
330
1331
100
AcDbEntity
  8
DEFPOINTS
 62
     0
100
AcDbPoint
 10
62.81843950949809
 20
-1.464800725854491
 30
0.0
  0
POINT
  5
1366
330
1331
100
AcDbEntity
  8
DEFPOINTS
 62
     0
100
AcDbPoint
 10
59.80048702947323
 20
3.814769999999991
 30
0.0
  0
POINT
  5
1367
330
1331
100
AcDbEntity
  8
DEFPOINTS
 62
     0
100
AcDbPoint
 10
59.8705610294732
 20
1.130407999999998
 30
0.0
  0
POINT
  5
1368
330
1331
100
AcDbEntity
  8
DEFPOINTS
 62
     0
100
AcDbPoint
 10
60.00021302947329
 20
3.604302000000006
 30
0.0
  0
POINT
  5
1369
330
1331
100
AcDbEntity
  8
DEFPOINTS
 62
     0
100
AcDbPoint
 10
61.66991802947322
 20
3.814769999999991
 30
0.0
  0
ENDBLK
  5
1340
330
1331
100
AcDbEntity
  8
0
100
AcDbBlockEnd
  0
BLOCK
  5
14B9
330
14AD
100
AcDbEntity
  8
0
100
AcDbBlockBegin
  2
*D50
 70
     1
 10
0.0
 20
0.0
 30
0.0
  3
*D50
  1

  0
LINE
  5
1510
330
14AD
100
AcDbEntity
  8
2
 62
     0
100
AcDbLine
 10
59.9815237355414
 20
-3.985230000000004
 30
0.0
 11
75.31351039318329
 21
-3.985230000000008
 31
0.0
  0
LINE
  5
1511
330
14AD
100
AcDbEntity
  8
2
 62
     0
100
AcDbLine
 10
60.00048702947322
 20
3.814769999999995
 30
0.0
 11
75.31351039318329
 21
3.81476999999999
 31
0.0
  0
LINE
  5
1512
330
14AD
100
AcDbEntity
  8
2
 62
     0
100
AcDbLine
 10
72.81351039318329
 20
-8.555230000000006
 30
0.0
 11
72.81351039318329
 21
-13.12523
 31
0.0
  0
LINE
  5
1513
330
14AD
100
AcDbEntity
  8
2
 62
     0
100
AcDbLine
 10
72.81351039318329
 20
8.384769999999992
 30
0.0
 11
72.8135103931833
 21
49.68572238095237
 31
0.0
  0
LINE
  5
1514
330
14AD
100
AcDbEntity
  8
2
 62
     0
100
AcDbLine
 10
72.81351039318329
 20
-3.985230000000007
 30
0.0
 11
72.81351039318329
 21
3.814769999999991
 31
0.0
  0
SOLID
  5
1515
330
14AD
100
AcDbEntity
  8
2
 62
     0
100
AcDbTrace
 10
72.05184372651662
 20
-8.555230000000006
 30
0.0
 11
73.57517705984996
 21
-8.555230000000006
 31
0.0
 12
72.81351039318329
 22
-3.985230000000007
 32
0.0
 13
72.81351039318329
 23
-3.985230000000007
 33
0.0
  0
SOLID
  5
1516
330
14AD
100
AcDbEntity
  8
2
 62
     0
100
AcDbTrace
 10
72.05184372651662
 20
8.384769999999992
 30
0.0
 11
73.57517705984996
 21
8.384769999999992
 31
0.0
 12
72.81351039318329
 22
3.814769999999991
 32
0.0
 13
72.81351039318329
 23
3.814769999999991
 33
0.0
  0
MTEXT
  5
1517
330
14AD
100
AcDbEntity
  8
2
 62
     7
100
AcDbMText
 10
69.02851039318329
 20
31.32024619047619
 30
0.0
 40
4.57
 41
0.0
 71
     5
 72
     1
  1
\A1;%%c7.8-13.2
  7
GENPRESET
 11
0.0000000000000001
 21
1.0
 31
0.0
1001
ACAD
1000
MTEXTBEGIN
1070
    73
1070
     1
1070
    44
1040
1.0
1070
    74
1070
     0
1000
MTEXTEND
  0
POINT
  5
1518
330
14AD
100
AcDbEntity
  8
DEFPOINTS
 62
     0
100
AcDbPoint
 10
59.9815237355414
 20
-3.985230000000004
 30
0.0
  0
POINT
  5
1519
330
14AD
100
AcDbEntity
  8
DEFPOINTS
 62
     0
100
AcDbPoint
 10
60.00048702947322
 20
3.814769999999995
 30
0.0
  0
POINT
  5
151A
330
14AD
100
AcDbEntity
  8
DEFPOINTS
 62
     0
100
AcDbPoint
 10
72.81351039318329
 20
3.814769999999991
 30
0.0
  0
ENDBLK
  5
14BA
330
14AD
100
AcDbEntity
  8
0
100
AcDbBlockEnd
  0
ENDSEC
  0
SECTION
  2
ENTITIES
  0
MTEXT
  5
36
330
1F
100
AcDbEntity
  8
5
100
AcDbMText
 10
-41.09500742348971
 20
-42.0602053312641
 30
0.0
 40
4.57
 41
0.0
 71
     1
 72
     1
  1
274.008.002
  7
GENPRESET
1001
ACAD
1000
MTEXTBEGIN
1070
    73
1070
     1
1070
    44
1040
1.0
1070
    74
1070
     0
1000
MTEXTEND
  0
MTEXT
  5
37
330
1F
100
AcDbEntity
  8
5
100
AcDbMText
 10
-41.05122425068974
 20
-34.02106653836407
 30
0.0
 40
4.57
 41
0.0
 71
     1
 72
     1
  1
Ausdrehstahl mit HM-Schaft_Boring bar with HM-shank
  7
GENPRESET
1001
ACAD
1000
MTEXTBEGIN
1070
    73
1070
     1
1070
    44
1040
1.0
1070
    74
1070
     0
1000
MTEXTEND
  0
REGION
  5
27F
330
1F
100
AcDbEntity
  8
5
100
AcDbModelerGeometry
 70
     1
  1
noi mi n o          
  1
=0;& {rn {n {rn {rn |
  1
3*2/ {rn {rn {m {o |
  1
,7:33 {rn {rn {rn {l {n |
  1
9><: {rn {rn {k {m {rn {j 90-(>-; ;0*=3: 0*+ |
  1
300/ {rn {rn {i {l |
  1
/3>1:r,*-9><: {rn roqfgnoihfhnljfifmjf rmkqiiojkikhhlomnm o o o n m o o o V V V V |
  1
<0:;8: {rn {h {g {rn {f n {k {rn |
  1
<0:;8: {rn {no {i {rn {nn n {k {rn |
  1
<0:;8: {rn {i {no {rn {nm n {k {rn |
  1
:;8: {rn {nl {nk {i {nj o |
  1
<0:;8: {rn {g {h {rn {ni n {k {rn |
  1
:;8: {rn {nh {nl {h {ng o |
  1
:;8: {rn {nk {nf {g {mo o |
  1
):-+:' {rn {f {mn |
  1
):-+:' {rn {f {mm |
  1
,+->687+r<*-): {rn lgqfmlghfhhjnnmnif rloqifnkomfllgjljfj o rm o o V V |
  1
:;8: {rn {nf {nh {no {ml o |
  1
):-+:' {rn {ni {mk |
  1
,+->687+r<*-): {rn lgqfmlghfhhjnnmnif rngqimfifoomohjoikk o mqljiljhikkijlllgm:ronj rm o V V |
  1
):-+:' {rn {nm {mj |
  1
,+->687+r<*-): {rn rkoqggionjhnhglnjjj rloqifnkomfllgjljfj o o m o V V |
  1
/061+ {rn lgqfmlghfhhjnnmnif rloqifnkomfllgjljfj o |
  1
/061+ {rn rkoqggionjhnhglnjjj rloqifnkomfllgjljfj o |
  1
,+->687+r<*-): {rn rkoqggionjhnhglnjjj rngqimfifoomohjoikk o m o o V V |
  1
/061+ {rn lgqfmlghfhhjnnmnif rngqimfifoomohjoikk o |
  1
/061+ {rn rkoqggionjhnhglnjjj rngqimfifoomohjoikk o |
  0
REGION
  5
280
330
1F
100
AcDbEntity
  8
5
100
AcDbModelerGeometry
 70
     1
  1
noi hn n o          
  1
=0;& {rn {n {rn {rn |
  1
3*2/ {rn {rn {m {o |
  1
,7:33 {rn {rn {rn {l {n |
  1
9><: {rn {rn {k {m {rn {j 90-(>-; ;0*=3: 0*+ |
  1
300/ {rn {rn {i {l |
  1
/3>1:r,*-9><: {rn rmfqonfhmgknjigohhk rmkqlggmmgfiolifkng o o o n m o o o V V V V |
  1
<0:;8: {rn {h {g {rn {f n {k {rn |
  1
<0:;8: {rn {no {i {rn {nn n {k {rn |
  1
<0:;8: {rn {i {nm {rn {nl n {k {rn |
  1
:;8: {rn {nk {nj {i {ni o |
  1
<0:;8: {rn {nh {h {rn {ng n {k {rn |
  1
:;8: {rn {nf {nk {h {mo o |
  1
<0:;8: {rn {g {mn {rn {mm n {k {rn |
  1
:;8: {rn {nj {ml {g {mk o |
  1
):-+:' {rn {f {mj |
  1
):-+:' {rn {f {mi |
  1
,+->687+r<*-): {rn rlnqfhfojkgolkmlojk rmgqkhggjofhjkonhkn o roqjlmonliifjkjgkgfk nqfmhfkmmgjmfngkfh o V V |
  1
<0:;8: {rn {mh {no {rn {mg n {k {rn |
  1
:;8: {rn {mf {nf {no {lo o |
  1
):-+:' {rn {ng {ln |
  1
,+->687+r<*-): {rn rloqmgoimjgmjjhjjgk rmgqkhggjofhjkonhkn o rm o o V V |
  1
<0:;8: {rn {nm {lm {rn {ll n {k {rn |
  1
:;8: {rn {ml {lk {nm {lj o |
  1
):-+:' {rn {nl {li |
  1
,+->687+r<*-): {rn rllqfhmjfgjjkoglnfn rmnqmjkjlokofojimgh o m o o V V |
  1
/061+ {rn rlnqfhfojkgolkmlojk rmgqkhggjofhjkonhkn o |
  1
/061+ {rn rllqfhmjfgjjkoglnfn rmnqmjkjlokofojimgh o |
  1
<0:;8: {rn {lh {nh {rn {lg n {k {rn |
  1
:;8: {rn {lf {mf {nh {ko o |
  1
):-+:' {rn {mg {kn |
  1
,+->687+r<*-): {rn rmfqoklliofhlohnlni rmlqihgngjlghfhjjol o roqkffnkkjioljfmlmll rnqflihnmlkjnjnfokk o V V |
  1
/061+ {rn rloqmgoimjgmjjhjjgk rmgqkhggjofhjkonhkn o |
  1
<0:;8: {rn {mn {km {rn {kl n {k {rn |
  1
:;8: {rn {lk {kk {mn {kj o |
  1
):-+:' {rn {mm {ki |
  1
,+->687+r<*-): {rn rlmqmjifofloomimgf rmnqmjkjlokofojimgh o oqkjfngfjmfijlloohl rnqfkijhmimmgojhloj o V V |
  1
/061+ {rn rlmqmjifofloomimgf rmnqmjkjlokofojimgh o |
  1
<0:;8: {rn {kh {mh {rn {kg n {k {rn |
  1
:;8: {rn {kf {lf {mh {jo o |
  1
):-+:' {rn {lg {jn |
  1
,+->687+r<*-): {rn rmhqiflinjgkffjgoli rmgqkhggjofhjkonhkn o roqjknlmigjnonmjgikf nqfmjlkgogmfnnfifg o V V |
  1
/061+ {rn rmfqoklliofhlohnlni rmlqihgngjlghfhjjol o |
  1
<0:;8: {rn {lm {jm {rn {jl n {k {rn |
  1
:;8: {rn {kk {jk {lm {jj o |
  1
):-+:' {rn {ll {ji |
  1
,+->687+r<*-): {rn rlnqnkinhlffofjmill rmjqfilnomlhokknohg o oqjkiffiokfiomonjof nqfmlhkjnmfofjhflm o V V |
  1
/061+ {rn rlnqnkinhlffofjmill rmjqfilnomlhokknohg o |
  1
<0:;8: {rn {jm {lh {rn {jh n {k {rn |
  1
:;8: {rn {jg {kf {lh {jf o |
  1
):-+:' {rn {kg {io |
  1
,+->687+r<*-): {rn rmiqokonhgihgmgknj rmgqkhggjofhjkonhkn o rm o o V V |
  1
/061+ {rn rmhqiflinjgkffjgoli rmgqkhggjofhjkonhkn o |
  1
<0:;8: {rn {km {kh {rn {in n {k {rn |
  1
:;8: {rn {jk {im {km {il o |
  1
):-+:' {rn {kl {ik |
  1
,+->687+r<*-): {rn rmfqgohlkmijkjnflhk rmnqmjkjlokofojimgh o m o o V V |
  1
/061+ {rn rmfqgohlkmijkjnflhk rmnqmjkjlokofojimgh o |
  1
:;8: {rn {ij {jg {kh {ii o |
  1
):-+:' {rn {jh {ih |
  1
,+->687+r<*-): {rn rmkqohkonhjihojmklh rmnqmjkjlokofojimgh o roqjmjmnllmokmjomhkk rnqfmfgojfkojnjmfli o V V |
  1
/061+ {rn rmiqokonhgihgmgknj rmgqkhggjofhjkonhkn o |
  1
:;8: {rn {im {ij {jm {ig o |
  1
):-+:' {rn {jl {if |
  1
,+->687+r<*-): {rn rmgqmlokfjlnklimimg rmnqmjkjlokofojimgh o oqjojlgfiiloigogfgi rnqfljofmoimonmjlkh o V V |
  1
/061+ {rn rmgqmlokfjlnklimimg rmnqmjkjlokofojimgh o |
  1
):-+:' {rn {in {ho |
  1
,+->687+r<*-): {rn rmjqhlnlkmlhghiknfh rmnqmjkjlokofojimgh o m o o V V |
  1
/061+ {rn rmkqohkonhjihojmklh rmnqmjkjlokofojimgh o |
  1
,+->687+r<*-): {rn rmhqooohjljnljkolgg rmjqfilnomlhokknohg o oqjmoioknljjlnghihf nqflnojkkinhokokh o V V |
  1
/061+ {rn rmhqooohjljnljkolgg rmjqfilnomlhokknohg o |
  1
/061+ {rn rmjqhlnlkmlhghiknfh rmnqmjkjlokofojimgh o |
  0
REGION
  5
281
330
1F
100
AcDbEntity
  8
5
100
AcDbModelerGeometry
 70
     1
  1
noi mi n o          
  1
=0;& {rn {n {rn {rn |
  1
3*2/ {rn {rn {m {o |
  1
,7:33 {rn {rn {rn {l {n |
  1
9><: {rn {rn {k {m {rn {j -:):-,:; ;0*=3: 0*+ |
  1
300/ {rn {rn {i {l |
  1
/3>1:r,*-9><: {rn rlhqjghljjijhlhmlkm rmkqgijhgignlghlmjh o o o rn rm o o o V V V V |
  1
<0:;8: {rn {h {g {rn {f n {k {rn |
  1
<0:;8: {rn {no {i {rn {nn o {k {rn |
  1
<0:;8: {rn {i {no {rn {nm o {k {rn |
  1
:;8: {rn {nl {nk {i {nj o |
  1
<0:;8: {rn {g {h {rn {ni o {k {rn |
  1
:;8: {rn {nl {nh {h {ng o |
  1
:;8: {rn {nf {nk {g {mo o |
  1
):-+:' {rn {f {mn |
  1
):-+:' {rn {f {mm |
  1
61+<*-):r<*-): {rn o $ :'><+<*- 1*=, l 0/:1 mk 
  1
 o l oqligokiljfljmjmjj n oqikiffjgmifofigklg n nqoigjglohkoojklhk n nqiohihjljnioiinng n 
  1
 nqfhmmojknmiffgfof n mqnfkhjgmkmhhogjlf n mqioinmmijimmmlmmg n lqnlhnlfiiikkokmkj n lqifnmlfgjmonggmhk n 
  1
 kqokoilfionkiiffnk n kqlffkggihjloikjmk n kqgnjjkihfkomhonmj n jqljoknhiinlnnjjjf n jqgnogkngnofmjifjk n 
  1
 iqmmhnfffmkgnlkoni n iqinkmilhmmmoihgkk n hqkgfigmoofjhoomml n hqgihgfiogmnmng n gqmjlnglnofmnkimnl n 
  1
 gqjjhhkmomokmlmfin n gqhimgololoifolglj n fqnknnhijkkiknoojg n fqmjiilgghlkomkimn l 
  1
 rliqmkjhkggohnfkikk rmlqjjkkflklnogjmoi o 
  1
 rliqmhnjfjlnkkjgijn rmlqmfimhmmlgjgkkoh o 
  1
 rliqlnholnlfoknhhnn rmmqgkmlkomooinimlj o 
  1
 rliqfhlkkkokfjimhl rmmqknghhhgllnomgfk o 
  1
 rlhqhiklmhfjifhfgif rmmqlhhffoholhhoojl o 
  1
 rlgqgkhfghhkoknghom rmmqknnghokliijmmog o 
  1
 rlgqfihjimfinglknll rmlqlimfoionmmojnni o 
  1
 rlgqkinhmliijjflign rmlqgjfohjklfmnkhoi o 
  1
 rlhqijgkhiojmiiignl rmlqfkkffhfnnghjhgg o 
  1
 rliqhonkihhjglmklh rmkqnhhfmiklnminomg o 
  1
 rljqhjlkfofimmlmnil rmkqlhkflmkmlhmjlnm o 
  1
 rljqonjlomgjmhfjmni rmkqhfgojhggokjhioi o 
  1
 rlkqkfgkojfkomnmlfl rmjqlhjinklflkknjlg o 
  1
 rlkqlnngifllfgglnol rmiqmjkhllfofogjokh o 
  1
 rlkqkkgligkfghglojk rmhqmlngglmnlfinfik o 
  1
 rljqnnimiggmohjnlon rmhqfjlmgjjmlloknhk o 
  1
 rljqgimlkmkgnllhfoj rmgqljnliojnhhilghf o 
  1
 rliqfljijihoiofoogi rmgqhohflhikgfhngoh o 
  1
 rlgqojiklnjnljjjgik rmgqjfkhomnjkkkklkf o 
  1
 rlfqnlonfgjkhoffgof rmgqlffinfhhohnljff o 
  1
 rlfqhgljilgjkimkhhk rmgqohkglfknkkfkfi o 
  1
 rkoqnfggokohjhhmoln rmhqiligilomnhkjffj o 
  1
 rkoqjgokhmliojknnml rmhqnfjojgmfjiigonf o 
  1
 rkoqihilifgiogfifnm rmiqimhhgmgffliohn o 
  1
 rkoqhmfmnnminfgmjmg rmiqklnohijkmmmifng o 
  1
 rkoqhjklfomjkgihini rmjqffiifnjgffggll o 
  1
 o 
  1
 1*33@,*-9><: 
  1
 1*33@,*-9><: 
  1
 1*33=, 
  1
 1*33=, 
  1
 " V V |
  1
:;8: {rn {nh {nf {no {ml o |
  1
):-+:' {rn {ni {mk |
  1
,+->687+r<*-): {rn rliqmkjhkggohnfkikk rmlqjjkkflklnogjmoi o nqfffffggjlnomnhjn roqoomnkngiioojnojinfi o V V |
  1
):-+:' {rn {nm {mj |
  1
,+->687+r<*-): {rn rlfqnifmkljkllonlkf rmjqffkjhlhmikomnfk o rnqfffffgmnkfmjoklf roqoomihmnlllkfklhngfk o V V |
  1
/061+ {rn rliqmkjhkggohnfkikk rmlqjjkkflklnogjmoi o |
  1
/061+ {rn rkoqhjklfomjkgihini rmjqffiifnjgffggll o |
  1
61+<*-):r<*-): {rn o $ :'><+<*- 1*=, l 0/:1 mg 
  1
 o l oqlfigjomnhmmhnoggk n oqhmihgjfojjnjijimj n nqongknlhimogofofh n nqmhjijkomimihfkmn n 
  1
 nqjjhhfooifjkllfmm n nqginnnojigjoifhom n mqjkkgnlhjikjngfjl n mqgnmoofmlhlingolh n lqokfffiohonmmmllj n 
  1
 lqlloonlmhgjlffngk n lqjhjiljhgilhmngkg n lqflkijnjffnhfgkfk n kqklfnimomimokiofi n kqihhohhmgmkfjfon n 
  1
 kqfjglhmkoiilonmjg n jqlmoknigoglljkill n jqijoooimimfnhomng n iqnnmooijfhfmfnkjk n iqillkinjnnhkjhlfi n 
  1
 iqfknhinkfmmgkfnmf n hqmokikooliljffifi n hqkfmhhkhgfkhifngl n hqhnffflnfkkoglkjn n gqmmhonmnijoikjmjg n 
  1
 gqhgfgkommjlomnifh n fqnlnohigkhjkjhkmm n fqlggifigilfmffjgm l 
  1
 rlkqiikjgkgghifjmnl rmlqjjingihjmigoohh o 
  1
 rlkqijimofjmkiolnff rmlqmgjhkonfggfoolf o 
  1
 rlkqikoghnoomkkgfhj rmmqhfokkgngkjmflih o 
  1
 rlkqffmkhghfjjhimng rmmqnggokkkjignhiik o 
  1
 rljqlgnngilflfloflm rmnqhlkjnokillohijh o 
  1
 rljqgfgolklmlkgjiok rmnqjnlifooijggjohm o 
  1
 rliqkokhighjjhhfgkn rmnqmiikfmoolkkmlg o 
  1
 rlhqmjofljhkglilmf rmnqnkghmjmhfhhnmfg o 
  1
 rlgqoflmhholgngglnf rmnqnllookghfjkjmk o 
  1
 rlgqghmhlilllnnofoh rmnqmfgklillfionfmn o 
  1
 rlfqljjofjlgflmfilk rmnqjnknfnghfknmfkg o 
  1
 rlfqhiolkmgnjlgklm rmnqgmlhninhiijhjkn o 
  1
 rkoqmnlfjjkhkggnnhj rmmqmnoomjhfmhmlhkn o 
  1
 rkoqjkoijkjmlhonhgf rmmqgfjknnjljifnfm o 
  1
 rkoqjglmniljngklhln rmlqihmjnnimhfmihjm o 
  1
 rkoqmghhogffnimgolh rmkqmfjjllnjomkifnn o 
  1
 rlfqfngolhhkjkgmifm rmkqhignjilofknhkil o 
  1
 rlfqlnfjgofmoonlmml rmjqojkfljnhihmkkmh o 
  1
 rlgqiomhlnohnligilg rmjqlmjjjfhmoilimhg o 
  1
 rlhqhlhjkklkmhgllii rmjqjollkffnjgkgjln o 
  1
 rliqfoohikjgohlkjgg rmjqimghiijimonjlgi o 
  1
 rliqngognjmjhmnkfnh rmjqfnikjmoomflnioh o 
  1
 rljqfjlogjnogfilghi rmiqkfjgihjminikfnj o 
  1
 rliqnmhllhjffhokkll rmhqojglgnkmhnomfnj o 
  1
 rliqhfmnmmkgigjkhg rmhqllkkjkfjngjmlfl o 
  1
 rlhqilkkfmlhlgggioj rmhqknkigmlhfgfminn o 
  1
 rlgqijimfhjogkgofhj rmhqmiihgmhgimkhlnf o 
  1
 rlfqnnnhmkihikojinj rmiqjikhnflmnhogjof o 
  1
 rlfqnjnfkmknimknjfi rmiqniioigoggjonkhi o 
  1
 rlfqnifmkljkllonlkf rmjqffkjhlhmikomnfk o 
  1
 o 
  1
 1*33@,*-9><: 
  1
 1*33@,*-9><: 
  1
 1*33=, 
  1
 1*33=, 
  1
 " V V |
  1
/061+ {rn rlkqiikjgkgghifjmnl rmlqjjingihjmigoohh o |
  1
/061+ {rn rlfqnifmkljkllonlkf rmjqffkjhlhmikomnfk o |
  0
REGION
  5
282
330
1F
100
AcDbEntity
  8
5
100
AcDbModelerGeometry
 70
     1
  1
noi mi n o          
  1
=0;& {rn {n {rn {rn |
  1
3*2/ {rn {rn {m {o |
  1
,7:33 {rn {rn {rn {l {n |
  1
9><: {rn {rn {k {m {rn {j -:):-,:; ;0*=3: 0*+ |
  1
300/ {rn {rn {i {l |
  1
/3>1:r,*-9><: {rn rnoqlfokofngfljhmkl rmkqgijhgignlghlmjh o o o rn rm o o o V V V V |
  1
<0:;8: {rn {h {g {rn {f n {k {rn |
  1
<0:;8: {rn {no {i {rn {nn o {k {rn |
  1
<0:;8: {rn {i {no {rn {nm o {k {rn |
  1
:;8: {rn {nl {nk {i {nj o |
  1
<0:;8: {rn {g {h {rn {ni o {k {rn |
  1
:;8: {rn {nl {nh {h {ng o |
  1
:;8: {rn {nf {nk {g {mo o |
  1
):-+:' {rn {f {mn |
  1
):-+:' {rn {f {mm |
  1
61+<*-):r<*-): {rn o $ :'><+<*- 1*=, l 0/:1 mk 
  1
 o l oqligokiljfljmjmjj n oqikiffjgmifofigklg n nqoigjglohkoojklhk n nqiohihjljnioiinng n 
  1
 nqfhmmojknmiffgfof n mqnfkhjgmkmhhogjlf n mqioinmmijimmmlmmg n lqnlhnlfiiikkokmkj n lqifnmlfgjmonggmhk n 
  1
 kqokoilfionkiiffnk n kqlffkggihjloikjmk n kqgnjjkihfkomhonmj n jqljoknhiinlnnjjjf n jqgnogkngnofmjifjk n 
  1
 iqmmhnfffmkgnlkoni n iqinkmilhmmmoihgkk n hqkgfigmoofjhoomml n hqgihgfiogmnmng n gqmjlnglnofmnkimnl n 
  1
 gqjjhhkmomokmlmfin n gqhimgololoifolglj n fqnknnhijkkiknoojg n fqmjiilgghlkomkimn l 
  1
 rfqokggomllfnhfjjfl rmlqjjkkflklnogjmoi o 
  1
 rfqohkikggkikkljijh rmlqmfimhmmlgjgkkoh o 
  1
 rfqnmoogkfmmkomimjh rmmqgkmlkomooinimlj o 
  1
 rfqhhikfhjgnjkhikkh rmmqknghhhgllnomgfk o 
  1
 rnoqjihlgnkggfikhgk rmmqlhhffoholhhoojl o 
  1
 rnnqijnoknmhmkolinh rmmqknnghokliijmmog o 
  1
 rnnqhhoinikflgnfokg rmlqlimfoionmmojnni o 
  1
 rnnqmikhhhnfhjhgjfi rmlqgjfohjklfmnkhoi o 
  1
 rnoqkinjmfjgkijnhmg rmlqfkkffhfnnghjhgg o 
  1
 rfqjokjmnmfolofmgki rmkqnhhfmiklnminomg o 
  1
 rgqjjijkkkfkmnhohgj rmkqlhkflmkmlhmjlnm o 
  1
 rhqgngljilgkhgonnih rmkqhfgojhggokjhioi o 
  1
 rhqlonkjfkhmnfhlogl rmjqlhjinklflkknjlg o 
  1
 rhqnnkfmmghngigoolj rmiqmjkhllfofogjokh o 
  1
 rhqmjnkmmolohihfifl rmhqmlngglmnlfinfik o 
  1
 rhqfnflmmljmhlimnik rmhqfjlmgjjmlloknhk o 
  1
 rgqiijlfionllmmgnfi rmgqljnliojnhhilghf o 
  1
 rfqhlghnomlgohjooog rmgqhohflhikgfhngoh o 
  1
 rnoqgjfkgjokjjkohhf rmgqjfkhomnjkkkklkf o 
  1
 rnnqfllmjmohfogkhmk rmgqlffinfhhohnljff o 
  1
 rnmqjgiinhlgiiofigf rmgqohkglfknkkfkfi o 
  1
 rnlqoongjhiohhjifki rmhqiligilomnhkjffj o 
  1
 rnlqlgljmjgfmjmiolg rmhqnfjojgmfjiigonf o 
  1
 rnlqkhfkmllfmggngmh rmiqimhhgmgffliohn o 
  1
 rnlqjlmmikhflfihkkl rmiqklnohijkmmmifng o 
  1
 rnlqjjhkklhgigjmjln rmjqffiifnjgffggll o 
  1
 o 
  1
 1*33@,*-9><: 
  1
 1*33@,*-9><: 
  1
 1*33=, 
  1
 1*33=, 
  1
 " V V |
  1
:;8: {rn {nh {nf {no {ml o |
  1
):-+:' {rn {ni {mk |
  1
,+->687+r<*-): {rn rfqokggomllfnhfjjfl rmlqjjkkflklnogjmoi o nqfffffggjlnomnhjn roqoomnkngiioojnojinfi o V V |
  1
):-+:' {rn {nm {mj |
  1
,+->687+r<*-): {rn rnnqfhmmfhohjmgimik rmjqffkjhlhmikomnfk o rnqfffffgmnkfmjoklf roqoomihmnlllkfklhngfk o V V |
  1
/061+ {rn rfqokggomllfnhfjjfl rmlqjjkkflklnogjmoi o |
  1
/061+ {rn rnlqjjhkklhgigjmjln rmjqffiifnjgffggll o |
  1
61+<*-):r<*-): {rn o $ :'><+<*- 1*=, l 0/:1 mg 
  1
 o l oqlfigjomnhmmhnoggk n oqhmihgjfojjnjijimj n nqongknlhimogofofh n nqmhjijkomimihfkmn n 
  1
 nqjjhhfooifjkllfmm n nqginnnojigjoifhom n mqjkkgnlhjikjngfjl n mqgnmoofmlhlingolh n lqokfffiohonmmmllj n 
  1
 lqlloonlmhgjlffngk n lqjhjiljhgilhmngkg n lqflkijnjffnhfgkfk n kqklfnimomimokiofi n kqihhohhmgmkfjfon n 
  1
 kqfjglhmkoiilonmjg n jqlmoknigoglljkill n jqijoooimimfnhomng n iqnnmooijfhfmfnkjk n iqillkinjnnhkjhlfi n 
  1
 iqfknhinkfmmgkfnmf n hqmokikooliljffifi n hqkfmhhkhgfkhifngl n hqhnffflnfkkoglkjn n gqmmhonmnijoikjmjg n 
  1
 gqhgfgkommjlomnifh n fqnlnohigkhjkjhkmm n fqlggifigilfmffjgm l 
  1
 rhqkihilgknfigonmg rmlqjjingihjmigoohh o 
  1
 rhqkjfmilojijggnmhf rmlqmgjhkonfggfoolf o 
  1
 rhqkklfmkjlkkllgf rmmqhfokkgngkjmflih o 
  1
 rhqhfjjlmlmhjinnkhh rmmqnggokkkjignhiik o 
  1
 rgqngkmlffmjfnjgkif rmnqhlkjnokillohijh o 
  1
 rgqhonoghgjjkhojngh rmnqjnlifooijggjohm o 
  1
 rfqmohgmmmghhikhjim rmnqmiikfmoolkkmlg o 
  1
 rnoqojlfgfmgolkgmoj rmnqnkghmjmhfhhnmfg o 
  1
 rnoqgfillojhonhlmlk rmnqnllookghfjkjmk o 
  1
 rnnqihjhgfgijofjgml rmnqmfgklillfionfmn o 
  1
 rnmqnjgnkgfmnlnkjkf rmnqjnknfnghfknmfkg o 
  1
 rnmqjillfilkhlifmlj rmnqgmlhninhiijhjkn o 
  1
 rnlqonhoofooigiiof rmmqmnoomjhfmhmlhkn o 
  1
 rnlqlklhogojjigihok rmmqgfjknnjljifnfm o 
  1
 rnlqlgimifgglgmgiki rmlqihmjnnimhfmihjm o 
  1
 rnlqofohimjmlinmfjm rmkqmfjjllnjomkifnn o 
  1
 rnmqhmnofnmhhkihioh rmkqhignjilofknhkil o 
  1
 rnmqnmmilkkjnffgnlg rmjqojkfljnhihmkkmh o 
  1
 rnnqkojhgkiolljljjl rmjqlmjjjfhmoilimhg o 
  1
 rnoqjkojfhghkhigmgn rmjqjollkffnjgkgjln o 
  1
 rfqholgngnnmhnfjoln rmjqimghiijimonjlgi o 
  1
 rgqfglgighgfnffglnf rmjqfnikjmoomflnioh o 
  1
 rgqhjinlgikofkghfof rmiqkfjgihjminikfnj o 
  1
 rgqflolfnnlnigflkhi rmhqojglgnkmhnomfnj o 
  1
 rfqjfjnhiongglfifki rmhqllkkjkfjngjmlfl o 
  1
 rnoqklhjkjfojghljm rmhqknkigmlhfgfminn o 
  1
 rnnqkjfljnokokijgf rmhqmiihgmhgimkhlnf o 
  1
 rnnqfnkhhgmoglfojl rmiqjikhnflmnhogjof o 
  1
 rnnqfjkffjfkgmmijnn rmiqniioigoggjonkhi o 
  1
 rnnqfhmmfhohjmgimik rmjqffkjhlhmikomnfk o 
  1
 o 
  1
 1*33@,*-9><: 
  1
 1*33@,*-9><: 
  1
 1*33=, 
  1
 1*33=, 
  1
 " V V |
  1
/061+ {rn rhqkihilgknfigonmg rmlqjjingihjmigoohh o |
  1
/061+ {rn rnnqfhmmfhohjmgimik rmjqffkjhlhmikomnfk o |
  0
REGION
  5
283
330
1F
100
AcDbEntity
  8
5
100
AcDbModelerGeometry
 70
     1
  1
noi mi n o          
  1
=0;& {rn {n {rn {rn |
  1
3*2/ {rn {rn {m {o |
  1
,7:33 {rn {rn {rn {l {n |
  1
9><: {rn {rn {k {m {rn {j 90-(>-; ;0*=3: 0*+ |
  1
300/ {rn {rn {i {l |
  1
/3>1:r,*-9><: {rn rnhqlfgljinnhfkkfmg rmkqgijhgignlghlmjh o o o n m o o o V V V V |
  1
<0:;8: {rn {h {g {rn {f o {k {rn |
  1
<0:;8: {rn {no {i {rn {nn n {k {rn |
  1
<0:;8: {rn {i {no {rn {nm o {k {rn |
  1
:;8: {rn {nl {nk {i {nj o |
  1
<0:;8: {rn {g {h {rn {ni o {k {rn |
  1
:;8: {rn {nh {nk {h {ng o |
  1
:;8: {rn {nf {nl {g {mo o |
  1
):-+:' {rn {f {mn |
  1
):-+:' {rn {f {mm |
  1
,+->687+r<*-): {rn rngqfgomkkoolghlflj rmjqffkjhlhmikomnfk o rnqfffffgmnkfmjoklf roqoomihmnlllkfklhngfk o V V |
  1
:;8: {rn {nh {nf {no {ml o |
  1
):-+:' {rn {nn {mk |
  1
61+<*-):r<*-): {rn o $ :'><+<*- 1*=, l 0/:1 mk 
  1
 o l oqligokiljfljmjmjj n oqikiffjgmifofigklg n nqoigjglohkoojklhk n nqiohihjljnioiinng n 
  1
 nqfhmmojknmiffgfof n mqnfkhjgmkmhhogjlf n mqioinmmijimmmlmmg n lqnlhnlfiiikkokmkj n lqifnmlfgjmonggmhk n 
  1
 kqokoilfionkiiffnk n kqlffkggihjloikjmk n kqgnjjkihfkomhonmj n jqljoknhiinlnnjjjf n jqgnogkngnofmjifjk n 
  1
 iqmmhnfffmkgnlkoni n iqinkmilhmmmoihgkk n hqkgfigmoofjhoomml n hqgihgfiogmnmng n gqmjlnglnofmnkimnl n 
  1
 gqjjhhkmomokmlmfin n gqhimgololoifolglj n fqnknnhijkkiknoojg n fqmjiilgghlkomkimn l 
  1
 rniqojihkfmihhihmln rmlqjjkkflklnogjmoi o 
  1
 rniqogmjfjhhjolnmlh rmlqmfimhmmlgjgkkoh o 
  1
 rniqnmgolngjoffomfh rmmqgkmlkomooinimlj o 
  1
 rniqhgkkkkjnonljlni rmmqknghhhgllnomgfk o 
  1
 rnhqjhjlmgknhjjmkji rmmqlhhffoholhhoojl o 
  1
 rngqijgfggmooffnmgg rmmqknnghokliijmmog o 
  1
 rngqhhgjilkmmkoihnf rmlqlimfoionmmojnni o 
  1
 rngqmhmhmknminiimih rmlqgjfohjklfmnkhoi o 
  1
 rnhqkifkhijnlmlfk rmlqfkkffhfnnghjhgg o 
  1
 rniqjnmkigmnggfifji rmkqnhhfmiklnminomg o 
  1
 rnjqjikkfnkmmgokhj rmkqlhkflmkmlhmjlnm o 
  1
 rnkqgmilollnllihgom rmkqhfgojhggokjhioi o 
  1
 rnkqlofkoikoohgkfhf rmjqlhjinklflkknjlg o 
  1
 rnkqnmmgifgookjjigf rmiqmjkhllfofogjokh o 
  1
 rnkqmjfligfjfljjikn rmhqmlngglmnlfinfik o 
  1
 rnkqfmhmifmgnlmlggg rmhqfjlmgjjmlloknhk o 
  1
 rnjqihllkmfknfnokfn rmgqljnliojnhhilghf o 
  1
 rniqhkiijhniiiimihm rmgqhohflhikgfhngoh o 
  1
 rnhqgihklnfhknmgkjn rmgqjfkhomnjkkkklkf o 
  1
 rngqfknnffoohihmlfj rmgqlffinfhhohnljff o 
  1
 rnfqjfkjiklnjnfhli rmgqohkglfknkkfkfi o 
  1
 rmoqoofgokjlilkking rmhqiligilomnhkjffj o 
  1
 rmoqlfnkhmgmnnnlhof rmhqnfjojgmfjiigonf o 
  1
 rmoqkghlholmnkifkfg rmiqimhhgmgffliohn o 
  1
 rmoqjkomnnhmmjjjnnk rmiqklnohijkmmmifng o 
  1
 rmoqjijlfohnjkkomom rmjqffiifnjgffggll o 
  1
 o 
  1
 1*33@,*-9><: 
  1
 1*33@,*-9><: 
  1
 1*33=, 
  1
 1*33=, 
  1
 " V V |
  1
):-+:' {rn {ni {mj |
  1
61+<*-):r<*-): {rn o $ :'><+<*- 1*=, l 0/:1 mg 
  1
 o l oqlfigjomnhmmhnoggk n oqhmihgjfojjnjijimj n nqongknlhimogofofh n nqmhjijkomimihfkmn n 
  1
 nqjjhhfooifjkllfmm n nqginnnojigjoifhom n mqjkkgnlhjikjngfjl n mqgnmoofmlhlingolh n lqokfffiohonmmmllj n 
  1
 lqlloonlmhgjlffngk n lqjhjiljhgilhmngkg n lqflkijnjffnhfgkfk n kqklfnimomimokiofi n kqihhohhmgmkfjfon n 
  1
 kqfjglhmkoiilonmjg n jqlmoknigoglljkill n jqijoooimimfnhomng n iqnnmooijfhfmfnkjk n iqillkinjnnhkjhlfi n 
  1
 iqfknhinkfmmgkfnmf n hqmokikooliljffifi n hqkfmhhkhgfkhifngl n hqhnffflnfkkoglkjn n gqmmhonmnijoikjmjg n 
  1
 gqhgfgkommjlomnifh n fqnlnohigkhjkjhkmm n fqlggifigilfmffjgm l 
  1
 rnkqkhjjgjlkgmihhff rmlqjjingihjmigoohh o 
  1
 rnkqkihmoffgjnhjhgj rmlqmgjhkonfggfoolf o 
  1
 rnkqkjnghnkilomnjin rmmqhfokkgngkjmflih o 
  1
 rnkqgolkhfmjinkggoj rmmqnggokkkjignhiik o 
  1
 rnjqnfmngigjkjoljng rmnqhlkjnokillohijh o 
  1
 rnjqhofolkhgkojgnf rmnqjnlifooijggjohm o 
  1
 rniqmnjhifmniljmkmh rmnqmiikfmoolkkmlg o 
  1
 rnhqoinflimogfljghi rmnqnkghmjmhfhhnmfg o 
  1
 rnhqfokmhhkfghiofoj rmnqnllookghfjkjmk o 
  1
 rngqiglhlihfliglkfk rmnqmfgklillfionfmn o 
  1
 rnfqniiofjgkffommm rmnqjnknfnghfknmfkg o 
  1
 rnfqjhnlklmhjfjifoi rmnqgmlhninhiijhjkn o 
  1
 rmoqomkfjjfljkjlhin rmmqmnoomjhfmhmlhkn o 
  1
 rmoqljnijkfgkmhklhi rmmqgfjknnjljifnfm o 
  1
 rmoqlfkmnignmknilnh rmlqihmjnnimhfmihjm o 
  1
 rmoqofghofkjmmooiml rmkqmfjjllnjomkifnn o 
  1
 rnfqhmfolgmoiojjmhf rmkqhignjilofknhkil o 
  1
 rnfqnlojgnlgojgjgof rmjqojkfljnhihmkkmh o 
  1
 rngqknlhlnjlnfknmmk rmjqlmjjjfhmoilimhg o 
  1
 rnhqjkgjkkgolljjfjm rmjqjollkffnjgkgjln o 
  1
 rniqhnnhijoknlohnhk rmjqimghiijimonjlgi o 
  1
 rnjqffngnjhnhhghjol rmjqfnikjmoomflnioh o 
  1
 rnjqhikogjjifjlikim rmiqkfjgihjminikfnj o 
  1
 rnjqflgllgoiomhhonf rmhqojglgnkmhnomfnj o 
  1
 rniqiolnmmfkhkmhlii rmhqllkkjkfjngjmlfl o 
  1
 rnhqkkjkfmglkkinnfn rmhqknkigmlhfgfminn o 
  1
 rngqkihmfhfifojljin rmhqmiihgmhgimkhlnf o 
  1
 rngqfmmhmjnlifhgmon rmiqjikhnflmnhogjof o 
  1
 rngqfimfkmghignkngm rmiqniioigoggjonkhi o 
  1
 rngqfgomkkoolghlflj rmjqffkjhlhmikomnfk o 
  1
 o 
  1
 1*33@,*-9><: 
  1
 1*33@,*-9><: 
  1
 1*33=, 
  1
 1*33=, 
  1
 " V V |
  1
/061+ {rn rngqfgomkkoolghlflj rmjqffkjhlhmikomnfk o |
  1
/061+ {rn rmoqjijlfohnjkkomom rmjqffiifnjgffggll o |
  1
,+->687+r<*-): {rn rniqojihkfmihhihmln rmlqjjkkflklnogjmoi o nqfffffggjlnomnhjn roqoomnkngiioojnojinfi o V V |
  1
/061+ {rn rniqojihkfmihhihmln rmlqjjkkflklnogjmoi o |
  1
/061+ {rn rnkqkhjjgjlkgmihhff rmlqjjingihjmigoohh o |
  0
REGION
  5
284
330
1F
100
AcDbEntity
  8
5
100
AcDbModelerGeometry
 70
     1
  1
noi mi n o          
  1
=0;& {rn {n {rn {rn |
  1
3*2/ {rn {rn {m {o |
  1
,7:33 {rn {rn {rn {l {n |
  1
9><: {rn {rn {k {m {rn {j 90-(>-; ;0*=3: 0*+ |
  1
300/ {rn {rn {i {l |
  1
/3>1:r,*-9><: {rn rmmqlmhnlojlojkfhlg rmkqghojiillknmhhkk o o o n m o o o V V V V |
  1
<0:;8: {rn {h {g {rn {f n {k {rn |
  1
<0:;8: {rn {no {i {rn {nn n {k {rn |
  1
<0:;8: {rn {i {no {rn {nm n {k {rn |
  1
:;8: {rn {nl {nk {i {nj o |
  1
<0:;8: {rn {g {h {rn {ni n {k {rn |
  1
:;8: {rn {nh {nl {h {ng o |
  1
:;8: {rn {nk {nf {g {mo o |
  1
):-+:' {rn {f {mn |
  1
):-+:' {rn {f {mm |
  1
,+->687+r<*-): {rn rmlqmmliiljnfloilnk rmgqkinoghofnihjifk o o m o V V |
  1
:;8: {rn {nf {nh {no {ml o |
  1
):-+:' {rn {ni {mk |
  1
,+->687+r<*-): {rn rmnqklojfhjknhflnim rmgqkinoghofnihjifk o rm o o V V |
  1
):-+:' {rn {nm {mj |
  1
,+->687+r<*-): {rn rmlqmmliiljnfloilnk rmnqmgookjjhijhfhfj o m o o V V |
  1
/061+ {rn rmlqmmliiljnfloilnk rmgqkinoghofnihjifk o |
  1
/061+ {rn rmlqmmliiljnfloilnk rmnqmgookjjhijhfhfj o |
  1
,+->687+r<*-): {rn rmnqklojfhjknhflnim rmnqmgookjjhijhfhfj o o rm o V V |
  1
/061+ {rn rmnqklojfhjknhflnim rmgqkinoghofnihjifk o |
  1
/061+ {rn rmnqklojfhjknhflnim rmnqmgookjjhijhfhfj o |
  0
REGION
  5
285
330
1F
100
AcDbEntity
  8
5
100
AcDbModelerGeometry
 70
     1
  1
noi ki n o          
  1
=0;& {rn {n {rn {rn |
  1
3*2/ {rn {rn {m {o |
  1
,7:33 {rn {rn {rn {l {n |
  1
9><: {rn {rn {k {m {rn {j -:):-,:; ;0*=3: 0*+ |
  1
300/ {rn {rn {i {l |
  1
/3>1:r,*-9><: {rn jqihkflhijjgjlkmii rmlqhngnmngfgooonlj o o o rn rm o o o V V V V |
  1
<0:;8: {rn {h {g {rn {f n {k {rn |
  1
<0:;8: {rn {no {i {rn {nn n {k {rn |
  1
<0:;8: {rn {i {nm {rn {nl n {k {rn |
  1
:;8: {rn {nk {nj {i {ni o |
  1
<0:;8: {rn {nh {h {rn {ng n {k {rn |
  1
:;8: {rn {nf {nk {h {mo o |
  1
<0:;8: {rn {g {mn {rn {mm n {k {rn |
  1
:;8: {rn {nj {ml {g {mk o |
  1
):-+:' {rn {f {mj |
  1
):-+:' {rn {f {mi |
  1
,+->687+r<*-): {rn gqgnojmlimnmifkgm rmmqjjgokmooilnmlm o rm o o V V |
  1
<0:;8: {rn {mh {no {rn {mg n {k {rn |
  1
:;8: {rn {mf {nf {no {lo o |
  1
):-+:' {rn {ng {ln |
  1
,+->687+r<*-): {rn gqgnojmlimnmifkgm rmnqmhnmloomffgmjkh o o rm o V V |
  1
<0:;8: {rn {nm {mh {rn {lm n {k {rn |
  1
:;8: {rn {ml {ll {nm {lk o |
  1
):-+:' {rn {nl {lj |
  1
,+->687+r<*-): {rn iqkgflnmjlnkikggfg rmmqjjgokmooilnmlm o o rm o V V |
  1
/061+ {rn gqgnojmlimnmifkgm rmmqjjgokmooilnmlm o |
  1
/061+ {rn iqkgflnmjlnkikggfg rmmqjjgokmooilnmlm o |
  1
<0:;8: {rn {mn {nh {rn {li n {k {rn |
  1
:;8: {rn {lh {mf {nh {lg o |
  1
):-+:' {rn {mg {lf |
  1
,+->687+r<*-): {rn mqiohimnhiogmklgii rmnqmhnmloomffgmjkh o m o o V V |
  1
/061+ {rn gqgnojmlimnmifkgm rmnqmhnmloomffgmjkh o |
  1
:;8: {rn {ll {ko {mn {kn o |
  1
):-+:' {rn {mm {km |
  1
,+->687+r<*-): {rn iqkgflnmjlnkikggfg rmgqkgjnhljkflflljm o rm o o V V |
  1
/061+ {rn iqkgflnmjlnkikggfg rmgqkgjnhljkflflljm o |
  1
:;8: {rn {ko {lh {mh {kl o |
  1
):-+:' {rn {li {kk |
  1
,+->687+r<*-): {rn mqiohimnhiogmklgii rmmqjjgokmooilnmlm o o m o V V |
  1
/061+ {rn mqiohimnhiogmklgii rmnqmhnmloomffgmjkh o |
  1
):-+:' {rn {lm {kj |
  1
,+->687+r<*-): {rn kqhfmmfmhofgjkfllh rmgqkgjnhljkflflljm o o m o V V |
  1
/061+ {rn kqhfmmfmhofgjkfllh rmgqkgjnhljkflflljm o |
  1
,+->687+r<*-): {rn kqhfmmfmhofgjkfllh rmmqjjgokmooilnmlm o rm o o V V |
  1
/061+ {rn mqiohimnhiogmklgii rmmqjjgokmooilnmlm o |
  1
/061+ {rn kqhfmmfmhofgjkfllh rmmqjjgokmooilnmlm o |
  0
REGION
  5
286
330
1F
100
AcDbEntity
  8
5
100
AcDbModelerGeometry
 70
     1
  1
noi mi n o          
  1
=0;& {rn {n {rn {rn |
  1
3*2/ {rn {rn {m {o |
  1
,7:33 {rn {rn {rn {l {n |
  1
9><: {rn {rn {k {m {rn {j -:):-,:; ;0*=3: 0*+ |
  1
300/ {rn {rn {i {l |
  1
/3>1:r,*-9><: {rn rmqmjghhmklinkifmh rmkqgiifhjnhknlkonm o o o rn rm o o o V V V V |
  1
<0:;8: {rn {h {g {rn {f o {k {rn |
  1
<0:;8: {rn {no {i {rn {nn o {k {rn |
  1
<0:;8: {rn {i {no {rn {nm o {k {rn |
  1
:;8: {rn {nl {nk {i {nj o |
  1
<0:;8: {rn {g {h {rn {ni o {k {rn |
  1
:;8: {rn {nk {nh {h {ng o |
  1
:;8: {rn {nf {nl {g {mo o |
  1
):-+:' {rn {f {mn |
  1
):-+:' {rn {f {mm |
  1
,+->687+r<*-): {rn nqiknkilnimgjikjli rmgqjhjmhjlnhkimjkn o o m o V V |
  1
:;8: {rn {nh {nf {no {ml o |
  1
):-+:' {rn {nn {mk |
  1
,+->687+r<*-): {rn nqiknkilnimgjikjli rmnqnjgihjologojkgl o rm o o V V |
  1
):-+:' {rn {ni {mj |
  1
,+->687+r<*-): {rn riqnjfoogoljnjolmng rmgqjhjmhjlnhkimjkn o m o o V V |
  1
/061+ {rn nqiknkilnimgjikjli rmgqjhjmhjlnhkimjkn o |
  1
/061+ {rn nqiknkilnimgjikjli rmnqnjgihjologojkgl o |
  1
,+->687+r<*-): {rn riqnjfoogoljnjolmng rmnqnjgihjologojkgl o o rm o V V |
  1
/061+ {rn riqnjfoogoljnjolmng rmnqnjgihjologojkgl o |
  1
/061+ {rn riqnjfoogoljnjolmng rmgqjhjmhjlnhkimjkn o |
  0
REGION
  5
287
330
1F
100
AcDbEntity
  8
5
100
AcDbModelerGeometry
 70
     1
  1
noi ii n o          
  1
=0;& {rn {n {rn {rn |
  1
3*2/ {rn {rn {m {o |
  1
,7:33 {rn {rn {rn {l {n |
  1
9><: {rn {rn {k {m {rn {j -:):-,:; ;0*=3: 0*+ |
  1
300/ {rn {rn {i {l |
  1
/3>1:r,*-9><: {rn rmqmkinnjhojfjlljhi rmkqghgmonhgfighfmn o o o rn rm o o o V V V V |
  1
<0:;8: {rn {h {g {rn {f o {k {rn |
  1
<0:;8: {rn {no {i {rn {nn o {k {rn |
  1
<0:;8: {rn {i {nm {rn {nl o {k {rn |
  1
:;8: {rn {nk {nj {i {ni o |
  1
<0:;8: {rn {nh {h {rn {ng o {k {rn |
  1
:;8: {rn {nj {nf {h {mo o |
  1
<0:;8: {rn {g {mn {rn {mm o {k {rn |
  1
:;8: {rn {ml {nk {g {mk o |
  1
):-+:' {rn {f {mj |
  1
):-+:' {rn {f {mi |
  1
,+->687+r<*-): {rn oqgfnofjhhlmgfhhhoh rmjqihhjgklnnjjolim o o m o V V |
  1
<0:;8: {rn {mh {no {rn {mg o {k {rn |
  1
:;8: {rn {nf {mf {no {lo o |
  1
):-+:' {rn {nn {ln |
  1
,+->687+r<*-): {rn oqgfnofjhhlmgfhhhoh rmkqohggnfmihgmjkml o rm o o V V |
  1
<0:;8: {rn {nm {lm {rn {ll o {k {rn |
  1
:;8: {rn {lk {ml {nm {lj o |
  1
):-+:' {rn {mm {li |
  1
,+->687+r<*-): {rn rnqlnlohfglnlnjhhjk rmjqihhjgklnnjjolim o m o o V V |
  1
/061+ {rn oqgfnofjhhlmgfhhhoh rmjqihhjgklnnjjolim o |
  1
/061+ {rn oqgfnofjhhlmgfhhhoh rmkqohggnfmihgmjkml o |
  1
<0:;8: {rn {lh {nh {rn {lg o {k {rn |
  1
:;8: {rn {mf {lf {nh {ko o |
  1
):-+:' {rn {ng {kn |
  1
,+->687+r<*-): {rn rnqlnlohfglnlnjhhjk rmkqohggnfmihgmjkml o o m o V V |
  1
/061+ {rn rnqlnlohfglnlnjhhjk rmkqohggnfmihgmjkml o |
  1
<0:;8: {rn {mn {km {rn {kl o {k {rn |
  1
:;8: {rn {kk {lk {mn {kj o |
  1
):-+:' {rn {ll {ki |
  1
,+->687+r<*-): {rn rnqlnlohfglnlnjhhjk rmhqgknhihjinmmgkij o o m o V V |
  1
/061+ {rn rnqlnlohfglnlnjhhjk rmjqihhjgklnnjjolim o |
  1
<0:;8: {rn {kh {mh {rn {kg o {k {rn |
  1
:;8: {rn {lf {kf {mh {jo o |
  1
):-+:' {rn {mg {jn |
  1
,+->687+r<*-): {rn rnqlnlohfglnlnjhhjk rmnqfnkiliongnkhklk o rm o o V V |
  1
/061+ {rn rnqlnlohfglnlnjhhjk rmnqfnkiliongnkhklk o |
  1
<0:;8: {rn {lm {kh {rn {jm o {k {rn |
  1
:;8: {rn {jl {kk {lm {jk o |
  1
):-+:' {rn {kl {jj |
  1
,+->687+r<*-): {rn rlqngjijliljgffmmgh rmhqgknhihjinmmgkij o m o o V V |
  1
/061+ {rn rnqlnlohfglnlnjhhjk rmhqgknhihjinmmgkij o |
  1
<0:;8: {rn {km {lh {rn {ji o {k {rn |
  1
:;8: {rn {kf {jh {lh {jg o |
  1
):-+:' {rn {lg {jf |
  1
,+->687+r<*-): {rn rlqngjijliljgffmmgh rmnqfnkiliongnkhklk o o rm o V V |
  1
/061+ {rn rlqngjijliljgffmmgh rmnqfnkiliongnkhklk o |
  1
:;8: {rn {io {jl {km {in o |
  1
):-+:' {rn {jm {im |
  1
,+->687+r<*-): {rn rlqngjijliljgffmmgh rmjqijgoghlijffhkgg o o rm o V V |
  1
/061+ {rn rlqngjijliljgffmmgh rmhqgknhihjinmmgkij o |
  1
:;8: {rn {jh {io {kh {il o |
  1
):-+:' {rn {kg {ik |
  1
,+->687+r<*-): {rn rlqngjijliljgffmmgh rmkqofglnimnllhgknn o rm o o V V |
  1
/061+ {rn rlqngjijliljgffmmgh rmkqofglnimnllhgknn o |
  1
):-+:' {rn {ji {ij |
  1
,+->687+r<*-): {rn rjqlholmlohkjhfggim rmjqijgoghlijffhkgg o m o o V V |
  1
/061+ {rn rlqngjijliljgffmmgh rmjqijgoghlijffhkgg o |
  1
,+->687+r<*-): {rn rjqlholmlohkjhfggim rmkqofglnimnllhgknn o o rm o V V |
  1
/061+ {rn rjqlholmlohkjhfggim rmkqofglnimnllhgknn o |
  1
/061+ {rn rjqlholmlohkjhfggim rmjqijgoghlijffhkgg o |
  0
REGION
  5
288
330
1F
100
AcDbEntity
  8
5
100
AcDbModelerGeometry
 70
     1
  1
noi li n o          
  1
=0;& {rn {n {rn {rn |
  1
3*2/ {rn {rn {m {o |
  1
,7:33 {rn {rn {rn {l {n |
  1
9><: {rn {rn {k {m {rn {j -:):-,:; ;0*=3: 0*+ |
  1
300/ {rn {rn {i {l |
  1
/3>1:r,*-9><: {rn mgqhgjjhmoinilhmmj rmjqijmlojlmlhhffmh o o o rn rm o o o V V V V |
  1
<0:;8: {rn {h {g {rn {f o {k {rn |
  1
<0:;8: {rn {no {i {rn {nn o {k {rn |
  1
<0:;8: {rn {i {nm {rn {nl o {k {rn |
  1
:;8: {rn {nk {nj {i {ni o |
  1
<0:;8: {rn {nh {h {rn {ng o {k {rn |
  1
:;8: {rn {nj {nf {h {mo o |
  1
<0:;8: {rn {g {nh {rn {mn o {k {rn |
  1
:;8: {rn {mm {nk {g {ml o |
  1
):-+:' {rn {f {mk |
  1
):-+:' {rn {f {mj |
  1
,+->687+r<*-): {rn mgqogfnjighfljhlhj rmhqnfohkjonglkjlgm o o m o V V |
  1
<0:;8: {rn {nm {no {rn {mi o {k {rn |
  1
:;8: {rn {nf {mh {no {mg o |
  1
):-+:' {rn {nn {mf |
  1
,+->687+r<*-): {rn mgqogfnjighfljhlhj rmnqmhignggiljfmngl o rm o o V V |
  1
:;8: {rn {lo {mm {nm {ln o |
  1
):-+:' {rn {mn {lm |
  1
,+->687+r<*-): {rn lnqhhioimlgkhlgjfk rmhqnfohkjonglkjlgm o rm o o V V |
  1
/061+ {rn mgqogfnjighfljhlhj rmhqnfohkjonglkjlgm o |
  1
/061+ {rn mgqogfnjighfljhlhj rmnqmhignggiljfmngl o |
  1
:;8: {rn {mh {lo {nh {ll o |
  1
):-+:' {rn {ng {lk |
  1
,+->687+r<*-): {rn miqkfnkfifmognjikf rmnqmhignggiljfmngl o o rm o V V |
  1
/061+ {rn miqkfnkfifmognjikf rmnqmhignggiljfmngl o |
  1
):-+:' {rn {mi {lj |
  1
,+->687+r<*-): {rn lnqhhioimlgkhlgjfk rmgqkgfljmogfkommnh o o m o V V |
  1
/061+ {rn lnqhhioimlgkhlgjfk rmhqnfohkjonglkjlgm o |
  1
,+->687+r<*-): {rn miqkfnkfifmognjikf rmgqkgfljmogfkommnh o m o o V V |
  1
/061+ {rn miqkfnkfifmognjikf rmgqkgfljmogfkommnh o |
  1
/061+ {rn lnqhhioimlgkhlgjfk rmgqkgfljmogfkommnh o |
  0
REGION
  5
289
330
1F
100
AcDbEntity
  8
5
100
AcDbModelerGeometry
 70
     1
  1
noi nn n o          
  1
=0;& {rn {n {rn {rn |
  1
3*2/ {rn {rn {m {o |
  1
,7:33 {rn {rn {rn {l {n |
  1
9><: {rn {rn {k {m {rn {j 90-(>-; ;0*=3: 0*+ |
  1
300/ {rn {rn {i {l |
  1
/3>1:r,*-9><: {rn mnqkihhokmgfjkffhn rmkqfoligghmmkgggjm o o o n m o o o V V V V |
  1
<0:;8: {rn {i {i {rn {h o {k {rn |
  1
:;8: {rn {g {g {i {f o |
  1
):-+:' {rn {h {no |
  1
61+<*-):r<*-): {rn o $ :'><+<*- 1*=, l <30,:; mg 
  1
 o l oqjmgoifhjffkokifih n oqflmofglijffhhnlml n nqloihiinnoohnkhhg n nqhiljkmjkiinmjogl n 
  1
 mqnnnognoonkmogkkg n mqjillgijfimjkjnik n lqoflnkgomngmkggl n lqjiofnfmlfomimlli n lqfhkfokkklhhjkhig n 
  1
 kqmmmiimiinffogokn n kqimoijkgflgjimkgi n jqnhnhjmjiknoghohf n jqgjhnohgjlmjimmmm n iqmifnifjjikfnhhif n 
  1
 iqinofhklnkknfofok n hqojhfikfhomnjoklj n hqkjfhiggmgmmilljf n hqflgljnffjgoflgkm n gqlkmoookkglnihffl n 
  1
 gqjgkiohmfjkmmgjfi n fqnjglfmnhjohhikfk n fqijimfofkfkhflmmn n noqnoogkffjggjfkfl n noqjokghfmojlgjmoi n 
  1
 noqgklkglgogmlgfkh n nnqoiggghmhoijglhi n nnqhjkmognioiokmgh l 
  1
 moqhjfonlofgnnmkll rmnqmmlfgiikgmihjmh o 
  1
 moqknkngfgfnmjojni rmnqlomkkfjihiflkon o 
  1
 nfqgojjkogiomhhnkg rmnqkkofkkgmgmlhmik o 
  1
 nfqokmfjflhllhloii rmnqfonjlnfhklnkmjl o 
  1
 ngqjmllimiglnkhmif rmmqjjmgnmniilfijil o 
  1
 ngqnklfoifjnofooln rmlqmkmgmhoghlnf o 
  1
 nhqgjnfoonmjikjmkk rmkqoljmmgjghklmngi o 
  1
 nhqhglogjgmmhlgjh rmkqfmkghjigjolgjmf o 
  1
 nhqgmmhiijknnmfogk rmjqfonfhogkjgghkoj o 
  1
 ngqngikojjmijilihj rmiqhgkgnmggllimglm o 
  1
 ngqimnknonolinkljm rmhqknonflimnnfjhgg o 
  1
 nfqniononfmjfoljkh rmhqghohomflfooijhh o 
  1
 nfqgmfnmjlnkommhng rmgqlnhihmimjhjonfn o 
  1
 moqgfffljjllfmoojg rmgqiohlommfkjhmmik o 
  1
 mmqoohhffkiikjgmlg rmgqinggmfiojnkhhfj o 
  1
 mmqfjfnfhmjnflnhmh rmgqknnnnlkmlilmlnj o 
  1
 mlqikfgffohfjlnjfl rmhqffgfhknojnhnfgm o 
  1
 mkqloiffghmlmomkfh rmhqjllojfjgkfmffl o 
  1
 mkqhhhffglnllfflij rmiqhijjnnhlomioinl o 
  1
 mjqohjlklkmfjffhnm rmjqfjgnmhfifinfijl o 
  1
 mjqnhfnlklgoihmkml rmjqmofflnknlfmhfok o 
  1
 mjqnhfmloknhiimgij rmkqlfilihhlhnihln o 
  1
 mjqomjmmnknhhokgfg rmlqjnflggkfjjgmjng o 
  1
 mkqjjmifilkogolljn rmmqinnlhghfmgnffhh o 
  1
 mlqfkifmfhioogjfij rmnqfljhnhhgomflg o 
  1
 mlqmiigkonnhkgihfk rmnqjoggmngjjkfgmk o 
  1
 mmqikhgfmklhgjmfol rmnqlnjnfkfkhfjjiok o 
  1
 mnqgmfoklofgggljkj rmnqnkfgmjonjjmoilk o 
  1
 mnqmngkiffkliigiml rmnqnfmnkminiomihmf o 
  1
 moqhjfonlofgnnmkll rmnqmmlfgiikgmihjmh o 
  1
 o 
  1
 1*33@,*-9><: 
  1
 1*33@,*-9><: 
  1
 1*33=, 
  1
 1*33=, 
  1
 " V V |
  1
/061+ {rn moqhjfonlofgnnmkll rmnqmmlfgiikgmihjmh o |
  0
REGION
  5
28A
330
1F
100
AcDbEntity
  8
5
100
AcDbModelerGeometry
 70
     1
  1
noi nn n o          
  1
=0;& {rn {n {rn {rn |
  1
3*2/ {rn {rn {m {o |
  1
,7:33 {rn {rn {rn {l {n |
  1
9><: {rn {rn {k {m {rn {j 90-(>-; ;0*=3: 0*+ |
  1
300/ {rn {rn {i {l |
  1
/3>1:r,*-9><: {rn nlqnkmljflfiimikok rmkqfoligghmmkgggjm o o o n m o o o V V V V |
  1
<0:;8: {rn {i {i {rn {h o {k {rn |
  1
:;8: {rn {g {g {i {f o |
  1
):-+:' {rn {h {no |
  1
61+<*-):r<*-): {rn o $ :'><+<*- 1*=, l <30,:; mg 
  1
 o l oqjmgoifhjffkokifih n oqflmofglijffhhnlml n nqloihiinnoohnkhhg n nqhiljkmjkiinmjogl n 
  1
 mqnnnognoonkmogkkg n mqjillgijfimjkjnik n lqoflnkgomngmkggl n lqjiofnfmlfomimlli n lqfhkfokkklhhjkhig n 
  1
 kqmmmiimiinffogokn n kqimoijkgflgjimkgi n jqnhnhjmjiknoghohf n jqgjhnohgjlmjimmmm n iqmifnifjjikfnhhif n 
  1
 iqinofhklnkknfofok n hqojhfikfhomnjoklj n hqkjfhiggmgmmilljf n hqflgljnffjgoflgkm n gqlkmoookkglnihffl n 
  1
 gqjgkiohmfjkmmgjfi n fqnjglfmnhjohhikfk n fqijimfofkfkhflmmn n noqnoogkffjggjfkfl n noqjokghfmojlgjmoi n 
  1
 noqgklkglgogmlgfkh n nnqoiggghmhoijglhi n nnqhjkmognioiokmgh l 
  1
 nmqklliigmojngggii rmnqmmlfgiikgmihjmh o 
  1
 nmqogggkkffglmifkg rmnqlomkkfjihiflkon o 
  1
 nnqkgonfjfihljljg rmnqkkofkkgmgmlhmik o 
  1
 noqhnhinkkgokkfkfg rmnqfonjlnfhklnkmjl o 
  1
 noqnfgonhhfommlhom rmmqjjmgnmniilfijil o 
  1
 fqgngjimojgniikilh rmlqmkmgmhoghlnf o 
  1
 fqjmijjjmlmhmnihih rmkqoljmmgjghklmngi o 
  1
 fqkjhhkofmfgnjool rmkqfmkghjigjolgjmf o 
  1
 fqkfhkmnikgmojjnif rmjqfonfhogkjgghkoj o 
  1
 fqginoioillikonohh rmiqhgkgnmggllimglm o 
  1
 noqmfioijmnoifohgk rmhqknonflimnnfjhgg o 
  1
 noqglkhjholmfhffhf rmhqghohomflfooijhh o 
  1
 nnqjolhgokmnoffnjn rmgqlnhihmimjhjonfn o 
  1
 nmqjhkjfoikoffikf rmgqiohlommfkjhmmik o 
  1
 nlqigmkjkjhljlkih rmgqinggmfiojnkhhfj o 
  1
 nkqillgjmljfoognjf rmgqknnnnlkmlilmlnj o 
  1
 njqlmkjjkngiiogomi rmhqffgfhknojnhnfgm o 
  1
 njqfgnijlglomhgfl rmhqjllojfjgkfmffl o 
  1
 niqkjmijlkmokhjhfg rmiqhijjnnhlomioinl o 
  1
 niqhkfffgjliihinkj rmjqfjgnmhfifinfijl o 
  1
 niqgjlhgfkghhkggjj rmjqmofflnknlfmhfok o 
  1
 niqgjlggjjmkhlfmfh rmkqlfilihhlhnihln o 
  1
 niqiffghijmkhgnlln rmlqjnflggkfjjgmjng o 
  1
 niqmmhljnkkhghfhgk rmmqinnlhghfmgnffhh o 
  1
 njqimnjgkgihnimlfh rmnqfljhnhhgomflg o 
  1
 nkqfknkfjmmkjilmmi rmnqjoggmngjjkfgmk o 
  1
 nkqlmmjkhjkkfmflli rmnqlnjnfkfkhfjjiok o 
  1
 nlqjolifgmojfjffhg rmnqnkfgmjonjjmoilk o 
  1
 nmqgflnmjojohkjoji rmnqnfmnkminiomihmf o 
  1
 nmqklliigmojngggii rmnqmmlfgiikgmihjmh o 
  1
 o 
  1
 1*33@,*-9><: 
  1
 1*33@,*-9><: 
  1
 1*33=, 
  1
 1*33=, 
  1
 " V V |
  1
/061+ {rn nmqklliigmojngggii rmnqmmlfgiikgmihjmh o |
  0
REGION
  5
28B
330
1F
100
AcDbEntity
  8
5
100
AcDbModelerGeometry
 70
     1
  1
noi nn n o          
  1
=0;& {rn {n {rn {rn |
  1
3*2/ {rn {rn {m {o |
  1
,7:33 {rn {rn {rn {l {n |
  1
9><: {rn {rn {k {m {rn {j 90-(>-; ;0*=3: 0*+ |
  1
300/ {rn {rn {i {l |
  1
/3>1:r,*-9><: {rn nlqnkhjklkoklnohn rmkqgiihmjiihlonlmk o o o n m o o o V V V V |
  1
<0:;8: {rn {i {i {rn {h o {k {rn |
  1
:;8: {rn {g {g {i {f o |
  1
):-+:' {rn {h {no |
  1
61+<*-):r<*-): {rn o $ :'><+<*- 1*=, l <30,:; ml 
  1
 o l oqkoojgnkjmnohkngg n oqhmihiglnghjgffgin n nqojhklkhohmkfhol n nqklknomhhhhofhofh n 
  1
 nqgoifmlifgglhonh n mqljmfhomjhfinmnjn n mqhnlhonofgokhfhml n mqfgjifgglmmmggjih n lqljjojkfjnhjoihji n 
  1
 lqiffhngmihljfiggf n lqfhllnfokkkifnlfj n kqnfhlimgmimnjgnhi n kqljfofhlmhgfkhkg n kqjfkhggnfmglimhhf n 
  1
 kqfllohoihkgffhinh n jqlmjlmjimoogggkon n jqiklmikikjnoglgmn n iqonjoofjlkgojjgji n iqlkmfomgffhhgnjij n 
  1
 iqikfhmnlikhffhogm n iqfngojijnjjghhmfg n hqofnjnggkhoiliojh l 
  1
 nlqnmgijkoflmljkfh rmmqjofllnnklgllkik o 
  1
 nmqgingmngkilklnf rmmqjlninnokihfkfj o 
  1
 nmqlhhhnmjolihjlgl rmmqjhmollnohnognmi o 
  1
 nnqhnhjoikjmkmmfjl rmmqfnnifjikkfmmfon o 
  1
 nnqlfjoknjkninhnlm rmlqjjoiiofngfkfkf o 
  1
 nnqnfikfmkkllhnjnn rmkqmljokggkhmlkln o 
  1
 nnqonhkngkooifhkfk rmjqofhgnlnjhggnnhh o 
  1
 nnqmimfofhjikhlfln rmjqflkkijhfhlkmfii o 
  1
 nnqjhifojnjmjkimlm rmiqihhlmlgjlgnhhk o 
  1
 nmqnkmghijhhnkfhlj rmhqohmjnnnoilfnof o 
  1
 nmqhhfmojjilifigm rmhqmiknkfglmhlgjmj o 
  1
 nlqkkinkjnojjgfkof rmhqmgkfnogolkgmooi o 
  1
 nlqffiffimjifnjomj rmhqnkkkgjmonkolhfi o 
  1
 nkqlgjmgnkjkniofki rmiqflogljmnoiogomk o 
  1
 nkqhoojnnhojkmlgj rmiqijkgikijlkknfll o 
  1
 nkqflihjiilfnohmkk rmiqmnlfggnkoglgjjm o 
  1
 njqnnojhfmngkmmgmg rmjqjfkimjfnmlmokmk o 
  1
 njqmkgllnhmmmngjg rmkqfonkjlffjomhmgm o 
  1
 njqnkhooglomgmhmln rmkqnhjjkkgkofimhnj o 
  1
 nkqgfjkifjjknmnmoi rmlqjkimgofjfmflgjl o 
  1
 nkqjilgfnljokjiggj rmmqfkkilnfgilnglnl o 
  1
 nkqolnimihhknjlifl rmmqingilfgiinhonji o 
  1
 nlqjlfilligiflonjf rmmqjolnfmomknhoggi o 
  1
 nlqmkkjmmffkllfnhg rmmqjohioolmojjngom o 
  1
 nlqnmgijkoflmljkfh rmmqjofllnnklgllkik o 
  1
 o 
  1
 1*33@,*-9><: 
  1
 1*33@,*-9><: 
  1
 1*33=, 
  1
 1*33=, 
  1
 " V V |
  1
/061+ {rn nlqnmgijkoflmljkfh rmmqjofllnnklgllkik o |
  0
REGION
  5
28C
330
1F
100
AcDbEntity
  8
5
100
AcDbModelerGeometry
 70
     1
  1
noi nn n o          
  1
=0;& {rn {n {rn {rn |
  1
3*2/ {rn {rn {m {o |
  1
,7:33 {rn {rn {rn {l {n |
  1
9><: {rn {rn {k {m {rn {j 90-(>-; ;0*=3: 0*+ |
  1
300/ {rn {rn {i {l |
  1
/3>1:r,*-9><: {rn mnqkhmgggmfhmlkmhh rmkqgiihmjiihlonlmk o o o n m o o o V V V V |
  1
<0:;8: {rn {i {i {rn {h o {k {rn |
  1
:;8: {rn {g {g {i {f o |
  1
):-+:' {rn {h {no |
  1
61+<*-):r<*-): {rn o $ :'><+<*- 1*=, l <30,:; ml 
  1
 o l oqkoojgnkjmnohkngg n oqhmihiglnghjgffgin n nqojhklkhohmkfhol n nqklknomhhhhofhofh n 
  1
 nqgoifmlifgglhonh n mqljmfhomjhfinmnjn n mqhnlhonofgokhfhml n mqfgjifgglmmmggjih n lqljjojkfjnhjoihji n 
  1
 lqiffhngmihljfiggf n lqfhllnfokkkifnlfj n kqnfhlimgmimnjgnhi n kqljfofhlmhgfkhkg n kqjfkhggnfmglimhhf n 
  1
 kqfllohoihkgffhinh n jqlmjlmjimoogggkon n jqiklmikikjnoglgmn n iqonjoofjlkgojjgji n iqlkmfomgffhhgnjij n 
  1
 iqikfhmnlikhffhogm n iqfngojijnjjghhmfg n hqofnjnggkhoiliojh l 
  1
 mnqkjlffgfginjfoik rmmqjofllnnklgllkik o 
  1
 mnqnghniihlfmiihjg rmmqjlninnokihfkfj o 
  1
 moqholojhlfijfgfj rmmqjhmollnohnognmi o 
  1
 moqokmgjnlkjlkijm rmmqfnnifjikkfmmfon o 
  1
 nfqhmolgiklkjkoh rmlqjjoiiofngfkfkf o 
  1
 nfqjmnglhllimfjohf rmkqmljokggkhmlkln o 
  1
 nfqlkmhilmflimnoin rmjqofhgnlnjhggnnhh o 
  1
 nfqjggmjkikflfhkfg rmjqflkkijhfhlkmfii o 
  1
 nfqfommjookjkifhff rmiqihhlmlgjlgnhhk o 
  1
 moqkigmmnkhoohllol rmhqohmjnnnoilfnof o 
  1
 mnqnokjjokjiimolgh rmhqmiknkfglmhlgjmj o 
  1
 mnqhhnkgfffgjnmfhi rmhqmgkfnogolkgmooi o 
  1
 mmqlmmlknnkfglgjfl rmhqnkkkgjmonkolhfi o 
  1
 mmqhnoimilkhogkjnk rmiqflogljmnoiogomk o 
  1
 mlqomjgjijfglkhknh rmiqijkgikijlkknfll o 
  1
 mlqmimnonjlmolognm rmiqmnlfggnkoglgjjm o 
  1
 mlqkljfmknnnlkilfj rmjqjfkimjfnmlmokmk o 
  1
 mlqjhlihiinjnkmnkg rmkqfonkjlffjomhmgm o 
  1
 mlqkhmljlnfjhjohff rmkqnhjjkkgkofimhnj o 
  1
 mlqmmognkkkhokkhhl rmlqjkimgofjfmflgjl o 
  1
 mmqggfmlimkllgokjm rmmqfkkilnfgilnglnl o 
  1
 mmqljifhniihohhmin rmmqingilfgiinhonji o 
  1
 mnqgikfhgjhfgjlhmh rmmqjolnfmomknhoggi o 
  1
 mnqjifgihgghmimhkj rmmqjohioolmojjngom o 
  1
 mnqkjlffgfginjfoik rmmqjofllnnklgllkik o 
  1
 o 
  1
 1*33@,*-9><: 
  1
 1*33@,*-9><: 
  1
 1*33=, 
  1
 1*33=, 
  1
 " V V |
  1
/061+ {rn mnqkjlffgfginjfoik rmmqjofllnnklgllkik o |
  0
REGION
  5
28D
330
1F
100
AcDbEntity
  8
5
100
AcDbModelerGeometry
 70
     1
  1
noi mi n o          
  1
=0;& {rn {n {rn {rn |
  1
3*2/ {rn {rn {m {o |
  1
,7:33 {rn {rn {rn {l {n |
  1
9><: {rn {rn {k {m {rn {j 90-(>-; ;0*=3: 0*+ |
  1
300/ {rn {rn {i {l |
  1
/3>1:r,*-9><: {rn ljqkolghmfkhhnliii rmkqgijhgignlghlmjh o o o n m o o o V V V V |
  1
<0:;8: {rn {h {g {rn {f o {k {rn |
  1
<0:;8: {rn {no {i {rn {nn n {k {rn |
  1
<0:;8: {rn {i {no {rn {nm o {k {rn |
  1
:;8: {rn {nl {nk {i {nj o |
  1
<0:;8: {rn {g {h {rn {ni o {k {rn |
  1
:;8: {rn {nh {nk {h {ng o |
  1
:;8: {rn {nf {nl {g {mo o |
  1
):-+:' {rn {f {mn |
  1
):-+:' {rn {f {mm |
  1
,+->687+r<*-): {rn llqgmnfgjoinhgkijf rmjqffkjhlhmikomnfk o rnqfffffgmnkfmjoklf roqoomihmnlllkfklhngfk o V V |
  1
:;8: {rn {nh {nf {no {ml o |
  1
):-+:' {rn {nn {mk |
  1
61+<*-):r<*-): {rn o $ :'><+<*- 1*=, l 0/:1 mk 
  1
 o l oqligokiljfljmjmjj n oqikiffjgmifofigklg n nqoigjglohkoojklhk n nqiohihjljnioiinng n 
  1
 nqfhmmojknmiffgfof n mqnfkhjgmkmhhogjlf n mqioinmmijimmmlmmg n lqnlhnlfiiikkokmkj n lqifnmlfgjmonggmhk n 
  1
 kqokoilfionkiiffnk n kqlffkggihjloikjmk n kqgnjjkihfkomhonmj n jqljoknhiinlnnjjjf n jqgnogkngnofmjifjk n 
  1
 iqmmhnfffmkgnlkoni n iqinkmilhmmmoihgkk n hqkgfigmoofjhoomml n hqgihgfiogmnmng n gqmjlnglnofmnkimnl n 
  1
 gqjjhhkmomokmlmfin n gqhimgololoifolglj n fqnknnhijkkiknoojg n fqmjiilgghlkomkimn l 
  1
 liqhkjkhfhfhgfnlil rmlqjjkkflklnogjmoi o 
  1
 liqhnfillmfoimhlff rmlqmfimhmmlgjgkkoh o 
  1
 liqihknfhmnkiigmgl rmmqgkmlkomooinimlj o 
  1
 liqonhhgkjjjjmlmik rmmqknghhhgllnomgfk o 
  1
 ljqmmifooikgnoingn rmmqlhhffoholhhoojl o 
  1
 lkqnklmkogikiihlm rmmqknnghokliijmmog o 
  1
 lkqomliijiklmjngi rmlqlimfoionmmojnni o 
  1
 lkqjmfjokflfkfmlkn rmlqgjfohjklfmnkhoi o 
  1
 ljqllmhjmjjmknfmlh rmlqfkkffhfnnghjhgg o 
  1
 liqmgfhiogkihinijm rmkqnhhfmiklnminomg o 
  1
 lhqmlhhlhikmgjlgl rmkqlhkflmkmlhmjlnm o 
  1
 lhqfhjfmjhjmmfogoi rmkqhfgojhggokjhioi o 
  1
 lgqkfmgmmiikghlink rmjqlhjinklflkknjlg o 
  1
 lgqihfljfmijmomfnf rmiqmjkhllfofogjokh o 
  1
 lgqjkmgionoilomfgm rmhqmlngglmnlfinfik o 
  1
 lhqghkfjfhgkllkhm rmhqfjlmgjjmlloknhk o 
  1
 lhqnmggginmlhkgnnh rmgqljnliojnhhilghf o 
  1
 liqojjjhngfgffjfik rmgqhohflhikgfhngoh o 
  1
 lkqflkhfhofnjlonjh rmgqjfkhomnjkkkklkf o 
  1
 llqginoloojhfginfg rmgqlffinfhhohnljff o 
  1
 llqmohiikhjokinmkg rmgqohkglfknkkfkfi o 
  1
 lmqhfmkmkjmflnlff rmhqiligilomnhkjffj o 
  1
 lmqknohjimkkjkkgff rmhqnfjojgmfjiigonf o 
  1
 lmqlnkgjghkkngfogn rmiqimhhgmgffliohn o 
  1
 lmqmimonhlklnoljog rmiqklnohijkmmmifng o 
  1
 lmqmliglgljomnglfm rmjqffiifnjgffggll o 
  1
 o 
  1
 1*33@,*-9><: 
  1
 1*33@,*-9><: 
  1
 1*33=, 
  1
 1*33=, 
  1
 " V V |
  1
):-+:' {rn {ni {mj |
  1
61+<*-):r<*-): {rn o $ :'><+<*- 1*=, l 0/:1 mg 
  1
 o l oqlfigjomnhmmhnoggk n oqhmihgjfojjnjijimj n nqongknlhimogofofh n nqmhjijkomimihfkmn n 
  1
 nqjjhhfooifjkllfmm n nqginnnojigjoifhom n mqjkkgnlhjikjngfjl n mqgnmoofmlhlingolh n lqokfffiohonmmmllj n 
  1
 lqlloonlmhgjlffngk n lqjhjiljhgilhmngkg n lqflkijnjffnhfgkfk n kqklfnimomimokiofi n kqihhohhmgmkfjfon n 
  1
 kqfjglhmkoiilonmjg n jqlmoknigoglljkill n jqijoooimimfnhomng n iqnnmooijfhfmfnkjk n iqillkinjnnhkjhlfi n 
  1
 iqfknhinkfmmgkfnmf n hqmokikooliljffifi n hqkfmhhkhgfkhifngl n hqhnffflnfkkoglkjn n gqmmhonmnijoikjmjg n 
  1
 gqhgfgkommjlomnifh n fqnlnohigkhjkjhkmm n fqlggifigilfmffjgm l 
  1
 lgqlmiiklhnhlfohfj rmlqjjingihjmigoohh o 
  1
 lgqlljonfogokgmhfj rmlqmgjhkonfggfoolf o 
  1
 lgqljoljhiomilhokh rmmqhfokkgngkjmflih o 
  1
 lhqffghkfgofjofgol rmmqnggokkkjignhiik o 
  1
 lhqinookmmnnnjjnok rmnqhlkjnokillohijh o 
  1
 lhqoflnfkmgniooklm rmnqjnlifooijggjohm o 
  1
 liqjgikjfgkfloingn rmnqmiikfmoolkkmlg o 
  1
 ljqhkomfmgjihmmhlm rmnqnkghmjmhfhhnmfg o 
  1
 lkqgfhfjnjiigfhhnh rmnqnllookghfjkjmk o 
  1
 lkqnngkfmmhnfhjn rmnqmfgklillfionfmn o 
  1
 llqilinllmnjhjili rmnqjnknfnghfknmfkg o 
  1
 llqmloggjhgfhonhni rmnqgmlhninhiijhjkn o 
  1
 lmqhhhmhlnlomokgin rmmqmnoomjhfmhmlhkn o 
  1
 lmqkjojhkognlgkmki rmmqgfjknnjljifnfm o 
  1
 lmqkogonmmjlmkmmhi rmlqihmjnnimhfmihjm o 
  1
 lmqholjnfinlkjhfgj rmkqmfjjllnjomkifnn o 
  1
 llqohlnfogjfiollmf rmkqhignjilofknhkil o 
  1
 llqihnikhigjohmhh rmjqojkfljnhihmkkmh o 
  1
 lkqlggkfhjllhnhlji rmjqlmjjjfhmoilimhg o 
  1
 ljqmjligkmimlomikm rmjqjollkffnjgkgjln o 
  1
 liqofokikomkljnkoj rmjqimghiijimonjlgi o 
  1
 liqgnoknllkhghnnoj rmjqfnikjmoomflnioh o 
  1
 lhqolgnklkfinmmni rmiqkfjgihjminikfnj o 
  1
 liqgilgfnoojlgnjgf rmhqojglgnkmhnomfnj o 
  1
 liqnffnoinngmlnmkm rmhqllkkjkfjngjmlfl o 
  1
 ljqljihlimlnnfhkom rmhqknkigmlhfgfminn o 
  1
 lkqllkflnofiiojoin rmhqmiihgmhgimkhlnf o 
  1
 llqghfjolfmgigokoh rmiqjikhnflmnhogjof o 
  1
 llqglfmgingggkkkjk rmiqniioigoggjonkhi o 
  1
 llqgmnfgjoinhgkijf rmjqffkjhlhmikomnfk o 
  1
 o 
  1
 1*33@,*-9><: 
  1
 1*33@,*-9><: 
  1
 1*33=, 
  1
 1*33=, 
  1
 " V V |
  1
/061+ {rn llqgmnfgjoinhgkijf rmjqffkjhlhmikomnfk o |
  1
/061+ {rn lmqmliglgljomnglfm rmjqffiifnjgffggll o |
  1
,+->687+r<*-): {rn liqhkjkhfhfhgfnlil rmlqjjkkflklnogjmoi o nqfffffggjlnomnhjn roqoomnkngiioojnojinfi o V V |
  1
/061+ {rn liqhkjkhfhfhgfnlil rmlqjjkkflklnogjmoi o |
  1
/061+ {rn lgqlmiiklhnhlfohfj rmlqjjingihjmigoohh o |
  0
LINE
  5
10B9
330
1F
100
AcDbEntity
  8
SK1
100
AcDbLine
 10
-34.49951697052671
 20
-3.0
 30
0.0
 11
50.00047502947322
 21
-3.000000000000013
 31
0.0
  0
LINE
  5
10BA
330
1F
100
AcDbEntity
  8
3
  6
CONTINUOUS
 62
     7
100
AcDbLine
 10
50.00048702947328
 20
3.0
 30
0.0
 11
50.00047502947322
 21
3.0
 31
0.0
  0
POLYLINE
  5
10BB
330
1F
100
AcDbEntity
  8
1
100
AcDb2dPolyline
 66
     1
 10
0.0
 20
0.0
 30
0.0
 70
     2
  0
VERTEX
  5
10BC
330
10BB
100
AcDbEntity
  8
1
100
AcDbVertex
100
AcDb2dVertex
 10
56.08933402947325
 20
-2.472466999999994
 30
0.0
  0
VERTEX
  5
10BD
330
10BB
100
AcDbEntity
  8
1
100
AcDbVertex
100
AcDb2dVertex
 10
56.05742702947321
 20
-2.463402999999999
 30
0.0
 42
-0.0005569847
 70
     1
  0
VERTEX
  5
10BE
330
10BB
100
AcDbEntity
  8
1
100
AcDbVertex
100
AcDb2dVertex
 10
56.02563702947327
 20
-2.454296999999995
 30
0.0
 42
-0.0005616458
  0
VERTEX
  5
10BF
330
10BB
100
AcDbEntity
  8
1
100
AcDbVertex
100
AcDb2dVertex
 10
55.99396902947328
 20
-2.445145999999994
 30
0.0
 42
-0.0005640463
 70
     1
  0
VERTEX
  5
10C0
330
10BB
100
AcDbEntity
  8
1
100
AcDbVertex
100
AcDb2dVertex
 10
55.9624200294732
 20
-2.435953999999995
 30
0.0
 42
-0.000563623
  0
VERTEX
  5
10C1
330
10BB
100
AcDbEntity
  8
1
100
AcDbVertex
100
AcDb2dVertex
 10
55.93099502947328
 20
-2.426719000000004
 30
0.0
 42
-0.0005644219
 70
     1
  0
VERTEX
  5
10C2
330
10BB
100
AcDbEntity
  8
1
100
AcDbVertex
100
AcDb2dVertex
 10
55.89969002947327
 20
-2.417443000000004
 30
0.0
 42
-0.0005654044
  0
VERTEX
  5
10C3
330
10BB
100
AcDbEntity
  8
1
100
AcDbVertex
100
AcDb2dVertex
 10
55.86851102947328
 20
-2.408125999999938
 30
0.0
 42
-0.0005667354
 70
     1
  0
VERTEX
  5
10C4
330
10BB
100
AcDbEntity
  8
1
100
AcDbVertex
100
AcDb2dVertex
 10
55.83745402947329
 20
-2.398769999999998
 30
0.0
 42
-0.0005674919
  0
VERTEX
  5
10C5
330
10BB
100
AcDbEntity
  8
1
100
AcDbVertex
100
AcDb2dVertex
 10
55.80652402947329
 20
-2.389373999999989
 30
0.0
 42
-0.0005688213
 70
     1
  0
VERTEX
  5
10C6
330
10BB
100
AcDbEntity
  8
1
100
AcDbVertex
100
AcDb2dVertex
 10
55.77571702947327
 20
-2.37993899999995
 30
0.0
 42
-0.0005697671
  0
VERTEX
  5
10C7
330
10BB
100
AcDbEntity
  8
1
100
AcDbVertex
100
AcDb2dVertex
 10
55.74503902947327
 20
-2.370464999999953
 30
0.0
 42
-0.0005712347
 70
     1
  0
VERTEX
  5
10C8
330
10BB
100
AcDbEntity
  8
1
100
AcDbVertex
100
AcDb2dVertex
 10
55.71448602947327
 20
-2.360954000000005
 30
0.0
 42
-0.0005722703
  0
VERTEX
  5
10C9
330
10BB
100
AcDbEntity
  8
1
100
AcDbVertex
100
AcDb2dVertex
 10
55.68406402947328
 20
-2.351405999999954
 30
0.0
 42
-0.0005738447
 70
     1
  0
VERTEX
  5
10CA
330
10BB
100
AcDbEntity
  8
1
100
AcDbVertex
100
AcDb2dVertex
 10
55.65376802947321
 20
-2.341821999999992
 30
0.0
 42
-0.0005749978
  0
VERTEX
  5
10CB
330
10BB
100
AcDbEntity
  8
1
100
AcDbVertex
100
AcDb2dVertex
 10
55.62360402947326
 20
-2.332200999999996
 30
0.0
 42
-0.0005766952
 70
     1
  0
VERTEX
  5
10CC
330
10BB
100
AcDbEntity
  8
1
100
AcDbVertex
100
AcDb2dVertex
 10
55.59356702947326
 20
-2.322545000000004
 30
0.0
 42
-0.0005779733
  0
VERTEX
  5
10CD
330
10BB
100
AcDbEntity
  8
1
100
AcDbVertex
100
AcDb2dVertex
 10
55.56366502947327
 20
-2.312854000000001
 30
0.0
 42
-0.0005797829
 70
     1
  0
VERTEX
  5
10CE
330
10BB
100
AcDbEntity
  8
1
100
AcDbVertex
100
AcDb2dVertex
 10
55.53389202947329
 20
-2.303129999999995
 30
0.0
 42
-0.0005811552
  0
VERTEX
  5
10CF
330
10BB
100
AcDbEntity
  8
1
100
AcDbVertex
100
AcDb2dVertex
 10
55.5042540294732
 20
-2.293371999999989
 30
0.0
 42
-0.000583132
 70
     1
  0
VERTEX
  5
10D0
330
10BB
100
AcDbEntity
  8
1
100
AcDbVertex
100
AcDb2dVertex
 10
55.47474702947329
 20
-2.283580999999955
 30
0.0
 42
-0.0005847361
  0
VERTEX
  5
10D1
330
10BB
100
AcDbEntity
  8
1
100
AcDbVertex
100
AcDb2dVertex
 10
55.44537702947327
 20
-2.273757000000002
 30
0.0
 42
-0.0005867031
 70
     1
  0
VERTEX
  5
10D2
330
10BB
100
AcDbEntity
  8
1
100
AcDbVertex
100
AcDb2dVertex
 10
55.41614002947325
 20
-2.263902999999999
 30
0.0
 42
-0.000588067
  0
VERTEX
  5
10D3
330
10BB
100
AcDbEntity
  8
1
100
AcDbVertex
100
AcDb2dVertex
 10
55.38704202947321
 20
-2.254016999999989
 30
0.0
 42
-0.0005906859
 70
     1
  0
VERTEX
  5
10D4
330
10BB
100
AcDbEntity
  8
1
100
AcDbVertex
100
AcDb2dVertex
 10
55.35807602947329
 20
-2.244099999999988
 30
0.0
 42
-0.0005935042
  0
VERTEX
  5
10D5
330
10BB
100
AcDbEntity
  8
1
100
AcDbVertex
100
AcDb2dVertex
 10
55.32924702947321
 20
-2.234151999999951
 30
0.0
 42
-0.000594441
 70
     1
  0
VERTEX
  5
10D6
330
10BB
100
AcDbEntity
  8
1
100
AcDbVertex
100
AcDb2dVertex
 10
55.3005610294732
 20
-2.224177999999951
 30
0.0
 42
-0.0005928307
  0
VERTEX
  5
10D7
330
10BB
100
AcDbEntity
  8
1
100
AcDbVertex
100
AcDb2dVertex
 10
55.27202702947328
 20
-2.214178999999986
 30
0.0
 42
-0.0006003197
 70
     1
  0
VERTEX
  5
10D8
330
10BB
100
AcDbEntity
  8
1
100
AcDbVertex
100
AcDb2dVertex
 10
55.24360302947325
 20
-2.204142000000004
 30
0.0
 42
-0.0006143653
  0
VERTEX
  5
10D9
330
10BB
100
AcDbEntity
  8
1
100
AcDbVertex
100
AcDb2dVertex
 10
55.21528102947326
 20
-2.194060999999989
 30
0.0
 42
-0.0006000302
 70
     1
  0
VERTEX
  5
10DA
330
10BB
100
AcDbEntity
  8
1
100
AcDbVertex
100
AcDb2dVertex
 10
55.18720702947319
 20
-2.183994999999995
 30
0.0
 42
-0.0005630154
  0
VERTEX
  5
10DB
330
10BB
100
AcDbEntity
  8
1
100
AcDbVertex
100
AcDb2dVertex
 10
55.15943602947328
 20
-2.173963999999998
 30
0.0
 42
-0.0006228523
 70
     1
  0
VERTEX
  5
10DC
330
10BB
100
AcDbEntity
  8
1
100
AcDbVertex
100
AcDb2dVertex
 10
55.13137902947328
 20
-2.163743999999994
 30
0.0
 42
-0.000744163
  0
VERTEX
  5
10DD
330
10BB
100
AcDbEntity
  8
1
100
AcDbVertex
100
AcDb2dVertex
 10
55.10283802947322
 20
-2.153253999999988
 30
0.0
 42
-0.0005704088
 70
     1
  0
VERTEX
  5
10DE
330
10BB
100
AcDbEntity
  8
1
100
AcDbVertex
100
AcDb2dVertex
 10
55.07612602947328
 20
-2.143391999999991
 30
0.0
 42
-0.0002010719
  0
VERTEX
  5
10DF
330
10BB
100
AcDbEntity
  8
1
100
AcDbVertex
100
AcDb2dVertex
 10
55.05204602947322
 20
-2.134462999999995
 30
0.0
 42
-0.0008045501
 70
     1
  0
VERTEX
  5
10E0
330
10BB
100
AcDbEntity
  8
1
100
AcDbVertex
100
AcDb2dVertex
 10
55.02145302947321
 20
-2.122944000000003
 30
0.0
 42
-0.0013976629
  0
VERTEX
  5
10E1
330
10BB
100
AcDbEntity
  8
1
100
AcDbVertex
100
AcDb2dVertex
 10
54.97476302947323
 20
-2.105138999999951
 30
0.0
 42
-0.000693374
 70
     1
  0
VERTEX
  5
10E2
330
10BB
100
AcDbEntity
  8
1
100
AcDbVertex
100
AcDb2dVertex
 10
54.91387702947328
 20
-2.081781999999988
 30
0.0
 42
-0.0003706419
  0
SEQEND
  5
10E3
330
10BB
100
AcDbEntity
  8
1
  0
POLYLINE
  5
10E4
330
1F
100
AcDbEntity
  8
1
100
AcDb2dPolyline
 66
     1
 10
0.0
 20
0.0
 30
0.0
 70
     2
  0
VERTEX
  5
10E5
330
10E4
100
AcDbEntity
  8
1
100
AcDbVertex
100
AcDb2dVertex
 10
54.9832430294732
 20
-3.008522999999995
 30
0.0
  0
VERTEX
  5
10E6
330
10E4
100
AcDbEntity
  8
1
100
AcDbVertex
100
AcDb2dVertex
 10
54.99179502947328
 20
-3.009341999999988
 30
0.0
 42
0.01287958
 70
     1
  0
VERTEX
  5
10E7
330
10E4
100
AcDbEntity
  8
1
100
AcDbVertex
100
AcDb2dVertex
 10
55.00078502947321
 20
-3.009763000000006
 30
0.0
 42
0.011793012
  0
VERTEX
  5
10E8
330
10E4
100
AcDbEntity
  8
1
100
AcDbVertex
100
AcDb2dVertex
 10
55.01023002947328
 20
-3.009770999999986
 30
0.0
 42
0.010660004
 70
     1
  0
VERTEX
  5
10E9
330
10E4
100
AcDbEntity
  8
1
100
AcDbVertex
100
AcDb2dVertex
 10
55.02010702947329
 20
-3.009384999999993
 30
0.0
 42
0.0095981316
  0
VERTEX
  5
10EA
330
10E4
100
AcDbEntity
  8
1
100
AcDbVertex
100
AcDb2dVertex
 10
55.03042502947328
 20
-3.008594999999942
 30
0.0
 42
0.0086660763
 70
     1
  0
VERTEX
  5
10EB
330
10E4
100
AcDbEntity
  8
1
100
AcDbVertex
100
AcDb2dVertex
 10
55.04116002947327
 20
-3.007419999999995
 30
0.0
 42
0.0078822053
  0
VERTEX
  5
10EC
330
10E4
100
AcDbEntity
  8
1
100
AcDbVertex
100
AcDb2dVertex
 10
55.05232602947327
 20
-3.005848999999996
 30
0.0
 42
0.0071683494
 70
     1
  0
VERTEX
  5
10ED
330
10E4
100
AcDbEntity
  8
1
100
AcDbVertex
100
AcDb2dVertex
 10
55.06389902947327
 20
-3.003900000000001
 30
0.0
 42
0.0065498174
  0
VERTEX
  5
10EE
330
10E4
100
AcDbEntity
  8
1
100
AcDbVertex
100
AcDb2dVertex
 10
55.07588902947322
 20
-3.001561999999991
 30
0.0
 42
0.0059910152
 70
     1
  0
VERTEX
  5
10EF
330
10E4
100
AcDbEntity
  8
1
100
AcDbVertex
100
AcDb2dVertex
 10
55.08827502947321
 20
-2.998856000000003
 30
0.0
 42
0.005508042
  0
VERTEX
  5
10F0
330
10E4
100
AcDbEntity
  8
1
100
AcDbVertex
100
AcDb2dVertex
 10
55.1010660294732
 20
-2.995767999999998
 30
0.0
 42
0.0050688836
 70
     1
  0
VERTEX
  5
10F1
330
10E4
100
AcDbEntity
  8
1
100
AcDbVertex
100
AcDb2dVertex
 10
55.11424102947327
 20
-2.992318999999993
 30
0.0
 42
0.0046862943
  0
VERTEX
  5
10F2
330
10E4
100
AcDbEntity
  8
1
100
AcDbVertex
100
AcDb2dVertex
 10
55.12780902947326
 20
-2.988498000000006
 30
0.0
 42
0.0043371164
 70
     1
  0
VERTEX
  5
10F3
330
10E4
100
AcDbEntity
  8
1
100
AcDbVertex
100
AcDb2dVertex
 10
55.14175002947331
 20
-2.984323000000003
 30
0.0
 42
0.0040311341
  0
VERTEX
  5
10F4
330
10E4
100
AcDbEntity
  8
1
100
AcDbVertex
100
AcDb2dVertex
 10
55.15607202947329
 20
-2.979782999999997
 30
0.0
 42
0.0037505506
 70
     1
  0
VERTEX
  5
10F5
330
10E4
100
AcDbEntity
  8
1
100
AcDbVertex
100
AcDb2dVertex
 10
55.17075502947328
 20
-2.974897999999996
 30
0.0
 42
0.0035030822
  0
VERTEX
  5
10F6
330
10E4
100
AcDbEntity
  8
1
100
AcDbVertex
100
AcDb2dVertex
 10
55.18580702947321
 20
-2.969656
 30
0.0
 42
0.0032751677
 70
     1
  0
VERTEX
  5
10F7
330
10E4
100
AcDbEntity
  8
1
100
AcDbVertex
100
AcDb2dVertex
 10
55.20120802947321
 20
-2.964074999999993
 30
0.0
 42
0.0030729363
  0
VERTEX
  5
10F8
330
10E4
100
AcDbEntity
  8
1
100
AcDbVertex
100
AcDb2dVertex
 10
55.21696702947327
 20
-2.958146999999995
 30
0.0
 42
0.0028859098
 70
     1
  0
VERTEX
  5
10F9
330
10E4
100
AcDbEntity
  8
1
100
AcDbVertex
100
AcDb2dVertex
 10
55.23306302947322
 20
-2.951887999999995
 30
0.0
 42
0.0027190073
  0
VERTEX
  5
10FA
330
10E4
100
AcDbEntity
  8
1
100
AcDbVertex
100
AcDb2dVertex
 10
55.24950402947325
 20
-2.94528799999999
 30
0.0
 42
0.002564068
 70
     1
  0
VERTEX
  5
10FB
330
10E4
100
AcDbEntity
  8
1
100
AcDbVertex
100
AcDb2dVertex
 10
55.26627102947327
 20
-2.938365999999986
 30
0.0
 42
0.0024250694
  0
VERTEX
  5
10FC
330
10E4
100
AcDbEntity
  8
1
100
AcDbVertex
100
AcDb2dVertex
 10
55.28337202947327
 20
-2.931111999999998
 30
0.0
 42
0.002295572
 70
     1
  0
VERTEX
  5
10FD
330
10E4
100
AcDbEntity
  8
1
100
AcDbVertex
100
AcDb2dVertex
 10
55.30078702947328
 20
-2.923542999999995
 30
0.0
 42
0.0021788308
  0
VERTEX
  5
10FE
330
10E4
100
AcDbEntity
  8
1
100
AcDbVertex
100
AcDb2dVertex
 10
55.31852302947328
 20
-2.915649999999999
 30
0.0
 42
0.0020697447
 70
     1
  0
VERTEX
  5
10FF
330
10E4
100
AcDbEntity
  8
1
100
AcDbVertex
100
AcDb2dVertex
 10
55.33656102947322
 20
-2.907449999999997
 30
0.0
 42
0.001970959
  0
VERTEX
  5
1100
330
10E4
100
AcDbEntity
  8
1
100
AcDbVertex
100
AcDb2dVertex
 10
55.35490902947322
 20
-2.898932999999956
 30
0.0
 42
0.0018783584
 70
     1
  0
VERTEX
  5
1101
330
10E4
100
AcDbEntity
  8
1
100
AcDbVertex
100
AcDb2dVertex
 10
55.37354802947328
 20
-2.890116999999988
 30
0.0
 42
0.001794259
  0
VERTEX
  5
1102
330
10E4
100
AcDbEntity
  8
1
100
AcDbVertex
100
AcDb2dVertex
 10
55.39248402947329
 20
-2.880994000000001
 30
0.0
 42
0.0017151093
 70
     1
  0
VERTEX
  5
1103
330
10E4
100
AcDbEntity
  8
1
100
AcDbVertex
100
AcDb2dVertex
 10
55.41170002947328
 20
-2.871577999999998
 30
0.0
 42
0.0016424297
  0
VERTEX
  5
1104
330
10E4
100
AcDbEntity
  8
1
100
AcDbVertex
100
AcDb2dVertex
 10
55.43120202947328
 20
-2.861861999999987
 30
0.0
 42
0.0015754329
 70
     1
  0
VERTEX
  5
1105
330
10E4
100
AcDbEntity
  8
1
100
AcDbVertex
100
AcDb2dVertex
 10
55.45096802947327
 20
-2.851864999999988
 30
0.0
 42
0.0015173247
  0
VERTEX
  5
1106
330
10E4
100
AcDbEntity
  8
1
100
AcDbVertex
100
AcDb2dVertex
 10
55.47099402947321
 20
-2.841581000000004
 30
0.0
 42
0.0014600598
 70
     1
  0
VERTEX
  5
1107
330
10E4
100
AcDbEntity
  8
1
100
AcDbVertex
100
AcDb2dVertex
 10
55.49126602947328
 20
-2.831025999999951
 30
0.0
 42
0.001403883
  0
VERTEX
  5
1108
330
10E4
100
AcDbEntity
  8
1
100
AcDbVertex
100
AcDb2dVertex
 10
55.51178602947328
 20
-2.820193999999999
 30
0.0
 42
0.0013509392
 70
     1
  0
VERTEX
  5
1109
330
10E4
100
AcDbEntity
  8
1
100
AcDbVertex
100
AcDb2dVertex
 10
55.53254102947328
 20
-2.809098999999989
 30
0.0
 42
0.001301304
  0
VERTEX
  5
110A
330
10E4
100
AcDbEntity
  8
1
100
AcDbVertex
100
AcDb2dVertex
 10
55.55353402947328
 20
-2.797735000000001
 30
0.0
 42
0.001254533
 70
     1
  0
VERTEX
  5
110B
330
10E4
100
AcDbEntity
  8
1
100
AcDbVertex
100
AcDb2dVertex
 10
55.57475202947327
 20
-2.786116000000006
 30
0.0
 42
0.0012107133
  0
VERTEX
  5
110C
330
10E4
100
AcDbEntity
  8
1
100
AcDbVertex
100
AcDb2dVertex
 10
55.59619902947321
 20
-2.77423499999999
 30
0.0
 42
0.0011694893
 70
     1
  0
VERTEX
  5
110D
330
10E4
100
AcDbEntity
  8
1
100
AcDbVertex
100
AcDb2dVertex
 10
55.6178590294732
 20
-2.762106999999999
 30
0.0
 42
0.0011307957
  0
VERTEX
  5
110E
330
10E4
100
AcDbEntity
  8
1
100
AcDbVertex
100
AcDb2dVertex
 10
55.63973902947328
 20
-2.749724999999997
 30
0.0
 42
0.0010939523
 70
     1
  0
VERTEX
  5
110F
330
10E4
100
AcDbEntity
  8
1
100
AcDbVertex
100
AcDb2dVertex
 10
55.66182202947328
 20
-2.737104000000001
 30
0.0
 42
0.0010589127
  0
VERTEX
  5
1110
330
10E4
100
AcDbEntity
  8
1
100
AcDbVertex
100
AcDb2dVertex
 10
55.68411302947321
 20
-2.724237000000001
 30
0.0
 42
0.0010270254
 70
     1
  0
VERTEX
  5
1111
330
10E4
100
AcDbEntity
  8
1
100
AcDbVertex
100
AcDb2dVertex
 10
55.70660102947329
 20
-2.711136999999993
 30
0.0
 42
0.0009978411
  0
VERTEX
  5
1112
330
10E4
100
AcDbEntity
  8
1
100
AcDbVertex
100
AcDb2dVertex
 10
55.72928802947329
 20
-2.69779799999999
 30
0.0
 42
0.0009664113
 70
     1
  0
VERTEX
  5
1113
330
10E4
100
AcDbEntity
  8
1
100
AcDbVertex
100
AcDb2dVertex
 10
55.75215402947321
 20
-2.684239000000004
 30
0.0
 42
0.0009335048
  0
VERTEX
  5
1114
330
10E4
100
AcDbEntity
  8
1
100
AcDbVertex
100
AcDb2dVertex
 10
55.77519702947322
 20
-2.670455999999986
 30
0.0
 42
0.0009152053
 70
     1
  0
VERTEX
  5
1115
330
10E4
100
AcDbEntity
  8
1
100
AcDbVertex
100
AcDb2dVertex
 10
55.79844102947329
 20
-2.65643899999999
 30
0.0
 42
0.000907457
  0
VERTEX
  5
1116
330
10E4
100
AcDbEntity
  8
1
100
AcDbVertex
100
AcDb2dVertex
 10
55.82190002947328
 20
-2.642175999999991
 30
0.0
 42
0.0008593223
 70
     1
  0
VERTEX
  5
1117
330
10E4
100
AcDbEntity
  8
1
100
AcDbVertex
100
AcDb2dVertex
 10
55.8454230294733
 20
-2.627769999999997
 30
0.0
 42
0.0007844154
  0
VERTEX
  5
1118
330
10E4
100
AcDbEntity
  8
1
100
AcDbVertex
100
AcDb2dVertex
 10
55.86896402947325
 20
-2.613246999999985
 30
0.0
 42
0.0008421218
 70
     1
  0
VERTEX
  5
1119
330
10E4
100
AcDbEntity
  8
1
100
AcDbVertex
100
AcDb2dVertex
 10
55.89305902947327
 20
-2.59826199999999
 30
0.0
 42
0.0009728824
  0
VERTEX
  5
111A
330
10E4
100
AcDbEntity
  8
1
100
AcDbVertex
100
AcDb2dVertex
 10
55.9178970294733
 20
-2.582688000000004
 30
0.0
 42
0.0007241197
 70
     1
  0
VERTEX
  5
111B
330
10E4
100
AcDbEntity
  8
1
100
AcDbVertex
100
AcDb2dVertex
 10
55.94130902947327
 20
-2.567946999999989
 30
0.0
 42
0.0002550618
  0
VERTEX
  5
111C
330
10E4
100
AcDbEntity
  8
1
100
AcDbVertex
100
AcDb2dVertex
 10
55.96255102947321
 20
-2.554518999999999
 30
0.0
 42
0.0009848327
 70
     1
  0
VERTEX
  5
111D
330
10E4
100
AcDbEntity
  8
1
100
AcDbVertex
100
AcDb2dVertex
 10
55.99013102947328
 20
-2.536854999999988
 30
0.0
 42
0.001625256
  0
VERTEX
  5
111E
330
10E4
100
AcDbEntity
  8
1
100
AcDbVertex
100
AcDb2dVertex
 10
56.03298602947322
 20
-2.509114999999994
 30
0.0
 42
0.0007743562
 70
     1
  0
VERTEX
  5
111F
330
10E4
100
AcDbEntity
  8
1
100
AcDbVertex
100
AcDb2dVertex
 10
56.08933402947325
 20
-2.472466999999994
 30
0.0
 42
0.000406856
  0
SEQEND
  5
1120
330
10E4
100
AcDbEntity
  8
1
  0
LINE
  5
1121
330
1F
100
AcDbEntity
  8
1
100
AcDbLine
 10
55.0058730294732
 20
-3.009833999999997
 30
0.0
 11
57.85698202947322
 21
-3.009833999999997
 31
0.0
  0
LINE
  5
1122
330
1F
100
AcDbEntity
  8
1
100
AcDbLine
 10
56.19860502947328
 20
0.4470980000000539
 30
0.0
 11
54.32221502947328
 21
2.937152000000011
 31
0.0
  0
LINE
  5
1123
330
1F
100
AcDbEntity
  8
1
100
AcDbLine
 10
57.3172890294732
 20
3.511373000000006
 30
0.0
 11
55.11000802947329
 21
2.386708000000011
 31
0.0
  0
POLYLINE
  5
1124
330
1F
100
AcDbEntity
  8
1
100
AcDb2dPolyline
 66
     1
 10
0.0
 20
0.0
 30
0.0
 70
     2
  0
VERTEX
  5
1125
330
1124
100
AcDbEntity
  8
1
100
AcDbVertex
100
AcDb2dVertex
 10
54.91387702947328
 20
2.897058000000057
 30
0.0
  0
VERTEX
  5
1126
330
1124
100
AcDbEntity
  8
1
100
AcDbVertex
100
AcDb2dVertex
 10
54.96520002947328
 20
2.903583000000011
 30
0.0
 42
-0.0000047026
 70
     1
  0
VERTEX
  5
1127
330
1124
100
AcDbEntity
  8
1
100
AcDbVertex
100
AcDb2dVertex
 10
55.01664802947328
 20
2.910123000000012
 30
0.0
 42
-0.0000046799
  0
VERTEX
  5
1128
330
1124
100
AcDbEntity
  8
1
100
AcDbVertex
100
AcDb2dVertex
 10
55.06822502947327
 20
2.916678000000004
 30
0.0
 42
-0.0000046564
 70
     1
  0
VERTEX
  5
1129
330
1124
100
AcDbEntity
  8
1
100
AcDbVertex
100
AcDb2dVertex
 10
55.11992602947322
 20
2.923248
 30
0.0
 42
-0.0000046341
  0
VERTEX
  5
112A
330
1124
100
AcDbEntity
  8
1
100
AcDbVertex
100
AcDb2dVertex
 10
55.17175702947326
 20
2.929833000000001
 30
0.0
 42
-0.000004611
 70
     1
  0
VERTEX
  5
112B
330
1124
100
AcDbEntity
  8
1
100
AcDbVertex
100
AcDb2dVertex
 10
55.22371202947328
 20
2.936434000000004
 30
0.0
 42
-0.000004589
  0
VERTEX
  5
112C
330
1124
100
AcDbEntity
  8
1
100
AcDbVertex
100
AcDb2dVertex
 10
55.27579702947321
 20
2.943049000000044
 30
0.0
 42
-0.0000045662
 70
     1
  0
VERTEX
  5
112D
330
1124
100
AcDbEntity
  8
1
100
AcDbVertex
100
AcDb2dVertex
 10
55.32800502947329
 20
2.949679999999999
 30
0.0
 42
-0.0000045443
  0
VERTEX
  5
112E
330
1124
100
AcDbEntity
  8
1
100
AcDbVertex
100
AcDb2dVertex
 10
55.3803430294733
 20
2.956326000000004
 30
0.0
 42
-0.0000045222
 70
     1
  0
VERTEX
  5
112F
330
1124
100
AcDbEntity
  8
1
100
AcDbVertex
100
AcDb2dVertex
 10
55.43280602947328
 20
2.962987000000012
 30
0.0
 42
-0.0000045014
  0
VERTEX
  5
1130
330
1124
100
AcDbEntity
  8
1
100
AcDbVertex
100
AcDb2dVertex
 10
55.48539802947328
 20
2.969663000000011
 30
0.0
 42
-0.0000044784
 70
     1
  0
VERTEX
  5
1131
330
1124
100
AcDbEntity
  8
1
100
AcDbVertex
100
AcDb2dVertex
 10
55.53811402947321
 20
2.976354
 30
0.0
 42
-0.0000044551
  0
VERTEX
  5
1132
330
1124
100
AcDbEntity
  8
1
100
AcDbVertex
100
AcDb2dVertex
 10
55.59095802947325
 20
2.983060000000008
 30
0.0
 42
-0.0000044366
 70
     1
  0
VERTEX
  5
1133
330
1124
100
AcDbEntity
  8
1
100
AcDbVertex
100
AcDb2dVertex
 10
55.64392902947322
 20
2.989782000000004
 30
0.0
 42
-0.0000044236
  0
VERTEX
  5
1134
330
1124
100
AcDbEntity
  8
1
100
AcDbVertex
100
AcDb2dVertex
 10
55.69703502947328
 20
2.996520000000002
 30
0.0
 42
-0.000004391
 70
     1
  0
VERTEX
  5
1135
330
1124
100
AcDbEntity
  8
1
100
AcDbVertex
100
AcDb2dVertex
 10
55.75025202947327
 20
3.00327
 30
0.0
 42
-0.000004344
  0
VERTEX
  5
1136
330
1124
100
AcDbEntity
  8
1
100
AcDbVertex
100
AcDb2dVertex
 10
55.80357602947327
 20
3.010034000000004
 30
0.0
 42
-0.0000043606
 70
     1
  0
VERTEX
  5
1137
330
1124
100
AcDbEntity
  8
1
100
AcDbVertex
100
AcDb2dVertex
 10
55.85708202947327
 20
3.016819000000011
 30
0.0
 42
-0.000004428
  0
VERTEX
  5
1138
330
1124
100
AcDbEntity
  8
1
100
AcDbVertex
100
AcDb2dVertex
 10
55.91080002947329
 20
3.023631000000008
 30
0.0
 42
-0.0000042812
 70
     1
  0
VERTEX
  5
1139
330
1124
100
AcDbEntity
  8
1
100
AcDbVertex
100
AcDb2dVertex
 10
55.96441902947322
 20
3.030429000000011
 30
0.0
 42
-0.0000039799
  0
VERTEX
  5
113A
330
1124
100
AcDbEntity
  8
1
100
AcDbVertex
100
AcDb2dVertex
 10
56.01784002947328
 20
3.037200999999996
 30
0.0
 42
-0.0000043724
 70
     1
  0
VERTEX
  5
113B
330
1124
100
AcDbEntity
  8
1
100
AcDbVertex
100
AcDb2dVertex
 10
56.07226402947327
 20
3.044099000000058
 30
0.0
 42
-0.0000051848
  0
VERTEX
  5
113C
330
1124
100
AcDbEntity
  8
1
100
AcDbVertex
100
AcDb2dVertex
 10
56.12811002947328
 20
3.051176000000011
 30
0.0
 42
-0.0000039144
 70
     1
  0
VERTEX
  5
113D
330
1124
100
AcDbEntity
  8
1
100
AcDbVertex
100
AcDb2dVertex
 10
56.18061602947328
 20
3.057830000000008
 30
0.0
 42
-0.0000013404
  0
VERTEX
  5
113E
330
1124
100
AcDbEntity
  8
1
100
AcDbVertex
100
AcDb2dVertex
 10
56.22814702947328
 20
3.063852000000011
 30
0.0
 42
-0.000005491
 70
     1
  0
VERTEX
  5
113F
330
1124
100
AcDbEntity
  8
1
100
AcDbVertex
100
AcDb2dVertex
 10
56.28947602947328
 20
3.071621000000006
 30
0.0
 42
-0.0000093629
  0
VERTEX
  5
1140
330
1124
100
AcDbEntity
  8
1
100
AcDbVertex
100
AcDb2dVertex
 10
56.38430602947329
 20
3.083631000000011
 30
0.0
 42
-0.0000045418
 70
     1
  0
VERTEX
  5
1141
330
1124
100
AcDbEntity
  8
1
100
AcDbVertex
100
AcDb2dVertex
 10
56.50871702947327
 20
3.099384999999998
 30
0.0
 42
-0.0000023981
  0
SEQEND
  5
1142
330
1124
100
AcDbEntity
  8
1
  0
LINE
  5
1143
330
1F
100
AcDbEntity
  8
1
100
AcDbLine
 10
55.04107902947328
 20
2.088143000000043
 30
0.0
 11
56.53194902947319
 21
0.1096920000000097
 31
0.0
  0
ARC
  5
1144
330
1F
100
AcDbEntity
  8
1
100
AcDbCircle
 10
60.00048702947322
 20
6.0
 30
0.0
 40
8.0
100
AcDbArc
 50
219.9942299999996
 51
258.1562539999981
  0
LINE
  5
1149
330
1F
100
AcDbEntity
  8
1
100
AcDbLine
 10
59.8705610294732
 20
1.130408000000058
 30
0.0
 11
60.00021302947328
 21
3.604302000000004
 31
0.0
  0
CIRCLE
  5
114A
330
1F
100
AcDbEntity
  8
1
100
AcDbCircle
 10
57.90660002947329
 20
1.583825000000004
 30
0.0
 40
1.399999999999999
  0
LINE
  5
114C
330
1F
100
AcDbEntity
  8
1
100
AcDbLine
 10
57.3172890294732
 20
3.511373000000006
 30
0.0
 11
59.77611302947321
 21
3.813279000000008
 31
0.0
  0
ARC
  5
114D
330
1F
100
AcDbEntity
  8
1
100
AcDbCircle
 10
59.80048702947328
 20
3.614770000000006
 30
0.0
 40
0.2
100
AcDbArc
 50
357.0
 51
96.99999999999944
  0
LINE
  5
1150
330
1F
100
AcDbEntity
  8
1
100
AcDbLine
 10
56.53194902947319
 20
0.1096920000000097
 30
0.0
 11
58.6095780294732
 21
-1.239536000000001
 31
0.0
  0
LINE
  5
1151
330
1F
100
AcDbEntity
  8
1
100
AcDbLine
 10
56.89178602947329
 20
-0.1993039999999411
 30
0.0
 11
58.58409902947329
 21
-1.298304999999998
 31
0.0
  0
CIRCLE
  5
1154
330
1F
100
AcDbEntity
  8
1
100
AcDbCircle
 10
57.8725000294732
 20
1.547257
 30
0.0
 40
0.8
  0
CIRCLE
  5
1155
330
1F
100
AcDbEntity
  8
1
100
AcDbCircle
 10
57.8725000294732
 20
1.547257
 30
0.0
 40
0.9799999999999997
  0
ARC
  5
1156
330
1F
100
AcDbEntity
  8
1
100
AcDbCircle
 10
58.71850602947327
 20
-1.071802000000005
 30
0.0
 40
0.2
100
AcDbArc
 50
237.0000000000014
 51
336.9999999999997
  0
LINE
  5
1157
330
1F
100
AcDbEntity
  8
1
100
AcDbLine
 10
58.60916002947329
 20
-1.239263999999947
 30
0.0
 11
58.58409902947329
 21
-1.298304999999998
 31
0.0
  0
LINE
  5
1159
330
1F
100
AcDbEntity
  8
1
100
AcDbLine
 10
58.90260702947327
 20
-1.149947999999952
 30
0.0
 11
59.8705610294732
 21
1.130408000000058
 31
0.0
  0
ARC
  5
115A
330
1F
100
AcDbEntity
  8
1
100
AcDbCircle
 10
57.14574702947328
 20
0.7679100000000007
 30
0.0
 40
1.0
100
AcDbArc
 50
255.2671890000009
 51
264.5847429999985
  0
ARC
  5
115B
330
1F
100
AcDbEntity
  8
1
100
AcDbCircle
 10
57.14574702947328
 20
0.7679100000000007
 30
0.0
 40
1.0
100
AcDbArc
 50
189.4152569000003
 51
198.7240050000003
  0
ARC
  5
115F
330
1F
100
AcDbEntity
  8
1
100
AcDbCircle
 10
57.14574702947328
 20
0.7679100000000007
 30
0.0
 40
1.0
100
AcDbArc
 50
198.7240050000003
 51
255.2671890000009
  0
LINE
  5
1161
330
1F
100
AcDbEntity
  8
1
100
AcDbLine
 10
58.58409902947329
 20
-1.298304999999998
 30
0.0
 11
57.85698202947322
 21
-3.009831999999946
 31
0.0
  0
POLYLINE
  5
1162
330
1F
100
AcDbEntity
  8
1
100
AcDb2dPolyline
 66
     1
 10
0.0
 20
0.0
 30
0.0
 70
     2
  0
VERTEX
  5
1163
330
1162
100
AcDbEntity
  8
1
100
AcDbVertex
100
AcDb2dVertex
 10
56.08933402947325
 20
-2.472466999999994
 30
0.0
  0
VERTEX
  5
1164
330
1162
100
AcDbEntity
  8
1
100
AcDbVertex
100
AcDb2dVertex
 10
56.13518102947328
 20
-2.480136
 30
0.0
 42
0.0006862363
 70
     1
  0
VERTEX
  5
1165
330
1162
100
AcDbEntity
  8
1
100
AcDbVertex
100
AcDb2dVertex
 10
56.18112002947327
 20
-2.487691999999995
 30
0.0
 42
0.0006854977
  0
VERTEX
  5
1166
330
1162
100
AcDbEntity
  8
1
100
AcDbVertex
100
AcDb2dVertex
 10
56.22715502947329
 20
-2.495131
 30
0.0
 42
0.0006818911
 70
     1
  0
VERTEX
  5
1167
330
1162
100
AcDbEntity
  8
1
100
AcDbVertex
100
AcDb2dVertex
 10
56.27328202947328
 20
-2.502459
 30
0.0
 42
0.0006752948
  0
VERTEX
  5
1168
330
1162
100
AcDbEntity
  8
1
100
AcDbVertex
100
AcDb2dVertex
 10
56.31950402947328
 20
-2.509670999999996
 30
0.0
 42
0.0006698203
 70
     1
  0
VERTEX
  5
1169
330
1162
100
AcDbEntity
  8
1
100
AcDbVertex
100
AcDb2dVertex
 10
56.36581602947329
 20
-2.516772999999985
 30
0.0
 42
0.0006647884
  0
VERTEX
  5
116A
330
1162
100
AcDbEntity
  8
1
100
AcDbVertex
100
AcDb2dVertex
 10
56.41222202947328
 20
-2.523759999999995
 30
0.0
 42
0.0006598738
 70
     1
  0
VERTEX
  5
116B
330
1162
100
AcDbEntity
  8
1
100
AcDbVertex
100
AcDb2dVertex
 10
56.45871802947329
 20
-2.530637999999996
 30
0.0
 42
0.0006545392
  0
VERTEX
  5
116C
330
1162
100
AcDbEntity
  8
1
100
AcDbVertex
100
AcDb2dVertex
 10
56.50530702947321
 20
-2.537402
 30
0.0
 42
0.0006495729
 70
     1
  0
VERTEX
  5
116D
330
1162
100
AcDbEntity
  8
1
100
AcDbVertex
100
AcDb2dVertex
 10
56.5519840294732
 20
-2.544056999999995
 30
0.0
 42
0.0006444041
  0
VERTEX
  5
116E
330
1162
100
AcDbEntity
  8
1
100
AcDbVertex
100
AcDb2dVertex
 10
56.59875202947327
 20
-2.550599999999988
 30
0.0
 42
0.0006395393
 70
     1
  0
VERTEX
  5
116F
330
1162
100
AcDbEntity
  8
1
100
AcDbVertex
100
AcDb2dVertex
 10
56.64560702947325
 20
-2.557034999999999
 30
0.0
 42
0.0006344183
  0
VERTEX
  5
1170
330
1162
100
AcDbEntity
  8
1
100
AcDbVertex
100
AcDb2dVertex
 10
56.69255302947329
 20
-2.563357999999993
 30
0.0
 42
0.0006296146
 70
     1
  0
VERTEX
  5
1171
330
1162
100
AcDbEntity
  8
1
100
AcDbVertex
100
AcDb2dVertex
 10
56.73958502947328
 20
-2.569574999999999
 30
0.0
 42
0.0006245673
  0
VERTEX
  5
1172
330
1162
100
AcDbEntity
  8
1
100
AcDbVertex
100
AcDb2dVertex
 10
56.78670602947328
 20
-2.575681999999985
 30
0.0
 42
0.0006198376
 70
     1
  0
VERTEX
  5
1173
330
1162
100
AcDbEntity
  8
1
100
AcDbVertex
100
AcDb2dVertex
 10
56.83391202947319
 20
-2.581681999999985
 30
0.0
 42
0.0006148664
  0
VERTEX
  5
1174
330
1162
100
AcDbEntity
  8
1
100
AcDbVertex
100
AcDb2dVertex
 10
56.88120602947329
 20
-2.587574000000003
 30
0.0
 42
0.0006101929
 70
     1
  0
VERTEX
  5
1175
330
1162
100
AcDbEntity
  8
1
100
AcDbVertex
100
AcDb2dVertex
 10
56.92858402947326
 20
-2.593360000000003
 30
0.0
 42
0.0006052608
  0
VERTEX
  5
1176
330
1162
100
AcDbEntity
  8
1
100
AcDbVertex
100
AcDb2dVertex
 10
56.97604802947328
 20
-2.599037999999993
 30
0.0
 42
0.0006006956
 70
     1
  0
VERTEX
  5
1177
330
1162
100
AcDbEntity
  8
1
100
AcDbVertex
100
AcDb2dVertex
 10
57.02359602947325
 20
-2.604611999999988
 30
0.0
 42
0.0005959363
  0
VERTEX
  5
1178
330
1162
100
AcDbEntity
  8
1
100
AcDbVertex
100
AcDb2dVertex
 10
57.07122902947328
 20
-2.610078999999998
 30
0.0
 42
0.0005912916
 70
     1
  0
VERTEX
  5
1179
330
1162
100
AcDbEntity
  8
1
100
AcDbVertex
100
AcDb2dVertex
 10
57.1189430294732
 20
-2.615441999999986
 30
0.0
 42
0.0005862302
  0
VERTEX
  5
117A
330
1162
100
AcDbEntity
  8
1
100
AcDbVertex
100
AcDb2dVertex
 10
57.16674002947326
 20
-2.620699999999998
 30
0.0
 42
0.0005821647
 70
     1
  0
VERTEX
  5
117B
330
1162
100
AcDbEntity
  8
1
100
AcDbVertex
100
AcDb2dVertex
 10
57.21462102947327
 20
-2.625854999999986
 30
0.0
 42
0.0005784424
  0
VERTEX
  5
117C
330
1162
100
AcDbEntity
  8
1
100
AcDbVertex
100
AcDb2dVertex
 10
57.26259002947327
 20
-2.630905999999995
 30
0.0
 42
0.0005726553
 70
     1
  0
VERTEX
  5
117D
330
1162
100
AcDbEntity
  8
1
100
AcDbVertex
100
AcDb2dVertex
 10
57.31062602947328
 20
-2.635855000000006
 30
0.0
 42
0.0005646769
  0
VERTEX
  5
117E
330
1162
100
AcDbEntity
  8
1
100
AcDbVertex
100
AcDb2dVertex
 10
57.35872502947327
 20
-2.640697999999999
 30
0.0
 42
0.0005650739
 70
     1
  0
VERTEX
  5
117F
330
1162
100
AcDbEntity
  8
1
100
AcDbVertex
100
AcDb2dVertex
 10
57.40695202947327
 20
-2.645444999999995
 30
0.0
 42
0.0005714736
  0
VERTEX
  5
1180
330
1162
100
AcDbEntity
  8
1
100
AcDbVertex
100
AcDb2dVertex
 10
57.45533402947327
 20
-2.650092999999997
 30
0.0
 42
0.000551407
 70
     1
  0
VERTEX
  5
1181
330
1162
100
AcDbEntity
  8
1
100
AcDbVertex
100
AcDb2dVertex
 10
57.50359502947322
 20
-2.654628999999999
 30
0.0
 42
0.0005116873
  0
VERTEX
  5
1182
330
1162
100
AcDbEntity
  8
1
100
AcDbVertex
100
AcDb2dVertex
 10
57.55164302947332
 20
-2.65903999999999
 30
0.0
 42
0.0005591959
 70
     1
  0
VERTEX
  5
1183
330
1162
100
AcDbEntity
  8
1
100
AcDbVertex
100
AcDb2dVertex
 10
57.60055102947329
 20
-2.663410999999995
 30
0.0
 42
0.00065866
  0
VERTEX
  5
1184
330
1162
100
AcDbEntity
  8
1
100
AcDbVertex
100
AcDb2dVertex
 10
57.65069302947328
 20
-2.667765999999999
 30
0.0
 42
0.0004982239
 70
     1
  0
VERTEX
  5
1185
330
1162
100
AcDbEntity
  8
1
100
AcDbVertex
100
AcDb2dVertex
 10
57.69781502947328
 20
-2.671795999999956
 30
0.0
 42
0.0001754639
  0
VERTEX
  5
1186
330
1162
100
AcDbEntity
  8
1
100
AcDbVertex
100
AcDb2dVertex
 10
57.74045302947325
 20
-2.675391000000003
 30
0.0
 42
0.0006914671
 70
     1
  0
VERTEX
  5
1187
330
1162
100
AcDbEntity
  8
1
100
AcDbVertex
100
AcDb2dVertex
 10
57.79538202947327
 20
-2.67978699999999
 30
0.0
 42
0.0011715312
  0
VERTEX
  5
1188
330
1162
100
AcDbEntity
  8
1
100
AcDbVertex
100
AcDb2dVertex
 10
57.8802000294732
 20
-2.686275999999949
 30
0.0
 42
0.000569445
 70
     1
  0
VERTEX
  5
1189
330
1162
100
AcDbEntity
  8
1
100
AcDbVertex
100
AcDb2dVertex
 10
57.9914070294733
 20
-2.694603999999998
 30
0.0
 42
0.0003017662
  0
SEQEND
  5
118A
330
1162
100
AcDbEntity
  8
1
  0
ARC
  5
118B
330
1F
100
AcDbEntity
  8
1
100
AcDbCircle
 10
60.00048702947322
 20
6.0
 30
0.0
 40
8.0
100
AcDbArc
 50
202.5104669999997
 51
213.0331529999994
  0
LINE
  5
118C
330
1F
100
AcDbEntity
  8
1
100
AcDbLine
 10
50.00048702947328
 20
3.0
 30
0.0
 11
50.00048702947328
 21
-3.000003999999946
 31
0.0
  0
LINE
  5
118D
330
1F
100
AcDbEntity
  8
1
100
AcDbLine
 10
54.43308502947331
 20
2.956185000000047
 30
0.0
 11
55.00089102947328
 21
2.202682000000051
 31
0.0
  0
LINE
  5
118E
330
1F
100
AcDbEntity
  8
1
100
AcDbLine
 10
55.0242030294732
 20
2.302376000000051
 30
0.0
 11
54.50254102947321
 21
2.994646000000058
 31
0.0
  0
POLYLINE
  5
118F
330
1F
100
AcDbEntity
  8
1
100
AcDb2dPolyline
 66
     1
 10
0.0
 20
0.0
 30
0.0
 70
     2
  0
VERTEX
  5
1190
330
118F
100
AcDbEntity
  8
1
100
AcDbVertex
100
AcDb2dVertex
 10
54.91387702947328
 20
-2.081781999999988
 30
0.0
  0
VERTEX
  5
1191
330
118F
100
AcDbEntity
  8
1
100
AcDbVertex
100
AcDb2dVertex
 10
54.80210902947328
 20
-2.048236999999999
 30
0.0
 42
-0.0026699871
 70
     1
  0
VERTEX
  5
1192
330
118F
100
AcDbEntity
  8
1
100
AcDbVertex
100
AcDb2dVertex
 10
54.6913040294732
 20
-2.0137
 30
0.0
 42
-0.002691634
  0
VERTEX
  5
1193
330
118F
100
AcDbEntity
  8
1
100
AcDbVertex
100
AcDb2dVertex
 10
54.58149702947321
 20
-1.978132000000002
 30
0.0
 42
-0.0027292277
 70
     1
  0
VERTEX
  5
1194
330
118F
100
AcDbEntity
  8
1
100
AcDbVertex
100
AcDb2dVertex
 10
54.47268102947322
 20
-1.941573999999988
 30
0.0
 42
-0.002785481
  0
VERTEX
  5
1195
330
118F
100
AcDbEntity
  8
1
100
AcDbVertex
100
AcDb2dVertex
 10
54.3649370294732
 20
-1.903987999999998
 30
0.0
 42
-0.0028390297
 70
     1
  0
VERTEX
  5
1196
330
118F
100
AcDbEntity
  8
1
100
AcDbVertex
100
AcDb2dVertex
 10
54.25825102947328
 20
-1.865414
 30
0.0
 42
-0.002891587
  0
VERTEX
  5
1197
330
118F
100
AcDbEntity
  8
1
100
AcDbVertex
100
AcDb2dVertex
 10
54.15269602947327
 20
-1.82581399999995
 30
0.0
 42
-0.0029467218
 70
     1
  0
VERTEX
  5
1198
330
118F
100
AcDbEntity
  8
1
100
AcDbVertex
100
AcDb2dVertex
 10
54.04825802947328
 20
-1.785229999999997
 30
0.0
 42
-0.0030065849
  0
VERTEX
  5
1199
330
118F
100
AcDbEntity
  8
1
100
AcDbVertex
100
AcDb2dVertex
 10
53.94501302947327
 20
-1.743622000000002
 30
0.0
 42
-0.0030676454
 70
     1
  0
VERTEX
  5
119A
330
118F
100
AcDbEntity
  8
1
100
AcDbVertex
100
AcDb2dVertex
 10
53.84294402947327
 20
-1.701030999999985
 30
0.0
 42
-0.003132151
  0
VERTEX
  5
119B
330
118F
100
AcDbEntity
  8
1
100
AcDbVertex
100
AcDb2dVertex
 10
53.74213002947328
 20
-1.657419999999986
 30
0.0
 42
-0.0031983208
 70
     1
  0
VERTEX
  5
119C
330
118F
100
AcDbEntity
  8
1
100
AcDbVertex
100
AcDb2dVertex
 10
53.64255202947329
 20
-1.612827999999993
 30
0.0
 42
-0.0032685923
  0
VERTEX
  5
119D
330
118F
100
AcDbEntity
  8
1
100
AcDbVertex
100
AcDb2dVertex
 10
53.54429202947327
 20
-1.567217999999954
 30
0.0
 42
-0.0033404773
 70
     1
  0
VERTEX
  5
119E
330
118F
100
AcDbEntity
  8
1
100
AcDbVertex
100
AcDb2dVertex
 10
53.44732602947328
 20
-1.520629999999939
 30
0.0
 42
-0.003416593
  0
VERTEX
  5
119F
330
118F
100
AcDbEntity
  8
1
100
AcDbVertex
100
AcDb2dVertex
 10
53.3517400294732
 20
-1.473025999999989
 30
0.0
 42
-0.0034943964
 70
     1
  0
VERTEX
  5
11A0
330
118F
100
AcDbEntity
  8
1
100
AcDbVertex
100
AcDb2dVertex
 10
53.25750802947329
 20
-1.424447999999997
 30
0.0
 42
-0.0035767019
  0
VERTEX
  5
11A1
330
118F
100
AcDbEntity
  8
1
100
AcDbVertex
100
AcDb2dVertex
 10
53.16471802947329
 20
-1.374854999999995
 30
0.0
 42
-0.0036607179
 70
     1
  0
VERTEX
  5
11A2
330
118F
100
AcDbEntity
  8
1
100
AcDbVertex
100
AcDb2dVertex
 10
53.07334202947322
 20
-1.324290000000004
 30
0.0
 42
-0.0037494696
  0
VERTEX
  5
11A3
330
118F
100
AcDbEntity
  8
1
100
AcDbVertex
100
AcDb2dVertex
 10
52.98346902947333
 20
-1.272713999999949
 30
0.0
 42
-0.003839895
 70
     1
  0
VERTEX
  5
11A4
330
118F
100
AcDbEntity
  8
1
100
AcDbVertex
100
AcDb2dVertex
 10
52.89507002947329
 20
-1.220166999999988
 30
0.0
 42
-0.0039352558
  0
VERTEX
  5
11A5
330
118F
100
AcDbEntity
  8
1
100
AcDbVertex
100
AcDb2dVertex
 10
52.80823602947329
 20
-1.166611999999999
 30
0.0
 42
-0.0040323254
 70
     1
  0
VERTEX
  5
11A6
330
118F
100
AcDbEntity
  8
1
100
AcDbVertex
100
AcDb2dVertex
 10
52.7229350294732
 20
-1.112088999999996
 30
0.0
 42
-0.0041346
  0
VERTEX
  5
11A7
330
118F
100
AcDbEntity
  8
1
100
AcDbVertex
100
AcDb2dVertex
 10
52.63926202947328
 20
-1.056560000000003
 30
0.0
 42
-0.004238134
 70
     1
  0
VERTEX
  5
11A8
330
118F
100
AcDbEntity
  8
1
100
AcDbVertex
100
AcDb2dVertex
 10
52.5571810294732
 20
-1.000065999999989
 30
0.0
 42
-0.0043468266
  0
VERTEX
  5
11A9
330
118F
100
AcDbEntity
  8
1
100
AcDbVertex
100
AcDb2dVertex
 10
52.47679102947327
 20
-0.9425679999999941
 30
0.0
 42
-0.0044575538
 70
     1
  0
VERTEX
  5
11AA
330
118F
100
AcDbEntity
  8
1
100
AcDbVertex
100
AcDb2dVertex
 10
52.39805102947321
 20
-0.884107
 30
0.0
 42
-0.0045740016
  0
VERTEX
  5
11AB
330
118F
100
AcDbEntity
  8
1
100
AcDbVertex
100
AcDb2dVertex
 10
52.32105902947328
 20
-0.8246409999999427
 30
0.0
 42
-0.004689351
 70
     1
  0
VERTEX
  5
11AC
330
118F
100
AcDbEntity
  8
1
100
AcDbVertex
100
AcDb2dVertex
 10
52.2457870294732
 20
-0.7642220000000039
 30
0.0
 42
-0.0048102362
  0
VERTEX
  5
11AD
330
118F
100
AcDbEntity
  8
1
100
AcDbVertex
100
AcDb2dVertex
 10
52.17233902947322
 20
-0.7028140000000036
 30
0.0
 42
-0.0049356009
 70
     1
  0
VERTEX
  5
11AE
330
118F
100
AcDbEntity
  8
1
100
AcDbVertex
100
AcDb2dVertex
 10
52.10063202947329
 20
-0.6404209999999893
 30
0.0
 42
-0.0050606564
  0
VERTEX
  5
11AF
330
118F
100
AcDbEntity
  8
1
100
AcDbVertex
100
AcDb2dVertex
 10
52.03076402947329
 20
-0.5769999999999982
 30
0.0
 42
-0.0051906734
 70
     1
  0
VERTEX
  5
11B0
330
118F
100
AcDbEntity
  8
1
100
AcDbVertex
100
AcDb2dVertex
 10
51.96289302947326
 20
-0.5127659999999992
 30
0.0
 42
-0.0053845096
  0
VERTEX
  5
11B1
330
118F
100
AcDbEntity
  8
1
100
AcDbVertex
100
AcDb2dVertex
 10
51.8973560294732
 20
-0.447887999999992
 30
0.0
 42
-0.0055594334
 70
     1
  0
VERTEX
  5
11B2
330
118F
100
AcDbEntity
  8
1
100
AcDbVertex
100
AcDb2dVertex
 10
51.83415102947328
 20
-0.3824849999999884
 30
0.0
 42
-0.0056763569
  0
VERTEX
  5
11B3
330
118F
100
AcDbEntity
  8
1
100
AcDbVertex
100
AcDb2dVertex
 10
51.77342102947328
 20
-0.3166059999999931
 30
0.0
 42
-0.0058116737
 70
     1
  0
VERTEX
  5
11B4
330
118F
100
AcDbEntity
  8
1
100
AcDbVertex
100
AcDb2dVertex
 10
51.71507602947321
 20
-0.2503009999999506
 30
0.0
 42
-0.0059315443
  0
VERTEX
  5
11B5
330
118F
100
AcDbEntity
  8
1
100
AcDbVertex
100
AcDb2dVertex
 10
51.65921702947326
 20
-0.1835779999999971
 30
0.0
 42
-0.0060701351
 70
     1
  0
VERTEX
  5
11B6
330
118F
100
AcDbEntity
  8
1
100
AcDbVertex
100
AcDb2dVertex
 10
51.60575602947328
 20
-0.1164899999999562
 30
0.0
 42
-0.0062062624
  0
VERTEX
  5
11B7
330
118F
100
AcDbEntity
  8
1
100
AcDbVertex
100
AcDb2dVertex
 10
51.55480602947328
 20
-0.0490569999999906
 30
0.0
 42
-0.006359563
 70
     1
  0
VERTEX
  5
11B8
330
118F
100
AcDbEntity
  8
1
100
AcDbVertex
100
AcDb2dVertex
 10
51.50627802947326
 20
0.0186709999999977
 30
0.0
 42
-0.006505707
  0
VERTEX
  5
11B9
330
118F
100
AcDbEntity
  8
1
100
AcDbVertex
100
AcDb2dVertex
 10
51.46028302947326
 20
0.086674000000059
 30
0.0
 42
-0.0066697567
 70
     1
  0
VERTEX
  5
11BA
330
118F
100
AcDbEntity
  8
1
100
AcDbVertex
100
AcDb2dVertex
 10
51.41673002947328
 20
0.1549049999999994
 30
0.0
 42
-0.006828555
  0
VERTEX
  5
11BB
330
118F
100
AcDbEntity
  8
1
100
AcDbVertex
100
AcDb2dVertex
 10
51.37573302947322
 20
0.2233389999999957
 30
0.0
 42
-0.0070044458
 70
     1
  0
VERTEX
  5
11BC
330
118F
100
AcDbEntity
  8
1
100
AcDbVertex
100
AcDb2dVertex
 10
51.33720002947321
 20
0.2919350000000094
 30
0.0
 42
-0.007174545
  0
VERTEX
  5
11BD
330
118F
100
AcDbEntity
  8
1
100
AcDbVertex
100
AcDb2dVertex
 10
51.30124402947329
 20
0.3606620000000049
 30
0.0
 42
-0.0073609551
 70
     1
  0
VERTEX
  5
11BE
330
118F
100
AcDbEntity
  8
1
100
AcDbVertex
100
AcDb2dVertex
 10
51.26777502947328
 20
0.4294830000000048
 30
0.0
 42
-0.0075416022
  0
VERTEX
  5
11BF
330
118F
100
AcDbEntity
  8
1
100
AcDbVertex
100
AcDb2dVertex
 10
51.23690502947328
 20
0.4983660000000043
 30
0.0
 42
-0.007737035
 70
     1
  0
VERTEX
  5
11C0
330
118F
100
AcDbEntity
  8
1
100
AcDbVertex
100
AcDb2dVertex
 10
51.20854202947322
 20
0.567274000000012
 30
0.0
 42
-0.007926241
  0
VERTEX
  5
11C1
330
118F
100
AcDbEntity
  8
1
100
AcDbVertex
100
AcDb2dVertex
 10
51.18280202947328
 20
0.6361739999999969
 30
0.0
 42
-0.0081280767
 70
     1
  0
VERTEX
  5
11C2
330
118F
100
AcDbEntity
  8
1
100
AcDbVertex
100
AcDb2dVertex
 10
51.15959102947329
 20
0.7050310000000053
 30
0.0
 42
-0.0083230267
  0
VERTEX
  5
11C3
330
118F
100
AcDbEntity
  8
1
100
AcDbVertex
100
AcDb2dVertex
 10
51.13902402947321
 20
0.7738080000000453
 30
0.0
 42
-0.0085274849
 70
     1
  0
VERTEX
  5
11C4
330
118F
100
AcDbEntity
  8
1
100
AcDbVertex
100
AcDb2dVertex
 10
51.12100702947322
 20
0.8424760000000047
 30
0.0
 42
-0.0087239601
  0
VERTEX
  5
11C5
330
118F
100
AcDbEntity
  8
1
100
AcDbVertex
100
AcDb2dVertex
 10
51.10565702947321
 20
0.9109930000000048
 30
0.0
 42
-0.0089262428
 70
     1
  0
VERTEX
  5
11C6
330
118F
100
AcDbEntity
  8
1
100
AcDbVertex
100
AcDb2dVertex
 10
51.09287902947329
 20
0.9793330000000112
 30
0.0
 42
-0.009119463
  0
VERTEX
  5
11C7
330
118F
100
AcDbEntity
  8
1
100
AcDbVertex
100
AcDb2dVertex
 10
51.08279102947328
 20
1.047452000000006
 30
0.0
 42
-0.009312538
 70
     1
  0
VERTEX
  5
11C8
330
118F
100
AcDbEntity
  8
1
100
AcDbVertex
100
AcDb2dVertex
 10
51.07529502947329
 20
1.115324000000001
 30
0.0
 42
-0.0094942612
  0
VERTEX
  5
11C9
330
118F
100
AcDbEntity
  8
1
100
AcDbVertex
100
AcDb2dVertex
 10
51.07051102947321
 20
1.182905000000004
 30
0.0
 42
-0.0096732238
 70
     1
  0
VERTEX
  5
11CA
330
118F
100
AcDbEntity
  8
1
100
AcDbVertex
100
AcDb2dVertex
 10
51.06834202947329
 20
1.250174000000001
 30
0.0
 42
-0.009841321
  0
VERTEX
  5
11CB
330
118F
100
AcDbEntity
  8
1
100
AcDbVertex
100
AcDb2dVertex
 10
51.06890802947329
 20
1.317084000000008
 30
0.0
 42
-0.0099899969
 70
     1
  0
VERTEX
  5
11CC
330
118F
100
AcDbEntity
  8
1
100
AcDbVertex
100
AcDb2dVertex
 10
51.07210802947321
 20
1.383605000000002
 30
0.0
 42
-0.010122144
  0
VERTEX
  5
11CD
330
118F
100
AcDbEntity
  8
1
100
AcDbVertex
100
AcDb2dVertex
 10
51.07806202947327
 20
1.449681000000011
 30
0.0
 42
-0.010255743
 70
     1
  0
VERTEX
  5
11CE
330
118F
100
AcDbEntity
  8
1
100
AcDbVertex
100
AcDb2dVertex
 10
51.08668102947325
 20
1.515339999999994
 30
0.0
 42
-0.010373334
  0
VERTEX
  5
11CF
330
118F
100
AcDbEntity
  8
1
100
AcDbVertex
100
AcDb2dVertex
 10
51.09808802947322
 20
1.580541999999994
 30
0.0
 42
-0.01042725
 70
     1
  0
VERTEX
  5
11D0
330
118F
100
AcDbEntity
  8
1
100
AcDbVertex
100
AcDb2dVertex
 10
51.11214702947322
 20
1.645103000000004
 30
0.0
 42
-0.010523344
  0
VERTEX
  5
11D1
330
118F
100
AcDbEntity
  8
1
100
AcDbVertex
100
AcDb2dVertex
 10
51.12890802947329
 20
1.708702000000002
 30
0.0
 42
-0.010517451
 70
     1
  0
VERTEX
  5
11D2
330
118F
100
AcDbEntity
  8
1
100
AcDbVertex
100
AcDb2dVertex
 10
51.14808402947328
 20
1.77092000000006
 30
0.0
 42
-0.010478363
  0
VERTEX
  5
11D3
330
118F
100
AcDbEntity
  8
1
100
AcDbVertex
100
AcDb2dVertex
 10
51.16958102947329
 20
1.831282999999999
 30
0.0
 42
-0.010533119
 70
     1
  0
VERTEX
  5
11D4
330
118F
100
AcDbEntity
  8
1
100
AcDbVertex
100
AcDb2dVertex
 10
51.19321402947328
 20
1.889894000000012
 30
0.0
 42
-0.010348183
  0
VERTEX
  5
11D5
330
118F
100
AcDbEntity
  8
1
100
AcDbVertex
100
AcDb2dVertex
 10
51.2189910294732
 20
1.946783999999993
 30
0.0
 42
-0.010208303
 70
     1
  0
VERTEX
  5
11D6
330
118F
100
AcDbEntity
  8
1
100
AcDbVertex
100
AcDb2dVertex
 10
51.24672502947323
 20
2.002019000000004
 30
0.0
 42
-0.010058411
  0
VERTEX
  5
11D7
330
118F
100
AcDbEntity
  8
1
100
AcDbVertex
100
AcDb2dVertex
 10
51.27639102947327
 20
2.055510000000011
 30
0.0
 42
-0.0099324152
 70
     1
  0
VERTEX
  5
11D8
330
118F
100
AcDbEntity
  8
1
100
AcDbVertex
100
AcDb2dVertex
 10
51.30781302947321
 20
2.107331999999999
 30
0.0
 42
-0.0097167433
  0
VERTEX
  5
11D9
330
118F
100
AcDbEntity
  8
1
100
AcDbVertex
100
AcDb2dVertex
 10
51.34096302947328
 20
2.157427999999995
 30
0.0
 42
-0.009544966
 70
     1
  0
VERTEX
  5
11DA
330
118F
100
AcDbEntity
  8
1
100
AcDbVertex
100
AcDb2dVertex
 10
51.37567402947325
 20
2.205870000000003
 30
0.0
 42
-0.0093229492
  0
VERTEX
  5
11DB
330
118F
100
AcDbEntity
  8
1
100
AcDbVertex
100
AcDb2dVertex
 10
51.41190802947328
 20
2.252593000000004
 30
0.0
 42
-0.0091413843
 70
     1
  0
VERTEX
  5
11DC
330
118F
100
AcDbEntity
  8
1
100
AcDbVertex
100
AcDb2dVertex
 10
51.44950402947327
 20
2.297669999999996
 30
0.0
 42
-0.0089073368
  0
VERTEX
  5
11DD
330
118F
100
AcDbEntity
  8
1
100
AcDbVertex
100
AcDb2dVertex
 10
51.48841902947328
 20
2.341037
 30
0.0
 42
-0.0087224233
 70
     1
  0
VERTEX
  5
11DE
330
118F
100
AcDbEntity
  8
1
100
AcDbVertex
100
AcDb2dVertex
 10
51.52850102947333
 20
2.382769000000009
 30
0.0
 42
-0.0084978176
  0
VERTEX
  5
11DF
330
118F
100
AcDbEntity
  8
1
100
AcDbVertex
100
AcDb2dVertex
 10
51.56969702947321
 20
2.422801000000005
 30
0.0
 42
-0.0083139408
 70
     1
  0
VERTEX
  5
11E0
330
118F
100
AcDbEntity
  8
1
100
AcDbVertex
100
AcDb2dVertex
 10
51.61185902947329
 20
2.461202
 30
0.0
 42
-0.0080880377
  0
VERTEX
  5
11E1
330
118F
100
AcDbEntity
  8
1
100
AcDbVertex
100
AcDb2dVertex
 10
51.65493902947321
 20
2.497925999999991
 30
0.0
 42
-0.0079275566
 70
     1
  0
VERTEX
  5
11E2
330
118F
100
AcDbEntity
  8
1
100
AcDbVertex
100
AcDb2dVertex
 10
51.69892102947327
 20
2.533139000000004
 30
0.0
 42
-0.0076941717
  0
VERTEX
  5
11E3
330
118F
100
AcDbEntity
  8
1
100
AcDbVertex
100
AcDb2dVertex
 10
51.74387002947332
 20
2.566884
 30
0.0
 42
-0.0075172582
 70
     1
  0
VERTEX
  5
11E4
330
118F
100
AcDbEntity
  8
1
100
AcDbVertex
100
AcDb2dVertex
 10
51.78971702947329
 20
2.599243
 30
0.0
 42
-0.0073862649
  0
VERTEX
  5
11E5
330
118F
100
AcDbEntity
  8
1
100
AcDbVertex
100
AcDb2dVertex
 10
51.83644402947328
 20
2.630165000000004
 30
0.0
 42
-0.0072374353
 70
     1
  0
VERTEX
  5
11E6
330
118F
100
AcDbEntity
  8
1
100
AcDbVertex
100
AcDb2dVertex
 10
51.88395402947327
 20
2.659720000000006
 30
0.0
 42
-0.0070289768
  0
VERTEX
  5
11E7
330
118F
100
AcDbEntity
  8
1
100
AcDbVertex
100
AcDb2dVertex
 10
51.93223202947326
 20
2.687871000000042
 30
0.0
 42
-0.0069310543
 70
     1
  0
VERTEX
  5
11E8
330
118F
100
AcDbEntity
  8
1
100
AcDbVertex
100
AcDb2dVertex
 10
51.98127602947328
 20
2.714709000000012
 30
0.0
 42
-0.0068832939
  0
VERTEX
  5
11E9
330
118F
100
AcDbEntity
  8
1
100
AcDbVertex
100
AcDb2dVertex
 10
52.03109802947327
 20
2.740200000000001
 30
0.0
 42
-0.0065689652
 70
     1
  0
VERTEX
  5
11EA
330
118F
100
AcDbEntity
  8
1
100
AcDbVertex
100
AcDb2dVertex
 10
52.08132402947327
 20
2.764347999999998
 30
0.0
 42
-0.0060331159
  0
VERTEX
  5
11EB
330
118F
100
AcDbEntity
  8
1
100
AcDbVertex
100
AcDb2dVertex
 10
52.13183202947329
 20
2.787092000000001
 30
0.0
 42
-0.0064399477
 70
     1
  0
VERTEX
  5
11EC
330
118F
100
AcDbEntity
  8
1
100
AcDbVertex
100
AcDb2dVertex
 10
52.18374102947318
 20
2.808776000000008
 30
0.0
 42
-0.007370079
  0
VERTEX
  5
11ED
330
118F
100
AcDbEntity
  8
1
100
AcDbVertex
100
AcDb2dVertex
 10
52.23743702947325
 20
2.829460999999993
 30
0.0
 42
-0.0055909364
 70
     1
  0
VERTEX
  5
11EE
330
118F
100
AcDbEntity
  8
1
100
AcDbVertex
100
AcDb2dVertex
 10
52.28816802947328
 20
2.84813300000006
 30
0.0
 42
-0.0021558809
  0
VERTEX
  5
11EF
330
118F
100
AcDbEntity
  8
1
100
AcDbVertex
100
AcDb2dVertex
 10
52.33429202947325
 20
2.864384000000042
 30
0.0
 42
-0.0074223344
 70
     1
  0
VERTEX
  5
11F0
330
118F
100
AcDbEntity
  8
1
100
AcDbVertex
100
AcDb2dVertex
 10
52.39424802947319
 20
2.882555000000009
 30
0.0
 42
-0.012235663
  0
VERTEX
  5
11F1
330
118F
100
AcDbEntity
  8
1
100
AcDbVertex
100
AcDb2dVertex
 10
52.48741802947328
 20
2.907093999999999
 30
0.0
 42
-0.0059664103
 70
     1
  0
VERTEX
  5
11F2
330
118F
100
AcDbEntity
  8
1
100
AcDbVertex
100
AcDb2dVertex
 10
52.60993502947321
 20
2.937155000000004
 30
0.0
 42
-0.0031920194
  0
SEQEND
  5
11F3
330
118F
100
AcDbEntity
  8
1
  0
LINE
  5
11F4
330
1F
100
AcDbEntity
  8
1
100
AcDbLine
 10
50.00047502947322
 20
3.0
 30
0.0
 11
54.47295802947319
 21
3.0
 31
0.0
  0
LINE
  5
11F5
330
1F
100
AcDbEntity
  8
1
100
AcDbLine
 10
54.57608102947328
 20
2.897054000000011
 30
0.0
 11
54.9138790294732
 21
2.897054000000011
 31
0.0
  0
POLYLINE
  5
11F6
330
1F
100
AcDbEntity
  8
1
100
AcDb2dPolyline
 66
     1
 10
0.0
 20
0.0
 30
0.0
 70
     2
  0
VERTEX
  5
11F7
330
11F6
100
AcDbEntity
  8
1
100
AcDbVertex
100
AcDb2dVertex
 10
54.43307602947328
 20
2.956192000000001
 30
0.0
  0
VERTEX
  5
11F8
330
11F6
100
AcDbEntity
  8
1
100
AcDbVertex
100
AcDb2dVertex
 10
54.43333902947327
 20
2.959197000000003
 30
0.0
 42
-0.0075464873
 70
     1
  0
VERTEX
  5
11F9
330
11F6
100
AcDbEntity
  8
1
100
AcDbVertex
100
AcDb2dVertex
 10
54.43368302947328
 20
2.962099000000009
 30
0.0
 42
-0.0080414922
  0
VERTEX
  5
11FA
330
11F6
100
AcDbEntity
  8
1
100
AcDbVertex
100
AcDb2dVertex
 10
54.43411102947329
 20
2.964893000000003
 30
0.0
 42
-0.0085961113
 70
     1
  0
VERTEX
  5
11FB
330
11F6
100
AcDbEntity
  8
1
100
AcDbVertex
100
AcDb2dVertex
 10
54.43462102947329
 20
2.967583000000004
 30
0.0
 42
-0.0091698367
  0
VERTEX
  5
11FC
330
11F6
100
AcDbEntity
  8
1
100
AcDbVertex
100
AcDb2dVertex
 10
54.43521402947329
 20
2.970164999999993
 30
0.0
 42
-0.0098002918
 70
     1
  0
VERTEX
  5
11FD
330
11F6
100
AcDbEntity
  8
1
100
AcDbVertex
100
AcDb2dVertex
 10
54.43588902947329
 20
2.972643000000004
 30
0.0
 42
-0.010435479
  0
VERTEX
  5
11FE
330
11F6
100
AcDbEntity
  8
1
100
AcDbVertex
100
AcDb2dVertex
 10
54.43664802947328
 20
2.975012000000006
 30
0.0
 42
-0.011123833
 70
     1
  0
VERTEX
  5
11FF
330
11F6
100
AcDbEntity
  8
1
100
AcDbVertex
100
AcDb2dVertex
 10
54.43748802947329
 20
2.977276999999999
 30
0.0
 42
-0.011805196
  0
VERTEX
  5
1200
330
11F6
100
AcDbEntity
  8
1
100
AcDbVertex
100
AcDb2dVertex
 10
54.43841202947329
 20
2.979433
 30
0.0
 42
-0.012523884
 70
     1
  0
VERTEX
  5
1201
330
11F6
100
AcDbEntity
  8
1
100
AcDbVertex
100
AcDb2dVertex
 10
54.43941802947327
 20
2.981483000000011
 30
0.0
 42
-0.013211228
  0
VERTEX
  5
1202
330
11F6
100
AcDbEntity
  8
1
100
AcDbVertex
100
AcDb2dVertex
 10
54.44050702947322
 20
2.983424999999995
 30
0.0
 42
-0.01390614
 70
     1
  0
VERTEX
  5
1203
330
11F6
100
AcDbEntity
  8
1
100
AcDbVertex
100
AcDb2dVertex
 10
54.44167802947329
 20
2.985262000000004
 30
0.0
 42
-0.014535718
  0
VERTEX
  5
1204
330
11F6
100
AcDbEntity
  8
1
100
AcDbVertex
100
AcDb2dVertex
 10
54.44293302947329
 20
2.986988000000009
 30
0.0
 42
-0.015132326
 70
     1
  0
VERTEX
  5
1205
330
11F6
100
AcDbEntity
  8
1
100
AcDbVertex
100
AcDb2dVertex
 10
54.44426802947329
 20
2.988610000000008
 30
0.0
 42
-0.015627754
  0
VERTEX
  5
1206
330
11F6
100
AcDbEntity
  8
1
100
AcDbVertex
100
AcDb2dVertex
 10
54.44568802947322
 20
2.990121999999998
 30
0.0
 42
-0.016031484
 70
     1
  0
VERTEX
  5
1207
330
11F6
100
AcDbEntity
  8
1
100
AcDbVertex
100
AcDb2dVertex
 10
54.44718802947329
 20
2.991528999999998
 30
0.0
 42
-0.016293776
  0
VERTEX
  5
1208
330
11F6
100
AcDbEntity
  8
1
100
AcDbVertex
100
AcDb2dVertex
 10
54.44877202947322
 20
2.992824999999995
 30
0.0
 42
-0.016456597
 70
     1
  0
VERTEX
  5
1209
330
11F6
100
AcDbEntity
  8
1
100
AcDbVertex
100
AcDb2dVertex
 10
54.45043702947327
 20
2.994016000000002
 30
0.0
 42
-0.016495317
  0
VERTEX
  5
120A
330
11F6
100
AcDbEntity
  8
1
100
AcDbVertex
100
AcDb2dVertex
 10
54.45218602947329
 20
2.995097000000001
 30
0.0
 42
-0.016300487
 70
     1
  0
VERTEX
  5
120B
330
11F6
100
AcDbEntity
  8
1
100
AcDbVertex
100
AcDb2dVertex
 10
54.45401402947329
 20
2.996073000000008
 30
0.0
 42
-0.015917998
  0
VERTEX
  5
120C
330
11F6
100
AcDbEntity
  8
1
100
AcDbVertex
100
AcDb2dVertex
 10
54.45592302947328
 20
2.996938
 30
0.0
 42
-0.015683293
 70
     1
  0
VERTEX
  5
120D
330
11F6
100
AcDbEntity
  8
1
100
AcDbVertex
100
AcDb2dVertex
 10
54.4579180294732
 20
2.997697000000058
 30
0.0
 42
-0.015514229
  0
VERTEX
  5
120E
330
11F6
100
AcDbEntity
  8
1
100
AcDbVertex
100
AcDb2dVertex
 10
54.46000202947328
 20
2.998347000000008
 30
0.0
 42
-0.014421595
 70
     1
  0
VERTEX
  5
120F
330
11F6
100
AcDbEntity
  8
1
100
AcDbVertex
100
AcDb2dVertex
 10
54.46214802947321
 20
2.998891
 30
0.0
 42
-0.012972972
  0
VERTEX
  5
1210
330
11F6
100
AcDbEntity
  8
1
100
AcDbVertex
100
AcDb2dVertex
 10
54.46435002947328
 20
2.999325000000013
 30
0.0
 42
-0.013646854
 70
     1
  0
VERTEX
  5
1211
330
11F6
100
AcDbEntity
  8
1
100
AcDbVertex
100
AcDb2dVertex
 10
54.46670302947328
 20
2.999653000000008
 30
0.0
 42
-0.014537858
  0
VERTEX
  5
1212
330
11F6
100
AcDbEntity
  8
1
100
AcDbVertex
100
AcDb2dVertex
 10
54.46924402947326
 20
2.999869000000003
 30
0.0
 42
-0.01083334
 70
     1
  0
VERTEX
  5
1213
330
11F6
100
AcDbEntity
  8
1
100
AcDbVertex
100
AcDb2dVertex
 10
54.4715810294732
 20
2.999983999999996
 30
0.0
 42
-0.0082443718
  0
VERTEX
  5
1214
330
11F6
100
AcDbEntity
  8
1
100
AcDbVertex
100
AcDb2dVertex
 10
54.4733360294732
 20
3.000005000000001
 30
0.0
 42
-0.0099471431
 70
     1
  0
VERTEX
  5
1215
330
11F6
100
AcDbEntity
  8
1
100
AcDbVertex
100
AcDb2dVertex
 10
54.47470902947322
 20
2.999975000000006
 30
0.0
 42
-0.0063689404
  0
VERTEX
  5
1216
330
11F6
100
AcDbEntity
  8
1
100
AcDbVertex
100
AcDb2dVertex
 10
54.47595402947325
 20
2.999926000000001
 30
0.0
 42
-0.0031240227
 70
     1
  0
VERTEX
  5
1217
330
11F6
100
AcDbEntity
  8
1
100
AcDbVertex
100
AcDb2dVertex
 10
54.47717802947328
 20
2.999859999999998
 30
0.0
 42
-0.0044496814
  0
VERTEX
  5
1218
330
11F6
100
AcDbEntity
  8
1
100
AcDbVertex
100
AcDb2dVertex
 10
54.47843402947327
 20
2.999769000000056
 30
0.0
 42
-0.004544979
 70
     1
  0
VERTEX
  5
1219
330
11F6
100
AcDbEntity
  8
1
100
AcDbVertex
100
AcDb2dVertex
 10
54.47971702947327
 20
2.999653000000008
 30
0.0
 42
-0.0041839067
  0
VERTEX
  5
121A
330
11F6
100
AcDbEntity
  8
1
100
AcDbVertex
100
AcDb2dVertex
 10
54.48101502947321
 20
2.999514000000004
 30
0.0
 42
-0.0040284312
 70
     1
  0
VERTEX
  5
121B
330
11F6
100
AcDbEntity
  8
1
100
AcDbVertex
100
AcDb2dVertex
 10
54.4823260294732
 20
2.999352000000001
 30
0.0
 42
-0.0039146189
  0
VERTEX
  5
121C
330
11F6
100
AcDbEntity
  8
1
100
AcDbVertex
100
AcDb2dVertex
 10
54.48365602947329
 20
2.999166999999999
 30
0.0
 42
-0.0038239387
 70
     1
  0
VERTEX
  5
121D
330
11F6
100
AcDbEntity
  8
1
100
AcDbVertex
100
AcDb2dVertex
 10
54.48500502947325
 20
2.998958999999998
 30
0.0
 42
-0.0037851541
  0
VERTEX
  5
121E
330
11F6
100
AcDbEntity
  8
1
100
AcDbVertex
100
AcDb2dVertex
 10
54.48637402947321
 20
2.998726000000003
 30
0.0
 42
-0.0035666701
 70
     1
  0
VERTEX
  5
121F
330
11F6
100
AcDbEntity
  8
1
100
AcDbVertex
100
AcDb2dVertex
 10
54.48775402947329
 20
2.998472000000006
 30
0.0
 42
-0.003235367
  0
VERTEX
  5
1220
330
11F6
100
AcDbEntity
  8
1
100
AcDbVertex
100
AcDb2dVertex
 10
54.48914202947328
 20
2.998198000000044
 30
0.0
 42
-0.0034659711
 70
     1
  0
VERTEX
  5
1221
330
11F6
100
AcDbEntity
  8
1
100
AcDbVertex
100
AcDb2dVertex
 10
54.49057202947328
 20
2.997893000000004
 30
0.0
 42
-0.00399643
  0
VERTEX
  5
1222
330
11F6
100
AcDbEntity
  8
1
100
AcDbVertex
100
AcDb2dVertex
 10
54.49205602947327
 20
2.997552999999996
 30
0.0
 42
-0.0029302326
 70
     1
  0
VERTEX
  5
1223
330
11F6
100
AcDbEntity
  8
1
100
AcDbVertex
100
AcDb2dVertex
 10
54.49345902947328
 20
2.997221000000009
 30
0.0
 42
-0.0009887637
  0
VERTEX
  5
1224
330
11F6
100
AcDbEntity
  8
1
100
AcDbVertex
100
AcDb2dVertex
 10
54.49473702947328
 20
2.996908000000004
 30
0.0
 42
-0.00399089
 70
     1
  0
VERTEX
  5
1225
330
11F6
100
AcDbEntity
  8
1
100
AcDbVertex
100
AcDb2dVertex
 10
54.49641602947321
 20
2.996455000000011
 30
0.0
 42
-0.0064818891
  0
VERTEX
  5
1226
330
11F6
100
AcDbEntity
  8
1
100
AcDbVertex
100
AcDb2dVertex
 10
54.49905302947326
 20
2.995690000000009
 30
0.0
 42
-0.0030138856
 70
     1
  0
VERTEX
  5
1227
330
11F6
100
AcDbEntity
  8
1
100
AcDbVertex
100
AcDb2dVertex
 10
54.50253702947327
 20
2.994646000000003
 30
0.0
 42
-0.0015610867
  0
SEQEND
  5
1228
330
11F6
100
AcDbEntity
  8
1
  0
POLYLINE
  5
1229
330
1F
100
AcDbEntity
  8
1
100
AcDb2dPolyline
 66
     1
 10
0.0
 20
0.0
 30
0.0
 70
     2
  0
VERTEX
  5
122A
330
1229
100
AcDbEntity
  8
1
100
AcDbVertex
100
AcDb2dVertex
 10
54.32221002947327
 20
2.937155000000004
 30
0.0
  0
VERTEX
  5
122B
330
1229
100
AcDbEntity
  8
1
100
AcDbVertex
100
AcDb2dVertex
 10
54.32582802947326
 20
2.937839000000009
 30
0.0
 42
-0.0002922481
 70
     1
  0
VERTEX
  5
122C
330
1229
100
AcDbEntity
  8
1
100
AcDbVertex
100
AcDb2dVertex
 10
54.3294520294732
 20
2.938519999999996
 30
0.0
 42
-0.000291362
  0
VERTEX
  5
122D
330
1229
100
AcDbEntity
  8
1
100
AcDbVertex
100
AcDb2dVertex
 10
54.33308102947329
 20
2.939198000000047
 30
0.0
 42
-0.0002907891
 70
     1
  0
VERTEX
  5
122E
330
1229
100
AcDbEntity
  8
1
100
AcDbVertex
100
AcDb2dVertex
 10
54.33671602947327
 20
2.939873000000004
 30
0.0
 42
-0.0002906304
  0
VERTEX
  5
122F
330
1229
100
AcDbEntity
  8
1
100
AcDbVertex
100
AcDb2dVertex
 10
54.34035602947328
 20
2.940544000000001
 30
0.0
 42
-0.0002903004
 70
     1
  0
VERTEX
  5
1230
330
1229
100
AcDbEntity
  8
1
100
AcDbVertex
100
AcDb2dVertex
 10
54.34400102947329
 20
2.941210999999995
 30
0.0
 42
-0.0002899623
  0
VERTEX
  5
1231
330
1229
100
AcDbEntity
  8
1
100
AcDbVertex
100
AcDb2dVertex
 10
54.34765102947327
 20
2.941874999999996
 30
0.0
 42
-0.0002895668
 70
     1
  0
VERTEX
  5
1232
330
1229
100
AcDbEntity
  8
1
100
AcDbVertex
100
AcDb2dVertex
 10
54.35130702947327
 20
2.942536000000004
 30
0.0
 42
-0.0002892606
  0
VERTEX
  5
1233
330
1229
100
AcDbEntity
  8
1
100
AcDbVertex
100
AcDb2dVertex
 10
54.35496802947326
 20
2.943192999999993
 30
0.0
 42
-0.000288902
 70
     1
  0
VERTEX
  5
1234
330
1229
100
AcDbEntity
  8
1
100
AcDbVertex
100
AcDb2dVertex
 10
54.35863402947329
 20
2.943847000000046
 30
0.0
 42
-0.000288639
  0
VERTEX
  5
1235
330
1229
100
AcDbEntity
  8
1
100
AcDbVertex
100
AcDb2dVertex
 10
54.36230602947327
 20
2.944496999999998
 30
0.0
 42
-0.0002882027
 70
     1
  0
VERTEX
  5
1236
330
1229
100
AcDbEntity
  8
1
100
AcDbVertex
100
AcDb2dVertex
 10
54.36598302947328
 20
2.945144000000013
 30
0.0
 42
-0.0002877517
  0
VERTEX
  5
1237
330
1229
100
AcDbEntity
  8
1
100
AcDbVertex
100
AcDb2dVertex
 10
54.3696650294732
 20
2.945788000000006
 30
0.0
 42
-0.000287583
 70
     1
  0
VERTEX
  5
1238
330
1229
100
AcDbEntity
  8
1
100
AcDbVertex
100
AcDb2dVertex
 10
54.37335302947321
 20
2.946428000000011
 30
0.0
 42
-0.0002877978
  0
VERTEX
  5
1239
330
1229
100
AcDbEntity
  8
1
100
AcDbVertex
100
AcDb2dVertex
 10
54.3770470294732
 20
2.947063999999997
 30
0.0
 42
-0.0002866989
 70
     1
  0
VERTEX
  5
123A
330
1229
100
AcDbEntity
  8
1
100
AcDbVertex
100
AcDb2dVertex
 10
54.38074402947329
 20
2.947697000000004
 30
0.0
 42
-0.0002846373
  0
VERTEX
  5
123B
330
1229
100
AcDbEntity
  8
1
100
AcDbVertex
100
AcDb2dVertex
 10
54.38444602947329
 20
2.948325999999993
 30
0.0
 42
-0.0002867529
 70
     1
  0
VERTEX
  5
123C
330
1229
100
AcDbEntity
  8
1
100
AcDbVertex
100
AcDb2dVertex
 10
54.38815702947328
 20
2.948953000000003
 30
0.0
 42
-0.0002922909
  0
VERTEX
  5
123D
330
1229
100
AcDbEntity
  8
1
100
AcDbVertex
100
AcDb2dVertex
 10
54.3918790294732
 20
2.949577000000004
 30
0.0
 42
-0.00028355
 70
     1
  0
VERTEX
  5
123E
330
1229
100
AcDbEntity
  8
1
100
AcDbVertex
100
AcDb2dVertex
 10
54.39559002947323
 20
2.950194999999993
 30
0.0
 42
-0.0002643912
  0
VERTEX
  5
123F
330
1229
100
AcDbEntity
  8
1
100
AcDbVertex
100
AcDb2dVertex
 10
54.39928502947322
 20
2.950805000000001
 30
0.0
 42
-0.0002916264
 70
     1
  0
VERTEX
  5
1240
330
1229
100
AcDbEntity
  8
1
100
AcDbVertex
100
AcDb2dVertex
 10
54.40304502947327
 20
2.951421999999993
 30
0.0
 42
-0.0003474222
  0
VERTEX
  5
1241
330
1229
100
AcDbEntity
  8
1
100
AcDbVertex
100
AcDb2dVertex
 10
54.40689902947321
 20
2.952049000000002
 30
0.0
 42
-0.0002629984
 70
     1
  0
VERTEX
  5
1242
330
1229
100
AcDbEntity
  8
1
100
AcDbVertex
100
AcDb2dVertex
 10
54.41052102947327
 20
2.952635999999998
 30
0.0
 42
-0.0000895756
  0
VERTEX
  5
1243
330
1229
100
AcDbEntity
  8
1
100
AcDbVertex
100
AcDb2dVertex
 10
54.41379802947327
 20
2.953164000000001
 30
0.0
 42
-0.0003710473
 70
     1
  0
VERTEX
  5
1244
330
1229
100
AcDbEntity
  8
1
100
AcDbVertex
100
AcDb2dVertex
 10
54.41801802947328
 20
2.953835000000011
 30
0.0
 42
-0.0006369764
  0
VERTEX
  5
1245
330
1229
100
AcDbEntity
  8
1
100
AcDbVertex
100
AcDb2dVertex
 10
54.42453402947329
 20
2.954858000000001
 30
0.0
 42
-0.0003102449
 70
     1
  0
VERTEX
  5
1246
330
1229
100
AcDbEntity
  8
1
100
AcDbVertex
100
AcDb2dVertex
 10
54.43307602947328
 20
2.956192000000001
 30
0.0
 42
-0.0001640123
  0
SEQEND
  5
1247
330
1229
100
AcDbEntity
  8
1
  0
LINE
  5
1248
330
1F
100
AcDbEntity
  8
1
100
AcDbLine
 10
52.6099370294732
 20
2.937152000000011
 30
0.0
 11
54.32226102947328
 21
2.937152000000011
 31
0.0
  0
ARC
  5
124A
330
1F
100
AcDbEntity
  8
1
100
AcDbCircle
 10
55.2008060294732
 20
2.208505999999998
 30
0.0
 40
0.2
100
AcDbArc
 50
116.9999999999981
 51
216.9999999999998
  0
POLYLINE
  5
124B
330
1F
100
AcDbEntity
  8
1
100
AcDb2dPolyline
 66
     1
 10
0.0
 20
0.0
 30
0.0
 70
     2
  0
VERTEX
  5
124C
330
124B
100
AcDbEntity
  8
1
100
AcDbVertex
100
AcDb2dVertex
 10
53.87160602947328
 20
0.8583249999999933
 30
0.0
  0
VERTEX
  5
124D
330
124B
100
AcDbEntity
  8
1
100
AcDbVertex
100
AcDb2dVertex
 10
53.93110002947327
 20
0.8869140000000044
 30
0.0
 42
0.0017949191
 70
     1
  0
VERTEX
  5
124E
330
124B
100
AcDbEntity
  8
1
100
AcDbVertex
100
AcDb2dVertex
 10
53.98868702947329
 20
0.9151030000000019
 30
0.0
 42
0.0018946903
  0
VERTEX
  5
124F
330
124B
100
AcDbEntity
  8
1
100
AcDbVertex
100
AcDb2dVertex
 10
54.04416702947328
 20
0.9428150000000099
 30
0.0
 42
0.0020170709
 70
     1
  0
VERTEX
  5
1250
330
124B
100
AcDbEntity
  8
1
100
AcDbVertex
100
AcDb2dVertex
 10
54.09844602947321
 20
0.9704740000000098
 30
0.0
 42
0.0020361258
  0
VERTEX
  5
1251
330
124B
100
AcDbEntity
  8
1
100
AcDbVertex
100
AcDb2dVertex
 10
54.1523550294732
 20
0.9985139999999999
 30
0.0
 42
0.0020692581
 70
     1
  0
VERTEX
  5
1252
330
124B
100
AcDbEntity
  8
1
100
AcDbVertex
100
AcDb2dVertex
 10
54.20593702947321
 20
1.026962000000011
 30
0.0
 42
0.0022207328
  0
VERTEX
  5
1253
330
124B
100
AcDbEntity
  8
1
100
AcDbVertex
100
AcDb2dVertex
 10
54.2590270294732
 20
1.055791000000013
 30
0.0
 42
0.0023531036
 70
     1
  0
VERTEX
  5
1254
330
124B
100
AcDbEntity
  8
1
100
AcDbVertex
100
AcDb2dVertex
 10
54.31153002947319
 20
1.084952999999997
 30
0.0
 42
0.0024916108
  0
VERTEX
  5
1255
330
124B
100
AcDbEntity
  8
1
100
AcDbVertex
100
AcDb2dVertex
 10
54.36330502947329
 20
1.114428000000003
 30
0.0
 42
0.0026390863
 70
     1
  0
VERTEX
  5
1256
330
124B
100
AcDbEntity
  8
1
100
AcDbVertex
100
AcDb2dVertex
 10
54.41425202947328
 20
1.144160000000012
 30
0.0
 42
0.002824428
  0
VERTEX
  5
1257
330
124B
100
AcDbEntity
  8
1
100
AcDbVertex
100
AcDb2dVertex
 10
54.46419802947321
 20
1.174117000000009
 30
0.0
 42
0.0030178098
 70
     1
  0
VERTEX
  5
1258
330
124B
100
AcDbEntity
  8
1
100
AcDbVertex
100
AcDb2dVertex
 10
54.51304702947329
 20
1.204240000000011
 30
0.0
 42
0.0032481343
  0
VERTEX
  5
1259
330
124B
100
AcDbEntity
  8
1
100
AcDbVertex
100
AcDb2dVertex
 10
54.56061002947329
 20
1.234485000000005
 30
0.0
 42
0.0034973064
 70
     1
  0
VERTEX
  5
125A
330
124B
100
AcDbEntity
  8
1
100
AcDbVertex
100
AcDb2dVertex
 10
54.60679402947328
 20
1.264794000000009
 30
0.0
 42
0.0037953364
  0
VERTEX
  5
125B
330
124B
100
AcDbEntity
  8
1
100
AcDbVertex
100
AcDb2dVertex
 10
54.65139402947329
 20
1.295110000000007
 30
0.0
 42
0.0041254302
 70
     1
  0
VERTEX
  5
125C
330
124B
100
AcDbEntity
  8
1
100
AcDbVertex
100
AcDb2dVertex
 10
54.69432602947327
 20
1.325372000000001
 30
0.0
 42
0.0045181191
  0
VERTEX
  5
125D
330
124B
100
AcDbEntity
  8
1
100
AcDbVertex
100
AcDb2dVertex
 10
54.73537002947328
 20
1.355513
 30
0.0
 42
0.0049647766
 70
     1
  0
VERTEX
  5
125E
330
124B
100
AcDbEntity
  8
1
100
AcDbVertex
100
AcDb2dVertex
 10
54.77445702947328
 20
1.385474000000057
 30
0.0
 42
0.0054963781
  0
VERTEX
  5
125F
330
124B
100
AcDbEntity
  8
1
100
AcDbVertex
100
AcDb2dVertex
 10
54.81135502947328
 20
1.415176000000001
 30
0.0
 42
0.0061171141
 70
     1
  0
VERTEX
  5
1260
330
124B
100
AcDbEntity
  8
1
100
AcDbVertex
100
AcDb2dVertex
 10
54.84601102947329
 20
1.444562000000004
 30
0.0
 42
0.0068580952
  0
VERTEX
  5
1261
330
124B
100
AcDbEntity
  8
1
100
AcDbVertex
100
AcDb2dVertex
 10
54.87819002947322
 20
1.473545000000043
 30
0.0
 42
0.0077466197
 70
     1
  0
VERTEX
  5
1262
330
124B
100
AcDbEntity
  8
1
100
AcDbVertex
100
AcDb2dVertex
 10
54.90785902947329
 20
1.502069000000004
 30
0.0
 42
0.0088135606
  0
VERTEX
  5
1263
330
124B
100
AcDbEntity
  8
1
100
AcDbVertex
100
AcDb2dVertex
 10
54.93478302947329
 20
1.530041999999994
 30
0.0
 42
0.010126555
 70
     1
  0
VERTEX
  5
1264
330
124B
100
AcDbEntity
  8
1
100
AcDbVertex
100
AcDb2dVertex
 10
54.9589560294732
 20
1.557413000000011
 30
0.0
 42
0.011714584
  0
VERTEX
  5
1265
330
124B
100
AcDbEntity
  8
1
100
AcDbVertex
100
AcDb2dVertex
 10
54.98014602947328
 20
1.584083000000005
 30
0.0
 42
0.013713309
 70
     1
  0
VERTEX
  5
1266
330
124B
100
AcDbEntity
  8
1
100
AcDbVertex
100
AcDb2dVertex
 10
54.99837602947333
 20
1.610010000000002
 30
0.0
 42
0.016139532
  0
VERTEX
  5
1267
330
124B
100
AcDbEntity
  8
1
100
AcDbVertex
100
AcDb2dVertex
 10
55.01342802947329
 20
1.635091000000002
 30
0.0
 42
0.019225616
 70
     1
  0
VERTEX
  5
1268
330
124B
100
AcDbEntity
  8
1
100
AcDbVertex
100
AcDb2dVertex
 10
55.02535402947327
 20
1.659295
 30
0.0
 42
0.022918433
  0
VERTEX
  5
1269
330
124B
100
AcDbEntity
  8
1
100
AcDbVertex
100
AcDb2dVertex
 10
55.03395402947329
 20
1.682518
 30
0.0
 42
0.027494229
 70
     1
  0
VERTEX
  5
126A
330
124B
100
AcDbEntity
  8
1
100
AcDbVertex
100
AcDb2dVertex
 10
55.03931302947329
 20
1.70474
 30
0.0
 42
0.03257853
  0
VERTEX
  5
126B
330
124B
100
AcDbEntity
  8
1
100
AcDbVertex
100
AcDb2dVertex
 10
55.04125302947329
 20
1.725859000000055
 30
0.0
 42
0.038084411
 70
     1
  0
VERTEX
  5
126C
330
124B
100
AcDbEntity
  8
1
100
AcDbVertex
100
AcDb2dVertex
 10
55.03989102947333
 20
1.745868
 30
0.0
 42
0.042790529
  0
VERTEX
  5
126D
330
124B
100
AcDbEntity
  8
1
100
AcDbVertex
100
AcDb2dVertex
 10
55.03507902947329
 20
1.764670000000008
 30
0.0
 42
0.045786813
 70
     1
  0
VERTEX
  5
126E
330
124B
100
AcDbEntity
  8
1
100
AcDbVertex
100
AcDb2dVertex
 10
55.02696302947327
 20
1.782270999999993
 30
0.0
 42
0.045911937
  0
VERTEX
  5
126F
330
124B
100
AcDbEntity
  8
1
100
AcDbVertex
100
AcDb2dVertex
 10
55.01542402947322
 20
1.798580999999997
 30
0.0
 42
0.043127559
 70
     1
  0
VERTEX
  5
1270
330
124B
100
AcDbEntity
  8
1
100
AcDbVertex
100
AcDb2dVertex
 10
55.00063902947328
 20
1.813621999999995
 30
0.0
 42
0.038525908
  0
VERTEX
  5
1271
330
124B
100
AcDbEntity
  8
1
100
AcDbVertex
100
AcDb2dVertex
 10
54.98252202947321
 20
1.827313000000003
 30
0.0
 42
0.033032407
 70
     1
  0
VERTEX
  5
1272
330
124B
100
AcDbEntity
  8
1
100
AcDbVertex
100
AcDb2dVertex
 10
54.96127202947326
 20
1.839688000000008
 30
0.0
 42
0.027906623
  0
VERTEX
  5
1273
330
124B
100
AcDbEntity
  8
1
100
AcDbVertex
100
AcDb2dVertex
 10
54.93683602947328
 20
1.850678000000002
 30
0.0
 42
0.023266977
 70
     1
  0
VERTEX
  5
1274
330
124B
100
AcDbEntity
  8
1
100
AcDbVertex
100
AcDb2dVertex
 10
54.90943302947329
 20
1.860331999999999
 30
0.0
 42
0.019512593
  0
VERTEX
  5
1275
330
124B
100
AcDbEntity
  8
1
100
AcDbVertex
100
AcDb2dVertex
 10
54.87904402947329
 20
1.868588999999999
 30
0.0
 42
0.016370515
 70
     1
  0
VERTEX
  5
1276
330
124B
100
AcDbEntity
  8
1
100
AcDbVertex
100
AcDb2dVertex
 10
54.84589902947329
 20
1.875512999999996
 30
0.0
 42
0.013900061
  0
VERTEX
  5
1277
330
124B
100
AcDbEntity
  8
1
100
AcDbVertex
100
AcDb2dVertex
 10
54.81000802947328
 20
1.881055000000003
 30
0.0
 42
0.011864718
 70
     1
  0
VERTEX
  5
1278
330
124B
100
AcDbEntity
  8
1
100
AcDbVertex
100
AcDb2dVertex
 10
54.7716110294732
 20
1.885288000000002
 30
0.0
 42
0.010248842
  0
VERTEX
  5
1279
330
124B
100
AcDbEntity
  8
1
100
AcDbVertex
100
AcDb2dVertex
 10
54.73074402947322
 20
1.888177999999996
 30
0.0
 42
0.0089132423
 70
     1
  0
VERTEX
  5
127A
330
124B
100
AcDbEntity
  8
1
100
AcDbVertex
100
AcDb2dVertex
 10
54.68764902947322
 20
1.889802999999999
 30
0.0
 42
0.0078290999
  0
VERTEX
  5
127B
330
124B
100
AcDbEntity
  8
1
100
AcDbVertex
100
AcDb2dVertex
 10
54.64238302947329
 20
1.890140999999999
 30
0.0
 42
0.0069263818
 70
     1
  0
VERTEX
  5
127C
330
124B
100
AcDbEntity
  8
1
100
AcDbVertex
100
AcDb2dVertex
 10
54.59518402947328
 20
1.889279
 30
0.0
 42
0.0061743004
  0
VERTEX
  5
127D
330
124B
100
AcDbEntity
  8
1
100
AcDbVertex
100
AcDb2dVertex
 10
54.54613002947319
 20
1.887204000000011
 30
0.0
 42
0.0055447897
 70
     1
  0
VERTEX
  5
127E
330
124B
100
AcDbEntity
  8
1
100
AcDbVertex
100
AcDb2dVertex
 10
54.49544602947332
 20
1.884005
 30
0.0
 42
0.005006581
  0
VERTEX
  5
127F
330
124B
100
AcDbEntity
  8
1
100
AcDbVertex
100
AcDb2dVertex
 10
54.44322502947327
 20
1.879681000000004
 30
0.0
 42
0.0045531771
 70
     1
  0
VERTEX
  5
1280
330
124B
100
AcDbEntity
  8
1
100
AcDbVertex
100
AcDb2dVertex
 10
54.38968002947325
 20
1.874323000000045
 30
0.0
 42
0.00415404
  0
VERTEX
  5
1281
330
124B
100
AcDbEntity
  8
1
100
AcDbVertex
100
AcDb2dVertex
 10
54.33491502947329
 20
1.867936999999996
 30
0.0
 42
0.0038223032
 70
     1
  0
VERTEX
  5
1282
330
124B
100
AcDbEntity
  8
1
100
AcDbVertex
100
AcDb2dVertex
 10
54.27911702947326
 20
1.860611000000048
 30
0.0
 42
0.0035260856
  0
VERTEX
  5
1283
330
124B
100
AcDbEntity
  8
1
100
AcDbVertex
100
AcDb2dVertex
 10
54.22239402947332
 20
1.852358999999991
 30
0.0
 42
0.003266512
 70
     1
  0
VERTEX
  5
1284
330
124B
100
AcDbEntity
  8
1
100
AcDbVertex
100
AcDb2dVertex
 10
54.16494402947328
 20
1.843273999999993
 30
0.0
 42
0.0030176197
  0
VERTEX
  5
1285
330
124B
100
AcDbEntity
  8
1
100
AcDbVertex
100
AcDb2dVertex
 10
54.10688602947328
 20
1.833376999999997
 30
0.0
 42
0.0028459698
 70
     1
  0
VERTEX
  5
1286
330
124B
100
AcDbEntity
  8
1
100
AcDbVertex
100
AcDb2dVertex
 10
54.04827902947328
 20
1.822726000000002
 30
0.0
 42
0.0027094114
  0
VERTEX
  5
1287
330
124B
100
AcDbEntity
  8
1
100
AcDbVertex
100
AcDb2dVertex
 10
53.98919902947326
 20
1.811334000000059
 30
0.0
 42
0.0024859961
 70
     1
  0
VERTEX
  5
1288
330
124B
100
AcDbEntity
  8
1
100
AcDbVertex
100
AcDb2dVertex
 10
53.93015302947327
 20
1.799384000000003
 30
0.0
 42
0.0021895607
  0
VERTEX
  5
1289
330
124B
100
AcDbEntity
  8
1
100
AcDbVertex
100
AcDb2dVertex
 10
53.87137702947327
 20
1.786939000000003
 30
0.0
 42
0.0022894977
 70
     1
  0
VERTEX
  5
128A
330
124B
100
AcDbEntity
  8
1
100
AcDbVertex
100
AcDb2dVertex
 10
53.81150302947322
 20
1.773655000000004
 30
0.0
 42
0.0025931737
  0
VERTEX
  5
128B
330
124B
100
AcDbEntity
  8
1
100
AcDbVertex
100
AcDb2dVertex
 10
53.74998902947329
 20
1.759379000000008
 30
0.0
 42
0.001863722
 70
     1
  0
VERTEX
  5
128C
330
124B
100
AcDbEntity
  8
1
100
AcDbVertex
100
AcDb2dVertex
 10
53.69199402947322
 20
1.745644000000011
 30
0.0
 42
0.0004537166
  0
VERTEX
  5
128D
330
124B
100
AcDbEntity
  8
1
100
AcDbVertex
100
AcDb2dVertex
 10
53.63864402947324
 20
1.732789000000011
 30
0.0
 42
0.0026322384
 70
     1
  0
VERTEX
  5
128E
330
124B
100
AcDbEntity
  8
1
100
AcDbVertex
100
AcDb2dVertex
 10
53.56611702947322
 20
1.714055
 30
0.0
 42
0.004442954
  0
VERTEX
  5
128F
330
124B
100
AcDbEntity
  8
1
100
AcDbVertex
100
AcDb2dVertex
 10
53.44944202947329
 20
1.682310000000043
 30
0.0
 42
0.001999221
 70
     1
  0
VERTEX
  5
1290
330
124B
100
AcDbEntity
  8
1
100
AcDbVertex
100
AcDb2dVertex
 10
53.29364602947329
 20
1.639003999999999
 30
0.0
 42
0.0009916018
  0
SEQEND
  5
1291
330
124B
100
AcDbEntity
  8
1
  0
POLYLINE
  5
1292
330
1F
100
AcDbEntity
  8
1
100
AcDb2dPolyline
 66
     1
 10
0.0
 20
0.0
 30
0.0
 70
     2
  0
VERTEX
  5
1293
330
1292
100
AcDbEntity
  8
1
100
AcDbVertex
100
AcDb2dVertex
 10
53.29364602947329
 20
1.639003999999999
 30
0.0
  0
VERTEX
  5
1294
330
1292
100
AcDbEntity
  8
1
100
AcDbVertex
100
AcDb2dVertex
 10
53.27903302947328
 20
1.638498000000011
 30
0.0
 42
0.0079924058
 70
     1
  0
VERTEX
  5
1295
330
1292
100
AcDbEntity
  8
1
100
AcDbVertex
100
AcDb2dVertex
 10
53.26454302947325
 20
1.637535999999996
 30
0.0
 42
0.0080964302
  0
VERTEX
  5
1296
330
1292
100
AcDbEntity
  8
1
100
AcDbVertex
100
AcDb2dVertex
 10
53.25018002947325
 20
1.636098000000045
 30
0.0
 42
0.0082046922
 70
     1
  0
VERTEX
  5
1297
330
1292
100
AcDbEntity
  8
1
100
AcDbVertex
100
AcDb2dVertex
 10
53.23595202947329
 20
1.634203999999995
 30
0.0
 42
0.0083428181
  0
VERTEX
  5
1298
330
1292
100
AcDbEntity
  8
1
100
AcDbVertex
100
AcDb2dVertex
 10
53.22188502947327
 20
1.631835000000009
 30
0.0
 42
0.008485919
 70
     1
  0
VERTEX
  5
1299
330
1292
100
AcDbEntity
  8
1
100
AcDbVertex
100
AcDb2dVertex
 10
53.20798302947327
 20
1.62900900000001
 30
0.0
 42
0.00862758
  0
VERTEX
  5
129A
330
1292
100
AcDbEntity
  8
1
100
AcDbVertex
100
AcDb2dVertex
 10
53.19426902947327
 20
1.625707000000004
 30
0.0
 42
0.0087749764
 70
     1
  0
VERTEX
  5
129B
330
1292
100
AcDbEntity
  8
1
100
AcDbVertex
100
AcDb2dVertex
 10
53.18074702947328
 20
1.621948000000003
 30
0.0
 42
0.0089346104
  0
VERTEX
  5
129C
330
1292
100
AcDbEntity
  8
1
100
AcDbVertex
100
AcDb2dVertex
 10
53.1674400294732
 20
1.617712999999993
 30
0.0
 42
0.0090936918
 70
     1
  0
VERTEX
  5
129D
330
1292
100
AcDbEntity
  8
1
100
AcDbVertex
100
AcDb2dVertex
 10
53.15435302947321
 20
1.613021000000003
 30
0.0
 42
0.0092609797
  0
VERTEX
  5
129E
330
1292
100
AcDbEntity
  8
1
100
AcDbVertex
100
AcDb2dVertex
 10
53.1415100294733
 20
1.607851999999994
 30
0.0
 42
0.009423746
 70
     1
  0
VERTEX
  5
129F
330
1292
100
AcDbEntity
  8
1
100
AcDbVertex
100
AcDb2dVertex
 10
53.12891302947321
 20
1.602226
 30
0.0
 42
0.0095961901
  0
VERTEX
  5
12A0
330
1292
100
AcDbEntity
  8
1
100
AcDbVertex
100
AcDb2dVertex
 10
53.1165870294733
 20
1.596123000000004
 30
0.0
 42
0.0097577974
 70
     1
  0
VERTEX
  5
12A1
330
1292
100
AcDbEntity
  8
1
100
AcDbVertex
100
AcDb2dVertex
 10
53.10453602947323
 20
1.589562
 30
0.0
 42
0.0099281014
  0
VERTEX
  5
12A2
330
1292
100
AcDbEntity
  8
1
100
AcDbVertex
100
AcDb2dVertex
 10
53.09278302947329
 20
1.582524000000049
 30
0.0
 42
0.010081156
 70
     1
  0
VERTEX
  5
12A3
330
1292
100
AcDbEntity
  8
1
100
AcDbVertex
100
AcDb2dVertex
 10
53.08133202947328
 20
1.575028000000003
 30
0.0
 42
0.010242509
  0
VERTEX
  5
12A4
330
1292
100
AcDbEntity
  8
1
100
AcDbVertex
100
AcDb2dVertex
 10
53.07020802947328
 20
1.567054999999995
 30
0.0
 42
0.010377791
 70
     1
  0
VERTEX
  5
12A5
330
1292
100
AcDbEntity
  8
1
100
AcDbVertex
100
AcDb2dVertex
 10
53.0594120294732
 20
1.558622999999996
 30
0.0
 42
0.010519544
  0
VERTEX
  5
12A6
330
1292
100
AcDbEntity
  8
1
100
AcDbVertex
100
AcDb2dVertex
 10
53.04897202947322
 20
1.549714000000007
 30
0.0
 42
0.010630818
 70
     1
  0
VERTEX
  5
12A7
330
1292
100
AcDbEntity
  8
1
100
AcDbVertex
100
AcDb2dVertex
 10
53.03888702947327
 20
1.540345000000043
 30
0.0
 42
0.01074991
  0
VERTEX
  5
12A8
330
1292
100
AcDbEntity
  8
1
100
AcDbVertex
100
AcDb2dVertex
 10
53.02918502947328
 20
1.530498000000008
 30
0.0
 42
0.010819353
 70
     1
  0
VERTEX
  5
12A9
330
1292
100
AcDbEntity
  8
1
100
AcDbVertex
100
AcDb2dVertex
 10
53.01986602947328
 20
1.520193000000005
 30
0.0
 42
0.01089198
  0
VERTEX
  5
12AA
330
1292
100
AcDbEntity
  8
1
100
AcDbVertex
100
AcDb2dVertex
 10
53.01096102947321
 20
1.509412000000011
 30
0.0
 42
0.010937303
 70
     1
  0
VERTEX
  5
12AB
330
1292
100
AcDbEntity
  8
1
100
AcDbVertex
100
AcDb2dVertex
 10
53.00246002947328
 20
1.49816600000001
 30
0.0
 42
0.01098675
  0
VERTEX
  5
12AC
330
1292
100
AcDbEntity
  8
1
100
AcDbVertex
100
AcDb2dVertex
 10
52.99439502947329
 20
1.486433000000004
 30
0.0
 42
0.010942479
 70
     1
  0
VERTEX
  5
12AD
330
1292
100
AcDbEntity
  8
1
100
AcDbVertex
100
AcDb2dVertex
 10
52.98678002947321
 20
1.474262999999993
 30
0.0
 42
0.010965154
  0
VERTEX
  5
12AE
330
1292
100
AcDbEntity
  8
1
100
AcDbVertex
100
AcDb2dVertex
 10
52.97967302947327
 20
1.461681000000011
 30
0.0
 42
0.010922817
 70
     1
  0
VERTEX
  5
12AF
330
1292
100
AcDbEntity
  8
1
100
AcDbVertex
100
AcDb2dVertex
 10
52.97309102947327
 20
1.448762000000002
 30
0.0
 42
0.010887444
  0
VERTEX
  5
12B0
330
1292
100
AcDbEntity
  8
1
100
AcDbVertex
100
AcDb2dVertex
 10
52.96708502947328
 20
1.435548999999993
 30
0.0
 42
0.010869852
 70
     1
  0
VERTEX
  5
12B1
330
1292
100
AcDbEntity
  8
1
100
AcDbVertex
100
AcDb2dVertex
 10
52.96163702947328
 20
1.422062999999994
 30
0.0
 42
0.010749573
  0
VERTEX
  5
12B2
330
1292
100
AcDbEntity
  8
1
100
AcDbVertex
100
AcDb2dVertex
 10
52.95676502947322
 20
1.408298000000043
 30
0.0
 42
0.010632476
 70
     1
  0
VERTEX
  5
12B3
330
1292
100
AcDbEntity
  8
1
100
AcDbVertex
100
AcDb2dVertex
 10
52.95245202947327
 20
1.394277000000001
 30
0.0
 42
0.010548212
  0
VERTEX
  5
12B4
330
1292
100
AcDbEntity
  8
1
100
AcDbVertex
100
AcDb2dVertex
 10
52.94872702947322
 20
1.380008000000045
 30
0.0
 42
0.010447815
 70
     1
  0
VERTEX
  5
12B5
330
1292
100
AcDbEntity
  8
1
100
AcDbVertex
100
AcDb2dVertex
 10
52.94557102947329
 20
1.365514000000004
 30
0.0
 42
0.010336735
  0
VERTEX
  5
12B6
330
1292
100
AcDbEntity
  8
1
100
AcDbVertex
100
AcDb2dVertex
 10
52.94301102947327
 20
1.350799000000008
 30
0.0
 42
0.010217219
 70
     1
  0
VERTEX
  5
12B7
330
1292
100
AcDbEntity
  8
1
100
AcDbVertex
100
AcDb2dVertex
 10
52.94102802947321
 20
1.335886000000057
 30
0.0
 42
0.010108495
  0
VERTEX
  5
12B8
330
1292
100
AcDbEntity
  8
1
100
AcDbVertex
100
AcDb2dVertex
 10
52.93964902947329
 20
1.320779999999998
 30
0.0
 42
0.009985955
 70
     1
  0
VERTEX
  5
12B9
330
1292
100
AcDbEntity
  8
1
100
AcDbVertex
100
AcDb2dVertex
 10
52.93885602947328
 20
1.305503
 30
0.0
 42
0.0098736847
  0
VERTEX
  5
12BA
330
1292
100
AcDbEntity
  8
1
100
AcDbVertex
100
AcDb2dVertex
 10
52.93867602947328
 20
1.290062000000005
 30
0.0
 42
0.0097468039
 70
     1
  0
VERTEX
  5
12BB
330
1292
100
AcDbEntity
  8
1
100
AcDbVertex
100
AcDb2dVertex
 10
52.93909002947327
 20
1.274477000000004
 30
0.0
 42
0.0096353156
  0
VERTEX
  5
12BC
330
1292
100
AcDbEntity
  8
1
100
AcDbVertex
100
AcDb2dVertex
 10
52.94012602947322
 20
1.258754999999992
 30
0.0
 42
0.0095077753
 70
     1
  0
VERTEX
  5
12BD
330
1292
100
AcDbEntity
  8
1
100
AcDbVertex
100
AcDb2dVertex
 10
52.94176402947329
 20
1.242917000000004
 30
0.0
 42
0.009398964
  0
VERTEX
  5
12BE
330
1292
100
AcDbEntity
  8
1
100
AcDbVertex
100
AcDb2dVertex
 10
52.94403302947327
 20
1.226972000000003
 30
0.0
 42
0.0092700383
 70
     1
  0
VERTEX
  5
12BF
330
1292
100
AcDbEntity
  8
1
100
AcDbVertex
100
AcDb2dVertex
 10
52.94691202947329
 20
1.210936000000002
 30
0.0
 42
0.0091607329
  0
VERTEX
  5
12C0
330
1292
100
AcDbEntity
  8
1
100
AcDbVertex
100
AcDb2dVertex
 10
52.9504300294733
 20
1.194822000000001
 30
0.0
 42
0.009037556
 70
     1
  0
VERTEX
  5
12C1
330
1292
100
AcDbEntity
  8
1
100
AcDbVertex
100
AcDb2dVertex
 10
52.95456802947327
 20
1.178644000000004
 30
0.0
 42
0.0089415159
  0
VERTEX
  5
12C2
330
1292
100
AcDbEntity
  8
1
100
AcDbVertex
100
AcDb2dVertex
 10
52.95935402947321
 20
1.162413999999998
 30
0.0
 42
0.0088048116
 70
     1
  0
VERTEX
  5
12C3
330
1292
100
AcDbEntity
  8
1
100
AcDbVertex
100
AcDb2dVertex
 10
52.9647650294732
 20
1.146152
 30
0.0
 42
0.0086817261
  0
VERTEX
  5
12C4
330
1292
100
AcDbEntity
  8
1
100
AcDbVertex
100
AcDb2dVertex
 10
52.97083002947328
 20
1.129872000000004
 30
0.0
 42
0.008592818
 70
     1
  0
VERTEX
  5
12C5
330
1292
100
AcDbEntity
  8
1
100
AcDbVertex
100
AcDb2dVertex
 10
52.97753902947328
 20
1.113570999999992
 30
0.0
 42
0.0085546727
  0
VERTEX
  5
12C6
330
1292
100
AcDbEntity
  8
1
100
AcDbVertex
100
AcDb2dVertex
 10
52.98492602947328
 20
1.097256000000001
 30
0.0
 42
0.0083358404
 70
     1
  0
VERTEX
  5
12C7
330
1292
100
AcDbEntity
  8
1
100
AcDbVertex
100
AcDb2dVertex
 10
52.99292302947321
 20
1.081012
 30
0.0
 42
0.0081133269
  0
VERTEX
  5
12C8
330
1292
100
AcDbEntity
  8
1
100
AcDbVertex
100
AcDb2dVertex
 10
53.00154602947322
 20
1.064879000000004
 30
0.0
 42
0.0082311928
 70
     1
  0
VERTEX
  5
12C9
330
1292
100
AcDbEntity
  8
1
100
AcDbVertex
100
AcDb2dVertex
 10
53.01095102947328
 20
1.048585000000002
 30
0.0
 42
0.0082416001
  0
VERTEX
  5
12CA
330
1292
100
AcDbEntity
  8
1
100
AcDbVertex
100
AcDb2dVertex
 10
53.02135602947329
 20
1.031870000000012
 30
0.0
 42
0.0080878721
 70
     1
  0
VERTEX
  5
12CB
330
1292
100
AcDbEntity
  8
1
100
AcDbVertex
100
AcDb2dVertex
 10
53.03270302947321
 20
1.014905000000013
 30
0.0
 42
0.0085569801
  0
VERTEX
  5
12CC
330
1292
100
AcDbEntity
  8
1
100
AcDbVertex
100
AcDb2dVertex
 10
53.04493702947333
 20
0.9979440000000041
 30
0.0
 42
0.0085530657
 70
     1
  0
VERTEX
  5
12CD
330
1292
100
AcDbEntity
  8
1
100
AcDbVertex
100
AcDb2dVertex
 10
53.05781402947325
 20
0.9812880000000063
 30
0.0
 42
0.008397784
  0
VERTEX
  5
12CE
330
1292
100
AcDbEntity
  8
1
100
AcDbVertex
100
AcDb2dVertex
 10
53.07115602947328
 20
0.9652119999999939
 30
0.0
 42
0.008420912
 70
     1
  0
VERTEX
  5
12CF
330
1292
100
AcDbEntity
  8
1
100
AcDbVertex
100
AcDb2dVertex
 10
53.0849310294733
 20
0.9496759999999966
 30
0.0
 42
0.0081563457
  0
VERTEX
  5
12D0
330
1292
100
AcDbEntity
  8
1
100
AcDbVertex
100
AcDb2dVertex
 10
53.09917302947321
 20
0.9346420000000108
 30
0.0
 42
0.0079445463
 70
     1
  0
VERTEX
  5
12D1
330
1292
100
AcDbEntity
  8
1
100
AcDbVertex
100
AcDb2dVertex
 10
53.11383402947329
 20
0.92009900000005
 30
0.0
 42
0.0078259117
  0
VERTEX
  5
12D2
330
1292
100
AcDbEntity
  8
1
100
AcDbVertex
100
AcDb2dVertex
 10
53.12889302947319
 20
0.9060850000000611
 30
0.0
 42
0.0077223749
 70
     1
  0
VERTEX
  5
12D3
330
1292
100
AcDbEntity
  8
1
100
AcDbVertex
100
AcDb2dVertex
 10
53.14430602947329
 20
0.892584000000042
 30
0.0
 42
0.0075619693
  0
VERTEX
  5
12D4
330
1292
100
AcDbEntity
  8
1
100
AcDbVertex
100
AcDb2dVertex
 10
53.16006602947329
 20
0.8796150000000011
 30
0.0
 42
0.0074443352
 70
     1
  0
VERTEX
  5
12D5
330
1292
100
AcDbEntity
  8
1
100
AcDbVertex
100
AcDb2dVertex
 10
53.1761290294732
 20
0.8671599999999981
 30
0.0
 42
0.0073267226
  0
VERTEX
  5
12D6
330
1292
100
AcDbEntity
  8
1
100
AcDbVertex
100
AcDb2dVertex
 10
53.19248102947327
 20
0.8552470000000056
 30
0.0
 42
0.0072408167
 70
     1
  0
VERTEX
  5
12D7
330
1292
100
AcDbEntity
  8
1
100
AcDbVertex
100
AcDb2dVertex
 10
53.20908302947322
 20
0.8438569999999996
 30
0.0
 42
0.0071410776
  0
VERTEX
  5
12D8
330
1292
100
AcDbEntity
  8
1
100
AcDbVertex
100
AcDb2dVertex
 10
53.22591902947329
 20
0.8330160000000006
 30
0.0
 42
0.0070767004
 70
     1
  0
VERTEX
  5
12D9
330
1292
100
AcDbEntity
  8
1
100
AcDbVertex
100
AcDb2dVertex
 10
53.24295102947321
 20
0.8227040000000014
 30
0.0
 42
0.0070065823
  0
VERTEX
  5
12DA
330
1292
100
AcDbEntity
  8
1
100
AcDbVertex
100
AcDb2dVertex
 10
53.26016102947328
 20
0.812946999999994
 30
0.0
 42
0.0069710494
 70
     1
  0
VERTEX
  5
12DB
330
1292
100
AcDbEntity
  8
1
100
AcDbVertex
100
AcDb2dVertex
 10
53.27751402947328
 20
0.8037269999999947
 30
0.0
 42
0.0069308142
  0
VERTEX
  5
12DC
330
1292
100
AcDbEntity
  8
1
100
AcDbVertex
100
AcDb2dVertex
 10
53.29498902947328
 20
0.7950699999999955
 30
0.0
 42
0.0069252219
 70
     1
  0
VERTEX
  5
12DD
330
1292
100
AcDbEntity
  8
1
100
AcDbVertex
100
AcDb2dVertex
 10
53.31255302947329
 20
0.7869580000000127
 30
0.0
 42
0.0069211478
  0
VERTEX
  5
12DE
330
1292
100
AcDbEntity
  8
1
100
AcDbVertex
100
AcDb2dVertex
 10
53.33018102947328
 20
0.7794170000000094
 30
0.0
 42
0.006948239
 70
     1
  0
VERTEX
  5
12DF
330
1292
100
AcDbEntity
  8
1
100
AcDbVertex
100
AcDb2dVertex
 10
53.34785102947328
 20
0.7724240000000009
 30
0.0
 42
0.0069618576
  0
VERTEX
  5
12E0
330
1292
100
AcDbEntity
  8
1
100
AcDbVertex
100
AcDb2dVertex
 10
53.36555102947329
 20
0.7659980000000104
 30
0.0
 42
0.0069803936
 70
     1
  0
VERTEX
  5
12E1
330
1292
100
AcDbEntity
  8
1
100
AcDbVertex
100
AcDb2dVertex
 10
53.38329002947328
 20
0.7601039999999985
 30
0.0
 42
0.0069349963
  0
VERTEX
  5
12E2
330
1292
100
AcDbEntity
  8
1
100
AcDbVertex
100
AcDb2dVertex
 10
53.40107802947327
 20
0.7547490000000466
 30
0.0
 42
0.0069332382
 70
     1
  0
VERTEX
  5
12E3
330
1292
100
AcDbEntity
  8
1
100
AcDbVertex
100
AcDb2dVertex
 10
53.41889402947328
 20
0.7499150000000016
 30
0.0
 42
0.0069857139
  0
VERTEX
  5
12E4
330
1292
100
AcDbEntity
  8
1
100
AcDbVertex
100
AcDb2dVertex
 10
53.43671402947329
 20
0.7456260000000015
 30
0.0
 42
0.0070492051
 70
     1
  0
VERTEX
  5
12E5
330
1292
100
AcDbEntity
  8
1
100
AcDbVertex
100
AcDb2dVertex
 10
53.45452002947325
 20
0.7418610000000001
 30
0.0
 42
0.0070975872
  0
VERTEX
  5
12E6
330
1292
100
AcDbEntity
  8
1
100
AcDbVertex
100
AcDb2dVertex
 10
53.47229302947329
 20
0.7386440000000079
 30
0.0
 42
0.0071699491
 70
     1
  0
VERTEX
  5
12E7
330
1292
100
AcDbEntity
  8
1
100
AcDbVertex
100
AcDb2dVertex
 10
53.49001702947322
 20
0.7359530000000092
 30
0.0
 42
0.0072514947
  0
VERTEX
  5
12E8
330
1292
100
AcDbEntity
  8
1
100
AcDbVertex
100
AcDb2dVertex
 10
53.50767002947327
 20
0.7338120000000004
 30
0.0
 42
0.0073517954
 70
     1
  0
VERTEX
  5
12E9
330
1292
100
AcDbEntity
  8
1
100
AcDbVertex
100
AcDb2dVertex
 10
53.5252370294732
 20
0.7321989999999943
 30
0.0
 42
0.0074565927
  0
VERTEX
  5
12EA
330
1292
100
AcDbEntity
  8
1
100
AcDbVertex
100
AcDb2dVertex
 10
53.5426940294733
 20
0.7311370000000041
 30
0.0
 42
0.007580896
 70
     1
  0
VERTEX
  5
12EB
330
1292
100
AcDbEntity
  8
1
100
AcDbVertex
100
AcDb2dVertex
 10
53.56002802947327
 20
0.7306070000000064
 30
0.0
 42
0.0077137466
  0
VERTEX
  5
12EC
330
1292
100
AcDbEntity
  8
1
100
AcDbVertex
100
AcDb2dVertex
 10
53.57721402947328
 20
0.7306300000000051
 30
0.0
 42
0.0078657136
 70
     1
  0
VERTEX
  5
12ED
330
1292
100
AcDbEntity
  8
1
100
AcDbVertex
100
AcDb2dVertex
 10
53.59424102947325
 20
0.7311859999999939
 30
0.0
 42
0.0080287402
  0
VERTEX
  5
12EE
330
1292
100
AcDbEntity
  8
1
100
AcDbVertex
100
AcDb2dVertex
 10
53.61108202947328
 20
0.7322980000000002
 30
0.0
 42
0.0082061806
 70
     1
  0
VERTEX
  5
12EF
330
1292
100
AcDbEntity
  8
1
100
AcDbVertex
100
AcDb2dVertex
 10
53.62772602947321
 20
0.7339450000000057
 30
0.0
 42
0.0083930798
  0
VERTEX
  5
12F0
330
1292
100
AcDbEntity
  8
1
100
AcDbVertex
100
AcDb2dVertex
 10
53.64414602947328
 20
0.736149999999995
 30
0.0
 42
0.0086061066
 70
     1
  0
VERTEX
  5
12F1
330
1292
100
AcDbEntity
  8
1
100
AcDbVertex
100
AcDb2dVertex
 10
53.66033302947329
 20
0.7388930000000045
 30
0.0
 42
0.0088438946
  0
VERTEX
  5
12F2
330
1292
100
AcDbEntity
  8
1
100
AcDbVertex
100
AcDb2dVertex
 10
53.6762590294732
 20
0.7421980000000021
 30
0.0
 42
0.0090542587
 70
     1
  0
VERTEX
  5
12F3
330
1292
100
AcDbEntity
  8
1
100
AcDbVertex
100
AcDb2dVertex
 10
53.69191302947324
 20
0.7460390000000105
 30
0.0
 42
0.0092412168
  0
VERTEX
  5
12F4
330
1292
100
AcDbEntity
  8
1
100
AcDbVertex
100
AcDb2dVertex
 10
53.7072620294732
 20
0.7504390000000001
 30
0.0
 42
0.0095823077
 70
     1
  0
VERTEX
  5
12F5
330
1292
100
AcDbEntity
  8
1
100
AcDbVertex
100
AcDb2dVertex
 10
53.72231502947329
 20
0.7553910000000032
 30
0.0
 42
0.010070856
  0
VERTEX
  5
12F6
330
1292
100
AcDbEntity
  8
1
100
AcDbVertex
100
AcDb2dVertex
 10
53.73704502947329
 20
0.7609259999999978
 30
0.0
 42
0.010043678
 70
     1
  0
VERTEX
  5
12F7
330
1292
100
AcDbEntity
  8
1
100
AcDbVertex
100
AcDb2dVertex
 10
53.75139002947321
 20
0.7669580000000025
 30
0.0
 42
0.0095932947
  0
VERTEX
  5
12F8
330
1292
100
AcDbEntity
  8
1
100
AcDbVertex
100
AcDb2dVertex
 10
53.76529802947328
 20
0.7734889999999979
 30
0.0
 42
0.010929639
 70
     1
  0
VERTEX
  5
12F9
330
1292
100
AcDbEntity
  8
1
100
AcDbVertex
100
AcDb2dVertex
 10
53.77898702947328
 20
0.7807490000000003
 30
0.0
 42
0.013542763
  0
VERTEX
  5
12FA
330
1292
100
AcDbEntity
  8
1
100
AcDbVertex
100
AcDb2dVertex
 10
53.79249902947321
 20
0.7888460000000066
 30
0.0
 42
0.010425257
 70
     1
  0
VERTEX
  5
12FB
330
1292
100
AcDbEntity
  8
1
100
AcDbVertex
100
AcDb2dVertex
 10
53.80495802947326
 20
0.7967720000000469
 30
0.0
 42
0.0032926407
  0
VERTEX
  5
12FC
330
1292
100
AcDbEntity
  8
1
100
AcDbVertex
100
AcDb2dVertex
 10
53.81602702947327
 20
0.8042119999999924
 30
0.0
 42
0.015392855
 70
     1
  0
VERTEX
  5
12FD
330
1292
100
AcDbEntity
  8
1
100
AcDbVertex
100
AcDb2dVertex
 10
53.82915102947329
 20
0.8150370000000036
 30
0.0
 42
0.027695041
  0
VERTEX
  5
12FE
330
1292
100
AcDbEntity
  8
1
100
AcDbVertex
100
AcDb2dVertex
 10
53.84791002947321
 20
0.8333520000000048
 30
0.0
 42
0.01358806
 70
     1
  0
VERTEX
  5
12FF
330
1292
100
AcDbEntity
  8
1
100
AcDbVertex
100
AcDb2dVertex
 10
53.87160602947328
 20
0.8583249999999933
 30
0.0
 42
0.007108459
  0
SEQEND
  5
1300
330
1292
100
AcDbEntity
  8
1
  0
LINE
  5
1301
330
1F
100
AcDbEntity
  8
1
100
AcDbLine
 10
50.00047502947322
 20
-3.0
 30
0.0
 11
54.9138790294732
 21
-3.0
 31
0.0
  0
LINE
  5
1302
330
1F
100
AcDbEntity
  8
1
100
AcDbLine
 10
54.91387702947328
 20
-3.000003999999946
 30
0.0
 11
54.9832430294732
 21
-3.008522999999995
 31
0.0
  0
LINE
  5
1303
330
1F
100
AcDbEntity
  8
1
100
AcDbLine
 10
54.9138790294732
 20
-3.000003999999946
 30
0.0
 11
54.9138790294732
 21
-2.081783999999998
 31
0.0
  0
LINE
  5
1304
330
1F
100
AcDbEntity
  8
SK1
100
AcDbLine
 10
-34.49951697052671
 20
3.0
 30
0.0
 11
-34.99951697052671
 21
2.499996000000051
 31
0.0
  0
LINE
  5
1305
330
1F
100
AcDbEntity
  8
SK1
100
AcDbLine
 10
-34.49951697052671
 20
-3.000003999999946
 30
0.0
 11
-34.49951697052671
 21
3.0
 31
0.0
  0
LINE
  5
1306
330
1F
100
AcDbEntity
  8
SK1
100
AcDbLine
 10
-34.99951697052671
 20
2.5
 30
0.0
 11
-34.99951697052671
 21
-2.5
 31
0.0
  0
LINE
  5
1307
330
1F
100
AcDbEntity
  8
SK1
100
AcDbLine
 10
-34.99951697052671
 20
-2.499998999999944
 30
0.0
 11
-34.49951697052671
 21
-3.000003999999946
 31
0.0
  0
DIMENSION
  5
1308
330
1F
100
AcDbEntity
  8
SK2
100
AcDbDimension
  2
*D46
 10
-38.81194795222306
 20
-2.999999999999998
 30
0.0
 11
-38.81194795222306
 21
17.12190476190476
 31
0.0
 70
   160
  1
%%c<>
  3
GEN-ISO_TDM
100
AcDbAlignedDimension
 13
-34.49951697052671
 23
3.0
 33
0.0
 14
-34.49951697052671
 24
-3.0
 34
0.0
 50
90.0
100
AcDbRotatedDimension
1001
ACAD
1000
DSTYLE
1002
{
1070
   271
1070
     1
1002
}
  0
DIMENSION
  5
130A
330
1F
100
AcDbEntity
  8
2
100
AcDbDimension
  2
*D48
 10
60.00048702947322
 20
7.246906269811161
 30
0.0
 11
12.50048502947325
 21
11.03190626981116
 31
0.0
 70
    32
  3
GEN-ISO_TDM
100
AcDbAlignedDimension
 13
-34.99951697052671
 23
2.5
 33
0.0
 14
60.00048702947322
 24
3.814769999999995
 34
0.0
100
AcDbRotatedDimension
  0
LINE
  5
13B7
330
1F
100
AcDbEntity
  8
SK4
100
AcDbLine
 10
-34.99951697052671
 20
0.0
 30
0.0
 11
50.00047502947322
 21
0.0
 31
0.0
  0
LINE
  5
13C2
330
1F
100
AcDbEntity
  8
SK1
100
AcDbLine
 10
50.00047502947322
 20
3.0
 30
0.0
 11
-34.49951697052671
 21
3.0
 31
0.0
  0
LINE
  5
13C3
330
1F
100
AcDbEntity
  8
4
100
AcDbLine
 10
50.00047502947322
 20
0.0
 30
0.0
 11
56.50518927883718
 21
0.0
 31
0.0
  0
LINE
  5
13C4
330
1F
100
AcDbEntity
  8
3
  6
CONTINUOUS
 62
     7
100
AcDbLine
 10
50.00047502947322
 20
-3.000000000000013
 30
0.0
 11
50.00048702947328
 21
-3.0
 31
0.0
  0
DIMENSION
  5
14AC
330
1F
100
AcDbEntity
  8
2
100
AcDbDimension
  2
*D50
 10
72.81351039318329
 20
3.814769999999991
 30
0.0
 11
69.02851039318329
 21
31.32024619047619
 31
0.0
 70
    32
  1
%%c<>-13.2
  3
GEN-ISO_TDM
100
AcDbAlignedDimension
 13
59.9815237355414
 23
-3.985230000000004
 33
0.0
 14
60.00048702947322
 24
3.814769999999995
 34
0.0
 50
90.0
100
AcDbRotatedDimension
  0
ENDSEC
  0
SECTION
  2
OBJECTS
  0
DICTIONARY
  5
C
330
0
100
AcDbDictionary
  3
ACAD_GROUP
350
D
  3
ACAD_LAYOUT
350
1A
  3
ACAD_MLINESTYLE
350
17
  3
ACAD_PLOTSETTINGS
350
19
  3
ACAD_PLOTSTYLENAME
350
E
  3
ACDBHEADERROUNDTRIPXREC
350
1544
  3
ACDBVARIABLEDICTIONARY
350
16E
  0
DICTIONARY
  5
26A
330
2
100
AcDbDictionary
280
     1
  3
ACAD_LAYERSTATES
360
26B
  0
DICTIONARY
  5
1567
330
1F
100
AcDbDictionary
280
     1
  3
ACAD_LAYOUTSELFREF
360
1568
  0
DICTIONARY
  5
1565
330
1B
100
AcDbDictionary
280
     1
  3
ACAD_LAYOUTSELFREF
360
1566
  0
DICTIONARY
  5
D
102
{ACAD_REACTORS
330
C
102
}
330
C
100
AcDbDictionary
  0
DICTIONARY
  5
1A
102
{ACAD_REACTORS
330
C
102
}
330
C
100
AcDbDictionary
  0
DICTIONARY
  5
17
102
{ACAD_REACTORS
330
C
102
}
330
C
100
AcDbDictionary
  3
STANDARD
350
18
  0
DICTIONARY
  5
19
102
{ACAD_REACTORS
330
C
102
}
330
C
100
AcDbDictionary
  0
ACDBDICTIONARYWDFLT
  5
E
102
{ACAD_REACTORS
330
C
102
}
330
C
100
AcDbDictionary
281
     1
  3
Normal
350
F
100
AcDbDictionaryWithDefault
340
F
  0
DICTIONARY
  5
1544
102
{ACAD_REACTORS
330
C
102
}
330
C
100
AcDbDictionary
  3
CEPSNTYPE
350
154E
  3
DIMSTYLEDATA
350
1552
  3
FINGERPRINTGUID
350
154F
  3
HYPERLINKBASE
350
1547
  3
INSUNITS
350
154D
  3
LAYOUTDICT
350
1549
  3
LWETCUNION
350
154C
  3
PLOTSETDICT
350
154A
  3
PLOTSTYLNAMDICT
350
154B
  3
PSVPSCALE
350
1551
  3
PUCSBASE
350
1555
  3
PUCSORGBACK
350
155B
  3
PUCSORGBOTTOM
350
1557
  3
PUCSORGFRONT
350
155A
  3
PUCSORGLEFT
350
1558
  3
PUCSORGRIGHT
350
1559
  3
PUCSORGTOP
350
1556
  3
PUCSORTHOREF
350
1553
  3
PUCSORTHOVIEW
350
1554
  3
STYLESHEET
350
1548
  3
TSTACKALIGN
350
1545
  3
TSTACKSIZE
350
1546
  3
UCSBASE
350
155E
  3
UCSORGBACK
350
1564
  3
UCSORGBOTTOM
350
1560
  3
UCSORGFRONT
350
1563
  3
UCSORGLEFT
350
1561
  3
UCSORGRIGHT
350
1562
  3
UCSORGTOP
350
155F
  3
UCSORTHOREF
350
155C
  3
UCSORTHOVIEW
350
155D
  3
VERSIONGUID
350
1550
  0
DICTIONARY
  5
16E
102
{ACAD_REACTORS
330
C
102
}
330
C
100
AcDbDictionary
  3
DIMASSOC
350
16F
  0
DICTIONARY
  5
26B
102
{ACAD_REACTORS
330
26A
102
}
330
26A
100
AcDbDictionary
  0
XRECORD
  5
1568
102
{ACAD_REACTORS
330
1567
102
}
330
1567
100
AcDbXrecord
340
1F
  0
XRECORD
  5
1566
102
{ACAD_REACTORS
330
1565
102
}
330
1565
100
AcDbXrecord
340
1B
  0
MLINESTYLE
  5
18
102
{ACAD_REACTORS
330
17
102
}
330
17
100
AcDbMlineStyle
  2
STANDARD
 70
     0
  3

 62
   256
 51
90.0
 52
90.0
 71
     2
 49
0.5
 62
   256
  6
BYLAYER
 49
-0.5
 62
   256
  6
BYLAYER
  0
ACDBPLACEHOLDER
  5
F
102
{ACAD_REACTORS
330
E
102
}
330
E
100
AcDbPlaceHolder
280
     0
  0
XRECORD
  5
154E
102
{ACAD_REACTORS
330
1544
102
}
330
1544
100
AcDbXrecord
 90
        0
  0
XRECORD
  5
1552
102
{ACAD_REACTORS
330
1544
102
}
330
1544
100
AcDbXrecord
1000
DSTYLE
1002
{
1070
   179
 70
     1
1002
}
  0
XRECORD
  5
154F
102
{ACAD_REACTORS
330
1544
102
}
330
1544
100
AcDbXrecord
  1
{76B3E356-359D-4496-8C21-F757528B5EEC}
  0
XRECORD
  5
1547
102
{ACAD_REACTORS
330
1544
102
}
330
1544
100
AcDbXrecord
  1

  0
XRECORD
  5
154D
102
{ACAD_REACTORS
330
1544
102
}
330
1544
100
AcDbXrecord
 90
        4
  0
XRECORD
  5
1549
102
{ACAD_REACTORS
330
1544
102
}
330
1544
100
AcDbXrecord
340
1A
  0
XRECORD
  5
154C
102
{ACAD_REACTORS
330
1544
102
}
330
1544
100
AcDbXrecord
 90
    10269
  0
XRECORD
  5
154A
102
{ACAD_REACTORS
330
1544
102
}
330
1544
100
AcDbXrecord
340
19
  0
XRECORD
  5
154B
102
{ACAD_REACTORS
330
1544
102
}
330
1544
100
AcDbXrecord
340
E
  0
XRECORD
  5
1551
102
{ACAD_REACTORS
330
1544
102
}
330
1544
100
AcDbXrecord
 40
0.0
  0
XRECORD
  5
1555
102
{ACAD_REACTORS
330
1544
102
}
330
1544
100
AcDbXrecord
340
0
  0
XRECORD
  5
155B
102
{ACAD_REACTORS
330
1544
102
}
330
1544
100
AcDbXrecord
 10
0.0
 20
0.0
 30
0.0
  0
XRECORD
  5
1557
102
{ACAD_REACTORS
330
1544
102
}
330
1544
100
AcDbXrecord
 10
0.0
 20
0.0
 30
0.0
  0
XRECORD
  5
155A
102
{ACAD_REACTORS
330
1544
102
}
330
1544
100
AcDbXrecord
 10
0.0
 20
0.0
 30
0.0
  0
XRECORD
  5
1558
102
{ACAD_REACTORS
330
1544
102
}
330
1544
100
AcDbXrecord
 10
0.0
 20
0.0
 30
0.0
  0
XRECORD
  5
1559
102
{ACAD_REACTORS
330
1544
102
}
330
1544
100
AcDbXrecord
 10
0.0
 20
0.0
 30
0.0
  0
XRECORD
  5
1556
102
{ACAD_REACTORS
330
1544
102
}
330
1544
100
AcDbXrecord
 10
0.0
 20
0.0
 30
0.0
  0
XRECORD
  5
1553
102
{ACAD_REACTORS
330
1544
102
}
330
1544
100
AcDbXrecord
340
0
  0
XRECORD
  5
1554
102
{ACAD_REACTORS
330
1544
102
}
330
1544
100
AcDbXrecord
 70
     0
  0
XRECORD
  5
1548
102
{ACAD_REACTORS
330
1544
102
}
330
1544
100
AcDbXrecord
  1

  0
XRECORD
  5
1545
102
{ACAD_REACTORS
330
1544
102
}
330
1544
100
AcDbXrecord
 90
        1
  0
XRECORD
  5
1546
102
{ACAD_REACTORS
330
1544
102
}
330
1544
100
AcDbXrecord
 90
       70
  0
XRECORD
  5
155E
102
{ACAD_REACTORS
330
1544
102
}
330
1544
100
AcDbXrecord
340
0
  0
XRECORD
  5
1564
102
{ACAD_REACTORS
330
1544
102
}
330
1544
100
AcDbXrecord
 10
0.0
 20
0.0
 30
0.0
  0
XRECORD
  5
1560
102
{ACAD_REACTORS
330
1544
102
}
330
1544
100
AcDbXrecord
 10
0.0
 20
0.0
 30
0.0
  0
XRECORD
  5
1563
102
{ACAD_REACTORS
330
1544
102
}
330
1544
100
AcDbXrecord
 10
0.0
 20
0.0
 30
0.0
  0
XRECORD
  5
1561
102
{ACAD_REACTORS
330
1544
102
}
330
1544
100
AcDbXrecord
 10
0.0
 20
0.0
 30
0.0
  0
XRECORD
  5
1562
102
{ACAD_REACTORS
330
1544
102
}
330
1544
100
AcDbXrecord
 10
0.0
 20
0.0
 30
0.0
  0
XRECORD
  5
155F
102
{ACAD_REACTORS
330
1544
102
}
330
1544
100
AcDbXrecord
 10
0.0
 20
0.0
 30
0.0
  0
XRECORD
  5
155C
102
{ACAD_REACTORS
330
1544
102
}
330
1544
100
AcDbXrecord
340
0
  0
XRECORD
  5
155D
102
{ACAD_REACTORS
330
1544
102
}
330
1544
100
AcDbXrecord
 70
     0
  0
XRECORD
  5
1550
102
{ACAD_REACTORS
330
1544
102
}
330
1544
100
AcDbXrecord
  1
{8946AB93-C16C-446C-AC5B-0355FBC2C1C7}
  0
DICTIONARYVAR
  5
16F
102
{ACAD_REACTORS
330
16E
102
}
330
16E
100
DictionaryVariables
280
     0
  1
1
  0
ENDSEC
  0
EOF
